  0
SECTION
  2
HEADER
  9
$ACADVER
  1
AC1015
  9
$ACADMAINTVER
 70
    20
  9
$DWGCODEPAGE
  3
ANSI_932
  9
$INSBASE
 10
0.0
 20
0.0
 30
0.0
  9
$EXTMIN
 10
139.196816621341
 20
-0.1811693038616795
 30
-0.0000000000112498
  9
$EXTMAX
 10
16308.32523385566
 20
11409.92678395885
 30
0.0000000000002956
  9
$LIMMIN
 10
0.0
 20
0.0
  9
$LIMMAX
 10
16800.0
 20
11880.0
  9
$ORTHOMODE
 70
     0
  9
$REGENMODE
 70
     1
  9
$FILLMODE
 70
     1
  9
$QTEXTMODE
 70
     0
  9
$MIRRTEXT
 70
     1
  9
$LTSCALE
 40
20.0
  9
$ATTMODE
 70
     1
  9
$TEXTSIZE
 40
100.0
  9
$TRACEWID
 40
1.0
  9
$TEXTSTYLE
  7
STYLE2
  9
$CLAYER
  8
寸法
  9
$CELTYPE
  6
BYLAYER
  9
$CECOLOR
 62
   256
  9
$CELTSCALE
 40
50.0
  9
$DISPSILH
 70
     0
  9
$DIMSCALE
 40
40.0
  9
$DIMASZ
 40
2.5
  9
$DIMEXO
 40
0.5
  9
$DIMDLI
 40
7.0
  9
$DIMRND
 40
0.0
  9
$DIMDLE
 40
0.0
  9
$DIMEXE
 40
1.5
  9
$DIMTP
 40
0.0
  9
$DIMTM
 40
0.0
  9
$DIMTXT
 40
3.0
  9
$DIMCEN
 40
0.0
  9
$DIMTSZ
 40
0.0
  9
$DIMTOL
 70
     0
  9
$DIMLIM
 70
     0
  9
$DIMTIH
 70
     0
  9
$DIMTOH
 70
     0
  9
$DIMSE1
 70
     0
  9
$DIMSE2
 70
     0
  9
$DIMTAD
 70
     3
  9
$DIMZIN
 70
     8
  9
$DIMBLK
  1

  9
$DIMASO
 70
     1
  9
$DIMSHO
 70
     1
  9
$DIMPOST
  1

  9
$DIMAPOST
  1

  9
$DIMALT
 70
     0
  9
$DIMALTD
 70
     2
  9
$DIMALTF
 40
0.0394
  9
$DIMLFAC
 40
1.0
  9
$DIMTOFL
 70
     1
  9
$DIMTVP
 40
0.0
  9
$DIMTIX
 70
     0
  9
$DIMSOXD
 70
     0
  9
$DIMSAH
 70
     1
  9
$DIMBLK1
  1
DOTSMALL
  9
$DIMBLK2
  1
DOTSMALL
  9
$DIMSTYLE
  2
INABA_S40G
  9
$DIMCLRD
 70
     0
  9
$DIMCLRE
 70
     0
  9
$DIMCLRT
 70
     7
  9
$DIMTFAC
 40
1.0
  9
$DIMGAP
 40
1.0
  9
$DIMJUST
 70
     0
  9
$DIMSD1
 70
     0
  9
$DIMSD2
 70
     0
  9
$DIMTOLJ
 70
     1
  9
$DIMTZIN
 70
     0
  9
$DIMALTZ
 70
     0
  9
$DIMALTTZ
 70
     0
  9
$DIMUPT
 70
     0
  9
$DIMDEC
 70
     1
  9
$DIMTDEC
 70
     1
  9
$DIMALTU
 70
     2
  9
$DIMALTTD
 70
     2
  9
$DIMTXSTY
  7
STYLE1
  9
$DIMAUNIT
 70
     0
  9
$DIMADEC
 70
     0
  9
$DIMALTRND
 40
0.0
  9
$DIMAZIN
 70
     0
  9
$DIMDSEP
 70
    46
  9
$DIMATFIT
 70
     3
  9
$DIMFRAC
 70
     0
  9
$DIMLDRBLK
  1

  9
$DIMLUNIT
 70
     2
  9
$DIMLWD
 70
    -2
  9
$DIMLWE
 70
    -2
  9
$DIMTMOVE
 70
     1
  9
$LUNITS
 70
     2
  9
$LUPREC
 70
     1
  9
$SKETCHINC
 40
1.0
  9
$FILLETRAD
 40
2.299999999999999
  9
$AUNITS
 70
     0
  9
$AUPREC
 70
     0
  9
$MENU
  1
acad
  9
$ELEVATION
 40
0.0
  9
$PELEVATION
 40
0.0
  9
$THICKNESS
 40
0.0
  9
$LIMCHECK
 70
     0
  9
$CHAMFERA
 40
3.0
  9
$CHAMFERB
 40
3.0
  9
$CHAMFERC
 40
0.0
  9
$CHAMFERD
 40
0.0
  9
$SKPOLY
 70
     0
  9
$TDCREATE
 40
2451368.612993866
  9
$TDUCREATE
 40
2451368.237993866
  9
$TDUPDATE
 40
2455757.553328449
  9
$TDUUPDATE
 40
2455757.178328449
  9
$TDINDWG
 40
1.7469177083
  9
$TDUSRTIMER
 40
1.7469177083
  9
$USRTIMER
 70
     1
  9
$ANGBASE
 50
0.0
  9
$ANGDIR
 70
     0
  9
$PDMODE
 70
     3
  9
$PDSIZE
 40
2.0
  9
$PLINEWID
 40
0.0
  9
$SPLFRAME
 70
     0
  9
$SPLINETYPE
 70
     6
  9
$SPLINESEGS
 70
     8
  9
$HANDSEED
  5
20874
  9
$SURFTAB1
 70
     6
  9
$SURFTAB2
 70
     6
  9
$SURFTYPE
 70
     6
  9
$SURFU
 70
     6
  9
$SURFV
 70
     6
  9
$UCSBASE
  2

  9
$UCSNAME
  2

  9
$UCSORG
 10
0.0
 20
0.0
 30
0.0
  9
$UCSXDIR
 10
1.0
 20
0.0
 30
0.0
  9
$UCSYDIR
 10
0.0
 20
1.0
 30
0.0
  9
$UCSORTHOREF
  2

  9
$UCSORTHOVIEW
 70
     0
  9
$UCSORGTOP
 10
0.0
 20
0.0
 30
0.0
  9
$UCSORGBOTTOM
 10
0.0
 20
0.0
 30
0.0
  9
$UCSORGLEFT
 10
0.0
 20
0.0
 30
0.0
  9
$UCSORGRIGHT
 10
0.0
 20
0.0
 30
0.0
  9
$UCSORGFRONT
 10
0.0
 20
0.0
 30
0.0
  9
$UCSORGBACK
 10
0.0
 20
0.0
 30
0.0
  9
$PUCSBASE
  2

  9
$PUCSNAME
  2

  9
$PUCSORG
 10
0.0
 20
0.0
 30
0.0
  9
$PUCSXDIR
 10
1.0
 20
0.0
 30
0.0
  9
$PUCSYDIR
 10
0.0
 20
1.0
 30
0.0
  9
$PUCSORTHOREF
  2

  9
$PUCSORTHOVIEW
 70
     0
  9
$PUCSORGTOP
 10
0.0
 20
0.0
 30
0.0
  9
$PUCSORGBOTTOM
 10
0.0
 20
0.0
 30
0.0
  9
$PUCSORGLEFT
 10
0.0
 20
0.0
 30
0.0
  9
$PUCSORGRIGHT
 10
0.0
 20
0.0
 30
0.0
  9
$PUCSORGFRONT
 10
0.0
 20
0.0
 30
0.0
  9
$PUCSORGBACK
 10
0.0
 20
0.0
 30
0.0
  9
$USERI1
 70
     0
  9
$USERI2
 70
     0
  9
$USERI3
 70
     0
  9
$USERI4
 70
     0
  9
$USERI5
 70
     0
  9
$USERR1
 40
0.0
  9
$USERR2
 40
0.0
  9
$USERR3
 40
0.0
  9
$USERR4
 40
0.0
  9
$USERR5
 40
0.0
  9
$WORLDVIEW
 70
     1
  9
$SHADEDGE
 70
     3
  9
$SHADEDIF
 70
    70
  9
$TILEMODE
 70
     1
  9
$MAXACTVP
 70
    16
  9
$PINSBASE
 10
0.0
 20
0.0
 30
0.0
  9
$PLIMCHECK
 70
     0
  9
$PEXTMIN
 10
1.000000000000000E+20
 20
1.000000000000000E+20
 30
1.000000000000000E+20
  9
$PEXTMAX
 10
-1.000000000000000E+20
 20
-1.000000000000000E+20
 30
-1.000000000000000E+20
  9
$PLIMMIN
 10
0.0
 20
0.0
  9
$PLIMMAX
 10
420.0
 20
297.0
  9
$UNITMODE
 70
     0
  9
$VISRETAIN
 70
     0
  9
$PLINEGEN
 70
     0
  9
$PSLTSCALE
 70
     0
  9
$TREEDEPTH
 70
  3020
  9
$CMLSTYLE
  2
STANDARD
  9
$CMLJUST
 70
     0
  9
$CMLSCALE
 40
1.0
  9
$PROXYGRAPHICS
 70
     1
  9
$MEASUREMENT
 70
     1
  9
$CELWEIGHT
370
    -1
  9
$ENDCAPS
280
     0
  9
$JOINSTYLE
280
     0
  9
$LWDISPLAY
290
     0
  9
$INSUNITS
 70
     0
  9
$HYPERLINKBASE
  1

  9
$STYLESHEET
  1
inaba.ctb
  9
$XEDIT
290
     1
  9
$CEPSNTYPE
380
     0
  9
$PSTYLEMODE
290
     1
  9
$FINGERPRINTGUID
  2
{3B57B35E-7D77-4BBF-81B7-6C583B9EB24C}
  9
$VERSIONGUID
  2
{94505E62-2141-4B53-9803-7B7EC2603643}
  9
$EXTNAMES
290
     1
  9
$PSVPSCALE
 40
0.0
  9
$OLESTARTUP
290
     0
  0
ENDSEC
  0
SECTION
  2
CLASSES
  0
CLASS
  1
ACDBDICTIONARYWDFLT
  2
AcDbDictionaryWithDefault
  3
ObjectDBX Classes
 90
        0
280
     0
281
     0
  0
CLASS
  1
DICTIONARYVAR
  2
AcDbDictionaryVar
  3
ObjectDBX Classes
 90
        0
280
     0
281
     0
  0
CLASS
  1
ACDBPLACEHOLDER
  2
AcDbPlaceHolder
  3
ObjectDBX Classes
 90
        0
280
     0
281
     0
  0
CLASS
  1
LAYOUT
  2
AcDbLayout
  3
ObjectDBX Classes
 90
        0
280
     0
281
     0
  0
ENDSEC
  0
SECTION
  2
TABLES
  0
TABLE
  2
VPORT
  5
746D
330
0
100
AcDbSymbolTable
 70
     4
  0
VPORT
  5
2086C
330
746D
100
AcDbSymbolTableRecord
100
AcDbViewportTableRecord
  2
*Active
 70
     0
 10
0.0
 20
0.0
 11
1.0
 21
1.0
 12
8223.761025238502
 22
5704.608037261909
 13
0.0
 23
0.0
 14
10.0
 24
10.0
 15
10.0
 25
10.0
 16
0.0
 26
0.0
 36
1.0
 17
0.0
 27
0.0
 37
0.0
 40
11497.32946877482
 41
1.528517110266159
 42
50.0
 43
0.0
 44
0.0
 50
0.0
 51
0.0
 71
     0
 72
     0
 73
     1
 74
     0
 75
     0
 76
     0
 77
     0
 78
     0
281
     0
 65
     1
110
0.0
120
0.0
130
0.0
111
1.0
121
0.0
131
0.0
112
0.0
122
1.0
132
0.0
 79
     0
146
0.0
  0
ENDTAB
  0
TABLE
  2
LTYPE
  5
746A
330
0
100
AcDbSymbolTable
 70
     4
  0
LTYPE
  5
7477
330
746A
100
AcDbSymbolTableRecord
100
AcDbLinetypeTableRecord
  2
BYBLOCK
 70
     0
  3

 72
    65
 73
     0
 40
0.0
  0
LTYPE
  5
7478
330
746A
100
AcDbSymbolTableRecord
100
AcDbLinetypeTableRecord
  2
BYLAYER
 70
     0
  3

 72
    65
 73
     0
 40
0.0
  0
LTYPE
  5
7479
330
746A
100
AcDbSymbolTableRecord
100
AcDbLinetypeTableRecord
  2
CONTINUOUS
 70
     0
  3
Solid line
 72
    65
 73
     0
 40
0.0
  0
LTYPE
  5
7816
330
746A
100
AcDbSymbolTableRecord
100
AcDbLinetypeTableRecord
  2
CENTER
 70
     0
  3
____ _ ____ _ ____ _ ____ _ ____ _ ____ _ ____ 
 72
    65
 73
     4
 40
2.0
 49
1.25
 74
     0
 49
-0.25
 74
     0
 49
0.25
 74
     0
 49
-0.25
 74
     0
  0
LTYPE
  5
781A
330
746A
100
AcDbSymbolTableRecord
100
AcDbLinetypeTableRecord
  2
HIDDEN
 70
     0
  3
__ __ __ __ __ __ __ __ __ __ __ __ __ __ __ __
 72
    65
 73
     2
 40
0.375
 49
0.25
 74
     0
 49
-0.125
 74
     0
  0
LTYPE
  5
781B
330
746A
100
AcDbSymbolTableRecord
100
AcDbLinetypeTableRecord
  2
PHANTOM
 70
     0
  3
______  __  __  ______  __  __  ______  __  __ 
 72
    65
 73
     6
 40
2.5
 49
1.25
 74
     0
 49
-0.25
 74
     0
 49
0.25
 74
     0
 49
-0.25
 74
     0
 49
0.25
 74
     0
 49
-0.25
 74
     0
  0
ENDTAB
  0
TABLE
  2
LAYER
  5
7467
102
{ACAD_XDICTIONARY
360
203E4
102
}
330
0
100
AcDbSymbolTable
 70
    13
  0
LAYER
  5
7474
330
7467
100
AcDbSymbolTableRecord
100
AcDbLayerTableRecord
  2
0
 70
     0
 62
     7
  6
CONTINUOUS
370
    -3
390
159AE
  0
LAYER
  5
DEB2
330
7467
100
AcDbSymbolTableRecord
100
AcDbLayerTableRecord
  2
センター
 70
     0
 62
     3
  6
CENTER
370
    -3
390
159AE
  0
LAYER
  5
DEB3
330
7467
100
AcDbSymbolTableRecord
100
AcDbLayerTableRecord
  2
寸法
 70
     0
 62
     4
  6
CONTINUOUS
370
    -3
390
159AE
  0
LAYER
  5
DEB4
330
7467
100
AcDbSymbolTableRecord
100
AcDbLayerTableRecord
  2
部品1
 70
     0
 62
     7
  6
CONTINUOUS
370
    -3
390
159AE
  0
LAYER
  5
DEB5
330
7467
100
AcDbSymbolTableRecord
100
AcDbLayerTableRecord
  2
補助
 70
     0
 62
    -1
  6
CONTINUOUS
370
    -3
390
159AE
  0
LAYER
  5
DEB6
330
7467
100
AcDbSymbolTableRecord
100
AcDbLayerTableRecord
  2
文字
 70
     0
 62
     7
  6
CONTINUOUS
370
    -3
390
159AE
  0
LAYER
  5
F255
330
7467
100
AcDbSymbolTableRecord
100
AcDbLayerTableRecord
  2
DEFPOINTS
 70
     0
 62
     7
  6
CONTINUOUS
290
     0
370
    -3
390
159AE
  0
LAYER
  5
10B54
330
7467
100
AcDbSymbolTableRecord
100
AcDbLayerTableRecord
  2
仕様書枠
 70
     0
 62
   230
  6
CONTINUOUS
370
    -3
390
159AE
  0
LAYER
  5
11729
330
7467
100
AcDbSymbolTableRecord
100
AcDbLayerTableRecord
  2
Ｇ．Ｌ
 70
     0
 62
    30
  6
CONTINUOUS
370
    -3
390
159AE
  0
LAYER
  5
1173F
330
7467
100
AcDbSymbolTableRecord
100
AcDbLayerTableRecord
  2
細線
 70
     0
 62
     5
  6
CONTINUOUS
370
    -3
390
159AE
  0
LAYER
  5
12CC4
330
7467
100
AcDbSymbolTableRecord
100
AcDbLayerTableRecord
  2
想像線
 70
     0
 62
     6
  6
PHANTOM
370
    -3
390
159AE
  0
LAYER
  5
142E2
330
7467
100
AcDbSymbolTableRecord
100
AcDbLayerTableRecord
  2
破線
 70
     0
 62
     2
  6
HIDDEN
370
    -3
390
159AE
  0
LAYER
  5
1F7E9
330
7467
100
AcDbSymbolTableRecord
100
AcDbLayerTableRecord
  2
点線
 70
     0
 62
     2
  6
HIDDEN
370
    -3
390
159AE
  0
ENDTAB
  0
TABLE
  2
STYLE
  5
7468
330
0
100
AcDbSymbolTable
 70
     3
  0
STYLE
  5
7475
330
7468
100
AcDbSymbolTableRecord
100
AcDbTextStyleTableRecord
  2
STANDARD
 70
     0
 40
0.0
 41
1.0
 50
0.0
 71
     0
 42
4.0
  3
txt
  4
C:\AutoCAD LT\bigfont.shx
  0
STYLE
  5
F706
330
7468
100
AcDbSymbolTableRecord
100
AcDbTextStyleTableRecord
  2
STYLE1
 70
     0
 40
0.0
 41
1.0
 50
0.0
 71
     0
 42
100.0
  3
isocp.shx
  4
bigfont.shx
  0
STYLE
  5
103BF
330
7468
100
AcDbSymbolTableRecord
100
AcDbTextStyleTableRecord
  2
STYLE2
 70
     0
 40
0.0
 41
1.0
 50
0.0
 71
     0
 42
100.0
  3
MS PGothic.ttf
  4

1001
ACAD
1000
MS PGothic
1071
    32818
  0
ENDTAB
  0
TABLE
  2
VIEW
  5
746B
330
0
100
AcDbSymbolTable
 70
     0
  0
ENDTAB
  0
TABLE
  2
UCS
  5
746C
330
0
100
AcDbSymbolTable
 70
     0
  0
ENDTAB
  0
TABLE
  2
APPID
  5
746E
330
0
100
AcDbSymbolTable
 70
     6
  0
APPID
  5
7476
330
746E
100
AcDbSymbolTableRecord
100
AcDbRegAppTableRecord
  2
ACAD
 70
     0
  0
APPID
  5
DEA9
330
746E
100
AcDbSymbolTableRecord
100
AcDbRegAppTableRecord
  2
CONTENTBLOCKICON
 70
     0
  0
APPID
  5
DEAA
330
746E
100
AcDbSymbolTableRecord
100
AcDbRegAppTableRecord
  2
CONTENTBLOCKDESCRIPTION
 70
     0
  0
APPID
  5
E71D
330
746E
100
AcDbSymbolTableRecord
100
AcDbRegAppTableRecord
  2
CONTENTTABDATA
 70
     0
  0
APPID
  5
E71E
330
746E
100
AcDbSymbolTableRecord
100
AcDbRegAppTableRecord
  2
CONTENTCURRENTTAB
 70
     0
  0
APPID
  5
F3BA
330
746E
100
AcDbSymbolTableRecord
100
AcDbRegAppTableRecord
  2
DRAWINGVARIABLESXDATA
 70
     0
  0
ENDTAB
  0
TABLE
  2
DIMSTYLE
  5
746F
330
0
100
AcDbSymbolTable
 70
     2
100
AcDbDimStyleTable
 71
     1
340
F71F
  0
DIMSTYLE
105
F71F
102
{ACAD_REACTORS
330
1D93F
330
1D93E
330
1D926
330
1D925
330
1D920
330
1D91D
330
1D934
330
1D933
330
1D92D
330
1D92C
330
1D929
330
1D927
330
1D91C
330
1D91B
330
1D959
330
1D942
330
1D940
330
1F2B6
330
1F2D0
330
1FA1D
330
1FFBE
330
1FFCB
330
206EA
330
20702
102
}
330
746F
100
AcDbSymbolTableRecord
100
AcDbDimStyleTableRecord
  2
INABA_S40G
 70
     0
 40
40.0
 41
2.5
 42
0.5
 43
7.0
 44
1.5
 73
     0
 74
     0
 77
     3
 78
     8
140
3.0
141
0.0
143
0.0394
147
1.0
172
     1
173
     1
174
     1
178
     7
271
     1
288
     1
340
F706
341
F770
343
F770
344
F770
  0
DIMSTYLE
105
1C645
102
{ACAD_REACTORS
330
20532
330
20539
330
2053C
330
2059C
330
20529
330
2052A
102
}
330
746F
100
AcDbSymbolTableRecord
100
AcDbDimStyleTableRecord
  2
INABA_S50G
 70
     0
 40
0.0
 41
125.0
 42
25.0
 43
7.0
 44
75.0
 73
     0
 74
     0
 77
     3
 78
     8
140
150.0
141
0.0
143
0.0394
147
25.0
172
     1
173
     1
174
     1
178
     7
271
     1
340
F706
341
F770
343
F770
344
F770
  0
ENDTAB
  0
TABLE
  2
BLOCK_RECORD
  5
7466
330
0
100
AcDbSymbolTable
 70
    31
  0
BLOCK_RECORD
  5
747D
330
7466
100
AcDbSymbolTableRecord
100
AcDbBlockTableRecord
  2
*MODEL_SPACE
340
159B3
  0
BLOCK_RECORD
  5
747A
330
7466
100
AcDbSymbolTableRecord
100
AcDbBlockTableRecord
  2
*PAPER_SPACE
340
159B4
  0
BLOCK_RECORD
  5
F770
330
7466
100
AcDbSymbolTableRecord
100
AcDbBlockTableRecord
  2
_DOTSMALL
340
0
102
{BLKREFS
331
1FA98
331
1FA99
331
1FAA2
331
1FAA3
331
1FAE5
331
1FAE6
331
1FAEF
331
1FAF0
331
1FEED
331
1FEEE
331
1FEF7
331
1FEF8
331
1FF44
331
1FF45
331
1FF4D
331
1FF4E
331
1FF56
331
1FF57
331
1FF6A
331
1FF6B
331
1FF73
331
1FF74
331
1FF87
331
1FF88
331
1FF91
331
1FF92
331
1FF9C
331
1FF9D
331
1FFA6
331
1FFA7
331
1FFAF
331
1FFB0
331
1FFB8
331
1FFB9
331
1FFC3
331
1FFC4
331
1FFD0
331
1FFD1
331
206A3
331
206A4
331
206AB
331
206AC
331
206B4
331
206B5
331
206BE
331
206BF
331
206C5
331
206C6
331
206D1
331
206D2
331
20760
331
20761
331
20785
331
20786
331
207C0
331
207C1
331
20835
331
20836
102
}
  0
BLOCK_RECORD
  5
1C530
330
7466
100
AcDbSymbolTableRecord
100
AcDbBlockTableRecord
  2
_NONE
340
0
  0
BLOCK_RECORD
  5
1DA44
330
7466
100
AcDbSymbolTableRecord
100
AcDbBlockTableRecord
  2
*D2
340
0
  0
BLOCK_RECORD
  5
1DA51
330
7466
100
AcDbSymbolTableRecord
100
AcDbBlockTableRecord
  2
*D3
340
0
  0
BLOCK_RECORD
  5
1DA5E
330
7466
100
AcDbSymbolTableRecord
100
AcDbBlockTableRecord
  2
*D4
340
0
  0
BLOCK_RECORD
  5
1DA69
330
7466
100
AcDbSymbolTableRecord
100
AcDbBlockTableRecord
  2
*D5
340
0
  0
BLOCK_RECORD
  5
1DA74
330
7466
100
AcDbSymbolTableRecord
100
AcDbBlockTableRecord
  2
*D6
340
0
  0
BLOCK_RECORD
  5
1DA81
330
7466
100
AcDbSymbolTableRecord
100
AcDbBlockTableRecord
  2
*D7
340
0
  0
BLOCK_RECORD
  5
1DA8E
330
7466
100
AcDbSymbolTableRecord
100
AcDbBlockTableRecord
  2
*D8
340
0
  0
BLOCK_RECORD
  5
1DA9A
330
7466
100
AcDbSymbolTableRecord
100
AcDbBlockTableRecord
  2
*D9
340
0
  0
BLOCK_RECORD
  5
1DAA5
330
7466
100
AcDbSymbolTableRecord
100
AcDbBlockTableRecord
  2
*D10
340
0
  0
BLOCK_RECORD
  5
1DAB2
330
7466
100
AcDbSymbolTableRecord
100
AcDbBlockTableRecord
  2
*D11
340
0
  0
BLOCK_RECORD
  5
1DABE
330
7466
100
AcDbSymbolTableRecord
100
AcDbBlockTableRecord
  2
*D12
340
0
  0
BLOCK_RECORD
  5
1DACB
330
7466
100
AcDbSymbolTableRecord
100
AcDbBlockTableRecord
  2
*D13
340
0
  0
BLOCK_RECORD
  5
1DAD9
330
7466
100
AcDbSymbolTableRecord
100
AcDbBlockTableRecord
  2
*D14
340
0
  0
BLOCK_RECORD
  5
1DAE6
330
7466
100
AcDbSymbolTableRecord
100
AcDbBlockTableRecord
  2
*D15
340
0
  0
BLOCK_RECORD
  5
1DAF3
330
7466
100
AcDbSymbolTableRecord
100
AcDbBlockTableRecord
  2
*D16
340
0
  0
BLOCK_RECORD
  5
1DB1A
330
7466
100
AcDbSymbolTableRecord
100
AcDbBlockTableRecord
  2
*D17
340
0
  0
BLOCK_RECORD
  5
1F2B7
330
7466
100
AcDbSymbolTableRecord
100
AcDbBlockTableRecord
  2
*D18
340
0
  0
BLOCK_RECORD
  5
1F2D1
330
7466
100
AcDbSymbolTableRecord
100
AcDbBlockTableRecord
  2
*D19
340
0
  0
BLOCK_RECORD
  5
1FA1E
330
7466
100
AcDbSymbolTableRecord
100
AcDbBlockTableRecord
  2
*D20
340
0
  0
BLOCK_RECORD
  5
1FFBF
330
7466
100
AcDbSymbolTableRecord
100
AcDbBlockTableRecord
  2
*D21
340
0
  0
BLOCK_RECORD
  5
1FFCC
330
7466
100
AcDbSymbolTableRecord
100
AcDbBlockTableRecord
  2
*D22
340
0
  0
BLOCK_RECORD
  5
20656
330
7466
100
AcDbSymbolTableRecord
100
AcDbBlockTableRecord
  2
*D23
340
0
  0
BLOCK_RECORD
  5
20662
330
7466
100
AcDbSymbolTableRecord
100
AcDbBlockTableRecord
  2
*D24
340
0
  0
BLOCK_RECORD
  5
2066E
330
7466
100
AcDbSymbolTableRecord
100
AcDbBlockTableRecord
  2
*D25
340
0
  0
BLOCK_RECORD
  5
2067A
330
7466
100
AcDbSymbolTableRecord
100
AcDbBlockTableRecord
  2
*D26
340
0
  0
BLOCK_RECORD
  5
20686
330
7466
100
AcDbSymbolTableRecord
100
AcDbBlockTableRecord
  2
*D27
340
0
  0
BLOCK_RECORD
  5
20691
330
7466
100
AcDbSymbolTableRecord
100
AcDbBlockTableRecord
  2
*D28
340
0
  0
BLOCK_RECORD
  5
206EB
330
7466
100
AcDbSymbolTableRecord
100
AcDbBlockTableRecord
  2
*D29
340
0
  0
BLOCK_RECORD
  5
20703
330
7466
100
AcDbSymbolTableRecord
100
AcDbBlockTableRecord
  2
*D30
340
0
  0
ENDTAB
  0
ENDSEC
  0
SECTION
  2
BLOCKS
  0
BLOCK
  5
7489
330
747D
100
AcDbEntity
  8
0
100
AcDbBlockBegin
  2
*MODEL_SPACE
 70
     0
 10
0.0
 20
0.0
 30
0.0
  3
*MODEL_SPACE
  1

  0
ENDBLK
  5
748A
330
747D
100
AcDbEntity
  8
0
100
AcDbBlockEnd
  0
BLOCK
  5
7487
330
747A
100
AcDbEntity
 67
     1
  8
0
100
AcDbBlockBegin
  2
*PAPER_SPACE
 70
     0
 10
0.0
 20
0.0
 30
0.0
  3
*PAPER_SPACE
  1

  0
ENDBLK
  5
7488
330
747A
100
AcDbEntity
 67
     1
  8
0
100
AcDbBlockEnd
  0
BLOCK
  5
F771
330
F770
100
AcDbEntity
  8
0
 48
50.0
100
AcDbBlockBegin
  2
_DOTSMALL
 70
     0
 10
0.0
 20
0.0
 30
0.0
  3
_DOTSMALL
  1

  0
LWPOLYLINE
  5
F772
330
F770
100
AcDbEntity
  8
0
  6
ByBlock
 62
     0
 48
50.0
100
AcDbPolyline
 90
        2
 70
     1
 43
0.5
 10
-0.0625
 20
0.0
 42
1.0
 10
0.0625
 20
0.0
 42
1.0
  0
ENDBLK
  5
F776
330
F770
100
AcDbEntity
  8
0
 48
50.0
100
AcDbBlockEnd
  0
BLOCK
  5
1C531
330
1C530
100
AcDbEntity
  8
0
 48
50.0
100
AcDbBlockBegin
  2
_NONE
 70
     0
 10
0.0
 20
0.0
 30
0.0
  3
_NONE
  1

  0
CIRCLE
  5
1C532
330
1C530
100
AcDbEntity
  8
0
  6
ByBlock
 62
     0
 48
50.0
100
AcDbCircle
 10
0.0
 20
0.0
 30
0.0
 40
0.25
  0
ENDBLK
  5
1C533
330
1C530
100
AcDbEntity
  8
0
 48
50.0
100
AcDbBlockEnd
  0
BLOCK
  5
1DA4F
330
1DA44
100
AcDbEntity
  8
0
 48
50.0
100
AcDbBlockBegin
  2
*D2
 70
     1
 10
0.0
 20
0.0
 30
0.0
  3
*D2
  1

  0
LINE
  5
1FAEB
330
1DA44
100
AcDbEntity
  8
寸法
 62
     0
 48
50.0
370
    -2
100
AcDbLine
 10
7573.599999999998
 20
5658.925205146508
 30
0.0
 11
7830.307249876097
 21
5658.925205146508
 31
0.0
  0
LINE
  5
1FAEC
330
1DA44
100
AcDbEntity
  8
寸法
 62
     0
 48
50.0
370
    -2
100
AcDbLine
 10
7573.599999999998
 20
5788.92520514651
 30
0.0
 11
7830.307249876097
 21
5788.92520514651
 31
0.0
  0
LINE
  5
1FAED
330
1DA44
100
AcDbEntity
  8
寸法
 62
     0
 48
50.0
370
    -2
100
AcDbLine
 10
7770.307249876097
 20
5658.925205146508
 30
0.0
 11
7770.307249876097
 21
5788.92520514651
 31
0.0
  0
LINE
  5
1FAEE
330
1DA44
100
AcDbEntity
  8
寸法
 62
     0
 48
50.0
370
    -2
100
AcDbLine
 10
7770.307249876097
 20
5788.92520514651
 30
0.0
 11
7770.307249876097
 21
6161.019693335486
 31
0.0
  0
INSERT
  5
1FAEF
330
1DA44
100
AcDbEntity
  8
寸法
 62
     0
 48
50.0
370
    -2
100
AcDbBlockReference
  2
_DOTSMALL
 10
7770.307249876097
 20
5658.925205146508
 30
0.0
 41
100.0
 42
100.0
 43
100.0
 50
270.0
  0
INSERT
  5
1FAF0
330
1DA44
100
AcDbEntity
  8
寸法
 62
     0
 48
50.0
370
    -2
100
AcDbBlockReference
  2
_DOTSMALL
 10
7770.307249876097
 20
5788.92520514651
 30
0.0
 41
100.0
 42
100.0
 43
100.0
 50
90.0
  0
MTEXT
  5
1FAF1
330
1DA44
100
AcDbEntity
  8
寸法
 62
     7
 48
50.0
100
AcDbMText
 10
7670.307249876096
 20
6024.972449240999
 30
0.0
 40
120.0
 41
0.0
 71
     5
 72
     1
  1
\A1;130
  7
STYLE1
 11
0.0000000000000001
 21
1.0
 31
0.0
 73
     1
 44
1.0
1001
ACAD
1000
MTEXTBEGIN
1070
    73
1070
     1
1070
    44
1040
1.0
1070
    74
1070
     0
1000
MTEXTEND
  0
POINT
  5
1FAF2
330
1DA44
100
AcDbEntity
  8
DEFPOINTS
 62
     0
 48
50.0
100
AcDbPoint
 10
7553.599999999999
 20
5658.925205146508
 30
0.0
  0
POINT
  5
1FAF3
330
1DA44
100
AcDbEntity
  8
DEFPOINTS
 62
     0
 48
50.0
100
AcDbPoint
 10
7553.599999999999
 20
5788.92520514651
 30
0.0
  0
POINT
  5
1FAF4
330
1DA44
100
AcDbEntity
  8
DEFPOINTS
 62
     0
 48
50.0
100
AcDbPoint
 10
7770.307249876097
 20
5788.92520514651
 30
0.0
  0
ENDBLK
  5
1DA50
330
1DA44
100
AcDbEntity
  8
0
 48
50.0
100
AcDbBlockEnd
  0
BLOCK
  5
1DA5C
330
1DA51
100
AcDbEntity
  8
0
 48
50.0
100
AcDbBlockBegin
  2
*D3
 70
     1
 10
0.0
 20
0.0
 30
0.0
  3
*D3
  1

  0
LINE
  5
1FAE1
330
1DA51
100
AcDbEntity
  8
寸法
 62
     0
 48
50.0
370
    -2
100
AcDbLine
 10
7573.599999999998
 20
5658.92520514651
 30
0.0
 11
7830.307249876097
 21
5658.92520514651
 31
0.0
  0
LINE
  5
1FAE2
330
1DA51
100
AcDbEntity
  8
寸法
 62
     0
 48
50.0
370
    -2
100
AcDbLine
 10
7573.599999999998
 20
5488.925205146508
 30
0.0
 11
7830.307249876097
 21
5488.925205146508
 31
0.0
  0
LINE
  5
1FAE3
330
1DA51
100
AcDbEntity
  8
寸法
 62
     0
 48
50.0
370
    -2
100
AcDbLine
 10
7770.307249876097
 20
5658.92520514651
 30
0.0
 11
7770.307249876097
 21
5488.925205146508
 31
0.0
  0
LINE
  5
1FAE4
330
1DA51
100
AcDbEntity
  8
寸法
 62
     0
 48
50.0
370
    -2
100
AcDbLine
 10
7770.307249876097
 20
5488.925205146508
 30
0.0
 11
7770.307249876097
 21
5116.830716957532
 31
0.0
  0
INSERT
  5
1FAE5
330
1DA51
100
AcDbEntity
  8
寸法
 62
     0
 48
50.0
370
    -2
100
AcDbBlockReference
  2
_DOTSMALL
 10
7770.307249876097
 20
5658.92520514651
 30
0.0
 41
100.0
 42
100.0
 43
100.0
 50
90.0
  0
INSERT
  5
1FAE6
330
1DA51
100
AcDbEntity
  8
寸法
 62
     0
 48
50.0
370
    -2
100
AcDbBlockReference
  2
_DOTSMALL
 10
7770.307249876097
 20
5488.925205146508
 30
0.0
 41
100.0
 42
100.0
 43
100.0
 50
270.0
  0
MTEXT
  5
1FAE7
330
1DA51
100
AcDbEntity
  8
寸法
 62
     7
 48
50.0
100
AcDbMText
 10
7670.307249876096
 20
5252.87796105202
 30
0.0
 40
120.0
 41
0.0
 71
     5
 72
     1
  1
\A1;170
  7
STYLE1
 11
0.0000000000000001
 21
1.0
 31
0.0
 73
     1
 44
1.0
1001
ACAD
1000
MTEXTBEGIN
1070
    73
1070
     1
1070
    44
1040
1.0
1070
    74
1070
     0
1000
MTEXTEND
  0
POINT
  5
1FAE8
330
1DA51
100
AcDbEntity
  8
DEFPOINTS
 62
     0
 48
50.0
100
AcDbPoint
 10
7553.599999999999
 20
5658.92520514651
 30
0.0
  0
POINT
  5
1FAE9
330
1DA51
100
AcDbEntity
  8
DEFPOINTS
 62
     0
 48
50.0
100
AcDbPoint
 10
7553.599999999999
 20
5488.925205146508
 30
0.0
  0
POINT
  5
1FAEA
330
1DA51
100
AcDbEntity
  8
DEFPOINTS
 62
     0
 48
50.0
100
AcDbPoint
 10
7770.307249876097
 20
5488.925205146508
 30
0.0
  0
ENDBLK
  5
1DA5D
330
1DA51
100
AcDbEntity
  8
0
 48
50.0
100
AcDbBlockEnd
  0
BLOCK
  5
1DA67
330
1DA5E
100
AcDbEntity
  8
0
 48
50.0
100
AcDbBlockBegin
  2
*D4
 70
     1
 10
0.0
 20
0.0
 30
0.0
  3
*D4
  1

  0
LINE
  5
1FFB5
330
1DA5E
100
AcDbEntity
  8
寸法
 62
     0
 48
50.0
370
    -2
100
AcDbLine
 10
8580.599999999998
 20
8075.925205146507
 30
0.0
 11
8580.599999999998
 21
8993.985815536436
 31
0.0
  0
LINE
  5
1FFB6
330
1DA5E
100
AcDbEntity
  8
寸法
 62
     0
 48
50.0
370
    -2
100
AcDbLine
 10
7446.6
 20
8075.925205146507
 30
0.0
 11
7446.6
 21
8993.985815536436
 31
0.0
  0
LINE
  5
1FFB7
330
1DA5E
100
AcDbEntity
  8
寸法
 62
     0
 48
50.0
370
    -2
100
AcDbLine
 10
8580.599999999998
 20
8933.985815536436
 30
0.0
 11
7446.6
 21
8933.985815536436
 31
0.0
  0
INSERT
  5
1FFB8
330
1DA5E
100
AcDbEntity
  8
寸法
 62
     0
 48
50.0
370
    -2
100
AcDbBlockReference
  2
_DOTSMALL
 10
8580.599999999998
 20
8933.985815536436
 30
0.0
 41
100.0
 42
100.0
 43
100.0
  0
INSERT
  5
1FFB9
330
1DA5E
100
AcDbEntity
  8
寸法
 62
     0
 48
50.0
370
    -2
100
AcDbBlockReference
  2
_DOTSMALL
 10
7446.6
 20
8933.985815536436
 30
0.0
 41
100.0
 42
100.0
 43
100.0
 50
180.0
  0
MTEXT
  5
1FFBA
330
1DA5E
100
AcDbEntity
  8
寸法
 62
     7
 48
50.0
100
AcDbMText
 10
8013.599999999998
 20
9033.985815536437
 30
0.0
 40
120.0
 41
0.0
 71
     5
 72
     1
  1
\A1;1134
  7
STYLE1
 73
     1
 44
1.0
1001
ACAD
1000
MTEXTBEGIN
1070
    73
1070
     1
1070
    44
1040
1.0
1070
    74
1070
     0
1000
MTEXTEND
  0
POINT
  5
1FFBB
330
1DA5E
100
AcDbEntity
  8
DEFPOINTS
 62
     0
 48
50.0
100
AcDbPoint
 10
8580.599999999998
 20
8055.925205146506
 30
0.0
  0
POINT
  5
1FFBC
330
1DA5E
100
AcDbEntity
  8
DEFPOINTS
 62
     0
 48
50.0
100
AcDbPoint
 10
7446.6
 20
8055.925205146506
 30
0.0
  0
POINT
  5
1FFBD
330
1DA5E
100
AcDbEntity
  8
DEFPOINTS
 62
     0
 48
50.0
100
AcDbPoint
 10
7446.6
 20
8933.985815536436
 30
0.0
  0
ENDBLK
  5
1DA68
330
1DA5E
100
AcDbEntity
  8
0
 48
50.0
100
AcDbBlockEnd
  0
BLOCK
  5
1DA72
330
1DA69
100
AcDbEntity
  8
0
 48
50.0
100
AcDbBlockBegin
  2
*D5
 70
     1
 10
0.0
 20
0.0
 30
0.0
  3
*D5
  1

  0
LINE
  5
1FFAC
330
1DA69
100
AcDbEntity
  8
寸法
 62
     0
 48
50.0
370
    -2
100
AcDbLine
 10
7323.599999999998
 20
8148.925205146507
 30
0.0
 11
7323.599999999998
 21
9206.446511053274
 31
0.0
  0
LINE
  5
1FFAD
330
1DA69
100
AcDbEntity
  8
寸法
 62
     0
 48
50.0
370
    -2
100
AcDbLine
 10
8703.599999999999
 20
8148.925205146507
 30
0.0
 11
8703.599999999999
 21
9206.446511053274
 31
0.0
  0
LINE
  5
1FFAE
330
1DA69
100
AcDbEntity
  8
寸法
 62
     0
 48
50.0
370
    -2
100
AcDbLine
 10
7323.599999999998
 20
9146.446511053273
 30
0.0
 11
8703.599999999999
 21
9146.446511053273
 31
0.0
  0
INSERT
  5
1FFAF
330
1DA69
100
AcDbEntity
  8
寸法
 62
     0
 48
50.0
370
    -2
100
AcDbBlockReference
  2
_DOTSMALL
 10
7323.599999999998
 20
9146.446511053273
 30
0.0
 41
100.0
 42
100.0
 43
100.0
 50
180.0
  0
INSERT
  5
1FFB0
330
1DA69
100
AcDbEntity
  8
寸法
 62
     0
 48
50.0
370
    -2
100
AcDbBlockReference
  2
_DOTSMALL
 10
8703.599999999999
 20
9146.446511053273
 30
0.0
 41
100.0
 42
100.0
 43
100.0
  0
MTEXT
  5
1FFB1
330
1DA69
100
AcDbEntity
  8
寸法
 62
     7
 48
50.0
100
AcDbMText
 10
8013.599999999998
 20
9246.446511053273
 30
0.0
 40
120.0
 41
0.0
 71
     5
 72
     1
  1
\A1;1380
  7
STYLE1
 73
     1
 44
1.0
1001
ACAD
1000
MTEXTBEGIN
1070
    73
1070
     1
1070
    44
1040
1.0
1070
    74
1070
     0
1000
MTEXTEND
  0
POINT
  5
1FFB2
330
1DA69
100
AcDbEntity
  8
DEFPOINTS
 62
     0
 48
50.0
100
AcDbPoint
 10
7323.599999999998
 20
8128.925205146506
 30
0.0
  0
POINT
  5
1FFB3
330
1DA69
100
AcDbEntity
  8
DEFPOINTS
 62
     0
 48
50.0
100
AcDbPoint
 10
8703.599999999999
 20
8128.925205146506
 30
0.0
  0
POINT
  5
1FFB4
330
1DA69
100
AcDbEntity
  8
DEFPOINTS
 62
     0
 48
50.0
100
AcDbPoint
 10
8703.599999999999
 20
9146.446511053273
 30
0.0
  0
ENDBLK
  5
1DA73
330
1DA69
100
AcDbEntity
  8
0
 48
50.0
100
AcDbBlockEnd
  0
BLOCK
  5
1DA7F
330
1DA74
100
AcDbEntity
  8
0
 48
50.0
100
AcDbBlockBegin
  2
*D6
 70
     1
 10
0.0
 20
0.0
 30
0.0
  3
*D6
  1

  0
LINE
  5
1FFA2
330
1DA74
100
AcDbEntity
  8
寸法
 62
     0
 48
50.0
370
    -2
100
AcDbLine
 10
7446.6
 20
8075.925205146507
 30
0.0
 11
7446.6
 21
8993.985815536436
 31
0.0
  0
LINE
  5
1FFA3
330
1DA74
100
AcDbEntity
  8
寸法
 62
     0
 48
50.0
370
    -2
100
AcDbLine
 10
7323.599999999998
 20
8148.925205146507
 30
0.0
 11
7323.599999999998
 21
8993.985815536436
 31
0.0
  0
LINE
  5
1FFA4
330
1DA74
100
AcDbEntity
  8
寸法
 62
     0
 48
50.0
370
    -2
100
AcDbLine
 10
7446.6
 20
8933.985815536436
 30
0.0
 11
7323.599999999998
 21
8933.985815536436
 31
0.0
  0
LINE
  5
1FFA5
330
1DA74
100
AcDbEntity
  8
寸法
 62
     0
 48
50.0
370
    -2
100
AcDbLine
 10
7323.599999999998
 20
8933.985815536436
 30
0.0
 11
6946.62943725152
 21
8933.985815536436
 31
0.0
  0
INSERT
  5
1FFA6
330
1DA74
100
AcDbEntity
  8
寸法
 62
     0
 48
50.0
370
    -2
100
AcDbBlockReference
  2
_DOTSMALL
 10
7446.6
 20
8933.985815536436
 30
0.0
 41
100.0
 42
100.0
 43
100.0
  0
INSERT
  5
1FFA7
330
1DA74
100
AcDbEntity
  8
寸法
 62
     0
 48
50.0
370
    -2
100
AcDbBlockReference
  2
_DOTSMALL
 10
7323.599999999998
 20
8933.985815536436
 30
0.0
 41
100.0
 42
100.0
 43
100.0
 50
180.0
  0
MTEXT
  5
1FFA8
330
1DA74
100
AcDbEntity
  8
寸法
 62
     7
 48
50.0
100
AcDbMText
 10
7085.11471862576
 20
9033.997626560058
 30
0.0
 40
120.0
 41
0.0
 71
     5
 72
     1
  1
\A1;123
  7
STYLE1
 73
     1
 44
1.0
1001
ACAD
1000
MTEXTBEGIN
1070
    73
1070
     1
1070
    44
1040
1.0
1070
    74
1070
     0
1000
MTEXTEND
  0
POINT
  5
1FFA9
330
1DA74
100
AcDbEntity
  8
DEFPOINTS
 62
     0
 48
50.0
100
AcDbPoint
 10
7446.6
 20
8055.925205146506
 30
0.0
  0
POINT
  5
1FFAA
330
1DA74
100
AcDbEntity
  8
DEFPOINTS
 62
     0
 48
50.0
100
AcDbPoint
 10
7323.599999999998
 20
8128.925205146506
 30
0.0
  0
POINT
  5
1FFAB
330
1DA74
100
AcDbEntity
  8
DEFPOINTS
 62
     0
 48
50.0
100
AcDbPoint
 10
7323.599999999998
 20
8933.985815536436
 30
0.0
  0
ENDBLK
  5
1DA80
330
1DA74
100
AcDbEntity
  8
0
 48
50.0
100
AcDbBlockEnd
  0
BLOCK
  5
1DA8C
330
1DA81
100
AcDbEntity
  8
0
 48
50.0
100
AcDbBlockBegin
  2
*D7
 70
     1
 10
0.0
 20
0.0
 30
0.0
  3
*D7
  1

  0
LINE
  5
1FF97
330
1DA81
100
AcDbEntity
  8
寸法
 62
     0
 48
50.0
370
    -2
100
AcDbLine
 10
7278.599999999994
 20
8953.985815536437
 30
0.0
 11
7278.599999999994
 21
9206.446511053275
 31
0.0
  0
LINE
  5
1FF98
330
1DA81
100
AcDbEntity
  8
寸法
 62
     0
 48
50.0
370
    -2
100
AcDbLine
 10
7323.599999999998
 20
8148.925205146507
 30
0.0
 11
7323.599999999998
 21
9206.446511053275
 31
0.0
  0
LINE
  5
1FF99
330
1DA81
100
AcDbEntity
  8
寸法
 62
     0
 48
50.0
370
    -2
100
AcDbLine
 10
7278.599999999994
 20
9146.446511053275
 30
0.0
 11
7178.599999999994
 21
9146.446511053275
 31
0.0
  0
LINE
  5
1FF9A
330
1DA81
100
AcDbEntity
  8
寸法
 62
     0
 48
50.0
370
    -2
100
AcDbLine
 10
7323.599999999998
 20
9146.446511053275
 30
0.0
 11
7423.599999999999
 21
9146.446511053275
 31
0.0
  0
LINE
  5
1FF9B
330
1DA81
100
AcDbEntity
  8
寸法
 62
     0
 48
50.0
370
    -2
100
AcDbLine
 10
7278.599999999994
 20
9146.446511053275
 30
0.0
 11
7323.599999999998
 21
9146.446511053275
 31
0.0
  0
INSERT
  5
1FF9C
330
1DA81
100
AcDbEntity
  8
寸法
 62
     0
 48
50.0
370
    -2
100
AcDbBlockReference
  2
_DOTSMALL
 10
7278.599999999994
 20
9146.446511053275
 30
0.0
 41
100.0
 42
100.0
 43
100.0
  0
INSERT
  5
1FF9D
330
1DA81
100
AcDbEntity
  8
寸法
 62
     0
 48
50.0
370
    -2
100
AcDbBlockReference
  2
_DOTSMALL
 10
7323.599999999998
 20
9146.446511053275
 30
0.0
 41
100.0
 42
100.0
 43
100.0
 50
180.0
  0
MTEXT
  5
1FF9E
330
1DA81
100
AcDbEntity
  8
寸法
 62
     7
 48
50.0
100
AcDbMText
 10
7301.099999999997
 20
9246.446511053274
 30
0.0
 40
120.0
 41
0.0
 71
     5
 72
     1
  1
\A1;a
  7
STYLE1
 73
     1
 44
1.0
1001
ACAD
1000
MTEXTBEGIN
1070
    73
1070
     1
1070
    44
1040
1.0
1070
    74
1070
     0
1000
MTEXTEND
  0
POINT
  5
1FF9F
330
1DA81
100
AcDbEntity
  8
DEFPOINTS
 62
     0
 48
50.0
100
AcDbPoint
 10
7278.599999999994
 20
8933.985815536436
 30
0.0
  0
POINT
  5
1FFA0
330
1DA81
100
AcDbEntity
  8
DEFPOINTS
 62
     0
 48
50.0
100
AcDbPoint
 10
7323.599999999998
 20
8128.925205146506
 30
0.0
  0
POINT
  5
1FFA1
330
1DA81
100
AcDbEntity
  8
DEFPOINTS
 62
     0
 48
50.0
100
AcDbPoint
 10
7323.599999999998
 20
9146.446511053275
 30
0.0
  0
ENDBLK
  5
1DA8D
330
1DA81
100
AcDbEntity
  8
0
 48
50.0
100
AcDbBlockEnd
  0
BLOCK
  5
1DA98
330
1DA8E
100
AcDbEntity
  8
0
 48
50.0
100
AcDbBlockBegin
  2
*D8
 70
     1
 10
0.0
 20
0.0
 30
0.0
  3
*D8
  1

  0
LINE
  5
1FF70
330
1DA8E
100
AcDbEntity
  8
寸法
 62
     0
 48
50.0
370
    -2
100
AcDbLine
 10
7376.599999999999
 20
8005.925205146507
 30
0.0
 11
6767.65773398618
 21
8005.925205146507
 31
0.0
  0
LINE
  5
1FF71
330
1DA8E
100
AcDbEntity
  8
寸法
 62
     0
 48
50.0
370
    -2
100
AcDbLine
 10
7376.600000000006
 20
5686.925205146508
 30
0.0
 11
6767.657733986178
 21
5686.925205146508
 31
0.0
  0
LINE
  5
1FF72
330
1DA8E
100
AcDbEntity
  8
寸法
 62
     0
 48
50.0
370
    -2
100
AcDbLine
 10
6827.657733986178
 20
8005.925205146507
 30
0.0
 11
6827.657733986177
 21
5686.925205146508
 31
0.0
  0
INSERT
  5
1FF73
330
1DA8E
100
AcDbEntity
  8
寸法
 62
     0
 48
50.0
370
    -2
100
AcDbBlockReference
  2
_DOTSMALL
 10
6827.657733986178
 20
8005.925205146507
 30
0.0
 41
100.0
 42
100.0
 43
100.0
 50
90.0
  0
INSERT
  5
1FF74
330
1DA8E
100
AcDbEntity
  8
寸法
 62
     0
 48
50.0
370
    -2
100
AcDbBlockReference
  2
_DOTSMALL
 10
6827.657733986177
 20
5686.925205146508
 30
0.0
 41
100.0
 42
100.0
 43
100.0
 50
270.0
  0
MTEXT
  5
1FF75
330
1DA8E
100
AcDbEntity
  8
寸法
 62
     7
 48
50.0
100
AcDbMText
 10
6727.645922962556
 20
6808.925205146507
 30
0.0
 40
120.0
 41
0.0
 71
     5
 72
     1
  1
\A1;2319
  7
STYLE1
 11
0.0000000000000001
 21
1.0
 31
0.0
 73
     1
 44
1.0
1001
ACAD
1000
MTEXTBEGIN
1070
    73
1070
     1
1070
    44
1040
1.0
1070
    74
1070
     0
1000
MTEXTEND
  0
POINT
  5
1FF76
330
1DA8E
100
AcDbEntity
  8
DEFPOINTS
 62
     0
 48
50.0
100
AcDbPoint
 10
7396.599999999999
 20
8005.925205146507
 30
0.0
  0
POINT
  5
1FF77
330
1DA8E
100
AcDbEntity
  8
DEFPOINTS
 62
     0
 48
50.0
100
AcDbPoint
 10
7396.600000000006
 20
5686.925205146508
 30
0.0
  0
POINT
  5
1FF78
330
1DA8E
100
AcDbEntity
  8
DEFPOINTS
 62
     0
 48
50.0
100
AcDbPoint
 10
6827.657733986177
 20
5686.925205146508
 30
0.0
  0
ENDBLK
  5
1DA99
330
1DA8E
100
AcDbEntity
  8
0
 48
50.0
100
AcDbBlockEnd
  0
BLOCK
  5
1DAA3
330
1DA9A
100
AcDbEntity
  8
0
 48
50.0
100
AcDbBlockBegin
  2
*D9
 70
     1
 10
0.0
 20
0.0
 30
0.0
  3
*D9
  1

  0
LINE
  5
1FF67
330
1DA9A
100
AcDbEntity
  8
寸法
 62
     0
 48
50.0
370
    -2
100
AcDbLine
 10
7303.599999999999
 20
8128.925205146506
 30
0.0
 11
6522.164931848212
 21
8128.925205146506
 31
0.0
  0
LINE
  5
1FF68
330
1DA9A
100
AcDbEntity
  8
寸法
 62
     0
 48
50.0
370
    -2
100
AcDbLine
 10
7303.599999999999
 20
5488.925205146506
 30
0.0
 11
6522.164931848212
 21
5488.925205146506
 31
0.0
  0
LINE
  5
1FF69
330
1DA9A
100
AcDbEntity
  8
寸法
 62
     0
 48
50.0
370
    -2
100
AcDbLine
 10
6582.164931848213
 20
8128.925205146506
 30
0.0
 11
6582.164931848211
 21
5488.925205146506
 31
0.0
  0
INSERT
  5
1FF6A
330
1DA9A
100
AcDbEntity
  8
寸法
 62
     0
 48
50.0
370
    -2
100
AcDbBlockReference
  2
_DOTSMALL
 10
6582.164931848213
 20
8128.925205146506
 30
0.0
 41
100.0
 42
100.0
 43
100.0
 50
90.0
  0
INSERT
  5
1FF6B
330
1DA9A
100
AcDbEntity
  8
寸法
 62
     0
 48
50.0
370
    -2
100
AcDbBlockReference
  2
_DOTSMALL
 10
6582.164931848211
 20
5488.925205146506
 30
0.0
 41
100.0
 42
100.0
 43
100.0
 50
270.0
  0
MTEXT
  5
1FF6C
330
1DA9A
100
AcDbEntity
  8
寸法
 62
     7
 48
50.0
100
AcDbMText
 10
6482.153120824588
 20
6808.925205146507
 30
0.0
 40
120.0
 41
0.0
 71
     5
 72
     1
  1
\A1;2640
  7
STYLE1
 11
0.0000000000000001
 21
1.0
 31
0.0
 73
     1
 44
1.0
1001
ACAD
1000
MTEXTBEGIN
1070
    73
1070
     1
1070
    44
1040
1.0
1070
    74
1070
     0
1000
MTEXTEND
  0
POINT
  5
1FF6D
330
1DA9A
100
AcDbEntity
  8
DEFPOINTS
 62
     0
 48
50.0
100
AcDbPoint
 10
7323.599999999998
 20
8128.925205146506
 30
0.0
  0
POINT
  5
1FF6E
330
1DA9A
100
AcDbEntity
  8
DEFPOINTS
 62
     0
 48
50.0
100
AcDbPoint
 10
7323.599999999998
 20
5488.925205146506
 30
0.0
  0
POINT
  5
1FF6F
330
1DA9A
100
AcDbEntity
  8
DEFPOINTS
 62
     0
 48
50.0
100
AcDbPoint
 10
6582.164931848211
 20
5488.925205146506
 30
0.0
  0
ENDBLK
  5
1DAA4
330
1DA9A
100
AcDbEntity
  8
0
 48
50.0
100
AcDbBlockEnd
  0
BLOCK
  5
1DAB0
330
1DAA5
100
AcDbEntity
  8
0
 48
50.0
100
AcDbBlockBegin
  2
*D10
 70
     1
 10
0.0
 20
0.0
 30
0.0
  3
*D10
  1

  0
LINE
  5
1FA9E
330
1DAA5
100
AcDbEntity
  8
寸法
 62
     0
 48
50.0
370
    -2
100
AcDbLine
 10
7376.600000000006
 20
5686.925205146508
 30
0.0
 11
6767.657733986176
 21
5686.925205146508
 31
0.0
  0
LINE
  5
1FA9F
330
1DAA5
100
AcDbEntity
  8
寸法
 62
     0
 48
50.0
370
    -2
100
AcDbLine
 10
7303.599999999999
 20
5488.925205146506
 30
0.0
 11
6767.657733986176
 21
5488.925205146506
 31
0.0
  0
LINE
  5
1FAA0
330
1DAA5
100
AcDbEntity
  8
寸法
 62
     0
 48
50.0
370
    -2
100
AcDbLine
 10
6827.657733986177
 20
5686.925205146508
 30
0.0
 11
6827.657733986177
 21
5488.925205146506
 31
0.0
  0
LINE
  5
1FAA1
330
1DAA5
100
AcDbEntity
  8
寸法
 62
     0
 48
50.0
370
    -2
100
AcDbLine
 10
6827.657733986177
 20
5488.925205146506
 30
0.0
 11
6827.657733986177
 21
5116.505885487192
 31
0.0
  0
INSERT
  5
1FAA2
330
1DAA5
100
AcDbEntity
  8
寸法
 62
     0
 48
50.0
370
    -2
100
AcDbBlockReference
  2
_DOTSMALL
 10
6827.657733986177
 20
5686.925205146508
 30
0.0
 41
100.0
 42
100.0
 43
100.0
 50
90.0
  0
INSERT
  5
1FAA3
330
1DAA5
100
AcDbEntity
  8
寸法
 62
     0
 48
50.0
370
    -2
100
AcDbBlockReference
  2
_DOTSMALL
 10
6827.657733986177
 20
5488.925205146506
 30
0.0
 41
100.0
 42
100.0
 43
100.0
 50
270.0
  0
MTEXT
  5
1FAA4
330
1DAA5
100
AcDbEntity
  8
寸法
 62
     7
 48
50.0
100
AcDbMText
 10
6727.657733986176
 20
5252.715545316852
 30
0.0
 40
120.0
 41
0.0
 71
     5
 72
     1
  1
\A1;198
  7
STYLE1
 11
0.0000000000000001
 21
1.0
 31
0.0
 73
     1
 44
1.0
1001
ACAD
1000
MTEXTBEGIN
1070
    73
1070
     1
1070
    44
1040
1.0
1070
    74
1070
     0
1000
MTEXTEND
  0
POINT
  5
1FAA5
330
1DAA5
100
AcDbEntity
  8
DEFPOINTS
 62
     0
 48
50.0
100
AcDbPoint
 10
7396.600000000006
 20
5686.925205146508
 30
0.0
  0
POINT
  5
1FAA6
330
1DAA5
100
AcDbEntity
  8
DEFPOINTS
 62
     0
 48
50.0
100
AcDbPoint
 10
7323.599999999998
 20
5488.925205146506
 30
0.0
  0
POINT
  5
1FAA7
330
1DAA5
100
AcDbEntity
  8
DEFPOINTS
 62
     0
 48
50.0
100
AcDbPoint
 10
6827.657733986177
 20
5488.925205146506
 30
0.0
  0
ENDBLK
  5
1DAB1
330
1DAA5
100
AcDbEntity
  8
0
 48
50.0
100
AcDbBlockEnd
  0
BLOCK
  5
1DABC
330
1DAB2
100
AcDbEntity
  8
0
 48
50.0
100
AcDbBlockBegin
  2
*D11
 70
     1
 10
0.0
 20
0.0
 30
0.0
  3
*D11
  1

  0
LINE
  5
1FA93
330
1DAB2
100
AcDbEntity
  8
寸法
 62
     0
 48
50.0
370
    -2
100
AcDbLine
 10
7303.599999999999
 20
5488.925205146506
 30
0.0
 11
6522.164931848211
 21
5488.925205146506
 31
0.0
  0
LINE
  5
1FA94
330
1DAB2
100
AcDbEntity
  8
寸法
 62
     0
 48
50.0
370
    -2
100
AcDbLine
 10
6807.657733986177
 20
5433.925205146507
 30
0.0
 11
6522.164931848211
 21
5433.925205146507
 31
0.0
  0
LINE
  5
1FA95
330
1DAB2
100
AcDbEntity
  8
寸法
 62
     0
 48
50.0
370
    -2
100
AcDbLine
 10
6582.16493184821
 20
5488.925205146506
 30
0.0
 11
6582.16493184821
 21
5588.925205146506
 31
0.0
  0
LINE
  5
1FA96
330
1DAB2
100
AcDbEntity
  8
寸法
 62
     0
 48
50.0
370
    -2
100
AcDbLine
 10
6582.16493184821
 20
5433.925205146507
 30
0.0
 11
6582.16493184821
 21
5333.925205146506
 31
0.0
  0
LINE
  5
1FA97
330
1DAB2
100
AcDbEntity
  8
寸法
 62
     0
 48
50.0
370
    -2
100
AcDbLine
 10
6582.16493184821
 20
5488.925205146506
 30
0.0
 11
6582.16493184821
 21
5433.925205146507
 31
0.0
  0
INSERT
  5
1FA98
330
1DAB2
100
AcDbEntity
  8
寸法
 62
     0
 48
50.0
370
    -2
100
AcDbBlockReference
  2
_DOTSMALL
 10
6582.16493184821
 20
5488.925205146506
 30
0.0
 41
100.0
 42
100.0
 43
100.0
 50
270.0
  0
INSERT
  5
1FA99
330
1DAB2
100
AcDbEntity
  8
寸法
 62
     0
 48
50.0
370
    -2
100
AcDbBlockReference
  2
_DOTSMALL
 10
6582.16493184821
 20
5433.925205146507
 30
0.0
 41
100.0
 42
100.0
 43
100.0
 50
90.0
  0
MTEXT
  5
1FA9A
330
1DAB2
100
AcDbEntity
  8
寸法
 62
     7
 48
50.0
100
AcDbMText
 10
6482.16493184821
 20
5461.425205146508
 30
0.0
 40
120.0
 41
0.0
 71
     5
 72
     1
  1
\A1;b
  7
STYLE1
 11
0.0000000000000001
 21
1.0
 31
0.0
 73
     1
 44
1.0
1001
ACAD
1000
MTEXTBEGIN
1070
    73
1070
     1
1070
    44
1040
1.0
1070
    74
1070
     0
1000
MTEXTEND
  0
POINT
  5
1FA9B
330
1DAB2
100
AcDbEntity
  8
DEFPOINTS
 62
     0
 48
50.0
100
AcDbPoint
 10
7323.599999999998
 20
5488.925205146506
 30
0.0
  0
POINT
  5
1FA9C
330
1DAB2
100
AcDbEntity
  8
DEFPOINTS
 62
     0
 48
50.0
100
AcDbPoint
 10
6827.657733986177
 20
5433.925205146507
 30
0.0
  0
POINT
  5
1FA9D
330
1DAB2
100
AcDbEntity
  8
DEFPOINTS
 62
     0
 48
50.0
100
AcDbPoint
 10
6582.16493184821
 20
5433.925205146507
 30
0.0
  0
ENDBLK
  5
1DABD
330
1DAB2
100
AcDbEntity
  8
0
 48
50.0
100
AcDbBlockEnd
  0
BLOCK
  5
1DAC9
330
1DABE
100
AcDbEntity
  8
0
 48
50.0
100
AcDbBlockBegin
  2
*D12
 70
     1
 10
0.0
 20
0.0
 30
0.0
  3
*D12
  1

  0
LINE
  5
1FEF3
330
1DABE
100
AcDbEntity
  8
寸法
 62
     0
 48
50.0
370
    -2
100
AcDbLine
 10
7303.599999999999
 20
8128.925205146506
 30
0.0
 11
6767.657733986176
 21
8128.925205146506
 31
0.0
  0
LINE
  5
1FEF4
330
1DABE
100
AcDbEntity
  8
寸法
 62
     0
 48
50.0
370
    -2
100
AcDbLine
 10
7376.599999999999
 20
8005.925205146507
 30
0.0
 11
6767.657733986176
 21
8005.925205146507
 31
0.0
  0
LINE
  5
1FEF5
330
1DABE
100
AcDbEntity
  8
寸法
 62
     0
 48
50.0
370
    -2
100
AcDbLine
 10
6827.657733986177
 20
8005.925205146507
 30
0.0
 11
6827.657733986177
 21
8128.925205146506
 31
0.0
  0
LINE
  5
1FEF6
330
1DABE
100
AcDbEntity
  8
寸法
 62
     0
 48
50.0
370
    -2
100
AcDbLine
 10
6827.657733986177
 20
8128.925205146506
 30
0.0
 11
6827.657733986177
 21
8505.895767894982
 31
0.0
  0
INSERT
  5
1FEF7
330
1DABE
100
AcDbEntity
  8
寸法
 62
     0
 48
50.0
370
    -2
100
AcDbBlockReference
  2
_DOTSMALL
 10
6827.657733986177
 20
8005.925205146507
 30
0.0
 41
100.0
 42
100.0
 43
100.0
 50
270.0
  0
INSERT
  5
1FEF8
330
1DABE
100
AcDbEntity
  8
寸法
 62
     0
 48
50.0
370
    -2
100
AcDbBlockReference
  2
_DOTSMALL
 10
6827.657733986177
 20
8128.925205146506
 30
0.0
 41
100.0
 42
100.0
 43
100.0
 50
90.0
  0
MTEXT
  5
1FEF9
330
1DABE
100
AcDbEntity
  8
寸法
 62
     7
 48
50.0
100
AcDbMText
 10
6727.645922962555
 20
8367.410486520746
 30
0.0
 40
120.0
 41
0.0
 71
     5
 72
     1
  1
\A1;123
  7
STYLE1
 11
0.0000000000000001
 21
1.0
 31
0.0
 73
     1
 44
1.0
1001
ACAD
1000
MTEXTBEGIN
1070
    73
1070
     1
1070
    44
1040
1.0
1070
    74
1070
     0
1000
MTEXTEND
  0
POINT
  5
1FEFA
330
1DABE
100
AcDbEntity
  8
DEFPOINTS
 62
     0
 48
50.0
100
AcDbPoint
 10
7323.599999999998
 20
8128.925205146506
 30
0.0
  0
POINT
  5
1FEFB
330
1DABE
100
AcDbEntity
  8
DEFPOINTS
 62
     0
 48
50.0
100
AcDbPoint
 10
7396.599999999999
 20
8005.925205146507
 30
0.0
  0
POINT
  5
1FEFC
330
1DABE
100
AcDbEntity
  8
DEFPOINTS
 62
     0
 48
50.0
100
AcDbPoint
 10
6827.657733986177
 20
8005.925205146507
 30
0.0
  0
ENDBLK
  5
1DACA
330
1DABE
100
AcDbEntity
  8
0
 48
50.0
100
AcDbBlockEnd
  0
BLOCK
  5
1DAD7
330
1DACB
100
AcDbEntity
  8
0
 48
50.0
100
AcDbBlockBegin
  2
*D13
 70
     1
 10
0.0
 20
0.0
 30
0.0
  3
*D13
  1

  0
LINE
  5
1FEE8
330
1DACB
100
AcDbEntity
  8
寸法
 62
     0
 48
50.0
370
    -2
100
AcDbLine
 10
6807.657733986179
 20
8203.925205146507
 30
0.0
 11
6522.164931848209
 21
8203.925205146507
 31
0.0
  0
LINE
  5
1FEE9
330
1DACB
100
AcDbEntity
  8
寸法
 62
     0
 48
50.0
370
    -2
100
AcDbLine
 10
7303.599999999999
 20
8128.925205146506
 30
0.0
 11
6522.164931848209
 21
8128.925205146506
 31
0.0
  0
LINE
  5
1FEEA
330
1DACB
100
AcDbEntity
  8
寸法
 62
     0
 48
50.0
370
    -2
100
AcDbLine
 10
6582.16493184821
 20
8203.925205146507
 30
0.0
 11
6582.16493184821
 21
8303.925205146507
 31
0.0
  0
LINE
  5
1FEEB
330
1DACB
100
AcDbEntity
  8
寸法
 62
     0
 48
50.0
370
    -2
100
AcDbLine
 10
6582.16493184821
 20
8128.925205146506
 30
0.0
 11
6582.16493184821
 21
8028.925205146506
 31
0.0
  0
LINE
  5
1FEEC
330
1DACB
100
AcDbEntity
  8
寸法
 62
     0
 48
50.0
370
    -2
100
AcDbLine
 10
6582.16493184821
 20
8203.925205146507
 30
0.0
 11
6582.16493184821
 21
8128.925205146506
 31
0.0
  0
INSERT
  5
1FEED
330
1DACB
100
AcDbEntity
  8
寸法
 62
     0
 48
50.0
370
    -2
100
AcDbBlockReference
  2
_DOTSMALL
 10
6582.16493184821
 20
8203.925205146507
 30
0.0
 41
100.0
 42
100.0
 43
100.0
 50
270.0
  0
INSERT
  5
1FEEE
330
1DACB
100
AcDbEntity
  8
寸法
 62
     0
 48
50.0
370
    -2
100
AcDbBlockReference
  2
_DOTSMALL
 10
6582.16493184821
 20
8128.925205146506
 30
0.0
 41
100.0
 42
100.0
 43
100.0
 50
90.0
  0
MTEXT
  5
1FEEF
330
1DACB
100
AcDbEntity
  8
寸法
 62
     7
 48
50.0
100
AcDbMText
 10
6482.164931848209
 20
8166.425205146508
 30
0.0
 40
120.0
 41
0.0
 71
     5
 72
     1
  1
\A1;c
  7
STYLE1
 11
0.0000000000000001
 21
1.0
 31
0.0
 73
     1
 44
1.0
1001
ACAD
1000
MTEXTBEGIN
1070
    73
1070
     1
1070
    44
1040
1.0
1070
    74
1070
     0
1000
MTEXTEND
  0
POINT
  5
1FEF0
330
1DACB
100
AcDbEntity
  8
DEFPOINTS
 62
     0
 48
50.0
100
AcDbPoint
 10
6827.657733986177
 20
8203.925205146507
 30
0.0
  0
POINT
  5
1FEF1
330
1DACB
100
AcDbEntity
  8
DEFPOINTS
 62
     0
 48
50.0
100
AcDbPoint
 10
7323.599999999998
 20
8128.925205146506
 30
0.0
  0
POINT
  5
1FEF2
330
1DACB
100
AcDbEntity
  8
DEFPOINTS
 62
     0
 48
50.0
100
AcDbPoint
 10
6582.16493184821
 20
8128.925205146506
 30
0.0
  0
ENDBLK
  5
1DAD8
330
1DACB
100
AcDbEntity
  8
0
 48
50.0
100
AcDbBlockEnd
  0
BLOCK
  5
1DAE4
330
1DAD9
100
AcDbEntity
  8
0
 48
50.0
100
AcDbBlockBegin
  2
*D14
 70
     1
 10
0.0
 20
0.0
 30
0.0
  3
*D14
  1

  0
LINE
  5
1FF8D
330
1DAD9
100
AcDbEntity
  8
寸法
 62
     0
 48
50.0
370
    -2
100
AcDbLine
 10
8703.599999999999
 20
8148.925205146507
 30
0.0
 11
8703.599999999999
 21
8993.985815536436
 31
0.0
  0
LINE
  5
1FF8E
330
1DAD9
100
AcDbEntity
  8
寸法
 62
     0
 48
50.0
370
    -2
100
AcDbLine
 10
8580.599999999998
 20
8075.925205146507
 30
0.0
 11
8580.599999999998
 21
8993.985815536436
 31
0.0
  0
LINE
  5
1FF8F
330
1DAD9
100
AcDbEntity
  8
寸法
 62
     0
 48
50.0
370
    -2
100
AcDbLine
 10
8580.599999999998
 20
8933.985815536436
 30
0.0
 11
8703.599999999999
 21
8933.985815536436
 31
0.0
  0
LINE
  5
1FF90
330
1DAD9
100
AcDbEntity
  8
寸法
 62
     0
 48
50.0
370
    -2
100
AcDbLine
 10
8703.599999999999
 20
8933.985815536436
 30
0.0
 11
9080.570562748475
 21
8933.985815536436
 31
0.0
  0
INSERT
  5
1FF91
330
1DAD9
100
AcDbEntity
  8
寸法
 62
     0
 48
50.0
370
    -2
100
AcDbBlockReference
  2
_DOTSMALL
 10
8580.599999999998
 20
8933.985815536436
 30
0.0
 41
100.0
 42
100.0
 43
100.0
 50
180.0
  0
INSERT
  5
1FF92
330
1DAD9
100
AcDbEntity
  8
寸法
 62
     0
 48
50.0
370
    -2
100
AcDbBlockReference
  2
_DOTSMALL
 10
8703.599999999999
 20
8933.985815536436
 30
0.0
 41
100.0
 42
100.0
 43
100.0
  0
MTEXT
  5
1FF93
330
1DAD9
100
AcDbEntity
  8
寸法
 62
     7
 48
50.0
100
AcDbMText
 10
8942.085281374238
 20
9033.997626560058
 30
0.0
 40
120.0
 41
0.0
 71
     5
 72
     1
  1
\A1;123
  7
STYLE1
 73
     1
 44
1.0
1001
ACAD
1000
MTEXTBEGIN
1070
    73
1070
     1
1070
    44
1040
1.0
1070
    74
1070
     0
1000
MTEXTEND
  0
POINT
  5
1FF94
330
1DAD9
100
AcDbEntity
  8
DEFPOINTS
 62
     0
 48
50.0
100
AcDbPoint
 10
8703.599999999999
 20
8128.925205146506
 30
0.0
  0
POINT
  5
1FF95
330
1DAD9
100
AcDbEntity
  8
DEFPOINTS
 62
     0
 48
50.0
100
AcDbPoint
 10
8580.599999999998
 20
8055.925205146506
 30
0.0
  0
POINT
  5
1FF96
330
1DAD9
100
AcDbEntity
  8
DEFPOINTS
 62
     0
 48
50.0
100
AcDbPoint
 10
8580.599999999998
 20
8933.985815536436
 30
0.0
  0
ENDBLK
  5
1DAE5
330
1DAD9
100
AcDbEntity
  8
0
 48
50.0
100
AcDbBlockEnd
  0
BLOCK
  5
1DAF1
330
1DAE6
100
AcDbEntity
  8
0
 48
50.0
100
AcDbBlockBegin
  2
*D15
 70
     1
 10
0.0
 20
0.0
 30
0.0
  3
*D15
  1

  0
LINE
  5
1FF82
330
1DAE6
100
AcDbEntity
  8
寸法
 62
     0
 48
50.0
370
    -2
100
AcDbLine
 10
8703.599999999999
 20
8148.925205146507
 30
0.0
 11
8703.599999999999
 21
9206.446511053274
 31
0.0
  0
LINE
  5
1FF83
330
1DAE6
100
AcDbEntity
  8
寸法
 62
     0
 48
50.0
370
    -2
100
AcDbLine
 10
8748.599999999999
 20
8953.985815536437
 30
0.0
 11
8748.599999999999
 21
9206.446511053274
 31
0.0
  0
LINE
  5
1FF84
330
1DAE6
100
AcDbEntity
  8
寸法
 62
     0
 48
50.0
370
    -2
100
AcDbLine
 10
8703.599999999999
 20
9146.446511053273
 30
0.0
 11
8603.599999999998
 21
9146.446511053273
 31
0.0
  0
LINE
  5
1FF85
330
1DAE6
100
AcDbEntity
  8
寸法
 62
     0
 48
50.0
370
    -2
100
AcDbLine
 10
8748.599999999999
 20
9146.446511053273
 30
0.0
 11
8848.599999999999
 21
9146.446511053273
 31
0.0
  0
LINE
  5
1FF86
330
1DAE6
100
AcDbEntity
  8
寸法
 62
     0
 48
50.0
370
    -2
100
AcDbLine
 10
8703.599999999999
 20
9146.446511053273
 30
0.0
 11
8748.599999999999
 21
9146.446511053273
 31
0.0
  0
INSERT
  5
1FF87
330
1DAE6
100
AcDbEntity
  8
寸法
 62
     0
 48
50.0
370
    -2
100
AcDbBlockReference
  2
_DOTSMALL
 10
8703.599999999999
 20
9146.446511053273
 30
0.0
 41
100.0
 42
100.0
 43
100.0
  0
INSERT
  5
1FF88
330
1DAE6
100
AcDbEntity
  8
寸法
 62
     0
 48
50.0
370
    -2
100
AcDbBlockReference
  2
_DOTSMALL
 10
8748.599999999999
 20
9146.446511053273
 30
0.0
 41
100.0
 42
100.0
 43
100.0
 50
180.0
  0
MTEXT
  5
1FF89
330
1DAE6
100
AcDbEntity
  8
寸法
 62
     7
 48
50.0
100
AcDbMText
 10
8726.099999999998
 20
9246.446511053273
 30
0.0
 40
120.0
 41
0.0
 71
     5
 72
     1
  1
\A1;a
  7
STYLE1
 73
     1
 44
1.0
1001
ACAD
1000
MTEXTBEGIN
1070
    73
1070
     1
1070
    44
1040
1.0
1070
    74
1070
     0
1000
MTEXTEND
  0
POINT
  5
1FF8A
330
1DAE6
100
AcDbEntity
  8
DEFPOINTS
 62
     0
 48
50.0
100
AcDbPoint
 10
8703.599999999999
 20
8128.925205146506
 30
0.0
  0
POINT
  5
1FF8B
330
1DAE6
100
AcDbEntity
  8
DEFPOINTS
 62
     0
 48
50.0
100
AcDbPoint
 10
8748.599999999999
 20
8933.985815536436
 30
0.0
  0
POINT
  5
1FF8C
330
1DAE6
100
AcDbEntity
  8
DEFPOINTS
 62
     0
 48
50.0
100
AcDbPoint
 10
8748.599999999999
 20
9146.446511053273
 30
0.0
  0
ENDBLK
  5
1DAF2
330
1DAE6
100
AcDbEntity
  8
0
 48
50.0
100
AcDbBlockEnd
  0
BLOCK
  5
1DAFE
330
1DAF3
100
AcDbEntity
  8
0
 48
50.0
100
AcDbBlockBegin
  2
*D16
 70
     1
 10
0.0
 20
0.0
 30
0.0
  3
*D16
  1

  0
LINE
  5
2075C
330
1DAF3
100
AcDbEntity
  8
寸法
 62
     0
 48
50.0
370
    -2
100
AcDbLine
 10
8703.599999999999
 20
8108.925205146507
 30
0.0
 11
8703.599999999999
 21
7595.859048102295
 31
0.0
  0
LINE
  5
2075D
330
1DAF3
100
AcDbEntity
  8
寸法
 62
     0
 48
50.0
370
    -2
100
AcDbLine
 10
8583.599999999998
 20
7878.925205146507
 30
0.0
 11
8583.599999999998
 21
7595.859048102295
 31
0.0
  0
LINE
  5
2075E
330
1DAF3
100
AcDbEntity
  8
寸法
 62
     0
 48
50.0
370
    -2
100
AcDbLine
 10
8583.599999999998
 20
7655.859048102295
 30
0.0
 11
8703.599999999999
 21
7655.859048102295
 31
0.0
  0
LINE
  5
2075F
330
1DAF3
100
AcDbEntity
  8
寸法
 62
     0
 48
50.0
370
    -2
100
AcDbLine
 10
8703.599999999999
 20
7655.859048102295
 30
0.0
 11
9075.694488188977
 21
7655.859048102295
 31
0.0
  0
INSERT
  5
20760
330
1DAF3
100
AcDbEntity
  8
寸法
 62
     0
 48
50.0
370
    -2
100
AcDbBlockReference
  2
_DOTSMALL
 10
8583.599999999998
 20
7655.859048102295
 30
0.0
 41
100.0
 42
100.0
 43
100.0
 50
180.0
  0
INSERT
  5
20761
330
1DAF3
100
AcDbEntity
  8
寸法
 62
     0
 48
50.0
370
    -2
100
AcDbBlockReference
  2
_DOTSMALL
 10
8703.599999999999
 20
7655.859048102295
 30
0.0
 41
100.0
 42
100.0
 43
100.0
  0
MTEXT
  5
20762
330
1DAF3
100
AcDbEntity
  8
寸法
 62
     7
 48
50.0
100
AcDbMText
 10
8939.647244094487
 20
7755.870859125916
 30
0.0
 40
120.0
 41
0.0
 71
     5
 72
     1
  1
\A1;120
  7
STYLE1
 73
     1
 44
1.0
1001
ACAD
1000
MTEXTBEGIN
1070
    73
1070
     1
1070
    44
1040
1.0
1070
    74
1070
     0
1000
MTEXTEND
  0
POINT
  5
20763
330
1DAF3
100
AcDbEntity
  8
DEFPOINTS
 62
     0
 48
50.0
100
AcDbPoint
 10
8703.599999999999
 20
8128.925205146506
 30
0.0
  0
POINT
  5
20764
330
1DAF3
100
AcDbEntity
  8
DEFPOINTS
 62
     0
 48
50.0
100
AcDbPoint
 10
8583.599999999998
 20
7898.925205146507
 30
0.0
  0
POINT
  5
20765
330
1DAF3
100
AcDbEntity
  8
DEFPOINTS
 62
     0
 48
50.0
100
AcDbPoint
 10
8583.599999999998
 20
7655.859048102295
 30
0.0
  0
ENDBLK
  5
1DAFF
330
1DAF3
100
AcDbEntity
  8
0
 48
50.0
100
AcDbBlockEnd
  0
BLOCK
  5
1DB25
330
1DB1A
100
AcDbEntity
  8
0
 48
50.0
100
AcDbBlockBegin
  2
*D17
 70
     1
 10
0.0
 20
0.0
 30
0.0
  3
*D17
  1

  0
LINE
  5
207BC
330
1DB1A
100
AcDbEntity
  8
寸法
 62
     0
 48
50.0
370
    -2
100
AcDbLine
 10
7865.98026504508
 20
8128.925205146508
 30
0.0
 11
7632.868710683499
 21
8128.925205146508
 31
0.0
  0
LINE
  5
207BD
330
1DB1A
100
AcDbEntity
  8
寸法
 62
     0
 48
50.0
370
    -2
100
AcDbLine
 10
7573.599999999998
 20
8008.925205146507
 30
0.0
 11
7752.868710683499
 21
8008.925205146507
 31
0.0
  0
LINE
  5
207BE
330
1DB1A
100
AcDbEntity
  8
寸法
 62
     0
 48
50.0
370
    -2
100
AcDbLine
 10
7692.868710683498
 20
8008.925205146507
 30
0.0
 11
7692.868710683498
 21
8128.925205146508
 31
0.0
  0
LINE
  5
207BF
330
1DB1A
100
AcDbEntity
  8
寸法
 62
     0
 48
50.0
370
    -2
100
AcDbLine
 10
7692.868710683498
 20
8128.925205146508
 30
0.0
 11
7692.868710683498
 21
8501.019693335486
 31
0.0
  0
INSERT
  5
207C0
330
1DB1A
100
AcDbEntity
  8
寸法
 62
     0
 48
50.0
370
    -2
100
AcDbBlockReference
  2
_DOTSMALL
 10
7692.868710683498
 20
8008.925205146507
 30
0.0
 41
100.0
 42
100.0
 43
100.0
 50
270.0
  0
INSERT
  5
207C1
330
1DB1A
100
AcDbEntity
  8
寸法
 62
     0
 48
50.0
370
    -2
100
AcDbBlockReference
  2
_DOTSMALL
 10
7692.868710683498
 20
8128.925205146508
 30
0.0
 41
100.0
 42
100.0
 43
100.0
 50
90.0
  0
MTEXT
  5
207C2
330
1DB1A
100
AcDbEntity
  8
寸法
 62
     7
 48
50.0
100
AcDbMText
 10
7592.856899659875
 20
8364.972449240999
 30
0.0
 40
120.0
 41
0.0
 71
     5
 72
     1
  1
\A1;120
  7
STYLE1
 11
0.0000000000000001
 21
1.0
 31
0.0
 73
     1
 44
1.0
1001
ACAD
1000
MTEXTBEGIN
1070
    73
1070
     1
1070
    44
1040
1.0
1070
    74
1070
     0
1000
MTEXTEND
  0
POINT
  5
207C3
330
1DB1A
100
AcDbEntity
  8
DEFPOINTS
 62
     0
 48
50.0
100
AcDbPoint
 10
7885.980265045079
 20
8128.925205146508
 30
0.0
  0
POINT
  5
207C4
330
1DB1A
100
AcDbEntity
  8
DEFPOINTS
 62
     0
 48
50.0
100
AcDbPoint
 10
7553.599999999999
 20
8008.925205146507
 30
0.0
  0
POINT
  5
207C5
330
1DB1A
100
AcDbEntity
  8
DEFPOINTS
 62
     0
 48
50.0
100
AcDbPoint
 10
7692.868710683498
 20
8008.925205146507
 30
0.0
  0
ENDBLK
  5
1DB26
330
1DB1A
100
AcDbEntity
  8
0
 48
50.0
100
AcDbBlockEnd
  0
BLOCK
  5
1F2C1
330
1F2B7
100
AcDbEntity
  8
0
 48
50.0
100
AcDbBlockBegin
  2
*D18
 70
     1
 10
0.0
 20
0.0
 30
0.0
  3
*D18
  1

  0
LINE
  5
1FF53
330
1F2B7
100
AcDbEntity
  8
寸法
 62
     0
 48
50.0
370
    -2
100
AcDbLine
 10
8083.599999999998
 20
7247.925205146507
 30
0.0
 11
8261.156431984797
 21
7247.925205146507
 31
0.0
  0
LINE
  5
1FF54
330
1F2B7
100
AcDbEntity
  8
寸法
 62
     0
 48
50.0
370
    -2
100
AcDbLine
 10
8133.599999999999
 20
8128.925205146506
 30
0.0
 11
8261.156431984797
 21
8128.925205146506
 31
0.0
  0
LINE
  5
1FF55
330
1F2B7
100
AcDbEntity
  8
寸法
 62
     0
 48
50.0
370
    -2
100
AcDbLine
 10
8201.156431984797
 20
7247.925205146507
 30
0.0
 11
8201.156431984797
 21
8128.925205146506
 31
0.0
  0
INSERT
  5
1FF56
330
1F2B7
100
AcDbEntity
  8
寸法
 62
     0
 48
50.0
370
    -2
100
AcDbBlockReference
  2
_DOTSMALL
 10
8201.156431984797
 20
7247.925205146507
 30
0.0
 41
100.0
 42
100.0
 43
100.0
 50
270.0
  0
INSERT
  5
1FF57
330
1F2B7
100
AcDbEntity
  8
寸法
 62
     0
 48
50.0
370
    -2
100
AcDbBlockReference
  2
_DOTSMALL
 10
8201.156431984797
 20
8128.925205146506
 30
0.0
 41
100.0
 42
100.0
 43
100.0
 50
90.0
  0
MTEXT
  5
1FF58
330
1F2B7
100
AcDbEntity
  8
寸法
 62
     7
 48
50.0
100
AcDbMText
 10
8101.156431984795
 20
7688.425205146507
 30
0.0
 40
120.0
 41
0.0
 71
     5
 72
     1
  1
\A1;881
  7
STYLE1
 11
0.0000000000000001
 21
1.0
 31
0.0
 73
     1
 44
1.0
1001
ACAD
1000
MTEXTBEGIN
1070
    73
1070
     1
1070
    44
1040
1.0
1070
    74
1070
     0
1000
MTEXTEND
  0
POINT
  5
1FF59
330
1F2B7
100
AcDbEntity
  8
DEFPOINTS
 62
     0
 48
50.0
100
AcDbPoint
 10
8063.599999999999
 20
7247.925205146507
 30
0.0
  0
POINT
  5
1FF5A
330
1F2B7
100
AcDbEntity
  8
DEFPOINTS
 62
     0
 48
50.0
100
AcDbPoint
 10
8113.599999999998
 20
8128.925205146506
 30
0.0
  0
POINT
  5
1FF5B
330
1F2B7
100
AcDbEntity
  8
DEFPOINTS
 62
     0
 48
50.0
100
AcDbPoint
 10
8201.156431984797
 20
8128.925205146506
 30
0.0
  0
ENDBLK
  5
1F2C2
330
1F2B7
100
AcDbEntity
  8
0
 48
50.0
100
AcDbBlockEnd
  0
BLOCK
  5
1F2DB
330
1F2D1
100
AcDbEntity
  8
0
 48
50.0
100
AcDbBlockBegin
  2
*D19
 70
     1
 10
0.0
 20
0.0
 30
0.0
  3
*D19
  1

  0
LINE
  5
1FF4A
330
1F2D1
100
AcDbEntity
  8
寸法
 62
     0
 48
50.0
370
    -2
100
AcDbLine
 10
8083.599999999986
 20
6443.925205146516
 30
0.0
 11
8261.156431984797
 21
6443.925205146516
 31
0.0
  0
LINE
  5
1FF4B
330
1F2D1
100
AcDbEntity
  8
寸法
 62
     0
 48
50.0
370
    -2
100
AcDbLine
 10
8133.600000000013
 20
5488.925205146515
 30
0.0
 11
8261.156431984797
 21
5488.925205146515
 31
0.0
  0
LINE
  5
1FF4C
330
1F2D1
100
AcDbEntity
  8
寸法
 62
     0
 48
50.0
370
    -2
100
AcDbLine
 10
8201.156431984797
 20
6443.925205146516
 30
0.0
 11
8201.156431984797
 21
5488.925205146515
 31
0.0
  0
INSERT
  5
1FF4D
330
1F2D1
100
AcDbEntity
  8
寸法
 62
     0
 48
50.0
370
    -2
100
AcDbBlockReference
  2
_DOTSMALL
 10
8201.156431984797
 20
6443.925205146516
 30
0.0
 41
100.0
 42
100.0
 43
100.0
 50
90.0
  0
INSERT
  5
1FF4E
330
1F2D1
100
AcDbEntity
  8
寸法
 62
     0
 48
50.0
370
    -2
100
AcDbBlockReference
  2
_DOTSMALL
 10
8201.156431984797
 20
5488.925205146515
 30
0.0
 41
100.0
 42
100.0
 43
100.0
 50
270.0
  0
MTEXT
  5
1FF4F
330
1F2D1
100
AcDbEntity
  8
寸法
 62
     7
 48
50.0
100
AcDbMText
 10
8101.156431984795
 20
5966.425205146516
 30
0.0
 40
120.0
 41
0.0
 71
     5
 72
     1
  1
\A1;955
  7
STYLE1
 11
0.0000000000000001
 21
1.0
 31
0.0
 73
     1
 44
1.0
1001
ACAD
1000
MTEXTBEGIN
1070
    73
1070
     1
1070
    44
1040
1.0
1070
    74
1070
     0
1000
MTEXTEND
  0
POINT
  5
1FF50
330
1F2D1
100
AcDbEntity
  8
DEFPOINTS
 62
     0
 48
50.0
100
AcDbPoint
 10
8063.599999999985
 20
6443.925205146516
 30
0.0
  0
POINT
  5
1FF51
330
1F2D1
100
AcDbEntity
  8
DEFPOINTS
 62
     0
 48
50.0
100
AcDbPoint
 10
8113.600000000014
 20
5488.925205146515
 30
0.0
  0
POINT
  5
1FF52
330
1F2D1
100
AcDbEntity
  8
DEFPOINTS
 62
     0
 48
50.0
100
AcDbPoint
 10
8201.156431984797
 20
5488.925205146515
 30
0.0
  0
ENDBLK
  5
1F2DC
330
1F2D1
100
AcDbEntity
  8
0
 48
50.0
100
AcDbBlockEnd
  0
BLOCK
  5
1FA28
330
1FA1E
100
AcDbEntity
  8
0
 48
50.0
100
AcDbBlockBegin
  2
*D20
 70
     1
 10
0.0
 20
0.0
 30
0.0
  3
*D20
  1

  0
LINE
  5
1FF41
330
1FA1E
100
AcDbEntity
  8
寸法
 62
     0
 48
50.0
370
    -2
100
AcDbLine
 10
8083.599999999998
 20
7247.925205146507
 30
0.0
 11
8261.156431984785
 21
7247.925205146507
 31
0.0
  0
LINE
  5
1FF42
330
1FA1E
100
AcDbEntity
  8
寸法
 62
     0
 48
50.0
370
    -2
100
AcDbLine
 10
8083.599999999986
 20
6443.925205146516
 30
0.0
 11
8261.156431984785
 21
6443.925205146516
 31
0.0
  0
LINE
  5
1FF43
330
1FA1E
100
AcDbEntity
  8
寸法
 62
     0
 48
50.0
370
    -2
100
AcDbLine
 10
8201.156431984783
 20
7247.925205146507
 30
0.0
 11
8201.156431984783
 21
6443.925205146516
 31
0.0
  0
INSERT
  5
1FF44
330
1FA1E
100
AcDbEntity
  8
寸法
 62
     0
 48
50.0
370
    -2
100
AcDbBlockReference
  2
_DOTSMALL
 10
8201.156431984783
 20
7247.925205146507
 30
0.0
 41
100.0
 42
100.0
 43
100.0
 50
90.0
  0
INSERT
  5
1FF45
330
1FA1E
100
AcDbEntity
  8
寸法
 62
     0
 48
50.0
370
    -2
100
AcDbBlockReference
  2
_DOTSMALL
 10
8201.156431984783
 20
6443.925205146516
 30
0.0
 41
100.0
 42
100.0
 43
100.0
 50
270.0
  0
MTEXT
  5
1FF46
330
1FA1E
100
AcDbEntity
  8
寸法
 62
     7
 48
50.0
100
AcDbMText
 10
8101.156431984781
 20
6845.925205146511
 30
0.0
 40
120.0
 41
0.0
 71
     5
 72
     1
  1
\A1;804
  7
STYLE1
 11
0.0000000000000001
 21
1.0
 31
0.0
 73
     1
 44
1.0
1001
ACAD
1000
MTEXTBEGIN
1070
    73
1070
     1
1070
    44
1040
1.0
1070
    74
1070
     0
1000
MTEXTEND
  0
POINT
  5
1FF47
330
1FA1E
100
AcDbEntity
  8
DEFPOINTS
 62
     0
 48
50.0
100
AcDbPoint
 10
8063.599999999999
 20
7247.925205146507
 30
0.0
  0
POINT
  5
1FF48
330
1FA1E
100
AcDbEntity
  8
DEFPOINTS
 62
     0
 48
50.0
100
AcDbPoint
 10
8063.599999999985
 20
6443.925205146516
 30
0.0
  0
POINT
  5
1FF49
330
1FA1E
100
AcDbEntity
  8
DEFPOINTS
 62
     0
 48
50.0
100
AcDbPoint
 10
8201.156431984783
 20
6443.925205146516
 30
0.0
  0
ENDBLK
  5
1FA29
330
1FA1E
100
AcDbEntity
  8
0
 48
50.0
100
AcDbBlockEnd
  0
BLOCK
  5
1FFC9
330
1FFBF
100
AcDbEntity
  8
0
 48
50.0
100
AcDbBlockBegin
  2
*D21
 70
     1
 10
0.0
 20
0.0
 30
0.0
  3
*D21
  1

  0
LINE
  5
1FFC0
330
1FFBF
100
AcDbEntity
  8
寸法
 62
     0
 48
50.0
370
    -2
100
AcDbLine
 10
7323.599999999998
 20
8148.925205146507
 30
0.0
 11
7323.599999999998
 21
8788.45352005589
 31
0.0
  0
LINE
  5
1FFC1
330
1FFBF
100
AcDbEntity
  8
寸法
 62
     0
 48
50.0
370
    -2
100
AcDbLine
 10
8013.599999999998
 20
7317.925205146507
 30
0.0
 11
8013.599999999998
 21
8788.45352005589
 31
0.0
  0
LINE
  5
1FFC2
330
1FFBF
100
AcDbEntity
  8
寸法
 62
     0
 48
50.0
370
    -2
100
AcDbLine
 10
7323.599999999998
 20
8728.453520055889
 30
0.0
 11
8013.599999999998
 21
8728.453520055889
 31
0.0
  0
INSERT
  5
1FFC3
330
1FFBF
100
AcDbEntity
  8
寸法
 62
     0
 48
50.0
370
    -2
100
AcDbBlockReference
  2
_DOTSMALL
 10
7323.599999999998
 20
8728.453520055889
 30
0.0
 41
100.0
 42
100.0
 43
100.0
 50
180.0
  0
INSERT
  5
1FFC4
330
1FFBF
100
AcDbEntity
  8
寸法
 62
     0
 48
50.0
370
    -2
100
AcDbBlockReference
  2
_DOTSMALL
 10
8013.599999999998
 20
8728.453520055889
 30
0.0
 41
100.0
 42
100.0
 43
100.0
  0
MTEXT
  5
1FFC5
330
1FFBF
100
AcDbEntity
  8
寸法
 62
     7
 48
50.0
100
AcDbMText
 10
7668.599999999999
 20
8828.453520055889
 30
0.0
 40
120.0
 41
0.0
 71
     5
 72
     1
  1
\A1;690
  7
STYLE1
 73
     1
 44
1.0
1001
ACAD
1000
MTEXTBEGIN
1070
    73
1070
     1
1070
    44
1040
1.0
1070
    74
1070
     0
1000
MTEXTEND
  0
POINT
  5
1FFC6
330
1FFBF
100
AcDbEntity
  8
DEFPOINTS
 62
     0
 48
50.0
100
AcDbPoint
 10
7323.599999999998
 20
8128.925205146506
 30
0.0
  0
POINT
  5
1FFC7
330
1FFBF
100
AcDbEntity
  8
DEFPOINTS
 62
     0
 48
50.0
100
AcDbPoint
 10
8013.599999999998
 20
7297.925205146507
 30
0.0
  0
POINT
  5
1FFC8
330
1FFBF
100
AcDbEntity
  8
DEFPOINTS
 62
     0
 48
50.0
100
AcDbPoint
 10
8013.599999999998
 20
8728.453520055889
 30
0.0
  0
ENDBLK
  5
1FFCA
330
1FFBF
100
AcDbEntity
  8
0
 48
50.0
100
AcDbBlockEnd
  0
BLOCK
  5
1FFD6
330
1FFCC
100
AcDbEntity
  8
0
 48
50.0
100
AcDbBlockBegin
  2
*D22
 70
     1
 10
0.0
 20
0.0
 30
0.0
  3
*D22
  1

  0
LINE
  5
1FFCD
330
1FFCC
100
AcDbEntity
  8
寸法
 62
     0
 48
50.0
370
    -2
100
AcDbLine
 10
8013.599999999998
 20
7317.925205146507
 30
0.0
 11
8013.599999999998
 21
8788.45352005589
 31
0.0
  0
LINE
  5
1FFCE
330
1FFCC
100
AcDbEntity
  8
寸法
 62
     0
 48
50.0
370
    -2
100
AcDbLine
 10
8703.599999999999
 20
8148.925205146507
 30
0.0
 11
8703.599999999999
 21
8788.45352005589
 31
0.0
  0
LINE
  5
1FFCF
330
1FFCC
100
AcDbEntity
  8
寸法
 62
     0
 48
50.0
370
    -2
100
AcDbLine
 10
8013.599999999998
 20
8728.453520055889
 30
0.0
 11
8703.599999999999
 21
8728.453520055889
 31
0.0
  0
INSERT
  5
1FFD0
330
1FFCC
100
AcDbEntity
  8
寸法
 62
     0
 48
50.0
370
    -2
100
AcDbBlockReference
  2
_DOTSMALL
 10
8013.599999999998
 20
8728.453520055889
 30
0.0
 41
100.0
 42
100.0
 43
100.0
 50
180.0
  0
INSERT
  5
1FFD1
330
1FFCC
100
AcDbEntity
  8
寸法
 62
     0
 48
50.0
370
    -2
100
AcDbBlockReference
  2
_DOTSMALL
 10
8703.599999999999
 20
8728.453520055889
 30
0.0
 41
100.0
 42
100.0
 43
100.0
  0
MTEXT
  5
1FFD2
330
1FFCC
100
AcDbEntity
  8
寸法
 62
     7
 48
50.0
100
AcDbMText
 10
8358.599999999999
 20
8828.453520055889
 30
0.0
 40
120.0
 41
0.0
 71
     5
 72
     1
  1
\A1;690
  7
STYLE1
 73
     1
 44
1.0
1001
ACAD
1000
MTEXTBEGIN
1070
    73
1070
     1
1070
    44
1040
1.0
1070
    74
1070
     0
1000
MTEXTEND
  0
POINT
  5
1FFD3
330
1FFCC
100
AcDbEntity
  8
DEFPOINTS
 62
     0
 48
50.0
100
AcDbPoint
 10
8013.599999999998
 20
7297.925205146507
 30
0.0
  0
POINT
  5
1FFD4
330
1FFCC
100
AcDbEntity
  8
DEFPOINTS
 62
     0
 48
50.0
100
AcDbPoint
 10
8703.599999999999
 20
8128.925205146506
 30
0.0
  0
POINT
  5
1FFD5
330
1FFCC
100
AcDbEntity
  8
DEFPOINTS
 62
     0
 48
50.0
100
AcDbPoint
 10
8703.599999999999
 20
8728.453520055889
 30
0.0
  0
ENDBLK
  5
1FFD7
330
1FFCC
100
AcDbEntity
  8
0
 48
50.0
100
AcDbBlockEnd
  0
BLOCK
  5
20660
330
20656
100
AcDbEntity
  8
0
 48
50.0
100
AcDbBlockBegin
  2
*D23
 70
     1
 10
0.0
 20
0.0
 30
0.0
  3
*D23
  1

  0
LINE
  5
2069F
330
20656
100
AcDbEntity
  8
寸法
 62
     0
 48
50.0
370
    -2
100
AcDbLine
 10
5875.489768164861
 20
1622.697173479504
 30
0.0
 11
5683.069454432402
 21
1622.697173479504
 31
0.0
  0
LINE
  5
206A0
330
20656
100
AcDbEntity
  8
寸法
 62
     0
 48
50.0
370
    -2
100
AcDbLine
 10
5795.489768164864
 20
1382.697173479504
 30
0.0
 11
5683.069454432402
 21
1382.697173479504
 31
0.0
  0
LINE
  5
206A1
330
20656
100
AcDbEntity
  8
寸法
 62
     0
 48
50.0
370
    -2
100
AcDbLine
 10
5758.069454432401
 20
1622.697173479504
 30
0.0
 11
5758.069454432401
 21
1382.697173479504
 31
0.0
  0
MTEXT
  5
206A2
330
20656
100
AcDbEntity
  8
寸法
 62
     7
 48
50.0
100
AcDbMText
 10
5658.069454432402
 20
1502.697173479504
 30
0.0
 40
150.0
 41
0.0
 71
     5
 72
     1
  1
\A1;150
  7
STYLE1
 11
0.0000000000000001
 21
1.0
 31
0.0
 73
     1
 44
1.0
1001
ACAD
1000
MTEXTBEGIN
1070
    73
1070
     1
1070
    44
1040
1.0
1070
    74
1070
     0
1000
MTEXTEND
  0
INSERT
  5
206A3
330
20656
100
AcDbEntity
  8
寸法
 62
     0
 48
50.0
370
    -2
100
AcDbBlockReference
  2
_DOTSMALL
 10
5758.069454432401
 20
1622.697173479504
 30
0.0
 41
125.0
 42
125.0
 43
125.0
 50
90.0
  0
INSERT
  5
206A4
330
20656
100
AcDbEntity
  8
寸法
 62
     0
 48
50.0
370
    -2
100
AcDbBlockReference
  2
_DOTSMALL
 10
5758.069454432401
 20
1382.697173479504
 30
0.0
 41
125.0
 42
125.0
 43
125.0
 50
270.0
  0
POINT
  5
206A5
330
20656
100
AcDbEntity
  8
DEFPOINTS
 62
     0
 48
50.0
100
AcDbPoint
 10
5900.48976816486
 20
1622.697173479504
 30
0.0
  0
POINT
  5
206A6
330
20656
100
AcDbEntity
  8
DEFPOINTS
 62
     0
 48
50.0
100
AcDbPoint
 10
5820.489768164865
 20
1382.697173479504
 30
0.0
  0
POINT
  5
206A7
330
20656
100
AcDbEntity
  8
DEFPOINTS
 62
     0
 48
50.0
100
AcDbPoint
 10
5758.069454432401
 20
1382.697173479504
 30
0.0
  0
ENDBLK
  5
20661
330
20656
100
AcDbEntity
  8
0
 48
50.0
100
AcDbBlockEnd
  0
BLOCK
  5
2066C
330
20662
100
AcDbEntity
  8
0
 48
50.0
100
AcDbBlockBegin
  2
*D24
 70
     1
 10
0.0
 20
0.0
 30
0.0
  3
*D24
  1

  0
LINE
  5
206A8
330
20662
100
AcDbEntity
  8
寸法
 62
     0
 48
50.0
370
    -2
100
AcDbLine
 10
6003.489768164861
 20
2166.697173479505
 30
0.0
 11
5218.452529603122
 21
2166.697173479505
 31
0.0
  0
LINE
  5
206A9
330
20662
100
AcDbEntity
  8
寸法
 62
     0
 48
50.0
370
    -2
100
AcDbLine
 10
5795.489768164864
 20
1382.697173479504
 30
0.0
 11
5218.452529603121
 21
1382.697173479504
 31
0.0
  0
LINE
  5
206AA
330
20662
100
AcDbEntity
  8
寸法
 62
     0
 48
50.0
370
    -2
100
AcDbLine
 10
5293.452529603122
 20
2166.697173479505
 30
0.0
 11
5293.452529603121
 21
1382.697173479504
 31
0.0
  0
INSERT
  5
206AB
330
20662
100
AcDbEntity
  8
寸法
 62
     0
 48
50.0
370
    -2
100
AcDbBlockReference
  2
_DOTSMALL
 10
5293.452529603122
 20
2166.697173479505
 30
0.0
 41
125.0
 42
125.0
 43
125.0
 50
90.0
  0
INSERT
  5
206AC
330
20662
100
AcDbEntity
  8
寸法
 62
     0
 48
50.0
370
    -2
100
AcDbBlockReference
  2
_DOTSMALL
 10
5293.452529603121
 20
1382.697173479504
 30
0.0
 41
125.0
 42
125.0
 43
125.0
 50
270.0
  0
MTEXT
  5
206AD
330
20662
100
AcDbEntity
  8
寸法
 62
     7
 48
50.0
100
AcDbMText
 10
5193.452529603121
 20
1754.237323135505
 30
0.0
 40
150.0
 41
0.0
 71
     5
 72
     1
  1
\A1;540
  7
STYLE1
 11
0.0000000000000001
 21
1.0
 31
0.0
 73
     1
 44
1.0
1001
ACAD
1000
MTEXTBEGIN
1070
    73
1070
     1
1070
    44
1040
1.0
1070
    74
1070
     0
1000
MTEXTEND
  0
POINT
  5
206AE
330
20662
100
AcDbEntity
  8
DEFPOINTS
 62
     0
 48
50.0
100
AcDbPoint
 10
6028.489768164861
 20
2166.697173479505
 30
0.0
  0
POINT
  5
206AF
330
20662
100
AcDbEntity
  8
DEFPOINTS
 62
     0
 48
50.0
100
AcDbPoint
 10
5820.489768164865
 20
1382.697173479504
 30
0.0
  0
POINT
  5
206B0
330
20662
100
AcDbEntity
  8
DEFPOINTS
 62
     0
 48
50.0
100
AcDbPoint
 10
5293.452529603121
 20
1382.697173479504
 30
0.0
  0
ENDBLK
  5
2066D
330
20662
100
AcDbEntity
  8
0
 48
50.0
100
AcDbBlockEnd
  0
BLOCK
  5
20678
330
2066E
100
AcDbEntity
  8
0
 48
50.0
100
AcDbBlockBegin
  2
*D25
 70
     1
 10
0.0
 20
0.0
 30
0.0
  3
*D25
  1

  0
LINE
  5
206B1
330
2066E
100
AcDbEntity
  8
寸法
 62
     0
 48
50.0
370
    -2
100
AcDbLine
 10
5900.48976816486
 20
1229.697173479504
 30
0.0
 11
5900.48976816486
 21
769.2675354743442
 31
0.0
  0
LINE
  5
206B2
330
2066E
100
AcDbEntity
  8
寸法
 62
     0
 48
50.0
370
    -2
100
AcDbLine
 10
6348.489768164861
 20
1229.697173479504
 30
0.0
 11
6348.489768164861
 21
769.2675354743442
 31
0.0
  0
LINE
  5
206B3
330
2066E
100
AcDbEntity
  8
寸法
 62
     0
 48
50.0
370
    -2
100
AcDbLine
 10
5900.48976816486
 20
844.2675354743441
 30
0.0
 11
6348.489768164861
 21
844.2675354743441
 31
0.0
  0
INSERT
  5
206B4
330
2066E
100
AcDbEntity
  8
寸法
 62
     0
 48
50.0
370
    -2
100
AcDbBlockReference
  2
_DOTSMALL
 10
5900.48976816486
 20
844.2675354743441
 30
0.0
 41
125.0
 42
125.0
 43
125.0
 50
180.0
  0
INSERT
  5
206B5
330
2066E
100
AcDbEntity
  8
寸法
 62
     0
 48
50.0
370
    -2
100
AcDbBlockReference
  2
_DOTSMALL
 10
6348.489768164861
 20
844.2675354743441
 30
0.0
 41
125.0
 42
125.0
 43
125.0
  0
MTEXT
  5
206B6
330
2066E
100
AcDbEntity
  8
寸法
 62
     7
 48
50.0
100
AcDbMText
 10
6104.393009486638
 20
944.2675354743441
 30
0.0
 40
150.0
 41
0.0
 71
     5
 72
     1
  1
\A1;300
  7
STYLE1
 73
     1
 44
1.0
1001
ACAD
1000
MTEXTBEGIN
1070
    73
1070
     1
1070
    44
1040
1.0
1070
    74
1070
     0
1000
MTEXTEND
  0
POINT
  5
206B7
330
2066E
100
AcDbEntity
  8
DEFPOINTS
 62
     0
 48
50.0
100
AcDbPoint
 10
5900.48976816486
 20
1254.697173479504
 30
0.0
  0
POINT
  5
206B8
330
2066E
100
AcDbEntity
  8
DEFPOINTS
 62
     0
 48
50.0
100
AcDbPoint
 10
6348.489768164861
 20
1254.697173479504
 30
0.0
  0
POINT
  5
206B9
330
2066E
100
AcDbEntity
  8
DEFPOINTS
 62
     0
 48
50.0
100
AcDbPoint
 10
6348.489768164861
 20
844.2675354743441
 30
0.0
  0
ENDBLK
  5
20679
330
2066E
100
AcDbEntity
  8
0
 48
50.0
100
AcDbBlockEnd
  0
BLOCK
  5
20684
330
2067A
100
AcDbEntity
  8
0
 48
50.0
100
AcDbBlockBegin
  2
*D26
 70
     1
 10
0.0
 20
0.0
 30
0.0
  3
*D26
  1

  0
LINE
  5
206BA
330
2067A
100
AcDbEntity
  8
寸法
 62
     0
 48
50.0
370
    -2
100
AcDbLine
 10
6220.489768164861
 20
2191.697173479504
 30
0.0
 11
6220.489768164861
 21
2561.697173479505
 31
0.0
  0
LINE
  5
206BB
330
2067A
100
AcDbEntity
  8
寸法
 62
     0
 48
50.0
370
    -2
100
AcDbLine
 10
6028.489768164861
 20
2191.697173479504
 30
0.0
 11
6028.489768164861
 21
2561.697173479505
 31
0.0
  0
LINE
  5
206BC
330
2067A
100
AcDbEntity
  8
寸法
 62
     0
 48
50.0
370
    -2
100
AcDbLine
 10
6220.489768164861
 20
2486.697173479504
 30
0.0
 11
6028.489768164861
 21
2486.697173479504
 31
0.0
  0
MTEXT
  5
206BD
330
2067A
100
AcDbEntity
  8
寸法
 62
     7
 48
50.0
100
AcDbMText
 10
6135.716098510059
 20
2811.379745175413
 30
0.0
 40
150.0
 41
0.0
 71
     5
 72
     1
  1
\A1;120\P170
  7
STYLE1
 73
     1
 44
1.0
1001
ACAD
1000
MTEXTBEGIN
1070
    73
1070
     1
1070
    44
1040
1.0
1070
    74
1070
     0
1000
MTEXTEND
  0
INSERT
  5
206BE
330
2067A
100
AcDbEntity
  8
寸法
 62
     0
 48
50.0
370
    -2
100
AcDbBlockReference
  2
_DOTSMALL
 10
6220.489768164861
 20
2486.697173479504
 30
0.0
 41
125.0
 42
125.0
 43
125.0
  0
INSERT
  5
206BF
330
2067A
100
AcDbEntity
  8
寸法
 62
     0
 48
50.0
370
    -2
100
AcDbBlockReference
  2
_DOTSMALL
 10
6028.489768164861
 20
2486.697173479504
 30
0.0
 41
125.0
 42
125.0
 43
125.0
 50
180.0
  0
POINT
  5
206C0
330
2067A
100
AcDbEntity
  8
DEFPOINTS
 62
     0
 48
50.0
100
AcDbPoint
 10
6220.489768164861
 20
2166.697173479505
 30
0.0
  0
POINT
  5
206C1
330
2067A
100
AcDbEntity
  8
DEFPOINTS
 62
     0
 48
50.0
100
AcDbPoint
 10
6028.489768164861
 20
2166.697173479505
 30
0.0
  0
POINT
  5
206C2
330
2067A
100
AcDbEntity
  8
DEFPOINTS
 62
     0
 48
50.0
100
AcDbPoint
 10
6028.489768164861
 20
2486.697173479504
 30
0.0
  0
ENDBLK
  5
20685
330
2067A
100
AcDbEntity
  8
0
 48
50.0
100
AcDbBlockEnd
  0
BLOCK
  5
2068F
330
20686
100
AcDbEntity
  8
0
 48
50.0
100
AcDbBlockBegin
  2
*D27
 70
     1
 10
0.0
 20
0.0
 30
0.0
  3
*D27
  1

  0
LINE
  5
206C3
330
20686
100
AcDbEntity
  8
寸法
 62
     0
 48
50.0
370
    -2
100
AcDbLine
 10
8167.529081342056
 20
1842.697173479503
 30
0.0
 11
8719.397681110898
 21
1842.697173479503
 31
0.0
  0
LINE
  5
206C4
330
20686
100
AcDbEntity
  8
寸法
 62
     0
 48
50.0
370
    -2
100
AcDbLine
 10
8644.397681110898
 20
2166.697173479505
 30
0.0
 11
8644.397681110898
 21
1842.697173479503
 31
0.0
  0
INSERT
  5
206C5
330
20686
100
AcDbEntity
  8
寸法
 62
     0
 48
50.0
370
    -2
100
AcDbBlockReference
  2
_DOTSMALL
 10
8644.397681110898
 20
2166.697173479505
 30
0.0
 41
125.0
 42
125.0
 43
125.0
 50
90.0
  0
INSERT
  5
206C6
330
20686
100
AcDbEntity
  8
寸法
 62
     0
 48
50.0
370
    -2
100
AcDbBlockReference
  2
_DOTSMALL
 10
8644.397681110898
 20
1842.697173479503
 30
0.0
 41
125.0
 42
125.0
 43
125.0
 50
270.0
  0
MTEXT
  5
206C7
330
20686
100
AcDbEntity
  8
寸法
 62
     7
 48
50.0
100
AcDbMText
 10
8544.397681110899
 20
2004.697173479505
 30
0.0
 40
150.0
 41
0.0
 71
     5
 72
     1
  1
\A1;180
  7
STYLE1
 11
0.0000000000000001
 21
1.0
 31
0.0
 73
     1
 44
1.0
1001
ACAD
1000
MTEXTBEGIN
1070
    73
1070
     1
1070
    44
1040
1.0
1070
    74
1070
     0
1000
MTEXTEND
  0
POINT
  5
206C8
330
20686
100
AcDbEntity
  8
DEFPOINTS
 62
     0
 48
50.0
100
AcDbPoint
 10
8142.529081342056
 20
2166.697173479505
 30
0.0
  0
POINT
  5
206C9
330
20686
100
AcDbEntity
  8
DEFPOINTS
 62
     0
 48
50.0
100
AcDbPoint
 10
8142.529081342056
 20
1842.697173479503
 30
0.0
  0
POINT
  5
206CA
330
20686
100
AcDbEntity
  8
DEFPOINTS
 62
     0
 48
50.0
100
AcDbPoint
 10
8644.397681110898
 20
1842.697173479503
 30
0.0
  0
ENDBLK
  5
20690
330
20686
100
AcDbEntity
  8
0
 48
50.0
100
AcDbBlockEnd
  0
BLOCK
  5
2069D
330
20691
100
AcDbEntity
  8
0
 48
50.0
100
AcDbBlockBegin
  2
*D28
 70
     1
 10
0.0
 20
0.0
 30
0.0
  3
*D28
  1

  0
LINE
  5
206CB
330
20691
100
AcDbEntity
  8
寸法
 62
     0
 48
50.0
370
    -2
100
AcDbLine
 10
7980.329081342055
 20
2219.457173479506
 30
0.0
 11
8719.397681110898
 21
2219.457173479506
 31
0.0
  0
LINE
  5
206CC
330
20691
100
AcDbEntity
  8
寸法
 62
     0
 48
50.0
370
    -2
100
AcDbLine
 10
8167.529081342056
 20
2166.697173479505
 30
0.0
 11
8719.397681110898
 21
2166.697173479505
 31
0.0
  0
LINE
  5
206CD
330
20691
100
AcDbEntity
  8
寸法
 62
     0
 48
50.0
370
    -2
100
AcDbLine
 10
8644.397681110898
 20
2219.457173479506
 30
0.0
 11
8644.397681110898
 21
2166.697173479505
 31
0.0
  0
LINE
  5
206CE
330
20691
100
AcDbEntity
  8
寸法
 62
     0
 48
50.0
370
    -2
100
AcDbLine
 10
8644.397681110898
 20
2193.077173479505
 30
0.0
 11
8920.452347229925
 21
2166.573215875291
 31
0.0
  0
LINE
  5
206CF
330
20691
100
AcDbEntity
  8
寸法
 62
     0
 48
50.0
370
    -2
100
AcDbLine
 10
8920.452347229925
 20
2166.573215875291
 30
0.0
 11
8920.452347229925
 21
1551.550957321584
 31
0.0
  0
MTEXT
  5
206D0
330
20691
100
AcDbEntity
  8
寸法
 62
     7
 48
50.0
100
AcDbMText
 10
8820.437583450399
 20
1859.062086598439
 30
0.0
 40
150.0
 41
0.0
 71
     5
 72
     1
  1
\A1;20～25
  7
STYLE1
 11
0.0000000000000001
 21
1.0
 31
0.0
 73
     1
 44
1.0
1001
ACAD
1000
MTEXTBEGIN
1070
    73
1070
     1
1070
    44
1040
1.0
1070
    74
1070
     0
1000
MTEXTEND
  0
INSERT
  5
206D1
330
20691
100
AcDbEntity
  8
寸法
 62
     0
 48
50.0
370
    -2
100
AcDbBlockReference
  2
_DOTSMALL
 10
8644.397681110898
 20
2219.457173479506
 30
0.0
 41
125.0
 42
125.0
 43
125.0
 50
90.0
  0
INSERT
  5
206D2
330
20691
100
AcDbEntity
  8
寸法
 62
     0
 48
50.0
370
    -2
100
AcDbBlockReference
  2
_DOTSMALL
 10
8644.397681110898
 20
2166.697173479505
 30
0.0
 41
125.0
 42
125.0
 43
125.0
 50
270.0
  0
POINT
  5
206D3
330
20691
100
AcDbEntity
  8
DEFPOINTS
 62
     0
 48
50.0
100
AcDbPoint
 10
7955.329081342056
 20
2219.457173479506
 30
0.0
  0
POINT
  5
206D4
330
20691
100
AcDbEntity
  8
DEFPOINTS
 62
     0
 48
50.0
100
AcDbPoint
 10
8142.529081342056
 20
2166.697173479505
 30
0.0
  0
POINT
  5
206D5
330
20691
100
AcDbEntity
  8
DEFPOINTS
 62
     0
 48
50.0
100
AcDbPoint
 10
8644.397681110898
 20
2166.697173479505
 30
0.0
  0
ENDBLK
  5
2069E
330
20691
100
AcDbEntity
  8
0
 48
50.0
100
AcDbBlockEnd
  0
BLOCK
  5
206F7
330
206EB
100
AcDbEntity
  8
0
 48
50.0
100
AcDbBlockBegin
  2
*D29
 70
     1
 10
0.0
 20
0.0
 30
0.0
  3
*D29
  1

  0
LINE
  5
20781
330
206EB
100
AcDbEntity
  8
寸法
 62
     0
 48
50.0
370
    -2
100
AcDbLine
 10
8583.599999999998
 20
7878.925205146507
 30
0.0
 11
8583.599999999998
 21
7595.859048102295
 31
0.0
  0
LINE
  5
20782
330
206EB
100
AcDbEntity
  8
寸法
 62
     0
 48
50.0
370
    -2
100
AcDbLine
 10
8473.599999999999
 20
7878.925205146504
 30
0.0
 11
8473.599999999999
 21
7595.859048102295
 31
0.0
  0
LINE
  5
20783
330
206EB
100
AcDbEntity
  8
寸法
 62
     0
 48
50.0
370
    -2
100
AcDbLine
 10
8583.599999999998
 20
7655.859048102295
 30
0.0
 11
8473.599999999999
 21
7655.859048102295
 31
0.0
  0
MTEXT
  5
20784
330
206EB
100
AcDbEntity
  8
寸法
 62
     7
 48
50.0
100
AcDbMText
 10
8375.139755927172
 20
7557.056552348154
 30
0.0
 40
120.0
 41
0.0
 71
     5
 72
     1
  1
\A1;110
  7
STYLE1
 73
     1
 44
1.0
1001
ACAD
1000
MTEXTBEGIN
1070
    73
1070
     1
1070
    44
1040
1.0
1070
    74
1070
     0
1000
MTEXTEND
  0
INSERT
  5
20785
330
206EB
100
AcDbEntity
  8
寸法
 62
     0
 48
50.0
370
    -2
100
AcDbBlockReference
  2
_DOTSMALL
 10
8583.599999999998
 20
7655.859048102295
 30
0.0
 41
100.0
 42
100.0
 43
100.0
  0
INSERT
  5
20786
330
206EB
100
AcDbEntity
  8
寸法
 62
     0
 48
50.0
370
    -2
100
AcDbBlockReference
  2
_DOTSMALL
 10
8473.599999999999
 20
7655.859048102295
 30
0.0
 41
100.0
 42
100.0
 43
100.0
 50
180.0
  0
POINT
  5
20787
330
206EB
100
AcDbEntity
  8
DEFPOINTS
 62
     0
 48
50.0
100
AcDbPoint
 10
8583.599999999998
 20
7898.925205146507
 30
0.0
  0
POINT
  5
20788
330
206EB
100
AcDbEntity
  8
DEFPOINTS
 62
     0
 48
50.0
100
AcDbPoint
 10
8473.599999999999
 20
7898.925205146504
 30
0.0
  0
POINT
  5
20789
330
206EB
100
AcDbEntity
  8
DEFPOINTS
 62
     0
 48
50.0
100
AcDbPoint
 10
8473.599999999999
 20
7655.859048102295
 30
0.0
  0
ENDBLK
  5
206F8
330
206EB
100
AcDbEntity
  8
0
 48
50.0
100
AcDbBlockEnd
  0
BLOCK
  5
2070F
330
20703
100
AcDbEntity
  8
0
 48
50.0
100
AcDbBlockBegin
  2
*D30
 70
     1
 10
0.0
 20
0.0
 30
0.0
  3
*D30
  1

  0
LINE
  5
20831
330
20703
100
AcDbEntity
  8
寸法
 62
     0
 48
50.0
370
    -2
100
AcDbLine
 10
7573.599999999998
 20
8008.925205146507
 30
0.0
 11
7752.868710683499
 21
8008.925205146507
 31
0.0
  0
LINE
  5
20832
330
20703
100
AcDbEntity
  8
寸法
 62
     0
 48
50.0
370
    -2
100
AcDbLine
 10
7573.599999999998
 20
7898.925205146503
 30
0.0
 11
7752.868710683499
 21
7898.925205146503
 31
0.0
  0
LINE
  5
20833
330
20703
100
AcDbEntity
  8
寸法
 62
     0
 48
50.0
370
    -2
100
AcDbLine
 10
7692.868710683498
 20
8008.925205146507
 30
0.0
 11
7692.868710683498
 21
7898.925205146503
 31
0.0
  0
LINE
  5
20834
330
20703
100
AcDbEntity
  8
寸法
 62
     0
 48
50.0
370
    -2
100
AcDbLine
 10
7692.868710683498
 20
7898.925205146503
 30
0.0
 11
7692.868710683498
 21
7550.830716957526
 31
0.0
  0
INSERT
  5
20835
330
20703
100
AcDbEntity
  8
寸法
 62
     0
 48
50.0
370
    -2
100
AcDbBlockReference
  2
_DOTSMALL
 10
7692.868710683498
 20
8008.925205146507
 30
0.0
 41
100.0
 42
100.0
 43
100.0
 50
90.0
  0
INSERT
  5
20836
330
20703
100
AcDbEntity
  8
寸法
 62
     0
 48
50.0
370
    -2
100
AcDbBlockReference
  2
_DOTSMALL
 10
7692.868710683498
 20
7898.925205146503
 30
0.0
 41
100.0
 42
100.0
 43
100.0
 50
270.0
  0
MTEXT
  5
20837
330
20703
100
AcDbEntity
  8
寸法
 62
     7
 48
50.0
100
AcDbMText
 10
7592.868710683498
 20
7674.877961052015
 30
0.0
 40
120.0
 41
0.0
 71
     5
 72
     1
  1
\A1;110
  7
STYLE1
 11
0.0000000000000001
 21
1.0
 31
0.0
 73
     1
 44
1.0
1001
ACAD
1000
MTEXTBEGIN
1070
    73
1070
     1
1070
    44
1040
1.0
1070
    74
1070
     0
1000
MTEXTEND
  0
POINT
  5
20838
330
20703
100
AcDbEntity
  8
DEFPOINTS
 62
     0
 48
50.0
100
AcDbPoint
 10
7553.599999999999
 20
8008.925205146507
 30
0.0
  0
POINT
  5
20839
330
20703
100
AcDbEntity
  8
DEFPOINTS
 62
     0
 48
50.0
100
AcDbPoint
 10
7553.599999999999
 20
7898.925205146503
 30
0.0
  0
POINT
  5
2083A
330
20703
100
AcDbEntity
  8
DEFPOINTS
 62
     0
 48
50.0
100
AcDbPoint
 10
7692.868710683498
 20
7898.925205146503
 30
0.0
  0
ENDBLK
  5
20710
330
20703
100
AcDbEntity
  8
0
 48
50.0
100
AcDbBlockEnd
  0
ENDSEC
  0
SECTION
  2
ENTITIES
  0
LINE
  5
10B57
330
747D
100
AcDbEntity
  8
補助
  6
PHANTOM
 62
   230
 48
50.0
100
AcDbLine
 10
139.9999999999995
 20
11409.6
 30
0.0
 11
16307.2
 21
11409.6
 31
0.0
  0
LINE
  5
10B59
330
747D
100
AcDbEntity
  8
仕様書枠
  6
Continuous
 48
50.0
100
AcDbLine
 10
13107.2
 20
1200.0
 30
0.0
 11
13107.2
 21
-0.0000000000000729
 31
0.0
  0
LINE
  5
10B5C
330
747D
100
AcDbEntity
  8
仕様書枠
 48
50.0
100
AcDbLine
 10
16307.2
 20
1200.0
 30
0.0
 11
16307.2
 21
-0.0000000000000909
 31
0.0
  0
LINE
  5
10B5D
330
747D
100
AcDbEntity
  8
仕様書枠
 48
50.0
100
AcDbLine
 10
140.0
 20
0.0
 30
0.0
 11
16307.2
 21
-0.0000000000000909
 31
0.0
  0
LINE
  5
10B5E
330
747D
100
AcDbEntity
  8
補助
  6
PHANTOM
 62
   230
 48
50.0
100
AcDbLine
 10
16307.2
 20
11409.6
 30
0.0
 11
16307.2
 21
1200.0
 31
0.0
  0
LINE
  5
10B6C
330
747D
100
AcDbEntity
  8
仕様書枠
 48
50.0
100
AcDbLine
 10
13107.2
 20
1200.0
 30
0.0
 11
16307.2
 21
1200.0
 31
0.0
  0
LINE
  5
10B6D
330
747D
100
AcDbEntity
  8
補助
  6
PHANTOM
 62
   230
 48
50.0
100
AcDbLine
 10
13107.2
 20
11409.6
 30
0.0
 11
13107.2
 21
4800.0
 31
0.0
  0
LINE
  5
10B6F
330
747D
100
AcDbEntity
  8
補助
  6
PHANTOM
 62
   230
 48
50.0
100
AcDbLine
 10
13107.2
 20
4800.0
 30
0.0
 11
16307.2
 21
4800.0
 31
0.0
  0
LINE
  5
10B72
330
747D
100
AcDbEntity
  8
文字
 62
     7
 48
50.0
100
AcDbLine
 10
13187.2
 20
400.0
 30
0.0
 11
16227.2
 21
400.0
 31
0.0
  0
TEXT
  5
10B73
330
747D
100
AcDbEntity
  8
文字
 62
     7
 48
50.0
100
AcDbText
 10
13162.9790565769
 20
895.0906074299405
 30
0.0
 40
200.0
  1
基 礎 図
  7
STYLE2
100
AcDbText
  0
TEXT
  5
10B74
330
747D
100
AcDbEntity
  8
文字
 62
     7
 48
50.0
100
AcDbText
 10
13201.43669998441
 20
477.2740661031255
 30
0.0
 40
160.0
  1
機種名
  7
STYLE2
100
AcDbText
  0
LINE
  5
10B7B
330
747D
100
AcDbEntity
  8
仕様書枠
 48
50.0
100
AcDbLine
 10
13107.2
 20
800.0
 30
0.0
 11
14251.2
 21
800.0
 31
0.0
  0
LINE
  5
10B88
330
747D
100
AcDbEntity
  8
仕様書枠
  6
Continuous
 48
50.0
100
AcDbLine
 10
14251.2
 20
1200.0
 30
0.0
 11
14251.2
 21
800.0
 31
0.0
  0
TEXT
  5
14DEF
330
747D
100
AcDbEntity
  8
文字
 62
     7
 48
50.0
100
AcDbText
 10
14641.2525855784
 20
871.1744590657925
 30
0.0
 40
100.0
  1
～一般型・多雪地型～
  7
STYLE2
100
AcDbText
  0
TEXT
  5
15A76
330
747D
100
AcDbEntity
  8
文字
 62
     7
 48
50.0
100
AcDbText
 10
14478.98566430227
 20
499.5983841039501
 30
0.0
 40
160.0
  1
ＮＸＮ－３６CＳ
  7
STYLE2
100
AcDbText
  0
TEXT
  5
1D002
330
747D
100
AcDbEntity
  8
文字
 62
     7
 48
50.0
100
AcDbText
 10
13188.16259899338
 20
246.7109242801889
 30
0.0
 40
80.0
  1
※寒冷地等は地域の実情に合わせた基礎にして下さい。
  7
STYLE2
100
AcDbText
  0
DIMENSION
  5
1D91B
330
747D
100
AcDbEntity
  8
寸法
 48
50.0
100
AcDbDimension
  2
*D2
 10
7770.307249876097
 20
5788.92520514651
 30
0.0
 11
7770.307249876096
 21
6024.972449240999
 31
0.0
 70
   160
 71
     5
 42
130.0000000000018
  3
INABA_S40G
100
AcDbAlignedDimension
 13
7553.599999999999
 23
5658.925205146508
 33
0.0
 14
7553.599999999999
 24
5788.92520514651
 34
0.0
 50
90.0
100
AcDbRotatedDimension
1001
ACAD
1000
DSTYLE
1002
{
1070
   174
1070
     0
1070
   272
1070
     1
1070
   288
1070
     0
1070
   341
1005
0
1002
}
  0
DIMENSION
  5
1D91C
330
747D
100
AcDbEntity
  8
寸法
 48
50.0
100
AcDbDimension
  2
*D3
 10
7770.307249876097
 20
5488.925205146508
 30
0.0
 11
7770.307249876096
 21
5252.87796105202
 31
0.0
 70
   160
 71
     5
 42
170.0000000000018
  3
INABA_S40G
100
AcDbAlignedDimension
 13
7553.599999999999
 23
5658.92520514651
 33
0.0
 14
7553.599999999999
 24
5488.925205146508
 34
0.0
 50
90.0
100
AcDbRotatedDimension
1001
ACAD
1000
DSTYLE
1002
{
1070
   174
1070
     0
1070
   272
1070
     1
1070
   288
1070
     0
1070
   341
1005
0
1002
}
  0
DIMENSION
  5
1D91D
330
747D
100
AcDbEntity
  8
寸法
 48
50.0
100
AcDbDimension
  2
*D4
 10
7446.6
 20
8933.985815536436
 30
0.0
 11
8013.599999999998
 21
9033.985815536437
 31
0.0
 70
    32
 71
     5
 42
1134.0
  3
INABA_S40G
100
AcDbAlignedDimension
 13
8580.599999999998
 23
8055.925205146506
 33
0.0
 14
7446.6
 24
8055.925205146506
 34
0.0
100
AcDbRotatedDimension
1001
ACAD
1000
DSTYLE
1002
{
1070
   174
1070
     0
1070
   272
1070
     1
1070
   288
1070
     0
1070
   341
1005
0
1002
}
  0
LINE
  5
1D91E
330
747D
100
AcDbEntity
  8
部品1
 48
50.0
100
AcDbLine
 10
8473.599999999999
 20
5658.925205146523
 30
0.0
 11
7553.599999999999
 21
5658.92520514651
 31
0.0
  0
LINE
  5
1D91F
330
747D
100
AcDbEntity
  8
部品1
 48
50.0
100
AcDbLine
 10
8473.599999999999
 20
8008.925205146505
 30
0.0
 11
7553.599999999999
 21
8008.925205146507
 31
0.0
  0
DIMENSION
  5
1D920
330
747D
100
AcDbEntity
  8
寸法
 48
50.0
100
AcDbDimension
  2
*D5
 10
8703.599999999999
 20
9146.446511053273
 30
0.0
 11
8013.599999999998
 21
9246.446511053273
 31
0.0
 70
    32
 71
     5
 42
1380.0
  3
INABA_S40G
100
AcDbAlignedDimension
 13
7323.599999999998
 23
8128.925205146506
 33
0.0
 14
8703.599999999999
 24
8128.925205146506
 34
0.0
100
AcDbRotatedDimension
1001
ACAD
1000
DSTYLE
1002
{
1070
   174
1070
     0
1070
   272
1070
     1
1070
   288
1070
     0
1070
   341
1005
0
1002
}
  0
LINE
  5
1D921
330
747D
100
AcDbEntity
  8
部品1
 48
50.0
100
AcDbLine
 10
8703.599999999999
 20
5488.925205146525
 30
0.0
 11
7323.599999999998
 21
5488.925205146506
 31
0.0
  0
LINE
  5
1D922
330
747D
100
AcDbEntity
  8
部品1
 48
50.0
100
AcDbLine
 10
8703.599999999999
 20
8128.925205146506
 30
0.0
 11
7323.599999999998
 21
8128.925205146506
 31
0.0
  0
LINE
  5
1D923
330
747D
100
AcDbEntity
  8
想像線
 48
10.0
100
AcDbLine
 10
8748.599999999999
 20
5433.925205146503
 30
0.0
 11
7278.599999999999
 21
5433.925205146507
 31
0.0
  0
LINE
  5
1D924
330
747D
100
AcDbEntity
  8
想像線
 48
10.0
100
AcDbLine
 10
7278.599999999994
 20
8203.925205146507
 30
0.0
 11
8748.600000000001
 21
8203.925205146509
 31
0.0
  0
DIMENSION
  5
1D925
330
747D
100
AcDbEntity
  8
寸法
 48
50.0
100
AcDbDimension
  2
*D6
 10
7323.599999999998
 20
8933.985815536436
 30
0.0
 11
7085.11471862576
 21
8933.985815536436
 31
0.0
 70
   160
 71
     5
 42
123.0
  3
INABA_S40G
100
AcDbAlignedDimension
 13
7446.6
 23
8055.925205146506
 33
0.0
 14
7323.599999999998
 24
8128.925205146506
 34
0.0
100
AcDbRotatedDimension
1001
ACAD
1000
DSTYLE
1002
{
1070
   174
1070
     0
1070
   272
1070
     1
1070
   288
1070
     0
1070
   341
1005
0
1002
}
  0
DIMENSION
  5
1D926
330
747D
100
AcDbEntity
  8
寸法
 48
50.0
100
AcDbDimension
  2
*D7
 10
7323.599999999998
 20
9146.446511053275
 30
0.0
 11
7301.099999999997
 21
9146.446511053275
 31
0.0
 70
   160
  1
a
 71
     5
 42
45.00000000000364
  3
INABA_S40G
100
AcDbAlignedDimension
 13
7278.599999999994
 23
8933.985815536436
 33
0.0
 14
7323.599999999998
 24
8128.925205146506
 34
0.0
100
AcDbRotatedDimension
1001
ACAD
1000
DSTYLE
1002
{
1070
   174
1070
     0
1070
   272
1070
     1
1070
   288
1070
     0
1070
   341
1005
0
1002
}
  0
DIMENSION
  5
1D927
330
747D
100
AcDbEntity
  8
寸法
 48
50.0
100
AcDbDimension
  2
*D8
 10
6827.657733986177
 20
5686.925205146508
 30
0.0
 11
6827.657733986177
 21
6808.925205146507
 31
0.0
 70
   160
 71
     5
 42
2318.999999999999
  3
INABA_S40G
100
AcDbAlignedDimension
 13
7396.599999999999
 23
8005.925205146507
 33
0.0
 14
7396.600000000006
 24
5686.925205146508
 34
0.0
 50
90.0
100
AcDbRotatedDimension
1001
ACAD
1000
DSTYLE
1002
{
1070
   174
1070
     0
1070
   272
1070
     1
1070
   288
1070
     0
1070
   341
1005
0
1002
}
  0
LINE
  5
1D928
330
747D
100
AcDbEntity
  8
部品1
 48
50.0
100
AcDbLine
 10
7443.599999999999
 20
5788.925205146508
 30
0.0
 11
7443.599999999999
 21
7898.925205146503
 31
0.0
  0
DIMENSION
  5
1D929
330
747D
100
AcDbEntity
  8
寸法
 48
50.0
100
AcDbDimension
  2
*D9
 10
6582.164931848211
 20
5488.925205146506
 30
0.0
 11
6582.16493184821
 21
6808.925205146507
 31
0.0
 70
   160
 71
     5
 42
2640.0
  3
INABA_S40G
100
AcDbAlignedDimension
 13
7323.599999999998
 23
8128.925205146506
 33
0.0
 14
7323.599999999998
 24
5488.925205146506
 34
0.0
 50
90.0
100
AcDbRotatedDimension
1001
ACAD
1000
DSTYLE
1002
{
1070
   174
1070
     0
1070
   272
1070
     1
1070
   288
1070
     0
1070
   341
1005
0
1002
}
  0
LINE
  5
1D92A
330
747D
100
AcDbEntity
  8
部品1
 48
50.0
100
AcDbLine
 10
7323.599999999998
 20
5488.925205146506
 30
0.0
 11
7323.599999999998
 21
8128.925205146506
 31
0.0
  0
LINE
  5
1D92B
330
747D
100
AcDbEntity
  8
想像線
 48
10.0
100
AcDbLine
 10
7278.599999999999
 20
5433.925205146507
 30
0.0
 11
7278.599999999999
 21
8203.925205146509
 31
0.0
  0
DIMENSION
  5
1D92C
330
747D
100
AcDbEntity
  8
寸法
 48
50.0
100
AcDbDimension
  2
*D10
 10
6827.657733986177
 20
5488.925205146506
 30
0.0
 11
6827.657733986176
 21
5252.715545316852
 31
0.0
 70
   160
 71
     5
 42
198.0000000000018
  3
INABA_S40G
100
AcDbAlignedDimension
 13
7396.600000000006
 23
5686.925205146508
 33
0.0
 14
7323.599999999998
 24
5488.925205146506
 34
0.0
 50
90.0
100
AcDbRotatedDimension
1001
ACAD
1000
DSTYLE
1002
{
1070
   174
1070
     0
1070
   272
1070
     1
1070
   288
1070
     0
1070
   341
1005
0
1002
}
  0
DIMENSION
  5
1D92D
330
747D
100
AcDbEntity
  8
寸法
 48
50.0
100
AcDbDimension
  2
*D11
 10
6582.16493184821
 20
5433.925205146507
 30
0.0
 11
6582.16493184821
 21
5461.425205146508
 31
0.0
 70
   160
  1
b
 71
     5
 42
55.0
  3
INABA_S40G
100
AcDbAlignedDimension
 13
7323.599999999998
 23
5488.925205146506
 33
0.0
 14
6827.657733986177
 24
5433.925205146507
 34
0.0
 50
90.0
100
AcDbRotatedDimension
1001
ACAD
1000
DSTYLE
1002
{
1070
   174
1070
     0
1070
   272
1070
     1
1070
   288
1070
     0
1070
   341
1005
0
1002
}
  0
LINE
  5
1D92E
330
747D
100
AcDbEntity
  8
センター
 48
2.0
100
AcDbLine
 10
7446.600000000007
 20
5736.925205146508
 30
0.0
 11
7446.600000000007
 21
5636.925205146508
 31
0.0
  0
LINE
  5
1D92F
330
747D
100
AcDbEntity
  8
センター
 48
2.0
100
AcDbLine
 10
7396.600000000006
 20
5686.925205146508
 30
0.0
 11
7496.600000000007
 21
5686.925205146508
 31
0.0
  0
CIRCLE
  5
1D930
330
747D
100
AcDbEntity
  8
部品1
 48
50.0
100
AcDbCircle
 10
7446.600000000007
 20
5686.925205146508
 30
0.0
 40
35.0
  0
LINE
  5
1D931
330
747D
100
AcDbEntity
  8
部品1
 48
50.0
100
AcDbLine
 10
7553.599999999999
 20
5788.92520514651
 30
0.0
 11
7443.599999999999
 21
5788.925205146508
 31
0.0
  0
LINE
  5
1D932
330
747D
100
AcDbEntity
  8
部品1
 48
50.0
100
AcDbLine
 10
7553.599999999999
 20
5658.925205146508
 30
0.0
 11
7553.599999999999
 21
5788.92520514651
 31
0.0
  0
DIMENSION
  5
1D933
330
747D
100
AcDbEntity
  8
寸法
 48
50.0
100
AcDbDimension
  2
*D12
 10
6827.657733986177
 20
8005.925205146507
 30
0.0
 11
6827.657733986176
 21
8367.410486520746
 31
0.0
 70
   160
 71
     5
 42
123.0
  3
INABA_S40G
100
AcDbAlignedDimension
 13
7323.599999999998
 23
8128.925205146506
 33
0.0
 14
7396.599999999999
 24
8005.925205146507
 34
0.0
 50
90.0
100
AcDbRotatedDimension
1001
ACAD
1000
DSTYLE
1002
{
1070
   174
1070
     0
1070
   272
1070
     1
1070
   288
1070
     0
1070
   341
1005
0
1002
}
  0
DIMENSION
  5
1D934
330
747D
100
AcDbEntity
  8
寸法
 48
50.0
100
AcDbDimension
  2
*D13
 10
6582.16493184821
 20
8128.925205146506
 30
0.0
 11
6582.164931848208
 21
8166.425205146508
 31
0.0
 70
   160
  1
c
 71
     5
 42
75.0
  3
INABA_S40G
100
AcDbAlignedDimension
 13
6827.657733986177
 23
8203.925205146507
 33
0.0
 14
7323.599999999998
 24
8128.925205146506
 34
0.0
 50
90.0
100
AcDbRotatedDimension
1001
ACAD
1000
DSTYLE
1002
{
1070
   174
1070
     0
1070
   272
1070
     1
1070
   288
1070
     0
1070
   341
1005
0
1002
}
  0
LINE
  5
1D935
330
747D
100
AcDbEntity
  8
部品1
 48
50.0
100
AcDbLine
 10
7443.599999999999
 20
6908.925205146506
 30
0.0
 11
7323.599999999998
 21
6908.925205146506
 31
0.0
  0
LINE
  5
1D936
330
747D
100
AcDbEntity
  8
部品1
 48
50.0
100
AcDbLine
 10
7443.599999999999
 20
6708.925205146506
 30
0.0
 11
7323.599999999998
 21
6708.925205146506
 31
0.0
  0
LINE
  5
1D938
330
747D
100
AcDbEntity
  8
センター
 48
2.0
100
AcDbLine
 10
7446.6
 20
8055.925205146506
 30
0.0
 11
7446.6
 21
7955.925205146506
 31
0.0
  0
LINE
  5
1D939
330
747D
100
AcDbEntity
  8
センター
 48
2.0
100
AcDbLine
 10
7396.599999999999
 20
8005.925205146507
 30
0.0
 11
7496.599999999999
 21
8005.925205146507
 31
0.0
  0
CIRCLE
  5
1D93A
330
747D
100
AcDbEntity
  8
部品1
 48
50.0
100
AcDbCircle
 10
7446.6
 20
8005.925205146507
 30
0.0
 40
35.0
  0
LINE
  5
1D93B
330
747D
100
AcDbEntity
  8
部品1
 48
50.0
100
AcDbLine
 10
7553.599999999999
 20
7898.925205146503
 30
0.0
 11
7443.599999999999
 21
7898.925205146504
 31
0.0
  0
LINE
  5
1D93C
330
747D
100
AcDbEntity
  8
部品1
 48
50.0
100
AcDbLine
 10
7553.599999999999
 20
7898.925205146503
 30
0.0
 11
7553.599999999997
 21
8008.925205146507
 31
0.0
  0
DIMENSION
  5
1D93E
330
747D
100
AcDbEntity
  8
寸法
 48
50.0
100
AcDbDimension
  2
*D14
 10
8580.599999999998
 20
8933.985815536436
 30
0.0
 11
8942.085281374238
 21
8933.985815536436
 31
0.0
 70
   160
 71
     5
 42
123.0
  3
INABA_S40G
100
AcDbAlignedDimension
 13
8703.599999999999
 23
8128.925205146506
 33
0.0
 14
8580.599999999998
 24
8055.925205146506
 34
0.0
100
AcDbRotatedDimension
1001
ACAD
1000
DSTYLE
1002
{
1070
   174
1070
     0
1070
   272
1070
     1
1070
   288
1070
     0
1070
   341
1005
0
1002
}
  0
DIMENSION
  5
1D93F
330
747D
100
AcDbEntity
  8
寸法
 48
50.0
100
AcDbDimension
  2
*D15
 10
8748.599999999999
 20
9146.446511053273
 30
0.0
 11
8726.099999999998
 21
9146.446511053273
 31
0.0
 70
   160
  1
a
 71
     5
 42
45.0
  3
INABA_S40G
100
AcDbAlignedDimension
 13
8703.599999999999
 23
8128.925205146506
 33
0.0
 14
8748.599999999999
 24
8933.985815536436
 34
0.0
100
AcDbRotatedDimension
1001
ACAD
1000
DSTYLE
1002
{
1070
   174
1070
     0
1070
   272
1070
     1
1070
   288
1070
     0
1070
   341
1005
0
1002
}
  0
LEADER
  5
1D940
330
747D
100
AcDbEntity
  8
寸法
 48
50.0
100
AcDbLeader
  3
INABA_S40G
 71
     0
 73
     0
 74
     0
 75
     1
 40
120.0
 41
720.0000000000001
 76
     3
 10
8703.599999999999
 20
6732.873983745783
 30
0.0
 10
8953.148163484241
 20
6414.461058226077
 30
0.0
 10
9053.148163484243
 20
6414.461058226077
 30
0.0
340
1D941
1001
ACAD
1000
DSTYLE
1002
{
1070
   174
1070
     0
1070
   272
1070
     1
1070
   288
1070
     0
1070
   341
1005
0
1002
}
  0
MTEXT
  5
1D941
102
{ACAD_REACTORS
330
1D940
102
}
330
747D
100
AcDbEntity
  8
部品1
 62
     7
 48
50.0
100
AcDbMText
 10
9813.148163484243
 20
6514.461058226077
 30
0.0
 40
120.0
 41
0.0
 71
     6
 72
     1
  1
\A1;床下換気口
  7
STYLE1
 73
     1
 44
1.0
1001
ACAD
1000
MTEXTBEGIN
1070
    73
1070
     1
1070
    44
1040
1.0
1070
    74
1070
     0
1000
MTEXTEND
  0
DIMENSION
  5
1D942
330
747D
100
AcDbEntity
  8
寸法
 48
50.0
100
AcDbDimension
  2
*D16
 10
8583.599999999998
 20
7655.859048102295
 30
0.0
 11
8939.647244094487
 21
7655.859048102295
 31
0.0
 70
   160
 71
     5
 42
120.0
  3
INABA_S40G
100
AcDbAlignedDimension
 13
8703.599999999999
 23
8128.925205146506
 33
0.0
 14
8583.599999999998
 24
7898.925205146507
 34
0.0
100
AcDbRotatedDimension
1001
ACAD
1000
DSTYLE
1002
{
1070
   174
1070
     0
1070
   272
1070
     1
1070
   288
1070
     0
1070
   341
1005
0
1002
}
  0
TEXT
  5
1D943
330
747D
100
AcDbEntity
  8
部品1
 48
50.0
100
AcDbText
 10
8790.4200666784
 20
4794.038408367232
 30
0.0
 40
80.0
  1
(a=45,b=55,c=75)
  7
STYLE1
100
AcDbText
  0
TEXT
  5
1D944
330
747D
100
AcDbEntity
  8
部品1
 48
50.0
100
AcDbText
 10
8720.543179073516
 20
4913.769454520372
 30
0.0
 40
80.0
  1
※a,b,cは屋根の出幅です。
  7
STYLE1
100
AcDbText
  0
MTEXT
  5
1D945
102
{ACAD_REACTORS
330
1D946
102
}
330
747D
100
AcDbEntity
  8
部品1
 62
     7
 48
50.0
100
AcDbMText
 10
9585.725774538317
 20
5137.907813186715
 30
0.0
 40
120.0
 41
0.0
 71
     6
 72
     1
  1
\A1;屋根の外寸
  7
STYLE1
 73
     1
 44
1.0
1001
ACAD
1000
MTEXTBEGIN
1070
    73
1070
     1
1070
    44
1040
1.0
1070
    74
1070
     0
1000
MTEXTEND
  0
LEADER
  5
1D946
330
747D
100
AcDbEntity
  8
寸法
 48
50.0
100
AcDbLeader
  3
INABA_S50G
 71
     0
 73
     0
 74
     0
 75
     1
 40
120.0
 41
672.0
 76
     3
 10
8515.488587933825
 20
5432.925205146506
 30
0.0
 10
8763.725774538318
 20
5052.907813186715
 30
0.0
 10
8888.725774538318
 20
5052.907813186715
 30
0.0
340
1D945
1001
ACAD
1000
DSTYLE
1002
{
1070
   341
1005
1C530
1070
    40
1040
1.0
1070
   343
1005
1C530
1070
   344
1005
1C530
1002
}
  0
LINE
  5
1D949
330
747D
100
AcDbEntity
  8
部品1
 48
50.0
100
AcDbLine
 10
8583.599999999998
 20
5788.925205146526
 30
0.0
 11
8583.599999999998
 21
7898.925205146507
 31
0.0
  0
LINE
  5
1D94A
330
747D
100
AcDbEntity
  8
部品1
 48
50.0
100
AcDbLine
 10
8703.599999999999
 20
5488.925205146525
 30
0.0
 11
8703.599999999999
 21
8128.925205146506
 31
0.0
  0
LINE
  5
1D94B
330
747D
100
AcDbEntity
  8
想像線
 48
10.0
100
AcDbLine
 10
8748.599999999999
 20
8203.925205146509
 30
0.0
 11
8748.600000000001
 21
5433.925205146507
 31
0.0
  0
TEXT
  5
1D94C
330
747D
100
AcDbEntity
  8
部品1
 48
50.0
100
AcDbText
 10
7894.294671087948
 20
5281.542941867825
 30
0.0
 40
120.0
  1
扉面
  7
STYLE1
 72
     1
 11
8022.294671087948
 21
5265.542941867825
 31
0.0
100
AcDbText
 73
     1
  0
HATCH
  5
1D94E
330
747D
100
AcDbEntity
  8
細線
 48
50.0
100
AcDbHatch
 10
0.0
 20
0.0
 30
0.0
210
0.0
220
0.0
230
1.0
  2
LINE
 70
     0
 71
     0
 91
        1
 92
        7
 72
     0
 73
     1
 93
        4
 10
8113.600000000014
 20
5488.925205146515
 10
8113.600000000014
 20
5658.925205146513
 10
7913.600000000013
 20
5658.925205146512
 10
7913.600000000013
 20
5488.92520514651
 97
        0
 75
     0
 76
     1
 52
45.0
 41
10.0
 77
     0
 78
     1
 53
45.0
 43
4410.48843901349
 44
-5662.616349929781
 45
-22.45064030267288
 46
22.45064030267288
 79
     0
 47
2.903594399684136
 98
        1
 10
8026.710000003099
 20
5527.952260578955
  0
LINE
  5
1D94F
330
747D
100
AcDbEntity
  8
部品1
 48
50.0
100
AcDbLine
 10
7913.600000000013
 20
5488.925205146515
 30
0.0
 11
7913.600000000013
 21
5658.92520514651
 31
0.0
  0
LINE
  5
1D950
330
747D
100
AcDbEntity
  8
部品1
 48
50.0
100
AcDbLine
 10
8113.600000000014
 20
5488.925205146515
 30
0.0
 11
8113.600000000014
 21
5658.925205146513
 31
0.0
  0
LINE
  5
1D951
330
747D
100
AcDbEntity
  8
センター
 48
2.0
100
AcDbLine
 10
8530.600000000005
 20
5686.925205146508
 30
0.0
 11
8630.600000000006
 21
5686.925205146508
 31
0.0
  0
CIRCLE
  5
1D952
330
747D
100
AcDbEntity
  8
部品1
 48
50.0
100
AcDbCircle
 10
8580.600000000005
 20
5686.925205146508
 30
0.0
 40
35.0
  0
LINE
  5
1D953
330
747D
100
AcDbEntity
  8
部品1
 48
50.0
100
AcDbLine
 10
8583.599999999998
 20
5788.925205146526
 30
0.0
 11
8473.599999999999
 21
5788.925205146525
 31
0.0
  0
LINE
  5
1D954
330
747D
100
AcDbEntity
  8
部品1
 48
50.0
100
AcDbLine
 10
8473.599999999999
 20
5658.925205146523
 30
0.0
 11
8473.599999999999
 21
5788.925205146525
 31
0.0
  0
LINE
  5
1D955
330
747D
100
AcDbEntity
  8
センター
 48
2.0
100
AcDbLine
 10
8580.600000000005
 20
5736.925205146508
 30
0.0
 11
8580.600000000005
 21
5636.925205146508
 31
0.0
  0
LINE
  5
1D956
330
747D
100
AcDbEntity
  8
部品1
 48
50.0
100
AcDbLine
 10
8113.599999999999
 20
8008.925205146507
 30
0.0
 11
8113.599999999998
 21
8128.925205146506
 31
0.0
  0
LINE
  5
1D957
330
747D
100
AcDbEntity
  8
部品1
 48
50.0
100
AcDbLine
 10
7913.599999999999
 20
8008.925205146507
 30
0.0
 11
7913.599999999998
 21
8128.925205146506
 31
0.0
  0
DIMENSION
  5
1D959
330
747D
100
AcDbEntity
  8
寸法
 48
50.0
100
AcDbDimension
  2
*D17
 10
7692.868710683498
 20
8008.925205146507
 30
0.0
 11
7692.868710683498
 21
8364.972449240999
 31
0.0
 70
   160
 71
     5
 42
120.0000000000018
  3
INABA_S40G
100
AcDbAlignedDimension
 13
7885.980265045079
 23
8128.925205146508
 33
0.0
 14
7553.599999999999
 24
8008.925205146507
 34
0.0
 50
90.0
100
AcDbRotatedDimension
1001
ACAD
1000
DSTYLE
1002
{
1070
   174
1070
     0
1070
   272
1070
     1
1070
   288
1070
     0
1070
   341
1005
0
1002
}
  0
LINE
  5
1D95A
330
747D
100
AcDbEntity
  8
センター
 48
2.0
100
AcDbLine
 10
8530.599999999997
 20
8005.925205146507
 30
0.0
 11
8630.599999999999
 21
8005.925205146507
 31
0.0
  0
CIRCLE
  5
1D95B
330
747D
100
AcDbEntity
  8
部品1
 48
50.0
100
AcDbCircle
 10
8580.599999999998
 20
8005.925205146507
 30
0.0
 40
35.0
  0
LINE
  5
1D95C
330
747D
100
AcDbEntity
  8
部品1
 48
50.0
100
AcDbLine
 10
8583.599999999998
 20
7898.925205146508
 30
0.0
 11
8473.599999999999
 21
7898.925205146504
 31
0.0
  0
LINE
  5
1D95D
330
747D
100
AcDbEntity
  8
部品1
 48
50.0
100
AcDbLine
 10
8473.599999999999
 20
7898.925205146504
 30
0.0
 11
8473.599999999999
 21
8008.925205146505
 31
0.0
  0
LINE
  5
1D95E
330
747D
100
AcDbEntity
  8
部品1
 48
50.0
100
AcDbLine
 10
8703.599999999999
 20
6908.925205146506
 30
0.0
 11
8583.599999999998
 21
6908.925205146505
 31
0.0
  0
LINE
  5
1D95F
330
747D
100
AcDbEntity
  8
部品1
 48
50.0
100
AcDbLine
 10
8703.599999999999
 20
6708.925205146506
 30
0.0
 11
8583.599999999998
 21
6708.925205146506
 31
0.0
  0
LINE
  5
1D961
330
747D
100
AcDbEntity
  8
センター
 48
2.0
100
AcDbLine
 10
8580.599999999998
 20
8055.925205146506
 30
0.0
 11
8580.599999999998
 21
7955.925205146506
 31
0.0
  0
TEXT
  5
1DEDA
330
747D
100
AcDbEntity
  8
文字
 62
     7
 48
50.0
100
AcDbText
 10
13188.16259899338
 20
79.80631269190325
 30
0.0
 40
80.0
  1
※布基礎には換気口を設けてください。
  7
STYLE2
100
AcDbText
  0
MTEXT
  5
1E700
102
{ACAD_REACTORS
330
1E701
102
}
330
747D
100
AcDbEntity
  8
部品1
 62
     7
 48
50.0
100
AcDbMText
 10
9753.416979436106
 20
8371.950648954458
 30
0.0
 40
120.0
 41
0.0
 71
     6
 72
     1
  1
基礎ボルト芯
  7
STYLE1
 73
     1
 44
1.0
1001
ACAD
1000
MTEXTBEGIN
1070
    73
1070
     1
1070
    44
1040
1.0
1070
    74
1070
     0
1000
MTEXTEND
  0
LEADER
  5
1E701
330
747D
100
AcDbEntity
  8
寸法
 48
50.0
100
AcDbLeader
  3
INABA_S40G
 71
     0
 73
     0
 74
     0
 75
     1
 40
120.0
 41
846.0000000000002
 76
     3
 10
8580.599999999998
 20
8005.925205146507
 30
0.0
 10
8767.416979436106
 20
8271.950648954458
 30
0.0
 10
8867.416979436105
 20
8271.950648954458
 30
0.0
340
1E700
1001
ACAD
1000
DSTYLE
1002
{
1070
   174
1070
     0
1070
   272
1070
     1
1070
   288
1070
     0
1070
   341
1005
0
1002
}
  0
LINE
  5
1F232
330
747D
100
AcDbEntity
  8
部品1
 48
50.0
100
AcDbLine
 10
8113.599999999998
 20
7147.925205146505
 30
0.0
 11
8113.599999999998
 21
7347.925205146506
 31
0.0
  0
LINE
  5
1F233
330
747D
100
AcDbEntity
  8
センター
 48
2.0
100
AcDbLine
 10
7963.599999999998
 20
7247.925205146507
 30
0.0
 11
8063.599999999999
 21
7247.925205146507
 31
0.0
  0
LINE
  5
1F234
330
747D
100
AcDbEntity
  8
センター
 48
2.0
100
AcDbLine
 10
8013.599999999998
 20
7297.925205146507
 30
0.0
 11
8013.599999999998
 21
7197.925205146507
 31
0.0
  0
LINE
  5
1F235
330
747D
100
AcDbEntity
  8
部品1
 48
50.0
100
AcDbLine
 10
7913.599999999998
 20
7147.925205146506
 30
0.0
 11
7913.599999999998
 21
7347.925205146506
 31
0.0
  0
LINE
  5
1F236
330
747D
100
AcDbEntity
  8
部品1
 48
50.0
100
AcDbLine
 10
8113.599999999998
 20
7347.925205146506
 30
0.0
 11
7913.599999999998
 21
7347.925205146506
 31
0.0
  0
LINE
  5
1F237
330
747D
100
AcDbEntity
  8
部品1
 48
50.0
100
AcDbLine
 10
8113.599999999998
 20
7147.925205146505
 30
0.0
 11
7913.599999999998
 21
7147.925205146505
 31
0.0
  0
DIMENSION
  5
1F2B6
330
747D
100
AcDbEntity
  8
寸法
 48
50.0
100
AcDbDimension
  2
*D18
 10
8201.156431984797
 20
8128.925205146506
 30
0.0
 11
8101.156431984795
 21
7688.425205146507
 31
0.0
 70
    32
 71
     5
 42
881.0
  3
INABA_S40G
100
AcDbAlignedDimension
 13
8063.599999999999
 23
7247.925205146507
 33
0.0
 14
8113.599999999998
 24
8128.925205146506
 34
0.0
 50
90.0
100
AcDbRotatedDimension
1001
ACAD
1000
DSTYLE
1002
{
1070
   174
1070
     0
1070
   272
1070
     1
1070
   279
1070
     1
1070
   288
1070
     0
1070
   341
1005
0
1002
}
  0
DIMENSION
  5
1F2D0
330
747D
100
AcDbEntity
  8
寸法
 48
50.0
100
AcDbDimension
  2
*D19
 10
8201.156431984797
 20
5488.925205146515
 30
0.0
 11
8101.156431984795
 21
5966.425205146516
 31
0.0
 70
    32
 71
     5
 42
955.0
  3
INABA_S40G
100
AcDbAlignedDimension
 13
8063.599999999985
 23
6443.925205146516
 33
0.0
 14
8113.600000000014
 24
5488.925205146515
 34
0.0
 50
90.0
100
AcDbRotatedDimension
1001
ACAD
1000
DSTYLE
1002
{
1070
   174
1070
     0
1070
   272
1070
     1
1070
   279
1070
     1
1070
   288
1070
     0
1070
   341
1005
0
1002
}
  0
LINE
  5
1F9FC
330
747D
100
AcDbEntity
  8
部品1
 48
50.0
100
AcDbLine
 10
8113.599999999985
 20
6343.925205146514
 30
0.0
 11
7913.599999999985
 21
6343.925205146514
 31
0.0
  0
LINE
  5
1F9FD
330
747D
100
AcDbEntity
  8
部品1
 48
50.0
100
AcDbLine
 10
8113.599999999985
 20
6543.925205146516
 30
0.0
 11
7913.599999999985
 21
6543.925205146516
 31
0.0
  0
LINE
  5
1F9FE
330
747D
100
AcDbEntity
  8
部品1
 48
50.0
100
AcDbLine
 10
7913.599999999985
 20
6343.925205146515
 30
0.0
 11
7913.599999999985
 21
6543.925205146516
 31
0.0
  0
LINE
  5
1F9FF
330
747D
100
AcDbEntity
  8
センター
 48
2.0
100
AcDbLine
 10
8013.599999999986
 20
6493.925205146516
 30
0.0
 11
8013.599999999986
 21
6393.925205146516
 31
0.0
  0
LINE
  5
1FA00
330
747D
100
AcDbEntity
  8
センター
 48
2.0
100
AcDbLine
 10
7963.599999999985
 20
6443.925205146516
 30
0.0
 11
8063.599999999985
 21
6443.925205146516
 31
0.0
  0
LINE
  5
1FA01
330
747D
100
AcDbEntity
  8
部品1
 48
50.0
100
AcDbLine
 10
8113.599999999985
 20
6343.925205146514
 30
0.0
 11
8113.599999999985
 21
6543.925205146516
 31
0.0
  0
DIMENSION
  5
1FA1D
330
747D
100
AcDbEntity
  8
寸法
 48
50.0
100
AcDbDimension
  2
*D20
 10
8201.156431984783
 20
6443.925205146516
 30
0.0
 11
8101.156431984781
 21
6845.925205146511
 31
0.0
 70
    32
 71
     5
 42
803.9999999999908
  3
INABA_S40G
100
AcDbAlignedDimension
 13
8063.599999999999
 23
7247.925205146507
 33
0.0
 14
8063.599999999985
 24
6443.925205146516
 34
0.0
 50
90.0
100
AcDbRotatedDimension
1001
ACAD
1000
DSTYLE
1002
{
1070
   174
1070
     0
1070
   272
1070
     1
1070
   279
1070
     1
1070
   288
1070
     0
1070
   341
1005
0
1002
}
  0
DIMENSION
  5
1FFBE
330
747D
100
AcDbEntity
  8
寸法
 48
50.0
100
AcDbDimension
  2
*D21
 10
8013.599999999998
 20
8728.453520055889
 30
0.0
 11
7668.599999999999
 21
8828.453520055889
 31
0.0
 70
    32
 71
     5
 42
690.0
  3
INABA_S40G
100
AcDbAlignedDimension
 13
7323.599999999998
 23
8128.925205146506
 33
0.0
 14
8013.599999999998
 24
7297.925205146507
 34
0.0
100
AcDbRotatedDimension
1001
ACAD
1000
DSTYLE
1002
{
1070
   174
1070
     0
1070
   272
1070
     1
1070
   279
1070
     1
1070
   288
1070
     0
1070
   341
1005
0
1002
}
  0
DIMENSION
  5
1FFCB
330
747D
100
AcDbEntity
  8
寸法
 48
50.0
100
AcDbDimension
  2
*D22
 10
8703.599999999999
 20
8728.453520055889
 30
0.0
 11
8358.599999999999
 21
8828.453520055889
 31
0.0
 70
    32
 71
     5
 42
690.0
  3
INABA_S40G
100
AcDbAlignedDimension
 13
8013.599999999998
 23
7297.925205146507
 33
0.0
 14
8703.599999999999
 24
8128.925205146506
 34
0.0
100
AcDbRotatedDimension
1001
ACAD
1000
DSTYLE
1002
{
1070
   174
1070
     0
1070
   272
1070
     1
1070
   279
1070
     1
1070
   288
1070
     0
1070
   341
1005
0
1002
}
  0
LEADER
  5
20143
330
747D
100
AcDbEntity
  8
寸法
 48
50.0
100
AcDbLeader
  3
INABA_S50G
 71
     0
 73
     0
 75
     1
 40
120.0
 41
185.591883092037
 76
     3
 10
7950.88216719823
 20
7199.214539377972
 30
0.0
 10
7890.963922672274
 20
7036.773590948982
 30
0.0
 10
7765.963922672274
 20
7036.773590948982
 30
0.0
340
20144
210
0.0
220
0.0
230
-1.0
213
-71.41935944326269
223
-47.92531579249407
233
0.0
1001
ACAD
1000
DSTYLE
1002
{
1070
   341
1005
1C530
1070
    40
1040
1.0
1070
   343
1005
1C530
1070
   344
1005
1C530
1002
}
  0
MTEXT
  5
20144
102
{ACAD_REACTORS
330
20143
102
}
330
747D
100
AcDbEntity
  8
部品1
 62
     7
 48
50.0
100
AcDbMText
 10
7812.383282115536
 20
7119.698906741476
 30
0.0
 40
120.0
 41
0.0
 71
     6
 72
     1
  1
\A1;C.B
  7
STYLE1
 73
     1
 44
1.0
1001
ACAD
1000
MTEXTBEGIN
1070
    73
1070
     1
1070
    44
1040
1.0
1070
    74
1070
     0
1000
MTEXTEND
  0
LINE
  5
20520
330
747D
100
AcDbEntity
  8
部品1
100
AcDbLine
 10
11028.80651474185
 20
3487.668793256349
 30
0.0
 11
4957.821329355596
 21
3487.668793256349
 31
0.0
  0
LINE
  5
20521
330
747D
100
AcDbEntity
  8
部品1
100
AcDbLine
 10
11028.80651474185
 20
3247.668793256347
 30
0.0
 11
4957.8213293556
 21
3247.668793256348
 31
0.0
  0
LINE
  5
20522
330
747D
100
AcDbEntity
  8
部品1
100
AcDbLine
 10
4957.821329355602
 20
523.361823671702
 30
0.0
 11
11028.80651474185
 21
523.361823671702
 31
0.0
  0
LEADER
  5
20523
330
747D
100
AcDbEntity
  8
寸法
 48
50.0
100
AcDbLeader
  3
INABA_S50G
 73
     0
 74
     0
 75
     1
 40
102.2727272727273
 41
680.0000000000001
 76
     3
 10
7965.929081342055
 20
2565.572454588647
 30
0.0
 10
8000.283052455413
 20
2976.025265695188
 30
0.0
 10
8125.283052455413
 20
2976.025265695188
 30
0.0
340
20524
1001
ACAD
1000
DSTYLE
1002
{
1070
   341
1005
0
1070
    40
1040
1.0
1070
   343
1005
0
1070
   344
1005
0
1002
}
  0
MTEXT
  5
20524
102
{ACAD_REACTORS
330
20523
102
}
330
747D
100
AcDbEntity
  8
部品1
 62
     7
 48
50.0
100
AcDbMText
 10
8150.283052455412
 20
3052.161629331552
 30
0.0
 40
80.0
 41
0.8
 71
     4
 72
     1
  1
\A1;ナット(市販品)
  7
STYLE2
 73
     1
 44
1.0
1001
ACAD
1000
MTEXTBEGIN
1070
    73
1070
     1
1070
    44
1040
1.0
1070
    74
1070
     0
1000
MTEXTEND
  0
LEADER
  5
20525
330
747D
100
AcDbEntity
  8
寸法
 48
50.0
100
AcDbLeader
  3
INABA_S50G
 73
     0
 74
     0
 75
     1
 40
102.2727272727273
 41
906.8181818181818
 76
     3
 10
7989.929081342054
 20
2435.820461923784
 30
0.0
 10
8031.800671710895
 20
2791.056182930401
 30
0.0
 10
8156.800671710895
 20
2791.056182930401
 30
0.0
340
20526
1001
ACAD
1000
DSTYLE
1002
{
1070
   341
1005
0
1070
    40
1040
1.0
1070
   343
1005
0
1070
   344
1005
0
1002
}
  0
MTEXT
  5
20526
102
{ACAD_REACTORS
330
20525
102
}
330
747D
100
AcDbEntity
  8
部品1
 62
     7
 48
50.0
100
AcDbMText
 10
8181.800671710893
 20
2867.192546566764
 30
0.0
 40
80.0
 41
0.8
 71
     4
 72
     1
  1
\A1;ワッシャー(市販品)
  7
STYLE2
 73
     1
 44
1.0
1001
ACAD
1000
MTEXTBEGIN
1070
    73
1070
     1
1070
    44
1040
1.0
1070
    74
1070
     0
1000
MTEXTEND
  0
LWPOLYLINE
  5
20527
330
747D
100
AcDbEntity
  8
部品1
 48
50.0
100
AcDbPolyline
 90
        2
 70
     0
 43
8.0
 10
8142.529081342056
 20
1926.697173479505
 10
8436.231544741438
 20
1926.697173479505
  0
TEXT
  5
20528
330
747D
100
AcDbEntity
  8
部品1
 48
50.0
100
AcDbText
 10
8146.882665626483
 20
2522.575854241705
 30
0.0
 40
80.0
  1
基礎ボルト(市販品)
  7
STYLE2
100
AcDbText
  0
DIMENSION
  5
20529
330
747D
100
AcDbEntity
  8
寸法
 48
50.0
100
AcDbDimension
  2
*D27
 10
8644.397681110898
 20
1842.697173479503
 30
0.0
 11
8544.397681110899
 21
2004.697173479505
 31
0.0
 70
    32
  1
180
 71
     5
 42
324.0000000000009
  3
INABA_S50G
100
AcDbAlignedDimension
 13
8142.529081342056
 23
2166.697173479505
 33
0.0
 14
8142.529081342056
 24
1842.697173479503
 34
0.0
 50
90.0
100
AcDbRotatedDimension
1001
ACAD
1000
DSTYLE
1002
{
1070
    40
1040
1.0
1070
    75
1070
     1
1070
   279
1070
     1
1002
}
  0
DIMENSION
  5
2052A
330
747D
100
AcDbEntity
  8
寸法
 48
50.0
100
AcDbDimension
  2
*D28
 10
8644.397681110898
 20
2166.697173479505
 30
0.0
 11
8920.452347229925
 21
2141.573215875293
 31
0.0
 70
   160
  1
20～25
 71
     5
 42
52.76000000000113
  3
INABA_S50G
100
AcDbAlignedDimension
 13
7955.329081342056
 23
2219.457173479506
 33
0.0
 14
8142.529081342056
 24
2166.697173479505
 34
0.0
 50
90.0
100
AcDbRotatedDimension
1001
ACAD
1000
DSTYLE
1002
{
1070
    40
1040
1.0
1070
   279
1070
     1
1002
}
  0
MTEXT
  5
2052B
102
{ACAD_REACTORS
330
2052C
102
}
330
747D
100
AcDbEntity
  8
部品1
 62
     7
 48
50.0
100
AcDbMText
 10
8151.473543761374
 20
2431.080499632734
 30
0.0
 40
80.0
 41
0.8
 71
     4
 72
     1
  1
M10X160
  7
STYLE2
 73
     1
 44
1.0
1001
ACAD
1000
MTEXTBEGIN
1070
    73
1070
     1
1070
    44
1040
1.0
1070
    74
1070
     0
1000
MTEXTEND
  0
LEADER
  5
2052C
330
747D
100
AcDbEntity
  8
寸法
 48
50.0
100
AcDbLeader
  3
INABA_S50G
 73
     0
 74
     0
 75
     1
 40
80.0
 41
435.0
 76
     3
 10
7958.929081342055
 20
2215.857173479505
 30
0.0
 10
8001.473543761374
 20
2366.080499632734
 30
0.0
 10
8126.473543761374
 20
2366.080499632734
 30
0.0
340
2052B
1001
ACAD
1000
DSTYLE
1002
{
1070
   341
1005
0
1070
    40
1040
1.0
1070
   343
1005
0
1070
   344
1005
0
1002
}
  0
LINE
  5
2052D
330
747D
100
AcDbEntity
  8
部品1
100
AcDbLine
 10
4957.821329355598
 20
3487.668793256349
 30
0.0
 11
4957.8213293556
 21
523.361823671702
 31
0.0
  0
LEADER
  5
2052E
330
747D
100
AcDbEntity
  8
寸法
 48
50.0
100
AcDbLeader
  3
INABA_S50G
 73
     0
 75
     1
 40
113.1818181818182
 41
608.6363636363635
 76
     3
 10
7918.665831480105
 20
2116.212846837783
 30
0.0
 10
7784.862002788758
 20
2967.591929194261
 30
0.0
 10
7659.862002788758
 20
2967.591929194261
 30
0.0
340
2052F
1001
ACAD
1000
DSTYLE
1002
{
1070
   341
1005
0
1070
    40
1040
1.0
1070
   343
1005
0
1070
   344
1005
0
1002
}
  0
MTEXT
  5
2052F
102
{ACAD_REACTORS
330
2052E
102
}
330
747D
100
AcDbEntity
  8
寸法
 62
     7
 48
50.0
100
AcDbMText
 10
7634.862002788757
 20
3049.18283828517
 30
0.0
 40
80.0
 41
0.8
 71
     6
 72
     1
  1
\A1;φ70スリーブ
  7
STYLE2
 73
     1
 44
1.0
1001
ACAD
1000
MTEXTBEGIN
1070
    73
1070
     1
1070
    44
1040
1.0
1070
    74
1070
     0
1000
MTEXTEND
  0
LWPOLYLINE
  5
20530
330
747D
100
AcDbEntity
  8
部品1
 48
50.0
100
AcDbPolyline
 90
        2
 70
     0
 43
8.0
 10
5614.349866331904
 20
1926.697173479505
 10
6028.489768164861
 20
1926.697173479505
  0
TEXT
  5
20531
330
747D
100
AcDbEntity
  8
部品1
 48
50.0
100
AcDbText
 10
5614.349866331904
 20
1937.93616576276
 30
0.0
 40
80.0
  1
▽G.L
  7
STYLE2
100
AcDbText
  0
DIMENSION
  5
20532
330
747D
100
AcDbEntity
  8
寸法
 48
50.0
100
AcDbDimension
  2
*D23
 10
5758.069454432401
 20
1382.697173479504
 30
0.0
 11
5758.069454432401
 21
1502.697173479504
 31
0.0
 70
   160
  1
150
 71
     5
 42
240.0
  3
INABA_S50G
100
AcDbAlignedDimension
 13
5900.48976816486
 23
1622.697173479504
 33
0.0
 14
5820.489768164865
 24
1382.697173479504
 34
0.0
 50
90.0
100
AcDbRotatedDimension
1001
ACAD
1000
DSTYLE
1002
{
1070
    40
1040
1.0
1070
   272
1070
     1
1070
   279
1070
     1
1070
   341
1005
0
1002
}
  0
LEADER
  5
20533
330
747D
100
AcDbEntity
  8
寸法
 48
50.0
100
AcDbLeader
  3
INABA_S50G
 71
     0
 73
     0
 75
     1
 40
100.0
 41
225.0
 76
     3
 10
5996.392720517004
 20
1502.697173479504
 30
0.0
 10
5874.554741969667
 20
1239.174479861068
 30
0.0
 10
5749.554741969667
 20
1239.174479861068
 30
0.0
1001
ACAD
1000
DSTYLE
1002
{
1070
    40
1040
1.0
1070
   272
1070
     1
1070
   279
1070
     1
1070
   341
1005
0
1002
}
  0
LEADER
  5
20534
330
747D
100
AcDbEntity
  8
寸法
 48
50.0
100
AcDbLeader
  3
INABA_S50G
 71
     0
 73
     0
 75
     1
 40
100.0
 41
222.7272727272727
 76
     3
 10
6124.489768164861
 20
1502.697173479504
 30
0.0
 10
5902.677469527102
 20
1058.858327321624
 30
0.0
 10
5777.677469527102
 20
1058.858327321624
 30
0.0
1001
ACAD
1000
DSTYLE
1002
{
1070
    40
1040
1.0
1070
   272
1070
     1
1070
   279
1070
     1
1070
   341
1005
0
1002
}
  0
MTEXT
  5
20535
102
{ACAD_REACTORS
330
20536
102
}
330
747D
100
AcDbEntity
  8
寸法
 62
     7
 48
50.0
100
AcDbMText
 10
5939.239713942057
 20
1767.997776296961
 30
0.0
 40
80.0
 41
0.8
 71
     6
 72
     1
  1
\A1;D10@300
  7
STYLE2
 73
     1
 44
1.0
1001
ACAD
1000
MTEXTBEGIN
1070
    73
1070
     1
1070
    44
1040
1.0
1070
    74
1070
     0
1000
MTEXTEND
  0
LEADER
  5
20536
330
747D
100
AcDbEntity
  8
寸法
 48
50.0
100
AcDbLeader
  3
INABA_S50G
 71
     0
 73
     0
 75
     1
 40
100.0
 41
540.3409090909091
 76
     3
 10
6132.489768164861
 20
1924.824388176627
 30
0.0
 10
6074.507531636163
 20
1703.354059635822
 30
0.0
 10
5949.507531636163
 20
1703.354059635822
 30
0.0
213
-9.732182305893367
223
-4.643716661138569
233
0.0
1001
ACAD
1000
DSTYLE
1002
{
1070
    40
1040
1.0
1070
   272
1070
     1
1070
   279
1070
     1
1070
   341
1005
0
1002
}
  0
LEADER
  5
20537
330
747D
100
AcDbEntity
  8
寸法
 48
50.0
100
AcDbLeader
  3
INABA_S50G
 71
     0
 73
     0
 75
     1
 40
130.1136363636363
 41
651.1363636363636
 76
     3
 10
6108.489768164861
 20
2166.697173479505
 30
0.0
 10
5996.065188000844
 20
2307.167938936093
 30
0.0
 10
5871.065188000844
 20
2307.167938936093
 30
0.0
1001
ACAD
1000
DSTYLE
1002
{
1070
    40
1040
1.0
1070
   272
1070
     1
1070
   279
1070
     1
1070
   341
1005
0
1002
}
  0
MTEXT
  5
20538
102
{ACAD_REACTORS
330
20537
102
}
330
747D
100
AcDbEntity
  8
寸法
 62
     7
 48
50.0
100
AcDbMText
 10
5808.391288681588
 20
2379.213393481546
 30
0.0
 40
80.0
 41
0.8
 71
     6
 72
     1
  1
\A1;金コテ押エ
  7
STYLE2
 73
     1
 44
1.0
1001
ACAD
1000
MTEXTBEGIN
1070
    73
1070
     1
1070
    44
1040
1.0
1070
    74
1070
     0
1000
MTEXTEND
  0
DIMENSION
  5
20539
330
747D
100
AcDbEntity
  8
寸法
 48
50.0
100
AcDbDimension
  2
*D24
 10
5293.452529603121
 20
1382.697173479504
 30
0.0
 11
5293.452529603121
 21
1754.237323135505
 31
0.0
 70
   160
  1
540
 71
     5
 42
784.0
  3
INABA_S50G
100
AcDbAlignedDimension
 13
6028.489768164861
 23
2166.697173479505
 33
0.0
 14
5820.489768164865
 24
1382.697173479504
 34
0.0
 50
90.0
100
AcDbRotatedDimension
1001
ACAD
1000
DSTYLE
1002
{
1070
    40
1040
1.0
1070
   272
1070
     1
1070
   341
1005
0
1002
}
  0
MTEXT
  5
2053A
102
{ACAD_REACTORS
330
20534
102
}
330
747D
100
AcDbEntity
  8
寸法
 62
     7
 48
50.0
100
AcDbMText
 10
5757.677469527101
 20
1118.858327321624
 30
0.0
 40
80.0
 41
0.8
 71
     6
 72
     1
  1
D13
  7
STYLE2
 73
     1
 44
1.0
1001
ACAD
1000
MTEXTBEGIN
1070
    73
1070
     1
1070
    44
1040
1.0
1070
    74
1070
     0
1000
MTEXTEND
  0
MTEXT
  5
2053B
102
{ACAD_REACTORS
330
20533
102
}
330
747D
100
AcDbEntity
  8
寸法
 62
     7
 48
50.0
100
AcDbMText
 10
5729.554741969667
 20
1299.174479861068
 30
0.0
 40
80.0
 41
0.8
 71
     6
 72
     1
  1
D10
  7
STYLE2
 73
     1
 44
1.0
1001
ACAD
1000
MTEXTBEGIN
1070
    73
1070
     1
1070
    44
1040
1.0
1070
    74
1070
     0
1000
MTEXTEND
  0
DIMENSION
  5
2053C
330
747D
100
AcDbEntity
  8
寸法
 48
50.0
100
AcDbDimension
  2
*D25
 10
6348.489768164861
 20
844.2675354743441
 30
0.0
 11
6104.393009486638
 21
844.2675354743441
 31
0.0
 70
   160
  1
300
 71
     5
 42
448.0
  3
INABA_S50G
100
AcDbAlignedDimension
 13
5900.48976816486
 23
1254.697173479504
 33
0.0
 14
6348.489768164861
 24
1254.697173479504
 34
0.0
100
AcDbRotatedDimension
1001
ACAD
1000
DSTYLE
1002
{
1070
    40
1040
1.0
1070
   272
1070
     1
1070
   341
1005
0
1002
}
  0
MTEXT
  5
2053D
102
{ACAD_REACTORS
330
2053E
102
}
330
747D
100
AcDbEntity
  8
寸法
 62
     7
 48
50.0
100
AcDbMText
 10
7661.505008997116
 20
2688.498566377656
 30
0.0
 40
80.0
 41
0.8
 71
     6
 72
     1
  1
アンカープレート {\fArial|b0|i0|c0|p32;U}
  7
STYLE2
 73
     1
 44
1.0
1001
ACAD
1000
MTEXTBEGIN
1070
    73
1070
     1
1070
    44
1040
1.0
1070
    74
1070
     0
1000
MTEXTEND
  0
LEADER
  5
2053E
330
747D
100
AcDbEntity
  8
寸法
 48
50.0
100
AcDbLeader
  3
INABA_S50G
 73
     0
 75
     1
 40
106.3636363636363
 41
903.5235024184547
 76
     3
 10
7859.929081342055
 20
2236.257173479506
 30
0.0
 10
7811.505008997116
 20
2610.316748195838
 30
0.0
 10
7686.505008997116
 20
2610.316748195838
 30
0.0
340
2053D
1001
ACAD
1000
DSTYLE
1002
{
1070
   341
1005
0
1070
    40
1040
1.0
1070
   343
1005
0
1070
   344
1005
0
1002
}
  0
LINE
  5
2053F
330
747D
100
AcDbEntity
  8
細線
 48
50.0
100
AcDbLine
 10
6148.489768164862
 20
2005.070066147335
 30
0.0
 11
6220.489768164862
 21
2077.070066147335
 31
0.0
  0
ARC
  5
20540
330
747D
100
AcDbEntity
  8
部品1
 48
50.0
100
AcDbCircle
 10
6124.489768164862
 20
2026.95160287375
 30
0.0
 40
24.0
100
AcDbArc
 50
0.0
 51
180.0
  0
CIRCLE
  5
20541
330
747D
100
AcDbEntity
  8
部品1
 48
50.0
100
AcDbCircle
 10
6124.489768164862
 20
2026.95160287375
 30
0.0
 40
8.0
  0
LINE
  5
20542
330
747D
100
AcDbEntity
  8
部品1
 48
50.0
100
AcDbLine
 10
6028.489768164861
 20
1622.697173479504
 30
0.0
 11
6028.489768164861
 21
2166.697173479505
 31
0.0
  0
LINE
  5
20543
330
747D
100
AcDbEntity
  8
部品1
 48
50.0
100
AcDbLine
 10
6220.489768164862
 20
2166.697173479505
 30
0.0
 11
6220.489768164862
 21
1622.697173479504
 31
0.0
  0
MTEXT
  5
20544
102
{ACAD_REACTORS
330
20549
102
}
330
747D
100
AcDbEntity
  8
寸法
 62
     7
 48
50.0
100
AcDbMText
 10
6303.375705192255
 20
2027.964734778432
 30
0.0
 40
80.0
 41
0.8
 71
     4
 72
     1
  1
D13
  7
STYLE2
 73
     1
 44
1.0
1001
ACAD
1000
MTEXTBEGIN
1070
    73
1070
     1
1070
    44
1040
1.0
1070
    74
1070
     0
1000
MTEXTEND
  0
LEADER
  5
20545
330
747D
100
AcDbEntity
  8
寸法
 48
50.0
100
AcDbLeader
  3
INABA_S50G
 71
     0
 73
     0
 74
     0
 75
     1
 40
100.0
 41
225.0
 76
     3
 10
6252.392720517004
 20
1502.697173479504
 30
0.0
 10
6306.817427971545
 20
1407.300104536532
 30
0.0
 10
6431.817427971546
 20
1407.300104536532
 30
0.0
1001
ACAD
1000
DSTYLE
1002
{
1070
    40
1040
1.0
1070
   272
1070
     1
1070
   279
1070
     1
1070
   341
1005
0
1002
}
  0
LEADER
  5
20546
330
747D
100
AcDbEntity
  8
寸法
 48
50.0
100
AcDbLeader
  3
INABA_S50G
 71
     0
 73
     0
 74
     0
 75
     1
 40
100.0
 41
540.3409090909091
 76
     3
 10
6198.434937178035
 20
1485.956643065979
 30
0.0
 10
6317.228224026112
 20
1144.325825071081
 30
0.0
 10
6442.228224026113
 20
1144.325825071081
 30
0.0
213
0.0
223
-1.022262676269383
233
0.0
1001
ACAD
1000
DSTYLE
1002
{
1070
    40
1040
1.0
1070
   272
1070
     1
1070
   279
1070
     1
1070
   341
1005
0
1002
}
  0
MTEXT
  5
20547
102
{ACAD_REACTORS
330
20545
102
}
330
747D
100
AcDbEntity
  8
寸法
 62
     7
 48
50.0
100
AcDbMText
 10
6451.817427971545
 20
1467.300104536532
 30
0.0
 40
80.0
 41
0.8
 71
     4
 72
     1
  1
D10
  7
STYLE2
 73
     1
 44
1.0
1001
ACAD
1000
MTEXTBEGIN
1070
    73
1070
     1
1070
    44
1040
1.0
1070
    74
1070
     0
1000
MTEXTEND
  0
LWPOLYLINE
  5
20548
330
747D
100
AcDbEntity
  8
部品1
 48
50.0
100
AcDbPolyline
 90
        2
 70
     0
 43
8.0
 10
6220.489768164861
 20
1926.697173479505
 10
6634.629669997818
 20
1926.697173479505
  0
LEADER
  5
20549
330
747D
100
AcDbEntity
  8
寸法
 48
50.0
100
AcDbLeader
  3
INABA_S50G
 71
     0
 73
     0
 74
     0
 75
     1
 40
100.0
 41
222.7272727272727
 76
     3
 10
6124.489768164861
 20
2026.95160287375
 30
0.0
 10
6158.375705192256
 20
1967.964734778432
 30
0.0
 10
6283.375705192256
 20
1967.964734778432
 30
0.0
1001
ACAD
1000
DSTYLE
1002
{
1070
    40
1040
1.0
1070
   272
1070
     1
1070
   279
1070
     1
1070
   341
1005
0
1002
}
  0
LINE
  5
2054A
330
747D
100
AcDbEntity
  8
細線
 48
50.0
100
AcDbLine
 10
5900.489768164854
 20
1541.543919241675
 30
0.0
 11
5981.64302240269
 21
1622.697173479504
 31
0.0
  0
LINE
  5
2054B
330
747D
100
AcDbEntity
  8
細線
 48
50.0
100
AcDbLine
 10
6108.355615642266
 20
1560.824388176627
 30
0.0
 11
6132.489768164867
 21
1584.958540699225
 31
0.0
  0
LINE
  5
2054C
330
747D
100
AcDbEntity
  8
細線
 48
50.0
100
AcDbLine
 10
6015.287632581934
 20
1494.697173479504
 30
0.0
 11
6132.489768164862
 21
1611.89930906243
 31
0.0
  0
LINE
  5
2054D
330
747D
100
AcDbEntity
  8
部品1
 48
50.0
100
AcDbLine
 10
5900.489768164862
 20
1382.697173479504
 30
0.0
 11
5900.489768164862
 21
1622.697173479504
 31
0.0
  0
LINE
  5
2054E
330
747D
100
AcDbEntity
  8
細線
 48
50.0
100
AcDbLine
 10
6257.754547850805
 20
1494.697173479504
 30
0.0
 11
6348.489768164862
 21
1585.432393793563
 31
0.0
  0
LINE
  5
2054F
330
747D
100
AcDbEntity
  8
細線
 48
50.0
100
AcDbLine
 10
6230.81377948759
 20
1494.697173479504
 30
0.0
 11
6348.489768164862
 21
1612.37316215677
 31
0.0
  0
LINE
  5
20550
330
747D
100
AcDbEntity
  8
部品1
 48
50.0
100
AcDbLine
 10
6348.489768164862
 20
1622.697173479504
 30
0.0
 11
6348.489768164862
 21
1382.697173479504
 31
0.0
  0
LINE
  5
20551
330
747D
100
AcDbEntity
  8
部品1
 48
50.0
100
AcDbLine
 10
6148.489768164868
 20
1502.697173479504
 30
0.0
 11
6148.489768164862
 21
2026.95160287375
 31
0.0
  0
LINE
  5
20552
330
747D
100
AcDbEntity
  8
部品1
 48
50.0
100
AcDbLine
 10
6132.489768164867
 20
1502.697173479504
 30
0.0
 11
6132.489768164854
 21
2026.95160287375
 31
0.0
  0
LINE
  5
20553
330
747D
100
AcDbEntity
  8
細線
 48
50.0
100
AcDbLine
 10
6116.489768164862
 20
1542.017772336016
 30
0.0
 11
6132.489768164867
 21
1558.017772336016
 31
0.0
  0
LINE
  5
20554
330
747D
100
AcDbEntity
  8
細線
 48
50.0
100
AcDbLine
 10
6105.672607660875
 20
1254.697173479504
 30
0.0
 11
6139.970104292059
 21
1382.697173479504
 31
0.0
  0
LINE
  5
20555
330
747D
100
AcDbEntity
  8
部品1
 48
50.0
100
AcDbLine
 10
6428.489768164865
 20
1254.697173479504
 30
0.0
 11
5820.489768164864
 21
1254.697173479504
 31
0.0
  0
LINE
  5
20556
330
747D
100
AcDbEntity
  8
部品1
 48
50.0
100
AcDbLine
 10
5956.489768164861
 20
1478.697173479504
 30
0.0
 11
6292.489768164862
 21
1478.697173479504
 31
0.0
  0
LINE
  5
20557
330
747D
100
AcDbEntity
  8
部品1
 48
50.0
100
AcDbLine
 10
5956.489768164861
 20
1494.697173479504
 30
0.0
 11
6292.489768164862
 21
1494.697173479504
 31
0.0
  0
LINE
  5
20558
330
747D
100
AcDbEntity
  8
部品1
 48
50.0
100
AcDbLine
 10
6428.489768164865
 20
1382.697173479504
 30
0.0
 11
5820.489768164864
 21
1382.697173479504
 31
0.0
  0
CIRCLE
  5
20559
330
747D
100
AcDbEntity
  8
部品1
 48
50.0
100
AcDbCircle
 10
6124.489768164862
 20
1502.697173479504
 30
0.0
 40
8.0
  0
LINE
  5
2055A
330
747D
100
AcDbEntity
  8
細線
 48
50.0
100
AcDbLine
 10
6118.813779487595
 20
1382.697173479504
 30
0.0
 11
6214.813779487595
 21
1478.697173479504
 31
0.0
  0
LINE
  5
2055B
330
747D
100
AcDbEntity
  8
細線
 48
50.0
100
AcDbLine
 10
5947.896517766378
 20
1254.697173479504
 30
0.0
 11
5982.194014397561
 21
1382.697173479504
 31
0.0
  0
LINE
  5
2055C
330
747D
100
AcDbEntity
  8
細線
 48
50.0
100
AcDbLine
 10
6026.784562713623
 20
1254.697173479502
 30
0.0
 11
6061.082059344806
 21
1382.697173479502
 31
0.0
  0
LINE
  5
2055D
330
747D
100
AcDbEntity
  8
細線
 48
50.0
100
AcDbLine
 10
5869.008472819119
 20
1254.697173479502
 30
0.0
 11
5903.305969450303
 21
1382.697173479502
 31
0.0
  0
LINE
  5
2055E
330
747D
100
AcDbEntity
  8
部品1
 48
50.0
100
AcDbLine
 10
5820.489768164864
 20
1254.697173479504
 30
0.0
 11
5820.489768164864
 21
1382.697173479504
 31
0.0
  0
LINE
  5
2055F
330
747D
100
AcDbEntity
  8
細線
 48
50.0
100
AcDbLine
 10
5954.327298384724
 20
1278.697173479504
 30
0.0
 11
5960.758079003071
 21
1254.697173479504
 31
0.0
  0
LINE
  5
20560
330
747D
100
AcDbEntity
  8
細線
 48
50.0
100
AcDbLine
 10
5875.439253437473
 20
1278.697173479504
 30
0.0
 11
5881.870034055818
 21
1254.697173479504
 31
0.0
  0
LINE
  5
20561
330
747D
100
AcDbEntity
  8
細線
 48
50.0
100
AcDbLine
 10
6112.103388279229
 20
1278.697173479504
 30
0.0
 11
6118.534168897575
 21
1254.697173479504
 31
0.0
  0
LINE
  5
20562
330
747D
100
AcDbEntity
  8
細線
 48
50.0
100
AcDbLine
 10
6033.215343331977
 20
1278.697173479504
 30
0.0
 11
6039.646123950323
 21
1254.697173479504
 31
0.0
  0
LINE
  5
20563
330
747D
100
AcDbEntity
  8
細線
 48
50.0
100
AcDbLine
 10
5930.228400945146
 20
1382.697173479504
 30
0.0
 11
6026.228400945145
 21
1478.697173479504
 31
0.0
  0
LINE
  5
20564
330
747D
100
AcDbEntity
  8
細線
 48
50.0
100
AcDbLine
 10
5903.287632581935
 20
1382.697173479504
 30
0.0
 11
5999.287632581935
 21
1478.697173479504
 31
0.0
  0
LINE
  5
20565
330
747D
100
AcDbEntity
  8
部品1
 48
50.0
100
AcDbLine
 10
5956.489768164861
 20
1494.697173479504
 30
0.0
 11
5956.489768164861
 21
1478.697173479504
 31
0.0
  0
LINE
  5
20566
330
747D
100
AcDbEntity
  8
細線
 48
50.0
100
AcDbLine
 10
5896.875188831963
 20
1358.697173479504
 30
0.0
 11
5890.444408213614
 21
1382.697173479504
 31
0.0
  0
LINE
  5
20567
330
747D
100
AcDbEntity
  8
細線
 48
50.0
100
AcDbLine
 10
5820.489768164861
 20
1368.037094445284
 30
0.0
 11
5824.417924503057
 21
1382.697173479504
 31
0.0
  0
LINE
  5
20568
330
747D
100
AcDbEntity
  8
部品1
 48
50.0
100
AcDbLine
 10
6116.489768164862
 20
1560.824388176627
 30
0.0
 11
6100.489768164862
 21
1560.824388176627
 31
0.0
  0
CIRCLE
  5
20569
330
747D
100
AcDbEntity
  8
部品1
 48
50.0
100
AcDbCircle
 10
5996.489768164861
 20
1502.697173479504
 30
0.0
 40
8.0
  0
LINE
  5
2056A
330
747D
100
AcDbEntity
  8
細線
 48
50.0
100
AcDbLine
 10
6069.16916930835
 20
1494.697173479504
 30
0.0
 11
6100.489768164862
 21
1526.017772336016
 31
0.0
  0
ARC
  5
2056B
330
747D
100
AcDbEntity
  8
部品1
 48
50.0
100
AcDbCircle
 10
6124.489768164862
 20
1502.697173479504
 30
0.0
 40
24.0
100
AcDbArc
 50
180.0
 51
199.4712206345143
  0
LINE
  5
2056C
330
747D
100
AcDbEntity
  8
細線
 48
50.0
100
AcDbLine
 10
5975.763233779213
 20
1358.697173479504
 30
0.0
 11
5969.332453160866
 21
1382.697173479504
 31
0.0
  0
LINE
  5
2056D
330
747D
100
AcDbEntity
  8
細線
 48
50.0
100
AcDbLine
 10
6054.651278726465
 20
1358.697173479504
 30
0.0
 11
6048.220498108119
 21
1382.697173479504
 31
0.0
  0
LINE
  5
2056E
330
747D
100
AcDbEntity
  8
細線
 48
50.0
100
AcDbLine
 10
5957.16916930835
 20
1382.697173479504
 30
0.0
 11
6053.16916930835
 21
1478.697173479504
 31
0.0
  0
LINE
  5
2056F
330
747D
100
AcDbEntity
  8
部品1
 48
50.0
100
AcDbLine
 10
6100.489768164862
 20
1560.824388176627
 30
0.0
 11
6100.489768164862
 21
1502.697173479504
 31
0.0
  0
LINE
  5
20570
330
747D
100
AcDbEntity
  8
細線
 48
50.0
100
AcDbLine
 10
6042.228400945145
 20
1494.697173479504
 30
0.0
 11
6100.489768164862
 21
1552.958540699223
 31
0.0
  0
LINE
  5
20571
330
747D
100
AcDbEntity
  8
部品1
 48
50.0
100
AcDbLine
 10
6116.489768164862
 20
1560.824388176627
 30
0.0
 11
6116.489768164862
 21
1502.697173479504
 31
0.0
  0
LINE
  5
20572
330
747D
100
AcDbEntity
  8
部品1
 48
50.0
100
AcDbLine
 10
6428.489768164865
 20
1382.697173479504
 30
0.0
 11
6428.489768164865
 21
1254.697173479504
 31
0.0
  0
LINE
  5
20573
330
747D
100
AcDbEntity
  8
細線
 48
50.0
100
AcDbLine
 10
6342.336742502616
 20
1254.697173479504
 30
0.0
 11
6376.6342391338
 21
1382.697173479502
 31
0.0
  0
LINE
  5
20574
330
747D
100
AcDbEntity
  8
細線
 48
50.0
100
AcDbLine
 10
6184.560652608121
 20
1254.697173479504
 30
0.0
 11
6218.858149239308
 21
1382.697173479502
 31
0.0
  0
LINE
  5
20575
330
747D
100
AcDbEntity
  8
細線
 48
50.0
100
AcDbLine
 10
6263.44869755537
 20
1254.697173479502
 30
0.0
 11
6297.746194186554
 21
1382.697173479502
 31
0.0
  0
LINE
  5
20576
330
747D
100
AcDbEntity
  8
細線
 48
50.0
100
AcDbLine
 10
6269.87947817372
 20
1278.697173479504
 30
0.0
 11
6276.310258792068
 21
1254.697173479504
 31
0.0
  0
LINE
  5
20577
330
747D
100
AcDbEntity
  8
細線
 48
50.0
100
AcDbLine
 10
6190.991433226475
 20
1278.697173479504
 30
0.0
 11
6197.42221384482
 21
1254.697173479504
 31
0.0
  0
LINE
  5
20578
330
747D
100
AcDbEntity
  8
細線
 48
50.0
100
AcDbLine
 10
6348.767523120967
 20
1278.697173479504
 30
0.0
 11
6355.198303739315
 21
1254.697173479504
 31
0.0
  0
LINE
  5
20579
330
747D
100
AcDbEntity
  8
細線
 48
50.0
100
AcDbLine
 10
6427.655568068214
 20
1278.697173479504
 30
0.0
 11
6428.489768164862
 21
1275.58389633514
 31
0.0
  0
LINE
  5
2057A
330
747D
100
AcDbEntity
  8
細線
 48
50.0
100
AcDbLine
 10
6421.224787449864
 20
1254.697173479502
 30
0.0
 11
6428.489768164862
 21
1281.810450623892
 31
0.0
  0
LINE
  5
2057B
330
747D
100
AcDbEntity
  8
細線
 48
50.0
100
AcDbLine
 10
6284.695316214008
 20
1494.697173479504
 30
0.0
 11
6348.489768164862
 21
1558.491625430355
 31
0.0
  0
CIRCLE
  5
2057C
330
747D
100
AcDbEntity
  8
部品1
 48
50.0
100
AcDbCircle
 10
6252.489768164862
 20
1502.697173479504
 30
0.0
 40
8.0
  0
ARC
  5
2057D
330
747D
100
AcDbEntity
  8
部品1
 48
50.0
100
AcDbCircle
 10
6124.489768164862
 20
1502.697173479504
 30
0.0
 40
24.0
100
AcDbArc
 50
340.5287793654858
 51
0.0
  0
LINE
  5
2057E
330
747D
100
AcDbEntity
  8
細線
 48
50.0
100
AcDbLine
 10
6133.539323673718
 20
1358.697173479504
 30
0.0
 11
6127.108543055371
 21
1382.697173479504
 31
0.0
  0
LINE
  5
2057F
330
747D
100
AcDbEntity
  8
細線
 48
50.0
100
AcDbLine
 10
6212.427368620963
 20
1358.697173479504
 30
0.0
 11
6205.996588002617
 21
1382.697173479504
 31
0.0
  0
LINE
  5
20580
330
747D
100
AcDbEntity
  8
細線
 48
50.0
100
AcDbLine
 10
6145.754547850806
 20
1382.697173479504
 30
0.0
 11
6241.754547850805
 21
1478.697173479504
 31
0.0
  0
LINE
  5
20581
330
747D
100
AcDbEntity
  8
細線
 48
50.0
100
AcDbLine
 10
6172.695316214009
 20
1382.697173479504
 30
0.0
 11
6268.696204059146
 21
1478.698061324643
 31
0.0
  0
LINE
  5
20582
330
747D
100
AcDbEntity
  8
部品1
 48
50.0
100
AcDbLine
 10
6292.489768164862
 20
1494.697173479504
 30
0.0
 11
6292.489768164862
 21
1478.697173479504
 31
0.0
  0
LINE
  5
20583
330
747D
100
AcDbEntity
  8
細線
 48
50.0
100
AcDbLine
 10
6370.203458515456
 20
1358.697173479504
 30
0.0
 11
6363.772677897109
 21
1382.697173479504
 31
0.0
  0
LINE
  5
20584
330
747D
100
AcDbEntity
  8
細線
 48
50.0
100
AcDbLine
 10
6334.339926393255
 20
1382.697173479504
 30
0.0
 11
6348.489768164862
 21
1396.847015251111
 31
0.0
  0
LINE
  5
20585
330
747D
100
AcDbEntity
  8
細線
 48
50.0
100
AcDbLine
 10
6291.315413568209
 20
1358.697173479504
 30
0.0
 11
6284.884632949863
 21
1382.697173479504
 31
0.0
  0
LINE
  5
20586
330
747D
100
AcDbEntity
  8
細線
 48
50.0
100
AcDbLine
 10
6028.489768164861
 20
1696.484687604882
 30
0.0
 11
6132.489768164867
 21
1800.484687604885
 31
0.0
  0
LINE
  5
20587
330
747D
100
AcDbEntity
  8
細線
 48
50.0
100
AcDbLine
 10
6028.489768164861
 20
1723.42545596809
 30
0.0
 11
6132.489768164862
 21
1827.42545596809
 31
0.0
  0
LINE
  5
20588
330
747D
100
AcDbEntity
  8
細線
 48
50.0
100
AcDbLine
 10
6028.489768164861
 20
1669.543919241675
 30
0.0
 11
6132.489768164867
 21
1773.543919241675
 31
0.0
  0
LINE
  5
20589
330
747D
100
AcDbEntity
  8
細線
 48
50.0
100
AcDbLine
 10
6116.489768164862
 20
1973.070066147334
 30
0.0
 11
6132.489768164862
 21
1989.070066147334
 31
0.0
  0
LINE
  5
2058A
330
747D
100
AcDbEntity
  8
細線
 48
50.0
100
AcDbLine
 10
6116.489768164862
 20
2000.010834510542
 30
0.0
 11
6132.489768164862
 21
2016.010834510542
 31
0.0
  0
LINE
  5
2058B
330
747D
100
AcDbEntity
  8
部品1
 48
50.0
100
AcDbLine
 10
5900.489768164862
 20
1622.697173479504
 30
0.0
 11
6028.489768164861
 21
1622.697173479504
 31
0.0
  0
LINE
  5
2058C
330
747D
100
AcDbEntity
  8
細線
 48
50.0
100
AcDbLine
 10
5900.489768164854
 20
1568.484687604879
 30
0.0
 11
5954.702254039486
 21
1622.697173479504
 31
0.0
  0
LINE
  5
2058D
330
747D
100
AcDbEntity
  8
細線
 48
50.0
100
AcDbLine
 10
5900.489768164854
 20
1595.42545596809
 30
0.0
 11
5927.761485676276
 21
1622.697173479504
 31
0.0
  0
LINE
  5
2058E
330
747D
100
AcDbEntity
  8
部品1
 48
50.0
100
AcDbLine
 10
6116.489768164862
 20
1968.824388176626
 30
0.0
 11
6100.489768164862
 21
1968.82438817663
 31
0.0
  0
LINE
  5
2058F
330
747D
100
AcDbEntity
  8
細線
 48
50.0
100
AcDbLine
 10
6028.489768164861
 20
1885.070066147335
 30
0.0
 11
6112.244090194156
 21
1968.824388176626
 31
0.0
  0
LINE
  5
20590
330
747D
100
AcDbEntity
  8
細線
 48
50.0
100
AcDbLine
 10
6028.489768164861
 20
1912.010834510542
 30
0.0
 11
6100.489768164862
 21
1984.010834510542
 31
0.0
  0
LINE
  5
20591
330
747D
100
AcDbEntity
  8
部品1
 48
50.0
100
AcDbLine
 10
6100.489768164862
 20
1968.82438817663
 30
0.0
 11
6100.489768164862
 21
2026.95160287375
 31
0.0
  0
LINE
  5
20592
330
747D
100
AcDbEntity
  8
細線
 48
50.0
100
AcDbLine
 10
6028.489768164861
 20
1938.95160287375
 30
0.0
 11
6100.489768164862
 21
2010.95160287375
 31
0.0
  0
LINE
  5
20593
330
747D
100
AcDbEntity
  8
部品1
 48
50.0
100
AcDbLine
 10
6116.489768164862
 20
1968.824388176626
 30
0.0
 11
6116.489768164862
 21
2026.95160287375
 31
0.0
  0
LINE
  5
20594
330
747D
100
AcDbEntity
  8
細線
 48
50.0
100
AcDbLine
 10
6148.489768164868
 20
1789.543919241675
 30
0.0
 11
6220.489768164854
 21
1861.543919241675
 31
0.0
  0
LINE
  5
20595
330
747D
100
AcDbEntity
  8
部品1
 48
50.0
100
AcDbLine
 10
6220.489768164862
 20
1622.697173479504
 30
0.0
 11
6348.489768164862
 21
1622.697173479504
 31
0.0
  0
LINE
  5
20596
330
747D
100
AcDbEntity
  8
細線
 48
50.0
100
AcDbLine
 10
6148.489768164868
 20
1600.958540699225
 30
0.0
 11
6220.489768164854
 21
1672.95854069922
 31
0.0
  0
LINE
  5
20597
330
747D
100
AcDbEntity
  8
細線
 48
50.0
100
AcDbLine
 10
6148.489768164868
 20
1627.899309062433
 30
0.0
 11
6220.489768164854
 21
1699.89930906243
 31
0.0
  0
LINE
  5
20598
330
747D
100
AcDbEntity
  8
細線
 48
50.0
100
AcDbLine
 10
6148.489768164868
 20
1574.017772336016
 30
0.0
 11
6220.489768164854
 21
1646.017772336016
 31
0.0
  0
LINE
  5
20599
330
747D
100
AcDbEntity
  8
細線
 48
50.0
100
AcDbLine
 10
6148.489768164862
 20
1843.42545596809
 30
0.0
 11
6220.489768164862
 21
1915.42545596809
 31
0.0
  0
LINE
  5
2059A
330
747D
100
AcDbEntity
  8
細線
 48
50.0
100
AcDbLine
 10
6148.489768164868
 20
1816.484687604885
 30
0.0
 11
6220.489768164854
 21
1888.484687604879
 31
0.0
  0
MTEXT
  5
2059B
102
{ACAD_REACTORS
330
20546
102
}
330
747D
100
AcDbEntity
  8
寸法
 62
     7
 48
50.0
100
AcDbMText
 10
6462.228224026111
 20
1205.348087747351
 30
0.0
 40
80.0
 41
0.8
 71
     4
 72
     1
  1
\A1;D10@300
  7
STYLE2
 73
     1
 44
1.0
1001
ACAD
1000
MTEXTBEGIN
1070
    73
1070
     1
1070
    44
1040
1.0
1070
    74
1070
     0
1000
MTEXTEND
  0
DIMENSION
  5
2059C
330
747D
100
AcDbEntity
  8
寸法
 48
50.0
100
AcDbDimension
  2
*D26
 10
6028.489768164861
 20
2486.697173479504
 30
0.0
 11
6135.716098510059
 21
2586.364981395885
 31
0.0
 70
   160
  1
120\P170
 71
     5
 42
192.0
  3
INABA_S50G
100
AcDbAlignedDimension
 13
6220.489768164861
 23
2166.697173479505
 33
0.0
 14
6028.489768164861
 24
2166.697173479505
 34
0.0
100
AcDbRotatedDimension
1001
ACAD
1000
DSTYLE
1002
{
1070
    40
1040
1.0
1070
   272
1070
     1
1070
   279
1070
     1
1070
   341
1005
0
1002
}
  0
LINE
  5
2059D
330
747D
100
AcDbEntity
  8
部品1
 48
50.0
100
AcDbLine
 10
6028.489768164861
 20
2166.697173479505
 30
0.0
 11
6220.489768164862
 21
2166.697173479505
 31
0.0
  0
LINE
  5
2059E
330
747D
100
AcDbEntity
  8
細線
 48
50.0
100
AcDbLine
 10
6028.489768164861
 20
2127.536981416202
 30
0.0
 11
6067.649960228166
 21
2166.697173479505
 31
0.0
  0
LINE
  5
2059F
330
747D
100
AcDbEntity
  8
細線
 48
50.0
100
AcDbLine
 10
6028.489768164861
 20
2100.596213052995
 30
0.0
 11
6094.590728591371
 21
2166.697173479505
 31
0.0
  0
LINE
  5
205A0
330
747D
100
AcDbEntity
  8
細線
 48
50.0
100
AcDbLine
 10
6028.489768164861
 20
2154.47774977941
 30
0.0
 11
6040.709191864957
 21
2166.697173479505
 31
0.0
  0
LINE
  5
205A1
330
747D
100
AcDbEntity
  8
細線
 48
50.0
100
AcDbLine
 10
6148.042475430848
 20
2031.563541776526
 30
0.0
 11
6220.489768164862
 21
2104.010834510542
 31
0.0
  0
LINE
  5
205A2
330
747D
100
AcDbEntity
  8
細線
 48
50.0
100
AcDbLine
 10
6136.982190667332
 20
2047.44402537622
 30
0.0
 11
6220.489768164862
 21
2130.95160287375
 31
0.0
  0
LINE
  5
205A3
330
747D
100
AcDbEntity
  8
細線
 48
50.0
100
AcDbLine
 10
8012.929081342056
 20
2007.825455968093
 30
0.0
 11
8142.529081342056
 21
2137.425455968092
 31
0.0
  0
LINE
  5
205A4
330
747D
100
AcDbEntity
  8
部品1
100
AcDbLine
 10
8142.529081342054
 20
1622.697173479504
 30
0.0
 11
8142.529081342056
 21
2166.697173479505
 31
0.0
  0
LINE
  5
205A5
330
747D
100
AcDbEntity
  8
部品1
 48
50.0
100
AcDbLine
 10
7728.529081342056
 20
1622.697173479504
 30
0.0
 11
7728.529081342056
 21
2166.697173479505
 31
0.0
  0
LINE
  5
205A6
330
747D
100
AcDbEntity
  8
細線
 48
50.0
100
AcDbLine
 10
7728.529081342056
 20
1938.95160287375
 30
0.0
 11
7886.929081342053
 21
2097.351602873747
 31
0.0
  0
LINE
  5
205A7
330
747D
100
AcDbEntity
  8
細線
 48
50.0
100
AcDbLine
 10
7728.529081342056
 20
1912.010834510542
 30
0.0
 11
7886.929081342053
 21
2070.41083451054
 31
0.0
  0
LINE
  5
205A8
330
747D
100
AcDbEntity
  8
細線
 48
50.0
100
AcDbLine
 10
7728.529081342056
 20
1885.070066147335
 30
0.0
 11
7886.929081342052
 21
2043.470066147327
 31
0.0
  0
TEXT
  5
205A9
330
747D
100
AcDbEntity
  8
部品1
 48
50.0
100
AcDbText
 10
7314.389179509099
 20
1937.93616576276
 30
0.0
 40
80.0
  1
▽G.L
  7
STYLE2
100
AcDbText
  0
LINE
  5
205AA
330
747D
100
AcDbEntity
  8
部品1
100
AcDbLine
 10
7958.929081342056
 20
1941.697173479504
 30
0.0
 11
7958.929081342052
 21
2215.857173479505
 31
0.0
  0
LINE
  5
205AB
330
747D
100
AcDbEntity
  8
部品1
100
AcDbLine
 10
7940.929081342055
 20
1941.697173479504
 30
0.0
 11
7940.929081342052
 21
2215.857173479505
 31
0.0
  0
LINE
  5
205AC
330
747D
100
AcDbEntity
  8
細線
 48
50.0
100
AcDbLine
 10
8012.929081342056
 20
1953.943919241663
 30
0.0
 11
8142.529081342056
 21
2083.543919241654
 31
0.0
  0
LINE
  5
205AD
330
747D
100
AcDbEntity
  8
細線
 48
50.0
100
AcDbLine
 10
8012.929081342056
 20
1980.884687604875
 30
0.0
 11
8142.529081342056
 21
2110.484687604872
 31
0.0
  0
LINE
  5
205AE
330
747D
100
AcDbEntity
  8
部品1
100
AcDbLine
 10
8012.929081342056
 20
1842.697173479504
 30
0.0
 11
8012.929081342056
 21
2166.697173479505
 31
0.0
  0
LINE
  5
205AF
330
747D
100
AcDbEntity
  8
部品1
100
AcDbLine
 10
7886.929081342049
 20
1842.697173479504
 30
0.0
 11
7886.929081342056
 21
2166.697173479505
 31
0.0
  0
LINE
  5
205B0
330
747D
100
AcDbEntity
  8
細線
 48
50.0
100
AcDbLine
 10
7728.529081342056
 20
1696.484687604882
 30
0.0
 11
7886.929081342049
 21
1854.884687604871
 31
0.0
  0
LINE
  5
205B1
330
747D
100
AcDbEntity
  8
細線
 48
50.0
100
AcDbLine
 10
7728.529081342056
 20
1669.543919241675
 30
0.0
 11
7901.682335579891
 21
1842.697173479502
 31
0.0
  0
LINE
  5
205B2
330
747D
100
AcDbEntity
  8
細線
 48
50.0
100
AcDbLine
 10
7728.529081342056
 20
1723.42545596809
 30
0.0
 11
7886.929081342049
 21
1881.825455968085
 31
0.0
  0
LINE
  5
205B3
330
747D
100
AcDbEntity
  8
細線
 48
50.0
100
AcDbLine
 10
7657.208482485545
 20
1382.697173479504
 30
0.0
 11
8142.529081342056
 21
1868.017772336012
 31
0.0
  0
LINE
  5
205B4
330
747D
100
AcDbEntity
  8
細線
 48
50.0
100
AcDbLine
 10
7630.267714122339
 20
1382.697173479504
 30
0.0
 11
8142.529081342058
 21
1894.958540699218
 31
0.0
  0
LINE
  5
205B5
330
747D
100
AcDbEntity
  8
細線
 48
50.0
100
AcDbLine
 10
7603.32694575913
 20
1382.697173479504
 30
0.0
 11
8142.529081342054
 21
1921.89930906243
 31
0.0
  0
LINE
  5
205B6
330
747D
100
AcDbEntity
  8
部品1
 48
50.0
100
AcDbLine
 10
8350.529081342058
 20
1382.697173479504
 30
0.0
 11
7520.529081342058
 21
1382.697173479504
 31
0.0
  0
LINE
  5
205B7
330
747D
100
AcDbEntity
  8
部品1
 48
50.0
100
AcDbLine
 10
8350.529081342058
 20
1254.697173479504
 30
0.0
 11
7520.529081342058
 21
1254.697173479504
 31
0.0
  0
LINE
  5
205B8
330
747D
100
AcDbEntity
  8
細線
 48
50.0
100
AcDbLine
 10
7600.52908134205
 20
1541.543919241675
 30
0.0
 11
7681.682335579885
 21
1622.697173479504
 31
0.0
  0
LINE
  5
205B9
330
747D
100
AcDbEntity
  8
部品1
 48
50.0
100
AcDbLine
 10
7600.529081342056
 20
1382.697173479504
 30
0.0
 11
7600.529081342056
 21
1622.697173479504
 31
0.0
  0
LINE
  5
205BA
330
747D
100
AcDbEntity
  8
細線
 48
50.0
100
AcDbLine
 10
7647.935830943572
 20
1254.697173479504
 30
0.0
 11
7682.233327574755
 21
1382.697173479504
 31
0.0
  0
LINE
  5
205BB
330
747D
100
AcDbEntity
  8
部品1
 48
50.0
100
AcDbLine
 10
7520.529081342058
 20
1254.697173479504
 30
0.0
 11
7520.529081342058
 21
1382.697173479504
 31
0.0
  0
LINE
  5
205BC
330
747D
100
AcDbEntity
  8
細線
 48
50.0
100
AcDbLine
 10
7569.047785996314
 20
1254.697173479502
 30
0.0
 11
7603.345282627497
 21
1382.697173479502
 31
0.0
  0
LINE
  5
205BD
330
747D
100
AcDbEntity
  8
細線
 48
50.0
100
AcDbLine
 10
7726.823875890818
 20
1254.697173479502
 30
0.0
 11
7761.121372522001
 21
1382.697173479502
 31
0.0
  0
LINE
  5
205BE
330
747D
100
AcDbEntity
  8
細線
 48
50.0
100
AcDbLine
 10
7575.478566614667
 20
1278.697173479504
 30
0.0
 11
7581.909347233014
 21
1254.697173479504
 31
0.0
  0
LINE
  5
205BF
330
747D
100
AcDbEntity
  8
細線
 48
50.0
100
AcDbLine
 10
7733.254656509171
 20
1278.697173479504
 30
0.0
 11
7739.685437127518
 21
1254.697173479504
 31
0.0
  0
LINE
  5
205C0
330
747D
100
AcDbEntity
  8
細線
 48
50.0
100
AcDbLine
 10
7654.366611561918
 20
1278.697173479504
 30
0.0
 11
7660.797392180267
 21
1254.697173479504
 31
0.0
  0
LINE
  5
205C1
330
747D
100
AcDbEntity
  8
細線
 48
50.0
100
AcDbLine
 10
7520.529081342054
 20
1368.037094445284
 30
0.0
 11
7524.457237680251
 21
1382.697173479504
 31
0.0
  0
LINE
  5
205C2
330
747D
100
AcDbEntity
  8
細線
 48
50.0
100
AcDbLine
 10
7596.914502009155
 20
1358.697173479504
 30
0.0
 11
7590.48372139081
 21
1382.697173479504
 31
0.0
  0
LINE
  5
205C3
330
747D
100
AcDbEntity
  8
細線
 48
50.0
100
AcDbLine
 10
7754.69059190366
 20
1358.697173479504
 30
0.0
 11
7748.259811285312
 21
1382.697173479504
 31
0.0
  0
LINE
  5
205C4
330
747D
100
AcDbEntity
  8
細線
 48
50.0
100
AcDbLine
 10
7675.802546956409
 20
1358.697173479504
 30
0.0
 11
7669.371766338061
 21
1382.697173479504
 31
0.0
  0
LWPOLYLINE
  5
205C5
330
747D
100
AcDbEntity
  8
部品1
 48
50.0
100
AcDbPolyline
 90
        2
 70
     0
 43
8.0
 10
7314.389179509099
 20
1926.697173479505
 10
7728.529081342056
 20
1926.697173479505
  0
LINE
  5
205C6
330
747D
100
AcDbEntity
  8
細線
 48
50.0
100
AcDbLine
 10
7600.52908134205
 20
1568.484687604879
 30
0.0
 11
7654.741567216681
 21
1622.697173479504
 31
0.0
  0
LINE
  5
205C7
330
747D
100
AcDbEntity
  8
部品1
 48
50.0
100
AcDbLine
 10
7600.529081342056
 20
1622.697173479504
 30
0.0
 11
7728.529081342056
 21
1622.697173479504
 31
0.0
  0
LINE
  5
205C8
330
747D
100
AcDbEntity
  8
細線
 48
50.0
100
AcDbLine
 10
7600.52908134205
 20
1595.42545596809
 30
0.0
 11
7627.80079885347
 21
1622.697173479504
 31
0.0
  0
LINE
  5
205C9
330
747D
100
AcDbEntity
  8
細線
 48
50.0
100
AcDbLine
 10
7845.793861027999
 20
1382.697173479504
 30
0.0
 11
8142.529081342056
 21
1679.432393793557
 31
0.0
  0
LINE
  5
205CA
330
747D
100
AcDbEntity
  8
細線
 48
50.0
100
AcDbLine
 10
7872.734629391205
 20
1382.697173479504
 30
0.0
 11
8142.529081342056
 21
1652.491625430361
 31
0.0
  0
LINE
  5
205CB
330
747D
100
AcDbEntity
  8
細線
 48
50.0
100
AcDbLine
 10
7818.853092664788
 20
1382.697173479504
 30
0.0
 11
8142.529081342054
 21
1706.37316215677
 31
0.0
  0
LINE
  5
205CC
330
747D
100
AcDbEntity
  8
細線
 48
50.0
100
AcDbLine
 10
8034.379239570448
 20
1382.697173479504
 30
0.0
 11
8270.529081342054
 21
1618.847015251112
 31
0.0
  0
LINE
  5
205CD
330
747D
100
AcDbEntity
  8
細線
 48
50.0
100
AcDbLine
 10
8061.320007933659
 20
1382.697173479504
 30
0.0
 11
8270.529081342054
 21
1591.906246887897
 31
0.0
  0
LINE
  5
205CE
330
747D
100
AcDbEntity
  8
部品1
 48
50.0
100
AcDbLine
 10
8270.529081342054
 20
1622.697173479504
 30
0.0
 11
8270.529081342054
 21
1382.697173479504
 31
0.0
  0
LINE
  5
205CF
330
747D
100
AcDbEntity
  8
細線
 48
50.0
100
AcDbLine
 10
8088.260776296863
 20
1382.697173479504
 30
0.0
 11
8270.529081342054
 21
1564.9654785247
 31
0.0
  0
LINE
  5
205D0
330
747D
100
AcDbEntity
  8
細線
 48
50.0
100
AcDbLine
 10
7963.488010732565
 20
1254.697173479502
 30
0.0
 11
7997.785507363747
 21
1382.697173479502
 31
0.0
  0
LINE
  5
205D1
330
747D
100
AcDbEntity
  8
細線
 48
50.0
100
AcDbLine
 10
7805.71192083807
 20
1254.697173479504
 30
0.0
 11
7840.009417469253
 21
1382.697173479504
 31
0.0
  0
LINE
  5
205D2
330
747D
100
AcDbEntity
  8
細線
 48
50.0
100
AcDbLine
 10
7884.599965785317
 20
1254.697173479504
 30
0.0
 11
7918.897462416502
 21
1382.697173479502
 31
0.0
  0
LINE
  5
205D3
330
747D
100
AcDbEntity
  8
細線
 48
50.0
100
AcDbLine
 10
8042.376055679808
 20
1254.697173479504
 30
0.0
 11
8076.673552310994
 21
1382.697173479502
 31
0.0
  0
LINE
  5
205D4
330
747D
100
AcDbEntity
  8
細線
 48
50.0
100
AcDbLine
 10
7891.030746403669
 20
1278.697173479504
 30
0.0
 11
7897.461527022016
 21
1254.697173479504
 31
0.0
  0
LINE
  5
205D5
330
747D
100
AcDbEntity
  8
細線
 48
50.0
100
AcDbLine
 10
7812.142701456422
 20
1278.697173479504
 30
0.0
 11
7818.57348207477
 21
1254.697173479504
 31
0.0
  0
LINE
  5
205D6
330
747D
100
AcDbEntity
  8
細線
 48
50.0
100
AcDbLine
 10
8048.80683629816
 20
1278.697173479504
 30
0.0
 11
8055.237616916507
 21
1254.697173479504
 31
0.0
  0
LINE
  5
205D7
330
747D
100
AcDbEntity
  8
細線
 48
50.0
100
AcDbLine
 10
7969.918791350915
 20
1278.697173479504
 30
0.0
 11
7976.349571969262
 21
1254.697173479504
 31
0.0
  0
LINE
  5
205D8
330
747D
100
AcDbEntity
  8
細線
 48
50.0
100
AcDbLine
 10
7912.466681798157
 20
1358.697173479504
 30
0.0
 11
7906.035901179811
 21
1382.697173479504
 31
0.0
  0
LINE
  5
205D9
330
747D
100
AcDbEntity
  8
細線
 48
50.0
100
AcDbLine
 10
7833.578636850912
 20
1358.697173479504
 30
0.0
 11
7827.147856232565
 21
1382.697173479504
 31
0.0
  0
LINE
  5
205DA
330
747D
100
AcDbEntity
  8
細線
 48
50.0
100
AcDbLine
 10
7991.354726745405
 20
1358.697173479504
 30
0.0
 11
7984.923946127057
 21
1382.697173479504
 31
0.0
  0
LINE
  5
205DB
330
747D
100
AcDbEntity
  8
細線
 48
50.0
100
AcDbLine
 10
8070.242771692651
 20
1358.697173479504
 30
0.0
 11
8063.811991074304
 21
1382.697173479504
 31
0.0
  0
LINE
  5
205DC
330
747D
100
AcDbEntity
  8
部品1
 48
50.0
100
AcDbLine
 10
8350.529081342058
 20
1382.697173479504
 30
0.0
 11
8350.529081342058
 21
1254.697173479504
 31
0.0
  0
LINE
  5
205DD
330
747D
100
AcDbEntity
  8
細線
 48
50.0
100
AcDbLine
 10
8279.040190521548
 20
1254.697173479502
 30
0.0
 11
8313.337687152737
 21
1382.697173479501
 31
0.0
  0
LINE
  5
205DE
330
747D
100
AcDbEntity
  8
細線
 48
50.0
100
AcDbLine
 10
8121.264100627056
 20
1254.697173479502
 30
0.0
 11
8155.561597258232
 21
1382.697173479504
 31
0.0
  0
LINE
  5
205DF
330
747D
100
AcDbEntity
  8
細線
 48
50.0
100
AcDbLine
 10
8200.152145574305
 20
1254.697173479501
 30
0.0
 11
8234.449642205488
 21
1382.697173479501
 31
0.0
  0
LINE
  5
205E0
330
747D
100
AcDbEntity
  8
細線
 48
50.0
100
AcDbLine
 10
8127.694881245407
 20
1278.697173479504
 30
0.0
 11
8134.125661863764
 21
1254.697173479504
 31
0.0
  0
LINE
  5
205E1
330
747D
100
AcDbEntity
  8
細線
 48
50.0
100
AcDbLine
 10
8206.582926192655
 20
1278.697173479502
 30
0.0
 11
8213.013706811002
 21
1254.697173479502
 31
0.0
  0
LINE
  5
205E2
330
747D
100
AcDbEntity
  8
細線
 48
50.0
100
AcDbLine
 10
8285.470971139901
 20
1278.697173479502
 30
0.0
 11
8291.901751758249
 21
1254.697173479502
 31
0.0
  0
LINE
  5
205E3
330
747D
100
AcDbEntity
  8
細線
 48
50.0
100
AcDbLine
 10
8149.130816639887
 20
1358.697173479504
 30
0.0
 11
8142.70003602154
 21
1382.697173479504
 31
0.0
  0
LINE
  5
205E4
330
747D
100
AcDbEntity
  8
細線
 48
50.0
100
AcDbLine
 10
8228.018861587145
 20
1358.697173479502
 30
0.0
 11
8221.588080968798
 21
1382.697173479502
 31
0.0
  0
LINE
  5
205E5
330
747D
100
AcDbEntity
  8
細線
 48
50.0
100
AcDbLine
 10
8306.90690653439
 20
1358.697173479502
 30
0.0
 11
8300.476125916045
 21
1382.697173479502
 31
0.0
  0
LINE
  5
205E6
330
747D
100
AcDbEntity
  8
部品1
100
AcDbLine
 10
8012.929081342056
 20
1842.697173479502
 30
0.0
 11
7886.929081342049
 21
1842.697173479502
 31
0.0
  0
LINE
  5
205E7
330
747D
100
AcDbEntity
  8
部品1
100
AcDbLine
 10
7994.929081342056
 20
1923.697173479504
 30
0.0
 11
7994.929081342056
 21
1941.697173479504
 31
0.0
  0
ARC
  5
205E8
330
747D
100
AcDbEntity
  8
部品1
100
AcDbCircle
 10
7958.929081342056
 20
1941.697173479504
 30
0.0
 40
18.0
100
AcDbArc
 50
180.0
 51
270.0
  0
LINE
  5
205E9
330
747D
100
AcDbEntity
  8
部品1
100
AcDbLine
 10
7958.929081342056
 20
1923.697173479504
 30
0.0
 11
7994.929081342056
 21
1923.697173479504
 31
0.0
  0
LINE
  5
205EA
330
747D
100
AcDbEntity
  8
部品1
100
AcDbLine
 10
7958.929081342056
 20
1941.697173479504
 30
0.0
 11
7994.929081342056
 21
1941.697173479504
 31
0.0
  0
LINE
  5
205EB
330
747D
100
AcDbEntity
  8
部品1
 48
50.0
100
AcDbLine
 10
8142.529081342056
 20
1622.697173479504
 30
0.0
 11
8270.529081342054
 21
1622.697173479504
 31
0.0
  0
LINE
  5
205EC
330
747D
100
AcDbEntity
  8
部品1
100
AcDbLine
 10
7748.329081342055
 20
2256.697173479504
 30
0.0
 11
7786.129081342055
 21
2256.697173479504
 31
0.0
  0
LINE
  5
205ED
330
747D
100
AcDbEntity
  8
細線
 48
50.0
100
AcDbLine
 10
7728.529081342056
 20
2127.536981416202
 30
0.0
 11
7767.689273405361
 21
2166.697173479505
 31
0.0
  0
LINE
  5
205EE
330
747D
100
AcDbEntity
  8
細線
 48
50.0
100
AcDbLine
 10
7728.529081342056
 20
2100.596213052995
 30
0.0
 11
7794.630041768565
 21
2166.697173479505
 31
0.0
  0
LINE
  5
205EF
330
747D
100
AcDbEntity
  8
部品1
 48
50.0
100
AcDbLine
 10
7728.529081342056
 20
2166.697173479505
 30
0.0
 11
8142.529081342058
 21
2166.697173479505
 31
0.0
  0
TEXT
  5
205F0
330
747D
100
AcDbEntity
  8
部品1
 48
50.0
100
AcDbText
 10
7302.082984762563
 20
2497.25769457998
 30
0.0
 40
80.0
  1
※(別売)
  7
STYLE2
100
AcDbText
  0
LINE
  5
205F1
330
747D
100
AcDbEntity
  8
部品1
100
AcDbLine
 10
7745.629081342055
 20
2245.897173479504
 30
0.0
 11
7745.629081342055
 21
2253.997173479505
 31
0.0
  0
ARC
  5
205F2
330
747D
100
AcDbEntity
  8
部品1
100
AcDbCircle
 10
7748.329081342055
 20
2253.997173479505
 30
0.0
 40
2.7
100
AcDbArc
 50
90.0
 51
180.0
  0
ARC
  5
205F3
330
747D
100
AcDbEntity
  8
部品1
100
AcDbCircle
 10
7737.529081342055
 20
2241.089077182213
 30
0.0
 40
2.7
100
AcDbArc
 50
104.0362434679059
 51
180.0
  0
LINE
  5
205F4
330
747D
100
AcDbEntity
  8
部品1
100
AcDbLine
 10
7736.874235154457
 20
2243.708461932604
 30
0.0
 11
7745.629081342055
 21
2245.897173479504
 31
0.0
  0
ARC
  5
205F5
330
747D
100
AcDbEntity
  8
部品1
100
AcDbCircle
 10
7737.529081342055
 20
2178.957173479505
 30
0.0
 40
2.7
100
AcDbArc
 50
180.0
 51
270.0
  0
LINE
  5
205F6
330
747D
100
AcDbEntity
  8
細線
 48
50.0
100
AcDbLine
 10
7728.529081342056
 20
2154.47774977941
 30
0.0
 11
7740.74850504215
 21
2166.697173479505
 31
0.0
  0
LINE
  5
205F7
330
747D
100
AcDbEntity
  8
部品1
100
AcDbLine
 10
7737.529081342055
 20
2176.257173479505
 30
0.0
 11
7749.22908134205
 21
2176.257173479505
 31
0.0
  0
LINE
  5
205F8
330
747D
100
AcDbEntity
  8
部品1
100
AcDbLine
 10
7734.829081342056
 20
2178.957173479505
 30
0.0
 11
7734.829081342056
 21
2241.089077182213
 31
0.0
  0
LINE
  5
205F9
330
747D
100
AcDbEntity
  8
部品1
100
AcDbLine
 10
7893.48908134205
 20
2176.257173479505
 30
0.0
 11
8094.82908134205
 21
2176.257173479505
 31
0.0
  0
LINE
  5
205FA
330
747D
100
AcDbEntity
  8
部品1
100
AcDbLine
 10
7786.129081342055
 20
2256.697173479504
 30
0.0
 11
7786.129081342055
 21
2264.797173479505
 31
0.0
  0
LINE
  5
205FB
330
747D
100
AcDbEntity
  8
部品1
100
AcDbLine
 10
7836.529081342056
 20
2275.597173479501
 30
0.0
 11
7836.529081342056
 21
2224.297173479504
 31
0.0
  0
LINE
  5
205FC
330
747D
100
AcDbEntity
  8
部品1
100
AcDbLine
 10
7859.929081342055
 20
2236.257173479505
 30
0.0
 11
7888.089081342056
 21
2236.257173479505
 31
0.0
  0
ARC
  5
205FD
330
747D
100
AcDbEntity
  8
部品1
100
AcDbCircle
 10
7859.929081342055
 20
2233.557173479505
 30
0.0
 40
2.7
100
AcDbArc
 50
90.0
 51
180.0
  0
ARC
  5
205FE
330
747D
100
AcDbEntity
  8
部品1
100
AcDbCircle
 10
7888.089081342056
 20
2233.557173479505
 30
0.0
 40
2.7
100
AcDbArc
 50
0.0
 51
90.0
  0
LINE
  5
205FF
330
747D
100
AcDbEntity
  8
部品1
100
AcDbLine
 10
7878.829081342056
 20
2221.597173479504
 30
0.0
 11
7878.829081342056
 21
2178.957173479505
 31
0.0
  0
LINE
  5
20600
330
747D
100
AcDbEntity
  8
部品1
100
AcDbLine
 10
7864.429081342056
 20
2176.257173479505
 30
0.0
 11
7876.129081342056
 21
2176.257173479505
 31
0.0
  0
ARC
  5
20601
330
747D
100
AcDbEntity
  8
部品1
100
AcDbCircle
 10
7893.48908134205
 20
2178.957173479505
 30
0.0
 40
2.7
100
AcDbArc
 50
180.0
 51
270.0
  0
ARC
  5
20602
330
747D
100
AcDbEntity
  8
部品1
100
AcDbCircle
 10
7876.129081342056
 20
2178.957173479505
 30
0.0
 40
2.7
100
AcDbArc
 50
270.0
 51
0.0
  0
LINE
  5
20603
330
747D
100
AcDbEntity
  8
部品1
100
AcDbLine
 10
7836.529081342056
 20
2224.297173479504
 30
0.0
 11
7876.129081342056
 21
2224.297173479504
 31
0.0
  0
ARC
  5
20604
330
747D
100
AcDbEntity
  8
部品1
100
AcDbCircle
 10
7876.129081342056
 20
2221.597173479504
 30
0.0
 40
2.7
100
AcDbArc
 50
0.0
 51
90.0
  0
LINE
  5
20605
330
747D
100
AcDbEntity
  8
部品1
100
AcDbLine
 10
7890.789081342056
 20
2233.557173479505
 30
0.0
 11
7890.789081342052
 21
2178.957173479505
 31
0.0
  0
LINE
  5
20606
330
747D
100
AcDbEntity
  8
部品1
100
AcDbLine
 10
7857.229081342055
 20
2233.557173479505
 30
0.0
 11
7857.229081342055
 21
2216.457173479505
 31
0.0
  0
LINE
  5
20607
330
747D
100
AcDbEntity
  8
細線
100
AcDbLine
 10
7955.329081342056
 20
2176.257173479505
 30
0.0
 11
7955.329081342056
 21
2219.457173479504
 31
0.0
  0
LINE
  5
20608
330
747D
100
AcDbEntity
  8
細線
100
AcDbLine
 10
7944.529081342058
 20
2176.257173479505
 30
0.0
 11
7944.529081342055
 21
2219.457173479504
 31
0.0
  0
LINE
  5
20609
330
747D
100
AcDbEntity
  8
部品1
100
AcDbLine
 10
7940.929081342055
 20
2215.857173479505
 30
0.0
 11
7958.929081342056
 21
2215.857173479505
 31
0.0
  0
LINE
  5
2060A
330
747D
100
AcDbEntity
  8
部品1
100
AcDbLine
 10
7944.529081342055
 20
2219.457173479504
 30
0.0
 11
7955.329081342056
 21
2219.457173479504
 31
0.0
  0
ELLIPSE
  5
2060B
330
747D
100
AcDbEntity
  8
部品1
 48
50.0
100
AcDbEllipse
 10
7949.929081342054
 20
2435.820461923777
 30
0.0
 11
40.0
 21
0.0
 31
0.0
210
0.0
220
0.0
230
1.0
 40
0.4
 41
0.0
 42
6.283185307179586
  0
ELLIPSE
  5
2060C
330
747D
100
AcDbEntity
  8
部品1
 48
50.0
100
AcDbEllipse
 10
7949.929081342054
 20
2426.220461923778
 30
0.0
 11
40.0
 21
0.0
 31
0.0
210
0.0
220
0.0
230
1.0
 40
0.4
 41
3.141592653589793
 42
6.283185307179586
  0
LINE
  5
2060D
330
747D
100
AcDbEntity
  8
部品1
 48
50.0
100
AcDbLine
 10
7909.929081342055
 20
2435.820461923777
 30
0.0
 11
7909.929081342055
 21
2426.220461923776
 31
0.0
  0
ARC
  5
2060E
330
747D
100
AcDbEntity
  8
部品1
100
AcDbCircle
 10
7833.829081342056
 20
2275.597173479501
 30
0.0
 40
2.7
100
AcDbArc
 50
0.0
 51
90.0
  0
ARC
  5
2060F
330
747D
100
AcDbEntity
  8
部品1
100
AcDbCircle
 10
7791.529081342055
 20
2275.597173479504
 30
0.0
 40
2.7
100
AcDbArc
 50
90.0
 51
180.0
  0
LINE
  5
20610
330
747D
100
AcDbEntity
  8
部品1
100
AcDbLine
 10
7788.829081342055
 20
2267.497173479505
 30
0.0
 11
7788.829081342055
 21
2267.497173479505
 31
0.0
  0
LINE
  5
20611
330
747D
100
AcDbEntity
  8
部品1
100
AcDbLine
 10
7788.829081342055
 20
2267.497173479505
 30
0.0
 11
7788.829081342055
 21
2275.597173479504
 31
0.0
  0
LINE
  5
20612
330
747D
100
AcDbEntity
  8
部品1
100
AcDbLine
 10
7791.529081342055
 20
2278.297173479505
 30
0.0
 11
7833.829081342056
 21
2278.297173479501
 31
0.0
  0
ARC
  5
20613
330
747D
100
AcDbEntity
  8
部品1
100
AcDbCircle
 10
7788.829081342055
 20
2264.797173479505
 30
0.0
 40
2.7
100
AcDbArc
 50
90.0
 51
180.0
  0
ELLIPSE
  5
20614
330
747D
100
AcDbEntity
  8
部品1
 48
50.0
100
AcDbEllipse
 10
7949.929081342054
 20
2435.820461923777
 30
0.0
 11
18.4
 21
0.0
 31
0.0
210
0.0
220
0.0
230
1.0
 40
0.3478260869565217
 41
0.0
 42
6.283185307179586
  0
LINE
  5
20615
330
747D
100
AcDbEntity
  8
部品1
 48
50.0
100
AcDbLine
 10
7989.929081342056
 20
2426.220461923776
 30
0.0
 11
7989.929081342056
 21
2435.820461923777
 31
0.0
  0
LINE
  5
20616
330
747D
100
AcDbEntity
  8
部品1
 48
50.0
100
AcDbLine
 10
7917.929081342056
 20
2557.572454588647
 30
0.0
 11
7933.929081342056
 21
2549.572454588647
 31
0.0
  0
LINE
  5
20617
330
747D
100
AcDbEntity
  8
部品1
 48
50.0
100
AcDbLine
 10
7917.929081342056
 20
2525.572454588647
 30
0.0
 11
7933.929081342056
 21
2517.572454588647
 31
0.0
  0
LINE
  5
20618
330
747D
100
AcDbEntity
  8
部品1
 48
50.0
100
AcDbLine
 10
7917.929081342056
 20
2557.572454588647
 30
0.0
 11
7933.929081342056
 21
2565.572454588647
 31
0.0
  0
LINE
  5
20619
330
747D
100
AcDbEntity
  8
部品1
 48
50.0
100
AcDbLine
 10
7917.929081342056
 20
2525.572454588647
 30
0.0
 11
7917.929081342056
 21
2557.572454588647
 31
0.0
  0
LINE
  5
2061A
330
747D
100
AcDbEntity
  8
部品1
 48
50.0
100
AcDbLine
 10
7933.929081342056
 20
2565.572454588647
 30
0.0
 11
7965.929081342055
 21
2565.572454588647
 31
0.0
  0
ELLIPSE
  5
2061B
330
747D
100
AcDbEntity
  8
細線
 48
50.0
100
AcDbEllipse
 10
7949.929081342054
 20
2557.572454588647
 30
0.0
 11
14.76670786606846
 21
0.0
 31
0.0
210
0.0
220
0.0
230
1.0
 40
0.2071254069489396
 41
0.0
 42
6.283185307179586
  0
LINE
  5
2061C
330
747D
100
AcDbEntity
  8
部品1
 48
50.0
100
AcDbLine
 10
7933.929081342056
 20
2517.572454588647
 30
0.0
 11
7965.929081342055
 21
2517.572454588647
 31
0.0
  0
LINE
  5
2061D
330
747D
100
AcDbEntity
  8
部品1
 48
50.0
100
AcDbLine
 10
7965.929081342055
 20
2517.572454588647
 30
0.0
 11
7981.929081342056
 21
2525.572454588647
 31
0.0
  0
LINE
  5
2061E
330
747D
100
AcDbEntity
  8
部品1
 48
50.0
100
AcDbLine
 10
7933.929081342056
 20
2549.572454588647
 30
0.0
 11
7965.929081342055
 21
2549.572454588647
 31
0.0
  0
LINE
  5
2061F
330
747D
100
AcDbEntity
  8
部品1
 48
50.0
100
AcDbLine
 10
7965.929081342055
 20
2549.572454588647
 30
0.0
 11
7981.929081342056
 21
2557.572454588647
 31
0.0
  0
LINE
  5
20620
330
747D
100
AcDbEntity
  8
細線
 48
50.0
100
AcDbLine
 10
7965.929081342055
 20
2517.572454588647
 30
0.0
 11
7965.929081342055
 21
2549.572454588647
 31
0.0
  0
LINE
  5
20621
330
747D
100
AcDbEntity
  8
部品1
 48
50.0
100
AcDbLine
 10
7981.929081342056
 20
2525.572454588647
 30
0.0
 11
7981.929081342056
 21
2557.572454588647
 31
0.0
  0
LINE
  5
20622
330
747D
100
AcDbEntity
  8
細線
 48
50.0
100
AcDbLine
 10
7933.929081342056
 20
2517.572454588647
 30
0.0
 11
7933.929081342056
 21
2549.572454588647
 31
0.0
  0
LINE
  5
20623
330
747D
100
AcDbEntity
  8
部品1
 48
50.0
100
AcDbLine
 10
7965.929081342055
 20
2565.572454588647
 30
0.0
 11
7981.929081342056
 21
2557.572454588647
 31
0.0
  0
TEXT
  5
20624
330
747D
100
AcDbEntity
  8
部品1
100
AcDbText
 10
7650.701330533985
 20
3308.116861304922
 30
0.0
 40
120.0
  1
基礎詳細
  7
STYLE2
100
AcDbText
  0
LINE
  5
20625
330
747D
100
AcDbEntity
  8
部品1
100
AcDbLine
 10
11028.80651474184
 20
523.361823671702
 30
0.0
 11
11028.80651474185
 21
3487.668793256349
 31
0.0
  0
LINE
  5
20626
330
747D
100
AcDbEntity
  8
細線
100
AcDbLine
 10
10036.69834732159
 20
1926.697173479504
 30
0.0
 11
9842.065013644813
 21
2121.330507156287
 31
0.0
  0
LINE
  5
20627
330
747D
100
AcDbEntity
  8
部品1
100
AcDbLine
 10
9842.065013644813
 20
2166.697173479505
 30
0.0
 11
10322.06501364481
 21
2166.697173479505
 31
0.0
  0
LINE
  5
20628
330
747D
100
AcDbEntity
  8
細線
 48
50.0
100
AcDbLine
 10
9976.13589808807
 20
1706.998257826154
 30
0.0
 11
10010.43339471926
 21
1834.998257826153
 31
0.0
  0
LINE
  5
20629
330
747D
100
AcDbEntity
  8
部品1
100
AcDbLine
 10
9722.065013644813
 20
1706.99825782615
 30
0.0
 11
10442.06501364481
 21
1706.998257826154
 31
0.0
  0
LINE
  5
2062A
330
747D
100
AcDbEntity
  8
部品1
100
AcDbLine
 10
9722.065013644813
 20
1834.998257826154
 30
0.0
 11
10442.06501364481
 21
1834.998257826157
 31
0.0
  0
LINE
  5
2062B
330
747D
100
AcDbEntity
  8
細線
100
AcDbLine
 10
9902.983659138056
 20
1834.998257826154
 30
0.0
 11
9994.682574791401
 21
1926.697173479504
 31
0.0
  0
LWPOLYLINE
  5
2062C
330
747D
100
AcDbEntity
  8
部品1
 48
50.0
100
AcDbPolyline
 90
        2
 70
     0
 43
12.0
 10
9457.453751544425
 20
1926.697173479504
 10
10658.54605467605
 20
1926.697173479504
  0
LINE
  5
2062D
330
747D
100
AcDbEntity
  8
細線
100
AcDbLine
 10
9985.786659076167
 20
1926.697173479504
 30
0.0
 11
9842.065013644813
 21
2070.418818910857
 31
0.0
  0
TEXT
  5
2062E
330
747D
100
AcDbEntity
  8
部品1
 48
50.0
100
AcDbText
 10
9077.94692688631
 20
1659.897432842195
 30
0.0
 40
80.0
  1
ボルトの出
 50
90.0
  7
STYLE2
100
AcDbText
  0
LINE
  5
2062F
330
747D
100
AcDbEntity
  8
部品1
100
AcDbLine
 10
9842.065013644813
 20
1926.697173479504
 30
0.0
 11
9842.065013644813
 21
2166.697173479505
 31
0.0
  0
LINE
  5
20630
330
747D
100
AcDbEntity
  8
細線
 48
50.0
100
AcDbLine
 10
9818.359808193573
 20
1706.998257826153
 30
0.0
 11
9852.657304824756
 21
1834.998257826153
 31
0.0
  0
LINE
  5
20631
330
747D
100
AcDbEntity
  8
細線
 48
50.0
100
AcDbLine
 10
9897.247853140823
 20
1706.998257826154
 30
0.0
 11
9931.545349772008
 21
1834.998257826154
 31
0.0
  0
LINE
  5
20632
330
747D
100
AcDbEntity
  8
細線
 48
50.0
100
AcDbLine
 10
9739.471763246326
 20
1706.998257826154
 30
0.0
 11
9773.769259877511
 21
1834.998257826154
 31
0.0
  0
LINE
  5
20633
330
747D
100
AcDbEntity
  8
部品1
100
AcDbLine
 10
9722.065013644813
 20
1706.99825782615
 30
0.0
 11
9722.065013644813
 21
1926.697173479504
 31
0.0
  0
LINE
  5
20634
330
747D
100
AcDbEntity
  8
細線
 48
50.0
100
AcDbLine
 10
9824.790588811925
 20
1730.998257826154
 30
0.0
 11
9831.221369430274
 21
1706.998257826154
 31
0.0
  0
LINE
  5
20635
330
747D
100
AcDbEntity
  8
細線
 48
50.0
100
AcDbLine
 10
9745.902543864673
 20
1730.998257826154
 30
0.0
 11
9752.333324483021
 21
1706.998257826154
 31
0.0
  0
LINE
  5
20636
330
747D
100
AcDbEntity
  8
細線
 48
50.0
100
AcDbLine
 10
9903.678633759177
 20
1730.998257826154
 30
0.0
 11
9910.109414377522
 21
1706.998257826154
 31
0.0
  0
LINE
  5
20637
330
747D
100
AcDbEntity
  8
細線
 48
50.0
100
AcDbLine
 10
9982.566678706422
 20
1730.998257826154
 30
0.0
 11
9988.997459324771
 21
1706.998257826154
 31
0.0
  0
LINE
  5
20638
330
747D
100
AcDbEntity
  8
細線
 48
50.0
100
AcDbLine
 10
9767.338479259162
 20
1810.998257826154
 30
0.0
 11
9760.907698640814
 21
1834.998257826154
 31
0.0
  0
LINE
  5
20639
330
747D
100
AcDbEntity
  8
細線
 48
50.0
100
AcDbLine
 10
9925.114569153667
 20
1810.998257826154
 30
0.0
 11
9918.68378853532
 21
1834.998257826154
 31
0.0
  0
LINE
  5
2063A
330
747D
100
AcDbEntity
  8
細線
 48
50.0
100
AcDbLine
 10
9846.226524206414
 20
1810.998257826154
 30
0.0
 11
9839.795743588068
 21
1834.998257826154
 31
0.0
  0
LINE
  5
2063B
330
747D
100
AcDbEntity
  8
細線
100
AcDbLine
 10
9835.10140814414
 20
1834.998257826154
 30
0.0
 11
9926.800323797493
 21
1926.697173479504
 31
0.0
  0
LINE
  5
2063C
330
747D
100
AcDbEntity
  8
細線
100
AcDbLine
 10
9869.042533641099
 20
1834.998257826154
 30
0.0
 11
9960.741449294445
 21
1926.697173479504
 31
0.0
  0
LINE
  5
2063D
330
747D
100
AcDbEntity
  8
細線
100
AcDbLine
 10
10257.3156630518
 20
1926.697173479504
 30
0.0
 11
10017.3156630518
 21
2166.697173479505
 31
0.0
  0
LINE
  5
2063E
330
747D
100
AcDbEntity
  8
細線
100
AcDbLine
 10
10308.22735129723
 20
1926.697173479506
 30
0.0
 11
10068.22735129723
 21
2166.697173479505
 31
0.0
  0
LINE
  5
2063F
330
747D
100
AcDbEntity
  8
部品1
100
AcDbLine
 10
10322.06501364481
 20
2166.697173479505
 30
0.0
 11
10322.06501364481
 21
1926.697173479504
 31
0.0
  0
LINE
  5
20640
330
747D
100
AcDbEntity
  8
細線
 48
50.0
100
AcDbLine
 10
10291.68807787706
 20
1706.998257826151
 30
0.0
 11
10325.98557450824
 21
1834.998257826151
 31
0.0
  0
LINE
  5
20641
330
747D
100
AcDbEntity
  8
細線
100
AcDbLine
 10
10262.98365913805
 20
1834.998257826156
 30
0.0
 11
10354.6825747914
 21
1926.697173479504
 31
0.0
  0
LINE
  5
20642
330
747D
100
AcDbEntity
  8
細線
 48
50.0
100
AcDbLine
 10
10212.80003292981
 20
1706.998257826153
 30
0.0
 11
10247.09752956098
 21
1834.998257826154
 31
0.0
  0
LINE
  5
20643
330
747D
100
AcDbEntity
  8
細線
 48
50.0
100
AcDbLine
 10
10055.02394303532
 20
1706.998257826153
 30
0.0
 11
10089.3214396665
 21
1834.998257826153
 31
0.0
  0
LINE
  5
20644
330
747D
100
AcDbEntity
  8
細線
 48
50.0
100
AcDbLine
 10
10133.91198798256
 20
1706.998257826154
 30
0.0
 11
10168.20948461375
 21
1834.998257826153
 31
0.0
  0
LINE
  5
20645
330
747D
100
AcDbEntity
  8
細線
 48
50.0
100
AcDbLine
 10
10140.34276860091
 20
1730.998257826154
 30
0.0
 11
10146.77354921926
 21
1706.998257826154
 31
0.0
  0
LINE
  5
20646
330
747D
100
AcDbEntity
  8
細線
 48
50.0
100
AcDbLine
 10
10061.45472365367
 20
1730.998257826154
 30
0.0
 11
10067.88550427201
 21
1706.998257826154
 31
0.0
  0
LINE
  5
20647
330
747D
100
AcDbEntity
  8
細線
 48
50.0
100
AcDbLine
 10
10219.23081354816
 20
1730.998257826154
 30
0.0
 11
10225.66159416652
 21
1706.998257826154
 31
0.0
  0
LINE
  5
20648
330
747D
100
AcDbEntity
  8
細線
 48
50.0
100
AcDbLine
 10
10298.11885849541
 20
1730.998257826153
 30
0.0
 11
10304.54963911376
 21
1706.998257826153
 31
0.0
  0
LINE
  5
20649
330
747D
100
AcDbEntity
  8
細線
 48
50.0
100
AcDbLine
 10
10161.7787039954
 20
1810.998257826154
 30
0.0
 11
10155.34792337706
 21
1834.998257826154
 31
0.0
  0
LINE
  5
2064A
330
747D
100
AcDbEntity
  8
細線
 48
50.0
100
AcDbLine
 10
10082.89065904816
 20
1810.998257826154
 30
0.0
 11
10076.45987842981
 21
1834.998257826154
 31
0.0
  0
LINE
  5
2064B
330
747D
100
AcDbEntity
  8
細線
 48
50.0
100
AcDbLine
 10
10004.00261410091
 20
1810.998257826154
 30
0.0
 11
9997.571833482567
 21
1834.998257826154
 31
0.0
  0
LINE
  5
2064C
330
747D
100
AcDbEntity
  8
細線
100
AcDbLine
 10
10229.0425336411
 20
1834.998257826156
 30
0.0
 11
10320.74144929444
 21
1926.697173479504
 31
0.0
  0
LINE
  5
2064D
330
747D
100
AcDbEntity
  8
細線
 48
50.0
100
AcDbLine
 10
10240.66674894264
 20
1810.998257826154
 30
0.0
 11
10234.23596832429
 21
1834.998257826154
 31
0.0
  0
LINE
  5
2064E
330
747D
100
AcDbEntity
  8
細線
100
AcDbLine
 10
10195.10140814414
 20
1834.998257826156
 30
0.0
 11
10286.80032379749
 21
1926.697173479504
 31
0.0
  0
LINE
  5
2064F
330
747D
100
AcDbEntity
  8
細線
 48
50.0
100
AcDbLine
 10
10319.5547938899
 20
1810.998257826153
 30
0.0
 11
10313.12401327155
 21
1834.998257826153
 31
0.0
  0
LINE
  5
20650
330
747D
100
AcDbEntity
  8
細線
 48
50.0
100
AcDbLine
 10
10370.5761228243
 20
1706.998257826153
 30
0.0
 11
10404.87361945549
 21
1834.998257826151
 31
0.0
  0
LINE
  5
20651
330
747D
100
AcDbEntity
  8
部品1
100
AcDbLine
 10
10442.06501364481
 20
1926.697173479504
 30
0.0
 11
10442.06501364481
 21
1706.998257826154
 31
0.0
  0
LINE
  5
20652
330
747D
100
AcDbEntity
  8
細線
 48
50.0
100
AcDbLine
 10
10377.00690344265
 20
1730.998257826153
 30
0.0
 11
10383.437684061
 21
1706.998257826153
 31
0.0
  0
LINE
  5
20653
330
747D
100
AcDbEntity
  8
細線
 48
50.0
100
AcDbLine
 10
10398.44283883714
 20
1810.998257826153
 30
0.0
 11
10392.0120582188
 21
1834.998257826153
 31
0.0
  0
LEADER
  5
20654
330
747D
100
AcDbEntity
  8
寸法
 48
50.0
100
AcDbLeader
  3
INABA_S50G
 73
     0
 74
     0
 75
     1
 40
120.0
 41
185.591883092037
 76
     3
 10
10252.78942526073
 20
2166.697173479505
 30
0.0
 10
10285.92763189438
 20
2338.843494160642
 30
0.0
 10
10410.92763189438
 20
2338.843494160642
 30
0.0
340
20655
1001
ACAD
1000
DSTYLE
1002
{
1070
    40
1040
1.0
1002
}
  0
MTEXT
  5
20655
102
{ACAD_REACTORS
330
20654
102
}
330
747D
100
AcDbEntity
  8
寸法
 62
     7
 48
50.0
100
AcDbMText
 10
10435.92763189438
 20
2423.843494160642
 30
0.0
 40
120.0
 41
0.8
 71
     4
 72
     1
  1
\A1;C.B
  7
STYLE1
 73
     1
 44
1.0
1001
ACAD
1000
MTEXTBEGIN
1070
    73
1070
     1
1070
    44
1040
1.0
1070
    74
1070
     0
1000
MTEXTEND
  0
DIMENSION
  5
206EA
330
747D
100
AcDbEntity
  8
寸法
 48
50.0
100
AcDbDimension
  2
*D29
 10
8473.599999999999
 20
7655.859048102295
 30
0.0
 11
8375.139755927172
 21
7557.056552348154
 31
0.0
 70
   160
 71
     5
 42
110.0
  3
INABA_S40G
100
AcDbAlignedDimension
 13
8583.599999999998
 23
7898.925205146507
 33
0.0
 14
8473.599999999999
 24
7898.925205146504
 34
0.0
100
AcDbRotatedDimension
1001
ACAD
1000
DSTYLE
1002
{
1070
   174
1070
     0
1070
   272
1070
     1
1070
   279
1070
     2
1070
   288
1070
     0
1070
   341
1005
0
1002
}
  0
DIMENSION
  5
20702
330
747D
100
AcDbEntity
  8
寸法
 48
50.0
100
AcDbDimension
  2
*D30
 10
7692.868710683498
 20
7898.925205146503
 30
0.0
 11
7692.868710683498
 21
7674.877961052015
 31
0.0
 70
   160
 71
     5
 42
110.0000000000036
  3
INABA_S40G
100
AcDbAlignedDimension
 13
7553.599999999999
 23
8008.925205146507
 33
0.0
 14
7553.599999999999
 24
7898.925205146503
 34
0.0
 50
90.0
100
AcDbRotatedDimension
1001
ACAD
1000
DSTYLE
1002
{
1070
   174
1070
     0
1070
   272
1070
     1
1070
   279
1070
     0
1070
   288
1070
     0
1070
   341
1005
0
1002
}
  0
HATCH
  5
207F2
330
747D
100
AcDbEntity
  8
細線
 48
50.0
100
AcDbHatch
 10
0.0
 20
0.0
 30
0.0
210
0.0
220
0.0
230
1.0
  2
LINE
 70
     0
 71
     0
 91
        1
 92
        7
 72
     0
 73
     1
 93
        4
 10
8113.599999999998
 20
8128.925205146506
 10
7913.599999999998
 20
8128.925205146506
 10
7913.600000000001
 20
8008.925205146509
 10
8113.599999999999
 20
8008.925205146507
 97
        0
 75
     0
 76
     1
 52
45.0
 41
10.0
 77
     0
 78
     1
 53
45.0
 43
0.0
 44
0.0
 45
-22.45064030267288
 46
22.45064030267288
 79
     0
 47
2.830514764405831
 98
        1
 10
7955.705076760146
 20
8114.045747602778
  0
HATCH
  5
2080B
330
747D
100
AcDbEntity
  8
細線
 48
50.0
100
AcDbHatch
 10
0.0
 20
0.0
 30
0.0
210
0.0
220
0.0
230
1.0
  2
LINE
 70
     0
 71
     0
 91
        1
 92
        7
 72
     0
 73
     1
 93
        4
 10
8703.599999999999
 20
6908.925205146508
 10
8583.599999999998
 20
6908.925205146505
 10
8583.599999999998
 20
6708.925205146506
 10
8703.599999999999
 20
6708.925205146508
 97
        0
 75
     0
 76
     1
 52
45.0
 41
10.0
 77
     0
 78
     1
 53
45.0
 43
0.0
 44
0.0
 45
-22.45064030267288
 46
22.45064030267288
 79
     0
 47
2.830514764405831
 98
        1
 10
8626.82229087942
 20
6814.839445158134
  0
HATCH
  5
20825
330
747D
100
AcDbEntity
  8
細線
 48
50.0
100
AcDbHatch
 10
0.0
 20
0.0
 30
0.0
210
0.0
220
0.0
230
1.0
  2
LINE
 70
     0
 71
     0
 91
        1
 92
        7
 72
     0
 73
     1
 93
        4
 10
7443.6
 20
6908.925205146508
 10
7323.599999999998
 20
6908.925205146508
 10
7323.599999999998
 20
6708.925205146505
 10
7443.599999999999
 20
6708.925205146508
 97
        0
 75
     0
 76
     1
 52
45.0
 41
10.0
 77
     0
 78
     1
 53
45.0
 43
0.0
 44
0.0
 45
-22.45064030267288
 46
22.45064030267288
 79
     0
 47
2.830514764405831
 98
        1
 10
7417.678599882318
 20
6854.466655823279
  0
TEXT
  5
2085F
330
747D
100
AcDbEntity
  8
文字
 62
     7
 48
50.0
100
AcDbText
 10
14816.49629419351
 20
1031.557706291228
 30
0.0
 40
100.0
  1
 <縮尺> S=1/40
  7
STYLE2
100
AcDbText
  0
ENDSEC
  0
SECTION
  2
OBJECTS
  0
DICTIONARY
  5
7471
330
0
100
AcDbDictionary
281
     1
  3
ACAD_COLOR
350
159B0
  3
ACAD_GROUP
350
7472
  3
ACAD_LAYOUT
350
159B1
  3
ACAD_MATERIAL
350
159AF
  3
ACAD_MLINESTYLE
350
7473
  3
ACAD_PLOTSETTINGS
350
159B2
  3
ACAD_PLOTSTYLENAME
350
159AD
  3
ACDBHEADERROUNDTRIPXREC
350
2086D
  3
AcDbVariableDictionary
350
20386
  3
CONTENTDICTIONARY
350
E71C
  3
DRAWINGVARIABLESDICT
350
F3B9
  0
DICTIONARY
  5
203E4
330
7467
100
AcDbDictionary
280
     1
281
     1
  3
ACAD_LAYERSTATES
360
203E5
  0
DICTIONARY
  5
159B0
102
{ACAD_REACTORS
330
7471
102
}
330
7471
100
AcDbDictionary
281
     1
  0
DICTIONARY
  5
7472
102
{ACAD_REACTORS
330
7471
102
}
330
7471
100
AcDbDictionary
281
     1
  0
DICTIONARY
  5
159B1
102
{ACAD_REACTORS
330
7471
102
}
330
7471
100
AcDbDictionary
281
     1
  3
Model
350
159B3
  3
レイアウト1
350
159B4
  0
DICTIONARY
  5
159AF
102
{ACAD_REACTORS
330
7471
102
}
330
7471
100
AcDbDictionary
281
     1
  0
DICTIONARY
  5
7473
102
{ACAD_REACTORS
330
7471
102
}
330
7471
100
AcDbDictionary
281
     1
  3
STANDARD
350
7480
  0
DICTIONARY
  5
159B2
102
{ACAD_REACTORS
330
7471
102
}
330
7471
100
AcDbDictionary
281
     1
  0
ACDBDICTIONARYWDFLT
  5
159AD
102
{ACAD_REACTORS
330
7471
102
}
330
7471
100
AcDbDictionary
281
     1
  3
Normal
350
159AE
100
AcDbDictionaryWithDefault
340
159AE
  0
DICTIONARY
  5
2086D
102
{ACAD_REACTORS
330
7471
102
}
330
7471
100
AcDbDictionary
281
     1
  3
COLORDICT
350
2086F
  3
MATERIALDICT
350
2086E
  0
DICTIONARY
  5
20386
102
{ACAD_REACTORS
330
7471
102
}
330
7471
100
AcDbDictionary
281
     1
  3
DIMASSOC
350
20387
  3
PROJECTNAME
350
20388
  0
DICTIONARY
  5
E71C
102
{ACAD_REACTORS
330
7471
102
}
330
7471
100
AcDbDictionary
281
     1
  0
DICTIONARY
  5
F3B9
102
{ACAD_REACTORS
330
7471
102
}
330
7471
100
AcDbDictionary
281
     1
1001
DRAWINGVARIABLESXDATA
1000
POLARMODE
1000
1
  0
DICTIONARY
  5
203E5
102
{ACAD_REACTORS
330
203E4
102
}
330
203E4
100
AcDbDictionary
281
     1
  0
LAYOUT
  5
159B3
102
{ACAD_XDICTIONARY
360
20870
102
}
102
{ACAD_REACTORS
330
159B1
102
}
330
159B1
100
AcDbPlotSettings
  1

  2
クセロPDF
  4
A3
  6

 40
3.174999952316284
 41
3.174999952316284
 42
3.17498779296875
 43
3.17498779296875
 44
419.9466552734374
 45
296.9259948730469
 46
0.0
 47
0.0
 48
0.0
 49
0.0
140
0.0
141
0.0
142
1.0
143
40.88431153497317
 70
 11952
 72
     1
 73
     0
 74
     2
  7
inaba.ctb
 75
     0
147
0.0244592598592392
148
0.0
149
0.0
100
AcDbLayout
  1
Model
 70
     1
 71
     0
 10
0.0
 20
0.0
 11
12.0
 21
9.0
 12
0.0
 22
0.0
 32
0.0
 14
0.0
 24
0.0
 34
0.0
 15
0.0
 25
0.0
 35
0.0
146
0.0
 13
0.0
 23
0.0
 33
0.0
 16
1.0
 26
0.0
 36
0.0
 17
0.0
 27
1.0
 37
0.0
 76
     0
330
747D
  0
LAYOUT
  5
159B4
102
{ACAD_XDICTIONARY
360
20872
102
}
102
{ACAD_REACTORS
330
159B1
102
}
330
159B1
100
AcDbPlotSettings
  1

  2
自動 EPSON LP-8400FX (TATENO 上)
  4

  6

 40
0.0
 41
0.0
 42
0.0
 43
0.0
 44
0.0
 45
0.0
 46
0.0
 47
0.0
 48
0.0
 49
0.0
140
0.0
141
0.0
142
1.0
143
1.0
 70
   688
 72
     0
 73
     0
 74
     5
  7
inaba.ctb
 75
    16
147
1.0
148
0.0
149
0.0
100
AcDbLayout
  1
レイアウト1
 70
     0
 71
     1
 10
0.0
 20
0.0
 11
420.0
 21
297.0
 12
0.0
 22
0.0
 32
0.0
 14
1.000000000000000E+20
 24
1.000000000000000E+20
 34
1.000000000000000E+20
 15
-1.000000000000000E+20
 25
-1.000000000000000E+20
 35
-1.000000000000000E+20
146
0.0
 13
0.0
 23
0.0
 33
0.0
 16
1.0
 26
0.0
 36
0.0
 17
0.0
 27
1.0
 37
0.0
 76
     0
330
747A
  0
MLINESTYLE
  5
7480
102
{ACAD_REACTORS
330
7473
102
}
330
7473
100
AcDbMlineStyle
  2
STANDARD
 70
     0
  3

 62
     0
 51
90.0
 52
90.0
 71
     2
 49
0.5
 62
   256
  6
BYLAYER
 49
-0.5
 62
   256
  6
BYLAYER
  0
ACDBPLACEHOLDER
  5
159AE
102
{ACAD_REACTORS
330
159AD
102
}
330
159AD
  0
XRECORD
  5
2086F
102
{ACAD_REACTORS
330
2086D
102
}
330
2086D
100
AcDbXrecord
280
     1
340
159B0
  0
XRECORD
  5
2086E
102
{ACAD_REACTORS
330
2086D
102
}
330
2086D
100
AcDbXrecord
280
     1
340
159AF
  0
DICTIONARYVAR
  5
20387
102
{ACAD_REACTORS
330
20386
102
}
330
20386
100
DictionaryVariables
280
     0
  1
1
  0
DICTIONARYVAR
  5
20388
102
{ACAD_REACTORS
330
20386
102
}
330
20386
100
DictionaryVariables
280
     0
  1

  0
DICTIONARY
  5
20870
330
159B3
100
AcDbDictionary
280
     1
281
     1
  3
ACAD_XREC_ROUNDTRIP
360
20871
  0
DICTIONARY
  5
20872
330
159B4
100
AcDbDictionary
280
     1
281
     1
  3
ACAD_XREC_ROUNDTRIP
360
20873
  0
XRECORD
  5
20871
102
{ACAD_REACTORS
330
20870
102
}
330
20870
100
AcDbXrecord
280
     1
102
SHADEPLOT
 70
     1
102
SHADEPLOTRESLEVEL
 70
     2
102
SHADEPLOTCUSTOMDPI
 70
   300
  0
XRECORD
  5
20873
102
{ACAD_REACTORS
330
20872
102
}
330
20872
100
AcDbXrecord
280
     1
102
SHADEPLOT
 70
     0
102
SHADEPLOTRESLEVEL
 70
     2
102
SHADEPLOTCUSTOMDPI
 70
   300
  0
ENDSEC
  0
EOF
