  0
SECTION
  2
HEADER
  9
$ACADVER
  1
AC1015
  9
$ACADMAINTVER
 70
    20
  9
$DWGCODEPAGE
  3
ANSI_932
  9
$INSBASE
 10
0.0
 20
0.0
 30
0.0
  9
$EXTMIN
 10
139.9999999999995
 20
-0.0000000000000909
 30
0.0
  9
$EXTMAX
 10
16307.2
 20
11409.6
 30
0.0
  9
$LIMMIN
 10
0.0
 20
0.0
  9
$LIMMAX
 10
16800.0
 20
11880.0
  9
$ORTHOMODE
 70
     0
  9
$REGENMODE
 70
     1
  9
$FILLMODE
 70
     1
  9
$QTEXTMODE
 70
     0
  9
$MIRRTEXT
 70
     1
  9
$LTSCALE
 40
20.0
  9
$ATTMODE
 70
     1
  9
$TEXTSIZE
 40
100.0
  9
$TRACEWID
 40
1.0
  9
$TEXTSTYLE
  7
STYLE2
  9
$CLAYER
  8
部品1
  9
$CELTYPE
  6
BYLAYER
  9
$CECOLOR
 62
   256
  9
$CELTSCALE
 40
50.0
  9
$DISPSILH
 70
     0
  9
$DIMSCALE
 40
40.0
  9
$DIMASZ
 40
2.5
  9
$DIMEXO
 40
0.5
  9
$DIMDLI
 40
7.0
  9
$DIMRND
 40
0.0
  9
$DIMDLE
 40
0.0
  9
$DIMEXE
 40
1.5
  9
$DIMTP
 40
0.0
  9
$DIMTM
 40
0.0
  9
$DIMTXT
 40
3.0
  9
$DIMCEN
 40
0.0
  9
$DIMTSZ
 40
0.0
  9
$DIMTOL
 70
     0
  9
$DIMLIM
 70
     0
  9
$DIMTIH
 70
     0
  9
$DIMTOH
 70
     0
  9
$DIMSE1
 70
     0
  9
$DIMSE2
 70
     0
  9
$DIMTAD
 70
     3
  9
$DIMZIN
 70
     8
  9
$DIMBLK
  1

  9
$DIMASO
 70
     1
  9
$DIMSHO
 70
     1
  9
$DIMPOST
  1

  9
$DIMAPOST
  1

  9
$DIMALT
 70
     0
  9
$DIMALTD
 70
     2
  9
$DIMALTF
 40
0.0394
  9
$DIMLFAC
 40
1.0
  9
$DIMTOFL
 70
     1
  9
$DIMTVP
 40
0.0
  9
$DIMTIX
 70
     0
  9
$DIMSOXD
 70
     0
  9
$DIMSAH
 70
     1
  9
$DIMBLK1
  1
DOTSMALL
  9
$DIMBLK2
  1
DOTSMALL
  9
$DIMSTYLE
  2
INABA_S40G
  9
$DIMCLRD
 70
     0
  9
$DIMCLRE
 70
     0
  9
$DIMCLRT
 70
     7
  9
$DIMTFAC
 40
1.0
  9
$DIMGAP
 40
1.0
  9
$DIMJUST
 70
     0
  9
$DIMSD1
 70
     0
  9
$DIMSD2
 70
     0
  9
$DIMTOLJ
 70
     1
  9
$DIMTZIN
 70
     0
  9
$DIMALTZ
 70
     0
  9
$DIMALTTZ
 70
     0
  9
$DIMUPT
 70
     0
  9
$DIMDEC
 70
     1
  9
$DIMTDEC
 70
     1
  9
$DIMALTU
 70
     2
  9
$DIMALTTD
 70
     2
  9
$DIMTXSTY
  7
STYLE1
  9
$DIMAUNIT
 70
     0
  9
$DIMADEC
 70
     0
  9
$DIMALTRND
 40
0.0
  9
$DIMAZIN
 70
     0
  9
$DIMDSEP
 70
    46
  9
$DIMATFIT
 70
     3
  9
$DIMFRAC
 70
     0
  9
$DIMLDRBLK
  1

  9
$DIMLUNIT
 70
     2
  9
$DIMLWD
 70
    -2
  9
$DIMLWE
 70
    -2
  9
$DIMTMOVE
 70
     1
  9
$LUNITS
 70
     2
  9
$LUPREC
 70
     1
  9
$SKETCHINC
 40
1.0
  9
$FILLETRAD
 40
2.299999999999999
  9
$AUNITS
 70
     0
  9
$AUPREC
 70
     0
  9
$MENU
  1
acad
  9
$ELEVATION
 40
0.0
  9
$PELEVATION
 40
0.0
  9
$THICKNESS
 40
0.0
  9
$LIMCHECK
 70
     0
  9
$CHAMFERA
 40
3.0
  9
$CHAMFERB
 40
3.0
  9
$CHAMFERC
 40
0.0
  9
$CHAMFERD
 40
0.0
  9
$SKPOLY
 70
     0
  9
$TDCREATE
 40
2451368.612993866
  9
$TDUCREATE
 40
2451368.237993866
  9
$TDUPDATE
 40
2455817.623829028
  9
$TDUUPDATE
 40
2455817.248829028
  9
$TDINDWG
 40
1.6561066898
  9
$TDUSRTIMER
 40
1.6561066898
  9
$USRTIMER
 70
     1
  9
$ANGBASE
 50
0.0
  9
$ANGDIR
 70
     0
  9
$PDMODE
 70
     3
  9
$PDSIZE
 40
2.0
  9
$PLINEWID
 40
0.0
  9
$SPLFRAME
 70
     0
  9
$SPLINETYPE
 70
     6
  9
$SPLINESEGS
 70
     8
  9
$HANDSEED
  5
1FED0
  9
$SURFTAB1
 70
     6
  9
$SURFTAB2
 70
     6
  9
$SURFTYPE
 70
     6
  9
$SURFU
 70
     6
  9
$SURFV
 70
     6
  9
$UCSBASE
  2

  9
$UCSNAME
  2

  9
$UCSORG
 10
0.0
 20
0.0
 30
0.0
  9
$UCSXDIR
 10
1.0
 20
0.0
 30
0.0
  9
$UCSYDIR
 10
0.0
 20
1.0
 30
0.0
  9
$UCSORTHOREF
  2

  9
$UCSORTHOVIEW
 70
     0
  9
$UCSORGTOP
 10
0.0
 20
0.0
 30
0.0
  9
$UCSORGBOTTOM
 10
0.0
 20
0.0
 30
0.0
  9
$UCSORGLEFT
 10
0.0
 20
0.0
 30
0.0
  9
$UCSORGRIGHT
 10
0.0
 20
0.0
 30
0.0
  9
$UCSORGFRONT
 10
0.0
 20
0.0
 30
0.0
  9
$UCSORGBACK
 10
0.0
 20
0.0
 30
0.0
  9
$PUCSBASE
  2

  9
$PUCSNAME
  2

  9
$PUCSORG
 10
0.0
 20
0.0
 30
0.0
  9
$PUCSXDIR
 10
1.0
 20
0.0
 30
0.0
  9
$PUCSYDIR
 10
0.0
 20
1.0
 30
0.0
  9
$PUCSORTHOREF
  2

  9
$PUCSORTHOVIEW
 70
     0
  9
$PUCSORGTOP
 10
0.0
 20
0.0
 30
0.0
  9
$PUCSORGBOTTOM
 10
0.0
 20
0.0
 30
0.0
  9
$PUCSORGLEFT
 10
0.0
 20
0.0
 30
0.0
  9
$PUCSORGRIGHT
 10
0.0
 20
0.0
 30
0.0
  9
$PUCSORGFRONT
 10
0.0
 20
0.0
 30
0.0
  9
$PUCSORGBACK
 10
0.0
 20
0.0
 30
0.0
  9
$USERI1
 70
     0
  9
$USERI2
 70
     0
  9
$USERI3
 70
     0
  9
$USERI4
 70
     0
  9
$USERI5
 70
     0
  9
$USERR1
 40
0.0
  9
$USERR2
 40
0.0
  9
$USERR3
 40
0.0
  9
$USERR4
 40
0.0
  9
$USERR5
 40
0.0
  9
$WORLDVIEW
 70
     1
  9
$SHADEDGE
 70
     3
  9
$SHADEDIF
 70
    70
  9
$TILEMODE
 70
     1
  9
$MAXACTVP
 70
    16
  9
$PINSBASE
 10
0.0
 20
0.0
 30
0.0
  9
$PLIMCHECK
 70
     0
  9
$PEXTMIN
 10
1.000000000000000E+20
 20
1.000000000000000E+20
 30
1.000000000000000E+20
  9
$PEXTMAX
 10
-1.000000000000000E+20
 20
-1.000000000000000E+20
 30
-1.000000000000000E+20
  9
$PLIMMIN
 10
0.0
 20
0.0
  9
$PLIMMAX
 10
420.0
 20
297.0
  9
$UNITMODE
 70
     0
  9
$VISRETAIN
 70
     0
  9
$PLINEGEN
 70
     0
  9
$PSLTSCALE
 70
     0
  9
$TREEDEPTH
 70
  3020
  9
$CMLSTYLE
  2
STANDARD
  9
$CMLJUST
 70
     0
  9
$CMLSCALE
 40
1.0
  9
$PROXYGRAPHICS
 70
     1
  9
$MEASUREMENT
 70
     1
  9
$CELWEIGHT
370
    -1
  9
$ENDCAPS
280
     0
  9
$JOINSTYLE
280
     0
  9
$LWDISPLAY
290
     0
  9
$INSUNITS
 70
     0
  9
$HYPERLINKBASE
  1

  9
$STYLESHEET
  1
inaba.ctb
  9
$XEDIT
290
     1
  9
$CEPSNTYPE
380
     0
  9
$PSTYLEMODE
290
     1
  9
$FINGERPRINTGUID
  2
{3B57B35E-7D77-4BBF-81B7-6C583B9EB24C}
  9
$VERSIONGUID
  2
{0BE6FF3E-29AD-4E90-94EF-B37C226390D2}
  9
$EXTNAMES
290
     1
  9
$PSVPSCALE
 40
0.0
  9
$OLESTARTUP
290
     0
  0
ENDSEC
  0
SECTION
  2
CLASSES
  0
CLASS
  1
ACDBDICTIONARYWDFLT
  2
AcDbDictionaryWithDefault
  3
ObjectDBX Classes
 90
        0
280
     0
281
     0
  0
CLASS
  1
DICTIONARYVAR
  2
AcDbDictionaryVar
  3
ObjectDBX Classes
 90
        0
280
     0
281
     0
  0
CLASS
  1
ACDBPLACEHOLDER
  2
AcDbPlaceHolder
  3
ObjectDBX Classes
 90
        0
280
     0
281
     0
  0
CLASS
  1
LAYOUT
  2
AcDbLayout
  3
ObjectDBX Classes
 90
        0
280
     0
281
     0
  0
ENDSEC
  0
SECTION
  2
TABLES
  0
TABLE
  2
VPORT
  5
746D
330
0
100
AcDbSymbolTable
 70
     2
  0
VPORT
  5
1FEC8
330
746D
100
AcDbSymbolTableRecord
100
AcDbViewportTableRecord
  2
*Active
 70
     0
 10
0.0
 20
0.0
 11
1.0
 21
1.0
 12
8528.94319173391
 22
5704.796475140369
 13
0.0
 23
0.0
 14
10.0
 24
10.0
 15
10.0
 25
10.0
 16
0.0
 26
0.0
 36
1.0
 17
0.0
 27
0.0
 37
0.0
 40
11496.97863559918
 41
1.58160621761658
 42
50.0
 43
0.0
 44
0.0
 50
0.0
 51
0.0
 71
     0
 72
     0
 73
     1
 74
     0
 75
     0
 76
     0
 77
     0
 78
     0
281
     0
 65
     1
110
0.0
120
0.0
130
0.0
111
1.0
121
0.0
131
0.0
112
0.0
122
1.0
132
0.0
 79
     0
146
0.0
  0
ENDTAB
  0
TABLE
  2
LTYPE
  5
746A
330
0
100
AcDbSymbolTable
 70
     4
  0
LTYPE
  5
7477
330
746A
100
AcDbSymbolTableRecord
100
AcDbLinetypeTableRecord
  2
BYBLOCK
 70
     0
  3

 72
    65
 73
     0
 40
0.0
  0
LTYPE
  5
7478
330
746A
100
AcDbSymbolTableRecord
100
AcDbLinetypeTableRecord
  2
BYLAYER
 70
     0
  3

 72
    65
 73
     0
 40
0.0
  0
LTYPE
  5
7479
330
746A
100
AcDbSymbolTableRecord
100
AcDbLinetypeTableRecord
  2
CONTINUOUS
 70
     0
  3
Solid line
 72
    65
 73
     0
 40
0.0
  0
LTYPE
  5
7816
330
746A
100
AcDbSymbolTableRecord
100
AcDbLinetypeTableRecord
  2
CENTER
 70
     0
  3
____ _ ____ _ ____ _ ____ _ ____ _ ____ _ ____ 
 72
    65
 73
     4
 40
2.0
 49
1.25
 74
     0
 49
-0.25
 74
     0
 49
0.25
 74
     0
 49
-0.25
 74
     0
  0
LTYPE
  5
781A
330
746A
100
AcDbSymbolTableRecord
100
AcDbLinetypeTableRecord
  2
HIDDEN
 70
     0
  3
__ __ __ __ __ __ __ __ __ __ __ __ __ __ __ __
 72
    65
 73
     2
 40
0.375
 49
0.25
 74
     0
 49
-0.125
 74
     0
  0
LTYPE
  5
781B
330
746A
100
AcDbSymbolTableRecord
100
AcDbLinetypeTableRecord
  2
PHANTOM
 70
     0
  3
______  __  __  ______  __  __  ______  __  __ 
 72
    65
 73
     6
 40
2.5
 49
1.25
 74
     0
 49
-0.25
 74
     0
 49
0.25
 74
     0
 49
-0.25
 74
     0
 49
0.25
 74
     0
 49
-0.25
 74
     0
  0
ENDTAB
  0
TABLE
  2
LAYER
  5
7467
102
{ACAD_XDICTIONARY
360
1FA64
102
}
330
0
100
AcDbSymbolTable
 70
    12
  0
LAYER
  5
7474
330
7467
100
AcDbSymbolTableRecord
100
AcDbLayerTableRecord
  2
0
 70
     0
 62
     7
  6
CONTINUOUS
370
    -3
390
159AE
  0
LAYER
  5
DEB2
330
7467
100
AcDbSymbolTableRecord
100
AcDbLayerTableRecord
  2
センター
 70
     0
 62
     3
  6
CENTER
370
    -3
390
159AE
  0
LAYER
  5
DEB3
330
7467
100
AcDbSymbolTableRecord
100
AcDbLayerTableRecord
  2
寸法
 70
     0
 62
     4
  6
CONTINUOUS
370
    -3
390
159AE
  0
LAYER
  5
DEB4
330
7467
100
AcDbSymbolTableRecord
100
AcDbLayerTableRecord
  2
部品1
 70
     0
 62
     7
  6
CONTINUOUS
370
    -3
390
159AE
  0
LAYER
  5
DEB5
330
7467
100
AcDbSymbolTableRecord
100
AcDbLayerTableRecord
  2
補助
 70
     0
 62
    -1
  6
CONTINUOUS
370
    -3
390
159AE
  0
LAYER
  5
DEB6
330
7467
100
AcDbSymbolTableRecord
100
AcDbLayerTableRecord
  2
文字
 70
     0
 62
     7
  6
CONTINUOUS
370
    -3
390
159AE
  0
LAYER
  5
F255
330
7467
100
AcDbSymbolTableRecord
100
AcDbLayerTableRecord
  2
DEFPOINTS
 70
     0
 62
     7
  6
CONTINUOUS
290
     0
370
    -3
390
159AE
  0
LAYER
  5
10B54
330
7467
100
AcDbSymbolTableRecord
100
AcDbLayerTableRecord
  2
仕様書枠
 70
     0
 62
   230
  6
CONTINUOUS
370
    -3
390
159AE
  0
LAYER
  5
11729
330
7467
100
AcDbSymbolTableRecord
100
AcDbLayerTableRecord
  2
Ｇ．Ｌ
 70
     0
 62
    30
  6
CONTINUOUS
370
    -3
390
159AE
  0
LAYER
  5
1173F
330
7467
100
AcDbSymbolTableRecord
100
AcDbLayerTableRecord
  2
細線
 70
     0
 62
     5
  6
CONTINUOUS
370
    -3
390
159AE
  0
LAYER
  5
12CC4
330
7467
100
AcDbSymbolTableRecord
100
AcDbLayerTableRecord
  2
想像線
 70
     0
 62
     6
  6
PHANTOM
370
    -3
390
159AE
  0
LAYER
  5
142E2
330
7467
100
AcDbSymbolTableRecord
100
AcDbLayerTableRecord
  2
破線
 70
     0
 62
     2
  6
HIDDEN
370
    -3
390
159AE
  0
ENDTAB
  0
TABLE
  2
STYLE
  5
7468
330
0
100
AcDbSymbolTable
 70
     3
  0
STYLE
  5
7475
330
7468
100
AcDbSymbolTableRecord
100
AcDbTextStyleTableRecord
  2
STANDARD
 70
     0
 40
0.0
 41
1.0
 50
0.0
 71
     0
 42
4.0
  3
txt
  4
C:\AutoCAD LT\bigfont.shx
  0
STYLE
  5
F706
330
7468
100
AcDbSymbolTableRecord
100
AcDbTextStyleTableRecord
  2
STYLE1
 70
     0
 40
0.0
 41
1.0
 50
0.0
 71
     0
 42
100.0
  3
isocp.shx
  4
bigfont.shx
  0
STYLE
  5
103BF
330
7468
100
AcDbSymbolTableRecord
100
AcDbTextStyleTableRecord
  2
STYLE2
 70
     0
 40
0.0
 41
1.0
 50
0.0
 71
     0
 42
100.0
  3
MS PGothic.ttf
  4

1001
ACAD
1000
MS PGothic
1071
    32818
  0
ENDTAB
  0
TABLE
  2
VIEW
  5
746B
330
0
100
AcDbSymbolTable
 70
     0
  0
ENDTAB
  0
TABLE
  2
UCS
  5
746C
330
0
100
AcDbSymbolTable
 70
     0
  0
ENDTAB
  0
TABLE
  2
APPID
  5
746E
330
0
100
AcDbSymbolTable
 70
     6
  0
APPID
  5
7476
330
746E
100
AcDbSymbolTableRecord
100
AcDbRegAppTableRecord
  2
ACAD
 70
     0
  0
APPID
  5
DEA9
330
746E
100
AcDbSymbolTableRecord
100
AcDbRegAppTableRecord
  2
CONTENTBLOCKICON
 70
     0
  0
APPID
  5
DEAA
330
746E
100
AcDbSymbolTableRecord
100
AcDbRegAppTableRecord
  2
CONTENTBLOCKDESCRIPTION
 70
     0
  0
APPID
  5
E71D
330
746E
100
AcDbSymbolTableRecord
100
AcDbRegAppTableRecord
  2
CONTENTTABDATA
 70
     0
  0
APPID
  5
E71E
330
746E
100
AcDbSymbolTableRecord
100
AcDbRegAppTableRecord
  2
CONTENTCURRENTTAB
 70
     0
  0
APPID
  5
F3BA
330
746E
100
AcDbSymbolTableRecord
100
AcDbRegAppTableRecord
  2
DRAWINGVARIABLESXDATA
 70
     0
  0
ENDTAB
  0
TABLE
  2
DIMSTYLE
  5
746F
330
0
100
AcDbSymbolTable
 70
     2
100
AcDbDimStyleTable
 71
     1
340
F71F
  0
DIMSTYLE
105
F71F
102
{ACAD_REACTORS
330
1D93F
330
1D93E
330
1D926
330
1D925
330
1D920
330
1D91D
330
1D934
330
1D933
330
1D92D
330
1D92C
330
1D927
330
1D91C
330
1D91B
330
1D948
330
1D947
330
1D959
330
1D942
330
1D929
330
1E96D
330
1E98B
330
1F248
330
1F249
330
1FC2A
330
1FBC7
330
1FBC0
330
1FBCA
330
1FBB7
330
1FBB8
102
}
330
746F
100
AcDbSymbolTableRecord
100
AcDbDimStyleTableRecord
  2
INABA_S40G
 70
     0
 40
40.0
 41
2.5
 42
0.5
 43
7.0
 44
1.5
 73
     0
 74
     0
 77
     3
 78
     8
140
3.0
141
0.0
143
0.0394
147
1.0
172
     1
173
     1
174
     1
178
     7
271
     1
288
     1
340
F706
341
F770
343
F770
344
F770
  0
DIMSTYLE
105
1C645
330
746F
100
AcDbSymbolTableRecord
100
AcDbDimStyleTableRecord
  2
INABA_S50G
 70
     0
 40
0.0
 41
125.0
 42
25.0
 43
7.0
 44
75.0
 73
     0
 74
     0
 77
     3
 78
     8
140
150.0
141
0.0
143
0.0394
147
25.0
172
     1
173
     1
174
     1
178
     7
271
     1
340
F706
341
F770
343
F770
344
F770
  0
ENDTAB
  0
TABLE
  2
BLOCK_RECORD
  5
7466
330
0
100
AcDbSymbolTable
 70
    30
  0
BLOCK_RECORD
  5
747D
330
7466
100
AcDbSymbolTableRecord
100
AcDbBlockTableRecord
  2
*MODEL_SPACE
340
159B3
  0
BLOCK_RECORD
  5
747A
330
7466
100
AcDbSymbolTableRecord
100
AcDbBlockTableRecord
  2
*PAPER_SPACE
340
159B4
  0
BLOCK_RECORD
  5
F770
330
7466
100
AcDbSymbolTableRecord
100
AcDbBlockTableRecord
  2
_DOTSMALL
340
0
102
{BLKREFS
331
1F387
331
1F388
331
1F391
331
1F392
331
1F3D4
331
1F3D5
331
1F3DE
331
1F3DF
331
1F868
331
1F869
331
1F872
331
1F873
331
1F87D
331
1F87E
331
1F887
331
1F888
331
1F892
331
1F893
331
1F89C
331
1F89D
331
1F8A5
331
1F8A6
331
1F8AE
331
1F8AF
331
1F909
331
1F90A
331
1F912
331
1F913
331
1F967
331
1F968
331
1F96F
331
1F970
331
1F9E0
331
1F9E1
331
1F9EA
331
1F9EB
331
1FE27
331
1FE28
331
1FE30
331
1FE31
331
1FE39
331
1FE3A
331
1FE42
331
1FE43
331
1FE50
331
1FE51
331
1FE58
331
1FE59
331
1FE62
331
1FE63
331
1FE6C
331
1FE6D
331
1FE76
331
1FE77
331
1FE80
331
1FE81
102
}
  0
BLOCK_RECORD
  5
1C530
330
7466
100
AcDbSymbolTableRecord
100
AcDbBlockTableRecord
  2
_NONE
340
0
  0
BLOCK_RECORD
  5
1DA44
330
7466
100
AcDbSymbolTableRecord
100
AcDbBlockTableRecord
  2
*D2
340
0
  0
BLOCK_RECORD
  5
1DA51
330
7466
100
AcDbSymbolTableRecord
100
AcDbBlockTableRecord
  2
*D3
340
0
  0
BLOCK_RECORD
  5
1DA5E
330
7466
100
AcDbSymbolTableRecord
100
AcDbBlockTableRecord
  2
*D4
340
0
  0
BLOCK_RECORD
  5
1DA69
330
7466
100
AcDbSymbolTableRecord
100
AcDbBlockTableRecord
  2
*D5
340
0
  0
BLOCK_RECORD
  5
1DA74
330
7466
100
AcDbSymbolTableRecord
100
AcDbBlockTableRecord
  2
*D6
340
0
  0
BLOCK_RECORD
  5
1DA81
330
7466
100
AcDbSymbolTableRecord
100
AcDbBlockTableRecord
  2
*D7
340
0
  0
BLOCK_RECORD
  5
1DA8E
330
7466
100
AcDbSymbolTableRecord
100
AcDbBlockTableRecord
  2
*D8
340
0
  0
BLOCK_RECORD
  5
1DA9A
330
7466
100
AcDbSymbolTableRecord
100
AcDbBlockTableRecord
  2
*D9
340
0
  0
BLOCK_RECORD
  5
1DAA5
330
7466
100
AcDbSymbolTableRecord
100
AcDbBlockTableRecord
  2
*D10
340
0
  0
BLOCK_RECORD
  5
1DAB2
330
7466
100
AcDbSymbolTableRecord
100
AcDbBlockTableRecord
  2
*D11
340
0
  0
BLOCK_RECORD
  5
1DABE
330
7466
100
AcDbSymbolTableRecord
100
AcDbBlockTableRecord
  2
*D12
340
0
  0
BLOCK_RECORD
  5
1DACB
330
7466
100
AcDbSymbolTableRecord
100
AcDbBlockTableRecord
  2
*D13
340
0
  0
BLOCK_RECORD
  5
1DAD9
330
7466
100
AcDbSymbolTableRecord
100
AcDbBlockTableRecord
  2
*D14
340
0
  0
BLOCK_RECORD
  5
1DAE6
330
7466
100
AcDbSymbolTableRecord
100
AcDbBlockTableRecord
  2
*D15
340
0
  0
BLOCK_RECORD
  5
1DAF3
330
7466
100
AcDbSymbolTableRecord
100
AcDbBlockTableRecord
  2
*D16
340
0
  0
BLOCK_RECORD
  5
1DB00
330
7466
100
AcDbSymbolTableRecord
100
AcDbBlockTableRecord
  2
*D17
340
0
  0
BLOCK_RECORD
  5
1DB0D
330
7466
100
AcDbSymbolTableRecord
100
AcDbBlockTableRecord
  2
*D18
340
0
  0
BLOCK_RECORD
  5
1DB1A
330
7466
100
AcDbSymbolTableRecord
100
AcDbBlockTableRecord
  2
*D19
340
0
  0
BLOCK_RECORD
  5
1E9D0
330
7466
100
AcDbSymbolTableRecord
100
AcDbBlockTableRecord
  2
*D20
340
0
  0
BLOCK_RECORD
  5
1EA32
330
7466
100
AcDbSymbolTableRecord
100
AcDbBlockTableRecord
  2
*D21
340
0
  0
BLOCK_RECORD
  5
1F24A
330
7466
100
AcDbSymbolTableRecord
100
AcDbBlockTableRecord
  2
*D22
340
0
  0
BLOCK_RECORD
  5
1F255
330
7466
100
AcDbSymbolTableRecord
100
AcDbBlockTableRecord
  2
*D23
340
0
  0
BLOCK_RECORD
  5
1FCF2
330
7466
100
AcDbSymbolTableRecord
100
AcDbBlockTableRecord
  2
*D24
340
0
  0
BLOCK_RECORD
  5
1FCFD
330
7466
100
AcDbSymbolTableRecord
100
AcDbBlockTableRecord
  2
*D25
340
0
  0
BLOCK_RECORD
  5
1FD0B
330
7466
100
AcDbSymbolTableRecord
100
AcDbBlockTableRecord
  2
*D26
340
0
  0
BLOCK_RECORD
  5
1FD17
330
7466
100
AcDbSymbolTableRecord
100
AcDbBlockTableRecord
  2
*D27
340
0
  0
BLOCK_RECORD
  5
1FD23
330
7466
100
AcDbSymbolTableRecord
100
AcDbBlockTableRecord
  2
*D28
340
0
  0
BLOCK_RECORD
  5
1FD2F
330
7466
100
AcDbSymbolTableRecord
100
AcDbBlockTableRecord
  2
*D29
340
0
  0
ENDTAB
  0
ENDSEC
  0
SECTION
  2
BLOCKS
  0
BLOCK
  5
7489
330
747D
100
AcDbEntity
  8
0
100
AcDbBlockBegin
  2
*MODEL_SPACE
 70
     0
 10
0.0
 20
0.0
 30
0.0
  3
*MODEL_SPACE
  1

  0
ENDBLK
  5
748A
330
747D
100
AcDbEntity
  8
0
100
AcDbBlockEnd
  0
BLOCK
  5
7487
330
747A
100
AcDbEntity
 67
     1
  8
0
100
AcDbBlockBegin
  2
*PAPER_SPACE
 70
     0
 10
0.0
 20
0.0
 30
0.0
  3
*PAPER_SPACE
  1

  0
ENDBLK
  5
7488
330
747A
100
AcDbEntity
 67
     1
  8
0
100
AcDbBlockEnd
  0
BLOCK
  5
F771
330
F770
100
AcDbEntity
  8
0
 48
50.0
100
AcDbBlockBegin
  2
_DOTSMALL
 70
     0
 10
0.0
 20
0.0
 30
0.0
  3
_DOTSMALL
  1

  0
LWPOLYLINE
  5
F772
330
F770
100
AcDbEntity
  8
0
  6
ByBlock
 62
     0
 48
50.0
100
AcDbPolyline
 90
        2
 70
     1
 43
0.5
 10
-0.0625
 20
0.0
 42
1.0
 10
0.0625
 20
0.0
 42
1.0
  0
ENDBLK
  5
F776
330
F770
100
AcDbEntity
  8
0
 48
50.0
100
AcDbBlockEnd
  0
BLOCK
  5
1C531
330
1C530
100
AcDbEntity
  8
0
 48
50.0
100
AcDbBlockBegin
  2
_NONE
 70
     0
 10
0.0
 20
0.0
 30
0.0
  3
_NONE
  1

  0
CIRCLE
  5
1C532
330
1C530
100
AcDbEntity
  8
0
  6
ByBlock
 62
     0
 48
50.0
100
AcDbCircle
 10
0.0
 20
0.0
 30
0.0
 40
0.25
  0
ENDBLK
  5
1C533
330
1C530
100
AcDbEntity
  8
0
 48
50.0
100
AcDbBlockEnd
  0
BLOCK
  5
1DA4F
330
1DA44
100
AcDbEntity
  8
0
 48
50.0
100
AcDbBlockBegin
  2
*D2
 70
     1
 10
0.0
 20
0.0
 30
0.0
  3
*D2
  1

  0
LINE
  5
1F3DA
330
1DA44
100
AcDbEntity
  8
寸法
 62
     0
 48
50.0
370
    -2
100
AcDbLine
 10
7409.514259514151
 20
5892.919036112861
 30
0.0
 11
7666.221509390251
 21
5892.919036112861
 31
0.0
  0
LINE
  5
1F3DB
330
1DA44
100
AcDbEntity
  8
寸法
 62
     0
 48
50.0
370
    -2
100
AcDbLine
 10
7409.514259514151
 20
6022.919036112863
 30
0.0
 11
7666.221509390251
 21
6022.919036112863
 31
0.0
  0
LINE
  5
1F3DC
330
1DA44
100
AcDbEntity
  8
寸法
 62
     0
 48
50.0
370
    -2
100
AcDbLine
 10
7606.221509390249
 20
5892.919036112861
 30
0.0
 11
7606.221509390249
 21
6022.919036112863
 31
0.0
  0
LINE
  5
1F3DD
330
1DA44
100
AcDbEntity
  8
寸法
 62
     0
 48
50.0
370
    -2
100
AcDbLine
 10
7606.221509390249
 20
6022.919036112863
 30
0.0
 11
7606.221509390251
 21
6395.013524301839
 31
0.0
  0
INSERT
  5
1F3DE
330
1DA44
100
AcDbEntity
  8
寸法
 62
     0
 48
50.0
370
    -2
100
AcDbBlockReference
  2
_DOTSMALL
 10
7606.221509390249
 20
5892.919036112861
 30
0.0
 41
100.0
 42
100.0
 43
100.0
 50
270.0
  0
INSERT
  5
1F3DF
330
1DA44
100
AcDbEntity
  8
寸法
 62
     0
 48
50.0
370
    -2
100
AcDbBlockReference
  2
_DOTSMALL
 10
7606.221509390249
 20
6022.919036112863
 30
0.0
 41
100.0
 42
100.0
 43
100.0
 50
90.0
  0
MTEXT
  5
1F3E0
330
1DA44
100
AcDbEntity
  8
寸法
 62
     7
 48
50.0
100
AcDbMText
 10
7506.22150939025
 20
6258.966280207353
 30
0.0
 40
120.0
 41
0.0
 71
     5
 72
     1
  1
\A1;130
  7
STYLE1
 11
0.0000000000000001
 21
1.0
 31
0.0
 73
     1
 44
1.0
1001
ACAD
1000
MTEXTBEGIN
1070
    73
1070
     1
1070
    44
1040
1.0
1070
    74
1070
     0
1000
MTEXTEND
  0
POINT
  5
1F3E1
330
1DA44
100
AcDbEntity
  8
DEFPOINTS
 62
     0
 48
50.0
100
AcDbPoint
 10
7389.514259514152
 20
5892.919036112861
 30
0.0
  0
POINT
  5
1F3E2
330
1DA44
100
AcDbEntity
  8
DEFPOINTS
 62
     0
 48
50.0
100
AcDbPoint
 10
7389.514259514152
 20
6022.919036112863
 30
0.0
  0
POINT
  5
1F3E3
330
1DA44
100
AcDbEntity
  8
DEFPOINTS
 62
     0
 48
50.0
100
AcDbPoint
 10
7606.221509390249
 20
6022.919036112863
 30
0.0
  0
ENDBLK
  5
1DA50
330
1DA44
100
AcDbEntity
  8
0
 48
50.0
100
AcDbBlockEnd
  0
BLOCK
  5
1DA5C
330
1DA51
100
AcDbEntity
  8
0
 48
50.0
100
AcDbBlockBegin
  2
*D3
 70
     1
 10
0.0
 20
0.0
 30
0.0
  3
*D3
  1

  0
LINE
  5
1F3D0
330
1DA51
100
AcDbEntity
  8
寸法
 62
     0
 48
50.0
370
    -2
100
AcDbLine
 10
7409.514259514151
 20
5892.919036112863
 30
0.0
 11
7666.221509390251
 21
5892.919036112863
 31
0.0
  0
LINE
  5
1F3D1
330
1DA51
100
AcDbEntity
  8
寸法
 62
     0
 48
50.0
370
    -2
100
AcDbLine
 10
7409.514259514151
 20
5722.919036112862
 30
0.0
 11
7666.221509390251
 21
5722.919036112862
 31
0.0
  0
LINE
  5
1F3D2
330
1DA51
100
AcDbEntity
  8
寸法
 62
     0
 48
50.0
370
    -2
100
AcDbLine
 10
7606.221509390249
 20
5892.919036112863
 30
0.0
 11
7606.221509390249
 21
5722.919036112862
 31
0.0
  0
LINE
  5
1F3D3
330
1DA51
100
AcDbEntity
  8
寸法
 62
     0
 48
50.0
370
    -2
100
AcDbLine
 10
7606.221509390249
 20
5722.919036112862
 30
0.0
 11
7606.221509390249
 21
5350.824547923885
 31
0.0
  0
INSERT
  5
1F3D4
330
1DA51
100
AcDbEntity
  8
寸法
 62
     0
 48
50.0
370
    -2
100
AcDbBlockReference
  2
_DOTSMALL
 10
7606.221509390249
 20
5892.919036112863
 30
0.0
 41
100.0
 42
100.0
 43
100.0
 50
90.0
  0
INSERT
  5
1F3D5
330
1DA51
100
AcDbEntity
  8
寸法
 62
     0
 48
50.0
370
    -2
100
AcDbBlockReference
  2
_DOTSMALL
 10
7606.221509390249
 20
5722.919036112862
 30
0.0
 41
100.0
 42
100.0
 43
100.0
 50
270.0
  0
MTEXT
  5
1F3D6
330
1DA51
100
AcDbEntity
  8
寸法
 62
     7
 48
50.0
100
AcDbMText
 10
7506.22150939025
 20
5486.871792018373
 30
0.0
 40
120.0
 41
0.0
 71
     5
 72
     1
  1
\A1;170
  7
STYLE1
 11
0.0000000000000001
 21
1.0
 31
0.0
 73
     1
 44
1.0
1001
ACAD
1000
MTEXTBEGIN
1070
    73
1070
     1
1070
    44
1040
1.0
1070
    74
1070
     0
1000
MTEXTEND
  0
POINT
  5
1F3D7
330
1DA51
100
AcDbEntity
  8
DEFPOINTS
 62
     0
 48
50.0
100
AcDbPoint
 10
7389.514259514152
 20
5892.919036112863
 30
0.0
  0
POINT
  5
1F3D8
330
1DA51
100
AcDbEntity
  8
DEFPOINTS
 62
     0
 48
50.0
100
AcDbPoint
 10
7389.514259514152
 20
5722.919036112862
 30
0.0
  0
POINT
  5
1F3D9
330
1DA51
100
AcDbEntity
  8
DEFPOINTS
 62
     0
 48
50.0
100
AcDbPoint
 10
7606.221509390249
 20
5722.919036112862
 30
0.0
  0
ENDBLK
  5
1DA5D
330
1DA51
100
AcDbEntity
  8
0
 48
50.0
100
AcDbBlockEnd
  0
BLOCK
  5
1DA67
330
1DA5E
100
AcDbEntity
  8
0
 48
50.0
100
AcDbBlockBegin
  2
*D4
 70
     1
 10
0.0
 20
0.0
 30
0.0
  3
*D4
  1

  0
LINE
  5
1F8AB
330
1DA5E
100
AcDbEntity
  8
寸法
 62
     0
 48
50.0
370
    -2
100
AcDbLine
 10
8836.514259514151
 20
7469.91903611286
 30
0.0
 11
8836.514259514151
 21
8336.250847072712
 31
0.0
  0
LINE
  5
1F8AC
330
1DA5E
100
AcDbEntity
  8
寸法
 62
     0
 48
50.0
370
    -2
100
AcDbLine
 10
7282.514259514151
 20
7469.91903611286
 30
0.0
 11
7282.514259514151
 21
8336.250847072712
 31
0.0
  0
LINE
  5
1F8AD
330
1DA5E
100
AcDbEntity
  8
寸法
 62
     0
 48
50.0
370
    -2
100
AcDbLine
 10
8836.514259514151
 20
8276.250847072711
 30
0.0
 11
7282.514259514151
 21
8276.250847072711
 31
0.0
  0
INSERT
  5
1F8AE
330
1DA5E
100
AcDbEntity
  8
寸法
 62
     0
 48
50.0
370
    -2
100
AcDbBlockReference
  2
_DOTSMALL
 10
8836.514259514151
 20
8276.250847072711
 30
0.0
 41
100.0
 42
100.0
 43
100.0
  0
INSERT
  5
1F8AF
330
1DA5E
100
AcDbEntity
  8
寸法
 62
     0
 48
50.0
370
    -2
100
AcDbBlockReference
  2
_DOTSMALL
 10
7282.514259514151
 20
8276.250847072711
 30
0.0
 41
100.0
 42
100.0
 43
100.0
 50
180.0
  0
MTEXT
  5
1F8B0
330
1DA5E
100
AcDbEntity
  8
寸法
 62
     7
 48
50.0
100
AcDbMText
 10
8059.51425951415
 20
8376.250847072711
 30
0.0
 40
120.0
 41
0.0
 71
     5
 72
     1
  1
\A1;1554
  7
STYLE1
 73
     1
 44
1.0
1001
ACAD
1000
MTEXTBEGIN
1070
    73
1070
     1
1070
    44
1040
1.0
1070
    74
1070
     0
1000
MTEXTEND
  0
POINT
  5
1F8B1
330
1DA5E
100
AcDbEntity
  8
DEFPOINTS
 62
     0
 48
50.0
100
AcDbPoint
 10
8836.514259514151
 20
7449.919036112861
 30
0.0
  0
POINT
  5
1F8B2
330
1DA5E
100
AcDbEntity
  8
DEFPOINTS
 62
     0
 48
50.0
100
AcDbPoint
 10
7282.514259514151
 20
7449.919036112861
 30
0.0
  0
POINT
  5
1F8B3
330
1DA5E
100
AcDbEntity
  8
DEFPOINTS
 62
     0
 48
50.0
100
AcDbPoint
 10
7282.514259514151
 20
8276.250847072711
 30
0.0
  0
ENDBLK
  5
1DA68
330
1DA5E
100
AcDbEntity
  8
0
 48
50.0
100
AcDbBlockEnd
  0
BLOCK
  5
1DA72
330
1DA69
100
AcDbEntity
  8
0
 48
50.0
100
AcDbBlockBegin
  2
*D5
 70
     1
 10
0.0
 20
0.0
 30
0.0
  3
*D5
  1

  0
LINE
  5
1F8A2
330
1DA69
100
AcDbEntity
  8
寸法
 62
     0
 48
50.0
370
    -2
100
AcDbLine
 10
7159.514259514151
 20
7542.919036112862
 30
0.0
 11
7159.514259514151
 21
8548.711542589549
 31
0.0
  0
LINE
  5
1F8A3
330
1DA69
100
AcDbEntity
  8
寸法
 62
     0
 48
50.0
370
    -2
100
AcDbLine
 10
8959.514259514151
 20
7542.919036112862
 30
0.0
 11
8959.514259514151
 21
8548.711542589549
 31
0.0
  0
LINE
  5
1F8A4
330
1DA69
100
AcDbEntity
  8
寸法
 62
     0
 48
50.0
370
    -2
100
AcDbLine
 10
7159.514259514151
 20
8488.711542589548
 30
0.0
 11
8959.514259514151
 21
8488.711542589548
 31
0.0
  0
INSERT
  5
1F8A5
330
1DA69
100
AcDbEntity
  8
寸法
 62
     0
 48
50.0
370
    -2
100
AcDbBlockReference
  2
_DOTSMALL
 10
7159.514259514151
 20
8488.711542589548
 30
0.0
 41
100.0
 42
100.0
 43
100.0
 50
180.0
  0
INSERT
  5
1F8A6
330
1DA69
100
AcDbEntity
  8
寸法
 62
     0
 48
50.0
370
    -2
100
AcDbBlockReference
  2
_DOTSMALL
 10
8959.514259514151
 20
8488.711542589548
 30
0.0
 41
100.0
 42
100.0
 43
100.0
  0
MTEXT
  5
1F8A7
330
1DA69
100
AcDbEntity
  8
寸法
 62
     7
 48
50.0
100
AcDbMText
 10
8059.51425951415
 20
8588.711542589548
 30
0.0
 40
120.0
 41
0.0
 71
     5
 72
     1
  1
\A1;1800
  7
STYLE1
 73
     1
 44
1.0
1001
ACAD
1000
MTEXTBEGIN
1070
    73
1070
     1
1070
    44
1040
1.0
1070
    74
1070
     0
1000
MTEXTEND
  0
POINT
  5
1F8A8
330
1DA69
100
AcDbEntity
  8
DEFPOINTS
 62
     0
 48
50.0
100
AcDbPoint
 10
7159.514259514151
 20
7522.919036112861
 30
0.0
  0
POINT
  5
1F8A9
330
1DA69
100
AcDbEntity
  8
DEFPOINTS
 62
     0
 48
50.0
100
AcDbPoint
 10
8959.514259514151
 20
7522.919036112861
 30
0.0
  0
POINT
  5
1F8AA
330
1DA69
100
AcDbEntity
  8
DEFPOINTS
 62
     0
 48
50.0
100
AcDbPoint
 10
8959.514259514151
 20
8488.711542589548
 30
0.0
  0
ENDBLK
  5
1DA73
330
1DA69
100
AcDbEntity
  8
0
 48
50.0
100
AcDbBlockEnd
  0
BLOCK
  5
1DA7F
330
1DA74
100
AcDbEntity
  8
0
 48
50.0
100
AcDbBlockBegin
  2
*D6
 70
     1
 10
0.0
 20
0.0
 30
0.0
  3
*D6
  1

  0
LINE
  5
1F898
330
1DA74
100
AcDbEntity
  8
寸法
 62
     0
 48
50.0
370
    -2
100
AcDbLine
 10
7282.514259514151
 20
7469.91903611286
 30
0.0
 11
7282.514259514151
 21
8336.250847072712
 31
0.0
  0
LINE
  5
1F899
330
1DA74
100
AcDbEntity
  8
寸法
 62
     0
 48
50.0
370
    -2
100
AcDbLine
 10
7159.51425951415
 20
7542.919036112859
 30
0.0
 11
7159.51425951415
 21
8336.250847072712
 31
0.0
  0
LINE
  5
1F89A
330
1DA74
100
AcDbEntity
  8
寸法
 62
     0
 48
50.0
370
    -2
100
AcDbLine
 10
7282.514259514151
 20
8276.250847072711
 30
0.0
 11
7159.51425951415
 21
8276.250847072711
 31
0.0
  0
LINE
  5
1F89B
330
1DA74
100
AcDbEntity
  8
寸法
 62
     0
 48
50.0
370
    -2
100
AcDbLine
 10
7159.51425951415
 20
8276.250847072711
 30
0.0
 11
6782.543696765671
 21
8276.250847072711
 31
0.0
  0
INSERT
  5
1F89C
330
1DA74
100
AcDbEntity
  8
寸法
 62
     0
 48
50.0
370
    -2
100
AcDbBlockReference
  2
_DOTSMALL
 10
7282.514259514151
 20
8276.250847072711
 30
0.0
 41
100.0
 42
100.0
 43
100.0
  0
INSERT
  5
1F89D
330
1DA74
100
AcDbEntity
  8
寸法
 62
     0
 48
50.0
370
    -2
100
AcDbBlockReference
  2
_DOTSMALL
 10
7159.51425951415
 20
8276.250847072711
 30
0.0
 41
100.0
 42
100.0
 43
100.0
 50
180.0
  0
MTEXT
  5
1F89E
330
1DA74
100
AcDbEntity
  8
寸法
 62
     7
 48
50.0
100
AcDbMText
 10
6921.028978139911
 20
8376.262658096333
 30
0.0
 40
120.0
 41
0.0
 71
     5
 72
     1
  1
\A1;123
  7
STYLE1
 73
     1
 44
1.0
1001
ACAD
1000
MTEXTBEGIN
1070
    73
1070
     1
1070
    44
1040
1.0
1070
    74
1070
     0
1000
MTEXTEND
  0
POINT
  5
1F89F
330
1DA74
100
AcDbEntity
  8
DEFPOINTS
 62
     0
 48
50.0
100
AcDbPoint
 10
7282.514259514151
 20
7449.919036112861
 30
0.0
  0
POINT
  5
1F8A0
330
1DA74
100
AcDbEntity
  8
DEFPOINTS
 62
     0
 48
50.0
100
AcDbPoint
 10
7159.51425951415
 20
7522.919036112859
 30
0.0
  0
POINT
  5
1F8A1
330
1DA74
100
AcDbEntity
  8
DEFPOINTS
 62
     0
 48
50.0
100
AcDbPoint
 10
7159.51425951415
 20
8276.250847072711
 30
0.0
  0
ENDBLK
  5
1DA80
330
1DA74
100
AcDbEntity
  8
0
 48
50.0
100
AcDbBlockEnd
  0
BLOCK
  5
1DA8C
330
1DA81
100
AcDbEntity
  8
0
 48
50.0
100
AcDbBlockBegin
  2
*D7
 70
     1
 10
0.0
 20
0.0
 30
0.0
  3
*D7
  1

  0
LINE
  5
1F88D
330
1DA81
100
AcDbEntity
  8
寸法
 62
     0
 48
50.0
370
    -2
100
AcDbLine
 10
7114.514259514146
 20
8296.250847072711
 30
0.0
 11
7114.514259514146
 21
8548.711542589549
 31
0.0
  0
LINE
  5
1F88E
330
1DA81
100
AcDbEntity
  8
寸法
 62
     0
 48
50.0
370
    -2
100
AcDbLine
 10
7159.514259514151
 20
7691.190236682782
 30
0.0
 11
7159.514259514151
 21
8548.711542589549
 31
0.0
  0
LINE
  5
1F88F
330
1DA81
100
AcDbEntity
  8
寸法
 62
     0
 48
50.0
370
    -2
100
AcDbLine
 10
7114.514259514146
 20
8488.71154258955
 30
0.0
 11
7014.514259514147
 21
8488.71154258955
 31
0.0
  0
LINE
  5
1F890
330
1DA81
100
AcDbEntity
  8
寸法
 62
     0
 48
50.0
370
    -2
100
AcDbLine
 10
7159.514259514151
 20
8488.71154258955
 30
0.0
 11
7259.514259514151
 21
8488.71154258955
 31
0.0
  0
LINE
  5
1F891
330
1DA81
100
AcDbEntity
  8
寸法
 62
     0
 48
50.0
370
    -2
100
AcDbLine
 10
7114.514259514146
 20
8488.71154258955
 30
0.0
 11
7159.514259514151
 21
8488.71154258955
 31
0.0
  0
INSERT
  5
1F892
330
1DA81
100
AcDbEntity
  8
寸法
 62
     0
 48
50.0
370
    -2
100
AcDbBlockReference
  2
_DOTSMALL
 10
7114.514259514146
 20
8488.71154258955
 30
0.0
 41
100.0
 42
100.0
 43
100.0
  0
INSERT
  5
1F893
330
1DA81
100
AcDbEntity
  8
寸法
 62
     0
 48
50.0
370
    -2
100
AcDbBlockReference
  2
_DOTSMALL
 10
7159.514259514151
 20
8488.71154258955
 30
0.0
 41
100.0
 42
100.0
 43
100.0
 50
180.0
  0
MTEXT
  5
1F894
330
1DA81
100
AcDbEntity
  8
寸法
 62
     7
 48
50.0
100
AcDbMText
 10
7137.014259514149
 20
8588.71154258955
 30
0.0
 40
120.0
 41
0.0
 71
     5
 72
     1
  1
\A1;a
  7
STYLE1
 73
     1
 44
1.0
1001
ACAD
1000
MTEXTBEGIN
1070
    73
1070
     1
1070
    44
1040
1.0
1070
    74
1070
     0
1000
MTEXTEND
  0
POINT
  5
1F895
330
1DA81
100
AcDbEntity
  8
DEFPOINTS
 62
     0
 48
50.0
100
AcDbPoint
 10
7114.514259514146
 20
8276.250847072711
 30
0.0
  0
POINT
  5
1F896
330
1DA81
100
AcDbEntity
  8
DEFPOINTS
 62
     0
 48
50.0
100
AcDbPoint
 10
7159.514259514151
 20
7671.190236682781
 30
0.0
  0
POINT
  5
1F897
330
1DA81
100
AcDbEntity
  8
DEFPOINTS
 62
     0
 48
50.0
100
AcDbPoint
 10
7159.514259514151
 20
8488.71154258955
 30
0.0
  0
ENDBLK
  5
1DA8D
330
1DA81
100
AcDbEntity
  8
0
 48
50.0
100
AcDbBlockEnd
  0
BLOCK
  5
1DA98
330
1DA8E
100
AcDbEntity
  8
0
 48
50.0
100
AcDbBlockBegin
  2
*D8
 70
     1
 10
0.0
 20
0.0
 30
0.0
  3
*D8
  1

  0
LINE
  5
1F906
330
1DA8E
100
AcDbEntity
  8
寸法
 62
     0
 48
50.0
370
    -2
100
AcDbLine
 10
7212.514259514151
 20
7399.919036112861
 30
0.0
 11
6603.571993500331
 21
7399.919036112861
 31
0.0
  0
LINE
  5
1F907
330
1DA8E
100
AcDbEntity
  8
寸法
 62
     0
 48
50.0
370
    -2
100
AcDbLine
 10
7212.514259514158
 20
5920.919036112861
 30
0.0
 11
6603.57199350033
 21
5920.919036112861
 31
0.0
  0
LINE
  5
1F908
330
1DA8E
100
AcDbEntity
  8
寸法
 62
     0
 48
50.0
370
    -2
100
AcDbLine
 10
6663.571993500331
 20
7399.919036112861
 30
0.0
 11
6663.57199350033
 21
5920.919036112861
 31
0.0
  0
INSERT
  5
1F909
330
1DA8E
100
AcDbEntity
  8
寸法
 62
     0
 48
50.0
370
    -2
100
AcDbBlockReference
  2
_DOTSMALL
 10
6663.571993500331
 20
7399.919036112861
 30
0.0
 41
100.0
 42
100.0
 43
100.0
 50
90.0
  0
INSERT
  5
1F90A
330
1DA8E
100
AcDbEntity
  8
寸法
 62
     0
 48
50.0
370
    -2
100
AcDbBlockReference
  2
_DOTSMALL
 10
6663.57199350033
 20
5920.919036112861
 30
0.0
 41
100.0
 42
100.0
 43
100.0
 50
270.0
  0
MTEXT
  5
1F90B
330
1DA8E
100
AcDbEntity
  8
寸法
 62
     7
 48
50.0
100
AcDbMText
 10
6563.571993500329
 20
6634.05280691343
 30
0.0
 40
120.0
 41
0.0
 71
     5
 72
     1
  1
\A1;1479
  7
STYLE1
 11
0.0000000000000001
 21
1.0
 31
0.0
 73
     1
 44
1.0
1001
ACAD
1000
MTEXTBEGIN
1070
    73
1070
     1
1070
    44
1040
1.0
1070
    74
1070
     0
1000
MTEXTEND
  0
POINT
  5
1F90C
330
1DA8E
100
AcDbEntity
  8
DEFPOINTS
 62
     0
 48
50.0
100
AcDbPoint
 10
7232.514259514151
 20
7399.919036112861
 30
0.0
  0
POINT
  5
1F90D
330
1DA8E
100
AcDbEntity
  8
DEFPOINTS
 62
     0
 48
50.0
100
AcDbPoint
 10
7232.514259514158
 20
5920.919036112861
 30
0.0
  0
POINT
  5
1F90E
330
1DA8E
100
AcDbEntity
  8
DEFPOINTS
 62
     0
 48
50.0
100
AcDbPoint
 10
6663.57199350033
 20
5920.919036112861
 30
0.0
  0
ENDBLK
  5
1DA99
330
1DA8E
100
AcDbEntity
  8
0
 48
50.0
100
AcDbBlockEnd
  0
BLOCK
  5
1DAA3
330
1DA9A
100
AcDbEntity
  8
0
 48
50.0
100
AcDbBlockBegin
  2
*D9
 70
     1
 10
0.0
 20
0.0
 30
0.0
  3
*D9
  1

  0
LINE
  5
1F90F
330
1DA9A
100
AcDbEntity
  8
寸法
 62
     0
 48
50.0
370
    -2
100
AcDbLine
 10
7139.514259514149
 20
7522.919036112863
 30
0.0
 11
6358.079191362364
 21
7522.919036112863
 31
0.0
  0
LINE
  5
1F910
330
1DA9A
100
AcDbEntity
  8
寸法
 62
     0
 48
50.0
370
    -2
100
AcDbLine
 10
7139.514259514152
 20
5722.919036112859
 30
0.0
 11
6358.079191362364
 21
5722.919036112859
 31
0.0
  0
LINE
  5
1F911
330
1DA9A
100
AcDbEntity
  8
寸法
 62
     0
 48
50.0
370
    -2
100
AcDbLine
 10
6418.079191362365
 20
7522.919036112863
 30
0.0
 11
6418.079191362363
 21
5722.919036112859
 31
0.0
  0
INSERT
  5
1F912
330
1DA9A
100
AcDbEntity
  8
寸法
 62
     0
 48
50.0
370
    -2
100
AcDbBlockReference
  2
_DOTSMALL
 10
6418.079191362365
 20
7522.919036112863
 30
0.0
 41
100.0
 42
100.0
 43
100.0
 50
90.0
  0
INSERT
  5
1F913
330
1DA9A
100
AcDbEntity
  8
寸法
 62
     0
 48
50.0
370
    -2
100
AcDbBlockReference
  2
_DOTSMALL
 10
6418.079191362363
 20
5722.919036112859
 30
0.0
 41
100.0
 42
100.0
 43
100.0
 50
270.0
  0
MTEXT
  5
1F914
330
1DA9A
100
AcDbEntity
  8
寸法
 62
     7
 48
50.0
100
AcDbMText
 10
6318.079191362363
 20
6651.31453344319
 30
0.0
 40
120.0
 41
0.0
 71
     5
 72
     1
  1
\A1;1800
  7
STYLE1
 11
0.0000000000000001
 21
1.0
 31
0.0
 73
     1
 44
1.0
1001
ACAD
1000
MTEXTBEGIN
1070
    73
1070
     1
1070
    44
1040
1.0
1070
    74
1070
     0
1000
MTEXTEND
  0
POINT
  5
1F915
330
1DA9A
100
AcDbEntity
  8
DEFPOINTS
 62
     0
 48
50.0
100
AcDbPoint
 10
7159.51425951415
 20
7522.919036112863
 30
0.0
  0
POINT
  5
1F916
330
1DA9A
100
AcDbEntity
  8
DEFPOINTS
 62
     0
 48
50.0
100
AcDbPoint
 10
7159.514259514151
 20
5722.919036112859
 30
0.0
  0
POINT
  5
1F917
330
1DA9A
100
AcDbEntity
  8
DEFPOINTS
 62
     0
 48
50.0
100
AcDbPoint
 10
6418.079191362363
 20
5722.919036112859
 30
0.0
  0
ENDBLK
  5
1DAA4
330
1DA9A
100
AcDbEntity
  8
0
 48
50.0
100
AcDbBlockEnd
  0
BLOCK
  5
1DAB0
330
1DAA5
100
AcDbEntity
  8
0
 48
50.0
100
AcDbBlockBegin
  2
*D10
 70
     1
 10
0.0
 20
0.0
 30
0.0
  3
*D10
  1

  0
LINE
  5
1F38D
330
1DAA5
100
AcDbEntity
  8
寸法
 62
     0
 48
50.0
370
    -2
100
AcDbLine
 10
7212.514259514158
 20
5920.919036112861
 30
0.0
 11
6603.57199350033
 21
5920.919036112861
 31
0.0
  0
LINE
  5
1F38E
330
1DAA5
100
AcDbEntity
  8
寸法
 62
     0
 48
50.0
370
    -2
100
AcDbLine
 10
7139.514259514152
 20
5722.919036112859
 30
0.0
 11
6603.57199350033
 21
5722.919036112859
 31
0.0
  0
LINE
  5
1F38F
330
1DAA5
100
AcDbEntity
  8
寸法
 62
     0
 48
50.0
370
    -2
100
AcDbLine
 10
6663.57199350033
 20
5920.919036112861
 30
0.0
 11
6663.57199350033
 21
5722.919036112859
 31
0.0
  0
LINE
  5
1F390
330
1DAA5
100
AcDbEntity
  8
寸法
 62
     0
 48
50.0
370
    -2
100
AcDbLine
 10
6663.57199350033
 20
5722.919036112859
 30
0.0
 11
6663.57199350033
 21
5350.499716453546
 31
0.0
  0
INSERT
  5
1F391
330
1DAA5
100
AcDbEntity
  8
寸法
 62
     0
 48
50.0
370
    -2
100
AcDbBlockReference
  2
_DOTSMALL
 10
6663.57199350033
 20
5920.919036112861
 30
0.0
 41
100.0
 42
100.0
 43
100.0
 50
90.0
  0
INSERT
  5
1F392
330
1DAA5
100
AcDbEntity
  8
寸法
 62
     0
 48
50.0
370
    -2
100
AcDbBlockReference
  2
_DOTSMALL
 10
6663.57199350033
 20
5722.919036112859
 30
0.0
 41
100.0
 42
100.0
 43
100.0
 50
270.0
  0
MTEXT
  5
1F393
330
1DAA5
100
AcDbEntity
  8
寸法
 62
     7
 48
50.0
100
AcDbMText
 10
6563.571993500329
 20
5486.709376283204
 30
0.0
 40
120.0
 41
0.0
 71
     5
 72
     1
  1
\A1;198
  7
STYLE1
 11
0.0000000000000001
 21
1.0
 31
0.0
 73
     1
 44
1.0
1001
ACAD
1000
MTEXTBEGIN
1070
    73
1070
     1
1070
    44
1040
1.0
1070
    74
1070
     0
1000
MTEXTEND
  0
POINT
  5
1F394
330
1DAA5
100
AcDbEntity
  8
DEFPOINTS
 62
     0
 48
50.0
100
AcDbPoint
 10
7232.514259514158
 20
5920.919036112861
 30
0.0
  0
POINT
  5
1F395
330
1DAA5
100
AcDbEntity
  8
DEFPOINTS
 62
     0
 48
50.0
100
AcDbPoint
 10
7159.514259514151
 20
5722.919036112859
 30
0.0
  0
POINT
  5
1F396
330
1DAA5
100
AcDbEntity
  8
DEFPOINTS
 62
     0
 48
50.0
100
AcDbPoint
 10
6663.57199350033
 20
5722.919036112859
 30
0.0
  0
ENDBLK
  5
1DAB1
330
1DAA5
100
AcDbEntity
  8
0
 48
50.0
100
AcDbBlockEnd
  0
BLOCK
  5
1DABC
330
1DAB2
100
AcDbEntity
  8
0
 48
50.0
100
AcDbBlockBegin
  2
*D11
 70
     1
 10
0.0
 20
0.0
 30
0.0
  3
*D11
  1

  0
LINE
  5
1F382
330
1DAB2
100
AcDbEntity
  8
寸法
 62
     0
 48
50.0
370
    -2
100
AcDbLine
 10
7139.514259514152
 20
5722.919036112859
 30
0.0
 11
6358.079191362364
 21
5722.919036112859
 31
0.0
  0
LINE
  5
1F383
330
1DAB2
100
AcDbEntity
  8
寸法
 62
     0
 48
50.0
370
    -2
100
AcDbLine
 10
6643.57199350033
 20
5667.919036112859
 30
0.0
 11
6358.079191362364
 21
5667.919036112859
 31
0.0
  0
LINE
  5
1F384
330
1DAB2
100
AcDbEntity
  8
寸法
 62
     0
 48
50.0
370
    -2
100
AcDbLine
 10
6418.079191362363
 20
5722.919036112859
 30
0.0
 11
6418.079191362363
 21
5822.919036112859
 31
0.0
  0
LINE
  5
1F385
330
1DAB2
100
AcDbEntity
  8
寸法
 62
     0
 48
50.0
370
    -2
100
AcDbLine
 10
6418.079191362363
 20
5667.919036112859
 30
0.0
 11
6418.079191362363
 21
5567.91903611286
 31
0.0
  0
LINE
  5
1F386
330
1DAB2
100
AcDbEntity
  8
寸法
 62
     0
 48
50.0
370
    -2
100
AcDbLine
 10
6418.079191362363
 20
5722.919036112859
 30
0.0
 11
6418.079191362363
 21
5667.919036112859
 31
0.0
  0
INSERT
  5
1F387
330
1DAB2
100
AcDbEntity
  8
寸法
 62
     0
 48
50.0
370
    -2
100
AcDbBlockReference
  2
_DOTSMALL
 10
6418.079191362363
 20
5722.919036112859
 30
0.0
 41
100.0
 42
100.0
 43
100.0
 50
270.0
  0
INSERT
  5
1F388
330
1DAB2
100
AcDbEntity
  8
寸法
 62
     0
 48
50.0
370
    -2
100
AcDbBlockReference
  2
_DOTSMALL
 10
6418.079191362363
 20
5667.919036112859
 30
0.0
 41
100.0
 42
100.0
 43
100.0
 50
90.0
  0
MTEXT
  5
1F389
330
1DAB2
100
AcDbEntity
  8
寸法
 62
     7
 48
50.0
100
AcDbMText
 10
6318.079191362363
 20
5695.419036112861
 30
0.0
 40
120.0
 41
0.0
 71
     5
 72
     1
  1
\A1;b
  7
STYLE1
 11
0.0000000000000001
 21
1.0
 31
0.0
 73
     1
 44
1.0
1001
ACAD
1000
MTEXTBEGIN
1070
    73
1070
     1
1070
    44
1040
1.0
1070
    74
1070
     0
1000
MTEXTEND
  0
POINT
  5
1F38A
330
1DAB2
100
AcDbEntity
  8
DEFPOINTS
 62
     0
 48
50.0
100
AcDbPoint
 10
7159.514259514151
 20
5722.919036112859
 30
0.0
  0
POINT
  5
1F38B
330
1DAB2
100
AcDbEntity
  8
DEFPOINTS
 62
     0
 48
50.0
100
AcDbPoint
 10
6663.57199350033
 20
5667.919036112859
 30
0.0
  0
POINT
  5
1F38C
330
1DAB2
100
AcDbEntity
  8
DEFPOINTS
 62
     0
 48
50.0
100
AcDbPoint
 10
6418.079191362363
 20
5667.919036112859
 30
0.0
  0
ENDBLK
  5
1DABD
330
1DAB2
100
AcDbEntity
  8
0
 48
50.0
100
AcDbBlockEnd
  0
BLOCK
  5
1DAC9
330
1DABE
100
AcDbEntity
  8
0
 48
50.0
100
AcDbBlockBegin
  2
*D12
 70
     1
 10
0.0
 20
0.0
 30
0.0
  3
*D12
  1

  0
LINE
  5
1F883
330
1DABE
100
AcDbEntity
  8
寸法
 62
     0
 48
50.0
370
    -2
100
AcDbLine
 10
7139.51425951415
 20
7522.91903611286
 30
0.0
 11
6603.571993500328
 21
7522.91903611286
 31
0.0
  0
LINE
  5
1F884
330
1DABE
100
AcDbEntity
  8
寸法
 62
     0
 48
50.0
370
    -2
100
AcDbLine
 10
7212.514259514151
 20
7399.919036112861
 30
0.0
 11
6603.571993500328
 21
7399.919036112861
 31
0.0
  0
LINE
  5
1F885
330
1DABE
100
AcDbEntity
  8
寸法
 62
     0
 48
50.0
370
    -2
100
AcDbLine
 10
6663.57199350033
 20
7399.919036112861
 30
0.0
 11
6663.57199350033
 21
7522.91903611286
 31
0.0
  0
LINE
  5
1F886
330
1DABE
100
AcDbEntity
  8
寸法
 62
     0
 48
50.0
370
    -2
100
AcDbLine
 10
6663.57199350033
 20
7522.91903611286
 30
0.0
 11
6663.57199350033
 21
7899.889598861339
 31
0.0
  0
INSERT
  5
1F887
330
1DABE
100
AcDbEntity
  8
寸法
 62
     0
 48
50.0
370
    -2
100
AcDbBlockReference
  2
_DOTSMALL
 10
6663.57199350033
 20
7399.919036112861
 30
0.0
 41
100.0
 42
100.0
 43
100.0
 50
270.0
  0
INSERT
  5
1F888
330
1DABE
100
AcDbEntity
  8
寸法
 62
     0
 48
50.0
370
    -2
100
AcDbBlockReference
  2
_DOTSMALL
 10
6663.57199350033
 20
7522.91903611286
 30
0.0
 41
100.0
 42
100.0
 43
100.0
 50
90.0
  0
MTEXT
  5
1F889
330
1DABE
100
AcDbEntity
  8
寸法
 62
     7
 48
50.0
100
AcDbMText
 10
6563.560182476706
 20
7761.4043174871
 30
0.0
 40
120.0
 41
0.0
 71
     5
 72
     1
  1
\A1;123
  7
STYLE1
 11
0.0000000000000001
 21
1.0
 31
0.0
 73
     1
 44
1.0
1001
ACAD
1000
MTEXTBEGIN
1070
    73
1070
     1
1070
    44
1040
1.0
1070
    74
1070
     0
1000
MTEXTEND
  0
POINT
  5
1F88A
330
1DABE
100
AcDbEntity
  8
DEFPOINTS
 62
     0
 48
50.0
100
AcDbPoint
 10
7159.514259514151
 20
7522.91903611286
 30
0.0
  0
POINT
  5
1F88B
330
1DABE
100
AcDbEntity
  8
DEFPOINTS
 62
     0
 48
50.0
100
AcDbPoint
 10
7232.514259514151
 20
7399.919036112861
 30
0.0
  0
POINT
  5
1F88C
330
1DABE
100
AcDbEntity
  8
DEFPOINTS
 62
     0
 48
50.0
100
AcDbPoint
 10
6663.57199350033
 20
7399.919036112861
 30
0.0
  0
ENDBLK
  5
1DACA
330
1DABE
100
AcDbEntity
  8
0
 48
50.0
100
AcDbBlockEnd
  0
BLOCK
  5
1DAD7
330
1DACB
100
AcDbEntity
  8
0
 48
50.0
100
AcDbBlockBegin
  2
*D13
 70
     1
 10
0.0
 20
0.0
 30
0.0
  3
*D13
  1

  0
LINE
  5
1F878
330
1DACB
100
AcDbEntity
  8
寸法
 62
     0
 48
50.0
370
    -2
100
AcDbLine
 10
6643.57199350033
 20
7597.91903611286
 30
0.0
 11
6358.079191362362
 21
7597.91903611286
 31
0.0
  0
LINE
  5
1F879
330
1DACB
100
AcDbEntity
  8
寸法
 62
     0
 48
50.0
370
    -2
100
AcDbLine
 10
7139.51425951415
 20
7522.91903611286
 30
0.0
 11
6358.079191362362
 21
7522.91903611286
 31
0.0
  0
LINE
  5
1F87A
330
1DACB
100
AcDbEntity
  8
寸法
 62
     0
 48
50.0
370
    -2
100
AcDbLine
 10
6418.079191362362
 20
7597.91903611286
 30
0.0
 11
6418.079191362362
 21
7697.91903611286
 31
0.0
  0
LINE
  5
1F87B
330
1DACB
100
AcDbEntity
  8
寸法
 62
     0
 48
50.0
370
    -2
100
AcDbLine
 10
6418.079191362362
 20
7522.91903611286
 30
0.0
 11
6418.079191362362
 21
7422.91903611286
 31
0.0
  0
LINE
  5
1F87C
330
1DACB
100
AcDbEntity
  8
寸法
 62
     0
 48
50.0
370
    -2
100
AcDbLine
 10
6418.079191362362
 20
7597.91903611286
 30
0.0
 11
6418.079191362362
 21
7522.91903611286
 31
0.0
  0
INSERT
  5
1F87D
330
1DACB
100
AcDbEntity
  8
寸法
 62
     0
 48
50.0
370
    -2
100
AcDbBlockReference
  2
_DOTSMALL
 10
6418.079191362362
 20
7597.91903611286
 30
0.0
 41
100.0
 42
100.0
 43
100.0
 50
270.0
  0
INSERT
  5
1F87E
330
1DACB
100
AcDbEntity
  8
寸法
 62
     0
 48
50.0
370
    -2
100
AcDbBlockReference
  2
_DOTSMALL
 10
6418.079191362362
 20
7522.91903611286
 30
0.0
 41
100.0
 42
100.0
 43
100.0
 50
90.0
  0
MTEXT
  5
1F87F
330
1DACB
100
AcDbEntity
  8
寸法
 62
     7
 48
50.0
100
AcDbMText
 10
6318.079191362361
 20
7560.419036112863
 30
0.0
 40
120.0
 41
0.0
 71
     5
 72
     1
  1
\A1;c
  7
STYLE1
 11
0.0000000000000001
 21
1.0
 31
0.0
 73
     1
 44
1.0
1001
ACAD
1000
MTEXTBEGIN
1070
    73
1070
     1
1070
    44
1040
1.0
1070
    74
1070
     0
1000
MTEXTEND
  0
POINT
  5
1F880
330
1DACB
100
AcDbEntity
  8
DEFPOINTS
 62
     0
 48
50.0
100
AcDbPoint
 10
6663.57199350033
 20
7597.91903611286
 30
0.0
  0
POINT
  5
1F881
330
1DACB
100
AcDbEntity
  8
DEFPOINTS
 62
     0
 48
50.0
100
AcDbPoint
 10
7159.514259514151
 20
7522.91903611286
 30
0.0
  0
POINT
  5
1F882
330
1DACB
100
AcDbEntity
  8
DEFPOINTS
 62
     0
 48
50.0
100
AcDbPoint
 10
6418.079191362362
 20
7522.91903611286
 30
0.0
  0
ENDBLK
  5
1DAD8
330
1DACB
100
AcDbEntity
  8
0
 48
50.0
100
AcDbBlockEnd
  0
BLOCK
  5
1DAE4
330
1DAD9
100
AcDbEntity
  8
0
 48
50.0
100
AcDbBlockBegin
  2
*D14
 70
     1
 10
0.0
 20
0.0
 30
0.0
  3
*D14
  1

  0
LINE
  5
1F86E
330
1DAD9
100
AcDbEntity
  8
寸法
 62
     0
 48
50.0
370
    -2
100
AcDbLine
 10
8959.514259514151
 20
7542.919036112862
 30
0.0
 11
8959.514259514151
 21
8336.250847072712
 31
0.0
  0
LINE
  5
1F86F
330
1DAD9
100
AcDbEntity
  8
寸法
 62
     0
 48
50.0
370
    -2
100
AcDbLine
 10
8836.514259514151
 20
7469.91903611286
 30
0.0
 11
8836.514259514151
 21
8336.250847072712
 31
0.0
  0
LINE
  5
1F870
330
1DAD9
100
AcDbEntity
  8
寸法
 62
     0
 48
50.0
370
    -2
100
AcDbLine
 10
8836.514259514151
 20
8276.250847072711
 30
0.0
 11
8959.514259514151
 21
8276.250847072711
 31
0.0
  0
LINE
  5
1F871
330
1DAD9
100
AcDbEntity
  8
寸法
 62
     0
 48
50.0
370
    -2
100
AcDbLine
 10
8959.514259514151
 20
8276.250847072711
 30
0.0
 11
9336.484822262628
 21
8276.250847072711
 31
0.0
  0
INSERT
  5
1F872
330
1DAD9
100
AcDbEntity
  8
寸法
 62
     0
 48
50.0
370
    -2
100
AcDbBlockReference
  2
_DOTSMALL
 10
8836.514259514151
 20
8276.250847072711
 30
0.0
 41
100.0
 42
100.0
 43
100.0
 50
180.0
  0
INSERT
  5
1F873
330
1DAD9
100
AcDbEntity
  8
寸法
 62
     0
 48
50.0
370
    -2
100
AcDbBlockReference
  2
_DOTSMALL
 10
8959.514259514151
 20
8276.250847072711
 30
0.0
 41
100.0
 42
100.0
 43
100.0
  0
MTEXT
  5
1F874
330
1DAD9
100
AcDbEntity
  8
寸法
 62
     7
 48
50.0
100
AcDbMText
 10
9197.999540888389
 20
8376.262658096333
 30
0.0
 40
120.0
 41
0.0
 71
     5
 72
     1
  1
\A1;123
  7
STYLE1
 73
     1
 44
1.0
1001
ACAD
1000
MTEXTBEGIN
1070
    73
1070
     1
1070
    44
1040
1.0
1070
    74
1070
     0
1000
MTEXTEND
  0
POINT
  5
1F875
330
1DAD9
100
AcDbEntity
  8
DEFPOINTS
 62
     0
 48
50.0
100
AcDbPoint
 10
8959.514259514151
 20
7522.919036112861
 30
0.0
  0
POINT
  5
1F876
330
1DAD9
100
AcDbEntity
  8
DEFPOINTS
 62
     0
 48
50.0
100
AcDbPoint
 10
8836.514259514151
 20
7449.919036112861
 30
0.0
  0
POINT
  5
1F877
330
1DAD9
100
AcDbEntity
  8
DEFPOINTS
 62
     0
 48
50.0
100
AcDbPoint
 10
8836.514259514151
 20
8276.250847072711
 30
0.0
  0
ENDBLK
  5
1DAE5
330
1DAD9
100
AcDbEntity
  8
0
 48
50.0
100
AcDbBlockEnd
  0
BLOCK
  5
1DAF1
330
1DAE6
100
AcDbEntity
  8
0
 48
50.0
100
AcDbBlockBegin
  2
*D15
 70
     1
 10
0.0
 20
0.0
 30
0.0
  3
*D15
  1

  0
LINE
  5
1F863
330
1DAE6
100
AcDbEntity
  8
寸法
 62
     0
 48
50.0
370
    -2
100
AcDbLine
 10
8959.514259514151
 20
7691.190236682782
 30
0.0
 11
8959.514259514151
 21
8548.711542589549
 31
0.0
  0
LINE
  5
1F864
330
1DAE6
100
AcDbEntity
  8
寸法
 62
     0
 48
50.0
370
    -2
100
AcDbLine
 10
9004.51425951415
 20
8296.250847072711
 30
0.0
 11
9004.51425951415
 21
8548.711542589549
 31
0.0
  0
LINE
  5
1F865
330
1DAE6
100
AcDbEntity
  8
寸法
 62
     0
 48
50.0
370
    -2
100
AcDbLine
 10
8959.514259514151
 20
8488.711542589548
 30
0.0
 11
8859.514259514151
 21
8488.711542589548
 31
0.0
  0
LINE
  5
1F866
330
1DAE6
100
AcDbEntity
  8
寸法
 62
     0
 48
50.0
370
    -2
100
AcDbLine
 10
9004.51425951415
 20
8488.711542589548
 30
0.0
 11
9104.514259514152
 21
8488.711542589548
 31
0.0
  0
LINE
  5
1F867
330
1DAE6
100
AcDbEntity
  8
寸法
 62
     0
 48
50.0
370
    -2
100
AcDbLine
 10
8959.514259514151
 20
8488.711542589548
 30
0.0
 11
9004.51425951415
 21
8488.711542589548
 31
0.0
  0
INSERT
  5
1F868
330
1DAE6
100
AcDbEntity
  8
寸法
 62
     0
 48
50.0
370
    -2
100
AcDbBlockReference
  2
_DOTSMALL
 10
8959.514259514151
 20
8488.711542589548
 30
0.0
 41
100.0
 42
100.0
 43
100.0
  0
INSERT
  5
1F869
330
1DAE6
100
AcDbEntity
  8
寸法
 62
     0
 48
50.0
370
    -2
100
AcDbBlockReference
  2
_DOTSMALL
 10
9004.51425951415
 20
8488.711542589548
 30
0.0
 41
100.0
 42
100.0
 43
100.0
 50
180.0
  0
MTEXT
  5
1F86A
330
1DAE6
100
AcDbEntity
  8
寸法
 62
     7
 48
50.0
100
AcDbMText
 10
8982.014259514151
 20
8588.711542589548
 30
0.0
 40
120.0
 41
0.0
 71
     5
 72
     1
  1
\A1;a
  7
STYLE1
 73
     1
 44
1.0
1001
ACAD
1000
MTEXTBEGIN
1070
    73
1070
     1
1070
    44
1040
1.0
1070
    74
1070
     0
1000
MTEXTEND
  0
POINT
  5
1F86B
330
1DAE6
100
AcDbEntity
  8
DEFPOINTS
 62
     0
 48
50.0
100
AcDbPoint
 10
8959.514259514151
 20
7671.190236682781
 30
0.0
  0
POINT
  5
1F86C
330
1DAE6
100
AcDbEntity
  8
DEFPOINTS
 62
     0
 48
50.0
100
AcDbPoint
 10
9004.51425951415
 20
8276.250847072711
 30
0.0
  0
POINT
  5
1F86D
330
1DAE6
100
AcDbEntity
  8
DEFPOINTS
 62
     0
 48
50.0
100
AcDbPoint
 10
9004.51425951415
 20
8488.711542589548
 30
0.0
  0
ENDBLK
  5
1DAF2
330
1DAE6
100
AcDbEntity
  8
0
 48
50.0
100
AcDbBlockEnd
  0
BLOCK
  5
1DAFE
330
1DAF3
100
AcDbEntity
  8
0
 48
50.0
100
AcDbBlockBegin
  2
*D16
 70
     1
 10
0.0
 20
0.0
 30
0.0
  3
*D16
  1

  0
LINE
  5
1FE68
330
1DAF3
100
AcDbEntity
  8
寸法
 62
     0
 48
50.0
370
    -2
100
AcDbLine
 10
8959.514259514151
 20
7022.91903611287
 30
0.0
 11
8959.514259514151
 21
6924.422404093454
 31
0.0
  0
LINE
  5
1FE69
330
1DAF3
100
AcDbEntity
  8
寸法
 62
     0
 48
50.0
370
    -2
100
AcDbLine
 10
8839.51425951415
 20
7022.91903611287
 30
0.0
 11
8839.51425951415
 21
6924.422404093454
 31
0.0
  0
LINE
  5
1FE6A
330
1DAF3
100
AcDbEntity
  8
寸法
 62
     0
 48
50.0
370
    -2
100
AcDbLine
 10
8839.51425951415
 20
6984.422404093454
 30
0.0
 11
8959.514259514151
 21
6984.422404093454
 31
0.0
  0
LINE
  5
1FE6B
330
1DAF3
100
AcDbEntity
  8
寸法
 62
     0
 48
50.0
370
    -2
100
AcDbLine
 10
8959.514259514151
 20
6984.422404093454
 30
0.0
 11
9331.608747703128
 21
6984.422404093454
 31
0.0
  0
INSERT
  5
1FE6C
330
1DAF3
100
AcDbEntity
  8
寸法
 62
     0
 48
50.0
370
    -2
100
AcDbBlockReference
  2
_DOTSMALL
 10
8839.51425951415
 20
6984.422404093454
 30
0.0
 41
100.0
 42
100.0
 43
100.0
 50
180.0
  0
INSERT
  5
1FE6D
330
1DAF3
100
AcDbEntity
  8
寸法
 62
     0
 48
50.0
370
    -2
100
AcDbBlockReference
  2
_DOTSMALL
 10
8959.514259514151
 20
6984.422404093454
 30
0.0
 41
100.0
 42
100.0
 43
100.0
  0
MTEXT
  5
1FE6E
330
1DAF3
100
AcDbEntity
  8
寸法
 62
     7
 48
50.0
100
AcDbMText
 10
9195.56150360864
 20
7084.434215117075
 30
0.0
 40
120.0
 41
0.0
 71
     5
 72
     1
  1
\A1;120
  7
STYLE1
 73
     1
 44
1.0
1001
ACAD
1000
MTEXTBEGIN
1070
    73
1070
     1
1070
    44
1040
1.0
1070
    74
1070
     0
1000
MTEXTEND
  0
POINT
  5
1FE6F
330
1DAF3
100
AcDbEntity
  8
DEFPOINTS
 62
     0
 48
50.0
100
AcDbPoint
 10
8959.514259514151
 20
7042.919036112869
 30
0.0
  0
POINT
  5
1FE70
330
1DAF3
100
AcDbEntity
  8
DEFPOINTS
 62
     0
 48
50.0
100
AcDbPoint
 10
8839.51425951415
 20
7042.919036112869
 30
0.0
  0
POINT
  5
1FE71
330
1DAF3
100
AcDbEntity
  8
DEFPOINTS
 62
     0
 48
50.0
100
AcDbPoint
 10
8839.51425951415
 20
6984.422404093454
 30
0.0
  0
ENDBLK
  5
1DAFF
330
1DAF3
100
AcDbEntity
  8
0
 48
50.0
100
AcDbBlockEnd
  0
BLOCK
  5
1DB0B
330
1DB00
100
AcDbEntity
  8
0
 48
50.0
100
AcDbBlockBegin
  2
*D17
 70
     1
 10
0.0
 20
0.0
 30
0.0
  3
*D17
  1

  0
LINE
  5
1FE7C
330
1DB00
100
AcDbEntity
  8
寸法
 62
     0
 48
50.0
370
    -2
100
AcDbLine
 10
7409.514259514151
 20
7402.919036112861
 30
0.0
 11
7680.024443427175
 21
7402.919036112861
 31
0.0
  0
LINE
  5
1FE7D
330
1DB00
100
AcDbEntity
  8
寸法
 62
     0
 48
50.0
370
    -2
100
AcDbLine
 10
7409.514259514151
 20
7292.919036112856
 30
0.0
 11
7680.024443427175
 21
7292.919036112856
 31
0.0
  0
LINE
  5
1FE7E
330
1DB00
100
AcDbEntity
  8
寸法
 62
     0
 48
50.0
370
    -2
100
AcDbLine
 10
7620.024443427175
 20
7402.919036112861
 30
0.0
 11
7620.024443427175
 21
7292.919036112856
 31
0.0
  0
LINE
  5
1FE7F
330
1DB00
100
AcDbEntity
  8
寸法
 62
     0
 48
50.0
370
    -2
100
AcDbLine
 10
7620.024443427175
 20
7292.919036112856
 30
0.0
 11
7620.024443427175
 21
6930.551083440445
 31
0.0
  0
INSERT
  5
1FE80
330
1DB00
100
AcDbEntity
  8
寸法
 62
     0
 48
50.0
370
    -2
100
AcDbBlockReference
  2
_DOTSMALL
 10
7620.024443427175
 20
7402.919036112861
 30
0.0
 41
100.0
 42
100.0
 43
100.0
 50
90.0
  0
INSERT
  5
1FE81
330
1DB00
100
AcDbEntity
  8
寸法
 62
     0
 48
50.0
370
    -2
100
AcDbBlockReference
  2
_DOTSMALL
 10
7620.024443427175
 20
7292.919036112856
 30
0.0
 41
100.0
 42
100.0
 43
100.0
 50
270.0
  0
MTEXT
  5
1FE82
330
1DB00
100
AcDbEntity
  8
寸法
 62
     7
 48
50.0
100
AcDbMText
 10
7520.024443427172
 20
7054.598327534932
 30
0.0
 40
120.0
 41
0.0
 71
     5
 72
     1
  1
\A1;110
  7
STYLE1
 11
0.0000000000000001
 21
1.0
 31
0.0
 73
     1
 44
1.0
1001
ACAD
1000
MTEXTBEGIN
1070
    73
1070
     1
1070
    44
1040
1.0
1070
    74
1070
     0
1000
MTEXTEND
  0
POINT
  5
1FE83
330
1DB00
100
AcDbEntity
  8
DEFPOINTS
 62
     0
 48
50.0
100
AcDbPoint
 10
7389.51425951415
 20
7402.919036112861
 30
0.0
  0
POINT
  5
1FE84
330
1DB00
100
AcDbEntity
  8
DEFPOINTS
 62
     0
 48
50.0
100
AcDbPoint
 10
7389.51425951415
 20
7292.919036112856
 30
0.0
  0
POINT
  5
1FE85
330
1DB00
100
AcDbEntity
  8
DEFPOINTS
 62
     0
 48
50.0
100
AcDbPoint
 10
7620.024443427175
 20
7292.919036112856
 30
0.0
  0
ENDBLK
  5
1DB0C
330
1DB00
100
AcDbEntity
  8
0
 48
50.0
100
AcDbBlockEnd
  0
BLOCK
  5
1DB18
330
1DB0D
100
AcDbEntity
  8
0
 48
50.0
100
AcDbBlockBegin
  2
*D18
 70
     1
 10
0.0
 20
0.0
 30
0.0
  3
*D18
  1

  0
LINE
  5
1FE5E
330
1DB0D
100
AcDbEntity
  8
寸法
 62
     0
 48
50.0
370
    -2
100
AcDbLine
 10
8839.51425951415
 20
7022.91903611287
 30
0.0
 11
8839.51425951415
 21
6924.422404093454
 31
0.0
  0
LINE
  5
1FE5F
330
1DB0D
100
AcDbEntity
  8
寸法
 62
     0
 48
50.0
370
    -2
100
AcDbLine
 10
8729.514259514152
 20
7272.919036112859
 30
0.0
 11
8729.514259514152
 21
6924.422404093454
 31
0.0
  0
LINE
  5
1FE60
330
1DB0D
100
AcDbEntity
  8
寸法
 62
     0
 48
50.0
370
    -2
100
AcDbLine
 10
8839.51425951415
 20
6984.422404093454
 30
0.0
 11
8729.514259514152
 21
6984.422404093454
 31
0.0
  0
LINE
  5
1FE61
330
1DB0D
100
AcDbEntity
  8
寸法
 62
     0
 48
50.0
370
    -2
100
AcDbLine
 10
8729.514259514152
 20
6984.422404093454
 30
0.0
 11
8369.419771325175
 21
6984.422404093454
 31
0.0
  0
INSERT
  5
1FE62
330
1DB0D
100
AcDbEntity
  8
寸法
 62
     0
 48
50.0
370
    -2
100
AcDbBlockReference
  2
_DOTSMALL
 10
8839.51425951415
 20
6984.422404093454
 30
0.0
 41
100.0
 42
100.0
 43
100.0
  0
INSERT
  5
1FE63
330
1DB0D
100
AcDbEntity
  8
寸法
 62
     0
 48
50.0
370
    -2
100
AcDbBlockReference
  2
_DOTSMALL
 10
8729.514259514152
 20
6984.422404093454
 30
0.0
 41
100.0
 42
100.0
 43
100.0
 50
180.0
  0
MTEXT
  5
1FE64
330
1DB0D
100
AcDbEntity
  8
寸法
 62
     7
 48
50.0
100
AcDbMText
 10
8493.467015419662
 20
7084.422404093453
 30
0.0
 40
120.0
 41
0.0
 71
     5
 72
     1
  1
\A1;110
  7
STYLE1
 73
     1
 44
1.0
1001
ACAD
1000
MTEXTBEGIN
1070
    73
1070
     1
1070
    44
1040
1.0
1070
    74
1070
     0
1000
MTEXTEND
  0
POINT
  5
1FE65
330
1DB0D
100
AcDbEntity
  8
DEFPOINTS
 62
     0
 48
50.0
100
AcDbPoint
 10
8839.51425951415
 20
7042.919036112869
 30
0.0
  0
POINT
  5
1FE66
330
1DB0D
100
AcDbEntity
  8
DEFPOINTS
 62
     0
 48
50.0
100
AcDbPoint
 10
8729.514259514152
 20
7292.919036112859
 30
0.0
  0
POINT
  5
1FE67
330
1DB0D
100
AcDbEntity
  8
DEFPOINTS
 62
     0
 48
50.0
100
AcDbPoint
 10
8729.514259514152
 20
6984.422404093454
 30
0.0
  0
ENDBLK
  5
1DB19
330
1DB0D
100
AcDbEntity
  8
0
 48
50.0
100
AcDbBlockEnd
  0
BLOCK
  5
1DB25
330
1DB1A
100
AcDbEntity
  8
0
 48
50.0
100
AcDbBlockBegin
  2
*D19
 70
     1
 10
0.0
 20
0.0
 30
0.0
  3
*D19
  1

  0
LINE
  5
1FE72
330
1DB1A
100
AcDbEntity
  8
寸法
 62
     0
 48
50.0
370
    -2
100
AcDbLine
 10
7381.514259514151
 20
7522.919036112859
 30
0.0
 11
7680.024443427173
 21
7522.919036112859
 31
0.0
  0
LINE
  5
1FE73
330
1DB1A
100
AcDbEntity
  8
寸法
 62
     0
 48
50.0
370
    -2
100
AcDbLine
 10
7409.514259514151
 20
7402.919036112861
 30
0.0
 11
7680.024443427173
 21
7402.919036112861
 31
0.0
  0
LINE
  5
1FE74
330
1DB1A
100
AcDbEntity
  8
寸法
 62
     0
 48
50.0
370
    -2
100
AcDbLine
 10
7620.024443427173
 20
7402.919036112861
 30
0.0
 11
7620.024443427173
 21
7522.919036112859
 31
0.0
  0
LINE
  5
1FE75
330
1DB1A
100
AcDbEntity
  8
寸法
 62
     0
 48
50.0
370
    -2
100
AcDbLine
 10
7620.024443427173
 20
7522.919036112859
 30
0.0
 11
7620.024443427173
 21
7895.013524301837
 31
0.0
  0
INSERT
  5
1FE76
330
1DB1A
100
AcDbEntity
  8
寸法
 62
     0
 48
50.0
370
    -2
100
AcDbBlockReference
  2
_DOTSMALL
 10
7620.024443427173
 20
7402.919036112861
 30
0.0
 41
100.0
 42
100.0
 43
100.0
 50
270.0
  0
INSERT
  5
1FE77
330
1DB1A
100
AcDbEntity
  8
寸法
 62
     0
 48
50.0
370
    -2
100
AcDbBlockReference
  2
_DOTSMALL
 10
7620.024443427173
 20
7522.919036112859
 30
0.0
 41
100.0
 42
100.0
 43
100.0
 50
90.0
  0
MTEXT
  5
1FE78
330
1DB1A
100
AcDbEntity
  8
寸法
 62
     7
 48
50.0
100
AcDbMText
 10
7520.012632403551
 20
7758.96628020735
 30
0.0
 40
120.0
 41
0.0
 71
     5
 72
     1
  1
\A1;120
  7
STYLE1
 11
0.0000000000000001
 21
1.0
 31
0.0
 73
     1
 44
1.0
1001
ACAD
1000
MTEXTBEGIN
1070
    73
1070
     1
1070
    44
1040
1.0
1070
    74
1070
     0
1000
MTEXTEND
  0
POINT
  5
1FE79
330
1DB1A
100
AcDbEntity
  8
DEFPOINTS
 62
     0
 48
50.0
100
AcDbPoint
 10
7361.514259514151
 20
7522.919036112859
 30
0.0
  0
POINT
  5
1FE7A
330
1DB1A
100
AcDbEntity
  8
DEFPOINTS
 62
     0
 48
50.0
100
AcDbPoint
 10
7389.51425951415
 20
7402.919036112861
 30
0.0
  0
POINT
  5
1FE7B
330
1DB1A
100
AcDbEntity
  8
DEFPOINTS
 62
     0
 48
50.0
100
AcDbPoint
 10
7620.024443427173
 20
7402.919036112861
 30
0.0
  0
ENDBLK
  5
1DB26
330
1DB1A
100
AcDbEntity
  8
0
 48
50.0
100
AcDbBlockEnd
  0
BLOCK
  5
1E9D9
330
1E9D0
100
AcDbEntity
  8
0
 48
50.0
100
AcDbBlockBegin
  2
*D20
 70
     1
 10
0.0
 20
0.0
 30
0.0
  3
*D20
  1

  0
LINE
  5
1F96C
330
1E9D0
100
AcDbEntity
  8
寸法
 62
     0
 48
50.0
370
    -2
100
AcDbLine
 10
8129.514259514143
 20
6622.919036112868
 30
0.0
 11
8314.88827706484
 21
6622.919036112868
 31
0.0
  0
LINE
  5
1F96D
330
1E9D0
100
AcDbEntity
  8
寸法
 62
     0
 48
50.0
370
    -2
100
AcDbLine
 10
8079.514259514152
 20
7522.919036112863
 30
0.0
 11
8314.88827706484
 21
7522.919036112863
 31
0.0
  0
LINE
  5
1F96E
330
1E9D0
100
AcDbEntity
  8
寸法
 62
     0
 48
50.0
370
    -2
100
AcDbLine
 10
8254.888277064841
 20
6622.919036112868
 30
0.0
 11
8254.888277064841
 21
7522.919036112863
 31
0.0
  0
INSERT
  5
1F96F
330
1E9D0
100
AcDbEntity
  8
寸法
 62
     0
 48
50.0
370
    -2
100
AcDbBlockReference
  2
_DOTSMALL
 10
8254.888277064841
 20
6622.919036112868
 30
0.0
 41
100.0
 42
100.0
 43
100.0
 50
270.0
  0
INSERT
  5
1F970
330
1E9D0
100
AcDbEntity
  8
寸法
 62
     0
 48
50.0
370
    -2
100
AcDbBlockReference
  2
_DOTSMALL
 10
8254.888277064841
 20
7522.919036112863
 30
0.0
 41
100.0
 42
100.0
 43
100.0
 50
90.0
  0
MTEXT
  5
1F971
330
1E9D0
100
AcDbEntity
  8
寸法
 62
     7
 48
50.0
100
AcDbMText
 10
8154.888277064838
 20
7072.919036112867
 30
0.0
 40
120.0
 41
0.0
 71
     5
 72
     1
  1
\A1;900
  7
STYLE1
 11
0.0000000000000001
 21
1.0
 31
0.0
 73
     1
 44
1.0
1001
ACAD
1000
MTEXTBEGIN
1070
    73
1070
     1
1070
    44
1040
1.0
1070
    74
1070
     0
1000
MTEXTEND
  0
POINT
  5
1F972
330
1E9D0
100
AcDbEntity
  8
DEFPOINTS
 62
     0
 48
50.0
100
AcDbPoint
 10
8109.514259514142
 20
6622.919036112868
 30
0.0
  0
POINT
  5
1F973
330
1E9D0
100
AcDbEntity
  8
DEFPOINTS
 62
     0
 48
50.0
100
AcDbPoint
 10
8059.51425951415
 20
7522.919036112863
 30
0.0
  0
POINT
  5
1F974
330
1E9D0
100
AcDbEntity
  8
DEFPOINTS
 62
     0
 48
50.0
100
AcDbPoint
 10
8254.888277064841
 20
7522.919036112863
 30
0.0
  0
ENDBLK
  5
1E9DA
330
1E9D0
100
AcDbEntity
  8
0
 48
50.0
100
AcDbBlockEnd
  0
BLOCK
  5
1EA3C
330
1EA32
100
AcDbEntity
  8
0
 48
50.0
100
AcDbBlockBegin
  2
*D21
 70
     1
 10
0.0
 20
0.0
 30
0.0
  3
*D21
  1

  0
LINE
  5
1F963
330
1EA32
100
AcDbEntity
  8
寸法
 62
     0
 48
50.0
370
    -2
100
AcDbLine
 10
8079.514259514152
 20
5722.919036112869
 30
0.0
 11
8314.88827706485
 21
5722.919036112869
 31
0.0
  0
LINE
  5
1F964
330
1EA32
100
AcDbEntity
  8
寸法
 62
     0
 48
50.0
370
    -2
100
AcDbLine
 10
8129.514259514143
 20
6622.919036112868
 30
0.0
 11
8314.88827706485
 21
6622.919036112868
 31
0.0
  0
LINE
  5
1F965
330
1EA32
100
AcDbEntity
  8
寸法
 62
     0
 48
50.0
370
    -2
100
AcDbLine
 10
8254.88827706485
 20
5722.919036112869
 30
0.0
 11
8254.88827706485
 21
6622.919036112868
 31
0.0
  0
MTEXT
  5
1F966
330
1EA32
100
AcDbEntity
  8
寸法
 62
     7
 48
50.0
100
AcDbMText
 10
8154.888277064848
 20
6097.131811778035
 30
0.0
 40
120.0
 41
0.0
 71
     5
 72
     1
  1
\A1;900
  7
STYLE1
 11
0.0000000000000001
 21
1.0
 31
0.0
 73
     1
 44
1.0
1001
ACAD
1000
MTEXTBEGIN
1070
    73
1070
     1
1070
    44
1040
1.0
1070
    74
1070
     0
1000
MTEXTEND
  0
INSERT
  5
1F967
330
1EA32
100
AcDbEntity
  8
寸法
 62
     0
 48
50.0
370
    -2
100
AcDbBlockReference
  2
_DOTSMALL
 10
8254.88827706485
 20
5722.919036112869
 30
0.0
 41
100.0
 42
100.0
 43
100.0
 50
270.0
  0
INSERT
  5
1F968
330
1EA32
100
AcDbEntity
  8
寸法
 62
     0
 48
50.0
370
    -2
100
AcDbBlockReference
  2
_DOTSMALL
 10
8254.88827706485
 20
6622.919036112868
 30
0.0
 41
100.0
 42
100.0
 43
100.0
 50
90.0
  0
POINT
  5
1F969
330
1EA32
100
AcDbEntity
  8
DEFPOINTS
 62
     0
 48
50.0
100
AcDbPoint
 10
8059.51425951415
 20
5722.919036112869
 30
0.0
  0
POINT
  5
1F96A
330
1EA32
100
AcDbEntity
  8
DEFPOINTS
 62
     0
 48
50.0
100
AcDbPoint
 10
8109.514259514142
 20
6622.919036112868
 30
0.0
  0
POINT
  5
1F96B
330
1EA32
100
AcDbEntity
  8
DEFPOINTS
 62
     0
 48
50.0
100
AcDbPoint
 10
8254.88827706485
 20
6622.919036112868
 30
0.0
  0
ENDBLK
  5
1EA3D
330
1EA32
100
AcDbEntity
  8
0
 48
50.0
100
AcDbBlockEnd
  0
BLOCK
  5
1F253
330
1F24A
100
AcDbEntity
  8
0
 48
50.0
100
AcDbBlockBegin
  2
*D22
 70
     1
 10
0.0
 20
0.0
 30
0.0
  3
*D22
  1

  0
LINE
  5
1F9DD
330
1F24A
100
AcDbEntity
  8
寸法
 62
     0
 48
50.0
370
    -2
100
AcDbLine
 10
8059.51425951415
 20
6842.919036112869
 30
0.0
 11
8059.51425951415
 21
8109.828801761191
 31
0.0
  0
LINE
  5
1F9DE
330
1F24A
100
AcDbEntity
  8
寸法
 62
     0
 48
50.0
370
    -2
100
AcDbLine
 10
7159.51425951415
 20
7542.919036112862
 30
0.0
 11
7159.51425951415
 21
8109.828801761191
 31
0.0
  0
LINE
  5
1F9DF
330
1F24A
100
AcDbEntity
  8
寸法
 62
     0
 48
50.0
370
    -2
100
AcDbLine
 10
8059.51425951415
 20
8049.82880176119
 30
0.0
 11
7159.51425951415
 21
8049.82880176119
 31
0.0
  0
INSERT
  5
1F9E0
330
1F24A
100
AcDbEntity
  8
寸法
 62
     0
 48
50.0
370
    -2
100
AcDbBlockReference
  2
_DOTSMALL
 10
8059.51425951415
 20
8049.82880176119
 30
0.0
 41
100.0
 42
100.0
 43
100.0
  0
INSERT
  5
1F9E1
330
1F24A
100
AcDbEntity
  8
寸法
 62
     0
 48
50.0
370
    -2
100
AcDbBlockReference
  2
_DOTSMALL
 10
7159.51425951415
 20
8049.82880176119
 30
0.0
 41
100.0
 42
100.0
 43
100.0
 50
180.0
  0
MTEXT
  5
1F9E2
330
1F24A
100
AcDbEntity
  8
寸法
 62
     7
 48
50.0
100
AcDbMText
 10
7609.514259514149
 20
8149.82880176119
 30
0.0
 40
120.0
 41
0.0
 71
     5
 72
     1
  1
\A1;900
  7
STYLE1
 73
     1
 44
1.0
1001
ACAD
1000
MTEXTBEGIN
1070
    73
1070
     1
1070
    44
1040
1.0
1070
    74
1070
     0
1000
MTEXTEND
  0
POINT
  5
1F9E3
330
1F24A
100
AcDbEntity
  8
DEFPOINTS
 62
     0
 48
50.0
100
AcDbPoint
 10
8059.51425951415
 20
6822.91903611287
 30
0.0
  0
POINT
  5
1F9E4
330
1F24A
100
AcDbEntity
  8
DEFPOINTS
 62
     0
 48
50.0
100
AcDbPoint
 10
7159.51425951415
 20
7522.919036112863
 30
0.0
  0
POINT
  5
1F9E5
330
1F24A
100
AcDbEntity
  8
DEFPOINTS
 62
     0
 48
50.0
100
AcDbPoint
 10
7159.51425951415
 20
8049.82880176119
 30
0.0
  0
ENDBLK
  5
1F254
330
1F24A
100
AcDbEntity
  8
0
 48
50.0
100
AcDbBlockEnd
  0
BLOCK
  5
1F25F
330
1F255
100
AcDbEntity
  8
0
 48
50.0
100
AcDbBlockBegin
  2
*D23
 70
     1
 10
0.0
 20
0.0
 30
0.0
  3
*D23
  1

  0
LINE
  5
1F9E6
330
1F255
100
AcDbEntity
  8
寸法
 62
     0
 48
50.0
370
    -2
100
AcDbLine
 10
8959.514259514149
 20
7542.919036112862
 30
0.0
 11
8959.514259514149
 21
8109.828801761191
 31
0.0
  0
LINE
  5
1F9E7
330
1F255
100
AcDbEntity
  8
寸法
 62
     0
 48
50.0
370
    -2
100
AcDbLine
 10
8059.51425951415
 20
6842.919036112869
 30
0.0
 11
8059.51425951415
 21
8109.828801761191
 31
0.0
  0
LINE
  5
1F9E8
330
1F255
100
AcDbEntity
  8
寸法
 62
     0
 48
50.0
370
    -2
100
AcDbLine
 10
8959.514259514149
 20
8049.82880176119
 30
0.0
 11
8059.51425951415
 21
8049.82880176119
 31
0.0
  0
MTEXT
  5
1F9E9
330
1F255
100
AcDbEntity
  8
寸法
 62
     7
 48
50.0
100
AcDbMText
 10
8530.432781520428
 20
8149.82880176119
 30
0.0
 40
120.0
 41
0.0
 71
     5
 72
     1
  1
\A1;900
  7
STYLE1
 73
     1
 44
1.0
1001
ACAD
1000
MTEXTBEGIN
1070
    73
1070
     1
1070
    44
1040
1.0
1070
    74
1070
     0
1000
MTEXTEND
  0
INSERT
  5
1F9EA
330
1F255
100
AcDbEntity
  8
寸法
 62
     0
 48
50.0
370
    -2
100
AcDbBlockReference
  2
_DOTSMALL
 10
8959.514259514149
 20
8049.82880176119
 30
0.0
 41
100.0
 42
100.0
 43
100.0
  0
INSERT
  5
1F9EB
330
1F255
100
AcDbEntity
  8
寸法
 62
     0
 48
50.0
370
    -2
100
AcDbBlockReference
  2
_DOTSMALL
 10
8059.51425951415
 20
8049.82880176119
 30
0.0
 41
100.0
 42
100.0
 43
100.0
 50
180.0
  0
POINT
  5
1F9EC
330
1F255
100
AcDbEntity
  8
DEFPOINTS
 62
     0
 48
50.0
100
AcDbPoint
 10
8959.514259514149
 20
7522.919036112863
 30
0.0
  0
POINT
  5
1F9ED
330
1F255
100
AcDbEntity
  8
DEFPOINTS
 62
     0
 48
50.0
100
AcDbPoint
 10
8059.51425951415
 20
6822.91903611287
 30
0.0
  0
POINT
  5
1F9EE
330
1F255
100
AcDbEntity
  8
DEFPOINTS
 62
     0
 48
50.0
100
AcDbPoint
 10
8059.51425951415
 20
8049.82880176119
 30
0.0
  0
ENDBLK
  5
1F260
330
1F255
100
AcDbEntity
  8
0
 48
50.0
100
AcDbBlockEnd
  0
BLOCK
  5
1FCFB
330
1FCF2
100
AcDbEntity
  8
0
 48
50.0
100
AcDbBlockBegin
  2
*D24
 70
     1
 10
0.0
 20
0.0
 30
0.0
  3
*D24
  1

  0
LINE
  5
1FE55
330
1FCF2
100
AcDbEntity
  8
寸法
 62
     0
 48
50.0
370
    -2
100
AcDbLine
 10
7330.111439315904
 20
2242.227651819463
 30
0.0
 11
7871.98003908475
 21
2242.227651819463
 31
0.0
  0
LINE
  5
1FE56
330
1FCF2
100
AcDbEntity
  8
寸法
 62
     0
 48
50.0
370
    -2
100
AcDbLine
 10
7330.111439315904
 20
1918.227651819462
 30
0.0
 11
7871.980039084748
 21
1918.227651819462
 31
0.0
  0
LINE
  5
1FE57
330
1FCF2
100
AcDbEntity
  8
寸法
 62
     0
 48
50.0
370
    -2
100
AcDbLine
 10
7811.98003908475
 20
2242.227651819463
 30
0.0
 11
7811.980039084748
 21
1918.227651819462
 31
0.0
  0
INSERT
  5
1FE58
330
1FCF2
100
AcDbEntity
  8
寸法
 62
     0
 48
50.0
370
    -2
100
AcDbBlockReference
  2
_DOTSMALL
 10
7811.98003908475
 20
2242.227651819463
 30
0.0
 41
100.0
 42
100.0
 43
100.0
 50
90.0
  0
INSERT
  5
1FE59
330
1FCF2
100
AcDbEntity
  8
寸法
 62
     0
 48
50.0
370
    -2
100
AcDbBlockReference
  2
_DOTSMALL
 10
7811.980039084748
 20
1918.227651819462
 30
0.0
 41
100.0
 42
100.0
 43
100.0
 50
270.0
  0
MTEXT
  5
1FE5A
330
1FCF2
100
AcDbEntity
  8
寸法
 62
     7
 48
50.0
100
AcDbMText
 10
7711.980039084749
 20
2080.227651819464
 30
0.0
 40
120.0
 41
0.0
 71
     5
 72
     1
  1
\A1;180
  7
STYLE1
 11
0.0000000000000001
 21
1.0
 31
0.0
 73
     1
 44
1.0
1001
ACAD
1000
MTEXTBEGIN
1070
    73
1070
     1
1070
    44
1040
1.0
1070
    74
1070
     0
1000
MTEXTEND
  0
POINT
  5
1FE5B
330
1FCF2
100
AcDbEntity
  8
DEFPOINTS
 62
     0
 48
50.0
100
AcDbPoint
 10
7310.111439315903
 20
2242.227651819463
 30
0.0
  0
POINT
  5
1FE5C
330
1FCF2
100
AcDbEntity
  8
DEFPOINTS
 62
     0
 48
50.0
100
AcDbPoint
 10
7310.111439315903
 20
1918.227651819462
 30
0.0
  0
POINT
  5
1FE5D
330
1FCF2
100
AcDbEntity
  8
DEFPOINTS
 62
     0
 48
50.0
100
AcDbPoint
 10
7811.980039084748
 20
1918.227651819462
 30
0.0
  0
ENDBLK
  5
1FCFC
330
1FCF2
100
AcDbEntity
  8
0
 48
50.0
100
AcDbBlockEnd
  0
BLOCK
  5
1FD09
330
1FCFD
100
AcDbEntity
  8
0
 48
50.0
100
AcDbBlockBegin
  2
*D25
 70
     1
 10
0.0
 20
0.0
 30
0.0
  3
*D25
  1

  0
LINE
  5
1FE47
330
1FCFD
100
AcDbEntity
  8
寸法
 62
     0
 48
50.0
370
    -2
100
AcDbLine
 10
7142.911439315906
 20
2294.987651819464
 30
0.0
 11
7871.980039084748
 21
2294.987651819464
 31
0.0
  0
LINE
  5
1FE48
330
1FCFD
100
AcDbEntity
  8
寸法
 62
     0
 48
50.0
370
    -2
100
AcDbLine
 10
7330.111439315904
 20
2242.227651819463
 30
0.0
 11
7871.980039084748
 21
2242.227651819463
 31
0.0
  0
LINE
  5
1FE49
330
1FCFD
100
AcDbEntity
  8
寸法
 62
     0
 48
50.0
370
    -2
100
AcDbLine
 10
7811.980039084748
 20
2294.987651819464
 30
0.0
 11
7811.980039084748
 21
2394.987651819464
 31
0.0
  0
LINE
  5
1FE4A
330
1FCFD
100
AcDbEntity
  8
寸法
 62
     0
 48
50.0
370
    -2
100
AcDbLine
 10
7811.980039084748
 20
2242.227651819463
 30
0.0
 11
7811.980039084748
 21
2142.227651819463
 31
0.0
  0
LINE
  5
1FE4B
330
1FCFD
100
AcDbEntity
  8
寸法
 62
     0
 48
50.0
370
    -2
100
AcDbLine
 10
7811.980039084748
 20
2268.607651819463
 30
0.0
 11
8088.034705203778
 21
2257.10369421525
 31
0.0
  0
LINE
  5
1FE4C
330
1FCFD
100
AcDbEntity
  8
寸法
 62
     0
 48
50.0
370
    -2
100
AcDbLine
 10
8088.034705203778
 20
2257.10369421525
 30
0.0
 11
8088.034705203776
 21
1725.085887372284
 31
0.0
  0
MTEXT
  5
1FE4D
330
1FCFD
100
AcDbEntity
  8
寸法
 62
     7
 48
50.0
100
AcDbMText
 10
7988.022894180154
 20
1991.094790793768
 30
0.0
 40
120.0
 41
0.0
 71
     5
 72
     1
  1
\A1;20～25
  7
STYLE1
 11
0.0000000000000001
 21
1.0
 31
0.0
 73
     1
 44
1.0
1001
ACAD
1000
MTEXTBEGIN
1070
    73
1070
     1
1070
    44
1040
1.0
1070
    74
1070
     0
1000
MTEXTEND
  0
LINE
  5
1FE4E
330
1FCFD
100
AcDbEntity
  8
寸法
 62
     0
 48
50.0
370
    -2
100
AcDbLine
 10
7811.980039084748
 20
2294.987651819464
 30
0.0
 11
7811.980039084748
 21
2242.227651819463
 31
0.0
  0
LINE
  5
1FE4F
330
1FCFD
100
AcDbEntity
  8
寸法
 62
     0
 48
50.0
370
    -2
100
AcDbLine
 10
7811.980039084748
 20
2294.987651819464
 30
0.0
 11
7811.980039084748
 21
2242.227651819463
 31
0.0
  0
INSERT
  5
1FE50
330
1FCFD
100
AcDbEntity
  8
寸法
 62
     0
 48
50.0
370
    -2
100
AcDbBlockReference
  2
_DOTSMALL
 10
7811.980039084748
 20
2294.987651819464
 30
0.0
 41
100.0
 42
100.0
 43
100.0
 50
270.0
  0
INSERT
  5
1FE51
330
1FCFD
100
AcDbEntity
  8
寸法
 62
     0
 48
50.0
370
    -2
100
AcDbBlockReference
  2
_DOTSMALL
 10
7811.980039084748
 20
2242.227651819463
 30
0.0
 41
100.0
 42
100.0
 43
100.0
 50
90.0
  0
POINT
  5
1FE52
330
1FCFD
100
AcDbEntity
  8
DEFPOINTS
 62
     0
 48
50.0
100
AcDbPoint
 10
7122.911439315905
 20
2294.987651819464
 30
0.0
  0
POINT
  5
1FE53
330
1FCFD
100
AcDbEntity
  8
DEFPOINTS
 62
     0
 48
50.0
100
AcDbPoint
 10
7310.111439315903
 20
2242.227651819463
 30
0.0
  0
POINT
  5
1FE54
330
1FCFD
100
AcDbEntity
  8
DEFPOINTS
 62
     0
 48
50.0
100
AcDbPoint
 10
7811.980039084748
 20
2242.227651819463
 30
0.0
  0
ENDBLK
  5
1FD0A
330
1FCFD
100
AcDbEntity
  8
0
 48
50.0
100
AcDbBlockEnd
  0
BLOCK
  5
1FD15
330
1FD0B
100
AcDbEntity
  8
0
 48
50.0
100
AcDbBlockBegin
  2
*D26
 70
     1
 10
0.0
 20
0.0
 30
0.0
  3
*D26
  1

  0
LINE
  5
1FE3E
330
1FD0B
100
AcDbEntity
  8
寸法
 62
     0
 48
50.0
370
    -2
100
AcDbLine
 10
5048.072126138711
 20
1698.227651819463
 30
0.0
 11
4865.651812406252
 21
1698.227651819463
 31
0.0
  0
LINE
  5
1FE3F
330
1FD0B
100
AcDbEntity
  8
寸法
 62
     0
 48
50.0
370
    -2
100
AcDbLine
 10
4968.072126138714
 20
1458.227651819463
 30
0.0
 11
4865.651812406252
 21
1458.227651819463
 31
0.0
  0
LINE
  5
1FE40
330
1FD0B
100
AcDbEntity
  8
寸法
 62
     0
 48
50.0
370
    -2
100
AcDbLine
 10
4925.651812406251
 20
1698.227651819463
 30
0.0
 11
4925.651812406251
 21
1458.227651819463
 31
0.0
  0
MTEXT
  5
1FE41
330
1FD0B
100
AcDbEntity
  8
寸法
 62
     7
 48
50.0
100
AcDbMText
 10
4825.651812406252
 20
1578.227651819463
 30
0.0
 40
120.0
 41
0.0
 71
     5
 72
     1
  1
\A1;150
  7
STYLE1
 11
0.0000000000000001
 21
1.0
 31
0.0
 73
     1
 44
1.0
1001
ACAD
1000
MTEXTBEGIN
1070
    73
1070
     1
1070
    44
1040
1.0
1070
    74
1070
     0
1000
MTEXTEND
  0
INSERT
  5
1FE42
330
1FD0B
100
AcDbEntity
  8
寸法
 62
     0
 48
50.0
370
    -2
100
AcDbBlockReference
  2
_DOTSMALL
 10
4925.651812406251
 20
1698.227651819463
 30
0.0
 41
100.0
 42
100.0
 43
100.0
 50
90.0
  0
INSERT
  5
1FE43
330
1FD0B
100
AcDbEntity
  8
寸法
 62
     0
 48
50.0
370
    -2
100
AcDbBlockReference
  2
_DOTSMALL
 10
4925.651812406251
 20
1458.227651819463
 30
0.0
 41
100.0
 42
100.0
 43
100.0
 50
270.0
  0
POINT
  5
1FE44
330
1FD0B
100
AcDbEntity
  8
DEFPOINTS
 62
     0
 48
50.0
100
AcDbPoint
 10
5068.07212613871
 20
1698.227651819463
 30
0.0
  0
POINT
  5
1FE45
330
1FD0B
100
AcDbEntity
  8
DEFPOINTS
 62
     0
 48
50.0
100
AcDbPoint
 10
4988.072126138714
 20
1458.227651819463
 30
0.0
  0
POINT
  5
1FE46
330
1FD0B
100
AcDbEntity
  8
DEFPOINTS
 62
     0
 48
50.0
100
AcDbPoint
 10
4925.651812406251
 20
1458.227651819463
 30
0.0
  0
ENDBLK
  5
1FD16
330
1FD0B
100
AcDbEntity
  8
0
 48
50.0
100
AcDbBlockEnd
  0
BLOCK
  5
1FD21
330
1FD17
100
AcDbEntity
  8
0
 48
50.0
100
AcDbBlockBegin
  2
*D27
 70
     1
 10
0.0
 20
0.0
 30
0.0
  3
*D27
  1

  0
LINE
  5
1FE35
330
1FD17
100
AcDbEntity
  8
寸法
 62
     0
 48
50.0
370
    -2
100
AcDbLine
 10
5176.072126138711
 20
2242.227651819463
 30
0.0
 11
4401.034887576971
 21
2242.227651819463
 31
0.0
  0
LINE
  5
1FE36
330
1FD17
100
AcDbEntity
  8
寸法
 62
     0
 48
50.0
370
    -2
100
AcDbLine
 10
4968.072126138714
 20
1458.227651819463
 30
0.0
 11
4401.034887576969
 21
1458.227651819463
 31
0.0
  0
LINE
  5
1FE37
330
1FD17
100
AcDbEntity
  8
寸法
 62
     0
 48
50.0
370
    -2
100
AcDbLine
 10
4461.03488757697
 20
2242.227651819463
 30
0.0
 11
4461.034887576969
 21
1458.227651819463
 31
0.0
  0
MTEXT
  5
1FE38
330
1FD17
100
AcDbEntity
  8
寸法
 62
     7
 48
50.0
100
AcDbMText
 10
4361.034887576971
 20
1829.767801475464
 30
0.0
 40
120.0
 41
0.0
 71
     5
 72
     1
  1
\A1;540
  7
STYLE1
 11
0.0000000000000001
 21
1.0
 31
0.0
 73
     1
 44
1.0
1001
ACAD
1000
MTEXTBEGIN
1070
    73
1070
     1
1070
    44
1040
1.0
1070
    74
1070
     0
1000
MTEXTEND
  0
INSERT
  5
1FE39
330
1FD17
100
AcDbEntity
  8
寸法
 62
     0
 48
50.0
370
    -2
100
AcDbBlockReference
  2
_DOTSMALL
 10
4461.03488757697
 20
2242.227651819463
 30
0.0
 41
100.0
 42
100.0
 43
100.0
 50
90.0
  0
INSERT
  5
1FE3A
330
1FD17
100
AcDbEntity
  8
寸法
 62
     0
 48
50.0
370
    -2
100
AcDbBlockReference
  2
_DOTSMALL
 10
4461.034887576969
 20
1458.227651819463
 30
0.0
 41
100.0
 42
100.0
 43
100.0
 50
270.0
  0
POINT
  5
1FE3B
330
1FD17
100
AcDbEntity
  8
DEFPOINTS
 62
     0
 48
50.0
100
AcDbPoint
 10
5196.072126138711
 20
2242.227651819463
 30
0.0
  0
POINT
  5
1FE3C
330
1FD17
100
AcDbEntity
  8
DEFPOINTS
 62
     0
 48
50.0
100
AcDbPoint
 10
4988.072126138714
 20
1458.227651819463
 30
0.0
  0
POINT
  5
1FE3D
330
1FD17
100
AcDbEntity
  8
DEFPOINTS
 62
     0
 48
50.0
100
AcDbPoint
 10
4461.034887576969
 20
1458.227651819463
 30
0.0
  0
ENDBLK
  5
1FD22
330
1FD17
100
AcDbEntity
  8
0
 48
50.0
100
AcDbBlockEnd
  0
BLOCK
  5
1FD2D
330
1FD23
100
AcDbEntity
  8
0
 48
50.0
100
AcDbBlockBegin
  2
*D28
 70
     1
 10
0.0
 20
0.0
 30
0.0
  3
*D28
  1

  0
LINE
  5
1FE2C
330
1FD23
100
AcDbEntity
  8
寸法
 62
     0
 48
50.0
370
    -2
100
AcDbLine
 10
5068.07212613871
 20
1310.227651819463
 30
0.0
 11
5068.07212613871
 21
859.7980138143029
 31
0.0
  0
LINE
  5
1FE2D
330
1FD23
100
AcDbEntity
  8
寸法
 62
     0
 48
50.0
370
    -2
100
AcDbLine
 10
5516.072126138711
 20
1310.227651819463
 30
0.0
 11
5516.072126138711
 21
859.7980138143029
 31
0.0
  0
LINE
  5
1FE2E
330
1FD23
100
AcDbEntity
  8
寸法
 62
     0
 48
50.0
370
    -2
100
AcDbLine
 10
5068.07212613871
 20
919.798013814303
 30
0.0
 11
5516.072126138711
 21
919.798013814303
 31
0.0
  0
MTEXT
  5
1FE2F
330
1FD23
100
AcDbEntity
  8
寸法
 62
     7
 48
50.0
100
AcDbMText
 10
5271.975367460488
 20
1019.798013814303
 30
0.0
 40
120.0
 41
0.0
 71
     5
 72
     1
  1
\A1;300
  7
STYLE1
 73
     1
 44
1.0
1001
ACAD
1000
MTEXTBEGIN
1070
    73
1070
     1
1070
    44
1040
1.0
1070
    74
1070
     0
1000
MTEXTEND
  0
INSERT
  5
1FE30
330
1FD23
100
AcDbEntity
  8
寸法
 62
     0
 48
50.0
370
    -2
100
AcDbBlockReference
  2
_DOTSMALL
 10
5068.07212613871
 20
919.798013814303
 30
0.0
 41
100.0
 42
100.0
 43
100.0
 50
180.0
  0
INSERT
  5
1FE31
330
1FD23
100
AcDbEntity
  8
寸法
 62
     0
 48
50.0
370
    -2
100
AcDbBlockReference
  2
_DOTSMALL
 10
5516.072126138711
 20
919.798013814303
 30
0.0
 41
100.0
 42
100.0
 43
100.0
  0
POINT
  5
1FE32
330
1FD23
100
AcDbEntity
  8
DEFPOINTS
 62
     0
 48
50.0
100
AcDbPoint
 10
5068.07212613871
 20
1330.227651819463
 30
0.0
  0
POINT
  5
1FE33
330
1FD23
100
AcDbEntity
  8
DEFPOINTS
 62
     0
 48
50.0
100
AcDbPoint
 10
5516.072126138711
 20
1330.227651819463
 30
0.0
  0
POINT
  5
1FE34
330
1FD23
100
AcDbEntity
  8
DEFPOINTS
 62
     0
 48
50.0
100
AcDbPoint
 10
5516.072126138711
 20
919.798013814303
 30
0.0
  0
ENDBLK
  5
1FD2E
330
1FD23
100
AcDbEntity
  8
0
 48
50.0
100
AcDbBlockEnd
  0
BLOCK
  5
1FD39
330
1FD2F
100
AcDbEntity
  8
0
 48
50.0
100
AcDbBlockBegin
  2
*D29
 70
     1
 10
0.0
 20
0.0
 30
0.0
  3
*D29
  1

  0
LINE
  5
1FE23
330
1FD2F
100
AcDbEntity
  8
寸法
 62
     0
 48
50.0
370
    -2
100
AcDbLine
 10
5388.072126138711
 20
2262.227651819463
 30
0.0
 11
5388.072126138711
 21
2622.227651819463
 31
0.0
  0
LINE
  5
1FE24
330
1FD2F
100
AcDbEntity
  8
寸法
 62
     0
 48
50.0
370
    -2
100
AcDbLine
 10
5196.072126138711
 20
2262.227651819463
 30
0.0
 11
5196.072126138711
 21
2622.227651819463
 31
0.0
  0
LINE
  5
1FE25
330
1FD2F
100
AcDbEntity
  8
寸法
 62
     0
 48
50.0
370
    -2
100
AcDbLine
 10
5388.072126138711
 20
2562.227651819463
 30
0.0
 11
5196.072126138711
 21
2562.227651819463
 31
0.0
  0
MTEXT
  5
1FE26
330
1FD2F
100
AcDbEntity
  8
寸法
 62
     7
 48
50.0
100
AcDbMText
 10
5303.298456483908
 20
2861.907270759465
 30
0.0
 40
120.0
 41
0.0
 71
     5
 72
     1
  1
\A1;120\P170
  7
STYLE1
 73
     1
 44
1.0
1001
ACAD
1000
MTEXTBEGIN
1070
    73
1070
     1
1070
    44
1040
1.0
1070
    74
1070
     0
1000
MTEXTEND
  0
INSERT
  5
1FE27
330
1FD2F
100
AcDbEntity
  8
寸法
 62
     0
 48
50.0
370
    -2
100
AcDbBlockReference
  2
_DOTSMALL
 10
5388.072126138711
 20
2562.227651819463
 30
0.0
 41
100.0
 42
100.0
 43
100.0
  0
INSERT
  5
1FE28
330
1FD2F
100
AcDbEntity
  8
寸法
 62
     0
 48
50.0
370
    -2
100
AcDbBlockReference
  2
_DOTSMALL
 10
5196.072126138711
 20
2562.227651819463
 30
0.0
 41
100.0
 42
100.0
 43
100.0
 50
180.0
  0
POINT
  5
1FE29
330
1FD2F
100
AcDbEntity
  8
DEFPOINTS
 62
     0
 48
50.0
100
AcDbPoint
 10
5388.072126138711
 20
2242.227651819463
 30
0.0
  0
POINT
  5
1FE2A
330
1FD2F
100
AcDbEntity
  8
DEFPOINTS
 62
     0
 48
50.0
100
AcDbPoint
 10
5196.072126138711
 20
2242.227651819463
 30
0.0
  0
POINT
  5
1FE2B
330
1FD2F
100
AcDbEntity
  8
DEFPOINTS
 62
     0
 48
50.0
100
AcDbPoint
 10
5196.072126138711
 20
2562.227651819463
 30
0.0
  0
ENDBLK
  5
1FD3A
330
1FD2F
100
AcDbEntity
  8
0
 48
50.0
100
AcDbBlockEnd
  0
ENDSEC
  0
SECTION
  2
ENTITIES
  0
LINE
  5
10B57
330
747D
100
AcDbEntity
  8
補助
  6
PHANTOM
 62
   230
 48
50.0
100
AcDbLine
 10
139.9999999999995
 20
11409.6
 30
0.0
 11
16307.2
 21
11409.6
 31
0.0
  0
LINE
  5
10B59
330
747D
100
AcDbEntity
  8
仕様書枠
  6
Continuous
 48
50.0
100
AcDbLine
 10
13107.2
 20
1200.0
 30
0.0
 11
13107.2
 21
-0.0000000000000729
 31
0.0
  0
LINE
  5
10B5C
330
747D
100
AcDbEntity
  8
仕様書枠
 48
50.0
100
AcDbLine
 10
16307.2
 20
1200.0
 30
0.0
 11
16307.2
 21
-0.0000000000000909
 31
0.0
  0
LINE
  5
10B5D
330
747D
100
AcDbEntity
  8
仕様書枠
 48
50.0
100
AcDbLine
 10
140.0
 20
0.0
 30
0.0
 11
16307.2
 21
-0.0000000000000909
 31
0.0
  0
LINE
  5
10B5E
330
747D
100
AcDbEntity
  8
補助
  6
PHANTOM
 62
   230
 48
50.0
100
AcDbLine
 10
16307.2
 20
11409.6
 30
0.0
 11
16307.2
 21
1200.0
 31
0.0
  0
LINE
  5
10B6C
330
747D
100
AcDbEntity
  8
仕様書枠
 48
50.0
100
AcDbLine
 10
13107.2
 20
1200.0
 30
0.0
 11
16307.2
 21
1200.0
 31
0.0
  0
LINE
  5
10B6D
330
747D
100
AcDbEntity
  8
補助
  6
PHANTOM
 62
   230
 48
50.0
100
AcDbLine
 10
13107.2
 20
11409.6
 30
0.0
 11
13107.2
 21
4800.0
 31
0.0
  0
LINE
  5
10B6F
330
747D
100
AcDbEntity
  8
補助
  6
PHANTOM
 62
   230
 48
50.0
100
AcDbLine
 10
13107.2
 20
4800.0
 30
0.0
 11
16307.2
 21
4800.0
 31
0.0
  0
LINE
  5
10B72
330
747D
100
AcDbEntity
  8
文字
 62
     7
 48
50.0
100
AcDbLine
 10
13187.2
 20
400.0
 30
0.0
 11
16227.2
 21
400.0
 31
0.0
  0
TEXT
  5
10B73
330
747D
100
AcDbEntity
  8
文字
 62
     7
 48
50.0
100
AcDbText
 10
13162.9790565769
 20
895.0906074299405
 30
0.0
 40
200.0
  1
基 礎 図
  7
STYLE2
100
AcDbText
  0
TEXT
  5
10B74
330
747D
100
AcDbEntity
  8
文字
 62
     7
 48
50.0
100
AcDbText
 10
13201.43669998441
 20
477.2740661031255
 30
0.0
 40
160.0
  1
機種名
  7
STYLE2
100
AcDbText
  0
LINE
  5
10B7B
330
747D
100
AcDbEntity
  8
仕様書枠
 48
50.0
100
AcDbLine
 10
13107.2
 20
800.0
 30
0.0
 11
14251.2
 21
800.0
 31
0.0
  0
LINE
  5
10B88
330
747D
100
AcDbEntity
  8
仕様書枠
  6
Continuous
 48
50.0
100
AcDbLine
 10
14251.2
 20
1200.0
 30
0.0
 11
14251.2
 21
800.0
 31
0.0
  0
TEXT
  5
14DEF
330
747D
100
AcDbEntity
  8
文字
 62
     7
 48
50.0
100
AcDbText
 10
14641.2525855784
 20
871.1744590657925
 30
0.0
 40
100.0
  1
～一般型・多雪地型～
  7
STYLE2
100
AcDbText
  0
TEXT
  5
15A76
330
747D
100
AcDbEntity
  8
文字
 62
     7
 48
50.0
100
AcDbText
 10
14441.42907659117
 20
489.871288645017
 30
0.0
 40
160.0
  1
ＮＸＮ－３２Ｓ・H
  7
STYLE2
100
AcDbText
  0
TEXT
  5
1D002
330
747D
100
AcDbEntity
  8
文字
 62
     7
 48
50.0
100
AcDbText
 10
13188.16259899338
 20
246.7109242801889
 30
0.0
 40
80.0
  1
※寒冷地等は地域の実情に合わせた基礎にして下さい。
  7
STYLE2
100
AcDbText
  0
DIMENSION
  5
1D91B
330
747D
100
AcDbEntity
  8
寸法
 48
50.0
100
AcDbDimension
  2
*D2
 10
7606.221509390249
 20
6022.919036112863
 30
0.0
 11
7606.221509390249
 21
6258.966280207353
 31
0.0
 70
   160
 71
     5
 42
130.0000000000018
  3
INABA_S40G
100
AcDbAlignedDimension
 13
7389.514259514152
 23
5892.919036112861
 33
0.0
 14
7389.514259514152
 24
6022.919036112863
 34
0.0
 50
90.0
100
AcDbRotatedDimension
1001
ACAD
1000
DSTYLE
1002
{
1070
   174
1070
     0
1070
   272
1070
     1
1070
   288
1070
     0
1070
   341
1005
0
1002
}
  0
DIMENSION
  5
1D91C
330
747D
100
AcDbEntity
  8
寸法
 48
50.0
100
AcDbDimension
  2
*D3
 10
7606.221509390249
 20
5722.919036112862
 30
0.0
 11
7606.221509390249
 21
5486.871792018373
 31
0.0
 70
   160
 71
     5
 42
170.0000000000018
  3
INABA_S40G
100
AcDbAlignedDimension
 13
7389.514259514152
 23
5892.919036112863
 33
0.0
 14
7389.514259514152
 24
5722.919036112862
 34
0.0
 50
90.0
100
AcDbRotatedDimension
1001
ACAD
1000
DSTYLE
1002
{
1070
   174
1070
     0
1070
   272
1070
     1
1070
   288
1070
     0
1070
   341
1005
0
1002
}
  0
DIMENSION
  5
1D91D
330
747D
100
AcDbEntity
  8
寸法
 48
50.0
100
AcDbDimension
  2
*D4
 10
7282.514259514151
 20
8276.250847072711
 30
0.0
 11
8059.51425951415
 21
8376.250847072711
 31
0.0
 70
    32
 71
     5
 42
1554.000000000001
  3
INABA_S40G
100
AcDbAlignedDimension
 13
8836.514259514151
 23
7449.919036112861
 33
0.0
 14
7282.514259514151
 24
7449.919036112861
 34
0.0
100
AcDbRotatedDimension
1001
ACAD
1000
DSTYLE
1002
{
1070
   174
1070
     0
1070
   272
1070
     1
1070
   288
1070
     0
1070
   341
1005
0
1002
}
  0
LINE
  5
1D91E
330
747D
100
AcDbEntity
  8
部品1
 48
50.0
100
AcDbLine
 10
8729.514259514152
 20
5892.919036112876
 30
0.0
 11
7389.514259514152
 21
5892.919036112863
 31
0.0
  0
LINE
  5
1D91F
330
747D
100
AcDbEntity
  8
部品1
 48
50.0
100
AcDbLine
 10
8729.514259514152
 20
7402.919036112859
 30
0.0
 11
7389.51425951415
 21
7402.91903611286
 31
0.0
  0
DIMENSION
  5
1D920
330
747D
100
AcDbEntity
  8
寸法
 48
50.0
100
AcDbDimension
  2
*D5
 10
8959.514259514151
 20
8488.711542589548
 30
0.0
 11
8059.51425951415
 21
8588.711542589548
 31
0.0
 70
    32
 71
     5
 42
1800.000000000001
  3
INABA_S40G
100
AcDbAlignedDimension
 13
7159.514259514151
 23
7522.919036112861
 33
0.0
 14
8959.514259514151
 24
7522.919036112861
 34
0.0
100
AcDbRotatedDimension
1001
ACAD
1000
DSTYLE
1002
{
1070
   174
1070
     0
1070
   272
1070
     1
1070
   288
1070
     0
1070
   341
1005
0
1002
}
  0
LINE
  5
1D921
330
747D
100
AcDbEntity
  8
部品1
 48
50.0
100
AcDbLine
 10
8959.514259514151
 20
5722.919036112878
 30
0.0
 11
7159.514259514151
 21
5722.919036112859
 31
0.0
  0
LINE
  5
1D922
330
747D
100
AcDbEntity
  8
部品1
 48
50.0
100
AcDbLine
 10
8959.514259514151
 20
7522.919036112863
 30
0.0
 11
7159.514259514152
 21
7522.919036112861
 31
0.0
  0
LINE
  5
1D923
330
747D
100
AcDbEntity
  8
想像線
 48
10.0
100
AcDbLine
 10
9004.51425951415
 20
5667.919036112856
 30
0.0
 11
7114.514259514152
 21
5667.919036112859
 31
0.0
  0
LINE
  5
1D924
330
747D
100
AcDbEntity
  8
想像線
 48
10.0
100
AcDbLine
 10
7114.514259514152
 20
7597.91903611286
 30
0.0
 11
9004.514259514149
 21
7597.919036112864
 31
0.0
  0
DIMENSION
  5
1D925
330
747D
100
AcDbEntity
  8
寸法
 48
50.0
100
AcDbDimension
  2
*D6
 10
7159.51425951415
 20
8276.250847072711
 30
0.0
 11
6921.028978139911
 21
8276.250847072711
 31
0.0
 70
   160
 71
     5
 42
123.0000000000018
  3
INABA_S40G
100
AcDbAlignedDimension
 13
7282.514259514151
 23
7449.919036112861
 33
0.0
 14
7159.51425951415
 24
7522.919036112859
 34
0.0
100
AcDbRotatedDimension
1001
ACAD
1000
DSTYLE
1002
{
1070
   174
1070
     0
1070
   272
1070
     1
1070
   288
1070
     0
1070
   341
1005
0
1002
}
  0
DIMENSION
  5
1D926
330
747D
100
AcDbEntity
  8
寸法
 48
50.0
100
AcDbDimension
  2
*D7
 10
7159.514259514151
 20
8488.71154258955
 30
0.0
 11
7137.014259514149
 21
8488.71154258955
 31
0.0
 70
   160
  1
a
 71
     5
 42
45.00000000000364
  3
INABA_S40G
100
AcDbAlignedDimension
 13
7114.514259514146
 23
8276.250847072711
 33
0.0
 14
7159.514259514151
 24
7671.190236682781
 34
0.0
100
AcDbRotatedDimension
1001
ACAD
1000
DSTYLE
1002
{
1070
   174
1070
     0
1070
   272
1070
     1
1070
   288
1070
     0
1070
   341
1005
0
1002
}
  0
DIMENSION
  5
1D927
330
747D
100
AcDbEntity
  8
寸法
 48
50.0
100
AcDbDimension
  2
*D8
 10
6663.57199350033
 20
5920.919036112861
 30
0.0
 11
6663.57199350033
 21
6634.05280691343
 31
0.0
 70
   160
 71
     5
 42
1478.999999999999
  3
INABA_S40G
100
AcDbAlignedDimension
 13
7232.514259514151
 23
7399.919036112861
 33
0.0
 14
7232.514259514158
 24
5920.919036112861
 34
0.0
 50
90.0
100
AcDbRotatedDimension
1001
ACAD
1000
DSTYLE
1002
{
1070
   174
1070
     0
1070
   272
1070
     1
1070
   288
1070
     0
1070
   341
1005
0
1002
}
  0
LINE
  5
1D928
330
747D
100
AcDbEntity
  8
部品1
 48
50.0
100
AcDbLine
 10
7279.514259514151
 20
6022.919036112861
 30
0.0
 11
7279.514259514151
 21
7292.919036112859
 31
0.0
  0
DIMENSION
  5
1D929
330
747D
100
AcDbEntity
  8
寸法
 48
50.0
100
AcDbDimension
  2
*D9
 10
6418.079191362363
 20
5722.919036112859
 30
0.0
 11
6418.079191362362
 21
6651.31453344319
 31
0.0
 70
   160
 71
     5
 42
1800.000000000003
  3
INABA_S40G
100
AcDbAlignedDimension
 13
7159.51425951415
 23
7522.919036112863
 33
0.0
 14
7159.514259514151
 24
5722.919036112859
 34
0.0
 50
90.0
100
AcDbRotatedDimension
1001
ACAD
1000
DSTYLE
1002
{
1070
   174
1070
     0
1070
   272
1070
     1
1070
   288
1070
     0
1070
   341
1005
0
1002
}
  0
LINE
  5
1D92A
330
747D
100
AcDbEntity
  8
部品1
 48
50.0
100
AcDbLine
 10
7159.514259514151
 20
5722.919036112859
 30
0.0
 11
7159.514259514152
 21
7522.919036112861
 31
0.0
  0
LINE
  5
1D92B
330
747D
100
AcDbEntity
  8
想像線
 48
10.0
100
AcDbLine
 10
7114.514259514152
 20
5667.919036112859
 30
0.0
 11
7114.514259514152
 21
7597.91903611286
 31
0.0
  0
DIMENSION
  5
1D92C
330
747D
100
AcDbEntity
  8
寸法
 48
50.0
100
AcDbDimension
  2
*D10
 10
6663.57199350033
 20
5722.919036112859
 30
0.0
 11
6663.57199350033
 21
5486.709376283204
 31
0.0
 70
   160
 71
     5
 42
198.0000000000018
  3
INABA_S40G
100
AcDbAlignedDimension
 13
7232.514259514158
 23
5920.919036112861
 33
0.0
 14
7159.514259514151
 24
5722.919036112859
 34
0.0
 50
90.0
100
AcDbRotatedDimension
1001
ACAD
1000
DSTYLE
1002
{
1070
   174
1070
     0
1070
   272
1070
     1
1070
   288
1070
     0
1070
   341
1005
0
1002
}
  0
DIMENSION
  5
1D92D
330
747D
100
AcDbEntity
  8
寸法
 48
50.0
100
AcDbDimension
  2
*D11
 10
6418.079191362363
 20
5667.919036112859
 30
0.0
 11
6418.079191362362
 21
5695.419036112861
 31
0.0
 70
   160
  1
b
 71
     5
 42
55.0
  3
INABA_S40G
100
AcDbAlignedDimension
 13
7159.514259514151
 23
5722.919036112859
 33
0.0
 14
6663.57199350033
 24
5667.919036112859
 34
0.0
 50
90.0
100
AcDbRotatedDimension
1001
ACAD
1000
DSTYLE
1002
{
1070
   174
1070
     0
1070
   272
1070
     1
1070
   288
1070
     0
1070
   341
1005
0
1002
}
  0
LINE
  5
1D92E
330
747D
100
AcDbEntity
  8
センター
 48
2.0
100
AcDbLine
 10
7282.514259514158
 20
5970.919036112861
 30
0.0
 11
7282.514259514158
 21
5870.919036112861
 31
0.0
  0
LINE
  5
1D92F
330
747D
100
AcDbEntity
  8
センター
 48
2.0
100
AcDbLine
 10
7232.514259514158
 20
5920.919036112861
 30
0.0
 11
7332.514259514159
 21
5920.919036112861
 31
0.0
  0
CIRCLE
  5
1D930
330
747D
100
AcDbEntity
  8
部品1
 48
50.0
100
AcDbCircle
 10
7282.514259514158
 20
5920.919036112861
 30
0.0
 40
35.0
  0
LINE
  5
1D931
330
747D
100
AcDbEntity
  8
部品1
 48
50.0
100
AcDbLine
 10
7389.514259514152
 20
6022.919036112863
 30
0.0
 11
7279.514259514151
 21
6022.919036112861
 31
0.0
  0
LINE
  5
1D932
330
747D
100
AcDbEntity
  8
部品1
 48
50.0
100
AcDbLine
 10
7389.514259514152
 20
5892.919036112861
 30
0.0
 11
7389.514259514152
 21
6022.919036112863
 31
0.0
  0
DIMENSION
  5
1D933
330
747D
100
AcDbEntity
  8
寸法
 48
50.0
100
AcDbDimension
  2
*D12
 10
6663.57199350033
 20
7399.919036112861
 30
0.0
 11
6663.571993500328
 21
7761.4043174871
 31
0.0
 70
   160
 71
     5
 42
123.0
  3
INABA_S40G
100
AcDbAlignedDimension
 13
7159.514259514151
 23
7522.91903611286
 33
0.0
 14
7232.514259514151
 24
7399.919036112861
 34
0.0
 50
90.0
100
AcDbRotatedDimension
1001
ACAD
1000
DSTYLE
1002
{
1070
   174
1070
     0
1070
   272
1070
     1
1070
   288
1070
     0
1070
   341
1005
0
1002
}
  0
DIMENSION
  5
1D934
330
747D
100
AcDbEntity
  8
寸法
 48
50.0
100
AcDbDimension
  2
*D13
 10
6418.079191362362
 20
7522.91903611286
 30
0.0
 11
6418.079191362361
 21
7560.419036112863
 31
0.0
 70
   160
  1
c
 71
     5
 42
75.0
  3
INABA_S40G
100
AcDbAlignedDimension
 13
6663.57199350033
 23
7597.91903611286
 33
0.0
 14
7159.514259514151
 24
7522.91903611286
 34
0.0
 50
90.0
100
AcDbRotatedDimension
1001
ACAD
1000
DSTYLE
1002
{
1070
   174
1070
     0
1070
   272
1070
     1
1070
   288
1070
     0
1070
   341
1005
0
1002
}
  0
LINE
  5
1D935
330
747D
100
AcDbEntity
  8
部品1
 48
50.0
100
AcDbLine
 10
7279.514259514151
 20
6722.919036112862
 30
0.0
 11
7159.514259514152
 21
6722.91903611286
 31
0.0
  0
LINE
  5
1D936
330
747D
100
AcDbEntity
  8
部品1
 48
50.0
100
AcDbLine
 10
7279.514259514151
 20
6522.91903611286
 30
0.0
 11
7159.514259514152
 21
6522.91903611286
 31
0.0
  0
LINE
  5
1D938
330
747D
100
AcDbEntity
  8
センター
 48
2.0
100
AcDbLine
 10
7282.514259514151
 20
7449.919036112861
 30
0.0
 11
7282.514259514151
 21
7349.919036112861
 31
0.0
  0
LINE
  5
1D939
330
747D
100
AcDbEntity
  8
センター
 48
2.0
100
AcDbLine
 10
7232.514259514151
 20
7399.919036112861
 30
0.0
 11
7332.514259514152
 21
7399.919036112861
 31
0.0
  0
CIRCLE
  5
1D93A
330
747D
100
AcDbEntity
  8
部品1
 48
50.0
100
AcDbCircle
 10
7282.514259514151
 20
7399.919036112861
 30
0.0
 40
35.0
  0
LINE
  5
1D93B
330
747D
100
AcDbEntity
  8
部品1
 48
50.0
100
AcDbLine
 10
7389.51425951415
 20
7292.919036112856
 30
0.0
 11
7279.51425951415
 21
7292.919036112856
 31
0.0
  0
LINE
  5
1D93C
330
747D
100
AcDbEntity
  8
部品1
 48
50.0
100
AcDbLine
 10
7389.51425951415
 20
7292.919036112856
 30
0.0
 11
7389.51425951415
 21
7402.91903611286
 31
0.0
  0
DIMENSION
  5
1D93E
330
747D
100
AcDbEntity
  8
寸法
 48
50.0
100
AcDbDimension
  2
*D14
 10
8836.514259514151
 20
8276.250847072711
 30
0.0
 11
9197.999540888389
 21
8276.250847072711
 31
0.0
 70
   160
 71
     5
 42
123.0
  3
INABA_S40G
100
AcDbAlignedDimension
 13
8959.514259514151
 23
7522.919036112861
 33
0.0
 14
8836.514259514151
 24
7449.919036112861
 34
0.0
100
AcDbRotatedDimension
1001
ACAD
1000
DSTYLE
1002
{
1070
   174
1070
     0
1070
   272
1070
     1
1070
   288
1070
     0
1070
   341
1005
0
1002
}
  0
DIMENSION
  5
1D93F
330
747D
100
AcDbEntity
  8
寸法
 48
50.0
100
AcDbDimension
  2
*D15
 10
9004.51425951415
 20
8488.711542589548
 30
0.0
 11
8982.014259514151
 21
8488.711542589548
 31
0.0
 70
   160
  1
a
 71
     5
 42
45.0
  3
INABA_S40G
100
AcDbAlignedDimension
 13
8959.514259514151
 23
7671.190236682781
 33
0.0
 14
9004.51425951415
 24
8276.250847072711
 34
0.0
100
AcDbRotatedDimension
1001
ACAD
1000
DSTYLE
1002
{
1070
   174
1070
     0
1070
   272
1070
     1
1070
   288
1070
     0
1070
   341
1005
0
1002
}
  0
DIMENSION
  5
1D942
330
747D
100
AcDbEntity
  8
寸法
 48
50.0
100
AcDbDimension
  2
*D16
 10
8839.51425951415
 20
6984.422404093454
 30
0.0
 11
9195.56150360864
 21
6984.422404093454
 31
0.0
 70
   160
 71
     5
 42
120.0000000000018
  3
INABA_S40G
100
AcDbAlignedDimension
 13
8959.514259514151
 23
7042.919036112869
 33
0.0
 14
8839.51425951415
 24
7042.919036112869
 34
0.0
100
AcDbRotatedDimension
1001
ACAD
1000
DSTYLE
1002
{
1070
   174
1070
     0
1070
   272
1070
     1
1070
   288
1070
     0
1070
   341
1005
0
1002
}
  0
TEXT
  5
1D943
330
747D
100
AcDbEntity
  8
部品1
 48
50.0
100
AcDbText
 10
9046.334326192553
 20
5028.032239333586
 30
0.0
 40
80.0
  1
(a=45,b=55,c=75)
  7
STYLE1
100
AcDbText
  0
TEXT
  5
1D944
330
747D
100
AcDbEntity
  8
部品1
 48
50.0
100
AcDbText
 10
8976.45743858767
 20
5147.763285486725
 30
0.0
 40
80.0
  1
※a,b,cは屋根の出幅です。
  7
STYLE1
100
AcDbText
  0
MTEXT
  5
1D945
102
{ACAD_REACTORS
330
1D946
102
}
330
747D
100
AcDbEntity
  8
部品1
 62
     7
 48
50.0
100
AcDbMText
 10
9841.640034052471
 20
5371.901644153068
 30
0.0
 40
120.0
 41
0.0
 71
     6
 72
     1
  1
\A1;屋根の外寸
  7
STYLE1
 73
     1
 44
1.0
1001
ACAD
1000
MTEXTBEGIN
1070
    73
1070
     1
1070
    44
1040
1.0
1070
    74
1070
     0
1000
MTEXTEND
  0
LEADER
  5
1D946
330
747D
100
AcDbEntity
  8
寸法
 48
50.0
100
AcDbLeader
  3
INABA_S50G
 71
     0
 73
     0
 74
     0
 75
     1
 40
120.0
 41
672.0
 76
     3
 10
8771.402847447978
 20
5666.919036112859
 30
0.0
 10
9019.64003405247
 20
5286.901644153068
 30
0.0
 10
9144.64003405247
 20
5286.901644153068
 30
0.0
340
1D945
1001
ACAD
1000
DSTYLE
1002
{
1070
   341
1005
1C530
1070
    40
1040
1.0
1070
   343
1005
1C530
1070
   344
1005
1C530
1002
}
  0
DIMENSION
  5
1D947
330
747D
100
AcDbEntity
  8
寸法
 48
50.0
100
AcDbDimension
  2
*D17
 10
7620.024443427175
 20
7292.919036112856
 30
0.0
 11
7620.024443427173
 21
7054.598327534932
 31
0.0
 70
   160
 71
     5
 42
110.0000000000045
  3
INABA_S40G
100
AcDbAlignedDimension
 13
7389.51425951415
 23
7402.919036112861
 33
0.0
 14
7389.51425951415
 24
7292.919036112856
 34
0.0
 50
90.0
100
AcDbRotatedDimension
1001
ACAD
1000
DSTYLE
1002
{
1070
   174
1070
     0
1070
   272
1070
     1
1070
   288
1070
     0
1070
   341
1005
0
1002
}
  0
DIMENSION
  5
1D948
330
747D
100
AcDbEntity
  8
寸法
 48
50.0
100
AcDbDimension
  2
*D18
 10
8729.514259514152
 20
6984.422404093454
 30
0.0
 11
8493.467015419662
 21
6984.422404093454
 31
0.0
 70
   160
 71
     5
 42
109.9999999999982
  3
INABA_S40G
100
AcDbAlignedDimension
 13
8839.51425951415
 23
7042.919036112869
 33
0.0
 14
8729.514259514152
 24
7292.919036112859
 34
0.0
100
AcDbRotatedDimension
1001
ACAD
1000
DSTYLE
1002
{
1070
   174
1070
     0
1070
   272
1070
     1
1070
   288
1070
     0
1070
   341
1005
0
1002
}
  0
LINE
  5
1D949
330
747D
100
AcDbEntity
  8
部品1
 48
50.0
100
AcDbLine
 10
8839.514259514151
 20
6022.919036112879
 30
0.0
 11
8839.51425951415
 21
7292.919036112862
 31
0.0
  0
LINE
  5
1D94A
330
747D
100
AcDbEntity
  8
部品1
 48
50.0
100
AcDbLine
 10
8959.514259514151
 20
5722.919036112878
 30
0.0
 11
8959.514259514151
 21
7522.919036112863
 31
0.0
  0
LINE
  5
1D94B
330
747D
100
AcDbEntity
  8
想像線
 48
10.0
100
AcDbLine
 10
9004.514259514149
 20
7597.919036112864
 30
0.0
 11
9004.514259514156
 21
5667.919036112859
 31
0.0
  0
TEXT
  5
1D94C
330
747D
100
AcDbEntity
  8
部品1
 48
50.0
100
AcDbText
 10
7931.514259514152
 20
5461.4665347094
 30
0.0
 40
120.0
  1
扉面
  7
STYLE1
 72
     1
 11
8059.51425951415
 21
5445.4665347094
 31
0.0
100
AcDbText
 73
     1
  0
HATCH
  5
1D94E
330
747D
100
AcDbEntity
  8
細線
 48
50.0
100
AcDbHatch
 10
0.0
 20
0.0
 30
0.0
210
0.0
220
0.0
230
1.0
  2
LINE
 70
     0
 71
     0
 91
        1
 92
        7
 72
     0
 73
     1
 93
        4
 10
8159.514259514166
 20
5722.919036112869
 10
8159.514259514166
 20
5892.919036112867
 10
7959.514259514167
 20
5892.919036112864
 10
7959.514259514167
 20
5722.919036112863
 97
        0
 75
     0
 76
     1
 52
45.0
 41
10.0
 77
     0
 78
     1
 53
45.0
 43
4456.402698527643
 44
-5428.622518963429
 45
-22.45064030267288
 46
22.45064030267288
 79
     0
 47
2.903594399684136
 98
        1
 10
8072.624259517253
 20
5761.946091545308
  0
LINE
  5
1D94F
330
747D
100
AcDbEntity
  8
部品1
 48
50.0
100
AcDbLine
 10
7959.514259514167
 20
5722.919036112869
 30
0.0
 11
7959.514259514167
 21
5892.919036112863
 31
0.0
  0
LINE
  5
1D950
330
747D
100
AcDbEntity
  8
部品1
 48
50.0
100
AcDbLine
 10
8159.514259514166
 20
5722.919036112869
 30
0.0
 11
8159.514259514166
 21
5892.919036112867
 31
0.0
  0
LINE
  5
1D951
330
747D
100
AcDbEntity
  8
センター
 48
2.0
100
AcDbLine
 10
8786.514259514159
 20
5920.919036112861
 30
0.0
 11
8886.514259514159
 21
5920.919036112861
 31
0.0
  0
CIRCLE
  5
1D952
330
747D
100
AcDbEntity
  8
部品1
 48
50.0
100
AcDbCircle
 10
8836.514259514158
 20
5920.919036112861
 30
0.0
 40
35.0
  0
LINE
  5
1D953
330
747D
100
AcDbEntity
  8
部品1
 48
50.0
100
AcDbLine
 10
8839.51425951415
 20
6022.919036112877
 30
0.0
 11
8729.514259514152
 21
6022.919036112877
 31
0.0
  0
LINE
  5
1D954
330
747D
100
AcDbEntity
  8
部品1
 48
50.0
100
AcDbLine
 10
8729.514259514152
 20
5892.919036112876
 30
0.0
 11
8729.514259514152
 21
6022.919036112877
 31
0.0
  0
LINE
  5
1D955
330
747D
100
AcDbEntity
  8
センター
 48
2.0
100
AcDbLine
 10
8836.514259514158
 20
5970.919036112861
 30
0.0
 11
8836.514259514158
 21
5870.919036112861
 31
0.0
  0
LINE
  5
1D956
330
747D
100
AcDbEntity
  8
部品1
 48
50.0
100
AcDbLine
 10
8159.514259514152
 20
7402.91903611286
 30
0.0
 11
8159.514259514152
 21
7522.91903611286
 31
0.0
  0
LINE
  5
1D957
330
747D
100
AcDbEntity
  8
部品1
 48
50.0
100
AcDbLine
 10
7959.514259514151
 20
7402.91903611286
 30
0.0
 11
7959.514259514151
 21
7522.91903611286
 31
0.0
  0
DIMENSION
  5
1D959
330
747D
100
AcDbEntity
  8
寸法
 48
50.0
100
AcDbDimension
  2
*D19
 10
7620.024443427173
 20
7402.919036112861
 30
0.0
 11
7620.024443427173
 21
7758.96628020735
 31
0.0
 70
   160
 71
     5
 42
119.9999999999972
  3
INABA_S40G
100
AcDbAlignedDimension
 13
7361.514259514151
 23
7522.919036112859
 33
0.0
 14
7389.51425951415
 24
7402.919036112861
 34
0.0
 50
90.0
100
AcDbRotatedDimension
1001
ACAD
1000
DSTYLE
1002
{
1070
   174
1070
     0
1070
   272
1070
     1
1070
   288
1070
     0
1070
   341
1005
0
1002
}
  0
LINE
  5
1D95A
330
747D
100
AcDbEntity
  8
センター
 48
2.0
100
AcDbLine
 10
8786.514259514152
 20
7399.919036112861
 30
0.0
 11
8886.514259514152
 21
7399.919036112861
 31
0.0
  0
CIRCLE
  5
1D95B
330
747D
100
AcDbEntity
  8
部品1
 48
50.0
100
AcDbCircle
 10
8836.514259514151
 20
7399.919036112861
 30
0.0
 40
35.0
  0
LINE
  5
1D95C
330
747D
100
AcDbEntity
  8
部品1
 48
50.0
100
AcDbLine
 10
8839.514259514151
 20
7292.919036112862
 30
0.0
 11
8729.514259514152
 21
7292.919036112859
 31
0.0
  0
LINE
  5
1D95D
330
747D
100
AcDbEntity
  8
部品1
 48
50.0
100
AcDbLine
 10
8729.514259514152
 20
7292.919036112859
 30
0.0
 11
8729.514259514152
 21
7402.919036112859
 31
0.0
  0
LINE
  5
1D95E
330
747D
100
AcDbEntity
  8
部品1
 48
50.0
100
AcDbLine
 10
8959.514259514154
 20
6722.91903611286
 30
0.0
 11
8839.51425951415
 21
6722.91903611286
 31
0.0
  0
LINE
  5
1D95F
330
747D
100
AcDbEntity
  8
部品1
 48
50.0
100
AcDbLine
 10
8959.514259514154
 20
6522.91903611286
 30
0.0
 11
8839.51425951415
 21
6522.919036112861
 31
0.0
  0
LINE
  5
1D961
330
747D
100
AcDbEntity
  8
センター
 48
2.0
100
AcDbLine
 10
8836.514259514151
 20
7449.919036112861
 30
0.0
 11
8836.514259514151
 21
7349.919036112861
 31
0.0
  0
TEXT
  5
1DEDA
330
747D
100
AcDbEntity
  8
文字
 62
     7
 48
50.0
100
AcDbText
 10
13188.16259899338
 20
79.80631269190325
 30
0.0
 40
80.0
  1
※布基礎には換気口を設けてください。
  7
STYLE2
100
AcDbText
  0
MTEXT
  5
1E700
102
{ACAD_REACTORS
330
1E701
102
}
330
747D
100
AcDbEntity
  8
部品1
 62
     7
 48
50.0
100
AcDbMText
 10
10009.33123895026
 20
7765.944479920811
 30
0.0
 40
120.0
 41
0.0
 71
     6
 72
     1
  1
基礎ボルト芯
  7
STYLE1
 73
     1
 44
1.0
1001
ACAD
1000
MTEXTBEGIN
1070
    73
1070
     1
1070
    44
1040
1.0
1070
    74
1070
     0
1000
MTEXTEND
  0
LEADER
  5
1E701
330
747D
100
AcDbEntity
  8
寸法
 48
50.0
100
AcDbLeader
  3
INABA_S40G
 71
     0
 73
     0
 74
     0
 75
     1
 40
120.0
 41
846.0000000000002
 76
     3
 10
8836.514259514151
 20
7399.919036112861
 30
0.0
 10
9023.331238950257
 20
7665.944479920812
 30
0.0
 10
9123.331238950257
 20
7665.944479920812
 30
0.0
340
1E700
1001
ACAD
1000
DSTYLE
1002
{
1070
   174
1070
     0
1070
   272
1070
     1
1070
   288
1070
     0
1070
   341
1005
0
1002
}
  0
DIMENSION
  5
1E96D
330
747D
100
AcDbEntity
  8
寸法
 48
50.0
100
AcDbDimension
  2
*D20
 10
8254.888277064841
 20
7522.919036112863
 30
0.0
 11
8154.888277064838
 21
7072.919036112867
 31
0.0
 70
    32
 71
     5
 42
899.9999999999936
  3
INABA_S40G
100
AcDbAlignedDimension
 13
8109.514259514142
 23
6622.919036112868
 33
0.0
 14
8059.51425951415
 24
7522.919036112863
 34
0.0
 50
90.0
100
AcDbRotatedDimension
1001
ACAD
1000
DSTYLE
1002
{
1070
   174
1070
     0
1070
   272
1070
     1
1070
   279
1070
     1
1070
   288
1070
     0
1070
   341
1005
0
1002
}
  0
DIMENSION
  5
1E98B
330
747D
100
AcDbEntity
  8
寸法
 48
50.0
100
AcDbDimension
  2
*D21
 10
8254.88827706485
 20
6622.919036112868
 30
0.0
 11
8254.888277064848
 21
6097.131811778035
 31
0.0
 70
   160
 71
     5
 42
900.0
  3
INABA_S40G
100
AcDbAlignedDimension
 13
8059.51425951415
 23
5722.919036112869
 33
0.0
 14
8109.514259514142
 24
6622.919036112868
 34
0.0
 50
90.0
100
AcDbRotatedDimension
1001
ACAD
1000
DSTYLE
1002
{
1070
   174
1070
     0
1070
   272
1070
     1
1070
   279
1070
     1
1070
   288
1070
     0
1070
   341
1005
0
1002
}
  0
MTEXT
  5
1F11B
102
{ACAD_REACTORS
330
1F11C
102
}
330
747D
100
AcDbEntity
  8
部品1
 62
     7
 48
50.0
100
AcDbMText
 10
10029.75144611864
 20
6327.901644153087
 30
0.0
 40
120.0
 41
0.0
 71
     6
 72
     1
  1
床下換気口
  7
STYLE1
 73
     1
 44
1.0
1001
ACAD
1000
MTEXTBEGIN
1070
    73
1070
     1
1070
    44
1040
1.0
1070
    74
1070
     0
1000
MTEXTEND
  0
LEADER
  5
1F11C
330
747D
100
AcDbEntity
  8
寸法
 48
50.0
100
AcDbLeader
  3
INABA_S50G
 71
     0
 73
     0
 74
     0
 75
     1
 40
120.0
 41
720.0000000000001
 76
     3
 10
8959.514259514154
 20
6622.919036112879
 30
0.0
 10
9159.751446118646
 20
6242.901644153088
 30
0.0
 10
9284.751446118646
 20
6242.901644153088
 30
0.0
340
1F11B
1001
ACAD
1000
DSTYLE
1002
{
1070
   341
1005
1C530
1070
    40
1040
1.0
1070
   343
1005
1C530
1070
   344
1005
1C530
1002
}
  0
DIMENSION
  5
1F248
330
747D
100
AcDbEntity
  8
寸法
 48
50.0
100
AcDbDimension
  2
*D23
 10
8059.51425951415
 20
8049.82880176119
 30
0.0
 11
8530.432781520428
 21
8049.82880176119
 31
0.0
 70
   160
 71
     5
 42
899.9999999999991
  3
INABA_S40G
100
AcDbAlignedDimension
 13
8959.514259514149
 23
7522.919036112863
 33
0.0
 14
8059.51425951415
 24
6822.91903611287
 34
0.0
100
AcDbRotatedDimension
1001
ACAD
1000
DSTYLE
1002
{
1070
   174
1070
     0
1070
   272
1070
     1
1070
   279
1070
     1
1070
   288
1070
     0
1070
   341
1005
0
1002
}
  0
DIMENSION
  5
1F249
330
747D
100
AcDbEntity
  8
寸法
 48
50.0
100
AcDbDimension
  2
*D22
 10
7159.51425951415
 20
8049.82880176119
 30
0.0
 11
7609.514259514149
 21
8149.82880176119
 31
0.0
 70
    32
 71
     5
 42
900.0
  3
INABA_S40G
100
AcDbAlignedDimension
 13
8059.51425951415
 23
6822.91903611287
 33
0.0
 14
7159.51425951415
 24
7522.919036112863
 34
0.0
100
AcDbRotatedDimension
1001
ACAD
1000
DSTYLE
1002
{
1070
   174
1070
     0
1070
   272
1070
     1
1070
   279
1070
     1
1070
   288
1070
     0
1070
   341
1005
0
1002
}
  0
LINE
  5
1F940
330
747D
100
AcDbEntity
  8
センター
 48
2.0
100
AcDbLine
 10
8059.514259514143
 20
6672.919036112869
 30
0.0
 11
8059.514259514143
 21
6572.919036112868
 31
0.0
  0
LINE
  5
1F941
330
747D
100
AcDbEntity
  8
部品1
 48
50.0
100
AcDbLine
 10
8159.514259514143
 20
6422.919036112867
 30
0.0
 11
8159.514259514144
 21
6822.91903611287
 31
0.0
  0
LINE
  5
1F942
330
747D
100
AcDbEntity
  8
部品1
 48
50.0
100
AcDbLine
 10
7959.514259514143
 20
6422.919036112867
 30
0.0
 11
7959.514259514143
 21
6822.91903611287
 31
0.0
  0
LINE
  5
1F943
330
747D
100
AcDbEntity
  8
センター
 48
2.0
100
AcDbLine
 10
8009.514259514142
 20
6622.919036112868
 30
0.0
 11
8109.514259514142
 21
6622.919036112868
 31
0.0
  0
LEADER
  5
1F9A5
330
747D
100
AcDbEntity
  8
寸法
 48
50.0
100
AcDbLeader
  3
INABA_S50G
 71
     0
 73
     0
 75
     1
 40
120.0
 41
185.591883092037
 76
     3
 10
8042.108827932336
 20
6447.490509905565
 30
0.0
 10
7974.783336151796
 20
6239.697104093134
 30
0.0
 10
7849.783336151796
 20
6239.697104093134
 30
0.0
340
1F9A6
210
0.0
220
0.0
230
-1.0
213
-42.79594154601909
223
-42.66026254335156
233
0.0
1001
ACAD
1000
DSTYLE
1002
{
1070
   341
1005
1C530
1070
    40
1040
1.0
1070
   343
1005
1C530
1070
   344
1005
1C530
1002
}
  0
MTEXT
  5
1F9A6
102
{ACAD_REACTORS
330
1F9A5
102
}
330
747D
100
AcDbEntity
  8
部品1
 62
     7
 48
50.0
100
AcDbMText
 10
7867.579277697815
 20
6317.357366636485
 30
0.0
 40
120.0
 41
0.0
 71
     6
 72
     1
  1
\A1;C.B
  7
STYLE1
 73
     1
 44
1.0
1001
ACAD
1000
MTEXTBEGIN
1070
    73
1070
     1
1070
    44
1040
1.0
1070
    74
1070
     0
1000
MTEXTEND
  0
LINE
  5
1F9AD
330
747D
100
AcDbEntity
  8
部品1
 48
50.0
100
AcDbLine
 10
8159.514259514143
 20
6422.919036112867
 30
0.0
 11
7959.514259514143
 21
6422.919036112867
 31
0.0
  0
LINE
  5
1F9AE
330
747D
100
AcDbEntity
  8
部品1
 48
50.0
100
AcDbLine
 10
8159.514259514144
 20
6822.91903611287
 30
0.0
 11
7959.514259514143
 21
6822.91903611287
 31
0.0
  0
LINE
  5
1FBAE
330
747D
100
AcDbEntity
  8
部品1
100
AcDbLine
 10
10196.3888727157
 20
3638.48520094167
 30
0.0
 11
4125.403687329446
 21
3638.48520094167
 31
0.0
  0
LINE
  5
1FBAF
330
747D
100
AcDbEntity
  8
部品1
100
AcDbLine
 10
10196.3888727157
 20
3398.485200941669
 30
0.0
 11
4125.40368732945
 21
3398.485200941669
 31
0.0
  0
LINE
  5
1FBB0
330
747D
100
AcDbEntity
  8
部品1
100
AcDbLine
 10
4125.403687329451
 20
674.1782313570229
 30
0.0
 11
10196.3888727157
 21
674.1782313570229
 31
0.0
  0
LEADER
  5
1FBB1
330
747D
100
AcDbEntity
  8
寸法
 48
50.0
100
AcDbLeader
  3
INABA_S50G
 73
     0
 74
     0
 75
     1
 40
102.2727272727273
 41
680.0000000000001
 76
     3
 10
7133.511439315904
 20
2641.102932928606
 30
0.0
 10
7167.865410429262
 20
3051.555744035147
 30
0.0
 10
7292.865410429262
 20
3051.555744035147
 30
0.0
340
1FBB2
1001
ACAD
1000
DSTYLE
1002
{
1070
   341
1005
0
1070
    40
1040
1.0
1070
   343
1005
0
1070
   344
1005
0
1002
}
  0
MTEXT
  5
1FBB2
102
{ACAD_REACTORS
330
1FBB1
102
}
330
747D
100
AcDbEntity
  8
部品1
 62
     7
 48
50.0
100
AcDbMText
 10
7317.865410429262
 20
3127.692107671511
 30
0.0
 40
80.0
 41
0.8
 71
     4
 72
     1
  1
\A1;ナット(市販品)
  7
STYLE2
 73
     1
 44
1.0
1001
ACAD
1000
MTEXTBEGIN
1070
    73
1070
     1
1070
    44
1040
1.0
1070
    74
1070
     0
1000
MTEXTEND
  0
LEADER
  5
1FBB3
330
747D
100
AcDbEntity
  8
寸法
 48
50.0
100
AcDbLeader
  3
INABA_S50G
 73
     0
 74
     0
 75
     1
 40
102.2727272727273
 41
906.8181818181818
 76
     3
 10
7157.511439315905
 20
2511.350940263743
 30
0.0
 10
7199.383029684745
 20
2866.58666127036
 30
0.0
 10
7324.383029684745
 20
2866.58666127036
 30
0.0
340
1FBB4
1001
ACAD
1000
DSTYLE
1002
{
1070
   341
1005
0
1070
    40
1040
1.0
1070
   343
1005
0
1070
   344
1005
0
1002
}
  0
MTEXT
  5
1FBB4
102
{ACAD_REACTORS
330
1FBB3
102
}
330
747D
100
AcDbEntity
  8
部品1
 62
     7
 48
50.0
100
AcDbMText
 10
7349.383029684744
 20
2942.723024906724
 30
0.0
 40
80.0
 41
0.8
 71
     4
 72
     1
  1
\A1;ワッシャー(市販品)
  7
STYLE2
 73
     1
 44
1.0
1001
ACAD
1000
MTEXTBEGIN
1070
    73
1070
     1
1070
    44
1040
1.0
1070
    74
1070
     0
1000
MTEXTEND
  0
LWPOLYLINE
  5
1FBB5
330
747D
100
AcDbEntity
  8
部品1
 48
50.0
100
AcDbPolyline
 90
        2
 70
     0
 43
8.0
 10
7310.111439315903
 20
2002.227651819464
 10
7603.813902715288
 20
2002.227651819464
  0
TEXT
  5
1FBB6
330
747D
100
AcDbEntity
  8
部品1
 48
50.0
100
AcDbText
 10
7314.465023600333
 20
2598.106332581663
 30
0.0
 40
80.0
  1
基礎ボルト(市販品)
  7
STYLE2
100
AcDbText
  0
DIMENSION
  5
1FBB7
330
747D
100
AcDbEntity
  8
寸法
 48
50.0
100
AcDbDimension
  2
*D24
 10
7811.980039084748
 20
1918.227651819462
 30
0.0
 11
7711.980039084749
 21
2080.227651819464
 31
0.0
 70
    32
  1
180
 71
     5
 42
324.0000000000011
  3
INABA_S40G
100
AcDbAlignedDimension
 13
7310.111439315903
 23
2242.227651819463
 33
0.0
 14
7310.111439315903
 24
1918.227651819462
 34
0.0
 50
90.0
100
AcDbRotatedDimension
1001
ACAD
1000
DSTYLE
1002
{
1070
   174
1070
     0
1070
   272
1070
     1
1070
   279
1070
     1
1070
   288
1070
     0
1070
   341
1005
0
1002
}
  0
DIMENSION
  5
1FBB8
330
747D
100
AcDbEntity
  8
寸法
 48
50.0
100
AcDbDimension
  2
*D25
 10
7811.980039084748
 20
2242.227651819463
 30
0.0
 11
8088.034705203776
 21
2217.103694215252
 31
0.0
 70
   160
  1
20～25
 71
     5
 42
52.76000000000067
  3
INABA_S40G
100
AcDbAlignedDimension
 13
7122.911439315905
 23
2294.987651819464
 33
0.0
 14
7310.111439315903
 24
2242.227651819463
 34
0.0
 50
90.0
100
AcDbRotatedDimension
1001
ACAD
1000
DSTYLE
1002
{
1070
   174
1070
     0
1070
   272
1070
     1
1070
   279
1070
     1
1070
   288
1070
     0
1070
   341
1005
0
1002
}
  0
MTEXT
  5
1FBB9
102
{ACAD_REACTORS
330
1FBBA
102
}
330
747D
100
AcDbEntity
  8
部品1
 62
     7
 48
50.0
100
AcDbMText
 10
7319.055901735224
 20
2506.610977972693
 30
0.0
 40
80.0
 41
0.8
 71
     4
 72
     1
  1
M10X160
  7
STYLE2
 73
     1
 44
1.0
1001
ACAD
1000
MTEXTBEGIN
1070
    73
1070
     1
1070
    44
1040
1.0
1070
    74
1070
     0
1000
MTEXTEND
  0
LEADER
  5
1FBBA
330
747D
100
AcDbEntity
  8
寸法
 48
50.0
100
AcDbLeader
  3
INABA_S50G
 73
     0
 74
     0
 75
     1
 40
80.0
 41
435.0
 76
     3
 10
7126.511439315905
 20
2291.387651819464
 30
0.0
 10
7169.055901735224
 20
2441.610977972693
 30
0.0
 10
7294.055901735224
 20
2441.610977972693
 30
0.0
340
1FBB9
1001
ACAD
1000
DSTYLE
1002
{
1070
   341
1005
0
1070
    40
1040
1.0
1070
   343
1005
0
1070
   344
1005
0
1002
}
  0
LINE
  5
1FBBB
330
747D
100
AcDbEntity
  8
部品1
100
AcDbLine
 10
4125.403687329447
 20
3638.48520094167
 30
0.0
 11
4125.40368732945
 21
674.1782313570229
 31
0.0
  0
LEADER
  5
1FBBC
330
747D
100
AcDbEntity
  8
寸法
 48
50.0
100
AcDbLeader
  3
INABA_S50G
 73
     0
 75
     1
 40
113.1818181818182
 41
608.6363636363635
 76
     3
 10
7086.248189453955
 20
2191.743325177742
 30
0.0
 10
6952.444360762607
 20
3043.12240753422
 30
0.0
 10
6827.444360762607
 20
3043.12240753422
 30
0.0
340
1FBBD
1001
ACAD
1000
DSTYLE
1002
{
1070
   341
1005
0
1070
    40
1040
1.0
1070
   343
1005
0
1070
   344
1005
0
1002
}
  0
MTEXT
  5
1FBBD
102
{ACAD_REACTORS
330
1FBBC
102
}
330
747D
100
AcDbEntity
  8
寸法
 62
     7
 48
50.0
100
AcDbMText
 10
6802.444360762606
 20
3124.713316625129
 30
0.0
 40
80.0
 41
0.8
 71
     6
 72
     1
  1
\A1;φ70スリーブ
  7
STYLE2
 73
     1
 44
1.0
1001
ACAD
1000
MTEXTBEGIN
1070
    73
1070
     1
1070
    44
1040
1.0
1070
    74
1070
     0
1000
MTEXTEND
  0
LWPOLYLINE
  5
1FBBE
330
747D
100
AcDbEntity
  8
部品1
 48
50.0
100
AcDbPolyline
 90
        2
 70
     0
 43
8.0
 10
4781.932224305754
 20
2002.227651819464
 10
5196.072126138711
 20
2002.227651819464
  0
TEXT
  5
1FBBF
330
747D
100
AcDbEntity
  8
部品1
 48
50.0
100
AcDbText
 10
4781.932224305754
 20
2013.466644102718
 30
0.0
 40
80.0
  1
▽G.L
  7
STYLE2
100
AcDbText
  0
DIMENSION
  5
1FBC0
330
747D
100
AcDbEntity
  8
寸法
 48
50.0
100
AcDbDimension
  2
*D26
 10
4925.651812406251
 20
1458.227651819463
 30
0.0
 11
4925.651812406251
 21
1578.227651819463
 31
0.0
 70
   160
  1
150
 71
     5
 42
240.0
  3
INABA_S40G
100
AcDbAlignedDimension
 13
5068.07212613871
 23
1698.227651819463
 33
0.0
 14
4988.072126138714
 24
1458.227651819463
 34
0.0
 50
90.0
100
AcDbRotatedDimension
1001
ACAD
1000
DSTYLE
1002
{
1070
   174
1070
     0
1070
   272
1070
     1
1070
   279
1070
     1
1070
   288
1070
     0
1070
   341
1005
0
1002
}
  0
LEADER
  5
1FBC1
330
747D
100
AcDbEntity
  8
寸法
 48
50.0
100
AcDbLeader
  3
INABA_S50G
 71
     0
 73
     0
 75
     1
 40
100.0
 41
225.0
 76
     3
 10
5163.975078490853
 20
1578.227651819463
 30
0.0
 10
5042.137099943516
 20
1314.704958201027
 30
0.0
 10
4917.137099943516
 20
1314.704958201027
 30
0.0
1001
ACAD
1000
DSTYLE
1002
{
1070
    40
1040
1.0
1070
   272
1070
     1
1070
   279
1070
     1
1070
   341
1005
0
1002
}
  0
LEADER
  5
1FBC2
330
747D
100
AcDbEntity
  8
寸法
 48
50.0
100
AcDbLeader
  3
INABA_S50G
 71
     0
 73
     0
 75
     1
 40
100.0
 41
222.7272727272727
 76
     3
 10
5292.072126138711
 20
1578.227651819463
 30
0.0
 10
5070.259827500951
 20
1134.388805661583
 30
0.0
 10
4945.259827500951
 20
1134.388805661583
 30
0.0
1001
ACAD
1000
DSTYLE
1002
{
1070
    40
1040
1.0
1070
   272
1070
     1
1070
   279
1070
     1
1070
   341
1005
0
1002
}
  0
MTEXT
  5
1FBC3
102
{ACAD_REACTORS
330
1FBC4
102
}
330
747D
100
AcDbEntity
  8
寸法
 62
     7
 48
50.0
100
AcDbMText
 10
5106.822071915907
 20
1843.52825463692
 30
0.0
 40
80.0
 41
0.8
 71
     6
 72
     1
  1
\A1;D10@300
  7
STYLE2
 73
     1
 44
1.0
1001
ACAD
1000
MTEXTBEGIN
1070
    73
1070
     1
1070
    44
1040
1.0
1070
    74
1070
     0
1000
MTEXTEND
  0
LEADER
  5
1FBC4
330
747D
100
AcDbEntity
  8
寸法
 48
50.0
100
AcDbLeader
  3
INABA_S50G
 71
     0
 73
     0
 75
     1
 40
100.0
 41
540.3409090909091
 76
     3
 10
5300.072126138711
 20
2000.354866516586
 30
0.0
 10
5242.089889610013
 20
1778.884537975781
 30
0.0
 10
5117.089889610013
 20
1778.884537975781
 30
0.0
213
-9.732182305893367
223
-4.643716661138569
233
0.0
1001
ACAD
1000
DSTYLE
1002
{
1070
    40
1040
1.0
1070
   272
1070
     1
1070
   279
1070
     1
1070
   341
1005
0
1002
}
  0
LEADER
  5
1FBC5
330
747D
100
AcDbEntity
  8
寸法
 48
50.0
100
AcDbLeader
  3
INABA_S50G
 71
     0
 73
     0
 75
     1
 40
130.1136363636363
 41
651.1363636363636
 76
     3
 10
5276.072126138711
 20
2242.227651819463
 30
0.0
 10
5163.647545974694
 20
2382.698417276051
 30
0.0
 10
5038.647545974694
 20
2382.698417276051
 30
0.0
1001
ACAD
1000
DSTYLE
1002
{
1070
    40
1040
1.0
1070
   272
1070
     1
1070
   279
1070
     1
1070
   341
1005
0
1002
}
  0
MTEXT
  5
1FBC6
102
{ACAD_REACTORS
330
1FBC5
102
}
330
747D
100
AcDbEntity
  8
寸法
 62
     7
 48
50.0
100
AcDbMText
 10
4975.973646655438
 20
2454.743871821506
 30
0.0
 40
80.0
 41
0.8
 71
     6
 72
     1
  1
\A1;金コテ押エ
  7
STYLE2
 73
     1
 44
1.0
1001
ACAD
1000
MTEXTBEGIN
1070
    73
1070
     1
1070
    44
1040
1.0
1070
    74
1070
     0
1000
MTEXTEND
  0
DIMENSION
  5
1FBC7
330
747D
100
AcDbEntity
  8
寸法
 48
50.0
100
AcDbDimension
  2
*D27
 10
4461.034887576969
 20
1458.227651819463
 30
0.0
 11
4461.03488757697
 21
1829.767801475464
 31
0.0
 70
   160
  1
540
 71
     5
 42
784.0000000000002
  3
INABA_S40G
100
AcDbAlignedDimension
 13
5196.072126138711
 23
2242.227651819463
 33
0.0
 14
4988.072126138714
 24
1458.227651819463
 34
0.0
 50
90.0
100
AcDbRotatedDimension
1001
ACAD
1000
DSTYLE
1002
{
1070
   174
1070
     0
1070
   272
1070
     1
1070
   279
1070
     1
1070
   288
1070
     0
1070
   341
1005
0
1002
}
  0
MTEXT
  5
1FBC8
102
{ACAD_REACTORS
330
1FBC2
102
}
330
747D
100
AcDbEntity
  8
寸法
 62
     7
 48
50.0
100
AcDbMText
 10
4925.259827500951
 20
1194.388805661583
 30
0.0
 40
80.0
 41
0.8
 71
     6
 72
     1
  1
D13
  7
STYLE2
 73
     1
 44
1.0
1001
ACAD
1000
MTEXTBEGIN
1070
    73
1070
     1
1070
    44
1040
1.0
1070
    74
1070
     0
1000
MTEXTEND
  0
MTEXT
  5
1FBC9
102
{ACAD_REACTORS
330
1FBC1
102
}
330
747D
100
AcDbEntity
  8
寸法
 62
     7
 48
50.0
100
AcDbMText
 10
4897.137099943517
 20
1374.704958201027
 30
0.0
 40
80.0
 41
0.8
 71
     6
 72
     1
  1
D10
  7
STYLE2
 73
     1
 44
1.0
1001
ACAD
1000
MTEXTBEGIN
1070
    73
1070
     1
1070
    44
1040
1.0
1070
    74
1070
     0
1000
MTEXTEND
  0
DIMENSION
  5
1FBCA
330
747D
100
AcDbEntity
  8
寸法
 48
50.0
100
AcDbDimension
  2
*D28
 10
5516.072126138711
 20
919.798013814303
 30
0.0
 11
5271.975367460488
 21
919.798013814303
 31
0.0
 70
   160
  1
300
 71
     5
 42
448.0
  3
INABA_S40G
100
AcDbAlignedDimension
 13
5068.07212613871
 23
1330.227651819463
 33
0.0
 14
5516.072126138711
 24
1330.227651819463
 34
0.0
100
AcDbRotatedDimension
1001
ACAD
1000
DSTYLE
1002
{
1070
   174
1070
     0
1070
   272
1070
     1
1070
   279
1070
     1
1070
   288
1070
     0
1070
   341
1005
0
1002
}
  0
MTEXT
  5
1FBCB
102
{ACAD_REACTORS
330
1FBCC
102
}
330
747D
100
AcDbEntity
  8
寸法
 62
     7
 48
50.0
100
AcDbMText
 10
6829.087366970966
 20
2764.029044717615
 30
0.0
 40
80.0
 41
0.8
 71
     6
 72
     1
  1
アンカープレート {\fArial|b0|i0|c0|p32;U}
  7
STYLE2
 73
     1
 44
1.0
1001
ACAD
1000
MTEXTBEGIN
1070
    73
1070
     1
1070
    44
1040
1.0
1070
    74
1070
     0
1000
MTEXTEND
  0
LEADER
  5
1FBCC
330
747D
100
AcDbEntity
  8
寸法
 48
50.0
100
AcDbLeader
  3
INABA_S50G
 73
     0
 75
     1
 40
106.3636363636363
 41
903.5235024184547
 76
     3
 10
7027.511439315905
 20
2311.787651819464
 30
0.0
 10
6979.087366970967
 20
2685.847226535797
 30
0.0
 10
6854.087366970967
 20
2685.847226535797
 30
0.0
340
1FBCB
1001
ACAD
1000
DSTYLE
1002
{
1070
   341
1005
0
1070
    40
1040
1.0
1070
   343
1005
0
1070
   344
1005
0
1002
}
  0
LINE
  5
1FBCD
330
747D
100
AcDbEntity
  8
細線
 48
50.0
100
AcDbLine
 10
5316.072126138712
 20
2080.600544487293
 30
0.0
 11
5388.072126138712
 21
2152.600544487293
 31
0.0
  0
ARC
  5
1FBCE
330
747D
100
AcDbEntity
  8
部品1
 48
50.0
100
AcDbCircle
 10
5292.072126138712
 20
2102.482081213709
 30
0.0
 40
24.0
100
AcDbArc
 50
0.0
 51
180.0
  0
CIRCLE
  5
1FBCF
330
747D
100
AcDbEntity
  8
部品1
 48
50.0
100
AcDbCircle
 10
5292.072126138712
 20
2102.482081213709
 30
0.0
 40
8.0
  0
LINE
  5
1FBD0
330
747D
100
AcDbEntity
  8
部品1
 48
50.0
100
AcDbLine
 10
5196.072126138711
 20
1698.227651819463
 30
0.0
 11
5196.072126138711
 21
2242.227651819463
 31
0.0
  0
LINE
  5
1FBD1
330
747D
100
AcDbEntity
  8
部品1
 48
50.0
100
AcDbLine
 10
5388.072126138712
 20
2242.227651819463
 30
0.0
 11
5388.072126138712
 21
1698.227651819463
 31
0.0
  0
MTEXT
  5
1FBD2
102
{ACAD_REACTORS
330
1FBD7
102
}
330
747D
100
AcDbEntity
  8
寸法
 62
     7
 48
50.0
100
AcDbMText
 10
5470.958063166105
 20
2103.495213118391
 30
0.0
 40
80.0
 41
0.8
 71
     4
 72
     1
  1
D13
  7
STYLE2
 73
     1
 44
1.0
1001
ACAD
1000
MTEXTBEGIN
1070
    73
1070
     1
1070
    44
1040
1.0
1070
    74
1070
     0
1000
MTEXTEND
  0
LEADER
  5
1FBD3
330
747D
100
AcDbEntity
  8
寸法
 48
50.0
100
AcDbLeader
  3
INABA_S50G
 71
     0
 73
     0
 74
     0
 75
     1
 40
100.0
 41
225.0
 76
     3
 10
5419.975078490853
 20
1578.227651819463
 30
0.0
 10
5474.399785945395
 20
1482.83058287649
 30
0.0
 10
5599.399785945395
 20
1482.83058287649
 30
0.0
1001
ACAD
1000
DSTYLE
1002
{
1070
    40
1040
1.0
1070
   272
1070
     1
1070
   279
1070
     1
1070
   341
1005
0
1002
}
  0
LEADER
  5
1FBD4
330
747D
100
AcDbEntity
  8
寸法
 48
50.0
100
AcDbLeader
  3
INABA_S50G
 71
     0
 73
     0
 74
     0
 75
     1
 40
100.0
 41
540.3409090909091
 76
     3
 10
5366.017295151885
 20
1561.487121405938
 30
0.0
 10
5484.810581999962
 20
1219.85630341104
 30
0.0
 10
5609.810581999962
 20
1219.85630341104
 30
0.0
213
0.0
223
-1.022262676269383
233
0.0
1001
ACAD
1000
DSTYLE
1002
{
1070
    40
1040
1.0
1070
   272
1070
     1
1070
   279
1070
     1
1070
   341
1005
0
1002
}
  0
MTEXT
  5
1FBD5
102
{ACAD_REACTORS
330
1FBD3
102
}
330
747D
100
AcDbEntity
  8
寸法
 62
     7
 48
50.0
100
AcDbMText
 10
5619.399785945396
 20
1542.83058287649
 30
0.0
 40
80.0
 41
0.8
 71
     4
 72
     1
  1
D10
  7
STYLE2
 73
     1
 44
1.0
1001
ACAD
1000
MTEXTBEGIN
1070
    73
1070
     1
1070
    44
1040
1.0
1070
    74
1070
     0
1000
MTEXTEND
  0
LWPOLYLINE
  5
1FBD6
330
747D
100
AcDbEntity
  8
部品1
 48
50.0
100
AcDbPolyline
 90
        2
 70
     0
 43
8.0
 10
5388.072126138711
 20
2002.227651819464
 10
5802.212027971668
 20
2002.227651819464
  0
LEADER
  5
1FBD7
330
747D
100
AcDbEntity
  8
寸法
 48
50.0
100
AcDbLeader
  3
INABA_S50G
 71
     0
 73
     0
 74
     0
 75
     1
 40
100.0
 41
222.7272727272727
 76
     3
 10
5292.072126138711
 20
2102.482081213709
 30
0.0
 10
5325.958063166106
 20
2043.495213118391
 30
0.0
 10
5450.958063166106
 20
2043.495213118391
 30
0.0
1001
ACAD
1000
DSTYLE
1002
{
1070
    40
1040
1.0
1070
   272
1070
     1
1070
   279
1070
     1
1070
   341
1005
0
1002
}
  0
LINE
  5
1FBD8
330
747D
100
AcDbEntity
  8
細線
 48
50.0
100
AcDbLine
 10
5068.072126138704
 20
1617.074397581634
 30
0.0
 11
5149.22538037654
 21
1698.227651819463
 31
0.0
  0
LINE
  5
1FBD9
330
747D
100
AcDbEntity
  8
細線
 48
50.0
100
AcDbLine
 10
5275.937973616116
 20
1636.354866516585
 30
0.0
 11
5300.072126138717
 21
1660.489019039184
 31
0.0
  0
LINE
  5
1FBDA
330
747D
100
AcDbEntity
  8
細線
 48
50.0
100
AcDbLine
 10
5182.869990555784
 20
1570.227651819463
 30
0.0
 11
5300.072126138712
 21
1687.429787402389
 31
0.0
  0
LINE
  5
1FBDB
330
747D
100
AcDbEntity
  8
部品1
 48
50.0
100
AcDbLine
 10
5068.072126138712
 20
1458.227651819463
 30
0.0
 11
5068.072126138712
 21
1698.227651819463
 31
0.0
  0
LINE
  5
1FBDC
330
747D
100
AcDbEntity
  8
細線
 48
50.0
100
AcDbLine
 10
5425.336905824655
 20
1570.227651819463
 30
0.0
 11
5516.072126138712
 21
1660.962872133522
 31
0.0
  0
LINE
  5
1FBDD
330
747D
100
AcDbEntity
  8
細線
 48
50.0
100
AcDbLine
 10
5398.396137461439
 20
1570.227651819463
 30
0.0
 11
5516.072126138712
 21
1687.903640496729
 31
0.0
  0
LINE
  5
1FBDE
330
747D
100
AcDbEntity
  8
部品1
 48
50.0
100
AcDbLine
 10
5516.072126138712
 20
1698.227651819463
 30
0.0
 11
5516.072126138712
 21
1458.227651819463
 31
0.0
  0
LINE
  5
1FBDF
330
747D
100
AcDbEntity
  8
部品1
 48
50.0
100
AcDbLine
 10
5316.072126138717
 20
1578.227651819463
 30
0.0
 11
5316.072126138712
 21
2102.482081213709
 31
0.0
  0
LINE
  5
1FBE0
330
747D
100
AcDbEntity
  8
部品1
 48
50.0
100
AcDbLine
 10
5300.072126138717
 20
1578.227651819463
 30
0.0
 11
5300.072126138704
 21
2102.482081213709
 31
0.0
  0
LINE
  5
1FBE1
330
747D
100
AcDbEntity
  8
細線
 48
50.0
100
AcDbLine
 10
5284.072126138712
 20
1617.548250675974
 30
0.0
 11
5300.072126138717
 21
1633.548250675974
 31
0.0
  0
LINE
  5
1FBE2
330
747D
100
AcDbEntity
  8
細線
 48
50.0
100
AcDbLine
 10
5273.254965634726
 20
1330.227651819463
 30
0.0
 11
5307.552462265909
 21
1458.227651819463
 31
0.0
  0
LINE
  5
1FBE3
330
747D
100
AcDbEntity
  8
部品1
 48
50.0
100
AcDbLine
 10
5596.072126138715
 20
1330.227651819463
 30
0.0
 11
4988.072126138714
 21
1330.227651819463
 31
0.0
  0
LINE
  5
1FBE4
330
747D
100
AcDbEntity
  8
部品1
 48
50.0
100
AcDbLine
 10
5124.072126138711
 20
1554.227651819463
 30
0.0
 11
5460.072126138712
 21
1554.227651819463
 31
0.0
  0
LINE
  5
1FBE5
330
747D
100
AcDbEntity
  8
部品1
 48
50.0
100
AcDbLine
 10
5124.072126138711
 20
1570.227651819463
 30
0.0
 11
5460.072126138712
 21
1570.227651819463
 31
0.0
  0
LINE
  5
1FBE6
330
747D
100
AcDbEntity
  8
部品1
 48
50.0
100
AcDbLine
 10
5596.072126138715
 20
1458.227651819463
 30
0.0
 11
4988.072126138714
 21
1458.227651819463
 31
0.0
  0
CIRCLE
  5
1FBE7
330
747D
100
AcDbEntity
  8
部品1
 48
50.0
100
AcDbCircle
 10
5292.072126138712
 20
1578.227651819463
 30
0.0
 40
8.0
  0
LINE
  5
1FBE8
330
747D
100
AcDbEntity
  8
細線
 48
50.0
100
AcDbLine
 10
5286.396137461444
 20
1458.227651819463
 30
0.0
 11
5382.396137461444
 21
1554.227651819463
 31
0.0
  0
LINE
  5
1FBE9
330
747D
100
AcDbEntity
  8
細線
 48
50.0
100
AcDbLine
 10
5115.478875740228
 20
1330.227651819463
 30
0.0
 11
5149.776372371411
 21
1458.227651819463
 31
0.0
  0
LINE
  5
1FBEA
330
747D
100
AcDbEntity
  8
細線
 48
50.0
100
AcDbLine
 10
5194.366920687473
 20
1330.227651819461
 30
0.0
 11
5228.664417318656
 21
1458.227651819461
 31
0.0
  0
LINE
  5
1FBEB
330
747D
100
AcDbEntity
  8
細線
 48
50.0
100
AcDbLine
 10
5036.590830792969
 20
1330.227651819461
 30
0.0
 11
5070.888327424153
 21
1458.227651819461
 31
0.0
  0
LINE
  5
1FBEC
330
747D
100
AcDbEntity
  8
部品1
 48
50.0
100
AcDbLine
 10
4988.072126138714
 20
1330.227651819463
 30
0.0
 11
4988.072126138714
 21
1458.227651819463
 31
0.0
  0
LINE
  5
1FBED
330
747D
100
AcDbEntity
  8
細線
 48
50.0
100
AcDbLine
 10
5121.909656358574
 20
1354.227651819463
 30
0.0
 11
5128.340436976921
 21
1330.227651819463
 31
0.0
  0
LINE
  5
1FBEE
330
747D
100
AcDbEntity
  8
細線
 48
50.0
100
AcDbLine
 10
5043.021611411322
 20
1354.227651819463
 30
0.0
 11
5049.452392029668
 21
1330.227651819463
 31
0.0
  0
LINE
  5
1FBEF
330
747D
100
AcDbEntity
  8
細線
 48
50.0
100
AcDbLine
 10
5279.685746253079
 20
1354.227651819463
 30
0.0
 11
5286.116526871425
 21
1330.227651819463
 31
0.0
  0
LINE
  5
1FBF0
330
747D
100
AcDbEntity
  8
細線
 48
50.0
100
AcDbLine
 10
5200.797701305827
 20
1354.227651819463
 30
0.0
 11
5207.228481924172
 21
1330.227651819463
 31
0.0
  0
LINE
  5
1FBF1
330
747D
100
AcDbEntity
  8
細線
 48
50.0
100
AcDbLine
 10
5097.810758918996
 20
1458.227651819463
 30
0.0
 11
5193.810758918995
 21
1554.227651819463
 31
0.0
  0
LINE
  5
1FBF2
330
747D
100
AcDbEntity
  8
細線
 48
50.0
100
AcDbLine
 10
5070.869990555785
 20
1458.227651819463
 30
0.0
 11
5166.869990555785
 21
1554.227651819463
 31
0.0
  0
LINE
  5
1FBF3
330
747D
100
AcDbEntity
  8
部品1
 48
50.0
100
AcDbLine
 10
5124.072126138711
 20
1570.227651819463
 30
0.0
 11
5124.072126138711
 21
1554.227651819463
 31
0.0
  0
LINE
  5
1FBF4
330
747D
100
AcDbEntity
  8
細線
 48
50.0
100
AcDbLine
 10
5064.457546805812
 20
1434.227651819463
 30
0.0
 11
5058.026766187464
 21
1458.227651819463
 31
0.0
  0
LINE
  5
1FBF5
330
747D
100
AcDbEntity
  8
細線
 48
50.0
100
AcDbLine
 10
4988.072126138711
 20
1443.567572785243
 30
0.0
 11
4992.000282476907
 21
1458.227651819463
 31
0.0
  0
LINE
  5
1FBF6
330
747D
100
AcDbEntity
  8
部品1
 48
50.0
100
AcDbLine
 10
5284.072126138712
 20
1636.354866516585
 30
0.0
 11
5268.072126138712
 21
1636.354866516585
 31
0.0
  0
CIRCLE
  5
1FBF7
330
747D
100
AcDbEntity
  8
部品1
 48
50.0
100
AcDbCircle
 10
5164.072126138711
 20
1578.227651819463
 30
0.0
 40
8.0
  0
LINE
  5
1FBF8
330
747D
100
AcDbEntity
  8
細線
 48
50.0
100
AcDbLine
 10
5236.7515272822
 20
1570.227651819463
 30
0.0
 11
5268.072126138712
 21
1601.548250675974
 31
0.0
  0
ARC
  5
1FBF9
330
747D
100
AcDbEntity
  8
部品1
 48
50.0
100
AcDbCircle
 10
5292.072126138712
 20
1578.227651819463
 30
0.0
 40
24.0
100
AcDbArc
 50
180.0
 51
199.4712206345269
  0
LINE
  5
1FBFA
330
747D
100
AcDbEntity
  8
細線
 48
50.0
100
AcDbLine
 10
5143.345591753063
 20
1434.227651819463
 30
0.0
 11
5136.914811134716
 21
1458.227651819463
 31
0.0
  0
LINE
  5
1FBFB
330
747D
100
AcDbEntity
  8
細線
 48
50.0
100
AcDbLine
 10
5222.233636700315
 20
1434.227651819463
 30
0.0
 11
5215.802856081969
 21
1458.227651819463
 31
0.0
  0
LINE
  5
1FBFC
330
747D
100
AcDbEntity
  8
細線
 48
50.0
100
AcDbLine
 10
5124.751527282199
 20
1458.227651819463
 30
0.0
 11
5220.7515272822
 21
1554.227651819463
 31
0.0
  0
LINE
  5
1FBFD
330
747D
100
AcDbEntity
  8
部品1
 48
50.0
100
AcDbLine
 10
5268.072126138712
 20
1636.354866516585
 30
0.0
 11
5268.072126138712
 21
1578.227651819463
 31
0.0
  0
LINE
  5
1FBFE
330
747D
100
AcDbEntity
  8
細線
 48
50.0
100
AcDbLine
 10
5209.810758918995
 20
1570.227651819463
 30
0.0
 11
5268.072126138712
 21
1628.489019039182
 31
0.0
  0
LINE
  5
1FBFF
330
747D
100
AcDbEntity
  8
部品1
 48
50.0
100
AcDbLine
 10
5284.072126138712
 20
1636.354866516585
 30
0.0
 11
5284.072126138712
 21
1578.227651819463
 31
0.0
  0
LINE
  5
1FC00
330
747D
100
AcDbEntity
  8
部品1
 48
50.0
100
AcDbLine
 10
5596.072126138715
 20
1458.227651819463
 30
0.0
 11
5596.072126138715
 21
1330.227651819463
 31
0.0
  0
LINE
  5
1FC01
330
747D
100
AcDbEntity
  8
細線
 48
50.0
100
AcDbLine
 10
5509.919100476466
 20
1330.227651819463
 30
0.0
 11
5544.21659710765
 21
1458.227651819461
 31
0.0
  0
LINE
  5
1FC02
330
747D
100
AcDbEntity
  8
細線
 48
50.0
100
AcDbLine
 10
5352.143010581971
 20
1330.227651819463
 30
0.0
 11
5386.440507213158
 21
1458.227651819461
 31
0.0
  0
LINE
  5
1FC03
330
747D
100
AcDbEntity
  8
細線
 48
50.0
100
AcDbLine
 10
5431.03105552922
 20
1330.227651819461
 30
0.0
 11
5465.328552160404
 21
1458.227651819461
 31
0.0
  0
LINE
  5
1FC04
330
747D
100
AcDbEntity
  8
細線
 48
50.0
100
AcDbLine
 10
5437.461836147569
 20
1354.227651819463
 30
0.0
 11
5443.892616765918
 21
1330.227651819463
 31
0.0
  0
LINE
  5
1FC05
330
747D
100
AcDbEntity
  8
細線
 48
50.0
100
AcDbLine
 10
5358.573791200324
 20
1354.227651819463
 30
0.0
 11
5365.00457181867
 21
1330.227651819463
 31
0.0
  0
LINE
  5
1FC06
330
747D
100
AcDbEntity
  8
細線
 48
50.0
100
AcDbLine
 10
5516.349881094817
 20
1354.227651819463
 30
0.0
 11
5522.780661713165
 21
1330.227651819463
 31
0.0
  0
LINE
  5
1FC07
330
747D
100
AcDbEntity
  8
細線
 48
50.0
100
AcDbLine
 10
5595.237926042064
 20
1354.227651819463
 30
0.0
 11
5596.072126138711
 21
1351.114374675099
 31
0.0
  0
LINE
  5
1FC08
330
747D
100
AcDbEntity
  8
細線
 48
50.0
100
AcDbLine
 10
5588.807145423714
 20
1330.227651819461
 30
0.0
 11
5596.072126138711
 21
1357.340928963851
 31
0.0
  0
LINE
  5
1FC09
330
747D
100
AcDbEntity
  8
細線
 48
50.0
100
AcDbLine
 10
5452.277674187858
 20
1570.227651819463
 30
0.0
 11
5516.072126138712
 21
1634.022103770314
 31
0.0
  0
CIRCLE
  5
1FC0A
330
747D
100
AcDbEntity
  8
部品1
 48
50.0
100
AcDbCircle
 10
5420.072126138712
 20
1578.227651819463
 30
0.0
 40
8.0
  0
ARC
  5
1FC0B
330
747D
100
AcDbEntity
  8
部品1
 48
50.0
100
AcDbCircle
 10
5292.072126138712
 20
1578.227651819463
 30
0.0
 40
24.0
100
AcDbArc
 50
340.5287793654731
 51
0.0
  0
LINE
  5
1FC0C
330
747D
100
AcDbEntity
  8
細線
 48
50.0
100
AcDbLine
 10
5301.121681647568
 20
1434.227651819463
 30
0.0
 11
5294.69090102922
 21
1458.227651819463
 31
0.0
  0
LINE
  5
1FC0D
330
747D
100
AcDbEntity
  8
細線
 48
50.0
100
AcDbLine
 10
5380.009726594813
 20
1434.227651819463
 30
0.0
 11
5373.578945976468
 21
1458.227651819463
 31
0.0
  0
LINE
  5
1FC0E
330
747D
100
AcDbEntity
  8
細線
 48
50.0
100
AcDbLine
 10
5313.336905824655
 20
1458.227651819463
 30
0.0
 11
5409.336905824655
 21
1554.227651819463
 31
0.0
  0
LINE
  5
1FC0F
330
747D
100
AcDbEntity
  8
細線
 48
50.0
100
AcDbLine
 10
5340.277674187859
 20
1458.227651819463
 30
0.0
 11
5436.278562032995
 21
1554.228539664602
 31
0.0
  0
LINE
  5
1FC10
330
747D
100
AcDbEntity
  8
部品1
 48
50.0
100
AcDbLine
 10
5460.072126138712
 20
1570.227651819463
 30
0.0
 11
5460.072126138712
 21
1554.227651819463
 31
0.0
  0
LINE
  5
1FC11
330
747D
100
AcDbEntity
  8
細線
 48
50.0
100
AcDbLine
 10
5537.785816489306
 20
1434.227651819463
 30
0.0
 11
5531.355035870959
 21
1458.227651819463
 31
0.0
  0
LINE
  5
1FC12
330
747D
100
AcDbEntity
  8
細線
 48
50.0
100
AcDbLine
 10
5501.922284367105
 20
1458.227651819463
 30
0.0
 11
5516.072126138712
 21
1472.37749359107
 31
0.0
  0
LINE
  5
1FC13
330
747D
100
AcDbEntity
  8
細線
 48
50.0
100
AcDbLine
 10
5458.897771542059
 20
1434.227651819463
 30
0.0
 11
5452.466990923713
 21
1458.227651819463
 31
0.0
  0
LINE
  5
1FC14
330
747D
100
AcDbEntity
  8
細線
 48
50.0
100
AcDbLine
 10
5196.072126138711
 20
1772.015165944841
 30
0.0
 11
5300.072126138717
 21
1876.015165944844
 31
0.0
  0
LINE
  5
1FC15
330
747D
100
AcDbEntity
  8
細線
 48
50.0
100
AcDbLine
 10
5196.072126138711
 20
1798.955934308049
 30
0.0
 11
5300.072126138712
 21
1902.955934308049
 31
0.0
  0
LINE
  5
1FC16
330
747D
100
AcDbEntity
  8
細線
 48
50.0
100
AcDbLine
 10
5196.072126138711
 20
1745.074397581634
 30
0.0
 11
5300.072126138717
 21
1849.074397581634
 31
0.0
  0
LINE
  5
1FC17
330
747D
100
AcDbEntity
  8
細線
 48
50.0
100
AcDbLine
 10
5284.072126138712
 20
2048.600544487294
 30
0.0
 11
5300.072126138712
 21
2064.600544487294
 31
0.0
  0
LINE
  5
1FC18
330
747D
100
AcDbEntity
  8
細線
 48
50.0
100
AcDbLine
 10
5284.072126138712
 20
2075.541312850501
 30
0.0
 11
5300.072126138712
 21
2091.5413128505
 31
0.0
  0
LINE
  5
1FC19
330
747D
100
AcDbEntity
  8
部品1
 48
50.0
100
AcDbLine
 10
5068.072126138712
 20
1698.227651819463
 30
0.0
 11
5196.072126138711
 21
1698.227651819463
 31
0.0
  0
LINE
  5
1FC1A
330
747D
100
AcDbEntity
  8
細線
 48
50.0
100
AcDbLine
 10
5068.072126138704
 20
1644.015165944838
 30
0.0
 11
5122.284612013336
 21
1698.227651819463
 31
0.0
  0
LINE
  5
1FC1B
330
747D
100
AcDbEntity
  8
細線
 48
50.0
100
AcDbLine
 10
5068.072126138704
 20
1670.955934308049
 30
0.0
 11
5095.343843650126
 21
1698.227651819463
 31
0.0
  0
LINE
  5
1FC1C
330
747D
100
AcDbEntity
  8
部品1
 48
50.0
100
AcDbLine
 10
5284.072126138712
 20
2044.354866516585
 30
0.0
 11
5268.072126138712
 21
2044.354866516589
 31
0.0
  0
LINE
  5
1FC1D
330
747D
100
AcDbEntity
  8
細線
 48
50.0
100
AcDbLine
 10
5196.072126138711
 20
1960.600544487293
 30
0.0
 11
5279.826448168005
 21
2044.354866516585
 31
0.0
  0
LINE
  5
1FC1E
330
747D
100
AcDbEntity
  8
細線
 48
50.0
100
AcDbLine
 10
5196.072126138711
 20
1987.5413128505
 30
0.0
 11
5268.072126138712
 21
2059.541312850501
 31
0.0
  0
LINE
  5
1FC1F
330
747D
100
AcDbEntity
  8
部品1
 48
50.0
100
AcDbLine
 10
5268.072126138712
 20
2044.354866516589
 30
0.0
 11
5268.072126138712
 21
2102.482081213709
 31
0.0
  0
LINE
  5
1FC20
330
747D
100
AcDbEntity
  8
細線
 48
50.0
100
AcDbLine
 10
5196.072126138711
 20
2014.482081213709
 30
0.0
 11
5268.072126138712
 21
2086.482081213709
 31
0.0
  0
LINE
  5
1FC21
330
747D
100
AcDbEntity
  8
部品1
 48
50.0
100
AcDbLine
 10
5284.072126138712
 20
2044.354866516585
 30
0.0
 11
5284.072126138712
 21
2102.482081213709
 31
0.0
  0
LINE
  5
1FC22
330
747D
100
AcDbEntity
  8
細線
 48
50.0
100
AcDbLine
 10
5316.072126138717
 20
1865.074397581634
 30
0.0
 11
5388.072126138705
 21
1937.074397581634
 31
0.0
  0
LINE
  5
1FC23
330
747D
100
AcDbEntity
  8
部品1
 48
50.0
100
AcDbLine
 10
5388.072126138712
 20
1698.227651819463
 30
0.0
 11
5516.072126138712
 21
1698.227651819463
 31
0.0
  0
LINE
  5
1FC24
330
747D
100
AcDbEntity
  8
細線
 48
50.0
100
AcDbLine
 10
5316.072126138717
 20
1676.489019039184
 30
0.0
 11
5388.072126138705
 21
1748.489019039179
 31
0.0
  0
LINE
  5
1FC25
330
747D
100
AcDbEntity
  8
細線
 48
50.0
100
AcDbLine
 10
5316.072126138717
 20
1703.429787402392
 30
0.0
 11
5388.072126138705
 21
1775.429787402388
 31
0.0
  0
LINE
  5
1FC26
330
747D
100
AcDbEntity
  8
細線
 48
50.0
100
AcDbLine
 10
5316.072126138717
 20
1649.548250675974
 30
0.0
 11
5388.072126138705
 21
1721.548250675974
 31
0.0
  0
LINE
  5
1FC27
330
747D
100
AcDbEntity
  8
細線
 48
50.0
100
AcDbLine
 10
5316.072126138712
 20
1918.955934308049
 30
0.0
 11
5388.072126138712
 21
1990.955934308049
 31
0.0
  0
LINE
  5
1FC28
330
747D
100
AcDbEntity
  8
細線
 48
50.0
100
AcDbLine
 10
5316.072126138717
 20
1892.015165944844
 30
0.0
 11
5388.072126138705
 21
1964.015165944838
 31
0.0
  0
MTEXT
  5
1FC29
102
{ACAD_REACTORS
330
1FBD4
102
}
330
747D
100
AcDbEntity
  8
寸法
 62
     7
 48
50.0
100
AcDbMText
 10
5629.810581999961
 20
1280.87856608731
 30
0.0
 40
80.0
 41
0.8
 71
     4
 72
     1
  1
\A1;D10@300
  7
STYLE2
 73
     1
 44
1.0
1001
ACAD
1000
MTEXTBEGIN
1070
    73
1070
     1
1070
    44
1040
1.0
1070
    74
1070
     0
1000
MTEXTEND
  0
DIMENSION
  5
1FC2A
330
747D
100
AcDbEntity
  8
寸法
 48
50.0
100
AcDbDimension
  2
*D29
 10
5196.072126138711
 20
2562.227651819463
 30
0.0
 11
5303.298456483908
 21
2661.895459735843
 31
0.0
 70
   160
  1
120\P170
 71
     5
 42
192.0
  3
INABA_S40G
100
AcDbAlignedDimension
 13
5388.072126138711
 23
2242.227651819463
 33
0.0
 14
5196.072126138711
 24
2242.227651819463
 34
0.0
100
AcDbRotatedDimension
1001
ACAD
1000
DSTYLE
1002
{
1070
   174
1070
     0
1070
   272
1070
     1
1070
   279
1070
     1
1070
   288
1070
     0
1070
   341
1005
0
1002
}
  0
LINE
  5
1FC2B
330
747D
100
AcDbEntity
  8
部品1
 48
50.0
100
AcDbLine
 10
5196.072126138711
 20
2242.227651819463
 30
0.0
 11
5388.072126138712
 21
2242.227651819463
 31
0.0
  0
LINE
  5
1FC2C
330
747D
100
AcDbEntity
  8
細線
 48
50.0
100
AcDbLine
 10
5196.072126138711
 20
2203.067459756161
 30
0.0
 11
5235.232318202015
 21
2242.227651819463
 31
0.0
  0
LINE
  5
1FC2D
330
747D
100
AcDbEntity
  8
細線
 48
50.0
100
AcDbLine
 10
5196.072126138711
 20
2176.126691392953
 30
0.0
 11
5262.173086565221
 21
2242.227651819463
 31
0.0
  0
LINE
  5
1FC2E
330
747D
100
AcDbEntity
  8
細線
 48
50.0
100
AcDbLine
 10
5196.072126138711
 20
2230.008228119368
 30
0.0
 11
5208.291549838807
 21
2242.227651819463
 31
0.0
  0
LINE
  5
1FC2F
330
747D
100
AcDbEntity
  8
細線
 48
50.0
100
AcDbLine
 10
5315.624833404697
 20
2107.094020116485
 30
0.0
 11
5388.072126138712
 21
2179.541312850501
 31
0.0
  0
LINE
  5
1FC30
330
747D
100
AcDbEntity
  8
細線
 48
50.0
100
AcDbLine
 10
5304.564548641181
 20
2122.974503716179
 30
0.0
 11
5388.072126138712
 21
2206.482081213708
 31
0.0
  0
LINE
  5
1FC31
330
747D
100
AcDbEntity
  8
細線
 48
50.0
100
AcDbLine
 10
7180.511439315907
 20
2083.355934308052
 30
0.0
 11
7310.111439315903
 21
2212.95593430805
 31
0.0
  0
LINE
  5
1FC32
330
747D
100
AcDbEntity
  8
部品1
100
AcDbLine
 10
7310.111439315903
 20
1698.227651819463
 30
0.0
 11
7310.111439315903
 21
2242.227651819463
 31
0.0
  0
LINE
  5
1FC33
330
747D
100
AcDbEntity
  8
部品1
 48
50.0
100
AcDbLine
 10
6896.111439315905
 20
1698.227651819463
 30
0.0
 11
6896.111439315905
 21
2242.227651819463
 31
0.0
  0
LINE
  5
1FC34
330
747D
100
AcDbEntity
  8
細線
 48
50.0
100
AcDbLine
 10
6896.111439315905
 20
2014.482081213709
 30
0.0
 11
7054.511439315904
 21
2172.882081213705
 31
0.0
  0
LINE
  5
1FC35
330
747D
100
AcDbEntity
  8
細線
 48
50.0
100
AcDbLine
 10
6896.111439315905
 20
1987.5413128505
 30
0.0
 11
7054.511439315904
 21
2145.941312850498
 31
0.0
  0
LINE
  5
1FC36
330
747D
100
AcDbEntity
  8
細線
 48
50.0
100
AcDbLine
 10
6896.111439315905
 20
1960.600544487293
 30
0.0
 11
7054.511439315902
 21
2119.000544487286
 31
0.0
  0
TEXT
  5
1FC37
330
747D
100
AcDbEntity
  8
部品1
 48
50.0
100
AcDbText
 10
6481.971537482948
 20
2013.466644102718
 30
0.0
 40
80.0
  1
▽G.L
  7
STYLE2
100
AcDbText
  0
LINE
  5
1FC38
330
747D
100
AcDbEntity
  8
部品1
100
AcDbLine
 10
7126.511439315905
 20
2017.227651819463
 30
0.0
 11
7126.511439315902
 21
2291.387651819464
 31
0.0
  0
LINE
  5
1FC39
330
747D
100
AcDbEntity
  8
部品1
100
AcDbLine
 10
7108.511439315906
 20
2017.227651819463
 30
0.0
 11
7108.511439315901
 21
2291.387651819464
 31
0.0
  0
LINE
  5
1FC3A
330
747D
100
AcDbEntity
  8
細線
 48
50.0
100
AcDbLine
 10
7180.511439315907
 20
2029.474397581622
 30
0.0
 11
7310.111439315903
 21
2159.074397581613
 31
0.0
  0
LINE
  5
1FC3B
330
747D
100
AcDbEntity
  8
細線
 48
50.0
100
AcDbLine
 10
7180.511439315907
 20
2056.415165944835
 30
0.0
 11
7310.111439315903
 21
2186.015165944831
 31
0.0
  0
LINE
  5
1FC3C
330
747D
100
AcDbEntity
  8
部品1
100
AcDbLine
 10
7180.511439315906
 20
1918.227651819463
 30
0.0
 11
7180.511439315906
 21
2242.227651819463
 31
0.0
  0
LINE
  5
1FC3D
330
747D
100
AcDbEntity
  8
部品1
100
AcDbLine
 10
7054.511439315899
 20
1918.227651819463
 30
0.0
 11
7054.511439315906
 21
2242.227651819463
 31
0.0
  0
LINE
  5
1FC3E
330
747D
100
AcDbEntity
  8
細線
 48
50.0
100
AcDbLine
 10
6896.111439315905
 20
1772.015165944841
 30
0.0
 11
7054.511439315898
 21
1930.41516594483
 31
0.0
  0
LINE
  5
1FC3F
330
747D
100
AcDbEntity
  8
細線
 48
50.0
100
AcDbLine
 10
6896.111439315905
 20
1745.074397581634
 30
0.0
 11
7069.264693553741
 21
1918.227651819461
 31
0.0
  0
LINE
  5
1FC40
330
747D
100
AcDbEntity
  8
細線
 48
50.0
100
AcDbLine
 10
6896.111439315905
 20
1798.955934308049
 30
0.0
 11
7054.511439315898
 21
1957.355934308044
 31
0.0
  0
LINE
  5
1FC41
330
747D
100
AcDbEntity
  8
細線
 48
50.0
100
AcDbLine
 10
6824.790840459394
 20
1458.227651819463
 30
0.0
 11
7310.111439315903
 21
1943.548250675971
 31
0.0
  0
LINE
  5
1FC42
330
747D
100
AcDbEntity
  8
細線
 48
50.0
100
AcDbLine
 10
6797.850072096188
 20
1458.227651819463
 30
0.0
 11
7310.111439315908
 21
1970.489019039177
 31
0.0
  0
LINE
  5
1FC43
330
747D
100
AcDbEntity
  8
細線
 48
50.0
100
AcDbLine
 10
6770.909303732979
 20
1458.227651819463
 30
0.0
 11
7310.111439315903
 21
1997.429787402388
 31
0.0
  0
LINE
  5
1FC44
330
747D
100
AcDbEntity
  8
部品1
 48
50.0
100
AcDbLine
 10
7518.111439315908
 20
1458.227651819463
 30
0.0
 11
6688.111439315908
 21
1458.227651819463
 31
0.0
  0
LINE
  5
1FC45
330
747D
100
AcDbEntity
  8
部品1
 48
50.0
100
AcDbLine
 10
7518.111439315908
 20
1330.227651819463
 30
0.0
 11
6688.111439315908
 21
1330.227651819463
 31
0.0
  0
LINE
  5
1FC46
330
747D
100
AcDbEntity
  8
細線
 48
50.0
100
AcDbLine
 10
6768.111439315899
 20
1617.074397581634
 30
0.0
 11
6849.264693553734
 21
1698.227651819463
 31
0.0
  0
LINE
  5
1FC47
330
747D
100
AcDbEntity
  8
部品1
 48
50.0
100
AcDbLine
 10
6768.111439315905
 20
1458.227651819463
 30
0.0
 11
6768.111439315905
 21
1698.227651819463
 31
0.0
  0
LINE
  5
1FC48
330
747D
100
AcDbEntity
  8
細線
 48
50.0
100
AcDbLine
 10
6815.518188917422
 20
1330.227651819463
 30
0.0
 11
6849.815685548604
 21
1458.227651819463
 31
0.0
  0
LINE
  5
1FC49
330
747D
100
AcDbEntity
  8
部品1
 48
50.0
100
AcDbLine
 10
6688.111439315908
 20
1330.227651819463
 30
0.0
 11
6688.111439315908
 21
1458.227651819463
 31
0.0
  0
LINE
  5
1FC4A
330
747D
100
AcDbEntity
  8
細線
 48
50.0
100
AcDbLine
 10
6736.630143970164
 20
1330.227651819461
 30
0.0
 11
6770.927640601347
 21
1458.227651819461
 31
0.0
  0
LINE
  5
1FC4B
330
747D
100
AcDbEntity
  8
細線
 48
50.0
100
AcDbLine
 10
6894.406233864668
 20
1330.227651819461
 30
0.0
 11
6928.70373049585
 21
1458.227651819461
 31
0.0
  0
LINE
  5
1FC4C
330
747D
100
AcDbEntity
  8
細線
 48
50.0
100
AcDbLine
 10
6743.060924588516
 20
1354.227651819463
 30
0.0
 11
6749.491705206863
 21
1330.227651819463
 31
0.0
  0
LINE
  5
1FC4D
330
747D
100
AcDbEntity
  8
細線
 48
50.0
100
AcDbLine
 10
6900.837014483021
 20
1354.227651819463
 30
0.0
 11
6907.267795101367
 21
1330.227651819463
 31
0.0
  0
LINE
  5
1FC4E
330
747D
100
AcDbEntity
  8
細線
 48
50.0
100
AcDbLine
 10
6821.948969535769
 20
1354.227651819463
 30
0.0
 11
6828.379750154116
 21
1330.227651819463
 31
0.0
  0
LINE
  5
1FC4F
330
747D
100
AcDbEntity
  8
細線
 48
50.0
100
AcDbLine
 10
6688.111439315905
 20
1443.567572785243
 30
0.0
 11
6692.0395956541
 21
1458.227651819463
 31
0.0
  0
LINE
  5
1FC50
330
747D
100
AcDbEntity
  8
細線
 48
50.0
100
AcDbLine
 10
6764.496859983006
 20
1434.227651819463
 30
0.0
 11
6758.06607936466
 21
1458.227651819463
 31
0.0
  0
LINE
  5
1FC51
330
747D
100
AcDbEntity
  8
細線
 48
50.0
100
AcDbLine
 10
6922.272949877509
 20
1434.227651819463
 30
0.0
 11
6915.842169259163
 21
1458.227651819463
 31
0.0
  0
LINE
  5
1FC52
330
747D
100
AcDbEntity
  8
細線
 48
50.0
100
AcDbLine
 10
6843.384904930258
 20
1434.227651819463
 30
0.0
 11
6836.954124311912
 21
1458.227651819463
 31
0.0
  0
LWPOLYLINE
  5
1FC53
330
747D
100
AcDbEntity
  8
部品1
 48
50.0
100
AcDbPolyline
 90
        2
 70
     0
 43
8.0
 10
6481.971537482948
 20
2002.227651819464
 10
6896.111439315905
 20
2002.227651819464
  0
LINE
  5
1FC54
330
747D
100
AcDbEntity
  8
細線
 48
50.0
100
AcDbLine
 10
6768.111439315899
 20
1644.015165944838
 30
0.0
 11
6822.32392519053
 21
1698.227651819463
 31
0.0
  0
LINE
  5
1FC55
330
747D
100
AcDbEntity
  8
部品1
 48
50.0
100
AcDbLine
 10
6768.111439315905
 20
1698.227651819463
 30
0.0
 11
6896.111439315905
 21
1698.227651819463
 31
0.0
  0
LINE
  5
1FC56
330
747D
100
AcDbEntity
  8
細線
 48
50.0
100
AcDbLine
 10
6768.111439315899
 20
1670.955934308049
 30
0.0
 11
6795.38315682732
 21
1698.227651819463
 31
0.0
  0
LINE
  5
1FC57
330
747D
100
AcDbEntity
  8
細線
 48
50.0
100
AcDbLine
 10
7013.37621900185
 20
1458.227651819463
 30
0.0
 11
7310.111439315903
 21
1754.962872133515
 31
0.0
  0
LINE
  5
1FC58
330
747D
100
AcDbEntity
  8
細線
 48
50.0
100
AcDbLine
 10
7040.316987365054
 20
1458.227651819463
 30
0.0
 11
7310.111439315903
 21
1728.02210377032
 31
0.0
  0
LINE
  5
1FC59
330
747D
100
AcDbEntity
  8
細線
 48
50.0
100
AcDbLine
 10
6986.435450638639
 20
1458.227651819463
 30
0.0
 11
7310.111439315903
 21
1781.903640496729
 31
0.0
  0
LINE
  5
1FC5A
330
747D
100
AcDbEntity
  8
細線
 48
50.0
100
AcDbLine
 10
7201.961597544297
 20
1458.227651819463
 30
0.0
 11
7438.111439315903
 21
1694.377493591071
 31
0.0
  0
LINE
  5
1FC5B
330
747D
100
AcDbEntity
  8
細線
 48
50.0
100
AcDbLine
 10
7228.90236590751
 20
1458.227651819463
 30
0.0
 11
7438.111439315903
 21
1667.436725227856
 31
0.0
  0
LINE
  5
1FC5C
330
747D
100
AcDbEntity
  8
部品1
 48
50.0
100
AcDbLine
 10
7438.111439315903
 20
1698.227651819463
 30
0.0
 11
7438.111439315903
 21
1458.227651819463
 31
0.0
  0
LINE
  5
1FC5D
330
747D
100
AcDbEntity
  8
細線
 48
50.0
100
AcDbLine
 10
7255.843134270714
 20
1458.227651819463
 30
0.0
 11
7438.111439315903
 21
1640.495956864659
 31
0.0
  0
LINE
  5
1FC5E
330
747D
100
AcDbEntity
  8
細線
 48
50.0
100
AcDbLine
 10
7131.070368706414
 20
1330.227651819461
 30
0.0
 11
7165.367865337597
 21
1458.227651819461
 31
0.0
  0
LINE
  5
1FC5F
330
747D
100
AcDbEntity
  8
細線
 48
50.0
100
AcDbLine
 10
6973.29427881192
 20
1330.227651819463
 30
0.0
 11
7007.591775443103
 21
1458.227651819463
 31
0.0
  0
LINE
  5
1FC60
330
747D
100
AcDbEntity
  8
細線
 48
50.0
100
AcDbLine
 10
7052.182323759166
 20
1330.227651819463
 30
0.0
 11
7086.479820390351
 21
1458.227651819461
 31
0.0
  0
LINE
  5
1FC61
330
747D
100
AcDbEntity
  8
細線
 48
50.0
100
AcDbLine
 10
7209.958413653658
 20
1330.227651819463
 30
0.0
 11
7244.255910284843
 21
1458.227651819461
 31
0.0
  0
LINE
  5
1FC62
330
747D
100
AcDbEntity
  8
細線
 48
50.0
100
AcDbLine
 10
7058.613104377518
 20
1354.227651819463
 30
0.0
 11
7065.043884995866
 21
1330.227651819463
 31
0.0
  0
LINE
  5
1FC63
330
747D
100
AcDbEntity
  8
細線
 48
50.0
100
AcDbLine
 10
6979.725059430272
 20
1354.227651819463
 30
0.0
 11
6986.155840048619
 21
1330.227651819463
 31
0.0
  0
LINE
  5
1FC64
330
747D
100
AcDbEntity
  8
細線
 48
50.0
100
AcDbLine
 10
7216.389194272011
 20
1354.227651819463
 30
0.0
 11
7222.819974890358
 21
1330.227651819463
 31
0.0
  0
LINE
  5
1FC65
330
747D
100
AcDbEntity
  8
細線
 48
50.0
100
AcDbLine
 10
7137.501149324766
 20
1354.227651819463
 30
0.0
 11
7143.931929943112
 21
1330.227651819463
 31
0.0
  0
LINE
  5
1FC66
330
747D
100
AcDbEntity
  8
細線
 48
50.0
100
AcDbLine
 10
7080.049039772008
 20
1434.227651819463
 30
0.0
 11
7073.61825915366
 21
1458.227651819463
 31
0.0
  0
LINE
  5
1FC67
330
747D
100
AcDbEntity
  8
細線
 48
50.0
100
AcDbLine
 10
7001.160994824761
 20
1434.227651819463
 30
0.0
 11
6994.730214206414
 21
1458.227651819463
 31
0.0
  0
LINE
  5
1FC68
330
747D
100
AcDbEntity
  8
細線
 48
50.0
100
AcDbLine
 10
7158.937084719254
 20
1434.227651819463
 30
0.0
 11
7152.506304100907
 21
1458.227651819463
 31
0.0
  0
LINE
  5
1FC69
330
747D
100
AcDbEntity
  8
細線
 48
50.0
100
AcDbLine
 10
7237.8251296665
 20
1434.227651819463
 30
0.0
 11
7231.394349048155
 21
1458.227651819463
 31
0.0
  0
LINE
  5
1FC6A
330
747D
100
AcDbEntity
  8
部品1
 48
50.0
100
AcDbLine
 10
7518.111439315908
 20
1458.227651819463
 30
0.0
 11
7518.111439315908
 21
1330.227651819463
 31
0.0
  0
LINE
  5
1FC6B
330
747D
100
AcDbEntity
  8
細線
 48
50.0
100
AcDbLine
 10
7446.622548495399
 20
1330.227651819461
 30
0.0
 11
7480.920045126587
 21
1458.22765181946
 31
0.0
  0
LINE
  5
1FC6C
330
747D
100
AcDbEntity
  8
細線
 48
50.0
100
AcDbLine
 10
7288.846458600906
 20
1330.227651819461
 30
0.0
 11
7323.14395523208
 21
1458.227651819463
 31
0.0
  0
LINE
  5
1FC6D
330
747D
100
AcDbEntity
  8
細線
 48
50.0
100
AcDbLine
 10
7367.734503548156
 20
1330.22765181946
 30
0.0
 11
7402.032000179339
 21
1458.22765181946
 31
0.0
  0
LINE
  5
1FC6E
330
747D
100
AcDbEntity
  8
細線
 48
50.0
100
AcDbLine
 10
7295.277239219257
 20
1354.227651819463
 30
0.0
 11
7301.708019837613
 21
1330.227651819463
 31
0.0
  0
LINE
  5
1FC6F
330
747D
100
AcDbEntity
  8
細線
 48
50.0
100
AcDbLine
 10
7374.165284166505
 20
1354.227651819461
 30
0.0
 11
7380.596064784852
 21
1330.227651819461
 31
0.0
  0
LINE
  5
1FC70
330
747D
100
AcDbEntity
  8
細線
 48
50.0
100
AcDbLine
 10
7453.053329113751
 20
1354.227651819461
 30
0.0
 11
7459.484109732099
 21
1330.227651819461
 31
0.0
  0
LINE
  5
1FC71
330
747D
100
AcDbEntity
  8
細線
 48
50.0
100
AcDbLine
 10
7316.713174613738
 20
1434.227651819463
 30
0.0
 11
7310.28239399539
 21
1458.227651819463
 31
0.0
  0
LINE
  5
1FC72
330
747D
100
AcDbEntity
  8
細線
 48
50.0
100
AcDbLine
 10
7395.601219560994
 20
1434.227651819461
 30
0.0
 11
7389.170438942649
 21
1458.227651819461
 31
0.0
  0
LINE
  5
1FC73
330
747D
100
AcDbEntity
  8
細線
 48
50.0
100
AcDbLine
 10
7474.48926450824
 20
1434.227651819461
 30
0.0
 11
7468.058483889894
 21
1458.227651819461
 31
0.0
  0
LINE
  5
1FC74
330
747D
100
AcDbEntity
  8
部品1
100
AcDbLine
 10
7180.511439315906
 20
1918.227651819461
 30
0.0
 11
7054.511439315899
 21
1918.227651819461
 31
0.0
  0
LINE
  5
1FC75
330
747D
100
AcDbEntity
  8
部品1
100
AcDbLine
 10
7162.511439315905
 20
1999.227651819463
 30
0.0
 11
7162.511439315905
 21
2017.227651819463
 31
0.0
  0
ARC
  5
1FC76
330
747D
100
AcDbEntity
  8
部品1
100
AcDbCircle
 10
7126.511439315905
 20
2017.227651819463
 30
0.0
 40
18.0
100
AcDbArc
 50
180.0
 51
270.0
  0
LINE
  5
1FC77
330
747D
100
AcDbEntity
  8
部品1
100
AcDbLine
 10
7126.511439315905
 20
1999.227651819463
 30
0.0
 11
7162.511439315905
 21
1999.227651819463
 31
0.0
  0
LINE
  5
1FC78
330
747D
100
AcDbEntity
  8
部品1
100
AcDbLine
 10
7126.511439315905
 20
2017.227651819463
 30
0.0
 11
7162.511439315905
 21
2017.227651819463
 31
0.0
  0
LINE
  5
1FC79
330
747D
100
AcDbEntity
  8
部品1
 48
50.0
100
AcDbLine
 10
7310.111439315903
 20
1698.227651819463
 30
0.0
 11
7438.111439315903
 21
1698.227651819463
 31
0.0
  0
LINE
  5
1FC7A
330
747D
100
AcDbEntity
  8
部品1
100
AcDbLine
 10
6915.911439315905
 20
2332.227651819463
 30
0.0
 11
6953.711439315906
 21
2332.227651819463
 31
0.0
  0
LINE
  5
1FC7B
330
747D
100
AcDbEntity
  8
細線
 48
50.0
100
AcDbLine
 10
6896.111439315905
 20
2203.067459756161
 30
0.0
 11
6935.271631379212
 21
2242.227651819463
 31
0.0
  0
LINE
  5
1FC7C
330
747D
100
AcDbEntity
  8
細線
 48
50.0
100
AcDbLine
 10
6896.111439315905
 20
2176.126691392953
 30
0.0
 11
6962.212399742416
 21
2242.227651819463
 31
0.0
  0
LINE
  5
1FC7D
330
747D
100
AcDbEntity
  8
部品1
 48
50.0
100
AcDbLine
 10
6896.111439315905
 20
2242.227651819463
 30
0.0
 11
7310.111439315908
 21
2242.227651819463
 31
0.0
  0
TEXT
  5
1FC7E
330
747D
100
AcDbEntity
  8
部品1
 48
50.0
100
AcDbText
 10
6469.665342736414
 20
2572.788172919939
 30
0.0
 40
80.0
  1
※(別売)
  7
STYLE2
100
AcDbText
  0
LINE
  5
1FC7F
330
747D
100
AcDbEntity
  8
部品1
100
AcDbLine
 10
6913.211439315905
 20
2321.427651819463
 30
0.0
 11
6913.211439315905
 21
2329.527651819463
 31
0.0
  0
ARC
  5
1FC80
330
747D
100
AcDbEntity
  8
部品1
100
AcDbCircle
 10
6915.911439315905
 20
2329.527651819463
 30
0.0
 40
2.7
100
AcDbArc
 50
90.0
 51
180.0
  0
ARC
  5
1FC81
330
747D
100
AcDbEntity
  8
部品1
100
AcDbCircle
 10
6905.111439315906
 20
2316.619555522171
 30
0.0
 40
2.7
100
AcDbArc
 50
104.0362434679012
 51
180.0
  0
LINE
  5
1FC82
330
747D
100
AcDbEntity
  8
部品1
100
AcDbLine
 10
6904.456593128306
 20
2319.238940272563
 30
0.0
 11
6913.211439315905
 21
2321.427651819463
 31
0.0
  0
ARC
  5
1FC83
330
747D
100
AcDbEntity
  8
部品1
100
AcDbCircle
 10
6905.111439315906
 20
2254.487651819463
 30
0.0
 40
2.7
100
AcDbArc
 50
180.0
 51
270.0
  0
LINE
  5
1FC84
330
747D
100
AcDbEntity
  8
細線
 48
50.0
100
AcDbLine
 10
6896.111439315905
 20
2230.008228119368
 30
0.0
 11
6908.330863016001
 21
2242.227651819463
 31
0.0
  0
LINE
  5
1FC85
330
747D
100
AcDbEntity
  8
部品1
100
AcDbLine
 10
6905.111439315906
 20
2251.787651819464
 30
0.0
 11
6916.8114393159
 21
2251.787651819464
 31
0.0
  0
LINE
  5
1FC86
330
747D
100
AcDbEntity
  8
部品1
100
AcDbLine
 10
6902.411439315905
 20
2254.487651819463
 30
0.0
 11
6902.411439315905
 21
2316.619555522171
 31
0.0
  0
LINE
  5
1FC87
330
747D
100
AcDbEntity
  8
部品1
100
AcDbLine
 10
7061.0714393159
 20
2251.787651819464
 30
0.0
 11
7262.411439315901
 21
2251.787651819464
 31
0.0
  0
LINE
  5
1FC88
330
747D
100
AcDbEntity
  8
部品1
100
AcDbLine
 10
6953.711439315906
 20
2332.227651819463
 30
0.0
 11
6953.711439315906
 21
2340.327651819464
 31
0.0
  0
LINE
  5
1FC89
330
747D
100
AcDbEntity
  8
部品1
100
AcDbLine
 10
7004.111439315905
 20
2351.12765181946
 30
0.0
 11
7004.111439315905
 21
2299.827651819464
 31
0.0
  0
LINE
  5
1FC8A
330
747D
100
AcDbEntity
  8
部品1
100
AcDbLine
 10
7027.511439315905
 20
2311.787651819463
 30
0.0
 11
7055.671439315905
 21
2311.787651819463
 31
0.0
  0
ARC
  5
1FC8B
330
747D
100
AcDbEntity
  8
部品1
100
AcDbCircle
 10
7027.511439315905
 20
2309.087651819464
 30
0.0
 40
2.7
100
AcDbArc
 50
90.0
 51
180.0
  0
ARC
  5
1FC8C
330
747D
100
AcDbEntity
  8
部品1
100
AcDbCircle
 10
7055.671439315905
 20
2309.087651819464
 30
0.0
 40
2.7
100
AcDbArc
 50
0.0
 51
90.0
  0
LINE
  5
1FC8D
330
747D
100
AcDbEntity
  8
部品1
100
AcDbLine
 10
7046.411439315905
 20
2297.127651819463
 30
0.0
 11
7046.411439315905
 21
2254.487651819463
 31
0.0
  0
LINE
  5
1FC8E
330
747D
100
AcDbEntity
  8
部品1
100
AcDbLine
 10
7032.011439315906
 20
2251.787651819464
 30
0.0
 11
7043.711439315905
 21
2251.787651819464
 31
0.0
  0
ARC
  5
1FC8F
330
747D
100
AcDbEntity
  8
部品1
100
AcDbCircle
 10
7061.0714393159
 20
2254.487651819463
 30
0.0
 40
2.7
100
AcDbArc
 50
180.0
 51
270.0
  0
ARC
  5
1FC90
330
747D
100
AcDbEntity
  8
部品1
100
AcDbCircle
 10
7043.711439315905
 20
2254.487651819463
 30
0.0
 40
2.7
100
AcDbArc
 50
270.0
 51
0.0
  0
LINE
  5
1FC91
330
747D
100
AcDbEntity
  8
部品1
100
AcDbLine
 10
7004.111439315905
 20
2299.827651819464
 30
0.0
 11
7043.711439315905
 21
2299.827651819464
 31
0.0
  0
ARC
  5
1FC92
330
747D
100
AcDbEntity
  8
部品1
100
AcDbCircle
 10
7043.711439315905
 20
2297.127651819463
 30
0.0
 40
2.7
100
AcDbArc
 50
0.0
 51
90.0
  0
LINE
  5
1FC93
330
747D
100
AcDbEntity
  8
部品1
100
AcDbLine
 10
7058.371439315907
 20
2309.087651819464
 30
0.0
 11
7058.371439315902
 21
2254.487651819463
 31
0.0
  0
LINE
  5
1FC94
330
747D
100
AcDbEntity
  8
部品1
100
AcDbLine
 10
7024.811439315906
 20
2309.087651819464
 30
0.0
 11
7024.811439315906
 21
2291.987651819463
 31
0.0
  0
LINE
  5
1FC95
330
747D
100
AcDbEntity
  8
細線
100
AcDbLine
 10
7122.911439315905
 20
2251.787651819464
 30
0.0
 11
7122.911439315905
 21
2294.987651819463
 31
0.0
  0
LINE
  5
1FC96
330
747D
100
AcDbEntity
  8
細線
100
AcDbLine
 10
7112.111439315907
 20
2251.787651819464
 30
0.0
 11
7112.111439315905
 21
2294.987651819463
 31
0.0
  0
LINE
  5
1FC97
330
747D
100
AcDbEntity
  8
部品1
100
AcDbLine
 10
7108.511439315906
 20
2291.387651819464
 30
0.0
 11
7126.511439315905
 21
2291.387651819464
 31
0.0
  0
LINE
  5
1FC98
330
747D
100
AcDbEntity
  8
部品1
100
AcDbLine
 10
7112.111439315905
 20
2294.987651819463
 30
0.0
 11
7122.911439315905
 21
2294.987651819463
 31
0.0
  0
ELLIPSE
  5
1FC99
330
747D
100
AcDbEntity
  8
部品1
 48
50.0
100
AcDbEllipse
 10
7117.511439315904
 20
2511.350940263735
 30
0.0
 11
40.0
 21
0.0
 31
0.0
210
0.0
220
0.0
230
1.0
 40
0.4
 41
0.0
 42
6.283185307179586
  0
ELLIPSE
  5
1FC9A
330
747D
100
AcDbEntity
  8
部品1
 48
50.0
100
AcDbEllipse
 10
7117.511439315904
 20
2501.750940263737
 30
0.0
 11
40.0
 21
0.0
 31
0.0
210
0.0
220
0.0
230
1.0
 40
0.4
 41
3.141592653589793
 42
6.283185307179586
  0
LINE
  5
1FC9B
330
747D
100
AcDbEntity
  8
部品1
 48
50.0
100
AcDbLine
 10
7077.511439315905
 20
2511.350940263735
 30
0.0
 11
7077.511439315905
 21
2501.750940263735
 31
0.0
  0
ARC
  5
1FC9C
330
747D
100
AcDbEntity
  8
部品1
100
AcDbCircle
 10
7001.411439315905
 20
2351.12765181946
 30
0.0
 40
2.7
100
AcDbArc
 50
0.0
 51
90.0
  0
ARC
  5
1FC9D
330
747D
100
AcDbEntity
  8
部品1
100
AcDbCircle
 10
6959.111439315904
 20
2351.127651819463
 30
0.0
 40
2.7
100
AcDbArc
 50
90.0
 51
180.0
  0
LINE
  5
1FC9E
330
747D
100
AcDbEntity
  8
部品1
100
AcDbLine
 10
6956.411439315906
 20
2343.027651819463
 30
0.0
 11
6956.411439315906
 21
2343.027651819463
 31
0.0
  0
LINE
  5
1FC9F
330
747D
100
AcDbEntity
  8
部品1
100
AcDbLine
 10
6956.411439315906
 20
2343.027651819463
 30
0.0
 11
6956.411439315906
 21
2351.127651819463
 31
0.0
  0
LINE
  5
1FCA0
330
747D
100
AcDbEntity
  8
部品1
100
AcDbLine
 10
6959.111439315904
 20
2353.827651819464
 30
0.0
 11
7001.411439315905
 21
2353.82765181946
 31
0.0
  0
ARC
  5
1FCA1
330
747D
100
AcDbEntity
  8
部品1
100
AcDbCircle
 10
6956.411439315906
 20
2340.327651819464
 30
0.0
 40
2.7
100
AcDbArc
 50
90.0
 51
180.0
  0
ELLIPSE
  5
1FCA2
330
747D
100
AcDbEntity
  8
部品1
 48
50.0
100
AcDbEllipse
 10
7117.511439315904
 20
2511.350940263735
 30
0.0
 11
18.4
 21
0.0
 31
0.0
210
0.0
220
0.0
230
1.0
 40
0.3478260869565217
 41
0.0
 42
6.283185307179586
  0
LINE
  5
1FCA3
330
747D
100
AcDbEntity
  8
部品1
 48
50.0
100
AcDbLine
 10
7157.511439315905
 20
2501.750940263735
 30
0.0
 11
7157.511439315905
 21
2511.350940263735
 31
0.0
  0
LINE
  5
1FCA4
330
747D
100
AcDbEntity
  8
部品1
 48
50.0
100
AcDbLine
 10
7085.511439315905
 20
2633.102932928606
 30
0.0
 11
7101.511439315905
 21
2625.102932928606
 31
0.0
  0
LINE
  5
1FCA5
330
747D
100
AcDbEntity
  8
部品1
 48
50.0
100
AcDbLine
 10
7085.511439315905
 20
2601.102932928606
 30
0.0
 11
7101.511439315905
 21
2593.102932928606
 31
0.0
  0
LINE
  5
1FCA6
330
747D
100
AcDbEntity
  8
部品1
 48
50.0
100
AcDbLine
 10
7085.511439315905
 20
2633.102932928606
 30
0.0
 11
7101.511439315905
 21
2641.102932928606
 31
0.0
  0
LINE
  5
1FCA7
330
747D
100
AcDbEntity
  8
部品1
 48
50.0
100
AcDbLine
 10
7085.511439315905
 20
2601.102932928606
 30
0.0
 11
7085.511439315905
 21
2633.102932928606
 31
0.0
  0
LINE
  5
1FCA8
330
747D
100
AcDbEntity
  8
部品1
 48
50.0
100
AcDbLine
 10
7101.511439315905
 20
2641.102932928606
 30
0.0
 11
7133.511439315906
 21
2641.102932928606
 31
0.0
  0
ELLIPSE
  5
1FCA9
330
747D
100
AcDbEntity
  8
細線
 48
50.0
100
AcDbEllipse
 10
7117.511439315904
 20
2633.102932928606
 30
0.0
 11
14.76670786606846
 21
0.0
 31
0.0
210
0.0
220
0.0
230
1.0
 40
0.2071254069489396
 41
0.0
 42
6.283185307179586
  0
LINE
  5
1FCAA
330
747D
100
AcDbEntity
  8
部品1
 48
50.0
100
AcDbLine
 10
7101.511439315905
 20
2593.102932928606
 30
0.0
 11
7133.511439315906
 21
2593.102932928606
 31
0.0
  0
LINE
  5
1FCAB
330
747D
100
AcDbEntity
  8
部品1
 48
50.0
100
AcDbLine
 10
7133.511439315906
 20
2593.102932928606
 30
0.0
 11
7149.511439315905
 21
2601.102932928606
 31
0.0
  0
LINE
  5
1FCAC
330
747D
100
AcDbEntity
  8
部品1
 48
50.0
100
AcDbLine
 10
7101.511439315905
 20
2625.102932928606
 30
0.0
 11
7133.511439315906
 21
2625.102932928606
 31
0.0
  0
LINE
  5
1FCAD
330
747D
100
AcDbEntity
  8
部品1
 48
50.0
100
AcDbLine
 10
7133.511439315906
 20
2625.102932928606
 30
0.0
 11
7149.511439315905
 21
2633.102932928606
 31
0.0
  0
LINE
  5
1FCAE
330
747D
100
AcDbEntity
  8
細線
 48
50.0
100
AcDbLine
 10
7133.511439315906
 20
2593.102932928606
 30
0.0
 11
7133.511439315906
 21
2625.102932928606
 31
0.0
  0
LINE
  5
1FCAF
330
747D
100
AcDbEntity
  8
部品1
 48
50.0
100
AcDbLine
 10
7149.511439315905
 20
2601.102932928606
 30
0.0
 11
7149.511439315905
 21
2633.102932928606
 31
0.0
  0
LINE
  5
1FCB0
330
747D
100
AcDbEntity
  8
細線
 48
50.0
100
AcDbLine
 10
7101.511439315905
 20
2593.102932928606
 30
0.0
 11
7101.511439315905
 21
2625.102932928606
 31
0.0
  0
LINE
  5
1FCB1
330
747D
100
AcDbEntity
  8
部品1
 48
50.0
100
AcDbLine
 10
7133.511439315906
 20
2641.102932928606
 30
0.0
 11
7149.511439315905
 21
2633.102932928606
 31
0.0
  0
TEXT
  5
1FCB2
330
747D
100
AcDbEntity
  8
部品1
100
AcDbText
 10
6818.283688507834
 20
3458.933268990242
 30
0.0
 40
120.0
  1
基礎詳細
  7
STYLE2
100
AcDbText
  0
LINE
  5
1FCB3
330
747D
100
AcDbEntity
  8
部品1
100
AcDbLine
 10
10196.38887271569
 20
674.1782313570229
 30
0.0
 11
10196.3888727157
 21
3638.48520094167
 31
0.0
  0
LINE
  5
1FCB4
330
747D
100
AcDbEntity
  8
細線
100
AcDbLine
 10
9204.280705295447
 20
2002.227651819463
 30
0.0
 11
9009.647371618664
 21
2196.860985496246
 31
0.0
  0
LINE
  5
1FCB5
330
747D
100
AcDbEntity
  8
部品1
100
AcDbLine
 10
9009.647371618664
 20
2242.227651819463
 30
0.0
 11
9489.647371618664
 21
2242.227651819463
 31
0.0
  0
LINE
  5
1FCB6
330
747D
100
AcDbEntity
  8
細線
 48
50.0
100
AcDbLine
 10
9143.718256061921
 20
1782.528736166113
 30
0.0
 11
9178.015752693108
 21
1910.528736166112
 31
0.0
  0
LINE
  5
1FCB7
330
747D
100
AcDbEntity
  8
部品1
100
AcDbLine
 10
8889.647371618663
 20
1782.528736166109
 30
0.0
 11
9609.647371618663
 21
1782.528736166113
 31
0.0
  0
LINE
  5
1FCB8
330
747D
100
AcDbEntity
  8
部品1
100
AcDbLine
 10
8889.647371618663
 20
1910.528736166113
 30
0.0
 11
9609.647371618663
 21
1910.528736166116
 31
0.0
  0
LINE
  5
1FCB9
330
747D
100
AcDbEntity
  8
細線
100
AcDbLine
 10
9070.566017111906
 20
1910.528736166113
 30
0.0
 11
9162.264932765252
 21
2002.227651819463
 31
0.0
  0
LWPOLYLINE
  5
1FCBA
330
747D
100
AcDbEntity
  8
部品1
 48
50.0
100
AcDbPolyline
 90
        2
 70
     0
 43
8.0
 10
8625.036109518275
 20
2002.227651819463
 10
9826.1284126499
 20
2002.227651819463
  0
LINE
  5
1FCBB
330
747D
100
AcDbEntity
  8
細線
100
AcDbLine
 10
9153.369017050016
 20
2002.227651819463
 30
0.0
 11
9009.647371618664
 21
2145.949297250816
 31
0.0
  0
TEXT
  5
1FCBC
330
747D
100
AcDbEntity
  8
部品1
 48
50.0
100
AcDbText
 10
8245.529284860159
 20
1735.427911182154
 30
0.0
 40
80.0
  1
ボルトの出
 50
90.0
  7
STYLE2
100
AcDbText
  0
LINE
  5
1FCBD
330
747D
100
AcDbEntity
  8
部品1
100
AcDbLine
 10
9009.647371618664
 20
2002.227651819463
 30
0.0
 11
9009.647371618664
 21
2242.227651819463
 31
0.0
  0
LINE
  5
1FCBE
330
747D
100
AcDbEntity
  8
細線
 48
50.0
100
AcDbLine
 10
8985.942166167422
 20
1782.528736166112
 30
0.0
 11
9020.239662798607
 21
1910.528736166112
 31
0.0
  0
LINE
  5
1FCBF
330
747D
100
AcDbEntity
  8
細線
 48
50.0
100
AcDbLine
 10
9064.830211114673
 20
1782.528736166113
 30
0.0
 11
9099.127707745857
 21
1910.528736166113
 31
0.0
  0
LINE
  5
1FCC0
330
747D
100
AcDbEntity
  8
細線
 48
50.0
100
AcDbLine
 10
8907.054121220175
 20
1782.528736166113
 30
0.0
 11
8941.35161785136
 21
1910.528736166113
 31
0.0
  0
LINE
  5
1FCC1
330
747D
100
AcDbEntity
  8
部品1
100
AcDbLine
 10
8889.647371618663
 20
1782.528736166109
 30
0.0
 11
8889.647371618663
 21
2002.227651819463
 31
0.0
  0
LINE
  5
1FCC2
330
747D
100
AcDbEntity
  8
細線
 48
50.0
100
AcDbLine
 10
8992.372946785774
 20
1806.528736166113
 30
0.0
 11
8998.803727404121
 21
1782.528736166113
 31
0.0
  0
LINE
  5
1FCC3
330
747D
100
AcDbEntity
  8
細線
 48
50.0
100
AcDbLine
 10
8913.484901838522
 20
1806.528736166113
 30
0.0
 11
8919.915682456871
 21
1782.528736166113
 31
0.0
  0
LINE
  5
1FCC4
330
747D
100
AcDbEntity
  8
細線
 48
50.0
100
AcDbLine
 10
9071.260991733026
 20
1806.528736166113
 30
0.0
 11
9077.691772351373
 21
1782.528736166113
 31
0.0
  0
LINE
  5
1FCC5
330
747D
100
AcDbEntity
  8
細線
 48
50.0
100
AcDbLine
 10
9150.149036680272
 20
1806.528736166113
 30
0.0
 11
9156.579817298618
 21
1782.528736166113
 31
0.0
  0
LINE
  5
1FCC6
330
747D
100
AcDbEntity
  8
細線
 48
50.0
100
AcDbLine
 10
8934.920837233013
 20
1886.528736166113
 30
0.0
 11
8928.490056614664
 21
1910.528736166113
 31
0.0
  0
LINE
  5
1FCC7
330
747D
100
AcDbEntity
  8
細線
 48
50.0
100
AcDbLine
 10
9092.696927127516
 20
1886.528736166113
 30
0.0
 11
9086.266146509171
 21
1910.528736166113
 31
0.0
  0
LINE
  5
1FCC8
330
747D
100
AcDbEntity
  8
細線
 48
50.0
100
AcDbLine
 10
9013.808882180262
 20
1886.528736166113
 30
0.0
 11
9007.378101561917
 21
1910.528736166113
 31
0.0
  0
LINE
  5
1FCC9
330
747D
100
AcDbEntity
  8
細線
100
AcDbLine
 10
9002.683766117991
 20
1910.528736166113
 30
0.0
 11
9094.382681771341
 21
2002.227651819463
 31
0.0
  0
LINE
  5
1FCCA
330
747D
100
AcDbEntity
  8
細線
100
AcDbLine
 10
9036.624891614948
 20
1910.528736166113
 30
0.0
 11
9128.323807268294
 21
2002.227651819463
 31
0.0
  0
LINE
  5
1FCCB
330
747D
100
AcDbEntity
  8
細線
100
AcDbLine
 10
9424.898021025651
 20
2002.227651819463
 30
0.0
 11
9184.898021025652
 21
2242.227651819463
 31
0.0
  0
LINE
  5
1FCCC
330
747D
100
AcDbEntity
  8
細線
100
AcDbLine
 10
9475.80970927108
 20
2002.227651819465
 30
0.0
 11
9235.809709271084
 21
2242.227651819463
 31
0.0
  0
LINE
  5
1FCCD
330
747D
100
AcDbEntity
  8
部品1
100
AcDbLine
 10
9489.647371618664
 20
2242.227651819463
 30
0.0
 11
9489.647371618664
 21
2002.227651819463
 31
0.0
  0
LINE
  5
1FCCE
330
747D
100
AcDbEntity
  8
細線
 48
50.0
100
AcDbLine
 10
9459.27043585091
 20
1782.52873616611
 30
0.0
 11
9493.567932482093
 21
1910.52873616611
 31
0.0
  0
LINE
  5
1FCCF
330
747D
100
AcDbEntity
  8
細線
100
AcDbLine
 10
9430.566017111903
 20
1910.528736166115
 30
0.0
 11
9522.264932765249
 21
2002.227651819463
 31
0.0
  0
LINE
  5
1FCD0
330
747D
100
AcDbEntity
  8
細線
 48
50.0
100
AcDbLine
 10
9380.382390903662
 20
1782.528736166112
 30
0.0
 11
9414.679887534836
 21
1910.528736166113
 31
0.0
  0
LINE
  5
1FCD1
330
747D
100
AcDbEntity
  8
細線
 48
50.0
100
AcDbLine
 10
9222.60630100917
 20
1782.528736166112
 30
0.0
 11
9256.903797640353
 21
1910.528736166112
 31
0.0
  0
LINE
  5
1FCD2
330
747D
100
AcDbEntity
  8
細線
 48
50.0
100
AcDbLine
 10
9301.494345956413
 20
1782.528736166113
 30
0.0
 11
9335.791842587598
 21
1910.528736166112
 31
0.0
  0
LINE
  5
1FCD3
330
747D
100
AcDbEntity
  8
細線
 48
50.0
100
AcDbLine
 10
9307.925126574764
 20
1806.528736166113
 30
0.0
 11
9314.355907193112
 21
1782.528736166113
 31
0.0
  0
LINE
  5
1FCD4
330
747D
100
AcDbEntity
  8
細線
 48
50.0
100
AcDbLine
 10
9229.037081627518
 20
1806.528736166113
 30
0.0
 11
9235.467862245865
 21
1782.528736166113
 31
0.0
  0
LINE
  5
1FCD5
330
747D
100
AcDbEntity
  8
細線
 48
50.0
100
AcDbLine
 10
9386.813171522012
 20
1806.528736166113
 30
0.0
 11
9393.243952140368
 21
1782.528736166113
 31
0.0
  0
LINE
  5
1FCD6
330
747D
100
AcDbEntity
  8
細線
 48
50.0
100
AcDbLine
 10
9465.701216469261
 20
1806.528736166112
 30
0.0
 11
9472.131997087606
 21
1782.528736166112
 31
0.0
  0
LINE
  5
1FCD7
330
747D
100
AcDbEntity
  8
細線
 48
50.0
100
AcDbLine
 10
9329.361061969255
 20
1886.528736166113
 30
0.0
 11
9322.930281350908
 21
1910.528736166113
 31
0.0
  0
LINE
  5
1FCD8
330
747D
100
AcDbEntity
  8
細線
 48
50.0
100
AcDbLine
 10
9250.473017022008
 20
1886.528736166113
 30
0.0
 11
9244.042236403663
 21
1910.528736166113
 31
0.0
  0
LINE
  5
1FCD9
330
747D
100
AcDbEntity
  8
細線
 48
50.0
100
AcDbLine
 10
9171.584972074761
 20
1886.528736166113
 30
0.0
 11
9165.154191456414
 21
1910.528736166113
 31
0.0
  0
LINE
  5
1FCDA
330
747D
100
AcDbEntity
  8
細線
100
AcDbLine
 10
9396.624891614953
 20
1910.528736166115
 30
0.0
 11
9488.323807268294
 21
2002.227651819463
 31
0.0
  0
LINE
  5
1FCDB
330
747D
100
AcDbEntity
  8
細線
 48
50.0
100
AcDbLine
 10
9408.249106916491
 20
1886.528736166113
 30
0.0
 11
9401.818326298146
 21
1910.528736166113
 31
0.0
  0
LINE
  5
1FCDC
330
747D
100
AcDbEntity
  8
細線
100
AcDbLine
 10
9362.683766117996
 20
1910.528736166115
 30
0.0
 11
9454.38268177134
 21
2002.227651819463
 31
0.0
  0
LINE
  5
1FCDD
330
747D
100
AcDbEntity
  8
細線
 48
50.0
100
AcDbLine
 10
9487.13715186375
 20
1886.528736166112
 30
0.0
 11
9480.706371245402
 21
1910.528736166112
 31
0.0
  0
LINE
  5
1FCDE
330
747D
100
AcDbEntity
  8
細線
 48
50.0
100
AcDbLine
 10
9538.158480798154
 20
1782.528736166112
 30
0.0
 11
9572.45597742934
 21
1910.52873616611
 31
0.0
  0
LINE
  5
1FCDF
330
747D
100
AcDbEntity
  8
部品1
100
AcDbLine
 10
9609.647371618663
 20
2002.227651819463
 30
0.0
 11
9609.647371618665
 21
1782.528736166113
 31
0.0
  0
LINE
  5
1FCE0
330
747D
100
AcDbEntity
  8
細線
 48
50.0
100
AcDbLine
 10
9544.589261416506
 20
1806.528736166112
 30
0.0
 11
9551.020042034854
 21
1782.528736166112
 31
0.0
  0
LINE
  5
1FCE1
330
747D
100
AcDbEntity
  8
細線
 48
50.0
100
AcDbLine
 10
9566.025196810995
 20
1886.528736166112
 30
0.0
 11
9559.59441619265
 21
1910.528736166112
 31
0.0
  0
LEADER
  5
1FCE2
330
747D
100
AcDbEntity
  8
寸法
 48
50.0
100
AcDbLeader
  3
INABA_S50G
 73
     0
 74
     0
 75
     1
 40
120.0
 41
185.591883092037
 76
     3
 10
9420.371783234587
 20
2242.227651819463
 30
0.0
 10
9453.509989868228
 20
2414.373972500601
 30
0.0
 10
9578.509989868228
 20
2414.373972500601
 30
0.0
340
1FCE3
1001
ACAD
1000
DSTYLE
1002
{
1070
    40
1040
1.0
1002
}
  0
MTEXT
  5
1FCE3
102
{ACAD_REACTORS
330
1FCE2
102
}
330
747D
100
AcDbEntity
  8
寸法
 62
     7
 48
50.0
100
AcDbMText
 10
9603.509989868229
 20
2499.373972500601
 30
0.0
 40
120.0
 41
0.8
 71
     4
 72
     1
  1
\A1;C.B
  7
STYLE1
 73
     1
 44
1.0
1001
ACAD
1000
MTEXTBEGIN
1070
    73
1070
     1
1070
    44
1040
1.0
1070
    74
1070
     0
1000
MTEXTEND
  0
LINE
  5
1FE86
330
747D
100
AcDbEntity
  8
細線
 48
50.0
100
AcDbLine
 10
8839.51425951415
 20
6677.509306142536
 30
0.0
 11
8884.923989484473
 21
6722.919036112862
 31
0.0
  0
LINE
  5
1FE87
330
747D
100
AcDbEntity
  8
細線
 48
50.0
100
AcDbLine
 10
8839.51425951415
 20
6632.608025537193
 30
0.0
 11
8929.825270089818
 21
6722.91903611286
 31
0.0
  0
LINE
  5
1FE88
330
747D
100
AcDbEntity
  8
細線
 48
50.0
100
AcDbLine
 10
8839.514259514151
 20
6587.70674493185
 30
0.0
 11
8959.514259514154
 21
6707.706744931851
 31
0.0
  0
LINE
  5
1FE89
330
747D
100
AcDbEntity
  8
細線
 48
50.0
100
AcDbLine
 10
8839.514259514151
 20
6542.805464326503
 30
0.0
 11
8959.514259514151
 21
6662.805464326504
 31
0.0
  0
LINE
  5
1FE8A
330
747D
100
AcDbEntity
  8
細線
 48
50.0
100
AcDbLine
 10
8864.529111905852
 20
6522.919036112857
 30
0.0
 11
8959.514259514154
 21
6617.90418372116
 31
0.0
  0
LINE
  5
1FE8B
330
747D
100
AcDbEntity
  8
細線
 48
50.0
100
AcDbLine
 10
8909.430392511195
 20
6522.919036112859
 30
0.0
 11
8959.514259514154
 21
6573.002903115813
 31
0.0
  0
LINE
  5
1FE8C
330
747D
100
AcDbEntity
  8
細線
 48
50.0
100
AcDbLine
 10
8954.331673116547
 20
6522.919036112861
 30
0.0
 11
8959.514259514151
 21
6528.101622510466
 31
0.0
  0
LINE
  5
1FE8D
330
747D
100
AcDbEntity
  8
細線
 48
50.0
100
AcDbLine
 10
7159.514259514151
 20
6697.509306142541
 30
0.0
 11
7184.923989484473
 21
6722.919036112862
 31
0.0
  0
LINE
  5
1FE8E
330
747D
100
AcDbEntity
  8
細線
 48
50.0
100
AcDbLine
 10
7159.514259514151
 20
6652.608025537195
 30
0.0
 11
7229.825270089818
 21
6722.91903611286
 31
0.0
  0
LINE
  5
1FE8F
330
747D
100
AcDbEntity
  8
細線
 48
50.0
100
AcDbLine
 10
7159.514259514151
 20
6607.706744931849
 30
0.0
 11
7274.726550695165
 21
6722.919036112862
 31
0.0
  0
LINE
  5
1FE90
330
747D
100
AcDbEntity
  8
細線
 48
50.0
100
AcDbLine
 10
7159.514259514151
 20
6562.805464326503
 30
0.0
 11
7279.514259514151
 21
6682.805464326506
 31
0.0
  0
LINE
  5
1FE91
330
747D
100
AcDbEntity
  8
細線
 48
50.0
100
AcDbLine
 10
7164.529111905853
 20
6522.919036112857
 30
0.0
 11
7279.514259514151
 21
6637.904183721158
 31
0.0
  0
LINE
  5
1FE92
330
747D
100
AcDbEntity
  8
細線
 48
50.0
100
AcDbLine
 10
7209.4303925112
 20
6522.91903611286
 30
0.0
 11
7279.514259514151
 21
6593.002903115813
 31
0.0
  0
LINE
  5
1FE93
330
747D
100
AcDbEntity
  8
細線
 48
50.0
100
AcDbLine
 10
7254.331673116547
 20
6522.919036112861
 30
0.0
 11
7279.514259514151
 21
6548.101622510471
 31
0.0
  0
LINE
  5
1FE94
330
747D
100
AcDbEntity
  8
細線
 48
50.0
100
AcDbLine
 10
7959.514259514151
 20
7519.646443697578
 30
0.0
 11
7962.786851929433
 21
7522.91903611286
 31
0.0
  0
LINE
  5
1FE95
330
747D
100
AcDbEntity
  8
細線
 48
50.0
100
AcDbLine
 10
7959.514259514151
 20
7474.745163092231
 30
0.0
 11
8007.688132534779
 21
7522.91903611286
 31
0.0
  0
LINE
  5
1FE96
330
747D
100
AcDbEntity
  8
細線
 48
50.0
100
AcDbLine
 10
7959.514259514151
 20
7429.843882486887
 30
0.0
 11
8052.589413140124
 21
7522.91903611286
 31
0.0
  0
LINE
  5
1FE97
330
747D
100
AcDbEntity
  8
細線
 48
50.0
100
AcDbLine
 10
7977.49069374547
 20
7402.91903611286
 30
0.0
 11
8097.49069374547
 21
7522.91903611286
 31
0.0
  0
LINE
  5
1FE98
330
747D
100
AcDbEntity
  8
細線
 48
50.0
100
AcDbLine
 10
8022.391974350815
 20
7402.91903611286
 30
0.0
 11
8142.391974350816
 21
7522.91903611286
 31
0.0
  0
LINE
  5
1FE99
330
747D
100
AcDbEntity
  8
細線
 48
50.0
100
AcDbLine
 10
8067.29325495616
 20
7402.91903611286
 30
0.0
 11
8159.514259514152
 21
7495.140040670849
 31
0.0
  0
LINE
  5
1FE9A
330
747D
100
AcDbEntity
  8
細線
 48
50.0
100
AcDbLine
 10
8112.194535561506
 20
7402.919036112859
 30
0.0
 11
8159.514259514152
 21
7450.238760065504
 31
0.0
  0
TEXT
  5
1FEBD
330
747D
100
AcDbEntity
  8
文字
 62
     7
 48
50.0
100
AcDbText
 10
14816.49629419351
 20
1031.557706291228
 30
0.0
 40
100.0
  1
 <縮尺> S=1/40
  7
STYLE2
100
AcDbText
  0
ENDSEC
  0
SECTION
  2
OBJECTS
  0
DICTIONARY
  5
7471
330
0
100
AcDbDictionary
281
     1
  3
ACAD_COLOR
350
159B0
  3
ACAD_GROUP
350
7472
  3
ACAD_LAYOUT
350
159B1
  3
ACAD_MATERIAL
350
159AF
  3
ACAD_MLINESTYLE
350
7473
  3
ACAD_PLOTSETTINGS
350
159B2
  3
ACAD_PLOTSTYLENAME
350
159AD
  3
ACDBHEADERROUNDTRIPXREC
350
1FEC9
  3
AcDbVariableDictionary
350
1FA10
  3
CONTENTDICTIONARY
350
E71C
  3
DRAWINGVARIABLESDICT
350
F3B9
  0
DICTIONARY
  5
1FA64
330
7467
100
AcDbDictionary
280
     1
281
     1
  3
ACAD_LAYERSTATES
360
1FA65
  0
DICTIONARY
  5
159B0
102
{ACAD_REACTORS
330
7471
102
}
330
7471
100
AcDbDictionary
281
     1
  0
DICTIONARY
  5
7472
102
{ACAD_REACTORS
330
7471
102
}
330
7471
100
AcDbDictionary
281
     1
  0
DICTIONARY
  5
159B1
102
{ACAD_REACTORS
330
7471
102
}
330
7471
100
AcDbDictionary
281
     1
  3
Model
350
159B3
  3
レイアウト1
350
159B4
  0
DICTIONARY
  5
159AF
102
{ACAD_REACTORS
330
7471
102
}
330
7471
100
AcDbDictionary
281
     1
  0
DICTIONARY
  5
7473
102
{ACAD_REACTORS
330
7471
102
}
330
7471
100
AcDbDictionary
281
     1
  3
STANDARD
350
7480
  0
DICTIONARY
  5
159B2
102
{ACAD_REACTORS
330
7471
102
}
330
7471
100
AcDbDictionary
281
     1
  0
ACDBDICTIONARYWDFLT
  5
159AD
102
{ACAD_REACTORS
330
7471
102
}
330
7471
100
AcDbDictionary
281
     1
  3
Normal
350
159AE
100
AcDbDictionaryWithDefault
340
159AE
  0
DICTIONARY
  5
1FEC9
102
{ACAD_REACTORS
330
7471
102
}
330
7471
100
AcDbDictionary
281
     1
  3
COLORDICT
350
1FECB
  3
MATERIALDICT
350
1FECA
  0
DICTIONARY
  5
1FA10
102
{ACAD_REACTORS
330
7471
102
}
330
7471
100
AcDbDictionary
281
     1
  3
DIMASSOC
350
1FA11
  3
PROJECTNAME
350
1FA12
  0
DICTIONARY
  5
E71C
102
{ACAD_REACTORS
330
7471
102
}
330
7471
100
AcDbDictionary
281
     1
  0
DICTIONARY
  5
F3B9
102
{ACAD_REACTORS
330
7471
102
}
330
7471
100
AcDbDictionary
281
     1
1001
DRAWINGVARIABLESXDATA
1000
POLARMODE
1000
1
  0
DICTIONARY
  5
1FA65
102
{ACAD_REACTORS
330
1FA64
102
}
330
1FA64
100
AcDbDictionary
281
     1
  0
LAYOUT
  5
159B3
102
{ACAD_XDICTIONARY
360
1FECC
102
}
102
{ACAD_REACTORS
330
159B1
102
}
330
159B1
100
AcDbPlotSettings
  1

  2
none_device
  4
Letter_(8.50_x_11.00_Inches)
  6

 40
6.349999904632568
 41
6.349999904632568
 42
6.350006103515625
 43
6.350006103515625
 44
215.8999938964844
 45
279.3999938964844
 46
0.0
 47
0.0
 48
0.0
 49
0.0
140
0.0
141
0.0
142
1.0
143
1.0
 70
 11952
 72
     1
 73
     1
 74
     0
  7

 75
     0
147
1.0
148
-4149.571981164617
149
65.56433826894044
100
AcDbLayout
  1
Model
 70
     1
 71
     0
 10
0.0
 20
0.0
 11
12.0
 21
9.0
 12
0.0
 22
0.0
 32
0.0
 14
0.0
 24
0.0
 34
0.0
 15
0.0
 25
0.0
 35
0.0
146
0.0
 13
0.0
 23
0.0
 33
0.0
 16
1.0
 26
0.0
 36
0.0
 17
0.0
 27
1.0
 37
0.0
 76
     0
330
747D
  0
LAYOUT
  5
159B4
102
{ACAD_XDICTIONARY
360
1FECE
102
}
102
{ACAD_REACTORS
330
159B1
102
}
330
159B1
100
AcDbPlotSettings
  1

  2
自動 EPSON LP-8400FX (TATENO 上)
  4

  6

 40
0.0
 41
0.0
 42
0.0
 43
0.0
 44
0.0
 45
0.0
 46
0.0
 47
0.0
 48
0.0
 49
0.0
140
0.0
141
0.0
142
1.0
143
1.0
 70
   688
 72
     0
 73
     0
 74
     5
  7
inaba.ctb
 75
    16
147
1.0
148
0.0
149
0.0
100
AcDbLayout
  1
レイアウト1
 70
     0
 71
     1
 10
0.0
 20
0.0
 11
420.0
 21
297.0
 12
0.0
 22
0.0
 32
0.0
 14
1.000000000000000E+20
 24
1.000000000000000E+20
 34
1.000000000000000E+20
 15
-1.000000000000000E+20
 25
-1.000000000000000E+20
 35
-1.000000000000000E+20
146
0.0
 13
0.0
 23
0.0
 33
0.0
 16
1.0
 26
0.0
 36
0.0
 17
0.0
 27
1.0
 37
0.0
 76
     0
330
747A
  0
MLINESTYLE
  5
7480
102
{ACAD_REACTORS
330
7473
102
}
330
7473
100
AcDbMlineStyle
  2
STANDARD
 70
     0
  3

 62
     0
 51
90.0
 52
90.0
 71
     2
 49
0.5
 62
   256
  6
BYLAYER
 49
-0.5
 62
   256
  6
BYLAYER
  0
ACDBPLACEHOLDER
  5
159AE
102
{ACAD_REACTORS
330
159AD
102
}
330
159AD
  0
XRECORD
  5
1FECB
102
{ACAD_REACTORS
330
1FEC9
102
}
330
1FEC9
100
AcDbXrecord
280
     1
340
159B0
  0
XRECORD
  5
1FECA
102
{ACAD_REACTORS
330
1FEC9
102
}
330
1FEC9
100
AcDbXrecord
280
     1
340
159AF
  0
DICTIONARYVAR
  5
1FA11
102
{ACAD_REACTORS
330
1FA10
102
}
330
1FA10
100
DictionaryVariables
280
     0
  1
1
  0
DICTIONARYVAR
  5
1FA12
102
{ACAD_REACTORS
330
1FA10
102
}
330
1FA10
100
DictionaryVariables
280
     0
  1

  0
DICTIONARY
  5
1FECC
330
159B3
100
AcDbDictionary
280
     1
281
     1
  3
ACAD_XREC_ROUNDTRIP
360
1FECD
  0
DICTIONARY
  5
1FECE
330
159B4
100
AcDbDictionary
280
     1
281
     1
  3
ACAD_XREC_ROUNDTRIP
360
1FECF
  0
XRECORD
  5
1FECD
102
{ACAD_REACTORS
330
1FECC
102
}
330
1FECC
100
AcDbXrecord
280
     1
102
SHADEPLOT
 70
     0
102
SHADEPLOTRESLEVEL
 70
     2
102
SHADEPLOTCUSTOMDPI
 70
   300
  0
XRECORD
  5
1FECF
102
{ACAD_REACTORS
330
1FECE
102
}
330
1FECE
100
AcDbXrecord
280
     1
102
SHADEPLOT
 70
     0
102
SHADEPLOTRESLEVEL
 70
     2
102
SHADEPLOTCUSTOMDPI
 70
   300
  0
ENDSEC
  0
EOF
