  0
SECTION
  2
HEADER
  9
$ACADVER
  1
AC1015
  9
$ACADMAINTVER
 70
    20
  9
$DWGCODEPAGE
  3
ANSI_932
  9
$INSBASE
 10
0.0
 20
0.0
 30
0.0
  9
$EXTMIN
 10
139.9999999999995
 20
-0.0000000000000909
 30
0.0
  9
$EXTMAX
 10
16307.2
 20
11409.6
 30
0.0
  9
$LIMMIN
 10
0.0
 20
0.0
  9
$LIMMAX
 10
16800.0
 20
11880.0
  9
$ORTHOMODE
 70
     0
  9
$REGENMODE
 70
     1
  9
$FILLMODE
 70
     1
  9
$QTEXTMODE
 70
     0
  9
$MIRRTEXT
 70
     1
  9
$LTSCALE
 40
20.0
  9
$ATTMODE
 70
     1
  9
$TEXTSIZE
 40
100.0
  9
$TRACEWID
 40
1.0
  9
$TEXTSTYLE
  7
STYLE2
  9
$CLAYER
  8
寸法
  9
$CELTYPE
  6
BYLAYER
  9
$CECOLOR
 62
   256
  9
$CELTSCALE
 40
50.0
  9
$DISPSILH
 70
     0
  9
$DIMSCALE
 40
40.0
  9
$DIMASZ
 40
2.5
  9
$DIMEXO
 40
0.5
  9
$DIMDLI
 40
7.0
  9
$DIMRND
 40
0.0
  9
$DIMDLE
 40
0.0
  9
$DIMEXE
 40
1.5
  9
$DIMTP
 40
0.0
  9
$DIMTM
 40
0.0
  9
$DIMTXT
 40
3.0
  9
$DIMCEN
 40
0.0
  9
$DIMTSZ
 40
0.0
  9
$DIMTOL
 70
     0
  9
$DIMLIM
 70
     0
  9
$DIMTIH
 70
     0
  9
$DIMTOH
 70
     0
  9
$DIMSE1
 70
     0
  9
$DIMSE2
 70
     0
  9
$DIMTAD
 70
     3
  9
$DIMZIN
 70
     8
  9
$DIMBLK
  1

  9
$DIMASO
 70
     1
  9
$DIMSHO
 70
     1
  9
$DIMPOST
  1

  9
$DIMAPOST
  1

  9
$DIMALT
 70
     0
  9
$DIMALTD
 70
     2
  9
$DIMALTF
 40
0.0394
  9
$DIMLFAC
 40
1.0
  9
$DIMTOFL
 70
     1
  9
$DIMTVP
 40
0.0
  9
$DIMTIX
 70
     0
  9
$DIMSOXD
 70
     0
  9
$DIMSAH
 70
     1
  9
$DIMBLK1
  1
DOTSMALL
  9
$DIMBLK2
  1
DOTSMALL
  9
$DIMSTYLE
  2
INABA_S40G
  9
$DIMCLRD
 70
     0
  9
$DIMCLRE
 70
     0
  9
$DIMCLRT
 70
     7
  9
$DIMTFAC
 40
1.0
  9
$DIMGAP
 40
1.0
  9
$DIMJUST
 70
     0
  9
$DIMSD1
 70
     0
  9
$DIMSD2
 70
     0
  9
$DIMTOLJ
 70
     1
  9
$DIMTZIN
 70
     0
  9
$DIMALTZ
 70
     0
  9
$DIMALTTZ
 70
     0
  9
$DIMUPT
 70
     0
  9
$DIMDEC
 70
     1
  9
$DIMTDEC
 70
     1
  9
$DIMALTU
 70
     2
  9
$DIMALTTD
 70
     2
  9
$DIMTXSTY
  7
STYLE1
  9
$DIMAUNIT
 70
     0
  9
$DIMADEC
 70
     0
  9
$DIMALTRND
 40
0.0
  9
$DIMAZIN
 70
     0
  9
$DIMDSEP
 70
    46
  9
$DIMATFIT
 70
     3
  9
$DIMFRAC
 70
     0
  9
$DIMLDRBLK
  1

  9
$DIMLUNIT
 70
     2
  9
$DIMLWD
 70
    -2
  9
$DIMLWE
 70
    -2
  9
$DIMTMOVE
 70
     1
  9
$LUNITS
 70
     2
  9
$LUPREC
 70
     1
  9
$SKETCHINC
 40
1.0
  9
$FILLETRAD
 40
2.299999999999999
  9
$AUNITS
 70
     0
  9
$AUPREC
 70
     0
  9
$MENU
  1
acad
  9
$ELEVATION
 40
0.0
  9
$PELEVATION
 40
0.0
  9
$THICKNESS
 40
0.0
  9
$LIMCHECK
 70
     0
  9
$CHAMFERA
 40
3.0
  9
$CHAMFERB
 40
3.0
  9
$CHAMFERC
 40
0.0
  9
$CHAMFERD
 40
0.0
  9
$SKPOLY
 70
     0
  9
$TDCREATE
 40
2451368.612993866
  9
$TDUCREATE
 40
2451368.237993866
  9
$TDUPDATE
 40
2455817.627887546
  9
$TDUUPDATE
 40
2455817.252887546
  9
$TDINDWG
 40
1.6531739120
  9
$TDUSRTIMER
 40
1.6531739120
  9
$USRTIMER
 70
     1
  9
$ANGBASE
 50
0.0
  9
$ANGDIR
 70
     0
  9
$PDMODE
 70
     3
  9
$PDSIZE
 40
2.0
  9
$PLINEWID
 40
0.0
  9
$SPLFRAME
 70
     0
  9
$SPLINETYPE
 70
     6
  9
$SPLINESEGS
 70
     8
  9
$HANDSEED
  5
2017B
  9
$SURFTAB1
 70
     6
  9
$SURFTAB2
 70
     6
  9
$SURFTYPE
 70
     6
  9
$SURFU
 70
     6
  9
$SURFV
 70
     6
  9
$UCSBASE
  2

  9
$UCSNAME
  2

  9
$UCSORG
 10
0.0
 20
0.0
 30
0.0
  9
$UCSXDIR
 10
1.0
 20
0.0
 30
0.0
  9
$UCSYDIR
 10
0.0
 20
1.0
 30
0.0
  9
$UCSORTHOREF
  2

  9
$UCSORTHOVIEW
 70
     0
  9
$UCSORGTOP
 10
0.0
 20
0.0
 30
0.0
  9
$UCSORGBOTTOM
 10
0.0
 20
0.0
 30
0.0
  9
$UCSORGLEFT
 10
0.0
 20
0.0
 30
0.0
  9
$UCSORGRIGHT
 10
0.0
 20
0.0
 30
0.0
  9
$UCSORGFRONT
 10
0.0
 20
0.0
 30
0.0
  9
$UCSORGBACK
 10
0.0
 20
0.0
 30
0.0
  9
$PUCSBASE
  2

  9
$PUCSNAME
  2

  9
$PUCSORG
 10
0.0
 20
0.0
 30
0.0
  9
$PUCSXDIR
 10
1.0
 20
0.0
 30
0.0
  9
$PUCSYDIR
 10
0.0
 20
1.0
 30
0.0
  9
$PUCSORTHOREF
  2

  9
$PUCSORTHOVIEW
 70
     0
  9
$PUCSORGTOP
 10
0.0
 20
0.0
 30
0.0
  9
$PUCSORGBOTTOM
 10
0.0
 20
0.0
 30
0.0
  9
$PUCSORGLEFT
 10
0.0
 20
0.0
 30
0.0
  9
$PUCSORGRIGHT
 10
0.0
 20
0.0
 30
0.0
  9
$PUCSORGFRONT
 10
0.0
 20
0.0
 30
0.0
  9
$PUCSORGBACK
 10
0.0
 20
0.0
 30
0.0
  9
$USERI1
 70
     0
  9
$USERI2
 70
     0
  9
$USERI3
 70
     0
  9
$USERI4
 70
     0
  9
$USERI5
 70
     0
  9
$USERR1
 40
0.0
  9
$USERR2
 40
0.0
  9
$USERR3
 40
0.0
  9
$USERR4
 40
0.0
  9
$USERR5
 40
0.0
  9
$WORLDVIEW
 70
     1
  9
$SHADEDGE
 70
     3
  9
$SHADEDIF
 70
    70
  9
$TILEMODE
 70
     1
  9
$MAXACTVP
 70
    16
  9
$PINSBASE
 10
0.0
 20
0.0
 30
0.0
  9
$PLIMCHECK
 70
     0
  9
$PEXTMIN
 10
1.000000000000000E+20
 20
1.000000000000000E+20
 30
1.000000000000000E+20
  9
$PEXTMAX
 10
-1.000000000000000E+20
 20
-1.000000000000000E+20
 30
-1.000000000000000E+20
  9
$PLIMMIN
 10
0.0
 20
0.0
  9
$PLIMMAX
 10
420.0
 20
297.0
  9
$UNITMODE
 70
     0
  9
$VISRETAIN
 70
     0
  9
$PLINEGEN
 70
     0
  9
$PSLTSCALE
 70
     0
  9
$TREEDEPTH
 70
  3020
  9
$CMLSTYLE
  2
STANDARD
  9
$CMLJUST
 70
     0
  9
$CMLSCALE
 40
1.0
  9
$PROXYGRAPHICS
 70
     1
  9
$MEASUREMENT
 70
     1
  9
$CELWEIGHT
370
    -1
  9
$ENDCAPS
280
     0
  9
$JOINSTYLE
280
     0
  9
$LWDISPLAY
290
     0
  9
$INSUNITS
 70
     0
  9
$HYPERLINKBASE
  1

  9
$STYLESHEET
  1
inaba.ctb
  9
$XEDIT
290
     1
  9
$CEPSNTYPE
380
     0
  9
$PSTYLEMODE
290
     1
  9
$FINGERPRINTGUID
  2
{3B57B35E-7D77-4BBF-81B7-6C583B9EB24C}
  9
$VERSIONGUID
  2
{A7C6087D-A5F6-4F49-B758-07D2FBD9E8BD}
  9
$EXTNAMES
290
     1
  9
$PSVPSCALE
 40
0.0
  9
$OLESTARTUP
290
     0
  0
ENDSEC
  0
SECTION
  2
CLASSES
  0
CLASS
  1
ACDBDICTIONARYWDFLT
  2
AcDbDictionaryWithDefault
  3
ObjectDBX Classes
 90
        0
280
     0
281
     0
  0
CLASS
  1
DICTIONARYVAR
  2
AcDbDictionaryVar
  3
ObjectDBX Classes
 90
        0
280
     0
281
     0
  0
CLASS
  1
ACDBPLACEHOLDER
  2
AcDbPlaceHolder
  3
ObjectDBX Classes
 90
        0
280
     0
281
     0
  0
CLASS
  1
LAYOUT
  2
AcDbLayout
  3
ObjectDBX Classes
 90
        0
280
     0
281
     0
  0
ENDSEC
  0
SECTION
  2
TABLES
  0
TABLE
  2
VPORT
  5
746D
330
0
100
AcDbSymbolTable
 70
     2
  0
VPORT
  5
20173
330
746D
100
AcDbSymbolTableRecord
100
AcDbViewportTableRecord
  2
*Active
 70
     0
 10
0.0
 20
0.0
 11
1.0
 21
1.0
 12
8528.94319173391
 22
5704.796475140369
 13
0.0
 23
0.0
 14
10.0
 24
10.0
 15
10.0
 25
10.0
 16
0.0
 26
0.0
 36
1.0
 17
0.0
 27
0.0
 37
0.0
 40
11496.97863559918
 41
1.58160621761658
 42
50.0
 43
0.0
 44
0.0
 50
0.0
 51
0.0
 71
     0
 72
     0
 73
     1
 74
     0
 75
     0
 76
     0
 77
     0
 78
     0
281
     0
 65
     1
110
0.0
120
0.0
130
0.0
111
1.0
121
0.0
131
0.0
112
0.0
122
1.0
132
0.0
 79
     0
146
0.0
  0
ENDTAB
  0
TABLE
  2
LTYPE
  5
746A
330
0
100
AcDbSymbolTable
 70
     3
  0
LTYPE
  5
7477
330
746A
100
AcDbSymbolTableRecord
100
AcDbLinetypeTableRecord
  2
BYBLOCK
 70
     0
  3

 72
    65
 73
     0
 40
0.0
  0
LTYPE
  5
7478
330
746A
100
AcDbSymbolTableRecord
100
AcDbLinetypeTableRecord
  2
BYLAYER
 70
     0
  3

 72
    65
 73
     0
 40
0.0
  0
LTYPE
  5
7479
330
746A
100
AcDbSymbolTableRecord
100
AcDbLinetypeTableRecord
  2
CONTINUOUS
 70
     0
  3
Solid line
 72
    65
 73
     0
 40
0.0
  0
LTYPE
  5
7816
330
746A
100
AcDbSymbolTableRecord
100
AcDbLinetypeTableRecord
  2
CENTER
 70
     0
  3
____ _ ____ _ ____ _ ____ _ ____ _ ____ _ ____ 
 72
    65
 73
     4
 40
2.0
 49
1.25
 74
     0
 49
-0.25
 74
     0
 49
0.25
 74
     0
 49
-0.25
 74
     0
  0
LTYPE
  5
781B
330
746A
100
AcDbSymbolTableRecord
100
AcDbLinetypeTableRecord
  2
PHANTOM
 70
     0
  3
______  __  __  ______  __  __  ______  __  __ 
 72
    65
 73
     6
 40
2.5
 49
1.25
 74
     0
 49
-0.25
 74
     0
 49
0.25
 74
     0
 49
-0.25
 74
     0
 49
0.25
 74
     0
 49
-0.25
 74
     0
  0
ENDTAB
  0
TABLE
  2
LAYER
  5
7467
102
{ACAD_XDICTIONARY
360
1FB9C
102
}
330
0
100
AcDbSymbolTable
 70
    10
  0
LAYER
  5
7474
330
7467
100
AcDbSymbolTableRecord
100
AcDbLayerTableRecord
  2
0
 70
     0
 62
     7
  6
CONTINUOUS
370
    -3
390
159AE
  0
LAYER
  5
DEB2
330
7467
100
AcDbSymbolTableRecord
100
AcDbLayerTableRecord
  2
センター
 70
     0
 62
     3
  6
CENTER
370
    -3
390
159AE
  0
LAYER
  5
DEB3
330
7467
100
AcDbSymbolTableRecord
100
AcDbLayerTableRecord
  2
寸法
 70
     0
 62
     4
  6
CONTINUOUS
370
    -3
390
159AE
  0
LAYER
  5
DEB4
330
7467
100
AcDbSymbolTableRecord
100
AcDbLayerTableRecord
  2
部品1
 70
     0
 62
     7
  6
CONTINUOUS
370
    -3
390
159AE
  0
LAYER
  5
DEB5
330
7467
100
AcDbSymbolTableRecord
100
AcDbLayerTableRecord
  2
補助
 70
     0
 62
    -1
  6
CONTINUOUS
370
    -3
390
159AE
  0
LAYER
  5
DEB6
330
7467
100
AcDbSymbolTableRecord
100
AcDbLayerTableRecord
  2
文字
 70
     0
 62
     7
  6
CONTINUOUS
370
    -3
390
159AE
  0
LAYER
  5
F255
330
7467
100
AcDbSymbolTableRecord
100
AcDbLayerTableRecord
  2
DEFPOINTS
 70
     0
 62
     7
  6
CONTINUOUS
290
     0
370
    -3
390
159AE
  0
LAYER
  5
10B54
330
7467
100
AcDbSymbolTableRecord
100
AcDbLayerTableRecord
  2
仕様書枠
 70
     0
 62
   230
  6
CONTINUOUS
370
    -3
390
159AE
  0
LAYER
  5
1173F
330
7467
100
AcDbSymbolTableRecord
100
AcDbLayerTableRecord
  2
細線
 70
     0
 62
     5
  6
CONTINUOUS
370
    -3
390
159AE
  0
LAYER
  5
12CC4
330
7467
100
AcDbSymbolTableRecord
100
AcDbLayerTableRecord
  2
想像線
 70
     0
 62
     6
  6
PHANTOM
370
    -3
390
159AE
  0
ENDTAB
  0
TABLE
  2
STYLE
  5
7468
330
0
100
AcDbSymbolTable
 70
     3
  0
STYLE
  5
7475
330
7468
100
AcDbSymbolTableRecord
100
AcDbTextStyleTableRecord
  2
STANDARD
 70
     0
 40
0.0
 41
1.0
 50
0.0
 71
     0
 42
4.0
  3
txt
  4
C:\AutoCAD LT\bigfont.shx
  0
STYLE
  5
F706
330
7468
100
AcDbSymbolTableRecord
100
AcDbTextStyleTableRecord
  2
STYLE1
 70
     0
 40
0.0
 41
1.0
 50
0.0
 71
     0
 42
100.0
  3
isocp.shx
  4
bigfont.shx
  0
STYLE
  5
103BF
330
7468
100
AcDbSymbolTableRecord
100
AcDbTextStyleTableRecord
  2
STYLE2
 70
     0
 40
0.0
 41
1.0
 50
0.0
 71
     0
 42
100.0
  3
MS PGothic.ttf
  4

1001
ACAD
1000
MS PGothic
1071
    32818
  0
ENDTAB
  0
TABLE
  2
VIEW
  5
746B
330
0
100
AcDbSymbolTable
 70
     0
  0
ENDTAB
  0
TABLE
  2
UCS
  5
746C
330
0
100
AcDbSymbolTable
 70
     0
  0
ENDTAB
  0
TABLE
  2
APPID
  5
746E
330
0
100
AcDbSymbolTable
 70
     6
  0
APPID
  5
7476
330
746E
100
AcDbSymbolTableRecord
100
AcDbRegAppTableRecord
  2
ACAD
 70
     0
  0
APPID
  5
DEA9
330
746E
100
AcDbSymbolTableRecord
100
AcDbRegAppTableRecord
  2
CONTENTBLOCKICON
 70
     0
  0
APPID
  5
DEAA
330
746E
100
AcDbSymbolTableRecord
100
AcDbRegAppTableRecord
  2
CONTENTBLOCKDESCRIPTION
 70
     0
  0
APPID
  5
E71D
330
746E
100
AcDbSymbolTableRecord
100
AcDbRegAppTableRecord
  2
CONTENTTABDATA
 70
     0
  0
APPID
  5
E71E
330
746E
100
AcDbSymbolTableRecord
100
AcDbRegAppTableRecord
  2
CONTENTCURRENTTAB
 70
     0
  0
APPID
  5
F3BA
330
746E
100
AcDbSymbolTableRecord
100
AcDbRegAppTableRecord
  2
DRAWINGVARIABLESXDATA
 70
     0
  0
ENDTAB
  0
TABLE
  2
DIMSTYLE
  5
746F
330
0
100
AcDbSymbolTable
 70
     1
100
AcDbDimStyleTable
 71
     1
340
F71F
  0
DIMSTYLE
105
F71F
102
{ACAD_REACTORS
330
1FF1F
330
1FE1A
330
1FD62
330
1FD0F
330
1FD0C
330
1FD0B
330
1FD04
330
1FD02
330
1FCFF
330
1FCFD
330
1FCFC
330
1FCFA
330
1FCF9
330
1FCF8
330
1FCF4
330
1FCF2
330
1FCF0
330
1FCEF
330
1FCEB
330
1FCE9
330
1FAC3
330
1FA97
330
1FA71
330
1F9A7
330
1F249
330
1F248
330
1F11C
330
1E98B
330
1E96D
330
1E701
330
1D946
330
1D942
330
1D93F
330
1D93E
330
1D934
330
1D933
330
1D92D
330
1D92C
330
1D929
330
1D927
330
1D926
330
1D925
330
1D920
330
1D91D
330
1D91C
330
1D91B
102
}
330
746F
100
AcDbSymbolTableRecord
100
AcDbDimStyleTableRecord
  2
INABA_S40G
 70
     0
 40
40.0
 41
2.5
 42
0.5
 43
7.0
 44
1.5
 73
     0
 74
     0
 77
     3
 78
     8
140
3.0
141
0.0
143
0.0394
147
1.0
172
     1
173
     1
174
     1
178
     7
271
     1
288
     1
340
F706
341
F770
343
F770
344
F770
  0
ENDTAB
  0
TABLE
  2
BLOCK_RECORD
  5
7466
330
0
100
AcDbSymbolTable
 70
    30
  0
BLOCK_RECORD
  5
747D
330
7466
100
AcDbSymbolTableRecord
100
AcDbBlockTableRecord
  2
*MODEL_SPACE
340
159B3
  0
BLOCK_RECORD
  5
747A
330
7466
100
AcDbSymbolTableRecord
100
AcDbBlockTableRecord
  2
*PAPER_SPACE
340
159B4
  0
BLOCK_RECORD
  5
F770
330
7466
100
AcDbSymbolTableRecord
100
AcDbBlockTableRecord
  2
_DOTSMALL
340
0
102
{BLKREFS
331
2003B
331
2003C
331
20044
331
20045
331
2004D
331
2004E
331
20056
331
20057
331
2005F
331
20060
331
2006D
331
2006E
331
20075
331
20076
331
20080
331
20081
331
2008A
331
2008B
331
20092
331
20093
331
2009B
331
2009C
331
200A5
331
200A6
331
200AE
331
200AF
331
200B6
331
200B7
331
200C1
331
200C2
331
200CC
331
200CD
331
200D5
331
200D6
331
200E0
331
200E1
331
200E9
331
200EA
331
200F4
331
200F5
331
200FE
331
200FF
331
20107
331
20108
331
20110
331
20111
331
2011B
331
2011C
331
20124
331
20125
331
2012C
331
2012D
331
20135
331
20136
331
20140
331
20141
331
2014A
331
2014B
102
}
  0
BLOCK_RECORD
  5
1DA44
330
7466
100
AcDbSymbolTableRecord
100
AcDbBlockTableRecord
  2
*D1
340
0
  0
BLOCK_RECORD
  5
1DA51
330
7466
100
AcDbSymbolTableRecord
100
AcDbBlockTableRecord
  2
*D2
340
0
  0
BLOCK_RECORD
  5
1DA5E
330
7466
100
AcDbSymbolTableRecord
100
AcDbBlockTableRecord
  2
*D3
340
0
  0
BLOCK_RECORD
  5
1DA69
330
7466
100
AcDbSymbolTableRecord
100
AcDbBlockTableRecord
  2
*D4
340
0
  0
BLOCK_RECORD
  5
1DA74
330
7466
100
AcDbSymbolTableRecord
100
AcDbBlockTableRecord
  2
*D5
340
0
  0
BLOCK_RECORD
  5
1DA81
330
7466
100
AcDbSymbolTableRecord
100
AcDbBlockTableRecord
  2
*D6
340
0
  0
BLOCK_RECORD
  5
1DA8E
330
7466
100
AcDbSymbolTableRecord
100
AcDbBlockTableRecord
  2
*D7
340
0
  0
BLOCK_RECORD
  5
1DA9A
330
7466
100
AcDbSymbolTableRecord
100
AcDbBlockTableRecord
  2
*D8
340
0
  0
BLOCK_RECORD
  5
1DAA5
330
7466
100
AcDbSymbolTableRecord
100
AcDbBlockTableRecord
  2
*D9
340
0
  0
BLOCK_RECORD
  5
1DAB2
330
7466
100
AcDbSymbolTableRecord
100
AcDbBlockTableRecord
  2
*D10
340
0
  0
BLOCK_RECORD
  5
1DABE
330
7466
100
AcDbSymbolTableRecord
100
AcDbBlockTableRecord
  2
*D11
340
0
  0
BLOCK_RECORD
  5
1DACB
330
7466
100
AcDbSymbolTableRecord
100
AcDbBlockTableRecord
  2
*D12
340
0
  0
BLOCK_RECORD
  5
1DAD9
330
7466
100
AcDbSymbolTableRecord
100
AcDbBlockTableRecord
  2
*D13
340
0
  0
BLOCK_RECORD
  5
1DAE6
330
7466
100
AcDbSymbolTableRecord
100
AcDbBlockTableRecord
  2
*D14
340
0
  0
BLOCK_RECORD
  5
1DAF3
330
7466
100
AcDbSymbolTableRecord
100
AcDbBlockTableRecord
  2
*D15
340
0
  0
BLOCK_RECORD
  5
1E9D0
330
7466
100
AcDbSymbolTableRecord
100
AcDbBlockTableRecord
  2
*D16
340
0
  0
BLOCK_RECORD
  5
1EA32
330
7466
100
AcDbSymbolTableRecord
100
AcDbBlockTableRecord
  2
*D17
340
0
  0
BLOCK_RECORD
  5
1F24A
330
7466
100
AcDbSymbolTableRecord
100
AcDbBlockTableRecord
  2
*D18
340
0
  0
BLOCK_RECORD
  5
1F255
330
7466
100
AcDbSymbolTableRecord
100
AcDbBlockTableRecord
  2
*D19
340
0
  0
BLOCK_RECORD
  5
1F9A8
330
7466
100
AcDbSymbolTableRecord
100
AcDbBlockTableRecord
  2
*D20
340
0
  0
BLOCK_RECORD
  5
1FA98
330
7466
100
AcDbSymbolTableRecord
100
AcDbBlockTableRecord
  2
*D21
340
0
  0
BLOCK_RECORD
  5
1FAC4
330
7466
100
AcDbSymbolTableRecord
100
AcDbBlockTableRecord
  2
*D22
340
0
  0
BLOCK_RECORD
  5
1FE2A
330
7466
100
AcDbSymbolTableRecord
100
AcDbBlockTableRecord
  2
*D23
340
0
  0
BLOCK_RECORD
  5
1FE36
330
7466
100
AcDbSymbolTableRecord
100
AcDbBlockTableRecord
  2
*D24
340
0
  0
BLOCK_RECORD
  5
1FE47
330
7466
100
AcDbSymbolTableRecord
100
AcDbBlockTableRecord
  2
*D25
340
0
  0
BLOCK_RECORD
  5
1FE53
330
7466
100
AcDbSymbolTableRecord
100
AcDbBlockTableRecord
  2
*D26
340
0
  0
BLOCK_RECORD
  5
1FE5F
330
7466
100
AcDbSymbolTableRecord
100
AcDbBlockTableRecord
  2
*D27
340
0
  0
BLOCK_RECORD
  5
1FE6B
330
7466
100
AcDbSymbolTableRecord
100
AcDbBlockTableRecord
  2
*D28
340
0
  0
BLOCK_RECORD
  5
1FF20
330
7466
100
AcDbSymbolTableRecord
100
AcDbBlockTableRecord
  2
*D29
340
0
  0
ENDTAB
  0
ENDSEC
  0
SECTION
  2
BLOCKS
  0
BLOCK
  5
7489
330
747D
100
AcDbEntity
  8
0
100
AcDbBlockBegin
  2
*MODEL_SPACE
 70
     0
 10
0.0
 20
0.0
 30
0.0
  3
*MODEL_SPACE
  1

  0
ENDBLK
  5
748A
330
747D
100
AcDbEntity
  8
0
100
AcDbBlockEnd
  0
BLOCK
  5
7487
330
747A
100
AcDbEntity
 67
     1
  8
0
100
AcDbBlockBegin
  2
*PAPER_SPACE
 70
     0
 10
0.0
 20
0.0
 30
0.0
  3
*PAPER_SPACE
  1

  0
ENDBLK
  5
7488
330
747A
100
AcDbEntity
 67
     1
  8
0
100
AcDbBlockEnd
  0
BLOCK
  5
F771
330
F770
100
AcDbEntity
  8
0
 48
50.0
100
AcDbBlockBegin
  2
_DOTSMALL
 70
     0
 10
0.0
 20
0.0
 30
0.0
  3
_DOTSMALL
  1

  0
LWPOLYLINE
  5
F772
330
F770
100
AcDbEntity
  8
0
  6
ByBlock
 62
     0
 48
50.0
100
AcDbPolyline
 90
        2
 70
     1
 43
0.5
 10
-0.0625
 20
0.0
 42
1.0
 10
0.0625
 20
0.0
 42
1.0
  0
ENDBLK
  5
F776
330
F770
100
AcDbEntity
  8
0
 48
50.0
100
AcDbBlockEnd
  0
BLOCK
  5
1DA4F
330
1DA44
100
AcDbEntity
  8
0
 48
50.0
100
AcDbBlockBegin
  2
*D1
 70
     1
 10
0.0
 20
0.0
 30
0.0
  3
*D1
  1

  0
LINE
  5
20145
330
1DA44
100
AcDbEntity
  8
寸法
 62
     0
 48
50.0
370
    -2
100
AcDbLine
 10
7301.014055910913
 20
5892.919036112861
 30
0.0
 11
7557.721305787011
 21
5892.919036112861
 31
0.0
  0
LINE
  5
20146
330
1DA44
100
AcDbEntity
  8
寸法
 62
     0
 48
50.0
370
    -2
100
AcDbLine
 10
7301.014055910913
 20
6022.919036112863
 30
0.0
 11
7557.721305787011
 21
6022.919036112863
 31
0.0
  0
LINE
  5
20147
330
1DA44
100
AcDbEntity
  8
寸法
 62
     0
 48
50.0
370
    -2
100
AcDbLine
 10
7497.721305787012
 20
5892.919036112861
 30
0.0
 11
7497.721305787012
 21
6022.919036112863
 31
0.0
  0
LINE
  5
20148
330
1DA44
100
AcDbEntity
  8
寸法
 62
     0
 48
50.0
370
    -2
100
AcDbLine
 10
7497.721305787012
 20
6395.013524301841
 30
0.0
 11
7497.721305787012
 21
6022.919036112863
 31
0.0
  0
MTEXT
  5
20149
330
1DA44
100
AcDbEntity
  8
寸法
 62
     7
 48
50.0
100
AcDbMText
 10
7397.72130578701
 20
6258.966280207355
 30
0.0
 40
120.0
 41
0.0
 71
     5
 72
     1
  1
\A1;130
  7
STYLE1
 11
0.0000000000000001
 21
1.0
 31
0.0
 73
     1
 44
1.0
1001
ACAD
1000
MTEXTBEGIN
1070
    73
1070
     1
1070
    44
1040
1.0
1070
    74
1070
     0
1000
MTEXTEND
  0
INSERT
  5
2014A
330
1DA44
100
AcDbEntity
  8
寸法
 62
     0
 48
50.0
370
    -2
100
AcDbBlockReference
  2
_DOTSMALL
 10
7497.721305787012
 20
5892.919036112861
 30
0.0
 41
100.0
 42
100.0
 43
100.0
 50
270.0
  0
INSERT
  5
2014B
330
1DA44
100
AcDbEntity
  8
寸法
 62
     0
 48
50.0
370
    -2
100
AcDbBlockReference
  2
_DOTSMALL
 10
7497.721305787012
 20
6022.919036112863
 30
0.0
 41
100.0
 42
100.0
 43
100.0
 50
90.0
  0
POINT
  5
2014C
330
1DA44
100
AcDbEntity
  8
DEFPOINTS
 62
     0
 48
50.0
100
AcDbPoint
 10
7281.014055910913
 20
5892.919036112861
 30
0.0
  0
POINT
  5
2014D
330
1DA44
100
AcDbEntity
  8
DEFPOINTS
 62
     0
 48
50.0
100
AcDbPoint
 10
7281.014055910913
 20
6022.919036112863
 30
0.0
  0
POINT
  5
2014E
330
1DA44
100
AcDbEntity
  8
DEFPOINTS
 62
     0
 48
50.0
100
AcDbPoint
 10
7497.721305787012
 20
6022.919036112863
 30
0.0
  0
ENDBLK
  5
1DA50
330
1DA44
100
AcDbEntity
  8
0
 48
50.0
100
AcDbBlockEnd
  0
BLOCK
  5
1DA5C
330
1DA51
100
AcDbEntity
  8
0
 48
50.0
100
AcDbBlockBegin
  2
*D2
 70
     1
 10
0.0
 20
0.0
 30
0.0
  3
*D2
  1

  0
LINE
  5
2013B
330
1DA51
100
AcDbEntity
  8
寸法
 62
     0
 48
50.0
370
    -2
100
AcDbLine
 10
7301.014055910913
 20
5892.919036112863
 30
0.0
 11
7557.721305787011
 21
5892.919036112863
 31
0.0
  0
LINE
  5
2013C
330
1DA51
100
AcDbEntity
  8
寸法
 62
     0
 48
50.0
370
    -2
100
AcDbLine
 10
7301.014055910913
 20
5722.919036112862
 30
0.0
 11
7557.721305787011
 21
5722.919036112862
 31
0.0
  0
LINE
  5
2013D
330
1DA51
100
AcDbEntity
  8
寸法
 62
     0
 48
50.0
370
    -2
100
AcDbLine
 10
7497.721305787012
 20
5892.919036112863
 30
0.0
 11
7497.721305787012
 21
5722.919036112862
 31
0.0
  0
LINE
  5
2013E
330
1DA51
100
AcDbEntity
  8
寸法
 62
     0
 48
50.0
370
    -2
100
AcDbLine
 10
7497.721305787012
 20
5350.824547923884
 30
0.0
 11
7497.721305787012
 21
5722.919036112862
 31
0.0
  0
MTEXT
  5
2013F
330
1DA51
100
AcDbEntity
  8
寸法
 62
     7
 48
50.0
100
AcDbMText
 10
7397.72130578701
 20
5486.871792018375
 30
0.0
 40
120.0
 41
0.0
 71
     5
 72
     1
  1
\A1;170
  7
STYLE1
 11
0.0000000000000001
 21
1.0
 31
0.0
 73
     1
 44
1.0
1001
ACAD
1000
MTEXTBEGIN
1070
    73
1070
     1
1070
    44
1040
1.0
1070
    74
1070
     0
1000
MTEXTEND
  0
INSERT
  5
20140
330
1DA51
100
AcDbEntity
  8
寸法
 62
     0
 48
50.0
370
    -2
100
AcDbBlockReference
  2
_DOTSMALL
 10
7497.721305787012
 20
5892.919036112863
 30
0.0
 41
100.0
 42
100.0
 43
100.0
 50
90.0
  0
INSERT
  5
20141
330
1DA51
100
AcDbEntity
  8
寸法
 62
     0
 48
50.0
370
    -2
100
AcDbBlockReference
  2
_DOTSMALL
 10
7497.721305787012
 20
5722.919036112862
 30
0.0
 41
100.0
 42
100.0
 43
100.0
 50
270.0
  0
POINT
  5
20142
330
1DA51
100
AcDbEntity
  8
DEFPOINTS
 62
     0
 48
50.0
100
AcDbPoint
 10
7281.014055910913
 20
5892.919036112863
 30
0.0
  0
POINT
  5
20143
330
1DA51
100
AcDbEntity
  8
DEFPOINTS
 62
     0
 48
50.0
100
AcDbPoint
 10
7281.014055910913
 20
5722.919036112862
 30
0.0
  0
POINT
  5
20144
330
1DA51
100
AcDbEntity
  8
DEFPOINTS
 62
     0
 48
50.0
100
AcDbPoint
 10
7497.721305787012
 20
5722.919036112862
 30
0.0
  0
ENDBLK
  5
1DA5D
330
1DA51
100
AcDbEntity
  8
0
 48
50.0
100
AcDbBlockEnd
  0
BLOCK
  5
1DA67
330
1DA5E
100
AcDbEntity
  8
0
 48
50.0
100
AcDbBlockBegin
  2
*D3
 70
     1
 10
0.0
 20
0.0
 30
0.0
  3
*D3
  1

  0
LINE
  5
20132
330
1DA5E
100
AcDbEntity
  8
寸法
 62
     0
 48
50.0
370
    -2
100
AcDbLine
 10
9148.014055910913
 20
7049.919036112841
 30
0.0
 11
9148.014055910913
 21
7916.250847072693
 31
0.0
  0
LINE
  5
20133
330
1DA5E
100
AcDbEntity
  8
寸法
 62
     0
 48
50.0
370
    -2
100
AcDbLine
 10
7174.014055910913
 20
7049.919036112843
 30
0.0
 11
7174.014055910913
 21
7916.250847072693
 31
0.0
  0
LINE
  5
20134
330
1DA5E
100
AcDbEntity
  8
寸法
 62
     0
 48
50.0
370
    -2
100
AcDbLine
 10
9148.014055910913
 20
7856.250847072693
 30
0.0
 11
7174.014055910913
 21
7856.250847072693
 31
0.0
  0
INSERT
  5
20135
330
1DA5E
100
AcDbEntity
  8
寸法
 62
     0
 48
50.0
370
    -2
100
AcDbBlockReference
  2
_DOTSMALL
 10
9148.014055910913
 20
7856.250847072693
 30
0.0
 41
100.0
 42
100.0
 43
100.0
  0
INSERT
  5
20136
330
1DA5E
100
AcDbEntity
  8
寸法
 62
     0
 48
50.0
370
    -2
100
AcDbBlockReference
  2
_DOTSMALL
 10
7174.014055910913
 20
7856.250847072693
 30
0.0
 41
100.0
 42
100.0
 43
100.0
 50
180.0
  0
MTEXT
  5
20137
330
1DA5E
100
AcDbEntity
  8
寸法
 62
     7
 48
50.0
100
AcDbMText
 10
8161.014055910913
 20
7956.250847072692
 30
0.0
 40
120.0
 41
0.0
 71
     5
 72
     1
  1
\A1;1974
  7
STYLE1
 73
     1
 44
1.0
1001
ACAD
1000
MTEXTBEGIN
1070
    73
1070
     1
1070
    44
1040
1.0
1070
    74
1070
     0
1000
MTEXTEND
  0
POINT
  5
20138
330
1DA5E
100
AcDbEntity
  8
DEFPOINTS
 62
     0
 48
50.0
100
AcDbPoint
 10
9148.014055910913
 20
7029.919036112841
 30
0.0
  0
POINT
  5
20139
330
1DA5E
100
AcDbEntity
  8
DEFPOINTS
 62
     0
 48
50.0
100
AcDbPoint
 10
7174.014055910913
 20
7029.919036112842
 30
0.0
  0
POINT
  5
2013A
330
1DA5E
100
AcDbEntity
  8
DEFPOINTS
 62
     0
 48
50.0
100
AcDbPoint
 10
7174.014055910913
 20
7856.250847072693
 30
0.0
  0
ENDBLK
  5
1DA68
330
1DA5E
100
AcDbEntity
  8
0
 48
50.0
100
AcDbBlockEnd
  0
BLOCK
  5
1DA72
330
1DA69
100
AcDbEntity
  8
0
 48
50.0
100
AcDbBlockBegin
  2
*D4
 70
     1
 10
0.0
 20
0.0
 30
0.0
  3
*D4
  1

  0
LINE
  5
20129
330
1DA69
100
AcDbEntity
  8
寸法
 62
     0
 48
50.0
370
    -2
100
AcDbLine
 10
7051.014055910913
 20
7122.919036112842
 30
0.0
 11
7051.014055910913
 21
8128.711542589529
 31
0.0
  0
LINE
  5
2012A
330
1DA69
100
AcDbEntity
  8
寸法
 62
     0
 48
50.0
370
    -2
100
AcDbLine
 10
9271.014055910914
 20
7122.919036112842
 30
0.0
 11
9271.014055910914
 21
8128.711542589529
 31
0.0
  0
LINE
  5
2012B
330
1DA69
100
AcDbEntity
  8
寸法
 62
     0
 48
50.0
370
    -2
100
AcDbLine
 10
7051.014055910913
 20
8068.711542589529
 30
0.0
 11
9271.014055910914
 21
8068.711542589529
 31
0.0
  0
INSERT
  5
2012C
330
1DA69
100
AcDbEntity
  8
寸法
 62
     0
 48
50.0
370
    -2
100
AcDbBlockReference
  2
_DOTSMALL
 10
7051.014055910913
 20
8068.711542589529
 30
0.0
 41
100.0
 42
100.0
 43
100.0
 50
180.0
  0
INSERT
  5
2012D
330
1DA69
100
AcDbEntity
  8
寸法
 62
     0
 48
50.0
370
    -2
100
AcDbBlockReference
  2
_DOTSMALL
 10
9271.014055910914
 20
8068.711542589529
 30
0.0
 41
100.0
 42
100.0
 43
100.0
  0
MTEXT
  5
2012E
330
1DA69
100
AcDbEntity
  8
寸法
 62
     7
 48
50.0
100
AcDbMText
 10
8161.014055910913
 20
8168.723353613151
 30
0.0
 40
120.0
 41
0.0
 71
     5
 72
     1
  1
\A1;2220
  7
STYLE1
 73
     1
 44
1.0
1001
ACAD
1000
MTEXTBEGIN
1070
    73
1070
     1
1070
    44
1040
1.0
1070
    74
1070
     0
1000
MTEXTEND
  0
POINT
  5
2012F
330
1DA69
100
AcDbEntity
  8
DEFPOINTS
 62
     0
 48
50.0
100
AcDbPoint
 10
7051.014055910913
 20
7102.919036112843
 30
0.0
  0
POINT
  5
20130
330
1DA69
100
AcDbEntity
  8
DEFPOINTS
 62
     0
 48
50.0
100
AcDbPoint
 10
9271.014055910914
 20
7102.919036112843
 30
0.0
  0
POINT
  5
20131
330
1DA69
100
AcDbEntity
  8
DEFPOINTS
 62
     0
 48
50.0
100
AcDbPoint
 10
9271.014055910914
 20
8068.711542589529
 30
0.0
  0
ENDBLK
  5
1DA73
330
1DA69
100
AcDbEntity
  8
0
 48
50.0
100
AcDbBlockEnd
  0
BLOCK
  5
1DA7F
330
1DA74
100
AcDbEntity
  8
0
 48
50.0
100
AcDbBlockBegin
  2
*D5
 70
     1
 10
0.0
 20
0.0
 30
0.0
  3
*D5
  1

  0
LINE
  5
20120
330
1DA74
100
AcDbEntity
  8
寸法
 62
     0
 48
50.0
370
    -2
100
AcDbLine
 10
7174.014055910913
 20
7049.919036112841
 30
0.0
 11
7174.014055910913
 21
7916.250847072693
 31
0.0
  0
LINE
  5
20121
330
1DA74
100
AcDbEntity
  8
寸法
 62
     0
 48
50.0
370
    -2
100
AcDbLine
 10
7051.014055910911
 20
7122.91903611284
 30
0.0
 11
7051.014055910911
 21
7916.250847072693
 31
0.0
  0
LINE
  5
20122
330
1DA74
100
AcDbEntity
  8
寸法
 62
     0
 48
50.0
370
    -2
100
AcDbLine
 10
7174.014055910913
 20
7856.250847072693
 30
0.0
 11
7051.014055910911
 21
7856.250847072693
 31
0.0
  0
MTEXT
  5
20123
330
1DA74
100
AcDbEntity
  8
寸法
 62
     7
 48
50.0
100
AcDbMText
 10
6812.528774536673
 20
7956.262658096314
 30
0.0
 40
120.0
 41
0.0
 71
     5
 72
     1
  1
\A1;123
  7
STYLE1
 73
     1
 44
1.0
1001
ACAD
1000
MTEXTBEGIN
1070
    73
1070
     1
1070
    44
1040
1.0
1070
    74
1070
     0
1000
MTEXTEND
  0
INSERT
  5
20124
330
1DA74
100
AcDbEntity
  8
寸法
 62
     0
 48
50.0
370
    -2
100
AcDbBlockReference
  2
_DOTSMALL
 10
7174.014055910913
 20
7856.250847072693
 30
0.0
 41
100.0
 42
100.0
 43
100.0
  0
INSERT
  5
20125
330
1DA74
100
AcDbEntity
  8
寸法
 62
     0
 48
50.0
370
    -2
100
AcDbBlockReference
  2
_DOTSMALL
 10
7051.014055910911
 20
7856.250847072693
 30
0.0
 41
100.0
 42
100.0
 43
100.0
 50
180.0
  0
POINT
  5
20126
330
1DA74
100
AcDbEntity
  8
DEFPOINTS
 62
     0
 48
50.0
100
AcDbPoint
 10
7174.014055910913
 20
7029.919036112841
 30
0.0
  0
POINT
  5
20127
330
1DA74
100
AcDbEntity
  8
DEFPOINTS
 62
     0
 48
50.0
100
AcDbPoint
 10
7051.014055910911
 20
7102.91903611284
 30
0.0
  0
POINT
  5
20128
330
1DA74
100
AcDbEntity
  8
DEFPOINTS
 62
     0
 48
50.0
100
AcDbPoint
 10
7051.014055910911
 20
7856.250847072693
 30
0.0
  0
ENDBLK
  5
1DA80
330
1DA74
100
AcDbEntity
  8
0
 48
50.0
100
AcDbBlockEnd
  0
BLOCK
  5
1DA8C
330
1DA81
100
AcDbEntity
  8
0
 48
50.0
100
AcDbBlockBegin
  2
*D6
 70
     1
 10
0.0
 20
0.0
 30
0.0
  3
*D6
  1

  0
LINE
  5
20115
330
1DA81
100
AcDbEntity
  8
寸法
 62
     0
 48
50.0
370
    -2
100
AcDbLine
 10
7006.01405591091
 20
7876.250847072693
 30
0.0
 11
7006.01405591091
 21
8128.711542589531
 31
0.0
  0
LINE
  5
20116
330
1DA81
100
AcDbEntity
  8
寸法
 62
     0
 48
50.0
370
    -2
100
AcDbLine
 10
7051.014055910913
 20
7271.190236682762
 30
0.0
 11
7051.014055910913
 21
8128.711542589531
 31
0.0
  0
LINE
  5
20117
330
1DA81
100
AcDbEntity
  8
寸法
 62
     0
 48
50.0
370
    -2
100
AcDbLine
 10
7006.01405591091
 20
8068.711542589531
 30
0.0
 11
6906.01405591091
 21
8068.711542589531
 31
0.0
  0
LINE
  5
20118
330
1DA81
100
AcDbEntity
  8
寸法
 62
     0
 48
50.0
370
    -2
100
AcDbLine
 10
7051.014055910913
 20
8068.711542589531
 30
0.0
 11
7151.014055910913
 21
8068.711542589531
 31
0.0
  0
MTEXT
  5
20119
330
1DA81
100
AcDbEntity
  8
寸法
 62
     7
 48
50.0
100
AcDbMText
 10
7028.51405591091
 20
8168.711542589532
 30
0.0
 40
120.0
 41
0.0
 71
     5
 72
     1
  1
\A1;a
  7
STYLE1
 73
     1
 44
1.0
1001
ACAD
1000
MTEXTBEGIN
1070
    73
1070
     1
1070
    44
1040
1.0
1070
    74
1070
     0
1000
MTEXTEND
  0
LINE
  5
2011A
330
1DA81
100
AcDbEntity
  8
寸法
 62
     0
 48
50.0
370
    -2
100
AcDbLine
 10
7006.01405591091
 20
8068.711542589531
 30
0.0
 11
7051.014055910913
 21
8068.711542589531
 31
0.0
  0
INSERT
  5
2011B
330
1DA81
100
AcDbEntity
  8
寸法
 62
     0
 48
50.0
370
    -2
100
AcDbBlockReference
  2
_DOTSMALL
 10
7006.01405591091
 20
8068.711542589531
 30
0.0
 41
100.0
 42
100.0
 43
100.0
  0
INSERT
  5
2011C
330
1DA81
100
AcDbEntity
  8
寸法
 62
     0
 48
50.0
370
    -2
100
AcDbBlockReference
  2
_DOTSMALL
 10
7051.014055910913
 20
8068.711542589531
 30
0.0
 41
100.0
 42
100.0
 43
100.0
 50
180.0
  0
POINT
  5
2011D
330
1DA81
100
AcDbEntity
  8
DEFPOINTS
 62
     0
 48
50.0
100
AcDbPoint
 10
7006.01405591091
 20
7856.250847072693
 30
0.0
  0
POINT
  5
2011E
330
1DA81
100
AcDbEntity
  8
DEFPOINTS
 62
     0
 48
50.0
100
AcDbPoint
 10
7051.014055910913
 20
7251.190236682763
 30
0.0
  0
POINT
  5
2011F
330
1DA81
100
AcDbEntity
  8
DEFPOINTS
 62
     0
 48
50.0
100
AcDbPoint
 10
7051.014055910913
 20
8068.711542589531
 30
0.0
  0
ENDBLK
  5
1DA8D
330
1DA81
100
AcDbEntity
  8
0
 48
50.0
100
AcDbBlockEnd
  0
BLOCK
  5
1DA98
330
1DA8E
100
AcDbEntity
  8
0
 48
50.0
100
AcDbBlockBegin
  2
*D7
 70
     1
 10
0.0
 20
0.0
 30
0.0
  3
*D7
  1

  0
LINE
  5
2010C
330
1DA8E
100
AcDbEntity
  8
寸法
 62
     0
 48
50.0
370
    -2
100
AcDbLine
 10
7104.014055910913
 20
6979.919036112841
 30
0.0
 11
6495.071789897092
 21
6979.919036112841
 31
0.0
  0
LINE
  5
2010D
330
1DA8E
100
AcDbEntity
  8
寸法
 62
     0
 48
50.0
370
    -2
100
AcDbLine
 10
7104.01405591092
 20
5920.919036112861
 30
0.0
 11
6495.071789897092
 21
5920.919036112861
 31
0.0
  0
LINE
  5
2010E
330
1DA8E
100
AcDbEntity
  8
寸法
 62
     0
 48
50.0
370
    -2
100
AcDbLine
 10
6555.071789897093
 20
6979.919036112841
 30
0.0
 11
6555.071789897091
 21
5920.919036112861
 31
0.0
  0
MTEXT
  5
2010F
330
1DA8E
100
AcDbEntity
  8
寸法
 62
     7
 48
50.0
100
AcDbMText
 10
6455.07178989709
 20
6469.622096454681
 30
0.0
 40
120.0
 41
0.0
 71
     5
 72
     1
  1
\A1;1059
  7
STYLE1
 11
0.0000000000000001
 21
1.0
 31
0.0
 73
     1
 44
1.0
1001
ACAD
1000
MTEXTBEGIN
1070
    73
1070
     1
1070
    44
1040
1.0
1070
    74
1070
     0
1000
MTEXTEND
  0
INSERT
  5
20110
330
1DA8E
100
AcDbEntity
  8
寸法
 62
     0
 48
50.0
370
    -2
100
AcDbBlockReference
  2
_DOTSMALL
 10
6555.071789897093
 20
6979.919036112841
 30
0.0
 41
100.0
 42
100.0
 43
100.0
 50
90.0
  0
INSERT
  5
20111
330
1DA8E
100
AcDbEntity
  8
寸法
 62
     0
 48
50.0
370
    -2
100
AcDbBlockReference
  2
_DOTSMALL
 10
6555.071789897091
 20
5920.919036112861
 30
0.0
 41
100.0
 42
100.0
 43
100.0
 50
270.0
  0
POINT
  5
20112
330
1DA8E
100
AcDbEntity
  8
DEFPOINTS
 62
     0
 48
50.0
100
AcDbPoint
 10
7124.014055910913
 20
6979.919036112841
 30
0.0
  0
POINT
  5
20113
330
1DA8E
100
AcDbEntity
  8
DEFPOINTS
 62
     0
 48
50.0
100
AcDbPoint
 10
7124.014055910921
 20
5920.919036112861
 30
0.0
  0
POINT
  5
20114
330
1DA8E
100
AcDbEntity
  8
DEFPOINTS
 62
     0
 48
50.0
100
AcDbPoint
 10
6555.071789897091
 20
5920.919036112861
 30
0.0
  0
ENDBLK
  5
1DA99
330
1DA8E
100
AcDbEntity
  8
0
 48
50.0
100
AcDbBlockEnd
  0
BLOCK
  5
1DAA3
330
1DA9A
100
AcDbEntity
  8
0
 48
50.0
100
AcDbBlockBegin
  2
*D8
 70
     1
 10
0.0
 20
0.0
 30
0.0
  3
*D8
  1

  0
LINE
  5
20103
330
1DA9A
100
AcDbEntity
  8
寸法
 62
     0
 48
50.0
370
    -2
100
AcDbLine
 10
7031.014055910913
 20
7102.91903611284
 30
0.0
 11
6249.578987759126
 21
7102.91903611284
 31
0.0
  0
LINE
  5
20104
330
1DA9A
100
AcDbEntity
  8
寸法
 62
     0
 48
50.0
370
    -2
100
AcDbLine
 10
7031.014055910913
 20
5722.919036112859
 30
0.0
 11
6249.578987759125
 21
5722.919036112859
 31
0.0
  0
LINE
  5
20105
330
1DA9A
100
AcDbEntity
  8
寸法
 62
     0
 48
50.0
370
    -2
100
AcDbLine
 10
6309.578987759126
 20
7102.91903611284
 30
0.0
 11
6309.578987759125
 21
5722.919036112859
 31
0.0
  0
MTEXT
  5
20106
330
1DA9A
100
AcDbEntity
  8
寸法
 62
     7
 48
50.0
100
AcDbMText
 10
6209.578987759124
 20
6446.515373625764
 30
0.0
 40
120.0
 41
0.0
 71
     5
 72
     1
  1
\A1;1380
  7
STYLE1
 11
0.0000000000000001
 21
1.0
 31
0.0
 73
     1
 44
1.0
1001
ACAD
1000
MTEXTBEGIN
1070
    73
1070
     1
1070
    44
1040
1.0
1070
    74
1070
     0
1000
MTEXTEND
  0
INSERT
  5
20107
330
1DA9A
100
AcDbEntity
  8
寸法
 62
     0
 48
50.0
370
    -2
100
AcDbBlockReference
  2
_DOTSMALL
 10
6309.578987759126
 20
7102.91903611284
 30
0.0
 41
100.0
 42
100.0
 43
100.0
 50
90.0
  0
INSERT
  5
20108
330
1DA9A
100
AcDbEntity
  8
寸法
 62
     0
 48
50.0
370
    -2
100
AcDbBlockReference
  2
_DOTSMALL
 10
6309.578987759125
 20
5722.919036112859
 30
0.0
 41
100.0
 42
100.0
 43
100.0
 50
270.0
  0
POINT
  5
20109
330
1DA9A
100
AcDbEntity
  8
DEFPOINTS
 62
     0
 48
50.0
100
AcDbPoint
 10
7051.014055910913
 20
7102.91903611284
 30
0.0
  0
POINT
  5
2010A
330
1DA9A
100
AcDbEntity
  8
DEFPOINTS
 62
     0
 48
50.0
100
AcDbPoint
 10
7051.014055910913
 20
5722.919036112859
 30
0.0
  0
POINT
  5
2010B
330
1DA9A
100
AcDbEntity
  8
DEFPOINTS
 62
     0
 48
50.0
100
AcDbPoint
 10
6309.578987759125
 20
5722.919036112859
 30
0.0
  0
ENDBLK
  5
1DAA4
330
1DA9A
100
AcDbEntity
  8
0
 48
50.0
100
AcDbBlockEnd
  0
BLOCK
  5
1DAB0
330
1DAA5
100
AcDbEntity
  8
0
 48
50.0
100
AcDbBlockBegin
  2
*D9
 70
     1
 10
0.0
 20
0.0
 30
0.0
  3
*D9
  1

  0
LINE
  5
200F9
330
1DAA5
100
AcDbEntity
  8
寸法
 62
     0
 48
50.0
370
    -2
100
AcDbLine
 10
7104.01405591092
 20
5920.919036112861
 30
0.0
 11
6495.071789897092
 21
5920.919036112861
 31
0.0
  0
LINE
  5
200FA
330
1DAA5
100
AcDbEntity
  8
寸法
 62
     0
 48
50.0
370
    -2
100
AcDbLine
 10
7031.014055910913
 20
5722.919036112859
 30
0.0
 11
6495.071789897092
 21
5722.919036112859
 31
0.0
  0
LINE
  5
200FB
330
1DAA5
100
AcDbEntity
  8
寸法
 62
     0
 48
50.0
370
    -2
100
AcDbLine
 10
6555.071789897091
 20
5920.919036112861
 30
0.0
 11
6555.071789897091
 21
5722.919036112859
 31
0.0
  0
LINE
  5
200FC
330
1DAA5
100
AcDbEntity
  8
寸法
 62
     0
 48
50.0
370
    -2
100
AcDbLine
 10
6555.071789897091
 20
5350.499716453546
 30
0.0
 11
6555.071789897091
 21
5722.919036112859
 31
0.0
  0
MTEXT
  5
200FD
330
1DAA5
100
AcDbEntity
  8
寸法
 62
     7
 48
50.0
100
AcDbMText
 10
6455.07178989709
 20
5486.709376283204
 30
0.0
 40
120.0
 41
0.0
 71
     5
 72
     1
  1
\A1;198
  7
STYLE1
 11
0.0000000000000001
 21
1.0
 31
0.0
 73
     1
 44
1.0
1001
ACAD
1000
MTEXTBEGIN
1070
    73
1070
     1
1070
    44
1040
1.0
1070
    74
1070
     0
1000
MTEXTEND
  0
INSERT
  5
200FE
330
1DAA5
100
AcDbEntity
  8
寸法
 62
     0
 48
50.0
370
    -2
100
AcDbBlockReference
  2
_DOTSMALL
 10
6555.071789897091
 20
5920.919036112861
 30
0.0
 41
100.0
 42
100.0
 43
100.0
 50
90.0
  0
INSERT
  5
200FF
330
1DAA5
100
AcDbEntity
  8
寸法
 62
     0
 48
50.0
370
    -2
100
AcDbBlockReference
  2
_DOTSMALL
 10
6555.071789897091
 20
5722.919036112859
 30
0.0
 41
100.0
 42
100.0
 43
100.0
 50
270.0
  0
POINT
  5
20100
330
1DAA5
100
AcDbEntity
  8
DEFPOINTS
 62
     0
 48
50.0
100
AcDbPoint
 10
7124.014055910921
 20
5920.919036112861
 30
0.0
  0
POINT
  5
20101
330
1DAA5
100
AcDbEntity
  8
DEFPOINTS
 62
     0
 48
50.0
100
AcDbPoint
 10
7051.014055910913
 20
5722.919036112859
 30
0.0
  0
POINT
  5
20102
330
1DAA5
100
AcDbEntity
  8
DEFPOINTS
 62
     0
 48
50.0
100
AcDbPoint
 10
6555.071789897091
 20
5722.919036112859
 30
0.0
  0
ENDBLK
  5
1DAB1
330
1DAA5
100
AcDbEntity
  8
0
 48
50.0
100
AcDbBlockEnd
  0
BLOCK
  5
1DABC
330
1DAB2
100
AcDbEntity
  8
0
 48
50.0
100
AcDbBlockBegin
  2
*D10
 70
     1
 10
0.0
 20
0.0
 30
0.0
  3
*D10
  1

  0
LINE
  5
200EE
330
1DAB2
100
AcDbEntity
  8
寸法
 62
     0
 48
50.0
370
    -2
100
AcDbLine
 10
7031.014055910913
 20
5722.919036112859
 30
0.0
 11
6249.578987759125
 21
5722.919036112859
 31
0.0
  0
LINE
  5
200EF
330
1DAB2
100
AcDbEntity
  8
寸法
 62
     0
 48
50.0
370
    -2
100
AcDbLine
 10
6535.071789897092
 20
5667.919036112859
 30
0.0
 11
6249.578987759125
 21
5667.919036112859
 31
0.0
  0
LINE
  5
200F0
330
1DAB2
100
AcDbEntity
  8
寸法
 62
     0
 48
50.0
370
    -2
100
AcDbLine
 10
6309.578987759125
 20
5722.919036112859
 30
0.0
 11
6309.578987759125
 21
5822.919036112859
 31
0.0
  0
LINE
  5
200F1
330
1DAB2
100
AcDbEntity
  8
寸法
 62
     0
 48
50.0
370
    -2
100
AcDbLine
 10
6309.578987759125
 20
5667.919036112859
 30
0.0
 11
6309.578987759125
 21
5567.91903611286
 31
0.0
  0
MTEXT
  5
200F2
330
1DAB2
100
AcDbEntity
  8
寸法
 62
     7
 48
50.0
100
AcDbMText
 10
6209.578987759124
 20
5695.419036112861
 30
0.0
 40
120.0
 41
0.0
 71
     5
 72
     1
  1
\A1;b
  7
STYLE1
 11
0.0000000000000001
 21
1.0
 31
0.0
 73
     1
 44
1.0
1001
ACAD
1000
MTEXTBEGIN
1070
    73
1070
     1
1070
    44
1040
1.0
1070
    74
1070
     0
1000
MTEXTEND
  0
LINE
  5
200F3
330
1DAB2
100
AcDbEntity
  8
寸法
 62
     0
 48
50.0
370
    -2
100
AcDbLine
 10
6309.578987759125
 20
5722.919036112859
 30
0.0
 11
6309.578987759125
 21
5667.919036112859
 31
0.0
  0
INSERT
  5
200F4
330
1DAB2
100
AcDbEntity
  8
寸法
 62
     0
 48
50.0
370
    -2
100
AcDbBlockReference
  2
_DOTSMALL
 10
6309.578987759125
 20
5722.919036112859
 30
0.0
 41
100.0
 42
100.0
 43
100.0
 50
270.0
  0
INSERT
  5
200F5
330
1DAB2
100
AcDbEntity
  8
寸法
 62
     0
 48
50.0
370
    -2
100
AcDbBlockReference
  2
_DOTSMALL
 10
6309.578987759125
 20
5667.919036112859
 30
0.0
 41
100.0
 42
100.0
 43
100.0
 50
90.0
  0
POINT
  5
200F6
330
1DAB2
100
AcDbEntity
  8
DEFPOINTS
 62
     0
 48
50.0
100
AcDbPoint
 10
7051.014055910913
 20
5722.919036112859
 30
0.0
  0
POINT
  5
200F7
330
1DAB2
100
AcDbEntity
  8
DEFPOINTS
 62
     0
 48
50.0
100
AcDbPoint
 10
6555.071789897091
 20
5667.919036112859
 30
0.0
  0
POINT
  5
200F8
330
1DAB2
100
AcDbEntity
  8
DEFPOINTS
 62
     0
 48
50.0
100
AcDbPoint
 10
6309.578987759125
 20
5667.919036112859
 30
0.0
  0
ENDBLK
  5
1DABD
330
1DAB2
100
AcDbEntity
  8
0
 48
50.0
100
AcDbBlockEnd
  0
BLOCK
  5
1DAC9
330
1DABE
100
AcDbEntity
  8
0
 48
50.0
100
AcDbBlockBegin
  2
*D11
 70
     1
 10
0.0
 20
0.0
 30
0.0
  3
*D11
  1

  0
LINE
  5
200E5
330
1DABE
100
AcDbEntity
  8
寸法
 62
     0
 48
50.0
370
    -2
100
AcDbLine
 10
7031.014055910913
 20
7102.919036112841
 30
0.0
 11
6495.071789897092
 21
7102.919036112841
 31
0.0
  0
LINE
  5
200E6
330
1DABE
100
AcDbEntity
  8
寸法
 62
     0
 48
50.0
370
    -2
100
AcDbLine
 10
7104.014055910913
 20
6979.919036112841
 30
0.0
 11
6495.071789897092
 21
6979.919036112841
 31
0.0
  0
LINE
  5
200E7
330
1DABE
100
AcDbEntity
  8
寸法
 62
     0
 48
50.0
370
    -2
100
AcDbLine
 10
6555.071789897093
 20
7102.919036112841
 30
0.0
 11
6555.071789897093
 21
6979.919036112841
 31
0.0
  0
MTEXT
  5
200E8
330
1DABE
100
AcDbEntity
  8
寸法
 62
     7
 48
50.0
100
AcDbMText
 10
6455.059978873468
 20
7341.404317487081
 30
0.0
 40
120.0
 41
0.0
 71
     5
 72
     1
  1
\A1;123
  7
STYLE1
 11
0.0000000000000001
 21
1.0
 31
0.0
 73
     1
 44
1.0
1001
ACAD
1000
MTEXTBEGIN
1070
    73
1070
     1
1070
    44
1040
1.0
1070
    74
1070
     0
1000
MTEXTEND
  0
INSERT
  5
200E9
330
1DABE
100
AcDbEntity
  8
寸法
 62
     0
 48
50.0
370
    -2
100
AcDbBlockReference
  2
_DOTSMALL
 10
6555.071789897093
 20
7102.919036112841
 30
0.0
 41
100.0
 42
100.0
 43
100.0
 50
90.0
  0
INSERT
  5
200EA
330
1DABE
100
AcDbEntity
  8
寸法
 62
     0
 48
50.0
370
    -2
100
AcDbBlockReference
  2
_DOTSMALL
 10
6555.071789897093
 20
6979.919036112841
 30
0.0
 41
100.0
 42
100.0
 43
100.0
 50
270.0
  0
POINT
  5
200EB
330
1DABE
100
AcDbEntity
  8
DEFPOINTS
 62
     0
 48
50.0
100
AcDbPoint
 10
7051.014055910913
 20
7102.919036112841
 30
0.0
  0
POINT
  5
200EC
330
1DABE
100
AcDbEntity
  8
DEFPOINTS
 62
     0
 48
50.0
100
AcDbPoint
 10
7124.014055910913
 20
6979.919036112841
 30
0.0
  0
POINT
  5
200ED
330
1DABE
100
AcDbEntity
  8
DEFPOINTS
 62
     0
 48
50.0
100
AcDbPoint
 10
6555.071789897093
 20
6979.919036112841
 30
0.0
  0
ENDBLK
  5
1DACA
330
1DABE
100
AcDbEntity
  8
0
 48
50.0
100
AcDbBlockEnd
  0
BLOCK
  5
1DAD7
330
1DACB
100
AcDbEntity
  8
0
 48
50.0
100
AcDbBlockBegin
  2
*D12
 70
     1
 10
0.0
 20
0.0
 30
0.0
  3
*D12
  1

  0
LINE
  5
200DA
330
1DACB
100
AcDbEntity
  8
寸法
 62
     0
 48
50.0
370
    -2
100
AcDbLine
 10
6535.071789897092
 20
7177.919036112841
 30
0.0
 11
6249.578987759125
 21
7177.919036112841
 31
0.0
  0
LINE
  5
200DB
330
1DACB
100
AcDbEntity
  8
寸法
 62
     0
 48
50.0
370
    -2
100
AcDbLine
 10
7031.014055910913
 20
7102.919036112841
 30
0.0
 11
6249.578987759125
 21
7102.919036112841
 31
0.0
  0
LINE
  5
200DC
330
1DACB
100
AcDbEntity
  8
寸法
 62
     0
 48
50.0
370
    -2
100
AcDbLine
 10
6309.578987759125
 20
7177.919036112841
 30
0.0
 11
6309.578987759125
 21
7277.919036112841
 31
0.0
  0
LINE
  5
200DD
330
1DACB
100
AcDbEntity
  8
寸法
 62
     0
 48
50.0
370
    -2
100
AcDbLine
 10
6309.578987759125
 20
7102.919036112841
 30
0.0
 11
6309.578987759125
 21
7002.919036112841
 31
0.0
  0
MTEXT
  5
200DE
330
1DACB
100
AcDbEntity
  8
寸法
 62
     7
 48
50.0
100
AcDbMText
 10
6209.578987759123
 20
7140.419036112843
 30
0.0
 40
120.0
 41
0.0
 71
     5
 72
     1
  1
\A1;c
  7
STYLE1
 11
0.0000000000000001
 21
1.0
 31
0.0
 73
     1
 44
1.0
1001
ACAD
1000
MTEXTBEGIN
1070
    73
1070
     1
1070
    44
1040
1.0
1070
    74
1070
     0
1000
MTEXTEND
  0
LINE
  5
200DF
330
1DACB
100
AcDbEntity
  8
寸法
 62
     0
 48
50.0
370
    -2
100
AcDbLine
 10
6309.578987759125
 20
7177.919036112841
 30
0.0
 11
6309.578987759125
 21
7102.919036112841
 31
0.0
  0
INSERT
  5
200E0
330
1DACB
100
AcDbEntity
  8
寸法
 62
     0
 48
50.0
370
    -2
100
AcDbBlockReference
  2
_DOTSMALL
 10
6309.578987759125
 20
7177.919036112841
 30
0.0
 41
100.0
 42
100.0
 43
100.0
 50
270.0
  0
INSERT
  5
200E1
330
1DACB
100
AcDbEntity
  8
寸法
 62
     0
 48
50.0
370
    -2
100
AcDbBlockReference
  2
_DOTSMALL
 10
6309.578987759125
 20
7102.919036112841
 30
0.0
 41
100.0
 42
100.0
 43
100.0
 50
90.0
  0
POINT
  5
200E2
330
1DACB
100
AcDbEntity
  8
DEFPOINTS
 62
     0
 48
50.0
100
AcDbPoint
 10
6555.071789897093
 20
7177.919036112841
 30
0.0
  0
POINT
  5
200E3
330
1DACB
100
AcDbEntity
  8
DEFPOINTS
 62
     0
 48
50.0
100
AcDbPoint
 10
7051.014055910913
 20
7102.919036112841
 30
0.0
  0
POINT
  5
200E4
330
1DACB
100
AcDbEntity
  8
DEFPOINTS
 62
     0
 48
50.0
100
AcDbPoint
 10
6309.578987759125
 20
7102.919036112841
 30
0.0
  0
ENDBLK
  5
1DAD8
330
1DACB
100
AcDbEntity
  8
0
 48
50.0
100
AcDbBlockEnd
  0
BLOCK
  5
1DAE4
330
1DAD9
100
AcDbEntity
  8
0
 48
50.0
100
AcDbBlockBegin
  2
*D13
 70
     1
 10
0.0
 20
0.0
 30
0.0
  3
*D13
  1

  0
LINE
  5
200D1
330
1DAD9
100
AcDbEntity
  8
寸法
 62
     0
 48
50.0
370
    -2
100
AcDbLine
 10
9271.014055910914
 20
7122.919036112842
 30
0.0
 11
9271.014055910914
 21
7916.250847072693
 31
0.0
  0
LINE
  5
200D2
330
1DAD9
100
AcDbEntity
  8
寸法
 62
     0
 48
50.0
370
    -2
100
AcDbLine
 10
9148.014055910913
 20
7049.919036112841
 30
0.0
 11
9148.014055910913
 21
7916.250847072693
 31
0.0
  0
LINE
  5
200D3
330
1DAD9
100
AcDbEntity
  8
寸法
 62
     0
 48
50.0
370
    -2
100
AcDbLine
 10
9271.014055910914
 20
7856.250847072693
 30
0.0
 11
9148.014055910913
 21
7856.250847072693
 31
0.0
  0
MTEXT
  5
200D4
330
1DAD9
100
AcDbEntity
  8
寸法
 62
     7
 48
50.0
100
AcDbMText
 10
9509.499337285152
 20
7956.262658096314
 30
0.0
 40
120.0
 41
0.0
 71
     5
 72
     1
  1
\A1;123
  7
STYLE1
 73
     1
 44
1.0
1001
ACAD
1000
MTEXTBEGIN
1070
    73
1070
     1
1070
    44
1040
1.0
1070
    74
1070
     0
1000
MTEXTEND
  0
INSERT
  5
200D5
330
1DAD9
100
AcDbEntity
  8
寸法
 62
     0
 48
50.0
370
    -2
100
AcDbBlockReference
  2
_DOTSMALL
 10
9271.014055910914
 20
7856.250847072693
 30
0.0
 41
100.0
 42
100.0
 43
100.0
  0
INSERT
  5
200D6
330
1DAD9
100
AcDbEntity
  8
寸法
 62
     0
 48
50.0
370
    -2
100
AcDbBlockReference
  2
_DOTSMALL
 10
9148.014055910913
 20
7856.250847072693
 30
0.0
 41
100.0
 42
100.0
 43
100.0
 50
180.0
  0
POINT
  5
200D7
330
1DAD9
100
AcDbEntity
  8
DEFPOINTS
 62
     0
 48
50.0
100
AcDbPoint
 10
9271.014055910914
 20
7102.919036112843
 30
0.0
  0
POINT
  5
200D8
330
1DAD9
100
AcDbEntity
  8
DEFPOINTS
 62
     0
 48
50.0
100
AcDbPoint
 10
9148.014055910913
 20
7029.919036112841
 30
0.0
  0
POINT
  5
200D9
330
1DAD9
100
AcDbEntity
  8
DEFPOINTS
 62
     0
 48
50.0
100
AcDbPoint
 10
9148.014055910913
 20
7856.250847072693
 30
0.0
  0
ENDBLK
  5
1DAE5
330
1DAD9
100
AcDbEntity
  8
0
 48
50.0
100
AcDbBlockEnd
  0
BLOCK
  5
1DAF1
330
1DAE6
100
AcDbEntity
  8
0
 48
50.0
100
AcDbBlockBegin
  2
*D14
 70
     1
 10
0.0
 20
0.0
 30
0.0
  3
*D14
  1

  0
LINE
  5
200C6
330
1DAE6
100
AcDbEntity
  8
寸法
 62
     0
 48
50.0
370
    -2
100
AcDbLine
 10
9271.014055910914
 20
7271.190236682762
 30
0.0
 11
9271.014055910914
 21
8128.711542589529
 31
0.0
  0
LINE
  5
200C7
330
1DAE6
100
AcDbEntity
  8
寸法
 62
     0
 48
50.0
370
    -2
100
AcDbLine
 10
9316.014055910914
 20
7876.250847072693
 30
0.0
 11
9316.014055910914
 21
8128.711542589529
 31
0.0
  0
LINE
  5
200C8
330
1DAE6
100
AcDbEntity
  8
寸法
 62
     0
 48
50.0
370
    -2
100
AcDbLine
 10
9271.014055910914
 20
8068.711542589529
 30
0.0
 11
9171.014055910914
 21
8068.711542589529
 31
0.0
  0
LINE
  5
200C9
330
1DAE6
100
AcDbEntity
  8
寸法
 62
     0
 48
50.0
370
    -2
100
AcDbLine
 10
9316.014055910914
 20
8068.711542589529
 30
0.0
 11
9416.014055910913
 21
8068.711542589529
 31
0.0
  0
MTEXT
  5
200CA
330
1DAE6
100
AcDbEntity
  8
寸法
 62
     7
 48
50.0
100
AcDbMText
 10
9293.514055910913
 20
8168.711542589528
 30
0.0
 40
120.0
 41
0.0
 71
     5
 72
     1
  1
\A1;a
  7
STYLE1
 73
     1
 44
1.0
1001
ACAD
1000
MTEXTBEGIN
1070
    73
1070
     1
1070
    44
1040
1.0
1070
    74
1070
     0
1000
MTEXTEND
  0
LINE
  5
200CB
330
1DAE6
100
AcDbEntity
  8
寸法
 62
     0
 48
50.0
370
    -2
100
AcDbLine
 10
9271.014055910914
 20
8068.711542589529
 30
0.0
 11
9316.014055910914
 21
8068.711542589529
 31
0.0
  0
INSERT
  5
200CC
330
1DAE6
100
AcDbEntity
  8
寸法
 62
     0
 48
50.0
370
    -2
100
AcDbBlockReference
  2
_DOTSMALL
 10
9271.014055910914
 20
8068.711542589529
 30
0.0
 41
100.0
 42
100.0
 43
100.0
  0
INSERT
  5
200CD
330
1DAE6
100
AcDbEntity
  8
寸法
 62
     0
 48
50.0
370
    -2
100
AcDbBlockReference
  2
_DOTSMALL
 10
9316.014055910914
 20
8068.711542589529
 30
0.0
 41
100.0
 42
100.0
 43
100.0
 50
180.0
  0
POINT
  5
200CE
330
1DAE6
100
AcDbEntity
  8
DEFPOINTS
 62
     0
 48
50.0
100
AcDbPoint
 10
9271.014055910914
 20
7251.190236682763
 30
0.0
  0
POINT
  5
200CF
330
1DAE6
100
AcDbEntity
  8
DEFPOINTS
 62
     0
 48
50.0
100
AcDbPoint
 10
9316.014055910914
 20
7856.250847072693
 30
0.0
  0
POINT
  5
200D0
330
1DAE6
100
AcDbEntity
  8
DEFPOINTS
 62
     0
 48
50.0
100
AcDbPoint
 10
9316.014055910914
 20
8068.711542589529
 30
0.0
  0
ENDBLK
  5
1DAF2
330
1DAE6
100
AcDbEntity
  8
0
 48
50.0
100
AcDbBlockEnd
  0
BLOCK
  5
1DAFE
330
1DAF3
100
AcDbEntity
  8
0
 48
50.0
100
AcDbBlockBegin
  2
*D15
 70
     1
 10
0.0
 20
0.0
 30
0.0
  3
*D15
  1

  0
LINE
  5
200BC
330
1DAF3
100
AcDbEntity
  8
寸法
 62
     0
 48
50.0
370
    -2
100
AcDbLine
 10
9271.014055910914
 20
6602.91903611285
 30
0.0
 11
9271.014055910914
 21
6504.422404093434
 31
0.0
  0
LINE
  5
200BD
330
1DAF3
100
AcDbEntity
  8
寸法
 62
     0
 48
50.0
370
    -2
100
AcDbLine
 10
9151.014055910913
 20
6602.91903611285
 30
0.0
 11
9151.014055910913
 21
6504.422404093434
 31
0.0
  0
LINE
  5
200BE
330
1DAF3
100
AcDbEntity
  8
寸法
 62
     0
 48
50.0
370
    -2
100
AcDbLine
 10
9271.014055910914
 20
6564.422404093434
 30
0.0
 11
9151.014055910913
 21
6564.422404093434
 31
0.0
  0
LINE
  5
200BF
330
1DAF3
100
AcDbEntity
  8
寸法
 62
     0
 48
50.0
370
    -2
100
AcDbLine
 10
9643.108544099892
 20
6564.422404093434
 30
0.0
 11
9271.014055910914
 21
6564.422404093434
 31
0.0
  0
MTEXT
  5
200C0
330
1DAF3
100
AcDbEntity
  8
寸法
 62
     7
 48
50.0
100
AcDbMText
 10
9507.061300005402
 20
6664.434215117056
 30
0.0
 40
120.0
 41
0.0
 71
     5
 72
     1
  1
\A1;120
  7
STYLE1
 73
     1
 44
1.0
1001
ACAD
1000
MTEXTBEGIN
1070
    73
1070
     1
1070
    44
1040
1.0
1070
    74
1070
     0
1000
MTEXTEND
  0
INSERT
  5
200C1
330
1DAF3
100
AcDbEntity
  8
寸法
 62
     0
 48
50.0
370
    -2
100
AcDbBlockReference
  2
_DOTSMALL
 10
9271.014055910914
 20
6564.422404093434
 30
0.0
 41
100.0
 42
100.0
 43
100.0
  0
INSERT
  5
200C2
330
1DAF3
100
AcDbEntity
  8
寸法
 62
     0
 48
50.0
370
    -2
100
AcDbBlockReference
  2
_DOTSMALL
 10
9151.014055910913
 20
6564.422404093434
 30
0.0
 41
100.0
 42
100.0
 43
100.0
 50
180.0
  0
POINT
  5
200C3
330
1DAF3
100
AcDbEntity
  8
DEFPOINTS
 62
     0
 48
50.0
100
AcDbPoint
 10
9271.014055910914
 20
6622.91903611285
 30
0.0
  0
POINT
  5
200C4
330
1DAF3
100
AcDbEntity
  8
DEFPOINTS
 62
     0
 48
50.0
100
AcDbPoint
 10
9151.014055910913
 20
6622.91903611285
 30
0.0
  0
POINT
  5
200C5
330
1DAF3
100
AcDbEntity
  8
DEFPOINTS
 62
     0
 48
50.0
100
AcDbPoint
 10
9151.014055910913
 20
6564.422404093434
 30
0.0
  0
ENDBLK
  5
1DAFF
330
1DAF3
100
AcDbEntity
  8
0
 48
50.0
100
AcDbBlockEnd
  0
BLOCK
  5
1E9D9
330
1E9D0
100
AcDbEntity
  8
0
 48
50.0
100
AcDbBlockBegin
  2
*D16
 70
     1
 10
0.0
 20
0.0
 30
0.0
  3
*D16
  1

  0
LINE
  5
200B3
330
1E9D0
100
AcDbEntity
  8
寸法
 62
     0
 48
50.0
370
    -2
100
AcDbLine
 10
8576.514055910912
 20
6412.919036112859
 30
0.0
 11
8889.446359320048
 21
6412.919036112859
 31
0.0
  0
LINE
  5
200B4
330
1E9D0
100
AcDbEntity
  8
寸法
 62
     0
 48
50.0
370
    -2
100
AcDbLine
 10
8526.514055910913
 20
7102.91903611286
 30
0.0
 11
8889.446359320048
 21
7102.91903611286
 31
0.0
  0
LINE
  5
200B5
330
1E9D0
100
AcDbEntity
  8
寸法
 62
     0
 48
50.0
370
    -2
100
AcDbLine
 10
8829.44635932005
 20
6412.919036112859
 30
0.0
 11
8829.44635932005
 21
7102.91903611286
 31
0.0
  0
INSERT
  5
200B6
330
1E9D0
100
AcDbEntity
  8
寸法
 62
     0
 48
50.0
370
    -2
100
AcDbBlockReference
  2
_DOTSMALL
 10
8829.44635932005
 20
6412.919036112859
 30
0.0
 41
100.0
 42
100.0
 43
100.0
 50
270.0
  0
INSERT
  5
200B7
330
1E9D0
100
AcDbEntity
  8
寸法
 62
     0
 48
50.0
370
    -2
100
AcDbBlockReference
  2
_DOTSMALL
 10
8829.44635932005
 20
7102.91903611286
 30
0.0
 41
100.0
 42
100.0
 43
100.0
 50
90.0
  0
MTEXT
  5
200B8
330
1E9D0
100
AcDbEntity
  8
寸法
 62
     7
 48
50.0
100
AcDbMText
 10
8729.446359320048
 20
6757.919036112861
 30
0.0
 40
120.0
 41
0.0
 71
     5
 72
     1
  1
\A1;690
  7
STYLE1
 11
0.0000000000000001
 21
1.0
 31
0.0
 73
     1
 44
1.0
1001
ACAD
1000
MTEXTBEGIN
1070
    73
1070
     1
1070
    44
1040
1.0
1070
    74
1070
     0
1000
MTEXTEND
  0
POINT
  5
200B9
330
1E9D0
100
AcDbEntity
  8
DEFPOINTS
 62
     0
 48
50.0
100
AcDbPoint
 10
8556.514055910914
 20
6412.919036112859
 30
0.0
  0
POINT
  5
200BA
330
1E9D0
100
AcDbEntity
  8
DEFPOINTS
 62
     0
 48
50.0
100
AcDbPoint
 10
8506.514055910914
 20
7102.91903611286
 30
0.0
  0
POINT
  5
200BB
330
1E9D0
100
AcDbEntity
  8
DEFPOINTS
 62
     0
 48
50.0
100
AcDbPoint
 10
8829.44635932005
 20
7102.91903611286
 30
0.0
  0
ENDBLK
  5
1E9DA
330
1E9D0
100
AcDbEntity
  8
0
 48
50.0
100
AcDbBlockEnd
  0
BLOCK
  5
1EA3C
330
1EA32
100
AcDbEntity
  8
0
 48
50.0
100
AcDbBlockBegin
  2
*D17
 70
     1
 10
0.0
 20
0.0
 30
0.0
  3
*D17
  1

  0
LINE
  5
200AA
330
1EA32
100
AcDbEntity
  8
寸法
 62
     0
 48
50.0
370
    -2
100
AcDbLine
 10
8526.514055910913
 20
5722.919036112869
 30
0.0
 11
8889.446359320048
 21
5722.919036112869
 31
0.0
  0
LINE
  5
200AB
330
1EA32
100
AcDbEntity
  8
寸法
 62
     0
 48
50.0
370
    -2
100
AcDbLine
 10
8576.514055910912
 20
6412.919036112859
 30
0.0
 11
8889.446359320048
 21
6412.919036112859
 31
0.0
  0
LINE
  5
200AC
330
1EA32
100
AcDbEntity
  8
寸法
 62
     0
 48
50.0
370
    -2
100
AcDbLine
 10
8829.44635932005
 20
5722.919036112869
 30
0.0
 11
8829.44635932005
 21
6412.919036112859
 31
0.0
  0
MTEXT
  5
200AD
330
1EA32
100
AcDbEntity
  8
寸法
 62
     7
 48
50.0
100
AcDbMText
 10
8716.444003532933
 20
6081.13307470271
 30
0.0
 40
120.0
 41
0.0
 71
     5
 72
     1
  1
\A1;690
  7
STYLE1
 11
0.0000000000000001
 21
1.0
 31
0.0
 73
     1
 44
1.0
1001
ACAD
1000
MTEXTBEGIN
1070
    73
1070
     1
1070
    44
1040
1.0
1070
    74
1070
     0
1000
MTEXTEND
  0
INSERT
  5
200AE
330
1EA32
100
AcDbEntity
  8
寸法
 62
     0
 48
50.0
370
    -2
100
AcDbBlockReference
  2
_DOTSMALL
 10
8829.44635932005
 20
5722.919036112869
 30
0.0
 41
100.0
 42
100.0
 43
100.0
 50
270.0
  0
INSERT
  5
200AF
330
1EA32
100
AcDbEntity
  8
寸法
 62
     0
 48
50.0
370
    -2
100
AcDbBlockReference
  2
_DOTSMALL
 10
8829.44635932005
 20
6412.919036112859
 30
0.0
 41
100.0
 42
100.0
 43
100.0
 50
90.0
  0
POINT
  5
200B0
330
1EA32
100
AcDbEntity
  8
DEFPOINTS
 62
     0
 48
50.0
100
AcDbPoint
 10
8506.514055910914
 20
5722.919036112869
 30
0.0
  0
POINT
  5
200B1
330
1EA32
100
AcDbEntity
  8
DEFPOINTS
 62
     0
 48
50.0
100
AcDbPoint
 10
8556.514055910914
 20
6412.919036112859
 30
0.0
  0
POINT
  5
200B2
330
1EA32
100
AcDbEntity
  8
DEFPOINTS
 62
     0
 48
50.0
100
AcDbPoint
 10
8829.44635932005
 20
6412.919036112859
 30
0.0
  0
ENDBLK
  5
1EA3D
330
1EA32
100
AcDbEntity
  8
0
 48
50.0
100
AcDbBlockEnd
  0
BLOCK
  5
1F253
330
1F24A
100
AcDbEntity
  8
0
 48
50.0
100
AcDbBlockBegin
  2
*D18
 70
     1
 10
0.0
 20
0.0
 30
0.0
  3
*D18
  1

  0
LINE
  5
20098
330
1F24A
100
AcDbEntity
  8
寸法
 62
     0
 48
50.0
370
    -2
100
AcDbLine
 10
7815.014055910913
 20
6532.919036112861
 30
0.0
 11
7815.014055910913
 21
7689.82880176117
 31
0.0
  0
LINE
  5
20099
330
1F24A
100
AcDbEntity
  8
寸法
 62
     0
 48
50.0
370
    -2
100
AcDbLine
 10
7051.014055910913
 20
7122.919036112842
 30
0.0
 11
7051.014055910913
 21
7689.82880176117
 31
0.0
  0
LINE
  5
2009A
330
1F24A
100
AcDbEntity
  8
寸法
 62
     0
 48
50.0
370
    -2
100
AcDbLine
 10
7815.014055910913
 20
7629.828801761171
 30
0.0
 11
7051.014055910913
 21
7629.828801761171
 31
0.0
  0
INSERT
  5
2009B
330
1F24A
100
AcDbEntity
  8
寸法
 62
     0
 48
50.0
370
    -2
100
AcDbBlockReference
  2
_DOTSMALL
 10
7815.014055910913
 20
7629.828801761171
 30
0.0
 41
100.0
 42
100.0
 43
100.0
  0
INSERT
  5
2009C
330
1F24A
100
AcDbEntity
  8
寸法
 62
     0
 48
50.0
370
    -2
100
AcDbBlockReference
  2
_DOTSMALL
 10
7051.014055910913
 20
7629.828801761171
 30
0.0
 41
100.0
 42
100.0
 43
100.0
 50
180.0
  0
MTEXT
  5
2009D
330
1F24A
100
AcDbEntity
  8
寸法
 62
     7
 48
50.0
100
AcDbMText
 10
7433.014055910914
 20
7729.828801761171
 30
0.0
 40
120.0
 41
0.0
 71
     5
 72
     1
  1
\A1;764
  7
STYLE1
 73
     1
 44
1.0
1001
ACAD
1000
MTEXTBEGIN
1070
    73
1070
     1
1070
    44
1040
1.0
1070
    74
1070
     0
1000
MTEXTEND
  0
POINT
  5
2009E
330
1F24A
100
AcDbEntity
  8
DEFPOINTS
 62
     0
 48
50.0
100
AcDbPoint
 10
7815.014055910913
 20
6512.919036112861
 30
0.0
  0
POINT
  5
2009F
330
1F24A
100
AcDbEntity
  8
DEFPOINTS
 62
     0
 48
50.0
100
AcDbPoint
 10
7051.014055910913
 20
7102.919036112843
 30
0.0
  0
POINT
  5
200A0
330
1F24A
100
AcDbEntity
  8
DEFPOINTS
 62
     0
 48
50.0
100
AcDbPoint
 10
7051.014055910913
 20
7629.828801761171
 30
0.0
  0
ENDBLK
  5
1F254
330
1F24A
100
AcDbEntity
  8
0
 48
50.0
100
AcDbBlockEnd
  0
BLOCK
  5
1F25F
330
1F255
100
AcDbEntity
  8
0
 48
50.0
100
AcDbBlockBegin
  2
*D19
 70
     1
 10
0.0
 20
0.0
 30
0.0
  3
*D19
  1

  0
LINE
  5
200A1
330
1F255
100
AcDbEntity
  8
寸法
 62
     0
 48
50.0
370
    -2
100
AcDbLine
 10
9271.014055910914
 20
7122.919036112842
 30
0.0
 11
9271.014055910914
 21
7689.82880176117
 31
0.0
  0
LINE
  5
200A2
330
1F255
100
AcDbEntity
  8
寸法
 62
     0
 48
50.0
370
    -2
100
AcDbLine
 10
8507.014055910913
 20
6532.919036112859
 30
0.0
 11
8507.014055910913
 21
7689.82880176117
 31
0.0
  0
LINE
  5
200A3
330
1F255
100
AcDbEntity
  8
寸法
 62
     0
 48
50.0
370
    -2
100
AcDbLine
 10
9271.014055910914
 20
7629.828801761171
 30
0.0
 11
8507.014055910913
 21
7629.828801761171
 31
0.0
  0
MTEXT
  5
200A4
330
1F255
100
AcDbEntity
  8
寸法
 62
     7
 48
50.0
100
AcDbMText
 10
8857.341087375912
 20
7728.724748491957
 30
0.0
 40
120.0
 41
0.0
 71
     5
 72
     1
  1
\A1;764
  7
STYLE1
 73
     1
 44
1.0
1001
ACAD
1000
MTEXTBEGIN
1070
    73
1070
     1
1070
    44
1040
1.0
1070
    74
1070
     0
1000
MTEXTEND
  0
INSERT
  5
200A5
330
1F255
100
AcDbEntity
  8
寸法
 62
     0
 48
50.0
370
    -2
100
AcDbBlockReference
  2
_DOTSMALL
 10
9271.014055910914
 20
7629.828801761171
 30
0.0
 41
100.0
 42
100.0
 43
100.0
  0
INSERT
  5
200A6
330
1F255
100
AcDbEntity
  8
寸法
 62
     0
 48
50.0
370
    -2
100
AcDbBlockReference
  2
_DOTSMALL
 10
8507.014055910913
 20
7629.828801761171
 30
0.0
 41
100.0
 42
100.0
 43
100.0
 50
180.0
  0
POINT
  5
200A7
330
1F255
100
AcDbEntity
  8
DEFPOINTS
 62
     0
 48
50.0
100
AcDbPoint
 10
9271.014055910914
 20
7102.919036112843
 30
0.0
  0
POINT
  5
200A8
330
1F255
100
AcDbEntity
  8
DEFPOINTS
 62
     0
 48
50.0
100
AcDbPoint
 10
8507.014055910913
 20
6512.919036112859
 30
0.0
  0
POINT
  5
200A9
330
1F255
100
AcDbEntity
  8
DEFPOINTS
 62
     0
 48
50.0
100
AcDbPoint
 10
8507.014055910913
 20
7629.828801761171
 30
0.0
  0
ENDBLK
  5
1F260
330
1F255
100
AcDbEntity
  8
0
 48
50.0
100
AcDbBlockEnd
  0
BLOCK
  5
1F9B2
330
1F9A8
100
AcDbEntity
  8
0
 48
50.0
100
AcDbBlockBegin
  2
*D20
 70
     1
 10
0.0
 20
0.0
 30
0.0
  3
*D20
  1

  0
LINE
  5
2008F
330
1F9A8
100
AcDbEntity
  8
寸法
 62
     0
 48
50.0
370
    -2
100
AcDbLine
 10
7815.014055910913
 20
6532.919036112861
 30
0.0
 11
7815.014055910913
 21
7689.82880176117
 31
0.0
  0
LINE
  5
20090
330
1F9A8
100
AcDbEntity
  8
寸法
 62
     0
 48
50.0
370
    -2
100
AcDbLine
 10
8507.014055910913
 20
6532.919036112859
 30
0.0
 11
8507.014055910913
 21
7689.82880176117
 31
0.0
  0
LINE
  5
20091
330
1F9A8
100
AcDbEntity
  8
寸法
 62
     0
 48
50.0
370
    -2
100
AcDbLine
 10
7815.014055910913
 20
7629.828801761171
 30
0.0
 11
8507.014055910913
 21
7629.828801761171
 31
0.0
  0
INSERT
  5
20092
330
1F9A8
100
AcDbEntity
  8
寸法
 62
     0
 48
50.0
370
    -2
100
AcDbBlockReference
  2
_DOTSMALL
 10
7815.014055910913
 20
7629.828801761171
 30
0.0
 41
100.0
 42
100.0
 43
100.0
 50
180.0
  0
INSERT
  5
20093
330
1F9A8
100
AcDbEntity
  8
寸法
 62
     0
 48
50.0
370
    -2
100
AcDbBlockReference
  2
_DOTSMALL
 10
8507.014055910913
 20
7629.828801761171
 30
0.0
 41
100.0
 42
100.0
 43
100.0
  0
MTEXT
  5
20094
330
1F9A8
100
AcDbEntity
  8
寸法
 62
     7
 48
50.0
100
AcDbMText
 10
8161.014055910913
 20
7729.869614325974
 30
0.0
 40
120.0
 41
0.0
 71
     5
 72
     1
  1
\A1;692
  7
STYLE1
 73
     1
 44
1.0
1001
ACAD
1000
MTEXTBEGIN
1070
    73
1070
     1
1070
    44
1040
1.0
1070
    74
1070
     0
1000
MTEXTEND
  0
POINT
  5
20095
330
1F9A8
100
AcDbEntity
  8
DEFPOINTS
 62
     0
 48
50.0
100
AcDbPoint
 10
7815.014055910913
 20
6512.919036112861
 30
0.0
  0
POINT
  5
20096
330
1F9A8
100
AcDbEntity
  8
DEFPOINTS
 62
     0
 48
50.0
100
AcDbPoint
 10
8507.014055910913
 20
6512.919036112859
 30
0.0
  0
POINT
  5
20097
330
1F9A8
100
AcDbEntity
  8
DEFPOINTS
 62
     0
 48
50.0
100
AcDbPoint
 10
8507.014055910913
 20
7629.828801761171
 30
0.0
  0
ENDBLK
  5
1F9B3
330
1F9A8
100
AcDbEntity
  8
0
 48
50.0
100
AcDbBlockEnd
  0
BLOCK
  5
1FAA3
330
1FA98
100
AcDbEntity
  8
0
 48
50.0
100
AcDbBlockBegin
  2
*D21
 70
     1
 10
0.0
 20
0.0
 30
0.0
  3
*D21
  1

  0
LINE
  5
20085
330
1FA98
100
AcDbEntity
  8
寸法
 62
     0
 48
50.0
370
    -2
100
AcDbLine
 10
7301.014055910911
 20
6872.919036112839
 30
0.0
 11
7558.690548169356
 21
6872.919036112839
 31
0.0
  0
LINE
  5
20086
330
1FA98
100
AcDbEntity
  8
寸法
 62
     0
 48
50.0
370
    -2
100
AcDbLine
 10
7301.014055910911
 20
6982.919036112839
 30
0.0
 11
7558.690548169356
 21
6982.919036112839
 31
0.0
  0
LINE
  5
20087
330
1FA98
100
AcDbEntity
  8
寸法
 62
     0
 48
50.0
370
    -2
100
AcDbLine
 10
7498.690548169355
 20
6872.919036112839
 30
0.0
 11
7498.690548169355
 21
6982.919036112839
 31
0.0
  0
LINE
  5
20088
330
1FA98
100
AcDbEntity
  8
寸法
 62
     0
 48
50.0
370
    -2
100
AcDbLine
 10
7498.690548169355
 20
6512.824547923862
 30
0.0
 11
7498.690548169355
 21
6872.919036112839
 31
0.0
  0
MTEXT
  5
20089
330
1FA98
100
AcDbEntity
  8
寸法
 62
     7
 48
50.0
100
AcDbMText
 10
7398.690548169354
 20
6636.871792018351
 30
0.0
 40
120.0
 41
0.0
 71
     5
 72
     1
  1
\A1;110
  7
STYLE1
 11
0.0000000000000001
 21
1.0
 31
0.0
 73
     1
 44
1.0
1001
ACAD
1000
MTEXTBEGIN
1070
    73
1070
     1
1070
    44
1040
1.0
1070
    74
1070
     0
1000
MTEXTEND
  0
INSERT
  5
2008A
330
1FA98
100
AcDbEntity
  8
寸法
 62
     0
 48
50.0
370
    -2
100
AcDbBlockReference
  2
_DOTSMALL
 10
7498.690548169355
 20
6872.919036112839
 30
0.0
 41
100.0
 42
100.0
 43
100.0
 50
270.0
  0
INSERT
  5
2008B
330
1FA98
100
AcDbEntity
  8
寸法
 62
     0
 48
50.0
370
    -2
100
AcDbBlockReference
  2
_DOTSMALL
 10
7498.690548169355
 20
6982.919036112839
 30
0.0
 41
100.0
 42
100.0
 43
100.0
 50
90.0
  0
POINT
  5
2008C
330
1FA98
100
AcDbEntity
  8
DEFPOINTS
 62
     0
 48
50.0
100
AcDbPoint
 10
7281.014055910913
 20
6872.919036112839
 30
0.0
  0
POINT
  5
2008D
330
1FA98
100
AcDbEntity
  8
DEFPOINTS
 62
     0
 48
50.0
100
AcDbPoint
 10
7281.014055910913
 20
6982.919036112839
 30
0.0
  0
POINT
  5
2008E
330
1FA98
100
AcDbEntity
  8
DEFPOINTS
 62
     0
 48
50.0
100
AcDbPoint
 10
7498.690548169355
 20
6982.919036112839
 30
0.0
  0
ENDBLK
  5
1FAA4
330
1FA98
100
AcDbEntity
  8
0
 48
50.0
100
AcDbBlockEnd
  0
BLOCK
  5
1FACF
330
1FAC4
100
AcDbEntity
  8
0
 48
50.0
100
AcDbBlockBegin
  2
*D22
 70
     1
 10
0.0
 20
0.0
 30
0.0
  3
*D22
  1

  0
LINE
  5
2007B
330
1FAC4
100
AcDbEntity
  8
寸法
 62
     0
 48
50.0
370
    -2
100
AcDbLine
 10
7301.014055910911
 20
6982.919036112839
 30
0.0
 11
7558.690548169356
 21
6982.919036112839
 31
0.0
  0
LINE
  5
2007C
330
1FAC4
100
AcDbEntity
  8
寸法
 62
     0
 48
50.0
370
    -2
100
AcDbLine
 10
7301.014055910911
 20
7102.91903611284
 30
0.0
 11
7558.690548169356
 21
7102.91903611284
 31
0.0
  0
LINE
  5
2007D
330
1FAC4
100
AcDbEntity
  8
寸法
 62
     0
 48
50.0
370
    -2
100
AcDbLine
 10
7498.690548169355
 20
6982.919036112839
 30
0.0
 11
7498.690548169355
 21
7102.91903611284
 31
0.0
  0
LINE
  5
2007E
330
1FAC4
100
AcDbEntity
  8
寸法
 62
     0
 48
50.0
370
    -2
100
AcDbLine
 10
7498.690548169355
 20
7505.013524301819
 30
0.0
 11
7498.690548169355
 21
7102.91903611284
 31
0.0
  0
MTEXT
  5
2007F
330
1FAC4
100
AcDbEntity
  8
寸法
 62
     7
 48
50.0
100
AcDbMText
 10
7398.678737145733
 20
7368.966280207333
 30
0.0
 40
120.0
 41
0.0
 71
     5
 72
     1
  1
\A1;120
  7
STYLE1
 11
0.0000000000000001
 21
1.0
 31
0.0
 73
     1
 44
1.0
1001
ACAD
1000
MTEXTBEGIN
1070
    73
1070
     1
1070
    44
1040
1.0
1070
    74
1070
     0
1000
MTEXTEND
  0
INSERT
  5
20080
330
1FAC4
100
AcDbEntity
  8
寸法
 62
     0
 48
50.0
370
    -2
100
AcDbBlockReference
  2
_DOTSMALL
 10
7498.690548169355
 20
6982.919036112839
 30
0.0
 41
100.0
 42
100.0
 43
100.0
 50
270.0
  0
INSERT
  5
20081
330
1FAC4
100
AcDbEntity
  8
寸法
 62
     0
 48
50.0
370
    -2
100
AcDbBlockReference
  2
_DOTSMALL
 10
7498.690548169355
 20
7102.91903611284
 30
0.0
 41
100.0
 42
100.0
 43
100.0
 50
90.0
  0
POINT
  5
20082
330
1FAC4
100
AcDbEntity
  8
DEFPOINTS
 62
     0
 48
50.0
100
AcDbPoint
 10
7281.014055910913
 20
6982.919036112839
 30
0.0
  0
POINT
  5
20083
330
1FAC4
100
AcDbEntity
  8
DEFPOINTS
 62
     0
 48
50.0
100
AcDbPoint
 10
7281.014055910913
 20
7102.91903611284
 30
0.0
  0
POINT
  5
20084
330
1FAC4
100
AcDbEntity
  8
DEFPOINTS
 62
     0
 48
50.0
100
AcDbPoint
 10
7498.690548169355
 20
7102.91903611284
 30
0.0
  0
ENDBLK
  5
1FAD0
330
1FAC4
100
AcDbEntity
  8
0
 48
50.0
100
AcDbBlockEnd
  0
BLOCK
  5
1FE34
330
1FE2A
100
AcDbEntity
  8
0
 48
50.0
100
AcDbBlockBegin
  2
*D23
 70
     1
 10
0.0
 20
0.0
 30
0.0
  3
*D23
  1

  0
LINE
  5
20072
330
1FE2A
100
AcDbEntity
  8
寸法
 62
     0
 48
50.0
370
    -2
100
AcDbLine
 10
7494.179984992936
 20
1852.641760450682
 30
0.0
 11
8036.048584761777
 21
1852.641760450682
 31
0.0
  0
LINE
  5
20073
330
1FE2A
100
AcDbEntity
  8
寸法
 62
     0
 48
50.0
370
    -2
100
AcDbLine
 10
7494.179984992936
 20
1528.641760450681
 30
0.0
 11
8036.048584761777
 21
1528.641760450681
 31
0.0
  0
LINE
  5
20074
330
1FE2A
100
AcDbEntity
  8
寸法
 62
     0
 48
50.0
370
    -2
100
AcDbLine
 10
7976.048584761779
 20
1852.641760450682
 30
0.0
 11
7976.048584761779
 21
1528.641760450681
 31
0.0
  0
INSERT
  5
20075
330
1FE2A
100
AcDbEntity
  8
寸法
 62
     0
 48
50.0
370
    -2
100
AcDbBlockReference
  2
_DOTSMALL
 10
7976.048584761779
 20
1852.641760450682
 30
0.0
 41
100.0
 42
100.0
 43
100.0
 50
90.0
  0
INSERT
  5
20076
330
1FE2A
100
AcDbEntity
  8
寸法
 62
     0
 48
50.0
370
    -2
100
AcDbBlockReference
  2
_DOTSMALL
 10
7976.048584761779
 20
1528.641760450681
 30
0.0
 41
100.0
 42
100.0
 43
100.0
 50
270.0
  0
MTEXT
  5
20077
330
1FE2A
100
AcDbEntity
  8
寸法
 62
     7
 48
50.0
100
AcDbMText
 10
7876.048584761779
 20
1690.641760450683
 30
0.0
 40
120.0
 41
0.0
 71
     5
 72
     1
  1
\A1;180
  7
STYLE1
 11
0.0000000000000001
 21
1.0
 31
0.0
 73
     1
 44
1.0
1001
ACAD
1000
MTEXTBEGIN
1070
    73
1070
     1
1070
    44
1040
1.0
1070
    74
1070
     0
1000
MTEXTEND
  0
POINT
  5
20078
330
1FE2A
100
AcDbEntity
  8
DEFPOINTS
 62
     0
 48
50.0
100
AcDbPoint
 10
7474.179984992935
 20
1852.641760450682
 30
0.0
  0
POINT
  5
20079
330
1FE2A
100
AcDbEntity
  8
DEFPOINTS
 62
     0
 48
50.0
100
AcDbPoint
 10
7474.179984992935
 20
1528.641760450681
 30
0.0
  0
POINT
  5
2007A
330
1FE2A
100
AcDbEntity
  8
DEFPOINTS
 62
     0
 48
50.0
100
AcDbPoint
 10
7976.048584761779
 20
1528.641760450681
 30
0.0
  0
ENDBLK
  5
1FE35
330
1FE2A
100
AcDbEntity
  8
0
 48
50.0
100
AcDbBlockEnd
  0
BLOCK
  5
1FE45
330
1FE36
100
AcDbEntity
  8
0
 48
50.0
100
AcDbBlockBegin
  2
*D24
 70
     1
 10
0.0
 20
0.0
 30
0.0
  3
*D24
  1

  0
LINE
  5
20064
330
1FE36
100
AcDbEntity
  8
寸法
 62
     0
 48
50.0
370
    -2
100
AcDbLine
 10
7306.979984992935
 20
1905.401760450683
 30
0.0
 11
8036.048584761777
 21
1905.401760450683
 31
0.0
  0
LINE
  5
20065
330
1FE36
100
AcDbEntity
  8
寸法
 62
     0
 48
50.0
370
    -2
100
AcDbLine
 10
7494.179984992936
 20
1852.641760450682
 30
0.0
 11
8036.048584761777
 21
1852.641760450682
 31
0.0
  0
LINE
  5
20066
330
1FE36
100
AcDbEntity
  8
寸法
 62
     0
 48
50.0
370
    -2
100
AcDbLine
 10
7976.048584761779
 20
1905.401760450683
 30
0.0
 11
7976.048584761779
 21
2005.401760450683
 31
0.0
  0
LINE
  5
20067
330
1FE36
100
AcDbEntity
  8
寸法
 62
     0
 48
50.0
370
    -2
100
AcDbLine
 10
7976.048584761779
 20
1852.641760450682
 30
0.0
 11
7976.048584761779
 21
1752.641760450682
 31
0.0
  0
LINE
  5
20068
330
1FE36
100
AcDbEntity
  8
寸法
 62
     0
 48
50.0
370
    -2
100
AcDbLine
 10
7976.048584761779
 20
1879.021760450683
 30
0.0
 11
8252.103250880805
 21
1867.517802846469
 31
0.0
  0
LINE
  5
20069
330
1FE36
100
AcDbEntity
  8
寸法
 62
     0
 48
50.0
370
    -2
100
AcDbLine
 10
8252.103250880805
 20
1867.517802846469
 30
0.0
 11
8252.103250880805
 21
1335.499996003504
 31
0.0
  0
MTEXT
  5
2006A
330
1FE36
100
AcDbEntity
  8
寸法
 62
     7
 48
50.0
100
AcDbMText
 10
8152.091439857185
 20
1601.508899424988
 30
0.0
 40
120.0
 41
0.0
 71
     5
 72
     1
  1
\A1;20～25
  7
STYLE1
 11
0.0000000000000001
 21
1.0
 31
0.0
 73
     1
 44
1.0
1001
ACAD
1000
MTEXTBEGIN
1070
    73
1070
     1
1070
    44
1040
1.0
1070
    74
1070
     0
1000
MTEXTEND
  0
LINE
  5
2006B
330
1FE36
100
AcDbEntity
  8
寸法
 62
     0
 48
50.0
370
    -2
100
AcDbLine
 10
7976.048584761779
 20
1905.401760450683
 30
0.0
 11
7976.048584761779
 21
1852.641760450682
 31
0.0
  0
LINE
  5
2006C
330
1FE36
100
AcDbEntity
  8
寸法
 62
     0
 48
50.0
370
    -2
100
AcDbLine
 10
7976.048584761779
 20
1905.401760450683
 30
0.0
 11
7976.048584761779
 21
1852.641760450682
 31
0.0
  0
INSERT
  5
2006D
330
1FE36
100
AcDbEntity
  8
寸法
 62
     0
 48
50.0
370
    -2
100
AcDbBlockReference
  2
_DOTSMALL
 10
7976.048584761779
 20
1905.401760450683
 30
0.0
 41
100.0
 42
100.0
 43
100.0
 50
270.0
  0
INSERT
  5
2006E
330
1FE36
100
AcDbEntity
  8
寸法
 62
     0
 48
50.0
370
    -2
100
AcDbBlockReference
  2
_DOTSMALL
 10
7976.048584761779
 20
1852.641760450682
 30
0.0
 41
100.0
 42
100.0
 43
100.0
 50
90.0
  0
POINT
  5
2006F
330
1FE36
100
AcDbEntity
  8
DEFPOINTS
 62
     0
 48
50.0
100
AcDbPoint
 10
7286.979984992935
 20
1905.401760450683
 30
0.0
  0
POINT
  5
20070
330
1FE36
100
AcDbEntity
  8
DEFPOINTS
 62
     0
 48
50.0
100
AcDbPoint
 10
7474.179984992935
 20
1852.641760450682
 30
0.0
  0
POINT
  5
20071
330
1FE36
100
AcDbEntity
  8
DEFPOINTS
 62
     0
 48
50.0
100
AcDbPoint
 10
7976.048584761779
 20
1852.641760450682
 30
0.0
  0
ENDBLK
  5
1FE46
330
1FE36
100
AcDbEntity
  8
0
 48
50.0
100
AcDbBlockEnd
  0
BLOCK
  5
1FE51
330
1FE47
100
AcDbEntity
  8
0
 48
50.0
100
AcDbBlockBegin
  2
*D25
 70
     1
 10
0.0
 20
0.0
 30
0.0
  3
*D25
  1

  0
LINE
  5
2005B
330
1FE47
100
AcDbEntity
  8
寸法
 62
     0
 48
50.0
370
    -2
100
AcDbLine
 10
5212.14067181574
 20
1308.641760450682
 30
0.0
 11
5029.720358083281
 21
1308.641760450682
 31
0.0
  0
LINE
  5
2005C
330
1FE47
100
AcDbEntity
  8
寸法
 62
     0
 48
50.0
370
    -2
100
AcDbLine
 10
5132.140671815744
 20
1068.641760450682
 30
0.0
 11
5029.720358083281
 21
1068.641760450682
 31
0.0
  0
LINE
  5
2005D
330
1FE47
100
AcDbEntity
  8
寸法
 62
     0
 48
50.0
370
    -2
100
AcDbLine
 10
5089.720358083281
 20
1308.641760450682
 30
0.0
 11
5089.720358083281
 21
1068.641760450682
 31
0.0
  0
MTEXT
  5
2005E
330
1FE47
100
AcDbEntity
  8
寸法
 62
     7
 48
50.0
100
AcDbMText
 10
4989.720358083281
 20
1188.641760450682
 30
0.0
 40
120.0
 41
0.0
 71
     5
 72
     1
  1
\A1;150
  7
STYLE1
 11
0.0000000000000001
 21
1.0
 31
0.0
 73
     1
 44
1.0
1001
ACAD
1000
MTEXTBEGIN
1070
    73
1070
     1
1070
    44
1040
1.0
1070
    74
1070
     0
1000
MTEXTEND
  0
INSERT
  5
2005F
330
1FE47
100
AcDbEntity
  8
寸法
 62
     0
 48
50.0
370
    -2
100
AcDbBlockReference
  2
_DOTSMALL
 10
5089.720358083281
 20
1308.641760450682
 30
0.0
 41
100.0
 42
100.0
 43
100.0
 50
90.0
  0
INSERT
  5
20060
330
1FE47
100
AcDbEntity
  8
寸法
 62
     0
 48
50.0
370
    -2
100
AcDbBlockReference
  2
_DOTSMALL
 10
5089.720358083281
 20
1068.641760450682
 30
0.0
 41
100.0
 42
100.0
 43
100.0
 50
270.0
  0
POINT
  5
20061
330
1FE47
100
AcDbEntity
  8
DEFPOINTS
 62
     0
 48
50.0
100
AcDbPoint
 10
5232.140671815741
 20
1308.641760450682
 30
0.0
  0
POINT
  5
20062
330
1FE47
100
AcDbEntity
  8
DEFPOINTS
 62
     0
 48
50.0
100
AcDbPoint
 10
5152.140671815744
 20
1068.641760450682
 30
0.0
  0
POINT
  5
20063
330
1FE47
100
AcDbEntity
  8
DEFPOINTS
 62
     0
 48
50.0
100
AcDbPoint
 10
5089.720358083281
 20
1068.641760450682
 30
0.0
  0
ENDBLK
  5
1FE52
330
1FE47
100
AcDbEntity
  8
0
 48
50.0
100
AcDbBlockEnd
  0
BLOCK
  5
1FE5D
330
1FE53
100
AcDbEntity
  8
0
 48
50.0
100
AcDbBlockBegin
  2
*D26
 70
     1
 10
0.0
 20
0.0
 30
0.0
  3
*D26
  1

  0
LINE
  5
20052
330
1FE53
100
AcDbEntity
  8
寸法
 62
     0
 48
50.0
370
    -2
100
AcDbLine
 10
5340.14067181574
 20
1852.641760450682
 30
0.0
 11
4565.103433253999
 21
1852.641760450682
 31
0.0
  0
LINE
  5
20053
330
1FE53
100
AcDbEntity
  8
寸法
 62
     0
 48
50.0
370
    -2
100
AcDbLine
 10
5132.140671815744
 20
1068.641760450682
 30
0.0
 11
4565.103433253999
 21
1068.641760450682
 31
0.0
  0
LINE
  5
20054
330
1FE53
100
AcDbEntity
  8
寸法
 62
     0
 48
50.0
370
    -2
100
AcDbLine
 10
4625.103433253999
 20
1852.641760450682
 30
0.0
 11
4625.103433253999
 21
1068.641760450682
 31
0.0
  0
MTEXT
  5
20055
330
1FE53
100
AcDbEntity
  8
寸法
 62
     7
 48
50.0
100
AcDbMText
 10
4525.103433254
 20
1440.181910106683
 30
0.0
 40
120.0
 41
0.0
 71
     5
 72
     1
  1
\A1;540
  7
STYLE1
 11
0.0000000000000001
 21
1.0
 31
0.0
 73
     1
 44
1.0
1001
ACAD
1000
MTEXTBEGIN
1070
    73
1070
     1
1070
    44
1040
1.0
1070
    74
1070
     0
1000
MTEXTEND
  0
INSERT
  5
20056
330
1FE53
100
AcDbEntity
  8
寸法
 62
     0
 48
50.0
370
    -2
100
AcDbBlockReference
  2
_DOTSMALL
 10
4625.103433253999
 20
1852.641760450682
 30
0.0
 41
100.0
 42
100.0
 43
100.0
 50
90.0
  0
INSERT
  5
20057
330
1FE53
100
AcDbEntity
  8
寸法
 62
     0
 48
50.0
370
    -2
100
AcDbBlockReference
  2
_DOTSMALL
 10
4625.103433253999
 20
1068.641760450682
 30
0.0
 41
100.0
 42
100.0
 43
100.0
 50
270.0
  0
POINT
  5
20058
330
1FE53
100
AcDbEntity
  8
DEFPOINTS
 62
     0
 48
50.0
100
AcDbPoint
 10
5360.140671815741
 20
1852.641760450682
 30
0.0
  0
POINT
  5
20059
330
1FE53
100
AcDbEntity
  8
DEFPOINTS
 62
     0
 48
50.0
100
AcDbPoint
 10
5152.140671815744
 20
1068.641760450682
 30
0.0
  0
POINT
  5
2005A
330
1FE53
100
AcDbEntity
  8
DEFPOINTS
 62
     0
 48
50.0
100
AcDbPoint
 10
4625.103433253999
 20
1068.641760450682
 30
0.0
  0
ENDBLK
  5
1FE5E
330
1FE53
100
AcDbEntity
  8
0
 48
50.0
100
AcDbBlockEnd
  0
BLOCK
  5
1FE69
330
1FE5F
100
AcDbEntity
  8
0
 48
50.0
100
AcDbBlockBegin
  2
*D27
 70
     1
 10
0.0
 20
0.0
 30
0.0
  3
*D27
  1

  0
LINE
  5
20049
330
1FE5F
100
AcDbEntity
  8
寸法
 62
     0
 48
50.0
370
    -2
100
AcDbLine
 10
5232.140671815741
 20
920.6417604506823
 30
0.0
 11
5232.140671815741
 21
470.2121224455222
 31
0.0
  0
LINE
  5
2004A
330
1FE5F
100
AcDbEntity
  8
寸法
 62
     0
 48
50.0
370
    -2
100
AcDbLine
 10
5680.140671815741
 20
920.6417604506823
 30
0.0
 11
5680.140671815741
 21
470.2121224455222
 31
0.0
  0
LINE
  5
2004B
330
1FE5F
100
AcDbEntity
  8
寸法
 62
     0
 48
50.0
370
    -2
100
AcDbLine
 10
5232.140671815741
 20
530.2121224455222
 30
0.0
 11
5680.140671815741
 21
530.2121224455222
 31
0.0
  0
MTEXT
  5
2004C
330
1FE5F
100
AcDbEntity
  8
寸法
 62
     7
 48
50.0
100
AcDbMText
 10
5436.043913137517
 20
630.2121224455222
 30
0.0
 40
120.0
 41
0.0
 71
     5
 72
     1
  1
\A1;300
  7
STYLE1
 73
     1
 44
1.0
1001
ACAD
1000
MTEXTBEGIN
1070
    73
1070
     1
1070
    44
1040
1.0
1070
    74
1070
     0
1000
MTEXTEND
  0
INSERT
  5
2004D
330
1FE5F
100
AcDbEntity
  8
寸法
 62
     0
 48
50.0
370
    -2
100
AcDbBlockReference
  2
_DOTSMALL
 10
5232.140671815741
 20
530.2121224455222
 30
0.0
 41
100.0
 42
100.0
 43
100.0
 50
180.0
  0
INSERT
  5
2004E
330
1FE5F
100
AcDbEntity
  8
寸法
 62
     0
 48
50.0
370
    -2
100
AcDbBlockReference
  2
_DOTSMALL
 10
5680.140671815741
 20
530.2121224455222
 30
0.0
 41
100.0
 42
100.0
 43
100.0
  0
POINT
  5
2004F
330
1FE5F
100
AcDbEntity
  8
DEFPOINTS
 62
     0
 48
50.0
100
AcDbPoint
 10
5232.140671815741
 20
940.6417604506824
 30
0.0
  0
POINT
  5
20050
330
1FE5F
100
AcDbEntity
  8
DEFPOINTS
 62
     0
 48
50.0
100
AcDbPoint
 10
5680.140671815741
 20
940.6417604506824
 30
0.0
  0
POINT
  5
20051
330
1FE5F
100
AcDbEntity
  8
DEFPOINTS
 62
     0
 48
50.0
100
AcDbPoint
 10
5680.140671815741
 20
530.2121224455222
 30
0.0
  0
ENDBLK
  5
1FE6A
330
1FE5F
100
AcDbEntity
  8
0
 48
50.0
100
AcDbBlockEnd
  0
BLOCK
  5
1FE75
330
1FE6B
100
AcDbEntity
  8
0
 48
50.0
100
AcDbBlockBegin
  2
*D28
 70
     1
 10
0.0
 20
0.0
 30
0.0
  3
*D28
  1

  0
LINE
  5
20040
330
1FE6B
100
AcDbEntity
  8
寸法
 62
     0
 48
50.0
370
    -2
100
AcDbLine
 10
5552.140671815741
 20
1872.641760450682
 30
0.0
 11
5552.140671815741
 21
2232.641760450682
 31
0.0
  0
LINE
  5
20041
330
1FE6B
100
AcDbEntity
  8
寸法
 62
     0
 48
50.0
370
    -2
100
AcDbLine
 10
5360.140671815741
 20
1872.641760450682
 30
0.0
 11
5360.140671815741
 21
2232.641760450682
 31
0.0
  0
LINE
  5
20042
330
1FE6B
100
AcDbEntity
  8
寸法
 62
     0
 48
50.0
370
    -2
100
AcDbLine
 10
5552.140671815741
 20
2172.641760450682
 30
0.0
 11
5360.140671815741
 21
2172.641760450682
 31
0.0
  0
MTEXT
  5
20043
330
1FE6B
100
AcDbEntity
  8
寸法
 62
     7
 48
50.0
100
AcDbMText
 10
5467.367002160938
 20
2472.321379390685
 30
0.0
 40
120.0
 41
0.0
 71
     5
 72
     1
  1
\A1;120\P170
  7
STYLE1
 73
     1
 44
1.0
1001
ACAD
1000
MTEXTBEGIN
1070
    73
1070
     1
1070
    44
1040
1.0
1070
    74
1070
     0
1000
MTEXTEND
  0
INSERT
  5
20044
330
1FE6B
100
AcDbEntity
  8
寸法
 62
     0
 48
50.0
370
    -2
100
AcDbBlockReference
  2
_DOTSMALL
 10
5552.140671815741
 20
2172.641760450682
 30
0.0
 41
100.0
 42
100.0
 43
100.0
  0
INSERT
  5
20045
330
1FE6B
100
AcDbEntity
  8
寸法
 62
     0
 48
50.0
370
    -2
100
AcDbBlockReference
  2
_DOTSMALL
 10
5360.140671815741
 20
2172.641760450682
 30
0.0
 41
100.0
 42
100.0
 43
100.0
 50
180.0
  0
POINT
  5
20046
330
1FE6B
100
AcDbEntity
  8
DEFPOINTS
 62
     0
 48
50.0
100
AcDbPoint
 10
5552.140671815741
 20
1852.641760450682
 30
0.0
  0
POINT
  5
20047
330
1FE6B
100
AcDbEntity
  8
DEFPOINTS
 62
     0
 48
50.0
100
AcDbPoint
 10
5360.140671815741
 20
1852.641760450682
 30
0.0
  0
POINT
  5
20048
330
1FE6B
100
AcDbEntity
  8
DEFPOINTS
 62
     0
 48
50.0
100
AcDbPoint
 10
5360.140671815741
 20
2172.641760450682
 30
0.0
  0
ENDBLK
  5
1FE76
330
1FE6B
100
AcDbEntity
  8
0
 48
50.0
100
AcDbBlockEnd
  0
BLOCK
  5
1FF2C
330
1FF20
100
AcDbEntity
  8
0
 48
50.0
100
AcDbBlockBegin
  2
*D29
 70
     1
 10
0.0
 20
0.0
 30
0.0
  3
*D29
  1

  0
LINE
  5
20037
330
1FF20
100
AcDbEntity
  8
寸法
 62
     0
 48
50.0
370
    -2
100
AcDbLine
 10
9041.014055910913
 20
6852.91903611284
 30
0.0
 11
9041.014055910913
 21
6504.422404093434
 31
0.0
  0
LINE
  5
20038
330
1FF20
100
AcDbEntity
  8
寸法
 62
     0
 48
50.0
370
    -2
100
AcDbLine
 10
9151.014055910913
 20
6582.91903611285
 30
0.0
 11
9151.014055910913
 21
6504.422404093434
 31
0.0
  0
LINE
  5
20039
330
1FF20
100
AcDbEntity
  8
寸法
 62
     0
 48
50.0
370
    -2
100
AcDbLine
 10
9041.014055910913
 20
6564.422404093434
 30
0.0
 11
9151.014055910913
 21
6564.422404093434
 31
0.0
  0
MTEXT
  5
2003A
330
1FF20
100
AcDbEntity
  8
寸法
 62
     7
 48
50.0
100
AcDbMText
 10
8931.607955096303
 20
6737.929650469872
 30
0.0
 40
120.0
 41
0.0
 71
     5
 72
     1
  1
\A1;110
  7
STYLE1
 73
     1
 44
1.0
1001
ACAD
1000
MTEXTBEGIN
1070
    73
1070
     1
1070
    44
1040
1.0
1070
    74
1070
     0
1000
MTEXTEND
  0
INSERT
  5
2003B
330
1FF20
100
AcDbEntity
  8
寸法
 62
     0
 48
50.0
370
    -2
100
AcDbBlockReference
  2
_DOTSMALL
 10
9041.014055910913
 20
6564.422404093434
 30
0.0
 41
100.0
 42
100.0
 43
100.0
 50
180.0
  0
INSERT
  5
2003C
330
1FF20
100
AcDbEntity
  8
寸法
 62
     0
 48
50.0
370
    -2
100
AcDbBlockReference
  2
_DOTSMALL
 10
9151.014055910913
 20
6564.422404093434
 30
0.0
 41
100.0
 42
100.0
 43
100.0
  0
POINT
  5
2003D
330
1FF20
100
AcDbEntity
  8
DEFPOINTS
 62
     0
 48
50.0
100
AcDbPoint
 10
9041.014055910913
 20
6872.91903611284
 30
0.0
  0
POINT
  5
2003E
330
1FF20
100
AcDbEntity
  8
DEFPOINTS
 62
     0
 48
50.0
100
AcDbPoint
 10
9151.014055910913
 20
6602.91903611285
 30
0.0
  0
POINT
  5
2003F
330
1FF20
100
AcDbEntity
  8
DEFPOINTS
 62
     0
 48
50.0
100
AcDbPoint
 10
9151.014055910913
 20
6564.422404093434
 30
0.0
  0
ENDBLK
  5
1FF2D
330
1FF20
100
AcDbEntity
  8
0
 48
50.0
100
AcDbBlockEnd
  0
ENDSEC
  0
SECTION
  2
ENTITIES
  0
LINE
  5
10B57
330
747D
100
AcDbEntity
  8
補助
  6
PHANTOM
 62
   230
 48
50.0
100
AcDbLine
 10
139.9999999999995
 20
11409.6
 30
0.0
 11
16307.2
 21
11409.6
 31
0.0
  0
LINE
  5
10B59
330
747D
100
AcDbEntity
  8
仕様書枠
  6
Continuous
 48
50.0
100
AcDbLine
 10
13107.2
 20
1200.0
 30
0.0
 11
13107.2
 21
-0.0000000000000729
 31
0.0
  0
LINE
  5
10B5C
330
747D
100
AcDbEntity
  8
仕様書枠
 48
50.0
100
AcDbLine
 10
16307.2
 20
1200.0
 30
0.0
 11
16307.2
 21
-0.0000000000000909
 31
0.0
  0
LINE
  5
10B5D
330
747D
100
AcDbEntity
  8
仕様書枠
 48
50.0
100
AcDbLine
 10
140.0
 20
0.0
 30
0.0
 11
16307.2
 21
-0.0000000000000909
 31
0.0
  0
LINE
  5
10B5E
330
747D
100
AcDbEntity
  8
補助
  6
PHANTOM
 62
   230
 48
50.0
100
AcDbLine
 10
16307.2
 20
11409.6
 30
0.0
 11
16307.2
 21
1200.0
 31
0.0
  0
LINE
  5
10B6C
330
747D
100
AcDbEntity
  8
仕様書枠
 48
50.0
100
AcDbLine
 10
13107.2
 20
1200.0
 30
0.0
 11
16307.2
 21
1200.0
 31
0.0
  0
LINE
  5
10B6D
330
747D
100
AcDbEntity
  8
補助
  6
PHANTOM
 62
   230
 48
50.0
100
AcDbLine
 10
13107.2
 20
11409.6
 30
0.0
 11
13107.2
 21
4800.0
 31
0.0
  0
LINE
  5
10B6F
330
747D
100
AcDbEntity
  8
補助
  6
PHANTOM
 62
   230
 48
50.0
100
AcDbLine
 10
13107.2
 20
4800.0
 30
0.0
 11
16307.2
 21
4800.0
 31
0.0
  0
LINE
  5
10B72
330
747D
100
AcDbEntity
  8
文字
 62
     7
 48
50.0
100
AcDbLine
 10
13187.2
 20
400.0
 30
0.0
 11
16227.2
 21
400.0
 31
0.0
  0
TEXT
  5
10B73
330
747D
100
AcDbEntity
  8
文字
 62
     7
 48
50.0
100
AcDbText
 10
13162.9790565769
 20
895.0906074299405
 30
0.0
 40
200.0
  1
基 礎 図
  7
STYLE2
100
AcDbText
  0
TEXT
  5
10B74
330
747D
100
AcDbEntity
  8
文字
 62
     7
 48
50.0
100
AcDbText
 10
13201.43669998441
 20
477.2740661031255
 30
0.0
 40
160.0
  1
機種名
  7
STYLE2
100
AcDbText
  0
LINE
  5
10B7B
330
747D
100
AcDbEntity
  8
仕様書枠
 48
50.0
100
AcDbLine
 10
13107.2
 20
800.0
 30
0.0
 11
14251.2
 21
800.0
 31
0.0
  0
LINE
  5
10B88
330
747D
100
AcDbEntity
  8
仕様書枠
  6
Continuous
 48
50.0
100
AcDbLine
 10
14251.2
 20
1200.0
 30
0.0
 11
14251.2
 21
800.0
 31
0.0
  0
TEXT
  5
14DEF
330
747D
100
AcDbEntity
  8
文字
 62
     7
 48
50.0
100
AcDbText
 10
14641.2525855784
 20
871.1744590657925
 30
0.0
 40
100.0
  1
～一般型・多雪地型～
  7
STYLE2
100
AcDbText
  0
TEXT
  5
15A76
330
747D
100
AcDbEntity
  8
文字
 62
     7
 48
50.0
100
AcDbText
 10
14448.51912655987
 20
483.8967129911411
 30
0.0
 40
160.0
  1
ＮＸＮ－３０Ｓ・H
  7
STYLE2
100
AcDbText
  0
TEXT
  5
1D002
330
747D
100
AcDbEntity
  8
文字
 62
     7
 48
50.0
100
AcDbText
 10
13188.16259899338
 20
246.7109242801889
 30
0.0
 40
80.0
  1
※寒冷地等は地域の実情に合わせた基礎にして下さい。
  7
STYLE2
100
AcDbText
  0
DIMENSION
  5
1D91B
330
747D
100
AcDbEntity
  8
寸法
 48
50.0
100
AcDbDimension
  2
*D1
 10
7497.721305787012
 20
6022.919036112863
 30
0.0
 11
7497.72130578701
 21
6258.966280207353
 31
0.0
 70
   160
 71
     5
 42
130.0000000000018
  3
INABA_S40G
100
AcDbAlignedDimension
 13
7281.014055910913
 23
5892.919036112861
 33
0.0
 14
7281.014055910913
 24
6022.919036112863
 34
0.0
 50
90.0
100
AcDbRotatedDimension
1001
ACAD
1000
DSTYLE
1002
{
1070
   174
1070
     0
1070
   272
1070
     1
1070
   279
1070
     1
1070
   288
1070
     0
1070
   341
1005
0
1002
}
  0
DIMENSION
  5
1D91C
330
747D
100
AcDbEntity
  8
寸法
 48
50.0
100
AcDbDimension
  2
*D2
 10
7497.721305787012
 20
5722.919036112862
 30
0.0
 11
7497.72130578701
 21
5486.871792018373
 31
0.0
 70
   160
 71
     5
 42
170.0000000000018
  3
INABA_S40G
100
AcDbAlignedDimension
 13
7281.014055910913
 23
5892.919036112863
 33
0.0
 14
7281.014055910913
 24
5722.919036112862
 34
0.0
 50
90.0
100
AcDbRotatedDimension
1001
ACAD
1000
DSTYLE
1002
{
1070
   174
1070
     0
1070
   272
1070
     1
1070
   279
1070
     1
1070
   288
1070
     0
1070
   341
1005
0
1002
}
  0
DIMENSION
  5
1D91D
330
747D
100
AcDbEntity
  8
寸法
 48
50.0
100
AcDbDimension
  2
*D3
 10
7174.014055910913
 20
7856.250847072693
 30
0.0
 11
8161.014055910913
 21
7956.250847072692
 31
0.0
 70
    32
 71
     5
 42
1974.0
  3
INABA_S40G
100
AcDbAlignedDimension
 13
9148.014055910913
 23
7029.919036112841
 33
0.0
 14
7174.014055910913
 24
7029.919036112842
 34
0.0
100
AcDbRotatedDimension
1001
ACAD
1000
DSTYLE
1002
{
1070
   174
1070
     0
1070
   272
1070
     1
1070
   279
1070
     1
1070
   288
1070
     0
1070
   341
1005
0
1002
}
  0
LINE
  5
1D91E
330
747D
100
AcDbEntity
  8
部品1
 48
50.0
100
AcDbLine
 10
9041.014055910915
 20
5892.919036112876
 30
0.0
 11
7281.014055910912
 21
5892.91903611286
 31
0.0
  0
LINE
  5
1D91F
330
747D
100
AcDbEntity
  8
部品1
 48
50.0
100
AcDbLine
 10
9041.014055910913
 20
6982.919036112838
 30
0.0
 11
7281.014055910913
 21
6982.919036112839
 31
0.0
  0
DIMENSION
  5
1D920
330
747D
100
AcDbEntity
  8
寸法
 48
50.0
100
AcDbDimension
  2
*D4
 10
9271.014055910914
 20
8068.711542589529
 30
0.0
 11
8161.014055910913
 21
8168.723353613151
 31
0.0
 70
    32
 71
     5
 42
2220.0
  3
INABA_S40G
100
AcDbAlignedDimension
 13
7051.014055910913
 23
7102.919036112843
 33
0.0
 14
9271.014055910914
 24
7102.919036112843
 34
0.0
100
AcDbRotatedDimension
1001
ACAD
1000
DSTYLE
1002
{
1070
   174
1070
     0
1070
   272
1070
     1
1070
   279
1070
     1
1070
   288
1070
     0
1070
   341
1005
0
1002
}
  0
LINE
  5
1D921
330
747D
100
AcDbEntity
  8
部品1
 48
50.0
100
AcDbLine
 10
9271.014055910914
 20
5722.919036112878
 30
0.0
 11
7054.014055910913
 21
5722.919036112855
 31
0.0
  0
LINE
  5
1D922
330
747D
100
AcDbEntity
  8
部品1
 48
50.0
100
AcDbLine
 10
9271.014055910914
 20
7102.919036112843
 30
0.0
 11
7051.014055910915
 21
7102.91903611284
 31
0.0
  0
LINE
  5
1D923
330
747D
100
AcDbEntity
  8
想像線
 48
10.0
100
AcDbLine
 10
9316.014055910914
 20
5667.919036112856
 30
0.0
 11
7009.014055910913
 21
5667.919036112861
 31
0.0
  0
LINE
  5
1D924
330
747D
100
AcDbEntity
  8
想像線
 48
10.0
100
AcDbLine
 10
7009.014055910913
 20
7177.919036112841
 30
0.0
 11
9316.01405591091
 21
7177.919036112846
 31
0.0
  0
DIMENSION
  5
1D925
330
747D
100
AcDbEntity
  8
寸法
 48
50.0
100
AcDbDimension
  2
*D5
 10
7051.014055910911
 20
7856.250847072693
 30
0.0
 11
6812.528774536673
 21
7856.250847072693
 31
0.0
 70
   160
 71
     5
 42
123.0000000000018
  3
INABA_S40G
100
AcDbAlignedDimension
 13
7174.014055910913
 23
7029.919036112841
 33
0.0
 14
7051.014055910911
 24
7102.91903611284
 34
0.0
100
AcDbRotatedDimension
1001
ACAD
1000
DSTYLE
1002
{
1070
   174
1070
     0
1070
   272
1070
     1
1070
   279
1070
     1
1070
   288
1070
     0
1070
   341
1005
0
1002
}
  0
DIMENSION
  5
1D926
330
747D
100
AcDbEntity
  8
寸法
 48
50.0
100
AcDbDimension
  2
*D6
 10
7051.014055910913
 20
8068.711542589531
 30
0.0
 11
7028.51405591091
 21
8068.711542589531
 31
0.0
 70
   160
  1
a
 71
     5
 42
45.00000000000364
  3
INABA_S40G
100
AcDbAlignedDimension
 13
7006.01405591091
 23
7856.250847072693
 33
0.0
 14
7051.014055910913
 24
7251.190236682763
 34
0.0
100
AcDbRotatedDimension
1001
ACAD
1000
DSTYLE
1002
{
1070
   174
1070
     0
1070
   272
1070
     1
1070
   279
1070
     1
1070
   288
1070
     0
1070
   341
1005
0
1002
}
  0
DIMENSION
  5
1D927
330
747D
100
AcDbEntity
  8
寸法
 48
50.0
100
AcDbDimension
  2
*D7
 10
6555.071789897091
 20
5920.919036112861
 30
0.0
 11
6555.07178989709
 21
6469.622096454681
 31
0.0
 70
   160
 71
     5
 42
1058.99999999998
  3
INABA_S40G
100
AcDbAlignedDimension
 13
7124.014055910913
 23
6979.919036112841
 33
0.0
 14
7124.014055910921
 24
5920.919036112861
 34
0.0
 50
90.0
100
AcDbRotatedDimension
1001
ACAD
1000
DSTYLE
1002
{
1070
   174
1070
     0
1070
   272
1070
     1
1070
   279
1070
     1
1070
   288
1070
     0
1070
   341
1005
0
1002
}
  0
LINE
  5
1D928
330
747D
100
AcDbEntity
  8
部品1
 48
50.0
100
AcDbLine
 10
7171.014055910913
 20
6022.919036112861
 30
0.0
 11
7171.014055910913
 21
6872.91903611284
 31
0.0
  0
DIMENSION
  5
1D929
330
747D
100
AcDbEntity
  8
寸法
 48
50.0
100
AcDbDimension
  2
*D8
 10
6309.578987759125
 20
5722.919036112859
 30
0.0
 11
6309.578987759124
 21
6446.515373625764
 31
0.0
 70
   160
 71
     5
 42
1379.999999999981
  3
INABA_S40G
100
AcDbAlignedDimension
 13
7051.014055910913
 23
7102.91903611284
 33
0.0
 14
7051.014055910913
 24
5722.919036112859
 34
0.0
 50
90.0
100
AcDbRotatedDimension
1001
ACAD
1000
DSTYLE
1002
{
1070
   174
1070
     0
1070
   272
1070
     1
1070
   279
1070
     1
1070
   288
1070
     0
1070
   341
1005
0
1002
}
  0
LINE
  5
1D92A
330
747D
100
AcDbEntity
  8
部品1
 48
50.0
100
AcDbLine
 10
7051.014055910913
 20
5725.919036112856
 30
0.0
 11
7051.014055910915
 21
7102.91903611284
 31
0.0
  0
LINE
  5
1D92B
330
747D
100
AcDbEntity
  8
想像線
 48
10.0
100
AcDbLine
 10
7006.014055910913
 20
5670.919036112861
 30
0.0
 11
7006.014055910913
 21
7174.919036112841
 31
0.0
  0
DIMENSION
  5
1D92C
330
747D
100
AcDbEntity
  8
寸法
 48
50.0
100
AcDbDimension
  2
*D9
 10
6555.071789897091
 20
5722.919036112859
 30
0.0
 11
6555.07178989709
 21
5486.709376283204
 31
0.0
 70
   160
 71
     5
 42
198.0000000000018
  3
INABA_S40G
100
AcDbAlignedDimension
 13
7124.014055910921
 23
5920.919036112861
 33
0.0
 14
7051.014055910913
 24
5722.919036112859
 34
0.0
 50
90.0
100
AcDbRotatedDimension
1001
ACAD
1000
DSTYLE
1002
{
1070
   174
1070
     0
1070
   272
1070
     1
1070
   279
1070
     1
1070
   288
1070
     0
1070
   341
1005
0
1002
}
  0
DIMENSION
  5
1D92D
330
747D
100
AcDbEntity
  8
寸法
 48
50.0
100
AcDbDimension
  2
*D10
 10
6309.578987759125
 20
5667.919036112859
 30
0.0
 11
6309.578987759124
 21
5695.419036112861
 31
0.0
 70
   160
  1
b
 71
     5
 42
55.0
  3
INABA_S40G
100
AcDbAlignedDimension
 13
7051.014055910913
 23
5722.919036112859
 33
0.0
 14
6555.071789897091
 24
5667.919036112859
 34
0.0
 50
90.0
100
AcDbRotatedDimension
1001
ACAD
1000
DSTYLE
1002
{
1070
   174
1070
     0
1070
   272
1070
     1
1070
   279
1070
     1
1070
   288
1070
     0
1070
   341
1005
0
1002
}
  0
LINE
  5
1D92E
330
747D
100
AcDbEntity
  8
センター
 48
2.0
100
AcDbLine
 10
7174.01405591092
 20
5970.919036112861
 30
0.0
 11
7174.01405591092
 21
5870.919036112861
 31
0.0
  0
LINE
  5
1D92F
330
747D
100
AcDbEntity
  8
センター
 48
2.0
100
AcDbLine
 10
7124.014055910921
 20
5920.919036112861
 30
0.0
 11
7224.01405591092
 21
5920.919036112861
 31
0.0
  0
CIRCLE
  5
1D930
330
747D
100
AcDbEntity
  8
部品1
 48
50.0
100
AcDbCircle
 10
7174.01405591092
 20
5920.919036112861
 30
0.0
 40
35.0
  0
LINE
  5
1D931
330
747D
100
AcDbEntity
  8
部品1
 48
50.0
100
AcDbLine
 10
7281.014055910913
 20
6022.919036112863
 30
0.0
 11
7171.014055910913
 21
6022.919036112861
 31
0.0
  0
LINE
  5
1D932
330
747D
100
AcDbEntity
  8
部品1
 48
50.0
100
AcDbLine
 10
7281.014055910912
 20
5892.91903611286
 30
0.0
 11
7281.014055910913
 21
6022.919036112863
 31
0.0
  0
DIMENSION
  5
1D933
330
747D
100
AcDbEntity
  8
寸法
 48
50.0
100
AcDbDimension
  2
*D11
 10
6555.071789897093
 20
6979.919036112841
 30
0.0
 11
6555.07178989709
 21
7341.404317487081
 31
0.0
 70
   160
 71
     5
 42
123.0
  3
INABA_S40G
100
AcDbAlignedDimension
 13
7051.014055910913
 23
7102.919036112841
 33
0.0
 14
7124.014055910913
 24
6979.919036112841
 34
0.0
 50
90.0
100
AcDbRotatedDimension
1001
ACAD
1000
DSTYLE
1002
{
1070
   174
1070
     0
1070
   272
1070
     1
1070
   279
1070
     1
1070
   288
1070
     0
1070
   341
1005
0
1002
}
  0
DIMENSION
  5
1D934
330
747D
100
AcDbEntity
  8
寸法
 48
50.0
100
AcDbDimension
  2
*D12
 10
6309.578987759125
 20
7102.919036112841
 30
0.0
 11
6309.578987759124
 21
7140.419036112843
 31
0.0
 70
   160
  1
c
 71
     5
 42
75.0
  3
INABA_S40G
100
AcDbAlignedDimension
 13
6555.071789897093
 23
7177.919036112841
 33
0.0
 14
7051.014055910913
 24
7102.919036112841
 34
0.0
 50
90.0
100
AcDbRotatedDimension
1001
ACAD
1000
DSTYLE
1002
{
1070
   174
1070
     0
1070
   272
1070
     1
1070
   279
1070
     1
1070
   288
1070
     0
1070
   341
1005
0
1002
}
  0
LINE
  5
1D935
330
747D
100
AcDbEntity
  8
部品1
 48
50.0
100
AcDbLine
 10
7171.014055910915
 20
6512.919036112842
 30
0.0
 11
7051.014055910911
 21
6512.919036112842
 31
0.0
  0
LINE
  5
1D936
330
747D
100
AcDbEntity
  8
部品1
 48
50.0
100
AcDbLine
 10
7171.014055910915
 20
6312.919036112842
 30
0.0
 11
7051.014055910911
 21
6312.919036112842
 31
0.0
  0
LINE
  5
1D938
330
747D
100
AcDbEntity
  8
センター
 48
2.0
100
AcDbLine
 10
7174.014055910913
 20
7029.919036112841
 30
0.0
 11
7174.014055910913
 21
6929.919036112841
 31
0.0
  0
LINE
  5
1D939
330
747D
100
AcDbEntity
  8
センター
 48
2.0
100
AcDbLine
 10
7124.014055910913
 20
6979.919036112841
 30
0.0
 11
7224.014055910913
 21
6979.919036112841
 31
0.0
  0
CIRCLE
  5
1D93A
330
747D
100
AcDbEntity
  8
部品1
 48
50.0
100
AcDbCircle
 10
7174.014055910913
 20
6979.919036112841
 30
0.0
 40
35.0
  0
LINE
  5
1D93B
330
747D
100
AcDbEntity
  8
部品1
 48
50.0
100
AcDbLine
 10
7281.014055910913
 20
6872.919036112837
 30
0.0
 11
7171.014055910913
 21
6872.91903611284
 31
0.0
  0
LINE
  5
1D93C
330
747D
100
AcDbEntity
  8
部品1
 48
50.0
100
AcDbLine
 10
7281.014055910913
 20
6872.919036112837
 30
0.0
 11
7281.014055910913
 21
6982.919036112839
 31
0.0
  0
DIMENSION
  5
1D93E
330
747D
100
AcDbEntity
  8
寸法
 48
50.0
100
AcDbDimension
  2
*D13
 10
9148.014055910913
 20
7856.250847072693
 30
0.0
 11
9509.499337285152
 21
7856.250847072693
 31
0.0
 70
   160
 71
     5
 42
123.0
  3
INABA_S40G
100
AcDbAlignedDimension
 13
9271.014055910914
 23
7102.919036112843
 33
0.0
 14
9148.014055910913
 24
7029.919036112841
 34
0.0
100
AcDbRotatedDimension
1001
ACAD
1000
DSTYLE
1002
{
1070
   174
1070
     0
1070
   272
1070
     1
1070
   279
1070
     1
1070
   288
1070
     0
1070
   341
1005
0
1002
}
  0
DIMENSION
  5
1D93F
330
747D
100
AcDbEntity
  8
寸法
 48
50.0
100
AcDbDimension
  2
*D14
 10
9316.014055910914
 20
8068.711542589529
 30
0.0
 11
9293.514055910913
 21
8068.711542589529
 31
0.0
 70
   160
  1
a
 71
     5
 42
45.0
  3
INABA_S40G
100
AcDbAlignedDimension
 13
9271.014055910914
 23
7251.190236682763
 33
0.0
 14
9316.014055910914
 24
7856.250847072693
 34
0.0
100
AcDbRotatedDimension
1001
ACAD
1000
DSTYLE
1002
{
1070
   174
1070
     0
1070
   272
1070
     1
1070
   279
1070
     1
1070
   288
1070
     0
1070
   341
1005
0
1002
}
  0
DIMENSION
  5
1D942
330
747D
100
AcDbEntity
  8
寸法
 48
50.0
100
AcDbDimension
  2
*D15
 10
9151.014055910913
 20
6564.422404093434
 30
0.0
 11
9507.061300005402
 21
6564.422404093434
 31
0.0
 70
   160
 71
     5
 42
120.0
  3
INABA_S40G
100
AcDbAlignedDimension
 13
9271.014055910914
 23
6622.91903611285
 33
0.0
 14
9151.014055910913
 24
6622.91903611285
 34
0.0
100
AcDbRotatedDimension
1001
ACAD
1000
DSTYLE
1002
{
1070
   174
1070
     0
1070
   272
1070
     1
1070
   279
1070
     1
1070
   288
1070
     0
1070
   341
1005
0
1002
}
  0
TEXT
  5
1D943
330
747D
100
AcDbEntity
  8
部品1
 48
50.0
100
AcDbText
 10
9357.834122589315
 20
5028.032239333586
 30
0.0
 40
80.0
  1
(a=45,b=55,c=75)
  7
STYLE1
100
AcDbText
  0
TEXT
  5
1D944
330
747D
100
AcDbEntity
  8
部品1
 48
50.0
100
AcDbText
 10
9287.95723498443
 20
5147.763285486725
 30
0.0
 40
80.0
  1
※a,b,cは屋根の出幅です。
  7
STYLE1
100
AcDbText
  0
MTEXT
  5
1D945
102
{ACAD_REACTORS
330
1D946
102
}
330
747D
100
AcDbEntity
  8
部品1
 62
     7
 48
50.0
100
AcDbMText
 10
10153.13983044923
 20
5371.901644153068
 30
0.0
 40
120.0
 41
0.0
 71
     6
 72
     1
  1
\A1;屋根の外寸
  7
STYLE1
 73
     1
 44
1.0
1001
ACAD
1000
MTEXTBEGIN
1070
    73
1070
     1
1070
    44
1040
1.0
1070
    74
1070
     0
1000
MTEXTEND
  0
LEADER
  5
1D946
330
747D
100
AcDbEntity
  8
寸法
 48
50.0
100
AcDbLeader
  3
INABA_S40G
 71
     0
 73
     0
 74
     0
 75
     1
 40
120.0
 41
672.0
 76
     3
 10
9082.902643844739
 20
5666.919036112859
 30
0.0
 10
9341.139830449233
 20
5271.901644153068
 30
0.0
 10
9441.139830449232
 20
5271.901644153068
 30
0.0
340
1D945
1001
ACAD
1000
DSTYLE
1002
{
1070
   174
1070
     0
1070
   272
1070
     1
1070
   279
1070
     1
1070
   288
1070
     0
1070
   341
1005
0
1002
}
  0
LINE
  5
1D949
330
747D
100
AcDbEntity
  8
部品1
 48
50.0
100
AcDbLine
 10
9151.014055910913
 20
6022.919036112877
 30
0.0
 11
9151.014055910913
 21
6872.919036112842
 31
0.0
  0
LINE
  5
1D94A
330
747D
100
AcDbEntity
  8
部品1
 48
50.0
100
AcDbLine
 10
9271.014055910914
 20
5722.919036112878
 30
0.0
 11
9271.014055910914
 21
7102.919036112843
 31
0.0
  0
LINE
  5
1D94B
330
747D
100
AcDbEntity
  8
想像線
 48
10.0
100
AcDbLine
 10
9316.01405591091
 20
7177.919036112846
 30
0.0
 11
9316.014055910917
 21
5667.919036112859
 31
0.0
  0
TEXT
  5
1D94C
330
747D
100
AcDbEntity
  8
部品1
 48
50.0
100
AcDbText
 10
8033.014055910898
 20
5461.466534709401
 30
0.0
 40
120.0
  1
扉面
  7
STYLE1
 72
     1
 11
8161.014055910898
 21
5445.466534709401
 31
0.0
100
AcDbText
 73
     1
  0
LINE
  5
1D94F
330
747D
100
AcDbEntity
  8
部品1
 48
50.0
100
AcDbLine
 10
8061.014055910913
 20
5722.91903611287
 30
0.0
 11
8061.014055910913
 21
5892.919036112864
 31
0.0
  0
LINE
  5
1D950
330
747D
100
AcDbEntity
  8
部品1
 48
50.0
100
AcDbLine
 10
8261.014055910912
 20
5722.91903611287
 30
0.0
 11
8261.014055910912
 21
5892.919036112869
 31
0.0
  0
LINE
  5
1D951
330
747D
100
AcDbEntity
  8
センター
 48
2.0
100
AcDbLine
 10
9098.014055910921
 20
5920.919036112861
 30
0.0
 11
9198.01405591092
 21
5920.919036112861
 31
0.0
  0
CIRCLE
  5
1D952
330
747D
100
AcDbEntity
  8
部品1
 48
50.0
100
AcDbCircle
 10
9148.01405591092
 20
5920.919036112861
 30
0.0
 40
35.0
  0
LINE
  5
1D953
330
747D
100
AcDbEntity
  8
部品1
 48
50.0
100
AcDbLine
 10
9151.014055910913
 20
6022.919036112877
 30
0.0
 11
9041.014055910913
 21
6022.919036112877
 31
0.0
  0
LINE
  5
1D954
330
747D
100
AcDbEntity
  8
部品1
 48
50.0
100
AcDbLine
 10
9041.014055910915
 20
5892.919036112876
 30
0.0
 11
9041.014055910913
 21
6022.919036112877
 31
0.0
  0
LINE
  5
1D955
330
747D
100
AcDbEntity
  8
センター
 48
2.0
100
AcDbLine
 10
9148.01405591092
 20
5970.919036112861
 30
0.0
 11
9148.01405591092
 21
5870.919036112861
 31
0.0
  0
LINE
  5
1D956
330
747D
100
AcDbEntity
  8
部品1
 48
50.0
100
AcDbLine
 10
8261.014055910898
 20
6982.919036112838
 30
0.0
 11
8261.014055910898
 21
7102.919036112843
 31
0.0
  0
LINE
  5
1D957
330
747D
100
AcDbEntity
  8
部品1
 48
50.0
100
AcDbLine
 10
8061.014055910899
 20
6982.919036112838
 30
0.0
 11
8061.014055910899
 21
7102.919036112843
 31
0.0
  0
LINE
  5
1D95A
330
747D
100
AcDbEntity
  8
センター
 48
2.0
100
AcDbLine
 10
9098.014055910914
 20
6979.919036112841
 30
0.0
 11
9198.014055910913
 21
6979.919036112841
 31
0.0
  0
CIRCLE
  5
1D95B
330
747D
100
AcDbEntity
  8
部品1
 48
50.0
100
AcDbCircle
 10
9148.014055910913
 20
6979.919036112841
 30
0.0
 40
35.0
  0
LINE
  5
1D95C
330
747D
100
AcDbEntity
  8
部品1
 48
50.0
100
AcDbLine
 10
9151.014055910913
 20
6872.919036112842
 30
0.0
 11
9041.014055910913
 21
6872.91903611284
 31
0.0
  0
LINE
  5
1D95D
330
747D
100
AcDbEntity
  8
部品1
 48
50.0
100
AcDbLine
 10
9041.014055910913
 20
6872.91903611284
 30
0.0
 11
9041.014055910913
 21
6982.919036112838
 31
0.0
  0
LINE
  5
1D95E
330
747D
100
AcDbEntity
  8
部品1
 48
50.0
100
AcDbLine
 10
9271.014055910914
 20
6512.919036112842
 30
0.0
 11
9151.014055910913
 21
6512.919036112844
 31
0.0
  0
LINE
  5
1D95F
330
747D
100
AcDbEntity
  8
部品1
 48
50.0
100
AcDbLine
 10
9271.014055910914
 20
6312.919036112842
 30
0.0
 11
9151.014055910913
 21
6312.919036112842
 31
0.0
  0
LINE
  5
1D961
330
747D
100
AcDbEntity
  8
センター
 48
2.0
100
AcDbLine
 10
9148.014055910913
 20
7029.919036112841
 30
0.0
 11
9148.014055910913
 21
6929.919036112841
 31
0.0
  0
TEXT
  5
1DEDA
330
747D
100
AcDbEntity
  8
文字
 62
     7
 48
50.0
100
AcDbText
 10
13188.16259899338
 20
79.80631269190325
 30
0.0
 40
80.0
  1
※布基礎には換気口を設けてください。
  7
STYLE2
100
AcDbText
  0
MTEXT
  5
1E700
102
{ACAD_REACTORS
330
1E701
102
}
330
747D
100
AcDbEntity
  8
部品1
 62
     7
 48
50.0
100
AcDbMText
 10
10320.83103534702
 20
7345.944479920793
 30
0.0
 40
120.0
 41
0.0
 71
     6
 72
     1
  1
基礎ボルト芯
  7
STYLE1
 73
     1
 44
1.0
1001
ACAD
1000
MTEXTBEGIN
1070
    73
1070
     1
1070
    44
1040
1.0
1070
    74
1070
     0
1000
MTEXTEND
  0
LEADER
  5
1E701
330
747D
100
AcDbEntity
  8
寸法
 48
50.0
100
AcDbLeader
  3
INABA_S40G
 71
     0
 73
     0
 74
     0
 75
     1
 40
120.0
 41
846.0000000000002
 76
     3
 10
9148.014055910913
 20
6979.919036112841
 30
0.0
 10
9334.83103534702
 20
7245.944479920793
 30
0.0
 10
9434.831035347022
 20
7245.944479920793
 30
0.0
340
1E700
1001
ACAD
1000
DSTYLE
1002
{
1070
   174
1070
     0
1070
   272
1070
     1
1070
   279
1070
     1
1070
   288
1070
     0
1070
   341
1005
0
1002
}
  0
DIMENSION
  5
1E96D
330
747D
100
AcDbEntity
  8
寸法
 48
50.0
100
AcDbDimension
  2
*D16
 10
8829.44635932005
 20
7102.91903611286
 30
0.0
 11
8729.446359320048
 21
6757.919036112861
 31
0.0
 70
    32
 71
     5
 42
690.0
  3
INABA_S40G
100
AcDbAlignedDimension
 13
8556.514055910914
 23
6412.919036112859
 33
0.0
 14
8506.514055910914
 24
7102.91903611286
 34
0.0
 50
90.0
100
AcDbRotatedDimension
1001
ACAD
1000
DSTYLE
1002
{
1070
   174
1070
     0
1070
   272
1070
     1
1070
   279
1070
     1
1070
   288
1070
     0
1070
   341
1005
0
1002
}
  0
DIMENSION
  5
1E98B
330
747D
100
AcDbEntity
  8
寸法
 48
50.0
100
AcDbDimension
  2
*D17
 10
8829.44635932005
 20
6412.919036112859
 30
0.0
 11
8816.444003532932
 21
6081.13307470271
 31
0.0
 70
   160
 71
     5
 42
689.9999999999908
  3
INABA_S40G
100
AcDbAlignedDimension
 13
8506.514055910914
 23
5722.919036112869
 33
0.0
 14
8556.514055910914
 24
6412.919036112859
 34
0.0
 50
90.0
100
AcDbRotatedDimension
1001
ACAD
1000
DSTYLE
1002
{
1070
   174
1070
     0
1070
   272
1070
     1
1070
   279
1070
     1
1070
   288
1070
     0
1070
   341
1005
0
1002
}
  0
LINE
  5
1E98F
330
747D
100
AcDbEntity
  8
センター
 48
2.0
100
AcDbLine
 10
8457.014055910914
 20
6412.919036112859
 30
0.0
 11
8557.014055910913
 21
6412.919036112859
 31
0.0
  0
LINE
  5
1E990
330
747D
100
AcDbEntity
  8
部品1
 48
50.0
100
AcDbLine
 10
8607.014055910914
 20
6312.919036112858
 30
0.0
 11
8407.014055910913
 21
6312.919036112858
 31
0.0
  0
LINE
  5
1E991
330
747D
100
AcDbEntity
  8
部品1
 48
50.0
100
AcDbLine
 10
8607.014055910914
 20
6512.919036112859
 30
0.0
 11
8407.014055910913
 21
6512.919036112859
 31
0.0
  0
LINE
  5
1E992
330
747D
100
AcDbEntity
  8
部品1
 48
50.0
100
AcDbLine
 10
8407.014055910913
 20
6312.919036112859
 30
0.0
 11
8407.014055910913
 21
6512.919036112859
 31
0.0
  0
LINE
  5
1E993
330
747D
100
AcDbEntity
  8
センター
 48
2.0
100
AcDbLine
 10
8507.014055910913
 20
6462.919036112859
 30
0.0
 11
8507.014055910913
 21
6362.91903611286
 31
0.0
  0
LINE
  5
1E994
330
747D
100
AcDbEntity
  8
部品1
 48
50.0
100
AcDbLine
 10
8607.014055910914
 20
6312.919036112858
 30
0.0
 11
8607.014055910914
 21
6512.919036112859
 31
0.0
  0
MTEXT
  5
1F11B
102
{ACAD_REACTORS
330
1F11C
102
}
330
747D
100
AcDbEntity
  8
部品1
 62
     7
 48
50.0
100
AcDbMText
 10
10341.2512425154
 20
6117.901644153069
 30
0.0
 40
120.0
 41
0.0
 71
     6
 72
     1
  1
床下換気口
  7
STYLE1
 73
     1
 44
1.0
1001
ACAD
1000
MTEXTBEGIN
1070
    73
1070
     1
1070
    44
1040
1.0
1070
    74
1070
     0
1000
MTEXTEND
  0
LEADER
  5
1F11C
330
747D
100
AcDbEntity
  8
寸法
 48
50.0
100
AcDbLeader
  3
INABA_S40G
 71
     0
 73
     0
 74
     0
 75
     1
 40
120.0
 41
720.0000000000001
 76
     3
 10
9271.014055910914
 20
6412.91903611286
 30
0.0
 10
9481.251242515405
 20
6017.901644153069
 30
0.0
 10
9581.251242515405
 20
6017.901644153069
 30
0.0
340
1F11B
1001
ACAD
1000
DSTYLE
1002
{
1070
   174
1070
     0
1070
   272
1070
     1
1070
   279
1070
     1
1070
   288
1070
     0
1070
   341
1005
0
1002
}
  0
DIMENSION
  5
1F248
330
747D
100
AcDbEntity
  8
寸法
 48
50.0
100
AcDbDimension
  2
*D19
 10
8507.014055910913
 20
7629.828801761171
 30
0.0
 11
8857.341087375912
 21
7628.724748491958
 31
0.0
 70
   160
 71
     5
 42
764.0
  3
INABA_S40G
100
AcDbAlignedDimension
 13
9271.014055910914
 23
7102.919036112843
 33
0.0
 14
8507.014055910913
 24
6512.919036112859
 34
0.0
100
AcDbRotatedDimension
1001
ACAD
1000
DSTYLE
1002
{
1070
   174
1070
     0
1070
   272
1070
     1
1070
   279
1070
     1
1070
   288
1070
     0
1070
   341
1005
0
1002
}
  0
DIMENSION
  5
1F249
330
747D
100
AcDbEntity
  8
寸法
 48
50.0
100
AcDbDimension
  2
*D18
 10
7051.014055910913
 20
7629.828801761171
 30
0.0
 11
7433.014055910914
 21
7729.828801761171
 31
0.0
 70
    32
 71
     5
 42
764.0
  3
INABA_S40G
100
AcDbAlignedDimension
 13
7815.014055910913
 23
6512.919036112861
 33
0.0
 14
7051.014055910913
 24
7102.919036112843
 34
0.0
100
AcDbRotatedDimension
1001
ACAD
1000
DSTYLE
1002
{
1070
   174
1070
     0
1070
   272
1070
     1
1070
   279
1070
     1
1070
   288
1070
     0
1070
   341
1005
0
1002
}
  0
LINE
  5
1F813
330
747D
100
AcDbEntity
  8
想像線
 48
10.0
100
AcDbLine
 10
7009.014055910913
 20
7177.919036112841
 30
0.0
 11
7006.014055910913
 21
7174.919036112841
 31
0.0
  0
LINE
  5
1F816
330
747D
100
AcDbEntity
  8
部品1
 48
50.0
100
AcDbLine
 10
7051.014055910913
 20
5725.919036112856
 30
0.0
 11
7054.014055910913
 21
5722.919036112855
 31
0.0
  0
LINE
  5
1F817
330
747D
100
AcDbEntity
  8
想像線
 48
10.0
100
AcDbLine
 10
7006.014055910913
 20
5670.919036112861
 30
0.0
 11
7009.014055910913
 21
5667.919036112861
 31
0.0
  0
LINE
  5
1F98F
330
747D
100
AcDbEntity
  8
部品1
 48
50.0
100
AcDbLine
 10
7915.014055910913
 20
6312.919036112859
 30
0.0
 11
7915.014055910913
 21
6512.919036112861
 31
0.0
  0
LINE
  5
1F990
330
747D
100
AcDbEntity
  8
センター
 48
2.0
100
AcDbLine
 10
7815.014055910913
 20
6462.919036112861
 30
0.0
 11
7815.014055910913
 21
6362.91903611286
 31
0.0
  0
LINE
  5
1F991
330
747D
100
AcDbEntity
  8
部品1
 48
50.0
100
AcDbLine
 10
7715.014055910913
 20
6312.919036112861
 30
0.0
 11
7715.014055910913
 21
6512.919036112861
 31
0.0
  0
LINE
  5
1F992
330
747D
100
AcDbEntity
  8
部品1
 48
50.0
100
AcDbLine
 10
7915.014055910913
 20
6512.919036112861
 30
0.0
 11
7715.014055910913
 21
6512.919036112861
 31
0.0
  0
LINE
  5
1F993
330
747D
100
AcDbEntity
  8
部品1
 48
50.0
100
AcDbLine
 10
7915.014055910913
 20
6312.919036112859
 30
0.0
 11
7715.014055910913
 21
6312.919036112859
 31
0.0
  0
LINE
  5
1F994
330
747D
100
AcDbEntity
  8
センター
 48
2.0
100
AcDbLine
 10
7765.014055910913
 20
6412.91903611286
 30
0.0
 11
7865.014055910913
 21
6412.91903611286
 31
0.0
  0
DIMENSION
  5
1F9A7
330
747D
100
AcDbEntity
  8
寸法
 48
50.0
100
AcDbDimension
  2
*D20
 10
8507.014055910913
 20
7629.828801761171
 30
0.0
 11
8161.014055910913
 21
7729.869614325974
 31
0.0
 70
    32
 71
     5
 42
692.0
  3
INABA_S40G
100
AcDbAlignedDimension
 13
7815.014055910913
 23
6512.919036112861
 33
0.0
 14
8507.014055910913
 24
6512.919036112859
 34
0.0
100
AcDbRotatedDimension
1001
ACAD
1000
DSTYLE
1002
{
1070
   174
1070
     0
1070
   272
1070
     1
1070
   279
1070
     1
1070
   288
1070
     0
1070
   341
1005
0
1002
}
  0
LEADER
  5
1FA71
330
747D
100
AcDbEntity
  8
寸法
 48
50.0
100
AcDbLeader
  3
INABA_S40G
 71
     0
 73
     0
 75
     1
 40
120.0
 41
185.591883092037
 76
     3
 10
8489.608624329106
 20
6337.490509905554
 30
0.0
 10
8412.283132548566
 20
6144.697104093124
 30
0.0
 10
8312.283132548566
 20
6144.697104093124
 30
0.0
340
1FA72
210
0.0
220
0.0
230
-1.0
213
-42.79594154601909
223
-42.66026254335156
233
0.0
1001
ACAD
1000
DSTYLE
1002
{
1070
   174
1070
     0
1070
   272
1070
     1
1070
   279
1070
     1
1070
   288
1070
     0
1070
   341
1005
0
1002
}
  0
MTEXT
  5
1FA72
102
{ACAD_REACTORS
330
1FA71
102
}
330
747D
100
AcDbEntity
  8
部品1
 62
     7
 48
50.0
100
AcDbMText
 10
8315.079074094585
 20
6207.357366636475
 30
0.0
 40
120.0
 41
0.0
 71
     6
 72
     1
  1
\A1;C.B
  7
STYLE1
 73
     1
 44
1.0
1001
ACAD
1000
MTEXTBEGIN
1070
    73
1070
     1
1070
    44
1040
1.0
1070
    74
1070
     0
1000
MTEXTEND
  0
DIMENSION
  5
1FA97
330
747D
100
AcDbEntity
  8
寸法
 48
50.0
100
AcDbDimension
  2
*D21
 10
7498.690548169355
 20
6982.919036112839
 30
0.0
 11
7498.690548169354
 21
6636.871792018351
 31
0.0
 70
   160
 71
     5
 42
110.0000000000009
  3
INABA_S40G
100
AcDbAlignedDimension
 13
7281.014055910913
 23
6872.919036112839
 33
0.0
 14
7281.014055910913
 24
6982.919036112839
 34
0.0
 50
90.0
100
AcDbRotatedDimension
1001
ACAD
1000
DSTYLE
1002
{
1070
   174
1070
     0
1070
   272
1070
     1
1070
   279
1070
     1
1070
   288
1070
     0
1070
   341
1005
0
1002
}
  0
DIMENSION
  5
1FAC3
330
747D
100
AcDbEntity
  8
寸法
 48
50.0
100
AcDbDimension
  2
*D22
 10
7498.690548169355
 20
7102.91903611284
 30
0.0
 11
7498.690548169354
 21
7368.966280207331
 31
0.0
 70
   160
 71
     5
 42
120.0000000000009
  3
INABA_S40G
100
AcDbAlignedDimension
 13
7281.014055910913
 23
6982.919036112839
 33
0.0
 14
7281.014055910913
 24
7102.91903611284
 34
0.0
 50
90.0
100
AcDbRotatedDimension
1001
ACAD
1000
DSTYLE
1002
{
1070
   174
1070
     0
1070
   272
1070
     1
1070
   279
1070
     1
1070
   288
1070
     0
1070
   341
1005
0
1002
}
  0
LINE
  5
1FCE6
330
747D
100
AcDbEntity
  8
部品1
100
AcDbLine
 10
10272.1740831125
 20
3256.375726391429
 30
0.0
 11
4201.188897726249
 21
3256.375726391429
 31
0.0
  0
LINE
  5
1FCE7
330
747D
100
AcDbEntity
  8
部品1
100
AcDbLine
 10
10272.1740831125
 20
3016.375726391427
 30
0.0
 11
4201.188897726253
 21
3016.375726391427
 31
0.0
  0
LINE
  5
1FCE8
330
747D
100
AcDbEntity
  8
部品1
100
AcDbLine
 10
4201.188897726255
 20
292.0687568067815
 30
0.0
 11
10272.1740831125
 21
292.0687568067815
 31
0.0
  0
LEADER
  5
1FCE9
330
747D
100
AcDbEntity
  8
寸法
 48
50.0
100
AcDbLeader
  3
INABA_S40G
 73
     0
 74
     0
 75
     1
 40
102.2727272727273
 41
680.0000000000001
 76
     3
 10
7297.579984992935
 20
2251.517041559825
 30
0.0
 10
7341.933956106292
 20
2646.969852666366
 30
0.0
 10
7441.933956106293
 20
2646.969852666366
 30
0.0
340
1FCEA
1001
ACAD
1000
DSTYLE
1002
{
1070
   174
1070
     0
1070
   272
1070
     1
1070
   279
1070
     1
1070
   288
1070
     0
1070
   341
1005
0
1002
}
  0
MTEXT
  5
1FCEA
102
{ACAD_REACTORS
330
1FCE9
102
}
330
747D
100
AcDbEntity
  8
部品1
 62
     7
 48
50.0
100
AcDbMText
 10
7481.933956106293
 20
2738.10621630273
 30
0.0
 40
80.0
 41
0.8
 71
     4
 72
     1
  1
\A1;ナット(市販品)
  7
STYLE2
 73
     1
 44
1.0
1001
ACAD
1000
MTEXTBEGIN
1070
    73
1070
     1
1070
    44
1040
1.0
1070
    74
1070
     0
1000
MTEXTEND
  0
LEADER
  5
1FCEB
330
747D
100
AcDbEntity
  8
寸法
 48
50.0
100
AcDbLeader
  3
INABA_S40G
 73
     0
 74
     0
 75
     1
 40
102.2727272727273
 41
906.8181818181818
 76
     3
 10
7321.579984992934
 20
2121.765048894962
 30
0.0
 10
7373.451575361774
 20
2462.000769901579
 30
0.0
 10
7473.451575361774
 20
2462.000769901579
 30
0.0
340
1FCEC
1001
ACAD
1000
DSTYLE
1002
{
1070
   174
1070
     0
1070
   272
1070
     1
1070
   279
1070
     1
1070
   288
1070
     0
1070
   341
1005
0
1002
}
  0
MTEXT
  5
1FCEC
102
{ACAD_REACTORS
330
1FCEB
102
}
330
747D
100
AcDbEntity
  8
部品1
 62
     7
 48
50.0
100
AcDbMText
 10
7513.451575361774
 20
2553.137133537943
 30
0.0
 40
80.0
 41
0.8
 71
     4
 72
     1
  1
\A1;ワッシャー(市販品)
  7
STYLE2
 73
     1
 44
1.0
1001
ACAD
1000
MTEXTBEGIN
1070
    73
1070
     1
1070
    44
1040
1.0
1070
    74
1070
     0
1000
MTEXTEND
  0
LWPOLYLINE
  5
1FCED
330
747D
100
AcDbEntity
  8
部品1
 48
50.0
100
AcDbPolyline
 90
        2
 70
     0
 43
8.0
 10
7474.179984992935
 20
1612.641760450683
 10
7767.882448392318
 20
1612.641760450683
  0
TEXT
  5
1FCEE
330
747D
100
AcDbEntity
  8
部品1
 48
50.0
100
AcDbText
 10
7478.533569277363
 20
2208.520441212883
 30
0.0
 40
80.0
  1
基礎ボルト(市販品)
  7
STYLE2
100
AcDbText
  0
DIMENSION
  5
1FCEF
330
747D
100
AcDbEntity
  8
寸法
 48
50.0
100
AcDbDimension
  2
*D23
 10
7976.048584761779
 20
1528.641760450681
 30
0.0
 11
7876.048584761779
 21
1690.641760450683
 31
0.0
 70
    32
  1
180
 71
     5
 42
324.0000000000009
  3
INABA_S40G
100
AcDbAlignedDimension
 13
7474.179984992935
 23
1852.641760450682
 33
0.0
 14
7474.179984992935
 24
1528.641760450681
 34
0.0
 50
90.0
100
AcDbRotatedDimension
1001
ACAD
1000
DSTYLE
1002
{
1070
   174
1070
     0
1070
   272
1070
     1
1070
   279
1070
     1
1070
   288
1070
     0
1070
   341
1005
0
1002
}
  0
DIMENSION
  5
1FCF0
330
747D
100
AcDbEntity
  8
寸法
 48
50.0
100
AcDbDimension
  2
*D24
 10
7976.048584761779
 20
1852.641760450682
 30
0.0
 11
8252.103250880805
 21
1827.517802846471
 31
0.0
 70
   160
  1
20～25
 71
     5
 42
52.76000000000113
  3
INABA_S40G
100
AcDbAlignedDimension
 13
7286.979984992935
 23
1905.401760450683
 33
0.0
 14
7474.179984992935
 24
1852.641760450682
 34
0.0
 50
90.0
100
AcDbRotatedDimension
1001
ACAD
1000
DSTYLE
1002
{
1070
   174
1070
     0
1070
   272
1070
     1
1070
   279
1070
     1
1070
   288
1070
     0
1070
   341
1005
0
1002
}
  0
MTEXT
  5
1FCF1
102
{ACAD_REACTORS
330
1FCF2
102
}
330
747D
100
AcDbEntity
  8
部品1
 62
     7
 48
50.0
100
AcDbMText
 10
7483.124447412253
 20
2117.025086603912
 30
0.0
 40
80.0
 41
0.8
 71
     4
 72
     1
  1
M10X160
  7
STYLE2
 73
     1
 44
1.0
1001
ACAD
1000
MTEXTBEGIN
1070
    73
1070
     1
1070
    44
1040
1.0
1070
    74
1070
     0
1000
MTEXTEND
  0
LEADER
  5
1FCF2
330
747D
100
AcDbEntity
  8
寸法
 48
50.0
100
AcDbLeader
  3
INABA_S40G
 73
     0
 74
     0
 75
     1
 40
80.0
 41
435.0
 76
     3
 10
7290.579984992935
 20
1901.801760450683
 30
0.0
 10
7343.124447412254
 20
2037.025086603913
 30
0.0
 10
7443.124447412253
 20
2037.025086603913
 30
0.0
340
1FCF1
1001
ACAD
1000
DSTYLE
1002
{
1070
   174
1070
     0
1070
   272
1070
     1
1070
   279
1070
     1
1070
   288
1070
     0
1070
   341
1005
0
1002
}
  0
LINE
  5
1FCF3
330
747D
100
AcDbEntity
  8
部品1
100
AcDbLine
 10
4201.188897726251
 20
3256.375726391429
 30
0.0
 11
4201.188897726253
 21
292.0687568067815
 31
0.0
  0
LEADER
  5
1FCF4
330
747D
100
AcDbEntity
  8
寸法
 48
50.0
100
AcDbLeader
  3
INABA_S40G
 73
     0
 75
     1
 40
113.1818181818182
 41
608.6363636363635
 76
     3
 10
7250.316735130986
 20
1802.157433808961
 30
0.0
 10
7106.512906439637
 20
2638.536516165439
 30
0.0
 10
7006.512906439637
 20
2638.536516165439
 30
0.0
340
1FCF5
1001
ACAD
1000
DSTYLE
1002
{
1070
   174
1070
     0
1070
   272
1070
     1
1070
   279
1070
     1
1070
   288
1070
     0
1070
   341
1005
0
1002
}
  0
MTEXT
  5
1FCF5
102
{ACAD_REACTORS
330
1FCF4
102
}
330
747D
100
AcDbEntity
  8
寸法
 62
     7
 48
50.0
100
AcDbMText
 10
6966.512906439636
 20
2735.127425256348
 30
0.0
 40
80.0
 41
0.8
 71
     6
 72
     1
  1
\A1;φ70スリーブ
  7
STYLE2
 73
     1
 44
1.0
1001
ACAD
1000
MTEXTBEGIN
1070
    73
1070
     1
1070
    44
1040
1.0
1070
    74
1070
     0
1000
MTEXTEND
  0
LWPOLYLINE
  5
1FCF6
330
747D
100
AcDbEntity
  8
部品1
 48
50.0
100
AcDbPolyline
 90
        2
 70
     0
 43
8.0
 10
4946.000769982784
 20
1612.641760450683
 10
5360.140671815741
 20
1612.641760450683
  0
TEXT
  5
1FCF7
330
747D
100
AcDbEntity
  8
部品1
 48
50.0
100
AcDbText
 10
4946.000769982784
 20
1623.880752733938
 30
0.0
 40
80.0
  1
▽G.L
  7
STYLE2
100
AcDbText
  0
DIMENSION
  5
1FCF8
330
747D
100
AcDbEntity
  8
寸法
 48
50.0
100
AcDbDimension
  2
*D25
 10
5089.720358083281
 20
1068.641760450682
 30
0.0
 11
5089.720358083281
 21
1188.641760450682
 31
0.0
 70
   160
  1
150
 71
     5
 42
240.0
  3
INABA_S40G
100
AcDbAlignedDimension
 13
5232.140671815741
 23
1308.641760450682
 33
0.0
 14
5152.140671815744
 24
1068.641760450682
 34
0.0
 50
90.0
100
AcDbRotatedDimension
1001
ACAD
1000
DSTYLE
1002
{
1070
   174
1070
     0
1070
   272
1070
     1
1070
   279
1070
     1
1070
   288
1070
     0
1070
   341
1005
0
1002
}
  0
LEADER
  5
1FCF9
330
747D
100
AcDbEntity
  8
寸法
 48
50.0
100
AcDbLeader
  3
INABA_S40G
 71
     0
 73
     0
 75
     1
 40
100.0
 41
225.0
 76
     3
 10
5328.043624167883
 20
1188.641760450682
 30
0.0
 10
5181.205645620547
 20
925.1190668322461
 30
0.0
 10
5081.205645620546
 20
925.1190668322461
 30
0.0
1001
ACAD
1000
DSTYLE
1002
{
1070
   174
1070
     0
1070
   272
1070
     1
1070
   279
1070
     1
1070
   288
1070
     0
1070
   341
1005
0
1002
}
  0
LEADER
  5
1FCFA
330
747D
100
AcDbEntity
  8
寸法
 48
50.0
100
AcDbLeader
  3
INABA_S40G
 71
     0
 73
     0
 75
     1
 40
100.0
 41
222.7272727272727
 76
     3
 10
5456.140671815741
 20
1188.641760450682
 30
0.0
 10
5209.328373177982
 20
744.8029142928025
 30
0.0
 10
5109.328373177981
 20
744.8029142928025
 30
0.0
1001
ACAD
1000
DSTYLE
1002
{
1070
   174
1070
     0
1070
   272
1070
     1
1070
   279
1070
     1
1070
   288
1070
     0
1070
   341
1005
0
1002
}
  0
MTEXT
  5
1FCFB
102
{ACAD_REACTORS
330
1FCFC
102
}
330
747D
100
AcDbEntity
  8
寸法
 62
     7
 48
50.0
100
AcDbMText
 10
5270.890617592936
 20
1453.942363268139
 30
0.0
 40
80.0
 41
0.8
 71
     6
 72
     1
  1
\A1;D10@300
  7
STYLE2
 73
     1
 44
1.0
1001
ACAD
1000
MTEXTBEGIN
1070
    73
1070
     1
1070
    44
1040
1.0
1070
    74
1070
     0
1000
MTEXTEND
  0
LEADER
  5
1FCFC
330
747D
100
AcDbEntity
  8
寸法
 48
50.0
100
AcDbLeader
  3
INABA_S40G
 71
     0
 73
     0
 75
     1
 40
100.0
 41
540.3409090909091
 76
     3
 10
5464.140671815741
 20
1610.768975147805
 30
0.0
 10
5381.158435287042
 20
1389.298646607
 30
0.0
 10
5281.158435287043
 20
1389.298646607
 30
0.0
213
-9.732182305893367
223
-4.643716661138569
233
0.0
1001
ACAD
1000
DSTYLE
1002
{
1070
   174
1070
     0
1070
   272
1070
     1
1070
   279
1070
     1
1070
   288
1070
     0
1070
   341
1005
0
1002
}
  0
LEADER
  5
1FCFD
330
747D
100
AcDbEntity
  8
寸法
 48
50.0
100
AcDbLeader
  3
INABA_S40G
 71
     0
 73
     0
 75
     1
 40
130.1136363636363
 41
651.1363636363636
 76
     3
 10
5440.14067181574
 20
1852.641760450682
 30
0.0
 10
5302.716091651724
 20
1993.11252590727
 30
0.0
 10
5202.716091651724
 20
1993.11252590727
 30
0.0
1001
ACAD
1000
DSTYLE
1002
{
1070
   174
1070
     0
1070
   272
1070
     1
1070
   279
1070
     1
1070
   288
1070
     0
1070
   341
1005
0
1002
}
  0
MTEXT
  5
1FCFE
102
{ACAD_REACTORS
330
1FCFD
102
}
330
747D
100
AcDbEntity
  8
寸法
 62
     7
 48
50.0
100
AcDbMText
 10
5140.042192332468
 20
2065.157980452724
 30
0.0
 40
80.0
 41
0.8
 71
     6
 72
     1
  1
\A1;金コテ押エ
  7
STYLE2
 73
     1
 44
1.0
1001
ACAD
1000
MTEXTBEGIN
1070
    73
1070
     1
1070
    44
1040
1.0
1070
    74
1070
     0
1000
MTEXTEND
  0
DIMENSION
  5
1FCFF
330
747D
100
AcDbEntity
  8
寸法
 48
50.0
100
AcDbDimension
  2
*D26
 10
4625.103433253999
 20
1068.641760450682
 30
0.0
 11
4625.103433253999
 21
1440.181910106683
 31
0.0
 70
   160
  1
540
 71
     5
 42
784.0
  3
INABA_S40G
100
AcDbAlignedDimension
 13
5360.140671815741
 23
1852.641760450682
 33
0.0
 14
5152.140671815744
 24
1068.641760450682
 34
0.0
 50
90.0
100
AcDbRotatedDimension
1001
ACAD
1000
DSTYLE
1002
{
1070
   174
1070
     0
1070
   272
1070
     1
1070
   279
1070
     1
1070
   288
1070
     0
1070
   341
1005
0
1002
}
  0
MTEXT
  5
1FD00
102
{ACAD_REACTORS
330
1FCFA
102
}
330
747D
100
AcDbEntity
  8
寸法
 62
     7
 48
50.0
100
AcDbMText
 10
5089.328373177981
 20
804.8029142928026
 30
0.0
 40
80.0
 41
0.8
 71
     6
 72
     1
  1
D13
  7
STYLE2
 73
     1
 44
1.0
1001
ACAD
1000
MTEXTBEGIN
1070
    73
1070
     1
1070
    44
1040
1.0
1070
    74
1070
     0
1000
MTEXTEND
  0
MTEXT
  5
1FD01
102
{ACAD_REACTORS
330
1FCF9
102
}
330
747D
100
AcDbEntity
  8
寸法
 62
     7
 48
50.0
100
AcDbMText
 10
5061.205645620546
 20
985.1190668322461
 30
0.0
 40
80.0
 41
0.8
 71
     6
 72
     1
  1
D10
  7
STYLE2
 73
     1
 44
1.0
1001
ACAD
1000
MTEXTBEGIN
1070
    73
1070
     1
1070
    44
1040
1.0
1070
    74
1070
     0
1000
MTEXTEND
  0
DIMENSION
  5
1FD02
330
747D
100
AcDbEntity
  8
寸法
 48
50.0
100
AcDbDimension
  2
*D27
 10
5680.140671815741
 20
530.2121224455222
 30
0.0
 11
5436.043913137517
 21
530.2121224455222
 31
0.0
 70
   160
  1
300
 71
     5
 42
448.0
  3
INABA_S40G
100
AcDbAlignedDimension
 13
5232.140671815741
 23
940.6417604506824
 33
0.0
 14
5680.140671815741
 24
940.6417604506824
 34
0.0
100
AcDbRotatedDimension
1001
ACAD
1000
DSTYLE
1002
{
1070
   174
1070
     0
1070
   272
1070
     1
1070
   279
1070
     1
1070
   288
1070
     0
1070
   341
1005
0
1002
}
  0
MTEXT
  5
1FD03
102
{ACAD_REACTORS
330
1FD04
102
}
330
747D
100
AcDbEntity
  8
寸法
 62
     7
 48
50.0
100
AcDbMText
 10
6993.155912647996
 20
2374.443153348834
 30
0.0
 40
80.0
 41
0.8
 71
     6
 72
     1
  1
アンカープレート {\fArial|b0|i0|c0|p32;U}
  7
STYLE2
 73
     1
 44
1.0
1001
ACAD
1000
MTEXTBEGIN
1070
    73
1070
     1
1070
    44
1040
1.0
1070
    74
1070
     0
1000
MTEXTEND
  0
LEADER
  5
1FD04
330
747D
100
AcDbEntity
  8
寸法
 48
50.0
100
AcDbLeader
  3
INABA_S40G
 73
     0
 75
     1
 40
106.3636363636363
 41
903.5235024184547
 76
     3
 10
7191.579984992934
 20
1922.201760450684
 30
0.0
 10
7133.155912647996
 20
2281.261335167016
 30
0.0
 10
7033.155912647996
 20
2281.261335167016
 30
0.0
340
1FD03
1001
ACAD
1000
DSTYLE
1002
{
1070
   174
1070
     0
1070
   272
1070
     1
1070
   279
1070
     1
1070
   288
1070
     0
1070
   341
1005
0
1002
}
  0
LINE
  5
1FD05
330
747D
100
AcDbEntity
  8
細線
 48
50.0
100
AcDbLine
 10
5480.140671815742
 20
1691.014653118513
 30
0.0
 11
5552.140671815742
 21
1763.014653118513
 31
0.0
  0
ARC
  5
1FD06
330
747D
100
AcDbEntity
  8
部品1
 48
50.0
100
AcDbCircle
 10
5456.140671815742
 20
1712.896189844928
 30
0.0
 40
24.0
100
AcDbArc
 50
0.0
 51
180.0
  0
CIRCLE
  5
1FD07
330
747D
100
AcDbEntity
  8
部品1
 48
50.0
100
AcDbCircle
 10
5456.140671815742
 20
1712.896189844928
 30
0.0
 40
8.0
  0
LINE
  5
1FD08
330
747D
100
AcDbEntity
  8
部品1
 48
50.0
100
AcDbLine
 10
5360.140671815742
 20
1308.641760450682
 30
0.0
 11
5360.140671815742
 21
1852.641760450682
 31
0.0
  0
LINE
  5
1FD09
330
747D
100
AcDbEntity
  8
部品1
 48
50.0
100
AcDbLine
 10
5552.140671815742
 20
1852.641760450682
 30
0.0
 11
5552.140671815742
 21
1308.641760450682
 31
0.0
  0
MTEXT
  5
1FD0A
102
{ACAD_REACTORS
330
1FD0F
102
}
330
747D
100
AcDbEntity
  8
寸法
 62
     7
 48
50.0
100
AcDbMText
 10
5635.026608843135
 20
1713.90932174961
 30
0.0
 40
80.0
 41
0.8
 71
     4
 72
     1
  1
D13
  7
STYLE2
 73
     1
 44
1.0
1001
ACAD
1000
MTEXTBEGIN
1070
    73
1070
     1
1070
    44
1040
1.0
1070
    74
1070
     0
1000
MTEXTEND
  0
LEADER
  5
1FD0B
330
747D
100
AcDbEntity
  8
寸法
 48
50.0
100
AcDbLeader
  3
INABA_S40G
 71
     0
 73
     0
 74
     0
 75
     1
 40
100.0
 41
225.0
 76
     3
 10
5584.043624167883
 20
1188.641760450682
 30
0.0
 10
5663.468331622425
 20
1093.24469150771
 30
0.0
 10
5763.468331622425
 20
1093.24469150771
 30
0.0
1001
ACAD
1000
DSTYLE
1002
{
1070
   174
1070
     0
1070
   272
1070
     1
1070
   279
1070
     1
1070
   288
1070
     0
1070
   341
1005
0
1002
}
  0
LEADER
  5
1FD0C
330
747D
100
AcDbEntity
  8
寸法
 48
50.0
100
AcDbLeader
  3
INABA_S40G
 71
     0
 73
     0
 74
     0
 75
     1
 40
100.0
 41
540.3409090909091
 76
     3
 10
5530.085840828915
 20
1171.901230037157
 30
0.0
 10
5673.879127676991
 20
830.2704120422594
 30
0.0
 10
5773.879127676991
 20
830.2704120422594
 30
0.0
213
0.0
223
-1.022262676269383
233
0.0
1001
ACAD
1000
DSTYLE
1002
{
1070
   174
1070
     0
1070
   272
1070
     1
1070
   279
1070
     1
1070
   288
1070
     0
1070
   341
1005
0
1002
}
  0
MTEXT
  5
1FD0D
102
{ACAD_REACTORS
330
1FD0B
102
}
330
747D
100
AcDbEntity
  8
寸法
 62
     7
 48
50.0
100
AcDbMText
 10
5783.468331622426
 20
1153.24469150771
 30
0.0
 40
80.0
 41
0.8
 71
     4
 72
     1
  1
D10
  7
STYLE2
 73
     1
 44
1.0
1001
ACAD
1000
MTEXTBEGIN
1070
    73
1070
     1
1070
    44
1040
1.0
1070
    74
1070
     0
1000
MTEXTEND
  0
LWPOLYLINE
  5
1FD0E
330
747D
100
AcDbEntity
  8
部品1
 48
50.0
100
AcDbPolyline
 90
        2
 70
     0
 43
8.0
 10
5552.140671815741
 20
1612.641760450683
 10
5966.280573648698
 20
1612.641760450683
  0
LEADER
  5
1FD0F
330
747D
100
AcDbEntity
  8
寸法
 48
50.0
100
AcDbLeader
  3
INABA_S40G
 71
     0
 73
     0
 74
     0
 75
     1
 40
100.0
 41
222.7272727272727
 76
     3
 10
5456.140671815741
 20
1712.896189844928
 30
0.0
 10
5515.026608843135
 20
1653.90932174961
 30
0.0
 10
5615.026608843135
 20
1653.90932174961
 30
0.0
1001
ACAD
1000
DSTYLE
1002
{
1070
   174
1070
     0
1070
   272
1070
     1
1070
   279
1070
     1
1070
   288
1070
     0
1070
   341
1005
0
1002
}
  0
LINE
  5
1FD10
330
747D
100
AcDbEntity
  8
細線
 48
50.0
100
AcDbLine
 10
5232.140671815734
 20
1227.488506212853
 30
0.0
 11
5313.293926053569
 21
1308.641760450682
 31
0.0
  0
LINE
  5
1FD11
330
747D
100
AcDbEntity
  8
細線
 48
50.0
100
AcDbLine
 10
5440.006519293145
 20
1246.768975147805
 30
0.0
 11
5464.140671815747
 21
1270.903127670403
 31
0.0
  0
LINE
  5
1FD12
330
747D
100
AcDbEntity
  8
細線
 48
50.0
100
AcDbLine
 10
5346.938536232814
 20
1180.641760450682
 30
0.0
 11
5464.140671815741
 21
1297.843896033608
 31
0.0
  0
LINE
  5
1FD13
330
747D
100
AcDbEntity
  8
部品1
 48
50.0
100
AcDbLine
 10
5232.140671815741
 20
1068.641760450682
 30
0.0
 11
5232.140671815741
 21
1308.641760450682
 31
0.0
  0
LINE
  5
1FD14
330
747D
100
AcDbEntity
  8
細線
 48
50.0
100
AcDbLine
 10
5589.405451501685
 20
1180.641760450682
 30
0.0
 11
5680.140671815742
 21
1271.376980764741
 31
0.0
  0
LINE
  5
1FD15
330
747D
100
AcDbEntity
  8
細線
 48
50.0
100
AcDbLine
 10
5562.464683138468
 20
1180.641760450682
 30
0.0
 11
5680.140671815742
 21
1298.317749127948
 31
0.0
  0
LINE
  5
1FD16
330
747D
100
AcDbEntity
  8
部品1
 48
50.0
100
AcDbLine
 10
5680.140671815742
 20
1308.641760450682
 30
0.0
 11
5680.140671815742
 21
1068.641760450682
 31
0.0
  0
LINE
  5
1FD17
330
747D
100
AcDbEntity
  8
部品1
 48
50.0
100
AcDbLine
 10
5480.140671815746
 20
1188.641760450682
 30
0.0
 11
5480.140671815742
 21
1712.896189844928
 31
0.0
  0
LINE
  5
1FD18
330
747D
100
AcDbEntity
  8
部品1
 48
50.0
100
AcDbLine
 10
5464.140671815747
 20
1188.641760450682
 30
0.0
 11
5464.140671815734
 21
1712.896189844928
 31
0.0
  0
LINE
  5
1FD19
330
747D
100
AcDbEntity
  8
細線
 48
50.0
100
AcDbLine
 10
5448.140671815742
 20
1227.962359307193
 30
0.0
 11
5464.140671815747
 21
1243.962359307194
 31
0.0
  0
LINE
  5
1FD1A
330
747D
100
AcDbEntity
  8
細線
 48
50.0
100
AcDbLine
 10
5437.323511311755
 20
940.6417604506824
 30
0.0
 11
5471.621007942939
 21
1068.641760450682
 31
0.0
  0
LINE
  5
1FD1B
330
747D
100
AcDbEntity
  8
部品1
 48
50.0
100
AcDbLine
 10
5760.140671815745
 20
940.6417604506824
 30
0.0
 11
5152.140671815743
 21
940.6417604506824
 31
0.0
  0
LINE
  5
1FD1C
330
747D
100
AcDbEntity
  8
部品1
 48
50.0
100
AcDbLine
 10
5288.140671815741
 20
1164.641760450682
 30
0.0
 11
5624.140671815741
 21
1164.641760450682
 31
0.0
  0
LINE
  5
1FD1D
330
747D
100
AcDbEntity
  8
部品1
 48
50.0
100
AcDbLine
 10
5288.140671815741
 20
1180.641760450682
 30
0.0
 11
5624.140671815741
 21
1180.641760450682
 31
0.0
  0
LINE
  5
1FD1E
330
747D
100
AcDbEntity
  8
部品1
 48
50.0
100
AcDbLine
 10
5760.140671815745
 20
1068.641760450682
 30
0.0
 11
5152.140671815743
 21
1068.641760450682
 31
0.0
  0
CIRCLE
  5
1FD1F
330
747D
100
AcDbEntity
  8
部品1
 48
50.0
100
AcDbCircle
 10
5456.140671815742
 20
1188.641760450682
 30
0.0
 40
8.0
  0
LINE
  5
1FD20
330
747D
100
AcDbEntity
  8
細線
 48
50.0
100
AcDbLine
 10
5450.464683138474
 20
1068.641760450682
 30
0.0
 11
5546.464683138474
 21
1164.641760450682
 31
0.0
  0
LINE
  5
1FD21
330
747D
100
AcDbEntity
  8
細線
 48
50.0
100
AcDbLine
 10
5279.547421417257
 20
940.6417604506824
 30
0.0
 11
5313.844918048441
 21
1068.641760450682
 31
0.0
  0
LINE
  5
1FD22
330
747D
100
AcDbEntity
  8
細線
 48
50.0
100
AcDbLine
 10
5358.435466364503
 20
940.6417604506804
 30
0.0
 11
5392.732962995686
 21
1068.64176045068
 31
0.0
  0
LINE
  5
1FD23
330
747D
100
AcDbEntity
  8
細線
 48
50.0
100
AcDbLine
 10
5200.659376469999
 20
940.6417604506804
 30
0.0
 11
5234.956873101182
 21
1068.64176045068
 31
0.0
  0
LINE
  5
1FD24
330
747D
100
AcDbEntity
  8
部品1
 48
50.0
100
AcDbLine
 10
5152.140671815743
 20
940.6417604506824
 30
0.0
 11
5152.140671815743
 21
1068.641760450682
 31
0.0
  0
LINE
  5
1FD25
330
747D
100
AcDbEntity
  8
細線
 48
50.0
100
AcDbLine
 10
5285.978202035604
 20
964.6417604506822
 30
0.0
 11
5292.408982653951
 21
940.6417604506824
 31
0.0
  0
LINE
  5
1FD26
330
747D
100
AcDbEntity
  8
細線
 48
50.0
100
AcDbLine
 10
5207.090157088352
 20
964.6417604506822
 30
0.0
 11
5213.520937706698
 21
940.6417604506824
 31
0.0
  0
LINE
  5
1FD27
330
747D
100
AcDbEntity
  8
細線
 48
50.0
100
AcDbLine
 10
5443.754291930108
 20
964.6417604506822
 30
0.0
 11
5450.185072548454
 21
940.6417604506824
 31
0.0
  0
LINE
  5
1FD28
330
747D
100
AcDbEntity
  8
細線
 48
50.0
100
AcDbLine
 10
5364.866246982856
 20
964.6417604506822
 30
0.0
 11
5371.297027601202
 21
940.6417604506824
 31
0.0
  0
LINE
  5
1FD29
330
747D
100
AcDbEntity
  8
細線
 48
50.0
100
AcDbLine
 10
5261.879304596025
 20
1068.641760450682
 30
0.0
 11
5357.879304596025
 21
1164.641760450682
 31
0.0
  0
LINE
  5
1FD2A
330
747D
100
AcDbEntity
  8
細線
 48
50.0
100
AcDbLine
 10
5234.938536232814
 20
1068.641760450682
 30
0.0
 11
5330.938536232814
 21
1164.641760450682
 31
0.0
  0
LINE
  5
1FD2B
330
747D
100
AcDbEntity
  8
部品1
 48
50.0
100
AcDbLine
 10
5288.140671815741
 20
1180.641760450682
 30
0.0
 11
5288.140671815741
 21
1164.641760450682
 31
0.0
  0
LINE
  5
1FD2C
330
747D
100
AcDbEntity
  8
細線
 48
50.0
100
AcDbLine
 10
5228.526092482842
 20
1044.641760450682
 30
0.0
 11
5222.095311864494
 21
1068.641760450682
 31
0.0
  0
LINE
  5
1FD2D
330
747D
100
AcDbEntity
  8
細線
 48
50.0
100
AcDbLine
 10
5152.140671815741
 20
1053.981681416462
 30
0.0
 11
5156.068828153937
 21
1068.641760450682
 31
0.0
  0
LINE
  5
1FD2E
330
747D
100
AcDbEntity
  8
部品1
 48
50.0
100
AcDbLine
 10
5448.140671815742
 20
1246.768975147805
 30
0.0
 11
5432.140671815741
 21
1246.768975147805
 31
0.0
  0
CIRCLE
  5
1FD2F
330
747D
100
AcDbEntity
  8
部品1
 48
50.0
100
AcDbCircle
 10
5328.140671815742
 20
1188.641760450682
 30
0.0
 40
8.0
  0
LINE
  5
1FD30
330
747D
100
AcDbEntity
  8
細線
 48
50.0
100
AcDbLine
 10
5400.820072959231
 20
1180.641760450682
 30
0.0
 11
5432.140671815741
 21
1211.962359307193
 31
0.0
  0
ARC
  5
1FD31
330
747D
100
AcDbEntity
  8
部品1
 48
50.0
100
AcDbCircle
 10
5456.140671815742
 20
1188.641760450682
 30
0.0
 40
24.0
100
AcDbArc
 50
180.0
 51
199.4712206345269
  0
LINE
  5
1FD32
330
747D
100
AcDbEntity
  8
細線
 48
50.0
100
AcDbLine
 10
5307.414137430093
 20
1044.641760450682
 30
0.0
 11
5300.983356811746
 21
1068.641760450682
 31
0.0
  0
LINE
  5
1FD33
330
747D
100
AcDbEntity
  8
細線
 48
50.0
100
AcDbLine
 10
5386.302182377345
 20
1044.641760450682
 30
0.0
 11
5379.871401758999
 21
1068.641760450682
 31
0.0
  0
LINE
  5
1FD34
330
747D
100
AcDbEntity
  8
細線
 48
50.0
100
AcDbLine
 10
5288.82007295923
 20
1068.641760450682
 30
0.0
 11
5384.82007295923
 21
1164.641760450682
 31
0.0
  0
LINE
  5
1FD35
330
747D
100
AcDbEntity
  8
部品1
 48
50.0
100
AcDbLine
 10
5432.140671815741
 20
1246.768975147805
 30
0.0
 11
5432.140671815741
 21
1188.641760450682
 31
0.0
  0
LINE
  5
1FD36
330
747D
100
AcDbEntity
  8
細線
 48
50.0
100
AcDbLine
 10
5373.879304596025
 20
1180.641760450682
 30
0.0
 11
5432.140671815741
 21
1238.903127670401
 31
0.0
  0
LINE
  5
1FD37
330
747D
100
AcDbEntity
  8
部品1
 48
50.0
100
AcDbLine
 10
5448.140671815742
 20
1246.768975147805
 30
0.0
 11
5448.140671815742
 21
1188.641760450682
 31
0.0
  0
LINE
  5
1FD38
330
747D
100
AcDbEntity
  8
部品1
 48
50.0
100
AcDbLine
 10
5760.140671815745
 20
1068.641760450682
 30
0.0
 11
5760.140671815745
 21
940.6417604506824
 31
0.0
  0
LINE
  5
1FD39
330
747D
100
AcDbEntity
  8
細線
 48
50.0
100
AcDbLine
 10
5673.987646153495
 20
940.6417604506824
 30
0.0
 11
5708.28514278468
 21
1068.64176045068
 31
0.0
  0
LINE
  5
1FD3A
330
747D
100
AcDbEntity
  8
細線
 48
50.0
100
AcDbLine
 10
5516.211556259001
 20
940.6417604506824
 30
0.0
 11
5550.509052890188
 21
1068.64176045068
 31
0.0
  0
LINE
  5
1FD3B
330
747D
100
AcDbEntity
  8
細線
 48
50.0
100
AcDbLine
 10
5595.09960120625
 20
940.6417604506804
 30
0.0
 11
5629.397097837435
 21
1068.64176045068
 31
0.0
  0
LINE
  5
1FD3C
330
747D
100
AcDbEntity
  8
細線
 48
50.0
100
AcDbLine
 10
5601.530381824599
 20
964.6417604506822
 30
0.0
 11
5607.961162442947
 21
940.6417604506824
 31
0.0
  0
LINE
  5
1FD3D
330
747D
100
AcDbEntity
  8
細線
 48
50.0
100
AcDbLine
 10
5522.642336877353
 20
964.6417604506822
 30
0.0
 11
5529.0731174957
 21
940.6417604506824
 31
0.0
  0
LINE
  5
1FD3E
330
747D
100
AcDbEntity
  8
細線
 48
50.0
100
AcDbLine
 10
5680.418426771847
 20
964.6417604506822
 30
0.0
 11
5686.849207390195
 21
940.6417604506824
 31
0.0
  0
LINE
  5
1FD3F
330
747D
100
AcDbEntity
  8
細線
 48
50.0
100
AcDbLine
 10
5759.306471719094
 20
964.6417604506822
 30
0.0
 11
5760.140671815741
 21
961.5284833063178
 31
0.0
  0
LINE
  5
1FD40
330
747D
100
AcDbEntity
  8
細線
 48
50.0
100
AcDbLine
 10
5752.875691100744
 20
940.6417604506804
 30
0.0
 11
5760.140671815741
 21
967.7550375950705
 31
0.0
  0
LINE
  5
1FD41
330
747D
100
AcDbEntity
  8
細線
 48
50.0
100
AcDbLine
 10
5616.346219864889
 20
1180.641760450682
 30
0.0
 11
5680.140671815742
 21
1244.436212401533
 31
0.0
  0
CIRCLE
  5
1FD42
330
747D
100
AcDbEntity
  8
部品1
 48
50.0
100
AcDbCircle
 10
5584.140671815742
 20
1188.641760450682
 30
0.0
 40
8.0
  0
ARC
  5
1FD43
330
747D
100
AcDbEntity
  8
部品1
 48
50.0
100
AcDbCircle
 10
5456.140671815742
 20
1188.641760450682
 30
0.0
 40
24.0
100
AcDbArc
 50
340.5287793654731
 51
0.0
  0
LINE
  5
1FD44
330
747D
100
AcDbEntity
  8
細線
 48
50.0
100
AcDbLine
 10
5465.190227324598
 20
1044.641760450682
 30
0.0
 11
5458.75944670625
 21
1068.641760450682
 31
0.0
  0
LINE
  5
1FD45
330
747D
100
AcDbEntity
  8
細線
 48
50.0
100
AcDbLine
 10
5544.078272271843
 20
1044.641760450682
 30
0.0
 11
5537.647491653498
 21
1068.641760450682
 31
0.0
  0
LINE
  5
1FD46
330
747D
100
AcDbEntity
  8
細線
 48
50.0
100
AcDbLine
 10
5477.405451501685
 20
1068.641760450682
 30
0.0
 11
5573.405451501685
 21
1164.641760450682
 31
0.0
  0
LINE
  5
1FD47
330
747D
100
AcDbEntity
  8
細線
 48
50.0
100
AcDbLine
 10
5504.346219864888
 20
1068.641760450682
 30
0.0
 11
5600.347107710025
 21
1164.642648295821
 31
0.0
  0
LINE
  5
1FD48
330
747D
100
AcDbEntity
  8
部品1
 48
50.0
100
AcDbLine
 10
5624.140671815741
 20
1180.641760450682
 30
0.0
 11
5624.140671815741
 21
1164.641760450682
 31
0.0
  0
LINE
  5
1FD49
330
747D
100
AcDbEntity
  8
細線
 48
50.0
100
AcDbLine
 10
5701.854362166336
 20
1044.641760450682
 30
0.0
 11
5695.423581547988
 21
1068.641760450682
 31
0.0
  0
LINE
  5
1FD4A
330
747D
100
AcDbEntity
  8
細線
 48
50.0
100
AcDbLine
 10
5665.990830044135
 20
1068.641760450682
 30
0.0
 11
5680.140671815742
 21
1082.791602222289
 31
0.0
  0
LINE
  5
1FD4B
330
747D
100
AcDbEntity
  8
細線
 48
50.0
100
AcDbLine
 10
5622.966317219089
 20
1044.641760450682
 30
0.0
 11
5616.535536600743
 21
1068.641760450682
 31
0.0
  0
LINE
  5
1FD4C
330
747D
100
AcDbEntity
  8
細線
 48
50.0
100
AcDbLine
 10
5360.140671815742
 20
1382.42927457606
 30
0.0
 11
5464.140671815747
 21
1486.429274576063
 31
0.0
  0
LINE
  5
1FD4D
330
747D
100
AcDbEntity
  8
細線
 48
50.0
100
AcDbLine
 10
5360.140671815742
 20
1409.370042939268
 30
0.0
 11
5464.140671815741
 21
1513.370042939268
 31
0.0
  0
LINE
  5
1FD4E
330
747D
100
AcDbEntity
  8
細線
 48
50.0
100
AcDbLine
 10
5360.140671815742
 20
1355.488506212853
 30
0.0
 11
5464.140671815747
 21
1459.488506212853
 31
0.0
  0
LINE
  5
1FD4F
330
747D
100
AcDbEntity
  8
細線
 48
50.0
100
AcDbLine
 10
5448.140671815742
 20
1659.014653118513
 30
0.0
 11
5464.140671815741
 21
1675.014653118513
 31
0.0
  0
LINE
  5
1FD50
330
747D
100
AcDbEntity
  8
細線
 48
50.0
100
AcDbLine
 10
5448.140671815742
 20
1685.95542148172
 30
0.0
 11
5464.140671815741
 21
1701.95542148172
 31
0.0
  0
LINE
  5
1FD51
330
747D
100
AcDbEntity
  8
部品1
 48
50.0
100
AcDbLine
 10
5232.140671815741
 20
1308.641760450682
 30
0.0
 11
5360.140671815742
 21
1308.641760450682
 31
0.0
  0
LINE
  5
1FD52
330
747D
100
AcDbEntity
  8
細線
 48
50.0
100
AcDbLine
 10
5232.140671815734
 20
1254.429274576058
 30
0.0
 11
5286.353157690366
 21
1308.641760450682
 31
0.0
  0
LINE
  5
1FD53
330
747D
100
AcDbEntity
  8
細線
 48
50.0
100
AcDbLine
 10
5232.140671815734
 20
1281.370042939268
 30
0.0
 11
5259.412389327156
 21
1308.641760450682
 31
0.0
  0
LINE
  5
1FD54
330
747D
100
AcDbEntity
  8
部品1
 48
50.0
100
AcDbLine
 10
5448.140671815742
 20
1654.768975147804
 30
0.0
 11
5432.140671815741
 21
1654.768975147808
 31
0.0
  0
LINE
  5
1FD55
330
747D
100
AcDbEntity
  8
細線
 48
50.0
100
AcDbLine
 10
5360.140671815742
 20
1571.014653118513
 30
0.0
 11
5443.894993845034
 21
1654.768975147804
 31
0.0
  0
LINE
  5
1FD56
330
747D
100
AcDbEntity
  8
細線
 48
50.0
100
AcDbLine
 10
5360.140671815742
 20
1597.95542148172
 30
0.0
 11
5432.140671815741
 21
1669.95542148172
 31
0.0
  0
LINE
  5
1FD57
330
747D
100
AcDbEntity
  8
部品1
 48
50.0
100
AcDbLine
 10
5432.140671815741
 20
1654.768975147808
 30
0.0
 11
5432.140671815741
 21
1712.896189844928
 31
0.0
  0
LINE
  5
1FD58
330
747D
100
AcDbEntity
  8
細線
 48
50.0
100
AcDbLine
 10
5360.140671815742
 20
1624.896189844928
 30
0.0
 11
5432.140671815741
 21
1696.896189844928
 31
0.0
  0
LINE
  5
1FD59
330
747D
100
AcDbEntity
  8
部品1
 48
50.0
100
AcDbLine
 10
5448.140671815742
 20
1654.768975147804
 30
0.0
 11
5448.140671815742
 21
1712.896189844928
 31
0.0
  0
LINE
  5
1FD5A
330
747D
100
AcDbEntity
  8
細線
 48
50.0
100
AcDbLine
 10
5480.140671815746
 20
1475.488506212853
 30
0.0
 11
5552.140671815735
 21
1547.488506212853
 31
0.0
  0
LINE
  5
1FD5B
330
747D
100
AcDbEntity
  8
部品1
 48
50.0
100
AcDbLine
 10
5552.140671815742
 20
1308.641760450682
 30
0.0
 11
5680.140671815742
 21
1308.641760450682
 31
0.0
  0
LINE
  5
1FD5C
330
747D
100
AcDbEntity
  8
細線
 48
50.0
100
AcDbLine
 10
5480.140671815746
 20
1286.903127670403
 30
0.0
 11
5552.140671815735
 21
1358.903127670398
 31
0.0
  0
LINE
  5
1FD5D
330
747D
100
AcDbEntity
  8
細線
 48
50.0
100
AcDbLine
 10
5480.140671815746
 20
1313.843896033612
 30
0.0
 11
5552.140671815735
 21
1385.843896033608
 31
0.0
  0
LINE
  5
1FD5E
330
747D
100
AcDbEntity
  8
細線
 48
50.0
100
AcDbLine
 10
5480.140671815746
 20
1259.962359307194
 30
0.0
 11
5552.140671815735
 21
1331.962359307194
 31
0.0
  0
LINE
  5
1FD5F
330
747D
100
AcDbEntity
  8
細線
 48
50.0
100
AcDbLine
 10
5480.140671815742
 20
1529.370042939268
 30
0.0
 11
5552.140671815742
 21
1601.370042939268
 31
0.0
  0
LINE
  5
1FD60
330
747D
100
AcDbEntity
  8
細線
 48
50.0
100
AcDbLine
 10
5480.140671815746
 20
1502.429274576063
 30
0.0
 11
5552.140671815735
 21
1574.429274576058
 31
0.0
  0
MTEXT
  5
1FD61
102
{ACAD_REACTORS
330
1FD0C
102
}
330
747D
100
AcDbEntity
  8
寸法
 62
     7
 48
50.0
100
AcDbMText
 10
5793.879127676992
 20
891.2926747185293
 30
0.0
 40
80.0
 41
0.8
 71
     4
 72
     1
  1
\A1;D10@300
  7
STYLE2
 73
     1
 44
1.0
1001
ACAD
1000
MTEXTBEGIN
1070
    73
1070
     1
1070
    44
1040
1.0
1070
    74
1070
     0
1000
MTEXTEND
  0
DIMENSION
  5
1FD62
330
747D
100
AcDbEntity
  8
寸法
 48
50.0
100
AcDbDimension
  2
*D28
 10
5360.140671815741
 20
2172.641760450682
 30
0.0
 11
5467.367002160938
 21
2272.309568367063
 31
0.0
 70
   160
  1
120\P170
 71
     5
 42
192.0
  3
INABA_S40G
100
AcDbAlignedDimension
 13
5552.140671815741
 23
1852.641760450682
 33
0.0
 14
5360.140671815741
 24
1852.641760450682
 34
0.0
100
AcDbRotatedDimension
1001
ACAD
1000
DSTYLE
1002
{
1070
   174
1070
     0
1070
   272
1070
     1
1070
   279
1070
     1
1070
   288
1070
     0
1070
   341
1005
0
1002
}
  0
LINE
  5
1FD63
330
747D
100
AcDbEntity
  8
部品1
 48
50.0
100
AcDbLine
 10
5360.140671815742
 20
1852.641760450682
 30
0.0
 11
5552.140671815742
 21
1852.641760450682
 31
0.0
  0
LINE
  5
1FD64
330
747D
100
AcDbEntity
  8
細線
 48
50.0
100
AcDbLine
 10
5360.140671815742
 20
1813.48156838738
 30
0.0
 11
5399.300863879045
 21
1852.641760450682
 31
0.0
  0
LINE
  5
1FD65
330
747D
100
AcDbEntity
  8
細線
 48
50.0
100
AcDbLine
 10
5360.140671815742
 20
1786.540800024172
 30
0.0
 11
5426.24163224225
 21
1852.641760450682
 31
0.0
  0
LINE
  5
1FD66
330
747D
100
AcDbEntity
  8
細線
 48
50.0
100
AcDbLine
 10
5360.140671815742
 20
1840.422336750587
 30
0.0
 11
5372.360095515836
 21
1852.641760450682
 31
0.0
  0
LINE
  5
1FD67
330
747D
100
AcDbEntity
  8
細線
 48
50.0
100
AcDbLine
 10
5479.693379081727
 20
1717.508128747704
 30
0.0
 11
5552.140671815742
 21
1789.95542148172
 31
0.0
  0
LINE
  5
1FD68
330
747D
100
AcDbEntity
  8
細線
 48
50.0
100
AcDbLine
 10
5468.633094318211
 20
1733.388612347398
 30
0.0
 11
5552.140671815742
 21
1816.896189844928
 31
0.0
  0
LINE
  5
1FD69
330
747D
100
AcDbEntity
  8
細線
 48
50.0
100
AcDbLine
 10
7344.579984992936
 20
1693.770042939271
 30
0.0
 11
7474.179984992935
 21
1823.370042939269
 31
0.0
  0
LINE
  5
1FD6A
330
747D
100
AcDbEntity
  8
部品1
100
AcDbLine
 10
7474.179984992933
 20
1308.641760450682
 30
0.0
 11
7474.179984992935
 21
1852.641760450682
 31
0.0
  0
LINE
  5
1FD6B
330
747D
100
AcDbEntity
  8
部品1
 48
50.0
100
AcDbLine
 10
7060.179984992934
 20
1308.641760450682
 30
0.0
 11
7060.179984992934
 21
1852.641760450682
 31
0.0
  0
LINE
  5
1FD6C
330
747D
100
AcDbEntity
  8
細線
 48
50.0
100
AcDbLine
 10
7060.179984992934
 20
1624.896189844928
 30
0.0
 11
7218.579984992934
 21
1783.296189844925
 31
0.0
  0
LINE
  5
1FD6D
330
747D
100
AcDbEntity
  8
細線
 48
50.0
100
AcDbLine
 10
7060.179984992934
 20
1597.95542148172
 30
0.0
 11
7218.579984992934
 21
1756.355421481718
 31
0.0
  0
LINE
  5
1FD6E
330
747D
100
AcDbEntity
  8
細線
 48
50.0
100
AcDbLine
 10
7060.179984992934
 20
1571.014653118513
 30
0.0
 11
7218.579984992932
 21
1729.414653118505
 31
0.0
  0
TEXT
  5
1FD6F
330
747D
100
AcDbEntity
  8
部品1
 48
50.0
100
AcDbText
 10
6646.040083159978
 20
1623.880752733938
 30
0.0
 40
80.0
  1
▽G.L
  7
STYLE2
100
AcDbText
  0
LINE
  5
1FD70
330
747D
100
AcDbEntity
  8
部品1
100
AcDbLine
 10
7290.579984992935
 20
1627.641760450682
 30
0.0
 11
7290.579984992932
 21
1901.801760450683
 31
0.0
  0
LINE
  5
1FD71
330
747D
100
AcDbEntity
  8
部品1
100
AcDbLine
 10
7272.579984992936
 20
1627.641760450682
 30
0.0
 11
7272.579984992932
 21
1901.801760450683
 31
0.0
  0
LINE
  5
1FD72
330
747D
100
AcDbEntity
  8
細線
 48
50.0
100
AcDbLine
 10
7344.579984992936
 20
1639.888506212841
 30
0.0
 11
7474.179984992935
 21
1769.488506212832
 31
0.0
  0
LINE
  5
1FD73
330
747D
100
AcDbEntity
  8
細線
 48
50.0
100
AcDbLine
 10
7344.579984992936
 20
1666.829274576053
 30
0.0
 11
7474.179984992935
 21
1796.42927457605
 31
0.0
  0
LINE
  5
1FD74
330
747D
100
AcDbEntity
  8
部品1
100
AcDbLine
 10
7344.579984992936
 20
1528.641760450682
 30
0.0
 11
7344.579984992936
 21
1852.641760450682
 31
0.0
  0
LINE
  5
1FD75
330
747D
100
AcDbEntity
  8
部品1
100
AcDbLine
 10
7218.579984992929
 20
1528.641760450682
 30
0.0
 11
7218.579984992935
 21
1852.641760450682
 31
0.0
  0
LINE
  5
1FD76
330
747D
100
AcDbEntity
  8
細線
 48
50.0
100
AcDbLine
 10
7060.179984992934
 20
1382.42927457606
 30
0.0
 11
7218.579984992928
 21
1540.829274576049
 31
0.0
  0
LINE
  5
1FD77
330
747D
100
AcDbEntity
  8
細線
 48
50.0
100
AcDbLine
 10
7060.179984992934
 20
1355.488506212853
 30
0.0
 11
7233.333239230771
 21
1528.64176045068
 31
0.0
  0
LINE
  5
1FD78
330
747D
100
AcDbEntity
  8
細線
 48
50.0
100
AcDbLine
 10
7060.179984992934
 20
1409.370042939268
 30
0.0
 11
7218.579984992928
 21
1567.770042939263
 31
0.0
  0
LINE
  5
1FD79
330
747D
100
AcDbEntity
  8
細線
 48
50.0
100
AcDbLine
 10
6988.859386136424
 20
1068.641760450682
 30
0.0
 11
7474.179984992935
 21
1553.96235930719
 31
0.0
  0
LINE
  5
1FD7A
330
747D
100
AcDbEntity
  8
細線
 48
50.0
100
AcDbLine
 10
6961.918617773219
 20
1068.641760450682
 30
0.0
 11
7474.179984992936
 21
1580.903127670396
 31
0.0
  0
LINE
  5
1FD7B
330
747D
100
AcDbEntity
  8
細線
 48
50.0
100
AcDbLine
 10
6934.977849410009
 20
1068.641760450682
 30
0.0
 11
7474.179984992933
 21
1607.843896033608
 31
0.0
  0
LINE
  5
1FD7C
330
747D
100
AcDbEntity
  8
部品1
 48
50.0
100
AcDbLine
 10
7682.179984992938
 20
1068.641760450682
 30
0.0
 11
6852.179984992938
 21
1068.641760450682
 31
0.0
  0
LINE
  5
1FD7D
330
747D
100
AcDbEntity
  8
部品1
 48
50.0
100
AcDbLine
 10
7682.179984992938
 20
940.6417604506824
 30
0.0
 11
6852.179984992938
 21
940.6417604506824
 31
0.0
  0
LINE
  5
1FD7E
330
747D
100
AcDbEntity
  8
細線
 48
50.0
100
AcDbLine
 10
6932.179984992929
 20
1227.488506212853
 30
0.0
 11
7013.333239230764
 21
1308.641760450682
 31
0.0
  0
LINE
  5
1FD7F
330
747D
100
AcDbEntity
  8
部品1
 48
50.0
100
AcDbLine
 10
6932.179984992934
 20
1068.641760450682
 30
0.0
 11
6932.179984992934
 21
1308.641760450682
 31
0.0
  0
LINE
  5
1FD80
330
747D
100
AcDbEntity
  8
細線
 48
50.0
100
AcDbLine
 10
6979.586734594452
 20
940.6417604506824
 30
0.0
 11
7013.884231225635
 21
1068.641760450682
 31
0.0
  0
LINE
  5
1FD81
330
747D
100
AcDbEntity
  8
部品1
 48
50.0
100
AcDbLine
 10
6852.179984992938
 20
940.6417604506824
 30
0.0
 11
6852.179984992938
 21
1068.641760450682
 31
0.0
  0
LINE
  5
1FD82
330
747D
100
AcDbEntity
  8
細線
 48
50.0
100
AcDbLine
 10
6900.698689647194
 20
940.6417604506804
 30
0.0
 11
6934.996186278377
 21
1068.64176045068
 31
0.0
  0
LINE
  5
1FD83
330
747D
100
AcDbEntity
  8
細線
 48
50.0
100
AcDbLine
 10
7058.474779541699
 20
940.6417604506804
 30
0.0
 11
7092.77227617288
 21
1068.64176045068
 31
0.0
  0
LINE
  5
1FD84
330
747D
100
AcDbEntity
  8
細線
 48
50.0
100
AcDbLine
 10
6907.129470265546
 20
964.6417604506822
 30
0.0
 11
6913.560250883893
 21
940.6417604506824
 31
0.0
  0
LINE
  5
1FD85
330
747D
100
AcDbEntity
  8
細線
 48
50.0
100
AcDbLine
 10
7064.905560160051
 20
964.6417604506822
 30
0.0
 11
7071.336340778398
 21
940.6417604506824
 31
0.0
  0
LINE
  5
1FD86
330
747D
100
AcDbEntity
  8
細線
 48
50.0
100
AcDbLine
 10
6986.017515212799
 20
964.6417604506822
 30
0.0
 11
6992.448295831145
 21
940.6417604506824
 31
0.0
  0
LINE
  5
1FD87
330
747D
100
AcDbEntity
  8
細線
 48
50.0
100
AcDbLine
 10
6852.179984992935
 20
1053.981681416462
 30
0.0
 11
6856.10814133113
 21
1068.641760450682
 31
0.0
  0
LINE
  5
1FD88
330
747D
100
AcDbEntity
  8
細線
 48
50.0
100
AcDbLine
 10
6928.565405660036
 20
1044.641760450682
 30
0.0
 11
6922.134625041689
 21
1068.641760450682
 31
0.0
  0
LINE
  5
1FD89
330
747D
100
AcDbEntity
  8
細線
 48
50.0
100
AcDbLine
 10
7086.341495554539
 20
1044.641760450682
 30
0.0
 11
7079.910714936193
 21
1068.641760450682
 31
0.0
  0
LINE
  5
1FD8A
330
747D
100
AcDbEntity
  8
細線
 48
50.0
100
AcDbLine
 10
7007.453450607288
 20
1044.641760450682
 30
0.0
 11
7001.022669988941
 21
1068.641760450682
 31
0.0
  0
LWPOLYLINE
  5
1FD8B
330
747D
100
AcDbEntity
  8
部品1
 48
50.0
100
AcDbPolyline
 90
        2
 70
     0
 43
8.0
 10
6646.040083159978
 20
1612.641760450683
 10
7060.179984992934
 20
1612.641760450683
  0
LINE
  5
1FD8C
330
747D
100
AcDbEntity
  8
細線
 48
50.0
100
AcDbLine
 10
6932.179984992929
 20
1254.429274576058
 30
0.0
 11
6986.39247086756
 21
1308.641760450682
 31
0.0
  0
LINE
  5
1FD8D
330
747D
100
AcDbEntity
  8
部品1
 48
50.0
100
AcDbLine
 10
6932.179984992934
 20
1308.641760450682
 30
0.0
 11
7060.179984992934
 21
1308.641760450682
 31
0.0
  0
LINE
  5
1FD8E
330
747D
100
AcDbEntity
  8
細線
 48
50.0
100
AcDbLine
 10
6932.179984992929
 20
1281.370042939268
 30
0.0
 11
6959.45170250435
 21
1308.641760450682
 31
0.0
  0
LINE
  5
1FD8F
330
747D
100
AcDbEntity
  8
細線
 48
50.0
100
AcDbLine
 10
7177.44476467888
 20
1068.641760450682
 30
0.0
 11
7474.179984992935
 21
1365.376980764735
 31
0.0
  0
LINE
  5
1FD90
330
747D
100
AcDbEntity
  8
細線
 48
50.0
100
AcDbLine
 10
7204.385533042084
 20
1068.641760450682
 30
0.0
 11
7474.179984992935
 21
1338.436212401539
 31
0.0
  0
LINE
  5
1FD91
330
747D
100
AcDbEntity
  8
細線
 48
50.0
100
AcDbLine
 10
7150.503996315669
 20
1068.641760450682
 30
0.0
 11
7474.179984992933
 21
1392.317749127948
 31
0.0
  0
LINE
  5
1FD92
330
747D
100
AcDbEntity
  8
細線
 48
50.0
100
AcDbLine
 10
7366.030143221329
 20
1068.641760450682
 30
0.0
 11
7602.179984992933
 21
1304.79160222229
 31
0.0
  0
LINE
  5
1FD93
330
747D
100
AcDbEntity
  8
細線
 48
50.0
100
AcDbLine
 10
7392.97091158454
 20
1068.641760450682
 30
0.0
 11
7602.179984992933
 21
1277.850833859075
 31
0.0
  0
LINE
  5
1FD94
330
747D
100
AcDbEntity
  8
部品1
 48
50.0
100
AcDbLine
 10
7602.179984992933
 20
1308.641760450682
 30
0.0
 11
7602.179984992933
 21
1068.641760450682
 31
0.0
  0
LINE
  5
1FD95
330
747D
100
AcDbEntity
  8
細線
 48
50.0
100
AcDbLine
 10
7419.911679947744
 20
1068.641760450682
 30
0.0
 11
7602.179984992933
 21
1250.910065495878
 31
0.0
  0
LINE
  5
1FD96
330
747D
100
AcDbEntity
  8
細線
 48
50.0
100
AcDbLine
 10
7295.138914383445
 20
940.6417604506804
 30
0.0
 11
7329.436411014627
 21
1068.64176045068
 31
0.0
  0
LINE
  5
1FD97
330
747D
100
AcDbEntity
  8
細線
 48
50.0
100
AcDbLine
 10
7137.36282448895
 20
940.6417604506824
 30
0.0
 11
7171.660321120133
 21
1068.641760450682
 31
0.0
  0
LINE
  5
1FD98
330
747D
100
AcDbEntity
  8
細線
 48
50.0
100
AcDbLine
 10
7216.250869436196
 20
940.6417604506824
 30
0.0
 11
7250.548366067381
 21
1068.64176045068
 31
0.0
  0
LINE
  5
1FD99
330
747D
100
AcDbEntity
  8
細線
 48
50.0
100
AcDbLine
 10
7374.026959330688
 20
940.6417604506824
 30
0.0
 11
7408.324455961873
 21
1068.64176045068
 31
0.0
  0
LINE
  5
1FD9A
330
747D
100
AcDbEntity
  8
細線
 48
50.0
100
AcDbLine
 10
7222.681650054548
 20
964.6417604506822
 30
0.0
 11
7229.112430672896
 21
940.6417604506824
 31
0.0
  0
LINE
  5
1FD9B
330
747D
100
AcDbEntity
  8
細線
 48
50.0
100
AcDbLine
 10
7143.793605107302
 20
964.6417604506822
 30
0.0
 11
7150.224385725649
 21
940.6417604506824
 31
0.0
  0
LINE
  5
1FD9C
330
747D
100
AcDbEntity
  8
細線
 48
50.0
100
AcDbLine
 10
7380.457739949041
 20
964.6417604506822
 30
0.0
 11
7386.888520567388
 21
940.6417604506824
 31
0.0
  0
LINE
  5
1FD9D
330
747D
100
AcDbEntity
  8
細線
 48
50.0
100
AcDbLine
 10
7301.569695001795
 20
964.6417604506822
 30
0.0
 11
7308.000475620142
 21
940.6417604506824
 31
0.0
  0
LINE
  5
1FD9E
330
747D
100
AcDbEntity
  8
細線
 48
50.0
100
AcDbLine
 10
7244.117585449038
 20
1044.641760450682
 30
0.0
 11
7237.686804830691
 21
1068.641760450682
 31
0.0
  0
LINE
  5
1FD9F
330
747D
100
AcDbEntity
  8
細線
 48
50.0
100
AcDbLine
 10
7165.22954050179
 20
1044.641760450682
 30
0.0
 11
7158.798759883445
 21
1068.641760450682
 31
0.0
  0
LINE
  5
1FDA0
330
747D
100
AcDbEntity
  8
細線
 48
50.0
100
AcDbLine
 10
7323.005630396284
 20
1044.641760450682
 30
0.0
 11
7316.574849777937
 21
1068.641760450682
 31
0.0
  0
LINE
  5
1FDA1
330
747D
100
AcDbEntity
  8
細線
 48
50.0
100
AcDbLine
 10
7401.893675343529
 20
1044.641760450682
 30
0.0
 11
7395.462894725183
 21
1068.641760450682
 31
0.0
  0
LINE
  5
1FDA2
330
747D
100
AcDbEntity
  8
部品1
 48
50.0
100
AcDbLine
 10
7682.179984992938
 20
1068.641760450682
 30
0.0
 11
7682.179984992938
 21
940.6417604506824
 31
0.0
  0
LINE
  5
1FDA3
330
747D
100
AcDbEntity
  8
細線
 48
50.0
100
AcDbLine
 10
7610.691094172429
 20
940.6417604506804
 30
0.0
 11
7644.988590803617
 21
1068.641760450679
 31
0.0
  0
LINE
  5
1FDA4
330
747D
100
AcDbEntity
  8
細線
 48
50.0
100
AcDbLine
 10
7452.915004277937
 20
940.6417604506804
 30
0.0
 11
7487.212500909111
 21
1068.641760450682
 31
0.0
  0
LINE
  5
1FDA5
330
747D
100
AcDbEntity
  8
細線
 48
50.0
100
AcDbLine
 10
7531.803049225185
 20
940.6417604506795
 30
0.0
 11
7566.100545856369
 21
1068.641760450679
 31
0.0
  0
LINE
  5
1FDA6
330
747D
100
AcDbEntity
  8
細線
 48
50.0
100
AcDbLine
 10
7459.345784896287
 20
964.6417604506822
 30
0.0
 11
7465.776565514643
 21
940.6417604506824
 31
0.0
  0
LINE
  5
1FDA7
330
747D
100
AcDbEntity
  8
細線
 48
50.0
100
AcDbLine
 10
7538.233829843536
 20
964.6417604506805
 30
0.0
 11
7544.664610461881
 21
940.6417604506804
 31
0.0
  0
LINE
  5
1FDA8
330
747D
100
AcDbEntity
  8
細線
 48
50.0
100
AcDbLine
 10
7617.12187479078
 20
964.6417604506805
 30
0.0
 11
7623.552655409127
 21
940.6417604506804
 31
0.0
  0
LINE
  5
1FDA9
330
747D
100
AcDbEntity
  8
細線
 48
50.0
100
AcDbLine
 10
7480.781720290767
 20
1044.641760450682
 30
0.0
 11
7474.350939672421
 21
1068.641760450682
 31
0.0
  0
LINE
  5
1FDAA
330
747D
100
AcDbEntity
  8
細線
 48
50.0
100
AcDbLine
 10
7559.669765238024
 20
1044.64176045068
 30
0.0
 11
7553.238984619678
 21
1068.64176045068
 31
0.0
  0
LINE
  5
1FDAB
330
747D
100
AcDbEntity
  8
細線
 48
50.0
100
AcDbLine
 10
7638.55781018527
 20
1044.64176045068
 30
0.0
 11
7632.127029566923
 21
1068.64176045068
 31
0.0
  0
LINE
  5
1FDAC
330
747D
100
AcDbEntity
  8
部品1
100
AcDbLine
 10
7344.579984992936
 20
1528.64176045068
 30
0.0
 11
7218.579984992929
 21
1528.64176045068
 31
0.0
  0
LINE
  5
1FDAD
330
747D
100
AcDbEntity
  8
部品1
100
AcDbLine
 10
7326.579984992935
 20
1609.641760450682
 30
0.0
 11
7326.579984992935
 21
1627.641760450682
 31
0.0
  0
ARC
  5
1FDAE
330
747D
100
AcDbEntity
  8
部品1
100
AcDbCircle
 10
7290.579984992935
 20
1627.641760450682
 30
0.0
 40
18.0
100
AcDbArc
 50
180.0
 51
270.0
  0
LINE
  5
1FDAF
330
747D
100
AcDbEntity
  8
部品1
100
AcDbLine
 10
7290.579984992935
 20
1609.641760450682
 30
0.0
 11
7326.579984992935
 21
1609.641760450682
 31
0.0
  0
LINE
  5
1FDB0
330
747D
100
AcDbEntity
  8
部品1
100
AcDbLine
 10
7290.579984992935
 20
1627.641760450682
 30
0.0
 11
7326.579984992935
 21
1627.641760450682
 31
0.0
  0
LINE
  5
1FDB1
330
747D
100
AcDbEntity
  8
部品1
 48
50.0
100
AcDbLine
 10
7474.179984992935
 20
1308.641760450682
 30
0.0
 11
7602.179984992933
 21
1308.641760450682
 31
0.0
  0
LINE
  5
1FDB2
330
747D
100
AcDbEntity
  8
部品1
100
AcDbLine
 10
7079.979984992935
 20
1942.641760450682
 30
0.0
 11
7117.779984992935
 21
1942.641760450682
 31
0.0
  0
LINE
  5
1FDB3
330
747D
100
AcDbEntity
  8
細線
 48
50.0
100
AcDbLine
 10
7060.179984992934
 20
1813.48156838738
 30
0.0
 11
7099.34017705624
 21
1852.641760450682
 31
0.0
  0
LINE
  5
1FDB4
330
747D
100
AcDbEntity
  8
細線
 48
50.0
100
AcDbLine
 10
7060.179984992934
 20
1786.540800024172
 30
0.0
 11
7126.280945419445
 21
1852.641760450682
 31
0.0
  0
LINE
  5
1FDB5
330
747D
100
AcDbEntity
  8
部品1
 48
50.0
100
AcDbLine
 10
7060.179984992934
 20
1852.641760450682
 30
0.0
 11
7474.179984992936
 21
1852.641760450682
 31
0.0
  0
TEXT
  5
1FDB6
330
747D
100
AcDbEntity
  8
部品1
 48
50.0
100
AcDbText
 10
6633.733888413444
 20
2183.202281551158
 30
0.0
 40
80.0
  1
※(別売)
  7
STYLE2
100
AcDbText
  0
LINE
  5
1FDB7
330
747D
100
AcDbEntity
  8
部品1
100
AcDbLine
 10
7077.279984992935
 20
1931.841760450682
 30
0.0
 11
7077.279984992935
 21
1939.941760450683
 31
0.0
  0
ARC
  5
1FDB8
330
747D
100
AcDbEntity
  8
部品1
100
AcDbCircle
 10
7079.979984992935
 20
1939.941760450683
 30
0.0
 40
2.7
100
AcDbArc
 50
90.0
 51
180.0
  0
ARC
  5
1FDB9
330
747D
100
AcDbEntity
  8
部品1
100
AcDbCircle
 10
7069.179984992935
 20
1927.03366415339
 30
0.0
 40
2.7
100
AcDbArc
 50
104.0362434678885
 51
180.0
  0
LINE
  5
1FDBA
330
747D
100
AcDbEntity
  8
部品1
100
AcDbLine
 10
7068.525138805336
 20
1929.653048903782
 30
0.0
 11
7077.279984992935
 21
1931.841760450682
 31
0.0
  0
ARC
  5
1FDBB
330
747D
100
AcDbEntity
  8
部品1
100
AcDbCircle
 10
7069.179984992935
 20
1864.901760450683
 30
0.0
 40
2.7
100
AcDbArc
 50
180.0
 51
270.0
  0
LINE
  5
1FDBC
330
747D
100
AcDbEntity
  8
細線
 48
50.0
100
AcDbLine
 10
7060.179984992934
 20
1840.422336750587
 30
0.0
 11
7072.39940869303
 21
1852.641760450682
 31
0.0
  0
LINE
  5
1FDBD
330
747D
100
AcDbEntity
  8
部品1
100
AcDbLine
 10
7069.179984992935
 20
1862.201760450682
 30
0.0
 11
7080.879984992929
 21
1862.201760450682
 31
0.0
  0
LINE
  5
1FDBE
330
747D
100
AcDbEntity
  8
部品1
100
AcDbLine
 10
7066.479984992935
 20
1864.901760450683
 30
0.0
 11
7066.479984992935
 21
1927.03366415339
 31
0.0
  0
LINE
  5
1FDBF
330
747D
100
AcDbEntity
  8
部品1
100
AcDbLine
 10
7225.13998499293
 20
1862.201760450682
 30
0.0
 11
7426.47998499293
 21
1862.201760450682
 31
0.0
  0
LINE
  5
1FDC0
330
747D
100
AcDbEntity
  8
部品1
100
AcDbLine
 10
7117.779984992935
 20
1942.641760450682
 30
0.0
 11
7117.779984992935
 21
1950.741760450682
 31
0.0
  0
LINE
  5
1FDC1
330
747D
100
AcDbEntity
  8
部品1
100
AcDbLine
 10
7168.179984992935
 20
1961.541760450679
 30
0.0
 11
7168.179984992935
 21
1910.241760450682
 31
0.0
  0
LINE
  5
1FDC2
330
747D
100
AcDbEntity
  8
部品1
100
AcDbLine
 10
7191.579984992936
 20
1922.201760450683
 30
0.0
 11
7219.739984992935
 21
1922.201760450683
 31
0.0
  0
ARC
  5
1FDC3
330
747D
100
AcDbEntity
  8
部品1
100
AcDbCircle
 10
7191.579984992936
 20
1919.501760450683
 30
0.0
 40
2.7
100
AcDbArc
 50
90.0
 51
180.0
  0
ARC
  5
1FDC4
330
747D
100
AcDbEntity
  8
部品1
100
AcDbCircle
 10
7219.739984992935
 20
1919.501760450683
 30
0.0
 40
2.7
100
AcDbArc
 50
0.0
 51
90.0
  0
LINE
  5
1FDC5
330
747D
100
AcDbEntity
  8
部品1
100
AcDbLine
 10
7210.479984992935
 20
1907.541760450682
 30
0.0
 11
7210.479984992935
 21
1864.901760450683
 31
0.0
  0
LINE
  5
1FDC6
330
747D
100
AcDbEntity
  8
部品1
100
AcDbLine
 10
7196.079984992936
 20
1862.201760450682
 30
0.0
 11
7207.779984992935
 21
1862.201760450682
 31
0.0
  0
ARC
  5
1FDC7
330
747D
100
AcDbEntity
  8
部品1
100
AcDbCircle
 10
7225.13998499293
 20
1864.901760450683
 30
0.0
 40
2.7
100
AcDbArc
 50
180.0
 51
270.0
  0
ARC
  5
1FDC8
330
747D
100
AcDbEntity
  8
部品1
100
AcDbCircle
 10
7207.779984992935
 20
1864.901760450683
 30
0.0
 40
2.7
100
AcDbArc
 50
270.0
 51
0.0
  0
LINE
  5
1FDC9
330
747D
100
AcDbEntity
  8
部品1
100
AcDbLine
 10
7168.179984992935
 20
1910.241760450682
 30
0.0
 11
7207.779984992935
 21
1910.241760450682
 31
0.0
  0
ARC
  5
1FDCA
330
747D
100
AcDbEntity
  8
部品1
100
AcDbCircle
 10
7207.779984992935
 20
1907.541760450682
 30
0.0
 40
2.7
100
AcDbArc
 50
0.0
 51
90.0
  0
LINE
  5
1FDCB
330
747D
100
AcDbEntity
  8
部品1
100
AcDbLine
 10
7222.439984992935
 20
1919.501760450683
 30
0.0
 11
7222.439984992933
 21
1864.901760450683
 31
0.0
  0
LINE
  5
1FDCC
330
747D
100
AcDbEntity
  8
部品1
100
AcDbLine
 10
7188.879984992934
 20
1919.501760450683
 30
0.0
 11
7188.879984992934
 21
1902.401760450683
 31
0.0
  0
LINE
  5
1FDCD
330
747D
100
AcDbEntity
  8
細線
100
AcDbLine
 10
7286.979984992935
 20
1862.201760450682
 30
0.0
 11
7286.979984992935
 21
1905.401760450682
 31
0.0
  0
LINE
  5
1FDCE
330
747D
100
AcDbEntity
  8
細線
100
AcDbLine
 10
7276.179984992937
 20
1862.201760450682
 30
0.0
 11
7276.179984992935
 21
1905.401760450682
 31
0.0
  0
LINE
  5
1FDCF
330
747D
100
AcDbEntity
  8
部品1
100
AcDbLine
 10
7272.579984992936
 20
1901.801760450683
 30
0.0
 11
7290.579984992935
 21
1901.801760450683
 31
0.0
  0
LINE
  5
1FDD0
330
747D
100
AcDbEntity
  8
部品1
100
AcDbLine
 10
7276.179984992935
 20
1905.401760450682
 30
0.0
 11
7286.979984992935
 21
1905.401760450682
 31
0.0
  0
ELLIPSE
  5
1FDD1
330
747D
100
AcDbEntity
  8
部品1
 48
50.0
100
AcDbEllipse
 10
7281.579984992935
 20
2121.765048894955
 30
0.0
 11
40.0
 21
0.0
 31
0.0
210
0.0
220
0.0
230
1.0
 40
0.4
 41
0.0
 42
6.283185307179586
  0
ELLIPSE
  5
1FDD2
330
747D
100
AcDbEntity
  8
部品1
 48
50.0
100
AcDbEllipse
 10
7281.579984992935
 20
2112.165048894956
 30
0.0
 11
40.0
 21
0.0
 31
0.0
210
0.0
220
0.0
230
1.0
 40
0.4
 41
3.141592653589793
 42
6.283185307179586
  0
LINE
  5
1FDD3
330
747D
100
AcDbEntity
  8
部品1
 48
50.0
100
AcDbLine
 10
7241.579984992935
 20
2121.765048894955
 30
0.0
 11
7241.579984992935
 21
2112.165048894954
 31
0.0
  0
ARC
  5
1FDD4
330
747D
100
AcDbEntity
  8
部品1
100
AcDbCircle
 10
7165.479984992934
 20
1961.541760450679
 30
0.0
 40
2.7
100
AcDbArc
 50
0.0
 51
90.0
  0
ARC
  5
1FDD5
330
747D
100
AcDbEntity
  8
部品1
100
AcDbCircle
 10
7123.179984992934
 20
1961.541760450682
 30
0.0
 40
2.7
100
AcDbArc
 50
90.0
 51
180.0
  0
LINE
  5
1FDD6
330
747D
100
AcDbEntity
  8
部品1
100
AcDbLine
 10
7120.479984992936
 20
1953.441760450682
 30
0.0
 11
7120.479984992936
 21
1953.441760450682
 31
0.0
  0
LINE
  5
1FDD7
330
747D
100
AcDbEntity
  8
部品1
100
AcDbLine
 10
7120.479984992936
 20
1953.441760450682
 30
0.0
 11
7120.479984992936
 21
1961.541760450682
 31
0.0
  0
LINE
  5
1FDD8
330
747D
100
AcDbEntity
  8
部品1
100
AcDbLine
 10
7123.179984992934
 20
1964.241760450683
 30
0.0
 11
7165.479984992934
 21
1964.241760450679
 31
0.0
  0
ARC
  5
1FDD9
330
747D
100
AcDbEntity
  8
部品1
100
AcDbCircle
 10
7120.479984992936
 20
1950.741760450682
 30
0.0
 40
2.7
100
AcDbArc
 50
90.0
 51
180.0
  0
ELLIPSE
  5
1FDDA
330
747D
100
AcDbEntity
  8
部品1
 48
50.0
100
AcDbEllipse
 10
7281.579984992935
 20
2121.765048894955
 30
0.0
 11
18.4
 21
0.0
 31
0.0
210
0.0
220
0.0
230
1.0
 40
0.3478260869565217
 41
0.0
 42
6.283185307179586
  0
LINE
  5
1FDDB
330
747D
100
AcDbEntity
  8
部品1
 48
50.0
100
AcDbLine
 10
7321.579984992935
 20
2112.165048894954
 30
0.0
 11
7321.579984992935
 21
2121.765048894955
 31
0.0
  0
LINE
  5
1FDDC
330
747D
100
AcDbEntity
  8
部品1
 48
50.0
100
AcDbLine
 10
7249.579984992935
 20
2243.517041559825
 30
0.0
 11
7265.579984992935
 21
2235.517041559825
 31
0.0
  0
LINE
  5
1FDDD
330
747D
100
AcDbEntity
  8
部品1
 48
50.0
100
AcDbLine
 10
7249.579984992935
 20
2211.517041559825
 30
0.0
 11
7265.579984992935
 21
2203.517041559825
 31
0.0
  0
LINE
  5
1FDDE
330
747D
100
AcDbEntity
  8
部品1
 48
50.0
100
AcDbLine
 10
7249.579984992935
 20
2243.517041559825
 30
0.0
 11
7265.579984992935
 21
2251.517041559825
 31
0.0
  0
LINE
  5
1FDDF
330
747D
100
AcDbEntity
  8
部品1
 48
50.0
100
AcDbLine
 10
7249.579984992935
 20
2211.517041559825
 30
0.0
 11
7249.579984992935
 21
2243.517041559825
 31
0.0
  0
LINE
  5
1FDE0
330
747D
100
AcDbEntity
  8
部品1
 48
50.0
100
AcDbLine
 10
7265.579984992935
 20
2251.517041559825
 30
0.0
 11
7297.579984992935
 21
2251.517041559825
 31
0.0
  0
ELLIPSE
  5
1FDE1
330
747D
100
AcDbEntity
  8
細線
 48
50.0
100
AcDbEllipse
 10
7281.579984992935
 20
2243.517041559825
 30
0.0
 11
14.76670786606846
 21
0.0
 31
0.0
210
0.0
220
0.0
230
1.0
 40
0.2071254069489396
 41
0.0
 42
6.283185307179586
  0
LINE
  5
1FDE2
330
747D
100
AcDbEntity
  8
部品1
 48
50.0
100
AcDbLine
 10
7265.579984992935
 20
2203.517041559825
 30
0.0
 11
7297.579984992935
 21
2203.517041559825
 31
0.0
  0
LINE
  5
1FDE3
330
747D
100
AcDbEntity
  8
部品1
 48
50.0
100
AcDbLine
 10
7297.579984992935
 20
2203.517041559825
 30
0.0
 11
7313.579984992935
 21
2211.517041559825
 31
0.0
  0
LINE
  5
1FDE4
330
747D
100
AcDbEntity
  8
部品1
 48
50.0
100
AcDbLine
 10
7265.579984992935
 20
2235.517041559825
 30
0.0
 11
7297.579984992935
 21
2235.517041559825
 31
0.0
  0
LINE
  5
1FDE5
330
747D
100
AcDbEntity
  8
部品1
 48
50.0
100
AcDbLine
 10
7297.579984992935
 20
2235.517041559825
 30
0.0
 11
7313.579984992935
 21
2243.517041559825
 31
0.0
  0
LINE
  5
1FDE6
330
747D
100
AcDbEntity
  8
細線
 48
50.0
100
AcDbLine
 10
7297.579984992935
 20
2203.517041559825
 30
0.0
 11
7297.579984992935
 21
2235.517041559825
 31
0.0
  0
LINE
  5
1FDE7
330
747D
100
AcDbEntity
  8
部品1
 48
50.0
100
AcDbLine
 10
7313.579984992935
 20
2211.517041559825
 30
0.0
 11
7313.579984992935
 21
2243.517041559825
 31
0.0
  0
LINE
  5
1FDE8
330
747D
100
AcDbEntity
  8
細線
 48
50.0
100
AcDbLine
 10
7265.579984992935
 20
2203.517041559825
 30
0.0
 11
7265.579984992935
 21
2235.517041559825
 31
0.0
  0
LINE
  5
1FDE9
330
747D
100
AcDbEntity
  8
部品1
 48
50.0
100
AcDbLine
 10
7297.579984992935
 20
2251.517041559825
 30
0.0
 11
7313.579984992935
 21
2243.517041559825
 31
0.0
  0
TEXT
  5
1FDEA
330
747D
100
AcDbEntity
  8
部品1
100
AcDbText
 10
6894.068898904639
 20
3076.823794440001
 30
0.0
 40
120.0
  1
基礎詳細
  7
STYLE2
100
AcDbText
  0
LINE
  5
1FDEB
330
747D
100
AcDbEntity
  8
部品1
100
AcDbLine
 10
10272.1740831125
 20
292.0687568067815
 30
0.0
 11
10272.1740831125
 21
3256.375726391429
 31
0.0
  0
LINE
  5
1FDEC
330
747D
100
AcDbEntity
  8
細線
100
AcDbLine
 10
9368.349250972476
 20
1612.641760450682
 30
0.0
 11
9173.715917295693
 21
1807.275094127465
 31
0.0
  0
LINE
  5
1FDED
330
747D
100
AcDbEntity
  8
部品1
100
AcDbLine
 10
9173.715917295693
 20
1852.641760450682
 30
0.0
 11
9653.715917295693
 21
1852.641760450682
 31
0.0
  0
LINE
  5
1FDEE
330
747D
100
AcDbEntity
  8
細線
 48
50.0
100
AcDbLine
 10
9307.78680173895
 20
1392.942844797332
 30
0.0
 11
9342.084298370137
 21
1520.942844797331
 31
0.0
  0
LINE
  5
1FDEF
330
747D
100
AcDbEntity
  8
部品1
100
AcDbLine
 10
9053.715917295694
 20
1392.942844797328
 30
0.0
 11
9773.715917295692
 21
1392.942844797332
 31
0.0
  0
LINE
  5
1FDF0
330
747D
100
AcDbEntity
  8
部品1
100
AcDbLine
 10
9053.715917295694
 20
1520.942844797332
 30
0.0
 11
9773.715917295692
 21
1520.942844797335
 31
0.0
  0
LINE
  5
1FDF1
330
747D
100
AcDbEntity
  8
細線
100
AcDbLine
 10
9234.634562788935
 20
1520.942844797332
 30
0.0
 11
9326.333478442281
 21
1612.641760450682
 31
0.0
  0
LWPOLYLINE
  5
1FDF2
330
747D
100
AcDbEntity
  8
部品1
 48
50.0
100
AcDbPolyline
 90
        2
 70
     0
 43
12.0
 10
8789.104655195304
 20
1612.641760450682
 10
9990.196958326929
 20
1612.641760450682
  0
LINE
  5
1FDF3
330
747D
100
AcDbEntity
  8
細線
100
AcDbLine
 10
9317.437562727047
 20
1612.641760450682
 30
0.0
 11
9173.715917295693
 21
1756.363405882035
 31
0.0
  0
TEXT
  5
1FDF4
330
747D
100
AcDbEntity
  8
部品1
 48
50.0
100
AcDbText
 10
8409.59783053719
 20
1345.842019813373
 30
0.0
 40
80.0
  1
ボルトの出
 50
90.0
  7
STYLE2
100
AcDbText
  0
LINE
  5
1FDF5
330
747D
100
AcDbEntity
  8
部品1
100
AcDbLine
 10
9173.715917295693
 20
1612.641760450682
 30
0.0
 11
9173.715917295693
 21
1852.641760450682
 31
0.0
  0
LINE
  5
1FDF6
330
747D
100
AcDbEntity
  8
細線
 48
50.0
100
AcDbLine
 10
9150.010711844451
 20
1392.942844797331
 30
0.0
 11
9184.308208475634
 21
1520.942844797331
 31
0.0
  0
LINE
  5
1FDF7
330
747D
100
AcDbEntity
  8
細線
 48
50.0
100
AcDbLine
 10
9228.898756791704
 20
1392.942844797332
 30
0.0
 11
9263.196253422888
 21
1520.942844797332
 31
0.0
  0
LINE
  5
1FDF8
330
747D
100
AcDbEntity
  8
細線
 48
50.0
100
AcDbLine
 10
9071.122666897204
 20
1392.942844797332
 30
0.0
 11
9105.420163528391
 21
1520.942844797332
 31
0.0
  0
LINE
  5
1FDF9
330
747D
100
AcDbEntity
  8
部品1
100
AcDbLine
 10
9053.715917295694
 20
1392.942844797328
 30
0.0
 11
9053.715917295694
 21
1612.641760450682
 31
0.0
  0
LINE
  5
1FDFA
330
747D
100
AcDbEntity
  8
細線
 48
50.0
100
AcDbLine
 10
9156.441492462803
 20
1416.942844797332
 30
0.0
 11
9162.872273081152
 21
1392.942844797332
 31
0.0
  0
LINE
  5
1FDFB
330
747D
100
AcDbEntity
  8
細線
 48
50.0
100
AcDbLine
 10
9077.553447515553
 20
1416.942844797332
 30
0.0
 11
9083.9842281339
 21
1392.942844797332
 31
0.0
  0
LINE
  5
1FDFC
330
747D
100
AcDbEntity
  8
細線
 48
50.0
100
AcDbLine
 10
9235.329537410057
 20
1416.942844797332
 30
0.0
 11
9241.760318028402
 21
1392.942844797332
 31
0.0
  0
LINE
  5
1FDFD
330
747D
100
AcDbEntity
  8
細線
 48
50.0
100
AcDbLine
 10
9314.217582357301
 20
1416.942844797332
 30
0.0
 11
9320.648362975649
 21
1392.942844797332
 31
0.0
  0
LINE
  5
1FDFE
330
747D
100
AcDbEntity
  8
細線
 48
50.0
100
AcDbLine
 10
9098.989382910042
 20
1496.942844797332
 30
0.0
 11
9092.558602291694
 21
1520.942844797332
 31
0.0
  0
LINE
  5
1FDFF
330
747D
100
AcDbEntity
  8
細線
 48
50.0
100
AcDbLine
 10
9256.765472804545
 20
1496.942844797332
 30
0.0
 11
9250.334692186198
 21
1520.942844797332
 31
0.0
  0
LINE
  5
1FE00
330
747D
100
AcDbEntity
  8
細線
 48
50.0
100
AcDbLine
 10
9177.877427857293
 20
1496.942844797332
 30
0.0
 11
9171.446647238948
 21
1520.942844797332
 31
0.0
  0
LINE
  5
1FE01
330
747D
100
AcDbEntity
  8
細線
100
AcDbLine
 10
9166.75231179502
 20
1520.942844797332
 30
0.0
 11
9258.451227448372
 21
1612.641760450682
 31
0.0
  0
LINE
  5
1FE02
330
747D
100
AcDbEntity
  8
細線
100
AcDbLine
 10
9200.693437291979
 20
1520.942844797332
 30
0.0
 11
9292.392352945325
 21
1612.641760450682
 31
0.0
  0
LINE
  5
1FE03
330
747D
100
AcDbEntity
  8
細線
100
AcDbLine
 10
9588.96656670268
 20
1612.641760450682
 30
0.0
 11
9348.966566702683
 21
1852.641760450682
 31
0.0
  0
LINE
  5
1FE04
330
747D
100
AcDbEntity
  8
細線
100
AcDbLine
 10
9639.878254948111
 20
1612.641760450684
 30
0.0
 11
9399.878254948113
 21
1852.641760450682
 31
0.0
  0
LINE
  5
1FE05
330
747D
100
AcDbEntity
  8
部品1
100
AcDbLine
 10
9653.715917295693
 20
1852.641760450682
 30
0.0
 11
9653.715917295693
 21
1612.641760450682
 31
0.0
  0
LINE
  5
1FE06
330
747D
100
AcDbEntity
  8
細線
 48
50.0
100
AcDbLine
 10
9623.338981527941
 20
1392.942844797329
 30
0.0
 11
9657.636478159124
 21
1520.942844797329
 31
0.0
  0
LINE
  5
1FE07
330
747D
100
AcDbEntity
  8
細線
100
AcDbLine
 10
9594.634562788932
 20
1520.942844797334
 30
0.0
 11
9686.333478442278
 21
1612.641760450682
 31
0.0
  0
LINE
  5
1FE08
330
747D
100
AcDbEntity
  8
細線
 48
50.0
100
AcDbLine
 10
9544.450936580693
 20
1392.942844797331
 30
0.0
 11
9578.748433211865
 21
1520.942844797332
 31
0.0
  0
LINE
  5
1FE09
330
747D
100
AcDbEntity
  8
細線
 48
50.0
100
AcDbLine
 10
9386.674846686199
 20
1392.942844797331
 30
0.0
 11
9420.972343317382
 21
1520.942844797331
 31
0.0
  0
LINE
  5
1FE0A
330
747D
100
AcDbEntity
  8
細線
 48
50.0
100
AcDbLine
 10
9465.562891633442
 20
1392.942844797332
 30
0.0
 11
9499.860388264627
 21
1520.942844797331
 31
0.0
  0
LINE
  5
1FE0B
330
747D
100
AcDbEntity
  8
細線
 48
50.0
100
AcDbLine
 10
9471.993672251795
 20
1416.942844797332
 30
0.0
 11
9478.424452870141
 21
1392.942844797332
 31
0.0
  0
LINE
  5
1FE0C
330
747D
100
AcDbEntity
  8
細線
 48
50.0
100
AcDbLine
 10
9393.105627304548
 20
1416.942844797332
 30
0.0
 11
9399.536407922894
 21
1392.942844797332
 31
0.0
  0
LINE
  5
1FE0D
330
747D
100
AcDbEntity
  8
細線
 48
50.0
100
AcDbLine
 10
9550.881717199041
 20
1416.942844797332
 30
0.0
 11
9557.312497817397
 21
1392.942844797332
 31
0.0
  0
LINE
  5
1FE0E
330
747D
100
AcDbEntity
  8
細線
 48
50.0
100
AcDbLine
 10
9629.76976214629
 20
1416.942844797331
 30
0.0
 11
9636.200542764637
 21
1392.942844797331
 31
0.0
  0
LINE
  5
1FE0F
330
747D
100
AcDbEntity
  8
細線
 48
50.0
100
AcDbLine
 10
9493.429607646282
 20
1496.942844797332
 30
0.0
 11
9486.998827027937
 21
1520.942844797332
 31
0.0
  0
LINE
  5
1FE10
330
747D
100
AcDbEntity
  8
細線
 48
50.0
100
AcDbLine
 10
9414.541562699039
 20
1496.942844797332
 30
0.0
 11
9408.110782080692
 21
1520.942844797332
 31
0.0
  0
LINE
  5
1FE11
330
747D
100
AcDbEntity
  8
細線
 48
50.0
100
AcDbLine
 10
9335.653517751792
 20
1496.942844797332
 30
0.0
 11
9329.222737133445
 21
1520.942844797332
 31
0.0
  0
LINE
  5
1FE12
330
747D
100
AcDbEntity
  8
細線
100
AcDbLine
 10
9560.693437291982
 20
1520.942844797334
 30
0.0
 11
9652.392352945325
 21
1612.641760450682
 31
0.0
  0
LINE
  5
1FE13
330
747D
100
AcDbEntity
  8
細線
 48
50.0
100
AcDbLine
 10
9572.317652593522
 20
1496.942844797332
 30
0.0
 11
9565.886871975175
 21
1520.942844797332
 31
0.0
  0
LINE
  5
1FE14
330
747D
100
AcDbEntity
  8
細線
100
AcDbLine
 10
9526.752311795027
 20
1520.942844797334
 30
0.0
 11
9618.451227448369
 21
1612.641760450682
 31
0.0
  0
LINE
  5
1FE15
330
747D
100
AcDbEntity
  8
細線
 48
50.0
100
AcDbLine
 10
9651.205697540781
 20
1496.942844797331
 30
0.0
 11
9644.774916922433
 21
1520.942844797331
 31
0.0
  0
LINE
  5
1FE16
330
747D
100
AcDbEntity
  8
細線
 48
50.0
100
AcDbLine
 10
9702.227026475185
 20
1392.942844797331
 30
0.0
 11
9736.524523106369
 21
1520.942844797329
 31
0.0
  0
LINE
  5
1FE17
330
747D
100
AcDbEntity
  8
部品1
100
AcDbLine
 10
9773.715917295692
 20
1612.641760450682
 30
0.0
 11
9773.715917295696
 21
1392.942844797332
 31
0.0
  0
LINE
  5
1FE18
330
747D
100
AcDbEntity
  8
細線
 48
50.0
100
AcDbLine
 10
9708.657807093537
 20
1416.942844797331
 30
0.0
 11
9715.088587711884
 21
1392.942844797331
 31
0.0
  0
LINE
  5
1FE19
330
747D
100
AcDbEntity
  8
細線
 48
50.0
100
AcDbLine
 10
9730.093742488024
 20
1496.942844797331
 30
0.0
 11
9723.662961869679
 21
1520.942844797331
 31
0.0
  0
LEADER
  5
1FE1A
330
747D
100
AcDbEntity
  8
寸法
 48
50.0
100
AcDbLeader
  3
INABA_S40G
 73
     0
 74
     0
 75
     1
 40
120.0
 41
185.591883092037
 76
     3
 10
9584.440328911616
 20
1852.641760450682
 30
0.0
 10
9627.578535545261
 20
2009.78808113182
 30
0.0
 10
9727.57853554526
 20
2009.78808113182
 30
0.0
340
1FE1B
1001
ACAD
1000
DSTYLE
1002
{
1070
   174
1070
     0
1070
   272
1070
     1
1070
   279
1070
     1
1070
   288
1070
     0
1070
   341
1005
0
1002
}
  0
MTEXT
  5
1FE1B
102
{ACAD_REACTORS
330
1FE1A
102
}
330
747D
100
AcDbEntity
  8
寸法
 62
     7
 48
50.0
100
AcDbMText
 10
9767.57853554526
 20
2109.78808113182
 30
0.0
 40
120.0
 41
0.8
 71
     4
 72
     1
  1
\A1;C.B
  7
STYLE1
 73
     1
 44
1.0
1001
ACAD
1000
MTEXTBEGIN
1070
    73
1070
     1
1070
    44
1040
1.0
1070
    74
1070
     0
1000
MTEXTEND
  0
LINE
  5
1FEF7
330
747D
100
AcDbEntity
  8
細線
 48
50.0
100
AcDbLine
 10
9151.014055910913
 20
6467.509306142521
 30
0.0
 11
9196.423785881233
 21
6512.919036112844
 31
0.0
  0
LINE
  5
1FEF8
330
747D
100
AcDbEntity
  8
細線
 48
50.0
100
AcDbLine
 10
9151.014055910911
 20
6422.608025537178
 30
0.0
 11
9241.325066486576
 21
6512.91903611284
 31
0.0
  0
LINE
  5
1FEF9
330
747D
100
AcDbEntity
  8
細線
 48
50.0
100
AcDbLine
 10
9151.014055910913
 20
6377.706744931832
 30
0.0
 11
9271.014055910914
 21
6497.706744931836
 31
0.0
  0
LINE
  5
1FEFA
330
747D
100
AcDbEntity
  8
細線
 48
50.0
100
AcDbLine
 10
9151.014055910913
 20
6332.805464326487
 30
0.0
 11
9271.014055910915
 21
6452.805464326488
 31
0.0
  0
LINE
  5
1FEFB
330
747D
100
AcDbEntity
  8
細線
 48
50.0
100
AcDbLine
 10
9176.02890830261
 20
6312.919036112839
 30
0.0
 11
9271.014055910914
 21
6407.904183721142
 31
0.0
  0
LINE
  5
1FEFC
330
747D
100
AcDbEntity
  8
細線
 48
50.0
100
AcDbLine
 10
9220.930188907958
 20
6312.91903611284
 30
0.0
 11
9271.014055910914
 21
6363.002903115797
 31
0.0
  0
LINE
  5
1FEFD
330
747D
100
AcDbEntity
  8
細線
 48
50.0
100
AcDbLine
 10
9265.831469513306
 20
6312.91903611284
 30
0.0
 11
9271.014055910915
 21
6318.10162251045
 31
0.0
  0
LINE
  5
1FEFE
330
747D
100
AcDbEntity
  8
細線
 48
50.0
100
AcDbLine
 10
8061.014055910899
 20
7099.646443697562
 30
0.0
 11
8064.286648326181
 21
7102.919036112843
 31
0.0
  0
LINE
  5
1FEFF
330
747D
100
AcDbEntity
  8
細線
 48
50.0
100
AcDbLine
 10
8061.014055910899
 20
7054.745163092213
 30
0.0
 11
8109.187928931527
 21
7102.919036112843
 31
0.0
  0
LINE
  5
1FF00
330
747D
100
AcDbEntity
  8
細線
 48
50.0
100
AcDbLine
 10
8061.014055910899
 20
7009.843882486869
 30
0.0
 11
8154.089209536873
 21
7102.919036112843
 31
0.0
  0
LINE
  5
1FF01
330
747D
100
AcDbEntity
  8
細線
 48
50.0
100
AcDbLine
 10
8078.990490142214
 20
6982.919036112839
 30
0.0
 11
8198.990490142218
 21
7102.919036112843
 31
0.0
  0
LINE
  5
1FF02
330
747D
100
AcDbEntity
  8
細線
 48
50.0
100
AcDbLine
 10
8123.89177074756
 20
6982.919036112839
 30
0.0
 11
8243.891770747563
 21
7102.919036112841
 31
0.0
  0
LINE
  5
1FF03
330
747D
100
AcDbEntity
  8
細線
 48
50.0
100
AcDbLine
 10
8168.793051352905
 20
6982.919036112838
 30
0.0
 11
8261.014055910898
 21
7075.140040670831
 31
0.0
  0
LINE
  5
1FF04
330
747D
100
AcDbEntity
  8
細線
 48
50.0
100
AcDbLine
 10
8213.694331958251
 20
6982.919036112838
 30
0.0
 11
8261.014055910898
 21
7030.238760065486
 31
0.0
  0
LINE
  5
1FF05
330
747D
100
AcDbEntity
  8
細線
 48
50.0
100
AcDbLine
 10
7051.014055910911
 20
6487.509306142522
 30
0.0
 11
7076.423785881232
 21
6512.919036112844
 31
0.0
  0
LINE
  5
1FF06
330
747D
100
AcDbEntity
  8
細線
 48
50.0
100
AcDbLine
 10
7051.014055910911
 20
6442.608025537177
 30
0.0
 11
7121.325066486575
 21
6512.91903611284
 31
0.0
  0
LINE
  5
1FF07
330
747D
100
AcDbEntity
  8
細線
 48
50.0
100
AcDbLine
 10
7051.014055910911
 20
6397.706744931831
 30
0.0
 11
7166.226347091923
 21
6512.919036112842
 31
0.0
  0
LINE
  5
1FF08
330
747D
100
AcDbEntity
  8
細線
 48
50.0
100
AcDbLine
 10
7051.014055910911
 20
6352.805464326485
 30
0.0
 11
7171.014055910915
 21
6472.805464326488
 31
0.0
  0
LINE
  5
1FF09
330
747D
100
AcDbEntity
  8
細線
 48
50.0
100
AcDbLine
 10
7056.028908302612
 20
6312.919036112839
 30
0.0
 11
7171.014055910915
 21
6427.904183721143
 31
0.0
  0
LINE
  5
1FF0A
330
747D
100
AcDbEntity
  8
細線
 48
50.0
100
AcDbLine
 10
7100.930188907959
 20
6312.919036112842
 30
0.0
 11
7171.014055910915
 21
6383.002903115798
 31
0.0
  0
LINE
  5
1FF0B
330
747D
100
AcDbEntity
  8
細線
 48
50.0
100
AcDbLine
 10
7145.831469513307
 20
6312.919036112843
 30
0.0
 11
7171.014055910915
 21
6338.101622510455
 31
0.0
  0
LINE
  5
1FF0C
330
747D
100
AcDbEntity
  8
細線
 48
50.0
100
AcDbLine
 10
8061.014055910915
 20
5887.311867353258
 30
0.0
 11
8066.621224670521
 21
5892.919036112867
 31
0.0
  0
LINE
  5
1FF0D
330
747D
100
AcDbEntity
  8
細線
 48
50.0
100
AcDbLine
 10
8061.014055910915
 20
5842.410586747914
 30
0.0
 11
8111.522505275868
 21
5892.919036112866
 31
0.0
  0
LINE
  5
1FF0E
330
747D
100
AcDbEntity
  8
細線
 48
50.0
100
AcDbLine
 10
8061.014055910913
 20
5797.509306142566
 30
0.0
 11
8156.423785881214
 21
5892.919036112868
 31
0.0
  0
LINE
  5
1FF0F
330
747D
100
AcDbEntity
  8
細線
 48
50.0
100
AcDbLine
 10
8061.014055910913
 20
5752.60802553722
 30
0.0
 11
8201.32506648656
 21
5892.919036112868
 31
0.0
  0
LINE
  5
1FF10
330
747D
100
AcDbEntity
  8
細線
 48
50.0
100
AcDbLine
 10
8076.226347091903
 20
5722.919036112864
 30
0.0
 11
8246.226347091907
 21
5892.91903611287
 31
0.0
  0
LINE
  5
1FF11
330
747D
100
AcDbEntity
  8
細線
 48
50.0
100
AcDbLine
 10
8121.12762769725
 20
5722.919036112866
 30
0.0
 11
8261.014055910912
 21
5862.805464326529
 31
0.0
  0
LINE
  5
1FF12
330
747D
100
AcDbEntity
  8
細線
 48
50.0
100
AcDbLine
 10
8166.028908302598
 20
5722.919036112869
 30
0.0
 11
8261.014055910912
 21
5817.904183721183
 31
0.0
  0
LINE
  5
1FF13
330
747D
100
AcDbEntity
  8
細線
 48
50.0
100
AcDbLine
 10
8210.930188907942
 20
5722.91903611287
 30
0.0
 11
8261.014055910912
 21
5773.002903115838
 31
0.0
  0
LINE
  5
1FF14
330
747D
100
AcDbEntity
  8
細線
 48
50.0
100
AcDbLine
 10
8255.831469513292
 20
5722.91903611287
 30
0.0
 11
8261.014055910912
 21
5728.101622510491
 31
0.0
  0
DIMENSION
  5
1FF1F
330
747D
100
AcDbEntity
  8
寸法
 48
50.0
100
AcDbDimension
  2
*D29
 10
9151.014055910913
 20
6564.422404093434
 30
0.0
 11
8931.607955096303
 21
6637.929650469873
 31
0.0
 70
   160
 71
     5
 42
110.0
  3
INABA_S40G
100
AcDbAlignedDimension
 13
9041.014055910913
 23
6872.91903611284
 33
0.0
 14
9151.014055910913
 24
6602.91903611285
 34
0.0
100
AcDbRotatedDimension
1001
ACAD
1000
DSTYLE
1002
{
1070
   174
1070
     0
1070
   272
1070
     1
1070
   279
1070
     1
1070
   288
1070
     0
1070
   341
1005
0
1002
}
  0
TEXT
  5
20168
330
747D
100
AcDbEntity
  8
文字
 62
     7
 48
50.0
100
AcDbText
 10
14816.49629419351
 20
1031.557706291228
 30
0.0
 40
100.0
  1
 <縮尺> S=1/40
  7
STYLE2
100
AcDbText
  0
ENDSEC
  0
SECTION
  2
OBJECTS
  0
DICTIONARY
  5
7471
330
0
100
AcDbDictionary
281
     1
  3
ACAD_COLOR
350
159B0
  3
ACAD_GROUP
350
7472
  3
ACAD_LAYOUT
350
159B1
  3
ACAD_MATERIAL
350
159AF
  3
ACAD_MLINESTYLE
350
7473
  3
ACAD_PLOTSETTINGS
350
159B2
  3
ACAD_PLOTSTYLENAME
350
159AD
  3
ACDBHEADERROUNDTRIPXREC
350
20174
  3
AcDbVariableDictionary
350
1FB44
  3
CONTENTDICTIONARY
350
E71C
  3
DRAWINGVARIABLESDICT
350
F3B9
  0
DICTIONARY
  5
1FB9C
330
7467
100
AcDbDictionary
280
     1
281
     1
  3
ACAD_LAYERSTATES
360
1FB9D
  0
DICTIONARY
  5
159B0
102
{ACAD_REACTORS
330
7471
102
}
330
7471
100
AcDbDictionary
281
     1
  0
DICTIONARY
  5
7472
102
{ACAD_REACTORS
330
7471
102
}
330
7471
100
AcDbDictionary
281
     1
  0
DICTIONARY
  5
159B1
102
{ACAD_REACTORS
330
7471
102
}
330
7471
100
AcDbDictionary
281
     1
  3
Model
350
159B3
  3
レイアウト1
350
159B4
  0
DICTIONARY
  5
159AF
102
{ACAD_REACTORS
330
7471
102
}
330
7471
100
AcDbDictionary
281
     1
  0
DICTIONARY
  5
7473
102
{ACAD_REACTORS
330
7471
102
}
330
7471
100
AcDbDictionary
281
     1
  3
STANDARD
350
7480
  0
DICTIONARY
  5
159B2
102
{ACAD_REACTORS
330
7471
102
}
330
7471
100
AcDbDictionary
281
     1
  0
ACDBDICTIONARYWDFLT
  5
159AD
102
{ACAD_REACTORS
330
7471
102
}
330
7471
100
AcDbDictionary
281
     1
  3
Normal
350
159AE
100
AcDbDictionaryWithDefault
340
159AE
  0
DICTIONARY
  5
20174
102
{ACAD_REACTORS
330
7471
102
}
330
7471
100
AcDbDictionary
281
     1
  3
COLORDICT
350
20176
  3
MATERIALDICT
350
20175
  0
DICTIONARY
  5
1FB44
102
{ACAD_REACTORS
330
7471
102
}
330
7471
100
AcDbDictionary
281
     1
  3
DIMASSOC
350
1FB45
  3
PROJECTNAME
350
1FB46
  0
DICTIONARY
  5
E71C
102
{ACAD_REACTORS
330
7471
102
}
330
7471
100
AcDbDictionary
281
     1
  0
DICTIONARY
  5
F3B9
102
{ACAD_REACTORS
330
7471
102
}
330
7471
100
AcDbDictionary
281
     1
1001
DRAWINGVARIABLESXDATA
1000
POLARMODE
1000
1
  0
DICTIONARY
  5
1FB9D
102
{ACAD_REACTORS
330
1FB9C
102
}
330
1FB9C
100
AcDbDictionary
281
     1
  0
LAYOUT
  5
159B3
102
{ACAD_XDICTIONARY
360
20177
102
}
102
{ACAD_REACTORS
330
159B1
102
}
330
159B1
100
AcDbPlotSettings
  1

  2
none_device
  4
Letter_(8.50_x_11.00_Inches)
  6

 40
6.349999904632568
 41
6.349999904632568
 42
6.350006103515625
 43
6.350006103515625
 44
215.8999938964844
 45
279.3999938964844
 46
0.0
 47
0.0
 48
0.0
 49
0.0
140
0.0
141
0.0
142
1.0
143
1.0
 70
 11952
 72
     1
 73
     1
 74
     0
  7

 75
     0
147
1.0
148
-4149.571981164617
149
65.56433826894044
100
AcDbLayout
  1
Model
 70
     1
 71
     0
 10
0.0
 20
0.0
 11
12.0
 21
9.0
 12
0.0
 22
0.0
 32
0.0
 14
0.0
 24
0.0
 34
0.0
 15
0.0
 25
0.0
 35
0.0
146
0.0
 13
0.0
 23
0.0
 33
0.0
 16
1.0
 26
0.0
 36
0.0
 17
0.0
 27
1.0
 37
0.0
 76
     0
330
747D
  0
LAYOUT
  5
159B4
102
{ACAD_XDICTIONARY
360
20179
102
}
102
{ACAD_REACTORS
330
159B1
102
}
330
159B1
100
AcDbPlotSettings
  1

  2
自動 EPSON LP-8400FX (TATENO 上)
  4

  6

 40
0.0
 41
0.0
 42
0.0
 43
0.0
 44
0.0
 45
0.0
 46
0.0
 47
0.0
 48
0.0
 49
0.0
140
0.0
141
0.0
142
1.0
143
1.0
 70
   688
 72
     0
 73
     0
 74
     5
  7
inaba.ctb
 75
    16
147
1.0
148
0.0
149
0.0
100
AcDbLayout
  1
レイアウト1
 70
     0
 71
     1
 10
0.0
 20
0.0
 11
420.0
 21
297.0
 12
0.0
 22
0.0
 32
0.0
 14
1.000000000000000E+20
 24
1.000000000000000E+20
 34
1.000000000000000E+20
 15
-1.000000000000000E+20
 25
-1.000000000000000E+20
 35
-1.000000000000000E+20
146
0.0
 13
0.0
 23
0.0
 33
0.0
 16
1.0
 26
0.0
 36
0.0
 17
0.0
 27
1.0
 37
0.0
 76
     0
330
747A
  0
MLINESTYLE
  5
7480
102
{ACAD_REACTORS
330
7473
102
}
330
7473
100
AcDbMlineStyle
  2
STANDARD
 70
     0
  3

 62
     0
 51
90.0
 52
90.0
 71
     2
 49
0.5
 62
   256
  6
BYLAYER
 49
-0.5
 62
   256
  6
BYLAYER
  0
ACDBPLACEHOLDER
  5
159AE
102
{ACAD_REACTORS
330
159AD
102
}
330
159AD
  0
XRECORD
  5
20176
102
{ACAD_REACTORS
330
20174
102
}
330
20174
100
AcDbXrecord
280
     1
340
159B0
  0
XRECORD
  5
20175
102
{ACAD_REACTORS
330
20174
102
}
330
20174
100
AcDbXrecord
280
     1
340
159AF
  0
DICTIONARYVAR
  5
1FB45
102
{ACAD_REACTORS
330
1FB44
102
}
330
1FB44
100
DictionaryVariables
280
     0
  1
1
  0
DICTIONARYVAR
  5
1FB46
102
{ACAD_REACTORS
330
1FB44
102
}
330
1FB44
100
DictionaryVariables
280
     0
  1

  0
DICTIONARY
  5
20177
330
159B3
100
AcDbDictionary
280
     1
281
     1
  3
ACAD_XREC_ROUNDTRIP
360
20178
  0
DICTIONARY
  5
20179
330
159B4
100
AcDbDictionary
280
     1
281
     1
  3
ACAD_XREC_ROUNDTRIP
360
2017A
  0
XRECORD
  5
20178
102
{ACAD_REACTORS
330
20177
102
}
330
20177
100
AcDbXrecord
280
     1
102
SHADEPLOT
 70
     0
102
SHADEPLOTRESLEVEL
 70
     2
102
SHADEPLOTCUSTOMDPI
 70
   300
  0
XRECORD
  5
2017A
102
{ACAD_REACTORS
330
20179
102
}
330
20179
100
AcDbXrecord
280
     1
102
SHADEPLOT
 70
     0
102
SHADEPLOTRESLEVEL
 70
     2
102
SHADEPLOTCUSTOMDPI
 70
   300
  0
ENDSEC
  0
EOF
