  0
SECTION
  2
HEADER
  9
$ACADVER
  1
AC1015
  9
$ACADMAINTVER
 70
    20
  9
$DWGCODEPAGE
  3
ANSI_932
  9
$INSBASE
 10
0.0
 20
0.0
 30
0.0
  9
$EXTMIN
 10
139.9999999999995
 20
-0.0000000000000909
 30
0.0
  9
$EXTMAX
 10
16307.2
 20
11409.6
 30
0.0
  9
$LIMMIN
 10
0.0
 20
0.0
  9
$LIMMAX
 10
16800.0
 20
11880.0
  9
$ORTHOMODE
 70
     0
  9
$REGENMODE
 70
     1
  9
$FILLMODE
 70
     1
  9
$QTEXTMODE
 70
     0
  9
$MIRRTEXT
 70
     1
  9
$LTSCALE
 40
20.0
  9
$ATTMODE
 70
     1
  9
$TEXTSIZE
 40
4.0
  9
$TRACEWID
 40
1.0
  9
$TEXTSTYLE
  7
STYLE1
  9
$CLAYER
  8
細線
  9
$CELTYPE
  6
BYLAYER
  9
$CECOLOR
 62
   256
  9
$CELTSCALE
 40
50.0
  9
$DISPSILH
 70
     0
  9
$DIMSCALE
 40
40.0
  9
$DIMASZ
 40
2.5
  9
$DIMEXO
 40
0.5
  9
$DIMDLI
 40
7.0
  9
$DIMRND
 40
0.0
  9
$DIMDLE
 40
0.0
  9
$DIMEXE
 40
1.5
  9
$DIMTP
 40
0.0
  9
$DIMTM
 40
0.0
  9
$DIMTXT
 40
3.0
  9
$DIMCEN
 40
0.0
  9
$DIMTSZ
 40
0.0
  9
$DIMTOL
 70
     0
  9
$DIMLIM
 70
     0
  9
$DIMTIH
 70
     0
  9
$DIMTOH
 70
     0
  9
$DIMSE1
 70
     0
  9
$DIMSE2
 70
     0
  9
$DIMTAD
 70
     3
  9
$DIMZIN
 70
     8
  9
$DIMBLK
  1

  9
$DIMASO
 70
     1
  9
$DIMSHO
 70
     1
  9
$DIMPOST
  1

  9
$DIMAPOST
  1

  9
$DIMALT
 70
     0
  9
$DIMALTD
 70
     2
  9
$DIMALTF
 40
0.0394
  9
$DIMLFAC
 40
1.0
  9
$DIMTOFL
 70
     1
  9
$DIMTVP
 40
0.0
  9
$DIMTIX
 70
     1
  9
$DIMSOXD
 70
     0
  9
$DIMSAH
 70
     1
  9
$DIMBLK1
  1
DOTSMALL
  9
$DIMBLK2
  1
DOTSMALL
  9
$DIMSTYLE
  2
INABA_S40G
  9
$DIMCLRD
 70
     0
  9
$DIMCLRE
 70
     0
  9
$DIMCLRT
 70
     7
  9
$DIMTFAC
 40
1.0
  9
$DIMGAP
 40
1.0
  9
$DIMJUST
 70
     0
  9
$DIMSD1
 70
     0
  9
$DIMSD2
 70
     0
  9
$DIMTOLJ
 70
     1
  9
$DIMTZIN
 70
     0
  9
$DIMALTZ
 70
     0
  9
$DIMALTTZ
 70
     0
  9
$DIMUPT
 70
     0
  9
$DIMDEC
 70
     1
  9
$DIMTDEC
 70
     4
  9
$DIMALTU
 70
     2
  9
$DIMALTTD
 70
     2
  9
$DIMTXSTY
  7
STYLE1
  9
$DIMAUNIT
 70
     0
  9
$DIMADEC
 70
     0
  9
$DIMALTRND
 40
0.0
  9
$DIMAZIN
 70
     0
  9
$DIMDSEP
 70
    46
  9
$DIMATFIT
 70
     3
  9
$DIMFRAC
 70
     0
  9
$DIMLDRBLK
  1

  9
$DIMLUNIT
 70
     2
  9
$DIMLWD
 70
    -2
  9
$DIMLWE
 70
    -2
  9
$DIMTMOVE
 70
     0
  9
$LUNITS
 70
     2
  9
$LUPREC
 70
     1
  9
$SKETCHINC
 40
1.0
  9
$FILLETRAD
 40
3.0
  9
$AUNITS
 70
     0
  9
$AUPREC
 70
     0
  9
$MENU
  1
acad
  9
$ELEVATION
 40
0.0
  9
$PELEVATION
 40
0.0
  9
$THICKNESS
 40
0.0
  9
$LIMCHECK
 70
     0
  9
$CHAMFERA
 40
0.0
  9
$CHAMFERB
 40
0.0
  9
$CHAMFERC
 40
0.0
  9
$CHAMFERD
 40
0.0
  9
$SKPOLY
 70
     0
  9
$TDCREATE
 40
2451368.612993866
  9
$TDUCREATE
 40
2451368.237993866
  9
$TDUPDATE
 40
2455826.641047813
  9
$TDUUPDATE
 40
2455826.266047813
  9
$TDINDWG
 40
0.7548235995
  9
$TDUSRTIMER
 40
0.7548235995
  9
$USRTIMER
 70
     1
  9
$ANGBASE
 50
0.0
  9
$ANGDIR
 70
     0
  9
$PDMODE
 70
     3
  9
$PDSIZE
 40
2.0
  9
$PLINEWID
 40
0.0
  9
$SPLFRAME
 70
     0
  9
$SPLINETYPE
 70
     6
  9
$SPLINESEGS
 70
     8
  9
$HANDSEED
  5
2307C
  9
$SURFTAB1
 70
     6
  9
$SURFTAB2
 70
     6
  9
$SURFTYPE
 70
     6
  9
$SURFU
 70
     6
  9
$SURFV
 70
     6
  9
$UCSBASE
  2

  9
$UCSNAME
  2

  9
$UCSORG
 10
0.0
 20
0.0
 30
0.0
  9
$UCSXDIR
 10
1.0
 20
0.0
 30
0.0
  9
$UCSYDIR
 10
0.0
 20
1.0
 30
0.0
  9
$UCSORTHOREF
  2

  9
$UCSORTHOVIEW
 70
     0
  9
$UCSORGTOP
 10
0.0
 20
0.0
 30
0.0
  9
$UCSORGBOTTOM
 10
0.0
 20
0.0
 30
0.0
  9
$UCSORGLEFT
 10
0.0
 20
0.0
 30
0.0
  9
$UCSORGRIGHT
 10
0.0
 20
0.0
 30
0.0
  9
$UCSORGFRONT
 10
0.0
 20
0.0
 30
0.0
  9
$UCSORGBACK
 10
0.0
 20
0.0
 30
0.0
  9
$PUCSBASE
  2

  9
$PUCSNAME
  2

  9
$PUCSORG
 10
0.0
 20
0.0
 30
0.0
  9
$PUCSXDIR
 10
1.0
 20
0.0
 30
0.0
  9
$PUCSYDIR
 10
0.0
 20
1.0
 30
0.0
  9
$PUCSORTHOREF
  2

  9
$PUCSORTHOVIEW
 70
     0
  9
$PUCSORGTOP
 10
0.0
 20
0.0
 30
0.0
  9
$PUCSORGBOTTOM
 10
0.0
 20
0.0
 30
0.0
  9
$PUCSORGLEFT
 10
0.0
 20
0.0
 30
0.0
  9
$PUCSORGRIGHT
 10
0.0
 20
0.0
 30
0.0
  9
$PUCSORGFRONT
 10
0.0
 20
0.0
 30
0.0
  9
$PUCSORGBACK
 10
0.0
 20
0.0
 30
0.0
  9
$USERI1
 70
     0
  9
$USERI2
 70
     0
  9
$USERI3
 70
     0
  9
$USERI4
 70
     0
  9
$USERI5
 70
     0
  9
$USERR1
 40
0.0
  9
$USERR2
 40
0.0
  9
$USERR3
 40
0.0
  9
$USERR4
 40
0.0
  9
$USERR5
 40
0.0
  9
$WORLDVIEW
 70
     1
  9
$SHADEDGE
 70
     3
  9
$SHADEDIF
 70
    70
  9
$TILEMODE
 70
     1
  9
$MAXACTVP
 70
    16
  9
$PINSBASE
 10
0.0
 20
0.0
 30
0.0
  9
$PLIMCHECK
 70
     0
  9
$PEXTMIN
 10
1.000000000000000E+20
 20
1.000000000000000E+20
 30
1.000000000000000E+20
  9
$PEXTMAX
 10
-1.000000000000000E+20
 20
-1.000000000000000E+20
 30
-1.000000000000000E+20
  9
$PLIMMIN
 10
0.0
 20
0.0
  9
$PLIMMAX
 10
420.0
 20
297.0
  9
$UNITMODE
 70
     0
  9
$VISRETAIN
 70
     0
  9
$PLINEGEN
 70
     0
  9
$PSLTSCALE
 70
     0
  9
$TREEDEPTH
 70
  3020
  9
$CMLSTYLE
  2
STANDARD
  9
$CMLJUST
 70
     0
  9
$CMLSCALE
 40
1.0
  9
$PROXYGRAPHICS
 70
     1
  9
$MEASUREMENT
 70
     1
  9
$CELWEIGHT
370
    -1
  9
$ENDCAPS
280
     0
  9
$JOINSTYLE
280
     0
  9
$LWDISPLAY
290
     0
  9
$INSUNITS
 70
     0
  9
$HYPERLINKBASE
  1

  9
$STYLESHEET
  1

  9
$XEDIT
290
     1
  9
$CEPSNTYPE
380
     0
  9
$PSTYLEMODE
290
     1
  9
$FINGERPRINTGUID
  2
{5EAC461A-2277-4BF8-9AB0-99C43BB394F0}
  9
$VERSIONGUID
  2
{6E11B4E5-52D3-4CAF-8C9D-B555FB5862F4}
  9
$EXTNAMES
290
     1
  9
$PSVPSCALE
 40
0.0
  9
$OLESTARTUP
290
     0
  0
ENDSEC
  0
SECTION
  2
CLASSES
  0
CLASS
  1
ACDBDICTIONARYWDFLT
  2
AcDbDictionaryWithDefault
  3
ObjectDBX Classes
 90
        0
280
     0
281
     0
  0
CLASS
  1
DICTIONARYVAR
  2
AcDbDictionaryVar
  3
ObjectDBX Classes
 90
        0
280
     0
281
     0
  0
CLASS
  1
ACDBPLACEHOLDER
  2
AcDbPlaceHolder
  3
ObjectDBX Classes
 90
        0
280
     0
281
     0
  0
CLASS
  1
LAYOUT
  2
AcDbLayout
  3
ObjectDBX Classes
 90
        0
280
     0
281
     0
  0
ENDSEC
  0
SECTION
  2
TABLES
  0
TABLE
  2
VPORT
  5
746D
330
0
100
AcDbSymbolTable
 70
     2
  0
VPORT
  5
23074
330
746D
100
AcDbSymbolTableRecord
100
AcDbViewportTableRecord
  2
*Active
 70
     0
 10
0.0
 20
0.0
 11
1.0
 21
1.0
 12
8223.761025238502
 22
5855.51892110829
 13
0.0
 23
0.0
 14
10.0
 24
10.0
 15
10.0
 25
10.0
 16
0.0
 26
0.0
 36
1.0
 17
0.0
 27
0.0
 37
0.0
 40
11801.05715611403
 41
1.522222222222222
 42
50.0
 43
0.0
 44
0.0
 50
0.0
 51
0.0
 71
     0
 72
     0
 73
     1
 74
     0
 75
     0
 76
     0
 77
     0
 78
     0
281
     0
 65
     1
110
0.0
120
0.0
130
0.0
111
1.0
121
0.0
131
0.0
112
0.0
122
1.0
132
0.0
 79
     0
146
0.0
  0
ENDTAB
  0
TABLE
  2
LTYPE
  5
746A
330
0
100
AcDbSymbolTable
 70
     5
  0
LTYPE
  5
7477
330
746A
100
AcDbSymbolTableRecord
100
AcDbLinetypeTableRecord
  2
BYBLOCK
 70
     0
  3

 72
    65
 73
     0
 40
0.0
  0
LTYPE
  5
7478
330
746A
100
AcDbSymbolTableRecord
100
AcDbLinetypeTableRecord
  2
BYLAYER
 70
     0
  3

 72
    65
 73
     0
 40
0.0
  0
LTYPE
  5
7479
330
746A
100
AcDbSymbolTableRecord
100
AcDbLinetypeTableRecord
  2
CONTINUOUS
 70
     0
  3
Solid line
 72
    65
 73
     0
 40
0.0
  0
LTYPE
  5
7816
330
746A
100
AcDbSymbolTableRecord
100
AcDbLinetypeTableRecord
  2
CENTER
 70
     0
  3
____ _ ____ _ ____ _ ____ _ ____ _ ____ _ ____ 
 72
    65
 73
     4
 40
2.0
 49
1.25
 74
     0
 49
-0.25
 74
     0
 49
0.25
 74
     0
 49
-0.25
 74
     0
  0
LTYPE
  5
781A
330
746A
100
AcDbSymbolTableRecord
100
AcDbLinetypeTableRecord
  2
HIDDEN
 70
     0
  3
__ __ __ __ __ __ __ __ __ __ __ __ __ __ __ __
 72
    65
 73
     2
 40
0.375
 49
0.25
 74
     0
 49
-0.125
 74
     0
  0
LTYPE
  5
781B
330
746A
100
AcDbSymbolTableRecord
100
AcDbLinetypeTableRecord
  2
PHANTOM
 70
     0
  3
______  __  __  ______  __  __  ______  __  __ 
 72
    65
 73
     6
 40
2.5
 49
1.25
 74
     0
 49
-0.25
 74
     0
 49
0.25
 74
     0
 49
-0.25
 74
     0
 49
0.25
 74
     0
 49
-0.25
 74
     0
  0
LTYPE
  5
12CC3
330
746A
100
AcDbSymbolTableRecord
100
AcDbLinetypeTableRecord
  2
HIDDENX2
 70
     0
  3
Hidden (2x) ____ ____ ____ ____ ____ ____ ____
 72
    65
 73
     2
 40
19.05
 49
12.7
 74
     0
 49
-6.349999999999999
 74
     0
  0
ENDTAB
  0
TABLE
  2
LAYER
  5
7467
102
{ACAD_XDICTIONARY
360
1758F
102
}
330
0
100
AcDbSymbolTable
 70
    12
  0
LAYER
  5
7474
330
7467
100
AcDbSymbolTableRecord
100
AcDbLayerTableRecord
  2
0
 70
     0
 62
     7
  6
CONTINUOUS
370
    -3
390
173D0
  0
LAYER
  5
DEB2
330
7467
100
AcDbSymbolTableRecord
100
AcDbLayerTableRecord
  2
センター
 70
     0
 62
     3
  6
CENTER
370
    -3
390
173D0
  0
LAYER
  5
DEB3
330
7467
100
AcDbSymbolTableRecord
100
AcDbLayerTableRecord
  2
寸法
 70
     0
 62
     4
  6
CONTINUOUS
370
    -3
390
173D0
  0
LAYER
  5
DEB4
330
7467
100
AcDbSymbolTableRecord
100
AcDbLayerTableRecord
  2
部品1
 70
     0
 62
     7
  6
CONTINUOUS
370
    -3
390
173D0
  0
LAYER
  5
DEB5
330
7467
100
AcDbSymbolTableRecord
100
AcDbLayerTableRecord
  2
補助
 70
     0
 62
    -1
  6
CONTINUOUS
370
    -3
390
173D0
  0
LAYER
  5
DEB6
330
7467
100
AcDbSymbolTableRecord
100
AcDbLayerTableRecord
  2
文字
 70
     0
 62
     7
  6
CONTINUOUS
370
    -3
390
173D0
  0
LAYER
  5
F255
330
7467
100
AcDbSymbolTableRecord
100
AcDbLayerTableRecord
  2
DEFPOINTS
 70
     0
 62
     7
  6
CONTINUOUS
290
     0
370
    -3
390
173D0
  0
LAYER
  5
10B54
330
7467
100
AcDbSymbolTableRecord
100
AcDbLayerTableRecord
  2
仕様書枠
 70
     0
 62
   230
  6
CONTINUOUS
370
    -3
390
173D0
  0
LAYER
  5
11729
330
7467
100
AcDbSymbolTableRecord
100
AcDbLayerTableRecord
  2
Ｇ．Ｌ
 70
     0
 62
    30
  6
CONTINUOUS
370
    -3
390
173D0
  0
LAYER
  5
1173F
330
7467
100
AcDbSymbolTableRecord
100
AcDbLayerTableRecord
  2
細線
 70
     0
 62
     5
  6
CONTINUOUS
370
    -3
390
173D0
  0
LAYER
  5
12CC4
330
7467
100
AcDbSymbolTableRecord
100
AcDbLayerTableRecord
  2
想像線
 70
     0
 62
     6
  6
PHANTOM
370
    -3
390
173D0
  0
LAYER
  5
142E2
330
7467
100
AcDbSymbolTableRecord
100
AcDbLayerTableRecord
  2
破線
 70
     0
 62
     2
  6
HIDDEN
370
    -3
390
173D0
  0
ENDTAB
  0
TABLE
  2
STYLE
  5
7468
330
0
100
AcDbSymbolTable
 70
     7
  0
STYLE
  5
7475
330
7468
100
AcDbSymbolTableRecord
100
AcDbTextStyleTableRecord
  2
STANDARD
 70
     0
 40
0.0
 41
1.0
 50
0.0
 71
     0
 42
4.0
  3
txt
  4
C:\AutoCAD LT\bigfont.shx
  0
STYLE
  5
763C
330
7468
100
AcDbSymbolTableRecord
100
AcDbTextStyleTableRecord
  2
MSMINCHO
 70
     0
 40
0.0
 41
1.0
 50
0.0
 71
     0
 42
1.199999999999999
  3
C:\AutoCAD LT\msminch2.TTF
  4

  0
STYLE
  5
F706
330
7468
100
AcDbSymbolTableRecord
100
AcDbTextStyleTableRecord
  2
STYLE1
 70
     0
 40
0.0
 41
1.0
 50
0.0
 71
     0
 42
4.0
  3
isocp.shx
  4
bigfont.shx
  0
STYLE
  5
103BF
330
7468
100
AcDbSymbolTableRecord
100
AcDbTextStyleTableRecord
  2
STYLE2
 70
     0
 40
0.0
 41
1.0
 50
0.0
 71
     0
 42
100.0
  3
MS PGothic.ttf
  4

1001
ACAD
1000
MS PGothic
1071
    32818
  0
STYLE
  5
10BAA
330
7468
100
AcDbSymbolTableRecord
100
AcDbTextStyleTableRecord
  2
STYLE3
 70
     0
 40
0.0
 41
1.0
 50
0.0
 71
     0
 42
100.0
  3

  4

1001
ACAD
1000
DFPGothic-EB
1071
    32818
  0
STYLE
  5
11A15
330
7468
100
AcDbSymbolTableRecord
100
AcDbTextStyleTableRecord
  2
MSGOTHIC
 70
     0
 40
0.0
 41
1.0
 50
0.0
 71
     0
 42
3.5
  3
msgothi2.ttf
  4

  0
STYLE
  5
13E96
330
7468
100
AcDbSymbolTableRecord
100
AcDbTextStyleTableRecord
  2
MSPゴシック
 70
     0
 40
0.0
 41
1.0
 50
0.0
 71
     0
 42
4.0
  3
MS PGothic.ttf
  4

1001
ACAD
1000
MS PGothic
1071
    32818
  0
ENDTAB
  0
TABLE
  2
VIEW
  5
746B
330
0
100
AcDbSymbolTable
 70
     0
  0
ENDTAB
  0
TABLE
  2
UCS
  5
746C
330
0
100
AcDbSymbolTable
 70
     0
  0
ENDTAB
  0
TABLE
  2
APPID
  5
746E
330
0
100
AcDbSymbolTable
 70
     6
  0
APPID
  5
7476
330
746E
100
AcDbSymbolTableRecord
100
AcDbRegAppTableRecord
  2
ACAD
 70
     0
  0
APPID
  5
DEA9
330
746E
100
AcDbSymbolTableRecord
100
AcDbRegAppTableRecord
  2
CONTENTBLOCKICON
 70
     0
  0
APPID
  5
DEAA
330
746E
100
AcDbSymbolTableRecord
100
AcDbRegAppTableRecord
  2
CONTENTBLOCKDESCRIPTION
 70
     0
  0
APPID
  5
E71D
330
746E
100
AcDbSymbolTableRecord
100
AcDbRegAppTableRecord
  2
CONTENTTABDATA
 70
     0
  0
APPID
  5
E71E
330
746E
100
AcDbSymbolTableRecord
100
AcDbRegAppTableRecord
  2
CONTENTCURRENTTAB
 70
     0
  0
APPID
  5
F3BA
330
746E
100
AcDbSymbolTableRecord
100
AcDbRegAppTableRecord
  2
DRAWINGVARIABLESXDATA
 70
     0
  0
ENDTAB
  0
TABLE
  2
DIMSTYLE
  5
746F
330
0
100
AcDbSymbolTable
 70
     6
100
AcDbDimStyleTable
 71
     1
340
F71F
  0
DIMSTYLE
105
7484
330
746F
100
AcDbSymbolTableRecord
100
AcDbDimStyleTableRecord
  2
JIS
 70
     0
 41
2.5
 42
1.0
 43
7.0
 44
1.0
 73
     0
 74
     0
 77
     1
 78
     8
140
2.5
141
0.0
143
0.0394
147
0.0
172
     1
174
     1
175
     1
340
7475
  0
DIMSTYLE
105
F236
330
746F
100
AcDbSymbolTableRecord
100
AcDbDimStyleTableRecord
  2
INABA_S40
 70
     0
 40
40.0
 41
2.5
 42
0.5
 43
7.0
 44
1.5
 73
     0
 74
     0
 77
     3
 78
     8
140
3.0
141
0.0
143
0.0394
147
1.0
172
     1
173
     1
174
     1
175
     1
178
     7
289
     0
340
7475
341
DEAC
343
DEAC
344
DEAC
  0
DIMSTYLE
105
F71F
102
{ACAD_REACTORS
330
21A8A
330
21A84
330
21A56
330
21A55
330
21A43
330
21A41
330
21A58
330
21A4B
330
21A4A
330
21A49
330
21A48
330
21A46
330
21A57
330
21A70
330
21A60
330
221C7
330
221C8
330
2259F
330
225A0
330
225AB
330
229C2
330
229C7
330
229C8
330
22F4C
330
22FAC
330
22FAF
330
22FB6
330
22FBE
330
22FBF
102
}
330
746F
100
AcDbSymbolTableRecord
100
AcDbDimStyleTableRecord
  2
INABA_S40G
 70
     0
 40
40.0
 41
2.5
 42
0.5
 43
7.0
 44
1.5
 73
     0
 74
     0
 77
     3
 78
     8
140
3.0
141
0.0
143
0.0394
147
1.0
172
     1
173
     1
174
     1
178
     7
271
     1
340
F706
341
F770
343
F770
344
F770
  0
DIMSTYLE
105
142E3
330
746F
100
AcDbSymbolTableRecord
100
AcDbDimStyleTableRecord
  2
INABA_S1
 70
     0
 40
0.0
 41
2.5
 42
0.5
 43
7.0
 44
1.5
 73
     0
 74
     0
 77
     3
 78
     8
140
3.0
141
0.0
143
0.0394
146
0.5
147
0.5
172
     1
173
     1
176
   256
177
   256
178
     7
271
     2
272
     2
284
     8
288
     1
340
7475
341
DEAC
343
DEAC
344
DEAC
  0
DIMSTYLE
105
14463
330
746F
100
AcDbSymbolTableRecord
100
AcDbDimStyleTableRecord
  2
INABA_S30G
 70
     0
 40
30.0
 41
2.5
 42
0.5
 43
7.0
 44
1.5
 73
     0
 74
     0
 77
     3
 78
     8
140
3.0
141
0.0
143
0.0394
147
1.0
172
     1
173
     1
174
     1
175
     1
178
     7
271
     1
340
F706
341
F770
343
F770
344
F770
  0
DIMSTYLE
105
1758E
330
746F
100
AcDbSymbolTableRecord
100
AcDbDimStyleTableRecord
  2
INABA_S50G
 70
     0
 41
125.0
 42
25.0
 43
7.0
 44
75.0
 73
     0
 74
     0
 77
     3
 78
     8
140
150.0
141
0.0
143
0.0394
147
25.0
172
     1
173
     1
174
     1
175
     1
178
     7
271
     1
340
F706
341
F770
343
F770
344
F770
  0
ENDTAB
  0
TABLE
  2
BLOCK_RECORD
  5
7466
330
0
100
AcDbSymbolTable
 70
    48
  0
BLOCK_RECORD
  5
747D
330
7466
100
AcDbSymbolTableRecord
100
AcDbBlockTableRecord
  2
*MODEL_SPACE
340
173D5
  0
BLOCK_RECORD
  5
747A
330
7466
100
AcDbSymbolTableRecord
100
AcDbBlockTableRecord
  2
*PAPER_SPACE
340
173D6
  0
BLOCK_RECORD
  5
DEAC
330
7466
100
AcDbSymbolTableRecord
100
AcDbBlockTableRecord
  2
_OPEN
340
0
  0
BLOCK_RECORD
  5
F770
330
7466
100
AcDbSymbolTableRecord
100
AcDbBlockTableRecord
  2
_DOTSMALL
340
0
102
{BLKREFS
331
18C65
331
18C66
331
18C59
331
18C5A
331
18C4D
331
18C4E
331
18C41
331
18C42
331
18C35
331
18C36
331
18C29
331
18C2A
331
18C1D
331
18C1E
331
18C0F
331
18C10
331
18C03
331
18C04
331
18BF5
331
18BF6
331
18BE7
331
18BE8
331
18BD9
331
18BDA
331
18BCD
331
18BCE
331
21F42
331
21F43
331
21F4C
331
21F4D
331
21F90
331
21F91
331
21F9A
331
21F9B
331
21FA5
331
21FA6
331
21FBA
331
21FBB
331
21FCE
331
21FCF
331
21FD7
331
21FD8
331
21FE0
331
21FE1
331
21FE9
331
21FEA
331
22034
331
22035
331
2204A
331
2204B
331
227FD
331
227FE
331
2280F
331
22810
331
22819
331
2281A
331
22821
331
22822
331
2282A
331
2282B
331
22C2B
331
22C2C
331
22C51
331
22C52
331
22C77
331
22C78
331
22C81
331
22C82
331
22C8B
331
22C8C
331
22C95
331
22C96
331
23023
331
23024
331
2302C
331
2302D
331
23035
331
23036
331
23043
331
23044
331
2304B
331
2304C
331
23055
331
23056
102
}
  0
BLOCK_RECORD
  5
164B4
330
7466
100
AcDbSymbolTableRecord
100
AcDbBlockTableRecord
  2
_DOT
340
0
102
{BLKREFS
331
18C73
331
18C74
102
}
  0
BLOCK_RECORD
  5
18BC8
330
7466
100
AcDbSymbolTableRecord
100
AcDbBlockTableRecord
  2
*D3
340
0
  0
BLOCK_RECORD
  5
18BD4
330
7466
100
AcDbSymbolTableRecord
100
AcDbBlockTableRecord
  2
*D4
340
0
  0
BLOCK_RECORD
  5
18BE0
330
7466
100
AcDbSymbolTableRecord
100
AcDbBlockTableRecord
  2
*D5
340
0
  0
BLOCK_RECORD
  5
18BEE
330
7466
100
AcDbSymbolTableRecord
100
AcDbBlockTableRecord
  2
*D6
340
0
  0
BLOCK_RECORD
  5
18BFC
330
7466
100
AcDbSymbolTableRecord
100
AcDbBlockTableRecord
  2
*D7
340
0
  0
BLOCK_RECORD
  5
18C0A
330
7466
100
AcDbSymbolTableRecord
100
AcDbBlockTableRecord
  2
*D8
340
0
  0
BLOCK_RECORD
  5
18C16
330
7466
100
AcDbSymbolTableRecord
100
AcDbBlockTableRecord
  2
*D9
340
0
  0
BLOCK_RECORD
  5
18C24
330
7466
100
AcDbSymbolTableRecord
100
AcDbBlockTableRecord
  2
*D10
340
0
  0
BLOCK_RECORD
  5
18C30
330
7466
100
AcDbSymbolTableRecord
100
AcDbBlockTableRecord
  2
*D11
340
0
  0
BLOCK_RECORD
  5
18C3C
330
7466
100
AcDbSymbolTableRecord
100
AcDbBlockTableRecord
  2
*D12
340
0
  0
BLOCK_RECORD
  5
18C48
330
7466
100
AcDbSymbolTableRecord
100
AcDbBlockTableRecord
  2
*D13
340
0
  0
BLOCK_RECORD
  5
18C54
330
7466
100
AcDbSymbolTableRecord
100
AcDbBlockTableRecord
  2
*D14
340
0
  0
BLOCK_RECORD
  5
18C60
330
7466
100
AcDbSymbolTableRecord
100
AcDbBlockTableRecord
  2
*D15
340
0
  0
BLOCK_RECORD
  5
18C6C
330
7466
100
AcDbSymbolTableRecord
100
AcDbBlockTableRecord
  2
*D16
340
0
  0
BLOCK_RECORD
  5
18C7A
330
7466
100
AcDbSymbolTableRecord
100
AcDbBlockTableRecord
  2
A$C3B1A506B
340
0
  0
BLOCK_RECORD
  5
1C4CA
330
7466
100
AcDbSymbolTableRecord
100
AcDbBlockTableRecord
  2
_NONE
340
0
  0
BLOCK_RECORD
  5
21AB1
330
7466
100
AcDbSymbolTableRecord
100
AcDbBlockTableRecord
  2
*D19
340
0
  0
BLOCK_RECORD
  5
21ABC
330
7466
100
AcDbSymbolTableRecord
100
AcDbBlockTableRecord
  2
*D20
340
0
  0
BLOCK_RECORD
  5
21AC7
330
7466
100
AcDbSymbolTableRecord
100
AcDbBlockTableRecord
  2
*D21
340
0
  0
BLOCK_RECORD
  5
21AD2
330
7466
100
AcDbSymbolTableRecord
100
AcDbBlockTableRecord
  2
*D22
340
0
  0
BLOCK_RECORD
  5
21ADE
330
7466
100
AcDbSymbolTableRecord
100
AcDbBlockTableRecord
  2
*D23
340
0
  0
BLOCK_RECORD
  5
21AEB
330
7466
100
AcDbSymbolTableRecord
100
AcDbBlockTableRecord
  2
*D24
340
0
  0
BLOCK_RECORD
  5
21AF8
330
7466
100
AcDbSymbolTableRecord
100
AcDbBlockTableRecord
  2
*D25
340
0
  0
BLOCK_RECORD
  5
21B02
330
7466
100
AcDbSymbolTableRecord
100
AcDbBlockTableRecord
  2
*D26
340
0
  0
BLOCK_RECORD
  5
21B0F
330
7466
100
AcDbSymbolTableRecord
100
AcDbBlockTableRecord
  2
*D27
340
0
  0
BLOCK_RECORD
  5
21B1C
330
7466
100
AcDbSymbolTableRecord
100
AcDbBlockTableRecord
  2
*D28
340
0
  0
BLOCK_RECORD
  5
21B29
330
7466
100
AcDbSymbolTableRecord
100
AcDbBlockTableRecord
  2
*D29
340
0
  0
BLOCK_RECORD
  5
21B41
330
7466
100
AcDbSymbolTableRecord
100
AcDbBlockTableRecord
  2
*D30
340
0
  0
BLOCK_RECORD
  5
21B73
330
7466
100
AcDbSymbolTableRecord
100
AcDbBlockTableRecord
  2
*D31
340
0
  0
BLOCK_RECORD
  5
21B7F
330
7466
100
AcDbSymbolTableRecord
100
AcDbBlockTableRecord
  2
*D32
340
0
  0
BLOCK_RECORD
  5
21B99
330
7466
100
AcDbSymbolTableRecord
100
AcDbBlockTableRecord
  2
*D33
340
0
  0
BLOCK_RECORD
  5
22221
330
7466
100
AcDbSymbolTableRecord
100
AcDbBlockTableRecord
  2
*D34
340
0
  0
BLOCK_RECORD
  5
2222E
330
7466
100
AcDbSymbolTableRecord
100
AcDbBlockTableRecord
  2
*D35
340
0
  0
BLOCK_RECORD
  5
225FF
330
7466
100
AcDbSymbolTableRecord
100
AcDbBlockTableRecord
  2
*D36
340
0
  0
BLOCK_RECORD
  5
2260B
330
7466
100
AcDbSymbolTableRecord
100
AcDbBlockTableRecord
  2
*D37
340
0
  0
BLOCK_RECORD
  5
22617
330
7466
100
AcDbSymbolTableRecord
100
AcDbBlockTableRecord
  2
*D38
340
0
  0
BLOCK_RECORD
  5
22A1F
330
7466
100
AcDbSymbolTableRecord
100
AcDbBlockTableRecord
  2
*D39
340
0
  0
BLOCK_RECORD
  5
22A2B
330
7466
100
AcDbSymbolTableRecord
100
AcDbBlockTableRecord
  2
*D40
340
0
  0
BLOCK_RECORD
  5
22A38
330
7466
100
AcDbSymbolTableRecord
100
AcDbBlockTableRecord
  2
*D41
340
0
  0
BLOCK_RECORD
  5
22FC9
330
7466
100
AcDbSymbolTableRecord
100
AcDbBlockTableRecord
  2
*D42
340
0
  0
BLOCK_RECORD
  5
22FD5
330
7466
100
AcDbSymbolTableRecord
100
AcDbBlockTableRecord
  2
*D43
340
0
  0
BLOCK_RECORD
  5
22FE1
330
7466
100
AcDbSymbolTableRecord
100
AcDbBlockTableRecord
  2
*D44
340
0
  0
BLOCK_RECORD
  5
22FED
330
7466
100
AcDbSymbolTableRecord
100
AcDbBlockTableRecord
  2
*D45
340
0
  0
BLOCK_RECORD
  5
22FF9
330
7466
100
AcDbSymbolTableRecord
100
AcDbBlockTableRecord
  2
*D46
340
0
  0
BLOCK_RECORD
  5
2300A
330
7466
100
AcDbSymbolTableRecord
100
AcDbBlockTableRecord
  2
*D47
340
0
  0
ENDTAB
  0
ENDSEC
  0
SECTION
  2
BLOCKS
  0
BLOCK
  5
7489
330
747D
100
AcDbEntity
  8
0
100
AcDbBlockBegin
  2
*MODEL_SPACE
 70
     0
 10
0.0
 20
0.0
 30
0.0
  3
*MODEL_SPACE
  1

  0
ENDBLK
  5
748A
330
747D
100
AcDbEntity
  8
0
100
AcDbBlockEnd
  0
BLOCK
  5
7487
330
747A
100
AcDbEntity
 67
     1
  8
0
100
AcDbBlockBegin
  2
*PAPER_SPACE
 70
     0
 10
0.0
 20
0.0
 30
0.0
  3
*PAPER_SPACE
  1

  0
ENDBLK
  5
7488
330
747A
100
AcDbEntity
 67
     1
  8
0
100
AcDbBlockEnd
  0
BLOCK
  5
DEAD
330
DEAC
100
AcDbEntity
  8
0
100
AcDbBlockBegin
  2
_OPEN
 70
     0
 10
0.0
 20
0.0
 30
0.0
  3
_OPEN
  1

  0
LINE
  5
DEAE
330
DEAC
100
AcDbEntity
  8
0
  6
ByBlock
 62
     0
100
AcDbLine
 10
-1.0
 20
0.1666666666666666
 30
0.0
 11
0.0
 21
0.0
 31
0.0
  0
LINE
  5
DEAF
330
DEAC
100
AcDbEntity
  8
0
  6
ByBlock
 62
     0
100
AcDbLine
 10
0.0
 20
0.0
 30
0.0
 11
-1.0
 21
-0.1666666666666666
 31
0.0
  0
LINE
  5
DEB0
330
DEAC
100
AcDbEntity
  8
0
  6
ByBlock
 62
     0
100
AcDbLine
 10
0.0
 20
0.0
 30
0.0
 11
-1.0
 21
0.0
 31
0.0
  0
ENDBLK
  5
DEB1
330
DEAC
100
AcDbEntity
  8
0
100
AcDbBlockEnd
  0
BLOCK
  5
F771
330
F770
100
AcDbEntity
  8
0
 48
50.0
100
AcDbBlockBegin
  2
_DOTSMALL
 70
     0
 10
0.0
 20
0.0
 30
0.0
  3
_DOTSMALL
  1

  0
LWPOLYLINE
  5
F772
330
F770
100
AcDbEntity
  8
0
  6
ByBlock
 62
     0
 48
50.0
100
AcDbPolyline
 90
        2
 70
     1
 43
0.5
 10
-0.0625
 20
0.0
 42
1.0
 10
0.0625
 20
0.0
 42
1.0
  0
ENDBLK
  5
F776
330
F770
100
AcDbEntity
  8
0
 48
50.0
100
AcDbBlockEnd
  0
BLOCK
  5
164BA
330
164B4
100
AcDbEntity
  8
0
 48
50.0
100
AcDbBlockBegin
  2
_DOT
 70
     0
 10
0.0
 20
0.0
 30
0.0
  3
_DOT
  1

  0
LWPOLYLINE
  5
164B5
330
164B4
100
AcDbEntity
  8
0
  6
ByBlock
 62
     0
 48
50.0
100
AcDbPolyline
 90
        2
 70
     1
 43
0.5
 10
-0.25
 20
0.0
 42
1.0
 10
0.25
 20
0.0
 42
1.0
  0
LINE
  5
164B9
330
164B4
100
AcDbEntity
  8
0
  6
ByBlock
 62
     0
 48
50.0
100
AcDbLine
 10
-0.5
 20
0.0
 30
0.0
 11
-1.0
 21
0.0
 31
0.0
  0
ENDBLK
  5
164BB
330
164B4
100
AcDbEntity
  8
0
 48
50.0
100
AcDbBlockEnd
  0
BLOCK
  5
18BC9
330
18BC8
100
AcDbEntity
  8
0
 48
50.0
100
AcDbBlockBegin
  2
*D3
 70
     1
 10
0.0
 20
0.0
 30
0.0
  3
*D3
  1

  0
LINE
  5
18BCA
330
18BC8
100
AcDbEntity
  8
寸法
 62
     0
 48
50.0
370
    -2
100
AcDbLine
 10
7649.896575106999
 20
9636.123139034717
 30
0.0
 11
8702.429862581047
 21
9636.123139034717
 31
0.0
  0
LINE
  5
18BCB
330
18BC8
100
AcDbEntity
  8
寸法
 62
     0
 48
50.0
370
    -2
100
AcDbLine
 10
7649.896575106973
 20
7846.123139034709
 30
0.0
 11
8702.429862581047
 21
7846.123139034709
 31
0.0
  0
LINE
  5
18BCC
330
18BC8
100
AcDbEntity
  8
寸法
 62
     0
 48
50.0
370
    -2
100
AcDbLine
 10
8642.429862581046
 20
9636.123139034717
 30
0.0
 11
8642.429862581046
 21
7846.123139034709
 31
0.0
  0
INSERT
  5
18BCD
330
18BC8
100
AcDbEntity
  8
寸法
 62
     0
 48
50.0
370
    -2
100
AcDbBlockReference
  2
_DOTSMALL
 10
8642.429862581046
 20
9636.123139034717
 30
0.0
 41
100.0
 42
100.0
 43
100.0
 50
90.0
  0
INSERT
  5
18BCE
330
18BC8
100
AcDbEntity
  8
寸法
 62
     0
 48
50.0
370
    -2
100
AcDbBlockReference
  2
_DOTSMALL
 10
8642.429862581046
 20
7846.123139034709
 30
0.0
 41
100.0
 42
100.0
 43
100.0
 50
270.0
  0
MTEXT
  5
18BCF
330
18BC8
100
AcDbEntity
  8
寸法
 62
     7
 48
50.0
100
AcDbMText
 10
8542.429862581045
 20
8741.123139034712
 30
0.0
 40
120.0
 41
0.0
 71
     5
 72
     1
  1
\A1;1790
  7
STYLE1
 11
0.0000000000000001
 21
1.0
 31
0.0
 73
     1
 44
1.0
1001
ACAD
1000
MTEXTBEGIN
1070
    73
1070
     1
1070
    44
1040
1.0
1070
    74
1070
     0
1000
MTEXTEND
  0
POINT
  5
18BD0
330
18BC8
100
AcDbEntity
  8
DEFPOINTS
 62
     0
 48
50.0
100
AcDbPoint
 10
7629.896575106998
 20
9636.123139034717
 30
0.0
  0
POINT
  5
18BD1
330
18BC8
100
AcDbEntity
  8
DEFPOINTS
 62
     0
 48
50.0
100
AcDbPoint
 10
7629.896575106974
 20
7846.123139034709
 30
0.0
  0
POINT
  5
18BD2
330
18BC8
100
AcDbEntity
  8
DEFPOINTS
 62
     0
 48
50.0
100
AcDbPoint
 10
8642.429862581046
 20
7846.123139034709
 30
0.0
  0
ENDBLK
  5
18BD3
330
18BC8
100
AcDbEntity
  8
0
 48
50.0
100
AcDbBlockEnd
  0
BLOCK
  5
18BD5
330
18BD4
100
AcDbEntity
  8
0
 48
50.0
100
AcDbBlockBegin
  2
*D4
 70
     1
 10
0.0
 20
0.0
 30
0.0
  3
*D4
  1

  0
LINE
  5
18BD6
330
18BD4
100
AcDbEntity
  8
寸法
 62
     0
 48
50.0
370
    -2
100
AcDbLine
 10
4214.896575106998
 20
9656.123139034622
 30
0.0
 11
4214.896575106998
 21
10211.93135865972
 31
0.0
  0
LINE
  5
18BD7
330
18BD4
100
AcDbEntity
  8
寸法
 62
     0
 48
50.0
370
    -2
100
AcDbLine
 10
7574.896575106999
 20
9656.123139034718
 30
0.0
 11
7574.896575106999
 21
10211.93135865972
 31
0.0
  0
LINE
  5
18BD8
330
18BD4
100
AcDbEntity
  8
寸法
 62
     0
 48
50.0
370
    -2
100
AcDbLine
 10
4214.896575106998
 20
10151.93135865972
 30
0.0
 11
7574.896575106999
 21
10151.93135865972
 31
0.0
  0
INSERT
  5
18BD9
330
18BD4
100
AcDbEntity
  8
寸法
 62
     0
 48
50.0
370
    -2
100
AcDbBlockReference
  2
_DOTSMALL
 10
4214.896575106998
 20
10151.93135865972
 30
0.0
 41
100.0
 42
100.0
 43
100.0
 50
180.0
  0
INSERT
  5
18BDA
330
18BD4
100
AcDbEntity
  8
寸法
 62
     0
 48
50.0
370
    -2
100
AcDbBlockReference
  2
_DOTSMALL
 10
7574.896575106999
 20
10151.93135865972
 30
0.0
 41
100.0
 42
100.0
 43
100.0
  0
MTEXT
  5
18BDB
330
18BD4
100
AcDbEntity
  8
寸法
 62
     7
 48
50.0
100
AcDbMText
 10
5894.896575106997
 20
10251.94316968334
 30
0.0
 40
120.0
 41
0.0
 71
     5
 72
     1
  1
\A1;8X420=3360
  7
STYLE1
 73
     1
 44
1.0
1001
ACAD
1000
MTEXTBEGIN
1070
    73
1070
     1
1070
    44
1040
1.0
1070
    74
1070
     0
1000
MTEXTEND
  0
POINT
  5
18BDC
330
18BD4
100
AcDbEntity
  8
DEFPOINTS
 62
     0
 48
50.0
100
AcDbPoint
 10
4214.896575106998
 20
9636.123139034623
 30
0.0
  0
POINT
  5
18BDD
330
18BD4
100
AcDbEntity
  8
DEFPOINTS
 62
     0
 48
50.0
100
AcDbPoint
 10
7574.896575106999
 20
9636.123139034717
 30
0.0
  0
POINT
  5
18BDE
330
18BD4
100
AcDbEntity
  8
DEFPOINTS
 62
     0
 48
50.0
100
AcDbPoint
 10
7574.896575106999
 20
10151.93135865972
 30
0.0
  0
ENDBLK
  5
18BDF
330
18BD4
100
AcDbEntity
  8
0
 48
50.0
100
AcDbBlockEnd
  0
BLOCK
  5
18BE1
330
18BE0
100
AcDbEntity
  8
0
 48
50.0
100
AcDbBlockBegin
  2
*D5
 70
     1
 10
0.0
 20
0.0
 30
0.0
  3
*D5
  1

  0
LINE
  5
18BE2
330
18BE0
100
AcDbEntity
  8
寸法
 62
     0
 48
50.0
370
    -2
100
AcDbLine
 10
7574.896575106999
 20
9656.123139034718
 30
0.0
 11
7574.896575106999
 21
10211.9313586597
 31
0.0
  0
LINE
  5
18BE3
330
18BE0
100
AcDbEntity
  8
寸法
 62
     0
 48
50.0
370
    -2
100
AcDbLine
 10
7629.896575106998
 20
9656.123139034718
 30
0.0
 11
7629.896575106998
 21
10211.9313586597
 31
0.0
  0
LINE
  5
18BE4
330
18BE0
100
AcDbEntity
  8
寸法
 62
     0
 48
50.0
370
    -2
100
AcDbLine
 10
7574.896575106999
 20
10151.9313586597
 30
0.0
 11
7474.896575106999
 21
10151.9313586597
 31
0.0
  0
LINE
  5
18BE5
330
18BE0
100
AcDbEntity
  8
寸法
 62
     0
 48
50.0
370
    -2
100
AcDbLine
 10
7629.896575106998
 20
10151.9313586597
 30
0.0
 11
8046.867137855477
 21
10151.9313586597
 31
0.0
  0
LINE
  5
18BE6
330
18BE0
100
AcDbEntity
  8
寸法
 62
     0
 48
50.0
370
    -2
100
AcDbLine
 10
7574.896575106999
 20
10151.9313586597
 30
0.0
 11
7629.896575106998
 21
10151.9313586597
 31
0.0
  0
INSERT
  5
18BE7
330
18BE0
100
AcDbEntity
  8
寸法
 62
     0
 48
50.0
370
    -2
100
AcDbBlockReference
  2
_DOTSMALL
 10
7574.896575106999
 20
10151.9313586597
 30
0.0
 41
100.0
 42
100.0
 43
100.0
  0
INSERT
  5
18BE8
330
18BE0
100
AcDbEntity
  8
寸法
 62
     0
 48
50.0
370
    -2
100
AcDbBlockReference
  2
_DOTSMALL
 10
7629.896575106998
 20
10151.9313586597
 30
0.0
 41
100.0
 42
100.0
 43
100.0
 50
180.0
  0
MTEXT
  5
18BE9
330
18BE0
100
AcDbEntity
  8
寸法
 62
     7
 48
50.0
100
AcDbMText
 10
7938.381856481237
 20
10251.9313586597
 30
0.0
 40
120.0
 41
0.0
 71
     5
 72
     1
  1
\A1;55
  7
STYLE1
 73
     1
 44
1.0
1001
ACAD
1000
MTEXTBEGIN
1070
    73
1070
     1
1070
    44
1040
1.0
1070
    74
1070
     0
1000
MTEXTEND
  0
POINT
  5
18BEA
330
18BE0
100
AcDbEntity
  8
DEFPOINTS
 62
     0
 48
50.0
100
AcDbPoint
 10
7574.896575106999
 20
9636.123139034717
 30
0.0
  0
POINT
  5
18BEB
330
18BE0
100
AcDbEntity
  8
DEFPOINTS
 62
     0
 48
50.0
100
AcDbPoint
 10
7629.896575106998
 20
9636.123139034717
 30
0.0
  0
POINT
  5
18BEC
330
18BE0
100
AcDbEntity
  8
DEFPOINTS
 62
     0
 48
50.0
100
AcDbPoint
 10
7629.896575106998
 20
10151.9313586597
 30
0.0
  0
ENDBLK
  5
18BED
330
18BE0
100
AcDbEntity
  8
0
 48
50.0
100
AcDbBlockEnd
  0
BLOCK
  5
18BEF
330
18BEE
100
AcDbEntity
  8
0
 48
50.0
100
AcDbBlockBegin
  2
*D6
 70
     1
 10
0.0
 20
0.0
 30
0.0
  3
*D6
  1

  0
LINE
  5
18BF0
330
18BEE
100
AcDbEntity
  8
寸法
 62
     0
 48
50.0
370
    -2
100
AcDbLine
 10
7649.896575106999
 20
9636.123139034717
 30
0.0
 11
8337.32292084141
 21
9636.123139034717
 31
0.0
  0
LINE
  5
18BF1
330
18BEE
100
AcDbEntity
  8
寸法
 62
     0
 48
50.0
370
    -2
100
AcDbLine
 10
7649.896575106999
 20
9581.123139034721
 30
0.0
 11
8337.32292084141
 21
9581.123139034721
 31
0.0
  0
LINE
  5
18BF2
330
18BEE
100
AcDbEntity
  8
寸法
 62
     0
 48
50.0
370
    -2
100
AcDbLine
 10
8277.322920841411
 20
9581.123139034721
 30
0.0
 11
8277.322920841411
 21
9481.123139034719
 31
0.0
  0
LINE
  5
18BF3
330
18BEE
100
AcDbEntity
  8
寸法
 62
     0
 48
50.0
370
    -2
100
AcDbLine
 10
8277.322920841411
 20
9636.123139034717
 30
0.0
 11
8277.322920841411
 21
10053.09370178319
 31
0.0
  0
LINE
  5
18BF4
330
18BEE
100
AcDbEntity
  8
寸法
 62
     0
 48
50.0
370
    -2
100
AcDbLine
 10
8277.322920841411
 20
9581.123139034721
 30
0.0
 11
8277.322920841411
 21
9636.123139034717
 31
0.0
  0
INSERT
  5
18BF5
330
18BEE
100
AcDbEntity
  8
寸法
 62
     0
 48
50.0
370
    -2
100
AcDbBlockReference
  2
_DOTSMALL
 10
8277.322920841411
 20
9581.123139034721
 30
0.0
 41
100.0
 42
100.0
 43
100.0
 50
90.0
  0
INSERT
  5
18BF6
330
18BEE
100
AcDbEntity
  8
寸法
 62
     0
 48
50.0
370
    -2
100
AcDbBlockReference
  2
_DOTSMALL
 10
8277.322920841411
 20
9636.123139034717
 30
0.0
 41
100.0
 42
100.0
 43
100.0
 50
270.0
  0
MTEXT
  5
18BF7
330
18BEE
100
AcDbEntity
  8
寸法
 62
     7
 48
50.0
100
AcDbMText
 10
8177.32292084141
 20
9944.608420408957
 30
0.0
 40
120.0
 41
0.0
 71
     5
 72
     1
  1
\A1;55
  7
STYLE1
 11
0.0000000000000001
 21
1.0
 31
0.0
 73
     1
 44
1.0
1001
ACAD
1000
MTEXTBEGIN
1070
    73
1070
     1
1070
    44
1040
1.0
1070
    74
1070
     0
1000
MTEXTEND
  0
POINT
  5
18BF8
330
18BEE
100
AcDbEntity
  8
DEFPOINTS
 62
     0
 48
50.0
100
AcDbPoint
 10
7629.896575106998
 20
9636.123139034717
 30
0.0
  0
POINT
  5
18BF9
330
18BEE
100
AcDbEntity
  8
DEFPOINTS
 62
     0
 48
50.0
100
AcDbPoint
 10
7629.896575106998
 20
9581.123139034721
 30
0.0
  0
POINT
  5
18BFA
330
18BEE
100
AcDbEntity
  8
DEFPOINTS
 62
     0
 48
50.0
100
AcDbPoint
 10
8277.322920841411
 20
9581.123139034721
 30
0.0
  0
ENDBLK
  5
18BFB
330
18BEE
100
AcDbEntity
  8
0
 48
50.0
100
AcDbBlockEnd
  0
BLOCK
  5
18BFD
330
18BFC
100
AcDbEntity
  8
0
 48
50.0
100
AcDbBlockBegin
  2
*D7
 70
     1
 10
0.0
 20
0.0
 30
0.0
  3
*D7
  1

  0
LINE
  5
18BFE
330
18BFC
100
AcDbEntity
  8
寸法
 62
     0
 48
50.0
370
    -2
100
AcDbLine
 10
4159.896575106963
 20
9656.123139034622
 30
0.0
 11
4159.896575106963
 21
10211.9313586596
 31
0.0
  0
LINE
  5
18BFF
330
18BFC
100
AcDbEntity
  8
寸法
 62
     0
 48
50.0
370
    -2
100
AcDbLine
 10
4214.896575106998
 20
9656.123139034622
 30
0.0
 11
4214.896575106998
 21
10211.9313586596
 31
0.0
  0
LINE
  5
18C00
330
18BFC
100
AcDbEntity
  8
寸法
 62
     0
 48
50.0
370
    -2
100
AcDbLine
 10
4214.896575106998
 20
10151.9313586596
 30
0.0
 11
4314.896575106998
 21
10151.9313586596
 31
0.0
  0
LINE
  5
18C01
330
18BFC
100
AcDbEntity
  8
寸法
 62
     0
 48
50.0
370
    -2
100
AcDbLine
 10
4159.896575106963
 20
10151.9313586596
 30
0.0
 11
3742.926012358486
 21
10151.9313586596
 31
0.0
  0
LINE
  5
18C02
330
18BFC
100
AcDbEntity
  8
寸法
 62
     0
 48
50.0
370
    -2
100
AcDbLine
 10
4214.896575106998
 20
10151.9313586596
 30
0.0
 11
4159.896575106963
 21
10151.9313586596
 31
0.0
  0
INSERT
  5
18C03
330
18BFC
100
AcDbEntity
  8
寸法
 62
     0
 48
50.0
370
    -2
100
AcDbBlockReference
  2
_DOTSMALL
 10
4214.896575106998
 20
10151.9313586596
 30
0.0
 41
100.0
 42
100.0
 43
100.0
 50
180.0
  0
INSERT
  5
18C04
330
18BFC
100
AcDbEntity
  8
寸法
 62
     0
 48
50.0
370
    -2
100
AcDbBlockReference
  2
_DOTSMALL
 10
4159.896575106963
 20
10151.9313586596
 30
0.0
 41
100.0
 42
100.0
 43
100.0
  0
MTEXT
  5
18C05
330
18BFC
100
AcDbEntity
  8
寸法
 62
     7
 48
50.0
100
AcDbMText
 10
3851.411293732725
 20
10251.9313586596
 30
0.0
 40
120.0
 41
0.0
 71
     5
 72
     1
  1
\A1;55
  7
STYLE1
 73
     1
 44
1.0
1001
ACAD
1000
MTEXTBEGIN
1070
    73
1070
     1
1070
    44
1040
1.0
1070
    74
1070
     0
1000
MTEXTEND
  0
POINT
  5
18C06
330
18BFC
100
AcDbEntity
  8
DEFPOINTS
 62
     0
 48
50.0
100
AcDbPoint
 10
4159.896575106963
 20
9636.123139034623
 30
0.0
  0
POINT
  5
18C07
330
18BFC
100
AcDbEntity
  8
DEFPOINTS
 62
     0
 48
50.0
100
AcDbPoint
 10
4214.896575106998
 20
9636.123139034623
 30
0.0
  0
POINT
  5
18C08
330
18BFC
100
AcDbEntity
  8
DEFPOINTS
 62
     0
 48
50.0
100
AcDbPoint
 10
4214.896575106998
 20
10151.9313586596
 30
0.0
  0
ENDBLK
  5
18C09
330
18BFC
100
AcDbEntity
  8
0
 48
50.0
100
AcDbBlockEnd
  0
BLOCK
  5
18C0B
330
18C0A
100
AcDbEntity
  8
0
 48
50.0
100
AcDbBlockBegin
  2
*D8
 70
     1
 10
0.0
 20
0.0
 30
0.0
  3
*D8
  1

  0
LINE
  5
18C0C
330
18C0A
100
AcDbEntity
  8
寸法
 62
     0
 48
50.0
370
    -2
100
AcDbLine
 10
4159.896575106992
 20
7826.123139034546
 30
0.0
 11
4159.896575106992
 21
6804.372203245664
 31
0.0
  0
LINE
  5
18C0D
330
18C0A
100
AcDbEntity
  8
寸法
 62
     0
 48
50.0
370
    -2
100
AcDbLine
 10
7629.896575106974
 20
7826.123139034674
 30
0.0
 11
7629.896575106974
 21
6804.372203245664
 31
0.0
  0
LINE
  5
18C0E
330
18C0A
100
AcDbEntity
  8
寸法
 62
     0
 48
50.0
370
    -2
100
AcDbLine
 10
4159.896575106992
 20
6864.372203245665
 30
0.0
 11
7629.896575106974
 21
6864.372203245665
 31
0.0
  0
INSERT
  5
18C0F
330
18C0A
100
AcDbEntity
  8
寸法
 62
     0
 48
50.0
370
    -2
100
AcDbBlockReference
  2
_DOTSMALL
 10
4159.896575106992
 20
6864.372203245665
 30
0.0
 41
100.0
 42
100.0
 43
100.0
 50
180.0
  0
INSERT
  5
18C10
330
18C0A
100
AcDbEntity
  8
寸法
 62
     0
 48
50.0
370
    -2
100
AcDbBlockReference
  2
_DOTSMALL
 10
7629.896575106974
 20
6864.372203245665
 30
0.0
 41
100.0
 42
100.0
 43
100.0
  0
MTEXT
  5
18C11
330
18C0A
100
AcDbEntity
  8
寸法
 62
     7
 48
50.0
100
AcDbMText
 10
5911.12376113973
 20
6964.372203245665
 30
0.0
 40
120.0
 41
0.0
 71
     5
 72
     1
  1
\A1;3470
  7
STYLE1
 73
     1
 44
1.0
1001
ACAD
1000
MTEXTBEGIN
1070
    73
1070
     1
1070
    44
1040
1.0
1070
    74
1070
     0
1000
MTEXTEND
  0
POINT
  5
18C12
330
18C0A
100
AcDbEntity
  8
DEFPOINTS
 62
     0
 48
50.0
100
AcDbPoint
 10
4159.896575106992
 20
7846.123139034546
 30
0.0
  0
POINT
  5
18C13
330
18C0A
100
AcDbEntity
  8
DEFPOINTS
 62
     0
 48
50.0
100
AcDbPoint
 10
7629.896575106974
 20
7846.123139034673
 30
0.0
  0
POINT
  5
18C14
330
18C0A
100
AcDbEntity
  8
DEFPOINTS
 62
     0
 48
50.0
100
AcDbPoint
 10
7629.896575106974
 20
6864.372203245665
 30
0.0
  0
ENDBLK
  5
18C15
330
18C0A
100
AcDbEntity
  8
0
 48
50.0
100
AcDbBlockEnd
  0
BLOCK
  5
18C17
330
18C16
100
AcDbEntity
  8
0
 48
50.0
100
AcDbBlockBegin
  2
*D9
 70
     1
 10
0.0
 20
0.0
 30
0.0
  3
*D9
  1

  0
LINE
  5
18C18
330
18C16
100
AcDbEntity
  8
寸法
 62
     0
 48
50.0
370
    -2
100
AcDbLine
 10
7649.896575106973
 20
7901.123139034706
 30
0.0
 11
8337.322920841385
 21
7901.123139034706
 31
0.0
  0
LINE
  5
18C19
330
18C16
100
AcDbEntity
  8
寸法
 62
     0
 48
50.0
370
    -2
100
AcDbLine
 10
7649.896575106973
 20
7846.123139034709
 30
0.0
 11
8337.322920841385
 21
7846.123139034709
 31
0.0
  0
LINE
  5
18C1A
330
18C16
100
AcDbEntity
  8
寸法
 62
     0
 48
50.0
370
    -2
100
AcDbLine
 10
8277.322920841385
 20
7901.123139034706
 30
0.0
 11
8277.322920841385
 21
8001.123139034707
 31
0.0
  0
LINE
  5
18C1B
330
18C16
100
AcDbEntity
  8
寸法
 62
     0
 48
50.0
370
    -2
100
AcDbLine
 10
8277.322920841385
 20
7846.123139034709
 30
0.0
 11
8277.322920841385
 21
7429.152576286229
 31
0.0
  0
LINE
  5
18C1C
330
18C16
100
AcDbEntity
  8
寸法
 62
     0
 48
50.0
370
    -2
100
AcDbLine
 10
8277.322920841385
 20
7901.123139034706
 30
0.0
 11
8277.322920841385
 21
7846.123139034709
 31
0.0
  0
INSERT
  5
18C1D
330
18C16
100
AcDbEntity
  8
寸法
 62
     0
 48
50.0
370
    -2
100
AcDbBlockReference
  2
_DOTSMALL
 10
8277.322920841385
 20
7901.123139034706
 30
0.0
 41
100.0
 42
100.0
 43
100.0
 50
270.0
  0
INSERT
  5
18C1E
330
18C16
100
AcDbEntity
  8
寸法
 62
     0
 48
50.0
370
    -2
100
AcDbBlockReference
  2
_DOTSMALL
 10
8277.322920841385
 20
7846.123139034709
 30
0.0
 41
100.0
 42
100.0
 43
100.0
 50
90.0
  0
MTEXT
  5
18C1F
330
18C16
100
AcDbEntity
  8
寸法
 62
     7
 48
50.0
100
AcDbMText
 10
8177.322920841383
 20
7537.637857660469
 30
0.0
 40
120.0
 41
0.0
 71
     5
 72
     1
  1
\A1;55
  7
STYLE1
 11
0.0000000000000001
 21
1.0
 31
0.0
 73
     1
 44
1.0
1001
ACAD
1000
MTEXTBEGIN
1070
    73
1070
     1
1070
    44
1040
1.0
1070
    74
1070
     0
1000
MTEXTEND
  0
POINT
  5
18C20
330
18C16
100
AcDbEntity
  8
DEFPOINTS
 62
     0
 48
50.0
100
AcDbPoint
 10
7629.896575106974
 20
7901.123139034706
 30
0.0
  0
POINT
  5
18C21
330
18C16
100
AcDbEntity
  8
DEFPOINTS
 62
     0
 48
50.0
100
AcDbPoint
 10
7629.896575106974
 20
7846.123139034709
 30
0.0
  0
POINT
  5
18C22
330
18C16
100
AcDbEntity
  8
DEFPOINTS
 62
     0
 48
50.0
100
AcDbPoint
 10
8277.322920841385
 20
7846.123139034709
 30
0.0
  0
ENDBLK
  5
18C23
330
18C16
100
AcDbEntity
  8
0
 48
50.0
100
AcDbBlockEnd
  0
BLOCK
  5
18C25
330
18C24
100
AcDbEntity
  8
0
 48
50.0
100
AcDbBlockBegin
  2
*D10
 70
     1
 10
0.0
 20
0.0
 30
0.0
  3
*D10
  1

  0
LINE
  5
18C26
330
18C24
100
AcDbEntity
  8
寸法
 62
     0
 48
50.0
370
    -2
100
AcDbLine
 10
6533.037591258376
 20
9136.123139034728
 30
0.0
 11
6465.083950562664
 21
8882.516699399049
 31
0.0
  0
LINE
  5
18C27
330
18C24
100
AcDbEntity
  8
寸法
 62
     0
 48
50.0
370
    -2
100
AcDbLine
 10
7596.037591258388
 20
9136.123139034721
 30
0.0
 11
7528.083950562677
 21
8882.516699399049
 31
0.0
  0
LINE
  5
18C28
330
18C24
100
AcDbEntity
  8
寸法
 62
     0
 48
50.0
370
    -2
100
AcDbLine
 10
6481.160902108531
 20
8942.51669939905
 30
0.0
 11
7544.160902108544
 21
8942.51669939905
 31
0.0
  0
INSERT
  5
18C29
330
18C24
100
AcDbEntity
  8
寸法
 62
     0
 48
50.0
370
    -2
100
AcDbBlockReference
  2
_DOTSMALL
 10
6481.160902108531
 20
8942.51669939905
 30
0.0
 41
100.0
 42
100.0
 43
100.0
 50
180.0
  0
INSERT
  5
18C2A
330
18C24
100
AcDbEntity
  8
寸法
 62
     0
 48
50.0
370
    -2
100
AcDbBlockReference
  2
_DOTSMALL
 10
7544.160902108544
 20
8942.51669939905
 30
0.0
 41
100.0
 42
100.0
 43
100.0
  0
MTEXT
  5
18C2B
330
18C24
100
AcDbEntity
  8
寸法
 62
     7
 48
50.0
100
AcDbMText
 10
7061.28653022935
 20
9042.516699399049
 30
0.0
 40
120.0
 41
0.0
 71
     5
 72
     1
  1
\A1;1063
  7
STYLE1
 73
     1
 44
1.0
1001
ACAD
1000
MTEXTBEGIN
1070
    73
1070
     1
1070
    44
1040
1.0
1070
    74
1070
     0
1000
MTEXTEND
  0
POINT
  5
18C2C
330
18C24
100
AcDbEntity
  8
DEFPOINTS
 62
     0
 48
50.0
100
AcDbPoint
 10
6538.396575106998
 20
9156.123139034727
 30
0.0
  0
POINT
  5
18C2D
330
18C24
100
AcDbEntity
  8
DEFPOINTS
 62
     0
 48
50.0
100
AcDbPoint
 10
7601.39657510701
 20
9156.12313903472
 30
0.0
  0
POINT
  5
18C2E
330
18C24
100
AcDbEntity
  8
DEFPOINTS
 62
     0
 48
50.0
100
AcDbPoint
 10
7544.160902108544
 20
8942.51669939905
 30
0.0
  0
ENDBLK
  5
18C2F
330
18C24
100
AcDbEntity
  8
0
 48
50.0
100
AcDbBlockEnd
  0
BLOCK
  5
18C31
330
18C30
100
AcDbEntity
  8
0
 48
50.0
100
AcDbBlockBegin
  2
*D11
 70
     1
 10
0.0
 20
0.0
 30
0.0
  3
*D11
  1

  0
LINE
  5
18C32
330
18C30
100
AcDbEntity
  8
寸法
 62
     0
 48
50.0
370
    -2
100
AcDbLine
 10
7621.396575106999
 20
9600.764155186094
 30
0.0
 11
8016.754300969024
 21
9494.828371819961
 31
0.0
  0
LINE
  5
18C33
330
18C30
100
AcDbEntity
  8
寸法
 62
     0
 48
50.0
370
    -2
100
AcDbLine
 10
7621.396575106999
 20
9150.764155186099
 30
0.0
 11
8016.754300969024
 21
9044.828371819964
 31
0.0
  0
LINE
  5
18C34
330
18C30
100
AcDbEntity
  8
寸法
 62
     0
 48
50.0
370
    -2
100
AcDbLine
 10
7956.754300969024
 20
9510.905323365827
 30
0.0
 11
7956.754300969024
 21
9060.90532336583
 31
0.0
  0
INSERT
  5
18C35
330
18C30
100
AcDbEntity
  8
寸法
 62
     0
 48
50.0
370
    -2
100
AcDbBlockReference
  2
_DOTSMALL
 10
7956.754300969024
 20
9510.905323365827
 30
0.0
 41
100.0
 42
100.0
 43
100.0
 50
90.0
  0
INSERT
  5
18C36
330
18C30
100
AcDbEntity
  8
寸法
 62
     0
 48
50.0
370
    -2
100
AcDbBlockReference
  2
_DOTSMALL
 10
7956.754300969024
 20
9060.90532336583
 30
0.0
 41
100.0
 42
100.0
 43
100.0
 50
270.0
  0
MTEXT
  5
18C37
330
18C30
100
AcDbEntity
  8
寸法
 62
     7
 48
50.0
100
AcDbMText
 10
7856.754300969022
 20
9285.905323365829
 30
0.0
 40
120.0
 41
0.0
 71
     5
 72
     1
  1
\A1;450
  7
STYLE1
 11
0.0000000000000001
 21
1.0
 31
0.0
 73
     1
 44
1.0
1001
ACAD
1000
MTEXTBEGIN
1070
    73
1070
     1
1070
    44
1040
1.0
1070
    74
1070
     0
1000
MTEXTEND
  0
POINT
  5
18C38
330
18C30
100
AcDbEntity
  8
DEFPOINTS
 62
     0
 48
50.0
100
AcDbPoint
 10
7601.396575106999
 20
9606.123139034718
 30
0.0
  0
POINT
  5
18C39
330
18C30
100
AcDbEntity
  8
DEFPOINTS
 62
     0
 48
50.0
100
AcDbPoint
 10
7601.396575106999
 20
9156.12313903472
 30
0.0
  0
POINT
  5
18C3A
330
18C30
100
AcDbEntity
  8
DEFPOINTS
 62
     0
 48
50.0
100
AcDbPoint
 10
7956.754300969024
 20
9060.90532336583
 30
0.0
  0
ENDBLK
  5
18C3B
330
18C30
100
AcDbEntity
  8
0
 48
50.0
100
AcDbBlockEnd
  0
BLOCK
  5
18C3D
330
18C3C
100
AcDbEntity
  8
0
 48
50.0
100
AcDbBlockBegin
  2
*D12
 70
     1
 10
0.0
 20
0.0
 30
0.0
  3
*D12
  1

  0
LINE
  5
18C3E
330
18C3C
100
AcDbEntity
  8
寸法
 62
     0
 48
50.0
370
    -2
100
AcDbLine
 10
7649.896575106999
 20
9581.123139034721
 30
0.0
 11
8337.32292084141
 21
9581.123139034721
 31
0.0
  0
LINE
  5
18C3F
330
18C3C
100
AcDbEntity
  8
寸法
 62
     0
 48
50.0
370
    -2
100
AcDbLine
 10
7649.896575106973
 20
7901.123139034706
 30
0.0
 11
8337.32292084141
 21
7901.123139034706
 31
0.0
  0
LINE
  5
18C40
330
18C3C
100
AcDbEntity
  8
寸法
 62
     0
 48
50.0
370
    -2
100
AcDbLine
 10
8277.322920841411
 20
9581.123139034721
 30
0.0
 11
8277.322920841411
 21
7901.123139034706
 31
0.0
  0
INSERT
  5
18C41
330
18C3C
100
AcDbEntity
  8
寸法
 62
     0
 48
50.0
370
    -2
100
AcDbBlockReference
  2
_DOTSMALL
 10
8277.322920841411
 20
9581.123139034721
 30
0.0
 41
100.0
 42
100.0
 43
100.0
 50
90.0
  0
INSERT
  5
18C42
330
18C3C
100
AcDbEntity
  8
寸法
 62
     0
 48
50.0
370
    -2
100
AcDbBlockReference
  2
_DOTSMALL
 10
8277.322920841411
 20
7901.123139034706
 30
0.0
 41
100.0
 42
100.0
 43
100.0
 50
270.0
  0
MTEXT
  5
18C43
330
18C3C
100
AcDbEntity
  8
寸法
 62
     7
 48
50.0
100
AcDbMText
 10
8177.311109817788
 20
8741.123139034712
 30
0.0
 40
120.0
 41
0.0
 71
     5
 72
     1
  1
\A1;4X420=1680
  7
STYLE1
 11
0.0000000000000001
 21
1.0
 31
0.0
 73
     1
 44
1.0
1001
ACAD
1000
MTEXTBEGIN
1070
    73
1070
     1
1070
    44
1040
1.0
1070
    74
1070
     0
1000
MTEXTEND
  0
POINT
  5
18C44
330
18C3C
100
AcDbEntity
  8
DEFPOINTS
 62
     0
 48
50.0
100
AcDbPoint
 10
7629.896575106998
 20
9581.123139034721
 30
0.0
  0
POINT
  5
18C45
330
18C3C
100
AcDbEntity
  8
DEFPOINTS
 62
     0
 48
50.0
100
AcDbPoint
 10
7629.896575106974
 20
7901.123139034706
 30
0.0
  0
POINT
  5
18C46
330
18C3C
100
AcDbEntity
  8
DEFPOINTS
 62
     0
 48
50.0
100
AcDbPoint
 10
8277.322920841411
 20
7901.123139034706
 30
0.0
  0
ENDBLK
  5
18C47
330
18C3C
100
AcDbEntity
  8
0
 48
50.0
100
AcDbBlockEnd
  0
BLOCK
  5
18C49
330
18C48
100
AcDbEntity
  8
0
 48
50.0
100
AcDbBlockBegin
  2
*D13
 70
     1
 10
0.0
 20
0.0
 30
0.0
  3
*D13
  1

  0
LINE
  5
18C4A
330
18C48
100
AcDbEntity
  8
寸法
 62
     0
 48
50.0
370
    -2
100
AcDbLine
 10
4183.037591258377
 20
9136.123139034619
 30
0.0
 11
4115.083950562663
 21
8882.516699398941
 31
0.0
  0
LINE
  5
18C4B
330
18C48
100
AcDbEntity
  8
寸法
 62
     0
 48
50.0
370
    -2
100
AcDbLine
 10
5246.037591258307
 20
9136.123139034671
 30
0.0
 11
5178.08395056258
 21
8882.516699398941
 31
0.0
  0
LINE
  5
18C4C
330
18C48
100
AcDbEntity
  8
寸法
 62
     0
 48
50.0
370
    -2
100
AcDbLine
 10
4131.160902108532
 20
8942.516699398941
 30
0.0
 11
5194.160902108448
 21
8942.516699398941
 31
0.0
  0
INSERT
  5
18C4D
330
18C48
100
AcDbEntity
  8
寸法
 62
     0
 48
50.0
370
    -2
100
AcDbBlockReference
  2
_DOTSMALL
 10
4131.160902108532
 20
8942.516699398941
 30
0.0
 41
100.0
 42
100.0
 43
100.0
 50
180.0
  0
INSERT
  5
18C4E
330
18C48
100
AcDbEntity
  8
寸法
 62
     0
 48
50.0
370
    -2
100
AcDbBlockReference
  2
_DOTSMALL
 10
5194.160902108448
 20
8942.516699398941
 30
0.0
 41
100.0
 42
100.0
 43
100.0
  0
MTEXT
  5
18C4F
330
18C48
100
AcDbEntity
  8
寸法
 62
     7
 48
50.0
100
AcDbMText
 10
4658.986452655306
 20
9042.516699398941
 30
0.0
 40
120.0
 41
0.0
 71
     5
 72
     1
  1
\A1;1063
  7
STYLE1
 73
     1
 44
1.0
1001
ACAD
1000
MTEXTBEGIN
1070
    73
1070
     1
1070
    44
1040
1.0
1070
    74
1070
     0
1000
MTEXTEND
  0
POINT
  5
18C50
330
18C48
100
AcDbEntity
  8
DEFPOINTS
 62
     0
 48
50.0
100
AcDbPoint
 10
4188.396575106999
 20
9156.123139034617
 30
0.0
  0
POINT
  5
18C51
330
18C48
100
AcDbEntity
  8
DEFPOINTS
 62
     0
 48
50.0
100
AcDbPoint
 10
5251.396575106929
 20
9156.123139034672
 30
0.0
  0
POINT
  5
18C52
330
18C48
100
AcDbEntity
  8
DEFPOINTS
 62
     0
 48
50.0
100
AcDbPoint
 10
5194.160902108448
 20
8942.516699398941
 30
0.0
  0
ENDBLK
  5
18C53
330
18C48
100
AcDbEntity
  8
0
 48
50.0
100
AcDbBlockEnd
  0
BLOCK
  5
18C55
330
18C54
100
AcDbEntity
  8
0
 48
50.0
100
AcDbBlockBegin
  2
*D14
 70
     1
 10
0.0
 20
0.0
 30
0.0
  3
*D14
  1

  0
LINE
  5
18C56
330
18C54
100
AcDbEntity
  8
寸法
 62
     0
 48
50.0
370
    -2
100
AcDbLine
 10
5274.037591258307
 20
9136.123139034669
 30
0.0
 11
5206.08395056258
 21
8882.516699398941
 31
0.0
  0
LINE
  5
18C57
330
18C54
100
AcDbEntity
  8
寸法
 62
     0
 48
50.0
370
    -2
100
AcDbLine
 10
6505.037591258377
 20
9136.123139034662
 30
0.0
 11
6437.083950562653
 21
8882.516699398941
 31
0.0
  0
LINE
  5
18C58
330
18C54
100
AcDbEntity
  8
寸法
 62
     0
 48
50.0
370
    -2
100
AcDbLine
 10
5222.160902108448
 20
8942.516699398941
 30
0.0
 11
6453.16090210852
 21
8942.516699398941
 31
0.0
  0
INSERT
  5
18C59
330
18C54
100
AcDbEntity
  8
寸法
 62
     0
 48
50.0
370
    -2
100
AcDbBlockReference
  2
_DOTSMALL
 10
5222.160902108448
 20
8942.516699398941
 30
0.0
 41
100.0
 42
100.0
 43
100.0
 50
180.0
  0
INSERT
  5
18C5A
330
18C54
100
AcDbEntity
  8
寸法
 62
     0
 48
50.0
370
    -2
100
AcDbBlockReference
  2
_DOTSMALL
 10
6453.16090210852
 20
8942.516699398941
 30
0.0
 41
100.0
 42
100.0
 43
100.0
  0
MTEXT
  5
18C5B
330
18C54
100
AcDbEntity
  8
寸法
 62
     7
 48
50.0
100
AcDbMText
 10
6081.244808320626
 20
9042.528510422561
 30
0.0
 40
120.0
 41
0.0
 71
     5
 72
     1
  1
\A1;1231
  7
STYLE1
 73
     1
 44
1.0
1001
ACAD
1000
MTEXTBEGIN
1070
    73
1070
     1
1070
    44
1040
1.0
1070
    74
1070
     0
1000
MTEXTEND
  0
POINT
  5
18C5C
330
18C54
100
AcDbEntity
  8
DEFPOINTS
 62
     0
 48
50.0
100
AcDbPoint
 10
5279.396575106929
 20
9156.123139034669
 30
0.0
  0
POINT
  5
18C5D
330
18C54
100
AcDbEntity
  8
DEFPOINTS
 62
     0
 48
50.0
100
AcDbPoint
 10
6510.396575106999
 20
9156.123139034662
 30
0.0
  0
POINT
  5
18C5E
330
18C54
100
AcDbEntity
  8
DEFPOINTS
 62
     0
 48
50.0
100
AcDbPoint
 10
6453.16090210852
 20
8942.516699398941
 30
0.0
  0
ENDBLK
  5
18C5F
330
18C54
100
AcDbEntity
  8
0
 48
50.0
100
AcDbBlockEnd
  0
BLOCK
  5
18C61
330
18C60
100
AcDbEntity
  8
0
 48
50.0
100
AcDbBlockBegin
  2
*D15
 70
     1
 10
0.0
 20
0.0
 30
0.0
  3
*D15
  1

  0
LINE
  5
18C62
330
18C60
100
AcDbEntity
  8
寸法
 62
     0
 48
50.0
370
    -2
100
AcDbLine
 10
5065.896575106966
 20
7749.123139034579
 30
0.0
 11
5065.896575106966
 21
7099.952920982538
 31
0.0
  0
LINE
  5
18C63
330
18C60
100
AcDbEntity
  8
寸法
 62
     0
 48
50.0
370
    -2
100
AcDbLine
 10
6331.896575106966
 20
7749.123139034579
 30
0.0
 11
6331.896575106966
 21
7099.952920982538
 31
0.0
  0
LINE
  5
18C64
330
18C60
100
AcDbEntity
  8
寸法
 62
     0
 48
50.0
370
    -2
100
AcDbLine
 10
5065.896575106966
 20
7159.952920982537
 30
0.0
 11
6331.896575106966
 21
7159.952920982537
 31
0.0
  0
INSERT
  5
18C65
330
18C60
100
AcDbEntity
  8
寸法
 62
     0
 48
50.0
370
    -2
100
AcDbBlockReference
  2
_DOTSMALL
 10
5065.896575106966
 20
7159.952920982537
 30
0.0
 41
100.0
 42
100.0
 43
100.0
 50
180.0
  0
INSERT
  5
18C66
330
18C60
100
AcDbEntity
  8
寸法
 62
     0
 48
50.0
370
    -2
100
AcDbBlockReference
  2
_DOTSMALL
 10
6331.896575106966
 20
7159.952920982537
 30
0.0
 41
100.0
 42
100.0
 43
100.0
  0
MTEXT
  5
18C67
330
18C60
100
AcDbEntity
  8
寸法
 62
     7
 48
50.0
100
AcDbMText
 10
5711.986008735934
 20
7359.964732006159
 30
0.0
 40
120.0
 41
0.0
 71
     5
 72
     1
  1
\A1;有効開口部間口\P1266
  7
STYLE1
 73
     1
 44
1.0
1001
ACAD
1000
MTEXTBEGIN
1070
    73
1070
     1
1070
    44
1040
1.0
1070
    74
1070
     0
1000
MTEXTEND
  0
POINT
  5
18C68
330
18C60
100
AcDbEntity
  8
DEFPOINTS
 62
     0
 48
50.0
100
AcDbPoint
 10
5065.896575106966
 20
7769.123139034579
 30
0.0
  0
POINT
  5
18C69
330
18C60
100
AcDbEntity
  8
DEFPOINTS
 62
     0
 48
50.0
100
AcDbPoint
 10
6331.896575106966
 20
7769.123139034579
 30
0.0
  0
POINT
  5
18C6A
330
18C60
100
AcDbEntity
  8
DEFPOINTS
 62
     0
 48
50.0
100
AcDbPoint
 10
6331.896575106966
 20
7159.952920982537
 30
0.0
  0
ENDBLK
  5
18C6B
330
18C60
100
AcDbEntity
  8
0
 48
50.0
100
AcDbBlockEnd
  0
BLOCK
  5
18C6D
330
18C6C
100
AcDbEntity
  8
0
 48
50.0
100
AcDbBlockBegin
  2
*D16
 70
     1
 10
0.0
 20
0.0
 30
0.0
  3
*D16
  1

  0
LINE
  5
18C6E
330
18C6C
100
AcDbEntity
  8
寸法
 62
     0
 48
50.0
370
    -2
100
AcDbLine
 10
7200.896575106966
 20
7846.123139034578
 30
0.0
 11
7457.192158500191
 21
7846.123139034578
 31
0.0
  0
LINE
  5
18C6F
330
18C6C
100
AcDbEntity
  8
寸法
 62
     0
 48
50.0
370
    -2
100
AcDbLine
 10
7199.896575106966
 20
7769.123139034579
 30
0.0
 11
7457.192158500191
 21
7769.123139034579
 31
0.0
  0
LINE
  5
18C70
330
18C6C
100
AcDbEntity
  8
寸法
 62
     0
 48
50.0
370
    -2
100
AcDbLine
 10
7417.192158500192
 20
7866.123139034579
 30
0.0
 11
7417.192158500192
 21
7886.123139034578
 31
0.0
  0
LINE
  5
18C71
330
18C6C
100
AcDbEntity
  8
寸法
 62
     0
 48
50.0
370
    -2
100
AcDbLine
 10
7417.192158500192
 20
7749.123139034579
 30
0.0
 11
7417.192158500192
 21
7533.123139034573
 31
0.0
  0
LINE
  5
18C72
330
18C6C
100
AcDbEntity
  8
寸法
 62
     0
 48
50.0
370
    -2
100
AcDbLine
 10
7417.192158500192
 20
7846.123139034578
 30
0.0
 11
7417.192158500192
 21
7769.123139034579
 31
0.0
  0
INSERT
  5
18C73
330
18C6C
100
AcDbEntity
  8
寸法
 62
     0
 48
50.0
370
    -2
100
AcDbBlockReference
  2
_DOT
 10
7417.192158500192
 20
7846.123139034578
 30
0.0
 41
20.0
 42
20.0
 43
20.0
 50
270.0
  0
INSERT
  5
18C74
330
18C6C
100
AcDbEntity
  8
寸法
 62
     0
 48
50.0
370
    -2
100
AcDbBlockReference
  2
_DOT
 10
7417.192158500192
 20
7769.123139034579
 30
0.0
 41
20.0
 42
20.0
 43
20.0
 50
90.0
  0
MTEXT
  5
18C75
330
18C6C
100
AcDbEntity
  8
寸法
 62
     7
 48
50.0
100
AcDbMText
 10
7325.192158500191
 20
7631.123139034575
 30
0.0
 40
120.0
 41
0.0
 71
     5
 72
     1
  1
\A1;77
  7
STYLE1
 11
0.0000000000000001
 21
1.0
 31
0.0
 73
     1
 44
1.0
1001
ACAD
1000
MTEXTBEGIN
1070
    73
1070
     1
1070
    44
1040
1.0
1070
    74
1070
     0
1000
MTEXTEND
  0
POINT
  5
18C76
330
18C6C
100
AcDbEntity
  8
DEFPOINTS
 62
     0
 48
50.0
100
AcDbPoint
 10
7180.896575106967
 20
7846.123139034578
 30
0.0
  0
POINT
  5
18C77
330
18C6C
100
AcDbEntity
  8
DEFPOINTS
 62
     0
 48
50.0
100
AcDbPoint
 10
7179.896575106965
 20
7769.123139034579
 30
0.0
  0
POINT
  5
18C78
330
18C6C
100
AcDbEntity
  8
DEFPOINTS
 62
     0
 48
50.0
100
AcDbPoint
 10
7417.192158500192
 20
7769.123139034579
 30
0.0
  0
ENDBLK
  5
18C79
330
18C6C
100
AcDbEntity
  8
0
 48
50.0
100
AcDbBlockEnd
  0
BLOCK
  5
18DA0
330
18C7A
100
AcDbEntity
  8
0
 48
50.0
100
AcDbBlockBegin
  2
A$C3B1A506B
 70
     0
 10
0.0
 20
0.0
 30
0.0
  3
A$C3B1A506B
  1

  0
MTEXT
  5
18C7B
330
18C7A
100
AcDbEntity
  8
寸法
 62
     7
 48
50.0
100
AcDbMText
 10
3342.250386887194
 20
2778.329429134012
 30
0.0
 40
96.0
 41
0.0
 71
     5
 72
     1
  1
棚 2段
  7
STYLE1
 73
     1
 44
1.0
1001
ACAD
1000
MTEXTBEGIN
1070
    73
1070
     1
1070
    44
1040
1.0
1070
    74
1070
     0
1000
MTEXTEND
  0
MTEXT
  5
18C7C
330
18C7A
100
AcDbEntity
  8
寸法
 62
     7
 48
50.0
100
AcDbMText
 10
2167.25038688716
 20
2778.329429133986
 30
0.0
 40
96.0
 41
0.0
 71
     5
 72
     1
  1
棚 2段
  7
STYLE1
 73
     1
 44
1.0
1001
ACAD
1000
MTEXTBEGIN
1070
    73
1070
     1
1070
    44
1040
1.0
1070
    74
1070
     0
1000
MTEXTEND
  0
MTEXT
  5
18C7D
330
18C7A
100
AcDbEntity
  8
寸法
 62
     7
 48
50.0
100
AcDbMText
 10
992.2503868871608
 20
2778.329429133935
 30
0.0
 40
96.0
 41
0.0
 71
     5
 72
     1
  1
棚 2段
  7
STYLE1
 73
     1
 44
1.0
1001
ACAD
1000
MTEXTBEGIN
1070
    73
1070
     1
1070
    44
1040
1.0
1070
    74
1070
     0
1000
MTEXTEND
  0
LINE
  5
18C7E
330
18C7A
100
AcDbEntity
  8
細線
 48
50.0
100
AcDbLine
 10
2771.970589276527
 20
1368.994384123192
 30
0.0
 11
3398.970589276523
 21
1368.994384123192
 31
0.0
  0
LINE
  5
18C7F
330
18C7A
100
AcDbEntity
  8
細線
 48
50.0
100
AcDbLine
 10
2117.970593930113
 20
1335.285615569113
 30
0.0
 11
3398.970589276523
 21
1335.285615569113
 31
0.0
  0
LINE
  5
18C80
330
18C7A
100
AcDbEntity
  8
細線
 48
50.0
100
AcDbLine
 10
2076.970593930115
 20
1364.690523565368
 30
0.0
 11
1322.970589276523
 21
1364.690523565367
 31
0.0
  0
LINE
  5
18C81
330
18C7A
100
AcDbEntity
  8
細線
100
AcDbLine
 10
3170.720579860066
 20
1388.494284088199
 30
0.0
 11
3173.052119381877
 21
1393.494286728162
 31
0.0
  0
LINE
  5
18C82
330
18C7A
100
AcDbEntity
  8
細線
100
AcDbLine
 10
3240.720589276525
 20
1388.494269174465
 30
0.0
 11
3238.389042800336
 21
1393.494286728144
 31
0.0
  0
LINE
  5
18C83
330
18C7A
100
AcDbEntity
  8
細線
100
AcDbLine
 10
3238.389042800336
 20
1393.494286728144
 30
0.0
 11
3173.052119381862
 21
1393.494286728133
 31
0.0
  0
LINE
  5
18C84
330
18C7A
100
AcDbEntity
  8
細線
100
AcDbLine
 10
3098.389042800336
 20
1393.494286728144
 30
0.0
 11
3033.052119381862
 21
1393.494286728133
 31
0.0
  0
LINE
  5
18C85
330
18C7A
100
AcDbEntity
  8
細線
100
AcDbLine
 10
3100.720589276523
 20
1388.494269174465
 30
0.0
 11
3098.389042800336
 21
1393.494286728144
 31
0.0
  0
LINE
  5
18C86
330
18C7A
100
AcDbEntity
  8
細線
100
AcDbLine
 10
3030.720579860066
 20
1388.494284088199
 30
0.0
 11
3033.052119381875
 21
1393.494286728162
 31
0.0
  0
LINE
  5
18C87
330
18C7A
100
AcDbEntity
  8
細線
100
AcDbLine
 10
2890.720589276525
 20
1388.494269174465
 30
0.0
 11
2893.052128798336
 21
1393.494271814428
 31
0.0
  0
LINE
  5
18C88
330
18C7A
100
AcDbEntity
  8
細線
100
AcDbLine
 10
2960.720598692984
 20
1388.494254260731
 30
0.0
 11
2958.389052216793
 21
1393.49427181441
 31
0.0
  0
LINE
  5
18C89
330
18C7A
100
AcDbEntity
  8
細線
100
AcDbLine
 10
2958.389052216795
 20
1393.49427181441
 30
0.0
 11
2893.052128798321
 21
1393.494271814399
 31
0.0
  0
LINE
  5
18C8A
330
18C7A
100
AcDbEntity
  8
細線
100
AcDbLine
 10
2667.139038146739
 20
1359.494298590735
 30
0.0
 11
2601.802114728263
 21
1359.494298590724
 31
0.0
  0
LINE
  5
18C8B
330
18C7A
100
AcDbEntity
  8
細線
100
AcDbLine
 10
2669.470584622926
 20
1354.494281037055
 30
0.0
 11
2667.139038146737
 21
1359.494298590735
 31
0.0
  0
LINE
  5
18C8C
330
18C7A
100
AcDbEntity
  8
細線
100
AcDbLine
 10
2599.470575206469
 20
1354.49429595079
 30
0.0
 11
2601.802114728278
 21
1359.494298590752
 31
0.0
  0
LINE
  5
18C8D
330
18C7A
100
AcDbEntity
  8
細線
 48
50.0
100
AcDbLine
 10
2440.853968524536
 20
1372.765132327548
 30
0.0
 11
2446.609486107205
 21
1354.494281037057
 31
0.0
  0
LINE
  5
18C8E
330
18C7A
100
AcDbEntity
  8
細線
 48
50.0
100
AcDbLine
 10
2429.925520044106
 20
1372.765132327546
 30
0.0
 11
2440.853968524536
 21
1372.765132327548
 31
0.0
  0
ARC
  5
18C8F
330
18C7A
100
AcDbEntity
  8
細線
 48
50.0
100
AcDbCircle
 10
2424.471163986787
 20
1374.265132327546
 30
0.0
 40
5.0
100
AcDbArc
 50
204.6243183520723
 51
335.3756816479278
  0
ARC
  5
18C90
330
18C7A
100
AcDbEntity
  8
細線
 48
50.0
100
AcDbCircle
 10
2429.925520044106
 20
1371.765132327546
 30
0.0
 40
1.0
100
AcDbArc
 50
90.0
 51
155.3756816479277
  0
ARC
  5
18C91
330
18C7A
100
AcDbEntity
  8
細線
 48
50.0
100
AcDbCircle
 10
2419.016807929469
 20
1371.765132327546
 30
0.0
 40
1.0
100
AcDbArc
 50
24.62431835207225
 51
90.0
  0
LINE
  5
18C92
330
18C7A
100
AcDbEntity
  8
細線
 48
50.0
100
AcDbLine
 10
2408.088359449037
 20
1372.765132327548
 30
0.0
 11
2419.016807929469
 21
1372.765132327546
 31
0.0
  0
LINE
  5
18C93
330
18C7A
100
AcDbEntity
  8
細線
 48
50.0
100
AcDbLine
 10
2402.33284186637
 20
1354.494281037054
 30
0.0
 11
2408.088359449037
 21
1372.765132327548
 31
0.0
  0
LINE
  5
18C94
330
18C7A
100
AcDbEntity
  8
細線
100
AcDbLine
 10
2458.070304175992
 20
1354.494278397076
 30
0.0
 11
2460.401843697802
 21
1359.494281037039
 31
0.0
  0
LINE
  5
18C95
330
18C7A
100
AcDbEntity
  8
細線
100
AcDbLine
 10
2528.070313592451
 20
1354.494263483342
 30
0.0
 11
2525.738767116262
 21
1359.494281037021
 31
0.0
  0
LINE
  5
18C96
330
18C7A
100
AcDbEntity
  8
細線
100
AcDbLine
 10
2525.738767116262
 20
1359.494281037021
 30
0.0
 11
2460.40184369779
 21
1359.49428103701
 31
0.0
  0
LINE
  5
18C97
330
18C7A
100
AcDbEntity
  8
細線
100
AcDbLine
 10
2387.139046332155
 20
1359.494281037021
 30
0.0
 11
2321.80212291368
 21
1359.49428103701
 31
0.0
  0
LINE
  5
18C98
330
18C7A
100
AcDbEntity
  8
細線
100
AcDbLine
 10
2389.470592808342
 20
1354.494263483342
 30
0.0
 11
2387.139046332153
 21
1359.494281037021
 31
0.0
  0
LINE
  5
18C99
330
18C7A
100
AcDbEntity
  8
細線
100
AcDbLine
 10
2319.470584622926
 20
1354.494281037054
 30
0.0
 11
2321.802122913694
 21
1359.494281037039
 31
0.0
  0
LINE
  5
18C9A
330
18C7A
100
AcDbEntity
  8
細線
100
AcDbLine
 10
2179.47061994182
 20
1354.494289224422
 30
0.0
 11
2181.802158232587
 21
1359.494289224407
 31
0.0
  0
LINE
  5
18C9B
330
18C7A
100
AcDbEntity
  8
細線
100
AcDbLine
 10
2249.470628127236
 20
1354.49427167071
 30
0.0
 11
2247.139081651047
 21
1359.494289224389
 31
0.0
  0
LINE
  5
18C9C
330
18C7A
100
AcDbEntity
  8
細線
100
AcDbLine
 10
2247.139081651047
 20
1359.494289224389
 30
0.0
 11
2181.802158232573
 21
1359.494289224378
 31
0.0
  0
LINE
  5
18C9D
330
18C7A
100
AcDbEntity
  8
細線
100
AcDbLine
 10
1807.970585744697
 20
1320.494460905133
 30
0.0
 11
1810.302124035464
 21
1325.494460905118
 31
0.0
  0
LINE
  5
18C9E
330
18C7A
100
AcDbEntity
  8
細線
100
AcDbLine
 10
1877.970593930113
 20
1320.494443351421
 30
0.0
 11
1875.639047453926
 21
1325.4944609051
 31
0.0
  0
LINE
  5
18C9F
330
18C7A
100
AcDbEntity
  8
細線
100
AcDbLine
 10
1875.639047453926
 20
1325.4944609051
 30
0.0
 11
1810.302124035452
 21
1325.494460905089
 31
0.0
  0
LINE
  5
18CA0
330
18C7A
100
AcDbEntity
  8
細線
100
AcDbLine
 10
2015.639047453926
 20
1325.4944609051
 30
0.0
 11
1950.302124035452
 21
1325.494460905089
 31
0.0
  0
LINE
  5
18CA1
330
18C7A
100
AcDbEntity
  8
細線
100
AcDbLine
 10
2017.970593930113
 20
1320.494443351421
 30
0.0
 11
2015.639047453924
 21
1325.4944609051
 31
0.0
  0
LINE
  5
18CA2
330
18C7A
100
AcDbEntity
  8
細線
100
AcDbLine
 10
1947.970585744697
 20
1320.494460905133
 30
0.0
 11
1950.302124035465
 21
1325.494460905118
 31
0.0
  0
LINE
  5
18CA3
330
18C7A
100
AcDbEntity
  8
細線
100
AcDbLine
 10
1735.639047453926
 20
1325.494460905098
 30
0.0
 11
1670.302124035454
 21
1325.494460905087
 31
0.0
  0
LINE
  5
18CA4
330
18C7A
100
AcDbEntity
  8
細線
100
AcDbLine
 10
1737.970593930113
 20
1320.494443351419
 30
0.0
 11
1735.639047453926
 21
1325.494460905098
 31
0.0
  0
LINE
  5
18CA5
330
18C7A
100
AcDbEntity
  8
細線
100
AcDbLine
 10
1667.970585744697
 20
1320.494460905131
 30
0.0
 11
1670.302124035465
 21
1325.494460905116
 31
0.0
  0
LINE
  5
18CA6
330
18C7A
100
AcDbEntity
  8
細線
100
AcDbLine
 10
1527.970593930113
 20
1320.494460905133
 30
0.0
 11
1530.302132220881
 21
1325.494460905118
 31
0.0
  0
LINE
  5
18CA7
330
18C7A
100
AcDbEntity
  8
細線
100
AcDbLine
 10
1597.970602115529
 20
1320.494443351421
 30
0.0
 11
1595.639055639342
 21
1325.4944609051
 31
0.0
  0
LINE
  5
18CA8
330
18C7A
100
AcDbEntity
  8
細線
100
AcDbLine
 10
1595.639055639342
 20
1325.4944609051
 30
0.0
 11
1530.302132220869
 21
1325.494460905089
 31
0.0
  0
ARC
  5
18CA9
330
18C7A
100
AcDbEntity
  8
部品1
 48
0.01
100
AcDbCircle
 10
1483.470482677778
 20
1319.493338720063
 30
0.0
 40
0.5
100
AcDbArc
 50
270.0
 51
0.0
  0
LINE
  5
18CAA
330
18C7A
100
AcDbEntity
  8
部品1
 48
0.01
100
AcDbLine
 10
1483.970482677778
 20
1320.493338720063
 30
0.0
 11
1483.970482677778
 21
1319.493338720063
 31
0.0
  0
LINE
  5
18CAB
330
18C7A
100
AcDbEntity
  8
部品1
 48
0.01
100
AcDbLine
 10
1483.970482677778
 20
1320.493338720063
 30
0.0
 11
1483.970482677778
 21
1319.493338720063
 31
0.0
  0
LINE
  5
18CAC
330
18C7A
100
AcDbEntity
  8
部品1
 48
0.01
100
AcDbLine
 10
1483.470482677778
 20
1318.993338720063
 30
0.0
 11
1476.857977247713
 21
1318.993338720062
 31
0.0
  0
ARC
  5
18CAD
330
18C7A
100
AcDbEntity
  8
部品1
100
AcDbCircle
 10
1476.926326800494
 20
1319.993338720062
 30
0.0
 40
1.0
100
AcDbArc
 50
160.5287793655865
 51
270.0
  0
ARC
  5
18CAE
330
18C7A
100
AcDbEntity
  8
部品1
100
AcDbCircle
 10
1451.470482677778
 20
1328.993338720062
 30
0.0
 40
26.0
100
AcDbArc
 50
340.5287793655865
 51
0.0
  0
LINE
  5
18CAF
330
18C7A
100
AcDbEntity
  8
部品1
100
AcDbLine
 10
1477.470482677778
 20
1328.993338720062
 30
0.0
 11
1477.470482677778
 21
1333.993338720061
 31
0.0
  0
ARC
  5
18CB0
330
18C7A
100
AcDbEntity
  8
部品1
 48
0.01
100
AcDbCircle
 10
1475.470482677778
 20
1333.993338720061
 30
0.0
 40
2.0
100
AcDbArc
 50
0.0
 51
90.0
  0
ARC
  5
18CB1
330
18C7A
100
AcDbEntity
  8
部品1
100
AcDbCircle
 10
1473.862091052968
 20
1332.993338720062
 30
0.0
 40
3.0
100
AcDbArc
 50
90.0
 51
141.6069559808035
  0
LINE
  5
18CB2
330
18C7A
100
AcDbEntity
  8
部品1
 48
0.01
100
AcDbLine
 10
1475.470482677778
 20
1335.993338720062
 30
0.0
 11
1473.862091052968
 21
1335.993338720062
 31
0.0
  0
ARC
  5
18CB3
330
18C7A
100
AcDbEntity
  8
部品1
100
AcDbCircle
 10
1455.399768463507
 20
1332.293338720065
 30
0.0
 40
3.0
100
AcDbArc
 50
254.0576313943215
 51
270.0
  0
ARC
  5
18CB4
330
18C7A
100
AcDbEntity
  8
部品1
100
AcDbCircle
 10
1462.541196892049
 20
1332.293338720065
 30
0.0
 40
3.0
100
AcDbArc
 50
270.0
 51
285.9423686056786
  0
LINE
  5
18CB5
330
18C7A
100
AcDbEntity
  8
部品1
100
AcDbLine
 10
1462.541196892049
 20
1329.293338720064
 30
0.0
 11
1455.399768463507
 21
1329.293338720064
 31
0.0
  0
ARC
  5
18CB6
330
18C7A
100
AcDbEntity
  8
部品1
100
AcDbCircle
 10
1458.970482677778
 20
1344.793338720065
 30
0.0
 40
16.0
100
AcDbArc
 50
285.9423686056786
 51
321.6069559808035
  0
LINE
  5
18CB7
330
18C7A
100
AcDbEntity
  8
部品1
 48
0.01
100
AcDbLine
 10
1442.470482677778
 20
1335.993338720062
 30
0.0
 11
1444.078874302588
 21
1335.993338720062
 31
0.0
  0
ARC
  5
18CB8
330
18C7A
100
AcDbEntity
  8
部品1
100
AcDbCircle
 10
1444.078874302588
 20
1332.993338720062
 30
0.0
 40
3.0
100
AcDbArc
 50
38.39304401919648
 51
90.0
  0
ARC
  5
18CB9
330
18C7A
100
AcDbEntity
  8
部品1
100
AcDbCircle
 10
1458.970482677778
 20
1344.793338720065
 30
0.0
 40
16.0
100
AcDbArc
 50
218.3930440191965
 51
254.0576313943215
  0
LINE
  5
18CBA
330
18C7A
100
AcDbEntity
  8
部品1
100
AcDbLine
 10
1440.470482677778
 20
1328.993338720062
 30
0.0
 11
1440.470482677778
 21
1333.993338720061
 31
0.0
  0
ARC
  5
18CBB
330
18C7A
100
AcDbEntity
  8
部品1
 48
0.01
100
AcDbCircle
 10
1442.470482677778
 20
1333.993338720061
 30
0.0
 40
2.0
100
AcDbArc
 50
90.0
 51
180.0
  0
ARC
  5
18CBC
330
18C7A
100
AcDbEntity
  8
部品1
100
AcDbCircle
 10
1466.470482677778
 20
1328.993338720062
 30
0.0
 40
26.0
100
AcDbArc
 50
180.0
 51
199.4712206344134
  0
ARC
  5
18CBD
330
18C7A
100
AcDbEntity
  8
部品1
 48
0.01
100
AcDbCircle
 10
1434.470482677778
 20
1319.493338720063
 30
0.0
 40
0.5
100
AcDbArc
 50
180.0
 51
270.0
  0
LINE
  5
18CBE
330
18C7A
100
AcDbEntity
  8
部品1
 48
0.01
100
AcDbLine
 10
1434.470482677778
 20
1318.993338720063
 30
0.0
 11
1441.014638555061
 21
1318.993338720062
 31
0.0
  0
LINE
  5
18CBF
330
18C7A
100
AcDbEntity
  8
部品1
 48
0.01
100
AcDbLine
 10
1433.970482677778
 20
1320.493338720063
 30
0.0
 11
1433.970482677778
 21
1319.493338720063
 31
0.0
  0
ARC
  5
18CC0
330
18C7A
100
AcDbEntity
  8
部品1
100
AcDbCircle
 10
1441.014638555061
 20
1319.993338720062
 30
0.0
 40
1.0
100
AcDbArc
 50
270.0
 51
19.47122063441346
  0
LINE
  5
18CC1
330
18C7A
100
AcDbEntity
  8
細線
100
AcDbLine
 10
1479.470482677785
 20
1338.493338720065
 30
0.0
 11
1438.470482677785
 21
1338.493338720058
 31
0.0
  0
LINE
  5
18CC2
330
18C7A
100
AcDbEntity
  8
細線
100
AcDbLine
 10
1438.470482677785
 20
1338.493338720058
 30
0.0
 11
1438.470482677785
 21
1320.49333872004
 31
0.0
  0
LINE
  5
18CC3
330
18C7A
100
AcDbEntity
  8
細線
100
AcDbLine
 10
1479.470482677785
 20
1338.493338720065
 30
0.0
 11
1479.470482677785
 21
1320.49333872004
 31
0.0
  0
LINE
  5
18CC4
330
18C7A
100
AcDbEntity
  8
細線
100
AcDbLine
 10
1322.970589276523
 20
1324.494269174465
 30
0.0
 11
1322.970589276523
 21
1320.494269174513
 31
0.0
  0
LINE
  5
18CC5
330
18C7A
100
AcDbEntity
  8
寸法
 48
50.0
100
AcDbLine
 10
1746.17359555837
 20
1170.531020743327
 30
0.0
 11
1694.767587648266
 21
1170.531020743327
 31
0.0
  0
LINE
  5
18CC6
330
18C7A
100
AcDbEntity
  8
寸法
 48
50.0
100
AcDbLine
 10
1694.767587648266
 20
1170.531020743327
 30
0.0
 11
1694.767587648266
 21
1201.841179395494
 31
0.0
  0
LINE
  5
18CC7
330
18C7A
100
AcDbEntity
  8
寸法
 48
50.0
100
AcDbLine
 10
1694.767587648266
 20
1201.841179395494
 30
0.0
 11
1665.006255656843
 21
1201.841179395494
 31
0.0
  0
LINE
  5
18CC8
330
18C7A
100
AcDbEntity
  8
寸法
 48
50.0
100
AcDbLine
 10
1665.006255656843
 20
1201.841179395494
 30
0.0
 11
1720.470591603318
 21
1239.420630324105
 31
0.0
  0
LINE
  5
18CC9
330
18C7A
100
AcDbEntity
  8
寸法
 48
50.0
100
AcDbLine
 10
1775.934927549793
 20
1201.841179395494
 30
0.0
 11
1720.470591603318
 21
1239.420630324105
 31
0.0
  0
LINE
  5
18CCA
330
18C7A
100
AcDbEntity
  8
寸法
 48
50.0
100
AcDbLine
 10
1746.17359555837
 20
1201.841179395494
 30
0.0
 11
1775.934927549793
 21
1201.841179395494
 31
0.0
  0
LINE
  5
18CCB
330
18C7A
100
AcDbEntity
  8
寸法
 48
50.0
100
AcDbLine
 10
1746.17359555837
 20
1170.531020743327
 30
0.0
 11
1746.17359555837
 21
1201.841179395494
 31
0.0
  0
LINE
  5
18CCC
330
18C7A
100
AcDbEntity
  8
寸法
 48
50.0
100
AcDbLine
 10
1694.767587648266
 20
1170.531020743327
 30
0.0
 11
1746.17359555837
 21
1170.531020743327
 31
0.0
  0
LINE
  5
18CCD
330
18C7A
100
AcDbEntity
  8
寸法
 48
50.0
100
AcDbLine
 10
2025.339129835225
 20
1227.676611498152
 30
0.0
 11
2025.339129835225
 21
1174.01297691636
 31
0.0
  0
LINE
  5
18CCE
330
18C7A
100
AcDbEntity
  8
寸法
 48
50.0
100
AcDbLine
 10
2114.623348430647
 20
1203.752977228664
 30
0.0
 11
2025.339129835225
 21
1227.676611498152
 31
0.0
  0
LINE
  5
18CCF
330
18C7A
100
AcDbEntity
  8
寸法
 48
50.0
100
AcDbLine
 10
1895.471408254923
 20
1203.752977228664
 30
0.0
 11
2114.623348430647
 21
1203.752977228664
 31
0.0
  0
DIMENSION
  5
18CD0
330
18C7A
100
AcDbEntity
  8
寸法
 48
50.0
100
AcDbDimension
  2
*D15
 10
2588.970589276523
 20
706.3240511224249
 30
0.0
 11
1969.060022905491
 21
706.3240511224249
 31
0.0
 12
-3742.925985830444
 22
-6453.628869860112
 32
0.0
 70
   128
  1
有効開口部間口\P<>
 71
     5
 42
1266.0
  3
INABA_S40G
100
AcDbAlignedDimension
 13
1322.970589276523
 23
1315.494269174465
 33
0.0
 14
2588.970589276523
 24
1315.494269174465
 34
0.0
100
AcDbRotatedDimension
1001
ACAD
1000
DSTYLE
1002
{
1070
   341
1005
0
1002
}
  0
LINE
  5
18CD1
330
18C7A
100
AcDbEntity
  8
部品1
100
AcDbLine
 10
3409.970589276524
 20
1392.494269174465
 30
0.0
 11
3437.970589276523
 21
1392.494269174465
 31
0.0
  0
DIMENSION
  5
18CD2
330
18C7A
100
AcDbEntity
  8
寸法
100
AcDbDimension
  2
*D16
 10
3674.266172669749
 20
1315.494269174465
 30
0.0
 11
3674.266172669748
 21
1177.494269174462
 31
0.0
 12
-3742.925985830444
 22
-6453.628869860112
 32
0.0
 70
   128
 71
     5
 42
77.0
  3
INABA_S40
100
AcDbAlignedDimension
 13
3437.970589276523
 23
1392.494269174465
 33
0.0
 14
3436.970589276523
 24
1315.494269174465
 34
0.0
 50
90.0
100
AcDbRotatedDimension
1001
ACAD
1000
DSTYLE
1002
{
1070
    41
1040
0.5
1070
    44
1040
1.0
1070
   147
1040
0.8
1070
   271
1070
     2
1070
   272
1070
     2
1070
   289
1070
     3
1070
   340
1005
F706
1070
   343
1005
164B4
1070
   344
1005
164B4
1002
}
  0
LINE
  5
18CD3
330
18C7A
100
AcDbEntity
  8
部品1
100
AcDbLine
 10
3437.970589276523
 20
1315.494269174465
 30
0.0
 11
3437.970589276523
 21
1392.494269174465
 31
0.0
  0
LINE
  5
18CD4
330
18C7A
100
AcDbEntity
  8
部品1
100
AcDbLine
 10
3398.970589276523
 20
1388.494269174465
 30
0.0
 11
3409.970589276524
 21
1388.494269174465
 31
0.0
  0
LINE
  5
18CD5
330
18C7A
100
AcDbEntity
  8
部品1
100
AcDbLine
 10
3407.970589276523
 20
1324.494269174465
 30
0.0
 11
3407.970589276523
 21
1315.494269174465
 31
0.0
  0
LINE
  5
18CD6
330
18C7A
100
AcDbEntity
  8
部品1
100
AcDbLine
 10
3398.970589276523
 20
1324.494269174465
 30
0.0
 11
3407.970589276523
 21
1324.494269174465
 31
0.0
  0
LINE
  5
18CD7
330
18C7A
100
AcDbEntity
  8
部品1
100
AcDbLine
 10
3398.970589276523
 20
1388.494269174465
 30
0.0
 11
3398.970589276523
 21
1324.494269174465
 31
0.0
  0
LINE
  5
18CD8
330
18C7A
100
AcDbEntity
  8
部品1
100
AcDbLine
 10
3409.970589276524
 20
1419.494269174465
 30
0.0
 11
3409.970589276524
 21
1388.494269174465
 31
0.0
  0
LINE
  5
18CD9
330
18C7A
100
AcDbEntity
  8
部品1
100
AcDbLine
 10
1322.970589276523
 20
1388.494269174465
 30
0.0
 11
1311.970589276523
 21
1388.494269174465
 31
0.0
  0
LINE
  5
18CDA
330
18C7A
100
AcDbEntity
  8
部品1
100
AcDbLine
 10
1283.970589276523
 20
1392.494269174465
 30
0.0
 11
1311.970589276523
 21
1392.494269174465
 31
0.0
  0
LINE
  5
18CDB
330
18C7A
100
AcDbEntity
  8
部品1
100
AcDbLine
 10
1313.970589276523
 20
1324.494269174465
 30
0.0
 11
1313.970589276523
 21
1315.494269174465
 31
0.0
  0
LINE
  5
18CDC
330
18C7A
100
AcDbEntity
  8
部品1
100
AcDbLine
 10
1322.970589276523
 20
1324.494269174465
 30
0.0
 11
1313.970589276523
 21
1324.494269174465
 31
0.0
  0
LINE
  5
18CDD
330
18C7A
100
AcDbEntity
  8
部品1
100
AcDbLine
 10
1313.970589276523
 20
1315.494269174465
 30
0.0
 11
1283.970589276523
 21
1315.494269174465
 31
0.0
  0
LINE
  5
18CDE
330
18C7A
100
AcDbEntity
  8
部品1
100
AcDbLine
 10
1283.970589276523
 20
1315.494269174465
 30
0.0
 11
1283.970589276523
 21
1392.494269174465
 31
0.0
  0
LINE
  5
18CDF
330
18C7A
100
AcDbEntity
  8
部品1
100
AcDbLine
 10
1322.970589276523
 20
1388.494269174465
 30
0.0
 11
1322.970589276523
 21
1324.494269174465
 31
0.0
  0
LINE
  5
18CE0
330
18C7A
100
AcDbEntity
  8
部品1
100
AcDbLine
 10
1311.970589276523
 20
1419.494269174462
 30
0.0
 11
1311.970589276523
 21
1388.494269174465
 31
0.0
  0
LINE
  5
18CE1
330
18C7A
100
AcDbEntity
  8
部品1
100
AcDbLine
 10
1311.970589276523
 20
1419.494269174462
 30
0.0
 11
3409.970589276524
 21
1419.494269174465
 31
0.0
  0
LINE
  5
18CE2
330
18C7A
100
AcDbEntity
  8
部品1
100
AcDbLine
 10
3407.970589276523
 20
1315.494269174465
 30
0.0
 11
3437.970589276523
 21
1315.494269174465
 31
0.0
  0
LINE
  5
18CE3
330
18C7A
100
AcDbEntity
  8
部品1
100
AcDbLine
 10
1313.970589276523
 20
1315.494269174465
 30
0.0
 11
3410.970589276523
 21
1315.494269174465
 31
0.0
  0
LINE
  5
18CE4
330
18C7A
100
AcDbEntity
  8
細線
  6
Continuous
 62
     5
100
AcDbLine
 10
2689.970589276527
 20
1354.494269174462
 30
0.0
 11
2689.970589276527
 21
1354.494269174462
 31
0.0
  0
LINE
  5
18CE5
330
18C7A
100
AcDbEntity
  8
細線
  6
Continuous
 62
     5
100
AcDbLine
 10
2682.470589276527
 20
1354.494269174462
 30
0.0
 11
2682.470589276527
 21
1354.494269174462
 31
0.0
  0
LINE
  5
18CE6
330
18C7A
100
AcDbEntity
  8
細線
  6
Continuous
 62
     5
100
AcDbLine
 10
2676.470589276527
 20
1354.494269174462
 30
0.0
 11
2676.470589276527
 21
1354.494269174462
 31
0.0
  0
LINE
  5
18CE7
330
18C7A
100
AcDbEntity
  8
細線
  6
Continuous
 62
     5
100
AcDbLine
 10
2743.970589276527
 20
1373.494269174462
 30
0.0
 11
2743.970589276527
 21
1373.494269174462
 31
0.0
  0
LINE
  5
18CE8
330
18C7A
100
AcDbEntity
  8
細線
 48
50.0
100
AcDbLine
 10
1336.970593930116
 20
1341.094443351418
 30
0.0
 11
1336.970593930113
 21
1349.490593759059
 31
0.0
  0
LINE
  5
18CE9
330
18C7A
100
AcDbEntity
  8
細線
 48
50.0
100
AcDbLine
 10
1336.970593930113
 20
1349.490593759059
 30
0.0
 11
1322.970589276523
 21
1349.490593759057
 31
0.0
  0
LINE
  5
18CEA
330
18C7A
100
AcDbEntity
  8
細線
 48
50.0
100
AcDbLine
 10
2087.970593930113
 20
1337.644443351419
 30
0.0
 11
2087.970593930113
 21
1342.494443351421
 31
0.0
  0
LINE
  5
18CEB
330
18C7A
100
AcDbEntity
  8
細線
 48
50.0
100
AcDbLine
 10
2087.970593930113
 20
1342.494443351421
 30
0.0
 11
2102.970593930113
 21
1342.494443351421
 31
0.0
  0
LINE
  5
18CEC
330
18C7A
100
AcDbEntity
  8
細線
 48
50.0
100
AcDbLine
 10
2102.970593930113
 20
1342.494443351421
 30
0.0
 11
2102.970593930115
 21
1349.494443351419
 31
0.0
  0
LINE
  5
18CED
330
18C7A
100
AcDbEntity
  8
細線
 48
50.0
100
AcDbLine
 10
2102.970593930115
 20
1349.494443351419
 30
0.0
 11
2117.970593930113
 21
1349.494443351419
 31
0.0
  0
LINE
  5
18CEE
330
18C7A
100
AcDbEntity
  8
細線
 48
50.0
100
AcDbLine
 10
2117.970593930113
 20
1349.494443351419
 30
0.0
 11
2117.970593930113
 21
1320.494443351421
 31
0.0
  0
LINE
  5
18CEF
330
18C7A
100
AcDbEntity
  8
細線
 48
50.0
100
AcDbLine
 10
1313.970589276523
 20
1320.491777694889
 30
0.0
 11
1527.970593930113
 21
1320.494460905133
 31
0.0
  0
LINE
  5
18CF0
330
18C7A
100
AcDbEntity
  8
細線
 48
50.0
100
AcDbLine
 10
2017.970593930113
 20
1320.494443351421
 30
0.0
 11
2117.970593930113
 21
1320.494443351421
 31
0.0
  0
LINE
  5
18CF1
330
18C7A
100
AcDbEntity
  8
細線
 48
50.0
100
AcDbLine
 10
1737.970593930113
 20
1320.494443351419
 30
0.0
 11
1807.970593930113
 21
1320.494443351423
 31
0.0
  0
LINE
  5
18CF2
330
18C7A
100
AcDbEntity
  8
細線
 48
50.0
100
AcDbLine
 10
1750.832558942642
 20
1320.494443351419
 30
0.0
 11
1756.588076525309
 21
1338.765294641913
 31
0.0
  0
LINE
  5
18CF3
330
18C7A
100
AcDbEntity
  8
細線
 48
50.0
100
AcDbLine
 10
1756.588076525309
 20
1338.765294641913
 30
0.0
 11
1767.516525005743
 21
1338.765294641911
 31
0.0
  0
ARC
  5
18CF4
330
18C7A
100
AcDbEntity
  8
細線
 48
50.0
100
AcDbCircle
 10
1767.516525005743
 20
1337.765294641911
 30
0.0
 40
1.0
100
AcDbArc
 50
24.62431835207225
 51
90.0
  0
ARC
  5
18CF5
330
18C7A
100
AcDbEntity
  8
細線
 48
50.0
100
AcDbCircle
 10
1778.425237120377
 20
1337.765294641911
 30
0.0
 40
1.0
100
AcDbArc
 50
90.0
 51
155.3756816479277
  0
ARC
  5
18CF6
330
18C7A
100
AcDbEntity
  8
細線
 48
50.0
100
AcDbCircle
 10
1772.970881063058
 20
1340.265294641911
 30
0.0
 40
5.0
100
AcDbArc
 50
204.6243183520723
 51
335.3756816479278
  0
LINE
  5
18CF7
330
18C7A
100
AcDbEntity
  8
細線
 48
50.0
100
AcDbLine
 10
1778.425237120377
 20
1338.765294641911
 30
0.0
 11
1789.35368560081
 21
1338.765294641913
 31
0.0
  0
LINE
  5
18CF8
330
18C7A
100
AcDbEntity
  8
細線
 48
50.0
100
AcDbLine
 10
1789.35368560081
 20
1338.765294641913
 30
0.0
 11
1795.109203183478
 21
1320.494443351423
 31
0.0
  0
LINE
  5
18CF9
330
18C7A
100
AcDbEntity
  8
細線
 48
50.0
100
AcDbLine
 10
2087.970593930113
 20
1341.094443351419
 30
0.0
 11
1336.970593930116
 21
1341.094443351418
 31
0.0
  0
LINE
  5
18CFA
330
18C7A
100
AcDbEntity
  8
細線
 48
50.0
100
AcDbLine
 10
1947.970593930113
 20
1320.494443351421
 30
0.0
 11
1877.970593930113
 21
1320.494443351421
 31
0.0
  0
LINE
  5
18CFB
330
18C7A
100
AcDbEntity
  8
細線
100
AcDbLine
 10
1667.970593930113
 20
1320.494443351421
 30
0.0
 11
1597.970602115529
 21
1320.494443351421
 31
0.0
  0
LINE
  5
18CFC
330
18C7A
100
AcDbEntity
  8
細線
 48
50.0
100
AcDbLine
 10
2741.970584622936
 20
1375.094487209288
 30
0.0
 11
2106.970593930113
 21
1375.094487209284
 31
0.0
  0
LINE
  5
18CFD
330
18C7A
100
AcDbEntity
  8
細線
 48
50.0
100
AcDbLine
 10
2106.970593930113
 20
1371.990637616925
 30
0.0
 11
2106.970593930113
 21
1376.490637616925
 31
0.0
  0
LINE
  5
18CFE
330
18C7A
100
AcDbEntity
  8
細線
 48
50.0
100
AcDbLine
 10
2106.970593930113
 20
1376.490637616925
 30
0.0
 11
2091.970593930113
 21
1376.490637616925
 31
0.0
  0
LINE
  5
18CFF
330
18C7A
100
AcDbEntity
  8
細線
 48
50.0
100
AcDbLine
 10
2091.970593930113
 20
1376.490637616925
 30
0.0
 11
2091.970593930113
 21
1383.490637616927
 31
0.0
  0
LINE
  5
18D00
330
18C7A
100
AcDbEntity
  8
細線
 48
50.0
100
AcDbLine
 10
2091.970593930113
 20
1383.490637616927
 30
0.0
 11
2076.970593930115
 21
1383.490637616924
 31
0.0
  0
LINE
  5
18D01
330
18C7A
100
AcDbEntity
  8
細線
 48
50.0
100
AcDbLine
 10
2076.970593930115
 20
1383.490637616924
 30
0.0
 11
2076.970593930115
 21
1345.890409513813
 31
0.0
  0
LINE
  5
18D02
330
18C7A
100
AcDbEntity
  8
細線
 48
50.0
100
AcDbLine
 10
2076.970593930115
 20
1345.890409513813
 30
0.0
 11
2096.970601231289
 21
1345.890451063353
 31
0.0
  0
LINE
  5
18D03
330
18C7A
100
AcDbEntity
  8
細線
 48
50.0
100
AcDbLine
 10
2096.970556362348
 20
1354.493912699161
 30
0.0
 11
2096.970601231289
 21
1345.890451063353
 31
0.0
  0
LINE
  5
18D04
330
18C7A
100
AcDbEntity
  8
細線
 48
50.0
100
AcDbLine
 10
2741.970584622936
 20
1371.644487209287
 30
0.0
 11
2741.970584622936
 21
1376.494487209284
 31
0.0
  0
LINE
  5
18D05
330
18C7A
100
AcDbEntity
  8
細線
 48
50.0
100
AcDbLine
 10
2741.970584622936
 20
1376.494487209284
 30
0.0
 11
2756.970584622934
 21
1376.494487209285
 31
0.0
  0
LINE
  5
18D06
330
18C7A
100
AcDbEntity
  8
細線
 48
50.0
100
AcDbLine
 10
2756.970584622934
 20
1376.494487209285
 30
0.0
 11
2756.970596256909
 21
1383.494487209331
 31
0.0
  0
LINE
  5
18D07
330
18C7A
100
AcDbEntity
  8
細線
 48
50.0
100
AcDbLine
 10
2756.970596256909
 20
1383.494487209331
 30
0.0
 11
2771.970594427439
 21
1383.494487209329
 31
0.0
  0
LINE
  5
18D08
330
18C7A
100
AcDbEntity
  8
細線
 48
50.0
100
AcDbLine
 10
2771.970594427439
 20
1383.494487209329
 30
0.0
 11
2771.970584125617
 21
1354.494281037055
 31
0.0
  0
LINE
  5
18D09
330
18C7A
100
AcDbEntity
  8
細線
 48
50.0
100
AcDbLine
 10
2458.070304175992
 20
1354.494278397076
 30
0.0
 11
2389.470863838818
 21
1354.494283787084
 31
0.0
  0
LINE
  5
18D0A
330
18C7A
100
AcDbEntity
  8
細線
 48
50.0
100
AcDbLine
 10
2096.970556362348
 20
1354.493912699161
 30
0.0
 11
2108.203245717057
 21
1354.494095652309
 31
0.0
  0
ARC
  5
18D0B
330
18C7A
100
AcDbEntity
  8
細線
 48
50.0
100
AcDbCircle
 10
2114.785538024393
 20
1353.294259565922
 30
0.0
 40
1.8
100
AcDbArc
 50
270.0006665777295
 51
345.000555481349
  0
LINE
  5
18D0C
330
18C7A
100
AcDbEntity
  8
細線
 48
50.0
100
AcDbLine
 10
2116.771971470473
 20
1353.753100023201
 30
0.0
 11
2116.524209028273
 21
1352.828402141094
 31
0.0
  0
LINE
  5
18D0D
330
18C7A
100
AcDbEntity
  8
細線
 48
50.0
100
AcDbLine
 10
2114.785558965548
 20
1351.494259566043
 30
0.0
 11
2111.155631546781
 21
1351.494217335563
 31
0.0
  0
ARC
  5
18D0E
330
18C7A
100
AcDbEntity
  8
細線
 48
50.0
100
AcDbCircle
 10
2111.155610605627
 20
1353.29421733544
 30
0.0
 40
1.8
100
AcDbArc
 50
195.0010443049965
 51
270.0006665777295
  0
LINE
  5
18D0F
330
18C7A
100
AcDbEntity
  8
細線
 48
50.0
100
AcDbLine
 10
2109.169183113368
 20
1353.752932303007
 30
0.0
 11
2109.416952609882
 21
1352.828311364425
 31
0.0
  0
ARC
  5
18D10
330
18C7A
100
AcDbEntity
  8
細線
 48
50.0
100
AcDbCircle
 10
2108.203262004622
 20
1353.494095652444
 30
0.0
 40
1.0
100
AcDbArc
 50
15.00104430499651
 51
90.00093320877969
  0
LINE
  5
18D11
330
18C7A
100
AcDbEntity
  8
細線
 48
50.0
100
AcDbLine
 10
2117.737892825577
 20
1354.494290342714
 30
0.0
 11
2118.679652976481
 21
1354.494296916564
 31
0.0
  0
ARC
  5
18D12
330
18C7A
100
AcDbEntity
  8
細線
 48
50.0
100
AcDbCircle
 10
2117.737899805961
 20
1353.49429034274
 30
0.0
 40
1.0
100
AcDbArc
 50
90.0003999466794
 51
165.000555481349
  0
LINE
  5
18D13
330
18C7A
100
AcDbEntity
  8
細線
 48
50.0
100
AcDbLine
 10
2669.470584622926
 20
1354.494281037055
 30
0.0
 11
2771.970584125617
 21
1354.494281037055
 31
0.0
  0
LINE
  5
18D14
330
18C7A
100
AcDbEntity
  8
細線
 48
50.0
100
AcDbLine
 10
2179.47061994182
 20
1354.494289224422
 30
0.0
 11
2118.370558714898
 21
1354.494296916564
 31
0.0
  0
LINE
  5
18D15
330
18C7A
100
AcDbEntity
  8
細線
 48
50.0
100
AcDbLine
 10
2599.470584622926
 20
1354.494281037057
 30
0.0
 11
2529.470584622926
 21
1354.494281037055
 31
0.0
  0
LINE
  5
18D16
330
18C7A
100
AcDbEntity
  8
細線
 48
50.0
100
AcDbLine
 10
2319.470584622926
 20
1354.494281037054
 30
0.0
 11
2249.470567335051
 21
1354.494281037057
 31
0.0
  0
ARC
  5
18D17
330
18C7A
100
AcDbEntity
  8
細線
 48
50.0
100
AcDbCircle
 10
2756.170589276533
 20
1387.694269174466
 30
0.0
 40
0.8
100
AcDbArc
 50
359.9997333689499
 51
89.99986668437072
  0
ARC
  5
18D18
330
18C7A
100
AcDbEntity
  8
細線
 48
50.0
100
AcDbCircle
 10
2763.770596101631
 20
1387.694280343081
 30
0.0
 40
0.8
100
AcDbArc
 50
90.00014387753465
 51
179.9997333689498
  0
LINE
  5
18D19
330
18C7A
100
AcDbEntity
  8
細線
 48
50.0
100
AcDbLine
 10
2756.170591137969
 20
1388.494269174465
 30
0.0
 11
2750.970589276525
 21
1388.494269174465
 31
0.0
  0
ARC
  5
18D1A
330
18C7A
100
AcDbEntity
  8
細線
 48
50.0
100
AcDbCircle
 10
2757.670589276524
 20
1386.194269174464
 30
0.0
 40
0.7
100
AcDbArc
 50
180.0
 51
270.0
  0
ARC
  5
18D1B
330
18C7A
100
AcDbEntity
  8
細線
 48
50.0
100
AcDbCircle
 10
2762.270589276524
 20
1386.194269174464
 30
0.0
 40
0.7
100
AcDbArc
 50
270.0
 51
0.0
  0
LINE
  5
18D1C
330
18C7A
100
AcDbEntity
  8
細線
 48
50.0
100
AcDbLine
 10
2762.970589276525
 20
1386.194269174464
 30
0.0
 11
2762.970596101639
 21
1387.694284065954
 31
0.0
  0
LINE
  5
18D1D
330
18C7A
100
AcDbEntity
  8
細線
 48
50.0
100
AcDbLine
 10
2757.670589276524
 20
1385.494269174465
 30
0.0
 11
2762.270589276524
 21
1385.494269174465
 31
0.0
  0
LINE
  5
18D1E
330
18C7A
100
AcDbEntity
  8
細線
 48
50.0
100
AcDbLine
 10
2756.970589276525
 20
1387.694269174466
 30
0.0
 11
2756.970589276525
 21
1386.194269174464
 31
0.0
  0
LINE
  5
18D1F
330
18C7A
100
AcDbEntity
  8
細線
 48
50.0
100
AcDbLine
 10
3382.570589276527
 20
1418.494269174465
 30
0.0
 11
2745.970589276525
 21
1418.494269174463
 31
0.0
  0
LINE
  5
18D20
330
18C7A
100
AcDbEntity
  8
細線
 48
50.0
100
AcDbLine
 10
3408.470589276525
 20
1413.494269174467
 30
0.0
 11
3392.570589276527
 21
1413.494269174465
 31
0.0
  0
LINE
  5
18D21
330
18C7A
100
AcDbEntity
  8
細線
 48
50.0
100
AcDbLine
 10
3392.570589276526
 20
1413.494269174465
 30
0.0
 11
3382.570589276527
 21
1418.494269174465
 31
0.0
  0
LINE
  5
18D22
330
18C7A
100
AcDbEntity
  8
細線
100
AcDbLine
 10
2993.470589276525
 20
1388.494269174465
 30
0.0
 11
2993.470589276525
 21
1417.794269174464
 31
0.0
  0
LINE
  5
18D23
330
18C7A
100
AcDbEntity
  8
細線
100
AcDbLine
 10
2993.470589276525
 20
1417.794269174464
 30
0.0
 11
3013.470589276525
 21
1417.794269174464
 31
0.0
  0
LINE
  5
18D24
330
18C7A
100
AcDbEntity
  8
細線
100
AcDbLine
 10
3013.470589276525
 20
1388.494269174465
 30
0.0
 11
3013.470589276525
 21
1417.794269174464
 31
0.0
  0
LINE
  5
18D25
330
18C7A
100
AcDbEntity
  8
細線
100
AcDbLine
 10
3170.720589276524
 20
1388.494269174465
 30
0.0
 11
3100.720589276523
 21
1388.494269174465
 31
0.0
  0
LINE
  5
18D26
330
18C7A
100
AcDbEntity
  8
細線
 48
50.0
100
AcDbLine
 10
2890.720589276525
 20
1388.494269174465
 30
0.0
 11
2763.766368849365
 21
1388.494269174465
 31
0.0
  0
LINE
  5
18D27
330
18C7A
100
AcDbEntity
  8
細線
100
AcDbLine
 10
3030.720589276525
 20
1388.494269174465
 30
0.0
 11
2960.720589276525
 21
1388.494269174465
 31
0.0
  0
LINE
  5
18D28
330
18C7A
100
AcDbEntity
  8
細線
 48
50.0
100
AcDbLine
 10
2750.970589276525
 20
1380.494269174465
 30
0.0
 11
2750.970589276525
 21
1388.494269174465
 31
0.0
  0
LINE
  5
18D29
330
18C7A
100
AcDbEntity
  8
細線
 48
50.0
100
AcDbLine
 10
2730.970589276524
 20
1380.494269174467
 30
0.0
 11
2750.970589276525
 21
1380.494269174465
 31
0.0
  0
LINE
  5
18D2A
330
18C7A
100
AcDbEntity
  8
細線
 48
50.0
100
AcDbLine
 10
2745.970589276525
 20
1418.494269174465
 30
0.0
 11
2745.970589276525
 21
1413.494269174465
 31
0.0
  0
LINE
  5
18D2B
330
18C7A
100
AcDbEntity
  8
細線
 48
50.0
100
AcDbLine
 10
2730.970589276525
 20
1418.494269174463
 30
0.0
 11
2745.970589276525
 21
1418.494269174465
 31
0.0
  0
LINE
  5
18D2C
330
18C7A
100
AcDbEntity
  8
細線
 48
50.0
100
AcDbLine
 10
2730.970589276524
 20
1380.494269174467
 30
0.0
 11
2730.970589276525
 21
1418.494269174463
 31
0.0
  0
LINE
  5
18D2D
330
18C7A
100
AcDbEntity
  8
細線
100
AcDbLine
 10
3398.970589276523
 20
1388.494269174465
 30
0.0
 11
3240.720589276525
 21
1388.494269174465
 31
0.0
  0
LINE
  5
18D2E
330
18C7A
100
AcDbEntity
  8
細線
 48
50.0
100
AcDbLine
 10
3408.470589276525
 20
1413.494269174467
 30
0.0
 11
3408.470589276524
 21
1388.494269174465
 31
0.0
  0
TEXT
  5
18D2F
330
18C7A
100
AcDbEntity
  8
部品1
100
AcDbText
 10
1860.154865991392
 20
46.99880823813145
 30
0.0
 40
135.0
  1
平面図
  7
STYLE2
100
AcDbText
  0
LWPOLYLINE
  5
18D30
330
18C7A
100
AcDbEntity
  8
部品1
100
AcDbPolyline
 90
        4
 70
     1
 43
0.0
 10
1770.23525616235
 20
239.8923374566548
 10
1770.23525616235
 20
0.0000159111223184
 10
2533.705922390791
 20
0.0000159111223184
 10
2533.705922390791
 20
239.8923374566548
  0
LINE
  5
18D31
330
18C7A
100
AcDbEntity
  8
部品1
100
AcDbLine
 10
1534.470589276487
 20
3154.494269174626
 30
0.0
 11
2769.470589276552
 21
3154.494269174626
 31
0.0
  0
LINE
  5
18D32
330
18C7A
100
AcDbEntity
  8
部品1
 48
50.0
100
AcDbLine
 10
1311.970589276523
 20
1420.494269174462
 30
0.0
 11
3411.970589276523
 21
1420.494269174465
 31
0.0
  0
LINE
  5
18D33
330
18C7A
100
AcDbEntity
  8
部品1
 48
50.0
100
AcDbLine
 10
471.9705892765232
 20
1392.494269174465
 30
0.0
 11
1311.970589276523
 21
1392.494269174465
 31
0.0
  0
DIMENSION
  5
18D34
330
18C7A
100
AcDbEntity
  8
寸法
100
AcDbDimension
  2
*D14
 10
2710.234916278077
 20
2488.887829538828
 30
0.0
 11
2338.318822490183
 21
2488.887829538828
 31
0.0
 12
-3742.925985830444
 22
-6453.628869860112
 32
0.0
 70
   128
 71
     5
 42
1231.00000000007
  3
INABA_S40G
100
AcDbAlignedDimension
 13
1536.470589276486
 23
2702.494269174557
 33
0.0
 14
2767.470589276556
 24
2702.494269174549
 34
0.0
100
AcDbRotatedDimension
1001
ACAD
1000
DSTYLE
1002
{
1002
}
  0
LINE
  5
18D35
330
18C7A
100
AcDbEntity
  8
部品1
100
AcDbLine
 10
1536.470589276487
 20
2702.494269174557
 30
0.0
 11
2767.470589276554
 21
2702.494269174615
 31
0.0
  0
LINE
  5
18D36
330
18C7A
100
AcDbEntity
  8
部品1
100
AcDbLine
 10
1536.470589276487
 20
3152.494269174557
 30
0.0
 11
2767.470589276556
 21
3152.494269174615
 31
0.0
  0
LINE
  5
18D37
330
18C7A
100
AcDbEntity
  8
細線
 48
50.0
100
AcDbLine
 10
1508.470589276487
 20
3152.494269174558
 30
0.0
 11
445.4705892765559
 21
2702.494269174509
 31
0.0
  0
LINE
  5
18D38
330
18C7A
100
AcDbEntity
  8
細線
 48
50.0
100
AcDbLine
 10
1508.470589276487
 20
2702.494269174558
 30
0.0
 11
445.4705892765542
 21
3152.494269174509
 31
0.0
  0
LINE
  5
18D39
330
18C7A
100
AcDbEntity
  8
部品1
100
AcDbLine
 10
1556.970589276487
 20
3172.494269174611
 30
0.0
 11
1556.970589276487
 21
3154.494269174611
 31
0.0
  0
LINE
  5
18D3A
330
18C7A
100
AcDbEntity
  8
部品1
100
AcDbLine
 10
1556.970589276487
 20
3172.494269174611
 30
0.0
 11
1550.970589276487
 21
3172.494269174611
 31
0.0
  0
LINE
  5
18D3B
330
18C7A
100
AcDbEntity
  8
部品1
100
AcDbLine
 10
1534.470589276487
 20
3146.494269174608
 30
0.0
 11
1509.470589276487
 21
3146.494269174611
 31
0.0
  0
LINE
  5
18D3C
330
18C7A
100
AcDbEntity
  8
部品1
100
AcDbLine
 10
1486.970589276487
 20
3172.494269174611
 30
0.0
 11
1486.970589276487
 21
3154.494269174611
 31
0.0
  0
LINE
  5
18D3D
330
18C7A
100
AcDbEntity
  8
部品1
100
AcDbLine
 10
1492.970589276487
 20
3172.494269174611
 30
0.0
 11
1486.970589276487
 21
3172.494269174611
 31
0.0
  0
LINE
  5
18D3E
330
18C7A
100
AcDbEntity
  8
部品1
100
AcDbLine
 10
1534.470589276487
 20
2702.494269174615
 30
0.0
 11
1509.470589276487
 21
2702.494269174615
 31
0.0
  0
LINE
  5
18D3F
330
18C7A
100
AcDbEntity
  8
部品1
 48
50.0
100
AcDbLine
 10
1536.470589276487
 20
3152.494269174611
 30
0.0
 11
1536.470589276487
 21
2702.494269174615
 31
0.0
  0
LINE
  5
18D40
330
18C7A
100
AcDbEntity
  8
部品1
 48
50.0
100
AcDbLine
 10
1508.470589276487
 20
3152.494269174607
 30
0.0
 11
1508.470589276487
 21
2702.494269174615
 31
0.0
  0
LINE
  5
18D41
330
18C7A
100
AcDbEntity
  8
部品1
 48
50.0
100
AcDbLine
 10
1534.470589276487
 20
3154.494269174618
 30
0.0
 11
1534.470589276487
 21
2702.494269174615
 31
0.0
  0
LINE
  5
18D42
330
18C7A
100
AcDbEntity
  8
部品1
 48
50.0
100
AcDbLine
 10
1509.470589276487
 20
3154.494269174615
 30
0.0
 11
1509.470589276487
 21
2702.494269174615
 31
0.0
  0
LINE
  5
18D43
330
18C7A
100
AcDbEntity
  8
部品1
100
AcDbLine
 10
3411.970589276556
 20
1392.494269174582
 30
0.0
 11
3411.970589276556
 21
1420.494269174596
 31
0.0
  0
LINE
  5
18D44
330
18C7A
100
AcDbEntity
  8
部品1
100
AcDbLine
 10
1311.970589276523
 20
1392.494269174596
 30
0.0
 11
1311.970589276523
 21
1420.494269174596
 31
0.0
  0
LINE
  5
18D45
330
18C7A
100
AcDbEntity
  8
部品1
100
AcDbLine
 10
891.9705892765232
 20
1392.494269174596
 30
0.0
 11
891.9705892765232
 21
1420.494269174596
 31
0.0
  0
LINE
  5
18D46
330
18C7A
100
AcDbEntity
  8
部品1
100
AcDbLine
 10
3411.97058927652
 20
3182.494269174477
 30
0.0
 11
3411.970589276523
 21
3154.494269174477
 31
0.0
  0
LINE
  5
18D47
330
18C7A
100
AcDbEntity
  8
部品1
100
AcDbLine
 10
2571.97058927652
 20
3182.494269174477
 30
0.0
 11
2571.970589276523
 21
3154.494269174477
 31
0.0
  0
LINE
  5
18D48
330
18C7A
100
AcDbEntity
  8
部品1
100
AcDbLine
 10
2991.97058927652
 20
3182.494269174477
 30
0.0
 11
2991.970589276523
 21
3154.494269174477
 31
0.0
  0
LINE
  5
18D49
330
18C7A
100
AcDbEntity
  8
部品1
100
AcDbLine
 10
2151.970589276519
 20
3182.494269174477
 30
0.0
 11
2151.970589276523
 21
3154.494269174477
 31
0.0
  0
LINE
  5
18D4A
330
18C7A
100
AcDbEntity
  8
部品1
100
AcDbLine
 10
1731.970589276519
 20
3182.494269174477
 30
0.0
 11
1731.970589276523
 21
3154.494269174477
 31
0.0
  0
LINE
  5
18D4B
330
18C7A
100
AcDbEntity
  8
部品1
100
AcDbLine
 10
1311.970589276519
 20
3182.494269174477
 30
0.0
 11
1311.970589276523
 21
3154.494269174477
 31
0.0
  0
LINE
  5
18D4C
330
18C7A
100
AcDbEntity
  8
部品1
100
AcDbLine
 10
891.9705892765195
 20
3182.494269174477
 30
0.0
 11
891.9705892765232
 21
3154.494269174477
 31
0.0
  0
LINE
  5
18D4D
330
18C7A
100
AcDbEntity
  8
部品1
100
AcDbLine
 10
471.9705892765232
 20
1392.494269174596
 30
0.0
 11
471.9705892765232
 21
1420.494269174596
 31
0.0
  0
LINE
  5
18D4E
330
18C7A
100
AcDbEntity
  8
部品1
100
AcDbLine
 10
444.9705892765305
 20
1420.494269174558
 30
0.0
 11
3858.970589276556
 21
1420.494269174596
 31
0.0
  0
LINE
  5
18D4F
330
18C7A
100
AcDbEntity
  8
部品1
100
AcDbLine
 10
3831.970589276556
 20
1392.494269174596
 30
0.0
 11
3831.970589276556
 21
1420.494269174596
 31
0.0
  0
LINE
  5
18D50
330
18C7A
100
AcDbEntity
  8
部品1
100
AcDbLine
 10
3858.970589276556
 20
1447.494269174593
 30
0.0
 11
3886.970589276556
 21
1447.494269174593
 31
0.0
  0
LINE
  5
18D51
330
18C7A
100
AcDbEntity
  8
部品1
100
AcDbLine
 10
3858.970589276556
 20
1867.494269174607
 30
0.0
 11
3886.970589276556
 21
1867.494269174607
 31
0.0
  0
LINE
  5
18D52
330
18C7A
100
AcDbEntity
  8
部品1
100
AcDbLine
 10
444.9705892765305
 20
1867.49426917448
 30
0.0
 11
416.9705892765305
 21
1867.49426917448
 31
0.0
  0
LINE
  5
18D53
330
18C7A
100
AcDbEntity
  8
部品1
100
AcDbLine
 10
3830.470589276541
 20
1867.49426917458
 30
0.0
 11
473.4705892765396
 21
1867.49426917448
 31
0.0
  0
LINE
  5
18D54
330
18C7A
100
AcDbEntity
  8
部品1
100
AcDbLine
 10
3830.470589276541
 20
2287.49426917458
 30
0.0
 11
473.4705892765396
 21
2287.49426917448
 31
0.0
  0
LINE
  5
18D55
330
18C7A
100
AcDbEntity
  8
部品1
100
AcDbLine
 10
444.9705892765305
 20
2287.49426917448
 30
0.0
 11
416.9705892765305
 21
2287.49426917448
 31
0.0
  0
LINE
  5
18D56
330
18C7A
100
AcDbEntity
  8
部品1
100
AcDbLine
 10
3858.970589276556
 20
2287.494269174608
 30
0.0
 11
3886.970589276556
 21
2287.494269174608
 31
0.0
  0
LINE
  5
18D57
330
18C7A
100
AcDbEntity
  8
部品1
 48
50.0
100
AcDbLine
 10
2151.970589276551
 20
2702.494269174586
 30
0.0
 11
2151.970589276581
 21
1448.994269174494
 31
0.0
  0
LINE
  5
18D58
330
18C7A
100
AcDbEntity
  8
破線
 48
10.0
100
AcDbLine
 10
2959.470589276535
 20
1472.494269174522
 30
0.0
 11
2176.970589276532
 21
1472.494269174505
 31
0.0
  0
LINE
  5
18D59
330
18C7A
100
AcDbEntity
  8
破線
 48
10.0
100
AcDbLine
 10
3009.47058927653
 20
1448.994269174509
 30
0.0
 11
3009.47058927653
 21
2702.494269174615
 31
0.0
  0
LINE
  5
18D5A
330
18C7A
100
AcDbEntity
  8
破線
 48
10.0
100
AcDbLine
 10
2959.470589276535
 20
1448.994269174505
 30
0.0
 11
2959.470589276531
 21
2702.494269174615
 31
0.0
  0
LINE
  5
18D5B
330
18C7A
100
AcDbEntity
  8
破線
 48
10.0
100
AcDbLine
 10
1344.47058927653
 20
1448.994269174509
 30
0.0
 11
1344.47058927653
 21
2702.494269174615
 31
0.0
  0
LINE
  5
18D5C
330
18C7A
100
AcDbEntity
  8
破線
 48
10.0
100
AcDbLine
 10
1294.470589276534
 20
1448.994269174505
 30
0.0
 11
1294.47058927653
 21
2702.494269174615
 31
0.0
  0
DIMENSION
  5
18D5D
330
18C7A
100
AcDbEntity
  8
寸法
100
AcDbDimension
  2
*D13
 10
1451.234916278005
 20
2488.887829538828
 30
0.0
 11
916.0604668248634
 21
2488.887829538828
 31
0.0
 12
-3742.925985830444
 22
-6453.628869860112
 32
0.0
 70
   128
 71
     5
 42
1062.99999999993
  3
INABA_S40G
100
AcDbAlignedDimension
 13
445.4705892765559
 23
2702.494269174505
 33
0.0
 14
1508.470589276486
 24
2702.494269174558
 34
0.0
100
AcDbRotatedDimension
1001
ACAD
1000
DSTYLE
1002
{
1002
}
  0
LINE
  5
18D5E
330
18C7A
100
AcDbEntity
  8
破線
 48
10.0
100
AcDbLine
 10
1294.470589276534
 20
1472.494269174469
 30
0.0
 11
496.9705892765414
 21
1472.494269174476
 31
0.0
  0
LINE
  5
18D5F
330
18C7A
100
AcDbEntity
  8
部品1
100
AcDbLine
 10
3831.970589276556
 20
3182.494269174604
 30
0.0
 11
3831.970589276556
 21
3154.494269174604
 31
0.0
  0
LINE
  5
18D60
330
18C7A
100
AcDbEntity
  8
部品1
100
AcDbLine
 10
3831.970589276556
 20
3182.494269174626
 30
0.0
 11
3831.970589276556
 21
3154.494269174626
 31
0.0
  0
LINE
  5
18D61
330
18C7A
100
AcDbEntity
  8
部品1
100
AcDbLine
 10
3858.970589276556
 20
3127.494269174607
 30
0.0
 11
3886.970589276556
 21
3127.494269174607
 31
0.0
  0
LINE
  5
18D62
330
18C7A
100
AcDbEntity
  8
部品1
100
AcDbLine
 10
3858.970589276556
 20
2707.494269174608
 30
0.0
 11
3886.970589276556
 21
2707.494269174608
 31
0.0
  0
LINE
  5
18D63
330
18C7A
100
AcDbEntity
  8
部品1
100
AcDbLine
 10
3858.470589276556
 20
3152.494269174604
 30
0.0
 11
3858.470589276556
 21
2702.494269174608
 31
0.0
  0
LINE
  5
18D64
330
18C7A
100
AcDbEntity
  8
部品1
100
AcDbLine
 10
3886.970589276533
 20
1447.494269174593
 30
0.0
 11
3886.970589276531
 21
1392.494269174596
 31
0.0
  0
LINE
  5
18D65
330
18C7A
100
AcDbEntity
  8
部品1
 48
50.0
100
AcDbLine
 10
3830.470589276556
 20
1448.994269174596
 30
0.0
 11
3858.970589276554
 21
1420.494269174596
 31
0.0
  0
LINE
  5
18D66
330
18C7A
100
AcDbEntity
  8
部品1
100
AcDbLine
 10
3886.970589276531
 20
1392.494269174596
 30
0.0
 11
3835.970589276531
 21
1392.494269174596
 31
0.0
  0
LINE
  5
18D67
330
18C7A
100
AcDbEntity
  8
部品1
100
AcDbLine
 10
3858.970589276533
 20
1447.494269174593
 30
0.0
 11
3886.970589276531
 21
1447.494269174593
 31
0.0
  0
LINE
  5
18D68
330
18C7A
100
AcDbEntity
  8
部品1
100
AcDbLine
 10
3886.970589276556
 20
3182.494269174604
 30
0.0
 11
3886.970589276531
 21
1392.494269174596
 31
0.0
  0
DIMENSION
  5
18D69
330
18C7A
100
AcDbEntity
  8
寸法
100
AcDbDimension
  2
*D12
 10
4534.396935010967
 20
1447.494269174593
 30
0.0
 11
4534.396935010965
 21
2287.4942691746
 31
0.0
 12
-3742.925985830444
 22
-6453.628869860112
 32
0.0
 70
   128
  1
4X420=<>
 71
     5
 42
1680.000000000014
  3
INABA_S40G
100
AcDbAlignedDimension
 13
3886.970589276556
 23
3127.494269174607
 33
0.0
 14
3886.970589276531
 24
1447.494269174593
 34
0.0
 50
90.0
100
AcDbRotatedDimension
1001
ACAD
1000
DSTYLE
1002
{
1002
}
  0
LINE
  5
18D6A
330
18C7A
100
AcDbEntity
  8
部品1
100
AcDbLine
 10
3858.970589276556
 20
3154.494269174604
 30
0.0
 11
3858.970589276534
 21
1420.494269174596
 31
0.0
  0
DIMENSION
  5
18D6B
330
18C7A
100
AcDbEntity
  8
寸法
100
AcDbDimension
  2
*D11
 10
4213.82831513858
 20
2607.276453505718
 30
0.0
 11
4113.828315138579
 21
2832.276453505718
 31
0.0
 12
-3742.925985830444
 22
-6453.628869860112
 32
0.0
 71
     5
 42
449.9999999999963
  3
INABA_S40G
100
AcDbAlignedDimension
 13
3858.470589276556
 23
3152.494269174604
 33
0.0
 14
3858.470589276556
 24
2702.494269174608
 34
0.0
 50
90.0
100
AcDbRotatedDimension
1001
ACAD
1000
DSTYLE
1002
{
1002
}
  0
LINE
  5
18D6C
330
18C7A
100
AcDbEntity
  8
部品1
100
AcDbLine
 10
3830.470589276547
 20
2702.494269174608
 30
0.0
 11
3830.470589276556
 21
1448.994269174596
 31
0.0
  0
LINE
  5
18D6D
330
18C7A
100
AcDbEntity
  8
破線
 48
10.0
100
AcDbLine
 10
3806.970589276549
 20
2702.494269174608
 30
0.0
 11
3806.970589276558
 21
1472.494269174593
 31
0.0
  0
LINE
  5
18D6E
330
18C7A
100
AcDbEntity
  8
部品1
100
AcDbLine
 10
2769.470589276556
 20
3146.494269174608
 30
0.0
 11
2794.470589276556
 21
3146.494269174611
 31
0.0
  0
LINE
  5
18D6F
330
18C7A
100
AcDbEntity
  8
部品1
100
AcDbLine
 10
2810.970589276556
 20
3172.494269174611
 30
0.0
 11
2816.970589276556
 21
3172.494269174611
 31
0.0
  0
LINE
  5
18D70
330
18C7A
100
AcDbEntity
  8
部品1
100
AcDbLine
 10
2816.970589276556
 20
3172.494269174611
 30
0.0
 11
2816.970589276556
 21
3154.494269174611
 31
0.0
  0
LINE
  5
18D71
330
18C7A
100
AcDbEntity
  8
部品1
100
AcDbLine
 10
2746.970589276556
 20
3172.494269174611
 30
0.0
 11
2752.970589276556
 21
3172.494269174611
 31
0.0
  0
LINE
  5
18D72
330
18C7A
100
AcDbEntity
  8
部品1
100
AcDbLine
 10
2746.970589276556
 20
3172.494269174611
 30
0.0
 11
2746.970589276556
 21
3154.494269174611
 31
0.0
  0
LINE
  5
18D73
330
18C7A
100
AcDbEntity
  8
部品1
100
AcDbLine
 10
2769.470589276556
 20
2702.494269174615
 30
0.0
 11
2794.470589276556
 21
2702.494269174615
 31
0.0
  0
LINE
  5
18D74
330
18C7A
100
AcDbEntity
  8
部品1
 48
50.0
100
AcDbLine
 10
2794.470589276556
 20
3154.494269174615
 30
0.0
 11
2794.470589276556
 21
2702.494269174615
 31
0.0
  0
LINE
  5
18D75
330
18C7A
100
AcDbEntity
  8
部品1
 48
50.0
100
AcDbLine
 10
2769.470589276554
 20
3154.494269174618
 30
0.0
 11
2769.470589276556
 21
2702.494269174615
 31
0.0
  0
LINE
  5
18D76
330
18C7A
100
AcDbEntity
  8
部品1
 48
50.0
100
AcDbLine
 10
2795.470589276556
 20
3152.494269174607
 30
0.0
 11
2795.470589276556
 21
2702.494269174615
 31
0.0
  0
LINE
  5
18D77
330
18C7A
100
AcDbEntity
  8
部品1
 48
50.0
100
AcDbLine
 10
2767.470589276556
 20
3152.494269174611
 30
0.0
 11
2767.470589276556
 21
2702.494269174615
 31
0.0
  0
LINE
  5
18D78
330
18C7A
100
AcDbEntity
  8
破線
 48
10.0
100
AcDbLine
 10
2176.97058927653
 20
1448.994269174509
 30
0.0
 11
2176.97058927653
 21
2702.494269174588
 31
0.0
  0
LINE
  5
18D79
330
18C7A
100
AcDbEntity
  8
破線
 48
10.0
100
AcDbLine
 10
2126.970589276534
 20
1448.994269174505
 30
0.0
 11
2126.970589276531
 21
2702.494269174586
 31
0.0
  0
LINE
  5
18D7A
330
18C7A
100
AcDbEntity
  8
部品1
100
AcDbLine
 10
2794.470589276556
 20
3154.494269174622
 30
0.0
 11
3858.970589276556
 21
3154.494269174604
 31
0.0
  0
LINE
  5
18D7B
330
18C7A
100
AcDbEntity
  8
細線
 48
50.0
100
AcDbLine
 10
3858.470589276556
 20
2702.494269174608
 30
0.0
 11
2795.470589276556
 21
3152.494269174607
 31
0.0
  0
LINE
  5
18D7C
330
18C7A
100
AcDbEntity
  8
部品1
100
AcDbLine
 10
2795.470589276555
 20
2702.494269174615
 30
0.0
 11
3858.470589276556
 21
2702.494269174608
 31
0.0
  0
LINE
  5
18D7D
330
18C7A
100
AcDbEntity
  8
部品1
100
AcDbLine
 10
2795.470589276556
 20
3152.494269174611
 30
0.0
 11
3858.470589276556
 21
3152.494269174604
 31
0.0
  0
LINE
  5
18D7E
330
18C7A
100
AcDbEntity
  8
細線
 48
50.0
100
AcDbLine
 10
3858.470589276556
 20
3152.494269174604
 30
0.0
 11
2795.470589276555
 21
2702.494269174615
 31
0.0
  0
DIMENSION
  5
18D7F
330
18C7A
100
AcDbEntity
  8
寸法
100
AcDbDimension
  2
*D10
 10
3801.234916278101
 20
2488.887829538937
 30
0.0
 11
3318.360544398907
 21
2488.887829538937
 31
0.0
 12
-3742.925985830444
 22
-6453.628869860112
 32
0.0
 70
   128
 71
     5
 42
1063.000000000012
  3
INABA_S40G
100
AcDbAlignedDimension
 13
2795.470589276555
 23
2702.494269174615
 33
0.0
 14
3858.470589276567
 24
2702.494269174608
 34
0.0
100
AcDbRotatedDimension
1001
ACAD
1000
DSTYLE
1002
{
1002
}
  0
LINE
  5
18D80
330
18C7A
100
AcDbEntity
  8
破線
 48
10.0
100
AcDbLine
 10
3806.970589276556
 20
1472.494269174594
 30
0.0
 11
3009.47058927653
 21
1472.494269174523
 31
0.0
  0
DIMENSION
  5
18D81
330
18C7A
100
AcDbEntity
  8
寸法
100
AcDbDimension
  2
*D9
 10
4534.396935010941
 20
1392.494269174596
 30
0.0
 11
4534.39693501094
 21
1084.008987800356
 31
0.0
 12
-3742.925985830444
 22
-6453.628869860112
 32
0.0
 70
   128
 71
     5
 42
54.99999999999636
  3
INABA_S40G
100
AcDbAlignedDimension
 13
3886.970589276531
 23
1447.494269174593
 33
0.0
 14
3886.970589276531
 24
1392.494269174596
 34
0.0
 50
90.0
100
AcDbRotatedDimension
1001
ACAD
1000
DSTYLE
1002
{
1002
}
  0
LINE
  5
18D82
330
18C7A
100
AcDbEntity
  8
部品1
100
AcDbLine
 10
471.9705892765196
 20
3182.494269174477
 30
0.0
 11
471.9705892765232
 21
3154.494269174477
 31
0.0
  0
LINE
  5
18D83
330
18C7A
100
AcDbEntity
  8
部品1
100
AcDbLine
 10
471.9705892765559
 20
3182.494269174509
 30
0.0
 11
471.9705892765559
 21
3154.494269174509
 31
0.0
  0
LINE
  5
18D84
330
18C7A
100
AcDbEntity
  8
部品1
100
AcDbLine
 10
444.9705892765232
 20
3127.49426917448
 30
0.0
 11
416.9705892765232
 21
3127.49426917448
 31
0.0
  0
LINE
  5
18D85
330
18C7A
100
AcDbEntity
  8
部品1
100
AcDbLine
 10
444.9705892765305
 20
2707.49426917448
 30
0.0
 11
416.9705892765305
 21
2707.49426917448
 31
0.0
  0
LINE
  5
18D86
330
18C7A
100
AcDbEntity
  8
部品1
 48
50.0
100
AcDbLine
 10
445.4705892765542
 20
3152.494269174506
 30
0.0
 11
445.4705892765559
 21
2702.494269174505
 31
0.0
  0
LINE
  5
18D87
330
18C7A
100
AcDbEntity
  8
部品1
 48
50.0
100
AcDbLine
 10
473.470589276545
 20
1448.994269174573
 30
0.0
 11
444.970589276545
 21
1420.494269174574
 31
0.0
  0
LINE
  5
18D88
330
18C7A
100
AcDbEntity
  8
部品1
100
AcDbLine
 10
471.9705892765232
 20
1392.494269174465
 30
0.0
 11
416.9705892765486
 21
1392.494269174465
 31
0.0
  0
LINE
  5
18D89
330
18C7A
100
AcDbEntity
  8
部品1
100
AcDbLine
 10
444.9705892765305
 20
1447.494269174429
 30
0.0
 11
416.9705892765469
 21
1447.494269174429
 31
0.0
  0
LINE
  5
18D8A
330
18C7A
100
AcDbEntity
  8
部品1
100
AcDbLine
 10
444.9705892765305
 20
1447.494269174465
 30
0.0
 11
416.9705892765469
 21
1447.494269174465
 31
0.0
  0
LINE
  5
18D8B
330
18C7A
100
AcDbEntity
  8
部品1
100
AcDbLine
 10
444.9705892765469
 20
1447.49426917448
 30
0.0
 11
416.9705892765469
 21
1447.49426917448
 31
0.0
  0
LINE
  5
18D8C
330
18C7A
100
AcDbEntity
  8
部品1
100
AcDbLine
 10
416.9705892765469
 20
1447.494269174429
 30
0.0
 11
416.9705892765486
 21
1392.494269174433
 31
0.0
  0
LINE
  5
18D8D
330
18C7A
100
AcDbEntity
  8
部品1
100
AcDbLine
 10
416.9705892765196
 20
3182.494269174477
 30
0.0
 11
416.9705892765486
 21
1392.494269174465
 31
0.0
  0
LINE
  5
18D8E
330
18C7A
100
AcDbEntity
  8
部品1
100
AcDbLine
 10
444.9705892765305
 20
1420.494269174556
 30
0.0
 11
444.9705892765559
 21
3154.494269174509
 31
0.0
  0
LINE
  5
18D8F
330
18C7A
100
AcDbEntity
  8
部品1
100
AcDbLine
 10
473.4705892765323
 20
2702.494269174608
 30
0.0
 11
473.470589276545
 21
1448.994269174571
 31
0.0
  0
LINE
  5
18D90
330
18C7A
100
AcDbEntity
  8
破線
 48
10.0
100
AcDbLine
 10
496.9705892765305
 20
2702.494269174608
 30
0.0
 11
496.9705892765451
 21
1472.494269174476
 31
0.0
  0
DIMENSION
  5
18D91
330
18C7A
100
AcDbEntity
  8
寸法
100
AcDbDimension
  2
*D8
 10
3886.970589276531
 20
410.7433333855515
 30
0.0
 11
2168.197775309287
 21
410.7433333855515
 31
0.0
 12
-3742.925985830444
 22
-6453.628869860112
 32
0.0
 70
   128
 71
     5
 42
3469.999999999982
  3
INABA_S40G
100
AcDbAlignedDimension
 13
416.9705892765486
 23
1392.494269174433
 33
0.0
 14
3886.970589276531
 24
1392.49426917456
 34
0.0
100
AcDbRotatedDimension
1001
ACAD
1000
DSTYLE
1002
{
1070
   341
1005
0
1002
}
  0
LINE
  5
18D92
330
18C7A
100
AcDbEntity
  8
部品1
100
AcDbLine
 10
444.9705892765559
 20
3154.494269174624
 30
0.0
 11
1509.470589276487
 21
3154.494269174626
 31
0.0
  0
LINE
  5
18D93
330
18C7A
100
AcDbEntity
  8
部品1
100
AcDbLine
 10
3886.970589276531
 20
1392.494269174596
 30
0.0
 11
3411.970589276556
 21
1392.494269174582
 31
0.0
  0
LINE
  5
18D94
330
18C7A
100
AcDbEntity
  8
部品1
100
AcDbLine
 10
416.9705892765559
 20
3182.494269174509
 30
0.0
 11
3886.970589276556
 21
3182.494269174604
 31
0.0
  0
LINE
  5
18D95
330
18C7A
100
AcDbEntity
  8
部品1
100
AcDbLine
 10
445.4705892765559
 20
2702.494269174509
 30
0.0
 11
1508.470589276487
 21
2702.494269174558
 31
0.0
  0
LINE
  5
18D96
330
18C7A
100
AcDbEntity
  8
細線
 48
50.0
100
AcDbLine
 10
2767.470589276556
 20
3152.494269174611
 30
0.0
 11
1536.470589276487
 21
2702.494269174558
 31
0.0
  0
LINE
  5
18D97
330
18C7A
100
AcDbEntity
  8
部品1
100
AcDbLine
 10
445.4705892765542
 20
3152.494269174509
 30
0.0
 11
1508.470589276485
 21
3152.494269174558
 31
0.0
  0
LINE
  5
18D98
330
18C7A
100
AcDbEntity
  8
細線
 48
50.0
100
AcDbLine
 10
2767.470589276554
 20
2702.494269174615
 30
0.0
 11
1536.470589276485
 21
3152.494269174558
 31
0.0
  0
LINE
  5
18D99
330
18C7A
100
AcDbEntity
  8
破線
 48
10.0
100
AcDbLine
 10
2126.970589276534
 20
1472.494269174502
 30
0.0
 11
1344.47058927653
 21
1472.494269174473
 31
0.0
  0
LINE
  5
18D9A
330
18C7A
100
AcDbEntity
  8
部品1
100
AcDbLine
 10
3830.470589276556
 20
1448.994269174596
 30
0.0
 11
473.4705892764487
 21
1448.994269174476
 31
0.0
  0
DIMENSION
  5
18D9B
330
18C7A
100
AcDbEntity
  8
寸法
100
AcDbDimension
  2
*D7
 10
471.970589276555
 20
3698.302488799491
 30
0.0
 11
108.4853079022819
 21
3698.302488799491
 31
0.0
 12
-3742.925985830444
 22
-6453.628869860112
 32
0.0
 70
   128
 71
     5
 42
55.00000000003456
  3
INABA_S40G
100
AcDbAlignedDimension
 13
416.9705892765205
 23
3182.494269174509
 33
0.0
 14
471.970589276555
 24
3182.494269174509
 34
0.0
100
AcDbRotatedDimension
1001
ACAD
1000
DSTYLE
1002
{
1002
}
  0
DIMENSION
  5
18D9C
330
18C7A
100
AcDbEntity
  8
寸法
100
AcDbDimension
  2
*D6
 10
4534.396935010967
 20
3127.494269174607
 30
0.0
 11
4534.396935010965
 21
3490.979550548844
 31
0.0
 12
-3742.925985830444
 22
-6453.628869860112
 32
0.0
 70
   128
 71
     5
 42
54.99999999999636
  3
INABA_S40G
100
AcDbAlignedDimension
 13
3886.970589276556
 23
3182.494269174604
 33
0.0
 14
3886.970589276556
 24
3127.494269174607
 34
0.0
 50
90.0
100
AcDbRotatedDimension
1001
ACAD
1000
DSTYLE
1002
{
1002
}
  0
DIMENSION
  5
18D9D
330
18C7A
100
AcDbEntity
  8
寸法
100
AcDbDimension
  2
*D5
 10
3886.970589276556
 20
3698.302488799589
 30
0.0
 11
4195.455870650794
 21
3698.302488799589
 31
0.0
 12
-3742.925985830444
 22
-6453.628869860112
 32
0.0
 70
   128
 71
     5
 42
55.0
  3
INABA_S40G
100
AcDbAlignedDimension
 13
3831.970589276556
 23
3182.494269174604
 33
0.0
 14
3886.970589276556
 24
3182.494269174604
 34
0.0
100
AcDbRotatedDimension
1001
ACAD
1000
DSTYLE
1002
{
1002
}
  0
DIMENSION
  5
18D9E
330
18C7A
100
AcDbEntity
  8
寸法
100
AcDbDimension
  2
*D4
 10
3831.970589276556
 20
3698.302488799607
 30
0.0
 11
2151.970589276555
 21
3698.302488799607
 31
0.0
 12
-3742.925985830444
 22
-6453.628869860112
 32
0.0
 70
   128
  1
8X420=<>
 71
     5
 42
3360.000000000001
  3
INABA_S40G
100
AcDbAlignedDimension
 13
471.970589276555
 23
3182.494269174509
 33
0.0
 14
3831.970589276556
 24
3182.494269174604
 34
0.0
100
AcDbRotatedDimension
1001
ACAD
1000
DSTYLE
1002
{
1002
}
  0
DIMENSION
  5
18D9F
330
18C7A
100
AcDbEntity
  8
寸法
100
AcDbDimension
  2
*D3
 10
4899.503876750603
 20
1392.494269174596
 30
0.0
 11
4899.503876750601
 21
2287.4942691746
 31
0.0
 12
-3742.925985830444
 22
-6453.628869860112
 32
0.0
 70
   128
 71
     5
 42
1790.000000000007
  3
INABA_S40G
100
AcDbAlignedDimension
 13
3886.970589276556
 23
3182.494269174604
 33
0.0
 14
3886.970589276531
 24
1392.494269174596
 34
0.0
 50
90.0
100
AcDbRotatedDimension
1001
ACAD
1000
DSTYLE
1002
{
1002
}
  0
ENDBLK
  5
18DA1
330
18C7A
100
AcDbEntity
  8
0
 48
50.0
100
AcDbBlockEnd
  0
BLOCK
  5
1C4CB
330
1C4CA
100
AcDbEntity
  8
0
 48
50.0
100
AcDbBlockBegin
  2
_NONE
 70
     0
 10
0.0
 20
0.0
 30
0.0
  3
_NONE
  1

  0
CIRCLE
  5
1C4CC
330
1C4CA
100
AcDbEntity
  8
0
  6
ByBlock
 62
     0
 48
50.0
100
AcDbCircle
 10
0.0
 20
0.0
 30
0.0
 40
0.25
  0
ENDBLK
  5
1C4CD
330
1C4CA
100
AcDbEntity
  8
0
 48
50.0
100
AcDbBlockEnd
  0
BLOCK
  5
21ABA
330
21AB1
100
AcDbEntity
  8
0
 48
50.0
100
AcDbBlockBegin
  2
*D19
 70
     1
 10
0.0
 20
0.0
 30
0.0
  3
*D19
  1

  0
LINE
  5
21FE6
330
21AB1
100
AcDbEntity
  8
寸法
 62
     0
 48
50.0
370
    -2
100
AcDbLine
 10
7113.600000000001
 20
7566.907777930207
 30
0.0
 11
7113.600000000001
 21
8582.610661598835
 31
0.0
  0
LINE
  5
21FE7
330
21AB1
100
AcDbEntity
  8
寸法
 62
     0
 48
50.0
370
    -2
100
AcDbLine
 10
9333.6
 20
7566.907777930207
 30
0.0
 11
9333.6
 21
8582.610661598835
 31
0.0
  0
LINE
  5
21FE8
330
21AB1
100
AcDbEntity
  8
寸法
 62
     0
 48
50.0
370
    -2
100
AcDbLine
 10
7113.600000000001
 20
8522.610661598836
 30
0.0
 11
9333.6
 21
8522.610661598836
 31
0.0
  0
INSERT
  5
21FE9
330
21AB1
100
AcDbEntity
  8
寸法
 62
     0
 48
50.0
370
    -2
100
AcDbBlockReference
  2
_DOTSMALL
 10
7113.600000000001
 20
8522.610661598836
 30
0.0
 41
100.0
 42
100.0
 43
100.0
 50
180.0
  0
INSERT
  5
21FEA
330
21AB1
100
AcDbEntity
  8
寸法
 62
     0
 48
50.0
370
    -2
100
AcDbBlockReference
  2
_DOTSMALL
 10
9333.6
 20
8522.610661598836
 30
0.0
 41
100.0
 42
100.0
 43
100.0
  0
MTEXT
  5
21FEB
330
21AB1
100
AcDbEntity
  8
寸法
 62
     7
 48
50.0
100
AcDbMText
 10
8223.600000000001
 20
8622.622472622458
 30
0.0
 40
120.0
 41
0.0
 71
     5
 72
     1
  1
\A1;2220
  7
STYLE1
 73
     1
 44
1.0
1001
ACAD
1000
MTEXTBEGIN
1070
    73
1070
     1
1070
    44
1040
1.0
1070
    74
1070
     0
1000
MTEXTEND
  0
POINT
  5
21FEC
330
21AB1
100
AcDbEntity
  8
DEFPOINTS
 62
     0
 48
50.0
100
AcDbPoint
 10
7113.600000000001
 20
7546.907777930207
 30
0.0
  0
POINT
  5
21FED
330
21AB1
100
AcDbEntity
  8
DEFPOINTS
 62
     0
 48
50.0
100
AcDbPoint
 10
9333.6
 20
7546.907777930207
 30
0.0
  0
POINT
  5
21FEE
330
21AB1
100
AcDbEntity
  8
DEFPOINTS
 62
     0
 48
50.0
100
AcDbPoint
 10
9333.6
 20
8522.610661598836
 30
0.0
  0
ENDBLK
  5
21ABB
330
21AB1
100
AcDbEntity
  8
0
 48
50.0
100
AcDbBlockEnd
  0
BLOCK
  5
21AC5
330
21ABC
100
AcDbEntity
  8
0
 48
50.0
100
AcDbBlockBegin
  2
*D20
 70
     1
 10
0.0
 20
0.0
 30
0.0
  3
*D20
  1

  0
LINE
  5
21FDD
330
21ABC
100
AcDbEntity
  8
寸法
 62
     0
 48
50.0
370
    -2
100
AcDbLine
 10
9210.600000000001
 20
7493.907777930207
 30
0.0
 11
9210.600000000001
 21
8370.149966081998
 31
0.0
  0
LINE
  5
21FDE
330
21ABC
100
AcDbEntity
  8
寸法
 62
     0
 48
50.0
370
    -2
100
AcDbLine
 10
7236.6
 20
7493.907777930207
 30
0.0
 11
7236.6
 21
8370.149966081998
 31
0.0
  0
LINE
  5
21FDF
330
21ABC
100
AcDbEntity
  8
寸法
 62
     0
 48
50.0
370
    -2
100
AcDbLine
 10
9210.600000000001
 20
8310.149966081997
 30
0.0
 11
7236.6
 21
8310.149966081997
 31
0.0
  0
INSERT
  5
21FE0
330
21ABC
100
AcDbEntity
  8
寸法
 62
     0
 48
50.0
370
    -2
100
AcDbBlockReference
  2
_DOTSMALL
 10
9210.600000000001
 20
8310.149966081997
 30
0.0
 41
100.0
 42
100.0
 43
100.0
  0
INSERT
  5
21FE1
330
21ABC
100
AcDbEntity
  8
寸法
 62
     0
 48
50.0
370
    -2
100
AcDbBlockReference
  2
_DOTSMALL
 10
7236.6
 20
8310.149966081997
 30
0.0
 41
100.0
 42
100.0
 43
100.0
 50
180.0
  0
MTEXT
  5
21FE2
330
21ABC
100
AcDbEntity
  8
寸法
 62
     7
 48
50.0
100
AcDbMText
 10
8223.600000000001
 20
8410.149966081997
 30
0.0
 40
120.0
 41
0.0
 71
     5
 72
     1
  1
\A1;1974
  7
STYLE1
 73
     1
 44
1.0
1001
ACAD
1000
MTEXTBEGIN
1070
    73
1070
     1
1070
    44
1040
1.0
1070
    74
1070
     0
1000
MTEXTEND
  0
POINT
  5
21FE3
330
21ABC
100
AcDbEntity
  8
DEFPOINTS
 62
     0
 48
50.0
100
AcDbPoint
 10
9210.600000000001
 20
7473.907777930206
 30
0.0
  0
POINT
  5
21FE4
330
21ABC
100
AcDbEntity
  8
DEFPOINTS
 62
     0
 48
50.0
100
AcDbPoint
 10
7236.6
 20
7473.907777930206
 30
0.0
  0
POINT
  5
21FE5
330
21ABC
100
AcDbEntity
  8
DEFPOINTS
 62
     0
 48
50.0
100
AcDbPoint
 10
7236.6
 20
8310.149966081997
 30
0.0
  0
ENDBLK
  5
21AC6
330
21ABC
100
AcDbEntity
  8
0
 48
50.0
100
AcDbBlockEnd
  0
BLOCK
  5
21AD0
330
21AC7
100
AcDbEntity
  8
0
 48
50.0
100
AcDbBlockBegin
  2
*D21
 70
     1
 10
0.0
 20
0.0
 30
0.0
  3
*D21
  1

  0
LINE
  5
21FD4
330
21AC7
100
AcDbEntity
  8
寸法
 62
     0
 48
50.0
370
    -2
100
AcDbLine
 10
7093.600000000001
 20
6166.907777930207
 30
0.0
 11
5943.062504202129
 21
6166.907777930208
 31
0.0
  0
LINE
  5
21FD5
330
21AC7
100
AcDbEntity
  8
寸法
 62
     0
 48
50.0
370
    -2
100
AcDbLine
 10
7093.600000000001
 20
7546.907777930207
 30
0.0
 11
5943.062504202129
 21
7546.907777930208
 31
0.0
  0
LINE
  5
21FD6
330
21AC7
100
AcDbEntity
  8
寸法
 62
     0
 48
50.0
370
    -2
100
AcDbLine
 10
6003.062504202129
 20
6166.907777930208
 30
0.0
 11
6003.062504202129
 21
7546.907777930208
 31
0.0
  0
INSERT
  5
21FD7
330
21AC7
100
AcDbEntity
  8
寸法
 62
     0
 48
50.0
370
    -2
100
AcDbBlockReference
  2
_DOTSMALL
 10
6003.062504202129
 20
6166.907777930208
 30
0.0
 41
100.0
 42
100.0
 43
100.0
 50
270.0
  0
INSERT
  5
21FD8
330
21AC7
100
AcDbEntity
  8
寸法
 62
     0
 48
50.0
370
    -2
100
AcDbBlockReference
  2
_DOTSMALL
 10
6003.062504202129
 20
7546.907777930208
 30
0.0
 41
100.0
 42
100.0
 43
100.0
 50
90.0
  0
MTEXT
  5
21FD9
330
21AC7
100
AcDbEntity
  8
寸法
 62
     7
 48
50.0
100
AcDbMText
 10
5903.062504202128
 20
6856.907777930209
 30
0.0
 40
120.0
 41
0.0
 71
     5
 72
     1
  1
\A1;1380
  7
STYLE1
 11
0.0000000000000001
 21
1.0
 31
0.0
 73
     1
 44
1.0
1001
ACAD
1000
MTEXTBEGIN
1070
    73
1070
     1
1070
    44
1040
1.0
1070
    74
1070
     0
1000
MTEXTEND
  0
POINT
  5
21FDA
330
21AC7
100
AcDbEntity
  8
DEFPOINTS
 62
     0
 48
50.0
100
AcDbPoint
 10
7113.600000000001
 20
6166.907777930207
 30
0.0
  0
POINT
  5
21FDB
330
21AC7
100
AcDbEntity
  8
DEFPOINTS
 62
     0
 48
50.0
100
AcDbPoint
 10
7113.600000000001
 20
7546.907777930207
 30
0.0
  0
POINT
  5
21FDC
330
21AC7
100
AcDbEntity
  8
DEFPOINTS
 62
     0
 48
50.0
100
AcDbPoint
 10
6003.062504202129
 20
7546.907777930208
 30
0.0
  0
ENDBLK
  5
21AD1
330
21AC7
100
AcDbEntity
  8
0
 48
50.0
100
AcDbBlockEnd
  0
BLOCK
  5
21ADC
330
21AD2
100
AcDbEntity
  8
0
 48
50.0
100
AcDbBlockBegin
  2
*D22
 70
     1
 10
0.0
 20
0.0
 30
0.0
  3
*D22
  1

  0
LINE
  5
21FCB
330
21AD2
100
AcDbEntity
  8
寸法
 62
     0
 48
50.0
370
    -2
100
AcDbLine
 10
7166.600000000001
 20
7423.907777930207
 30
0.0
 11
6188.555306340099
 21
7423.907777930207
 31
0.0
  0
LINE
  5
21FCC
330
21AD2
100
AcDbEntity
  8
寸法
 62
     0
 48
50.0
370
    -2
100
AcDbLine
 10
7166.600000000008
 20
6289.907777930209
 30
0.0
 11
6188.555306340099
 21
6289.907777930209
 31
0.0
  0
LINE
  5
21FCD
330
21AD2
100
AcDbEntity
  8
寸法
 62
     0
 48
50.0
370
    -2
100
AcDbLine
 10
6248.555306340098
 20
7423.907777930207
 30
0.0
 11
6248.555306340098
 21
6289.907777930209
 31
0.0
  0
INSERT
  5
21FCE
330
21AD2
100
AcDbEntity
  8
寸法
 62
     0
 48
50.0
370
    -2
100
AcDbBlockReference
  2
_DOTSMALL
 10
6248.555306340098
 20
7423.907777930207
 30
0.0
 41
100.0
 42
100.0
 43
100.0
 50
90.0
  0
INSERT
  5
21FCF
330
21AD2
100
AcDbEntity
  8
寸法
 62
     0
 48
50.0
370
    -2
100
AcDbBlockReference
  2
_DOTSMALL
 10
6248.555306340098
 20
6289.907777930209
 30
0.0
 41
100.0
 42
100.0
 43
100.0
 50
270.0
  0
MTEXT
  5
21FD0
330
21AD2
100
AcDbEntity
  8
寸法
 62
     7
 48
50.0
100
AcDbMText
 10
6148.555306340097
 20
6911.629496921214
 30
0.0
 40
120.0
 41
0.0
 71
     5
 72
     1
  1
\A1;1134
  7
STYLE1
 11
0.0000000000000001
 21
1.0
 31
0.0
 73
     1
 44
1.0
1001
ACAD
1000
MTEXTBEGIN
1070
    73
1070
     1
1070
    44
1040
1.0
1070
    74
1070
     0
1000
MTEXTEND
  0
POINT
  5
21FD1
330
21AD2
100
AcDbEntity
  8
DEFPOINTS
 62
     0
 48
50.0
100
AcDbPoint
 10
7186.6
 20
7423.907777930207
 30
0.0
  0
POINT
  5
21FD2
330
21AD2
100
AcDbEntity
  8
DEFPOINTS
 62
     0
 48
50.0
100
AcDbPoint
 10
7186.600000000009
 20
6289.907777930209
 30
0.0
  0
POINT
  5
21FD3
330
21AD2
100
AcDbEntity
  8
DEFPOINTS
 62
     0
 48
50.0
100
AcDbPoint
 10
6248.555306340098
 20
6289.907777930209
 30
0.0
  0
ENDBLK
  5
21ADD
330
21AD2
100
AcDbEntity
  8
0
 48
50.0
100
AcDbBlockEnd
  0
BLOCK
  5
21AE9
330
21ADE
100
AcDbEntity
  8
0
 48
50.0
100
AcDbBlockBegin
  2
*D23
 70
     1
 10
0.0
 20
0.0
 30
0.0
  3
*D23
  1

  0
LINE
  5
22C26
330
21ADE
100
AcDbEntity
  8
寸法
 62
     0
 48
50.0
370
    -2
100
AcDbLine
 10
7093.600000000001
 20
6091.907777930207
 30
0.0
 11
6695.938449349149
 21
6091.907777930207
 31
0.0
  0
LINE
  5
22C27
330
21ADE
100
AcDbEntity
  8
寸法
 62
     0
 48
50.0
370
    -2
100
AcDbLine
 10
6344.497572353919
 20
6166.907777930207
 30
0.0
 11
6815.93844934915
 21
6166.907777930207
 31
0.0
  0
LINE
  5
22C28
330
21ADE
100
AcDbEntity
  8
寸法
 62
     0
 48
50.0
370
    -2
100
AcDbLine
 10
6755.938449349151
 20
6166.907777930207
 30
0.0
 11
6755.938449349151
 21
6266.907777930207
 31
0.0
  0
LINE
  5
22C29
330
21ADE
100
AcDbEntity
  8
寸法
 62
     0
 48
50.0
370
    -2
100
AcDbLine
 10
6755.938449349149
 20
6091.907777930207
 30
0.0
 11
6755.938449349149
 21
5224.937215181729
 31
0.0
  0
LINE
  5
22C2A
330
21ADE
100
AcDbEntity
  8
寸法
 62
     0
 48
50.0
370
    -2
100
AcDbLine
 10
6755.938449349151
 20
6166.907777930207
 30
0.0
 11
6755.938449349149
 21
6091.907777930207
 31
0.0
  0
INSERT
  5
22C2B
330
21ADE
100
AcDbEntity
  8
寸法
 62
     0
 48
50.0
370
    -2
100
AcDbBlockReference
  2
_DOTSMALL
 10
6755.938449349151
 20
6166.907777930207
 30
0.0
 41
100.0
 42
100.0
 43
100.0
 50
270.0
  0
INSERT
  5
22C2C
330
21ADE
100
AcDbEntity
  8
寸法
 62
     0
 48
50.0
370
    -2
100
AcDbBlockReference
  2
_DOTSMALL
 10
6755.938449349149
 20
6091.907777930207
 30
0.0
 41
100.0
 42
100.0
 43
100.0
 50
90.0
  0
MTEXT
  5
22C2D
330
21ADE
100
AcDbEntity
  8
寸法
 62
     7
 48
50.0
100
AcDbMText
 10
6655.938449349149
 20
5558.422496555969
 30
0.0
 40
120.0
 41
0.0
 71
     5
 72
     1
  1
\A1;扉の出75
  7
STYLE1
 11
0.0000000000000001
 21
1.0
 31
0.0
 73
     1
 44
1.0
1001
ACAD
1000
MTEXTBEGIN
1070
    73
1070
     1
1070
    44
1040
1.0
1070
    74
1070
     0
1000
MTEXTEND
  0
POINT
  5
22C2E
330
21ADE
100
AcDbEntity
  8
DEFPOINTS
 62
     0
 48
50.0
100
AcDbPoint
 10
7113.600000000001
 20
6091.907777930207
 30
0.0
  0
POINT
  5
22C2F
330
21ADE
100
AcDbEntity
  8
DEFPOINTS
 62
     0
 48
50.0
100
AcDbPoint
 10
6324.497572353919
 20
6166.907777930207
 30
0.0
  0
POINT
  5
22C30
330
21ADE
100
AcDbEntity
  8
DEFPOINTS
 62
     0
 48
50.0
100
AcDbPoint
 10
6755.938449349151
 20
6166.907777930207
 30
0.0
  0
ENDBLK
  5
21AEA
330
21ADE
100
AcDbEntity
  8
0
 48
50.0
100
AcDbBlockEnd
  0
BLOCK
  5
21AF6
330
21AEB
100
AcDbEntity
  8
0
 48
50.0
100
AcDbBlockBegin
  2
*D24
 70
     1
 10
0.0
 20
0.0
 30
0.0
  3
*D24
  1

  0
LINE
  5
21FB6
330
21AEB
100
AcDbEntity
  8
寸法
 62
     0
 48
50.0
370
    -2
100
AcDbLine
 10
7166.600000000008
 20
6289.907777930209
 30
0.0
 11
6188.555306340099
 21
6289.907777930209
 31
0.0
  0
LINE
  5
21FB7
330
21AEB
100
AcDbEntity
  8
寸法
 62
     0
 48
50.0
370
    -2
100
AcDbLine
 10
7093.600000000001
 20
6166.907777930207
 30
0.0
 11
6188.555306340099
 21
6166.907777930207
 31
0.0
  0
LINE
  5
21FB8
330
21AEB
100
AcDbEntity
  8
寸法
 62
     0
 48
50.0
370
    -2
100
AcDbLine
 10
6248.555306340098
 20
6289.907777930209
 30
0.0
 11
6248.555306340098
 21
6166.907777930207
 31
0.0
  0
LINE
  5
21FB9
330
21AEB
100
AcDbEntity
  8
寸法
 62
     0
 48
50.0
370
    -2
100
AcDbLine
 10
6248.555306340098
 20
6166.907777930207
 30
0.0
 11
6248.555306340097
 21
5755.315894838168
 31
0.0
  0
INSERT
  5
21FBA
330
21AEB
100
AcDbEntity
  8
寸法
 62
     0
 48
50.0
370
    -2
100
AcDbBlockReference
  2
_DOTSMALL
 10
6248.555306340098
 20
6289.907777930209
 30
0.0
 41
100.0
 42
100.0
 43
100.0
 50
90.0
  0
INSERT
  5
21FBB
330
21AEB
100
AcDbEntity
  8
寸法
 62
     0
 48
50.0
370
    -2
100
AcDbBlockReference
  2
_DOTSMALL
 10
6248.555306340098
 20
6166.907777930207
 30
0.0
 41
100.0
 42
100.0
 43
100.0
 50
270.0
  0
MTEXT
  5
21FBC
330
21AEB
100
AcDbEntity
  8
寸法
 62
     7
 48
50.0
100
AcDbMText
 10
6148.543495316475
 20
5893.801176212409
 30
0.0
 40
120.0
 41
0.0
 71
     5
 72
     1
  1
\A1;123
  7
STYLE1
 11
0.0000000000000001
 21
1.0
 31
0.0
 73
     1
 44
1.0
1001
ACAD
1000
MTEXTBEGIN
1070
    73
1070
     1
1070
    44
1040
1.0
1070
    74
1070
     0
1000
MTEXTEND
  0
POINT
  5
21FBD
330
21AEB
100
AcDbEntity
  8
DEFPOINTS
 62
     0
 48
50.0
100
AcDbPoint
 10
7186.600000000009
 20
6289.907777930209
 30
0.0
  0
POINT
  5
21FBE
330
21AEB
100
AcDbEntity
  8
DEFPOINTS
 62
     0
 48
50.0
100
AcDbPoint
 10
7113.600000000001
 20
6166.907777930207
 30
0.0
  0
POINT
  5
21FBF
330
21AEB
100
AcDbEntity
  8
DEFPOINTS
 62
     0
 48
50.0
100
AcDbPoint
 10
6248.555306340098
 20
6166.907777930207
 30
0.0
  0
ENDBLK
  5
21AF7
330
21AEB
100
AcDbEntity
  8
0
 48
50.0
100
AcDbBlockEnd
  0
BLOCK
  5
21B00
330
21AF8
100
AcDbEntity
  8
0
 48
50.0
100
AcDbBlockBegin
  2
*D25
 70
     1
 10
0.0
 20
0.0
 30
0.0
  3
*D25
  1

  0
LINE
  5
2202F
330
21AF8
100
AcDbEntity
  8
寸法
 62
     0
 48
50.0
370
    -2
100
AcDbLine
 10
6228.555306340099
 20
6091.90777793022
 30
0.0
 11
5943.062504202131
 21
6091.90777793022
 31
0.0
  0
LINE
  5
22030
330
21AF8
100
AcDbEntity
  8
寸法
 62
     0
 48
50.0
370
    -2
100
AcDbLine
 10
7093.600000000001
 20
6166.907777930207
 30
0.0
 11
5943.062504202131
 21
6166.907777930208
 31
0.0
  0
LINE
  5
22031
330
21AF8
100
AcDbEntity
  8
寸法
 62
     0
 48
50.0
370
    -2
100
AcDbLine
 10
6003.06250420213
 20
6091.90777793022
 30
0.0
 11
6003.06250420213
 21
5991.907777930221
 31
0.0
  0
LINE
  5
22032
330
21AF8
100
AcDbEntity
  8
寸法
 62
     0
 48
50.0
370
    -2
100
AcDbLine
 10
6003.062504202131
 20
6166.907777930208
 30
0.0
 11
6003.062504202131
 21
6266.907777930208
 31
0.0
  0
LINE
  5
22033
330
21AF8
100
AcDbEntity
  8
寸法
 62
     0
 48
50.0
370
    -2
100
AcDbLine
 10
6003.06250420213
 20
6091.90777793022
 30
0.0
 11
6003.062504202131
 21
6166.907777930208
 31
0.0
  0
INSERT
  5
22034
330
21AF8
100
AcDbEntity
  8
寸法
 62
     0
 48
50.0
370
    -2
100
AcDbBlockReference
  2
_DOTSMALL
 10
6003.06250420213
 20
6091.90777793022
 30
0.0
 41
100.0
 42
100.0
 43
100.0
 50
90.0
  0
INSERT
  5
22035
330
21AF8
100
AcDbEntity
  8
寸法
 62
     0
 48
50.0
370
    -2
100
AcDbBlockReference
  2
_DOTSMALL
 10
6003.062504202131
 20
6166.907777930208
 30
0.0
 41
100.0
 42
100.0
 43
100.0
 50
270.0
  0
MTEXT
  5
22036
330
21AF8
100
AcDbEntity
  8
寸法
 62
     7
 48
50.0
100
AcDbMText
 10
5903.062504202129
 20
6129.407777930214
 30
0.0
 40
120.0
 41
0.0
 71
     5
 72
     1
  1
\A1;c
  7
STYLE1
 11
0.0000000000000001
 21
1.0
 31
0.0
 73
     1
 44
1.0
1001
ACAD
1000
MTEXTBEGIN
1070
    73
1070
     1
1070
    44
1040
1.0
1070
    74
1070
     0
1000
MTEXTEND
  0
POINT
  5
22037
330
21AF8
100
AcDbEntity
  8
DEFPOINTS
 62
     0
 48
50.0
100
AcDbPoint
 10
6248.555306340098
 20
6091.90777793022
 30
0.0
  0
POINT
  5
22038
330
21AF8
100
AcDbEntity
  8
DEFPOINTS
 62
     0
 48
50.0
100
AcDbPoint
 10
7113.600000000001
 20
6166.907777930207
 30
0.0
  0
POINT
  5
22039
330
21AF8
100
AcDbEntity
  8
DEFPOINTS
 62
     0
 48
50.0
100
AcDbPoint
 10
6003.062504202131
 20
6166.907777930208
 30
0.0
  0
ENDBLK
  5
21B01
330
21AF8
100
AcDbEntity
  8
0
 48
50.0
100
AcDbBlockEnd
  0
BLOCK
  5
21B0D
330
21B02
100
AcDbEntity
  8
0
 48
50.0
100
AcDbBlockBegin
  2
*D26
 70
     1
 10
0.0
 20
0.0
 30
0.0
  3
*D26
  1

  0
LINE
  5
21FA0
330
21B02
100
AcDbEntity
  8
寸法
 62
     0
 48
50.0
370
    -2
100
AcDbLine
 10
7063.6
 20
8330.149966081995
 30
0.0
 11
7063.6
 21
8582.610661598835
 31
0.0
  0
LINE
  5
21FA1
330
21B02
100
AcDbEntity
  8
寸法
 62
     0
 48
50.0
370
    -2
100
AcDbLine
 10
7113.600000000001
 20
7566.907777930207
 30
0.0
 11
7113.600000000001
 21
8582.610661598835
 31
0.0
  0
LINE
  5
21FA2
330
21B02
100
AcDbEntity
  8
寸法
 62
     0
 48
50.0
370
    -2
100
AcDbLine
 10
7113.600000000001
 20
8522.610661598836
 30
0.0
 11
7213.600000000001
 21
8522.610661598836
 31
0.0
  0
LINE
  5
21FA3
330
21B02
100
AcDbEntity
  8
寸法
 62
     0
 48
50.0
370
    -2
100
AcDbLine
 10
7063.6
 20
8522.610661598836
 30
0.0
 11
6731.250757595083
 21
8522.610661598836
 31
0.0
  0
LINE
  5
21FA4
330
21B02
100
AcDbEntity
  8
寸法
 62
     0
 48
50.0
370
    -2
100
AcDbLine
 10
7113.600000000001
 20
8522.610661598836
 30
0.0
 11
7063.6
 21
8522.610661598836
 31
0.0
  0
INSERT
  5
21FA5
330
21B02
100
AcDbEntity
  8
寸法
 62
     0
 48
50.0
370
    -2
100
AcDbBlockReference
  2
_DOTSMALL
 10
7113.600000000001
 20
8522.610661598836
 30
0.0
 41
100.0
 42
100.0
 43
100.0
 50
180.0
  0
INSERT
  5
21FA6
330
21B02
100
AcDbEntity
  8
寸法
 62
     0
 48
50.0
370
    -2
100
AcDbBlockReference
  2
_DOTSMALL
 10
7063.6
 20
8522.610661598836
 30
0.0
 41
100.0
 42
100.0
 43
100.0
  0
MTEXT
  5
21FA7
330
21B02
100
AcDbEntity
  8
寸法
 62
     7
 48
50.0
100
AcDbMText
 10
6797.425378797541
 20
8622.610661598836
 30
0.0
 40
120.0
 41
0.0
 71
     5
 72
     1
  1
\A1;a
  7
STYLE1
 73
     1
 44
1.0
1001
ACAD
1000
MTEXTBEGIN
1070
    73
1070
     1
1070
    44
1040
1.0
1070
    74
1070
     0
1000
MTEXTEND
  0
POINT
  5
21FA8
330
21B02
100
AcDbEntity
  8
DEFPOINTS
 62
     0
 48
50.0
100
AcDbPoint
 10
7063.6
 20
8310.149966081993
 30
0.0
  0
POINT
  5
21FA9
330
21B02
100
AcDbEntity
  8
DEFPOINTS
 62
     0
 48
50.0
100
AcDbPoint
 10
7113.600000000001
 20
7546.907777930207
 30
0.0
  0
POINT
  5
21FAA
330
21B02
100
AcDbEntity
  8
DEFPOINTS
 62
     0
 48
50.0
100
AcDbPoint
 10
7113.600000000001
 20
8522.610661598836
 30
0.0
  0
ENDBLK
  5
21B0E
330
21B02
100
AcDbEntity
  8
0
 48
50.0
100
AcDbBlockEnd
  0
BLOCK
  5
21B1A
330
21B0F
100
AcDbEntity
  8
0
 48
50.0
100
AcDbBlockBegin
  2
*D27
 70
     1
 10
0.0
 20
0.0
 30
0.0
  3
*D27
  1

  0
LINE
  5
21F96
330
21B0F
100
AcDbEntity
  8
寸法
 62
     0
 48
50.0
370
    -2
100
AcDbLine
 10
7236.6
 20
7493.907777930207
 30
0.0
 11
7236.6
 21
8370.149966081998
 31
0.0
  0
LINE
  5
21F97
330
21B0F
100
AcDbEntity
  8
寸法
 62
     0
 48
50.0
370
    -2
100
AcDbLine
 10
7113.600000000001
 20
7566.907777930207
 30
0.0
 11
7113.600000000001
 21
8370.149966081998
 31
0.0
  0
LINE
  5
21F98
330
21B0F
100
AcDbEntity
  8
寸法
 62
     0
 48
50.0
370
    -2
100
AcDbLine
 10
7236.6
 20
8310.149966081997
 30
0.0
 11
7113.600000000001
 21
8310.149966081997
 31
0.0
  0
LINE
  5
21F99
330
21B0F
100
AcDbEntity
  8
寸法
 62
     0
 48
50.0
370
    -2
100
AcDbLine
 10
7113.600000000001
 20
8310.149966081997
 30
0.0
 11
6702.008116907963
 21
8310.149966081997
 31
0.0
  0
INSERT
  5
21F9A
330
21B0F
100
AcDbEntity
  8
寸法
 62
     0
 48
50.0
370
    -2
100
AcDbBlockReference
  2
_DOTSMALL
 10
7236.6
 20
8310.149966081997
 30
0.0
 41
100.0
 42
100.0
 43
100.0
  0
INSERT
  5
21F9B
330
21B0F
100
AcDbEntity
  8
寸法
 62
     0
 48
50.0
370
    -2
100
AcDbBlockReference
  2
_DOTSMALL
 10
7113.600000000001
 20
8310.149966081997
 30
0.0
 41
100.0
 42
100.0
 43
100.0
 50
180.0
  0
MTEXT
  5
21F9C
330
21B0F
100
AcDbEntity
  8
寸法
 62
     7
 48
50.0
100
AcDbMText
 10
6840.493398282203
 20
8410.161777105619
 30
0.0
 40
120.0
 41
0.0
 71
     5
 72
     1
  1
\A1;123
  7
STYLE1
 73
     1
 44
1.0
1001
ACAD
1000
MTEXTBEGIN
1070
    73
1070
     1
1070
    44
1040
1.0
1070
    74
1070
     0
1000
MTEXTEND
  0
POINT
  5
21F9D
330
21B0F
100
AcDbEntity
  8
DEFPOINTS
 62
     0
 48
50.0
100
AcDbPoint
 10
7236.6
 20
7473.907777930206
 30
0.0
  0
POINT
  5
21F9E
330
21B0F
100
AcDbEntity
  8
DEFPOINTS
 62
     0
 48
50.0
100
AcDbPoint
 10
7113.600000000001
 20
7546.907777930207
 30
0.0
  0
POINT
  5
21F9F
330
21B0F
100
AcDbEntity
  8
DEFPOINTS
 62
     0
 48
50.0
100
AcDbPoint
 10
7113.600000000001
 20
8310.149966081997
 30
0.0
  0
ENDBLK
  5
21B1B
330
21B0F
100
AcDbEntity
  8
0
 48
50.0
100
AcDbBlockEnd
  0
BLOCK
  5
21B27
330
21B1C
100
AcDbEntity
  8
0
 48
50.0
100
AcDbBlockBegin
  2
*D28
 70
     1
 10
0.0
 20
0.0
 30
0.0
  3
*D28
  1

  0
LINE
  5
21F8C
330
21B1C
100
AcDbEntity
  8
寸法
 62
     0
 48
50.0
370
    -2
100
AcDbLine
 10
7093.600000000001
 20
7546.907777930207
 30
0.0
 11
6188.555306340098
 21
7546.907777930207
 31
0.0
  0
LINE
  5
21F8D
330
21B1C
100
AcDbEntity
  8
寸法
 62
     0
 48
50.0
370
    -2
100
AcDbLine
 10
7166.600000000001
 20
7423.907777930207
 30
0.0
 11
6188.555306340098
 21
7423.907777930207
 31
0.0
  0
LINE
  5
21F8E
330
21B1C
100
AcDbEntity
  8
寸法
 62
     0
 48
50.0
370
    -2
100
AcDbLine
 10
6248.555306340097
 20
7423.907777930207
 30
0.0
 11
6248.555306340097
 21
7546.907777930207
 31
0.0
  0
LINE
  5
21F8F
330
21B1C
100
AcDbEntity
  8
寸法
 62
     0
 48
50.0
370
    -2
100
AcDbLine
 10
6248.555306340097
 20
7546.907777930207
 30
0.0
 11
6248.555306340097
 21
7998.499661022242
 31
0.0
  0
INSERT
  5
21F90
330
21B1C
100
AcDbEntity
  8
寸法
 62
     0
 48
50.0
370
    -2
100
AcDbBlockReference
  2
_DOTSMALL
 10
6248.555306340097
 20
7423.907777930207
 30
0.0
 41
100.0
 42
100.0
 43
100.0
 50
270.0
  0
INSERT
  5
21F91
330
21B1C
100
AcDbEntity
  8
寸法
 62
     0
 48
50.0
370
    -2
100
AcDbBlockReference
  2
_DOTSMALL
 10
6248.555306340097
 20
7546.907777930207
 30
0.0
 41
100.0
 42
100.0
 43
100.0
 50
90.0
  0
MTEXT
  5
21F92
330
21B1C
100
AcDbEntity
  8
寸法
 62
     7
 48
50.0
100
AcDbMText
 10
6148.543495316475
 20
7860.014379648005
 30
0.0
 40
120.0
 41
0.0
 71
     5
 72
     1
  1
\A1;123
  7
STYLE1
 11
0.0000000000000001
 21
1.0
 31
0.0
 73
     1
 44
1.0
1001
ACAD
1000
MTEXTBEGIN
1070
    73
1070
     1
1070
    44
1040
1.0
1070
    74
1070
     0
1000
MTEXTEND
  0
POINT
  5
21F93
330
21B1C
100
AcDbEntity
  8
DEFPOINTS
 62
     0
 48
50.0
100
AcDbPoint
 10
7113.600000000001
 20
7546.907777930207
 30
0.0
  0
POINT
  5
21F94
330
21B1C
100
AcDbEntity
  8
DEFPOINTS
 62
     0
 48
50.0
100
AcDbPoint
 10
7186.6
 20
7423.907777930207
 30
0.0
  0
POINT
  5
21F95
330
21B1C
100
AcDbEntity
  8
DEFPOINTS
 62
     0
 48
50.0
100
AcDbPoint
 10
6248.555306340097
 20
7423.907777930207
 30
0.0
  0
ENDBLK
  5
21B28
330
21B1C
100
AcDbEntity
  8
0
 48
50.0
100
AcDbBlockEnd
  0
BLOCK
  5
21B33
330
21B29
100
AcDbEntity
  8
0
 48
50.0
100
AcDbBlockBegin
  2
*D29
 70
     1
 10
0.0
 20
0.0
 30
0.0
  3
*D29
  1

  0
LINE
  5
22045
330
21B29
100
AcDbEntity
  8
寸法
 62
     0
 48
50.0
370
    -2
100
AcDbLine
 10
7093.600000000001
 20
7546.907777930207
 30
0.0
 11
5943.062504202131
 21
7546.907777930208
 31
0.0
  0
LINE
  5
22046
330
21B29
100
AcDbEntity
  8
寸法
 62
     0
 48
50.0
370
    -2
100
AcDbLine
 10
6228.555306340098
 20
7601.907777930207
 30
0.0
 11
5943.062504202131
 21
7601.907777930207
 31
0.0
  0
LINE
  5
22047
330
21B29
100
AcDbEntity
  8
寸法
 62
     0
 48
50.0
370
    -2
100
AcDbLine
 10
6003.062504202132
 20
7546.907777930208
 30
0.0
 11
6003.062504202132
 21
7446.907777930208
 31
0.0
  0
LINE
  5
22048
330
21B29
100
AcDbEntity
  8
寸法
 62
     0
 48
50.0
370
    -2
100
AcDbLine
 10
6003.062504202132
 20
7601.907777930207
 30
0.0
 11
6003.062504202132
 21
7701.907777930208
 31
0.0
  0
LINE
  5
22049
330
21B29
100
AcDbEntity
  8
寸法
 62
     0
 48
50.0
370
    -2
100
AcDbLine
 10
6003.062504202132
 20
7546.907777930208
 30
0.0
 11
6003.062504202132
 21
7601.907777930207
 31
0.0
  0
INSERT
  5
2204A
330
21B29
100
AcDbEntity
  8
寸法
 62
     0
 48
50.0
370
    -2
100
AcDbBlockReference
  2
_DOTSMALL
 10
6003.062504202132
 20
7546.907777930208
 30
0.0
 41
100.0
 42
100.0
 43
100.0
 50
90.0
  0
INSERT
  5
2204B
330
21B29
100
AcDbEntity
  8
寸法
 62
     0
 48
50.0
370
    -2
100
AcDbBlockReference
  2
_DOTSMALL
 10
6003.062504202132
 20
7601.907777930207
 30
0.0
 41
100.0
 42
100.0
 43
100.0
 50
270.0
  0
MTEXT
  5
2204C
330
21B29
100
AcDbEntity
  8
寸法
 62
     7
 48
50.0
100
AcDbMText
 10
5903.062504202131
 20
7574.407777930209
 30
0.0
 40
120.0
 41
0.0
 71
     5
 72
     1
  1
\A1;b
  7
STYLE1
 11
0.0000000000000001
 21
1.0
 31
0.0
 73
     1
 44
1.0
1001
ACAD
1000
MTEXTBEGIN
1070
    73
1070
     1
1070
    44
1040
1.0
1070
    74
1070
     0
1000
MTEXTEND
  0
POINT
  5
2204D
330
21B29
100
AcDbEntity
  8
DEFPOINTS
 62
     0
 48
50.0
100
AcDbPoint
 10
7113.600000000001
 20
7546.907777930207
 30
0.0
  0
POINT
  5
2204E
330
21B29
100
AcDbEntity
  8
DEFPOINTS
 62
     0
 48
50.0
100
AcDbPoint
 10
6248.555306340097
 20
7601.907777930207
 30
0.0
  0
POINT
  5
2204F
330
21B29
100
AcDbEntity
  8
DEFPOINTS
 62
     0
 48
50.0
100
AcDbPoint
 10
6003.062504202132
 20
7601.907777930207
 30
0.0
  0
ENDBLK
  5
21B34
330
21B29
100
AcDbEntity
  8
0
 48
50.0
100
AcDbBlockEnd
  0
BLOCK
  5
21B4A
330
21B41
100
AcDbEntity
  8
0
 48
50.0
100
AcDbBlockBegin
  2
*D30
 70
     1
 10
0.0
 20
0.0
 30
0.0
  3
*D30
  1

  0
LINE
  5
22827
330
21B41
100
AcDbEntity
  8
寸法
 62
     0
 48
50.0
370
    -2
100
AcDbLine
 10
7757.600000000003
 20
6856.907777930207
 30
0.0
 11
6418.276898698299
 21
6856.907777930207
 31
0.0
  0
LINE
  5
22828
330
21B41
100
AcDbEntity
  8
寸法
 62
     0
 48
50.0
370
    -2
100
AcDbLine
 10
7093.600000000001
 20
7546.907777930207
 30
0.0
 11
6418.276898698299
 21
7546.907777930207
 31
0.0
  0
LINE
  5
22829
330
21B41
100
AcDbEntity
  8
寸法
 62
     0
 48
50.0
370
    -2
100
AcDbLine
 10
6478.276898698299
 20
6856.907777930207
 30
0.0
 11
6478.276898698299
 21
7546.907777930207
 31
0.0
  0
INSERT
  5
2282A
330
21B41
100
AcDbEntity
  8
寸法
 62
     0
 48
50.0
370
    -2
100
AcDbBlockReference
  2
_DOTSMALL
 10
6478.276898698299
 20
6856.907777930207
 30
0.0
 41
100.0
 42
100.0
 43
100.0
 50
270.0
  0
INSERT
  5
2282B
330
21B41
100
AcDbEntity
  8
寸法
 62
     0
 48
50.0
370
    -2
100
AcDbBlockReference
  2
_DOTSMALL
 10
6478.276898698299
 20
7546.907777930207
 30
0.0
 41
100.0
 42
100.0
 43
100.0
 50
90.0
  0
MTEXT
  5
2282C
330
21B41
100
AcDbEntity
  8
寸法
 62
     7
 48
50.0
100
AcDbMText
 10
6378.276898698297
 20
7201.907777930209
 30
0.0
 40
120.0
 41
0.0
 71
     5
 72
     1
  1
\A1;690
  7
STYLE1
 11
0.0000000000000001
 21
1.0
 31
0.0
 73
     1
 44
1.0
1001
ACAD
1000
MTEXTBEGIN
1070
    73
1070
     1
1070
    44
1040
1.0
1070
    74
1070
     0
1000
MTEXTEND
  0
POINT
  5
2282D
330
21B41
100
AcDbEntity
  8
DEFPOINTS
 62
     0
 48
50.0
100
AcDbPoint
 10
7777.600000000004
 20
6856.907777930207
 30
0.0
  0
POINT
  5
2282E
330
21B41
100
AcDbEntity
  8
DEFPOINTS
 62
     0
 48
50.0
100
AcDbPoint
 10
7113.600000000001
 20
7546.907777930207
 30
0.0
  0
POINT
  5
2282F
330
21B41
100
AcDbEntity
  8
DEFPOINTS
 62
     0
 48
50.0
100
AcDbPoint
 10
6478.276898698299
 20
7546.907777930207
 30
0.0
  0
ENDBLK
  5
21B4B
330
21B41
100
AcDbEntity
  8
0
 48
50.0
100
AcDbBlockEnd
  0
BLOCK
  5
21B7D
330
21B73
100
AcDbEntity
  8
0
 48
50.0
100
AcDbBlockBegin
  2
*D31
 70
     1
 10
0.0
 20
0.0
 30
0.0
  3
*D31
  1

  0
LINE
  5
2281E
330
21B73
100
AcDbEntity
  8
寸法
 62
     0
 48
50.0
370
    -2
100
AcDbLine
 10
7093.600000000001
 20
6166.907777930218
 30
0.0
 11
6418.276898698301
 21
6166.907777930218
 31
0.0
  0
LINE
  5
2281F
330
21B73
100
AcDbEntity
  8
寸法
 62
     0
 48
50.0
370
    -2
100
AcDbLine
 10
7757.600000000003
 20
6856.907777930207
 30
0.0
 11
6418.276898698301
 21
6856.907777930207
 31
0.0
  0
LINE
  5
22820
330
21B73
100
AcDbEntity
  8
寸法
 62
     0
 48
50.0
370
    -2
100
AcDbLine
 10
6478.276898698301
 20
6166.907777930218
 30
0.0
 11
6478.276898698301
 21
6856.907777930207
 31
0.0
  0
INSERT
  5
22821
330
21B73
100
AcDbEntity
  8
寸法
 62
     0
 48
50.0
370
    -2
100
AcDbBlockReference
  2
_DOTSMALL
 10
6478.276898698301
 20
6166.907777930218
 30
0.0
 41
100.0
 42
100.0
 43
100.0
 50
270.0
  0
INSERT
  5
22822
330
21B73
100
AcDbEntity
  8
寸法
 62
     0
 48
50.0
370
    -2
100
AcDbBlockReference
  2
_DOTSMALL
 10
6478.276898698301
 20
6856.907777930207
 30
0.0
 41
100.0
 42
100.0
 43
100.0
 50
90.0
  0
MTEXT
  5
22823
330
21B73
100
AcDbEntity
  8
寸法
 62
     7
 48
50.0
100
AcDbMText
 10
6378.276898698299
 20
6541.120553595383
 30
0.0
 40
120.0
 41
0.0
 71
     5
 72
     1
  1
\A1;690
  7
STYLE1
 11
0.0000000000000001
 21
1.0
 31
0.0
 73
     1
 44
1.0
1001
ACAD
1000
MTEXTBEGIN
1070
    73
1070
     1
1070
    44
1040
1.0
1070
    74
1070
     0
1000
MTEXTEND
  0
POINT
  5
22824
330
21B73
100
AcDbEntity
  8
DEFPOINTS
 62
     0
 48
50.0
100
AcDbPoint
 10
7113.600000000001
 20
6166.907777930218
 30
0.0
  0
POINT
  5
22825
330
21B73
100
AcDbEntity
  8
DEFPOINTS
 62
     0
 48
50.0
100
AcDbPoint
 10
7777.600000000004
 20
6856.907777930207
 30
0.0
  0
POINT
  5
22826
330
21B73
100
AcDbEntity
  8
DEFPOINTS
 62
     0
 48
50.0
100
AcDbPoint
 10
6478.276898698301
 20
6856.907777930207
 30
0.0
  0
ENDBLK
  5
21B7E
330
21B73
100
AcDbEntity
  8
0
 48
50.0
100
AcDbBlockEnd
  0
BLOCK
  5
21B8A
330
21B7F
100
AcDbEntity
  8
0
 48
50.0
100
AcDbBlockBegin
  2
*D32
 70
     1
 10
0.0
 20
0.0
 30
0.0
  3
*D32
  1

  0
LINE
  5
21F48
330
21B7F
100
AcDbEntity
  8
寸法
 62
     0
 48
50.0
370
    -2
100
AcDbLine
 10
9333.6
 20
7566.907777930207
 30
0.0
 11
9333.6
 21
8370.149966081998
 31
0.0
  0
LINE
  5
21F49
330
21B7F
100
AcDbEntity
  8
寸法
 62
     0
 48
50.0
370
    -2
100
AcDbLine
 10
9210.600000000001
 20
7493.907777930207
 30
0.0
 11
9210.600000000001
 21
8370.149966081998
 31
0.0
  0
LINE
  5
21F4A
330
21B7F
100
AcDbEntity
  8
寸法
 62
     0
 48
50.0
370
    -2
100
AcDbLine
 10
9210.600000000001
 20
8310.149966081997
 30
0.0
 11
9333.6
 21
8310.149966081997
 31
0.0
  0
LINE
  5
21F4B
330
21B7F
100
AcDbEntity
  8
寸法
 62
     0
 48
50.0
370
    -2
100
AcDbLine
 10
9333.6
 20
8310.149966081997
 30
0.0
 11
9745.191883092036
 21
8310.149966081997
 31
0.0
  0
INSERT
  5
21F4C
330
21B7F
100
AcDbEntity
  8
寸法
 62
     0
 48
50.0
370
    -2
100
AcDbBlockReference
  2
_DOTSMALL
 10
9210.600000000001
 20
8310.149966081997
 30
0.0
 41
100.0
 42
100.0
 43
100.0
 50
180.0
  0
INSERT
  5
21F4D
330
21B7F
100
AcDbEntity
  8
寸法
 62
     0
 48
50.0
370
    -2
100
AcDbBlockReference
  2
_DOTSMALL
 10
9333.6
 20
8310.149966081997
 30
0.0
 41
100.0
 42
100.0
 43
100.0
  0
MTEXT
  5
21F4E
330
21B7F
100
AcDbEntity
  8
寸法
 62
     7
 48
50.0
100
AcDbMText
 10
9606.706601717799
 20
8410.161777105619
 30
0.0
 40
120.0
 41
0.0
 71
     5
 72
     1
  1
\A1;123
  7
STYLE1
 73
     1
 44
1.0
1001
ACAD
1000
MTEXTBEGIN
1070
    73
1070
     1
1070
    44
1040
1.0
1070
    74
1070
     0
1000
MTEXTEND
  0
POINT
  5
21F4F
330
21B7F
100
AcDbEntity
  8
DEFPOINTS
 62
     0
 48
50.0
100
AcDbPoint
 10
9333.6
 20
7546.907777930207
 30
0.0
  0
POINT
  5
21F50
330
21B7F
100
AcDbEntity
  8
DEFPOINTS
 62
     0
 48
50.0
100
AcDbPoint
 10
9210.600000000001
 20
7473.907777930206
 30
0.0
  0
POINT
  5
21F51
330
21B7F
100
AcDbEntity
  8
DEFPOINTS
 62
     0
 48
50.0
100
AcDbPoint
 10
9210.600000000001
 20
8310.149966081997
 30
0.0
  0
ENDBLK
  5
21B8B
330
21B7F
100
AcDbEntity
  8
0
 48
50.0
100
AcDbBlockEnd
  0
BLOCK
  5
21BA4
330
21B99
100
AcDbEntity
  8
0
 48
50.0
100
AcDbBlockBegin
  2
*D33
 70
     1
 10
0.0
 20
0.0
 30
0.0
  3
*D33
  1

  0
LINE
  5
21F3D
330
21B99
100
AcDbEntity
  8
寸法
 62
     0
 48
50.0
370
    -2
100
AcDbLine
 10
9333.6
 20
7566.907777930207
 30
0.0
 11
9333.6
 21
8582.610661598835
 31
0.0
  0
LINE
  5
21F3E
330
21B99
100
AcDbEntity
  8
寸法
 62
     0
 48
50.0
370
    -2
100
AcDbLine
 10
9383.599999999999
 20
8330.149966082002
 30
0.0
 11
9383.599999999999
 21
8582.610661598835
 31
0.0
  0
LINE
  5
21F3F
330
21B99
100
AcDbEntity
  8
寸法
 62
     0
 48
50.0
370
    -2
100
AcDbLine
 10
9333.6
 20
8522.610661598836
 30
0.0
 11
9233.6
 21
8522.610661598836
 31
0.0
  0
LINE
  5
21F40
330
21B99
100
AcDbEntity
  8
寸法
 62
     0
 48
50.0
370
    -2
100
AcDbLine
 10
9383.599999999999
 20
8522.610661598836
 30
0.0
 11
9715.949242404919
 21
8522.610661598836
 31
0.0
  0
LINE
  5
21F41
330
21B99
100
AcDbEntity
  8
寸法
 62
     0
 48
50.0
370
    -2
100
AcDbLine
 10
9333.6
 20
8522.610661598836
 30
0.0
 11
9383.599999999999
 21
8522.610661598836
 31
0.0
  0
INSERT
  5
21F42
330
21B99
100
AcDbEntity
  8
寸法
 62
     0
 48
50.0
370
    -2
100
AcDbBlockReference
  2
_DOTSMALL
 10
9333.6
 20
8522.610661598836
 30
0.0
 41
100.0
 42
100.0
 43
100.0
  0
INSERT
  5
21F43
330
21B99
100
AcDbEntity
  8
寸法
 62
     0
 48
50.0
370
    -2
100
AcDbBlockReference
  2
_DOTSMALL
 10
9383.599999999999
 20
8522.610661598836
 30
0.0
 41
100.0
 42
100.0
 43
100.0
 50
180.0
  0
MTEXT
  5
21F44
330
21B99
100
AcDbEntity
  8
寸法
 62
     7
 48
50.0
100
AcDbMText
 10
9649.77462120246
 20
8622.610661598836
 30
0.0
 40
120.0
 41
0.0
 71
     5
 72
     1
  1
\A1;a
  7
STYLE1
 73
     1
 44
1.0
1001
ACAD
1000
MTEXTBEGIN
1070
    73
1070
     1
1070
    44
1040
1.0
1070
    74
1070
     0
1000
MTEXTEND
  0
POINT
  5
21F45
330
21B99
100
AcDbEntity
  8
DEFPOINTS
 62
     0
 48
50.0
100
AcDbPoint
 10
9333.6
 20
7546.907777930207
 30
0.0
  0
POINT
  5
21F46
330
21B99
100
AcDbEntity
  8
DEFPOINTS
 62
     0
 48
50.0
100
AcDbPoint
 10
9383.599999999999
 20
8310.149966082001
 30
0.0
  0
POINT
  5
21F47
330
21B99
100
AcDbEntity
  8
DEFPOINTS
 62
     0
 48
50.0
100
AcDbPoint
 10
9383.599999999999
 20
8522.610661598836
 30
0.0
  0
ENDBLK
  5
21BA5
330
21B99
100
AcDbEntity
  8
0
 48
50.0
100
AcDbBlockEnd
  0
BLOCK
  5
2222C
330
22221
100
AcDbEntity
  8
0
 48
50.0
100
AcDbBlockBegin
  2
*D34
 70
     1
 10
0.0
 20
0.0
 30
0.0
  3
*D34
  1

  0
LINE
  5
22C7D
330
22221
100
AcDbEntity
  8
寸法
 62
     0
 48
50.0
370
    -2
100
AcDbLine
 10
9213.599999999997
 20
7296.907777930205
 30
0.0
 11
9213.599999999997
 21
7086.106208443709
 31
0.0
  0
LINE
  5
22C7E
330
22221
100
AcDbEntity
  8
寸法
 62
     0
 48
50.0
370
    -2
100
AcDbLine
 10
9333.600000000002
 20
7271.907777930204
 30
0.0
 11
9333.600000000002
 21
7086.106208443709
 31
0.0
  0
LINE
  5
22C7F
330
22221
100
AcDbEntity
  8
寸法
 62
     0
 48
50.0
370
    -2
100
AcDbLine
 10
9213.599999999997
 20
7146.10620844371
 30
0.0
 11
9333.600000000002
 21
7146.10620844371
 31
0.0
  0
LINE
  5
22C80
330
22221
100
AcDbEntity
  8
寸法
 62
     0
 48
50.0
370
    -2
100
AcDbLine
 10
9333.600000000002
 20
7146.10620844371
 30
0.0
 11
9747.730787367373
 21
7146.10620844371
 31
0.0
  0
INSERT
  5
22C81
330
22221
100
AcDbEntity
  8
寸法
 62
     0
 48
50.0
370
    -2
100
AcDbBlockReference
  2
_DOTSMALL
 10
9213.599999999997
 20
7146.10620844371
 30
0.0
 41
100.0
 42
100.0
 43
100.0
 50
180.0
  0
INSERT
  5
22C82
330
22221
100
AcDbEntity
  8
寸法
 62
     0
 48
50.0
370
    -2
100
AcDbBlockReference
  2
_DOTSMALL
 10
9333.600000000002
 20
7146.10620844371
 30
0.0
 41
100.0
 42
100.0
 43
100.0
  0
MTEXT
  5
22C83
330
22221
100
AcDbEntity
  8
寸法
 62
     7
 48
50.0
100
AcDbMText
 10
9611.683543272885
 20
7246.118019467331
 30
0.0
 40
120.0
 41
0.0
 71
     5
 72
     1
  1
\A1;120
  7
STYLE1
 73
     1
 44
1.0
1001
ACAD
1000
MTEXTBEGIN
1070
    73
1070
     1
1070
    44
1040
1.0
1070
    74
1070
     0
1000
MTEXTEND
  0
POINT
  5
22C84
330
22221
100
AcDbEntity
  8
DEFPOINTS
 62
     0
 48
50.0
100
AcDbPoint
 10
9213.599999999997
 20
7316.907777930206
 30
0.0
  0
POINT
  5
22C85
330
22221
100
AcDbEntity
  8
DEFPOINTS
 62
     0
 48
50.0
100
AcDbPoint
 10
9333.600000000002
 20
7291.907777930203
 30
0.0
  0
POINT
  5
22C86
330
22221
100
AcDbEntity
  8
DEFPOINTS
 62
     0
 48
50.0
100
AcDbPoint
 10
9333.600000000002
 20
7146.10620844371
 30
0.0
  0
ENDBLK
  5
2222D
330
22221
100
AcDbEntity
  8
0
 48
50.0
100
AcDbBlockEnd
  0
BLOCK
  5
22239
330
2222E
100
AcDbEntity
  8
0
 48
50.0
100
AcDbBlockBegin
  2
*D35
 70
     1
 10
0.0
 20
0.0
 30
0.0
  3
*D35
  1

  0
LINE
  5
22C73
330
2222E
100
AcDbEntity
  8
寸法
 62
     0
 48
50.0
370
    -2
100
AcDbLine
 10
9213.600000000001
 20
7296.907777930205
 30
0.0
 11
9213.600000000001
 21
7086.106208443709
 31
0.0
  0
LINE
  5
22C74
330
2222E
100
AcDbEntity
  8
寸法
 62
     0
 48
50.0
370
    -2
100
AcDbLine
 10
9103.6
 20
7296.907777930205
 30
0.0
 11
9103.6
 21
7086.106208443709
 31
0.0
  0
LINE
  5
22C75
330
2222E
100
AcDbEntity
  8
寸法
 62
     0
 48
50.0
370
    -2
100
AcDbLine
 10
9213.600000000001
 20
7146.10620844371
 30
0.0
 11
9103.6
 21
7146.10620844371
 31
0.0
  0
LINE
  5
22C76
330
2222E
100
AcDbEntity
  8
寸法
 62
     0
 48
50.0
370
    -2
100
AcDbLine
 10
9103.6
 20
7146.10620844371
 30
0.0
 11
8708.796146023543
 21
7146.10620844371
 31
0.0
  0
INSERT
  5
22C77
330
2222E
100
AcDbEntity
  8
寸法
 62
     0
 48
50.0
370
    -2
100
AcDbBlockReference
  2
_DOTSMALL
 10
9213.600000000001
 20
7146.10620844371
 30
0.0
 41
100.0
 42
100.0
 43
100.0
  0
INSERT
  5
22C78
330
2222E
100
AcDbEntity
  8
寸法
 62
     0
 48
50.0
370
    -2
100
AcDbBlockReference
  2
_DOTSMALL
 10
9103.6
 20
7146.10620844371
 30
0.0
 41
100.0
 42
100.0
 43
100.0
 50
180.0
  0
MTEXT
  5
22C79
330
2222E
100
AcDbEntity
  8
寸法
 62
     7
 48
50.0
100
AcDbMText
 10
8832.843390118034
 20
7246.10620844371
 30
0.0
 40
120.0
 41
0.0
 71
     5
 72
     1
  1
\A1;110
  7
STYLE1
 73
     1
 44
1.0
1001
ACAD
1000
MTEXTBEGIN
1070
    73
1070
     1
1070
    44
1040
1.0
1070
    74
1070
     0
1000
MTEXTEND
  0
POINT
  5
22C7A
330
2222E
100
AcDbEntity
  8
DEFPOINTS
 62
     0
 48
50.0
100
AcDbPoint
 10
9213.600000000001
 20
7316.907777930206
 30
0.0
  0
POINT
  5
22C7B
330
2222E
100
AcDbEntity
  8
DEFPOINTS
 62
     0
 48
50.0
100
AcDbPoint
 10
9103.6
 20
7316.907777930206
 30
0.0
  0
POINT
  5
22C7C
330
2222E
100
AcDbEntity
  8
DEFPOINTS
 62
     0
 48
50.0
100
AcDbPoint
 10
9103.6
 20
7146.10620844371
 30
0.0
  0
ENDBLK
  5
2223A
330
2222E
100
AcDbEntity
  8
0
 48
50.0
100
AcDbBlockEnd
  0
BLOCK
  5
22609
330
225FF
100
AcDbEntity
  8
0
 48
50.0
100
AcDbBlockBegin
  2
*D36
 70
     1
 10
0.0
 20
0.0
 30
0.0
  3
*D36
  1

  0
LINE
  5
22815
330
225FF
100
AcDbEntity
  8
寸法
 62
     0
 48
50.0
370
    -2
100
AcDbLine
 10
9333.6
 20
7566.907777930207
 30
0.0
 11
9333.6
 21
8133.817543578535
 31
0.0
  0
LINE
  5
22816
330
225FF
100
AcDbEntity
  8
寸法
 62
     0
 48
50.0
370
    -2
100
AcDbLine
 10
8569.600000000004
 20
6976.907777930215
 30
0.0
 11
8569.600000000004
 21
8133.817543578535
 31
0.0
  0
LINE
  5
22817
330
225FF
100
AcDbEntity
  8
寸法
 62
     0
 48
50.0
370
    -2
100
AcDbLine
 10
9333.6
 20
8073.817543578535
 30
0.0
 11
8569.600000000004
 21
8073.817543578535
 31
0.0
  0
MTEXT
  5
22818
330
225FF
100
AcDbEntity
  8
寸法
 62
     7
 48
50.0
100
AcDbMText
 10
8910.370135182455
 20
8172.079508885543
 30
0.0
 40
120.0
 41
0.0
 71
     5
 72
     1
  1
\A1;764
  7
STYLE1
 73
     1
 44
1.0
1001
ACAD
1000
MTEXTBEGIN
1070
    73
1070
     1
1070
    44
1040
1.0
1070
    74
1070
     0
1000
MTEXTEND
  0
INSERT
  5
22819
330
225FF
100
AcDbEntity
  8
寸法
 62
     0
 48
50.0
370
    -2
100
AcDbBlockReference
  2
_DOTSMALL
 10
9333.6
 20
8073.817543578535
 30
0.0
 41
100.0
 42
100.0
 43
100.0
  0
INSERT
  5
2281A
330
225FF
100
AcDbEntity
  8
寸法
 62
     0
 48
50.0
370
    -2
100
AcDbBlockReference
  2
_DOTSMALL
 10
8569.600000000004
 20
8073.817543578535
 30
0.0
 41
100.0
 42
100.0
 43
100.0
 50
180.0
  0
POINT
  5
2281B
330
225FF
100
AcDbEntity
  8
DEFPOINTS
 62
     0
 48
50.0
100
AcDbPoint
 10
9333.6
 20
7546.907777930207
 30
0.0
  0
POINT
  5
2281C
330
225FF
100
AcDbEntity
  8
DEFPOINTS
 62
     0
 48
50.0
100
AcDbPoint
 10
8569.600000000004
 20
6956.907777930215
 30
0.0
  0
POINT
  5
2281D
330
225FF
100
AcDbEntity
  8
DEFPOINTS
 62
     0
 48
50.0
100
AcDbPoint
 10
8569.600000000004
 20
8073.817543578535
 30
0.0
  0
ENDBLK
  5
2260A
330
225FF
100
AcDbEntity
  8
0
 48
50.0
100
AcDbBlockEnd
  0
BLOCK
  5
22615
330
2260B
100
AcDbEntity
  8
0
 48
50.0
100
AcDbBlockBegin
  2
*D37
 70
     1
 10
0.0
 20
0.0
 30
0.0
  3
*D37
  1

  0
LINE
  5
227FA
330
2260B
100
AcDbEntity
  8
寸法
 62
     0
 48
50.0
370
    -2
100
AcDbLine
 10
7877.600000000004
 20
6866.907777930214
 30
0.0
 11
7877.600000000004
 21
8133.817543578535
 31
0.0
  0
LINE
  5
227FB
330
2260B
100
AcDbEntity
  8
寸法
 62
     0
 48
50.0
370
    -2
100
AcDbLine
 10
7113.600000000002
 20
7566.907777930207
 30
0.0
 11
7113.600000000002
 21
8133.817543578535
 31
0.0
  0
LINE
  5
227FC
330
2260B
100
AcDbEntity
  8
寸法
 62
     0
 48
50.0
370
    -2
100
AcDbLine
 10
7877.600000000004
 20
8073.817543578535
 30
0.0
 11
7113.600000000002
 21
8073.817543578535
 31
0.0
  0
INSERT
  5
227FD
330
2260B
100
AcDbEntity
  8
寸法
 62
     0
 48
50.0
370
    -2
100
AcDbBlockReference
  2
_DOTSMALL
 10
7877.600000000004
 20
8073.817543578535
 30
0.0
 41
100.0
 42
100.0
 43
100.0
  0
INSERT
  5
227FE
330
2260B
100
AcDbEntity
  8
寸法
 62
     0
 48
50.0
370
    -2
100
AcDbBlockReference
  2
_DOTSMALL
 10
7113.600000000002
 20
8073.817543578535
 30
0.0
 41
100.0
 42
100.0
 43
100.0
 50
180.0
  0
MTEXT
  5
227FF
330
2260B
100
AcDbEntity
  8
寸法
 62
     7
 48
50.0
100
AcDbMText
 10
7495.600000000002
 20
8173.817543578534
 30
0.0
 40
120.0
 41
0.0
 71
     5
 72
     1
  1
\A1;764
  7
STYLE1
 73
     1
 44
1.0
1001
ACAD
1000
MTEXTBEGIN
1070
    73
1070
     1
1070
    44
1040
1.0
1070
    74
1070
     0
1000
MTEXTEND
  0
POINT
  5
22800
330
2260B
100
AcDbEntity
  8
DEFPOINTS
 62
     0
 48
50.0
100
AcDbPoint
 10
7877.600000000004
 20
6846.907777930214
 30
0.0
  0
POINT
  5
22801
330
2260B
100
AcDbEntity
  8
DEFPOINTS
 62
     0
 48
50.0
100
AcDbPoint
 10
7113.600000000002
 20
7546.907777930207
 30
0.0
  0
POINT
  5
22802
330
2260B
100
AcDbEntity
  8
DEFPOINTS
 62
     0
 48
50.0
100
AcDbPoint
 10
7113.600000000002
 20
8073.817543578535
 30
0.0
  0
ENDBLK
  5
22616
330
2260B
100
AcDbEntity
  8
0
 48
50.0
100
AcDbBlockEnd
  0
BLOCK
  5
22621
330
22617
100
AcDbEntity
  8
0
 48
50.0
100
AcDbBlockBegin
  2
*D38
 70
     1
 10
0.0
 20
0.0
 30
0.0
  3
*D38
  1

  0
LINE
  5
2280C
330
22617
100
AcDbEntity
  8
寸法
 62
     0
 48
50.0
370
    -2
100
AcDbLine
 10
7877.600000000004
 20
6976.907777930215
 30
0.0
 11
7877.600000000004
 21
8133.817543578535
 31
0.0
  0
LINE
  5
2280D
330
22617
100
AcDbEntity
  8
寸法
 62
     0
 48
50.0
370
    -2
100
AcDbLine
 10
8569.600000000004
 20
6976.907777930215
 30
0.0
 11
8569.600000000004
 21
8133.817543578535
 31
0.0
  0
LINE
  5
2280E
330
22617
100
AcDbEntity
  8
寸法
 62
     0
 48
50.0
370
    -2
100
AcDbLine
 10
7877.600000000004
 20
8073.817543578535
 30
0.0
 11
8569.600000000004
 21
8073.817543578535
 31
0.0
  0
INSERT
  5
2280F
330
22617
100
AcDbEntity
  8
寸法
 62
     0
 48
50.0
370
    -2
100
AcDbBlockReference
  2
_DOTSMALL
 10
7877.600000000004
 20
8073.817543578535
 30
0.0
 41
100.0
 42
100.0
 43
100.0
 50
180.0
  0
INSERT
  5
22810
330
22617
100
AcDbEntity
  8
寸法
 62
     0
 48
50.0
370
    -2
100
AcDbBlockReference
  2
_DOTSMALL
 10
8569.600000000004
 20
8073.817543578535
 30
0.0
 41
100.0
 42
100.0
 43
100.0
  0
MTEXT
  5
22811
330
22617
100
AcDbEntity
  8
寸法
 62
     7
 48
50.0
100
AcDbMText
 10
8223.600000000004
 20
8173.858356143339
 30
0.0
 40
120.0
 41
0.0
 71
     5
 72
     1
  1
\A1;692
  7
STYLE1
 73
     1
 44
1.0
1001
ACAD
1000
MTEXTBEGIN
1070
    73
1070
     1
1070
    44
1040
1.0
1070
    74
1070
     0
1000
MTEXTEND
  0
POINT
  5
22812
330
22617
100
AcDbEntity
  8
DEFPOINTS
 62
     0
 48
50.0
100
AcDbPoint
 10
7877.600000000004
 20
6956.907777930215
 30
0.0
  0
POINT
  5
22813
330
22617
100
AcDbEntity
  8
DEFPOINTS
 62
     0
 48
50.0
100
AcDbPoint
 10
8569.600000000004
 20
6956.907777930215
 30
0.0
  0
POINT
  5
22814
330
22617
100
AcDbEntity
  8
DEFPOINTS
 62
     0
 48
50.0
100
AcDbPoint
 10
8569.600000000004
 20
8073.817543578535
 30
0.0
  0
ENDBLK
  5
22622
330
22617
100
AcDbEntity
  8
0
 48
50.0
100
AcDbBlockEnd
  0
BLOCK
  5
22A29
330
22A1F
100
AcDbEntity
  8
0
 48
50.0
100
AcDbBlockBegin
  2
*D39
 70
     1
 10
0.0
 20
0.0
 30
0.0
  3
*D39
  1

  0
LINE
  5
22C4E
330
22A1F
100
AcDbEntity
  8
寸法
 62
     0
 48
50.0
370
    -2
100
AcDbLine
 10
9333.6
 20
6071.907777930229
 30
0.0
 11
9333.6
 21
5317.043474506083
 31
0.0
  0
LINE
  5
22C4F
330
22A1F
100
AcDbEntity
  8
寸法
 62
     0
 48
50.0
370
    -2
100
AcDbLine
 10
7113.600000000001
 20
6071.907777930193
 30
0.0
 11
7113.600000000001
 21
5317.043474506083
 31
0.0
  0
LINE
  5
22C50
330
22A1F
100
AcDbEntity
  8
寸法
 62
     0
 48
50.0
370
    -2
100
AcDbLine
 10
9333.6
 20
5377.043474506083
 30
0.0
 11
7113.600000000001
 21
5377.043474506083
 31
0.0
  0
INSERT
  5
22C51
330
22A1F
100
AcDbEntity
  8
寸法
 62
     0
 48
50.0
370
    -2
100
AcDbBlockReference
  2
_DOTSMALL
 10
9333.6
 20
5377.043474506083
 30
0.0
 41
100.0
 42
100.0
 43
100.0
  0
INSERT
  5
22C52
330
22A1F
100
AcDbEntity
  8
寸法
 62
     0
 48
50.0
370
    -2
100
AcDbBlockReference
  2
_DOTSMALL
 10
7113.600000000001
 20
5377.043474506083
 30
0.0
 41
100.0
 42
100.0
 43
100.0
 50
180.0
  0
MTEXT
  5
22C53
330
22A1F
100
AcDbEntity
  8
寸法
 62
     7
 48
50.0
100
AcDbMText
 10
8223.600000000001
 20
5477.055285529704
 30
0.0
 40
120.0
 41
0.0
 71
     5
 72
     1
  1
\A1;扉の幅 2220
  7
STYLE1
 73
     1
 44
1.0
1001
ACAD
1000
MTEXTBEGIN
1070
    73
1070
     1
1070
    44
1040
1.0
1070
    74
1070
     0
1000
MTEXTEND
  0
POINT
  5
22C54
330
22A1F
100
AcDbEntity
  8
DEFPOINTS
 62
     0
 48
50.0
100
AcDbPoint
 10
9333.6
 20
6091.907777930229
 30
0.0
  0
POINT
  5
22C55
330
22A1F
100
AcDbEntity
  8
DEFPOINTS
 62
     0
 48
50.0
100
AcDbPoint
 10
7113.600000000001
 20
6091.907777930194
 30
0.0
  0
POINT
  5
22C56
330
22A1F
100
AcDbEntity
  8
DEFPOINTS
 62
     0
 48
50.0
100
AcDbPoint
 10
7113.600000000001
 20
5377.043474506083
 30
0.0
  0
ENDBLK
  5
22A2A
330
22A1F
100
AcDbEntity
  8
0
 48
50.0
100
AcDbBlockEnd
  0
BLOCK
  5
22A36
330
22A2B
100
AcDbEntity
  8
0
 48
50.0
100
AcDbBlockBegin
  2
*D40
 70
     1
 10
0.0
 20
0.0
 30
0.0
  3
*D40
  1

  0
LINE
  5
22C91
330
22A2B
100
AcDbEntity
  8
寸法
 62
     0
 48
50.0
370
    -2
100
AcDbLine
 10
7363.599999999998
 20
6286.907777930228
 30
0.0
 11
7632.938460046266
 21
6286.907777930228
 31
0.0
  0
LINE
  5
22C92
330
22A2B
100
AcDbEntity
  8
寸法
 62
     0
 48
50.0
370
    -2
100
AcDbLine
 10
7363.600000000002
 20
6396.907777930208
 30
0.0
 11
7632.938460046266
 21
6396.907777930208
 31
0.0
  0
LINE
  5
22C93
330
22A2B
100
AcDbEntity
  8
寸法
 62
     0
 48
50.0
370
    -2
100
AcDbLine
 10
7572.938460046266
 20
6286.907777930228
 30
0.0
 11
7572.938460046266
 21
6396.907777930208
 31
0.0
  0
LINE
  5
22C94
330
22A2B
100
AcDbEntity
  8
寸法
 62
     0
 48
50.0
370
    -2
100
AcDbLine
 10
7572.938460046266
 20
6396.907777930208
 30
0.0
 11
7572.938460046266
 21
6757.002266119184
 31
0.0
  0
INSERT
  5
22C95
330
22A2B
100
AcDbEntity
  8
寸法
 62
     0
 48
50.0
370
    -2
100
AcDbBlockReference
  2
_DOTSMALL
 10
7572.938460046266
 20
6286.907777930228
 30
0.0
 41
100.0
 42
100.0
 43
100.0
 50
270.0
  0
INSERT
  5
22C96
330
22A2B
100
AcDbEntity
  8
寸法
 62
     0
 48
50.0
370
    -2
100
AcDbBlockReference
  2
_DOTSMALL
 10
7572.938460046266
 20
6396.907777930208
 30
0.0
 41
100.0
 42
100.0
 43
100.0
 50
90.0
  0
MTEXT
  5
22C97
330
22A2B
100
AcDbEntity
  8
寸法
 62
     7
 48
50.0
100
AcDbMText
 10
7472.938460046265
 20
6632.955022024697
 30
0.0
 40
120.0
 41
0.0
 71
     5
 72
     1
  1
\A1;110
  7
STYLE1
 11
0.0000000000000001
 21
1.0
 31
0.0
 73
     1
 44
1.0
1001
ACAD
1000
MTEXTBEGIN
1070
    73
1070
     1
1070
    44
1040
1.0
1070
    74
1070
     0
1000
MTEXTEND
  0
POINT
  5
22C98
330
22A2B
100
AcDbEntity
  8
DEFPOINTS
 62
     0
 48
50.0
100
AcDbPoint
 10
7343.599999999999
 20
6286.907777930228
 30
0.0
  0
POINT
  5
22C99
330
22A2B
100
AcDbEntity
  8
DEFPOINTS
 62
     0
 48
50.0
100
AcDbPoint
 10
7343.600000000002
 20
6396.907777930208
 30
0.0
  0
POINT
  5
22C9A
330
22A2B
100
AcDbEntity
  8
DEFPOINTS
 62
     0
 48
50.0
100
AcDbPoint
 10
7572.938460046266
 20
6396.907777930208
 30
0.0
  0
ENDBLK
  5
22A37
330
22A2B
100
AcDbEntity
  8
0
 48
50.0
100
AcDbBlockEnd
  0
BLOCK
  5
22A43
330
22A38
100
AcDbEntity
  8
0
 48
50.0
100
AcDbBlockBegin
  2
*D41
 70
     1
 10
0.0
 20
0.0
 30
0.0
  3
*D41
  1

  0
LINE
  5
22C87
330
22A38
100
AcDbEntity
  8
寸法
 62
     0
 48
50.0
370
    -2
100
AcDbLine
 10
7363.600000000001
 20
6091.907777930208
 30
0.0
 11
7632.938460046266
 21
6091.907777930208
 31
0.0
  0
LINE
  5
22C88
330
22A38
100
AcDbEntity
  8
寸法
 62
     0
 48
50.0
370
    -2
100
AcDbLine
 10
7363.600000000001
 20
6286.907777930211
 30
0.0
 11
7632.938460046266
 21
6286.907777930211
 31
0.0
  0
LINE
  5
22C89
330
22A38
100
AcDbEntity
  8
寸法
 62
     0
 48
50.0
370
    -2
100
AcDbLine
 10
7572.938460046266
 20
6286.907777930211
 30
0.0
 11
7572.938460046265
 21
6091.907777930208
 31
0.0
  0
LINE
  5
22C8A
330
22A38
100
AcDbEntity
  8
寸法
 62
     0
 48
50.0
370
    -2
100
AcDbLine
 10
7572.938460046265
 20
6091.907777930208
 30
0.0
 11
7572.938460046265
 21
5714.517895522417
 31
0.0
  0
INSERT
  5
22C8B
330
22A38
100
AcDbEntity
  8
寸法
 62
     0
 48
50.0
370
    -2
100
AcDbBlockReference
  2
_DOTSMALL
 10
7572.938460046266
 20
6286.907777930211
 30
0.0
 41
100.0
 42
100.0
 43
100.0
 50
90.0
  0
INSERT
  5
22C8C
330
22A38
100
AcDbEntity
  8
寸法
 62
     0
 48
50.0
370
    -2
100
AcDbBlockReference
  2
_DOTSMALL
 10
7572.938460046265
 20
6091.907777930208
 30
0.0
 41
100.0
 42
100.0
 43
100.0
 50
270.0
  0
MTEXT
  5
22C8D
330
22A38
100
AcDbEntity
  8
寸法
 62
     7
 48
50.0
100
AcDbMText
 10
7472.938460046265
 20
5853.212836726314
 30
0.0
 40
120.0
 41
0.0
 71
     5
 72
     1
  1
\A1;195
  7
STYLE1
 11
0.0000000000000001
 21
1.0
 31
0.0
 73
     1
 44
1.0
1001
ACAD
1000
MTEXTBEGIN
1070
    73
1070
     1
1070
    44
1040
1.0
1070
    74
1070
     0
1000
MTEXTEND
  0
POINT
  5
22C8E
330
22A38
100
AcDbEntity
  8
DEFPOINTS
 62
     0
 48
50.0
100
AcDbPoint
 10
7343.600000000001
 20
6091.907777930208
 30
0.0
  0
POINT
  5
22C8F
330
22A38
100
AcDbEntity
  8
DEFPOINTS
 62
     0
 48
50.0
100
AcDbPoint
 10
7343.600000000001
 20
6286.907777930211
 30
0.0
  0
POINT
  5
22C90
330
22A38
100
AcDbEntity
  8
DEFPOINTS
 62
     0
 48
50.0
100
AcDbPoint
 10
7572.938460046266
 20
6286.907777930211
 30
0.0
  0
ENDBLK
  5
22A44
330
22A38
100
AcDbEntity
  8
0
 48
50.0
100
AcDbBlockEnd
  0
BLOCK
  5
22FD3
330
22FC9
100
AcDbEntity
  8
0
 48
50.0
100
AcDbBlockBegin
  2
*D42
 70
     1
 10
0.0
 20
0.0
 30
0.0
  3
*D42
  1

  0
LINE
  5
23051
330
22FC9
100
AcDbEntity
  8
寸法
 62
     0
 48
50.0
370
    -2
100
AcDbLine
 10
6132.112944679367
 20
1948.843865597629
 30
0.0
 11
6132.112944679367
 21
2308.84386559763
 31
0.0
  0
LINE
  5
23052
330
22FC9
100
AcDbEntity
  8
寸法
 62
     0
 48
50.0
370
    -2
100
AcDbLine
 10
5940.112944679367
 20
1948.843865597629
 30
0.0
 11
5940.112944679367
 21
2308.84386559763
 31
0.0
  0
LINE
  5
23053
330
22FC9
100
AcDbEntity
  8
寸法
 62
     0
 48
50.0
370
    -2
100
AcDbLine
 10
6132.112944679367
 20
2248.843865597629
 30
0.0
 11
5940.112944679367
 21
2248.843865597629
 31
0.0
  0
MTEXT
  5
23054
330
22FC9
100
AcDbEntity
  8
寸法
 62
     7
 48
50.0
100
AcDbMText
 10
6047.339275024565
 20
2548.523484537632
 30
0.0
 40
120.0
 41
0.0
 71
     5
 72
     1
  1
\A1;120\P195
  7
STYLE1
 73
     1
 44
1.0
1001
ACAD
1000
MTEXTBEGIN
1070
    73
1070
     1
1070
    44
1040
1.0
1070
    74
1070
     0
1000
MTEXTEND
  0
INSERT
  5
23055
330
22FC9
100
AcDbEntity
  8
寸法
 62
     0
 48
50.0
370
    -2
100
AcDbBlockReference
  2
_DOTSMALL
 10
6132.112944679367
 20
2248.843865597629
 30
0.0
 41
100.0
 42
100.0
 43
100.0
  0
INSERT
  5
23056
330
22FC9
100
AcDbEntity
  8
寸法
 62
     0
 48
50.0
370
    -2
100
AcDbBlockReference
  2
_DOTSMALL
 10
5940.112944679367
 20
2248.843865597629
 30
0.0
 41
100.0
 42
100.0
 43
100.0
 50
180.0
  0
POINT
  5
23057
330
22FC9
100
AcDbEntity
  8
DEFPOINTS
 62
     0
 48
50.0
100
AcDbPoint
 10
6132.112944679367
 20
1928.843865597629
 30
0.0
  0
POINT
  5
23058
330
22FC9
100
AcDbEntity
  8
DEFPOINTS
 62
     0
 48
50.0
100
AcDbPoint
 10
5940.112944679367
 20
1928.843865597629
 30
0.0
  0
POINT
  5
23059
330
22FC9
100
AcDbEntity
  8
DEFPOINTS
 62
     0
 48
50.0
100
AcDbPoint
 10
5940.112944679367
 20
2248.843865597629
 30
0.0
  0
ENDBLK
  5
22FD4
330
22FC9
100
AcDbEntity
  8
0
 48
50.0
100
AcDbBlockEnd
  0
BLOCK
  5
22FDF
330
22FD5
100
AcDbEntity
  8
0
 48
50.0
100
AcDbBlockBegin
  2
*D43
 70
     1
 10
0.0
 20
0.0
 30
0.0
  3
*D43
  1

  0
LINE
  5
2301F
330
22FD5
100
AcDbEntity
  8
寸法
 62
     0
 48
50.0
370
    -2
100
AcDbLine
 10
5812.112944679367
 20
996.8438655976298
 30
0.0
 11
5812.112944679367
 21
546.4142275924696
 31
0.0
  0
LINE
  5
23020
330
22FD5
100
AcDbEntity
  8
寸法
 62
     0
 48
50.0
370
    -2
100
AcDbLine
 10
6260.112944679367
 20
996.8438655976298
 30
0.0
 11
6260.112944679367
 21
546.4142275924696
 31
0.0
  0
LINE
  5
23021
330
22FD5
100
AcDbEntity
  8
寸法
 62
     0
 48
50.0
370
    -2
100
AcDbLine
 10
5812.112944679367
 20
606.4142275924695
 30
0.0
 11
6260.112944679367
 21
606.4142275924695
 31
0.0
  0
MTEXT
  5
23022
330
22FD5
100
AcDbEntity
  8
寸法
 62
     7
 48
50.0
100
AcDbMText
 10
6016.016186001144
 20
706.4142275924695
 30
0.0
 40
120.0
 41
0.0
 71
     5
 72
     1
  1
\A1;300
  7
STYLE1
 73
     1
 44
1.0
1001
ACAD
1000
MTEXTBEGIN
1070
    73
1070
     1
1070
    44
1040
1.0
1070
    74
1070
     0
1000
MTEXTEND
  0
INSERT
  5
23023
330
22FD5
100
AcDbEntity
  8
寸法
 62
     0
 48
50.0
370
    -2
100
AcDbBlockReference
  2
_DOTSMALL
 10
5812.112944679367
 20
606.4142275924695
 30
0.0
 41
100.0
 42
100.0
 43
100.0
 50
180.0
  0
INSERT
  5
23024
330
22FD5
100
AcDbEntity
  8
寸法
 62
     0
 48
50.0
370
    -2
100
AcDbBlockReference
  2
_DOTSMALL
 10
6260.112944679367
 20
606.4142275924695
 30
0.0
 41
100.0
 42
100.0
 43
100.0
  0
POINT
  5
23025
330
22FD5
100
AcDbEntity
  8
DEFPOINTS
 62
     0
 48
50.0
100
AcDbPoint
 10
5812.112944679367
 20
1016.843865597629
 30
0.0
  0
POINT
  5
23026
330
22FD5
100
AcDbEntity
  8
DEFPOINTS
 62
     0
 48
50.0
100
AcDbPoint
 10
6260.112944679367
 20
1016.843865597629
 30
0.0
  0
POINT
  5
23027
330
22FD5
100
AcDbEntity
  8
DEFPOINTS
 62
     0
 48
50.0
100
AcDbPoint
 10
6260.112944679367
 20
606.4142275924695
 30
0.0
  0
ENDBLK
  5
22FE0
330
22FD5
100
AcDbEntity
  8
0
 48
50.0
100
AcDbBlockEnd
  0
BLOCK
  5
22FEB
330
22FE1
100
AcDbEntity
  8
0
 48
50.0
100
AcDbBlockBegin
  2
*D44
 70
     1
 10
0.0
 20
0.0
 30
0.0
  3
*D44
  1

  0
LINE
  5
23028
330
22FE1
100
AcDbEntity
  8
寸法
 62
     0
 48
50.0
370
    -2
100
AcDbLine
 10
5920.112944679368
 20
1928.843865597629
 30
0.0
 11
5145.075706117626
 21
1928.84386559763
 31
0.0
  0
LINE
  5
23029
330
22FE1
100
AcDbEntity
  8
寸法
 62
     0
 48
50.0
370
    -2
100
AcDbLine
 10
5712.112944679371
 20
1144.843865597629
 30
0.0
 11
5145.075706117626
 21
1144.84386559763
 31
0.0
  0
LINE
  5
2302A
330
22FE1
100
AcDbEntity
  8
寸法
 62
     0
 48
50.0
370
    -2
100
AcDbLine
 10
5205.075706117626
 20
1928.84386559763
 30
0.0
 11
5205.075706117626
 21
1144.84386559763
 31
0.0
  0
MTEXT
  5
2302B
330
22FE1
100
AcDbEntity
  8
寸法
 62
     7
 48
50.0
100
AcDbMText
 10
5105.075706117627
 20
1516.38401525363
 30
0.0
 40
120.0
 41
0.0
 71
     5
 72
     1
  1
\A1;540
  7
STYLE1
 11
0.0000000000000001
 21
1.0
 31
0.0
 73
     1
 44
1.0
1001
ACAD
1000
MTEXTBEGIN
1070
    73
1070
     1
1070
    44
1040
1.0
1070
    74
1070
     0
1000
MTEXTEND
  0
INSERT
  5
2302C
330
22FE1
100
AcDbEntity
  8
寸法
 62
     0
 48
50.0
370
    -2
100
AcDbBlockReference
  2
_DOTSMALL
 10
5205.075706117626
 20
1928.84386559763
 30
0.0
 41
100.0
 42
100.0
 43
100.0
 50
90.0
  0
INSERT
  5
2302D
330
22FE1
100
AcDbEntity
  8
寸法
 62
     0
 48
50.0
370
    -2
100
AcDbBlockReference
  2
_DOTSMALL
 10
5205.075706117626
 20
1144.84386559763
 30
0.0
 41
100.0
 42
100.0
 43
100.0
 50
270.0
  0
POINT
  5
2302E
330
22FE1
100
AcDbEntity
  8
DEFPOINTS
 62
     0
 48
50.0
100
AcDbPoint
 10
5940.112944679367
 20
1928.843865597629
 30
0.0
  0
POINT
  5
2302F
330
22FE1
100
AcDbEntity
  8
DEFPOINTS
 62
     0
 48
50.0
100
AcDbPoint
 10
5732.112944679371
 20
1144.843865597629
 30
0.0
  0
POINT
  5
23030
330
22FE1
100
AcDbEntity
  8
DEFPOINTS
 62
     0
 48
50.0
100
AcDbPoint
 10
5205.075706117626
 20
1144.84386559763
 30
0.0
  0
ENDBLK
  5
22FEC
330
22FE1
100
AcDbEntity
  8
0
 48
50.0
100
AcDbBlockEnd
  0
BLOCK
  5
22FF7
330
22FED
100
AcDbEntity
  8
0
 48
50.0
100
AcDbBlockBegin
  2
*D45
 70
     1
 10
0.0
 20
0.0
 30
0.0
  3
*D45
  1

  0
LINE
  5
23031
330
22FED
100
AcDbEntity
  8
寸法
 62
     0
 48
50.0
370
    -2
100
AcDbLine
 10
5792.112944679367
 20
1384.84386559763
 30
0.0
 11
5609.692630946908
 21
1384.84386559763
 31
0.0
  0
LINE
  5
23032
330
22FED
100
AcDbEntity
  8
寸法
 62
     0
 48
50.0
370
    -2
100
AcDbLine
 10
5712.112944679371
 20
1144.843865597629
 30
0.0
 11
5609.692630946908
 21
1144.84386559763
 31
0.0
  0
LINE
  5
23033
330
22FED
100
AcDbEntity
  8
寸法
 62
     0
 48
50.0
370
    -2
100
AcDbLine
 10
5669.692630946908
 20
1384.84386559763
 30
0.0
 11
5669.692630946908
 21
1144.843865597629
 31
0.0
  0
MTEXT
  5
23034
330
22FED
100
AcDbEntity
  8
寸法
 62
     7
 48
50.0
100
AcDbMText
 10
5569.692630946908
 20
1264.84386559763
 30
0.0
 40
120.0
 41
0.0
 71
     5
 72
     1
  1
\A1;150
  7
STYLE1
 11
0.0000000000000001
 21
1.0
 31
0.0
 73
     1
 44
1.0
1001
ACAD
1000
MTEXTBEGIN
1070
    73
1070
     1
1070
    44
1040
1.0
1070
    74
1070
     0
1000
MTEXTEND
  0
INSERT
  5
23035
330
22FED
100
AcDbEntity
  8
寸法
 62
     0
 48
50.0
370
    -2
100
AcDbBlockReference
  2
_DOTSMALL
 10
5669.692630946908
 20
1384.84386559763
 30
0.0
 41
100.0
 42
100.0
 43
100.0
 50
90.0
  0
INSERT
  5
23036
330
22FED
100
AcDbEntity
  8
寸法
 62
     0
 48
50.0
370
    -2
100
AcDbBlockReference
  2
_DOTSMALL
 10
5669.692630946908
 20
1144.843865597629
 30
0.0
 41
100.0
 42
100.0
 43
100.0
 50
270.0
  0
POINT
  5
23037
330
22FED
100
AcDbEntity
  8
DEFPOINTS
 62
     0
 48
50.0
100
AcDbPoint
 10
5812.112944679367
 20
1384.84386559763
 30
0.0
  0
POINT
  5
23038
330
22FED
100
AcDbEntity
  8
DEFPOINTS
 62
     0
 48
50.0
100
AcDbPoint
 10
5732.112944679371
 20
1144.843865597629
 30
0.0
  0
POINT
  5
23039
330
22FED
100
AcDbEntity
  8
DEFPOINTS
 62
     0
 48
50.0
100
AcDbPoint
 10
5669.692630946908
 20
1144.843865597629
 30
0.0
  0
ENDBLK
  5
22FF8
330
22FED
100
AcDbEntity
  8
0
 48
50.0
100
AcDbBlockEnd
  0
BLOCK
  5
23008
330
22FF9
100
AcDbEntity
  8
0
 48
50.0
100
AcDbBlockBegin
  2
*D46
 70
     1
 10
0.0
 20
0.0
 30
0.0
  3
*D46
  1

  0
LINE
  5
2303A
330
22FF9
100
AcDbEntity
  8
寸法
 62
     0
 48
50.0
370
    -2
100
AcDbLine
 10
7886.952257856563
 20
1981.603865597631
 30
0.0
 11
8616.020857625406
 21
1981.603865597631
 31
0.0
  0
LINE
  5
2303B
330
22FF9
100
AcDbEntity
  8
寸法
 62
     0
 48
50.0
370
    -2
100
AcDbLine
 10
8074.152257856562
 20
1928.843865597629
 30
0.0
 11
8616.020857625406
 21
1928.843865597629
 31
0.0
  0
LINE
  5
2303C
330
22FF9
100
AcDbEntity
  8
寸法
 62
     0
 48
50.0
370
    -2
100
AcDbLine
 10
8556.020857625403
 20
1981.603865597631
 30
0.0
 11
8556.020857625403
 21
2081.603865597631
 31
0.0
  0
LINE
  5
2303D
330
22FF9
100
AcDbEntity
  8
寸法
 62
     0
 48
50.0
370
    -2
100
AcDbLine
 10
8556.020857625403
 20
1928.843865597629
 30
0.0
 11
8556.020857625403
 21
1828.84386559763
 31
0.0
  0
LINE
  5
2303E
330
22FF9
100
AcDbEntity
  8
寸法
 62
     0
 48
50.0
370
    -2
100
AcDbLine
 10
8556.020857625403
 20
1955.22386559763
 30
0.0
 11
8832.075523744432
 21
1943.719907993416
 31
0.0
  0
LINE
  5
2303F
330
22FF9
100
AcDbEntity
  8
寸法
 62
     0
 48
50.0
370
    -2
100
AcDbLine
 10
8832.075523744432
 20
1943.719907993416
 30
0.0
 11
8832.075523744432
 21
1411.702101150451
 31
0.0
  0
MTEXT
  5
23040
330
22FF9
100
AcDbEntity
  8
寸法
 62
     7
 48
50.0
100
AcDbMText
 10
8732.06371272081
 20
1677.711004571935
 30
0.0
 40
120.0
 41
0.0
 71
     5
 72
     1
  1
\A1;20～25
  7
STYLE1
 11
0.0000000000000001
 21
1.0
 31
0.0
 73
     1
 44
1.0
1001
ACAD
1000
MTEXTBEGIN
1070
    73
1070
     1
1070
    44
1040
1.0
1070
    74
1070
     0
1000
MTEXTEND
  0
LINE
  5
23041
330
22FF9
100
AcDbEntity
  8
寸法
 62
     0
 48
50.0
370
    -2
100
AcDbLine
 10
8556.020857625403
 20
1981.603865597631
 30
0.0
 11
8556.020857625403
 21
1928.843865597629
 31
0.0
  0
LINE
  5
23042
330
22FF9
100
AcDbEntity
  8
寸法
 62
     0
 48
50.0
370
    -2
100
AcDbLine
 10
8556.020857625403
 20
1981.603865597631
 30
0.0
 11
8556.020857625403
 21
1928.843865597629
 31
0.0
  0
INSERT
  5
23043
330
22FF9
100
AcDbEntity
  8
寸法
 62
     0
 48
50.0
370
    -2
100
AcDbBlockReference
  2
_DOTSMALL
 10
8556.020857625403
 20
1981.603865597631
 30
0.0
 41
100.0
 42
100.0
 43
100.0
 50
270.0
  0
INSERT
  5
23044
330
22FF9
100
AcDbEntity
  8
寸法
 62
     0
 48
50.0
370
    -2
100
AcDbBlockReference
  2
_DOTSMALL
 10
8556.020857625403
 20
1928.843865597629
 30
0.0
 41
100.0
 42
100.0
 43
100.0
 50
90.0
  0
POINT
  5
23045
330
22FF9
100
AcDbEntity
  8
DEFPOINTS
 62
     0
 48
50.0
100
AcDbPoint
 10
7866.952257856564
 20
1981.603865597631
 30
0.0
  0
POINT
  5
23046
330
22FF9
100
AcDbEntity
  8
DEFPOINTS
 62
     0
 48
50.0
100
AcDbPoint
 10
8054.152257856562
 20
1928.843865597629
 30
0.0
  0
POINT
  5
23047
330
22FF9
100
AcDbEntity
  8
DEFPOINTS
 62
     0
 48
50.0
100
AcDbPoint
 10
8556.020857625403
 20
1928.843865597629
 30
0.0
  0
ENDBLK
  5
23009
330
22FF9
100
AcDbEntity
  8
0
 48
50.0
100
AcDbBlockEnd
  0
BLOCK
  5
23014
330
2300A
100
AcDbEntity
  8
0
 48
50.0
100
AcDbBlockBegin
  2
*D47
 70
     1
 10
0.0
 20
0.0
 30
0.0
  3
*D47
  1

  0
LINE
  5
23048
330
2300A
100
AcDbEntity
  8
寸法
 62
     0
 48
50.0
370
    -2
100
AcDbLine
 10
8074.152257856562
 20
1928.843865597629
 30
0.0
 11
8616.020857625406
 21
1928.843865597629
 31
0.0
  0
LINE
  5
23049
330
2300A
100
AcDbEntity
  8
寸法
 62
     0
 48
50.0
370
    -2
100
AcDbLine
 10
8074.152257856562
 20
1604.843865597629
 30
0.0
 11
8616.020857625406
 21
1604.843865597629
 31
0.0
  0
LINE
  5
2304A
330
2300A
100
AcDbEntity
  8
寸法
 62
     0
 48
50.0
370
    -2
100
AcDbLine
 10
8556.020857625403
 20
1928.843865597629
 30
0.0
 11
8556.020857625403
 21
1604.843865597629
 31
0.0
  0
INSERT
  5
2304B
330
2300A
100
AcDbEntity
  8
寸法
 62
     0
 48
50.0
370
    -2
100
AcDbBlockReference
  2
_DOTSMALL
 10
8556.020857625403
 20
1928.843865597629
 30
0.0
 41
100.0
 42
100.0
 43
100.0
 50
90.0
  0
INSERT
  5
2304C
330
2300A
100
AcDbEntity
  8
寸法
 62
     0
 48
50.0
370
    -2
100
AcDbBlockReference
  2
_DOTSMALL
 10
8556.020857625403
 20
1604.843865597629
 30
0.0
 41
100.0
 42
100.0
 43
100.0
 50
270.0
  0
MTEXT
  5
2304D
330
2300A
100
AcDbEntity
  8
寸法
 62
     7
 48
50.0
100
AcDbMText
 10
8456.020857625404
 20
1766.84386559763
 30
0.0
 40
120.0
 41
0.0
 71
     5
 72
     1
  1
\A1;180
  7
STYLE1
 11
0.0000000000000001
 21
1.0
 31
0.0
 73
     1
 44
1.0
1001
ACAD
1000
MTEXTBEGIN
1070
    73
1070
     1
1070
    44
1040
1.0
1070
    74
1070
     0
1000
MTEXTEND
  0
POINT
  5
2304E
330
2300A
100
AcDbEntity
  8
DEFPOINTS
 62
     0
 48
50.0
100
AcDbPoint
 10
8054.152257856562
 20
1928.843865597629
 30
0.0
  0
POINT
  5
2304F
330
2300A
100
AcDbEntity
  8
DEFPOINTS
 62
     0
 48
50.0
100
AcDbPoint
 10
8054.152257856562
 20
1604.843865597629
 30
0.0
  0
POINT
  5
23050
330
2300A
100
AcDbEntity
  8
DEFPOINTS
 62
     0
 48
50.0
100
AcDbPoint
 10
8556.020857625403
 20
1604.843865597629
 30
0.0
  0
ENDBLK
  5
23015
330
2300A
100
AcDbEntity
  8
0
 48
50.0
100
AcDbBlockEnd
  0
ENDSEC
  0
SECTION
  2
ENTITIES
  0
MTEXT
  5
763F
330
747D
100
AcDbEntity
  8
0
100
AcDbMText
 10
302.846345836809
 20
280.1983726409901
 30
0.0
 40
3.5
 41
5.323721266742722
 71
     1
 72
     5
  1

  7
MSMINCHO
 73
     1
 44
1.0
1001
ACAD
1000
MTEXTBEGIN
1070
    73
1070
     1
1070
    44
1040
1.0
1070
    74
1070
     0
1000
MTEXTEND
  0
LINE
  5
10B57
330
747D
100
AcDbEntity
  8
補助
  6
PHANTOM
 62
   230
 48
50.0
100
AcDbLine
 10
139.9999999999995
 20
11409.6
 30
0.0
 11
16307.2
 21
11409.6
 31
0.0
  0
LINE
  5
10B59
330
747D
100
AcDbEntity
  8
仕様書枠
  6
Continuous
 48
50.0
100
AcDbLine
 10
13107.2
 20
1200.0
 30
0.0
 11
13107.2
 21
-0.0000000000000729
 31
0.0
  0
LINE
  5
10B5D
330
747D
100
AcDbEntity
  8
仕様書枠
 48
50.0
100
AcDbLine
 10
140.0
 20
0.0
 30
0.0
 11
16307.2
 21
-0.0000000000000909
 31
0.0
  0
LINE
  5
10B5E
330
747D
100
AcDbEntity
  8
補助
  6
PHANTOM
 62
   230
 48
50.0
100
AcDbLine
 10
16307.2
 20
11409.6
 30
0.0
 11
16307.2
 21
1200.0
 31
0.0
  0
LINE
  5
10B6C
330
747D
100
AcDbEntity
  8
仕様書枠
 48
50.0
100
AcDbLine
 10
13107.2
 20
1200.0
 30
0.0
 11
16307.2
 21
1200.0
 31
0.0
  0
TEXT
  5
10B73
330
747D
100
AcDbEntity
  8
文字
 62
     7
 48
50.0
100
AcDbText
 10
13162.9790565769
 20
895.0906074299405
 30
0.0
 40
200.0
  1
基 礎 図
  7
STYLE2
100
AcDbText
  0
LINE
  5
10B7B
330
747D
100
AcDbEntity
  8
仕様書枠
 48
50.0
100
AcDbLine
 10
13107.2
 20
800.0
 30
0.0
 11
14251.2
 21
800.0
 31
0.0
  0
LINE
  5
10B88
330
747D
100
AcDbEntity
  8
仕様書枠
  6
Continuous
 48
50.0
100
AcDbLine
 10
14251.2
 20
1200.0
 30
0.0
 11
14251.2
 21
800.0
 31
0.0
  0
LINE
  5
16462
330
747D
100
AcDbEntity
  8
仕様書枠
 48
50.0
100
AcDbLine
 10
16307.2
 20
1200.0
 30
0.0
 11
16307.2
 21
-0.0000000000000909
 31
0.0
  0
LINE
  5
1903B
330
747D
100
AcDbEntity
  8
補助
  6
PHANTOM
 62
   230
 48
50.0
100
AcDbLine
 10
140.0
 20
0.0
 30
0.0
 11
139.9999999999995
 21
11409.6
 31
0.0
  0
TEXT
  5
1C7A1
330
747D
100
AcDbEntity
  8
文字
 62
     7
 48
50.0
100
AcDbText
 10
13188.16259899338
 20
79.80631269190417
 30
0.0
 40
80.0
  1
※布基礎には換気口を設けてください。
  7
STYLE2
100
AcDbText
  0
TEXT
  5
1C7E7
330
747D
100
AcDbEntity
  8
文字
 62
     7
 48
50.0
100
AcDbText
 10
13188.16259899338
 20
246.7109242801889
 30
0.0
 40
80.0
  1
※寒冷地等は地域の実情に合わせた基礎にして下さい。
  7
STYLE2
100
AcDbText
  0
TEXT
  5
1C7E8
330
747D
100
AcDbEntity
  8
文字
 62
     7
 48
50.0
100
AcDbText
 10
14390.15861527891
 20
499.5983841039506
 30
0.0
 40
160.0
  1
ＮＸＮ－３０ＳＡ/ＨＡ
  7
STYLE2
100
AcDbText
  0
TEXT
  5
1C7E9
330
747D
100
AcDbEntity
  8
文字
 62
     7
 48
50.0
100
AcDbText
 10
14641.2525855784
 20
871.1744590657927
 30
0.0
 40
100.0
  1
～一般型・多雪地型～
  7
STYLE2
100
AcDbText
  0
TEXT
  5
1C7EC
330
747D
100
AcDbEntity
  8
文字
 62
     7
 48
50.0
100
AcDbText
 10
14524.131837222
 20
1031.557706291229
 30
0.0
 40
100.0
  1
 　    <縮尺> S=1/40
  7
STYLE2
100
AcDbText
  0
TEXT
  5
1C7ED
330
747D
100
AcDbEntity
  8
文字
 62
     7
 48
50.0
100
AcDbText
 10
13201.43669998441
 20
477.2740661031257
 30
0.0
 40
160.0
  1
機種名
  7
STYLE2
100
AcDbText
  0
LINE
  5
1C7EF
330
747D
100
AcDbEntity
  8
文字
 62
     7
 48
50.0
100
AcDbLine
 10
13187.2
 20
400.0
 30
0.0
 11
16227.2
 21
400.0
 31
0.0
  0
LINE
  5
21A39
102
{ACAD_REACTORS
330
22D0B
102
}
330
747D
100
AcDbEntity
  8
部品1
 48
50.0
100
AcDbLine
 10
9333.600000000002
 20
6091.907777930227
 30
0.0
 11
7113.600000000001
 21
6091.907777930207
 31
0.0
  0
LINE
  5
21A40
102
{ACAD_REACTORS
330
22CD3
102
}
330
747D
100
AcDbEntity
  8
部品1
 48
50.0
100
AcDbLine
 10
9333.6
 20
7546.907777930207
 30
0.0
 11
7113.600000000001
 21
7546.907777930207
 31
0.0
  0
DIMENSION
  5
21A41
330
747D
100
AcDbEntity
  8
寸法
 48
50.0
100
AcDbDimension
  2
*D19
 10
9333.6
 20
8522.610661598836
 30
0.0
 11
8223.600000000001
 21
8622.622472622458
 31
0.0
 70
    32
 71
     5
 42
2220.0
  3
INABA_S40G
100
AcDbAlignedDimension
 13
7113.600000000001
 23
7546.907777930207
 33
0.0
 14
9333.6
 24
7546.907777930207
 34
0.0
100
AcDbRotatedDimension
1001
ACAD
1000
DSTYLE
1002
{
1070
   174
1070
     0
1070
   272
1070
     1
1070
   341
1005
0
1002
}
  0
DIMENSION
  5
21A43
330
747D
100
AcDbEntity
  8
寸法
 48
50.0
100
AcDbDimension
  2
*D20
 10
7236.6
 20
8310.149966081997
 30
0.0
 11
8223.600000000001
 21
8410.149966081997
 31
0.0
 70
    32
 71
     5
 42
1974.0
  3
INABA_S40G
100
AcDbAlignedDimension
 13
9210.600000000001
 23
7473.907777930206
 33
0.0
 14
7236.6
 24
7473.907777930206
 34
0.0
100
AcDbRotatedDimension
1001
ACAD
1000
DSTYLE
1002
{
1070
   174
1070
     0
1070
   272
1070
     1
1070
   341
1005
0
1002
}
  0
LINE
  5
21A45
102
{ACAD_REACTORS
330
22CEF
102
}
330
747D
100
AcDbEntity
  8
部品1
 48
50.0
100
AcDbLine
 10
7113.600000000001
 20
6166.907777930207
 30
0.0
 11
7113.600000000001
 21
7546.907777930207
 31
0.0
  0
DIMENSION
  5
21A46
330
747D
100
AcDbEntity
  8
寸法
 48
50.0
100
AcDbDimension
  2
*D21
 10
6003.062504202129
 20
7546.907777930208
 30
0.0
 11
5903.062504202128
 21
6856.907777930209
 31
0.0
 70
    32
 71
     5
 42
1380.0
  3
INABA_S40G
100
AcDbAlignedDimension
 13
7113.600000000001
 23
6166.907777930207
 33
0.0
 14
7113.600000000001
 24
7546.907777930207
 34
0.0
 50
90.0
100
AcDbRotatedDimension
1001
ACAD
1000
DSTYLE
1002
{
1070
   174
1070
     0
1070
   272
1070
     1
1070
   341
1005
0
1002
}
  0
DIMENSION
  5
21A48
330
747D
100
AcDbEntity
  8
寸法
 48
50.0
100
AcDbDimension
  2
*D22
 10
6248.555306340098
 20
6289.907777930209
 30
0.0
 11
6248.555306340097
 21
6911.629496921214
 31
0.0
 70
   160
 71
     5
 42
1133.999999999998
  3
INABA_S40G
100
AcDbAlignedDimension
 13
7186.6
 23
7423.907777930207
 33
0.0
 14
7186.600000000009
 24
6289.907777930209
 34
0.0
 50
90.0
100
AcDbRotatedDimension
1001
ACAD
1000
DSTYLE
1002
{
1070
   174
1070
     0
1070
   272
1070
     1
1070
   341
1005
0
1002
}
  0
DIMENSION
  5
21A49
330
747D
100
AcDbEntity
  8
寸法
 48
50.0
100
AcDbDimension
  2
*D23
 10
6755.938449349151
 20
6166.907777930207
 30
0.0
 11
6755.938449349149
 21
5558.422496555969
 31
0.0
 70
   160
  1
扉の出<>
 71
     5
 42
75.0
  3
INABA_S40G
100
AcDbAlignedDimension
 13
7113.600000000001
 23
6091.907777930207
 33
0.0
 14
6324.497572353919
 24
6166.907777930207
 34
0.0
 50
90.0
100
AcDbRotatedDimension
1001
ACAD
1000
DSTYLE
1002
{
1070
   174
1070
     0
1070
   272
1070
     1
1070
   341
1005
0
1002
}
  0
DIMENSION
  5
21A4A
330
747D
100
AcDbEntity
  8
寸法
 48
50.0
100
AcDbDimension
  2
*D24
 10
6248.555306340098
 20
6166.907777930207
 30
0.0
 11
6248.555306340097
 21
5893.801176212409
 31
0.0
 70
   160
 71
     5
 42
123.0000000000018
  3
INABA_S40G
100
AcDbAlignedDimension
 13
7186.600000000009
 23
6289.907777930209
 33
0.0
 14
7113.600000000001
 24
6166.907777930207
 34
0.0
 50
90.0
100
AcDbRotatedDimension
1001
ACAD
1000
DSTYLE
1002
{
1070
   174
1070
     0
1070
   272
1070
     1
1070
   341
1005
0
1002
}
  0
DIMENSION
  5
21A4B
330
747D
100
AcDbEntity
  8
寸法
 48
50.0
100
AcDbDimension
  2
*D25
 10
6003.062504202131
 20
6166.907777930208
 30
0.0
 11
6003.062504202129
 21
6129.407777930214
 31
0.0
 70
   160
  1
c
 71
     5
 42
74.99999999998727
  3
INABA_S40G
100
AcDbAlignedDimension
 13
6248.555306340098
 23
6091.90777793022
 33
0.0
 14
7113.600000000001
 24
6166.907777930207
 34
0.0
 50
90.0
100
AcDbRotatedDimension
1001
ACAD
1000
DSTYLE
1002
{
1070
   174
1070
     0
1070
   272
1070
     1
1070
   341
1005
0
1002
}
  0
LINE
  5
21A4C
330
747D
100
AcDbEntity
  8
部品1
 48
50.0
100
AcDbLine
 10
7113.600000000001
 20
6091.907777930224
 30
0.0
 11
7113.600000000001
 21
6166.907777930207
 31
0.0
  0
LINE
  5
21A4D
330
747D
100
AcDbEntity
  8
部品1
 48
50.0
100
AcDbLine
 10
7343.600000000001
 20
6286.907777930212
 30
0.0
 11
7343.600000000001
 21
6396.90777793021
 31
0.0
  0
LINE
  5
21A4E
330
747D
100
AcDbEntity
  8
センター
 48
2.0
100
AcDbLine
 10
7236.600000000009
 20
6339.907777930209
 30
0.0
 11
7236.600000000009
 21
6239.907777930209
 31
0.0
  0
CIRCLE
  5
21A4F
330
747D
100
AcDbEntity
  8
部品1
 48
50.0
100
AcDbCircle
 10
7236.600000000009
 20
6289.907777930209
 30
0.0
 40
35.0
  0
LINE
  5
21A50
330
747D
100
AcDbEntity
  8
センター
 48
2.0
100
AcDbLine
 10
7186.600000000009
 20
6289.907777930209
 30
0.0
 11
7286.600000000008
 21
6289.907777930209
 31
0.0
  0
LINE
  5
21A51
330
747D
100
AcDbEntity
  8
部品1
 48
50.0
100
AcDbLine
 10
7343.600000000001
 20
6396.90777793021
 30
0.0
 11
7233.6
 21
6396.907777930209
 31
0.0
  0
LINE
  5
21A52
102
{ACAD_REACTORS
330
22CEF
102
}
330
747D
100
AcDbEntity
  8
部品1
 48
50.0
100
AcDbLine
 10
7233.6
 20
6956.907777930218
 30
0.0
 11
7113.600000000001
 21
6956.907777930216
 31
0.0
  0
LINE
  5
21A53
102
{ACAD_REACTORS
330
22CEF
102
}
330
747D
100
AcDbEntity
  8
部品1
 48
50.0
100
AcDbLine
 10
7233.6
 20
6756.907777930218
 30
0.0
 11
7113.600000000001
 21
6756.907777930216
 31
0.0
  0
DIMENSION
  5
21A55
330
747D
100
AcDbEntity
  8
寸法
 48
50.0
100
AcDbDimension
  2
*D26
 10
7113.600000000001
 20
8522.610661598836
 30
0.0
 11
6797.425378797541
 21
8522.610661598836
 31
0.0
 70
   160
  1
a
 71
     5
 42
50.0
  3
INABA_S40G
100
AcDbAlignedDimension
 13
7063.6
 23
8310.149966081993
 33
0.0
 14
7113.600000000001
 24
7546.907777930207
 34
0.0
100
AcDbRotatedDimension
1001
ACAD
1000
DSTYLE
1002
{
1070
   174
1070
     0
1070
   272
1070
     1
1070
   341
1005
0
1002
}
  0
DIMENSION
  5
21A56
330
747D
100
AcDbEntity
  8
寸法
 48
50.0
100
AcDbDimension
  2
*D27
 10
7113.600000000001
 20
8310.149966081997
 30
0.0
 11
6840.493398282203
 21
8310.149966081997
 31
0.0
 70
   160
 71
     5
 42
123.0
  3
INABA_S40G
100
AcDbAlignedDimension
 13
7236.6
 23
7473.907777930206
 33
0.0
 14
7113.600000000001
 24
7546.907777930207
 34
0.0
100
AcDbRotatedDimension
1001
ACAD
1000
DSTYLE
1002
{
1070
   174
1070
     0
1070
   272
1070
     1
1070
   341
1005
0
1002
}
  0
DIMENSION
  5
21A57
330
747D
100
AcDbEntity
  8
寸法
 48
50.0
100
AcDbDimension
  2
*D28
 10
6248.555306340097
 20
7423.907777930207
 30
0.0
 11
6248.555306340097
 21
7860.014379648005
 31
0.0
 70
   160
 71
     5
 42
123.0
  3
INABA_S40G
100
AcDbAlignedDimension
 13
7113.600000000001
 23
7546.907777930207
 33
0.0
 14
7186.6
 24
7423.907777930207
 34
0.0
 50
90.0
100
AcDbRotatedDimension
1001
ACAD
1000
DSTYLE
1002
{
1070
   174
1070
     0
1070
   272
1070
     1
1070
   341
1005
0
1002
}
  0
DIMENSION
  5
21A58
330
747D
100
AcDbEntity
  8
寸法
 48
50.0
100
AcDbDimension
  2
*D29
 10
6003.062504202132
 20
7601.907777930207
 30
0.0
 11
6003.062504202131
 21
7574.407777930209
 31
0.0
 70
   160
  1
b
 71
     5
 42
55.0
  3
INABA_S40G
100
AcDbAlignedDimension
 13
7113.600000000001
 23
7546.907777930207
 33
0.0
 14
6248.555306340097
 24
7601.907777930207
 34
0.0
 50
90.0
100
AcDbRotatedDimension
1001
ACAD
1000
DSTYLE
1002
{
1070
   174
1070
     0
1070
   272
1070
     1
1070
   341
1005
0
1002
}
  0
LINE
  5
21A59
330
747D
100
AcDbEntity
  8
部品1
 48
50.0
100
AcDbLine
 10
7517.6
 20
7546.907777930204
 30
0.0
 11
7113.600000000001
 21
7546.907777930207
 31
0.0
  0
LINE
  5
21A5A
330
747D
100
AcDbEntity
  8
部品1
 48
50.0
100
AcDbLine
 10
7343.599999999999
 20
7316.907777930203
 30
0.0
 11
7343.600000000002
 21
7426.907777930209
 31
0.0
  0
LINE
  5
21A5B
330
747D
100
AcDbEntity
  8
部品1
 48
50.0
100
AcDbLine
 10
7343.599999999999
 20
7316.907777930203
 30
0.0
 11
7233.600000000001
 21
7316.907777930207
 31
0.0
  0
LINE
  5
21A5C
330
747D
100
AcDbEntity
  8
センター
 48
2.0
100
AcDbLine
 10
7236.6
 20
7473.907777930206
 30
0.0
 11
7236.6
 21
7373.907777930206
 31
0.0
  0
CIRCLE
  5
21A5D
330
747D
100
AcDbEntity
  8
部品1
 48
50.0
100
AcDbCircle
 10
7236.6
 20
7423.907777930207
 30
0.0
 40
35.0
  0
LINE
  5
21A5E
330
747D
100
AcDbEntity
  8
センター
 48
2.0
100
AcDbLine
 10
7186.6
 20
7423.907777930207
 30
0.0
 11
7286.599999999999
 21
7423.907777930207
 31
0.0
  0
DIMENSION
  5
21A60
330
747D
100
AcDbEntity
  8
寸法
 48
50.0
100
AcDbDimension
  2
*D30
 10
6478.276898698299
 20
7546.907777930207
 30
0.0
 11
6378.276898698297
 21
7201.907777930209
 31
0.0
 70
    32
 71
     5
 42
690.0
  3
INABA_S40G
100
AcDbAlignedDimension
 13
7777.600000000004
 23
6856.907777930207
 33
0.0
 14
7113.600000000001
 24
7546.907777930207
 34
0.0
 50
90.0
100
AcDbRotatedDimension
1001
ACAD
1000
DSTYLE
1002
{
1070
   174
1070
     0
1070
   272
1070
     1
1070
   341
1005
0
1002
}
  0
LINE
  5
21A62
330
747D
100
AcDbEntity
  8
想像線
 48
10.0
100
AcDbLine
 10
9383.600000000008
 20
7601.907777930211
 30
0.0
 11
9383.599999999999
 21
6091.907777930213
 31
0.0
  0
LINE
  5
21A63
102
{ACAD_REACTORS
330
22CB7
102
}
330
747D
100
AcDbEntity
  8
部品1
 48
50.0
100
AcDbLine
 10
9333.6
 20
6166.907777930226
 30
0.0
 11
9333.6
 21
7546.907777930207
 31
0.0
  0
LINE
  5
21A68
330
747D
100
AcDbEntity
  8
部品1
 48
50.0
100
AcDbLine
 10
9213.600000000001
 20
6396.907777930225
 30
0.0
 11
9103.6
 21
6396.907777930225
 31
0.0
  0
CIRCLE
  5
21A69
330
747D
100
AcDbEntity
  8
部品1
 48
50.0
100
AcDbCircle
 10
9210.600000000008
 20
6289.907777930209
 30
0.0
 40
35.0
  0
LINE
  5
21A6A
330
747D
100
AcDbEntity
  8
センター
 48
2.0
100
AcDbLine
 10
9160.600000000007
 20
6289.907777930209
 30
0.0
 11
9260.600000000009
 21
6289.907777930209
 31
0.0
  0
DIMENSION
  5
21A70
330
747D
100
AcDbEntity
  8
寸法
 48
50.0
100
AcDbDimension
  2
*D31
 10
6478.276898698301
 20
6856.907777930207
 30
0.0
 11
6478.276898698299
 21
6541.120553595383
 31
0.0
 70
   160
 71
     5
 42
689.9999999999891
  3
INABA_S40G
100
AcDbAlignedDimension
 13
7113.600000000001
 23
6166.907777930218
 33
0.0
 14
7777.600000000004
 24
6856.907777930207
 34
0.0
 50
90.0
100
AcDbRotatedDimension
1001
ACAD
1000
DSTYLE
1002
{
1070
   174
1070
     0
1070
   272
1070
     1
1070
   341
1005
0
1002
}
  0
LINE
  5
21A71
102
{ACAD_REACTORS
330
22D0B
102
}
330
747D
100
AcDbEntity
  8
部品1
 48
50.0
100
AcDbLine
 10
8323.600000000018
 20
6091.907777930217
 30
0.0
 11
8323.600000000018
 21
6286.907777930219
 31
0.0
  0
LINE
  5
21A72
102
{ACAD_REACTORS
330
22D0B
102
}
330
747D
100
AcDbEntity
  8
部品1
 48
50.0
100
AcDbLine
 10
8123.600000000017
 20
6091.907777930217
 30
0.0
 11
8123.600000000017
 21
6286.907777930216
 31
0.0
  0
LINE
  5
21A7B
330
747D
100
AcDbEntity
  8
部品1
 48
50.0
100
AcDbLine
 10
9103.6
 20
6286.907777930224
 30
0.0
 11
9103.6
 21
6396.907777930225
 31
0.0
  0
LINE
  5
21A7C
330
747D
100
AcDbEntity
  8
部品1
 48
50.0
100
AcDbLine
 10
9333.6
 20
6091.907777930229
 30
0.0
 11
9333.6
 21
6166.907777930226
 31
0.0
  0
LINE
  5
21A7D
330
747D
100
AcDbEntity
  8
センター
 48
2.0
100
AcDbLine
 10
9210.600000000008
 20
6339.907777930209
 30
0.0
 11
9210.600000000008
 21
6239.907777930209
 31
0.0
  0
LINE
  5
21A7F
102
{ACAD_REACTORS
330
22CB7
102
}
330
747D
100
AcDbEntity
  8
部品1
 48
50.0
100
AcDbLine
 10
9333.6
 20
6756.907777930216
 30
0.0
 11
9213.600000000001
 21
6756.907777930218
 31
0.0
  0
LINE
  5
21A80
102
{ACAD_REACTORS
330
22CB7
102
}
330
747D
100
AcDbEntity
  8
部品1
 48
50.0
100
AcDbLine
 10
9333.6
 20
6956.907777930216
 30
0.0
 11
9213.600000000001
 21
6956.907777930218
 31
0.0
  0
CIRCLE
  5
21A81
330
747D
100
AcDbEntity
  8
部品1
 48
50.0
100
AcDbCircle
 10
9210.600000000001
 20
7423.907777930207
 30
0.0
 40
35.0
  0
LINE
  5
21A82
330
747D
100
AcDbEntity
  8
センター
 48
2.0
100
AcDbLine
 10
9160.6
 20
7423.907777930207
 30
0.0
 11
9260.600000000001
 21
7423.907777930207
 31
0.0
  0
LINE
  5
21A83
330
747D
100
AcDbEntity
  8
部品1
 48
50.0
100
AcDbLine
 10
9213.600000000001
 20
7316.907777930208
 30
0.0
 11
9103.6
 21
7316.907777930206
 31
0.0
  0
DIMENSION
  5
21A84
330
747D
100
AcDbEntity
  8
寸法
 48
50.0
100
AcDbDimension
  2
*D32
 10
9210.600000000001
 20
8310.149966081997
 30
0.0
 11
9606.706601717799
 21
8310.149966081997
 31
0.0
 70
   160
 71
     5
 42
123.0
  3
INABA_S40G
100
AcDbAlignedDimension
 13
9333.6
 23
7546.907777930207
 33
0.0
 14
9210.600000000001
 24
7473.907777930206
 34
0.0
100
AcDbRotatedDimension
1001
ACAD
1000
DSTYLE
1002
{
1070
   174
1070
     0
1070
   272
1070
     1
1070
   341
1005
0
1002
}
  0
LINE
  5
21A86
102
{ACAD_REACTORS
330
22CD3
102
}
330
747D
100
AcDbEntity
  8
部品1
 48
50.0
100
AcDbLine
 10
8123.599999999999
 20
7426.907777930207
 30
0.0
 11
8123.600000000001
 21
7546.907777930207
 31
0.0
  0
LINE
  5
21A87
102
{ACAD_REACTORS
330
22CD3
102
}
330
747D
100
AcDbEntity
  8
部品1
 48
50.0
100
AcDbLine
 10
8323.6
 20
7426.907777930207
 30
0.0
 11
8323.6
 21
7546.907777930207
 31
0.0
  0
LINE
  5
21A89
330
747D
100
AcDbEntity
  8
部品1
 48
50.0
100
AcDbLine
 10
9103.6
 20
7316.907777930206
 30
0.0
 11
9103.6
 21
7426.907777930207
 31
0.0
  0
DIMENSION
  5
21A8A
330
747D
100
AcDbEntity
  8
寸法
 48
50.0
100
AcDbDimension
  2
*D33
 10
9383.599999999999
 20
8522.610661598836
 30
0.0
 11
9649.77462120246
 21
8522.610661598836
 31
0.0
 70
   160
  1
a
 71
     5
 42
50.0
  3
INABA_S40G
100
AcDbAlignedDimension
 13
9333.6
 23
7546.907777930207
 33
0.0
 14
9383.599999999999
 24
8310.149966082001
 34
0.0
100
AcDbRotatedDimension
1001
ACAD
1000
DSTYLE
1002
{
1070
   174
1070
     0
1070
   272
1070
     1
1070
   341
1005
0
1002
}
  0
LINE
  5
21A8B
330
747D
100
AcDbEntity
  8
センター
 48
2.0
100
AcDbLine
 10
9210.600000000001
 20
7473.907777930206
 30
0.0
 11
9210.600000000001
 21
7373.907777930206
 31
0.0
  0
MTEXT
  5
21E63
102
{ACAD_REACTORS
330
21E64
102
}
330
747D
100
AcDbEntity
  8
部品1
 62
     7
 48
50.0
100
AcDbMText
 10
10528.99523070989
 20
7797.880272274156
 30
0.0
 40
120.0
 41
0.0
 71
     6
 72
     1
  1
アンカーボルト
  7
STYLE1
 73
     1
 44
1.0
1001
ACAD
1000
MTEXTBEGIN
1070
    73
1070
     1
1070
    44
1040
1.0
1070
    74
1070
     0
1000
MTEXTEND
  0
LEADER
  5
21E64
330
747D
100
AcDbEntity
  8
寸法
 48
50.0
100
AcDbLeader
  3
INABA_S50G
 73
     0
 74
     0
 75
     1
 40
120.0
 41
994.3492424049171
 76
     3
 10
9210.68008575701
 20
7423.921501126414
 30
0.0
 10
9384.645988304974
 20
7712.880272274155
 30
0.0
 10
9509.645988304974
 20
7712.880272274155
 30
0.0
340
21E63
1001
ACAD
1000
DSTYLE
1002
{
1070
   341
1005
0
1070
    40
1040
1.0
1070
   343
1005
0
1070
   344
1005
0
1002
}
  0
MTEXT
  5
21E65
102
{ACAD_REACTORS
330
21E66
102
}
330
747D
100
AcDbEntity
  8
部品1
 62
     7
 48
50.0
100
AcDbMText
 10
10360.46907400128
 20
6716.651411151048
 30
0.0
 40
120.0
 41
0.0
 71
     6
 72
     1
  1
\A1;床下換気口
  7
STYLE1
 73
     1
 44
1.0
1001
ACAD
1000
MTEXTBEGIN
1070
    73
1070
     1
1070
    44
1040
1.0
1070
    74
1070
     0
1000
MTEXTEND
  0
LEADER
  5
21E66
330
747D
100
AcDbEntity
  8
寸法
 48
50.0
100
AcDbLeader
  3
INABA_S50G
 73
     0
 74
     0
 75
     1
 40
120.0
 41
720.0000000000001
 76
     3
 10
9333.695499614997
 20
6892.665324718881
 30
0.0
 10
9490.46907400128
 20
6631.651411151048
 30
0.0
 10
9615.46907400128
 20
6631.651411151048
 30
0.0
340
21E65
1001
ACAD
1000
DSTYLE
1002
{
1070
   341
1005
0
1070
    40
1040
1.0
1070
   343
1005
0
1070
   344
1005
0
1002
}
  0
TEXT
  5
21E67
330
747D
100
AcDbEntity
  8
部品1
 48
50.0
100
AcDbText
 10
9682.430138461164
 20
5935.286749861091
 30
0.0
 40
80.0
  1
(a=45,b=55,c=75)
  7
STYLE1
100
AcDbText
  0
TEXT
  5
21E68
330
747D
100
AcDbEntity
  8
部品1
 48
50.0
100
AcDbText
 10
9523.85112970686
 20
6042.131970729847
 30
0.0
 40
80.0
  1
※a,b,cは屋根の出幅です。
  7
STYLE1
100
AcDbText
  0
MTEXT
  5
21E69
102
{ACAD_REACTORS
330
21E6A
102
}
330
747D
100
AcDbEntity
  8
部品1
 62
     7
 48
50.0
100
AcDbMText
 10
10321.63832569547
 20
6221.442657662922
 30
0.0
 40
120.0
 41
0.0
 71
     6
 72
     1
  1
\A1;屋根の外寸
  7
STYLE1
 73
     1
 44
1.0
1001
ACAD
1000
MTEXTBEGIN
1070
    73
1070
     1
1070
    44
1040
1.0
1070
    74
1070
     0
1000
MTEXTEND
  0
LEADER
  5
21E6A
330
747D
100
AcDbEntity
  8
寸法
 48
50.0
100
AcDbLeader
  3
INABA_S50G
 73
     0
 74
     0
 75
     1
 40
120.0
 41
672.0
 76
     3
 10
9383.698313503426
 20
6395.332001126497
 30
0.0
 10
9499.638325695467
 20
6136.442657662922
 30
0.0
 10
9624.638325695467
 20
6136.442657662922
 30
0.0
340
21E69
1001
ACAD
1000
DSTYLE
1002
{
1070
   341
1005
0
1070
    40
1040
1.0
1070
   343
1005
0
1070
   344
1005
0
1002
}
  0
DIMENSION
  5
221C7
330
747D
100
AcDbEntity
  8
寸法
 48
50.0
100
AcDbDimension
  2
*D34
 10
9333.600000000002
 20
7146.10620844371
 30
0.0
 11
9611.683543272885
 21
7146.10620844371
 31
0.0
 70
   160
 71
     5
 42
120.0000000000036
  3
INABA_S40G
100
AcDbAlignedDimension
 13
9213.599999999997
 23
7316.907777930206
 33
0.0
 14
9333.600000000002
 24
7291.907777930203
 34
0.0
 50
180.0
100
AcDbRotatedDimension
1001
ACAD
1000
DSTYLE
1002
{
1070
   341
1005
0
1002
}
  0
DIMENSION
  5
221C8
330
747D
100
AcDbEntity
  8
寸法
 48
50.0
100
AcDbDimension
  2
*D35
 10
9103.6
 20
7146.10620844371
 30
0.0
 11
8832.843390118034
 21
7146.10620844371
 31
0.0
 70
   160
 71
     5
 42
110.0
  3
INABA_S40G
100
AcDbAlignedDimension
 13
9213.600000000001
 23
7316.907777930206
 33
0.0
 14
9103.6
 24
7316.907777930206
 34
0.0
 50
180.0
100
AcDbRotatedDimension
1001
ACAD
1000
DSTYLE
1002
{
1070
   341
1005
0
1002
}
  0
DIMENSION
  5
2259F
330
747D
100
AcDbEntity
  8
寸法
 48
50.0
100
AcDbDimension
  2
*D36
 10
8569.600000000004
 20
8073.817543578535
 30
0.0
 11
8910.370135182455
 21
8072.079508885543
 31
0.0
 70
   160
 71
     5
 42
763.9999999999964
  3
INABA_S40G
100
AcDbAlignedDimension
 13
9333.6
 23
7546.907777930207
 33
0.0
 14
8569.600000000004
 24
6956.907777930215
 34
0.0
100
AcDbRotatedDimension
1001
ACAD
1000
DSTYLE
1002
{
1070
   174
1070
     0
1070
   272
1070
     1
1070
   279
1070
     1
1070
   288
1070
     0
1070
   341
1005
0
1002
}
  0
DIMENSION
  5
225A0
330
747D
100
AcDbEntity
  8
寸法
 48
50.0
100
AcDbDimension
  2
*D37
 10
7113.600000000002
 20
8073.817543578535
 30
0.0
 11
7495.600000000002
 21
8173.817543578534
 31
0.0
 70
    32
 71
     5
 42
764.0000000000009
  3
INABA_S40G
100
AcDbAlignedDimension
 13
7877.600000000004
 23
6846.907777930214
 33
0.0
 14
7113.600000000002
 24
7546.907777930207
 34
0.0
100
AcDbRotatedDimension
1001
ACAD
1000
DSTYLE
1002
{
1070
   174
1070
     0
1070
   272
1070
     1
1070
   279
1070
     1
1070
   288
1070
     0
1070
   341
1005
0
1002
}
  0
LINE
  5
225A1
330
747D
100
AcDbEntity
  8
センター
 48
2.0
100
AcDbLine
 10
8569.600000000004
 20
6906.907777930213
 30
0.0
 11
8569.600000000004
 21
6806.907777930213
 31
0.0
  0
LINE
  5
225A2
330
747D
100
AcDbEntity
  8
部品1
 48
50.0
100
AcDbLine
 10
8669.600000000004
 20
6756.907777930212
 30
0.0
 11
8669.600000000004
 21
6956.907777930215
 31
0.0
  0
LINE
  5
225A3
330
747D
100
AcDbEntity
  8
部品1
 48
50.0
100
AcDbLine
 10
8469.600000000003
 20
6756.907777930212
 30
0.0
 11
8469.600000000005
 21
6956.907777930215
 31
0.0
  0
LINE
  5
225A4
330
747D
100
AcDbEntity
  8
センター
 48
2.0
100
AcDbLine
 10
8519.600000000004
 20
6856.907777930214
 30
0.0
 11
8619.600000000003
 21
6856.907777930214
 31
0.0
  0
LINE
  5
225A5
330
747D
100
AcDbEntity
  8
部品1
 48
50.0
100
AcDbLine
 10
8669.600000000004
 20
6756.907777930212
 30
0.0
 11
8469.600000000005
 21
6756.907777930212
 31
0.0
  0
LINE
  5
225A6
330
747D
100
AcDbEntity
  8
部品1
 48
50.0
100
AcDbLine
 10
8669.600000000004
 20
6956.907777930213
 30
0.0
 11
8469.600000000005
 21
6956.907777930213
 31
0.0
  0
LINE
  5
225A7
330
747D
100
AcDbEntity
  8
センター
 48
2.0
100
AcDbLine
 10
7827.600000000002
 20
6856.907777930214
 30
0.0
 11
7927.600000000002
 21
6856.907777930214
 31
0.0
  0
LINE
  5
225A8
330
747D
100
AcDbEntity
  8
部品1
 48
50.0
100
AcDbLine
 10
7777.600000000004
 20
6756.907777930212
 30
0.0
 11
7777.600000000004
 21
6956.907777930213
 31
0.0
  0
LINE
  5
225A9
330
747D
100
AcDbEntity
  8
部品1
 48
50.0
100
AcDbLine
 10
7977.600000000002
 20
6756.907777930212
 30
0.0
 11
7977.600000000002
 21
6956.907777930213
 31
0.0
  0
LINE
  5
225AA
330
747D
100
AcDbEntity
  8
センター
 48
2.0
100
AcDbLine
 10
7877.600000000002
 20
6906.907777930213
 30
0.0
 11
7877.600000000002
 21
6806.907777930213
 31
0.0
  0
DIMENSION
  5
225AB
330
747D
100
AcDbEntity
  8
寸法
 48
50.0
100
AcDbDimension
  2
*D38
 10
8569.600000000004
 20
8073.817543578535
 30
0.0
 11
8223.600000000004
 21
8173.858356143339
 31
0.0
 70
    32
 71
     5
 42
692.0000000000008
  3
INABA_S40G
100
AcDbAlignedDimension
 13
7877.600000000004
 23
6956.907777930215
 33
0.0
 14
8569.600000000004
 24
6956.907777930215
 34
0.0
100
AcDbRotatedDimension
1001
ACAD
1000
DSTYLE
1002
{
1070
   174
1070
     0
1070
   272
1070
     1
1070
   288
1070
     0
1070
   341
1005
0
1002
}
  0
LINE
  5
225AC
330
747D
100
AcDbEntity
  8
部品1
 48
50.0
100
AcDbLine
 10
7977.600000000002
 20
6956.907777930213
 30
0.0
 11
7777.600000000003
 21
6956.907777930213
 31
0.0
  0
LINE
  5
225AD
330
747D
100
AcDbEntity
  8
部品1
 48
50.0
100
AcDbLine
 10
7977.600000000002
 20
6756.907777930212
 30
0.0
 11
7777.600000000003
 21
6756.907777930212
 31
0.0
  0
LWPOLYLINE
  5
225B1
330
747D
100
AcDbEntity
  8
寸法
 48
50.0
100
AcDbPolyline
 90
        3
 70
     0
 43
0.0
 10
8501.366547374585
 20
6683.227462080634
 10
8462.703470867875
 20
6535.517371308087
 10
8198.398513937911
 20
6535.517371308086
1001
ACAD
1000
DSTYLE
1002
{
1070
   341
1005
0
1070
   343
1005
0
1070
   344
1005
0
1002
}
  0
SOLID
  5
225B2
330
747D
100
AcDbEntity
  8
寸法
 48
50.0
100
AcDbTrace
 10
8481.212193794718
 20
6688.502858706051
 30
0.0
 11
8533.018927127093
 21
6804.153583559837
 31
0.0
 12
8521.520900954451
 22
6677.952065455215
 32
0.0
 13
8521.520900954451
 23
6677.952065455215
 33
0.0
1001
ACAD
1000
DSTYLE
1002
{
1070
   341
1005
0
1070
   343
1005
0
1070
   344
1005
0
1002
}
  0
MTEXT
  5
225B3
330
747D
100
AcDbEntity
  8
部品1
 62
     7
 48
50.0
100
AcDbMText
 10
8366.256561917822
 20
6626.307068355797
 30
0.0
 40
120.0
 41
0.0
 71
     6
 72
     1
  1
CB
  7
STYLE1
 73
     1
 44
1.0
1001
ACAD
1000
MTEXTBEGIN
1070
    73
1070
     1
1070
    44
1040
1.0
1070
    74
1070
     0
1000
MTEXTEND
  0
DIMENSION
  5
229C2
330
747D
100
AcDbEntity
  8
寸法
 48
50.0
100
AcDbDimension
  2
*D39
 10
7113.600000000001
 20
5377.043474506083
 30
0.0
 11
8223.600000000001
 21
5477.055285529704
 31
0.0
 70
    32
  1
扉の幅 <>
 71
     5
 42
2220.0
  3
INABA_S40G
100
AcDbAlignedDimension
 13
9333.6
 23
6091.907777930229
 33
0.0
 14
7113.600000000001
 24
6091.907777930194
 34
0.0
100
AcDbRotatedDimension
1001
ACAD
1000
DSTYLE
1002
{
1070
   341
1005
0
1002
}
  0
TEXT
  5
229C3
330
747D
100
AcDbEntity
  8
寸法
 62
     7
100
AcDbText
 10
7196.285760402144
 20
5008.079265415325
 30
0.0
 40
120.0
  1
扉位置 (2220x75)
  7
STYLE1
100
AcDbText
  0
SOLID
  5
229C4
330
747D
100
AcDbEntity
  8
寸法
 48
50.0
100
AcDbTrace
 10
-7403.771060041775
 20
5966.31674902532
 30
0.0
 11
-7420.680265711762
 21
6091.907777930207
 31
0.0
 12
-7363.952845568298
 22
5978.58951999423
 32
0.0
 13
-7363.952845568298
 23
5978.58951999423
 33
0.0
210
0.0
220
0.0
230
-1.0
1001
ACAD
1000
DSTYLE
1002
{
1070
   341
1005
0
1070
    40
1040
1.0
1070
   343
1005
0
1070
   344
1005
0
1002
}
  0
LWPOLYLINE
  5
229C5
330
747D
100
AcDbEntity
  8
寸法
 48
50.0
100
AcDbPolyline
 90
        3
 70
     0
 43
0.0
 10
-7420.680265711762
 20
6091.907777930207
 10
-7079.66980120939
 20
4985.811317867004
 10
-9893.734214141034
 20
4985.811317867004
210
0.0
220
0.0
230
-1.0
1001
ACAD
1000
DSTYLE
1002
{
1070
   341
1005
0
1070
    40
1040
1.0
1070
   343
1005
0
1070
   344
1005
0
1002
}
  0
TEXT
  5
229C6
330
747D
100
AcDbEntity
  8
寸法
 62
     7
100
AcDbText
 10
7196.285760402144
 20
4836.475502532
 30
0.0
 40
120.0
  1
扉の位置に合わせた基礎形状として下さい。
  7
STYLE1
100
AcDbText
  0
DIMENSION
  5
229C7
330
747D
100
AcDbEntity
  8
寸法
 48
50.0
100
AcDbDimension
  2
*D40
 10
7572.938460046266
 20
6396.907777930208
 30
0.0
 11
7572.938460046265
 21
6632.955022024697
 31
0.0
 70
   160
 71
     5
 42
109.9999999999809
  3
INABA_S40G
100
AcDbAlignedDimension
 13
7343.599999999999
 23
6286.907777930228
 33
0.0
 14
7343.600000000002
 24
6396.907777930208
 34
0.0
 50
270.0
100
AcDbRotatedDimension
1001
ACAD
1000
DSTYLE
1002
{
1070
   341
1005
0
1002
}
  0
DIMENSION
  5
229C8
330
747D
100
AcDbEntity
  8
寸法
 48
50.0
100
AcDbDimension
  2
*D41
 10
7572.938460046266
 20
6286.907777930211
 30
0.0
 11
7572.938460046265
 21
5853.212836726314
 31
0.0
 70
   160
 71
     5
 42
195.0000000000027
  3
INABA_S40G
100
AcDbAlignedDimension
 13
7343.600000000001
 23
6091.907777930208
 33
0.0
 14
7343.600000000001
 24
6286.907777930211
 34
0.0
 50
270.0
100
AcDbRotatedDimension
1001
ACAD
1000
DSTYLE
1002
{
1070
   341
1005
0
1002
}
  0
LINE
  5
229C9
330
747D
100
AcDbEntity
  8
想像線
 48
10.0
100
AcDbLine
 10
8884.139106188317
 20
7601.907777930211
 30
0.0
 11
9383.59999999999
 21
7601.907777930211
 31
0.0
  0
LINE
  5
22C57
330
747D
100
AcDbEntity
  8
想像線
 48
10.0
100
AcDbLine
 10
8884.139106188328
 20
6091.907777930213
 30
0.0
 11
9383.599999999999
 21
6091.907777930213
 31
0.0
  0
LINE
  5
22C6C
102
{ACAD_REACTORS
330
22CB7
102
}
330
747D
100
AcDbEntity
  8
部品1
 48
50.0
100
AcDbLine
 10
9213.600000000001
 20
6396.907777930227
 30
0.0
 11
9213.600000000001
 21
7316.907777930207
 31
0.0
  0
LINE
  5
22C6E
102
{ACAD_REACTORS
330
22CD3
102
}
330
747D
100
AcDbEntity
  8
部品1
 48
50.0
100
AcDbLine
 10
9103.6
 20
7426.907777930205
 30
0.0
 11
7343.600000000001
 21
7426.907777930207
 31
0.0
  0
LINE
  5
22C70
102
{ACAD_REACTORS
330
22CEF
102
}
330
747D
100
AcDbEntity
  8
部品1
 48
50.0
100
AcDbLine
 10
7233.6
 20
6396.907777930209
 30
0.0
 11
7233.6
 21
7316.907777930203
 31
0.0
  0
LINE
  5
22C72
102
{ACAD_REACTORS
330
22D0B
102
}
330
747D
100
AcDbEntity
  8
部品1
 48
50.0
100
AcDbLine
 10
9103.6
 20
6286.907777930224
 30
0.0
 11
7343.600000000001
 21
6286.907777930211
 31
0.0
  0
HATCH
  5
22CB7
330
747D
100
AcDbEntity
  8
細線
 48
50.0
100
AcDbHatch
 10
0.0
 20
0.0
 30
0.0
210
0.0
220
0.0
230
1.0
  2
LINE
 70
     0
 71
     1
 91
        1
 92
        7
 72
     0
 73
     1
 93
        4
 10
9333.6
 20
6956.907777930216
 10
9213.599999999997
 20
6956.907777930218
 10
9213.600000000001
 20
6756.907777930218
 10
9333.6
 20
6756.907777930215
 97
        4
330
21A80
330
22C6C
330
21A7F
330
21A63
 75
     0
 76
     1
 52
45.0
 41
10.0
 77
     0
 78
     1
 53
45.0
 43
0.0
 44
0.0
 45
-22.45064030267288
 46
22.45064030267288
 79
     0
 47
4.069789115440713
 98
        1
 10
9233.620094424942
 20
6872.046183598825
  0
HATCH
  5
22CD3
330
747D
100
AcDbEntity
  8
細線
 48
50.0
100
AcDbHatch
 10
0.0
 20
0.0
 30
0.0
210
0.0
220
0.0
230
1.0
  2
LINE
 70
     0
 71
     1
 91
        1
 92
        7
 72
     0
 73
     1
 93
        4
 10
8323.6
 20
7546.907777930208
 10
8123.600000000001
 20
7546.907777930208
 10
8123.599999999999
 20
7426.907777930207
 10
8323.6
 20
7426.907777930207
 97
        4
330
21A40
330
21A86
330
22C6E
330
21A87
 75
     0
 76
     1
 52
45.0
 41
10.0
 77
     0
 78
     1
 53
45.0
 43
0.0
 44
0.0
 45
-22.45064030267288
 46
22.45064030267288
 79
     0
 47
4.069789115440713
 98
        1
 10
8240.129027823831
 20
7486.584328162443
  0
HATCH
  5
22CEF
330
747D
100
AcDbEntity
  8
細線
 48
50.0
100
AcDbHatch
 10
0.0
 20
0.0
 30
0.0
210
0.0
220
0.0
230
1.0
  2
LINE
 70
     0
 71
     1
 91
        1
 92
        7
 72
     0
 73
     1
 93
        4
 10
7233.6
 20
6956.907777930216
 10
7113.600000000001
 20
6956.907777930218
 10
7113.600000000001
 20
6756.907777930216
 10
7233.6
 20
6756.907777930216
 97
        4
330
21A52
330
21A45
330
21A53
330
22C70
 75
     0
 76
     1
 52
45.0
 41
10.0
 77
     0
 78
     1
 53
45.0
 43
0.0
 44
0.0
 45
-22.45064030267288
 46
22.45064030267288
 79
     0
 47
4.069789115440707
 98
        1
 10
7204.759705438788
 20
6900.155120062867
  0
HATCH
  5
22D0B
330
747D
100
AcDbEntity
  8
細線
 48
50.0
100
AcDbHatch
 10
0.0
 20
0.0
 30
0.0
210
0.0
220
0.0
230
1.0
  2
LINE
 70
     0
 71
     1
 91
        1
 92
        7
 72
     0
 73
     1
 93
        4
 10
8323.600000000018
 20
6286.907777930218
 10
8123.600000000017
 20
6286.907777930216
 10
8123.600000000017
 20
6091.907777930217
 10
8323.600000000018
 20
6091.907777930219
 97
        4
330
22C72
330
21A72
330
21A39
330
21A71
 75
     0
 76
     1
 52
45.0
 41
10.0
 77
     0
 78
     1
 53
45.0
 43
0.0
 44
0.0
 45
-22.45064030267288
 46
22.45064030267288
 79
     0
 47
4.069789115440707
 98
        1
 10
8234.895934891945
 20
6212.360770328713
  0
MTEXT
  5
22E93
102
{ACAD_REACTORS
330
22E94
102
}
330
747D
100
AcDbEntity
  8
寸法
 62
     7
 48
50.0
100
AcDbMText
 10
10347.55080840888
 20
2185.990186278767
 30
0.0
 40
120.0
 41
0.8
 71
     4
 72
     1
  1
\A1;C.B
  7
STYLE1
 73
     1
 44
1.0
1001
ACAD
1000
MTEXTBEGIN
1070
    73
1070
     1
1070
    44
1040
1.0
1070
    74
1070
     0
1000
MTEXTEND
  0
LEADER
  5
22E94
330
747D
100
AcDbEntity
  8
寸法
 48
50.0
100
AcDbLeader
  3
INABA_S50G
 73
     0
 74
     0
 75
     1
 40
120.0
 41
185.591883092037
 76
     3
 10
10164.41260177524
 20
1928.843865597629
 30
0.0
 10
10197.55080840889
 20
2100.990186278767
 30
0.0
 10
10322.55080840889
 20
2100.990186278767
 30
0.0
340
22E93
1001
ACAD
1000
DSTYLE
1002
{
1070
    40
1040
1.0
1002
}
  0
LINE
  5
22E95
330
747D
100
AcDbEntity
  8
細線
 48
50.0
100
AcDbLine
 10
10310.06601535165
 20
1573.144949944279
 30
0.0
 11
10303.6352347333
 21
1597.144949944279
 31
0.0
  0
LINE
  5
22E96
330
747D
100
AcDbEntity
  8
細線
 48
50.0
100
AcDbLine
 10
10288.63007995716
 20
1493.144949944278
 30
0.0
 11
10295.06086057551
 21
1469.144949944278
 31
0.0
  0
LINE
  5
22E97
330
747D
100
AcDbEntity
  8
部品1
100
AcDbLine
 10
10353.68819015932
 20
1688.84386559763
 30
0.0
 11
10353.68819015932
 21
1469.144949944279
 31
0.0
  0
LINE
  5
22E98
330
747D
100
AcDbEntity
  8
細線
 48
50.0
100
AcDbLine
 10
10282.19929933881
 20
1469.144949944278
 30
0.0
 11
10316.49679597
 21
1597.144949944277
 31
0.0
  0
LINE
  5
22E99
330
747D
100
AcDbEntity
  8
細線
 48
50.0
100
AcDbLine
 10
10231.1779704044
 20
1573.144949944279
 30
0.0
 11
10224.74718978606
 21
1597.144949944279
 31
0.0
  0
LINE
  5
22E9A
330
747D
100
AcDbEntity
  8
細線
100
AcDbLine
 10
10106.72458465865
 20
1597.144949944281
 30
0.0
 11
10198.42350031199
 21
1688.84386559763
 31
0.0
  0
LINE
  5
22E9B
330
747D
100
AcDbEntity
  8
細線
 48
50.0
100
AcDbLine
 10
10152.28992545715
 20
1573.144949944279
 30
0.0
 11
10145.8591448388
 21
1597.144949944279
 31
0.0
  0
LINE
  5
22E9C
330
747D
100
AcDbEntity
  8
細線
100
AcDbLine
 10
10140.66571015561
 20
1597.144949944281
 30
0.0
 11
10232.36462580895
 21
1688.84386559763
 31
0.0
  0
LINE
  5
22E9D
330
747D
100
AcDbEntity
  8
細線
 48
50.0
100
AcDbLine
 10
9915.625790615417
 20
1573.144949944279
 30
0.0
 11
9909.195009997072
 21
1597.144949944279
 31
0.0
  0
LINE
  5
22E9E
330
747D
100
AcDbEntity
  8
細線
 48
50.0
100
AcDbLine
 10
9994.513835562667
 20
1573.144949944279
 30
0.0
 11
9988.08305494432
 21
1597.144949944279
 31
0.0
  0
LINE
  5
22E9F
330
747D
100
AcDbEntity
  8
細線
 48
50.0
100
AcDbLine
 10
10073.40188050991
 20
1573.144949944279
 30
0.0
 11
10066.97109989156
 21
1597.144949944279
 31
0.0
  0
LINE
  5
22EA0
330
747D
100
AcDbEntity
  8
細線
 48
50.0
100
AcDbLine
 10
10209.74203500991
 20
1493.144949944278
 30
0.0
 11
10216.17281562826
 21
1469.144949944278
 31
0.0
  0
LINE
  5
22EA1
330
747D
100
AcDbEntity
  8
細線
 48
50.0
100
AcDbLine
 10
10130.85399006266
 20
1493.144949944279
 30
0.0
 11
10137.28477068102
 21
1469.144949944279
 31
0.0
  0
LINE
  5
22EA2
330
747D
100
AcDbEntity
  8
細線
 48
50.0
100
AcDbLine
 10
9973.077900168178
 20
1493.144949944279
 30
0.0
 11
9979.508680786523
 21
1469.144949944279
 31
0.0
  0
LINE
  5
22EA3
330
747D
100
AcDbEntity
  8
細線
 48
50.0
100
AcDbLine
 10
10051.96594511542
 20
1493.144949944279
 30
0.0
 11
10058.39672573377
 21
1469.144949944279
 31
0.0
  0
LINE
  5
22EA4
330
747D
100
AcDbEntity
  8
細線
 48
50.0
100
AcDbLine
 10
10045.53516449707
 20
1469.144949944279
 30
0.0
 11
10079.83266112825
 21
1597.144949944279
 31
0.0
  0
LINE
  5
22EA5
330
747D
100
AcDbEntity
  8
細線
 48
50.0
100
AcDbLine
 10
9966.647119549827
 20
1469.144949944278
 30
0.0
 11
10000.94461618101
 21
1597.144949944279
 31
0.0
  0
LINE
  5
22EA6
330
747D
100
AcDbEntity
  8
細線
 48
50.0
100
AcDbLine
 10
10124.42320944431
 20
1469.144949944278
 30
0.0
 11
10158.72070607549
 21
1597.144949944279
 31
0.0
  0
LINE
  5
22EA7
330
747D
100
AcDbEntity
  8
細線
100
AcDbLine
 10
10174.60683565256
 20
1597.144949944281
 30
0.0
 11
10266.3057513059
 21
1688.84386559763
 31
0.0
  0
LINE
  5
22EA8
330
747D
100
AcDbEntity
  8
細線
 48
50.0
100
AcDbLine
 10
10203.31125439156
 20
1469.144949944277
 30
0.0
 11
10237.60875102275
 21
1597.144949944277
 31
0.0
  0
LINE
  5
22EA9
330
747D
100
AcDbEntity
  8
部品1
100
AcDbLine
 10
10233.68819015932
 20
1928.843865597629
 30
0.0
 11
10233.68819015932
 21
1688.84386559763
 31
0.0
  0
LINE
  5
22EAA
330
747D
100
AcDbEntity
  8
細線
100
AcDbLine
 10
10219.85052781174
 20
1688.843865597631
 30
0.0
 11
9979.850527811741
 21
1928.843865597629
 31
0.0
  0
LINE
  5
22EAB
330
747D
100
AcDbEntity
  8
細線
100
AcDbLine
 10
10168.93883956631
 20
1688.84386559763
 30
0.0
 11
9928.938839566308
 21
1928.843865597629
 31
0.0
  0
LINE
  5
22EAC
330
747D
100
AcDbEntity
  8
細線
100
AcDbLine
 10
9780.665710155606
 20
1597.144949944279
 30
0.0
 11
9872.36462580895
 21
1688.84386559763
 31
0.0
  0
LINE
  5
22EAD
330
747D
100
AcDbEntity
  8
細線
100
AcDbLine
 10
9746.724584658648
 20
1597.144949944279
 30
0.0
 11
9838.423500311998
 21
1688.84386559763
 31
0.0
  0
LINE
  5
22EAE
330
747D
100
AcDbEntity
  8
細線
 48
50.0
100
AcDbLine
 10
9757.849700720919
 20
1573.144949944279
 30
0.0
 11
9751.418920102572
 21
1597.144949944279
 31
0.0
  0
LINE
  5
22EAF
330
747D
100
AcDbEntity
  8
細線
 48
50.0
100
AcDbLine
 10
9836.737745668173
 20
1573.144949944279
 30
0.0
 11
9830.306965049826
 21
1597.144949944279
 31
0.0
  0
LINE
  5
22EB0
330
747D
100
AcDbEntity
  8
細線
 48
50.0
100
AcDbLine
 10
9678.961655773671
 20
1573.144949944279
 30
0.0
 11
9672.53087515532
 21
1597.144949944279
 31
0.0
  0
LINE
  5
22EB1
330
747D
100
AcDbEntity
  8
細線
 48
50.0
100
AcDbLine
 10
9894.189855220929
 20
1493.144949944279
 30
0.0
 11
9900.620635839278
 21
1469.144949944279
 31
0.0
  0
LINE
  5
22EB2
330
747D
100
AcDbEntity
  8
細線
 48
50.0
100
AcDbLine
 10
9815.301810273682
 20
1493.144949944279
 30
0.0
 11
9821.732590892029
 21
1469.144949944279
 31
0.0
  0
LINE
  5
22EB3
330
747D
100
AcDbEntity
  8
細線
 48
50.0
100
AcDbLine
 10
9657.525720379181
 20
1493.144949944279
 30
0.0
 11
9663.956500997528
 21
1469.144949944279
 31
0.0
  0
LINE
  5
22EB4
330
747D
100
AcDbEntity
  8
細線
 48
50.0
100
AcDbLine
 10
9736.41376532643
 20
1493.144949944279
 30
0.0
 11
9742.84454594478
 21
1469.144949944279
 31
0.0
  0
LINE
  5
22EB5
330
747D
100
AcDbEntity
  8
部品1
100
AcDbLine
 10
9633.688190159318
 20
1469.144949944276
 30
0.0
 11
9633.688190159318
 21
1688.84386559763
 31
0.0
  0
LINE
  5
22EB6
330
747D
100
AcDbEntity
  8
細線
 48
50.0
100
AcDbLine
 10
9651.094939760831
 20
1469.144949944279
 30
0.0
 11
9685.392436392016
 21
1597.144949944279
 31
0.0
  0
LINE
  5
22EB7
330
747D
100
AcDbEntity
  8
細線
 48
50.0
100
AcDbLine
 10
9808.871029655328
 20
1469.144949944279
 30
0.0
 11
9843.168526286515
 21
1597.144949944279
 31
0.0
  0
LINE
  5
22EB8
330
747D
100
AcDbEntity
  8
細線
 48
50.0
100
AcDbLine
 10
9729.98298470808
 20
1469.144949944278
 30
0.0
 11
9764.280481339262
 21
1597.144949944279
 31
0.0
  0
LINE
  5
22EB9
330
747D
100
AcDbEntity
  8
部品1
100
AcDbLine
 10
9753.688190159319
 20
1688.84386559763
 30
0.0
 11
9753.688190159319
 21
1928.843865597629
 31
0.0
  0
TEXT
  5
22EBA
330
747D
100
AcDbEntity
  8
部品1
 48
50.0
100
AcDbText
 10
8989.570103400817
 20
1422.044124960321
 30
0.0
 40
80.0
  1
ボルトの出
 50
90.0
  7
STYLE2
100
AcDbText
  0
LINE
  5
22EBB
330
747D
100
AcDbEntity
  8
細線
100
AcDbLine
 10
9897.409835590671
 20
1688.84386559763
 30
0.0
 11
9753.688190159319
 21
1832.565511028982
 31
0.0
  0
LWPOLYLINE
  5
22EBC
330
747D
100
AcDbEntity
  8
部品1
 48
50.0
100
AcDbPolyline
 90
        2
 70
     0
 43
12.0
 10
9369.07692805893
 20
1688.84386559763
 10
10570.16923119056
 20
1688.84386559763
  0
LINE
  5
22EBD
330
747D
100
AcDbEntity
  8
細線
100
AcDbLine
 10
9814.606835652561
 20
1597.144949944279
 30
0.0
 11
9906.305751305907
 21
1688.84386559763
 31
0.0
  0
LINE
  5
22EBE
330
747D
100
AcDbEntity
  8
部品1
100
AcDbLine
 10
9633.688190159318
 20
1597.144949944279
 30
0.0
 11
10353.68819015932
 21
1597.144949944282
 31
0.0
  0
LINE
  5
22EBF
330
747D
100
AcDbEntity
  8
部品1
100
AcDbLine
 10
9633.688190159318
 20
1469.144949944276
 30
0.0
 11
10353.68819015932
 21
1469.144949944279
 31
0.0
  0
LINE
  5
22EC0
330
747D
100
AcDbEntity
  8
細線
 48
50.0
100
AcDbLine
 10
9887.759074602579
 20
1469.144949944279
 30
0.0
 11
9922.056571233763
 21
1597.144949944279
 31
0.0
  0
LINE
  5
22EC1
330
747D
100
AcDbEntity
  8
部品1
100
AcDbLine
 10
9753.688190159319
 20
1928.843865597629
 30
0.0
 11
10233.68819015932
 21
1928.843865597629
 31
0.0
  0
LINE
  5
22EC2
330
747D
100
AcDbEntity
  8
細線
100
AcDbLine
 10
9948.321523836105
 20
1688.84386559763
 30
0.0
 11
9753.688190159319
 21
1883.477199274413
 31
0.0
  0
LINE
  5
22EC3
330
747D
100
AcDbEntity
  8
部品1
100
AcDbLine
 10
10940.42969125635
 20
285.5085157898275
 30
0.0
 11
10940.42969125636
 21
3249.815485374475
 31
0.0
  0
TEXT
  5
22EC4
330
747D
100
AcDbEntity
  8
部品1
100
AcDbText
 10
7562.324507048491
 20
3070.263553423047
 30
0.0
 40
120.0
  1
基礎詳細
  7
STYLE2
100
AcDbText
  0
LINE
  5
22EC5
330
747D
100
AcDbEntity
  8
部品1
 48
50.0
100
AcDbLine
 10
7877.552257856561
 20
2327.719146706773
 30
0.0
 11
7893.552257856561
 21
2319.719146706773
 31
0.0
  0
LINE
  5
22EC6
330
747D
100
AcDbEntity
  8
細線
 48
50.0
100
AcDbLine
 10
7845.552257856562
 20
2279.719146706773
 30
0.0
 11
7845.552257856562
 21
2311.719146706773
 31
0.0
  0
LINE
  5
22EC7
330
747D
100
AcDbEntity
  8
部品1
 48
50.0
100
AcDbLine
 10
7893.552257856561
 20
2287.719146706773
 30
0.0
 11
7893.552257856561
 21
2319.719146706773
 31
0.0
  0
LINE
  5
22EC8
330
747D
100
AcDbEntity
  8
細線
 48
50.0
100
AcDbLine
 10
7877.552257856561
 20
2279.719146706773
 30
0.0
 11
7877.552257856561
 21
2311.719146706773
 31
0.0
  0
LINE
  5
22EC9
330
747D
100
AcDbEntity
  8
部品1
 48
50.0
100
AcDbLine
 10
7877.552257856561
 20
2311.719146706773
 30
0.0
 11
7893.552257856561
 21
2319.719146706773
 31
0.0
  0
LINE
  5
22ECA
330
747D
100
AcDbEntity
  8
部品1
 48
50.0
100
AcDbLine
 10
7845.552257856562
 20
2311.719146706773
 30
0.0
 11
7877.552257856561
 21
2311.719146706773
 31
0.0
  0
LINE
  5
22ECB
330
747D
100
AcDbEntity
  8
部品1
 48
50.0
100
AcDbLine
 10
7877.552257856561
 20
2279.719146706773
 30
0.0
 11
7893.552257856561
 21
2287.719146706773
 31
0.0
  0
LINE
  5
22ECC
330
747D
100
AcDbEntity
  8
部品1
 48
50.0
100
AcDbLine
 10
7845.552257856562
 20
2279.719146706773
 30
0.0
 11
7877.552257856561
 21
2279.719146706773
 31
0.0
  0
ELLIPSE
  5
22ECD
330
747D
100
AcDbEntity
  8
細線
 48
50.0
100
AcDbEllipse
 10
7861.552257856562
 20
2319.719146706773
 30
0.0
 11
14.76670786606846
 21
0.0
 31
0.0
210
0.0
220
0.0
230
1.0
 40
0.2071254069489396
 41
0.0
 42
6.283185307179586
  0
LINE
  5
22ECE
330
747D
100
AcDbEntity
  8
部品1
 48
50.0
100
AcDbLine
 10
7845.552257856562
 20
2327.719146706773
 30
0.0
 11
7877.552257856561
 21
2327.719146706773
 31
0.0
  0
LINE
  5
22ECF
330
747D
100
AcDbEntity
  8
部品1
 48
50.0
100
AcDbLine
 10
7829.552257856561
 20
2287.719146706773
 30
0.0
 11
7829.552257856561
 21
2319.719146706773
 31
0.0
  0
LINE
  5
22ED0
330
747D
100
AcDbEntity
  8
部品1
 48
50.0
100
AcDbLine
 10
7829.552257856561
 20
2319.719146706773
 30
0.0
 11
7845.552257856562
 21
2327.719146706773
 31
0.0
  0
LINE
  5
22ED1
330
747D
100
AcDbEntity
  8
部品1
 48
50.0
100
AcDbLine
 10
7829.552257856561
 20
2287.719146706773
 30
0.0
 11
7845.552257856562
 21
2279.719146706773
 31
0.0
  0
LINE
  5
22ED2
330
747D
100
AcDbEntity
  8
部品1
 48
50.0
100
AcDbLine
 10
7829.552257856561
 20
2319.719146706773
 30
0.0
 11
7845.552257856562
 21
2311.719146706773
 31
0.0
  0
LINE
  5
22ED3
330
747D
100
AcDbEntity
  8
部品1
 48
50.0
100
AcDbLine
 10
7901.552257856562
 20
2188.367154041902
 30
0.0
 11
7901.552257856562
 21
2197.967154041903
 31
0.0
  0
ELLIPSE
  5
22ED4
330
747D
100
AcDbEntity
  8
部品1
 48
50.0
100
AcDbEllipse
 10
7861.552257856562
 20
2197.967154041903
 30
0.0
 11
18.4
 21
0.0
 31
0.0
210
0.0
220
0.0
230
1.0
 40
0.3478260869565217
 41
0.0
 42
6.283185307179586
  0
ARC
  5
22ED5
330
747D
100
AcDbEntity
  8
部品1
100
AcDbCircle
 10
7700.452257856563
 20
2026.94386559763
 30
0.0
 40
2.7
100
AcDbArc
 50
90.0
 51
180.0
  0
LINE
  5
22ED6
330
747D
100
AcDbEntity
  8
部品1
100
AcDbLine
 10
7703.152257856562
 20
2040.44386559763
 30
0.0
 11
7745.452257856562
 21
2040.443865597627
 31
0.0
  0
LINE
  5
22ED7
330
747D
100
AcDbEntity
  8
部品1
100
AcDbLine
 10
7700.452257856563
 20
2029.64386559763
 30
0.0
 11
7700.452257856563
 21
2037.743865597629
 31
0.0
  0
LINE
  5
22ED8
330
747D
100
AcDbEntity
  8
部品1
100
AcDbLine
 10
7700.452257856563
 20
2029.64386559763
 30
0.0
 11
7700.452257856563
 21
2029.64386559763
 31
0.0
  0
ARC
  5
22ED9
330
747D
100
AcDbEntity
  8
部品1
100
AcDbCircle
 10
7703.152257856562
 20
2037.743865597629
 30
0.0
 40
2.7
100
AcDbArc
 50
90.0
 51
180.0
  0
ARC
  5
22EDA
330
747D
100
AcDbEntity
  8
部品1
100
AcDbCircle
 10
7745.452257856562
 20
2037.743865597627
 30
0.0
 40
2.7
100
AcDbArc
 50
0.0
 51
90.0
  0
LINE
  5
22EDB
330
747D
100
AcDbEntity
  8
部品1
 48
50.0
100
AcDbLine
 10
7821.552257856561
 20
2197.967154041903
 30
0.0
 11
7821.552257856561
 21
2188.367154041902
 31
0.0
  0
ELLIPSE
  5
22EDC
330
747D
100
AcDbEntity
  8
部品1
 48
50.0
100
AcDbEllipse
 10
7861.552257856562
 20
2188.367154041903
 30
0.0
 11
40.0
 21
0.0
 31
0.0
210
0.0
220
0.0
230
1.0
 40
0.4
 41
3.141592653589793
 42
6.283185307179586
  0
ELLIPSE
  5
22EDD
330
747D
100
AcDbEntity
  8
部品1
 48
50.0
100
AcDbEllipse
 10
7861.552257856562
 20
2197.967154041903
 30
0.0
 11
40.0
 21
0.0
 31
0.0
210
0.0
220
0.0
230
1.0
 40
0.4
 41
0.0
 42
6.283185307179586
  0
LINE
  5
22EDE
330
747D
100
AcDbEntity
  8
部品1
100
AcDbLine
 10
7856.152257856561
 20
1981.60386559763
 30
0.0
 11
7866.952257856564
 21
1981.60386559763
 31
0.0
  0
LINE
  5
22EDF
330
747D
100
AcDbEntity
  8
部品1
100
AcDbLine
 10
7852.552257856562
 20
1978.00386559763
 30
0.0
 11
7870.552257856562
 21
1978.00386559763
 31
0.0
  0
LINE
  5
22EE0
330
747D
100
AcDbEntity
  8
細線
100
AcDbLine
 10
7856.152257856564
 20
1938.40386559763
 30
0.0
 11
7856.152257856561
 21
1981.60386559763
 31
0.0
  0
LINE
  5
22EE1
330
747D
100
AcDbEntity
  8
細線
100
AcDbLine
 10
7866.952257856564
 20
1938.40386559763
 30
0.0
 11
7866.952257856564
 21
1981.60386559763
 31
0.0
  0
LINE
  5
22EE2
330
747D
100
AcDbEntity
  8
部品1
100
AcDbLine
 10
7768.852257856561
 20
1995.70386559763
 30
0.0
 11
7768.852257856561
 21
1978.60386559763
 31
0.0
  0
LINE
  5
22EE3
330
747D
100
AcDbEntity
  8
部品1
100
AcDbLine
 10
7802.412257856563
 20
1995.70386559763
 30
0.0
 11
7802.412257856558
 21
1941.10386559763
 31
0.0
  0
ARC
  5
22EE4
330
747D
100
AcDbEntity
  8
部品1
100
AcDbCircle
 10
7787.752257856562
 20
1983.743865597629
 30
0.0
 40
2.7
100
AcDbArc
 50
0.0
 51
90.0
  0
LINE
  5
22EE5
330
747D
100
AcDbEntity
  8
部品1
100
AcDbLine
 10
7748.152257856562
 20
1986.44386559763
 30
0.0
 11
7787.752257856562
 21
1986.44386559763
 31
0.0
  0
ARC
  5
22EE6
330
747D
100
AcDbEntity
  8
部品1
100
AcDbCircle
 10
7787.752257856562
 20
1941.10386559763
 30
0.0
 40
2.7
100
AcDbArc
 50
270.0
 51
0.0
  0
ARC
  5
22EE7
330
747D
100
AcDbEntity
  8
部品1
100
AcDbCircle
 10
7805.112257856555
 20
1941.10386559763
 30
0.0
 40
2.7
100
AcDbArc
 50
180.0
 51
270.0
  0
LINE
  5
22EE8
330
747D
100
AcDbEntity
  8
部品1
100
AcDbLine
 10
7776.052257856561
 20
1938.40386559763
 30
0.0
 11
7787.752257856562
 21
1938.40386559763
 31
0.0
  0
LINE
  5
22EE9
330
747D
100
AcDbEntity
  8
部品1
100
AcDbLine
 10
7790.452257856563
 20
1983.743865597629
 30
0.0
 11
7790.452257856563
 21
1941.10386559763
 31
0.0
  0
ARC
  5
22EEA
330
747D
100
AcDbEntity
  8
部品1
100
AcDbCircle
 10
7799.712257856561
 20
1995.70386559763
 30
0.0
 40
2.7
100
AcDbArc
 50
0.0
 51
90.0
  0
ARC
  5
22EEB
330
747D
100
AcDbEntity
  8
部品1
100
AcDbCircle
 10
7771.552257856561
 20
1995.70386559763
 30
0.0
 40
2.7
100
AcDbArc
 50
90.0
 51
180.0
  0
LINE
  5
22EEC
330
747D
100
AcDbEntity
  8
部品1
100
AcDbLine
 10
7771.552257856561
 20
1998.40386559763
 30
0.0
 11
7799.712257856561
 21
1998.40386559763
 31
0.0
  0
LINE
  5
22EED
330
747D
100
AcDbEntity
  8
部品1
100
AcDbLine
 10
7748.152257856562
 20
2037.743865597627
 30
0.0
 11
7748.152257856562
 21
1986.44386559763
 31
0.0
  0
LINE
  5
22EEE
330
747D
100
AcDbEntity
  8
部品1
100
AcDbLine
 10
7697.752257856563
 20
2018.84386559763
 30
0.0
 11
7697.752257856563
 21
2026.94386559763
 31
0.0
  0
LINE
  5
22EEF
330
747D
100
AcDbEntity
  8
部品1
100
AcDbLine
 10
7805.112257856555
 20
1938.40386559763
 30
0.0
 11
8006.452257856556
 21
1938.40386559763
 31
0.0
  0
LINE
  5
22EF0
330
747D
100
AcDbEntity
  8
部品1
100
AcDbLine
 10
7646.452257856563
 20
1941.10386559763
 30
0.0
 11
7646.452257856563
 21
2003.235769300338
 31
0.0
  0
LINE
  5
22EF1
330
747D
100
AcDbEntity
  8
部品1
100
AcDbLine
 10
7649.152257856562
 20
1938.40386559763
 30
0.0
 11
7660.852257856557
 21
1938.40386559763
 31
0.0
  0
LINE
  5
22EF2
330
747D
100
AcDbEntity
  8
細線
 48
50.0
100
AcDbLine
 10
7640.152257856562
 20
1916.624441897535
 30
0.0
 11
7652.371681556657
 21
1928.843865597629
 31
0.0
  0
ARC
  5
22EF3
330
747D
100
AcDbEntity
  8
部品1
100
AcDbCircle
 10
7649.152257856562
 20
1941.10386559763
 30
0.0
 40
2.7
100
AcDbArc
 50
180.0
 51
270.0
  0
LINE
  5
22EF4
330
747D
100
AcDbEntity
  8
部品1
100
AcDbLine
 10
7648.497411668962
 20
2005.855154050729
 30
0.0
 11
7657.252257856562
 21
2008.043865597629
 31
0.0
  0
ARC
  5
22EF5
330
747D
100
AcDbEntity
  8
部品1
100
AcDbCircle
 10
7649.152257856562
 20
2003.235769300338
 30
0.0
 40
2.7
100
AcDbArc
 50
104.0362434679067
 51
180.0
  0
ARC
  5
22EF6
330
747D
100
AcDbEntity
  8
部品1
100
AcDbCircle
 10
7659.952257856563
 20
2016.14386559763
 30
0.0
 40
2.7
100
AcDbArc
 50
90.0
 51
180.0
  0
LINE
  5
22EF7
330
747D
100
AcDbEntity
  8
部品1
100
AcDbLine
 10
7657.252257856562
 20
2008.043865597629
 30
0.0
 11
7657.252257856562
 21
2016.14386559763
 31
0.0
  0
TEXT
  5
22EF8
330
747D
100
AcDbEntity
  8
部品1
 48
50.0
100
AcDbText
 10
7213.70616127707
 20
2259.404386698106
 30
0.0
 40
80.0
  1
※(別売)
  7
STYLE2
100
AcDbText
  0
LINE
  5
22EF9
330
747D
100
AcDbEntity
  8
部品1
 48
50.0
100
AcDbLine
 10
7640.152257856562
 20
1928.843865597629
 30
0.0
 11
8054.152257856562
 21
1928.843865597629
 31
0.0
  0
LINE
  5
22EFA
330
747D
100
AcDbEntity
  8
細線
 48
50.0
100
AcDbLine
 10
7640.152257856562
 20
1862.74290517112
 30
0.0
 11
7706.253218283073
 21
1928.843865597629
 31
0.0
  0
LINE
  5
22EFB
330
747D
100
AcDbEntity
  8
細線
 48
50.0
100
AcDbLine
 10
7640.152257856562
 20
1889.683673534328
 30
0.0
 11
7679.312449919868
 21
1928.843865597629
 31
0.0
  0
LINE
  5
22EFC
330
747D
100
AcDbEntity
  8
部品1
100
AcDbLine
 10
7659.952257856563
 20
2018.84386559763
 30
0.0
 11
7697.752257856563
 21
2018.84386559763
 31
0.0
  0
LINE
  5
22EFD
330
747D
100
AcDbEntity
  8
部品1
 48
50.0
100
AcDbLine
 10
8054.152257856562
 20
1384.84386559763
 30
0.0
 11
8182.152257856561
 21
1384.84386559763
 31
0.0
  0
LINE
  5
22EFE
330
747D
100
AcDbEntity
  8
部品1
100
AcDbLine
 10
7870.552257856562
 20
1703.84386559763
 30
0.0
 11
7906.552257856562
 21
1703.84386559763
 31
0.0
  0
LINE
  5
22EFF
330
747D
100
AcDbEntity
  8
部品1
100
AcDbLine
 10
7870.552257856562
 20
1685.84386559763
 30
0.0
 11
7906.552257856562
 21
1685.84386559763
 31
0.0
  0
ARC
  5
22F00
330
747D
100
AcDbEntity
  8
部品1
100
AcDbCircle
 10
7870.552257856562
 20
1703.84386559763
 30
0.0
 40
18.0
100
AcDbArc
 50
180.0
 51
270.0
  0
LINE
  5
22F01
330
747D
100
AcDbEntity
  8
部品1
100
AcDbLine
 10
7906.552257856562
 20
1685.84386559763
 30
0.0
 11
7906.552257856562
 21
1703.84386559763
 31
0.0
  0
LINE
  5
22F02
330
747D
100
AcDbEntity
  8
部品1
100
AcDbLine
 10
7924.552257856561
 20
1604.843865597628
 30
0.0
 11
7798.552257856556
 21
1604.843865597628
 31
0.0
  0
LINE
  5
22F03
330
747D
100
AcDbEntity
  8
細線
 48
50.0
100
AcDbLine
 10
8218.530083048895
 20
1120.843865597628
 30
0.0
 11
8212.09930243055
 21
1144.843865597628
 31
0.0
  0
LINE
  5
22F04
330
747D
100
AcDbEntity
  8
細線
 48
50.0
100
AcDbLine
 10
8139.642038101651
 20
1120.843865597628
 30
0.0
 11
8133.211257483305
 21
1144.843865597628
 31
0.0
  0
LINE
  5
22F05
330
747D
100
AcDbEntity
  8
細線
 48
50.0
100
AcDbLine
 10
8060.753993154394
 20
1120.843865597629
 30
0.0
 11
8054.323212536049
 21
1144.843865597629
 31
0.0
  0
LINE
  5
22F06
330
747D
100
AcDbEntity
  8
細線
 48
50.0
100
AcDbLine
 10
8197.094147654407
 20
1040.843865597628
 30
0.0
 11
8203.524928272756
 21
1016.843865597628
 31
0.0
  0
LINE
  5
22F07
330
747D
100
AcDbEntity
  8
細線
 48
50.0
100
AcDbLine
 10
8118.20610270716
 20
1040.843865597628
 30
0.0
 11
8124.636883325507
 21
1016.843865597628
 31
0.0
  0
LINE
  5
22F08
330
747D
100
AcDbEntity
  8
細線
 48
50.0
100
AcDbLine
 10
8039.318057759912
 20
1040.843865597629
 30
0.0
 11
8045.748838378269
 21
1016.843865597629
 31
0.0
  0
LINE
  5
22F09
330
747D
100
AcDbEntity
  8
細線
 48
50.0
100
AcDbLine
 10
8111.775322088812
 20
1016.843865597627
 30
0.0
 11
8146.072818719996
 21
1144.843865597627
 31
0.0
  0
LINE
  5
22F0A
330
747D
100
AcDbEntity
  8
細線
 48
50.0
100
AcDbLine
 10
8032.887277141563
 20
1016.843865597628
 30
0.0
 11
8067.184773772735
 21
1144.843865597629
 31
0.0
  0
LINE
  5
22F0B
330
747D
100
AcDbEntity
  8
細線
 48
50.0
100
AcDbLine
 10
8190.663367036057
 20
1016.843865597628
 30
0.0
 11
8224.960863667241
 21
1144.843865597627
 31
0.0
  0
LINE
  5
22F0C
330
747D
100
AcDbEntity
  8
部品1
 48
50.0
100
AcDbLine
 10
8262.152257856563
 20
1144.843865597629
 30
0.0
 11
8262.152257856563
 21
1016.843865597629
 31
0.0
  0
LINE
  5
22F0D
330
747D
100
AcDbEntity
  8
細線
 48
50.0
100
AcDbLine
 10
7981.865948207157
 20
1120.843865597629
 30
0.0
 11
7975.43516758881
 21
1144.843865597629
 31
0.0
  0
LINE
  5
22F0E
330
747D
100
AcDbEntity
  8
細線
 48
50.0
100
AcDbLine
 10
7902.977903259911
 20
1120.843865597629
 30
0.0
 11
7896.547122641564
 21
1144.843865597629
 31
0.0
  0
LINE
  5
22F0F
330
747D
100
AcDbEntity
  8
細線
 48
50.0
100
AcDbLine
 10
7745.201813365418
 20
1120.843865597629
 30
0.0
 11
7738.77103274707
 21
1144.843865597629
 31
0.0
  0
LINE
  5
22F10
330
747D
100
AcDbEntity
  8
細線
 48
50.0
100
AcDbLine
 10
7824.089858312665
 20
1120.843865597629
 30
0.0
 11
7817.659077694317
 21
1144.843865597629
 31
0.0
  0
LINE
  5
22F11
330
747D
100
AcDbEntity
  8
細線
 48
50.0
100
AcDbLine
 10
7881.541967865422
 20
1040.843865597629
 30
0.0
 11
7887.972748483767
 21
1016.843865597629
 31
0.0
  0
LINE
  5
22F12
330
747D
100
AcDbEntity
  8
細線
 48
50.0
100
AcDbLine
 10
7960.430012812667
 20
1040.843865597629
 30
0.0
 11
7966.860793431013
 21
1016.843865597629
 31
0.0
  0
LINE
  5
22F13
330
747D
100
AcDbEntity
  8
細線
 48
50.0
100
AcDbLine
 10
7723.765877970929
 20
1040.843865597629
 30
0.0
 11
7730.196658589277
 21
1016.843865597629
 31
0.0
  0
LINE
  5
22F14
330
747D
100
AcDbEntity
  8
細線
 48
50.0
100
AcDbLine
 10
7802.653922918176
 20
1040.843865597629
 30
0.0
 11
7809.084703536523
 21
1016.843865597629
 31
0.0
  0
LINE
  5
22F15
330
747D
100
AcDbEntity
  8
細線
 48
50.0
100
AcDbLine
 10
7953.999232194313
 20
1016.843865597629
 30
0.0
 11
7988.2967288255
 21
1144.843865597628
 31
0.0
  0
LINE
  5
22F16
330
747D
100
AcDbEntity
  8
細線
 48
50.0
100
AcDbLine
 10
7796.223142299822
 20
1016.843865597629
 30
0.0
 11
7830.520638931009
 21
1144.843865597628
 31
0.0
  0
LINE
  5
22F17
330
747D
100
AcDbEntity
  8
細線
 48
50.0
100
AcDbLine
 10
7717.335097352577
 20
1016.843865597629
 30
0.0
 11
7751.632593983758
 21
1144.843865597629
 31
0.0
  0
LINE
  5
22F18
330
747D
100
AcDbEntity
  8
細線
 48
50.0
100
AcDbLine
 10
7875.111187247071
 20
1016.843865597628
 30
0.0
 11
7909.408683878253
 21
1144.843865597628
 31
0.0
  0
LINE
  5
22F19
330
747D
100
AcDbEntity
  8
細線
 48
50.0
100
AcDbLine
 10
7999.883952811372
 20
1144.843865597629
 30
0.0
 11
8182.152257856561
 21
1327.112170642825
 31
0.0
  0
LINE
  5
22F1A
330
747D
100
AcDbEntity
  8
部品1
 48
50.0
100
AcDbLine
 10
8182.152257856561
 20
1384.84386559763
 30
0.0
 11
8182.152257856561
 21
1144.843865597629
 31
0.0
  0
LINE
  5
22F1B
330
747D
100
AcDbEntity
  8
細線
 48
50.0
100
AcDbLine
 10
7972.943184448166
 20
1144.843865597629
 30
0.0
 11
8182.152257856561
 21
1354.052939006023
 31
0.0
  0
LINE
  5
22F1C
330
747D
100
AcDbEntity
  8
細線
 48
50.0
100
AcDbLine
 10
7946.002416084955
 20
1144.843865597629
 30
0.0
 11
8182.152257856561
 21
1380.993707369238
 31
0.0
  0
LINE
  5
22F1D
330
747D
100
AcDbEntity
  8
細線
 48
50.0
100
AcDbLine
 10
7730.476269179297
 20
1144.843865597629
 30
0.0
 11
8054.152257856561
 21
1468.519854274896
 31
0.0
  0
LINE
  5
22F1E
330
747D
100
AcDbEntity
  8
細線
 48
50.0
100
AcDbLine
 10
7784.357805905711
 20
1144.843865597629
 30
0.0
 11
8054.152257856562
 21
1414.638317548487
 31
0.0
  0
LINE
  5
22F1F
330
747D
100
AcDbEntity
  8
細線
 48
50.0
100
AcDbLine
 10
7757.417037542506
 20
1144.843865597629
 30
0.0
 11
8054.152257856562
 21
1441.579085911682
 31
0.0
  0
LINE
  5
22F20
330
747D
100
AcDbEntity
  8
細線
 48
50.0
100
AcDbLine
 10
7512.152257856556
 20
1357.572148086215
 30
0.0
 11
7539.423975367975
 21
1384.84386559763
 31
0.0
  0
LINE
  5
22F21
330
747D
100
AcDbEntity
  8
部品1
 48
50.0
100
AcDbLine
 10
7512.152257856562
 20
1384.84386559763
 30
0.0
 11
7640.152257856562
 21
1384.84386559763
 31
0.0
  0
LINE
  5
22F22
330
747D
100
AcDbEntity
  8
細線
 48
50.0
100
AcDbLine
 10
7512.152257856556
 20
1330.631379723005
 30
0.0
 11
7566.364743731186
 21
1384.84386559763
 31
0.0
  0
LWPOLYLINE
  5
22F23
330
747D
100
AcDbEntity
  8
部品1
 48
50.0
100
AcDbPolyline
 90
        2
 70
     0
 43
8.0
 10
7226.012356023606
 20
1688.84386559763
 10
7640.152257856562
 20
1688.84386559763
  0
LINE
  5
22F24
330
747D
100
AcDbEntity
  8
細線
 48
50.0
100
AcDbLine
 10
7587.425723470914
 20
1120.843865597629
 30
0.0
 11
7580.994942852568
 21
1144.843865597629
 31
0.0
  0
LINE
  5
22F25
330
747D
100
AcDbEntity
  8
細線
 48
50.0
100
AcDbLine
 10
7666.313768418167
 20
1120.843865597629
 30
0.0
 11
7659.88298779982
 21
1144.843865597629
 31
0.0
  0
LINE
  5
22F26
330
747D
100
AcDbEntity
  8
細線
 48
50.0
100
AcDbLine
 10
7508.537678523662
 20
1120.843865597629
 30
0.0
 11
7502.106897905317
 21
1144.843865597629
 31
0.0
  0
LINE
  5
22F27
330
747D
100
AcDbEntity
  8
細線
 48
50.0
100
AcDbLine
 10
7432.152257856562
 20
1130.183786563409
 30
0.0
 11
7436.080414194758
 21
1144.843865597629
 31
0.0
  0
LINE
  5
22F28
330
747D
100
AcDbEntity
  8
細線
 48
50.0
100
AcDbLine
 10
7565.989788076426
 20
1040.843865597629
 30
0.0
 11
7572.420568694771
 21
1016.843865597629
 31
0.0
  0
LINE
  5
22F29
330
747D
100
AcDbEntity
  8
細線
 48
50.0
100
AcDbLine
 10
7644.877833023677
 20
1040.843865597629
 30
0.0
 11
7651.308613642024
 21
1016.843865597629
 31
0.0
  0
LINE
  5
22F2A
330
747D
100
AcDbEntity
  8
細線
 48
50.0
100
AcDbLine
 10
7487.101743129173
 20
1040.843865597629
 30
0.0
 11
7493.53252374752
 21
1016.843865597629
 31
0.0
  0
LINE
  5
22F2B
330
747D
100
AcDbEntity
  8
細線
 48
50.0
100
AcDbLine
 10
7638.447052405325
 20
1016.843865597628
 30
0.0
 11
7672.744549036507
 21
1144.843865597628
 31
0.0
  0
LINE
  5
22F2C
330
747D
100
AcDbEntity
  8
細線
 48
50.0
100
AcDbLine
 10
7480.67096251082
 20
1016.843865597628
 30
0.0
 11
7514.968459142004
 21
1144.843865597628
 31
0.0
  0
LINE
  5
22F2D
330
747D
100
AcDbEntity
  8
部品1
 48
50.0
100
AcDbLine
 10
7432.152257856563
 20
1016.843865597629
 30
0.0
 11
7432.152257856563
 21
1144.843865597629
 31
0.0
  0
LINE
  5
22F2E
330
747D
100
AcDbEntity
  8
細線
 48
50.0
100
AcDbLine
 10
7559.55900745808
 20
1016.843865597629
 30
0.0
 11
7593.856504089261
 21
1144.843865597629
 31
0.0
  0
LINE
  5
22F2F
330
747D
100
AcDbEntity
  8
部品1
 48
50.0
100
AcDbLine
 10
7512.152257856562
 20
1144.843865597629
 30
0.0
 11
7512.152257856562
 21
1384.84386559763
 31
0.0
  0
LINE
  5
22F30
330
747D
100
AcDbEntity
  8
細線
 48
50.0
100
AcDbLine
 10
7512.152257856556
 20
1303.690611359801
 30
0.0
 11
7593.30551209439
 21
1384.84386559763
 31
0.0
  0
LINE
  5
22F31
330
747D
100
AcDbEntity
  8
部品1
 48
50.0
100
AcDbLine
 10
8262.152257856563
 20
1016.843865597629
 30
0.0
 11
7432.152257856563
 21
1016.843865597629
 31
0.0
  0
LINE
  5
22F32
330
747D
100
AcDbEntity
  8
部品1
 48
50.0
100
AcDbLine
 10
8262.152257856563
 20
1144.843865597629
 30
0.0
 11
7432.152257856563
 21
1144.843865597629
 31
0.0
  0
LINE
  5
22F33
330
747D
100
AcDbEntity
  8
細線
 48
50.0
100
AcDbLine
 10
7514.950122273636
 20
1144.843865597629
 30
0.0
 11
8054.152257856561
 21
1684.046001180555
 31
0.0
  0
LINE
  5
22F34
330
747D
100
AcDbEntity
  8
細線
 48
50.0
100
AcDbLine
 10
7541.890890636846
 20
1144.843865597629
 30
0.0
 11
8054.152257856562
 21
1657.105232817343
 31
0.0
  0
LINE
  5
22F35
330
747D
100
AcDbEntity
  8
細線
 48
50.0
100
AcDbLine
 10
7568.831659000051
 20
1144.843865597629
 30
0.0
 11
8054.152257856562
 21
1630.164464454137
 31
0.0
  0
LINE
  5
22F36
330
747D
100
AcDbEntity
  8
細線
 48
50.0
100
AcDbLine
 10
7640.152257856562
 20
1485.572148086216
 30
0.0
 11
7798.552257856555
 21
1643.972148086211
 31
0.0
  0
LINE
  5
22F37
330
747D
100
AcDbEntity
  8
細線
 48
50.0
100
AcDbLine
 10
7640.152257856562
 20
1431.6906113598
 30
0.0
 11
7813.305512094398
 21
1604.843865597628
 31
0.0
  0
LINE
  5
22F38
330
747D
100
AcDbEntity
  8
細線
 48
50.0
100
AcDbLine
 10
7640.152257856562
 20
1458.631379723008
 30
0.0
 11
7798.552257856555
 21
1617.031379722996
 31
0.0
  0
LINE
  5
22F39
330
747D
100
AcDbEntity
  8
部品1
100
AcDbLine
 10
7798.552257856556
 20
1604.843865597629
 30
0.0
 11
7798.552257856562
 21
1928.843865597629
 31
0.0
  0
LINE
  5
22F3A
330
747D
100
AcDbEntity
  8
部品1
100
AcDbLine
 10
7924.552257856561
 20
1604.843865597629
 30
0.0
 11
7924.552257856561
 21
1928.843865597629
 31
0.0
  0
LINE
  5
22F3B
330
747D
100
AcDbEntity
  8
細線
 48
50.0
100
AcDbLine
 10
7924.552257856564
 20
1743.031379723001
 30
0.0
 11
8054.152257856562
 21
1872.631379722998
 31
0.0
  0
LINE
  5
22F3C
330
747D
100
AcDbEntity
  8
細線
 48
50.0
100
AcDbLine
 10
7924.552257856564
 20
1716.090611359788
 30
0.0
 11
8054.152257856562
 21
1845.690611359779
 31
0.0
  0
LINE
  5
22F3D
330
747D
100
AcDbEntity
  8
部品1
100
AcDbLine
 10
7852.552257856562
 20
1703.84386559763
 30
0.0
 11
7852.552257856558
 21
1978.00386559763
 31
0.0
  0
LINE
  5
22F3E
330
747D
100
AcDbEntity
  8
部品1
100
AcDbLine
 10
7870.552257856562
 20
1703.84386559763
 30
0.0
 11
7870.552257856558
 21
1978.00386559763
 31
0.0
  0
TEXT
  5
22F3F
330
747D
100
AcDbEntity
  8
部品1
 48
50.0
100
AcDbText
 10
7226.012356023606
 20
1700.082857880885
 30
0.0
 40
80.0
  1
▽G.L
  7
STYLE2
100
AcDbText
  0
LINE
  5
22F40
330
747D
100
AcDbEntity
  8
細線
 48
50.0
100
AcDbLine
 10
7640.152257856562
 20
1647.21675826546
 30
0.0
 11
7798.552257856558
 21
1805.616758265452
 31
0.0
  0
LINE
  5
22F41
330
747D
100
AcDbEntity
  8
細線
 48
50.0
100
AcDbLine
 10
7640.152257856562
 20
1674.157526628667
 30
0.0
 11
7798.552257856562
 21
1832.557526628665
 31
0.0
  0
LINE
  5
22F42
330
747D
100
AcDbEntity
  8
細線
 48
50.0
100
AcDbLine
 10
7640.152257856562
 20
1701.098294991875
 30
0.0
 11
7798.552257856562
 21
1859.498294991872
 31
0.0
  0
LINE
  5
22F43
330
747D
100
AcDbEntity
  8
部品1
 48
50.0
100
AcDbLine
 10
7640.152257856562
 20
1384.84386559763
 30
0.0
 11
7640.152257856562
 21
1928.843865597629
 31
0.0
  0
LINE
  5
22F44
330
747D
100
AcDbEntity
  8
部品1
100
AcDbLine
 10
8054.152257856561
 20
1384.84386559763
 30
0.0
 11
8054.152257856562
 21
1928.843865597629
 31
0.0
  0
LINE
  5
22F45
330
747D
100
AcDbEntity
  8
細線
 48
50.0
100
AcDbLine
 10
7924.552257856564
 20
1769.972148086218
 30
0.0
 11
8054.152257856562
 21
1899.572148086216
 31
0.0
  0
LINE
  5
22F46
330
747D
100
AcDbEntity
  8
細線
 48
50.0
100
AcDbLine
 10
6048.605367181838
 20
1809.590717494346
 30
0.0
 11
6132.112944679368
 21
1893.098294991875
 31
0.0
  0
LINE
  5
22F47
330
747D
100
AcDbEntity
  8
細線
 48
50.0
100
AcDbLine
 10
6059.665651945355
 20
1793.710233894652
 30
0.0
 11
6132.112944679368
 21
1866.157526628667
 31
0.0
  0
LINE
  5
22F48
330
747D
100
AcDbEntity
  8
細線
 48
50.0
100
AcDbLine
 10
5940.112944679368
 20
1916.624441897535
 30
0.0
 11
5952.332368379464
 21
1928.843865597629
 31
0.0
  0
LINE
  5
22F49
330
747D
100
AcDbEntity
  8
細線
 48
50.0
100
AcDbLine
 10
5940.112944679368
 20
1862.74290517112
 30
0.0
 11
6006.213905105878
 21
1928.843865597629
 31
0.0
  0
LINE
  5
22F4A
330
747D
100
AcDbEntity
  8
細線
 48
50.0
100
AcDbLine
 10
5940.112944679368
 20
1889.683673534328
 30
0.0
 11
5979.273136742673
 21
1928.843865597629
 31
0.0
  0
LINE
  5
22F4B
330
747D
100
AcDbEntity
  8
部品1
 48
50.0
100
AcDbLine
 10
5940.112944679368
 20
1928.843865597629
 30
0.0
 11
6132.112944679368
 21
1928.843865597629
 31
0.0
  0
DIMENSION
  5
22F4C
330
747D
100
AcDbEntity
  8
寸法
 48
50.0
100
AcDbDimension
  2
*D42
 10
5940.112944679367
 20
2248.843865597629
 30
0.0
 11
6047.339275024565
 21
2348.51167351401
 31
0.0
 70
   160
  1
120\P195
 71
     5
 42
192.0
  3
INABA_S40G
100
AcDbAlignedDimension
 13
6132.112944679367
 23
1928.843865597629
 33
0.0
 14
5940.112944679367
 24
1928.843865597629
 34
0.0
100
AcDbRotatedDimension
1001
ACAD
1000
DSTYLE
1002
{
1070
   174
1070
     0
1070
   272
1070
     1
1070
   279
1070
     1
1070
   288
1070
     0
1070
   341
1005
0
1002
}
  0
MTEXT
  5
22F4D
102
{ACAD_REACTORS
330
22FA2
102
}
330
747D
100
AcDbEntity
  8
寸法
 62
     7
 48
50.0
100
AcDbMText
 10
6373.851400540619
 20
967.4947798654766
 30
0.0
 40
80.0
 41
0.8
 71
     4
 72
     1
  1
\A1;D10@300
  7
STYLE2
 73
     1
 44
1.0
1001
ACAD
1000
MTEXTBEGIN
1070
    73
1070
     1
1070
    44
1040
1.0
1070
    74
1070
     0
1000
MTEXTEND
  0
LINE
  5
22F4E
330
747D
100
AcDbEntity
  8
細線
 48
50.0
100
AcDbLine
 10
6060.112944679374
 20
1578.63137972301
 30
0.0
 11
6132.112944679361
 21
1650.631379723005
 31
0.0
  0
LINE
  5
22F4F
330
747D
100
AcDbEntity
  8
細線
 48
50.0
100
AcDbLine
 10
6060.112944679368
 20
1605.572148086215
 30
0.0
 11
6132.112944679368
 21
1677.572148086215
 31
0.0
  0
LINE
  5
22F50
330
747D
100
AcDbEntity
  8
細線
 48
50.0
100
AcDbLine
 10
6060.112944679374
 20
1336.164464454141
 30
0.0
 11
6132.112944679361
 21
1408.164464454141
 31
0.0
  0
LINE
  5
22F51
330
747D
100
AcDbEntity
  8
細線
 48
50.0
100
AcDbLine
 10
6060.112944679374
 20
1390.046001180559
 30
0.0
 11
6132.112944679361
 21
1462.046001180555
 31
0.0
  0
LINE
  5
22F52
330
747D
100
AcDbEntity
  8
細線
 48
50.0
100
AcDbLine
 10
6060.112944679374
 20
1363.105232817351
 30
0.0
 11
6132.112944679361
 21
1435.105232817345
 31
0.0
  0
LINE
  5
22F53
330
747D
100
AcDbEntity
  8
部品1
 48
50.0
100
AcDbLine
 10
6132.112944679368
 20
1384.84386559763
 30
0.0
 11
6260.112944679368
 21
1384.84386559763
 31
0.0
  0
LINE
  5
22F54
330
747D
100
AcDbEntity
  8
細線
 48
50.0
100
AcDbLine
 10
6060.112944679374
 20
1551.6906113598
 30
0.0
 11
6132.112944679361
 21
1623.690611359801
 31
0.0
  0
LINE
  5
22F55
330
747D
100
AcDbEntity
  8
部品1
 48
50.0
100
AcDbLine
 10
6028.112944679368
 20
1730.971080294752
 30
0.0
 11
6028.112944679368
 21
1789.098294991875
 31
0.0
  0
LINE
  5
22F56
330
747D
100
AcDbEntity
  8
細線
 48
50.0
100
AcDbLine
 10
5940.112944679368
 20
1701.098294991875
 30
0.0
 11
6012.112944679369
 21
1773.098294991875
 31
0.0
  0
LINE
  5
22F57
330
747D
100
AcDbEntity
  8
部品1
 48
50.0
100
AcDbLine
 10
6012.112944679369
 20
1730.971080294755
 30
0.0
 11
6012.112944679369
 21
1789.098294991875
 31
0.0
  0
LINE
  5
22F58
330
747D
100
AcDbEntity
  8
細線
 48
50.0
100
AcDbLine
 10
5940.112944679368
 20
1674.157526628667
 30
0.0
 11
6012.112944679369
 21
1746.157526628667
 31
0.0
  0
LINE
  5
22F59
330
747D
100
AcDbEntity
  8
細線
 48
50.0
100
AcDbLine
 10
5940.112944679368
 20
1647.21675826546
 30
0.0
 11
6023.867266708663
 21
1730.971080294752
 31
0.0
  0
LINE
  5
22F5A
330
747D
100
AcDbEntity
  8
部品1
 48
50.0
100
AcDbLine
 10
6028.112944679368
 20
1730.971080294752
 30
0.0
 11
6012.112944679369
 21
1730.971080294755
 31
0.0
  0
LINE
  5
22F5B
330
747D
100
AcDbEntity
  8
細線
 48
50.0
100
AcDbLine
 10
5812.112944679361
 20
1357.572148086215
 30
0.0
 11
5839.384662190783
 21
1384.84386559763
 31
0.0
  0
LINE
  5
22F5C
330
747D
100
AcDbEntity
  8
細線
 48
50.0
100
AcDbLine
 10
5812.112944679361
 20
1330.631379723005
 30
0.0
 11
5866.325430553993
 21
1384.84386559763
 31
0.0
  0
LINE
  5
22F5D
330
747D
100
AcDbEntity
  8
部品1
 48
50.0
100
AcDbLine
 10
5812.112944679369
 20
1384.84386559763
 30
0.0
 11
5940.112944679368
 21
1384.84386559763
 31
0.0
  0
LINE
  5
22F5E
330
747D
100
AcDbEntity
  8
細線
 48
50.0
100
AcDbLine
 10
6028.112944679368
 20
1762.157526628667
 30
0.0
 11
6044.112944679369
 21
1778.157526628667
 31
0.0
  0
LINE
  5
22F5F
330
747D
100
AcDbEntity
  8
細線
 48
50.0
100
AcDbLine
 10
6028.112944679368
 20
1735.21675826546
 30
0.0
 11
6044.112944679369
 21
1751.21675826546
 31
0.0
  0
LINE
  5
22F60
330
747D
100
AcDbEntity
  8
細線
 48
50.0
100
AcDbLine
 10
5940.112944679368
 20
1431.6906113598
 30
0.0
 11
6044.112944679373
 21
1535.6906113598
 31
0.0
  0
LINE
  5
22F61
330
747D
100
AcDbEntity
  8
細線
 48
50.0
100
AcDbLine
 10
5940.112944679368
 20
1485.572148086216
 30
0.0
 11
6044.112944679369
 21
1589.572148086215
 31
0.0
  0
LINE
  5
22F62
330
747D
100
AcDbEntity
  8
細線
 48
50.0
100
AcDbLine
 10
5940.112944679368
 20
1458.631379723008
 30
0.0
 11
6044.112944679373
 21
1562.63137972301
 31
0.0
  0
LINE
  5
22F63
330
747D
100
AcDbEntity
  8
細線
 48
50.0
100
AcDbLine
 10
6202.938590082716
 20
1120.843865597629
 30
0.0
 11
6196.507809464369
 21
1144.843865597629
 31
0.0
  0
LINE
  5
22F64
330
747D
100
AcDbEntity
  8
細線
 48
50.0
100
AcDbLine
 10
6245.963102907762
 20
1144.843865597629
 30
0.0
 11
6260.112944679368
 21
1158.993707369236
 31
0.0
  0
LINE
  5
22F65
330
747D
100
AcDbEntity
  8
細線
 48
50.0
100
AcDbLine
 10
6281.826635029963
 20
1120.843865597629
 30
0.0
 11
6275.395854411615
 21
1144.843865597629
 31
0.0
  0
LINE
  5
22F66
330
747D
100
AcDbEntity
  8
部品1
 48
50.0
100
AcDbLine
 10
6204.112944679368
 20
1256.84386559763
 30
0.0
 11
6204.112944679368
 21
1240.84386559763
 31
0.0
  0
LINE
  5
22F67
330
747D
100
AcDbEntity
  8
細線
 48
50.0
100
AcDbLine
 10
6084.318492728516
 20
1144.843865597629
 30
0.0
 11
6180.319380573653
 21
1240.844753442768
 31
0.0
  0
LINE
  5
22F68
330
747D
100
AcDbEntity
  8
細線
 48
50.0
100
AcDbLine
 10
6057.377724365313
 20
1144.843865597629
 30
0.0
 11
6153.377724365312
 21
1240.84386559763
 31
0.0
  0
LINE
  5
22F69
330
747D
100
AcDbEntity
  8
細線
 48
50.0
100
AcDbLine
 10
6124.05054513547
 20
1120.843865597629
 30
0.0
 11
6117.619764517124
 21
1144.843865597629
 31
0.0
  0
LINE
  5
22F6A
330
747D
100
AcDbEntity
  8
細線
 48
50.0
100
AcDbLine
 10
6045.162500188225
 20
1120.843865597629
 30
0.0
 11
6038.731719569877
 21
1144.843865597629
 31
0.0
  0
ARC
  5
22F6B
330
747D
100
AcDbEntity
  8
部品1
 48
50.0
100
AcDbCircle
 10
6036.112944679368
 20
1264.84386559763
 30
0.0
 40
24.0
100
AcDbArc
 50
340.528779365501
 51
0.0
  0
CIRCLE
  5
22F6C
330
747D
100
AcDbEntity
  8
部品1
 48
50.0
100
AcDbCircle
 10
6164.112944679368
 20
1264.84386559763
 30
0.0
 40
8.0
  0
LINE
  5
22F6D
330
747D
100
AcDbEntity
  8
細線
 48
50.0
100
AcDbLine
 10
6196.318492728515
 20
1256.84386559763
 30
0.0
 11
6260.112944679368
 21
1320.638317548481
 31
0.0
  0
LINE
  5
22F6E
330
747D
100
AcDbEntity
  8
細線
 48
50.0
100
AcDbLine
 10
6332.847963964371
 20
1016.843865597628
 30
0.0
 11
6340.112944679368
 21
1043.957142742018
 31
0.0
  0
LINE
  5
22F6F
330
747D
100
AcDbEntity
  8
細線
 48
50.0
100
AcDbLine
 10
6339.278744582721
 20
1040.843865597629
 30
0.0
 11
6340.112944679368
 21
1037.730588453265
 31
0.0
  0
LINE
  5
22F70
330
747D
100
AcDbEntity
  8
細線
 48
50.0
100
AcDbLine
 10
6260.390699635474
 20
1040.843865597629
 30
0.0
 11
6266.821480253821
 21
1016.843865597629
 31
0.0
  0
LINE
  5
22F71
330
747D
100
AcDbEntity
  8
細線
 48
50.0
100
AcDbLine
 10
6102.614609740982
 20
1040.843865597629
 30
0.0
 11
6109.045390359327
 21
1016.843865597629
 31
0.0
  0
LINE
  5
22F72
330
747D
100
AcDbEntity
  8
細線
 48
50.0
100
AcDbLine
 10
6181.502654688227
 20
1040.843865597629
 30
0.0
 11
6187.933435306574
 21
1016.843865597629
 31
0.0
  0
LINE
  5
22F73
330
747D
100
AcDbEntity
  8
細線
 48
50.0
100
AcDbLine
 10
6175.071874069876
 20
1016.843865597628
 30
0.0
 11
6209.369370701061
 21
1144.843865597628
 31
0.0
  0
LINE
  5
22F74
330
747D
100
AcDbEntity
  8
細線
 48
50.0
100
AcDbLine
 10
6096.183829122628
 20
1016.843865597629
 30
0.0
 11
6130.481325753814
 21
1144.843865597628
 31
0.0
  0
LINE
  5
22F75
330
747D
100
AcDbEntity
  8
細線
 48
50.0
100
AcDbLine
 10
6253.959919017122
 20
1016.843865597629
 30
0.0
 11
6288.257415648307
 21
1144.843865597628
 31
0.0
  0
LINE
  5
22F76
330
747D
100
AcDbEntity
  8
部品1
 48
50.0
100
AcDbLine
 10
6340.112944679372
 20
1144.843865597629
 30
0.0
 11
6340.112944679372
 21
1016.843865597629
 31
0.0
  0
LINE
  5
22F77
330
747D
100
AcDbEntity
  8
部品1
 48
50.0
100
AcDbLine
 10
6028.112944679368
 20
1322.971080294752
 30
0.0
 11
6028.112944679368
 21
1264.84386559763
 31
0.0
  0
LINE
  5
22F78
330
747D
100
AcDbEntity
  8
細線
 48
50.0
100
AcDbLine
 10
5953.851577459651
 20
1256.84386559763
 30
0.0
 11
6012.112944679369
 21
1315.105232817348
 31
0.0
  0
LINE
  5
22F79
330
747D
100
AcDbEntity
  8
部品1
 48
50.0
100
AcDbLine
 10
6012.112944679369
 20
1322.971080294752
 30
0.0
 11
6012.112944679369
 21
1264.84386559763
 31
0.0
  0
LINE
  5
22F7A
330
747D
100
AcDbEntity
  8
細線
 48
50.0
100
AcDbLine
 10
5868.792345822857
 20
1144.843865597629
 30
0.0
 11
5964.792345822857
 21
1240.84386559763
 31
0.0
  0
LINE
  5
22F7B
330
747D
100
AcDbEntity
  8
細線
 48
50.0
100
AcDbLine
 10
5966.274455240972
 20
1120.843865597629
 30
0.0
 11
5959.843674622626
 21
1144.843865597629
 31
0.0
  0
LINE
  5
22F7C
330
747D
100
AcDbEntity
  8
細線
 48
50.0
100
AcDbLine
 10
5887.38641029372
 20
1120.843865597629
 30
0.0
 11
5880.955629675373
 21
1144.843865597629
 31
0.0
  0
ARC
  5
22F7D
330
747D
100
AcDbEntity
  8
部品1
 48
50.0
100
AcDbCircle
 10
6036.112944679368
 20
1264.84386559763
 30
0.0
 40
24.0
100
AcDbArc
 50
180.0
 51
199.4712206344989
  0
LINE
  5
22F7E
330
747D
100
AcDbEntity
  8
細線
 48
50.0
100
AcDbLine
 10
5980.792345822857
 20
1256.84386559763
 30
0.0
 11
6012.112944679369
 21
1288.164464454141
 31
0.0
  0
CIRCLE
  5
22F7F
330
747D
100
AcDbEntity
  8
部品1
 48
50.0
100
AcDbCircle
 10
5908.112944679368
 20
1264.84386559763
 30
0.0
 40
8.0
  0
LINE
  5
22F80
330
747D
100
AcDbEntity
  8
部品1
 48
50.0
100
AcDbLine
 10
6028.112944679368
 20
1322.971080294752
 30
0.0
 11
6012.112944679369
 21
1322.971080294752
 31
0.0
  0
LINE
  5
22F81
330
747D
100
AcDbEntity
  8
細線
 48
50.0
100
AcDbLine
 10
5732.112944679368
 20
1130.183786563409
 30
0.0
 11
5736.041101017564
 21
1144.843865597629
 31
0.0
  0
LINE
  5
22F82
330
747D
100
AcDbEntity
  8
細線
 48
50.0
100
AcDbLine
 10
5808.498365346469
 20
1120.843865597629
 30
0.0
 11
5802.067584728121
 21
1144.843865597629
 31
0.0
  0
LINE
  5
22F83
330
747D
100
AcDbEntity
  8
部品1
 48
50.0
100
AcDbLine
 10
5868.112944679368
 20
1256.84386559763
 30
0.0
 11
5868.112944679368
 21
1240.84386559763
 31
0.0
  0
LINE
  5
22F84
330
747D
100
AcDbEntity
  8
細線
 48
50.0
100
AcDbLine
 10
5814.910809096441
 20
1144.843865597629
 30
0.0
 11
5910.910809096441
 21
1240.84386559763
 31
0.0
  0
LINE
  5
22F85
330
747D
100
AcDbEntity
  8
細線
 48
50.0
100
AcDbLine
 10
5841.851577459652
 20
1144.843865597629
 30
0.0
 11
5937.851577459651
 21
1240.84386559763
 31
0.0
  0
LINE
  5
22F86
330
747D
100
AcDbEntity
  8
細線
 48
50.0
100
AcDbLine
 10
5944.838519846483
 20
1040.843865597629
 30
0.0
 11
5951.269300464829
 21
1016.843865597629
 31
0.0
  0
LINE
  5
22F87
330
747D
100
AcDbEntity
  8
細線
 48
50.0
100
AcDbLine
 10
6023.726564793736
 20
1040.843865597629
 30
0.0
 11
6030.157345412082
 21
1016.843865597629
 31
0.0
  0
LINE
  5
22F88
330
747D
100
AcDbEntity
  8
細線
 48
50.0
100
AcDbLine
 10
5787.06242995198
 20
1040.843865597629
 30
0.0
 11
5793.493210570325
 21
1016.843865597629
 31
0.0
  0
LINE
  5
22F89
330
747D
100
AcDbEntity
  8
細線
 48
50.0
100
AcDbLine
 10
5865.95047489923
 20
1040.843865597629
 30
0.0
 11
5872.381255517578
 21
1016.843865597629
 31
0.0
  0
LINE
  5
22F8A
330
747D
100
AcDbEntity
  8
部品1
 48
50.0
100
AcDbLine
 10
5732.112944679371
 20
1016.843865597629
 30
0.0
 11
5732.112944679371
 21
1144.843865597629
 31
0.0
  0
LINE
  5
22F8B
330
747D
100
AcDbEntity
  8
細線
 48
50.0
100
AcDbLine
 10
5780.631649333626
 20
1016.843865597628
 30
0.0
 11
5814.92914596481
 21
1144.843865597628
 31
0.0
  0
LINE
  5
22F8C
330
747D
100
AcDbEntity
  8
細線
 48
50.0
100
AcDbLine
 10
5938.40773922813
 20
1016.843865597628
 30
0.0
 11
5972.705235859312
 21
1144.843865597628
 31
0.0
  0
LINE
  5
22F8D
330
747D
100
AcDbEntity
  8
細線
 48
50.0
100
AcDbLine
 10
5859.519694280884
 20
1016.843865597629
 30
0.0
 11
5893.817190912067
 21
1144.843865597629
 31
0.0
  0
LINE
  5
22F8E
330
747D
100
AcDbEntity
  8
細線
 48
50.0
100
AcDbLine
 10
6030.436956002102
 20
1144.843865597629
 30
0.0
 11
6126.436956002102
 21
1240.84386559763
 31
0.0
  0
CIRCLE
  5
22F8F
330
747D
100
AcDbEntity
  8
部品1
 48
50.0
100
AcDbCircle
 10
6036.112944679368
 20
1264.84386559763
 30
0.0
 40
8.0
  0
LINE
  5
22F90
330
747D
100
AcDbEntity
  8
部品1
 48
50.0
100
AcDbLine
 10
6340.112944679372
 20
1144.843865597629
 30
0.0
 11
5732.112944679371
 21
1144.843865597629
 31
0.0
  0
LINE
  5
22F91
330
747D
100
AcDbEntity
  8
部品1
 48
50.0
100
AcDbLine
 10
5868.112944679368
 20
1256.84386559763
 30
0.0
 11
6204.112944679368
 21
1256.84386559763
 31
0.0
  0
LINE
  5
22F92
330
747D
100
AcDbEntity
  8
部品1
 48
50.0
100
AcDbLine
 10
5868.112944679368
 20
1240.84386559763
 30
0.0
 11
6204.112944679368
 21
1240.84386559763
 31
0.0
  0
LINE
  5
22F93
330
747D
100
AcDbEntity
  8
部品1
 48
50.0
100
AcDbLine
 10
6340.112944679372
 20
1016.843865597629
 30
0.0
 11
5732.112944679371
 21
1016.843865597629
 31
0.0
  0
LINE
  5
22F94
330
747D
100
AcDbEntity
  8
細線
 48
50.0
100
AcDbLine
 10
6017.295784175383
 20
1016.843865597629
 30
0.0
 11
6051.593280806565
 21
1144.843865597629
 31
0.0
  0
LINE
  5
22F95
330
747D
100
AcDbEntity
  8
細線
 48
50.0
100
AcDbLine
 10
6028.112944679368
 20
1304.164464454141
 30
0.0
 11
6044.112944679373
 21
1320.164464454141
 31
0.0
  0
LINE
  5
22F96
330
747D
100
AcDbEntity
  8
部品1
 48
50.0
100
AcDbLine
 10
6044.112944679373
 20
1264.84386559763
 30
0.0
 11
6044.112944679361
 21
1789.098294991875
 31
0.0
  0
LINE
  5
22F97
330
747D
100
AcDbEntity
  8
部品1
 48
50.0
100
AcDbLine
 10
6060.112944679374
 20
1264.84386559763
 30
0.0
 11
6060.112944679368
 21
1789.098294991875
 31
0.0
  0
LINE
  5
22F98
330
747D
100
AcDbEntity
  8
部品1
 48
50.0
100
AcDbLine
 10
6260.112944679368
 20
1384.84386559763
 30
0.0
 11
6260.112944679368
 21
1144.843865597629
 31
0.0
  0
LINE
  5
22F99
330
747D
100
AcDbEntity
  8
細線
 48
50.0
100
AcDbLine
 10
6142.436956002097
 20
1256.84386559763
 30
0.0
 11
6260.112944679368
 21
1374.519854274896
 31
0.0
  0
LINE
  5
22F9A
330
747D
100
AcDbEntity
  8
細線
 48
50.0
100
AcDbLine
 10
6169.377724365312
 20
1256.84386559763
 30
0.0
 11
6260.112944679368
 21
1347.579085911689
 31
0.0
  0
LINE
  5
22F9B
330
747D
100
AcDbEntity
  8
部品1
 48
50.0
100
AcDbLine
 10
5812.112944679369
 20
1144.843865597629
 30
0.0
 11
5812.112944679369
 21
1384.84386559763
 31
0.0
  0
LINE
  5
22F9C
330
747D
100
AcDbEntity
  8
細線
 48
50.0
100
AcDbLine
 10
5926.91080909644
 20
1256.84386559763
 30
0.0
 11
6044.112944679369
 21
1374.046001180555
 31
0.0
  0
LINE
  5
22F9D
330
747D
100
AcDbEntity
  8
細線
 48
50.0
100
AcDbLine
 10
6019.978792156773
 20
1322.971080294752
 30
0.0
 11
6044.112944679373
 21
1347.105232817351
 31
0.0
  0
LINE
  5
22F9E
330
747D
100
AcDbEntity
  8
細線
 48
50.0
100
AcDbLine
 10
5812.112944679361
 20
1303.690611359801
 30
0.0
 11
5893.266198917197
 21
1384.84386559763
 31
0.0
  0
LEADER
  5
22F9F
330
747D
100
AcDbEntity
  8
寸法
 48
50.0
100
AcDbLeader
  3
INABA_S50G
 71
     0
 73
     0
 74
     0
 75
     1
 40
100.0
 41
222.7272727272727
 76
     3
 10
6036.112944679367
 20
1789.098294991875
 30
0.0
 10
6069.998881706762
 20
1730.111426896558
 30
0.0
 10
6194.998881706762
 20
1730.111426896558
 30
0.0
1001
ACAD
1000
DSTYLE
1002
{
1070
    40
1040
1.0
1070
   272
1070
     1
1070
   279
1070
     1
1070
   341
1005
0
1002
}
  0
LWPOLYLINE
  5
22FA0
330
747D
100
AcDbEntity
  8
部品1
 48
50.0
100
AcDbPolyline
 90
        2
 70
     0
 43
8.0
 10
6132.112944679367
 20
1688.84386559763
 10
6546.252846512325
 20
1688.84386559763
  0
MTEXT
  5
22FA1
102
{ACAD_REACTORS
330
22FA3
102
}
330
747D
100
AcDbEntity
  8
寸法
 62
     7
 48
50.0
100
AcDbMText
 10
6363.440604486052
 20
1229.446796654657
 30
0.0
 40
80.0
 41
0.8
 71
     4
 72
     1
  1
D10
  7
STYLE2
 73
     1
 44
1.0
1001
ACAD
1000
MTEXTBEGIN
1070
    73
1070
     1
1070
    44
1040
1.0
1070
    74
1070
     0
1000
MTEXTEND
  0
LEADER
  5
22FA2
330
747D
100
AcDbEntity
  8
寸法
 48
50.0
100
AcDbLeader
  3
INABA_S50G
 71
     0
 73
     0
 74
     0
 75
     1
 40
100.0
 41
540.3409090909091
 76
     3
 10
6110.058113692542
 20
1248.103335184104
 30
0.0
 10
6228.851400540619
 20
906.4725171892069
 30
0.0
 10
6353.851400540619
 20
906.4725171892069
 30
0.0
213
0.0
223
-1.022262676269383
233
0.0
1001
ACAD
1000
DSTYLE
1002
{
1070
    40
1040
1.0
1070
   272
1070
     1
1070
   279
1070
     1
1070
   341
1005
0
1002
}
  0
LEADER
  5
22FA3
330
747D
100
AcDbEntity
  8
寸法
 48
50.0
100
AcDbLeader
  3
INABA_S50G
 71
     0
 73
     0
 74
     0
 75
     1
 40
100.0
 41
225.0
 76
     3
 10
6164.015897031511
 20
1264.84386559763
 30
0.0
 10
6218.440604486052
 20
1169.446796654657
 30
0.0
 10
6343.440604486052
 20
1169.446796654657
 30
0.0
1001
ACAD
1000
DSTYLE
1002
{
1070
    40
1040
1.0
1070
   272
1070
     1
1070
   279
1070
     1
1070
   341
1005
0
1002
}
  0
MTEXT
  5
22FA4
102
{ACAD_REACTORS
330
22F9F
102
}
330
747D
100
AcDbEntity
  8
寸法
 62
     7
 48
50.0
100
AcDbMText
 10
6214.998881706762
 20
1790.111426896557
 30
0.0
 40
80.0
 41
0.8
 71
     4
 72
     1
  1
D13
  7
STYLE2
 73
     1
 44
1.0
1001
ACAD
1000
MTEXTBEGIN
1070
    73
1070
     1
1070
    44
1040
1.0
1070
    74
1070
     0
1000
MTEXTEND
  0
LINE
  5
22FA5
330
747D
100
AcDbEntity
  8
部品1
 48
50.0
100
AcDbLine
 10
6132.112944679368
 20
1928.843865597629
 30
0.0
 11
6132.112944679368
 21
1384.84386559763
 31
0.0
  0
LINE
  5
22FA6
330
747D
100
AcDbEntity
  8
部品1
 48
50.0
100
AcDbLine
 10
5940.112944679368
 20
1384.84386559763
 30
0.0
 11
5940.112944679368
 21
1928.843865597629
 31
0.0
  0
CIRCLE
  5
22FA7
330
747D
100
AcDbEntity
  8
部品1
 48
50.0
100
AcDbCircle
 10
6036.112944679368
 20
1789.098294991875
 30
0.0
 40
8.0
  0
ARC
  5
22FA8
330
747D
100
AcDbEntity
  8
部品1
 48
50.0
100
AcDbCircle
 10
6036.112944679368
 20
1789.098294991875
 30
0.0
 40
24.0
100
AcDbArc
 50
0.0
 51
180.0
  0
LINE
  5
22FA9
330
747D
100
AcDbEntity
  8
細線
 48
50.0
100
AcDbLine
 10
6060.112944679368
 20
1767.21675826546
 30
0.0
 11
6132.112944679368
 21
1839.21675826546
 31
0.0
  0
LEADER
  5
22FAA
330
747D
100
AcDbEntity
  8
寸法
 48
50.0
100
AcDbLeader
  3
INABA_S50G
 73
     0
 75
     1
 40
106.3636363636363
 41
903.5235024184547
 76
     3
 10
7771.552257856561
 20
1998.403865597631
 30
0.0
 10
7723.128185511623
 20
2372.463440313963
 30
0.0
 10
7598.128185511623
 20
2372.463440313963
 30
0.0
340
22FAB
1001
ACAD
1000
DSTYLE
1002
{
1070
   341
1005
0
1070
    40
1040
1.0
1070
   343
1005
0
1070
   344
1005
0
1002
}
  0
MTEXT
  5
22FAB
102
{ACAD_REACTORS
330
22FAA
102
}
330
747D
100
AcDbEntity
  8
寸法
 62
     7
 48
50.0
100
AcDbMText
 10
7573.128185511624
 20
2450.645258495782
 30
0.0
 40
80.0
 41
0.8
 71
     6
 72
     1
  1
アンカープレート {\fArial|b0|i0|c0|p32;U}
  7
STYLE2
 73
     1
 44
1.0
1001
ACAD
1000
MTEXTBEGIN
1070
    73
1070
     1
1070
    44
1040
1.0
1070
    74
1070
     0
1000
MTEXTEND
  0
DIMENSION
  5
22FAC
330
747D
100
AcDbEntity
  8
寸法
 48
50.0
100
AcDbDimension
  2
*D43
 10
6260.112944679367
 20
606.4142275924695
 30
0.0
 11
6016.016186001144
 21
606.4142275924695
 31
0.0
 70
   160
  1
300
 71
     5
 42
448.0
  3
INABA_S40G
100
AcDbAlignedDimension
 13
5812.112944679367
 23
1016.843865597629
 33
0.0
 14
6260.112944679367
 24
1016.843865597629
 34
0.0
100
AcDbRotatedDimension
1001
ACAD
1000
DSTYLE
1002
{
1070
   174
1070
     0
1070
   272
1070
     1
1070
   279
1070
     1
1070
   288
1070
     0
1070
   341
1005
0
1002
}
  0
MTEXT
  5
22FAD
102
{ACAD_REACTORS
330
22FB5
102
}
330
747D
100
AcDbEntity
  8
寸法
 62
     7
 48
50.0
100
AcDbMText
 10
5641.177918484173
 20
1061.321171979193
 30
0.0
 40
80.0
 41
0.8
 71
     6
 72
     1
  1
D10
  7
STYLE2
 73
     1
 44
1.0
1001
ACAD
1000
MTEXTBEGIN
1070
    73
1070
     1
1070
    44
1040
1.0
1070
    74
1070
     0
1000
MTEXTEND
  0
MTEXT
  5
22FAE
102
{ACAD_REACTORS
330
22FB4
102
}
330
747D
100
AcDbEntity
  8
寸法
 62
     7
 48
50.0
100
AcDbMText
 10
5669.300646041609
 20
881.0050194397499
 30
0.0
 40
80.0
 41
0.8
 71
     6
 72
     1
  1
D13
  7
STYLE2
 73
     1
 44
1.0
1001
ACAD
1000
MTEXTBEGIN
1070
    73
1070
     1
1070
    44
1040
1.0
1070
    74
1070
     0
1000
MTEXTEND
  0
DIMENSION
  5
22FAF
330
747D
100
AcDbEntity
  8
寸法
 48
50.0
100
AcDbDimension
  2
*D44
 10
5205.075706117626
 20
1144.84386559763
 30
0.0
 11
5205.075706117628
 21
1516.38401525363
 31
0.0
 70
   160
  1
540
 71
     5
 42
784.0
  3
INABA_S40G
100
AcDbAlignedDimension
 13
5940.112944679367
 23
1928.843865597629
 33
0.0
 14
5732.112944679371
 24
1144.843865597629
 34
0.0
 50
90.0
100
AcDbRotatedDimension
1001
ACAD
1000
DSTYLE
1002
{
1070
   174
1070
     0
1070
   272
1070
     1
1070
   279
1070
     1
1070
   288
1070
     0
1070
   341
1005
0
1002
}
  0
MTEXT
  5
22FB0
102
{ACAD_REACTORS
330
22FB1
102
}
330
747D
100
AcDbEntity
  8
寸法
 62
     7
 48
50.0
100
AcDbMText
 10
5720.014465196094
 20
2141.360085599672
 30
0.0
 40
80.0
 41
0.8
 71
     6
 72
     1
  1
\A1;金コテ押エ
  7
STYLE2
 73
     1
 44
1.0
1001
ACAD
1000
MTEXTBEGIN
1070
    73
1070
     1
1070
    44
1040
1.0
1070
    74
1070
     0
1000
MTEXTEND
  0
LEADER
  5
22FB1
330
747D
100
AcDbEntity
  8
寸法
 48
50.0
100
AcDbLeader
  3
INABA_S50G
 71
     0
 73
     0
 75
     1
 40
130.1136363636363
 41
651.1363636363636
 76
     3
 10
6020.112944679368
 20
1928.843865597629
 30
0.0
 10
5907.688364515351
 20
2069.314631054218
 30
0.0
 10
5782.688364515351
 20
2069.314631054218
 30
0.0
1001
ACAD
1000
DSTYLE
1002
{
1070
    40
1040
1.0
1070
   272
1070
     1
1070
   279
1070
     1
1070
   341
1005
0
1002
}
  0
LEADER
  5
22FB2
330
747D
100
AcDbEntity
  8
寸法
 48
50.0
100
AcDbLeader
  3
INABA_S50G
 71
     0
 73
     0
 75
     1
 40
100.0
 41
540.3409090909091
 76
     3
 10
6044.112944679367
 20
1686.971080294753
 30
0.0
 10
5986.130708150669
 20
1465.500751753948
 30
0.0
 10
5861.130708150669
 20
1465.500751753948
 30
0.0
213
-9.732182305893367
223
-4.643716661138569
233
0.0
1001
ACAD
1000
DSTYLE
1002
{
1070
    40
1040
1.0
1070
   272
1070
     1
1070
   279
1070
     1
1070
   341
1005
0
1002
}
  0
MTEXT
  5
22FB3
102
{ACAD_REACTORS
330
22FB2
102
}
330
747D
100
AcDbEntity
  8
寸法
 62
     7
 48
50.0
100
AcDbMText
 10
5850.862890456563
 20
1530.144468415086
 30
0.0
 40
80.0
 41
0.8
 71
     6
 72
     1
  1
\A1;D10@300
  7
STYLE2
 73
     1
 44
1.0
1001
ACAD
1000
MTEXTBEGIN
1070
    73
1070
     1
1070
    44
1040
1.0
1070
    74
1070
     0
1000
MTEXTEND
  0
LEADER
  5
22FB4
330
747D
100
AcDbEntity
  8
寸法
 48
50.0
100
AcDbLeader
  3
INABA_S50G
 71
     0
 73
     0
 75
     1
 40
100.0
 41
222.7272727272727
 76
     3
 10
6036.112944679367
 20
1264.84386559763
 30
0.0
 10
5814.300646041608
 20
821.0050194397499
 30
0.0
 10
5689.300646041608
 20
821.0050194397499
 30
0.0
1001
ACAD
1000
DSTYLE
1002
{
1070
    40
1040
1.0
1070
   272
1070
     1
1070
   279
1070
     1
1070
   341
1005
0
1002
}
  0
LEADER
  5
22FB5
330
747D
100
AcDbEntity
  8
寸法
 48
50.0
100
AcDbLeader
  3
INABA_S50G
 71
     0
 73
     0
 75
     1
 40
100.0
 41
225.0
 76
     3
 10
5908.015897031511
 20
1264.84386559763
 30
0.0
 10
5786.177918484174
 20
1001.321171979193
 30
0.0
 10
5661.177918484174
 20
1001.321171979193
 30
0.0
1001
ACAD
1000
DSTYLE
1002
{
1070
    40
1040
1.0
1070
   272
1070
     1
1070
   279
1070
     1
1070
   341
1005
0
1002
}
  0
DIMENSION
  5
22FB6
330
747D
100
AcDbEntity
  8
寸法
 48
50.0
100
AcDbDimension
  2
*D45
 10
5669.692630946908
 20
1144.843865597629
 30
0.0
 11
5669.692630946908
 21
1264.84386559763
 31
0.0
 70
   160
  1
150
 71
     5
 42
240.0
  3
INABA_S40G
100
AcDbAlignedDimension
 13
5812.112944679367
 23
1384.84386559763
 33
0.0
 14
5732.112944679371
 24
1144.843865597629
 34
0.0
 50
90.0
100
AcDbRotatedDimension
1001
ACAD
1000
DSTYLE
1002
{
1070
   174
1070
     0
1070
   272
1070
     1
1070
   279
1070
     1
1070
   288
1070
     0
1070
   341
1005
0
1002
}
  0
TEXT
  5
22FB7
330
747D
100
AcDbEntity
  8
部品1
 48
50.0
100
AcDbText
 10
5525.973042846411
 20
1700.082857880885
 30
0.0
 40
80.0
  1
▽G.L
  7
STYLE2
100
AcDbText
  0
LWPOLYLINE
  5
22FB8
330
747D
100
AcDbEntity
  8
部品1
 48
50.0
100
AcDbPolyline
 90
        2
 70
     0
 43
8.0
 10
5525.973042846411
 20
1688.84386559763
 10
5940.112944679367
 20
1688.84386559763
  0
MTEXT
  5
22FB9
102
{ACAD_REACTORS
330
22FBA
102
}
330
747D
100
AcDbEntity
  8
寸法
 62
     7
 48
50.0
100
AcDbMText
 10
7546.485179303265
 20
2811.329530403296
 30
0.0
 40
80.0
 41
0.8
 71
     6
 72
     1
  1
\A1;φ70スリーブ
  7
STYLE2
 73
     1
 44
1.0
1001
ACAD
1000
MTEXTBEGIN
1070
    73
1070
     1
1070
    44
1040
1.0
1070
    74
1070
     0
1000
MTEXTEND
  0
LEADER
  5
22FBA
330
747D
100
AcDbEntity
  8
寸法
 48
50.0
100
AcDbLeader
  3
INABA_S50G
 73
     0
 75
     1
 40
113.1818181818182
 41
608.6363636363635
 76
     3
 10
7830.289007994612
 20
1878.359538955908
 30
0.0
 10
7696.485179303265
 20
2729.738621312387
 30
0.0
 10
7571.485179303265
 20
2729.738621312387
 30
0.0
340
22FB9
1001
ACAD
1000
DSTYLE
1002
{
1070
   341
1005
0
1070
    40
1040
1.0
1070
   343
1005
0
1070
   344
1005
0
1002
}
  0
LINE
  5
22FBB
330
747D
100
AcDbEntity
  8
部品1
100
AcDbLine
 10
4869.444505870105
 20
3249.815485374475
 30
0.0
 11
4869.444505870107
 21
285.5085157898275
 31
0.0
  0
LEADER
  5
22FBC
330
747D
100
AcDbEntity
  8
寸法
 48
50.0
100
AcDbLeader
  3
INABA_S50G
 73
     0
 74
     0
 75
     1
 40
80.0
 41
435.0
 76
     3
 10
7870.552257856562
 20
1978.00386559763
 30
0.0
 10
7913.096720275881
 20
2128.22719175086
 30
0.0
 10
8038.096720275881
 20
2128.22719175086
 30
0.0
340
22FBD
1001
ACAD
1000
DSTYLE
1002
{
1070
   341
1005
0
1070
    40
1040
1.0
1070
   343
1005
0
1070
   344
1005
0
1002
}
  0
MTEXT
  5
22FBD
102
{ACAD_REACTORS
330
22FBC
102
}
330
747D
100
AcDbEntity
  8
部品1
 62
     7
 48
50.0
100
AcDbMText
 10
8063.096720275881
 20
2193.22719175086
 30
0.0
 40
80.0
 41
0.8
 71
     4
 72
     1
  1
M10X160
  7
STYLE2
 73
     1
 44
1.0
1001
ACAD
1000
MTEXTBEGIN
1070
    73
1070
     1
1070
    44
1040
1.0
1070
    74
1070
     0
1000
MTEXTEND
  0
DIMENSION
  5
22FBE
330
747D
100
AcDbEntity
  8
寸法
 48
50.0
100
AcDbDimension
  2
*D46
 10
8556.020857625403
 20
1928.843865597629
 30
0.0
 11
8832.075523744432
 21
1903.719907993418
 31
0.0
 70
   160
  1
20～25
 71
     5
 42
52.76000000000113
  3
INABA_S40G
100
AcDbAlignedDimension
 13
7866.952257856564
 23
1981.603865597631
 33
0.0
 14
8054.152257856562
 24
1928.843865597629
 34
0.0
 50
90.0
100
AcDbRotatedDimension
1001
ACAD
1000
DSTYLE
1002
{
1070
   174
1070
     0
1070
   272
1070
     1
1070
   279
1070
     1
1070
   288
1070
     0
1070
   341
1005
0
1002
}
  0
DIMENSION
  5
22FBF
330
747D
100
AcDbEntity
  8
寸法
 48
50.0
100
AcDbDimension
  2
*D47
 10
8556.020857625403
 20
1604.843865597629
 30
0.0
 11
8456.020857625404
 21
1766.84386559763
 31
0.0
 70
    32
  1
180
 71
     5
 42
324.0000000000009
  3
INABA_S40G
100
AcDbAlignedDimension
 13
8054.152257856562
 23
1928.843865597629
 33
0.0
 14
8054.152257856562
 24
1604.843865597629
 34
0.0
 50
90.0
100
AcDbRotatedDimension
1001
ACAD
1000
DSTYLE
1002
{
1070
   174
1070
     0
1070
   272
1070
     1
1070
   279
1070
     1
1070
   288
1070
     0
1070
   341
1005
0
1002
}
  0
TEXT
  5
22FC0
330
747D
100
AcDbEntity
  8
部品1
 48
50.0
100
AcDbText
 10
8058.505842140991
 20
2284.72254635983
 30
0.0
 40
80.0
  1
基礎ボルト(市販品)
  7
STYLE2
100
AcDbText
  0
LWPOLYLINE
  5
22FC1
330
747D
100
AcDbEntity
  8
部品1
 48
50.0
100
AcDbPolyline
 90
        2
 70
     0
 43
8.0
 10
8054.152257856562
 20
1688.84386559763
 10
8347.854721255947
 20
1688.84386559763
  0
MTEXT
  5
22FC2
102
{ACAD_REACTORS
330
22FC3
102
}
330
747D
100
AcDbEntity
  8
部品1
 62
     7
 48
50.0
100
AcDbMText
 10
8093.4238482254
 20
2629.33923868489
 30
0.0
 40
80.0
 41
0.8
 71
     4
 72
     1
  1
\A1;ワッシャー(市販品)
  7
STYLE2
 73
     1
 44
1.0
1001
ACAD
1000
MTEXTBEGIN
1070
    73
1070
     1
1070
    44
1040
1.0
1070
    74
1070
     0
1000
MTEXTEND
  0
LEADER
  5
22FC3
330
747D
100
AcDbEntity
  8
寸法
 48
50.0
100
AcDbLeader
  3
INABA_S50G
 73
     0
 74
     0
 75
     1
 40
102.2727272727273
 41
906.8181818181818
 76
     3
 10
7901.552257856562
 20
2197.96715404191
 30
0.0
 10
7943.4238482254
 20
2553.202875048526
 30
0.0
 10
8068.4238482254
 20
2553.202875048526
 30
0.0
340
22FC2
1001
ACAD
1000
DSTYLE
1002
{
1070
   341
1005
0
1070
    40
1040
1.0
1070
   343
1005
0
1070
   344
1005
0
1002
}
  0
MTEXT
  5
22FC4
102
{ACAD_REACTORS
330
22FC5
102
}
330
747D
100
AcDbEntity
  8
部品1
 62
     7
 48
50.0
100
AcDbMText
 10
8061.90622896992
 20
2814.308321449678
 30
0.0
 40
80.0
 41
0.8
 71
     4
 72
     1
  1
\A1;ナット(市販品)
  7
STYLE2
 73
     1
 44
1.0
1001
ACAD
1000
MTEXTBEGIN
1070
    73
1070
     1
1070
    44
1040
1.0
1070
    74
1070
     0
1000
MTEXTEND
  0
LEADER
  5
22FC5
330
747D
100
AcDbEntity
  8
寸法
 48
50.0
100
AcDbLeader
  3
INABA_S50G
 73
     0
 74
     0
 75
     1
 40
102.2727272727273
 41
680.0000000000001
 76
     3
 10
7877.552257856561
 20
2327.719146706773
 30
0.0
 10
7911.90622896992
 20
2738.171957813313
 30
0.0
 10
8036.90622896992
 20
2738.171957813313
 30
0.0
340
22FC4
1001
ACAD
1000
DSTYLE
1002
{
1070
   341
1005
0
1070
    40
1040
1.0
1070
   343
1005
0
1070
   344
1005
0
1002
}
  0
LINE
  5
22FC6
330
747D
100
AcDbEntity
  8
部品1
100
AcDbLine
 10
4869.444505870109
 20
285.5085157898275
 30
0.0
 11
10940.42969125635
 21
285.5085157898275
 31
0.0
  0
LINE
  5
22FC7
330
747D
100
AcDbEntity
  8
部品1
100
AcDbLine
 10
10940.42969125635
 20
3009.815485374473
 30
0.0
 11
4869.444505870107
 21
3009.815485374473
 31
0.0
  0
LINE
  5
22FC8
330
747D
100
AcDbEntity
  8
部品1
100
AcDbLine
 10
10940.42969125636
 20
3249.815485374475
 30
0.0
 11
4869.444505870103
 21
3249.815485374475
 31
0.0
  0
ENDSEC
  0
SECTION
  2
OBJECTS
  0
DICTIONARY
  5
7471
330
0
100
AcDbDictionary
281
     1
  3
ACAD_COLOR
350
173D2
  3
ACAD_GROUP
350
7472
  3
ACAD_LAYOUT
350
173D3
  3
ACAD_MATERIAL
350
173D1
  3
ACAD_MLINESTYLE
350
7473
  3
ACAD_PLOTSETTINGS
350
173D4
  3
ACAD_PLOTSTYLENAME
350
173CF
  3
ACDBHEADERROUNDTRIPXREC
350
23075
  3
AcDbVariableDictionary
350
23071
  3
CONTENTDICTIONARY
350
E71C
  3
DRAWINGVARIABLESDICT
350
F3B9
  0
DICTIONARY
  5
1758F
330
7467
100
AcDbDictionary
280
     1
281
     1
  3
ACAD_LAYERSTATES
360
17590
  0
DICTIONARY
  5
173D2
102
{ACAD_REACTORS
330
7471
102
}
330
7471
100
AcDbDictionary
281
     1
  0
DICTIONARY
  5
7472
102
{ACAD_REACTORS
330
7471
102
}
330
7471
100
AcDbDictionary
281
     1
  3
*A1
350
1D2A9
  3
*A2
350
22412
  0
DICTIONARY
  5
173D3
102
{ACAD_REACTORS
330
7471
102
}
330
7471
100
AcDbDictionary
281
     1
  3
Model
350
173D5
  3
レイアウト1
350
173D6
  0
DICTIONARY
  5
173D1
102
{ACAD_REACTORS
330
7471
102
}
330
7471
100
AcDbDictionary
281
     1
  0
DICTIONARY
  5
7473
102
{ACAD_REACTORS
330
7471
102
}
330
7471
100
AcDbDictionary
281
     1
  3
STANDARD
350
7480
  0
DICTIONARY
  5
173D4
102
{ACAD_REACTORS
330
7471
102
}
330
7471
100
AcDbDictionary
281
     1
  0
ACDBDICTIONARYWDFLT
  5
173CF
102
{ACAD_REACTORS
330
7471
102
}
330
7471
100
AcDbDictionary
281
     1
  3
Normal
350
173D0
100
AcDbDictionaryWithDefault
340
173D0
  0
DICTIONARY
  5
23075
102
{ACAD_REACTORS
330
7471
102
}
330
7471
100
AcDbDictionary
281
     1
  3
COLORDICT
350
23077
  3
MATERIALDICT
350
23076
  0
DICTIONARY
  5
23071
102
{ACAD_REACTORS
330
7471
102
}
330
7471
100
AcDbDictionary
281
     1
  3
DIMASSOC
350
23072
  3
PROJECTNAME
350
23073
  0
DICTIONARY
  5
E71C
102
{ACAD_REACTORS
330
7471
102
}
330
7471
100
AcDbDictionary
281
     1
  0
DICTIONARY
  5
F3B9
102
{ACAD_REACTORS
330
7471
102
}
330
7471
100
AcDbDictionary
281
     1
1001
DRAWINGVARIABLESXDATA
1000
POLARMODE
1000
1
  0
DICTIONARY
  5
17590
102
{ACAD_REACTORS
330
1758F
102
}
330
1758F
100
AcDbDictionary
281
     1
  0
GROUP
  5
1D2A9
102
{ACAD_REACTORS
330
7472
102
}
330
7472
100
AcDbGroup
300

 70
     1
 71
     1
  0
GROUP
  5
22412
102
{ACAD_REACTORS
330
7472
102
}
330
7472
100
AcDbGroup
300

 70
     1
 71
     1
  0
LAYOUT
  5
173D5
102
{ACAD_XDICTIONARY
360
23078
102
}
102
{ACAD_REACTORS
330
173D3
102
}
330
173D3
100
AcDbPlotSettings
  1

  2
Microsoft Office Document Image Writer
  4

  6

 40
0.0
 41
0.0
 42
0.0
 43
0.0
 44
0.0
 45
0.0
 46
0.0
 47
0.0
 48
0.0
 49
0.0
140
0.0
141
0.0
142
1.0
143
1.0
 70
  1712
 72
     0
 73
     0
 74
     0
  7

 75
     0
147
1.0
148
0.0
149
0.0
100
AcDbLayout
  1
Model
 70
     1
 71
     0
 10
0.0
 20
0.0
 11
12.0
 21
9.0
 12
0.0
 22
0.0
 32
0.0
 14
0.0
 24
0.0
 34
0.0
 15
0.0
 25
0.0
 35
0.0
146
0.0
 13
0.0
 23
0.0
 33
0.0
 16
1.0
 26
0.0
 36
0.0
 17
0.0
 27
1.0
 37
0.0
 76
     0
330
747D
  0
LAYOUT
  5
173D6
102
{ACAD_XDICTIONARY
360
2307A
102
}
102
{ACAD_REACTORS
330
173D3
102
}
330
173D3
100
AcDbPlotSettings
  1

  2
Microsoft Office Document Image Writer
  4

  6

 40
0.0
 41
0.0
 42
0.0
 43
0.0
 44
0.0
 45
0.0
 46
0.0
 47
0.0
 48
0.0
 49
0.0
140
0.0
141
0.0
142
1.0
143
1.0
 70
   688
 72
     0
 73
     0
 74
     5
  7

 75
    16
147
1.0
148
0.0
149
0.0
100
AcDbLayout
  1
レイアウト1
 70
     0
 71
     1
 10
0.0
 20
0.0
 11
420.0
 21
297.0
 12
0.0
 22
0.0
 32
0.0
 14
1.000000000000000E+20
 24
1.000000000000000E+20
 34
1.000000000000000E+20
 15
-1.000000000000000E+20
 25
-1.000000000000000E+20
 35
-1.000000000000000E+20
146
0.0
 13
0.0
 23
0.0
 33
0.0
 16
1.0
 26
0.0
 36
0.0
 17
0.0
 27
1.0
 37
0.0
 76
     0
330
747A
  0
MLINESTYLE
  5
7480
102
{ACAD_REACTORS
330
7473
102
}
330
7473
100
AcDbMlineStyle
  2
STANDARD
 70
     0
  3

 62
     0
 51
90.0
 52
90.0
 71
     2
 49
0.5
 62
   256
  6
BYLAYER
 49
-0.5
 62
   256
  6
BYLAYER
  0
ACDBPLACEHOLDER
  5
173D0
102
{ACAD_REACTORS
330
173CF
102
}
330
173CF
  0
XRECORD
  5
23077
102
{ACAD_REACTORS
330
23075
102
}
330
23075
100
AcDbXrecord
280
     1
340
173D2
  0
XRECORD
  5
23076
102
{ACAD_REACTORS
330
23075
102
}
330
23075
100
AcDbXrecord
280
     1
340
173D1
  0
DICTIONARYVAR
  5
23072
102
{ACAD_REACTORS
330
23071
102
}
330
23071
100
DictionaryVariables
280
     0
  1
1
  0
DICTIONARYVAR
  5
23073
102
{ACAD_REACTORS
330
23071
102
}
330
23071
100
DictionaryVariables
280
     0
  1

  0
DICTIONARY
  5
23078
330
173D5
100
AcDbDictionary
280
     1
281
     1
  3
ACAD_XREC_ROUNDTRIP
360
23079
  0
DICTIONARY
  5
2307A
330
173D6
100
AcDbDictionary
280
     1
281
     1
  3
ACAD_XREC_ROUNDTRIP
360
2307B
  0
XRECORD
  5
23079
102
{ACAD_REACTORS
330
23078
102
}
330
23078
100
AcDbXrecord
280
     1
102
SHADEPLOT
 70
     0
102
SHADEPLOTRESLEVEL
 70
     2
102
SHADEPLOTCUSTOMDPI
 70
   300
  0
XRECORD
  5
2307B
102
{ACAD_REACTORS
330
2307A
102
}
330
2307A
100
AcDbXrecord
280
     1
102
SHADEPLOT
 70
     0
102
SHADEPLOTRESLEVEL
 70
     2
102
SHADEPLOTCUSTOMDPI
 70
   300
  0
ENDSEC
  0
EOF
