  0
SECTION
  2
HEADER
  9
$ACADVER
  1
AC1015
  9
$ACADMAINTVER
 70
    20
  9
$DWGCODEPAGE
  3
ANSI_932
  9
$INSBASE
 10
0.0
 20
0.0
 30
0.0
  9
$EXTMIN
 10
139.196816621341
 20
-0.3625211682701774
 30
-0.0015258207003583
  9
$EXTMAX
 10
16308.32523385566
 20
11409.95547144901
 30
0.0000000349246037
  9
$LIMMIN
 10
0.0
 20
0.0
  9
$LIMMAX
 10
16800.0
 20
11880.0
  9
$ORTHOMODE
 70
     0
  9
$REGENMODE
 70
     1
  9
$FILLMODE
 70
     1
  9
$QTEXTMODE
 70
     0
  9
$MIRRTEXT
 70
     1
  9
$LTSCALE
 40
20.0
  9
$ATTMODE
 70
     1
  9
$TEXTSIZE
 40
100.0
  9
$TRACEWID
 40
1.0
  9
$TEXTSTYLE
  7
STYLE2
  9
$CLAYER
  8
寸法
  9
$CELTYPE
  6
BYLAYER
  9
$CECOLOR
 62
   256
  9
$CELTSCALE
 40
50.0
  9
$DISPSILH
 70
     0
  9
$DIMSCALE
 40
40.0
  9
$DIMASZ
 40
2.5
  9
$DIMEXO
 40
0.5
  9
$DIMDLI
 40
7.0
  9
$DIMRND
 40
0.0
  9
$DIMDLE
 40
0.0
  9
$DIMEXE
 40
1.5
  9
$DIMTP
 40
0.0
  9
$DIMTM
 40
0.0
  9
$DIMTXT
 40
3.0
  9
$DIMCEN
 40
0.0
  9
$DIMTSZ
 40
0.0
  9
$DIMTOL
 70
     0
  9
$DIMLIM
 70
     0
  9
$DIMTIH
 70
     0
  9
$DIMTOH
 70
     0
  9
$DIMSE1
 70
     0
  9
$DIMSE2
 70
     0
  9
$DIMTAD
 70
     3
  9
$DIMZIN
 70
     8
  9
$DIMBLK
  1

  9
$DIMASO
 70
     1
  9
$DIMSHO
 70
     1
  9
$DIMPOST
  1

  9
$DIMAPOST
  1

  9
$DIMALT
 70
     0
  9
$DIMALTD
 70
     2
  9
$DIMALTF
 40
0.0394
  9
$DIMLFAC
 40
1.0
  9
$DIMTOFL
 70
     1
  9
$DIMTVP
 40
0.0
  9
$DIMTIX
 70
     0
  9
$DIMSOXD
 70
     0
  9
$DIMSAH
 70
     1
  9
$DIMBLK1
  1
DOTSMALL
  9
$DIMBLK2
  1
DOTSMALL
  9
$DIMSTYLE
  2
INABA_S40G
  9
$DIMCLRD
 70
     0
  9
$DIMCLRE
 70
     0
  9
$DIMCLRT
 70
     7
  9
$DIMTFAC
 40
1.0
  9
$DIMGAP
 40
1.0
  9
$DIMJUST
 70
     0
  9
$DIMSD1
 70
     0
  9
$DIMSD2
 70
     0
  9
$DIMTOLJ
 70
     1
  9
$DIMTZIN
 70
     0
  9
$DIMALTZ
 70
     0
  9
$DIMALTTZ
 70
     0
  9
$DIMUPT
 70
     0
  9
$DIMDEC
 70
     1
  9
$DIMTDEC
 70
     1
  9
$DIMALTU
 70
     2
  9
$DIMALTTD
 70
     2
  9
$DIMTXSTY
  7
STYLE1
  9
$DIMAUNIT
 70
     0
  9
$DIMADEC
 70
     0
  9
$DIMALTRND
 40
0.0
  9
$DIMAZIN
 70
     0
  9
$DIMDSEP
 70
    46
  9
$DIMATFIT
 70
     3
  9
$DIMFRAC
 70
     0
  9
$DIMLDRBLK
  1

  9
$DIMLUNIT
 70
     2
  9
$DIMLWD
 70
    -2
  9
$DIMLWE
 70
    -2
  9
$DIMTMOVE
 70
     1
  9
$LUNITS
 70
     2
  9
$LUPREC
 70
     1
  9
$SKETCHINC
 40
1.0
  9
$FILLETRAD
 40
2.299999999999999
  9
$AUNITS
 70
     0
  9
$AUPREC
 70
     0
  9
$MENU
  1
acad
  9
$ELEVATION
 40
0.0
  9
$PELEVATION
 40
0.0
  9
$THICKNESS
 40
0.0
  9
$LIMCHECK
 70
     0
  9
$CHAMFERA
 40
3.0
  9
$CHAMFERB
 40
3.0
  9
$CHAMFERC
 40
0.0
  9
$CHAMFERD
 40
0.0
  9
$SKPOLY
 70
     0
  9
$TDCREATE
 40
2451368.612993866
  9
$TDUCREATE
 40
2451368.237993866
  9
$TDUPDATE
 40
2455757.552416262
  9
$TDUUPDATE
 40
2455757.177416262
  9
$TDINDWG
 40
1.6628109722
  9
$TDUSRTIMER
 40
1.6628109722
  9
$USRTIMER
 70
     1
  9
$ANGBASE
 50
0.0
  9
$ANGDIR
 70
     0
  9
$PDMODE
 70
     3
  9
$PDSIZE
 40
2.0
  9
$PLINEWID
 40
0.0
  9
$SPLFRAME
 70
     0
  9
$SPLINETYPE
 70
     6
  9
$SPLINESEGS
 70
     8
  9
$HANDSEED
  5
205B3
  9
$SURFTAB1
 70
     6
  9
$SURFTAB2
 70
     6
  9
$SURFTYPE
 70
     6
  9
$SURFU
 70
     6
  9
$SURFV
 70
     6
  9
$UCSBASE
  2

  9
$UCSNAME
  2

  9
$UCSORG
 10
0.0
 20
0.0
 30
0.0
  9
$UCSXDIR
 10
1.0
 20
0.0
 30
0.0
  9
$UCSYDIR
 10
0.0
 20
1.0
 30
0.0
  9
$UCSORTHOREF
  2

  9
$UCSORTHOVIEW
 70
     0
  9
$UCSORGTOP
 10
0.0
 20
0.0
 30
0.0
  9
$UCSORGBOTTOM
 10
0.0
 20
0.0
 30
0.0
  9
$UCSORGLEFT
 10
0.0
 20
0.0
 30
0.0
  9
$UCSORGRIGHT
 10
0.0
 20
0.0
 30
0.0
  9
$UCSORGFRONT
 10
0.0
 20
0.0
 30
0.0
  9
$UCSORGBACK
 10
0.0
 20
0.0
 30
0.0
  9
$PUCSBASE
  2

  9
$PUCSNAME
  2

  9
$PUCSORG
 10
0.0
 20
0.0
 30
0.0
  9
$PUCSXDIR
 10
1.0
 20
0.0
 30
0.0
  9
$PUCSYDIR
 10
0.0
 20
1.0
 30
0.0
  9
$PUCSORTHOREF
  2

  9
$PUCSORTHOVIEW
 70
     0
  9
$PUCSORGTOP
 10
0.0
 20
0.0
 30
0.0
  9
$PUCSORGBOTTOM
 10
0.0
 20
0.0
 30
0.0
  9
$PUCSORGLEFT
 10
0.0
 20
0.0
 30
0.0
  9
$PUCSORGRIGHT
 10
0.0
 20
0.0
 30
0.0
  9
$PUCSORGFRONT
 10
0.0
 20
0.0
 30
0.0
  9
$PUCSORGBACK
 10
0.0
 20
0.0
 30
0.0
  9
$USERI1
 70
     0
  9
$USERI2
 70
     0
  9
$USERI3
 70
     0
  9
$USERI4
 70
     0
  9
$USERI5
 70
     0
  9
$USERR1
 40
0.0
  9
$USERR2
 40
0.0
  9
$USERR3
 40
0.0
  9
$USERR4
 40
0.0
  9
$USERR5
 40
0.0
  9
$WORLDVIEW
 70
     1
  9
$SHADEDGE
 70
     3
  9
$SHADEDIF
 70
    70
  9
$TILEMODE
 70
     1
  9
$MAXACTVP
 70
    16
  9
$PINSBASE
 10
0.0
 20
0.0
 30
0.0
  9
$PLIMCHECK
 70
     0
  9
$PEXTMIN
 10
1.000000000000000E+20
 20
1.000000000000000E+20
 30
1.000000000000000E+20
  9
$PEXTMAX
 10
-1.000000000000000E+20
 20
-1.000000000000000E+20
 30
-1.000000000000000E+20
  9
$PLIMMIN
 10
0.0
 20
0.0
  9
$PLIMMAX
 10
420.0
 20
297.0
  9
$UNITMODE
 70
     0
  9
$VISRETAIN
 70
     0
  9
$PLINEGEN
 70
     0
  9
$PSLTSCALE
 70
     0
  9
$TREEDEPTH
 70
  3020
  9
$CMLSTYLE
  2
STANDARD
  9
$CMLJUST
 70
     0
  9
$CMLSCALE
 40
1.0
  9
$PROXYGRAPHICS
 70
     1
  9
$MEASUREMENT
 70
     1
  9
$CELWEIGHT
370
    -1
  9
$ENDCAPS
280
     0
  9
$JOINSTYLE
280
     0
  9
$LWDISPLAY
290
     0
  9
$INSUNITS
 70
     0
  9
$HYPERLINKBASE
  1

  9
$STYLESHEET
  1
inaba.ctb
  9
$XEDIT
290
     1
  9
$CEPSNTYPE
380
     0
  9
$PSTYLEMODE
290
     1
  9
$FINGERPRINTGUID
  2
{3B57B35E-7D77-4BBF-81B7-6C583B9EB24C}
  9
$VERSIONGUID
  2
{66970F41-C294-42BD-B2FF-F69E80C50D88}
  9
$EXTNAMES
290
     1
  9
$PSVPSCALE
 40
0.0
  9
$OLESTARTUP
290
     0
  0
ENDSEC
  0
SECTION
  2
CLASSES
  0
CLASS
  1
ACDBDICTIONARYWDFLT
  2
AcDbDictionaryWithDefault
  3
ObjectDBX Classes
 90
        0
280
     0
281
     0
  0
CLASS
  1
DICTIONARYVAR
  2
AcDbDictionaryVar
  3
ObjectDBX Classes
 90
        0
280
     0
281
     0
  0
CLASS
  1
ACDBPLACEHOLDER
  2
AcDbPlaceHolder
  3
ObjectDBX Classes
 90
        0
280
     0
281
     0
  0
CLASS
  1
LAYOUT
  2
AcDbLayout
  3
ObjectDBX Classes
 90
        0
280
     0
281
     0
  0
ENDSEC
  0
SECTION
  2
TABLES
  0
TABLE
  2
VPORT
  5
746D
330
0
100
AcDbSymbolTable
 70
     4
  0
VPORT
  5
205AB
330
746D
100
AcDbSymbolTableRecord
100
AcDbViewportTableRecord
  2
*Active
 70
     0
 10
0.0
 20
0.0
 11
1.0
 21
1.0
 12
8223.7610252385
 22
5704.796475140369
 13
0.0
 23
0.0
 14
10.0
 24
10.0
 15
10.0
 25
10.0
 16
0.0
 26
0.0
 36
1.0
 17
0.0
 27
0.0
 37
0.0
 40
11507.2898843291
 41
1.528517110266159
 42
50.0
 43
0.0
 44
0.0
 50
0.0
 51
0.0
 71
     0
 72
     0
 73
     1
 74
     0
 75
     0
 76
     0
 77
     0
 78
     0
281
     0
 65
     1
110
0.0
120
0.0
130
0.0
111
1.0
121
0.0
131
0.0
112
0.0
122
1.0
132
0.0
 79
     0
146
0.0
  0
ENDTAB
  0
TABLE
  2
LTYPE
  5
746A
330
0
100
AcDbSymbolTable
 70
     3
  0
LTYPE
  5
7477
330
746A
100
AcDbSymbolTableRecord
100
AcDbLinetypeTableRecord
  2
BYBLOCK
 70
     0
  3

 72
    65
 73
     0
 40
0.0
  0
LTYPE
  5
7478
330
746A
100
AcDbSymbolTableRecord
100
AcDbLinetypeTableRecord
  2
BYLAYER
 70
     0
  3

 72
    65
 73
     0
 40
0.0
  0
LTYPE
  5
7479
330
746A
100
AcDbSymbolTableRecord
100
AcDbLinetypeTableRecord
  2
CONTINUOUS
 70
     0
  3
Solid line
 72
    65
 73
     0
 40
0.0
  0
LTYPE
  5
7816
330
746A
100
AcDbSymbolTableRecord
100
AcDbLinetypeTableRecord
  2
CENTER
 70
     0
  3
____ _ ____ _ ____ _ ____ _ ____ _ ____ _ ____ 
 72
    65
 73
     4
 40
2.0
 49
1.25
 74
     0
 49
-0.25
 74
     0
 49
0.25
 74
     0
 49
-0.25
 74
     0
  0
LTYPE
  5
781B
330
746A
100
AcDbSymbolTableRecord
100
AcDbLinetypeTableRecord
  2
PHANTOM
 70
     0
  3
______  __  __  ______  __  __  ______  __  __ 
 72
    65
 73
     6
 40
2.5
 49
1.25
 74
     0
 49
-0.25
 74
     0
 49
0.25
 74
     0
 49
-0.25
 74
     0
 49
0.25
 74
     0
 49
-0.25
 74
     0
  0
ENDTAB
  0
TABLE
  2
LAYER
  5
7467
102
{ACAD_XDICTIONARY
360
1FFCE
102
}
330
0
100
AcDbSymbolTable
 70
    10
  0
LAYER
  5
7474
330
7467
100
AcDbSymbolTableRecord
100
AcDbLayerTableRecord
  2
0
 70
     0
 62
     7
  6
CONTINUOUS
370
    -3
390
159AE
  0
LAYER
  5
DEB2
330
7467
100
AcDbSymbolTableRecord
100
AcDbLayerTableRecord
  2
センター
 70
     0
 62
     3
  6
CENTER
370
    -3
390
159AE
  0
LAYER
  5
DEB3
330
7467
100
AcDbSymbolTableRecord
100
AcDbLayerTableRecord
  2
寸法
 70
     0
 62
     4
  6
CONTINUOUS
370
    -3
390
159AE
  0
LAYER
  5
DEB4
330
7467
100
AcDbSymbolTableRecord
100
AcDbLayerTableRecord
  2
部品1
 70
     0
 62
     7
  6
CONTINUOUS
370
    -3
390
159AE
  0
LAYER
  5
DEB5
330
7467
100
AcDbSymbolTableRecord
100
AcDbLayerTableRecord
  2
補助
 70
     0
 62
    -1
  6
CONTINUOUS
370
    -3
390
159AE
  0
LAYER
  5
DEB6
330
7467
100
AcDbSymbolTableRecord
100
AcDbLayerTableRecord
  2
文字
 70
     0
 62
     7
  6
CONTINUOUS
370
    -3
390
159AE
  0
LAYER
  5
F255
330
7467
100
AcDbSymbolTableRecord
100
AcDbLayerTableRecord
  2
DEFPOINTS
 70
     0
 62
     7
  6
CONTINUOUS
290
     0
370
    -3
390
159AE
  0
LAYER
  5
10B54
330
7467
100
AcDbSymbolTableRecord
100
AcDbLayerTableRecord
  2
仕様書枠
 70
     0
 62
   230
  6
CONTINUOUS
370
    -3
390
159AE
  0
LAYER
  5
1173F
330
7467
100
AcDbSymbolTableRecord
100
AcDbLayerTableRecord
  2
細線
 70
     0
 62
     5
  6
CONTINUOUS
370
    -3
390
159AE
  0
LAYER
  5
12CC4
330
7467
100
AcDbSymbolTableRecord
100
AcDbLayerTableRecord
  2
想像線
 70
     0
 62
     6
  6
PHANTOM
370
    -3
390
159AE
  0
ENDTAB
  0
TABLE
  2
STYLE
  5
7468
330
0
100
AcDbSymbolTable
 70
     3
  0
STYLE
  5
7475
330
7468
100
AcDbSymbolTableRecord
100
AcDbTextStyleTableRecord
  2
STANDARD
 70
     0
 40
0.0
 41
1.0
 50
0.0
 71
     0
 42
4.0
  3
txt
  4
C:\AutoCAD LT\bigfont.shx
  0
STYLE
  5
F706
330
7468
100
AcDbSymbolTableRecord
100
AcDbTextStyleTableRecord
  2
STYLE1
 70
     0
 40
0.0
 41
1.0
 50
0.0
 71
     0
 42
100.0
  3
isocp.shx
  4
bigfont.shx
  0
STYLE
  5
103BF
330
7468
100
AcDbSymbolTableRecord
100
AcDbTextStyleTableRecord
  2
STYLE2
 70
     0
 40
0.0
 41
1.0
 50
0.0
 71
     0
 42
100.0
  3
MS PGothic.ttf
  4

1001
ACAD
1000
MS PGothic
1071
    32818
  0
ENDTAB
  0
TABLE
  2
VIEW
  5
746B
330
0
100
AcDbSymbolTable
 70
     0
  0
ENDTAB
  0
TABLE
  2
UCS
  5
746C
330
0
100
AcDbSymbolTable
 70
     0
  0
ENDTAB
  0
TABLE
  2
APPID
  5
746E
330
0
100
AcDbSymbolTable
 70
     6
  0
APPID
  5
7476
330
746E
100
AcDbSymbolTableRecord
100
AcDbRegAppTableRecord
  2
ACAD
 70
     0
  0
APPID
  5
DEA9
330
746E
100
AcDbSymbolTableRecord
100
AcDbRegAppTableRecord
  2
CONTENTBLOCKICON
 70
     0
  0
APPID
  5
DEAA
330
746E
100
AcDbSymbolTableRecord
100
AcDbRegAppTableRecord
  2
CONTENTBLOCKDESCRIPTION
 70
     0
  0
APPID
  5
E71D
330
746E
100
AcDbSymbolTableRecord
100
AcDbRegAppTableRecord
  2
CONTENTTABDATA
 70
     0
  0
APPID
  5
E71E
330
746E
100
AcDbSymbolTableRecord
100
AcDbRegAppTableRecord
  2
CONTENTCURRENTTAB
 70
     0
  0
APPID
  5
F3BA
330
746E
100
AcDbSymbolTableRecord
100
AcDbRegAppTableRecord
  2
DRAWINGVARIABLESXDATA
 70
     0
  0
ENDTAB
  0
TABLE
  2
DIMSTYLE
  5
746F
330
0
100
AcDbSymbolTable
 70
     1
100
AcDbDimStyleTable
 71
     1
340
F71F
  0
DIMSTYLE
105
F71F
102
{ACAD_REACTORS
330
203C1
330
2033C
330
2024A
330
20248
330
20244
330
20243
330
20241
330
2023F
330
2023B
330
2023A
330
20239
330
20237
330
20236
330
20234
330
20231
330
2022F
330
20228
330
20227
330
20224
330
201D1
330
20119
330
1FD37
330
1FBBF
330
1FBB2
330
1FA1D
330
1F2D0
330
1F2B6
330
1E701
330
1D959
330
1D946
330
1D942
330
1D940
330
1D93F
330
1D93E
330
1D934
330
1D933
330
1D92D
330
1D92C
330
1D929
330
1D927
330
1D926
330
1D925
330
1D920
330
1D91D
330
1D91C
330
1D91B
102
}
330
746F
100
AcDbSymbolTableRecord
100
AcDbDimStyleTableRecord
  2
INABA_S40G
 70
     0
 40
40.0
 41
2.5
 42
0.5
 43
7.0
 44
1.5
 73
     0
 74
     0
 77
     3
 78
     8
140
3.0
141
0.0
143
0.0394
147
1.0
172
     1
173
     1
174
     1
178
     7
271
     1
288
     1
340
F706
341
F770
343
F770
344
F770
  0
ENDTAB
  0
TABLE
  2
BLOCK_RECORD
  5
7466
330
0
100
AcDbSymbolTable
 70
    31
  0
BLOCK_RECORD
  5
747D
330
7466
100
AcDbSymbolTableRecord
100
AcDbBlockTableRecord
  2
*MODEL_SPACE
340
159B3
  0
BLOCK_RECORD
  5
747A
330
7466
100
AcDbSymbolTableRecord
100
AcDbBlockTableRecord
  2
*PAPER_SPACE
340
159B4
  0
BLOCK_RECORD
  5
F770
330
7466
100
AcDbSymbolTableRecord
100
AcDbBlockTableRecord
  2
_DOTSMALL
340
0
102
{BLKREFS
331
2044E
331
2044F
331
2045D
331
2045E
331
20466
331
20467
331
2046F
331
20470
331
20478
331
20479
331
20481
331
20482
331
20489
331
2048A
331
20492
331
20493
331
2049B
331
2049C
331
204A4
331
204A5
331
204AD
331
204AE
331
204B8
331
204B9
331
204C2
331
204C3
331
204CD
331
204CE
331
204D6
331
204D7
331
204E1
331
204E2
331
204EA
331
204EB
331
204F5
331
204F6
331
204FF
331
20500
331
20508
331
20509
331
20511
331
20512
331
2051C
331
2051D
331
20525
331
20526
331
2052D
331
2052E
331
20536
331
20537
331
20541
331
20542
331
2054B
331
2054C
331
2055D
331
2055E
331
2056F
331
20570
102
}
  0
BLOCK_RECORD
  5
1DA44
330
7466
100
AcDbSymbolTableRecord
100
AcDbBlockTableRecord
  2
*D1
340
0
  0
BLOCK_RECORD
  5
1DA51
330
7466
100
AcDbSymbolTableRecord
100
AcDbBlockTableRecord
  2
*D2
340
0
  0
BLOCK_RECORD
  5
1DA5E
330
7466
100
AcDbSymbolTableRecord
100
AcDbBlockTableRecord
  2
*D3
340
0
  0
BLOCK_RECORD
  5
1DA69
330
7466
100
AcDbSymbolTableRecord
100
AcDbBlockTableRecord
  2
*D4
340
0
  0
BLOCK_RECORD
  5
1DA74
330
7466
100
AcDbSymbolTableRecord
100
AcDbBlockTableRecord
  2
*D5
340
0
  0
BLOCK_RECORD
  5
1DA81
330
7466
100
AcDbSymbolTableRecord
100
AcDbBlockTableRecord
  2
*D6
340
0
  0
BLOCK_RECORD
  5
1DA8E
330
7466
100
AcDbSymbolTableRecord
100
AcDbBlockTableRecord
  2
*D7
340
0
  0
BLOCK_RECORD
  5
1DA9A
330
7466
100
AcDbSymbolTableRecord
100
AcDbBlockTableRecord
  2
*D8
340
0
  0
BLOCK_RECORD
  5
1DAA5
330
7466
100
AcDbSymbolTableRecord
100
AcDbBlockTableRecord
  2
*D9
340
0
  0
BLOCK_RECORD
  5
1DAB2
330
7466
100
AcDbSymbolTableRecord
100
AcDbBlockTableRecord
  2
*D10
340
0
  0
BLOCK_RECORD
  5
1DABE
330
7466
100
AcDbSymbolTableRecord
100
AcDbBlockTableRecord
  2
*D11
340
0
  0
BLOCK_RECORD
  5
1DACB
330
7466
100
AcDbSymbolTableRecord
100
AcDbBlockTableRecord
  2
*D12
340
0
  0
BLOCK_RECORD
  5
1DAD9
330
7466
100
AcDbSymbolTableRecord
100
AcDbBlockTableRecord
  2
*D13
340
0
  0
BLOCK_RECORD
  5
1DAE6
330
7466
100
AcDbSymbolTableRecord
100
AcDbBlockTableRecord
  2
*D14
340
0
  0
BLOCK_RECORD
  5
1DAF3
330
7466
100
AcDbSymbolTableRecord
100
AcDbBlockTableRecord
  2
*D15
340
0
  0
BLOCK_RECORD
  5
1DB1A
330
7466
100
AcDbSymbolTableRecord
100
AcDbBlockTableRecord
  2
*D16
340
0
  0
BLOCK_RECORD
  5
1F2B7
330
7466
100
AcDbSymbolTableRecord
100
AcDbBlockTableRecord
  2
*D17
340
0
  0
BLOCK_RECORD
  5
1F2D1
330
7466
100
AcDbSymbolTableRecord
100
AcDbBlockTableRecord
  2
*D18
340
0
  0
BLOCK_RECORD
  5
1FA1E
330
7466
100
AcDbSymbolTableRecord
100
AcDbBlockTableRecord
  2
*D19
340
0
  0
BLOCK_RECORD
  5
1FBB3
330
7466
100
AcDbSymbolTableRecord
100
AcDbBlockTableRecord
  2
*D20
340
0
  0
BLOCK_RECORD
  5
1FBC0
330
7466
100
AcDbSymbolTableRecord
100
AcDbBlockTableRecord
  2
*D21
340
0
  0
BLOCK_RECORD
  5
2025C
330
7466
100
AcDbSymbolTableRecord
100
AcDbBlockTableRecord
  2
*D22
340
0
  0
BLOCK_RECORD
  5
20268
330
7466
100
AcDbSymbolTableRecord
100
AcDbBlockTableRecord
  2
*D23
340
0
  0
BLOCK_RECORD
  5
20274
330
7466
100
AcDbSymbolTableRecord
100
AcDbBlockTableRecord
  2
*D24
340
0
  0
BLOCK_RECORD
  5
20280
330
7466
100
AcDbSymbolTableRecord
100
AcDbBlockTableRecord
  2
*D25
340
0
  0
BLOCK_RECORD
  5
2028C
330
7466
100
AcDbSymbolTableRecord
100
AcDbBlockTableRecord
  2
*D26
340
0
  0
BLOCK_RECORD
  5
2029A
330
7466
100
AcDbSymbolTableRecord
100
AcDbBlockTableRecord
  2
*D27
340
0
  0
BLOCK_RECORD
  5
2033D
330
7466
100
AcDbSymbolTableRecord
100
AcDbBlockTableRecord
  2
*D28
340
0
  0
BLOCK_RECORD
  5
203C2
330
7466
100
AcDbSymbolTableRecord
100
AcDbBlockTableRecord
  2
*D29
340
0
  0
ENDTAB
  0
ENDSEC
  0
SECTION
  2
BLOCKS
  0
BLOCK
  5
7489
330
747D
100
AcDbEntity
  8
0
100
AcDbBlockBegin
  2
*MODEL_SPACE
 70
     0
 10
0.0
 20
0.0
 30
0.0
  3
*MODEL_SPACE
  1

  0
ENDBLK
  5
748A
330
747D
100
AcDbEntity
  8
0
100
AcDbBlockEnd
  0
BLOCK
  5
7487
330
747A
100
AcDbEntity
 67
     1
  8
0
100
AcDbBlockBegin
  2
*PAPER_SPACE
 70
     0
 10
0.0
 20
0.0
 30
0.0
  3
*PAPER_SPACE
  1

  0
ENDBLK
  5
7488
330
747A
100
AcDbEntity
 67
     1
  8
0
100
AcDbBlockEnd
  0
BLOCK
  5
F771
330
F770
100
AcDbEntity
  8
0
 48
50.0
100
AcDbBlockBegin
  2
_DOTSMALL
 70
     0
 10
0.0
 20
0.0
 30
0.0
  3
_DOTSMALL
  1

  0
LWPOLYLINE
  5
F772
330
F770
100
AcDbEntity
  8
0
  6
ByBlock
 62
     0
 48
50.0
100
AcDbPolyline
 90
        2
 70
     1
 43
0.5
 10
-0.0625
 20
0.0
 42
1.0
 10
0.0625
 20
0.0
 42
1.0
  0
ENDBLK
  5
F776
330
F770
100
AcDbEntity
  8
0
 48
50.0
100
AcDbBlockEnd
  0
BLOCK
  5
1DA4F
330
1DA44
100
AcDbEntity
  8
0
 48
50.0
100
AcDbBlockBegin
  2
*D1
 70
     1
 10
0.0
 20
0.0
 30
0.0
  3
*D1
  1

  0
LINE
  5
20546
330
1DA44
100
AcDbEntity
  8
寸法
 62
     0
 48
50.0
370
    -2
100
AcDbLine
 10
7573.599999999998
 20
5658.925205146508
 30
0.0
 11
7830.307249876097
 21
5658.925205146508
 31
0.0
  0
LINE
  5
20547
330
1DA44
100
AcDbEntity
  8
寸法
 62
     0
 48
50.0
370
    -2
100
AcDbLine
 10
7573.599999999998
 20
5788.92520514651
 30
0.0
 11
7830.307249876097
 21
5788.92520514651
 31
0.0
  0
LINE
  5
20548
330
1DA44
100
AcDbEntity
  8
寸法
 62
     0
 48
50.0
370
    -2
100
AcDbLine
 10
7770.307249876097
 20
5658.925205146508
 30
0.0
 11
7770.307249876097
 21
5788.92520514651
 31
0.0
  0
LINE
  5
20549
330
1DA44
100
AcDbEntity
  8
寸法
 62
     0
 48
50.0
370
    -2
100
AcDbLine
 10
7770.307249876097
 20
6161.019693335488
 30
0.0
 11
7770.307249876097
 21
5788.92520514651
 31
0.0
  0
MTEXT
  5
2054A
330
1DA44
100
AcDbEntity
  8
寸法
 62
     7
 48
50.0
100
AcDbMText
 10
7670.307249876096
 20
6024.972449240999
 30
0.0
 40
120.0
 41
0.0
 71
     5
 72
     1
  1
\A1;130
  7
STYLE1
 11
0.0000000000000001
 21
1.0
 31
0.0
 73
     1
 44
1.0
1001
ACAD
1000
MTEXTBEGIN
1070
    73
1070
     1
1070
    44
1040
1.0
1070
    74
1070
     0
1000
MTEXTEND
  0
INSERT
  5
2054B
330
1DA44
100
AcDbEntity
  8
寸法
 62
     0
 48
50.0
370
    -2
100
AcDbBlockReference
  2
_DOTSMALL
 10
7770.307249876097
 20
5658.925205146508
 30
0.0
 41
100.0
 42
100.0
 43
100.0
 50
270.0
  0
INSERT
  5
2054C
330
1DA44
100
AcDbEntity
  8
寸法
 62
     0
 48
50.0
370
    -2
100
AcDbBlockReference
  2
_DOTSMALL
 10
7770.307249876097
 20
5788.92520514651
 30
0.0
 41
100.0
 42
100.0
 43
100.0
 50
90.0
  0
POINT
  5
2054D
330
1DA44
100
AcDbEntity
  8
DEFPOINTS
 62
     0
 48
50.0
100
AcDbPoint
 10
7553.599999999999
 20
5658.925205146508
 30
0.0
  0
POINT
  5
2054E
330
1DA44
100
AcDbEntity
  8
DEFPOINTS
 62
     0
 48
50.0
100
AcDbPoint
 10
7553.599999999999
 20
5788.92520514651
 30
0.0
  0
POINT
  5
2054F
330
1DA44
100
AcDbEntity
  8
DEFPOINTS
 62
     0
 48
50.0
100
AcDbPoint
 10
7770.307249876097
 20
5788.92520514651
 30
0.0
  0
ENDBLK
  5
1DA50
330
1DA44
100
AcDbEntity
  8
0
 48
50.0
100
AcDbBlockEnd
  0
BLOCK
  5
1DA5C
330
1DA51
100
AcDbEntity
  8
0
 48
50.0
100
AcDbBlockBegin
  2
*D2
 70
     1
 10
0.0
 20
0.0
 30
0.0
  3
*D2
  1

  0
LINE
  5
2053C
330
1DA51
100
AcDbEntity
  8
寸法
 62
     0
 48
50.0
370
    -2
100
AcDbLine
 10
7573.599999999998
 20
5658.92520514651
 30
0.0
 11
7830.307249876097
 21
5658.92520514651
 31
0.0
  0
LINE
  5
2053D
330
1DA51
100
AcDbEntity
  8
寸法
 62
     0
 48
50.0
370
    -2
100
AcDbLine
 10
7573.599999999998
 20
5488.925205146508
 30
0.0
 11
7830.307249876097
 21
5488.925205146508
 31
0.0
  0
LINE
  5
2053E
330
1DA51
100
AcDbEntity
  8
寸法
 62
     0
 48
50.0
370
    -2
100
AcDbLine
 10
7770.307249876097
 20
5658.92520514651
 30
0.0
 11
7770.307249876097
 21
5488.925205146508
 31
0.0
  0
LINE
  5
2053F
330
1DA51
100
AcDbEntity
  8
寸法
 62
     0
 48
50.0
370
    -2
100
AcDbLine
 10
7770.307249876097
 20
5116.830716957531
 30
0.0
 11
7770.307249876097
 21
5488.925205146508
 31
0.0
  0
MTEXT
  5
20540
330
1DA51
100
AcDbEntity
  8
寸法
 62
     7
 48
50.0
100
AcDbMText
 10
7670.307249876096
 20
5252.87796105202
 30
0.0
 40
120.0
 41
0.0
 71
     5
 72
     1
  1
\A1;170
  7
STYLE1
 11
0.0000000000000001
 21
1.0
 31
0.0
 73
     1
 44
1.0
1001
ACAD
1000
MTEXTBEGIN
1070
    73
1070
     1
1070
    44
1040
1.0
1070
    74
1070
     0
1000
MTEXTEND
  0
INSERT
  5
20541
330
1DA51
100
AcDbEntity
  8
寸法
 62
     0
 48
50.0
370
    -2
100
AcDbBlockReference
  2
_DOTSMALL
 10
7770.307249876097
 20
5658.92520514651
 30
0.0
 41
100.0
 42
100.0
 43
100.0
 50
90.0
  0
INSERT
  5
20542
330
1DA51
100
AcDbEntity
  8
寸法
 62
     0
 48
50.0
370
    -2
100
AcDbBlockReference
  2
_DOTSMALL
 10
7770.307249876097
 20
5488.925205146508
 30
0.0
 41
100.0
 42
100.0
 43
100.0
 50
270.0
  0
POINT
  5
20543
330
1DA51
100
AcDbEntity
  8
DEFPOINTS
 62
     0
 48
50.0
100
AcDbPoint
 10
7553.599999999999
 20
5658.92520514651
 30
0.0
  0
POINT
  5
20544
330
1DA51
100
AcDbEntity
  8
DEFPOINTS
 62
     0
 48
50.0
100
AcDbPoint
 10
7553.599999999999
 20
5488.925205146508
 30
0.0
  0
POINT
  5
20545
330
1DA51
100
AcDbEntity
  8
DEFPOINTS
 62
     0
 48
50.0
100
AcDbPoint
 10
7770.307249876097
 20
5488.925205146508
 30
0.0
  0
ENDBLK
  5
1DA5D
330
1DA51
100
AcDbEntity
  8
0
 48
50.0
100
AcDbBlockEnd
  0
BLOCK
  5
1DA67
330
1DA5E
100
AcDbEntity
  8
0
 48
50.0
100
AcDbBlockBegin
  2
*D3
 70
     1
 10
0.0
 20
0.0
 30
0.0
  3
*D3
  1

  0
LINE
  5
20533
330
1DA5E
100
AcDbEntity
  8
寸法
 62
     0
 48
50.0
370
    -2
100
AcDbLine
 10
8580.599999999998
 20
7655.925205146506
 30
0.0
 11
8580.599999999998
 21
8573.985815536437
 31
0.0
  0
LINE
  5
20534
330
1DA5E
100
AcDbEntity
  8
寸法
 62
     0
 48
50.0
370
    -2
100
AcDbLine
 10
7446.6
 20
7655.925205146506
 30
0.0
 11
7446.6
 21
8573.985815536437
 31
0.0
  0
LINE
  5
20535
330
1DA5E
100
AcDbEntity
  8
寸法
 62
     0
 48
50.0
370
    -2
100
AcDbLine
 10
8580.599999999998
 20
8513.985815536436
 30
0.0
 11
7446.6
 21
8513.985815536436
 31
0.0
  0
INSERT
  5
20536
330
1DA5E
100
AcDbEntity
  8
寸法
 62
     0
 48
50.0
370
    -2
100
AcDbBlockReference
  2
_DOTSMALL
 10
8580.599999999998
 20
8513.985815536436
 30
0.0
 41
100.0
 42
100.0
 43
100.0
  0
INSERT
  5
20537
330
1DA5E
100
AcDbEntity
  8
寸法
 62
     0
 48
50.0
370
    -2
100
AcDbBlockReference
  2
_DOTSMALL
 10
7446.6
 20
8513.985815536436
 30
0.0
 41
100.0
 42
100.0
 43
100.0
 50
180.0
  0
MTEXT
  5
20538
330
1DA5E
100
AcDbEntity
  8
寸法
 62
     7
 48
50.0
100
AcDbMText
 10
8013.599999999998
 20
8613.985815536436
 30
0.0
 40
120.0
 41
0.0
 71
     5
 72
     1
  1
\A1;1134
  7
STYLE1
 73
     1
 44
1.0
1001
ACAD
1000
MTEXTBEGIN
1070
    73
1070
     1
1070
    44
1040
1.0
1070
    74
1070
     0
1000
MTEXTEND
  0
POINT
  5
20539
330
1DA5E
100
AcDbEntity
  8
DEFPOINTS
 62
     0
 48
50.0
100
AcDbPoint
 10
8580.599999999998
 20
7635.925205146506
 30
0.0
  0
POINT
  5
2053A
330
1DA5E
100
AcDbEntity
  8
DEFPOINTS
 62
     0
 48
50.0
100
AcDbPoint
 10
7446.6
 20
7635.925205146506
 30
0.0
  0
POINT
  5
2053B
330
1DA5E
100
AcDbEntity
  8
DEFPOINTS
 62
     0
 48
50.0
100
AcDbPoint
 10
7446.6
 20
8513.985815536436
 30
0.0
  0
ENDBLK
  5
1DA68
330
1DA5E
100
AcDbEntity
  8
0
 48
50.0
100
AcDbBlockEnd
  0
BLOCK
  5
1DA72
330
1DA69
100
AcDbEntity
  8
0
 48
50.0
100
AcDbBlockBegin
  2
*D4
 70
     1
 10
0.0
 20
0.0
 30
0.0
  3
*D4
  1

  0
LINE
  5
2052A
330
1DA69
100
AcDbEntity
  8
寸法
 62
     0
 48
50.0
370
    -2
100
AcDbLine
 10
7323.599999999998
 20
7728.925205146507
 30
0.0
 11
7323.599999999998
 21
8786.446511053274
 31
0.0
  0
LINE
  5
2052B
330
1DA69
100
AcDbEntity
  8
寸法
 62
     0
 48
50.0
370
    -2
100
AcDbLine
 10
8703.599999999999
 20
7728.925205146507
 30
0.0
 11
8703.599999999999
 21
8786.446511053274
 31
0.0
  0
LINE
  5
2052C
330
1DA69
100
AcDbEntity
  8
寸法
 62
     0
 48
50.0
370
    -2
100
AcDbLine
 10
7323.599999999998
 20
8726.446511053273
 30
0.0
 11
8703.599999999999
 21
8726.446511053273
 31
0.0
  0
INSERT
  5
2052D
330
1DA69
100
AcDbEntity
  8
寸法
 62
     0
 48
50.0
370
    -2
100
AcDbBlockReference
  2
_DOTSMALL
 10
7323.599999999998
 20
8726.446511053273
 30
0.0
 41
100.0
 42
100.0
 43
100.0
 50
180.0
  0
INSERT
  5
2052E
330
1DA69
100
AcDbEntity
  8
寸法
 62
     0
 48
50.0
370
    -2
100
AcDbBlockReference
  2
_DOTSMALL
 10
8703.599999999999
 20
8726.446511053273
 30
0.0
 41
100.0
 42
100.0
 43
100.0
  0
MTEXT
  5
2052F
330
1DA69
100
AcDbEntity
  8
寸法
 62
     7
 48
50.0
100
AcDbMText
 10
8013.599999999998
 20
8826.446511053273
 30
0.0
 40
120.0
 41
0.0
 71
     5
 72
     1
  1
\A1;1380
  7
STYLE1
 73
     1
 44
1.0
1001
ACAD
1000
MTEXTBEGIN
1070
    73
1070
     1
1070
    44
1040
1.0
1070
    74
1070
     0
1000
MTEXTEND
  0
POINT
  5
20530
330
1DA69
100
AcDbEntity
  8
DEFPOINTS
 62
     0
 48
50.0
100
AcDbPoint
 10
7323.599999999998
 20
7708.925205146506
 30
0.0
  0
POINT
  5
20531
330
1DA69
100
AcDbEntity
  8
DEFPOINTS
 62
     0
 48
50.0
100
AcDbPoint
 10
8703.599999999999
 20
7708.925205146506
 30
0.0
  0
POINT
  5
20532
330
1DA69
100
AcDbEntity
  8
DEFPOINTS
 62
     0
 48
50.0
100
AcDbPoint
 10
8703.599999999999
 20
8726.446511053273
 30
0.0
  0
ENDBLK
  5
1DA73
330
1DA69
100
AcDbEntity
  8
0
 48
50.0
100
AcDbBlockEnd
  0
BLOCK
  5
1DA7F
330
1DA74
100
AcDbEntity
  8
0
 48
50.0
100
AcDbBlockBegin
  2
*D5
 70
     1
 10
0.0
 20
0.0
 30
0.0
  3
*D5
  1

  0
LINE
  5
20521
330
1DA74
100
AcDbEntity
  8
寸法
 62
     0
 48
50.0
370
    -2
100
AcDbLine
 10
7446.6
 20
7655.925205146506
 30
0.0
 11
7446.6
 21
8573.985815536437
 31
0.0
  0
LINE
  5
20522
330
1DA74
100
AcDbEntity
  8
寸法
 62
     0
 48
50.0
370
    -2
100
AcDbLine
 10
7323.599999999998
 20
7728.925205146507
 30
0.0
 11
7323.599999999998
 21
8573.985815536437
 31
0.0
  0
LINE
  5
20523
330
1DA74
100
AcDbEntity
  8
寸法
 62
     0
 48
50.0
370
    -2
100
AcDbLine
 10
7446.6
 20
8513.985815536436
 30
0.0
 11
7323.599999999998
 21
8513.985815536436
 31
0.0
  0
MTEXT
  5
20524
330
1DA74
100
AcDbEntity
  8
寸法
 62
     7
 48
50.0
100
AcDbMText
 10
7085.11471862576
 20
8613.997626560058
 30
0.0
 40
120.0
 41
0.0
 71
     5
 72
     1
  1
\A1;123
  7
STYLE1
 73
     1
 44
1.0
1001
ACAD
1000
MTEXTBEGIN
1070
    73
1070
     1
1070
    44
1040
1.0
1070
    74
1070
     0
1000
MTEXTEND
  0
INSERT
  5
20525
330
1DA74
100
AcDbEntity
  8
寸法
 62
     0
 48
50.0
370
    -2
100
AcDbBlockReference
  2
_DOTSMALL
 10
7446.6
 20
8513.985815536436
 30
0.0
 41
100.0
 42
100.0
 43
100.0
  0
INSERT
  5
20526
330
1DA74
100
AcDbEntity
  8
寸法
 62
     0
 48
50.0
370
    -2
100
AcDbBlockReference
  2
_DOTSMALL
 10
7323.599999999998
 20
8513.985815536436
 30
0.0
 41
100.0
 42
100.0
 43
100.0
 50
180.0
  0
POINT
  5
20527
330
1DA74
100
AcDbEntity
  8
DEFPOINTS
 62
     0
 48
50.0
100
AcDbPoint
 10
7446.6
 20
7635.925205146506
 30
0.0
  0
POINT
  5
20528
330
1DA74
100
AcDbEntity
  8
DEFPOINTS
 62
     0
 48
50.0
100
AcDbPoint
 10
7323.599999999998
 20
7708.925205146506
 30
0.0
  0
POINT
  5
20529
330
1DA74
100
AcDbEntity
  8
DEFPOINTS
 62
     0
 48
50.0
100
AcDbPoint
 10
7323.599999999998
 20
8513.985815536436
 30
0.0
  0
ENDBLK
  5
1DA80
330
1DA74
100
AcDbEntity
  8
0
 48
50.0
100
AcDbBlockEnd
  0
BLOCK
  5
1DA8C
330
1DA81
100
AcDbEntity
  8
0
 48
50.0
100
AcDbBlockBegin
  2
*D6
 70
     1
 10
0.0
 20
0.0
 30
0.0
  3
*D6
  1

  0
LINE
  5
20516
330
1DA81
100
AcDbEntity
  8
寸法
 62
     0
 48
50.0
370
    -2
100
AcDbLine
 10
7278.599999999994
 20
8533.985815536437
 30
0.0
 11
7278.599999999994
 21
8786.446511053275
 31
0.0
  0
LINE
  5
20517
330
1DA81
100
AcDbEntity
  8
寸法
 62
     0
 48
50.0
370
    -2
100
AcDbLine
 10
7323.599999999998
 20
7728.925205146507
 30
0.0
 11
7323.599999999998
 21
8786.446511053275
 31
0.0
  0
LINE
  5
20518
330
1DA81
100
AcDbEntity
  8
寸法
 62
     0
 48
50.0
370
    -2
100
AcDbLine
 10
7278.599999999994
 20
8726.446511053275
 30
0.0
 11
7178.599999999994
 21
8726.446511053275
 31
0.0
  0
LINE
  5
20519
330
1DA81
100
AcDbEntity
  8
寸法
 62
     0
 48
50.0
370
    -2
100
AcDbLine
 10
7323.599999999998
 20
8726.446511053275
 30
0.0
 11
7423.599999999999
 21
8726.446511053275
 31
0.0
  0
MTEXT
  5
2051A
330
1DA81
100
AcDbEntity
  8
寸法
 62
     7
 48
50.0
100
AcDbMText
 10
7301.099999999997
 20
8826.446511053275
 30
0.0
 40
120.0
 41
0.0
 71
     5
 72
     1
  1
\A1;a
  7
STYLE1
 73
     1
 44
1.0
1001
ACAD
1000
MTEXTBEGIN
1070
    73
1070
     1
1070
    44
1040
1.0
1070
    74
1070
     0
1000
MTEXTEND
  0
LINE
  5
2051B
330
1DA81
100
AcDbEntity
  8
寸法
 62
     0
 48
50.0
370
    -2
100
AcDbLine
 10
7278.599999999994
 20
8726.446511053275
 30
0.0
 11
7323.599999999998
 21
8726.446511053275
 31
0.0
  0
INSERT
  5
2051C
330
1DA81
100
AcDbEntity
  8
寸法
 62
     0
 48
50.0
370
    -2
100
AcDbBlockReference
  2
_DOTSMALL
 10
7278.599999999994
 20
8726.446511053275
 30
0.0
 41
100.0
 42
100.0
 43
100.0
  0
INSERT
  5
2051D
330
1DA81
100
AcDbEntity
  8
寸法
 62
     0
 48
50.0
370
    -2
100
AcDbBlockReference
  2
_DOTSMALL
 10
7323.599999999998
 20
8726.446511053275
 30
0.0
 41
100.0
 42
100.0
 43
100.0
 50
180.0
  0
POINT
  5
2051E
330
1DA81
100
AcDbEntity
  8
DEFPOINTS
 62
     0
 48
50.0
100
AcDbPoint
 10
7278.599999999994
 20
8513.985815536436
 30
0.0
  0
POINT
  5
2051F
330
1DA81
100
AcDbEntity
  8
DEFPOINTS
 62
     0
 48
50.0
100
AcDbPoint
 10
7323.599999999998
 20
7708.925205146506
 30
0.0
  0
POINT
  5
20520
330
1DA81
100
AcDbEntity
  8
DEFPOINTS
 62
     0
 48
50.0
100
AcDbPoint
 10
7323.599999999998
 20
8726.446511053275
 30
0.0
  0
ENDBLK
  5
1DA8D
330
1DA81
100
AcDbEntity
  8
0
 48
50.0
100
AcDbBlockEnd
  0
BLOCK
  5
1DA98
330
1DA8E
100
AcDbEntity
  8
0
 48
50.0
100
AcDbBlockBegin
  2
*D7
 70
     1
 10
0.0
 20
0.0
 30
0.0
  3
*D7
  1

  0
LINE
  5
2050D
330
1DA8E
100
AcDbEntity
  8
寸法
 62
     0
 48
50.0
370
    -2
100
AcDbLine
 10
7376.599999999999
 20
7585.925205146506
 30
0.0
 11
6767.657733986178
 21
7585.925205146506
 31
0.0
  0
LINE
  5
2050E
330
1DA8E
100
AcDbEntity
  8
寸法
 62
     0
 48
50.0
370
    -2
100
AcDbLine
 10
7376.600000000006
 20
5686.925205146508
 30
0.0
 11
6767.657733986176
 21
5686.925205146508
 31
0.0
  0
LINE
  5
2050F
330
1DA8E
100
AcDbEntity
  8
寸法
 62
     0
 48
50.0
370
    -2
100
AcDbLine
 10
6827.657733986177
 20
7585.925205146506
 30
0.0
 11
6827.657733986177
 21
5686.925205146508
 31
0.0
  0
MTEXT
  5
20510
330
1DA8E
100
AcDbEntity
  8
寸法
 62
     7
 48
50.0
100
AcDbMText
 10
6727.657733986176
 20
6653.491874803221
 30
0.0
 40
120.0
 41
0.0
 71
     5
 72
     1
  1
\A1;1899
  7
STYLE1
 11
0.0000000000000001
 21
1.0
 31
0.0
 73
     1
 44
1.0
1001
ACAD
1000
MTEXTBEGIN
1070
    73
1070
     1
1070
    44
1040
1.0
1070
    74
1070
     0
1000
MTEXTEND
  0
INSERT
  5
20511
330
1DA8E
100
AcDbEntity
  8
寸法
 62
     0
 48
50.0
370
    -2
100
AcDbBlockReference
  2
_DOTSMALL
 10
6827.657733986177
 20
7585.925205146506
 30
0.0
 41
100.0
 42
100.0
 43
100.0
 50
90.0
  0
INSERT
  5
20512
330
1DA8E
100
AcDbEntity
  8
寸法
 62
     0
 48
50.0
370
    -2
100
AcDbBlockReference
  2
_DOTSMALL
 10
6827.657733986177
 20
5686.925205146508
 30
0.0
 41
100.0
 42
100.0
 43
100.0
 50
270.0
  0
POINT
  5
20513
330
1DA8E
100
AcDbEntity
  8
DEFPOINTS
 62
     0
 48
50.0
100
AcDbPoint
 10
7396.599999999999
 20
7585.925205146506
 30
0.0
  0
POINT
  5
20514
330
1DA8E
100
AcDbEntity
  8
DEFPOINTS
 62
     0
 48
50.0
100
AcDbPoint
 10
7396.600000000006
 20
5686.925205146508
 30
0.0
  0
POINT
  5
20515
330
1DA8E
100
AcDbEntity
  8
DEFPOINTS
 62
     0
 48
50.0
100
AcDbPoint
 10
6827.657733986177
 20
5686.925205146508
 30
0.0
  0
ENDBLK
  5
1DA99
330
1DA8E
100
AcDbEntity
  8
0
 48
50.0
100
AcDbBlockEnd
  0
BLOCK
  5
1DAA3
330
1DA9A
100
AcDbEntity
  8
0
 48
50.0
100
AcDbBlockBegin
  2
*D8
 70
     1
 10
0.0
 20
0.0
 30
0.0
  3
*D8
  1

  0
LINE
  5
20504
330
1DA9A
100
AcDbEntity
  8
寸法
 62
     0
 48
50.0
370
    -2
100
AcDbLine
 10
7303.599999999999
 20
7708.925205146506
 30
0.0
 11
6522.164931848212
 21
7708.925205146506
 31
0.0
  0
LINE
  5
20505
330
1DA9A
100
AcDbEntity
  8
寸法
 62
     0
 48
50.0
370
    -2
100
AcDbLine
 10
7303.599999999999
 20
5488.925205146506
 30
0.0
 11
6522.164931848211
 21
5488.925205146506
 31
0.0
  0
LINE
  5
20506
330
1DA9A
100
AcDbEntity
  8
寸法
 62
     0
 48
50.0
370
    -2
100
AcDbLine
 10
6582.164931848211
 20
7708.925205146506
 30
0.0
 11
6582.16493184821
 21
5488.925205146506
 31
0.0
  0
MTEXT
  5
20507
330
1DA9A
100
AcDbEntity
  8
寸法
 62
     7
 48
50.0
100
AcDbMText
 10
6482.153120824588
 20
6653.491874803221
 30
0.0
 40
120.0
 41
0.0
 71
     5
 72
     1
  1
\A1;2220
  7
STYLE1
 11
0.0000000000000001
 21
1.0
 31
0.0
 73
     1
 44
1.0
1001
ACAD
1000
MTEXTBEGIN
1070
    73
1070
     1
1070
    44
1040
1.0
1070
    74
1070
     0
1000
MTEXTEND
  0
INSERT
  5
20508
330
1DA9A
100
AcDbEntity
  8
寸法
 62
     0
 48
50.0
370
    -2
100
AcDbBlockReference
  2
_DOTSMALL
 10
6582.164931848211
 20
7708.925205146506
 30
0.0
 41
100.0
 42
100.0
 43
100.0
 50
90.0
  0
INSERT
  5
20509
330
1DA9A
100
AcDbEntity
  8
寸法
 62
     0
 48
50.0
370
    -2
100
AcDbBlockReference
  2
_DOTSMALL
 10
6582.16493184821
 20
5488.925205146506
 30
0.0
 41
100.0
 42
100.0
 43
100.0
 50
270.0
  0
POINT
  5
2050A
330
1DA9A
100
AcDbEntity
  8
DEFPOINTS
 62
     0
 48
50.0
100
AcDbPoint
 10
7323.599999999998
 20
7708.925205146506
 30
0.0
  0
POINT
  5
2050B
330
1DA9A
100
AcDbEntity
  8
DEFPOINTS
 62
     0
 48
50.0
100
AcDbPoint
 10
7323.599999999998
 20
5488.925205146506
 30
0.0
  0
POINT
  5
2050C
330
1DA9A
100
AcDbEntity
  8
DEFPOINTS
 62
     0
 48
50.0
100
AcDbPoint
 10
6582.16493184821
 20
5488.925205146506
 30
0.0
  0
ENDBLK
  5
1DAA4
330
1DA9A
100
AcDbEntity
  8
0
 48
50.0
100
AcDbBlockEnd
  0
BLOCK
  5
1DAB0
330
1DAA5
100
AcDbEntity
  8
0
 48
50.0
100
AcDbBlockBegin
  2
*D9
 70
     1
 10
0.0
 20
0.0
 30
0.0
  3
*D9
  1

  0
LINE
  5
204FA
330
1DAA5
100
AcDbEntity
  8
寸法
 62
     0
 48
50.0
370
    -2
100
AcDbLine
 10
7376.600000000006
 20
5686.925205146508
 30
0.0
 11
6767.657733986176
 21
5686.925205146508
 31
0.0
  0
LINE
  5
204FB
330
1DAA5
100
AcDbEntity
  8
寸法
 62
     0
 48
50.0
370
    -2
100
AcDbLine
 10
7303.599999999999
 20
5488.925205146506
 30
0.0
 11
6767.657733986176
 21
5488.925205146506
 31
0.0
  0
LINE
  5
204FC
330
1DAA5
100
AcDbEntity
  8
寸法
 62
     0
 48
50.0
370
    -2
100
AcDbLine
 10
6827.657733986177
 20
5686.925205146508
 30
0.0
 11
6827.657733986177
 21
5488.925205146506
 31
0.0
  0
LINE
  5
204FD
330
1DAA5
100
AcDbEntity
  8
寸法
 62
     0
 48
50.0
370
    -2
100
AcDbLine
 10
6827.657733986177
 20
5116.505885487192
 30
0.0
 11
6827.657733986177
 21
5488.925205146506
 31
0.0
  0
MTEXT
  5
204FE
330
1DAA5
100
AcDbEntity
  8
寸法
 62
     7
 48
50.0
100
AcDbMText
 10
6727.657733986176
 20
5252.715545316852
 30
0.0
 40
120.0
 41
0.0
 71
     5
 72
     1
  1
\A1;198
  7
STYLE1
 11
0.0000000000000001
 21
1.0
 31
0.0
 73
     1
 44
1.0
1001
ACAD
1000
MTEXTBEGIN
1070
    73
1070
     1
1070
    44
1040
1.0
1070
    74
1070
     0
1000
MTEXTEND
  0
INSERT
  5
204FF
330
1DAA5
100
AcDbEntity
  8
寸法
 62
     0
 48
50.0
370
    -2
100
AcDbBlockReference
  2
_DOTSMALL
 10
6827.657733986177
 20
5686.925205146508
 30
0.0
 41
100.0
 42
100.0
 43
100.0
 50
90.0
  0
INSERT
  5
20500
330
1DAA5
100
AcDbEntity
  8
寸法
 62
     0
 48
50.0
370
    -2
100
AcDbBlockReference
  2
_DOTSMALL
 10
6827.657733986177
 20
5488.925205146506
 30
0.0
 41
100.0
 42
100.0
 43
100.0
 50
270.0
  0
POINT
  5
20501
330
1DAA5
100
AcDbEntity
  8
DEFPOINTS
 62
     0
 48
50.0
100
AcDbPoint
 10
7396.600000000006
 20
5686.925205146508
 30
0.0
  0
POINT
  5
20502
330
1DAA5
100
AcDbEntity
  8
DEFPOINTS
 62
     0
 48
50.0
100
AcDbPoint
 10
7323.599999999998
 20
5488.925205146506
 30
0.0
  0
POINT
  5
20503
330
1DAA5
100
AcDbEntity
  8
DEFPOINTS
 62
     0
 48
50.0
100
AcDbPoint
 10
6827.657733986177
 20
5488.925205146506
 30
0.0
  0
ENDBLK
  5
1DAB1
330
1DAA5
100
AcDbEntity
  8
0
 48
50.0
100
AcDbBlockEnd
  0
BLOCK
  5
1DABC
330
1DAB2
100
AcDbEntity
  8
0
 48
50.0
100
AcDbBlockBegin
  2
*D10
 70
     1
 10
0.0
 20
0.0
 30
0.0
  3
*D10
  1

  0
LINE
  5
204EF
330
1DAB2
100
AcDbEntity
  8
寸法
 62
     0
 48
50.0
370
    -2
100
AcDbLine
 10
7303.599999999999
 20
5488.925205146506
 30
0.0
 11
6522.164931848211
 21
5488.925205146506
 31
0.0
  0
LINE
  5
204F0
330
1DAB2
100
AcDbEntity
  8
寸法
 62
     0
 48
50.0
370
    -2
100
AcDbLine
 10
6807.657733986177
 20
5433.925205146507
 30
0.0
 11
6522.164931848211
 21
5433.925205146507
 31
0.0
  0
LINE
  5
204F1
330
1DAB2
100
AcDbEntity
  8
寸法
 62
     0
 48
50.0
370
    -2
100
AcDbLine
 10
6582.16493184821
 20
5488.925205146506
 30
0.0
 11
6582.16493184821
 21
5588.925205146506
 31
0.0
  0
LINE
  5
204F2
330
1DAB2
100
AcDbEntity
  8
寸法
 62
     0
 48
50.0
370
    -2
100
AcDbLine
 10
6582.16493184821
 20
5433.925205146507
 30
0.0
 11
6582.16493184821
 21
5333.925205146506
 31
0.0
  0
MTEXT
  5
204F3
330
1DAB2
100
AcDbEntity
  8
寸法
 62
     7
 48
50.0
100
AcDbMText
 10
6482.16493184821
 20
5461.425205146508
 30
0.0
 40
120.0
 41
0.0
 71
     5
 72
     1
  1
\A1;b
  7
STYLE1
 11
0.0000000000000001
 21
1.0
 31
0.0
 73
     1
 44
1.0
1001
ACAD
1000
MTEXTBEGIN
1070
    73
1070
     1
1070
    44
1040
1.0
1070
    74
1070
     0
1000
MTEXTEND
  0
LINE
  5
204F4
330
1DAB2
100
AcDbEntity
  8
寸法
 62
     0
 48
50.0
370
    -2
100
AcDbLine
 10
6582.16493184821
 20
5488.925205146506
 30
0.0
 11
6582.16493184821
 21
5433.925205146507
 31
0.0
  0
INSERT
  5
204F5
330
1DAB2
100
AcDbEntity
  8
寸法
 62
     0
 48
50.0
370
    -2
100
AcDbBlockReference
  2
_DOTSMALL
 10
6582.16493184821
 20
5488.925205146506
 30
0.0
 41
100.0
 42
100.0
 43
100.0
 50
270.0
  0
INSERT
  5
204F6
330
1DAB2
100
AcDbEntity
  8
寸法
 62
     0
 48
50.0
370
    -2
100
AcDbBlockReference
  2
_DOTSMALL
 10
6582.16493184821
 20
5433.925205146507
 30
0.0
 41
100.0
 42
100.0
 43
100.0
 50
90.0
  0
POINT
  5
204F7
330
1DAB2
100
AcDbEntity
  8
DEFPOINTS
 62
     0
 48
50.0
100
AcDbPoint
 10
7323.599999999998
 20
5488.925205146506
 30
0.0
  0
POINT
  5
204F8
330
1DAB2
100
AcDbEntity
  8
DEFPOINTS
 62
     0
 48
50.0
100
AcDbPoint
 10
6827.657733986177
 20
5433.925205146507
 30
0.0
  0
POINT
  5
204F9
330
1DAB2
100
AcDbEntity
  8
DEFPOINTS
 62
     0
 48
50.0
100
AcDbPoint
 10
6582.16493184821
 20
5433.925205146507
 30
0.0
  0
ENDBLK
  5
1DABD
330
1DAB2
100
AcDbEntity
  8
0
 48
50.0
100
AcDbBlockEnd
  0
BLOCK
  5
1DAC9
330
1DABE
100
AcDbEntity
  8
0
 48
50.0
100
AcDbBlockBegin
  2
*D11
 70
     1
 10
0.0
 20
0.0
 30
0.0
  3
*D11
  1

  0
LINE
  5
204E6
330
1DABE
100
AcDbEntity
  8
寸法
 62
     0
 48
50.0
370
    -2
100
AcDbLine
 10
7303.599999999999
 20
7708.925205146506
 30
0.0
 11
6767.657733986176
 21
7708.925205146506
 31
0.0
  0
LINE
  5
204E7
330
1DABE
100
AcDbEntity
  8
寸法
 62
     0
 48
50.0
370
    -2
100
AcDbLine
 10
7376.599999999999
 20
7585.925205146506
 30
0.0
 11
6767.657733986176
 21
7585.925205146506
 31
0.0
  0
LINE
  5
204E8
330
1DABE
100
AcDbEntity
  8
寸法
 62
     0
 48
50.0
370
    -2
100
AcDbLine
 10
6827.657733986177
 20
7708.925205146506
 30
0.0
 11
6827.657733986177
 21
7585.925205146506
 31
0.0
  0
MTEXT
  5
204E9
330
1DABE
100
AcDbEntity
  8
寸法
 62
     7
 48
50.0
100
AcDbMText
 10
6727.645922962555
 20
7947.410486520746
 30
0.0
 40
120.0
 41
0.0
 71
     5
 72
     1
  1
\A1;123
  7
STYLE1
 11
0.0000000000000001
 21
1.0
 31
0.0
 73
     1
 44
1.0
1001
ACAD
1000
MTEXTBEGIN
1070
    73
1070
     1
1070
    44
1040
1.0
1070
    74
1070
     0
1000
MTEXTEND
  0
INSERT
  5
204EA
330
1DABE
100
AcDbEntity
  8
寸法
 62
     0
 48
50.0
370
    -2
100
AcDbBlockReference
  2
_DOTSMALL
 10
6827.657733986177
 20
7708.925205146506
 30
0.0
 41
100.0
 42
100.0
 43
100.0
 50
90.0
  0
INSERT
  5
204EB
330
1DABE
100
AcDbEntity
  8
寸法
 62
     0
 48
50.0
370
    -2
100
AcDbBlockReference
  2
_DOTSMALL
 10
6827.657733986177
 20
7585.925205146506
 30
0.0
 41
100.0
 42
100.0
 43
100.0
 50
270.0
  0
POINT
  5
204EC
330
1DABE
100
AcDbEntity
  8
DEFPOINTS
 62
     0
 48
50.0
100
AcDbPoint
 10
7323.599999999998
 20
7708.925205146506
 30
0.0
  0
POINT
  5
204ED
330
1DABE
100
AcDbEntity
  8
DEFPOINTS
 62
     0
 48
50.0
100
AcDbPoint
 10
7396.599999999999
 20
7585.925205146506
 30
0.0
  0
POINT
  5
204EE
330
1DABE
100
AcDbEntity
  8
DEFPOINTS
 62
     0
 48
50.0
100
AcDbPoint
 10
6827.657733986177
 20
7585.925205146506
 30
0.0
  0
ENDBLK
  5
1DACA
330
1DABE
100
AcDbEntity
  8
0
 48
50.0
100
AcDbBlockEnd
  0
BLOCK
  5
1DAD7
330
1DACB
100
AcDbEntity
  8
0
 48
50.0
100
AcDbBlockBegin
  2
*D12
 70
     1
 10
0.0
 20
0.0
 30
0.0
  3
*D12
  1

  0
LINE
  5
204DB
330
1DACB
100
AcDbEntity
  8
寸法
 62
     0
 48
50.0
370
    -2
100
AcDbLine
 10
6807.657733986179
 20
7783.925205146506
 30
0.0
 11
6522.164931848209
 21
7783.925205146506
 31
0.0
  0
LINE
  5
204DC
330
1DACB
100
AcDbEntity
  8
寸法
 62
     0
 48
50.0
370
    -2
100
AcDbLine
 10
7303.599999999999
 20
7708.925205146506
 30
0.0
 11
6522.164931848209
 21
7708.925205146506
 31
0.0
  0
LINE
  5
204DD
330
1DACB
100
AcDbEntity
  8
寸法
 62
     0
 48
50.0
370
    -2
100
AcDbLine
 10
6582.16493184821
 20
7783.925205146506
 30
0.0
 11
6582.16493184821
 21
7883.925205146507
 31
0.0
  0
LINE
  5
204DE
330
1DACB
100
AcDbEntity
  8
寸法
 62
     0
 48
50.0
370
    -2
100
AcDbLine
 10
6582.16493184821
 20
7708.925205146506
 30
0.0
 11
6582.16493184821
 21
7608.925205146507
 31
0.0
  0
MTEXT
  5
204DF
330
1DACB
100
AcDbEntity
  8
寸法
 62
     7
 48
50.0
100
AcDbMText
 10
6482.164931848209
 20
7746.425205146508
 30
0.0
 40
120.0
 41
0.0
 71
     5
 72
     1
  1
\A1;c
  7
STYLE1
 11
0.0000000000000001
 21
1.0
 31
0.0
 73
     1
 44
1.0
1001
ACAD
1000
MTEXTBEGIN
1070
    73
1070
     1
1070
    44
1040
1.0
1070
    74
1070
     0
1000
MTEXTEND
  0
LINE
  5
204E0
330
1DACB
100
AcDbEntity
  8
寸法
 62
     0
 48
50.0
370
    -2
100
AcDbLine
 10
6582.16493184821
 20
7783.925205146506
 30
0.0
 11
6582.16493184821
 21
7708.925205146506
 31
0.0
  0
INSERT
  5
204E1
330
1DACB
100
AcDbEntity
  8
寸法
 62
     0
 48
50.0
370
    -2
100
AcDbBlockReference
  2
_DOTSMALL
 10
6582.16493184821
 20
7783.925205146506
 30
0.0
 41
100.0
 42
100.0
 43
100.0
 50
270.0
  0
INSERT
  5
204E2
330
1DACB
100
AcDbEntity
  8
寸法
 62
     0
 48
50.0
370
    -2
100
AcDbBlockReference
  2
_DOTSMALL
 10
6582.16493184821
 20
7708.925205146506
 30
0.0
 41
100.0
 42
100.0
 43
100.0
 50
90.0
  0
POINT
  5
204E3
330
1DACB
100
AcDbEntity
  8
DEFPOINTS
 62
     0
 48
50.0
100
AcDbPoint
 10
6827.657733986177
 20
7783.925205146506
 30
0.0
  0
POINT
  5
204E4
330
1DACB
100
AcDbEntity
  8
DEFPOINTS
 62
     0
 48
50.0
100
AcDbPoint
 10
7323.599999999998
 20
7708.925205146506
 30
0.0
  0
POINT
  5
204E5
330
1DACB
100
AcDbEntity
  8
DEFPOINTS
 62
     0
 48
50.0
100
AcDbPoint
 10
6582.16493184821
 20
7708.925205146506
 30
0.0
  0
ENDBLK
  5
1DAD8
330
1DACB
100
AcDbEntity
  8
0
 48
50.0
100
AcDbBlockEnd
  0
BLOCK
  5
1DAE4
330
1DAD9
100
AcDbEntity
  8
0
 48
50.0
100
AcDbBlockBegin
  2
*D13
 70
     1
 10
0.0
 20
0.0
 30
0.0
  3
*D13
  1

  0
LINE
  5
204D2
330
1DAD9
100
AcDbEntity
  8
寸法
 62
     0
 48
50.0
370
    -2
100
AcDbLine
 10
8703.599999999999
 20
7728.925205146507
 30
0.0
 11
8703.599999999999
 21
8573.985815536437
 31
0.0
  0
LINE
  5
204D3
330
1DAD9
100
AcDbEntity
  8
寸法
 62
     0
 48
50.0
370
    -2
100
AcDbLine
 10
8580.599999999998
 20
7655.925205146506
 30
0.0
 11
8580.599999999998
 21
8573.985815536437
 31
0.0
  0
LINE
  5
204D4
330
1DAD9
100
AcDbEntity
  8
寸法
 62
     0
 48
50.0
370
    -2
100
AcDbLine
 10
8703.599999999999
 20
8513.985815536436
 30
0.0
 11
8580.599999999998
 21
8513.985815536436
 31
0.0
  0
MTEXT
  5
204D5
330
1DAD9
100
AcDbEntity
  8
寸法
 62
     7
 48
50.0
100
AcDbMText
 10
8942.085281374238
 20
8613.997626560058
 30
0.0
 40
120.0
 41
0.0
 71
     5
 72
     1
  1
\A1;123
  7
STYLE1
 73
     1
 44
1.0
1001
ACAD
1000
MTEXTBEGIN
1070
    73
1070
     1
1070
    44
1040
1.0
1070
    74
1070
     0
1000
MTEXTEND
  0
INSERT
  5
204D6
330
1DAD9
100
AcDbEntity
  8
寸法
 62
     0
 48
50.0
370
    -2
100
AcDbBlockReference
  2
_DOTSMALL
 10
8703.599999999999
 20
8513.985815536436
 30
0.0
 41
100.0
 42
100.0
 43
100.0
  0
INSERT
  5
204D7
330
1DAD9
100
AcDbEntity
  8
寸法
 62
     0
 48
50.0
370
    -2
100
AcDbBlockReference
  2
_DOTSMALL
 10
8580.599999999998
 20
8513.985815536436
 30
0.0
 41
100.0
 42
100.0
 43
100.0
 50
180.0
  0
POINT
  5
204D8
330
1DAD9
100
AcDbEntity
  8
DEFPOINTS
 62
     0
 48
50.0
100
AcDbPoint
 10
8703.599999999999
 20
7708.925205146506
 30
0.0
  0
POINT
  5
204D9
330
1DAD9
100
AcDbEntity
  8
DEFPOINTS
 62
     0
 48
50.0
100
AcDbPoint
 10
8580.599999999998
 20
7635.925205146506
 30
0.0
  0
POINT
  5
204DA
330
1DAD9
100
AcDbEntity
  8
DEFPOINTS
 62
     0
 48
50.0
100
AcDbPoint
 10
8580.599999999998
 20
8513.985815536436
 30
0.0
  0
ENDBLK
  5
1DAE5
330
1DAD9
100
AcDbEntity
  8
0
 48
50.0
100
AcDbBlockEnd
  0
BLOCK
  5
1DAF1
330
1DAE6
100
AcDbEntity
  8
0
 48
50.0
100
AcDbBlockBegin
  2
*D14
 70
     1
 10
0.0
 20
0.0
 30
0.0
  3
*D14
  1

  0
LINE
  5
204C7
330
1DAE6
100
AcDbEntity
  8
寸法
 62
     0
 48
50.0
370
    -2
100
AcDbLine
 10
8703.599999999999
 20
7728.925205146507
 30
0.0
 11
8703.599999999999
 21
8786.446511053274
 31
0.0
  0
LINE
  5
204C8
330
1DAE6
100
AcDbEntity
  8
寸法
 62
     0
 48
50.0
370
    -2
100
AcDbLine
 10
8748.599999999999
 20
8533.985815536437
 30
0.0
 11
8748.599999999999
 21
8786.446511053274
 31
0.0
  0
LINE
  5
204C9
330
1DAE6
100
AcDbEntity
  8
寸法
 62
     0
 48
50.0
370
    -2
100
AcDbLine
 10
8703.599999999999
 20
8726.446511053273
 30
0.0
 11
8603.599999999998
 21
8726.446511053273
 31
0.0
  0
LINE
  5
204CA
330
1DAE6
100
AcDbEntity
  8
寸法
 62
     0
 48
50.0
370
    -2
100
AcDbLine
 10
8748.599999999999
 20
8726.446511053273
 30
0.0
 11
8848.599999999999
 21
8726.446511053273
 31
0.0
  0
MTEXT
  5
204CB
330
1DAE6
100
AcDbEntity
  8
寸法
 62
     7
 48
50.0
100
AcDbMText
 10
8726.099999999998
 20
8826.446511053273
 30
0.0
 40
120.0
 41
0.0
 71
     5
 72
     1
  1
\A1;a
  7
STYLE1
 73
     1
 44
1.0
1001
ACAD
1000
MTEXTBEGIN
1070
    73
1070
     1
1070
    44
1040
1.0
1070
    74
1070
     0
1000
MTEXTEND
  0
LINE
  5
204CC
330
1DAE6
100
AcDbEntity
  8
寸法
 62
     0
 48
50.0
370
    -2
100
AcDbLine
 10
8703.599999999999
 20
8726.446511053273
 30
0.0
 11
8748.599999999999
 21
8726.446511053273
 31
0.0
  0
INSERT
  5
204CD
330
1DAE6
100
AcDbEntity
  8
寸法
 62
     0
 48
50.0
370
    -2
100
AcDbBlockReference
  2
_DOTSMALL
 10
8703.599999999999
 20
8726.446511053273
 30
0.0
 41
100.0
 42
100.0
 43
100.0
  0
INSERT
  5
204CE
330
1DAE6
100
AcDbEntity
  8
寸法
 62
     0
 48
50.0
370
    -2
100
AcDbBlockReference
  2
_DOTSMALL
 10
8748.599999999999
 20
8726.446511053273
 30
0.0
 41
100.0
 42
100.0
 43
100.0
 50
180.0
  0
POINT
  5
204CF
330
1DAE6
100
AcDbEntity
  8
DEFPOINTS
 62
     0
 48
50.0
100
AcDbPoint
 10
8703.599999999999
 20
7708.925205146506
 30
0.0
  0
POINT
  5
204D0
330
1DAE6
100
AcDbEntity
  8
DEFPOINTS
 62
     0
 48
50.0
100
AcDbPoint
 10
8748.599999999999
 20
8513.985815536436
 30
0.0
  0
POINT
  5
204D1
330
1DAE6
100
AcDbEntity
  8
DEFPOINTS
 62
     0
 48
50.0
100
AcDbPoint
 10
8748.599999999999
 20
8726.446511053273
 30
0.0
  0
ENDBLK
  5
1DAF2
330
1DAE6
100
AcDbEntity
  8
0
 48
50.0
100
AcDbBlockEnd
  0
BLOCK
  5
1DAFE
330
1DAF3
100
AcDbEntity
  8
0
 48
50.0
100
AcDbBlockBegin
  2
*D15
 70
     1
 10
0.0
 20
0.0
 30
0.0
  3
*D15
  1

  0
LINE
  5
204BD
330
1DAF3
100
AcDbEntity
  8
寸法
 62
     0
 48
50.0
370
    -2
100
AcDbLine
 10
8703.599999999999
 20
7458.296343339435
 30
0.0
 11
8703.599999999999
 21
7133.419405505906
 31
0.0
  0
LINE
  5
204BE
330
1DAF3
100
AcDbEntity
  8
寸法
 62
     0
 48
50.0
370
    -2
100
AcDbLine
 10
8583.599999999997
 20
7458.925205146505
 30
0.0
 11
8583.599999999997
 21
7133.419405505906
 31
0.0
  0
LINE
  5
204BF
330
1DAF3
100
AcDbEntity
  8
寸法
 62
     0
 48
50.0
370
    -2
100
AcDbLine
 10
8703.599999999999
 20
7193.419405505905
 30
0.0
 11
8583.599999999997
 21
7193.419405505905
 31
0.0
  0
LINE
  5
204C0
330
1DAF3
100
AcDbEntity
  8
寸法
 62
     0
 48
50.0
370
    -2
100
AcDbLine
 10
9075.694488188977
 20
7193.419405505905
 30
0.0
 11
8703.599999999999
 21
7193.419405505905
 31
0.0
  0
MTEXT
  5
204C1
330
1DAF3
100
AcDbEntity
  8
寸法
 62
     7
 48
50.0
100
AcDbMText
 10
8939.647244094487
 20
7293.431216529526
 30
0.0
 40
120.0
 41
0.0
 71
     5
 72
     1
  1
\A1;120
  7
STYLE1
 73
     1
 44
1.0
1001
ACAD
1000
MTEXTBEGIN
1070
    73
1070
     1
1070
    44
1040
1.0
1070
    74
1070
     0
1000
MTEXTEND
  0
INSERT
  5
204C2
330
1DAF3
100
AcDbEntity
  8
寸法
 62
     0
 48
50.0
370
    -2
100
AcDbBlockReference
  2
_DOTSMALL
 10
8703.599999999999
 20
7193.419405505905
 30
0.0
 41
100.0
 42
100.0
 43
100.0
  0
INSERT
  5
204C3
330
1DAF3
100
AcDbEntity
  8
寸法
 62
     0
 48
50.0
370
    -2
100
AcDbBlockReference
  2
_DOTSMALL
 10
8583.599999999997
 20
7193.419405505905
 30
0.0
 41
100.0
 42
100.0
 43
100.0
 50
180.0
  0
POINT
  5
204C4
330
1DAF3
100
AcDbEntity
  8
DEFPOINTS
 62
     0
 48
50.0
100
AcDbPoint
 10
8703.599999999999
 20
7478.296343339436
 30
0.0
  0
POINT
  5
204C5
330
1DAF3
100
AcDbEntity
  8
DEFPOINTS
 62
     0
 48
50.0
100
AcDbPoint
 10
8583.599999999997
 20
7478.925205146506
 30
0.0
  0
POINT
  5
204C6
330
1DAF3
100
AcDbEntity
  8
DEFPOINTS
 62
     0
 48
50.0
100
AcDbPoint
 10
8583.599999999997
 20
7193.419405505905
 30
0.0
  0
ENDBLK
  5
1DAFF
330
1DAF3
100
AcDbEntity
  8
0
 48
50.0
100
AcDbBlockEnd
  0
BLOCK
  5
1DB25
330
1DB1A
100
AcDbEntity
  8
0
 48
50.0
100
AcDbBlockBegin
  2
*D16
 70
     1
 10
0.0
 20
0.0
 30
0.0
  3
*D16
  1

  0
LINE
  5
204B3
330
1DB1A
100
AcDbEntity
  8
寸法
 62
     0
 48
50.0
370
    -2
100
AcDbLine
 10
8560.599999999999
 20
7708.925205146506
 30
0.0
 11
8327.488445638419
 21
7708.925205146506
 31
0.0
  0
LINE
  5
204B4
330
1DB1A
100
AcDbEntity
  8
寸法
 62
     0
 48
50.0
370
    -2
100
AcDbLine
 10
8453.599999999999
 20
7588.925205146505
 30
0.0
 11
8327.488445638419
 21
7588.925205146505
 31
0.0
  0
LINE
  5
204B5
330
1DB1A
100
AcDbEntity
  8
寸法
 62
     0
 48
50.0
370
    -2
100
AcDbLine
 10
8387.488445638419
 20
7708.925205146506
 30
0.0
 11
8387.488445638419
 21
7588.925205146505
 31
0.0
  0
LINE
  5
204B6
330
1DB1A
100
AcDbEntity
  8
寸法
 62
     0
 48
50.0
370
    -2
100
AcDbLine
 10
8387.488445638419
 20
8081.019693335484
 30
0.0
 11
8387.488445638419
 21
7708.925205146506
 31
0.0
  0
MTEXT
  5
204B7
330
1DB1A
100
AcDbEntity
  8
寸法
 62
     7
 48
50.0
100
AcDbMText
 10
8287.476634614796
 20
7944.972449240997
 30
0.0
 40
120.0
 41
0.0
 71
     5
 72
     1
  1
\A1;120
  7
STYLE1
 11
0.0000000000000001
 21
1.0
 31
0.0
 73
     1
 44
1.0
1001
ACAD
1000
MTEXTBEGIN
1070
    73
1070
     1
1070
    44
1040
1.0
1070
    74
1070
     0
1000
MTEXTEND
  0
INSERT
  5
204B8
330
1DB1A
100
AcDbEntity
  8
寸法
 62
     0
 48
50.0
370
    -2
100
AcDbBlockReference
  2
_DOTSMALL
 10
8387.488445638419
 20
7708.925205146506
 30
0.0
 41
100.0
 42
100.0
 43
100.0
 50
90.0
  0
INSERT
  5
204B9
330
1DB1A
100
AcDbEntity
  8
寸法
 62
     0
 48
50.0
370
    -2
100
AcDbBlockReference
  2
_DOTSMALL
 10
8387.488445638419
 20
7588.925205146505
 30
0.0
 41
100.0
 42
100.0
 43
100.0
 50
270.0
  0
POINT
  5
204BA
330
1DB1A
100
AcDbEntity
  8
DEFPOINTS
 62
     0
 48
50.0
100
AcDbPoint
 10
8580.599999999998
 20
7708.925205146506
 30
0.0
  0
POINT
  5
204BB
330
1DB1A
100
AcDbEntity
  8
DEFPOINTS
 62
     0
 48
50.0
100
AcDbPoint
 10
8473.599999999999
 20
7588.925205146505
 30
0.0
  0
POINT
  5
204BC
330
1DB1A
100
AcDbEntity
  8
DEFPOINTS
 62
     0
 48
50.0
100
AcDbPoint
 10
8387.488445638419
 20
7588.925205146505
 30
0.0
  0
ENDBLK
  5
1DB26
330
1DB1A
100
AcDbEntity
  8
0
 48
50.0
100
AcDbBlockEnd
  0
BLOCK
  5
1F2C1
330
1F2B7
100
AcDbEntity
  8
0
 48
50.0
100
AcDbBlockBegin
  2
*D17
 70
     1
 10
0.0
 20
0.0
 30
0.0
  3
*D17
  1

  0
LINE
  5
204AA
330
1F2B7
100
AcDbEntity
  8
寸法
 62
     0
 48
50.0
370
    -2
100
AcDbLine
 10
8083.599999999998
 20
6968.925205146508
 30
0.0
 11
8261.156431984797
 21
6968.925205146508
 31
0.0
  0
LINE
  5
204AB
330
1F2B7
100
AcDbEntity
  8
寸法
 62
     0
 48
50.0
370
    -2
100
AcDbLine
 10
8133.599999999999
 20
7708.925205146506
 30
0.0
 11
8261.156431984797
 21
7708.925205146506
 31
0.0
  0
LINE
  5
204AC
330
1F2B7
100
AcDbEntity
  8
寸法
 62
     0
 48
50.0
370
    -2
100
AcDbLine
 10
8201.156431984797
 20
6968.925205146508
 30
0.0
 11
8201.156431984797
 21
7708.925205146506
 31
0.0
  0
INSERT
  5
204AD
330
1F2B7
100
AcDbEntity
  8
寸法
 62
     0
 48
50.0
370
    -2
100
AcDbBlockReference
  2
_DOTSMALL
 10
8201.156431984797
 20
6968.925205146508
 30
0.0
 41
100.0
 42
100.0
 43
100.0
 50
270.0
  0
INSERT
  5
204AE
330
1F2B7
100
AcDbEntity
  8
寸法
 62
     0
 48
50.0
370
    -2
100
AcDbBlockReference
  2
_DOTSMALL
 10
8201.156431984797
 20
7708.925205146506
 30
0.0
 41
100.0
 42
100.0
 43
100.0
 50
90.0
  0
MTEXT
  5
204AF
330
1F2B7
100
AcDbEntity
  8
寸法
 62
     7
 48
50.0
100
AcDbMText
 10
8101.156431984795
 20
7338.925205146508
 30
0.0
 40
120.0
 41
0.0
 71
     5
 72
     1
  1
\A1;740
  7
STYLE1
 11
0.0000000000000001
 21
1.0
 31
0.0
 73
     1
 44
1.0
1001
ACAD
1000
MTEXTBEGIN
1070
    73
1070
     1
1070
    44
1040
1.0
1070
    74
1070
     0
1000
MTEXTEND
  0
POINT
  5
204B0
330
1F2B7
100
AcDbEntity
  8
DEFPOINTS
 62
     0
 48
50.0
100
AcDbPoint
 10
8063.599999999999
 20
6968.925205146508
 30
0.0
  0
POINT
  5
204B1
330
1F2B7
100
AcDbEntity
  8
DEFPOINTS
 62
     0
 48
50.0
100
AcDbPoint
 10
8113.599999999998
 20
7708.925205146506
 30
0.0
  0
POINT
  5
204B2
330
1F2B7
100
AcDbEntity
  8
DEFPOINTS
 62
     0
 48
50.0
100
AcDbPoint
 10
8201.156431984797
 20
7708.925205146506
 30
0.0
  0
ENDBLK
  5
1F2C2
330
1F2B7
100
AcDbEntity
  8
0
 48
50.0
100
AcDbBlockEnd
  0
BLOCK
  5
1F2DB
330
1F2D1
100
AcDbEntity
  8
0
 48
50.0
100
AcDbBlockBegin
  2
*D18
 70
     1
 10
0.0
 20
0.0
 30
0.0
  3
*D18
  1

  0
LINE
  5
204A1
330
1F2D1
100
AcDbEntity
  8
寸法
 62
     0
 48
50.0
370
    -2
100
AcDbLine
 10
8083.599999999998
 20
6303.925205146506
 30
0.0
 11
8261.156431984797
 21
6303.925205146506
 31
0.0
  0
LINE
  5
204A2
330
1F2D1
100
AcDbEntity
  8
寸法
 62
     0
 48
50.0
370
    -2
100
AcDbLine
 10
8133.600000000013
 20
5488.925205146515
 30
0.0
 11
8261.156431984797
 21
5488.925205146515
 31
0.0
  0
LINE
  5
204A3
330
1F2D1
100
AcDbEntity
  8
寸法
 62
     0
 48
50.0
370
    -2
100
AcDbLine
 10
8201.156431984797
 20
6303.925205146506
 30
0.0
 11
8201.156431984797
 21
5488.925205146515
 31
0.0
  0
INSERT
  5
204A4
330
1F2D1
100
AcDbEntity
  8
寸法
 62
     0
 48
50.0
370
    -2
100
AcDbBlockReference
  2
_DOTSMALL
 10
8201.156431984797
 20
6303.925205146506
 30
0.0
 41
100.0
 42
100.0
 43
100.0
 50
90.0
  0
INSERT
  5
204A5
330
1F2D1
100
AcDbEntity
  8
寸法
 62
     0
 48
50.0
370
    -2
100
AcDbBlockReference
  2
_DOTSMALL
 10
8201.156431984797
 20
5488.925205146515
 30
0.0
 41
100.0
 42
100.0
 43
100.0
 50
270.0
  0
MTEXT
  5
204A6
330
1F2D1
100
AcDbEntity
  8
寸法
 62
     7
 48
50.0
100
AcDbMText
 10
8101.156431984795
 20
5896.425205146512
 30
0.0
 40
120.0
 41
0.0
 71
     5
 72
     1
  1
\A1;815
  7
STYLE1
 11
0.0000000000000001
 21
1.0
 31
0.0
 73
     1
 44
1.0
1001
ACAD
1000
MTEXTBEGIN
1070
    73
1070
     1
1070
    44
1040
1.0
1070
    74
1070
     0
1000
MTEXTEND
  0
POINT
  5
204A7
330
1F2D1
100
AcDbEntity
  8
DEFPOINTS
 62
     0
 48
50.0
100
AcDbPoint
 10
8063.599999999999
 20
6303.925205146506
 30
0.0
  0
POINT
  5
204A8
330
1F2D1
100
AcDbEntity
  8
DEFPOINTS
 62
     0
 48
50.0
100
AcDbPoint
 10
8113.600000000014
 20
5488.925205146515
 30
0.0
  0
POINT
  5
204A9
330
1F2D1
100
AcDbEntity
  8
DEFPOINTS
 62
     0
 48
50.0
100
AcDbPoint
 10
8201.156431984797
 20
5488.925205146515
 30
0.0
  0
ENDBLK
  5
1F2DC
330
1F2D1
100
AcDbEntity
  8
0
 48
50.0
100
AcDbBlockEnd
  0
BLOCK
  5
1FA28
330
1FA1E
100
AcDbEntity
  8
0
 48
50.0
100
AcDbBlockBegin
  2
*D19
 70
     1
 10
0.0
 20
0.0
 30
0.0
  3
*D19
  1

  0
LINE
  5
20498
330
1FA1E
100
AcDbEntity
  8
寸法
 62
     0
 48
50.0
370
    -2
100
AcDbLine
 10
8083.599999999998
 20
6968.925205146506
 30
0.0
 11
8261.156431984797
 21
6968.925205146506
 31
0.0
  0
LINE
  5
20499
330
1FA1E
100
AcDbEntity
  8
寸法
 62
     0
 48
50.0
370
    -2
100
AcDbLine
 10
8083.599999999998
 20
6303.925205146506
 30
0.0
 11
8261.156431984797
 21
6303.925205146506
 31
0.0
  0
LINE
  5
2049A
330
1FA1E
100
AcDbEntity
  8
寸法
 62
     0
 48
50.0
370
    -2
100
AcDbLine
 10
8201.156431984797
 20
6968.925205146506
 30
0.0
 11
8201.156431984797
 21
6303.925205146506
 31
0.0
  0
INSERT
  5
2049B
330
1FA1E
100
AcDbEntity
  8
寸法
 62
     0
 48
50.0
370
    -2
100
AcDbBlockReference
  2
_DOTSMALL
 10
8201.156431984797
 20
6968.925205146506
 30
0.0
 41
100.0
 42
100.0
 43
100.0
 50
90.0
  0
INSERT
  5
2049C
330
1FA1E
100
AcDbEntity
  8
寸法
 62
     0
 48
50.0
370
    -2
100
AcDbBlockReference
  2
_DOTSMALL
 10
8201.156431984797
 20
6303.925205146506
 30
0.0
 41
100.0
 42
100.0
 43
100.0
 50
270.0
  0
MTEXT
  5
2049D
330
1FA1E
100
AcDbEntity
  8
寸法
 62
     7
 48
50.0
100
AcDbMText
 10
8101.156431984795
 20
6636.425205146507
 30
0.0
 40
120.0
 41
0.0
 71
     5
 72
     1
  1
\A1;665
  7
STYLE1
 11
0.0000000000000001
 21
1.0
 31
0.0
 73
     1
 44
1.0
1001
ACAD
1000
MTEXTBEGIN
1070
    73
1070
     1
1070
    44
1040
1.0
1070
    74
1070
     0
1000
MTEXTEND
  0
POINT
  5
2049E
330
1FA1E
100
AcDbEntity
  8
DEFPOINTS
 62
     0
 48
50.0
100
AcDbPoint
 10
8063.599999999999
 20
6968.925205146506
 30
0.0
  0
POINT
  5
2049F
330
1FA1E
100
AcDbEntity
  8
DEFPOINTS
 62
     0
 48
50.0
100
AcDbPoint
 10
8063.599999999999
 20
6303.925205146506
 30
0.0
  0
POINT
  5
204A0
330
1FA1E
100
AcDbEntity
  8
DEFPOINTS
 62
     0
 48
50.0
100
AcDbPoint
 10
8201.156431984797
 20
6303.925205146506
 30
0.0
  0
ENDBLK
  5
1FA29
330
1FA1E
100
AcDbEntity
  8
0
 48
50.0
100
AcDbBlockEnd
  0
BLOCK
  5
1FBBD
330
1FBB3
100
AcDbEntity
  8
0
 48
50.0
100
AcDbBlockBegin
  2
*D20
 70
     1
 10
0.0
 20
0.0
 30
0.0
  3
*D20
  1

  0
LINE
  5
2048F
330
1FBB3
100
AcDbEntity
  8
寸法
 62
     0
 48
50.0
370
    -2
100
AcDbLine
 10
7323.599999999998
 20
7728.925205146507
 30
0.0
 11
7323.599999999998
 21
8347.214235037187
 31
0.0
  0
LINE
  5
20490
330
1FBB3
100
AcDbEntity
  8
寸法
 62
     0
 48
50.0
370
    -2
100
AcDbLine
 10
8013.599999999998
 20
7038.925205146506
 30
0.0
 11
8013.599999999998
 21
8347.214235037187
 31
0.0
  0
LINE
  5
20491
330
1FBB3
100
AcDbEntity
  8
寸法
 62
     0
 48
50.0
370
    -2
100
AcDbLine
 10
7323.599999999998
 20
8287.214235037188
 30
0.0
 11
8013.599999999998
 21
8287.214235037188
 31
0.0
  0
INSERT
  5
20492
330
1FBB3
100
AcDbEntity
  8
寸法
 62
     0
 48
50.0
370
    -2
100
AcDbBlockReference
  2
_DOTSMALL
 10
7323.599999999998
 20
8287.214235037188
 30
0.0
 41
100.0
 42
100.0
 43
100.0
 50
180.0
  0
INSERT
  5
20493
330
1FBB3
100
AcDbEntity
  8
寸法
 62
     0
 48
50.0
370
    -2
100
AcDbBlockReference
  2
_DOTSMALL
 10
8013.599999999998
 20
8287.214235037188
 30
0.0
 41
100.0
 42
100.0
 43
100.0
  0
MTEXT
  5
20494
330
1FBB3
100
AcDbEntity
  8
寸法
 62
     7
 48
50.0
100
AcDbMText
 10
7668.599999999999
 20
8387.214235037188
 30
0.0
 40
120.0
 41
0.0
 71
     5
 72
     1
  1
\A1;690
  7
STYLE1
 73
     1
 44
1.0
1001
ACAD
1000
MTEXTBEGIN
1070
    73
1070
     1
1070
    44
1040
1.0
1070
    74
1070
     0
1000
MTEXTEND
  0
POINT
  5
20495
330
1FBB3
100
AcDbEntity
  8
DEFPOINTS
 62
     0
 48
50.0
100
AcDbPoint
 10
7323.599999999998
 20
7708.925205146506
 30
0.0
  0
POINT
  5
20496
330
1FBB3
100
AcDbEntity
  8
DEFPOINTS
 62
     0
 48
50.0
100
AcDbPoint
 10
8013.599999999998
 20
7018.925205146506
 30
0.0
  0
POINT
  5
20497
330
1FBB3
100
AcDbEntity
  8
DEFPOINTS
 62
     0
 48
50.0
100
AcDbPoint
 10
8013.599999999998
 20
8287.214235037188
 30
0.0
  0
ENDBLK
  5
1FBBE
330
1FBB3
100
AcDbEntity
  8
0
 48
50.0
100
AcDbBlockEnd
  0
BLOCK
  5
1FBCA
330
1FBC0
100
AcDbEntity
  8
0
 48
50.0
100
AcDbBlockBegin
  2
*D21
 70
     1
 10
0.0
 20
0.0
 30
0.0
  3
*D21
  1

  0
LINE
  5
20486
330
1FBC0
100
AcDbEntity
  8
寸法
 62
     0
 48
50.0
370
    -2
100
AcDbLine
 10
8013.599999999998
 20
7038.925205146506
 30
0.0
 11
8013.599999999998
 21
8347.214235037187
 31
0.0
  0
LINE
  5
20487
330
1FBC0
100
AcDbEntity
  8
寸法
 62
     0
 48
50.0
370
    -2
100
AcDbLine
 10
8703.599999999999
 20
7728.925205146507
 30
0.0
 11
8703.599999999999
 21
8347.214235037187
 31
0.0
  0
LINE
  5
20488
330
1FBC0
100
AcDbEntity
  8
寸法
 62
     0
 48
50.0
370
    -2
100
AcDbLine
 10
8013.599999999998
 20
8287.214235037188
 30
0.0
 11
8703.599999999999
 21
8287.214235037188
 31
0.0
  0
INSERT
  5
20489
330
1FBC0
100
AcDbEntity
  8
寸法
 62
     0
 48
50.0
370
    -2
100
AcDbBlockReference
  2
_DOTSMALL
 10
8013.599999999998
 20
8287.214235037188
 30
0.0
 41
100.0
 42
100.0
 43
100.0
 50
180.0
  0
INSERT
  5
2048A
330
1FBC0
100
AcDbEntity
  8
寸法
 62
     0
 48
50.0
370
    -2
100
AcDbBlockReference
  2
_DOTSMALL
 10
8703.599999999999
 20
8287.214235037188
 30
0.0
 41
100.0
 42
100.0
 43
100.0
  0
MTEXT
  5
2048B
330
1FBC0
100
AcDbEntity
  8
寸法
 62
     7
 48
50.0
100
AcDbMText
 10
8358.599999999999
 20
8387.214235037188
 30
0.0
 40
120.0
 41
0.0
 71
     5
 72
     1
  1
\A1;690
  7
STYLE1
 73
     1
 44
1.0
1001
ACAD
1000
MTEXTBEGIN
1070
    73
1070
     1
1070
    44
1040
1.0
1070
    74
1070
     0
1000
MTEXTEND
  0
POINT
  5
2048C
330
1FBC0
100
AcDbEntity
  8
DEFPOINTS
 62
     0
 48
50.0
100
AcDbPoint
 10
8013.599999999998
 20
7018.925205146506
 30
0.0
  0
POINT
  5
2048D
330
1FBC0
100
AcDbEntity
  8
DEFPOINTS
 62
     0
 48
50.0
100
AcDbPoint
 10
8703.599999999999
 20
7708.925205146506
 30
0.0
  0
POINT
  5
2048E
330
1FBC0
100
AcDbEntity
  8
DEFPOINTS
 62
     0
 48
50.0
100
AcDbPoint
 10
8703.599999999999
 20
8287.214235037188
 30
0.0
  0
ENDBLK
  5
1FBCB
330
1FBC0
100
AcDbEntity
  8
0
 48
50.0
100
AcDbBlockEnd
  0
BLOCK
  5
20266
330
2025C
100
AcDbEntity
  8
0
 48
50.0
100
AcDbBlockBegin
  2
*D22
 70
     1
 10
0.0
 20
0.0
 30
0.0
  3
*D22
  1

  0
LINE
  5
2047D
330
2025C
100
AcDbEntity
  8
寸法
 62
     0
 48
50.0
370
    -2
100
AcDbLine
 10
5450.335963347281
 20
1955.404106614584
 30
0.0
 11
5450.335963347281
 21
2315.404106614584
 31
0.0
  0
LINE
  5
2047E
330
2025C
100
AcDbEntity
  8
寸法
 62
     0
 48
50.0
370
    -2
100
AcDbLine
 10
5258.335963347281
 20
1955.404106614584
 30
0.0
 11
5258.335963347281
 21
2315.404106614584
 31
0.0
  0
LINE
  5
2047F
330
2025C
100
AcDbEntity
  8
寸法
 62
     0
 48
50.0
370
    -2
100
AcDbLine
 10
5450.335963347281
 20
2255.404106614584
 30
0.0
 11
5258.335963347281
 21
2255.404106614584
 31
0.0
  0
MTEXT
  5
20480
330
2025C
100
AcDbEntity
  8
寸法
 62
     7
 48
50.0
100
AcDbMText
 10
5365.562293692479
 20
2555.083725554586
 30
0.0
 40
120.0
 41
0.0
 71
     5
 72
     1
  1
\A1;120\P170
  7
STYLE1
 73
     1
 44
1.0
1001
ACAD
1000
MTEXTBEGIN
1070
    73
1070
     1
1070
    44
1040
1.0
1070
    74
1070
     0
1000
MTEXTEND
  0
INSERT
  5
20481
330
2025C
100
AcDbEntity
  8
寸法
 62
     0
 48
50.0
370
    -2
100
AcDbBlockReference
  2
_DOTSMALL
 10
5450.335963347281
 20
2255.404106614584
 30
0.0
 41
100.0
 42
100.0
 43
100.0
  0
INSERT
  5
20482
330
2025C
100
AcDbEntity
  8
寸法
 62
     0
 48
50.0
370
    -2
100
AcDbBlockReference
  2
_DOTSMALL
 10
5258.335963347281
 20
2255.404106614584
 30
0.0
 41
100.0
 42
100.0
 43
100.0
 50
180.0
  0
POINT
  5
20483
330
2025C
100
AcDbEntity
  8
DEFPOINTS
 62
     0
 48
50.0
100
AcDbPoint
 10
5450.335963347281
 20
1935.404106614583
 30
0.0
  0
POINT
  5
20484
330
2025C
100
AcDbEntity
  8
DEFPOINTS
 62
     0
 48
50.0
100
AcDbPoint
 10
5258.335963347281
 20
1935.404106614583
 30
0.0
  0
POINT
  5
20485
330
2025C
100
AcDbEntity
  8
DEFPOINTS
 62
     0
 48
50.0
100
AcDbPoint
 10
5258.335963347281
 20
2255.404106614584
 30
0.0
  0
ENDBLK
  5
20267
330
2025C
100
AcDbEntity
  8
0
 48
50.0
100
AcDbBlockEnd
  0
BLOCK
  5
20272
330
20268
100
AcDbEntity
  8
0
 48
50.0
100
AcDbBlockBegin
  2
*D23
 70
     1
 10
0.0
 20
0.0
 30
0.0
  3
*D23
  1

  0
LINE
  5
20474
330
20268
100
AcDbEntity
  8
寸法
 62
     0
 48
50.0
370
    -2
100
AcDbLine
 10
5130.335963347282
 20
1003.404106614584
 30
0.0
 11
5130.335963347282
 21
552.9744686094236
 31
0.0
  0
LINE
  5
20475
330
20268
100
AcDbEntity
  8
寸法
 62
     0
 48
50.0
370
    -2
100
AcDbLine
 10
5578.335963347281
 20
1003.404106614584
 30
0.0
 11
5578.335963347281
 21
552.9744686094236
 31
0.0
  0
LINE
  5
20476
330
20268
100
AcDbEntity
  8
寸法
 62
     0
 48
50.0
370
    -2
100
AcDbLine
 10
5130.335963347282
 20
612.9744686094236
 30
0.0
 11
5578.335963347281
 21
612.9744686094236
 31
0.0
  0
MTEXT
  5
20477
330
20268
100
AcDbEntity
  8
寸法
 62
     7
 48
50.0
100
AcDbMText
 10
5334.239204669058
 20
712.9744686094236
 30
0.0
 40
120.0
 41
0.0
 71
     5
 72
     1
  1
\A1;300
  7
STYLE1
 73
     1
 44
1.0
1001
ACAD
1000
MTEXTBEGIN
1070
    73
1070
     1
1070
    44
1040
1.0
1070
    74
1070
     0
1000
MTEXTEND
  0
INSERT
  5
20478
330
20268
100
AcDbEntity
  8
寸法
 62
     0
 48
50.0
370
    -2
100
AcDbBlockReference
  2
_DOTSMALL
 10
5130.335963347282
 20
612.9744686094236
 30
0.0
 41
100.0
 42
100.0
 43
100.0
 50
180.0
  0
INSERT
  5
20479
330
20268
100
AcDbEntity
  8
寸法
 62
     0
 48
50.0
370
    -2
100
AcDbBlockReference
  2
_DOTSMALL
 10
5578.335963347281
 20
612.9744686094236
 30
0.0
 41
100.0
 42
100.0
 43
100.0
  0
POINT
  5
2047A
330
20268
100
AcDbEntity
  8
DEFPOINTS
 62
     0
 48
50.0
100
AcDbPoint
 10
5130.335963347282
 20
1023.404106614584
 30
0.0
  0
POINT
  5
2047B
330
20268
100
AcDbEntity
  8
DEFPOINTS
 62
     0
 48
50.0
100
AcDbPoint
 10
5578.335963347281
 20
1023.404106614584
 30
0.0
  0
POINT
  5
2047C
330
20268
100
AcDbEntity
  8
DEFPOINTS
 62
     0
 48
50.0
100
AcDbPoint
 10
5578.335963347281
 20
612.9744686094236
 30
0.0
  0
ENDBLK
  5
20273
330
20268
100
AcDbEntity
  8
0
 48
50.0
100
AcDbBlockEnd
  0
BLOCK
  5
2027E
330
20274
100
AcDbEntity
  8
0
 48
50.0
100
AcDbBlockBegin
  2
*D24
 70
     1
 10
0.0
 20
0.0
 30
0.0
  3
*D24
  1

  0
LINE
  5
2046B
330
20274
100
AcDbEntity
  8
寸法
 62
     0
 48
50.0
370
    -2
100
AcDbLine
 10
5238.335963347282
 20
1935.404106614583
 30
0.0
 11
4463.298724785541
 21
1935.404106614584
 31
0.0
  0
LINE
  5
2046C
330
20274
100
AcDbEntity
  8
寸法
 62
     0
 48
50.0
370
    -2
100
AcDbLine
 10
5030.335963347286
 20
1151.404106614584
 30
0.0
 11
4463.298724785541
 21
1151.404106614584
 31
0.0
  0
LINE
  5
2046D
330
20274
100
AcDbEntity
  8
寸法
 62
     0
 48
50.0
370
    -2
100
AcDbLine
 10
4523.298724785542
 20
1935.404106614584
 30
0.0
 11
4523.298724785542
 21
1151.404106614584
 31
0.0
  0
MTEXT
  5
2046E
330
20274
100
AcDbEntity
  8
寸法
 62
     7
 48
50.0
100
AcDbMText
 10
4423.298724785541
 20
1522.944256270584
 30
0.0
 40
120.0
 41
0.0
 71
     5
 72
     1
  1
\A1;540
  7
STYLE1
 11
0.0000000000000001
 21
1.0
 31
0.0
 73
     1
 44
1.0
1001
ACAD
1000
MTEXTBEGIN
1070
    73
1070
     1
1070
    44
1040
1.0
1070
    74
1070
     0
1000
MTEXTEND
  0
INSERT
  5
2046F
330
20274
100
AcDbEntity
  8
寸法
 62
     0
 48
50.0
370
    -2
100
AcDbBlockReference
  2
_DOTSMALL
 10
4523.298724785542
 20
1935.404106614584
 30
0.0
 41
100.0
 42
100.0
 43
100.0
 50
90.0
  0
INSERT
  5
20470
330
20274
100
AcDbEntity
  8
寸法
 62
     0
 48
50.0
370
    -2
100
AcDbBlockReference
  2
_DOTSMALL
 10
4523.298724785542
 20
1151.404106614584
 30
0.0
 41
100.0
 42
100.0
 43
100.0
 50
270.0
  0
POINT
  5
20471
330
20274
100
AcDbEntity
  8
DEFPOINTS
 62
     0
 48
50.0
100
AcDbPoint
 10
5258.335963347281
 20
1935.404106614583
 30
0.0
  0
POINT
  5
20472
330
20274
100
AcDbEntity
  8
DEFPOINTS
 62
     0
 48
50.0
100
AcDbPoint
 10
5050.335963347285
 20
1151.404106614584
 30
0.0
  0
POINT
  5
20473
330
20274
100
AcDbEntity
  8
DEFPOINTS
 62
     0
 48
50.0
100
AcDbPoint
 10
4523.298724785542
 20
1151.404106614584
 30
0.0
  0
ENDBLK
  5
2027F
330
20274
100
AcDbEntity
  8
0
 48
50.0
100
AcDbBlockEnd
  0
BLOCK
  5
2028A
330
20280
100
AcDbEntity
  8
0
 48
50.0
100
AcDbBlockBegin
  2
*D25
 70
     1
 10
0.0
 20
0.0
 30
0.0
  3
*D25
  1

  0
LINE
  5
20462
330
20280
100
AcDbEntity
  8
寸法
 62
     0
 48
50.0
370
    -2
100
AcDbLine
 10
5110.335963347282
 20
1391.404106614584
 30
0.0
 11
4927.915649614822
 21
1391.404106614584
 31
0.0
  0
LINE
  5
20463
330
20280
100
AcDbEntity
  8
寸法
 62
     0
 48
50.0
370
    -2
100
AcDbLine
 10
5030.335963347286
 20
1151.404106614584
 30
0.0
 11
4927.915649614822
 21
1151.404106614584
 31
0.0
  0
LINE
  5
20464
330
20280
100
AcDbEntity
  8
寸法
 62
     0
 48
50.0
370
    -2
100
AcDbLine
 10
4987.915649614823
 20
1391.404106614584
 30
0.0
 11
4987.915649614823
 21
1151.404106614584
 31
0.0
  0
MTEXT
  5
20465
330
20280
100
AcDbEntity
  8
寸法
 62
     7
 48
50.0
100
AcDbMText
 10
4887.915649614822
 20
1271.404106614584
 30
0.0
 40
120.0
 41
0.0
 71
     5
 72
     1
  1
\A1;150
  7
STYLE1
 11
0.0000000000000001
 21
1.0
 31
0.0
 73
     1
 44
1.0
1001
ACAD
1000
MTEXTBEGIN
1070
    73
1070
     1
1070
    44
1040
1.0
1070
    74
1070
     0
1000
MTEXTEND
  0
INSERT
  5
20466
330
20280
100
AcDbEntity
  8
寸法
 62
     0
 48
50.0
370
    -2
100
AcDbBlockReference
  2
_DOTSMALL
 10
4987.915649614823
 20
1391.404106614584
 30
0.0
 41
100.0
 42
100.0
 43
100.0
 50
90.0
  0
INSERT
  5
20467
330
20280
100
AcDbEntity
  8
寸法
 62
     0
 48
50.0
370
    -2
100
AcDbBlockReference
  2
_DOTSMALL
 10
4987.915649614823
 20
1151.404106614584
 30
0.0
 41
100.0
 42
100.0
 43
100.0
 50
270.0
  0
POINT
  5
20468
330
20280
100
AcDbEntity
  8
DEFPOINTS
 62
     0
 48
50.0
100
AcDbPoint
 10
5130.335963347282
 20
1391.404106614584
 30
0.0
  0
POINT
  5
20469
330
20280
100
AcDbEntity
  8
DEFPOINTS
 62
     0
 48
50.0
100
AcDbPoint
 10
5050.335963347285
 20
1151.404106614584
 30
0.0
  0
POINT
  5
2046A
330
20280
100
AcDbEntity
  8
DEFPOINTS
 62
     0
 48
50.0
100
AcDbPoint
 10
4987.915649614823
 20
1151.404106614584
 30
0.0
  0
ENDBLK
  5
2028B
330
20280
100
AcDbEntity
  8
0
 48
50.0
100
AcDbBlockEnd
  0
BLOCK
  5
20298
330
2028C
100
AcDbEntity
  8
0
 48
50.0
100
AcDbBlockBegin
  2
*D26
 70
     1
 10
0.0
 20
0.0
 30
0.0
  3
*D26
  1

  0
LINE
  5
20454
330
2028C
100
AcDbEntity
  8
寸法
 62
     0
 48
50.0
370
    -2
100
AcDbLine
 10
7205.175276524477
 20
1988.164106614585
 30
0.0
 11
7934.24387629332
 21
1988.164106614584
 31
0.0
  0
LINE
  5
20455
330
2028C
100
AcDbEntity
  8
寸法
 62
     0
 48
50.0
370
    -2
100
AcDbLine
 10
7392.375276524477
 20
1935.404106614583
 30
0.0
 11
7934.24387629332
 21
1935.404106614583
 31
0.0
  0
LINE
  5
20456
330
2028C
100
AcDbEntity
  8
寸法
 62
     0
 48
50.0
370
    -2
100
AcDbLine
 10
7874.24387629332
 20
1988.164106614584
 30
0.0
 11
7874.24387629332
 21
2088.164106614585
 31
0.0
  0
LINE
  5
20457
330
2028C
100
AcDbEntity
  8
寸法
 62
     0
 48
50.0
370
    -2
100
AcDbLine
 10
7874.24387629332
 20
1935.404106614583
 30
0.0
 11
7874.24387629332
 21
1835.404106614583
 31
0.0
  0
LINE
  5
20458
330
2028C
100
AcDbEntity
  8
寸法
 62
     0
 48
50.0
370
    -2
100
AcDbLine
 10
7874.24387629332
 20
1961.784106614584
 30
0.0
 11
8150.298542412349
 21
1950.280149010371
 31
0.0
  0
LINE
  5
20459
330
2028C
100
AcDbEntity
  8
寸法
 62
     0
 48
50.0
370
    -2
100
AcDbLine
 10
8150.298542412349
 20
1950.280149010371
 30
0.0
 11
8150.298542412349
 21
1418.262342167405
 31
0.0
  0
MTEXT
  5
2045A
330
2028C
100
AcDbEntity
  8
寸法
 62
     7
 48
50.0
100
AcDbMText
 10
8050.286731388725
 20
1684.271245588889
 30
0.0
 40
120.0
 41
0.0
 71
     5
 72
     1
  1
\A1;20～25
  7
STYLE1
 11
0.0000000000000001
 21
1.0
 31
0.0
 73
     1
 44
1.0
1001
ACAD
1000
MTEXTBEGIN
1070
    73
1070
     1
1070
    44
1040
1.0
1070
    74
1070
     0
1000
MTEXTEND
  0
LINE
  5
2045B
330
2028C
100
AcDbEntity
  8
寸法
 62
     0
 48
50.0
370
    -2
100
AcDbLine
 10
7874.24387629332
 20
1988.164106614584
 30
0.0
 11
7874.24387629332
 21
1935.404106614583
 31
0.0
  0
LINE
  5
2045C
330
2028C
100
AcDbEntity
  8
寸法
 62
     0
 48
50.0
370
    -2
100
AcDbLine
 10
7874.24387629332
 20
1988.164106614584
 30
0.0
 11
7874.24387629332
 21
1935.404106614583
 31
0.0
  0
INSERT
  5
2045D
330
2028C
100
AcDbEntity
  8
寸法
 62
     0
 48
50.0
370
    -2
100
AcDbBlockReference
  2
_DOTSMALL
 10
7874.24387629332
 20
1988.164106614584
 30
0.0
 41
100.0
 42
100.0
 43
100.0
 50
270.0
  0
INSERT
  5
2045E
330
2028C
100
AcDbEntity
  8
寸法
 62
     0
 48
50.0
370
    -2
100
AcDbBlockReference
  2
_DOTSMALL
 10
7874.24387629332
 20
1935.404106614583
 30
0.0
 41
100.0
 42
100.0
 43
100.0
 50
90.0
  0
POINT
  5
2045F
330
2028C
100
AcDbEntity
  8
DEFPOINTS
 62
     0
 48
50.0
100
AcDbPoint
 10
7185.175276524477
 20
1988.164106614585
 30
0.0
  0
POINT
  5
20460
330
2028C
100
AcDbEntity
  8
DEFPOINTS
 62
     0
 48
50.0
100
AcDbPoint
 10
7372.375276524476
 20
1935.404106614583
 30
0.0
  0
POINT
  5
20461
330
2028C
100
AcDbEntity
  8
DEFPOINTS
 62
     0
 48
50.0
100
AcDbPoint
 10
7874.24387629332
 20
1935.404106614583
 30
0.0
  0
ENDBLK
  5
20299
330
2028C
100
AcDbEntity
  8
0
 48
50.0
100
AcDbBlockEnd
  0
BLOCK
  5
202A3
330
2029A
100
AcDbEntity
  8
0
 48
50.0
100
AcDbBlockBegin
  2
*D27
 70
     1
 10
0.0
 20
0.0
 30
0.0
  3
*D27
  1

  0
LINE
  5
2044B
330
2029A
100
AcDbEntity
  8
寸法
 62
     0
 48
50.0
370
    -2
100
AcDbLine
 10
7392.375276524477
 20
1935.404106614583
 30
0.0
 11
7934.24387629332
 21
1935.404106614583
 31
0.0
  0
LINE
  5
2044C
330
2029A
100
AcDbEntity
  8
寸法
 62
     0
 48
50.0
370
    -2
100
AcDbLine
 10
7392.375276524477
 20
1611.404106614583
 30
0.0
 11
7934.24387629332
 21
1611.404106614583
 31
0.0
  0
LINE
  5
2044D
330
2029A
100
AcDbEntity
  8
寸法
 62
     0
 48
50.0
370
    -2
100
AcDbLine
 10
7874.24387629332
 20
1935.404106614583
 30
0.0
 11
7874.24387629332
 21
1611.404106614583
 31
0.0
  0
INSERT
  5
2044E
330
2029A
100
AcDbEntity
  8
寸法
 62
     0
 48
50.0
370
    -2
100
AcDbBlockReference
  2
_DOTSMALL
 10
7874.24387629332
 20
1935.404106614583
 30
0.0
 41
100.0
 42
100.0
 43
100.0
 50
90.0
  0
INSERT
  5
2044F
330
2029A
100
AcDbEntity
  8
寸法
 62
     0
 48
50.0
370
    -2
100
AcDbBlockReference
  2
_DOTSMALL
 10
7874.24387629332
 20
1611.404106614583
 30
0.0
 41
100.0
 42
100.0
 43
100.0
 50
270.0
  0
MTEXT
  5
20450
330
2029A
100
AcDbEntity
  8
寸法
 62
     7
 48
50.0
100
AcDbMText
 10
7774.24387629332
 20
1773.404106614584
 30
0.0
 40
120.0
 41
0.0
 71
     5
 72
     1
  1
\A1;180
  7
STYLE1
 11
0.0000000000000001
 21
1.0
 31
0.0
 73
     1
 44
1.0
1001
ACAD
1000
MTEXTBEGIN
1070
    73
1070
     1
1070
    44
1040
1.0
1070
    74
1070
     0
1000
MTEXTEND
  0
POINT
  5
20451
330
2029A
100
AcDbEntity
  8
DEFPOINTS
 62
     0
 48
50.0
100
AcDbPoint
 10
7372.375276524476
 20
1935.404106614583
 30
0.0
  0
POINT
  5
20452
330
2029A
100
AcDbEntity
  8
DEFPOINTS
 62
     0
 48
50.0
100
AcDbPoint
 10
7372.375276524476
 20
1611.404106614583
 30
0.0
  0
POINT
  5
20453
330
2029A
100
AcDbEntity
  8
DEFPOINTS
 62
     0
 48
50.0
100
AcDbPoint
 10
7874.24387629332
 20
1611.404106614583
 30
0.0
  0
ENDBLK
  5
202A4
330
2029A
100
AcDbEntity
  8
0
 48
50.0
100
AcDbBlockEnd
  0
BLOCK
  5
20349
330
2033D
100
AcDbEntity
  8
0
 48
50.0
100
AcDbBlockBegin
  2
*D28
 70
     1
 10
0.0
 20
0.0
 30
0.0
  3
*D28
  1

  0
LINE
  5
2056B
330
2033D
100
AcDbEntity
  8
寸法
 62
     0
 48
50.0
370
    -2
100
AcDbLine
 10
8583.599999999997
 20
7458.925205146505
 30
0.0
 11
8583.599999999997
 21
7133.419405505906
 31
0.0
  0
LINE
  5
2056C
330
2033D
100
AcDbEntity
  8
寸法
 62
     0
 48
50.0
370
    -2
100
AcDbLine
 10
8473.599999999999
 20
7458.925205146505
 30
0.0
 11
8473.599999999999
 21
7133.419405505906
 31
0.0
  0
LINE
  5
2056D
330
2033D
100
AcDbEntity
  8
寸法
 62
     0
 48
50.0
370
    -2
100
AcDbLine
 10
8583.599999999997
 20
7193.419405505905
 30
0.0
 11
8473.599999999999
 21
7193.419405505905
 31
0.0
  0
MTEXT
  5
2056E
330
2033D
100
AcDbEntity
  8
寸法
 62
     7
 48
50.0
100
AcDbMText
 10
8468.653355157629
 20
7079.701396439498
 30
0.0
 40
120.0
 41
0.0
 71
     5
 72
     1
  1
\A1;110
  7
STYLE1
 73
     1
 44
1.0
1001
ACAD
1000
MTEXTBEGIN
1070
    73
1070
     1
1070
    44
1040
1.0
1070
    74
1070
     0
1000
MTEXTEND
  0
INSERT
  5
2056F
330
2033D
100
AcDbEntity
  8
寸法
 62
     0
 48
50.0
370
    -2
100
AcDbBlockReference
  2
_DOTSMALL
 10
8583.599999999997
 20
7193.419405505905
 30
0.0
 41
100.0
 42
100.0
 43
100.0
  0
INSERT
  5
20570
330
2033D
100
AcDbEntity
  8
寸法
 62
     0
 48
50.0
370
    -2
100
AcDbBlockReference
  2
_DOTSMALL
 10
8473.599999999999
 20
7193.419405505905
 30
0.0
 41
100.0
 42
100.0
 43
100.0
 50
180.0
  0
POINT
  5
20571
330
2033D
100
AcDbEntity
  8
DEFPOINTS
 62
     0
 48
50.0
100
AcDbPoint
 10
8583.599999999997
 20
7478.925205146506
 30
0.0
  0
POINT
  5
20572
330
2033D
100
AcDbEntity
  8
DEFPOINTS
 62
     0
 48
50.0
100
AcDbPoint
 10
8473.599999999999
 20
7478.925205146504
 30
0.0
  0
POINT
  5
20573
330
2033D
100
AcDbEntity
  8
DEFPOINTS
 62
     0
 48
50.0
100
AcDbPoint
 10
8473.599999999999
 20
7193.419405505905
 30
0.0
  0
ENDBLK
  5
2034A
330
2033D
100
AcDbEntity
  8
0
 48
50.0
100
AcDbBlockEnd
  0
BLOCK
  5
203CC
330
203C2
100
AcDbEntity
  8
0
 48
50.0
100
AcDbBlockBegin
  2
*D29
 70
     1
 10
0.0
 20
0.0
 30
0.0
  3
*D29
  1

  0
LINE
  5
20559
330
203C2
100
AcDbEntity
  8
寸法
 62
     0
 48
50.0
370
    -2
100
AcDbLine
 10
8453.599999999998
 20
7588.925205146505
 30
0.0
 11
8327.488445638419
 21
7588.925205146505
 31
0.0
  0
LINE
  5
2055A
330
203C2
100
AcDbEntity
  8
寸法
 62
     0
 48
50.0
370
    -2
100
AcDbLine
 10
8453.599999999999
 20
7478.925205146504
 30
0.0
 11
8327.488445638419
 21
7478.925205146504
 31
0.0
  0
LINE
  5
2055B
330
203C2
100
AcDbEntity
  8
寸法
 62
     0
 48
50.0
370
    -2
100
AcDbLine
 10
8387.488445638419
 20
7588.925205146505
 30
0.0
 11
8387.488445638419
 21
7478.925205146504
 31
0.0
  0
MTEXT
  5
2055C
330
203C2
100
AcDbEntity
  8
寸法
 62
     7
 48
50.0
100
AcDbMText
 10
8283.635803680343
 20
7492.169252375228
 30
0.0
 40
120.0
 41
0.0
 71
     5
 72
     1
  1
\A1;110
  7
STYLE1
 11
0.0000000000000001
 21
1.0
 31
0.0
 73
     1
 44
1.0
1001
ACAD
1000
MTEXTBEGIN
1070
    73
1070
     1
1070
    44
1040
1.0
1070
    74
1070
     0
1000
MTEXTEND
  0
INSERT
  5
2055D
330
203C2
100
AcDbEntity
  8
寸法
 62
     0
 48
50.0
370
    -2
100
AcDbBlockReference
  2
_DOTSMALL
 10
8387.488445638419
 20
7588.925205146505
 30
0.0
 41
100.0
 42
100.0
 43
100.0
 50
90.0
  0
INSERT
  5
2055E
330
203C2
100
AcDbEntity
  8
寸法
 62
     0
 48
50.0
370
    -2
100
AcDbBlockReference
  2
_DOTSMALL
 10
8387.488445638419
 20
7478.925205146504
 30
0.0
 41
100.0
 42
100.0
 43
100.0
 50
270.0
  0
POINT
  5
2055F
330
203C2
100
AcDbEntity
  8
DEFPOINTS
 62
     0
 48
50.0
100
AcDbPoint
 10
8473.599999999997
 20
7588.925205146505
 30
0.0
  0
POINT
  5
20560
330
203C2
100
AcDbEntity
  8
DEFPOINTS
 62
     0
 48
50.0
100
AcDbPoint
 10
8473.599999999999
 20
7478.925205146504
 30
0.0
  0
POINT
  5
20561
330
203C2
100
AcDbEntity
  8
DEFPOINTS
 62
     0
 48
50.0
100
AcDbPoint
 10
8387.488445638419
 20
7478.925205146504
 30
0.0
  0
ENDBLK
  5
203CD
330
203C2
100
AcDbEntity
  8
0
 48
50.0
100
AcDbBlockEnd
  0
ENDSEC
  0
SECTION
  2
ENTITIES
  0
LINE
  5
10B57
330
747D
100
AcDbEntity
  8
補助
  6
PHANTOM
 62
   230
 48
50.0
100
AcDbLine
 10
139.9999999999995
 20
11409.6
 30
0.0
 11
16307.2
 21
11409.6
 31
0.0
  0
LINE
  5
10B59
330
747D
100
AcDbEntity
  8
仕様書枠
  6
Continuous
 48
50.0
100
AcDbLine
 10
13107.2
 20
1200.0
 30
0.0
 11
13107.2
 21
-0.0000000000000729
 31
0.0
  0
LINE
  5
10B5C
330
747D
100
AcDbEntity
  8
仕様書枠
 48
50.0
100
AcDbLine
 10
16307.2
 20
1200.0
 30
0.0
 11
16307.2
 21
-0.0000000000000909
 31
0.0
  0
LINE
  5
10B5D
330
747D
100
AcDbEntity
  8
仕様書枠
 48
50.0
100
AcDbLine
 10
140.0
 20
0.0
 30
0.0
 11
16307.2
 21
-0.0000000000000909
 31
0.0
  0
LINE
  5
10B5E
330
747D
100
AcDbEntity
  8
補助
  6
PHANTOM
 62
   230
 48
50.0
100
AcDbLine
 10
16307.2
 20
11409.6
 30
0.0
 11
16307.2
 21
1200.0
 31
0.0
  0
LINE
  5
10B6C
330
747D
100
AcDbEntity
  8
仕様書枠
 48
50.0
100
AcDbLine
 10
13107.2
 20
1200.0
 30
0.0
 11
16307.2
 21
1200.0
 31
0.0
  0
LINE
  5
10B6D
330
747D
100
AcDbEntity
  8
補助
  6
PHANTOM
 62
   230
 48
50.0
100
AcDbLine
 10
13107.2
 20
11409.6
 30
0.0
 11
13107.2
 21
4800.0
 31
0.0
  0
LINE
  5
10B6F
330
747D
100
AcDbEntity
  8
補助
  6
PHANTOM
 62
   230
 48
50.0
100
AcDbLine
 10
13107.2
 20
4800.0
 30
0.0
 11
16307.2
 21
4800.0
 31
0.0
  0
LINE
  5
10B72
330
747D
100
AcDbEntity
  8
文字
 62
     7
 48
50.0
100
AcDbLine
 10
13187.2
 20
400.0
 30
0.0
 11
16227.2
 21
400.0
 31
0.0
  0
TEXT
  5
10B73
330
747D
100
AcDbEntity
  8
文字
 62
     7
 48
50.0
100
AcDbText
 10
13162.9790565769
 20
895.0906074299405
 30
0.0
 40
200.0
  1
基 礎 図
  7
STYLE2
100
AcDbText
  0
TEXT
  5
10B74
330
747D
100
AcDbEntity
  8
文字
 62
     7
 48
50.0
100
AcDbText
 10
13201.43669998441
 20
477.2740661031255
 30
0.0
 40
160.0
  1
機種名
  7
STYLE2
100
AcDbText
  0
LINE
  5
10B7B
330
747D
100
AcDbEntity
  8
仕様書枠
 48
50.0
100
AcDbLine
 10
13107.2
 20
800.0
 30
0.0
 11
14251.2
 21
800.0
 31
0.0
  0
LINE
  5
10B88
330
747D
100
AcDbEntity
  8
仕様書枠
  6
Continuous
 48
50.0
100
AcDbLine
 10
14251.2
 20
1200.0
 30
0.0
 11
14251.2
 21
800.0
 31
0.0
  0
TEXT
  5
14DEF
330
747D
100
AcDbEntity
  8
文字
 62
     7
 48
50.0
100
AcDbText
 10
14641.2525855784
 20
871.1744590657925
 30
0.0
 40
100.0
  1
～一般型・多雪地型～
  7
STYLE2
100
AcDbText
  0
TEXT
  5
15A76
330
747D
100
AcDbEntity
  8
文字
 62
     7
 48
50.0
100
AcDbText
 10
14478.98566430227
 20
499.5983841039501
 30
0.0
 40
160.0
  1
ＮＸＮ－３０CＳ
  7
STYLE2
100
AcDbText
  0
TEXT
  5
1D002
330
747D
100
AcDbEntity
  8
文字
 62
     7
 48
50.0
100
AcDbText
 10
13188.16259899338
 20
246.7109242801889
 30
0.0
 40
80.0
  1
※寒冷地等は地域の実情に合わせた基礎にして下さい。
  7
STYLE2
100
AcDbText
  0
DIMENSION
  5
1D91B
330
747D
100
AcDbEntity
  8
寸法
 48
50.0
100
AcDbDimension
  2
*D1
 10
7770.307249876097
 20
5788.92520514651
 30
0.0
 11
7770.307249876096
 21
6024.972449240999
 31
0.0
 70
   160
 71
     5
 42
130.0000000000018
  3
INABA_S40G
100
AcDbAlignedDimension
 13
7553.599999999999
 23
5658.925205146508
 33
0.0
 14
7553.599999999999
 24
5788.92520514651
 34
0.0
 50
90.0
100
AcDbRotatedDimension
1001
ACAD
1000
DSTYLE
1002
{
1070
   174
1070
     0
1070
   272
1070
     1
1070
   279
1070
     1
1070
   288
1070
     0
1070
   341
1005
0
1002
}
  0
DIMENSION
  5
1D91C
330
747D
100
AcDbEntity
  8
寸法
 48
50.0
100
AcDbDimension
  2
*D2
 10
7770.307249876097
 20
5488.925205146508
 30
0.0
 11
7770.307249876096
 21
5252.87796105202
 31
0.0
 70
   160
 71
     5
 42
170.0000000000018
  3
INABA_S40G
100
AcDbAlignedDimension
 13
7553.599999999999
 23
5658.92520514651
 33
0.0
 14
7553.599999999999
 24
5488.925205146508
 34
0.0
 50
90.0
100
AcDbRotatedDimension
1001
ACAD
1000
DSTYLE
1002
{
1070
   174
1070
     0
1070
   272
1070
     1
1070
   279
1070
     1
1070
   288
1070
     0
1070
   341
1005
0
1002
}
  0
DIMENSION
  5
1D91D
330
747D
100
AcDbEntity
  8
寸法
 48
50.0
100
AcDbDimension
  2
*D3
 10
7446.6
 20
8513.985815536436
 30
0.0
 11
8013.599999999998
 21
8613.985815536436
 31
0.0
 70
    32
 71
     5
 42
1134.0
  3
INABA_S40G
100
AcDbAlignedDimension
 13
8580.599999999998
 23
7635.925205146506
 33
0.0
 14
7446.6
 24
7635.925205146506
 34
0.0
100
AcDbRotatedDimension
1001
ACAD
1000
DSTYLE
1002
{
1070
   174
1070
     0
1070
   272
1070
     1
1070
   279
1070
     1
1070
   288
1070
     0
1070
   341
1005
0
1002
}
  0
LINE
  5
1D91E
330
747D
100
AcDbEntity
  8
部品1
 48
50.0
100
AcDbLine
 10
8473.599999999999
 20
5658.925205146522
 30
0.0
 11
7553.599999999997
 21
5658.92520514651
 31
0.0
  0
LINE
  5
1D91F
330
747D
100
AcDbEntity
  8
部品1
 48
50.0
100
AcDbLine
 10
8473.599999999997
 20
7588.925205146505
 30
0.0
 11
7553.599999999997
 21
7588.925205146508
 31
0.0
  0
DIMENSION
  5
1D920
330
747D
100
AcDbEntity
  8
寸法
 48
50.0
100
AcDbDimension
  2
*D4
 10
8703.599999999999
 20
8726.446511053273
 30
0.0
 11
8013.599999999998
 21
8826.446511053273
 31
0.0
 70
    32
 71
     5
 42
1380.0
  3
INABA_S40G
100
AcDbAlignedDimension
 13
7323.599999999998
 23
7708.925205146506
 33
0.0
 14
8703.599999999999
 24
7708.925205146506
 34
0.0
100
AcDbRotatedDimension
1001
ACAD
1000
DSTYLE
1002
{
1070
   174
1070
     0
1070
   272
1070
     1
1070
   279
1070
     1
1070
   288
1070
     0
1070
   341
1005
0
1002
}
  0
LINE
  5
1D921
330
747D
100
AcDbEntity
  8
部品1
 48
50.0
100
AcDbLine
 10
8703.599999999999
 20
5488.925205146525
 30
0.0
 11
7323.599999999998
 21
5488.925205146506
 31
0.0
  0
LINE
  5
1D922
330
747D
100
AcDbEntity
  8
部品1
 48
50.0
100
AcDbLine
 10
8703.599999999999
 20
7708.925205146506
 30
0.0
 11
7323.599999999998
 21
7708.925205146506
 31
0.0
  0
LINE
  5
1D923
330
747D
100
AcDbEntity
  8
想像線
 48
10.0
100
AcDbLine
 10
8748.599999999999
 20
5433.925205146503
 30
0.0
 11
7278.599999999999
 21
5433.925205146507
 31
0.0
  0
LINE
  5
1D924
330
747D
100
AcDbEntity
  8
想像線
 48
10.0
100
AcDbLine
 10
7278.599999999994
 20
7783.925205146506
 30
0.0
 11
8748.600000000001
 21
7783.925205146509
 31
0.0
  0
DIMENSION
  5
1D925
330
747D
100
AcDbEntity
  8
寸法
 48
50.0
100
AcDbDimension
  2
*D5
 10
7323.599999999998
 20
8513.985815536436
 30
0.0
 11
7085.11471862576
 21
8513.985815536436
 31
0.0
 70
   160
 71
     5
 42
123.0
  3
INABA_S40G
100
AcDbAlignedDimension
 13
7446.6
 23
7635.925205146506
 33
0.0
 14
7323.599999999998
 24
7708.925205146506
 34
0.0
100
AcDbRotatedDimension
1001
ACAD
1000
DSTYLE
1002
{
1070
   174
1070
     0
1070
   272
1070
     1
1070
   279
1070
     1
1070
   288
1070
     0
1070
   341
1005
0
1002
}
  0
DIMENSION
  5
1D926
330
747D
100
AcDbEntity
  8
寸法
 48
50.0
100
AcDbDimension
  2
*D6
 10
7323.599999999998
 20
8726.446511053275
 30
0.0
 11
7301.099999999997
 21
8726.446511053275
 31
0.0
 70
   160
  1
a
 71
     5
 42
45.00000000000364
  3
INABA_S40G
100
AcDbAlignedDimension
 13
7278.599999999994
 23
8513.985815536436
 33
0.0
 14
7323.599999999998
 24
7708.925205146506
 34
0.0
100
AcDbRotatedDimension
1001
ACAD
1000
DSTYLE
1002
{
1070
   174
1070
     0
1070
   272
1070
     1
1070
   279
1070
     1
1070
   288
1070
     0
1070
   341
1005
0
1002
}
  0
DIMENSION
  5
1D927
330
747D
100
AcDbEntity
  8
寸法
 48
50.0
100
AcDbDimension
  2
*D7
 10
6827.657733986177
 20
5686.925205146508
 30
0.0
 11
6827.657733986176
 21
6653.491874803221
 31
0.0
 70
   160
 71
     5
 42
1898.999999999998
  3
INABA_S40G
100
AcDbAlignedDimension
 13
7396.599999999999
 23
7585.925205146506
 33
0.0
 14
7396.600000000006
 24
5686.925205146508
 34
0.0
 50
90.0
100
AcDbRotatedDimension
1001
ACAD
1000
DSTYLE
1002
{
1070
   174
1070
     0
1070
   272
1070
     1
1070
   279
1070
     1
1070
   288
1070
     0
1070
   341
1005
0
1002
}
  0
LINE
  5
1D928
330
747D
100
AcDbEntity
  8
部品1
 48
50.0
100
AcDbLine
 10
7443.599999999999
 20
5788.925205146509
 30
0.0
 11
7443.599999999999
 21
7478.925205146506
 31
0.0
  0
DIMENSION
  5
1D929
330
747D
100
AcDbEntity
  8
寸法
 48
50.0
100
AcDbDimension
  2
*D8
 10
6582.16493184821
 20
5488.925205146506
 30
0.0
 11
6582.16493184821
 21
6653.491874803221
 31
0.0
 70
   160
 71
     5
 42
2220.0
  3
INABA_S40G
100
AcDbAlignedDimension
 13
7323.599999999998
 23
7708.925205146506
 33
0.0
 14
7323.599999999998
 24
5488.925205146506
 34
0.0
 50
90.0
100
AcDbRotatedDimension
1001
ACAD
1000
DSTYLE
1002
{
1070
   174
1070
     0
1070
   272
1070
     1
1070
   279
1070
     1
1070
   288
1070
     0
1070
   341
1005
0
1002
}
  0
LINE
  5
1D92A
330
747D
100
AcDbEntity
  8
部品1
 48
50.0
100
AcDbLine
 10
7323.599999999998
 20
5488.925205146506
 30
0.0
 11
7323.599999999998
 21
7708.925205146506
 31
0.0
  0
LINE
  5
1D92B
330
747D
100
AcDbEntity
  8
想像線
 48
10.0
100
AcDbLine
 10
7278.599999999999
 20
5433.925205146507
 30
0.0
 11
7278.599999999999
 21
7783.925205146509
 31
0.0
  0
DIMENSION
  5
1D92C
330
747D
100
AcDbEntity
  8
寸法
 48
50.0
100
AcDbDimension
  2
*D9
 10
6827.657733986177
 20
5488.925205146506
 30
0.0
 11
6827.657733986176
 21
5252.715545316852
 31
0.0
 70
   160
 71
     5
 42
198.0000000000018
  3
INABA_S40G
100
AcDbAlignedDimension
 13
7396.600000000006
 23
5686.925205146508
 33
0.0
 14
7323.599999999998
 24
5488.925205146506
 34
0.0
 50
90.0
100
AcDbRotatedDimension
1001
ACAD
1000
DSTYLE
1002
{
1070
   174
1070
     0
1070
   272
1070
     1
1070
   279
1070
     1
1070
   288
1070
     0
1070
   341
1005
0
1002
}
  0
DIMENSION
  5
1D92D
330
747D
100
AcDbEntity
  8
寸法
 48
50.0
100
AcDbDimension
  2
*D10
 10
6582.16493184821
 20
5433.925205146507
 30
0.0
 11
6582.16493184821
 21
5461.425205146508
 31
0.0
 70
   160
  1
b
 71
     5
 42
55.0
  3
INABA_S40G
100
AcDbAlignedDimension
 13
7323.599999999998
 23
5488.925205146506
 33
0.0
 14
6827.657733986177
 24
5433.925205146507
 34
0.0
 50
90.0
100
AcDbRotatedDimension
1001
ACAD
1000
DSTYLE
1002
{
1070
   174
1070
     0
1070
   272
1070
     1
1070
   279
1070
     1
1070
   288
1070
     0
1070
   341
1005
0
1002
}
  0
LINE
  5
1D92E
330
747D
100
AcDbEntity
  8
センター
 48
2.0
100
AcDbLine
 10
7446.600000000007
 20
5736.925205146508
 30
0.0
 11
7446.600000000007
 21
5636.925205146508
 31
0.0
  0
LINE
  5
1D92F
330
747D
100
AcDbEntity
  8
センター
 48
2.0
100
AcDbLine
 10
7396.600000000006
 20
5686.925205146508
 30
0.0
 11
7496.600000000007
 21
5686.925205146508
 31
0.0
  0
CIRCLE
  5
1D930
330
747D
100
AcDbEntity
  8
部品1
 48
50.0
100
AcDbCircle
 10
7446.600000000007
 20
5686.925205146508
 30
0.0
 40
35.0
  0
LINE
  5
1D931
330
747D
100
AcDbEntity
  8
部品1
 48
50.0
100
AcDbLine
 10
7553.599999999999
 20
5788.92520514651
 30
0.0
 11
7443.599999999999
 21
5788.925205146509
 31
0.0
  0
LINE
  5
1D932
330
747D
100
AcDbEntity
  8
部品1
 48
50.0
100
AcDbLine
 10
7553.599999999999
 20
5658.925205146509
 30
0.0
 11
7553.599999999999
 21
5788.92520514651
 31
0.0
  0
DIMENSION
  5
1D933
330
747D
100
AcDbEntity
  8
寸法
 48
50.0
100
AcDbDimension
  2
*D11
 10
6827.657733986177
 20
7585.925205146506
 30
0.0
 11
6827.657733986176
 21
7947.410486520746
 31
0.0
 70
   160
 71
     5
 42
123.0
  3
INABA_S40G
100
AcDbAlignedDimension
 13
7323.599999999998
 23
7708.925205146506
 33
0.0
 14
7396.599999999999
 24
7585.925205146506
 34
0.0
 50
90.0
100
AcDbRotatedDimension
1001
ACAD
1000
DSTYLE
1002
{
1070
   174
1070
     0
1070
   272
1070
     1
1070
   279
1070
     1
1070
   288
1070
     0
1070
   341
1005
0
1002
}
  0
DIMENSION
  5
1D934
330
747D
100
AcDbEntity
  8
寸法
 48
50.0
100
AcDbDimension
  2
*D12
 10
6582.16493184821
 20
7708.925205146506
 30
0.0
 11
6582.164931848208
 21
7746.425205146508
 31
0.0
 70
   160
  1
c
 71
     5
 42
75.0
  3
INABA_S40G
100
AcDbAlignedDimension
 13
6827.657733986177
 23
7783.925205146506
 33
0.0
 14
7323.599999999998
 24
7708.925205146506
 34
0.0
 50
90.0
100
AcDbRotatedDimension
1001
ACAD
1000
DSTYLE
1002
{
1070
   174
1070
     0
1070
   272
1070
     1
1070
   279
1070
     1
1070
   288
1070
     0
1070
   341
1005
0
1002
}
  0
LINE
  5
1D935
330
747D
100
AcDbEntity
  8
部品1
 48
50.0
100
AcDbLine
 10
7443.599999999999
 20
6698.925205146506
 30
0.0
 11
7323.599999999998
 21
6698.925205146506
 31
0.0
  0
LINE
  5
1D936
330
747D
100
AcDbEntity
  8
部品1
 48
50.0
100
AcDbLine
 10
7443.6
 20
6498.925205146505
 30
0.0
 11
7323.599999999998
 21
6498.925205146505
 31
0.0
  0
LINE
  5
1D938
330
747D
100
AcDbEntity
  8
センター
 48
2.0
100
AcDbLine
 10
7446.6
 20
7635.925205146506
 30
0.0
 11
7446.6
 21
7535.925205146506
 31
0.0
  0
LINE
  5
1D939
330
747D
100
AcDbEntity
  8
センター
 48
2.0
100
AcDbLine
 10
7396.599999999999
 20
7585.925205146506
 30
0.0
 11
7496.599999999999
 21
7585.925205146506
 31
0.0
  0
CIRCLE
  5
1D93A
330
747D
100
AcDbEntity
  8
部品1
 48
50.0
100
AcDbCircle
 10
7446.6
 20
7585.925205146506
 30
0.0
 40
35.0
  0
LINE
  5
1D93B
330
747D
100
AcDbEntity
  8
部品1
 48
50.0
100
AcDbLine
 10
7553.599999999999
 20
7478.925205146502
 30
0.0
 11
7443.599999999999
 21
7478.925205146506
 31
0.0
  0
LINE
  5
1D93C
330
747D
100
AcDbEntity
  8
部品1
 48
50.0
100
AcDbLine
 10
7553.599999999999
 20
7478.925205146502
 30
0.0
 11
7553.599999999997
 21
7588.925205146508
 31
0.0
  0
DIMENSION
  5
1D93E
330
747D
100
AcDbEntity
  8
寸法
 48
50.0
100
AcDbDimension
  2
*D13
 10
8580.599999999998
 20
8513.985815536436
 30
0.0
 11
8942.085281374238
 21
8513.985815536436
 31
0.0
 70
   160
 71
     5
 42
123.0
  3
INABA_S40G
100
AcDbAlignedDimension
 13
8703.599999999999
 23
7708.925205146506
 33
0.0
 14
8580.599999999998
 24
7635.925205146506
 34
0.0
100
AcDbRotatedDimension
1001
ACAD
1000
DSTYLE
1002
{
1070
   174
1070
     0
1070
   272
1070
     1
1070
   279
1070
     1
1070
   288
1070
     0
1070
   341
1005
0
1002
}
  0
DIMENSION
  5
1D93F
330
747D
100
AcDbEntity
  8
寸法
 48
50.0
100
AcDbDimension
  2
*D14
 10
8748.599999999999
 20
8726.446511053273
 30
0.0
 11
8726.099999999998
 21
8726.446511053273
 31
0.0
 70
   160
  1
a
 71
     5
 42
45.0
  3
INABA_S40G
100
AcDbAlignedDimension
 13
8703.599999999999
 23
7708.925205146506
 33
0.0
 14
8748.599999999999
 24
8513.985815536436
 34
0.0
100
AcDbRotatedDimension
1001
ACAD
1000
DSTYLE
1002
{
1070
   174
1070
     0
1070
   272
1070
     1
1070
   279
1070
     1
1070
   288
1070
     0
1070
   341
1005
0
1002
}
  0
LEADER
  5
1D940
330
747D
100
AcDbEntity
  8
寸法
 48
50.0
100
AcDbLeader
  3
INABA_S40G
 71
     0
 73
     0
 74
     0
 75
     1
 40
120.0
 41
720.0000000000001
 76
     3
 10
8703.599999999999
 20
6522.873983745782
 30
0.0
 10
8953.148163484241
 20
6204.461058226076
 30
0.0
 10
9053.148163484243
 20
6204.461058226076
 30
0.0
340
1D941
1001
ACAD
1000
DSTYLE
1002
{
1070
   174
1070
     0
1070
   272
1070
     1
1070
   279
1070
     1
1070
   288
1070
     0
1070
   341
1005
0
1002
}
  0
MTEXT
  5
1D941
102
{ACAD_REACTORS
330
1D940
102
}
330
747D
100
AcDbEntity
  8
部品1
 62
     7
 48
50.0
100
AcDbMText
 10
9813.148163484243
 20
6304.461058226077
 30
0.0
 40
120.0
 41
0.0
 71
     6
 72
     1
  1
\A1;床下換気口
  7
STYLE1
 73
     1
 44
1.0
1001
ACAD
1000
MTEXTBEGIN
1070
    73
1070
     1
1070
    44
1040
1.0
1070
    74
1070
     0
1000
MTEXTEND
  0
DIMENSION
  5
1D942
330
747D
100
AcDbEntity
  8
寸法
 48
50.0
100
AcDbDimension
  2
*D15
 10
8583.599999999997
 20
7193.419405505905
 30
0.0
 11
8939.647244094487
 21
7193.419405505905
 31
0.0
 70
   160
 71
     5
 42
120.0000000000018
  3
INABA_S40G
100
AcDbAlignedDimension
 13
8703.599999999999
 23
7478.296343339436
 33
0.0
 14
8583.599999999997
 24
7478.925205146506
 34
0.0
100
AcDbRotatedDimension
1001
ACAD
1000
DSTYLE
1002
{
1070
   174
1070
     0
1070
   272
1070
     1
1070
   279
1070
     1
1070
   288
1070
     0
1070
   341
1005
0
1002
}
  0
TEXT
  5
1D943
330
747D
100
AcDbEntity
  8
部品1
 48
50.0
100
AcDbText
 10
8790.4200666784
 20
4794.038408367232
 30
0.0
 40
80.0
  1
(a=45,b=55,c=75)
  7
STYLE1
100
AcDbText
  0
TEXT
  5
1D944
330
747D
100
AcDbEntity
  8
部品1
 48
50.0
100
AcDbText
 10
8720.543179073516
 20
4913.769454520372
 30
0.0
 40
80.0
  1
※a,b,cは屋根の出幅です。
  7
STYLE1
100
AcDbText
  0
MTEXT
  5
1D945
102
{ACAD_REACTORS
330
1D946
102
}
330
747D
100
AcDbEntity
  8
部品1
 62
     7
 48
50.0
100
AcDbMText
 10
9585.725774538317
 20
5137.907813186715
 30
0.0
 40
120.0
 41
0.0
 71
     6
 72
     1
  1
\A1;屋根の外寸
  7
STYLE1
 73
     1
 44
1.0
1001
ACAD
1000
MTEXTBEGIN
1070
    73
1070
     1
1070
    44
1040
1.0
1070
    74
1070
     0
1000
MTEXTEND
  0
LEADER
  5
1D946
330
747D
100
AcDbEntity
  8
寸法
 48
50.0
100
AcDbLeader
  3
INABA_S40G
 71
     0
 73
     0
 74
     0
 75
     1
 40
120.0
 41
672.0
 76
     3
 10
8515.488587933825
 20
5432.925205146506
 30
0.0
 10
8773.725774538318
 20
5037.907813186715
 30
0.0
 10
8873.725774538318
 20
5037.907813186715
 30
0.0
340
1D945
1001
ACAD
1000
DSTYLE
1002
{
1070
   174
1070
     0
1070
   272
1070
     1
1070
   279
1070
     1
1070
   288
1070
     0
1070
   341
1005
0
1002
}
  0
LINE
  5
1D949
330
747D
100
AcDbEntity
  8
部品1
 48
50.0
100
AcDbLine
 10
8583.599999999998
 20
5788.925205146525
 30
0.0
 11
8583.599999999997
 21
7478.925205146506
 31
0.0
  0
LINE
  5
1D94A
330
747D
100
AcDbEntity
  8
部品1
 48
50.0
100
AcDbLine
 10
8703.599999999999
 20
5488.925205146525
 30
0.0
 11
8703.599999999999
 21
7708.925205146506
 31
0.0
  0
LINE
  5
1D94B
330
747D
100
AcDbEntity
  8
想像線
 48
10.0
100
AcDbLine
 10
8748.599999999999
 20
7783.925205146509
 30
0.0
 11
8748.600000000001
 21
5433.925205146507
 31
0.0
  0
TEXT
  5
1D94C
330
747D
100
AcDbEntity
  8
部品1
 48
50.0
100
AcDbText
 10
7894.294671087948
 20
5281.542941867825
 30
0.0
 40
120.0
  1
扉面
  7
STYLE1
 72
     1
 11
8022.294671087948
 21
5265.542941867825
 31
0.0
100
AcDbText
 73
     1
  0
HATCH
  5
1D94E
330
747D
100
AcDbEntity
  8
細線
 48
50.0
100
AcDbHatch
 10
0.0
 20
0.0
 30
0.0
210
0.0
220
0.0
230
1.0
  2
LINE
 70
     0
 71
     0
 91
        1
 92
        7
 72
     0
 73
     1
 93
        4
 10
8113.600000000014
 20
5488.925205146515
 10
8113.600000000014
 20
5658.925205146513
 10
7913.600000000013
 20
5658.925205146512
 10
7913.600000000013
 20
5488.92520514651
 97
        0
 75
     0
 76
     1
 52
45.0
 41
10.0
 77
     0
 78
     1
 53
45.0
 43
4410.48843901349
 44
-5662.616349929781
 45
-22.45064030267288
 46
22.45064030267288
 79
     0
 47
2.903594399684136
 98
        1
 10
8026.710000003099
 20
5527.952260578955
  0
LINE
  5
1D94F
330
747D
100
AcDbEntity
  8
部品1
 48
50.0
100
AcDbLine
 10
7913.600000000013
 20
5488.925205146515
 30
0.0
 11
7913.600000000013
 21
5658.92520514651
 31
0.0
  0
LINE
  5
1D950
330
747D
100
AcDbEntity
  8
部品1
 48
50.0
100
AcDbLine
 10
8113.600000000014
 20
5488.925205146515
 30
0.0
 11
8113.600000000014
 21
5658.925205146513
 31
0.0
  0
LINE
  5
1D951
330
747D
100
AcDbEntity
  8
センター
 48
2.0
100
AcDbLine
 10
8530.600000000005
 20
5686.925205146508
 30
0.0
 11
8630.600000000006
 21
5686.925205146508
 31
0.0
  0
CIRCLE
  5
1D952
330
747D
100
AcDbEntity
  8
部品1
 48
50.0
100
AcDbCircle
 10
8580.600000000005
 20
5686.925205146508
 30
0.0
 40
35.0
  0
LINE
  5
1D953
330
747D
100
AcDbEntity
  8
部品1
 48
50.0
100
AcDbLine
 10
8583.599999999998
 20
5788.925205146525
 30
0.0
 11
8473.599999999999
 21
5788.925205146525
 31
0.0
  0
LINE
  5
1D954
330
747D
100
AcDbEntity
  8
部品1
 48
50.0
100
AcDbLine
 10
8473.599999999999
 20
5658.925205146521
 30
0.0
 11
8473.599999999999
 21
5788.925205146525
 31
0.0
  0
LINE
  5
1D955
330
747D
100
AcDbEntity
  8
センター
 48
2.0
100
AcDbLine
 10
8580.600000000005
 20
5736.925205146508
 30
0.0
 11
8580.600000000005
 21
5636.925205146508
 31
0.0
  0
LINE
  5
1D956
330
747D
100
AcDbEntity
  8
部品1
 48
50.0
100
AcDbLine
 10
8113.599999999999
 20
7588.925205146505
 30
0.0
 11
8113.599999999998
 21
7708.925205146506
 31
0.0
  0
LINE
  5
1D957
330
747D
100
AcDbEntity
  8
部品1
 48
50.0
100
AcDbLine
 10
7913.599999999998
 20
7588.925205146508
 30
0.0
 11
7913.599999999998
 21
7708.925205146506
 31
0.0
  0
DIMENSION
  5
1D959
330
747D
100
AcDbEntity
  8
寸法
 48
50.0
100
AcDbDimension
  2
*D16
 10
8387.488445638419
 20
7588.925205146505
 30
0.0
 11
8387.488445638416
 21
7944.972449240997
 31
0.0
 70
   160
 71
     5
 42
120.0000000000018
  3
INABA_S40G
100
AcDbAlignedDimension
 13
8580.599999999998
 23
7708.925205146506
 33
0.0
 14
8473.599999999999
 24
7588.925205146505
 34
0.0
 50
90.0
100
AcDbRotatedDimension
1001
ACAD
1000
DSTYLE
1002
{
1070
   174
1070
     0
1070
   272
1070
     1
1070
   279
1070
     1
1070
   288
1070
     0
1070
   341
1005
0
1002
}
  0
LINE
  5
1D95A
330
747D
100
AcDbEntity
  8
センター
 48
2.0
100
AcDbLine
 10
8530.599999999997
 20
7585.925205146506
 30
0.0
 11
8630.599999999999
 21
7585.925205146506
 31
0.0
  0
CIRCLE
  5
1D95B
330
747D
100
AcDbEntity
  8
部品1
 48
50.0
100
AcDbCircle
 10
8580.599999999998
 20
7585.925205146506
 30
0.0
 40
35.0
  0
LINE
  5
1D95C
330
747D
100
AcDbEntity
  8
部品1
 48
50.0
100
AcDbLine
 10
8583.599999999997
 20
7478.925205146506
 30
0.0
 11
8473.599999999999
 21
7478.925205146504
 31
0.0
  0
LINE
  5
1D95D
330
747D
100
AcDbEntity
  8
部品1
 48
50.0
100
AcDbLine
 10
8473.599999999999
 20
7478.925205146504
 30
0.0
 11
8473.599999999997
 21
7588.925205146505
 31
0.0
  0
LINE
  5
1D95E
330
747D
100
AcDbEntity
  8
部品1
 48
50.0
100
AcDbLine
 10
8703.599999999999
 20
6698.925205146506
 30
0.0
 11
8583.599999999998
 21
6698.925205146506
 31
0.0
  0
LINE
  5
1D95F
330
747D
100
AcDbEntity
  8
部品1
 48
50.0
100
AcDbLine
 10
8703.599999999999
 20
6498.925205146505
 30
0.0
 11
8583.599999999998
 21
6498.925205146505
 31
0.0
  0
LINE
  5
1D961
330
747D
100
AcDbEntity
  8
センター
 48
2.0
100
AcDbLine
 10
8580.599999999998
 20
7635.925205146506
 30
0.0
 11
8580.599999999998
 21
7535.925205146506
 31
0.0
  0
TEXT
  5
1DEDA
330
747D
100
AcDbEntity
  8
文字
 62
     7
 48
50.0
100
AcDbText
 10
13188.16259899338
 20
79.80631269190325
 30
0.0
 40
80.0
  1
※布基礎には換気口を設けてください。
  7
STYLE2
100
AcDbText
  0
MTEXT
  5
1E700
102
{ACAD_REACTORS
330
1E701
102
}
330
747D
100
AcDbEntity
  8
部品1
 62
     7
 48
50.0
100
AcDbMText
 10
9753.416979436106
 20
7951.950648954458
 30
0.0
 40
120.0
 41
0.0
 71
     6
 72
     1
  1
基礎ボルト芯
  7
STYLE1
 73
     1
 44
1.0
1001
ACAD
1000
MTEXTBEGIN
1070
    73
1070
     1
1070
    44
1040
1.0
1070
    74
1070
     0
1000
MTEXTEND
  0
LEADER
  5
1E701
330
747D
100
AcDbEntity
  8
寸法
 48
50.0
100
AcDbLeader
  3
INABA_S40G
 71
     0
 73
     0
 74
     0
 75
     1
 40
120.0
 41
846.0000000000002
 76
     3
 10
8580.599999999998
 20
7585.925205146506
 30
0.0
 10
8767.416979436106
 20
7851.950648954458
 30
0.0
 10
8867.416979436105
 20
7851.950648954458
 30
0.0
340
1E700
1001
ACAD
1000
DSTYLE
1002
{
1070
   174
1070
     0
1070
   272
1070
     1
1070
   279
1070
     1
1070
   288
1070
     0
1070
   341
1005
0
1002
}
  0
LINE
  5
1F232
330
747D
100
AcDbEntity
  8
部品1
 48
50.0
100
AcDbLine
 10
8113.599999999998
 20
6868.925205146505
 30
0.0
 11
8113.599999999998
 21
7068.925205146506
 31
0.0
  0
LINE
  5
1F233
330
747D
100
AcDbEntity
  8
センター
 48
2.0
100
AcDbLine
 10
7963.599999999998
 20
6968.925205146506
 30
0.0
 11
8063.599999999999
 21
6968.925205146506
 31
0.0
  0
LINE
  5
1F234
330
747D
100
AcDbEntity
  8
センター
 48
2.0
100
AcDbLine
 10
8013.599999999998
 20
7018.925205146506
 30
0.0
 11
8013.599999999998
 21
6918.925205146506
 31
0.0
  0
LINE
  5
1F235
330
747D
100
AcDbEntity
  8
部品1
 48
50.0
100
AcDbLine
 10
7913.599999999998
 20
6868.925205146506
 30
0.0
 11
7913.599999999998
 21
7068.925205146506
 31
0.0
  0
LINE
  5
1F236
330
747D
100
AcDbEntity
  8
部品1
 48
50.0
100
AcDbLine
 10
8113.599999999998
 20
7068.925205146506
 30
0.0
 11
7913.599999999998
 21
7068.925205146506
 31
0.0
  0
LINE
  5
1F237
330
747D
100
AcDbEntity
  8
部品1
 48
50.0
100
AcDbLine
 10
8113.599999999998
 20
6868.925205146505
 30
0.0
 11
7913.599999999998
 21
6868.925205146505
 31
0.0
  0
DIMENSION
  5
1F2B6
330
747D
100
AcDbEntity
  8
寸法
 48
50.0
100
AcDbDimension
  2
*D17
 10
8201.156431984797
 20
7708.925205146506
 30
0.0
 11
8101.156431984795
 21
7338.925205146508
 31
0.0
 70
    32
 71
     5
 42
739.9999999999991
  3
INABA_S40G
100
AcDbAlignedDimension
 13
8063.599999999999
 23
6968.925205146508
 33
0.0
 14
8113.599999999998
 24
7708.925205146506
 34
0.0
 50
90.0
100
AcDbRotatedDimension
1001
ACAD
1000
DSTYLE
1002
{
1070
   174
1070
     0
1070
   272
1070
     1
1070
   279
1070
     1
1070
   288
1070
     0
1070
   341
1005
0
1002
}
  0
DIMENSION
  5
1F2D0
330
747D
100
AcDbEntity
  8
寸法
 48
50.0
100
AcDbDimension
  2
*D18
 10
8201.156431984797
 20
5488.925205146515
 30
0.0
 11
8101.156431984795
 21
5896.425205146512
 31
0.0
 70
    32
 71
     5
 42
814.9999999999909
  3
INABA_S40G
100
AcDbAlignedDimension
 13
8063.599999999999
 23
6303.925205146506
 33
0.0
 14
8113.600000000014
 24
5488.925205146515
 34
0.0
 50
90.0
100
AcDbRotatedDimension
1001
ACAD
1000
DSTYLE
1002
{
1070
   174
1070
     0
1070
   272
1070
     1
1070
   279
1070
     1
1070
   288
1070
     0
1070
   341
1005
0
1002
}
  0
LINE
  5
1F9FC
330
747D
100
AcDbEntity
  8
部品1
 48
50.0
100
AcDbLine
 10
8113.599999999998
 20
6203.925205146505
 30
0.0
 11
7913.599999999998
 21
6203.925205146505
 31
0.0
  0
LINE
  5
1F9FD
330
747D
100
AcDbEntity
  8
部品1
 48
50.0
100
AcDbLine
 10
8113.599999999998
 20
6403.925205146506
 30
0.0
 11
7913.599999999998
 21
6403.925205146506
 31
0.0
  0
LINE
  5
1F9FE
330
747D
100
AcDbEntity
  8
部品1
 48
50.0
100
AcDbLine
 10
7913.599999999998
 20
6203.925205146506
 30
0.0
 11
7913.599999999998
 21
6403.925205146506
 31
0.0
  0
LINE
  5
1F9FF
330
747D
100
AcDbEntity
  8
センター
 48
2.0
100
AcDbLine
 10
8013.599999999998
 20
6353.925205146506
 30
0.0
 11
8013.599999999998
 21
6253.925205146506
 31
0.0
  0
LINE
  5
1FA00
330
747D
100
AcDbEntity
  8
センター
 48
2.0
100
AcDbLine
 10
7963.599999999998
 20
6303.925205146506
 30
0.0
 11
8063.599999999999
 21
6303.925205146506
 31
0.0
  0
LINE
  5
1FA01
330
747D
100
AcDbEntity
  8
部品1
 48
50.0
100
AcDbLine
 10
8113.599999999998
 20
6203.925205146505
 30
0.0
 11
8113.599999999998
 21
6403.925205146506
 31
0.0
  0
DIMENSION
  5
1FA1D
330
747D
100
AcDbEntity
  8
寸法
 48
50.0
100
AcDbDimension
  2
*D19
 10
8201.156431984797
 20
6303.925205146506
 30
0.0
 11
8101.156431984795
 21
6636.425205146507
 31
0.0
 70
    32
 71
     5
 42
665.0
  3
INABA_S40G
100
AcDbAlignedDimension
 13
8063.599999999999
 23
6968.925205146506
 33
0.0
 14
8063.599999999999
 24
6303.925205146506
 34
0.0
 50
90.0
100
AcDbRotatedDimension
1001
ACAD
1000
DSTYLE
1002
{
1070
   174
1070
     0
1070
   272
1070
     1
1070
   279
1070
     1
1070
   288
1070
     0
1070
   341
1005
0
1002
}
  0
DIMENSION
  5
1FBB2
330
747D
100
AcDbEntity
  8
寸法
 48
50.0
100
AcDbDimension
  2
*D20
 10
8013.599999999998
 20
8287.214235037188
 30
0.0
 11
7668.599999999999
 21
8387.214235037188
 31
0.0
 70
    32
 71
     5
 42
690.0
  3
INABA_S40G
100
AcDbAlignedDimension
 13
7323.599999999998
 23
7708.925205146506
 33
0.0
 14
8013.599999999998
 24
7018.925205146506
 34
0.0
100
AcDbRotatedDimension
1001
ACAD
1000
DSTYLE
1002
{
1070
   174
1070
     0
1070
   272
1070
     1
1070
   279
1070
     1
1070
   288
1070
     0
1070
   341
1005
0
1002
}
  0
DIMENSION
  5
1FBBF
330
747D
100
AcDbEntity
  8
寸法
 48
50.0
100
AcDbDimension
  2
*D21
 10
8703.599999999999
 20
8287.214235037188
 30
0.0
 11
8358.599999999999
 21
8387.214235037188
 31
0.0
 70
    32
 71
     5
 42
690.0
  3
INABA_S40G
100
AcDbAlignedDimension
 13
8013.599999999998
 23
7018.925205146506
 33
0.0
 14
8703.599999999999
 24
7708.925205146506
 34
0.0
100
AcDbRotatedDimension
1001
ACAD
1000
DSTYLE
1002
{
1070
   174
1070
     0
1070
   272
1070
     1
1070
   279
1070
     1
1070
   288
1070
     0
1070
   341
1005
0
1002
}
  0
LEADER
  5
1FD37
330
747D
100
AcDbEntity
  8
寸法
 48
50.0
100
AcDbLeader
  3
INABA_S40G
 71
     0
 73
     0
 75
     1
 40
120.0
 41
185.591883092037
 76
     3
 10
7950.88216719823
 20
6920.214539377972
 30
0.0
 10
7880.963922672274
 20
6772.773590948983
 30
0.0
 10
7780.963922672274
 20
6772.773590948983
 30
0.0
340
1FD38
210
0.0
220
0.0
230
-1.0
213
-71.41935944326269
223
-47.92531579249407
233
0.0
1001
ACAD
1000
DSTYLE
1002
{
1070
   174
1070
     0
1070
   272
1070
     1
1070
   279
1070
     1
1070
   288
1070
     0
1070
   341
1005
0
1002
}
  0
MTEXT
  5
1FD38
102
{ACAD_REACTORS
330
1FD37
102
}
330
747D
100
AcDbEntity
  8
部品1
 62
     7
 48
50.0
100
AcDbMText
 10
7812.383282115536
 20
6840.698906741476
 30
0.0
 40
120.0
 41
0.0
 71
     6
 72
     1
  1
\A1;C.B
  7
STYLE1
 73
     1
 44
1.0
1001
ACAD
1000
MTEXTBEGIN
1070
    73
1070
     1
1070
    44
1040
1.0
1070
    74
1070
     0
1000
MTEXTEND
  0
MTEXT
  5
20118
102
{ACAD_REACTORS
330
20119
102
}
330
747D
100
AcDbEntity
  8
寸法
 62
     7
 48
50.0
100
AcDbMText
 10
9665.773827076801
 20
2192.550427295722
 30
0.0
 40
120.0
 41
0.8
 71
     4
 72
     1
  1
\A1;C.B
  7
STYLE1
 73
     1
 44
1.0
1001
ACAD
1000
MTEXTBEGIN
1070
    73
1070
     1
1070
    44
1040
1.0
1070
    74
1070
     0
1000
MTEXTEND
  0
LEADER
  5
20119
330
747D
100
AcDbEntity
  8
寸法
 48
50.0
100
AcDbLeader
  3
INABA_S40G
 73
     0
 74
     0
 75
     1
 40
120.0
 41
185.591883092037
 76
     3
 10
9482.635620443158
 20
1935.404106614583
 30
0.0
 10
9525.7738270768
 20
2092.550427295722
 30
0.0
 10
9625.7738270768
 20
2092.550427295722
 30
0.0
340
20118
1001
ACAD
1000
DSTYLE
1002
{
1070
   174
1070
     0
1070
   272
1070
     1
1070
   279
1070
     1
1070
   288
1070
     0
1070
   341
1005
0
1002
}
  0
LINE
  5
2011A
330
747D
100
AcDbEntity
  8
細線
 48
50.0
100
AcDbLine
 10
9628.289034019566
 20
1579.705190961233
 30
0.0
 11
9621.858253401221
 21
1603.705190961233
 31
0.0
  0
LINE
  5
2011B
330
747D
100
AcDbEntity
  8
細線
 48
50.0
100
AcDbLine
 10
9606.853098625078
 20
1499.705190961233
 30
0.0
 11
9613.283879243425
 21
1475.705190961233
 31
0.0
  0
LINE
  5
2011C
330
747D
100
AcDbEntity
  8
部品1
100
AcDbLine
 10
9671.911208827234
 20
1695.404106614583
 30
0.0
 11
9671.911208827237
 21
1475.705190961234
 31
0.0
  0
LINE
  5
2011D
330
747D
100
AcDbEntity
  8
細線
 48
50.0
100
AcDbLine
 10
9600.422318006726
 20
1475.705190961233
 30
0.0
 11
9634.719814637911
 21
1603.705190961231
 31
0.0
  0
LINE
  5
2011E
330
747D
100
AcDbEntity
  8
細線
 48
50.0
100
AcDbLine
 10
9549.400989072321
 20
1579.705190961233
 30
0.0
 11
9542.970208453972
 21
1603.705190961233
 31
0.0
  0
LINE
  5
2011F
330
747D
100
AcDbEntity
  8
細線
100
AcDbLine
 10
9424.947603326568
 20
1603.705190961235
 30
0.0
 11
9516.646518979911
 21
1695.404106614583
 31
0.0
  0
LINE
  5
20120
330
747D
100
AcDbEntity
  8
細線
 48
50.0
100
AcDbLine
 10
9470.512944125063
 20
1579.705190961234
 30
0.0
 11
9464.082163506716
 21
1603.705190961234
 31
0.0
  0
LINE
  5
20121
330
747D
100
AcDbEntity
  8
細線
100
AcDbLine
 10
9458.888728823524
 20
1603.705190961235
 30
0.0
 11
9550.587644476866
 21
1695.404106614583
 31
0.0
  0
LINE
  5
20122
330
747D
100
AcDbEntity
  8
細線
 48
50.0
100
AcDbLine
 10
9233.848809283333
 20
1579.705190961234
 30
0.0
 11
9227.418028664986
 21
1603.705190961234
 31
0.0
  0
LINE
  5
20123
330
747D
100
AcDbEntity
  8
細線
 48
50.0
100
AcDbLine
 10
9312.73685423058
 20
1579.705190961234
 30
0.0
 11
9306.306073612233
 21
1603.705190961234
 31
0.0
  0
LINE
  5
20124
330
747D
100
AcDbEntity
  8
細線
 48
50.0
100
AcDbLine
 10
9391.624899177825
 20
1579.705190961234
 30
0.0
 11
9385.194118559478
 21
1603.705190961234
 31
0.0
  0
LINE
  5
20125
330
747D
100
AcDbEntity
  8
細線
 48
50.0
100
AcDbLine
 10
9527.965053677831
 20
1499.705190961233
 30
0.0
 11
9534.395834296178
 21
1475.705190961233
 31
0.0
  0
LINE
  5
20126
330
747D
100
AcDbEntity
  8
細線
 48
50.0
100
AcDbLine
 10
9449.077008730583
 20
1499.705190961234
 30
0.0
 11
9455.50778934894
 21
1475.705190961234
 31
0.0
  0
LINE
  5
20127
330
747D
100
AcDbEntity
  8
細線
 48
50.0
100
AcDbLine
 10
9291.300918836091
 20
1499.705190961234
 30
0.0
 11
9297.731699454436
 21
1475.705190961234
 31
0.0
  0
LINE
  5
20128
330
747D
100
AcDbEntity
  8
細線
 48
50.0
100
AcDbLine
 10
9370.188963783336
 20
1499.705190961234
 30
0.0
 11
9376.619744401684
 21
1475.705190961234
 31
0.0
  0
LINE
  5
20129
330
747D
100
AcDbEntity
  8
細線
 48
50.0
100
AcDbLine
 10
9363.758183164984
 20
1475.705190961234
 30
0.0
 11
9398.05567979617
 21
1603.705190961233
 31
0.0
  0
LINE
  5
2012A
330
747D
100
AcDbEntity
  8
細線
 48
50.0
100
AcDbLine
 10
9284.87013821774
 20
1475.705190961233
 30
0.0
 11
9319.167634848923
 21
1603.705190961233
 31
0.0
  0
LINE
  5
2012B
330
747D
100
AcDbEntity
  8
細線
 48
50.0
100
AcDbLine
 10
9442.646228112232
 20
1475.705190961233
 30
0.0
 11
9476.943724743406
 21
1603.705190961234
 31
0.0
  0
LINE
  5
2012C
330
747D
100
AcDbEntity
  8
細線
100
AcDbLine
 10
9492.829854320474
 20
1603.705190961235
 30
0.0
 11
9584.52876997382
 21
1695.404106614583
 31
0.0
  0
LINE
  5
2012D
330
747D
100
AcDbEntity
  8
細線
 48
50.0
100
AcDbLine
 10
9521.534273059483
 20
1475.705190961231
 30
0.0
 11
9555.831769690666
 21
1603.705190961231
 31
0.0
  0
LINE
  5
2012E
330
747D
100
AcDbEntity
  8
部品1
100
AcDbLine
 10
9551.911208827233
 20
1935.404106614583
 30
0.0
 11
9551.911208827233
 21
1695.404106614583
 31
0.0
  0
LINE
  5
2012F
330
747D
100
AcDbEntity
  8
細線
100
AcDbLine
 10
9538.073546479653
 20
1695.404106614585
 30
0.0
 11
9298.073546479654
 21
1935.404106614583
 31
0.0
  0
LINE
  5
20130
330
747D
100
AcDbEntity
  8
細線
100
AcDbLine
 10
9487.161858234221
 20
1695.404106614583
 30
0.0
 11
9247.161858234223
 21
1935.404106614583
 31
0.0
  0
LINE
  5
20131
330
747D
100
AcDbEntity
  8
細線
100
AcDbLine
 10
9098.888728823521
 20
1603.705190961234
 30
0.0
 11
9190.587644476865
 21
1695.404106614583
 31
0.0
  0
LINE
  5
20132
330
747D
100
AcDbEntity
  8
細線
100
AcDbLine
 10
9064.947603326562
 20
1603.705190961234
 30
0.0
 11
9156.646518979913
 21
1695.404106614583
 31
0.0
  0
LINE
  5
20133
330
747D
100
AcDbEntity
  8
細線
 48
50.0
100
AcDbLine
 10
9076.072719388834
 20
1579.705190961234
 30
0.0
 11
9069.641938770487
 21
1603.705190961234
 31
0.0
  0
LINE
  5
20134
330
747D
100
AcDbEntity
  8
細線
 48
50.0
100
AcDbLine
 10
9154.960764336086
 20
1579.705190961234
 30
0.0
 11
9148.529983717741
 21
1603.705190961234
 31
0.0
  0
LINE
  5
20135
330
747D
100
AcDbEntity
  8
細線
 48
50.0
100
AcDbLine
 10
8997.184674441584
 20
1579.705190961234
 30
0.0
 11
8990.753893823237
 21
1603.705190961234
 31
0.0
  0
LINE
  5
20136
330
747D
100
AcDbEntity
  8
細線
 48
50.0
100
AcDbLine
 10
9212.412873888842
 20
1499.705190961234
 30
0.0
 11
9218.843654507191
 21
1475.705190961234
 31
0.0
  0
LINE
  5
20137
330
747D
100
AcDbEntity
  8
細線
 48
50.0
100
AcDbLine
 10
9133.524828941597
 20
1499.705190961234
 30
0.0
 11
9139.955609559944
 21
1475.705190961234
 31
0.0
  0
LINE
  5
20138
330
747D
100
AcDbEntity
  8
細線
 48
50.0
100
AcDbLine
 10
8975.748739047094
 20
1499.705190961234
 30
0.0
 11
8982.179519665441
 21
1475.705190961234
 31
0.0
  0
LINE
  5
20139
330
747D
100
AcDbEntity
  8
細線
 48
50.0
100
AcDbLine
 10
9054.636783994345
 20
1499.705190961234
 30
0.0
 11
9061.067564612693
 21
1475.705190961234
 31
0.0
  0
LINE
  5
2013A
330
747D
100
AcDbEntity
  8
部品1
100
AcDbLine
 10
8951.911208827233
 20
1475.70519096123
 30
0.0
 11
8951.911208827233
 21
1695.404106614583
 31
0.0
  0
LINE
  5
2013B
330
747D
100
AcDbEntity
  8
細線
 48
50.0
100
AcDbLine
 10
8969.317958428746
 20
1475.705190961234
 30
0.0
 11
9003.615455059932
 21
1603.705190961234
 31
0.0
  0
LINE
  5
2013C
330
747D
100
AcDbEntity
  8
細線
 48
50.0
100
AcDbLine
 10
9127.094048323245
 20
1475.705190961234
 30
0.0
 11
9161.39154495443
 21
1603.705190961234
 31
0.0
  0
LINE
  5
2013D
330
747D
100
AcDbEntity
  8
細線
 48
50.0
100
AcDbLine
 10
9048.206003375993
 20
1475.705190961233
 30
0.0
 11
9082.503500007176
 21
1603.705190961233
 31
0.0
  0
LINE
  5
2013E
330
747D
100
AcDbEntity
  8
部品1
100
AcDbLine
 10
9071.911208827234
 20
1695.404106614583
 30
0.0
 11
9071.911208827234
 21
1935.404106614583
 31
0.0
  0
TEXT
  5
2013F
330
747D
100
AcDbEntity
  8
部品1
 48
50.0
100
AcDbText
 10
8307.793122068732
 20
1428.604365977275
 30
0.0
 40
80.0
  1
ボルトの出
 50
90.0
  7
STYLE2
100
AcDbText
  0
LINE
  5
20140
330
747D
100
AcDbEntity
  8
細線
100
AcDbLine
 10
9215.632854258586
 20
1695.404106614583
 30
0.0
 11
9071.911208827234
 21
1839.125752045936
 31
0.0
  0
LWPOLYLINE
  5
20141
330
747D
100
AcDbEntity
  8
部品1
 48
50.0
100
AcDbPolyline
 90
        2
 70
     0
 43
12.0
 10
8687.299946726845
 20
1695.404106614583
 10
9888.392249858471
 20
1695.404106614583
  0
LINE
  5
20142
330
747D
100
AcDbEntity
  8
細線
100
AcDbLine
 10
9132.829854320476
 20
1603.705190961234
 30
0.0
 11
9224.528769973822
 21
1695.404106614583
 31
0.0
  0
LINE
  5
20143
330
747D
100
AcDbEntity
  8
部品1
100
AcDbLine
 10
8951.911208827233
 20
1603.705190961234
 30
0.0
 11
9671.911208827234
 21
1603.705190961236
 31
0.0
  0
LINE
  5
20144
330
747D
100
AcDbEntity
  8
部品1
100
AcDbLine
 10
8951.911208827233
 20
1475.70519096123
 30
0.0
 11
9671.911208827234
 21
1475.705190961234
 31
0.0
  0
LINE
  5
20145
330
747D
100
AcDbEntity
  8
細線
 48
50.0
100
AcDbLine
 10
9205.982093270492
 20
1475.705190961234
 30
0.0
 11
9240.279589901678
 21
1603.705190961233
 31
0.0
  0
LINE
  5
20146
330
747D
100
AcDbEntity
  8
部品1
100
AcDbLine
 10
9071.911208827234
 20
1935.404106614583
 30
0.0
 11
9551.911208827233
 21
1935.404106614583
 31
0.0
  0
LINE
  5
20147
330
747D
100
AcDbEntity
  8
細線
100
AcDbLine
 10
9266.544542504018
 20
1695.404106614583
 30
0.0
 11
9071.911208827234
 21
1890.037440291366
 31
0.0
  0
LINE
  5
20148
330
747D
100
AcDbEntity
  8
部品1
100
AcDbLine
 10
10258.65270992426
 20
292.0687568067815
 30
0.0
 11
10258.65270992427
 21
3256.375726391429
 31
0.0
  0
TEXT
  5
20149
330
747D
100
AcDbEntity
  8
部品1
100
AcDbText
 10
6880.547525716406
 20
3076.823794440001
 30
0.0
 40
120.0
  1
基礎詳細
  7
STYLE2
100
AcDbText
  0
LINE
  5
2014A
330
747D
100
AcDbEntity
  8
部品1
 48
50.0
100
AcDbLine
 10
7195.775276524476
 20
2334.279387723726
 30
0.0
 11
7211.775276524477
 21
2326.279387723726
 31
0.0
  0
LINE
  5
2014B
330
747D
100
AcDbEntity
  8
細線
 48
50.0
100
AcDbLine
 10
7163.775276524477
 20
2286.279387723726
 30
0.0
 11
7163.775276524477
 21
2318.279387723726
 31
0.0
  0
LINE
  5
2014C
330
747D
100
AcDbEntity
  8
部品1
 48
50.0
100
AcDbLine
 10
7211.775276524477
 20
2294.279387723726
 30
0.0
 11
7211.775276524477
 21
2326.279387723726
 31
0.0
  0
LINE
  5
2014D
330
747D
100
AcDbEntity
  8
細線
 48
50.0
100
AcDbLine
 10
7195.775276524476
 20
2286.279387723726
 30
0.0
 11
7195.775276524476
 21
2318.279387723726
 31
0.0
  0
LINE
  5
2014E
330
747D
100
AcDbEntity
  8
部品1
 48
50.0
100
AcDbLine
 10
7195.775276524476
 20
2318.279387723726
 30
0.0
 11
7211.775276524477
 21
2326.279387723726
 31
0.0
  0
LINE
  5
2014F
330
747D
100
AcDbEntity
  8
部品1
 48
50.0
100
AcDbLine
 10
7163.775276524477
 20
2318.279387723726
 30
0.0
 11
7195.775276524476
 21
2318.279387723726
 31
0.0
  0
LINE
  5
20150
330
747D
100
AcDbEntity
  8
部品1
 48
50.0
100
AcDbLine
 10
7195.775276524476
 20
2286.279387723726
 30
0.0
 11
7211.775276524477
 21
2294.279387723726
 31
0.0
  0
LINE
  5
20151
330
747D
100
AcDbEntity
  8
部品1
 48
50.0
100
AcDbLine
 10
7163.775276524477
 20
2286.279387723726
 30
0.0
 11
7195.775276524476
 21
2286.279387723726
 31
0.0
  0
ELLIPSE
  5
20152
330
747D
100
AcDbEntity
  8
細線
 48
50.0
100
AcDbEllipse
 10
7179.775276524477
 20
2326.279387723726
 30
0.0
 11
14.76670786606846
 21
0.0
 31
0.0
210
0.0
220
0.0
230
1.0
 40
0.2071254069489396
 41
0.0
 42
6.283185307179586
  0
LINE
  5
20153
330
747D
100
AcDbEntity
  8
部品1
 48
50.0
100
AcDbLine
 10
7163.775276524477
 20
2334.279387723726
 30
0.0
 11
7195.775276524476
 21
2334.279387723726
 31
0.0
  0
LINE
  5
20154
330
747D
100
AcDbEntity
  8
部品1
 48
50.0
100
AcDbLine
 10
7147.775276524477
 20
2294.279387723726
 30
0.0
 11
7147.775276524477
 21
2326.279387723726
 31
0.0
  0
LINE
  5
20155
330
747D
100
AcDbEntity
  8
部品1
 48
50.0
100
AcDbLine
 10
7147.775276524477
 20
2326.279387723726
 30
0.0
 11
7163.775276524477
 21
2334.279387723726
 31
0.0
  0
LINE
  5
20156
330
747D
100
AcDbEntity
  8
部品1
 48
50.0
100
AcDbLine
 10
7147.775276524477
 20
2294.279387723726
 30
0.0
 11
7163.775276524477
 21
2286.279387723726
 31
0.0
  0
LINE
  5
20157
330
747D
100
AcDbEntity
  8
部品1
 48
50.0
100
AcDbLine
 10
7147.775276524477
 20
2326.279387723726
 30
0.0
 11
7163.775276524477
 21
2318.279387723726
 31
0.0
  0
LINE
  5
20158
330
747D
100
AcDbEntity
  8
部品1
 48
50.0
100
AcDbLine
 10
7219.775276524477
 20
2194.927395058856
 30
0.0
 11
7219.775276524477
 21
2204.527395058856
 31
0.0
  0
ELLIPSE
  5
20159
330
747D
100
AcDbEntity
  8
部品1
 48
50.0
100
AcDbEllipse
 10
7179.775276524477
 20
2204.527395058856
 30
0.0
 11
18.4
 21
0.0
 31
0.0
210
0.0
220
0.0
230
1.0
 40
0.3478260869565217
 41
0.0
 42
6.283185307179586
  0
ARC
  5
2015A
330
747D
100
AcDbEntity
  8
部品1
100
AcDbCircle
 10
7018.675276524476
 20
2033.504106614584
 30
0.0
 40
2.7
100
AcDbArc
 50
90.0
 51
180.0
  0
LINE
  5
2015B
330
747D
100
AcDbEntity
  8
部品1
100
AcDbLine
 10
7021.375276524477
 20
2047.004106614584
 30
0.0
 11
7063.675276524477
 21
2047.00410661458
 31
0.0
  0
LINE
  5
2015C
330
747D
100
AcDbEntity
  8
部品1
100
AcDbLine
 10
7018.675276524476
 20
2036.204106614584
 30
0.0
 11
7018.675276524476
 21
2044.304106614584
 31
0.0
  0
LINE
  5
2015D
330
747D
100
AcDbEntity
  8
部品1
100
AcDbLine
 10
7018.675276524476
 20
2036.204106614584
 30
0.0
 11
7018.675276524476
 21
2036.204106614584
 31
0.0
  0
ARC
  5
2015E
330
747D
100
AcDbEntity
  8
部品1
100
AcDbCircle
 10
7021.375276524477
 20
2044.304106614584
 30
0.0
 40
2.7
100
AcDbArc
 50
90.0
 51
180.0
  0
ARC
  5
2015F
330
747D
100
AcDbEntity
  8
部品1
100
AcDbCircle
 10
7063.675276524477
 20
2044.304106614581
 30
0.0
 40
2.7
100
AcDbArc
 50
0.0
 51
90.0
  0
LINE
  5
20160
330
747D
100
AcDbEntity
  8
部品1
 48
50.0
100
AcDbLine
 10
7139.775276524478
 20
2204.527395058856
 30
0.0
 11
7139.775276524478
 21
2194.927395058856
 31
0.0
  0
ELLIPSE
  5
20161
330
747D
100
AcDbEntity
  8
部品1
 48
50.0
100
AcDbEllipse
 10
7179.775276524477
 20
2194.927395058857
 30
0.0
 11
40.0
 21
0.0
 31
0.0
210
0.0
220
0.0
230
1.0
 40
0.4
 41
3.141592653589793
 42
6.283185307179586
  0
ELLIPSE
  5
20162
330
747D
100
AcDbEntity
  8
部品1
 48
50.0
100
AcDbEllipse
 10
7179.775276524477
 20
2204.527395058856
 30
0.0
 11
40.0
 21
0.0
 31
0.0
210
0.0
220
0.0
230
1.0
 40
0.4
 41
0.0
 42
6.283185307179586
  0
LINE
  5
20163
330
747D
100
AcDbEntity
  8
部品1
100
AcDbLine
 10
7174.375276524476
 20
1988.164106614584
 30
0.0
 11
7185.175276524477
 21
1988.164106614584
 31
0.0
  0
LINE
  5
20164
330
747D
100
AcDbEntity
  8
部品1
100
AcDbLine
 10
7170.775276524476
 20
1984.564106614584
 30
0.0
 11
7188.775276524477
 21
1984.564106614584
 31
0.0
  0
LINE
  5
20165
330
747D
100
AcDbEntity
  8
細線
100
AcDbLine
 10
7174.375276524479
 20
1944.964106614584
 30
0.0
 11
7174.375276524476
 21
1988.164106614584
 31
0.0
  0
LINE
  5
20166
330
747D
100
AcDbEntity
  8
細線
100
AcDbLine
 10
7185.175276524477
 20
1944.964106614584
 30
0.0
 11
7185.175276524477
 21
1988.164106614584
 31
0.0
  0
LINE
  5
20167
330
747D
100
AcDbEntity
  8
部品1
100
AcDbLine
 10
7087.075276524476
 20
2002.264106614584
 30
0.0
 11
7087.075276524476
 21
1985.164106614584
 31
0.0
  0
LINE
  5
20168
330
747D
100
AcDbEntity
  8
部品1
100
AcDbLine
 10
7120.635276524478
 20
2002.264106614584
 30
0.0
 11
7120.635276524474
 21
1947.664106614584
 31
0.0
  0
ARC
  5
20169
330
747D
100
AcDbEntity
  8
部品1
100
AcDbCircle
 10
7105.975276524477
 20
1990.304106614583
 30
0.0
 40
2.7
100
AcDbArc
 50
0.0
 51
90.0
  0
LINE
  5
2016A
330
747D
100
AcDbEntity
  8
部品1
100
AcDbLine
 10
7066.375276524476
 20
1993.004106614584
 30
0.0
 11
7105.975276524477
 21
1993.004106614584
 31
0.0
  0
ARC
  5
2016B
330
747D
100
AcDbEntity
  8
部品1
100
AcDbCircle
 10
7105.975276524477
 20
1947.664106614584
 30
0.0
 40
2.7
100
AcDbArc
 50
270.0
 51
0.0
  0
ARC
  5
2016C
330
747D
100
AcDbEntity
  8
部品1
100
AcDbCircle
 10
7123.33527652447
 20
1947.664106614584
 30
0.0
 40
2.7
100
AcDbArc
 50
180.0
 51
270.0
  0
LINE
  5
2016D
330
747D
100
AcDbEntity
  8
部品1
100
AcDbLine
 10
7094.275276524477
 20
1944.964106614584
 30
0.0
 11
7105.975276524477
 21
1944.964106614584
 31
0.0
  0
LINE
  5
2016E
330
747D
100
AcDbEntity
  8
部品1
100
AcDbLine
 10
7108.675276524476
 20
1990.304106614583
 30
0.0
 11
7108.675276524476
 21
1947.664106614584
 31
0.0
  0
ARC
  5
2016F
330
747D
100
AcDbEntity
  8
部品1
100
AcDbCircle
 10
7117.935276524477
 20
2002.264106614584
 30
0.0
 40
2.7
100
AcDbArc
 50
0.0
 51
90.0
  0
ARC
  5
20170
330
747D
100
AcDbEntity
  8
部品1
100
AcDbCircle
 10
7089.775276524477
 20
2002.264106614584
 30
0.0
 40
2.7
100
AcDbArc
 50
90.0
 51
180.0
  0
LINE
  5
20171
330
747D
100
AcDbEntity
  8
部品1
100
AcDbLine
 10
7089.775276524477
 20
2004.964106614584
 30
0.0
 11
7117.935276524477
 21
2004.964106614584
 31
0.0
  0
LINE
  5
20172
330
747D
100
AcDbEntity
  8
部品1
100
AcDbLine
 10
7066.375276524476
 20
2044.304106614581
 30
0.0
 11
7066.375276524476
 21
1993.004106614584
 31
0.0
  0
LINE
  5
20173
330
747D
100
AcDbEntity
  8
部品1
100
AcDbLine
 10
7015.975276524476
 20
2025.404106614584
 30
0.0
 11
7015.975276524476
 21
2033.504106614584
 31
0.0
  0
LINE
  5
20174
330
747D
100
AcDbEntity
  8
部品1
100
AcDbLine
 10
7123.33527652447
 20
1944.964106614584
 30
0.0
 11
7324.67527652447
 21
1944.964106614584
 31
0.0
  0
LINE
  5
20175
330
747D
100
AcDbEntity
  8
部品1
100
AcDbLine
 10
6964.675276524477
 20
1947.664106614584
 30
0.0
 11
6964.675276524477
 21
2009.796010317292
 31
0.0
  0
LINE
  5
20176
330
747D
100
AcDbEntity
  8
部品1
100
AcDbLine
 10
6967.375276524477
 20
1944.964106614584
 30
0.0
 11
6979.07527652447
 21
1944.964106614584
 31
0.0
  0
LINE
  5
20177
330
747D
100
AcDbEntity
  8
細線
 48
50.0
100
AcDbLine
 10
6958.375276524477
 20
1923.184682914489
 30
0.0
 11
6970.59470022457
 21
1935.404106614583
 31
0.0
  0
ARC
  5
20178
330
747D
100
AcDbEntity
  8
部品1
100
AcDbCircle
 10
6967.375276524477
 20
1947.664106614584
 30
0.0
 40
2.7
100
AcDbArc
 50
180.0
 51
270.0
  0
LINE
  5
20179
330
747D
100
AcDbEntity
  8
部品1
100
AcDbLine
 10
6966.720430336877
 20
2012.415395067684
 30
0.0
 11
6975.475276524477
 21
2014.604106614584
 31
0.0
  0
ARC
  5
2017A
330
747D
100
AcDbEntity
  8
部品1
100
AcDbCircle
 10
6967.375276524477
 20
2009.796010317292
 30
0.0
 40
2.7
100
AcDbArc
 50
104.0362434678964
 51
180.0
  0
ARC
  5
2017B
330
747D
100
AcDbEntity
  8
部品1
100
AcDbCircle
 10
6978.175276524476
 20
2022.704106614584
 30
0.0
 40
2.7
100
AcDbArc
 50
90.0
 51
180.0
  0
LINE
  5
2017C
330
747D
100
AcDbEntity
  8
部品1
100
AcDbLine
 10
6975.475276524477
 20
2014.604106614584
 30
0.0
 11
6975.475276524477
 21
2022.704106614584
 31
0.0
  0
TEXT
  5
2017D
330
747D
100
AcDbEntity
  8
部品1
 48
50.0
100
AcDbText
 10
6531.929179944985
 20
2265.96462771506
 30
0.0
 40
80.0
  1
※(別売)
  7
STYLE2
100
AcDbText
  0
LINE
  5
2017E
330
747D
100
AcDbEntity
  8
部品1
 48
50.0
100
AcDbLine
 10
6958.375276524477
 20
1935.404106614583
 30
0.0
 11
7372.375276524478
 21
1935.404106614583
 31
0.0
  0
LINE
  5
2017F
330
747D
100
AcDbEntity
  8
細線
 48
50.0
100
AcDbLine
 10
6958.375276524477
 20
1869.303146188073
 30
0.0
 11
7024.476236950987
 21
1935.404106614583
 31
0.0
  0
LINE
  5
20180
330
747D
100
AcDbEntity
  8
細線
 48
50.0
100
AcDbLine
 10
6958.375276524477
 20
1896.243914551282
 30
0.0
 11
6997.535468587781
 21
1935.404106614583
 31
0.0
  0
LINE
  5
20181
330
747D
100
AcDbEntity
  8
部品1
100
AcDbLine
 10
6978.175276524476
 20
2025.404106614584
 30
0.0
 11
7015.975276524476
 21
2025.404106614584
 31
0.0
  0
LINE
  5
20182
330
747D
100
AcDbEntity
  8
部品1
 48
50.0
100
AcDbLine
 10
7372.375276524476
 20
1391.404106614584
 30
0.0
 11
7500.375276524476
 21
1391.404106614584
 31
0.0
  0
LINE
  5
20183
330
747D
100
AcDbEntity
  8
部品1
100
AcDbLine
 10
7188.775276524477
 20
1710.404106614583
 30
0.0
 11
7224.775276524477
 21
1710.404106614583
 31
0.0
  0
LINE
  5
20184
330
747D
100
AcDbEntity
  8
部品1
100
AcDbLine
 10
7188.775276524477
 20
1692.404106614583
 30
0.0
 11
7224.775276524477
 21
1692.404106614583
 31
0.0
  0
ARC
  5
20185
330
747D
100
AcDbEntity
  8
部品1
100
AcDbCircle
 10
7188.775276524477
 20
1710.404106614583
 30
0.0
 40
18.0
100
AcDbArc
 50
180.0
 51
270.0
  0
LINE
  5
20186
330
747D
100
AcDbEntity
  8
部品1
100
AcDbLine
 10
7224.775276524477
 20
1692.404106614583
 30
0.0
 11
7224.775276524477
 21
1710.404106614583
 31
0.0
  0
LINE
  5
20187
330
747D
100
AcDbEntity
  8
部品1
100
AcDbLine
 10
7242.775276524477
 20
1611.404106614582
 30
0.0
 11
7116.77527652447
 21
1611.404106614582
 31
0.0
  0
LINE
  5
20188
330
747D
100
AcDbEntity
  8
細線
 48
50.0
100
AcDbLine
 10
7536.753101716811
 20
1127.404106614582
 30
0.0
 11
7530.322321098465
 21
1151.404106614582
 31
0.0
  0
LINE
  5
20189
330
747D
100
AcDbEntity
  8
細線
 48
50.0
100
AcDbLine
 10
7457.865056769566
 20
1127.404106614582
 30
0.0
 11
7451.43427615122
 21
1151.404106614582
 31
0.0
  0
LINE
  5
2018A
330
747D
100
AcDbEntity
  8
細線
 48
50.0
100
AcDbLine
 10
7378.977011822309
 20
1127.404106614584
 30
0.0
 11
7372.546231203962
 21
1151.404106614584
 31
0.0
  0
LINE
  5
2018B
330
747D
100
AcDbEntity
  8
細線
 48
50.0
100
AcDbLine
 10
7515.317166322322
 20
1047.404106614582
 30
0.0
 11
7521.74794694067
 21
1023.404106614582
 31
0.0
  0
LINE
  5
2018C
330
747D
100
AcDbEntity
  8
細線
 48
50.0
100
AcDbLine
 10
7436.429121375077
 20
1047.404106614582
 30
0.0
 11
7442.859901993422
 21
1023.404106614582
 31
0.0
  0
LINE
  5
2018D
330
747D
100
AcDbEntity
  8
細線
 48
50.0
100
AcDbLine
 10
7357.541076427827
 20
1047.404106614584
 30
0.0
 11
7363.971857046185
 21
1023.404106614584
 31
0.0
  0
LINE
  5
2018E
330
747D
100
AcDbEntity
  8
細線
 48
50.0
100
AcDbLine
 10
7429.998340756727
 20
1023.404106614581
 30
0.0
 11
7464.29583738791
 21
1151.404106614581
 31
0.0
  0
LINE
  5
2018F
330
747D
100
AcDbEntity
  8
細線
 48
50.0
100
AcDbLine
 10
7351.110295809478
 20
1023.404106614582
 30
0.0
 11
7385.407792440652
 21
1151.404106614584
 31
0.0
  0
LINE
  5
20190
330
747D
100
AcDbEntity
  8
細線
 48
50.0
100
AcDbLine
 10
7508.886385703971
 20
1023.404106614582
 30
0.0
 11
7543.183882335156
 21
1151.404106614581
 31
0.0
  0
LINE
  5
20191
330
747D
100
AcDbEntity
  8
部品1
 48
50.0
100
AcDbLine
 10
7580.375276524479
 20
1151.404106614584
 30
0.0
 11
7580.375276524479
 21
1023.404106614584
 31
0.0
  0
LINE
  5
20192
330
747D
100
AcDbEntity
  8
細線
 48
50.0
100
AcDbLine
 10
7300.088966875072
 20
1127.404106614584
 30
0.0
 11
7293.658186256725
 21
1151.404106614584
 31
0.0
  0
LINE
  5
20193
330
747D
100
AcDbEntity
  8
細線
 48
50.0
100
AcDbLine
 10
7221.200921927826
 20
1127.404106614584
 30
0.0
 11
7214.770141309478
 21
1151.404106614584
 31
0.0
  0
LINE
  5
20194
330
747D
100
AcDbEntity
  8
細線
 48
50.0
100
AcDbLine
 10
7063.424832033333
 20
1127.404106614584
 30
0.0
 11
7056.994051414986
 21
1151.404106614584
 31
0.0
  0
LINE
  5
20195
330
747D
100
AcDbEntity
  8
細線
 48
50.0
100
AcDbLine
 10
7142.312876980579
 20
1127.404106614584
 30
0.0
 11
7135.882096362232
 21
1151.404106614584
 31
0.0
  0
LINE
  5
20196
330
747D
100
AcDbEntity
  8
細線
 48
50.0
100
AcDbLine
 10
7199.764986533335
 20
1047.404106614584
 30
0.0
 11
7206.195767151683
 21
1023.404106614584
 31
0.0
  0
LINE
  5
20197
330
747D
100
AcDbEntity
  8
細線
 48
50.0
100
AcDbLine
 10
7278.653031480583
 20
1047.404106614584
 30
0.0
 11
7285.083812098928
 21
1023.404106614584
 31
0.0
  0
LINE
  5
20198
330
747D
100
AcDbEntity
  8
細線
 48
50.0
100
AcDbLine
 10
7041.988896638844
 20
1047.404106614584
 30
0.0
 11
7048.41967725719
 21
1023.404106614584
 31
0.0
  0
LINE
  5
20199
330
747D
100
AcDbEntity
  8
細線
 48
50.0
100
AcDbLine
 10
7120.876941586089
 20
1047.404106614584
 30
0.0
 11
7127.307722204436
 21
1023.404106614584
 31
0.0
  0
LINE
  5
2019A
330
747D
100
AcDbEntity
  8
細線
 48
50.0
100
AcDbLine
 10
7272.222250862229
 20
1023.404106614584
 30
0.0
 11
7306.519747493415
 21
1151.404106614582
 31
0.0
  0
LINE
  5
2019B
330
747D
100
AcDbEntity
  8
細線
 48
50.0
100
AcDbLine
 10
7114.446160967737
 20
1023.404106614584
 30
0.0
 11
7148.743657598924
 21
1151.404106614582
 31
0.0
  0
LINE
  5
2019C
330
747D
100
AcDbEntity
  8
細線
 48
50.0
100
AcDbLine
 10
7035.55811602049
 20
1023.404106614584
 30
0.0
 11
7069.855612651675
 21
1151.404106614584
 31
0.0
  0
LINE
  5
2019D
330
747D
100
AcDbEntity
  8
細線
 48
50.0
100
AcDbLine
 10
7193.334205914986
 20
1023.404106614582
 30
0.0
 11
7227.631702546169
 21
1151.404106614582
 31
0.0
  0
LINE
  5
2019E
330
747D
100
AcDbEntity
  8
細線
 48
50.0
100
AcDbLine
 10
7318.106971479285
 20
1151.404106614584
 30
0.0
 11
7500.375276524476
 21
1333.67241165978
 31
0.0
  0
LINE
  5
2019F
330
747D
100
AcDbEntity
  8
部品1
 48
50.0
100
AcDbLine
 10
7500.375276524476
 20
1391.404106614584
 30
0.0
 11
7500.375276524476
 21
1151.404106614584
 31
0.0
  0
LINE
  5
201A0
330
747D
100
AcDbEntity
  8
細線
 48
50.0
100
AcDbLine
 10
7291.16620311608
 20
1151.404106614584
 30
0.0
 11
7500.375276524476
 21
1360.613180022977
 31
0.0
  0
LINE
  5
201A1
330
747D
100
AcDbEntity
  8
細線
 48
50.0
100
AcDbLine
 10
7264.225434752869
 20
1151.404106614584
 30
0.0
 11
7500.375276524476
 21
1387.553948386192
 31
0.0
  0
LINE
  5
201A2
330
747D
100
AcDbEntity
  8
細線
 48
50.0
100
AcDbLine
 10
7048.699287847211
 20
1151.404106614584
 30
0.0
 11
7372.375276524476
 21
1475.08009529185
 31
0.0
  0
LINE
  5
201A3
330
747D
100
AcDbEntity
  8
細線
 48
50.0
100
AcDbLine
 10
7102.580824573625
 20
1151.404106614584
 30
0.0
 11
7372.375276524476
 21
1421.198558565441
 31
0.0
  0
LINE
  5
201A4
330
747D
100
AcDbEntity
  8
細線
 48
50.0
100
AcDbLine
 10
7075.640056210421
 20
1151.404106614584
 30
0.0
 11
7372.375276524476
 21
1448.139326928636
 31
0.0
  0
LINE
  5
201A5
330
747D
100
AcDbEntity
  8
細線
 48
50.0
100
AcDbLine
 10
6830.37527652447
 20
1364.13238910317
 30
0.0
 11
6857.646994035892
 21
1391.404106614584
 31
0.0
  0
LINE
  5
201A6
330
747D
100
AcDbEntity
  8
部品1
 48
50.0
100
AcDbLine
 10
6830.375276524477
 20
1391.404106614584
 30
0.0
 11
6958.375276524477
 21
1391.404106614584
 31
0.0
  0
LINE
  5
201A7
330
747D
100
AcDbEntity
  8
細線
 48
50.0
100
AcDbLine
 10
6830.37527652447
 20
1337.191620739959
 30
0.0
 11
6884.587762399101
 21
1391.404106614584
 31
0.0
  0
LWPOLYLINE
  5
201A8
330
747D
100
AcDbEntity
  8
部品1
 48
50.0
100
AcDbPolyline
 90
        2
 70
     0
 43
8.0
 10
6544.23537469152
 20
1695.404106614585
 10
6958.375276524477
 20
1695.404106614585
  0
LINE
  5
201A9
330
747D
100
AcDbEntity
  8
細線
 48
50.0
100
AcDbLine
 10
6905.648742138829
 20
1127.404106614584
 30
0.0
 11
6899.217961520482
 21
1151.404106614584
 31
0.0
  0
LINE
  5
201AA
330
747D
100
AcDbEntity
  8
細線
 48
50.0
100
AcDbLine
 10
6984.536787086081
 20
1127.404106614584
 30
0.0
 11
6978.106006467735
 21
1151.404106614584
 31
0.0
  0
LINE
  5
201AB
330
747D
100
AcDbEntity
  8
細線
 48
50.0
100
AcDbLine
 10
6826.760697191578
 20
1127.404106614584
 30
0.0
 11
6820.32991657323
 21
1151.404106614584
 31
0.0
  0
LINE
  5
201AC
330
747D
100
AcDbEntity
  8
細線
 48
50.0
100
AcDbLine
 10
6750.375276524477
 20
1136.744027580363
 30
0.0
 11
6754.303432862672
 21
1151.404106614584
 31
0.0
  0
LINE
  5
201AD
330
747D
100
AcDbEntity
  8
細線
 48
50.0
100
AcDbLine
 10
6884.21280674434
 20
1047.404106614584
 30
0.0
 11
6890.643587362688
 21
1023.404106614584
 31
0.0
  0
LINE
  5
201AE
330
747D
100
AcDbEntity
  8
細線
 48
50.0
100
AcDbLine
 10
6963.100851691591
 20
1047.404106614584
 30
0.0
 11
6969.531632309939
 21
1023.404106614584
 31
0.0
  0
LINE
  5
201AF
330
747D
100
AcDbEntity
  8
細線
 48
50.0
100
AcDbLine
 10
6805.324761797088
 20
1047.404106614584
 30
0.0
 11
6811.755542415435
 21
1023.404106614584
 31
0.0
  0
LINE
  5
201B0
330
747D
100
AcDbEntity
  8
細線
 48
50.0
100
AcDbLine
 10
6956.670071073239
 20
1023.404106614582
 30
0.0
 11
6990.967567704422
 21
1151.404106614582
 31
0.0
  0
LINE
  5
201B1
330
747D
100
AcDbEntity
  8
細線
 48
50.0
100
AcDbLine
 10
6798.893981178735
 20
1023.404106614582
 30
0.0
 11
6833.191477809918
 21
1151.404106614582
 31
0.0
  0
LINE
  5
201B2
330
747D
100
AcDbEntity
  8
部品1
 48
50.0
100
AcDbLine
 10
6750.375276524479
 20
1023.404106614584
 30
0.0
 11
6750.375276524479
 21
1151.404106614584
 31
0.0
  0
LINE
  5
201B3
330
747D
100
AcDbEntity
  8
細線
 48
50.0
100
AcDbLine
 10
6877.782026125993
 20
1023.404106614584
 30
0.0
 11
6912.079522757176
 21
1151.404106614584
 31
0.0
  0
LINE
  5
201B4
330
747D
100
AcDbEntity
  8
部品1
 48
50.0
100
AcDbLine
 10
6830.375276524477
 20
1151.404106614584
 30
0.0
 11
6830.375276524477
 21
1391.404106614584
 31
0.0
  0
LINE
  5
201B5
330
747D
100
AcDbEntity
  8
細線
 48
50.0
100
AcDbLine
 10
6830.37527652447
 20
1310.250852376755
 30
0.0
 11
6911.528530762305
 21
1391.404106614584
 31
0.0
  0
LINE
  5
201B6
330
747D
100
AcDbEntity
  8
部品1
 48
50.0
100
AcDbLine
 10
7580.375276524479
 20
1023.404106614584
 30
0.0
 11
6750.375276524479
 21
1023.404106614584
 31
0.0
  0
LINE
  5
201B7
330
747D
100
AcDbEntity
  8
部品1
 48
50.0
100
AcDbLine
 10
7580.375276524479
 20
1151.404106614584
 30
0.0
 11
6750.375276524479
 21
1151.404106614584
 31
0.0
  0
LINE
  5
201B8
330
747D
100
AcDbEntity
  8
細線
 48
50.0
100
AcDbLine
 10
6833.173140941551
 20
1151.404106614584
 30
0.0
 11
7372.375276524476
 21
1690.606242197509
 31
0.0
  0
LINE
  5
201B9
330
747D
100
AcDbEntity
  8
細線
 48
50.0
100
AcDbLine
 10
6860.113909304761
 20
1151.404106614584
 30
0.0
 11
7372.375276524478
 21
1663.665473834297
 31
0.0
  0
LINE
  5
201BA
330
747D
100
AcDbEntity
  8
細線
 48
50.0
100
AcDbLine
 10
6887.054677667966
 20
1151.404106614584
 30
0.0
 11
7372.375276524476
 21
1636.724705471091
 31
0.0
  0
LINE
  5
201BB
330
747D
100
AcDbEntity
  8
細線
 48
50.0
100
AcDbLine
 10
6958.375276524477
 20
1492.13238910317
 30
0.0
 11
7116.77527652447
 21
1650.532389103165
 31
0.0
  0
LINE
  5
201BC
330
747D
100
AcDbEntity
  8
細線
 48
50.0
100
AcDbLine
 10
6958.375276524477
 20
1438.250852376754
 30
0.0
 11
7131.528530762313
 21
1611.404106614582
 31
0.0
  0
LINE
  5
201BD
330
747D
100
AcDbEntity
  8
細線
 48
50.0
100
AcDbLine
 10
6958.375276524477
 20
1465.191620739962
 30
0.0
 11
7116.77527652447
 21
1623.59162073995
 31
0.0
  0
LINE
  5
201BE
330
747D
100
AcDbEntity
  8
部品1
100
AcDbLine
 10
7116.77527652447
 20
1611.404106614584
 30
0.0
 11
7116.775276524477
 21
1935.404106614583
 31
0.0
  0
LINE
  5
201BF
330
747D
100
AcDbEntity
  8
部品1
100
AcDbLine
 10
7242.775276524477
 20
1611.404106614584
 30
0.0
 11
7242.775276524477
 21
1935.404106614583
 31
0.0
  0
LINE
  5
201C0
330
747D
100
AcDbEntity
  8
細線
 48
50.0
100
AcDbLine
 10
7242.775276524477
 20
1749.591620739955
 30
0.0
 11
7372.375276524476
 21
1879.191620739952
 31
0.0
  0
LINE
  5
201C1
330
747D
100
AcDbEntity
  8
細線
 48
50.0
100
AcDbLine
 10
7242.775276524477
 20
1722.650852376742
 30
0.0
 11
7372.375276524476
 21
1852.250852376734
 31
0.0
  0
LINE
  5
201C2
330
747D
100
AcDbEntity
  8
部品1
100
AcDbLine
 10
7170.775276524476
 20
1710.404106614583
 30
0.0
 11
7170.775276524473
 21
1984.564106614584
 31
0.0
  0
LINE
  5
201C3
330
747D
100
AcDbEntity
  8
部品1
100
AcDbLine
 10
7188.775276524477
 20
1710.404106614583
 30
0.0
 11
7188.775276524473
 21
1984.564106614584
 31
0.0
  0
TEXT
  5
201C4
330
747D
100
AcDbEntity
  8
部品1
 48
50.0
100
AcDbText
 10
6544.23537469152
 20
1706.643098897839
 30
0.0
 40
80.0
  1
▽G.L
  7
STYLE2
100
AcDbText
  0
LINE
  5
201C5
330
747D
100
AcDbEntity
  8
細線
 48
50.0
100
AcDbLine
 10
6958.375276524477
 20
1653.776999282414
 30
0.0
 11
7116.775276524473
 21
1812.176999282407
 31
0.0
  0
LINE
  5
201C6
330
747D
100
AcDbEntity
  8
細線
 48
50.0
100
AcDbLine
 10
6958.375276524477
 20
1680.717767645621
 30
0.0
 11
7116.775276524475
 21
1839.117767645619
 31
0.0
  0
LINE
  5
201C7
330
747D
100
AcDbEntity
  8
細線
 48
50.0
100
AcDbLine
 10
6958.375276524477
 20
1707.658536008829
 30
0.0
 11
7116.775276524475
 21
1866.058536008826
 31
0.0
  0
LINE
  5
201C8
330
747D
100
AcDbEntity
  8
部品1
 48
50.0
100
AcDbLine
 10
6958.375276524477
 20
1391.404106614584
 30
0.0
 11
6958.375276524477
 21
1935.404106614583
 31
0.0
  0
LINE
  5
201C9
330
747D
100
AcDbEntity
  8
部品1
100
AcDbLine
 10
7372.375276524476
 20
1391.404106614584
 30
0.0
 11
7372.375276524476
 21
1935.404106614583
 31
0.0
  0
LINE
  5
201CA
330
747D
100
AcDbEntity
  8
細線
 48
50.0
100
AcDbLine
 10
7242.775276524477
 20
1776.532389103172
 30
0.0
 11
7372.375276524476
 21
1906.132389103171
 31
0.0
  0
LINE
  5
201CB
330
747D
100
AcDbEntity
  8
細線
 48
50.0
100
AcDbLine
 10
5366.828385849752
 20
1816.1509585113
 30
0.0
 11
5450.335963347282
 21
1899.658536008829
 31
0.0
  0
LINE
  5
201CC
330
747D
100
AcDbEntity
  8
細線
 48
50.0
100
AcDbLine
 10
5377.888670613269
 20
1800.270474911605
 30
0.0
 11
5450.335963347282
 21
1872.717767645621
 31
0.0
  0
LINE
  5
201CD
330
747D
100
AcDbEntity
  8
細線
 48
50.0
100
AcDbLine
 10
5258.335963347283
 20
1923.184682914489
 30
0.0
 11
5270.555387047378
 21
1935.404106614583
 31
0.0
  0
LINE
  5
201CE
330
747D
100
AcDbEntity
  8
細線
 48
50.0
100
AcDbLine
 10
5258.335963347283
 20
1869.303146188073
 30
0.0
 11
5324.436923773792
 21
1935.404106614583
 31
0.0
  0
LINE
  5
201CF
330
747D
100
AcDbEntity
  8
細線
 48
50.0
100
AcDbLine
 10
5258.335963347283
 20
1896.243914551282
 30
0.0
 11
5297.496155410587
 21
1935.404106614583
 31
0.0
  0
LINE
  5
201D0
330
747D
100
AcDbEntity
  8
部品1
 48
50.0
100
AcDbLine
 10
5258.335963347283
 20
1935.404106614583
 30
0.0
 11
5450.335963347282
 21
1935.404106614583
 31
0.0
  0
DIMENSION
  5
201D1
330
747D
100
AcDbEntity
  8
寸法
 48
50.0
100
AcDbDimension
  2
*D22
 10
5258.335963347281
 20
2255.404106614584
 30
0.0
 11
5365.562293692479
 21
2355.071914530964
 31
0.0
 70
   160
  1
120\P170
 71
     5
 42
192.0
  3
INABA_S40G
100
AcDbAlignedDimension
 13
5450.335963347281
 23
1935.404106614583
 33
0.0
 14
5258.335963347281
 24
1935.404106614583
 34
0.0
100
AcDbRotatedDimension
1001
ACAD
1000
DSTYLE
1002
{
1070
   174
1070
     0
1070
   272
1070
     1
1070
   279
1070
     1
1070
   288
1070
     0
1070
   341
1005
0
1002
}
  0
MTEXT
  5
201D2
102
{ACAD_REACTORS
330
20227
102
}
330
747D
100
AcDbEntity
  8
寸法
 62
     7
 48
50.0
100
AcDbMText
 10
5692.074419208533
 20
974.0550208824306
 30
0.0
 40
80.0
 41
0.8
 71
     4
 72
     1
  1
\A1;D10@300
  7
STYLE2
 73
     1
 44
1.0
1001
ACAD
1000
MTEXTBEGIN
1070
    73
1070
     1
1070
    44
1040
1.0
1070
    74
1070
     0
1000
MTEXTEND
  0
LINE
  5
201D3
330
747D
100
AcDbEntity
  8
細線
 48
50.0
100
AcDbLine
 10
5378.335963347288
 20
1585.191620739964
 30
0.0
 11
5450.335963347275
 21
1657.191620739959
 31
0.0
  0
LINE
  5
201D4
330
747D
100
AcDbEntity
  8
細線
 48
50.0
100
AcDbLine
 10
5378.335963347282
 20
1612.13238910317
 30
0.0
 11
5450.335963347282
 21
1684.13238910317
 31
0.0
  0
LINE
  5
201D5
330
747D
100
AcDbEntity
  8
細線
 48
50.0
100
AcDbLine
 10
5378.335963347288
 20
1342.724705471095
 30
0.0
 11
5450.335963347275
 21
1414.724705471095
 31
0.0
  0
LINE
  5
201D6
330
747D
100
AcDbEntity
  8
細線
 48
50.0
100
AcDbLine
 10
5378.335963347288
 20
1396.606242197513
 30
0.0
 11
5450.335963347275
 21
1468.606242197509
 31
0.0
  0
LINE
  5
201D7
330
747D
100
AcDbEntity
  8
細線
 48
50.0
100
AcDbLine
 10
5378.335963347288
 20
1369.665473834305
 30
0.0
 11
5450.335963347275
 21
1441.665473834299
 31
0.0
  0
LINE
  5
201D8
330
747D
100
AcDbEntity
  8
部品1
 48
50.0
100
AcDbLine
 10
5450.335963347282
 20
1391.404106614584
 30
0.0
 11
5578.335963347282
 21
1391.404106614584
 31
0.0
  0
LINE
  5
201D9
330
747D
100
AcDbEntity
  8
細線
 48
50.0
100
AcDbLine
 10
5378.335963347288
 20
1558.250852376755
 30
0.0
 11
5450.335963347275
 21
1630.250852376754
 31
0.0
  0
LINE
  5
201DA
330
747D
100
AcDbEntity
  8
部品1
 48
50.0
100
AcDbLine
 10
5346.335963347282
 20
1737.531321311706
 30
0.0
 11
5346.335963347282
 21
1795.658536008829
 31
0.0
  0
LINE
  5
201DB
330
747D
100
AcDbEntity
  8
細線
 48
50.0
100
AcDbLine
 10
5258.335963347283
 20
1707.658536008829
 30
0.0
 11
5330.335963347283
 21
1779.658536008829
 31
0.0
  0
LINE
  5
201DC
330
747D
100
AcDbEntity
  8
部品1
 48
50.0
100
AcDbLine
 10
5330.335963347283
 20
1737.531321311709
 30
0.0
 11
5330.335963347283
 21
1795.658536008829
 31
0.0
  0
LINE
  5
201DD
330
747D
100
AcDbEntity
  8
細線
 48
50.0
100
AcDbLine
 10
5258.335963347283
 20
1680.717767645621
 30
0.0
 11
5330.335963347283
 21
1752.717767645621
 31
0.0
  0
LINE
  5
201DE
330
747D
100
AcDbEntity
  8
細線
 48
50.0
100
AcDbLine
 10
5258.335963347283
 20
1653.776999282414
 30
0.0
 11
5342.090285376577
 21
1737.531321311706
 31
0.0
  0
LINE
  5
201DF
330
747D
100
AcDbEntity
  8
部品1
 48
50.0
100
AcDbLine
 10
5346.335963347282
 20
1737.531321311706
 30
0.0
 11
5330.335963347283
 21
1737.531321311709
 31
0.0
  0
LINE
  5
201E0
330
747D
100
AcDbEntity
  8
細線
 48
50.0
100
AcDbLine
 10
5130.335963347276
 20
1364.13238910317
 30
0.0
 11
5157.607680858697
 21
1391.404106614584
 31
0.0
  0
LINE
  5
201E1
330
747D
100
AcDbEntity
  8
細線
 48
50.0
100
AcDbLine
 10
5130.335963347276
 20
1337.191620739959
 30
0.0
 11
5184.548449221908
 21
1391.404106614584
 31
0.0
  0
LINE
  5
201E2
330
747D
100
AcDbEntity
  8
部品1
 48
50.0
100
AcDbLine
 10
5130.335963347283
 20
1391.404106614584
 30
0.0
 11
5258.335963347283
 21
1391.404106614584
 31
0.0
  0
LINE
  5
201E3
330
747D
100
AcDbEntity
  8
細線
 48
50.0
100
AcDbLine
 10
5346.335963347282
 20
1768.717767645621
 30
0.0
 11
5362.335963347283
 21
1784.717767645621
 31
0.0
  0
LINE
  5
201E4
330
747D
100
AcDbEntity
  8
細線
 48
50.0
100
AcDbLine
 10
5346.335963347282
 20
1741.776999282414
 30
0.0
 11
5362.335963347283
 21
1757.776999282414
 31
0.0
  0
LINE
  5
201E5
330
747D
100
AcDbEntity
  8
細線
 48
50.0
100
AcDbLine
 10
5258.335963347283
 20
1438.250852376754
 30
0.0
 11
5362.335963347288
 21
1542.250852376755
 31
0.0
  0
LINE
  5
201E6
330
747D
100
AcDbEntity
  8
細線
 48
50.0
100
AcDbLine
 10
5258.335963347283
 20
1492.13238910317
 30
0.0
 11
5362.335963347283
 21
1596.13238910317
 31
0.0
  0
LINE
  5
201E7
330
747D
100
AcDbEntity
  8
細線
 48
50.0
100
AcDbLine
 10
5258.335963347283
 20
1465.191620739962
 30
0.0
 11
5362.335963347288
 21
1569.191620739964
 31
0.0
  0
LINE
  5
201E8
330
747D
100
AcDbEntity
  8
細線
 48
50.0
100
AcDbLine
 10
5521.16160875063
 20
1127.404106614584
 30
0.0
 11
5514.730828132284
 21
1151.404106614584
 31
0.0
  0
LINE
  5
201E9
330
747D
100
AcDbEntity
  8
細線
 48
50.0
100
AcDbLine
 10
5564.186121575676
 20
1151.404106614584
 30
0.0
 11
5578.335963347282
 21
1165.55394838619
 31
0.0
  0
LINE
  5
201EA
330
747D
100
AcDbEntity
  8
細線
 48
50.0
100
AcDbLine
 10
5600.049653697877
 20
1127.404106614584
 30
0.0
 11
5593.618873079529
 21
1151.404106614584
 31
0.0
  0
LINE
  5
201EB
330
747D
100
AcDbEntity
  8
部品1
 48
50.0
100
AcDbLine
 10
5522.335963347283
 20
1263.404106614584
 30
0.0
 11
5522.335963347283
 21
1247.404106614584
 31
0.0
  0
LINE
  5
201EC
330
747D
100
AcDbEntity
  8
細線
 48
50.0
100
AcDbLine
 10
5402.54151139643
 20
1151.404106614584
 30
0.0
 11
5498.542399241568
 21
1247.404994459723
 31
0.0
  0
LINE
  5
201ED
330
747D
100
AcDbEntity
  8
細線
 48
50.0
100
AcDbLine
 10
5375.600743033227
 20
1151.404106614584
 30
0.0
 11
5471.600743033227
 21
1247.404106614584
 31
0.0
  0
LINE
  5
201EE
330
747D
100
AcDbEntity
  8
細線
 48
50.0
100
AcDbLine
 10
5442.273563803385
 20
1127.404106614584
 30
0.0
 11
5435.842783185038
 21
1151.404106614584
 31
0.0
  0
LINE
  5
201EF
330
747D
100
AcDbEntity
  8
細線
 48
50.0
100
AcDbLine
 10
5363.385518856139
 20
1127.404106614584
 30
0.0
 11
5356.954738237791
 21
1151.404106614584
 31
0.0
  0
ARC
  5
201F0
330
747D
100
AcDbEntity
  8
部品1
 48
50.0
100
AcDbCircle
 10
5354.335963347283
 20
1271.404106614584
 30
0.0
 40
24.0
100
AcDbArc
 50
340.5287793654722
 51
0.0
  0
CIRCLE
  5
201F1
330
747D
100
AcDbEntity
  8
部品1
 48
50.0
100
AcDbCircle
 10
5482.335963347282
 20
1271.404106614584
 30
0.0
 40
8.0
  0
LINE
  5
201F2
330
747D
100
AcDbEntity
  8
細線
 48
50.0
100
AcDbLine
 10
5514.54151139643
 20
1263.404106614584
 30
0.0
 11
5578.335963347282
 21
1327.198558565435
 31
0.0
  0
LINE
  5
201F3
330
747D
100
AcDbEntity
  8
細線
 48
50.0
100
AcDbLine
 10
5651.070982632285
 20
1023.404106614582
 30
0.0
 11
5658.335963347283
 21
1050.517383758972
 31
0.0
  0
LINE
  5
201F4
330
747D
100
AcDbEntity
  8
細線
 48
50.0
100
AcDbLine
 10
5657.501763250635
 20
1047.404106614584
 30
0.0
 11
5658.335963347283
 21
1044.290829470219
 31
0.0
  0
LINE
  5
201F5
330
747D
100
AcDbEntity
  8
細線
 48
50.0
100
AcDbLine
 10
5578.613718303388
 20
1047.404106614584
 30
0.0
 11
5585.044498921735
 21
1023.404106614584
 31
0.0
  0
LINE
  5
201F6
330
747D
100
AcDbEntity
  8
細線
 48
50.0
100
AcDbLine
 10
5420.837628408896
 20
1047.404106614584
 30
0.0
 11
5427.268409027242
 21
1023.404106614584
 31
0.0
  0
LINE
  5
201F7
330
747D
100
AcDbEntity
  8
細線
 48
50.0
100
AcDbLine
 10
5499.725673356141
 20
1047.404106614584
 30
0.0
 11
5506.156453974488
 21
1023.404106614584
 31
0.0
  0
LINE
  5
201F8
330
747D
100
AcDbEntity
  8
細線
 48
50.0
100
AcDbLine
 10
5493.294892737791
 20
1023.404106614582
 30
0.0
 11
5527.592389368976
 21
1151.404106614582
 31
0.0
  0
LINE
  5
201F9
330
747D
100
AcDbEntity
  8
細線
 48
50.0
100
AcDbLine
 10
5414.406847790542
 20
1023.404106614584
 30
0.0
 11
5448.704344421729
 21
1151.404106614582
 31
0.0
  0
LINE
  5
201FA
330
747D
100
AcDbEntity
  8
細線
 48
50.0
100
AcDbLine
 10
5572.182937685036
 20
1023.404106614584
 30
0.0
 11
5606.480434316221
 21
1151.404106614582
 31
0.0
  0
LINE
  5
201FB
330
747D
100
AcDbEntity
  8
部品1
 48
50.0
100
AcDbLine
 10
5658.335963347287
 20
1151.404106614584
 30
0.0
 11
5658.335963347287
 21
1023.404106614584
 31
0.0
  0
LINE
  5
201FC
330
747D
100
AcDbEntity
  8
部品1
 48
50.0
100
AcDbLine
 10
5346.335963347282
 20
1329.531321311706
 30
0.0
 11
5346.335963347282
 21
1271.404106614584
 31
0.0
  0
LINE
  5
201FD
330
747D
100
AcDbEntity
  8
細線
 48
50.0
100
AcDbLine
 10
5272.074596127566
 20
1263.404106614584
 30
0.0
 11
5330.335963347283
 21
1321.665473834302
 31
0.0
  0
LINE
  5
201FE
330
747D
100
AcDbEntity
  8
部品1
 48
50.0
100
AcDbLine
 10
5330.335963347283
 20
1329.531321311706
 30
0.0
 11
5330.335963347283
 21
1271.404106614584
 31
0.0
  0
LINE
  5
201FF
330
747D
100
AcDbEntity
  8
細線
 48
50.0
100
AcDbLine
 10
5187.015364490772
 20
1151.404106614584
 30
0.0
 11
5283.015364490772
 21
1247.404106614584
 31
0.0
  0
LINE
  5
20200
330
747D
100
AcDbEntity
  8
細線
 48
50.0
100
AcDbLine
 10
5284.497473908887
 20
1127.404106614584
 30
0.0
 11
5278.06669329054
 21
1151.404106614584
 31
0.0
  0
LINE
  5
20201
330
747D
100
AcDbEntity
  8
細線
 48
50.0
100
AcDbLine
 10
5205.609428961634
 20
1127.404106614584
 30
0.0
 11
5199.178648343288
 21
1151.404106614584
 31
0.0
  0
ARC
  5
20202
330
747D
100
AcDbEntity
  8
部品1
 48
50.0
100
AcDbCircle
 10
5354.335963347283
 20
1271.404106614584
 30
0.0
 40
24.0
100
AcDbArc
 50
180.0
 51
199.4712206345277
  0
LINE
  5
20203
330
747D
100
AcDbEntity
  8
細線
 48
50.0
100
AcDbLine
 10
5299.015364490771
 20
1263.404106614584
 30
0.0
 11
5330.335963347283
 21
1294.724705471095
 31
0.0
  0
CIRCLE
  5
20204
330
747D
100
AcDbEntity
  8
部品1
 48
50.0
100
AcDbCircle
 10
5226.335963347283
 20
1271.404106614584
 30
0.0
 40
8.0
  0
LINE
  5
20205
330
747D
100
AcDbEntity
  8
部品1
 48
50.0
100
AcDbLine
 10
5346.335963347282
 20
1329.531321311706
 30
0.0
 11
5330.335963347283
 21
1329.531321311706
 31
0.0
  0
LINE
  5
20206
330
747D
100
AcDbEntity
  8
細線
 48
50.0
100
AcDbLine
 10
5050.335963347283
 20
1136.744027580363
 30
0.0
 11
5054.264119685479
 21
1151.404106614584
 31
0.0
  0
LINE
  5
20207
330
747D
100
AcDbEntity
  8
細線
 48
50.0
100
AcDbLine
 10
5126.721384014383
 20
1127.404106614584
 30
0.0
 11
5120.290603396036
 21
1151.404106614584
 31
0.0
  0
LINE
  5
20208
330
747D
100
AcDbEntity
  8
部品1
 48
50.0
100
AcDbLine
 10
5186.335963347283
 20
1263.404106614584
 30
0.0
 11
5186.335963347283
 21
1247.404106614584
 31
0.0
  0
LINE
  5
20209
330
747D
100
AcDbEntity
  8
細線
 48
50.0
100
AcDbLine
 10
5133.133827764355
 20
1151.404106614584
 30
0.0
 11
5229.133827764355
 21
1247.404106614584
 31
0.0
  0
LINE
  5
2020A
330
747D
100
AcDbEntity
  8
細線
 48
50.0
100
AcDbLine
 10
5160.074596127566
 20
1151.404106614584
 30
0.0
 11
5256.074596127566
 21
1247.404106614584
 31
0.0
  0
LINE
  5
2020B
330
747D
100
AcDbEntity
  8
細線
 48
50.0
100
AcDbLine
 10
5263.061538514397
 20
1047.404106614584
 30
0.0
 11
5269.492319132743
 21
1023.404106614584
 31
0.0
  0
LINE
  5
2020C
330
747D
100
AcDbEntity
  8
細線
 48
50.0
100
AcDbLine
 10
5341.94958346165
 20
1047.404106614584
 30
0.0
 11
5348.380364079996
 21
1023.404106614584
 31
0.0
  0
LINE
  5
2020D
330
747D
100
AcDbEntity
  8
細線
 48
50.0
100
AcDbLine
 10
5105.285448619894
 20
1047.404106614584
 30
0.0
 11
5111.71622923824
 21
1023.404106614584
 31
0.0
  0
LINE
  5
2020E
330
747D
100
AcDbEntity
  8
細線
 48
50.0
100
AcDbLine
 10
5184.173493567144
 20
1047.404106614584
 30
0.0
 11
5190.604274185492
 21
1023.404106614584
 31
0.0
  0
LINE
  5
2020F
330
747D
100
AcDbEntity
  8
部品1
 48
50.0
100
AcDbLine
 10
5050.335963347285
 20
1023.404106614584
 30
0.0
 11
5050.335963347285
 21
1151.404106614584
 31
0.0
  0
LINE
  5
20210
330
747D
100
AcDbEntity
  8
細線
 48
50.0
100
AcDbLine
 10
5098.854668001541
 20
1023.404106614582
 30
0.0
 11
5133.152164632724
 21
1151.404106614582
 31
0.0
  0
LINE
  5
20211
330
747D
100
AcDbEntity
  8
細線
 48
50.0
100
AcDbLine
 10
5256.630757896044
 20
1023.404106614582
 30
0.0
 11
5290.928254527227
 21
1151.404106614582
 31
0.0
  0
LINE
  5
20212
330
747D
100
AcDbEntity
  8
細線
 48
50.0
100
AcDbLine
 10
5177.742712948798
 20
1023.404106614584
 30
0.0
 11
5212.040209579981
 21
1151.404106614584
 31
0.0
  0
LINE
  5
20213
330
747D
100
AcDbEntity
  8
細線
 48
50.0
100
AcDbLine
 10
5348.659974670016
 20
1151.404106614584
 30
0.0
 11
5444.659974670016
 21
1247.404106614584
 31
0.0
  0
CIRCLE
  5
20214
330
747D
100
AcDbEntity
  8
部品1
 48
50.0
100
AcDbCircle
 10
5354.335963347283
 20
1271.404106614584
 30
0.0
 40
8.0
  0
LINE
  5
20215
330
747D
100
AcDbEntity
  8
部品1
 48
50.0
100
AcDbLine
 10
5658.335963347287
 20
1151.404106614584
 30
0.0
 11
5050.335963347285
 21
1151.404106614584
 31
0.0
  0
LINE
  5
20216
330
747D
100
AcDbEntity
  8
部品1
 48
50.0
100
AcDbLine
 10
5186.335963347283
 20
1263.404106614584
 30
0.0
 11
5522.335963347283
 21
1263.404106614584
 31
0.0
  0
LINE
  5
20217
330
747D
100
AcDbEntity
  8
部品1
 48
50.0
100
AcDbLine
 10
5186.335963347283
 20
1247.404106614584
 30
0.0
 11
5522.335963347283
 21
1247.404106614584
 31
0.0
  0
LINE
  5
20218
330
747D
100
AcDbEntity
  8
部品1
 48
50.0
100
AcDbLine
 10
5658.335963347287
 20
1023.404106614584
 30
0.0
 11
5050.335963347285
 21
1023.404106614584
 31
0.0
  0
LINE
  5
20219
330
747D
100
AcDbEntity
  8
細線
 48
50.0
100
AcDbLine
 10
5335.518802843297
 20
1023.404106614584
 30
0.0
 11
5369.81629947448
 21
1151.404106614584
 31
0.0
  0
LINE
  5
2021A
330
747D
100
AcDbEntity
  8
細線
 48
50.0
100
AcDbLine
 10
5346.335963347282
 20
1310.724705471095
 30
0.0
 11
5362.335963347288
 21
1326.724705471095
 31
0.0
  0
LINE
  5
2021B
330
747D
100
AcDbEntity
  8
部品1
 48
50.0
100
AcDbLine
 10
5362.335963347288
 20
1271.404106614584
 30
0.0
 11
5362.335963347276
 21
1795.658536008829
 31
0.0
  0
LINE
  5
2021C
330
747D
100
AcDbEntity
  8
部品1
 48
50.0
100
AcDbLine
 10
5378.335963347288
 20
1271.404106614584
 30
0.0
 11
5378.335963347282
 21
1795.658536008829
 31
0.0
  0
LINE
  5
2021D
330
747D
100
AcDbEntity
  8
部品1
 48
50.0
100
AcDbLine
 10
5578.335963347282
 20
1391.404106614584
 30
0.0
 11
5578.335963347282
 21
1151.404106614584
 31
0.0
  0
LINE
  5
2021E
330
747D
100
AcDbEntity
  8
細線
 48
50.0
100
AcDbLine
 10
5460.659974670011
 20
1263.404106614584
 30
0.0
 11
5578.335963347282
 21
1381.08009529185
 31
0.0
  0
LINE
  5
2021F
330
747D
100
AcDbEntity
  8
細線
 48
50.0
100
AcDbLine
 10
5487.600743033226
 20
1263.404106614584
 30
0.0
 11
5578.335963347282
 21
1354.139326928643
 31
0.0
  0
LINE
  5
20220
330
747D
100
AcDbEntity
  8
部品1
 48
50.0
100
AcDbLine
 10
5130.335963347283
 20
1151.404106614584
 30
0.0
 11
5130.335963347283
 21
1391.404106614584
 31
0.0
  0
LINE
  5
20221
330
747D
100
AcDbEntity
  8
細線
 48
50.0
100
AcDbLine
 10
5245.133827764355
 20
1263.404106614584
 30
0.0
 11
5362.335963347283
 21
1380.606242197509
 31
0.0
  0
LINE
  5
20222
330
747D
100
AcDbEntity
  8
細線
 48
50.0
100
AcDbLine
 10
5338.201810824687
 20
1329.531321311706
 30
0.0
 11
5362.335963347288
 21
1353.665473834305
 31
0.0
  0
LINE
  5
20223
330
747D
100
AcDbEntity
  8
細線
 48
50.0
100
AcDbLine
 10
5130.335963347276
 20
1310.250852376755
 30
0.0
 11
5211.489217585111
 21
1391.404106614584
 31
0.0
  0
LEADER
  5
20224
330
747D
100
AcDbEntity
  8
寸法
 48
50.0
100
AcDbLeader
  3
INABA_S40G
 71
     0
 73
     0
 74
     0
 75
     1
 40
100.0
 41
222.7272727272727
 76
     3
 10
5354.335963347281
 20
1795.658536008829
 30
0.0
 10
5413.221900374677
 20
1736.671667913511
 30
0.0
 10
5513.221900374677
 20
1736.671667913511
 30
0.0
1001
ACAD
1000
DSTYLE
1002
{
1070
   174
1070
     0
1070
   272
1070
     1
1070
   279
1070
     1
1070
   288
1070
     0
1070
   341
1005
0
1002
}
  0
LWPOLYLINE
  5
20225
330
747D
100
AcDbEntity
  8
部品1
 48
50.0
100
AcDbPolyline
 90
        2
 70
     0
 43
8.0
 10
5450.335963347281
 20
1695.404106614585
 10
5864.475865180239
 20
1695.404106614585
  0
MTEXT
  5
20226
102
{ACAD_REACTORS
330
20228
102
}
330
747D
100
AcDbEntity
  8
寸法
 62
     7
 48
50.0
100
AcDbMText
 10
5681.663623153967
 20
1236.007037671611
 30
0.0
 40
80.0
 41
0.8
 71
     4
 72
     1
  1
D10
  7
STYLE2
 73
     1
 44
1.0
1001
ACAD
1000
MTEXTBEGIN
1070
    73
1070
     1
1070
    44
1040
1.0
1070
    74
1070
     0
1000
MTEXTEND
  0
LEADER
  5
20227
330
747D
100
AcDbEntity
  8
寸法
 48
50.0
100
AcDbLeader
  3
INABA_S40G
 71
     0
 73
     0
 74
     0
 75
     1
 40
100.0
 41
540.3409090909091
 76
     3
 10
5428.281132360456
 20
1254.663576201058
 30
0.0
 10
5572.074419208533
 20
913.0327582061608
 30
0.0
 10
5672.074419208533
 20
913.0327582061608
 30
0.0
213
0.0
223
-1.022262676269383
233
0.0
1001
ACAD
1000
DSTYLE
1002
{
1070
   174
1070
     0
1070
   272
1070
     1
1070
   279
1070
     1
1070
   288
1070
     0
1070
   341
1005
0
1002
}
  0
LEADER
  5
20228
330
747D
100
AcDbEntity
  8
寸法
 48
50.0
100
AcDbLeader
  3
INABA_S40G
 71
     0
 73
     0
 74
     0
 75
     1
 40
100.0
 41
225.0
 76
     3
 10
5482.238915699425
 20
1271.404106614584
 30
0.0
 10
5561.663623153967
 20
1176.007037671611
 30
0.0
 10
5661.663623153967
 20
1176.007037671611
 30
0.0
1001
ACAD
1000
DSTYLE
1002
{
1070
   174
1070
     0
1070
   272
1070
     1
1070
   279
1070
     1
1070
   288
1070
     0
1070
   341
1005
0
1002
}
  0
MTEXT
  5
20229
102
{ACAD_REACTORS
330
20224
102
}
330
747D
100
AcDbEntity
  8
寸法
 62
     7
 48
50.0
100
AcDbMText
 10
5533.221900374677
 20
1796.671667913511
 30
0.0
 40
80.0
 41
0.8
 71
     4
 72
     1
  1
D13
  7
STYLE2
 73
     1
 44
1.0
1001
ACAD
1000
MTEXTBEGIN
1070
    73
1070
     1
1070
    44
1040
1.0
1070
    74
1070
     0
1000
MTEXTEND
  0
LINE
  5
2022A
330
747D
100
AcDbEntity
  8
部品1
 48
50.0
100
AcDbLine
 10
5450.335963347282
 20
1935.404106614583
 30
0.0
 11
5450.335963347282
 21
1391.404106614584
 31
0.0
  0
LINE
  5
2022B
330
747D
100
AcDbEntity
  8
部品1
 48
50.0
100
AcDbLine
 10
5258.335963347283
 20
1391.404106614584
 30
0.0
 11
5258.335963347283
 21
1935.404106614583
 31
0.0
  0
CIRCLE
  5
2022C
330
747D
100
AcDbEntity
  8
部品1
 48
50.0
100
AcDbCircle
 10
5354.335963347283
 20
1795.658536008829
 30
0.0
 40
8.0
  0
ARC
  5
2022D
330
747D
100
AcDbEntity
  8
部品1
 48
50.0
100
AcDbCircle
 10
5354.335963347283
 20
1795.658536008829
 30
0.0
 40
24.0
100
AcDbArc
 50
0.0
 51
180.0
  0
LINE
  5
2022E
330
747D
100
AcDbEntity
  8
細線
 48
50.0
100
AcDbLine
 10
5378.335963347282
 20
1773.776999282414
 30
0.0
 11
5450.335963347282
 21
1845.776999282414
 31
0.0
  0
LEADER
  5
2022F
330
747D
100
AcDbEntity
  8
寸法
 48
50.0
100
AcDbLeader
  3
INABA_S40G
 73
     0
 75
     1
 40
106.3636363636363
 41
903.5235024184547
 76
     3
 10
7089.775276524476
 20
2004.964106614585
 30
0.0
 10
7031.351204179538
 20
2364.023681330917
 30
0.0
 10
6931.351204179538
 20
2364.023681330917
 30
0.0
340
20230
1001
ACAD
1000
DSTYLE
1002
{
1070
   174
1070
     0
1070
   272
1070
     1
1070
   279
1070
     1
1070
   288
1070
     0
1070
   341
1005
0
1002
}
  0
MTEXT
  5
20230
102
{ACAD_REACTORS
330
2022F
102
}
330
747D
100
AcDbEntity
  8
寸法
 62
     7
 48
50.0
100
AcDbMText
 10
6891.351204179537
 20
2457.205499512736
 30
0.0
 40
80.0
 41
0.8
 71
     6
 72
     1
  1
アンカープレート {\fArial|b0|i0|c0|p32;U}
  7
STYLE2
 73
     1
 44
1.0
1001
ACAD
1000
MTEXTBEGIN
1070
    73
1070
     1
1070
    44
1040
1.0
1070
    74
1070
     0
1000
MTEXTEND
  0
DIMENSION
  5
20231
330
747D
100
AcDbEntity
  8
寸法
 48
50.0
100
AcDbDimension
  2
*D23
 10
5578.335963347281
 20
612.9744686094236
 30
0.0
 11
5334.239204669058
 21
612.9744686094236
 31
0.0
 70
   160
  1
300
 71
     5
 42
448.0
  3
INABA_S40G
100
AcDbAlignedDimension
 13
5130.335963347282
 23
1023.404106614584
 33
0.0
 14
5578.335963347281
 24
1023.404106614584
 34
0.0
100
AcDbRotatedDimension
1001
ACAD
1000
DSTYLE
1002
{
1070
   174
1070
     0
1070
   272
1070
     1
1070
   279
1070
     1
1070
   288
1070
     0
1070
   341
1005
0
1002
}
  0
MTEXT
  5
20232
102
{ACAD_REACTORS
330
2023A
102
}
330
747D
100
AcDbEntity
  8
寸法
 62
     7
 48
50.0
100
AcDbMText
 10
4959.400937152088
 20
1067.881412996147
 30
0.0
 40
80.0
 41
0.8
 71
     6
 72
     1
  1
D10
  7
STYLE2
 73
     1
 44
1.0
1001
ACAD
1000
MTEXTBEGIN
1070
    73
1070
     1
1070
    44
1040
1.0
1070
    74
1070
     0
1000
MTEXTEND
  0
MTEXT
  5
20233
102
{ACAD_REACTORS
330
20239
102
}
330
747D
100
AcDbEntity
  8
寸法
 62
     7
 48
50.0
100
AcDbMText
 10
4987.523664709523
 20
887.565260456704
 30
0.0
 40
80.0
 41
0.8
 71
     6
 72
     1
  1
D13
  7
STYLE2
 73
     1
 44
1.0
1001
ACAD
1000
MTEXTBEGIN
1070
    73
1070
     1
1070
    44
1040
1.0
1070
    74
1070
     0
1000
MTEXTEND
  0
DIMENSION
  5
20234
330
747D
100
AcDbEntity
  8
寸法
 48
50.0
100
AcDbDimension
  2
*D24
 10
4523.298724785542
 20
1151.404106614584
 30
0.0
 11
4523.298724785542
 21
1522.944256270584
 31
0.0
 70
   160
  1
540
 71
     5
 42
784.0
  3
INABA_S40G
100
AcDbAlignedDimension
 13
5258.335963347281
 23
1935.404106614583
 33
0.0
 14
5050.335963347285
 24
1151.404106614584
 34
0.0
 50
90.0
100
AcDbRotatedDimension
1001
ACAD
1000
DSTYLE
1002
{
1070
   174
1070
     0
1070
   272
1070
     1
1070
   279
1070
     1
1070
   288
1070
     0
1070
   341
1005
0
1002
}
  0
MTEXT
  5
20235
102
{ACAD_REACTORS
330
20236
102
}
330
747D
100
AcDbEntity
  8
寸法
 62
     7
 48
50.0
100
AcDbMText
 10
5038.237483864008
 20
2147.920326616626
 30
0.0
 40
80.0
 41
0.8
 71
     6
 72
     1
  1
\A1;金コテ押エ
  7
STYLE2
 73
     1
 44
1.0
1001
ACAD
1000
MTEXTBEGIN
1070
    73
1070
     1
1070
    44
1040
1.0
1070
    74
1070
     0
1000
MTEXTEND
  0
LEADER
  5
20236
330
747D
100
AcDbEntity
  8
寸法
 48
50.0
100
AcDbLeader
  3
INABA_S40G
 71
     0
 73
     0
 75
     1
 40
130.1136363636363
 41
651.1363636363636
 76
     3
 10
5338.335963347282
 20
1935.404106614583
 30
0.0
 10
5200.911383183266
 20
2075.874872071172
 30
0.0
 10
5100.911383183266
 20
2075.874872071172
 30
0.0
1001
ACAD
1000
DSTYLE
1002
{
1070
   174
1070
     0
1070
   272
1070
     1
1070
   279
1070
     1
1070
   288
1070
     0
1070
   341
1005
0
1002
}
  0
LEADER
  5
20237
330
747D
100
AcDbEntity
  8
寸法
 48
50.0
100
AcDbLeader
  3
INABA_S40G
 71
     0
 73
     0
 75
     1
 40
100.0
 41
540.3409090909091
 76
     3
 10
5362.335963347282
 20
1693.531321311707
 30
0.0
 10
5279.353726818584
 20
1472.060992770902
 30
0.0
 10
5179.353726818583
 20
1472.060992770902
 30
0.0
213
-9.732182305893367
223
-4.643716661138569
233
0.0
1001
ACAD
1000
DSTYLE
1002
{
1070
   174
1070
     0
1070
   272
1070
     1
1070
   279
1070
     1
1070
   288
1070
     0
1070
   341
1005
0
1002
}
  0
MTEXT
  5
20238
102
{ACAD_REACTORS
330
20237
102
}
330
747D
100
AcDbEntity
  8
寸法
 62
     7
 48
50.0
100
AcDbMText
 10
5169.085909124477
 20
1536.70470943204
 30
0.0
 40
80.0
 41
0.8
 71
     6
 72
     1
  1
\A1;D10@300
  7
STYLE2
 73
     1
 44
1.0
1001
ACAD
1000
MTEXTBEGIN
1070
    73
1070
     1
1070
    44
1040
1.0
1070
    74
1070
     0
1000
MTEXTEND
  0
LEADER
  5
20239
330
747D
100
AcDbEntity
  8
寸法
 48
50.0
100
AcDbLeader
  3
INABA_S40G
 71
     0
 73
     0
 75
     1
 40
100.0
 41
222.7272727272727
 76
     3
 10
5354.335963347281
 20
1271.404106614584
 30
0.0
 10
5107.523664709522
 20
827.5652604567039
 30
0.0
 10
5007.523664709522
 20
827.5652604567039
 30
0.0
1001
ACAD
1000
DSTYLE
1002
{
1070
   174
1070
     0
1070
   272
1070
     1
1070
   279
1070
     1
1070
   288
1070
     0
1070
   341
1005
0
1002
}
  0
LEADER
  5
2023A
330
747D
100
AcDbEntity
  8
寸法
 48
50.0
100
AcDbLeader
  3
INABA_S40G
 71
     0
 73
     0
 75
     1
 40
100.0
 41
225.0
 76
     3
 10
5226.238915699426
 20
1271.404106614584
 30
0.0
 10
5079.400937152088
 20
1007.881412996147
 30
0.0
 10
4979.400937152088
 20
1007.881412996147
 30
0.0
1001
ACAD
1000
DSTYLE
1002
{
1070
   174
1070
     0
1070
   272
1070
     1
1070
   279
1070
     1
1070
   288
1070
     0
1070
   341
1005
0
1002
}
  0
DIMENSION
  5
2023B
330
747D
100
AcDbEntity
  8
寸法
 48
50.0
100
AcDbDimension
  2
*D25
 10
4987.915649614823
 20
1151.404106614584
 30
0.0
 11
4987.915649614823
 21
1271.404106614584
 31
0.0
 70
   160
  1
150
 71
     5
 42
240.0
  3
INABA_S40G
100
AcDbAlignedDimension
 13
5130.335963347282
 23
1391.404106614584
 33
0.0
 14
5050.335963347285
 24
1151.404106614584
 34
0.0
 50
90.0
100
AcDbRotatedDimension
1001
ACAD
1000
DSTYLE
1002
{
1070
   174
1070
     0
1070
   272
1070
     1
1070
   279
1070
     1
1070
   288
1070
     0
1070
   341
1005
0
1002
}
  0
TEXT
  5
2023C
330
747D
100
AcDbEntity
  8
部品1
 48
50.0
100
AcDbText
 10
4844.196061514325
 20
1706.643098897839
 30
0.0
 40
80.0
  1
▽G.L
  7
STYLE2
100
AcDbText
  0
LWPOLYLINE
  5
2023D
330
747D
100
AcDbEntity
  8
部品1
 48
50.0
100
AcDbPolyline
 90
        2
 70
     0
 43
8.0
 10
4844.196061514325
 20
1695.404106614585
 10
5258.335963347281
 20
1695.404106614585
  0
MTEXT
  5
2023E
102
{ACAD_REACTORS
330
2023F
102
}
330
747D
100
AcDbEntity
  8
寸法
 62
     7
 48
50.0
100
AcDbMText
 10
6864.708197971179
 20
2817.889771420249
 30
0.0
 40
80.0
 41
0.8
 71
     6
 72
     1
  1
\A1;φ70スリーブ
  7
STYLE2
 73
     1
 44
1.0
1001
ACAD
1000
MTEXTBEGIN
1070
    73
1070
     1
1070
    44
1040
1.0
1070
    74
1070
     0
1000
MTEXTEND
  0
LEADER
  5
2023F
330
747D
100
AcDbEntity
  8
寸法
 48
50.0
100
AcDbLeader
  3
INABA_S40G
 73
     0
 75
     1
 40
113.1818181818182
 41
608.6363636363635
 76
     3
 10
7148.512026662526
 20
1884.919779972863
 30
0.0
 10
7004.708197971179
 20
2721.298862329341
 30
0.0
 10
6904.708197971179
 20
2721.298862329341
 30
0.0
340
2023E
1001
ACAD
1000
DSTYLE
1002
{
1070
   174
1070
     0
1070
   272
1070
     1
1070
   279
1070
     1
1070
   288
1070
     0
1070
   341
1005
0
1002
}
  0
LINE
  5
20240
330
747D
100
AcDbEntity
  8
部品1
100
AcDbLine
 10
4187.667524538019
 20
3256.375726391429
 30
0.0
 11
4187.667524538021
 21
292.0687568067815
 31
0.0
  0
LEADER
  5
20241
330
747D
100
AcDbEntity
  8
寸法
 48
50.0
100
AcDbLeader
  3
INABA_S40G
 73
     0
 74
     0
 75
     1
 40
80.0
 41
435.0
 76
     3
 10
7188.775276524475
 20
1984.564106614584
 30
0.0
 10
7241.319738943795
 20
2119.787432767814
 30
0.0
 10
7341.319738943795
 20
2119.787432767814
 30
0.0
340
20242
1001
ACAD
1000
DSTYLE
1002
{
1070
   174
1070
     0
1070
   272
1070
     1
1070
   279
1070
     1
1070
   288
1070
     0
1070
   341
1005
0
1002
}
  0
MTEXT
  5
20242
102
{ACAD_REACTORS
330
20241
102
}
330
747D
100
AcDbEntity
  8
部品1
 62
     7
 48
50.0
100
AcDbMText
 10
7381.319738943794
 20
2199.787432767814
 30
0.0
 40
80.0
 41
0.8
 71
     4
 72
     1
  1
M10X160
  7
STYLE2
 73
     1
 44
1.0
1001
ACAD
1000
MTEXTBEGIN
1070
    73
1070
     1
1070
    44
1040
1.0
1070
    74
1070
     0
1000
MTEXTEND
  0
DIMENSION
  5
20243
330
747D
100
AcDbEntity
  8
寸法
 48
50.0
100
AcDbDimension
  2
*D26
 10
7874.24387629332
 20
1935.404106614583
 30
0.0
 11
8150.298542412349
 21
1910.280149010372
 31
0.0
 70
   160
  1
20～25
 71
     5
 42
52.76000000000113
  3
INABA_S40G
100
AcDbAlignedDimension
 13
7185.175276524477
 23
1988.164106614585
 33
0.0
 14
7372.375276524476
 24
1935.404106614583
 34
0.0
 50
90.0
100
AcDbRotatedDimension
1001
ACAD
1000
DSTYLE
1002
{
1070
   174
1070
     0
1070
   272
1070
     1
1070
   279
1070
     1
1070
   288
1070
     0
1070
   341
1005
0
1002
}
  0
DIMENSION
  5
20244
330
747D
100
AcDbEntity
  8
寸法
 48
50.0
100
AcDbDimension
  2
*D27
 10
7874.24387629332
 20
1611.404106614583
 30
0.0
 11
7774.24387629332
 21
1773.404106614584
 31
0.0
 70
    32
  1
180
 71
     5
 42
324.0000000000009
  3
INABA_S40G
100
AcDbAlignedDimension
 13
7372.375276524476
 23
1935.404106614583
 33
0.0
 14
7372.375276524476
 24
1611.404106614583
 34
0.0
 50
90.0
100
AcDbRotatedDimension
1001
ACAD
1000
DSTYLE
1002
{
1070
   174
1070
     0
1070
   272
1070
     1
1070
   279
1070
     1
1070
   288
1070
     0
1070
   341
1005
0
1002
}
  0
TEXT
  5
20245
330
747D
100
AcDbEntity
  8
部品1
 48
50.0
100
AcDbText
 10
7376.728860808904
 20
2291.282787376784
 30
0.0
 40
80.0
  1
基礎ボルト(市販品)
  7
STYLE2
100
AcDbText
  0
LWPOLYLINE
  5
20246
330
747D
100
AcDbEntity
  8
部品1
 48
50.0
100
AcDbPolyline
 90
        2
 70
     0
 43
8.0
 10
7372.375276524476
 20
1695.404106614585
 10
7666.07773992386
 20
1695.404106614585
  0
MTEXT
  5
20247
102
{ACAD_REACTORS
330
20248
102
}
330
747D
100
AcDbEntity
  8
部品1
 62
     7
 48
50.0
100
AcDbMText
 10
7411.646866893317
 20
2635.899479701844
 30
0.0
 40
80.0
 41
0.8
 71
     4
 72
     1
  1
\A1;ワッシャー(市販品)
  7
STYLE2
 73
     1
 44
1.0
1001
ACAD
1000
MTEXTBEGIN
1070
    73
1070
     1
1070
    44
1040
1.0
1070
    74
1070
     0
1000
MTEXTEND
  0
LEADER
  5
20248
330
747D
100
AcDbEntity
  8
寸法
 48
50.0
100
AcDbLeader
  3
INABA_S40G
 73
     0
 74
     0
 75
     1
 40
102.2727272727273
 41
906.8181818181818
 76
     3
 10
7219.775276524476
 20
2204.527395058863
 30
0.0
 10
7271.646866893316
 20
2544.76311606548
 30
0.0
 10
7371.646866893316
 20
2544.76311606548
 30
0.0
340
20247
1001
ACAD
1000
DSTYLE
1002
{
1070
   174
1070
     0
1070
   272
1070
     1
1070
   279
1070
     1
1070
   288
1070
     0
1070
   341
1005
0
1002
}
  0
MTEXT
  5
20249
102
{ACAD_REACTORS
330
2024A
102
}
330
747D
100
AcDbEntity
  8
部品1
 62
     7
 48
50.0
100
AcDbMText
 10
7380.129247637833
 20
2820.868562466632
 30
0.0
 40
80.0
 41
0.8
 71
     4
 72
     1
  1
\A1;ナット(市販品)
  7
STYLE2
 73
     1
 44
1.0
1001
ACAD
1000
MTEXTBEGIN
1070
    73
1070
     1
1070
    44
1040
1.0
1070
    74
1070
     0
1000
MTEXTEND
  0
LEADER
  5
2024A
330
747D
100
AcDbEntity
  8
寸法
 48
50.0
100
AcDbLeader
  3
INABA_S40G
 73
     0
 74
     0
 75
     1
 40
102.2727272727273
 41
680.0000000000001
 76
     3
 10
7195.775276524476
 20
2334.279387723726
 30
0.0
 10
7240.129247637835
 20
2729.732198830268
 30
0.0
 10
7340.129247637834
 20
2729.732198830268
 30
0.0
340
20249
1001
ACAD
1000
DSTYLE
1002
{
1070
   174
1070
     0
1070
   272
1070
     1
1070
   279
1070
     1
1070
   288
1070
     0
1070
   341
1005
0
1002
}
  0
LINE
  5
2024B
330
747D
100
AcDbEntity
  8
部品1
100
AcDbLine
 10
4187.667524538023
 20
292.0687568067815
 30
0.0
 11
10258.65270992427
 21
292.0687568067815
 31
0.0
  0
LINE
  5
2024C
330
747D
100
AcDbEntity
  8
部品1
100
AcDbLine
 10
10258.65270992427
 20
3016.375726391427
 30
0.0
 11
4187.667524538021
 21
3016.375726391427
 31
0.0
  0
LINE
  5
2024D
330
747D
100
AcDbEntity
  8
部品1
100
AcDbLine
 10
10258.65270992427
 20
3256.375726391429
 30
0.0
 11
4187.667524538017
 21
3256.375726391429
 31
0.0
  0
DIMENSION
  5
2033C
330
747D
100
AcDbEntity
  8
寸法
 48
50.0
100
AcDbDimension
  2
*D28
 10
8473.599999999999
 20
7193.419405505905
 30
0.0
 11
8468.653355157629
 21
7079.701396439498
 31
0.0
 70
   160
 71
     5
 42
109.9999999999982
  3
INABA_S40G
100
AcDbAlignedDimension
 13
8583.599999999997
 23
7478.925205146506
 33
0.0
 14
8473.599999999999
 24
7478.925205146504
 34
0.0
100
AcDbRotatedDimension
1001
ACAD
1000
DSTYLE
1002
{
1070
   174
1070
     0
1070
   272
1070
     1
1070
   279
1070
     2
1070
   288
1070
     0
1070
   341
1005
0
1002
}
  0
DIMENSION
  5
203C1
330
747D
100
AcDbEntity
  8
寸法
 48
50.0
100
AcDbDimension
  2
*D29
 10
8387.488445638419
 20
7478.925205146504
 30
0.0
 11
8283.635803680343
 21
7492.169252375228
 31
0.0
 70
   160
 71
     5
 42
110.0
  3
INABA_S40G
100
AcDbAlignedDimension
 13
8473.599999999997
 23
7588.925205146505
 33
0.0
 14
8473.599999999999
 24
7478.925205146504
 34
0.0
 50
90.0
100
AcDbRotatedDimension
1001
ACAD
1000
DSTYLE
1002
{
1070
   174
1070
     0
1070
   272
1070
     1
1070
   279
1070
     2
1070
   288
1070
     0
1070
   341
1005
0
1002
}
  0
LINE
  5
2040D
102
{ACAD_REACTORS
330
20414
102
}
330
747D
100
AcDbEntity
  8
細線
 48
50.0
100
AcDbLine
 10
8583.599999999998
 20
6653.515475176186
 30
0.0
 11
8629.009729970318
 21
6698.925205146508
 31
0.0
  0
LINE
  5
2040E
102
{ACAD_REACTORS
330
20414
102
}
330
747D
100
AcDbEntity
  8
細線
 48
50.0
100
AcDbLine
 10
8583.599999999998
 20
6608.61419457084
 30
0.0
 11
8673.911010575663
 21
6698.925205146506
 31
0.0
  0
LINE
  5
2040F
102
{ACAD_REACTORS
330
20414
102
}
330
747D
100
AcDbEntity
  8
細線
 48
50.0
100
AcDbLine
 10
8583.6
 20
6563.712913965495
 30
0.0
 11
8703.599999999999
 21
6683.712913965497
 31
0.0
  0
LINE
  5
20410
102
{ACAD_REACTORS
330
20414
102
}
330
747D
100
AcDbEntity
  8
細線
 48
50.0
100
AcDbLine
 10
8583.6
 20
6518.81163336015
 30
0.0
 11
8703.599999999999
 21
6638.811633360152
 31
0.0
  0
LINE
  5
20411
102
{ACAD_REACTORS
330
20414
102
}
330
747D
100
AcDbEntity
  8
細線
 48
50.0
100
AcDbLine
 10
8608.614852391699
 20
6498.925205146504
 30
0.0
 11
8703.599999999999
 21
6593.910352754805
 31
0.0
  0
LINE
  5
20412
102
{ACAD_REACTORS
330
20414
102
}
330
747D
100
AcDbEntity
  8
細線
 48
50.0
100
AcDbLine
 10
8653.516132997044
 20
6498.925205146504
 30
0.0
 11
8703.599999999999
 21
6549.009072149459
 31
0.0
  0
LINE
  5
20413
102
{ACAD_REACTORS
330
20414
102
}
330
747D
100
AcDbEntity
  8
細線
 48
50.0
100
AcDbLine
 10
8698.41741360239
 20
6498.925205146504
 30
0.0
 11
8703.599999999999
 21
6504.107791544114
 31
0.0
  0
LINE
  5
20415
102
{ACAD_REACTORS
330
2041C
102
}
330
747D
100
AcDbEntity
  8
細線
 48
50.0
100
AcDbLine
 10
7438.417413602391
 20
6498.925205146504
 30
0.0
 11
7443.599999999999
 21
6504.107791544114
 31
0.0
  0
LINE
  5
20416
102
{ACAD_REACTORS
330
2041C
102
}
330
747D
100
AcDbEntity
  8
細線
 48
50.0
100
AcDbLine
 10
7393.516132997044
 20
6498.925205146504
 30
0.0
 11
7443.599999999999
 21
6549.009072149459
 31
0.0
  0
LINE
  5
20417
102
{ACAD_REACTORS
330
2041C
102
}
330
747D
100
AcDbEntity
  8
細線
 48
50.0
100
AcDbLine
 10
7348.614852391699
 20
6498.925205146503
 30
0.0
 11
7443.599999999999
 21
6593.910352754805
 31
0.0
  0
LINE
  5
20418
102
{ACAD_REACTORS
330
2041C
102
}
330
747D
100
AcDbEntity
  8
細線
 48
50.0
100
AcDbLine
 10
7323.600000000002
 20
6518.81163336015
 30
0.0
 11
7443.599999999999
 21
6638.81163336015
 31
0.0
  0
LINE
  5
20419
102
{ACAD_REACTORS
330
2041C
102
}
330
747D
100
AcDbEntity
  8
細線
 48
50.0
100
AcDbLine
 10
7323.600000000002
 20
6563.712913965495
 30
0.0
 11
7443.599999999999
 21
6683.712913965496
 31
0.0
  0
LINE
  5
2041A
102
{ACAD_REACTORS
330
2041C
102
}
330
747D
100
AcDbEntity
  8
細線
 48
50.0
100
AcDbLine
 10
7323.599999999998
 20
6608.614194570839
 30
0.0
 11
7413.911010575664
 21
6698.925205146505
 31
0.0
  0
LINE
  5
2041B
102
{ACAD_REACTORS
330
2041C
102
}
330
747D
100
AcDbEntity
  8
細線
 48
50.0
100
AcDbLine
 10
7323.599999999998
 20
6653.515475176185
 30
0.0
 11
7369.009729970319
 21
6698.925205146507
 31
0.0
  0
LINE
  5
2041D
102
{ACAD_REACTORS
330
20426
102
}
330
747D
100
AcDbEntity
  8
細線
 48
50.0
100
AcDbLine
 10
7959.009729970318
 20
7708.925205146505
 30
0.0
 11
7913.599999999998
 21
7663.515475176184
 31
0.0
  0
LINE
  5
2041E
102
{ACAD_REACTORS
330
20426
102
}
330
747D
100
AcDbEntity
  8
細線
 48
50.0
100
AcDbLine
 10
8003.911010575665
 20
7708.925205146505
 30
0.0
 11
7913.600000000001
 21
7618.614194570842
 31
0.0
  0
LINE
  5
2041F
102
{ACAD_REACTORS
330
20426
102
}
330
747D
100
AcDbEntity
  8
細線
 48
50.0
100
AcDbLine
 10
8048.812291181009
 20
7708.925205146504
 30
0.0
 11
7928.812291181009
 21
7588.925205146505
 31
0.0
  0
LINE
  5
20420
102
{ACAD_REACTORS
330
20426
102
}
330
747D
100
AcDbEntity
  8
細線
 48
50.0
100
AcDbLine
 10
8093.713571786356
 20
7708.925205146504
 30
0.0
 11
7973.713571786355
 21
7588.925205146505
 31
0.0
  0
LINE
  5
20421
102
{ACAD_REACTORS
330
20426
102
}
330
747D
100
AcDbEntity
  8
細線
 48
50.0
100
AcDbLine
 10
8113.600000000003
 20
7683.910352754806
 30
0.0
 11
8018.614852391699
 21
7588.925205146505
 31
0.0
  0
LINE
  5
20422
102
{ACAD_REACTORS
330
20426
102
}
330
747D
100
AcDbEntity
  8
細線
 48
50.0
100
AcDbLine
 10
8113.600000000001
 20
7639.009072149462
 30
0.0
 11
8063.516132997046
 21
7588.925205146505
 31
0.0
  0
LINE
  5
20423
102
{ACAD_REACTORS
330
20426
102
}
330
747D
100
AcDbEntity
  8
細線
 48
50.0
100
AcDbLine
 10
8113.600000000001
 20
7594.107791544114
 30
0.0
 11
8108.417413602392
 21
7588.925205146505
 31
0.0
  0
TEXT
  5
205A8
330
747D
100
AcDbEntity
  8
文字
 62
     7
 48
50.0
100
AcDbText
 10
14816.49629419351
 20
1031.557706291228
 30
0.0
 40
100.0
  1
 <縮尺> S=1/40
  7
STYLE2
100
AcDbText
  0
ENDSEC
  0
SECTION
  2
OBJECTS
  0
DICTIONARY
  5
7471
330
0
100
AcDbDictionary
281
     1
  3
ACAD_COLOR
350
159B0
  3
ACAD_GROUP
350
7472
  3
ACAD_LAYOUT
350
159B1
  3
ACAD_MATERIAL
350
159AF
  3
ACAD_MLINESTYLE
350
7473
  3
ACAD_PLOTSETTINGS
350
159B2
  3
ACAD_PLOTSTYLENAME
350
159AD
  3
ACDBHEADERROUNDTRIPXREC
350
205AC
  3
AcDbVariableDictionary
350
1FF7A
  3
CONTENTDICTIONARY
350
E71C
  3
DRAWINGVARIABLESDICT
350
F3B9
  0
DICTIONARY
  5
1FFCE
330
7467
100
AcDbDictionary
280
     1
281
     1
  3
ACAD_LAYERSTATES
360
1FFCF
  0
DICTIONARY
  5
159B0
102
{ACAD_REACTORS
330
7471
102
}
330
7471
100
AcDbDictionary
281
     1
  0
DICTIONARY
  5
7472
102
{ACAD_REACTORS
330
7471
102
}
330
7471
100
AcDbDictionary
281
     1
  3
*A1
350
20414
  3
*A2
350
2041C
  3
*A3
350
20426
  0
DICTIONARY
  5
159B1
102
{ACAD_REACTORS
330
7471
102
}
330
7471
100
AcDbDictionary
281
     1
  3
Model
350
159B3
  3
レイアウト1
350
159B4
  0
DICTIONARY
  5
159AF
102
{ACAD_REACTORS
330
7471
102
}
330
7471
100
AcDbDictionary
281
     1
  0
DICTIONARY
  5
7473
102
{ACAD_REACTORS
330
7471
102
}
330
7471
100
AcDbDictionary
281
     1
  3
STANDARD
350
7480
  0
DICTIONARY
  5
159B2
102
{ACAD_REACTORS
330
7471
102
}
330
7471
100
AcDbDictionary
281
     1
  0
ACDBDICTIONARYWDFLT
  5
159AD
102
{ACAD_REACTORS
330
7471
102
}
330
7471
100
AcDbDictionary
281
     1
  3
Normal
350
159AE
100
AcDbDictionaryWithDefault
340
159AE
  0
DICTIONARY
  5
205AC
102
{ACAD_REACTORS
330
7471
102
}
330
7471
100
AcDbDictionary
281
     1
  3
COLORDICT
350
205AE
  3
MATERIALDICT
350
205AD
  0
DICTIONARY
  5
1FF7A
102
{ACAD_REACTORS
330
7471
102
}
330
7471
100
AcDbDictionary
281
     1
  3
DIMASSOC
350
1FF7B
  3
PROJECTNAME
350
1FF7C
  0
DICTIONARY
  5
E71C
102
{ACAD_REACTORS
330
7471
102
}
330
7471
100
AcDbDictionary
281
     1
  0
DICTIONARY
  5
F3B9
102
{ACAD_REACTORS
330
7471
102
}
330
7471
100
AcDbDictionary
281
     1
1001
DRAWINGVARIABLESXDATA
1000
POLARMODE
1000
1
  0
DICTIONARY
  5
1FFCF
102
{ACAD_REACTORS
330
1FFCE
102
}
330
1FFCE
100
AcDbDictionary
281
     1
  0
GROUP
  5
20414
102
{ACAD_REACTORS
330
7472
102
}
330
7472
100
AcDbGroup
300

 70
     1
 71
     1
340
20413
340
20412
340
20411
340
20410
340
2040F
340
2040E
340
2040D
  0
GROUP
  5
2041C
102
{ACAD_REACTORS
330
7472
102
}
330
7472
100
AcDbGroup
300

 70
     1
 71
     1
340
20415
340
20416
340
20417
340
20418
340
20419
340
2041A
340
2041B
  0
GROUP
  5
20426
102
{ACAD_REACTORS
330
7472
102
}
330
7472
100
AcDbGroup
300

 70
     1
 71
     1
340
20423
340
20422
340
20421
340
20420
340
2041F
340
2041E
340
2041D
  0
LAYOUT
  5
159B3
102
{ACAD_XDICTIONARY
360
205AF
102
}
102
{ACAD_REACTORS
330
159B1
102
}
330
159B1
100
AcDbPlotSettings
  1

  2
クセロPDF
  4
A3
  6

 40
3.174999952316284
 41
3.174999952316284
 42
3.17498779296875
 43
3.17498779296875
 44
419.9466552734374
 45
296.9259948730469
 46
0.0
 47
0.0
 48
0.0
 49
0.0
140
0.0
141
0.0
142
1.0
143
40.88431153497317
 70
 11952
 72
     1
 73
     0
 74
     2
  7
inaba.ctb
 75
     0
147
0.0244592598592392
148
0.0
149
0.0
100
AcDbLayout
  1
Model
 70
     1
 71
     0
 10
0.0
 20
0.0
 11
12.0
 21
9.0
 12
0.0
 22
0.0
 32
0.0
 14
0.0
 24
0.0
 34
0.0
 15
0.0
 25
0.0
 35
0.0
146
0.0
 13
0.0
 23
0.0
 33
0.0
 16
1.0
 26
0.0
 36
0.0
 17
0.0
 27
1.0
 37
0.0
 76
     0
330
747D
  0
LAYOUT
  5
159B4
102
{ACAD_XDICTIONARY
360
205B1
102
}
102
{ACAD_REACTORS
330
159B1
102
}
330
159B1
100
AcDbPlotSettings
  1

  2
自動 EPSON LP-8400FX (TATENO 上)
  4

  6

 40
0.0
 41
0.0
 42
0.0
 43
0.0
 44
0.0
 45
0.0
 46
0.0
 47
0.0
 48
0.0
 49
0.0
140
0.0
141
0.0
142
1.0
143
1.0
 70
   688
 72
     0
 73
     0
 74
     5
  7
inaba.ctb
 75
    16
147
1.0
148
0.0
149
0.0
100
AcDbLayout
  1
レイアウト1
 70
     0
 71
     1
 10
0.0
 20
0.0
 11
420.0
 21
297.0
 12
0.0
 22
0.0
 32
0.0
 14
1.000000000000000E+20
 24
1.000000000000000E+20
 34
1.000000000000000E+20
 15
-1.000000000000000E+20
 25
-1.000000000000000E+20
 35
-1.000000000000000E+20
146
0.0
 13
0.0
 23
0.0
 33
0.0
 16
1.0
 26
0.0
 36
0.0
 17
0.0
 27
1.0
 37
0.0
 76
     0
330
747A
  0
MLINESTYLE
  5
7480
102
{ACAD_REACTORS
330
7473
102
}
330
7473
100
AcDbMlineStyle
  2
STANDARD
 70
     0
  3

 62
     0
 51
90.0
 52
90.0
 71
     2
 49
0.5
 62
   256
  6
BYLAYER
 49
-0.5
 62
   256
  6
BYLAYER
  0
ACDBPLACEHOLDER
  5
159AE
102
{ACAD_REACTORS
330
159AD
102
}
330
159AD
  0
XRECORD
  5
205AE
102
{ACAD_REACTORS
330
205AC
102
}
330
205AC
100
AcDbXrecord
280
     1
340
159B0
  0
XRECORD
  5
205AD
102
{ACAD_REACTORS
330
205AC
102
}
330
205AC
100
AcDbXrecord
280
     1
340
159AF
  0
DICTIONARYVAR
  5
1FF7B
102
{ACAD_REACTORS
330
1FF7A
102
}
330
1FF7A
100
DictionaryVariables
280
     0
  1
1
  0
DICTIONARYVAR
  5
1FF7C
102
{ACAD_REACTORS
330
1FF7A
102
}
330
1FF7A
100
DictionaryVariables
280
     0
  1

  0
DICTIONARY
  5
205AF
330
159B3
100
AcDbDictionary
280
     1
281
     1
  3
ACAD_XREC_ROUNDTRIP
360
205B0
  0
DICTIONARY
  5
205B1
330
159B4
100
AcDbDictionary
280
     1
281
     1
  3
ACAD_XREC_ROUNDTRIP
360
205B2
  0
XRECORD
  5
205B0
102
{ACAD_REACTORS
330
205AF
102
}
330
205AF
100
AcDbXrecord
280
     1
102
SHADEPLOT
 70
     1
102
SHADEPLOTRESLEVEL
 70
     2
102
SHADEPLOTCUSTOMDPI
 70
   300
  0
XRECORD
  5
205B2
102
{ACAD_REACTORS
330
205B1
102
}
330
205B1
100
AcDbXrecord
280
     1
102
SHADEPLOT
 70
     0
102
SHADEPLOTRESLEVEL
 70
     2
102
SHADEPLOTCUSTOMDPI
 70
   300
  0
ENDSEC
  0
EOF
