  0
SECTION
  2
HEADER
  9
$ACADVER
  1
AC1015
  9
$ACADMAINTVER
 70
    20
  9
$DWGCODEPAGE
  3
ANSI_932
  9
$INSBASE
 10
0.0
 20
0.0
 30
0.0
  9
$EXTMIN
 10
139.9999999999995
 20
-0.0000000000000909
 30
0.0
  9
$EXTMAX
 10
16307.2
 20
11409.6
 30
0.0
  9
$LIMMIN
 10
0.0
 20
0.0
  9
$LIMMAX
 10
16800.0
 20
11880.0
  9
$ORTHOMODE
 70
     0
  9
$REGENMODE
 70
     1
  9
$FILLMODE
 70
     1
  9
$QTEXTMODE
 70
     0
  9
$MIRRTEXT
 70
     1
  9
$LTSCALE
 40
20.0
  9
$ATTMODE
 70
     1
  9
$TEXTSIZE
 40
4.0
  9
$TRACEWID
 40
1.0
  9
$TEXTSTYLE
  7
STYLE1
  9
$CLAYER
  8
細線
  9
$CELTYPE
  6
BYLAYER
  9
$CECOLOR
 62
   256
  9
$CELTSCALE
 40
50.0
  9
$DISPSILH
 70
     0
  9
$DIMSCALE
 40
40.0
  9
$DIMASZ
 40
2.5
  9
$DIMEXO
 40
0.5
  9
$DIMDLI
 40
7.0
  9
$DIMRND
 40
0.0
  9
$DIMDLE
 40
0.0
  9
$DIMEXE
 40
1.5
  9
$DIMTP
 40
0.0
  9
$DIMTM
 40
0.0
  9
$DIMTXT
 40
3.0
  9
$DIMCEN
 40
0.0
  9
$DIMTSZ
 40
0.0
  9
$DIMTOL
 70
     0
  9
$DIMLIM
 70
     0
  9
$DIMTIH
 70
     0
  9
$DIMTOH
 70
     0
  9
$DIMSE1
 70
     0
  9
$DIMSE2
 70
     0
  9
$DIMTAD
 70
     3
  9
$DIMZIN
 70
     8
  9
$DIMBLK
  1

  9
$DIMASO
 70
     1
  9
$DIMSHO
 70
     1
  9
$DIMPOST
  1

  9
$DIMAPOST
  1

  9
$DIMALT
 70
     0
  9
$DIMALTD
 70
     2
  9
$DIMALTF
 40
0.0394
  9
$DIMLFAC
 40
1.0
  9
$DIMTOFL
 70
     1
  9
$DIMTVP
 40
0.0
  9
$DIMTIX
 70
     1
  9
$DIMSOXD
 70
     0
  9
$DIMSAH
 70
     1
  9
$DIMBLK1
  1
DOTSMALL
  9
$DIMBLK2
  1
DOTSMALL
  9
$DIMSTYLE
  2
INABA_S40G
  9
$DIMCLRD
 70
     0
  9
$DIMCLRE
 70
     0
  9
$DIMCLRT
 70
     7
  9
$DIMTFAC
 40
1.0
  9
$DIMGAP
 40
1.0
  9
$DIMJUST
 70
     0
  9
$DIMSD1
 70
     0
  9
$DIMSD2
 70
     0
  9
$DIMTOLJ
 70
     1
  9
$DIMTZIN
 70
     0
  9
$DIMALTZ
 70
     0
  9
$DIMALTTZ
 70
     0
  9
$DIMUPT
 70
     0
  9
$DIMDEC
 70
     1
  9
$DIMTDEC
 70
     4
  9
$DIMALTU
 70
     2
  9
$DIMALTTD
 70
     2
  9
$DIMTXSTY
  7
STYLE1
  9
$DIMAUNIT
 70
     0
  9
$DIMADEC
 70
     0
  9
$DIMALTRND
 40
0.0
  9
$DIMAZIN
 70
     0
  9
$DIMDSEP
 70
    46
  9
$DIMATFIT
 70
     3
  9
$DIMFRAC
 70
     0
  9
$DIMLDRBLK
  1

  9
$DIMLUNIT
 70
     2
  9
$DIMLWD
 70
    -2
  9
$DIMLWE
 70
    -2
  9
$DIMTMOVE
 70
     0
  9
$LUNITS
 70
     2
  9
$LUPREC
 70
     1
  9
$SKETCHINC
 40
1.0
  9
$FILLETRAD
 40
3.0
  9
$AUNITS
 70
     0
  9
$AUPREC
 70
     0
  9
$MENU
  1
acad
  9
$ELEVATION
 40
0.0
  9
$PELEVATION
 40
0.0
  9
$THICKNESS
 40
0.0
  9
$LIMCHECK
 70
     0
  9
$CHAMFERA
 40
0.0
  9
$CHAMFERB
 40
0.0
  9
$CHAMFERC
 40
0.0
  9
$CHAMFERD
 40
0.0
  9
$SKPOLY
 70
     0
  9
$TDCREATE
 40
2451368.612993866
  9
$TDUCREATE
 40
2451368.237993866
  9
$TDUPDATE
 40
2455827.670952280
  9
$TDUUPDATE
 40
2455827.295952280
  9
$TDINDWG
 40
0.7106192477
  9
$TDUSRTIMER
 40
0.7106192477
  9
$USRTIMER
 70
     1
  9
$ANGBASE
 50
0.0
  9
$ANGDIR
 70
     0
  9
$PDMODE
 70
     3
  9
$PDSIZE
 40
2.0
  9
$PLINEWID
 40
0.0
  9
$SPLFRAME
 70
     0
  9
$SPLINETYPE
 70
     6
  9
$SPLINESEGS
 70
     8
  9
$HANDSEED
  5
21A22
  9
$SURFTAB1
 70
     6
  9
$SURFTAB2
 70
     6
  9
$SURFTYPE
 70
     6
  9
$SURFU
 70
     6
  9
$SURFV
 70
     6
  9
$UCSBASE
  2

  9
$UCSNAME
  2

  9
$UCSORG
 10
0.0
 20
0.0
 30
0.0
  9
$UCSXDIR
 10
1.0
 20
0.0
 30
0.0
  9
$UCSYDIR
 10
0.0
 20
1.0
 30
0.0
  9
$UCSORTHOREF
  2

  9
$UCSORTHOVIEW
 70
     0
  9
$UCSORGTOP
 10
0.0
 20
0.0
 30
0.0
  9
$UCSORGBOTTOM
 10
0.0
 20
0.0
 30
0.0
  9
$UCSORGLEFT
 10
0.0
 20
0.0
 30
0.0
  9
$UCSORGRIGHT
 10
0.0
 20
0.0
 30
0.0
  9
$UCSORGFRONT
 10
0.0
 20
0.0
 30
0.0
  9
$UCSORGBACK
 10
0.0
 20
0.0
 30
0.0
  9
$PUCSBASE
  2

  9
$PUCSNAME
  2

  9
$PUCSORG
 10
0.0
 20
0.0
 30
0.0
  9
$PUCSXDIR
 10
1.0
 20
0.0
 30
0.0
  9
$PUCSYDIR
 10
0.0
 20
1.0
 30
0.0
  9
$PUCSORTHOREF
  2

  9
$PUCSORTHOVIEW
 70
     0
  9
$PUCSORGTOP
 10
0.0
 20
0.0
 30
0.0
  9
$PUCSORGBOTTOM
 10
0.0
 20
0.0
 30
0.0
  9
$PUCSORGLEFT
 10
0.0
 20
0.0
 30
0.0
  9
$PUCSORGRIGHT
 10
0.0
 20
0.0
 30
0.0
  9
$PUCSORGFRONT
 10
0.0
 20
0.0
 30
0.0
  9
$PUCSORGBACK
 10
0.0
 20
0.0
 30
0.0
  9
$USERI1
 70
     0
  9
$USERI2
 70
     0
  9
$USERI3
 70
     0
  9
$USERI4
 70
     0
  9
$USERI5
 70
     0
  9
$USERR1
 40
0.0
  9
$USERR2
 40
0.0
  9
$USERR3
 40
0.0
  9
$USERR4
 40
0.0
  9
$USERR5
 40
0.0
  9
$WORLDVIEW
 70
     1
  9
$SHADEDGE
 70
     3
  9
$SHADEDIF
 70
    70
  9
$TILEMODE
 70
     1
  9
$MAXACTVP
 70
    16
  9
$PINSBASE
 10
0.0
 20
0.0
 30
0.0
  9
$PLIMCHECK
 70
     0
  9
$PEXTMIN
 10
1.000000000000000E+20
 20
1.000000000000000E+20
 30
1.000000000000000E+20
  9
$PEXTMAX
 10
-1.000000000000000E+20
 20
-1.000000000000000E+20
 30
-1.000000000000000E+20
  9
$PLIMMIN
 10
0.0
 20
0.0
  9
$PLIMMAX
 10
420.0
 20
297.0
  9
$UNITMODE
 70
     0
  9
$VISRETAIN
 70
     0
  9
$PLINEGEN
 70
     0
  9
$PSLTSCALE
 70
     0
  9
$TREEDEPTH
 70
  3020
  9
$CMLSTYLE
  2
STANDARD
  9
$CMLJUST
 70
     0
  9
$CMLSCALE
 40
1.0
  9
$PROXYGRAPHICS
 70
     1
  9
$MEASUREMENT
 70
     1
  9
$CELWEIGHT
370
    -1
  9
$ENDCAPS
280
     0
  9
$JOINSTYLE
280
     0
  9
$LWDISPLAY
290
     0
  9
$INSUNITS
 70
     0
  9
$HYPERLINKBASE
  1

  9
$STYLESHEET
  1
ACA3.ctb
  9
$XEDIT
290
     1
  9
$CEPSNTYPE
380
     0
  9
$PSTYLEMODE
290
     1
  9
$FINGERPRINTGUID
  2
{5EAC461A-2277-4BF8-9AB0-99C43BB394F0}
  9
$VERSIONGUID
  2
{3F97C649-4BA3-490C-A2E6-1303ED31A289}
  9
$EXTNAMES
290
     1
  9
$PSVPSCALE
 40
0.0
  9
$OLESTARTUP
290
     0
  0
ENDSEC
  0
SECTION
  2
CLASSES
  0
CLASS
  1
ACDBDICTIONARYWDFLT
  2
AcDbDictionaryWithDefault
  3
ObjectDBX Classes
 90
        0
280
     0
281
     0
  0
CLASS
  1
DICTIONARYVAR
  2
AcDbDictionaryVar
  3
ObjectDBX Classes
 90
        0
280
     0
281
     0
  0
CLASS
  1
ACDBPLACEHOLDER
  2
AcDbPlaceHolder
  3
ObjectDBX Classes
 90
        0
280
     0
281
     0
  0
CLASS
  1
LAYOUT
  2
AcDbLayout
  3
ObjectDBX Classes
 90
        0
280
     0
281
     0
  0
ENDSEC
  0
SECTION
  2
TABLES
  0
TABLE
  2
VPORT
  5
746D
330
0
100
AcDbSymbolTable
 70
     2
  0
VPORT
  5
21A1A
330
746D
100
AcDbSymbolTableRecord
100
AcDbViewportTableRecord
  2
*Active
 70
     0
 10
0.0
 20
0.0
 11
1.0
 21
1.0
 12
8399.999999999998
 22
6550.027448464383
 13
0.0
 23
0.0
 14
10.0
 24
10.0
 15
10.0
 25
10.0
 16
0.0
 26
0.0
 36
1.0
 17
0.0
 27
0.0
 37
0.0
 40
13195.33213169604
 41
1.522222222222222
 42
50.0
 43
0.0
 44
0.0
 50
0.0
 51
0.0
 71
     0
 72
     0
 73
     1
 74
     0
 75
     0
 76
     0
 77
     0
 78
     0
281
     0
 65
     1
110
0.0
120
0.0
130
0.0
111
1.0
121
0.0
131
0.0
112
0.0
122
1.0
132
0.0
 79
     0
146
0.0
  0
ENDTAB
  0
TABLE
  2
LTYPE
  5
746A
330
0
100
AcDbSymbolTable
 70
     5
  0
LTYPE
  5
7477
330
746A
100
AcDbSymbolTableRecord
100
AcDbLinetypeTableRecord
  2
BYBLOCK
 70
     0
  3

 72
    65
 73
     0
 40
0.0
  0
LTYPE
  5
7478
330
746A
100
AcDbSymbolTableRecord
100
AcDbLinetypeTableRecord
  2
BYLAYER
 70
     0
  3

 72
    65
 73
     0
 40
0.0
  0
LTYPE
  5
7479
330
746A
100
AcDbSymbolTableRecord
100
AcDbLinetypeTableRecord
  2
CONTINUOUS
 70
     0
  3
Solid line
 72
    65
 73
     0
 40
0.0
  0
LTYPE
  5
7816
330
746A
100
AcDbSymbolTableRecord
100
AcDbLinetypeTableRecord
  2
CENTER
 70
     0
  3
____ _ ____ _ ____ _ ____ _ ____ _ ____ _ ____ 
 72
    65
 73
     4
 40
2.0
 49
1.25
 74
     0
 49
-0.25
 74
     0
 49
0.25
 74
     0
 49
-0.25
 74
     0
  0
LTYPE
  5
781A
330
746A
100
AcDbSymbolTableRecord
100
AcDbLinetypeTableRecord
  2
HIDDEN
 70
     0
  3
__ __ __ __ __ __ __ __ __ __ __ __ __ __ __ __
 72
    65
 73
     2
 40
0.375
 49
0.25
 74
     0
 49
-0.125
 74
     0
  0
LTYPE
  5
781B
330
746A
100
AcDbSymbolTableRecord
100
AcDbLinetypeTableRecord
  2
PHANTOM
 70
     0
  3
______  __  __  ______  __  __  ______  __  __ 
 72
    65
 73
     6
 40
2.5
 49
1.25
 74
     0
 49
-0.25
 74
     0
 49
0.25
 74
     0
 49
-0.25
 74
     0
 49
0.25
 74
     0
 49
-0.25
 74
     0
  0
LTYPE
  5
12CC3
330
746A
100
AcDbSymbolTableRecord
100
AcDbLinetypeTableRecord
  2
HIDDENX2
 70
     0
  3
Hidden (2x) ____ ____ ____ ____ ____ ____ ____
 72
    65
 73
     2
 40
19.05
 49
12.7
 74
     0
 49
-6.349999999999999
 74
     0
  0
ENDTAB
  0
TABLE
  2
LAYER
  5
7467
102
{ACAD_XDICTIONARY
360
1758F
102
}
330
0
100
AcDbSymbolTable
 70
    12
  0
LAYER
  5
7474
330
7467
100
AcDbSymbolTableRecord
100
AcDbLayerTableRecord
  2
0
 70
     0
 62
     7
  6
CONTINUOUS
370
    -3
390
173D0
  0
LAYER
  5
DEB2
330
7467
100
AcDbSymbolTableRecord
100
AcDbLayerTableRecord
  2
センター
 70
     0
 62
     3
  6
CENTER
370
    -3
390
173D0
  0
LAYER
  5
DEB3
330
7467
100
AcDbSymbolTableRecord
100
AcDbLayerTableRecord
  2
寸法
 70
     0
 62
     4
  6
CONTINUOUS
370
    -3
390
173D0
  0
LAYER
  5
DEB4
330
7467
100
AcDbSymbolTableRecord
100
AcDbLayerTableRecord
  2
部品1
 70
     0
 62
     7
  6
CONTINUOUS
370
    -3
390
173D0
  0
LAYER
  5
DEB5
330
7467
100
AcDbSymbolTableRecord
100
AcDbLayerTableRecord
  2
補助
 70
     0
 62
    -1
  6
CONTINUOUS
370
    -3
390
173D0
  0
LAYER
  5
DEB6
330
7467
100
AcDbSymbolTableRecord
100
AcDbLayerTableRecord
  2
文字
 70
     0
 62
     7
  6
CONTINUOUS
370
    -3
390
173D0
  0
LAYER
  5
F255
330
7467
100
AcDbSymbolTableRecord
100
AcDbLayerTableRecord
  2
DEFPOINTS
 70
     0
 62
     7
  6
CONTINUOUS
290
     0
370
    -3
390
173D0
  0
LAYER
  5
10B54
330
7467
100
AcDbSymbolTableRecord
100
AcDbLayerTableRecord
  2
仕様書枠
 70
     0
 62
   230
  6
CONTINUOUS
370
    -3
390
173D0
  0
LAYER
  5
11729
330
7467
100
AcDbSymbolTableRecord
100
AcDbLayerTableRecord
  2
Ｇ．Ｌ
 70
     0
 62
    30
  6
CONTINUOUS
370
    -3
390
173D0
  0
LAYER
  5
1173F
330
7467
100
AcDbSymbolTableRecord
100
AcDbLayerTableRecord
  2
細線
 70
     0
 62
     5
  6
CONTINUOUS
370
    -3
390
173D0
  0
LAYER
  5
12CC4
330
7467
100
AcDbSymbolTableRecord
100
AcDbLayerTableRecord
  2
想像線
 70
     0
 62
     6
  6
PHANTOM
370
    -3
390
173D0
  0
LAYER
  5
142E2
330
7467
100
AcDbSymbolTableRecord
100
AcDbLayerTableRecord
  2
破線
 70
     0
 62
     2
  6
HIDDEN
370
    -3
390
173D0
  0
ENDTAB
  0
TABLE
  2
STYLE
  5
7468
330
0
100
AcDbSymbolTable
 70
     7
  0
STYLE
  5
7475
330
7468
100
AcDbSymbolTableRecord
100
AcDbTextStyleTableRecord
  2
STANDARD
 70
     0
 40
0.0
 41
1.0
 50
0.0
 71
     0
 42
4.0
  3
txt
  4
C:\AutoCAD LT\bigfont.shx
  0
STYLE
  5
763C
330
7468
100
AcDbSymbolTableRecord
100
AcDbTextStyleTableRecord
  2
MSMINCHO
 70
     0
 40
0.0
 41
1.0
 50
0.0
 71
     0
 42
1.199999999999999
  3
C:\AutoCAD LT\msminch2.TTF
  4

  0
STYLE
  5
F706
330
7468
100
AcDbSymbolTableRecord
100
AcDbTextStyleTableRecord
  2
STYLE1
 70
     0
 40
0.0
 41
1.0
 50
0.0
 71
     0
 42
4.0
  3
isocp.shx
  4
bigfont.shx
  0
STYLE
  5
103BF
330
7468
100
AcDbSymbolTableRecord
100
AcDbTextStyleTableRecord
  2
STYLE2
 70
     0
 40
0.0
 41
1.0
 50
0.0
 71
     0
 42
100.0
  3
MS PGothic.ttf
  4

1001
ACAD
1000
MS PGothic
1071
    32818
  0
STYLE
  5
10BAA
330
7468
100
AcDbSymbolTableRecord
100
AcDbTextStyleTableRecord
  2
STYLE3
 70
     0
 40
0.0
 41
1.0
 50
0.0
 71
     0
 42
100.0
  3

  4

1001
ACAD
1000
DFPGothic-EB
1071
    32818
  0
STYLE
  5
11A15
330
7468
100
AcDbSymbolTableRecord
100
AcDbTextStyleTableRecord
  2
MSGOTHIC
 70
     0
 40
0.0
 41
1.0
 50
0.0
 71
     0
 42
3.5
  3
msgothi2.ttf
  4

  0
STYLE
  5
13E96
330
7468
100
AcDbSymbolTableRecord
100
AcDbTextStyleTableRecord
  2
MSPゴシック
 70
     0
 40
0.0
 41
1.0
 50
0.0
 71
     0
 42
4.0
  3
MS PGothic.ttf
  4

1001
ACAD
1000
MS PGothic
1071
    32818
  0
ENDTAB
  0
TABLE
  2
VIEW
  5
746B
330
0
100
AcDbSymbolTable
 70
     0
  0
ENDTAB
  0
TABLE
  2
UCS
  5
746C
330
0
100
AcDbSymbolTable
 70
     0
  0
ENDTAB
  0
TABLE
  2
APPID
  5
746E
330
0
100
AcDbSymbolTable
 70
     6
  0
APPID
  5
7476
330
746E
100
AcDbSymbolTableRecord
100
AcDbRegAppTableRecord
  2
ACAD
 70
     0
  0
APPID
  5
DEA9
330
746E
100
AcDbSymbolTableRecord
100
AcDbRegAppTableRecord
  2
CONTENTBLOCKICON
 70
     0
  0
APPID
  5
DEAA
330
746E
100
AcDbSymbolTableRecord
100
AcDbRegAppTableRecord
  2
CONTENTBLOCKDESCRIPTION
 70
     0
  0
APPID
  5
E71D
330
746E
100
AcDbSymbolTableRecord
100
AcDbRegAppTableRecord
  2
CONTENTTABDATA
 70
     0
  0
APPID
  5
E71E
330
746E
100
AcDbSymbolTableRecord
100
AcDbRegAppTableRecord
  2
CONTENTCURRENTTAB
 70
     0
  0
APPID
  5
F3BA
330
746E
100
AcDbSymbolTableRecord
100
AcDbRegAppTableRecord
  2
DRAWINGVARIABLESXDATA
 70
     0
  0
ENDTAB
  0
TABLE
  2
DIMSTYLE
  5
746F
330
0
100
AcDbSymbolTable
 70
     6
100
AcDbDimStyleTable
 71
     1
340
F71F
  0
DIMSTYLE
105
7484
330
746F
100
AcDbSymbolTableRecord
100
AcDbDimStyleTableRecord
  2
JIS
 70
     0
 41
2.5
 42
1.0
 43
7.0
 44
1.0
 73
     0
 74
     0
 77
     1
 78
     8
140
2.5
141
0.0
143
0.0394
147
0.0
172
     1
174
     1
175
     1
340
7475
  0
DIMSTYLE
105
F236
330
746F
100
AcDbSymbolTableRecord
100
AcDbDimStyleTableRecord
  2
INABA_S40
 70
     0
 40
40.0
 41
2.5
 42
0.5
 43
7.0
 44
1.5
 73
     0
 74
     0
 77
     3
 78
     8
140
3.0
141
0.0
143
0.0394
147
1.0
172
     1
173
     1
174
     1
175
     1
178
     7
289
     0
340
7475
341
DEAC
343
DEAC
344
DEAC
  0
DIMSTYLE
105
F71F
102
{ACAD_REACTORS
330
1DD07
330
1DCFE
330
1E90B
330
1F75A
330
1F75B
330
1F799
330
1F7A3
330
1F7AA
330
1F7AD
330
1F7AF
330
1F7B1
330
1F7B6
330
1F7B9
330
206ED
330
2071E
330
2073D
330
20A00
330
20A2F
330
20A34
330
211EC
330
211F6
330
211F7
330
211FE
330
21786
330
21789
330
21790
330
21798
330
21799
330
21726
102
}
330
746F
100
AcDbSymbolTableRecord
100
AcDbDimStyleTableRecord
  2
INABA_S40G
 70
     0
 40
40.0
 41
2.5
 42
0.5
 43
7.0
 44
1.5
 73
     0
 74
     0
 77
     3
 78
     8
140
3.0
141
0.0
143
0.0394
147
1.0
172
     1
173
     1
174
     1
178
     7
271
     1
340
F706
341
F770
343
F770
344
F770
  0
DIMSTYLE
105
142E3
330
746F
100
AcDbSymbolTableRecord
100
AcDbDimStyleTableRecord
  2
INABA_S1
 70
     0
 40
0.0
 41
2.5
 42
0.5
 43
7.0
 44
1.5
 73
     0
 74
     0
 77
     3
 78
     8
140
3.0
141
0.0
143
0.0394
146
0.5
147
0.5
172
     1
173
     1
176
   256
177
   256
178
     7
271
     2
272
     2
284
     8
288
     1
340
7475
341
DEAC
343
DEAC
344
DEAC
  0
DIMSTYLE
105
14463
330
746F
100
AcDbSymbolTableRecord
100
AcDbDimStyleTableRecord
  2
INABA_S30G
 70
     0
 40
30.0
 41
2.5
 42
0.5
 43
7.0
 44
1.5
 73
     0
 74
     0
 77
     3
 78
     8
140
3.0
141
0.0
143
0.0394
147
1.0
172
     1
173
     1
174
     1
175
     1
178
     7
271
     1
340
F706
341
F770
343
F770
344
F770
  0
DIMSTYLE
105
1758E
330
746F
100
AcDbSymbolTableRecord
100
AcDbDimStyleTableRecord
  2
INABA_S50G
 70
     0
 41
125.0
 42
25.0
 43
7.0
 44
75.0
 73
     0
 74
     0
 77
     3
 78
     8
140
150.0
141
0.0
143
0.0394
147
25.0
172
     1
173
     1
174
     1
175
     1
178
     7
271
     1
340
F706
341
F770
343
F770
344
F770
  0
ENDTAB
  0
TABLE
  2
BLOCK_RECORD
  5
7466
330
0
100
AcDbSymbolTable
 70
    48
  0
BLOCK_RECORD
  5
747D
330
7466
100
AcDbSymbolTableRecord
100
AcDbBlockTableRecord
  2
*MODEL_SPACE
340
173D5
  0
BLOCK_RECORD
  5
747A
330
7466
100
AcDbSymbolTableRecord
100
AcDbBlockTableRecord
  2
*PAPER_SPACE
340
173D6
  0
BLOCK_RECORD
  5
DEAC
330
7466
100
AcDbSymbolTableRecord
100
AcDbBlockTableRecord
  2
_OPEN
340
0
  0
BLOCK_RECORD
  5
F770
330
7466
100
AcDbSymbolTableRecord
100
AcDbBlockTableRecord
  2
_DOTSMALL
340
0
102
{BLKREFS
331
18C65
331
18C66
331
18C59
331
18C5A
331
18C4D
331
18C4E
331
18C41
331
18C42
331
18C35
331
18C36
331
18C29
331
18C2A
331
18C1D
331
18C1E
331
18C0F
331
18C10
331
18C03
331
18C04
331
18BF5
331
18BF6
331
18BE7
331
18BE8
331
18BD9
331
18BDA
331
18BCD
331
18BCE
331
1FE40
331
1FE41
331
1FE49
331
1FE4A
331
1FE53
331
1FE54
331
1FE8E
331
1FE8F
331
20795
331
20796
331
2079E
331
2079F
331
207A8
331
207A9
331
207B2
331
207B3
331
20854
331
20855
331
2085D
331
2085E
331
20866
331
20867
331
2086F
331
20870
331
20878
331
20879
331
20C4E
331
20C4F
331
21467
331
21468
331
21472
331
21473
331
214A9
331
214AA
331
214B4
331
214B5
331
214CA
331
214CB
331
2191B
331
2191C
331
2192A
331
2192B
331
21933
331
21934
331
2193C
331
2193D
331
21945
331
21946
331
2195B
331
2195C
331
21965
331
21966
331
2198D
331
2198E
331
21997
331
21998
331
21A06
331
21A07
102
}
  0
BLOCK_RECORD
  5
164B4
330
7466
100
AcDbSymbolTableRecord
100
AcDbBlockTableRecord
  2
_DOT
340
0
102
{BLKREFS
331
18C73
331
18C74
102
}
  0
BLOCK_RECORD
  5
18BC8
330
7466
100
AcDbSymbolTableRecord
100
AcDbBlockTableRecord
  2
*D3
340
0
  0
BLOCK_RECORD
  5
18BD4
330
7466
100
AcDbSymbolTableRecord
100
AcDbBlockTableRecord
  2
*D4
340
0
  0
BLOCK_RECORD
  5
18BE0
330
7466
100
AcDbSymbolTableRecord
100
AcDbBlockTableRecord
  2
*D5
340
0
  0
BLOCK_RECORD
  5
18BEE
330
7466
100
AcDbSymbolTableRecord
100
AcDbBlockTableRecord
  2
*D6
340
0
  0
BLOCK_RECORD
  5
18BFC
330
7466
100
AcDbSymbolTableRecord
100
AcDbBlockTableRecord
  2
*D7
340
0
  0
BLOCK_RECORD
  5
18C0A
330
7466
100
AcDbSymbolTableRecord
100
AcDbBlockTableRecord
  2
*D8
340
0
  0
BLOCK_RECORD
  5
18C16
330
7466
100
AcDbSymbolTableRecord
100
AcDbBlockTableRecord
  2
*D9
340
0
  0
BLOCK_RECORD
  5
18C24
330
7466
100
AcDbSymbolTableRecord
100
AcDbBlockTableRecord
  2
*D10
340
0
  0
BLOCK_RECORD
  5
18C30
330
7466
100
AcDbSymbolTableRecord
100
AcDbBlockTableRecord
  2
*D11
340
0
  0
BLOCK_RECORD
  5
18C3C
330
7466
100
AcDbSymbolTableRecord
100
AcDbBlockTableRecord
  2
*D12
340
0
  0
BLOCK_RECORD
  5
18C48
330
7466
100
AcDbSymbolTableRecord
100
AcDbBlockTableRecord
  2
*D13
340
0
  0
BLOCK_RECORD
  5
18C54
330
7466
100
AcDbSymbolTableRecord
100
AcDbBlockTableRecord
  2
*D14
340
0
  0
BLOCK_RECORD
  5
18C60
330
7466
100
AcDbSymbolTableRecord
100
AcDbBlockTableRecord
  2
*D15
340
0
  0
BLOCK_RECORD
  5
18C6C
330
7466
100
AcDbSymbolTableRecord
100
AcDbBlockTableRecord
  2
*D16
340
0
  0
BLOCK_RECORD
  5
18C7A
330
7466
100
AcDbSymbolTableRecord
100
AcDbBlockTableRecord
  2
A$C3B1A506B
340
0
  0
BLOCK_RECORD
  5
1C4CA
330
7466
100
AcDbSymbolTableRecord
100
AcDbBlockTableRecord
  2
_NONE
340
0
  0
BLOCK_RECORD
  5
1DDB5
330
7466
100
AcDbSymbolTableRecord
100
AcDbBlockTableRecord
  2
*D19
340
0
  0
BLOCK_RECORD
  5
1DDE3
330
7466
100
AcDbSymbolTableRecord
100
AcDbBlockTableRecord
  2
*D20
340
0
  0
BLOCK_RECORD
  5
1E963
330
7466
100
AcDbSymbolTableRecord
100
AcDbBlockTableRecord
  2
*D21
340
0
  0
BLOCK_RECORD
  5
1F7BC
330
7466
100
AcDbSymbolTableRecord
100
AcDbBlockTableRecord
  2
*D22
340
0
  0
BLOCK_RECORD
  5
1F7C8
330
7466
100
AcDbSymbolTableRecord
100
AcDbBlockTableRecord
  2
*D23
340
0
  0
BLOCK_RECORD
  5
1F820
330
7466
100
AcDbSymbolTableRecord
100
AcDbBlockTableRecord
  2
*D24
340
0
  0
BLOCK_RECORD
  5
1F83B
330
7466
100
AcDbSymbolTableRecord
100
AcDbBlockTableRecord
  2
*D25
340
0
  0
BLOCK_RECORD
  5
1F856
330
7466
100
AcDbSymbolTableRecord
100
AcDbBlockTableRecord
  2
*D26
340
0
  0
BLOCK_RECORD
  5
1F863
330
7466
100
AcDbSymbolTableRecord
100
AcDbBlockTableRecord
  2
*D27
340
0
  0
BLOCK_RECORD
  5
1F86F
330
7466
100
AcDbSymbolTableRecord
100
AcDbBlockTableRecord
  2
*D28
340
0
  0
BLOCK_RECORD
  5
1F889
330
7466
100
AcDbSymbolTableRecord
100
AcDbBlockTableRecord
  2
*D29
340
0
  0
BLOCK_RECORD
  5
1F896
330
7466
100
AcDbSymbolTableRecord
100
AcDbBlockTableRecord
  2
*D30
340
0
  0
BLOCK_RECORD
  5
1F8A2
330
7466
100
AcDbSymbolTableRecord
100
AcDbBlockTableRecord
  2
*D31
340
0
  0
BLOCK_RECORD
  5
206EE
330
7466
100
AcDbSymbolTableRecord
100
AcDbBlockTableRecord
  2
*D32
340
0
  0
BLOCK_RECORD
  5
2071F
330
7466
100
AcDbSymbolTableRecord
100
AcDbBlockTableRecord
  2
*D33
340
0
  0
BLOCK_RECORD
  5
2073E
330
7466
100
AcDbSymbolTableRecord
100
AcDbBlockTableRecord
  2
*D34
340
0
  0
BLOCK_RECORD
  5
20A59
330
7466
100
AcDbSymbolTableRecord
100
AcDbBlockTableRecord
  2
*D35
340
0
  0
BLOCK_RECORD
  5
20AB7
330
7466
100
AcDbSymbolTableRecord
100
AcDbBlockTableRecord
  2
*D36
340
0
  0
BLOCK_RECORD
  5
20AD0
330
7466
100
AcDbSymbolTableRecord
100
AcDbBlockTableRecord
  2
*D37
340
0
  0
BLOCK_RECORD
  5
21244
330
7466
100
AcDbSymbolTableRecord
100
AcDbBlockTableRecord
  2
*D38
340
0
  0
BLOCK_RECORD
  5
2125E
330
7466
100
AcDbSymbolTableRecord
100
AcDbBlockTableRecord
  2
*D39
340
0
  0
BLOCK_RECORD
  5
2126C
330
7466
100
AcDbSymbolTableRecord
100
AcDbBlockTableRecord
  2
*D40
340
0
  0
BLOCK_RECORD
  5
2127A
330
7466
100
AcDbSymbolTableRecord
100
AcDbBlockTableRecord
  2
*D41
340
0
  0
BLOCK_RECORD
  5
217A3
330
7466
100
AcDbSymbolTableRecord
100
AcDbBlockTableRecord
  2
*D42
340
0
  0
BLOCK_RECORD
  5
217AF
330
7466
100
AcDbSymbolTableRecord
100
AcDbBlockTableRecord
  2
*D43
340
0
  0
BLOCK_RECORD
  5
217BB
330
7466
100
AcDbSymbolTableRecord
100
AcDbBlockTableRecord
  2
*D44
340
0
  0
BLOCK_RECORD
  5
217C7
330
7466
100
AcDbSymbolTableRecord
100
AcDbBlockTableRecord
  2
*D45
340
0
  0
BLOCK_RECORD
  5
217D8
330
7466
100
AcDbSymbolTableRecord
100
AcDbBlockTableRecord
  2
*D46
340
0
  0
BLOCK_RECORD
  5
217E4
330
7466
100
AcDbSymbolTableRecord
100
AcDbBlockTableRecord
  2
*D47
340
0
  0
ENDTAB
  0
ENDSEC
  0
SECTION
  2
BLOCKS
  0
BLOCK
  5
7489
330
747D
100
AcDbEntity
  8
0
100
AcDbBlockBegin
  2
*MODEL_SPACE
 70
     0
 10
0.0
 20
0.0
 30
0.0
  3
*MODEL_SPACE
  1

  0
ENDBLK
  5
748A
330
747D
100
AcDbEntity
  8
0
100
AcDbBlockEnd
  0
BLOCK
  5
7487
330
747A
100
AcDbEntity
 67
     1
  8
0
100
AcDbBlockBegin
  2
*PAPER_SPACE
 70
     0
 10
0.0
 20
0.0
 30
0.0
  3
*PAPER_SPACE
  1

  0
ENDBLK
  5
7488
330
747A
100
AcDbEntity
 67
     1
  8
0
100
AcDbBlockEnd
  0
BLOCK
  5
DEAD
330
DEAC
100
AcDbEntity
  8
0
100
AcDbBlockBegin
  2
_OPEN
 70
     0
 10
0.0
 20
0.0
 30
0.0
  3
_OPEN
  1

  0
LINE
  5
DEAE
330
DEAC
100
AcDbEntity
  8
0
  6
ByBlock
 62
     0
100
AcDbLine
 10
-1.0
 20
0.1666666666666666
 30
0.0
 11
0.0
 21
0.0
 31
0.0
  0
LINE
  5
DEAF
330
DEAC
100
AcDbEntity
  8
0
  6
ByBlock
 62
     0
100
AcDbLine
 10
0.0
 20
0.0
 30
0.0
 11
-1.0
 21
-0.1666666666666666
 31
0.0
  0
LINE
  5
DEB0
330
DEAC
100
AcDbEntity
  8
0
  6
ByBlock
 62
     0
100
AcDbLine
 10
0.0
 20
0.0
 30
0.0
 11
-1.0
 21
0.0
 31
0.0
  0
ENDBLK
  5
DEB1
330
DEAC
100
AcDbEntity
  8
0
100
AcDbBlockEnd
  0
BLOCK
  5
F771
330
F770
100
AcDbEntity
  8
0
 48
50.0
100
AcDbBlockBegin
  2
_DOTSMALL
 70
     0
 10
0.0
 20
0.0
 30
0.0
  3
_DOTSMALL
  1

  0
LWPOLYLINE
  5
F772
330
F770
100
AcDbEntity
  8
0
  6
ByBlock
 62
     0
 48
50.0
100
AcDbPolyline
 90
        2
 70
     1
 43
0.5
 10
-0.0625
 20
0.0
 42
1.0
 10
0.0625
 20
0.0
 42
1.0
  0
ENDBLK
  5
F776
330
F770
100
AcDbEntity
  8
0
 48
50.0
100
AcDbBlockEnd
  0
BLOCK
  5
164BA
330
164B4
100
AcDbEntity
  8
0
 48
50.0
100
AcDbBlockBegin
  2
_DOT
 70
     0
 10
0.0
 20
0.0
 30
0.0
  3
_DOT
  1

  0
LWPOLYLINE
  5
164B5
330
164B4
100
AcDbEntity
  8
0
  6
ByBlock
 62
     0
 48
50.0
100
AcDbPolyline
 90
        2
 70
     1
 43
0.5
 10
-0.25
 20
0.0
 42
1.0
 10
0.25
 20
0.0
 42
1.0
  0
LINE
  5
164B9
330
164B4
100
AcDbEntity
  8
0
  6
ByBlock
 62
     0
 48
50.0
100
AcDbLine
 10
-0.5
 20
0.0
 30
0.0
 11
-1.0
 21
0.0
 31
0.0
  0
ENDBLK
  5
164BB
330
164B4
100
AcDbEntity
  8
0
 48
50.0
100
AcDbBlockEnd
  0
BLOCK
  5
18BC9
330
18BC8
100
AcDbEntity
  8
0
 48
50.0
100
AcDbBlockBegin
  2
*D3
 70
     1
 10
0.0
 20
0.0
 30
0.0
  3
*D3
  1

  0
LINE
  5
18BCA
330
18BC8
100
AcDbEntity
  8
寸法
 62
     0
 48
50.0
370
    -2
100
AcDbLine
 10
7649.896575106999
 20
9636.123139034717
 30
0.0
 11
8702.429862581047
 21
9636.123139034717
 31
0.0
  0
LINE
  5
18BCB
330
18BC8
100
AcDbEntity
  8
寸法
 62
     0
 48
50.0
370
    -2
100
AcDbLine
 10
7649.896575106973
 20
7846.123139034709
 30
0.0
 11
8702.429862581047
 21
7846.123139034709
 31
0.0
  0
LINE
  5
18BCC
330
18BC8
100
AcDbEntity
  8
寸法
 62
     0
 48
50.0
370
    -2
100
AcDbLine
 10
8642.429862581046
 20
9636.123139034717
 30
0.0
 11
8642.429862581046
 21
7846.123139034709
 31
0.0
  0
INSERT
  5
18BCD
330
18BC8
100
AcDbEntity
  8
寸法
 62
     0
 48
50.0
370
    -2
100
AcDbBlockReference
  2
_DOTSMALL
 10
8642.429862581046
 20
9636.123139034717
 30
0.0
 41
100.0
 42
100.0
 43
100.0
 50
90.0
  0
INSERT
  5
18BCE
330
18BC8
100
AcDbEntity
  8
寸法
 62
     0
 48
50.0
370
    -2
100
AcDbBlockReference
  2
_DOTSMALL
 10
8642.429862581046
 20
7846.123139034709
 30
0.0
 41
100.0
 42
100.0
 43
100.0
 50
270.0
  0
MTEXT
  5
18BCF
330
18BC8
100
AcDbEntity
  8
寸法
 62
     7
 48
50.0
100
AcDbMText
 10
8542.429862581045
 20
8741.123139034712
 30
0.0
 40
120.0
 41
0.0
 71
     5
 72
     1
  1
\A1;1790
  7
STYLE1
 11
0.0000000000000001
 21
1.0
 31
0.0
 73
     1
 44
1.0
1001
ACAD
1000
MTEXTBEGIN
1070
    73
1070
     1
1070
    44
1040
1.0
1070
    74
1070
     0
1000
MTEXTEND
  0
POINT
  5
18BD0
330
18BC8
100
AcDbEntity
  8
DEFPOINTS
 62
     0
 48
50.0
100
AcDbPoint
 10
7629.896575106998
 20
9636.123139034717
 30
0.0
  0
POINT
  5
18BD1
330
18BC8
100
AcDbEntity
  8
DEFPOINTS
 62
     0
 48
50.0
100
AcDbPoint
 10
7629.896575106974
 20
7846.123139034709
 30
0.0
  0
POINT
  5
18BD2
330
18BC8
100
AcDbEntity
  8
DEFPOINTS
 62
     0
 48
50.0
100
AcDbPoint
 10
8642.429862581046
 20
7846.123139034709
 30
0.0
  0
ENDBLK
  5
18BD3
330
18BC8
100
AcDbEntity
  8
0
 48
50.0
100
AcDbBlockEnd
  0
BLOCK
  5
18BD5
330
18BD4
100
AcDbEntity
  8
0
 48
50.0
100
AcDbBlockBegin
  2
*D4
 70
     1
 10
0.0
 20
0.0
 30
0.0
  3
*D4
  1

  0
LINE
  5
18BD6
330
18BD4
100
AcDbEntity
  8
寸法
 62
     0
 48
50.0
370
    -2
100
AcDbLine
 10
4214.896575106998
 20
9656.123139034622
 30
0.0
 11
4214.896575106998
 21
10211.93135865972
 31
0.0
  0
LINE
  5
18BD7
330
18BD4
100
AcDbEntity
  8
寸法
 62
     0
 48
50.0
370
    -2
100
AcDbLine
 10
7574.896575106999
 20
9656.123139034718
 30
0.0
 11
7574.896575106999
 21
10211.93135865972
 31
0.0
  0
LINE
  5
18BD8
330
18BD4
100
AcDbEntity
  8
寸法
 62
     0
 48
50.0
370
    -2
100
AcDbLine
 10
4214.896575106998
 20
10151.93135865972
 30
0.0
 11
7574.896575106999
 21
10151.93135865972
 31
0.0
  0
INSERT
  5
18BD9
330
18BD4
100
AcDbEntity
  8
寸法
 62
     0
 48
50.0
370
    -2
100
AcDbBlockReference
  2
_DOTSMALL
 10
4214.896575106998
 20
10151.93135865972
 30
0.0
 41
100.0
 42
100.0
 43
100.0
 50
180.0
  0
INSERT
  5
18BDA
330
18BD4
100
AcDbEntity
  8
寸法
 62
     0
 48
50.0
370
    -2
100
AcDbBlockReference
  2
_DOTSMALL
 10
7574.896575106999
 20
10151.93135865972
 30
0.0
 41
100.0
 42
100.0
 43
100.0
  0
MTEXT
  5
18BDB
330
18BD4
100
AcDbEntity
  8
寸法
 62
     7
 48
50.0
100
AcDbMText
 10
5894.896575106997
 20
10251.94316968334
 30
0.0
 40
120.0
 41
0.0
 71
     5
 72
     1
  1
\A1;8X420=3360
  7
STYLE1
 73
     1
 44
1.0
1001
ACAD
1000
MTEXTBEGIN
1070
    73
1070
     1
1070
    44
1040
1.0
1070
    74
1070
     0
1000
MTEXTEND
  0
POINT
  5
18BDC
330
18BD4
100
AcDbEntity
  8
DEFPOINTS
 62
     0
 48
50.0
100
AcDbPoint
 10
4214.896575106998
 20
9636.123139034623
 30
0.0
  0
POINT
  5
18BDD
330
18BD4
100
AcDbEntity
  8
DEFPOINTS
 62
     0
 48
50.0
100
AcDbPoint
 10
7574.896575106999
 20
9636.123139034717
 30
0.0
  0
POINT
  5
18BDE
330
18BD4
100
AcDbEntity
  8
DEFPOINTS
 62
     0
 48
50.0
100
AcDbPoint
 10
7574.896575106999
 20
10151.93135865972
 30
0.0
  0
ENDBLK
  5
18BDF
330
18BD4
100
AcDbEntity
  8
0
 48
50.0
100
AcDbBlockEnd
  0
BLOCK
  5
18BE1
330
18BE0
100
AcDbEntity
  8
0
 48
50.0
100
AcDbBlockBegin
  2
*D5
 70
     1
 10
0.0
 20
0.0
 30
0.0
  3
*D5
  1

  0
LINE
  5
18BE2
330
18BE0
100
AcDbEntity
  8
寸法
 62
     0
 48
50.0
370
    -2
100
AcDbLine
 10
7574.896575106999
 20
9656.123139034718
 30
0.0
 11
7574.896575106999
 21
10211.9313586597
 31
0.0
  0
LINE
  5
18BE3
330
18BE0
100
AcDbEntity
  8
寸法
 62
     0
 48
50.0
370
    -2
100
AcDbLine
 10
7629.896575106998
 20
9656.123139034718
 30
0.0
 11
7629.896575106998
 21
10211.9313586597
 31
0.0
  0
LINE
  5
18BE4
330
18BE0
100
AcDbEntity
  8
寸法
 62
     0
 48
50.0
370
    -2
100
AcDbLine
 10
7574.896575106999
 20
10151.9313586597
 30
0.0
 11
7474.896575106999
 21
10151.9313586597
 31
0.0
  0
LINE
  5
18BE5
330
18BE0
100
AcDbEntity
  8
寸法
 62
     0
 48
50.0
370
    -2
100
AcDbLine
 10
7629.896575106998
 20
10151.9313586597
 30
0.0
 11
8046.867137855477
 21
10151.9313586597
 31
0.0
  0
LINE
  5
18BE6
330
18BE0
100
AcDbEntity
  8
寸法
 62
     0
 48
50.0
370
    -2
100
AcDbLine
 10
7574.896575106999
 20
10151.9313586597
 30
0.0
 11
7629.896575106998
 21
10151.9313586597
 31
0.0
  0
INSERT
  5
18BE7
330
18BE0
100
AcDbEntity
  8
寸法
 62
     0
 48
50.0
370
    -2
100
AcDbBlockReference
  2
_DOTSMALL
 10
7574.896575106999
 20
10151.9313586597
 30
0.0
 41
100.0
 42
100.0
 43
100.0
  0
INSERT
  5
18BE8
330
18BE0
100
AcDbEntity
  8
寸法
 62
     0
 48
50.0
370
    -2
100
AcDbBlockReference
  2
_DOTSMALL
 10
7629.896575106998
 20
10151.9313586597
 30
0.0
 41
100.0
 42
100.0
 43
100.0
 50
180.0
  0
MTEXT
  5
18BE9
330
18BE0
100
AcDbEntity
  8
寸法
 62
     7
 48
50.0
100
AcDbMText
 10
7938.381856481237
 20
10251.9313586597
 30
0.0
 40
120.0
 41
0.0
 71
     5
 72
     1
  1
\A1;55
  7
STYLE1
 73
     1
 44
1.0
1001
ACAD
1000
MTEXTBEGIN
1070
    73
1070
     1
1070
    44
1040
1.0
1070
    74
1070
     0
1000
MTEXTEND
  0
POINT
  5
18BEA
330
18BE0
100
AcDbEntity
  8
DEFPOINTS
 62
     0
 48
50.0
100
AcDbPoint
 10
7574.896575106999
 20
9636.123139034717
 30
0.0
  0
POINT
  5
18BEB
330
18BE0
100
AcDbEntity
  8
DEFPOINTS
 62
     0
 48
50.0
100
AcDbPoint
 10
7629.896575106998
 20
9636.123139034717
 30
0.0
  0
POINT
  5
18BEC
330
18BE0
100
AcDbEntity
  8
DEFPOINTS
 62
     0
 48
50.0
100
AcDbPoint
 10
7629.896575106998
 20
10151.9313586597
 30
0.0
  0
ENDBLK
  5
18BED
330
18BE0
100
AcDbEntity
  8
0
 48
50.0
100
AcDbBlockEnd
  0
BLOCK
  5
18BEF
330
18BEE
100
AcDbEntity
  8
0
 48
50.0
100
AcDbBlockBegin
  2
*D6
 70
     1
 10
0.0
 20
0.0
 30
0.0
  3
*D6
  1

  0
LINE
  5
18BF0
330
18BEE
100
AcDbEntity
  8
寸法
 62
     0
 48
50.0
370
    -2
100
AcDbLine
 10
7649.896575106999
 20
9636.123139034717
 30
0.0
 11
8337.32292084141
 21
9636.123139034717
 31
0.0
  0
LINE
  5
18BF1
330
18BEE
100
AcDbEntity
  8
寸法
 62
     0
 48
50.0
370
    -2
100
AcDbLine
 10
7649.896575106999
 20
9581.123139034721
 30
0.0
 11
8337.32292084141
 21
9581.123139034721
 31
0.0
  0
LINE
  5
18BF2
330
18BEE
100
AcDbEntity
  8
寸法
 62
     0
 48
50.0
370
    -2
100
AcDbLine
 10
8277.322920841411
 20
9581.123139034721
 30
0.0
 11
8277.322920841411
 21
9481.123139034719
 31
0.0
  0
LINE
  5
18BF3
330
18BEE
100
AcDbEntity
  8
寸法
 62
     0
 48
50.0
370
    -2
100
AcDbLine
 10
8277.322920841411
 20
9636.123139034717
 30
0.0
 11
8277.322920841411
 21
10053.09370178319
 31
0.0
  0
LINE
  5
18BF4
330
18BEE
100
AcDbEntity
  8
寸法
 62
     0
 48
50.0
370
    -2
100
AcDbLine
 10
8277.322920841411
 20
9581.123139034721
 30
0.0
 11
8277.322920841411
 21
9636.123139034717
 31
0.0
  0
INSERT
  5
18BF5
330
18BEE
100
AcDbEntity
  8
寸法
 62
     0
 48
50.0
370
    -2
100
AcDbBlockReference
  2
_DOTSMALL
 10
8277.322920841411
 20
9581.123139034721
 30
0.0
 41
100.0
 42
100.0
 43
100.0
 50
90.0
  0
INSERT
  5
18BF6
330
18BEE
100
AcDbEntity
  8
寸法
 62
     0
 48
50.0
370
    -2
100
AcDbBlockReference
  2
_DOTSMALL
 10
8277.322920841411
 20
9636.123139034717
 30
0.0
 41
100.0
 42
100.0
 43
100.0
 50
270.0
  0
MTEXT
  5
18BF7
330
18BEE
100
AcDbEntity
  8
寸法
 62
     7
 48
50.0
100
AcDbMText
 10
8177.32292084141
 20
9944.608420408957
 30
0.0
 40
120.0
 41
0.0
 71
     5
 72
     1
  1
\A1;55
  7
STYLE1
 11
0.0000000000000001
 21
1.0
 31
0.0
 73
     1
 44
1.0
1001
ACAD
1000
MTEXTBEGIN
1070
    73
1070
     1
1070
    44
1040
1.0
1070
    74
1070
     0
1000
MTEXTEND
  0
POINT
  5
18BF8
330
18BEE
100
AcDbEntity
  8
DEFPOINTS
 62
     0
 48
50.0
100
AcDbPoint
 10
7629.896575106998
 20
9636.123139034717
 30
0.0
  0
POINT
  5
18BF9
330
18BEE
100
AcDbEntity
  8
DEFPOINTS
 62
     0
 48
50.0
100
AcDbPoint
 10
7629.896575106998
 20
9581.123139034721
 30
0.0
  0
POINT
  5
18BFA
330
18BEE
100
AcDbEntity
  8
DEFPOINTS
 62
     0
 48
50.0
100
AcDbPoint
 10
8277.322920841411
 20
9581.123139034721
 30
0.0
  0
ENDBLK
  5
18BFB
330
18BEE
100
AcDbEntity
  8
0
 48
50.0
100
AcDbBlockEnd
  0
BLOCK
  5
18BFD
330
18BFC
100
AcDbEntity
  8
0
 48
50.0
100
AcDbBlockBegin
  2
*D7
 70
     1
 10
0.0
 20
0.0
 30
0.0
  3
*D7
  1

  0
LINE
  5
18BFE
330
18BFC
100
AcDbEntity
  8
寸法
 62
     0
 48
50.0
370
    -2
100
AcDbLine
 10
4159.896575106963
 20
9656.123139034622
 30
0.0
 11
4159.896575106963
 21
10211.9313586596
 31
0.0
  0
LINE
  5
18BFF
330
18BFC
100
AcDbEntity
  8
寸法
 62
     0
 48
50.0
370
    -2
100
AcDbLine
 10
4214.896575106998
 20
9656.123139034622
 30
0.0
 11
4214.896575106998
 21
10211.9313586596
 31
0.0
  0
LINE
  5
18C00
330
18BFC
100
AcDbEntity
  8
寸法
 62
     0
 48
50.0
370
    -2
100
AcDbLine
 10
4214.896575106998
 20
10151.9313586596
 30
0.0
 11
4314.896575106998
 21
10151.9313586596
 31
0.0
  0
LINE
  5
18C01
330
18BFC
100
AcDbEntity
  8
寸法
 62
     0
 48
50.0
370
    -2
100
AcDbLine
 10
4159.896575106963
 20
10151.9313586596
 30
0.0
 11
3742.926012358486
 21
10151.9313586596
 31
0.0
  0
LINE
  5
18C02
330
18BFC
100
AcDbEntity
  8
寸法
 62
     0
 48
50.0
370
    -2
100
AcDbLine
 10
4214.896575106998
 20
10151.9313586596
 30
0.0
 11
4159.896575106963
 21
10151.9313586596
 31
0.0
  0
INSERT
  5
18C03
330
18BFC
100
AcDbEntity
  8
寸法
 62
     0
 48
50.0
370
    -2
100
AcDbBlockReference
  2
_DOTSMALL
 10
4214.896575106998
 20
10151.9313586596
 30
0.0
 41
100.0
 42
100.0
 43
100.0
 50
180.0
  0
INSERT
  5
18C04
330
18BFC
100
AcDbEntity
  8
寸法
 62
     0
 48
50.0
370
    -2
100
AcDbBlockReference
  2
_DOTSMALL
 10
4159.896575106963
 20
10151.9313586596
 30
0.0
 41
100.0
 42
100.0
 43
100.0
  0
MTEXT
  5
18C05
330
18BFC
100
AcDbEntity
  8
寸法
 62
     7
 48
50.0
100
AcDbMText
 10
3851.411293732725
 20
10251.9313586596
 30
0.0
 40
120.0
 41
0.0
 71
     5
 72
     1
  1
\A1;55
  7
STYLE1
 73
     1
 44
1.0
1001
ACAD
1000
MTEXTBEGIN
1070
    73
1070
     1
1070
    44
1040
1.0
1070
    74
1070
     0
1000
MTEXTEND
  0
POINT
  5
18C06
330
18BFC
100
AcDbEntity
  8
DEFPOINTS
 62
     0
 48
50.0
100
AcDbPoint
 10
4159.896575106963
 20
9636.123139034623
 30
0.0
  0
POINT
  5
18C07
330
18BFC
100
AcDbEntity
  8
DEFPOINTS
 62
     0
 48
50.0
100
AcDbPoint
 10
4214.896575106998
 20
9636.123139034623
 30
0.0
  0
POINT
  5
18C08
330
18BFC
100
AcDbEntity
  8
DEFPOINTS
 62
     0
 48
50.0
100
AcDbPoint
 10
4214.896575106998
 20
10151.9313586596
 30
0.0
  0
ENDBLK
  5
18C09
330
18BFC
100
AcDbEntity
  8
0
 48
50.0
100
AcDbBlockEnd
  0
BLOCK
  5
18C0B
330
18C0A
100
AcDbEntity
  8
0
 48
50.0
100
AcDbBlockBegin
  2
*D8
 70
     1
 10
0.0
 20
0.0
 30
0.0
  3
*D8
  1

  0
LINE
  5
18C0C
330
18C0A
100
AcDbEntity
  8
寸法
 62
     0
 48
50.0
370
    -2
100
AcDbLine
 10
4159.896575106992
 20
7826.123139034546
 30
0.0
 11
4159.896575106992
 21
6804.372203245664
 31
0.0
  0
LINE
  5
18C0D
330
18C0A
100
AcDbEntity
  8
寸法
 62
     0
 48
50.0
370
    -2
100
AcDbLine
 10
7629.896575106974
 20
7826.123139034674
 30
0.0
 11
7629.896575106974
 21
6804.372203245664
 31
0.0
  0
LINE
  5
18C0E
330
18C0A
100
AcDbEntity
  8
寸法
 62
     0
 48
50.0
370
    -2
100
AcDbLine
 10
4159.896575106992
 20
6864.372203245665
 30
0.0
 11
7629.896575106974
 21
6864.372203245665
 31
0.0
  0
INSERT
  5
18C0F
330
18C0A
100
AcDbEntity
  8
寸法
 62
     0
 48
50.0
370
    -2
100
AcDbBlockReference
  2
_DOTSMALL
 10
4159.896575106992
 20
6864.372203245665
 30
0.0
 41
100.0
 42
100.0
 43
100.0
 50
180.0
  0
INSERT
  5
18C10
330
18C0A
100
AcDbEntity
  8
寸法
 62
     0
 48
50.0
370
    -2
100
AcDbBlockReference
  2
_DOTSMALL
 10
7629.896575106974
 20
6864.372203245665
 30
0.0
 41
100.0
 42
100.0
 43
100.0
  0
MTEXT
  5
18C11
330
18C0A
100
AcDbEntity
  8
寸法
 62
     7
 48
50.0
100
AcDbMText
 10
5911.12376113973
 20
6964.372203245665
 30
0.0
 40
120.0
 41
0.0
 71
     5
 72
     1
  1
\A1;3470
  7
STYLE1
 73
     1
 44
1.0
1001
ACAD
1000
MTEXTBEGIN
1070
    73
1070
     1
1070
    44
1040
1.0
1070
    74
1070
     0
1000
MTEXTEND
  0
POINT
  5
18C12
330
18C0A
100
AcDbEntity
  8
DEFPOINTS
 62
     0
 48
50.0
100
AcDbPoint
 10
4159.896575106992
 20
7846.123139034546
 30
0.0
  0
POINT
  5
18C13
330
18C0A
100
AcDbEntity
  8
DEFPOINTS
 62
     0
 48
50.0
100
AcDbPoint
 10
7629.896575106974
 20
7846.123139034673
 30
0.0
  0
POINT
  5
18C14
330
18C0A
100
AcDbEntity
  8
DEFPOINTS
 62
     0
 48
50.0
100
AcDbPoint
 10
7629.896575106974
 20
6864.372203245665
 30
0.0
  0
ENDBLK
  5
18C15
330
18C0A
100
AcDbEntity
  8
0
 48
50.0
100
AcDbBlockEnd
  0
BLOCK
  5
18C17
330
18C16
100
AcDbEntity
  8
0
 48
50.0
100
AcDbBlockBegin
  2
*D9
 70
     1
 10
0.0
 20
0.0
 30
0.0
  3
*D9
  1

  0
LINE
  5
18C18
330
18C16
100
AcDbEntity
  8
寸法
 62
     0
 48
50.0
370
    -2
100
AcDbLine
 10
7649.896575106973
 20
7901.123139034706
 30
0.0
 11
8337.322920841385
 21
7901.123139034706
 31
0.0
  0
LINE
  5
18C19
330
18C16
100
AcDbEntity
  8
寸法
 62
     0
 48
50.0
370
    -2
100
AcDbLine
 10
7649.896575106973
 20
7846.123139034709
 30
0.0
 11
8337.322920841385
 21
7846.123139034709
 31
0.0
  0
LINE
  5
18C1A
330
18C16
100
AcDbEntity
  8
寸法
 62
     0
 48
50.0
370
    -2
100
AcDbLine
 10
8277.322920841385
 20
7901.123139034706
 30
0.0
 11
8277.322920841385
 21
8001.123139034707
 31
0.0
  0
LINE
  5
18C1B
330
18C16
100
AcDbEntity
  8
寸法
 62
     0
 48
50.0
370
    -2
100
AcDbLine
 10
8277.322920841385
 20
7846.123139034709
 30
0.0
 11
8277.322920841385
 21
7429.152576286229
 31
0.0
  0
LINE
  5
18C1C
330
18C16
100
AcDbEntity
  8
寸法
 62
     0
 48
50.0
370
    -2
100
AcDbLine
 10
8277.322920841385
 20
7901.123139034706
 30
0.0
 11
8277.322920841385
 21
7846.123139034709
 31
0.0
  0
INSERT
  5
18C1D
330
18C16
100
AcDbEntity
  8
寸法
 62
     0
 48
50.0
370
    -2
100
AcDbBlockReference
  2
_DOTSMALL
 10
8277.322920841385
 20
7901.123139034706
 30
0.0
 41
100.0
 42
100.0
 43
100.0
 50
270.0
  0
INSERT
  5
18C1E
330
18C16
100
AcDbEntity
  8
寸法
 62
     0
 48
50.0
370
    -2
100
AcDbBlockReference
  2
_DOTSMALL
 10
8277.322920841385
 20
7846.123139034709
 30
0.0
 41
100.0
 42
100.0
 43
100.0
 50
90.0
  0
MTEXT
  5
18C1F
330
18C16
100
AcDbEntity
  8
寸法
 62
     7
 48
50.0
100
AcDbMText
 10
8177.322920841383
 20
7537.637857660469
 30
0.0
 40
120.0
 41
0.0
 71
     5
 72
     1
  1
\A1;55
  7
STYLE1
 11
0.0000000000000001
 21
1.0
 31
0.0
 73
     1
 44
1.0
1001
ACAD
1000
MTEXTBEGIN
1070
    73
1070
     1
1070
    44
1040
1.0
1070
    74
1070
     0
1000
MTEXTEND
  0
POINT
  5
18C20
330
18C16
100
AcDbEntity
  8
DEFPOINTS
 62
     0
 48
50.0
100
AcDbPoint
 10
7629.896575106974
 20
7901.123139034706
 30
0.0
  0
POINT
  5
18C21
330
18C16
100
AcDbEntity
  8
DEFPOINTS
 62
     0
 48
50.0
100
AcDbPoint
 10
7629.896575106974
 20
7846.123139034709
 30
0.0
  0
POINT
  5
18C22
330
18C16
100
AcDbEntity
  8
DEFPOINTS
 62
     0
 48
50.0
100
AcDbPoint
 10
8277.322920841385
 20
7846.123139034709
 30
0.0
  0
ENDBLK
  5
18C23
330
18C16
100
AcDbEntity
  8
0
 48
50.0
100
AcDbBlockEnd
  0
BLOCK
  5
18C25
330
18C24
100
AcDbEntity
  8
0
 48
50.0
100
AcDbBlockBegin
  2
*D10
 70
     1
 10
0.0
 20
0.0
 30
0.0
  3
*D10
  1

  0
LINE
  5
18C26
330
18C24
100
AcDbEntity
  8
寸法
 62
     0
 48
50.0
370
    -2
100
AcDbLine
 10
6533.037591258376
 20
9136.123139034728
 30
0.0
 11
6465.083950562664
 21
8882.516699399049
 31
0.0
  0
LINE
  5
18C27
330
18C24
100
AcDbEntity
  8
寸法
 62
     0
 48
50.0
370
    -2
100
AcDbLine
 10
7596.037591258388
 20
9136.123139034721
 30
0.0
 11
7528.083950562677
 21
8882.516699399049
 31
0.0
  0
LINE
  5
18C28
330
18C24
100
AcDbEntity
  8
寸法
 62
     0
 48
50.0
370
    -2
100
AcDbLine
 10
6481.160902108531
 20
8942.51669939905
 30
0.0
 11
7544.160902108544
 21
8942.51669939905
 31
0.0
  0
INSERT
  5
18C29
330
18C24
100
AcDbEntity
  8
寸法
 62
     0
 48
50.0
370
    -2
100
AcDbBlockReference
  2
_DOTSMALL
 10
6481.160902108531
 20
8942.51669939905
 30
0.0
 41
100.0
 42
100.0
 43
100.0
 50
180.0
  0
INSERT
  5
18C2A
330
18C24
100
AcDbEntity
  8
寸法
 62
     0
 48
50.0
370
    -2
100
AcDbBlockReference
  2
_DOTSMALL
 10
7544.160902108544
 20
8942.51669939905
 30
0.0
 41
100.0
 42
100.0
 43
100.0
  0
MTEXT
  5
18C2B
330
18C24
100
AcDbEntity
  8
寸法
 62
     7
 48
50.0
100
AcDbMText
 10
7061.28653022935
 20
9042.516699399049
 30
0.0
 40
120.0
 41
0.0
 71
     5
 72
     1
  1
\A1;1063
  7
STYLE1
 73
     1
 44
1.0
1001
ACAD
1000
MTEXTBEGIN
1070
    73
1070
     1
1070
    44
1040
1.0
1070
    74
1070
     0
1000
MTEXTEND
  0
POINT
  5
18C2C
330
18C24
100
AcDbEntity
  8
DEFPOINTS
 62
     0
 48
50.0
100
AcDbPoint
 10
6538.396575106998
 20
9156.123139034727
 30
0.0
  0
POINT
  5
18C2D
330
18C24
100
AcDbEntity
  8
DEFPOINTS
 62
     0
 48
50.0
100
AcDbPoint
 10
7601.39657510701
 20
9156.12313903472
 30
0.0
  0
POINT
  5
18C2E
330
18C24
100
AcDbEntity
  8
DEFPOINTS
 62
     0
 48
50.0
100
AcDbPoint
 10
7544.160902108544
 20
8942.51669939905
 30
0.0
  0
ENDBLK
  5
18C2F
330
18C24
100
AcDbEntity
  8
0
 48
50.0
100
AcDbBlockEnd
  0
BLOCK
  5
18C31
330
18C30
100
AcDbEntity
  8
0
 48
50.0
100
AcDbBlockBegin
  2
*D11
 70
     1
 10
0.0
 20
0.0
 30
0.0
  3
*D11
  1

  0
LINE
  5
18C32
330
18C30
100
AcDbEntity
  8
寸法
 62
     0
 48
50.0
370
    -2
100
AcDbLine
 10
7621.396575106999
 20
9600.764155186094
 30
0.0
 11
8016.754300969024
 21
9494.828371819961
 31
0.0
  0
LINE
  5
18C33
330
18C30
100
AcDbEntity
  8
寸法
 62
     0
 48
50.0
370
    -2
100
AcDbLine
 10
7621.396575106999
 20
9150.764155186099
 30
0.0
 11
8016.754300969024
 21
9044.828371819964
 31
0.0
  0
LINE
  5
18C34
330
18C30
100
AcDbEntity
  8
寸法
 62
     0
 48
50.0
370
    -2
100
AcDbLine
 10
7956.754300969024
 20
9510.905323365827
 30
0.0
 11
7956.754300969024
 21
9060.90532336583
 31
0.0
  0
INSERT
  5
18C35
330
18C30
100
AcDbEntity
  8
寸法
 62
     0
 48
50.0
370
    -2
100
AcDbBlockReference
  2
_DOTSMALL
 10
7956.754300969024
 20
9510.905323365827
 30
0.0
 41
100.0
 42
100.0
 43
100.0
 50
90.0
  0
INSERT
  5
18C36
330
18C30
100
AcDbEntity
  8
寸法
 62
     0
 48
50.0
370
    -2
100
AcDbBlockReference
  2
_DOTSMALL
 10
7956.754300969024
 20
9060.90532336583
 30
0.0
 41
100.0
 42
100.0
 43
100.0
 50
270.0
  0
MTEXT
  5
18C37
330
18C30
100
AcDbEntity
  8
寸法
 62
     7
 48
50.0
100
AcDbMText
 10
7856.754300969022
 20
9285.905323365829
 30
0.0
 40
120.0
 41
0.0
 71
     5
 72
     1
  1
\A1;450
  7
STYLE1
 11
0.0000000000000001
 21
1.0
 31
0.0
 73
     1
 44
1.0
1001
ACAD
1000
MTEXTBEGIN
1070
    73
1070
     1
1070
    44
1040
1.0
1070
    74
1070
     0
1000
MTEXTEND
  0
POINT
  5
18C38
330
18C30
100
AcDbEntity
  8
DEFPOINTS
 62
     0
 48
50.0
100
AcDbPoint
 10
7601.396575106999
 20
9606.123139034718
 30
0.0
  0
POINT
  5
18C39
330
18C30
100
AcDbEntity
  8
DEFPOINTS
 62
     0
 48
50.0
100
AcDbPoint
 10
7601.396575106999
 20
9156.12313903472
 30
0.0
  0
POINT
  5
18C3A
330
18C30
100
AcDbEntity
  8
DEFPOINTS
 62
     0
 48
50.0
100
AcDbPoint
 10
7956.754300969024
 20
9060.90532336583
 30
0.0
  0
ENDBLK
  5
18C3B
330
18C30
100
AcDbEntity
  8
0
 48
50.0
100
AcDbBlockEnd
  0
BLOCK
  5
18C3D
330
18C3C
100
AcDbEntity
  8
0
 48
50.0
100
AcDbBlockBegin
  2
*D12
 70
     1
 10
0.0
 20
0.0
 30
0.0
  3
*D12
  1

  0
LINE
  5
18C3E
330
18C3C
100
AcDbEntity
  8
寸法
 62
     0
 48
50.0
370
    -2
100
AcDbLine
 10
7649.896575106999
 20
9581.123139034721
 30
0.0
 11
8337.32292084141
 21
9581.123139034721
 31
0.0
  0
LINE
  5
18C3F
330
18C3C
100
AcDbEntity
  8
寸法
 62
     0
 48
50.0
370
    -2
100
AcDbLine
 10
7649.896575106973
 20
7901.123139034706
 30
0.0
 11
8337.32292084141
 21
7901.123139034706
 31
0.0
  0
LINE
  5
18C40
330
18C3C
100
AcDbEntity
  8
寸法
 62
     0
 48
50.0
370
    -2
100
AcDbLine
 10
8277.322920841411
 20
9581.123139034721
 30
0.0
 11
8277.322920841411
 21
7901.123139034706
 31
0.0
  0
INSERT
  5
18C41
330
18C3C
100
AcDbEntity
  8
寸法
 62
     0
 48
50.0
370
    -2
100
AcDbBlockReference
  2
_DOTSMALL
 10
8277.322920841411
 20
9581.123139034721
 30
0.0
 41
100.0
 42
100.0
 43
100.0
 50
90.0
  0
INSERT
  5
18C42
330
18C3C
100
AcDbEntity
  8
寸法
 62
     0
 48
50.0
370
    -2
100
AcDbBlockReference
  2
_DOTSMALL
 10
8277.322920841411
 20
7901.123139034706
 30
0.0
 41
100.0
 42
100.0
 43
100.0
 50
270.0
  0
MTEXT
  5
18C43
330
18C3C
100
AcDbEntity
  8
寸法
 62
     7
 48
50.0
100
AcDbMText
 10
8177.311109817788
 20
8741.123139034712
 30
0.0
 40
120.0
 41
0.0
 71
     5
 72
     1
  1
\A1;4X420=1680
  7
STYLE1
 11
0.0000000000000001
 21
1.0
 31
0.0
 73
     1
 44
1.0
1001
ACAD
1000
MTEXTBEGIN
1070
    73
1070
     1
1070
    44
1040
1.0
1070
    74
1070
     0
1000
MTEXTEND
  0
POINT
  5
18C44
330
18C3C
100
AcDbEntity
  8
DEFPOINTS
 62
     0
 48
50.0
100
AcDbPoint
 10
7629.896575106998
 20
9581.123139034721
 30
0.0
  0
POINT
  5
18C45
330
18C3C
100
AcDbEntity
  8
DEFPOINTS
 62
     0
 48
50.0
100
AcDbPoint
 10
7629.896575106974
 20
7901.123139034706
 30
0.0
  0
POINT
  5
18C46
330
18C3C
100
AcDbEntity
  8
DEFPOINTS
 62
     0
 48
50.0
100
AcDbPoint
 10
8277.322920841411
 20
7901.123139034706
 30
0.0
  0
ENDBLK
  5
18C47
330
18C3C
100
AcDbEntity
  8
0
 48
50.0
100
AcDbBlockEnd
  0
BLOCK
  5
18C49
330
18C48
100
AcDbEntity
  8
0
 48
50.0
100
AcDbBlockBegin
  2
*D13
 70
     1
 10
0.0
 20
0.0
 30
0.0
  3
*D13
  1

  0
LINE
  5
18C4A
330
18C48
100
AcDbEntity
  8
寸法
 62
     0
 48
50.0
370
    -2
100
AcDbLine
 10
4183.037591258377
 20
9136.123139034619
 30
0.0
 11
4115.083950562663
 21
8882.516699398941
 31
0.0
  0
LINE
  5
18C4B
330
18C48
100
AcDbEntity
  8
寸法
 62
     0
 48
50.0
370
    -2
100
AcDbLine
 10
5246.037591258307
 20
9136.123139034671
 30
0.0
 11
5178.08395056258
 21
8882.516699398941
 31
0.0
  0
LINE
  5
18C4C
330
18C48
100
AcDbEntity
  8
寸法
 62
     0
 48
50.0
370
    -2
100
AcDbLine
 10
4131.160902108532
 20
8942.516699398941
 30
0.0
 11
5194.160902108448
 21
8942.516699398941
 31
0.0
  0
INSERT
  5
18C4D
330
18C48
100
AcDbEntity
  8
寸法
 62
     0
 48
50.0
370
    -2
100
AcDbBlockReference
  2
_DOTSMALL
 10
4131.160902108532
 20
8942.516699398941
 30
0.0
 41
100.0
 42
100.0
 43
100.0
 50
180.0
  0
INSERT
  5
18C4E
330
18C48
100
AcDbEntity
  8
寸法
 62
     0
 48
50.0
370
    -2
100
AcDbBlockReference
  2
_DOTSMALL
 10
5194.160902108448
 20
8942.516699398941
 30
0.0
 41
100.0
 42
100.0
 43
100.0
  0
MTEXT
  5
18C4F
330
18C48
100
AcDbEntity
  8
寸法
 62
     7
 48
50.0
100
AcDbMText
 10
4658.986452655306
 20
9042.516699398941
 30
0.0
 40
120.0
 41
0.0
 71
     5
 72
     1
  1
\A1;1063
  7
STYLE1
 73
     1
 44
1.0
1001
ACAD
1000
MTEXTBEGIN
1070
    73
1070
     1
1070
    44
1040
1.0
1070
    74
1070
     0
1000
MTEXTEND
  0
POINT
  5
18C50
330
18C48
100
AcDbEntity
  8
DEFPOINTS
 62
     0
 48
50.0
100
AcDbPoint
 10
4188.396575106999
 20
9156.123139034617
 30
0.0
  0
POINT
  5
18C51
330
18C48
100
AcDbEntity
  8
DEFPOINTS
 62
     0
 48
50.0
100
AcDbPoint
 10
5251.396575106929
 20
9156.123139034672
 30
0.0
  0
POINT
  5
18C52
330
18C48
100
AcDbEntity
  8
DEFPOINTS
 62
     0
 48
50.0
100
AcDbPoint
 10
5194.160902108448
 20
8942.516699398941
 30
0.0
  0
ENDBLK
  5
18C53
330
18C48
100
AcDbEntity
  8
0
 48
50.0
100
AcDbBlockEnd
  0
BLOCK
  5
18C55
330
18C54
100
AcDbEntity
  8
0
 48
50.0
100
AcDbBlockBegin
  2
*D14
 70
     1
 10
0.0
 20
0.0
 30
0.0
  3
*D14
  1

  0
LINE
  5
18C56
330
18C54
100
AcDbEntity
  8
寸法
 62
     0
 48
50.0
370
    -2
100
AcDbLine
 10
5274.037591258307
 20
9136.123139034669
 30
0.0
 11
5206.08395056258
 21
8882.516699398941
 31
0.0
  0
LINE
  5
18C57
330
18C54
100
AcDbEntity
  8
寸法
 62
     0
 48
50.0
370
    -2
100
AcDbLine
 10
6505.037591258377
 20
9136.123139034662
 30
0.0
 11
6437.083950562653
 21
8882.516699398941
 31
0.0
  0
LINE
  5
18C58
330
18C54
100
AcDbEntity
  8
寸法
 62
     0
 48
50.0
370
    -2
100
AcDbLine
 10
5222.160902108448
 20
8942.516699398941
 30
0.0
 11
6453.16090210852
 21
8942.516699398941
 31
0.0
  0
INSERT
  5
18C59
330
18C54
100
AcDbEntity
  8
寸法
 62
     0
 48
50.0
370
    -2
100
AcDbBlockReference
  2
_DOTSMALL
 10
5222.160902108448
 20
8942.516699398941
 30
0.0
 41
100.0
 42
100.0
 43
100.0
 50
180.0
  0
INSERT
  5
18C5A
330
18C54
100
AcDbEntity
  8
寸法
 62
     0
 48
50.0
370
    -2
100
AcDbBlockReference
  2
_DOTSMALL
 10
6453.16090210852
 20
8942.516699398941
 30
0.0
 41
100.0
 42
100.0
 43
100.0
  0
MTEXT
  5
18C5B
330
18C54
100
AcDbEntity
  8
寸法
 62
     7
 48
50.0
100
AcDbMText
 10
6081.244808320626
 20
9042.528510422561
 30
0.0
 40
120.0
 41
0.0
 71
     5
 72
     1
  1
\A1;1231
  7
STYLE1
 73
     1
 44
1.0
1001
ACAD
1000
MTEXTBEGIN
1070
    73
1070
     1
1070
    44
1040
1.0
1070
    74
1070
     0
1000
MTEXTEND
  0
POINT
  5
18C5C
330
18C54
100
AcDbEntity
  8
DEFPOINTS
 62
     0
 48
50.0
100
AcDbPoint
 10
5279.396575106929
 20
9156.123139034669
 30
0.0
  0
POINT
  5
18C5D
330
18C54
100
AcDbEntity
  8
DEFPOINTS
 62
     0
 48
50.0
100
AcDbPoint
 10
6510.396575106999
 20
9156.123139034662
 30
0.0
  0
POINT
  5
18C5E
330
18C54
100
AcDbEntity
  8
DEFPOINTS
 62
     0
 48
50.0
100
AcDbPoint
 10
6453.16090210852
 20
8942.516699398941
 30
0.0
  0
ENDBLK
  5
18C5F
330
18C54
100
AcDbEntity
  8
0
 48
50.0
100
AcDbBlockEnd
  0
BLOCK
  5
18C61
330
18C60
100
AcDbEntity
  8
0
 48
50.0
100
AcDbBlockBegin
  2
*D15
 70
     1
 10
0.0
 20
0.0
 30
0.0
  3
*D15
  1

  0
LINE
  5
18C62
330
18C60
100
AcDbEntity
  8
寸法
 62
     0
 48
50.0
370
    -2
100
AcDbLine
 10
5065.896575106966
 20
7749.123139034579
 30
0.0
 11
5065.896575106966
 21
7099.952920982538
 31
0.0
  0
LINE
  5
18C63
330
18C60
100
AcDbEntity
  8
寸法
 62
     0
 48
50.0
370
    -2
100
AcDbLine
 10
6331.896575106966
 20
7749.123139034579
 30
0.0
 11
6331.896575106966
 21
7099.952920982538
 31
0.0
  0
LINE
  5
18C64
330
18C60
100
AcDbEntity
  8
寸法
 62
     0
 48
50.0
370
    -2
100
AcDbLine
 10
5065.896575106966
 20
7159.952920982537
 30
0.0
 11
6331.896575106966
 21
7159.952920982537
 31
0.0
  0
INSERT
  5
18C65
330
18C60
100
AcDbEntity
  8
寸法
 62
     0
 48
50.0
370
    -2
100
AcDbBlockReference
  2
_DOTSMALL
 10
5065.896575106966
 20
7159.952920982537
 30
0.0
 41
100.0
 42
100.0
 43
100.0
 50
180.0
  0
INSERT
  5
18C66
330
18C60
100
AcDbEntity
  8
寸法
 62
     0
 48
50.0
370
    -2
100
AcDbBlockReference
  2
_DOTSMALL
 10
6331.896575106966
 20
7159.952920982537
 30
0.0
 41
100.0
 42
100.0
 43
100.0
  0
MTEXT
  5
18C67
330
18C60
100
AcDbEntity
  8
寸法
 62
     7
 48
50.0
100
AcDbMText
 10
5711.986008735934
 20
7359.964732006159
 30
0.0
 40
120.0
 41
0.0
 71
     5
 72
     1
  1
\A1;有効開口部間口\P1266
  7
STYLE1
 73
     1
 44
1.0
1001
ACAD
1000
MTEXTBEGIN
1070
    73
1070
     1
1070
    44
1040
1.0
1070
    74
1070
     0
1000
MTEXTEND
  0
POINT
  5
18C68
330
18C60
100
AcDbEntity
  8
DEFPOINTS
 62
     0
 48
50.0
100
AcDbPoint
 10
5065.896575106966
 20
7769.123139034579
 30
0.0
  0
POINT
  5
18C69
330
18C60
100
AcDbEntity
  8
DEFPOINTS
 62
     0
 48
50.0
100
AcDbPoint
 10
6331.896575106966
 20
7769.123139034579
 30
0.0
  0
POINT
  5
18C6A
330
18C60
100
AcDbEntity
  8
DEFPOINTS
 62
     0
 48
50.0
100
AcDbPoint
 10
6331.896575106966
 20
7159.952920982537
 30
0.0
  0
ENDBLK
  5
18C6B
330
18C60
100
AcDbEntity
  8
0
 48
50.0
100
AcDbBlockEnd
  0
BLOCK
  5
18C6D
330
18C6C
100
AcDbEntity
  8
0
 48
50.0
100
AcDbBlockBegin
  2
*D16
 70
     1
 10
0.0
 20
0.0
 30
0.0
  3
*D16
  1

  0
LINE
  5
18C6E
330
18C6C
100
AcDbEntity
  8
寸法
 62
     0
 48
50.0
370
    -2
100
AcDbLine
 10
7200.896575106966
 20
7846.123139034578
 30
0.0
 11
7457.192158500191
 21
7846.123139034578
 31
0.0
  0
LINE
  5
18C6F
330
18C6C
100
AcDbEntity
  8
寸法
 62
     0
 48
50.0
370
    -2
100
AcDbLine
 10
7199.896575106966
 20
7769.123139034579
 30
0.0
 11
7457.192158500191
 21
7769.123139034579
 31
0.0
  0
LINE
  5
18C70
330
18C6C
100
AcDbEntity
  8
寸法
 62
     0
 48
50.0
370
    -2
100
AcDbLine
 10
7417.192158500192
 20
7866.123139034579
 30
0.0
 11
7417.192158500192
 21
7886.123139034578
 31
0.0
  0
LINE
  5
18C71
330
18C6C
100
AcDbEntity
  8
寸法
 62
     0
 48
50.0
370
    -2
100
AcDbLine
 10
7417.192158500192
 20
7749.123139034579
 30
0.0
 11
7417.192158500192
 21
7533.123139034573
 31
0.0
  0
LINE
  5
18C72
330
18C6C
100
AcDbEntity
  8
寸法
 62
     0
 48
50.0
370
    -2
100
AcDbLine
 10
7417.192158500192
 20
7846.123139034578
 30
0.0
 11
7417.192158500192
 21
7769.123139034579
 31
0.0
  0
INSERT
  5
18C73
330
18C6C
100
AcDbEntity
  8
寸法
 62
     0
 48
50.0
370
    -2
100
AcDbBlockReference
  2
_DOT
 10
7417.192158500192
 20
7846.123139034578
 30
0.0
 41
20.0
 42
20.0
 43
20.0
 50
270.0
  0
INSERT
  5
18C74
330
18C6C
100
AcDbEntity
  8
寸法
 62
     0
 48
50.0
370
    -2
100
AcDbBlockReference
  2
_DOT
 10
7417.192158500192
 20
7769.123139034579
 30
0.0
 41
20.0
 42
20.0
 43
20.0
 50
90.0
  0
MTEXT
  5
18C75
330
18C6C
100
AcDbEntity
  8
寸法
 62
     7
 48
50.0
100
AcDbMText
 10
7325.192158500191
 20
7631.123139034575
 30
0.0
 40
120.0
 41
0.0
 71
     5
 72
     1
  1
\A1;77
  7
STYLE1
 11
0.0000000000000001
 21
1.0
 31
0.0
 73
     1
 44
1.0
1001
ACAD
1000
MTEXTBEGIN
1070
    73
1070
     1
1070
    44
1040
1.0
1070
    74
1070
     0
1000
MTEXTEND
  0
POINT
  5
18C76
330
18C6C
100
AcDbEntity
  8
DEFPOINTS
 62
     0
 48
50.0
100
AcDbPoint
 10
7180.896575106967
 20
7846.123139034578
 30
0.0
  0
POINT
  5
18C77
330
18C6C
100
AcDbEntity
  8
DEFPOINTS
 62
     0
 48
50.0
100
AcDbPoint
 10
7179.896575106965
 20
7769.123139034579
 30
0.0
  0
POINT
  5
18C78
330
18C6C
100
AcDbEntity
  8
DEFPOINTS
 62
     0
 48
50.0
100
AcDbPoint
 10
7417.192158500192
 20
7769.123139034579
 30
0.0
  0
ENDBLK
  5
18C79
330
18C6C
100
AcDbEntity
  8
0
 48
50.0
100
AcDbBlockEnd
  0
BLOCK
  5
18DA0
330
18C7A
100
AcDbEntity
  8
0
 48
50.0
100
AcDbBlockBegin
  2
A$C3B1A506B
 70
     0
 10
0.0
 20
0.0
 30
0.0
  3
A$C3B1A506B
  1

  0
MTEXT
  5
18C7B
330
18C7A
100
AcDbEntity
  8
寸法
 62
     7
 48
50.0
100
AcDbMText
 10
3342.250386887194
 20
2778.329429134012
 30
0.0
 40
96.0
 41
0.0
 71
     5
 72
     1
  1
棚 2段
  7
STYLE1
 73
     1
 44
1.0
1001
ACAD
1000
MTEXTBEGIN
1070
    73
1070
     1
1070
    44
1040
1.0
1070
    74
1070
     0
1000
MTEXTEND
  0
MTEXT
  5
18C7C
330
18C7A
100
AcDbEntity
  8
寸法
 62
     7
 48
50.0
100
AcDbMText
 10
2167.25038688716
 20
2778.329429133986
 30
0.0
 40
96.0
 41
0.0
 71
     5
 72
     1
  1
棚 2段
  7
STYLE1
 73
     1
 44
1.0
1001
ACAD
1000
MTEXTBEGIN
1070
    73
1070
     1
1070
    44
1040
1.0
1070
    74
1070
     0
1000
MTEXTEND
  0
MTEXT
  5
18C7D
330
18C7A
100
AcDbEntity
  8
寸法
 62
     7
 48
50.0
100
AcDbMText
 10
992.2503868871608
 20
2778.329429133935
 30
0.0
 40
96.0
 41
0.0
 71
     5
 72
     1
  1
棚 2段
  7
STYLE1
 73
     1
 44
1.0
1001
ACAD
1000
MTEXTBEGIN
1070
    73
1070
     1
1070
    44
1040
1.0
1070
    74
1070
     0
1000
MTEXTEND
  0
LINE
  5
18C7E
330
18C7A
100
AcDbEntity
  8
細線
 48
50.0
100
AcDbLine
 10
2771.970589276527
 20
1368.994384123192
 30
0.0
 11
3398.970589276523
 21
1368.994384123192
 31
0.0
  0
LINE
  5
18C7F
330
18C7A
100
AcDbEntity
  8
細線
 48
50.0
100
AcDbLine
 10
2117.970593930113
 20
1335.285615569113
 30
0.0
 11
3398.970589276523
 21
1335.285615569113
 31
0.0
  0
LINE
  5
18C80
330
18C7A
100
AcDbEntity
  8
細線
 48
50.0
100
AcDbLine
 10
2076.970593930115
 20
1364.690523565368
 30
0.0
 11
1322.970589276523
 21
1364.690523565367
 31
0.0
  0
LINE
  5
18C81
330
18C7A
100
AcDbEntity
  8
細線
100
AcDbLine
 10
3170.720579860066
 20
1388.494284088199
 30
0.0
 11
3173.052119381877
 21
1393.494286728162
 31
0.0
  0
LINE
  5
18C82
330
18C7A
100
AcDbEntity
  8
細線
100
AcDbLine
 10
3240.720589276525
 20
1388.494269174465
 30
0.0
 11
3238.389042800336
 21
1393.494286728144
 31
0.0
  0
LINE
  5
18C83
330
18C7A
100
AcDbEntity
  8
細線
100
AcDbLine
 10
3238.389042800336
 20
1393.494286728144
 30
0.0
 11
3173.052119381862
 21
1393.494286728133
 31
0.0
  0
LINE
  5
18C84
330
18C7A
100
AcDbEntity
  8
細線
100
AcDbLine
 10
3098.389042800336
 20
1393.494286728144
 30
0.0
 11
3033.052119381862
 21
1393.494286728133
 31
0.0
  0
LINE
  5
18C85
330
18C7A
100
AcDbEntity
  8
細線
100
AcDbLine
 10
3100.720589276523
 20
1388.494269174465
 30
0.0
 11
3098.389042800336
 21
1393.494286728144
 31
0.0
  0
LINE
  5
18C86
330
18C7A
100
AcDbEntity
  8
細線
100
AcDbLine
 10
3030.720579860066
 20
1388.494284088199
 30
0.0
 11
3033.052119381875
 21
1393.494286728162
 31
0.0
  0
LINE
  5
18C87
330
18C7A
100
AcDbEntity
  8
細線
100
AcDbLine
 10
2890.720589276525
 20
1388.494269174465
 30
0.0
 11
2893.052128798336
 21
1393.494271814428
 31
0.0
  0
LINE
  5
18C88
330
18C7A
100
AcDbEntity
  8
細線
100
AcDbLine
 10
2960.720598692984
 20
1388.494254260731
 30
0.0
 11
2958.389052216793
 21
1393.49427181441
 31
0.0
  0
LINE
  5
18C89
330
18C7A
100
AcDbEntity
  8
細線
100
AcDbLine
 10
2958.389052216795
 20
1393.49427181441
 30
0.0
 11
2893.052128798321
 21
1393.494271814399
 31
0.0
  0
LINE
  5
18C8A
330
18C7A
100
AcDbEntity
  8
細線
100
AcDbLine
 10
2667.139038146739
 20
1359.494298590735
 30
0.0
 11
2601.802114728263
 21
1359.494298590724
 31
0.0
  0
LINE
  5
18C8B
330
18C7A
100
AcDbEntity
  8
細線
100
AcDbLine
 10
2669.470584622926
 20
1354.494281037055
 30
0.0
 11
2667.139038146737
 21
1359.494298590735
 31
0.0
  0
LINE
  5
18C8C
330
18C7A
100
AcDbEntity
  8
細線
100
AcDbLine
 10
2599.470575206469
 20
1354.49429595079
 30
0.0
 11
2601.802114728278
 21
1359.494298590752
 31
0.0
  0
LINE
  5
18C8D
330
18C7A
100
AcDbEntity
  8
細線
 48
50.0
100
AcDbLine
 10
2440.853968524536
 20
1372.765132327548
 30
0.0
 11
2446.609486107205
 21
1354.494281037057
 31
0.0
  0
LINE
  5
18C8E
330
18C7A
100
AcDbEntity
  8
細線
 48
50.0
100
AcDbLine
 10
2429.925520044106
 20
1372.765132327546
 30
0.0
 11
2440.853968524536
 21
1372.765132327548
 31
0.0
  0
ARC
  5
18C8F
330
18C7A
100
AcDbEntity
  8
細線
 48
50.0
100
AcDbCircle
 10
2424.471163986787
 20
1374.265132327546
 30
0.0
 40
5.0
100
AcDbArc
 50
204.6243183520723
 51
335.3756816479278
  0
ARC
  5
18C90
330
18C7A
100
AcDbEntity
  8
細線
 48
50.0
100
AcDbCircle
 10
2429.925520044106
 20
1371.765132327546
 30
0.0
 40
1.0
100
AcDbArc
 50
90.0
 51
155.3756816479277
  0
ARC
  5
18C91
330
18C7A
100
AcDbEntity
  8
細線
 48
50.0
100
AcDbCircle
 10
2419.016807929469
 20
1371.765132327546
 30
0.0
 40
1.0
100
AcDbArc
 50
24.62431835207225
 51
90.0
  0
LINE
  5
18C92
330
18C7A
100
AcDbEntity
  8
細線
 48
50.0
100
AcDbLine
 10
2408.088359449037
 20
1372.765132327548
 30
0.0
 11
2419.016807929469
 21
1372.765132327546
 31
0.0
  0
LINE
  5
18C93
330
18C7A
100
AcDbEntity
  8
細線
 48
50.0
100
AcDbLine
 10
2402.33284186637
 20
1354.494281037054
 30
0.0
 11
2408.088359449037
 21
1372.765132327548
 31
0.0
  0
LINE
  5
18C94
330
18C7A
100
AcDbEntity
  8
細線
100
AcDbLine
 10
2458.070304175992
 20
1354.494278397076
 30
0.0
 11
2460.401843697802
 21
1359.494281037039
 31
0.0
  0
LINE
  5
18C95
330
18C7A
100
AcDbEntity
  8
細線
100
AcDbLine
 10
2528.070313592451
 20
1354.494263483342
 30
0.0
 11
2525.738767116262
 21
1359.494281037021
 31
0.0
  0
LINE
  5
18C96
330
18C7A
100
AcDbEntity
  8
細線
100
AcDbLine
 10
2525.738767116262
 20
1359.494281037021
 30
0.0
 11
2460.40184369779
 21
1359.49428103701
 31
0.0
  0
LINE
  5
18C97
330
18C7A
100
AcDbEntity
  8
細線
100
AcDbLine
 10
2387.139046332155
 20
1359.494281037021
 30
0.0
 11
2321.80212291368
 21
1359.49428103701
 31
0.0
  0
LINE
  5
18C98
330
18C7A
100
AcDbEntity
  8
細線
100
AcDbLine
 10
2389.470592808342
 20
1354.494263483342
 30
0.0
 11
2387.139046332153
 21
1359.494281037021
 31
0.0
  0
LINE
  5
18C99
330
18C7A
100
AcDbEntity
  8
細線
100
AcDbLine
 10
2319.470584622926
 20
1354.494281037054
 30
0.0
 11
2321.802122913694
 21
1359.494281037039
 31
0.0
  0
LINE
  5
18C9A
330
18C7A
100
AcDbEntity
  8
細線
100
AcDbLine
 10
2179.47061994182
 20
1354.494289224422
 30
0.0
 11
2181.802158232587
 21
1359.494289224407
 31
0.0
  0
LINE
  5
18C9B
330
18C7A
100
AcDbEntity
  8
細線
100
AcDbLine
 10
2249.470628127236
 20
1354.49427167071
 30
0.0
 11
2247.139081651047
 21
1359.494289224389
 31
0.0
  0
LINE
  5
18C9C
330
18C7A
100
AcDbEntity
  8
細線
100
AcDbLine
 10
2247.139081651047
 20
1359.494289224389
 30
0.0
 11
2181.802158232573
 21
1359.494289224378
 31
0.0
  0
LINE
  5
18C9D
330
18C7A
100
AcDbEntity
  8
細線
100
AcDbLine
 10
1807.970585744697
 20
1320.494460905133
 30
0.0
 11
1810.302124035464
 21
1325.494460905118
 31
0.0
  0
LINE
  5
18C9E
330
18C7A
100
AcDbEntity
  8
細線
100
AcDbLine
 10
1877.970593930113
 20
1320.494443351421
 30
0.0
 11
1875.639047453926
 21
1325.4944609051
 31
0.0
  0
LINE
  5
18C9F
330
18C7A
100
AcDbEntity
  8
細線
100
AcDbLine
 10
1875.639047453926
 20
1325.4944609051
 30
0.0
 11
1810.302124035452
 21
1325.494460905089
 31
0.0
  0
LINE
  5
18CA0
330
18C7A
100
AcDbEntity
  8
細線
100
AcDbLine
 10
2015.639047453926
 20
1325.4944609051
 30
0.0
 11
1950.302124035452
 21
1325.494460905089
 31
0.0
  0
LINE
  5
18CA1
330
18C7A
100
AcDbEntity
  8
細線
100
AcDbLine
 10
2017.970593930113
 20
1320.494443351421
 30
0.0
 11
2015.639047453924
 21
1325.4944609051
 31
0.0
  0
LINE
  5
18CA2
330
18C7A
100
AcDbEntity
  8
細線
100
AcDbLine
 10
1947.970585744697
 20
1320.494460905133
 30
0.0
 11
1950.302124035465
 21
1325.494460905118
 31
0.0
  0
LINE
  5
18CA3
330
18C7A
100
AcDbEntity
  8
細線
100
AcDbLine
 10
1735.639047453926
 20
1325.494460905098
 30
0.0
 11
1670.302124035454
 21
1325.494460905087
 31
0.0
  0
LINE
  5
18CA4
330
18C7A
100
AcDbEntity
  8
細線
100
AcDbLine
 10
1737.970593930113
 20
1320.494443351419
 30
0.0
 11
1735.639047453926
 21
1325.494460905098
 31
0.0
  0
LINE
  5
18CA5
330
18C7A
100
AcDbEntity
  8
細線
100
AcDbLine
 10
1667.970585744697
 20
1320.494460905131
 30
0.0
 11
1670.302124035465
 21
1325.494460905116
 31
0.0
  0
LINE
  5
18CA6
330
18C7A
100
AcDbEntity
  8
細線
100
AcDbLine
 10
1527.970593930113
 20
1320.494460905133
 30
0.0
 11
1530.302132220881
 21
1325.494460905118
 31
0.0
  0
LINE
  5
18CA7
330
18C7A
100
AcDbEntity
  8
細線
100
AcDbLine
 10
1597.970602115529
 20
1320.494443351421
 30
0.0
 11
1595.639055639342
 21
1325.4944609051
 31
0.0
  0
LINE
  5
18CA8
330
18C7A
100
AcDbEntity
  8
細線
100
AcDbLine
 10
1595.639055639342
 20
1325.4944609051
 30
0.0
 11
1530.302132220869
 21
1325.494460905089
 31
0.0
  0
ARC
  5
18CA9
330
18C7A
100
AcDbEntity
  8
部品1
 48
0.01
100
AcDbCircle
 10
1483.470482677778
 20
1319.493338720063
 30
0.0
 40
0.5
100
AcDbArc
 50
270.0
 51
0.0
  0
LINE
  5
18CAA
330
18C7A
100
AcDbEntity
  8
部品1
 48
0.01
100
AcDbLine
 10
1483.970482677778
 20
1320.493338720063
 30
0.0
 11
1483.970482677778
 21
1319.493338720063
 31
0.0
  0
LINE
  5
18CAB
330
18C7A
100
AcDbEntity
  8
部品1
 48
0.01
100
AcDbLine
 10
1483.970482677778
 20
1320.493338720063
 30
0.0
 11
1483.970482677778
 21
1319.493338720063
 31
0.0
  0
LINE
  5
18CAC
330
18C7A
100
AcDbEntity
  8
部品1
 48
0.01
100
AcDbLine
 10
1483.470482677778
 20
1318.993338720063
 30
0.0
 11
1476.857977247713
 21
1318.993338720062
 31
0.0
  0
ARC
  5
18CAD
330
18C7A
100
AcDbEntity
  8
部品1
100
AcDbCircle
 10
1476.926326800494
 20
1319.993338720062
 30
0.0
 40
1.0
100
AcDbArc
 50
160.5287793655865
 51
270.0
  0
ARC
  5
18CAE
330
18C7A
100
AcDbEntity
  8
部品1
100
AcDbCircle
 10
1451.470482677778
 20
1328.993338720062
 30
0.0
 40
26.0
100
AcDbArc
 50
340.5287793655865
 51
0.0
  0
LINE
  5
18CAF
330
18C7A
100
AcDbEntity
  8
部品1
100
AcDbLine
 10
1477.470482677778
 20
1328.993338720062
 30
0.0
 11
1477.470482677778
 21
1333.993338720061
 31
0.0
  0
ARC
  5
18CB0
330
18C7A
100
AcDbEntity
  8
部品1
 48
0.01
100
AcDbCircle
 10
1475.470482677778
 20
1333.993338720061
 30
0.0
 40
2.0
100
AcDbArc
 50
0.0
 51
90.0
  0
ARC
  5
18CB1
330
18C7A
100
AcDbEntity
  8
部品1
100
AcDbCircle
 10
1473.862091052968
 20
1332.993338720062
 30
0.0
 40
3.0
100
AcDbArc
 50
90.0
 51
141.6069559808035
  0
LINE
  5
18CB2
330
18C7A
100
AcDbEntity
  8
部品1
 48
0.01
100
AcDbLine
 10
1475.470482677778
 20
1335.993338720062
 30
0.0
 11
1473.862091052968
 21
1335.993338720062
 31
0.0
  0
ARC
  5
18CB3
330
18C7A
100
AcDbEntity
  8
部品1
100
AcDbCircle
 10
1455.399768463507
 20
1332.293338720065
 30
0.0
 40
3.0
100
AcDbArc
 50
254.0576313943215
 51
270.0
  0
ARC
  5
18CB4
330
18C7A
100
AcDbEntity
  8
部品1
100
AcDbCircle
 10
1462.541196892049
 20
1332.293338720065
 30
0.0
 40
3.0
100
AcDbArc
 50
270.0
 51
285.9423686056786
  0
LINE
  5
18CB5
330
18C7A
100
AcDbEntity
  8
部品1
100
AcDbLine
 10
1462.541196892049
 20
1329.293338720064
 30
0.0
 11
1455.399768463507
 21
1329.293338720064
 31
0.0
  0
ARC
  5
18CB6
330
18C7A
100
AcDbEntity
  8
部品1
100
AcDbCircle
 10
1458.970482677778
 20
1344.793338720065
 30
0.0
 40
16.0
100
AcDbArc
 50
285.9423686056786
 51
321.6069559808035
  0
LINE
  5
18CB7
330
18C7A
100
AcDbEntity
  8
部品1
 48
0.01
100
AcDbLine
 10
1442.470482677778
 20
1335.993338720062
 30
0.0
 11
1444.078874302588
 21
1335.993338720062
 31
0.0
  0
ARC
  5
18CB8
330
18C7A
100
AcDbEntity
  8
部品1
100
AcDbCircle
 10
1444.078874302588
 20
1332.993338720062
 30
0.0
 40
3.0
100
AcDbArc
 50
38.39304401919648
 51
90.0
  0
ARC
  5
18CB9
330
18C7A
100
AcDbEntity
  8
部品1
100
AcDbCircle
 10
1458.970482677778
 20
1344.793338720065
 30
0.0
 40
16.0
100
AcDbArc
 50
218.3930440191965
 51
254.0576313943215
  0
LINE
  5
18CBA
330
18C7A
100
AcDbEntity
  8
部品1
100
AcDbLine
 10
1440.470482677778
 20
1328.993338720062
 30
0.0
 11
1440.470482677778
 21
1333.993338720061
 31
0.0
  0
ARC
  5
18CBB
330
18C7A
100
AcDbEntity
  8
部品1
 48
0.01
100
AcDbCircle
 10
1442.470482677778
 20
1333.993338720061
 30
0.0
 40
2.0
100
AcDbArc
 50
90.0
 51
180.0
  0
ARC
  5
18CBC
330
18C7A
100
AcDbEntity
  8
部品1
100
AcDbCircle
 10
1466.470482677778
 20
1328.993338720062
 30
0.0
 40
26.0
100
AcDbArc
 50
180.0
 51
199.4712206344134
  0
ARC
  5
18CBD
330
18C7A
100
AcDbEntity
  8
部品1
 48
0.01
100
AcDbCircle
 10
1434.470482677778
 20
1319.493338720063
 30
0.0
 40
0.5
100
AcDbArc
 50
180.0
 51
270.0
  0
LINE
  5
18CBE
330
18C7A
100
AcDbEntity
  8
部品1
 48
0.01
100
AcDbLine
 10
1434.470482677778
 20
1318.993338720063
 30
0.0
 11
1441.014638555061
 21
1318.993338720062
 31
0.0
  0
LINE
  5
18CBF
330
18C7A
100
AcDbEntity
  8
部品1
 48
0.01
100
AcDbLine
 10
1433.970482677778
 20
1320.493338720063
 30
0.0
 11
1433.970482677778
 21
1319.493338720063
 31
0.0
  0
ARC
  5
18CC0
330
18C7A
100
AcDbEntity
  8
部品1
100
AcDbCircle
 10
1441.014638555061
 20
1319.993338720062
 30
0.0
 40
1.0
100
AcDbArc
 50
270.0
 51
19.47122063441346
  0
LINE
  5
18CC1
330
18C7A
100
AcDbEntity
  8
細線
100
AcDbLine
 10
1479.470482677785
 20
1338.493338720065
 30
0.0
 11
1438.470482677785
 21
1338.493338720058
 31
0.0
  0
LINE
  5
18CC2
330
18C7A
100
AcDbEntity
  8
細線
100
AcDbLine
 10
1438.470482677785
 20
1338.493338720058
 30
0.0
 11
1438.470482677785
 21
1320.49333872004
 31
0.0
  0
LINE
  5
18CC3
330
18C7A
100
AcDbEntity
  8
細線
100
AcDbLine
 10
1479.470482677785
 20
1338.493338720065
 30
0.0
 11
1479.470482677785
 21
1320.49333872004
 31
0.0
  0
LINE
  5
18CC4
330
18C7A
100
AcDbEntity
  8
細線
100
AcDbLine
 10
1322.970589276523
 20
1324.494269174465
 30
0.0
 11
1322.970589276523
 21
1320.494269174513
 31
0.0
  0
LINE
  5
18CC5
330
18C7A
100
AcDbEntity
  8
寸法
 48
50.0
100
AcDbLine
 10
1746.17359555837
 20
1170.531020743327
 30
0.0
 11
1694.767587648266
 21
1170.531020743327
 31
0.0
  0
LINE
  5
18CC6
330
18C7A
100
AcDbEntity
  8
寸法
 48
50.0
100
AcDbLine
 10
1694.767587648266
 20
1170.531020743327
 30
0.0
 11
1694.767587648266
 21
1201.841179395494
 31
0.0
  0
LINE
  5
18CC7
330
18C7A
100
AcDbEntity
  8
寸法
 48
50.0
100
AcDbLine
 10
1694.767587648266
 20
1201.841179395494
 30
0.0
 11
1665.006255656843
 21
1201.841179395494
 31
0.0
  0
LINE
  5
18CC8
330
18C7A
100
AcDbEntity
  8
寸法
 48
50.0
100
AcDbLine
 10
1665.006255656843
 20
1201.841179395494
 30
0.0
 11
1720.470591603318
 21
1239.420630324105
 31
0.0
  0
LINE
  5
18CC9
330
18C7A
100
AcDbEntity
  8
寸法
 48
50.0
100
AcDbLine
 10
1775.934927549793
 20
1201.841179395494
 30
0.0
 11
1720.470591603318
 21
1239.420630324105
 31
0.0
  0
LINE
  5
18CCA
330
18C7A
100
AcDbEntity
  8
寸法
 48
50.0
100
AcDbLine
 10
1746.17359555837
 20
1201.841179395494
 30
0.0
 11
1775.934927549793
 21
1201.841179395494
 31
0.0
  0
LINE
  5
18CCB
330
18C7A
100
AcDbEntity
  8
寸法
 48
50.0
100
AcDbLine
 10
1746.17359555837
 20
1170.531020743327
 30
0.0
 11
1746.17359555837
 21
1201.841179395494
 31
0.0
  0
LINE
  5
18CCC
330
18C7A
100
AcDbEntity
  8
寸法
 48
50.0
100
AcDbLine
 10
1694.767587648266
 20
1170.531020743327
 30
0.0
 11
1746.17359555837
 21
1170.531020743327
 31
0.0
  0
LINE
  5
18CCD
330
18C7A
100
AcDbEntity
  8
寸法
 48
50.0
100
AcDbLine
 10
2025.339129835225
 20
1227.676611498152
 30
0.0
 11
2025.339129835225
 21
1174.01297691636
 31
0.0
  0
LINE
  5
18CCE
330
18C7A
100
AcDbEntity
  8
寸法
 48
50.0
100
AcDbLine
 10
2114.623348430647
 20
1203.752977228664
 30
0.0
 11
2025.339129835225
 21
1227.676611498152
 31
0.0
  0
LINE
  5
18CCF
330
18C7A
100
AcDbEntity
  8
寸法
 48
50.0
100
AcDbLine
 10
1895.471408254923
 20
1203.752977228664
 30
0.0
 11
2114.623348430647
 21
1203.752977228664
 31
0.0
  0
DIMENSION
  5
18CD0
330
18C7A
100
AcDbEntity
  8
寸法
 48
50.0
100
AcDbDimension
  2
*D15
 10
2588.970589276523
 20
706.3240511224249
 30
0.0
 11
1969.060022905491
 21
706.3240511224249
 31
0.0
 12
-3742.925985830444
 22
-6453.628869860112
 32
0.0
 70
   128
  1
有効開口部間口\P<>
 71
     5
 42
1266.0
  3
INABA_S40G
100
AcDbAlignedDimension
 13
1322.970589276523
 23
1315.494269174465
 33
0.0
 14
2588.970589276523
 24
1315.494269174465
 34
0.0
100
AcDbRotatedDimension
1001
ACAD
1000
DSTYLE
1002
{
1070
   341
1005
0
1002
}
  0
LINE
  5
18CD1
330
18C7A
100
AcDbEntity
  8
部品1
100
AcDbLine
 10
3409.970589276524
 20
1392.494269174465
 30
0.0
 11
3437.970589276523
 21
1392.494269174465
 31
0.0
  0
DIMENSION
  5
18CD2
330
18C7A
100
AcDbEntity
  8
寸法
100
AcDbDimension
  2
*D16
 10
3674.266172669749
 20
1315.494269174465
 30
0.0
 11
3674.266172669748
 21
1177.494269174462
 31
0.0
 12
-3742.925985830444
 22
-6453.628869860112
 32
0.0
 70
   128
 71
     5
 42
77.0
  3
INABA_S40
100
AcDbAlignedDimension
 13
3437.970589276523
 23
1392.494269174465
 33
0.0
 14
3436.970589276523
 24
1315.494269174465
 34
0.0
 50
90.0
100
AcDbRotatedDimension
1001
ACAD
1000
DSTYLE
1002
{
1070
    41
1040
0.5
1070
    44
1040
1.0
1070
   147
1040
0.8
1070
   271
1070
     2
1070
   272
1070
     2
1070
   289
1070
     3
1070
   340
1005
F706
1070
   343
1005
164B4
1070
   344
1005
164B4
1002
}
  0
LINE
  5
18CD3
330
18C7A
100
AcDbEntity
  8
部品1
100
AcDbLine
 10
3437.970589276523
 20
1315.494269174465
 30
0.0
 11
3437.970589276523
 21
1392.494269174465
 31
0.0
  0
LINE
  5
18CD4
330
18C7A
100
AcDbEntity
  8
部品1
100
AcDbLine
 10
3398.970589276523
 20
1388.494269174465
 30
0.0
 11
3409.970589276524
 21
1388.494269174465
 31
0.0
  0
LINE
  5
18CD5
330
18C7A
100
AcDbEntity
  8
部品1
100
AcDbLine
 10
3407.970589276523
 20
1324.494269174465
 30
0.0
 11
3407.970589276523
 21
1315.494269174465
 31
0.0
  0
LINE
  5
18CD6
330
18C7A
100
AcDbEntity
  8
部品1
100
AcDbLine
 10
3398.970589276523
 20
1324.494269174465
 30
0.0
 11
3407.970589276523
 21
1324.494269174465
 31
0.0
  0
LINE
  5
18CD7
330
18C7A
100
AcDbEntity
  8
部品1
100
AcDbLine
 10
3398.970589276523
 20
1388.494269174465
 30
0.0
 11
3398.970589276523
 21
1324.494269174465
 31
0.0
  0
LINE
  5
18CD8
330
18C7A
100
AcDbEntity
  8
部品1
100
AcDbLine
 10
3409.970589276524
 20
1419.494269174465
 30
0.0
 11
3409.970589276524
 21
1388.494269174465
 31
0.0
  0
LINE
  5
18CD9
330
18C7A
100
AcDbEntity
  8
部品1
100
AcDbLine
 10
1322.970589276523
 20
1388.494269174465
 30
0.0
 11
1311.970589276523
 21
1388.494269174465
 31
0.0
  0
LINE
  5
18CDA
330
18C7A
100
AcDbEntity
  8
部品1
100
AcDbLine
 10
1283.970589276523
 20
1392.494269174465
 30
0.0
 11
1311.970589276523
 21
1392.494269174465
 31
0.0
  0
LINE
  5
18CDB
330
18C7A
100
AcDbEntity
  8
部品1
100
AcDbLine
 10
1313.970589276523
 20
1324.494269174465
 30
0.0
 11
1313.970589276523
 21
1315.494269174465
 31
0.0
  0
LINE
  5
18CDC
330
18C7A
100
AcDbEntity
  8
部品1
100
AcDbLine
 10
1322.970589276523
 20
1324.494269174465
 30
0.0
 11
1313.970589276523
 21
1324.494269174465
 31
0.0
  0
LINE
  5
18CDD
330
18C7A
100
AcDbEntity
  8
部品1
100
AcDbLine
 10
1313.970589276523
 20
1315.494269174465
 30
0.0
 11
1283.970589276523
 21
1315.494269174465
 31
0.0
  0
LINE
  5
18CDE
330
18C7A
100
AcDbEntity
  8
部品1
100
AcDbLine
 10
1283.970589276523
 20
1315.494269174465
 30
0.0
 11
1283.970589276523
 21
1392.494269174465
 31
0.0
  0
LINE
  5
18CDF
330
18C7A
100
AcDbEntity
  8
部品1
100
AcDbLine
 10
1322.970589276523
 20
1388.494269174465
 30
0.0
 11
1322.970589276523
 21
1324.494269174465
 31
0.0
  0
LINE
  5
18CE0
330
18C7A
100
AcDbEntity
  8
部品1
100
AcDbLine
 10
1311.970589276523
 20
1419.494269174462
 30
0.0
 11
1311.970589276523
 21
1388.494269174465
 31
0.0
  0
LINE
  5
18CE1
330
18C7A
100
AcDbEntity
  8
部品1
100
AcDbLine
 10
1311.970589276523
 20
1419.494269174462
 30
0.0
 11
3409.970589276524
 21
1419.494269174465
 31
0.0
  0
LINE
  5
18CE2
330
18C7A
100
AcDbEntity
  8
部品1
100
AcDbLine
 10
3407.970589276523
 20
1315.494269174465
 30
0.0
 11
3437.970589276523
 21
1315.494269174465
 31
0.0
  0
LINE
  5
18CE3
330
18C7A
100
AcDbEntity
  8
部品1
100
AcDbLine
 10
1313.970589276523
 20
1315.494269174465
 30
0.0
 11
3410.970589276523
 21
1315.494269174465
 31
0.0
  0
LINE
  5
18CE4
330
18C7A
100
AcDbEntity
  8
細線
  6
Continuous
 62
     5
100
AcDbLine
 10
2689.970589276527
 20
1354.494269174462
 30
0.0
 11
2689.970589276527
 21
1354.494269174462
 31
0.0
  0
LINE
  5
18CE5
330
18C7A
100
AcDbEntity
  8
細線
  6
Continuous
 62
     5
100
AcDbLine
 10
2682.470589276527
 20
1354.494269174462
 30
0.0
 11
2682.470589276527
 21
1354.494269174462
 31
0.0
  0
LINE
  5
18CE6
330
18C7A
100
AcDbEntity
  8
細線
  6
Continuous
 62
     5
100
AcDbLine
 10
2676.470589276527
 20
1354.494269174462
 30
0.0
 11
2676.470589276527
 21
1354.494269174462
 31
0.0
  0
LINE
  5
18CE7
330
18C7A
100
AcDbEntity
  8
細線
  6
Continuous
 62
     5
100
AcDbLine
 10
2743.970589276527
 20
1373.494269174462
 30
0.0
 11
2743.970589276527
 21
1373.494269174462
 31
0.0
  0
LINE
  5
18CE8
330
18C7A
100
AcDbEntity
  8
細線
 48
50.0
100
AcDbLine
 10
1336.970593930116
 20
1341.094443351418
 30
0.0
 11
1336.970593930113
 21
1349.490593759059
 31
0.0
  0
LINE
  5
18CE9
330
18C7A
100
AcDbEntity
  8
細線
 48
50.0
100
AcDbLine
 10
1336.970593930113
 20
1349.490593759059
 30
0.0
 11
1322.970589276523
 21
1349.490593759057
 31
0.0
  0
LINE
  5
18CEA
330
18C7A
100
AcDbEntity
  8
細線
 48
50.0
100
AcDbLine
 10
2087.970593930113
 20
1337.644443351419
 30
0.0
 11
2087.970593930113
 21
1342.494443351421
 31
0.0
  0
LINE
  5
18CEB
330
18C7A
100
AcDbEntity
  8
細線
 48
50.0
100
AcDbLine
 10
2087.970593930113
 20
1342.494443351421
 30
0.0
 11
2102.970593930113
 21
1342.494443351421
 31
0.0
  0
LINE
  5
18CEC
330
18C7A
100
AcDbEntity
  8
細線
 48
50.0
100
AcDbLine
 10
2102.970593930113
 20
1342.494443351421
 30
0.0
 11
2102.970593930115
 21
1349.494443351419
 31
0.0
  0
LINE
  5
18CED
330
18C7A
100
AcDbEntity
  8
細線
 48
50.0
100
AcDbLine
 10
2102.970593930115
 20
1349.494443351419
 30
0.0
 11
2117.970593930113
 21
1349.494443351419
 31
0.0
  0
LINE
  5
18CEE
330
18C7A
100
AcDbEntity
  8
細線
 48
50.0
100
AcDbLine
 10
2117.970593930113
 20
1349.494443351419
 30
0.0
 11
2117.970593930113
 21
1320.494443351421
 31
0.0
  0
LINE
  5
18CEF
330
18C7A
100
AcDbEntity
  8
細線
 48
50.0
100
AcDbLine
 10
1313.970589276523
 20
1320.491777694889
 30
0.0
 11
1527.970593930113
 21
1320.494460905133
 31
0.0
  0
LINE
  5
18CF0
330
18C7A
100
AcDbEntity
  8
細線
 48
50.0
100
AcDbLine
 10
2017.970593930113
 20
1320.494443351421
 30
0.0
 11
2117.970593930113
 21
1320.494443351421
 31
0.0
  0
LINE
  5
18CF1
330
18C7A
100
AcDbEntity
  8
細線
 48
50.0
100
AcDbLine
 10
1737.970593930113
 20
1320.494443351419
 30
0.0
 11
1807.970593930113
 21
1320.494443351423
 31
0.0
  0
LINE
  5
18CF2
330
18C7A
100
AcDbEntity
  8
細線
 48
50.0
100
AcDbLine
 10
1750.832558942642
 20
1320.494443351419
 30
0.0
 11
1756.588076525309
 21
1338.765294641913
 31
0.0
  0
LINE
  5
18CF3
330
18C7A
100
AcDbEntity
  8
細線
 48
50.0
100
AcDbLine
 10
1756.588076525309
 20
1338.765294641913
 30
0.0
 11
1767.516525005743
 21
1338.765294641911
 31
0.0
  0
ARC
  5
18CF4
330
18C7A
100
AcDbEntity
  8
細線
 48
50.0
100
AcDbCircle
 10
1767.516525005743
 20
1337.765294641911
 30
0.0
 40
1.0
100
AcDbArc
 50
24.62431835207225
 51
90.0
  0
ARC
  5
18CF5
330
18C7A
100
AcDbEntity
  8
細線
 48
50.0
100
AcDbCircle
 10
1778.425237120377
 20
1337.765294641911
 30
0.0
 40
1.0
100
AcDbArc
 50
90.0
 51
155.3756816479277
  0
ARC
  5
18CF6
330
18C7A
100
AcDbEntity
  8
細線
 48
50.0
100
AcDbCircle
 10
1772.970881063058
 20
1340.265294641911
 30
0.0
 40
5.0
100
AcDbArc
 50
204.6243183520723
 51
335.3756816479278
  0
LINE
  5
18CF7
330
18C7A
100
AcDbEntity
  8
細線
 48
50.0
100
AcDbLine
 10
1778.425237120377
 20
1338.765294641911
 30
0.0
 11
1789.35368560081
 21
1338.765294641913
 31
0.0
  0
LINE
  5
18CF8
330
18C7A
100
AcDbEntity
  8
細線
 48
50.0
100
AcDbLine
 10
1789.35368560081
 20
1338.765294641913
 30
0.0
 11
1795.109203183478
 21
1320.494443351423
 31
0.0
  0
LINE
  5
18CF9
330
18C7A
100
AcDbEntity
  8
細線
 48
50.0
100
AcDbLine
 10
2087.970593930113
 20
1341.094443351419
 30
0.0
 11
1336.970593930116
 21
1341.094443351418
 31
0.0
  0
LINE
  5
18CFA
330
18C7A
100
AcDbEntity
  8
細線
 48
50.0
100
AcDbLine
 10
1947.970593930113
 20
1320.494443351421
 30
0.0
 11
1877.970593930113
 21
1320.494443351421
 31
0.0
  0
LINE
  5
18CFB
330
18C7A
100
AcDbEntity
  8
細線
100
AcDbLine
 10
1667.970593930113
 20
1320.494443351421
 30
0.0
 11
1597.970602115529
 21
1320.494443351421
 31
0.0
  0
LINE
  5
18CFC
330
18C7A
100
AcDbEntity
  8
細線
 48
50.0
100
AcDbLine
 10
2741.970584622936
 20
1375.094487209288
 30
0.0
 11
2106.970593930113
 21
1375.094487209284
 31
0.0
  0
LINE
  5
18CFD
330
18C7A
100
AcDbEntity
  8
細線
 48
50.0
100
AcDbLine
 10
2106.970593930113
 20
1371.990637616925
 30
0.0
 11
2106.970593930113
 21
1376.490637616925
 31
0.0
  0
LINE
  5
18CFE
330
18C7A
100
AcDbEntity
  8
細線
 48
50.0
100
AcDbLine
 10
2106.970593930113
 20
1376.490637616925
 30
0.0
 11
2091.970593930113
 21
1376.490637616925
 31
0.0
  0
LINE
  5
18CFF
330
18C7A
100
AcDbEntity
  8
細線
 48
50.0
100
AcDbLine
 10
2091.970593930113
 20
1376.490637616925
 30
0.0
 11
2091.970593930113
 21
1383.490637616927
 31
0.0
  0
LINE
  5
18D00
330
18C7A
100
AcDbEntity
  8
細線
 48
50.0
100
AcDbLine
 10
2091.970593930113
 20
1383.490637616927
 30
0.0
 11
2076.970593930115
 21
1383.490637616924
 31
0.0
  0
LINE
  5
18D01
330
18C7A
100
AcDbEntity
  8
細線
 48
50.0
100
AcDbLine
 10
2076.970593930115
 20
1383.490637616924
 30
0.0
 11
2076.970593930115
 21
1345.890409513813
 31
0.0
  0
LINE
  5
18D02
330
18C7A
100
AcDbEntity
  8
細線
 48
50.0
100
AcDbLine
 10
2076.970593930115
 20
1345.890409513813
 30
0.0
 11
2096.970601231289
 21
1345.890451063353
 31
0.0
  0
LINE
  5
18D03
330
18C7A
100
AcDbEntity
  8
細線
 48
50.0
100
AcDbLine
 10
2096.970556362348
 20
1354.493912699161
 30
0.0
 11
2096.970601231289
 21
1345.890451063353
 31
0.0
  0
LINE
  5
18D04
330
18C7A
100
AcDbEntity
  8
細線
 48
50.0
100
AcDbLine
 10
2741.970584622936
 20
1371.644487209287
 30
0.0
 11
2741.970584622936
 21
1376.494487209284
 31
0.0
  0
LINE
  5
18D05
330
18C7A
100
AcDbEntity
  8
細線
 48
50.0
100
AcDbLine
 10
2741.970584622936
 20
1376.494487209284
 30
0.0
 11
2756.970584622934
 21
1376.494487209285
 31
0.0
  0
LINE
  5
18D06
330
18C7A
100
AcDbEntity
  8
細線
 48
50.0
100
AcDbLine
 10
2756.970584622934
 20
1376.494487209285
 30
0.0
 11
2756.970596256909
 21
1383.494487209331
 31
0.0
  0
LINE
  5
18D07
330
18C7A
100
AcDbEntity
  8
細線
 48
50.0
100
AcDbLine
 10
2756.970596256909
 20
1383.494487209331
 30
0.0
 11
2771.970594427439
 21
1383.494487209329
 31
0.0
  0
LINE
  5
18D08
330
18C7A
100
AcDbEntity
  8
細線
 48
50.0
100
AcDbLine
 10
2771.970594427439
 20
1383.494487209329
 30
0.0
 11
2771.970584125617
 21
1354.494281037055
 31
0.0
  0
LINE
  5
18D09
330
18C7A
100
AcDbEntity
  8
細線
 48
50.0
100
AcDbLine
 10
2458.070304175992
 20
1354.494278397076
 30
0.0
 11
2389.470863838818
 21
1354.494283787084
 31
0.0
  0
LINE
  5
18D0A
330
18C7A
100
AcDbEntity
  8
細線
 48
50.0
100
AcDbLine
 10
2096.970556362348
 20
1354.493912699161
 30
0.0
 11
2108.203245717057
 21
1354.494095652309
 31
0.0
  0
ARC
  5
18D0B
330
18C7A
100
AcDbEntity
  8
細線
 48
50.0
100
AcDbCircle
 10
2114.785538024393
 20
1353.294259565922
 30
0.0
 40
1.8
100
AcDbArc
 50
270.0006665777295
 51
345.000555481349
  0
LINE
  5
18D0C
330
18C7A
100
AcDbEntity
  8
細線
 48
50.0
100
AcDbLine
 10
2116.771971470473
 20
1353.753100023201
 30
0.0
 11
2116.524209028273
 21
1352.828402141094
 31
0.0
  0
LINE
  5
18D0D
330
18C7A
100
AcDbEntity
  8
細線
 48
50.0
100
AcDbLine
 10
2114.785558965548
 20
1351.494259566043
 30
0.0
 11
2111.155631546781
 21
1351.494217335563
 31
0.0
  0
ARC
  5
18D0E
330
18C7A
100
AcDbEntity
  8
細線
 48
50.0
100
AcDbCircle
 10
2111.155610605627
 20
1353.29421733544
 30
0.0
 40
1.8
100
AcDbArc
 50
195.0010443049965
 51
270.0006665777295
  0
LINE
  5
18D0F
330
18C7A
100
AcDbEntity
  8
細線
 48
50.0
100
AcDbLine
 10
2109.169183113368
 20
1353.752932303007
 30
0.0
 11
2109.416952609882
 21
1352.828311364425
 31
0.0
  0
ARC
  5
18D10
330
18C7A
100
AcDbEntity
  8
細線
 48
50.0
100
AcDbCircle
 10
2108.203262004622
 20
1353.494095652444
 30
0.0
 40
1.0
100
AcDbArc
 50
15.00104430499651
 51
90.00093320877969
  0
LINE
  5
18D11
330
18C7A
100
AcDbEntity
  8
細線
 48
50.0
100
AcDbLine
 10
2117.737892825577
 20
1354.494290342714
 30
0.0
 11
2118.679652976481
 21
1354.494296916564
 31
0.0
  0
ARC
  5
18D12
330
18C7A
100
AcDbEntity
  8
細線
 48
50.0
100
AcDbCircle
 10
2117.737899805961
 20
1353.49429034274
 30
0.0
 40
1.0
100
AcDbArc
 50
90.0003999466794
 51
165.000555481349
  0
LINE
  5
18D13
330
18C7A
100
AcDbEntity
  8
細線
 48
50.0
100
AcDbLine
 10
2669.470584622926
 20
1354.494281037055
 30
0.0
 11
2771.970584125617
 21
1354.494281037055
 31
0.0
  0
LINE
  5
18D14
330
18C7A
100
AcDbEntity
  8
細線
 48
50.0
100
AcDbLine
 10
2179.47061994182
 20
1354.494289224422
 30
0.0
 11
2118.370558714898
 21
1354.494296916564
 31
0.0
  0
LINE
  5
18D15
330
18C7A
100
AcDbEntity
  8
細線
 48
50.0
100
AcDbLine
 10
2599.470584622926
 20
1354.494281037057
 30
0.0
 11
2529.470584622926
 21
1354.494281037055
 31
0.0
  0
LINE
  5
18D16
330
18C7A
100
AcDbEntity
  8
細線
 48
50.0
100
AcDbLine
 10
2319.470584622926
 20
1354.494281037054
 30
0.0
 11
2249.470567335051
 21
1354.494281037057
 31
0.0
  0
ARC
  5
18D17
330
18C7A
100
AcDbEntity
  8
細線
 48
50.0
100
AcDbCircle
 10
2756.170589276533
 20
1387.694269174466
 30
0.0
 40
0.8
100
AcDbArc
 50
359.9997333689499
 51
89.99986668437072
  0
ARC
  5
18D18
330
18C7A
100
AcDbEntity
  8
細線
 48
50.0
100
AcDbCircle
 10
2763.770596101631
 20
1387.694280343081
 30
0.0
 40
0.8
100
AcDbArc
 50
90.00014387753465
 51
179.9997333689498
  0
LINE
  5
18D19
330
18C7A
100
AcDbEntity
  8
細線
 48
50.0
100
AcDbLine
 10
2756.170591137969
 20
1388.494269174465
 30
0.0
 11
2750.970589276525
 21
1388.494269174465
 31
0.0
  0
ARC
  5
18D1A
330
18C7A
100
AcDbEntity
  8
細線
 48
50.0
100
AcDbCircle
 10
2757.670589276524
 20
1386.194269174464
 30
0.0
 40
0.7
100
AcDbArc
 50
180.0
 51
270.0
  0
ARC
  5
18D1B
330
18C7A
100
AcDbEntity
  8
細線
 48
50.0
100
AcDbCircle
 10
2762.270589276524
 20
1386.194269174464
 30
0.0
 40
0.7
100
AcDbArc
 50
270.0
 51
0.0
  0
LINE
  5
18D1C
330
18C7A
100
AcDbEntity
  8
細線
 48
50.0
100
AcDbLine
 10
2762.970589276525
 20
1386.194269174464
 30
0.0
 11
2762.970596101639
 21
1387.694284065954
 31
0.0
  0
LINE
  5
18D1D
330
18C7A
100
AcDbEntity
  8
細線
 48
50.0
100
AcDbLine
 10
2757.670589276524
 20
1385.494269174465
 30
0.0
 11
2762.270589276524
 21
1385.494269174465
 31
0.0
  0
LINE
  5
18D1E
330
18C7A
100
AcDbEntity
  8
細線
 48
50.0
100
AcDbLine
 10
2756.970589276525
 20
1387.694269174466
 30
0.0
 11
2756.970589276525
 21
1386.194269174464
 31
0.0
  0
LINE
  5
18D1F
330
18C7A
100
AcDbEntity
  8
細線
 48
50.0
100
AcDbLine
 10
3382.570589276527
 20
1418.494269174465
 30
0.0
 11
2745.970589276525
 21
1418.494269174463
 31
0.0
  0
LINE
  5
18D20
330
18C7A
100
AcDbEntity
  8
細線
 48
50.0
100
AcDbLine
 10
3408.470589276525
 20
1413.494269174467
 30
0.0
 11
3392.570589276527
 21
1413.494269174465
 31
0.0
  0
LINE
  5
18D21
330
18C7A
100
AcDbEntity
  8
細線
 48
50.0
100
AcDbLine
 10
3392.570589276526
 20
1413.494269174465
 30
0.0
 11
3382.570589276527
 21
1418.494269174465
 31
0.0
  0
LINE
  5
18D22
330
18C7A
100
AcDbEntity
  8
細線
100
AcDbLine
 10
2993.470589276525
 20
1388.494269174465
 30
0.0
 11
2993.470589276525
 21
1417.794269174464
 31
0.0
  0
LINE
  5
18D23
330
18C7A
100
AcDbEntity
  8
細線
100
AcDbLine
 10
2993.470589276525
 20
1417.794269174464
 30
0.0
 11
3013.470589276525
 21
1417.794269174464
 31
0.0
  0
LINE
  5
18D24
330
18C7A
100
AcDbEntity
  8
細線
100
AcDbLine
 10
3013.470589276525
 20
1388.494269174465
 30
0.0
 11
3013.470589276525
 21
1417.794269174464
 31
0.0
  0
LINE
  5
18D25
330
18C7A
100
AcDbEntity
  8
細線
100
AcDbLine
 10
3170.720589276524
 20
1388.494269174465
 30
0.0
 11
3100.720589276523
 21
1388.494269174465
 31
0.0
  0
LINE
  5
18D26
330
18C7A
100
AcDbEntity
  8
細線
 48
50.0
100
AcDbLine
 10
2890.720589276525
 20
1388.494269174465
 30
0.0
 11
2763.766368849365
 21
1388.494269174465
 31
0.0
  0
LINE
  5
18D27
330
18C7A
100
AcDbEntity
  8
細線
100
AcDbLine
 10
3030.720589276525
 20
1388.494269174465
 30
0.0
 11
2960.720589276525
 21
1388.494269174465
 31
0.0
  0
LINE
  5
18D28
330
18C7A
100
AcDbEntity
  8
細線
 48
50.0
100
AcDbLine
 10
2750.970589276525
 20
1380.494269174465
 30
0.0
 11
2750.970589276525
 21
1388.494269174465
 31
0.0
  0
LINE
  5
18D29
330
18C7A
100
AcDbEntity
  8
細線
 48
50.0
100
AcDbLine
 10
2730.970589276524
 20
1380.494269174467
 30
0.0
 11
2750.970589276525
 21
1380.494269174465
 31
0.0
  0
LINE
  5
18D2A
330
18C7A
100
AcDbEntity
  8
細線
 48
50.0
100
AcDbLine
 10
2745.970589276525
 20
1418.494269174465
 30
0.0
 11
2745.970589276525
 21
1413.494269174465
 31
0.0
  0
LINE
  5
18D2B
330
18C7A
100
AcDbEntity
  8
細線
 48
50.0
100
AcDbLine
 10
2730.970589276525
 20
1418.494269174463
 30
0.0
 11
2745.970589276525
 21
1418.494269174465
 31
0.0
  0
LINE
  5
18D2C
330
18C7A
100
AcDbEntity
  8
細線
 48
50.0
100
AcDbLine
 10
2730.970589276524
 20
1380.494269174467
 30
0.0
 11
2730.970589276525
 21
1418.494269174463
 31
0.0
  0
LINE
  5
18D2D
330
18C7A
100
AcDbEntity
  8
細線
100
AcDbLine
 10
3398.970589276523
 20
1388.494269174465
 30
0.0
 11
3240.720589276525
 21
1388.494269174465
 31
0.0
  0
LINE
  5
18D2E
330
18C7A
100
AcDbEntity
  8
細線
 48
50.0
100
AcDbLine
 10
3408.470589276525
 20
1413.494269174467
 30
0.0
 11
3408.470589276524
 21
1388.494269174465
 31
0.0
  0
TEXT
  5
18D2F
330
18C7A
100
AcDbEntity
  8
部品1
100
AcDbText
 10
1860.154865991392
 20
46.99880823813145
 30
0.0
 40
135.0
  1
平面図
  7
STYLE2
100
AcDbText
  0
LWPOLYLINE
  5
18D30
330
18C7A
100
AcDbEntity
  8
部品1
100
AcDbPolyline
 90
        4
 70
     1
 43
0.0
 10
1770.23525616235
 20
239.8923374566548
 10
1770.23525616235
 20
0.0000159111223184
 10
2533.705922390791
 20
0.0000159111223184
 10
2533.705922390791
 20
239.8923374566548
  0
LINE
  5
18D31
330
18C7A
100
AcDbEntity
  8
部品1
100
AcDbLine
 10
1534.470589276487
 20
3154.494269174626
 30
0.0
 11
2769.470589276552
 21
3154.494269174626
 31
0.0
  0
LINE
  5
18D32
330
18C7A
100
AcDbEntity
  8
部品1
 48
50.0
100
AcDbLine
 10
1311.970589276523
 20
1420.494269174462
 30
0.0
 11
3411.970589276523
 21
1420.494269174465
 31
0.0
  0
LINE
  5
18D33
330
18C7A
100
AcDbEntity
  8
部品1
 48
50.0
100
AcDbLine
 10
471.9705892765232
 20
1392.494269174465
 30
0.0
 11
1311.970589276523
 21
1392.494269174465
 31
0.0
  0
DIMENSION
  5
18D34
330
18C7A
100
AcDbEntity
  8
寸法
100
AcDbDimension
  2
*D14
 10
2710.234916278077
 20
2488.887829538828
 30
0.0
 11
2338.318822490183
 21
2488.887829538828
 31
0.0
 12
-3742.925985830444
 22
-6453.628869860112
 32
0.0
 70
   128
 71
     5
 42
1231.00000000007
  3
INABA_S40G
100
AcDbAlignedDimension
 13
1536.470589276486
 23
2702.494269174557
 33
0.0
 14
2767.470589276556
 24
2702.494269174549
 34
0.0
100
AcDbRotatedDimension
1001
ACAD
1000
DSTYLE
1002
{
1002
}
  0
LINE
  5
18D35
330
18C7A
100
AcDbEntity
  8
部品1
100
AcDbLine
 10
1536.470589276487
 20
2702.494269174557
 30
0.0
 11
2767.470589276554
 21
2702.494269174615
 31
0.0
  0
LINE
  5
18D36
330
18C7A
100
AcDbEntity
  8
部品1
100
AcDbLine
 10
1536.470589276487
 20
3152.494269174557
 30
0.0
 11
2767.470589276556
 21
3152.494269174615
 31
0.0
  0
LINE
  5
18D37
330
18C7A
100
AcDbEntity
  8
細線
 48
50.0
100
AcDbLine
 10
1508.470589276487
 20
3152.494269174558
 30
0.0
 11
445.4705892765559
 21
2702.494269174509
 31
0.0
  0
LINE
  5
18D38
330
18C7A
100
AcDbEntity
  8
細線
 48
50.0
100
AcDbLine
 10
1508.470589276487
 20
2702.494269174558
 30
0.0
 11
445.4705892765542
 21
3152.494269174509
 31
0.0
  0
LINE
  5
18D39
330
18C7A
100
AcDbEntity
  8
部品1
100
AcDbLine
 10
1556.970589276487
 20
3172.494269174611
 30
0.0
 11
1556.970589276487
 21
3154.494269174611
 31
0.0
  0
LINE
  5
18D3A
330
18C7A
100
AcDbEntity
  8
部品1
100
AcDbLine
 10
1556.970589276487
 20
3172.494269174611
 30
0.0
 11
1550.970589276487
 21
3172.494269174611
 31
0.0
  0
LINE
  5
18D3B
330
18C7A
100
AcDbEntity
  8
部品1
100
AcDbLine
 10
1534.470589276487
 20
3146.494269174608
 30
0.0
 11
1509.470589276487
 21
3146.494269174611
 31
0.0
  0
LINE
  5
18D3C
330
18C7A
100
AcDbEntity
  8
部品1
100
AcDbLine
 10
1486.970589276487
 20
3172.494269174611
 30
0.0
 11
1486.970589276487
 21
3154.494269174611
 31
0.0
  0
LINE
  5
18D3D
330
18C7A
100
AcDbEntity
  8
部品1
100
AcDbLine
 10
1492.970589276487
 20
3172.494269174611
 30
0.0
 11
1486.970589276487
 21
3172.494269174611
 31
0.0
  0
LINE
  5
18D3E
330
18C7A
100
AcDbEntity
  8
部品1
100
AcDbLine
 10
1534.470589276487
 20
2702.494269174615
 30
0.0
 11
1509.470589276487
 21
2702.494269174615
 31
0.0
  0
LINE
  5
18D3F
330
18C7A
100
AcDbEntity
  8
部品1
 48
50.0
100
AcDbLine
 10
1536.470589276487
 20
3152.494269174611
 30
0.0
 11
1536.470589276487
 21
2702.494269174615
 31
0.0
  0
LINE
  5
18D40
330
18C7A
100
AcDbEntity
  8
部品1
 48
50.0
100
AcDbLine
 10
1508.470589276487
 20
3152.494269174607
 30
0.0
 11
1508.470589276487
 21
2702.494269174615
 31
0.0
  0
LINE
  5
18D41
330
18C7A
100
AcDbEntity
  8
部品1
 48
50.0
100
AcDbLine
 10
1534.470589276487
 20
3154.494269174618
 30
0.0
 11
1534.470589276487
 21
2702.494269174615
 31
0.0
  0
LINE
  5
18D42
330
18C7A
100
AcDbEntity
  8
部品1
 48
50.0
100
AcDbLine
 10
1509.470589276487
 20
3154.494269174615
 30
0.0
 11
1509.470589276487
 21
2702.494269174615
 31
0.0
  0
LINE
  5
18D43
330
18C7A
100
AcDbEntity
  8
部品1
100
AcDbLine
 10
3411.970589276556
 20
1392.494269174582
 30
0.0
 11
3411.970589276556
 21
1420.494269174596
 31
0.0
  0
LINE
  5
18D44
330
18C7A
100
AcDbEntity
  8
部品1
100
AcDbLine
 10
1311.970589276523
 20
1392.494269174596
 30
0.0
 11
1311.970589276523
 21
1420.494269174596
 31
0.0
  0
LINE
  5
18D45
330
18C7A
100
AcDbEntity
  8
部品1
100
AcDbLine
 10
891.9705892765232
 20
1392.494269174596
 30
0.0
 11
891.9705892765232
 21
1420.494269174596
 31
0.0
  0
LINE
  5
18D46
330
18C7A
100
AcDbEntity
  8
部品1
100
AcDbLine
 10
3411.97058927652
 20
3182.494269174477
 30
0.0
 11
3411.970589276523
 21
3154.494269174477
 31
0.0
  0
LINE
  5
18D47
330
18C7A
100
AcDbEntity
  8
部品1
100
AcDbLine
 10
2571.97058927652
 20
3182.494269174477
 30
0.0
 11
2571.970589276523
 21
3154.494269174477
 31
0.0
  0
LINE
  5
18D48
330
18C7A
100
AcDbEntity
  8
部品1
100
AcDbLine
 10
2991.97058927652
 20
3182.494269174477
 30
0.0
 11
2991.970589276523
 21
3154.494269174477
 31
0.0
  0
LINE
  5
18D49
330
18C7A
100
AcDbEntity
  8
部品1
100
AcDbLine
 10
2151.970589276519
 20
3182.494269174477
 30
0.0
 11
2151.970589276523
 21
3154.494269174477
 31
0.0
  0
LINE
  5
18D4A
330
18C7A
100
AcDbEntity
  8
部品1
100
AcDbLine
 10
1731.970589276519
 20
3182.494269174477
 30
0.0
 11
1731.970589276523
 21
3154.494269174477
 31
0.0
  0
LINE
  5
18D4B
330
18C7A
100
AcDbEntity
  8
部品1
100
AcDbLine
 10
1311.970589276519
 20
3182.494269174477
 30
0.0
 11
1311.970589276523
 21
3154.494269174477
 31
0.0
  0
LINE
  5
18D4C
330
18C7A
100
AcDbEntity
  8
部品1
100
AcDbLine
 10
891.9705892765195
 20
3182.494269174477
 30
0.0
 11
891.9705892765232
 21
3154.494269174477
 31
0.0
  0
LINE
  5
18D4D
330
18C7A
100
AcDbEntity
  8
部品1
100
AcDbLine
 10
471.9705892765232
 20
1392.494269174596
 30
0.0
 11
471.9705892765232
 21
1420.494269174596
 31
0.0
  0
LINE
  5
18D4E
330
18C7A
100
AcDbEntity
  8
部品1
100
AcDbLine
 10
444.9705892765305
 20
1420.494269174558
 30
0.0
 11
3858.970589276556
 21
1420.494269174596
 31
0.0
  0
LINE
  5
18D4F
330
18C7A
100
AcDbEntity
  8
部品1
100
AcDbLine
 10
3831.970589276556
 20
1392.494269174596
 30
0.0
 11
3831.970589276556
 21
1420.494269174596
 31
0.0
  0
LINE
  5
18D50
330
18C7A
100
AcDbEntity
  8
部品1
100
AcDbLine
 10
3858.970589276556
 20
1447.494269174593
 30
0.0
 11
3886.970589276556
 21
1447.494269174593
 31
0.0
  0
LINE
  5
18D51
330
18C7A
100
AcDbEntity
  8
部品1
100
AcDbLine
 10
3858.970589276556
 20
1867.494269174607
 30
0.0
 11
3886.970589276556
 21
1867.494269174607
 31
0.0
  0
LINE
  5
18D52
330
18C7A
100
AcDbEntity
  8
部品1
100
AcDbLine
 10
444.9705892765305
 20
1867.49426917448
 30
0.0
 11
416.9705892765305
 21
1867.49426917448
 31
0.0
  0
LINE
  5
18D53
330
18C7A
100
AcDbEntity
  8
部品1
100
AcDbLine
 10
3830.470589276541
 20
1867.49426917458
 30
0.0
 11
473.4705892765396
 21
1867.49426917448
 31
0.0
  0
LINE
  5
18D54
330
18C7A
100
AcDbEntity
  8
部品1
100
AcDbLine
 10
3830.470589276541
 20
2287.49426917458
 30
0.0
 11
473.4705892765396
 21
2287.49426917448
 31
0.0
  0
LINE
  5
18D55
330
18C7A
100
AcDbEntity
  8
部品1
100
AcDbLine
 10
444.9705892765305
 20
2287.49426917448
 30
0.0
 11
416.9705892765305
 21
2287.49426917448
 31
0.0
  0
LINE
  5
18D56
330
18C7A
100
AcDbEntity
  8
部品1
100
AcDbLine
 10
3858.970589276556
 20
2287.494269174608
 30
0.0
 11
3886.970589276556
 21
2287.494269174608
 31
0.0
  0
LINE
  5
18D57
330
18C7A
100
AcDbEntity
  8
部品1
 48
50.0
100
AcDbLine
 10
2151.970589276551
 20
2702.494269174586
 30
0.0
 11
2151.970589276581
 21
1448.994269174494
 31
0.0
  0
LINE
  5
18D58
330
18C7A
100
AcDbEntity
  8
破線
 48
10.0
100
AcDbLine
 10
2959.470589276535
 20
1472.494269174522
 30
0.0
 11
2176.970589276532
 21
1472.494269174505
 31
0.0
  0
LINE
  5
18D59
330
18C7A
100
AcDbEntity
  8
破線
 48
10.0
100
AcDbLine
 10
3009.47058927653
 20
1448.994269174509
 30
0.0
 11
3009.47058927653
 21
2702.494269174615
 31
0.0
  0
LINE
  5
18D5A
330
18C7A
100
AcDbEntity
  8
破線
 48
10.0
100
AcDbLine
 10
2959.470589276535
 20
1448.994269174505
 30
0.0
 11
2959.470589276531
 21
2702.494269174615
 31
0.0
  0
LINE
  5
18D5B
330
18C7A
100
AcDbEntity
  8
破線
 48
10.0
100
AcDbLine
 10
1344.47058927653
 20
1448.994269174509
 30
0.0
 11
1344.47058927653
 21
2702.494269174615
 31
0.0
  0
LINE
  5
18D5C
330
18C7A
100
AcDbEntity
  8
破線
 48
10.0
100
AcDbLine
 10
1294.470589276534
 20
1448.994269174505
 30
0.0
 11
1294.47058927653
 21
2702.494269174615
 31
0.0
  0
DIMENSION
  5
18D5D
330
18C7A
100
AcDbEntity
  8
寸法
100
AcDbDimension
  2
*D13
 10
1451.234916278005
 20
2488.887829538828
 30
0.0
 11
916.0604668248634
 21
2488.887829538828
 31
0.0
 12
-3742.925985830444
 22
-6453.628869860112
 32
0.0
 70
   128
 71
     5
 42
1062.99999999993
  3
INABA_S40G
100
AcDbAlignedDimension
 13
445.4705892765559
 23
2702.494269174505
 33
0.0
 14
1508.470589276486
 24
2702.494269174558
 34
0.0
100
AcDbRotatedDimension
1001
ACAD
1000
DSTYLE
1002
{
1002
}
  0
LINE
  5
18D5E
330
18C7A
100
AcDbEntity
  8
破線
 48
10.0
100
AcDbLine
 10
1294.470589276534
 20
1472.494269174469
 30
0.0
 11
496.9705892765414
 21
1472.494269174476
 31
0.0
  0
LINE
  5
18D5F
330
18C7A
100
AcDbEntity
  8
部品1
100
AcDbLine
 10
3831.970589276556
 20
3182.494269174604
 30
0.0
 11
3831.970589276556
 21
3154.494269174604
 31
0.0
  0
LINE
  5
18D60
330
18C7A
100
AcDbEntity
  8
部品1
100
AcDbLine
 10
3831.970589276556
 20
3182.494269174626
 30
0.0
 11
3831.970589276556
 21
3154.494269174626
 31
0.0
  0
LINE
  5
18D61
330
18C7A
100
AcDbEntity
  8
部品1
100
AcDbLine
 10
3858.970589276556
 20
3127.494269174607
 30
0.0
 11
3886.970589276556
 21
3127.494269174607
 31
0.0
  0
LINE
  5
18D62
330
18C7A
100
AcDbEntity
  8
部品1
100
AcDbLine
 10
3858.970589276556
 20
2707.494269174608
 30
0.0
 11
3886.970589276556
 21
2707.494269174608
 31
0.0
  0
LINE
  5
18D63
330
18C7A
100
AcDbEntity
  8
部品1
100
AcDbLine
 10
3858.470589276556
 20
3152.494269174604
 30
0.0
 11
3858.470589276556
 21
2702.494269174608
 31
0.0
  0
LINE
  5
18D64
330
18C7A
100
AcDbEntity
  8
部品1
100
AcDbLine
 10
3886.970589276533
 20
1447.494269174593
 30
0.0
 11
3886.970589276531
 21
1392.494269174596
 31
0.0
  0
LINE
  5
18D65
330
18C7A
100
AcDbEntity
  8
部品1
 48
50.0
100
AcDbLine
 10
3830.470589276556
 20
1448.994269174596
 30
0.0
 11
3858.970589276554
 21
1420.494269174596
 31
0.0
  0
LINE
  5
18D66
330
18C7A
100
AcDbEntity
  8
部品1
100
AcDbLine
 10
3886.970589276531
 20
1392.494269174596
 30
0.0
 11
3835.970589276531
 21
1392.494269174596
 31
0.0
  0
LINE
  5
18D67
330
18C7A
100
AcDbEntity
  8
部品1
100
AcDbLine
 10
3858.970589276533
 20
1447.494269174593
 30
0.0
 11
3886.970589276531
 21
1447.494269174593
 31
0.0
  0
LINE
  5
18D68
330
18C7A
100
AcDbEntity
  8
部品1
100
AcDbLine
 10
3886.970589276556
 20
3182.494269174604
 30
0.0
 11
3886.970589276531
 21
1392.494269174596
 31
0.0
  0
DIMENSION
  5
18D69
330
18C7A
100
AcDbEntity
  8
寸法
100
AcDbDimension
  2
*D12
 10
4534.396935010967
 20
1447.494269174593
 30
0.0
 11
4534.396935010965
 21
2287.4942691746
 31
0.0
 12
-3742.925985830444
 22
-6453.628869860112
 32
0.0
 70
   128
  1
4X420=<>
 71
     5
 42
1680.000000000014
  3
INABA_S40G
100
AcDbAlignedDimension
 13
3886.970589276556
 23
3127.494269174607
 33
0.0
 14
3886.970589276531
 24
1447.494269174593
 34
0.0
 50
90.0
100
AcDbRotatedDimension
1001
ACAD
1000
DSTYLE
1002
{
1002
}
  0
LINE
  5
18D6A
330
18C7A
100
AcDbEntity
  8
部品1
100
AcDbLine
 10
3858.970589276556
 20
3154.494269174604
 30
0.0
 11
3858.970589276534
 21
1420.494269174596
 31
0.0
  0
DIMENSION
  5
18D6B
330
18C7A
100
AcDbEntity
  8
寸法
100
AcDbDimension
  2
*D11
 10
4213.82831513858
 20
2607.276453505718
 30
0.0
 11
4113.828315138579
 21
2832.276453505718
 31
0.0
 12
-3742.925985830444
 22
-6453.628869860112
 32
0.0
 71
     5
 42
449.9999999999963
  3
INABA_S40G
100
AcDbAlignedDimension
 13
3858.470589276556
 23
3152.494269174604
 33
0.0
 14
3858.470589276556
 24
2702.494269174608
 34
0.0
 50
90.0
100
AcDbRotatedDimension
1001
ACAD
1000
DSTYLE
1002
{
1002
}
  0
LINE
  5
18D6C
330
18C7A
100
AcDbEntity
  8
部品1
100
AcDbLine
 10
3830.470589276547
 20
2702.494269174608
 30
0.0
 11
3830.470589276556
 21
1448.994269174596
 31
0.0
  0
LINE
  5
18D6D
330
18C7A
100
AcDbEntity
  8
破線
 48
10.0
100
AcDbLine
 10
3806.970589276549
 20
2702.494269174608
 30
0.0
 11
3806.970589276558
 21
1472.494269174593
 31
0.0
  0
LINE
  5
18D6E
330
18C7A
100
AcDbEntity
  8
部品1
100
AcDbLine
 10
2769.470589276556
 20
3146.494269174608
 30
0.0
 11
2794.470589276556
 21
3146.494269174611
 31
0.0
  0
LINE
  5
18D6F
330
18C7A
100
AcDbEntity
  8
部品1
100
AcDbLine
 10
2810.970589276556
 20
3172.494269174611
 30
0.0
 11
2816.970589276556
 21
3172.494269174611
 31
0.0
  0
LINE
  5
18D70
330
18C7A
100
AcDbEntity
  8
部品1
100
AcDbLine
 10
2816.970589276556
 20
3172.494269174611
 30
0.0
 11
2816.970589276556
 21
3154.494269174611
 31
0.0
  0
LINE
  5
18D71
330
18C7A
100
AcDbEntity
  8
部品1
100
AcDbLine
 10
2746.970589276556
 20
3172.494269174611
 30
0.0
 11
2752.970589276556
 21
3172.494269174611
 31
0.0
  0
LINE
  5
18D72
330
18C7A
100
AcDbEntity
  8
部品1
100
AcDbLine
 10
2746.970589276556
 20
3172.494269174611
 30
0.0
 11
2746.970589276556
 21
3154.494269174611
 31
0.0
  0
LINE
  5
18D73
330
18C7A
100
AcDbEntity
  8
部品1
100
AcDbLine
 10
2769.470589276556
 20
2702.494269174615
 30
0.0
 11
2794.470589276556
 21
2702.494269174615
 31
0.0
  0
LINE
  5
18D74
330
18C7A
100
AcDbEntity
  8
部品1
 48
50.0
100
AcDbLine
 10
2794.470589276556
 20
3154.494269174615
 30
0.0
 11
2794.470589276556
 21
2702.494269174615
 31
0.0
  0
LINE
  5
18D75
330
18C7A
100
AcDbEntity
  8
部品1
 48
50.0
100
AcDbLine
 10
2769.470589276554
 20
3154.494269174618
 30
0.0
 11
2769.470589276556
 21
2702.494269174615
 31
0.0
  0
LINE
  5
18D76
330
18C7A
100
AcDbEntity
  8
部品1
 48
50.0
100
AcDbLine
 10
2795.470589276556
 20
3152.494269174607
 30
0.0
 11
2795.470589276556
 21
2702.494269174615
 31
0.0
  0
LINE
  5
18D77
330
18C7A
100
AcDbEntity
  8
部品1
 48
50.0
100
AcDbLine
 10
2767.470589276556
 20
3152.494269174611
 30
0.0
 11
2767.470589276556
 21
2702.494269174615
 31
0.0
  0
LINE
  5
18D78
330
18C7A
100
AcDbEntity
  8
破線
 48
10.0
100
AcDbLine
 10
2176.97058927653
 20
1448.994269174509
 30
0.0
 11
2176.97058927653
 21
2702.494269174588
 31
0.0
  0
LINE
  5
18D79
330
18C7A
100
AcDbEntity
  8
破線
 48
10.0
100
AcDbLine
 10
2126.970589276534
 20
1448.994269174505
 30
0.0
 11
2126.970589276531
 21
2702.494269174586
 31
0.0
  0
LINE
  5
18D7A
330
18C7A
100
AcDbEntity
  8
部品1
100
AcDbLine
 10
2794.470589276556
 20
3154.494269174622
 30
0.0
 11
3858.970589276556
 21
3154.494269174604
 31
0.0
  0
LINE
  5
18D7B
330
18C7A
100
AcDbEntity
  8
細線
 48
50.0
100
AcDbLine
 10
3858.470589276556
 20
2702.494269174608
 30
0.0
 11
2795.470589276556
 21
3152.494269174607
 31
0.0
  0
LINE
  5
18D7C
330
18C7A
100
AcDbEntity
  8
部品1
100
AcDbLine
 10
2795.470589276555
 20
2702.494269174615
 30
0.0
 11
3858.470589276556
 21
2702.494269174608
 31
0.0
  0
LINE
  5
18D7D
330
18C7A
100
AcDbEntity
  8
部品1
100
AcDbLine
 10
2795.470589276556
 20
3152.494269174611
 30
0.0
 11
3858.470589276556
 21
3152.494269174604
 31
0.0
  0
LINE
  5
18D7E
330
18C7A
100
AcDbEntity
  8
細線
 48
50.0
100
AcDbLine
 10
3858.470589276556
 20
3152.494269174604
 30
0.0
 11
2795.470589276555
 21
2702.494269174615
 31
0.0
  0
DIMENSION
  5
18D7F
330
18C7A
100
AcDbEntity
  8
寸法
100
AcDbDimension
  2
*D10
 10
3801.234916278101
 20
2488.887829538937
 30
0.0
 11
3318.360544398907
 21
2488.887829538937
 31
0.0
 12
-3742.925985830444
 22
-6453.628869860112
 32
0.0
 70
   128
 71
     5
 42
1063.000000000012
  3
INABA_S40G
100
AcDbAlignedDimension
 13
2795.470589276555
 23
2702.494269174615
 33
0.0
 14
3858.470589276567
 24
2702.494269174608
 34
0.0
100
AcDbRotatedDimension
1001
ACAD
1000
DSTYLE
1002
{
1002
}
  0
LINE
  5
18D80
330
18C7A
100
AcDbEntity
  8
破線
 48
10.0
100
AcDbLine
 10
3806.970589276556
 20
1472.494269174594
 30
0.0
 11
3009.47058927653
 21
1472.494269174523
 31
0.0
  0
DIMENSION
  5
18D81
330
18C7A
100
AcDbEntity
  8
寸法
100
AcDbDimension
  2
*D9
 10
4534.396935010941
 20
1392.494269174596
 30
0.0
 11
4534.39693501094
 21
1084.008987800356
 31
0.0
 12
-3742.925985830444
 22
-6453.628869860112
 32
0.0
 70
   128
 71
     5
 42
54.99999999999636
  3
INABA_S40G
100
AcDbAlignedDimension
 13
3886.970589276531
 23
1447.494269174593
 33
0.0
 14
3886.970589276531
 24
1392.494269174596
 34
0.0
 50
90.0
100
AcDbRotatedDimension
1001
ACAD
1000
DSTYLE
1002
{
1002
}
  0
LINE
  5
18D82
330
18C7A
100
AcDbEntity
  8
部品1
100
AcDbLine
 10
471.9705892765196
 20
3182.494269174477
 30
0.0
 11
471.9705892765232
 21
3154.494269174477
 31
0.0
  0
LINE
  5
18D83
330
18C7A
100
AcDbEntity
  8
部品1
100
AcDbLine
 10
471.9705892765559
 20
3182.494269174509
 30
0.0
 11
471.9705892765559
 21
3154.494269174509
 31
0.0
  0
LINE
  5
18D84
330
18C7A
100
AcDbEntity
  8
部品1
100
AcDbLine
 10
444.9705892765232
 20
3127.49426917448
 30
0.0
 11
416.9705892765232
 21
3127.49426917448
 31
0.0
  0
LINE
  5
18D85
330
18C7A
100
AcDbEntity
  8
部品1
100
AcDbLine
 10
444.9705892765305
 20
2707.49426917448
 30
0.0
 11
416.9705892765305
 21
2707.49426917448
 31
0.0
  0
LINE
  5
18D86
330
18C7A
100
AcDbEntity
  8
部品1
 48
50.0
100
AcDbLine
 10
445.4705892765542
 20
3152.494269174506
 30
0.0
 11
445.4705892765559
 21
2702.494269174505
 31
0.0
  0
LINE
  5
18D87
330
18C7A
100
AcDbEntity
  8
部品1
 48
50.0
100
AcDbLine
 10
473.470589276545
 20
1448.994269174573
 30
0.0
 11
444.970589276545
 21
1420.494269174574
 31
0.0
  0
LINE
  5
18D88
330
18C7A
100
AcDbEntity
  8
部品1
100
AcDbLine
 10
471.9705892765232
 20
1392.494269174465
 30
0.0
 11
416.9705892765486
 21
1392.494269174465
 31
0.0
  0
LINE
  5
18D89
330
18C7A
100
AcDbEntity
  8
部品1
100
AcDbLine
 10
444.9705892765305
 20
1447.494269174429
 30
0.0
 11
416.9705892765469
 21
1447.494269174429
 31
0.0
  0
LINE
  5
18D8A
330
18C7A
100
AcDbEntity
  8
部品1
100
AcDbLine
 10
444.9705892765305
 20
1447.494269174465
 30
0.0
 11
416.9705892765469
 21
1447.494269174465
 31
0.0
  0
LINE
  5
18D8B
330
18C7A
100
AcDbEntity
  8
部品1
100
AcDbLine
 10
444.9705892765469
 20
1447.49426917448
 30
0.0
 11
416.9705892765469
 21
1447.49426917448
 31
0.0
  0
LINE
  5
18D8C
330
18C7A
100
AcDbEntity
  8
部品1
100
AcDbLine
 10
416.9705892765469
 20
1447.494269174429
 30
0.0
 11
416.9705892765486
 21
1392.494269174433
 31
0.0
  0
LINE
  5
18D8D
330
18C7A
100
AcDbEntity
  8
部品1
100
AcDbLine
 10
416.9705892765196
 20
3182.494269174477
 30
0.0
 11
416.9705892765486
 21
1392.494269174465
 31
0.0
  0
LINE
  5
18D8E
330
18C7A
100
AcDbEntity
  8
部品1
100
AcDbLine
 10
444.9705892765305
 20
1420.494269174556
 30
0.0
 11
444.9705892765559
 21
3154.494269174509
 31
0.0
  0
LINE
  5
18D8F
330
18C7A
100
AcDbEntity
  8
部品1
100
AcDbLine
 10
473.4705892765323
 20
2702.494269174608
 30
0.0
 11
473.470589276545
 21
1448.994269174571
 31
0.0
  0
LINE
  5
18D90
330
18C7A
100
AcDbEntity
  8
破線
 48
10.0
100
AcDbLine
 10
496.9705892765305
 20
2702.494269174608
 30
0.0
 11
496.9705892765451
 21
1472.494269174476
 31
0.0
  0
DIMENSION
  5
18D91
330
18C7A
100
AcDbEntity
  8
寸法
100
AcDbDimension
  2
*D8
 10
3886.970589276531
 20
410.7433333855515
 30
0.0
 11
2168.197775309287
 21
410.7433333855515
 31
0.0
 12
-3742.925985830444
 22
-6453.628869860112
 32
0.0
 70
   128
 71
     5
 42
3469.999999999982
  3
INABA_S40G
100
AcDbAlignedDimension
 13
416.9705892765486
 23
1392.494269174433
 33
0.0
 14
3886.970589276531
 24
1392.49426917456
 34
0.0
100
AcDbRotatedDimension
1001
ACAD
1000
DSTYLE
1002
{
1070
   341
1005
0
1002
}
  0
LINE
  5
18D92
330
18C7A
100
AcDbEntity
  8
部品1
100
AcDbLine
 10
444.9705892765559
 20
3154.494269174624
 30
0.0
 11
1509.470589276487
 21
3154.494269174626
 31
0.0
  0
LINE
  5
18D93
330
18C7A
100
AcDbEntity
  8
部品1
100
AcDbLine
 10
3886.970589276531
 20
1392.494269174596
 30
0.0
 11
3411.970589276556
 21
1392.494269174582
 31
0.0
  0
LINE
  5
18D94
330
18C7A
100
AcDbEntity
  8
部品1
100
AcDbLine
 10
416.9705892765559
 20
3182.494269174509
 30
0.0
 11
3886.970589276556
 21
3182.494269174604
 31
0.0
  0
LINE
  5
18D95
330
18C7A
100
AcDbEntity
  8
部品1
100
AcDbLine
 10
445.4705892765559
 20
2702.494269174509
 30
0.0
 11
1508.470589276487
 21
2702.494269174558
 31
0.0
  0
LINE
  5
18D96
330
18C7A
100
AcDbEntity
  8
細線
 48
50.0
100
AcDbLine
 10
2767.470589276556
 20
3152.494269174611
 30
0.0
 11
1536.470589276487
 21
2702.494269174558
 31
0.0
  0
LINE
  5
18D97
330
18C7A
100
AcDbEntity
  8
部品1
100
AcDbLine
 10
445.4705892765542
 20
3152.494269174509
 30
0.0
 11
1508.470589276485
 21
3152.494269174558
 31
0.0
  0
LINE
  5
18D98
330
18C7A
100
AcDbEntity
  8
細線
 48
50.0
100
AcDbLine
 10
2767.470589276554
 20
2702.494269174615
 30
0.0
 11
1536.470589276485
 21
3152.494269174558
 31
0.0
  0
LINE
  5
18D99
330
18C7A
100
AcDbEntity
  8
破線
 48
10.0
100
AcDbLine
 10
2126.970589276534
 20
1472.494269174502
 30
0.0
 11
1344.47058927653
 21
1472.494269174473
 31
0.0
  0
LINE
  5
18D9A
330
18C7A
100
AcDbEntity
  8
部品1
100
AcDbLine
 10
3830.470589276556
 20
1448.994269174596
 30
0.0
 11
473.4705892764487
 21
1448.994269174476
 31
0.0
  0
DIMENSION
  5
18D9B
330
18C7A
100
AcDbEntity
  8
寸法
100
AcDbDimension
  2
*D7
 10
471.970589276555
 20
3698.302488799491
 30
0.0
 11
108.4853079022819
 21
3698.302488799491
 31
0.0
 12
-3742.925985830444
 22
-6453.628869860112
 32
0.0
 70
   128
 71
     5
 42
55.00000000003456
  3
INABA_S40G
100
AcDbAlignedDimension
 13
416.9705892765205
 23
3182.494269174509
 33
0.0
 14
471.970589276555
 24
3182.494269174509
 34
0.0
100
AcDbRotatedDimension
1001
ACAD
1000
DSTYLE
1002
{
1002
}
  0
DIMENSION
  5
18D9C
330
18C7A
100
AcDbEntity
  8
寸法
100
AcDbDimension
  2
*D6
 10
4534.396935010967
 20
3127.494269174607
 30
0.0
 11
4534.396935010965
 21
3490.979550548844
 31
0.0
 12
-3742.925985830444
 22
-6453.628869860112
 32
0.0
 70
   128
 71
     5
 42
54.99999999999636
  3
INABA_S40G
100
AcDbAlignedDimension
 13
3886.970589276556
 23
3182.494269174604
 33
0.0
 14
3886.970589276556
 24
3127.494269174607
 34
0.0
 50
90.0
100
AcDbRotatedDimension
1001
ACAD
1000
DSTYLE
1002
{
1002
}
  0
DIMENSION
  5
18D9D
330
18C7A
100
AcDbEntity
  8
寸法
100
AcDbDimension
  2
*D5
 10
3886.970589276556
 20
3698.302488799589
 30
0.0
 11
4195.455870650794
 21
3698.302488799589
 31
0.0
 12
-3742.925985830444
 22
-6453.628869860112
 32
0.0
 70
   128
 71
     5
 42
55.0
  3
INABA_S40G
100
AcDbAlignedDimension
 13
3831.970589276556
 23
3182.494269174604
 33
0.0
 14
3886.970589276556
 24
3182.494269174604
 34
0.0
100
AcDbRotatedDimension
1001
ACAD
1000
DSTYLE
1002
{
1002
}
  0
DIMENSION
  5
18D9E
330
18C7A
100
AcDbEntity
  8
寸法
100
AcDbDimension
  2
*D4
 10
3831.970589276556
 20
3698.302488799607
 30
0.0
 11
2151.970589276555
 21
3698.302488799607
 31
0.0
 12
-3742.925985830444
 22
-6453.628869860112
 32
0.0
 70
   128
  1
8X420=<>
 71
     5
 42
3360.000000000001
  3
INABA_S40G
100
AcDbAlignedDimension
 13
471.970589276555
 23
3182.494269174509
 33
0.0
 14
3831.970589276556
 24
3182.494269174604
 34
0.0
100
AcDbRotatedDimension
1001
ACAD
1000
DSTYLE
1002
{
1002
}
  0
DIMENSION
  5
18D9F
330
18C7A
100
AcDbEntity
  8
寸法
100
AcDbDimension
  2
*D3
 10
4899.503876750603
 20
1392.494269174596
 30
0.0
 11
4899.503876750601
 21
2287.4942691746
 31
0.0
 12
-3742.925985830444
 22
-6453.628869860112
 32
0.0
 70
   128
 71
     5
 42
1790.000000000007
  3
INABA_S40G
100
AcDbAlignedDimension
 13
3886.970589276556
 23
3182.494269174604
 33
0.0
 14
3886.970589276531
 24
1392.494269174596
 34
0.0
 50
90.0
100
AcDbRotatedDimension
1001
ACAD
1000
DSTYLE
1002
{
1002
}
  0
ENDBLK
  5
18DA1
330
18C7A
100
AcDbEntity
  8
0
 48
50.0
100
AcDbBlockEnd
  0
BLOCK
  5
1C4CB
330
1C4CA
100
AcDbEntity
  8
0
 48
50.0
100
AcDbBlockBegin
  2
_NONE
 70
     0
 10
0.0
 20
0.0
 30
0.0
  3
_NONE
  1

  0
CIRCLE
  5
1C4CC
330
1C4CA
100
AcDbEntity
  8
0
  6
ByBlock
 62
     0
 48
50.0
100
AcDbCircle
 10
0.0
 20
0.0
 30
0.0
 40
0.25
  0
ENDBLK
  5
1C4CD
330
1C4CA
100
AcDbEntity
  8
0
 48
50.0
100
AcDbBlockEnd
  0
BLOCK
  5
1DDC0
330
1DDB5
100
AcDbEntity
  8
0
 48
50.0
100
AcDbBlockBegin
  2
*D19
 70
     1
 10
0.0
 20
0.0
 30
0.0
  3
*D19
  1

  0
LINE
  5
21993
330
1DDB5
100
AcDbEntity
  8
寸法
 62
     0
 48
50.0
370
    -2
100
AcDbLine
 10
8793.599999999999
 20
7716.907777930209
 30
0.0
 11
8793.599999999999
 21
7506.106208443712
 31
0.0
  0
LINE
  5
21994
330
1DDB5
100
AcDbEntity
  8
寸法
 62
     0
 48
50.0
370
    -2
100
AcDbLine
 10
8913.600000000009
 20
7691.907777930206
 30
0.0
 11
8913.600000000009
 21
7506.106208443712
 31
0.0
  0
LINE
  5
21995
330
1DDB5
100
AcDbEntity
  8
寸法
 62
     0
 48
50.0
370
    -2
100
AcDbLine
 10
8793.599999999999
 20
7566.106208443713
 30
0.0
 11
8913.600000000009
 21
7566.106208443713
 31
0.0
  0
LINE
  5
21996
330
1DDB5
100
AcDbEntity
  8
寸法
 62
     0
 48
50.0
370
    -2
100
AcDbLine
 10
8913.600000000009
 20
7566.106208443713
 30
0.0
 11
9327.73078736738
 21
7566.106208443713
 31
0.0
  0
INSERT
  5
21997
330
1DDB5
100
AcDbEntity
  8
寸法
 62
     0
 48
50.0
370
    -2
100
AcDbBlockReference
  2
_DOTSMALL
 10
8793.599999999999
 20
7566.106208443713
 30
0.0
 41
100.0
 42
100.0
 43
100.0
 50
180.0
  0
INSERT
  5
21998
330
1DDB5
100
AcDbEntity
  8
寸法
 62
     0
 48
50.0
370
    -2
100
AcDbBlockReference
  2
_DOTSMALL
 10
8913.600000000009
 20
7566.106208443713
 30
0.0
 41
100.0
 42
100.0
 43
100.0
  0
MTEXT
  5
21999
330
1DDB5
100
AcDbEntity
  8
寸法
 62
     7
 48
50.0
100
AcDbMText
 10
9191.683543272892
 20
7666.118019467335
 30
0.0
 40
120.0
 41
0.0
 71
     5
 72
     1
  1
\A1;120
  7
STYLE1
 73
     1
 44
1.0
1001
ACAD
1000
MTEXTBEGIN
1070
    73
1070
     1
1070
    44
1040
1.0
1070
    74
1070
     0
1000
MTEXTEND
  0
POINT
  5
2199A
330
1DDB5
100
AcDbEntity
  8
DEFPOINTS
 62
     0
 48
50.0
100
AcDbPoint
 10
8793.599999999999
 20
7736.90777793021
 30
0.0
  0
POINT
  5
2199B
330
1DDB5
100
AcDbEntity
  8
DEFPOINTS
 62
     0
 48
50.0
100
AcDbPoint
 10
8913.600000000009
 20
7711.907777930206
 30
0.0
  0
POINT
  5
2199C
330
1DDB5
100
AcDbEntity
  8
DEFPOINTS
 62
     0
 48
50.0
100
AcDbPoint
 10
8913.600000000009
 20
7566.106208443713
 30
0.0
  0
ENDBLK
  5
1DDC1
330
1DDB5
100
AcDbEntity
  8
0
 48
50.0
100
AcDbBlockEnd
  0
BLOCK
  5
1DDEE
330
1DDE3
100
AcDbEntity
  8
0
 48
50.0
100
AcDbBlockBegin
  2
*D20
 70
     1
 10
0.0
 20
0.0
 30
0.0
  3
*D20
  1

  0
LINE
  5
21989
330
1DDE3
100
AcDbEntity
  8
寸法
 62
     0
 48
50.0
370
    -2
100
AcDbLine
 10
8793.600000000001
 20
7716.907777930209
 30
0.0
 11
8793.600000000001
 21
7506.106208443712
 31
0.0
  0
LINE
  5
2198A
330
1DDE3
100
AcDbEntity
  8
寸法
 62
     0
 48
50.0
370
    -2
100
AcDbLine
 10
8683.600000000009
 20
7716.907777930209
 30
0.0
 11
8683.600000000009
 21
7506.106208443712
 31
0.0
  0
LINE
  5
2198B
330
1DDE3
100
AcDbEntity
  8
寸法
 62
     0
 48
50.0
370
    -2
100
AcDbLine
 10
8793.600000000001
 20
7566.106208443713
 30
0.0
 11
8683.600000000009
 21
7566.106208443713
 31
0.0
  0
LINE
  5
2198C
330
1DDE3
100
AcDbEntity
  8
寸法
 62
     0
 48
50.0
370
    -2
100
AcDbLine
 10
8683.600000000009
 20
7566.106208443713
 30
0.0
 11
8323.505511811031
 21
7566.106208443713
 31
0.0
  0
INSERT
  5
2198D
330
1DDE3
100
AcDbEntity
  8
寸法
 62
     0
 48
50.0
370
    -2
100
AcDbBlockReference
  2
_DOTSMALL
 10
8793.600000000001
 20
7566.106208443713
 30
0.0
 41
100.0
 42
100.0
 43
100.0
  0
INSERT
  5
2198E
330
1DDE3
100
AcDbEntity
  8
寸法
 62
     0
 48
50.0
370
    -2
100
AcDbBlockReference
  2
_DOTSMALL
 10
8683.600000000009
 20
7566.106208443713
 30
0.0
 41
100.0
 42
100.0
 43
100.0
 50
180.0
  0
MTEXT
  5
2198F
330
1DDE3
100
AcDbEntity
  8
寸法
 62
     7
 48
50.0
100
AcDbMText
 10
8447.552755905519
 20
7666.106208443713
 30
0.0
 40
120.0
 41
0.0
 71
     5
 72
     1
  1
\A1;110
  7
STYLE1
 73
     1
 44
1.0
1001
ACAD
1000
MTEXTBEGIN
1070
    73
1070
     1
1070
    44
1040
1.0
1070
    74
1070
     0
1000
MTEXTEND
  0
POINT
  5
21990
330
1DDE3
100
AcDbEntity
  8
DEFPOINTS
 62
     0
 48
50.0
100
AcDbPoint
 10
8793.600000000001
 20
7736.90777793021
 30
0.0
  0
POINT
  5
21991
330
1DDE3
100
AcDbEntity
  8
DEFPOINTS
 62
     0
 48
50.0
100
AcDbPoint
 10
8683.600000000009
 20
7736.907777930207
 30
0.0
  0
POINT
  5
21992
330
1DDE3
100
AcDbEntity
  8
DEFPOINTS
 62
     0
 48
50.0
100
AcDbPoint
 10
8683.600000000009
 20
7566.106208443713
 30
0.0
  0
ENDBLK
  5
1DDEF
330
1DDE3
100
AcDbEntity
  8
0
 48
50.0
100
AcDbBlockEnd
  0
BLOCK
  5
1E96F
330
1E963
100
AcDbEntity
  8
0
 48
50.0
100
AcDbBlockBegin
  2
*D21
 70
     1
 10
0.0
 20
0.0
 30
0.0
  3
*D21
  1

  0
LINE
  5
214C5
330
1E963
100
AcDbEntity
  8
寸法
 62
     0
 48
50.0
370
    -2
100
AcDbLine
 10
7513.600000000001
 20
5671.90777793021
 30
0.0
 11
7144.3310115527
 21
5671.90777793021
 31
0.0
  0
LINE
  5
214C6
330
1E963
100
AcDbEntity
  8
寸法
 62
     0
 48
50.0
370
    -2
100
AcDbLine
 10
7513.600000000036
 20
5746.907777930211
 30
0.0
 11
7144.3310115527
 21
5746.907777930211
 31
0.0
  0
LINE
  5
214C7
330
1E963
100
AcDbEntity
  8
寸法
 62
     0
 48
50.0
370
    -2
100
AcDbLine
 10
7204.331011552699
 20
5746.907777930211
 30
0.0
 11
7204.331011552699
 21
5846.90777793021
 31
0.0
  0
LINE
  5
214C8
330
1E963
100
AcDbEntity
  8
寸法
 62
     0
 48
50.0
370
    -2
100
AcDbLine
 10
7204.331011552699
 20
5671.90777793021
 30
0.0
 11
7204.331011552699
 21
4804.937215181732
 31
0.0
  0
LINE
  5
214C9
330
1E963
100
AcDbEntity
  8
寸法
 62
     0
 48
50.0
370
    -2
100
AcDbLine
 10
7204.331011552699
 20
5746.907777930211
 30
0.0
 11
7204.331011552699
 21
5671.90777793021
 31
0.0
  0
INSERT
  5
214CA
330
1E963
100
AcDbEntity
  8
寸法
 62
     0
 48
50.0
370
    -2
100
AcDbBlockReference
  2
_DOTSMALL
 10
7204.331011552699
 20
5746.907777930211
 30
0.0
 41
100.0
 42
100.0
 43
100.0
 50
270.0
  0
INSERT
  5
214CB
330
1E963
100
AcDbEntity
  8
寸法
 62
     0
 48
50.0
370
    -2
100
AcDbBlockReference
  2
_DOTSMALL
 10
7204.331011552699
 20
5671.90777793021
 30
0.0
 41
100.0
 42
100.0
 43
100.0
 50
90.0
  0
MTEXT
  5
214CC
330
1E963
100
AcDbEntity
  8
寸法
 62
     7
 48
50.0
100
AcDbMText
 10
7104.331011552698
 20
5138.422496555973
 30
0.0
 40
120.0
 41
0.0
 71
     5
 72
     1
  1
\A1;扉の出75
  7
STYLE1
 11
0.0000000000000001
 21
1.0
 31
0.0
 73
     1
 44
1.0
1001
ACAD
1000
MTEXTBEGIN
1070
    73
1070
     1
1070
    44
1040
1.0
1070
    74
1070
     0
1000
MTEXTEND
  0
POINT
  5
214CD
330
1E963
100
AcDbEntity
  8
DEFPOINTS
 62
     0
 48
50.0
100
AcDbPoint
 10
7533.599999999999
 20
5671.90777793021
 30
0.0
  0
POINT
  5
214CE
330
1E963
100
AcDbEntity
  8
DEFPOINTS
 62
     0
 48
50.0
100
AcDbPoint
 10
7533.600000000035
 20
5746.907777930211
 30
0.0
  0
POINT
  5
214CF
330
1E963
100
AcDbEntity
  8
DEFPOINTS
 62
     0
 48
50.0
100
AcDbPoint
 10
7204.331011552699
 20
5746.907777930211
 30
0.0
  0
ENDBLK
  5
1E970
330
1E963
100
AcDbEntity
  8
0
 48
50.0
100
AcDbBlockEnd
  0
BLOCK
  5
1F7C6
330
1F7BC
100
AcDbEntity
  8
0
 48
50.0
100
AcDbBlockBegin
  2
*D22
 70
     1
 10
0.0
 20
0.0
 30
0.0
  3
*D22
  1

  0
LINE
  5
20875
330
1F7BC
100
AcDbEntity
  8
寸法
 62
     0
 48
50.0
370
    -2
100
AcDbLine
 10
8223.600000000001
 20
7322.907777930208
 30
0.0
 11
8223.600000000001
 21
8605.196807820888
 31
0.0
  0
LINE
  5
20876
330
1F7BC
100
AcDbEntity
  8
寸法
 62
     0
 48
50.0
370
    -2
100
AcDbLine
 10
8913.6
 20
7986.907777930207
 30
0.0
 11
8913.6
 21
8605.196807820888
 31
0.0
  0
LINE
  5
20877
330
1F7BC
100
AcDbEntity
  8
寸法
 62
     0
 48
50.0
370
    -2
100
AcDbLine
 10
8223.600000000001
 20
8545.196807820888
 30
0.0
 11
8913.6
 21
8545.196807820888
 31
0.0
  0
INSERT
  5
20878
330
1F7BC
100
AcDbEntity
  8
寸法
 62
     0
 48
50.0
370
    -2
100
AcDbBlockReference
  2
_DOTSMALL
 10
8223.600000000001
 20
8545.196807820888
 30
0.0
 41
100.0
 42
100.0
 43
100.0
 50
180.0
  0
INSERT
  5
20879
330
1F7BC
100
AcDbEntity
  8
寸法
 62
     0
 48
50.0
370
    -2
100
AcDbBlockReference
  2
_DOTSMALL
 10
8913.6
 20
8545.196807820888
 30
0.0
 41
100.0
 42
100.0
 43
100.0
  0
MTEXT
  5
2087A
330
1F7BC
100
AcDbEntity
  8
寸法
 62
     7
 48
50.0
100
AcDbMText
 10
8568.600000000001
 20
8645.196807820887
 30
0.0
 40
120.0
 41
0.0
 71
     5
 72
     1
  1
\A1;690
  7
STYLE1
 73
     1
 44
1.0
1001
ACAD
1000
MTEXTBEGIN
1070
    73
1070
     1
1070
    44
1040
1.0
1070
    74
1070
     0
1000
MTEXTEND
  0
POINT
  5
2087B
330
1F7BC
100
AcDbEntity
  8
DEFPOINTS
 62
     0
 48
50.0
100
AcDbPoint
 10
8223.600000000001
 20
7302.907777930208
 30
0.0
  0
POINT
  5
2087C
330
1F7BC
100
AcDbEntity
  8
DEFPOINTS
 62
     0
 48
50.0
100
AcDbPoint
 10
8913.6
 20
7966.907777930209
 30
0.0
  0
POINT
  5
2087D
330
1F7BC
100
AcDbEntity
  8
DEFPOINTS
 62
     0
 48
50.0
100
AcDbPoint
 10
8913.6
 20
8545.196807820888
 30
0.0
  0
ENDBLK
  5
1F7C7
330
1F7BC
100
AcDbEntity
  8
0
 48
50.0
100
AcDbBlockEnd
  0
BLOCK
  5
1F7D2
330
1F7C8
100
AcDbEntity
  8
0
 48
50.0
100
AcDbBlockBegin
  2
*D23
 70
     1
 10
0.0
 20
0.0
 30
0.0
  3
*D23
  1

  0
LINE
  5
2086C
330
1F7C8
100
AcDbEntity
  8
寸法
 62
     0
 48
50.0
370
    -2
100
AcDbLine
 10
7533.599999999999
 20
7986.907777930207
 30
0.0
 11
7533.599999999999
 21
8605.196807820888
 31
0.0
  0
LINE
  5
2086D
330
1F7C8
100
AcDbEntity
  8
寸法
 62
     0
 48
50.0
370
    -2
100
AcDbLine
 10
8223.600000000001
 20
7322.907777930208
 30
0.0
 11
8223.600000000001
 21
8605.196807820888
 31
0.0
  0
LINE
  5
2086E
330
1F7C8
100
AcDbEntity
  8
寸法
 62
     0
 48
50.0
370
    -2
100
AcDbLine
 10
7533.599999999999
 20
8545.196807820888
 30
0.0
 11
8223.600000000001
 21
8545.196807820888
 31
0.0
  0
INSERT
  5
2086F
330
1F7C8
100
AcDbEntity
  8
寸法
 62
     0
 48
50.0
370
    -2
100
AcDbBlockReference
  2
_DOTSMALL
 10
7533.599999999999
 20
8545.196807820888
 30
0.0
 41
100.0
 42
100.0
 43
100.0
 50
180.0
  0
INSERT
  5
20870
330
1F7C8
100
AcDbEntity
  8
寸法
 62
     0
 48
50.0
370
    -2
100
AcDbBlockReference
  2
_DOTSMALL
 10
8223.600000000001
 20
8545.196807820888
 30
0.0
 41
100.0
 42
100.0
 43
100.0
  0
MTEXT
  5
20871
330
1F7C8
100
AcDbEntity
  8
寸法
 62
     7
 48
50.0
100
AcDbMText
 10
7878.6
 20
8645.196807820887
 30
0.0
 40
120.0
 41
0.0
 71
     5
 72
     1
  1
\A1;690
  7
STYLE1
 73
     1
 44
1.0
1001
ACAD
1000
MTEXTBEGIN
1070
    73
1070
     1
1070
    44
1040
1.0
1070
    74
1070
     0
1000
MTEXTEND
  0
POINT
  5
20872
330
1F7C8
100
AcDbEntity
  8
DEFPOINTS
 62
     0
 48
50.0
100
AcDbPoint
 10
7533.599999999999
 20
7966.907777930209
 30
0.0
  0
POINT
  5
20873
330
1F7C8
100
AcDbEntity
  8
DEFPOINTS
 62
     0
 48
50.0
100
AcDbPoint
 10
8223.600000000001
 20
7302.907777930208
 30
0.0
  0
POINT
  5
20874
330
1F7C8
100
AcDbEntity
  8
DEFPOINTS
 62
     0
 48
50.0
100
AcDbPoint
 10
8223.600000000001
 20
8545.196807820888
 30
0.0
  0
ENDBLK
  5
1F7D3
330
1F7C8
100
AcDbEntity
  8
0
 48
50.0
100
AcDbBlockEnd
  0
BLOCK
  5
1F82B
330
1F820
100
AcDbEntity
  8
0
 48
50.0
100
AcDbBlockBegin
  2
*D24
 70
     1
 10
0.0
 20
0.0
 30
0.0
  3
*D24
  1

  0
LINE
  5
1FE8A
330
1F820
100
AcDbEntity
  8
寸法
 62
     0
 48
50.0
370
    -2
100
AcDbLine
 10
8913.6
 20
7986.907777930207
 30
0.0
 11
8913.6
 21
8831.968388320138
 31
0.0
  0
LINE
  5
1FE8B
330
1F820
100
AcDbEntity
  8
寸法
 62
     0
 48
50.0
370
    -2
100
AcDbLine
 10
8790.600000000001
 20
7913.907777930209
 30
0.0
 11
8790.600000000001
 21
8831.968388320138
 31
0.0
  0
LINE
  5
1FE8C
330
1F820
100
AcDbEntity
  8
寸法
 62
     0
 48
50.0
370
    -2
100
AcDbLine
 10
8790.600000000001
 20
8771.968388320138
 30
0.0
 11
8913.6
 21
8771.968388320138
 31
0.0
  0
LINE
  5
1FE8D
330
1F820
100
AcDbEntity
  8
寸法
 62
     0
 48
50.0
370
    -2
100
AcDbLine
 10
8913.6
 20
8771.968388320138
 30
0.0
 11
9290.570562748476
 21
8771.968388320138
 31
0.0
  0
INSERT
  5
1FE8E
330
1F820
100
AcDbEntity
  8
寸法
 62
     0
 48
50.0
370
    -2
100
AcDbBlockReference
  2
_DOTSMALL
 10
8790.600000000001
 20
8771.968388320138
 30
0.0
 41
100.0
 42
100.0
 43
100.0
 50
180.0
  0
INSERT
  5
1FE8F
330
1F820
100
AcDbEntity
  8
寸法
 62
     0
 48
50.0
370
    -2
100
AcDbBlockReference
  2
_DOTSMALL
 10
8913.6
 20
8771.968388320138
 30
0.0
 41
100.0
 42
100.0
 43
100.0
  0
MTEXT
  5
1FE90
330
1F820
100
AcDbEntity
  8
寸法
 62
     7
 48
50.0
100
AcDbMText
 10
9152.085281374239
 20
8871.980199343759
 30
0.0
 40
120.0
 41
0.0
 71
     5
 72
     1
  1
\A1;123
  7
STYLE1
 73
     1
 44
1.0
1001
ACAD
1000
MTEXTBEGIN
1070
    73
1070
     1
1070
    44
1040
1.0
1070
    74
1070
     0
1000
MTEXTEND
  0
POINT
  5
1FE91
330
1F820
100
AcDbEntity
  8
DEFPOINTS
 62
     0
 48
50.0
100
AcDbPoint
 10
8913.6
 20
7966.907777930209
 30
0.0
  0
POINT
  5
1FE92
330
1F820
100
AcDbEntity
  8
DEFPOINTS
 62
     0
 48
50.0
100
AcDbPoint
 10
8790.600000000001
 20
7893.907777930208
 30
0.0
  0
POINT
  5
1FE93
330
1F820
100
AcDbEntity
  8
DEFPOINTS
 62
     0
 48
50.0
100
AcDbPoint
 10
8790.600000000001
 20
8771.968388320138
 30
0.0
  0
ENDBLK
  5
1F82C
330
1F820
100
AcDbEntity
  8
0
 48
50.0
100
AcDbBlockEnd
  0
BLOCK
  5
1F846
330
1F83B
100
AcDbEntity
  8
0
 48
50.0
100
AcDbBlockBegin
  2
*D25
 70
     1
 10
0.0
 20
0.0
 30
0.0
  3
*D25
  1

  0
LINE
  5
207AE
330
1F83B
100
AcDbEntity
  8
寸法
 62
     0
 48
50.0
370
    -2
100
AcDbLine
 10
7513.600000000001
 20
7966.907777930209
 30
0.0
 11
6677.657733986179
 21
7966.907777930209
 31
0.0
  0
LINE
  5
207AF
330
1F83B
100
AcDbEntity
  8
寸法
 62
     0
 48
50.0
370
    -2
100
AcDbLine
 10
7586.6
 20
7843.907777930208
 30
0.0
 11
6677.657733986179
 21
7843.907777930208
 31
0.0
  0
LINE
  5
207B0
330
1F83B
100
AcDbEntity
  8
寸法
 62
     0
 48
50.0
370
    -2
100
AcDbLine
 10
6737.657733986178
 20
7843.907777930208
 30
0.0
 11
6737.657733986178
 21
7966.907777930209
 31
0.0
  0
LINE
  5
207B1
330
1F83B
100
AcDbEntity
  8
寸法
 62
     0
 48
50.0
370
    -2
100
AcDbLine
 10
6737.657733986178
 20
7966.907777930209
 30
0.0
 11
6737.657733986178
 21
8343.878340678683
 31
0.0
  0
INSERT
  5
207B2
330
1F83B
100
AcDbEntity
  8
寸法
 62
     0
 48
50.0
370
    -2
100
AcDbBlockReference
  2
_DOTSMALL
 10
6737.657733986178
 20
7843.907777930208
 30
0.0
 41
100.0
 42
100.0
 43
100.0
 50
270.0
  0
INSERT
  5
207B3
330
1F83B
100
AcDbEntity
  8
寸法
 62
     0
 48
50.0
370
    -2
100
AcDbBlockReference
  2
_DOTSMALL
 10
6737.657733986178
 20
7966.907777930209
 30
0.0
 41
100.0
 42
100.0
 43
100.0
 50
90.0
  0
MTEXT
  5
207B4
330
1F83B
100
AcDbEntity
  8
寸法
 62
     7
 48
50.0
100
AcDbMText
 10
6637.645922962557
 20
8205.393059304448
 30
0.0
 40
120.0
 41
0.0
 71
     5
 72
     1
  1
\A1;123
  7
STYLE1
 11
0.0000000000000001
 21
1.0
 31
0.0
 73
     1
 44
1.0
1001
ACAD
1000
MTEXTBEGIN
1070
    73
1070
     1
1070
    44
1040
1.0
1070
    74
1070
     0
1000
MTEXTEND
  0
POINT
  5
207B5
330
1F83B
100
AcDbEntity
  8
DEFPOINTS
 62
     0
 48
50.0
100
AcDbPoint
 10
7533.599999999999
 20
7966.907777930209
 30
0.0
  0
POINT
  5
207B6
330
1F83B
100
AcDbEntity
  8
DEFPOINTS
 62
     0
 48
50.0
100
AcDbPoint
 10
7606.6
 20
7843.907777930208
 30
0.0
  0
POINT
  5
207B7
330
1F83B
100
AcDbEntity
  8
DEFPOINTS
 62
     0
 48
50.0
100
AcDbPoint
 10
6737.657733986178
 20
7843.907777930208
 30
0.0
  0
ENDBLK
  5
1F847
330
1F83B
100
AcDbEntity
  8
0
 48
50.0
100
AcDbBlockEnd
  0
BLOCK
  5
1F861
330
1F856
100
AcDbEntity
  8
0
 48
50.0
100
AcDbBlockBegin
  2
*D26
 70
     1
 10
0.0
 20
0.0
 30
0.0
  3
*D26
  1

  0
LINE
  5
207A4
330
1F856
100
AcDbEntity
  8
寸法
 62
     0
 48
50.0
370
    -2
100
AcDbLine
 10
7586.600000000008
 20
5869.90777793021
 30
0.0
 11
6677.657733986179
 21
5869.90777793021
 31
0.0
  0
LINE
  5
207A5
330
1F856
100
AcDbEntity
  8
寸法
 62
     0
 48
50.0
370
    -2
100
AcDbLine
 10
7513.600000000001
 20
5746.907777930208
 30
0.0
 11
6677.657733986179
 21
5746.907777930208
 31
0.0
  0
LINE
  5
207A6
330
1F856
100
AcDbEntity
  8
寸法
 62
     0
 48
50.0
370
    -2
100
AcDbLine
 10
6737.657733986178
 20
5869.90777793021
 30
0.0
 11
6737.657733986178
 21
5746.907777930208
 31
0.0
  0
LINE
  5
207A7
330
1F856
100
AcDbEntity
  8
寸法
 62
     0
 48
50.0
370
    -2
100
AcDbLine
 10
6737.657733986178
 20
5746.907777930208
 30
0.0
 11
6737.657733986178
 21
5369.93721518173
 31
0.0
  0
INSERT
  5
207A8
330
1F856
100
AcDbEntity
  8
寸法
 62
     0
 48
50.0
370
    -2
100
AcDbBlockReference
  2
_DOTSMALL
 10
6737.657733986178
 20
5869.90777793021
 30
0.0
 41
100.0
 42
100.0
 43
100.0
 50
90.0
  0
INSERT
  5
207A9
330
1F856
100
AcDbEntity
  8
寸法
 62
     0
 48
50.0
370
    -2
100
AcDbBlockReference
  2
_DOTSMALL
 10
6737.657733986178
 20
5746.907777930208
 30
0.0
 41
100.0
 42
100.0
 43
100.0
 50
270.0
  0
MTEXT
  5
207AA
330
1F856
100
AcDbEntity
  8
寸法
 62
     7
 48
50.0
100
AcDbMText
 10
6637.645922962557
 20
5508.42249655597
 30
0.0
 40
120.0
 41
0.0
 71
     5
 72
     1
  1
\A1;123
  7
STYLE1
 11
0.0000000000000001
 21
1.0
 31
0.0
 73
     1
 44
1.0
1001
ACAD
1000
MTEXTBEGIN
1070
    73
1070
     1
1070
    44
1040
1.0
1070
    74
1070
     0
1000
MTEXTEND
  0
POINT
  5
207AB
330
1F856
100
AcDbEntity
  8
DEFPOINTS
 62
     0
 48
50.0
100
AcDbPoint
 10
7606.600000000007
 20
5869.90777793021
 30
0.0
  0
POINT
  5
207AC
330
1F856
100
AcDbEntity
  8
DEFPOINTS
 62
     0
 48
50.0
100
AcDbPoint
 10
7533.599999999999
 20
5746.907777930208
 30
0.0
  0
POINT
  5
207AD
330
1F856
100
AcDbEntity
  8
DEFPOINTS
 62
     0
 48
50.0
100
AcDbPoint
 10
6737.657733986178
 20
5746.907777930208
 30
0.0
  0
ENDBLK
  5
1F862
330
1F856
100
AcDbEntity
  8
0
 48
50.0
100
AcDbBlockEnd
  0
BLOCK
  5
1F86D
330
1F863
100
AcDbEntity
  8
0
 48
50.0
100
AcDbBlockBegin
  2
*D27
 70
     1
 10
0.0
 20
0.0
 30
0.0
  3
*D27
  1

  0
LINE
  5
2079B
330
1F863
100
AcDbEntity
  8
寸法
 62
     0
 48
50.0
370
    -2
100
AcDbLine
 10
7513.600000000001
 20
7966.907777930209
 30
0.0
 11
6432.164931848213
 21
7966.907777930209
 31
0.0
  0
LINE
  5
2079C
330
1F863
100
AcDbEntity
  8
寸法
 62
     0
 48
50.0
370
    -2
100
AcDbLine
 10
7513.600000000001
 20
5746.907777930208
 30
0.0
 11
6432.164931848213
 21
5746.907777930208
 31
0.0
  0
LINE
  5
2079D
330
1F863
100
AcDbEntity
  8
寸法
 62
     0
 48
50.0
370
    -2
100
AcDbLine
 10
6492.164931848214
 20
7966.907777930209
 30
0.0
 11
6492.164931848212
 21
5746.907777930208
 31
0.0
  0
INSERT
  5
2079E
330
1F863
100
AcDbEntity
  8
寸法
 62
     0
 48
50.0
370
    -2
100
AcDbBlockReference
  2
_DOTSMALL
 10
6492.164931848214
 20
7966.907777930209
 30
0.0
 41
100.0
 42
100.0
 43
100.0
 50
90.0
  0
INSERT
  5
2079F
330
1F863
100
AcDbEntity
  8
寸法
 62
     0
 48
50.0
370
    -2
100
AcDbBlockReference
  2
_DOTSMALL
 10
6492.164931848212
 20
5746.907777930208
 30
0.0
 41
100.0
 42
100.0
 43
100.0
 50
270.0
  0
MTEXT
  5
207A0
330
1F863
100
AcDbEntity
  8
寸法
 62
     7
 48
50.0
100
AcDbMText
 10
6392.153120824589
 20
6911.474447586923
 30
0.0
 40
120.0
 41
0.0
 71
     5
 72
     1
  1
\A1;2220
  7
STYLE1
 11
0.0000000000000001
 21
1.0
 31
0.0
 73
     1
 44
1.0
1001
ACAD
1000
MTEXTBEGIN
1070
    73
1070
     1
1070
    44
1040
1.0
1070
    74
1070
     0
1000
MTEXTEND
  0
POINT
  5
207A1
330
1F863
100
AcDbEntity
  8
DEFPOINTS
 62
     0
 48
50.0
100
AcDbPoint
 10
7533.599999999999
 20
7966.907777930209
 30
0.0
  0
POINT
  5
207A2
330
1F863
100
AcDbEntity
  8
DEFPOINTS
 62
     0
 48
50.0
100
AcDbPoint
 10
7533.599999999999
 20
5746.907777930208
 30
0.0
  0
POINT
  5
207A3
330
1F863
100
AcDbEntity
  8
DEFPOINTS
 62
     0
 48
50.0
100
AcDbPoint
 10
6492.164931848212
 20
5746.907777930208
 30
0.0
  0
ENDBLK
  5
1F86E
330
1F863
100
AcDbEntity
  8
0
 48
50.0
100
AcDbBlockEnd
  0
BLOCK
  5
1F879
330
1F86F
100
AcDbEntity
  8
0
 48
50.0
100
AcDbBlockBegin
  2
*D28
 70
     1
 10
0.0
 20
0.0
 30
0.0
  3
*D28
  1

  0
LINE
  5
20792
330
1F86F
100
AcDbEntity
  8
寸法
 62
     0
 48
50.0
370
    -2
100
AcDbLine
 10
7586.6
 20
7843.907777930208
 30
0.0
 11
6677.65773398618
 21
7843.907777930208
 31
0.0
  0
LINE
  5
20793
330
1F86F
100
AcDbEntity
  8
寸法
 62
     0
 48
50.0
370
    -2
100
AcDbLine
 10
7586.600000000008
 20
5869.90777793021
 30
0.0
 11
6677.657733986179
 21
5869.90777793021
 31
0.0
  0
LINE
  5
20794
330
1F86F
100
AcDbEntity
  8
寸法
 62
     0
 48
50.0
370
    -2
100
AcDbLine
 10
6737.657733986179
 20
7843.907777930208
 30
0.0
 11
6737.657733986178
 21
5869.90777793021
 31
0.0
  0
INSERT
  5
20795
330
1F86F
100
AcDbEntity
  8
寸法
 62
     0
 48
50.0
370
    -2
100
AcDbBlockReference
  2
_DOTSMALL
 10
6737.657733986179
 20
7843.907777930208
 30
0.0
 41
100.0
 42
100.0
 43
100.0
 50
90.0
  0
INSERT
  5
20796
330
1F86F
100
AcDbEntity
  8
寸法
 62
     0
 48
50.0
370
    -2
100
AcDbBlockReference
  2
_DOTSMALL
 10
6737.657733986178
 20
5869.90777793021
 30
0.0
 41
100.0
 42
100.0
 43
100.0
 50
270.0
  0
MTEXT
  5
20797
330
1F86F
100
AcDbEntity
  8
寸法
 62
     7
 48
50.0
100
AcDbMText
 10
6637.657733986178
 20
6911.474447586923
 30
0.0
 40
120.0
 41
0.0
 71
     5
 72
     1
  1
\A1;1974
  7
STYLE1
 11
0.0000000000000001
 21
1.0
 31
0.0
 73
     1
 44
1.0
1001
ACAD
1000
MTEXTBEGIN
1070
    73
1070
     1
1070
    44
1040
1.0
1070
    74
1070
     0
1000
MTEXTEND
  0
POINT
  5
20798
330
1F86F
100
AcDbEntity
  8
DEFPOINTS
 62
     0
 48
50.0
100
AcDbPoint
 10
7606.6
 20
7843.907777930208
 30
0.0
  0
POINT
  5
20799
330
1F86F
100
AcDbEntity
  8
DEFPOINTS
 62
     0
 48
50.0
100
AcDbPoint
 10
7606.600000000007
 20
5869.90777793021
 30
0.0
  0
POINT
  5
2079A
330
1F86F
100
AcDbEntity
  8
DEFPOINTS
 62
     0
 48
50.0
100
AcDbPoint
 10
6737.657733986178
 20
5869.90777793021
 30
0.0
  0
ENDBLK
  5
1F87A
330
1F86F
100
AcDbEntity
  8
0
 48
50.0
100
AcDbBlockEnd
  0
BLOCK
  5
1F894
330
1F889
100
AcDbEntity
  8
0
 48
50.0
100
AcDbBlockBegin
  2
*D29
 70
     1
 10
0.0
 20
0.0
 30
0.0
  3
*D29
  1

  0
LINE
  5
1FE4F
330
1F889
100
AcDbEntity
  8
寸法
 62
     0
 48
50.0
370
    -2
100
AcDbLine
 10
7656.6
 20
7913.907777930209
 30
0.0
 11
7656.6
 21
8831.968388320138
 31
0.0
  0
LINE
  5
1FE50
330
1F889
100
AcDbEntity
  8
寸法
 62
     0
 48
50.0
370
    -2
100
AcDbLine
 10
7533.599999999999
 20
7986.907777930207
 30
0.0
 11
7533.599999999999
 21
8831.968388320138
 31
0.0
  0
LINE
  5
1FE51
330
1F889
100
AcDbEntity
  8
寸法
 62
     0
 48
50.0
370
    -2
100
AcDbLine
 10
7656.6
 20
8771.968388320138
 30
0.0
 11
7533.599999999999
 21
8771.968388320138
 31
0.0
  0
LINE
  5
1FE52
330
1F889
100
AcDbEntity
  8
寸法
 62
     0
 48
50.0
370
    -2
100
AcDbLine
 10
7533.599999999999
 20
8771.968388320138
 30
0.0
 11
7156.629437251523
 21
8771.968388320138
 31
0.0
  0
INSERT
  5
1FE53
330
1F889
100
AcDbEntity
  8
寸法
 62
     0
 48
50.0
370
    -2
100
AcDbBlockReference
  2
_DOTSMALL
 10
7656.6
 20
8771.968388320138
 30
0.0
 41
100.0
 42
100.0
 43
100.0
  0
INSERT
  5
1FE54
330
1F889
100
AcDbEntity
  8
寸法
 62
     0
 48
50.0
370
    -2
100
AcDbBlockReference
  2
_DOTSMALL
 10
7533.599999999999
 20
8771.968388320138
 30
0.0
 41
100.0
 42
100.0
 43
100.0
 50
180.0
  0
MTEXT
  5
1FE55
330
1F889
100
AcDbEntity
  8
寸法
 62
     7
 48
50.0
100
AcDbMText
 10
7295.114718625763
 20
8871.980199343759
 30
0.0
 40
120.0
 41
0.0
 71
     5
 72
     1
  1
\A1;123
  7
STYLE1
 73
     1
 44
1.0
1001
ACAD
1000
MTEXTBEGIN
1070
    73
1070
     1
1070
    44
1040
1.0
1070
    74
1070
     0
1000
MTEXTEND
  0
POINT
  5
1FE56
330
1F889
100
AcDbEntity
  8
DEFPOINTS
 62
     0
 48
50.0
100
AcDbPoint
 10
7656.6
 20
7893.907777930208
 30
0.0
  0
POINT
  5
1FE57
330
1F889
100
AcDbEntity
  8
DEFPOINTS
 62
     0
 48
50.0
100
AcDbPoint
 10
7533.599999999999
 20
7966.907777930209
 30
0.0
  0
POINT
  5
1FE58
330
1F889
100
AcDbEntity
  8
DEFPOINTS
 62
     0
 48
50.0
100
AcDbPoint
 10
7533.599999999999
 20
8771.968388320138
 30
0.0
  0
ENDBLK
  5
1F895
330
1F889
100
AcDbEntity
  8
0
 48
50.0
100
AcDbBlockEnd
  0
BLOCK
  5
1F8A0
330
1F896
100
AcDbEntity
  8
0
 48
50.0
100
AcDbBlockBegin
  2
*D30
 70
     1
 10
0.0
 20
0.0
 30
0.0
  3
*D30
  1

  0
LINE
  5
1FE46
330
1F896
100
AcDbEntity
  8
寸法
 62
     0
 48
50.0
370
    -2
100
AcDbLine
 10
7533.599999999999
 20
7986.907777930207
 30
0.0
 11
7533.599999999999
 21
9044.429083836973
 31
0.0
  0
LINE
  5
1FE47
330
1F896
100
AcDbEntity
  8
寸法
 62
     0
 48
50.0
370
    -2
100
AcDbLine
 10
8913.6
 20
7986.907777930207
 30
0.0
 11
8913.6
 21
9044.429083836973
 31
0.0
  0
LINE
  5
1FE48
330
1F896
100
AcDbEntity
  8
寸法
 62
     0
 48
50.0
370
    -2
100
AcDbLine
 10
7533.599999999999
 20
8984.429083836975
 30
0.0
 11
8913.6
 21
8984.429083836975
 31
0.0
  0
INSERT
  5
1FE49
330
1F896
100
AcDbEntity
  8
寸法
 62
     0
 48
50.0
370
    -2
100
AcDbBlockReference
  2
_DOTSMALL
 10
7533.599999999999
 20
8984.429083836975
 30
0.0
 41
100.0
 42
100.0
 43
100.0
 50
180.0
  0
INSERT
  5
1FE4A
330
1F896
100
AcDbEntity
  8
寸法
 62
     0
 48
50.0
370
    -2
100
AcDbBlockReference
  2
_DOTSMALL
 10
8913.6
 20
8984.429083836975
 30
0.0
 41
100.0
 42
100.0
 43
100.0
  0
MTEXT
  5
1FE4B
330
1F896
100
AcDbEntity
  8
寸法
 62
     7
 48
50.0
100
AcDbMText
 10
8223.600000000001
 20
9084.429083836974
 30
0.0
 40
120.0
 41
0.0
 71
     5
 72
     1
  1
\A1;1380
  7
STYLE1
 73
     1
 44
1.0
1001
ACAD
1000
MTEXTBEGIN
1070
    73
1070
     1
1070
    44
1040
1.0
1070
    74
1070
     0
1000
MTEXTEND
  0
POINT
  5
1FE4C
330
1F896
100
AcDbEntity
  8
DEFPOINTS
 62
     0
 48
50.0
100
AcDbPoint
 10
7533.599999999999
 20
7966.907777930209
 30
0.0
  0
POINT
  5
1FE4D
330
1F896
100
AcDbEntity
  8
DEFPOINTS
 62
     0
 48
50.0
100
AcDbPoint
 10
8913.6
 20
7966.907777930209
 30
0.0
  0
POINT
  5
1FE4E
330
1F896
100
AcDbEntity
  8
DEFPOINTS
 62
     0
 48
50.0
100
AcDbPoint
 10
8913.6
 20
8984.429083836975
 30
0.0
  0
ENDBLK
  5
1F8A1
330
1F896
100
AcDbEntity
  8
0
 48
50.0
100
AcDbBlockEnd
  0
BLOCK
  5
1F8AC
330
1F8A2
100
AcDbEntity
  8
0
 48
50.0
100
AcDbBlockBegin
  2
*D31
 70
     1
 10
0.0
 20
0.0
 30
0.0
  3
*D31
  1

  0
LINE
  5
1FE3D
330
1F8A2
100
AcDbEntity
  8
寸法
 62
     0
 48
50.0
370
    -2
100
AcDbLine
 10
8790.600000000001
 20
7913.907777930209
 30
0.0
 11
8790.600000000001
 21
8831.968388320138
 31
0.0
  0
LINE
  5
1FE3E
330
1F8A2
100
AcDbEntity
  8
寸法
 62
     0
 48
50.0
370
    -2
100
AcDbLine
 10
7656.6
 20
7913.907777930209
 30
0.0
 11
7656.6
 21
8831.968388320138
 31
0.0
  0
LINE
  5
1FE3F
330
1F8A2
100
AcDbEntity
  8
寸法
 62
     0
 48
50.0
370
    -2
100
AcDbLine
 10
8790.600000000001
 20
8771.968388320138
 30
0.0
 11
7656.6
 21
8771.968388320138
 31
0.0
  0
INSERT
  5
1FE40
330
1F8A2
100
AcDbEntity
  8
寸法
 62
     0
 48
50.0
370
    -2
100
AcDbBlockReference
  2
_DOTSMALL
 10
8790.600000000001
 20
8771.968388320138
 30
0.0
 41
100.0
 42
100.0
 43
100.0
  0
INSERT
  5
1FE41
330
1F8A2
100
AcDbEntity
  8
寸法
 62
     0
 48
50.0
370
    -2
100
AcDbBlockReference
  2
_DOTSMALL
 10
7656.6
 20
8771.968388320138
 30
0.0
 41
100.0
 42
100.0
 43
100.0
 50
180.0
  0
MTEXT
  5
1FE42
330
1F8A2
100
AcDbEntity
  8
寸法
 62
     7
 48
50.0
100
AcDbMText
 10
8223.600000000001
 20
8871.968388320139
 30
0.0
 40
120.0
 41
0.0
 71
     5
 72
     1
  1
\A1;1134
  7
STYLE1
 73
     1
 44
1.0
1001
ACAD
1000
MTEXTBEGIN
1070
    73
1070
     1
1070
    44
1040
1.0
1070
    74
1070
     0
1000
MTEXTEND
  0
POINT
  5
1FE43
330
1F8A2
100
AcDbEntity
  8
DEFPOINTS
 62
     0
 48
50.0
100
AcDbPoint
 10
8790.600000000001
 20
7893.907777930208
 30
0.0
  0
POINT
  5
1FE44
330
1F8A2
100
AcDbEntity
  8
DEFPOINTS
 62
     0
 48
50.0
100
AcDbPoint
 10
7656.6
 20
7893.907777930208
 30
0.0
  0
POINT
  5
1FE45
330
1F8A2
100
AcDbEntity
  8
DEFPOINTS
 62
     0
 48
50.0
100
AcDbPoint
 10
7656.6
 20
8771.968388320138
 30
0.0
  0
ENDBLK
  5
1F8AD
330
1F8A2
100
AcDbEntity
  8
0
 48
50.0
100
AcDbBlockEnd
  0
BLOCK
  5
206F8
330
206EE
100
AcDbEntity
  8
0
 48
50.0
100
AcDbBlockBegin
  2
*D32
 70
     1
 10
0.0
 20
0.0
 30
0.0
  3
*D32
  1

  0
LINE
  5
20851
330
206EE
100
AcDbEntity
  8
寸法
 62
     0
 48
50.0
370
    -2
100
AcDbLine
 10
7513.600000000036
 20
5746.907777930211
 30
0.0
 11
6922.503367597602
 21
5746.907777930211
 31
0.0
  0
LINE
  5
20852
330
206EE
100
AcDbEntity
  8
寸法
 62
     0
 48
50.0
370
    -2
100
AcDbLine
 10
8103.6
 20
6510.907777930208
 30
0.0
 11
6922.503367597603
 21
6510.907777930208
 31
0.0
  0
LINE
  5
20853
330
206EE
100
AcDbEntity
  8
寸法
 62
     0
 48
50.0
370
    -2
100
AcDbLine
 10
6982.503367597601
 20
5746.907777930211
 30
0.0
 11
6982.503367597603
 21
6510.907777930208
 31
0.0
  0
INSERT
  5
20854
330
206EE
100
AcDbEntity
  8
寸法
 62
     0
 48
50.0
370
    -2
100
AcDbBlockReference
  2
_DOTSMALL
 10
6982.503367597601
 20
5746.907777930211
 30
0.0
 41
100.0
 42
100.0
 43
100.0
 50
270.0
  0
INSERT
  5
20855
330
206EE
100
AcDbEntity
  8
寸法
 62
     0
 48
50.0
370
    -2
100
AcDbBlockReference
  2
_DOTSMALL
 10
6982.503367597603
 20
6510.907777930208
 30
0.0
 41
100.0
 42
100.0
 43
100.0
 50
90.0
  0
MTEXT
  5
20856
330
206EE
100
AcDbEntity
  8
寸法
 62
     7
 48
50.0
100
AcDbMText
 10
6882.503367597601
 20
6200.010127818401
 30
0.0
 40
120.0
 41
0.0
 71
     5
 72
     1
  1
\A1;764
  7
STYLE1
 11
0.0000000000000001
 21
1.0
 31
0.0
 73
     1
 44
1.0
1001
ACAD
1000
MTEXTBEGIN
1070
    73
1070
     1
1070
    44
1040
1.0
1070
    74
1070
     0
1000
MTEXTEND
  0
POINT
  5
20857
330
206EE
100
AcDbEntity
  8
DEFPOINTS
 62
     0
 48
50.0
100
AcDbPoint
 10
7533.600000000035
 20
5746.907777930211
 30
0.0
  0
POINT
  5
20858
330
206EE
100
AcDbEntity
  8
DEFPOINTS
 62
     0
 48
50.0
100
AcDbPoint
 10
8123.600000000001
 20
6510.907777930208
 30
0.0
  0
POINT
  5
20859
330
206EE
100
AcDbEntity
  8
DEFPOINTS
 62
     0
 48
50.0
100
AcDbPoint
 10
6982.503367597603
 20
6510.907777930208
 30
0.0
  0
ENDBLK
  5
206F9
330
206EE
100
AcDbEntity
  8
0
 48
50.0
100
AcDbBlockEnd
  0
BLOCK
  5
20729
330
2071F
100
AcDbEntity
  8
0
 48
50.0
100
AcDbBlockBegin
  2
*D33
 70
     1
 10
0.0
 20
0.0
 30
0.0
  3
*D33
  1

  0
LINE
  5
20863
330
2071F
100
AcDbEntity
  8
寸法
 62
     0
 48
50.0
370
    -2
100
AcDbLine
 10
8103.6
 20
7202.907777930208
 30
0.0
 11
6922.503367597603
 21
7202.907777930208
 31
0.0
  0
LINE
  5
20864
330
2071F
100
AcDbEntity
  8
寸法
 62
     0
 48
50.0
370
    -2
100
AcDbLine
 10
7513.600000000001
 20
7966.907777930209
 30
0.0
 11
6922.503367597603
 21
7966.907777930209
 31
0.0
  0
LINE
  5
20865
330
2071F
100
AcDbEntity
  8
寸法
 62
     0
 48
50.0
370
    -2
100
AcDbLine
 10
6982.503367597603
 20
7202.907777930208
 30
0.0
 11
6982.503367597603
 21
7966.907777930209
 31
0.0
  0
INSERT
  5
20866
330
2071F
100
AcDbEntity
  8
寸法
 62
     0
 48
50.0
370
    -2
100
AcDbBlockReference
  2
_DOTSMALL
 10
6982.503367597603
 20
7202.907777930208
 30
0.0
 41
100.0
 42
100.0
 43
100.0
 50
270.0
  0
INSERT
  5
20867
330
2071F
100
AcDbEntity
  8
寸法
 62
     0
 48
50.0
370
    -2
100
AcDbBlockReference
  2
_DOTSMALL
 10
6982.503367597603
 20
7966.907777930209
 30
0.0
 41
100.0
 42
100.0
 43
100.0
 50
90.0
  0
MTEXT
  5
20868
330
2071F
100
AcDbEntity
  8
寸法
 62
     7
 48
50.0
100
AcDbMText
 10
6882.503367597601
 20
7584.907777930209
 30
0.0
 40
120.0
 41
0.0
 71
     5
 72
     1
  1
\A1;764
  7
STYLE1
 11
0.0000000000000001
 21
1.0
 31
0.0
 73
     1
 44
1.0
1001
ACAD
1000
MTEXTBEGIN
1070
    73
1070
     1
1070
    44
1040
1.0
1070
    74
1070
     0
1000
MTEXTEND
  0
POINT
  5
20869
330
2071F
100
AcDbEntity
  8
DEFPOINTS
 62
     0
 48
50.0
100
AcDbPoint
 10
8123.600000000001
 20
7202.907777930208
 30
0.0
  0
POINT
  5
2086A
330
2071F
100
AcDbEntity
  8
DEFPOINTS
 62
     0
 48
50.0
100
AcDbPoint
 10
7533.599999999999
 20
7966.907777930209
 30
0.0
  0
POINT
  5
2086B
330
2071F
100
AcDbEntity
  8
DEFPOINTS
 62
     0
 48
50.0
100
AcDbPoint
 10
6982.503367597603
 20
7966.907777930209
 30
0.0
  0
ENDBLK
  5
2072A
330
2071F
100
AcDbEntity
  8
0
 48
50.0
100
AcDbBlockEnd
  0
BLOCK
  5
20748
330
2073E
100
AcDbEntity
  8
0
 48
50.0
100
AcDbBlockBegin
  2
*D34
 70
     1
 10
0.0
 20
0.0
 30
0.0
  3
*D34
  1

  0
LINE
  5
2085A
330
2073E
100
AcDbEntity
  8
寸法
 62
     0
 48
50.0
370
    -2
100
AcDbLine
 10
8103.6
 20
6510.907777930208
 30
0.0
 11
6922.503367597605
 21
6510.907777930208
 31
0.0
  0
LINE
  5
2085B
330
2073E
100
AcDbEntity
  8
寸法
 62
     0
 48
50.0
370
    -2
100
AcDbLine
 10
8103.6
 20
7202.907777930208
 30
0.0
 11
6922.503367597605
 21
7202.907777930208
 31
0.0
  0
LINE
  5
2085C
330
2073E
100
AcDbEntity
  8
寸法
 62
     0
 48
50.0
370
    -2
100
AcDbLine
 10
6982.503367597605
 20
6510.907777930208
 30
0.0
 11
6982.503367597605
 21
7202.907777930208
 31
0.0
  0
INSERT
  5
2085D
330
2073E
100
AcDbEntity
  8
寸法
 62
     0
 48
50.0
370
    -2
100
AcDbBlockReference
  2
_DOTSMALL
 10
6982.503367597605
 20
6510.907777930208
 30
0.0
 41
100.0
 42
100.0
 43
100.0
 50
270.0
  0
INSERT
  5
2085E
330
2073E
100
AcDbEntity
  8
寸法
 62
     0
 48
50.0
370
    -2
100
AcDbBlockReference
  2
_DOTSMALL
 10
6982.503367597605
 20
7202.907777930208
 30
0.0
 41
100.0
 42
100.0
 43
100.0
 50
90.0
  0
MTEXT
  5
2085F
330
2073E
100
AcDbEntity
  8
寸法
 62
     7
 48
50.0
100
AcDbMText
 10
6882.462555032799
 20
6856.907777930207
 30
0.0
 40
120.0
 41
0.0
 71
     5
 72
     1
  1
\A1;692
  7
STYLE1
 11
0.0000000000000001
 21
1.0
 31
0.0
 73
     1
 44
1.0
1001
ACAD
1000
MTEXTBEGIN
1070
    73
1070
     1
1070
    44
1040
1.0
1070
    74
1070
     0
1000
MTEXTEND
  0
POINT
  5
20860
330
2073E
100
AcDbEntity
  8
DEFPOINTS
 62
     0
 48
50.0
100
AcDbPoint
 10
8123.600000000001
 20
6510.907777930208
 30
0.0
  0
POINT
  5
20861
330
2073E
100
AcDbEntity
  8
DEFPOINTS
 62
     0
 48
50.0
100
AcDbPoint
 10
8123.600000000001
 20
7202.907777930208
 30
0.0
  0
POINT
  5
20862
330
2073E
100
AcDbEntity
  8
DEFPOINTS
 62
     0
 48
50.0
100
AcDbPoint
 10
6982.503367597605
 20
7202.907777930208
 30
0.0
  0
ENDBLK
  5
20749
330
2073E
100
AcDbEntity
  8
0
 48
50.0
100
AcDbBlockEnd
  0
BLOCK
  5
20A63
330
20A59
100
AcDbEntity
  8
0
 48
50.0
100
AcDbBlockBegin
  2
*D35
 70
     1
 10
0.0
 20
0.0
 30
0.0
  3
*D35
  1

  0
LINE
  5
20C4B
330
20A59
100
AcDbEntity
  8
寸法
 62
     0
 48
50.0
370
    -2
100
AcDbLine
 10
8913.600000000018
 20
5651.907777930227
 30
0.0
 11
8913.600000000018
 21
4897.043474506101
 31
0.0
  0
LINE
  5
20C4C
330
20A59
100
AcDbEntity
  8
寸法
 62
     0
 48
50.0
370
    -2
100
AcDbLine
 10
7533.600000000035
 20
5651.907777930211
 30
0.0
 11
7533.600000000035
 21
4897.043474506101
 31
0.0
  0
LINE
  5
20C4D
330
20A59
100
AcDbEntity
  8
寸法
 62
     0
 48
50.0
370
    -2
100
AcDbLine
 10
8913.600000000018
 20
4957.0434745061
 30
0.0
 11
7533.600000000035
 21
4957.0434745061
 31
0.0
  0
INSERT
  5
20C4E
330
20A59
100
AcDbEntity
  8
寸法
 62
     0
 48
50.0
370
    -2
100
AcDbBlockReference
  2
_DOTSMALL
 10
8913.600000000018
 20
4957.0434745061
 30
0.0
 41
100.0
 42
100.0
 43
100.0
  0
INSERT
  5
20C4F
330
20A59
100
AcDbEntity
  8
寸法
 62
     0
 48
50.0
370
    -2
100
AcDbBlockReference
  2
_DOTSMALL
 10
7533.600000000035
 20
4957.0434745061
 30
0.0
 41
100.0
 42
100.0
 43
100.0
 50
180.0
  0
MTEXT
  5
20C50
330
20A59
100
AcDbEntity
  8
寸法
 62
     7
 48
50.0
100
AcDbMText
 10
8223.600000000027
 20
5057.0434745061
 30
0.0
 40
120.0
 41
0.0
 71
     5
 72
     1
  1
\A1;扉の幅 1380
  7
STYLE1
 73
     1
 44
1.0
1001
ACAD
1000
MTEXTBEGIN
1070
    73
1070
     1
1070
    44
1040
1.0
1070
    74
1070
     0
1000
MTEXTEND
  0
POINT
  5
20C51
330
20A59
100
AcDbEntity
  8
DEFPOINTS
 62
     0
 48
50.0
100
AcDbPoint
 10
8913.600000000018
 20
5671.907777930226
 30
0.0
  0
POINT
  5
20C52
330
20A59
100
AcDbEntity
  8
DEFPOINTS
 62
     0
 48
50.0
100
AcDbPoint
 10
7533.600000000035
 20
5671.90777793021
 30
0.0
  0
POINT
  5
20C53
330
20A59
100
AcDbEntity
  8
DEFPOINTS
 62
     0
 48
50.0
100
AcDbPoint
 10
7533.600000000035
 20
4957.0434745061
 30
0.0
  0
ENDBLK
  5
20A64
330
20A59
100
AcDbEntity
  8
0
 48
50.0
100
AcDbBlockEnd
  0
BLOCK
  5
20AC2
330
20AB7
100
AcDbEntity
  8
0
 48
50.0
100
AcDbBlockBegin
  2
*D36
 70
     1
 10
0.0
 20
0.0
 30
0.0
  3
*D36
  1

  0
LINE
  5
21961
330
20AB7
100
AcDbEntity
  8
寸法
 62
     0
 48
50.0
370
    -2
100
AcDbLine
 10
7783.599999999999
 20
5866.907777930228
 30
0.0
 11
8052.9384600463
 21
5866.907777930228
 31
0.0
  0
LINE
  5
21962
330
20AB7
100
AcDbEntity
  8
寸法
 62
     0
 48
50.0
370
    -2
100
AcDbLine
 10
7783.600000000038
 20
5976.907777930225
 30
0.0
 11
8052.9384600463
 21
5976.907777930225
 31
0.0
  0
LINE
  5
21963
330
20AB7
100
AcDbEntity
  8
寸法
 62
     0
 48
50.0
370
    -2
100
AcDbLine
 10
7992.938460046301
 20
5866.907777930228
 30
0.0
 11
7992.938460046301
 21
5976.907777930225
 31
0.0
  0
LINE
  5
21964
330
20AB7
100
AcDbEntity
  8
寸法
 62
     0
 48
50.0
370
    -2
100
AcDbLine
 10
7992.938460046301
 20
5976.907777930225
 30
0.0
 11
7992.938460046302
 21
6337.002266119202
 31
0.0
  0
INSERT
  5
21965
330
20AB7
100
AcDbEntity
  8
寸法
 62
     0
 48
50.0
370
    -2
100
AcDbBlockReference
  2
_DOTSMALL
 10
7992.938460046301
 20
5866.907777930228
 30
0.0
 41
100.0
 42
100.0
 43
100.0
 50
270.0
  0
INSERT
  5
21966
330
20AB7
100
AcDbEntity
  8
寸法
 62
     0
 48
50.0
370
    -2
100
AcDbBlockReference
  2
_DOTSMALL
 10
7992.938460046301
 20
5976.907777930225
 30
0.0
 41
100.0
 42
100.0
 43
100.0
 50
90.0
  0
MTEXT
  5
21967
330
20AB7
100
AcDbEntity
  8
寸法
 62
     7
 48
50.0
100
AcDbMText
 10
7892.938460046299
 20
6212.955022024715
 30
0.0
 40
120.0
 41
0.0
 71
     5
 72
     1
  1
\A1;110
  7
STYLE1
 11
0.0000000000000001
 21
1.0
 31
0.0
 73
     1
 44
1.0
1001
ACAD
1000
MTEXTBEGIN
1070
    73
1070
     1
1070
    44
1040
1.0
1070
    74
1070
     0
1000
MTEXTEND
  0
POINT
  5
21968
330
20AB7
100
AcDbEntity
  8
DEFPOINTS
 62
     0
 48
50.0
100
AcDbPoint
 10
7763.6
 20
5866.907777930228
 30
0.0
  0
POINT
  5
21969
330
20AB7
100
AcDbEntity
  8
DEFPOINTS
 62
     0
 48
50.0
100
AcDbPoint
 10
7763.600000000038
 20
5976.907777930225
 30
0.0
  0
POINT
  5
2196A
330
20AB7
100
AcDbEntity
  8
DEFPOINTS
 62
     0
 48
50.0
100
AcDbPoint
 10
7992.938460046301
 20
5976.907777930225
 30
0.0
  0
ENDBLK
  5
20AC3
330
20AB7
100
AcDbEntity
  8
0
 48
50.0
100
AcDbBlockEnd
  0
BLOCK
  5
20ADB
330
20AD0
100
AcDbEntity
  8
0
 48
50.0
100
AcDbBlockBegin
  2
*D37
 70
     1
 10
0.0
 20
0.0
 30
0.0
  3
*D37
  1

  0
LINE
  5
21957
330
20AD0
100
AcDbEntity
  8
寸法
 62
     0
 48
50.0
370
    -2
100
AcDbLine
 10
7783.600000000035
 20
5671.907777930226
 30
0.0
 11
8052.9384600463
 21
5671.907777930226
 31
0.0
  0
LINE
  5
21958
330
20AD0
100
AcDbEntity
  8
寸法
 62
     0
 48
50.0
370
    -2
100
AcDbLine
 10
7783.600000000001
 20
5866.907777930212
 30
0.0
 11
8052.9384600463
 21
5866.907777930212
 31
0.0
  0
LINE
  5
21959
330
20AD0
100
AcDbEntity
  8
寸法
 62
     0
 48
50.0
370
    -2
100
AcDbLine
 10
7992.938460046301
 20
5866.907777930212
 30
0.0
 11
7992.938460046301
 21
5671.907777930226
 31
0.0
  0
LINE
  5
2195A
330
20AD0
100
AcDbEntity
  8
寸法
 62
     0
 48
50.0
370
    -2
100
AcDbLine
 10
7992.938460046301
 20
5671.907777930226
 30
0.0
 11
7992.938460046301
 21
5294.517895522435
 31
0.0
  0
INSERT
  5
2195B
330
20AD0
100
AcDbEntity
  8
寸法
 62
     0
 48
50.0
370
    -2
100
AcDbBlockReference
  2
_DOTSMALL
 10
7992.938460046301
 20
5866.907777930212
 30
0.0
 41
100.0
 42
100.0
 43
100.0
 50
90.0
  0
INSERT
  5
2195C
330
20AD0
100
AcDbEntity
  8
寸法
 62
     0
 48
50.0
370
    -2
100
AcDbBlockReference
  2
_DOTSMALL
 10
7992.938460046301
 20
5671.907777930226
 30
0.0
 41
100.0
 42
100.0
 43
100.0
 50
270.0
  0
MTEXT
  5
2195D
330
20AD0
100
AcDbEntity
  8
寸法
 62
     7
 48
50.0
100
AcDbMText
 10
7892.938460046299
 20
5433.212836726331
 30
0.0
 40
120.0
 41
0.0
 71
     5
 72
     1
  1
\A1;195
  7
STYLE1
 11
0.0000000000000001
 21
1.0
 31
0.0
 73
     1
 44
1.0
1001
ACAD
1000
MTEXTBEGIN
1070
    73
1070
     1
1070
    44
1040
1.0
1070
    74
1070
     0
1000
MTEXTEND
  0
POINT
  5
2195E
330
20AD0
100
AcDbEntity
  8
DEFPOINTS
 62
     0
 48
50.0
100
AcDbPoint
 10
7763.600000000036
 20
5671.907777930226
 30
0.0
  0
POINT
  5
2195F
330
20AD0
100
AcDbEntity
  8
DEFPOINTS
 62
     0
 48
50.0
100
AcDbPoint
 10
7763.600000000001
 20
5866.907777930212
 30
0.0
  0
POINT
  5
21960
330
20AD0
100
AcDbEntity
  8
DEFPOINTS
 62
     0
 48
50.0
100
AcDbPoint
 10
7992.938460046301
 20
5866.907777930212
 30
0.0
  0
ENDBLK
  5
20ADC
330
20AD0
100
AcDbEntity
  8
0
 48
50.0
100
AcDbBlockEnd
  0
BLOCK
  5
21250
330
21244
100
AcDbEntity
  8
0
 48
50.0
100
AcDbBlockBegin
  2
*D38
 70
     1
 10
0.0
 20
0.0
 30
0.0
  3
*D38
  1

  0
LINE
  5
214A4
330
21244
100
AcDbEntity
  8
寸法
 62
     0
 48
50.0
370
    -2
100
AcDbLine
 10
6717.657733986179
 20
5701.295673787306
 30
0.0
 11
6432.164931848213
 21
5701.295673787306
 31
0.0
  0
LINE
  5
214A5
330
21244
100
AcDbEntity
  8
寸法
 62
     0
 48
50.0
370
    -2
100
AcDbLine
 10
7513.600000000001
 20
5746.907777930208
 30
0.0
 11
6432.164931848213
 21
5746.907777930208
 31
0.0
  0
LINE
  5
214A6
330
21244
100
AcDbEntity
  8
寸法
 62
     0
 48
50.0
370
    -2
100
AcDbLine
 10
6492.164931848212
 20
5746.907777930208
 30
0.0
 11
6492.164931848212
 21
5846.907777930208
 31
0.0
  0
LINE
  5
214A7
330
21244
100
AcDbEntity
  8
寸法
 62
     0
 48
50.0
370
    -2
100
AcDbLine
 10
6492.164931848212
 20
5701.295673787306
 30
0.0
 11
6492.164931848212
 21
5368.946431382387
 31
0.0
  0
LINE
  5
214A8
330
21244
100
AcDbEntity
  8
寸法
 62
     0
 48
50.0
370
    -2
100
AcDbLine
 10
6492.164931848212
 20
5746.907777930208
 30
0.0
 11
6492.164931848212
 21
5701.295673787306
 31
0.0
  0
INSERT
  5
214A9
330
21244
100
AcDbEntity
  8
寸法
 62
     0
 48
50.0
370
    -2
100
AcDbBlockReference
  2
_DOTSMALL
 10
6492.164931848212
 20
5746.907777930208
 30
0.0
 41
100.0
 42
100.0
 43
100.0
 50
270.0
  0
INSERT
  5
214AA
330
21244
100
AcDbEntity
  8
寸法
 62
     0
 48
50.0
370
    -2
100
AcDbBlockReference
  2
_DOTSMALL
 10
6492.164931848212
 20
5701.295673787306
 30
0.0
 41
100.0
 42
100.0
 43
100.0
 50
90.0
  0
MTEXT
  5
214AB
330
21244
100
AcDbEntity
  8
寸法
 62
     7
 48
50.0
100
AcDbMText
 10
6392.164931848212
 20
5435.121052584847
 30
0.0
 40
120.0
 41
0.0
 71
     5
 72
     1
  1
\A1;a
  7
STYLE1
 11
0.0000000000000001
 21
1.0
 31
0.0
 73
     1
 44
1.0
1001
ACAD
1000
MTEXTBEGIN
1070
    73
1070
     1
1070
    44
1040
1.0
1070
    74
1070
     0
1000
MTEXTEND
  0
POINT
  5
214AC
330
21244
100
AcDbEntity
  8
DEFPOINTS
 62
     0
 48
50.0
100
AcDbPoint
 10
6737.657733986178
 20
5701.295673787306
 30
0.0
  0
POINT
  5
214AD
330
21244
100
AcDbEntity
  8
DEFPOINTS
 62
     0
 48
50.0
100
AcDbPoint
 10
7533.599999999999
 20
5746.907777930208
 30
0.0
  0
POINT
  5
214AE
330
21244
100
AcDbEntity
  8
DEFPOINTS
 62
     0
 48
50.0
100
AcDbPoint
 10
6492.164931848212
 20
5746.907777930208
 30
0.0
  0
ENDBLK
  5
21251
330
21244
100
AcDbEntity
  8
0
 48
50.0
100
AcDbBlockEnd
  0
BLOCK
  5
2126A
330
2125E
100
AcDbEntity
  8
0
 48
50.0
100
AcDbBlockBegin
  2
*D39
 70
     1
 10
0.0
 20
0.0
 30
0.0
  3
*D39
  1

  0
LINE
  5
2146D
330
2125E
100
AcDbEntity
  8
寸法
 62
     0
 48
50.0
370
    -2
100
AcDbLine
 10
7533.599999999999
 20
7986.907777930207
 30
0.0
 11
7533.599999999999
 21
9044.429083836973
 31
0.0
  0
LINE
  5
2146E
330
2125E
100
AcDbEntity
  8
寸法
 62
     0
 48
50.0
370
    -2
100
AcDbLine
 10
7478.600000000013
 20
8791.968388320139
 30
0.0
 11
7478.600000000013
 21
9044.429083836973
 31
0.0
  0
LINE
  5
2146F
330
2125E
100
AcDbEntity
  8
寸法
 62
     0
 48
50.0
370
    -2
100
AcDbLine
 10
7533.599999999999
 20
8984.429083836975
 30
0.0
 11
7633.6
 21
8984.429083836975
 31
0.0
  0
LINE
  5
21470
330
2125E
100
AcDbEntity
  8
寸法
 62
     0
 48
50.0
370
    -2
100
AcDbLine
 10
7478.600000000013
 20
8984.429083836975
 30
0.0
 11
7378.600000000012
 21
8984.429083836975
 31
0.0
  0
LINE
  5
21471
330
2125E
100
AcDbEntity
  8
寸法
 62
     0
 48
50.0
370
    -2
100
AcDbLine
 10
7533.599999999999
 20
8984.429083836975
 30
0.0
 11
7478.600000000013
 21
8984.429083836975
 31
0.0
  0
INSERT
  5
21472
330
2125E
100
AcDbEntity
  8
寸法
 62
     0
 48
50.0
370
    -2
100
AcDbBlockReference
  2
_DOTSMALL
 10
7533.599999999999
 20
8984.429083836975
 30
0.0
 41
100.0
 42
100.0
 43
100.0
 50
180.0
  0
INSERT
  5
21473
330
2125E
100
AcDbEntity
  8
寸法
 62
     0
 48
50.0
370
    -2
100
AcDbBlockReference
  2
_DOTSMALL
 10
7478.600000000013
 20
8984.429083836975
 30
0.0
 41
100.0
 42
100.0
 43
100.0
  0
MTEXT
  5
21474
330
2125E
100
AcDbEntity
  8
寸法
 62
     7
 48
50.0
100
AcDbMText
 10
7506.100000000007
 20
9084.429083836974
 30
0.0
 40
120.0
 41
0.0
 71
     5
 72
     1
  1
\A1;b
  7
STYLE1
 73
     1
 44
1.0
1001
ACAD
1000
MTEXTBEGIN
1070
    73
1070
     1
1070
    44
1040
1.0
1070
    74
1070
     0
1000
MTEXTEND
  0
POINT
  5
21475
330
2125E
100
AcDbEntity
  8
DEFPOINTS
 62
     0
 48
50.0
100
AcDbPoint
 10
7533.599999999999
 20
7966.907777930209
 30
0.0
  0
POINT
  5
21476
330
2125E
100
AcDbEntity
  8
DEFPOINTS
 62
     0
 48
50.0
100
AcDbPoint
 10
7478.600000000013
 20
8771.968388320138
 30
0.0
  0
POINT
  5
21477
330
2125E
100
AcDbEntity
  8
DEFPOINTS
 62
     0
 48
50.0
100
AcDbPoint
 10
7478.600000000013
 20
8984.429083836975
 30
0.0
  0
ENDBLK
  5
2126B
330
2125E
100
AcDbEntity
  8
0
 48
50.0
100
AcDbBlockEnd
  0
BLOCK
  5
21278
330
2126C
100
AcDbEntity
  8
0
 48
50.0
100
AcDbBlockBegin
  2
*D40
 70
     1
 10
0.0
 20
0.0
 30
0.0
  3
*D40
  1

  0
LINE
  5
21462
330
2126C
100
AcDbEntity
  8
寸法
 62
     0
 48
50.0
370
    -2
100
AcDbLine
 10
8988.600000000003
 20
8791.968388320139
 30
0.0
 11
8988.600000000003
 21
9044.429083836973
 31
0.0
  0
LINE
  5
21463
330
2126C
100
AcDbEntity
  8
寸法
 62
     0
 48
50.0
370
    -2
100
AcDbLine
 10
8913.6
 20
7986.907777930207
 30
0.0
 11
8913.6
 21
9044.429083836973
 31
0.0
  0
LINE
  5
21464
330
2126C
100
AcDbEntity
  8
寸法
 62
     0
 48
50.0
370
    -2
100
AcDbLine
 10
8988.600000000003
 20
8984.429083836975
 30
0.0
 11
9088.600000000003
 21
8984.429083836975
 31
0.0
  0
LINE
  5
21465
330
2126C
100
AcDbEntity
  8
寸法
 62
     0
 48
50.0
370
    -2
100
AcDbLine
 10
8913.6
 20
8984.429083836975
 30
0.0
 11
8813.6
 21
8984.429083836975
 31
0.0
  0
LINE
  5
21466
330
2126C
100
AcDbEntity
  8
寸法
 62
     0
 48
50.0
370
    -2
100
AcDbLine
 10
8988.600000000003
 20
8984.429083836975
 30
0.0
 11
8913.6
 21
8984.429083836975
 31
0.0
  0
INSERT
  5
21467
330
2126C
100
AcDbEntity
  8
寸法
 62
     0
 48
50.0
370
    -2
100
AcDbBlockReference
  2
_DOTSMALL
 10
8988.600000000003
 20
8984.429083836975
 30
0.0
 41
100.0
 42
100.0
 43
100.0
 50
180.0
  0
INSERT
  5
21468
330
2126C
100
AcDbEntity
  8
寸法
 62
     0
 48
50.0
370
    -2
100
AcDbBlockReference
  2
_DOTSMALL
 10
8913.6
 20
8984.429083836975
 30
0.0
 41
100.0
 42
100.0
 43
100.0
  0
MTEXT
  5
21469
330
2126C
100
AcDbEntity
  8
寸法
 62
     7
 48
50.0
100
AcDbMText
 10
8951.100000000002
 20
9084.429083836974
 30
0.0
 40
120.0
 41
0.0
 71
     5
 72
     1
  1
\A1;c
  7
STYLE1
 73
     1
 44
1.0
1001
ACAD
1000
MTEXTBEGIN
1070
    73
1070
     1
1070
    44
1040
1.0
1070
    74
1070
     0
1000
MTEXTEND
  0
POINT
  5
2146A
330
2126C
100
AcDbEntity
  8
DEFPOINTS
 62
     0
 48
50.0
100
AcDbPoint
 10
8988.600000000003
 20
8771.968388320138
 30
0.0
  0
POINT
  5
2146B
330
2126C
100
AcDbEntity
  8
DEFPOINTS
 62
     0
 48
50.0
100
AcDbPoint
 10
8913.6
 20
7966.907777930209
 30
0.0
  0
POINT
  5
2146C
330
2126C
100
AcDbEntity
  8
DEFPOINTS
 62
     0
 48
50.0
100
AcDbPoint
 10
8913.6
 20
8984.429083836975
 30
0.0
  0
ENDBLK
  5
21279
330
2126C
100
AcDbEntity
  8
0
 48
50.0
100
AcDbBlockEnd
  0
BLOCK
  5
21286
330
2127A
100
AcDbEntity
  8
0
 48
50.0
100
AcDbBlockBegin
  2
*D41
 70
     1
 10
0.0
 20
0.0
 30
0.0
  3
*D41
  1

  0
LINE
  5
214AF
330
2127A
100
AcDbEntity
  8
寸法
 62
     0
 48
50.0
370
    -2
100
AcDbLine
 10
7513.600000000001
 20
7966.907777930209
 30
0.0
 11
6432.164931848214
 21
7966.907777930209
 31
0.0
  0
LINE
  5
214B0
330
2127A
100
AcDbEntity
  8
寸法
 62
     0
 48
50.0
370
    -2
100
AcDbLine
 10
6717.657733986179
 20
8012.51988207311
 30
0.0
 11
6432.164931848214
 21
8012.51988207311
 31
0.0
  0
LINE
  5
214B1
330
2127A
100
AcDbEntity
  8
寸法
 62
     0
 48
50.0
370
    -2
100
AcDbLine
 10
6492.164931848214
 20
7966.907777930209
 30
0.0
 11
6492.164931848214
 21
7866.907777930208
 31
0.0
  0
LINE
  5
214B2
330
2127A
100
AcDbEntity
  8
寸法
 62
     0
 48
50.0
370
    -2
100
AcDbLine
 10
6492.164931848214
 20
8012.51988207311
 30
0.0
 11
6492.164931848214
 21
8349.869124478026
 31
0.0
  0
LINE
  5
214B3
330
2127A
100
AcDbEntity
  8
寸法
 62
     0
 48
50.0
370
    -2
100
AcDbLine
 10
6492.164931848214
 20
7966.907777930209
 30
0.0
 11
6492.164931848214
 21
8012.51988207311
 31
0.0
  0
INSERT
  5
214B4
330
2127A
100
AcDbEntity
  8
寸法
 62
     0
 48
50.0
370
    -2
100
AcDbBlockReference
  2
_DOTSMALL
 10
6492.164931848214
 20
7966.907777930209
 30
0.0
 41
100.0
 42
100.0
 43
100.0
 50
90.0
  0
INSERT
  5
214B5
330
2127A
100
AcDbEntity
  8
寸法
 62
     0
 48
50.0
370
    -2
100
AcDbBlockReference
  2
_DOTSMALL
 10
6492.164931848214
 20
8012.51988207311
 30
0.0
 41
100.0
 42
100.0
 43
100.0
 50
270.0
  0
MTEXT
  5
214B6
330
2127A
100
AcDbEntity
  8
寸法
 62
     7
 48
50.0
100
AcDbMText
 10
6392.164931848213
 20
8283.694503275567
 30
0.0
 40
120.0
 41
0.0
 71
     5
 72
     1
  1
\A1;a
  7
STYLE1
 11
0.0000000000000001
 21
1.0
 31
0.0
 73
     1
 44
1.0
1001
ACAD
1000
MTEXTBEGIN
1070
    73
1070
     1
1070
    44
1040
1.0
1070
    74
1070
     0
1000
MTEXTEND
  0
POINT
  5
214B7
330
2127A
100
AcDbEntity
  8
DEFPOINTS
 62
     0
 48
50.0
100
AcDbPoint
 10
7533.599999999999
 20
7966.907777930209
 30
0.0
  0
POINT
  5
214B8
330
2127A
100
AcDbEntity
  8
DEFPOINTS
 62
     0
 48
50.0
100
AcDbPoint
 10
6737.657733986178
 20
8012.51988207311
 30
0.0
  0
POINT
  5
214B9
330
2127A
100
AcDbEntity
  8
DEFPOINTS
 62
     0
 48
50.0
100
AcDbPoint
 10
6492.164931848214
 20
8012.51988207311
 30
0.0
  0
ENDBLK
  5
21287
330
2127A
100
AcDbEntity
  8
0
 48
50.0
100
AcDbBlockEnd
  0
BLOCK
  5
217AD
330
217A3
100
AcDbEntity
  8
0
 48
50.0
100
AcDbBlockBegin
  2
*D42
 70
     1
 10
0.0
 20
0.0
 30
0.0
  3
*D42
  1

  0
LINE
  5
21941
330
217A3
100
AcDbEntity
  8
寸法
 62
     0
 48
50.0
370
    -2
100
AcDbLine
 10
5896.174534306108
 20
1148.279021474087
 30
0.0
 11
5896.174534306108
 21
697.849383468927
 31
0.0
  0
LINE
  5
21942
330
217A3
100
AcDbEntity
  8
寸法
 62
     0
 48
50.0
370
    -2
100
AcDbLine
 10
6344.174534306109
 20
1148.279021474087
 30
0.0
 11
6344.174534306109
 21
697.849383468927
 31
0.0
  0
LINE
  5
21943
330
217A3
100
AcDbEntity
  8
寸法
 62
     0
 48
50.0
370
    -2
100
AcDbLine
 10
5896.174534306108
 20
757.849383468927
 30
0.0
 11
6344.174534306109
 21
757.849383468927
 31
0.0
  0
MTEXT
  5
21944
330
217A3
100
AcDbEntity
  8
寸法
 62
     7
 48
50.0
100
AcDbMText
 10
6100.077775627885
 20
857.849383468927
 30
0.0
 40
120.0
 41
0.0
 71
     5
 72
     1
  1
\A1;300
  7
STYLE1
 73
     1
 44
1.0
1001
ACAD
1000
MTEXTBEGIN
1070
    73
1070
     1
1070
    44
1040
1.0
1070
    74
1070
     0
1000
MTEXTEND
  0
INSERT
  5
21945
330
217A3
100
AcDbEntity
  8
寸法
 62
     0
 48
50.0
370
    -2
100
AcDbBlockReference
  2
_DOTSMALL
 10
5896.174534306108
 20
757.849383468927
 30
0.0
 41
100.0
 42
100.0
 43
100.0
 50
180.0
  0
INSERT
  5
21946
330
217A3
100
AcDbEntity
  8
寸法
 62
     0
 48
50.0
370
    -2
100
AcDbBlockReference
  2
_DOTSMALL
 10
6344.174534306109
 20
757.849383468927
 30
0.0
 41
100.0
 42
100.0
 43
100.0
  0
POINT
  5
21947
330
217A3
100
AcDbEntity
  8
DEFPOINTS
 62
     0
 48
50.0
100
AcDbPoint
 10
5896.174534306108
 20
1168.279021474087
 30
0.0
  0
POINT
  5
21948
330
217A3
100
AcDbEntity
  8
DEFPOINTS
 62
     0
 48
50.0
100
AcDbPoint
 10
6344.174534306109
 20
1168.279021474087
 30
0.0
  0
POINT
  5
21949
330
217A3
100
AcDbEntity
  8
DEFPOINTS
 62
     0
 48
50.0
100
AcDbPoint
 10
6344.174534306109
 20
757.849383468927
 30
0.0
  0
ENDBLK
  5
217AE
330
217A3
100
AcDbEntity
  8
0
 48
50.0
100
AcDbBlockEnd
  0
BLOCK
  5
217B9
330
217AF
100
AcDbEntity
  8
0
 48
50.0
100
AcDbBlockBegin
  2
*D43
 70
     1
 10
0.0
 20
0.0
 30
0.0
  3
*D43
  1

  0
LINE
  5
21938
330
217AF
100
AcDbEntity
  8
寸法
 62
     0
 48
50.0
370
    -2
100
AcDbLine
 10
6004.174534306109
 20
2080.279021474087
 30
0.0
 11
5229.137295744369
 21
2080.279021474087
 31
0.0
  0
LINE
  5
21939
330
217AF
100
AcDbEntity
  8
寸法
 62
     0
 48
50.0
370
    -2
100
AcDbLine
 10
5796.174534306112
 20
1296.279021474087
 30
0.0
 11
5229.137295744368
 21
1296.279021474087
 31
0.0
  0
LINE
  5
2193A
330
217AF
100
AcDbEntity
  8
寸法
 62
     0
 48
50.0
370
    -2
100
AcDbLine
 10
5289.137295744368
 20
2080.279021474087
 30
0.0
 11
5289.137295744367
 21
1296.279021474087
 31
0.0
  0
MTEXT
  5
2193B
330
217AF
100
AcDbEntity
  8
寸法
 62
     7
 48
50.0
100
AcDbMText
 10
5189.137295744369
 20
1667.819171130088
 30
0.0
 40
120.0
 41
0.0
 71
     5
 72
     1
  1
\A1;540
  7
STYLE1
 11
0.0000000000000001
 21
1.0
 31
0.0
 73
     1
 44
1.0
1001
ACAD
1000
MTEXTBEGIN
1070
    73
1070
     1
1070
    44
1040
1.0
1070
    74
1070
     0
1000
MTEXTEND
  0
INSERT
  5
2193C
330
217AF
100
AcDbEntity
  8
寸法
 62
     0
 48
50.0
370
    -2
100
AcDbBlockReference
  2
_DOTSMALL
 10
5289.137295744368
 20
2080.279021474087
 30
0.0
 41
100.0
 42
100.0
 43
100.0
 50
90.0
  0
INSERT
  5
2193D
330
217AF
100
AcDbEntity
  8
寸法
 62
     0
 48
50.0
370
    -2
100
AcDbBlockReference
  2
_DOTSMALL
 10
5289.137295744367
 20
1296.279021474087
 30
0.0
 41
100.0
 42
100.0
 43
100.0
 50
270.0
  0
POINT
  5
2193E
330
217AF
100
AcDbEntity
  8
DEFPOINTS
 62
     0
 48
50.0
100
AcDbPoint
 10
6024.174534306109
 20
2080.279021474087
 30
0.0
  0
POINT
  5
2193F
330
217AF
100
AcDbEntity
  8
DEFPOINTS
 62
     0
 48
50.0
100
AcDbPoint
 10
5816.174534306112
 20
1296.279021474087
 30
0.0
  0
POINT
  5
21940
330
217AF
100
AcDbEntity
  8
DEFPOINTS
 62
     0
 48
50.0
100
AcDbPoint
 10
5289.137295744367
 20
1296.279021474087
 30
0.0
  0
ENDBLK
  5
217BA
330
217AF
100
AcDbEntity
  8
0
 48
50.0
100
AcDbBlockEnd
  0
BLOCK
  5
217C5
330
217BB
100
AcDbEntity
  8
0
 48
50.0
100
AcDbBlockBegin
  2
*D44
 70
     1
 10
0.0
 20
0.0
 30
0.0
  3
*D44
  1

  0
LINE
  5
2192F
330
217BB
100
AcDbEntity
  8
寸法
 62
     0
 48
50.0
370
    -2
100
AcDbLine
 10
5876.174534306109
 20
1536.279021474087
 30
0.0
 11
5693.754220573649
 21
1536.279021474087
 31
0.0
  0
LINE
  5
21930
330
217BB
100
AcDbEntity
  8
寸法
 62
     0
 48
50.0
370
    -2
100
AcDbLine
 10
5796.174534306112
 20
1296.279021474087
 30
0.0
 11
5693.754220573649
 21
1296.279021474087
 31
0.0
  0
LINE
  5
21931
330
217BB
100
AcDbEntity
  8
寸法
 62
     0
 48
50.0
370
    -2
100
AcDbLine
 10
5753.754220573649
 20
1536.279021474087
 30
0.0
 11
5753.754220573649
 21
1296.279021474087
 31
0.0
  0
MTEXT
  5
21932
330
217BB
100
AcDbEntity
  8
寸法
 62
     7
 48
50.0
100
AcDbMText
 10
5653.754220573649
 20
1416.279021474087
 30
0.0
 40
120.0
 41
0.0
 71
     5
 72
     1
  1
\A1;150
  7
STYLE1
 11
0.0000000000000001
 21
1.0
 31
0.0
 73
     1
 44
1.0
1001
ACAD
1000
MTEXTBEGIN
1070
    73
1070
     1
1070
    44
1040
1.0
1070
    74
1070
     0
1000
MTEXTEND
  0
INSERT
  5
21933
330
217BB
100
AcDbEntity
  8
寸法
 62
     0
 48
50.0
370
    -2
100
AcDbBlockReference
  2
_DOTSMALL
 10
5753.754220573649
 20
1536.279021474087
 30
0.0
 41
100.0
 42
100.0
 43
100.0
 50
90.0
  0
INSERT
  5
21934
330
217BB
100
AcDbEntity
  8
寸法
 62
     0
 48
50.0
370
    -2
100
AcDbBlockReference
  2
_DOTSMALL
 10
5753.754220573649
 20
1296.279021474087
 30
0.0
 41
100.0
 42
100.0
 43
100.0
 50
270.0
  0
POINT
  5
21935
330
217BB
100
AcDbEntity
  8
DEFPOINTS
 62
     0
 48
50.0
100
AcDbPoint
 10
5896.174534306108
 20
1536.279021474087
 30
0.0
  0
POINT
  5
21936
330
217BB
100
AcDbEntity
  8
DEFPOINTS
 62
     0
 48
50.0
100
AcDbPoint
 10
5816.174534306112
 20
1296.279021474087
 30
0.0
  0
POINT
  5
21937
330
217BB
100
AcDbEntity
  8
DEFPOINTS
 62
     0
 48
50.0
100
AcDbPoint
 10
5753.754220573649
 20
1296.279021474087
 30
0.0
  0
ENDBLK
  5
217C6
330
217BB
100
AcDbEntity
  8
0
 48
50.0
100
AcDbBlockEnd
  0
BLOCK
  5
217D6
330
217C7
100
AcDbEntity
  8
0
 48
50.0
100
AcDbBlockBegin
  2
*D45
 70
     1
 10
0.0
 20
0.0
 30
0.0
  3
*D45
  1

  0
LINE
  5
21921
330
217C7
100
AcDbEntity
  8
寸法
 62
     0
 48
50.0
370
    -2
100
AcDbLine
 10
7971.013847483304
 20
2133.039021474088
 30
0.0
 11
8700.082447252146
 21
2133.039021474088
 31
0.0
  0
LINE
  5
21922
330
217C7
100
AcDbEntity
  8
寸法
 62
     0
 48
50.0
370
    -2
100
AcDbLine
 10
8158.213847483303
 20
2080.279021474087
 30
0.0
 11
8700.082447252146
 21
2080.279021474087
 31
0.0
  0
LINE
  5
21923
330
217C7
100
AcDbEntity
  8
寸法
 62
     0
 48
50.0
370
    -2
100
AcDbLine
 10
8640.082447252146
 20
2133.039021474088
 30
0.0
 11
8640.082447252146
 21
2233.039021474088
 31
0.0
  0
LINE
  5
21924
330
217C7
100
AcDbEntity
  8
寸法
 62
     0
 48
50.0
370
    -2
100
AcDbLine
 10
8640.082447252146
 20
2080.279021474087
 30
0.0
 11
8640.082447252146
 21
1980.279021474087
 31
0.0
  0
LINE
  5
21925
330
217C7
100
AcDbEntity
  8
寸法
 62
     0
 48
50.0
370
    -2
100
AcDbLine
 10
8640.082447252146
 20
2106.659021474088
 30
0.0
 11
8916.137113371172
 21
2095.155063869874
 31
0.0
  0
LINE
  5
21926
330
217C7
100
AcDbEntity
  8
寸法
 62
     0
 48
50.0
370
    -2
100
AcDbLine
 10
8916.137113371172
 20
2095.155063869874
 30
0.0
 11
8916.137113371172
 21
1563.137257026908
 31
0.0
  0
MTEXT
  5
21927
330
217C7
100
AcDbEntity
  8
寸法
 62
     7
 48
50.0
100
AcDbMText
 10
8816.12530234755
 20
1829.146160448393
 30
0.0
 40
120.0
 41
0.0
 71
     5
 72
     1
  1
\A1;20～25
  7
STYLE1
 11
0.0000000000000001
 21
1.0
 31
0.0
 73
     1
 44
1.0
1001
ACAD
1000
MTEXTBEGIN
1070
    73
1070
     1
1070
    44
1040
1.0
1070
    74
1070
     0
1000
MTEXTEND
  0
LINE
  5
21928
330
217C7
100
AcDbEntity
  8
寸法
 62
     0
 48
50.0
370
    -2
100
AcDbLine
 10
8640.082447252146
 20
2133.039021474088
 30
0.0
 11
8640.082447252146
 21
2080.279021474087
 31
0.0
  0
LINE
  5
21929
330
217C7
100
AcDbEntity
  8
寸法
 62
     0
 48
50.0
370
    -2
100
AcDbLine
 10
8640.082447252146
 20
2133.039021474088
 30
0.0
 11
8640.082447252146
 21
2080.279021474087
 31
0.0
  0
INSERT
  5
2192A
330
217C7
100
AcDbEntity
  8
寸法
 62
     0
 48
50.0
370
    -2
100
AcDbBlockReference
  2
_DOTSMALL
 10
8640.082447252146
 20
2133.039021474088
 30
0.0
 41
100.0
 42
100.0
 43
100.0
 50
270.0
  0
INSERT
  5
2192B
330
217C7
100
AcDbEntity
  8
寸法
 62
     0
 48
50.0
370
    -2
100
AcDbBlockReference
  2
_DOTSMALL
 10
8640.082447252146
 20
2080.279021474087
 30
0.0
 41
100.0
 42
100.0
 43
100.0
 50
90.0
  0
POINT
  5
2192C
330
217C7
100
AcDbEntity
  8
DEFPOINTS
 62
     0
 48
50.0
100
AcDbPoint
 10
7951.013847483304
 20
2133.039021474088
 30
0.0
  0
POINT
  5
2192D
330
217C7
100
AcDbEntity
  8
DEFPOINTS
 62
     0
 48
50.0
100
AcDbPoint
 10
8138.213847483303
 20
2080.279021474087
 30
0.0
  0
POINT
  5
2192E
330
217C7
100
AcDbEntity
  8
DEFPOINTS
 62
     0
 48
50.0
100
AcDbPoint
 10
8640.082447252146
 20
2080.279021474087
 30
0.0
  0
ENDBLK
  5
217D7
330
217C7
100
AcDbEntity
  8
0
 48
50.0
100
AcDbBlockEnd
  0
BLOCK
  5
217E2
330
217D8
100
AcDbEntity
  8
0
 48
50.0
100
AcDbBlockBegin
  2
*D46
 70
     1
 10
0.0
 20
0.0
 30
0.0
  3
*D46
  1

  0
LINE
  5
21918
330
217D8
100
AcDbEntity
  8
寸法
 62
     0
 48
50.0
370
    -2
100
AcDbLine
 10
8158.213847483303
 20
2080.279021474087
 30
0.0
 11
8700.082447252146
 21
2080.279021474087
 31
0.0
  0
LINE
  5
21919
330
217D8
100
AcDbEntity
  8
寸法
 62
     0
 48
50.0
370
    -2
100
AcDbLine
 10
8158.213847483303
 20
1756.279021474086
 30
0.0
 11
8700.082447252146
 21
1756.279021474086
 31
0.0
  0
LINE
  5
2191A
330
217D8
100
AcDbEntity
  8
寸法
 62
     0
 48
50.0
370
    -2
100
AcDbLine
 10
8640.082447252146
 20
2080.279021474087
 30
0.0
 11
8640.082447252146
 21
1756.279021474086
 31
0.0
  0
INSERT
  5
2191B
330
217D8
100
AcDbEntity
  8
寸法
 62
     0
 48
50.0
370
    -2
100
AcDbBlockReference
  2
_DOTSMALL
 10
8640.082447252146
 20
2080.279021474087
 30
0.0
 41
100.0
 42
100.0
 43
100.0
 50
90.0
  0
INSERT
  5
2191C
330
217D8
100
AcDbEntity
  8
寸法
 62
     0
 48
50.0
370
    -2
100
AcDbBlockReference
  2
_DOTSMALL
 10
8640.082447252146
 20
1756.279021474086
 30
0.0
 41
100.0
 42
100.0
 43
100.0
 50
270.0
  0
MTEXT
  5
2191D
330
217D8
100
AcDbEntity
  8
寸法
 62
     7
 48
50.0
100
AcDbMText
 10
8540.082447252144
 20
1918.279021474088
 30
0.0
 40
120.0
 41
0.0
 71
     5
 72
     1
  1
\A1;180
  7
STYLE1
 11
0.0000000000000001
 21
1.0
 31
0.0
 73
     1
 44
1.0
1001
ACAD
1000
MTEXTBEGIN
1070
    73
1070
     1
1070
    44
1040
1.0
1070
    74
1070
     0
1000
MTEXTEND
  0
POINT
  5
2191E
330
217D8
100
AcDbEntity
  8
DEFPOINTS
 62
     0
 48
50.0
100
AcDbPoint
 10
8138.213847483303
 20
2080.279021474087
 30
0.0
  0
POINT
  5
2191F
330
217D8
100
AcDbEntity
  8
DEFPOINTS
 62
     0
 48
50.0
100
AcDbPoint
 10
8138.213847483303
 20
1756.279021474086
 30
0.0
  0
POINT
  5
21920
330
217D8
100
AcDbEntity
  8
DEFPOINTS
 62
     0
 48
50.0
100
AcDbPoint
 10
8640.082447252146
 20
1756.279021474086
 30
0.0
  0
ENDBLK
  5
217E3
330
217D8
100
AcDbEntity
  8
0
 48
50.0
100
AcDbBlockEnd
  0
BLOCK
  5
217EE
330
217E4
100
AcDbEntity
  8
0
 48
50.0
100
AcDbBlockBegin
  2
*D47
 70
     1
 10
0.0
 20
0.0
 30
0.0
  3
*D47
  1

  0
LINE
  5
21A02
330
217E4
100
AcDbEntity
  8
寸法
 62
     0
 48
50.0
370
    -2
100
AcDbLine
 10
6216.174534306109
 20
2100.279021474087
 30
0.0
 11
6216.174534306109
 21
2460.279021474087
 31
0.0
  0
LINE
  5
21A03
330
217E4
100
AcDbEntity
  8
寸法
 62
     0
 48
50.0
370
    -2
100
AcDbLine
 10
6024.174534306109
 20
2100.279021474087
 30
0.0
 11
6024.174534306109
 21
2460.279021474087
 31
0.0
  0
LINE
  5
21A04
330
217E4
100
AcDbEntity
  8
寸法
 62
     0
 48
50.0
370
    -2
100
AcDbLine
 10
6216.174534306109
 20
2400.279021474088
 30
0.0
 11
6024.174534306109
 21
2400.279021474088
 31
0.0
  0
MTEXT
  5
21A05
330
217E4
100
AcDbEntity
  8
寸法
 62
     7
 48
50.0
100
AcDbMText
 10
6131.400864651306
 20
2699.95864041409
 30
0.0
 40
120.0
 41
0.0
 71
     5
 72
     1
  1
\A1;120\P195
  7
STYLE1
 73
     1
 44
1.0
1001
ACAD
1000
MTEXTBEGIN
1070
    73
1070
     1
1070
    44
1040
1.0
1070
    74
1070
     0
1000
MTEXTEND
  0
INSERT
  5
21A06
330
217E4
100
AcDbEntity
  8
寸法
 62
     0
 48
50.0
370
    -2
100
AcDbBlockReference
  2
_DOTSMALL
 10
6216.174534306109
 20
2400.279021474088
 30
0.0
 41
100.0
 42
100.0
 43
100.0
  0
INSERT
  5
21A07
330
217E4
100
AcDbEntity
  8
寸法
 62
     0
 48
50.0
370
    -2
100
AcDbBlockReference
  2
_DOTSMALL
 10
6024.174534306109
 20
2400.279021474088
 30
0.0
 41
100.0
 42
100.0
 43
100.0
 50
180.0
  0
POINT
  5
21A08
330
217E4
100
AcDbEntity
  8
DEFPOINTS
 62
     0
 48
50.0
100
AcDbPoint
 10
6216.174534306109
 20
2080.279021474087
 30
0.0
  0
POINT
  5
21A09
330
217E4
100
AcDbEntity
  8
DEFPOINTS
 62
     0
 48
50.0
100
AcDbPoint
 10
6024.174534306109
 20
2080.279021474087
 30
0.0
  0
POINT
  5
21A0A
330
217E4
100
AcDbEntity
  8
DEFPOINTS
 62
     0
 48
50.0
100
AcDbPoint
 10
6024.174534306109
 20
2400.279021474088
 30
0.0
  0
ENDBLK
  5
217EF
330
217E4
100
AcDbEntity
  8
0
 48
50.0
100
AcDbBlockEnd
  0
ENDSEC
  0
SECTION
  2
ENTITIES
  0
MTEXT
  5
763F
330
747D
100
AcDbEntity
  8
0
100
AcDbMText
 10
302.846345836809
 20
280.1983726409901
 30
0.0
 40
3.5
 41
5.323721266742722
 71
     1
 72
     5
  1

  7
MSMINCHO
 73
     1
 44
1.0
1001
ACAD
1000
MTEXTBEGIN
1070
    73
1070
     1
1070
    44
1040
1.0
1070
    74
1070
     0
1000
MTEXTEND
  0
LINE
  5
10B57
330
747D
100
AcDbEntity
  8
補助
  6
PHANTOM
 62
   230
 48
50.0
100
AcDbLine
 10
139.9999999999995
 20
11409.6
 30
0.0
 11
16307.2
 21
11409.6
 31
0.0
  0
LINE
  5
10B59
330
747D
100
AcDbEntity
  8
仕様書枠
  6
Continuous
 48
50.0
100
AcDbLine
 10
13107.2
 20
1200.0
 30
0.0
 11
13107.2
 21
-0.0000000000000729
 31
0.0
  0
LINE
  5
10B5D
330
747D
100
AcDbEntity
  8
仕様書枠
 48
50.0
100
AcDbLine
 10
140.0
 20
0.0
 30
0.0
 11
16307.2
 21
-0.0000000000000909
 31
0.0
  0
LINE
  5
10B5E
330
747D
100
AcDbEntity
  8
補助
  6
PHANTOM
 62
   230
 48
50.0
100
AcDbLine
 10
16307.2
 20
11409.6
 30
0.0
 11
16307.2
 21
1200.0
 31
0.0
  0
LINE
  5
10B6C
330
747D
100
AcDbEntity
  8
仕様書枠
 48
50.0
100
AcDbLine
 10
13107.2
 20
1200.0
 30
0.0
 11
16307.2
 21
1200.0
 31
0.0
  0
TEXT
  5
10B73
330
747D
100
AcDbEntity
  8
文字
 62
     7
 48
50.0
100
AcDbText
 10
13162.9790565769
 20
895.0906074299405
 30
0.0
 40
200.0
  1
基 礎 図
  7
STYLE2
100
AcDbText
  0
LINE
  5
10B7B
330
747D
100
AcDbEntity
  8
仕様書枠
 48
50.0
100
AcDbLine
 10
13107.2
 20
800.0
 30
0.0
 11
14251.2
 21
800.0
 31
0.0
  0
LINE
  5
10B88
330
747D
100
AcDbEntity
  8
仕様書枠
  6
Continuous
 48
50.0
100
AcDbLine
 10
14251.2
 20
1200.0
 30
0.0
 11
14251.2
 21
800.0
 31
0.0
  0
LINE
  5
16462
330
747D
100
AcDbEntity
  8
仕様書枠
 48
50.0
100
AcDbLine
 10
16307.2
 20
1200.0
 30
0.0
 11
16307.2
 21
-0.0000000000000909
 31
0.0
  0
LINE
  5
1903B
330
747D
100
AcDbEntity
  8
補助
  6
PHANTOM
 62
   230
 48
50.0
100
AcDbLine
 10
140.0
 20
0.0
 30
0.0
 11
139.9999999999995
 21
11409.6
 31
0.0
  0
TEXT
  5
1C7A1
330
747D
100
AcDbEntity
  8
文字
 62
     7
 48
50.0
100
AcDbText
 10
13188.16259899338
 20
79.80631269190417
 30
0.0
 40
80.0
  1
※布基礎には換気口を設けてください。
  7
STYLE2
100
AcDbText
  0
TEXT
  5
1C7E7
330
747D
100
AcDbEntity
  8
文字
 62
     7
 48
50.0
100
AcDbText
 10
13188.16259899338
 20
246.7109242801889
 30
0.0
 40
80.0
  1
※寒冷地等は地域の実情に合わせた基礎にして下さい。
  7
STYLE2
100
AcDbText
  0
TEXT
  5
1C7E8
330
747D
100
AcDbEntity
  8
文字
 62
     7
 48
50.0
100
AcDbText
 10
14478.98566430227
 20
499.5983841039506
 30
0.0
 40
160.0
  1
ＮＸＮ－３０ＣＳＢ
  7
STYLE2
100
AcDbText
  0
TEXT
  5
1C7E9
330
747D
100
AcDbEntity
  8
文字
 62
     7
 48
50.0
100
AcDbText
 10
14641.2525855784
 20
871.1744590657927
 30
0.0
 40
100.0
  1
～一般型・多雪地型～
  7
STYLE2
100
AcDbText
  0
TEXT
  5
1C7EC
330
747D
100
AcDbEntity
  8
文字
 62
     7
 48
50.0
100
AcDbText
 10
14524.131837222
 20
1031.557706291229
 30
0.0
 40
100.0
  1
          <縮尺> S=1/40
  7
STYLE2
100
AcDbText
  0
TEXT
  5
1C7ED
330
747D
100
AcDbEntity
  8
文字
 62
     7
 48
50.0
100
AcDbText
 10
13201.43669998441
 20
477.2740661031257
 30
0.0
 40
160.0
  1
機種名
  7
STYLE2
100
AcDbText
  0
LINE
  5
1C7EF
330
747D
100
AcDbEntity
  8
文字
 62
     7
 48
50.0
100
AcDbLine
 10
13187.2
 20
400.0
 30
0.0
 11
16227.2
 21
400.0
 31
0.0
  0
DIMENSION
  5
1DCFE
330
747D
100
AcDbEntity
  8
寸法
 48
50.0
100
AcDbDimension
  2
*D19
 10
8913.600000000009
 20
7566.106208443713
 30
0.0
 11
9191.683543272892
 21
7566.106208443713
 31
0.0
 70
   160
 71
     5
 42
120.0000000000109
  3
INABA_S40G
100
AcDbAlignedDimension
 13
8793.599999999999
 23
7736.90777793021
 33
0.0
 14
8913.600000000009
 24
7711.907777930206
 34
0.0
 50
180.0
100
AcDbRotatedDimension
1001
ACAD
1000
DSTYLE
1002
{
1070
   341
1005
0
1002
}
  0
DIMENSION
  5
1DD07
330
747D
100
AcDbEntity
  8
寸法
 48
50.0
100
AcDbDimension
  2
*D20
 10
8683.600000000009
 20
7566.106208443713
 30
0.0
 11
8447.552755905519
 21
7566.106208443713
 31
0.0
 70
   160
 71
     5
 42
109.9999999999927
  3
INABA_S40G
100
AcDbAlignedDimension
 13
8793.600000000001
 23
7736.90777793021
 33
0.0
 14
8683.600000000009
 24
7736.907777930207
 34
0.0
 50
180.0
100
AcDbRotatedDimension
1001
ACAD
1000
DSTYLE
1002
{
1070
   341
1005
0
1002
}
  0
LINE
  5
1DD3B
102
{ACAD_REACTORS
330
219DC
102
}
330
747D
100
AcDbEntity
  8
部品1
 48
50.0
100
AcDbLine
 10
8323.600000000025
 20
5671.907777930219
 30
0.0
 11
8323.600000000025
 21
5866.90777793022
 31
0.0
  0
LINE
  5
1DD44
102
{ACAD_REACTORS
330
219DC
102
}
330
747D
100
AcDbEntity
  8
部品1
 48
50.0
100
AcDbLine
 10
8123.600000000028
 20
5671.907777930217
 30
0.0
 11
8123.600000000028
 21
5866.907777930216
 31
0.0
  0
DIMENSION
  5
1E90B
330
747D
100
AcDbEntity
  8
寸法
 48
50.0
100
AcDbDimension
  2
*D21
 10
7204.331011552699
 20
5746.907777930211
 30
0.0
 11
7204.331011552698
 21
5138.422496555973
 31
0.0
 70
   160
  1
扉の出<>
 71
     5
 42
75.0
  3
INABA_S40G
100
AcDbAlignedDimension
 13
7533.599999999999
 23
5671.90777793021
 33
0.0
 14
7533.600000000035
 24
5746.907777930211
 34
0.0
 50
90.0
100
AcDbRotatedDimension
1001
ACAD
1000
DSTYLE
1002
{
1070
   341
1005
0
1002
}
  0
LINE
  5
1EC47
102
{ACAD_REACTORS
330
219DC
102
}
330
747D
100
AcDbEntity
  8
部品1
 48
50.0
100
AcDbLine
 10
8913.600000000018
 20
5671.907777930226
 30
0.0
 11
7533.600000000035
 21
5671.90777793021
 31
0.0
  0
LEADER
  5
1EDB1
330
747D
100
AcDbEntity
  8
寸法
 48
50.0
100
AcDbLeader
  3
INABA_S50G
 73
     0
 74
     0
 75
     1
 40
120.0
 41
994.3492424049171
 76
     3
 10
8790.680085757008
 20
7843.921501126415
 30
0.0
 10
8964.645988304974
 20
8132.880272274157
 30
0.0
 10
9089.645988304974
 20
8132.880272274157
 30
0.0
340
1EDB2
1001
ACAD
1000
DSTYLE
1002
{
1070
   341
1005
0
1070
    40
1040
1.0
1070
   343
1005
0
1070
   344
1005
0
1002
}
  0
MTEXT
  5
1EDB2
102
{ACAD_REACTORS
330
1EDB1
102
}
330
747D
100
AcDbEntity
  8
部品1
 62
     7
 48
50.0
100
AcDbMText
 10
10108.99523070989
 20
8217.880272274156
 30
0.0
 40
120.0
 41
0.0
 71
     6
 72
     1
  1
アンカーボルト
  7
STYLE1
 73
     1
 44
1.0
1001
ACAD
1000
MTEXTBEGIN
1070
    73
1070
     1
1070
    44
1040
1.0
1070
    74
1070
     0
1000
MTEXTEND
  0
MTEXT
  5
1EDF3
102
{ACAD_REACTORS
330
1EDF4
102
}
330
747D
100
AcDbEntity
  8
部品1
 62
     7
 48
50.0
100
AcDbMText
 10
9940.469074001279
 20
6679.15141115105
 30
0.0
 40
120.0
 41
0.0
 71
     6
 72
     1
  1
\A1;床下換気口
  7
STYLE1
 73
     1
 44
1.0
1001
ACAD
1000
MTEXTBEGIN
1070
    73
1070
     1
1070
    44
1040
1.0
1070
    74
1070
     0
1000
MTEXTEND
  0
LEADER
  5
1EDF4
330
747D
100
AcDbEntity
  8
寸法
 48
50.0
100
AcDbLeader
  3
INABA_S50G
 73
     0
 74
     0
 75
     1
 40
120.0
 41
720.0000000000001
 76
     3
 10
8913.695499614997
 20
6855.165324718881
 30
0.0
 10
9070.469074001278
 20
6594.151411151049
 30
0.0
 10
9195.469074001278
 20
6594.151411151049
 30
0.0
340
1EDF3
1001
ACAD
1000
DSTYLE
1002
{
1070
   341
1005
0
1070
    40
1040
1.0
1070
   343
1005
0
1070
   344
1005
0
1002
}
  0
DIMENSION
  5
1F75A
330
747D
100
AcDbEntity
  8
寸法
 48
50.0
100
AcDbDimension
  2
*D22
 10
8913.6
 20
8545.196807820888
 30
0.0
 11
8568.600000000001
 21
8645.196807820887
 31
0.0
 70
    32
 71
     5
 42
690.0
  3
INABA_S40G
100
AcDbAlignedDimension
 13
8223.600000000001
 23
7302.907777930208
 33
0.0
 14
8913.6
 24
7966.907777930209
 34
0.0
100
AcDbRotatedDimension
1001
ACAD
1000
DSTYLE
1002
{
1070
   174
1070
     0
1070
   272
1070
     1
1070
   279
1070
     1
1070
   288
1070
     0
1070
   341
1005
0
1002
}
  0
DIMENSION
  5
1F75B
330
747D
100
AcDbEntity
  8
寸法
 48
50.0
100
AcDbDimension
  2
*D23
 10
8223.600000000001
 20
8545.196807820888
 30
0.0
 11
7878.6
 21
8645.196807820887
 31
0.0
 70
    32
 71
     5
 42
690.0
  3
INABA_S40G
100
AcDbAlignedDimension
 13
7533.599999999999
 23
7966.907777930209
 33
0.0
 14
8223.600000000001
 24
7302.907777930208
 34
0.0
100
AcDbRotatedDimension
1001
ACAD
1000
DSTYLE
1002
{
1070
   174
1070
     0
1070
   272
1070
     1
1070
   279
1070
     1
1070
   288
1070
     0
1070
   341
1005
0
1002
}
  0
LINE
  5
1F75D
330
747D
100
AcDbEntity
  8
部品1
 48
50.0
100
AcDbLine
 10
8323.6
 20
6410.907777930205
 30
0.0
 11
8323.6
 21
6610.907777930208
 31
0.0
  0
LINE
  5
1F75E
330
747D
100
AcDbEntity
  8
センター
 48
2.0
100
AcDbLine
 10
8173.6
 20
6510.907777930208
 30
0.0
 11
8273.6
 21
6510.907777930208
 31
0.0
  0
LINE
  5
1F75F
330
747D
100
AcDbEntity
  8
センター
 48
2.0
100
AcDbLine
 10
8223.600000000001
 20
6560.907777930208
 30
0.0
 11
8223.600000000001
 21
6460.907777930208
 31
0.0
  0
LINE
  5
1F760
330
747D
100
AcDbEntity
  8
部品1
 48
50.0
100
AcDbLine
 10
8123.600000000001
 20
6410.907777930209
 30
0.0
 11
8123.600000000001
 21
6610.907777930208
 31
0.0
  0
LINE
  5
1F761
330
747D
100
AcDbEntity
  8
部品1
 48
50.0
100
AcDbLine
 10
8323.6
 20
6610.907777930208
 30
0.0
 11
8123.600000000001
 21
6610.907777930208
 31
0.0
  0
LINE
  5
1F762
330
747D
100
AcDbEntity
  8
部品1
 48
50.0
100
AcDbLine
 10
8323.6
 20
6410.907777930205
 30
0.0
 11
8123.600000000001
 21
6410.907777930205
 31
0.0
  0
LINE
  5
1F771
330
747D
100
AcDbEntity
  8
部品1
 48
50.0
100
AcDbLine
 10
8323.6
 20
7102.907777930205
 30
0.0
 11
8123.600000000001
 21
7102.907777930205
 31
0.0
  0
LINE
  5
1F772
330
747D
100
AcDbEntity
  8
部品1
 48
50.0
100
AcDbLine
 10
8323.6
 20
7302.907777930208
 30
0.0
 11
8123.600000000001
 21
7302.907777930208
 31
0.0
  0
LINE
  5
1F773
330
747D
100
AcDbEntity
  8
部品1
 48
50.0
100
AcDbLine
 10
8123.600000000001
 20
7102.907777930209
 30
0.0
 11
8123.600000000001
 21
7302.907777930208
 31
0.0
  0
LINE
  5
1F774
330
747D
100
AcDbEntity
  8
センター
 48
2.0
100
AcDbLine
 10
8223.600000000001
 20
7252.907777930208
 30
0.0
 11
8223.600000000001
 21
7152.907777930209
 31
0.0
  0
LINE
  5
1F775
330
747D
100
AcDbEntity
  8
センター
 48
2.0
100
AcDbLine
 10
8173.6
 20
7202.907777930208
 30
0.0
 11
8273.6
 21
7202.907777930208
 31
0.0
  0
LINE
  5
1F776
330
747D
100
AcDbEntity
  8
部品1
 48
50.0
100
AcDbLine
 10
8323.6
 20
7102.907777930205
 30
0.0
 11
8323.6
 21
7302.907777930208
 31
0.0
  0
LINE
  5
1F779
330
747D
100
AcDbEntity
  8
センター
 48
2.0
100
AcDbLine
 10
8790.600000000001
 20
7893.907777930208
 30
0.0
 11
8790.600000000001
 21
7793.907777930208
 31
0.0
  0
LINE
  5
1F77B
102
{ACAD_REACTORS
330
219F8
102
}
330
747D
100
AcDbEntity
  8
部品1
 48
50.0
100
AcDbLine
 10
8913.6
 20
6756.907777930208
 30
0.0
 11
8793.599999999999
 21
6756.907777930209
 31
0.0
  0
LINE
  5
1F77C
102
{ACAD_REACTORS
330
219F8
102
}
330
747D
100
AcDbEntity
  8
部品1
 48
50.0
100
AcDbLine
 10
8913.6
 20
6956.907777930208
 30
0.0
 11
8793.599999999999
 21
6956.907777930208
 31
0.0
  0
LINE
  5
1F77D
330
747D
100
AcDbEntity
  8
部品1
 48
50.0
100
AcDbLine
 10
8683.6
 20
7736.907777930206
 30
0.0
 11
8683.6
 21
7846.907777930207
 31
0.0
  0
LINE
  5
1F77E
330
747D
100
AcDbEntity
  8
部品1
 48
50.0
100
AcDbLine
 10
8793.600000000001
 20
7736.90777793021
 30
0.0
 11
8683.6
 21
7736.907777930206
 31
0.0
  0
CIRCLE
  5
1F77F
330
747D
100
AcDbEntity
  8
部品1
 48
50.0
100
AcDbCircle
 10
8790.600000000001
 20
7843.907777930208
 30
0.0
 40
35.0
  0
LINE
  5
1F780
330
747D
100
AcDbEntity
  8
センター
 48
2.0
100
AcDbLine
 10
8740.6
 20
7843.907777930208
 30
0.0
 11
8840.6
 21
7843.907777930208
 31
0.0
  0
LINE
  5
1F783
330
747D
100
AcDbEntity
  8
部品1
 48
50.0
100
AcDbLine
 10
8123.600000000001
 20
7846.907777930208
 30
0.0
 11
8123.600000000001
 21
7966.907777930209
 31
0.0
  0
LINE
  5
1F784
330
747D
100
AcDbEntity
  8
部品1
 48
50.0
100
AcDbLine
 10
8323.6
 20
7846.907777930207
 30
0.0
 11
8323.6
 21
7966.907777930209
 31
0.0
  0
LINE
  5
1F785
330
747D
100
AcDbEntity
  8
センター
 48
2.0
100
AcDbLine
 10
8790.600000000008
 20
5919.90777793021
 30
0.0
 11
8790.600000000008
 21
5819.90777793021
 31
0.0
  0
LINE
  5
1F786
330
747D
100
AcDbEntity
  8
部品1
 48
50.0
100
AcDbLine
 10
8683.6
 20
5866.907777930224
 30
0.0
 11
8683.6
 21
5976.907777930226
 31
0.0
  0
LINE
  5
1F787
330
747D
100
AcDbEntity
  8
部品1
 48
50.0
100
AcDbLine
 10
8793.599999999999
 20
5976.907777930225
 30
0.0
 11
8683.6
 21
5976.907777930226
 31
0.0
  0
CIRCLE
  5
1F788
330
747D
100
AcDbEntity
  8
部品1
 48
50.0
100
AcDbCircle
 10
8790.600000000008
 20
5869.90777793021
 30
0.0
 40
35.0
  0
LINE
  5
1F789
330
747D
100
AcDbEntity
  8
センター
 48
2.0
100
AcDbLine
 10
8740.600000000007
 20
5869.90777793021
 30
0.0
 11
8840.600000000007
 21
5869.90777793021
 31
0.0
  0
LINE
  5
1F78F
102
{ACAD_REACTORS
330
219F8
102
}
330
747D
100
AcDbEntity
  8
部品1
 48
50.0
100
AcDbLine
 10
8913.6
 20
5671.907777930226
 30
0.0
 11
8913.6
 21
7966.907777930209
 31
0.0
  0
DIMENSION
  5
1F799
330
747D
100
AcDbEntity
  8
寸法
 48
50.0
100
AcDbDimension
  2
*D24
 10
8790.600000000001
 20
8771.968388320138
 30
0.0
 11
9152.085281374239
 21
8771.968388320138
 31
0.0
 70
   160
 71
     5
 42
123.0
  3
INABA_S40G
100
AcDbAlignedDimension
 13
8913.6
 23
7966.907777930209
 33
0.0
 14
8790.600000000001
 24
7893.907777930208
 34
0.0
100
AcDbRotatedDimension
1001
ACAD
1000
DSTYLE
1002
{
1070
   174
1070
     0
1070
   272
1070
     1
1070
   288
1070
     0
1070
   341
1005
0
1002
}
  0
LINE
  5
1F79A
330
747D
100
AcDbEntity
  8
部品1
 48
50.0
100
AcDbLine
 10
7763.600000000001
 20
7736.907777930205
 30
0.0
 11
7763.600000000001
 21
7846.907777930208
 31
0.0
  0
LINE
  5
1F79B
330
747D
100
AcDbEntity
  8
部品1
 48
50.0
100
AcDbLine
 10
7763.600000000001
 20
7736.907777930205
 30
0.0
 11
7653.6
 21
7736.907777930207
 31
0.0
  0
CIRCLE
  5
1F79C
330
747D
100
AcDbEntity
  8
部品1
 48
50.0
100
AcDbCircle
 10
7656.6
 20
7843.907777930208
 30
0.0
 40
35.0
  0
LINE
  5
1F79D
330
747D
100
AcDbEntity
  8
センター
 48
2.0
100
AcDbLine
 10
7606.6
 20
7843.907777930208
 30
0.0
 11
7706.6
 21
7843.907777930208
 31
0.0
  0
LINE
  5
1F79E
330
747D
100
AcDbEntity
  8
センター
 48
2.0
100
AcDbLine
 10
7656.6
 20
7893.907777930208
 30
0.0
 11
7656.6
 21
7793.907777930208
 31
0.0
  0
LINE
  5
1F7A0
102
{ACAD_REACTORS
330
219C0
102
}
330
747D
100
AcDbEntity
  8
部品1
 48
50.0
100
AcDbLine
 10
7653.600000000001
 20
6756.907777930209
 30
0.0
 11
7533.599999999999
 21
6756.907777930208
 31
0.0
  0
LINE
  5
1F7A1
102
{ACAD_REACTORS
330
219C0
102
}
330
747D
100
AcDbEntity
  8
部品1
 48
50.0
100
AcDbLine
 10
7653.600000000001
 20
6956.907777930209
 30
0.0
 11
7533.599999999999
 21
6956.907777930208
 31
0.0
  0
DIMENSION
  5
1F7A3
330
747D
100
AcDbEntity
  8
寸法
 48
50.0
100
AcDbDimension
  2
*D25
 10
6737.657733986178
 20
7843.907777930208
 30
0.0
 11
6737.657733986178
 21
8205.393059304448
 31
0.0
 70
   160
 71
     5
 42
123.0
  3
INABA_S40G
100
AcDbAlignedDimension
 13
7533.599999999999
 23
7966.907777930209
 33
0.0
 14
7606.6
 24
7843.907777930208
 34
0.0
 50
90.0
100
AcDbRotatedDimension
1001
ACAD
1000
DSTYLE
1002
{
1070
   174
1070
     0
1070
   272
1070
     1
1070
   288
1070
     0
1070
   341
1005
0
1002
}
  0
LINE
  5
1F7A4
330
747D
100
AcDbEntity
  8
部品1
 48
50.0
100
AcDbLine
 10
7763.600000000001
 20
5866.907777930212
 30
0.0
 11
7763.600000000001
 21
5976.907777930211
 31
0.0
  0
LINE
  5
1F7A5
330
747D
100
AcDbEntity
  8
部品1
 48
50.0
100
AcDbLine
 10
7763.600000000001
 20
5976.907777930211
 30
0.0
 11
7653.6
 21
5976.90777793021
 31
0.0
  0
CIRCLE
  5
1F7A6
330
747D
100
AcDbEntity
  8
部品1
 48
50.0
100
AcDbCircle
 10
7656.600000000008
 20
5869.90777793021
 30
0.0
 40
35.0
  0
LINE
  5
1F7A7
330
747D
100
AcDbEntity
  8
センター
 48
2.0
100
AcDbLine
 10
7606.600000000007
 20
5869.90777793021
 30
0.0
 11
7706.600000000007
 21
5869.90777793021
 31
0.0
  0
LINE
  5
1F7A8
330
747D
100
AcDbEntity
  8
センター
 48
2.0
100
AcDbLine
 10
7656.600000000008
 20
5919.90777793021
 30
0.0
 11
7656.600000000008
 21
5819.90777793021
 31
0.0
  0
DIMENSION
  5
1F7AA
330
747D
100
AcDbEntity
  8
寸法
 48
50.0
100
AcDbDimension
  2
*D26
 10
6737.657733986178
 20
5746.907777930208
 30
0.0
 11
6737.657733986178
 21
5508.42249655597
 31
0.0
 70
   160
 71
     5
 42
123.0000000000018
  3
INABA_S40G
100
AcDbAlignedDimension
 13
7606.600000000007
 23
5869.90777793021
 33
0.0
 14
7533.599999999999
 24
5746.907777930208
 34
0.0
 50
90.0
100
AcDbRotatedDimension
1001
ACAD
1000
DSTYLE
1002
{
1070
   174
1070
     0
1070
   272
1070
     1
1070
   288
1070
     0
1070
   341
1005
0
1002
}
  0
LINE
  5
1F7AC
102
{ACAD_REACTORS
330
219C0
102
}
330
747D
100
AcDbEntity
  8
部品1
 48
50.0
100
AcDbLine
 10
7533.599999999999
 20
5671.907777930225
 30
0.0
 11
7533.599999999999
 21
7966.907777930209
 31
0.0
  0
DIMENSION
  5
1F7AD
330
747D
100
AcDbEntity
  8
寸法
 48
50.0
100
AcDbDimension
  2
*D27
 10
6492.164931848212
 20
5746.907777930208
 30
0.0
 11
6492.164931848211
 21
6911.474447586923
 31
0.0
 70
   160
 71
     5
 42
2220.0
  3
INABA_S40G
100
AcDbAlignedDimension
 13
7533.599999999999
 23
7966.907777930209
 33
0.0
 14
7533.599999999999
 24
5746.907777930208
 34
0.0
 50
90.0
100
AcDbRotatedDimension
1001
ACAD
1000
DSTYLE
1002
{
1070
   174
1070
     0
1070
   272
1070
     1
1070
   288
1070
     0
1070
   341
1005
0
1002
}
  0
DIMENSION
  5
1F7AF
330
747D
100
AcDbEntity
  8
寸法
 48
50.0
100
AcDbDimension
  2
*D28
 10
6737.657733986178
 20
5869.90777793021
 30
0.0
 11
6737.657733986178
 21
6911.474447586923
 31
0.0
 70
   160
 71
     5
 42
1973.999999999998
  3
INABA_S40G
100
AcDbAlignedDimension
 13
7606.6
 23
7843.907777930208
 33
0.0
 14
7606.600000000007
 24
5869.90777793021
 34
0.0
 50
90.0
100
AcDbRotatedDimension
1001
ACAD
1000
DSTYLE
1002
{
1070
   174
1070
     0
1070
   272
1070
     1
1070
   288
1070
     0
1070
   341
1005
0
1002
}
  0
DIMENSION
  5
1F7B1
330
747D
100
AcDbEntity
  8
寸法
 48
50.0
100
AcDbDimension
  2
*D29
 10
7533.599999999999
 20
8771.968388320138
 30
0.0
 11
7295.114718625763
 21
8771.968388320138
 31
0.0
 70
   160
 71
     5
 42
123.0
  3
INABA_S40G
100
AcDbAlignedDimension
 13
7656.6
 23
7893.907777930208
 33
0.0
 14
7533.599999999999
 24
7966.907777930209
 34
0.0
100
AcDbRotatedDimension
1001
ACAD
1000
DSTYLE
1002
{
1070
   174
1070
     0
1070
   272
1070
     1
1070
   288
1070
     0
1070
   341
1005
0
1002
}
  0
LINE
  5
1F7B4
330
747D
100
AcDbEntity
  8
部品1
 48
50.0
100
AcDbLine
 10
8913.6
 20
7966.907777930209
 30
0.0
 11
7533.599999999999
 21
7966.907777930209
 31
0.0
  0
DIMENSION
  5
1F7B6
330
747D
100
AcDbEntity
  8
寸法
 48
50.0
100
AcDbDimension
  2
*D30
 10
8913.6
 20
8984.429083836975
 30
0.0
 11
8223.600000000001
 21
9084.429083836974
 31
0.0
 70
    32
 71
     5
 42
1380.0
  3
INABA_S40G
100
AcDbAlignedDimension
 13
7533.599999999999
 23
7966.907777930209
 33
0.0
 14
8913.6
 24
7966.907777930209
 34
0.0
100
AcDbRotatedDimension
1001
ACAD
1000
DSTYLE
1002
{
1070
   174
1070
     0
1070
   272
1070
     1
1070
   288
1070
     0
1070
   341
1005
0
1002
}
  0
DIMENSION
  5
1F7B9
330
747D
100
AcDbEntity
  8
寸法
 48
50.0
100
AcDbDimension
  2
*D31
 10
7656.6
 20
8771.968388320138
 30
0.0
 11
8223.600000000001
 21
8871.968388320139
 31
0.0
 70
    32
 71
     5
 42
1134.0
  3
INABA_S40G
100
AcDbAlignedDimension
 13
8790.600000000001
 23
7893.907777930208
 33
0.0
 14
7656.6
 24
7893.907777930208
 34
0.0
100
AcDbRotatedDimension
1001
ACAD
1000
DSTYLE
1002
{
1070
   174
1070
     0
1070
   272
1070
     1
1070
   288
1070
     0
1070
   341
1005
0
1002
}
  0
MTEXT
  5
20431
102
{ACAD_REACTORS
330
20432
102
}
330
747D
100
AcDbEntity
  8
部品1
 62
     7
 48
50.0
100
AcDbMText
 10
8722.598109025666
 20
6883.985602051288
 30
0.0
 40
120.0
 41
0.0
 71
     6
 72
     1
  1
CB
  7
STYLE1
 73
     1
 44
1.0
1001
ACAD
1000
MTEXTBEGIN
1070
    73
1070
     1
1070
    44
1040
1.0
1070
    74
1070
     0
1000
MTEXTEND
  0
LEADER
  5
20432
330
747D
100
AcDbEntity
  8
寸法
 48
50.0
100
AcDbLeader
  3
INABA_S50G
 73
     0
 74
     0
 75
     1
 40
120.0
 41
149.591883092037
 76
     3
 10
8282.446997869088
 20
6575.568134216104
 30
0.0
 10
8423.006225933631
 20
6798.985602051287
 30
0.0
 10
8548.006225933631
 20
6798.985602051287
 30
0.0
340
20431
1001
ACAD
1000
DSTYLE
1002
{
1070
   341
1005
0
1070
    40
1040
1.0
1070
   343
1005
0
1070
   344
1005
0
1002
}
  0
DIMENSION
  5
206ED
330
747D
100
AcDbEntity
  8
寸法
 48
50.0
100
AcDbDimension
  2
*D32
 10
6982.503367597603
 20
6510.907777930208
 30
0.0
 11
6982.503367597601
 21
6200.010127818401
 31
0.0
 70
   160
 71
     5
 42
763.9999999999973
  3
INABA_S40G
100
AcDbAlignedDimension
 13
7533.600000000035
 23
5746.907777930211
 33
0.0
 14
8123.600000000001
 24
6510.907777930208
 34
0.0
 50
270.0
100
AcDbRotatedDimension
1001
ACAD
1000
DSTYLE
1002
{
1070
   341
1005
0
1002
}
  0
DIMENSION
  5
2071E
330
747D
100
AcDbEntity
  8
寸法
 48
50.0
100
AcDbDimension
  2
*D33
 10
6982.503367597603
 20
7966.907777930209
 30
0.0
 11
6882.503367597601
 21
7584.907777930209
 31
0.0
 70
    32
 71
     5
 42
764.0
  3
INABA_S40G
100
AcDbAlignedDimension
 13
8123.600000000001
 23
7202.907777930208
 33
0.0
 14
7533.599999999999
 24
7966.907777930209
 34
0.0
 50
270.0
100
AcDbRotatedDimension
1001
ACAD
1000
DSTYLE
1002
{
1070
   341
1005
0
1002
}
  0
DIMENSION
  5
2073D
330
747D
100
AcDbEntity
  8
寸法
 48
50.0
100
AcDbDimension
  2
*D34
 10
6982.503367597605
 20
7202.907777930208
 30
0.0
 11
6982.503367597603
 21
6856.907777930207
 31
0.0
 70
   160
 71
     5
 42
692.0
  3
INABA_S40G
100
AcDbAlignedDimension
 13
8123.600000000001
 23
6510.907777930208
 33
0.0
 14
8123.600000000001
 24
7202.907777930208
 34
0.0
 50
270.0
100
AcDbRotatedDimension
1001
ACAD
1000
DSTYLE
1002
{
1070
   341
1005
0
1002
}
  0
DIMENSION
  5
20A00
330
747D
100
AcDbEntity
  8
寸法
 48
50.0
100
AcDbDimension
  2
*D35
 10
7533.600000000035
 20
4957.0434745061
 30
0.0
 11
8223.600000000027
 21
5057.0434745061
 31
0.0
 70
    32
  1
扉の幅 <>
 71
     5
 42
1379.999999999983
  3
INABA_S40G
100
AcDbAlignedDimension
 13
8913.600000000018
 23
5671.907777930226
 33
0.0
 14
7533.600000000035
 24
5671.90777793021
 34
0.0
100
AcDbRotatedDimension
1001
ACAD
1000
DSTYLE
1002
{
1070
   341
1005
0
1002
}
  0
TEXT
  5
20A01
330
747D
100
AcDbEntity
  8
寸法
 62
     7
100
AcDbText
 10
7616.285760402178
 20
4588.079265415341
 30
0.0
 40
120.0
  1
扉位置 (1380x75)
  7
STYLE1
100
AcDbText
  0
SOLID
  5
20A02
330
747D
100
AcDbEntity
  8
寸法
 48
50.0
100
AcDbTrace
 10
-7823.771060041811
 20
5546.316749025338
 30
0.0
 11
-7840.680265711798
 21
5671.907777930225
 31
0.0
 12
-7783.952845568333
 22
5558.589519994247
 32
0.0
 13
-7783.952845568333
 23
5558.589519994247
 33
0.0
210
0.0
220
0.0
230
-1.0
1001
ACAD
1000
DSTYLE
1002
{
1070
   341
1005
0
1070
    40
1040
1.0
1070
   343
1005
0
1070
   344
1005
0
1002
}
  0
LWPOLYLINE
  5
20A03
330
747D
100
AcDbEntity
  8
寸法
 48
50.0
100
AcDbPolyline
 90
        3
 70
     0
 43
0.0
 10
-7840.680265711798
 20
5671.907777930225
 10
-7499.669801209425
 20
4565.811317867022
 10
-10313.73421414107
 20
4565.811317867022
210
0.0
220
0.0
230
-1.0
1001
ACAD
1000
DSTYLE
1002
{
1070
   341
1005
0
1070
    40
1040
1.0
1070
   343
1005
0
1070
   344
1005
0
1002
}
  0
TEXT
  5
20A04
330
747D
100
AcDbEntity
  8
寸法
 62
     7
100
AcDbText
 10
7616.285760402178
 20
4416.475502532017
 30
0.0
 40
120.0
  1
扉の位置に合わせた基礎形状として下さい。
  7
STYLE1
100
AcDbText
  0
DIMENSION
  5
20A2F
330
747D
100
AcDbEntity
  8
寸法
 48
50.0
100
AcDbDimension
  2
*D36
 10
7992.938460046301
 20
5976.907777930225
 30
0.0
 11
7992.9384600463
 21
6212.955022024715
 31
0.0
 70
   160
 71
     5
 42
109.9999999999972
  3
INABA_S40G
100
AcDbAlignedDimension
 13
7763.6
 23
5866.907777930228
 33
0.0
 14
7763.600000000038
 24
5976.907777930225
 34
0.0
 50
270.0
100
AcDbRotatedDimension
1001
ACAD
1000
DSTYLE
1002
{
1070
   341
1005
0
1002
}
  0
DIMENSION
  5
20A34
330
747D
100
AcDbEntity
  8
寸法
 48
50.0
100
AcDbDimension
  2
*D37
 10
7992.938460046301
 20
5866.907777930212
 30
0.0
 11
7992.9384600463
 21
5433.212836726331
 31
0.0
 70
   160
 71
     5
 42
194.9999999999863
  3
INABA_S40G
100
AcDbAlignedDimension
 13
7763.600000000036
 23
5671.907777930226
 33
0.0
 14
7763.600000000001
 24
5866.907777930212
 34
0.0
 50
270.0
100
AcDbRotatedDimension
1001
ACAD
1000
DSTYLE
1002
{
1070
   341
1005
0
1002
}
  0
DIMENSION
  5
211EC
330
747D
100
AcDbEntity
  8
寸法
 48
50.0
100
AcDbDimension
  2
*D38
 10
6492.164931848212
 20
5746.907777930208
 30
0.0
 11
6492.164931848211
 21
5435.121052584847
 31
0.0
 70
   160
  1
a
 71
     5
 42
45.61210414290144
  3
INABA_S40G
100
AcDbAlignedDimension
 13
6737.657733986178
 23
5701.295673787306
 33
0.0
 14
7533.599999999999
 24
5746.907777930208
 34
0.0
 50
90.0
100
AcDbRotatedDimension
1001
ACAD
1000
DSTYLE
1002
{
1070
   341
1005
0
1002
}
  0
LINE
  5
211ED
330
747D
100
AcDbEntity
  8
想像線
 48
10.0
100
AcDbLine
 10
7478.600000000023
 20
8012.519882073112
 30
0.0
 11
7478.600000000023
 21
7374.531102267458
 31
0.0
  0
LINE
  5
211EE
330
747D
100
AcDbEntity
  8
想像線
 48
10.0
100
AcDbLine
 10
7478.600000000023
 20
8012.519882073112
 30
0.0
 11
8988.600000000014
 21
8012.519882073112
 31
0.0
  0
DIMENSION
  5
211F6
330
747D
100
AcDbEntity
  8
寸法
 48
50.0
100
AcDbDimension
  2
*D39
 10
7478.600000000013
 20
8984.429083836975
 30
0.0
 11
7506.100000000007
 21
9084.429083836974
 31
0.0
 70
    32
  1
b
 71
     5
 42
54.99999999998817
  3
INABA_S40G
100
AcDbAlignedDimension
 13
7533.599999999999
 23
7966.907777930209
 33
0.0
 14
7478.600000000013
 24
8771.968388320138
 34
0.0
100
AcDbRotatedDimension
1001
ACAD
1000
DSTYLE
1002
{
1070
   341
1005
0
1002
}
  0
DIMENSION
  5
211F7
330
747D
100
AcDbEntity
  8
寸法
 48
50.0
100
AcDbDimension
  2
*D40
 10
8913.6
 20
8984.429083836975
 30
0.0
 11
8951.100000000002
 21
9084.429083836974
 31
0.0
 70
    32
  1
c
 71
     5
 42
75.00000000000182
  3
INABA_S40G
100
AcDbAlignedDimension
 13
8988.600000000003
 23
8771.968388320138
 33
0.0
 14
8913.6
 24
7966.907777930209
 34
0.0
100
AcDbRotatedDimension
1001
ACAD
1000
DSTYLE
1002
{
1070
   341
1005
0
1002
}
  0
TEXT
  5
211FA
330
747D
100
AcDbEntity
  8
部品1
 48
50.0
100
AcDbText
 10
9287.334428457532
 20
6954.299578081836
 30
0.0
 40
80.0
  1
(a=45,b=55,c=75)
  7
STYLE1
100
AcDbText
  0
TEXT
  5
211FB
330
747D
100
AcDbEntity
  8
部品1
 48
50.0
100
AcDbText
 10
9128.75541970323
 20
7061.14479895059
 30
0.0
 40
80.0
  1
※a,b,cは屋根の出幅です。
  7
STYLE1
100
AcDbText
  0
MTEXT
  5
211FC
102
{ACAD_REACTORS
330
211FD
102
}
330
747D
100
AcDbEntity
  8
部品1
 62
     7
 48
50.0
100
AcDbMText
 10
9926.542615691836
 20
7240.455485883666
 30
0.0
 40
120.0
 41
0.0
 71
     6
 72
     1
  1
\A1;屋根の外寸
  7
STYLE1
 73
     1
 44
1.0
1001
ACAD
1000
MTEXTBEGIN
1070
    73
1070
     1
1070
    44
1040
1.0
1070
    74
1070
     0
1000
MTEXTEND
  0
LEADER
  5
211FD
330
747D
100
AcDbEntity
  8
寸法
 48
50.0
100
AcDbLeader
  3
INABA_S50G
 73
     0
 74
     0
 75
     1
 40
120.0
 41
672.0
 76
     3
 10
8988.602603499796
 20
7414.344829347242
 30
0.0
 10
9104.542615691837
 20
7155.455485883665
 30
0.0
 10
9229.542615691837
 20
7155.455485883665
 30
0.0
340
211FC
1001
ACAD
1000
DSTYLE
1002
{
1070
   341
1005
0
1070
    40
1040
1.0
1070
   343
1005
0
1070
   344
1005
0
1002
}
  0
DIMENSION
  5
211FE
330
747D
100
AcDbEntity
  8
寸法
 48
50.0
100
AcDbDimension
  2
*D41
 10
6492.164931848214
 20
8012.51988207311
 30
0.0
 11
6492.164931848214
 21
8283.694503275567
 31
0.0
 70
   160
  1
a
 71
     5
 42
45.61210414290144
  3
INABA_S40G
100
AcDbAlignedDimension
 13
7533.599999999999
 23
7966.907777930209
 33
0.0
 14
6737.657733986178
 24
8012.51988207311
 34
0.0
 50
90.0
100
AcDbRotatedDimension
1001
ACAD
1000
DSTYLE
1002
{
1070
   341
1005
0
1002
}
  0
LINE
  5
21243
330
747D
100
AcDbEntity
  8
想像線
 48
10.0
100
AcDbLine
 10
8988.600000000014
 20
8012.519882073112
 30
0.0
 11
8988.600000000014
 21
7374.531102267458
 31
0.0
  0
MTEXT
  5
2166D
102
{ACAD_REACTORS
330
2166E
102
}
330
747D
100
AcDbEntity
  8
寸法
 62
     7
 48
50.0
100
AcDbMText
 10
10431.61239803563
 20
2337.425342155225
 30
0.0
 40
120.0
 41
0.8
 71
     4
 72
     1
  1
\A1;C.B
  7
STYLE1
 73
     1
 44
1.0
1001
ACAD
1000
MTEXTBEGIN
1070
    73
1070
     1
1070
    44
1040
1.0
1070
    74
1070
     0
1000
MTEXTEND
  0
LEADER
  5
2166E
330
747D
100
AcDbEntity
  8
寸法
 48
50.0
100
AcDbLeader
  3
INABA_S50G
 73
     0
 74
     0
 75
     1
 40
120.0
 41
185.591883092037
 76
     3
 10
10248.47419140198
 20
2080.279021474087
 30
0.0
 10
10281.61239803563
 20
2252.425342155225
 30
0.0
 10
10406.61239803563
 20
2252.425342155225
 30
0.0
340
2166D
1001
ACAD
1000
DSTYLE
1002
{
1070
    40
1040
1.0
1002
}
  0
LINE
  5
2166F
330
747D
100
AcDbEntity
  8
細線
 48
50.0
100
AcDbLine
 10
10394.12760497839
 20
1724.580105820736
 30
0.0
 11
10387.69682436004
 21
1748.580105820736
 31
0.0
  0
LINE
  5
21670
330
747D
100
AcDbEntity
  8
細線
 48
50.0
100
AcDbLine
 10
10372.6916695839
 20
1644.580105820736
 30
0.0
 11
10379.12245020225
 21
1620.580105820736
 31
0.0
  0
LINE
  5
21671
330
747D
100
AcDbEntity
  8
部品1
100
AcDbLine
 10
10437.74977978606
 20
1840.279021474087
 30
0.0
 11
10437.74977978606
 21
1620.580105820737
 31
0.0
  0
LINE
  5
21672
330
747D
100
AcDbEntity
  8
細線
 48
50.0
100
AcDbLine
 10
10366.26088896555
 20
1620.580105820736
 30
0.0
 11
10400.55838559674
 21
1748.580105820734
 31
0.0
  0
LINE
  5
21673
330
747D
100
AcDbEntity
  8
細線
 48
50.0
100
AcDbLine
 10
10315.23956003114
 20
1724.580105820736
 30
0.0
 11
10308.8087794128
 21
1748.580105820736
 31
0.0
  0
LINE
  5
21674
330
747D
100
AcDbEntity
  8
細線
100
AcDbLine
 10
10190.78617428539
 20
1748.580105820739
 30
0.0
 11
10282.48508993874
 21
1840.279021474087
 31
0.0
  0
LINE
  5
21675
330
747D
100
AcDbEntity
  8
細線
 48
50.0
100
AcDbLine
 10
10236.35151508389
 20
1724.580105820737
 30
0.0
 11
10229.92073446554
 21
1748.580105820737
 31
0.0
  0
LINE
  5
21676
330
747D
100
AcDbEntity
  8
細線
100
AcDbLine
 10
10224.72729978235
 20
1748.580105820739
 30
0.0
 11
10316.42621543569
 21
1840.279021474087
 31
0.0
  0
LINE
  5
21677
330
747D
100
AcDbEntity
  8
細線
 48
50.0
100
AcDbLine
 10
9999.687380242157
 20
1724.580105820737
 30
0.0
 11
9993.256599623812
 21
1748.580105820737
 31
0.0
  0
LINE
  5
21678
330
747D
100
AcDbEntity
  8
細線
 48
50.0
100
AcDbLine
 10
10078.5754251894
 20
1724.580105820737
 30
0.0
 11
10072.14464457106
 21
1748.580105820737
 31
0.0
  0
LINE
  5
21679
330
747D
100
AcDbEntity
  8
細線
 48
50.0
100
AcDbLine
 10
10157.46347013665
 20
1724.580105820737
 30
0.0
 11
10151.0326895183
 21
1748.580105820737
 31
0.0
  0
LINE
  5
2167A
330
747D
100
AcDbEntity
  8
細線
 48
50.0
100
AcDbLine
 10
10293.80362463665
 20
1644.580105820736
 30
0.0
 11
10300.234405255
 21
1620.580105820736
 31
0.0
  0
LINE
  5
2167B
330
747D
100
AcDbEntity
  8
細線
 48
50.0
100
AcDbLine
 10
10214.91557968941
 20
1644.580105820737
 30
0.0
 11
10221.34636030776
 21
1620.580105820737
 31
0.0
  0
LINE
  5
2167C
330
747D
100
AcDbEntity
  8
細線
 48
50.0
100
AcDbLine
 10
10057.13948979491
 20
1644.580105820737
 30
0.0
 11
10063.57027041326
 21
1620.580105820737
 31
0.0
  0
LINE
  5
2167D
330
747D
100
AcDbEntity
  8
細線
 48
50.0
100
AcDbLine
 10
10136.02753474216
 20
1644.580105820737
 30
0.0
 11
10142.45831536051
 21
1620.580105820737
 31
0.0
  0
LINE
  5
2167E
330
747D
100
AcDbEntity
  8
細線
 48
50.0
100
AcDbLine
 10
10129.59675412381
 20
1620.580105820737
 30
0.0
 11
10163.89425075499
 21
1748.580105820736
 31
0.0
  0
LINE
  5
2167F
330
747D
100
AcDbEntity
  8
細線
 48
50.0
100
AcDbLine
 10
10050.70870917657
 20
1620.580105820736
 30
0.0
 11
10085.00620580775
 21
1748.580105820736
 31
0.0
  0
LINE
  5
21680
330
747D
100
AcDbEntity
  8
細線
 48
50.0
100
AcDbLine
 10
10208.48479907106
 20
1620.580105820736
 30
0.0
 11
10242.78229570223
 21
1748.580105820737
 31
0.0
  0
LINE
  5
21681
330
747D
100
AcDbEntity
  8
細線
100
AcDbLine
 10
10258.6684252793
 20
1748.580105820739
 30
0.0
 11
10350.36734093265
 21
1840.279021474087
 31
0.0
  0
LINE
  5
21682
330
747D
100
AcDbEntity
  8
細線
 48
50.0
100
AcDbLine
 10
10287.3728440183
 20
1620.580105820734
 30
0.0
 11
10321.67034064949
 21
1748.580105820734
 31
0.0
  0
LINE
  5
21683
330
747D
100
AcDbEntity
  8
部品1
100
AcDbLine
 10
10317.74977978606
 20
2080.279021474087
 30
0.0
 11
10317.74977978606
 21
1840.279021474087
 31
0.0
  0
LINE
  5
21684
330
747D
100
AcDbEntity
  8
細線
100
AcDbLine
 10
10303.91211743848
 20
1840.279021474089
 30
0.0
 11
10063.91211743848
 21
2080.279021474087
 31
0.0
  0
LINE
  5
21685
330
747D
100
AcDbEntity
  8
細線
100
AcDbLine
 10
10253.00042919305
 20
1840.279021474087
 30
0.0
 11
10013.00042919305
 21
2080.279021474087
 31
0.0
  0
LINE
  5
21686
330
747D
100
AcDbEntity
  8
細線
100
AcDbLine
 10
9864.727299782346
 20
1748.580105820737
 30
0.0
 11
9956.426215435691
 21
1840.279021474087
 31
0.0
  0
LINE
  5
21687
330
747D
100
AcDbEntity
  8
細線
100
AcDbLine
 10
9830.786174285391
 20
1748.580105820737
 30
0.0
 11
9922.485089938739
 21
1840.279021474087
 31
0.0
  0
LINE
  5
21688
330
747D
100
AcDbEntity
  8
細線
 48
50.0
100
AcDbLine
 10
9841.91129034766
 20
1724.580105820737
 30
0.0
 11
9835.480509729315
 21
1748.580105820737
 31
0.0
  0
LINE
  5
21689
330
747D
100
AcDbEntity
  8
細線
 48
50.0
100
AcDbLine
 10
9920.799335294914
 20
1724.580105820737
 30
0.0
 11
9914.368554676567
 21
1748.580105820737
 31
0.0
  0
LINE
  5
2168A
330
747D
100
AcDbEntity
  8
細線
 48
50.0
100
AcDbLine
 10
9763.023245400411
 20
1724.580105820737
 30
0.0
 11
9756.592464782061
 21
1748.580105820737
 31
0.0
  0
LINE
  5
2168B
330
747D
100
AcDbEntity
  8
細線
 48
50.0
100
AcDbLine
 10
9978.25144484767
 20
1644.580105820737
 30
0.0
 11
9984.682225466018
 21
1620.580105820737
 31
0.0
  0
LINE
  5
2168C
330
747D
100
AcDbEntity
  8
細線
 48
50.0
100
AcDbLine
 10
9899.363399900423
 20
1644.580105820737
 30
0.0
 11
9905.794180518769
 21
1620.580105820737
 31
0.0
  0
LINE
  5
2168D
330
747D
100
AcDbEntity
  8
細線
 48
50.0
100
AcDbLine
 10
9741.587310005922
 20
1644.580105820737
 30
0.0
 11
9748.018090624269
 21
1620.580105820737
 31
0.0
  0
LINE
  5
2168E
330
747D
100
AcDbEntity
  8
細線
 48
50.0
100
AcDbLine
 10
9820.47535495317
 20
1644.580105820737
 30
0.0
 11
9826.906135571521
 21
1620.580105820737
 31
0.0
  0
LINE
  5
2168F
330
747D
100
AcDbEntity
  8
部品1
100
AcDbLine
 10
9717.749779786061
 20
1620.580105820733
 30
0.0
 11
9717.749779786061
 21
1840.279021474087
 31
0.0
  0
LINE
  5
21690
330
747D
100
AcDbEntity
  8
細線
 48
50.0
100
AcDbLine
 10
9735.156529387573
 20
1620.580105820737
 30
0.0
 11
9769.454026018756
 21
1748.580105820737
 31
0.0
  0
LINE
  5
21691
330
747D
100
AcDbEntity
  8
細線
 48
50.0
100
AcDbLine
 10
9892.932619282071
 20
1620.580105820737
 30
0.0
 11
9927.230115913255
 21
1748.580105820737
 31
0.0
  0
LINE
  5
21692
330
747D
100
AcDbEntity
  8
細線
 48
50.0
100
AcDbLine
 10
9814.044574334822
 20
1620.580105820736
 30
0.0
 11
9848.342070966003
 21
1748.580105820736
 31
0.0
  0
LINE
  5
21693
330
747D
100
AcDbEntity
  8
部品1
100
AcDbLine
 10
9837.74977978606
 20
1840.279021474087
 30
0.0
 11
9837.74977978606
 21
2080.279021474087
 31
0.0
  0
TEXT
  5
21694
330
747D
100
AcDbEntity
  8
部品1
 48
50.0
100
AcDbText
 10
9073.631693027557
 20
1573.479280836778
 30
0.0
 40
80.0
  1
ボルトの出
 50
90.0
  7
STYLE2
100
AcDbText
  0
LINE
  5
21695
330
747D
100
AcDbEntity
  8
細線
100
AcDbLine
 10
9981.471425217414
 20
1840.279021474087
 30
0.0
 11
9837.74977978606
 21
1984.00066690544
 31
0.0
  0
LWPOLYLINE
  5
21696
330
747D
100
AcDbEntity
  8
部品1
 48
50.0
100
AcDbPolyline
 90
        2
 70
     0
 43
12.0
 10
9453.138517685671
 20
1840.279021474087
 10
10654.2308208173
 20
1840.279021474087
  0
LINE
  5
21697
330
747D
100
AcDbEntity
  8
細線
100
AcDbLine
 10
9898.668425279304
 20
1748.580105820737
 30
0.0
 11
9990.367340932648
 21
1840.279021474087
 31
0.0
  0
LINE
  5
21698
330
747D
100
AcDbEntity
  8
部品1
100
AcDbLine
 10
9717.749779786061
 20
1748.580105820737
 30
0.0
 11
10437.74977978606
 21
1748.58010582074
 31
0.0
  0
LINE
  5
21699
330
747D
100
AcDbEntity
  8
部品1
100
AcDbLine
 10
9717.749779786061
 20
1620.580105820733
 30
0.0
 11
10437.74977978606
 21
1620.580105820737
 31
0.0
  0
LINE
  5
2169A
330
747D
100
AcDbEntity
  8
細線
 48
50.0
100
AcDbLine
 10
9971.820664229319
 20
1620.580105820737
 30
0.0
 11
10006.1181608605
 21
1748.580105820736
 31
0.0
  0
LINE
  5
2169B
330
747D
100
AcDbEntity
  8
部品1
100
AcDbLine
 10
9837.74977978606
 20
2080.279021474087
 30
0.0
 11
10317.74977978606
 21
2080.279021474087
 31
0.0
  0
LINE
  5
2169C
330
747D
100
AcDbEntity
  8
細線
100
AcDbLine
 10
10032.38311346284
 20
1840.279021474087
 30
0.0
 11
9837.74977978606
 21
2034.91235515087
 31
0.0
  0
LINE
  5
2169D
330
747D
100
AcDbEntity
  8
部品1
100
AcDbLine
 10
11024.49128088309
 20
436.9436716662849
 30
0.0
 11
11024.4912808831
 21
3401.250641250932
 31
0.0
  0
TEXT
  5
2169E
330
747D
100
AcDbEntity
  8
部品1
100
AcDbText
 10
7646.386096675233
 20
3221.698709299504
 30
0.0
 40
120.0
  1
基礎詳細
  7
STYLE2
100
AcDbText
  0
LINE
  5
2169F
330
747D
100
AcDbEntity
  8
部品1
 48
50.0
100
AcDbLine
 10
7961.613847483302
 20
2479.15430258323
 30
0.0
 11
7977.613847483302
 21
2471.15430258323
 31
0.0
  0
LINE
  5
216A0
330
747D
100
AcDbEntity
  8
細線
 48
50.0
100
AcDbLine
 10
7929.613847483302
 20
2431.15430258323
 30
0.0
 11
7929.613847483302
 21
2463.15430258323
 31
0.0
  0
LINE
  5
216A1
330
747D
100
AcDbEntity
  8
部品1
 48
50.0
100
AcDbLine
 10
7977.613847483302
 20
2439.15430258323
 30
0.0
 11
7977.613847483302
 21
2471.15430258323
 31
0.0
  0
LINE
  5
216A2
330
747D
100
AcDbEntity
  8
細線
 48
50.0
100
AcDbLine
 10
7961.613847483302
 20
2431.15430258323
 30
0.0
 11
7961.613847483302
 21
2463.15430258323
 31
0.0
  0
LINE
  5
216A3
330
747D
100
AcDbEntity
  8
部品1
 48
50.0
100
AcDbLine
 10
7961.613847483302
 20
2463.15430258323
 30
0.0
 11
7977.613847483302
 21
2471.15430258323
 31
0.0
  0
LINE
  5
216A4
330
747D
100
AcDbEntity
  8
部品1
 48
50.0
100
AcDbLine
 10
7929.613847483302
 20
2463.15430258323
 30
0.0
 11
7961.613847483302
 21
2463.15430258323
 31
0.0
  0
LINE
  5
216A5
330
747D
100
AcDbEntity
  8
部品1
 48
50.0
100
AcDbLine
 10
7961.613847483302
 20
2431.15430258323
 30
0.0
 11
7977.613847483302
 21
2439.15430258323
 31
0.0
  0
LINE
  5
216A6
330
747D
100
AcDbEntity
  8
部品1
 48
50.0
100
AcDbLine
 10
7929.613847483302
 20
2431.15430258323
 30
0.0
 11
7961.613847483302
 21
2431.15430258323
 31
0.0
  0
ELLIPSE
  5
216A7
330
747D
100
AcDbEntity
  8
細線
 48
50.0
100
AcDbEllipse
 10
7945.613847483302
 20
2471.15430258323
 30
0.0
 11
14.76670786606846
 21
0.0
 31
0.0
210
0.0
220
0.0
230
1.0
 40
0.2071254069489396
 41
0.0
 42
6.283185307179586
  0
LINE
  5
216A8
330
747D
100
AcDbEntity
  8
部品1
 48
50.0
100
AcDbLine
 10
7929.613847483302
 20
2479.15430258323
 30
0.0
 11
7961.613847483302
 21
2479.15430258323
 31
0.0
  0
LINE
  5
216A9
330
747D
100
AcDbEntity
  8
部品1
 48
50.0
100
AcDbLine
 10
7913.613847483303
 20
2439.15430258323
 30
0.0
 11
7913.613847483303
 21
2471.15430258323
 31
0.0
  0
LINE
  5
216AA
330
747D
100
AcDbEntity
  8
部品1
 48
50.0
100
AcDbLine
 10
7913.613847483303
 20
2471.15430258323
 30
0.0
 11
7929.613847483302
 21
2479.15430258323
 31
0.0
  0
LINE
  5
216AB
330
747D
100
AcDbEntity
  8
部品1
 48
50.0
100
AcDbLine
 10
7913.613847483303
 20
2439.15430258323
 30
0.0
 11
7929.613847483302
 21
2431.15430258323
 31
0.0
  0
LINE
  5
216AC
330
747D
100
AcDbEntity
  8
部品1
 48
50.0
100
AcDbLine
 10
7913.613847483303
 20
2471.15430258323
 30
0.0
 11
7929.613847483302
 21
2463.15430258323
 31
0.0
  0
LINE
  5
216AD
330
747D
100
AcDbEntity
  8
部品1
 48
50.0
100
AcDbLine
 10
7985.613847483303
 20
2339.80230991836
 30
0.0
 11
7985.613847483303
 21
2349.40230991836
 31
0.0
  0
ELLIPSE
  5
216AE
330
747D
100
AcDbEntity
  8
部品1
 48
50.0
100
AcDbEllipse
 10
7945.613847483302
 20
2349.40230991836
 30
0.0
 11
18.4
 21
0.0
 31
0.0
210
0.0
220
0.0
230
1.0
 40
0.3478260869565217
 41
0.0
 42
6.283185307179586
  0
ARC
  5
216AF
330
747D
100
AcDbEntity
  8
部品1
100
AcDbCircle
 10
7784.513847483303
 20
2178.379021474087
 30
0.0
 40
2.7
100
AcDbArc
 50
90.0
 51
180.0
  0
LINE
  5
216B0
330
747D
100
AcDbEntity
  8
部品1
100
AcDbLine
 10
7787.213847483302
 20
2191.879021474088
 30
0.0
 11
7829.513847483304
 21
2191.879021474084
 31
0.0
  0
LINE
  5
216B1
330
747D
100
AcDbEntity
  8
部品1
100
AcDbLine
 10
7784.513847483303
 20
2181.079021474087
 30
0.0
 11
7784.513847483303
 21
2189.179021474087
 31
0.0
  0
LINE
  5
216B2
330
747D
100
AcDbEntity
  8
部品1
100
AcDbLine
 10
7784.513847483303
 20
2181.079021474087
 30
0.0
 11
7784.513847483303
 21
2181.079021474087
 31
0.0
  0
ARC
  5
216B3
330
747D
100
AcDbEntity
  8
部品1
100
AcDbCircle
 10
7787.213847483302
 20
2189.179021474087
 30
0.0
 40
2.7
100
AcDbArc
 50
90.0
 51
180.0
  0
ARC
  5
216B4
330
747D
100
AcDbEntity
  8
部品1
100
AcDbCircle
 10
7829.513847483304
 20
2189.179021474084
 30
0.0
 40
2.7
100
AcDbArc
 50
0.0
 51
90.0
  0
LINE
  5
216B5
330
747D
100
AcDbEntity
  8
部品1
 48
50.0
100
AcDbLine
 10
7905.613847483301
 20
2349.40230991836
 30
0.0
 11
7905.613847483301
 21
2339.80230991836
 31
0.0
  0
ELLIPSE
  5
216B6
330
747D
100
AcDbEntity
  8
部品1
 48
50.0
100
AcDbEllipse
 10
7945.613847483302
 20
2339.80230991836
 30
0.0
 11
40.0
 21
0.0
 31
0.0
210
0.0
220
0.0
230
1.0
 40
0.4
 41
3.141592653589793
 42
6.283185307179586
  0
ELLIPSE
  5
216B7
330
747D
100
AcDbEntity
  8
部品1
 48
50.0
100
AcDbEllipse
 10
7945.613847483302
 20
2349.40230991836
 30
0.0
 11
40.0
 21
0.0
 31
0.0
210
0.0
220
0.0
230
1.0
 40
0.4
 41
0.0
 42
6.283185307179586
  0
LINE
  5
216B8
330
747D
100
AcDbEntity
  8
部品1
100
AcDbLine
 10
7940.213847483303
 20
2133.039021474087
 30
0.0
 11
7951.013847483304
 21
2133.039021474087
 31
0.0
  0
LINE
  5
216B9
330
747D
100
AcDbEntity
  8
部品1
100
AcDbLine
 10
7936.613847483302
 20
2129.439021474088
 30
0.0
 11
7954.613847483303
 21
2129.439021474088
 31
0.0
  0
LINE
  5
216BA
330
747D
100
AcDbEntity
  8
細線
100
AcDbLine
 10
7940.213847483305
 20
2089.839021474087
 30
0.0
 11
7940.213847483303
 21
2133.039021474087
 31
0.0
  0
LINE
  5
216BB
330
747D
100
AcDbEntity
  8
細線
100
AcDbLine
 10
7951.013847483304
 20
2089.839021474087
 30
0.0
 11
7951.013847483304
 21
2133.039021474087
 31
0.0
  0
LINE
  5
216BC
330
747D
100
AcDbEntity
  8
部品1
100
AcDbLine
 10
7852.913847483302
 20
2147.139021474088
 30
0.0
 11
7852.913847483302
 21
2130.039021474087
 31
0.0
  0
LINE
  5
216BD
330
747D
100
AcDbEntity
  8
部品1
100
AcDbLine
 10
7886.473847483303
 20
2147.139021474088
 30
0.0
 11
7886.473847483299
 21
2092.539021474087
 31
0.0
  0
ARC
  5
216BE
330
747D
100
AcDbEntity
  8
部品1
100
AcDbCircle
 10
7871.813847483302
 20
2135.179021474087
 30
0.0
 40
2.7
100
AcDbArc
 50
0.0
 51
90.0
  0
LINE
  5
216BF
330
747D
100
AcDbEntity
  8
部品1
100
AcDbLine
 10
7832.213847483302
 20
2137.879021474088
 30
0.0
 11
7871.813847483302
 21
2137.879021474088
 31
0.0
  0
ARC
  5
216C0
330
747D
100
AcDbEntity
  8
部品1
100
AcDbCircle
 10
7871.813847483302
 20
2092.539021474087
 30
0.0
 40
2.7
100
AcDbArc
 50
270.0
 51
0.0
  0
ARC
  5
216C1
330
747D
100
AcDbEntity
  8
部品1
100
AcDbCircle
 10
7889.173847483296
 20
2092.539021474087
 30
0.0
 40
2.7
100
AcDbArc
 50
180.0
 51
270.0
  0
LINE
  5
216C2
330
747D
100
AcDbEntity
  8
部品1
100
AcDbLine
 10
7860.113847483302
 20
2089.839021474087
 30
0.0
 11
7871.813847483302
 21
2089.839021474087
 31
0.0
  0
LINE
  5
216C3
330
747D
100
AcDbEntity
  8
部品1
100
AcDbLine
 10
7874.513847483304
 20
2135.179021474087
 30
0.0
 11
7874.513847483304
 21
2092.539021474087
 31
0.0
  0
ARC
  5
216C4
330
747D
100
AcDbEntity
  8
部品1
100
AcDbCircle
 10
7883.773847483301
 20
2147.139021474088
 30
0.0
 40
2.7
100
AcDbArc
 50
0.0
 51
90.0
  0
ARC
  5
216C5
330
747D
100
AcDbEntity
  8
部品1
100
AcDbCircle
 10
7855.613847483302
 20
2147.139021474088
 30
0.0
 40
2.7
100
AcDbArc
 50
90.0
 51
180.0
  0
LINE
  5
216C6
330
747D
100
AcDbEntity
  8
部品1
100
AcDbLine
 10
7855.613847483302
 20
2149.839021474088
 30
0.0
 11
7883.773847483301
 21
2149.839021474088
 31
0.0
  0
LINE
  5
216C7
330
747D
100
AcDbEntity
  8
部品1
100
AcDbLine
 10
7832.213847483302
 20
2189.179021474084
 30
0.0
 11
7832.213847483302
 21
2137.879021474088
 31
0.0
  0
LINE
  5
216C8
330
747D
100
AcDbEntity
  8
部品1
100
AcDbLine
 10
7781.813847483303
 20
2170.279021474087
 30
0.0
 11
7781.813847483303
 21
2178.379021474087
 31
0.0
  0
LINE
  5
216C9
330
747D
100
AcDbEntity
  8
部品1
100
AcDbLine
 10
7889.173847483296
 20
2089.839021474087
 30
0.0
 11
8090.513847483297
 21
2089.839021474087
 31
0.0
  0
LINE
  5
216CA
330
747D
100
AcDbEntity
  8
部品1
100
AcDbLine
 10
7730.513847483305
 20
2092.539021474087
 30
0.0
 11
7730.513847483305
 21
2154.670925176795
 31
0.0
  0
LINE
  5
216CB
330
747D
100
AcDbEntity
  8
部品1
100
AcDbLine
 10
7733.213847483303
 20
2089.839021474087
 30
0.0
 11
7744.913847483298
 21
2089.839021474087
 31
0.0
  0
LINE
  5
216CC
330
747D
100
AcDbEntity
  8
細線
 48
50.0
100
AcDbLine
 10
7724.213847483302
 20
2068.059597773992
 30
0.0
 11
7736.433271183398
 21
2080.279021474087
 31
0.0
  0
ARC
  5
216CD
330
747D
100
AcDbEntity
  8
部品1
100
AcDbCircle
 10
7733.213847483303
 20
2092.539021474087
 30
0.0
 40
2.7
100
AcDbArc
 50
180.0
 51
270.0
  0
LINE
  5
216CE
330
747D
100
AcDbEntity
  8
部品1
100
AcDbLine
 10
7732.559001295704
 20
2157.290309927187
 30
0.0
 11
7741.313847483303
 21
2159.479021474087
 31
0.0
  0
ARC
  5
216CF
330
747D
100
AcDbEntity
  8
部品1
100
AcDbCircle
 10
7733.213847483303
 20
2154.670925176795
 30
0.0
 40
2.7
100
AcDbArc
 50
104.0362434679067
 51
180.0
  0
ARC
  5
216D0
330
747D
100
AcDbEntity
  8
部品1
100
AcDbCircle
 10
7744.013847483303
 20
2167.579021474088
 30
0.0
 40
2.7
100
AcDbArc
 50
90.0
 51
180.0
  0
LINE
  5
216D1
330
747D
100
AcDbEntity
  8
部品1
100
AcDbLine
 10
7741.313847483303
 20
2159.479021474087
 30
0.0
 11
7741.313847483303
 21
2167.579021474088
 31
0.0
  0
TEXT
  5
216D2
330
747D
100
AcDbEntity
  8
部品1
 48
50.0
100
AcDbText
 10
7297.767750903812
 20
2410.839542574563
 30
0.0
 40
80.0
  1
※(別売)
  7
STYLE2
100
AcDbText
  0
LINE
  5
216D3
330
747D
100
AcDbEntity
  8
部品1
 48
50.0
100
AcDbLine
 10
7724.213847483302
 20
2080.279021474087
 30
0.0
 11
8138.213847483305
 21
2080.279021474087
 31
0.0
  0
LINE
  5
216D4
330
747D
100
AcDbEntity
  8
細線
 48
50.0
100
AcDbLine
 10
7724.213847483302
 20
2014.178061047577
 30
0.0
 11
7790.314807909815
 21
2080.279021474087
 31
0.0
  0
LINE
  5
216D5
330
747D
100
AcDbEntity
  8
細線
 48
50.0
100
AcDbLine
 10
7724.213847483302
 20
2041.118829410785
 30
0.0
 11
7763.374039546609
 21
2080.279021474087
 31
0.0
  0
LINE
  5
216D6
330
747D
100
AcDbEntity
  8
部品1
100
AcDbLine
 10
7744.013847483303
 20
2170.279021474087
 30
0.0
 11
7781.813847483303
 21
2170.279021474087
 31
0.0
  0
LINE
  5
216D7
330
747D
100
AcDbEntity
  8
部品1
 48
50.0
100
AcDbLine
 10
8138.213847483303
 20
1536.279021474087
 30
0.0
 11
8266.213847483301
 21
1536.279021474087
 31
0.0
  0
LINE
  5
216D8
330
747D
100
AcDbEntity
  8
部品1
100
AcDbLine
 10
7954.613847483303
 20
1855.279021474087
 30
0.0
 11
7990.613847483302
 21
1855.279021474087
 31
0.0
  0
LINE
  5
216D9
330
747D
100
AcDbEntity
  8
部品1
100
AcDbLine
 10
7954.613847483303
 20
1837.279021474087
 30
0.0
 11
7990.613847483302
 21
1837.279021474087
 31
0.0
  0
ARC
  5
216DA
330
747D
100
AcDbEntity
  8
部品1
100
AcDbCircle
 10
7954.613847483303
 20
1855.279021474087
 30
0.0
 40
18.0
100
AcDbArc
 50
180.0
 51
270.0
  0
LINE
  5
216DB
330
747D
100
AcDbEntity
  8
部品1
100
AcDbLine
 10
7990.613847483302
 20
1837.279021474087
 30
0.0
 11
7990.613847483302
 21
1855.279021474087
 31
0.0
  0
LINE
  5
216DC
330
747D
100
AcDbEntity
  8
部品1
100
AcDbLine
 10
8008.613847483301
 20
1756.279021474085
 30
0.0
 11
7882.613847483297
 21
1756.279021474085
 31
0.0
  0
LINE
  5
216DD
330
747D
100
AcDbEntity
  8
細線
 48
50.0
100
AcDbLine
 10
8302.591672675637
 20
1272.279021474085
 30
0.0
 11
8296.160892057292
 21
1296.279021474085
 31
0.0
  0
LINE
  5
216DE
330
747D
100
AcDbEntity
  8
細線
 48
50.0
100
AcDbLine
 10
8223.703627728392
 20
1272.279021474085
 30
0.0
 11
8217.272847110045
 21
1296.279021474085
 31
0.0
  0
LINE
  5
216DF
330
747D
100
AcDbEntity
  8
細線
 48
50.0
100
AcDbLine
 10
8144.815582781134
 20
1272.279021474087
 30
0.0
 11
8138.384802162789
 21
1296.279021474087
 31
0.0
  0
LINE
  5
216E0
330
747D
100
AcDbEntity
  8
細線
 48
50.0
100
AcDbLine
 10
8281.155737281148
 20
1192.279021474085
 30
0.0
 11
8287.586517899496
 21
1168.279021474085
 31
0.0
  0
LINE
  5
216E1
330
747D
100
AcDbEntity
  8
細線
 48
50.0
100
AcDbLine
 10
8202.267692333903
 20
1192.279021474085
 30
0.0
 11
8208.698472952248
 21
1168.279021474085
 31
0.0
  0
LINE
  5
216E2
330
747D
100
AcDbEntity
  8
細線
 48
50.0
100
AcDbLine
 10
8123.379647386654
 20
1192.279021474087
 30
0.0
 11
8129.81042800501
 21
1168.279021474087
 31
0.0
  0
LINE
  5
216E3
330
747D
100
AcDbEntity
  8
細線
 48
50.0
100
AcDbLine
 10
8195.836911715552
 20
1168.279021474084
 30
0.0
 11
8230.134408346737
 21
1296.279021474084
 31
0.0
  0
LINE
  5
216E4
330
747D
100
AcDbEntity
  8
細線
 48
50.0
100
AcDbLine
 10
8116.948866768304
 20
1168.279021474085
 30
0.0
 11
8151.246363399478
 21
1296.279021474087
 31
0.0
  0
LINE
  5
216E5
330
747D
100
AcDbEntity
  8
細線
 48
50.0
100
AcDbLine
 10
8274.724956662799
 20
1168.279021474085
 30
0.0
 11
8309.022453293982
 21
1296.279021474084
 31
0.0
  0
LINE
  5
216E6
330
747D
100
AcDbEntity
  8
部品1
 48
50.0
100
AcDbLine
 10
8346.213847483305
 20
1296.279021474087
 30
0.0
 11
8346.213847483305
 21
1168.279021474087
 31
0.0
  0
LINE
  5
216E7
330
747D
100
AcDbEntity
  8
細線
 48
50.0
100
AcDbLine
 10
8065.927537833898
 20
1272.279021474087
 30
0.0
 11
8059.496757215551
 21
1296.279021474087
 31
0.0
  0
LINE
  5
216E8
330
747D
100
AcDbEntity
  8
細線
 48
50.0
100
AcDbLine
 10
7987.039492886651
 20
1272.279021474087
 30
0.0
 11
7980.608712268305
 21
1296.279021474087
 31
0.0
  0
LINE
  5
216E9
330
747D
100
AcDbEntity
  8
細線
 48
50.0
100
AcDbLine
 10
7829.263402992158
 20
1272.279021474087
 30
0.0
 11
7822.832622373811
 21
1296.279021474087
 31
0.0
  0
LINE
  5
216EA
330
747D
100
AcDbEntity
  8
細線
 48
50.0
100
AcDbLine
 10
7908.151447939406
 20
1272.279021474087
 30
0.0
 11
7901.720667321058
 21
1296.279021474087
 31
0.0
  0
LINE
  5
216EB
330
747D
100
AcDbEntity
  8
細線
 48
50.0
100
AcDbLine
 10
7965.603557492163
 20
1192.279021474087
 30
0.0
 11
7972.034338110508
 21
1168.279021474087
 31
0.0
  0
LINE
  5
216EC
330
747D
100
AcDbEntity
  8
細線
 48
50.0
100
AcDbLine
 10
8044.491602439407
 20
1192.279021474087
 30
0.0
 11
8050.922383057754
 21
1168.279021474087
 31
0.0
  0
LINE
  5
216ED
330
747D
100
AcDbEntity
  8
細線
 48
50.0
100
AcDbLine
 10
7807.82746759767
 20
1192.279021474087
 30
0.0
 11
7814.258248216018
 21
1168.279021474087
 31
0.0
  0
LINE
  5
216EE
330
747D
100
AcDbEntity
  8
細線
 48
50.0
100
AcDbLine
 10
7886.715512544917
 20
1192.279021474087
 30
0.0
 11
7893.146293163264
 21
1168.279021474087
 31
0.0
  0
LINE
  5
216EF
330
747D
100
AcDbEntity
  8
細線
 48
50.0
100
AcDbLine
 10
8038.060821821055
 20
1168.279021474087
 30
0.0
 11
8072.358318452241
 21
1296.279021474085
 31
0.0
  0
LINE
  5
216F0
330
747D
100
AcDbEntity
  8
細線
 48
50.0
100
AcDbLine
 10
7880.284731926564
 20
1168.279021474087
 30
0.0
 11
7914.582228557749
 21
1296.279021474085
 31
0.0
  0
LINE
  5
216F1
330
747D
100
AcDbEntity
  8
細線
 48
50.0
100
AcDbLine
 10
7801.396686979318
 20
1168.279021474087
 30
0.0
 11
7835.694183610499
 21
1296.279021474087
 31
0.0
  0
LINE
  5
216F2
330
747D
100
AcDbEntity
  8
細線
 48
50.0
100
AcDbLine
 10
7959.172776873812
 20
1168.279021474085
 30
0.0
 11
7993.470273504994
 21
1296.279021474085
 31
0.0
  0
LINE
  5
216F3
330
747D
100
AcDbEntity
  8
細線
 48
50.0
100
AcDbLine
 10
8083.945542438113
 20
1296.279021474087
 30
0.0
 11
8266.213847483301
 21
1478.547326519283
 31
0.0
  0
LINE
  5
216F4
330
747D
100
AcDbEntity
  8
部品1
 48
50.0
100
AcDbLine
 10
8266.213847483301
 20
1536.279021474087
 30
0.0
 11
8266.213847483301
 21
1296.279021474087
 31
0.0
  0
LINE
  5
216F5
330
747D
100
AcDbEntity
  8
細線
 48
50.0
100
AcDbLine
 10
8057.004774074908
 20
1296.279021474087
 30
0.0
 11
8266.213847483301
 21
1505.48809488248
 31
0.0
  0
LINE
  5
216F6
330
747D
100
AcDbEntity
  8
細線
 48
50.0
100
AcDbLine
 10
8030.064005711697
 20
1296.279021474087
 30
0.0
 11
8266.213847483301
 21
1532.428863245695
 31
0.0
  0
LINE
  5
216F7
330
747D
100
AcDbEntity
  8
細線
 48
50.0
100
AcDbLine
 10
7814.537858806038
 20
1296.279021474087
 30
0.0
 11
8138.213847483301
 21
1619.955010151353
 31
0.0
  0
LINE
  5
216F8
330
747D
100
AcDbEntity
  8
細線
 48
50.0
100
AcDbLine
 10
7868.419395532452
 20
1296.279021474087
 30
0.0
 11
8138.213847483303
 21
1566.073473424944
 31
0.0
  0
LINE
  5
216F9
330
747D
100
AcDbEntity
  8
細線
 48
50.0
100
AcDbLine
 10
7841.478627169246
 20
1296.279021474087
 30
0.0
 11
8138.213847483303
 21
1593.01424178814
 31
0.0
  0
LINE
  5
216FA
330
747D
100
AcDbEntity
  8
細線
 48
50.0
100
AcDbLine
 10
7596.213847483297
 20
1509.007303962673
 30
0.0
 11
7623.485564994716
 21
1536.279021474087
 31
0.0
  0
LINE
  5
216FB
330
747D
100
AcDbEntity
  8
部品1
 48
50.0
100
AcDbLine
 10
7596.213847483302
 20
1536.279021474087
 30
0.0
 11
7724.213847483302
 21
1536.279021474087
 31
0.0
  0
LINE
  5
216FC
330
747D
100
AcDbEntity
  8
細線
 48
50.0
100
AcDbLine
 10
7596.213847483297
 20
1482.066535599462
 30
0.0
 11
7650.426333357927
 21
1536.279021474087
 31
0.0
  0
LWPOLYLINE
  5
216FD
330
747D
100
AcDbEntity
  8
部品1
 48
50.0
100
AcDbPolyline
 90
        2
 70
     0
 43
8.0
 10
7310.073945650348
 20
1840.279021474088
 10
7724.213847483302
 20
1840.279021474088
  0
LINE
  5
216FE
330
747D
100
AcDbEntity
  8
細線
 48
50.0
100
AcDbLine
 10
7671.487313097656
 20
1272.279021474087
 30
0.0
 11
7665.056532479309
 21
1296.279021474087
 31
0.0
  0
LINE
  5
216FF
330
747D
100
AcDbEntity
  8
細線
 48
50.0
100
AcDbLine
 10
7750.375358044909
 20
1272.279021474087
 30
0.0
 11
7743.94457742656
 21
1296.279021474087
 31
0.0
  0
LINE
  5
21700
330
747D
100
AcDbEntity
  8
細線
 48
50.0
100
AcDbLine
 10
7592.599268150403
 20
1272.279021474087
 30
0.0
 11
7586.168487532058
 21
1296.279021474087
 31
0.0
  0
LINE
  5
21701
330
747D
100
AcDbEntity
  8
細線
 48
50.0
100
AcDbLine
 10
7516.213847483303
 20
1281.618942439867
 30
0.0
 11
7520.142003821499
 21
1296.279021474087
 31
0.0
  0
LINE
  5
21702
330
747D
100
AcDbEntity
  8
細線
 48
50.0
100
AcDbLine
 10
7650.051377703167
 20
1192.279021474087
 30
0.0
 11
7656.482158321512
 21
1168.279021474087
 31
0.0
  0
LINE
  5
21703
330
747D
100
AcDbEntity
  8
細線
 48
50.0
100
AcDbLine
 10
7728.939422650419
 20
1192.279021474087
 30
0.0
 11
7735.370203268765
 21
1168.279021474087
 31
0.0
  0
LINE
  5
21704
330
747D
100
AcDbEntity
  8
細線
 48
50.0
100
AcDbLine
 10
7571.163332755914
 20
1192.279021474087
 30
0.0
 11
7577.59411337426
 21
1168.279021474087
 31
0.0
  0
LINE
  5
21705
330
747D
100
AcDbEntity
  8
細線
 48
50.0
100
AcDbLine
 10
7722.508642032066
 20
1168.279021474085
 30
0.0
 11
7756.806138663248
 21
1296.279021474085
 31
0.0
  0
LINE
  5
21706
330
747D
100
AcDbEntity
  8
細線
 48
50.0
100
AcDbLine
 10
7564.73255213756
 20
1168.279021474085
 30
0.0
 11
7599.030048768746
 21
1296.279021474085
 31
0.0
  0
LINE
  5
21707
330
747D
100
AcDbEntity
  8
部品1
 48
50.0
100
AcDbLine
 10
7516.213847483304
 20
1168.279021474087
 30
0.0
 11
7516.213847483304
 21
1296.279021474087
 31
0.0
  0
LINE
  5
21708
330
747D
100
AcDbEntity
  8
細線
 48
50.0
100
AcDbLine
 10
7643.620597084821
 20
1168.279021474087
 30
0.0
 11
7677.918093716002
 21
1296.279021474087
 31
0.0
  0
LINE
  5
21709
330
747D
100
AcDbEntity
  8
部品1
 48
50.0
100
AcDbLine
 10
7596.213847483302
 20
1296.279021474087
 30
0.0
 11
7596.213847483302
 21
1536.279021474087
 31
0.0
  0
LINE
  5
2170A
330
747D
100
AcDbEntity
  8
細線
 48
50.0
100
AcDbLine
 10
7596.213847483297
 20
1455.125767236258
 30
0.0
 11
7677.367101721131
 21
1536.279021474087
 31
0.0
  0
LINE
  5
2170B
330
747D
100
AcDbEntity
  8
部品1
 48
50.0
100
AcDbLine
 10
8346.213847483305
 20
1168.279021474087
 30
0.0
 11
7516.213847483304
 21
1168.279021474087
 31
0.0
  0
LINE
  5
2170C
330
747D
100
AcDbEntity
  8
部品1
 48
50.0
100
AcDbLine
 10
8346.213847483305
 20
1296.279021474087
 30
0.0
 11
7516.213847483304
 21
1296.279021474087
 31
0.0
  0
LINE
  5
2170D
330
747D
100
AcDbEntity
  8
細線
 48
50.0
100
AcDbLine
 10
7599.011711900377
 20
1296.279021474087
 30
0.0
 11
8138.213847483301
 21
1835.481157057013
 31
0.0
  0
LINE
  5
2170E
330
747D
100
AcDbEntity
  8
細線
 48
50.0
100
AcDbLine
 10
7625.952480263586
 20
1296.279021474087
 30
0.0
 11
8138.213847483305
 21
1808.540388693801
 31
0.0
  0
LINE
  5
2170F
330
747D
100
AcDbEntity
  8
細線
 48
50.0
100
AcDbLine
 10
7652.893248626792
 20
1296.279021474087
 30
0.0
 11
8138.213847483303
 21
1781.599620330595
 31
0.0
  0
LINE
  5
21710
330
747D
100
AcDbEntity
  8
細線
 48
50.0
100
AcDbLine
 10
7724.213847483302
 20
1637.007303962673
 30
0.0
 11
7882.613847483296
 21
1795.407303962668
 31
0.0
  0
LINE
  5
21711
330
747D
100
AcDbEntity
  8
細線
 48
50.0
100
AcDbLine
 10
7724.213847483302
 20
1583.125767236258
 30
0.0
 11
7897.367101721139
 21
1756.279021474085
 31
0.0
  0
LINE
  5
21712
330
747D
100
AcDbEntity
  8
細線
 48
50.0
100
AcDbLine
 10
7724.213847483302
 20
1610.066535599465
 30
0.0
 11
7882.613847483296
 21
1768.466535599454
 31
0.0
  0
LINE
  5
21713
330
747D
100
AcDbEntity
  8
部品1
100
AcDbLine
 10
7882.613847483297
 20
1756.279021474087
 30
0.0
 11
7882.613847483303
 21
2080.279021474087
 31
0.0
  0
LINE
  5
21714
330
747D
100
AcDbEntity
  8
部品1
100
AcDbLine
 10
8008.613847483301
 20
1756.279021474087
 30
0.0
 11
8008.613847483301
 21
2080.279021474087
 31
0.0
  0
LINE
  5
21715
330
747D
100
AcDbEntity
  8
細線
 48
50.0
100
AcDbLine
 10
8008.613847483305
 20
1894.466535599458
 30
0.0
 11
8138.213847483303
 21
2024.066535599455
 31
0.0
  0
LINE
  5
21716
330
747D
100
AcDbEntity
  8
細線
 48
50.0
100
AcDbLine
 10
8008.613847483305
 20
1867.525767236246
 30
0.0
 11
8138.213847483303
 21
1997.125767236237
 31
0.0
  0
LINE
  5
21717
330
747D
100
AcDbEntity
  8
部品1
100
AcDbLine
 10
7936.613847483302
 20
1855.279021474087
 30
0.0
 11
7936.613847483299
 21
2129.439021474088
 31
0.0
  0
LINE
  5
21718
330
747D
100
AcDbEntity
  8
部品1
100
AcDbLine
 10
7954.613847483303
 20
1855.279021474087
 30
0.0
 11
7954.613847483298
 21
2129.439021474088
 31
0.0
  0
TEXT
  5
21719
330
747D
100
AcDbEntity
  8
部品1
 48
50.0
100
AcDbText
 10
7310.073945650348
 20
1851.518013757342
 30
0.0
 40
80.0
  1
▽G.L
  7
STYLE2
100
AcDbText
  0
LINE
  5
2171A
330
747D
100
AcDbEntity
  8
細線
 48
50.0
100
AcDbLine
 10
7724.213847483302
 20
1798.651914141917
 30
0.0
 11
7882.613847483298
 21
1957.05191414191
 31
0.0
  0
LINE
  5
2171B
330
747D
100
AcDbEntity
  8
細線
 48
50.0
100
AcDbLine
 10
7724.213847483302
 20
1825.592682505124
 30
0.0
 11
7882.613847483303
 21
1983.992682505122
 31
0.0
  0
LINE
  5
2171C
330
747D
100
AcDbEntity
  8
細線
 48
50.0
100
AcDbLine
 10
7724.213847483302
 20
1852.533450868332
 30
0.0
 11
7882.613847483303
 21
2010.93345086833
 31
0.0
  0
LINE
  5
2171D
330
747D
100
AcDbEntity
  8
部品1
 48
50.0
100
AcDbLine
 10
7724.213847483302
 20
1536.279021474087
 30
0.0
 11
7724.213847483302
 21
2080.279021474087
 31
0.0
  0
LINE
  5
2171E
330
747D
100
AcDbEntity
  8
部品1
100
AcDbLine
 10
8138.213847483301
 20
1536.279021474087
 30
0.0
 11
8138.213847483303
 21
2080.279021474087
 31
0.0
  0
LINE
  5
2171F
330
747D
100
AcDbEntity
  8
細線
 48
50.0
100
AcDbLine
 10
8008.613847483305
 20
1921.407303962675
 30
0.0
 11
8138.213847483303
 21
2051.007303962674
 31
0.0
  0
LINE
  5
21720
330
747D
100
AcDbEntity
  8
細線
 48
50.0
100
AcDbLine
 10
6132.666956808579
 20
1961.025873370803
 30
0.0
 11
6216.174534306109
 21
2044.533450868333
 31
0.0
  0
LINE
  5
21721
330
747D
100
AcDbEntity
  8
細線
 48
50.0
100
AcDbLine
 10
6143.727241572095
 20
1945.145389771109
 30
0.0
 11
6216.174534306109
 21
2017.592682505124
 31
0.0
  0
LINE
  5
21722
330
747D
100
AcDbEntity
  8
細線
 48
50.0
100
AcDbLine
 10
6024.174534306109
 20
2068.059597773992
 30
0.0
 11
6036.393958006204
 21
2080.279021474087
 31
0.0
  0
LINE
  5
21723
330
747D
100
AcDbEntity
  8
細線
 48
50.0
100
AcDbLine
 10
6024.174534306109
 20
2014.178061047577
 30
0.0
 11
6090.275494732619
 21
2080.279021474087
 31
0.0
  0
LINE
  5
21724
330
747D
100
AcDbEntity
  8
細線
 48
50.0
100
AcDbLine
 10
6024.174534306109
 20
2041.118829410785
 30
0.0
 11
6063.334726369413
 21
2080.279021474087
 31
0.0
  0
LINE
  5
21725
330
747D
100
AcDbEntity
  8
部品1
 48
50.0
100
AcDbLine
 10
6024.174534306109
 20
2080.279021474087
 30
0.0
 11
6216.174534306109
 21
2080.279021474087
 31
0.0
  0
DIMENSION
  5
21726
330
747D
100
AcDbEntity
  8
寸法
 48
50.0
100
AcDbDimension
  2
*D47
 10
6024.174534306109
 20
2400.279021474088
 30
0.0
 11
6131.400864651306
 21
2499.946829390467
 31
0.0
 70
   160
  1
120\P195
 71
     5
 42
192.0
  3
INABA_S40G
100
AcDbAlignedDimension
 13
6216.174534306109
 23
2080.279021474087
 33
0.0
 14
6024.174534306109
 24
2080.279021474087
 34
0.0
100
AcDbRotatedDimension
1001
ACAD
1000
DSTYLE
1002
{
1070
   174
1070
     0
1070
   272
1070
     1
1070
   279
1070
     1
1070
   288
1070
     0
1070
   341
1005
0
1002
}
  0
MTEXT
  5
21727
102
{ACAD_REACTORS
330
2177C
102
}
330
747D
100
AcDbEntity
  8
寸法
 62
     7
 48
50.0
100
AcDbMText
 10
6457.912990167359
 20
1118.929935741934
 30
0.0
 40
80.0
 41
0.8
 71
     4
 72
     1
  1
\A1;D10@300
  7
STYLE2
 73
     1
 44
1.0
1001
ACAD
1000
MTEXTBEGIN
1070
    73
1070
     1
1070
    44
1040
1.0
1070
    74
1070
     0
1000
MTEXTEND
  0
LINE
  5
21728
330
747D
100
AcDbEntity
  8
細線
 48
50.0
100
AcDbLine
 10
6144.174534306115
 20
1730.066535599467
 30
0.0
 11
6216.174534306102
 21
1802.066535599462
 31
0.0
  0
LINE
  5
21729
330
747D
100
AcDbEntity
  8
細線
 48
50.0
100
AcDbLine
 10
6144.17453430611
 20
1757.007303962673
 30
0.0
 11
6216.174534306109
 21
1829.007303962673
 31
0.0
  0
LINE
  5
2172A
330
747D
100
AcDbEntity
  8
細線
 48
50.0
100
AcDbLine
 10
6144.174534306115
 20
1487.599620330598
 30
0.0
 11
6216.174534306102
 21
1559.599620330599
 31
0.0
  0
LINE
  5
2172B
330
747D
100
AcDbEntity
  8
細線
 48
50.0
100
AcDbLine
 10
6144.174534306115
 20
1541.481157057016
 30
0.0
 11
6216.174534306102
 21
1613.481157057013
 31
0.0
  0
LINE
  5
2172C
330
747D
100
AcDbEntity
  8
細線
 48
50.0
100
AcDbLine
 10
6144.174534306115
 20
1514.540388693808
 30
0.0
 11
6216.174534306102
 21
1586.540388693803
 31
0.0
  0
LINE
  5
2172D
330
747D
100
AcDbEntity
  8
部品1
 48
50.0
100
AcDbLine
 10
6216.174534306109
 20
1536.279021474087
 30
0.0
 11
6344.174534306109
 21
1536.279021474087
 31
0.0
  0
LINE
  5
2172E
330
747D
100
AcDbEntity
  8
細線
 48
50.0
100
AcDbLine
 10
6144.174534306115
 20
1703.125767236258
 30
0.0
 11
6216.174534306102
 21
1775.125767236258
 31
0.0
  0
LINE
  5
2172F
330
747D
100
AcDbEntity
  8
部品1
 48
50.0
100
AcDbLine
 10
6112.17453430611
 20
1882.406236171209
 30
0.0
 11
6112.17453430611
 21
1940.533450868333
 31
0.0
  0
LINE
  5
21730
330
747D
100
AcDbEntity
  8
細線
 48
50.0
100
AcDbLine
 10
6024.174534306109
 20
1852.533450868332
 30
0.0
 11
6096.17453430611
 21
1924.533450868333
 31
0.0
  0
LINE
  5
21731
330
747D
100
AcDbEntity
  8
部品1
 48
50.0
100
AcDbLine
 10
6096.17453430611
 20
1882.406236171213
 30
0.0
 11
6096.17453430611
 21
1940.533450868333
 31
0.0
  0
LINE
  5
21732
330
747D
100
AcDbEntity
  8
細線
 48
50.0
100
AcDbLine
 10
6024.174534306109
 20
1825.592682505124
 30
0.0
 11
6096.17453430611
 21
1897.592682505124
 31
0.0
  0
LINE
  5
21733
330
747D
100
AcDbEntity
  8
細線
 48
50.0
100
AcDbLine
 10
6024.174534306109
 20
1798.651914141917
 30
0.0
 11
6107.928856335403
 21
1882.406236171209
 31
0.0
  0
LINE
  5
21734
330
747D
100
AcDbEntity
  8
部品1
 48
50.0
100
AcDbLine
 10
6112.17453430611
 20
1882.406236171209
 30
0.0
 11
6096.17453430611
 21
1882.406236171213
 31
0.0
  0
LINE
  5
21735
330
747D
100
AcDbEntity
  8
細線
 48
50.0
100
AcDbLine
 10
5896.174534306101
 20
1509.007303962673
 30
0.0
 11
5923.446251817523
 21
1536.279021474087
 31
0.0
  0
LINE
  5
21736
330
747D
100
AcDbEntity
  8
細線
 48
50.0
100
AcDbLine
 10
5896.174534306101
 20
1482.066535599462
 30
0.0
 11
5950.387020180734
 21
1536.279021474087
 31
0.0
  0
LINE
  5
21737
330
747D
100
AcDbEntity
  8
部品1
 48
50.0
100
AcDbLine
 10
5896.174534306109
 20
1536.279021474087
 30
0.0
 11
6024.174534306109
 21
1536.279021474087
 31
0.0
  0
LINE
  5
21738
330
747D
100
AcDbEntity
  8
細線
 48
50.0
100
AcDbLine
 10
6112.17453430611
 20
1913.592682505124
 30
0.0
 11
6128.17453430611
 21
1929.592682505125
 31
0.0
  0
LINE
  5
21739
330
747D
100
AcDbEntity
  8
細線
 48
50.0
100
AcDbLine
 10
6112.17453430611
 20
1886.651914141917
 30
0.0
 11
6128.17453430611
 21
1902.651914141917
 31
0.0
  0
LINE
  5
2173A
330
747D
100
AcDbEntity
  8
細線
 48
50.0
100
AcDbLine
 10
6024.174534306109
 20
1583.125767236258
 30
0.0
 11
6128.174534306115
 21
1687.125767236258
 31
0.0
  0
LINE
  5
2173B
330
747D
100
AcDbEntity
  8
細線
 48
50.0
100
AcDbLine
 10
6024.174534306109
 20
1637.007303962673
 30
0.0
 11
6128.17453430611
 21
1741.007303962673
 31
0.0
  0
LINE
  5
2173C
330
747D
100
AcDbEntity
  8
細線
 48
50.0
100
AcDbLine
 10
6024.174534306109
 20
1610.066535599465
 30
0.0
 11
6128.174534306115
 21
1714.066535599468
 31
0.0
  0
LINE
  5
2173D
330
747D
100
AcDbEntity
  8
細線
 48
50.0
100
AcDbLine
 10
6287.000179709457
 20
1272.279021474087
 30
0.0
 11
6280.56939909111
 21
1296.279021474087
 31
0.0
  0
LINE
  5
2173E
330
747D
100
AcDbEntity
  8
細線
 48
50.0
100
AcDbLine
 10
6330.024692534503
 20
1296.279021474087
 30
0.0
 11
6344.174534306109
 21
1310.428863245693
 31
0.0
  0
LINE
  5
2173F
330
747D
100
AcDbEntity
  8
細線
 48
50.0
100
AcDbLine
 10
6365.888224656703
 20
1272.279021474087
 30
0.0
 11
6359.457444038356
 21
1296.279021474087
 31
0.0
  0
LINE
  5
21740
330
747D
100
AcDbEntity
  8
部品1
 48
50.0
100
AcDbLine
 10
6288.174534306109
 20
1408.279021474087
 30
0.0
 11
6288.174534306109
 21
1392.279021474087
 31
0.0
  0
LINE
  5
21741
330
747D
100
AcDbEntity
  8
細線
 48
50.0
100
AcDbLine
 10
6168.380082355256
 20
1296.279021474087
 30
0.0
 11
6264.380970200393
 21
1392.279909319226
 31
0.0
  0
LINE
  5
21742
330
747D
100
AcDbEntity
  8
細線
 48
50.0
100
AcDbLine
 10
6141.439313992053
 20
1296.279021474087
 30
0.0
 11
6237.439313992053
 21
1392.279021474087
 31
0.0
  0
LINE
  5
21743
330
747D
100
AcDbEntity
  8
細線
 48
50.0
100
AcDbLine
 10
6208.112134762211
 20
1272.279021474087
 30
0.0
 11
6201.681354143865
 21
1296.279021474087
 31
0.0
  0
LINE
  5
21744
330
747D
100
AcDbEntity
  8
細線
 48
50.0
100
AcDbLine
 10
6129.224089814965
 20
1272.279021474087
 30
0.0
 11
6122.793309196618
 21
1296.279021474087
 31
0.0
  0
ARC
  5
21745
330
747D
100
AcDbEntity
  8
部品1
 48
50.0
100
AcDbCircle
 10
6120.174534306109
 20
1416.279021474087
 30
0.0
 40
24.0
100
AcDbArc
 50
340.5287793654771
 51
0.0
  0
CIRCLE
  5
21746
330
747D
100
AcDbEntity
  8
部品1
 48
50.0
100
AcDbCircle
 10
6248.174534306109
 20
1416.279021474087
 30
0.0
 40
8.0
  0
LINE
  5
21747
330
747D
100
AcDbEntity
  8
細線
 48
50.0
100
AcDbLine
 10
6280.380082355256
 20
1408.279021474087
 30
0.0
 11
6344.174534306109
 21
1472.073473424938
 31
0.0
  0
LINE
  5
21748
330
747D
100
AcDbEntity
  8
細線
 48
50.0
100
AcDbLine
 10
6416.909553591112
 20
1168.279021474085
 30
0.0
 11
6424.17453430611
 21
1195.392298618475
 31
0.0
  0
LINE
  5
21749
330
747D
100
AcDbEntity
  8
細線
 48
50.0
100
AcDbLine
 10
6423.340334209462
 20
1192.279021474087
 30
0.0
 11
6424.17453430611
 21
1189.165744329723
 31
0.0
  0
LINE
  5
2174A
330
747D
100
AcDbEntity
  8
細線
 48
50.0
100
AcDbLine
 10
6344.452289262214
 20
1192.279021474087
 30
0.0
 11
6350.883069880563
 21
1168.279021474087
 31
0.0
  0
LINE
  5
2174B
330
747D
100
AcDbEntity
  8
細線
 48
50.0
100
AcDbLine
 10
6186.676199367722
 20
1192.279021474087
 30
0.0
 11
6193.106979986068
 21
1168.279021474087
 31
0.0
  0
LINE
  5
2174C
330
747D
100
AcDbEntity
  8
細線
 48
50.0
100
AcDbLine
 10
6265.564244314967
 20
1192.279021474087
 30
0.0
 11
6271.995024933315
 21
1168.279021474087
 31
0.0
  0
LINE
  5
2174D
330
747D
100
AcDbEntity
  8
細線
 48
50.0
100
AcDbLine
 10
6259.133463696617
 20
1168.279021474085
 30
0.0
 11
6293.430960327802
 21
1296.279021474085
 31
0.0
  0
LINE
  5
2174E
330
747D
100
AcDbEntity
  8
細線
 48
50.0
100
AcDbLine
 10
6180.245418749368
 20
1168.279021474087
 30
0.0
 11
6214.542915380555
 21
1296.279021474085
 31
0.0
  0
LINE
  5
2174F
330
747D
100
AcDbEntity
  8
細線
 48
50.0
100
AcDbLine
 10
6338.021508643863
 20
1168.279021474087
 30
0.0
 11
6372.319005275048
 21
1296.279021474085
 31
0.0
  0
LINE
  5
21750
330
747D
100
AcDbEntity
  8
部品1
 48
50.0
100
AcDbLine
 10
6424.174534306112
 20
1296.279021474087
 30
0.0
 11
6424.174534306112
 21
1168.279021474087
 31
0.0
  0
LINE
  5
21751
330
747D
100
AcDbEntity
  8
部品1
 48
50.0
100
AcDbLine
 10
6112.17453430611
 20
1474.406236171209
 30
0.0
 11
6112.17453430611
 21
1416.279021474087
 31
0.0
  0
LINE
  5
21752
330
747D
100
AcDbEntity
  8
細線
 48
50.0
100
AcDbLine
 10
6037.913167086393
 20
1408.279021474087
 30
0.0
 11
6096.17453430611
 21
1466.540388693806
 31
0.0
  0
LINE
  5
21753
330
747D
100
AcDbEntity
  8
部品1
 48
50.0
100
AcDbLine
 10
6096.17453430611
 20
1474.406236171209
 30
0.0
 11
6096.17453430611
 21
1416.279021474087
 31
0.0
  0
LINE
  5
21754
330
747D
100
AcDbEntity
  8
細線
 48
50.0
100
AcDbLine
 10
5952.853935449598
 20
1296.279021474087
 30
0.0
 11
6048.853935449598
 21
1392.279021474087
 31
0.0
  0
LINE
  5
21755
330
747D
100
AcDbEntity
  8
細線
 48
50.0
100
AcDbLine
 10
6050.336044867713
 20
1272.279021474087
 30
0.0
 11
6043.905264249367
 21
1296.279021474087
 31
0.0
  0
LINE
  5
21756
330
747D
100
AcDbEntity
  8
細線
 48
50.0
100
AcDbLine
 10
5971.44799992046
 20
1272.279021474087
 30
0.0
 11
5965.017219302115
 21
1296.279021474087
 31
0.0
  0
ARC
  5
21757
330
747D
100
AcDbEntity
  8
部品1
 48
50.0
100
AcDbCircle
 10
6120.174534306109
 20
1416.279021474087
 30
0.0
 40
24.0
100
AcDbArc
 50
180.0
 51
199.4712206345229
  0
LINE
  5
21758
330
747D
100
AcDbEntity
  8
細線
 48
50.0
100
AcDbLine
 10
6064.853935449598
 20
1408.279021474087
 30
0.0
 11
6096.17453430611
 21
1439.599620330598
 31
0.0
  0
CIRCLE
  5
21759
330
747D
100
AcDbEntity
  8
部品1
 48
50.0
100
AcDbCircle
 10
5992.174534306109
 20
1416.279021474087
 30
0.0
 40
8.0
  0
LINE
  5
2175A
330
747D
100
AcDbEntity
  8
部品1
 48
50.0
100
AcDbLine
 10
6112.17453430611
 20
1474.406236171209
 30
0.0
 11
6096.17453430611
 21
1474.406236171209
 31
0.0
  0
LINE
  5
2175B
330
747D
100
AcDbEntity
  8
細線
 48
50.0
100
AcDbLine
 10
5816.174534306109
 20
1281.618942439867
 30
0.0
 11
5820.102690644304
 21
1296.279021474087
 31
0.0
  0
LINE
  5
2175C
330
747D
100
AcDbEntity
  8
細線
 48
50.0
100
AcDbLine
 10
5892.55995497321
 20
1272.279021474087
 30
0.0
 11
5886.129174354862
 21
1296.279021474087
 31
0.0
  0
LINE
  5
2175D
330
747D
100
AcDbEntity
  8
部品1
 48
50.0
100
AcDbLine
 10
5952.174534306109
 20
1408.279021474087
 30
0.0
 11
5952.174534306109
 21
1392.279021474087
 31
0.0
  0
LINE
  5
2175E
330
747D
100
AcDbEntity
  8
細線
 48
50.0
100
AcDbLine
 10
5898.972398723182
 20
1296.279021474087
 30
0.0
 11
5994.972398723182
 21
1392.279021474087
 31
0.0
  0
LINE
  5
2175F
330
747D
100
AcDbEntity
  8
細線
 48
50.0
100
AcDbLine
 10
5925.913167086393
 20
1296.279021474087
 30
0.0
 11
6021.913167086393
 21
1392.279021474087
 31
0.0
  0
LINE
  5
21760
330
747D
100
AcDbEntity
  8
細線
 48
50.0
100
AcDbLine
 10
6028.900109473224
 20
1192.279021474087
 30
0.0
 11
6035.33089009157
 21
1168.279021474087
 31
0.0
  0
LINE
  5
21761
330
747D
100
AcDbEntity
  8
細線
 48
50.0
100
AcDbLine
 10
6107.788154420476
 20
1192.279021474087
 30
0.0
 11
6114.218935038823
 21
1168.279021474087
 31
0.0
  0
LINE
  5
21762
330
747D
100
AcDbEntity
  8
細線
 48
50.0
100
AcDbLine
 10
5871.12401957872
 20
1192.279021474087
 30
0.0
 11
5877.554800197066
 21
1168.279021474087
 31
0.0
  0
LINE
  5
21763
330
747D
100
AcDbEntity
  8
細線
 48
50.0
100
AcDbLine
 10
5950.012064525971
 20
1192.279021474087
 30
0.0
 11
5956.442845144319
 21
1168.279021474087
 31
0.0
  0
LINE
  5
21764
330
747D
100
AcDbEntity
  8
部品1
 48
50.0
100
AcDbLine
 10
5816.174534306111
 20
1168.279021474087
 30
0.0
 11
5816.174534306111
 21
1296.279021474087
 31
0.0
  0
LINE
  5
21765
330
747D
100
AcDbEntity
  8
細線
 48
50.0
100
AcDbLine
 10
5864.693238960366
 20
1168.279021474085
 30
0.0
 11
5898.99073559155
 21
1296.279021474085
 31
0.0
  0
LINE
  5
21766
330
747D
100
AcDbEntity
  8
細線
 48
50.0
100
AcDbLine
 10
6022.469328854871
 20
1168.279021474085
 30
0.0
 11
6056.766825486054
 21
1296.279021474085
 31
0.0
  0
LINE
  5
21767
330
747D
100
AcDbEntity
  8
細線
 48
50.0
100
AcDbLine
 10
5943.581283907626
 20
1168.279021474087
 30
0.0
 11
5977.878780538809
 21
1296.279021474087
 31
0.0
  0
LINE
  5
21768
330
747D
100
AcDbEntity
  8
細線
 48
50.0
100
AcDbLine
 10
6114.498545628842
 20
1296.279021474087
 30
0.0
 11
6210.498545628842
 21
1392.279021474087
 31
0.0
  0
CIRCLE
  5
21769
330
747D
100
AcDbEntity
  8
部品1
 48
50.0
100
AcDbCircle
 10
6120.174534306109
 20
1416.279021474087
 30
0.0
 40
8.0
  0
LINE
  5
2176A
330
747D
100
AcDbEntity
  8
部品1
 48
50.0
100
AcDbLine
 10
6424.174534306112
 20
1296.279021474087
 30
0.0
 11
5816.174534306111
 21
1296.279021474087
 31
0.0
  0
LINE
  5
2176B
330
747D
100
AcDbEntity
  8
部品1
 48
50.0
100
AcDbLine
 10
5952.174534306109
 20
1408.279021474087
 30
0.0
 11
6288.174534306109
 21
1408.279021474087
 31
0.0
  0
LINE
  5
2176C
330
747D
100
AcDbEntity
  8
部品1
 48
50.0
100
AcDbLine
 10
5952.174534306109
 20
1392.279021474087
 30
0.0
 11
6288.174534306109
 21
1392.279021474087
 31
0.0
  0
LINE
  5
2176D
330
747D
100
AcDbEntity
  8
部品1
 48
50.0
100
AcDbLine
 10
6424.174534306112
 20
1168.279021474087
 30
0.0
 11
5816.174534306111
 21
1168.279021474087
 31
0.0
  0
LINE
  5
2176E
330
747D
100
AcDbEntity
  8
細線
 48
50.0
100
AcDbLine
 10
6101.357373802123
 20
1168.279021474087
 30
0.0
 11
6135.654870433306
 21
1296.279021474087
 31
0.0
  0
LINE
  5
2176F
330
747D
100
AcDbEntity
  8
細線
 48
50.0
100
AcDbLine
 10
6112.17453430611
 20
1455.599620330598
 30
0.0
 11
6128.174534306115
 21
1471.599620330598
 31
0.0
  0
LINE
  5
21770
330
747D
100
AcDbEntity
  8
部品1
 48
50.0
100
AcDbLine
 10
6128.174534306115
 20
1416.279021474087
 30
0.0
 11
6128.174534306102
 21
1940.533450868333
 31
0.0
  0
LINE
  5
21771
330
747D
100
AcDbEntity
  8
部品1
 48
50.0
100
AcDbLine
 10
6144.174534306115
 20
1416.279021474087
 30
0.0
 11
6144.17453430611
 21
1940.533450868333
 31
0.0
  0
LINE
  5
21772
330
747D
100
AcDbEntity
  8
部品1
 48
50.0
100
AcDbLine
 10
6344.174534306109
 20
1536.279021474087
 30
0.0
 11
6344.174534306109
 21
1296.279021474087
 31
0.0
  0
LINE
  5
21773
330
747D
100
AcDbEntity
  8
細線
 48
50.0
100
AcDbLine
 10
6226.498545628837
 20
1408.279021474087
 30
0.0
 11
6344.174534306109
 21
1525.955010151353
 31
0.0
  0
LINE
  5
21774
330
747D
100
AcDbEntity
  8
細線
 48
50.0
100
AcDbLine
 10
6253.439313992053
 20
1408.279021474087
 30
0.0
 11
6344.174534306109
 21
1499.014241788146
 31
0.0
  0
LINE
  5
21775
330
747D
100
AcDbEntity
  8
部品1
 48
50.0
100
AcDbLine
 10
5896.174534306109
 20
1296.279021474087
 30
0.0
 11
5896.174534306109
 21
1536.279021474087
 31
0.0
  0
LINE
  5
21776
330
747D
100
AcDbEntity
  8
細線
 48
50.0
100
AcDbLine
 10
6010.972398723182
 20
1408.279021474087
 30
0.0
 11
6128.17453430611
 21
1525.481157057012
 31
0.0
  0
LINE
  5
21777
330
747D
100
AcDbEntity
  8
細線
 48
50.0
100
AcDbLine
 10
6104.040381783513
 20
1474.406236171209
 30
0.0
 11
6128.174534306115
 21
1498.540388693808
 31
0.0
  0
LINE
  5
21778
330
747D
100
AcDbEntity
  8
細線
 48
50.0
100
AcDbLine
 10
5896.174534306101
 20
1455.125767236258
 30
0.0
 11
5977.327788543938
 21
1536.279021474087
 31
0.0
  0
LEADER
  5
21779
330
747D
100
AcDbEntity
  8
寸法
 48
50.0
100
AcDbLeader
  3
INABA_S50G
 71
     0
 73
     0
 74
     0
 75
     1
 40
100.0
 41
222.7272727272727
 76
     3
 10
6120.174534306109
 20
1940.533450868333
 30
0.0
 10
6154.060471333504
 20
1881.546582773015
 30
0.0
 10
6279.060471333504
 20
1881.546582773015
 30
0.0
1001
ACAD
1000
DSTYLE
1002
{
1070
    40
1040
1.0
1070
   272
1070
     1
1070
   279
1070
     1
1070
   341
1005
0
1002
}
  0
LWPOLYLINE
  5
2177A
330
747D
100
AcDbEntity
  8
部品1
 48
50.0
100
AcDbPolyline
 90
        2
 70
     0
 43
8.0
 10
6216.174534306109
 20
1840.279021474088
 10
6630.314436139066
 20
1840.279021474088
  0
MTEXT
  5
2177B
102
{ACAD_REACTORS
330
2177D
102
}
330
747D
100
AcDbEntity
  8
寸法
 62
     7
 48
50.0
100
AcDbMText
 10
6447.502194112793
 20
1380.881952531115
 30
0.0
 40
80.0
 41
0.8
 71
     4
 72
     1
  1
D10
  7
STYLE2
 73
     1
 44
1.0
1001
ACAD
1000
MTEXTBEGIN
1070
    73
1070
     1
1070
    44
1040
1.0
1070
    74
1070
     0
1000
MTEXTEND
  0
LEADER
  5
2177C
330
747D
100
AcDbEntity
  8
寸法
 48
50.0
100
AcDbLeader
  3
INABA_S50G
 71
     0
 73
     0
 74
     0
 75
     1
 40
100.0
 41
540.3409090909091
 76
     3
 10
6194.119703319283
 20
1399.538491060561
 30
0.0
 10
6312.91299016736
 20
1057.907673065664
 30
0.0
 10
6437.912990167359
 20
1057.907673065664
 30
0.0
213
0.0
223
-1.022262676269383
233
0.0
1001
ACAD
1000
DSTYLE
1002
{
1070
    40
1040
1.0
1070
   272
1070
     1
1070
   279
1070
     1
1070
   341
1005
0
1002
}
  0
LEADER
  5
2177D
330
747D
100
AcDbEntity
  8
寸法
 48
50.0
100
AcDbLeader
  3
INABA_S50G
 71
     0
 73
     0
 74
     0
 75
     1
 40
100.0
 41
225.0
 76
     3
 10
6248.077486658251
 20
1416.279021474087
 30
0.0
 10
6302.502194112793
 20
1320.881952531114
 30
0.0
 10
6427.502194112793
 20
1320.881952531114
 30
0.0
1001
ACAD
1000
DSTYLE
1002
{
1070
    40
1040
1.0
1070
   272
1070
     1
1070
   279
1070
     1
1070
   341
1005
0
1002
}
  0
MTEXT
  5
2177E
102
{ACAD_REACTORS
330
21779
102
}
330
747D
100
AcDbEntity
  8
寸法
 62
     7
 48
50.0
100
AcDbMText
 10
6299.060471333503
 20
1941.546582773015
 30
0.0
 40
80.0
 41
0.8
 71
     4
 72
     1
  1
D13
  7
STYLE2
 73
     1
 44
1.0
1001
ACAD
1000
MTEXTBEGIN
1070
    73
1070
     1
1070
    44
1040
1.0
1070
    74
1070
     0
1000
MTEXTEND
  0
LINE
  5
2177F
330
747D
100
AcDbEntity
  8
部品1
 48
50.0
100
AcDbLine
 10
6216.174534306109
 20
2080.279021474087
 30
0.0
 11
6216.174534306109
 21
1536.279021474087
 31
0.0
  0
LINE
  5
21780
330
747D
100
AcDbEntity
  8
部品1
 48
50.0
100
AcDbLine
 10
6024.174534306109
 20
1536.279021474087
 30
0.0
 11
6024.174534306109
 21
2080.279021474087
 31
0.0
  0
CIRCLE
  5
21781
330
747D
100
AcDbEntity
  8
部品1
 48
50.0
100
AcDbCircle
 10
6120.174534306109
 20
1940.533450868333
 30
0.0
 40
8.0
  0
ARC
  5
21782
330
747D
100
AcDbEntity
  8
部品1
 48
50.0
100
AcDbCircle
 10
6120.174534306109
 20
1940.533450868333
 30
0.0
 40
24.0
100
AcDbArc
 50
0.0
 51
180.0
  0
LINE
  5
21783
330
747D
100
AcDbEntity
  8
細線
 48
50.0
100
AcDbLine
 10
6144.17453430611
 20
1918.651914141917
 30
0.0
 11
6216.174534306109
 21
1990.651914141918
 31
0.0
  0
LEADER
  5
21784
330
747D
100
AcDbEntity
  8
寸法
 48
50.0
100
AcDbLeader
  3
INABA_S50G
 73
     0
 75
     1
 40
106.3636363636363
 41
920.0
 76
     3
 10
7855.613847483302
 20
2149.839021474088
 30
0.0
 10
7807.189775138365
 20
2523.898596190421
 30
0.0
 10
7682.189775138365
 20
2523.898596190421
 30
0.0
340
21785
1001
ACAD
1000
DSTYLE
1002
{
1070
   341
1005
0
1070
    40
1040
1.0
1070
   343
1005
0
1070
   344
1005
0
1002
}
  0
MTEXT
  5
21785
102
{ACAD_REACTORS
330
21784
102
}
330
747D
100
AcDbEntity
  8
寸法
 62
     7
 48
50.0
100
AcDbMText
 10
7657.189775138364
 20
2602.080414372239
 30
0.0
 40
80.0
 41
0.8
 71
     6
 72
     1
  1
アンカープレート Ｕ
  7
STYLE2
 73
     1
 44
1.0
1001
ACAD
1000
MTEXTBEGIN
1070
    73
1070
     1
1070
    44
1040
1.0
1070
    74
1070
     0
1000
MTEXTEND
  0
DIMENSION
  5
21786
330
747D
100
AcDbEntity
  8
寸法
 48
50.0
100
AcDbDimension
  2
*D42
 10
6344.174534306109
 20
757.849383468927
 30
0.0
 11
6100.077775627885
 21
757.849383468927
 31
0.0
 70
   160
  1
300
 71
     5
 42
448.0
  3
INABA_S40G
100
AcDbAlignedDimension
 13
5896.174534306108
 23
1168.279021474087
 33
0.0
 14
6344.174534306109
 24
1168.279021474087
 34
0.0
100
AcDbRotatedDimension
1001
ACAD
1000
DSTYLE
1002
{
1070
   174
1070
     0
1070
   272
1070
     1
1070
   279
1070
     1
1070
   288
1070
     0
1070
   341
1005
0
1002
}
  0
MTEXT
  5
21787
102
{ACAD_REACTORS
330
2178F
102
}
330
747D
100
AcDbEntity
  8
寸法
 62
     7
 48
50.0
100
AcDbMText
 10
5725.239508110914
 20
1212.756327855651
 30
0.0
 40
80.0
 41
0.8
 71
     6
 72
     1
  1
D10
  7
STYLE2
 73
     1
 44
1.0
1001
ACAD
1000
MTEXTBEGIN
1070
    73
1070
     1
1070
    44
1040
1.0
1070
    74
1070
     0
1000
MTEXTEND
  0
MTEXT
  5
21788
102
{ACAD_REACTORS
330
2178E
102
}
330
747D
100
AcDbEntity
  8
寸法
 62
     7
 48
50.0
100
AcDbMText
 10
5753.362235668349
 20
1032.440175316207
 30
0.0
 40
80.0
 41
0.8
 71
     6
 72
     1
  1
D13
  7
STYLE2
 73
     1
 44
1.0
1001
ACAD
1000
MTEXTBEGIN
1070
    73
1070
     1
1070
    44
1040
1.0
1070
    74
1070
     0
1000
MTEXTEND
  0
DIMENSION
  5
21789
330
747D
100
AcDbEntity
  8
寸法
 48
50.0
100
AcDbDimension
  2
*D43
 10
5289.137295744367
 20
1296.279021474087
 30
0.0
 11
5289.137295744368
 21
1667.819171130088
 31
0.0
 70
   160
  1
540
 71
     5
 42
784.0
  3
INABA_S40G
100
AcDbAlignedDimension
 13
6024.174534306109
 23
2080.279021474087
 33
0.0
 14
5816.174534306112
 24
1296.279021474087
 34
0.0
 50
90.0
100
AcDbRotatedDimension
1001
ACAD
1000
DSTYLE
1002
{
1070
   174
1070
     0
1070
   272
1070
     1
1070
   279
1070
     1
1070
   288
1070
     0
1070
   341
1005
0
1002
}
  0
MTEXT
  5
2178A
102
{ACAD_REACTORS
330
2178B
102
}
330
747D
100
AcDbEntity
  8
寸法
 62
     7
 48
50.0
100
AcDbMText
 10
5804.076054822836
 20
2292.795241476129
 30
0.0
 40
80.0
 41
0.8
 71
     6
 72
     1
  1
\A1;金コテ押エ
  7
STYLE2
 73
     1
 44
1.0
1001
ACAD
1000
MTEXTBEGIN
1070
    73
1070
     1
1070
    44
1040
1.0
1070
    74
1070
     0
1000
MTEXTEND
  0
LEADER
  5
2178B
330
747D
100
AcDbEntity
  8
寸法
 48
50.0
100
AcDbLeader
  3
INABA_S50G
 71
     0
 73
     0
 75
     1
 40
130.1136363636363
 41
651.1363636363636
 76
     3
 10
6104.174534306109
 20
2080.279021474087
 30
0.0
 10
5991.749954142092
 20
2220.749786930675
 30
0.0
 10
5866.749954142092
 20
2220.749786930675
 30
0.0
1001
ACAD
1000
DSTYLE
1002
{
1070
    40
1040
1.0
1070
   272
1070
     1
1070
   279
1070
     1
1070
   341
1005
0
1002
}
  0
LEADER
  5
2178C
330
747D
100
AcDbEntity
  8
寸法
 48
50.0
100
AcDbLeader
  3
INABA_S50G
 71
     0
 73
     0
 75
     1
 40
100.0
 41
540.3409090909091
 76
     3
 10
6128.174534306108
 20
1838.40623617121
 30
0.0
 10
6070.19229777741
 20
1616.935907630405
 30
0.0
 10
5945.19229777741
 20
1616.935907630405
 30
0.0
213
-9.732182305893367
223
-4.643716661138569
233
0.0
1001
ACAD
1000
DSTYLE
1002
{
1070
    40
1040
1.0
1070
   272
1070
     1
1070
   279
1070
     1
1070
   341
1005
0
1002
}
  0
MTEXT
  5
2178D
102
{ACAD_REACTORS
330
2178C
102
}
330
747D
100
AcDbEntity
  8
寸法
 62
     7
 48
50.0
100
AcDbMText
 10
5934.924480083304
 20
1681.579624291544
 30
0.0
 40
80.0
 41
0.8
 71
     6
 72
     1
  1
\A1;D10@300
  7
STYLE2
 73
     1
 44
1.0
1001
ACAD
1000
MTEXTBEGIN
1070
    73
1070
     1
1070
    44
1040
1.0
1070
    74
1070
     0
1000
MTEXTEND
  0
LEADER
  5
2178E
330
747D
100
AcDbEntity
  8
寸法
 48
50.0
100
AcDbLeader
  3
INABA_S50G
 71
     0
 73
     0
 75
     1
 40
100.0
 41
222.7272727272727
 76
     3
 10
6120.174534306109
 20
1416.279021474087
 30
0.0
 10
5898.362235668349
 20
972.4401753162073
 30
0.0
 10
5773.362235668349
 20
972.4401753162073
 30
0.0
1001
ACAD
1000
DSTYLE
1002
{
1070
    40
1040
1.0
1070
   272
1070
     1
1070
   279
1070
     1
1070
   341
1005
0
1002
}
  0
LEADER
  5
2178F
330
747D
100
AcDbEntity
  8
寸法
 48
50.0
100
AcDbLeader
  3
INABA_S50G
 71
     0
 73
     0
 75
     1
 40
100.0
 41
225.0
 76
     3
 10
5992.077486658252
 20
1416.279021474087
 30
0.0
 10
5870.239508110914
 20
1152.756327855651
 30
0.0
 10
5745.239508110914
 20
1152.756327855651
 30
0.0
1001
ACAD
1000
DSTYLE
1002
{
1070
    40
1040
1.0
1070
   272
1070
     1
1070
   279
1070
     1
1070
   341
1005
0
1002
}
  0
DIMENSION
  5
21790
330
747D
100
AcDbEntity
  8
寸法
 48
50.0
100
AcDbDimension
  2
*D44
 10
5753.754220573649
 20
1296.279021474087
 30
0.0
 11
5753.754220573649
 21
1416.279021474087
 31
0.0
 70
   160
  1
150
 71
     5
 42
240.0
  3
INABA_S40G
100
AcDbAlignedDimension
 13
5896.174534306108
 23
1536.279021474087
 33
0.0
 14
5816.174534306112
 24
1296.279021474087
 34
0.0
 50
90.0
100
AcDbRotatedDimension
1001
ACAD
1000
DSTYLE
1002
{
1070
   174
1070
     0
1070
   272
1070
     1
1070
   279
1070
     1
1070
   288
1070
     0
1070
   341
1005
0
1002
}
  0
TEXT
  5
21791
330
747D
100
AcDbEntity
  8
部品1
 48
50.0
100
AcDbText
 10
5610.034632473151
 20
1851.518013757342
 30
0.0
 40
80.0
  1
▽G.L
  7
STYLE2
100
AcDbText
  0
LWPOLYLINE
  5
21792
330
747D
100
AcDbEntity
  8
部品1
 48
50.0
100
AcDbPolyline
 90
        2
 70
     0
 43
8.0
 10
5610.034632473151
 20
1840.279021474088
 10
6024.174534306109
 20
1840.279021474088
  0
MTEXT
  5
21793
102
{ACAD_REACTORS
330
21794
102
}
330
747D
100
AcDbEntity
  8
寸法
 62
     7
 48
50.0
100
AcDbMText
 10
7630.546768930006
 20
2962.764686279753
 30
0.0
 40
80.0
 41
0.8
 71
     6
 72
     1
  1
\A1;φ70スリーブ
  7
STYLE2
 73
     1
 44
1.0
1001
ACAD
1000
MTEXTBEGIN
1070
    73
1070
     1
1070
    44
1040
1.0
1070
    74
1070
     0
1000
MTEXTEND
  0
LEADER
  5
21794
330
747D
100
AcDbEntity
  8
寸法
 48
50.0
100
AcDbLeader
  3
INABA_S50G
 73
     0
 75
     1
 40
113.1818181818182
 41
608.6363636363635
 76
     3
 10
7914.350597621353
 20
2029.794694832366
 30
0.0
 10
7780.546768930006
 20
2881.173777188844
 30
0.0
 10
7655.546768930006
 20
2881.173777188844
 30
0.0
340
21793
1001
ACAD
1000
DSTYLE
1002
{
1070
   341
1005
0
1070
    40
1040
1.0
1070
   343
1005
0
1070
   344
1005
0
1002
}
  0
LINE
  5
21795
330
747D
100
AcDbEntity
  8
部品1
100
AcDbLine
 10
4953.506095496845
 20
3401.250641250932
 30
0.0
 11
4953.506095496848
 21
436.9436716662849
 31
0.0
  0
LEADER
  5
21796
330
747D
100
AcDbEntity
  8
寸法
 48
50.0
100
AcDbLeader
  3
INABA_S50G
 73
     0
 74
     0
 75
     1
 40
80.0
 41
435.0
 76
     3
 10
7954.613847483303
 20
2129.439021474088
 30
0.0
 10
7997.158309902622
 20
2279.662347627317
 30
0.0
 10
8122.158309902621
 20
2279.662347627317
 30
0.0
340
21797
1001
ACAD
1000
DSTYLE
1002
{
1070
   341
1005
0
1070
    40
1040
1.0
1070
   343
1005
0
1070
   344
1005
0
1002
}
  0
MTEXT
  5
21797
102
{ACAD_REACTORS
330
21796
102
}
330
747D
100
AcDbEntity
  8
部品1
 62
     7
 48
50.0
100
AcDbMText
 10
8147.158309902621
 20
2344.662347627317
 30
0.0
 40
80.0
 41
0.8
 71
     4
 72
     1
  1
M10X160
  7
STYLE2
 73
     1
 44
1.0
1001
ACAD
1000
MTEXTBEGIN
1070
    73
1070
     1
1070
    44
1040
1.0
1070
    74
1070
     0
1000
MTEXTEND
  0
DIMENSION
  5
21798
330
747D
100
AcDbEntity
  8
寸法
 48
50.0
100
AcDbDimension
  2
*D45
 10
8640.082447252146
 20
2080.279021474087
 30
0.0
 11
8916.137113371172
 21
2055.155063869875
 31
0.0
 70
   160
  1
20～25
 71
     5
 42
52.76000000000113
  3
INABA_S40G
100
AcDbAlignedDimension
 13
7951.013847483304
 23
2133.039021474088
 33
0.0
 14
8138.213847483303
 24
2080.279021474087
 34
0.0
 50
90.0
100
AcDbRotatedDimension
1001
ACAD
1000
DSTYLE
1002
{
1070
   174
1070
     0
1070
   272
1070
     1
1070
   279
1070
     1
1070
   288
1070
     0
1070
   341
1005
0
1002
}
  0
DIMENSION
  5
21799
330
747D
100
AcDbEntity
  8
寸法
 48
50.0
100
AcDbDimension
  2
*D46
 10
8640.082447252146
 20
1756.279021474086
 30
0.0
 11
8540.082447252144
 21
1918.279021474088
 31
0.0
 70
    32
  1
180
 71
     5
 42
324.0000000000009
  3
INABA_S40G
100
AcDbAlignedDimension
 13
8138.213847483303
 23
2080.279021474087
 33
0.0
 14
8138.213847483303
 24
1756.279021474086
 34
0.0
 50
90.0
100
AcDbRotatedDimension
1001
ACAD
1000
DSTYLE
1002
{
1070
   174
1070
     0
1070
   272
1070
     1
1070
   279
1070
     1
1070
   288
1070
     0
1070
   341
1005
0
1002
}
  0
TEXT
  5
2179A
330
747D
100
AcDbEntity
  8
部品1
 48
50.0
100
AcDbText
 10
8142.567431767732
 20
2436.157702236287
 30
0.0
 40
80.0
  1
基礎ボルト(市販品)
  7
STYLE2
100
AcDbText
  0
LWPOLYLINE
  5
2179B
330
747D
100
AcDbEntity
  8
部品1
 48
50.0
100
AcDbPolyline
 90
        2
 70
     0
 43
8.0
 10
8138.213847483303
 20
1840.279021474088
 10
8431.916310882687
 20
1840.279021474088
  0
MTEXT
  5
2179C
102
{ACAD_REACTORS
330
2179D
102
}
330
747D
100
AcDbEntity
  8
部品1
 62
     7
 48
50.0
100
AcDbMText
 10
8177.485437852141
 20
2780.774394561348
 30
0.0
 40
80.0
 41
0.8
 71
     4
 72
     1
  1
\A1;ワッシャー(市販品)
  7
STYLE2
 73
     1
 44
1.0
1001
ACAD
1000
MTEXTBEGIN
1070
    73
1070
     1
1070
    44
1040
1.0
1070
    74
1070
     0
1000
MTEXTEND
  0
LEADER
  5
2179D
330
747D
100
AcDbEntity
  8
寸法
 48
50.0
100
AcDbLeader
  3
INABA_S50G
 73
     0
 74
     0
 75
     1
 40
102.2727272727273
 41
906.8181818181818
 76
     3
 10
7985.613847483303
 20
2349.402309918367
 30
0.0
 10
8027.48543785214
 20
2704.638030924984
 30
0.0
 10
8152.48543785214
 20
2704.638030924984
 30
0.0
340
2179C
1001
ACAD
1000
DSTYLE
1002
{
1070
   341
1005
0
1070
    40
1040
1.0
1070
   343
1005
0
1070
   344
1005
0
1002
}
  0
MTEXT
  5
2179E
102
{ACAD_REACTORS
330
2179F
102
}
330
747D
100
AcDbEntity
  8
部品1
 62
     7
 48
50.0
100
AcDbMText
 10
8145.967818596661
 20
2965.743477326135
 30
0.0
 40
80.0
 41
0.8
 71
     4
 72
     1
  1
\A1;ナット(市販品)
  7
STYLE2
 73
     1
 44
1.0
1001
ACAD
1000
MTEXTBEGIN
1070
    73
1070
     1
1070
    44
1040
1.0
1070
    74
1070
     0
1000
MTEXTEND
  0
LEADER
  5
2179F
330
747D
100
AcDbEntity
  8
寸法
 48
50.0
100
AcDbLeader
  3
INABA_S50G
 73
     0
 74
     0
 75
     1
 40
102.2727272727273
 41
680.0000000000001
 76
     3
 10
7961.613847483302
 20
2479.15430258323
 30
0.0
 10
7995.96781859666
 20
2889.607113689771
 30
0.0
 10
8120.96781859666
 20
2889.607113689771
 30
0.0
340
2179E
1001
ACAD
1000
DSTYLE
1002
{
1070
   341
1005
0
1070
    40
1040
1.0
1070
   343
1005
0
1070
   344
1005
0
1002
}
  0
LINE
  5
217A0
330
747D
100
AcDbEntity
  8
部品1
100
AcDbLine
 10
4953.506095496849
 20
436.9436716662849
 30
0.0
 11
11024.49128088309
 21
436.9436716662849
 31
0.0
  0
LINE
  5
217A1
330
747D
100
AcDbEntity
  8
部品1
100
AcDbLine
 10
11024.49128088309
 20
3161.25064125093
 30
0.0
 11
4953.506095496848
 21
3161.250641250931
 31
0.0
  0
LINE
  5
217A2
330
747D
100
AcDbEntity
  8
部品1
100
AcDbLine
 10
11024.4912808831
 20
3401.250641250932
 30
0.0
 11
4953.506095496845
 21
3401.250641250932
 31
0.0
  0
LINE
  5
21953
330
747D
100
AcDbEntity
  8
部品1
 48
50.0
100
AcDbLine
 10
8683.6
 20
7846.907777930207
 30
0.0
 11
7763.600000000001
 21
7846.907777930208
 31
0.0
  0
LINE
  5
21954
102
{ACAD_REACTORS
330
219F8
102
}
330
747D
100
AcDbEntity
  8
部品1
 48
50.0
100
AcDbLine
 10
8793.599999999999
 20
5976.907777930224
 30
0.0
 11
8793.600000000001
 21
7736.907777930207
 31
0.0
  0
LINE
  5
21955
102
{ACAD_REACTORS
330
219C0
102
}
330
747D
100
AcDbEntity
  8
部品1
 48
50.0
100
AcDbLine
 10
7653.6
 20
5976.907777930208
 30
0.0
 11
7653.6
 21
7736.907777930205
 31
0.0
  0
LINE
  5
21956
102
{ACAD_REACTORS
330
219DC
102
}
330
747D
100
AcDbEntity
  8
部品1
 48
50.0
100
AcDbLine
 10
8683.6
 20
5866.907777930224
 30
0.0
 11
7763.600000000001
 21
5866.907777930212
 31
0.0
  0
HATCH
  5
219A3
330
747D
100
AcDbEntity
  8
細線
 48
50.0
100
AcDbHatch
 10
0.0
 20
0.0
 30
0.0
210
0.0
220
0.0
230
1.0
  2
LINE
 70
     0
 71
     0
 91
        1
 92
        7
 72
     0
 73
     1
 93
        4
 10
8321.107958019036
 20
7966.907777930207
 10
8121.107958019036
 20
7966.907777930209
 10
8121.107958019036
 20
7846.907777930208
 10
8321.107958019036
 20
7846.907777930208
 97
        0
 75
     0
 76
     1
 52
45.0
 41
10.0
 77
     0
 78
     1
 53
45.0
 43
-2.492041980955036
 44
304.532383818746
 45
-22.45064030267288
 46
22.45064030267288
 79
     0
 47
1.054320776538552
 98
        1
 10
8289.199839359726
 20
7891.53929086322
  0
HATCH
  5
219C0
330
747D
100
AcDbEntity
  8
細線
 48
50.0
100
AcDbHatch
 10
0.0
 20
0.0
 30
0.0
210
0.0
220
0.0
230
1.0
  2
LINE
 70
     0
 71
     1
 91
        1
 92
        7
 72
     0
 73
     1
 93
        4
 10
7533.599999999999
 20
6956.907777930208
 10
7533.599999999999
 20
6756.907777930208
 10
7653.600000000001
 20
6756.907777930208
 10
7653.600000000003
 20
6956.907777930209
 97
        4
330
1F7A1
330
1F7AC
330
1F7A0
330
21955
 75
     0
 76
     1
 52
45.0
 41
10.0
 77
     0
 78
     1
 53
45.0
 43
0.0
 44
0.0
 45
-22.45064030267288
 46
22.45064030267288
 79
     0
 47
4.463405375119783
 98
        1
 10
7594.801894500633
 20
6919.260356581705
  0
HATCH
  5
219DC
330
747D
100
AcDbEntity
  8
細線
 48
50.0
100
AcDbHatch
 10
0.0
 20
0.0
 30
0.0
210
0.0
220
0.0
230
1.0
  2
LINE
 70
     0
 71
     1
 91
        1
 92
        7
 72
     0
 73
     1
 93
        4
 10
8323.600000000025
 20
5866.90777793022
 10
8123.600000000029
 20
5866.907777930218
 10
8123.600000000026
 20
5671.907777930217
 10
8323.600000000025
 20
5671.907777930219
 97
        4
330
21956
330
1DD44
330
1EC47
330
1DD3B
 75
     0
 76
     1
 52
45.0
 41
10.0
 77
     0
 78
     1
 53
45.0
 43
0.0
 44
0.0
 45
-22.45064030267288
 46
22.45064030267288
 79
     0
 47
4.463405375119783
 98
        1
 10
8153.02577153575
 20
5731.994515170052
  0
HATCH
  5
219F8
330
747D
100
AcDbEntity
  8
細線
 48
50.0
100
AcDbHatch
 10
0.0
 20
0.0
 30
0.0
210
0.0
220
0.0
230
1.0
  2
LINE
 70
     0
 71
     1
 91
        1
 92
        7
 72
     0
 73
     1
 93
        4
 10
8913.6
 20
6956.907777930208
 10
8793.599999999999
 20
6956.907777930209
 10
8793.599999999999
 20
6756.907777930208
 10
8913.6
 20
6756.907777930208
 97
        4
330
1F77C
330
21954
330
1F77B
330
1F78F
 75
     0
 76
     1
 52
45.0
 41
10.0
 77
     0
 78
     1
 53
45.0
 43
0.0
 44
0.0
 45
-22.45064030267288
 46
22.45064030267288
 79
     0
 47
4.463405375119783
 98
        1
 10
8827.360180417178
 20
6843.382454441696
  0
ENDSEC
  0
SECTION
  2
OBJECTS
  0
DICTIONARY
  5
7471
330
0
100
AcDbDictionary
281
     1
  3
ACAD_COLOR
350
173D2
  3
ACAD_GROUP
350
7472
  3
ACAD_LAYOUT
350
173D3
  3
ACAD_MATERIAL
350
173D1
  3
ACAD_MLINESTYLE
350
7473
  3
ACAD_PLOTSETTINGS
350
173D4
  3
ACAD_PLOTSTYLENAME
350
173CF
  3
ACDBHEADERROUNDTRIPXREC
350
21A1B
  3
AcDbVariableDictionary
350
21A17
  3
CONTENTDICTIONARY
350
E71C
  3
DRAWINGVARIABLESDICT
350
F3B9
  0
DICTIONARY
  5
1758F
330
7467
100
AcDbDictionary
280
     1
281
     1
  3
ACAD_LAYERSTATES
360
17590
  0
DICTIONARY
  5
173D2
102
{ACAD_REACTORS
330
7471
102
}
330
7471
100
AcDbDictionary
281
     1
  0
DICTIONARY
  5
7472
102
{ACAD_REACTORS
330
7471
102
}
330
7471
100
AcDbDictionary
281
     1
  3
*A1
350
1D2A9
  0
DICTIONARY
  5
173D3
102
{ACAD_REACTORS
330
7471
102
}
330
7471
100
AcDbDictionary
281
     1
  3
Model
350
173D5
  3
レイアウト1
350
173D6
  0
DICTIONARY
  5
173D1
102
{ACAD_REACTORS
330
7471
102
}
330
7471
100
AcDbDictionary
281
     1
  0
DICTIONARY
  5
7473
102
{ACAD_REACTORS
330
7471
102
}
330
7471
100
AcDbDictionary
281
     1
  3
STANDARD
350
7480
  0
DICTIONARY
  5
173D4
102
{ACAD_REACTORS
330
7471
102
}
330
7471
100
AcDbDictionary
281
     1
  0
ACDBDICTIONARYWDFLT
  5
173CF
102
{ACAD_REACTORS
330
7471
102
}
330
7471
100
AcDbDictionary
281
     1
  3
Normal
350
173D0
100
AcDbDictionaryWithDefault
340
173D0
  0
DICTIONARY
  5
21A1B
102
{ACAD_REACTORS
330
7471
102
}
330
7471
100
AcDbDictionary
281
     1
  3
COLORDICT
350
21A1D
  3
MATERIALDICT
350
21A1C
  0
DICTIONARY
  5
21A17
102
{ACAD_REACTORS
330
7471
102
}
330
7471
100
AcDbDictionary
281
     1
  3
DIMASSOC
350
21A18
  3
PROJECTNAME
350
21A19
  0
DICTIONARY
  5
E71C
102
{ACAD_REACTORS
330
7471
102
}
330
7471
100
AcDbDictionary
281
     1
  0
DICTIONARY
  5
F3B9
102
{ACAD_REACTORS
330
7471
102
}
330
7471
100
AcDbDictionary
281
     1
1001
DRAWINGVARIABLESXDATA
1000
POLARMODE
1000
1
  0
DICTIONARY
  5
17590
102
{ACAD_REACTORS
330
1758F
102
}
330
1758F
100
AcDbDictionary
281
     1
  0
GROUP
  5
1D2A9
102
{ACAD_REACTORS
330
7472
102
}
330
7472
100
AcDbGroup
300

 70
     1
 71
     1
  0
LAYOUT
  5
173D5
102
{ACAD_XDICTIONARY
360
21A1E
102
}
102
{ACAD_REACTORS
330
173D3
102
}
330
173D3
100
AcDbPlotSettings
  1

  2
クセロPDFよこ.pc3
  4
A3
  6

 40
3.174999952316284
 41
3.174999952316284
 42
3.17498779296875
 43
3.17498779296875
 44
419.9466552734374
 45
296.9259948730469
 46
0.0
 47
0.0
 48
0.0
 49
0.0
140
0.0
141
0.0
142
1.0
143
40.0
 70
 11952
 72
     1
 73
     0
 74
     2
  7
ACA3.ctb
 75
    24
147
0.025
148
0.0
149
0.0
100
AcDbLayout
  1
Model
 70
     1
 71
     0
 10
0.0
 20
0.0
 11
12.0
 21
9.0
 12
0.0
 22
0.0
 32
0.0
 14
0.0
 24
0.0
 34
0.0
 15
0.0
 25
0.0
 35
0.0
146
0.0
 13
0.0
 23
0.0
 33
0.0
 16
1.0
 26
0.0
 36
0.0
 17
0.0
 27
1.0
 37
0.0
 76
     0
330
747D
  0
LAYOUT
  5
173D6
102
{ACAD_XDICTIONARY
360
21A20
102
}
102
{ACAD_REACTORS
330
173D3
102
}
330
173D3
100
AcDbPlotSettings
  1

  2
Microsoft Office Document Image Writer
  4

  6

 40
0.0
 41
0.0
 42
0.0
 43
0.0
 44
0.0
 45
0.0
 46
0.0
 47
0.0
 48
0.0
 49
0.0
140
0.0
141
0.0
142
1.0
143
1.0
 70
   688
 72
     0
 73
     0
 74
     5
  7
ACA3.ctb
 75
    16
147
1.0
148
0.0
149
0.0
100
AcDbLayout
  1
レイアウト1
 70
     0
 71
     1
 10
0.0
 20
0.0
 11
420.0
 21
297.0
 12
0.0
 22
0.0
 32
0.0
 14
1.000000000000000E+20
 24
1.000000000000000E+20
 34
1.000000000000000E+20
 15
-1.000000000000000E+20
 25
-1.000000000000000E+20
 35
-1.000000000000000E+20
146
0.0
 13
0.0
 23
0.0
 33
0.0
 16
1.0
 26
0.0
 36
0.0
 17
0.0
 27
1.0
 37
0.0
 76
     0
330
747A
  0
MLINESTYLE
  5
7480
102
{ACAD_REACTORS
330
7473
102
}
330
7473
100
AcDbMlineStyle
  2
STANDARD
 70
     0
  3

 62
     0
 51
90.0
 52
90.0
 71
     2
 49
0.5
 62
   256
  6
BYLAYER
 49
-0.5
 62
   256
  6
BYLAYER
  0
ACDBPLACEHOLDER
  5
173D0
102
{ACAD_REACTORS
330
173CF
102
}
330
173CF
  0
XRECORD
  5
21A1D
102
{ACAD_REACTORS
330
21A1B
102
}
330
21A1B
100
AcDbXrecord
280
     1
340
173D2
  0
XRECORD
  5
21A1C
102
{ACAD_REACTORS
330
21A1B
102
}
330
21A1B
100
AcDbXrecord
280
     1
340
173D1
  0
DICTIONARYVAR
  5
21A18
102
{ACAD_REACTORS
330
21A17
102
}
330
21A17
100
DictionaryVariables
280
     0
  1
1
  0
DICTIONARYVAR
  5
21A19
102
{ACAD_REACTORS
330
21A17
102
}
330
21A17
100
DictionaryVariables
280
     0
  1

  0
DICTIONARY
  5
21A1E
330
173D5
100
AcDbDictionary
280
     1
281
     1
  3
ACAD_XREC_ROUNDTRIP
360
21A1F
  0
DICTIONARY
  5
21A20
330
173D6
100
AcDbDictionary
280
     1
281
     1
  3
ACAD_XREC_ROUNDTRIP
360
21A21
  0
XRECORD
  5
21A1F
102
{ACAD_REACTORS
330
21A1E
102
}
330
21A1E
100
AcDbXrecord
280
     1
102
SHADEPLOT
 70
     0
102
SHADEPLOTRESLEVEL
 70
     2
102
SHADEPLOTCUSTOMDPI
 70
   150
  0
XRECORD
  5
21A21
102
{ACAD_REACTORS
330
21A20
102
}
330
21A20
100
AcDbXrecord
280
     1
102
SHADEPLOT
 70
     0
102
SHADEPLOTRESLEVEL
 70
     2
102
SHADEPLOTCUSTOMDPI
 70
   300
  0
ENDSEC
  0
EOF
