  0
SECTION
  2
HEADER
  9
$ACADVER
  1
AC1015
  9
$ACADMAINTVER
 70
    20
  9
$DWGCODEPAGE
  3
ANSI_932
  9
$INSBASE
 10
0.0
 20
0.0
 30
0.0
  9
$EXTMIN
 10
139.9999999999995
 20
-0.0000000000000909
 30
0.0
  9
$EXTMAX
 10
16307.2
 20
11409.6
 30
0.0
  9
$LIMMIN
 10
0.0
 20
0.0
  9
$LIMMAX
 10
16800.0
 20
11880.0
  9
$ORTHOMODE
 70
     0
  9
$REGENMODE
 70
     1
  9
$FILLMODE
 70
     1
  9
$QTEXTMODE
 70
     0
  9
$MIRRTEXT
 70
     1
  9
$LTSCALE
 40
20.0
  9
$ATTMODE
 70
     1
  9
$TEXTSIZE
 40
4.0
  9
$TRACEWID
 40
1.0
  9
$TEXTSTYLE
  7
STYLE1
  9
$CLAYER
  8
細線
  9
$CELTYPE
  6
BYLAYER
  9
$CECOLOR
 62
   256
  9
$CELTSCALE
 40
50.0
  9
$DISPSILH
 70
     0
  9
$DIMSCALE
 40
40.0
  9
$DIMASZ
 40
2.5
  9
$DIMEXO
 40
0.5
  9
$DIMDLI
 40
7.0
  9
$DIMRND
 40
0.0
  9
$DIMDLE
 40
0.0
  9
$DIMEXE
 40
1.5
  9
$DIMTP
 40
0.0
  9
$DIMTM
 40
0.0
  9
$DIMTXT
 40
3.0
  9
$DIMCEN
 40
0.0
  9
$DIMTSZ
 40
0.0
  9
$DIMTOL
 70
     0
  9
$DIMLIM
 70
     0
  9
$DIMTIH
 70
     0
  9
$DIMTOH
 70
     0
  9
$DIMSE1
 70
     0
  9
$DIMSE2
 70
     0
  9
$DIMTAD
 70
     3
  9
$DIMZIN
 70
     8
  9
$DIMBLK
  1

  9
$DIMASO
 70
     1
  9
$DIMSHO
 70
     1
  9
$DIMPOST
  1

  9
$DIMAPOST
  1

  9
$DIMALT
 70
     0
  9
$DIMALTD
 70
     2
  9
$DIMALTF
 40
0.0394
  9
$DIMLFAC
 40
1.0
  9
$DIMTOFL
 70
     1
  9
$DIMTVP
 40
0.0
  9
$DIMTIX
 70
     1
  9
$DIMSOXD
 70
     0
  9
$DIMSAH
 70
     1
  9
$DIMBLK1
  1
DOTSMALL
  9
$DIMBLK2
  1
DOTSMALL
  9
$DIMSTYLE
  2
INABA_S40G
  9
$DIMCLRD
 70
     0
  9
$DIMCLRE
 70
     0
  9
$DIMCLRT
 70
     7
  9
$DIMTFAC
 40
1.0
  9
$DIMGAP
 40
1.0
  9
$DIMJUST
 70
     0
  9
$DIMSD1
 70
     0
  9
$DIMSD2
 70
     0
  9
$DIMTOLJ
 70
     1
  9
$DIMTZIN
 70
     0
  9
$DIMALTZ
 70
     0
  9
$DIMALTTZ
 70
     0
  9
$DIMUPT
 70
     0
  9
$DIMDEC
 70
     1
  9
$DIMTDEC
 70
     4
  9
$DIMALTU
 70
     2
  9
$DIMALTTD
 70
     2
  9
$DIMTXSTY
  7
STYLE1
  9
$DIMAUNIT
 70
     0
  9
$DIMADEC
 70
     0
  9
$DIMALTRND
 40
0.0
  9
$DIMAZIN
 70
     0
  9
$DIMDSEP
 70
    46
  9
$DIMATFIT
 70
     3
  9
$DIMFRAC
 70
     0
  9
$DIMLDRBLK
  1

  9
$DIMLUNIT
 70
     2
  9
$DIMLWD
 70
    -2
  9
$DIMLWE
 70
    -2
  9
$DIMTMOVE
 70
     0
  9
$LUNITS
 70
     2
  9
$LUPREC
 70
     1
  9
$SKETCHINC
 40
1.0
  9
$FILLETRAD
 40
3.0
  9
$AUNITS
 70
     0
  9
$AUPREC
 70
     0
  9
$MENU
  1
acad
  9
$ELEVATION
 40
0.0
  9
$PELEVATION
 40
0.0
  9
$THICKNESS
 40
0.0
  9
$LIMCHECK
 70
     0
  9
$CHAMFERA
 40
0.0
  9
$CHAMFERB
 40
0.0
  9
$CHAMFERC
 40
0.0
  9
$CHAMFERD
 40
0.0
  9
$SKPOLY
 70
     0
  9
$TDCREATE
 40
2451368.612993866
  9
$TDUCREATE
 40
2451368.237993866
  9
$TDUPDATE
 40
2455826.640920671
  9
$TDUUPDATE
 40
2455826.265920671
  9
$TDINDWG
 40
0.7289849884
  9
$TDUSRTIMER
 40
0.7289849884
  9
$USRTIMER
 70
     1
  9
$ANGBASE
 50
0.0
  9
$ANGDIR
 70
     0
  9
$PDMODE
 70
     3
  9
$PDSIZE
 40
2.0
  9
$PLINEWID
 40
0.0
  9
$SPLFRAME
 70
     0
  9
$SPLINETYPE
 70
     6
  9
$SPLINESEGS
 70
     8
  9
$HANDSEED
  5
22F08
  9
$SURFTAB1
 70
     6
  9
$SURFTAB2
 70
     6
  9
$SURFTYPE
 70
     6
  9
$SURFU
 70
     6
  9
$SURFV
 70
     6
  9
$UCSBASE
  2

  9
$UCSNAME
  2

  9
$UCSORG
 10
0.0
 20
0.0
 30
0.0
  9
$UCSXDIR
 10
1.0
 20
0.0
 30
0.0
  9
$UCSYDIR
 10
0.0
 20
1.0
 30
0.0
  9
$UCSORTHOREF
  2

  9
$UCSORTHOVIEW
 70
     0
  9
$UCSORGTOP
 10
0.0
 20
0.0
 30
0.0
  9
$UCSORGBOTTOM
 10
0.0
 20
0.0
 30
0.0
  9
$UCSORGLEFT
 10
0.0
 20
0.0
 30
0.0
  9
$UCSORGRIGHT
 10
0.0
 20
0.0
 30
0.0
  9
$UCSORGFRONT
 10
0.0
 20
0.0
 30
0.0
  9
$UCSORGBACK
 10
0.0
 20
0.0
 30
0.0
  9
$PUCSBASE
  2

  9
$PUCSNAME
  2

  9
$PUCSORG
 10
0.0
 20
0.0
 30
0.0
  9
$PUCSXDIR
 10
1.0
 20
0.0
 30
0.0
  9
$PUCSYDIR
 10
0.0
 20
1.0
 30
0.0
  9
$PUCSORTHOREF
  2

  9
$PUCSORTHOVIEW
 70
     0
  9
$PUCSORGTOP
 10
0.0
 20
0.0
 30
0.0
  9
$PUCSORGBOTTOM
 10
0.0
 20
0.0
 30
0.0
  9
$PUCSORGLEFT
 10
0.0
 20
0.0
 30
0.0
  9
$PUCSORGRIGHT
 10
0.0
 20
0.0
 30
0.0
  9
$PUCSORGFRONT
 10
0.0
 20
0.0
 30
0.0
  9
$PUCSORGBACK
 10
0.0
 20
0.0
 30
0.0
  9
$USERI1
 70
     0
  9
$USERI2
 70
     0
  9
$USERI3
 70
     0
  9
$USERI4
 70
     0
  9
$USERI5
 70
     0
  9
$USERR1
 40
0.0
  9
$USERR2
 40
0.0
  9
$USERR3
 40
0.0
  9
$USERR4
 40
0.0
  9
$USERR5
 40
0.0
  9
$WORLDVIEW
 70
     1
  9
$SHADEDGE
 70
     3
  9
$SHADEDIF
 70
    70
  9
$TILEMODE
 70
     1
  9
$MAXACTVP
 70
    16
  9
$PINSBASE
 10
0.0
 20
0.0
 30
0.0
  9
$PLIMCHECK
 70
     0
  9
$PEXTMIN
 10
1.000000000000000E+20
 20
1.000000000000000E+20
 30
1.000000000000000E+20
  9
$PEXTMAX
 10
-1.000000000000000E+20
 20
-1.000000000000000E+20
 30
-1.000000000000000E+20
  9
$PLIMMIN
 10
0.0
 20
0.0
  9
$PLIMMAX
 10
420.0
 20
297.0
  9
$UNITMODE
 70
     0
  9
$VISRETAIN
 70
     0
  9
$PLINEGEN
 70
     0
  9
$PSLTSCALE
 70
     0
  9
$TREEDEPTH
 70
  3020
  9
$CMLSTYLE
  2
STANDARD
  9
$CMLJUST
 70
     0
  9
$CMLSCALE
 40
1.0
  9
$PROXYGRAPHICS
 70
     1
  9
$MEASUREMENT
 70
     1
  9
$CELWEIGHT
370
    -1
  9
$ENDCAPS
280
     0
  9
$JOINSTYLE
280
     0
  9
$LWDISPLAY
290
     0
  9
$INSUNITS
 70
     0
  9
$HYPERLINKBASE
  1

  9
$STYLESHEET
  1

  9
$XEDIT
290
     1
  9
$CEPSNTYPE
380
     0
  9
$PSTYLEMODE
290
     1
  9
$FINGERPRINTGUID
  2
{5EAC461A-2277-4BF8-9AB0-99C43BB394F0}
  9
$VERSIONGUID
  2
{0BB412FA-65F2-4690-B22A-A97AA476D080}
  9
$EXTNAMES
290
     1
  9
$PSVPSCALE
 40
0.0
  9
$OLESTARTUP
290
     0
  0
ENDSEC
  0
SECTION
  2
CLASSES
  0
CLASS
  1
ACDBDICTIONARYWDFLT
  2
AcDbDictionaryWithDefault
  3
ObjectDBX Classes
 90
        0
280
     0
281
     0
  0
CLASS
  1
DICTIONARYVAR
  2
AcDbDictionaryVar
  3
ObjectDBX Classes
 90
        0
280
     0
281
     0
  0
CLASS
  1
ACDBPLACEHOLDER
  2
AcDbPlaceHolder
  3
ObjectDBX Classes
 90
        0
280
     0
281
     0
  0
CLASS
  1
LAYOUT
  2
AcDbLayout
  3
ObjectDBX Classes
 90
        0
280
     0
281
     0
  0
ENDSEC
  0
SECTION
  2
TABLES
  0
TABLE
  2
VPORT
  5
746D
330
0
100
AcDbSymbolTable
 70
     2
  0
VPORT
  5
22F00
330
746D
100
AcDbSymbolTableRecord
100
AcDbViewportTableRecord
  2
*Active
 70
     0
 10
0.0
 20
0.0
 11
1.0
 21
1.0
 12
8223.761025238502
 22
5855.51892110829
 13
0.0
 23
0.0
 14
10.0
 24
10.0
 15
10.0
 25
10.0
 16
0.0
 26
0.0
 36
1.0
 17
0.0
 27
0.0
 37
0.0
 40
11801.05715611403
 41
1.522222222222222
 42
50.0
 43
0.0
 44
0.0
 50
0.0
 51
0.0
 71
     0
 72
     0
 73
     1
 74
     0
 75
     0
 76
     0
 77
     0
 78
     0
281
     0
 65
     1
110
0.0
120
0.0
130
0.0
111
1.0
121
0.0
131
0.0
112
0.0
122
1.0
132
0.0
 79
     0
146
0.0
  0
ENDTAB
  0
TABLE
  2
LTYPE
  5
746A
330
0
100
AcDbSymbolTable
 70
     5
  0
LTYPE
  5
7477
330
746A
100
AcDbSymbolTableRecord
100
AcDbLinetypeTableRecord
  2
BYBLOCK
 70
     0
  3

 72
    65
 73
     0
 40
0.0
  0
LTYPE
  5
7478
330
746A
100
AcDbSymbolTableRecord
100
AcDbLinetypeTableRecord
  2
BYLAYER
 70
     0
  3

 72
    65
 73
     0
 40
0.0
  0
LTYPE
  5
7479
330
746A
100
AcDbSymbolTableRecord
100
AcDbLinetypeTableRecord
  2
CONTINUOUS
 70
     0
  3
Solid line
 72
    65
 73
     0
 40
0.0
  0
LTYPE
  5
7816
330
746A
100
AcDbSymbolTableRecord
100
AcDbLinetypeTableRecord
  2
CENTER
 70
     0
  3
____ _ ____ _ ____ _ ____ _ ____ _ ____ _ ____ 
 72
    65
 73
     4
 40
2.0
 49
1.25
 74
     0
 49
-0.25
 74
     0
 49
0.25
 74
     0
 49
-0.25
 74
     0
  0
LTYPE
  5
781A
330
746A
100
AcDbSymbolTableRecord
100
AcDbLinetypeTableRecord
  2
HIDDEN
 70
     0
  3
__ __ __ __ __ __ __ __ __ __ __ __ __ __ __ __
 72
    65
 73
     2
 40
0.375
 49
0.25
 74
     0
 49
-0.125
 74
     0
  0
LTYPE
  5
781B
330
746A
100
AcDbSymbolTableRecord
100
AcDbLinetypeTableRecord
  2
PHANTOM
 70
     0
  3
______  __  __  ______  __  __  ______  __  __ 
 72
    65
 73
     6
 40
2.5
 49
1.25
 74
     0
 49
-0.25
 74
     0
 49
0.25
 74
     0
 49
-0.25
 74
     0
 49
0.25
 74
     0
 49
-0.25
 74
     0
  0
LTYPE
  5
12CC3
330
746A
100
AcDbSymbolTableRecord
100
AcDbLinetypeTableRecord
  2
HIDDENX2
 70
     0
  3
Hidden (2x) ____ ____ ____ ____ ____ ____ ____
 72
    65
 73
     2
 40
19.05
 49
12.7
 74
     0
 49
-6.349999999999999
 74
     0
  0
ENDTAB
  0
TABLE
  2
LAYER
  5
7467
102
{ACAD_XDICTIONARY
360
1758F
102
}
330
0
100
AcDbSymbolTable
 70
    12
  0
LAYER
  5
7474
330
7467
100
AcDbSymbolTableRecord
100
AcDbLayerTableRecord
  2
0
 70
     0
 62
     7
  6
CONTINUOUS
370
    -3
390
173D0
  0
LAYER
  5
DEB2
330
7467
100
AcDbSymbolTableRecord
100
AcDbLayerTableRecord
  2
センター
 70
     0
 62
     3
  6
CENTER
370
    -3
390
173D0
  0
LAYER
  5
DEB3
330
7467
100
AcDbSymbolTableRecord
100
AcDbLayerTableRecord
  2
寸法
 70
     0
 62
     4
  6
CONTINUOUS
370
    -3
390
173D0
  0
LAYER
  5
DEB4
330
7467
100
AcDbSymbolTableRecord
100
AcDbLayerTableRecord
  2
部品1
 70
     0
 62
     7
  6
CONTINUOUS
370
    -3
390
173D0
  0
LAYER
  5
DEB5
330
7467
100
AcDbSymbolTableRecord
100
AcDbLayerTableRecord
  2
補助
 70
     0
 62
    -1
  6
CONTINUOUS
370
    -3
390
173D0
  0
LAYER
  5
DEB6
330
7467
100
AcDbSymbolTableRecord
100
AcDbLayerTableRecord
  2
文字
 70
     0
 62
     7
  6
CONTINUOUS
370
    -3
390
173D0
  0
LAYER
  5
F255
330
7467
100
AcDbSymbolTableRecord
100
AcDbLayerTableRecord
  2
DEFPOINTS
 70
     0
 62
     7
  6
CONTINUOUS
290
     0
370
    -3
390
173D0
  0
LAYER
  5
10B54
330
7467
100
AcDbSymbolTableRecord
100
AcDbLayerTableRecord
  2
仕様書枠
 70
     0
 62
   230
  6
CONTINUOUS
370
    -3
390
173D0
  0
LAYER
  5
11729
330
7467
100
AcDbSymbolTableRecord
100
AcDbLayerTableRecord
  2
Ｇ．Ｌ
 70
     0
 62
    30
  6
CONTINUOUS
370
    -3
390
173D0
  0
LAYER
  5
1173F
330
7467
100
AcDbSymbolTableRecord
100
AcDbLayerTableRecord
  2
細線
 70
     0
 62
     5
  6
CONTINUOUS
370
    -3
390
173D0
  0
LAYER
  5
12CC4
330
7467
100
AcDbSymbolTableRecord
100
AcDbLayerTableRecord
  2
想像線
 70
     0
 62
     6
  6
PHANTOM
370
    -3
390
173D0
  0
LAYER
  5
142E2
330
7467
100
AcDbSymbolTableRecord
100
AcDbLayerTableRecord
  2
破線
 70
     0
 62
     2
  6
HIDDEN
370
    -3
390
173D0
  0
ENDTAB
  0
TABLE
  2
STYLE
  5
7468
330
0
100
AcDbSymbolTable
 70
     7
  0
STYLE
  5
7475
330
7468
100
AcDbSymbolTableRecord
100
AcDbTextStyleTableRecord
  2
STANDARD
 70
     0
 40
0.0
 41
1.0
 50
0.0
 71
     0
 42
4.0
  3
txt
  4
C:\AutoCAD LT\bigfont.shx
  0
STYLE
  5
763C
330
7468
100
AcDbSymbolTableRecord
100
AcDbTextStyleTableRecord
  2
MSMINCHO
 70
     0
 40
0.0
 41
1.0
 50
0.0
 71
     0
 42
1.199999999999999
  3
C:\AutoCAD LT\msminch2.TTF
  4

  0
STYLE
  5
F706
330
7468
100
AcDbSymbolTableRecord
100
AcDbTextStyleTableRecord
  2
STYLE1
 70
     0
 40
0.0
 41
1.0
 50
0.0
 71
     0
 42
4.0
  3
isocp.shx
  4
bigfont.shx
  0
STYLE
  5
103BF
330
7468
100
AcDbSymbolTableRecord
100
AcDbTextStyleTableRecord
  2
STYLE2
 70
     0
 40
0.0
 41
1.0
 50
0.0
 71
     0
 42
100.0
  3
MS PGothic.ttf
  4

1001
ACAD
1000
MS PGothic
1071
    32818
  0
STYLE
  5
10BAA
330
7468
100
AcDbSymbolTableRecord
100
AcDbTextStyleTableRecord
  2
STYLE3
 70
     0
 40
0.0
 41
1.0
 50
0.0
 71
     0
 42
100.0
  3

  4

1001
ACAD
1000
DFPGothic-EB
1071
    32818
  0
STYLE
  5
11A15
330
7468
100
AcDbSymbolTableRecord
100
AcDbTextStyleTableRecord
  2
MSGOTHIC
 70
     0
 40
0.0
 41
1.0
 50
0.0
 71
     0
 42
3.5
  3
msgothi2.ttf
  4

  0
STYLE
  5
13E96
330
7468
100
AcDbSymbolTableRecord
100
AcDbTextStyleTableRecord
  2
MSPゴシック
 70
     0
 40
0.0
 41
1.0
 50
0.0
 71
     0
 42
4.0
  3
MS PGothic.ttf
  4

1001
ACAD
1000
MS PGothic
1071
    32818
  0
ENDTAB
  0
TABLE
  2
VIEW
  5
746B
330
0
100
AcDbSymbolTable
 70
     0
  0
ENDTAB
  0
TABLE
  2
UCS
  5
746C
330
0
100
AcDbSymbolTable
 70
     0
  0
ENDTAB
  0
TABLE
  2
APPID
  5
746E
330
0
100
AcDbSymbolTable
 70
     6
  0
APPID
  5
7476
330
746E
100
AcDbSymbolTableRecord
100
AcDbRegAppTableRecord
  2
ACAD
 70
     0
  0
APPID
  5
DEA9
330
746E
100
AcDbSymbolTableRecord
100
AcDbRegAppTableRecord
  2
CONTENTBLOCKICON
 70
     0
  0
APPID
  5
DEAA
330
746E
100
AcDbSymbolTableRecord
100
AcDbRegAppTableRecord
  2
CONTENTBLOCKDESCRIPTION
 70
     0
  0
APPID
  5
E71D
330
746E
100
AcDbSymbolTableRecord
100
AcDbRegAppTableRecord
  2
CONTENTTABDATA
 70
     0
  0
APPID
  5
E71E
330
746E
100
AcDbSymbolTableRecord
100
AcDbRegAppTableRecord
  2
CONTENTCURRENTTAB
 70
     0
  0
APPID
  5
F3BA
330
746E
100
AcDbSymbolTableRecord
100
AcDbRegAppTableRecord
  2
DRAWINGVARIABLESXDATA
 70
     0
  0
ENDTAB
  0
TABLE
  2
DIMSTYLE
  5
746F
330
0
100
AcDbSymbolTable
 70
     6
100
AcDbDimStyleTable
 71
     1
340
F71F
  0
DIMSTYLE
105
7484
330
746F
100
AcDbSymbolTableRecord
100
AcDbDimStyleTableRecord
  2
JIS
 70
     0
 41
2.5
 42
1.0
 43
7.0
 44
1.0
 73
     0
 74
     0
 77
     1
 78
     8
140
2.5
141
0.0
143
0.0394
147
0.0
172
     1
174
     1
175
     1
340
7475
  0
DIMSTYLE
105
F236
330
746F
100
AcDbSymbolTableRecord
100
AcDbDimStyleTableRecord
  2
INABA_S40
 70
     0
 40
40.0
 41
2.5
 42
0.5
 43
7.0
 44
1.5
 73
     0
 74
     0
 77
     3
 78
     8
140
3.0
141
0.0
143
0.0394
147
1.0
172
     1
173
     1
174
     1
175
     1
178
     7
289
     0
340
7475
341
DEAC
343
DEAC
344
DEAC
  0
DIMSTYLE
105
F71F
102
{ACAD_REACTORS
330
209F3
330
209F2
330
209F1
330
209D5
330
209D4
330
209D3
330
209D2
330
209C9
330
209EA
330
209E9
330
209DF
330
209DE
330
209DD
330
209D7
330
209D6
330
209FE
330
20A06
330
21223
330
2122A
330
220FE
330
220FF
330
22104
330
22D33
330
22D34
330
22D3C
330
22D43
330
22D46
330
22DA6
102
}
330
746F
100
AcDbSymbolTableRecord
100
AcDbDimStyleTableRecord
  2
INABA_S40G
 70
     0
 40
40.0
 41
2.5
 42
0.5
 43
7.0
 44
1.5
 73
     0
 74
     0
 77
     3
 78
     8
140
3.0
141
0.0
143
0.0394
147
1.0
172
     1
173
     1
174
     1
178
     7
271
     1
340
F706
341
F770
343
F770
344
F770
  0
DIMSTYLE
105
142E3
330
746F
100
AcDbSymbolTableRecord
100
AcDbDimStyleTableRecord
  2
INABA_S1
 70
     0
 40
0.0
 41
2.5
 42
0.5
 43
7.0
 44
1.5
 73
     0
 74
     0
 77
     3
 78
     8
140
3.0
141
0.0
143
0.0394
146
0.5
147
0.5
172
     1
173
     1
176
   256
177
   256
178
     7
271
     2
272
     2
284
     8
288
     1
340
7475
341
DEAC
343
DEAC
344
DEAC
  0
DIMSTYLE
105
14463
330
746F
100
AcDbSymbolTableRecord
100
AcDbDimStyleTableRecord
  2
INABA_S30G
 70
     0
 40
30.0
 41
2.5
 42
0.5
 43
7.0
 44
1.5
 73
     0
 74
     0
 77
     3
 78
     8
140
3.0
141
0.0
143
0.0394
147
1.0
172
     1
173
     1
174
     1
175
     1
178
     7
271
     1
340
F706
341
F770
343
F770
344
F770
  0
DIMSTYLE
105
1758E
330
746F
100
AcDbSymbolTableRecord
100
AcDbDimStyleTableRecord
  2
INABA_S50G
 70
     0
 41
125.0
 42
25.0
 43
7.0
 44
75.0
 73
     0
 74
     0
 77
     3
 78
     8
140
150.0
141
0.0
143
0.0394
147
25.0
172
     1
173
     1
174
     1
175
     1
178
     7
271
     1
340
F706
341
F770
343
F770
344
F770
  0
ENDTAB
  0
TABLE
  2
BLOCK_RECORD
  5
7466
330
0
100
AcDbSymbolTable
 70
    47
  0
BLOCK_RECORD
  5
747D
330
7466
100
AcDbSymbolTableRecord
100
AcDbBlockTableRecord
  2
*MODEL_SPACE
340
173D5
  0
BLOCK_RECORD
  5
747A
330
7466
100
AcDbSymbolTableRecord
100
AcDbBlockTableRecord
  2
*PAPER_SPACE
340
173D6
  0
BLOCK_RECORD
  5
DEAC
330
7466
100
AcDbSymbolTableRecord
100
AcDbBlockTableRecord
  2
_OPEN
340
0
  0
BLOCK_RECORD
  5
F770
330
7466
100
AcDbSymbolTableRecord
100
AcDbBlockTableRecord
  2
_DOTSMALL
340
0
102
{BLKREFS
331
18C65
331
18C66
331
18C59
331
18C5A
331
18C4D
331
18C4E
331
18C41
331
18C42
331
18C35
331
18C36
331
18C29
331
18C2A
331
18C1D
331
18C1E
331
18C0F
331
18C10
331
18C03
331
18C04
331
18BF5
331
18BF6
331
18BE7
331
18BE8
331
18BD9
331
18BDA
331
18BCD
331
18BCE
331
20F4A
331
20F4B
331
20F53
331
20F54
331
20F66
331
20F67
331
20F7A
331
20F7B
331
20F85
331
20F86
331
20F8E
331
20F8F
331
20FA3
331
20FA4
331
20FBF
331
20FC0
331
20FC8
331
20FC9
331
20FDC
331
20FDD
331
20FF1
331
20FF2
331
20FFA
331
20FFB
331
21003
331
21004
331
2100C
331
2100D
331
2104F
331
21050
331
21065
331
21066
331
22384
331
22385
331
22785
331
22786
331
2282F
331
22830
331
22839
331
2283A
331
22843
331
22844
331
2284D
331
2284E
331
22EB0
331
22EB1
331
22EBF
331
22EC0
331
22EC8
331
22EC9
331
22ED1
331
22ED2
331
22EDA
331
22EDB
331
22EE3
331
22EE4
102
}
  0
BLOCK_RECORD
  5
164B4
330
7466
100
AcDbSymbolTableRecord
100
AcDbBlockTableRecord
  2
_DOT
340
0
102
{BLKREFS
331
18C73
331
18C74
102
}
  0
BLOCK_RECORD
  5
18BC8
330
7466
100
AcDbSymbolTableRecord
100
AcDbBlockTableRecord
  2
*D3
340
0
  0
BLOCK_RECORD
  5
18BD4
330
7466
100
AcDbSymbolTableRecord
100
AcDbBlockTableRecord
  2
*D4
340
0
  0
BLOCK_RECORD
  5
18BE0
330
7466
100
AcDbSymbolTableRecord
100
AcDbBlockTableRecord
  2
*D5
340
0
  0
BLOCK_RECORD
  5
18BEE
330
7466
100
AcDbSymbolTableRecord
100
AcDbBlockTableRecord
  2
*D6
340
0
  0
BLOCK_RECORD
  5
18BFC
330
7466
100
AcDbSymbolTableRecord
100
AcDbBlockTableRecord
  2
*D7
340
0
  0
BLOCK_RECORD
  5
18C0A
330
7466
100
AcDbSymbolTableRecord
100
AcDbBlockTableRecord
  2
*D8
340
0
  0
BLOCK_RECORD
  5
18C16
330
7466
100
AcDbSymbolTableRecord
100
AcDbBlockTableRecord
  2
*D9
340
0
  0
BLOCK_RECORD
  5
18C24
330
7466
100
AcDbSymbolTableRecord
100
AcDbBlockTableRecord
  2
*D10
340
0
  0
BLOCK_RECORD
  5
18C30
330
7466
100
AcDbSymbolTableRecord
100
AcDbBlockTableRecord
  2
*D11
340
0
  0
BLOCK_RECORD
  5
18C3C
330
7466
100
AcDbSymbolTableRecord
100
AcDbBlockTableRecord
  2
*D12
340
0
  0
BLOCK_RECORD
  5
18C48
330
7466
100
AcDbSymbolTableRecord
100
AcDbBlockTableRecord
  2
*D13
340
0
  0
BLOCK_RECORD
  5
18C54
330
7466
100
AcDbSymbolTableRecord
100
AcDbBlockTableRecord
  2
*D14
340
0
  0
BLOCK_RECORD
  5
18C60
330
7466
100
AcDbSymbolTableRecord
100
AcDbBlockTableRecord
  2
*D15
340
0
  0
BLOCK_RECORD
  5
18C6C
330
7466
100
AcDbSymbolTableRecord
100
AcDbBlockTableRecord
  2
*D16
340
0
  0
BLOCK_RECORD
  5
18C7A
330
7466
100
AcDbSymbolTableRecord
100
AcDbBlockTableRecord
  2
A$C3B1A506B
340
0
  0
BLOCK_RECORD
  5
1C4CA
330
7466
100
AcDbSymbolTableRecord
100
AcDbBlockTableRecord
  2
_NONE
340
0
  0
BLOCK_RECORD
  5
20A20
330
7466
100
AcDbSymbolTableRecord
100
AcDbBlockTableRecord
  2
*D19
340
0
  0
BLOCK_RECORD
  5
20A45
330
7466
100
AcDbSymbolTableRecord
100
AcDbBlockTableRecord
  2
*D20
340
0
  0
BLOCK_RECORD
  5
20A50
330
7466
100
AcDbSymbolTableRecord
100
AcDbBlockTableRecord
  2
*D21
340
0
  0
BLOCK_RECORD
  5
20A5B
330
7466
100
AcDbSymbolTableRecord
100
AcDbBlockTableRecord
  2
*D22
340
0
  0
BLOCK_RECORD
  5
20A68
330
7466
100
AcDbSymbolTableRecord
100
AcDbBlockTableRecord
  2
*D23
340
0
  0
BLOCK_RECORD
  5
20A75
330
7466
100
AcDbSymbolTableRecord
100
AcDbBlockTableRecord
  2
*D24
340
0
  0
BLOCK_RECORD
  5
20A82
330
7466
100
AcDbSymbolTableRecord
100
AcDbBlockTableRecord
  2
*D25
340
0
  0
BLOCK_RECORD
  5
20A9C
330
7466
100
AcDbSymbolTableRecord
100
AcDbBlockTableRecord
  2
*D26
340
0
  0
BLOCK_RECORD
  5
20AA7
330
7466
100
AcDbSymbolTableRecord
100
AcDbBlockTableRecord
  2
*D27
340
0
  0
BLOCK_RECORD
  5
20AB3
330
7466
100
AcDbSymbolTableRecord
100
AcDbBlockTableRecord
  2
*D28
340
0
  0
BLOCK_RECORD
  5
20ACA
330
7466
100
AcDbSymbolTableRecord
100
AcDbBlockTableRecord
  2
*D29
340
0
  0
BLOCK_RECORD
  5
20AD7
330
7466
100
AcDbSymbolTableRecord
100
AcDbBlockTableRecord
  2
*D30
340
0
  0
BLOCK_RECORD
  5
20AE3
330
7466
100
AcDbSymbolTableRecord
100
AcDbBlockTableRecord
  2
*D31
340
0
  0
BLOCK_RECORD
  5
20AEF
330
7466
100
AcDbSymbolTableRecord
100
AcDbBlockTableRecord
  2
*D32
340
0
  0
BLOCK_RECORD
  5
20AFC
330
7466
100
AcDbSymbolTableRecord
100
AcDbBlockTableRecord
  2
*D33
340
0
  0
BLOCK_RECORD
  5
20B16
330
7466
100
AcDbSymbolTableRecord
100
AcDbBlockTableRecord
  2
*D34
340
0
  0
BLOCK_RECORD
  5
20B2E
330
7466
100
AcDbSymbolTableRecord
100
AcDbBlockTableRecord
  2
*D35
340
0
  0
BLOCK_RECORD
  5
212D6
330
7466
100
AcDbSymbolTableRecord
100
AcDbBlockTableRecord
  2
*D36
340
0
  0
BLOCK_RECORD
  5
212FB
330
7466
100
AcDbSymbolTableRecord
100
AcDbBlockTableRecord
  2
*D37
340
0
  0
BLOCK_RECORD
  5
2215D
330
7466
100
AcDbSymbolTableRecord
100
AcDbBlockTableRecord
  2
*D38
340
0
  0
BLOCK_RECORD
  5
2216A
330
7466
100
AcDbSymbolTableRecord
100
AcDbBlockTableRecord
  2
*D39
340
0
  0
BLOCK_RECORD
  5
22177
330
7466
100
AcDbSymbolTableRecord
100
AcDbBlockTableRecord
  2
*D40
340
0
  0
BLOCK_RECORD
  5
22E60
330
7466
100
AcDbSymbolTableRecord
100
AcDbBlockTableRecord
  2
*D41
340
0
  0
BLOCK_RECORD
  5
22E6C
330
7466
100
AcDbSymbolTableRecord
100
AcDbBlockTableRecord
  2
*D42
340
0
  0
BLOCK_RECORD
  5
22E7D
330
7466
100
AcDbSymbolTableRecord
100
AcDbBlockTableRecord
  2
*D43
340
0
  0
BLOCK_RECORD
  5
22E89
330
7466
100
AcDbSymbolTableRecord
100
AcDbBlockTableRecord
  2
*D44
340
0
  0
BLOCK_RECORD
  5
22E95
330
7466
100
AcDbSymbolTableRecord
100
AcDbBlockTableRecord
  2
*D45
340
0
  0
BLOCK_RECORD
  5
22EA1
330
7466
100
AcDbSymbolTableRecord
100
AcDbBlockTableRecord
  2
*D46
340
0
  0
ENDTAB
  0
ENDSEC
  0
SECTION
  2
BLOCKS
  0
BLOCK
  5
7489
330
747D
100
AcDbEntity
  8
0
100
AcDbBlockBegin
  2
*MODEL_SPACE
 70
     0
 10
0.0
 20
0.0
 30
0.0
  3
*MODEL_SPACE
  1

  0
ENDBLK
  5
748A
330
747D
100
AcDbEntity
  8
0
100
AcDbBlockEnd
  0
BLOCK
  5
7487
330
747A
100
AcDbEntity
 67
     1
  8
0
100
AcDbBlockBegin
  2
*PAPER_SPACE
 70
     0
 10
0.0
 20
0.0
 30
0.0
  3
*PAPER_SPACE
  1

  0
ENDBLK
  5
7488
330
747A
100
AcDbEntity
 67
     1
  8
0
100
AcDbBlockEnd
  0
BLOCK
  5
DEAD
330
DEAC
100
AcDbEntity
  8
0
100
AcDbBlockBegin
  2
_OPEN
 70
     0
 10
0.0
 20
0.0
 30
0.0
  3
_OPEN
  1

  0
LINE
  5
DEAE
330
DEAC
100
AcDbEntity
  8
0
  6
ByBlock
 62
     0
100
AcDbLine
 10
-1.0
 20
0.1666666666666666
 30
0.0
 11
0.0
 21
0.0
 31
0.0
  0
LINE
  5
DEAF
330
DEAC
100
AcDbEntity
  8
0
  6
ByBlock
 62
     0
100
AcDbLine
 10
0.0
 20
0.0
 30
0.0
 11
-1.0
 21
-0.1666666666666666
 31
0.0
  0
LINE
  5
DEB0
330
DEAC
100
AcDbEntity
  8
0
  6
ByBlock
 62
     0
100
AcDbLine
 10
0.0
 20
0.0
 30
0.0
 11
-1.0
 21
0.0
 31
0.0
  0
ENDBLK
  5
DEB1
330
DEAC
100
AcDbEntity
  8
0
100
AcDbBlockEnd
  0
BLOCK
  5
F771
330
F770
100
AcDbEntity
  8
0
 48
50.0
100
AcDbBlockBegin
  2
_DOTSMALL
 70
     0
 10
0.0
 20
0.0
 30
0.0
  3
_DOTSMALL
  1

  0
LWPOLYLINE
  5
F772
330
F770
100
AcDbEntity
  8
0
  6
ByBlock
 62
     0
 48
50.0
100
AcDbPolyline
 90
        2
 70
     1
 43
0.5
 10
-0.0625
 20
0.0
 42
1.0
 10
0.0625
 20
0.0
 42
1.0
  0
ENDBLK
  5
F776
330
F770
100
AcDbEntity
  8
0
 48
50.0
100
AcDbBlockEnd
  0
BLOCK
  5
164BA
330
164B4
100
AcDbEntity
  8
0
 48
50.0
100
AcDbBlockBegin
  2
_DOT
 70
     0
 10
0.0
 20
0.0
 30
0.0
  3
_DOT
  1

  0
LWPOLYLINE
  5
164B5
330
164B4
100
AcDbEntity
  8
0
  6
ByBlock
 62
     0
 48
50.0
100
AcDbPolyline
 90
        2
 70
     1
 43
0.5
 10
-0.25
 20
0.0
 42
1.0
 10
0.25
 20
0.0
 42
1.0
  0
LINE
  5
164B9
330
164B4
100
AcDbEntity
  8
0
  6
ByBlock
 62
     0
 48
50.0
100
AcDbLine
 10
-0.5
 20
0.0
 30
0.0
 11
-1.0
 21
0.0
 31
0.0
  0
ENDBLK
  5
164BB
330
164B4
100
AcDbEntity
  8
0
 48
50.0
100
AcDbBlockEnd
  0
BLOCK
  5
18BC9
330
18BC8
100
AcDbEntity
  8
0
 48
50.0
100
AcDbBlockBegin
  2
*D3
 70
     1
 10
0.0
 20
0.0
 30
0.0
  3
*D3
  1

  0
LINE
  5
18BCA
330
18BC8
100
AcDbEntity
  8
寸法
 62
     0
 48
50.0
370
    -2
100
AcDbLine
 10
7649.896575106999
 20
9636.123139034717
 30
0.0
 11
8702.429862581047
 21
9636.123139034717
 31
0.0
  0
LINE
  5
18BCB
330
18BC8
100
AcDbEntity
  8
寸法
 62
     0
 48
50.0
370
    -2
100
AcDbLine
 10
7649.896575106973
 20
7846.123139034709
 30
0.0
 11
8702.429862581047
 21
7846.123139034709
 31
0.0
  0
LINE
  5
18BCC
330
18BC8
100
AcDbEntity
  8
寸法
 62
     0
 48
50.0
370
    -2
100
AcDbLine
 10
8642.429862581046
 20
9636.123139034717
 30
0.0
 11
8642.429862581046
 21
7846.123139034709
 31
0.0
  0
INSERT
  5
18BCD
330
18BC8
100
AcDbEntity
  8
寸法
 62
     0
 48
50.0
370
    -2
100
AcDbBlockReference
  2
_DOTSMALL
 10
8642.429862581046
 20
9636.123139034717
 30
0.0
 41
100.0
 42
100.0
 43
100.0
 50
90.0
  0
INSERT
  5
18BCE
330
18BC8
100
AcDbEntity
  8
寸法
 62
     0
 48
50.0
370
    -2
100
AcDbBlockReference
  2
_DOTSMALL
 10
8642.429862581046
 20
7846.123139034709
 30
0.0
 41
100.0
 42
100.0
 43
100.0
 50
270.0
  0
MTEXT
  5
18BCF
330
18BC8
100
AcDbEntity
  8
寸法
 62
     7
 48
50.0
100
AcDbMText
 10
8542.429862581045
 20
8741.123139034712
 30
0.0
 40
120.0
 41
0.0
 71
     5
 72
     1
  1
\A1;1790
  7
STYLE1
 11
0.0000000000000001
 21
1.0
 31
0.0
 73
     1
 44
1.0
1001
ACAD
1000
MTEXTBEGIN
1070
    73
1070
     1
1070
    44
1040
1.0
1070
    74
1070
     0
1000
MTEXTEND
  0
POINT
  5
18BD0
330
18BC8
100
AcDbEntity
  8
DEFPOINTS
 62
     0
 48
50.0
100
AcDbPoint
 10
7629.896575106998
 20
9636.123139034717
 30
0.0
  0
POINT
  5
18BD1
330
18BC8
100
AcDbEntity
  8
DEFPOINTS
 62
     0
 48
50.0
100
AcDbPoint
 10
7629.896575106974
 20
7846.123139034709
 30
0.0
  0
POINT
  5
18BD2
330
18BC8
100
AcDbEntity
  8
DEFPOINTS
 62
     0
 48
50.0
100
AcDbPoint
 10
8642.429862581046
 20
7846.123139034709
 30
0.0
  0
ENDBLK
  5
18BD3
330
18BC8
100
AcDbEntity
  8
0
 48
50.0
100
AcDbBlockEnd
  0
BLOCK
  5
18BD5
330
18BD4
100
AcDbEntity
  8
0
 48
50.0
100
AcDbBlockBegin
  2
*D4
 70
     1
 10
0.0
 20
0.0
 30
0.0
  3
*D4
  1

  0
LINE
  5
18BD6
330
18BD4
100
AcDbEntity
  8
寸法
 62
     0
 48
50.0
370
    -2
100
AcDbLine
 10
4214.896575106998
 20
9656.123139034622
 30
0.0
 11
4214.896575106998
 21
10211.93135865972
 31
0.0
  0
LINE
  5
18BD7
330
18BD4
100
AcDbEntity
  8
寸法
 62
     0
 48
50.0
370
    -2
100
AcDbLine
 10
7574.896575106999
 20
9656.123139034718
 30
0.0
 11
7574.896575106999
 21
10211.93135865972
 31
0.0
  0
LINE
  5
18BD8
330
18BD4
100
AcDbEntity
  8
寸法
 62
     0
 48
50.0
370
    -2
100
AcDbLine
 10
4214.896575106998
 20
10151.93135865972
 30
0.0
 11
7574.896575106999
 21
10151.93135865972
 31
0.0
  0
INSERT
  5
18BD9
330
18BD4
100
AcDbEntity
  8
寸法
 62
     0
 48
50.0
370
    -2
100
AcDbBlockReference
  2
_DOTSMALL
 10
4214.896575106998
 20
10151.93135865972
 30
0.0
 41
100.0
 42
100.0
 43
100.0
 50
180.0
  0
INSERT
  5
18BDA
330
18BD4
100
AcDbEntity
  8
寸法
 62
     0
 48
50.0
370
    -2
100
AcDbBlockReference
  2
_DOTSMALL
 10
7574.896575106999
 20
10151.93135865972
 30
0.0
 41
100.0
 42
100.0
 43
100.0
  0
MTEXT
  5
18BDB
330
18BD4
100
AcDbEntity
  8
寸法
 62
     7
 48
50.0
100
AcDbMText
 10
5894.896575106997
 20
10251.94316968334
 30
0.0
 40
120.0
 41
0.0
 71
     5
 72
     1
  1
\A1;8X420=3360
  7
STYLE1
 73
     1
 44
1.0
1001
ACAD
1000
MTEXTBEGIN
1070
    73
1070
     1
1070
    44
1040
1.0
1070
    74
1070
     0
1000
MTEXTEND
  0
POINT
  5
18BDC
330
18BD4
100
AcDbEntity
  8
DEFPOINTS
 62
     0
 48
50.0
100
AcDbPoint
 10
4214.896575106998
 20
9636.123139034623
 30
0.0
  0
POINT
  5
18BDD
330
18BD4
100
AcDbEntity
  8
DEFPOINTS
 62
     0
 48
50.0
100
AcDbPoint
 10
7574.896575106999
 20
9636.123139034717
 30
0.0
  0
POINT
  5
18BDE
330
18BD4
100
AcDbEntity
  8
DEFPOINTS
 62
     0
 48
50.0
100
AcDbPoint
 10
7574.896575106999
 20
10151.93135865972
 30
0.0
  0
ENDBLK
  5
18BDF
330
18BD4
100
AcDbEntity
  8
0
 48
50.0
100
AcDbBlockEnd
  0
BLOCK
  5
18BE1
330
18BE0
100
AcDbEntity
  8
0
 48
50.0
100
AcDbBlockBegin
  2
*D5
 70
     1
 10
0.0
 20
0.0
 30
0.0
  3
*D5
  1

  0
LINE
  5
18BE2
330
18BE0
100
AcDbEntity
  8
寸法
 62
     0
 48
50.0
370
    -2
100
AcDbLine
 10
7574.896575106999
 20
9656.123139034718
 30
0.0
 11
7574.896575106999
 21
10211.9313586597
 31
0.0
  0
LINE
  5
18BE3
330
18BE0
100
AcDbEntity
  8
寸法
 62
     0
 48
50.0
370
    -2
100
AcDbLine
 10
7629.896575106998
 20
9656.123139034718
 30
0.0
 11
7629.896575106998
 21
10211.9313586597
 31
0.0
  0
LINE
  5
18BE4
330
18BE0
100
AcDbEntity
  8
寸法
 62
     0
 48
50.0
370
    -2
100
AcDbLine
 10
7574.896575106999
 20
10151.9313586597
 30
0.0
 11
7474.896575106999
 21
10151.9313586597
 31
0.0
  0
LINE
  5
18BE5
330
18BE0
100
AcDbEntity
  8
寸法
 62
     0
 48
50.0
370
    -2
100
AcDbLine
 10
7629.896575106998
 20
10151.9313586597
 30
0.0
 11
8046.867137855477
 21
10151.9313586597
 31
0.0
  0
LINE
  5
18BE6
330
18BE0
100
AcDbEntity
  8
寸法
 62
     0
 48
50.0
370
    -2
100
AcDbLine
 10
7574.896575106999
 20
10151.9313586597
 30
0.0
 11
7629.896575106998
 21
10151.9313586597
 31
0.0
  0
INSERT
  5
18BE7
330
18BE0
100
AcDbEntity
  8
寸法
 62
     0
 48
50.0
370
    -2
100
AcDbBlockReference
  2
_DOTSMALL
 10
7574.896575106999
 20
10151.9313586597
 30
0.0
 41
100.0
 42
100.0
 43
100.0
  0
INSERT
  5
18BE8
330
18BE0
100
AcDbEntity
  8
寸法
 62
     0
 48
50.0
370
    -2
100
AcDbBlockReference
  2
_DOTSMALL
 10
7629.896575106998
 20
10151.9313586597
 30
0.0
 41
100.0
 42
100.0
 43
100.0
 50
180.0
  0
MTEXT
  5
18BE9
330
18BE0
100
AcDbEntity
  8
寸法
 62
     7
 48
50.0
100
AcDbMText
 10
7938.381856481237
 20
10251.9313586597
 30
0.0
 40
120.0
 41
0.0
 71
     5
 72
     1
  1
\A1;55
  7
STYLE1
 73
     1
 44
1.0
1001
ACAD
1000
MTEXTBEGIN
1070
    73
1070
     1
1070
    44
1040
1.0
1070
    74
1070
     0
1000
MTEXTEND
  0
POINT
  5
18BEA
330
18BE0
100
AcDbEntity
  8
DEFPOINTS
 62
     0
 48
50.0
100
AcDbPoint
 10
7574.896575106999
 20
9636.123139034717
 30
0.0
  0
POINT
  5
18BEB
330
18BE0
100
AcDbEntity
  8
DEFPOINTS
 62
     0
 48
50.0
100
AcDbPoint
 10
7629.896575106998
 20
9636.123139034717
 30
0.0
  0
POINT
  5
18BEC
330
18BE0
100
AcDbEntity
  8
DEFPOINTS
 62
     0
 48
50.0
100
AcDbPoint
 10
7629.896575106998
 20
10151.9313586597
 30
0.0
  0
ENDBLK
  5
18BED
330
18BE0
100
AcDbEntity
  8
0
 48
50.0
100
AcDbBlockEnd
  0
BLOCK
  5
18BEF
330
18BEE
100
AcDbEntity
  8
0
 48
50.0
100
AcDbBlockBegin
  2
*D6
 70
     1
 10
0.0
 20
0.0
 30
0.0
  3
*D6
  1

  0
LINE
  5
18BF0
330
18BEE
100
AcDbEntity
  8
寸法
 62
     0
 48
50.0
370
    -2
100
AcDbLine
 10
7649.896575106999
 20
9636.123139034717
 30
0.0
 11
8337.32292084141
 21
9636.123139034717
 31
0.0
  0
LINE
  5
18BF1
330
18BEE
100
AcDbEntity
  8
寸法
 62
     0
 48
50.0
370
    -2
100
AcDbLine
 10
7649.896575106999
 20
9581.123139034721
 30
0.0
 11
8337.32292084141
 21
9581.123139034721
 31
0.0
  0
LINE
  5
18BF2
330
18BEE
100
AcDbEntity
  8
寸法
 62
     0
 48
50.0
370
    -2
100
AcDbLine
 10
8277.322920841411
 20
9581.123139034721
 30
0.0
 11
8277.322920841411
 21
9481.123139034719
 31
0.0
  0
LINE
  5
18BF3
330
18BEE
100
AcDbEntity
  8
寸法
 62
     0
 48
50.0
370
    -2
100
AcDbLine
 10
8277.322920841411
 20
9636.123139034717
 30
0.0
 11
8277.322920841411
 21
10053.09370178319
 31
0.0
  0
LINE
  5
18BF4
330
18BEE
100
AcDbEntity
  8
寸法
 62
     0
 48
50.0
370
    -2
100
AcDbLine
 10
8277.322920841411
 20
9581.123139034721
 30
0.0
 11
8277.322920841411
 21
9636.123139034717
 31
0.0
  0
INSERT
  5
18BF5
330
18BEE
100
AcDbEntity
  8
寸法
 62
     0
 48
50.0
370
    -2
100
AcDbBlockReference
  2
_DOTSMALL
 10
8277.322920841411
 20
9581.123139034721
 30
0.0
 41
100.0
 42
100.0
 43
100.0
 50
90.0
  0
INSERT
  5
18BF6
330
18BEE
100
AcDbEntity
  8
寸法
 62
     0
 48
50.0
370
    -2
100
AcDbBlockReference
  2
_DOTSMALL
 10
8277.322920841411
 20
9636.123139034717
 30
0.0
 41
100.0
 42
100.0
 43
100.0
 50
270.0
  0
MTEXT
  5
18BF7
330
18BEE
100
AcDbEntity
  8
寸法
 62
     7
 48
50.0
100
AcDbMText
 10
8177.32292084141
 20
9944.608420408957
 30
0.0
 40
120.0
 41
0.0
 71
     5
 72
     1
  1
\A1;55
  7
STYLE1
 11
0.0000000000000001
 21
1.0
 31
0.0
 73
     1
 44
1.0
1001
ACAD
1000
MTEXTBEGIN
1070
    73
1070
     1
1070
    44
1040
1.0
1070
    74
1070
     0
1000
MTEXTEND
  0
POINT
  5
18BF8
330
18BEE
100
AcDbEntity
  8
DEFPOINTS
 62
     0
 48
50.0
100
AcDbPoint
 10
7629.896575106998
 20
9636.123139034717
 30
0.0
  0
POINT
  5
18BF9
330
18BEE
100
AcDbEntity
  8
DEFPOINTS
 62
     0
 48
50.0
100
AcDbPoint
 10
7629.896575106998
 20
9581.123139034721
 30
0.0
  0
POINT
  5
18BFA
330
18BEE
100
AcDbEntity
  8
DEFPOINTS
 62
     0
 48
50.0
100
AcDbPoint
 10
8277.322920841411
 20
9581.123139034721
 30
0.0
  0
ENDBLK
  5
18BFB
330
18BEE
100
AcDbEntity
  8
0
 48
50.0
100
AcDbBlockEnd
  0
BLOCK
  5
18BFD
330
18BFC
100
AcDbEntity
  8
0
 48
50.0
100
AcDbBlockBegin
  2
*D7
 70
     1
 10
0.0
 20
0.0
 30
0.0
  3
*D7
  1

  0
LINE
  5
18BFE
330
18BFC
100
AcDbEntity
  8
寸法
 62
     0
 48
50.0
370
    -2
100
AcDbLine
 10
4159.896575106963
 20
9656.123139034622
 30
0.0
 11
4159.896575106963
 21
10211.9313586596
 31
0.0
  0
LINE
  5
18BFF
330
18BFC
100
AcDbEntity
  8
寸法
 62
     0
 48
50.0
370
    -2
100
AcDbLine
 10
4214.896575106998
 20
9656.123139034622
 30
0.0
 11
4214.896575106998
 21
10211.9313586596
 31
0.0
  0
LINE
  5
18C00
330
18BFC
100
AcDbEntity
  8
寸法
 62
     0
 48
50.0
370
    -2
100
AcDbLine
 10
4214.896575106998
 20
10151.9313586596
 30
0.0
 11
4314.896575106998
 21
10151.9313586596
 31
0.0
  0
LINE
  5
18C01
330
18BFC
100
AcDbEntity
  8
寸法
 62
     0
 48
50.0
370
    -2
100
AcDbLine
 10
4159.896575106963
 20
10151.9313586596
 30
0.0
 11
3742.926012358486
 21
10151.9313586596
 31
0.0
  0
LINE
  5
18C02
330
18BFC
100
AcDbEntity
  8
寸法
 62
     0
 48
50.0
370
    -2
100
AcDbLine
 10
4214.896575106998
 20
10151.9313586596
 30
0.0
 11
4159.896575106963
 21
10151.9313586596
 31
0.0
  0
INSERT
  5
18C03
330
18BFC
100
AcDbEntity
  8
寸法
 62
     0
 48
50.0
370
    -2
100
AcDbBlockReference
  2
_DOTSMALL
 10
4214.896575106998
 20
10151.9313586596
 30
0.0
 41
100.0
 42
100.0
 43
100.0
 50
180.0
  0
INSERT
  5
18C04
330
18BFC
100
AcDbEntity
  8
寸法
 62
     0
 48
50.0
370
    -2
100
AcDbBlockReference
  2
_DOTSMALL
 10
4159.896575106963
 20
10151.9313586596
 30
0.0
 41
100.0
 42
100.0
 43
100.0
  0
MTEXT
  5
18C05
330
18BFC
100
AcDbEntity
  8
寸法
 62
     7
 48
50.0
100
AcDbMText
 10
3851.411293732725
 20
10251.9313586596
 30
0.0
 40
120.0
 41
0.0
 71
     5
 72
     1
  1
\A1;55
  7
STYLE1
 73
     1
 44
1.0
1001
ACAD
1000
MTEXTBEGIN
1070
    73
1070
     1
1070
    44
1040
1.0
1070
    74
1070
     0
1000
MTEXTEND
  0
POINT
  5
18C06
330
18BFC
100
AcDbEntity
  8
DEFPOINTS
 62
     0
 48
50.0
100
AcDbPoint
 10
4159.896575106963
 20
9636.123139034623
 30
0.0
  0
POINT
  5
18C07
330
18BFC
100
AcDbEntity
  8
DEFPOINTS
 62
     0
 48
50.0
100
AcDbPoint
 10
4214.896575106998
 20
9636.123139034623
 30
0.0
  0
POINT
  5
18C08
330
18BFC
100
AcDbEntity
  8
DEFPOINTS
 62
     0
 48
50.0
100
AcDbPoint
 10
4214.896575106998
 20
10151.9313586596
 30
0.0
  0
ENDBLK
  5
18C09
330
18BFC
100
AcDbEntity
  8
0
 48
50.0
100
AcDbBlockEnd
  0
BLOCK
  5
18C0B
330
18C0A
100
AcDbEntity
  8
0
 48
50.0
100
AcDbBlockBegin
  2
*D8
 70
     1
 10
0.0
 20
0.0
 30
0.0
  3
*D8
  1

  0
LINE
  5
18C0C
330
18C0A
100
AcDbEntity
  8
寸法
 62
     0
 48
50.0
370
    -2
100
AcDbLine
 10
4159.896575106992
 20
7826.123139034546
 30
0.0
 11
4159.896575106992
 21
6804.372203245664
 31
0.0
  0
LINE
  5
18C0D
330
18C0A
100
AcDbEntity
  8
寸法
 62
     0
 48
50.0
370
    -2
100
AcDbLine
 10
7629.896575106974
 20
7826.123139034674
 30
0.0
 11
7629.896575106974
 21
6804.372203245664
 31
0.0
  0
LINE
  5
18C0E
330
18C0A
100
AcDbEntity
  8
寸法
 62
     0
 48
50.0
370
    -2
100
AcDbLine
 10
4159.896575106992
 20
6864.372203245665
 30
0.0
 11
7629.896575106974
 21
6864.372203245665
 31
0.0
  0
INSERT
  5
18C0F
330
18C0A
100
AcDbEntity
  8
寸法
 62
     0
 48
50.0
370
    -2
100
AcDbBlockReference
  2
_DOTSMALL
 10
4159.896575106992
 20
6864.372203245665
 30
0.0
 41
100.0
 42
100.0
 43
100.0
 50
180.0
  0
INSERT
  5
18C10
330
18C0A
100
AcDbEntity
  8
寸法
 62
     0
 48
50.0
370
    -2
100
AcDbBlockReference
  2
_DOTSMALL
 10
7629.896575106974
 20
6864.372203245665
 30
0.0
 41
100.0
 42
100.0
 43
100.0
  0
MTEXT
  5
18C11
330
18C0A
100
AcDbEntity
  8
寸法
 62
     7
 48
50.0
100
AcDbMText
 10
5911.12376113973
 20
6964.372203245665
 30
0.0
 40
120.0
 41
0.0
 71
     5
 72
     1
  1
\A1;3470
  7
STYLE1
 73
     1
 44
1.0
1001
ACAD
1000
MTEXTBEGIN
1070
    73
1070
     1
1070
    44
1040
1.0
1070
    74
1070
     0
1000
MTEXTEND
  0
POINT
  5
18C12
330
18C0A
100
AcDbEntity
  8
DEFPOINTS
 62
     0
 48
50.0
100
AcDbPoint
 10
4159.896575106992
 20
7846.123139034546
 30
0.0
  0
POINT
  5
18C13
330
18C0A
100
AcDbEntity
  8
DEFPOINTS
 62
     0
 48
50.0
100
AcDbPoint
 10
7629.896575106974
 20
7846.123139034673
 30
0.0
  0
POINT
  5
18C14
330
18C0A
100
AcDbEntity
  8
DEFPOINTS
 62
     0
 48
50.0
100
AcDbPoint
 10
7629.896575106974
 20
6864.372203245665
 30
0.0
  0
ENDBLK
  5
18C15
330
18C0A
100
AcDbEntity
  8
0
 48
50.0
100
AcDbBlockEnd
  0
BLOCK
  5
18C17
330
18C16
100
AcDbEntity
  8
0
 48
50.0
100
AcDbBlockBegin
  2
*D9
 70
     1
 10
0.0
 20
0.0
 30
0.0
  3
*D9
  1

  0
LINE
  5
18C18
330
18C16
100
AcDbEntity
  8
寸法
 62
     0
 48
50.0
370
    -2
100
AcDbLine
 10
7649.896575106973
 20
7901.123139034706
 30
0.0
 11
8337.322920841385
 21
7901.123139034706
 31
0.0
  0
LINE
  5
18C19
330
18C16
100
AcDbEntity
  8
寸法
 62
     0
 48
50.0
370
    -2
100
AcDbLine
 10
7649.896575106973
 20
7846.123139034709
 30
0.0
 11
8337.322920841385
 21
7846.123139034709
 31
0.0
  0
LINE
  5
18C1A
330
18C16
100
AcDbEntity
  8
寸法
 62
     0
 48
50.0
370
    -2
100
AcDbLine
 10
8277.322920841385
 20
7901.123139034706
 30
0.0
 11
8277.322920841385
 21
8001.123139034707
 31
0.0
  0
LINE
  5
18C1B
330
18C16
100
AcDbEntity
  8
寸法
 62
     0
 48
50.0
370
    -2
100
AcDbLine
 10
8277.322920841385
 20
7846.123139034709
 30
0.0
 11
8277.322920841385
 21
7429.152576286229
 31
0.0
  0
LINE
  5
18C1C
330
18C16
100
AcDbEntity
  8
寸法
 62
     0
 48
50.0
370
    -2
100
AcDbLine
 10
8277.322920841385
 20
7901.123139034706
 30
0.0
 11
8277.322920841385
 21
7846.123139034709
 31
0.0
  0
INSERT
  5
18C1D
330
18C16
100
AcDbEntity
  8
寸法
 62
     0
 48
50.0
370
    -2
100
AcDbBlockReference
  2
_DOTSMALL
 10
8277.322920841385
 20
7901.123139034706
 30
0.0
 41
100.0
 42
100.0
 43
100.0
 50
270.0
  0
INSERT
  5
18C1E
330
18C16
100
AcDbEntity
  8
寸法
 62
     0
 48
50.0
370
    -2
100
AcDbBlockReference
  2
_DOTSMALL
 10
8277.322920841385
 20
7846.123139034709
 30
0.0
 41
100.0
 42
100.0
 43
100.0
 50
90.0
  0
MTEXT
  5
18C1F
330
18C16
100
AcDbEntity
  8
寸法
 62
     7
 48
50.0
100
AcDbMText
 10
8177.322920841383
 20
7537.637857660469
 30
0.0
 40
120.0
 41
0.0
 71
     5
 72
     1
  1
\A1;55
  7
STYLE1
 11
0.0000000000000001
 21
1.0
 31
0.0
 73
     1
 44
1.0
1001
ACAD
1000
MTEXTBEGIN
1070
    73
1070
     1
1070
    44
1040
1.0
1070
    74
1070
     0
1000
MTEXTEND
  0
POINT
  5
18C20
330
18C16
100
AcDbEntity
  8
DEFPOINTS
 62
     0
 48
50.0
100
AcDbPoint
 10
7629.896575106974
 20
7901.123139034706
 30
0.0
  0
POINT
  5
18C21
330
18C16
100
AcDbEntity
  8
DEFPOINTS
 62
     0
 48
50.0
100
AcDbPoint
 10
7629.896575106974
 20
7846.123139034709
 30
0.0
  0
POINT
  5
18C22
330
18C16
100
AcDbEntity
  8
DEFPOINTS
 62
     0
 48
50.0
100
AcDbPoint
 10
8277.322920841385
 20
7846.123139034709
 30
0.0
  0
ENDBLK
  5
18C23
330
18C16
100
AcDbEntity
  8
0
 48
50.0
100
AcDbBlockEnd
  0
BLOCK
  5
18C25
330
18C24
100
AcDbEntity
  8
0
 48
50.0
100
AcDbBlockBegin
  2
*D10
 70
     1
 10
0.0
 20
0.0
 30
0.0
  3
*D10
  1

  0
LINE
  5
18C26
330
18C24
100
AcDbEntity
  8
寸法
 62
     0
 48
50.0
370
    -2
100
AcDbLine
 10
6533.037591258376
 20
9136.123139034728
 30
0.0
 11
6465.083950562664
 21
8882.516699399049
 31
0.0
  0
LINE
  5
18C27
330
18C24
100
AcDbEntity
  8
寸法
 62
     0
 48
50.0
370
    -2
100
AcDbLine
 10
7596.037591258388
 20
9136.123139034721
 30
0.0
 11
7528.083950562677
 21
8882.516699399049
 31
0.0
  0
LINE
  5
18C28
330
18C24
100
AcDbEntity
  8
寸法
 62
     0
 48
50.0
370
    -2
100
AcDbLine
 10
6481.160902108531
 20
8942.51669939905
 30
0.0
 11
7544.160902108544
 21
8942.51669939905
 31
0.0
  0
INSERT
  5
18C29
330
18C24
100
AcDbEntity
  8
寸法
 62
     0
 48
50.0
370
    -2
100
AcDbBlockReference
  2
_DOTSMALL
 10
6481.160902108531
 20
8942.51669939905
 30
0.0
 41
100.0
 42
100.0
 43
100.0
 50
180.0
  0
INSERT
  5
18C2A
330
18C24
100
AcDbEntity
  8
寸法
 62
     0
 48
50.0
370
    -2
100
AcDbBlockReference
  2
_DOTSMALL
 10
7544.160902108544
 20
8942.51669939905
 30
0.0
 41
100.0
 42
100.0
 43
100.0
  0
MTEXT
  5
18C2B
330
18C24
100
AcDbEntity
  8
寸法
 62
     7
 48
50.0
100
AcDbMText
 10
7061.28653022935
 20
9042.516699399049
 30
0.0
 40
120.0
 41
0.0
 71
     5
 72
     1
  1
\A1;1063
  7
STYLE1
 73
     1
 44
1.0
1001
ACAD
1000
MTEXTBEGIN
1070
    73
1070
     1
1070
    44
1040
1.0
1070
    74
1070
     0
1000
MTEXTEND
  0
POINT
  5
18C2C
330
18C24
100
AcDbEntity
  8
DEFPOINTS
 62
     0
 48
50.0
100
AcDbPoint
 10
6538.396575106998
 20
9156.123139034727
 30
0.0
  0
POINT
  5
18C2D
330
18C24
100
AcDbEntity
  8
DEFPOINTS
 62
     0
 48
50.0
100
AcDbPoint
 10
7601.39657510701
 20
9156.12313903472
 30
0.0
  0
POINT
  5
18C2E
330
18C24
100
AcDbEntity
  8
DEFPOINTS
 62
     0
 48
50.0
100
AcDbPoint
 10
7544.160902108544
 20
8942.51669939905
 30
0.0
  0
ENDBLK
  5
18C2F
330
18C24
100
AcDbEntity
  8
0
 48
50.0
100
AcDbBlockEnd
  0
BLOCK
  5
18C31
330
18C30
100
AcDbEntity
  8
0
 48
50.0
100
AcDbBlockBegin
  2
*D11
 70
     1
 10
0.0
 20
0.0
 30
0.0
  3
*D11
  1

  0
LINE
  5
18C32
330
18C30
100
AcDbEntity
  8
寸法
 62
     0
 48
50.0
370
    -2
100
AcDbLine
 10
7621.396575106999
 20
9600.764155186094
 30
0.0
 11
8016.754300969024
 21
9494.828371819961
 31
0.0
  0
LINE
  5
18C33
330
18C30
100
AcDbEntity
  8
寸法
 62
     0
 48
50.0
370
    -2
100
AcDbLine
 10
7621.396575106999
 20
9150.764155186099
 30
0.0
 11
8016.754300969024
 21
9044.828371819964
 31
0.0
  0
LINE
  5
18C34
330
18C30
100
AcDbEntity
  8
寸法
 62
     0
 48
50.0
370
    -2
100
AcDbLine
 10
7956.754300969024
 20
9510.905323365827
 30
0.0
 11
7956.754300969024
 21
9060.90532336583
 31
0.0
  0
INSERT
  5
18C35
330
18C30
100
AcDbEntity
  8
寸法
 62
     0
 48
50.0
370
    -2
100
AcDbBlockReference
  2
_DOTSMALL
 10
7956.754300969024
 20
9510.905323365827
 30
0.0
 41
100.0
 42
100.0
 43
100.0
 50
90.0
  0
INSERT
  5
18C36
330
18C30
100
AcDbEntity
  8
寸法
 62
     0
 48
50.0
370
    -2
100
AcDbBlockReference
  2
_DOTSMALL
 10
7956.754300969024
 20
9060.90532336583
 30
0.0
 41
100.0
 42
100.0
 43
100.0
 50
270.0
  0
MTEXT
  5
18C37
330
18C30
100
AcDbEntity
  8
寸法
 62
     7
 48
50.0
100
AcDbMText
 10
7856.754300969022
 20
9285.905323365829
 30
0.0
 40
120.0
 41
0.0
 71
     5
 72
     1
  1
\A1;450
  7
STYLE1
 11
0.0000000000000001
 21
1.0
 31
0.0
 73
     1
 44
1.0
1001
ACAD
1000
MTEXTBEGIN
1070
    73
1070
     1
1070
    44
1040
1.0
1070
    74
1070
     0
1000
MTEXTEND
  0
POINT
  5
18C38
330
18C30
100
AcDbEntity
  8
DEFPOINTS
 62
     0
 48
50.0
100
AcDbPoint
 10
7601.396575106999
 20
9606.123139034718
 30
0.0
  0
POINT
  5
18C39
330
18C30
100
AcDbEntity
  8
DEFPOINTS
 62
     0
 48
50.0
100
AcDbPoint
 10
7601.396575106999
 20
9156.12313903472
 30
0.0
  0
POINT
  5
18C3A
330
18C30
100
AcDbEntity
  8
DEFPOINTS
 62
     0
 48
50.0
100
AcDbPoint
 10
7956.754300969024
 20
9060.90532336583
 30
0.0
  0
ENDBLK
  5
18C3B
330
18C30
100
AcDbEntity
  8
0
 48
50.0
100
AcDbBlockEnd
  0
BLOCK
  5
18C3D
330
18C3C
100
AcDbEntity
  8
0
 48
50.0
100
AcDbBlockBegin
  2
*D12
 70
     1
 10
0.0
 20
0.0
 30
0.0
  3
*D12
  1

  0
LINE
  5
18C3E
330
18C3C
100
AcDbEntity
  8
寸法
 62
     0
 48
50.0
370
    -2
100
AcDbLine
 10
7649.896575106999
 20
9581.123139034721
 30
0.0
 11
8337.32292084141
 21
9581.123139034721
 31
0.0
  0
LINE
  5
18C3F
330
18C3C
100
AcDbEntity
  8
寸法
 62
     0
 48
50.0
370
    -2
100
AcDbLine
 10
7649.896575106973
 20
7901.123139034706
 30
0.0
 11
8337.32292084141
 21
7901.123139034706
 31
0.0
  0
LINE
  5
18C40
330
18C3C
100
AcDbEntity
  8
寸法
 62
     0
 48
50.0
370
    -2
100
AcDbLine
 10
8277.322920841411
 20
9581.123139034721
 30
0.0
 11
8277.322920841411
 21
7901.123139034706
 31
0.0
  0
INSERT
  5
18C41
330
18C3C
100
AcDbEntity
  8
寸法
 62
     0
 48
50.0
370
    -2
100
AcDbBlockReference
  2
_DOTSMALL
 10
8277.322920841411
 20
9581.123139034721
 30
0.0
 41
100.0
 42
100.0
 43
100.0
 50
90.0
  0
INSERT
  5
18C42
330
18C3C
100
AcDbEntity
  8
寸法
 62
     0
 48
50.0
370
    -2
100
AcDbBlockReference
  2
_DOTSMALL
 10
8277.322920841411
 20
7901.123139034706
 30
0.0
 41
100.0
 42
100.0
 43
100.0
 50
270.0
  0
MTEXT
  5
18C43
330
18C3C
100
AcDbEntity
  8
寸法
 62
     7
 48
50.0
100
AcDbMText
 10
8177.311109817788
 20
8741.123139034712
 30
0.0
 40
120.0
 41
0.0
 71
     5
 72
     1
  1
\A1;4X420=1680
  7
STYLE1
 11
0.0000000000000001
 21
1.0
 31
0.0
 73
     1
 44
1.0
1001
ACAD
1000
MTEXTBEGIN
1070
    73
1070
     1
1070
    44
1040
1.0
1070
    74
1070
     0
1000
MTEXTEND
  0
POINT
  5
18C44
330
18C3C
100
AcDbEntity
  8
DEFPOINTS
 62
     0
 48
50.0
100
AcDbPoint
 10
7629.896575106998
 20
9581.123139034721
 30
0.0
  0
POINT
  5
18C45
330
18C3C
100
AcDbEntity
  8
DEFPOINTS
 62
     0
 48
50.0
100
AcDbPoint
 10
7629.896575106974
 20
7901.123139034706
 30
0.0
  0
POINT
  5
18C46
330
18C3C
100
AcDbEntity
  8
DEFPOINTS
 62
     0
 48
50.0
100
AcDbPoint
 10
8277.322920841411
 20
7901.123139034706
 30
0.0
  0
ENDBLK
  5
18C47
330
18C3C
100
AcDbEntity
  8
0
 48
50.0
100
AcDbBlockEnd
  0
BLOCK
  5
18C49
330
18C48
100
AcDbEntity
  8
0
 48
50.0
100
AcDbBlockBegin
  2
*D13
 70
     1
 10
0.0
 20
0.0
 30
0.0
  3
*D13
  1

  0
LINE
  5
18C4A
330
18C48
100
AcDbEntity
  8
寸法
 62
     0
 48
50.0
370
    -2
100
AcDbLine
 10
4183.037591258377
 20
9136.123139034619
 30
0.0
 11
4115.083950562663
 21
8882.516699398941
 31
0.0
  0
LINE
  5
18C4B
330
18C48
100
AcDbEntity
  8
寸法
 62
     0
 48
50.0
370
    -2
100
AcDbLine
 10
5246.037591258307
 20
9136.123139034671
 30
0.0
 11
5178.08395056258
 21
8882.516699398941
 31
0.0
  0
LINE
  5
18C4C
330
18C48
100
AcDbEntity
  8
寸法
 62
     0
 48
50.0
370
    -2
100
AcDbLine
 10
4131.160902108532
 20
8942.516699398941
 30
0.0
 11
5194.160902108448
 21
8942.516699398941
 31
0.0
  0
INSERT
  5
18C4D
330
18C48
100
AcDbEntity
  8
寸法
 62
     0
 48
50.0
370
    -2
100
AcDbBlockReference
  2
_DOTSMALL
 10
4131.160902108532
 20
8942.516699398941
 30
0.0
 41
100.0
 42
100.0
 43
100.0
 50
180.0
  0
INSERT
  5
18C4E
330
18C48
100
AcDbEntity
  8
寸法
 62
     0
 48
50.0
370
    -2
100
AcDbBlockReference
  2
_DOTSMALL
 10
5194.160902108448
 20
8942.516699398941
 30
0.0
 41
100.0
 42
100.0
 43
100.0
  0
MTEXT
  5
18C4F
330
18C48
100
AcDbEntity
  8
寸法
 62
     7
 48
50.0
100
AcDbMText
 10
4658.986452655306
 20
9042.516699398941
 30
0.0
 40
120.0
 41
0.0
 71
     5
 72
     1
  1
\A1;1063
  7
STYLE1
 73
     1
 44
1.0
1001
ACAD
1000
MTEXTBEGIN
1070
    73
1070
     1
1070
    44
1040
1.0
1070
    74
1070
     0
1000
MTEXTEND
  0
POINT
  5
18C50
330
18C48
100
AcDbEntity
  8
DEFPOINTS
 62
     0
 48
50.0
100
AcDbPoint
 10
4188.396575106999
 20
9156.123139034617
 30
0.0
  0
POINT
  5
18C51
330
18C48
100
AcDbEntity
  8
DEFPOINTS
 62
     0
 48
50.0
100
AcDbPoint
 10
5251.396575106929
 20
9156.123139034672
 30
0.0
  0
POINT
  5
18C52
330
18C48
100
AcDbEntity
  8
DEFPOINTS
 62
     0
 48
50.0
100
AcDbPoint
 10
5194.160902108448
 20
8942.516699398941
 30
0.0
  0
ENDBLK
  5
18C53
330
18C48
100
AcDbEntity
  8
0
 48
50.0
100
AcDbBlockEnd
  0
BLOCK
  5
18C55
330
18C54
100
AcDbEntity
  8
0
 48
50.0
100
AcDbBlockBegin
  2
*D14
 70
     1
 10
0.0
 20
0.0
 30
0.0
  3
*D14
  1

  0
LINE
  5
18C56
330
18C54
100
AcDbEntity
  8
寸法
 62
     0
 48
50.0
370
    -2
100
AcDbLine
 10
5274.037591258307
 20
9136.123139034669
 30
0.0
 11
5206.08395056258
 21
8882.516699398941
 31
0.0
  0
LINE
  5
18C57
330
18C54
100
AcDbEntity
  8
寸法
 62
     0
 48
50.0
370
    -2
100
AcDbLine
 10
6505.037591258377
 20
9136.123139034662
 30
0.0
 11
6437.083950562653
 21
8882.516699398941
 31
0.0
  0
LINE
  5
18C58
330
18C54
100
AcDbEntity
  8
寸法
 62
     0
 48
50.0
370
    -2
100
AcDbLine
 10
5222.160902108448
 20
8942.516699398941
 30
0.0
 11
6453.16090210852
 21
8942.516699398941
 31
0.0
  0
INSERT
  5
18C59
330
18C54
100
AcDbEntity
  8
寸法
 62
     0
 48
50.0
370
    -2
100
AcDbBlockReference
  2
_DOTSMALL
 10
5222.160902108448
 20
8942.516699398941
 30
0.0
 41
100.0
 42
100.0
 43
100.0
 50
180.0
  0
INSERT
  5
18C5A
330
18C54
100
AcDbEntity
  8
寸法
 62
     0
 48
50.0
370
    -2
100
AcDbBlockReference
  2
_DOTSMALL
 10
6453.16090210852
 20
8942.516699398941
 30
0.0
 41
100.0
 42
100.0
 43
100.0
  0
MTEXT
  5
18C5B
330
18C54
100
AcDbEntity
  8
寸法
 62
     7
 48
50.0
100
AcDbMText
 10
6081.244808320626
 20
9042.528510422561
 30
0.0
 40
120.0
 41
0.0
 71
     5
 72
     1
  1
\A1;1231
  7
STYLE1
 73
     1
 44
1.0
1001
ACAD
1000
MTEXTBEGIN
1070
    73
1070
     1
1070
    44
1040
1.0
1070
    74
1070
     0
1000
MTEXTEND
  0
POINT
  5
18C5C
330
18C54
100
AcDbEntity
  8
DEFPOINTS
 62
     0
 48
50.0
100
AcDbPoint
 10
5279.396575106929
 20
9156.123139034669
 30
0.0
  0
POINT
  5
18C5D
330
18C54
100
AcDbEntity
  8
DEFPOINTS
 62
     0
 48
50.0
100
AcDbPoint
 10
6510.396575106999
 20
9156.123139034662
 30
0.0
  0
POINT
  5
18C5E
330
18C54
100
AcDbEntity
  8
DEFPOINTS
 62
     0
 48
50.0
100
AcDbPoint
 10
6453.16090210852
 20
8942.516699398941
 30
0.0
  0
ENDBLK
  5
18C5F
330
18C54
100
AcDbEntity
  8
0
 48
50.0
100
AcDbBlockEnd
  0
BLOCK
  5
18C61
330
18C60
100
AcDbEntity
  8
0
 48
50.0
100
AcDbBlockBegin
  2
*D15
 70
     1
 10
0.0
 20
0.0
 30
0.0
  3
*D15
  1

  0
LINE
  5
18C62
330
18C60
100
AcDbEntity
  8
寸法
 62
     0
 48
50.0
370
    -2
100
AcDbLine
 10
5065.896575106966
 20
7749.123139034579
 30
0.0
 11
5065.896575106966
 21
7099.952920982538
 31
0.0
  0
LINE
  5
18C63
330
18C60
100
AcDbEntity
  8
寸法
 62
     0
 48
50.0
370
    -2
100
AcDbLine
 10
6331.896575106966
 20
7749.123139034579
 30
0.0
 11
6331.896575106966
 21
7099.952920982538
 31
0.0
  0
LINE
  5
18C64
330
18C60
100
AcDbEntity
  8
寸法
 62
     0
 48
50.0
370
    -2
100
AcDbLine
 10
5065.896575106966
 20
7159.952920982537
 30
0.0
 11
6331.896575106966
 21
7159.952920982537
 31
0.0
  0
INSERT
  5
18C65
330
18C60
100
AcDbEntity
  8
寸法
 62
     0
 48
50.0
370
    -2
100
AcDbBlockReference
  2
_DOTSMALL
 10
5065.896575106966
 20
7159.952920982537
 30
0.0
 41
100.0
 42
100.0
 43
100.0
 50
180.0
  0
INSERT
  5
18C66
330
18C60
100
AcDbEntity
  8
寸法
 62
     0
 48
50.0
370
    -2
100
AcDbBlockReference
  2
_DOTSMALL
 10
6331.896575106966
 20
7159.952920982537
 30
0.0
 41
100.0
 42
100.0
 43
100.0
  0
MTEXT
  5
18C67
330
18C60
100
AcDbEntity
  8
寸法
 62
     7
 48
50.0
100
AcDbMText
 10
5711.986008735934
 20
7359.964732006159
 30
0.0
 40
120.0
 41
0.0
 71
     5
 72
     1
  1
\A1;有効開口部間口\P1266
  7
STYLE1
 73
     1
 44
1.0
1001
ACAD
1000
MTEXTBEGIN
1070
    73
1070
     1
1070
    44
1040
1.0
1070
    74
1070
     0
1000
MTEXTEND
  0
POINT
  5
18C68
330
18C60
100
AcDbEntity
  8
DEFPOINTS
 62
     0
 48
50.0
100
AcDbPoint
 10
5065.896575106966
 20
7769.123139034579
 30
0.0
  0
POINT
  5
18C69
330
18C60
100
AcDbEntity
  8
DEFPOINTS
 62
     0
 48
50.0
100
AcDbPoint
 10
6331.896575106966
 20
7769.123139034579
 30
0.0
  0
POINT
  5
18C6A
330
18C60
100
AcDbEntity
  8
DEFPOINTS
 62
     0
 48
50.0
100
AcDbPoint
 10
6331.896575106966
 20
7159.952920982537
 30
0.0
  0
ENDBLK
  5
18C6B
330
18C60
100
AcDbEntity
  8
0
 48
50.0
100
AcDbBlockEnd
  0
BLOCK
  5
18C6D
330
18C6C
100
AcDbEntity
  8
0
 48
50.0
100
AcDbBlockBegin
  2
*D16
 70
     1
 10
0.0
 20
0.0
 30
0.0
  3
*D16
  1

  0
LINE
  5
18C6E
330
18C6C
100
AcDbEntity
  8
寸法
 62
     0
 48
50.0
370
    -2
100
AcDbLine
 10
7200.896575106966
 20
7846.123139034578
 30
0.0
 11
7457.192158500191
 21
7846.123139034578
 31
0.0
  0
LINE
  5
18C6F
330
18C6C
100
AcDbEntity
  8
寸法
 62
     0
 48
50.0
370
    -2
100
AcDbLine
 10
7199.896575106966
 20
7769.123139034579
 30
0.0
 11
7457.192158500191
 21
7769.123139034579
 31
0.0
  0
LINE
  5
18C70
330
18C6C
100
AcDbEntity
  8
寸法
 62
     0
 48
50.0
370
    -2
100
AcDbLine
 10
7417.192158500192
 20
7866.123139034579
 30
0.0
 11
7417.192158500192
 21
7886.123139034578
 31
0.0
  0
LINE
  5
18C71
330
18C6C
100
AcDbEntity
  8
寸法
 62
     0
 48
50.0
370
    -2
100
AcDbLine
 10
7417.192158500192
 20
7749.123139034579
 30
0.0
 11
7417.192158500192
 21
7533.123139034573
 31
0.0
  0
LINE
  5
18C72
330
18C6C
100
AcDbEntity
  8
寸法
 62
     0
 48
50.0
370
    -2
100
AcDbLine
 10
7417.192158500192
 20
7846.123139034578
 30
0.0
 11
7417.192158500192
 21
7769.123139034579
 31
0.0
  0
INSERT
  5
18C73
330
18C6C
100
AcDbEntity
  8
寸法
 62
     0
 48
50.0
370
    -2
100
AcDbBlockReference
  2
_DOT
 10
7417.192158500192
 20
7846.123139034578
 30
0.0
 41
20.0
 42
20.0
 43
20.0
 50
270.0
  0
INSERT
  5
18C74
330
18C6C
100
AcDbEntity
  8
寸法
 62
     0
 48
50.0
370
    -2
100
AcDbBlockReference
  2
_DOT
 10
7417.192158500192
 20
7769.123139034579
 30
0.0
 41
20.0
 42
20.0
 43
20.0
 50
90.0
  0
MTEXT
  5
18C75
330
18C6C
100
AcDbEntity
  8
寸法
 62
     7
 48
50.0
100
AcDbMText
 10
7325.192158500191
 20
7631.123139034575
 30
0.0
 40
120.0
 41
0.0
 71
     5
 72
     1
  1
\A1;77
  7
STYLE1
 11
0.0000000000000001
 21
1.0
 31
0.0
 73
     1
 44
1.0
1001
ACAD
1000
MTEXTBEGIN
1070
    73
1070
     1
1070
    44
1040
1.0
1070
    74
1070
     0
1000
MTEXTEND
  0
POINT
  5
18C76
330
18C6C
100
AcDbEntity
  8
DEFPOINTS
 62
     0
 48
50.0
100
AcDbPoint
 10
7180.896575106967
 20
7846.123139034578
 30
0.0
  0
POINT
  5
18C77
330
18C6C
100
AcDbEntity
  8
DEFPOINTS
 62
     0
 48
50.0
100
AcDbPoint
 10
7179.896575106965
 20
7769.123139034579
 30
0.0
  0
POINT
  5
18C78
330
18C6C
100
AcDbEntity
  8
DEFPOINTS
 62
     0
 48
50.0
100
AcDbPoint
 10
7417.192158500192
 20
7769.123139034579
 30
0.0
  0
ENDBLK
  5
18C79
330
18C6C
100
AcDbEntity
  8
0
 48
50.0
100
AcDbBlockEnd
  0
BLOCK
  5
18DA0
330
18C7A
100
AcDbEntity
  8
0
 48
50.0
100
AcDbBlockBegin
  2
A$C3B1A506B
 70
     0
 10
0.0
 20
0.0
 30
0.0
  3
A$C3B1A506B
  1

  0
MTEXT
  5
18C7B
330
18C7A
100
AcDbEntity
  8
寸法
 62
     7
 48
50.0
100
AcDbMText
 10
3342.250386887194
 20
2778.329429134012
 30
0.0
 40
96.0
 41
0.0
 71
     5
 72
     1
  1
棚 2段
  7
STYLE1
 73
     1
 44
1.0
1001
ACAD
1000
MTEXTBEGIN
1070
    73
1070
     1
1070
    44
1040
1.0
1070
    74
1070
     0
1000
MTEXTEND
  0
MTEXT
  5
18C7C
330
18C7A
100
AcDbEntity
  8
寸法
 62
     7
 48
50.0
100
AcDbMText
 10
2167.25038688716
 20
2778.329429133986
 30
0.0
 40
96.0
 41
0.0
 71
     5
 72
     1
  1
棚 2段
  7
STYLE1
 73
     1
 44
1.0
1001
ACAD
1000
MTEXTBEGIN
1070
    73
1070
     1
1070
    44
1040
1.0
1070
    74
1070
     0
1000
MTEXTEND
  0
MTEXT
  5
18C7D
330
18C7A
100
AcDbEntity
  8
寸法
 62
     7
 48
50.0
100
AcDbMText
 10
992.2503868871608
 20
2778.329429133935
 30
0.0
 40
96.0
 41
0.0
 71
     5
 72
     1
  1
棚 2段
  7
STYLE1
 73
     1
 44
1.0
1001
ACAD
1000
MTEXTBEGIN
1070
    73
1070
     1
1070
    44
1040
1.0
1070
    74
1070
     0
1000
MTEXTEND
  0
LINE
  5
18C7E
330
18C7A
100
AcDbEntity
  8
細線
 48
50.0
100
AcDbLine
 10
2771.970589276527
 20
1368.994384123192
 30
0.0
 11
3398.970589276523
 21
1368.994384123192
 31
0.0
  0
LINE
  5
18C7F
330
18C7A
100
AcDbEntity
  8
細線
 48
50.0
100
AcDbLine
 10
2117.970593930113
 20
1335.285615569113
 30
0.0
 11
3398.970589276523
 21
1335.285615569113
 31
0.0
  0
LINE
  5
18C80
330
18C7A
100
AcDbEntity
  8
細線
 48
50.0
100
AcDbLine
 10
2076.970593930115
 20
1364.690523565368
 30
0.0
 11
1322.970589276523
 21
1364.690523565367
 31
0.0
  0
LINE
  5
18C81
330
18C7A
100
AcDbEntity
  8
細線
100
AcDbLine
 10
3170.720579860066
 20
1388.494284088199
 30
0.0
 11
3173.052119381877
 21
1393.494286728162
 31
0.0
  0
LINE
  5
18C82
330
18C7A
100
AcDbEntity
  8
細線
100
AcDbLine
 10
3240.720589276525
 20
1388.494269174465
 30
0.0
 11
3238.389042800336
 21
1393.494286728144
 31
0.0
  0
LINE
  5
18C83
330
18C7A
100
AcDbEntity
  8
細線
100
AcDbLine
 10
3238.389042800336
 20
1393.494286728144
 30
0.0
 11
3173.052119381862
 21
1393.494286728133
 31
0.0
  0
LINE
  5
18C84
330
18C7A
100
AcDbEntity
  8
細線
100
AcDbLine
 10
3098.389042800336
 20
1393.494286728144
 30
0.0
 11
3033.052119381862
 21
1393.494286728133
 31
0.0
  0
LINE
  5
18C85
330
18C7A
100
AcDbEntity
  8
細線
100
AcDbLine
 10
3100.720589276523
 20
1388.494269174465
 30
0.0
 11
3098.389042800336
 21
1393.494286728144
 31
0.0
  0
LINE
  5
18C86
330
18C7A
100
AcDbEntity
  8
細線
100
AcDbLine
 10
3030.720579860066
 20
1388.494284088199
 30
0.0
 11
3033.052119381875
 21
1393.494286728162
 31
0.0
  0
LINE
  5
18C87
330
18C7A
100
AcDbEntity
  8
細線
100
AcDbLine
 10
2890.720589276525
 20
1388.494269174465
 30
0.0
 11
2893.052128798336
 21
1393.494271814428
 31
0.0
  0
LINE
  5
18C88
330
18C7A
100
AcDbEntity
  8
細線
100
AcDbLine
 10
2960.720598692984
 20
1388.494254260731
 30
0.0
 11
2958.389052216793
 21
1393.49427181441
 31
0.0
  0
LINE
  5
18C89
330
18C7A
100
AcDbEntity
  8
細線
100
AcDbLine
 10
2958.389052216795
 20
1393.49427181441
 30
0.0
 11
2893.052128798321
 21
1393.494271814399
 31
0.0
  0
LINE
  5
18C8A
330
18C7A
100
AcDbEntity
  8
細線
100
AcDbLine
 10
2667.139038146739
 20
1359.494298590735
 30
0.0
 11
2601.802114728263
 21
1359.494298590724
 31
0.0
  0
LINE
  5
18C8B
330
18C7A
100
AcDbEntity
  8
細線
100
AcDbLine
 10
2669.470584622926
 20
1354.494281037055
 30
0.0
 11
2667.139038146737
 21
1359.494298590735
 31
0.0
  0
LINE
  5
18C8C
330
18C7A
100
AcDbEntity
  8
細線
100
AcDbLine
 10
2599.470575206469
 20
1354.49429595079
 30
0.0
 11
2601.802114728278
 21
1359.494298590752
 31
0.0
  0
LINE
  5
18C8D
330
18C7A
100
AcDbEntity
  8
細線
 48
50.0
100
AcDbLine
 10
2440.853968524536
 20
1372.765132327548
 30
0.0
 11
2446.609486107205
 21
1354.494281037057
 31
0.0
  0
LINE
  5
18C8E
330
18C7A
100
AcDbEntity
  8
細線
 48
50.0
100
AcDbLine
 10
2429.925520044106
 20
1372.765132327546
 30
0.0
 11
2440.853968524536
 21
1372.765132327548
 31
0.0
  0
ARC
  5
18C8F
330
18C7A
100
AcDbEntity
  8
細線
 48
50.0
100
AcDbCircle
 10
2424.471163986787
 20
1374.265132327546
 30
0.0
 40
5.0
100
AcDbArc
 50
204.6243183520723
 51
335.3756816479278
  0
ARC
  5
18C90
330
18C7A
100
AcDbEntity
  8
細線
 48
50.0
100
AcDbCircle
 10
2429.925520044106
 20
1371.765132327546
 30
0.0
 40
1.0
100
AcDbArc
 50
90.0
 51
155.3756816479277
  0
ARC
  5
18C91
330
18C7A
100
AcDbEntity
  8
細線
 48
50.0
100
AcDbCircle
 10
2419.016807929469
 20
1371.765132327546
 30
0.0
 40
1.0
100
AcDbArc
 50
24.62431835207225
 51
90.0
  0
LINE
  5
18C92
330
18C7A
100
AcDbEntity
  8
細線
 48
50.0
100
AcDbLine
 10
2408.088359449037
 20
1372.765132327548
 30
0.0
 11
2419.016807929469
 21
1372.765132327546
 31
0.0
  0
LINE
  5
18C93
330
18C7A
100
AcDbEntity
  8
細線
 48
50.0
100
AcDbLine
 10
2402.33284186637
 20
1354.494281037054
 30
0.0
 11
2408.088359449037
 21
1372.765132327548
 31
0.0
  0
LINE
  5
18C94
330
18C7A
100
AcDbEntity
  8
細線
100
AcDbLine
 10
2458.070304175992
 20
1354.494278397076
 30
0.0
 11
2460.401843697802
 21
1359.494281037039
 31
0.0
  0
LINE
  5
18C95
330
18C7A
100
AcDbEntity
  8
細線
100
AcDbLine
 10
2528.070313592451
 20
1354.494263483342
 30
0.0
 11
2525.738767116262
 21
1359.494281037021
 31
0.0
  0
LINE
  5
18C96
330
18C7A
100
AcDbEntity
  8
細線
100
AcDbLine
 10
2525.738767116262
 20
1359.494281037021
 30
0.0
 11
2460.40184369779
 21
1359.49428103701
 31
0.0
  0
LINE
  5
18C97
330
18C7A
100
AcDbEntity
  8
細線
100
AcDbLine
 10
2387.139046332155
 20
1359.494281037021
 30
0.0
 11
2321.80212291368
 21
1359.49428103701
 31
0.0
  0
LINE
  5
18C98
330
18C7A
100
AcDbEntity
  8
細線
100
AcDbLine
 10
2389.470592808342
 20
1354.494263483342
 30
0.0
 11
2387.139046332153
 21
1359.494281037021
 31
0.0
  0
LINE
  5
18C99
330
18C7A
100
AcDbEntity
  8
細線
100
AcDbLine
 10
2319.470584622926
 20
1354.494281037054
 30
0.0
 11
2321.802122913694
 21
1359.494281037039
 31
0.0
  0
LINE
  5
18C9A
330
18C7A
100
AcDbEntity
  8
細線
100
AcDbLine
 10
2179.47061994182
 20
1354.494289224422
 30
0.0
 11
2181.802158232587
 21
1359.494289224407
 31
0.0
  0
LINE
  5
18C9B
330
18C7A
100
AcDbEntity
  8
細線
100
AcDbLine
 10
2249.470628127236
 20
1354.49427167071
 30
0.0
 11
2247.139081651047
 21
1359.494289224389
 31
0.0
  0
LINE
  5
18C9C
330
18C7A
100
AcDbEntity
  8
細線
100
AcDbLine
 10
2247.139081651047
 20
1359.494289224389
 30
0.0
 11
2181.802158232573
 21
1359.494289224378
 31
0.0
  0
LINE
  5
18C9D
330
18C7A
100
AcDbEntity
  8
細線
100
AcDbLine
 10
1807.970585744697
 20
1320.494460905133
 30
0.0
 11
1810.302124035464
 21
1325.494460905118
 31
0.0
  0
LINE
  5
18C9E
330
18C7A
100
AcDbEntity
  8
細線
100
AcDbLine
 10
1877.970593930113
 20
1320.494443351421
 30
0.0
 11
1875.639047453926
 21
1325.4944609051
 31
0.0
  0
LINE
  5
18C9F
330
18C7A
100
AcDbEntity
  8
細線
100
AcDbLine
 10
1875.639047453926
 20
1325.4944609051
 30
0.0
 11
1810.302124035452
 21
1325.494460905089
 31
0.0
  0
LINE
  5
18CA0
330
18C7A
100
AcDbEntity
  8
細線
100
AcDbLine
 10
2015.639047453926
 20
1325.4944609051
 30
0.0
 11
1950.302124035452
 21
1325.494460905089
 31
0.0
  0
LINE
  5
18CA1
330
18C7A
100
AcDbEntity
  8
細線
100
AcDbLine
 10
2017.970593930113
 20
1320.494443351421
 30
0.0
 11
2015.639047453924
 21
1325.4944609051
 31
0.0
  0
LINE
  5
18CA2
330
18C7A
100
AcDbEntity
  8
細線
100
AcDbLine
 10
1947.970585744697
 20
1320.494460905133
 30
0.0
 11
1950.302124035465
 21
1325.494460905118
 31
0.0
  0
LINE
  5
18CA3
330
18C7A
100
AcDbEntity
  8
細線
100
AcDbLine
 10
1735.639047453926
 20
1325.494460905098
 30
0.0
 11
1670.302124035454
 21
1325.494460905087
 31
0.0
  0
LINE
  5
18CA4
330
18C7A
100
AcDbEntity
  8
細線
100
AcDbLine
 10
1737.970593930113
 20
1320.494443351419
 30
0.0
 11
1735.639047453926
 21
1325.494460905098
 31
0.0
  0
LINE
  5
18CA5
330
18C7A
100
AcDbEntity
  8
細線
100
AcDbLine
 10
1667.970585744697
 20
1320.494460905131
 30
0.0
 11
1670.302124035465
 21
1325.494460905116
 31
0.0
  0
LINE
  5
18CA6
330
18C7A
100
AcDbEntity
  8
細線
100
AcDbLine
 10
1527.970593930113
 20
1320.494460905133
 30
0.0
 11
1530.302132220881
 21
1325.494460905118
 31
0.0
  0
LINE
  5
18CA7
330
18C7A
100
AcDbEntity
  8
細線
100
AcDbLine
 10
1597.970602115529
 20
1320.494443351421
 30
0.0
 11
1595.639055639342
 21
1325.4944609051
 31
0.0
  0
LINE
  5
18CA8
330
18C7A
100
AcDbEntity
  8
細線
100
AcDbLine
 10
1595.639055639342
 20
1325.4944609051
 30
0.0
 11
1530.302132220869
 21
1325.494460905089
 31
0.0
  0
ARC
  5
18CA9
330
18C7A
100
AcDbEntity
  8
部品1
 48
0.01
100
AcDbCircle
 10
1483.470482677778
 20
1319.493338720063
 30
0.0
 40
0.5
100
AcDbArc
 50
270.0
 51
0.0
  0
LINE
  5
18CAA
330
18C7A
100
AcDbEntity
  8
部品1
 48
0.01
100
AcDbLine
 10
1483.970482677778
 20
1320.493338720063
 30
0.0
 11
1483.970482677778
 21
1319.493338720063
 31
0.0
  0
LINE
  5
18CAB
330
18C7A
100
AcDbEntity
  8
部品1
 48
0.01
100
AcDbLine
 10
1483.970482677778
 20
1320.493338720063
 30
0.0
 11
1483.970482677778
 21
1319.493338720063
 31
0.0
  0
LINE
  5
18CAC
330
18C7A
100
AcDbEntity
  8
部品1
 48
0.01
100
AcDbLine
 10
1483.470482677778
 20
1318.993338720063
 30
0.0
 11
1476.857977247713
 21
1318.993338720062
 31
0.0
  0
ARC
  5
18CAD
330
18C7A
100
AcDbEntity
  8
部品1
100
AcDbCircle
 10
1476.926326800494
 20
1319.993338720062
 30
0.0
 40
1.0
100
AcDbArc
 50
160.5287793655865
 51
270.0
  0
ARC
  5
18CAE
330
18C7A
100
AcDbEntity
  8
部品1
100
AcDbCircle
 10
1451.470482677778
 20
1328.993338720062
 30
0.0
 40
26.0
100
AcDbArc
 50
340.5287793655865
 51
0.0
  0
LINE
  5
18CAF
330
18C7A
100
AcDbEntity
  8
部品1
100
AcDbLine
 10
1477.470482677778
 20
1328.993338720062
 30
0.0
 11
1477.470482677778
 21
1333.993338720061
 31
0.0
  0
ARC
  5
18CB0
330
18C7A
100
AcDbEntity
  8
部品1
 48
0.01
100
AcDbCircle
 10
1475.470482677778
 20
1333.993338720061
 30
0.0
 40
2.0
100
AcDbArc
 50
0.0
 51
90.0
  0
ARC
  5
18CB1
330
18C7A
100
AcDbEntity
  8
部品1
100
AcDbCircle
 10
1473.862091052968
 20
1332.993338720062
 30
0.0
 40
3.0
100
AcDbArc
 50
90.0
 51
141.6069559808035
  0
LINE
  5
18CB2
330
18C7A
100
AcDbEntity
  8
部品1
 48
0.01
100
AcDbLine
 10
1475.470482677778
 20
1335.993338720062
 30
0.0
 11
1473.862091052968
 21
1335.993338720062
 31
0.0
  0
ARC
  5
18CB3
330
18C7A
100
AcDbEntity
  8
部品1
100
AcDbCircle
 10
1455.399768463507
 20
1332.293338720065
 30
0.0
 40
3.0
100
AcDbArc
 50
254.0576313943215
 51
270.0
  0
ARC
  5
18CB4
330
18C7A
100
AcDbEntity
  8
部品1
100
AcDbCircle
 10
1462.541196892049
 20
1332.293338720065
 30
0.0
 40
3.0
100
AcDbArc
 50
270.0
 51
285.9423686056786
  0
LINE
  5
18CB5
330
18C7A
100
AcDbEntity
  8
部品1
100
AcDbLine
 10
1462.541196892049
 20
1329.293338720064
 30
0.0
 11
1455.399768463507
 21
1329.293338720064
 31
0.0
  0
ARC
  5
18CB6
330
18C7A
100
AcDbEntity
  8
部品1
100
AcDbCircle
 10
1458.970482677778
 20
1344.793338720065
 30
0.0
 40
16.0
100
AcDbArc
 50
285.9423686056786
 51
321.6069559808035
  0
LINE
  5
18CB7
330
18C7A
100
AcDbEntity
  8
部品1
 48
0.01
100
AcDbLine
 10
1442.470482677778
 20
1335.993338720062
 30
0.0
 11
1444.078874302588
 21
1335.993338720062
 31
0.0
  0
ARC
  5
18CB8
330
18C7A
100
AcDbEntity
  8
部品1
100
AcDbCircle
 10
1444.078874302588
 20
1332.993338720062
 30
0.0
 40
3.0
100
AcDbArc
 50
38.39304401919648
 51
90.0
  0
ARC
  5
18CB9
330
18C7A
100
AcDbEntity
  8
部品1
100
AcDbCircle
 10
1458.970482677778
 20
1344.793338720065
 30
0.0
 40
16.0
100
AcDbArc
 50
218.3930440191965
 51
254.0576313943215
  0
LINE
  5
18CBA
330
18C7A
100
AcDbEntity
  8
部品1
100
AcDbLine
 10
1440.470482677778
 20
1328.993338720062
 30
0.0
 11
1440.470482677778
 21
1333.993338720061
 31
0.0
  0
ARC
  5
18CBB
330
18C7A
100
AcDbEntity
  8
部品1
 48
0.01
100
AcDbCircle
 10
1442.470482677778
 20
1333.993338720061
 30
0.0
 40
2.0
100
AcDbArc
 50
90.0
 51
180.0
  0
ARC
  5
18CBC
330
18C7A
100
AcDbEntity
  8
部品1
100
AcDbCircle
 10
1466.470482677778
 20
1328.993338720062
 30
0.0
 40
26.0
100
AcDbArc
 50
180.0
 51
199.4712206344134
  0
ARC
  5
18CBD
330
18C7A
100
AcDbEntity
  8
部品1
 48
0.01
100
AcDbCircle
 10
1434.470482677778
 20
1319.493338720063
 30
0.0
 40
0.5
100
AcDbArc
 50
180.0
 51
270.0
  0
LINE
  5
18CBE
330
18C7A
100
AcDbEntity
  8
部品1
 48
0.01
100
AcDbLine
 10
1434.470482677778
 20
1318.993338720063
 30
0.0
 11
1441.014638555061
 21
1318.993338720062
 31
0.0
  0
LINE
  5
18CBF
330
18C7A
100
AcDbEntity
  8
部品1
 48
0.01
100
AcDbLine
 10
1433.970482677778
 20
1320.493338720063
 30
0.0
 11
1433.970482677778
 21
1319.493338720063
 31
0.0
  0
ARC
  5
18CC0
330
18C7A
100
AcDbEntity
  8
部品1
100
AcDbCircle
 10
1441.014638555061
 20
1319.993338720062
 30
0.0
 40
1.0
100
AcDbArc
 50
270.0
 51
19.47122063441346
  0
LINE
  5
18CC1
330
18C7A
100
AcDbEntity
  8
細線
100
AcDbLine
 10
1479.470482677785
 20
1338.493338720065
 30
0.0
 11
1438.470482677785
 21
1338.493338720058
 31
0.0
  0
LINE
  5
18CC2
330
18C7A
100
AcDbEntity
  8
細線
100
AcDbLine
 10
1438.470482677785
 20
1338.493338720058
 30
0.0
 11
1438.470482677785
 21
1320.49333872004
 31
0.0
  0
LINE
  5
18CC3
330
18C7A
100
AcDbEntity
  8
細線
100
AcDbLine
 10
1479.470482677785
 20
1338.493338720065
 30
0.0
 11
1479.470482677785
 21
1320.49333872004
 31
0.0
  0
LINE
  5
18CC4
330
18C7A
100
AcDbEntity
  8
細線
100
AcDbLine
 10
1322.970589276523
 20
1324.494269174465
 30
0.0
 11
1322.970589276523
 21
1320.494269174513
 31
0.0
  0
LINE
  5
18CC5
330
18C7A
100
AcDbEntity
  8
寸法
 48
50.0
100
AcDbLine
 10
1746.17359555837
 20
1170.531020743327
 30
0.0
 11
1694.767587648266
 21
1170.531020743327
 31
0.0
  0
LINE
  5
18CC6
330
18C7A
100
AcDbEntity
  8
寸法
 48
50.0
100
AcDbLine
 10
1694.767587648266
 20
1170.531020743327
 30
0.0
 11
1694.767587648266
 21
1201.841179395494
 31
0.0
  0
LINE
  5
18CC7
330
18C7A
100
AcDbEntity
  8
寸法
 48
50.0
100
AcDbLine
 10
1694.767587648266
 20
1201.841179395494
 30
0.0
 11
1665.006255656843
 21
1201.841179395494
 31
0.0
  0
LINE
  5
18CC8
330
18C7A
100
AcDbEntity
  8
寸法
 48
50.0
100
AcDbLine
 10
1665.006255656843
 20
1201.841179395494
 30
0.0
 11
1720.470591603318
 21
1239.420630324105
 31
0.0
  0
LINE
  5
18CC9
330
18C7A
100
AcDbEntity
  8
寸法
 48
50.0
100
AcDbLine
 10
1775.934927549793
 20
1201.841179395494
 30
0.0
 11
1720.470591603318
 21
1239.420630324105
 31
0.0
  0
LINE
  5
18CCA
330
18C7A
100
AcDbEntity
  8
寸法
 48
50.0
100
AcDbLine
 10
1746.17359555837
 20
1201.841179395494
 30
0.0
 11
1775.934927549793
 21
1201.841179395494
 31
0.0
  0
LINE
  5
18CCB
330
18C7A
100
AcDbEntity
  8
寸法
 48
50.0
100
AcDbLine
 10
1746.17359555837
 20
1170.531020743327
 30
0.0
 11
1746.17359555837
 21
1201.841179395494
 31
0.0
  0
LINE
  5
18CCC
330
18C7A
100
AcDbEntity
  8
寸法
 48
50.0
100
AcDbLine
 10
1694.767587648266
 20
1170.531020743327
 30
0.0
 11
1746.17359555837
 21
1170.531020743327
 31
0.0
  0
LINE
  5
18CCD
330
18C7A
100
AcDbEntity
  8
寸法
 48
50.0
100
AcDbLine
 10
2025.339129835225
 20
1227.676611498152
 30
0.0
 11
2025.339129835225
 21
1174.01297691636
 31
0.0
  0
LINE
  5
18CCE
330
18C7A
100
AcDbEntity
  8
寸法
 48
50.0
100
AcDbLine
 10
2114.623348430647
 20
1203.752977228664
 30
0.0
 11
2025.339129835225
 21
1227.676611498152
 31
0.0
  0
LINE
  5
18CCF
330
18C7A
100
AcDbEntity
  8
寸法
 48
50.0
100
AcDbLine
 10
1895.471408254923
 20
1203.752977228664
 30
0.0
 11
2114.623348430647
 21
1203.752977228664
 31
0.0
  0
DIMENSION
  5
18CD0
330
18C7A
100
AcDbEntity
  8
寸法
 48
50.0
100
AcDbDimension
  2
*D15
 10
2588.970589276523
 20
706.3240511224249
 30
0.0
 11
1969.060022905491
 21
706.3240511224249
 31
0.0
 12
-3742.925985830444
 22
-6453.628869860112
 32
0.0
 70
   128
  1
有効開口部間口\P<>
 71
     5
 42
1266.0
  3
INABA_S40G
100
AcDbAlignedDimension
 13
1322.970589276523
 23
1315.494269174465
 33
0.0
 14
2588.970589276523
 24
1315.494269174465
 34
0.0
100
AcDbRotatedDimension
1001
ACAD
1000
DSTYLE
1002
{
1070
   341
1005
0
1002
}
  0
LINE
  5
18CD1
330
18C7A
100
AcDbEntity
  8
部品1
100
AcDbLine
 10
3409.970589276524
 20
1392.494269174465
 30
0.0
 11
3437.970589276523
 21
1392.494269174465
 31
0.0
  0
DIMENSION
  5
18CD2
330
18C7A
100
AcDbEntity
  8
寸法
100
AcDbDimension
  2
*D16
 10
3674.266172669749
 20
1315.494269174465
 30
0.0
 11
3674.266172669748
 21
1177.494269174462
 31
0.0
 12
-3742.925985830444
 22
-6453.628869860112
 32
0.0
 70
   128
 71
     5
 42
77.0
  3
INABA_S40
100
AcDbAlignedDimension
 13
3437.970589276523
 23
1392.494269174465
 33
0.0
 14
3436.970589276523
 24
1315.494269174465
 34
0.0
 50
90.0
100
AcDbRotatedDimension
1001
ACAD
1000
DSTYLE
1002
{
1070
    41
1040
0.5
1070
    44
1040
1.0
1070
   147
1040
0.8
1070
   271
1070
     2
1070
   272
1070
     2
1070
   289
1070
     3
1070
   340
1005
F706
1070
   343
1005
164B4
1070
   344
1005
164B4
1002
}
  0
LINE
  5
18CD3
330
18C7A
100
AcDbEntity
  8
部品1
100
AcDbLine
 10
3437.970589276523
 20
1315.494269174465
 30
0.0
 11
3437.970589276523
 21
1392.494269174465
 31
0.0
  0
LINE
  5
18CD4
330
18C7A
100
AcDbEntity
  8
部品1
100
AcDbLine
 10
3398.970589276523
 20
1388.494269174465
 30
0.0
 11
3409.970589276524
 21
1388.494269174465
 31
0.0
  0
LINE
  5
18CD5
330
18C7A
100
AcDbEntity
  8
部品1
100
AcDbLine
 10
3407.970589276523
 20
1324.494269174465
 30
0.0
 11
3407.970589276523
 21
1315.494269174465
 31
0.0
  0
LINE
  5
18CD6
330
18C7A
100
AcDbEntity
  8
部品1
100
AcDbLine
 10
3398.970589276523
 20
1324.494269174465
 30
0.0
 11
3407.970589276523
 21
1324.494269174465
 31
0.0
  0
LINE
  5
18CD7
330
18C7A
100
AcDbEntity
  8
部品1
100
AcDbLine
 10
3398.970589276523
 20
1388.494269174465
 30
0.0
 11
3398.970589276523
 21
1324.494269174465
 31
0.0
  0
LINE
  5
18CD8
330
18C7A
100
AcDbEntity
  8
部品1
100
AcDbLine
 10
3409.970589276524
 20
1419.494269174465
 30
0.0
 11
3409.970589276524
 21
1388.494269174465
 31
0.0
  0
LINE
  5
18CD9
330
18C7A
100
AcDbEntity
  8
部品1
100
AcDbLine
 10
1322.970589276523
 20
1388.494269174465
 30
0.0
 11
1311.970589276523
 21
1388.494269174465
 31
0.0
  0
LINE
  5
18CDA
330
18C7A
100
AcDbEntity
  8
部品1
100
AcDbLine
 10
1283.970589276523
 20
1392.494269174465
 30
0.0
 11
1311.970589276523
 21
1392.494269174465
 31
0.0
  0
LINE
  5
18CDB
330
18C7A
100
AcDbEntity
  8
部品1
100
AcDbLine
 10
1313.970589276523
 20
1324.494269174465
 30
0.0
 11
1313.970589276523
 21
1315.494269174465
 31
0.0
  0
LINE
  5
18CDC
330
18C7A
100
AcDbEntity
  8
部品1
100
AcDbLine
 10
1322.970589276523
 20
1324.494269174465
 30
0.0
 11
1313.970589276523
 21
1324.494269174465
 31
0.0
  0
LINE
  5
18CDD
330
18C7A
100
AcDbEntity
  8
部品1
100
AcDbLine
 10
1313.970589276523
 20
1315.494269174465
 30
0.0
 11
1283.970589276523
 21
1315.494269174465
 31
0.0
  0
LINE
  5
18CDE
330
18C7A
100
AcDbEntity
  8
部品1
100
AcDbLine
 10
1283.970589276523
 20
1315.494269174465
 30
0.0
 11
1283.970589276523
 21
1392.494269174465
 31
0.0
  0
LINE
  5
18CDF
330
18C7A
100
AcDbEntity
  8
部品1
100
AcDbLine
 10
1322.970589276523
 20
1388.494269174465
 30
0.0
 11
1322.970589276523
 21
1324.494269174465
 31
0.0
  0
LINE
  5
18CE0
330
18C7A
100
AcDbEntity
  8
部品1
100
AcDbLine
 10
1311.970589276523
 20
1419.494269174462
 30
0.0
 11
1311.970589276523
 21
1388.494269174465
 31
0.0
  0
LINE
  5
18CE1
330
18C7A
100
AcDbEntity
  8
部品1
100
AcDbLine
 10
1311.970589276523
 20
1419.494269174462
 30
0.0
 11
3409.970589276524
 21
1419.494269174465
 31
0.0
  0
LINE
  5
18CE2
330
18C7A
100
AcDbEntity
  8
部品1
100
AcDbLine
 10
3407.970589276523
 20
1315.494269174465
 30
0.0
 11
3437.970589276523
 21
1315.494269174465
 31
0.0
  0
LINE
  5
18CE3
330
18C7A
100
AcDbEntity
  8
部品1
100
AcDbLine
 10
1313.970589276523
 20
1315.494269174465
 30
0.0
 11
3410.970589276523
 21
1315.494269174465
 31
0.0
  0
LINE
  5
18CE4
330
18C7A
100
AcDbEntity
  8
細線
  6
Continuous
 62
     5
100
AcDbLine
 10
2689.970589276527
 20
1354.494269174462
 30
0.0
 11
2689.970589276527
 21
1354.494269174462
 31
0.0
  0
LINE
  5
18CE5
330
18C7A
100
AcDbEntity
  8
細線
  6
Continuous
 62
     5
100
AcDbLine
 10
2682.470589276527
 20
1354.494269174462
 30
0.0
 11
2682.470589276527
 21
1354.494269174462
 31
0.0
  0
LINE
  5
18CE6
330
18C7A
100
AcDbEntity
  8
細線
  6
Continuous
 62
     5
100
AcDbLine
 10
2676.470589276527
 20
1354.494269174462
 30
0.0
 11
2676.470589276527
 21
1354.494269174462
 31
0.0
  0
LINE
  5
18CE7
330
18C7A
100
AcDbEntity
  8
細線
  6
Continuous
 62
     5
100
AcDbLine
 10
2743.970589276527
 20
1373.494269174462
 30
0.0
 11
2743.970589276527
 21
1373.494269174462
 31
0.0
  0
LINE
  5
18CE8
330
18C7A
100
AcDbEntity
  8
細線
 48
50.0
100
AcDbLine
 10
1336.970593930116
 20
1341.094443351418
 30
0.0
 11
1336.970593930113
 21
1349.490593759059
 31
0.0
  0
LINE
  5
18CE9
330
18C7A
100
AcDbEntity
  8
細線
 48
50.0
100
AcDbLine
 10
1336.970593930113
 20
1349.490593759059
 30
0.0
 11
1322.970589276523
 21
1349.490593759057
 31
0.0
  0
LINE
  5
18CEA
330
18C7A
100
AcDbEntity
  8
細線
 48
50.0
100
AcDbLine
 10
2087.970593930113
 20
1337.644443351419
 30
0.0
 11
2087.970593930113
 21
1342.494443351421
 31
0.0
  0
LINE
  5
18CEB
330
18C7A
100
AcDbEntity
  8
細線
 48
50.0
100
AcDbLine
 10
2087.970593930113
 20
1342.494443351421
 30
0.0
 11
2102.970593930113
 21
1342.494443351421
 31
0.0
  0
LINE
  5
18CEC
330
18C7A
100
AcDbEntity
  8
細線
 48
50.0
100
AcDbLine
 10
2102.970593930113
 20
1342.494443351421
 30
0.0
 11
2102.970593930115
 21
1349.494443351419
 31
0.0
  0
LINE
  5
18CED
330
18C7A
100
AcDbEntity
  8
細線
 48
50.0
100
AcDbLine
 10
2102.970593930115
 20
1349.494443351419
 30
0.0
 11
2117.970593930113
 21
1349.494443351419
 31
0.0
  0
LINE
  5
18CEE
330
18C7A
100
AcDbEntity
  8
細線
 48
50.0
100
AcDbLine
 10
2117.970593930113
 20
1349.494443351419
 30
0.0
 11
2117.970593930113
 21
1320.494443351421
 31
0.0
  0
LINE
  5
18CEF
330
18C7A
100
AcDbEntity
  8
細線
 48
50.0
100
AcDbLine
 10
1313.970589276523
 20
1320.491777694889
 30
0.0
 11
1527.970593930113
 21
1320.494460905133
 31
0.0
  0
LINE
  5
18CF0
330
18C7A
100
AcDbEntity
  8
細線
 48
50.0
100
AcDbLine
 10
2017.970593930113
 20
1320.494443351421
 30
0.0
 11
2117.970593930113
 21
1320.494443351421
 31
0.0
  0
LINE
  5
18CF1
330
18C7A
100
AcDbEntity
  8
細線
 48
50.0
100
AcDbLine
 10
1737.970593930113
 20
1320.494443351419
 30
0.0
 11
1807.970593930113
 21
1320.494443351423
 31
0.0
  0
LINE
  5
18CF2
330
18C7A
100
AcDbEntity
  8
細線
 48
50.0
100
AcDbLine
 10
1750.832558942642
 20
1320.494443351419
 30
0.0
 11
1756.588076525309
 21
1338.765294641913
 31
0.0
  0
LINE
  5
18CF3
330
18C7A
100
AcDbEntity
  8
細線
 48
50.0
100
AcDbLine
 10
1756.588076525309
 20
1338.765294641913
 30
0.0
 11
1767.516525005743
 21
1338.765294641911
 31
0.0
  0
ARC
  5
18CF4
330
18C7A
100
AcDbEntity
  8
細線
 48
50.0
100
AcDbCircle
 10
1767.516525005743
 20
1337.765294641911
 30
0.0
 40
1.0
100
AcDbArc
 50
24.62431835207225
 51
90.0
  0
ARC
  5
18CF5
330
18C7A
100
AcDbEntity
  8
細線
 48
50.0
100
AcDbCircle
 10
1778.425237120377
 20
1337.765294641911
 30
0.0
 40
1.0
100
AcDbArc
 50
90.0
 51
155.3756816479277
  0
ARC
  5
18CF6
330
18C7A
100
AcDbEntity
  8
細線
 48
50.0
100
AcDbCircle
 10
1772.970881063058
 20
1340.265294641911
 30
0.0
 40
5.0
100
AcDbArc
 50
204.6243183520723
 51
335.3756816479278
  0
LINE
  5
18CF7
330
18C7A
100
AcDbEntity
  8
細線
 48
50.0
100
AcDbLine
 10
1778.425237120377
 20
1338.765294641911
 30
0.0
 11
1789.35368560081
 21
1338.765294641913
 31
0.0
  0
LINE
  5
18CF8
330
18C7A
100
AcDbEntity
  8
細線
 48
50.0
100
AcDbLine
 10
1789.35368560081
 20
1338.765294641913
 30
0.0
 11
1795.109203183478
 21
1320.494443351423
 31
0.0
  0
LINE
  5
18CF9
330
18C7A
100
AcDbEntity
  8
細線
 48
50.0
100
AcDbLine
 10
2087.970593930113
 20
1341.094443351419
 30
0.0
 11
1336.970593930116
 21
1341.094443351418
 31
0.0
  0
LINE
  5
18CFA
330
18C7A
100
AcDbEntity
  8
細線
 48
50.0
100
AcDbLine
 10
1947.970593930113
 20
1320.494443351421
 30
0.0
 11
1877.970593930113
 21
1320.494443351421
 31
0.0
  0
LINE
  5
18CFB
330
18C7A
100
AcDbEntity
  8
細線
100
AcDbLine
 10
1667.970593930113
 20
1320.494443351421
 30
0.0
 11
1597.970602115529
 21
1320.494443351421
 31
0.0
  0
LINE
  5
18CFC
330
18C7A
100
AcDbEntity
  8
細線
 48
50.0
100
AcDbLine
 10
2741.970584622936
 20
1375.094487209288
 30
0.0
 11
2106.970593930113
 21
1375.094487209284
 31
0.0
  0
LINE
  5
18CFD
330
18C7A
100
AcDbEntity
  8
細線
 48
50.0
100
AcDbLine
 10
2106.970593930113
 20
1371.990637616925
 30
0.0
 11
2106.970593930113
 21
1376.490637616925
 31
0.0
  0
LINE
  5
18CFE
330
18C7A
100
AcDbEntity
  8
細線
 48
50.0
100
AcDbLine
 10
2106.970593930113
 20
1376.490637616925
 30
0.0
 11
2091.970593930113
 21
1376.490637616925
 31
0.0
  0
LINE
  5
18CFF
330
18C7A
100
AcDbEntity
  8
細線
 48
50.0
100
AcDbLine
 10
2091.970593930113
 20
1376.490637616925
 30
0.0
 11
2091.970593930113
 21
1383.490637616927
 31
0.0
  0
LINE
  5
18D00
330
18C7A
100
AcDbEntity
  8
細線
 48
50.0
100
AcDbLine
 10
2091.970593930113
 20
1383.490637616927
 30
0.0
 11
2076.970593930115
 21
1383.490637616924
 31
0.0
  0
LINE
  5
18D01
330
18C7A
100
AcDbEntity
  8
細線
 48
50.0
100
AcDbLine
 10
2076.970593930115
 20
1383.490637616924
 30
0.0
 11
2076.970593930115
 21
1345.890409513813
 31
0.0
  0
LINE
  5
18D02
330
18C7A
100
AcDbEntity
  8
細線
 48
50.0
100
AcDbLine
 10
2076.970593930115
 20
1345.890409513813
 30
0.0
 11
2096.970601231289
 21
1345.890451063353
 31
0.0
  0
LINE
  5
18D03
330
18C7A
100
AcDbEntity
  8
細線
 48
50.0
100
AcDbLine
 10
2096.970556362348
 20
1354.493912699161
 30
0.0
 11
2096.970601231289
 21
1345.890451063353
 31
0.0
  0
LINE
  5
18D04
330
18C7A
100
AcDbEntity
  8
細線
 48
50.0
100
AcDbLine
 10
2741.970584622936
 20
1371.644487209287
 30
0.0
 11
2741.970584622936
 21
1376.494487209284
 31
0.0
  0
LINE
  5
18D05
330
18C7A
100
AcDbEntity
  8
細線
 48
50.0
100
AcDbLine
 10
2741.970584622936
 20
1376.494487209284
 30
0.0
 11
2756.970584622934
 21
1376.494487209285
 31
0.0
  0
LINE
  5
18D06
330
18C7A
100
AcDbEntity
  8
細線
 48
50.0
100
AcDbLine
 10
2756.970584622934
 20
1376.494487209285
 30
0.0
 11
2756.970596256909
 21
1383.494487209331
 31
0.0
  0
LINE
  5
18D07
330
18C7A
100
AcDbEntity
  8
細線
 48
50.0
100
AcDbLine
 10
2756.970596256909
 20
1383.494487209331
 30
0.0
 11
2771.970594427439
 21
1383.494487209329
 31
0.0
  0
LINE
  5
18D08
330
18C7A
100
AcDbEntity
  8
細線
 48
50.0
100
AcDbLine
 10
2771.970594427439
 20
1383.494487209329
 30
0.0
 11
2771.970584125617
 21
1354.494281037055
 31
0.0
  0
LINE
  5
18D09
330
18C7A
100
AcDbEntity
  8
細線
 48
50.0
100
AcDbLine
 10
2458.070304175992
 20
1354.494278397076
 30
0.0
 11
2389.470863838818
 21
1354.494283787084
 31
0.0
  0
LINE
  5
18D0A
330
18C7A
100
AcDbEntity
  8
細線
 48
50.0
100
AcDbLine
 10
2096.970556362348
 20
1354.493912699161
 30
0.0
 11
2108.203245717057
 21
1354.494095652309
 31
0.0
  0
ARC
  5
18D0B
330
18C7A
100
AcDbEntity
  8
細線
 48
50.0
100
AcDbCircle
 10
2114.785538024393
 20
1353.294259565922
 30
0.0
 40
1.8
100
AcDbArc
 50
270.0006665777295
 51
345.000555481349
  0
LINE
  5
18D0C
330
18C7A
100
AcDbEntity
  8
細線
 48
50.0
100
AcDbLine
 10
2116.771971470473
 20
1353.753100023201
 30
0.0
 11
2116.524209028273
 21
1352.828402141094
 31
0.0
  0
LINE
  5
18D0D
330
18C7A
100
AcDbEntity
  8
細線
 48
50.0
100
AcDbLine
 10
2114.785558965548
 20
1351.494259566043
 30
0.0
 11
2111.155631546781
 21
1351.494217335563
 31
0.0
  0
ARC
  5
18D0E
330
18C7A
100
AcDbEntity
  8
細線
 48
50.0
100
AcDbCircle
 10
2111.155610605627
 20
1353.29421733544
 30
0.0
 40
1.8
100
AcDbArc
 50
195.0010443049965
 51
270.0006665777295
  0
LINE
  5
18D0F
330
18C7A
100
AcDbEntity
  8
細線
 48
50.0
100
AcDbLine
 10
2109.169183113368
 20
1353.752932303007
 30
0.0
 11
2109.416952609882
 21
1352.828311364425
 31
0.0
  0
ARC
  5
18D10
330
18C7A
100
AcDbEntity
  8
細線
 48
50.0
100
AcDbCircle
 10
2108.203262004622
 20
1353.494095652444
 30
0.0
 40
1.0
100
AcDbArc
 50
15.00104430499651
 51
90.00093320877969
  0
LINE
  5
18D11
330
18C7A
100
AcDbEntity
  8
細線
 48
50.0
100
AcDbLine
 10
2117.737892825577
 20
1354.494290342714
 30
0.0
 11
2118.679652976481
 21
1354.494296916564
 31
0.0
  0
ARC
  5
18D12
330
18C7A
100
AcDbEntity
  8
細線
 48
50.0
100
AcDbCircle
 10
2117.737899805961
 20
1353.49429034274
 30
0.0
 40
1.0
100
AcDbArc
 50
90.0003999466794
 51
165.000555481349
  0
LINE
  5
18D13
330
18C7A
100
AcDbEntity
  8
細線
 48
50.0
100
AcDbLine
 10
2669.470584622926
 20
1354.494281037055
 30
0.0
 11
2771.970584125617
 21
1354.494281037055
 31
0.0
  0
LINE
  5
18D14
330
18C7A
100
AcDbEntity
  8
細線
 48
50.0
100
AcDbLine
 10
2179.47061994182
 20
1354.494289224422
 30
0.0
 11
2118.370558714898
 21
1354.494296916564
 31
0.0
  0
LINE
  5
18D15
330
18C7A
100
AcDbEntity
  8
細線
 48
50.0
100
AcDbLine
 10
2599.470584622926
 20
1354.494281037057
 30
0.0
 11
2529.470584622926
 21
1354.494281037055
 31
0.0
  0
LINE
  5
18D16
330
18C7A
100
AcDbEntity
  8
細線
 48
50.0
100
AcDbLine
 10
2319.470584622926
 20
1354.494281037054
 30
0.0
 11
2249.470567335051
 21
1354.494281037057
 31
0.0
  0
ARC
  5
18D17
330
18C7A
100
AcDbEntity
  8
細線
 48
50.0
100
AcDbCircle
 10
2756.170589276533
 20
1387.694269174466
 30
0.0
 40
0.8
100
AcDbArc
 50
359.9997333689499
 51
89.99986668437072
  0
ARC
  5
18D18
330
18C7A
100
AcDbEntity
  8
細線
 48
50.0
100
AcDbCircle
 10
2763.770596101631
 20
1387.694280343081
 30
0.0
 40
0.8
100
AcDbArc
 50
90.00014387753465
 51
179.9997333689498
  0
LINE
  5
18D19
330
18C7A
100
AcDbEntity
  8
細線
 48
50.0
100
AcDbLine
 10
2756.170591137969
 20
1388.494269174465
 30
0.0
 11
2750.970589276525
 21
1388.494269174465
 31
0.0
  0
ARC
  5
18D1A
330
18C7A
100
AcDbEntity
  8
細線
 48
50.0
100
AcDbCircle
 10
2757.670589276524
 20
1386.194269174464
 30
0.0
 40
0.7
100
AcDbArc
 50
180.0
 51
270.0
  0
ARC
  5
18D1B
330
18C7A
100
AcDbEntity
  8
細線
 48
50.0
100
AcDbCircle
 10
2762.270589276524
 20
1386.194269174464
 30
0.0
 40
0.7
100
AcDbArc
 50
270.0
 51
0.0
  0
LINE
  5
18D1C
330
18C7A
100
AcDbEntity
  8
細線
 48
50.0
100
AcDbLine
 10
2762.970589276525
 20
1386.194269174464
 30
0.0
 11
2762.970596101639
 21
1387.694284065954
 31
0.0
  0
LINE
  5
18D1D
330
18C7A
100
AcDbEntity
  8
細線
 48
50.0
100
AcDbLine
 10
2757.670589276524
 20
1385.494269174465
 30
0.0
 11
2762.270589276524
 21
1385.494269174465
 31
0.0
  0
LINE
  5
18D1E
330
18C7A
100
AcDbEntity
  8
細線
 48
50.0
100
AcDbLine
 10
2756.970589276525
 20
1387.694269174466
 30
0.0
 11
2756.970589276525
 21
1386.194269174464
 31
0.0
  0
LINE
  5
18D1F
330
18C7A
100
AcDbEntity
  8
細線
 48
50.0
100
AcDbLine
 10
3382.570589276527
 20
1418.494269174465
 30
0.0
 11
2745.970589276525
 21
1418.494269174463
 31
0.0
  0
LINE
  5
18D20
330
18C7A
100
AcDbEntity
  8
細線
 48
50.0
100
AcDbLine
 10
3408.470589276525
 20
1413.494269174467
 30
0.0
 11
3392.570589276527
 21
1413.494269174465
 31
0.0
  0
LINE
  5
18D21
330
18C7A
100
AcDbEntity
  8
細線
 48
50.0
100
AcDbLine
 10
3392.570589276526
 20
1413.494269174465
 30
0.0
 11
3382.570589276527
 21
1418.494269174465
 31
0.0
  0
LINE
  5
18D22
330
18C7A
100
AcDbEntity
  8
細線
100
AcDbLine
 10
2993.470589276525
 20
1388.494269174465
 30
0.0
 11
2993.470589276525
 21
1417.794269174464
 31
0.0
  0
LINE
  5
18D23
330
18C7A
100
AcDbEntity
  8
細線
100
AcDbLine
 10
2993.470589276525
 20
1417.794269174464
 30
0.0
 11
3013.470589276525
 21
1417.794269174464
 31
0.0
  0
LINE
  5
18D24
330
18C7A
100
AcDbEntity
  8
細線
100
AcDbLine
 10
3013.470589276525
 20
1388.494269174465
 30
0.0
 11
3013.470589276525
 21
1417.794269174464
 31
0.0
  0
LINE
  5
18D25
330
18C7A
100
AcDbEntity
  8
細線
100
AcDbLine
 10
3170.720589276524
 20
1388.494269174465
 30
0.0
 11
3100.720589276523
 21
1388.494269174465
 31
0.0
  0
LINE
  5
18D26
330
18C7A
100
AcDbEntity
  8
細線
 48
50.0
100
AcDbLine
 10
2890.720589276525
 20
1388.494269174465
 30
0.0
 11
2763.766368849365
 21
1388.494269174465
 31
0.0
  0
LINE
  5
18D27
330
18C7A
100
AcDbEntity
  8
細線
100
AcDbLine
 10
3030.720589276525
 20
1388.494269174465
 30
0.0
 11
2960.720589276525
 21
1388.494269174465
 31
0.0
  0
LINE
  5
18D28
330
18C7A
100
AcDbEntity
  8
細線
 48
50.0
100
AcDbLine
 10
2750.970589276525
 20
1380.494269174465
 30
0.0
 11
2750.970589276525
 21
1388.494269174465
 31
0.0
  0
LINE
  5
18D29
330
18C7A
100
AcDbEntity
  8
細線
 48
50.0
100
AcDbLine
 10
2730.970589276524
 20
1380.494269174467
 30
0.0
 11
2750.970589276525
 21
1380.494269174465
 31
0.0
  0
LINE
  5
18D2A
330
18C7A
100
AcDbEntity
  8
細線
 48
50.0
100
AcDbLine
 10
2745.970589276525
 20
1418.494269174465
 30
0.0
 11
2745.970589276525
 21
1413.494269174465
 31
0.0
  0
LINE
  5
18D2B
330
18C7A
100
AcDbEntity
  8
細線
 48
50.0
100
AcDbLine
 10
2730.970589276525
 20
1418.494269174463
 30
0.0
 11
2745.970589276525
 21
1418.494269174465
 31
0.0
  0
LINE
  5
18D2C
330
18C7A
100
AcDbEntity
  8
細線
 48
50.0
100
AcDbLine
 10
2730.970589276524
 20
1380.494269174467
 30
0.0
 11
2730.970589276525
 21
1418.494269174463
 31
0.0
  0
LINE
  5
18D2D
330
18C7A
100
AcDbEntity
  8
細線
100
AcDbLine
 10
3398.970589276523
 20
1388.494269174465
 30
0.0
 11
3240.720589276525
 21
1388.494269174465
 31
0.0
  0
LINE
  5
18D2E
330
18C7A
100
AcDbEntity
  8
細線
 48
50.0
100
AcDbLine
 10
3408.470589276525
 20
1413.494269174467
 30
0.0
 11
3408.470589276524
 21
1388.494269174465
 31
0.0
  0
TEXT
  5
18D2F
330
18C7A
100
AcDbEntity
  8
部品1
100
AcDbText
 10
1860.154865991392
 20
46.99880823813145
 30
0.0
 40
135.0
  1
平面図
  7
STYLE2
100
AcDbText
  0
LWPOLYLINE
  5
18D30
330
18C7A
100
AcDbEntity
  8
部品1
100
AcDbPolyline
 90
        4
 70
     1
 43
0.0
 10
1770.23525616235
 20
239.8923374566548
 10
1770.23525616235
 20
0.0000159111223184
 10
2533.705922390791
 20
0.0000159111223184
 10
2533.705922390791
 20
239.8923374566548
  0
LINE
  5
18D31
330
18C7A
100
AcDbEntity
  8
部品1
100
AcDbLine
 10
1534.470589276487
 20
3154.494269174626
 30
0.0
 11
2769.470589276552
 21
3154.494269174626
 31
0.0
  0
LINE
  5
18D32
330
18C7A
100
AcDbEntity
  8
部品1
 48
50.0
100
AcDbLine
 10
1311.970589276523
 20
1420.494269174462
 30
0.0
 11
3411.970589276523
 21
1420.494269174465
 31
0.0
  0
LINE
  5
18D33
330
18C7A
100
AcDbEntity
  8
部品1
 48
50.0
100
AcDbLine
 10
471.9705892765232
 20
1392.494269174465
 30
0.0
 11
1311.970589276523
 21
1392.494269174465
 31
0.0
  0
DIMENSION
  5
18D34
330
18C7A
100
AcDbEntity
  8
寸法
100
AcDbDimension
  2
*D14
 10
2710.234916278077
 20
2488.887829538828
 30
0.0
 11
2338.318822490183
 21
2488.887829538828
 31
0.0
 12
-3742.925985830444
 22
-6453.628869860112
 32
0.0
 70
   128
 71
     5
 42
1231.00000000007
  3
INABA_S40G
100
AcDbAlignedDimension
 13
1536.470589276486
 23
2702.494269174557
 33
0.0
 14
2767.470589276556
 24
2702.494269174549
 34
0.0
100
AcDbRotatedDimension
1001
ACAD
1000
DSTYLE
1002
{
1002
}
  0
LINE
  5
18D35
330
18C7A
100
AcDbEntity
  8
部品1
100
AcDbLine
 10
1536.470589276487
 20
2702.494269174557
 30
0.0
 11
2767.470589276554
 21
2702.494269174615
 31
0.0
  0
LINE
  5
18D36
330
18C7A
100
AcDbEntity
  8
部品1
100
AcDbLine
 10
1536.470589276487
 20
3152.494269174557
 30
0.0
 11
2767.470589276556
 21
3152.494269174615
 31
0.0
  0
LINE
  5
18D37
330
18C7A
100
AcDbEntity
  8
細線
 48
50.0
100
AcDbLine
 10
1508.470589276487
 20
3152.494269174558
 30
0.0
 11
445.4705892765559
 21
2702.494269174509
 31
0.0
  0
LINE
  5
18D38
330
18C7A
100
AcDbEntity
  8
細線
 48
50.0
100
AcDbLine
 10
1508.470589276487
 20
2702.494269174558
 30
0.0
 11
445.4705892765542
 21
3152.494269174509
 31
0.0
  0
LINE
  5
18D39
330
18C7A
100
AcDbEntity
  8
部品1
100
AcDbLine
 10
1556.970589276487
 20
3172.494269174611
 30
0.0
 11
1556.970589276487
 21
3154.494269174611
 31
0.0
  0
LINE
  5
18D3A
330
18C7A
100
AcDbEntity
  8
部品1
100
AcDbLine
 10
1556.970589276487
 20
3172.494269174611
 30
0.0
 11
1550.970589276487
 21
3172.494269174611
 31
0.0
  0
LINE
  5
18D3B
330
18C7A
100
AcDbEntity
  8
部品1
100
AcDbLine
 10
1534.470589276487
 20
3146.494269174608
 30
0.0
 11
1509.470589276487
 21
3146.494269174611
 31
0.0
  0
LINE
  5
18D3C
330
18C7A
100
AcDbEntity
  8
部品1
100
AcDbLine
 10
1486.970589276487
 20
3172.494269174611
 30
0.0
 11
1486.970589276487
 21
3154.494269174611
 31
0.0
  0
LINE
  5
18D3D
330
18C7A
100
AcDbEntity
  8
部品1
100
AcDbLine
 10
1492.970589276487
 20
3172.494269174611
 30
0.0
 11
1486.970589276487
 21
3172.494269174611
 31
0.0
  0
LINE
  5
18D3E
330
18C7A
100
AcDbEntity
  8
部品1
100
AcDbLine
 10
1534.470589276487
 20
2702.494269174615
 30
0.0
 11
1509.470589276487
 21
2702.494269174615
 31
0.0
  0
LINE
  5
18D3F
330
18C7A
100
AcDbEntity
  8
部品1
 48
50.0
100
AcDbLine
 10
1536.470589276487
 20
3152.494269174611
 30
0.0
 11
1536.470589276487
 21
2702.494269174615
 31
0.0
  0
LINE
  5
18D40
330
18C7A
100
AcDbEntity
  8
部品1
 48
50.0
100
AcDbLine
 10
1508.470589276487
 20
3152.494269174607
 30
0.0
 11
1508.470589276487
 21
2702.494269174615
 31
0.0
  0
LINE
  5
18D41
330
18C7A
100
AcDbEntity
  8
部品1
 48
50.0
100
AcDbLine
 10
1534.470589276487
 20
3154.494269174618
 30
0.0
 11
1534.470589276487
 21
2702.494269174615
 31
0.0
  0
LINE
  5
18D42
330
18C7A
100
AcDbEntity
  8
部品1
 48
50.0
100
AcDbLine
 10
1509.470589276487
 20
3154.494269174615
 30
0.0
 11
1509.470589276487
 21
2702.494269174615
 31
0.0
  0
LINE
  5
18D43
330
18C7A
100
AcDbEntity
  8
部品1
100
AcDbLine
 10
3411.970589276556
 20
1392.494269174582
 30
0.0
 11
3411.970589276556
 21
1420.494269174596
 31
0.0
  0
LINE
  5
18D44
330
18C7A
100
AcDbEntity
  8
部品1
100
AcDbLine
 10
1311.970589276523
 20
1392.494269174596
 30
0.0
 11
1311.970589276523
 21
1420.494269174596
 31
0.0
  0
LINE
  5
18D45
330
18C7A
100
AcDbEntity
  8
部品1
100
AcDbLine
 10
891.9705892765232
 20
1392.494269174596
 30
0.0
 11
891.9705892765232
 21
1420.494269174596
 31
0.0
  0
LINE
  5
18D46
330
18C7A
100
AcDbEntity
  8
部品1
100
AcDbLine
 10
3411.97058927652
 20
3182.494269174477
 30
0.0
 11
3411.970589276523
 21
3154.494269174477
 31
0.0
  0
LINE
  5
18D47
330
18C7A
100
AcDbEntity
  8
部品1
100
AcDbLine
 10
2571.97058927652
 20
3182.494269174477
 30
0.0
 11
2571.970589276523
 21
3154.494269174477
 31
0.0
  0
LINE
  5
18D48
330
18C7A
100
AcDbEntity
  8
部品1
100
AcDbLine
 10
2991.97058927652
 20
3182.494269174477
 30
0.0
 11
2991.970589276523
 21
3154.494269174477
 31
0.0
  0
LINE
  5
18D49
330
18C7A
100
AcDbEntity
  8
部品1
100
AcDbLine
 10
2151.970589276519
 20
3182.494269174477
 30
0.0
 11
2151.970589276523
 21
3154.494269174477
 31
0.0
  0
LINE
  5
18D4A
330
18C7A
100
AcDbEntity
  8
部品1
100
AcDbLine
 10
1731.970589276519
 20
3182.494269174477
 30
0.0
 11
1731.970589276523
 21
3154.494269174477
 31
0.0
  0
LINE
  5
18D4B
330
18C7A
100
AcDbEntity
  8
部品1
100
AcDbLine
 10
1311.970589276519
 20
3182.494269174477
 30
0.0
 11
1311.970589276523
 21
3154.494269174477
 31
0.0
  0
LINE
  5
18D4C
330
18C7A
100
AcDbEntity
  8
部品1
100
AcDbLine
 10
891.9705892765195
 20
3182.494269174477
 30
0.0
 11
891.9705892765232
 21
3154.494269174477
 31
0.0
  0
LINE
  5
18D4D
330
18C7A
100
AcDbEntity
  8
部品1
100
AcDbLine
 10
471.9705892765232
 20
1392.494269174596
 30
0.0
 11
471.9705892765232
 21
1420.494269174596
 31
0.0
  0
LINE
  5
18D4E
330
18C7A
100
AcDbEntity
  8
部品1
100
AcDbLine
 10
444.9705892765305
 20
1420.494269174558
 30
0.0
 11
3858.970589276556
 21
1420.494269174596
 31
0.0
  0
LINE
  5
18D4F
330
18C7A
100
AcDbEntity
  8
部品1
100
AcDbLine
 10
3831.970589276556
 20
1392.494269174596
 30
0.0
 11
3831.970589276556
 21
1420.494269174596
 31
0.0
  0
LINE
  5
18D50
330
18C7A
100
AcDbEntity
  8
部品1
100
AcDbLine
 10
3858.970589276556
 20
1447.494269174593
 30
0.0
 11
3886.970589276556
 21
1447.494269174593
 31
0.0
  0
LINE
  5
18D51
330
18C7A
100
AcDbEntity
  8
部品1
100
AcDbLine
 10
3858.970589276556
 20
1867.494269174607
 30
0.0
 11
3886.970589276556
 21
1867.494269174607
 31
0.0
  0
LINE
  5
18D52
330
18C7A
100
AcDbEntity
  8
部品1
100
AcDbLine
 10
444.9705892765305
 20
1867.49426917448
 30
0.0
 11
416.9705892765305
 21
1867.49426917448
 31
0.0
  0
LINE
  5
18D53
330
18C7A
100
AcDbEntity
  8
部品1
100
AcDbLine
 10
3830.470589276541
 20
1867.49426917458
 30
0.0
 11
473.4705892765396
 21
1867.49426917448
 31
0.0
  0
LINE
  5
18D54
330
18C7A
100
AcDbEntity
  8
部品1
100
AcDbLine
 10
3830.470589276541
 20
2287.49426917458
 30
0.0
 11
473.4705892765396
 21
2287.49426917448
 31
0.0
  0
LINE
  5
18D55
330
18C7A
100
AcDbEntity
  8
部品1
100
AcDbLine
 10
444.9705892765305
 20
2287.49426917448
 30
0.0
 11
416.9705892765305
 21
2287.49426917448
 31
0.0
  0
LINE
  5
18D56
330
18C7A
100
AcDbEntity
  8
部品1
100
AcDbLine
 10
3858.970589276556
 20
2287.494269174608
 30
0.0
 11
3886.970589276556
 21
2287.494269174608
 31
0.0
  0
LINE
  5
18D57
330
18C7A
100
AcDbEntity
  8
部品1
 48
50.0
100
AcDbLine
 10
2151.970589276551
 20
2702.494269174586
 30
0.0
 11
2151.970589276581
 21
1448.994269174494
 31
0.0
  0
LINE
  5
18D58
330
18C7A
100
AcDbEntity
  8
破線
 48
10.0
100
AcDbLine
 10
2959.470589276535
 20
1472.494269174522
 30
0.0
 11
2176.970589276532
 21
1472.494269174505
 31
0.0
  0
LINE
  5
18D59
330
18C7A
100
AcDbEntity
  8
破線
 48
10.0
100
AcDbLine
 10
3009.47058927653
 20
1448.994269174509
 30
0.0
 11
3009.47058927653
 21
2702.494269174615
 31
0.0
  0
LINE
  5
18D5A
330
18C7A
100
AcDbEntity
  8
破線
 48
10.0
100
AcDbLine
 10
2959.470589276535
 20
1448.994269174505
 30
0.0
 11
2959.470589276531
 21
2702.494269174615
 31
0.0
  0
LINE
  5
18D5B
330
18C7A
100
AcDbEntity
  8
破線
 48
10.0
100
AcDbLine
 10
1344.47058927653
 20
1448.994269174509
 30
0.0
 11
1344.47058927653
 21
2702.494269174615
 31
0.0
  0
LINE
  5
18D5C
330
18C7A
100
AcDbEntity
  8
破線
 48
10.0
100
AcDbLine
 10
1294.470589276534
 20
1448.994269174505
 30
0.0
 11
1294.47058927653
 21
2702.494269174615
 31
0.0
  0
DIMENSION
  5
18D5D
330
18C7A
100
AcDbEntity
  8
寸法
100
AcDbDimension
  2
*D13
 10
1451.234916278005
 20
2488.887829538828
 30
0.0
 11
916.0604668248634
 21
2488.887829538828
 31
0.0
 12
-3742.925985830444
 22
-6453.628869860112
 32
0.0
 70
   128
 71
     5
 42
1062.99999999993
  3
INABA_S40G
100
AcDbAlignedDimension
 13
445.4705892765559
 23
2702.494269174505
 33
0.0
 14
1508.470589276486
 24
2702.494269174558
 34
0.0
100
AcDbRotatedDimension
1001
ACAD
1000
DSTYLE
1002
{
1002
}
  0
LINE
  5
18D5E
330
18C7A
100
AcDbEntity
  8
破線
 48
10.0
100
AcDbLine
 10
1294.470589276534
 20
1472.494269174469
 30
0.0
 11
496.9705892765414
 21
1472.494269174476
 31
0.0
  0
LINE
  5
18D5F
330
18C7A
100
AcDbEntity
  8
部品1
100
AcDbLine
 10
3831.970589276556
 20
3182.494269174604
 30
0.0
 11
3831.970589276556
 21
3154.494269174604
 31
0.0
  0
LINE
  5
18D60
330
18C7A
100
AcDbEntity
  8
部品1
100
AcDbLine
 10
3831.970589276556
 20
3182.494269174626
 30
0.0
 11
3831.970589276556
 21
3154.494269174626
 31
0.0
  0
LINE
  5
18D61
330
18C7A
100
AcDbEntity
  8
部品1
100
AcDbLine
 10
3858.970589276556
 20
3127.494269174607
 30
0.0
 11
3886.970589276556
 21
3127.494269174607
 31
0.0
  0
LINE
  5
18D62
330
18C7A
100
AcDbEntity
  8
部品1
100
AcDbLine
 10
3858.970589276556
 20
2707.494269174608
 30
0.0
 11
3886.970589276556
 21
2707.494269174608
 31
0.0
  0
LINE
  5
18D63
330
18C7A
100
AcDbEntity
  8
部品1
100
AcDbLine
 10
3858.470589276556
 20
3152.494269174604
 30
0.0
 11
3858.470589276556
 21
2702.494269174608
 31
0.0
  0
LINE
  5
18D64
330
18C7A
100
AcDbEntity
  8
部品1
100
AcDbLine
 10
3886.970589276533
 20
1447.494269174593
 30
0.0
 11
3886.970589276531
 21
1392.494269174596
 31
0.0
  0
LINE
  5
18D65
330
18C7A
100
AcDbEntity
  8
部品1
 48
50.0
100
AcDbLine
 10
3830.470589276556
 20
1448.994269174596
 30
0.0
 11
3858.970589276554
 21
1420.494269174596
 31
0.0
  0
LINE
  5
18D66
330
18C7A
100
AcDbEntity
  8
部品1
100
AcDbLine
 10
3886.970589276531
 20
1392.494269174596
 30
0.0
 11
3835.970589276531
 21
1392.494269174596
 31
0.0
  0
LINE
  5
18D67
330
18C7A
100
AcDbEntity
  8
部品1
100
AcDbLine
 10
3858.970589276533
 20
1447.494269174593
 30
0.0
 11
3886.970589276531
 21
1447.494269174593
 31
0.0
  0
LINE
  5
18D68
330
18C7A
100
AcDbEntity
  8
部品1
100
AcDbLine
 10
3886.970589276556
 20
3182.494269174604
 30
0.0
 11
3886.970589276531
 21
1392.494269174596
 31
0.0
  0
DIMENSION
  5
18D69
330
18C7A
100
AcDbEntity
  8
寸法
100
AcDbDimension
  2
*D12
 10
4534.396935010967
 20
1447.494269174593
 30
0.0
 11
4534.396935010965
 21
2287.4942691746
 31
0.0
 12
-3742.925985830444
 22
-6453.628869860112
 32
0.0
 70
   128
  1
4X420=<>
 71
     5
 42
1680.000000000014
  3
INABA_S40G
100
AcDbAlignedDimension
 13
3886.970589276556
 23
3127.494269174607
 33
0.0
 14
3886.970589276531
 24
1447.494269174593
 34
0.0
 50
90.0
100
AcDbRotatedDimension
1001
ACAD
1000
DSTYLE
1002
{
1002
}
  0
LINE
  5
18D6A
330
18C7A
100
AcDbEntity
  8
部品1
100
AcDbLine
 10
3858.970589276556
 20
3154.494269174604
 30
0.0
 11
3858.970589276534
 21
1420.494269174596
 31
0.0
  0
DIMENSION
  5
18D6B
330
18C7A
100
AcDbEntity
  8
寸法
100
AcDbDimension
  2
*D11
 10
4213.82831513858
 20
2607.276453505718
 30
0.0
 11
4113.828315138579
 21
2832.276453505718
 31
0.0
 12
-3742.925985830444
 22
-6453.628869860112
 32
0.0
 71
     5
 42
449.9999999999963
  3
INABA_S40G
100
AcDbAlignedDimension
 13
3858.470589276556
 23
3152.494269174604
 33
0.0
 14
3858.470589276556
 24
2702.494269174608
 34
0.0
 50
90.0
100
AcDbRotatedDimension
1001
ACAD
1000
DSTYLE
1002
{
1002
}
  0
LINE
  5
18D6C
330
18C7A
100
AcDbEntity
  8
部品1
100
AcDbLine
 10
3830.470589276547
 20
2702.494269174608
 30
0.0
 11
3830.470589276556
 21
1448.994269174596
 31
0.0
  0
LINE
  5
18D6D
330
18C7A
100
AcDbEntity
  8
破線
 48
10.0
100
AcDbLine
 10
3806.970589276549
 20
2702.494269174608
 30
0.0
 11
3806.970589276558
 21
1472.494269174593
 31
0.0
  0
LINE
  5
18D6E
330
18C7A
100
AcDbEntity
  8
部品1
100
AcDbLine
 10
2769.470589276556
 20
3146.494269174608
 30
0.0
 11
2794.470589276556
 21
3146.494269174611
 31
0.0
  0
LINE
  5
18D6F
330
18C7A
100
AcDbEntity
  8
部品1
100
AcDbLine
 10
2810.970589276556
 20
3172.494269174611
 30
0.0
 11
2816.970589276556
 21
3172.494269174611
 31
0.0
  0
LINE
  5
18D70
330
18C7A
100
AcDbEntity
  8
部品1
100
AcDbLine
 10
2816.970589276556
 20
3172.494269174611
 30
0.0
 11
2816.970589276556
 21
3154.494269174611
 31
0.0
  0
LINE
  5
18D71
330
18C7A
100
AcDbEntity
  8
部品1
100
AcDbLine
 10
2746.970589276556
 20
3172.494269174611
 30
0.0
 11
2752.970589276556
 21
3172.494269174611
 31
0.0
  0
LINE
  5
18D72
330
18C7A
100
AcDbEntity
  8
部品1
100
AcDbLine
 10
2746.970589276556
 20
3172.494269174611
 30
0.0
 11
2746.970589276556
 21
3154.494269174611
 31
0.0
  0
LINE
  5
18D73
330
18C7A
100
AcDbEntity
  8
部品1
100
AcDbLine
 10
2769.470589276556
 20
2702.494269174615
 30
0.0
 11
2794.470589276556
 21
2702.494269174615
 31
0.0
  0
LINE
  5
18D74
330
18C7A
100
AcDbEntity
  8
部品1
 48
50.0
100
AcDbLine
 10
2794.470589276556
 20
3154.494269174615
 30
0.0
 11
2794.470589276556
 21
2702.494269174615
 31
0.0
  0
LINE
  5
18D75
330
18C7A
100
AcDbEntity
  8
部品1
 48
50.0
100
AcDbLine
 10
2769.470589276554
 20
3154.494269174618
 30
0.0
 11
2769.470589276556
 21
2702.494269174615
 31
0.0
  0
LINE
  5
18D76
330
18C7A
100
AcDbEntity
  8
部品1
 48
50.0
100
AcDbLine
 10
2795.470589276556
 20
3152.494269174607
 30
0.0
 11
2795.470589276556
 21
2702.494269174615
 31
0.0
  0
LINE
  5
18D77
330
18C7A
100
AcDbEntity
  8
部品1
 48
50.0
100
AcDbLine
 10
2767.470589276556
 20
3152.494269174611
 30
0.0
 11
2767.470589276556
 21
2702.494269174615
 31
0.0
  0
LINE
  5
18D78
330
18C7A
100
AcDbEntity
  8
破線
 48
10.0
100
AcDbLine
 10
2176.97058927653
 20
1448.994269174509
 30
0.0
 11
2176.97058927653
 21
2702.494269174588
 31
0.0
  0
LINE
  5
18D79
330
18C7A
100
AcDbEntity
  8
破線
 48
10.0
100
AcDbLine
 10
2126.970589276534
 20
1448.994269174505
 30
0.0
 11
2126.970589276531
 21
2702.494269174586
 31
0.0
  0
LINE
  5
18D7A
330
18C7A
100
AcDbEntity
  8
部品1
100
AcDbLine
 10
2794.470589276556
 20
3154.494269174622
 30
0.0
 11
3858.970589276556
 21
3154.494269174604
 31
0.0
  0
LINE
  5
18D7B
330
18C7A
100
AcDbEntity
  8
細線
 48
50.0
100
AcDbLine
 10
3858.470589276556
 20
2702.494269174608
 30
0.0
 11
2795.470589276556
 21
3152.494269174607
 31
0.0
  0
LINE
  5
18D7C
330
18C7A
100
AcDbEntity
  8
部品1
100
AcDbLine
 10
2795.470589276555
 20
2702.494269174615
 30
0.0
 11
3858.470589276556
 21
2702.494269174608
 31
0.0
  0
LINE
  5
18D7D
330
18C7A
100
AcDbEntity
  8
部品1
100
AcDbLine
 10
2795.470589276556
 20
3152.494269174611
 30
0.0
 11
3858.470589276556
 21
3152.494269174604
 31
0.0
  0
LINE
  5
18D7E
330
18C7A
100
AcDbEntity
  8
細線
 48
50.0
100
AcDbLine
 10
3858.470589276556
 20
3152.494269174604
 30
0.0
 11
2795.470589276555
 21
2702.494269174615
 31
0.0
  0
DIMENSION
  5
18D7F
330
18C7A
100
AcDbEntity
  8
寸法
100
AcDbDimension
  2
*D10
 10
3801.234916278101
 20
2488.887829538937
 30
0.0
 11
3318.360544398907
 21
2488.887829538937
 31
0.0
 12
-3742.925985830444
 22
-6453.628869860112
 32
0.0
 70
   128
 71
     5
 42
1063.000000000012
  3
INABA_S40G
100
AcDbAlignedDimension
 13
2795.470589276555
 23
2702.494269174615
 33
0.0
 14
3858.470589276567
 24
2702.494269174608
 34
0.0
100
AcDbRotatedDimension
1001
ACAD
1000
DSTYLE
1002
{
1002
}
  0
LINE
  5
18D80
330
18C7A
100
AcDbEntity
  8
破線
 48
10.0
100
AcDbLine
 10
3806.970589276556
 20
1472.494269174594
 30
0.0
 11
3009.47058927653
 21
1472.494269174523
 31
0.0
  0
DIMENSION
  5
18D81
330
18C7A
100
AcDbEntity
  8
寸法
100
AcDbDimension
  2
*D9
 10
4534.396935010941
 20
1392.494269174596
 30
0.0
 11
4534.39693501094
 21
1084.008987800356
 31
0.0
 12
-3742.925985830444
 22
-6453.628869860112
 32
0.0
 70
   128
 71
     5
 42
54.99999999999636
  3
INABA_S40G
100
AcDbAlignedDimension
 13
3886.970589276531
 23
1447.494269174593
 33
0.0
 14
3886.970589276531
 24
1392.494269174596
 34
0.0
 50
90.0
100
AcDbRotatedDimension
1001
ACAD
1000
DSTYLE
1002
{
1002
}
  0
LINE
  5
18D82
330
18C7A
100
AcDbEntity
  8
部品1
100
AcDbLine
 10
471.9705892765196
 20
3182.494269174477
 30
0.0
 11
471.9705892765232
 21
3154.494269174477
 31
0.0
  0
LINE
  5
18D83
330
18C7A
100
AcDbEntity
  8
部品1
100
AcDbLine
 10
471.9705892765559
 20
3182.494269174509
 30
0.0
 11
471.9705892765559
 21
3154.494269174509
 31
0.0
  0
LINE
  5
18D84
330
18C7A
100
AcDbEntity
  8
部品1
100
AcDbLine
 10
444.9705892765232
 20
3127.49426917448
 30
0.0
 11
416.9705892765232
 21
3127.49426917448
 31
0.0
  0
LINE
  5
18D85
330
18C7A
100
AcDbEntity
  8
部品1
100
AcDbLine
 10
444.9705892765305
 20
2707.49426917448
 30
0.0
 11
416.9705892765305
 21
2707.49426917448
 31
0.0
  0
LINE
  5
18D86
330
18C7A
100
AcDbEntity
  8
部品1
 48
50.0
100
AcDbLine
 10
445.4705892765542
 20
3152.494269174506
 30
0.0
 11
445.4705892765559
 21
2702.494269174505
 31
0.0
  0
LINE
  5
18D87
330
18C7A
100
AcDbEntity
  8
部品1
 48
50.0
100
AcDbLine
 10
473.470589276545
 20
1448.994269174573
 30
0.0
 11
444.970589276545
 21
1420.494269174574
 31
0.0
  0
LINE
  5
18D88
330
18C7A
100
AcDbEntity
  8
部品1
100
AcDbLine
 10
471.9705892765232
 20
1392.494269174465
 30
0.0
 11
416.9705892765486
 21
1392.494269174465
 31
0.0
  0
LINE
  5
18D89
330
18C7A
100
AcDbEntity
  8
部品1
100
AcDbLine
 10
444.9705892765305
 20
1447.494269174429
 30
0.0
 11
416.9705892765469
 21
1447.494269174429
 31
0.0
  0
LINE
  5
18D8A
330
18C7A
100
AcDbEntity
  8
部品1
100
AcDbLine
 10
444.9705892765305
 20
1447.494269174465
 30
0.0
 11
416.9705892765469
 21
1447.494269174465
 31
0.0
  0
LINE
  5
18D8B
330
18C7A
100
AcDbEntity
  8
部品1
100
AcDbLine
 10
444.9705892765469
 20
1447.49426917448
 30
0.0
 11
416.9705892765469
 21
1447.49426917448
 31
0.0
  0
LINE
  5
18D8C
330
18C7A
100
AcDbEntity
  8
部品1
100
AcDbLine
 10
416.9705892765469
 20
1447.494269174429
 30
0.0
 11
416.9705892765486
 21
1392.494269174433
 31
0.0
  0
LINE
  5
18D8D
330
18C7A
100
AcDbEntity
  8
部品1
100
AcDbLine
 10
416.9705892765196
 20
3182.494269174477
 30
0.0
 11
416.9705892765486
 21
1392.494269174465
 31
0.0
  0
LINE
  5
18D8E
330
18C7A
100
AcDbEntity
  8
部品1
100
AcDbLine
 10
444.9705892765305
 20
1420.494269174556
 30
0.0
 11
444.9705892765559
 21
3154.494269174509
 31
0.0
  0
LINE
  5
18D8F
330
18C7A
100
AcDbEntity
  8
部品1
100
AcDbLine
 10
473.4705892765323
 20
2702.494269174608
 30
0.0
 11
473.470589276545
 21
1448.994269174571
 31
0.0
  0
LINE
  5
18D90
330
18C7A
100
AcDbEntity
  8
破線
 48
10.0
100
AcDbLine
 10
496.9705892765305
 20
2702.494269174608
 30
0.0
 11
496.9705892765451
 21
1472.494269174476
 31
0.0
  0
DIMENSION
  5
18D91
330
18C7A
100
AcDbEntity
  8
寸法
100
AcDbDimension
  2
*D8
 10
3886.970589276531
 20
410.7433333855515
 30
0.0
 11
2168.197775309287
 21
410.7433333855515
 31
0.0
 12
-3742.925985830444
 22
-6453.628869860112
 32
0.0
 70
   128
 71
     5
 42
3469.999999999982
  3
INABA_S40G
100
AcDbAlignedDimension
 13
416.9705892765486
 23
1392.494269174433
 33
0.0
 14
3886.970589276531
 24
1392.49426917456
 34
0.0
100
AcDbRotatedDimension
1001
ACAD
1000
DSTYLE
1002
{
1070
   341
1005
0
1002
}
  0
LINE
  5
18D92
330
18C7A
100
AcDbEntity
  8
部品1
100
AcDbLine
 10
444.9705892765559
 20
3154.494269174624
 30
0.0
 11
1509.470589276487
 21
3154.494269174626
 31
0.0
  0
LINE
  5
18D93
330
18C7A
100
AcDbEntity
  8
部品1
100
AcDbLine
 10
3886.970589276531
 20
1392.494269174596
 30
0.0
 11
3411.970589276556
 21
1392.494269174582
 31
0.0
  0
LINE
  5
18D94
330
18C7A
100
AcDbEntity
  8
部品1
100
AcDbLine
 10
416.9705892765559
 20
3182.494269174509
 30
0.0
 11
3886.970589276556
 21
3182.494269174604
 31
0.0
  0
LINE
  5
18D95
330
18C7A
100
AcDbEntity
  8
部品1
100
AcDbLine
 10
445.4705892765559
 20
2702.494269174509
 30
0.0
 11
1508.470589276487
 21
2702.494269174558
 31
0.0
  0
LINE
  5
18D96
330
18C7A
100
AcDbEntity
  8
細線
 48
50.0
100
AcDbLine
 10
2767.470589276556
 20
3152.494269174611
 30
0.0
 11
1536.470589276487
 21
2702.494269174558
 31
0.0
  0
LINE
  5
18D97
330
18C7A
100
AcDbEntity
  8
部品1
100
AcDbLine
 10
445.4705892765542
 20
3152.494269174509
 30
0.0
 11
1508.470589276485
 21
3152.494269174558
 31
0.0
  0
LINE
  5
18D98
330
18C7A
100
AcDbEntity
  8
細線
 48
50.0
100
AcDbLine
 10
2767.470589276554
 20
2702.494269174615
 30
0.0
 11
1536.470589276485
 21
3152.494269174558
 31
0.0
  0
LINE
  5
18D99
330
18C7A
100
AcDbEntity
  8
破線
 48
10.0
100
AcDbLine
 10
2126.970589276534
 20
1472.494269174502
 30
0.0
 11
1344.47058927653
 21
1472.494269174473
 31
0.0
  0
LINE
  5
18D9A
330
18C7A
100
AcDbEntity
  8
部品1
100
AcDbLine
 10
3830.470589276556
 20
1448.994269174596
 30
0.0
 11
473.4705892764487
 21
1448.994269174476
 31
0.0
  0
DIMENSION
  5
18D9B
330
18C7A
100
AcDbEntity
  8
寸法
100
AcDbDimension
  2
*D7
 10
471.970589276555
 20
3698.302488799491
 30
0.0
 11
108.4853079022819
 21
3698.302488799491
 31
0.0
 12
-3742.925985830444
 22
-6453.628869860112
 32
0.0
 70
   128
 71
     5
 42
55.00000000003456
  3
INABA_S40G
100
AcDbAlignedDimension
 13
416.9705892765205
 23
3182.494269174509
 33
0.0
 14
471.970589276555
 24
3182.494269174509
 34
0.0
100
AcDbRotatedDimension
1001
ACAD
1000
DSTYLE
1002
{
1002
}
  0
DIMENSION
  5
18D9C
330
18C7A
100
AcDbEntity
  8
寸法
100
AcDbDimension
  2
*D6
 10
4534.396935010967
 20
3127.494269174607
 30
0.0
 11
4534.396935010965
 21
3490.979550548844
 31
0.0
 12
-3742.925985830444
 22
-6453.628869860112
 32
0.0
 70
   128
 71
     5
 42
54.99999999999636
  3
INABA_S40G
100
AcDbAlignedDimension
 13
3886.970589276556
 23
3182.494269174604
 33
0.0
 14
3886.970589276556
 24
3127.494269174607
 34
0.0
 50
90.0
100
AcDbRotatedDimension
1001
ACAD
1000
DSTYLE
1002
{
1002
}
  0
DIMENSION
  5
18D9D
330
18C7A
100
AcDbEntity
  8
寸法
100
AcDbDimension
  2
*D5
 10
3886.970589276556
 20
3698.302488799589
 30
0.0
 11
4195.455870650794
 21
3698.302488799589
 31
0.0
 12
-3742.925985830444
 22
-6453.628869860112
 32
0.0
 70
   128
 71
     5
 42
55.0
  3
INABA_S40G
100
AcDbAlignedDimension
 13
3831.970589276556
 23
3182.494269174604
 33
0.0
 14
3886.970589276556
 24
3182.494269174604
 34
0.0
100
AcDbRotatedDimension
1001
ACAD
1000
DSTYLE
1002
{
1002
}
  0
DIMENSION
  5
18D9E
330
18C7A
100
AcDbEntity
  8
寸法
100
AcDbDimension
  2
*D4
 10
3831.970589276556
 20
3698.302488799607
 30
0.0
 11
2151.970589276555
 21
3698.302488799607
 31
0.0
 12
-3742.925985830444
 22
-6453.628869860112
 32
0.0
 70
   128
  1
8X420=<>
 71
     5
 42
3360.000000000001
  3
INABA_S40G
100
AcDbAlignedDimension
 13
471.970589276555
 23
3182.494269174509
 33
0.0
 14
3831.970589276556
 24
3182.494269174604
 34
0.0
100
AcDbRotatedDimension
1001
ACAD
1000
DSTYLE
1002
{
1002
}
  0
DIMENSION
  5
18D9F
330
18C7A
100
AcDbEntity
  8
寸法
100
AcDbDimension
  2
*D3
 10
4899.503876750603
 20
1392.494269174596
 30
0.0
 11
4899.503876750601
 21
2287.4942691746
 31
0.0
 12
-3742.925985830444
 22
-6453.628869860112
 32
0.0
 70
   128
 71
     5
 42
1790.000000000007
  3
INABA_S40G
100
AcDbAlignedDimension
 13
3886.970589276556
 23
3182.494269174604
 33
0.0
 14
3886.970589276531
 24
1392.494269174596
 34
0.0
 50
90.0
100
AcDbRotatedDimension
1001
ACAD
1000
DSTYLE
1002
{
1002
}
  0
ENDBLK
  5
18DA1
330
18C7A
100
AcDbEntity
  8
0
 48
50.0
100
AcDbBlockEnd
  0
BLOCK
  5
1C4CB
330
1C4CA
100
AcDbEntity
  8
0
 48
50.0
100
AcDbBlockBegin
  2
_NONE
 70
     0
 10
0.0
 20
0.0
 30
0.0
  3
_NONE
  1

  0
CIRCLE
  5
1C4CC
330
1C4CA
100
AcDbEntity
  8
0
  6
ByBlock
 62
     0
 48
50.0
100
AcDbCircle
 10
0.0
 20
0.0
 30
0.0
 40
0.25
  0
ENDBLK
  5
1C4CD
330
1C4CA
100
AcDbEntity
  8
0
 48
50.0
100
AcDbBlockEnd
  0
BLOCK
  5
20A29
330
20A20
100
AcDbEntity
  8
0
 48
50.0
100
AcDbBlockBegin
  2
*D19
 70
     1
 10
0.0
 20
0.0
 30
0.0
  3
*D19
  1

  0
LINE
  5
21009
330
20A20
100
AcDbEntity
  8
寸法
 62
     0
 48
50.0
370
    -2
100
AcDbLine
 10
8223.600000000001
 20
6976.907777930207
 30
0.0
 11
8223.600000000001
 21
8133.817543578535
 31
0.0
  0
LINE
  5
2100A
330
20A20
100
AcDbEntity
  8
寸法
 62
     0
 48
50.0
370
    -2
100
AcDbLine
 10
7323.6
 20
7566.907777930208
 30
0.0
 11
7323.6
 21
8133.817543578535
 31
0.0
  0
LINE
  5
2100B
330
20A20
100
AcDbEntity
  8
寸法
 62
     0
 48
50.0
370
    -2
100
AcDbLine
 10
8223.600000000001
 20
8073.817543578536
 30
0.0
 11
7323.6
 21
8073.817543578536
 31
0.0
  0
INSERT
  5
2100C
330
20A20
100
AcDbEntity
  8
寸法
 62
     0
 48
50.0
370
    -2
100
AcDbBlockReference
  2
_DOTSMALL
 10
8223.600000000001
 20
8073.817543578536
 30
0.0
 41
100.0
 42
100.0
 43
100.0
  0
INSERT
  5
2100D
330
20A20
100
AcDbEntity
  8
寸法
 62
     0
 48
50.0
370
    -2
100
AcDbBlockReference
  2
_DOTSMALL
 10
7323.6
 20
8073.817543578536
 30
0.0
 41
100.0
 42
100.0
 43
100.0
 50
180.0
  0
MTEXT
  5
2100E
330
20A20
100
AcDbEntity
  8
寸法
 62
     7
 48
50.0
100
AcDbMText
 10
7773.6
 20
8173.817543578536
 30
0.0
 40
120.0
 41
0.0
 71
     5
 72
     1
  1
\A1;900
  7
STYLE1
 73
     1
 44
1.0
1001
ACAD
1000
MTEXTBEGIN
1070
    73
1070
     1
1070
    44
1040
1.0
1070
    74
1070
     0
1000
MTEXTEND
  0
POINT
  5
2100F
330
20A20
100
AcDbEntity
  8
DEFPOINTS
 62
     0
 48
50.0
100
AcDbPoint
 10
8223.600000000001
 20
6956.907777930208
 30
0.0
  0
POINT
  5
21010
330
20A20
100
AcDbEntity
  8
DEFPOINTS
 62
     0
 48
50.0
100
AcDbPoint
 10
7323.6
 20
7546.907777930208
 30
0.0
  0
POINT
  5
21011
330
20A20
100
AcDbEntity
  8
DEFPOINTS
 62
     0
 48
50.0
100
AcDbPoint
 10
7323.6
 20
8073.817543578536
 30
0.0
  0
ENDBLK
  5
20A2A
330
20A20
100
AcDbEntity
  8
0
 48
50.0
100
AcDbBlockEnd
  0
BLOCK
  5
20A4E
330
20A45
100
AcDbEntity
  8
0
 48
50.0
100
AcDbBlockBegin
  2
*D20
 70
     1
 10
0.0
 20
0.0
 30
0.0
  3
*D20
  1

  0
LINE
  5
21000
330
20A45
100
AcDbEntity
  8
寸法
 62
     0
 48
50.0
370
    -2
100
AcDbLine
 10
7323.6
 20
7566.907777930208
 30
0.0
 11
7323.6
 21
8565.128099989129
 31
0.0
  0
LINE
  5
21001
330
20A45
100
AcDbEntity
  8
寸法
 62
     0
 48
50.0
370
    -2
100
AcDbLine
 10
9123.600000000001
 20
7566.907777930208
 30
0.0
 11
9123.600000000001
 21
8565.128099989129
 31
0.0
  0
LINE
  5
21002
330
20A45
100
AcDbEntity
  8
寸法
 62
     0
 48
50.0
370
    -2
100
AcDbLine
 10
7323.6
 20
8505.128099989127
 30
0.0
 11
9123.600000000001
 21
8505.128099989127
 31
0.0
  0
INSERT
  5
21003
330
20A45
100
AcDbEntity
  8
寸法
 62
     0
 48
50.0
370
    -2
100
AcDbBlockReference
  2
_DOTSMALL
 10
7323.6
 20
8505.128099989127
 30
0.0
 41
100.0
 42
100.0
 43
100.0
 50
180.0
  0
INSERT
  5
21004
330
20A45
100
AcDbEntity
  8
寸法
 62
     0
 48
50.0
370
    -2
100
AcDbBlockReference
  2
_DOTSMALL
 10
9123.600000000001
 20
8505.128099989127
 30
0.0
 41
100.0
 42
100.0
 43
100.0
  0
MTEXT
  5
21005
330
20A45
100
AcDbEntity
  8
寸法
 62
     7
 48
50.0
100
AcDbMText
 10
8223.600000000001
 20
8605.128099989128
 30
0.0
 40
120.0
 41
0.0
 71
     5
 72
     1
  1
\A1;1800
  7
STYLE1
 73
     1
 44
1.0
1001
ACAD
1000
MTEXTBEGIN
1070
    73
1070
     1
1070
    44
1040
1.0
1070
    74
1070
     0
1000
MTEXTEND
  0
POINT
  5
21006
330
20A45
100
AcDbEntity
  8
DEFPOINTS
 62
     0
 48
50.0
100
AcDbPoint
 10
7323.6
 20
7546.907777930208
 30
0.0
  0
POINT
  5
21007
330
20A45
100
AcDbEntity
  8
DEFPOINTS
 62
     0
 48
50.0
100
AcDbPoint
 10
9123.600000000001
 20
7546.907777930208
 30
0.0
  0
POINT
  5
21008
330
20A45
100
AcDbEntity
  8
DEFPOINTS
 62
     0
 48
50.0
100
AcDbPoint
 10
9123.600000000001
 20
8505.128099989127
 30
0.0
  0
ENDBLK
  5
20A4F
330
20A45
100
AcDbEntity
  8
0
 48
50.0
100
AcDbBlockEnd
  0
BLOCK
  5
20A59
330
20A50
100
AcDbEntity
  8
0
 48
50.0
100
AcDbBlockBegin
  2
*D21
 70
     1
 10
0.0
 20
0.0
 30
0.0
  3
*D21
  1

  0
LINE
  5
20FF7
330
20A50
100
AcDbEntity
  8
寸法
 62
     0
 48
50.0
370
    -2
100
AcDbLine
 10
9000.6
 20
7493.907777930208
 30
0.0
 11
9000.6
 21
8352.66740447229
 31
0.0
  0
LINE
  5
20FF8
330
20A50
100
AcDbEntity
  8
寸法
 62
     0
 48
50.0
370
    -2
100
AcDbLine
 10
7446.6
 20
7493.907777930208
 30
0.0
 11
7446.6
 21
8352.66740447229
 31
0.0
  0
LINE
  5
20FF9
330
20A50
100
AcDbEntity
  8
寸法
 62
     0
 48
50.0
370
    -2
100
AcDbLine
 10
9000.6
 20
8292.667404472291
 30
0.0
 11
7446.6
 21
8292.667404472291
 31
0.0
  0
INSERT
  5
20FFA
330
20A50
100
AcDbEntity
  8
寸法
 62
     0
 48
50.0
370
    -2
100
AcDbBlockReference
  2
_DOTSMALL
 10
9000.6
 20
8292.667404472291
 30
0.0
 41
100.0
 42
100.0
 43
100.0
  0
INSERT
  5
20FFB
330
20A50
100
AcDbEntity
  8
寸法
 62
     0
 48
50.0
370
    -2
100
AcDbBlockReference
  2
_DOTSMALL
 10
7446.6
 20
8292.667404472291
 30
0.0
 41
100.0
 42
100.0
 43
100.0
 50
180.0
  0
MTEXT
  5
20FFC
330
20A50
100
AcDbEntity
  8
寸法
 62
     7
 48
50.0
100
AcDbMText
 10
8223.600000000001
 20
8392.667404472291
 30
0.0
 40
120.0
 41
0.0
 71
     5
 72
     1
  1
\A1;1554
  7
STYLE1
 73
     1
 44
1.0
1001
ACAD
1000
MTEXTBEGIN
1070
    73
1070
     1
1070
    44
1040
1.0
1070
    74
1070
     0
1000
MTEXTEND
  0
POINT
  5
20FFD
330
20A50
100
AcDbEntity
  8
DEFPOINTS
 62
     0
 48
50.0
100
AcDbPoint
 10
9000.6
 20
7473.907777930207
 30
0.0
  0
POINT
  5
20FFE
330
20A50
100
AcDbEntity
  8
DEFPOINTS
 62
     0
 48
50.0
100
AcDbPoint
 10
7446.6
 20
7473.907777930207
 30
0.0
  0
POINT
  5
20FFF
330
20A50
100
AcDbEntity
  8
DEFPOINTS
 62
     0
 48
50.0
100
AcDbPoint
 10
7446.6
 20
8292.667404472291
 30
0.0
  0
ENDBLK
  5
20A5A
330
20A50
100
AcDbEntity
  8
0
 48
50.0
100
AcDbBlockEnd
  0
BLOCK
  5
20A66
330
20A5B
100
AcDbEntity
  8
0
 48
50.0
100
AcDbBlockBegin
  2
*D22
 70
     1
 10
0.0
 20
0.0
 30
0.0
  3
*D22
  1

  0
LINE
  5
20F45
330
20A5B
100
AcDbEntity
  8
寸法
 62
     0
 48
50.0
370
    -2
100
AcDbLine
 10
7273.6
 20
8312.667404472287
 30
0.0
 11
7273.6
 21
8565.128099989129
 31
0.0
  0
LINE
  5
20F46
330
20A5B
100
AcDbEntity
  8
寸法
 62
     0
 48
50.0
370
    -2
100
AcDbLine
 10
7323.6
 20
7566.907777930208
 30
0.0
 11
7323.6
 21
8565.128099989129
 31
0.0
  0
LINE
  5
20F47
330
20A5B
100
AcDbEntity
  8
寸法
 62
     0
 48
50.0
370
    -2
100
AcDbLine
 10
7323.6
 20
8505.12809998913
 30
0.0
 11
7423.6
 21
8505.12809998913
 31
0.0
  0
LINE
  5
20F48
330
20A5B
100
AcDbEntity
  8
寸法
 62
     0
 48
50.0
370
    -2
100
AcDbLine
 10
7273.6
 20
8505.12809998913
 30
0.0
 11
6941.250757595082
 21
8505.12809998913
 31
0.0
  0
LINE
  5
20F49
330
20A5B
100
AcDbEntity
  8
寸法
 62
     0
 48
50.0
370
    -2
100
AcDbLine
 10
7323.6
 20
8505.12809998913
 30
0.0
 11
7273.6
 21
8505.12809998913
 31
0.0
  0
INSERT
  5
20F4A
330
20A5B
100
AcDbEntity
  8
寸法
 62
     0
 48
50.0
370
    -2
100
AcDbBlockReference
  2
_DOTSMALL
 10
7323.6
 20
8505.12809998913
 30
0.0
 41
100.0
 42
100.0
 43
100.0
 50
180.0
  0
INSERT
  5
20F4B
330
20A5B
100
AcDbEntity
  8
寸法
 62
     0
 48
50.0
370
    -2
100
AcDbBlockReference
  2
_DOTSMALL
 10
7273.6
 20
8505.12809998913
 30
0.0
 41
100.0
 42
100.0
 43
100.0
  0
MTEXT
  5
20F4C
330
20A5B
100
AcDbEntity
  8
寸法
 62
     7
 48
50.0
100
AcDbMText
 10
7007.425378797541
 20
8605.12809998913
 30
0.0
 40
120.0
 41
0.0
 71
     5
 72
     1
  1
\A1;a
  7
STYLE1
 73
     1
 44
1.0
1001
ACAD
1000
MTEXTBEGIN
1070
    73
1070
     1
1070
    44
1040
1.0
1070
    74
1070
     0
1000
MTEXTEND
  0
POINT
  5
20F4D
330
20A5B
100
AcDbEntity
  8
DEFPOINTS
 62
     0
 48
50.0
100
AcDbPoint
 10
7273.6
 20
8292.667404472288
 30
0.0
  0
POINT
  5
20F4E
330
20A5B
100
AcDbEntity
  8
DEFPOINTS
 62
     0
 48
50.0
100
AcDbPoint
 10
7323.6
 20
7546.907777930208
 30
0.0
  0
POINT
  5
20F4F
330
20A5B
100
AcDbEntity
  8
DEFPOINTS
 62
     0
 48
50.0
100
AcDbPoint
 10
7323.6
 20
8505.12809998913
 30
0.0
  0
ENDBLK
  5
20A67
330
20A5B
100
AcDbEntity
  8
0
 48
50.0
100
AcDbBlockEnd
  0
BLOCK
  5
20A73
330
20A68
100
AcDbEntity
  8
0
 48
50.0
100
AcDbBlockBegin
  2
*D23
 70
     1
 10
0.0
 20
0.0
 30
0.0
  3
*D23
  1

  0
LINE
  5
20FED
330
20A68
100
AcDbEntity
  8
寸法
 62
     0
 48
50.0
370
    -2
100
AcDbLine
 10
7446.6
 20
7493.907777930208
 30
0.0
 11
7446.6
 21
8352.66740447229
 31
0.0
  0
LINE
  5
20FEE
330
20A68
100
AcDbEntity
  8
寸法
 62
     0
 48
50.0
370
    -2
100
AcDbLine
 10
7323.6
 20
7566.907777930208
 30
0.0
 11
7323.6
 21
8352.66740447229
 31
0.0
  0
LINE
  5
20FEF
330
20A68
100
AcDbEntity
  8
寸法
 62
     0
 48
50.0
370
    -2
100
AcDbLine
 10
7446.6
 20
8292.667404472291
 30
0.0
 11
7323.6
 21
8292.667404472291
 31
0.0
  0
LINE
  5
20FF0
330
20A68
100
AcDbEntity
  8
寸法
 62
     0
 48
50.0
370
    -2
100
AcDbLine
 10
7323.6
 20
8292.667404472291
 30
0.0
 11
6912.008116907962
 21
8292.667404472291
 31
0.0
  0
INSERT
  5
20FF1
330
20A68
100
AcDbEntity
  8
寸法
 62
     0
 48
50.0
370
    -2
100
AcDbBlockReference
  2
_DOTSMALL
 10
7446.6
 20
8292.667404472291
 30
0.0
 41
100.0
 42
100.0
 43
100.0
  0
INSERT
  5
20FF2
330
20A68
100
AcDbEntity
  8
寸法
 62
     0
 48
50.0
370
    -2
100
AcDbBlockReference
  2
_DOTSMALL
 10
7323.6
 20
8292.667404472291
 30
0.0
 41
100.0
 42
100.0
 43
100.0
 50
180.0
  0
MTEXT
  5
20FF3
330
20A68
100
AcDbEntity
  8
寸法
 62
     7
 48
50.0
100
AcDbMText
 10
7050.493398282203
 20
8392.679215495913
 30
0.0
 40
120.0
 41
0.0
 71
     5
 72
     1
  1
\A1;123
  7
STYLE1
 73
     1
 44
1.0
1001
ACAD
1000
MTEXTBEGIN
1070
    73
1070
     1
1070
    44
1040
1.0
1070
    74
1070
     0
1000
MTEXTEND
  0
POINT
  5
20FF4
330
20A68
100
AcDbEntity
  8
DEFPOINTS
 62
     0
 48
50.0
100
AcDbPoint
 10
7446.6
 20
7473.907777930207
 30
0.0
  0
POINT
  5
20FF5
330
20A68
100
AcDbEntity
  8
DEFPOINTS
 62
     0
 48
50.0
100
AcDbPoint
 10
7323.6
 20
7546.907777930208
 30
0.0
  0
POINT
  5
20FF6
330
20A68
100
AcDbEntity
  8
DEFPOINTS
 62
     0
 48
50.0
100
AcDbPoint
 10
7323.6
 20
8292.667404472291
 30
0.0
  0
ENDBLK
  5
20A74
330
20A68
100
AcDbEntity
  8
0
 48
50.0
100
AcDbBlockEnd
  0
BLOCK
  5
20A80
330
20A75
100
AcDbEntity
  8
0
 48
50.0
100
AcDbBlockBegin
  2
*D24
 70
     1
 10
0.0
 20
0.0
 30
0.0
  3
*D24
  1

  0
LINE
  5
22780
330
20A75
100
AcDbEntity
  8
寸法
 62
     0
 48
50.0
370
    -2
100
AcDbLine
 10
7303.6
 20
6091.907777930224
 30
0.0
 11
6916.957711176872
 21
6091.907777930224
 31
0.0
  0
LINE
  5
22781
330
20A75
100
AcDbEntity
  8
寸法
 62
     0
 48
50.0
370
    -2
100
AcDbLine
 10
7303.6
 20
6166.907777930208
 30
0.0
 11
6916.957711176872
 21
6166.907777930208
 31
0.0
  0
LINE
  5
22782
330
20A75
100
AcDbEntity
  8
寸法
 62
     0
 48
50.0
370
    -2
100
AcDbLine
 10
6976.957711176872
 20
6166.907777930208
 30
0.0
 11
6976.957711176872
 21
6266.907777930208
 31
0.0
  0
LINE
  5
22783
330
20A75
100
AcDbEntity
  8
寸法
 62
     0
 48
50.0
370
    -2
100
AcDbLine
 10
6976.957711176871
 20
6091.907777930224
 30
0.0
 11
6976.957711176871
 21
5224.93721518173
 31
0.0
  0
LINE
  5
22784
330
20A75
100
AcDbEntity
  8
寸法
 62
     0
 48
50.0
370
    -2
100
AcDbLine
 10
6976.957711176872
 20
6166.907777930208
 30
0.0
 11
6976.957711176871
 21
6091.907777930224
 31
0.0
  0
INSERT
  5
22785
330
20A75
100
AcDbEntity
  8
寸法
 62
     0
 48
50.0
370
    -2
100
AcDbBlockReference
  2
_DOTSMALL
 10
6976.957711176872
 20
6166.907777930208
 30
0.0
 41
100.0
 42
100.0
 43
100.0
 50
270.0
  0
INSERT
  5
22786
330
20A75
100
AcDbEntity
  8
寸法
 62
     0
 48
50.0
370
    -2
100
AcDbBlockReference
  2
_DOTSMALL
 10
6976.957711176871
 20
6091.907777930224
 30
0.0
 41
100.0
 42
100.0
 43
100.0
 50
90.0
  0
MTEXT
  5
22787
330
20A75
100
AcDbEntity
  8
寸法
 62
     7
 48
50.0
100
AcDbMText
 10
6876.957711176871
 20
5558.42249655597
 30
0.0
 40
120.0
 41
0.0
 71
     5
 72
     1
  1
\A1;扉の出75
  7
STYLE1
 11
0.0000000000000001
 21
1.0
 31
0.0
 73
     1
 44
1.0
1001
ACAD
1000
MTEXTBEGIN
1070
    73
1070
     1
1070
    44
1040
1.0
1070
    74
1070
     0
1000
MTEXTEND
  0
POINT
  5
22788
330
20A75
100
AcDbEntity
  8
DEFPOINTS
 62
     0
 48
50.0
100
AcDbPoint
 10
7323.6
 20
6091.907777930224
 30
0.0
  0
POINT
  5
22789
330
20A75
100
AcDbEntity
  8
DEFPOINTS
 62
     0
 48
50.0
100
AcDbPoint
 10
7323.6
 20
6166.907777930208
 30
0.0
  0
POINT
  5
2278A
330
20A75
100
AcDbEntity
  8
DEFPOINTS
 62
     0
 48
50.0
100
AcDbPoint
 10
6976.957711176872
 20
6166.907777930208
 30
0.0
  0
ENDBLK
  5
20A81
330
20A75
100
AcDbEntity
  8
0
 48
50.0
100
AcDbBlockEnd
  0
BLOCK
  5
20A8D
330
20A82
100
AcDbEntity
  8
0
 48
50.0
100
AcDbBlockBegin
  2
*D25
 70
     1
 10
0.0
 20
0.0
 30
0.0
  3
*D25
  1

  0
LINE
  5
20FD8
330
20A82
100
AcDbEntity
  8
寸法
 62
     0
 48
50.0
370
    -2
100
AcDbLine
 10
7376.600000000007
 20
6289.90777793021
 30
0.0
 11
6418.398261399369
 21
6289.90777793021
 31
0.0
  0
LINE
  5
20FD9
330
20A82
100
AcDbEntity
  8
寸法
 62
     0
 48
50.0
370
    -2
100
AcDbLine
 10
7303.6
 20
6166.907777930208
 30
0.0
 11
6418.398261399369
 21
6166.907777930208
 31
0.0
  0
LINE
  5
20FDA
330
20A82
100
AcDbEntity
  8
寸法
 62
     0
 48
50.0
370
    -2
100
AcDbLine
 10
6478.398261399369
 20
6289.90777793021
 30
0.0
 11
6478.398261399369
 21
6166.907777930208
 31
0.0
  0
LINE
  5
20FDB
330
20A82
100
AcDbEntity
  8
寸法
 62
     0
 48
50.0
370
    -2
100
AcDbLine
 10
6478.398261399369
 20
6166.907777930208
 30
0.0
 11
6478.398261399367
 21
5755.315894838169
 31
0.0
  0
INSERT
  5
20FDC
330
20A82
100
AcDbEntity
  8
寸法
 62
     0
 48
50.0
370
    -2
100
AcDbBlockReference
  2
_DOTSMALL
 10
6478.398261399369
 20
6289.90777793021
 30
0.0
 41
100.0
 42
100.0
 43
100.0
 50
90.0
  0
INSERT
  5
20FDD
330
20A82
100
AcDbEntity
  8
寸法
 62
     0
 48
50.0
370
    -2
100
AcDbBlockReference
  2
_DOTSMALL
 10
6478.398261399369
 20
6166.907777930208
 30
0.0
 41
100.0
 42
100.0
 43
100.0
 50
270.0
  0
MTEXT
  5
20FDE
330
20A82
100
AcDbEntity
  8
寸法
 62
     7
 48
50.0
100
AcDbMText
 10
6378.386450375745
 20
5893.801176212409
 30
0.0
 40
120.0
 41
0.0
 71
     5
 72
     1
  1
\A1;123
  7
STYLE1
 11
0.0000000000000001
 21
1.0
 31
0.0
 73
     1
 44
1.0
1001
ACAD
1000
MTEXTBEGIN
1070
    73
1070
     1
1070
    44
1040
1.0
1070
    74
1070
     0
1000
MTEXTEND
  0
POINT
  5
20FDF
330
20A82
100
AcDbEntity
  8
DEFPOINTS
 62
     0
 48
50.0
100
AcDbPoint
 10
7396.600000000008
 20
6289.90777793021
 30
0.0
  0
POINT
  5
20FE0
330
20A82
100
AcDbEntity
  8
DEFPOINTS
 62
     0
 48
50.0
100
AcDbPoint
 10
7323.6
 20
6166.907777930208
 30
0.0
  0
POINT
  5
20FE1
330
20A82
100
AcDbEntity
  8
DEFPOINTS
 62
     0
 48
50.0
100
AcDbPoint
 10
6478.398261399369
 20
6166.907777930208
 30
0.0
  0
ENDBLK
  5
20A8E
330
20A82
100
AcDbEntity
  8
0
 48
50.0
100
AcDbBlockEnd
  0
BLOCK
  5
20AA5
330
20A9C
100
AcDbEntity
  8
0
 48
50.0
100
AcDbBlockBegin
  2
*D26
 70
     1
 10
0.0
 20
0.0
 30
0.0
  3
*D26
  1

  0
LINE
  5
20FC5
330
20A9C
100
AcDbEntity
  8
寸法
 62
     0
 48
50.0
370
    -2
100
AcDbLine
 10
7303.6
 20
6166.907777930208
 30
0.0
 11
6172.905459261399
 21
6166.907777930208
 31
0.0
  0
LINE
  5
20FC6
330
20A9C
100
AcDbEntity
  8
寸法
 62
     0
 48
50.0
370
    -2
100
AcDbLine
 10
7303.6
 20
7546.907777930208
 30
0.0
 11
6172.905459261399
 21
7546.907777930208
 31
0.0
  0
LINE
  5
20FC7
330
20A9C
100
AcDbEntity
  8
寸法
 62
     0
 48
50.0
370
    -2
100
AcDbLine
 10
6232.905459261399
 20
6166.907777930208
 30
0.0
 11
6232.905459261399
 21
7546.907777930208
 31
0.0
  0
INSERT
  5
20FC8
330
20A9C
100
AcDbEntity
  8
寸法
 62
     0
 48
50.0
370
    -2
100
AcDbBlockReference
  2
_DOTSMALL
 10
6232.905459261399
 20
6166.907777930208
 30
0.0
 41
100.0
 42
100.0
 43
100.0
 50
270.0
  0
INSERT
  5
20FC9
330
20A9C
100
AcDbEntity
  8
寸法
 62
     0
 48
50.0
370
    -2
100
AcDbBlockReference
  2
_DOTSMALL
 10
6232.905459261399
 20
7546.907777930208
 30
0.0
 41
100.0
 42
100.0
 43
100.0
 50
90.0
  0
MTEXT
  5
20FCA
330
20A9C
100
AcDbEntity
  8
寸法
 62
     7
 48
50.0
100
AcDbMText
 10
6132.905459261397
 20
6856.90777793021
 30
0.0
 40
120.0
 41
0.0
 71
     5
 72
     1
  1
\A1;1380
  7
STYLE1
 11
0.0000000000000001
 21
1.0
 31
0.0
 73
     1
 44
1.0
1001
ACAD
1000
MTEXTBEGIN
1070
    73
1070
     1
1070
    44
1040
1.0
1070
    74
1070
     0
1000
MTEXTEND
  0
POINT
  5
20FCB
330
20A9C
100
AcDbEntity
  8
DEFPOINTS
 62
     0
 48
50.0
100
AcDbPoint
 10
7323.6
 20
6166.907777930208
 30
0.0
  0
POINT
  5
20FCC
330
20A9C
100
AcDbEntity
  8
DEFPOINTS
 62
     0
 48
50.0
100
AcDbPoint
 10
7323.6
 20
7546.907777930208
 30
0.0
  0
POINT
  5
20FCD
330
20A9C
100
AcDbEntity
  8
DEFPOINTS
 62
     0
 48
50.0
100
AcDbPoint
 10
6232.905459261399
 20
7546.907777930208
 30
0.0
  0
ENDBLK
  5
20AA6
330
20A9C
100
AcDbEntity
  8
0
 48
50.0
100
AcDbBlockEnd
  0
BLOCK
  5
20AB1
330
20AA7
100
AcDbEntity
  8
0
 48
50.0
100
AcDbBlockBegin
  2
*D27
 70
     1
 10
0.0
 20
0.0
 30
0.0
  3
*D27
  1

  0
LINE
  5
20FBC
330
20AA7
100
AcDbEntity
  8
寸法
 62
     0
 48
50.0
370
    -2
100
AcDbLine
 10
7376.6
 20
7423.907777930208
 30
0.0
 11
6418.398261399366
 21
7423.907777930208
 31
0.0
  0
LINE
  5
20FBD
330
20AA7
100
AcDbEntity
  8
寸法
 62
     0
 48
50.0
370
    -2
100
AcDbLine
 10
7376.600000000007
 20
6289.90777793021
 30
0.0
 11
6418.398261399366
 21
6289.90777793021
 31
0.0
  0
LINE
  5
20FBE
330
20AA7
100
AcDbEntity
  8
寸法
 62
     0
 48
50.0
370
    -2
100
AcDbLine
 10
6478.398261399367
 20
7423.907777930208
 30
0.0
 11
6478.398261399367
 21
6289.90777793021
 31
0.0
  0
INSERT
  5
20FBF
330
20AA7
100
AcDbEntity
  8
寸法
 62
     0
 48
50.0
370
    -2
100
AcDbBlockReference
  2
_DOTSMALL
 10
6478.398261399367
 20
7423.907777930208
 30
0.0
 41
100.0
 42
100.0
 43
100.0
 50
90.0
  0
INSERT
  5
20FC0
330
20AA7
100
AcDbEntity
  8
寸法
 62
     0
 48
50.0
370
    -2
100
AcDbBlockReference
  2
_DOTSMALL
 10
6478.398261399367
 20
6289.90777793021
 30
0.0
 41
100.0
 42
100.0
 43
100.0
 50
270.0
  0
MTEXT
  5
20FC1
330
20AA7
100
AcDbEntity
  8
寸法
 62
     7
 48
50.0
100
AcDbMText
 10
6378.398261399365
 20
6856.90777793021
 30
0.0
 40
120.0
 41
0.0
 71
     5
 72
     1
  1
\A1;1134
  7
STYLE1
 11
0.0000000000000001
 21
1.0
 31
0.0
 73
     1
 44
1.0
1001
ACAD
1000
MTEXTBEGIN
1070
    73
1070
     1
1070
    44
1040
1.0
1070
    74
1070
     0
1000
MTEXTEND
  0
POINT
  5
20FC2
330
20AA7
100
AcDbEntity
  8
DEFPOINTS
 62
     0
 48
50.0
100
AcDbPoint
 10
7396.600000000001
 20
7423.907777930208
 30
0.0
  0
POINT
  5
20FC3
330
20AA7
100
AcDbEntity
  8
DEFPOINTS
 62
     0
 48
50.0
100
AcDbPoint
 10
7396.600000000008
 20
6289.90777793021
 30
0.0
  0
POINT
  5
20FC4
330
20AA7
100
AcDbEntity
  8
DEFPOINTS
 62
     0
 48
50.0
100
AcDbPoint
 10
6478.398261399367
 20
6289.90777793021
 30
0.0
  0
ENDBLK
  5
20AB2
330
20AA7
100
AcDbEntity
  8
0
 48
50.0
100
AcDbBlockEnd
  0
BLOCK
  5
20ABB
330
20AB3
100
AcDbEntity
  8
0
 48
50.0
100
AcDbBlockBegin
  2
*D28
 70
     1
 10
0.0
 20
0.0
 30
0.0
  3
*D28
  1

  0
LINE
  5
21060
330
20AB3
100
AcDbEntity
  8
寸法
 62
     0
 48
50.0
370
    -2
100
AcDbLine
 10
6458.398261399368
 20
6091.907777930208
 30
0.0
 11
6172.9054592614
 21
6091.907777930208
 31
0.0
  0
LINE
  5
21061
330
20AB3
100
AcDbEntity
  8
寸法
 62
     0
 48
50.0
370
    -2
100
AcDbLine
 10
7303.6
 20
6166.907777930208
 30
0.0
 11
6172.905459261401
 21
6166.907777930208
 31
0.0
  0
LINE
  5
21062
330
20AB3
100
AcDbEntity
  8
寸法
 62
     0
 48
50.0
370
    -2
100
AcDbLine
 10
6232.905459261401
 20
6091.907777930208
 30
0.0
 11
6232.905459261401
 21
5991.907777930208
 31
0.0
  0
LINE
  5
21063
330
20AB3
100
AcDbEntity
  8
寸法
 62
     0
 48
50.0
370
    -2
100
AcDbLine
 10
6232.905459261401
 20
6166.907777930208
 30
0.0
 11
6232.905459261401
 21
6266.907777930208
 31
0.0
  0
LINE
  5
21064
330
20AB3
100
AcDbEntity
  8
寸法
 62
     0
 48
50.0
370
    -2
100
AcDbLine
 10
6232.905459261401
 20
6091.907777930208
 30
0.0
 11
6232.905459261401
 21
6166.907777930208
 31
0.0
  0
INSERT
  5
21065
330
20AB3
100
AcDbEntity
  8
寸法
 62
     0
 48
50.0
370
    -2
100
AcDbBlockReference
  2
_DOTSMALL
 10
6232.905459261401
 20
6091.907777930208
 30
0.0
 41
100.0
 42
100.0
 43
100.0
 50
90.0
  0
INSERT
  5
21066
330
20AB3
100
AcDbEntity
  8
寸法
 62
     0
 48
50.0
370
    -2
100
AcDbBlockReference
  2
_DOTSMALL
 10
6232.905459261401
 20
6166.907777930208
 30
0.0
 41
100.0
 42
100.0
 43
100.0
 50
270.0
  0
MTEXT
  5
21067
330
20AB3
100
AcDbEntity
  8
寸法
 62
     7
 48
50.0
100
AcDbMText
 10
6132.905459261399
 20
6129.40777793021
 30
0.0
 40
120.0
 41
0.0
 71
     5
 72
     1
  1
\A1;c
  7
STYLE1
 11
0.0000000000000001
 21
1.0
 31
0.0
 73
     1
 44
1.0
1001
ACAD
1000
MTEXTBEGIN
1070
    73
1070
     1
1070
    44
1040
1.0
1070
    74
1070
     0
1000
MTEXTEND
  0
POINT
  5
21068
330
20AB3
100
AcDbEntity
  8
DEFPOINTS
 62
     0
 48
50.0
100
AcDbPoint
 10
6478.398261399369
 20
6091.907777930208
 30
0.0
  0
POINT
  5
21069
330
20AB3
100
AcDbEntity
  8
DEFPOINTS
 62
     0
 48
50.0
100
AcDbPoint
 10
7323.6
 20
6166.907777930208
 30
0.0
  0
POINT
  5
2106A
330
20AB3
100
AcDbEntity
  8
DEFPOINTS
 62
     0
 48
50.0
100
AcDbPoint
 10
6232.905459261401
 20
6166.907777930208
 30
0.0
  0
ENDBLK
  5
20ABC
330
20AB3
100
AcDbEntity
  8
0
 48
50.0
100
AcDbBlockEnd
  0
BLOCK
  5
20AD5
330
20ACA
100
AcDbEntity
  8
0
 48
50.0
100
AcDbBlockBegin
  2
*D29
 70
     1
 10
0.0
 20
0.0
 30
0.0
  3
*D29
  1

  0
LINE
  5
20F9F
330
20ACA
100
AcDbEntity
  8
寸法
 62
     0
 48
50.0
370
    -2
100
AcDbLine
 10
7303.6
 20
7546.907777930208
 30
0.0
 11
6418.398261399367
 21
7546.907777930208
 31
0.0
  0
LINE
  5
20FA0
330
20ACA
100
AcDbEntity
  8
寸法
 62
     0
 48
50.0
370
    -2
100
AcDbLine
 10
7376.6
 20
7423.907777930208
 30
0.0
 11
6418.398261399367
 21
7423.907777930208
 31
0.0
  0
LINE
  5
20FA1
330
20ACA
100
AcDbEntity
  8
寸法
 62
     0
 48
50.0
370
    -2
100
AcDbLine
 10
6478.398261399367
 20
7423.907777930208
 30
0.0
 11
6478.398261399367
 21
7546.907777930208
 31
0.0
  0
LINE
  5
20FA2
330
20ACA
100
AcDbEntity
  8
寸法
 62
     0
 48
50.0
370
    -2
100
AcDbLine
 10
6478.398261399367
 20
7546.907777930208
 30
0.0
 11
6478.398261399367
 21
7998.499661022243
 31
0.0
  0
INSERT
  5
20FA3
330
20ACA
100
AcDbEntity
  8
寸法
 62
     0
 48
50.0
370
    -2
100
AcDbBlockReference
  2
_DOTSMALL
 10
6478.398261399367
 20
7423.907777930208
 30
0.0
 41
100.0
 42
100.0
 43
100.0
 50
270.0
  0
INSERT
  5
20FA4
330
20ACA
100
AcDbEntity
  8
寸法
 62
     0
 48
50.0
370
    -2
100
AcDbBlockReference
  2
_DOTSMALL
 10
6478.398261399367
 20
7546.907777930208
 30
0.0
 41
100.0
 42
100.0
 43
100.0
 50
90.0
  0
MTEXT
  5
20FA5
330
20ACA
100
AcDbEntity
  8
寸法
 62
     7
 48
50.0
100
AcDbMText
 10
6378.386450375745
 20
7860.014379648006
 30
0.0
 40
120.0
 41
0.0
 71
     5
 72
     1
  1
\A1;123
  7
STYLE1
 11
0.0000000000000001
 21
1.0
 31
0.0
 73
     1
 44
1.0
1001
ACAD
1000
MTEXTBEGIN
1070
    73
1070
     1
1070
    44
1040
1.0
1070
    74
1070
     0
1000
MTEXTEND
  0
POINT
  5
20FA6
330
20ACA
100
AcDbEntity
  8
DEFPOINTS
 62
     0
 48
50.0
100
AcDbPoint
 10
7323.6
 20
7546.907777930208
 30
0.0
  0
POINT
  5
20FA7
330
20ACA
100
AcDbEntity
  8
DEFPOINTS
 62
     0
 48
50.0
100
AcDbPoint
 10
7396.600000000001
 20
7423.907777930208
 30
0.0
  0
POINT
  5
20FA8
330
20ACA
100
AcDbEntity
  8
DEFPOINTS
 62
     0
 48
50.0
100
AcDbPoint
 10
6478.398261399367
 20
7423.907777930208
 30
0.0
  0
ENDBLK
  5
20AD6
330
20ACA
100
AcDbEntity
  8
0
 48
50.0
100
AcDbBlockEnd
  0
BLOCK
  5
20AE1
330
20AD7
100
AcDbEntity
  8
0
 48
50.0
100
AcDbBlockBegin
  2
*D30
 70
     1
 10
0.0
 20
0.0
 30
0.0
  3
*D30
  1

  0
LINE
  5
2104A
330
20AD7
100
AcDbEntity
  8
寸法
 62
     0
 48
50.0
370
    -2
100
AcDbLine
 10
7303.6
 20
7546.907777930208
 30
0.0
 11
6172.905459261402
 21
7546.907777930208
 31
0.0
  0
LINE
  5
2104B
330
20AD7
100
AcDbEntity
  8
寸法
 62
     0
 48
50.0
370
    -2
100
AcDbLine
 10
6458.398261399368
 20
7601.907777930207
 30
0.0
 11
6172.905459261402
 21
7601.907777930207
 31
0.0
  0
LINE
  5
2104C
330
20AD7
100
AcDbEntity
  8
寸法
 62
     0
 48
50.0
370
    -2
100
AcDbLine
 10
6232.905459261402
 20
7546.907777930208
 30
0.0
 11
6232.905459261402
 21
7446.907777930208
 31
0.0
  0
LINE
  5
2104D
330
20AD7
100
AcDbEntity
  8
寸法
 62
     0
 48
50.0
370
    -2
100
AcDbLine
 10
6232.905459261402
 20
7601.907777930207
 30
0.0
 11
6232.905459261402
 21
7701.907777930208
 31
0.0
  0
LINE
  5
2104E
330
20AD7
100
AcDbEntity
  8
寸法
 62
     0
 48
50.0
370
    -2
100
AcDbLine
 10
6232.905459261402
 20
7546.907777930208
 30
0.0
 11
6232.905459261402
 21
7601.907777930207
 31
0.0
  0
INSERT
  5
2104F
330
20AD7
100
AcDbEntity
  8
寸法
 62
     0
 48
50.0
370
    -2
100
AcDbBlockReference
  2
_DOTSMALL
 10
6232.905459261402
 20
7546.907777930208
 30
0.0
 41
100.0
 42
100.0
 43
100.0
 50
90.0
  0
INSERT
  5
21050
330
20AD7
100
AcDbEntity
  8
寸法
 62
     0
 48
50.0
370
    -2
100
AcDbBlockReference
  2
_DOTSMALL
 10
6232.905459261402
 20
7601.907777930207
 30
0.0
 41
100.0
 42
100.0
 43
100.0
 50
270.0
  0
MTEXT
  5
21051
330
20AD7
100
AcDbEntity
  8
寸法
 62
     7
 48
50.0
100
AcDbMText
 10
6132.905459261401
 20
7574.40777793021
 30
0.0
 40
120.0
 41
0.0
 71
     5
 72
     1
  1
\A1;b
  7
STYLE1
 11
0.0000000000000001
 21
1.0
 31
0.0
 73
     1
 44
1.0
1001
ACAD
1000
MTEXTBEGIN
1070
    73
1070
     1
1070
    44
1040
1.0
1070
    74
1070
     0
1000
MTEXTEND
  0
POINT
  5
21052
330
20AD7
100
AcDbEntity
  8
DEFPOINTS
 62
     0
 48
50.0
100
AcDbPoint
 10
7323.6
 20
7546.907777930208
 30
0.0
  0
POINT
  5
21053
330
20AD7
100
AcDbEntity
  8
DEFPOINTS
 62
     0
 48
50.0
100
AcDbPoint
 10
6478.398261399367
 20
7601.907777930207
 30
0.0
  0
POINT
  5
21054
330
20AD7
100
AcDbEntity
  8
DEFPOINTS
 62
     0
 48
50.0
100
AcDbPoint
 10
6232.905459261402
 20
7601.907777930207
 30
0.0
  0
ENDBLK
  5
20AE2
330
20AD7
100
AcDbEntity
  8
0
 48
50.0
100
AcDbBlockEnd
  0
BLOCK
  5
20AED
330
20AE3
100
AcDbEntity
  8
0
 48
50.0
100
AcDbBlockBegin
  2
*D31
 70
     1
 10
0.0
 20
0.0
 30
0.0
  3
*D31
  1

  0
LINE
  5
20F8B
330
20AE3
100
AcDbEntity
  8
寸法
 62
     0
 48
50.0
370
    -2
100
AcDbLine
 10
9123.600000000001
 20
7566.907777930208
 30
0.0
 11
9123.600000000001
 21
8133.817543578535
 31
0.0
  0
LINE
  5
20F8C
330
20AE3
100
AcDbEntity
  8
寸法
 62
     0
 48
50.0
370
    -2
100
AcDbLine
 10
8223.600000000001
 20
6976.907777930207
 30
0.0
 11
8223.600000000001
 21
8133.817543578535
 31
0.0
  0
LINE
  5
20F8D
330
20AE3
100
AcDbEntity
  8
寸法
 62
     0
 48
50.0
370
    -2
100
AcDbLine
 10
9123.600000000001
 20
8073.817543578536
 30
0.0
 11
8223.600000000001
 21
8073.817543578536
 31
0.0
  0
INSERT
  5
20F8E
330
20AE3
100
AcDbEntity
  8
寸法
 62
     0
 48
50.0
370
    -2
100
AcDbBlockReference
  2
_DOTSMALL
 10
9123.600000000001
 20
8073.817543578536
 30
0.0
 41
100.0
 42
100.0
 43
100.0
  0
INSERT
  5
20F8F
330
20AE3
100
AcDbEntity
  8
寸法
 62
     0
 48
50.0
370
    -2
100
AcDbBlockReference
  2
_DOTSMALL
 10
8223.600000000001
 20
8073.817543578536
 30
0.0
 41
100.0
 42
100.0
 43
100.0
 50
180.0
  0
MTEXT
  5
20F90
330
20AE3
100
AcDbEntity
  8
寸法
 62
     7
 48
50.0
100
AcDbMText
 10
8694.51852200628
 20
8173.817543578536
 30
0.0
 40
120.0
 41
0.0
 71
     5
 72
     1
  1
\A1;900
  7
STYLE1
 73
     1
 44
1.0
1001
ACAD
1000
MTEXTBEGIN
1070
    73
1070
     1
1070
    44
1040
1.0
1070
    74
1070
     0
1000
MTEXTEND
  0
POINT
  5
20F91
330
20AE3
100
AcDbEntity
  8
DEFPOINTS
 62
     0
 48
50.0
100
AcDbPoint
 10
9123.600000000001
 20
7546.907777930208
 30
0.0
  0
POINT
  5
20F92
330
20AE3
100
AcDbEntity
  8
DEFPOINTS
 62
     0
 48
50.0
100
AcDbPoint
 10
8223.600000000001
 20
6956.907777930208
 30
0.0
  0
POINT
  5
20F93
330
20AE3
100
AcDbEntity
  8
DEFPOINTS
 62
     0
 48
50.0
100
AcDbPoint
 10
8223.600000000001
 20
8073.817543578536
 30
0.0
  0
ENDBLK
  5
20AEE
330
20AE3
100
AcDbEntity
  8
0
 48
50.0
100
AcDbBlockEnd
  0
BLOCK
  5
20AFA
330
20AEF
100
AcDbEntity
  8
0
 48
50.0
100
AcDbBlockBegin
  2
*D32
 70
     1
 10
0.0
 20
0.0
 30
0.0
  3
*D32
  1

  0
LINE
  5
20F80
330
20AEF
100
AcDbEntity
  8
寸法
 62
     0
 48
50.0
370
    -2
100
AcDbLine
 10
9123.600000000001
 20
7566.907777930208
 30
0.0
 11
9123.600000000001
 21
8565.128099989129
 31
0.0
  0
LINE
  5
20F81
330
20AEF
100
AcDbEntity
  8
寸法
 62
     0
 48
50.0
370
    -2
100
AcDbLine
 10
9173.6
 20
8312.667404472293
 30
0.0
 11
9173.6
 21
8565.128099989129
 31
0.0
  0
LINE
  5
20F82
330
20AEF
100
AcDbEntity
  8
寸法
 62
     0
 48
50.0
370
    -2
100
AcDbLine
 10
9123.600000000001
 20
8505.12809998913
 30
0.0
 11
9023.6
 21
8505.12809998913
 31
0.0
  0
LINE
  5
20F83
330
20AEF
100
AcDbEntity
  8
寸法
 62
     0
 48
50.0
370
    -2
100
AcDbLine
 10
9173.6
 20
8505.12809998913
 30
0.0
 11
9505.949242404918
 21
8505.12809998913
 31
0.0
  0
LINE
  5
20F84
330
20AEF
100
AcDbEntity
  8
寸法
 62
     0
 48
50.0
370
    -2
100
AcDbLine
 10
9123.600000000001
 20
8505.12809998913
 30
0.0
 11
9173.6
 21
8505.12809998913
 31
0.0
  0
INSERT
  5
20F85
330
20AEF
100
AcDbEntity
  8
寸法
 62
     0
 48
50.0
370
    -2
100
AcDbBlockReference
  2
_DOTSMALL
 10
9123.600000000001
 20
8505.12809998913
 30
0.0
 41
100.0
 42
100.0
 43
100.0
  0
INSERT
  5
20F86
330
20AEF
100
AcDbEntity
  8
寸法
 62
     0
 48
50.0
370
    -2
100
AcDbBlockReference
  2
_DOTSMALL
 10
9173.6
 20
8505.12809998913
 30
0.0
 41
100.0
 42
100.0
 43
100.0
 50
180.0
  0
MTEXT
  5
20F87
330
20AEF
100
AcDbEntity
  8
寸法
 62
     7
 48
50.0
100
AcDbMText
 10
9439.77462120246
 20
8605.12809998913
 30
0.0
 40
120.0
 41
0.0
 71
     5
 72
     1
  1
\A1;a
  7
STYLE1
 73
     1
 44
1.0
1001
ACAD
1000
MTEXTBEGIN
1070
    73
1070
     1
1070
    44
1040
1.0
1070
    74
1070
     0
1000
MTEXTEND
  0
POINT
  5
20F88
330
20AEF
100
AcDbEntity
  8
DEFPOINTS
 62
     0
 48
50.0
100
AcDbPoint
 10
9123.600000000001
 20
7546.907777930208
 30
0.0
  0
POINT
  5
20F89
330
20AEF
100
AcDbEntity
  8
DEFPOINTS
 62
     0
 48
50.0
100
AcDbPoint
 10
9173.6
 20
8292.667404472293
 30
0.0
  0
POINT
  5
20F8A
330
20AEF
100
AcDbEntity
  8
DEFPOINTS
 62
     0
 48
50.0
100
AcDbPoint
 10
9173.6
 20
8505.12809998913
 30
0.0
  0
ENDBLK
  5
20AFB
330
20AEF
100
AcDbEntity
  8
0
 48
50.0
100
AcDbBlockEnd
  0
BLOCK
  5
20B07
330
20AFC
100
AcDbEntity
  8
0
 48
50.0
100
AcDbBlockBegin
  2
*D33
 70
     1
 10
0.0
 20
0.0
 30
0.0
  3
*D33
  1

  0
LINE
  5
20F76
330
20AFC
100
AcDbEntity
  8
寸法
 62
     0
 48
50.0
370
    -2
100
AcDbLine
 10
9123.600000000001
 20
7566.907777930208
 30
0.0
 11
9123.600000000001
 21
8352.66740447229
 31
0.0
  0
LINE
  5
20F77
330
20AFC
100
AcDbEntity
  8
寸法
 62
     0
 48
50.0
370
    -2
100
AcDbLine
 10
9000.6
 20
7493.907777930208
 30
0.0
 11
9000.6
 21
8352.66740447229
 31
0.0
  0
LINE
  5
20F78
330
20AFC
100
AcDbEntity
  8
寸法
 62
     0
 48
50.0
370
    -2
100
AcDbLine
 10
9000.6
 20
8292.667404472291
 30
0.0
 11
9123.600000000001
 21
8292.667404472291
 31
0.0
  0
LINE
  5
20F79
330
20AFC
100
AcDbEntity
  8
寸法
 62
     0
 48
50.0
370
    -2
100
AcDbLine
 10
9123.600000000001
 20
8292.667404472291
 30
0.0
 11
9535.191883092037
 21
8292.667404472291
 31
0.0
  0
INSERT
  5
20F7A
330
20AFC
100
AcDbEntity
  8
寸法
 62
     0
 48
50.0
370
    -2
100
AcDbBlockReference
  2
_DOTSMALL
 10
9000.6
 20
8292.667404472291
 30
0.0
 41
100.0
 42
100.0
 43
100.0
 50
180.0
  0
INSERT
  5
20F7B
330
20AFC
100
AcDbEntity
  8
寸法
 62
     0
 48
50.0
370
    -2
100
AcDbBlockReference
  2
_DOTSMALL
 10
9123.600000000001
 20
8292.667404472291
 30
0.0
 41
100.0
 42
100.0
 43
100.0
  0
MTEXT
  5
20F7C
330
20AFC
100
AcDbEntity
  8
寸法
 62
     7
 48
50.0
100
AcDbMText
 10
9396.706601717799
 20
8392.679215495913
 30
0.0
 40
120.0
 41
0.0
 71
     5
 72
     1
  1
\A1;123
  7
STYLE1
 73
     1
 44
1.0
1001
ACAD
1000
MTEXTBEGIN
1070
    73
1070
     1
1070
    44
1040
1.0
1070
    74
1070
     0
1000
MTEXTEND
  0
POINT
  5
20F7D
330
20AFC
100
AcDbEntity
  8
DEFPOINTS
 62
     0
 48
50.0
100
AcDbPoint
 10
9123.600000000001
 20
7546.907777930208
 30
0.0
  0
POINT
  5
20F7E
330
20AFC
100
AcDbEntity
  8
DEFPOINTS
 62
     0
 48
50.0
100
AcDbPoint
 10
9000.6
 20
7473.907777930207
 30
0.0
  0
POINT
  5
20F7F
330
20AFC
100
AcDbEntity
  8
DEFPOINTS
 62
     0
 48
50.0
100
AcDbPoint
 10
9000.6
 20
8292.667404472291
 30
0.0
  0
ENDBLK
  5
20B08
330
20AFC
100
AcDbEntity
  8
0
 48
50.0
100
AcDbBlockEnd
  0
BLOCK
  5
20B1F
330
20B16
100
AcDbEntity
  8
0
 48
50.0
100
AcDbBlockBegin
  2
*D34
 70
     1
 10
0.0
 20
0.0
 30
0.0
  3
*D34
  1

  0
LINE
  5
20F63
330
20B16
100
AcDbEntity
  8
寸法
 62
     0
 48
50.0
370
    -2
100
AcDbLine
 10
8103.6
 20
6856.907777930209
 30
0.0
 11
6676.810413635459
 21
6856.907777930209
 31
0.0
  0
LINE
  5
20F64
330
20B16
100
AcDbEntity
  8
寸法
 62
     0
 48
50.0
370
    -2
100
AcDbLine
 10
7303.6
 20
7546.907777930208
 30
0.0
 11
6676.810413635459
 21
7546.907777930208
 31
0.0
  0
LINE
  5
20F65
330
20B16
100
AcDbEntity
  8
寸法
 62
     0
 48
50.0
370
    -2
100
AcDbLine
 10
6736.81041363546
 20
6856.907777930209
 30
0.0
 11
6736.81041363546
 21
7546.907777930208
 31
0.0
  0
INSERT
  5
20F66
330
20B16
100
AcDbEntity
  8
寸法
 62
     0
 48
50.0
370
    -2
100
AcDbBlockReference
  2
_DOTSMALL
 10
6736.81041363546
 20
6856.907777930209
 30
0.0
 41
100.0
 42
100.0
 43
100.0
 50
270.0
  0
INSERT
  5
20F67
330
20B16
100
AcDbEntity
  8
寸法
 62
     0
 48
50.0
370
    -2
100
AcDbBlockReference
  2
_DOTSMALL
 10
6736.81041363546
 20
7546.907777930208
 30
0.0
 41
100.0
 42
100.0
 43
100.0
 50
90.0
  0
MTEXT
  5
20F68
330
20B16
100
AcDbEntity
  8
寸法
 62
     7
 48
50.0
100
AcDbMText
 10
6636.810413635457
 20
7201.907777930209
 30
0.0
 40
120.0
 41
0.0
 71
     5
 72
     1
  1
\A1;690
  7
STYLE1
 11
0.0000000000000001
 21
1.0
 31
0.0
 73
     1
 44
1.0
1001
ACAD
1000
MTEXTBEGIN
1070
    73
1070
     1
1070
    44
1040
1.0
1070
    74
1070
     0
1000
MTEXTEND
  0
POINT
  5
20F69
330
20B16
100
AcDbEntity
  8
DEFPOINTS
 62
     0
 48
50.0
100
AcDbPoint
 10
8123.600000000001
 20
6856.907777930209
 30
0.0
  0
POINT
  5
20F6A
330
20B16
100
AcDbEntity
  8
DEFPOINTS
 62
     0
 48
50.0
100
AcDbPoint
 10
7323.6
 20
7546.907777930208
 30
0.0
  0
POINT
  5
20F6B
330
20B16
100
AcDbEntity
  8
DEFPOINTS
 62
     0
 48
50.0
100
AcDbPoint
 10
6736.81041363546
 20
7546.907777930208
 30
0.0
  0
ENDBLK
  5
20B20
330
20B16
100
AcDbEntity
  8
0
 48
50.0
100
AcDbBlockEnd
  0
BLOCK
  5
20B38
330
20B2E
100
AcDbEntity
  8
0
 48
50.0
100
AcDbBlockBegin
  2
*D35
 70
     1
 10
0.0
 20
0.0
 30
0.0
  3
*D35
  1

  0
LINE
  5
20F50
330
20B2E
100
AcDbEntity
  8
寸法
 62
     0
 48
50.0
370
    -2
100
AcDbLine
 10
7303.599999999999
 20
6166.907777930216
 30
0.0
 11
6676.810413635461
 21
6166.907777930216
 31
0.0
  0
LINE
  5
20F51
330
20B2E
100
AcDbEntity
  8
寸法
 62
     0
 48
50.0
370
    -2
100
AcDbLine
 10
8103.6
 20
6856.907777930209
 30
0.0
 11
6676.810413635461
 21
6856.907777930209
 31
0.0
  0
LINE
  5
20F52
330
20B2E
100
AcDbEntity
  8
寸法
 62
     0
 48
50.0
370
    -2
100
AcDbLine
 10
6736.810413635462
 20
6166.907777930216
 30
0.0
 11
6736.810413635462
 21
6856.907777930209
 31
0.0
  0
INSERT
  5
20F53
330
20B2E
100
AcDbEntity
  8
寸法
 62
     0
 48
50.0
370
    -2
100
AcDbBlockReference
  2
_DOTSMALL
 10
6736.810413635462
 20
6166.907777930216
 30
0.0
 41
100.0
 42
100.0
 43
100.0
 50
270.0
  0
INSERT
  5
20F54
330
20B2E
100
AcDbEntity
  8
寸法
 62
     0
 48
50.0
370
    -2
100
AcDbBlockReference
  2
_DOTSMALL
 10
6736.810413635462
 20
6856.907777930209
 30
0.0
 41
100.0
 42
100.0
 43
100.0
 50
90.0
  0
MTEXT
  5
20F55
330
20B2E
100
AcDbEntity
  8
寸法
 62
     7
 48
50.0
100
AcDbMText
 10
6636.81041363546
 20
6620.996691563343
 30
0.0
 40
120.0
 41
0.0
 71
     5
 72
     1
  1
\A1;690
  7
STYLE1
 11
0.0000000000000001
 21
1.0
 31
0.0
 73
     1
 44
1.0
1001
ACAD
1000
MTEXTBEGIN
1070
    73
1070
     1
1070
    44
1040
1.0
1070
    74
1070
     0
1000
MTEXTEND
  0
POINT
  5
20F56
330
20B2E
100
AcDbEntity
  8
DEFPOINTS
 62
     0
 48
50.0
100
AcDbPoint
 10
7323.599999999998
 20
6166.907777930216
 30
0.0
  0
POINT
  5
20F57
330
20B2E
100
AcDbEntity
  8
DEFPOINTS
 62
     0
 48
50.0
100
AcDbPoint
 10
8123.600000000001
 20
6856.907777930209
 30
0.0
  0
POINT
  5
20F58
330
20B2E
100
AcDbEntity
  8
DEFPOINTS
 62
     0
 48
50.0
100
AcDbPoint
 10
6736.810413635462
 20
6856.907777930209
 30
0.0
  0
ENDBLK
  5
20B39
330
20B2E
100
AcDbEntity
  8
0
 48
50.0
100
AcDbBlockEnd
  0
BLOCK
  5
212E1
330
212D6
100
AcDbEntity
  8
0
 48
50.0
100
AcDbBlockBegin
  2
*D36
 70
     1
 10
0.0
 20
0.0
 30
0.0
  3
*D36
  1

  0
LINE
  5
22835
330
212D6
100
AcDbEntity
  8
寸法
 62
     0
 48
50.0
370
    -2
100
AcDbLine
 10
9003.600000000004
 20
7296.907777930207
 30
0.0
 11
9003.600000000004
 21
7086.106208443711
 31
0.0
  0
LINE
  5
22836
330
212D6
100
AcDbEntity
  8
寸法
 62
     0
 48
50.0
370
    -2
100
AcDbLine
 10
8893.600000000001
 20
7296.907777930207
 30
0.0
 11
8893.600000000001
 21
7086.106208443711
 31
0.0
  0
LINE
  5
22837
330
212D6
100
AcDbEntity
  8
寸法
 62
     0
 48
50.0
370
    -2
100
AcDbLine
 10
9003.600000000004
 20
7146.10620844371
 30
0.0
 11
8893.600000000001
 21
7146.10620844371
 31
0.0
  0
LINE
  5
22838
330
212D6
100
AcDbEntity
  8
寸法
 62
     0
 48
50.0
370
    -2
100
AcDbLine
 10
8893.600000000001
 20
7146.10620844371
 30
0.0
 11
8498.796146023543
 21
7146.10620844371
 31
0.0
  0
INSERT
  5
22839
330
212D6
100
AcDbEntity
  8
寸法
 62
     0
 48
50.0
370
    -2
100
AcDbBlockReference
  2
_DOTSMALL
 10
9003.600000000004
 20
7146.10620844371
 30
0.0
 41
100.0
 42
100.0
 43
100.0
  0
INSERT
  5
2283A
330
212D6
100
AcDbEntity
  8
寸法
 62
     0
 48
50.0
370
    -2
100
AcDbBlockReference
  2
_DOTSMALL
 10
8893.600000000001
 20
7146.10620844371
 30
0.0
 41
100.0
 42
100.0
 43
100.0
 50
180.0
  0
MTEXT
  5
2283B
330
212D6
100
AcDbEntity
  8
寸法
 62
     7
 48
50.0
100
AcDbMText
 10
8622.843390118033
 20
7246.10620844371
 30
0.0
 40
120.0
 41
0.0
 71
     5
 72
     1
  1
\A1;110
  7
STYLE1
 73
     1
 44
1.0
1001
ACAD
1000
MTEXTBEGIN
1070
    73
1070
     1
1070
    44
1040
1.0
1070
    74
1070
     0
1000
MTEXTEND
  0
POINT
  5
2283C
330
212D6
100
AcDbEntity
  8
DEFPOINTS
 62
     0
 48
50.0
100
AcDbPoint
 10
9003.600000000004
 20
7316.907777930206
 30
0.0
  0
POINT
  5
2283D
330
212D6
100
AcDbEntity
  8
DEFPOINTS
 62
     0
 48
50.0
100
AcDbPoint
 10
8893.600000000001
 20
7316.907777930206
 30
0.0
  0
POINT
  5
2283E
330
212D6
100
AcDbEntity
  8
DEFPOINTS
 62
     0
 48
50.0
100
AcDbPoint
 10
8893.600000000001
 20
7146.10620844371
 30
0.0
  0
ENDBLK
  5
212E2
330
212D6
100
AcDbEntity
  8
0
 48
50.0
100
AcDbBlockEnd
  0
BLOCK
  5
21306
330
212FB
100
AcDbEntity
  8
0
 48
50.0
100
AcDbBlockBegin
  2
*D37
 70
     1
 10
0.0
 20
0.0
 30
0.0
  3
*D37
  1

  0
LINE
  5
2282B
330
212FB
100
AcDbEntity
  8
寸法
 62
     0
 48
50.0
370
    -2
100
AcDbLine
 10
9003.6
 20
7296.907777930207
 30
0.0
 11
9003.6
 21
7086.106208443711
 31
0.0
  0
LINE
  5
2282C
330
212FB
100
AcDbEntity
  8
寸法
 62
     0
 48
50.0
370
    -2
100
AcDbLine
 10
9123.600000000001
 20
7271.907777930204
 30
0.0
 11
9123.600000000001
 21
7086.106208443711
 31
0.0
  0
LINE
  5
2282D
330
212FB
100
AcDbEntity
  8
寸法
 62
     0
 48
50.0
370
    -2
100
AcDbLine
 10
9003.6
 20
7146.10620844371
 30
0.0
 11
9123.600000000001
 21
7146.10620844371
 31
0.0
  0
LINE
  5
2282E
330
212FB
100
AcDbEntity
  8
寸法
 62
     0
 48
50.0
370
    -2
100
AcDbLine
 10
9123.600000000001
 20
7146.10620844371
 30
0.0
 11
9537.730787367372
 21
7146.10620844371
 31
0.0
  0
INSERT
  5
2282F
330
212FB
100
AcDbEntity
  8
寸法
 62
     0
 48
50.0
370
    -2
100
AcDbBlockReference
  2
_DOTSMALL
 10
9003.6
 20
7146.10620844371
 30
0.0
 41
100.0
 42
100.0
 43
100.0
 50
180.0
  0
INSERT
  5
22830
330
212FB
100
AcDbEntity
  8
寸法
 62
     0
 48
50.0
370
    -2
100
AcDbBlockReference
  2
_DOTSMALL
 10
9123.600000000001
 20
7146.10620844371
 30
0.0
 41
100.0
 42
100.0
 43
100.0
  0
MTEXT
  5
22831
330
212FB
100
AcDbEntity
  8
寸法
 62
     7
 48
50.0
100
AcDbMText
 10
9401.683543272884
 20
7246.118019467333
 30
0.0
 40
120.0
 41
0.0
 71
     5
 72
     1
  1
\A1;120
  7
STYLE1
 73
     1
 44
1.0
1001
ACAD
1000
MTEXTBEGIN
1070
    73
1070
     1
1070
    44
1040
1.0
1070
    74
1070
     0
1000
MTEXTEND
  0
POINT
  5
22832
330
212FB
100
AcDbEntity
  8
DEFPOINTS
 62
     0
 48
50.0
100
AcDbPoint
 10
9003.6
 20
7316.907777930206
 30
0.0
  0
POINT
  5
22833
330
212FB
100
AcDbEntity
  8
DEFPOINTS
 62
     0
 48
50.0
100
AcDbPoint
 10
9123.600000000001
 20
7291.907777930204
 30
0.0
  0
POINT
  5
22834
330
212FB
100
AcDbEntity
  8
DEFPOINTS
 62
     0
 48
50.0
100
AcDbPoint
 10
9123.600000000001
 20
7146.10620844371
 30
0.0
  0
ENDBLK
  5
21307
330
212FB
100
AcDbEntity
  8
0
 48
50.0
100
AcDbBlockEnd
  0
BLOCK
  5
22168
330
2215D
100
AcDbEntity
  8
0
 48
50.0
100
AcDbBlockBegin
  2
*D38
 70
     1
 10
0.0
 20
0.0
 30
0.0
  3
*D38
  1

  0
LINE
  5
22849
330
2215D
100
AcDbEntity
  8
寸法
 62
     0
 48
50.0
370
    -2
100
AcDbLine
 10
7573.600000000036
 20
6091.907777930223
 30
0.0
 11
7842.938460046301
 21
6091.907777930223
 31
0.0
  0
LINE
  5
2284A
330
2215D
100
AcDbEntity
  8
寸法
 62
     0
 48
50.0
370
    -2
100
AcDbLine
 10
7573.600000000036
 20
6286.907777930196
 30
0.0
 11
7842.938460046302
 21
6286.907777930196
 31
0.0
  0
LINE
  5
2284B
330
2215D
100
AcDbEntity
  8
寸法
 62
     0
 48
50.0
370
    -2
100
AcDbLine
 10
7782.938460046302
 20
6286.907777930196
 30
0.0
 11
7782.938460046302
 21
6091.907777930223
 31
0.0
  0
LINE
  5
2284C
330
2215D
100
AcDbEntity
  8
寸法
 62
     0
 48
50.0
370
    -2
100
AcDbLine
 10
7782.938460046302
 20
6091.907777930223
 30
0.0
 11
7782.938460046302
 21
5714.517895522432
 31
0.0
  0
INSERT
  5
2284D
330
2215D
100
AcDbEntity
  8
寸法
 62
     0
 48
50.0
370
    -2
100
AcDbBlockReference
  2
_DOTSMALL
 10
7782.938460046302
 20
6286.907777930196
 30
0.0
 41
100.0
 42
100.0
 43
100.0
 50
90.0
  0
INSERT
  5
2284E
330
2215D
100
AcDbEntity
  8
寸法
 62
     0
 48
50.0
370
    -2
100
AcDbBlockReference
  2
_DOTSMALL
 10
7782.938460046302
 20
6091.907777930223
 30
0.0
 41
100.0
 42
100.0
 43
100.0
 50
270.0
  0
MTEXT
  5
2284F
330
2215D
100
AcDbEntity
  8
寸法
 62
     7
 48
50.0
100
AcDbMText
 10
7682.9384600463
 20
5853.212836726328
 30
0.0
 40
120.0
 41
0.0
 71
     5
 72
     1
  1
\A1;195
  7
STYLE1
 11
0.0000000000000001
 21
1.0
 31
0.0
 73
     1
 44
1.0
1001
ACAD
1000
MTEXTBEGIN
1070
    73
1070
     1
1070
    44
1040
1.0
1070
    74
1070
     0
1000
MTEXTEND
  0
POINT
  5
22850
330
2215D
100
AcDbEntity
  8
DEFPOINTS
 62
     0
 48
50.0
100
AcDbPoint
 10
7553.600000000035
 20
6091.907777930223
 30
0.0
  0
POINT
  5
22851
330
2215D
100
AcDbEntity
  8
DEFPOINTS
 62
     0
 48
50.0
100
AcDbPoint
 10
7553.600000000035
 20
6286.907777930196
 30
0.0
  0
POINT
  5
22852
330
2215D
100
AcDbEntity
  8
DEFPOINTS
 62
     0
 48
50.0
100
AcDbPoint
 10
7782.938460046302
 20
6286.907777930196
 30
0.0
  0
ENDBLK
  5
22169
330
2215D
100
AcDbEntity
  8
0
 48
50.0
100
AcDbBlockEnd
  0
BLOCK
  5
22175
330
2216A
100
AcDbEntity
  8
0
 48
50.0
100
AcDbBlockBegin
  2
*D39
 70
     1
 10
0.0
 20
0.0
 30
0.0
  3
*D39
  1

  0
LINE
  5
2283F
330
2216A
100
AcDbEntity
  8
寸法
 62
     0
 48
50.0
370
    -2
100
AcDbLine
 10
7573.600000000034
 20
6286.907777930212
 30
0.0
 11
7842.938460046302
 21
6286.907777930212
 31
0.0
  0
LINE
  5
22840
330
2216A
100
AcDbEntity
  8
寸法
 62
     0
 48
50.0
370
    -2
100
AcDbLine
 10
7573.600000000038
 20
6396.907777930223
 30
0.0
 11
7842.938460046302
 21
6396.907777930223
 31
0.0
  0
LINE
  5
22841
330
2216A
100
AcDbEntity
  8
寸法
 62
     0
 48
50.0
370
    -2
100
AcDbLine
 10
7782.938460046302
 20
6286.907777930212
 30
0.0
 11
7782.938460046302
 21
6396.907777930223
 31
0.0
  0
LINE
  5
22842
330
2216A
100
AcDbEntity
  8
寸法
 62
     0
 48
50.0
370
    -2
100
AcDbLine
 10
7782.938460046302
 20
6396.907777930223
 30
0.0
 11
7782.938460046302
 21
6757.002266119198
 31
0.0
  0
INSERT
  5
22843
330
2216A
100
AcDbEntity
  8
寸法
 62
     0
 48
50.0
370
    -2
100
AcDbBlockReference
  2
_DOTSMALL
 10
7782.938460046302
 20
6286.907777930212
 30
0.0
 41
100.0
 42
100.0
 43
100.0
 50
270.0
  0
INSERT
  5
22844
330
2216A
100
AcDbEntity
  8
寸法
 62
     0
 48
50.0
370
    -2
100
AcDbBlockReference
  2
_DOTSMALL
 10
7782.938460046302
 20
6396.907777930223
 30
0.0
 41
100.0
 42
100.0
 43
100.0
 50
90.0
  0
MTEXT
  5
22845
330
2216A
100
AcDbEntity
  8
寸法
 62
     7
 48
50.0
100
AcDbMText
 10
7682.9384600463
 20
6632.955022024711
 30
0.0
 40
120.0
 41
0.0
 71
     5
 72
     1
  1
\A1;110
  7
STYLE1
 11
0.0000000000000001
 21
1.0
 31
0.0
 73
     1
 44
1.0
1001
ACAD
1000
MTEXTBEGIN
1070
    73
1070
     1
1070
    44
1040
1.0
1070
    74
1070
     0
1000
MTEXTEND
  0
POINT
  5
22846
330
2216A
100
AcDbEntity
  8
DEFPOINTS
 62
     0
 48
50.0
100
AcDbPoint
 10
7553.600000000034
 20
6286.907777930212
 30
0.0
  0
POINT
  5
22847
330
2216A
100
AcDbEntity
  8
DEFPOINTS
 62
     0
 48
50.0
100
AcDbPoint
 10
7553.600000000038
 20
6396.907777930223
 30
0.0
  0
POINT
  5
22848
330
2216A
100
AcDbEntity
  8
DEFPOINTS
 62
     0
 48
50.0
100
AcDbPoint
 10
7782.938460046302
 20
6396.907777930223
 30
0.0
  0
ENDBLK
  5
22176
330
2216A
100
AcDbEntity
  8
0
 48
50.0
100
AcDbBlockEnd
  0
BLOCK
  5
22181
330
22177
100
AcDbEntity
  8
0
 48
50.0
100
AcDbBlockBegin
  2
*D40
 70
     1
 10
0.0
 20
0.0
 30
0.0
  3
*D40
  1

  0
LINE
  5
22381
330
22177
100
AcDbEntity
  8
寸法
 62
     0
 48
50.0
370
    -2
100
AcDbLine
 10
9123.600000000001
 20
6071.907777930229
 30
0.0
 11
9123.600000000001
 21
5317.043474506097
 31
0.0
  0
LINE
  5
22382
330
22177
100
AcDbEntity
  8
寸法
 62
     0
 48
50.0
370
    -2
100
AcDbLine
 10
7323.600000000036
 20
6071.907777930208
 30
0.0
 11
7323.600000000036
 21
5317.043474506097
 31
0.0
  0
LINE
  5
22383
330
22177
100
AcDbEntity
  8
寸法
 62
     0
 48
50.0
370
    -2
100
AcDbLine
 10
9123.600000000001
 20
5377.043474506097
 30
0.0
 11
7323.600000000036
 21
5377.043474506097
 31
0.0
  0
INSERT
  5
22384
330
22177
100
AcDbEntity
  8
寸法
 62
     0
 48
50.0
370
    -2
100
AcDbBlockReference
  2
_DOTSMALL
 10
9123.600000000001
 20
5377.043474506097
 30
0.0
 41
100.0
 42
100.0
 43
100.0
  0
INSERT
  5
22385
330
22177
100
AcDbEntity
  8
寸法
 62
     0
 48
50.0
370
    -2
100
AcDbBlockReference
  2
_DOTSMALL
 10
7323.600000000036
 20
5377.043474506097
 30
0.0
 41
100.0
 42
100.0
 43
100.0
 50
180.0
  0
MTEXT
  5
22386
330
22177
100
AcDbEntity
  8
寸法
 62
     7
 48
50.0
100
AcDbMText
 10
8223.600000000018
 20
5477.043474506097
 30
0.0
 40
120.0
 41
0.0
 71
     5
 72
     1
  1
\A1;扉の幅 1800
  7
STYLE1
 73
     1
 44
1.0
1001
ACAD
1000
MTEXTBEGIN
1070
    73
1070
     1
1070
    44
1040
1.0
1070
    74
1070
     0
1000
MTEXTEND
  0
POINT
  5
22387
330
22177
100
AcDbEntity
  8
DEFPOINTS
 62
     0
 48
50.0
100
AcDbPoint
 10
9123.600000000001
 20
6091.90777793023
 30
0.0
  0
POINT
  5
22388
330
22177
100
AcDbEntity
  8
DEFPOINTS
 62
     0
 48
50.0
100
AcDbPoint
 10
7323.600000000036
 20
6091.907777930208
 30
0.0
  0
POINT
  5
22389
330
22177
100
AcDbEntity
  8
DEFPOINTS
 62
     0
 48
50.0
100
AcDbPoint
 10
7323.600000000036
 20
5377.043474506097
 30
0.0
  0
ENDBLK
  5
22182
330
22177
100
AcDbEntity
  8
0
 48
50.0
100
AcDbBlockEnd
  0
BLOCK
  5
22E6A
330
22E60
100
AcDbEntity
  8
0
 48
50.0
100
AcDbBlockBegin
  2
*D41
 70
     1
 10
0.0
 20
0.0
 30
0.0
  3
*D41
  1

  0
LINE
  5
22EAD
330
22E60
100
AcDbEntity
  8
寸法
 62
     0
 48
50.0
370
    -2
100
AcDbLine
 10
8198.848684805481
 20
2007.418795876614
 30
0.0
 11
8740.717284574323
 21
2007.418795876614
 31
0.0
  0
LINE
  5
22EAE
330
22E60
100
AcDbEntity
  8
寸法
 62
     0
 48
50.0
370
    -2
100
AcDbLine
 10
8198.848684805481
 20
1683.418795876613
 30
0.0
 11
8740.717284574323
 21
1683.418795876613
 31
0.0
  0
LINE
  5
22EAF
330
22E60
100
AcDbEntity
  8
寸法
 62
     0
 48
50.0
370
    -2
100
AcDbLine
 10
8680.717284574322
 20
2007.418795876614
 30
0.0
 11
8680.717284574322
 21
1683.418795876613
 31
0.0
  0
INSERT
  5
22EB0
330
22E60
100
AcDbEntity
  8
寸法
 62
     0
 48
50.0
370
    -2
100
AcDbBlockReference
  2
_DOTSMALL
 10
8680.717284574322
 20
2007.418795876614
 30
0.0
 41
100.0
 42
100.0
 43
100.0
 50
90.0
  0
INSERT
  5
22EB1
330
22E60
100
AcDbEntity
  8
寸法
 62
     0
 48
50.0
370
    -2
100
AcDbBlockReference
  2
_DOTSMALL
 10
8680.717284574322
 20
1683.418795876613
 30
0.0
 41
100.0
 42
100.0
 43
100.0
 50
270.0
  0
MTEXT
  5
22EB2
330
22E60
100
AcDbEntity
  8
寸法
 62
     7
 48
50.0
100
AcDbMText
 10
8580.717284574323
 20
1845.418795876615
 30
0.0
 40
120.0
 41
0.0
 71
     5
 72
     1
  1
\A1;180
  7
STYLE1
 11
0.0000000000000001
 21
1.0
 31
0.0
 73
     1
 44
1.0
1001
ACAD
1000
MTEXTBEGIN
1070
    73
1070
     1
1070
    44
1040
1.0
1070
    74
1070
     0
1000
MTEXTEND
  0
POINT
  5
22EB3
330
22E60
100
AcDbEntity
  8
DEFPOINTS
 62
     0
 48
50.0
100
AcDbPoint
 10
8178.84868480548
 20
2007.418795876614
 30
0.0
  0
POINT
  5
22EB4
330
22E60
100
AcDbEntity
  8
DEFPOINTS
 62
     0
 48
50.0
100
AcDbPoint
 10
8178.84868480548
 20
1683.418795876613
 30
0.0
  0
POINT
  5
22EB5
330
22E60
100
AcDbEntity
  8
DEFPOINTS
 62
     0
 48
50.0
100
AcDbPoint
 10
8680.717284574322
 20
1683.418795876613
 30
0.0
  0
ENDBLK
  5
22E6B
330
22E60
100
AcDbEntity
  8
0
 48
50.0
100
AcDbBlockEnd
  0
BLOCK
  5
22E7B
330
22E6C
100
AcDbEntity
  8
0
 48
50.0
100
AcDbBlockBegin
  2
*D42
 70
     1
 10
0.0
 20
0.0
 30
0.0
  3
*D42
  1

  0
LINE
  5
22EB6
330
22E6C
100
AcDbEntity
  8
寸法
 62
     0
 48
50.0
370
    -2
100
AcDbLine
 10
8011.64868480548
 20
2060.178795876615
 30
0.0
 11
8740.717284574323
 21
2060.178795876615
 31
0.0
  0
LINE
  5
22EB7
330
22E6C
100
AcDbEntity
  8
寸法
 62
     0
 48
50.0
370
    -2
100
AcDbLine
 10
8198.848684805481
 20
2007.418795876614
 30
0.0
 11
8740.717284574323
 21
2007.418795876614
 31
0.0
  0
LINE
  5
22EB8
330
22E6C
100
AcDbEntity
  8
寸法
 62
     0
 48
50.0
370
    -2
100
AcDbLine
 10
8680.717284574322
 20
2060.178795876615
 30
0.0
 11
8680.717284574322
 21
2160.178795876615
 31
0.0
  0
LINE
  5
22EB9
330
22E6C
100
AcDbEntity
  8
寸法
 62
     0
 48
50.0
370
    -2
100
AcDbLine
 10
8680.717284574322
 20
2007.418795876614
 30
0.0
 11
8680.717284574322
 21
1907.418795876614
 31
0.0
  0
LINE
  5
22EBA
330
22E6C
100
AcDbEntity
  8
寸法
 62
     0
 48
50.0
370
    -2
100
AcDbLine
 10
8680.717284574322
 20
2033.798795876615
 30
0.0
 11
8956.771950693349
 21
2022.294838272401
 31
0.0
  0
LINE
  5
22EBB
330
22E6C
100
AcDbEntity
  8
寸法
 62
     0
 48
50.0
370
    -2
100
AcDbLine
 10
8956.771950693349
 20
2022.294838272401
 30
0.0
 11
8956.771950693349
 21
1490.277031429435
 31
0.0
  0
MTEXT
  5
22EBC
330
22E6C
100
AcDbEntity
  8
寸法
 62
     7
 48
50.0
100
AcDbMText
 10
8856.760139669729
 20
1756.28593485092
 30
0.0
 40
120.0
 41
0.0
 71
     5
 72
     1
  1
\A1;20～25
  7
STYLE1
 11
0.0000000000000001
 21
1.0
 31
0.0
 73
     1
 44
1.0
1001
ACAD
1000
MTEXTBEGIN
1070
    73
1070
     1
1070
    44
1040
1.0
1070
    74
1070
     0
1000
MTEXTEND
  0
LINE
  5
22EBD
330
22E6C
100
AcDbEntity
  8
寸法
 62
     0
 48
50.0
370
    -2
100
AcDbLine
 10
8680.717284574322
 20
2060.178795876615
 30
0.0
 11
8680.717284574322
 21
2007.418795876614
 31
0.0
  0
LINE
  5
22EBE
330
22E6C
100
AcDbEntity
  8
寸法
 62
     0
 48
50.0
370
    -2
100
AcDbLine
 10
8680.717284574322
 20
2060.178795876615
 30
0.0
 11
8680.717284574322
 21
2007.418795876614
 31
0.0
  0
INSERT
  5
22EBF
330
22E6C
100
AcDbEntity
  8
寸法
 62
     0
 48
50.0
370
    -2
100
AcDbBlockReference
  2
_DOTSMALL
 10
8680.717284574322
 20
2060.178795876615
 30
0.0
 41
100.0
 42
100.0
 43
100.0
 50
270.0
  0
INSERT
  5
22EC0
330
22E6C
100
AcDbEntity
  8
寸法
 62
     0
 48
50.0
370
    -2
100
AcDbBlockReference
  2
_DOTSMALL
 10
8680.717284574322
 20
2007.418795876614
 30
0.0
 41
100.0
 42
100.0
 43
100.0
 50
90.0
  0
POINT
  5
22EC1
330
22E6C
100
AcDbEntity
  8
DEFPOINTS
 62
     0
 48
50.0
100
AcDbPoint
 10
7991.648684805482
 20
2060.178795876615
 30
0.0
  0
POINT
  5
22EC2
330
22E6C
100
AcDbEntity
  8
DEFPOINTS
 62
     0
 48
50.0
100
AcDbPoint
 10
8178.84868480548
 20
2007.418795876614
 30
0.0
  0
POINT
  5
22EC3
330
22E6C
100
AcDbEntity
  8
DEFPOINTS
 62
     0
 48
50.0
100
AcDbPoint
 10
8680.717284574322
 20
2007.418795876614
 30
0.0
  0
ENDBLK
  5
22E7C
330
22E6C
100
AcDbEntity
  8
0
 48
50.0
100
AcDbBlockEnd
  0
BLOCK
  5
22E87
330
22E7D
100
AcDbEntity
  8
0
 48
50.0
100
AcDbBlockBegin
  2
*D43
 70
     1
 10
0.0
 20
0.0
 30
0.0
  3
*D43
  1

  0
LINE
  5
22EC4
330
22E7D
100
AcDbEntity
  8
寸法
 62
     0
 48
50.0
370
    -2
100
AcDbLine
 10
5916.809371628286
 20
1463.418795876614
 30
0.0
 11
5734.389057895826
 21
1463.418795876614
 31
0.0
  0
LINE
  5
22EC5
330
22E7D
100
AcDbEntity
  8
寸法
 62
     0
 48
50.0
370
    -2
100
AcDbLine
 10
5836.809371628289
 20
1223.418795876614
 30
0.0
 11
5734.389057895826
 21
1223.418795876614
 31
0.0
  0
LINE
  5
22EC6
330
22E7D
100
AcDbEntity
  8
寸法
 62
     0
 48
50.0
370
    -2
100
AcDbLine
 10
5794.389057895826
 20
1463.418795876614
 30
0.0
 11
5794.389057895826
 21
1223.418795876614
 31
0.0
  0
MTEXT
  5
22EC7
330
22E7D
100
AcDbEntity
  8
寸法
 62
     7
 48
50.0
100
AcDbMText
 10
5694.389057895826
 20
1343.418795876614
 30
0.0
 40
120.0
 41
0.0
 71
     5
 72
     1
  1
\A1;150
  7
STYLE1
 11
0.0000000000000001
 21
1.0
 31
0.0
 73
     1
 44
1.0
1001
ACAD
1000
MTEXTBEGIN
1070
    73
1070
     1
1070
    44
1040
1.0
1070
    74
1070
     0
1000
MTEXTEND
  0
INSERT
  5
22EC8
330
22E7D
100
AcDbEntity
  8
寸法
 62
     0
 48
50.0
370
    -2
100
AcDbBlockReference
  2
_DOTSMALL
 10
5794.389057895826
 20
1463.418795876614
 30
0.0
 41
100.0
 42
100.0
 43
100.0
 50
90.0
  0
INSERT
  5
22EC9
330
22E7D
100
AcDbEntity
  8
寸法
 62
     0
 48
50.0
370
    -2
100
AcDbBlockReference
  2
_DOTSMALL
 10
5794.389057895826
 20
1223.418795876614
 30
0.0
 41
100.0
 42
100.0
 43
100.0
 50
270.0
  0
POINT
  5
22ECA
330
22E7D
100
AcDbEntity
  8
DEFPOINTS
 62
     0
 48
50.0
100
AcDbPoint
 10
5936.809371628285
 20
1463.418795876614
 30
0.0
  0
POINT
  5
22ECB
330
22E7D
100
AcDbEntity
  8
DEFPOINTS
 62
     0
 48
50.0
100
AcDbPoint
 10
5856.80937162829
 20
1223.418795876614
 30
0.0
  0
POINT
  5
22ECC
330
22E7D
100
AcDbEntity
  8
DEFPOINTS
 62
     0
 48
50.0
100
AcDbPoint
 10
5794.389057895826
 20
1223.418795876614
 30
0.0
  0
ENDBLK
  5
22E88
330
22E7D
100
AcDbEntity
  8
0
 48
50.0
100
AcDbBlockEnd
  0
BLOCK
  5
22E93
330
22E89
100
AcDbEntity
  8
0
 48
50.0
100
AcDbBlockBegin
  2
*D44
 70
     1
 10
0.0
 20
0.0
 30
0.0
  3
*D44
  1

  0
LINE
  5
22ECD
330
22E89
100
AcDbEntity
  8
寸法
 62
     0
 48
50.0
370
    -2
100
AcDbLine
 10
6044.809371628286
 20
2007.418795876614
 30
0.0
 11
5269.772133066545
 21
2007.418795876615
 31
0.0
  0
LINE
  5
22ECE
330
22E89
100
AcDbEntity
  8
寸法
 62
     0
 48
50.0
370
    -2
100
AcDbLine
 10
5836.809371628289
 20
1223.418795876614
 30
0.0
 11
5269.772133066545
 21
1223.418795876614
 31
0.0
  0
LINE
  5
22ECF
330
22E89
100
AcDbEntity
  8
寸法
 62
     0
 48
50.0
370
    -2
100
AcDbLine
 10
5329.772133066544
 20
2007.418795876615
 30
0.0
 11
5329.772133066544
 21
1223.418795876614
 31
0.0
  0
MTEXT
  5
22ED0
330
22E89
100
AcDbEntity
  8
寸法
 62
     7
 48
50.0
100
AcDbMText
 10
5229.772133066545
 20
1594.958945532615
 30
0.0
 40
120.0
 41
0.0
 71
     5
 72
     1
  1
\A1;540
  7
STYLE1
 11
0.0000000000000001
 21
1.0
 31
0.0
 73
     1
 44
1.0
1001
ACAD
1000
MTEXTBEGIN
1070
    73
1070
     1
1070
    44
1040
1.0
1070
    74
1070
     0
1000
MTEXTEND
  0
INSERT
  5
22ED1
330
22E89
100
AcDbEntity
  8
寸法
 62
     0
 48
50.0
370
    -2
100
AcDbBlockReference
  2
_DOTSMALL
 10
5329.772133066544
 20
2007.418795876615
 30
0.0
 41
100.0
 42
100.0
 43
100.0
 50
90.0
  0
INSERT
  5
22ED2
330
22E89
100
AcDbEntity
  8
寸法
 62
     0
 48
50.0
370
    -2
100
AcDbBlockReference
  2
_DOTSMALL
 10
5329.772133066544
 20
1223.418795876614
 30
0.0
 41
100.0
 42
100.0
 43
100.0
 50
270.0
  0
POINT
  5
22ED3
330
22E89
100
AcDbEntity
  8
DEFPOINTS
 62
     0
 48
50.0
100
AcDbPoint
 10
6064.809371628285
 20
2007.418795876614
 30
0.0
  0
POINT
  5
22ED4
330
22E89
100
AcDbEntity
  8
DEFPOINTS
 62
     0
 48
50.0
100
AcDbPoint
 10
5856.80937162829
 20
1223.418795876614
 30
0.0
  0
POINT
  5
22ED5
330
22E89
100
AcDbEntity
  8
DEFPOINTS
 62
     0
 48
50.0
100
AcDbPoint
 10
5329.772133066544
 20
1223.418795876614
 30
0.0
  0
ENDBLK
  5
22E94
330
22E89
100
AcDbEntity
  8
0
 48
50.0
100
AcDbBlockEnd
  0
BLOCK
  5
22E9F
330
22E95
100
AcDbEntity
  8
0
 48
50.0
100
AcDbBlockBegin
  2
*D45
 70
     1
 10
0.0
 20
0.0
 30
0.0
  3
*D45
  1

  0
LINE
  5
22ED6
330
22E95
100
AcDbEntity
  8
寸法
 62
     0
 48
50.0
370
    -2
100
AcDbLine
 10
5936.809371628285
 20
1075.418795876614
 30
0.0
 11
5936.809371628285
 21
624.9891578714541
 31
0.0
  0
LINE
  5
22ED7
330
22E95
100
AcDbEntity
  8
寸法
 62
     0
 48
50.0
370
    -2
100
AcDbLine
 10
6384.809371628286
 20
1075.418795876614
 30
0.0
 11
6384.809371628286
 21
624.9891578714541
 31
0.0
  0
LINE
  5
22ED8
330
22E95
100
AcDbEntity
  8
寸法
 62
     0
 48
50.0
370
    -2
100
AcDbLine
 10
5936.809371628285
 20
684.9891578714541
 30
0.0
 11
6384.809371628286
 21
684.9891578714541
 31
0.0
  0
MTEXT
  5
22ED9
330
22E95
100
AcDbEntity
  8
寸法
 62
     7
 48
50.0
100
AcDbMText
 10
6140.712612950062
 20
784.9891578714541
 30
0.0
 40
120.0
 41
0.0
 71
     5
 72
     1
  1
\A1;300
  7
STYLE1
 73
     1
 44
1.0
1001
ACAD
1000
MTEXTBEGIN
1070
    73
1070
     1
1070
    44
1040
1.0
1070
    74
1070
     0
1000
MTEXTEND
  0
INSERT
  5
22EDA
330
22E95
100
AcDbEntity
  8
寸法
 62
     0
 48
50.0
370
    -2
100
AcDbBlockReference
  2
_DOTSMALL
 10
5936.809371628285
 20
684.9891578714541
 30
0.0
 41
100.0
 42
100.0
 43
100.0
 50
180.0
  0
INSERT
  5
22EDB
330
22E95
100
AcDbEntity
  8
寸法
 62
     0
 48
50.0
370
    -2
100
AcDbBlockReference
  2
_DOTSMALL
 10
6384.809371628286
 20
684.9891578714541
 30
0.0
 41
100.0
 42
100.0
 43
100.0
  0
POINT
  5
22EDC
330
22E95
100
AcDbEntity
  8
DEFPOINTS
 62
     0
 48
50.0
100
AcDbPoint
 10
5936.809371628285
 20
1095.418795876614
 30
0.0
  0
POINT
  5
22EDD
330
22E95
100
AcDbEntity
  8
DEFPOINTS
 62
     0
 48
50.0
100
AcDbPoint
 10
6384.809371628286
 20
1095.418795876614
 30
0.0
  0
POINT
  5
22EDE
330
22E95
100
AcDbEntity
  8
DEFPOINTS
 62
     0
 48
50.0
100
AcDbPoint
 10
6384.809371628286
 20
684.9891578714541
 30
0.0
  0
ENDBLK
  5
22EA0
330
22E95
100
AcDbEntity
  8
0
 48
50.0
100
AcDbBlockEnd
  0
BLOCK
  5
22EAB
330
22EA1
100
AcDbEntity
  8
0
 48
50.0
100
AcDbBlockBegin
  2
*D46
 70
     1
 10
0.0
 20
0.0
 30
0.0
  3
*D46
  1

  0
LINE
  5
22EDF
330
22EA1
100
AcDbEntity
  8
寸法
 62
     0
 48
50.0
370
    -2
100
AcDbLine
 10
6256.809371628285
 20
2027.418795876614
 30
0.0
 11
6256.809371628285
 21
2387.418795876614
 31
0.0
  0
LINE
  5
22EE0
330
22EA1
100
AcDbEntity
  8
寸法
 62
     0
 48
50.0
370
    -2
100
AcDbLine
 10
6064.809371628285
 20
2027.418795876614
 30
0.0
 11
6064.809371628285
 21
2387.418795876614
 31
0.0
  0
LINE
  5
22EE1
330
22EA1
100
AcDbEntity
  8
寸法
 62
     0
 48
50.0
370
    -2
100
AcDbLine
 10
6256.809371628285
 20
2327.418795876614
 30
0.0
 11
6064.809371628285
 21
2327.418795876614
 31
0.0
  0
MTEXT
  5
22EE2
330
22EA1
100
AcDbEntity
  8
寸法
 62
     7
 48
50.0
100
AcDbMText
 10
6172.035701973483
 20
2627.098414816617
 30
0.0
 40
120.0
 41
0.0
 71
     5
 72
     1
  1
\A1;120\P195
  7
STYLE1
 73
     1
 44
1.0
1001
ACAD
1000
MTEXTBEGIN
1070
    73
1070
     1
1070
    44
1040
1.0
1070
    74
1070
     0
1000
MTEXTEND
  0
INSERT
  5
22EE3
330
22EA1
100
AcDbEntity
  8
寸法
 62
     0
 48
50.0
370
    -2
100
AcDbBlockReference
  2
_DOTSMALL
 10
6256.809371628285
 20
2327.418795876614
 30
0.0
 41
100.0
 42
100.0
 43
100.0
  0
INSERT
  5
22EE4
330
22EA1
100
AcDbEntity
  8
寸法
 62
     0
 48
50.0
370
    -2
100
AcDbBlockReference
  2
_DOTSMALL
 10
6064.809371628285
 20
2327.418795876614
 30
0.0
 41
100.0
 42
100.0
 43
100.0
 50
180.0
  0
POINT
  5
22EE5
330
22EA1
100
AcDbEntity
  8
DEFPOINTS
 62
     0
 48
50.0
100
AcDbPoint
 10
6256.809371628285
 20
2007.418795876614
 30
0.0
  0
POINT
  5
22EE6
330
22EA1
100
AcDbEntity
  8
DEFPOINTS
 62
     0
 48
50.0
100
AcDbPoint
 10
6064.809371628285
 20
2007.418795876614
 30
0.0
  0
POINT
  5
22EE7
330
22EA1
100
AcDbEntity
  8
DEFPOINTS
 62
     0
 48
50.0
100
AcDbPoint
 10
6064.809371628285
 20
2327.418795876614
 30
0.0
  0
ENDBLK
  5
22EAC
330
22EA1
100
AcDbEntity
  8
0
 48
50.0
100
AcDbBlockEnd
  0
ENDSEC
  0
SECTION
  2
ENTITIES
  0
MTEXT
  5
763F
330
747D
100
AcDbEntity
  8
0
100
AcDbMText
 10
302.846345836809
 20
280.1983726409901
 30
0.0
 40
3.5
 41
5.323721266742722
 71
     1
 72
     5
  1

  7
MSMINCHO
 73
     1
 44
1.0
1001
ACAD
1000
MTEXTBEGIN
1070
    73
1070
     1
1070
    44
1040
1.0
1070
    74
1070
     0
1000
MTEXTEND
  0
LINE
  5
10B57
330
747D
100
AcDbEntity
  8
補助
  6
PHANTOM
 62
   230
 48
50.0
100
AcDbLine
 10
139.9999999999995
 20
11409.6
 30
0.0
 11
16307.2
 21
11409.6
 31
0.0
  0
LINE
  5
10B59
330
747D
100
AcDbEntity
  8
仕様書枠
  6
Continuous
 48
50.0
100
AcDbLine
 10
13107.2
 20
1200.0
 30
0.0
 11
13107.2
 21
-0.0000000000000729
 31
0.0
  0
LINE
  5
10B5D
330
747D
100
AcDbEntity
  8
仕様書枠
 48
50.0
100
AcDbLine
 10
140.0
 20
0.0
 30
0.0
 11
16307.2
 21
-0.0000000000000909
 31
0.0
  0
LINE
  5
10B5E
330
747D
100
AcDbEntity
  8
補助
  6
PHANTOM
 62
   230
 48
50.0
100
AcDbLine
 10
16307.2
 20
11409.6
 30
0.0
 11
16307.2
 21
1200.0
 31
0.0
  0
LINE
  5
10B6C
330
747D
100
AcDbEntity
  8
仕様書枠
 48
50.0
100
AcDbLine
 10
13107.2
 20
1200.0
 30
0.0
 11
16307.2
 21
1200.0
 31
0.0
  0
TEXT
  5
10B73
330
747D
100
AcDbEntity
  8
文字
 62
     7
 48
50.0
100
AcDbText
 10
13162.9790565769
 20
895.0906074299405
 30
0.0
 40
200.0
  1
基 礎 図
  7
STYLE2
100
AcDbText
  0
LINE
  5
10B7B
330
747D
100
AcDbEntity
  8
仕様書枠
 48
50.0
100
AcDbLine
 10
13107.2
 20
800.0
 30
0.0
 11
14251.2
 21
800.0
 31
0.0
  0
LINE
  5
10B88
330
747D
100
AcDbEntity
  8
仕様書枠
  6
Continuous
 48
50.0
100
AcDbLine
 10
14251.2
 20
1200.0
 30
0.0
 11
14251.2
 21
800.0
 31
0.0
  0
LINE
  5
16462
330
747D
100
AcDbEntity
  8
仕様書枠
 48
50.0
100
AcDbLine
 10
16307.2
 20
1200.0
 30
0.0
 11
16307.2
 21
-0.0000000000000909
 31
0.0
  0
LINE
  5
1903B
330
747D
100
AcDbEntity
  8
補助
  6
PHANTOM
 62
   230
 48
50.0
100
AcDbLine
 10
140.0
 20
0.0
 30
0.0
 11
139.9999999999995
 21
11409.6
 31
0.0
  0
TEXT
  5
1C7A1
330
747D
100
AcDbEntity
  8
文字
 62
     7
 48
50.0
100
AcDbText
 10
13188.16259899338
 20
79.80631269190417
 30
0.0
 40
80.0
  1
※布基礎には換気口を設けてください。
  7
STYLE2
100
AcDbText
  0
TEXT
  5
1C7E7
330
747D
100
AcDbEntity
  8
文字
 62
     7
 48
50.0
100
AcDbText
 10
13188.16259899338
 20
246.7109242801889
 30
0.0
 40
80.0
  1
※寒冷地等は地域の実情に合わせた基礎にして下さい。
  7
STYLE2
100
AcDbText
  0
TEXT
  5
1C7E8
330
747D
100
AcDbEntity
  8
文字
 62
     7
 48
50.0
100
AcDbText
 10
14253.2908547029
 20
499.5983841039506
 30
0.0
 40
160.0
  1
ＮＸＮ－２５ＳＡ/ＨＡ
  7
STYLE2
100
AcDbText
  0
TEXT
  5
1C7E9
330
747D
100
AcDbEntity
  8
文字
 62
     7
 48
50.0
100
AcDbText
 10
14641.2525855784
 20
871.1744590657927
 30
0.0
 40
100.0
  1
～一般型・多雪地型～
  7
STYLE2
100
AcDbText
  0
TEXT
  5
1C7EC
330
747D
100
AcDbEntity
  8
文字
 62
     7
 48
50.0
100
AcDbText
 10
14524.131837222
 20
1031.557706291229
 30
0.0
 40
100.0
  1
     <縮尺> S=1/40
  7
STYLE2
100
AcDbText
  0
TEXT
  5
1C7ED
330
747D
100
AcDbEntity
  8
文字
 62
     7
 48
50.0
100
AcDbText
 10
13201.43669998441
 20
477.2740661031257
 30
0.0
 40
160.0
  1
機種名
  7
STYLE2
100
AcDbText
  0
LINE
  5
1C7EF
330
747D
100
AcDbEntity
  8
文字
 62
     7
 48
50.0
100
AcDbLine
 10
13187.2
 20
400.0
 30
0.0
 11
16227.2
 21
400.0
 31
0.0
  0
LINE
  5
209C6
102
{ACAD_REACTORS
330
2280F
102
}
330
747D
100
AcDbEntity
  8
部品1
 48
50.0
100
AcDbLine
 10
9123.600000000001
 20
6091.907777930227
 30
0.0
 11
7323.6
 21
6091.907777930208
 31
0.0
  0
MTEXT
  5
209C7
330
747D
100
AcDbEntity
  8
部品1
 62
     7
 48
50.0
100
AcDbMText
 10
8020.256561917818
 20
6626.307068355791
 30
0.0
 40
120.0
 41
0.0
 71
     6
 72
     1
  1
CB
  7
STYLE1
 73
     1
 44
1.0
1001
ACAD
1000
MTEXTBEGIN
1070
    73
1070
     1
1070
    44
1040
1.0
1070
    74
1070
     0
1000
MTEXTEND
  0
DIMENSION
  5
209C9
330
747D
100
AcDbEntity
  8
寸法
 48
50.0
100
AcDbDimension
  2
*D19
 10
7323.6
 20
8073.817543578536
 30
0.0
 11
7773.6
 21
8173.817543578536
 31
0.0
 70
    32
 71
     5
 42
900.0
  3
INABA_S40G
100
AcDbAlignedDimension
 13
8223.600000000001
 23
6956.907777930208
 33
0.0
 14
7323.6
 24
7546.907777930208
 34
0.0
100
AcDbRotatedDimension
1001
ACAD
1000
DSTYLE
1002
{
1070
   174
1070
     0
1070
   272
1070
     1
1070
   341
1005
0
1002
}
  0
LINE
  5
209CC
330
747D
100
AcDbEntity
  8
部品1
 48
50.0
100
AcDbLine
 10
7931.201798938049
 20
7546.907777930204
 30
0.0
 11
7323.6
 21
7546.907777930208
 31
0.0
  0
LINE
  5
209CF
102
{ACAD_REACTORS
330
227D9
102
}
330
747D
100
AcDbEntity
  8
部品1
 48
50.0
100
AcDbLine
 10
9123.600000000001
 20
7546.907777930208
 30
0.0
 11
7323.6
 21
7546.907777930208
 31
0.0
  0
DIMENSION
  5
209D2
330
747D
100
AcDbEntity
  8
寸法
 48
50.0
100
AcDbDimension
  2
*D20
 10
9123.600000000001
 20
8505.128099989127
 30
0.0
 11
8223.600000000001
 21
8605.128099989128
 31
0.0
 70
    32
 71
     5
 42
1800.0
  3
INABA_S40G
100
AcDbAlignedDimension
 13
7323.6
 23
7546.907777930208
 33
0.0
 14
9123.600000000001
 24
7546.907777930208
 34
0.0
100
AcDbRotatedDimension
1001
ACAD
1000
DSTYLE
1002
{
1070
   174
1070
     0
1070
   272
1070
     1
1070
   341
1005
0
1002
}
  0
DIMENSION
  5
209D3
330
747D
100
AcDbEntity
  8
寸法
 48
50.0
100
AcDbDimension
  2
*D21
 10
7446.6
 20
8292.667404472291
 30
0.0
 11
8223.600000000001
 21
8392.667404472291
 31
0.0
 70
    32
 71
     5
 42
1554.0
  3
INABA_S40G
100
AcDbAlignedDimension
 13
9000.6
 23
7473.907777930207
 33
0.0
 14
7446.6
 24
7473.907777930207
 34
0.0
100
AcDbRotatedDimension
1001
ACAD
1000
DSTYLE
1002
{
1070
   174
1070
     0
1070
   272
1070
     1
1070
   341
1005
0
1002
}
  0
DIMENSION
  5
209D4
330
747D
100
AcDbEntity
  8
寸法
 48
50.0
100
AcDbDimension
  2
*D22
 10
7323.6
 20
8505.12809998913
 30
0.0
 11
7007.425378797541
 21
8505.12809998913
 31
0.0
 70
   160
  1
a
 71
     5
 42
50.0
  3
INABA_S40G
100
AcDbAlignedDimension
 13
7273.6
 23
8292.667404472288
 33
0.0
 14
7323.6
 24
7546.907777930208
 34
0.0
100
AcDbRotatedDimension
1001
ACAD
1000
DSTYLE
1002
{
1070
   174
1070
     0
1070
   272
1070
     1
1070
   341
1005
0
1002
}
  0
DIMENSION
  5
209D5
330
747D
100
AcDbEntity
  8
寸法
 48
50.0
100
AcDbDimension
  2
*D23
 10
7323.6
 20
8292.667404472291
 30
0.0
 11
7050.493398282203
 21
8292.667404472291
 31
0.0
 70
   160
 71
     5
 42
123.0
  3
INABA_S40G
100
AcDbAlignedDimension
 13
7446.6
 23
7473.907777930207
 33
0.0
 14
7323.6
 24
7546.907777930208
 34
0.0
100
AcDbRotatedDimension
1001
ACAD
1000
DSTYLE
1002
{
1070
   174
1070
     0
1070
   272
1070
     1
1070
   341
1005
0
1002
}
  0
DIMENSION
  5
209D6
330
747D
100
AcDbEntity
  8
寸法
 48
50.0
100
AcDbDimension
  2
*D24
 10
6976.957711176872
 20
6166.907777930208
 30
0.0
 11
6976.957711176871
 21
5558.42249655597
 31
0.0
 70
   160
  1
扉の出<>
 71
     5
 42
74.99999999998363
  3
INABA_S40G
100
AcDbAlignedDimension
 13
7323.6
 23
6091.907777930224
 33
0.0
 14
7323.6
 24
6166.907777930208
 34
0.0
 50
90.0
100
AcDbRotatedDimension
1001
ACAD
1000
DSTYLE
1002
{
1070
   174
1070
     0
1070
   272
1070
     1
1070
   341
1005
0
1002
}
  0
DIMENSION
  5
209D7
330
747D
100
AcDbEntity
  8
寸法
 48
50.0
100
AcDbDimension
  2
*D25
 10
6478.398261399369
 20
6166.907777930208
 30
0.0
 11
6478.398261399367
 21
5893.801176212409
 31
0.0
 70
   160
 71
     5
 42
123.0000000000018
  3
INABA_S40G
100
AcDbAlignedDimension
 13
7396.600000000008
 23
6289.90777793021
 33
0.0
 14
7323.6
 24
6166.907777930208
 34
0.0
 50
90.0
100
AcDbRotatedDimension
1001
ACAD
1000
DSTYLE
1002
{
1070
   174
1070
     0
1070
   272
1070
     1
1070
   341
1005
0
1002
}
  0
LINE
  5
209DB
102
{ACAD_REACTORS
330
227F4
102
}
330
747D
100
AcDbEntity
  8
部品1
 48
50.0
100
AcDbLine
 10
7323.6
 20
6166.907777930208
 30
0.0
 11
7323.6
 21
7546.907777930208
 31
0.0
  0
DIMENSION
  5
209DD
330
747D
100
AcDbEntity
  8
寸法
 48
50.0
100
AcDbDimension
  2
*D26
 10
6232.905459261399
 20
7546.907777930208
 30
0.0
 11
6132.905459261397
 21
6856.90777793021
 31
0.0
 70
    32
 71
     5
 42
1380.0
  3
INABA_S40G
100
AcDbAlignedDimension
 13
7323.6
 23
6166.907777930208
 33
0.0
 14
7323.6
 24
7546.907777930208
 34
0.0
 50
90.0
100
AcDbRotatedDimension
1001
ACAD
1000
DSTYLE
1002
{
1070
   174
1070
     0
1070
   272
1070
     1
1070
   341
1005
0
1002
}
  0
DIMENSION
  5
209DE
330
747D
100
AcDbEntity
  8
寸法
 48
50.0
100
AcDbDimension
  2
*D27
 10
6478.398261399367
 20
6289.90777793021
 30
0.0
 11
6378.398261399365
 21
6856.90777793021
 31
0.0
 70
    32
 71
     5
 42
1133.999999999998
  3
INABA_S40G
100
AcDbAlignedDimension
 13
7396.600000000001
 23
7423.907777930208
 33
0.0
 14
7396.600000000008
 24
6289.90777793021
 34
0.0
 50
90.0
100
AcDbRotatedDimension
1001
ACAD
1000
DSTYLE
1002
{
1070
   174
1070
     0
1070
   272
1070
     1
1070
   341
1005
0
1002
}
  0
DIMENSION
  5
209DF
330
747D
100
AcDbEntity
  8
寸法
 48
50.0
100
AcDbDimension
  2
*D28
 10
6232.905459261401
 20
6166.907777930208
 30
0.0
 11
6232.905459261399
 21
6129.40777793021
 31
0.0
 70
   160
  1
c
 71
     5
 42
75.0
  3
INABA_S40G
100
AcDbAlignedDimension
 13
6478.398261399369
 23
6091.907777930208
 33
0.0
 14
7323.6
 24
6166.907777930208
 34
0.0
 50
90.0
100
AcDbRotatedDimension
1001
ACAD
1000
DSTYLE
1002
{
1070
   174
1070
     0
1070
   272
1070
     1
1070
   341
1005
0
1002
}
  0
LINE
  5
209E0
330
747D
100
AcDbEntity
  8
部品1
 48
50.0
100
AcDbLine
 10
7553.6
 20
6286.907777930212
 30
0.0
 11
7553.6
 21
6396.907777930212
 31
0.0
  0
LINE
  5
209E3
330
747D
100
AcDbEntity
  8
部品1
 48
50.0
100
AcDbLine
 10
7323.6
 20
6091.907777930224
 30
0.0
 11
7323.6
 21
6166.907777930208
 31
0.0
  0
CIRCLE
  5
209E4
330
747D
100
AcDbEntity
  8
部品1
 48
50.0
100
AcDbCircle
 10
7446.600000000008
 20
6289.90777793021
 30
0.0
 40
35.0
  0
LINE
  5
209E5
330
747D
100
AcDbEntity
  8
センター
 48
2.0
100
AcDbLine
 10
7396.600000000008
 20
6289.90777793021
 30
0.0
 11
7496.600000000007
 21
6289.90777793021
 31
0.0
  0
LINE
  5
209E6
330
747D
100
AcDbEntity
  8
センター
 48
2.0
100
AcDbLine
 10
7446.600000000008
 20
6339.90777793021
 30
0.0
 11
7446.600000000008
 21
6239.907777930209
 31
0.0
  0
LINE
  5
209E7
102
{ACAD_REACTORS
330
227F4
102
}
330
747D
100
AcDbEntity
  8
部品1
 48
50.0
100
AcDbLine
 10
7443.6
 20
6756.907777930218
 30
0.0
 11
7323.6
 21
6756.907777930218
 31
0.0
  0
LINE
  5
209E8
330
747D
100
AcDbEntity
  8
部品1
 48
50.0
100
AcDbLine
 10
7553.6
 20
6396.907777930212
 30
0.0
 11
7443.6
 21
6396.907777930209
 31
0.0
  0
DIMENSION
  5
209E9
330
747D
100
AcDbEntity
  8
寸法
 48
50.0
100
AcDbDimension
  2
*D29
 10
6478.398261399367
 20
7423.907777930208
 30
0.0
 11
6478.398261399367
 21
7860.014379648006
 31
0.0
 70
   160
 71
     5
 42
123.0
  3
INABA_S40G
100
AcDbAlignedDimension
 13
7323.6
 23
7546.907777930208
 33
0.0
 14
7396.600000000001
 24
7423.907777930208
 34
0.0
 50
90.0
100
AcDbRotatedDimension
1001
ACAD
1000
DSTYLE
1002
{
1070
   174
1070
     0
1070
   272
1070
     1
1070
   341
1005
0
1002
}
  0
DIMENSION
  5
209EA
330
747D
100
AcDbEntity
  8
寸法
 48
50.0
100
AcDbDimension
  2
*D30
 10
6232.905459261402
 20
7601.907777930207
 30
0.0
 11
6232.905459261401
 21
7574.40777793021
 31
0.0
 70
   160
  1
b
 71
     5
 42
55.0
  3
INABA_S40G
100
AcDbAlignedDimension
 13
7323.6
 23
7546.907777930208
 33
0.0
 14
6478.398261399367
 24
7601.907777930207
 34
0.0
 50
90.0
100
AcDbRotatedDimension
1001
ACAD
1000
DSTYLE
1002
{
1070
   174
1070
     0
1070
   272
1070
     1
1070
   341
1005
0
1002
}
  0
LINE
  5
209EB
102
{ACAD_REACTORS
330
227F4
102
}
330
747D
100
AcDbEntity
  8
部品1
 48
50.0
100
AcDbLine
 10
7443.6
 20
6956.907777930218
 30
0.0
 11
7323.6
 21
6956.907777930218
 31
0.0
  0
LINE
  5
209EC
330
747D
100
AcDbEntity
  8
部品1
 48
50.0
100
AcDbLine
 10
7553.599999999999
 20
7316.907777930204
 30
0.0
 11
7553.6
 21
7426.907777930207
 31
0.0
  0
LINE
  5
209ED
330
747D
100
AcDbEntity
  8
部品1
 48
50.0
100
AcDbLine
 10
7553.599999999999
 20
7316.907777930204
 30
0.0
 11
7443.600000000002
 21
7316.907777930208
 31
0.0
  0
CIRCLE
  5
209EE
330
747D
100
AcDbEntity
  8
部品1
 48
50.0
100
AcDbCircle
 10
7446.6
 20
7423.907777930208
 30
0.0
 40
35.0
  0
LINE
  5
209EF
330
747D
100
AcDbEntity
  8
センター
 48
2.0
100
AcDbLine
 10
7446.6
 20
7473.907777930207
 30
0.0
 11
7446.6
 21
7373.907777930208
 31
0.0
  0
LINE
  5
209F0
330
747D
100
AcDbEntity
  8
センター
 48
2.0
100
AcDbLine
 10
7396.600000000001
 20
7423.907777930208
 30
0.0
 11
7496.6
 21
7423.907777930208
 31
0.0
  0
DIMENSION
  5
209F1
330
747D
100
AcDbEntity
  8
寸法
 48
50.0
100
AcDbDimension
  2
*D31
 10
8223.600000000001
 20
8073.817543578536
 30
0.0
 11
8694.51852200628
 21
8073.817543578536
 31
0.0
 70
   160
 71
     5
 42
900.0
  3
INABA_S40G
100
AcDbAlignedDimension
 13
9123.600000000001
 23
7546.907777930208
 33
0.0
 14
8223.600000000001
 24
6956.907777930208
 34
0.0
100
AcDbRotatedDimension
1001
ACAD
1000
DSTYLE
1002
{
1070
   174
1070
     0
1070
   272
1070
     1
1070
   341
1005
0
1002
}
  0
DIMENSION
  5
209F2
330
747D
100
AcDbEntity
  8
寸法
 48
50.0
100
AcDbDimension
  2
*D32
 10
9173.6
 20
8505.12809998913
 30
0.0
 11
9439.77462120246
 21
8505.12809998913
 31
0.0
 70
   160
  1
a
 71
     5
 42
50.0
  3
INABA_S40G
100
AcDbAlignedDimension
 13
9123.600000000001
 23
7546.907777930208
 33
0.0
 14
9173.6
 24
8292.667404472293
 34
0.0
100
AcDbRotatedDimension
1001
ACAD
1000
DSTYLE
1002
{
1070
   174
1070
     0
1070
   272
1070
     1
1070
   341
1005
0
1002
}
  0
DIMENSION
  5
209F3
330
747D
100
AcDbEntity
  8
寸法
 48
50.0
100
AcDbDimension
  2
*D33
 10
9000.6
 20
8292.667404472291
 30
0.0
 11
9396.706601717799
 21
8292.667404472291
 31
0.0
 70
   160
 71
     5
 42
123.0
  3
INABA_S40G
100
AcDbAlignedDimension
 13
9123.600000000001
 23
7546.907777930208
 33
0.0
 14
9000.6
 24
7473.907777930207
 34
0.0
100
AcDbRotatedDimension
1001
ACAD
1000
DSTYLE
1002
{
1070
   174
1070
     0
1070
   272
1070
     1
1070
   341
1005
0
1002
}
  0
DIMENSION
  5
209FE
330
747D
100
AcDbEntity
  8
寸法
 48
50.0
100
AcDbDimension
  2
*D34
 10
6736.81041363546
 20
7546.907777930208
 30
0.0
 11
6636.810413635457
 21
7201.907777930209
 31
0.0
 70
    32
 71
     5
 42
689.9999999999991
  3
INABA_S40G
100
AcDbAlignedDimension
 13
8123.600000000001
 23
6856.907777930209
 33
0.0
 14
7323.6
 24
7546.907777930208
 34
0.0
 50
90.0
100
AcDbRotatedDimension
1001
ACAD
1000
DSTYLE
1002
{
1070
   174
1070
     0
1070
   272
1070
     1
1070
   341
1005
0
1002
}
  0
LINE
  5
209FF
330
747D
100
AcDbEntity
  8
部品1
 48
50.0
100
AcDbLine
 10
8323.6
 20
6756.907777930206
 30
0.0
 11
8323.6
 21
6956.907777930208
 31
0.0
  0
LINE
  5
20A00
330
747D
100
AcDbEntity
  8
部品1
 48
50.0
100
AcDbLine
 10
8123.600000000001
 20
6756.907777930208
 30
0.0
 11
8123.600000000001
 21
6956.907777930208
 31
0.0
  0
LINE
  5
20A02
102
{ACAD_REACTORS
330
2282A
102
}
330
747D
100
AcDbEntity
  8
部品1
 48
50.0
100
AcDbLine
 10
9123.600000000001
 20
6166.907777930227
 30
0.0
 11
9123.600000000001
 21
7546.907777930208
 31
0.0
  0
DIMENSION
  5
20A06
330
747D
100
AcDbEntity
  8
寸法
 48
50.0
100
AcDbDimension
  2
*D35
 10
6736.810413635462
 20
6856.907777930209
 30
0.0
 11
6736.81041363546
 21
6620.996691563343
 31
0.0
 70
   160
 71
     5
 42
689.9999999999927
  3
INABA_S40G
100
AcDbAlignedDimension
 13
7323.599999999998
 23
6166.907777930216
 33
0.0
 14
8123.600000000001
 24
6856.907777930209
 34
0.0
 50
90.0
100
AcDbRotatedDimension
1001
ACAD
1000
DSTYLE
1002
{
1070
   174
1070
     0
1070
   272
1070
     1
1070
   341
1005
0
1002
}
  0
LINE
  5
20A0A
102
{ACAD_REACTORS
330
2280F
102
}
330
747D
100
AcDbEntity
  8
部品1
 48
50.0
100
AcDbLine
 10
8123.600000000017
 20
6091.907777930217
 30
0.0
 11
8123.600000000017
 21
6286.907777930218
 31
0.0
  0
LINE
  5
20A0B
102
{ACAD_REACTORS
330
2280F
102
}
330
747D
100
AcDbEntity
  8
部品1
 48
50.0
100
AcDbLine
 10
8323.600000000018
 20
6091.907777930219
 30
0.0
 11
8323.600000000018
 21
6286.907777930219
 31
0.0
  0
LINE
  5
20A0C
330
747D
100
AcDbEntity
  8
センター
 48
2.0
100
AcDbLine
 10
8173.6
 20
6856.907777930207
 30
0.0
 11
8273.6
 21
6856.907777930207
 31
0.0
  0
LINE
  5
20A0D
330
747D
100
AcDbEntity
  8
部品1
 48
50.0
100
AcDbLine
 10
8323.6
 20
6756.907777930206
 30
0.0
 11
8123.600000000001
 21
6756.907777930206
 31
0.0
  0
LINE
  5
20A0E
330
747D
100
AcDbEntity
  8
センター
 48
2.0
100
AcDbLine
 10
8223.600000000001
 20
6906.907777930207
 30
0.0
 11
8223.600000000001
 21
6806.907777930208
 31
0.0
  0
LINE
  5
20A0F
330
747D
100
AcDbEntity
  8
部品1
 48
50.0
100
AcDbLine
 10
8893.600000000001
 20
6286.907777930225
 30
0.0
 11
8893.600000000001
 21
6396.907777930226
 31
0.0
  0
CIRCLE
  5
20A10
330
747D
100
AcDbEntity
  8
部品1
 48
50.0
100
AcDbCircle
 10
9000.600000000007
 20
6289.90777793021
 30
0.0
 40
35.0
  0
LINE
  5
20A11
330
747D
100
AcDbEntity
  8
センター
 48
2.0
100
AcDbLine
 10
8950.600000000006
 20
6289.90777793021
 30
0.0
 11
9050.600000000008
 21
6289.90777793021
 31
0.0
  0
LINE
  5
20A12
330
747D
100
AcDbEntity
  8
部品1
 48
50.0
100
AcDbLine
 10
9123.600000000001
 20
6091.90777793023
 30
0.0
 11
9123.600000000001
 21
6166.907777930227
 31
0.0
  0
LINE
  5
20A13
330
747D
100
AcDbEntity
  8
センター
 48
2.0
100
AcDbLine
 10
9000.600000000007
 20
6339.90777793021
 30
0.0
 11
9000.600000000007
 21
6239.907777930209
 31
0.0
  0
LINE
  5
20A14
330
747D
100
AcDbEntity
  8
部品1
 48
50.0
100
AcDbLine
 10
9003.600000000004
 20
6396.907777930226
 30
0.0
 11
8893.600000000001
 21
6396.907777930226
 31
0.0
  0
LINE
  5
20A15
102
{ACAD_REACTORS
330
2282A
102
}
330
747D
100
AcDbEntity
  8
部品1
 48
50.0
100
AcDbLine
 10
9123.600000000001
 20
6756.907777930218
 30
0.0
 11
9003.600000000004
 21
6756.907777930218
 31
0.0
  0
LINE
  5
20A16
102
{ACAD_REACTORS
330
227D9
102
}
330
747D
100
AcDbEntity
  8
部品1
 48
50.0
100
AcDbLine
 10
8323.6
 20
7426.907777930207
 30
0.0
 11
8323.6
 21
7546.907777930208
 31
0.0
  0
LINE
  5
20A17
102
{ACAD_REACTORS
330
227D9
102
}
330
747D
100
AcDbEntity
  8
部品1
 48
50.0
100
AcDbLine
 10
8123.600000000001
 20
7426.907777930208
 30
0.0
 11
8123.600000000001
 21
7546.907777930208
 31
0.0
  0
LINE
  5
20A19
330
747D
100
AcDbEntity
  8
部品1
 48
50.0
100
AcDbLine
 10
8323.6
 20
6956.907777930208
 30
0.0
 11
8123.600000000001
 21
6956.907777930208
 31
0.0
  0
LINE
  5
20A1A
330
747D
100
AcDbEntity
  8
部品1
 48
50.0
100
AcDbLine
 10
9003.600000000004
 20
7316.907777930211
 30
0.0
 11
8893.600000000001
 21
7316.907777930206
 31
0.0
  0
CIRCLE
  5
20A1B
330
747D
100
AcDbEntity
  8
部品1
 48
50.0
100
AcDbCircle
 10
9000.6
 20
7423.907777930208
 30
0.0
 40
35.0
  0
LINE
  5
20A1C
330
747D
100
AcDbEntity
  8
センター
 48
2.0
100
AcDbLine
 10
8950.599999999999
 20
7423.907777930208
 30
0.0
 11
9050.600000000001
 21
7423.907777930208
 31
0.0
  0
LINE
  5
20A1D
330
747D
100
AcDbEntity
  8
部品1
 48
50.0
100
AcDbLine
 10
8893.600000000001
 20
7316.907777930206
 30
0.0
 11
8893.600000000001
 21
7426.907777930205
 31
0.0
  0
LINE
  5
20A1E
102
{ACAD_REACTORS
330
2282A
102
}
330
747D
100
AcDbEntity
  8
部品1
 48
50.0
100
AcDbLine
 10
9123.600000000001
 20
6956.907777930218
 30
0.0
 11
9003.600000000004
 21
6956.907777930218
 31
0.0
  0
LINE
  5
20A1F
330
747D
100
AcDbEntity
  8
センター
 48
2.0
100
AcDbLine
 10
9000.6
 20
7473.907777930207
 30
0.0
 11
9000.6
 21
7373.907777930208
 31
0.0
  0
MTEXT
  5
20EC6
102
{ACAD_REACTORS
330
20EC7
102
}
330
747D
100
AcDbEntity
  8
部品1
 62
     7
 48
50.0
100
AcDbMText
 10
10318.99523070989
 20
7797.880272274156
 30
0.0
 40
120.0
 41
0.0
 71
     6
 72
     1
  1
アンカーボルト
  7
STYLE1
 73
     1
 44
1.0
1001
ACAD
1000
MTEXTBEGIN
1070
    73
1070
     1
1070
    44
1040
1.0
1070
    74
1070
     0
1000
MTEXTEND
  0
LEADER
  5
20EC7
330
747D
100
AcDbEntity
  8
寸法
 48
50.0
100
AcDbLeader
  3
INABA_S50G
 73
     0
 74
     0
 75
     1
 40
120.0
 41
994.3492424049171
 76
     3
 10
9000.680085757009
 20
7423.921501126415
 30
0.0
 10
9174.645988304973
 20
7712.880272274157
 30
0.0
 10
9299.645988304973
 20
7712.880272274157
 30
0.0
340
20EC6
1001
ACAD
1000
DSTYLE
1002
{
1070
   341
1005
0
1070
    40
1040
1.0
1070
   343
1005
0
1070
   344
1005
0
1002
}
  0
MTEXT
  5
20EC8
102
{ACAD_REACTORS
330
20EC9
102
}
330
747D
100
AcDbEntity
  8
部品1
 62
     7
 48
50.0
100
AcDbMText
 10
10150.46907400128
 20
6716.651411151049
 30
0.0
 40
120.0
 41
0.0
 71
     6
 72
     1
  1
\A1;床下換気口
  7
STYLE1
 73
     1
 44
1.0
1001
ACAD
1000
MTEXTBEGIN
1070
    73
1070
     1
1070
    44
1040
1.0
1070
    74
1070
     0
1000
MTEXTEND
  0
LEADER
  5
20EC9
330
747D
100
AcDbEntity
  8
寸法
 48
50.0
100
AcDbLeader
  3
INABA_S50G
 73
     0
 74
     0
 75
     1
 40
120.0
 41
720.0000000000001
 76
     3
 10
9123.695499614996
 20
6892.665324718881
 30
0.0
 10
9280.469074001279
 20
6631.651411151048
 30
0.0
 10
9405.469074001279
 20
6631.651411151048
 30
0.0
340
20EC8
1001
ACAD
1000
DSTYLE
1002
{
1070
   341
1005
0
1070
    40
1040
1.0
1070
   343
1005
0
1070
   344
1005
0
1002
}
  0
LINE
  5
20EDD
330
747D
100
AcDbEntity
  8
想像線
 48
10.0
100
AcDbLine
 10
9168.600000000003
 20
7601.907777930207
 30
0.0
 11
9168.600000000006
 21
6091.907777930208
 31
0.0
  0
TEXT
  5
20F08
330
747D
100
AcDbEntity
  8
部品1
 48
50.0
100
AcDbText
 10
9467.430138461166
 20
5935.286749861086
 30
0.0
 40
80.0
  1
(a=45,b=55,c=75)
  7
STYLE1
100
AcDbText
  0
TEXT
  5
20F09
330
747D
100
AcDbEntity
  8
部品1
 48
50.0
100
AcDbText
 10
9308.851129706862
 20
6042.13197072984
 30
0.0
 40
80.0
  1
※a,b,cは屋根の出幅です。
  7
STYLE1
100
AcDbText
  0
MTEXT
  5
20F0A
102
{ACAD_REACTORS
330
20F0B
102
}
330
747D
100
AcDbEntity
  8
部品1
 62
     7
 48
50.0
100
AcDbMText
 10
10106.63832569547
 20
6221.442657662915
 30
0.0
 40
120.0
 41
0.0
 71
     6
 72
     1
  1
\A1;屋根の外寸
  7
STYLE1
 73
     1
 44
1.0
1001
ACAD
1000
MTEXTBEGIN
1070
    73
1070
     1
1070
    44
1040
1.0
1070
    74
1070
     0
1000
MTEXTEND
  0
LEADER
  5
20F0B
330
747D
100
AcDbEntity
  8
寸法
 48
50.0
100
AcDbLeader
  3
INABA_S50G
 73
     0
 74
     0
 75
     1
 40
120.0
 41
672.0
 76
     3
 10
9168.698313503428
 20
6395.332001126491
 30
0.0
 10
9284.638325695469
 20
6136.442657662915
 30
0.0
 10
9409.638325695469
 20
6136.442657662915
 30
0.0
340
20F0A
1001
ACAD
1000
DSTYLE
1002
{
1070
   341
1005
0
1070
    40
1040
1.0
1070
   343
1005
0
1070
   344
1005
0
1002
}
  0
SOLID
  5
20F3F
330
747D
100
AcDbEntity
  8
寸法
 48
50.0
100
AcDbTrace
 10
8135.212193794714
 20
6688.502858706046
 30
0.0
 11
8187.018927127089
 21
6804.153583559831
 31
0.0
 12
8175.520900954447
 22
6677.95206545521
 32
0.0
 13
8175.520900954447
 23
6677.95206545521
 33
0.0
1001
ACAD
1000
DSTYLE
1002
{
1070
   341
1005
0
1070
   343
1005
0
1070
   344
1005
0
1002
}
  0
LWPOLYLINE
  5
20F40
330
747D
100
AcDbEntity
  8
寸法
 48
50.0
100
AcDbPolyline
 90
        3
 70
     0
 43
0.0
 10
8155.366547374581
 20
6683.227462080629
 10
8116.703470867872
 20
6535.517371308081
 10
7852.398513937908
 20
6535.51737130808
1001
ACAD
1000
DSTYLE
1002
{
1070
   341
1005
0
1070
   343
1005
0
1070
   344
1005
0
1002
}
  0
DIMENSION
  5
21223
330
747D
100
AcDbEntity
  8
寸法
 48
50.0
100
AcDbDimension
  2
*D36
 10
8893.600000000001
 20
7146.10620844371
 30
0.0
 11
8622.843390118033
 21
7146.10620844371
 31
0.0
 70
   160
 71
     5
 42
110.0000000000018
  3
INABA_S40G
100
AcDbAlignedDimension
 13
9003.600000000004
 23
7316.907777930206
 33
0.0
 14
8893.600000000001
 24
7316.907777930206
 34
0.0
 50
180.0
100
AcDbRotatedDimension
1001
ACAD
1000
DSTYLE
1002
{
1070
   341
1005
0
1002
}
  0
DIMENSION
  5
2122A
330
747D
100
AcDbEntity
  8
寸法
 48
50.0
100
AcDbDimension
  2
*D37
 10
9123.600000000001
 20
7146.10620844371
 30
0.0
 11
9401.683543272884
 21
7146.10620844371
 31
0.0
 70
   160
 71
     5
 42
120.0000000000018
  3
INABA_S40G
100
AcDbAlignedDimension
 13
9003.6
 23
7316.907777930206
 33
0.0
 14
9123.600000000001
 24
7291.907777930204
 34
0.0
 50
180.0
100
AcDbRotatedDimension
1001
ACAD
1000
DSTYLE
1002
{
1070
   341
1005
0
1002
}
  0
DIMENSION
  5
220FE
330
747D
100
AcDbEntity
  8
寸法
 48
50.0
100
AcDbDimension
  2
*D38
 10
7782.938460046302
 20
6286.907777930196
 30
0.0
 11
7782.9384600463
 21
5853.212836726328
 31
0.0
 70
   160
 71
     5
 42
194.9999999999727
  3
INABA_S40G
100
AcDbAlignedDimension
 13
7553.600000000035
 23
6091.907777930223
 33
0.0
 14
7553.600000000035
 24
6286.907777930196
 34
0.0
 50
270.0
100
AcDbRotatedDimension
1001
ACAD
1000
DSTYLE
1002
{
1070
   341
1005
0
1002
}
  0
DIMENSION
  5
220FF
330
747D
100
AcDbEntity
  8
寸法
 48
50.0
100
AcDbDimension
  2
*D39
 10
7782.938460046302
 20
6396.907777930223
 30
0.0
 11
7782.9384600463
 21
6632.955022024711
 31
0.0
 70
   160
 71
     5
 42
110.0000000000109
  3
INABA_S40G
100
AcDbAlignedDimension
 13
7553.600000000034
 23
6286.907777930212
 33
0.0
 14
7553.600000000038
 24
6396.907777930223
 34
0.0
 50
270.0
100
AcDbRotatedDimension
1001
ACAD
1000
DSTYLE
1002
{
1070
   341
1005
0
1002
}
  0
TEXT
  5
22100
330
747D
100
AcDbEntity
  8
寸法
 62
     7
100
AcDbText
 10
7406.285760402179
 20
4836.475502532014
 30
0.0
 40
120.0
  1
扉の位置に合わせた基礎形状として下さい。
  7
STYLE1
100
AcDbText
  0
LWPOLYLINE
  5
22101
330
747D
100
AcDbEntity
  8
寸法
 48
50.0
100
AcDbPolyline
 90
        3
 70
     0
 43
0.0
 10
-7630.680265711799
 20
6091.907777930221
 10
-7289.669801209424
 20
4985.811317867019
 10
-10103.73421414107
 20
4985.811317867019
210
0.0
220
0.0
230
-1.0
1001
ACAD
1000
DSTYLE
1002
{
1070
   341
1005
0
1070
    40
1040
1.0
1070
   343
1005
0
1070
   344
1005
0
1002
}
  0
SOLID
  5
22102
330
747D
100
AcDbEntity
  8
寸法
 48
50.0
100
AcDbTrace
 10
-7613.77106004181
 20
5966.316749025335
 30
0.0
 11
-7630.680265711799
 21
6091.907777930221
 31
0.0
 12
-7573.952845568332
 22
5978.589519994244
 32
0.0
 13
-7573.952845568332
 23
5978.589519994244
 33
0.0
210
0.0
220
0.0
230
-1.0
1001
ACAD
1000
DSTYLE
1002
{
1070
   341
1005
0
1070
    40
1040
1.0
1070
   343
1005
0
1070
   344
1005
0
1002
}
  0
TEXT
  5
22103
330
747D
100
AcDbEntity
  8
寸法
 62
     7
100
AcDbText
 10
7406.285760402179
 20
5008.079265415339
 30
0.0
 40
120.0
  1
扉位置 (1800x75)
  7
STYLE1
100
AcDbText
  0
DIMENSION
  5
22104
330
747D
100
AcDbEntity
  8
寸法
 48
50.0
100
AcDbDimension
  2
*D40
 10
7323.600000000036
 20
5377.043474506097
 30
0.0
 11
8223.600000000018
 21
5477.043474506097
 31
0.0
 70
    32
  1
扉の幅 <>
 71
     5
 42
1799.999999999964
  3
INABA_S40G
100
AcDbAlignedDimension
 13
9123.600000000001
 23
6091.90777793023
 33
0.0
 14
7323.600000000036
 24
6091.907777930208
 34
0.0
100
AcDbRotatedDimension
1001
ACAD
1000
DSTYLE
1002
{
1070
   341
1005
0
1002
}
  0
LINE
  5
22523
330
747D
100
AcDbEntity
  8
想像線
 48
10.0
100
AcDbLine
 10
8669.13910618831
 20
7601.907777930207
 30
0.0
 11
9168.599999999983
 21
7601.907777930207
 31
0.0
  0
LINE
  5
2278B
330
747D
100
AcDbEntity
  8
想像線
 48
10.0
100
AcDbLine
 10
8669.139106188316
 20
6091.907777930206
 30
0.0
 11
9168.599999999988
 21
6091.907777930206
 31
0.0
  0
LINE
  5
227A0
102
{ACAD_REACTORS
330
227D9
102
}
330
747D
100
AcDbEntity
  8
部品1
 48
50.0
100
AcDbLine
 10
8893.600000000001
 20
7426.907777930207
 30
0.0
 11
7553.6
 21
7426.907777930208
 31
0.0
  0
LINE
  5
227A1
102
{ACAD_REACTORS
330
227F4
102
}
330
747D
100
AcDbEntity
  8
部品1
 48
50.0
100
AcDbLine
 10
7443.6
 20
6396.907777930209
 30
0.0
 11
7443.6
 21
7316.907777930204
 31
0.0
  0
LINE
  5
227A3
102
{ACAD_REACTORS
330
2282A
102
}
330
747D
100
AcDbEntity
  8
部品1
 48
50.0
100
AcDbLine
 10
9003.6
 20
6396.907777930228
 30
0.0
 11
9003.6
 21
7316.907777930208
 31
0.0
  0
LINE
  5
227A4
102
{ACAD_REACTORS
330
2280F
102
}
330
747D
100
AcDbEntity
  8
部品1
 48
50.0
100
AcDbLine
 10
8893.600000000001
 20
6286.907777930224
 30
0.0
 11
7553.6
 21
6286.907777930212
 31
0.0
  0
HATCH
  5
227D9
330
747D
100
AcDbEntity
  8
細線
 48
50.0
100
AcDbHatch
 10
0.0
 20
0.0
 30
0.0
210
0.0
220
0.0
230
1.0
  2
LINE
 70
     0
 71
     1
 91
        1
 92
        7
 72
     0
 73
     1
 93
        4
 10
8323.6
 20
7546.907777930208
 10
8123.600000000001
 20
7546.907777930208
 10
8123.600000000001
 20
7426.907777930207
 10
8323.6
 20
7426.907777930208
 97
        4
330
209CF
330
20A17
330
227A0
330
20A16
 75
     0
 76
     1
 52
45.0
 41
10.0
 77
     0
 78
     1
 53
45.0
 43
0.0
 44
0.0
 45
-22.45064030267288
 46
22.45064030267288
 79
     0
 47
4.844587531759869
 98
        1
 10
8284.668029492801
 20
7482.412385031103
  0
HATCH
  5
227F4
330
747D
100
AcDbEntity
  8
細線
 48
50.0
100
AcDbHatch
 10
0.0
 20
0.0
 30
0.0
210
0.0
220
0.0
230
1.0
  2
LINE
 70
     0
 71
     1
 91
        1
 92
        7
 72
     0
 73
     1
 93
        4
 10
7443.6
 20
6956.907777930218
 10
7323.599999999998
 20
6956.907777930218
 10
7323.6
 20
6756.907777930218
 10
7443.600000000002
 20
6756.907777930218
 97
        4
330
209EB
330
209DB
330
209E7
330
227A1
 75
     0
 76
     1
 52
45.0
 41
10.0
 77
     0
 78
     1
 53
45.0
 43
0.0
 44
0.0
 45
-22.45064030267288
 46
22.45064030267288
 79
     0
 47
4.844587531759869
 98
        1
 10
7378.308189962663
 20
6804.170110465761
  0
HATCH
  5
2280F
330
747D
100
AcDbEntity
  8
細線
 48
50.0
100
AcDbHatch
 10
0.0
 20
0.0
 30
0.0
210
0.0
220
0.0
230
1.0
  2
LINE
 70
     0
 71
     1
 91
        1
 92
        7
 72
     0
 73
     1
 93
        4
 10
8323.600000000018
 20
6286.907777930219
 10
8123.600000000015
 20
6286.907777930216
 10
8123.600000000017
 20
6091.907777930217
 10
8323.600000000018
 20
6091.90777793022
 97
        4
330
227A4
330
20A0A
330
209C6
330
20A0B
 75
     0
 76
     1
 52
45.0
 41
10.0
 77
     0
 78
     1
 53
45.0
 43
0.0
 44
0.0
 45
-22.45064030267288
 46
22.45064030267288
 79
     0
 47
4.844587531759869
 98
        1
 10
8231.352747490797
 20
6159.839981664554
  0
HATCH
  5
2282A
330
747D
100
AcDbEntity
  8
細線
 48
50.0
100
AcDbHatch
 10
0.0
 20
0.0
 30
0.0
210
0.0
220
0.0
230
1.0
  2
LINE
 70
     0
 71
     1
 91
        1
 92
        7
 72
     0
 73
     1
 93
        4
 10
9123.600000000001
 20
6956.907777930218
 10
9003.6
 20
6956.907777930218
 10
9003.6
 20
6756.907777930218
 10
9123.600000000001
 20
6756.907777930218
 97
        4
330
20A1E
330
227A3
330
20A15
330
20A02
 75
     0
 76
     1
 52
45.0
 41
10.0
 77
     0
 78
     1
 53
45.0
 43
0.0
 44
0.0
 45
-22.45064030267288
 46
22.45064030267288
 79
     0
 47
4.844587531759869
 98
        1
 10
9060.163056975078
 20
6886.528112182052
  0
LINE
  5
22D2A
330
747D
100
AcDbEntity
  8
部品1
100
AcDbLine
 10
11065.12611820527
 20
3328.390415653459
 30
0.0
 11
4994.140932819021
 21
3328.390415653459
 31
0.0
  0
LINE
  5
22D2B
330
747D
100
AcDbEntity
  8
部品1
100
AcDbLine
 10
11065.12611820527
 20
3088.390415653457
 30
0.0
 11
4994.140932819025
 21
3088.390415653458
 31
0.0
  0
LINE
  5
22D2C
330
747D
100
AcDbEntity
  8
部品1
100
AcDbLine
 10
4994.140932819027
 20
364.083446068812
 30
0.0
 11
11065.12611820527
 21
364.083446068812
 31
0.0
  0
LEADER
  5
22D2D
330
747D
100
AcDbEntity
  8
寸法
 48
50.0
100
AcDbLeader
  3
INABA_S50G
 73
     0
 74
     0
 75
     1
 40
102.2727272727273
 41
680.0000000000001
 76
     3
 10
8002.248684805479
 20
2406.294076985757
 30
0.0
 10
8036.602655918839
 20
2816.746888092298
 30
0.0
 10
8161.602655918839
 20
2816.746888092298
 30
0.0
340
22D2E
1001
ACAD
1000
DSTYLE
1002
{
1070
   341
1005
0
1070
    40
1040
1.0
1070
   343
1005
0
1070
   344
1005
0
1002
}
  0
MTEXT
  5
22D2E
102
{ACAD_REACTORS
330
22D2D
102
}
330
747D
100
AcDbEntity
  8
部品1
 62
     7
 48
50.0
100
AcDbMText
 10
8186.602655918838
 20
2892.883251728662
 30
0.0
 40
80.0
 41
0.8
 71
     4
 72
     1
  1
\A1;ナット(市販品)
  7
STYLE2
 73
     1
 44
1.0
1001
ACAD
1000
MTEXTBEGIN
1070
    73
1070
     1
1070
    44
1040
1.0
1070
    74
1070
     0
1000
MTEXTEND
  0
LEADER
  5
22D2F
330
747D
100
AcDbEntity
  8
寸法
 48
50.0
100
AcDbLeader
  3
INABA_S50G
 73
     0
 74
     0
 75
     1
 40
102.2727272727273
 41
906.8181818181818
 76
     3
 10
8026.248684805478
 20
2276.542084320894
 30
0.0
 10
8068.120275174319
 20
2631.777805327511
 30
0.0
 10
8193.120275174319
 20
2631.777805327511
 30
0.0
340
22D30
1001
ACAD
1000
DSTYLE
1002
{
1070
   341
1005
0
1070
    40
1040
1.0
1070
   343
1005
0
1070
   344
1005
0
1002
}
  0
MTEXT
  5
22D30
102
{ACAD_REACTORS
330
22D2F
102
}
330
747D
100
AcDbEntity
  8
部品1
 62
     7
 48
50.0
100
AcDbMText
 10
8218.120275174319
 20
2707.914168963875
 30
0.0
 40
80.0
 41
0.8
 71
     4
 72
     1
  1
\A1;ワッシャー(市販品)
  7
STYLE2
 73
     1
 44
1.0
1001
ACAD
1000
MTEXTBEGIN
1070
    73
1070
     1
1070
    44
1040
1.0
1070
    74
1070
     0
1000
MTEXTEND
  0
LWPOLYLINE
  5
22D31
330
747D
100
AcDbEntity
  8
部品1
 48
50.0
100
AcDbPolyline
 90
        2
 70
     0
 43
8.0
 10
8178.84868480548
 20
1767.418795876615
 10
8472.551148204864
 20
1767.418795876615
  0
TEXT
  5
22D32
330
747D
100
AcDbEntity
  8
部品1
 48
50.0
100
AcDbText
 10
8183.202269089909
 20
2363.297476638814
 30
0.0
 40
80.0
  1
基礎ボルト(市販品)
  7
STYLE2
100
AcDbText
  0
DIMENSION
  5
22D33
330
747D
100
AcDbEntity
  8
寸法
 48
50.0
100
AcDbDimension
  2
*D41
 10
8680.717284574322
 20
1683.418795876613
 30
0.0
 11
8580.717284574323
 21
1845.418795876615
 31
0.0
 70
    32
  1
180
 71
     5
 42
324.0000000000009
  3
INABA_S40G
100
AcDbAlignedDimension
 13
8178.84868480548
 23
2007.418795876614
 33
0.0
 14
8178.84868480548
 24
1683.418795876613
 34
0.0
 50
90.0
100
AcDbRotatedDimension
1001
ACAD
1000
DSTYLE
1002
{
1070
   174
1070
     0
1070
   272
1070
     1
1070
   279
1070
     1
1070
   288
1070
     0
1070
   341
1005
0
1002
}
  0
DIMENSION
  5
22D34
330
747D
100
AcDbEntity
  8
寸法
 48
50.0
100
AcDbDimension
  2
*D42
 10
8680.717284574322
 20
2007.418795876614
 30
0.0
 11
8956.771950693349
 21
1982.294838272402
 31
0.0
 70
   160
  1
20～25
 71
     5
 42
52.76000000000113
  3
INABA_S40G
100
AcDbAlignedDimension
 13
7991.648684805482
 23
2060.178795876615
 33
0.0
 14
8178.84868480548
 24
2007.418795876614
 34
0.0
 50
90.0
100
AcDbRotatedDimension
1001
ACAD
1000
DSTYLE
1002
{
1070
   174
1070
     0
1070
   272
1070
     1
1070
   279
1070
     1
1070
   288
1070
     0
1070
   341
1005
0
1002
}
  0
MTEXT
  5
22D35
102
{ACAD_REACTORS
330
22D36
102
}
330
747D
100
AcDbEntity
  8
部品1
 62
     7
 48
50.0
100
AcDbMText
 10
8187.793147224798
 20
2271.802122029844
 30
0.0
 40
80.0
 41
0.8
 71
     4
 72
     1
  1
M10X160
  7
STYLE2
 73
     1
 44
1.0
1001
ACAD
1000
MTEXTBEGIN
1070
    73
1070
     1
1070
    44
1040
1.0
1070
    74
1070
     0
1000
MTEXTEND
  0
LEADER
  5
22D36
330
747D
100
AcDbEntity
  8
寸法
 48
50.0
100
AcDbLeader
  3
INABA_S50G
 73
     0
 74
     0
 75
     1
 40
80.0
 41
435.0
 76
     3
 10
7995.24868480548
 20
2056.578795876615
 30
0.0
 10
8037.793147224798
 20
2206.802122029845
 30
0.0
 10
8162.793147224798
 20
2206.802122029845
 30
0.0
340
22D35
1001
ACAD
1000
DSTYLE
1002
{
1070
   341
1005
0
1070
    40
1040
1.0
1070
   343
1005
0
1070
   344
1005
0
1002
}
  0
LINE
  5
22D37
330
747D
100
AcDbEntity
  8
部品1
100
AcDbLine
 10
4994.140932819023
 20
3328.390415653459
 30
0.0
 11
4994.140932819025
 21
364.083446068812
 31
0.0
  0
LEADER
  5
22D38
330
747D
100
AcDbEntity
  8
寸法
 48
50.0
100
AcDbLeader
  3
INABA_S50G
 73
     0
 75
     1
 40
113.1818181818182
 41
608.6363636363635
 76
     3
 10
7954.98543494353
 20
1956.934469234893
 30
0.0
 10
7821.181606252183
 20
2808.313551591371
 30
0.0
 10
7696.181606252183
 20
2808.313551591371
 30
0.0
340
22D39
1001
ACAD
1000
DSTYLE
1002
{
1070
   341
1005
0
1070
    40
1040
1.0
1070
   343
1005
0
1070
   344
1005
0
1002
}
  0
MTEXT
  5
22D39
102
{ACAD_REACTORS
330
22D38
102
}
330
747D
100
AcDbEntity
  8
寸法
 62
     7
 48
50.0
100
AcDbMText
 10
7671.181606252183
 20
2889.90446068228
 30
0.0
 40
80.0
 41
0.8
 71
     6
 72
     1
  1
\A1;φ70スリーブ
  7
STYLE2
 73
     1
 44
1.0
1001
ACAD
1000
MTEXTBEGIN
1070
    73
1070
     1
1070
    44
1040
1.0
1070
    74
1070
     0
1000
MTEXTEND
  0
LWPOLYLINE
  5
22D3A
330
747D
100
AcDbEntity
  8
部品1
 48
50.0
100
AcDbPolyline
 90
        2
 70
     0
 43
8.0
 10
5650.669469795329
 20
1767.418795876615
 10
6064.809371628285
 20
1767.418795876615
  0
TEXT
  5
22D3B
330
747D
100
AcDbEntity
  8
部品1
 48
50.0
100
AcDbText
 10
5650.669469795329
 20
1778.657788159869
 30
0.0
 40
80.0
  1
▽G.L
  7
STYLE2
100
AcDbText
  0
DIMENSION
  5
22D3C
330
747D
100
AcDbEntity
  8
寸法
 48
50.0
100
AcDbDimension
  2
*D43
 10
5794.389057895826
 20
1223.418795876614
 30
0.0
 11
5794.389057895826
 21
1343.418795876614
 31
0.0
 70
   160
  1
150
 71
     5
 42
240.0
  3
INABA_S40G
100
AcDbAlignedDimension
 13
5936.809371628285
 23
1463.418795876614
 33
0.0
 14
5856.80937162829
 24
1223.418795876614
 34
0.0
 50
90.0
100
AcDbRotatedDimension
1001
ACAD
1000
DSTYLE
1002
{
1070
   174
1070
     0
1070
   272
1070
     1
1070
   279
1070
     1
1070
   288
1070
     0
1070
   341
1005
0
1002
}
  0
LEADER
  5
22D3D
330
747D
100
AcDbEntity
  8
寸法
 48
50.0
100
AcDbLeader
  3
INABA_S50G
 71
     0
 73
     0
 75
     1
 40
100.0
 41
225.0
 76
     3
 10
6032.712323980429
 20
1343.418795876614
 30
0.0
 10
5910.874345433092
 20
1079.896102258178
 30
0.0
 10
5785.874345433092
 20
1079.896102258178
 30
0.0
1001
ACAD
1000
DSTYLE
1002
{
1070
    40
1040
1.0
1070
   272
1070
     1
1070
   279
1070
     1
1070
   341
1005
0
1002
}
  0
LEADER
  5
22D3E
330
747D
100
AcDbEntity
  8
寸法
 48
50.0
100
AcDbLeader
  3
INABA_S50G
 71
     0
 73
     0
 75
     1
 40
100.0
 41
222.7272727272727
 76
     3
 10
6160.809371628285
 20
1343.418795876614
 30
0.0
 10
5938.997072990527
 20
899.5799497187345
 30
0.0
 10
5813.997072990527
 20
899.5799497187345
 30
0.0
1001
ACAD
1000
DSTYLE
1002
{
1070
    40
1040
1.0
1070
   272
1070
     1
1070
   279
1070
     1
1070
   341
1005
0
1002
}
  0
MTEXT
  5
22D3F
102
{ACAD_REACTORS
330
22D40
102
}
330
747D
100
AcDbEntity
  8
寸法
 62
     7
 48
50.0
100
AcDbMText
 10
5975.559317405481
 20
1608.719398694071
 30
0.0
 40
80.0
 41
0.8
 71
     6
 72
     1
  1
\A1;D10@300
  7
STYLE2
 73
     1
 44
1.0
1001
ACAD
1000
MTEXTBEGIN
1070
    73
1070
     1
1070
    44
1040
1.0
1070
    74
1070
     0
1000
MTEXTEND
  0
LEADER
  5
22D40
330
747D
100
AcDbEntity
  8
寸法
 48
50.0
100
AcDbLeader
  3
INABA_S50G
 71
     0
 73
     0
 75
     1
 40
100.0
 41
540.3409090909091
 76
     3
 10
6168.809371628285
 20
1765.546010573737
 30
0.0
 10
6110.827135099587
 20
1544.075682032932
 30
0.0
 10
5985.827135099587
 20
1544.075682032932
 30
0.0
213
-9.732182305893367
223
-4.643716661138569
233
0.0
1001
ACAD
1000
DSTYLE
1002
{
1070
    40
1040
1.0
1070
   272
1070
     1
1070
   279
1070
     1
1070
   341
1005
0
1002
}
  0
LEADER
  5
22D41
330
747D
100
AcDbEntity
  8
寸法
 48
50.0
100
AcDbLeader
  3
INABA_S50G
 71
     0
 73
     0
 75
     1
 40
130.1136363636363
 41
651.1363636363636
 76
     3
 10
6144.809371628285
 20
2007.418795876614
 30
0.0
 10
6032.384791464269
 20
2147.889561333203
 30
0.0
 10
5907.384791464269
 20
2147.889561333203
 30
0.0
1001
ACAD
1000
DSTYLE
1002
{
1070
    40
1040
1.0
1070
   272
1070
     1
1070
   279
1070
     1
1070
   341
1005
0
1002
}
  0
MTEXT
  5
22D42
102
{ACAD_REACTORS
330
22D41
102
}
330
747D
100
AcDbEntity
  8
寸法
 62
     7
 48
50.0
100
AcDbMText
 10
5844.710892145013
 20
2219.935015878657
 30
0.0
 40
80.0
 41
0.8
 71
     6
 72
     1
  1
\A1;金コテ押エ
  7
STYLE2
 73
     1
 44
1.0
1001
ACAD
1000
MTEXTBEGIN
1070
    73
1070
     1
1070
    44
1040
1.0
1070
    74
1070
     0
1000
MTEXTEND
  0
DIMENSION
  5
22D43
330
747D
100
AcDbEntity
  8
寸法
 48
50.0
100
AcDbDimension
  2
*D44
 10
5329.772133066544
 20
1223.418795876614
 30
0.0
 11
5329.772133066545
 21
1594.958945532615
 31
0.0
 70
   160
  1
540
 71
     5
 42
784.0
  3
INABA_S40G
100
AcDbAlignedDimension
 13
6064.809371628285
 23
2007.418795876614
 33
0.0
 14
5856.80937162829
 24
1223.418795876614
 34
0.0
 50
90.0
100
AcDbRotatedDimension
1001
ACAD
1000
DSTYLE
1002
{
1070
   174
1070
     0
1070
   272
1070
     1
1070
   279
1070
     1
1070
   288
1070
     0
1070
   341
1005
0
1002
}
  0
MTEXT
  5
22D44
102
{ACAD_REACTORS
330
22D3E
102
}
330
747D
100
AcDbEntity
  8
寸法
 62
     7
 48
50.0
100
AcDbMText
 10
5793.997072990526
 20
959.5799497187345
 30
0.0
 40
80.0
 41
0.8
 71
     6
 72
     1
  1
D13
  7
STYLE2
 73
     1
 44
1.0
1001
ACAD
1000
MTEXTBEGIN
1070
    73
1070
     1
1070
    44
1040
1.0
1070
    74
1070
     0
1000
MTEXTEND
  0
MTEXT
  5
22D45
102
{ACAD_REACTORS
330
22D3D
102
}
330
747D
100
AcDbEntity
  8
寸法
 62
     7
 48
50.0
100
AcDbMText
 10
5765.874345433092
 20
1139.896102258178
 30
0.0
 40
80.0
 41
0.8
 71
     6
 72
     1
  1
D10
  7
STYLE2
 73
     1
 44
1.0
1001
ACAD
1000
MTEXTBEGIN
1070
    73
1070
     1
1070
    44
1040
1.0
1070
    74
1070
     0
1000
MTEXTEND
  0
DIMENSION
  5
22D46
330
747D
100
AcDbEntity
  8
寸法
 48
50.0
100
AcDbDimension
  2
*D45
 10
6384.809371628286
 20
684.9891578714541
 30
0.0
 11
6140.712612950062
 21
684.9891578714541
 31
0.0
 70
   160
  1
300
 71
     5
 42
448.0
  3
INABA_S40G
100
AcDbAlignedDimension
 13
5936.809371628285
 23
1095.418795876614
 33
0.0
 14
6384.809371628286
 24
1095.418795876614
 34
0.0
100
AcDbRotatedDimension
1001
ACAD
1000
DSTYLE
1002
{
1070
   174
1070
     0
1070
   272
1070
     1
1070
   279
1070
     1
1070
   288
1070
     0
1070
   341
1005
0
1002
}
  0
MTEXT
  5
22D47
102
{ACAD_REACTORS
330
22D48
102
}
330
747D
100
AcDbEntity
  8
寸法
 62
     7
 48
50.0
100
AcDbMText
 10
7697.824612460542
 20
2529.220188774766
 30
0.0
 40
80.0
 41
0.8
 71
     6
 72
     1
  1
アンカープレート {\fArial|b0|i0|c0|p32;U}
  7
STYLE2
 73
     1
 44
1.0
1001
ACAD
1000
MTEXTBEGIN
1070
    73
1070
     1
1070
    44
1040
1.0
1070
    74
1070
     0
1000
MTEXTEND
  0
LEADER
  5
22D48
330
747D
100
AcDbEntity
  8
寸法
 48
50.0
100
AcDbLeader
  3
INABA_S50G
 73
     0
 75
     1
 40
106.3636363636363
 41
903.5235024184547
 76
     3
 10
7896.248684805479
 20
2076.978795876616
 30
0.0
 10
7847.824612460541
 20
2451.038370592948
 30
0.0
 10
7722.824612460541
 20
2451.038370592948
 30
0.0
340
22D47
1001
ACAD
1000
DSTYLE
1002
{
1070
   341
1005
0
1070
    40
1040
1.0
1070
   343
1005
0
1070
   344
1005
0
1002
}
  0
LINE
  5
22D49
330
747D
100
AcDbEntity
  8
細線
 48
50.0
100
AcDbLine
 10
6184.809371628286
 20
1845.791688544444
 30
0.0
 11
6256.809371628286
 21
1917.791688544444
 31
0.0
  0
ARC
  5
22D4A
330
747D
100
AcDbEntity
  8
部品1
 48
50.0
100
AcDbCircle
 10
6160.809371628286
 20
1867.67322527086
 30
0.0
 40
24.0
100
AcDbArc
 50
0.0
 51
180.0
  0
CIRCLE
  5
22D4B
330
747D
100
AcDbEntity
  8
部品1
 48
50.0
100
AcDbCircle
 10
6160.809371628286
 20
1867.67322527086
 30
0.0
 40
8.0
  0
LINE
  5
22D4C
330
747D
100
AcDbEntity
  8
部品1
 48
50.0
100
AcDbLine
 10
6064.809371628286
 20
1463.418795876614
 30
0.0
 11
6064.809371628286
 21
2007.418795876614
 31
0.0
  0
LINE
  5
22D4D
330
747D
100
AcDbEntity
  8
部品1
 48
50.0
100
AcDbLine
 10
6256.809371628286
 20
2007.418795876614
 30
0.0
 11
6256.809371628286
 21
1463.418795876614
 31
0.0
  0
MTEXT
  5
22D4E
102
{ACAD_REACTORS
330
22D53
102
}
330
747D
100
AcDbEntity
  8
寸法
 62
     7
 48
50.0
100
AcDbMText
 10
6339.695308655681
 20
1868.686357175542
 30
0.0
 40
80.0
 41
0.8
 71
     4
 72
     1
  1
D13
  7
STYLE2
 73
     1
 44
1.0
1001
ACAD
1000
MTEXTBEGIN
1070
    73
1070
     1
1070
    44
1040
1.0
1070
    74
1070
     0
1000
MTEXTEND
  0
LEADER
  5
22D4F
330
747D
100
AcDbEntity
  8
寸法
 48
50.0
100
AcDbLeader
  3
INABA_S50G
 71
     0
 73
     0
 74
     0
 75
     1
 40
100.0
 41
225.0
 76
     3
 10
6288.712323980429
 20
1343.418795876614
 30
0.0
 10
6343.13703143497
 20
1248.021726933641
 30
0.0
 10
6468.13703143497
 20
1248.021726933641
 30
0.0
1001
ACAD
1000
DSTYLE
1002
{
1070
    40
1040
1.0
1070
   272
1070
     1
1070
   279
1070
     1
1070
   341
1005
0
1002
}
  0
LEADER
  5
22D50
330
747D
100
AcDbEntity
  8
寸法
 48
50.0
100
AcDbLeader
  3
INABA_S50G
 71
     0
 73
     0
 74
     0
 75
     1
 40
100.0
 41
540.3409090909091
 76
     3
 10
6234.754540641461
 20
1326.678265463089
 30
0.0
 10
6353.547827489537
 20
985.0474474681915
 30
0.0
 10
6478.547827489537
 20
985.0474474681915
 30
0.0
213
0.0
223
-1.022262676269383
233
0.0
1001
ACAD
1000
DSTYLE
1002
{
1070
    40
1040
1.0
1070
   272
1070
     1
1070
   279
1070
     1
1070
   341
1005
0
1002
}
  0
MTEXT
  5
22D51
102
{ACAD_REACTORS
330
22D4F
102
}
330
747D
100
AcDbEntity
  8
寸法
 62
     7
 48
50.0
100
AcDbMText
 10
6488.137031434971
 20
1308.021726933642
 30
0.0
 40
80.0
 41
0.8
 71
     4
 72
     1
  1
D10
  7
STYLE2
 73
     1
 44
1.0
1001
ACAD
1000
MTEXTBEGIN
1070
    73
1070
     1
1070
    44
1040
1.0
1070
    74
1070
     0
1000
MTEXTEND
  0
LWPOLYLINE
  5
22D52
330
747D
100
AcDbEntity
  8
部品1
 48
50.0
100
AcDbPolyline
 90
        2
 70
     0
 43
8.0
 10
6256.809371628285
 20
1767.418795876615
 10
6670.949273461244
 20
1767.418795876615
  0
LEADER
  5
22D53
330
747D
100
AcDbEntity
  8
寸法
 48
50.0
100
AcDbLeader
  3
INABA_S50G
 71
     0
 73
     0
 74
     0
 75
     1
 40
100.0
 41
222.7272727272727
 76
     3
 10
6160.809371628285
 20
1867.67322527086
 30
0.0
 10
6194.69530865568
 20
1808.686357175542
 30
0.0
 10
6319.69530865568
 20
1808.686357175542
 30
0.0
1001
ACAD
1000
DSTYLE
1002
{
1070
    40
1040
1.0
1070
   272
1070
     1
1070
   279
1070
     1
1070
   341
1005
0
1002
}
  0
LINE
  5
22D54
330
747D
100
AcDbEntity
  8
細線
 48
50.0
100
AcDbLine
 10
5936.809371628279
 20
1382.265541638785
 30
0.0
 11
6017.962625866115
 21
1463.418795876614
 31
0.0
  0
LINE
  5
22D55
330
747D
100
AcDbEntity
  8
細線
 48
50.0
100
AcDbLine
 10
6144.67521910569
 20
1401.546010573737
 30
0.0
 11
6168.809371628292
 21
1425.680163096335
 31
0.0
  0
LINE
  5
22D56
330
747D
100
AcDbEntity
  8
細線
 48
50.0
100
AcDbLine
 10
6051.607236045359
 20
1335.418795876614
 30
0.0
 11
6168.809371628286
 21
1452.62093145954
 31
0.0
  0
LINE
  5
22D57
330
747D
100
AcDbEntity
  8
部品1
 48
50.0
100
AcDbLine
 10
5936.809371628286
 20
1223.418795876614
 30
0.0
 11
5936.809371628286
 21
1463.418795876614
 31
0.0
  0
LINE
  5
22D58
330
747D
100
AcDbEntity
  8
細線
 48
50.0
100
AcDbLine
 10
6294.07415131423
 20
1335.418795876614
 30
0.0
 11
6384.809371628286
 21
1426.154016190673
 31
0.0
  0
LINE
  5
22D59
330
747D
100
AcDbEntity
  8
細線
 48
50.0
100
AcDbLine
 10
6267.133382951014
 20
1335.418795876614
 30
0.0
 11
6384.809371628286
 21
1453.09478455388
 31
0.0
  0
LINE
  5
22D5A
330
747D
100
AcDbEntity
  8
部品1
 48
50.0
100
AcDbLine
 10
6384.809371628286
 20
1463.418795876614
 30
0.0
 11
6384.809371628286
 21
1223.418795876614
 31
0.0
  0
LINE
  5
22D5B
330
747D
100
AcDbEntity
  8
部品1
 48
50.0
100
AcDbLine
 10
6184.809371628292
 20
1343.418795876614
 30
0.0
 11
6184.809371628286
 21
1867.67322527086
 31
0.0
  0
LINE
  5
22D5C
330
747D
100
AcDbEntity
  8
部品1
 48
50.0
100
AcDbLine
 10
6168.809371628292
 20
1343.418795876614
 30
0.0
 11
6168.809371628279
 21
1867.67322527086
 31
0.0
  0
LINE
  5
22D5D
330
747D
100
AcDbEntity
  8
細線
 48
50.0
100
AcDbLine
 10
6152.809371628286
 20
1382.739394733126
 30
0.0
 11
6168.809371628292
 21
1398.739394733125
 31
0.0
  0
LINE
  5
22D5E
330
747D
100
AcDbEntity
  8
細線
 48
50.0
100
AcDbLine
 10
6141.9922111243
 20
1095.418795876614
 30
0.0
 11
6176.289707755484
 21
1223.418795876614
 31
0.0
  0
LINE
  5
22D5F
330
747D
100
AcDbEntity
  8
部品1
 48
50.0
100
AcDbLine
 10
6464.80937162829
 20
1095.418795876614
 30
0.0
 11
5856.809371628288
 21
1095.418795876614
 31
0.0
  0
LINE
  5
22D60
330
747D
100
AcDbEntity
  8
部品1
 48
50.0
100
AcDbLine
 10
5992.809371628286
 20
1319.418795876614
 30
0.0
 11
6328.809371628286
 21
1319.418795876614
 31
0.0
  0
LINE
  5
22D61
330
747D
100
AcDbEntity
  8
部品1
 48
50.0
100
AcDbLine
 10
5992.809371628286
 20
1335.418795876614
 30
0.0
 11
6328.809371628286
 21
1335.418795876614
 31
0.0
  0
LINE
  5
22D62
330
747D
100
AcDbEntity
  8
部品1
 48
50.0
100
AcDbLine
 10
6464.80937162829
 20
1223.418795876614
 30
0.0
 11
5856.809371628288
 21
1223.418795876614
 31
0.0
  0
CIRCLE
  5
22D63
330
747D
100
AcDbEntity
  8
部品1
 48
50.0
100
AcDbCircle
 10
6160.809371628286
 20
1343.418795876614
 30
0.0
 40
8.0
  0
LINE
  5
22D64
330
747D
100
AcDbEntity
  8
細線
 48
50.0
100
AcDbLine
 10
6155.13338295102
 20
1223.418795876614
 30
0.0
 11
6251.13338295102
 21
1319.418795876614
 31
0.0
  0
LINE
  5
22D65
330
747D
100
AcDbEntity
  8
細線
 48
50.0
100
AcDbLine
 10
5984.216121229803
 20
1095.418795876614
 30
0.0
 11
6018.513617860985
 21
1223.418795876614
 31
0.0
  0
LINE
  5
22D66
330
747D
100
AcDbEntity
  8
細線
 48
50.0
100
AcDbLine
 10
6063.104166177048
 20
1095.418795876612
 30
0.0
 11
6097.401662808231
 21
1223.418795876612
 31
0.0
  0
LINE
  5
22D67
330
747D
100
AcDbEntity
  8
細線
 48
50.0
100
AcDbLine
 10
5905.328076282544
 20
1095.418795876612
 30
0.0
 11
5939.625572913727
 21
1223.418795876612
 31
0.0
  0
LINE
  5
22D68
330
747D
100
AcDbEntity
  8
部品1
 48
50.0
100
AcDbLine
 10
5856.809371628288
 20
1095.418795876614
 30
0.0
 11
5856.809371628288
 21
1223.418795876614
 31
0.0
  0
LINE
  5
22D69
330
747D
100
AcDbEntity
  8
細線
 48
50.0
100
AcDbLine
 10
5990.646901848148
 20
1119.418795876614
 30
0.0
 11
5997.077682466496
 21
1095.418795876614
 31
0.0
  0
LINE
  5
22D6A
330
747D
100
AcDbEntity
  8
細線
 48
50.0
100
AcDbLine
 10
5911.758856900898
 20
1119.418795876614
 30
0.0
 11
5918.189637519244
 21
1095.418795876614
 31
0.0
  0
LINE
  5
22D6B
330
747D
100
AcDbEntity
  8
細線
 48
50.0
100
AcDbLine
 10
6148.422991742654
 20
1119.418795876614
 30
0.0
 11
6154.853772361
 21
1095.418795876614
 31
0.0
  0
LINE
  5
22D6C
330
747D
100
AcDbEntity
  8
細線
 48
50.0
100
AcDbLine
 10
6069.534946795401
 20
1119.418795876614
 30
0.0
 11
6075.965727413747
 21
1095.418795876614
 31
0.0
  0
LINE
  5
22D6D
330
747D
100
AcDbEntity
  8
細線
 48
50.0
100
AcDbLine
 10
5966.548004408569
 20
1223.418795876614
 30
0.0
 11
6062.54800440857
 21
1319.418795876614
 31
0.0
  0
LINE
  5
22D6E
330
747D
100
AcDbEntity
  8
細線
 48
50.0
100
AcDbLine
 10
5939.607236045359
 20
1223.418795876614
 30
0.0
 11
6035.607236045359
 21
1319.418795876614
 31
0.0
  0
LINE
  5
22D6F
330
747D
100
AcDbEntity
  8
部品1
 48
50.0
100
AcDbLine
 10
5992.809371628286
 20
1335.418795876614
 30
0.0
 11
5992.809371628286
 21
1319.418795876614
 31
0.0
  0
LINE
  5
22D70
330
747D
100
AcDbEntity
  8
細線
 48
50.0
100
AcDbLine
 10
5933.194792295387
 20
1199.418795876614
 30
0.0
 11
5926.76401167704
 21
1223.418795876614
 31
0.0
  0
LINE
  5
22D71
330
747D
100
AcDbEntity
  8
細線
 48
50.0
100
AcDbLine
 10
5856.809371628287
 20
1208.758716842394
 30
0.0
 11
5860.737527966482
 21
1223.418795876614
 31
0.0
  0
LINE
  5
22D72
330
747D
100
AcDbEntity
  8
部品1
 48
50.0
100
AcDbLine
 10
6152.809371628286
 20
1401.546010573737
 30
0.0
 11
6136.809371628286
 21
1401.546010573737
 31
0.0
  0
CIRCLE
  5
22D73
330
747D
100
AcDbEntity
  8
部品1
 48
50.0
100
AcDbCircle
 10
6032.809371628286
 20
1343.418795876614
 30
0.0
 40
8.0
  0
LINE
  5
22D74
330
747D
100
AcDbEntity
  8
細線
 48
50.0
100
AcDbLine
 10
6105.488772771775
 20
1335.418795876614
 30
0.0
 11
6136.809371628286
 21
1366.739394733126
 31
0.0
  0
ARC
  5
22D75
330
747D
100
AcDbEntity
  8
部品1
 48
50.0
100
AcDbCircle
 10
6160.809371628286
 20
1343.418795876614
 30
0.0
 40
24.0
100
AcDbArc
 50
180.0
 51
199.4712206344927
  0
LINE
  5
22D76
330
747D
100
AcDbEntity
  8
細線
 48
50.0
100
AcDbLine
 10
6012.082837242638
 20
1199.418795876614
 30
0.0
 11
6005.652056624292
 21
1223.418795876614
 31
0.0
  0
LINE
  5
22D77
330
747D
100
AcDbEntity
  8
細線
 48
50.0
100
AcDbLine
 10
6090.97088218989
 20
1199.418795876614
 30
0.0
 11
6084.540101571544
 21
1223.418795876614
 31
0.0
  0
LINE
  5
22D78
330
747D
100
AcDbEntity
  8
細線
 48
50.0
100
AcDbLine
 10
5993.488772771775
 20
1223.418795876614
 30
0.0
 11
6089.488772771775
 21
1319.418795876614
 31
0.0
  0
LINE
  5
22D79
330
747D
100
AcDbEntity
  8
部品1
 48
50.0
100
AcDbLine
 10
6136.809371628286
 20
1401.546010573737
 30
0.0
 11
6136.809371628286
 21
1343.418795876614
 31
0.0
  0
LINE
  5
22D7A
330
747D
100
AcDbEntity
  8
細線
 48
50.0
100
AcDbLine
 10
6078.54800440857
 20
1335.418795876614
 30
0.0
 11
6136.809371628286
 21
1393.680163096333
 31
0.0
  0
LINE
  5
22D7B
330
747D
100
AcDbEntity
  8
部品1
 48
50.0
100
AcDbLine
 10
6152.809371628286
 20
1401.546010573737
 30
0.0
 11
6152.809371628286
 21
1343.418795876614
 31
0.0
  0
LINE
  5
22D7C
330
747D
100
AcDbEntity
  8
部品1
 48
50.0
100
AcDbLine
 10
6464.80937162829
 20
1223.418795876614
 30
0.0
 11
6464.80937162829
 21
1095.418795876614
 31
0.0
  0
LINE
  5
22D7D
330
747D
100
AcDbEntity
  8
細線
 48
50.0
100
AcDbLine
 10
6378.65634596604
 20
1095.418795876614
 30
0.0
 11
6412.953842597225
 21
1223.418795876612
 31
0.0
  0
LINE
  5
22D7E
330
747D
100
AcDbEntity
  8
細線
 48
50.0
100
AcDbLine
 10
6220.880256071546
 20
1095.418795876614
 30
0.0
 11
6255.177752702732
 21
1223.418795876612
 31
0.0
  0
LINE
  5
22D7F
330
747D
100
AcDbEntity
  8
細線
 48
50.0
100
AcDbLine
 10
6299.768301018795
 20
1095.418795876612
 30
0.0
 11
6334.06579764998
 21
1223.418795876612
 31
0.0
  0
LINE
  5
22D80
330
747D
100
AcDbEntity
  8
細線
 48
50.0
100
AcDbLine
 10
6306.199081637145
 20
1119.418795876614
 30
0.0
 11
6312.629862255493
 21
1095.418795876614
 31
0.0
  0
LINE
  5
22D81
330
747D
100
AcDbEntity
  8
細線
 48
50.0
100
AcDbLine
 10
6227.311036689899
 20
1119.418795876614
 30
0.0
 11
6233.741817308246
 21
1095.418795876614
 31
0.0
  0
LINE
  5
22D82
330
747D
100
AcDbEntity
  8
細線
 48
50.0
100
AcDbLine
 10
6385.087126584392
 20
1119.418795876614
 30
0.0
 11
6391.517907202739
 21
1095.418795876614
 31
0.0
  0
LINE
  5
22D83
330
747D
100
AcDbEntity
  8
細線
 48
50.0
100
AcDbLine
 10
6463.97517153164
 20
1119.418795876614
 30
0.0
 11
6464.809371628287
 21
1116.305518732249
 31
0.0
  0
LINE
  5
22D84
330
747D
100
AcDbEntity
  8
細線
 48
50.0
100
AcDbLine
 10
6457.544390913288
 20
1095.418795876612
 30
0.0
 11
6464.809371628287
 21
1122.532073021002
 31
0.0
  0
LINE
  5
22D85
330
747D
100
AcDbEntity
  8
細線
 48
50.0
100
AcDbLine
 10
6321.014919677434
 20
1335.418795876614
 30
0.0
 11
6384.809371628286
 21
1399.213247827465
 31
0.0
  0
CIRCLE
  5
22D86
330
747D
100
AcDbEntity
  8
部品1
 48
50.0
100
AcDbCircle
 10
6288.809371628286
 20
1343.418795876614
 30
0.0
 40
8.0
  0
ARC
  5
22D87
330
747D
100
AcDbEntity
  8
部品1
 48
50.0
100
AcDbCircle
 10
6160.809371628286
 20
1343.418795876614
 30
0.0
 40
24.0
100
AcDbArc
 50
340.5287793655072
 51
0.0
  0
LINE
  5
22D88
330
747D
100
AcDbEntity
  8
細線
 48
50.0
100
AcDbLine
 10
6169.858927137143
 20
1199.418795876614
 30
0.0
 11
6163.428146518795
 21
1223.418795876614
 31
0.0
  0
LINE
  5
22D89
330
747D
100
AcDbEntity
  8
細線
 48
50.0
100
AcDbLine
 10
6248.746972084388
 20
1199.418795876614
 30
0.0
 11
6242.316191466042
 21
1223.418795876614
 31
0.0
  0
LINE
  5
22D8A
330
747D
100
AcDbEntity
  8
細線
 48
50.0
100
AcDbLine
 10
6182.07415131423
 20
1223.418795876614
 30
0.0
 11
6278.07415131423
 21
1319.418795876614
 31
0.0
  0
LINE
  5
22D8B
330
747D
100
AcDbEntity
  8
細線
 48
50.0
100
AcDbLine
 10
6209.014919677434
 20
1223.418795876614
 30
0.0
 11
6305.015807522571
 21
1319.419683721753
 31
0.0
  0
LINE
  5
22D8C
330
747D
100
AcDbEntity
  8
部品1
 48
50.0
100
AcDbLine
 10
6328.809371628286
 20
1335.418795876614
 30
0.0
 11
6328.809371628286
 21
1319.418795876614
 31
0.0
  0
LINE
  5
22D8D
330
747D
100
AcDbEntity
  8
細線
 48
50.0
100
AcDbLine
 10
6406.52306197888
 20
1199.418795876614
 30
0.0
 11
6400.092281360532
 21
1223.418795876614
 31
0.0
  0
LINE
  5
22D8E
330
747D
100
AcDbEntity
  8
細線
 48
50.0
100
AcDbLine
 10
6370.659529856681
 20
1223.418795876614
 30
0.0
 11
6384.809371628286
 21
1237.568637648221
 31
0.0
  0
LINE
  5
22D8F
330
747D
100
AcDbEntity
  8
細線
 48
50.0
100
AcDbLine
 10
6327.635017031634
 20
1199.418795876614
 30
0.0
 11
6321.204236413287
 21
1223.418795876614
 31
0.0
  0
LINE
  5
22D90
330
747D
100
AcDbEntity
  8
細線
 48
50.0
100
AcDbLine
 10
6064.809371628286
 20
1537.206310001992
 30
0.0
 11
6168.809371628292
 21
1641.206310001995
 31
0.0
  0
LINE
  5
22D91
330
747D
100
AcDbEntity
  8
細線
 48
50.0
100
AcDbLine
 10
6064.809371628286
 20
1564.1470783652
 30
0.0
 11
6168.809371628286
 21
1668.1470783652
 31
0.0
  0
LINE
  5
22D92
330
747D
100
AcDbEntity
  8
細線
 48
50.0
100
AcDbLine
 10
6064.809371628286
 20
1510.265541638785
 30
0.0
 11
6168.809371628292
 21
1614.265541638785
 31
0.0
  0
LINE
  5
22D93
330
747D
100
AcDbEntity
  8
細線
 48
50.0
100
AcDbLine
 10
6152.809371628286
 20
1813.791688544444
 30
0.0
 11
6168.809371628286
 21
1829.791688544444
 31
0.0
  0
LINE
  5
22D94
330
747D
100
AcDbEntity
  8
細線
 48
50.0
100
AcDbLine
 10
6152.809371628286
 20
1840.732456907652
 30
0.0
 11
6168.809371628286
 21
1856.732456907652
 31
0.0
  0
LINE
  5
22D95
330
747D
100
AcDbEntity
  8
部品1
 48
50.0
100
AcDbLine
 10
5936.809371628286
 20
1463.418795876614
 30
0.0
 11
6064.809371628286
 21
1463.418795876614
 31
0.0
  0
LINE
  5
22D96
330
747D
100
AcDbEntity
  8
細線
 48
50.0
100
AcDbLine
 10
5936.809371628279
 20
1409.206310001989
 30
0.0
 11
5991.021857502911
 21
1463.418795876614
 31
0.0
  0
LINE
  5
22D97
330
747D
100
AcDbEntity
  8
細線
 48
50.0
100
AcDbLine
 10
5936.809371628279
 20
1436.1470783652
 30
0.0
 11
5964.0810891397
 21
1463.418795876614
 31
0.0
  0
LINE
  5
22D98
330
747D
100
AcDbEntity
  8
部品1
 48
50.0
100
AcDbLine
 10
6152.809371628286
 20
1809.546010573736
 30
0.0
 11
6136.809371628286
 21
1809.54601057374
 31
0.0
  0
LINE
  5
22D99
330
747D
100
AcDbEntity
  8
細線
 48
50.0
100
AcDbLine
 10
6064.809371628286
 20
1725.791688544445
 30
0.0
 11
6148.56369365758
 21
1809.546010573736
 31
0.0
  0
LINE
  5
22D9A
330
747D
100
AcDbEntity
  8
細線
 48
50.0
100
AcDbLine
 10
6064.809371628286
 20
1752.732456907652
 30
0.0
 11
6136.809371628286
 21
1824.732456907652
 31
0.0
  0
LINE
  5
22D9B
330
747D
100
AcDbEntity
  8
部品1
 48
50.0
100
AcDbLine
 10
6136.809371628286
 20
1809.54601057374
 30
0.0
 11
6136.809371628286
 21
1867.67322527086
 31
0.0
  0
LINE
  5
22D9C
330
747D
100
AcDbEntity
  8
細線
 48
50.0
100
AcDbLine
 10
6064.809371628286
 20
1779.67322527086
 30
0.0
 11
6136.809371628286
 21
1851.67322527086
 31
0.0
  0
LINE
  5
22D9D
330
747D
100
AcDbEntity
  8
部品1
 48
50.0
100
AcDbLine
 10
6152.809371628286
 20
1809.546010573736
 30
0.0
 11
6152.809371628286
 21
1867.67322527086
 31
0.0
  0
LINE
  5
22D9E
330
747D
100
AcDbEntity
  8
細線
 48
50.0
100
AcDbLine
 10
6184.809371628292
 20
1630.265541638785
 30
0.0
 11
6256.809371628279
 21
1702.265541638785
 31
0.0
  0
LINE
  5
22D9F
330
747D
100
AcDbEntity
  8
部品1
 48
50.0
100
AcDbLine
 10
6256.809371628286
 20
1463.418795876614
 30
0.0
 11
6384.809371628286
 21
1463.418795876614
 31
0.0
  0
LINE
  5
22DA0
330
747D
100
AcDbEntity
  8
細線
 48
50.0
100
AcDbLine
 10
6184.809371628292
 20
1441.680163096335
 30
0.0
 11
6256.809371628279
 21
1513.68016309633
 31
0.0
  0
LINE
  5
22DA1
330
747D
100
AcDbEntity
  8
細線
 48
50.0
100
AcDbLine
 10
6184.809371628292
 20
1468.620931459543
 30
0.0
 11
6256.809371628279
 21
1540.62093145954
 31
0.0
  0
LINE
  5
22DA2
330
747D
100
AcDbEntity
  8
細線
 48
50.0
100
AcDbLine
 10
6184.809371628292
 20
1414.739394733125
 30
0.0
 11
6256.809371628279
 21
1486.739394733126
 31
0.0
  0
LINE
  5
22DA3
330
747D
100
AcDbEntity
  8
細線
 48
50.0
100
AcDbLine
 10
6184.809371628286
 20
1684.1470783652
 30
0.0
 11
6256.809371628286
 21
1756.1470783652
 31
0.0
  0
LINE
  5
22DA4
330
747D
100
AcDbEntity
  8
細線
 48
50.0
100
AcDbLine
 10
6184.809371628292
 20
1657.206310001995
 30
0.0
 11
6256.809371628279
 21
1729.206310001989
 31
0.0
  0
MTEXT
  5
22DA5
102
{ACAD_REACTORS
330
22D50
102
}
330
747D
100
AcDbEntity
  8
寸法
 62
     7
 48
50.0
100
AcDbMText
 10
6498.547827489537
 20
1046.069710144461
 30
0.0
 40
80.0
 41
0.8
 71
     4
 72
     1
  1
\A1;D10@300
  7
STYLE2
 73
     1
 44
1.0
1001
ACAD
1000
MTEXTBEGIN
1070
    73
1070
     1
1070
    44
1040
1.0
1070
    74
1070
     0
1000
MTEXTEND
  0
DIMENSION
  5
22DA6
330
747D
100
AcDbEntity
  8
寸法
 48
50.0
100
AcDbDimension
  2
*D46
 10
6064.809371628285
 20
2327.418795876614
 30
0.0
 11
6172.035701973483
 21
2427.086603792995
 31
0.0
 70
   160
  1
120\P195
 71
     5
 42
192.0
  3
INABA_S40G
100
AcDbAlignedDimension
 13
6256.809371628285
 23
2007.418795876614
 33
0.0
 14
6064.809371628285
 24
2007.418795876614
 34
0.0
100
AcDbRotatedDimension
1001
ACAD
1000
DSTYLE
1002
{
1070
   174
1070
     0
1070
   272
1070
     1
1070
   279
1070
     1
1070
   288
1070
     0
1070
   341
1005
0
1002
}
  0
LINE
  5
22DA7
330
747D
100
AcDbEntity
  8
部品1
 48
50.0
100
AcDbLine
 10
6064.809371628286
 20
2007.418795876614
 30
0.0
 11
6256.809371628286
 21
2007.418795876614
 31
0.0
  0
LINE
  5
22DA8
330
747D
100
AcDbEntity
  8
細線
 48
50.0
100
AcDbLine
 10
6064.809371628286
 20
1968.258603813312
 30
0.0
 11
6103.96956369159
 21
2007.418795876614
 31
0.0
  0
LINE
  5
22DA9
330
747D
100
AcDbEntity
  8
細線
 48
50.0
100
AcDbLine
 10
6064.809371628286
 20
1941.317835450104
 30
0.0
 11
6130.910332054796
 21
2007.418795876614
 31
0.0
  0
LINE
  5
22DAA
330
747D
100
AcDbEntity
  8
細線
 48
50.0
100
AcDbLine
 10
6064.809371628286
 20
1995.199372176519
 30
0.0
 11
6077.028795328381
 21
2007.418795876614
 31
0.0
  0
LINE
  5
22DAB
330
747D
100
AcDbEntity
  8
細線
 48
50.0
100
AcDbLine
 10
6184.362078894273
 20
1872.285164173636
 30
0.0
 11
6256.809371628286
 21
1944.732456907652
 31
0.0
  0
LINE
  5
22DAC
330
747D
100
AcDbEntity
  8
細線
 48
50.0
100
AcDbLine
 10
6173.301794130757
 20
1888.16564777333
 30
0.0
 11
6256.809371628286
 21
1971.67322527086
 31
0.0
  0
LINE
  5
22DAD
330
747D
100
AcDbEntity
  8
細線
 48
50.0
100
AcDbLine
 10
8049.248684805482
 20
1848.547078365202
 30
0.0
 11
8178.84868480548
 21
1978.147078365201
 31
0.0
  0
LINE
  5
22DAE
330
747D
100
AcDbEntity
  8
部品1
100
AcDbLine
 10
8178.848684805478
 20
1463.418795876614
 30
0.0
 11
8178.84868480548
 21
2007.418795876614
 31
0.0
  0
LINE
  5
22DAF
330
747D
100
AcDbEntity
  8
部品1
 48
50.0
100
AcDbLine
 10
7764.84868480548
 20
1463.418795876614
 30
0.0
 11
7764.84868480548
 21
2007.418795876614
 31
0.0
  0
LINE
  5
22DB0
330
747D
100
AcDbEntity
  8
細線
 48
50.0
100
AcDbLine
 10
7764.84868480548
 20
1779.67322527086
 30
0.0
 11
7923.248684805479
 21
1938.073225270857
 31
0.0
  0
LINE
  5
22DB1
330
747D
100
AcDbEntity
  8
細線
 48
50.0
100
AcDbLine
 10
7764.84868480548
 20
1752.732456907652
 30
0.0
 11
7923.248684805479
 21
1911.132456907649
 31
0.0
  0
LINE
  5
22DB2
330
747D
100
AcDbEntity
  8
細線
 48
50.0
100
AcDbLine
 10
7764.84868480548
 20
1725.791688544445
 30
0.0
 11
7923.248684805476
 21
1884.191688544437
 31
0.0
  0
TEXT
  5
22DB3
330
747D
100
AcDbEntity
  8
部品1
 48
50.0
100
AcDbText
 10
7350.708782972525
 20
1778.657788159869
 30
0.0
 40
80.0
  1
▽G.L
  7
STYLE2
100
AcDbText
  0
LINE
  5
22DB4
330
747D
100
AcDbEntity
  8
部品1
100
AcDbLine
 10
7995.24868480548
 20
1782.418795876614
 30
0.0
 11
7995.248684805476
 21
2056.578795876615
 31
0.0
  0
LINE
  5
22DB5
330
747D
100
AcDbEntity
  8
部品1
100
AcDbLine
 10
7977.24868480548
 20
1782.418795876614
 30
0.0
 11
7977.248684805475
 21
2056.578795876615
 31
0.0
  0
LINE
  5
22DB6
330
747D
100
AcDbEntity
  8
細線
 48
50.0
100
AcDbLine
 10
8049.248684805482
 20
1794.665541638773
 30
0.0
 11
8178.84868480548
 21
1924.265541638764
 31
0.0
  0
LINE
  5
22DB7
330
747D
100
AcDbEntity
  8
細線
 48
50.0
100
AcDbLine
 10
8049.248684805482
 20
1821.606310001985
 30
0.0
 11
8178.84868480548
 21
1951.206310001982
 31
0.0
  0
LINE
  5
22DB8
330
747D
100
AcDbEntity
  8
部品1
100
AcDbLine
 10
8049.24868480548
 20
1683.418795876614
 30
0.0
 11
8049.24868480548
 21
2007.418795876614
 31
0.0
  0
LINE
  5
22DB9
330
747D
100
AcDbEntity
  8
部品1
100
AcDbLine
 10
7923.248684805475
 20
1683.418795876614
 30
0.0
 11
7923.248684805479
 21
2007.418795876614
 31
0.0
  0
LINE
  5
22DBA
330
747D
100
AcDbEntity
  8
細線
 48
50.0
100
AcDbLine
 10
7764.84868480548
 20
1537.206310001992
 30
0.0
 11
7923.248684805471
 21
1695.606310001981
 31
0.0
  0
LINE
  5
22DBB
330
747D
100
AcDbEntity
  8
細線
 48
50.0
100
AcDbLine
 10
7764.84868480548
 20
1510.265541638785
 30
0.0
 11
7938.001939043316
 21
1683.418795876612
 31
0.0
  0
LINE
  5
22DBC
330
747D
100
AcDbEntity
  8
細線
 48
50.0
100
AcDbLine
 10
7764.84868480548
 20
1564.1470783652
 30
0.0
 11
7923.248684805471
 21
1722.547078365195
 31
0.0
  0
LINE
  5
22DBD
330
747D
100
AcDbEntity
  8
細線
 48
50.0
100
AcDbLine
 10
7693.528085948968
 20
1223.418795876614
 30
0.0
 11
8178.84868480548
 21
1708.739394733122
 31
0.0
  0
LINE
  5
22DBE
330
747D
100
AcDbEntity
  8
細線
 48
50.0
100
AcDbLine
 10
7666.587317585764
 20
1223.418795876614
 30
0.0
 11
8178.848684805481
 21
1735.680163096328
 31
0.0
  0
LINE
  5
22DBF
330
747D
100
AcDbEntity
  8
細線
 48
50.0
100
AcDbLine
 10
7639.646549222554
 20
1223.418795876614
 30
0.0
 11
8178.848684805478
 21
1762.62093145954
 31
0.0
  0
LINE
  5
22DC0
330
747D
100
AcDbEntity
  8
部品1
 48
50.0
100
AcDbLine
 10
8386.848684805482
 20
1223.418795876614
 30
0.0
 11
7556.848684805482
 21
1223.418795876614
 31
0.0
  0
LINE
  5
22DC1
330
747D
100
AcDbEntity
  8
部品1
 48
50.0
100
AcDbLine
 10
8386.848684805482
 20
1095.418795876614
 30
0.0
 11
7556.848684805482
 21
1095.418795876614
 31
0.0
  0
LINE
  5
22DC2
330
747D
100
AcDbEntity
  8
細線
 48
50.0
100
AcDbLine
 10
7636.848684805475
 20
1382.265541638785
 30
0.0
 11
7718.001939043309
 21
1463.418795876614
 31
0.0
  0
LINE
  5
22DC3
330
747D
100
AcDbEntity
  8
部品1
 48
50.0
100
AcDbLine
 10
7636.84868480548
 20
1223.418795876614
 30
0.0
 11
7636.84868480548
 21
1463.418795876614
 31
0.0
  0
LINE
  5
22DC4
330
747D
100
AcDbEntity
  8
細線
 48
50.0
100
AcDbLine
 10
7684.255434406998
 20
1095.418795876614
 30
0.0
 11
7718.552931038179
 21
1223.418795876614
 31
0.0
  0
LINE
  5
22DC5
330
747D
100
AcDbEntity
  8
部品1
 48
50.0
100
AcDbLine
 10
7556.848684805482
 20
1095.418795876614
 30
0.0
 11
7556.848684805482
 21
1223.418795876614
 31
0.0
  0
LINE
  5
22DC6
330
747D
100
AcDbEntity
  8
細線
 48
50.0
100
AcDbLine
 10
7605.367389459738
 20
1095.418795876612
 30
0.0
 11
7639.664886090923
 21
1223.418795876612
 31
0.0
  0
LINE
  5
22DC7
330
747D
100
AcDbEntity
  8
細線
 48
50.0
100
AcDbLine
 10
7763.143479354242
 20
1095.418795876612
 30
0.0
 11
7797.440975985423
 21
1223.418795876612
 31
0.0
  0
LINE
  5
22DC8
330
747D
100
AcDbEntity
  8
細線
 48
50.0
100
AcDbLine
 10
7611.798170078092
 20
1119.418795876614
 30
0.0
 11
7618.228950696437
 21
1095.418795876614
 31
0.0
  0
LINE
  5
22DC9
330
747D
100
AcDbEntity
  8
細線
 48
50.0
100
AcDbLine
 10
7769.574259972596
 20
1119.418795876614
 30
0.0
 11
7776.005040590942
 21
1095.418795876614
 31
0.0
  0
LINE
  5
22DCA
330
747D
100
AcDbEntity
  8
細線
 48
50.0
100
AcDbLine
 10
7690.686215025344
 20
1119.418795876614
 30
0.0
 11
7697.116995643689
 21
1095.418795876614
 31
0.0
  0
LINE
  5
22DCB
330
747D
100
AcDbEntity
  8
細線
 48
50.0
100
AcDbLine
 10
7556.84868480548
 20
1208.758716842394
 30
0.0
 11
7560.776841143675
 21
1223.418795876614
 31
0.0
  0
LINE
  5
22DCC
330
747D
100
AcDbEntity
  8
細線
 48
50.0
100
AcDbLine
 10
7633.23410547258
 20
1199.418795876614
 30
0.0
 11
7626.803324854233
 21
1223.418795876614
 31
0.0
  0
LINE
  5
22DCD
330
747D
100
AcDbEntity
  8
細線
 48
50.0
100
AcDbLine
 10
7791.010195367086
 20
1199.418795876614
 30
0.0
 11
7784.579414748738
 21
1223.418795876614
 31
0.0
  0
LINE
  5
22DCE
330
747D
100
AcDbEntity
  8
細線
 48
50.0
100
AcDbLine
 10
7712.122150419833
 20
1199.418795876614
 30
0.0
 11
7705.691369801487
 21
1223.418795876614
 31
0.0
  0
LWPOLYLINE
  5
22DCF
330
747D
100
AcDbEntity
  8
部品1
 48
50.0
100
AcDbPolyline
 90
        2
 70
     0
 43
8.0
 10
7350.708782972525
 20
1767.418795876615
 10
7764.84868480548
 20
1767.418795876615
  0
LINE
  5
22DD0
330
747D
100
AcDbEntity
  8
細線
 48
50.0
100
AcDbLine
 10
7636.848684805475
 20
1409.206310001989
 30
0.0
 11
7691.061170680105
 21
1463.418795876614
 31
0.0
  0
LINE
  5
22DD1
330
747D
100
AcDbEntity
  8
部品1
 48
50.0
100
AcDbLine
 10
7636.84868480548
 20
1463.418795876614
 30
0.0
 11
7764.84868480548
 21
1463.418795876614
 31
0.0
  0
LINE
  5
22DD2
330
747D
100
AcDbEntity
  8
細線
 48
50.0
100
AcDbLine
 10
7636.848684805475
 20
1436.1470783652
 30
0.0
 11
7664.120402316894
 21
1463.418795876614
 31
0.0
  0
LINE
  5
22DD3
330
747D
100
AcDbEntity
  8
細線
 48
50.0
100
AcDbLine
 10
7882.113464491424
 20
1223.418795876614
 30
0.0
 11
8178.84868480548
 21
1520.154016190667
 31
0.0
  0
LINE
  5
22DD4
330
747D
100
AcDbEntity
  8
細線
 48
50.0
100
AcDbLine
 10
7909.054232854629
 20
1223.418795876614
 30
0.0
 11
8178.84868480548
 21
1493.213247827472
 31
0.0
  0
LINE
  5
22DD5
330
747D
100
AcDbEntity
  8
細線
 48
50.0
100
AcDbLine
 10
7855.172696128214
 20
1223.418795876614
 30
0.0
 11
8178.848684805478
 21
1547.09478455388
 31
0.0
  0
LINE
  5
22DD6
330
747D
100
AcDbEntity
  8
細線
 48
50.0
100
AcDbLine
 10
8070.698843033873
 20
1223.418795876614
 30
0.0
 11
8306.848684805478
 21
1459.568637648223
 31
0.0
  0
LINE
  5
22DD7
330
747D
100
AcDbEntity
  8
細線
 48
50.0
100
AcDbLine
 10
8097.639611397083
 20
1223.418795876614
 30
0.0
 11
8306.848684805478
 21
1432.627869285007
 31
0.0
  0
LINE
  5
22DD8
330
747D
100
AcDbEntity
  8
部品1
 48
50.0
100
AcDbLine
 10
8306.848684805478
 20
1463.418795876614
 30
0.0
 11
8306.848684805478
 21
1223.418795876614
 31
0.0
  0
LINE
  5
22DD9
330
747D
100
AcDbEntity
  8
細線
 48
50.0
100
AcDbLine
 10
8124.580379760288
 20
1223.418795876614
 30
0.0
 11
8306.848684805478
 21
1405.68710092181
 31
0.0
  0
LINE
  5
22DDA
330
747D
100
AcDbEntity
  8
細線
 48
50.0
100
AcDbLine
 10
7999.80761419599
 20
1095.418795876612
 30
0.0
 11
8034.105110827171
 21
1223.418795876612
 31
0.0
  0
LINE
  5
22DDB
330
747D
100
AcDbEntity
  8
細線
 48
50.0
100
AcDbLine
 10
7842.031524301495
 20
1095.418795876614
 30
0.0
 11
7876.329020932677
 21
1223.418795876614
 31
0.0
  0
LINE
  5
22DDC
330
747D
100
AcDbEntity
  8
細線
 48
50.0
100
AcDbLine
 10
7920.919569248741
 20
1095.418795876614
 30
0.0
 11
7955.217065879925
 21
1223.418795876612
 31
0.0
  0
LINE
  5
22DDD
330
747D
100
AcDbEntity
  8
細線
 48
50.0
100
AcDbLine
 10
8078.695659143232
 20
1095.418795876614
 30
0.0
 11
8112.993155774418
 21
1223.418795876612
 31
0.0
  0
LINE
  5
22DDE
330
747D
100
AcDbEntity
  8
細線
 48
50.0
100
AcDbLine
 10
7927.350349867094
 20
1119.418795876614
 30
0.0
 11
7933.781130485441
 21
1095.418795876614
 31
0.0
  0
LINE
  5
22DDF
330
747D
100
AcDbEntity
  8
細線
 48
50.0
100
AcDbLine
 10
7848.462304919848
 20
1119.418795876614
 30
0.0
 11
7854.893085538195
 21
1095.418795876614
 31
0.0
  0
LINE
  5
22DE0
330
747D
100
AcDbEntity
  8
細線
 48
50.0
100
AcDbLine
 10
8085.126439761586
 20
1119.418795876614
 30
0.0
 11
8091.557220379931
 21
1095.418795876614
 31
0.0
  0
LINE
  5
22DE1
330
747D
100
AcDbEntity
  8
細線
 48
50.0
100
AcDbLine
 10
8006.238394814339
 20
1119.418795876614
 30
0.0
 11
8012.669175432685
 21
1095.418795876614
 31
0.0
  0
LINE
  5
22DE2
330
747D
100
AcDbEntity
  8
細線
 48
50.0
100
AcDbLine
 10
7948.786285261583
 20
1199.418795876614
 30
0.0
 11
7942.355504643235
 21
1223.418795876614
 31
0.0
  0
LINE
  5
22DE3
330
747D
100
AcDbEntity
  8
細線
 48
50.0
100
AcDbLine
 10
7869.898240314336
 20
1199.418795876614
 30
0.0
 11
7863.467459695988
 21
1223.418795876614
 31
0.0
  0
LINE
  5
22DE4
330
747D
100
AcDbEntity
  8
細線
 48
50.0
100
AcDbLine
 10
8027.67433020883
 20
1199.418795876614
 30
0.0
 11
8021.243549590483
 21
1223.418795876614
 31
0.0
  0
LINE
  5
22DE5
330
747D
100
AcDbEntity
  8
細線
 48
50.0
100
AcDbLine
 10
8106.562375156075
 20
1199.418795876614
 30
0.0
 11
8100.131594537728
 21
1223.418795876614
 31
0.0
  0
LINE
  5
22DE6
330
747D
100
AcDbEntity
  8
部品1
 48
50.0
100
AcDbLine
 10
8386.848684805482
 20
1223.418795876614
 30
0.0
 11
8386.848684805482
 21
1095.418795876614
 31
0.0
  0
LINE
  5
22DE7
330
747D
100
AcDbEntity
  8
細線
 48
50.0
100
AcDbLine
 10
8315.359793984974
 20
1095.418795876612
 30
0.0
 11
8349.657290616161
 21
1223.418795876611
 31
0.0
  0
LINE
  5
22DE8
330
747D
100
AcDbEntity
  8
細線
 48
50.0
100
AcDbLine
 10
8157.583704090482
 20
1095.418795876612
 30
0.0
 11
8191.881200721654
 21
1223.418795876614
 31
0.0
  0
LINE
  5
22DE9
330
747D
100
AcDbEntity
  8
細線
 48
50.0
100
AcDbLine
 10
8236.471749037731
 20
1095.418795876611
 30
0.0
 11
8270.769245668914
 21
1223.418795876611
 31
0.0
  0
LINE
  5
22DEA
330
747D
100
AcDbEntity
  8
細線
 48
50.0
100
AcDbLine
 10
8164.014484708831
 20
1119.418795876614
 30
0.0
 11
8170.445265327186
 21
1095.418795876614
 31
0.0
  0
LINE
  5
22DEB
330
747D
100
AcDbEntity
  8
細線
 48
50.0
100
AcDbLine
 10
8242.902529656079
 20
1119.418795876612
 30
0.0
 11
8249.333310274426
 21
1095.418795876612
 31
0.0
  0
LINE
  5
22DEC
330
747D
100
AcDbEntity
  8
細線
 48
50.0
100
AcDbLine
 10
8321.790574603324
 20
1119.418795876612
 30
0.0
 11
8328.221355221675
 21
1095.418795876612
 31
0.0
  0
LINE
  5
22DED
330
747D
100
AcDbEntity
  8
細線
 48
50.0
100
AcDbLine
 10
8185.450420103313
 20
1199.418795876614
 30
0.0
 11
8179.019639484966
 21
1223.418795876614
 31
0.0
  0
LINE
  5
22DEE
330
747D
100
AcDbEntity
  8
細線
 48
50.0
100
AcDbLine
 10
8264.338465050569
 20
1199.418795876612
 30
0.0
 11
8257.907684432224
 21
1223.418795876612
 31
0.0
  0
LINE
  5
22DEF
330
747D
100
AcDbEntity
  8
細線
 48
50.0
100
AcDbLine
 10
8343.226509997814
 20
1199.418795876612
 30
0.0
 11
8336.795729379467
 21
1223.418795876612
 31
0.0
  0
LINE
  5
22DF0
330
747D
100
AcDbEntity
  8
部品1
100
AcDbLine
 10
8049.24868480548
 20
1683.418795876612
 30
0.0
 11
7923.248684805475
 21
1683.418795876612
 31
0.0
  0
LINE
  5
22DF1
330
747D
100
AcDbEntity
  8
部品1
100
AcDbLine
 10
8031.248684805481
 20
1764.418795876614
 30
0.0
 11
8031.248684805481
 21
1782.418795876614
 31
0.0
  0
ARC
  5
22DF2
330
747D
100
AcDbEntity
  8
部品1
100
AcDbCircle
 10
7995.24868480548
 20
1782.418795876614
 30
0.0
 40
18.0
100
AcDbArc
 50
180.0
 51
270.0
  0
LINE
  5
22DF3
330
747D
100
AcDbEntity
  8
部品1
100
AcDbLine
 10
7995.24868480548
 20
1764.418795876614
 30
0.0
 11
8031.248684805481
 21
1764.418795876614
 31
0.0
  0
LINE
  5
22DF4
330
747D
100
AcDbEntity
  8
部品1
100
AcDbLine
 10
7995.24868480548
 20
1782.418795876614
 30
0.0
 11
8031.248684805481
 21
1782.418795876614
 31
0.0
  0
LINE
  5
22DF5
330
747D
100
AcDbEntity
  8
部品1
 48
50.0
100
AcDbLine
 10
8178.84868480548
 20
1463.418795876614
 30
0.0
 11
8306.848684805478
 21
1463.418795876614
 31
0.0
  0
LINE
  5
22DF6
330
747D
100
AcDbEntity
  8
部品1
100
AcDbLine
 10
7784.648684805481
 20
2097.418795876615
 30
0.0
 11
7822.448684805481
 21
2097.418795876615
 31
0.0
  0
LINE
  5
22DF7
330
747D
100
AcDbEntity
  8
細線
 48
50.0
100
AcDbLine
 10
7764.84868480548
 20
1968.258603813312
 30
0.0
 11
7804.008876868785
 21
2007.418795876614
 31
0.0
  0
LINE
  5
22DF8
330
747D
100
AcDbEntity
  8
細線
 48
50.0
100
AcDbLine
 10
7764.84868480548
 20
1941.317835450104
 30
0.0
 11
7830.94964523199
 21
2007.418795876614
 31
0.0
  0
LINE
  5
22DF9
330
747D
100
AcDbEntity
  8
部品1
 48
50.0
100
AcDbLine
 10
7764.84868480548
 20
2007.418795876614
 30
0.0
 11
8178.848684805481
 21
2007.418795876614
 31
0.0
  0
TEXT
  5
22DFA
330
747D
100
AcDbEntity
  8
部品1
 48
50.0
100
AcDbText
 10
7338.402588225989
 20
2337.97931697709
 30
0.0
 40
80.0
  1
※(別売)
  7
STYLE2
100
AcDbText
  0
LINE
  5
22DFB
330
747D
100
AcDbEntity
  8
部品1
100
AcDbLine
 10
7781.948684805481
 20
2086.618795876614
 30
0.0
 11
7781.948684805481
 21
2094.718795876614
 31
0.0
  0
ARC
  5
22DFC
330
747D
100
AcDbEntity
  8
部品1
100
AcDbCircle
 10
7784.648684805481
 20
2094.718795876614
 30
0.0
 40
2.7
100
AcDbArc
 50
90.0
 51
180.0
  0
ARC
  5
22DFD
330
747D
100
AcDbEntity
  8
部品1
100
AcDbCircle
 10
7773.84868480548
 20
2081.810699579322
 30
0.0
 40
2.7
100
AcDbArc
 50
104.0362434679067
 51
180.0
  0
LINE
  5
22DFE
330
747D
100
AcDbEntity
  8
部品1
100
AcDbLine
 10
7773.193838617881
 20
2084.430084329714
 30
0.0
 11
7781.948684805481
 21
2086.618795876614
 31
0.0
  0
ARC
  5
22DFF
330
747D
100
AcDbEntity
  8
部品1
100
AcDbCircle
 10
7773.84868480548
 20
2019.678795876615
 30
0.0
 40
2.7
100
AcDbArc
 50
180.0
 51
270.0
  0
LINE
  5
22E00
330
747D
100
AcDbEntity
  8
細線
 48
50.0
100
AcDbLine
 10
7764.84868480548
 20
1995.199372176519
 30
0.0
 11
7777.068108505575
 21
2007.418795876614
 31
0.0
  0
LINE
  5
22E01
330
747D
100
AcDbEntity
  8
部品1
100
AcDbLine
 10
7773.84868480548
 20
2016.978795876615
 30
0.0
 11
7785.548684805475
 21
2016.978795876615
 31
0.0
  0
LINE
  5
22E02
330
747D
100
AcDbEntity
  8
部品1
100
AcDbLine
 10
7771.148684805481
 20
2019.678795876615
 30
0.0
 11
7771.148684805481
 21
2081.810699579322
 31
0.0
  0
LINE
  5
22E03
330
747D
100
AcDbEntity
  8
部品1
100
AcDbLine
 10
7929.808684805474
 20
2016.978795876615
 30
0.0
 11
8131.148684805474
 21
2016.978795876615
 31
0.0
  0
LINE
  5
22E04
330
747D
100
AcDbEntity
  8
部品1
100
AcDbLine
 10
7822.448684805481
 20
2097.418795876615
 30
0.0
 11
7822.448684805481
 21
2105.518795876615
 31
0.0
  0
LINE
  5
22E05
330
747D
100
AcDbEntity
  8
部品1
100
AcDbLine
 10
7872.84868480548
 20
2116.318795876611
 30
0.0
 11
7872.84868480548
 21
2065.018795876615
 31
0.0
  0
LINE
  5
22E06
330
747D
100
AcDbEntity
  8
部品1
100
AcDbLine
 10
7896.248684805479
 20
2076.978795876615
 30
0.0
 11
7924.408684805479
 21
2076.978795876615
 31
0.0
  0
ARC
  5
22E07
330
747D
100
AcDbEntity
  8
部品1
100
AcDbCircle
 10
7896.248684805479
 20
2074.278795876615
 30
0.0
 40
2.7
100
AcDbArc
 50
90.0
 51
180.0
  0
ARC
  5
22E08
330
747D
100
AcDbEntity
  8
部品1
100
AcDbCircle
 10
7924.408684805479
 20
2074.278795876615
 30
0.0
 40
2.7
100
AcDbArc
 50
0.0
 51
90.0
  0
LINE
  5
22E09
330
747D
100
AcDbEntity
  8
部品1
100
AcDbLine
 10
7915.148684805481
 20
2062.318795876614
 30
0.0
 11
7915.148684805481
 21
2019.678795876615
 31
0.0
  0
LINE
  5
22E0A
330
747D
100
AcDbEntity
  8
部品1
100
AcDbLine
 10
7900.748684805479
 20
2016.978795876615
 30
0.0
 11
7912.44868480548
 21
2016.978795876615
 31
0.0
  0
ARC
  5
22E0B
330
747D
100
AcDbEntity
  8
部品1
100
AcDbCircle
 10
7929.808684805474
 20
2019.678795876615
 30
0.0
 40
2.7
100
AcDbArc
 50
180.0
 51
270.0
  0
ARC
  5
22E0C
330
747D
100
AcDbEntity
  8
部品1
100
AcDbCircle
 10
7912.44868480548
 20
2019.678795876615
 30
0.0
 40
2.7
100
AcDbArc
 50
270.0
 51
0.0
  0
LINE
  5
22E0D
330
747D
100
AcDbEntity
  8
部品1
100
AcDbLine
 10
7872.84868480548
 20
2065.018795876615
 30
0.0
 11
7912.44868480548
 21
2065.018795876615
 31
0.0
  0
ARC
  5
22E0E
330
747D
100
AcDbEntity
  8
部品1
100
AcDbCircle
 10
7912.44868480548
 20
2062.318795876614
 30
0.0
 40
2.7
100
AcDbArc
 50
0.0
 51
90.0
  0
LINE
  5
22E0F
330
747D
100
AcDbEntity
  8
部品1
100
AcDbLine
 10
7927.108684805481
 20
2074.278795876615
 30
0.0
 11
7927.108684805476
 21
2019.678795876615
 31
0.0
  0
LINE
  5
22E10
330
747D
100
AcDbEntity
  8
部品1
100
AcDbLine
 10
7893.548684805479
 20
2074.278795876615
 30
0.0
 11
7893.548684805479
 21
2057.178795876614
 31
0.0
  0
LINE
  5
22E11
330
747D
100
AcDbEntity
  8
細線
100
AcDbLine
 10
7991.648684805482
 20
2016.978795876615
 30
0.0
 11
7991.648684805482
 21
2060.178795876614
 31
0.0
  0
LINE
  5
22E12
330
747D
100
AcDbEntity
  8
細線
100
AcDbLine
 10
7980.848684805481
 20
2016.978795876615
 30
0.0
 11
7980.848684805479
 21
2060.178795876614
 31
0.0
  0
LINE
  5
22E13
330
747D
100
AcDbEntity
  8
部品1
100
AcDbLine
 10
7977.24868480548
 20
2056.578795876615
 30
0.0
 11
7995.24868480548
 21
2056.578795876615
 31
0.0
  0
LINE
  5
22E14
330
747D
100
AcDbEntity
  8
部品1
100
AcDbLine
 10
7980.848684805479
 20
2060.178795876614
 30
0.0
 11
7991.648684805482
 21
2060.178795876614
 31
0.0
  0
ELLIPSE
  5
22E15
330
747D
100
AcDbEntity
  8
部品1
 48
50.0
100
AcDbEllipse
 10
7986.24868480548
 20
2276.542084320887
 30
0.0
 11
40.0
 21
0.0
 31
0.0
210
0.0
220
0.0
230
1.0
 40
0.4
 41
0.0
 42
6.283185307179586
  0
ELLIPSE
  5
22E16
330
747D
100
AcDbEntity
  8
部品1
 48
50.0
100
AcDbEllipse
 10
7986.24868480548
 20
2266.942084320887
 30
0.0
 11
40.0
 21
0.0
 31
0.0
210
0.0
220
0.0
230
1.0
 40
0.4
 41
3.141592653589793
 42
6.283185307179586
  0
LINE
  5
22E17
330
747D
100
AcDbEntity
  8
部品1
 48
50.0
100
AcDbLine
 10
7946.248684805479
 20
2276.542084320887
 30
0.0
 11
7946.248684805479
 21
2266.942084320886
 31
0.0
  0
ARC
  5
22E18
330
747D
100
AcDbEntity
  8
部品1
100
AcDbCircle
 10
7870.148684805482
 20
2116.318795876611
 30
0.0
 40
2.7
100
AcDbArc
 50
0.0
 51
90.0
  0
ARC
  5
22E19
330
747D
100
AcDbEntity
  8
部品1
100
AcDbCircle
 10
7827.84868480548
 20
2116.318795876614
 30
0.0
 40
2.7
100
AcDbArc
 50
90.0
 51
180.0
  0
LINE
  5
22E1A
330
747D
100
AcDbEntity
  8
部品1
100
AcDbLine
 10
7825.148684805481
 20
2108.218795876615
 30
0.0
 11
7825.148684805481
 21
2108.218795876615
 31
0.0
  0
LINE
  5
22E1B
330
747D
100
AcDbEntity
  8
部品1
100
AcDbLine
 10
7825.148684805481
 20
2108.218795876615
 30
0.0
 11
7825.148684805481
 21
2116.318795876614
 31
0.0
  0
LINE
  5
22E1C
330
747D
100
AcDbEntity
  8
部品1
100
AcDbLine
 10
7827.84868480548
 20
2119.018795876614
 30
0.0
 11
7870.148684805482
 21
2119.018795876611
 31
0.0
  0
ARC
  5
22E1D
330
747D
100
AcDbEntity
  8
部品1
100
AcDbCircle
 10
7825.148684805481
 20
2105.518795876615
 30
0.0
 40
2.7
100
AcDbArc
 50
90.0
 51
180.0
  0
ELLIPSE
  5
22E1E
330
747D
100
AcDbEntity
  8
部品1
 48
50.0
100
AcDbEllipse
 10
7986.24868480548
 20
2276.542084320887
 30
0.0
 11
18.4
 21
0.0
 31
0.0
210
0.0
220
0.0
230
1.0
 40
0.3478260869565217
 41
0.0
 42
6.283185307179586
  0
LINE
  5
22E1F
330
747D
100
AcDbEntity
  8
部品1
 48
50.0
100
AcDbLine
 10
8026.248684805478
 20
2266.942084320886
 30
0.0
 11
8026.248684805478
 21
2276.542084320887
 31
0.0
  0
LINE
  5
22E20
330
747D
100
AcDbEntity
  8
部品1
 48
50.0
100
AcDbLine
 10
7954.248684805479
 20
2398.294076985757
 30
0.0
 11
7970.24868480548
 21
2390.294076985757
 31
0.0
  0
LINE
  5
22E21
330
747D
100
AcDbEntity
  8
部品1
 48
50.0
100
AcDbLine
 10
7954.248684805479
 20
2366.294076985757
 30
0.0
 11
7970.24868480548
 21
2358.294076985757
 31
0.0
  0
LINE
  5
22E22
330
747D
100
AcDbEntity
  8
部品1
 48
50.0
100
AcDbLine
 10
7954.248684805479
 20
2398.294076985757
 30
0.0
 11
7970.24868480548
 21
2406.294076985757
 31
0.0
  0
LINE
  5
22E23
330
747D
100
AcDbEntity
  8
部品1
 48
50.0
100
AcDbLine
 10
7954.248684805479
 20
2366.294076985757
 30
0.0
 11
7954.248684805479
 21
2398.294076985757
 31
0.0
  0
LINE
  5
22E24
330
747D
100
AcDbEntity
  8
部品1
 48
50.0
100
AcDbLine
 10
7970.24868480548
 20
2406.294076985757
 30
0.0
 11
8002.248684805479
 21
2406.294076985757
 31
0.0
  0
ELLIPSE
  5
22E25
330
747D
100
AcDbEntity
  8
細線
 48
50.0
100
AcDbEllipse
 10
7986.24868480548
 20
2398.294076985757
 30
0.0
 11
14.76670786606846
 21
0.0
 31
0.0
210
0.0
220
0.0
230
1.0
 40
0.2071254069489396
 41
0.0
 42
6.283185307179586
  0
LINE
  5
22E26
330
747D
100
AcDbEntity
  8
部品1
 48
50.0
100
AcDbLine
 10
7970.24868480548
 20
2358.294076985757
 30
0.0
 11
8002.248684805479
 21
2358.294076985757
 31
0.0
  0
LINE
  5
22E27
330
747D
100
AcDbEntity
  8
部品1
 48
50.0
100
AcDbLine
 10
8002.248684805479
 20
2358.294076985757
 30
0.0
 11
8018.248684805479
 21
2366.294076985757
 31
0.0
  0
LINE
  5
22E28
330
747D
100
AcDbEntity
  8
部品1
 48
50.0
100
AcDbLine
 10
7970.24868480548
 20
2390.294076985757
 30
0.0
 11
8002.248684805479
 21
2390.294076985757
 31
0.0
  0
LINE
  5
22E29
330
747D
100
AcDbEntity
  8
部品1
 48
50.0
100
AcDbLine
 10
8002.248684805479
 20
2390.294076985757
 30
0.0
 11
8018.248684805479
 21
2398.294076985757
 31
0.0
  0
LINE
  5
22E2A
330
747D
100
AcDbEntity
  8
細線
 48
50.0
100
AcDbLine
 10
8002.248684805479
 20
2358.294076985757
 30
0.0
 11
8002.248684805479
 21
2390.294076985757
 31
0.0
  0
LINE
  5
22E2B
330
747D
100
AcDbEntity
  8
部品1
 48
50.0
100
AcDbLine
 10
8018.248684805479
 20
2366.294076985757
 30
0.0
 11
8018.248684805479
 21
2398.294076985757
 31
0.0
  0
LINE
  5
22E2C
330
747D
100
AcDbEntity
  8
細線
 48
50.0
100
AcDbLine
 10
7970.24868480548
 20
2358.294076985757
 30
0.0
 11
7970.24868480548
 21
2390.294076985757
 31
0.0
  0
LINE
  5
22E2D
330
747D
100
AcDbEntity
  8
部品1
 48
50.0
100
AcDbLine
 10
8002.248684805479
 20
2406.294076985757
 30
0.0
 11
8018.248684805479
 21
2398.294076985757
 31
0.0
  0
TEXT
  5
22E2E
330
747D
100
AcDbEntity
  8
部品1
100
AcDbText
 10
7687.020933997409
 20
3148.838483702031
 30
0.0
 40
120.0
  1
基礎詳細
  7
STYLE2
100
AcDbText
  0
LINE
  5
22E2F
330
747D
100
AcDbEntity
  8
部品1
100
AcDbLine
 10
11065.12611820527
 20
364.083446068812
 30
0.0
 11
11065.12611820527
 21
3328.390415653459
 31
0.0
  0
LINE
  5
22E30
330
747D
100
AcDbEntity
  8
細線
100
AcDbLine
 10
10073.01795078502
 20
1767.418795876614
 30
0.0
 11
9878.384617108238
 21
1962.052129553397
 31
0.0
  0
LINE
  5
22E31
330
747D
100
AcDbEntity
  8
部品1
100
AcDbLine
 10
9878.384617108238
 20
2007.418795876614
 30
0.0
 11
10358.38461710824
 21
2007.418795876614
 31
0.0
  0
LINE
  5
22E32
330
747D
100
AcDbEntity
  8
細線
 48
50.0
100
AcDbLine
 10
10012.45550155149
 20
1547.719880223264
 30
0.0
 11
10046.75299818268
 21
1675.719880223263
 31
0.0
  0
LINE
  5
22E33
330
747D
100
AcDbEntity
  8
部品1
100
AcDbLine
 10
9758.384617108237
 20
1547.719880223261
 30
0.0
 11
10478.38461710824
 21
1547.719880223264
 31
0.0
  0
LINE
  5
22E34
330
747D
100
AcDbEntity
  8
部品1
100
AcDbLine
 10
9758.384617108237
 20
1675.719880223264
 30
0.0
 11
10478.38461710824
 21
1675.719880223267
 31
0.0
  0
LINE
  5
22E35
330
747D
100
AcDbEntity
  8
細線
100
AcDbLine
 10
9939.30326260148
 20
1675.719880223264
 30
0.0
 11
10031.00217825482
 21
1767.418795876614
 31
0.0
  0
LWPOLYLINE
  5
22E36
330
747D
100
AcDbEntity
  8
部品1
 48
50.0
100
AcDbPolyline
 90
        2
 70
     0
 43
12.0
 10
9493.773355007849
 20
1767.418795876614
 10
10694.86565813947
 20
1767.418795876614
  0
LINE
  5
22E37
330
747D
100
AcDbEntity
  8
細線
100
AcDbLine
 10
10022.10626253959
 20
1767.418795876614
 30
0.0
 11
9878.384617108238
 21
1911.140441307967
 31
0.0
  0
TEXT
  5
22E38
330
747D
100
AcDbEntity
  8
部品1
 48
50.0
100
AcDbText
 10
9114.266530349734
 20
1500.619055239305
 30
0.0
 40
80.0
  1
ボルトの出
 50
90.0
  7
STYLE2
100
AcDbText
  0
LINE
  5
22E39
330
747D
100
AcDbEntity
  8
部品1
100
AcDbLine
 10
9878.384617108238
 20
1767.418795876614
 30
0.0
 11
9878.384617108238
 21
2007.418795876614
 31
0.0
  0
LINE
  5
22E3A
330
747D
100
AcDbEntity
  8
細線
 48
50.0
100
AcDbLine
 10
9854.679411656999
 20
1547.719880223263
 30
0.0
 11
9888.97690828818
 21
1675.719880223263
 31
0.0
  0
LINE
  5
22E3B
330
747D
100
AcDbEntity
  8
細線
 48
50.0
100
AcDbLine
 10
9933.567456604247
 20
1547.719880223264
 30
0.0
 11
9967.864953235434
 21
1675.719880223264
 31
0.0
  0
LINE
  5
22E3C
330
747D
100
AcDbEntity
  8
細線
 48
50.0
100
AcDbLine
 10
9775.79136670975
 20
1547.719880223264
 30
0.0
 11
9810.088863340935
 21
1675.719880223264
 31
0.0
  0
LINE
  5
22E3D
330
747D
100
AcDbEntity
  8
部品1
100
AcDbLine
 10
9758.384617108237
 20
1547.719880223261
 30
0.0
 11
9758.384617108237
 21
1767.418795876614
 31
0.0
  0
LINE
  5
22E3E
330
747D
100
AcDbEntity
  8
細線
 48
50.0
100
AcDbLine
 10
9861.110192275347
 20
1571.719880223264
 30
0.0
 11
9867.540972893699
 21
1547.719880223264
 31
0.0
  0
LINE
  5
22E3F
330
747D
100
AcDbEntity
  8
細線
 48
50.0
100
AcDbLine
 10
9782.222147328099
 20
1571.719880223264
 30
0.0
 11
9788.652927946445
 21
1547.719880223264
 31
0.0
  0
LINE
  5
22E40
330
747D
100
AcDbEntity
  8
細線
 48
50.0
100
AcDbLine
 10
9939.998237222601
 20
1571.719880223264
 30
0.0
 11
9946.429017840948
 21
1547.719880223264
 31
0.0
  0
LINE
  5
22E41
330
747D
100
AcDbEntity
  8
細線
 48
50.0
100
AcDbLine
 10
10018.88628216984
 20
1571.719880223264
 30
0.0
 11
10025.31706278819
 21
1547.719880223264
 31
0.0
  0
LINE
  5
22E42
330
747D
100
AcDbEntity
  8
細線
 48
50.0
100
AcDbLine
 10
9803.658082722588
 20
1651.719880223264
 30
0.0
 11
9797.227302104239
 21
1675.719880223264
 31
0.0
  0
LINE
  5
22E43
330
747D
100
AcDbEntity
  8
細線
 48
50.0
100
AcDbLine
 10
9961.434172617089
 20
1651.719880223264
 30
0.0
 11
9955.003391998744
 21
1675.719880223264
 31
0.0
  0
LINE
  5
22E44
330
747D
100
AcDbEntity
  8
細線
 48
50.0
100
AcDbLine
 10
9882.546127669838
 20
1651.719880223264
 30
0.0
 11
9876.115347051491
 21
1675.719880223264
 31
0.0
  0
LINE
  5
22E45
330
747D
100
AcDbEntity
  8
細線
100
AcDbLine
 10
9871.421011607566
 20
1675.719880223264
 30
0.0
 11
9963.119927260915
 21
1767.418795876614
 31
0.0
  0
LINE
  5
22E46
330
747D
100
AcDbEntity
  8
細線
100
AcDbLine
 10
9905.362137104523
 20
1675.719880223264
 30
0.0
 11
9997.061052757869
 21
1767.418795876614
 31
0.0
  0
LINE
  5
22E47
330
747D
100
AcDbEntity
  8
細線
100
AcDbLine
 10
10293.63526651522
 20
1767.418795876614
 30
0.0
 11
10053.63526651522
 21
2007.418795876614
 31
0.0
  0
LINE
  5
22E48
330
747D
100
AcDbEntity
  8
細線
100
AcDbLine
 10
10344.54695476065
 20
1767.418795876616
 30
0.0
 11
10104.54695476066
 21
2007.418795876614
 31
0.0
  0
LINE
  5
22E49
330
747D
100
AcDbEntity
  8
部品1
100
AcDbLine
 10
10358.38461710824
 20
2007.418795876614
 30
0.0
 11
10358.38461710824
 21
1767.418795876614
 31
0.0
  0
LINE
  5
22E4A
330
747D
100
AcDbEntity
  8
細線
 48
50.0
100
AcDbLine
 10
10328.00768134048
 20
1547.719880223261
 30
0.0
 11
10362.30517797167
 21
1675.719880223261
 31
0.0
  0
LINE
  5
22E4B
330
747D
100
AcDbEntity
  8
細線
100
AcDbLine
 10
10299.30326260148
 20
1675.719880223266
 30
0.0
 11
10391.00217825482
 21
1767.418795876614
 31
0.0
  0
LINE
  5
22E4C
330
747D
100
AcDbEntity
  8
細線
 48
50.0
100
AcDbLine
 10
10249.11963639323
 20
1547.719880223263
 30
0.0
 11
10283.41713302441
 21
1675.719880223264
 31
0.0
  0
LINE
  5
22E4D
330
747D
100
AcDbEntity
  8
細線
 48
50.0
100
AcDbLine
 10
10091.34354649874
 20
1547.719880223263
 30
0.0
 11
10125.64104312992
 21
1675.719880223263
 31
0.0
  0
LINE
  5
22E4E
330
747D
100
AcDbEntity
  8
細線
 48
50.0
100
AcDbLine
 10
10170.23159144599
 20
1547.719880223264
 30
0.0
 11
10204.52908807717
 21
1675.719880223263
 31
0.0
  0
LINE
  5
22E4F
330
747D
100
AcDbEntity
  8
細線
 48
50.0
100
AcDbLine
 10
10176.66237206434
 20
1571.719880223264
 30
0.0
 11
10183.09315268268
 21
1547.719880223264
 31
0.0
  0
LINE
  5
22E50
330
747D
100
AcDbEntity
  8
細線
 48
50.0
100
AcDbLine
 10
10097.77432711709
 20
1571.719880223264
 30
0.0
 11
10104.20510773544
 21
1547.719880223264
 31
0.0
  0
LINE
  5
22E51
330
747D
100
AcDbEntity
  8
細線
 48
50.0
100
AcDbLine
 10
10255.55041701158
 20
1571.719880223264
 30
0.0
 11
10261.98119762994
 21
1547.719880223264
 31
0.0
  0
LINE
  5
22E52
330
747D
100
AcDbEntity
  8
細線
 48
50.0
100
AcDbLine
 10
10334.43846195883
 20
1571.719880223263
 30
0.0
 11
10340.86924257718
 21
1547.719880223263
 31
0.0
  0
LINE
  5
22E53
330
747D
100
AcDbEntity
  8
細線
 48
50.0
100
AcDbLine
 10
10198.09830745883
 20
1651.719880223264
 30
0.0
 11
10191.66752684048
 21
1675.719880223264
 31
0.0
  0
LINE
  5
22E54
330
747D
100
AcDbEntity
  8
細線
 48
50.0
100
AcDbLine
 10
10119.21026251158
 20
1651.719880223264
 30
0.0
 11
10112.77948189324
 21
1675.719880223264
 31
0.0
  0
LINE
  5
22E55
330
747D
100
AcDbEntity
  8
細線
 48
50.0
100
AcDbLine
 10
10040.32221756433
 20
1651.719880223264
 30
0.0
 11
10033.89143694599
 21
1675.719880223264
 31
0.0
  0
LINE
  5
22E56
330
747D
100
AcDbEntity
  8
細線
100
AcDbLine
 10
10265.36213710453
 20
1675.719880223266
 30
0.0
 11
10357.06105275786
 21
1767.418795876614
 31
0.0
  0
LINE
  5
22E57
330
747D
100
AcDbEntity
  8
細線
 48
50.0
100
AcDbLine
 10
10276.98635240607
 20
1651.719880223264
 30
0.0
 11
10270.55557178772
 21
1675.719880223264
 31
0.0
  0
LINE
  5
22E58
330
747D
100
AcDbEntity
  8
細線
100
AcDbLine
 10
10231.42101160757
 20
1675.719880223266
 30
0.0
 11
10323.11992726091
 21
1767.418795876614
 31
0.0
  0
LINE
  5
22E59
330
747D
100
AcDbEntity
  8
細線
 48
50.0
100
AcDbLine
 10
10355.87439735332
 20
1651.719880223263
 30
0.0
 11
10349.44361673498
 21
1675.719880223263
 31
0.0
  0
LINE
  5
22E5A
330
747D
100
AcDbEntity
  8
細線
 48
50.0
100
AcDbLine
 10
10406.89572628773
 20
1547.719880223263
 30
0.0
 11
10441.19322291891
 21
1675.719880223261
 31
0.0
  0
LINE
  5
22E5B
330
747D
100
AcDbEntity
  8
部品1
100
AcDbLine
 10
10478.38461710824
 20
1767.418795876614
 30
0.0
 11
10478.38461710824
 21
1547.719880223264
 31
0.0
  0
LINE
  5
22E5C
330
747D
100
AcDbEntity
  8
細線
 48
50.0
100
AcDbLine
 10
10413.32650690608
 20
1571.719880223263
 30
0.0
 11
10419.75728752443
 21
1547.719880223263
 31
0.0
  0
LINE
  5
22E5D
330
747D
100
AcDbEntity
  8
細線
 48
50.0
100
AcDbLine
 10
10434.76244230057
 20
1651.719880223263
 30
0.0
 11
10428.33166168222
 21
1675.719880223263
 31
0.0
  0
LEADER
  5
22E5E
330
747D
100
AcDbEntity
  8
寸法
 48
50.0
100
AcDbLeader
  3
INABA_S50G
 73
     0
 74
     0
 75
     1
 40
120.0
 41
185.591883092037
 76
     3
 10
10289.10902872416
 20
2007.418795876614
 30
0.0
 10
10322.2472353578
 20
2179.565116557752
 30
0.0
 10
10447.2472353578
 20
2179.565116557752
 30
0.0
340
22E5F
1001
ACAD
1000
DSTYLE
1002
{
1070
    40
1040
1.0
1002
}
  0
MTEXT
  5
22E5F
102
{ACAD_REACTORS
330
22E5E
102
}
330
747D
100
AcDbEntity
  8
寸法
 62
     7
 48
50.0
100
AcDbMText
 10
10472.2472353578
 20
2264.565116557752
 30
0.0
 40
120.0
 41
0.8
 71
     4
 72
     1
  1
\A1;C.B
  7
STYLE1
 73
     1
 44
1.0
1001
ACAD
1000
MTEXTBEGIN
1070
    73
1070
     1
1070
    44
1040
1.0
1070
    74
1070
     0
1000
MTEXTEND
  0
ENDSEC
  0
SECTION
  2
OBJECTS
  0
DICTIONARY
  5
7471
330
0
100
AcDbDictionary
281
     1
  3
ACAD_COLOR
350
173D2
  3
ACAD_GROUP
350
7472
  3
ACAD_LAYOUT
350
173D3
  3
ACAD_MATERIAL
350
173D1
  3
ACAD_MLINESTYLE
350
7473
  3
ACAD_PLOTSETTINGS
350
173D4
  3
ACAD_PLOTSTYLENAME
350
173CF
  3
ACDBHEADERROUNDTRIPXREC
350
22F01
  3
AcDbVariableDictionary
350
22EFD
  3
CONTENTDICTIONARY
350
E71C
  3
DRAWINGVARIABLESDICT
350
F3B9
  0
DICTIONARY
  5
1758F
330
7467
100
AcDbDictionary
280
     1
281
     1
  3
ACAD_LAYERSTATES
360
17590
  0
DICTIONARY
  5
173D2
102
{ACAD_REACTORS
330
7471
102
}
330
7471
100
AcDbDictionary
281
     1
  0
DICTIONARY
  5
7472
102
{ACAD_REACTORS
330
7471
102
}
330
7471
100
AcDbDictionary
281
     1
  3
*A1
350
1D2A9
  0
DICTIONARY
  5
173D3
102
{ACAD_REACTORS
330
7471
102
}
330
7471
100
AcDbDictionary
281
     1
  3
Model
350
173D5
  3
レイアウト1
350
173D6
  0
DICTIONARY
  5
173D1
102
{ACAD_REACTORS
330
7471
102
}
330
7471
100
AcDbDictionary
281
     1
  0
DICTIONARY
  5
7473
102
{ACAD_REACTORS
330
7471
102
}
330
7471
100
AcDbDictionary
281
     1
  3
STANDARD
350
7480
  0
DICTIONARY
  5
173D4
102
{ACAD_REACTORS
330
7471
102
}
330
7471
100
AcDbDictionary
281
     1
  0
ACDBDICTIONARYWDFLT
  5
173CF
102
{ACAD_REACTORS
330
7471
102
}
330
7471
100
AcDbDictionary
281
     1
  3
Normal
350
173D0
100
AcDbDictionaryWithDefault
340
173D0
  0
DICTIONARY
  5
22F01
102
{ACAD_REACTORS
330
7471
102
}
330
7471
100
AcDbDictionary
281
     1
  3
COLORDICT
350
22F03
  3
MATERIALDICT
350
22F02
  0
DICTIONARY
  5
22EFD
102
{ACAD_REACTORS
330
7471
102
}
330
7471
100
AcDbDictionary
281
     1
  3
DIMASSOC
350
22EFE
  3
PROJECTNAME
350
22EFF
  0
DICTIONARY
  5
E71C
102
{ACAD_REACTORS
330
7471
102
}
330
7471
100
AcDbDictionary
281
     1
  0
DICTIONARY
  5
F3B9
102
{ACAD_REACTORS
330
7471
102
}
330
7471
100
AcDbDictionary
281
     1
1001
DRAWINGVARIABLESXDATA
1000
POLARMODE
1000
1
  0
DICTIONARY
  5
17590
102
{ACAD_REACTORS
330
1758F
102
}
330
1758F
100
AcDbDictionary
281
     1
  0
GROUP
  5
1D2A9
102
{ACAD_REACTORS
330
7472
102
}
330
7472
100
AcDbGroup
300

 70
     1
 71
     1
  0
LAYOUT
  5
173D5
102
{ACAD_XDICTIONARY
360
22F04
102
}
102
{ACAD_REACTORS
330
173D3
102
}
330
173D3
100
AcDbPlotSettings
  1

  2
Microsoft Office Document Image Writer
  4

  6

 40
0.0
 41
0.0
 42
0.0
 43
0.0
 44
0.0
 45
0.0
 46
0.0
 47
0.0
 48
0.0
 49
0.0
140
0.0
141
0.0
142
1.0
143
1.0
 70
  1712
 72
     0
 73
     0
 74
     0
  7

 75
     0
147
1.0
148
0.0
149
0.0
100
AcDbLayout
  1
Model
 70
     1
 71
     0
 10
0.0
 20
0.0
 11
12.0
 21
9.0
 12
0.0
 22
0.0
 32
0.0
 14
0.0
 24
0.0
 34
0.0
 15
0.0
 25
0.0
 35
0.0
146
0.0
 13
0.0
 23
0.0
 33
0.0
 16
1.0
 26
0.0
 36
0.0
 17
0.0
 27
1.0
 37
0.0
 76
     0
330
747D
  0
LAYOUT
  5
173D6
102
{ACAD_XDICTIONARY
360
22F06
102
}
102
{ACAD_REACTORS
330
173D3
102
}
330
173D3
100
AcDbPlotSettings
  1

  2
Microsoft Office Document Image Writer
  4

  6

 40
0.0
 41
0.0
 42
0.0
 43
0.0
 44
0.0
 45
0.0
 46
0.0
 47
0.0
 48
0.0
 49
0.0
140
0.0
141
0.0
142
1.0
143
1.0
 70
   688
 72
     0
 73
     0
 74
     5
  7

 75
    16
147
1.0
148
0.0
149
0.0
100
AcDbLayout
  1
レイアウト1
 70
     0
 71
     1
 10
0.0
 20
0.0
 11
420.0
 21
297.0
 12
0.0
 22
0.0
 32
0.0
 14
1.000000000000000E+20
 24
1.000000000000000E+20
 34
1.000000000000000E+20
 15
-1.000000000000000E+20
 25
-1.000000000000000E+20
 35
-1.000000000000000E+20
146
0.0
 13
0.0
 23
0.0
 33
0.0
 16
1.0
 26
0.0
 36
0.0
 17
0.0
 27
1.0
 37
0.0
 76
     0
330
747A
  0
MLINESTYLE
  5
7480
102
{ACAD_REACTORS
330
7473
102
}
330
7473
100
AcDbMlineStyle
  2
STANDARD
 70
     0
  3

 62
     0
 51
90.0
 52
90.0
 71
     2
 49
0.5
 62
   256
  6
BYLAYER
 49
-0.5
 62
   256
  6
BYLAYER
  0
ACDBPLACEHOLDER
  5
173D0
102
{ACAD_REACTORS
330
173CF
102
}
330
173CF
  0
XRECORD
  5
22F03
102
{ACAD_REACTORS
330
22F01
102
}
330
22F01
100
AcDbXrecord
280
     1
340
173D2
  0
XRECORD
  5
22F02
102
{ACAD_REACTORS
330
22F01
102
}
330
22F01
100
AcDbXrecord
280
     1
340
173D1
  0
DICTIONARYVAR
  5
22EFE
102
{ACAD_REACTORS
330
22EFD
102
}
330
22EFD
100
DictionaryVariables
280
     0
  1
1
  0
DICTIONARYVAR
  5
22EFF
102
{ACAD_REACTORS
330
22EFD
102
}
330
22EFD
100
DictionaryVariables
280
     0
  1

  0
DICTIONARY
  5
22F04
330
173D5
100
AcDbDictionary
280
     1
281
     1
  3
ACAD_XREC_ROUNDTRIP
360
22F05
  0
DICTIONARY
  5
22F06
330
173D6
100
AcDbDictionary
280
     1
281
     1
  3
ACAD_XREC_ROUNDTRIP
360
22F07
  0
XRECORD
  5
22F05
102
{ACAD_REACTORS
330
22F04
102
}
330
22F04
100
AcDbXrecord
280
     1
102
SHADEPLOT
 70
     0
102
SHADEPLOTRESLEVEL
 70
     2
102
SHADEPLOTCUSTOMDPI
 70
   300
  0
XRECORD
  5
22F07
102
{ACAD_REACTORS
330
22F06
102
}
330
22F06
100
AcDbXrecord
280
     1
102
SHADEPLOT
 70
     0
102
SHADEPLOTRESLEVEL
 70
     2
102
SHADEPLOTCUSTOMDPI
 70
   300
  0
ENDSEC
  0
EOF
