  0
SECTION
  2
HEADER
  9
$ACADVER
  1
AC1015
  9
$ACADMAINTVER
 70
    20
  9
$DWGCODEPAGE
  3
ANSI_932
  9
$INSBASE
 10
0.0
 20
0.0
 30
0.0
  9
$EXTMIN
 10
139.9999999999995
 20
-0.0000000000000909
 30
0.0
  9
$EXTMAX
 10
16307.2
 20
11409.6
 30
0.0
  9
$LIMMIN
 10
0.0
 20
0.0
  9
$LIMMAX
 10
16800.0
 20
11880.0
  9
$ORTHOMODE
 70
     0
  9
$REGENMODE
 70
     1
  9
$FILLMODE
 70
     1
  9
$QTEXTMODE
 70
     0
  9
$MIRRTEXT
 70
     1
  9
$LTSCALE
 40
20.0
  9
$ATTMODE
 70
     1
  9
$TEXTSIZE
 40
4.0
  9
$TRACEWID
 40
1.0
  9
$TEXTSTYLE
  7
STYLE1
  9
$CLAYER
  8
寸法
  9
$CELTYPE
  6
BYLAYER
  9
$CECOLOR
 62
   256
  9
$CELTSCALE
 40
50.0
  9
$DISPSILH
 70
     0
  9
$DIMSCALE
 40
40.0
  9
$DIMASZ
 40
2.5
  9
$DIMEXO
 40
0.5
  9
$DIMDLI
 40
7.0
  9
$DIMRND
 40
0.0
  9
$DIMDLE
 40
0.0
  9
$DIMEXE
 40
1.5
  9
$DIMTP
 40
0.0
  9
$DIMTM
 40
0.0
  9
$DIMTXT
 40
3.0
  9
$DIMCEN
 40
0.0
  9
$DIMTSZ
 40
0.0
  9
$DIMTOL
 70
     0
  9
$DIMLIM
 70
     0
  9
$DIMTIH
 70
     0
  9
$DIMTOH
 70
     0
  9
$DIMSE1
 70
     0
  9
$DIMSE2
 70
     0
  9
$DIMTAD
 70
     3
  9
$DIMZIN
 70
     8
  9
$DIMBLK
  1

  9
$DIMASO
 70
     1
  9
$DIMSHO
 70
     1
  9
$DIMPOST
  1

  9
$DIMAPOST
  1

  9
$DIMALT
 70
     0
  9
$DIMALTD
 70
     2
  9
$DIMALTF
 40
0.0394
  9
$DIMLFAC
 40
1.0
  9
$DIMTOFL
 70
     1
  9
$DIMTVP
 40
0.0
  9
$DIMTIX
 70
     1
  9
$DIMSOXD
 70
     0
  9
$DIMSAH
 70
     1
  9
$DIMBLK1
  1
DOTSMALL
  9
$DIMBLK2
  1
DOTSMALL
  9
$DIMSTYLE
  2
INABA_S40G
  9
$DIMCLRD
 70
     0
  9
$DIMCLRE
 70
     0
  9
$DIMCLRT
 70
     7
  9
$DIMTFAC
 40
1.0
  9
$DIMGAP
 40
1.0
  9
$DIMJUST
 70
     0
  9
$DIMSD1
 70
     0
  9
$DIMSD2
 70
     0
  9
$DIMTOLJ
 70
     1
  9
$DIMTZIN
 70
     0
  9
$DIMALTZ
 70
     0
  9
$DIMALTTZ
 70
     0
  9
$DIMUPT
 70
     0
  9
$DIMDEC
 70
     1
  9
$DIMTDEC
 70
     4
  9
$DIMALTU
 70
     2
  9
$DIMALTTD
 70
     2
  9
$DIMTXSTY
  7
STYLE1
  9
$DIMAUNIT
 70
     0
  9
$DIMADEC
 70
     0
  9
$DIMALTRND
 40
0.0
  9
$DIMAZIN
 70
     0
  9
$DIMDSEP
 70
    46
  9
$DIMATFIT
 70
     3
  9
$DIMFRAC
 70
     0
  9
$DIMLDRBLK
  1

  9
$DIMLUNIT
 70
     2
  9
$DIMLWD
 70
    -2
  9
$DIMLWE
 70
    -2
  9
$DIMTMOVE
 70
     0
  9
$LUNITS
 70
     2
  9
$LUPREC
 70
     1
  9
$SKETCHINC
 40
1.0
  9
$FILLETRAD
 40
3.0
  9
$AUNITS
 70
     0
  9
$AUPREC
 70
     0
  9
$MENU
  1
acad
  9
$ELEVATION
 40
0.0
  9
$PELEVATION
 40
0.0
  9
$THICKNESS
 40
0.0
  9
$LIMCHECK
 70
     0
  9
$CHAMFERA
 40
0.0
  9
$CHAMFERB
 40
0.0
  9
$CHAMFERC
 40
0.0
  9
$CHAMFERD
 40
0.0
  9
$SKPOLY
 70
     0
  9
$TDCREATE
 40
2451368.612993866
  9
$TDUCREATE
 40
2451368.237993866
  9
$TDUPDATE
 40
2455826.640825371
  9
$TDUUPDATE
 40
2455826.265825371
  9
$TDINDWG
 40
0.6914575694
  9
$TDUSRTIMER
 40
0.6914575694
  9
$USRTIMER
 70
     1
  9
$ANGBASE
 50
0.0
  9
$ANGDIR
 70
     0
  9
$PDMODE
 70
     3
  9
$PDSIZE
 40
2.0
  9
$PLINEWID
 40
0.0
  9
$SPLFRAME
 70
     0
  9
$SPLINETYPE
 70
     6
  9
$SPLINESEGS
 70
     8
  9
$HANDSEED
  5
2090F
  9
$SURFTAB1
 70
     6
  9
$SURFTAB2
 70
     6
  9
$SURFTYPE
 70
     6
  9
$SURFU
 70
     6
  9
$SURFV
 70
     6
  9
$UCSBASE
  2

  9
$UCSNAME
  2

  9
$UCSORG
 10
0.0
 20
0.0
 30
0.0
  9
$UCSXDIR
 10
1.0
 20
0.0
 30
0.0
  9
$UCSYDIR
 10
0.0
 20
1.0
 30
0.0
  9
$UCSORTHOREF
  2

  9
$UCSORTHOVIEW
 70
     0
  9
$UCSORGTOP
 10
0.0
 20
0.0
 30
0.0
  9
$UCSORGBOTTOM
 10
0.0
 20
0.0
 30
0.0
  9
$UCSORGLEFT
 10
0.0
 20
0.0
 30
0.0
  9
$UCSORGRIGHT
 10
0.0
 20
0.0
 30
0.0
  9
$UCSORGFRONT
 10
0.0
 20
0.0
 30
0.0
  9
$UCSORGBACK
 10
0.0
 20
0.0
 30
0.0
  9
$PUCSBASE
  2

  9
$PUCSNAME
  2

  9
$PUCSORG
 10
0.0
 20
0.0
 30
0.0
  9
$PUCSXDIR
 10
1.0
 20
0.0
 30
0.0
  9
$PUCSYDIR
 10
0.0
 20
1.0
 30
0.0
  9
$PUCSORTHOREF
  2

  9
$PUCSORTHOVIEW
 70
     0
  9
$PUCSORGTOP
 10
0.0
 20
0.0
 30
0.0
  9
$PUCSORGBOTTOM
 10
0.0
 20
0.0
 30
0.0
  9
$PUCSORGLEFT
 10
0.0
 20
0.0
 30
0.0
  9
$PUCSORGRIGHT
 10
0.0
 20
0.0
 30
0.0
  9
$PUCSORGFRONT
 10
0.0
 20
0.0
 30
0.0
  9
$PUCSORGBACK
 10
0.0
 20
0.0
 30
0.0
  9
$USERI1
 70
     0
  9
$USERI2
 70
     0
  9
$USERI3
 70
     0
  9
$USERI4
 70
     0
  9
$USERI5
 70
     0
  9
$USERR1
 40
0.0
  9
$USERR2
 40
0.0
  9
$USERR3
 40
0.0
  9
$USERR4
 40
0.0
  9
$USERR5
 40
0.0
  9
$WORLDVIEW
 70
     1
  9
$SHADEDGE
 70
     3
  9
$SHADEDIF
 70
    70
  9
$TILEMODE
 70
     1
  9
$MAXACTVP
 70
    16
  9
$PINSBASE
 10
0.0
 20
0.0
 30
0.0
  9
$PLIMCHECK
 70
     0
  9
$PEXTMIN
 10
1.000000000000000E+20
 20
1.000000000000000E+20
 30
1.000000000000000E+20
  9
$PEXTMAX
 10
-1.000000000000000E+20
 20
-1.000000000000000E+20
 30
-1.000000000000000E+20
  9
$PLIMMIN
 10
0.0
 20
0.0
  9
$PLIMMAX
 10
420.0
 20
297.0
  9
$UNITMODE
 70
     0
  9
$VISRETAIN
 70
     0
  9
$PLINEGEN
 70
     0
  9
$PSLTSCALE
 70
     0
  9
$TREEDEPTH
 70
  3020
  9
$CMLSTYLE
  2
STANDARD
  9
$CMLJUST
 70
     0
  9
$CMLSCALE
 40
1.0
  9
$PROXYGRAPHICS
 70
     1
  9
$MEASUREMENT
 70
     1
  9
$CELWEIGHT
370
    -1
  9
$ENDCAPS
280
     0
  9
$JOINSTYLE
280
     0
  9
$LWDISPLAY
290
     0
  9
$INSUNITS
 70
     0
  9
$HYPERLINKBASE
  1

  9
$STYLESHEET
  1

  9
$XEDIT
290
     1
  9
$CEPSNTYPE
380
     0
  9
$PSTYLEMODE
290
     1
  9
$FINGERPRINTGUID
  2
{5EAC461A-2277-4BF8-9AB0-99C43BB394F0}
  9
$VERSIONGUID
  2
{5B598F5E-92A3-4345-A5EB-428F4B3152D9}
  9
$EXTNAMES
290
     1
  9
$PSVPSCALE
 40
0.0
  9
$OLESTARTUP
290
     0
  0
ENDSEC
  0
SECTION
  2
CLASSES
  0
CLASS
  1
ACDBDICTIONARYWDFLT
  2
AcDbDictionaryWithDefault
  3
ObjectDBX Classes
 90
        0
280
     0
281
     0
  0
CLASS
  1
DICTIONARYVAR
  2
AcDbDictionaryVar
  3
ObjectDBX Classes
 90
        0
280
     0
281
     0
  0
CLASS
  1
ACDBPLACEHOLDER
  2
AcDbPlaceHolder
  3
ObjectDBX Classes
 90
        0
280
     0
281
     0
  0
CLASS
  1
LAYOUT
  2
AcDbLayout
  3
ObjectDBX Classes
 90
        0
280
     0
281
     0
  0
ENDSEC
  0
SECTION
  2
TABLES
  0
TABLE
  2
VPORT
  5
746D
330
0
100
AcDbSymbolTable
 70
     2
  0
VPORT
  5
20907
330
746D
100
AcDbSymbolTableRecord
100
AcDbViewportTableRecord
  2
*Active
 70
     0
 10
0.0
 20
0.0
 11
1.0
 21
1.0
 12
8223.761025238502
 22
5855.51892110829
 13
0.0
 23
0.0
 14
10.0
 24
10.0
 15
10.0
 25
10.0
 16
0.0
 26
0.0
 36
1.0
 17
0.0
 27
0.0
 37
0.0
 40
11801.05715611403
 41
1.522222222222222
 42
50.0
 43
0.0
 44
0.0
 50
0.0
 51
0.0
 71
     0
 72
     0
 73
     1
 74
     0
 75
     0
 76
     0
 77
     0
 78
     0
281
     0
 65
     1
110
0.0
120
0.0
130
0.0
111
1.0
121
0.0
131
0.0
112
0.0
122
1.0
132
0.0
 79
     0
146
0.0
  0
ENDTAB
  0
TABLE
  2
LTYPE
  5
746A
330
0
100
AcDbSymbolTable
 70
     5
  0
LTYPE
  5
7477
330
746A
100
AcDbSymbolTableRecord
100
AcDbLinetypeTableRecord
  2
BYBLOCK
 70
     0
  3

 72
    65
 73
     0
 40
0.0
  0
LTYPE
  5
7478
330
746A
100
AcDbSymbolTableRecord
100
AcDbLinetypeTableRecord
  2
BYLAYER
 70
     0
  3

 72
    65
 73
     0
 40
0.0
  0
LTYPE
  5
7479
330
746A
100
AcDbSymbolTableRecord
100
AcDbLinetypeTableRecord
  2
CONTINUOUS
 70
     0
  3
Solid line
 72
    65
 73
     0
 40
0.0
  0
LTYPE
  5
7816
330
746A
100
AcDbSymbolTableRecord
100
AcDbLinetypeTableRecord
  2
CENTER
 70
     0
  3
____ _ ____ _ ____ _ ____ _ ____ _ ____ _ ____ 
 72
    65
 73
     4
 40
2.0
 49
1.25
 74
     0
 49
-0.25
 74
     0
 49
0.25
 74
     0
 49
-0.25
 74
     0
  0
LTYPE
  5
781A
330
746A
100
AcDbSymbolTableRecord
100
AcDbLinetypeTableRecord
  2
HIDDEN
 70
     0
  3
__ __ __ __ __ __ __ __ __ __ __ __ __ __ __ __
 72
    65
 73
     2
 40
0.375
 49
0.25
 74
     0
 49
-0.125
 74
     0
  0
LTYPE
  5
781B
330
746A
100
AcDbSymbolTableRecord
100
AcDbLinetypeTableRecord
  2
PHANTOM
 70
     0
  3
______  __  __  ______  __  __  ______  __  __ 
 72
    65
 73
     6
 40
2.5
 49
1.25
 74
     0
 49
-0.25
 74
     0
 49
0.25
 74
     0
 49
-0.25
 74
     0
 49
0.25
 74
     0
 49
-0.25
 74
     0
  0
LTYPE
  5
12CC3
330
746A
100
AcDbSymbolTableRecord
100
AcDbLinetypeTableRecord
  2
HIDDENX2
 70
     0
  3
Hidden (2x) ____ ____ ____ ____ ____ ____ ____
 72
    65
 73
     2
 40
19.05
 49
12.7
 74
     0
 49
-6.349999999999999
 74
     0
  0
ENDTAB
  0
TABLE
  2
LAYER
  5
7467
102
{ACAD_XDICTIONARY
360
1758F
102
}
330
0
100
AcDbSymbolTable
 70
    12
  0
LAYER
  5
7474
330
7467
100
AcDbSymbolTableRecord
100
AcDbLayerTableRecord
  2
0
 70
     0
 62
     7
  6
CONTINUOUS
370
    -3
390
173D0
  0
LAYER
  5
DEB2
330
7467
100
AcDbSymbolTableRecord
100
AcDbLayerTableRecord
  2
センター
 70
     0
 62
     3
  6
CENTER
370
    -3
390
173D0
  0
LAYER
  5
DEB3
330
7467
100
AcDbSymbolTableRecord
100
AcDbLayerTableRecord
  2
寸法
 70
     0
 62
     4
  6
CONTINUOUS
370
    -3
390
173D0
  0
LAYER
  5
DEB4
330
7467
100
AcDbSymbolTableRecord
100
AcDbLayerTableRecord
  2
部品1
 70
     0
 62
     7
  6
CONTINUOUS
370
    -3
390
173D0
  0
LAYER
  5
DEB5
330
7467
100
AcDbSymbolTableRecord
100
AcDbLayerTableRecord
  2
補助
 70
     0
 62
    -1
  6
CONTINUOUS
370
    -3
390
173D0
  0
LAYER
  5
DEB6
330
7467
100
AcDbSymbolTableRecord
100
AcDbLayerTableRecord
  2
文字
 70
     0
 62
     7
  6
CONTINUOUS
370
    -3
390
173D0
  0
LAYER
  5
F255
330
7467
100
AcDbSymbolTableRecord
100
AcDbLayerTableRecord
  2
DEFPOINTS
 70
     0
 62
     7
  6
CONTINUOUS
290
     0
370
    -3
390
173D0
  0
LAYER
  5
10B54
330
7467
100
AcDbSymbolTableRecord
100
AcDbLayerTableRecord
  2
仕様書枠
 70
     0
 62
   230
  6
CONTINUOUS
370
    -3
390
173D0
  0
LAYER
  5
11729
330
7467
100
AcDbSymbolTableRecord
100
AcDbLayerTableRecord
  2
Ｇ．Ｌ
 70
     0
 62
    30
  6
CONTINUOUS
370
    -3
390
173D0
  0
LAYER
  5
1173F
330
7467
100
AcDbSymbolTableRecord
100
AcDbLayerTableRecord
  2
細線
 70
     0
 62
     5
  6
CONTINUOUS
370
    -3
390
173D0
  0
LAYER
  5
12CC4
330
7467
100
AcDbSymbolTableRecord
100
AcDbLayerTableRecord
  2
想像線
 70
     0
 62
     6
  6
PHANTOM
370
    -3
390
173D0
  0
LAYER
  5
142E2
330
7467
100
AcDbSymbolTableRecord
100
AcDbLayerTableRecord
  2
破線
 70
     0
 62
     2
  6
HIDDEN
370
    -3
390
173D0
  0
ENDTAB
  0
TABLE
  2
STYLE
  5
7468
330
0
100
AcDbSymbolTable
 70
     7
  0
STYLE
  5
7475
330
7468
100
AcDbSymbolTableRecord
100
AcDbTextStyleTableRecord
  2
STANDARD
 70
     0
 40
0.0
 41
1.0
 50
0.0
 71
     0
 42
4.0
  3
txt
  4
C:\AutoCAD LT\bigfont.shx
  0
STYLE
  5
763C
330
7468
100
AcDbSymbolTableRecord
100
AcDbTextStyleTableRecord
  2
MSMINCHO
 70
     0
 40
0.0
 41
1.0
 50
0.0
 71
     0
 42
1.199999999999999
  3
C:\AutoCAD LT\msminch2.TTF
  4

  0
STYLE
  5
F706
330
7468
100
AcDbSymbolTableRecord
100
AcDbTextStyleTableRecord
  2
STYLE1
 70
     0
 40
0.0
 41
1.0
 50
0.0
 71
     0
 42
4.0
  3
isocp.shx
  4
bigfont.shx
  0
STYLE
  5
103BF
330
7468
100
AcDbSymbolTableRecord
100
AcDbTextStyleTableRecord
  2
STYLE2
 70
     0
 40
0.0
 41
1.0
 50
0.0
 71
     0
 42
100.0
  3
MS PGothic.ttf
  4

1001
ACAD
1000
MS PGothic
1071
    32818
  0
STYLE
  5
10BAA
330
7468
100
AcDbSymbolTableRecord
100
AcDbTextStyleTableRecord
  2
STYLE3
 70
     0
 40
0.0
 41
1.0
 50
0.0
 71
     0
 42
100.0
  3

  4

1001
ACAD
1000
DFPGothic-EB
1071
    32818
  0
STYLE
  5
11A15
330
7468
100
AcDbSymbolTableRecord
100
AcDbTextStyleTableRecord
  2
MSGOTHIC
 70
     0
 40
0.0
 41
1.0
 50
0.0
 71
     0
 42
3.5
  3
msgothi2.ttf
  4

  0
STYLE
  5
13E96
330
7468
100
AcDbSymbolTableRecord
100
AcDbTextStyleTableRecord
  2
MSPゴシック
 70
     0
 40
0.0
 41
1.0
 50
0.0
 71
     0
 42
4.0
  3
MS PGothic.ttf
  4

1001
ACAD
1000
MS PGothic
1071
    32818
  0
ENDTAB
  0
TABLE
  2
VIEW
  5
746B
330
0
100
AcDbSymbolTable
 70
     0
  0
ENDTAB
  0
TABLE
  2
UCS
  5
746C
330
0
100
AcDbSymbolTable
 70
     0
  0
ENDTAB
  0
TABLE
  2
APPID
  5
746E
330
0
100
AcDbSymbolTable
 70
     6
  0
APPID
  5
7476
330
746E
100
AcDbSymbolTableRecord
100
AcDbRegAppTableRecord
  2
ACAD
 70
     0
  0
APPID
  5
DEA9
330
746E
100
AcDbSymbolTableRecord
100
AcDbRegAppTableRecord
  2
CONTENTBLOCKICON
 70
     0
  0
APPID
  5
DEAA
330
746E
100
AcDbSymbolTableRecord
100
AcDbRegAppTableRecord
  2
CONTENTBLOCKDESCRIPTION
 70
     0
  0
APPID
  5
E71D
330
746E
100
AcDbSymbolTableRecord
100
AcDbRegAppTableRecord
  2
CONTENTTABDATA
 70
     0
  0
APPID
  5
E71E
330
746E
100
AcDbSymbolTableRecord
100
AcDbRegAppTableRecord
  2
CONTENTCURRENTTAB
 70
     0
  0
APPID
  5
F3BA
330
746E
100
AcDbSymbolTableRecord
100
AcDbRegAppTableRecord
  2
DRAWINGVARIABLESXDATA
 70
     0
  0
ENDTAB
  0
TABLE
  2
DIMSTYLE
  5
746F
330
0
100
AcDbSymbolTable
 70
     6
100
AcDbDimStyleTable
 71
     1
340
F71F
  0
DIMSTYLE
105
7484
330
746F
100
AcDbSymbolTableRecord
100
AcDbDimStyleTableRecord
  2
JIS
 70
     0
 41
2.5
 42
1.0
 43
7.0
 44
1.0
 73
     0
 74
     0
 77
     1
 78
     8
140
2.5
141
0.0
143
0.0394
147
0.0
172
     1
174
     1
175
     1
340
7475
  0
DIMSTYLE
105
F236
330
746F
100
AcDbSymbolTableRecord
100
AcDbDimStyleTableRecord
  2
INABA_S40
 70
     0
 40
40.0
 41
2.5
 42
0.5
 43
7.0
 44
1.5
 73
     0
 74
     0
 77
     3
 78
     8
140
3.0
141
0.0
143
0.0394
147
1.0
172
     1
173
     1
174
     1
175
     1
178
     7
289
     0
340
7475
341
DEAC
343
DEAC
344
DEAC
  0
DIMSTYLE
105
F71F
102
{ACAD_REACTORS
330
1DD19
330
1DD17
330
1DD0F
330
1DCFB
330
1DCF9
330
1DCF8
330
1DCEF
330
1DD04
330
1DD03
330
1DCFD
330
1DD07
330
1DCFE
330
1DD24
330
1DD2C
330
1DD2A
330
1DD22
330
1EE10
330
1EE06
330
1EE04
330
1EDBE
330
1E90B
330
1FC00
330
2073A
330
2073B
330
20743
330
2074A
330
2074D
330
207AD
102
}
330
746F
100
AcDbSymbolTableRecord
100
AcDbDimStyleTableRecord
  2
INABA_S40G
 70
     0
 40
40.0
 41
2.5
 42
0.5
 43
7.0
 44
1.5
 73
     0
 74
     0
 77
     3
 78
     8
140
3.0
141
0.0
143
0.0394
147
1.0
172
     1
173
     1
174
     1
178
     7
271
     1
340
F706
341
F770
343
F770
344
F770
  0
DIMSTYLE
105
142E3
330
746F
100
AcDbSymbolTableRecord
100
AcDbDimStyleTableRecord
  2
INABA_S1
 70
     0
 40
0.0
 41
2.5
 42
0.5
 43
7.0
 44
1.5
 73
     0
 74
     0
 77
     3
 78
     8
140
3.0
141
0.0
143
0.0394
146
0.5
147
0.5
172
     1
173
     1
176
   256
177
   256
178
     7
271
     2
272
     2
284
     8
288
     1
340
7475
341
DEAC
343
DEAC
344
DEAC
  0
DIMSTYLE
105
14463
330
746F
100
AcDbSymbolTableRecord
100
AcDbDimStyleTableRecord
  2
INABA_S30G
 70
     0
 40
30.0
 41
2.5
 42
0.5
 43
7.0
 44
1.5
 73
     0
 74
     0
 77
     3
 78
     8
140
3.0
141
0.0
143
0.0394
147
1.0
172
     1
173
     1
174
     1
175
     1
178
     7
271
     1
340
F706
341
F770
343
F770
344
F770
  0
DIMSTYLE
105
1758E
330
746F
100
AcDbSymbolTableRecord
100
AcDbDimStyleTableRecord
  2
INABA_S50G
 70
     0
 41
125.0
 42
25.0
 43
7.0
 44
75.0
 73
     0
 74
     0
 77
     3
 78
     8
140
150.0
141
0.0
143
0.0394
147
25.0
172
     1
173
     1
174
     1
175
     1
178
     7
271
     1
340
F706
341
F770
343
F770
344
F770
  0
ENDTAB
  0
TABLE
  2
BLOCK_RECORD
  5
7466
330
0
100
AcDbSymbolTable
 70
    54
  0
BLOCK_RECORD
  5
747D
330
7466
100
AcDbSymbolTableRecord
100
AcDbBlockTableRecord
  2
*MODEL_SPACE
340
173D5
  0
BLOCK_RECORD
  5
747A
330
7466
100
AcDbSymbolTableRecord
100
AcDbBlockTableRecord
  2
*PAPER_SPACE
340
173D6
  0
BLOCK_RECORD
  5
DEAC
330
7466
100
AcDbSymbolTableRecord
100
AcDbBlockTableRecord
  2
_OPEN
340
0
  0
BLOCK_RECORD
  5
F770
330
7466
100
AcDbSymbolTableRecord
100
AcDbBlockTableRecord
  2
_DOTSMALL
340
0
102
{BLKREFS
331
18C65
331
18C66
331
18C59
331
18C5A
331
18C4D
331
18C4E
331
18C41
331
18C42
331
18C35
331
18C36
331
18C29
331
18C2A
331
18C1D
331
18C1E
331
18C0F
331
18C10
331
18C03
331
18C04
331
18BF5
331
18BF6
331
18BE7
331
18BE8
331
18BD9
331
18BDA
331
18BCD
331
18BCE
331
1F4EE
331
1F4EF
331
1F504
331
1F505
331
1F54A
331
1F54B
331
1F597
331
1F598
331
1F5A0
331
1F5A1
331
1F5A9
331
1F5AA
331
1F602
331
1F603
331
1F60D
331
1F60E
331
1F617
331
1F618
331
1F620
331
1F621
331
1F629
331
1F62A
331
1F6B0
331
1F6B1
331
1F6B9
331
1F6BA
331
1F6C2
331
1F6C3
331
1F6CB
331
1F6CC
331
1F6DE
331
1F6DF
331
1FC19
331
1FC1A
331
2005A
331
2005B
331
20080
331
20081
331
2008A
331
2008B
331
2009E
331
2009F
331
200A8
331
200A9
331
2011C
331
2011D
331
20110
331
20111
331
20104
331
20105
331
200F8
331
200F9
331
200EC
331
200ED
331
200DA
331
200DB
331
208B7
331
208B8
331
208C6
331
208C7
331
208CF
331
208D0
331
208D8
331
208D9
331
208E1
331
208E2
331
208EA
331
208EB
102
}
  0
BLOCK_RECORD
  5
164B4
330
7466
100
AcDbSymbolTableRecord
100
AcDbBlockTableRecord
  2
_DOT
340
0
102
{BLKREFS
331
18C73
331
18C74
102
}
  0
BLOCK_RECORD
  5
18BC8
330
7466
100
AcDbSymbolTableRecord
100
AcDbBlockTableRecord
  2
*D3
340
0
  0
BLOCK_RECORD
  5
18BD4
330
7466
100
AcDbSymbolTableRecord
100
AcDbBlockTableRecord
  2
*D4
340
0
  0
BLOCK_RECORD
  5
18BE0
330
7466
100
AcDbSymbolTableRecord
100
AcDbBlockTableRecord
  2
*D5
340
0
  0
BLOCK_RECORD
  5
18BEE
330
7466
100
AcDbSymbolTableRecord
100
AcDbBlockTableRecord
  2
*D6
340
0
  0
BLOCK_RECORD
  5
18BFC
330
7466
100
AcDbSymbolTableRecord
100
AcDbBlockTableRecord
  2
*D7
340
0
  0
BLOCK_RECORD
  5
18C0A
330
7466
100
AcDbSymbolTableRecord
100
AcDbBlockTableRecord
  2
*D8
340
0
  0
BLOCK_RECORD
  5
18C16
330
7466
100
AcDbSymbolTableRecord
100
AcDbBlockTableRecord
  2
*D9
340
0
  0
BLOCK_RECORD
  5
18C24
330
7466
100
AcDbSymbolTableRecord
100
AcDbBlockTableRecord
  2
*D10
340
0
  0
BLOCK_RECORD
  5
18C30
330
7466
100
AcDbSymbolTableRecord
100
AcDbBlockTableRecord
  2
*D11
340
0
  0
BLOCK_RECORD
  5
18C3C
330
7466
100
AcDbSymbolTableRecord
100
AcDbBlockTableRecord
  2
*D12
340
0
  0
BLOCK_RECORD
  5
18C48
330
7466
100
AcDbSymbolTableRecord
100
AcDbBlockTableRecord
  2
*D13
340
0
  0
BLOCK_RECORD
  5
18C54
330
7466
100
AcDbSymbolTableRecord
100
AcDbBlockTableRecord
  2
*D14
340
0
  0
BLOCK_RECORD
  5
18C60
330
7466
100
AcDbSymbolTableRecord
100
AcDbBlockTableRecord
  2
*D15
340
0
  0
BLOCK_RECORD
  5
18C6C
330
7466
100
AcDbSymbolTableRecord
100
AcDbBlockTableRecord
  2
*D16
340
0
  0
BLOCK_RECORD
  5
18C7A
330
7466
100
AcDbSymbolTableRecord
100
AcDbBlockTableRecord
  2
A$C3B1A506B
340
0
  0
BLOCK_RECORD
  5
1C4CA
330
7466
100
AcDbSymbolTableRecord
100
AcDbBlockTableRecord
  2
_NONE
340
0
  0
BLOCK_RECORD
  5
1DD46
330
7466
100
AcDbSymbolTableRecord
100
AcDbBlockTableRecord
  2
*D19
340
0
  0
BLOCK_RECORD
  5
1DD6B
330
7466
100
AcDbSymbolTableRecord
100
AcDbBlockTableRecord
  2
*D20
340
0
  0
BLOCK_RECORD
  5
1DD76
330
7466
100
AcDbSymbolTableRecord
100
AcDbBlockTableRecord
  2
*D21
340
0
  0
BLOCK_RECORD
  5
1DD8E
330
7466
100
AcDbSymbolTableRecord
100
AcDbBlockTableRecord
  2
*D22
340
0
  0
BLOCK_RECORD
  5
1DDA8
330
7466
100
AcDbSymbolTableRecord
100
AcDbBlockTableRecord
  2
*D23
340
0
  0
BLOCK_RECORD
  5
1DDB5
330
7466
100
AcDbSymbolTableRecord
100
AcDbBlockTableRecord
  2
*D24
340
0
  0
BLOCK_RECORD
  5
1DDC2
330
7466
100
AcDbSymbolTableRecord
100
AcDbBlockTableRecord
  2
*D25
340
0
  0
BLOCK_RECORD
  5
1DDCD
330
7466
100
AcDbSymbolTableRecord
100
AcDbBlockTableRecord
  2
*D26
340
0
  0
BLOCK_RECORD
  5
1DDE3
330
7466
100
AcDbSymbolTableRecord
100
AcDbBlockTableRecord
  2
*D27
340
0
  0
BLOCK_RECORD
  5
1DDF0
330
7466
100
AcDbSymbolTableRecord
100
AcDbBlockTableRecord
  2
*D28
340
0
  0
BLOCK_RECORD
  5
1DE09
330
7466
100
AcDbSymbolTableRecord
100
AcDbBlockTableRecord
  2
*D29
340
0
  0
BLOCK_RECORD
  5
1DE22
330
7466
100
AcDbSymbolTableRecord
100
AcDbBlockTableRecord
  2
*D30
340
0
  0
BLOCK_RECORD
  5
1DE2F
330
7466
100
AcDbSymbolTableRecord
100
AcDbBlockTableRecord
  2
*D31
340
0
  0
BLOCK_RECORD
  5
1DE3C
330
7466
100
AcDbSymbolTableRecord
100
AcDbBlockTableRecord
  2
*D32
340
0
  0
BLOCK_RECORD
  5
1DE47
330
7466
100
AcDbSymbolTableRecord
100
AcDbBlockTableRecord
  2
*D33
340
0
  0
BLOCK_RECORD
  5
1DE54
330
7466
100
AcDbSymbolTableRecord
100
AcDbBlockTableRecord
  2
*D34
340
0
  0
BLOCK_RECORD
  5
1E963
330
7466
100
AcDbSymbolTableRecord
100
AcDbBlockTableRecord
  2
*D35
340
0
  0
BLOCK_RECORD
  5
1EE9F
330
7466
100
AcDbSymbolTableRecord
100
AcDbBlockTableRecord
  2
*D36
340
0
  0
BLOCK_RECORD
  5
1EEC7
330
7466
100
AcDbSymbolTableRecord
100
AcDbBlockTableRecord
  2
*D37
340
0
  0
BLOCK_RECORD
  5
1EEE2
330
7466
100
AcDbSymbolTableRecord
100
AcDbBlockTableRecord
  2
*D38
340
0
  0
BLOCK_RECORD
  5
1EF6C
330
7466
100
AcDbSymbolTableRecord
100
AcDbBlockTableRecord
  2
*D39
340
0
  0
BLOCK_RECORD
  5
1FC01
330
7466
100
AcDbSymbolTableRecord
100
AcDbBlockTableRecord
  2
*D40
340
0
  0
BLOCK_RECORD
  5
200D5
330
7466
100
AcDbSymbolTableRecord
100
AcDbBlockTableRecord
  2
*D41
340
0
  0
BLOCK_RECORD
  5
200E1
330
7466
100
AcDbSymbolTableRecord
100
AcDbBlockTableRecord
  2
*D42
340
0
  0
BLOCK_RECORD
  5
200F2
330
7466
100
AcDbSymbolTableRecord
100
AcDbBlockTableRecord
  2
*D43
340
0
  0
BLOCK_RECORD
  5
200FE
330
7466
100
AcDbSymbolTableRecord
100
AcDbBlockTableRecord
  2
*D44
340
0
  0
BLOCK_RECORD
  5
2010A
330
7466
100
AcDbSymbolTableRecord
100
AcDbBlockTableRecord
  2
*D45
340
0
  0
BLOCK_RECORD
  5
20116
330
7466
100
AcDbSymbolTableRecord
100
AcDbBlockTableRecord
  2
*D46
340
0
  0
BLOCK_RECORD
  5
20122
330
7466
100
AcDbSymbolTableRecord
100
AcDbBlockTableRecord
  2
A$C7C192688
340
0
  0
BLOCK_RECORD
  5
20867
330
7466
100
AcDbSymbolTableRecord
100
AcDbBlockTableRecord
  2
*D48
340
0
  0
BLOCK_RECORD
  5
20873
330
7466
100
AcDbSymbolTableRecord
100
AcDbBlockTableRecord
  2
*D49
340
0
  0
BLOCK_RECORD
  5
20884
330
7466
100
AcDbSymbolTableRecord
100
AcDbBlockTableRecord
  2
*D50
340
0
  0
BLOCK_RECORD
  5
20890
330
7466
100
AcDbSymbolTableRecord
100
AcDbBlockTableRecord
  2
*D51
340
0
  0
BLOCK_RECORD
  5
2089C
330
7466
100
AcDbSymbolTableRecord
100
AcDbBlockTableRecord
  2
*D52
340
0
  0
BLOCK_RECORD
  5
208A8
330
7466
100
AcDbSymbolTableRecord
100
AcDbBlockTableRecord
  2
*D53
340
0
  0
ENDTAB
  0
ENDSEC
  0
SECTION
  2
BLOCKS
  0
BLOCK
  5
7489
330
747D
100
AcDbEntity
  8
0
100
AcDbBlockBegin
  2
*MODEL_SPACE
 70
     0
 10
0.0
 20
0.0
 30
0.0
  3
*MODEL_SPACE
  1

  0
ENDBLK
  5
748A
330
747D
100
AcDbEntity
  8
0
100
AcDbBlockEnd
  0
BLOCK
  5
7487
330
747A
100
AcDbEntity
 67
     1
  8
0
100
AcDbBlockBegin
  2
*PAPER_SPACE
 70
     0
 10
0.0
 20
0.0
 30
0.0
  3
*PAPER_SPACE
  1

  0
ENDBLK
  5
7488
330
747A
100
AcDbEntity
 67
     1
  8
0
100
AcDbBlockEnd
  0
BLOCK
  5
DEAD
330
DEAC
100
AcDbEntity
  8
0
100
AcDbBlockBegin
  2
_OPEN
 70
     0
 10
0.0
 20
0.0
 30
0.0
  3
_OPEN
  1

  0
LINE
  5
DEAE
330
DEAC
100
AcDbEntity
  8
0
  6
ByBlock
 62
     0
100
AcDbLine
 10
-1.0
 20
0.1666666666666666
 30
0.0
 11
0.0
 21
0.0
 31
0.0
  0
LINE
  5
DEAF
330
DEAC
100
AcDbEntity
  8
0
  6
ByBlock
 62
     0
100
AcDbLine
 10
0.0
 20
0.0
 30
0.0
 11
-1.0
 21
-0.1666666666666666
 31
0.0
  0
LINE
  5
DEB0
330
DEAC
100
AcDbEntity
  8
0
  6
ByBlock
 62
     0
100
AcDbLine
 10
0.0
 20
0.0
 30
0.0
 11
-1.0
 21
0.0
 31
0.0
  0
ENDBLK
  5
DEB1
330
DEAC
100
AcDbEntity
  8
0
100
AcDbBlockEnd
  0
BLOCK
  5
F771
330
F770
100
AcDbEntity
  8
0
 48
50.0
100
AcDbBlockBegin
  2
_DOTSMALL
 70
     0
 10
0.0
 20
0.0
 30
0.0
  3
_DOTSMALL
  1

  0
LWPOLYLINE
  5
F772
330
F770
100
AcDbEntity
  8
0
  6
ByBlock
 62
     0
 48
50.0
100
AcDbPolyline
 90
        2
 70
     1
 43
0.5
 10
-0.0625
 20
0.0
 42
1.0
 10
0.0625
 20
0.0
 42
1.0
  0
ENDBLK
  5
F776
330
F770
100
AcDbEntity
  8
0
 48
50.0
100
AcDbBlockEnd
  0
BLOCK
  5
164BA
330
164B4
100
AcDbEntity
  8
0
 48
50.0
100
AcDbBlockBegin
  2
_DOT
 70
     0
 10
0.0
 20
0.0
 30
0.0
  3
_DOT
  1

  0
LWPOLYLINE
  5
164B5
330
164B4
100
AcDbEntity
  8
0
  6
ByBlock
 62
     0
 48
50.0
100
AcDbPolyline
 90
        2
 70
     1
 43
0.5
 10
-0.25
 20
0.0
 42
1.0
 10
0.25
 20
0.0
 42
1.0
  0
LINE
  5
164B9
330
164B4
100
AcDbEntity
  8
0
  6
ByBlock
 62
     0
 48
50.0
100
AcDbLine
 10
-0.5
 20
0.0
 30
0.0
 11
-1.0
 21
0.0
 31
0.0
  0
ENDBLK
  5
164BB
330
164B4
100
AcDbEntity
  8
0
 48
50.0
100
AcDbBlockEnd
  0
BLOCK
  5
18BC9
330
18BC8
100
AcDbEntity
  8
0
 48
50.0
100
AcDbBlockBegin
  2
*D3
 70
     1
 10
0.0
 20
0.0
 30
0.0
  3
*D3
  1

  0
LINE
  5
18BCA
330
18BC8
100
AcDbEntity
  8
寸法
 62
     0
 48
50.0
370
    -2
100
AcDbLine
 10
7649.896575106999
 20
9636.123139034717
 30
0.0
 11
8702.429862581047
 21
9636.123139034717
 31
0.0
  0
LINE
  5
18BCB
330
18BC8
100
AcDbEntity
  8
寸法
 62
     0
 48
50.0
370
    -2
100
AcDbLine
 10
7649.896575106973
 20
7846.123139034709
 30
0.0
 11
8702.429862581047
 21
7846.123139034709
 31
0.0
  0
LINE
  5
18BCC
330
18BC8
100
AcDbEntity
  8
寸法
 62
     0
 48
50.0
370
    -2
100
AcDbLine
 10
8642.429862581046
 20
9636.123139034717
 30
0.0
 11
8642.429862581046
 21
7846.123139034709
 31
0.0
  0
INSERT
  5
18BCD
330
18BC8
100
AcDbEntity
  8
寸法
 62
     0
 48
50.0
370
    -2
100
AcDbBlockReference
  2
_DOTSMALL
 10
8642.429862581046
 20
9636.123139034717
 30
0.0
 41
100.0
 42
100.0
 43
100.0
 50
90.0
  0
INSERT
  5
18BCE
330
18BC8
100
AcDbEntity
  8
寸法
 62
     0
 48
50.0
370
    -2
100
AcDbBlockReference
  2
_DOTSMALL
 10
8642.429862581046
 20
7846.123139034709
 30
0.0
 41
100.0
 42
100.0
 43
100.0
 50
270.0
  0
MTEXT
  5
18BCF
330
18BC8
100
AcDbEntity
  8
寸法
 62
     7
 48
50.0
100
AcDbMText
 10
8542.429862581045
 20
8741.123139034712
 30
0.0
 40
120.0
 41
0.0
 71
     5
 72
     1
  1
\A1;1790
  7
STYLE1
 11
0.0000000000000001
 21
1.0
 31
0.0
 73
     1
 44
1.0
1001
ACAD
1000
MTEXTBEGIN
1070
    73
1070
     1
1070
    44
1040
1.0
1070
    74
1070
     0
1000
MTEXTEND
  0
POINT
  5
18BD0
330
18BC8
100
AcDbEntity
  8
DEFPOINTS
 62
     0
 48
50.0
100
AcDbPoint
 10
7629.896575106998
 20
9636.123139034717
 30
0.0
  0
POINT
  5
18BD1
330
18BC8
100
AcDbEntity
  8
DEFPOINTS
 62
     0
 48
50.0
100
AcDbPoint
 10
7629.896575106974
 20
7846.123139034709
 30
0.0
  0
POINT
  5
18BD2
330
18BC8
100
AcDbEntity
  8
DEFPOINTS
 62
     0
 48
50.0
100
AcDbPoint
 10
8642.429862581046
 20
7846.123139034709
 30
0.0
  0
ENDBLK
  5
18BD3
330
18BC8
100
AcDbEntity
  8
0
 48
50.0
100
AcDbBlockEnd
  0
BLOCK
  5
18BD5
330
18BD4
100
AcDbEntity
  8
0
 48
50.0
100
AcDbBlockBegin
  2
*D4
 70
     1
 10
0.0
 20
0.0
 30
0.0
  3
*D4
  1

  0
LINE
  5
18BD6
330
18BD4
100
AcDbEntity
  8
寸法
 62
     0
 48
50.0
370
    -2
100
AcDbLine
 10
4214.896575106998
 20
9656.123139034622
 30
0.0
 11
4214.896575106998
 21
10211.93135865972
 31
0.0
  0
LINE
  5
18BD7
330
18BD4
100
AcDbEntity
  8
寸法
 62
     0
 48
50.0
370
    -2
100
AcDbLine
 10
7574.896575106999
 20
9656.123139034718
 30
0.0
 11
7574.896575106999
 21
10211.93135865972
 31
0.0
  0
LINE
  5
18BD8
330
18BD4
100
AcDbEntity
  8
寸法
 62
     0
 48
50.0
370
    -2
100
AcDbLine
 10
4214.896575106998
 20
10151.93135865972
 30
0.0
 11
7574.896575106999
 21
10151.93135865972
 31
0.0
  0
INSERT
  5
18BD9
330
18BD4
100
AcDbEntity
  8
寸法
 62
     0
 48
50.0
370
    -2
100
AcDbBlockReference
  2
_DOTSMALL
 10
4214.896575106998
 20
10151.93135865972
 30
0.0
 41
100.0
 42
100.0
 43
100.0
 50
180.0
  0
INSERT
  5
18BDA
330
18BD4
100
AcDbEntity
  8
寸法
 62
     0
 48
50.0
370
    -2
100
AcDbBlockReference
  2
_DOTSMALL
 10
7574.896575106999
 20
10151.93135865972
 30
0.0
 41
100.0
 42
100.0
 43
100.0
  0
MTEXT
  5
18BDB
330
18BD4
100
AcDbEntity
  8
寸法
 62
     7
 48
50.0
100
AcDbMText
 10
5894.896575106997
 20
10251.94316968334
 30
0.0
 40
120.0
 41
0.0
 71
     5
 72
     1
  1
\A1;8X420=3360
  7
STYLE1
 73
     1
 44
1.0
1001
ACAD
1000
MTEXTBEGIN
1070
    73
1070
     1
1070
    44
1040
1.0
1070
    74
1070
     0
1000
MTEXTEND
  0
POINT
  5
18BDC
330
18BD4
100
AcDbEntity
  8
DEFPOINTS
 62
     0
 48
50.0
100
AcDbPoint
 10
4214.896575106998
 20
9636.123139034623
 30
0.0
  0
POINT
  5
18BDD
330
18BD4
100
AcDbEntity
  8
DEFPOINTS
 62
     0
 48
50.0
100
AcDbPoint
 10
7574.896575106999
 20
9636.123139034717
 30
0.0
  0
POINT
  5
18BDE
330
18BD4
100
AcDbEntity
  8
DEFPOINTS
 62
     0
 48
50.0
100
AcDbPoint
 10
7574.896575106999
 20
10151.93135865972
 30
0.0
  0
ENDBLK
  5
18BDF
330
18BD4
100
AcDbEntity
  8
0
 48
50.0
100
AcDbBlockEnd
  0
BLOCK
  5
18BE1
330
18BE0
100
AcDbEntity
  8
0
 48
50.0
100
AcDbBlockBegin
  2
*D5
 70
     1
 10
0.0
 20
0.0
 30
0.0
  3
*D5
  1

  0
LINE
  5
18BE2
330
18BE0
100
AcDbEntity
  8
寸法
 62
     0
 48
50.0
370
    -2
100
AcDbLine
 10
7574.896575106999
 20
9656.123139034718
 30
0.0
 11
7574.896575106999
 21
10211.9313586597
 31
0.0
  0
LINE
  5
18BE3
330
18BE0
100
AcDbEntity
  8
寸法
 62
     0
 48
50.0
370
    -2
100
AcDbLine
 10
7629.896575106998
 20
9656.123139034718
 30
0.0
 11
7629.896575106998
 21
10211.9313586597
 31
0.0
  0
LINE
  5
18BE4
330
18BE0
100
AcDbEntity
  8
寸法
 62
     0
 48
50.0
370
    -2
100
AcDbLine
 10
7574.896575106999
 20
10151.9313586597
 30
0.0
 11
7474.896575106999
 21
10151.9313586597
 31
0.0
  0
LINE
  5
18BE5
330
18BE0
100
AcDbEntity
  8
寸法
 62
     0
 48
50.0
370
    -2
100
AcDbLine
 10
7629.896575106998
 20
10151.9313586597
 30
0.0
 11
8046.867137855477
 21
10151.9313586597
 31
0.0
  0
LINE
  5
18BE6
330
18BE0
100
AcDbEntity
  8
寸法
 62
     0
 48
50.0
370
    -2
100
AcDbLine
 10
7574.896575106999
 20
10151.9313586597
 30
0.0
 11
7629.896575106998
 21
10151.9313586597
 31
0.0
  0
INSERT
  5
18BE7
330
18BE0
100
AcDbEntity
  8
寸法
 62
     0
 48
50.0
370
    -2
100
AcDbBlockReference
  2
_DOTSMALL
 10
7574.896575106999
 20
10151.9313586597
 30
0.0
 41
100.0
 42
100.0
 43
100.0
  0
INSERT
  5
18BE8
330
18BE0
100
AcDbEntity
  8
寸法
 62
     0
 48
50.0
370
    -2
100
AcDbBlockReference
  2
_DOTSMALL
 10
7629.896575106998
 20
10151.9313586597
 30
0.0
 41
100.0
 42
100.0
 43
100.0
 50
180.0
  0
MTEXT
  5
18BE9
330
18BE0
100
AcDbEntity
  8
寸法
 62
     7
 48
50.0
100
AcDbMText
 10
7938.381856481237
 20
10251.9313586597
 30
0.0
 40
120.0
 41
0.0
 71
     5
 72
     1
  1
\A1;55
  7
STYLE1
 73
     1
 44
1.0
1001
ACAD
1000
MTEXTBEGIN
1070
    73
1070
     1
1070
    44
1040
1.0
1070
    74
1070
     0
1000
MTEXTEND
  0
POINT
  5
18BEA
330
18BE0
100
AcDbEntity
  8
DEFPOINTS
 62
     0
 48
50.0
100
AcDbPoint
 10
7574.896575106999
 20
9636.123139034717
 30
0.0
  0
POINT
  5
18BEB
330
18BE0
100
AcDbEntity
  8
DEFPOINTS
 62
     0
 48
50.0
100
AcDbPoint
 10
7629.896575106998
 20
9636.123139034717
 30
0.0
  0
POINT
  5
18BEC
330
18BE0
100
AcDbEntity
  8
DEFPOINTS
 62
     0
 48
50.0
100
AcDbPoint
 10
7629.896575106998
 20
10151.9313586597
 30
0.0
  0
ENDBLK
  5
18BED
330
18BE0
100
AcDbEntity
  8
0
 48
50.0
100
AcDbBlockEnd
  0
BLOCK
  5
18BEF
330
18BEE
100
AcDbEntity
  8
0
 48
50.0
100
AcDbBlockBegin
  2
*D6
 70
     1
 10
0.0
 20
0.0
 30
0.0
  3
*D6
  1

  0
LINE
  5
18BF0
330
18BEE
100
AcDbEntity
  8
寸法
 62
     0
 48
50.0
370
    -2
100
AcDbLine
 10
7649.896575106999
 20
9636.123139034717
 30
0.0
 11
8337.32292084141
 21
9636.123139034717
 31
0.0
  0
LINE
  5
18BF1
330
18BEE
100
AcDbEntity
  8
寸法
 62
     0
 48
50.0
370
    -2
100
AcDbLine
 10
7649.896575106999
 20
9581.123139034721
 30
0.0
 11
8337.32292084141
 21
9581.123139034721
 31
0.0
  0
LINE
  5
18BF2
330
18BEE
100
AcDbEntity
  8
寸法
 62
     0
 48
50.0
370
    -2
100
AcDbLine
 10
8277.322920841411
 20
9581.123139034721
 30
0.0
 11
8277.322920841411
 21
9481.123139034719
 31
0.0
  0
LINE
  5
18BF3
330
18BEE
100
AcDbEntity
  8
寸法
 62
     0
 48
50.0
370
    -2
100
AcDbLine
 10
8277.322920841411
 20
9636.123139034717
 30
0.0
 11
8277.322920841411
 21
10053.09370178319
 31
0.0
  0
LINE
  5
18BF4
330
18BEE
100
AcDbEntity
  8
寸法
 62
     0
 48
50.0
370
    -2
100
AcDbLine
 10
8277.322920841411
 20
9581.123139034721
 30
0.0
 11
8277.322920841411
 21
9636.123139034717
 31
0.0
  0
INSERT
  5
18BF5
330
18BEE
100
AcDbEntity
  8
寸法
 62
     0
 48
50.0
370
    -2
100
AcDbBlockReference
  2
_DOTSMALL
 10
8277.322920841411
 20
9581.123139034721
 30
0.0
 41
100.0
 42
100.0
 43
100.0
 50
90.0
  0
INSERT
  5
18BF6
330
18BEE
100
AcDbEntity
  8
寸法
 62
     0
 48
50.0
370
    -2
100
AcDbBlockReference
  2
_DOTSMALL
 10
8277.322920841411
 20
9636.123139034717
 30
0.0
 41
100.0
 42
100.0
 43
100.0
 50
270.0
  0
MTEXT
  5
18BF7
330
18BEE
100
AcDbEntity
  8
寸法
 62
     7
 48
50.0
100
AcDbMText
 10
8177.32292084141
 20
9944.608420408957
 30
0.0
 40
120.0
 41
0.0
 71
     5
 72
     1
  1
\A1;55
  7
STYLE1
 11
0.0000000000000001
 21
1.0
 31
0.0
 73
     1
 44
1.0
1001
ACAD
1000
MTEXTBEGIN
1070
    73
1070
     1
1070
    44
1040
1.0
1070
    74
1070
     0
1000
MTEXTEND
  0
POINT
  5
18BF8
330
18BEE
100
AcDbEntity
  8
DEFPOINTS
 62
     0
 48
50.0
100
AcDbPoint
 10
7629.896575106998
 20
9636.123139034717
 30
0.0
  0
POINT
  5
18BF9
330
18BEE
100
AcDbEntity
  8
DEFPOINTS
 62
     0
 48
50.0
100
AcDbPoint
 10
7629.896575106998
 20
9581.123139034721
 30
0.0
  0
POINT
  5
18BFA
330
18BEE
100
AcDbEntity
  8
DEFPOINTS
 62
     0
 48
50.0
100
AcDbPoint
 10
8277.322920841411
 20
9581.123139034721
 30
0.0
  0
ENDBLK
  5
18BFB
330
18BEE
100
AcDbEntity
  8
0
 48
50.0
100
AcDbBlockEnd
  0
BLOCK
  5
18BFD
330
18BFC
100
AcDbEntity
  8
0
 48
50.0
100
AcDbBlockBegin
  2
*D7
 70
     1
 10
0.0
 20
0.0
 30
0.0
  3
*D7
  1

  0
LINE
  5
18BFE
330
18BFC
100
AcDbEntity
  8
寸法
 62
     0
 48
50.0
370
    -2
100
AcDbLine
 10
4159.896575106963
 20
9656.123139034622
 30
0.0
 11
4159.896575106963
 21
10211.9313586596
 31
0.0
  0
LINE
  5
18BFF
330
18BFC
100
AcDbEntity
  8
寸法
 62
     0
 48
50.0
370
    -2
100
AcDbLine
 10
4214.896575106998
 20
9656.123139034622
 30
0.0
 11
4214.896575106998
 21
10211.9313586596
 31
0.0
  0
LINE
  5
18C00
330
18BFC
100
AcDbEntity
  8
寸法
 62
     0
 48
50.0
370
    -2
100
AcDbLine
 10
4214.896575106998
 20
10151.9313586596
 30
0.0
 11
4314.896575106998
 21
10151.9313586596
 31
0.0
  0
LINE
  5
18C01
330
18BFC
100
AcDbEntity
  8
寸法
 62
     0
 48
50.0
370
    -2
100
AcDbLine
 10
4159.896575106963
 20
10151.9313586596
 30
0.0
 11
3742.926012358486
 21
10151.9313586596
 31
0.0
  0
LINE
  5
18C02
330
18BFC
100
AcDbEntity
  8
寸法
 62
     0
 48
50.0
370
    -2
100
AcDbLine
 10
4214.896575106998
 20
10151.9313586596
 30
0.0
 11
4159.896575106963
 21
10151.9313586596
 31
0.0
  0
INSERT
  5
18C03
330
18BFC
100
AcDbEntity
  8
寸法
 62
     0
 48
50.0
370
    -2
100
AcDbBlockReference
  2
_DOTSMALL
 10
4214.896575106998
 20
10151.9313586596
 30
0.0
 41
100.0
 42
100.0
 43
100.0
 50
180.0
  0
INSERT
  5
18C04
330
18BFC
100
AcDbEntity
  8
寸法
 62
     0
 48
50.0
370
    -2
100
AcDbBlockReference
  2
_DOTSMALL
 10
4159.896575106963
 20
10151.9313586596
 30
0.0
 41
100.0
 42
100.0
 43
100.0
  0
MTEXT
  5
18C05
330
18BFC
100
AcDbEntity
  8
寸法
 62
     7
 48
50.0
100
AcDbMText
 10
3851.411293732725
 20
10251.9313586596
 30
0.0
 40
120.0
 41
0.0
 71
     5
 72
     1
  1
\A1;55
  7
STYLE1
 73
     1
 44
1.0
1001
ACAD
1000
MTEXTBEGIN
1070
    73
1070
     1
1070
    44
1040
1.0
1070
    74
1070
     0
1000
MTEXTEND
  0
POINT
  5
18C06
330
18BFC
100
AcDbEntity
  8
DEFPOINTS
 62
     0
 48
50.0
100
AcDbPoint
 10
4159.896575106963
 20
9636.123139034623
 30
0.0
  0
POINT
  5
18C07
330
18BFC
100
AcDbEntity
  8
DEFPOINTS
 62
     0
 48
50.0
100
AcDbPoint
 10
4214.896575106998
 20
9636.123139034623
 30
0.0
  0
POINT
  5
18C08
330
18BFC
100
AcDbEntity
  8
DEFPOINTS
 62
     0
 48
50.0
100
AcDbPoint
 10
4214.896575106998
 20
10151.9313586596
 30
0.0
  0
ENDBLK
  5
18C09
330
18BFC
100
AcDbEntity
  8
0
 48
50.0
100
AcDbBlockEnd
  0
BLOCK
  5
18C0B
330
18C0A
100
AcDbEntity
  8
0
 48
50.0
100
AcDbBlockBegin
  2
*D8
 70
     1
 10
0.0
 20
0.0
 30
0.0
  3
*D8
  1

  0
LINE
  5
18C0C
330
18C0A
100
AcDbEntity
  8
寸法
 62
     0
 48
50.0
370
    -2
100
AcDbLine
 10
4159.896575106992
 20
7826.123139034546
 30
0.0
 11
4159.896575106992
 21
6804.372203245664
 31
0.0
  0
LINE
  5
18C0D
330
18C0A
100
AcDbEntity
  8
寸法
 62
     0
 48
50.0
370
    -2
100
AcDbLine
 10
7629.896575106974
 20
7826.123139034674
 30
0.0
 11
7629.896575106974
 21
6804.372203245664
 31
0.0
  0
LINE
  5
18C0E
330
18C0A
100
AcDbEntity
  8
寸法
 62
     0
 48
50.0
370
    -2
100
AcDbLine
 10
4159.896575106992
 20
6864.372203245665
 30
0.0
 11
7629.896575106974
 21
6864.372203245665
 31
0.0
  0
INSERT
  5
18C0F
330
18C0A
100
AcDbEntity
  8
寸法
 62
     0
 48
50.0
370
    -2
100
AcDbBlockReference
  2
_DOTSMALL
 10
4159.896575106992
 20
6864.372203245665
 30
0.0
 41
100.0
 42
100.0
 43
100.0
 50
180.0
  0
INSERT
  5
18C10
330
18C0A
100
AcDbEntity
  8
寸法
 62
     0
 48
50.0
370
    -2
100
AcDbBlockReference
  2
_DOTSMALL
 10
7629.896575106974
 20
6864.372203245665
 30
0.0
 41
100.0
 42
100.0
 43
100.0
  0
MTEXT
  5
18C11
330
18C0A
100
AcDbEntity
  8
寸法
 62
     7
 48
50.0
100
AcDbMText
 10
5911.12376113973
 20
6964.372203245665
 30
0.0
 40
120.0
 41
0.0
 71
     5
 72
     1
  1
\A1;3470
  7
STYLE1
 73
     1
 44
1.0
1001
ACAD
1000
MTEXTBEGIN
1070
    73
1070
     1
1070
    44
1040
1.0
1070
    74
1070
     0
1000
MTEXTEND
  0
POINT
  5
18C12
330
18C0A
100
AcDbEntity
  8
DEFPOINTS
 62
     0
 48
50.0
100
AcDbPoint
 10
4159.896575106992
 20
7846.123139034546
 30
0.0
  0
POINT
  5
18C13
330
18C0A
100
AcDbEntity
  8
DEFPOINTS
 62
     0
 48
50.0
100
AcDbPoint
 10
7629.896575106974
 20
7846.123139034673
 30
0.0
  0
POINT
  5
18C14
330
18C0A
100
AcDbEntity
  8
DEFPOINTS
 62
     0
 48
50.0
100
AcDbPoint
 10
7629.896575106974
 20
6864.372203245665
 30
0.0
  0
ENDBLK
  5
18C15
330
18C0A
100
AcDbEntity
  8
0
 48
50.0
100
AcDbBlockEnd
  0
BLOCK
  5
18C17
330
18C16
100
AcDbEntity
  8
0
 48
50.0
100
AcDbBlockBegin
  2
*D9
 70
     1
 10
0.0
 20
0.0
 30
0.0
  3
*D9
  1

  0
LINE
  5
18C18
330
18C16
100
AcDbEntity
  8
寸法
 62
     0
 48
50.0
370
    -2
100
AcDbLine
 10
7649.896575106973
 20
7901.123139034706
 30
0.0
 11
8337.322920841385
 21
7901.123139034706
 31
0.0
  0
LINE
  5
18C19
330
18C16
100
AcDbEntity
  8
寸法
 62
     0
 48
50.0
370
    -2
100
AcDbLine
 10
7649.896575106973
 20
7846.123139034709
 30
0.0
 11
8337.322920841385
 21
7846.123139034709
 31
0.0
  0
LINE
  5
18C1A
330
18C16
100
AcDbEntity
  8
寸法
 62
     0
 48
50.0
370
    -2
100
AcDbLine
 10
8277.322920841385
 20
7901.123139034706
 30
0.0
 11
8277.322920841385
 21
8001.123139034707
 31
0.0
  0
LINE
  5
18C1B
330
18C16
100
AcDbEntity
  8
寸法
 62
     0
 48
50.0
370
    -2
100
AcDbLine
 10
8277.322920841385
 20
7846.123139034709
 30
0.0
 11
8277.322920841385
 21
7429.152576286229
 31
0.0
  0
LINE
  5
18C1C
330
18C16
100
AcDbEntity
  8
寸法
 62
     0
 48
50.0
370
    -2
100
AcDbLine
 10
8277.322920841385
 20
7901.123139034706
 30
0.0
 11
8277.322920841385
 21
7846.123139034709
 31
0.0
  0
INSERT
  5
18C1D
330
18C16
100
AcDbEntity
  8
寸法
 62
     0
 48
50.0
370
    -2
100
AcDbBlockReference
  2
_DOTSMALL
 10
8277.322920841385
 20
7901.123139034706
 30
0.0
 41
100.0
 42
100.0
 43
100.0
 50
270.0
  0
INSERT
  5
18C1E
330
18C16
100
AcDbEntity
  8
寸法
 62
     0
 48
50.0
370
    -2
100
AcDbBlockReference
  2
_DOTSMALL
 10
8277.322920841385
 20
7846.123139034709
 30
0.0
 41
100.0
 42
100.0
 43
100.0
 50
90.0
  0
MTEXT
  5
18C1F
330
18C16
100
AcDbEntity
  8
寸法
 62
     7
 48
50.0
100
AcDbMText
 10
8177.322920841383
 20
7537.637857660469
 30
0.0
 40
120.0
 41
0.0
 71
     5
 72
     1
  1
\A1;55
  7
STYLE1
 11
0.0000000000000001
 21
1.0
 31
0.0
 73
     1
 44
1.0
1001
ACAD
1000
MTEXTBEGIN
1070
    73
1070
     1
1070
    44
1040
1.0
1070
    74
1070
     0
1000
MTEXTEND
  0
POINT
  5
18C20
330
18C16
100
AcDbEntity
  8
DEFPOINTS
 62
     0
 48
50.0
100
AcDbPoint
 10
7629.896575106974
 20
7901.123139034706
 30
0.0
  0
POINT
  5
18C21
330
18C16
100
AcDbEntity
  8
DEFPOINTS
 62
     0
 48
50.0
100
AcDbPoint
 10
7629.896575106974
 20
7846.123139034709
 30
0.0
  0
POINT
  5
18C22
330
18C16
100
AcDbEntity
  8
DEFPOINTS
 62
     0
 48
50.0
100
AcDbPoint
 10
8277.322920841385
 20
7846.123139034709
 30
0.0
  0
ENDBLK
  5
18C23
330
18C16
100
AcDbEntity
  8
0
 48
50.0
100
AcDbBlockEnd
  0
BLOCK
  5
18C25
330
18C24
100
AcDbEntity
  8
0
 48
50.0
100
AcDbBlockBegin
  2
*D10
 70
     1
 10
0.0
 20
0.0
 30
0.0
  3
*D10
  1

  0
LINE
  5
18C26
330
18C24
100
AcDbEntity
  8
寸法
 62
     0
 48
50.0
370
    -2
100
AcDbLine
 10
6533.037591258376
 20
9136.123139034728
 30
0.0
 11
6465.083950562664
 21
8882.516699399049
 31
0.0
  0
LINE
  5
18C27
330
18C24
100
AcDbEntity
  8
寸法
 62
     0
 48
50.0
370
    -2
100
AcDbLine
 10
7596.037591258388
 20
9136.123139034721
 30
0.0
 11
7528.083950562677
 21
8882.516699399049
 31
0.0
  0
LINE
  5
18C28
330
18C24
100
AcDbEntity
  8
寸法
 62
     0
 48
50.0
370
    -2
100
AcDbLine
 10
6481.160902108531
 20
8942.51669939905
 30
0.0
 11
7544.160902108544
 21
8942.51669939905
 31
0.0
  0
INSERT
  5
18C29
330
18C24
100
AcDbEntity
  8
寸法
 62
     0
 48
50.0
370
    -2
100
AcDbBlockReference
  2
_DOTSMALL
 10
6481.160902108531
 20
8942.51669939905
 30
0.0
 41
100.0
 42
100.0
 43
100.0
 50
180.0
  0
INSERT
  5
18C2A
330
18C24
100
AcDbEntity
  8
寸法
 62
     0
 48
50.0
370
    -2
100
AcDbBlockReference
  2
_DOTSMALL
 10
7544.160902108544
 20
8942.51669939905
 30
0.0
 41
100.0
 42
100.0
 43
100.0
  0
MTEXT
  5
18C2B
330
18C24
100
AcDbEntity
  8
寸法
 62
     7
 48
50.0
100
AcDbMText
 10
7061.28653022935
 20
9042.516699399049
 30
0.0
 40
120.0
 41
0.0
 71
     5
 72
     1
  1
\A1;1063
  7
STYLE1
 73
     1
 44
1.0
1001
ACAD
1000
MTEXTBEGIN
1070
    73
1070
     1
1070
    44
1040
1.0
1070
    74
1070
     0
1000
MTEXTEND
  0
POINT
  5
18C2C
330
18C24
100
AcDbEntity
  8
DEFPOINTS
 62
     0
 48
50.0
100
AcDbPoint
 10
6538.396575106998
 20
9156.123139034727
 30
0.0
  0
POINT
  5
18C2D
330
18C24
100
AcDbEntity
  8
DEFPOINTS
 62
     0
 48
50.0
100
AcDbPoint
 10
7601.39657510701
 20
9156.12313903472
 30
0.0
  0
POINT
  5
18C2E
330
18C24
100
AcDbEntity
  8
DEFPOINTS
 62
     0
 48
50.0
100
AcDbPoint
 10
7544.160902108544
 20
8942.51669939905
 30
0.0
  0
ENDBLK
  5
18C2F
330
18C24
100
AcDbEntity
  8
0
 48
50.0
100
AcDbBlockEnd
  0
BLOCK
  5
18C31
330
18C30
100
AcDbEntity
  8
0
 48
50.0
100
AcDbBlockBegin
  2
*D11
 70
     1
 10
0.0
 20
0.0
 30
0.0
  3
*D11
  1

  0
LINE
  5
18C32
330
18C30
100
AcDbEntity
  8
寸法
 62
     0
 48
50.0
370
    -2
100
AcDbLine
 10
7621.396575106999
 20
9600.764155186094
 30
0.0
 11
8016.754300969024
 21
9494.828371819961
 31
0.0
  0
LINE
  5
18C33
330
18C30
100
AcDbEntity
  8
寸法
 62
     0
 48
50.0
370
    -2
100
AcDbLine
 10
7621.396575106999
 20
9150.764155186099
 30
0.0
 11
8016.754300969024
 21
9044.828371819964
 31
0.0
  0
LINE
  5
18C34
330
18C30
100
AcDbEntity
  8
寸法
 62
     0
 48
50.0
370
    -2
100
AcDbLine
 10
7956.754300969024
 20
9510.905323365827
 30
0.0
 11
7956.754300969024
 21
9060.90532336583
 31
0.0
  0
INSERT
  5
18C35
330
18C30
100
AcDbEntity
  8
寸法
 62
     0
 48
50.0
370
    -2
100
AcDbBlockReference
  2
_DOTSMALL
 10
7956.754300969024
 20
9510.905323365827
 30
0.0
 41
100.0
 42
100.0
 43
100.0
 50
90.0
  0
INSERT
  5
18C36
330
18C30
100
AcDbEntity
  8
寸法
 62
     0
 48
50.0
370
    -2
100
AcDbBlockReference
  2
_DOTSMALL
 10
7956.754300969024
 20
9060.90532336583
 30
0.0
 41
100.0
 42
100.0
 43
100.0
 50
270.0
  0
MTEXT
  5
18C37
330
18C30
100
AcDbEntity
  8
寸法
 62
     7
 48
50.0
100
AcDbMText
 10
7856.754300969022
 20
9285.905323365829
 30
0.0
 40
120.0
 41
0.0
 71
     5
 72
     1
  1
\A1;450
  7
STYLE1
 11
0.0000000000000001
 21
1.0
 31
0.0
 73
     1
 44
1.0
1001
ACAD
1000
MTEXTBEGIN
1070
    73
1070
     1
1070
    44
1040
1.0
1070
    74
1070
     0
1000
MTEXTEND
  0
POINT
  5
18C38
330
18C30
100
AcDbEntity
  8
DEFPOINTS
 62
     0
 48
50.0
100
AcDbPoint
 10
7601.396575106999
 20
9606.123139034718
 30
0.0
  0
POINT
  5
18C39
330
18C30
100
AcDbEntity
  8
DEFPOINTS
 62
     0
 48
50.0
100
AcDbPoint
 10
7601.396575106999
 20
9156.12313903472
 30
0.0
  0
POINT
  5
18C3A
330
18C30
100
AcDbEntity
  8
DEFPOINTS
 62
     0
 48
50.0
100
AcDbPoint
 10
7956.754300969024
 20
9060.90532336583
 30
0.0
  0
ENDBLK
  5
18C3B
330
18C30
100
AcDbEntity
  8
0
 48
50.0
100
AcDbBlockEnd
  0
BLOCK
  5
18C3D
330
18C3C
100
AcDbEntity
  8
0
 48
50.0
100
AcDbBlockBegin
  2
*D12
 70
     1
 10
0.0
 20
0.0
 30
0.0
  3
*D12
  1

  0
LINE
  5
18C3E
330
18C3C
100
AcDbEntity
  8
寸法
 62
     0
 48
50.0
370
    -2
100
AcDbLine
 10
7649.896575106999
 20
9581.123139034721
 30
0.0
 11
8337.32292084141
 21
9581.123139034721
 31
0.0
  0
LINE
  5
18C3F
330
18C3C
100
AcDbEntity
  8
寸法
 62
     0
 48
50.0
370
    -2
100
AcDbLine
 10
7649.896575106973
 20
7901.123139034706
 30
0.0
 11
8337.32292084141
 21
7901.123139034706
 31
0.0
  0
LINE
  5
18C40
330
18C3C
100
AcDbEntity
  8
寸法
 62
     0
 48
50.0
370
    -2
100
AcDbLine
 10
8277.322920841411
 20
9581.123139034721
 30
0.0
 11
8277.322920841411
 21
7901.123139034706
 31
0.0
  0
INSERT
  5
18C41
330
18C3C
100
AcDbEntity
  8
寸法
 62
     0
 48
50.0
370
    -2
100
AcDbBlockReference
  2
_DOTSMALL
 10
8277.322920841411
 20
9581.123139034721
 30
0.0
 41
100.0
 42
100.0
 43
100.0
 50
90.0
  0
INSERT
  5
18C42
330
18C3C
100
AcDbEntity
  8
寸法
 62
     0
 48
50.0
370
    -2
100
AcDbBlockReference
  2
_DOTSMALL
 10
8277.322920841411
 20
7901.123139034706
 30
0.0
 41
100.0
 42
100.0
 43
100.0
 50
270.0
  0
MTEXT
  5
18C43
330
18C3C
100
AcDbEntity
  8
寸法
 62
     7
 48
50.0
100
AcDbMText
 10
8177.311109817788
 20
8741.123139034712
 30
0.0
 40
120.0
 41
0.0
 71
     5
 72
     1
  1
\A1;4X420=1680
  7
STYLE1
 11
0.0000000000000001
 21
1.0
 31
0.0
 73
     1
 44
1.0
1001
ACAD
1000
MTEXTBEGIN
1070
    73
1070
     1
1070
    44
1040
1.0
1070
    74
1070
     0
1000
MTEXTEND
  0
POINT
  5
18C44
330
18C3C
100
AcDbEntity
  8
DEFPOINTS
 62
     0
 48
50.0
100
AcDbPoint
 10
7629.896575106998
 20
9581.123139034721
 30
0.0
  0
POINT
  5
18C45
330
18C3C
100
AcDbEntity
  8
DEFPOINTS
 62
     0
 48
50.0
100
AcDbPoint
 10
7629.896575106974
 20
7901.123139034706
 30
0.0
  0
POINT
  5
18C46
330
18C3C
100
AcDbEntity
  8
DEFPOINTS
 62
     0
 48
50.0
100
AcDbPoint
 10
8277.322920841411
 20
7901.123139034706
 30
0.0
  0
ENDBLK
  5
18C47
330
18C3C
100
AcDbEntity
  8
0
 48
50.0
100
AcDbBlockEnd
  0
BLOCK
  5
18C49
330
18C48
100
AcDbEntity
  8
0
 48
50.0
100
AcDbBlockBegin
  2
*D13
 70
     1
 10
0.0
 20
0.0
 30
0.0
  3
*D13
  1

  0
LINE
  5
18C4A
330
18C48
100
AcDbEntity
  8
寸法
 62
     0
 48
50.0
370
    -2
100
AcDbLine
 10
4183.037591258377
 20
9136.123139034619
 30
0.0
 11
4115.083950562663
 21
8882.516699398941
 31
0.0
  0
LINE
  5
18C4B
330
18C48
100
AcDbEntity
  8
寸法
 62
     0
 48
50.0
370
    -2
100
AcDbLine
 10
5246.037591258307
 20
9136.123139034671
 30
0.0
 11
5178.08395056258
 21
8882.516699398941
 31
0.0
  0
LINE
  5
18C4C
330
18C48
100
AcDbEntity
  8
寸法
 62
     0
 48
50.0
370
    -2
100
AcDbLine
 10
4131.160902108532
 20
8942.516699398941
 30
0.0
 11
5194.160902108448
 21
8942.516699398941
 31
0.0
  0
INSERT
  5
18C4D
330
18C48
100
AcDbEntity
  8
寸法
 62
     0
 48
50.0
370
    -2
100
AcDbBlockReference
  2
_DOTSMALL
 10
4131.160902108532
 20
8942.516699398941
 30
0.0
 41
100.0
 42
100.0
 43
100.0
 50
180.0
  0
INSERT
  5
18C4E
330
18C48
100
AcDbEntity
  8
寸法
 62
     0
 48
50.0
370
    -2
100
AcDbBlockReference
  2
_DOTSMALL
 10
5194.160902108448
 20
8942.516699398941
 30
0.0
 41
100.0
 42
100.0
 43
100.0
  0
MTEXT
  5
18C4F
330
18C48
100
AcDbEntity
  8
寸法
 62
     7
 48
50.0
100
AcDbMText
 10
4658.986452655306
 20
9042.516699398941
 30
0.0
 40
120.0
 41
0.0
 71
     5
 72
     1
  1
\A1;1063
  7
STYLE1
 73
     1
 44
1.0
1001
ACAD
1000
MTEXTBEGIN
1070
    73
1070
     1
1070
    44
1040
1.0
1070
    74
1070
     0
1000
MTEXTEND
  0
POINT
  5
18C50
330
18C48
100
AcDbEntity
  8
DEFPOINTS
 62
     0
 48
50.0
100
AcDbPoint
 10
4188.396575106999
 20
9156.123139034617
 30
0.0
  0
POINT
  5
18C51
330
18C48
100
AcDbEntity
  8
DEFPOINTS
 62
     0
 48
50.0
100
AcDbPoint
 10
5251.396575106929
 20
9156.123139034672
 30
0.0
  0
POINT
  5
18C52
330
18C48
100
AcDbEntity
  8
DEFPOINTS
 62
     0
 48
50.0
100
AcDbPoint
 10
5194.160902108448
 20
8942.516699398941
 30
0.0
  0
ENDBLK
  5
18C53
330
18C48
100
AcDbEntity
  8
0
 48
50.0
100
AcDbBlockEnd
  0
BLOCK
  5
18C55
330
18C54
100
AcDbEntity
  8
0
 48
50.0
100
AcDbBlockBegin
  2
*D14
 70
     1
 10
0.0
 20
0.0
 30
0.0
  3
*D14
  1

  0
LINE
  5
18C56
330
18C54
100
AcDbEntity
  8
寸法
 62
     0
 48
50.0
370
    -2
100
AcDbLine
 10
5274.037591258307
 20
9136.123139034669
 30
0.0
 11
5206.08395056258
 21
8882.516699398941
 31
0.0
  0
LINE
  5
18C57
330
18C54
100
AcDbEntity
  8
寸法
 62
     0
 48
50.0
370
    -2
100
AcDbLine
 10
6505.037591258377
 20
9136.123139034662
 30
0.0
 11
6437.083950562653
 21
8882.516699398941
 31
0.0
  0
LINE
  5
18C58
330
18C54
100
AcDbEntity
  8
寸法
 62
     0
 48
50.0
370
    -2
100
AcDbLine
 10
5222.160902108448
 20
8942.516699398941
 30
0.0
 11
6453.16090210852
 21
8942.516699398941
 31
0.0
  0
INSERT
  5
18C59
330
18C54
100
AcDbEntity
  8
寸法
 62
     0
 48
50.0
370
    -2
100
AcDbBlockReference
  2
_DOTSMALL
 10
5222.160902108448
 20
8942.516699398941
 30
0.0
 41
100.0
 42
100.0
 43
100.0
 50
180.0
  0
INSERT
  5
18C5A
330
18C54
100
AcDbEntity
  8
寸法
 62
     0
 48
50.0
370
    -2
100
AcDbBlockReference
  2
_DOTSMALL
 10
6453.16090210852
 20
8942.516699398941
 30
0.0
 41
100.0
 42
100.0
 43
100.0
  0
MTEXT
  5
18C5B
330
18C54
100
AcDbEntity
  8
寸法
 62
     7
 48
50.0
100
AcDbMText
 10
6081.244808320626
 20
9042.528510422561
 30
0.0
 40
120.0
 41
0.0
 71
     5
 72
     1
  1
\A1;1231
  7
STYLE1
 73
     1
 44
1.0
1001
ACAD
1000
MTEXTBEGIN
1070
    73
1070
     1
1070
    44
1040
1.0
1070
    74
1070
     0
1000
MTEXTEND
  0
POINT
  5
18C5C
330
18C54
100
AcDbEntity
  8
DEFPOINTS
 62
     0
 48
50.0
100
AcDbPoint
 10
5279.396575106929
 20
9156.123139034669
 30
0.0
  0
POINT
  5
18C5D
330
18C54
100
AcDbEntity
  8
DEFPOINTS
 62
     0
 48
50.0
100
AcDbPoint
 10
6510.396575106999
 20
9156.123139034662
 30
0.0
  0
POINT
  5
18C5E
330
18C54
100
AcDbEntity
  8
DEFPOINTS
 62
     0
 48
50.0
100
AcDbPoint
 10
6453.16090210852
 20
8942.516699398941
 30
0.0
  0
ENDBLK
  5
18C5F
330
18C54
100
AcDbEntity
  8
0
 48
50.0
100
AcDbBlockEnd
  0
BLOCK
  5
18C61
330
18C60
100
AcDbEntity
  8
0
 48
50.0
100
AcDbBlockBegin
  2
*D15
 70
     1
 10
0.0
 20
0.0
 30
0.0
  3
*D15
  1

  0
LINE
  5
18C62
330
18C60
100
AcDbEntity
  8
寸法
 62
     0
 48
50.0
370
    -2
100
AcDbLine
 10
5065.896575106966
 20
7749.123139034579
 30
0.0
 11
5065.896575106966
 21
7099.952920982538
 31
0.0
  0
LINE
  5
18C63
330
18C60
100
AcDbEntity
  8
寸法
 62
     0
 48
50.0
370
    -2
100
AcDbLine
 10
6331.896575106966
 20
7749.123139034579
 30
0.0
 11
6331.896575106966
 21
7099.952920982538
 31
0.0
  0
LINE
  5
18C64
330
18C60
100
AcDbEntity
  8
寸法
 62
     0
 48
50.0
370
    -2
100
AcDbLine
 10
5065.896575106966
 20
7159.952920982537
 30
0.0
 11
6331.896575106966
 21
7159.952920982537
 31
0.0
  0
INSERT
  5
18C65
330
18C60
100
AcDbEntity
  8
寸法
 62
     0
 48
50.0
370
    -2
100
AcDbBlockReference
  2
_DOTSMALL
 10
5065.896575106966
 20
7159.952920982537
 30
0.0
 41
100.0
 42
100.0
 43
100.0
 50
180.0
  0
INSERT
  5
18C66
330
18C60
100
AcDbEntity
  8
寸法
 62
     0
 48
50.0
370
    -2
100
AcDbBlockReference
  2
_DOTSMALL
 10
6331.896575106966
 20
7159.952920982537
 30
0.0
 41
100.0
 42
100.0
 43
100.0
  0
MTEXT
  5
18C67
330
18C60
100
AcDbEntity
  8
寸法
 62
     7
 48
50.0
100
AcDbMText
 10
5711.986008735934
 20
7359.964732006159
 30
0.0
 40
120.0
 41
0.0
 71
     5
 72
     1
  1
\A1;有効開口部間口\P1266
  7
STYLE1
 73
     1
 44
1.0
1001
ACAD
1000
MTEXTBEGIN
1070
    73
1070
     1
1070
    44
1040
1.0
1070
    74
1070
     0
1000
MTEXTEND
  0
POINT
  5
18C68
330
18C60
100
AcDbEntity
  8
DEFPOINTS
 62
     0
 48
50.0
100
AcDbPoint
 10
5065.896575106966
 20
7769.123139034579
 30
0.0
  0
POINT
  5
18C69
330
18C60
100
AcDbEntity
  8
DEFPOINTS
 62
     0
 48
50.0
100
AcDbPoint
 10
6331.896575106966
 20
7769.123139034579
 30
0.0
  0
POINT
  5
18C6A
330
18C60
100
AcDbEntity
  8
DEFPOINTS
 62
     0
 48
50.0
100
AcDbPoint
 10
6331.896575106966
 20
7159.952920982537
 30
0.0
  0
ENDBLK
  5
18C6B
330
18C60
100
AcDbEntity
  8
0
 48
50.0
100
AcDbBlockEnd
  0
BLOCK
  5
18C6D
330
18C6C
100
AcDbEntity
  8
0
 48
50.0
100
AcDbBlockBegin
  2
*D16
 70
     1
 10
0.0
 20
0.0
 30
0.0
  3
*D16
  1

  0
LINE
  5
18C6E
330
18C6C
100
AcDbEntity
  8
寸法
 62
     0
 48
50.0
370
    -2
100
AcDbLine
 10
7200.896575106966
 20
7846.123139034578
 30
0.0
 11
7457.192158500191
 21
7846.123139034578
 31
0.0
  0
LINE
  5
18C6F
330
18C6C
100
AcDbEntity
  8
寸法
 62
     0
 48
50.0
370
    -2
100
AcDbLine
 10
7199.896575106966
 20
7769.123139034579
 30
0.0
 11
7457.192158500191
 21
7769.123139034579
 31
0.0
  0
LINE
  5
18C70
330
18C6C
100
AcDbEntity
  8
寸法
 62
     0
 48
50.0
370
    -2
100
AcDbLine
 10
7417.192158500192
 20
7866.123139034579
 30
0.0
 11
7417.192158500192
 21
7886.123139034578
 31
0.0
  0
LINE
  5
18C71
330
18C6C
100
AcDbEntity
  8
寸法
 62
     0
 48
50.0
370
    -2
100
AcDbLine
 10
7417.192158500192
 20
7749.123139034579
 30
0.0
 11
7417.192158500192
 21
7533.123139034573
 31
0.0
  0
LINE
  5
18C72
330
18C6C
100
AcDbEntity
  8
寸法
 62
     0
 48
50.0
370
    -2
100
AcDbLine
 10
7417.192158500192
 20
7846.123139034578
 30
0.0
 11
7417.192158500192
 21
7769.123139034579
 31
0.0
  0
INSERT
  5
18C73
330
18C6C
100
AcDbEntity
  8
寸法
 62
     0
 48
50.0
370
    -2
100
AcDbBlockReference
  2
_DOT
 10
7417.192158500192
 20
7846.123139034578
 30
0.0
 41
20.0
 42
20.0
 43
20.0
 50
270.0
  0
INSERT
  5
18C74
330
18C6C
100
AcDbEntity
  8
寸法
 62
     0
 48
50.0
370
    -2
100
AcDbBlockReference
  2
_DOT
 10
7417.192158500192
 20
7769.123139034579
 30
0.0
 41
20.0
 42
20.0
 43
20.0
 50
90.0
  0
MTEXT
  5
18C75
330
18C6C
100
AcDbEntity
  8
寸法
 62
     7
 48
50.0
100
AcDbMText
 10
7325.192158500191
 20
7631.123139034575
 30
0.0
 40
120.0
 41
0.0
 71
     5
 72
     1
  1
\A1;77
  7
STYLE1
 11
0.0000000000000001
 21
1.0
 31
0.0
 73
     1
 44
1.0
1001
ACAD
1000
MTEXTBEGIN
1070
    73
1070
     1
1070
    44
1040
1.0
1070
    74
1070
     0
1000
MTEXTEND
  0
POINT
  5
18C76
330
18C6C
100
AcDbEntity
  8
DEFPOINTS
 62
     0
 48
50.0
100
AcDbPoint
 10
7180.896575106967
 20
7846.123139034578
 30
0.0
  0
POINT
  5
18C77
330
18C6C
100
AcDbEntity
  8
DEFPOINTS
 62
     0
 48
50.0
100
AcDbPoint
 10
7179.896575106965
 20
7769.123139034579
 30
0.0
  0
POINT
  5
18C78
330
18C6C
100
AcDbEntity
  8
DEFPOINTS
 62
     0
 48
50.0
100
AcDbPoint
 10
7417.192158500192
 20
7769.123139034579
 30
0.0
  0
ENDBLK
  5
18C79
330
18C6C
100
AcDbEntity
  8
0
 48
50.0
100
AcDbBlockEnd
  0
BLOCK
  5
18DA0
330
18C7A
100
AcDbEntity
  8
0
 48
50.0
100
AcDbBlockBegin
  2
A$C3B1A506B
 70
     0
 10
0.0
 20
0.0
 30
0.0
  3
A$C3B1A506B
  1

  0
MTEXT
  5
18C7B
330
18C7A
100
AcDbEntity
  8
寸法
 62
     7
 48
50.0
100
AcDbMText
 10
3342.250386887194
 20
2778.329429134012
 30
0.0
 40
96.0
 41
0.0
 71
     5
 72
     1
  1
棚 2段
  7
STYLE1
 73
     1
 44
1.0
1001
ACAD
1000
MTEXTBEGIN
1070
    73
1070
     1
1070
    44
1040
1.0
1070
    74
1070
     0
1000
MTEXTEND
  0
MTEXT
  5
18C7C
330
18C7A
100
AcDbEntity
  8
寸法
 62
     7
 48
50.0
100
AcDbMText
 10
2167.25038688716
 20
2778.329429133986
 30
0.0
 40
96.0
 41
0.0
 71
     5
 72
     1
  1
棚 2段
  7
STYLE1
 73
     1
 44
1.0
1001
ACAD
1000
MTEXTBEGIN
1070
    73
1070
     1
1070
    44
1040
1.0
1070
    74
1070
     0
1000
MTEXTEND
  0
MTEXT
  5
18C7D
330
18C7A
100
AcDbEntity
  8
寸法
 62
     7
 48
50.0
100
AcDbMText
 10
992.2503868871608
 20
2778.329429133935
 30
0.0
 40
96.0
 41
0.0
 71
     5
 72
     1
  1
棚 2段
  7
STYLE1
 73
     1
 44
1.0
1001
ACAD
1000
MTEXTBEGIN
1070
    73
1070
     1
1070
    44
1040
1.0
1070
    74
1070
     0
1000
MTEXTEND
  0
LINE
  5
18C7E
330
18C7A
100
AcDbEntity
  8
細線
 48
50.0
100
AcDbLine
 10
2771.970589276527
 20
1368.994384123192
 30
0.0
 11
3398.970589276523
 21
1368.994384123192
 31
0.0
  0
LINE
  5
18C7F
330
18C7A
100
AcDbEntity
  8
細線
 48
50.0
100
AcDbLine
 10
2117.970593930113
 20
1335.285615569113
 30
0.0
 11
3398.970589276523
 21
1335.285615569113
 31
0.0
  0
LINE
  5
18C80
330
18C7A
100
AcDbEntity
  8
細線
 48
50.0
100
AcDbLine
 10
2076.970593930115
 20
1364.690523565368
 30
0.0
 11
1322.970589276523
 21
1364.690523565367
 31
0.0
  0
LINE
  5
18C81
330
18C7A
100
AcDbEntity
  8
細線
100
AcDbLine
 10
3170.720579860066
 20
1388.494284088199
 30
0.0
 11
3173.052119381877
 21
1393.494286728162
 31
0.0
  0
LINE
  5
18C82
330
18C7A
100
AcDbEntity
  8
細線
100
AcDbLine
 10
3240.720589276525
 20
1388.494269174465
 30
0.0
 11
3238.389042800336
 21
1393.494286728144
 31
0.0
  0
LINE
  5
18C83
330
18C7A
100
AcDbEntity
  8
細線
100
AcDbLine
 10
3238.389042800336
 20
1393.494286728144
 30
0.0
 11
3173.052119381862
 21
1393.494286728133
 31
0.0
  0
LINE
  5
18C84
330
18C7A
100
AcDbEntity
  8
細線
100
AcDbLine
 10
3098.389042800336
 20
1393.494286728144
 30
0.0
 11
3033.052119381862
 21
1393.494286728133
 31
0.0
  0
LINE
  5
18C85
330
18C7A
100
AcDbEntity
  8
細線
100
AcDbLine
 10
3100.720589276523
 20
1388.494269174465
 30
0.0
 11
3098.389042800336
 21
1393.494286728144
 31
0.0
  0
LINE
  5
18C86
330
18C7A
100
AcDbEntity
  8
細線
100
AcDbLine
 10
3030.720579860066
 20
1388.494284088199
 30
0.0
 11
3033.052119381875
 21
1393.494286728162
 31
0.0
  0
LINE
  5
18C87
330
18C7A
100
AcDbEntity
  8
細線
100
AcDbLine
 10
2890.720589276525
 20
1388.494269174465
 30
0.0
 11
2893.052128798336
 21
1393.494271814428
 31
0.0
  0
LINE
  5
18C88
330
18C7A
100
AcDbEntity
  8
細線
100
AcDbLine
 10
2960.720598692984
 20
1388.494254260731
 30
0.0
 11
2958.389052216793
 21
1393.49427181441
 31
0.0
  0
LINE
  5
18C89
330
18C7A
100
AcDbEntity
  8
細線
100
AcDbLine
 10
2958.389052216795
 20
1393.49427181441
 30
0.0
 11
2893.052128798321
 21
1393.494271814399
 31
0.0
  0
LINE
  5
18C8A
330
18C7A
100
AcDbEntity
  8
細線
100
AcDbLine
 10
2667.139038146739
 20
1359.494298590735
 30
0.0
 11
2601.802114728263
 21
1359.494298590724
 31
0.0
  0
LINE
  5
18C8B
330
18C7A
100
AcDbEntity
  8
細線
100
AcDbLine
 10
2669.470584622926
 20
1354.494281037055
 30
0.0
 11
2667.139038146737
 21
1359.494298590735
 31
0.0
  0
LINE
  5
18C8C
330
18C7A
100
AcDbEntity
  8
細線
100
AcDbLine
 10
2599.470575206469
 20
1354.49429595079
 30
0.0
 11
2601.802114728278
 21
1359.494298590752
 31
0.0
  0
LINE
  5
18C8D
330
18C7A
100
AcDbEntity
  8
細線
 48
50.0
100
AcDbLine
 10
2440.853968524536
 20
1372.765132327548
 30
0.0
 11
2446.609486107205
 21
1354.494281037057
 31
0.0
  0
LINE
  5
18C8E
330
18C7A
100
AcDbEntity
  8
細線
 48
50.0
100
AcDbLine
 10
2429.925520044106
 20
1372.765132327546
 30
0.0
 11
2440.853968524536
 21
1372.765132327548
 31
0.0
  0
ARC
  5
18C8F
330
18C7A
100
AcDbEntity
  8
細線
 48
50.0
100
AcDbCircle
 10
2424.471163986787
 20
1374.265132327546
 30
0.0
 40
5.0
100
AcDbArc
 50
204.6243183520723
 51
335.3756816479278
  0
ARC
  5
18C90
330
18C7A
100
AcDbEntity
  8
細線
 48
50.0
100
AcDbCircle
 10
2429.925520044106
 20
1371.765132327546
 30
0.0
 40
1.0
100
AcDbArc
 50
90.0
 51
155.3756816479277
  0
ARC
  5
18C91
330
18C7A
100
AcDbEntity
  8
細線
 48
50.0
100
AcDbCircle
 10
2419.016807929469
 20
1371.765132327546
 30
0.0
 40
1.0
100
AcDbArc
 50
24.62431835207225
 51
90.0
  0
LINE
  5
18C92
330
18C7A
100
AcDbEntity
  8
細線
 48
50.0
100
AcDbLine
 10
2408.088359449037
 20
1372.765132327548
 30
0.0
 11
2419.016807929469
 21
1372.765132327546
 31
0.0
  0
LINE
  5
18C93
330
18C7A
100
AcDbEntity
  8
細線
 48
50.0
100
AcDbLine
 10
2402.33284186637
 20
1354.494281037054
 30
0.0
 11
2408.088359449037
 21
1372.765132327548
 31
0.0
  0
LINE
  5
18C94
330
18C7A
100
AcDbEntity
  8
細線
100
AcDbLine
 10
2458.070304175992
 20
1354.494278397076
 30
0.0
 11
2460.401843697802
 21
1359.494281037039
 31
0.0
  0
LINE
  5
18C95
330
18C7A
100
AcDbEntity
  8
細線
100
AcDbLine
 10
2528.070313592451
 20
1354.494263483342
 30
0.0
 11
2525.738767116262
 21
1359.494281037021
 31
0.0
  0
LINE
  5
18C96
330
18C7A
100
AcDbEntity
  8
細線
100
AcDbLine
 10
2525.738767116262
 20
1359.494281037021
 30
0.0
 11
2460.40184369779
 21
1359.49428103701
 31
0.0
  0
LINE
  5
18C97
330
18C7A
100
AcDbEntity
  8
細線
100
AcDbLine
 10
2387.139046332155
 20
1359.494281037021
 30
0.0
 11
2321.80212291368
 21
1359.49428103701
 31
0.0
  0
LINE
  5
18C98
330
18C7A
100
AcDbEntity
  8
細線
100
AcDbLine
 10
2389.470592808342
 20
1354.494263483342
 30
0.0
 11
2387.139046332153
 21
1359.494281037021
 31
0.0
  0
LINE
  5
18C99
330
18C7A
100
AcDbEntity
  8
細線
100
AcDbLine
 10
2319.470584622926
 20
1354.494281037054
 30
0.0
 11
2321.802122913694
 21
1359.494281037039
 31
0.0
  0
LINE
  5
18C9A
330
18C7A
100
AcDbEntity
  8
細線
100
AcDbLine
 10
2179.47061994182
 20
1354.494289224422
 30
0.0
 11
2181.802158232587
 21
1359.494289224407
 31
0.0
  0
LINE
  5
18C9B
330
18C7A
100
AcDbEntity
  8
細線
100
AcDbLine
 10
2249.470628127236
 20
1354.49427167071
 30
0.0
 11
2247.139081651047
 21
1359.494289224389
 31
0.0
  0
LINE
  5
18C9C
330
18C7A
100
AcDbEntity
  8
細線
100
AcDbLine
 10
2247.139081651047
 20
1359.494289224389
 30
0.0
 11
2181.802158232573
 21
1359.494289224378
 31
0.0
  0
LINE
  5
18C9D
330
18C7A
100
AcDbEntity
  8
細線
100
AcDbLine
 10
1807.970585744697
 20
1320.494460905133
 30
0.0
 11
1810.302124035464
 21
1325.494460905118
 31
0.0
  0
LINE
  5
18C9E
330
18C7A
100
AcDbEntity
  8
細線
100
AcDbLine
 10
1877.970593930113
 20
1320.494443351421
 30
0.0
 11
1875.639047453926
 21
1325.4944609051
 31
0.0
  0
LINE
  5
18C9F
330
18C7A
100
AcDbEntity
  8
細線
100
AcDbLine
 10
1875.639047453926
 20
1325.4944609051
 30
0.0
 11
1810.302124035452
 21
1325.494460905089
 31
0.0
  0
LINE
  5
18CA0
330
18C7A
100
AcDbEntity
  8
細線
100
AcDbLine
 10
2015.639047453926
 20
1325.4944609051
 30
0.0
 11
1950.302124035452
 21
1325.494460905089
 31
0.0
  0
LINE
  5
18CA1
330
18C7A
100
AcDbEntity
  8
細線
100
AcDbLine
 10
2017.970593930113
 20
1320.494443351421
 30
0.0
 11
2015.639047453924
 21
1325.4944609051
 31
0.0
  0
LINE
  5
18CA2
330
18C7A
100
AcDbEntity
  8
細線
100
AcDbLine
 10
1947.970585744697
 20
1320.494460905133
 30
0.0
 11
1950.302124035465
 21
1325.494460905118
 31
0.0
  0
LINE
  5
18CA3
330
18C7A
100
AcDbEntity
  8
細線
100
AcDbLine
 10
1735.639047453926
 20
1325.494460905098
 30
0.0
 11
1670.302124035454
 21
1325.494460905087
 31
0.0
  0
LINE
  5
18CA4
330
18C7A
100
AcDbEntity
  8
細線
100
AcDbLine
 10
1737.970593930113
 20
1320.494443351419
 30
0.0
 11
1735.639047453926
 21
1325.494460905098
 31
0.0
  0
LINE
  5
18CA5
330
18C7A
100
AcDbEntity
  8
細線
100
AcDbLine
 10
1667.970585744697
 20
1320.494460905131
 30
0.0
 11
1670.302124035465
 21
1325.494460905116
 31
0.0
  0
LINE
  5
18CA6
330
18C7A
100
AcDbEntity
  8
細線
100
AcDbLine
 10
1527.970593930113
 20
1320.494460905133
 30
0.0
 11
1530.302132220881
 21
1325.494460905118
 31
0.0
  0
LINE
  5
18CA7
330
18C7A
100
AcDbEntity
  8
細線
100
AcDbLine
 10
1597.970602115529
 20
1320.494443351421
 30
0.0
 11
1595.639055639342
 21
1325.4944609051
 31
0.0
  0
LINE
  5
18CA8
330
18C7A
100
AcDbEntity
  8
細線
100
AcDbLine
 10
1595.639055639342
 20
1325.4944609051
 30
0.0
 11
1530.302132220869
 21
1325.494460905089
 31
0.0
  0
ARC
  5
18CA9
330
18C7A
100
AcDbEntity
  8
部品1
 48
0.01
100
AcDbCircle
 10
1483.470482677778
 20
1319.493338720063
 30
0.0
 40
0.5
100
AcDbArc
 50
270.0
 51
0.0
  0
LINE
  5
18CAA
330
18C7A
100
AcDbEntity
  8
部品1
 48
0.01
100
AcDbLine
 10
1483.970482677778
 20
1320.493338720063
 30
0.0
 11
1483.970482677778
 21
1319.493338720063
 31
0.0
  0
LINE
  5
18CAB
330
18C7A
100
AcDbEntity
  8
部品1
 48
0.01
100
AcDbLine
 10
1483.970482677778
 20
1320.493338720063
 30
0.0
 11
1483.970482677778
 21
1319.493338720063
 31
0.0
  0
LINE
  5
18CAC
330
18C7A
100
AcDbEntity
  8
部品1
 48
0.01
100
AcDbLine
 10
1483.470482677778
 20
1318.993338720063
 30
0.0
 11
1476.857977247713
 21
1318.993338720062
 31
0.0
  0
ARC
  5
18CAD
330
18C7A
100
AcDbEntity
  8
部品1
100
AcDbCircle
 10
1476.926326800494
 20
1319.993338720062
 30
0.0
 40
1.0
100
AcDbArc
 50
160.5287793655865
 51
270.0
  0
ARC
  5
18CAE
330
18C7A
100
AcDbEntity
  8
部品1
100
AcDbCircle
 10
1451.470482677778
 20
1328.993338720062
 30
0.0
 40
26.0
100
AcDbArc
 50
340.5287793655865
 51
0.0
  0
LINE
  5
18CAF
330
18C7A
100
AcDbEntity
  8
部品1
100
AcDbLine
 10
1477.470482677778
 20
1328.993338720062
 30
0.0
 11
1477.470482677778
 21
1333.993338720061
 31
0.0
  0
ARC
  5
18CB0
330
18C7A
100
AcDbEntity
  8
部品1
 48
0.01
100
AcDbCircle
 10
1475.470482677778
 20
1333.993338720061
 30
0.0
 40
2.0
100
AcDbArc
 50
0.0
 51
90.0
  0
ARC
  5
18CB1
330
18C7A
100
AcDbEntity
  8
部品1
100
AcDbCircle
 10
1473.862091052968
 20
1332.993338720062
 30
0.0
 40
3.0
100
AcDbArc
 50
90.0
 51
141.6069559808035
  0
LINE
  5
18CB2
330
18C7A
100
AcDbEntity
  8
部品1
 48
0.01
100
AcDbLine
 10
1475.470482677778
 20
1335.993338720062
 30
0.0
 11
1473.862091052968
 21
1335.993338720062
 31
0.0
  0
ARC
  5
18CB3
330
18C7A
100
AcDbEntity
  8
部品1
100
AcDbCircle
 10
1455.399768463507
 20
1332.293338720065
 30
0.0
 40
3.0
100
AcDbArc
 50
254.0576313943215
 51
270.0
  0
ARC
  5
18CB4
330
18C7A
100
AcDbEntity
  8
部品1
100
AcDbCircle
 10
1462.541196892049
 20
1332.293338720065
 30
0.0
 40
3.0
100
AcDbArc
 50
270.0
 51
285.9423686056786
  0
LINE
  5
18CB5
330
18C7A
100
AcDbEntity
  8
部品1
100
AcDbLine
 10
1462.541196892049
 20
1329.293338720064
 30
0.0
 11
1455.399768463507
 21
1329.293338720064
 31
0.0
  0
ARC
  5
18CB6
330
18C7A
100
AcDbEntity
  8
部品1
100
AcDbCircle
 10
1458.970482677778
 20
1344.793338720065
 30
0.0
 40
16.0
100
AcDbArc
 50
285.9423686056786
 51
321.6069559808035
  0
LINE
  5
18CB7
330
18C7A
100
AcDbEntity
  8
部品1
 48
0.01
100
AcDbLine
 10
1442.470482677778
 20
1335.993338720062
 30
0.0
 11
1444.078874302588
 21
1335.993338720062
 31
0.0
  0
ARC
  5
18CB8
330
18C7A
100
AcDbEntity
  8
部品1
100
AcDbCircle
 10
1444.078874302588
 20
1332.993338720062
 30
0.0
 40
3.0
100
AcDbArc
 50
38.39304401919648
 51
90.0
  0
ARC
  5
18CB9
330
18C7A
100
AcDbEntity
  8
部品1
100
AcDbCircle
 10
1458.970482677778
 20
1344.793338720065
 30
0.0
 40
16.0
100
AcDbArc
 50
218.3930440191965
 51
254.0576313943215
  0
LINE
  5
18CBA
330
18C7A
100
AcDbEntity
  8
部品1
100
AcDbLine
 10
1440.470482677778
 20
1328.993338720062
 30
0.0
 11
1440.470482677778
 21
1333.993338720061
 31
0.0
  0
ARC
  5
18CBB
330
18C7A
100
AcDbEntity
  8
部品1
 48
0.01
100
AcDbCircle
 10
1442.470482677778
 20
1333.993338720061
 30
0.0
 40
2.0
100
AcDbArc
 50
90.0
 51
180.0
  0
ARC
  5
18CBC
330
18C7A
100
AcDbEntity
  8
部品1
100
AcDbCircle
 10
1466.470482677778
 20
1328.993338720062
 30
0.0
 40
26.0
100
AcDbArc
 50
180.0
 51
199.4712206344134
  0
ARC
  5
18CBD
330
18C7A
100
AcDbEntity
  8
部品1
 48
0.01
100
AcDbCircle
 10
1434.470482677778
 20
1319.493338720063
 30
0.0
 40
0.5
100
AcDbArc
 50
180.0
 51
270.0
  0
LINE
  5
18CBE
330
18C7A
100
AcDbEntity
  8
部品1
 48
0.01
100
AcDbLine
 10
1434.470482677778
 20
1318.993338720063
 30
0.0
 11
1441.014638555061
 21
1318.993338720062
 31
0.0
  0
LINE
  5
18CBF
330
18C7A
100
AcDbEntity
  8
部品1
 48
0.01
100
AcDbLine
 10
1433.970482677778
 20
1320.493338720063
 30
0.0
 11
1433.970482677778
 21
1319.493338720063
 31
0.0
  0
ARC
  5
18CC0
330
18C7A
100
AcDbEntity
  8
部品1
100
AcDbCircle
 10
1441.014638555061
 20
1319.993338720062
 30
0.0
 40
1.0
100
AcDbArc
 50
270.0
 51
19.47122063441346
  0
LINE
  5
18CC1
330
18C7A
100
AcDbEntity
  8
細線
100
AcDbLine
 10
1479.470482677785
 20
1338.493338720065
 30
0.0
 11
1438.470482677785
 21
1338.493338720058
 31
0.0
  0
LINE
  5
18CC2
330
18C7A
100
AcDbEntity
  8
細線
100
AcDbLine
 10
1438.470482677785
 20
1338.493338720058
 30
0.0
 11
1438.470482677785
 21
1320.49333872004
 31
0.0
  0
LINE
  5
18CC3
330
18C7A
100
AcDbEntity
  8
細線
100
AcDbLine
 10
1479.470482677785
 20
1338.493338720065
 30
0.0
 11
1479.470482677785
 21
1320.49333872004
 31
0.0
  0
LINE
  5
18CC4
330
18C7A
100
AcDbEntity
  8
細線
100
AcDbLine
 10
1322.970589276523
 20
1324.494269174465
 30
0.0
 11
1322.970589276523
 21
1320.494269174513
 31
0.0
  0
LINE
  5
18CC5
330
18C7A
100
AcDbEntity
  8
寸法
 48
50.0
100
AcDbLine
 10
1746.17359555837
 20
1170.531020743327
 30
0.0
 11
1694.767587648266
 21
1170.531020743327
 31
0.0
  0
LINE
  5
18CC6
330
18C7A
100
AcDbEntity
  8
寸法
 48
50.0
100
AcDbLine
 10
1694.767587648266
 20
1170.531020743327
 30
0.0
 11
1694.767587648266
 21
1201.841179395494
 31
0.0
  0
LINE
  5
18CC7
330
18C7A
100
AcDbEntity
  8
寸法
 48
50.0
100
AcDbLine
 10
1694.767587648266
 20
1201.841179395494
 30
0.0
 11
1665.006255656843
 21
1201.841179395494
 31
0.0
  0
LINE
  5
18CC8
330
18C7A
100
AcDbEntity
  8
寸法
 48
50.0
100
AcDbLine
 10
1665.006255656843
 20
1201.841179395494
 30
0.0
 11
1720.470591603318
 21
1239.420630324105
 31
0.0
  0
LINE
  5
18CC9
330
18C7A
100
AcDbEntity
  8
寸法
 48
50.0
100
AcDbLine
 10
1775.934927549793
 20
1201.841179395494
 30
0.0
 11
1720.470591603318
 21
1239.420630324105
 31
0.0
  0
LINE
  5
18CCA
330
18C7A
100
AcDbEntity
  8
寸法
 48
50.0
100
AcDbLine
 10
1746.17359555837
 20
1201.841179395494
 30
0.0
 11
1775.934927549793
 21
1201.841179395494
 31
0.0
  0
LINE
  5
18CCB
330
18C7A
100
AcDbEntity
  8
寸法
 48
50.0
100
AcDbLine
 10
1746.17359555837
 20
1170.531020743327
 30
0.0
 11
1746.17359555837
 21
1201.841179395494
 31
0.0
  0
LINE
  5
18CCC
330
18C7A
100
AcDbEntity
  8
寸法
 48
50.0
100
AcDbLine
 10
1694.767587648266
 20
1170.531020743327
 30
0.0
 11
1746.17359555837
 21
1170.531020743327
 31
0.0
  0
LINE
  5
18CCD
330
18C7A
100
AcDbEntity
  8
寸法
 48
50.0
100
AcDbLine
 10
2025.339129835225
 20
1227.676611498152
 30
0.0
 11
2025.339129835225
 21
1174.01297691636
 31
0.0
  0
LINE
  5
18CCE
330
18C7A
100
AcDbEntity
  8
寸法
 48
50.0
100
AcDbLine
 10
2114.623348430647
 20
1203.752977228664
 30
0.0
 11
2025.339129835225
 21
1227.676611498152
 31
0.0
  0
LINE
  5
18CCF
330
18C7A
100
AcDbEntity
  8
寸法
 48
50.0
100
AcDbLine
 10
1895.471408254923
 20
1203.752977228664
 30
0.0
 11
2114.623348430647
 21
1203.752977228664
 31
0.0
  0
DIMENSION
  5
18CD0
330
18C7A
100
AcDbEntity
  8
寸法
 48
50.0
100
AcDbDimension
  2
*D15
 10
2588.970589276523
 20
706.3240511224249
 30
0.0
 11
1969.060022905491
 21
706.3240511224249
 31
0.0
 12
-3742.925985830444
 22
-6453.628869860112
 32
0.0
 70
   128
  1
有効開口部間口\P<>
 71
     5
 42
1266.0
  3
INABA_S40G
100
AcDbAlignedDimension
 13
1322.970589276523
 23
1315.494269174465
 33
0.0
 14
2588.970589276523
 24
1315.494269174465
 34
0.0
100
AcDbRotatedDimension
1001
ACAD
1000
DSTYLE
1002
{
1070
   341
1005
0
1002
}
  0
LINE
  5
18CD1
330
18C7A
100
AcDbEntity
  8
部品1
100
AcDbLine
 10
3409.970589276524
 20
1392.494269174465
 30
0.0
 11
3437.970589276523
 21
1392.494269174465
 31
0.0
  0
DIMENSION
  5
18CD2
330
18C7A
100
AcDbEntity
  8
寸法
100
AcDbDimension
  2
*D16
 10
3674.266172669749
 20
1315.494269174465
 30
0.0
 11
3674.266172669748
 21
1177.494269174462
 31
0.0
 12
-3742.925985830444
 22
-6453.628869860112
 32
0.0
 70
   128
 71
     5
 42
77.0
  3
INABA_S40
100
AcDbAlignedDimension
 13
3437.970589276523
 23
1392.494269174465
 33
0.0
 14
3436.970589276523
 24
1315.494269174465
 34
0.0
 50
90.0
100
AcDbRotatedDimension
1001
ACAD
1000
DSTYLE
1002
{
1070
    41
1040
0.5
1070
    44
1040
1.0
1070
   147
1040
0.8
1070
   271
1070
     2
1070
   272
1070
     2
1070
   289
1070
     3
1070
   340
1005
F706
1070
   343
1005
164B4
1070
   344
1005
164B4
1002
}
  0
LINE
  5
18CD3
330
18C7A
100
AcDbEntity
  8
部品1
100
AcDbLine
 10
3437.970589276523
 20
1315.494269174465
 30
0.0
 11
3437.970589276523
 21
1392.494269174465
 31
0.0
  0
LINE
  5
18CD4
330
18C7A
100
AcDbEntity
  8
部品1
100
AcDbLine
 10
3398.970589276523
 20
1388.494269174465
 30
0.0
 11
3409.970589276524
 21
1388.494269174465
 31
0.0
  0
LINE
  5
18CD5
330
18C7A
100
AcDbEntity
  8
部品1
100
AcDbLine
 10
3407.970589276523
 20
1324.494269174465
 30
0.0
 11
3407.970589276523
 21
1315.494269174465
 31
0.0
  0
LINE
  5
18CD6
330
18C7A
100
AcDbEntity
  8
部品1
100
AcDbLine
 10
3398.970589276523
 20
1324.494269174465
 30
0.0
 11
3407.970589276523
 21
1324.494269174465
 31
0.0
  0
LINE
  5
18CD7
330
18C7A
100
AcDbEntity
  8
部品1
100
AcDbLine
 10
3398.970589276523
 20
1388.494269174465
 30
0.0
 11
3398.970589276523
 21
1324.494269174465
 31
0.0
  0
LINE
  5
18CD8
330
18C7A
100
AcDbEntity
  8
部品1
100
AcDbLine
 10
3409.970589276524
 20
1419.494269174465
 30
0.0
 11
3409.970589276524
 21
1388.494269174465
 31
0.0
  0
LINE
  5
18CD9
330
18C7A
100
AcDbEntity
  8
部品1
100
AcDbLine
 10
1322.970589276523
 20
1388.494269174465
 30
0.0
 11
1311.970589276523
 21
1388.494269174465
 31
0.0
  0
LINE
  5
18CDA
330
18C7A
100
AcDbEntity
  8
部品1
100
AcDbLine
 10
1283.970589276523
 20
1392.494269174465
 30
0.0
 11
1311.970589276523
 21
1392.494269174465
 31
0.0
  0
LINE
  5
18CDB
330
18C7A
100
AcDbEntity
  8
部品1
100
AcDbLine
 10
1313.970589276523
 20
1324.494269174465
 30
0.0
 11
1313.970589276523
 21
1315.494269174465
 31
0.0
  0
LINE
  5
18CDC
330
18C7A
100
AcDbEntity
  8
部品1
100
AcDbLine
 10
1322.970589276523
 20
1324.494269174465
 30
0.0
 11
1313.970589276523
 21
1324.494269174465
 31
0.0
  0
LINE
  5
18CDD
330
18C7A
100
AcDbEntity
  8
部品1
100
AcDbLine
 10
1313.970589276523
 20
1315.494269174465
 30
0.0
 11
1283.970589276523
 21
1315.494269174465
 31
0.0
  0
LINE
  5
18CDE
330
18C7A
100
AcDbEntity
  8
部品1
100
AcDbLine
 10
1283.970589276523
 20
1315.494269174465
 30
0.0
 11
1283.970589276523
 21
1392.494269174465
 31
0.0
  0
LINE
  5
18CDF
330
18C7A
100
AcDbEntity
  8
部品1
100
AcDbLine
 10
1322.970589276523
 20
1388.494269174465
 30
0.0
 11
1322.970589276523
 21
1324.494269174465
 31
0.0
  0
LINE
  5
18CE0
330
18C7A
100
AcDbEntity
  8
部品1
100
AcDbLine
 10
1311.970589276523
 20
1419.494269174462
 30
0.0
 11
1311.970589276523
 21
1388.494269174465
 31
0.0
  0
LINE
  5
18CE1
330
18C7A
100
AcDbEntity
  8
部品1
100
AcDbLine
 10
1311.970589276523
 20
1419.494269174462
 30
0.0
 11
3409.970589276524
 21
1419.494269174465
 31
0.0
  0
LINE
  5
18CE2
330
18C7A
100
AcDbEntity
  8
部品1
100
AcDbLine
 10
3407.970589276523
 20
1315.494269174465
 30
0.0
 11
3437.970589276523
 21
1315.494269174465
 31
0.0
  0
LINE
  5
18CE3
330
18C7A
100
AcDbEntity
  8
部品1
100
AcDbLine
 10
1313.970589276523
 20
1315.494269174465
 30
0.0
 11
3410.970589276523
 21
1315.494269174465
 31
0.0
  0
LINE
  5
18CE4
330
18C7A
100
AcDbEntity
  8
細線
  6
Continuous
 62
     5
100
AcDbLine
 10
2689.970589276527
 20
1354.494269174462
 30
0.0
 11
2689.970589276527
 21
1354.494269174462
 31
0.0
  0
LINE
  5
18CE5
330
18C7A
100
AcDbEntity
  8
細線
  6
Continuous
 62
     5
100
AcDbLine
 10
2682.470589276527
 20
1354.494269174462
 30
0.0
 11
2682.470589276527
 21
1354.494269174462
 31
0.0
  0
LINE
  5
18CE6
330
18C7A
100
AcDbEntity
  8
細線
  6
Continuous
 62
     5
100
AcDbLine
 10
2676.470589276527
 20
1354.494269174462
 30
0.0
 11
2676.470589276527
 21
1354.494269174462
 31
0.0
  0
LINE
  5
18CE7
330
18C7A
100
AcDbEntity
  8
細線
  6
Continuous
 62
     5
100
AcDbLine
 10
2743.970589276527
 20
1373.494269174462
 30
0.0
 11
2743.970589276527
 21
1373.494269174462
 31
0.0
  0
LINE
  5
18CE8
330
18C7A
100
AcDbEntity
  8
細線
 48
50.0
100
AcDbLine
 10
1336.970593930116
 20
1341.094443351418
 30
0.0
 11
1336.970593930113
 21
1349.490593759059
 31
0.0
  0
LINE
  5
18CE9
330
18C7A
100
AcDbEntity
  8
細線
 48
50.0
100
AcDbLine
 10
1336.970593930113
 20
1349.490593759059
 30
0.0
 11
1322.970589276523
 21
1349.490593759057
 31
0.0
  0
LINE
  5
18CEA
330
18C7A
100
AcDbEntity
  8
細線
 48
50.0
100
AcDbLine
 10
2087.970593930113
 20
1337.644443351419
 30
0.0
 11
2087.970593930113
 21
1342.494443351421
 31
0.0
  0
LINE
  5
18CEB
330
18C7A
100
AcDbEntity
  8
細線
 48
50.0
100
AcDbLine
 10
2087.970593930113
 20
1342.494443351421
 30
0.0
 11
2102.970593930113
 21
1342.494443351421
 31
0.0
  0
LINE
  5
18CEC
330
18C7A
100
AcDbEntity
  8
細線
 48
50.0
100
AcDbLine
 10
2102.970593930113
 20
1342.494443351421
 30
0.0
 11
2102.970593930115
 21
1349.494443351419
 31
0.0
  0
LINE
  5
18CED
330
18C7A
100
AcDbEntity
  8
細線
 48
50.0
100
AcDbLine
 10
2102.970593930115
 20
1349.494443351419
 30
0.0
 11
2117.970593930113
 21
1349.494443351419
 31
0.0
  0
LINE
  5
18CEE
330
18C7A
100
AcDbEntity
  8
細線
 48
50.0
100
AcDbLine
 10
2117.970593930113
 20
1349.494443351419
 30
0.0
 11
2117.970593930113
 21
1320.494443351421
 31
0.0
  0
LINE
  5
18CEF
330
18C7A
100
AcDbEntity
  8
細線
 48
50.0
100
AcDbLine
 10
1313.970589276523
 20
1320.491777694889
 30
0.0
 11
1527.970593930113
 21
1320.494460905133
 31
0.0
  0
LINE
  5
18CF0
330
18C7A
100
AcDbEntity
  8
細線
 48
50.0
100
AcDbLine
 10
2017.970593930113
 20
1320.494443351421
 30
0.0
 11
2117.970593930113
 21
1320.494443351421
 31
0.0
  0
LINE
  5
18CF1
330
18C7A
100
AcDbEntity
  8
細線
 48
50.0
100
AcDbLine
 10
1737.970593930113
 20
1320.494443351419
 30
0.0
 11
1807.970593930113
 21
1320.494443351423
 31
0.0
  0
LINE
  5
18CF2
330
18C7A
100
AcDbEntity
  8
細線
 48
50.0
100
AcDbLine
 10
1750.832558942642
 20
1320.494443351419
 30
0.0
 11
1756.588076525309
 21
1338.765294641913
 31
0.0
  0
LINE
  5
18CF3
330
18C7A
100
AcDbEntity
  8
細線
 48
50.0
100
AcDbLine
 10
1756.588076525309
 20
1338.765294641913
 30
0.0
 11
1767.516525005743
 21
1338.765294641911
 31
0.0
  0
ARC
  5
18CF4
330
18C7A
100
AcDbEntity
  8
細線
 48
50.0
100
AcDbCircle
 10
1767.516525005743
 20
1337.765294641911
 30
0.0
 40
1.0
100
AcDbArc
 50
24.62431835207225
 51
90.0
  0
ARC
  5
18CF5
330
18C7A
100
AcDbEntity
  8
細線
 48
50.0
100
AcDbCircle
 10
1778.425237120377
 20
1337.765294641911
 30
0.0
 40
1.0
100
AcDbArc
 50
90.0
 51
155.3756816479277
  0
ARC
  5
18CF6
330
18C7A
100
AcDbEntity
  8
細線
 48
50.0
100
AcDbCircle
 10
1772.970881063058
 20
1340.265294641911
 30
0.0
 40
5.0
100
AcDbArc
 50
204.6243183520723
 51
335.3756816479278
  0
LINE
  5
18CF7
330
18C7A
100
AcDbEntity
  8
細線
 48
50.0
100
AcDbLine
 10
1778.425237120377
 20
1338.765294641911
 30
0.0
 11
1789.35368560081
 21
1338.765294641913
 31
0.0
  0
LINE
  5
18CF8
330
18C7A
100
AcDbEntity
  8
細線
 48
50.0
100
AcDbLine
 10
1789.35368560081
 20
1338.765294641913
 30
0.0
 11
1795.109203183478
 21
1320.494443351423
 31
0.0
  0
LINE
  5
18CF9
330
18C7A
100
AcDbEntity
  8
細線
 48
50.0
100
AcDbLine
 10
2087.970593930113
 20
1341.094443351419
 30
0.0
 11
1336.970593930116
 21
1341.094443351418
 31
0.0
  0
LINE
  5
18CFA
330
18C7A
100
AcDbEntity
  8
細線
 48
50.0
100
AcDbLine
 10
1947.970593930113
 20
1320.494443351421
 30
0.0
 11
1877.970593930113
 21
1320.494443351421
 31
0.0
  0
LINE
  5
18CFB
330
18C7A
100
AcDbEntity
  8
細線
100
AcDbLine
 10
1667.970593930113
 20
1320.494443351421
 30
0.0
 11
1597.970602115529
 21
1320.494443351421
 31
0.0
  0
LINE
  5
18CFC
330
18C7A
100
AcDbEntity
  8
細線
 48
50.0
100
AcDbLine
 10
2741.970584622936
 20
1375.094487209288
 30
0.0
 11
2106.970593930113
 21
1375.094487209284
 31
0.0
  0
LINE
  5
18CFD
330
18C7A
100
AcDbEntity
  8
細線
 48
50.0
100
AcDbLine
 10
2106.970593930113
 20
1371.990637616925
 30
0.0
 11
2106.970593930113
 21
1376.490637616925
 31
0.0
  0
LINE
  5
18CFE
330
18C7A
100
AcDbEntity
  8
細線
 48
50.0
100
AcDbLine
 10
2106.970593930113
 20
1376.490637616925
 30
0.0
 11
2091.970593930113
 21
1376.490637616925
 31
0.0
  0
LINE
  5
18CFF
330
18C7A
100
AcDbEntity
  8
細線
 48
50.0
100
AcDbLine
 10
2091.970593930113
 20
1376.490637616925
 30
0.0
 11
2091.970593930113
 21
1383.490637616927
 31
0.0
  0
LINE
  5
18D00
330
18C7A
100
AcDbEntity
  8
細線
 48
50.0
100
AcDbLine
 10
2091.970593930113
 20
1383.490637616927
 30
0.0
 11
2076.970593930115
 21
1383.490637616924
 31
0.0
  0
LINE
  5
18D01
330
18C7A
100
AcDbEntity
  8
細線
 48
50.0
100
AcDbLine
 10
2076.970593930115
 20
1383.490637616924
 30
0.0
 11
2076.970593930115
 21
1345.890409513813
 31
0.0
  0
LINE
  5
18D02
330
18C7A
100
AcDbEntity
  8
細線
 48
50.0
100
AcDbLine
 10
2076.970593930115
 20
1345.890409513813
 30
0.0
 11
2096.970601231289
 21
1345.890451063353
 31
0.0
  0
LINE
  5
18D03
330
18C7A
100
AcDbEntity
  8
細線
 48
50.0
100
AcDbLine
 10
2096.970556362348
 20
1354.493912699161
 30
0.0
 11
2096.970601231289
 21
1345.890451063353
 31
0.0
  0
LINE
  5
18D04
330
18C7A
100
AcDbEntity
  8
細線
 48
50.0
100
AcDbLine
 10
2741.970584622936
 20
1371.644487209287
 30
0.0
 11
2741.970584622936
 21
1376.494487209284
 31
0.0
  0
LINE
  5
18D05
330
18C7A
100
AcDbEntity
  8
細線
 48
50.0
100
AcDbLine
 10
2741.970584622936
 20
1376.494487209284
 30
0.0
 11
2756.970584622934
 21
1376.494487209285
 31
0.0
  0
LINE
  5
18D06
330
18C7A
100
AcDbEntity
  8
細線
 48
50.0
100
AcDbLine
 10
2756.970584622934
 20
1376.494487209285
 30
0.0
 11
2756.970596256909
 21
1383.494487209331
 31
0.0
  0
LINE
  5
18D07
330
18C7A
100
AcDbEntity
  8
細線
 48
50.0
100
AcDbLine
 10
2756.970596256909
 20
1383.494487209331
 30
0.0
 11
2771.970594427439
 21
1383.494487209329
 31
0.0
  0
LINE
  5
18D08
330
18C7A
100
AcDbEntity
  8
細線
 48
50.0
100
AcDbLine
 10
2771.970594427439
 20
1383.494487209329
 30
0.0
 11
2771.970584125617
 21
1354.494281037055
 31
0.0
  0
LINE
  5
18D09
330
18C7A
100
AcDbEntity
  8
細線
 48
50.0
100
AcDbLine
 10
2458.070304175992
 20
1354.494278397076
 30
0.0
 11
2389.470863838818
 21
1354.494283787084
 31
0.0
  0
LINE
  5
18D0A
330
18C7A
100
AcDbEntity
  8
細線
 48
50.0
100
AcDbLine
 10
2096.970556362348
 20
1354.493912699161
 30
0.0
 11
2108.203245717057
 21
1354.494095652309
 31
0.0
  0
ARC
  5
18D0B
330
18C7A
100
AcDbEntity
  8
細線
 48
50.0
100
AcDbCircle
 10
2114.785538024393
 20
1353.294259565922
 30
0.0
 40
1.8
100
AcDbArc
 50
270.0006665777295
 51
345.000555481349
  0
LINE
  5
18D0C
330
18C7A
100
AcDbEntity
  8
細線
 48
50.0
100
AcDbLine
 10
2116.771971470473
 20
1353.753100023201
 30
0.0
 11
2116.524209028273
 21
1352.828402141094
 31
0.0
  0
LINE
  5
18D0D
330
18C7A
100
AcDbEntity
  8
細線
 48
50.0
100
AcDbLine
 10
2114.785558965548
 20
1351.494259566043
 30
0.0
 11
2111.155631546781
 21
1351.494217335563
 31
0.0
  0
ARC
  5
18D0E
330
18C7A
100
AcDbEntity
  8
細線
 48
50.0
100
AcDbCircle
 10
2111.155610605627
 20
1353.29421733544
 30
0.0
 40
1.8
100
AcDbArc
 50
195.0010443049965
 51
270.0006665777295
  0
LINE
  5
18D0F
330
18C7A
100
AcDbEntity
  8
細線
 48
50.0
100
AcDbLine
 10
2109.169183113368
 20
1353.752932303007
 30
0.0
 11
2109.416952609882
 21
1352.828311364425
 31
0.0
  0
ARC
  5
18D10
330
18C7A
100
AcDbEntity
  8
細線
 48
50.0
100
AcDbCircle
 10
2108.203262004622
 20
1353.494095652444
 30
0.0
 40
1.0
100
AcDbArc
 50
15.00104430499651
 51
90.00093320877969
  0
LINE
  5
18D11
330
18C7A
100
AcDbEntity
  8
細線
 48
50.0
100
AcDbLine
 10
2117.737892825577
 20
1354.494290342714
 30
0.0
 11
2118.679652976481
 21
1354.494296916564
 31
0.0
  0
ARC
  5
18D12
330
18C7A
100
AcDbEntity
  8
細線
 48
50.0
100
AcDbCircle
 10
2117.737899805961
 20
1353.49429034274
 30
0.0
 40
1.0
100
AcDbArc
 50
90.0003999466794
 51
165.000555481349
  0
LINE
  5
18D13
330
18C7A
100
AcDbEntity
  8
細線
 48
50.0
100
AcDbLine
 10
2669.470584622926
 20
1354.494281037055
 30
0.0
 11
2771.970584125617
 21
1354.494281037055
 31
0.0
  0
LINE
  5
18D14
330
18C7A
100
AcDbEntity
  8
細線
 48
50.0
100
AcDbLine
 10
2179.47061994182
 20
1354.494289224422
 30
0.0
 11
2118.370558714898
 21
1354.494296916564
 31
0.0
  0
LINE
  5
18D15
330
18C7A
100
AcDbEntity
  8
細線
 48
50.0
100
AcDbLine
 10
2599.470584622926
 20
1354.494281037057
 30
0.0
 11
2529.470584622926
 21
1354.494281037055
 31
0.0
  0
LINE
  5
18D16
330
18C7A
100
AcDbEntity
  8
細線
 48
50.0
100
AcDbLine
 10
2319.470584622926
 20
1354.494281037054
 30
0.0
 11
2249.470567335051
 21
1354.494281037057
 31
0.0
  0
ARC
  5
18D17
330
18C7A
100
AcDbEntity
  8
細線
 48
50.0
100
AcDbCircle
 10
2756.170589276533
 20
1387.694269174466
 30
0.0
 40
0.8
100
AcDbArc
 50
359.9997333689499
 51
89.99986668437072
  0
ARC
  5
18D18
330
18C7A
100
AcDbEntity
  8
細線
 48
50.0
100
AcDbCircle
 10
2763.770596101631
 20
1387.694280343081
 30
0.0
 40
0.8
100
AcDbArc
 50
90.00014387753465
 51
179.9997333689498
  0
LINE
  5
18D19
330
18C7A
100
AcDbEntity
  8
細線
 48
50.0
100
AcDbLine
 10
2756.170591137969
 20
1388.494269174465
 30
0.0
 11
2750.970589276525
 21
1388.494269174465
 31
0.0
  0
ARC
  5
18D1A
330
18C7A
100
AcDbEntity
  8
細線
 48
50.0
100
AcDbCircle
 10
2757.670589276524
 20
1386.194269174464
 30
0.0
 40
0.7
100
AcDbArc
 50
180.0
 51
270.0
  0
ARC
  5
18D1B
330
18C7A
100
AcDbEntity
  8
細線
 48
50.0
100
AcDbCircle
 10
2762.270589276524
 20
1386.194269174464
 30
0.0
 40
0.7
100
AcDbArc
 50
270.0
 51
0.0
  0
LINE
  5
18D1C
330
18C7A
100
AcDbEntity
  8
細線
 48
50.0
100
AcDbLine
 10
2762.970589276525
 20
1386.194269174464
 30
0.0
 11
2762.970596101639
 21
1387.694284065954
 31
0.0
  0
LINE
  5
18D1D
330
18C7A
100
AcDbEntity
  8
細線
 48
50.0
100
AcDbLine
 10
2757.670589276524
 20
1385.494269174465
 30
0.0
 11
2762.270589276524
 21
1385.494269174465
 31
0.0
  0
LINE
  5
18D1E
330
18C7A
100
AcDbEntity
  8
細線
 48
50.0
100
AcDbLine
 10
2756.970589276525
 20
1387.694269174466
 30
0.0
 11
2756.970589276525
 21
1386.194269174464
 31
0.0
  0
LINE
  5
18D1F
330
18C7A
100
AcDbEntity
  8
細線
 48
50.0
100
AcDbLine
 10
3382.570589276527
 20
1418.494269174465
 30
0.0
 11
2745.970589276525
 21
1418.494269174463
 31
0.0
  0
LINE
  5
18D20
330
18C7A
100
AcDbEntity
  8
細線
 48
50.0
100
AcDbLine
 10
3408.470589276525
 20
1413.494269174467
 30
0.0
 11
3392.570589276527
 21
1413.494269174465
 31
0.0
  0
LINE
  5
18D21
330
18C7A
100
AcDbEntity
  8
細線
 48
50.0
100
AcDbLine
 10
3392.570589276526
 20
1413.494269174465
 30
0.0
 11
3382.570589276527
 21
1418.494269174465
 31
0.0
  0
LINE
  5
18D22
330
18C7A
100
AcDbEntity
  8
細線
100
AcDbLine
 10
2993.470589276525
 20
1388.494269174465
 30
0.0
 11
2993.470589276525
 21
1417.794269174464
 31
0.0
  0
LINE
  5
18D23
330
18C7A
100
AcDbEntity
  8
細線
100
AcDbLine
 10
2993.470589276525
 20
1417.794269174464
 30
0.0
 11
3013.470589276525
 21
1417.794269174464
 31
0.0
  0
LINE
  5
18D24
330
18C7A
100
AcDbEntity
  8
細線
100
AcDbLine
 10
3013.470589276525
 20
1388.494269174465
 30
0.0
 11
3013.470589276525
 21
1417.794269174464
 31
0.0
  0
LINE
  5
18D25
330
18C7A
100
AcDbEntity
  8
細線
100
AcDbLine
 10
3170.720589276524
 20
1388.494269174465
 30
0.0
 11
3100.720589276523
 21
1388.494269174465
 31
0.0
  0
LINE
  5
18D26
330
18C7A
100
AcDbEntity
  8
細線
 48
50.0
100
AcDbLine
 10
2890.720589276525
 20
1388.494269174465
 30
0.0
 11
2763.766368849365
 21
1388.494269174465
 31
0.0
  0
LINE
  5
18D27
330
18C7A
100
AcDbEntity
  8
細線
100
AcDbLine
 10
3030.720589276525
 20
1388.494269174465
 30
0.0
 11
2960.720589276525
 21
1388.494269174465
 31
0.0
  0
LINE
  5
18D28
330
18C7A
100
AcDbEntity
  8
細線
 48
50.0
100
AcDbLine
 10
2750.970589276525
 20
1380.494269174465
 30
0.0
 11
2750.970589276525
 21
1388.494269174465
 31
0.0
  0
LINE
  5
18D29
330
18C7A
100
AcDbEntity
  8
細線
 48
50.0
100
AcDbLine
 10
2730.970589276524
 20
1380.494269174467
 30
0.0
 11
2750.970589276525
 21
1380.494269174465
 31
0.0
  0
LINE
  5
18D2A
330
18C7A
100
AcDbEntity
  8
細線
 48
50.0
100
AcDbLine
 10
2745.970589276525
 20
1418.494269174465
 30
0.0
 11
2745.970589276525
 21
1413.494269174465
 31
0.0
  0
LINE
  5
18D2B
330
18C7A
100
AcDbEntity
  8
細線
 48
50.0
100
AcDbLine
 10
2730.970589276525
 20
1418.494269174463
 30
0.0
 11
2745.970589276525
 21
1418.494269174465
 31
0.0
  0
LINE
  5
18D2C
330
18C7A
100
AcDbEntity
  8
細線
 48
50.0
100
AcDbLine
 10
2730.970589276524
 20
1380.494269174467
 30
0.0
 11
2730.970589276525
 21
1418.494269174463
 31
0.0
  0
LINE
  5
18D2D
330
18C7A
100
AcDbEntity
  8
細線
100
AcDbLine
 10
3398.970589276523
 20
1388.494269174465
 30
0.0
 11
3240.720589276525
 21
1388.494269174465
 31
0.0
  0
LINE
  5
18D2E
330
18C7A
100
AcDbEntity
  8
細線
 48
50.0
100
AcDbLine
 10
3408.470589276525
 20
1413.494269174467
 30
0.0
 11
3408.470589276524
 21
1388.494269174465
 31
0.0
  0
TEXT
  5
18D2F
330
18C7A
100
AcDbEntity
  8
部品1
100
AcDbText
 10
1860.154865991392
 20
46.99880823813145
 30
0.0
 40
135.0
  1
平面図
  7
STYLE2
100
AcDbText
  0
LWPOLYLINE
  5
18D30
330
18C7A
100
AcDbEntity
  8
部品1
100
AcDbPolyline
 90
        4
 70
     1
 43
0.0
 10
1770.23525616235
 20
239.8923374566548
 10
1770.23525616235
 20
0.0000159111223184
 10
2533.705922390791
 20
0.0000159111223184
 10
2533.705922390791
 20
239.8923374566548
  0
LINE
  5
18D31
330
18C7A
100
AcDbEntity
  8
部品1
100
AcDbLine
 10
1534.470589276487
 20
3154.494269174626
 30
0.0
 11
2769.470589276552
 21
3154.494269174626
 31
0.0
  0
LINE
  5
18D32
330
18C7A
100
AcDbEntity
  8
部品1
 48
50.0
100
AcDbLine
 10
1311.970589276523
 20
1420.494269174462
 30
0.0
 11
3411.970589276523
 21
1420.494269174465
 31
0.0
  0
LINE
  5
18D33
330
18C7A
100
AcDbEntity
  8
部品1
 48
50.0
100
AcDbLine
 10
471.9705892765232
 20
1392.494269174465
 30
0.0
 11
1311.970589276523
 21
1392.494269174465
 31
0.0
  0
DIMENSION
  5
18D34
330
18C7A
100
AcDbEntity
  8
寸法
100
AcDbDimension
  2
*D14
 10
2710.234916278077
 20
2488.887829538828
 30
0.0
 11
2338.318822490183
 21
2488.887829538828
 31
0.0
 12
-3742.925985830444
 22
-6453.628869860112
 32
0.0
 70
   128
 71
     5
 42
1231.00000000007
  3
INABA_S40G
100
AcDbAlignedDimension
 13
1536.470589276486
 23
2702.494269174557
 33
0.0
 14
2767.470589276556
 24
2702.494269174549
 34
0.0
100
AcDbRotatedDimension
1001
ACAD
1000
DSTYLE
1002
{
1002
}
  0
LINE
  5
18D35
330
18C7A
100
AcDbEntity
  8
部品1
100
AcDbLine
 10
1536.470589276487
 20
2702.494269174557
 30
0.0
 11
2767.470589276554
 21
2702.494269174615
 31
0.0
  0
LINE
  5
18D36
330
18C7A
100
AcDbEntity
  8
部品1
100
AcDbLine
 10
1536.470589276487
 20
3152.494269174557
 30
0.0
 11
2767.470589276556
 21
3152.494269174615
 31
0.0
  0
LINE
  5
18D37
330
18C7A
100
AcDbEntity
  8
細線
 48
50.0
100
AcDbLine
 10
1508.470589276487
 20
3152.494269174558
 30
0.0
 11
445.4705892765559
 21
2702.494269174509
 31
0.0
  0
LINE
  5
18D38
330
18C7A
100
AcDbEntity
  8
細線
 48
50.0
100
AcDbLine
 10
1508.470589276487
 20
2702.494269174558
 30
0.0
 11
445.4705892765542
 21
3152.494269174509
 31
0.0
  0
LINE
  5
18D39
330
18C7A
100
AcDbEntity
  8
部品1
100
AcDbLine
 10
1556.970589276487
 20
3172.494269174611
 30
0.0
 11
1556.970589276487
 21
3154.494269174611
 31
0.0
  0
LINE
  5
18D3A
330
18C7A
100
AcDbEntity
  8
部品1
100
AcDbLine
 10
1556.970589276487
 20
3172.494269174611
 30
0.0
 11
1550.970589276487
 21
3172.494269174611
 31
0.0
  0
LINE
  5
18D3B
330
18C7A
100
AcDbEntity
  8
部品1
100
AcDbLine
 10
1534.470589276487
 20
3146.494269174608
 30
0.0
 11
1509.470589276487
 21
3146.494269174611
 31
0.0
  0
LINE
  5
18D3C
330
18C7A
100
AcDbEntity
  8
部品1
100
AcDbLine
 10
1486.970589276487
 20
3172.494269174611
 30
0.0
 11
1486.970589276487
 21
3154.494269174611
 31
0.0
  0
LINE
  5
18D3D
330
18C7A
100
AcDbEntity
  8
部品1
100
AcDbLine
 10
1492.970589276487
 20
3172.494269174611
 30
0.0
 11
1486.970589276487
 21
3172.494269174611
 31
0.0
  0
LINE
  5
18D3E
330
18C7A
100
AcDbEntity
  8
部品1
100
AcDbLine
 10
1534.470589276487
 20
2702.494269174615
 30
0.0
 11
1509.470589276487
 21
2702.494269174615
 31
0.0
  0
LINE
  5
18D3F
330
18C7A
100
AcDbEntity
  8
部品1
 48
50.0
100
AcDbLine
 10
1536.470589276487
 20
3152.494269174611
 30
0.0
 11
1536.470589276487
 21
2702.494269174615
 31
0.0
  0
LINE
  5
18D40
330
18C7A
100
AcDbEntity
  8
部品1
 48
50.0
100
AcDbLine
 10
1508.470589276487
 20
3152.494269174607
 30
0.0
 11
1508.470589276487
 21
2702.494269174615
 31
0.0
  0
LINE
  5
18D41
330
18C7A
100
AcDbEntity
  8
部品1
 48
50.0
100
AcDbLine
 10
1534.470589276487
 20
3154.494269174618
 30
0.0
 11
1534.470589276487
 21
2702.494269174615
 31
0.0
  0
LINE
  5
18D42
330
18C7A
100
AcDbEntity
  8
部品1
 48
50.0
100
AcDbLine
 10
1509.470589276487
 20
3154.494269174615
 30
0.0
 11
1509.470589276487
 21
2702.494269174615
 31
0.0
  0
LINE
  5
18D43
330
18C7A
100
AcDbEntity
  8
部品1
100
AcDbLine
 10
3411.970589276556
 20
1392.494269174582
 30
0.0
 11
3411.970589276556
 21
1420.494269174596
 31
0.0
  0
LINE
  5
18D44
330
18C7A
100
AcDbEntity
  8
部品1
100
AcDbLine
 10
1311.970589276523
 20
1392.494269174596
 30
0.0
 11
1311.970589276523
 21
1420.494269174596
 31
0.0
  0
LINE
  5
18D45
330
18C7A
100
AcDbEntity
  8
部品1
100
AcDbLine
 10
891.9705892765232
 20
1392.494269174596
 30
0.0
 11
891.9705892765232
 21
1420.494269174596
 31
0.0
  0
LINE
  5
18D46
330
18C7A
100
AcDbEntity
  8
部品1
100
AcDbLine
 10
3411.97058927652
 20
3182.494269174477
 30
0.0
 11
3411.970589276523
 21
3154.494269174477
 31
0.0
  0
LINE
  5
18D47
330
18C7A
100
AcDbEntity
  8
部品1
100
AcDbLine
 10
2571.97058927652
 20
3182.494269174477
 30
0.0
 11
2571.970589276523
 21
3154.494269174477
 31
0.0
  0
LINE
  5
18D48
330
18C7A
100
AcDbEntity
  8
部品1
100
AcDbLine
 10
2991.97058927652
 20
3182.494269174477
 30
0.0
 11
2991.970589276523
 21
3154.494269174477
 31
0.0
  0
LINE
  5
18D49
330
18C7A
100
AcDbEntity
  8
部品1
100
AcDbLine
 10
2151.970589276519
 20
3182.494269174477
 30
0.0
 11
2151.970589276523
 21
3154.494269174477
 31
0.0
  0
LINE
  5
18D4A
330
18C7A
100
AcDbEntity
  8
部品1
100
AcDbLine
 10
1731.970589276519
 20
3182.494269174477
 30
0.0
 11
1731.970589276523
 21
3154.494269174477
 31
0.0
  0
LINE
  5
18D4B
330
18C7A
100
AcDbEntity
  8
部品1
100
AcDbLine
 10
1311.970589276519
 20
3182.494269174477
 30
0.0
 11
1311.970589276523
 21
3154.494269174477
 31
0.0
  0
LINE
  5
18D4C
330
18C7A
100
AcDbEntity
  8
部品1
100
AcDbLine
 10
891.9705892765195
 20
3182.494269174477
 30
0.0
 11
891.9705892765232
 21
3154.494269174477
 31
0.0
  0
LINE
  5
18D4D
330
18C7A
100
AcDbEntity
  8
部品1
100
AcDbLine
 10
471.9705892765232
 20
1392.494269174596
 30
0.0
 11
471.9705892765232
 21
1420.494269174596
 31
0.0
  0
LINE
  5
18D4E
330
18C7A
100
AcDbEntity
  8
部品1
100
AcDbLine
 10
444.9705892765305
 20
1420.494269174558
 30
0.0
 11
3858.970589276556
 21
1420.494269174596
 31
0.0
  0
LINE
  5
18D4F
330
18C7A
100
AcDbEntity
  8
部品1
100
AcDbLine
 10
3831.970589276556
 20
1392.494269174596
 30
0.0
 11
3831.970589276556
 21
1420.494269174596
 31
0.0
  0
LINE
  5
18D50
330
18C7A
100
AcDbEntity
  8
部品1
100
AcDbLine
 10
3858.970589276556
 20
1447.494269174593
 30
0.0
 11
3886.970589276556
 21
1447.494269174593
 31
0.0
  0
LINE
  5
18D51
330
18C7A
100
AcDbEntity
  8
部品1
100
AcDbLine
 10
3858.970589276556
 20
1867.494269174607
 30
0.0
 11
3886.970589276556
 21
1867.494269174607
 31
0.0
  0
LINE
  5
18D52
330
18C7A
100
AcDbEntity
  8
部品1
100
AcDbLine
 10
444.9705892765305
 20
1867.49426917448
 30
0.0
 11
416.9705892765305
 21
1867.49426917448
 31
0.0
  0
LINE
  5
18D53
330
18C7A
100
AcDbEntity
  8
部品1
100
AcDbLine
 10
3830.470589276541
 20
1867.49426917458
 30
0.0
 11
473.4705892765396
 21
1867.49426917448
 31
0.0
  0
LINE
  5
18D54
330
18C7A
100
AcDbEntity
  8
部品1
100
AcDbLine
 10
3830.470589276541
 20
2287.49426917458
 30
0.0
 11
473.4705892765396
 21
2287.49426917448
 31
0.0
  0
LINE
  5
18D55
330
18C7A
100
AcDbEntity
  8
部品1
100
AcDbLine
 10
444.9705892765305
 20
2287.49426917448
 30
0.0
 11
416.9705892765305
 21
2287.49426917448
 31
0.0
  0
LINE
  5
18D56
330
18C7A
100
AcDbEntity
  8
部品1
100
AcDbLine
 10
3858.970589276556
 20
2287.494269174608
 30
0.0
 11
3886.970589276556
 21
2287.494269174608
 31
0.0
  0
LINE
  5
18D57
330
18C7A
100
AcDbEntity
  8
部品1
 48
50.0
100
AcDbLine
 10
2151.970589276551
 20
2702.494269174586
 30
0.0
 11
2151.970589276581
 21
1448.994269174494
 31
0.0
  0
LINE
  5
18D58
330
18C7A
100
AcDbEntity
  8
破線
 48
10.0
100
AcDbLine
 10
2959.470589276535
 20
1472.494269174522
 30
0.0
 11
2176.970589276532
 21
1472.494269174505
 31
0.0
  0
LINE
  5
18D59
330
18C7A
100
AcDbEntity
  8
破線
 48
10.0
100
AcDbLine
 10
3009.47058927653
 20
1448.994269174509
 30
0.0
 11
3009.47058927653
 21
2702.494269174615
 31
0.0
  0
LINE
  5
18D5A
330
18C7A
100
AcDbEntity
  8
破線
 48
10.0
100
AcDbLine
 10
2959.470589276535
 20
1448.994269174505
 30
0.0
 11
2959.470589276531
 21
2702.494269174615
 31
0.0
  0
LINE
  5
18D5B
330
18C7A
100
AcDbEntity
  8
破線
 48
10.0
100
AcDbLine
 10
1344.47058927653
 20
1448.994269174509
 30
0.0
 11
1344.47058927653
 21
2702.494269174615
 31
0.0
  0
LINE
  5
18D5C
330
18C7A
100
AcDbEntity
  8
破線
 48
10.0
100
AcDbLine
 10
1294.470589276534
 20
1448.994269174505
 30
0.0
 11
1294.47058927653
 21
2702.494269174615
 31
0.0
  0
DIMENSION
  5
18D5D
330
18C7A
100
AcDbEntity
  8
寸法
100
AcDbDimension
  2
*D13
 10
1451.234916278005
 20
2488.887829538828
 30
0.0
 11
916.0604668248634
 21
2488.887829538828
 31
0.0
 12
-3742.925985830444
 22
-6453.628869860112
 32
0.0
 70
   128
 71
     5
 42
1062.99999999993
  3
INABA_S40G
100
AcDbAlignedDimension
 13
445.4705892765559
 23
2702.494269174505
 33
0.0
 14
1508.470589276486
 24
2702.494269174558
 34
0.0
100
AcDbRotatedDimension
1001
ACAD
1000
DSTYLE
1002
{
1002
}
  0
LINE
  5
18D5E
330
18C7A
100
AcDbEntity
  8
破線
 48
10.0
100
AcDbLine
 10
1294.470589276534
 20
1472.494269174469
 30
0.0
 11
496.9705892765414
 21
1472.494269174476
 31
0.0
  0
LINE
  5
18D5F
330
18C7A
100
AcDbEntity
  8
部品1
100
AcDbLine
 10
3831.970589276556
 20
3182.494269174604
 30
0.0
 11
3831.970589276556
 21
3154.494269174604
 31
0.0
  0
LINE
  5
18D60
330
18C7A
100
AcDbEntity
  8
部品1
100
AcDbLine
 10
3831.970589276556
 20
3182.494269174626
 30
0.0
 11
3831.970589276556
 21
3154.494269174626
 31
0.0
  0
LINE
  5
18D61
330
18C7A
100
AcDbEntity
  8
部品1
100
AcDbLine
 10
3858.970589276556
 20
3127.494269174607
 30
0.0
 11
3886.970589276556
 21
3127.494269174607
 31
0.0
  0
LINE
  5
18D62
330
18C7A
100
AcDbEntity
  8
部品1
100
AcDbLine
 10
3858.970589276556
 20
2707.494269174608
 30
0.0
 11
3886.970589276556
 21
2707.494269174608
 31
0.0
  0
LINE
  5
18D63
330
18C7A
100
AcDbEntity
  8
部品1
100
AcDbLine
 10
3858.470589276556
 20
3152.494269174604
 30
0.0
 11
3858.470589276556
 21
2702.494269174608
 31
0.0
  0
LINE
  5
18D64
330
18C7A
100
AcDbEntity
  8
部品1
100
AcDbLine
 10
3886.970589276533
 20
1447.494269174593
 30
0.0
 11
3886.970589276531
 21
1392.494269174596
 31
0.0
  0
LINE
  5
18D65
330
18C7A
100
AcDbEntity
  8
部品1
 48
50.0
100
AcDbLine
 10
3830.470589276556
 20
1448.994269174596
 30
0.0
 11
3858.970589276554
 21
1420.494269174596
 31
0.0
  0
LINE
  5
18D66
330
18C7A
100
AcDbEntity
  8
部品1
100
AcDbLine
 10
3886.970589276531
 20
1392.494269174596
 30
0.0
 11
3835.970589276531
 21
1392.494269174596
 31
0.0
  0
LINE
  5
18D67
330
18C7A
100
AcDbEntity
  8
部品1
100
AcDbLine
 10
3858.970589276533
 20
1447.494269174593
 30
0.0
 11
3886.970589276531
 21
1447.494269174593
 31
0.0
  0
LINE
  5
18D68
330
18C7A
100
AcDbEntity
  8
部品1
100
AcDbLine
 10
3886.970589276556
 20
3182.494269174604
 30
0.0
 11
3886.970589276531
 21
1392.494269174596
 31
0.0
  0
DIMENSION
  5
18D69
330
18C7A
100
AcDbEntity
  8
寸法
100
AcDbDimension
  2
*D12
 10
4534.396935010967
 20
1447.494269174593
 30
0.0
 11
4534.396935010965
 21
2287.4942691746
 31
0.0
 12
-3742.925985830444
 22
-6453.628869860112
 32
0.0
 70
   128
  1
4X420=<>
 71
     5
 42
1680.000000000014
  3
INABA_S40G
100
AcDbAlignedDimension
 13
3886.970589276556
 23
3127.494269174607
 33
0.0
 14
3886.970589276531
 24
1447.494269174593
 34
0.0
 50
90.0
100
AcDbRotatedDimension
1001
ACAD
1000
DSTYLE
1002
{
1002
}
  0
LINE
  5
18D6A
330
18C7A
100
AcDbEntity
  8
部品1
100
AcDbLine
 10
3858.970589276556
 20
3154.494269174604
 30
0.0
 11
3858.970589276534
 21
1420.494269174596
 31
0.0
  0
DIMENSION
  5
18D6B
330
18C7A
100
AcDbEntity
  8
寸法
100
AcDbDimension
  2
*D11
 10
4213.82831513858
 20
2607.276453505718
 30
0.0
 11
4113.828315138579
 21
2832.276453505718
 31
0.0
 12
-3742.925985830444
 22
-6453.628869860112
 32
0.0
 71
     5
 42
449.9999999999963
  3
INABA_S40G
100
AcDbAlignedDimension
 13
3858.470589276556
 23
3152.494269174604
 33
0.0
 14
3858.470589276556
 24
2702.494269174608
 34
0.0
 50
90.0
100
AcDbRotatedDimension
1001
ACAD
1000
DSTYLE
1002
{
1002
}
  0
LINE
  5
18D6C
330
18C7A
100
AcDbEntity
  8
部品1
100
AcDbLine
 10
3830.470589276547
 20
2702.494269174608
 30
0.0
 11
3830.470589276556
 21
1448.994269174596
 31
0.0
  0
LINE
  5
18D6D
330
18C7A
100
AcDbEntity
  8
破線
 48
10.0
100
AcDbLine
 10
3806.970589276549
 20
2702.494269174608
 30
0.0
 11
3806.970589276558
 21
1472.494269174593
 31
0.0
  0
LINE
  5
18D6E
330
18C7A
100
AcDbEntity
  8
部品1
100
AcDbLine
 10
2769.470589276556
 20
3146.494269174608
 30
0.0
 11
2794.470589276556
 21
3146.494269174611
 31
0.0
  0
LINE
  5
18D6F
330
18C7A
100
AcDbEntity
  8
部品1
100
AcDbLine
 10
2810.970589276556
 20
3172.494269174611
 30
0.0
 11
2816.970589276556
 21
3172.494269174611
 31
0.0
  0
LINE
  5
18D70
330
18C7A
100
AcDbEntity
  8
部品1
100
AcDbLine
 10
2816.970589276556
 20
3172.494269174611
 30
0.0
 11
2816.970589276556
 21
3154.494269174611
 31
0.0
  0
LINE
  5
18D71
330
18C7A
100
AcDbEntity
  8
部品1
100
AcDbLine
 10
2746.970589276556
 20
3172.494269174611
 30
0.0
 11
2752.970589276556
 21
3172.494269174611
 31
0.0
  0
LINE
  5
18D72
330
18C7A
100
AcDbEntity
  8
部品1
100
AcDbLine
 10
2746.970589276556
 20
3172.494269174611
 30
0.0
 11
2746.970589276556
 21
3154.494269174611
 31
0.0
  0
LINE
  5
18D73
330
18C7A
100
AcDbEntity
  8
部品1
100
AcDbLine
 10
2769.470589276556
 20
2702.494269174615
 30
0.0
 11
2794.470589276556
 21
2702.494269174615
 31
0.0
  0
LINE
  5
18D74
330
18C7A
100
AcDbEntity
  8
部品1
 48
50.0
100
AcDbLine
 10
2794.470589276556
 20
3154.494269174615
 30
0.0
 11
2794.470589276556
 21
2702.494269174615
 31
0.0
  0
LINE
  5
18D75
330
18C7A
100
AcDbEntity
  8
部品1
 48
50.0
100
AcDbLine
 10
2769.470589276554
 20
3154.494269174618
 30
0.0
 11
2769.470589276556
 21
2702.494269174615
 31
0.0
  0
LINE
  5
18D76
330
18C7A
100
AcDbEntity
  8
部品1
 48
50.0
100
AcDbLine
 10
2795.470589276556
 20
3152.494269174607
 30
0.0
 11
2795.470589276556
 21
2702.494269174615
 31
0.0
  0
LINE
  5
18D77
330
18C7A
100
AcDbEntity
  8
部品1
 48
50.0
100
AcDbLine
 10
2767.470589276556
 20
3152.494269174611
 30
0.0
 11
2767.470589276556
 21
2702.494269174615
 31
0.0
  0
LINE
  5
18D78
330
18C7A
100
AcDbEntity
  8
破線
 48
10.0
100
AcDbLine
 10
2176.97058927653
 20
1448.994269174509
 30
0.0
 11
2176.97058927653
 21
2702.494269174588
 31
0.0
  0
LINE
  5
18D79
330
18C7A
100
AcDbEntity
  8
破線
 48
10.0
100
AcDbLine
 10
2126.970589276534
 20
1448.994269174505
 30
0.0
 11
2126.970589276531
 21
2702.494269174586
 31
0.0
  0
LINE
  5
18D7A
330
18C7A
100
AcDbEntity
  8
部品1
100
AcDbLine
 10
2794.470589276556
 20
3154.494269174622
 30
0.0
 11
3858.970589276556
 21
3154.494269174604
 31
0.0
  0
LINE
  5
18D7B
330
18C7A
100
AcDbEntity
  8
細線
 48
50.0
100
AcDbLine
 10
3858.470589276556
 20
2702.494269174608
 30
0.0
 11
2795.470589276556
 21
3152.494269174607
 31
0.0
  0
LINE
  5
18D7C
330
18C7A
100
AcDbEntity
  8
部品1
100
AcDbLine
 10
2795.470589276555
 20
2702.494269174615
 30
0.0
 11
3858.470589276556
 21
2702.494269174608
 31
0.0
  0
LINE
  5
18D7D
330
18C7A
100
AcDbEntity
  8
部品1
100
AcDbLine
 10
2795.470589276556
 20
3152.494269174611
 30
0.0
 11
3858.470589276556
 21
3152.494269174604
 31
0.0
  0
LINE
  5
18D7E
330
18C7A
100
AcDbEntity
  8
細線
 48
50.0
100
AcDbLine
 10
3858.470589276556
 20
3152.494269174604
 30
0.0
 11
2795.470589276555
 21
2702.494269174615
 31
0.0
  0
DIMENSION
  5
18D7F
330
18C7A
100
AcDbEntity
  8
寸法
100
AcDbDimension
  2
*D10
 10
3801.234916278101
 20
2488.887829538937
 30
0.0
 11
3318.360544398907
 21
2488.887829538937
 31
0.0
 12
-3742.925985830444
 22
-6453.628869860112
 32
0.0
 70
   128
 71
     5
 42
1063.000000000012
  3
INABA_S40G
100
AcDbAlignedDimension
 13
2795.470589276555
 23
2702.494269174615
 33
0.0
 14
3858.470589276567
 24
2702.494269174608
 34
0.0
100
AcDbRotatedDimension
1001
ACAD
1000
DSTYLE
1002
{
1002
}
  0
LINE
  5
18D80
330
18C7A
100
AcDbEntity
  8
破線
 48
10.0
100
AcDbLine
 10
3806.970589276556
 20
1472.494269174594
 30
0.0
 11
3009.47058927653
 21
1472.494269174523
 31
0.0
  0
DIMENSION
  5
18D81
330
18C7A
100
AcDbEntity
  8
寸法
100
AcDbDimension
  2
*D9
 10
4534.396935010941
 20
1392.494269174596
 30
0.0
 11
4534.39693501094
 21
1084.008987800356
 31
0.0
 12
-3742.925985830444
 22
-6453.628869860112
 32
0.0
 70
   128
 71
     5
 42
54.99999999999636
  3
INABA_S40G
100
AcDbAlignedDimension
 13
3886.970589276531
 23
1447.494269174593
 33
0.0
 14
3886.970589276531
 24
1392.494269174596
 34
0.0
 50
90.0
100
AcDbRotatedDimension
1001
ACAD
1000
DSTYLE
1002
{
1002
}
  0
LINE
  5
18D82
330
18C7A
100
AcDbEntity
  8
部品1
100
AcDbLine
 10
471.9705892765196
 20
3182.494269174477
 30
0.0
 11
471.9705892765232
 21
3154.494269174477
 31
0.0
  0
LINE
  5
18D83
330
18C7A
100
AcDbEntity
  8
部品1
100
AcDbLine
 10
471.9705892765559
 20
3182.494269174509
 30
0.0
 11
471.9705892765559
 21
3154.494269174509
 31
0.0
  0
LINE
  5
18D84
330
18C7A
100
AcDbEntity
  8
部品1
100
AcDbLine
 10
444.9705892765232
 20
3127.49426917448
 30
0.0
 11
416.9705892765232
 21
3127.49426917448
 31
0.0
  0
LINE
  5
18D85
330
18C7A
100
AcDbEntity
  8
部品1
100
AcDbLine
 10
444.9705892765305
 20
2707.49426917448
 30
0.0
 11
416.9705892765305
 21
2707.49426917448
 31
0.0
  0
LINE
  5
18D86
330
18C7A
100
AcDbEntity
  8
部品1
 48
50.0
100
AcDbLine
 10
445.4705892765542
 20
3152.494269174506
 30
0.0
 11
445.4705892765559
 21
2702.494269174505
 31
0.0
  0
LINE
  5
18D87
330
18C7A
100
AcDbEntity
  8
部品1
 48
50.0
100
AcDbLine
 10
473.470589276545
 20
1448.994269174573
 30
0.0
 11
444.970589276545
 21
1420.494269174574
 31
0.0
  0
LINE
  5
18D88
330
18C7A
100
AcDbEntity
  8
部品1
100
AcDbLine
 10
471.9705892765232
 20
1392.494269174465
 30
0.0
 11
416.9705892765486
 21
1392.494269174465
 31
0.0
  0
LINE
  5
18D89
330
18C7A
100
AcDbEntity
  8
部品1
100
AcDbLine
 10
444.9705892765305
 20
1447.494269174429
 30
0.0
 11
416.9705892765469
 21
1447.494269174429
 31
0.0
  0
LINE
  5
18D8A
330
18C7A
100
AcDbEntity
  8
部品1
100
AcDbLine
 10
444.9705892765305
 20
1447.494269174465
 30
0.0
 11
416.9705892765469
 21
1447.494269174465
 31
0.0
  0
LINE
  5
18D8B
330
18C7A
100
AcDbEntity
  8
部品1
100
AcDbLine
 10
444.9705892765469
 20
1447.49426917448
 30
0.0
 11
416.9705892765469
 21
1447.49426917448
 31
0.0
  0
LINE
  5
18D8C
330
18C7A
100
AcDbEntity
  8
部品1
100
AcDbLine
 10
416.9705892765469
 20
1447.494269174429
 30
0.0
 11
416.9705892765486
 21
1392.494269174433
 31
0.0
  0
LINE
  5
18D8D
330
18C7A
100
AcDbEntity
  8
部品1
100
AcDbLine
 10
416.9705892765196
 20
3182.494269174477
 30
0.0
 11
416.9705892765486
 21
1392.494269174465
 31
0.0
  0
LINE
  5
18D8E
330
18C7A
100
AcDbEntity
  8
部品1
100
AcDbLine
 10
444.9705892765305
 20
1420.494269174556
 30
0.0
 11
444.9705892765559
 21
3154.494269174509
 31
0.0
  0
LINE
  5
18D8F
330
18C7A
100
AcDbEntity
  8
部品1
100
AcDbLine
 10
473.4705892765323
 20
2702.494269174608
 30
0.0
 11
473.470589276545
 21
1448.994269174571
 31
0.0
  0
LINE
  5
18D90
330
18C7A
100
AcDbEntity
  8
破線
 48
10.0
100
AcDbLine
 10
496.9705892765305
 20
2702.494269174608
 30
0.0
 11
496.9705892765451
 21
1472.494269174476
 31
0.0
  0
DIMENSION
  5
18D91
330
18C7A
100
AcDbEntity
  8
寸法
100
AcDbDimension
  2
*D8
 10
3886.970589276531
 20
410.7433333855515
 30
0.0
 11
2168.197775309287
 21
410.7433333855515
 31
0.0
 12
-3742.925985830444
 22
-6453.628869860112
 32
0.0
 70
   128
 71
     5
 42
3469.999999999982
  3
INABA_S40G
100
AcDbAlignedDimension
 13
416.9705892765486
 23
1392.494269174433
 33
0.0
 14
3886.970589276531
 24
1392.49426917456
 34
0.0
100
AcDbRotatedDimension
1001
ACAD
1000
DSTYLE
1002
{
1070
   341
1005
0
1002
}
  0
LINE
  5
18D92
330
18C7A
100
AcDbEntity
  8
部品1
100
AcDbLine
 10
444.9705892765559
 20
3154.494269174624
 30
0.0
 11
1509.470589276487
 21
3154.494269174626
 31
0.0
  0
LINE
  5
18D93
330
18C7A
100
AcDbEntity
  8
部品1
100
AcDbLine
 10
3886.970589276531
 20
1392.494269174596
 30
0.0
 11
3411.970589276556
 21
1392.494269174582
 31
0.0
  0
LINE
  5
18D94
330
18C7A
100
AcDbEntity
  8
部品1
100
AcDbLine
 10
416.9705892765559
 20
3182.494269174509
 30
0.0
 11
3886.970589276556
 21
3182.494269174604
 31
0.0
  0
LINE
  5
18D95
330
18C7A
100
AcDbEntity
  8
部品1
100
AcDbLine
 10
445.4705892765559
 20
2702.494269174509
 30
0.0
 11
1508.470589276487
 21
2702.494269174558
 31
0.0
  0
LINE
  5
18D96
330
18C7A
100
AcDbEntity
  8
細線
 48
50.0
100
AcDbLine
 10
2767.470589276556
 20
3152.494269174611
 30
0.0
 11
1536.470589276487
 21
2702.494269174558
 31
0.0
  0
LINE
  5
18D97
330
18C7A
100
AcDbEntity
  8
部品1
100
AcDbLine
 10
445.4705892765542
 20
3152.494269174509
 30
0.0
 11
1508.470589276485
 21
3152.494269174558
 31
0.0
  0
LINE
  5
18D98
330
18C7A
100
AcDbEntity
  8
細線
 48
50.0
100
AcDbLine
 10
2767.470589276554
 20
2702.494269174615
 30
0.0
 11
1536.470589276485
 21
3152.494269174558
 31
0.0
  0
LINE
  5
18D99
330
18C7A
100
AcDbEntity
  8
破線
 48
10.0
100
AcDbLine
 10
2126.970589276534
 20
1472.494269174502
 30
0.0
 11
1344.47058927653
 21
1472.494269174473
 31
0.0
  0
LINE
  5
18D9A
330
18C7A
100
AcDbEntity
  8
部品1
100
AcDbLine
 10
3830.470589276556
 20
1448.994269174596
 30
0.0
 11
473.4705892764487
 21
1448.994269174476
 31
0.0
  0
DIMENSION
  5
18D9B
330
18C7A
100
AcDbEntity
  8
寸法
100
AcDbDimension
  2
*D7
 10
471.970589276555
 20
3698.302488799491
 30
0.0
 11
108.4853079022819
 21
3698.302488799491
 31
0.0
 12
-3742.925985830444
 22
-6453.628869860112
 32
0.0
 70
   128
 71
     5
 42
55.00000000003456
  3
INABA_S40G
100
AcDbAlignedDimension
 13
416.9705892765205
 23
3182.494269174509
 33
0.0
 14
471.970589276555
 24
3182.494269174509
 34
0.0
100
AcDbRotatedDimension
1001
ACAD
1000
DSTYLE
1002
{
1002
}
  0
DIMENSION
  5
18D9C
330
18C7A
100
AcDbEntity
  8
寸法
100
AcDbDimension
  2
*D6
 10
4534.396935010967
 20
3127.494269174607
 30
0.0
 11
4534.396935010965
 21
3490.979550548844
 31
0.0
 12
-3742.925985830444
 22
-6453.628869860112
 32
0.0
 70
   128
 71
     5
 42
54.99999999999636
  3
INABA_S40G
100
AcDbAlignedDimension
 13
3886.970589276556
 23
3182.494269174604
 33
0.0
 14
3886.970589276556
 24
3127.494269174607
 34
0.0
 50
90.0
100
AcDbRotatedDimension
1001
ACAD
1000
DSTYLE
1002
{
1002
}
  0
DIMENSION
  5
18D9D
330
18C7A
100
AcDbEntity
  8
寸法
100
AcDbDimension
  2
*D5
 10
3886.970589276556
 20
3698.302488799589
 30
0.0
 11
4195.455870650794
 21
3698.302488799589
 31
0.0
 12
-3742.925985830444
 22
-6453.628869860112
 32
0.0
 70
   128
 71
     5
 42
55.0
  3
INABA_S40G
100
AcDbAlignedDimension
 13
3831.970589276556
 23
3182.494269174604
 33
0.0
 14
3886.970589276556
 24
3182.494269174604
 34
0.0
100
AcDbRotatedDimension
1001
ACAD
1000
DSTYLE
1002
{
1002
}
  0
DIMENSION
  5
18D9E
330
18C7A
100
AcDbEntity
  8
寸法
100
AcDbDimension
  2
*D4
 10
3831.970589276556
 20
3698.302488799607
 30
0.0
 11
2151.970589276555
 21
3698.302488799607
 31
0.0
 12
-3742.925985830444
 22
-6453.628869860112
 32
0.0
 70
   128
  1
8X420=<>
 71
     5
 42
3360.000000000001
  3
INABA_S40G
100
AcDbAlignedDimension
 13
471.970589276555
 23
3182.494269174509
 33
0.0
 14
3831.970589276556
 24
3182.494269174604
 34
0.0
100
AcDbRotatedDimension
1001
ACAD
1000
DSTYLE
1002
{
1002
}
  0
DIMENSION
  5
18D9F
330
18C7A
100
AcDbEntity
  8
寸法
100
AcDbDimension
  2
*D3
 10
4899.503876750603
 20
1392.494269174596
 30
0.0
 11
4899.503876750601
 21
2287.4942691746
 31
0.0
 12
-3742.925985830444
 22
-6453.628869860112
 32
0.0
 70
   128
 71
     5
 42
1790.000000000007
  3
INABA_S40G
100
AcDbAlignedDimension
 13
3886.970589276556
 23
3182.494269174604
 33
0.0
 14
3886.970589276531
 24
1392.494269174596
 34
0.0
 50
90.0
100
AcDbRotatedDimension
1001
ACAD
1000
DSTYLE
1002
{
1002
}
  0
ENDBLK
  5
18DA1
330
18C7A
100
AcDbEntity
  8
0
 48
50.0
100
AcDbBlockEnd
  0
BLOCK
  5
1C4CB
330
1C4CA
100
AcDbEntity
  8
0
 48
50.0
100
AcDbBlockBegin
  2
_NONE
 70
     0
 10
0.0
 20
0.0
 30
0.0
  3
_NONE
  1

  0
CIRCLE
  5
1C4CC
330
1C4CA
100
AcDbEntity
  8
0
  6
ByBlock
 62
     0
 48
50.0
100
AcDbCircle
 10
0.0
 20
0.0
 30
0.0
 40
0.25
  0
ENDBLK
  5
1C4CD
330
1C4CA
100
AcDbEntity
  8
0
 48
50.0
100
AcDbBlockEnd
  0
BLOCK
  5
1DD4F
330
1DD46
100
AcDbEntity
  8
0
 48
50.0
100
AcDbBlockBegin
  2
*D19
 70
     1
 10
0.0
 20
0.0
 30
0.0
  3
*D19
  1

  0
LINE
  5
1F6B6
330
1DD46
100
AcDbEntity
  8
寸法
 62
     0
 48
50.0
370
    -2
100
AcDbLine
 10
8103.6
 20
6762.375394111462
 30
0.0
 11
6946.690234351672
 21
6762.375394111462
 31
0.0
  0
LINE
  5
1F6B7
330
1DD46
100
AcDbEntity
  8
寸法
 62
     0
 48
50.0
370
    -2
100
AcDbLine
 10
7513.600000000001
 20
7662.375394111461
 30
0.0
 11
6946.690234351672
 21
7662.375394111461
 31
0.0
  0
LINE
  5
1F6B8
330
1DD46
100
AcDbEntity
  8
寸法
 62
     0
 48
50.0
370
    -2
100
AcDbLine
 10
7006.690234351673
 20
6762.375394111462
 30
0.0
 11
7006.690234351673
 21
7662.375394111461
 31
0.0
  0
INSERT
  5
1F6B9
330
1DD46
100
AcDbEntity
  8
寸法
 62
     0
 48
50.0
370
    -2
100
AcDbBlockReference
  2
_DOTSMALL
 10
7006.690234351673
 20
6762.375394111462
 30
0.0
 41
100.0
 42
100.0
 43
100.0
 50
270.0
  0
INSERT
  5
1F6BA
330
1DD46
100
AcDbEntity
  8
寸法
 62
     0
 48
50.0
370
    -2
100
AcDbBlockReference
  2
_DOTSMALL
 10
7006.690234351673
 20
7662.375394111461
 30
0.0
 41
100.0
 42
100.0
 43
100.0
 50
90.0
  0
MTEXT
  5
1F6BB
330
1DD46
100
AcDbEntity
  8
寸法
 62
     7
 48
50.0
100
AcDbMText
 10
6906.69023435167
 20
7212.375394111464
 30
0.0
 40
120.0
 41
0.0
 71
     5
 72
     1
  1
\A1;900
  7
STYLE1
 11
0.0000000000000001
 21
1.0
 31
0.0
 73
     1
 44
1.0
1001
ACAD
1000
MTEXTBEGIN
1070
    73
1070
     1
1070
    44
1040
1.0
1070
    74
1070
     0
1000
MTEXTEND
  0
POINT
  5
1F6BC
330
1DD46
100
AcDbEntity
  8
DEFPOINTS
 62
     0
 48
50.0
100
AcDbPoint
 10
8123.600000000001
 20
6762.375394111462
 30
0.0
  0
POINT
  5
1F6BD
330
1DD46
100
AcDbEntity
  8
DEFPOINTS
 62
     0
 48
50.0
100
AcDbPoint
 10
7533.599999999999
 20
7662.375394111461
 30
0.0
  0
POINT
  5
1F6BE
330
1DD46
100
AcDbEntity
  8
DEFPOINTS
 62
     0
 48
50.0
100
AcDbPoint
 10
7006.690234351673
 20
7662.375394111461
 30
0.0
  0
ENDBLK
  5
1DD50
330
1DD46
100
AcDbEntity
  8
0
 48
50.0
100
AcDbBlockEnd
  0
BLOCK
  5
1DD74
330
1DD6B
100
AcDbEntity
  8
0
 48
50.0
100
AcDbBlockBegin
  2
*D20
 70
     1
 10
0.0
 20
0.0
 30
0.0
  3
*D20
  1

  0
LINE
  5
1F5A6
330
1DD6B
100
AcDbEntity
  8
寸法
 62
     0
 48
50.0
370
    -2
100
AcDbLine
 10
7513.600000000001
 20
7662.375394111461
 30
0.0
 11
6515.379677941083
 21
7662.375394111461
 31
0.0
  0
LINE
  5
1F5A7
330
1DD6B
100
AcDbEntity
  8
寸法
 62
     0
 48
50.0
370
    -2
100
AcDbLine
 10
7513.600000000001
 20
5862.375394111462
 30
0.0
 11
6515.379677941081
 21
5862.375394111462
 31
0.0
  0
LINE
  5
1F5A8
330
1DD6B
100
AcDbEntity
  8
寸法
 62
     0
 48
50.0
370
    -2
100
AcDbLine
 10
6575.379677941082
 20
7662.375394111461
 30
0.0
 11
6575.379677941082
 21
5862.375394111462
 31
0.0
  0
INSERT
  5
1F5A9
330
1DD6B
100
AcDbEntity
  8
寸法
 62
     0
 48
50.0
370
    -2
100
AcDbBlockReference
  2
_DOTSMALL
 10
6575.379677941082
 20
7662.375394111461
 30
0.0
 41
100.0
 42
100.0
 43
100.0
 50
90.0
  0
INSERT
  5
1F5AA
330
1DD6B
100
AcDbEntity
  8
寸法
 62
     0
 48
50.0
370
    -2
100
AcDbBlockReference
  2
_DOTSMALL
 10
6575.379677941082
 20
5862.375394111462
 30
0.0
 41
100.0
 42
100.0
 43
100.0
 50
270.0
  0
MTEXT
  5
1F5AB
330
1DD6B
100
AcDbEntity
  8
寸法
 62
     7
 48
50.0
100
AcDbMText
 10
6475.379677941081
 20
6762.375394111464
 30
0.0
 40
120.0
 41
0.0
 71
     5
 72
     1
  1
\A1;1800
  7
STYLE1
 11
0.0000000000000001
 21
1.0
 31
0.0
 73
     1
 44
1.0
1001
ACAD
1000
MTEXTBEGIN
1070
    73
1070
     1
1070
    44
1040
1.0
1070
    74
1070
     0
1000
MTEXTEND
  0
POINT
  5
1F5AC
330
1DD6B
100
AcDbEntity
  8
DEFPOINTS
 62
     0
 48
50.0
100
AcDbPoint
 10
7533.599999999999
 20
7662.375394111461
 30
0.0
  0
POINT
  5
1F5AD
330
1DD6B
100
AcDbEntity
  8
DEFPOINTS
 62
     0
 48
50.0
100
AcDbPoint
 10
7533.600000000001
 20
5862.375394111462
 30
0.0
  0
POINT
  5
1F5AE
330
1DD6B
100
AcDbEntity
  8
DEFPOINTS
 62
     0
 48
50.0
100
AcDbPoint
 10
6575.379677941082
 20
5862.375394111462
 30
0.0
  0
ENDBLK
  5
1DD75
330
1DD6B
100
AcDbEntity
  8
0
 48
50.0
100
AcDbBlockEnd
  0
BLOCK
  5
1DD7F
330
1DD76
100
AcDbEntity
  8
0
 48
50.0
100
AcDbBlockBegin
  2
*D21
 70
     1
 10
0.0
 20
0.0
 30
0.0
  3
*D21
  1

  0
LINE
  5
1F59D
330
1DD76
100
AcDbEntity
  8
寸法
 62
     0
 48
50.0
370
    -2
100
AcDbLine
 10
7586.600000000001
 20
5985.375394111462
 30
0.0
 11
6727.840373457915
 21
5985.375394111462
 31
0.0
  0
LINE
  5
1F59E
330
1DD76
100
AcDbEntity
  8
寸法
 62
     0
 48
50.0
370
    -2
100
AcDbLine
 10
7586.6
 20
7539.375394111463
 30
0.0
 11
6727.840373457917
 21
7539.375394111463
 31
0.0
  0
LINE
  5
1F59F
330
1DD76
100
AcDbEntity
  8
寸法
 62
     0
 48
50.0
370
    -2
100
AcDbLine
 10
6787.840373457917
 20
5985.375394111462
 30
0.0
 11
6787.840373457917
 21
7539.375394111463
 31
0.0
  0
INSERT
  5
1F5A0
330
1DD76
100
AcDbEntity
  8
寸法
 62
     0
 48
50.0
370
    -2
100
AcDbBlockReference
  2
_DOTSMALL
 10
6787.840373457917
 20
5985.375394111462
 30
0.0
 41
100.0
 42
100.0
 43
100.0
 50
270.0
  0
INSERT
  5
1F5A1
330
1DD76
100
AcDbEntity
  8
寸法
 62
     0
 48
50.0
370
    -2
100
AcDbBlockReference
  2
_DOTSMALL
 10
6787.840373457917
 20
7539.375394111463
 30
0.0
 41
100.0
 42
100.0
 43
100.0
 50
90.0
  0
MTEXT
  5
1F5A2
330
1DD76
100
AcDbEntity
  8
寸法
 62
     7
 48
50.0
100
AcDbMText
 10
6687.840373457915
 20
6762.375394111464
 30
0.0
 40
120.0
 41
0.0
 71
     5
 72
     1
  1
\A1;1554
  7
STYLE1
 11
0.0000000000000001
 21
1.0
 31
0.0
 73
     1
 44
1.0
1001
ACAD
1000
MTEXTBEGIN
1070
    73
1070
     1
1070
    44
1040
1.0
1070
    74
1070
     0
1000
MTEXTEND
  0
POINT
  5
1F5A3
330
1DD76
100
AcDbEntity
  8
DEFPOINTS
 62
     0
 48
50.0
100
AcDbPoint
 10
7606.600000000002
 20
5985.375394111462
 30
0.0
  0
POINT
  5
1F5A4
330
1DD76
100
AcDbEntity
  8
DEFPOINTS
 62
     0
 48
50.0
100
AcDbPoint
 10
7606.6
 20
7539.375394111463
 30
0.0
  0
POINT
  5
1F5A5
330
1DD76
100
AcDbEntity
  8
DEFPOINTS
 62
     0
 48
50.0
100
AcDbPoint
 10
6787.840373457917
 20
7539.375394111463
 30
0.0
  0
ENDBLK
  5
1DD80
330
1DD76
100
AcDbEntity
  8
0
 48
50.0
100
AcDbBlockEnd
  0
BLOCK
  5
1DD99
330
1DD8E
100
AcDbEntity
  8
0
 48
50.0
100
AcDbBlockBegin
  2
*D22
 70
     1
 10
0.0
 20
0.0
 30
0.0
  3
*D22
  1

  0
LINE
  5
1F593
330
1DD8E
100
AcDbEntity
  8
寸法
 62
     0
 48
50.0
370
    -2
100
AcDbLine
 10
7586.6
 20
7539.375394111463
 30
0.0
 11
6727.840373457919
 21
7539.375394111463
 31
0.0
  0
LINE
  5
1F594
330
1DD8E
100
AcDbEntity
  8
寸法
 62
     0
 48
50.0
370
    -2
100
AcDbLine
 10
7513.600000000001
 20
7662.375394111461
 30
0.0
 11
6727.840373457919
 21
7662.375394111461
 31
0.0
  0
LINE
  5
1F595
330
1DD8E
100
AcDbEntity
  8
寸法
 62
     0
 48
50.0
370
    -2
100
AcDbLine
 10
6787.840373457918
 20
7539.375394111463
 30
0.0
 11
6787.840373457918
 21
7662.375394111461
 31
0.0
  0
LINE
  5
1F596
330
1DD8E
100
AcDbEntity
  8
寸法
 62
     0
 48
50.0
370
    -2
100
AcDbLine
 10
6787.840373457918
 20
7662.375394111461
 30
0.0
 11
6787.840373457918
 21
8073.967277203497
 31
0.0
  0
INSERT
  5
1F597
330
1DD8E
100
AcDbEntity
  8
寸法
 62
     0
 48
50.0
370
    -2
100
AcDbBlockReference
  2
_DOTSMALL
 10
6787.840373457918
 20
7539.375394111463
 30
0.0
 41
100.0
 42
100.0
 43
100.0
 50
270.0
  0
INSERT
  5
1F598
330
1DD8E
100
AcDbEntity
  8
寸法
 62
     0
 48
50.0
370
    -2
100
AcDbBlockReference
  2
_DOTSMALL
 10
6787.840373457918
 20
7662.375394111461
 30
0.0
 41
100.0
 42
100.0
 43
100.0
 50
90.0
  0
MTEXT
  5
1F599
330
1DD8E
100
AcDbEntity
  8
寸法
 62
     7
 48
50.0
100
AcDbMText
 10
6687.828562434295
 20
7935.48199582926
 30
0.0
 40
120.0
 41
0.0
 71
     5
 72
     1
  1
\A1;123
  7
STYLE1
 11
0.0000000000000001
 21
1.0
 31
0.0
 73
     1
 44
1.0
1001
ACAD
1000
MTEXTBEGIN
1070
    73
1070
     1
1070
    44
1040
1.0
1070
    74
1070
     0
1000
MTEXTEND
  0
POINT
  5
1F59A
330
1DD8E
100
AcDbEntity
  8
DEFPOINTS
 62
     0
 48
50.0
100
AcDbPoint
 10
7606.6
 20
7539.375394111463
 30
0.0
  0
POINT
  5
1F59B
330
1DD8E
100
AcDbEntity
  8
DEFPOINTS
 62
     0
 48
50.0
100
AcDbPoint
 10
7533.599999999999
 20
7662.375394111461
 30
0.0
  0
POINT
  5
1F59C
330
1DD8E
100
AcDbEntity
  8
DEFPOINTS
 62
     0
 48
50.0
100
AcDbPoint
 10
6787.840373457918
 20
7662.375394111461
 30
0.0
  0
ENDBLK
  5
1DD9A
330
1DD8E
100
AcDbEntity
  8
0
 48
50.0
100
AcDbBlockEnd
  0
BLOCK
  5
1DDB3
330
1DDA8
100
AcDbEntity
  8
0
 48
50.0
100
AcDbBlockBegin
  2
*D23
 70
     1
 10
0.0
 20
0.0
 30
0.0
  3
*D23
  1

  0
LINE
  5
1F6DA
330
1DDA8
100
AcDbEntity
  8
寸法
 62
     0
 48
50.0
370
    -2
100
AcDbLine
 10
8790.599999999999
 20
7609.375394111456
 30
0.0
 11
8790.599999999999
 21
8493.017164835816
 31
0.0
  0
LINE
  5
1F6DB
330
1DDA8
100
AcDbEntity
  8
寸法
 62
     0
 48
50.0
370
    -2
100
AcDbLine
 10
8913.6
 20
7682.375394111462
 30
0.0
 11
8913.6
 21
8493.017164835816
 31
0.0
  0
LINE
  5
1F6DC
330
1DDA8
100
AcDbEntity
  8
寸法
 62
     0
 48
50.0
370
    -2
100
AcDbLine
 10
8790.599999999999
 20
8433.017164835815
 30
0.0
 11
8913.6
 21
8433.017164835815
 31
0.0
  0
LINE
  5
1F6DD
330
1DDA8
100
AcDbEntity
  8
寸法
 62
     0
 48
50.0
370
    -2
100
AcDbLine
 10
8913.6
 20
8433.017164835815
 30
0.0
 11
9290.570562748476
 21
8433.017164835815
 31
0.0
  0
INSERT
  5
1F6DE
330
1DDA8
100
AcDbEntity
  8
寸法
 62
     0
 48
50.0
370
    -2
100
AcDbBlockReference
  2
_DOTSMALL
 10
8790.599999999999
 20
8433.017164835815
 30
0.0
 41
100.0
 42
100.0
 43
100.0
 50
180.0
  0
INSERT
  5
1F6DF
330
1DDA8
100
AcDbEntity
  8
寸法
 62
     0
 48
50.0
370
    -2
100
AcDbBlockReference
  2
_DOTSMALL
 10
8913.6
 20
8433.017164835815
 30
0.0
 41
100.0
 42
100.0
 43
100.0
  0
MTEXT
  5
1F6E0
330
1DDA8
100
AcDbEntity
  8
寸法
 62
     7
 48
50.0
100
AcDbMText
 10
9152.085281374239
 20
8533.028975859437
 30
0.0
 40
120.0
 41
0.0
 71
     5
 72
     1
  1
\A1;123
  7
STYLE1
 73
     1
 44
1.0
1001
ACAD
1000
MTEXTBEGIN
1070
    73
1070
     1
1070
    44
1040
1.0
1070
    74
1070
     0
1000
MTEXTEND
  0
POINT
  5
1F6E1
330
1DDA8
100
AcDbEntity
  8
DEFPOINTS
 62
     0
 48
50.0
100
AcDbPoint
 10
8790.599999999999
 20
7589.375394111455
 30
0.0
  0
POINT
  5
1F6E2
330
1DDA8
100
AcDbEntity
  8
DEFPOINTS
 62
     0
 48
50.0
100
AcDbPoint
 10
8913.6
 20
7662.375394111461
 30
0.0
  0
POINT
  5
1F6E3
330
1DDA8
100
AcDbEntity
  8
DEFPOINTS
 62
     0
 48
50.0
100
AcDbPoint
 10
8913.6
 20
8433.017164835815
 30
0.0
  0
ENDBLK
  5
1DDB4
330
1DDA8
100
AcDbEntity
  8
0
 48
50.0
100
AcDbBlockEnd
  0
BLOCK
  5
1DDC0
330
1DDB5
100
AcDbEntity
  8
0
 48
50.0
100
AcDbBlockBegin
  2
*D24
 70
     1
 10
0.0
 20
0.0
 30
0.0
  3
*D24
  1

  0
LINE
  5
200A4
330
1DDB5
100
AcDbEntity
  8
寸法
 62
     0
 48
50.0
370
    -2
100
AcDbLine
 10
8793.599999999996
 20
7412.375394111461
 30
0.0
 11
8793.599999999996
 21
7201.573824624967
 31
0.0
  0
LINE
  5
200A5
330
1DDB5
100
AcDbEntity
  8
寸法
 62
     0
 48
50.0
370
    -2
100
AcDbLine
 10
8913.599999999998
 20
7387.37539411146
 30
0.0
 11
8913.599999999998
 21
7201.573824624967
 31
0.0
  0
LINE
  5
200A6
330
1DDB5
100
AcDbEntity
  8
寸法
 62
     0
 48
50.0
370
    -2
100
AcDbLine
 10
8793.599999999996
 20
7261.573824624966
 30
0.0
 11
8913.599999999998
 21
7261.573824624966
 31
0.0
  0
LINE
  5
200A7
330
1DDB5
100
AcDbEntity
  8
寸法
 62
     0
 48
50.0
370
    -2
100
AcDbLine
 10
8913.599999999998
 20
7261.573824624966
 30
0.0
 11
9327.73078736737
 21
7261.573824624966
 31
0.0
  0
INSERT
  5
200A8
330
1DDB5
100
AcDbEntity
  8
寸法
 62
     0
 48
50.0
370
    -2
100
AcDbBlockReference
  2
_DOTSMALL
 10
8793.599999999996
 20
7261.573824624966
 30
0.0
 41
100.0
 42
100.0
 43
100.0
 50
180.0
  0
INSERT
  5
200A9
330
1DDB5
100
AcDbEntity
  8
寸法
 62
     0
 48
50.0
370
    -2
100
AcDbBlockReference
  2
_DOTSMALL
 10
8913.599999999998
 20
7261.573824624966
 30
0.0
 41
100.0
 42
100.0
 43
100.0
  0
MTEXT
  5
200AA
330
1DDB5
100
AcDbEntity
  8
寸法
 62
     7
 48
50.0
100
AcDbMText
 10
9191.68354327288
 20
7361.585635648587
 30
0.0
 40
120.0
 41
0.0
 71
     5
 72
     1
  1
\A1;120
  7
STYLE1
 73
     1
 44
1.0
1001
ACAD
1000
MTEXTBEGIN
1070
    73
1070
     1
1070
    44
1040
1.0
1070
    74
1070
     0
1000
MTEXTEND
  0
POINT
  5
200AB
330
1DDB5
100
AcDbEntity
  8
DEFPOINTS
 62
     0
 48
50.0
100
AcDbPoint
 10
8793.599999999996
 20
7432.375394111462
 30
0.0
  0
POINT
  5
200AC
330
1DDB5
100
AcDbEntity
  8
DEFPOINTS
 62
     0
 48
50.0
100
AcDbPoint
 10
8913.599999999998
 20
7407.37539411146
 30
0.0
  0
POINT
  5
200AD
330
1DDB5
100
AcDbEntity
  8
DEFPOINTS
 62
     0
 48
50.0
100
AcDbPoint
 10
8913.599999999998
 20
7261.573824624966
 30
0.0
  0
ENDBLK
  5
1DDC1
330
1DDB5
100
AcDbEntity
  8
0
 48
50.0
100
AcDbBlockEnd
  0
BLOCK
  5
1DDCB
330
1DDC2
100
AcDbEntity
  8
0
 48
50.0
100
AcDbBlockBegin
  2
*D25
 70
     1
 10
0.0
 20
0.0
 30
0.0
  3
*D25
  1

  0
LINE
  5
1F626
330
1DDC2
100
AcDbEntity
  8
寸法
 62
     0
 48
50.0
370
    -2
100
AcDbLine
 10
8913.6
 20
7682.375394111462
 30
0.0
 11
8913.6
 21
8738.509966973783
 31
0.0
  0
LINE
  5
1F627
330
1DDC2
100
AcDbEntity
  8
寸法
 62
     0
 48
50.0
370
    -2
100
AcDbLine
 10
7533.599999999999
 20
7682.375394111462
 30
0.0
 11
7533.599999999999
 21
8738.509966973783
 31
0.0
  0
LINE
  5
1F628
330
1DDC2
100
AcDbEntity
  8
寸法
 62
     0
 48
50.0
370
    -2
100
AcDbLine
 10
8913.6
 20
8678.509966973782
 30
0.0
 11
7533.599999999999
 21
8678.509966973782
 31
0.0
  0
INSERT
  5
1F629
330
1DDC2
100
AcDbEntity
  8
寸法
 62
     0
 48
50.0
370
    -2
100
AcDbBlockReference
  2
_DOTSMALL
 10
8913.6
 20
8678.509966973782
 30
0.0
 41
100.0
 42
100.0
 43
100.0
  0
INSERT
  5
1F62A
330
1DDC2
100
AcDbEntity
  8
寸法
 62
     0
 48
50.0
370
    -2
100
AcDbBlockReference
  2
_DOTSMALL
 10
7533.599999999999
 20
8678.509966973782
 30
0.0
 41
100.0
 42
100.0
 43
100.0
 50
180.0
  0
MTEXT
  5
1F62B
330
1DDC2
100
AcDbEntity
  8
寸法
 62
     7
 48
50.0
100
AcDbMText
 10
8223.600000000001
 20
8778.509966973784
 30
0.0
 40
120.0
 41
0.0
 71
     5
 72
     1
  1
\A1;1380
  7
STYLE1
 73
     1
 44
1.0
1001
ACAD
1000
MTEXTBEGIN
1070
    73
1070
     1
1070
    44
1040
1.0
1070
    74
1070
     0
1000
MTEXTEND
  0
POINT
  5
1F62C
330
1DDC2
100
AcDbEntity
  8
DEFPOINTS
 62
     0
 48
50.0
100
AcDbPoint
 10
8913.6
 20
7662.375394111461
 30
0.0
  0
POINT
  5
1F62D
330
1DDC2
100
AcDbEntity
  8
DEFPOINTS
 62
     0
 48
50.0
100
AcDbPoint
 10
7533.599999999999
 20
7662.375394111461
 30
0.0
  0
POINT
  5
1F62E
330
1DDC2
100
AcDbEntity
  8
DEFPOINTS
 62
     0
 48
50.0
100
AcDbPoint
 10
7533.599999999999
 20
8678.509966973782
 30
0.0
  0
ENDBLK
  5
1DDCC
330
1DDC2
100
AcDbEntity
  8
0
 48
50.0
100
AcDbBlockEnd
  0
BLOCK
  5
1DDD7
330
1DDCD
100
AcDbEntity
  8
0
 48
50.0
100
AcDbBlockBegin
  2
*D26
 70
     1
 10
0.0
 20
0.0
 30
0.0
  3
*D26
  1

  0
LINE
  5
1F61D
330
1DDCD
100
AcDbEntity
  8
寸法
 62
     0
 48
50.0
370
    -2
100
AcDbLine
 10
7656.6
 20
7609.375394111463
 30
0.0
 11
7656.6
 21
8493.017164835816
 31
0.0
  0
LINE
  5
1F61E
330
1DDCD
100
AcDbEntity
  8
寸法
 62
     0
 48
50.0
370
    -2
100
AcDbLine
 10
8790.599999999999
 20
7609.375394111456
 30
0.0
 11
8790.599999999999
 21
8493.017164835816
 31
0.0
  0
LINE
  5
1F61F
330
1DDCD
100
AcDbEntity
  8
寸法
 62
     0
 48
50.0
370
    -2
100
AcDbLine
 10
7656.6
 20
8433.017164835815
 30
0.0
 11
8790.599999999999
 21
8433.017164835815
 31
0.0
  0
INSERT
  5
1F620
330
1DDCD
100
AcDbEntity
  8
寸法
 62
     0
 48
50.0
370
    -2
100
AcDbBlockReference
  2
_DOTSMALL
 10
7656.6
 20
8433.017164835815
 30
0.0
 41
100.0
 42
100.0
 43
100.0
 50
180.0
  0
INSERT
  5
1F621
330
1DDCD
100
AcDbEntity
  8
寸法
 62
     0
 48
50.0
370
    -2
100
AcDbBlockReference
  2
_DOTSMALL
 10
8790.599999999999
 20
8433.017164835815
 30
0.0
 41
100.0
 42
100.0
 43
100.0
  0
MTEXT
  5
1F622
330
1DDCD
100
AcDbEntity
  8
寸法
 62
     7
 48
50.0
100
AcDbMText
 10
8223.599999999999
 20
8533.017164835817
 30
0.0
 40
120.0
 41
0.0
 71
     5
 72
     1
  1
\A1;1134
  7
STYLE1
 73
     1
 44
1.0
1001
ACAD
1000
MTEXTBEGIN
1070
    73
1070
     1
1070
    44
1040
1.0
1070
    74
1070
     0
1000
MTEXTEND
  0
POINT
  5
1F623
330
1DDCD
100
AcDbEntity
  8
DEFPOINTS
 62
     0
 48
50.0
100
AcDbPoint
 10
7656.6
 20
7589.375394111463
 30
0.0
  0
POINT
  5
1F624
330
1DDCD
100
AcDbEntity
  8
DEFPOINTS
 62
     0
 48
50.0
100
AcDbPoint
 10
8790.599999999999
 20
7589.375394111455
 30
0.0
  0
POINT
  5
1F625
330
1DDCD
100
AcDbEntity
  8
DEFPOINTS
 62
     0
 48
50.0
100
AcDbPoint
 10
8790.599999999999
 20
8433.017164835815
 30
0.0
  0
ENDBLK
  5
1DDD8
330
1DDCD
100
AcDbEntity
  8
0
 48
50.0
100
AcDbBlockEnd
  0
BLOCK
  5
1DDEE
330
1DDE3
100
AcDbEntity
  8
0
 48
50.0
100
AcDbBlockBegin
  2
*D27
 70
     1
 10
0.0
 20
0.0
 30
0.0
  3
*D27
  1

  0
LINE
  5
2009A
330
1DDE3
100
AcDbEntity
  8
寸法
 62
     0
 48
50.0
370
    -2
100
AcDbLine
 10
8793.599999999996
 20
7412.375394111461
 30
0.0
 11
8793.599999999996
 21
7201.573824624967
 31
0.0
  0
LINE
  5
2009B
330
1DDE3
100
AcDbEntity
  8
寸法
 62
     0
 48
50.0
370
    -2
100
AcDbLine
 10
8683.599999999996
 20
7412.375394111461
 30
0.0
 11
8683.599999999996
 21
7201.573824624967
 31
0.0
  0
LINE
  5
2009C
330
1DDE3
100
AcDbEntity
  8
寸法
 62
     0
 48
50.0
370
    -2
100
AcDbLine
 10
8793.599999999996
 20
7261.573824624966
 30
0.0
 11
8683.599999999996
 21
7261.573824624966
 31
0.0
  0
LINE
  5
2009D
330
1DDE3
100
AcDbEntity
  8
寸法
 62
     0
 48
50.0
370
    -2
100
AcDbLine
 10
8683.599999999996
 20
7261.573824624966
 30
0.0
 11
8288.796146023541
 21
7261.573824624966
 31
0.0
  0
INSERT
  5
2009E
330
1DDE3
100
AcDbEntity
  8
寸法
 62
     0
 48
50.0
370
    -2
100
AcDbBlockReference
  2
_DOTSMALL
 10
8793.599999999996
 20
7261.573824624966
 30
0.0
 41
100.0
 42
100.0
 43
100.0
  0
INSERT
  5
2009F
330
1DDE3
100
AcDbEntity
  8
寸法
 62
     0
 48
50.0
370
    -2
100
AcDbBlockReference
  2
_DOTSMALL
 10
8683.599999999996
 20
7261.573824624966
 30
0.0
 41
100.0
 42
100.0
 43
100.0
 50
180.0
  0
MTEXT
  5
200A0
330
1DDE3
100
AcDbEntity
  8
寸法
 62
     7
 48
50.0
100
AcDbMText
 10
8412.843390118029
 20
7361.573824624966
 30
0.0
 40
120.0
 41
0.0
 71
     5
 72
     1
  1
\A1;110
  7
STYLE1
 73
     1
 44
1.0
1001
ACAD
1000
MTEXTBEGIN
1070
    73
1070
     1
1070
    44
1040
1.0
1070
    74
1070
     0
1000
MTEXTEND
  0
POINT
  5
200A1
330
1DDE3
100
AcDbEntity
  8
DEFPOINTS
 62
     0
 48
50.0
100
AcDbPoint
 10
8793.599999999996
 20
7432.375394111462
 30
0.0
  0
POINT
  5
200A2
330
1DDE3
100
AcDbEntity
  8
DEFPOINTS
 62
     0
 48
50.0
100
AcDbPoint
 10
8683.599999999996
 20
7432.375394111462
 30
0.0
  0
POINT
  5
200A3
330
1DDE3
100
AcDbEntity
  8
DEFPOINTS
 62
     0
 48
50.0
100
AcDbPoint
 10
8683.599999999996
 20
7261.573824624966
 30
0.0
  0
ENDBLK
  5
1DDEF
330
1DDE3
100
AcDbEntity
  8
0
 48
50.0
100
AcDbBlockEnd
  0
BLOCK
  5
1DDFB
330
1DDF0
100
AcDbEntity
  8
0
 48
50.0
100
AcDbBlockBegin
  2
*D28
 70
     1
 10
0.0
 20
0.0
 30
0.0
  3
*D28
  1

  0
LINE
  5
1F613
330
1DDF0
100
AcDbEntity
  8
寸法
 62
     0
 48
50.0
370
    -2
100
AcDbLine
 10
7533.599999999999
 20
7682.375394111462
 30
0.0
 11
7533.599999999999
 21
8493.017164835816
 31
0.0
  0
LINE
  5
1F614
330
1DDF0
100
AcDbEntity
  8
寸法
 62
     0
 48
50.0
370
    -2
100
AcDbLine
 10
7656.6
 20
7609.375394111463
 30
0.0
 11
7656.6
 21
8493.017164835816
 31
0.0
  0
LINE
  5
1F615
330
1DDF0
100
AcDbEntity
  8
寸法
 62
     0
 48
50.0
370
    -2
100
AcDbLine
 10
7656.6
 20
8433.017164835815
 30
0.0
 11
7533.599999999999
 21
8433.017164835815
 31
0.0
  0
LINE
  5
1F616
330
1DDF0
100
AcDbEntity
  8
寸法
 62
     0
 48
50.0
370
    -2
100
AcDbLine
 10
7533.599999999999
 20
8433.017164835815
 30
0.0
 11
7082.008116907963
 21
8433.017164835815
 31
0.0
  0
INSERT
  5
1F617
330
1DDF0
100
AcDbEntity
  8
寸法
 62
     0
 48
50.0
370
    -2
100
AcDbBlockReference
  2
_DOTSMALL
 10
7656.6
 20
8433.017164835815
 30
0.0
 41
100.0
 42
100.0
 43
100.0
  0
INSERT
  5
1F618
330
1DDF0
100
AcDbEntity
  8
寸法
 62
     0
 48
50.0
370
    -2
100
AcDbBlockReference
  2
_DOTSMALL
 10
7533.599999999999
 20
8433.017164835815
 30
0.0
 41
100.0
 42
100.0
 43
100.0
 50
180.0
  0
MTEXT
  5
1F619
330
1DDF0
100
AcDbEntity
  8
寸法
 62
     7
 48
50.0
100
AcDbMText
 10
7220.493398282203
 20
8533.028975859437
 30
0.0
 40
120.0
 41
0.0
 71
     5
 72
     1
  1
\A1;123
  7
STYLE1
 73
     1
 44
1.0
1001
ACAD
1000
MTEXTBEGIN
1070
    73
1070
     1
1070
    44
1040
1.0
1070
    74
1070
     0
1000
MTEXTEND
  0
POINT
  5
1F61A
330
1DDF0
100
AcDbEntity
  8
DEFPOINTS
 62
     0
 48
50.0
100
AcDbPoint
 10
7533.599999999999
 20
7662.375394111461
 30
0.0
  0
POINT
  5
1F61B
330
1DDF0
100
AcDbEntity
  8
DEFPOINTS
 62
     0
 48
50.0
100
AcDbPoint
 10
7656.6
 20
7589.375394111463
 30
0.0
  0
POINT
  5
1F61C
330
1DDF0
100
AcDbEntity
  8
DEFPOINTS
 62
     0
 48
50.0
100
AcDbPoint
 10
7656.6
 20
8433.017164835815
 30
0.0
  0
ENDBLK
  5
1DDFC
330
1DDF0
100
AcDbEntity
  8
0
 48
50.0
100
AcDbBlockEnd
  0
BLOCK
  5
1DE13
330
1DE09
100
AcDbEntity
  8
0
 48
50.0
100
AcDbBlockBegin
  2
*D29
 70
     1
 10
0.0
 20
0.0
 30
0.0
  3
*D29
  1

  0
LINE
  5
1F6AD
330
1DE09
100
AcDbEntity
  8
寸法
 62
     0
 48
50.0
370
    -2
100
AcDbLine
 10
7513.600000000001
 20
5862.375394111462
 30
0.0
 11
6946.690234351674
 21
5862.375394111462
 31
0.0
  0
LINE
  5
1F6AE
330
1DE09
100
AcDbEntity
  8
寸法
 62
     0
 48
50.0
370
    -2
100
AcDbLine
 10
8103.6
 20
6762.375394111462
 30
0.0
 11
6946.690234351675
 21
6762.375394111462
 31
0.0
  0
LINE
  5
1F6AF
330
1DE09
100
AcDbEntity
  8
寸法
 62
     0
 48
50.0
370
    -2
100
AcDbLine
 10
7006.690234351674
 20
5862.375394111462
 30
0.0
 11
7006.690234351674
 21
6762.375394111462
 31
0.0
  0
INSERT
  5
1F6B0
330
1DE09
100
AcDbEntity
  8
寸法
 62
     0
 48
50.0
370
    -2
100
AcDbBlockReference
  2
_DOTSMALL
 10
7006.690234351674
 20
5862.375394111462
 30
0.0
 41
100.0
 42
100.0
 43
100.0
 50
270.0
  0
INSERT
  5
1F6B1
330
1DE09
100
AcDbEntity
  8
寸法
 62
     0
 48
50.0
370
    -2
100
AcDbBlockReference
  2
_DOTSMALL
 10
7006.690234351674
 20
6762.375394111462
 30
0.0
 41
100.0
 42
100.0
 43
100.0
 50
90.0
  0
MTEXT
  5
1F6B2
330
1DE09
100
AcDbEntity
  8
寸法
 62
     7
 48
50.0
100
AcDbMText
 10
6906.690234351673
 20
6291.456872105182
 30
0.0
 40
120.0
 41
0.0
 71
     5
 72
     1
  1
\A1;900
  7
STYLE1
 11
0.0000000000000001
 21
1.0
 31
0.0
 73
     1
 44
1.0
1001
ACAD
1000
MTEXTBEGIN
1070
    73
1070
     1
1070
    44
1040
1.0
1070
    74
1070
     0
1000
MTEXTEND
  0
POINT
  5
1F6B3
330
1DE09
100
AcDbEntity
  8
DEFPOINTS
 62
     0
 48
50.0
100
AcDbPoint
 10
7533.600000000001
 20
5862.375394111462
 30
0.0
  0
POINT
  5
1F6B4
330
1DE09
100
AcDbEntity
  8
DEFPOINTS
 62
     0
 48
50.0
100
AcDbPoint
 10
8123.600000000001
 20
6762.375394111462
 30
0.0
  0
POINT
  5
1F6B5
330
1DE09
100
AcDbEntity
  8
DEFPOINTS
 62
     0
 48
50.0
100
AcDbPoint
 10
7006.690234351674
 20
6762.375394111462
 30
0.0
  0
ENDBLK
  5
1DE14
330
1DE09
100
AcDbEntity
  8
0
 48
50.0
100
AcDbBlockEnd
  0
BLOCK
  5
1DE2D
330
1DE22
100
AcDbEntity
  8
0
 48
50.0
100
AcDbBlockBegin
  2
*D30
 70
     1
 10
0.0
 20
0.0
 30
0.0
  3
*D30
  1

  0
LINE
  5
1F546
330
1DE22
100
AcDbEntity
  8
寸法
 62
     0
 48
50.0
370
    -2
100
AcDbLine
 10
7513.600000000001
 20
5862.375394111462
 30
0.0
 11
6727.840373457919
 21
5862.375394111462
 31
0.0
  0
LINE
  5
1F547
330
1DE22
100
AcDbEntity
  8
寸法
 62
     0
 48
50.0
370
    -2
100
AcDbLine
 10
7586.600000000001
 20
5985.375394111462
 30
0.0
 11
6727.840373457919
 21
5985.375394111462
 31
0.0
  0
LINE
  5
1F548
330
1DE22
100
AcDbEntity
  8
寸法
 62
     0
 48
50.0
370
    -2
100
AcDbLine
 10
6787.840373457919
 20
5985.375394111462
 30
0.0
 11
6787.840373457919
 21
5862.375394111462
 31
0.0
  0
LINE
  5
1F549
330
1DE22
100
AcDbEntity
  8
寸法
 62
     0
 48
50.0
370
    -2
100
AcDbLine
 10
6787.840373457919
 20
5862.375394111462
 30
0.0
 11
6787.840373457919
 21
5450.783511019423
 31
0.0
  0
INSERT
  5
1F54A
330
1DE22
100
AcDbEntity
  8
寸法
 62
     0
 48
50.0
370
    -2
100
AcDbBlockReference
  2
_DOTSMALL
 10
6787.840373457919
 20
5985.375394111462
 30
0.0
 41
100.0
 42
100.0
 43
100.0
 50
90.0
  0
INSERT
  5
1F54B
330
1DE22
100
AcDbEntity
  8
寸法
 62
     0
 48
50.0
370
    -2
100
AcDbBlockReference
  2
_DOTSMALL
 10
6787.840373457919
 20
5862.375394111462
 30
0.0
 41
100.0
 42
100.0
 43
100.0
 50
270.0
  0
MTEXT
  5
1F54C
330
1DE22
100
AcDbEntity
  8
寸法
 62
     7
 48
50.0
100
AcDbMText
 10
6687.828562434297
 20
5589.268792393664
 30
0.0
 40
120.0
 41
0.0
 71
     5
 72
     1
  1
\A1;123
  7
STYLE1
 11
0.0000000000000001
 21
1.0
 31
0.0
 73
     1
 44
1.0
1001
ACAD
1000
MTEXTBEGIN
1070
    73
1070
     1
1070
    44
1040
1.0
1070
    74
1070
     0
1000
MTEXTEND
  0
POINT
  5
1F54D
330
1DE22
100
AcDbEntity
  8
DEFPOINTS
 62
     0
 48
50.0
100
AcDbPoint
 10
7533.600000000001
 20
5862.375394111462
 30
0.0
  0
POINT
  5
1F54E
330
1DE22
100
AcDbEntity
  8
DEFPOINTS
 62
     0
 48
50.0
100
AcDbPoint
 10
7606.600000000002
 20
5985.375394111462
 30
0.0
  0
POINT
  5
1F54F
330
1DE22
100
AcDbEntity
  8
DEFPOINTS
 62
     0
 48
50.0
100
AcDbPoint
 10
6787.840373457919
 20
5985.375394111462
 30
0.0
  0
ENDBLK
  5
1DE2E
330
1DE22
100
AcDbEntity
  8
0
 48
50.0
100
AcDbBlockEnd
  0
BLOCK
  5
1DE3A
330
1DE2F
100
AcDbEntity
  8
0
 48
50.0
100
AcDbBlockBegin
  2
*D31
 70
     1
 10
0.0
 20
0.0
 30
0.0
  3
*D31
  1

  0
LINE
  5
20086
330
1DE2F
100
AcDbEntity
  8
寸法
 62
     0
 48
50.0
370
    -2
100
AcDbLine
 10
7783.600000000001
 20
5787.375394111462
 30
0.0
 11
8052.938460046267
 21
5787.375394111462
 31
0.0
  0
LINE
  5
20087
330
1DE2F
100
AcDbEntity
  8
寸法
 62
     0
 48
50.0
370
    -2
100
AcDbLine
 10
7783.600000000001
 20
5982.375394111461
 30
0.0
 11
8052.938460046267
 21
5982.375394111461
 31
0.0
  0
LINE
  5
20088
330
1DE2F
100
AcDbEntity
  8
寸法
 62
     0
 48
50.0
370
    -2
100
AcDbLine
 10
7992.938460046267
 20
5982.375394111461
 30
0.0
 11
7992.938460046267
 21
5787.375394111462
 31
0.0
  0
LINE
  5
20089
330
1DE2F
100
AcDbEntity
  8
寸法
 62
     0
 48
50.0
370
    -2
100
AcDbLine
 10
7992.938460046267
 20
5787.375394111462
 30
0.0
 11
7992.938460046267
 21
5409.985511703672
 31
0.0
  0
INSERT
  5
2008A
330
1DE2F
100
AcDbEntity
  8
寸法
 62
     0
 48
50.0
370
    -2
100
AcDbBlockReference
  2
_DOTSMALL
 10
7992.938460046267
 20
5982.375394111461
 30
0.0
 41
100.0
 42
100.0
 43
100.0
 50
90.0
  0
INSERT
  5
2008B
330
1DE2F
100
AcDbEntity
  8
寸法
 62
     0
 48
50.0
370
    -2
100
AcDbBlockReference
  2
_DOTSMALL
 10
7992.938460046267
 20
5787.375394111462
 30
0.0
 41
100.0
 42
100.0
 43
100.0
 50
270.0
  0
MTEXT
  5
2008C
330
1DE2F
100
AcDbEntity
  8
寸法
 62
     7
 48
50.0
100
AcDbMText
 10
7892.938460046265
 20
5548.680452907568
 30
0.0
 40
120.0
 41
0.0
 71
     5
 72
     1
  1
\A1;195
  7
STYLE1
 11
0.0000000000000001
 21
1.0
 31
0.0
 73
     1
 44
1.0
1001
ACAD
1000
MTEXTBEGIN
1070
    73
1070
     1
1070
    44
1040
1.0
1070
    74
1070
     0
1000
MTEXTEND
  0
POINT
  5
2008D
330
1DE2F
100
AcDbEntity
  8
DEFPOINTS
 62
     0
 48
50.0
100
AcDbPoint
 10
7763.600000000001
 20
5787.375394111462
 30
0.0
  0
POINT
  5
2008E
330
1DE2F
100
AcDbEntity
  8
DEFPOINTS
 62
     0
 48
50.0
100
AcDbPoint
 10
7763.600000000001
 20
5982.375394111461
 30
0.0
  0
POINT
  5
2008F
330
1DE2F
100
AcDbEntity
  8
DEFPOINTS
 62
     0
 48
50.0
100
AcDbPoint
 10
7992.938460046267
 20
5982.375394111461
 30
0.0
  0
ENDBLK
  5
1DE3B
330
1DE2F
100
AcDbEntity
  8
0
 48
50.0
100
AcDbBlockEnd
  0
BLOCK
  5
1DE45
330
1DE3C
100
AcDbEntity
  8
0
 48
50.0
100
AcDbBlockBegin
  2
*D32
 70
     1
 10
0.0
 20
0.0
 30
0.0
  3
*D32
  1

  0
LINE
  5
1F6C8
330
1DE3C
100
AcDbEntity
  8
寸法
 62
     0
 48
50.0
370
    -2
100
AcDbLine
 10
8223.600000000001
 20
6882.375394111462
 30
0.0
 11
8223.600000000001
 21
8252.688586008066
 31
0.0
  0
LINE
  5
1F6C9
330
1DE3C
100
AcDbEntity
  8
寸法
 62
     0
 48
50.0
370
    -2
100
AcDbLine
 10
7533.599999999999
 20
7681.763289968571
 30
0.0
 11
7533.599999999999
 21
8252.688586008066
 31
0.0
  0
LINE
  5
1F6CA
330
1DE3C
100
AcDbEntity
  8
寸法
 62
     0
 48
50.0
370
    -2
100
AcDbLine
 10
8223.600000000001
 20
8192.688586008065
 30
0.0
 11
7533.599999999999
 21
8192.688586008065
 31
0.0
  0
INSERT
  5
1F6CB
330
1DE3C
100
AcDbEntity
  8
寸法
 62
     0
 48
50.0
370
    -2
100
AcDbBlockReference
  2
_DOTSMALL
 10
8223.600000000001
 20
8192.688586008065
 30
0.0
 41
100.0
 42
100.0
 43
100.0
  0
INSERT
  5
1F6CC
330
1DE3C
100
AcDbEntity
  8
寸法
 62
     0
 48
50.0
370
    -2
100
AcDbBlockReference
  2
_DOTSMALL
 10
7533.599999999999
 20
8192.688586008065
 30
0.0
 41
100.0
 42
100.0
 43
100.0
 50
180.0
  0
MTEXT
  5
1F6CD
330
1DE3C
100
AcDbEntity
  8
寸法
 62
     7
 48
50.0
100
AcDbMText
 10
7878.6
 20
8292.688586008067
 30
0.0
 40
120.0
 41
0.0
 71
     5
 72
     1
  1
\A1;690
  7
STYLE1
 73
     1
 44
1.0
1001
ACAD
1000
MTEXTBEGIN
1070
    73
1070
     1
1070
    44
1040
1.0
1070
    74
1070
     0
1000
MTEXTEND
  0
POINT
  5
1F6CE
330
1DE3C
100
AcDbEntity
  8
DEFPOINTS
 62
     0
 48
50.0
100
AcDbPoint
 10
8223.600000000001
 20
6862.375394111461
 30
0.0
  0
POINT
  5
1F6CF
330
1DE3C
100
AcDbEntity
  8
DEFPOINTS
 62
     0
 48
50.0
100
AcDbPoint
 10
7533.599999999999
 20
7661.76328996857
 30
0.0
  0
POINT
  5
1F6D0
330
1DE3C
100
AcDbEntity
  8
DEFPOINTS
 62
     0
 48
50.0
100
AcDbPoint
 10
7533.599999999999
 20
8192.688586008065
 30
0.0
  0
ENDBLK
  5
1DE46
330
1DE3C
100
AcDbEntity
  8
0
 48
50.0
100
AcDbBlockEnd
  0
BLOCK
  5
1DE52
330
1DE47
100
AcDbEntity
  8
0
 48
50.0
100
AcDbBlockBegin
  2
*D33
 70
     1
 10
0.0
 20
0.0
 30
0.0
  3
*D33
  1

  0
LINE
  5
2007C
330
1DE47
100
AcDbEntity
  8
寸法
 62
     0
 48
50.0
370
    -2
100
AcDbLine
 10
7783.600000000001
 20
5982.375394111461
 30
0.0
 11
8052.938460046267
 21
5982.375394111461
 31
0.0
  0
LINE
  5
2007D
330
1DE47
100
AcDbEntity
  8
寸法
 62
     0
 48
50.0
370
    -2
100
AcDbLine
 10
7783.600000000003
 20
6092.375394111462
 30
0.0
 11
8052.938460046267
 21
6092.375394111462
 31
0.0
  0
LINE
  5
2007E
330
1DE47
100
AcDbEntity
  8
寸法
 62
     0
 48
50.0
370
    -2
100
AcDbLine
 10
7992.938460046267
 20
5982.375394111461
 30
0.0
 11
7992.938460046267
 21
6092.375394111462
 31
0.0
  0
LINE
  5
2007F
330
1DE47
100
AcDbEntity
  8
寸法
 62
     0
 48
50.0
370
    -2
100
AcDbLine
 10
7992.938460046267
 20
6092.375394111462
 30
0.0
 11
7992.938460046267
 21
6452.469882300438
 31
0.0
  0
INSERT
  5
20080
330
1DE47
100
AcDbEntity
  8
寸法
 62
     0
 48
50.0
370
    -2
100
AcDbBlockReference
  2
_DOTSMALL
 10
7992.938460046267
 20
5982.375394111461
 30
0.0
 41
100.0
 42
100.0
 43
100.0
 50
270.0
  0
INSERT
  5
20081
330
1DE47
100
AcDbEntity
  8
寸法
 62
     0
 48
50.0
370
    -2
100
AcDbBlockReference
  2
_DOTSMALL
 10
7992.938460046267
 20
6092.375394111462
 30
0.0
 41
100.0
 42
100.0
 43
100.0
 50
90.0
  0
MTEXT
  5
20082
330
1DE47
100
AcDbEntity
  8
寸法
 62
     7
 48
50.0
100
AcDbMText
 10
7892.938460046265
 20
6328.422638205951
 30
0.0
 40
120.0
 41
0.0
 71
     5
 72
     1
  1
\A1;110
  7
STYLE1
 11
0.0000000000000001
 21
1.0
 31
0.0
 73
     1
 44
1.0
1001
ACAD
1000
MTEXTBEGIN
1070
    73
1070
     1
1070
    44
1040
1.0
1070
    74
1070
     0
1000
MTEXTEND
  0
POINT
  5
20083
330
1DE47
100
AcDbEntity
  8
DEFPOINTS
 62
     0
 48
50.0
100
AcDbPoint
 10
7763.600000000001
 20
5982.375394111461
 30
0.0
  0
POINT
  5
20084
330
1DE47
100
AcDbEntity
  8
DEFPOINTS
 62
     0
 48
50.0
100
AcDbPoint
 10
7763.600000000003
 20
6092.375394111462
 30
0.0
  0
POINT
  5
20085
330
1DE47
100
AcDbEntity
  8
DEFPOINTS
 62
     0
 48
50.0
100
AcDbPoint
 10
7992.938460046267
 20
6092.375394111462
 30
0.0
  0
ENDBLK
  5
1DE53
330
1DE47
100
AcDbEntity
  8
0
 48
50.0
100
AcDbBlockEnd
  0
BLOCK
  5
1DE5E
330
1DE54
100
AcDbEntity
  8
0
 48
50.0
100
AcDbBlockBegin
  2
*D34
 70
     1
 10
0.0
 20
0.0
 30
0.0
  3
*D34
  1

  0
LINE
  5
1F6BF
330
1DE54
100
AcDbEntity
  8
寸法
 62
     0
 48
50.0
370
    -2
100
AcDbLine
 10
8913.599999999989
 20
7682.375394111462
 30
0.0
 11
8913.599999999989
 21
8252.688586008066
 31
0.0
  0
LINE
  5
1F6C0
330
1DE54
100
AcDbEntity
  8
寸法
 62
     0
 48
50.0
370
    -2
100
AcDbLine
 10
8223.600000000001
 20
6882.375394111462
 30
0.0
 11
8223.600000000001
 21
8252.688586008066
 31
0.0
  0
LINE
  5
1F6C1
330
1DE54
100
AcDbEntity
  8
寸法
 62
     0
 48
50.0
370
    -2
100
AcDbLine
 10
8913.599999999989
 20
8192.688586008065
 30
0.0
 11
8223.600000000001
 21
8192.688586008065
 31
0.0
  0
INSERT
  5
1F6C2
330
1DE54
100
AcDbEntity
  8
寸法
 62
     0
 48
50.0
370
    -2
100
AcDbBlockReference
  2
_DOTSMALL
 10
8913.599999999989
 20
8192.688586008065
 30
0.0
 41
100.0
 42
100.0
 43
100.0
  0
INSERT
  5
1F6C3
330
1DE54
100
AcDbEntity
  8
寸法
 62
     0
 48
50.0
370
    -2
100
AcDbBlockReference
  2
_DOTSMALL
 10
8223.600000000001
 20
8192.688586008065
 30
0.0
 41
100.0
 42
100.0
 43
100.0
 50
180.0
  0
MTEXT
  5
1F6C4
330
1DE54
100
AcDbEntity
  8
寸法
 62
     7
 48
50.0
100
AcDbMText
 10
8638.127837399094
 20
8292.688586008067
 30
0.0
 40
120.0
 41
0.0
 71
     5
 72
     1
  1
\A1;690
  7
STYLE1
 73
     1
 44
1.0
1001
ACAD
1000
MTEXTBEGIN
1070
    73
1070
     1
1070
    44
1040
1.0
1070
    74
1070
     0
1000
MTEXTEND
  0
POINT
  5
1F6C5
330
1DE54
100
AcDbEntity
  8
DEFPOINTS
 62
     0
 48
50.0
100
AcDbPoint
 10
8913.599999999989
 20
7662.375394111461
 30
0.0
  0
POINT
  5
1F6C6
330
1DE54
100
AcDbEntity
  8
DEFPOINTS
 62
     0
 48
50.0
100
AcDbPoint
 10
8223.600000000001
 20
6862.375394111461
 30
0.0
  0
POINT
  5
1F6C7
330
1DE54
100
AcDbEntity
  8
DEFPOINTS
 62
     0
 48
50.0
100
AcDbPoint
 10
8223.600000000001
 20
8192.688586008065
 30
0.0
  0
ENDBLK
  5
1DE5F
330
1DE54
100
AcDbEntity
  8
0
 48
50.0
100
AcDbBlockEnd
  0
BLOCK
  5
1E96F
330
1E963
100
AcDbEntity
  8
0
 48
50.0
100
AcDbBlockBegin
  2
*D35
 70
     1
 10
0.0
 20
0.0
 30
0.0
  3
*D35
  1

  0
LINE
  5
20055
330
1E963
100
AcDbEntity
  8
寸法
 62
     0
 48
50.0
370
    -2
100
AcDbLine
 10
7513.600000000001
 20
5787.375394111449
 30
0.0
 11
7162.886924528547
 21
5787.375394111449
 31
0.0
  0
LINE
  5
20056
330
1E963
100
AcDbEntity
  8
寸法
 62
     0
 48
50.0
370
    -2
100
AcDbLine
 10
7513.600000000001
 20
5862.375394111447
 30
0.0
 11
7162.886924528547
 21
5862.375394111447
 31
0.0
  0
LINE
  5
20057
330
1E963
100
AcDbEntity
  8
寸法
 62
     0
 48
50.0
370
    -2
100
AcDbLine
 10
7222.886924528546
 20
5862.375394111447
 30
0.0
 11
7222.886924528546
 21
5962.375394111447
 31
0.0
  0
LINE
  5
20058
330
1E963
100
AcDbEntity
  8
寸法
 62
     0
 48
50.0
370
    -2
100
AcDbLine
 10
7222.886924528546
 20
5787.375394111449
 30
0.0
 11
7222.886924528546
 21
4920.404831362969
 31
0.0
  0
LINE
  5
20059
330
1E963
100
AcDbEntity
  8
寸法
 62
     0
 48
50.0
370
    -2
100
AcDbLine
 10
7222.886924528546
 20
5862.375394111447
 30
0.0
 11
7222.886924528546
 21
5787.375394111449
 31
0.0
  0
INSERT
  5
2005A
330
1E963
100
AcDbEntity
  8
寸法
 62
     0
 48
50.0
370
    -2
100
AcDbBlockReference
  2
_DOTSMALL
 10
7222.886924528546
 20
5862.375394111447
 30
0.0
 41
100.0
 42
100.0
 43
100.0
 50
270.0
  0
INSERT
  5
2005B
330
1E963
100
AcDbEntity
  8
寸法
 62
     0
 48
50.0
370
    -2
100
AcDbBlockReference
  2
_DOTSMALL
 10
7222.886924528546
 20
5787.375394111449
 30
0.0
 41
100.0
 42
100.0
 43
100.0
 50
90.0
  0
MTEXT
  5
2005C
330
1E963
100
AcDbEntity
  8
寸法
 62
     7
 48
50.0
100
AcDbMText
 10
7122.886924528547
 20
5253.890112737209
 30
0.0
 40
120.0
 41
0.0
 71
     5
 72
     1
  1
\A1;扉の出75
  7
STYLE1
 11
0.0000000000000001
 21
1.0
 31
0.0
 73
     1
 44
1.0
1001
ACAD
1000
MTEXTBEGIN
1070
    73
1070
     1
1070
    44
1040
1.0
1070
    74
1070
     0
1000
MTEXTEND
  0
POINT
  5
2005D
330
1E963
100
AcDbEntity
  8
DEFPOINTS
 62
     0
 48
50.0
100
AcDbPoint
 10
7533.600000000001
 20
5787.375394111449
 30
0.0
  0
POINT
  5
2005E
330
1E963
100
AcDbEntity
  8
DEFPOINTS
 62
     0
 48
50.0
100
AcDbPoint
 10
7533.600000000001
 20
5862.375394111447
 30
0.0
  0
POINT
  5
2005F
330
1E963
100
AcDbEntity
  8
DEFPOINTS
 62
     0
 48
50.0
100
AcDbPoint
 10
7222.886924528546
 20
5862.375394111447
 30
0.0
  0
ENDBLK
  5
1E970
330
1E963
100
AcDbEntity
  8
0
 48
50.0
100
AcDbBlockEnd
  0
BLOCK
  5
1EEAB
330
1EE9F
100
AcDbEntity
  8
0
 48
50.0
100
AcDbBlockBegin
  2
*D36
 70
     1
 10
0.0
 20
0.0
 30
0.0
  3
*D36
  1

  0
LINE
  5
1F4E9
330
1EE9F
100
AcDbEntity
  8
寸法
 62
     0
 48
50.0
370
    -2
100
AcDbLine
 10
6767.840373457919
 20
7717.375394111451
 30
0.0
 11
6515.379677941081
 21
7717.375394111451
 31
0.0
  0
LINE
  5
1F4EA
330
1EE9F
100
AcDbEntity
  8
寸法
 62
     0
 48
50.0
370
    -2
100
AcDbLine
 10
6767.840373457918
 20
7662.375394111463
 30
0.0
 11
6515.379677941081
 21
7662.375394111463
 31
0.0
  0
LINE
  5
1F4EB
330
1EE9F
100
AcDbEntity
  8
寸法
 62
     0
 48
50.0
370
    -2
100
AcDbLine
 10
6575.37967794108
 20
7717.375394111451
 30
0.0
 11
6575.37967794108
 21
7817.375394111451
 31
0.0
  0
LINE
  5
1F4EC
330
1EE9F
100
AcDbEntity
  8
寸法
 62
     0
 48
50.0
370
    -2
100
AcDbLine
 10
6575.37967794108
 20
7662.375394111463
 30
0.0
 11
6575.37967794108
 21
7562.375394111462
 31
0.0
  0
LINE
  5
1F4ED
330
1EE9F
100
AcDbEntity
  8
寸法
 62
     0
 48
50.0
370
    -2
100
AcDbLine
 10
6575.37967794108
 20
7717.375394111451
 30
0.0
 11
6575.37967794108
 21
7662.375394111463
 31
0.0
  0
INSERT
  5
1F4EE
330
1EE9F
100
AcDbEntity
  8
寸法
 62
     0
 48
50.0
370
    -2
100
AcDbBlockReference
  2
_DOTSMALL
 10
6575.37967794108
 20
7717.375394111451
 30
0.0
 41
100.0
 42
100.0
 43
100.0
 50
270.0
  0
INSERT
  5
1F4EF
330
1EE9F
100
AcDbEntity
  8
寸法
 62
     0
 48
50.0
370
    -2
100
AcDbBlockReference
  2
_DOTSMALL
 10
6575.37967794108
 20
7662.375394111463
 30
0.0
 41
100.0
 42
100.0
 43
100.0
 50
90.0
  0
MTEXT
  5
1F4F0
330
1EE9F
100
AcDbEntity
  8
寸法
 62
     7
 48
50.0
100
AcDbMText
 10
6475.379677941079
 20
7689.875394111459
 30
0.0
 40
120.0
 41
0.0
 71
     5
 72
     1
  1
\A1;b
  7
STYLE1
 11
0.0000000000000001
 21
1.0
 31
0.0
 73
     1
 44
1.0
1001
ACAD
1000
MTEXTBEGIN
1070
    73
1070
     1
1070
    44
1040
1.0
1070
    74
1070
     0
1000
MTEXTEND
  0
POINT
  5
1F4F1
330
1EE9F
100
AcDbEntity
  8
DEFPOINTS
 62
     0
 48
50.0
100
AcDbPoint
 10
6787.840373457919
 20
7717.375394111451
 30
0.0
  0
POINT
  5
1F4F2
330
1EE9F
100
AcDbEntity
  8
DEFPOINTS
 62
     0
 48
50.0
100
AcDbPoint
 10
6787.840373457918
 20
7662.375394111463
 30
0.0
  0
POINT
  5
1F4F3
330
1EE9F
100
AcDbEntity
  8
DEFPOINTS
 62
     0
 48
50.0
100
AcDbPoint
 10
6575.37967794108
 20
7662.375394111463
 30
0.0
  0
ENDBLK
  5
1EEAC
330
1EE9F
100
AcDbEntity
  8
0
 48
50.0
100
AcDbBlockEnd
  0
BLOCK
  5
1EED3
330
1EEC7
100
AcDbEntity
  8
0
 48
50.0
100
AcDbBlockBegin
  2
*D37
 70
     1
 10
0.0
 20
0.0
 30
0.0
  3
*D37
  1

  0
LINE
  5
1F5FD
330
1EEC7
100
AcDbEntity
  8
寸法
 62
     0
 48
50.0
370
    -2
100
AcDbLine
 10
7488.600000000002
 20
8453.017164835816
 30
0.0
 11
7488.600000000002
 21
8738.509966973783
 31
0.0
  0
LINE
  5
1F5FE
330
1EEC7
100
AcDbEntity
  8
寸法
 62
     0
 48
50.0
370
    -2
100
AcDbLine
 10
7533.599999999999
 20
7682.375394111462
 30
0.0
 11
7533.599999999999
 21
8738.509966973783
 31
0.0
  0
LINE
  5
1F5FF
330
1EEC7
100
AcDbEntity
  8
寸法
 62
     0
 48
50.0
370
    -2
100
AcDbLine
 10
7533.599999999999
 20
8678.509966973782
 30
0.0
 11
7633.6
 21
8678.509966973782
 31
0.0
  0
LINE
  5
1F600
330
1EEC7
100
AcDbEntity
  8
寸法
 62
     0
 48
50.0
370
    -2
100
AcDbLine
 10
7488.600000000002
 20
8678.509966973782
 30
0.0
 11
7151.250757595083
 21
8678.509966973782
 31
0.0
  0
LINE
  5
1F601
330
1EEC7
100
AcDbEntity
  8
寸法
 62
     0
 48
50.0
370
    -2
100
AcDbLine
 10
7533.599999999999
 20
8678.509966973782
 30
0.0
 11
7488.600000000002
 21
8678.509966973782
 31
0.0
  0
INSERT
  5
1F602
330
1EEC7
100
AcDbEntity
  8
寸法
 62
     0
 48
50.0
370
    -2
100
AcDbBlockReference
  2
_DOTSMALL
 10
7533.599999999999
 20
8678.509966973782
 30
0.0
 41
100.0
 42
100.0
 43
100.0
 50
180.0
  0
INSERT
  5
1F603
330
1EEC7
100
AcDbEntity
  8
寸法
 62
     0
 48
50.0
370
    -2
100
AcDbBlockReference
  2
_DOTSMALL
 10
7488.600000000002
 20
8678.509966973782
 30
0.0
 41
100.0
 42
100.0
 43
100.0
  0
MTEXT
  5
1F604
330
1EEC7
100
AcDbEntity
  8
寸法
 62
     7
 48
50.0
100
AcDbMText
 10
7217.425378797542
 20
8778.509966973784
 30
0.0
 40
120.0
 41
0.0
 71
     5
 72
     1
  1
\A1;a
  7
STYLE1
 73
     1
 44
1.0
1001
ACAD
1000
MTEXTBEGIN
1070
    73
1070
     1
1070
    44
1040
1.0
1070
    74
1070
     0
1000
MTEXTEND
  0
POINT
  5
1F605
330
1EEC7
100
AcDbEntity
  8
DEFPOINTS
 62
     0
 48
50.0
100
AcDbPoint
 10
7488.600000000002
 20
8433.017164835815
 30
0.0
  0
POINT
  5
1F606
330
1EEC7
100
AcDbEntity
  8
DEFPOINTS
 62
     0
 48
50.0
100
AcDbPoint
 10
7533.599999999999
 20
7662.375394111461
 30
0.0
  0
POINT
  5
1F607
330
1EEC7
100
AcDbEntity
  8
DEFPOINTS
 62
     0
 48
50.0
100
AcDbPoint
 10
7533.599999999999
 20
8678.509966973782
 30
0.0
  0
ENDBLK
  5
1EED4
330
1EEC7
100
AcDbEntity
  8
0
 48
50.0
100
AcDbBlockEnd
  0
BLOCK
  5
1EEEE
330
1EEE2
100
AcDbEntity
  8
0
 48
50.0
100
AcDbBlockBegin
  2
*D38
 70
     1
 10
0.0
 20
0.0
 30
0.0
  3
*D38
  1

  0
LINE
  5
1F4FF
330
1EEE2
100
AcDbEntity
  8
寸法
 62
     0
 48
50.0
370
    -2
100
AcDbLine
 10
6767.840373457918
 20
5862.375394111463
 30
0.0
 11
6515.379677941081
 21
5862.375394111463
 31
0.0
  0
LINE
  5
1F500
330
1EEE2
100
AcDbEntity
  8
寸法
 62
     0
 48
50.0
370
    -2
100
AcDbLine
 10
6767.840373457919
 20
5787.375394111461
 30
0.0
 11
6515.379677941081
 21
5787.375394111461
 31
0.0
  0
LINE
  5
1F501
330
1EEE2
100
AcDbEntity
  8
寸法
 62
     0
 48
50.0
370
    -2
100
AcDbLine
 10
6575.379677941082
 20
5862.375394111463
 30
0.0
 11
6575.379677941082
 21
5962.375394111463
 31
0.0
  0
LINE
  5
1F502
330
1EEE2
100
AcDbEntity
  8
寸法
 62
     0
 48
50.0
370
    -2
100
AcDbLine
 10
6575.379677941082
 20
5787.375394111461
 30
0.0
 11
6575.379677941082
 21
5687.375394111461
 31
0.0
  0
LINE
  5
1F503
330
1EEE2
100
AcDbEntity
  8
寸法
 62
     0
 48
50.0
370
    -2
100
AcDbLine
 10
6575.379677941082
 20
5862.375394111463
 30
0.0
 11
6575.379677941082
 21
5787.375394111461
 31
0.0
  0
INSERT
  5
1F504
330
1EEE2
100
AcDbEntity
  8
寸法
 62
     0
 48
50.0
370
    -2
100
AcDbBlockReference
  2
_DOTSMALL
 10
6575.379677941082
 20
5862.375394111463
 30
0.0
 41
100.0
 42
100.0
 43
100.0
 50
270.0
  0
INSERT
  5
1F505
330
1EEE2
100
AcDbEntity
  8
寸法
 62
     0
 48
50.0
370
    -2
100
AcDbBlockReference
  2
_DOTSMALL
 10
6575.379677941082
 20
5787.375394111461
 30
0.0
 41
100.0
 42
100.0
 43
100.0
 50
90.0
  0
MTEXT
  5
1F506
330
1EEE2
100
AcDbEntity
  8
寸法
 62
     7
 48
50.0
100
AcDbMText
 10
6475.379677941081
 20
5824.875394111463
 30
0.0
 40
120.0
 41
0.0
 71
     5
 72
     1
  1
\A1;c
  7
STYLE1
 11
0.0000000000000001
 21
1.0
 31
0.0
 73
     1
 44
1.0
1001
ACAD
1000
MTEXTBEGIN
1070
    73
1070
     1
1070
    44
1040
1.0
1070
    74
1070
     0
1000
MTEXTEND
  0
POINT
  5
1F507
330
1EEE2
100
AcDbEntity
  8
DEFPOINTS
 62
     0
 48
50.0
100
AcDbPoint
 10
6787.840373457918
 20
5862.375394111463
 30
0.0
  0
POINT
  5
1F508
330
1EEE2
100
AcDbEntity
  8
DEFPOINTS
 62
     0
 48
50.0
100
AcDbPoint
 10
6787.840373457919
 20
5787.375394111461
 30
0.0
  0
POINT
  5
1F509
330
1EEE2
100
AcDbEntity
  8
DEFPOINTS
 62
     0
 48
50.0
100
AcDbPoint
 10
6575.379677941082
 20
5787.375394111461
 30
0.0
  0
ENDBLK
  5
1EEEF
330
1EEE2
100
AcDbEntity
  8
0
 48
50.0
100
AcDbBlockEnd
  0
BLOCK
  5
1EF78
330
1EF6C
100
AcDbEntity
  8
0
 48
50.0
100
AcDbBlockBegin
  2
*D39
 70
     1
 10
0.0
 20
0.0
 30
0.0
  3
*D39
  1

  0
LINE
  5
1F608
330
1EF6C
100
AcDbEntity
  8
寸法
 62
     0
 48
50.0
370
    -2
100
AcDbLine
 10
8913.599999999989
 20
7682.375394111462
 30
0.0
 11
8913.599999999989
 21
8738.509966973783
 31
0.0
  0
LINE
  5
1F609
330
1EF6C
100
AcDbEntity
  8
寸法
 62
     0
 48
50.0
370
    -2
100
AcDbLine
 10
8958.6
 20
8453.017164835816
 30
0.0
 11
8958.6
 21
8738.509966973783
 31
0.0
  0
LINE
  5
1F60A
330
1EF6C
100
AcDbEntity
  8
寸法
 62
     0
 48
50.0
370
    -2
100
AcDbLine
 10
8913.599999999989
 20
8678.509966973782
 30
0.0
 11
8813.59999999999
 21
8678.509966973782
 31
0.0
  0
LINE
  5
1F60B
330
1EF6C
100
AcDbEntity
  8
寸法
 62
     0
 48
50.0
370
    -2
100
AcDbLine
 10
8958.6
 20
8678.509966973782
 30
0.0
 11
9295.949242404919
 21
8678.509966973782
 31
0.0
  0
LINE
  5
1F60C
330
1EF6C
100
AcDbEntity
  8
寸法
 62
     0
 48
50.0
370
    -2
100
AcDbLine
 10
8913.599999999989
 20
8678.509966973782
 30
0.0
 11
8958.6
 21
8678.509966973782
 31
0.0
  0
INSERT
  5
1F60D
330
1EF6C
100
AcDbEntity
  8
寸法
 62
     0
 48
50.0
370
    -2
100
AcDbBlockReference
  2
_DOTSMALL
 10
8913.599999999989
 20
8678.509966973782
 30
0.0
 41
100.0
 42
100.0
 43
100.0
  0
INSERT
  5
1F60E
330
1EF6C
100
AcDbEntity
  8
寸法
 62
     0
 48
50.0
370
    -2
100
AcDbBlockReference
  2
_DOTSMALL
 10
8958.6
 20
8678.509966973782
 30
0.0
 41
100.0
 42
100.0
 43
100.0
 50
180.0
  0
MTEXT
  5
1F60F
330
1EF6C
100
AcDbEntity
  8
寸法
 62
     7
 48
50.0
100
AcDbMText
 10
9229.774621202459
 20
8778.509966973784
 30
0.0
 40
120.0
 41
0.0
 71
     5
 72
     1
  1
\A1;a
  7
STYLE1
 73
     1
 44
1.0
1001
ACAD
1000
MTEXTBEGIN
1070
    73
1070
     1
1070
    44
1040
1.0
1070
    74
1070
     0
1000
MTEXTEND
  0
POINT
  5
1F610
330
1EF6C
100
AcDbEntity
  8
DEFPOINTS
 62
     0
 48
50.0
100
AcDbPoint
 10
8913.599999999989
 20
7662.375394111461
 30
0.0
  0
POINT
  5
1F611
330
1EF6C
100
AcDbEntity
  8
DEFPOINTS
 62
     0
 48
50.0
100
AcDbPoint
 10
8958.6
 20
8433.017164835815
 30
0.0
  0
POINT
  5
1F612
330
1EF6C
100
AcDbEntity
  8
DEFPOINTS
 62
     0
 48
50.0
100
AcDbPoint
 10
8958.6
 20
8678.509966973782
 30
0.0
  0
ENDBLK
  5
1EF79
330
1EF6C
100
AcDbEntity
  8
0
 48
50.0
100
AcDbBlockEnd
  0
BLOCK
  5
1FC0B
330
1FC01
100
AcDbEntity
  8
0
 48
50.0
100
AcDbBlockBegin
  2
*D40
 70
     1
 10
0.0
 20
0.0
 30
0.0
  3
*D40
  1

  0
LINE
  5
1FC16
330
1FC01
100
AcDbEntity
  8
寸法
 62
     0
 48
50.0
370
    -2
100
AcDbLine
 10
8913.599999999984
 20
5767.375394111464
 30
0.0
 11
8913.599999999984
 21
5012.511090687337
 31
0.0
  0
LINE
  5
1FC17
330
1FC01
100
AcDbEntity
  8
寸法
 62
     0
 48
50.0
370
    -2
100
AcDbLine
 10
7533.600000000001
 20
5767.375394111447
 30
0.0
 11
7533.600000000001
 21
5012.511090687337
 31
0.0
  0
LINE
  5
1FC18
330
1FC01
100
AcDbEntity
  8
寸法
 62
     0
 48
50.0
370
    -2
100
AcDbLine
 10
8913.599999999984
 20
5072.511090687337
 30
0.0
 11
7533.600000000001
 21
5072.511090687337
 31
0.0
  0
INSERT
  5
1FC19
330
1FC01
100
AcDbEntity
  8
寸法
 62
     0
 48
50.0
370
    -2
100
AcDbBlockReference
  2
_DOTSMALL
 10
8913.599999999984
 20
5072.511090687337
 30
0.0
 41
100.0
 42
100.0
 43
100.0
  0
INSERT
  5
1FC1A
330
1FC01
100
AcDbEntity
  8
寸法
 62
     0
 48
50.0
370
    -2
100
AcDbBlockReference
  2
_DOTSMALL
 10
7533.600000000001
 20
5072.511090687337
 30
0.0
 41
100.0
 42
100.0
 43
100.0
 50
180.0
  0
MTEXT
  5
1FC1B
330
1FC01
100
AcDbEntity
  8
寸法
 62
     7
 48
50.0
100
AcDbMText
 10
8223.599999999994
 20
5172.511090687336
 30
0.0
 40
120.0
 41
0.0
 71
     5
 72
     1
  1
\A1;扉の幅 1380
  7
STYLE1
 73
     1
 44
1.0
1001
ACAD
1000
MTEXTBEGIN
1070
    73
1070
     1
1070
    44
1040
1.0
1070
    74
1070
     0
1000
MTEXTEND
  0
POINT
  5
1FC1C
330
1FC01
100
AcDbEntity
  8
DEFPOINTS
 62
     0
 48
50.0
100
AcDbPoint
 10
8913.599999999984
 20
5787.375394111464
 30
0.0
  0
POINT
  5
1FC1D
330
1FC01
100
AcDbEntity
  8
DEFPOINTS
 62
     0
 48
50.0
100
AcDbPoint
 10
7533.600000000001
 20
5787.375394111447
 30
0.0
  0
POINT
  5
1FC1E
330
1FC01
100
AcDbEntity
  8
DEFPOINTS
 62
     0
 48
50.0
100
AcDbPoint
 10
7533.600000000001
 20
5072.511090687337
 30
0.0
  0
ENDBLK
  5
1FC0C
330
1FC01
100
AcDbEntity
  8
0
 48
50.0
100
AcDbBlockEnd
  0
BLOCK
  5
200D6
330
200D5
100
AcDbEntity
  8
0
 48
50.0
100
AcDbBlockBegin
  2
*D41
 70
     1
 10
0.0
 20
0.0
 30
0.0
  3
*D41
  1

  0
LINE
  5
200D7
330
200D5
100
AcDbEntity
  8
寸法
 62
     0
 48
50.0
370
    -2
100
AcDbLine
 10
7375.150258706793
 20
2036.867516639855
 30
0.0
 11
7917.018858475636
 21
2036.867516639855
 31
0.0
  0
LINE
  5
200D8
330
200D5
100
AcDbEntity
  8
寸法
 62
     0
 48
50.0
370
    -2
100
AcDbLine
 10
7375.150258706793
 20
1712.867516639854
 30
0.0
 11
7917.018858475636
 21
1712.867516639854
 31
0.0
  0
LINE
  5
200D9
330
200D5
100
AcDbEntity
  8
寸法
 62
     0
 48
50.0
370
    -2
100
AcDbLine
 10
7857.018858475637
 20
2036.867516639855
 30
0.0
 11
7857.018858475637
 21
1712.867516639854
 31
0.0
  0
INSERT
  5
200DA
330
200D5
100
AcDbEntity
  8
寸法
 62
     0
 48
50.0
370
    -2
100
AcDbBlockReference
  2
_DOTSMALL
 10
7857.018858475637
 20
2036.867516639855
 30
0.0
 41
100.0
 42
100.0
 43
100.0
 50
90.0
  0
INSERT
  5
200DB
330
200D5
100
AcDbEntity
  8
寸法
 62
     0
 48
50.0
370
    -2
100
AcDbBlockReference
  2
_DOTSMALL
 10
7857.018858475637
 20
1712.867516639854
 30
0.0
 41
100.0
 42
100.0
 43
100.0
 50
270.0
  0
MTEXT
  5
200DC
330
200D5
100
AcDbEntity
  8
寸法
 62
     7
 48
50.0
100
AcDbMText
 10
7757.018858475636
 20
1874.867516639856
 30
0.0
 40
120.0
 41
0.0
 71
     5
 72
     1
  1
\A1;180
  7
STYLE1
 11
0.0000000000000001
 21
1.0
 31
0.0
 73
     1
 44
1.0
1001
ACAD
1000
MTEXTBEGIN
1070
    73
1070
     1
1070
    44
1040
1.0
1070
    74
1070
     0
1000
MTEXTEND
  0
POINT
  5
200DD
330
200D5
100
AcDbEntity
  8
DEFPOINTS
 62
     0
 48
50.0
100
AcDbPoint
 10
7355.150258706792
 20
2036.867516639855
 30
0.0
  0
POINT
  5
200DE
330
200D5
100
AcDbEntity
  8
DEFPOINTS
 62
     0
 48
50.0
100
AcDbPoint
 10
7355.150258706792
 20
1712.867516639854
 30
0.0
  0
POINT
  5
200DF
330
200D5
100
AcDbEntity
  8
DEFPOINTS
 62
     0
 48
50.0
100
AcDbPoint
 10
7857.018858475637
 20
1712.867516639854
 30
0.0
  0
ENDBLK
  5
200E0
330
200D5
100
AcDbEntity
  8
0
 48
50.0
100
AcDbBlockEnd
  0
BLOCK
  5
200E2
330
200E1
100
AcDbEntity
  8
0
 48
50.0
100
AcDbBlockBegin
  2
*D42
 70
     1
 10
0.0
 20
0.0
 30
0.0
  3
*D42
  1

  0
LINE
  5
200E3
330
200E1
100
AcDbEntity
  8
寸法
 62
     0
 48
50.0
370
    -2
100
AcDbLine
 10
7187.950258706795
 20
2089.627516639856
 30
0.0
 11
7917.018858475637
 21
2089.627516639856
 31
0.0
  0
LINE
  5
200E4
330
200E1
100
AcDbEntity
  8
寸法
 62
     0
 48
50.0
370
    -2
100
AcDbLine
 10
7375.150258706793
 20
2036.867516639855
 30
0.0
 11
7917.018858475636
 21
2036.867516639855
 31
0.0
  0
LINE
  5
200E5
330
200E1
100
AcDbEntity
  8
寸法
 62
     0
 48
50.0
370
    -2
100
AcDbLine
 10
7857.018858475637
 20
2089.627516639856
 30
0.0
 11
7857.018858475637
 21
2189.627516639856
 31
0.0
  0
LINE
  5
200E6
330
200E1
100
AcDbEntity
  8
寸法
 62
     0
 48
50.0
370
    -2
100
AcDbLine
 10
7857.018858475637
 20
2036.867516639855
 30
0.0
 11
7857.018858475637
 21
1936.867516639855
 31
0.0
  0
LINE
  5
200E7
330
200E1
100
AcDbEntity
  8
寸法
 62
     0
 48
50.0
370
    -2
100
AcDbLine
 10
7857.018858475637
 20
2063.247516639855
 30
0.0
 11
8133.073524594664
 21
2051.743559035642
 31
0.0
  0
LINE
  5
200E8
330
200E1
100
AcDbEntity
  8
寸法
 62
     0
 48
50.0
370
    -2
100
AcDbLine
 10
8133.073524594664
 20
2051.743559035642
 30
0.0
 11
8133.073524594664
 21
1519.725752192677
 31
0.0
  0
MTEXT
  5
200E9
330
200E1
100
AcDbEntity
  8
寸法
 62
     7
 48
50.0
100
AcDbMText
 10
8033.061713571042
 20
1785.734655614161
 30
0.0
 40
120.0
 41
0.0
 71
     5
 72
     1
  1
\A1;20～25
  7
STYLE1
 11
0.0000000000000001
 21
1.0
 31
0.0
 73
     1
 44
1.0
1001
ACAD
1000
MTEXTBEGIN
1070
    73
1070
     1
1070
    44
1040
1.0
1070
    74
1070
     0
1000
MTEXTEND
  0
LINE
  5
200EA
330
200E1
100
AcDbEntity
  8
寸法
 62
     0
 48
50.0
370
    -2
100
AcDbLine
 10
7857.018858475637
 20
2089.627516639856
 30
0.0
 11
7857.018858475637
 21
2036.867516639855
 31
0.0
  0
LINE
  5
200EB
330
200E1
100
AcDbEntity
  8
寸法
 62
     0
 48
50.0
370
    -2
100
AcDbLine
 10
7857.018858475637
 20
2089.627516639856
 30
0.0
 11
7857.018858475637
 21
2036.867516639855
 31
0.0
  0
INSERT
  5
200EC
330
200E1
100
AcDbEntity
  8
寸法
 62
     0
 48
50.0
370
    -2
100
AcDbBlockReference
  2
_DOTSMALL
 10
7857.018858475637
 20
2089.627516639856
 30
0.0
 41
100.0
 42
100.0
 43
100.0
 50
270.0
  0
INSERT
  5
200ED
330
200E1
100
AcDbEntity
  8
寸法
 62
     0
 48
50.0
370
    -2
100
AcDbBlockReference
  2
_DOTSMALL
 10
7857.018858475637
 20
2036.867516639855
 30
0.0
 41
100.0
 42
100.0
 43
100.0
 50
90.0
  0
POINT
  5
200EE
330
200E1
100
AcDbEntity
  8
DEFPOINTS
 62
     0
 48
50.0
100
AcDbPoint
 10
7167.950258706794
 20
2089.627516639856
 30
0.0
  0
POINT
  5
200EF
330
200E1
100
AcDbEntity
  8
DEFPOINTS
 62
     0
 48
50.0
100
AcDbPoint
 10
7355.150258706792
 20
2036.867516639855
 30
0.0
  0
POINT
  5
200F0
330
200E1
100
AcDbEntity
  8
DEFPOINTS
 62
     0
 48
50.0
100
AcDbPoint
 10
7857.018858475637
 20
2036.867516639855
 30
0.0
  0
ENDBLK
  5
200F1
330
200E1
100
AcDbEntity
  8
0
 48
50.0
100
AcDbBlockEnd
  0
BLOCK
  5
200F3
330
200F2
100
AcDbEntity
  8
0
 48
50.0
100
AcDbBlockBegin
  2
*D43
 70
     1
 10
0.0
 20
0.0
 30
0.0
  3
*D43
  1

  0
LINE
  5
200F4
330
200F2
100
AcDbEntity
  8
寸法
 62
     0
 48
50.0
370
    -2
100
AcDbLine
 10
5093.110945529599
 20
1492.867516639855
 30
0.0
 11
4910.69063179714
 21
1492.867516639855
 31
0.0
  0
LINE
  5
200F5
330
200F2
100
AcDbEntity
  8
寸法
 62
     0
 48
50.0
370
    -2
100
AcDbLine
 10
5013.110945529603
 20
1252.867516639855
 30
0.0
 11
4910.69063179714
 21
1252.867516639855
 31
0.0
  0
LINE
  5
200F6
330
200F2
100
AcDbEntity
  8
寸法
 62
     0
 48
50.0
370
    -2
100
AcDbLine
 10
4970.69063179714
 20
1492.867516639855
 30
0.0
 11
4970.69063179714
 21
1252.867516639855
 31
0.0
  0
MTEXT
  5
200F7
330
200F2
100
AcDbEntity
  8
寸法
 62
     7
 48
50.0
100
AcDbMText
 10
4870.69063179714
 20
1372.867516639855
 30
0.0
 40
120.0
 41
0.0
 71
     5
 72
     1
  1
\A1;150
  7
STYLE1
 11
0.0000000000000001
 21
1.0
 31
0.0
 73
     1
 44
1.0
1001
ACAD
1000
MTEXTBEGIN
1070
    73
1070
     1
1070
    44
1040
1.0
1070
    74
1070
     0
1000
MTEXTEND
  0
INSERT
  5
200F8
330
200F2
100
AcDbEntity
  8
寸法
 62
     0
 48
50.0
370
    -2
100
AcDbBlockReference
  2
_DOTSMALL
 10
4970.69063179714
 20
1492.867516639855
 30
0.0
 41
100.0
 42
100.0
 43
100.0
 50
90.0
  0
INSERT
  5
200F9
330
200F2
100
AcDbEntity
  8
寸法
 62
     0
 48
50.0
370
    -2
100
AcDbBlockReference
  2
_DOTSMALL
 10
4970.69063179714
 20
1252.867516639855
 30
0.0
 41
100.0
 42
100.0
 43
100.0
 50
270.0
  0
POINT
  5
200FA
330
200F2
100
AcDbEntity
  8
DEFPOINTS
 62
     0
 48
50.0
100
AcDbPoint
 10
5113.110945529599
 20
1492.867516639855
 30
0.0
  0
POINT
  5
200FB
330
200F2
100
AcDbEntity
  8
DEFPOINTS
 62
     0
 48
50.0
100
AcDbPoint
 10
5033.110945529603
 20
1252.867516639855
 30
0.0
  0
POINT
  5
200FC
330
200F2
100
AcDbEntity
  8
DEFPOINTS
 62
     0
 48
50.0
100
AcDbPoint
 10
4970.69063179714
 20
1252.867516639855
 30
0.0
  0
ENDBLK
  5
200FD
330
200F2
100
AcDbEntity
  8
0
 48
50.0
100
AcDbBlockEnd
  0
BLOCK
  5
200FF
330
200FE
100
AcDbEntity
  8
0
 48
50.0
100
AcDbBlockBegin
  2
*D44
 70
     1
 10
0.0
 20
0.0
 30
0.0
  3
*D44
  1

  0
LINE
  5
20100
330
200FE
100
AcDbEntity
  8
寸法
 62
     0
 48
50.0
370
    -2
100
AcDbLine
 10
5221.110945529598
 20
2036.867516639855
 30
0.0
 11
4446.073706967857
 21
2036.867516639856
 31
0.0
  0
LINE
  5
20101
330
200FE
100
AcDbEntity
  8
寸法
 62
     0
 48
50.0
370
    -2
100
AcDbLine
 10
5013.110945529603
 20
1252.867516639855
 30
0.0
 11
4446.073706967857
 21
1252.867516639855
 31
0.0
  0
LINE
  5
20102
330
200FE
100
AcDbEntity
  8
寸法
 62
     0
 48
50.0
370
    -2
100
AcDbLine
 10
4506.073706967858
 20
2036.867516639856
 30
0.0
 11
4506.073706967858
 21
1252.867516639855
 31
0.0
  0
MTEXT
  5
20103
330
200FE
100
AcDbEntity
  8
寸法
 62
     7
 48
50.0
100
AcDbMText
 10
4406.073706967858
 20
1624.407666295856
 30
0.0
 40
120.0
 41
0.0
 71
     5
 72
     1
  1
\A1;540
  7
STYLE1
 11
0.0000000000000001
 21
1.0
 31
0.0
 73
     1
 44
1.0
1001
ACAD
1000
MTEXTBEGIN
1070
    73
1070
     1
1070
    44
1040
1.0
1070
    74
1070
     0
1000
MTEXTEND
  0
INSERT
  5
20104
330
200FE
100
AcDbEntity
  8
寸法
 62
     0
 48
50.0
370
    -2
100
AcDbBlockReference
  2
_DOTSMALL
 10
4506.073706967858
 20
2036.867516639856
 30
0.0
 41
100.0
 42
100.0
 43
100.0
 50
90.0
  0
INSERT
  5
20105
330
200FE
100
AcDbEntity
  8
寸法
 62
     0
 48
50.0
370
    -2
100
AcDbBlockReference
  2
_DOTSMALL
 10
4506.073706967858
 20
1252.867516639855
 30
0.0
 41
100.0
 42
100.0
 43
100.0
 50
270.0
  0
POINT
  5
20106
330
200FE
100
AcDbEntity
  8
DEFPOINTS
 62
     0
 48
50.0
100
AcDbPoint
 10
5241.110945529599
 20
2036.867516639855
 30
0.0
  0
POINT
  5
20107
330
200FE
100
AcDbEntity
  8
DEFPOINTS
 62
     0
 48
50.0
100
AcDbPoint
 10
5033.110945529603
 20
1252.867516639855
 30
0.0
  0
POINT
  5
20108
330
200FE
100
AcDbEntity
  8
DEFPOINTS
 62
     0
 48
50.0
100
AcDbPoint
 10
4506.073706967858
 20
1252.867516639855
 30
0.0
  0
ENDBLK
  5
20109
330
200FE
100
AcDbEntity
  8
0
 48
50.0
100
AcDbBlockEnd
  0
BLOCK
  5
2010B
330
2010A
100
AcDbEntity
  8
0
 48
50.0
100
AcDbBlockBegin
  2
*D45
 70
     1
 10
0.0
 20
0.0
 30
0.0
  3
*D45
  1

  0
LINE
  5
2010C
330
2010A
100
AcDbEntity
  8
寸法
 62
     0
 48
50.0
370
    -2
100
AcDbLine
 10
5113.110945529599
 20
1104.867516639855
 30
0.0
 11
5113.110945529599
 21
654.4378786346952
 31
0.0
  0
LINE
  5
2010D
330
2010A
100
AcDbEntity
  8
寸法
 62
     0
 48
50.0
370
    -2
100
AcDbLine
 10
5561.110945529599
 20
1104.867516639855
 30
0.0
 11
5561.110945529599
 21
654.4378786346952
 31
0.0
  0
LINE
  5
2010E
330
2010A
100
AcDbEntity
  8
寸法
 62
     0
 48
50.0
370
    -2
100
AcDbLine
 10
5113.110945529599
 20
714.4378786346951
 30
0.0
 11
5561.110945529599
 21
714.4378786346951
 31
0.0
  0
MTEXT
  5
2010F
330
2010A
100
AcDbEntity
  8
寸法
 62
     7
 48
50.0
100
AcDbMText
 10
5317.014186851376
 20
814.4378786346951
 30
0.0
 40
120.0
 41
0.0
 71
     5
 72
     1
  1
\A1;300
  7
STYLE1
 73
     1
 44
1.0
1001
ACAD
1000
MTEXTBEGIN
1070
    73
1070
     1
1070
    44
1040
1.0
1070
    74
1070
     0
1000
MTEXTEND
  0
INSERT
  5
20110
330
2010A
100
AcDbEntity
  8
寸法
 62
     0
 48
50.0
370
    -2
100
AcDbBlockReference
  2
_DOTSMALL
 10
5113.110945529599
 20
714.4378786346951
 30
0.0
 41
100.0
 42
100.0
 43
100.0
 50
180.0
  0
INSERT
  5
20111
330
2010A
100
AcDbEntity
  8
寸法
 62
     0
 48
50.0
370
    -2
100
AcDbBlockReference
  2
_DOTSMALL
 10
5561.110945529599
 20
714.4378786346951
 30
0.0
 41
100.0
 42
100.0
 43
100.0
  0
POINT
  5
20112
330
2010A
100
AcDbEntity
  8
DEFPOINTS
 62
     0
 48
50.0
100
AcDbPoint
 10
5113.110945529599
 20
1124.867516639855
 30
0.0
  0
POINT
  5
20113
330
2010A
100
AcDbEntity
  8
DEFPOINTS
 62
     0
 48
50.0
100
AcDbPoint
 10
5561.110945529599
 20
1124.867516639855
 30
0.0
  0
POINT
  5
20114
330
2010A
100
AcDbEntity
  8
DEFPOINTS
 62
     0
 48
50.0
100
AcDbPoint
 10
5561.110945529599
 20
714.4378786346951
 30
0.0
  0
ENDBLK
  5
20115
330
2010A
100
AcDbEntity
  8
0
 48
50.0
100
AcDbBlockEnd
  0
BLOCK
  5
20117
330
20116
100
AcDbEntity
  8
0
 48
50.0
100
AcDbBlockBegin
  2
*D46
 70
     1
 10
0.0
 20
0.0
 30
0.0
  3
*D46
  1

  0
LINE
  5
20118
330
20116
100
AcDbEntity
  8
寸法
 62
     0
 48
50.0
370
    -2
100
AcDbLine
 10
5433.110945529599
 20
2056.867516639855
 30
0.0
 11
5433.110945529599
 21
2416.867516639856
 31
0.0
  0
LINE
  5
20119
330
20116
100
AcDbEntity
  8
寸法
 62
     0
 48
50.0
370
    -2
100
AcDbLine
 10
5241.110945529599
 20
2056.867516639855
 30
0.0
 11
5241.110945529599
 21
2416.867516639856
 31
0.0
  0
LINE
  5
2011A
330
20116
100
AcDbEntity
  8
寸法
 62
     0
 48
50.0
370
    -2
100
AcDbLine
 10
5433.110945529599
 20
2356.867516639855
 30
0.0
 11
5241.110945529599
 21
2356.867516639855
 31
0.0
  0
MTEXT
  5
2011B
330
20116
100
AcDbEntity
  8
寸法
 62
     7
 48
50.0
100
AcDbMText
 10
5348.337275874797
 20
2656.547135579858
 30
0.0
 40
120.0
 41
0.0
 71
     5
 72
     1
  1
\A1;120\P170
  7
STYLE1
 73
     1
 44
1.0
1001
ACAD
1000
MTEXTBEGIN
1070
    73
1070
     1
1070
    44
1040
1.0
1070
    74
1070
     0
1000
MTEXTEND
  0
INSERT
  5
2011C
330
20116
100
AcDbEntity
  8
寸法
 62
     0
 48
50.0
370
    -2
100
AcDbBlockReference
  2
_DOTSMALL
 10
5433.110945529599
 20
2356.867516639855
 30
0.0
 41
100.0
 42
100.0
 43
100.0
  0
INSERT
  5
2011D
330
20116
100
AcDbEntity
  8
寸法
 62
     0
 48
50.0
370
    -2
100
AcDbBlockReference
  2
_DOTSMALL
 10
5241.110945529599
 20
2356.867516639855
 30
0.0
 41
100.0
 42
100.0
 43
100.0
 50
180.0
  0
POINT
  5
2011E
330
20116
100
AcDbEntity
  8
DEFPOINTS
 62
     0
 48
50.0
100
AcDbPoint
 10
5433.110945529599
 20
2036.867516639855
 30
0.0
  0
POINT
  5
2011F
330
20116
100
AcDbEntity
  8
DEFPOINTS
 62
     0
 48
50.0
100
AcDbPoint
 10
5241.110945529599
 20
2036.867516639855
 30
0.0
  0
POINT
  5
20120
330
20116
100
AcDbEntity
  8
DEFPOINTS
 62
     0
 48
50.0
100
AcDbPoint
 10
5241.110945529599
 20
2356.867516639855
 30
0.0
  0
ENDBLK
  5
20121
330
20116
100
AcDbEntity
  8
0
 48
50.0
100
AcDbBlockEnd
  0
BLOCK
  5
20259
330
20122
100
AcDbEntity
  8
0
 48
50.0
100
AcDbBlockBegin
  2
A$C7C192688
 70
     0
 10
0.0
 20
0.0
 30
0.0
  3
A$C7C192688
  1

  0
MTEXT
  5
20123
102
{ACAD_REACTORS
330
20124
102
}
330
20122
100
AcDbEntity
  8
寸法
 62
     7
 48
50.0
100
AcDbMText
 10
5478.106287585055
 20
1900.481684509455
 30
0.0
 40
120.0
 41
0.8
 71
     4
 72
     1
  1
\A1;C.B
  7
STYLE1
 73
     1
 44
1.0
1001
ACAD
1000
MTEXTBEGIN
1070
    73
1070
     1
1070
    44
1040
1.0
1070
    74
1070
     0
1000
MTEXTEND
  0
LEADER
  5
20124
330
20122
100
AcDbEntity
  8
寸法
 48
50.0
100
AcDbLeader
  3
INABA_S50G
 73
     0
 74
     0
 75
     1
 40
120.0
 41
185.591883092037
 76
     3
 10
5294.96808095141
 20
1643.335363828317
 30
0.0
 10
5328.106287585055
 20
1815.481684509455
 30
0.0
 10
5453.106287585055
 20
1815.481684509455
 30
0.0
340
20123
1001
ACAD
1000
DSTYLE
1002
{
1070
    40
1040
1.0
1002
}
  0
LINE
  5
20125
330
20122
100
AcDbEntity
  8
細線
 48
50.0
100
AcDbLine
 10
5440.621494527818
 20
1287.636448174966
 30
0.0
 11
5434.190713909472
 21
1311.636448174966
 31
0.0
  0
LINE
  5
20126
330
20122
100
AcDbEntity
  8
細線
 48
50.0
100
AcDbLine
 10
5419.18555913333
 20
1207.636448174966
 30
0.0
 11
5425.616339751679
 21
1183.636448174966
 31
0.0
  0
LINE
  5
20127
330
20122
100
AcDbEntity
  8
部品1
100
AcDbLine
 10
5484.243669335487
 20
1403.335363828317
 30
0.0
 11
5484.243669335491
 21
1183.636448174967
 31
0.0
  0
LINE
  5
20128
330
20122
100
AcDbEntity
  8
細線
 48
50.0
100
AcDbLine
 10
5412.75477851498
 20
1183.636448174966
 30
0.0
 11
5447.052275146165
 21
1311.636448174964
 31
0.0
  0
LINE
  5
20129
330
20122
100
AcDbEntity
  8
細線
 48
50.0
100
AcDbLine
 10
5361.733449580573
 20
1287.636448174966
 30
0.0
 11
5355.302668962227
 21
1311.636448174966
 31
0.0
  0
LINE
  5
2012A
330
20122
100
AcDbEntity
  8
細線
100
AcDbLine
 10
5237.28006383482
 20
1311.636448174969
 30
0.0
 11
5328.978979488166
 21
1403.335363828317
 31
0.0
  0
LINE
  5
2012B
330
20122
100
AcDbEntity
  8
細線
 48
50.0
100
AcDbLine
 10
5282.845404633317
 20
1287.636448174967
 30
0.0
 11
5276.414624014972
 21
1311.636448174967
 31
0.0
  0
LINE
  5
2012C
330
20122
100
AcDbEntity
  8
細線
100
AcDbLine
 10
5271.221189331776
 20
1311.636448174969
 30
0.0
 11
5362.920104985118
 21
1403.335363828317
 31
0.0
  0
LINE
  5
2012D
330
20122
100
AcDbEntity
  8
細線
 48
50.0
100
AcDbLine
 10
5046.181269791585
 20
1287.636448174967
 30
0.0
 11
5039.750489173239
 21
1311.636448174967
 31
0.0
  0
LINE
  5
2012E
330
20122
100
AcDbEntity
  8
細線
 48
50.0
100
AcDbLine
 10
5125.069314738833
 20
1287.636448174967
 30
0.0
 11
5118.638534120488
 21
1311.636448174967
 31
0.0
  0
LINE
  5
2012F
330
20122
100
AcDbEntity
  8
細線
 48
50.0
100
AcDbLine
 10
5203.957359686079
 20
1287.636448174967
 30
0.0
 11
5197.526579067734
 21
1311.636448174967
 31
0.0
  0
LINE
  5
20130
330
20122
100
AcDbEntity
  8
細線
 48
50.0
100
AcDbLine
 10
5340.297514186084
 20
1207.636448174966
 30
0.0
 11
5346.728294804431
 21
1183.636448174966
 31
0.0
  0
LINE
  5
20131
330
20122
100
AcDbEntity
  8
細線
 48
50.0
100
AcDbLine
 10
5261.409469238835
 20
1207.636448174967
 30
0.0
 11
5267.840249857193
 21
1183.636448174967
 31
0.0
  0
LINE
  5
20132
330
20122
100
AcDbEntity
  8
細線
 48
50.0
100
AcDbLine
 10
5103.633379344344
 20
1207.636448174967
 30
0.0
 11
5110.06415996269
 21
1183.636448174967
 31
0.0
  0
LINE
  5
20133
330
20122
100
AcDbEntity
  8
細線
 48
50.0
100
AcDbLine
 10
5182.521424291589
 20
1207.636448174967
 30
0.0
 11
5188.952204909936
 21
1183.636448174967
 31
0.0
  0
LINE
  5
20134
330
20122
100
AcDbEntity
  8
細線
 48
50.0
100
AcDbLine
 10
5176.090643673237
 20
1183.636448174967
 30
0.0
 11
5210.388140304422
 21
1311.636448174966
 31
0.0
  0
LINE
  5
20135
330
20122
100
AcDbEntity
  8
細線
 48
50.0
100
AcDbLine
 10
5097.202598725995
 20
1183.636448174966
 30
0.0
 11
5131.500095357176
 21
1311.636448174966
 31
0.0
  0
LINE
  5
20136
330
20122
100
AcDbEntity
  8
細線
 48
50.0
100
AcDbLine
 10
5254.978688620486
 20
1183.636448174966
 30
0.0
 11
5289.27618525166
 21
1311.636448174967
 31
0.0
  0
LINE
  5
20137
330
20122
100
AcDbEntity
  8
細線
100
AcDbLine
 10
5305.162314828729
 20
1311.636448174969
 30
0.0
 11
5396.861230482074
 21
1403.335363828317
 31
0.0
  0
LINE
  5
20138
330
20122
100
AcDbEntity
  8
細線
 48
50.0
100
AcDbLine
 10
5333.866733567734
 20
1183.636448174964
 30
0.0
 11
5368.16423019892
 21
1311.636448174964
 31
0.0
  0
LINE
  5
20139
330
20122
100
AcDbEntity
  8
部品1
100
AcDbLine
 10
5364.243669335486
 20
1643.335363828317
 30
0.0
 11
5364.243669335486
 21
1403.335363828317
 31
0.0
  0
LINE
  5
2013A
330
20122
100
AcDbEntity
  8
細線
100
AcDbLine
 10
5350.406006987905
 20
1403.335363828318
 30
0.0
 11
5110.406006987909
 21
1643.335363828317
 31
0.0
  0
LINE
  5
2013B
330
20122
100
AcDbEntity
  8
細線
100
AcDbLine
 10
5299.494318742476
 20
1403.335363828317
 30
0.0
 11
5059.494318742476
 21
1643.335363828317
 31
0.0
  0
LINE
  5
2013C
330
20122
100
AcDbEntity
  8
細線
100
AcDbLine
 10
4911.221189331772
 20
1311.636448174967
 30
0.0
 11
5002.920104985118
 21
1403.335363828317
 31
0.0
  0
LINE
  5
2013D
330
20122
100
AcDbEntity
  8
細線
100
AcDbLine
 10
4877.280063834817
 20
1311.636448174967
 30
0.0
 11
4968.978979488166
 21
1403.335363828317
 31
0.0
  0
LINE
  5
2013E
330
20122
100
AcDbEntity
  8
細線
 48
50.0
100
AcDbLine
 10
4888.405179897087
 20
1287.636448174967
 30
0.0
 11
4881.974399278741
 21
1311.636448174967
 31
0.0
  0
LINE
  5
2013F
330
20122
100
AcDbEntity
  8
細線
 48
50.0
100
AcDbLine
 10
4967.29322484434
 20
1287.636448174967
 30
0.0
 11
4960.862444225994
 21
1311.636448174967
 31
0.0
  0
LINE
  5
20140
330
20122
100
AcDbEntity
  8
細線
 48
50.0
100
AcDbLine
 10
4809.517134949838
 20
1287.636448174967
 30
0.0
 11
4803.086354331488
 21
1311.636448174967
 31
0.0
  0
LINE
  5
20141
330
20122
100
AcDbEntity
  8
細線
 48
50.0
100
AcDbLine
 10
5024.745334397096
 20
1207.636448174967
 30
0.0
 11
5031.176115015445
 21
1183.636448174967
 31
0.0
  0
LINE
  5
20142
330
20122
100
AcDbEntity
  8
細線
 48
50.0
100
AcDbLine
 10
4945.85728944985
 20
1207.636448174967
 30
0.0
 11
4952.288070068196
 21
1183.636448174967
 31
0.0
  0
LINE
  5
20143
330
20122
100
AcDbEntity
  8
細線
 48
50.0
100
AcDbLine
 10
4788.081199555349
 20
1207.636448174967
 30
0.0
 11
4794.511980173695
 21
1183.636448174967
 31
0.0
  0
LINE
  5
20144
330
20122
100
AcDbEntity
  8
細線
 48
50.0
100
AcDbLine
 10
4866.969244502598
 20
1207.636448174967
 30
0.0
 11
4873.400025120947
 21
1183.636448174967
 31
0.0
  0
LINE
  5
20145
330
20122
100
AcDbEntity
  8
部品1
100
AcDbLine
 10
4764.243669335487
 20
1183.636448174963
 30
0.0
 11
4764.243669335487
 21
1403.335363828317
 31
0.0
  0
LINE
  5
20146
330
20122
100
AcDbEntity
  8
細線
 48
50.0
100
AcDbLine
 10
4781.650418936999
 20
1183.636448174967
 30
0.0
 11
4815.947915568184
 21
1311.636448174967
 31
0.0
  0
LINE
  5
20147
330
20122
100
AcDbEntity
  8
細線
 48
50.0
100
AcDbLine
 10
4939.426508831497
 20
1183.636448174967
 30
0.0
 11
4973.724005462681
 21
1311.636448174967
 31
0.0
  0
LINE
  5
20148
330
20122
100
AcDbEntity
  8
細線
 48
50.0
100
AcDbLine
 10
4860.538463884248
 20
1183.636448174966
 30
0.0
 11
4894.835960515429
 21
1311.636448174966
 31
0.0
  0
LINE
  5
20149
330
20122
100
AcDbEntity
  8
部品1
100
AcDbLine
 10
4884.243669335487
 20
1403.335363828317
 30
0.0
 11
4884.243669335487
 21
1643.335363828317
 31
0.0
  0
TEXT
  5
2014A
330
20122
100
AcDbEntity
  8
部品1
 48
50.0
100
AcDbText
 10
4120.125582576984
 20
1136.535623191008
 30
0.0
 40
80.0
  1
ボルトの出
 50
90.0
  7
STYLE2
100
AcDbText
  0
LINE
  5
2014B
330
20122
100
AcDbEntity
  8
細線
100
AcDbLine
 10
5027.96531476684
 20
1403.335363828317
 30
0.0
 11
4884.243669335487
 21
1547.05700925967
 31
0.0
  0
LWPOLYLINE
  5
2014C
330
20122
100
AcDbEntity
  8
部品1
 48
50.0
100
AcDbPolyline
 90
        2
 70
     0
 43
12.0
 10
4499.632407235098
 20
1403.335363828317
 10
5700.724710366725
 20
1403.335363828317
  0
LINE
  5
2014D
330
20122
100
AcDbEntity
  8
細線
100
AcDbLine
 10
4945.162314828729
 20
1311.636448174967
 30
0.0
 11
5036.861230482074
 21
1403.335363828317
 31
0.0
  0
LINE
  5
2014E
330
20122
100
AcDbEntity
  8
部品1
100
AcDbLine
 10
4764.243669335487
 20
1311.636448174967
 30
0.0
 11
5484.243669335487
 21
1311.63644817497
 31
0.0
  0
LINE
  5
2014F
330
20122
100
AcDbEntity
  8
部品1
100
AcDbLine
 10
4764.243669335487
 20
1183.636448174963
 30
0.0
 11
5484.243669335487
 21
1183.636448174967
 31
0.0
  0
LINE
  5
20150
330
20122
100
AcDbEntity
  8
細線
 48
50.0
100
AcDbLine
 10
5018.314553778746
 20
1183.636448174967
 30
0.0
 11
5052.612050409931
 21
1311.636448174966
 31
0.0
  0
LINE
  5
20151
330
20122
100
AcDbEntity
  8
部品1
100
AcDbLine
 10
4884.243669335487
 20
1643.335363828317
 30
0.0
 11
5364.243669335486
 21
1643.335363828317
 31
0.0
  0
LINE
  5
20152
330
20122
100
AcDbEntity
  8
細線
100
AcDbLine
 10
5078.877003012273
 20
1403.335363828317
 30
0.0
 11
4884.243669335487
 21
1597.9686975051
 31
0.0
  0
LINE
  5
20153
330
20122
100
AcDbEntity
  8
部品1
100
AcDbLine
 10
6070.985170432519
 20
0.0000140205147545
 30
0.0
 11
6070.985170432527
 21
2964.306983605162
 31
0.0
  0
TEXT
  5
20154
330
20122
100
AcDbEntity
  8
部品1
100
AcDbText
 10
2692.87998622466
 20
2784.755051653734
 30
0.0
 40
120.0
  1
基礎詳細
  7
STYLE2
100
AcDbText
  0
LINE
  5
20155
330
20122
100
AcDbEntity
  8
部品1
 48
50.0
100
AcDbLine
 10
3008.107737032729
 20
2042.21064493746
 30
0.0
 11
3024.107737032729
 21
2034.21064493746
 31
0.0
  0
LINE
  5
20156
330
20122
100
AcDbEntity
  8
細線
 48
50.0
100
AcDbLine
 10
2976.107737032729
 20
1994.210644937459
 30
0.0
 11
2976.107737032729
 21
2026.21064493746
 31
0.0
  0
LINE
  5
20157
330
20122
100
AcDbEntity
  8
部品1
 48
50.0
100
AcDbLine
 10
3024.107737032729
 20
2002.21064493746
 30
0.0
 11
3024.107737032729
 21
2034.21064493746
 31
0.0
  0
LINE
  5
20158
330
20122
100
AcDbEntity
  8
細線
 48
50.0
100
AcDbLine
 10
3008.107737032729
 20
1994.210644937459
 30
0.0
 11
3008.107737032729
 21
2026.21064493746
 31
0.0
  0
LINE
  5
20159
330
20122
100
AcDbEntity
  8
部品1
 48
50.0
100
AcDbLine
 10
3008.107737032729
 20
2026.21064493746
 30
0.0
 11
3024.107737032729
 21
2034.21064493746
 31
0.0
  0
LINE
  5
2015A
330
20122
100
AcDbEntity
  8
部品1
 48
50.0
100
AcDbLine
 10
2976.107737032729
 20
2026.21064493746
 30
0.0
 11
3008.107737032729
 21
2026.21064493746
 31
0.0
  0
LINE
  5
2015B
330
20122
100
AcDbEntity
  8
部品1
 48
50.0
100
AcDbLine
 10
3008.107737032729
 20
1994.210644937459
 30
0.0
 11
3024.107737032729
 21
2002.21064493746
 31
0.0
  0
LINE
  5
2015C
330
20122
100
AcDbEntity
  8
部品1
 48
50.0
100
AcDbLine
 10
2976.107737032729
 20
1994.210644937459
 30
0.0
 11
3008.107737032729
 21
1994.210644937459
 31
0.0
  0
ELLIPSE
  5
2015D
330
20122
100
AcDbEntity
  8
細線
 48
50.0
100
AcDbEllipse
 10
2992.107737032729
 20
2034.21064493746
 30
0.0
 11
14.76670786606846
 21
0.0
 31
0.0
210
0.0
220
0.0
230
1.0
 40
0.2071254069489396
 41
0.0
 42
6.283185307179586
  0
LINE
  5
2015E
330
20122
100
AcDbEntity
  8
部品1
 48
50.0
100
AcDbLine
 10
2976.107737032729
 20
2042.21064493746
 30
0.0
 11
3008.107737032729
 21
2042.21064493746
 31
0.0
  0
LINE
  5
2015F
330
20122
100
AcDbEntity
  8
部品1
 48
50.0
100
AcDbLine
 10
2960.107737032729
 20
2002.21064493746
 30
0.0
 11
2960.107737032729
 21
2034.21064493746
 31
0.0
  0
LINE
  5
20160
330
20122
100
AcDbEntity
  8
部品1
 48
50.0
100
AcDbLine
 10
2960.107737032729
 20
2034.21064493746
 30
0.0
 11
2976.107737032729
 21
2042.21064493746
 31
0.0
  0
LINE
  5
20161
330
20122
100
AcDbEntity
  8
部品1
 48
50.0
100
AcDbLine
 10
2960.107737032729
 20
2002.21064493746
 30
0.0
 11
2976.107737032729
 21
1994.210644937459
 31
0.0
  0
LINE
  5
20162
330
20122
100
AcDbEntity
  8
部品1
 48
50.0
100
AcDbLine
 10
2960.107737032729
 20
2034.21064493746
 30
0.0
 11
2976.107737032729
 21
2026.21064493746
 31
0.0
  0
LINE
  5
20163
330
20122
100
AcDbEntity
  8
部品1
 48
50.0
100
AcDbLine
 10
3032.10773703273
 20
1902.858652272589
 30
0.0
 11
3032.10773703273
 21
1912.458652272589
 31
0.0
  0
ELLIPSE
  5
20164
330
20122
100
AcDbEntity
  8
部品1
 48
50.0
100
AcDbEllipse
 10
2992.107737032729
 20
1912.458652272589
 30
0.0
 11
18.4
 21
0.0
 31
0.0
210
0.0
220
0.0
230
1.0
 40
0.3478260869565217
 41
0.0
 42
6.283185307179586
  0
ARC
  5
20165
330
20122
100
AcDbEntity
  8
部品1
100
AcDbCircle
 10
2831.007737032731
 20
1741.435363828317
 30
0.0
 40
2.7
100
AcDbArc
 50
90.0
 51
180.0
  0
LINE
  5
20166
330
20122
100
AcDbEntity
  8
部品1
100
AcDbLine
 10
2833.70773703273
 20
1754.935363828317
 30
0.0
 11
2876.007737032731
 21
1754.935363828314
 31
0.0
  0
LINE
  5
20167
330
20122
100
AcDbEntity
  8
部品1
100
AcDbLine
 10
2831.007737032731
 20
1744.135363828317
 30
0.0
 11
2831.007737032731
 21
1752.235363828317
 31
0.0
  0
LINE
  5
20168
330
20122
100
AcDbEntity
  8
部品1
100
AcDbLine
 10
2831.007737032731
 20
1744.135363828317
 30
0.0
 11
2831.007737032731
 21
1744.135363828317
 31
0.0
  0
ARC
  5
20169
330
20122
100
AcDbEntity
  8
部品1
100
AcDbCircle
 10
2833.70773703273
 20
1752.235363828317
 30
0.0
 40
2.7
100
AcDbArc
 50
90.0
 51
180.0
  0
ARC
  5
2016A
330
20122
100
AcDbEntity
  8
部品1
100
AcDbCircle
 10
2876.007737032731
 20
1752.235363828314
 30
0.0
 40
2.7
100
AcDbArc
 50
0.0
 51
90.0
  0
LINE
  5
2016B
330
20122
100
AcDbEntity
  8
部品1
 48
50.0
100
AcDbLine
 10
2952.10773703273
 20
1912.458652272589
 30
0.0
 11
2952.10773703273
 21
1902.858652272589
 31
0.0
  0
ELLIPSE
  5
2016C
330
20122
100
AcDbEntity
  8
部品1
 48
50.0
100
AcDbEllipse
 10
2992.107737032729
 20
1902.85865227259
 30
0.0
 11
40.0
 21
0.0
 31
0.0
210
0.0
220
0.0
230
1.0
 40
0.4
 41
3.141592653589793
 42
6.283185307179586
  0
ELLIPSE
  5
2016D
330
20122
100
AcDbEntity
  8
部品1
 48
50.0
100
AcDbEllipse
 10
2992.107737032729
 20
1912.458652272589
 30
0.0
 11
40.0
 21
0.0
 31
0.0
210
0.0
220
0.0
230
1.0
 40
0.4
 41
0.0
 42
6.283185307179586
  0
LINE
  5
2016E
330
20122
100
AcDbEntity
  8
部品1
100
AcDbLine
 10
2986.70773703273
 20
1696.095363828317
 30
0.0
 11
2997.507737032731
 21
1696.095363828317
 31
0.0
  0
LINE
  5
2016F
330
20122
100
AcDbEntity
  8
部品1
100
AcDbLine
 10
2983.10773703273
 20
1692.495363828317
 30
0.0
 11
3001.107737032729
 21
1692.495363828317
 31
0.0
  0
LINE
  5
20170
330
20122
100
AcDbEntity
  8
細線
100
AcDbLine
 10
2986.707737032732
 20
1652.895363828317
 30
0.0
 11
2986.70773703273
 21
1696.095363828317
 31
0.0
  0
LINE
  5
20171
330
20122
100
AcDbEntity
  8
細線
100
AcDbLine
 10
2997.507737032731
 20
1652.895363828317
 30
0.0
 11
2997.507737032731
 21
1696.095363828317
 31
0.0
  0
LINE
  5
20172
330
20122
100
AcDbEntity
  8
部品1
100
AcDbLine
 10
2899.407737032729
 20
1710.195363828318
 30
0.0
 11
2899.407737032729
 21
1693.095363828317
 31
0.0
  0
LINE
  5
20173
330
20122
100
AcDbEntity
  8
部品1
100
AcDbLine
 10
2932.96773703273
 20
1710.195363828318
 30
0.0
 11
2932.967737032726
 21
1655.595363828317
 31
0.0
  0
ARC
  5
20174
330
20122
100
AcDbEntity
  8
部品1
100
AcDbCircle
 10
2918.30773703273
 20
1698.235363828316
 30
0.0
 40
2.7
100
AcDbArc
 50
0.0
 51
90.0
  0
LINE
  5
20175
330
20122
100
AcDbEntity
  8
部品1
100
AcDbLine
 10
2878.70773703273
 20
1700.935363828317
 30
0.0
 11
2918.30773703273
 21
1700.935363828317
 31
0.0
  0
ARC
  5
20176
330
20122
100
AcDbEntity
  8
部品1
100
AcDbCircle
 10
2918.30773703273
 20
1655.595363828317
 30
0.0
 40
2.7
100
AcDbArc
 50
270.0
 51
0.0
  0
ARC
  5
20177
330
20122
100
AcDbEntity
  8
部品1
100
AcDbCircle
 10
2935.667737032723
 20
1655.595363828317
 30
0.0
 40
2.7
100
AcDbArc
 50
180.0
 51
270.0
  0
LINE
  5
20178
330
20122
100
AcDbEntity
  8
部品1
100
AcDbLine
 10
2906.607737032729
 20
1652.895363828317
 30
0.0
 11
2918.30773703273
 21
1652.895363828317
 31
0.0
  0
LINE
  5
20179
330
20122
100
AcDbEntity
  8
部品1
100
AcDbLine
 10
2921.007737032731
 20
1698.235363828316
 30
0.0
 11
2921.007737032731
 21
1655.595363828317
 31
0.0
  0
ARC
  5
2017A
330
20122
100
AcDbEntity
  8
部品1
100
AcDbCircle
 10
2930.267737032729
 20
1710.195363828318
 30
0.0
 40
2.7
100
AcDbArc
 50
0.0
 51
90.0
  0
ARC
  5
2017B
330
20122
100
AcDbEntity
  8
部品1
100
AcDbCircle
 10
2902.107737032729
 20
1710.195363828318
 30
0.0
 40
2.7
100
AcDbArc
 50
90.0
 51
180.0
  0
LINE
  5
2017C
330
20122
100
AcDbEntity
  8
部品1
100
AcDbLine
 10
2902.107737032729
 20
1712.895363828317
 30
0.0
 11
2930.267737032729
 21
1712.895363828317
 31
0.0
  0
LINE
  5
2017D
330
20122
100
AcDbEntity
  8
部品1
100
AcDbLine
 10
2878.70773703273
 20
1752.235363828314
 30
0.0
 11
2878.70773703273
 21
1700.935363828317
 31
0.0
  0
LINE
  5
2017E
330
20122
100
AcDbEntity
  8
部品1
100
AcDbLine
 10
2828.30773703273
 20
1733.335363828317
 30
0.0
 11
2828.30773703273
 21
1741.435363828317
 31
0.0
  0
LINE
  5
2017F
330
20122
100
AcDbEntity
  8
部品1
100
AcDbLine
 10
2935.667737032723
 20
1652.895363828317
 30
0.0
 11
3137.007737032724
 21
1652.895363828317
 31
0.0
  0
LINE
  5
20180
330
20122
100
AcDbEntity
  8
部品1
100
AcDbLine
 10
2777.007737032731
 20
1655.595363828317
 30
0.0
 11
2777.007737032731
 21
1717.727267531025
 31
0.0
  0
LINE
  5
20181
330
20122
100
AcDbEntity
  8
部品1
100
AcDbLine
 10
2779.70773703273
 20
1652.895363828317
 30
0.0
 11
2791.407737032725
 21
1652.895363828317
 31
0.0
  0
LINE
  5
20182
330
20122
100
AcDbEntity
  8
細線
 48
50.0
100
AcDbLine
 10
2770.70773703273
 20
1631.115940128222
 30
0.0
 11
2782.927160732825
 21
1643.335363828317
 31
0.0
  0
ARC
  5
20183
330
20122
100
AcDbEntity
  8
部品1
100
AcDbCircle
 10
2779.70773703273
 20
1655.595363828317
 30
0.0
 40
2.7
100
AcDbArc
 50
180.0
 51
270.0
  0
LINE
  5
20184
330
20122
100
AcDbEntity
  8
部品1
100
AcDbLine
 10
2779.052890845131
 20
1720.346652281417
 30
0.0
 11
2787.80773703273
 21
1722.535363828316
 31
0.0
  0
ARC
  5
20185
330
20122
100
AcDbEntity
  8
部品1
100
AcDbCircle
 10
2779.70773703273
 20
1717.727267531025
 30
0.0
 40
2.7
100
AcDbArc
 50
104.0362434679067
 51
180.0
  0
ARC
  5
20186
330
20122
100
AcDbEntity
  8
部品1
100
AcDbCircle
 10
2790.507737032731
 20
1730.635363828317
 30
0.0
 40
2.7
100
AcDbArc
 50
90.0
 51
180.0
  0
LINE
  5
20187
330
20122
100
AcDbEntity
  8
部品1
100
AcDbLine
 10
2787.80773703273
 20
1722.535363828316
 30
0.0
 11
2787.80773703273
 21
1730.635363828317
 31
0.0
  0
TEXT
  5
20188
330
20122
100
AcDbEntity
  8
部品1
 48
50.0
100
AcDbText
 10
2344.261640453238
 20
1973.895884928793
 30
0.0
 40
80.0
  1
※(別売)
  7
STYLE2
100
AcDbText
  0
LINE
  5
20189
330
20122
100
AcDbEntity
  8
部品1
 48
50.0
100
AcDbLine
 10
2770.70773703273
 20
1643.335363828317
 30
0.0
 11
3184.707737032732
 21
1643.335363828317
 31
0.0
  0
LINE
  5
2018A
330
20122
100
AcDbEntity
  8
細線
 48
50.0
100
AcDbLine
 10
2770.70773703273
 20
1577.234403401807
 30
0.0
 11
2836.808697459241
 21
1643.335363828317
 31
0.0
  0
LINE
  5
2018B
330
20122
100
AcDbEntity
  8
細線
 48
50.0
100
AcDbLine
 10
2770.70773703273
 20
1604.175171765015
 30
0.0
 11
2809.867929096036
 21
1643.335363828317
 31
0.0
  0
LINE
  5
2018C
330
20122
100
AcDbEntity
  8
部品1
100
AcDbLine
 10
2790.507737032731
 20
1733.335363828317
 30
0.0
 11
2828.30773703273
 21
1733.335363828317
 31
0.0
  0
LINE
  5
2018D
330
20122
100
AcDbEntity
  8
部品1
 48
50.0
100
AcDbLine
 10
3184.70773703273
 20
1099.335363828317
 30
0.0
 11
3312.707737032728
 21
1099.335363828317
 31
0.0
  0
LINE
  5
2018E
330
20122
100
AcDbEntity
  8
部品1
100
AcDbLine
 10
3001.107737032729
 20
1418.335363828317
 30
0.0
 11
3037.10773703273
 21
1418.335363828317
 31
0.0
  0
LINE
  5
2018F
330
20122
100
AcDbEntity
  8
部品1
100
AcDbLine
 10
3001.107737032729
 20
1400.335363828317
 30
0.0
 11
3037.10773703273
 21
1400.335363828317
 31
0.0
  0
ARC
  5
20190
330
20122
100
AcDbEntity
  8
部品1
100
AcDbCircle
 10
3001.107737032729
 20
1418.335363828317
 30
0.0
 40
18.0
100
AcDbArc
 50
180.0
 51
270.0
  0
LINE
  5
20191
330
20122
100
AcDbEntity
  8
部品1
100
AcDbLine
 10
3037.10773703273
 20
1400.335363828317
 30
0.0
 11
3037.10773703273
 21
1418.335363828317
 31
0.0
  0
LINE
  5
20192
330
20122
100
AcDbEntity
  8
部品1
100
AcDbLine
 10
3055.107737032729
 20
1319.335363828315
 30
0.0
 11
2929.107737032724
 21
1319.335363828315
 31
0.0
  0
LINE
  5
20193
330
20122
100
AcDbEntity
  8
細線
 48
50.0
100
AcDbLine
 10
3349.085562225063
 20
835.3353638283151
 30
0.0
 11
3342.654781606718
 21
859.3353638283151
 31
0.0
  0
LINE
  5
20194
330
20122
100
AcDbEntity
  8
細線
 48
50.0
100
AcDbLine
 10
3270.197517277818
 20
835.3353638283151
 30
0.0
 11
3263.766736659473
 21
859.3353638283151
 31
0.0
  0
LINE
  5
20195
330
20122
100
AcDbEntity
  8
細線
 48
50.0
100
AcDbLine
 10
3191.309472330563
 20
835.335363828317
 30
0.0
 11
3184.878691712216
 21
859.335363828317
 31
0.0
  0
LINE
  5
20196
330
20122
100
AcDbEntity
  8
細線
 48
50.0
100
AcDbLine
 10
3327.649626830575
 20
755.3353638283152
 30
0.0
 11
3334.080407448924
 21
731.3353638283151
 31
0.0
  0
LINE
  5
20197
330
20122
100
AcDbEntity
  8
細線
 48
50.0
100
AcDbLine
 10
3248.761581883329
 20
755.3353638283152
 30
0.0
 11
3255.192362501676
 21
731.3353638283151
 31
0.0
  0
LINE
  5
20198
330
20122
100
AcDbEntity
  8
細線
 48
50.0
100
AcDbLine
 10
3169.87353693608
 20
755.3353638283169
 30
0.0
 11
3176.304317554437
 21
731.3353638283169
 31
0.0
  0
LINE
  5
20199
330
20122
100
AcDbEntity
  8
細線
 48
50.0
100
AcDbLine
 10
3242.33080126498
 20
731.3353638283142
 30
0.0
 11
3276.628297896165
 21
859.3353638283142
 31
0.0
  0
LINE
  5
2019A
330
20122
100
AcDbEntity
  8
細線
 48
50.0
100
AcDbLine
 10
3163.44275631773
 20
731.3353638283151
 30
0.0
 11
3197.740252948904
 21
859.335363828317
 31
0.0
  0
LINE
  5
2019B
330
20122
100
AcDbEntity
  8
細線
 48
50.0
100
AcDbLine
 10
3321.218846212225
 20
731.3353638283151
 30
0.0
 11
3355.51634284341
 21
859.3353638283142
 31
0.0
  0
LINE
  5
2019C
330
20122
100
AcDbEntity
  8
部品1
 48
50.0
100
AcDbLine
 10
3392.707737032732
 20
859.335363828317
 30
0.0
 11
3392.707737032732
 21
731.3353638283169
 31
0.0
  0
LINE
  5
2019D
330
20122
100
AcDbEntity
  8
細線
 48
50.0
100
AcDbLine
 10
3112.421427383325
 20
835.335363828317
 30
0.0
 11
3105.990646764978
 21
859.335363828317
 31
0.0
  0
LINE
  5
2019E
330
20122
100
AcDbEntity
  8
細線
 48
50.0
100
AcDbLine
 10
3033.533382436079
 20
835.335363828317
 30
0.0
 11
3027.102601817733
 21
859.335363828317
 31
0.0
  0
LINE
  5
2019F
330
20122
100
AcDbEntity
  8
細線
 48
50.0
100
AcDbLine
 10
2875.757292541586
 20
835.335363828317
 30
0.0
 11
2869.326511923238
 21
859.335363828317
 31
0.0
  0
LINE
  5
201A0
330
20122
100
AcDbEntity
  8
細線
 48
50.0
100
AcDbLine
 10
2954.645337488834
 20
835.335363828317
 30
0.0
 11
2948.214556870486
 21
859.335363828317
 31
0.0
  0
LINE
  5
201A1
330
20122
100
AcDbEntity
  8
細線
 48
50.0
100
AcDbLine
 10
3012.09744704159
 20
755.3353638283169
 30
0.0
 11
3018.528227659936
 21
731.3353638283169
 31
0.0
  0
LINE
  5
201A2
330
20122
100
AcDbEntity
  8
細線
 48
50.0
100
AcDbLine
 10
3090.985491988835
 20
755.3353638283169
 30
0.0
 11
3097.416272607181
 21
731.3353638283169
 31
0.0
  0
LINE
  5
201A3
330
20122
100
AcDbEntity
  8
細線
 48
50.0
100
AcDbLine
 10
2854.321357147097
 20
755.3353638283169
 30
0.0
 11
2860.752137765445
 21
731.3353638283169
 31
0.0
  0
LINE
  5
201A4
330
20122
100
AcDbEntity
  8
細線
 48
50.0
100
AcDbLine
 10
2933.209402094344
 20
755.3353638283169
 30
0.0
 11
2939.64018271269
 21
731.3353638283169
 31
0.0
  0
LINE
  5
201A5
330
20122
100
AcDbEntity
  8
細線
 48
50.0
100
AcDbLine
 10
3084.554711370481
 20
731.3353638283169
 30
0.0
 11
3118.852208001668
 21
859.3353638283151
 31
0.0
  0
LINE
  5
201A6
330
20122
100
AcDbEntity
  8
細線
 48
50.0
100
AcDbLine
 10
2926.778621475991
 20
731.3353638283169
 30
0.0
 11
2961.076118107176
 21
859.3353638283151
 31
0.0
  0
LINE
  5
201A7
330
20122
100
AcDbEntity
  8
細線
 48
50.0
100
AcDbLine
 10
2847.890576528746
 20
731.3353638283169
 30
0.0
 11
2882.188073159927
 21
859.335363828317
 31
0.0
  0
LINE
  5
201A8
330
20122
100
AcDbEntity
  8
細線
 48
50.0
100
AcDbLine
 10
3005.66666642324
 20
731.3353638283151
 30
0.0
 11
3039.964163054421
 21
859.3353638283151
 31
0.0
  0
LINE
  5
201A9
330
20122
100
AcDbEntity
  8
細線
 48
50.0
100
AcDbLine
 10
3130.439431987539
 20
859.335363828317
 30
0.0
 11
3312.707737032728
 21
1041.603668873513
 31
0.0
  0
LINE
  5
201AA
330
20122
100
AcDbEntity
  8
部品1
 48
50.0
100
AcDbLine
 10
3312.707737032728
 20
1099.335363828317
 30
0.0
 11
3312.707737032728
 21
859.335363828317
 31
0.0
  0
LINE
  5
201AB
330
20122
100
AcDbEntity
  8
細線
 48
50.0
100
AcDbLine
 10
3103.498663624334
 20
859.335363828317
 30
0.0
 11
3312.707737032728
 21
1068.54443723671
 31
0.0
  0
LINE
  5
201AC
330
20122
100
AcDbEntity
  8
細線
 48
50.0
100
AcDbLine
 10
3076.557895261123
 20
859.335363828317
 30
0.0
 11
3312.707737032728
 21
1095.485205599925
 31
0.0
  0
LINE
  5
201AD
330
20122
100
AcDbEntity
  8
細線
 48
50.0
100
AcDbLine
 10
2861.031748355465
 20
859.335363828317
 30
0.0
 11
3184.707737032728
 21
1183.011352505583
 31
0.0
  0
LINE
  5
201AE
330
20122
100
AcDbEntity
  8
細線
 48
50.0
100
AcDbLine
 10
2914.913285081879
 20
859.335363828317
 30
0.0
 11
3184.70773703273
 21
1129.129815779174
 31
0.0
  0
LINE
  5
201AF
330
20122
100
AcDbEntity
  8
細線
 48
50.0
100
AcDbLine
 10
2887.972516718674
 20
859.335363828317
 30
0.0
 11
3184.70773703273
 21
1156.070584142369
 31
0.0
  0
LINE
  5
201B0
330
20122
100
AcDbEntity
  8
細線
 48
50.0
100
AcDbLine
 10
2642.707737032724
 20
1072.063646316903
 30
0.0
 11
2669.979454544144
 21
1099.335363828317
 31
0.0
  0
LINE
  5
201B1
330
20122
100
AcDbEntity
  8
部品1
 48
50.0
100
AcDbLine
 10
2642.70773703273
 20
1099.335363828317
 30
0.0
 11
2770.70773703273
 21
1099.335363828317
 31
0.0
  0
LINE
  5
201B2
330
20122
100
AcDbEntity
  8
細線
 48
50.0
100
AcDbLine
 10
2642.707737032724
 20
1045.122877953692
 30
0.0
 11
2696.920222907355
 21
1099.335363828317
 31
0.0
  0
LWPOLYLINE
  5
201B3
330
20122
100
AcDbEntity
  8
部品1
 48
50.0
100
AcDbPolyline
 90
        2
 70
     0
 43
8.0
 10
2356.567835199774
 20
1403.335363828318
 10
2770.70773703273
 20
1403.335363828318
  0
LINE
  5
201B4
330
20122
100
AcDbEntity
  8
細線
 48
50.0
100
AcDbLine
 10
2717.981202647083
 20
835.335363828317
 30
0.0
 11
2711.550422028737
 21
859.335363828317
 31
0.0
  0
LINE
  5
201B5
330
20122
100
AcDbEntity
  8
細線
 48
50.0
100
AcDbLine
 10
2796.869247594335
 20
835.335363828317
 30
0.0
 11
2790.438466975988
 21
859.335363828317
 31
0.0
  0
LINE
  5
201B6
330
20122
100
AcDbEntity
  8
細線
 48
50.0
100
AcDbLine
 10
2639.09315769983
 20
835.335363828317
 30
0.0
 11
2632.662377081484
 21
859.335363828317
 31
0.0
  0
LINE
  5
201B7
330
20122
100
AcDbEntity
  8
細線
 48
50.0
100
AcDbLine
 10
2562.70773703273
 20
844.675284794097
 30
0.0
 11
2566.635893370925
 21
859.335363828317
 31
0.0
  0
LINE
  5
201B8
330
20122
100
AcDbEntity
  8
細線
 48
50.0
100
AcDbLine
 10
2696.545267252594
 20
755.3353638283169
 30
0.0
 11
2702.97604787094
 21
731.3353638283169
 31
0.0
  0
LINE
  5
201B9
330
20122
100
AcDbEntity
  8
細線
 48
50.0
100
AcDbLine
 10
2775.433312199846
 20
755.3353638283169
 30
0.0
 11
2781.864092818192
 21
731.3353638283169
 31
0.0
  0
LINE
  5
201BA
330
20122
100
AcDbEntity
  8
細線
 48
50.0
100
AcDbLine
 10
2617.657222305341
 20
755.3353638283169
 30
0.0
 11
2624.088002923687
 21
731.3353638283169
 31
0.0
  0
LINE
  5
201BB
330
20122
100
AcDbEntity
  8
細線
 48
50.0
100
AcDbLine
 10
2769.002531581493
 20
731.3353638283151
 30
0.0
 11
2803.300028212674
 21
859.3353638283151
 31
0.0
  0
LINE
  5
201BC
330
20122
100
AcDbEntity
  8
細線
 48
50.0
100
AcDbLine
 10
2611.226441686988
 20
731.3353638283151
 30
0.0
 11
2645.523938318172
 21
859.3353638283151
 31
0.0
  0
LINE
  5
201BD
330
20122
100
AcDbEntity
  8
部品1
 48
50.0
100
AcDbLine
 10
2562.707737032732
 20
731.3353638283169
 30
0.0
 11
2562.707737032732
 21
859.335363828317
 31
0.0
  0
LINE
  5
201BE
330
20122
100
AcDbEntity
  8
細線
 48
50.0
100
AcDbLine
 10
2690.114486634247
 20
731.3353638283169
 30
0.0
 11
2724.411983265429
 21
859.335363828317
 31
0.0
  0
LINE
  5
201BF
330
20122
100
AcDbEntity
  8
部品1
 48
50.0
100
AcDbLine
 10
2642.70773703273
 20
859.335363828317
 30
0.0
 11
2642.70773703273
 21
1099.335363828317
 31
0.0
  0
LINE
  5
201C0
330
20122
100
AcDbEntity
  8
細線
 48
50.0
100
AcDbLine
 10
2642.707737032724
 20
1018.182109590488
 30
0.0
 11
2723.860991270558
 21
1099.335363828317
 31
0.0
  0
LINE
  5
201C1
330
20122
100
AcDbEntity
  8
部品1
 48
50.0
100
AcDbLine
 10
3392.707737032732
 20
731.3353638283169
 30
0.0
 11
2562.707737032732
 21
731.3353638283169
 31
0.0
  0
LINE
  5
201C2
330
20122
100
AcDbEntity
  8
部品1
 48
50.0
100
AcDbLine
 10
3392.707737032732
 20
859.335363828317
 30
0.0
 11
2562.707737032732
 21
859.335363828317
 31
0.0
  0
LINE
  5
201C3
330
20122
100
AcDbEntity
  8
細線
 48
50.0
100
AcDbLine
 10
2645.505601449804
 20
859.335363828317
 30
0.0
 11
3184.707737032728
 21
1398.537499411242
 31
0.0
  0
LINE
  5
201C4
330
20122
100
AcDbEntity
  8
細線
 48
50.0
100
AcDbLine
 10
2672.446369813013
 20
859.335363828317
 30
0.0
 11
3184.707737032732
 21
1371.596731048031
 31
0.0
  0
LINE
  5
201C5
330
20122
100
AcDbEntity
  8
細線
 48
50.0
100
AcDbLine
 10
2699.387138176219
 20
859.335363828317
 30
0.0
 11
3184.70773703273
 21
1344.655962684825
 31
0.0
  0
LINE
  5
201C6
330
20122
100
AcDbEntity
  8
細線
 48
50.0
100
AcDbLine
 10
2770.70773703273
 20
1200.063646316903
 30
0.0
 11
2929.107737032722
 21
1358.463646316898
 31
0.0
  0
LINE
  5
201C7
330
20122
100
AcDbEntity
  8
細線
 48
50.0
100
AcDbLine
 10
2770.70773703273
 20
1146.182109590488
 30
0.0
 11
2943.860991270565
 21
1319.335363828315
 31
0.0
  0
LINE
  5
201C8
330
20122
100
AcDbEntity
  8
細線
 48
50.0
100
AcDbLine
 10
2770.70773703273
 20
1173.122877953695
 30
0.0
 11
2929.107737032722
 21
1331.522877953684
 31
0.0
  0
LINE
  5
201C9
330
20122
100
AcDbEntity
  8
部品1
100
AcDbLine
 10
2929.107737032724
 20
1319.335363828317
 30
0.0
 11
2929.10773703273
 21
1643.335363828317
 31
0.0
  0
LINE
  5
201CA
330
20122
100
AcDbEntity
  8
部品1
100
AcDbLine
 10
3055.107737032729
 20
1319.335363828317
 30
0.0
 11
3055.107737032729
 21
1643.335363828317
 31
0.0
  0
LINE
  5
201CB
330
20122
100
AcDbEntity
  8
細線
 48
50.0
100
AcDbLine
 10
3055.107737032731
 20
1457.522877953688
 30
0.0
 11
3184.70773703273
 21
1587.122877953685
 31
0.0
  0
LINE
  5
201CC
330
20122
100
AcDbEntity
  8
細線
 48
50.0
100
AcDbLine
 10
3055.107737032731
 20
1430.582109590476
 30
0.0
 11
3184.70773703273
 21
1560.182109590467
 31
0.0
  0
LINE
  5
201CD
330
20122
100
AcDbEntity
  8
部品1
100
AcDbLine
 10
2983.10773703273
 20
1418.335363828317
 30
0.0
 11
2983.107737032726
 21
1692.495363828317
 31
0.0
  0
LINE
  5
201CE
330
20122
100
AcDbEntity
  8
部品1
100
AcDbLine
 10
3001.107737032729
 20
1418.335363828317
 30
0.0
 11
3001.107737032726
 21
1692.495363828317
 31
0.0
  0
TEXT
  5
201CF
330
20122
100
AcDbEntity
  8
部品1
 48
50.0
100
AcDbText
 10
2356.567835199774
 20
1414.574356111572
 30
0.0
 40
80.0
  1
▽G.L
  7
STYLE2
100
AcDbText
  0
LINE
  5
201D0
330
20122
100
AcDbEntity
  8
細線
 48
50.0
100
AcDbLine
 10
2770.70773703273
 20
1361.708256496147
 30
0.0
 11
2929.107737032726
 21
1520.10825649614
 31
0.0
  0
LINE
  5
201D1
330
20122
100
AcDbEntity
  8
細線
 48
50.0
100
AcDbLine
 10
2770.70773703273
 20
1388.649024859354
 30
0.0
 11
2929.10773703273
 21
1547.049024859352
 31
0.0
  0
LINE
  5
201D2
330
20122
100
AcDbEntity
  8
細線
 48
50.0
100
AcDbLine
 10
2770.70773703273
 20
1415.589793222562
 30
0.0
 11
2929.10773703273
 21
1573.989793222559
 31
0.0
  0
LINE
  5
201D3
330
20122
100
AcDbEntity
  8
部品1
 48
50.0
100
AcDbLine
 10
2770.70773703273
 20
1099.335363828317
 30
0.0
 11
2770.70773703273
 21
1643.335363828317
 31
0.0
  0
LINE
  5
201D4
330
20122
100
AcDbEntity
  8
部品1
100
AcDbLine
 10
3184.707737032728
 20
1099.335363828317
 30
0.0
 11
3184.70773703273
 21
1643.335363828317
 31
0.0
  0
LINE
  5
201D5
330
20122
100
AcDbEntity
  8
細線
 48
50.0
100
AcDbLine
 10
3055.107737032731
 20
1484.463646316905
 30
0.0
 11
3184.70773703273
 21
1614.063646316903
 31
0.0
  0
LINE
  5
201D6
330
20122
100
AcDbEntity
  8
細線
 48
50.0
100
AcDbLine
 10
1179.160846358006
 20
1524.082215725033
 30
0.0
 11
1262.668423855536
 21
1607.589793222562
 31
0.0
  0
LINE
  5
201D7
330
20122
100
AcDbEntity
  8
細線
 48
50.0
100
AcDbLine
 10
1190.221131121522
 20
1508.201732125339
 30
0.0
 11
1262.668423855536
 21
1580.649024859354
 31
0.0
  0
LINE
  5
201D8
330
20122
100
AcDbEntity
  8
細線
 48
50.0
100
AcDbLine
 10
1070.668423855536
 20
1631.115940128222
 30
0.0
 11
1082.887847555631
 21
1643.335363828317
 31
0.0
  0
LINE
  5
201D9
330
20122
100
AcDbEntity
  8
細線
 48
50.0
100
AcDbLine
 10
1070.668423855536
 20
1577.234403401807
 30
0.0
 11
1136.769384282045
 21
1643.335363828317
 31
0.0
  0
LINE
  5
201DA
330
20122
100
AcDbEntity
  8
細線
 48
50.0
100
AcDbLine
 10
1070.668423855536
 20
1604.175171765015
 30
0.0
 11
1109.82861591884
 21
1643.335363828317
 31
0.0
  0
LINE
  5
201DB
330
20122
100
AcDbEntity
  8
部品1
 48
50.0
100
AcDbLine
 10
1070.668423855536
 20
1643.335363828317
 30
0.0
 11
1262.668423855536
 21
1643.335363828317
 31
0.0
  0
DIMENSION
  5
201DC
330
20122
100
AcDbEntity
  8
寸法
 48
50.0
100
AcDbDimension
  2
*D46
 10
1070.668423855535
 20
1963.335363828317
 30
0.0
 11
1177.894754200732
 21
2063.003171744697
 31
0.0
 12
-4170.442521674064
 22
-393.5321528115382
 32
0.0
 70
   128
  1
120\P170
 71
     5
 42
192.0
  3
INABA_S40G
100
AcDbAlignedDimension
 13
1262.668423855535
 23
1643.335363828317
 33
0.0
 14
1070.668423855535
 24
1643.335363828317
 34
0.0
100
AcDbRotatedDimension
1001
ACAD
1000
DSTYLE
1002
{
1070
   174
1070
     0
1070
   272
1070
     1
1070
   279
1070
     1
1070
   288
1070
     0
1070
   341
1005
0
1002
}
  0
MTEXT
  5
201DD
102
{ACAD_REACTORS
330
20232
102
}
330
20122
100
AcDbEntity
  8
寸法
 62
     7
 48
50.0
100
AcDbMText
 10
1504.406879716786
 20
681.9862780961639
 30
0.0
 40
80.0
 41
0.8
 71
     4
 72
     1
  1
\A1;D10@300
  7
STYLE2
 73
     1
 44
1.0
1001
ACAD
1000
MTEXTBEGIN
1070
    73
1070
     1
1070
    44
1040
1.0
1070
    74
1070
     0
1000
MTEXTEND
  0
LINE
  5
201DE
330
20122
100
AcDbEntity
  8
細線
 48
50.0
100
AcDbLine
 10
1190.668423855542
 20
1293.122877953698
 30
0.0
 11
1262.668423855529
 21
1365.122877953692
 31
0.0
  0
LINE
  5
201DF
330
20122
100
AcDbEntity
  8
細線
 48
50.0
100
AcDbLine
 10
1190.668423855536
 20
1320.063646316903
 30
0.0
 11
1262.668423855536
 21
1392.063646316903
 31
0.0
  0
LINE
  5
201E0
330
20122
100
AcDbEntity
  8
細線
 48
50.0
100
AcDbLine
 10
1190.668423855542
 20
1050.655962684828
 30
0.0
 11
1262.668423855529
 21
1122.655962684828
 31
0.0
  0
LINE
  5
201E1
330
20122
100
AcDbEntity
  8
細線
 48
50.0
100
AcDbLine
 10
1190.668423855542
 20
1104.537499411246
 30
0.0
 11
1262.668423855529
 21
1176.537499411242
 31
0.0
  0
LINE
  5
201E2
330
20122
100
AcDbEntity
  8
細線
 48
50.0
100
AcDbLine
 10
1190.668423855542
 20
1077.596731048038
 30
0.0
 11
1262.668423855529
 21
1149.596731048033
 31
0.0
  0
LINE
  5
201E3
330
20122
100
AcDbEntity
  8
部品1
 48
50.0
100
AcDbLine
 10
1262.668423855536
 20
1099.335363828317
 30
0.0
 11
1390.668423855536
 21
1099.335363828317
 31
0.0
  0
LINE
  5
201E4
330
20122
100
AcDbEntity
  8
細線
 48
50.0
100
AcDbLine
 10
1190.668423855542
 20
1266.182109590488
 30
0.0
 11
1262.668423855529
 21
1338.182109590488
 31
0.0
  0
LINE
  5
201E5
330
20122
100
AcDbEntity
  8
部品1
 48
50.0
100
AcDbLine
 10
1158.668423855536
 20
1445.462578525439
 30
0.0
 11
1158.668423855536
 21
1503.589793222562
 31
0.0
  0
LINE
  5
201E6
330
20122
100
AcDbEntity
  8
細線
 48
50.0
100
AcDbLine
 10
1070.668423855536
 20
1415.589793222562
 30
0.0
 11
1142.668423855536
 21
1487.589793222563
 31
0.0
  0
LINE
  5
201E7
330
20122
100
AcDbEntity
  8
部品1
 48
50.0
100
AcDbLine
 10
1142.668423855536
 20
1445.462578525443
 30
0.0
 11
1142.668423855536
 21
1503.589793222562
 31
0.0
  0
LINE
  5
201E8
330
20122
100
AcDbEntity
  8
細線
 48
50.0
100
AcDbLine
 10
1070.668423855536
 20
1388.649024859354
 30
0.0
 11
1142.668423855536
 21
1460.649024859354
 31
0.0
  0
LINE
  5
201E9
330
20122
100
AcDbEntity
  8
細線
 48
50.0
100
AcDbLine
 10
1070.668423855536
 20
1361.708256496147
 30
0.0
 11
1154.42274588483
 21
1445.462578525439
 31
0.0
  0
LINE
  5
201EA
330
20122
100
AcDbEntity
  8
部品1
 48
50.0
100
AcDbLine
 10
1158.668423855536
 20
1445.462578525439
 30
0.0
 11
1142.668423855536
 21
1445.462578525443
 31
0.0
  0
LINE
  5
201EB
330
20122
100
AcDbEntity
  8
細線
 48
50.0
100
AcDbLine
 10
942.668423855529
 20
1072.063646316903
 30
0.0
 11
969.9401413669502
 21
1099.335363828317
 31
0.0
  0
LINE
  5
201EC
330
20122
100
AcDbEntity
  8
細線
 48
50.0
100
AcDbLine
 10
942.668423855529
 20
1045.122877953692
 30
0.0
 11
996.880909730161
 21
1099.335363828317
 31
0.0
  0
LINE
  5
201ED
330
20122
100
AcDbEntity
  8
部品1
 48
50.0
100
AcDbLine
 10
942.6684238555363
 20
1099.335363828317
 30
0.0
 11
1070.668423855536
 21
1099.335363828317
 31
0.0
  0
LINE
  5
201EE
330
20122
100
AcDbEntity
  8
細線
 48
50.0
100
AcDbLine
 10
1158.668423855536
 20
1476.649024859354
 30
0.0
 11
1174.668423855536
 21
1492.649024859354
 31
0.0
  0
LINE
  5
201EF
330
20122
100
AcDbEntity
  8
細線
 48
50.0
100
AcDbLine
 10
1158.668423855536
 20
1449.708256496147
 30
0.0
 11
1174.668423855536
 21
1465.708256496147
 31
0.0
  0
LINE
  5
201F0
330
20122
100
AcDbEntity
  8
細線
 48
50.0
100
AcDbLine
 10
1070.668423855536
 20
1146.182109590488
 30
0.0
 11
1174.668423855542
 21
1250.182109590488
 31
0.0
  0
LINE
  5
201F1
330
20122
100
AcDbEntity
  8
細線
 48
50.0
100
AcDbLine
 10
1070.668423855536
 20
1200.063646316903
 30
0.0
 11
1174.668423855536
 21
1304.063646316903
 31
0.0
  0
LINE
  5
201F2
330
20122
100
AcDbEntity
  8
細線
 48
50.0
100
AcDbLine
 10
1070.668423855536
 20
1173.122877953695
 30
0.0
 11
1174.668423855542
 21
1277.122877953698
 31
0.0
  0
LINE
  5
201F3
330
20122
100
AcDbEntity
  8
細線
 48
50.0
100
AcDbLine
 10
1333.494069258883
 20
835.335363828317
 30
0.0
 11
1327.063288640537
 21
859.335363828317
 31
0.0
  0
LINE
  5
201F4
330
20122
100
AcDbEntity
  8
細線
 48
50.0
100
AcDbLine
 10
1376.51858208393
 20
859.335363828317
 30
0.0
 11
1390.668423855536
 21
873.4852055999235
 31
0.0
  0
LINE
  5
201F5
330
20122
100
AcDbEntity
  8
細線
 48
50.0
100
AcDbLine
 10
1412.38211420613
 20
835.335363828317
 30
0.0
 11
1405.951333587783
 21
859.335363828317
 31
0.0
  0
LINE
  5
201F6
330
20122
100
AcDbEntity
  8
部品1
 48
50.0
100
AcDbLine
 10
1334.668423855536
 20
971.3353638283169
 30
0.0
 11
1334.668423855536
 21
955.3353638283169
 31
0.0
  0
LINE
  5
201F7
330
20122
100
AcDbEntity
  8
細線
 48
50.0
100
AcDbLine
 10
1214.873971904683
 20
859.335363828317
 30
0.0
 11
1310.87485974982
 21
955.336251673456
 31
0.0
  0
LINE
  5
201F8
330
20122
100
AcDbEntity
  8
細線
 48
50.0
100
AcDbLine
 10
1187.93320354148
 20
859.335363828317
 30
0.0
 11
1283.93320354148
 21
955.3353638283169
 31
0.0
  0
LINE
  5
201F9
330
20122
100
AcDbEntity
  8
細線
 48
50.0
100
AcDbLine
 10
1254.606024311638
 20
835.335363828317
 30
0.0
 11
1248.175243693292
 21
859.335363828317
 31
0.0
  0
LINE
  5
201FA
330
20122
100
AcDbEntity
  8
細線
 48
50.0
100
AcDbLine
 10
1175.717979364392
 20
835.335363828317
 30
0.0
 11
1169.287198746045
 21
859.335363828317
 31
0.0
  0
ARC
  5
201FB
330
20122
100
AcDbEntity
  8
部品1
 48
50.0
100
AcDbCircle
 10
1166.668423855536
 20
979.335363828317
 30
0.0
 40
24.0
100
AcDbArc
 50
340.528779365495
 51
0.0
  0
CIRCLE
  5
201FC
330
20122
100
AcDbEntity
  8
部品1
 48
50.0
100
AcDbCircle
 10
1294.668423855536
 20
979.335363828317
 30
0.0
 40
8.0
  0
LINE
  5
201FD
330
20122
100
AcDbEntity
  8
細線
 48
50.0
100
AcDbLine
 10
1326.873971904683
 20
971.3353638283169
 30
0.0
 11
1390.668423855536
 21
1035.129815779168
 31
0.0
  0
LINE
  5
201FE
330
20122
100
AcDbEntity
  8
細線
 48
50.0
100
AcDbLine
 10
1463.403443140539
 20
731.3353638283151
 30
0.0
 11
1470.668423855536
 21
758.4486409727051
 31
0.0
  0
LINE
  5
201FF
330
20122
100
AcDbEntity
  8
細線
 48
50.0
100
AcDbLine
 10
1469.834223758888
 20
755.3353638283169
 30
0.0
 11
1470.668423855536
 21
752.2220866839525
 31
0.0
  0
LINE
  5
20200
330
20122
100
AcDbEntity
  8
細線
 48
50.0
100
AcDbLine
 10
1390.946178811641
 20
755.3353638283169
 30
0.0
 11
1397.376959429989
 21
731.3353638283169
 31
0.0
  0
LINE
  5
20201
330
20122
100
AcDbEntity
  8
細線
 48
50.0
100
AcDbLine
 10
1233.170088917149
 20
755.3353638283169
 30
0.0
 11
1239.600869535495
 21
731.3353638283169
 31
0.0
  0
LINE
  5
20202
330
20122
100
AcDbEntity
  8
細線
 48
50.0
100
AcDbLine
 10
1312.058133864394
 20
755.3353638283169
 30
0.0
 11
1318.488914482742
 21
731.3353638283169
 31
0.0
  0
LINE
  5
20203
330
20122
100
AcDbEntity
  8
細線
 48
50.0
100
AcDbLine
 10
1305.627353246044
 20
731.3353638283151
 30
0.0
 11
1339.924849877229
 21
859.3353638283151
 31
0.0
  0
LINE
  5
20204
330
20122
100
AcDbEntity
  8
細線
 48
50.0
100
AcDbLine
 10
1226.739308298795
 20
731.3353638283169
 30
0.0
 11
1261.036804929982
 21
859.3353638283151
 31
0.0
  0
LINE
  5
20205
330
20122
100
AcDbEntity
  8
細線
 48
50.0
100
AcDbLine
 10
1384.51539819329
 20
731.3353638283169
 30
0.0
 11
1418.812894824475
 21
859.3353638283151
 31
0.0
  0
LINE
  5
20206
330
20122
100
AcDbEntity
  8
部品1
 48
50.0
100
AcDbLine
 10
1470.66842385554
 20
859.335363828317
 30
0.0
 11
1470.66842385554
 21
731.3353638283169
 31
0.0
  0
LINE
  5
20207
330
20122
100
AcDbEntity
  8
部品1
 48
50.0
100
AcDbLine
 10
1158.668423855536
 20
1037.462578525439
 30
0.0
 11
1158.668423855536
 21
979.335363828317
 31
0.0
  0
LINE
  5
20208
330
20122
100
AcDbEntity
  8
細線
 48
50.0
100
AcDbLine
 10
1084.407056635819
 20
971.3353638283169
 30
0.0
 11
1142.668423855536
 21
1029.596731048035
 31
0.0
  0
LINE
  5
20209
330
20122
100
AcDbEntity
  8
部品1
 48
50.0
100
AcDbLine
 10
1142.668423855536
 20
1037.462578525439
 30
0.0
 11
1142.668423855536
 21
979.335363828317
 31
0.0
  0
LINE
  5
2020A
330
20122
100
AcDbEntity
  8
細線
 48
50.0
100
AcDbLine
 10
999.3478249990248
 20
859.335363828317
 30
0.0
 11
1095.347824999025
 21
955.3353638283169
 31
0.0
  0
LINE
  5
2020B
330
20122
100
AcDbEntity
  8
細線
 48
50.0
100
AcDbLine
 10
1096.82993441714
 20
835.335363828317
 30
0.0
 11
1090.399153798794
 21
859.335363828317
 31
0.0
  0
LINE
  5
2020C
330
20122
100
AcDbEntity
  8
細線
 48
50.0
100
AcDbLine
 10
1017.941889469887
 20
835.335363828317
 30
0.0
 11
1011.511108851541
 21
859.335363828317
 31
0.0
  0
ARC
  5
2020D
330
20122
100
AcDbEntity
  8
部品1
 48
50.0
100
AcDbCircle
 10
1166.668423855536
 20
979.335363828317
 30
0.0
 40
24.0
100
AcDbArc
 50
180.0
 51
199.4712206345051
  0
LINE
  5
2020E
330
20122
100
AcDbEntity
  8
細線
 48
50.0
100
AcDbLine
 10
1111.347824999025
 20
971.3353638283169
 30
0.0
 11
1142.668423855536
 21
1002.655962684828
 31
0.0
  0
CIRCLE
  5
2020F
330
20122
100
AcDbEntity
  8
部品1
 48
50.0
100
AcDbCircle
 10
1038.668423855536
 20
979.335363828317
 30
0.0
 40
8.0
  0
LINE
  5
20210
330
20122
100
AcDbEntity
  8
部品1
 48
50.0
100
AcDbLine
 10
1158.668423855536
 20
1037.462578525439
 30
0.0
 11
1142.668423855536
 21
1037.462578525439
 31
0.0
  0
LINE
  5
20211
330
20122
100
AcDbEntity
  8
細線
 48
50.0
100
AcDbLine
 10
862.6684238555363
 20
844.675284794097
 30
0.0
 11
866.5965801937318
 21
859.335363828317
 31
0.0
  0
LINE
  5
20212
330
20122
100
AcDbEntity
  8
細線
 48
50.0
100
AcDbLine
 10
939.0538445226367
 20
835.335363828317
 30
0.0
 11
932.6230639042888
 21
859.335363828317
 31
0.0
  0
LINE
  5
20213
330
20122
100
AcDbEntity
  8
部品1
 48
50.0
100
AcDbLine
 10
998.6684238555362
 20
971.3353638283169
 30
0.0
 11
998.6684238555362
 21
955.3353638283169
 31
0.0
  0
LINE
  5
20214
330
20122
100
AcDbEntity
  8
細線
 48
50.0
100
AcDbLine
 10
945.4662882726088
 20
859.335363828317
 30
0.0
 11
1041.466288272609
 21
955.3353638283169
 31
0.0
  0
LINE
  5
20215
330
20122
100
AcDbEntity
  8
細線
 48
50.0
100
AcDbLine
 10
972.4070566358195
 20
859.335363828317
 30
0.0
 11
1068.407056635819
 21
955.3353638283169
 31
0.0
  0
LINE
  5
20216
330
20122
100
AcDbEntity
  8
細線
 48
50.0
100
AcDbLine
 10
1075.393999022651
 20
755.3353638283169
 30
0.0
 11
1081.824779640997
 21
731.3353638283169
 31
0.0
  0
LINE
  5
20217
330
20122
100
AcDbEntity
  8
細線
 48
50.0
100
AcDbLine
 10
1154.282043969903
 20
755.3353638283169
 30
0.0
 11
1160.712824588249
 21
731.3353638283169
 31
0.0
  0
LINE
  5
20218
330
20122
100
AcDbEntity
  8
細線
 48
50.0
100
AcDbLine
 10
917.6179091281474
 20
755.3353638283169
 30
0.0
 11
924.0486897464935
 21
731.3353638283169
 31
0.0
  0
LINE
  5
20219
330
20122
100
AcDbEntity
  8
細線
 48
50.0
100
AcDbLine
 10
996.5059540753982
 20
755.3353638283169
 30
0.0
 11
1002.936734693746
 21
731.3353638283169
 31
0.0
  0
LINE
  5
2021A
330
20122
100
AcDbEntity
  8
部品1
 48
50.0
100
AcDbLine
 10
862.668423855538
 20
731.3353638283169
 30
0.0
 11
862.668423855538
 21
859.335363828317
 31
0.0
  0
LINE
  5
2021B
330
20122
100
AcDbEntity
  8
細線
 48
50.0
100
AcDbLine
 10
911.187128509794
 20
731.3353638283151
 30
0.0
 11
945.4846251409772
 21
859.3353638283151
 31
0.0
  0
LINE
  5
2021C
330
20122
100
AcDbEntity
  8
細線
 48
50.0
100
AcDbLine
 10
1068.963218404297
 20
731.3353638283151
 30
0.0
 11
1103.26071503548
 21
859.3353638283151
 31
0.0
  0
LINE
  5
2021D
330
20122
100
AcDbEntity
  8
細線
 48
50.0
100
AcDbLine
 10
990.0751734570521
 20
731.3353638283169
 30
0.0
 11
1024.372670088235
 21
859.335363828317
 31
0.0
  0
LINE
  5
2021E
330
20122
100
AcDbEntity
  8
細線
 48
50.0
100
AcDbLine
 10
1160.992435178269
 20
859.335363828317
 30
0.0
 11
1256.992435178269
 21
955.3353638283169
 31
0.0
  0
CIRCLE
  5
2021F
330
20122
100
AcDbEntity
  8
部品1
 48
50.0
100
AcDbCircle
 10
1166.668423855536
 20
979.335363828317
 30
0.0
 40
8.0
  0
LINE
  5
20220
330
20122
100
AcDbEntity
  8
部品1
 48
50.0
100
AcDbLine
 10
1470.66842385554
 20
859.335363828317
 30
0.0
 11
862.668423855538
 21
859.335363828317
 31
0.0
  0
LINE
  5
20221
330
20122
100
AcDbEntity
  8
部品1
 48
50.0
100
AcDbLine
 10
998.6684238555362
 20
971.3353638283169
 30
0.0
 11
1334.668423855536
 21
971.3353638283169
 31
0.0
  0
LINE
  5
20222
330
20122
100
AcDbEntity
  8
部品1
 48
50.0
100
AcDbLine
 10
998.6684238555362
 20
955.3353638283169
 30
0.0
 11
1334.668423855536
 21
955.3353638283169
 31
0.0
  0
LINE
  5
20223
330
20122
100
AcDbEntity
  8
部品1
 48
50.0
100
AcDbLine
 10
1470.66842385554
 20
731.3353638283169
 30
0.0
 11
862.668423855538
 21
731.3353638283169
 31
0.0
  0
LINE
  5
20224
330
20122
100
AcDbEntity
  8
細線
 48
50.0
100
AcDbLine
 10
1147.85126335155
 20
731.3353638283169
 30
0.0
 11
1182.148759982733
 21
859.335363828317
 31
0.0
  0
LINE
  5
20225
330
20122
100
AcDbEntity
  8
細線
 48
50.0
100
AcDbLine
 10
1158.668423855536
 20
1018.655962684828
 30
0.0
 11
1174.668423855542
 21
1034.655962684828
 31
0.0
  0
LINE
  5
20226
330
20122
100
AcDbEntity
  8
部品1
 48
50.0
100
AcDbLine
 10
1174.668423855542
 20
979.335363828317
 30
0.0
 11
1174.668423855529
 21
1503.589793222562
 31
0.0
  0
LINE
  5
20227
330
20122
100
AcDbEntity
  8
部品1
 48
50.0
100
AcDbLine
 10
1190.668423855542
 20
979.335363828317
 30
0.0
 11
1190.668423855536
 21
1503.589793222562
 31
0.0
  0
LINE
  5
20228
330
20122
100
AcDbEntity
  8
部品1
 48
50.0
100
AcDbLine
 10
1390.668423855536
 20
1099.335363828317
 30
0.0
 11
1390.668423855536
 21
859.335363828317
 31
0.0
  0
LINE
  5
20229
330
20122
100
AcDbEntity
  8
細線
 48
50.0
100
AcDbLine
 10
1272.992435178264
 20
971.3353638283169
 30
0.0
 11
1390.668423855536
 21
1089.011352505583
 31
0.0
  0
LINE
  5
2022A
330
20122
100
AcDbEntity
  8
細線
 48
50.0
100
AcDbLine
 10
1299.93320354148
 20
971.3353638283169
 30
0.0
 11
1390.668423855536
 21
1062.070584142376
 31
0.0
  0
LINE
  5
2022B
330
20122
100
AcDbEntity
  8
部品1
 48
50.0
100
AcDbLine
 10
942.6684238555363
 20
859.335363828317
 30
0.0
 11
942.6684238555363
 21
1099.335363828317
 31
0.0
  0
LINE
  5
2022C
330
20122
100
AcDbEntity
  8
細線
 48
50.0
100
AcDbLine
 10
1057.466288272609
 20
971.3353638283169
 30
0.0
 11
1174.668423855536
 21
1088.537499411242
 31
0.0
  0
LINE
  5
2022D
330
20122
100
AcDbEntity
  8
細線
 48
50.0
100
AcDbLine
 10
1150.53427133294
 20
1037.462578525439
 30
0.0
 11
1174.668423855542
 21
1061.596731048038
 31
0.0
  0
LINE
  5
2022E
330
20122
100
AcDbEntity
  8
細線
 48
50.0
100
AcDbLine
 10
942.668423855529
 20
1018.182109590488
 30
0.0
 11
1023.821678093364
 21
1099.335363828317
 31
0.0
  0
LEADER
  5
2022F
330
20122
100
AcDbEntity
  8
寸法
 48
50.0
100
AcDbLeader
  3
INABA_S50G
 71
     0
 73
     0
 74
     0
 75
     1
 40
100.0
 41
222.7272727272727
 76
     3
 10
1166.668423855535
 20
1503.589793222562
 30
0.0
 10
1200.55436088293
 20
1444.602925127245
 30
0.0
 10
1325.55436088293
 20
1444.602925127245
 30
0.0
1001
ACAD
1000
DSTYLE
1002
{
1070
    40
1040
1.0
1070
   272
1070
     1
1070
   279
1070
     1
1070
   341
1005
0
1002
}
  0
LWPOLYLINE
  5
20230
330
20122
100
AcDbEntity
  8
部品1
 48
50.0
100
AcDbPolyline
 90
        2
 70
     0
 43
8.0
 10
1262.668423855535
 20
1403.335363828318
 10
1676.808325688493
 20
1403.335363828318
  0
MTEXT
  5
20231
102
{ACAD_REACTORS
330
20233
102
}
330
20122
100
AcDbEntity
  8
寸法
 62
     7
 48
50.0
100
AcDbMText
 10
1493.99608366222
 20
943.9382948853445
 30
0.0
 40
80.0
 41
0.8
 71
     4
 72
     1
  1
D10
  7
STYLE2
 73
     1
 44
1.0
1001
ACAD
1000
MTEXTBEGIN
1070
    73
1070
     1
1070
    44
1040
1.0
1070
    74
1070
     0
1000
MTEXTEND
  0
LEADER
  5
20232
330
20122
100
AcDbEntity
  8
寸法
 48
50.0
100
AcDbLeader
  3
INABA_S50G
 71
     0
 73
     0
 74
     0
 75
     1
 40
100.0
 41
540.3409090909091
 76
     3
 10
1240.61359286871
 20
962.5948334147915
 30
0.0
 10
1359.406879716786
 20
620.9640154198941
 30
0.0
 10
1484.406879716786
 20
620.9640154198941
 30
0.0
213
0.0
223
-1.022262676269383
233
0.0
1001
ACAD
1000
DSTYLE
1002
{
1070
    40
1040
1.0
1070
   272
1070
     1
1070
   279
1070
     1
1070
   341
1005
0
1002
}
  0
LEADER
  5
20233
330
20122
100
AcDbEntity
  8
寸法
 48
50.0
100
AcDbLeader
  3
INABA_S50G
 71
     0
 73
     0
 74
     0
 75
     1
 40
100.0
 41
225.0
 76
     3
 10
1294.571376207678
 20
979.335363828317
 30
0.0
 10
1348.99608366222
 20
883.9382948853444
 30
0.0
 10
1473.99608366222
 20
883.9382948853444
 30
0.0
1001
ACAD
1000
DSTYLE
1002
{
1070
    40
1040
1.0
1070
   272
1070
     1
1070
   279
1070
     1
1070
   341
1005
0
1002
}
  0
MTEXT
  5
20234
102
{ACAD_REACTORS
330
2022F
102
}
330
20122
100
AcDbEntity
  8
寸法
 62
     7
 48
50.0
100
AcDbMText
 10
1345.55436088293
 20
1504.602925127245
 30
0.0
 40
80.0
 41
0.8
 71
     4
 72
     1
  1
D13
  7
STYLE2
 73
     1
 44
1.0
1001
ACAD
1000
MTEXTBEGIN
1070
    73
1070
     1
1070
    44
1040
1.0
1070
    74
1070
     0
1000
MTEXTEND
  0
LINE
  5
20235
330
20122
100
AcDbEntity
  8
部品1
 48
50.0
100
AcDbLine
 10
1262.668423855536
 20
1643.335363828317
 30
0.0
 11
1262.668423855536
 21
1099.335363828317
 31
0.0
  0
LINE
  5
20236
330
20122
100
AcDbEntity
  8
部品1
 48
50.0
100
AcDbLine
 10
1070.668423855536
 20
1099.335363828317
 30
0.0
 11
1070.668423855536
 21
1643.335363828317
 31
0.0
  0
CIRCLE
  5
20237
330
20122
100
AcDbEntity
  8
部品1
 48
50.0
100
AcDbCircle
 10
1166.668423855536
 20
1503.589793222562
 30
0.0
 40
8.0
  0
ARC
  5
20238
330
20122
100
AcDbEntity
  8
部品1
 48
50.0
100
AcDbCircle
 10
1166.668423855536
 20
1503.589793222562
 30
0.0
 40
24.0
100
AcDbArc
 50
0.0
 51
180.0
  0
LINE
  5
20239
330
20122
100
AcDbEntity
  8
細線
 48
50.0
100
AcDbLine
 10
1190.668423855536
 20
1481.708256496147
 30
0.0
 11
1262.668423855536
 21
1553.708256496147
 31
0.0
  0
LEADER
  5
2023A
330
20122
100
AcDbEntity
  8
寸法
 48
50.0
100
AcDbLeader
  3
INABA_S50G
 73
     0
 75
     1
 40
106.3636363636363
 41
893.1818181818181
 76
     3
 10
2902.107737032729
 20
1712.895363828318
 30
0.0
 10
2853.683664687791
 20
2086.95493854465
 30
0.0
 10
2728.683664687791
 20
2086.95493854465
 30
0.0
340
2023B
1001
ACAD
1000
DSTYLE
1002
{
1070
   341
1005
0
1070
    40
1040
1.0
1070
   343
1005
0
1070
   344
1005
0
1002
}
  0
MTEXT
  5
2023B
102
{ACAD_REACTORS
330
2023A
102
}
330
20122
100
AcDbEntity
  8
寸法
 62
     7
 48
50.0
100
AcDbMText
 10
2703.683664687791
 20
2165.136756726469
 30
0.0
 40
80.0
 41
0.8
 71
     6
 72
     1
  1
\A1;アンカープレート L
  7
STYLE2
 73
     1
 44
1.0
1001
ACAD
1000
MTEXTBEGIN
1070
    73
1070
     1
1070
    44
1040
1.0
1070
    74
1070
     0
1000
MTEXTEND
  0
DIMENSION
  5
2023C
330
20122
100
AcDbEntity
  8
寸法
 48
50.0
100
AcDbDimension
  2
*D45
 10
1390.668423855535
 20
320.9057258231569
 30
0.0
 11
1146.571665177312
 21
320.9057258231569
 31
0.0
 12
-4170.442521674064
 22
-393.5321528115382
 32
0.0
 70
   128
  1
300
 71
     5
 42
448.0
  3
INABA_S40G
100
AcDbAlignedDimension
 13
942.6684238555353
 23
731.3353638283169
 33
0.0
 14
1390.668423855535
 24
731.3353638283169
 34
0.0
100
AcDbRotatedDimension
1001
ACAD
1000
DSTYLE
1002
{
1070
   174
1070
     0
1070
   272
1070
     1
1070
   279
1070
     1
1070
   288
1070
     0
1070
   341
1005
0
1002
}
  0
MTEXT
  5
2023D
102
{ACAD_REACTORS
330
20245
102
}
330
20122
100
AcDbEntity
  8
寸法
 62
     7
 48
50.0
100
AcDbMText
 10
771.7333976603413
 20
775.8126702098807
 30
0.0
 40
80.0
 41
0.8
 71
     6
 72
     1
  1
D10
  7
STYLE2
 73
     1
 44
1.0
1001
ACAD
1000
MTEXTBEGIN
1070
    73
1070
     1
1070
    44
1040
1.0
1070
    74
1070
     0
1000
MTEXTEND
  0
MTEXT
  5
2023E
102
{ACAD_REACTORS
330
20244
102
}
330
20122
100
AcDbEntity
  8
寸法
 62
     7
 48
50.0
100
AcDbMText
 10
799.856125217776
 20
595.4965176704372
 30
0.0
 40
80.0
 41
0.8
 71
     6
 72
     1
  1
D13
  7
STYLE2
 73
     1
 44
1.0
1001
ACAD
1000
MTEXTBEGIN
1070
    73
1070
     1
1070
    44
1040
1.0
1070
    74
1070
     0
1000
MTEXTEND
  0
DIMENSION
  5
2023F
330
20122
100
AcDbEntity
  8
寸法
 48
50.0
100
AcDbDimension
  2
*D44
 10
335.6311852937943
 20
859.3353638283172
 30
0.0
 11
335.6311852937952
 21
1230.875513484318
 31
0.0
 12
-4170.442521674064
 22
-393.5321528115382
 32
0.0
 70
   128
  1
540
 71
     5
 42
784.0
  3
INABA_S40G
100
AcDbAlignedDimension
 13
1070.668423855535
 23
1643.335363828317
 33
0.0
 14
862.6684238555389
 24
859.335363828317
 34
0.0
 50
90.0
100
AcDbRotatedDimension
1001
ACAD
1000
DSTYLE
1002
{
1070
   174
1070
     0
1070
   272
1070
     1
1070
   279
1070
     1
1070
   288
1070
     0
1070
   341
1005
0
1002
}
  0
MTEXT
  5
20240
102
{ACAD_REACTORS
330
20241
102
}
330
20122
100
AcDbEntity
  8
寸法
 62
     7
 48
50.0
100
AcDbMText
 10
850.5699443722624
 20
1855.851583830359
 30
0.0
 40
80.0
 41
0.8
 71
     6
 72
     1
  1
\A1;金コテ押エ
  7
STYLE2
 73
     1
 44
1.0
1001
ACAD
1000
MTEXTBEGIN
1070
    73
1070
     1
1070
    44
1040
1.0
1070
    74
1070
     0
1000
MTEXTEND
  0
LEADER
  5
20241
330
20122
100
AcDbEntity
  8
寸法
 48
50.0
100
AcDbLeader
  3
INABA_S50G
 71
     0
 73
     0
 75
     1
 40
130.1136363636363
 41
651.1363636363636
 76
     3
 10
1150.668423855535
 20
1643.335363828317
 30
0.0
 10
1038.243843691519
 20
1783.806129284905
 30
0.0
 10
913.243843691519
 20
1783.806129284905
 30
0.0
1001
ACAD
1000
DSTYLE
1002
{
1070
    40
1040
1.0
1070
   272
1070
     1
1070
   279
1070
     1
1070
   341
1005
0
1002
}
  0
LEADER
  5
20242
330
20122
100
AcDbEntity
  8
寸法
 48
50.0
100
AcDbLeader
  3
INABA_S50G
 71
     0
 73
     0
 75
     1
 40
100.0
 41
540.3409090909091
 76
     3
 10
1174.668423855535
 20
1401.46257852544
 30
0.0
 10
1116.686187326837
 20
1179.992249984635
 30
0.0
 10
991.6861873268372
 20
1179.992249984635
 30
0.0
213
-9.732182305893367
223
-4.643716661138569
233
0.0
1001
ACAD
1000
DSTYLE
1002
{
1070
    40
1040
1.0
1070
   272
1070
     1
1070
   279
1070
     1
1070
   341
1005
0
1002
}
  0
MTEXT
  5
20243
102
{ACAD_REACTORS
330
20242
102
}
330
20122
100
AcDbEntity
  8
寸法
 62
     7
 48
50.0
100
AcDbMText
 10
981.4183696327308
 20
1244.635966645774
 30
0.0
 40
80.0
 41
0.8
 71
     6
 72
     1
  1
\A1;D10@300
  7
STYLE2
 73
     1
 44
1.0
1001
ACAD
1000
MTEXTBEGIN
1070
    73
1070
     1
1070
    44
1040
1.0
1070
    74
1070
     0
1000
MTEXTEND
  0
LEADER
  5
20244
330
20122
100
AcDbEntity
  8
寸法
 48
50.0
100
AcDbLeader
  3
INABA_S50G
 71
     0
 73
     0
 75
     1
 40
100.0
 41
222.7272727272727
 76
     3
 10
1166.668423855535
 20
979.335363828317
 30
0.0
 10
944.8561252177761
 20
535.4965176704372
 30
0.0
 10
819.8561252177761
 20
535.4965176704372
 30
0.0
1001
ACAD
1000
DSTYLE
1002
{
1070
    40
1040
1.0
1070
   272
1070
     1
1070
   279
1070
     1
1070
   341
1005
0
1002
}
  0
LEADER
  5
20245
330
20122
100
AcDbEntity
  8
寸法
 48
50.0
100
AcDbLeader
  3
INABA_S50G
 71
     0
 73
     0
 75
     1
 40
100.0
 41
225.0
 76
     3
 10
1038.571376207678
 20
979.335363828317
 30
0.0
 10
916.7333976603414
 20
715.8126702098806
 30
0.0
 10
791.7333976603413
 20
715.8126702098806
 30
0.0
1001
ACAD
1000
DSTYLE
1002
{
1070
    40
1040
1.0
1070
   272
1070
     1
1070
   279
1070
     1
1070
   341
1005
0
1002
}
  0
DIMENSION
  5
20246
330
20122
100
AcDbEntity
  8
寸法
 48
50.0
100
AcDbDimension
  2
*D43
 10
800.248110123076
 20
859.335363828317
 30
0.0
 11
800.248110123076
 21
979.335363828317
 31
0.0
 12
-4170.442521674064
 22
-393.5321528115382
 32
0.0
 70
   128
  1
150
 71
     5
 42
240.0
  3
INABA_S40G
100
AcDbAlignedDimension
 13
942.6684238555353
 23
1099.335363828317
 33
0.0
 14
862.6684238555389
 24
859.335363828317
 34
0.0
 50
90.0
100
AcDbRotatedDimension
1001
ACAD
1000
DSTYLE
1002
{
1070
   174
1070
     0
1070
   272
1070
     1
1070
   279
1070
     1
1070
   288
1070
     0
1070
   341
1005
0
1002
}
  0
TEXT
  5
20247
330
20122
100
AcDbEntity
  8
部品1
 48
50.0
100
AcDbText
 10
656.5285220225787
 20
1414.574356111572
 30
0.0
 40
80.0
  1
▽G.L
  7
STYLE2
100
AcDbText
  0
LWPOLYLINE
  5
20248
330
20122
100
AcDbEntity
  8
部品1
 48
50.0
100
AcDbPolyline
 90
        2
 70
     0
 43
8.0
 10
656.5285220225787
 20
1403.335363828318
 10
1070.668423855535
 20
1403.335363828318
  0
MTEXT
  5
20249
102
{ACAD_REACTORS
330
2024A
102
}
330
20122
100
AcDbEntity
  8
寸法
 62
     7
 48
50.0
100
AcDbMText
 10
2677.040658479433
 20
2525.821028633983
 30
0.0
 40
80.0
 41
0.8
 71
     6
 72
     1
  1
\A1;φ70スリーブ
  7
STYLE2
 73
     1
 44
1.0
1001
ACAD
1000
MTEXTBEGIN
1070
    73
1070
     1
1070
    44
1040
1.0
1070
    74
1070
     0
1000
MTEXTEND
  0
LEADER
  5
2024A
330
20122
100
AcDbEntity
  8
寸法
 48
50.0
100
AcDbLeader
  3
INABA_S50G
 73
     0
 75
     1
 40
113.1818181818182
 41
608.6363636363635
 76
     3
 10
2960.84448717078
 20
1592.851037186596
 30
0.0
 10
2827.040658479433
 20
2444.230119543074
 30
0.0
 10
2702.040658479433
 20
2444.230119543074
 30
0.0
340
20249
1001
ACAD
1000
DSTYLE
1002
{
1070
   341
1005
0
1070
    40
1040
1.0
1070
   343
1005
0
1070
   344
1005
0
1002
}
  0
LINE
  5
2024B
330
20122
100
AcDbEntity
  8
部品1
100
AcDbLine
 10
-0.0000149537272591
 20
2964.306983605162
 30
0.0
 11
-0.0000149537254401
 21
0.0000140205147545
 31
0.0
  0
LEADER
  5
2024C
330
20122
100
AcDbEntity
  8
寸法
 48
50.0
100
AcDbLeader
  3
INABA_S50G
 73
     0
 74
     0
 75
     1
 40
80.0
 41
435.0
 76
     3
 10
3001.107737032729
 20
1692.495363828317
 30
0.0
 10
3043.652199452048
 20
1842.718689981547
 30
0.0
 10
3168.652199452048
 20
1842.718689981547
 30
0.0
340
2024D
1001
ACAD
1000
DSTYLE
1002
{
1070
   341
1005
0
1070
    40
1040
1.0
1070
   343
1005
0
1070
   344
1005
0
1002
}
  0
MTEXT
  5
2024D
102
{ACAD_REACTORS
330
2024C
102
}
330
20122
100
AcDbEntity
  8
部品1
 62
     7
 48
50.0
100
AcDbMText
 10
3193.652199452048
 20
1907.718689981547
 30
0.0
 40
80.0
 41
0.8
 71
     4
 72
     1
  1
M10X160
  7
STYLE2
 73
     1
 44
1.0
1001
ACAD
1000
MTEXTBEGIN
1070
    73
1070
     1
1070
    44
1040
1.0
1070
    74
1070
     0
1000
MTEXTEND
  0
DIMENSION
  5
2024E
330
20122
100
AcDbEntity
  8
寸法
 48
50.0
100
AcDbDimension
  2
*D42
 10
3686.576336801573
 20
1643.335363828317
 30
0.0
 11
3962.6310029206
 21
1618.211406224105
 31
0.0
 12
-4170.442521674064
 22
-393.5321528115382
 32
0.0
 70
   128
  1
20～25
 71
     5
 42
52.7600000000009
  3
INABA_S40G
100
AcDbAlignedDimension
 13
2997.507737032731
 23
1696.095363828318
 33
0.0
 14
3184.70773703273
 24
1643.335363828317
 34
0.0
 50
90.0
100
AcDbRotatedDimension
1001
ACAD
1000
DSTYLE
1002
{
1070
   174
1070
     0
1070
   272
1070
     1
1070
   279
1070
     1
1070
   288
1070
     0
1070
   341
1005
0
1002
}
  0
DIMENSION
  5
2024F
330
20122
100
AcDbEntity
  8
寸法
 48
50.0
100
AcDbDimension
  2
*D41
 10
3686.576336801573
 20
1319.335363828316
 30
0.0
 11
3586.576336801573
 21
1481.335363828318
 31
0.0
 12
-4170.442521674064
 22
-393.5321528115382
 32
0.0
  1
180
 71
     5
 42
324.0000000000009
  3
INABA_S40G
100
AcDbAlignedDimension
 13
3184.70773703273
 23
1643.335363828317
 33
0.0
 14
3184.70773703273
 24
1319.335363828316
 34
0.0
 50
90.0
100
AcDbRotatedDimension
1001
ACAD
1000
DSTYLE
1002
{
1070
   174
1070
     0
1070
   272
1070
     1
1070
   279
1070
     1
1070
   288
1070
     0
1070
   341
1005
0
1002
}
  0
TEXT
  5
20250
330
20122
100
AcDbEntity
  8
部品1
 48
50.0
100
AcDbText
 10
3189.061321317158
 20
1999.214044590517
 30
0.0
 40
80.0
  1
基礎ボルト(市販品)
  7
STYLE2
100
AcDbText
  0
LWPOLYLINE
  5
20251
330
20122
100
AcDbEntity
  8
部品1
 48
50.0
100
AcDbPolyline
 90
        2
 70
     0
 43
8.0
 10
3184.70773703273
 20
1403.335363828318
 10
3478.410200432114
 20
1403.335363828318
  0
MTEXT
  5
20252
102
{ACAD_REACTORS
330
20253
102
}
330
20122
100
AcDbEntity
  8
部品1
 62
     7
 48
50.0
100
AcDbMText
 10
3223.979327401568
 20
2343.830736915577
 30
0.0
 40
80.0
 41
0.8
 71
     4
 72
     1
  1
\A1;ワッシャー(市販品)
  7
STYLE2
 73
     1
 44
1.0
1001
ACAD
1000
MTEXTBEGIN
1070
    73
1070
     1
1070
    44
1040
1.0
1070
    74
1070
     0
1000
MTEXTEND
  0
LEADER
  5
20253
330
20122
100
AcDbEntity
  8
寸法
 48
50.0
100
AcDbLeader
  3
INABA_S50G
 73
     0
 74
     0
 75
     1
 40
102.2727272727273
 41
906.8181818181818
 76
     3
 10
3032.10773703273
 20
1912.458652272596
 30
0.0
 10
3073.979327401568
 20
2267.694373279213
 30
0.0
 10
3198.979327401568
 20
2267.694373279213
 30
0.0
340
20252
1001
ACAD
1000
DSTYLE
1002
{
1070
   341
1005
0
1070
    40
1040
1.0
1070
   343
1005
0
1070
   344
1005
0
1002
}
  0
MTEXT
  5
20254
102
{ACAD_REACTORS
330
20255
102
}
330
20122
100
AcDbEntity
  8
部品1
 62
     7
 48
50.0
100
AcDbMText
 10
3192.461708146087
 20
2528.799819680365
 30
0.0
 40
80.0
 41
0.8
 71
     4
 72
     1
  1
\A1;ナット(市販品)
  7
STYLE2
 73
     1
 44
1.0
1001
ACAD
1000
MTEXTBEGIN
1070
    73
1070
     1
1070
    44
1040
1.0
1070
    74
1070
     0
1000
MTEXTEND
  0
LEADER
  5
20255
330
20122
100
AcDbEntity
  8
寸法
 48
50.0
100
AcDbLeader
  3
INABA_S50G
 73
     0
 74
     0
 75
     1
 40
102.2727272727273
 41
680.0000000000001
 76
     3
 10
3008.107737032729
 20
2042.21064493746
 30
0.0
 10
3042.461708146087
 20
2452.663456044001
 30
0.0
 10
3167.461708146087
 20
2452.663456044001
 30
0.0
340
20254
1001
ACAD
1000
DSTYLE
1002
{
1070
   341
1005
0
1070
    40
1040
1.0
1070
   343
1005
0
1070
   344
1005
0
1002
}
  0
LINE
  5
20256
330
20122
100
AcDbEntity
  8
部品1
100
AcDbLine
 10
-0.0000149537236211
 20
0.0000140205147545
 30
0.0
 11
6070.985170432523
 21
0.0000140205147545
 31
0.0
  0
LINE
  5
20257
330
20122
100
AcDbEntity
  8
部品1
100
AcDbLine
 10
6070.985170432523
 20
2724.30698360516
 30
0.0
 11
-0.0000149537254401
 21
2724.30698360516
 31
0.0
  0
LINE
  5
20258
330
20122
100
AcDbEntity
  8
部品1
100
AcDbLine
 10
6070.985170432527
 20
2964.306983605162
 30
0.0
 11
-0.0000149537290781
 21
2964.306983605161
 31
0.0
  0
ENDBLK
  5
2025A
330
20122
100
AcDbEntity
  8
0
 48
50.0
100
AcDbBlockEnd
  0
BLOCK
  5
20871
330
20867
100
AcDbEntity
  8
0
 48
50.0
100
AcDbBlockBegin
  2
*D48
 70
     1
 10
0.0
 20
0.0
 30
0.0
  3
*D48
  1

  0
LINE
  5
208B4
330
20867
100
AcDbEntity
  8
寸法
 62
     0
 48
50.0
370
    -2
100
AcDbLine
 10
8005.369134537263
 20
2156.179927910581
 30
0.0
 11
8547.237734306106
 21
2156.179927910581
 31
0.0
  0
LINE
  5
208B5
330
20867
100
AcDbEntity
  8
寸法
 62
     0
 48
50.0
370
    -2
100
AcDbLine
 10
8005.369134537263
 20
1832.179927910581
 30
0.0
 11
8547.237734306106
 21
1832.179927910581
 31
0.0
  0
LINE
  5
208B6
330
20867
100
AcDbEntity
  8
寸法
 62
     0
 48
50.0
370
    -2
100
AcDbLine
 10
8487.237734306106
 20
2156.179927910581
 30
0.0
 11
8487.237734306106
 21
1832.179927910581
 31
0.0
  0
INSERT
  5
208B7
330
20867
100
AcDbEntity
  8
寸法
 62
     0
 48
50.0
370
    -2
100
AcDbBlockReference
  2
_DOTSMALL
 10
8487.237734306106
 20
2156.179927910581
 30
0.0
 41
100.0
 42
100.0
 43
100.0
 50
90.0
  0
INSERT
  5
208B8
330
20867
100
AcDbEntity
  8
寸法
 62
     0
 48
50.0
370
    -2
100
AcDbBlockReference
  2
_DOTSMALL
 10
8487.237734306106
 20
1832.179927910581
 30
0.0
 41
100.0
 42
100.0
 43
100.0
 50
270.0
  0
MTEXT
  5
208B9
330
20867
100
AcDbEntity
  8
寸法
 62
     7
 48
50.0
100
AcDbMText
 10
8387.237734306106
 20
1994.179927910582
 30
0.0
 40
120.0
 41
0.0
 71
     5
 72
     1
  1
\A1;180
  7
STYLE1
 11
0.0000000000000001
 21
1.0
 31
0.0
 73
     1
 44
1.0
1001
ACAD
1000
MTEXTBEGIN
1070
    73
1070
     1
1070
    44
1040
1.0
1070
    74
1070
     0
1000
MTEXTEND
  0
POINT
  5
208BA
330
20867
100
AcDbEntity
  8
DEFPOINTS
 62
     0
 48
50.0
100
AcDbPoint
 10
7985.369134537262
 20
2156.179927910581
 30
0.0
  0
POINT
  5
208BB
330
20867
100
AcDbEntity
  8
DEFPOINTS
 62
     0
 48
50.0
100
AcDbPoint
 10
7985.369134537262
 20
1832.179927910581
 30
0.0
  0
POINT
  5
208BC
330
20867
100
AcDbEntity
  8
DEFPOINTS
 62
     0
 48
50.0
100
AcDbPoint
 10
8487.237734306106
 20
1832.179927910581
 30
0.0
  0
ENDBLK
  5
20872
330
20867
100
AcDbEntity
  8
0
 48
50.0
100
AcDbBlockEnd
  0
BLOCK
  5
20882
330
20873
100
AcDbEntity
  8
0
 48
50.0
100
AcDbBlockBegin
  2
*D49
 70
     1
 10
0.0
 20
0.0
 30
0.0
  3
*D49
  1

  0
LINE
  5
208BD
330
20873
100
AcDbEntity
  8
寸法
 62
     0
 48
50.0
370
    -2
100
AcDbLine
 10
7818.169134537264
 20
2208.939927910583
 30
0.0
 11
8547.237734306106
 21
2208.939927910583
 31
0.0
  0
LINE
  5
208BE
330
20873
100
AcDbEntity
  8
寸法
 62
     0
 48
50.0
370
    -2
100
AcDbLine
 10
8005.369134537263
 20
2156.179927910581
 30
0.0
 11
8547.237734306106
 21
2156.179927910581
 31
0.0
  0
LINE
  5
208BF
330
20873
100
AcDbEntity
  8
寸法
 62
     0
 48
50.0
370
    -2
100
AcDbLine
 10
8487.237734306106
 20
2208.939927910583
 30
0.0
 11
8487.237734306106
 21
2308.939927910583
 31
0.0
  0
LINE
  5
208C0
330
20873
100
AcDbEntity
  8
寸法
 62
     0
 48
50.0
370
    -2
100
AcDbLine
 10
8487.237734306106
 20
2156.179927910581
 30
0.0
 11
8487.237734306106
 21
2056.179927910582
 31
0.0
  0
LINE
  5
208C1
330
20873
100
AcDbEntity
  8
寸法
 62
     0
 48
50.0
370
    -2
100
AcDbLine
 10
8487.237734306106
 20
2182.559927910582
 30
0.0
 11
8763.292400425132
 21
2171.055970306369
 31
0.0
  0
LINE
  5
208C2
330
20873
100
AcDbEntity
  8
寸法
 62
     0
 48
50.0
370
    -2
100
AcDbLine
 10
8763.292400425132
 20
2171.055970306369
 30
0.0
 11
8763.292400425132
 21
1639.038163463403
 31
0.0
  0
MTEXT
  5
208C3
330
20873
100
AcDbEntity
  8
寸法
 62
     7
 48
50.0
100
AcDbMText
 10
8663.280589401511
 20
1905.047066884887
 30
0.0
 40
120.0
 41
0.0
 71
     5
 72
     1
  1
\A1;20～25
  7
STYLE1
 11
0.0000000000000001
 21
1.0
 31
0.0
 73
     1
 44
1.0
1001
ACAD
1000
MTEXTBEGIN
1070
    73
1070
     1
1070
    44
1040
1.0
1070
    74
1070
     0
1000
MTEXTEND
  0
LINE
  5
208C4
330
20873
100
AcDbEntity
  8
寸法
 62
     0
 48
50.0
370
    -2
100
AcDbLine
 10
8487.237734306106
 20
2208.939927910583
 30
0.0
 11
8487.237734306106
 21
2156.179927910581
 31
0.0
  0
LINE
  5
208C5
330
20873
100
AcDbEntity
  8
寸法
 62
     0
 48
50.0
370
    -2
100
AcDbLine
 10
8487.237734306106
 20
2208.939927910583
 30
0.0
 11
8487.237734306106
 21
2156.179927910581
 31
0.0
  0
INSERT
  5
208C6
330
20873
100
AcDbEntity
  8
寸法
 62
     0
 48
50.0
370
    -2
100
AcDbBlockReference
  2
_DOTSMALL
 10
8487.237734306106
 20
2208.939927910583
 30
0.0
 41
100.0
 42
100.0
 43
100.0
 50
270.0
  0
INSERT
  5
208C7
330
20873
100
AcDbEntity
  8
寸法
 62
     0
 48
50.0
370
    -2
100
AcDbBlockReference
  2
_DOTSMALL
 10
8487.237734306106
 20
2156.179927910581
 30
0.0
 41
100.0
 42
100.0
 43
100.0
 50
90.0
  0
POINT
  5
208C8
330
20873
100
AcDbEntity
  8
DEFPOINTS
 62
     0
 48
50.0
100
AcDbPoint
 10
7798.169134537264
 20
2208.939927910583
 30
0.0
  0
POINT
  5
208C9
330
20873
100
AcDbEntity
  8
DEFPOINTS
 62
     0
 48
50.0
100
AcDbPoint
 10
7985.369134537262
 20
2156.179927910581
 30
0.0
  0
POINT
  5
208CA
330
20873
100
AcDbEntity
  8
DEFPOINTS
 62
     0
 48
50.0
100
AcDbPoint
 10
8487.237734306106
 20
2156.179927910581
 30
0.0
  0
ENDBLK
  5
20883
330
20873
100
AcDbEntity
  8
0
 48
50.0
100
AcDbBlockEnd
  0
BLOCK
  5
2088E
330
20884
100
AcDbEntity
  8
0
 48
50.0
100
AcDbBlockBegin
  2
*D50
 70
     1
 10
0.0
 20
0.0
 30
0.0
  3
*D50
  1

  0
LINE
  5
208CB
330
20884
100
AcDbEntity
  8
寸法
 62
     0
 48
50.0
370
    -2
100
AcDbLine
 10
5723.329821360068
 20
1612.179927910582
 30
0.0
 11
5540.909507627609
 21
1612.179927910582
 31
0.0
  0
LINE
  5
208CC
330
20884
100
AcDbEntity
  8
寸法
 62
     0
 48
50.0
370
    -2
100
AcDbLine
 10
5643.329821360072
 20
1372.179927910581
 30
0.0
 11
5540.909507627609
 21
1372.179927910582
 31
0.0
  0
LINE
  5
208CD
330
20884
100
AcDbEntity
  8
寸法
 62
     0
 48
50.0
370
    -2
100
AcDbLine
 10
5600.909507627608
 20
1612.179927910582
 30
0.0
 11
5600.909507627608
 21
1372.179927910582
 31
0.0
  0
MTEXT
  5
208CE
330
20884
100
AcDbEntity
  8
寸法
 62
     7
 48
50.0
100
AcDbMText
 10
5500.909507627609
 20
1492.179927910582
 30
0.0
 40
120.0
 41
0.0
 71
     5
 72
     1
  1
\A1;150
  7
STYLE1
 11
0.0000000000000001
 21
1.0
 31
0.0
 73
     1
 44
1.0
1001
ACAD
1000
MTEXTBEGIN
1070
    73
1070
     1
1070
    44
1040
1.0
1070
    74
1070
     0
1000
MTEXTEND
  0
INSERT
  5
208CF
330
20884
100
AcDbEntity
  8
寸法
 62
     0
 48
50.0
370
    -2
100
AcDbBlockReference
  2
_DOTSMALL
 10
5600.909507627608
 20
1612.179927910582
 30
0.0
 41
100.0
 42
100.0
 43
100.0
 50
90.0
  0
INSERT
  5
208D0
330
20884
100
AcDbEntity
  8
寸法
 62
     0
 48
50.0
370
    -2
100
AcDbBlockReference
  2
_DOTSMALL
 10
5600.909507627608
 20
1372.179927910582
 30
0.0
 41
100.0
 42
100.0
 43
100.0
 50
270.0
  0
POINT
  5
208D1
330
20884
100
AcDbEntity
  8
DEFPOINTS
 62
     0
 48
50.0
100
AcDbPoint
 10
5743.329821360068
 20
1612.179927910582
 30
0.0
  0
POINT
  5
208D2
330
20884
100
AcDbEntity
  8
DEFPOINTS
 62
     0
 48
50.0
100
AcDbPoint
 10
5663.329821360072
 20
1372.179927910581
 30
0.0
  0
POINT
  5
208D3
330
20884
100
AcDbEntity
  8
DEFPOINTS
 62
     0
 48
50.0
100
AcDbPoint
 10
5600.909507627608
 20
1372.179927910582
 30
0.0
  0
ENDBLK
  5
2088F
330
20884
100
AcDbEntity
  8
0
 48
50.0
100
AcDbBlockEnd
  0
BLOCK
  5
2089A
330
20890
100
AcDbEntity
  8
0
 48
50.0
100
AcDbBlockBegin
  2
*D51
 70
     1
 10
0.0
 20
0.0
 30
0.0
  3
*D51
  1

  0
LINE
  5
208D4
330
20890
100
AcDbEntity
  8
寸法
 62
     0
 48
50.0
370
    -2
100
AcDbLine
 10
5851.329821360068
 20
2156.179927910581
 30
0.0
 11
5076.292582798328
 21
2156.179927910582
 31
0.0
  0
LINE
  5
208D5
330
20890
100
AcDbEntity
  8
寸法
 62
     0
 48
50.0
370
    -2
100
AcDbLine
 10
5643.329821360072
 20
1372.179927910581
 30
0.0
 11
5076.292582798327
 21
1372.179927910582
 31
0.0
  0
LINE
  5
208D6
330
20890
100
AcDbEntity
  8
寸法
 62
     0
 48
50.0
370
    -2
100
AcDbLine
 10
5136.292582798328
 20
2156.179927910581
 30
0.0
 11
5136.292582798327
 21
1372.179927910582
 31
0.0
  0
MTEXT
  5
208D7
330
20890
100
AcDbEntity
  8
寸法
 62
     7
 48
50.0
100
AcDbMText
 10
5036.292582798328
 20
1743.720077566582
 30
0.0
 40
120.0
 41
0.0
 71
     5
 72
     1
  1
\A1;540
  7
STYLE1
 11
0.0000000000000001
 21
1.0
 31
0.0
 73
     1
 44
1.0
1001
ACAD
1000
MTEXTBEGIN
1070
    73
1070
     1
1070
    44
1040
1.0
1070
    74
1070
     0
1000
MTEXTEND
  0
INSERT
  5
208D8
330
20890
100
AcDbEntity
  8
寸法
 62
     0
 48
50.0
370
    -2
100
AcDbBlockReference
  2
_DOTSMALL
 10
5136.292582798328
 20
2156.179927910581
 30
0.0
 41
100.0
 42
100.0
 43
100.0
 50
90.0
  0
INSERT
  5
208D9
330
20890
100
AcDbEntity
  8
寸法
 62
     0
 48
50.0
370
    -2
100
AcDbBlockReference
  2
_DOTSMALL
 10
5136.292582798327
 20
1372.179927910582
 30
0.0
 41
100.0
 42
100.0
 43
100.0
 50
270.0
  0
POINT
  5
208DA
330
20890
100
AcDbEntity
  8
DEFPOINTS
 62
     0
 48
50.0
100
AcDbPoint
 10
5871.329821360069
 20
2156.179927910581
 30
0.0
  0
POINT
  5
208DB
330
20890
100
AcDbEntity
  8
DEFPOINTS
 62
     0
 48
50.0
100
AcDbPoint
 10
5663.329821360072
 20
1372.179927910581
 30
0.0
  0
POINT
  5
208DC
330
20890
100
AcDbEntity
  8
DEFPOINTS
 62
     0
 48
50.0
100
AcDbPoint
 10
5136.292582798327
 20
1372.179927910582
 30
0.0
  0
ENDBLK
  5
2089B
330
20890
100
AcDbEntity
  8
0
 48
50.0
100
AcDbBlockEnd
  0
BLOCK
  5
208A6
330
2089C
100
AcDbEntity
  8
0
 48
50.0
100
AcDbBlockBegin
  2
*D52
 70
     1
 10
0.0
 20
0.0
 30
0.0
  3
*D52
  1

  0
LINE
  5
208DD
330
2089C
100
AcDbEntity
  8
寸法
 62
     0
 48
50.0
370
    -2
100
AcDbLine
 10
5743.329821360068
 20
1224.179927910582
 30
0.0
 11
5743.329821360068
 21
773.7502899054216
 31
0.0
  0
LINE
  5
208DE
330
2089C
100
AcDbEntity
  8
寸法
 62
     0
 48
50.0
370
    -2
100
AcDbLine
 10
6191.329821360068
 20
1224.179927910582
 30
0.0
 11
6191.329821360068
 21
773.7502899054216
 31
0.0
  0
LINE
  5
208DF
330
2089C
100
AcDbEntity
  8
寸法
 62
     0
 48
50.0
370
    -2
100
AcDbLine
 10
5743.329821360068
 20
833.7502899054216
 30
0.0
 11
6191.329821360068
 21
833.7502899054216
 31
0.0
  0
MTEXT
  5
208E0
330
2089C
100
AcDbEntity
  8
寸法
 62
     7
 48
50.0
100
AcDbMText
 10
5947.233062681845
 20
933.7502899054216
 30
0.0
 40
120.0
 41
0.0
 71
     5
 72
     1
  1
\A1;300
  7
STYLE1
 73
     1
 44
1.0
1001
ACAD
1000
MTEXTBEGIN
1070
    73
1070
     1
1070
    44
1040
1.0
1070
    74
1070
     0
1000
MTEXTEND
  0
INSERT
  5
208E1
330
2089C
100
AcDbEntity
  8
寸法
 62
     0
 48
50.0
370
    -2
100
AcDbBlockReference
  2
_DOTSMALL
 10
5743.329821360068
 20
833.7502899054216
 30
0.0
 41
100.0
 42
100.0
 43
100.0
 50
180.0
  0
INSERT
  5
208E2
330
2089C
100
AcDbEntity
  8
寸法
 62
     0
 48
50.0
370
    -2
100
AcDbBlockReference
  2
_DOTSMALL
 10
6191.329821360068
 20
833.7502899054216
 30
0.0
 41
100.0
 42
100.0
 43
100.0
  0
POINT
  5
208E3
330
2089C
100
AcDbEntity
  8
DEFPOINTS
 62
     0
 48
50.0
100
AcDbPoint
 10
5743.329821360068
 20
1244.179927910582
 30
0.0
  0
POINT
  5
208E4
330
2089C
100
AcDbEntity
  8
DEFPOINTS
 62
     0
 48
50.0
100
AcDbPoint
 10
6191.329821360068
 20
1244.179927910582
 30
0.0
  0
POINT
  5
208E5
330
2089C
100
AcDbEntity
  8
DEFPOINTS
 62
     0
 48
50.0
100
AcDbPoint
 10
6191.329821360068
 20
833.7502899054216
 30
0.0
  0
ENDBLK
  5
208A7
330
2089C
100
AcDbEntity
  8
0
 48
50.0
100
AcDbBlockEnd
  0
BLOCK
  5
208B2
330
208A8
100
AcDbEntity
  8
0
 48
50.0
100
AcDbBlockBegin
  2
*D53
 70
     1
 10
0.0
 20
0.0
 30
0.0
  3
*D53
  1

  0
LINE
  5
208E6
330
208A8
100
AcDbEntity
  8
寸法
 62
     0
 48
50.0
370
    -2
100
AcDbLine
 10
6063.329821360068
 20
2176.179927910582
 30
0.0
 11
6063.329821360068
 21
2536.179927910582
 31
0.0
  0
LINE
  5
208E7
330
208A8
100
AcDbEntity
  8
寸法
 62
     0
 48
50.0
370
    -2
100
AcDbLine
 10
5871.329821360069
 20
2176.179927910582
 30
0.0
 11
5871.329821360069
 21
2536.179927910582
 31
0.0
  0
LINE
  5
208E8
330
208A8
100
AcDbEntity
  8
寸法
 62
     0
 48
50.0
370
    -2
100
AcDbLine
 10
6063.329821360068
 20
2476.179927910582
 30
0.0
 11
5871.329821360069
 21
2476.179927910582
 31
0.0
  0
MTEXT
  5
208E9
330
208A8
100
AcDbEntity
  8
寸法
 62
     7
 48
50.0
100
AcDbMText
 10
5978.556151705266
 20
2775.859546850584
 30
0.0
 40
120.0
 41
0.0
 71
     5
 72
     1
  1
\A1;120\P195
  7
STYLE1
 73
     1
 44
1.0
1001
ACAD
1000
MTEXTBEGIN
1070
    73
1070
     1
1070
    44
1040
1.0
1070
    74
1070
     0
1000
MTEXTEND
  0
INSERT
  5
208EA
330
208A8
100
AcDbEntity
  8
寸法
 62
     0
 48
50.0
370
    -2
100
AcDbBlockReference
  2
_DOTSMALL
 10
6063.329821360068
 20
2476.179927910582
 30
0.0
 41
100.0
 42
100.0
 43
100.0
  0
INSERT
  5
208EB
330
208A8
100
AcDbEntity
  8
寸法
 62
     0
 48
50.0
370
    -2
100
AcDbBlockReference
  2
_DOTSMALL
 10
5871.329821360069
 20
2476.179927910582
 30
0.0
 41
100.0
 42
100.0
 43
100.0
 50
180.0
  0
POINT
  5
208EC
330
208A8
100
AcDbEntity
  8
DEFPOINTS
 62
     0
 48
50.0
100
AcDbPoint
 10
6063.329821360068
 20
2156.179927910581
 30
0.0
  0
POINT
  5
208ED
330
208A8
100
AcDbEntity
  8
DEFPOINTS
 62
     0
 48
50.0
100
AcDbPoint
 10
5871.329821360069
 20
2156.179927910581
 30
0.0
  0
POINT
  5
208EE
330
208A8
100
AcDbEntity
  8
DEFPOINTS
 62
     0
 48
50.0
100
AcDbPoint
 10
5871.329821360069
 20
2476.179927910582
 30
0.0
  0
ENDBLK
  5
208B3
330
208A8
100
AcDbEntity
  8
0
 48
50.0
100
AcDbBlockEnd
  0
ENDSEC
  0
SECTION
  2
ENTITIES
  0
MTEXT
  5
763F
330
747D
100
AcDbEntity
  8
0
100
AcDbMText
 10
302.846345836809
 20
280.1983726409901
 30
0.0
 40
3.5
 41
5.323721266742722
 71
     1
 72
     5
  1

  7
MSMINCHO
 73
     1
 44
1.0
1001
ACAD
1000
MTEXTBEGIN
1070
    73
1070
     1
1070
    44
1040
1.0
1070
    74
1070
     0
1000
MTEXTEND
  0
LINE
  5
10B57
330
747D
100
AcDbEntity
  8
補助
  6
PHANTOM
 62
   230
 48
50.0
100
AcDbLine
 10
139.9999999999995
 20
11409.6
 30
0.0
 11
16307.2
 21
11409.6
 31
0.0
  0
LINE
  5
10B59
330
747D
100
AcDbEntity
  8
仕様書枠
  6
Continuous
 48
50.0
100
AcDbLine
 10
13107.2
 20
1200.0
 30
0.0
 11
13107.2
 21
-0.0000000000000729
 31
0.0
  0
LINE
  5
10B5D
330
747D
100
AcDbEntity
  8
仕様書枠
 48
50.0
100
AcDbLine
 10
140.0
 20
0.0
 30
0.0
 11
16307.2
 21
-0.0000000000000909
 31
0.0
  0
LINE
  5
10B5E
330
747D
100
AcDbEntity
  8
補助
  6
PHANTOM
 62
   230
 48
50.0
100
AcDbLine
 10
16307.2
 20
11409.6
 30
0.0
 11
16307.2
 21
1200.0
 31
0.0
  0
LINE
  5
10B6C
330
747D
100
AcDbEntity
  8
仕様書枠
 48
50.0
100
AcDbLine
 10
13107.2
 20
1200.0
 30
0.0
 11
16307.2
 21
1200.0
 31
0.0
  0
TEXT
  5
10B73
330
747D
100
AcDbEntity
  8
文字
 62
     7
 48
50.0
100
AcDbText
 10
13162.9790565769
 20
895.0906074299405
 30
0.0
 40
200.0
  1
基 礎 図
  7
STYLE2
100
AcDbText
  0
LINE
  5
10B7B
330
747D
100
AcDbEntity
  8
仕様書枠
 48
50.0
100
AcDbLine
 10
13107.2
 20
800.0
 30
0.0
 11
14251.2
 21
800.0
 31
0.0
  0
LINE
  5
10B88
330
747D
100
AcDbEntity
  8
仕様書枠
  6
Continuous
 48
50.0
100
AcDbLine
 10
14251.2
 20
1200.0
 30
0.0
 11
14251.2
 21
800.0
 31
0.0
  0
LINE
  5
16462
330
747D
100
AcDbEntity
  8
仕様書枠
 48
50.0
100
AcDbLine
 10
16307.2
 20
1200.0
 30
0.0
 11
16307.2
 21
-0.0000000000000909
 31
0.0
  0
LINE
  5
1903B
330
747D
100
AcDbEntity
  8
補助
  6
PHANTOM
 62
   230
 48
50.0
100
AcDbLine
 10
140.0
 20
0.0
 30
0.0
 11
139.9999999999995
 21
11409.6
 31
0.0
  0
TEXT
  5
1C7A1
330
747D
100
AcDbEntity
  8
文字
 62
     7
 48
50.0
100
AcDbText
 10
13188.16259899338
 20
79.80631269190417
 30
0.0
 40
80.0
  1
※布基礎には換気口を設けてください。
  7
STYLE2
100
AcDbText
  0
TEXT
  5
1C7E7
330
747D
100
AcDbEntity
  8
文字
 62
     7
 48
50.0
100
AcDbText
 10
13188.16259899338
 20
246.7109242801889
 30
0.0
 40
80.0
  1
※寒冷地等は地域の実情に合わせた基礎にして下さい。
  7
STYLE2
100
AcDbText
  0
TEXT
  5
1C7E8
330
747D
100
AcDbEntity
  8
文字
 62
     7
 48
50.0
100
AcDbText
 10
14478.98566430227
 20
499.5983841039506
 30
0.0
 40
160.0
  1
ＮＸＮ－２５ＣＳＡ
  7
STYLE2
100
AcDbText
  0
TEXT
  5
1C7E9
330
747D
100
AcDbEntity
  8
文字
 62
     7
 48
50.0
100
AcDbText
 10
14641.2525855784
 20
871.1744590657927
 30
0.0
 40
100.0
  1
～一般型・多雪地型～
  7
STYLE2
100
AcDbText
  0
TEXT
  5
1C7EC
330
747D
100
AcDbEntity
  8
文字
 62
     7
 48
50.0
100
AcDbText
 10
14524.131837222
 20
1031.557706291229
 30
0.0
 40
100.0
  1
     <縮尺> S=1/40
  7
STYLE2
100
AcDbText
  0
TEXT
  5
1C7ED
330
747D
100
AcDbEntity
  8
文字
 62
     7
 48
50.0
100
AcDbText
 10
13201.43669998441
 20
477.2740661031257
 30
0.0
 40
160.0
  1
機種名
  7
STYLE2
100
AcDbText
  0
LINE
  5
1C7EF
330
747D
100
AcDbEntity
  8
文字
 62
     7
 48
50.0
100
AcDbLine
 10
13187.2
 20
400.0
 30
0.0
 11
16227.2
 21
400.0
 31
0.0
  0
LINE
  5
1D2D1
330
747D
100
AcDbEntity
  8
想像線
 48
10.0
100
AcDbLine
 10
8958.599999999984
 20
7717.375394111449
 30
0.0
 11
8958.599999999984
 21
5787.375394111461
 31
0.0
  0
DIMENSION
  5
1DCEF
330
747D
100
AcDbEntity
  8
寸法
 48
50.0
100
AcDbDimension
  2
*D19
 10
7006.690234351673
 20
7662.375394111461
 30
0.0
 11
6906.69023435167
 21
7212.375394111464
 31
0.0
 70
    32
 71
     5
 42
900.0
  3
INABA_S40G
100
AcDbAlignedDimension
 13
8123.600000000001
 23
6762.375394111462
 33
0.0
 14
7533.599999999999
 24
7662.375394111461
 34
0.0
 50
270.0
100
AcDbRotatedDimension
1001
ACAD
1000
DSTYLE
1002
{
1070
   341
1005
0
1002
}
  0
LINE
  5
1DCF2
330
747D
100
AcDbEntity
  8
部品1
 48
50.0
100
AcDbLine
 10
7533.600000000004
 20
7054.773595173412
 30
0.0
 11
7533.599999999999
 21
7662.375394111461
 31
0.0
  0
LINE
  5
1DCF5
102
{ACAD_REACTORS
330
200D4
102
}
330
747D
100
AcDbEntity
  8
部品1
 48
50.0
100
AcDbLine
 10
7533.600000000001
 20
5787.375394111447
 30
0.0
 11
7533.599999999999
 21
7662.375394111461
 31
0.0
  0
DIMENSION
  5
1DCF8
330
747D
100
AcDbEntity
  8
寸法
 48
50.0
100
AcDbDimension
  2
*D20
 10
6575.379677941082
 20
5862.375394111462
 30
0.0
 11
6475.379677941081
 21
6762.375394111464
 31
0.0
 70
    32
 71
     5
 42
1800.0
  3
INABA_S40G
100
AcDbAlignedDimension
 13
7533.599999999999
 23
7662.375394111461
 33
0.0
 14
7533.600000000001
 24
5862.375394111462
 34
0.0
 50
270.0
100
AcDbRotatedDimension
1001
ACAD
1000
DSTYLE
1002
{
1070
   341
1005
0
1002
}
  0
DIMENSION
  5
1DCF9
330
747D
100
AcDbEntity
  8
寸法
 48
50.0
100
AcDbDimension
  2
*D21
 10
6787.840373457917
 20
7539.375394111463
 30
0.0
 11
6687.840373457915
 21
6762.375394111464
 31
0.0
 70
    32
 71
     5
 42
1554.0
  3
INABA_S40G
100
AcDbAlignedDimension
 13
7606.600000000002
 23
5985.375394111462
 33
0.0
 14
7606.6
 24
7539.375394111463
 34
0.0
 50
270.0
100
AcDbRotatedDimension
1001
ACAD
1000
DSTYLE
1002
{
1070
   341
1005
0
1002
}
  0
DIMENSION
  5
1DCFB
330
747D
100
AcDbEntity
  8
寸法
 48
50.0
100
AcDbDimension
  2
*D22
 10
6787.840373457918
 20
7662.375394111461
 30
0.0
 11
6787.840373457917
 21
7935.48199582926
 31
0.0
 70
   160
 71
     5
 42
123.0
  3
INABA_S40G
100
AcDbAlignedDimension
 13
7606.6
 23
7539.375394111463
 33
0.0
 14
7533.599999999999
 24
7662.375394111461
 34
0.0
 50
270.0
100
AcDbRotatedDimension
1001
ACAD
1000
DSTYLE
1002
{
1070
   341
1005
0
1002
}
  0
DIMENSION
  5
1DCFD
330
747D
100
AcDbEntity
  8
寸法
 48
50.0
100
AcDbDimension
  2
*D23
 10
8913.6
 20
8433.017164835815
 30
0.0
 11
9152.085281374239
 21
8433.017164835815
 31
0.0
 70
   160
 71
     5
 42
123.0000000000018
  3
INABA_S40G
100
AcDbAlignedDimension
 13
8790.599999999999
 23
7589.375394111455
 33
0.0
 14
8913.6
 24
7662.375394111461
 34
0.0
 50
180.0
100
AcDbRotatedDimension
1001
ACAD
1000
DSTYLE
1002
{
1070
   341
1005
0
1002
}
  0
DIMENSION
  5
1DCFE
330
747D
100
AcDbEntity
  8
寸法
 48
50.0
100
AcDbDimension
  2
*D24
 10
8913.599999999998
 20
7261.573824624966
 30
0.0
 11
9191.68354327288
 21
7261.573824624966
 31
0.0
 70
   160
 71
     5
 42
120.0000000000036
  3
INABA_S40G
100
AcDbAlignedDimension
 13
8793.599999999996
 23
7432.375394111462
 33
0.0
 14
8913.599999999998
 24
7407.37539411146
 34
0.0
 50
180.0
100
AcDbRotatedDimension
1001
ACAD
1000
DSTYLE
1002
{
1070
   341
1005
0
1002
}
  0
LINE
  5
1DD01
102
{ACAD_REACTORS
330
200D4
102
}
330
747D
100
AcDbEntity
  8
部品1
 48
50.0
100
AcDbLine
 10
8913.6
 20
7662.375394111461
 30
0.0
 11
7533.599999999999
 21
7662.375394111461
 31
0.0
  0
DIMENSION
  5
1DD03
330
747D
100
AcDbEntity
  8
寸法
 48
50.0
100
AcDbDimension
  2
*D25
 10
7533.599999999999
 20
8678.509966973782
 30
0.0
 11
8223.600000000001
 21
8778.509966973784
 31
0.0
 70
    32
 71
     5
 42
1380.0
  3
INABA_S40G
100
AcDbAlignedDimension
 13
8913.6
 23
7662.375394111461
 33
0.0
 14
7533.599999999999
 24
7662.375394111461
 34
0.0
 50
180.0
100
AcDbRotatedDimension
1001
ACAD
1000
DSTYLE
1002
{
1070
   341
1005
0
1002
}
  0
DIMENSION
  5
1DD04
330
747D
100
AcDbEntity
  8
寸法
 48
50.0
100
AcDbDimension
  2
*D26
 10
8790.599999999999
 20
8433.017164835815
 30
0.0
 11
8223.599999999999
 21
8533.017164835817
 31
0.0
 70
    32
 71
     5
 42
1133.999999999998
  3
INABA_S40G
100
AcDbAlignedDimension
 13
7656.6
 23
7589.375394111463
 33
0.0
 14
8790.599999999999
 24
7589.375394111455
 34
0.0
 50
180.0
100
AcDbRotatedDimension
1001
ACAD
1000
DSTYLE
1002
{
1070
   341
1005
0
1002
}
  0
LINE
  5
1DD06
330
747D
100
AcDbEntity
  8
部品1
 48
50.0
100
AcDbLine
 10
8793.599999999996
 20
7432.375394111462
 30
0.0
 11
8683.599999999996
 21
7432.375394111462
 31
0.0
  0
DIMENSION
  5
1DD07
330
747D
100
AcDbEntity
  8
寸法
 48
50.0
100
AcDbDimension
  2
*D27
 10
8683.599999999996
 20
7261.573824624966
 30
0.0
 11
8412.843390118029
 21
7261.573824624966
 31
0.0
 70
   160
 71
     5
 42
110.0
  3
INABA_S40G
100
AcDbAlignedDimension
 13
8793.599999999996
 23
7432.375394111462
 33
0.0
 14
8683.599999999996
 24
7432.375394111462
 34
0.0
 50
180.0
100
AcDbRotatedDimension
1001
ACAD
1000
DSTYLE
1002
{
1070
   341
1005
0
1002
}
  0
LINE
  5
1DD08
102
{ACAD_REACTORS
330
200D4
102
}
330
747D
100
AcDbEntity
  8
部品1
 48
50.0
100
AcDbLine
 10
8913.599999999965
 20
5862.375394111463
 30
0.0
 11
8913.599999999989
 21
7662.375394111461
 31
0.0
  0
CIRCLE
  5
1DD0A
330
747D
100
AcDbEntity
  8
部品1
 48
50.0
100
AcDbCircle
 10
8790.599999999999
 20
7539.375394111456
 30
0.0
 40
35.0
  0
LINE
  5
1DD0B
330
747D
100
AcDbEntity
  8
センター
 48
2.0
100
AcDbLine
 10
8790.599999999999
 20
7589.375394111455
 30
0.0
 11
8790.599999999999
 21
7489.375394111455
 31
0.0
  0
LINE
  5
1DD0C
330
747D
100
AcDbEntity
  8
センター
 48
2.0
100
AcDbLine
 10
8740.599999999998
 20
7539.375394111456
 30
0.0
 11
8840.6
 21
7539.375394111456
 31
0.0
  0
LINE
  5
1DD0D
102
{ACAD_REACTORS
330
200D4
102
}
330
747D
100
AcDbEntity
  8
部品1
 48
50.0
100
AcDbLine
 10
8323.599999999991
 20
7542.375394111463
 30
0.0
 11
8323.599999999991
 21
7662.375394111461
 31
0.0
  0
LINE
  5
1DD0E
330
747D
100
AcDbEntity
  8
部品1
 48
50.0
100
AcDbLine
 10
8683.599999999996
 20
7432.375394111462
 30
0.0
 11
8683.599999999998
 21
7542.375394111463
 31
0.0
  0
DIMENSION
  5
1DD0F
330
747D
100
AcDbEntity
  8
寸法
 48
50.0
100
AcDbDimension
  2
*D28
 10
7656.6
 20
8433.017164835815
 30
0.0
 11
7220.493398282203
 21
8433.017164835815
 31
0.0
 70
   160
 71
     5
 42
123.0
  3
INABA_S40G
100
AcDbAlignedDimension
 13
7533.599999999999
 23
7662.375394111461
 33
0.0
 14
7656.6
 24
7589.375394111463
 34
0.0
 50
180.0
100
AcDbRotatedDimension
1001
ACAD
1000
DSTYLE
1002
{
1070
   341
1005
0
1002
}
  0
LINE
  5
1DD11
102
{ACAD_REACTORS
330
200D4
102
}
330
747D
100
AcDbEntity
  8
部品1
 48
50.0
100
AcDbLine
 10
8123.599999999992
 20
7542.375394111463
 30
0.0
 11
8123.599999999992
 21
7662.375394111461
 31
0.0
  0
LINE
  5
1DD12
330
747D
100
AcDbEntity
  8
部品1
 48
50.0
100
AcDbLine
 10
7763.600000000003
 20
7432.375394111464
 30
0.0
 11
7653.6
 21
7432.375394111462
 31
0.0
  0
LINE
  5
1DD13
330
747D
100
AcDbEntity
  8
部品1
 48
50.0
100
AcDbLine
 10
7763.600000000003
 20
7432.375394111464
 30
0.0
 11
7763.600000000001
 21
7542.375394111463
 31
0.0
  0
CIRCLE
  5
1DD14
330
747D
100
AcDbEntity
  8
部品1
 48
50.0
100
AcDbCircle
 10
7656.6
 20
7539.375394111461
 30
0.0
 40
35.0
  0
LINE
  5
1DD15
330
747D
100
AcDbEntity
  8
センター
 48
2.0
100
AcDbLine
 10
7606.6
 20
7539.375394111463
 30
0.0
 11
7706.6
 21
7539.375394111463
 31
0.0
  0
LINE
  5
1DD16
330
747D
100
AcDbEntity
  8
センター
 48
2.0
100
AcDbLine
 10
7656.6
 20
7589.375394111463
 30
0.0
 11
7656.6
 21
7489.375394111462
 31
0.0
  0
DIMENSION
  5
1DD17
330
747D
100
AcDbEntity
  8
寸法
 48
50.0
100
AcDbDimension
  2
*D29
 10
7006.690234351674
 20
6762.375394111462
 30
0.0
 11
7006.690234351673
 21
6291.456872105182
 31
0.0
 70
   160
 71
     5
 42
900.0
  3
INABA_S40G
100
AcDbAlignedDimension
 13
7533.600000000001
 23
5862.375394111462
 33
0.0
 14
8123.600000000001
 24
6762.375394111462
 34
0.0
 50
270.0
100
AcDbRotatedDimension
1001
ACAD
1000
DSTYLE
1002
{
1070
   341
1005
0
1002
}
  0
DIMENSION
  5
1DD19
330
747D
100
AcDbEntity
  8
寸法
 48
50.0
100
AcDbDimension
  2
*D30
 10
6787.840373457919
 20
5985.375394111462
 30
0.0
 11
6787.840373457918
 21
5589.268792393664
 31
0.0
 70
   160
 71
     5
 42
123.0
  3
INABA_S40G
100
AcDbAlignedDimension
 13
7533.600000000001
 23
5862.375394111462
 33
0.0
 14
7606.600000000002
 24
5985.375394111462
 34
0.0
 50
270.0
100
AcDbRotatedDimension
1001
ACAD
1000
DSTYLE
1002
{
1070
   341
1005
0
1002
}
  0
DIMENSION
  5
1DD22
330
747D
100
AcDbEntity
  8
寸法
 48
50.0
100
AcDbDimension
  2
*D31
 10
7992.938460046267
 20
5982.375394111461
 30
0.0
 11
7992.938460046265
 21
5548.680452907568
 31
0.0
 70
   160
 71
     5
 42
195.0
  3
INABA_S40G
100
AcDbAlignedDimension
 13
7763.600000000001
 23
5787.375394111462
 33
0.0
 14
7763.600000000001
 24
5982.375394111461
 34
0.0
 50
270.0
100
AcDbRotatedDimension
1001
ACAD
1000
DSTYLE
1002
{
1070
   341
1005
0
1002
}
  0
DIMENSION
  5
1DD24
330
747D
100
AcDbEntity
  8
寸法
 48
50.0
100
AcDbDimension
  2
*D32
 10
7533.599999999999
 20
8192.688586008065
 30
0.0
 11
7878.6
 21
8292.688586008067
 31
0.0
 70
    32
 71
     5
 42
690.0
  3
INABA_S40G
100
AcDbAlignedDimension
 13
8223.600000000001
 23
6862.375394111461
 33
0.0
 14
7533.599999999999
 24
7661.76328996857
 34
0.0
 50
180.0
100
AcDbRotatedDimension
1001
ACAD
1000
DSTYLE
1002
{
1070
   341
1005
0
1002
}
  0
LINE
  5
1DD25
330
747D
100
AcDbEntity
  8
部品1
 48
50.0
100
AcDbLine
 10
8323.600000000002
 20
6662.375394111461
 30
0.0
 11
8123.600000000001
 21
6662.375394111461
 31
0.0
  0
LINE
  5
1DD26
330
747D
100
AcDbEntity
  8
部品1
 48
50.0
100
AcDbLine
 10
8323.6
 20
6862.375394111461
 30
0.0
 11
8123.600000000001
 21
6862.375394111461
 31
0.0
  0
DIMENSION
  5
1DD2A
330
747D
100
AcDbEntity
  8
寸法
 48
50.0
100
AcDbDimension
  2
*D33
 10
7992.938460046267
 20
6092.375394111462
 30
0.0
 11
7992.938460046265
 21
6328.422638205951
 31
0.0
 70
   160
 71
     5
 42
110.0
  3
INABA_S40G
100
AcDbAlignedDimension
 13
7763.600000000001
 23
5982.375394111461
 33
0.0
 14
7763.600000000003
 24
6092.375394111462
 34
0.0
 50
270.0
100
AcDbRotatedDimension
1001
ACAD
1000
DSTYLE
1002
{
1070
   341
1005
0
1002
}
  0
DIMENSION
  5
1DD2C
330
747D
100
AcDbEntity
  8
寸法
 48
50.0
100
AcDbDimension
  2
*D34
 10
8223.600000000001
 20
8192.688586008065
 30
0.0
 11
8638.127837399094
 21
8192.688586008065
 31
0.0
 70
   160
 71
     5
 42
689.9999999999891
  3
INABA_S40G
100
AcDbAlignedDimension
 13
8913.599999999989
 23
7662.375394111461
 33
0.0
 14
8223.600000000001
 24
6862.375394111461
 34
0.0
 50
180.0
100
AcDbRotatedDimension
1001
ACAD
1000
DSTYLE
1002
{
1070
   341
1005
0
1002
}
  0
LINE
  5
1DD30
102
{ACAD_REACTORS
330
200D4
102
}
330
747D
100
AcDbEntity
  8
部品1
 48
50.0
100
AcDbLine
 10
8913.599999999979
 20
6862.375394111445
 30
0.0
 11
8793.59999999999
 21
6862.375394111444
 31
0.0
  0
LINE
  5
1DD31
102
{ACAD_REACTORS
330
200D4
102
}
330
747D
100
AcDbEntity
  8
部品1
 48
50.0
100
AcDbLine
 10
8913.599999999977
 20
6662.375394111444
 30
0.0
 11
8793.599999999988
 21
6662.375394111444
 31
0.0
  0
LINE
  5
1DD32
330
747D
100
AcDbEntity
  8
センター
 48
2.0
100
AcDbLine
 10
8223.600000000001
 20
6812.375394111461
 30
0.0
 11
8223.600000000001
 21
6712.375394111461
 31
0.0
  0
LINE
  5
1DD33
330
747D
100
AcDbEntity
  8
部品1
 48
50.0
100
AcDbLine
 10
8323.600000000002
 20
6662.375394111461
 30
0.0
 11
8323.600000000002
 21
6862.375394111461
 31
0.0
  0
LINE
  5
1DD34
330
747D
100
AcDbEntity
  8
センター
 48
2.0
100
AcDbLine
 10
8173.6
 20
6762.375394111462
 30
0.0
 11
8273.6
 21
6762.375394111462
 31
0.0
  0
LINE
  5
1DD35
330
747D
100
AcDbEntity
  8
部品1
 48
50.0
100
AcDbLine
 10
8793.599999999983
 20
6092.375394111461
 30
0.0
 11
8683.599999999984
 21
6092.375394111461
 31
0.0
  0
CIRCLE
  5
1DD36
330
747D
100
AcDbEntity
  8
部品1
 48
50.0
100
AcDbCircle
 10
8790.599999999999
 20
5985.375394111455
 30
0.0
 40
35.0
  0
LINE
  5
1DD37
330
747D
100
AcDbEntity
  8
センター
 48
2.0
100
AcDbLine
 10
8790.599999999999
 20
6035.375394111455
 30
0.0
 11
8790.599999999999
 21
5935.375394111455
 31
0.0
  0
LINE
  5
1DD39
330
747D
100
AcDbEntity
  8
センター
 48
2.0
100
AcDbLine
 10
8740.599999999998
 20
5985.375394111455
 30
0.0
 11
8840.6
 21
5985.375394111455
 31
0.0
  0
LINE
  5
1DD3A
330
747D
100
AcDbEntity
  8
部品1
 48
50.0
100
AcDbLine
 10
8683.599999999984
 20
5982.375394111461
 30
0.0
 11
8683.599999999984
 21
6092.375394111461
 31
0.0
  0
LINE
  5
1DD3B
102
{ACAD_REACTORS
330
200D4
102
}
330
747D
100
AcDbEntity
  8
部品1
 48
50.0
100
AcDbLine
 10
8323.599999999991
 20
5787.375394111457
 30
0.0
 11
8323.599999999991
 21
5982.375394111461
 31
0.0
  0
LINE
  5
1DD3C
102
{ACAD_REACTORS
330
200D4
102
}
330
747D
100
AcDbEntity
  8
部品1
 48
50.0
100
AcDbLine
 10
7653.600000000003
 20
6662.375394111461
 30
0.0
 11
7533.599999999999
 21
6662.375394111461
 31
0.0
  0
LINE
  5
1DD3D
102
{ACAD_REACTORS
330
200D4
102
}
330
747D
100
AcDbEntity
  8
部品1
 48
50.0
100
AcDbLine
 10
7653.600000000001
 20
6862.375394111461
 30
0.0
 11
7533.599999999999
 21
6862.375394111461
 31
0.0
  0
LINE
  5
1DD3F
330
747D
100
AcDbEntity
  8
部品1
 48
50.0
100
AcDbLine
 10
8123.600000000001
 20
6662.375394111461
 30
0.0
 11
8123.600000000001
 21
6862.375394111461
 31
0.0
  0
LINE
  5
1DD40
330
747D
100
AcDbEntity
  8
部品1
 48
50.0
100
AcDbLine
 10
7763.6
 20
5982.375394111461
 30
0.0
 11
7763.600000000003
 21
6092.375394111462
 31
0.0
  0
CIRCLE
  5
1DD41
330
747D
100
AcDbEntity
  8
部品1
 48
50.0
100
AcDbCircle
 10
7656.6
 20
5985.375394111461
 30
0.0
 40
35.0
  0
LINE
  5
1DD42
330
747D
100
AcDbEntity
  8
センター
 48
2.0
100
AcDbLine
 10
7656.600000000001
 20
6035.375394111461
 30
0.0
 11
7656.600000000001
 21
5935.375394111462
 31
0.0
  0
LINE
  5
1DD43
330
747D
100
AcDbEntity
  8
部品1
 48
50.0
100
AcDbLine
 10
7763.600000000003
 20
6092.375394111462
 30
0.0
 11
7653.600000000003
 21
6092.375394111462
 31
0.0
  0
LINE
  5
1DD44
102
{ACAD_REACTORS
330
200D4
102
}
330
747D
100
AcDbEntity
  8
部品1
 48
50.0
100
AcDbLine
 10
8123.599999999992
 20
5787.375394111453
 30
0.0
 11
8123.599999999992
 21
5982.375394111461
 31
0.0
  0
LINE
  5
1DD45
330
747D
100
AcDbEntity
  8
センター
 48
2.0
100
AcDbLine
 10
7606.600000000002
 20
5985.375394111462
 30
0.0
 11
7706.600000000001
 21
5985.375394111462
 31
0.0
  0
DIMENSION
  5
1E90B
330
747D
100
AcDbEntity
  8
寸法
 48
50.0
100
AcDbDimension
  2
*D35
 10
7222.886924528546
 20
5862.375394111447
 30
0.0
 11
7222.886924528546
 21
5253.890112737209
 31
0.0
 70
   160
  1
扉の出<>
 71
     5
 42
74.99999999999909
  3
INABA_S40G
100
AcDbAlignedDimension
 13
7533.600000000001
 23
5787.375394111449
 33
0.0
 14
7533.600000000001
 24
5862.375394111447
 34
0.0
 50
90.0
100
AcDbRotatedDimension
1001
ACAD
1000
DSTYLE
1002
{
1070
   341
1005
0
1002
}
  0
LINE
  5
1EC46
330
747D
100
AcDbEntity
  8
部品1
 48
50.0
100
AcDbLine
 10
8913.599999999984
 20
5787.375394111466
 30
0.0
 11
8913.599999999984
 21
5862.375394111462
 31
0.0
  0
LINE
  5
1EC47
102
{ACAD_REACTORS
330
200D4
102
}
330
747D
100
AcDbEntity
  8
部品1
 48
50.0
100
AcDbLine
 10
8913.599999999984
 20
5787.375394111464
 30
0.0
 11
7533.600000000001
 21
5787.375394111447
 31
0.0
  0
MTEXT
  5
1EDAF
330
747D
100
AcDbEntity
  8
部品1
 62
     7
 48
50.0
100
AcDbMText
 10
8594.381794195884
 20
7088.907638387965
 30
0.0
 40
120.0
 41
0.0
 71
     6
 72
     1
  1
CB
  7
STYLE1
 73
     1
 44
1.0
1001
ACAD
1000
MTEXTBEGIN
1070
    73
1070
     1
1070
    44
1040
1.0
1070
    74
1070
     0
1000
MTEXTEND
  0
LEADER
  5
1EDB1
330
747D
100
AcDbEntity
  8
寸法
 48
50.0
100
AcDbLeader
  3
INABA_S50G
 73
     0
 74
     0
 75
     1
 40
120.0
 41
994.3492424049171
 76
     3
 10
8790.680085756997
 20
7539.38911730767
 30
0.0
 10
8964.645988304964
 20
7828.347888455411
 30
0.0
 10
9089.645988304964
 20
7828.347888455411
 30
0.0
340
1EDB2
1001
ACAD
1000
DSTYLE
1002
{
1070
   341
1005
0
1070
    40
1040
1.0
1070
   343
1005
0
1070
   344
1005
0
1002
}
  0
MTEXT
  5
1EDB2
102
{ACAD_REACTORS
330
1EDB1
102
}
330
747D
100
AcDbEntity
  8
部品1
 62
     7
 48
50.0
100
AcDbMText
 10
10108.99523070988
 20
7913.347888455412
 30
0.0
 40
120.0
 41
0.0
 71
     6
 72
     1
  1
アンカーボルト
  7
STYLE1
 73
     1
 44
1.0
1001
ACAD
1000
MTEXTBEGIN
1070
    73
1070
     1
1070
    44
1040
1.0
1070
    74
1070
     0
1000
MTEXTEND
  0
DIMENSION
  5
1EDBE
330
747D
100
AcDbEntity
  8
寸法
 48
50.0
100
AcDbDimension
  2
*D39
 10
8958.6
 20
8678.509966973782
 30
0.0
 11
9229.774621202459
 21
8678.509966973782
 31
0.0
 70
   160
  1
a
 71
     5
 42
45.00000000001091
  3
INABA_S40G
100
AcDbAlignedDimension
 13
8913.599999999989
 23
7662.375394111461
 33
0.0
 14
8958.6
 24
8433.017164835815
 34
0.0
100
AcDbRotatedDimension
1001
ACAD
1000
DSTYLE
1002
{
1070
   341
1005
0
1002
}
  0
LEADER
  5
1EDEF
330
747D
100
AcDbEntity
  8
寸法
 48
50.0
100
AcDbLeader
  3
INABA_S50G
 73
     0
 74
     0
 75
     1
 40
120.0
 41
672.0
 76
     3
 10
8958.698313503424
 20
6087.399617307743
 30
0.0
 10
9074.638325695465
 20
5828.510273844167
 30
0.0
 10
9199.638325695465
 20
5828.510273844167
 30
0.0
340
1EDF0
1001
ACAD
1000
DSTYLE
1002
{
1070
   341
1005
0
1070
    40
1040
1.0
1070
   343
1005
0
1070
   344
1005
0
1002
}
  0
MTEXT
  5
1EDF0
102
{ACAD_REACTORS
330
1EDEF
102
}
330
747D
100
AcDbEntity
  8
部品1
 62
     7
 48
50.0
100
AcDbMText
 10
9896.638325695466
 20
5913.510273844167
 30
0.0
 40
120.0
 41
0.0
 71
     6
 72
     1
  1
\A1;屋根の外寸
  7
STYLE1
 73
     1
 44
1.0
1001
ACAD
1000
MTEXTBEGIN
1070
    73
1070
     1
1070
    44
1040
1.0
1070
    74
1070
     0
1000
MTEXTEND
  0
TEXT
  5
1EDF1
330
747D
100
AcDbEntity
  8
部品1
 48
50.0
100
AcDbText
 10
9098.851129706858
 20
5734.199586911092
 30
0.0
 40
80.0
  1
※a,b,cは屋根の出幅です。
  7
STYLE1
100
AcDbText
  0
TEXT
  5
1EDF2
330
747D
100
AcDbEntity
  8
部品1
 48
50.0
100
AcDbText
 10
9257.430138461161
 20
5627.354366042338
 30
0.0
 40
80.0
  1
(a=45,b=55,c=75)
  7
STYLE1
100
AcDbText
  0
MTEXT
  5
1EDF3
102
{ACAD_REACTORS
330
1EDF4
102
}
330
747D
100
AcDbEntity
  8
部品1
 62
     7
 48
50.0
100
AcDbMText
 10
9940.469074001256
 20
6572.868795868456
 30
0.0
 40
120.0
 41
0.0
 71
     6
 72
     1
  1
\A1;床下換気口
  7
STYLE1
 73
     1
 44
1.0
1001
ACAD
1000
MTEXTBEGIN
1070
    73
1070
     1
1070
    44
1040
1.0
1070
    74
1070
     0
1000
MTEXTEND
  0
LEADER
  5
1EDF4
330
747D
100
AcDbEntity
  8
寸法
 48
50.0
100
AcDbLeader
  3
INABA_S50G
 73
     0
 74
     0
 75
     1
 40
120.0
 41
720.0000000000001
 76
     3
 10
8913.695499614972
 20
6748.882709436289
 30
0.0
 10
9070.469074001255
 20
6487.868795868457
 30
0.0
 10
9195.469074001255
 20
6487.868795868457
 30
0.0
340
1EDF3
1001
ACAD
1000
DSTYLE
1002
{
1070
   341
1005
0
1070
    40
1040
1.0
1070
   343
1005
0
1070
   344
1005
0
1002
}
  0
DIMENSION
  5
1EE04
330
747D
100
AcDbEntity
  8
寸法
 48
50.0
100
AcDbDimension
  2
*D38
 10
6575.379677941082
 20
5787.375394111461
 30
0.0
 11
6475.379677941081
 21
5824.875394111463
 31
0.0
 70
    32
  1
c
 71
     5
 42
75.00000000000182
  3
INABA_S40G
100
AcDbAlignedDimension
 13
6787.840373457918
 23
5862.375394111463
 33
0.0
 14
6787.840373457919
 24
5787.375394111461
 34
0.0
 50
90.0
100
AcDbRotatedDimension
1001
ACAD
1000
DSTYLE
1002
{
1070
   341
1005
0
1002
}
  0
DIMENSION
  5
1EE06
330
747D
100
AcDbEntity
  8
寸法
 48
50.0
100
AcDbDimension
  2
*D37
 10
7533.599999999999
 20
8678.509966973782
 30
0.0
 11
7217.425378797542
 21
8678.509966973782
 31
0.0
 70
   160
  1
a
 71
     5
 42
44.99999999999817
  3
INABA_S40G
100
AcDbAlignedDimension
 13
7488.600000000002
 23
8433.017164835815
 33
0.0
 14
7533.599999999999
 24
7662.375394111461
 34
0.0
100
AcDbRotatedDimension
1001
ACAD
1000
DSTYLE
1002
{
1070
   341
1005
0
1002
}
  0
DIMENSION
  5
1EE10
330
747D
100
AcDbEntity
  8
寸法
 48
50.0
100
AcDbDimension
  2
*D36
 10
6575.37967794108
 20
7662.375394111463
 30
0.0
 11
6475.379677941079
 21
7689.875394111459
 31
0.0
 70
    32
  1
b
 71
     5
 42
54.99999999998817
  3
INABA_S40G
100
AcDbAlignedDimension
 13
6787.840373457919
 23
7717.375394111451
 33
0.0
 14
6787.840373457918
 24
7662.375394111463
 34
0.0
 50
90.0
100
AcDbRotatedDimension
1001
ACAD
1000
DSTYLE
1002
{
1070
   341
1005
0
1002
}
  0
SOLID
  5
1F65E
330
747D
100
AcDbEntity
  8
寸法
 48
50.0
100
AcDbTrace
 10
8366.158345401002
 20
6875.629216544261
 30
0.0
 11
8282.446997869088
 21
6780.490170552781
 31
0.0
 12
8330.777500888526
 22
6897.636191636152
 32
0.0
 13
8330.777500888526
 23
6897.636191636152
 33
0.0
1001
ACAD
1000
DSTYLE
1002
{
1070
   341
1005
0
1070
    40
1040
1.0
1070
   343
1005
0
1070
   344
1005
0
1002
}
  0
LWPOLYLINE
  5
1F65F
330
747D
100
AcDbEntity
  8
寸法
 48
50.0
100
AcDbPolyline
 90
        3
 70
     0
 43
0.0
 10
8348.467923144765
 20
6886.632704090208
 10
8421.413229950088
 20
7003.907638387966
 10
8620.578376394711
 20
7003.907638387966
1001
ACAD
1000
DSTYLE
1002
{
1070
   341
1005
0
1070
    40
1040
1.0
1070
   343
1005
0
1070
   344
1005
0
1002
}
  0
TEXT
  5
1F904
330
747D
100
AcDbEntity
  8
寸法
 62
     7
100
AcDbText
 10
7616.285760402144
 20
4531.943118713253
 30
0.0
 40
120.0
  1
扉の位置に合わせた基礎形状として下さい。
  7
STYLE1
100
AcDbText
  0
LWPOLYLINE
  5
1F905
330
747D
100
AcDbEntity
  8
寸法
 48
50.0
100
AcDbPolyline
 90
        3
 70
     0
 43
0.0
 10
-7840.680265711764
 20
5787.375394111461
 10
-7499.66980120939
 20
4681.278934048259
 10
-10313.73421414103
 20
4681.278934048259
210
0.0
220
0.0
230
-1.0
1001
ACAD
1000
DSTYLE
1002
{
1070
   341
1005
0
1070
    40
1040
1.0
1070
   343
1005
0
1070
   344
1005
0
1002
}
  0
SOLID
  5
1F906
330
747D
100
AcDbEntity
  8
寸法
 48
50.0
100
AcDbTrace
 10
-7823.771060041775
 20
5661.784365206575
 30
0.0
 11
-7840.680265711764
 21
5787.375394111461
 31
0.0
 12
-7783.952845568298
 22
5674.057136175484
 32
0.0
 13
-7783.952845568298
 23
5674.057136175484
 33
0.0
210
0.0
220
0.0
230
-1.0
1001
ACAD
1000
DSTYLE
1002
{
1070
   341
1005
0
1070
    40
1040
1.0
1070
   343
1005
0
1070
   344
1005
0
1002
}
  0
TEXT
  5
1F907
330
747D
100
AcDbEntity
  8
寸法
 62
     7
100
AcDbText
 10
7616.285760402144
 20
4703.546881596579
 30
0.0
 40
120.0
  1
扉位置 (1380x75)
  7
STYLE1
100
AcDbText
  0
DIMENSION
  5
1FC00
330
747D
100
AcDbEntity
  8
寸法
 48
50.0
100
AcDbDimension
  2
*D40
 10
7533.600000000001
 20
5072.511090687337
 30
0.0
 11
8223.599999999994
 21
5172.511090687336
 31
0.0
 70
    32
  1
扉の幅 <>
 71
     5
 42
1379.999999999983
  3
INABA_S40G
100
AcDbAlignedDimension
 13
8913.599999999984
 23
5787.375394111464
 33
0.0
 14
7533.600000000001
 24
5787.375394111447
 34
0.0
100
AcDbRotatedDimension
1001
ACAD
1000
DSTYLE
1002
{
1070
   341
1005
0
1002
}
  0
LINE
  5
20060
330
747D
100
AcDbEntity
  8
想像線
 48
10.0
100
AcDbLine
 10
8459.139106188294
 20
7717.375394111449
 30
0.0
 11
8958.599999999966
 21
7717.375394111449
 31
0.0
  0
LINE
  5
20061
330
747D
100
AcDbEntity
  8
想像線
 48
10.0
100
AcDbLine
 10
8459.139106188294
 20
5787.37539411146
 30
0.0
 11
8958.599999999966
 21
5787.375394111461
 31
0.0
  0
LINE
  5
20076
102
{ACAD_REACTORS
330
200D4
102
}
330
747D
100
AcDbEntity
  8
部品1
 48
50.0
100
AcDbLine
 10
8793.599999999983
 20
6092.375394111461
 30
0.0
 11
8793.599999999996
 21
7432.375394111462
 31
0.0
  0
LINE
  5
20077
102
{ACAD_REACTORS
330
200D4
102
}
330
747D
100
AcDbEntity
  8
部品1
 48
50.0
100
AcDbLine
 10
7653.600000000003
 20
6092.375394111462
 30
0.0
 11
7653.6
 21
7432.375394111462
 31
0.0
  0
LINE
  5
2007A
102
{ACAD_REACTORS
330
200D4
102
}
330
747D
100
AcDbEntity
  8
部品1
 48
50.0
100
AcDbLine
 10
8683.599999999998
 20
7542.375394111463
 30
0.0
 11
7763.600000000003
 21
7542.375394111463
 31
0.0
  0
LINE
  5
2007B
102
{ACAD_REACTORS
330
200D4
102
}
330
747D
100
AcDbEntity
  8
部品1
 48
50.0
100
AcDbLine
 10
8683.59999999998
 20
5982.375394111461
 30
0.0
 11
7763.600000000001
 21
5982.375394111461
 31
0.0
  0
HATCH
  5
200D4
330
747D
100
AcDbEntity
  8
細線
 48
50.0
100
AcDbHatch
 10
0.0
 20
0.0
 30
0.0
210
0.0
220
0.0
230
1.0
  2
LINE
 70
     0
 71
     1
 91
        4
 92
        7
 72
     0
 73
     1
 93
        4
 10
8323.599999999991
 20
7662.375394111461
 10
8123.599999999992
 20
7662.375394111461
 10
8123.599999999992
 20
7542.375394111463
 10
8323.599999999991
 20
7542.375394111463
 97
        4
330
1DD01
330
1DD11
330
2007A
330
1DD0D
 92
        7
 72
     0
 73
     1
 93
        4
 10
7653.6
 20
6862.375394111461
 10
7533.600000000001
 20
6862.375394111461
 10
7533.600000000001
 20
6662.375394111463
 10
7653.6
 20
6662.375394111461
 97
        4
330
1DD3D
330
1DCF5
330
1DD3C
330
20077
 92
        7
 72
     0
 73
     1
 93
        4
 10
8323.599999999991
 20
5982.375394111461
 10
8123.59999999999
 20
5982.375394111461
 10
8123.599999999994
 20
5787.375394111455
 10
8323.599999999991
 20
5787.375394111457
 97
        4
330
2007B
330
1DD44
330
1EC47
330
1DD3B
 92
        7
 72
     0
 73
     1
 93
        4
 10
8913.599999999979
 20
6862.375394111444
 10
8793.599999999994
 20
6862.375394111445
 10
8793.599999999988
 20
6662.375394111444
 10
8913.599999999977
 20
6662.375394111444
 97
        4
330
1DD30
330
20076
330
1DD31
330
1DD08
 75
     0
 76
     1
 52
45.0
 41
10.0
 77
     0
 78
     1
 53
45.0
 43
0.0
 44
0.0
 45
-22.45064030267288
 46
22.45064030267288
 79
     0
 47
3.59945999027575
 98
        4
 10
8291.934432191535
 20
7595.834194765405
 10
7604.117357893811
 20
6818.350843685192
 10
8169.495808320251
 20
5860.894467433867
 10
8821.301525332071
 20
6796.754070180195
  0
LINE
  5
20731
330
747D
100
AcDbEntity
  8
部品1
100
AcDbLine
 10
10871.64656793706
 20
3477.151547687427
 30
0.0
 11
4800.661382550804
 21
3477.151547687427
 31
0.0
  0
LINE
  5
20732
330
747D
100
AcDbEntity
  8
部品1
100
AcDbLine
 10
10871.64656793705
 20
3237.151547687425
 30
0.0
 11
4800.661382550807
 21
3237.151547687425
 31
0.0
  0
LINE
  5
20733
330
747D
100
AcDbEntity
  8
部品1
100
AcDbLine
 10
4800.66138255081
 20
512.8445781027794
 30
0.0
 11
10871.64656793705
 21
512.8445781027794
 31
0.0
  0
LEADER
  5
20734
330
747D
100
AcDbEntity
  8
寸法
 48
50.0
100
AcDbLeader
  3
INABA_S50G
 73
     0
 74
     0
 75
     1
 40
102.2727272727273
 41
680.0000000000001
 76
     3
 10
7808.769134537262
 20
2555.055209019724
 30
0.0
 10
7843.12310565062
 20
2965.508020126265
 30
0.0
 10
7968.12310565062
 20
2965.508020126265
 30
0.0
340
20735
1001
ACAD
1000
DSTYLE
1002
{
1070
   341
1005
0
1070
    40
1040
1.0
1070
   343
1005
0
1070
   344
1005
0
1002
}
  0
MTEXT
  5
20735
102
{ACAD_REACTORS
330
20734
102
}
330
747D
100
AcDbEntity
  8
部品1
 62
     7
 48
50.0
100
AcDbMText
 10
7993.123105650621
 20
3041.644383762629
 30
0.0
 40
80.0
 41
0.8
 71
     4
 72
     1
  1
\A1;ナット(市販品)
  7
STYLE2
 73
     1
 44
1.0
1001
ACAD
1000
MTEXTBEGIN
1070
    73
1070
     1
1070
    44
1040
1.0
1070
    74
1070
     0
1000
MTEXTEND
  0
LEADER
  5
20736
330
747D
100
AcDbEntity
  8
寸法
 48
50.0
100
AcDbLeader
  3
INABA_S50G
 73
     0
 74
     0
 75
     1
 40
102.2727272727273
 41
906.8181818181818
 76
     3
 10
7832.769134537262
 20
2425.303216354862
 30
0.0
 10
7874.6407249061
 20
2780.538937361478
 30
0.0
 10
7999.6407249061
 20
2780.538937361478
 30
0.0
340
20737
1001
ACAD
1000
DSTYLE
1002
{
1070
   341
1005
0
1070
    40
1040
1.0
1070
   343
1005
0
1070
   344
1005
0
1002
}
  0
MTEXT
  5
20737
102
{ACAD_REACTORS
330
20736
102
}
330
747D
100
AcDbEntity
  8
部品1
 62
     7
 48
50.0
100
AcDbMText
 10
8024.640724906101
 20
2856.675300997842
 30
0.0
 40
80.0
 41
0.8
 71
     4
 72
     1
  1
\A1;ワッシャー(市販品)
  7
STYLE2
 73
     1
 44
1.0
1001
ACAD
1000
MTEXTBEGIN
1070
    73
1070
     1
1070
    44
1040
1.0
1070
    74
1070
     0
1000
MTEXTEND
  0
LWPOLYLINE
  5
20738
330
747D
100
AcDbEntity
  8
部品1
 48
50.0
100
AcDbPolyline
 90
        2
 70
     0
 43
8.0
 10
7985.369134537262
 20
1916.179927910582
 10
8279.071597936647
 20
1916.179927910582
  0
TEXT
  5
20739
330
747D
100
AcDbEntity
  8
部品1
 48
50.0
100
AcDbText
 10
7989.722718821692
 20
2512.058608672782
 30
0.0
 40
80.0
  1
基礎ボルト(市販品)
  7
STYLE2
100
AcDbText
  0
DIMENSION
  5
2073A
330
747D
100
AcDbEntity
  8
寸法
 48
50.0
100
AcDbDimension
  2
*D48
 10
8487.237734306106
 20
1832.179927910581
 30
0.0
 11
8387.237734306106
 21
1994.179927910582
 31
0.0
 70
    32
  1
180
 71
     5
 42
324.0000000000009
  3
INABA_S40G
100
AcDbAlignedDimension
 13
7985.369134537262
 23
2156.179927910581
 33
0.0
 14
7985.369134537262
 24
1832.179927910581
 34
0.0
 50
90.0
100
AcDbRotatedDimension
1001
ACAD
1000
DSTYLE
1002
{
1070
   174
1070
     0
1070
   272
1070
     1
1070
   279
1070
     1
1070
   288
1070
     0
1070
   341
1005
0
1002
}
  0
DIMENSION
  5
2073B
330
747D
100
AcDbEntity
  8
寸法
 48
50.0
100
AcDbDimension
  2
*D49
 10
8487.237734306106
 20
2156.179927910581
 30
0.0
 11
8763.292400425132
 21
2131.05597030637
 31
0.0
 70
   160
  1
20～25
 71
     5
 42
52.76000000000113
  3
INABA_S40G
100
AcDbAlignedDimension
 13
7798.169134537264
 23
2208.939927910583
 33
0.0
 14
7985.369134537262
 24
2156.179927910581
 34
0.0
 50
90.0
100
AcDbRotatedDimension
1001
ACAD
1000
DSTYLE
1002
{
1070
   174
1070
     0
1070
   272
1070
     1
1070
   279
1070
     1
1070
   288
1070
     0
1070
   341
1005
0
1002
}
  0
MTEXT
  5
2073C
102
{ACAD_REACTORS
330
2073D
102
}
330
747D
100
AcDbEntity
  8
部品1
 62
     7
 48
50.0
100
AcDbMText
 10
7994.313596956581
 20
2420.563254063812
 30
0.0
 40
80.0
 41
0.8
 71
     4
 72
     1
  1
M10X160
  7
STYLE2
 73
     1
 44
1.0
1001
ACAD
1000
MTEXTBEGIN
1070
    73
1070
     1
1070
    44
1040
1.0
1070
    74
1070
     0
1000
MTEXTEND
  0
LEADER
  5
2073D
330
747D
100
AcDbEntity
  8
寸法
 48
50.0
100
AcDbLeader
  3
INABA_S50G
 73
     0
 74
     0
 75
     1
 40
80.0
 41
435.0
 76
     3
 10
7801.769134537263
 20
2205.339927910582
 30
0.0
 10
7844.313596956581
 20
2355.563254063812
 30
0.0
 10
7969.313596956581
 20
2355.563254063812
 30
0.0
340
2073C
1001
ACAD
1000
DSTYLE
1002
{
1070
   341
1005
0
1070
    40
1040
1.0
1070
   343
1005
0
1070
   344
1005
0
1002
}
  0
LINE
  5
2073E
330
747D
100
AcDbEntity
  8
部品1
100
AcDbLine
 10
4800.661382550805
 20
3477.151547687427
 30
0.0
 11
4800.661382550807
 21
512.8445781027794
 31
0.0
  0
LEADER
  5
2073F
330
747D
100
AcDbEntity
  8
寸法
 48
50.0
100
AcDbLeader
  3
INABA_S50G
 73
     0
 75
     1
 40
113.1818181818182
 41
608.6363636363635
 76
     3
 10
7761.505884675313
 20
2105.695601268861
 30
0.0
 10
7627.702055983966
 20
2957.074683625338
 30
0.0
 10
7502.702055983966
 20
2957.074683625338
 30
0.0
340
20740
1001
ACAD
1000
DSTYLE
1002
{
1070
   341
1005
0
1070
    40
1040
1.0
1070
   343
1005
0
1070
   344
1005
0
1002
}
  0
MTEXT
  5
20740
102
{ACAD_REACTORS
330
2073F
102
}
330
747D
100
AcDbEntity
  8
寸法
 62
     7
 48
50.0
100
AcDbMText
 10
7477.702055983965
 20
3038.665592716248
 30
0.0
 40
80.0
 41
0.8
 71
     6
 72
     1
  1
\A1;φ70スリーブ
  7
STYLE2
 73
     1
 44
1.0
1001
ACAD
1000
MTEXTBEGIN
1070
    73
1070
     1
1070
    44
1040
1.0
1070
    74
1070
     0
1000
MTEXTEND
  0
LWPOLYLINE
  5
20741
330
747D
100
AcDbEntity
  8
部品1
 48
50.0
100
AcDbPolyline
 90
        2
 70
     0
 43
8.0
 10
5457.189919527111
 20
1916.179927910582
 10
5871.329821360069
 20
1916.179927910582
  0
TEXT
  5
20742
330
747D
100
AcDbEntity
  8
部品1
 48
50.0
100
AcDbText
 10
5457.189919527111
 20
1927.418920193837
 30
0.0
 40
80.0
  1
▽G.L
  7
STYLE2
100
AcDbText
  0
DIMENSION
  5
20743
330
747D
100
AcDbEntity
  8
寸法
 48
50.0
100
AcDbDimension
  2
*D50
 10
5600.909507627608
 20
1372.179927910582
 30
0.0
 11
5600.909507627608
 21
1492.179927910582
 31
0.0
 70
   160
  1
150
 71
     5
 42
240.0
  3
INABA_S40G
100
AcDbAlignedDimension
 13
5743.329821360068
 23
1612.179927910582
 33
0.0
 14
5663.329821360072
 24
1372.179927910581
 34
0.0
 50
90.0
100
AcDbRotatedDimension
1001
ACAD
1000
DSTYLE
1002
{
1070
   174
1070
     0
1070
   272
1070
     1
1070
   279
1070
     1
1070
   288
1070
     0
1070
   341
1005
0
1002
}
  0
LEADER
  5
20744
330
747D
100
AcDbEntity
  8
寸法
 48
50.0
100
AcDbLeader
  3
INABA_S50G
 71
     0
 73
     0
 75
     1
 40
100.0
 41
225.0
 76
     3
 10
5839.232773712211
 20
1492.179927910582
 30
0.0
 10
5717.394795164874
 20
1228.657234292145
 30
0.0
 10
5592.394795164874
 20
1228.657234292145
 30
0.0
1001
ACAD
1000
DSTYLE
1002
{
1070
    40
1040
1.0
1070
   272
1070
     1
1070
   279
1070
     1
1070
   341
1005
0
1002
}
  0
LEADER
  5
20745
330
747D
100
AcDbEntity
  8
寸法
 48
50.0
100
AcDbLeader
  3
INABA_S50G
 71
     0
 73
     0
 75
     1
 40
100.0
 41
222.7272727272727
 76
     3
 10
5967.329821360068
 20
1492.179927910582
 30
0.0
 10
5745.517522722309
 20
1048.341081752702
 30
0.0
 10
5620.517522722309
 20
1048.341081752702
 30
0.0
1001
ACAD
1000
DSTYLE
1002
{
1070
    40
1040
1.0
1070
   272
1070
     1
1070
   279
1070
     1
1070
   341
1005
0
1002
}
  0
MTEXT
  5
20746
102
{ACAD_REACTORS
330
20747
102
}
330
747D
100
AcDbEntity
  8
寸法
 62
     7
 48
50.0
100
AcDbMText
 10
5782.079767137264
 20
1757.480530728038
 30
0.0
 40
80.0
 41
0.8
 71
     6
 72
     1
  1
\A1;D10@300
  7
STYLE2
 73
     1
 44
1.0
1001
ACAD
1000
MTEXTBEGIN
1070
    73
1070
     1
1070
    44
1040
1.0
1070
    74
1070
     0
1000
MTEXTEND
  0
LEADER
  5
20747
330
747D
100
AcDbEntity
  8
寸法
 48
50.0
100
AcDbLeader
  3
INABA_S50G
 71
     0
 73
     0
 75
     1
 40
100.0
 41
540.3409090909091
 76
     3
 10
5975.329821360069
 20
1914.307142607705
 30
0.0
 10
5917.34758483137
 20
1692.8368140669
 30
0.0
 10
5792.34758483137
 20
1692.8368140669
 30
0.0
213
-9.732182305893367
223
-4.643716661138569
233
0.0
1001
ACAD
1000
DSTYLE
1002
{
1070
    40
1040
1.0
1070
   272
1070
     1
1070
   279
1070
     1
1070
   341
1005
0
1002
}
  0
LEADER
  5
20748
330
747D
100
AcDbEntity
  8
寸法
 48
50.0
100
AcDbLeader
  3
INABA_S50G
 71
     0
 73
     0
 75
     1
 40
130.1136363636363
 41
651.1363636363636
 76
     3
 10
5951.329821360069
 20
2156.179927910581
 30
0.0
 10
5838.905241196052
 20
2296.65069336717
 30
0.0
 10
5713.905241196052
 20
2296.65069336717
 30
0.0
1001
ACAD
1000
DSTYLE
1002
{
1070
    40
1040
1.0
1070
   272
1070
     1
1070
   279
1070
     1
1070
   341
1005
0
1002
}
  0
MTEXT
  5
20749
102
{ACAD_REACTORS
330
20748
102
}
330
747D
100
AcDbEntity
  8
寸法
 62
     7
 48
50.0
100
AcDbMText
 10
5651.231341876795
 20
2368.696147912624
 30
0.0
 40
80.0
 41
0.8
 71
     6
 72
     1
  1
\A1;金コテ押エ
  7
STYLE2
 73
     1
 44
1.0
1001
ACAD
1000
MTEXTBEGIN
1070
    73
1070
     1
1070
    44
1040
1.0
1070
    74
1070
     0
1000
MTEXTEND
  0
DIMENSION
  5
2074A
330
747D
100
AcDbEntity
  8
寸法
 48
50.0
100
AcDbDimension
  2
*D51
 10
5136.292582798327
 20
1372.179927910582
 30
0.0
 11
5136.292582798328
 21
1743.720077566582
 31
0.0
 70
   160
  1
540
 71
     5
 42
784.0
  3
INABA_S40G
100
AcDbAlignedDimension
 13
5871.329821360069
 23
2156.179927910581
 33
0.0
 14
5663.329821360072
 24
1372.179927910581
 34
0.0
 50
90.0
100
AcDbRotatedDimension
1001
ACAD
1000
DSTYLE
1002
{
1070
   174
1070
     0
1070
   272
1070
     1
1070
   279
1070
     1
1070
   288
1070
     0
1070
   341
1005
0
1002
}
  0
MTEXT
  5
2074B
102
{ACAD_REACTORS
330
20745
102
}
330
747D
100
AcDbEntity
  8
寸法
 62
     7
 48
50.0
100
AcDbMText
 10
5600.517522722309
 20
1108.341081752702
 30
0.0
 40
80.0
 41
0.8
 71
     6
 72
     1
  1
D13
  7
STYLE2
 73
     1
 44
1.0
1001
ACAD
1000
MTEXTBEGIN
1070
    73
1070
     1
1070
    44
1040
1.0
1070
    74
1070
     0
1000
MTEXTEND
  0
MTEXT
  5
2074C
102
{ACAD_REACTORS
330
20744
102
}
330
747D
100
AcDbEntity
  8
寸法
 62
     7
 48
50.0
100
AcDbMText
 10
5572.394795164875
 20
1288.657234292145
 30
0.0
 40
80.0
 41
0.8
 71
     6
 72
     1
  1
D10
  7
STYLE2
 73
     1
 44
1.0
1001
ACAD
1000
MTEXTBEGIN
1070
    73
1070
     1
1070
    44
1040
1.0
1070
    74
1070
     0
1000
MTEXTEND
  0
DIMENSION
  5
2074D
330
747D
100
AcDbEntity
  8
寸法
 48
50.0
100
AcDbDimension
  2
*D52
 10
6191.329821360068
 20
833.7502899054216
 30
0.0
 11
5947.233062681845
 21
833.7502899054216
 31
0.0
 70
   160
  1
300
 71
     5
 42
448.0
  3
INABA_S40G
100
AcDbAlignedDimension
 13
5743.329821360068
 23
1244.179927910582
 33
0.0
 14
6191.329821360068
 24
1244.179927910582
 34
0.0
100
AcDbRotatedDimension
1001
ACAD
1000
DSTYLE
1002
{
1070
   174
1070
     0
1070
   272
1070
     1
1070
   279
1070
     1
1070
   288
1070
     0
1070
   341
1005
0
1002
}
  0
MTEXT
  5
2074E
102
{ACAD_REACTORS
330
2074F
102
}
330
747D
100
AcDbEntity
  8
寸法
 62
     7
 48
50.0
100
AcDbMText
 10
7504.345062192324
 20
2677.981320808734
 30
0.0
 40
80.0
 41
0.8
 71
     6
 72
     1
  1
アンカープレート {\fArial|b0|i0|c0|p32;U}
  7
STYLE2
 73
     1
 44
1.0
1001
ACAD
1000
MTEXTBEGIN
1070
    73
1070
     1
1070
    44
1040
1.0
1070
    74
1070
     0
1000
MTEXTEND
  0
LEADER
  5
2074F
330
747D
100
AcDbEntity
  8
寸法
 48
50.0
100
AcDbLeader
  3
INABA_S50G
 73
     0
 75
     1
 40
106.3636363636363
 41
903.5235024184547
 76
     3
 10
7702.769134537263
 20
2225.739927910583
 30
0.0
 10
7654.345062192324
 20
2599.799502626915
 30
0.0
 10
7529.345062192324
 20
2599.799502626915
 30
0.0
340
2074E
1001
ACAD
1000
DSTYLE
1002
{
1070
   341
1005
0
1070
    40
1040
1.0
1070
   343
1005
0
1070
   344
1005
0
1002
}
  0
LINE
  5
20750
330
747D
100
AcDbEntity
  8
細線
 48
50.0
100
AcDbLine
 10
5991.329821360069
 20
1994.552820578412
 30
0.0
 11
6063.32982136007
 21
2066.552820578412
 31
0.0
  0
ARC
  5
20751
330
747D
100
AcDbEntity
  8
部品1
 48
50.0
100
AcDbCircle
 10
5967.32982136007
 20
2016.434357304827
 30
0.0
 40
24.0
100
AcDbArc
 50
0.0
 51
180.0
  0
CIRCLE
  5
20752
330
747D
100
AcDbEntity
  8
部品1
 48
50.0
100
AcDbCircle
 10
5967.32982136007
 20
2016.434357304827
 30
0.0
 40
8.0
  0
LINE
  5
20753
330
747D
100
AcDbEntity
  8
部品1
 48
50.0
100
AcDbLine
 10
5871.329821360069
 20
1612.179927910582
 30
0.0
 11
5871.329821360069
 21
2156.179927910581
 31
0.0
  0
LINE
  5
20754
330
747D
100
AcDbEntity
  8
部品1
 48
50.0
100
AcDbLine
 10
6063.32982136007
 20
2156.179927910581
 30
0.0
 11
6063.32982136007
 21
1612.179927910582
 31
0.0
  0
MTEXT
  5
20755
102
{ACAD_REACTORS
330
2075A
102
}
330
747D
100
AcDbEntity
  8
寸法
 62
     7
 48
50.0
100
AcDbMText
 10
6146.215758387463
 20
2017.44748920951
 30
0.0
 40
80.0
 41
0.8
 71
     4
 72
     1
  1
D13
  7
STYLE2
 73
     1
 44
1.0
1001
ACAD
1000
MTEXTBEGIN
1070
    73
1070
     1
1070
    44
1040
1.0
1070
    74
1070
     0
1000
MTEXTEND
  0
LEADER
  5
20756
330
747D
100
AcDbEntity
  8
寸法
 48
50.0
100
AcDbLeader
  3
INABA_S50G
 71
     0
 73
     0
 74
     0
 75
     1
 40
100.0
 41
225.0
 76
     3
 10
6095.232773712211
 20
1492.179927910582
 30
0.0
 10
6149.657481166753
 20
1396.782858967609
 30
0.0
 10
6274.657481166753
 20
1396.782858967609
 30
0.0
1001
ACAD
1000
DSTYLE
1002
{
1070
    40
1040
1.0
1070
   272
1070
     1
1070
   279
1070
     1
1070
   341
1005
0
1002
}
  0
LEADER
  5
20757
330
747D
100
AcDbEntity
  8
寸法
 48
50.0
100
AcDbLeader
  3
INABA_S50G
 71
     0
 73
     0
 74
     0
 75
     1
 40
100.0
 41
540.3409090909091
 76
     3
 10
6041.274990373243
 20
1475.439397497056
 30
0.0
 10
6160.06827722132
 20
1133.808579502159
 30
0.0
 10
6285.06827722132
 20
1133.808579502159
 30
0.0
213
0.0
223
-1.022262676269383
233
0.0
1001
ACAD
1000
DSTYLE
1002
{
1070
    40
1040
1.0
1070
   272
1070
     1
1070
   279
1070
     1
1070
   341
1005
0
1002
}
  0
MTEXT
  5
20758
102
{ACAD_REACTORS
330
20756
102
}
330
747D
100
AcDbEntity
  8
寸法
 62
     7
 48
50.0
100
AcDbMText
 10
6294.657481166753
 20
1456.782858967609
 30
0.0
 40
80.0
 41
0.8
 71
     4
 72
     1
  1
D10
  7
STYLE2
 73
     1
 44
1.0
1001
ACAD
1000
MTEXTBEGIN
1070
    73
1070
     1
1070
    44
1040
1.0
1070
    74
1070
     0
1000
MTEXTEND
  0
LWPOLYLINE
  5
20759
330
747D
100
AcDbEntity
  8
部品1
 48
50.0
100
AcDbPolyline
 90
        2
 70
     0
 43
8.0
 10
6063.329821360068
 20
1916.179927910582
 10
6477.469723193026
 20
1916.179927910582
  0
LEADER
  5
2075A
330
747D
100
AcDbEntity
  8
寸法
 48
50.0
100
AcDbLeader
  3
INABA_S50G
 71
     0
 73
     0
 74
     0
 75
     1
 40
100.0
 41
222.7272727272727
 76
     3
 10
5967.329821360068
 20
2016.434357304827
 30
0.0
 10
6001.215758387463
 20
1957.44748920951
 30
0.0
 10
6126.215758387463
 20
1957.44748920951
 30
0.0
1001
ACAD
1000
DSTYLE
1002
{
1070
    40
1040
1.0
1070
   272
1070
     1
1070
   279
1070
     1
1070
   341
1005
0
1002
}
  0
LINE
  5
2075B
330
747D
100
AcDbEntity
  8
細線
 48
50.0
100
AcDbLine
 10
5743.329821360062
 20
1531.026673672753
 30
0.0
 11
5824.483075597897
 21
1612.179927910582
 31
0.0
  0
LINE
  5
2075C
330
747D
100
AcDbEntity
  8
細線
 48
50.0
100
AcDbLine
 10
5951.195668837473
 20
1550.307142607704
 30
0.0
 11
5975.329821360075
 21
1574.441295130303
 31
0.0
  0
LINE
  5
2075D
330
747D
100
AcDbEntity
  8
細線
 48
50.0
100
AcDbLine
 10
5858.127685777142
 20
1484.179927910582
 30
0.0
 11
5975.32982136007
 21
1601.382063493507
 31
0.0
  0
LINE
  5
2075E
330
747D
100
AcDbEntity
  8
部品1
 48
50.0
100
AcDbLine
 10
5743.329821360069
 20
1372.179927910581
 30
0.0
 11
5743.329821360069
 21
1612.179927910582
 31
0.0
  0
LINE
  5
2075F
330
747D
100
AcDbEntity
  8
細線
 48
50.0
100
AcDbLine
 10
6100.594601046013
 20
1484.179927910582
 30
0.0
 11
6191.329821360069
 21
1574.915148224641
 31
0.0
  0
LINE
  5
20760
330
747D
100
AcDbEntity
  8
細線
 48
50.0
100
AcDbLine
 10
6073.653832682797
 20
1484.179927910582
 30
0.0
 11
6191.329821360069
 21
1601.855916587848
 31
0.0
  0
LINE
  5
20761
330
747D
100
AcDbEntity
  8
部品1
 48
50.0
100
AcDbLine
 10
6191.329821360069
 20
1612.179927910582
 30
0.0
 11
6191.329821360069
 21
1372.179927910581
 31
0.0
  0
LINE
  5
20762
330
747D
100
AcDbEntity
  8
部品1
 48
50.0
100
AcDbLine
 10
5991.329821360075
 20
1492.179927910582
 30
0.0
 11
5991.329821360069
 21
2016.434357304827
 31
0.0
  0
LINE
  5
20763
330
747D
100
AcDbEntity
  8
部品1
 48
50.0
100
AcDbLine
 10
5975.329821360075
 20
1492.179927910582
 30
0.0
 11
5975.329821360062
 21
2016.434357304827
 31
0.0
  0
LINE
  5
20764
330
747D
100
AcDbEntity
  8
細線
 48
50.0
100
AcDbLine
 10
5959.329821360069
 20
1531.500526767093
 30
0.0
 11
5975.329821360075
 21
1547.500526767093
 31
0.0
  0
LINE
  5
20765
330
747D
100
AcDbEntity
  8
細線
 48
50.0
100
AcDbLine
 10
5948.512660856083
 20
1244.179927910582
 30
0.0
 11
5982.810157487266
 21
1372.179927910581
 31
0.0
  0
LINE
  5
20766
330
747D
100
AcDbEntity
  8
部品1
 48
50.0
100
AcDbLine
 10
6271.329821360072
 20
1244.179927910582
 30
0.0
 11
5663.329821360071
 21
1244.179927910582
 31
0.0
  0
LINE
  5
20767
330
747D
100
AcDbEntity
  8
部品1
 48
50.0
100
AcDbLine
 10
5799.329821360069
 20
1468.179927910582
 30
0.0
 11
6135.32982136007
 21
1468.179927910582
 31
0.0
  0
LINE
  5
20768
330
747D
100
AcDbEntity
  8
部品1
 48
50.0
100
AcDbLine
 10
5799.329821360069
 20
1484.179927910582
 30
0.0
 11
6135.32982136007
 21
1484.179927910582
 31
0.0
  0
LINE
  5
20769
330
747D
100
AcDbEntity
  8
部品1
 48
50.0
100
AcDbLine
 10
6271.329821360072
 20
1372.179927910581
 30
0.0
 11
5663.329821360071
 21
1372.179927910581
 31
0.0
  0
CIRCLE
  5
2076A
330
747D
100
AcDbEntity
  8
部品1
 48
50.0
100
AcDbCircle
 10
5967.32982136007
 20
1492.179927910582
 30
0.0
 40
8.0
  0
LINE
  5
2076B
330
747D
100
AcDbEntity
  8
細線
 48
50.0
100
AcDbLine
 10
5961.653832682802
 20
1372.179927910581
 30
0.0
 11
6057.653832682802
 21
1468.179927910582
 31
0.0
  0
LINE
  5
2076C
330
747D
100
AcDbEntity
  8
細線
 48
50.0
100
AcDbLine
 10
5790.736570961585
 20
1244.179927910582
 30
0.0
 11
5825.034067592768
 21
1372.179927910581
 31
0.0
  0
LINE
  5
2076D
330
747D
100
AcDbEntity
  8
細線
 48
50.0
100
AcDbLine
 10
5869.62461590883
 20
1244.17992791058
 30
0.0
 11
5903.922112540014
 21
1372.17992791058
 31
0.0
  0
LINE
  5
2076E
330
747D
100
AcDbEntity
  8
細線
 48
50.0
100
AcDbLine
 10
5711.848526014327
 20
1244.17992791058
 30
0.0
 11
5746.14602264551
 21
1372.17992791058
 31
0.0
  0
LINE
  5
2076F
330
747D
100
AcDbEntity
  8
部品1
 48
50.0
100
AcDbLine
 10
5663.329821360071
 20
1244.179927910582
 30
0.0
 11
5663.329821360071
 21
1372.179927910581
 31
0.0
  0
LINE
  5
20770
330
747D
100
AcDbEntity
  8
細線
 48
50.0
100
AcDbLine
 10
5797.167351579931
 20
1268.179927910582
 30
0.0
 11
5803.598132198279
 21
1244.179927910582
 31
0.0
  0
LINE
  5
20771
330
747D
100
AcDbEntity
  8
細線
 48
50.0
100
AcDbLine
 10
5718.27930663268
 20
1268.179927910582
 30
0.0
 11
5724.710087251026
 21
1244.179927910582
 31
0.0
  0
LINE
  5
20772
330
747D
100
AcDbEntity
  8
細線
 48
50.0
100
AcDbLine
 10
5954.943441474437
 20
1268.179927910582
 30
0.0
 11
5961.374222092782
 21
1244.179927910582
 31
0.0
  0
LINE
  5
20773
330
747D
100
AcDbEntity
  8
細線
 48
50.0
100
AcDbLine
 10
5876.055396527184
 20
1268.179927910582
 30
0.0
 11
5882.48617714553
 21
1244.179927910582
 31
0.0
  0
LINE
  5
20774
330
747D
100
AcDbEntity
  8
細線
 48
50.0
100
AcDbLine
 10
5773.068454140353
 20
1372.179927910581
 30
0.0
 11
5869.068454140353
 21
1468.179927910582
 31
0.0
  0
LINE
  5
20775
330
747D
100
AcDbEntity
  8
細線
 48
50.0
100
AcDbLine
 10
5746.127685777142
 20
1372.179927910581
 30
0.0
 11
5842.127685777142
 21
1468.179927910582
 31
0.0
  0
LINE
  5
20776
330
747D
100
AcDbEntity
  8
部品1
 48
50.0
100
AcDbLine
 10
5799.329821360069
 20
1484.179927910582
 30
0.0
 11
5799.329821360069
 21
1468.179927910582
 31
0.0
  0
LINE
  5
20777
330
747D
100
AcDbEntity
  8
細線
 48
50.0
100
AcDbLine
 10
5739.71524202717
 20
1348.179927910581
 30
0.0
 11
5733.284461408821
 21
1372.179927910581
 31
0.0
  0
LINE
  5
20778
330
747D
100
AcDbEntity
  8
細線
 48
50.0
100
AcDbLine
 10
5663.329821360069
 20
1357.519848876362
 30
0.0
 11
5667.257977698265
 21
1372.179927910581
 31
0.0
  0
LINE
  5
20779
330
747D
100
AcDbEntity
  8
部品1
 48
50.0
100
AcDbLine
 10
5959.329821360069
 20
1550.307142607704
 30
0.0
 11
5943.32982136007
 21
1550.307142607704
 31
0.0
  0
CIRCLE
  5
2077A
330
747D
100
AcDbEntity
  8
部品1
 48
50.0
100
AcDbCircle
 10
5839.329821360069
 20
1492.179927910582
 30
0.0
 40
8.0
  0
LINE
  5
2077B
330
747D
100
AcDbEntity
  8
細線
 48
50.0
100
AcDbLine
 10
5912.009222503558
 20
1484.179927910582
 30
0.0
 11
5943.32982136007
 21
1515.500526767093
 31
0.0
  0
ARC
  5
2077C
330
747D
100
AcDbEntity
  8
部品1
 48
50.0
100
AcDbCircle
 10
5967.32982136007
 20
1492.179927910582
 30
0.0
 40
24.0
100
AcDbArc
 50
180.0
 51
199.4712206344897
  0
LINE
  5
2077D
330
747D
100
AcDbEntity
  8
細線
 48
50.0
100
AcDbLine
 10
5818.60328697442
 20
1348.179927910581
 30
0.0
 11
5812.172506356074
 21
1372.179927910581
 31
0.0
  0
LINE
  5
2077E
330
747D
100
AcDbEntity
  8
細線
 48
50.0
100
AcDbLine
 10
5897.491331921673
 20
1348.179927910581
 30
0.0
 11
5891.060551303326
 21
1372.179927910581
 31
0.0
  0
LINE
  5
2077F
330
747D
100
AcDbEntity
  8
細線
 48
50.0
100
AcDbLine
 10
5800.009222503557
 20
1372.179927910581
 30
0.0
 11
5896.009222503558
 21
1468.179927910582
 31
0.0
  0
LINE
  5
20780
330
747D
100
AcDbEntity
  8
部品1
 48
50.0
100
AcDbLine
 10
5943.32982136007
 20
1550.307142607704
 30
0.0
 11
5943.32982136007
 21
1492.179927910582
 31
0.0
  0
LINE
  5
20781
330
747D
100
AcDbEntity
  8
細線
 48
50.0
100
AcDbLine
 10
5885.068454140352
 20
1484.179927910582
 30
0.0
 11
5943.32982136007
 21
1542.4412951303
 31
0.0
  0
LINE
  5
20782
330
747D
100
AcDbEntity
  8
部品1
 48
50.0
100
AcDbLine
 10
5959.329821360069
 20
1550.307142607704
 30
0.0
 11
5959.329821360069
 21
1492.179927910582
 31
0.0
  0
LINE
  5
20783
330
747D
100
AcDbEntity
  8
部品1
 48
50.0
100
AcDbLine
 10
6271.329821360072
 20
1372.179927910581
 30
0.0
 11
6271.329821360072
 21
1244.179927910582
 31
0.0
  0
LINE
  5
20784
330
747D
100
AcDbEntity
  8
細線
 48
50.0
100
AcDbLine
 10
6185.176795697823
 20
1244.179927910582
 30
0.0
 11
6219.474292329008
 21
1372.17992791058
 31
0.0
  0
LINE
  5
20785
330
747D
100
AcDbEntity
  8
細線
 48
50.0
100
AcDbLine
 10
6027.400705803328
 20
1244.179927910582
 30
0.0
 11
6061.698202434516
 21
1372.17992791058
 31
0.0
  0
LINE
  5
20786
330
747D
100
AcDbEntity
  8
細線
 48
50.0
100
AcDbLine
 10
6106.288750750578
 20
1244.17992791058
 30
0.0
 11
6140.586247381762
 21
1372.17992791058
 31
0.0
  0
LINE
  5
20787
330
747D
100
AcDbEntity
  8
細線
 48
50.0
100
AcDbLine
 10
6112.719531368927
 20
1268.179927910582
 30
0.0
 11
6119.150311987275
 21
1244.179927910582
 31
0.0
  0
LINE
  5
20788
330
747D
100
AcDbEntity
  8
細線
 48
50.0
100
AcDbLine
 10
6033.831486421682
 20
1268.179927910582
 30
0.0
 11
6040.262267040027
 21
1244.179927910582
 31
0.0
  0
LINE
  5
20789
330
747D
100
AcDbEntity
  8
細線
 48
50.0
100
AcDbLine
 10
6191.607576316174
 20
1268.179927910582
 30
0.0
 11
6198.038356934522
 21
1244.179927910582
 31
0.0
  0
LINE
  5
2078A
330
747D
100
AcDbEntity
  8
細線
 48
50.0
100
AcDbLine
 10
6270.495621263421
 20
1268.179927910582
 30
0.0
 11
6271.329821360069
 21
1265.066650766217
 31
0.0
  0
LINE
  5
2078B
330
747D
100
AcDbEntity
  8
細線
 48
50.0
100
AcDbLine
 10
6264.064840645072
 20
1244.17992791058
 30
0.0
 11
6271.329821360069
 21
1271.29320505497
 31
0.0
  0
LINE
  5
2078C
330
747D
100
AcDbEntity
  8
細線
 48
50.0
100
AcDbLine
 10
6127.535369409216
 20
1484.179927910582
 30
0.0
 11
6191.329821360069
 21
1547.974379861433
 31
0.0
  0
CIRCLE
  5
2078D
330
747D
100
AcDbEntity
  8
部品1
 48
50.0
100
AcDbCircle
 10
6095.32982136007
 20
1492.179927910582
 30
0.0
 40
8.0
  0
ARC
  5
2078E
330
747D
100
AcDbEntity
  8
部品1
 48
50.0
100
AcDbCircle
 10
5967.32982136007
 20
1492.179927910582
 30
0.0
 40
24.0
100
AcDbArc
 50
340.5287793655103
 51
0.0
  0
LINE
  5
2078F
330
747D
100
AcDbEntity
  8
細線
 48
50.0
100
AcDbLine
 10
5976.379376868925
 20
1348.179927910581
 30
0.0
 11
5969.948596250578
 21
1372.179927910581
 31
0.0
  0
LINE
  5
20790
330
747D
100
AcDbEntity
  8
細線
 48
50.0
100
AcDbLine
 10
6055.267421816171
 20
1348.179927910581
 30
0.0
 11
6048.836641197825
 21
1372.179927910581
 31
0.0
  0
LINE
  5
20791
330
747D
100
AcDbEntity
  8
細線
 48
50.0
100
AcDbLine
 10
5988.594601046013
 20
1372.179927910581
 30
0.0
 11
6084.594601046013
 21
1468.179927910582
 31
0.0
  0
LINE
  5
20792
330
747D
100
AcDbEntity
  8
細線
 48
50.0
100
AcDbLine
 10
6015.535369409216
 20
1372.179927910581
 30
0.0
 11
6111.536257254353
 21
1468.180815755721
 31
0.0
  0
LINE
  5
20793
330
747D
100
AcDbEntity
  8
部品1
 48
50.0
100
AcDbLine
 10
6135.32982136007
 20
1484.179927910582
 30
0.0
 11
6135.32982136007
 21
1468.179927910582
 31
0.0
  0
LINE
  5
20794
330
747D
100
AcDbEntity
  8
細線
 48
50.0
100
AcDbLine
 10
6213.043511710663
 20
1348.179927910581
 30
0.0
 11
6206.612731092316
 21
1372.179927910581
 31
0.0
  0
LINE
  5
20795
330
747D
100
AcDbEntity
  8
細線
 48
50.0
100
AcDbLine
 10
6177.179979588462
 20
1372.179927910581
 30
0.0
 11
6191.329821360069
 21
1386.329769682188
 31
0.0
  0
LINE
  5
20796
330
747D
100
AcDbEntity
  8
細線
 48
50.0
100
AcDbLine
 10
6134.155466763417
 20
1348.179927910581
 30
0.0
 11
6127.724686145071
 21
1372.179927910581
 31
0.0
  0
LINE
  5
20797
330
747D
100
AcDbEntity
  8
細線
 48
50.0
100
AcDbLine
 10
5871.329821360069
 20
1685.967442035959
 30
0.0
 11
5975.329821360075
 21
1789.967442035962
 31
0.0
  0
LINE
  5
20798
330
747D
100
AcDbEntity
  8
細線
 48
50.0
100
AcDbLine
 10
5871.329821360069
 20
1712.908210399168
 30
0.0
 11
5975.32982136007
 21
1816.908210399168
 31
0.0
  0
LINE
  5
20799
330
747D
100
AcDbEntity
  8
細線
 48
50.0
100
AcDbLine
 10
5871.329821360069
 20
1659.026673672752
 30
0.0
 11
5975.329821360075
 21
1763.026673672753
 31
0.0
  0
LINE
  5
2079A
330
747D
100
AcDbEntity
  8
細線
 48
50.0
100
AcDbLine
 10
5959.329821360069
 20
1962.552820578412
 30
0.0
 11
5975.32982136007
 21
1978.552820578412
 31
0.0
  0
LINE
  5
2079B
330
747D
100
AcDbEntity
  8
細線
 48
50.0
100
AcDbLine
 10
5959.329821360069
 20
1989.493588941619
 30
0.0
 11
5975.32982136007
 21
2005.493588941619
 31
0.0
  0
LINE
  5
2079C
330
747D
100
AcDbEntity
  8
部品1
 48
50.0
100
AcDbLine
 10
5743.329821360069
 20
1612.179927910582
 30
0.0
 11
5871.329821360069
 21
1612.179927910582
 31
0.0
  0
LINE
  5
2079D
330
747D
100
AcDbEntity
  8
細線
 48
50.0
100
AcDbLine
 10
5743.329821360062
 20
1557.967442035957
 30
0.0
 11
5797.542307234694
 21
1612.179927910582
 31
0.0
  0
LINE
  5
2079E
330
747D
100
AcDbEntity
  8
細線
 48
50.0
100
AcDbLine
 10
5743.329821360062
 20
1584.908210399168
 30
0.0
 11
5770.601538871483
 21
1612.179927910582
 31
0.0
  0
LINE
  5
2079F
330
747D
100
AcDbEntity
  8
部品1
 48
50.0
100
AcDbLine
 10
5959.329821360069
 20
1958.307142607704
 30
0.0
 11
5943.32982136007
 21
1958.307142607707
 31
0.0
  0
LINE
  5
207A0
330
747D
100
AcDbEntity
  8
細線
 48
50.0
100
AcDbLine
 10
5871.329821360069
 20
1874.552820578412
 30
0.0
 11
5955.084143389363
 21
1958.307142607704
 31
0.0
  0
LINE
  5
207A1
330
747D
100
AcDbEntity
  8
細線
 48
50.0
100
AcDbLine
 10
5871.329821360069
 20
1901.493588941619
 30
0.0
 11
5943.32982136007
 21
1973.493588941619
 31
0.0
  0
LINE
  5
207A2
330
747D
100
AcDbEntity
  8
部品1
 48
50.0
100
AcDbLine
 10
5943.32982136007
 20
1958.307142607707
 30
0.0
 11
5943.32982136007
 21
2016.434357304827
 31
0.0
  0
LINE
  5
207A3
330
747D
100
AcDbEntity
  8
細線
 48
50.0
100
AcDbLine
 10
5871.329821360069
 20
1928.434357304827
 30
0.0
 11
5943.32982136007
 21
2000.434357304827
 31
0.0
  0
LINE
  5
207A4
330
747D
100
AcDbEntity
  8
部品1
 48
50.0
100
AcDbLine
 10
5959.329821360069
 20
1958.307142607704
 30
0.0
 11
5959.329821360069
 21
2016.434357304827
 31
0.0
  0
LINE
  5
207A5
330
747D
100
AcDbEntity
  8
細線
 48
50.0
100
AcDbLine
 10
5991.329821360075
 20
1779.026673672753
 30
0.0
 11
6063.329821360062
 21
1851.026673672753
 31
0.0
  0
LINE
  5
207A6
330
747D
100
AcDbEntity
  8
部品1
 48
50.0
100
AcDbLine
 10
6063.32982136007
 20
1612.179927910582
 30
0.0
 11
6191.329821360069
 21
1612.179927910582
 31
0.0
  0
LINE
  5
207A7
330
747D
100
AcDbEntity
  8
細線
 48
50.0
100
AcDbLine
 10
5991.329821360075
 20
1590.441295130303
 30
0.0
 11
6063.329821360062
 21
1662.441295130297
 31
0.0
  0
LINE
  5
207A8
330
747D
100
AcDbEntity
  8
細線
 48
50.0
100
AcDbLine
 10
5991.329821360075
 20
1617.382063493511
 30
0.0
 11
6063.329821360062
 21
1689.382063493507
 31
0.0
  0
LINE
  5
207A9
330
747D
100
AcDbEntity
  8
細線
 48
50.0
100
AcDbLine
 10
5991.329821360075
 20
1563.500526767093
 30
0.0
 11
6063.329821360062
 21
1635.500526767093
 31
0.0
  0
LINE
  5
207AA
330
747D
100
AcDbEntity
  8
細線
 48
50.0
100
AcDbLine
 10
5991.329821360069
 20
1832.908210399168
 30
0.0
 11
6063.32982136007
 21
1904.908210399167
 31
0.0
  0
LINE
  5
207AB
330
747D
100
AcDbEntity
  8
細線
 48
50.0
100
AcDbLine
 10
5991.329821360075
 20
1805.967442035962
 30
0.0
 11
6063.329821360062
 21
1877.967442035957
 31
0.0
  0
MTEXT
  5
207AC
102
{ACAD_REACTORS
330
20757
102
}
330
747D
100
AcDbEntity
  8
寸法
 62
     7
 48
50.0
100
AcDbMText
 10
6305.06827722132
 20
1194.830842178428
 30
0.0
 40
80.0
 41
0.8
 71
     4
 72
     1
  1
\A1;D10@300
  7
STYLE2
 73
     1
 44
1.0
1001
ACAD
1000
MTEXTBEGIN
1070
    73
1070
     1
1070
    44
1040
1.0
1070
    74
1070
     0
1000
MTEXTEND
  0
DIMENSION
  5
207AD
330
747D
100
AcDbEntity
  8
寸法
 48
50.0
100
AcDbDimension
  2
*D53
 10
5871.329821360069
 20
2476.179927910582
 30
0.0
 11
5978.556151705266
 21
2575.847735826962
 31
0.0
 70
   160
  1
120\P195
 71
     5
 42
192.0
  3
INABA_S40G
100
AcDbAlignedDimension
 13
6063.329821360068
 23
2156.179927910581
 33
0.0
 14
5871.329821360069
 24
2156.179927910581
 34
0.0
100
AcDbRotatedDimension
1001
ACAD
1000
DSTYLE
1002
{
1070
   174
1070
     0
1070
   272
1070
     1
1070
   279
1070
     1
1070
   288
1070
     0
1070
   341
1005
0
1002
}
  0
LINE
  5
207AE
330
747D
100
AcDbEntity
  8
部品1
 48
50.0
100
AcDbLine
 10
5871.329821360069
 20
2156.179927910581
 30
0.0
 11
6063.32982136007
 21
2156.179927910581
 31
0.0
  0
LINE
  5
207AF
330
747D
100
AcDbEntity
  8
細線
 48
50.0
100
AcDbLine
 10
5871.329821360069
 20
2117.01973584728
 30
0.0
 11
5910.490013423373
 21
2156.179927910581
 31
0.0
  0
LINE
  5
207B0
330
747D
100
AcDbEntity
  8
細線
 48
50.0
100
AcDbLine
 10
5871.329821360069
 20
2090.078967484072
 30
0.0
 11
5937.430781786578
 21
2156.179927910581
 31
0.0
  0
LINE
  5
207B1
330
747D
100
AcDbEntity
  8
細線
 48
50.0
100
AcDbLine
 10
5871.329821360069
 20
2143.960504210487
 30
0.0
 11
5883.549245060164
 21
2156.179927910581
 31
0.0
  0
LINE
  5
207B2
330
747D
100
AcDbEntity
  8
細線
 48
50.0
100
AcDbLine
 10
5990.882528626055
 20
2021.046296207604
 30
0.0
 11
6063.32982136007
 21
2093.493588941619
 31
0.0
  0
LINE
  5
207B3
330
747D
100
AcDbEntity
  8
細線
 48
50.0
100
AcDbLine
 10
5979.822243862539
 20
2036.926779807298
 30
0.0
 11
6063.32982136007
 21
2120.434357304827
 31
0.0
  0
LINE
  5
207B4
330
747D
100
AcDbEntity
  8
細線
 48
50.0
100
AcDbLine
 10
7855.769134537265
 20
1997.30821039917
 30
0.0
 11
7985.369134537262
 21
2126.908210399168
 31
0.0
  0
LINE
  5
207B5
330
747D
100
AcDbEntity
  8
部品1
100
AcDbLine
 10
7985.369134537261
 20
1612.179927910582
 30
0.0
 11
7985.369134537262
 21
2156.179927910581
 31
0.0
  0
LINE
  5
207B6
330
747D
100
AcDbEntity
  8
部品1
 48
50.0
100
AcDbLine
 10
7571.369134537262
 20
1612.179927910582
 30
0.0
 11
7571.369134537262
 21
2156.179927910581
 31
0.0
  0
LINE
  5
207B7
330
747D
100
AcDbEntity
  8
細線
 48
50.0
100
AcDbLine
 10
7571.369134537262
 20
1928.434357304827
 30
0.0
 11
7729.769134537263
 21
2086.834357304824
 31
0.0
  0
LINE
  5
207B8
330
747D
100
AcDbEntity
  8
細線
 48
50.0
100
AcDbLine
 10
7571.369134537262
 20
1901.493588941619
 30
0.0
 11
7729.769134537263
 21
2059.893588941617
 31
0.0
  0
LINE
  5
207B9
330
747D
100
AcDbEntity
  8
細線
 48
50.0
100
AcDbLine
 10
7571.369134537262
 20
1874.552820578412
 30
0.0
 11
7729.769134537258
 21
2032.952820578405
 31
0.0
  0
TEXT
  5
207BA
330
747D
100
AcDbEntity
  8
部品1
 48
50.0
100
AcDbText
 10
7157.229232704307
 20
1927.418920193837
 30
0.0
 40
80.0
  1
▽G.L
  7
STYLE2
100
AcDbText
  0
LINE
  5
207BB
330
747D
100
AcDbEntity
  8
部品1
100
AcDbLine
 10
7801.769134537263
 20
1931.179927910581
 30
0.0
 11
7801.769134537258
 21
2205.339927910582
 31
0.0
  0
LINE
  5
207BC
330
747D
100
AcDbEntity
  8
部品1
100
AcDbLine
 10
7783.769134537262
 20
1931.179927910581
 30
0.0
 11
7783.769134537259
 21
2205.339927910582
 31
0.0
  0
LINE
  5
207BD
330
747D
100
AcDbEntity
  8
細線
 48
50.0
100
AcDbLine
 10
7855.769134537265
 20
1943.42667367274
 30
0.0
 11
7985.369134537262
 21
2073.026673672732
 31
0.0
  0
LINE
  5
207BE
330
747D
100
AcDbEntity
  8
細線
 48
50.0
100
AcDbLine
 10
7855.769134537265
 20
1970.367442035953
 30
0.0
 11
7985.369134537262
 21
2099.96744203595
 31
0.0
  0
LINE
  5
207BF
330
747D
100
AcDbEntity
  8
部品1
100
AcDbLine
 10
7855.769134537261
 20
1832.179927910582
 30
0.0
 11
7855.769134537261
 21
2156.179927910581
 31
0.0
  0
LINE
  5
207C0
330
747D
100
AcDbEntity
  8
部品1
100
AcDbLine
 10
7729.769134537257
 20
1832.179927910582
 30
0.0
 11
7729.769134537263
 21
2156.179927910581
 31
0.0
  0
LINE
  5
207C1
330
747D
100
AcDbEntity
  8
細線
 48
50.0
100
AcDbLine
 10
7571.369134537262
 20
1685.967442035959
 30
0.0
 11
7729.769134537256
 21
1844.367442035948
 31
0.0
  0
LINE
  5
207C2
330
747D
100
AcDbEntity
  8
細線
 48
50.0
100
AcDbLine
 10
7571.369134537262
 20
1659.026673672752
 30
0.0
 11
7744.522388775099
 21
1832.17992791058
 31
0.0
  0
LINE
  5
207C3
330
747D
100
AcDbEntity
  8
細線
 48
50.0
100
AcDbLine
 10
7571.369134537262
 20
1712.908210399168
 30
0.0
 11
7729.769134537256
 21
1871.308210399163
 31
0.0
  0
LINE
  5
207C4
330
747D
100
AcDbEntity
  8
細線
 48
50.0
100
AcDbLine
 10
7500.048535680751
 20
1372.179927910581
 30
0.0
 11
7985.369134537262
 21
1857.500526767089
 31
0.0
  0
LINE
  5
207C5
330
747D
100
AcDbEntity
  8
細線
 48
50.0
100
AcDbLine
 10
7473.107767317547
 20
1372.179927910581
 30
0.0
 11
7985.369134537265
 21
1884.441295130296
 31
0.0
  0
LINE
  5
207C6
330
747D
100
AcDbEntity
  8
細線
 48
50.0
100
AcDbLine
 10
7446.166998954336
 20
1372.179927910581
 30
0.0
 11
7985.369134537261
 21
1911.382063493507
 31
0.0
  0
LINE
  5
207C7
330
747D
100
AcDbEntity
  8
部品1
 48
50.0
100
AcDbLine
 10
8193.369134537265
 20
1372.179927910581
 30
0.0
 11
7363.369134537264
 21
1372.179927910581
 31
0.0
  0
LINE
  5
207C8
330
747D
100
AcDbEntity
  8
部品1
 48
50.0
100
AcDbLine
 10
8193.369134537265
 20
1244.179927910582
 30
0.0
 11
7363.369134537264
 21
1244.179927910582
 31
0.0
  0
LINE
  5
207C9
330
747D
100
AcDbEntity
  8
細線
 48
50.0
100
AcDbLine
 10
7443.369134537258
 20
1531.026673672753
 30
0.0
 11
7524.522388775091
 21
1612.179927910582
 31
0.0
  0
LINE
  5
207CA
330
747D
100
AcDbEntity
  8
部品1
 48
50.0
100
AcDbLine
 10
7443.369134537262
 20
1372.179927910581
 30
0.0
 11
7443.369134537262
 21
1612.179927910582
 31
0.0
  0
LINE
  5
207CB
330
747D
100
AcDbEntity
  8
細線
 48
50.0
100
AcDbLine
 10
7490.775884138781
 20
1244.179927910582
 30
0.0
 11
7525.073380769962
 21
1372.179927910581
 31
0.0
  0
LINE
  5
207CC
330
747D
100
AcDbEntity
  8
部品1
 48
50.0
100
AcDbLine
 10
7363.369134537264
 20
1244.179927910582
 30
0.0
 11
7363.369134537264
 21
1372.179927910581
 31
0.0
  0
LINE
  5
207CD
330
747D
100
AcDbEntity
  8
細線
 48
50.0
100
AcDbLine
 10
7411.88783919152
 20
1244.17992791058
 30
0.0
 11
7446.185335822706
 21
1372.17992791058
 31
0.0
  0
LINE
  5
207CE
330
747D
100
AcDbEntity
  8
細線
 48
50.0
100
AcDbLine
 10
7569.663929086026
 20
1244.17992791058
 30
0.0
 11
7603.961425717208
 21
1372.17992791058
 31
0.0
  0
LINE
  5
207CF
330
747D
100
AcDbEntity
  8
細線
 48
50.0
100
AcDbLine
 10
7418.318619809873
 20
1268.179927910582
 30
0.0
 11
7424.74940042822
 21
1244.179927910582
 31
0.0
  0
LINE
  5
207D0
330
747D
100
AcDbEntity
  8
細線
 48
50.0
100
AcDbLine
 10
7576.09470970438
 20
1268.179927910582
 30
0.0
 11
7582.525490322725
 21
1244.179927910582
 31
0.0
  0
LINE
  5
207D1
330
747D
100
AcDbEntity
  8
細線
 48
50.0
100
AcDbLine
 10
7497.206664757126
 20
1268.179927910582
 30
0.0
 11
7503.637445375473
 21
1244.179927910582
 31
0.0
  0
LINE
  5
207D2
330
747D
100
AcDbEntity
  8
細線
 48
50.0
100
AcDbLine
 10
7363.369134537262
 20
1357.519848876362
 30
0.0
 11
7367.297290875459
 21
1372.179927910581
 31
0.0
  0
LINE
  5
207D3
330
747D
100
AcDbEntity
  8
細線
 48
50.0
100
AcDbLine
 10
7439.754555204364
 20
1348.179927910581
 30
0.0
 11
7433.323774586018
 21
1372.179927910581
 31
0.0
  0
LINE
  5
207D4
330
747D
100
AcDbEntity
  8
細線
 48
50.0
100
AcDbLine
 10
7597.530645098868
 20
1348.179927910581
 30
0.0
 11
7591.09986448052
 21
1372.179927910581
 31
0.0
  0
LINE
  5
207D5
330
747D
100
AcDbEntity
  8
細線
 48
50.0
100
AcDbLine
 10
7518.642600151615
 20
1348.179927910581
 30
0.0
 11
7512.21181953327
 21
1372.179927910581
 31
0.0
  0
LWPOLYLINE
  5
207D6
330
747D
100
AcDbEntity
  8
部品1
 48
50.0
100
AcDbPolyline
 90
        2
 70
     0
 43
8.0
 10
7157.229232704307
 20
1916.179927910582
 10
7571.369134537262
 20
1916.179927910582
  0
LINE
  5
207D7
330
747D
100
AcDbEntity
  8
細線
 48
50.0
100
AcDbLine
 10
7443.369134537258
 20
1557.967442035957
 30
0.0
 11
7497.581620411887
 21
1612.179927910582
 31
0.0
  0
LINE
  5
207D8
330
747D
100
AcDbEntity
  8
部品1
 48
50.0
100
AcDbLine
 10
7443.369134537262
 20
1612.179927910582
 30
0.0
 11
7571.369134537262
 21
1612.179927910582
 31
0.0
  0
LINE
  5
207D9
330
747D
100
AcDbEntity
  8
細線
 48
50.0
100
AcDbLine
 10
7443.369134537258
 20
1584.908210399168
 30
0.0
 11
7470.640852048676
 21
1612.179927910582
 31
0.0
  0
LINE
  5
207DA
330
747D
100
AcDbEntity
  8
細線
 48
50.0
100
AcDbLine
 10
7688.633914223206
 20
1372.179927910581
 30
0.0
 11
7985.369134537262
 21
1668.915148224634
 31
0.0
  0
LINE
  5
207DB
330
747D
100
AcDbEntity
  8
細線
 48
50.0
100
AcDbLine
 10
7715.574682586411
 20
1372.179927910581
 30
0.0
 11
7985.369134537262
 21
1641.974379861439
 31
0.0
  0
LINE
  5
207DC
330
747D
100
AcDbEntity
  8
細線
 48
50.0
100
AcDbLine
 10
7661.693145859998
 20
1372.179927910581
 30
0.0
 11
7985.369134537261
 21
1695.855916587848
 31
0.0
  0
LINE
  5
207DD
330
747D
100
AcDbEntity
  8
細線
 48
50.0
100
AcDbLine
 10
7877.219292765656
 20
1372.179927910581
 30
0.0
 11
8113.369134537261
 21
1608.32976968219
 31
0.0
  0
LINE
  5
207DE
330
747D
100
AcDbEntity
  8
細線
 48
50.0
100
AcDbLine
 10
7904.160061128867
 20
1372.179927910581
 30
0.0
 11
8113.369134537261
 21
1581.389001318975
 31
0.0
  0
LINE
  5
207DF
330
747D
100
AcDbEntity
  8
部品1
 48
50.0
100
AcDbLine
 10
8113.369134537261
 20
1612.179927910582
 30
0.0
 11
8113.369134537261
 21
1372.179927910581
 31
0.0
  0
LINE
  5
207E0
330
747D
100
AcDbEntity
  8
細線
 48
50.0
100
AcDbLine
 10
7931.100829492073
 20
1372.179927910581
 30
0.0
 11
8113.369134537261
 21
1554.448232955778
 31
0.0
  0
LINE
  5
207E1
330
747D
100
AcDbEntity
  8
細線
 48
50.0
100
AcDbLine
 10
7806.328063927773
 20
1244.17992791058
 30
0.0
 11
7840.625560558954
 21
1372.17992791058
 31
0.0
  0
LINE
  5
207E2
330
747D
100
AcDbEntity
  8
細線
 48
50.0
100
AcDbLine
 10
7648.551974033279
 20
1244.179927910582
 30
0.0
 11
7682.849470664461
 21
1372.179927910581
 31
0.0
  0
LINE
  5
207E3
330
747D
100
AcDbEntity
  8
細線
 48
50.0
100
AcDbLine
 10
7727.440018980523
 20
1244.179927910582
 30
0.0
 11
7761.737515611709
 21
1372.17992791058
 31
0.0
  0
LINE
  5
207E4
330
747D
100
AcDbEntity
  8
細線
 48
50.0
100
AcDbLine
 10
7885.216108875015
 20
1244.179927910582
 30
0.0
 11
7919.5136055062
 21
1372.17992791058
 31
0.0
  0
LINE
  5
207E5
330
747D
100
AcDbEntity
  8
細線
 48
50.0
100
AcDbLine
 10
7733.870799598877
 20
1268.179927910582
 30
0.0
 11
7740.301580217224
 21
1244.179927910582
 31
0.0
  0
LINE
  5
207E6
330
747D
100
AcDbEntity
  8
細線
 48
50.0
100
AcDbLine
 10
7654.98275465163
 20
1268.179927910582
 30
0.0
 11
7661.413535269978
 21
1244.179927910582
 31
0.0
  0
LINE
  5
207E7
330
747D
100
AcDbEntity
  8
細線
 48
50.0
100
AcDbLine
 10
7891.646889493369
 20
1268.179927910582
 30
0.0
 11
7898.077670111714
 21
1244.179927910582
 31
0.0
  0
LINE
  5
207E8
330
747D
100
AcDbEntity
  8
細線
 48
50.0
100
AcDbLine
 10
7812.758844546123
 20
1268.179927910582
 30
0.0
 11
7819.189625164469
 21
1244.179927910582
 31
0.0
  0
LINE
  5
207E9
330
747D
100
AcDbEntity
  8
細線
 48
50.0
100
AcDbLine
 10
7755.306734993367
 20
1348.179927910581
 30
0.0
 11
7748.875954375019
 21
1372.179927910581
 31
0.0
  0
LINE
  5
207EA
330
747D
100
AcDbEntity
  8
細線
 48
50.0
100
AcDbLine
 10
7676.418690046119
 20
1348.179927910581
 30
0.0
 11
7669.987909427772
 21
1372.179927910581
 31
0.0
  0
LINE
  5
207EB
330
747D
100
AcDbEntity
  8
細線
 48
50.0
100
AcDbLine
 10
7834.194779940611
 20
1348.179927910581
 30
0.0
 11
7827.763999322266
 21
1372.179927910581
 31
0.0
  0
LINE
  5
207EC
330
747D
100
AcDbEntity
  8
細線
 48
50.0
100
AcDbLine
 10
7913.082824887857
 20
1348.179927910581
 30
0.0
 11
7906.65204426951
 21
1372.179927910581
 31
0.0
  0
LINE
  5
207ED
330
747D
100
AcDbEntity
  8
部品1
 48
50.0
100
AcDbLine
 10
8193.369134537265
 20
1372.179927910581
 30
0.0
 11
8193.369134537265
 21
1244.179927910582
 31
0.0
  0
LINE
  5
207EE
330
747D
100
AcDbEntity
  8
細線
 48
50.0
100
AcDbLine
 10
8121.880243716757
 20
1244.17992791058
 30
0.0
 11
8156.177740347942
 21
1372.179927910579
 31
0.0
  0
LINE
  5
207EF
330
747D
100
AcDbEntity
  8
細線
 48
50.0
100
AcDbLine
 10
7964.104153822264
 20
1244.17992791058
 30
0.0
 11
7998.401650453438
 21
1372.179927910581
 31
0.0
  0
LINE
  5
207F0
330
747D
100
AcDbEntity
  8
細線
 48
50.0
100
AcDbLine
 10
8042.992198769512
 20
1244.179927910579
 30
0.0
 11
8077.289695400699
 21
1372.179927910579
 31
0.0
  0
LINE
  5
207F1
330
747D
100
AcDbEntity
  8
細線
 48
50.0
100
AcDbLine
 10
7970.534934440613
 20
1268.179927910582
 30
0.0
 11
7976.965715058971
 21
1244.179927910582
 31
0.0
  0
LINE
  5
207F2
330
747D
100
AcDbEntity
  8
細線
 48
50.0
100
AcDbLine
 10
8049.422979387861
 20
1268.17992791058
 30
0.0
 11
8055.853760006208
 21
1244.17992791058
 31
0.0
  0
LINE
  5
207F3
330
747D
100
AcDbEntity
  8
細線
 48
50.0
100
AcDbLine
 10
8128.311024335108
 20
1268.17992791058
 30
0.0
 11
8134.741804953456
 21
1244.17992791058
 31
0.0
  0
LINE
  5
207F4
330
747D
100
AcDbEntity
  8
細線
 48
50.0
100
AcDbLine
 10
7991.970869835096
 20
1348.179927910581
 30
0.0
 11
7985.540089216749
 21
1372.179927910581
 31
0.0
  0
LINE
  5
207F5
330
747D
100
AcDbEntity
  8
細線
 48
50.0
100
AcDbLine
 10
8070.858914782352
 20
1348.17992791058
 30
0.0
 11
8064.428134164005
 21
1372.17992791058
 31
0.0
  0
LINE
  5
207F6
330
747D
100
AcDbEntity
  8
細線
 48
50.0
100
AcDbLine
 10
8149.746959729597
 20
1348.17992791058
 30
0.0
 11
8143.31617911125
 21
1372.17992791058
 31
0.0
  0
LINE
  5
207F7
330
747D
100
AcDbEntity
  8
部品1
100
AcDbLine
 10
7855.769134537261
 20
1832.17992791058
 30
0.0
 11
7729.769134537257
 21
1832.17992791058
 31
0.0
  0
LINE
  5
207F8
330
747D
100
AcDbEntity
  8
部品1
100
AcDbLine
 10
7837.769134537262
 20
1913.179927910581
 30
0.0
 11
7837.769134537262
 21
1931.179927910581
 31
0.0
  0
ARC
  5
207F9
330
747D
100
AcDbEntity
  8
部品1
100
AcDbCircle
 10
7801.769134537263
 20
1931.179927910581
 30
0.0
 40
18.0
100
AcDbArc
 50
180.0
 51
270.0
  0
LINE
  5
207FA
330
747D
100
AcDbEntity
  8
部品1
100
AcDbLine
 10
7801.769134537263
 20
1913.179927910581
 30
0.0
 11
7837.769134537262
 21
1913.179927910581
 31
0.0
  0
LINE
  5
207FB
330
747D
100
AcDbEntity
  8
部品1
100
AcDbLine
 10
7801.769134537263
 20
1931.179927910581
 30
0.0
 11
7837.769134537262
 21
1931.179927910581
 31
0.0
  0
LINE
  5
207FC
330
747D
100
AcDbEntity
  8
部品1
 48
50.0
100
AcDbLine
 10
7985.369134537262
 20
1612.179927910582
 30
0.0
 11
8113.369134537261
 21
1612.179927910582
 31
0.0
  0
LINE
  5
207FD
330
747D
100
AcDbEntity
  8
部品1
100
AcDbLine
 10
7591.169134537264
 20
2246.179927910582
 30
0.0
 11
7628.969134537263
 21
2246.179927910582
 31
0.0
  0
LINE
  5
207FE
330
747D
100
AcDbEntity
  8
細線
 48
50.0
100
AcDbLine
 10
7571.369134537262
 20
2117.01973584728
 30
0.0
 11
7610.529326600569
 21
2156.179927910581
 31
0.0
  0
LINE
  5
207FF
330
747D
100
AcDbEntity
  8
細線
 48
50.0
100
AcDbLine
 10
7571.369134537262
 20
2090.078967484072
 30
0.0
 11
7637.470094963774
 21
2156.179927910581
 31
0.0
  0
LINE
  5
20800
330
747D
100
AcDbEntity
  8
部品1
 48
50.0
100
AcDbLine
 10
7571.369134537262
 20
2156.179927910581
 30
0.0
 11
7985.369134537265
 21
2156.179927910581
 31
0.0
  0
TEXT
  5
20801
330
747D
100
AcDbEntity
  8
部品1
 48
50.0
100
AcDbText
 10
7144.923037957771
 20
2486.740449011058
 30
0.0
 40
80.0
  1
※(別売)
  7
STYLE2
100
AcDbText
  0
LINE
  5
20802
330
747D
100
AcDbEntity
  8
部品1
100
AcDbLine
 10
7588.469134537263
 20
2235.379927910582
 30
0.0
 11
7588.469134537263
 21
2243.479927910582
 31
0.0
  0
ARC
  5
20803
330
747D
100
AcDbEntity
  8
部品1
100
AcDbCircle
 10
7591.169134537264
 20
2243.479927910582
 30
0.0
 40
2.7
100
AcDbArc
 50
90.0
 51
180.0
  0
ARC
  5
20804
330
747D
100
AcDbEntity
  8
部品1
100
AcDbCircle
 10
7580.369134537263
 20
2230.57183161329
 30
0.0
 40
2.7
100
AcDbArc
 50
104.0362434679059
 51
180.0
  0
LINE
  5
20805
330
747D
100
AcDbEntity
  8
部品1
100
AcDbLine
 10
7579.714288349663
 20
2233.191216363682
 30
0.0
 11
7588.469134537263
 21
2235.379927910582
 31
0.0
  0
ARC
  5
20806
330
747D
100
AcDbEntity
  8
部品1
100
AcDbCircle
 10
7580.369134537263
 20
2168.439927910582
 30
0.0
 40
2.7
100
AcDbArc
 50
180.0
 51
270.0
  0
LINE
  5
20807
330
747D
100
AcDbEntity
  8
細線
 48
50.0
100
AcDbLine
 10
7571.369134537262
 20
2143.960504210487
 30
0.0
 11
7583.588558237358
 21
2156.179927910581
 31
0.0
  0
LINE
  5
20808
330
747D
100
AcDbEntity
  8
部品1
100
AcDbLine
 10
7580.369134537263
 20
2165.739927910582
 30
0.0
 11
7592.069134537258
 21
2165.739927910582
 31
0.0
  0
LINE
  5
20809
330
747D
100
AcDbEntity
  8
部品1
100
AcDbLine
 10
7577.669134537264
 20
2168.439927910582
 30
0.0
 11
7577.669134537264
 21
2230.57183161329
 31
0.0
  0
LINE
  5
2080A
330
747D
100
AcDbEntity
  8
部品1
100
AcDbLine
 10
7736.329134537256
 20
2165.739927910582
 30
0.0
 11
7937.669134537256
 21
2165.739927910582
 31
0.0
  0
LINE
  5
2080B
330
747D
100
AcDbEntity
  8
部品1
100
AcDbLine
 10
7628.969134537263
 20
2246.179927910582
 30
0.0
 11
7628.969134537263
 21
2254.279927910582
 31
0.0
  0
LINE
  5
2080C
330
747D
100
AcDbEntity
  8
部品1
100
AcDbLine
 10
7679.369134537262
 20
2265.079927910579
 30
0.0
 11
7679.369134537262
 21
2213.779927910582
 31
0.0
  0
LINE
  5
2080D
330
747D
100
AcDbEntity
  8
部品1
100
AcDbLine
 10
7702.769134537263
 20
2225.739927910582
 30
0.0
 11
7730.929134537262
 21
2225.739927910582
 31
0.0
  0
ARC
  5
2080E
330
747D
100
AcDbEntity
  8
部品1
100
AcDbCircle
 10
7702.769134537263
 20
2223.039927910582
 30
0.0
 40
2.7
100
AcDbArc
 50
90.0
 51
180.0
  0
ARC
  5
2080F
330
747D
100
AcDbEntity
  8
部品1
100
AcDbCircle
 10
7730.929134537262
 20
2223.039927910582
 30
0.0
 40
2.7
100
AcDbArc
 50
0.0
 51
90.0
  0
LINE
  5
20810
330
747D
100
AcDbEntity
  8
部品1
100
AcDbLine
 10
7721.669134537264
 20
2211.079927910581
 30
0.0
 11
7721.669134537264
 21
2168.439927910582
 31
0.0
  0
LINE
  5
20811
330
747D
100
AcDbEntity
  8
部品1
100
AcDbLine
 10
7707.269134537262
 20
2165.739927910582
 30
0.0
 11
7718.969134537264
 21
2165.739927910582
 31
0.0
  0
ARC
  5
20812
330
747D
100
AcDbEntity
  8
部品1
100
AcDbCircle
 10
7736.329134537256
 20
2168.439927910582
 30
0.0
 40
2.7
100
AcDbArc
 50
180.0
 51
270.0
  0
ARC
  5
20813
330
747D
100
AcDbEntity
  8
部品1
100
AcDbCircle
 10
7718.969134537264
 20
2168.439927910582
 30
0.0
 40
2.7
100
AcDbArc
 50
270.0
 51
0.0
  0
LINE
  5
20814
330
747D
100
AcDbEntity
  8
部品1
100
AcDbLine
 10
7679.369134537262
 20
2213.779927910582
 30
0.0
 11
7718.969134537264
 21
2213.779927910582
 31
0.0
  0
ARC
  5
20815
330
747D
100
AcDbEntity
  8
部品1
100
AcDbCircle
 10
7718.969134537264
 20
2211.079927910581
 30
0.0
 40
2.7
100
AcDbArc
 50
0.0
 51
90.0
  0
LINE
  5
20816
330
747D
100
AcDbEntity
  8
部品1
100
AcDbLine
 10
7733.629134537263
 20
2223.039927910582
 30
0.0
 11
7733.62913453726
 21
2168.439927910582
 31
0.0
  0
LINE
  5
20817
330
747D
100
AcDbEntity
  8
部品1
100
AcDbLine
 10
7700.069134537262
 20
2223.039927910582
 30
0.0
 11
7700.069134537262
 21
2205.939927910582
 31
0.0
  0
LINE
  5
20818
330
747D
100
AcDbEntity
  8
細線
100
AcDbLine
 10
7798.169134537264
 20
2165.739927910582
 30
0.0
 11
7798.169134537264
 21
2208.939927910582
 31
0.0
  0
LINE
  5
20819
330
747D
100
AcDbEntity
  8
細線
100
AcDbLine
 10
7787.369134537264
 20
2165.739927910582
 30
0.0
 11
7787.369134537263
 21
2208.939927910582
 31
0.0
  0
LINE
  5
2081A
330
747D
100
AcDbEntity
  8
部品1
100
AcDbLine
 10
7783.769134537262
 20
2205.339927910582
 30
0.0
 11
7801.769134537263
 21
2205.339927910582
 31
0.0
  0
LINE
  5
2081B
330
747D
100
AcDbEntity
  8
部品1
100
AcDbLine
 10
7787.369134537263
 20
2208.939927910582
 30
0.0
 11
7798.169134537264
 21
2208.939927910582
 31
0.0
  0
ELLIPSE
  5
2081C
330
747D
100
AcDbEntity
  8
部品1
 48
50.0
100
AcDbEllipse
 10
7792.769134537262
 20
2425.303216354854
 30
0.0
 11
40.0
 21
0.0
 31
0.0
210
0.0
220
0.0
230
1.0
 40
0.4
 41
0.0
 42
6.283185307179586
  0
ELLIPSE
  5
2081D
330
747D
100
AcDbEntity
  8
部品1
 48
50.0
100
AcDbEllipse
 10
7792.769134537262
 20
2415.703216354855
 30
0.0
 11
40.0
 21
0.0
 31
0.0
210
0.0
220
0.0
230
1.0
 40
0.4
 41
3.141592653589793
 42
6.283185307179586
  0
LINE
  5
2081E
330
747D
100
AcDbEntity
  8
部品1
 48
50.0
100
AcDbLine
 10
7752.769134537263
 20
2425.303216354854
 30
0.0
 11
7752.769134537263
 21
2415.703216354854
 31
0.0
  0
ARC
  5
2081F
330
747D
100
AcDbEntity
  8
部品1
100
AcDbCircle
 10
7676.669134537263
 20
2265.079927910579
 30
0.0
 40
2.7
100
AcDbArc
 50
0.0
 51
90.0
  0
ARC
  5
20820
330
747D
100
AcDbEntity
  8
部品1
100
AcDbCircle
 10
7634.369134537263
 20
2265.079927910582
 30
0.0
 40
2.7
100
AcDbArc
 50
90.0
 51
180.0
  0
LINE
  5
20821
330
747D
100
AcDbEntity
  8
部品1
100
AcDbLine
 10
7631.669134537263
 20
2256.979927910582
 30
0.0
 11
7631.669134537263
 21
2256.979927910582
 31
0.0
  0
LINE
  5
20822
330
747D
100
AcDbEntity
  8
部品1
100
AcDbLine
 10
7631.669134537263
 20
2256.979927910582
 30
0.0
 11
7631.669134537263
 21
2265.079927910582
 31
0.0
  0
LINE
  5
20823
330
747D
100
AcDbEntity
  8
部品1
100
AcDbLine
 10
7634.369134537263
 20
2267.779927910582
 30
0.0
 11
7676.669134537263
 21
2267.779927910579
 31
0.0
  0
ARC
  5
20824
330
747D
100
AcDbEntity
  8
部品1
100
AcDbCircle
 10
7631.669134537263
 20
2254.279927910582
 30
0.0
 40
2.7
100
AcDbArc
 50
90.0
 51
180.0
  0
ELLIPSE
  5
20825
330
747D
100
AcDbEntity
  8
部品1
 48
50.0
100
AcDbEllipse
 10
7792.769134537262
 20
2425.303216354854
 30
0.0
 11
18.4
 21
0.0
 31
0.0
210
0.0
220
0.0
230
1.0
 40
0.3478260869565217
 41
0.0
 42
6.283185307179586
  0
LINE
  5
20826
330
747D
100
AcDbEntity
  8
部品1
 48
50.0
100
AcDbLine
 10
7832.769134537262
 20
2415.703216354854
 30
0.0
 11
7832.769134537262
 21
2425.303216354854
 31
0.0
  0
LINE
  5
20827
330
747D
100
AcDbEntity
  8
部品1
 48
50.0
100
AcDbLine
 10
7760.769134537262
 20
2547.055209019724
 30
0.0
 11
7776.769134537262
 21
2539.055209019724
 31
0.0
  0
LINE
  5
20828
330
747D
100
AcDbEntity
  8
部品1
 48
50.0
100
AcDbLine
 10
7760.769134537262
 20
2515.055209019724
 30
0.0
 11
7776.769134537262
 21
2507.055209019724
 31
0.0
  0
LINE
  5
20829
330
747D
100
AcDbEntity
  8
部品1
 48
50.0
100
AcDbLine
 10
7760.769134537262
 20
2547.055209019724
 30
0.0
 11
7776.769134537262
 21
2555.055209019724
 31
0.0
  0
LINE
  5
2082A
330
747D
100
AcDbEntity
  8
部品1
 48
50.0
100
AcDbLine
 10
7760.769134537262
 20
2515.055209019724
 30
0.0
 11
7760.769134537262
 21
2547.055209019724
 31
0.0
  0
LINE
  5
2082B
330
747D
100
AcDbEntity
  8
部品1
 48
50.0
100
AcDbLine
 10
7776.769134537262
 20
2555.055209019724
 30
0.0
 11
7808.769134537262
 21
2555.055209019724
 31
0.0
  0
ELLIPSE
  5
2082C
330
747D
100
AcDbEntity
  8
細線
 48
50.0
100
AcDbEllipse
 10
7792.769134537262
 20
2547.055209019724
 30
0.0
 11
14.76670786606846
 21
0.0
 31
0.0
210
0.0
220
0.0
230
1.0
 40
0.2071254069489396
 41
0.0
 42
6.283185307179586
  0
LINE
  5
2082D
330
747D
100
AcDbEntity
  8
部品1
 48
50.0
100
AcDbLine
 10
7776.769134537262
 20
2507.055209019724
 30
0.0
 11
7808.769134537262
 21
2507.055209019724
 31
0.0
  0
LINE
  5
2082E
330
747D
100
AcDbEntity
  8
部品1
 48
50.0
100
AcDbLine
 10
7808.769134537262
 20
2507.055209019724
 30
0.0
 11
7824.769134537262
 21
2515.055209019724
 31
0.0
  0
LINE
  5
2082F
330
747D
100
AcDbEntity
  8
部品1
 48
50.0
100
AcDbLine
 10
7776.769134537262
 20
2539.055209019724
 30
0.0
 11
7808.769134537262
 21
2539.055209019724
 31
0.0
  0
LINE
  5
20830
330
747D
100
AcDbEntity
  8
部品1
 48
50.0
100
AcDbLine
 10
7808.769134537262
 20
2539.055209019724
 30
0.0
 11
7824.769134537262
 21
2547.055209019724
 31
0.0
  0
LINE
  5
20831
330
747D
100
AcDbEntity
  8
細線
 48
50.0
100
AcDbLine
 10
7808.769134537262
 20
2507.055209019724
 30
0.0
 11
7808.769134537262
 21
2539.055209019724
 31
0.0
  0
LINE
  5
20832
330
747D
100
AcDbEntity
  8
部品1
 48
50.0
100
AcDbLine
 10
7824.769134537262
 20
2515.055209019724
 30
0.0
 11
7824.769134537262
 21
2547.055209019724
 31
0.0
  0
LINE
  5
20833
330
747D
100
AcDbEntity
  8
細線
 48
50.0
100
AcDbLine
 10
7776.769134537262
 20
2507.055209019724
 30
0.0
 11
7776.769134537262
 21
2539.055209019724
 31
0.0
  0
LINE
  5
20834
330
747D
100
AcDbEntity
  8
部品1
 48
50.0
100
AcDbLine
 10
7808.769134537262
 20
2555.055209019724
 30
0.0
 11
7824.769134537262
 21
2547.055209019724
 31
0.0
  0
TEXT
  5
20835
330
747D
100
AcDbEntity
  8
部品1
100
AcDbText
 10
7493.541383729193
 20
3297.599615735999
 30
0.0
 40
120.0
  1
基礎詳細
  7
STYLE2
100
AcDbText
  0
LINE
  5
20836
330
747D
100
AcDbEntity
  8
部品1
100
AcDbLine
 10
10871.64656793705
 20
512.8445781027794
 30
0.0
 11
10871.64656793706
 21
3477.151547687427
 31
0.0
  0
LINE
  5
20837
330
747D
100
AcDbEntity
  8
細線
100
AcDbLine
 10
9879.538400516807
 20
1916.179927910581
 30
0.0
 11
9684.90506684002
 21
2110.813261587365
 31
0.0
  0
LINE
  5
20838
330
747D
100
AcDbEntity
  8
部品1
100
AcDbLine
 10
9684.90506684002
 20
2156.179927910581
 30
0.0
 11
10164.90506684002
 21
2156.179927910581
 31
0.0
  0
LINE
  5
20839
330
747D
100
AcDbEntity
  8
細線
 48
50.0
100
AcDbLine
 10
9818.975951283279
 20
1696.481012257232
 30
0.0
 11
9853.273447914464
 21
1824.481012257231
 31
0.0
  0
LINE
  5
2083A
330
747D
100
AcDbEntity
  8
部品1
100
AcDbLine
 10
9564.905066840019
 20
1696.481012257228
 30
0.0
 11
10284.90506684002
 21
1696.481012257232
 31
0.0
  0
LINE
  5
2083B
330
747D
100
AcDbEntity
  8
部品1
100
AcDbLine
 10
9564.905066840019
 20
1824.481012257232
 30
0.0
 11
10284.90506684002
 21
1824.481012257234
 31
0.0
  0
LINE
  5
2083C
330
747D
100
AcDbEntity
  8
細線
100
AcDbLine
 10
9745.823712333262
 20
1824.481012257232
 30
0.0
 11
9837.522627986608
 21
1916.179927910581
 31
0.0
  0
LWPOLYLINE
  5
2083D
330
747D
100
AcDbEntity
  8
部品1
 48
50.0
100
AcDbPolyline
 90
        2
 70
     0
 43
12.0
 10
9300.293804739631
 20
1916.179927910581
 10
10501.38610787126
 20
1916.179927910581
  0
LINE
  5
2083E
330
747D
100
AcDbEntity
  8
細線
100
AcDbLine
 10
9828.626712271372
 20
1916.179927910581
 30
0.0
 11
9684.90506684002
 21
2059.901573341935
 31
0.0
  0
TEXT
  5
2083F
330
747D
100
AcDbEntity
  8
部品1
 48
50.0
100
AcDbText
 10
8920.786980081517
 20
1649.380187273273
 30
0.0
 40
80.0
  1
ボルトの出
 50
90.0
  7
STYLE2
100
AcDbText
  0
LINE
  5
20840
330
747D
100
AcDbEntity
  8
部品1
100
AcDbLine
 10
9684.90506684002
 20
1916.179927910581
 30
0.0
 11
9684.90506684002
 21
2156.179927910581
 31
0.0
  0
LINE
  5
20841
330
747D
100
AcDbEntity
  8
細線
 48
50.0
100
AcDbLine
 10
9661.19986138878
 20
1696.481012257231
 30
0.0
 11
9695.497358019963
 21
1824.481012257231
 31
0.0
  0
LINE
  5
20842
330
747D
100
AcDbEntity
  8
細線
 48
50.0
100
AcDbLine
 10
9740.087906336031
 20
1696.481012257232
 30
0.0
 11
9774.385402967215
 21
1824.481012257232
 31
0.0
  0
LINE
  5
20843
330
747D
100
AcDbEntity
  8
細線
 48
50.0
100
AcDbLine
 10
9582.311816441531
 20
1696.481012257232
 30
0.0
 11
9616.609313072718
 21
1824.481012257232
 31
0.0
  0
LINE
  5
20844
330
747D
100
AcDbEntity
  8
部品1
100
AcDbLine
 10
9564.905066840019
 20
1696.481012257228
 30
0.0
 11
9564.905066840019
 21
1916.179927910581
 31
0.0
  0
LINE
  5
20845
330
747D
100
AcDbEntity
  8
細線
 48
50.0
100
AcDbLine
 10
9667.630642007132
 20
1720.481012257232
 30
0.0
 11
9674.061422625481
 21
1696.481012257232
 31
0.0
  0
LINE
  5
20846
330
747D
100
AcDbEntity
  8
細線
 48
50.0
100
AcDbLine
 10
9588.742597059882
 20
1720.481012257232
 30
0.0
 11
9595.173377678227
 21
1696.481012257232
 31
0.0
  0
LINE
  5
20847
330
747D
100
AcDbEntity
  8
細線
 48
50.0
100
AcDbLine
 10
9746.518686954383
 20
1720.481012257232
 30
0.0
 11
9752.949467572729
 21
1696.481012257232
 31
0.0
  0
LINE
  5
20848
330
747D
100
AcDbEntity
  8
細線
 48
50.0
100
AcDbLine
 10
9825.40673190163
 20
1720.481012257232
 30
0.0
 11
9831.837512519978
 21
1696.481012257232
 31
0.0
  0
LINE
  5
20849
330
747D
100
AcDbEntity
  8
細線
 48
50.0
100
AcDbLine
 10
9610.178532454371
 20
1800.481012257231
 30
0.0
 11
9603.747751836023
 21
1824.481012257232
 31
0.0
  0
LINE
  5
2084A
330
747D
100
AcDbEntity
  8
細線
 48
50.0
100
AcDbLine
 10
9767.954622348874
 20
1800.481012257231
 30
0.0
 11
9761.523841730527
 21
1824.481012257232
 31
0.0
  0
LINE
  5
2084B
330
747D
100
AcDbEntity
  8
細線
 48
50.0
100
AcDbLine
 10
9689.06657740162
 20
1800.481012257231
 30
0.0
 11
9682.635796783273
 21
1824.481012257232
 31
0.0
  0
LINE
  5
2084C
330
747D
100
AcDbEntity
  8
細線
100
AcDbLine
 10
9677.941461339351
 20
1824.481012257232
 30
0.0
 11
9769.640376992699
 21
1916.179927910581
 31
0.0
  0
LINE
  5
2084D
330
747D
100
AcDbEntity
  8
細線
100
AcDbLine
 10
9711.882586836306
 20
1824.481012257232
 30
0.0
 11
9803.581502489651
 21
1916.179927910581
 31
0.0
  0
LINE
  5
2084E
330
747D
100
AcDbEntity
  8
細線
100
AcDbLine
 10
10100.15571624701
 20
1916.179927910581
 30
0.0
 11
9860.155716247009
 21
2156.179927910581
 31
0.0
  0
LINE
  5
2084F
330
747D
100
AcDbEntity
  8
細線
100
AcDbLine
 10
10151.06740449243
 20
1916.179927910583
 30
0.0
 11
9911.067404492442
 21
2156.179927910581
 31
0.0
  0
LINE
  5
20850
330
747D
100
AcDbEntity
  8
部品1
100
AcDbLine
 10
10164.90506684002
 20
2156.179927910581
 30
0.0
 11
10164.90506684002
 21
1916.179927910581
 31
0.0
  0
LINE
  5
20851
330
747D
100
AcDbEntity
  8
細線
 48
50.0
100
AcDbLine
 10
10134.52813107227
 20
1696.481012257229
 30
0.0
 11
10168.82562770345
 21
1824.481012257229
 31
0.0
  0
LINE
  5
20852
330
747D
100
AcDbEntity
  8
細線
100
AcDbLine
 10
10105.82371233326
 20
1824.481012257233
 30
0.0
 11
10197.52262798661
 21
1916.179927910581
 31
0.0
  0
LINE
  5
20853
330
747D
100
AcDbEntity
  8
細線
 48
50.0
100
AcDbLine
 10
10055.64008612502
 20
1696.481012257231
 30
0.0
 11
10089.93758275619
 21
1824.481012257232
 31
0.0
  0
LINE
  5
20854
330
747D
100
AcDbEntity
  8
細線
 48
50.0
100
AcDbLine
 10
9897.863996230528
 20
1696.481012257231
 30
0.0
 11
9932.161492861709
 21
1824.481012257231
 31
0.0
  0
LINE
  5
20855
330
747D
100
AcDbEntity
  8
細線
 48
50.0
100
AcDbLine
 10
9976.752041177769
 20
1696.481012257232
 30
0.0
 11
10011.04953780895
 21
1824.481012257231
 31
0.0
  0
LINE
  5
20856
330
747D
100
AcDbEntity
  8
細線
 48
50.0
100
AcDbLine
 10
9983.182821796123
 20
1720.481012257232
 30
0.0
 11
9989.61360241447
 21
1696.481012257232
 31
0.0
  0
LINE
  5
20857
330
747D
100
AcDbEntity
  8
細線
 48
50.0
100
AcDbLine
 10
9904.294776848878
 20
1720.481012257232
 30
0.0
 11
9910.725557467223
 21
1696.481012257232
 31
0.0
  0
LINE
  5
20858
330
747D
100
AcDbEntity
  8
細線
 48
50.0
100
AcDbLine
 10
10062.07086674337
 20
1720.481012257232
 30
0.0
 11
10068.50164736172
 21
1696.481012257232
 31
0.0
  0
LINE
  5
20859
330
747D
100
AcDbEntity
  8
細線
 48
50.0
100
AcDbLine
 10
10140.95891169062
 20
1720.481012257231
 30
0.0
 11
10147.38969230896
 21
1696.481012257231
 31
0.0
  0
LINE
  5
2085A
330
747D
100
AcDbEntity
  8
細線
 48
50.0
100
AcDbLine
 10
10004.61875719061
 20
1800.481012257231
 30
0.0
 11
9998.187976572268
 21
1824.481012257232
 31
0.0
  0
LINE
  5
2085B
330
747D
100
AcDbEntity
  8
細線
 48
50.0
100
AcDbLine
 10
9925.730712243368
 20
1800.481012257231
 30
0.0
 11
9919.299931625021
 21
1824.481012257232
 31
0.0
  0
LINE
  5
2085C
330
747D
100
AcDbEntity
  8
細線
 48
50.0
100
AcDbLine
 10
9846.842667296119
 20
1800.481012257231
 30
0.0
 11
9840.411886677772
 21
1824.481012257232
 31
0.0
  0
LINE
  5
2085D
330
747D
100
AcDbEntity
  8
細線
100
AcDbLine
 10
10071.88258683631
 20
1824.481012257233
 30
0.0
 11
10163.58150248965
 21
1916.179927910581
 31
0.0
  0
LINE
  5
2085E
330
747D
100
AcDbEntity
  8
細線
 48
50.0
100
AcDbLine
 10
10083.50680213785
 20
1800.481012257231
 30
0.0
 11
10077.0760215195
 21
1824.481012257232
 31
0.0
  0
LINE
  5
2085F
330
747D
100
AcDbEntity
  8
細線
100
AcDbLine
 10
10037.94146133935
 20
1824.481012257233
 30
0.0
 11
10129.6403769927
 21
1916.179927910581
 31
0.0
  0
LINE
  5
20860
330
747D
100
AcDbEntity
  8
細線
 48
50.0
100
AcDbLine
 10
10162.3948470851
 20
1800.481012257231
 30
0.0
 11
10155.96406646676
 21
1824.481012257231
 31
0.0
  0
LINE
  5
20861
330
747D
100
AcDbEntity
  8
細線
 48
50.0
100
AcDbLine
 10
10213.41617601951
 20
1696.481012257231
 30
0.0
 11
10247.7136726507
 21
1824.481012257229
 31
0.0
  0
LINE
  5
20862
330
747D
100
AcDbEntity
  8
部品1
100
AcDbLine
 10
10284.90506684002
 20
1916.179927910581
 30
0.0
 11
10284.90506684002
 21
1696.481012257232
 31
0.0
  0
LINE
  5
20863
330
747D
100
AcDbEntity
  8
細線
 48
50.0
100
AcDbLine
 10
10219.84695663786
 20
1720.481012257231
 30
0.0
 11
10226.27773725621
 21
1696.481012257231
 31
0.0
  0
LINE
  5
20864
330
747D
100
AcDbEntity
  8
細線
 48
50.0
100
AcDbLine
 10
10241.28289203235
 20
1800.481012257231
 30
0.0
 11
10234.852111414
 21
1824.481012257231
 31
0.0
  0
LEADER
  5
20865
330
747D
100
AcDbEntity
  8
寸法
 48
50.0
100
AcDbLeader
  3
INABA_S50G
 73
     0
 74
     0
 75
     1
 40
120.0
 41
185.591883092037
 76
     3
 10
10095.62947845594
 20
2156.179927910581
 30
0.0
 10
10128.76768508959
 20
2328.32624859172
 30
0.0
 10
10253.76768508958
 20
2328.32624859172
 30
0.0
340
20866
1001
ACAD
1000
DSTYLE
1002
{
1070
    40
1040
1.0
1002
}
  0
MTEXT
  5
20866
102
{ACAD_REACTORS
330
20865
102
}
330
747D
100
AcDbEntity
  8
寸法
 62
     7
 48
50.0
100
AcDbMText
 10
10278.76768508959
 20
2413.326248591719
 30
0.0
 40
120.0
 41
0.8
 71
     4
 72
     1
  1
\A1;C.B
  7
STYLE1
 73
     1
 44
1.0
1001
ACAD
1000
MTEXTBEGIN
1070
    73
1070
     1
1070
    44
1040
1.0
1070
    74
1070
     0
1000
MTEXTEND
  0
ENDSEC
  0
SECTION
  2
OBJECTS
  0
DICTIONARY
  5
7471
330
0
100
AcDbDictionary
281
     1
  3
ACAD_COLOR
350
173D2
  3
ACAD_GROUP
350
7472
  3
ACAD_LAYOUT
350
173D3
  3
ACAD_MATERIAL
350
173D1
  3
ACAD_MLINESTYLE
350
7473
  3
ACAD_PLOTSETTINGS
350
173D4
  3
ACAD_PLOTSTYLENAME
350
173CF
  3
ACDBHEADERROUNDTRIPXREC
350
20908
  3
AcDbVariableDictionary
350
20904
  3
CONTENTDICTIONARY
350
E71C
  3
DRAWINGVARIABLESDICT
350
F3B9
  0
DICTIONARY
  5
1758F
330
7467
100
AcDbDictionary
280
     1
281
     1
  3
ACAD_LAYERSTATES
360
17590
  0
DICTIONARY
  5
173D2
102
{ACAD_REACTORS
330
7471
102
}
330
7471
100
AcDbDictionary
281
     1
  0
DICTIONARY
  5
7472
102
{ACAD_REACTORS
330
7471
102
}
330
7471
100
AcDbDictionary
281
     1
  3
*A1
350
1D2A9
  0
DICTIONARY
  5
173D3
102
{ACAD_REACTORS
330
7471
102
}
330
7471
100
AcDbDictionary
281
     1
  3
Model
350
173D5
  3
レイアウト1
350
173D6
  0
DICTIONARY
  5
173D1
102
{ACAD_REACTORS
330
7471
102
}
330
7471
100
AcDbDictionary
281
     1
  0
DICTIONARY
  5
7473
102
{ACAD_REACTORS
330
7471
102
}
330
7471
100
AcDbDictionary
281
     1
  3
STANDARD
350
7480
  0
DICTIONARY
  5
173D4
102
{ACAD_REACTORS
330
7471
102
}
330
7471
100
AcDbDictionary
281
     1
  0
ACDBDICTIONARYWDFLT
  5
173CF
102
{ACAD_REACTORS
330
7471
102
}
330
7471
100
AcDbDictionary
281
     1
  3
Normal
350
173D0
100
AcDbDictionaryWithDefault
340
173D0
  0
DICTIONARY
  5
20908
102
{ACAD_REACTORS
330
7471
102
}
330
7471
100
AcDbDictionary
281
     1
  3
COLORDICT
350
2090A
  3
MATERIALDICT
350
20909
  0
DICTIONARY
  5
20904
102
{ACAD_REACTORS
330
7471
102
}
330
7471
100
AcDbDictionary
281
     1
  3
DIMASSOC
350
20905
  3
PROJECTNAME
350
20906
  0
DICTIONARY
  5
E71C
102
{ACAD_REACTORS
330
7471
102
}
330
7471
100
AcDbDictionary
281
     1
  0
DICTIONARY
  5
F3B9
102
{ACAD_REACTORS
330
7471
102
}
330
7471
100
AcDbDictionary
281
     1
1001
DRAWINGVARIABLESXDATA
1000
POLARMODE
1000
1
  0
DICTIONARY
  5
17590
102
{ACAD_REACTORS
330
1758F
102
}
330
1758F
100
AcDbDictionary
281
     1
  0
GROUP
  5
1D2A9
102
{ACAD_REACTORS
330
7472
102
}
330
7472
100
AcDbGroup
300

 70
     1
 71
     1
  0
LAYOUT
  5
173D5
102
{ACAD_XDICTIONARY
360
2090B
102
}
102
{ACAD_REACTORS
330
173D3
102
}
330
173D3
100
AcDbPlotSettings
  1

  2
Microsoft Office Document Image Writer
  4

  6

 40
0.0
 41
0.0
 42
0.0
 43
0.0
 44
0.0
 45
0.0
 46
0.0
 47
0.0
 48
0.0
 49
0.0
140
0.0
141
0.0
142
1.0
143
1.0
 70
  1712
 72
     0
 73
     0
 74
     0
  7

 75
     0
147
1.0
148
0.0
149
0.0
100
AcDbLayout
  1
Model
 70
     1
 71
     0
 10
0.0
 20
0.0
 11
12.0
 21
9.0
 12
0.0
 22
0.0
 32
0.0
 14
0.0
 24
0.0
 34
0.0
 15
0.0
 25
0.0
 35
0.0
146
0.0
 13
0.0
 23
0.0
 33
0.0
 16
1.0
 26
0.0
 36
0.0
 17
0.0
 27
1.0
 37
0.0
 76
     0
330
747D
  0
LAYOUT
  5
173D6
102
{ACAD_XDICTIONARY
360
2090D
102
}
102
{ACAD_REACTORS
330
173D3
102
}
330
173D3
100
AcDbPlotSettings
  1

  2
Microsoft Office Document Image Writer
  4

  6

 40
0.0
 41
0.0
 42
0.0
 43
0.0
 44
0.0
 45
0.0
 46
0.0
 47
0.0
 48
0.0
 49
0.0
140
0.0
141
0.0
142
1.0
143
1.0
 70
   688
 72
     0
 73
     0
 74
     5
  7

 75
    16
147
1.0
148
0.0
149
0.0
100
AcDbLayout
  1
レイアウト1
 70
     0
 71
     1
 10
0.0
 20
0.0
 11
420.0
 21
297.0
 12
0.0
 22
0.0
 32
0.0
 14
1.000000000000000E+20
 24
1.000000000000000E+20
 34
1.000000000000000E+20
 15
-1.000000000000000E+20
 25
-1.000000000000000E+20
 35
-1.000000000000000E+20
146
0.0
 13
0.0
 23
0.0
 33
0.0
 16
1.0
 26
0.0
 36
0.0
 17
0.0
 27
1.0
 37
0.0
 76
     0
330
747A
  0
MLINESTYLE
  5
7480
102
{ACAD_REACTORS
330
7473
102
}
330
7473
100
AcDbMlineStyle
  2
STANDARD
 70
     0
  3

 62
     0
 51
90.0
 52
90.0
 71
     2
 49
0.5
 62
   256
  6
BYLAYER
 49
-0.5
 62
   256
  6
BYLAYER
  0
ACDBPLACEHOLDER
  5
173D0
102
{ACAD_REACTORS
330
173CF
102
}
330
173CF
  0
XRECORD
  5
2090A
102
{ACAD_REACTORS
330
20908
102
}
330
20908
100
AcDbXrecord
280
     1
340
173D2
  0
XRECORD
  5
20909
102
{ACAD_REACTORS
330
20908
102
}
330
20908
100
AcDbXrecord
280
     1
340
173D1
  0
DICTIONARYVAR
  5
20905
102
{ACAD_REACTORS
330
20904
102
}
330
20904
100
DictionaryVariables
280
     0
  1
1
  0
DICTIONARYVAR
  5
20906
102
{ACAD_REACTORS
330
20904
102
}
330
20904
100
DictionaryVariables
280
     0
  1

  0
DICTIONARY
  5
2090B
330
173D5
100
AcDbDictionary
280
     1
281
     1
  3
ACAD_XREC_ROUNDTRIP
360
2090C
  0
DICTIONARY
  5
2090D
330
173D6
100
AcDbDictionary
280
     1
281
     1
  3
ACAD_XREC_ROUNDTRIP
360
2090E
  0
XRECORD
  5
2090C
102
{ACAD_REACTORS
330
2090B
102
}
330
2090B
100
AcDbXrecord
280
     1
102
SHADEPLOT
 70
     0
102
SHADEPLOTRESLEVEL
 70
     2
102
SHADEPLOTCUSTOMDPI
 70
   300
  0
XRECORD
  5
2090E
102
{ACAD_REACTORS
330
2090D
102
}
330
2090D
100
AcDbXrecord
280
     1
102
SHADEPLOT
 70
     0
102
SHADEPLOTRESLEVEL
 70
     2
102
SHADEPLOTCUSTOMDPI
 70
   300
  0
ENDSEC
  0
EOF
