  0
SECTION
  2
HEADER
  9
$ACADVER
  1
AC1015
  9
$ACADMAINTVER
 70
    20
  9
$DWGCODEPAGE
  3
ANSI_932
  9
$INSBASE
 10
0.0
 20
0.0
 30
0.0
  9
$EXTMIN
 10
139.196816621341
 20
-0.3625211682701774
 30
-0.0015258207003583
  9
$EXTMAX
 10
16308.32523385566
 20
11409.95547144901
 30
0.0000000349246037
  9
$LIMMIN
 10
0.0
 20
0.0
  9
$LIMMAX
 10
16800.0
 20
11880.0
  9
$ORTHOMODE
 70
     0
  9
$REGENMODE
 70
     1
  9
$FILLMODE
 70
     1
  9
$QTEXTMODE
 70
     0
  9
$MIRRTEXT
 70
     1
  9
$LTSCALE
 40
20.0
  9
$ATTMODE
 70
     1
  9
$TEXTSIZE
 40
100.0
  9
$TRACEWID
 40
1.0
  9
$TEXTSTYLE
  7
STYLE2
  9
$CLAYER
  8
寸法
  9
$CELTYPE
  6
BYLAYER
  9
$CECOLOR
 62
   256
  9
$CELTSCALE
 40
50.0
  9
$DISPSILH
 70
     0
  9
$DIMSCALE
 40
40.0
  9
$DIMASZ
 40
2.5
  9
$DIMEXO
 40
0.5
  9
$DIMDLI
 40
7.0
  9
$DIMRND
 40
0.0
  9
$DIMDLE
 40
0.0
  9
$DIMEXE
 40
1.5
  9
$DIMTP
 40
0.0
  9
$DIMTM
 40
0.0
  9
$DIMTXT
 40
3.0
  9
$DIMCEN
 40
0.0
  9
$DIMTSZ
 40
0.0
  9
$DIMTOL
 70
     0
  9
$DIMLIM
 70
     0
  9
$DIMTIH
 70
     0
  9
$DIMTOH
 70
     0
  9
$DIMSE1
 70
     0
  9
$DIMSE2
 70
     0
  9
$DIMTAD
 70
     3
  9
$DIMZIN
 70
     8
  9
$DIMBLK
  1

  9
$DIMASO
 70
     1
  9
$DIMSHO
 70
     1
  9
$DIMPOST
  1

  9
$DIMAPOST
  1

  9
$DIMALT
 70
     0
  9
$DIMALTD
 70
     2
  9
$DIMALTF
 40
0.0394
  9
$DIMLFAC
 40
1.0
  9
$DIMTOFL
 70
     1
  9
$DIMTVP
 40
0.0
  9
$DIMTIX
 70
     0
  9
$DIMSOXD
 70
     0
  9
$DIMSAH
 70
     1
  9
$DIMBLK1
  1
DOTSMALL
  9
$DIMBLK2
  1
DOTSMALL
  9
$DIMSTYLE
  2
INABA_S40G
  9
$DIMCLRD
 70
     0
  9
$DIMCLRE
 70
     0
  9
$DIMCLRT
 70
     7
  9
$DIMTFAC
 40
1.0
  9
$DIMGAP
 40
1.0
  9
$DIMJUST
 70
     0
  9
$DIMSD1
 70
     0
  9
$DIMSD2
 70
     0
  9
$DIMTOLJ
 70
     1
  9
$DIMTZIN
 70
     0
  9
$DIMALTZ
 70
     0
  9
$DIMALTTZ
 70
     0
  9
$DIMUPT
 70
     0
  9
$DIMDEC
 70
     1
  9
$DIMTDEC
 70
     1
  9
$DIMALTU
 70
     2
  9
$DIMALTTD
 70
     2
  9
$DIMTXSTY
  7
STYLE1
  9
$DIMAUNIT
 70
     0
  9
$DIMADEC
 70
     0
  9
$DIMALTRND
 40
0.0
  9
$DIMAZIN
 70
     0
  9
$DIMDSEP
 70
    46
  9
$DIMATFIT
 70
     3
  9
$DIMFRAC
 70
     0
  9
$DIMLDRBLK
  1

  9
$DIMLUNIT
 70
     2
  9
$DIMLWD
 70
    -2
  9
$DIMLWE
 70
    -2
  9
$DIMTMOVE
 70
     1
  9
$LUNITS
 70
     2
  9
$LUPREC
 70
     1
  9
$SKETCHINC
 40
1.0
  9
$FILLETRAD
 40
2.299999999999999
  9
$AUNITS
 70
     0
  9
$AUPREC
 70
     0
  9
$MENU
  1
acad
  9
$ELEVATION
 40
0.0
  9
$PELEVATION
 40
0.0
  9
$THICKNESS
 40
0.0
  9
$LIMCHECK
 70
     0
  9
$CHAMFERA
 40
3.0
  9
$CHAMFERB
 40
3.0
  9
$CHAMFERC
 40
0.0
  9
$CHAMFERD
 40
0.0
  9
$SKPOLY
 70
     0
  9
$TDCREATE
 40
2451368.612993866
  9
$TDUCREATE
 40
2451368.237993866
  9
$TDUPDATE
 40
2455757.551631216
  9
$TDUUPDATE
 40
2455757.176631216
  9
$TDINDWG
 40
1.6881726389
  9
$TDUSRTIMER
 40
1.6881726389
  9
$USRTIMER
 70
     1
  9
$ANGBASE
 50
0.0
  9
$ANGDIR
 70
     0
  9
$PDMODE
 70
     3
  9
$PDSIZE
 40
2.0
  9
$PLINEWID
 40
0.0
  9
$SPLFRAME
 70
     0
  9
$SPLINETYPE
 70
     6
  9
$SPLINESEGS
 70
     8
  9
$HANDSEED
  5
1F39B
  9
$SURFTAB1
 70
     6
  9
$SURFTAB2
 70
     6
  9
$SURFTYPE
 70
     6
  9
$SURFU
 70
     6
  9
$SURFV
 70
     6
  9
$UCSBASE
  2

  9
$UCSNAME
  2

  9
$UCSORG
 10
0.0
 20
0.0
 30
0.0
  9
$UCSXDIR
 10
1.0
 20
0.0
 30
0.0
  9
$UCSYDIR
 10
0.0
 20
1.0
 30
0.0
  9
$UCSORTHOREF
  2

  9
$UCSORTHOVIEW
 70
     0
  9
$UCSORGTOP
 10
0.0
 20
0.0
 30
0.0
  9
$UCSORGBOTTOM
 10
0.0
 20
0.0
 30
0.0
  9
$UCSORGLEFT
 10
0.0
 20
0.0
 30
0.0
  9
$UCSORGRIGHT
 10
0.0
 20
0.0
 30
0.0
  9
$UCSORGFRONT
 10
0.0
 20
0.0
 30
0.0
  9
$UCSORGBACK
 10
0.0
 20
0.0
 30
0.0
  9
$PUCSBASE
  2

  9
$PUCSNAME
  2

  9
$PUCSORG
 10
0.0
 20
0.0
 30
0.0
  9
$PUCSXDIR
 10
1.0
 20
0.0
 30
0.0
  9
$PUCSYDIR
 10
0.0
 20
1.0
 30
0.0
  9
$PUCSORTHOREF
  2

  9
$PUCSORTHOVIEW
 70
     0
  9
$PUCSORGTOP
 10
0.0
 20
0.0
 30
0.0
  9
$PUCSORGBOTTOM
 10
0.0
 20
0.0
 30
0.0
  9
$PUCSORGLEFT
 10
0.0
 20
0.0
 30
0.0
  9
$PUCSORGRIGHT
 10
0.0
 20
0.0
 30
0.0
  9
$PUCSORGFRONT
 10
0.0
 20
0.0
 30
0.0
  9
$PUCSORGBACK
 10
0.0
 20
0.0
 30
0.0
  9
$USERI1
 70
     0
  9
$USERI2
 70
     0
  9
$USERI3
 70
     0
  9
$USERI4
 70
     0
  9
$USERI5
 70
     0
  9
$USERR1
 40
0.0
  9
$USERR2
 40
0.0
  9
$USERR3
 40
0.0
  9
$USERR4
 40
0.0
  9
$USERR5
 40
0.0
  9
$WORLDVIEW
 70
     1
  9
$SHADEDGE
 70
     3
  9
$SHADEDIF
 70
    70
  9
$TILEMODE
 70
     1
  9
$MAXACTVP
 70
    16
  9
$PINSBASE
 10
0.0
 20
0.0
 30
0.0
  9
$PLIMCHECK
 70
     0
  9
$PEXTMIN
 10
1.000000000000000E+20
 20
1.000000000000000E+20
 30
1.000000000000000E+20
  9
$PEXTMAX
 10
-1.000000000000000E+20
 20
-1.000000000000000E+20
 30
-1.000000000000000E+20
  9
$PLIMMIN
 10
0.0
 20
0.0
  9
$PLIMMAX
 10
420.0
 20
297.0
  9
$UNITMODE
 70
     0
  9
$VISRETAIN
 70
     0
  9
$PLINEGEN
 70
     0
  9
$PSLTSCALE
 70
     0
  9
$TREEDEPTH
 70
  3020
  9
$CMLSTYLE
  2
STANDARD
  9
$CMLJUST
 70
     0
  9
$CMLSCALE
 40
1.0
  9
$PROXYGRAPHICS
 70
     1
  9
$MEASUREMENT
 70
     1
  9
$CELWEIGHT
370
    -1
  9
$ENDCAPS
280
     0
  9
$JOINSTYLE
280
     0
  9
$LWDISPLAY
290
     0
  9
$INSUNITS
 70
     0
  9
$HYPERLINKBASE
  1

  9
$STYLESHEET
  1
inaba.ctb
  9
$XEDIT
290
     1
  9
$CEPSNTYPE
380
     0
  9
$PSTYLEMODE
290
     1
  9
$FINGERPRINTGUID
  2
{3B57B35E-7D77-4BBF-81B7-6C583B9EB24C}
  9
$VERSIONGUID
  2
{93175268-CE79-4E00-99A4-FED42C971769}
  9
$EXTNAMES
290
     1
  9
$PSVPSCALE
 40
0.0
  9
$OLESTARTUP
290
     0
  0
ENDSEC
  0
SECTION
  2
CLASSES
  0
CLASS
  1
ACDBDICTIONARYWDFLT
  2
AcDbDictionaryWithDefault
  3
ObjectDBX Classes
 90
        0
280
     0
281
     0
  0
CLASS
  1
DICTIONARYVAR
  2
AcDbDictionaryVar
  3
ObjectDBX Classes
 90
        0
280
     0
281
     0
  0
CLASS
  1
ACDBPLACEHOLDER
  2
AcDbPlaceHolder
  3
ObjectDBX Classes
 90
        0
280
     0
281
     0
  0
CLASS
  1
LAYOUT
  2
AcDbLayout
  3
ObjectDBX Classes
 90
        0
280
     0
281
     0
  0
ENDSEC
  0
SECTION
  2
TABLES
  0
TABLE
  2
VPORT
  5
746D
330
0
100
AcDbSymbolTable
 70
     4
  0
VPORT
  5
1F393
330
746D
100
AcDbSymbolTableRecord
100
AcDbViewportTableRecord
  2
*Active
 70
     0
 10
0.0
 20
0.0
 11
1.0
 21
1.0
 12
8223.761025238502
 22
5704.872900782045
 13
0.0
 23
0.0
 14
10.0
 24
10.0
 15
10.0
 25
10.0
 16
0.0
 26
0.0
 36
1.0
 17
0.0
 27
0.0
 37
0.0
 40
11498.14718381349
 41
1.528517110266159
 42
50.0
 43
0.0
 44
0.0
 50
0.0
 51
0.0
 71
     0
 72
     0
 73
     1
 74
     0
 75
     0
 76
     0
 77
     0
 78
     0
281
     0
 65
     1
110
0.0
120
0.0
130
0.0
111
1.0
121
0.0
131
0.0
112
0.0
122
1.0
132
0.0
 79
     0
146
0.0
  0
ENDTAB
  0
TABLE
  2
LTYPE
  5
746A
330
0
100
AcDbSymbolTable
 70
     4
  0
LTYPE
  5
7477
330
746A
100
AcDbSymbolTableRecord
100
AcDbLinetypeTableRecord
  2
BYBLOCK
 70
     0
  3

 72
    65
 73
     0
 40
0.0
  0
LTYPE
  5
7478
330
746A
100
AcDbSymbolTableRecord
100
AcDbLinetypeTableRecord
  2
BYLAYER
 70
     0
  3

 72
    65
 73
     0
 40
0.0
  0
LTYPE
  5
7479
330
746A
100
AcDbSymbolTableRecord
100
AcDbLinetypeTableRecord
  2
CONTINUOUS
 70
     0
  3
Solid line
 72
    65
 73
     0
 40
0.0
  0
LTYPE
  5
7816
330
746A
100
AcDbSymbolTableRecord
100
AcDbLinetypeTableRecord
  2
CENTER
 70
     0
  3
____ _ ____ _ ____ _ ____ _ ____ _ ____ _ ____ 
 72
    65
 73
     4
 40
2.0
 49
1.25
 74
     0
 49
-0.25
 74
     0
 49
0.25
 74
     0
 49
-0.25
 74
     0
  0
LTYPE
  5
781A
330
746A
100
AcDbSymbolTableRecord
100
AcDbLinetypeTableRecord
  2
HIDDEN
 70
     0
  3
__ __ __ __ __ __ __ __ __ __ __ __ __ __ __ __
 72
    65
 73
     2
 40
0.375
 49
0.25
 74
     0
 49
-0.125
 74
     0
  0
LTYPE
  5
781B
330
746A
100
AcDbSymbolTableRecord
100
AcDbLinetypeTableRecord
  2
PHANTOM
 70
     0
  3
______  __  __  ______  __  __  ______  __  __ 
 72
    65
 73
     6
 40
2.5
 49
1.25
 74
     0
 49
-0.25
 74
     0
 49
0.25
 74
     0
 49
-0.25
 74
     0
 49
0.25
 74
     0
 49
-0.25
 74
     0
  0
ENDTAB
  0
TABLE
  2
LAYER
  5
7467
102
{ACAD_XDICTIONARY
360
1EDF1
102
}
330
0
100
AcDbSymbolTable
 70
    12
  0
LAYER
  5
7474
330
7467
100
AcDbSymbolTableRecord
100
AcDbLayerTableRecord
  2
0
 70
     0
 62
     7
  6
CONTINUOUS
370
    -3
390
159AE
  0
LAYER
  5
DEB2
330
7467
100
AcDbSymbolTableRecord
100
AcDbLayerTableRecord
  2
センター
 70
     0
 62
     3
  6
CENTER
370
    -3
390
159AE
  0
LAYER
  5
DEB3
330
7467
100
AcDbSymbolTableRecord
100
AcDbLayerTableRecord
  2
寸法
 70
     0
 62
     4
  6
CONTINUOUS
370
    -3
390
159AE
  0
LAYER
  5
DEB4
330
7467
100
AcDbSymbolTableRecord
100
AcDbLayerTableRecord
  2
部品1
 70
     0
 62
     7
  6
CONTINUOUS
370
    -3
390
159AE
  0
LAYER
  5
DEB5
330
7467
100
AcDbSymbolTableRecord
100
AcDbLayerTableRecord
  2
補助
 70
     0
 62
    -1
  6
CONTINUOUS
370
    -3
390
159AE
  0
LAYER
  5
DEB6
330
7467
100
AcDbSymbolTableRecord
100
AcDbLayerTableRecord
  2
文字
 70
     0
 62
     7
  6
CONTINUOUS
370
    -3
390
159AE
  0
LAYER
  5
F255
330
7467
100
AcDbSymbolTableRecord
100
AcDbLayerTableRecord
  2
DEFPOINTS
 70
     0
 62
     7
  6
CONTINUOUS
290
     0
370
    -3
390
159AE
  0
LAYER
  5
10B54
330
7467
100
AcDbSymbolTableRecord
100
AcDbLayerTableRecord
  2
仕様書枠
 70
     0
 62
   230
  6
CONTINUOUS
370
    -3
390
159AE
  0
LAYER
  5
11729
330
7467
100
AcDbSymbolTableRecord
100
AcDbLayerTableRecord
  2
Ｇ．Ｌ
 70
     0
 62
    30
  6
CONTINUOUS
370
    -3
390
159AE
  0
LAYER
  5
1173F
330
7467
100
AcDbSymbolTableRecord
100
AcDbLayerTableRecord
  2
細線
 70
     0
 62
     5
  6
CONTINUOUS
370
    -3
390
159AE
  0
LAYER
  5
12CC4
330
7467
100
AcDbSymbolTableRecord
100
AcDbLayerTableRecord
  2
想像線
 70
     0
 62
     6
  6
PHANTOM
370
    -3
390
159AE
  0
LAYER
  5
142E2
330
7467
100
AcDbSymbolTableRecord
100
AcDbLayerTableRecord
  2
破線
 70
     0
 62
     2
  6
HIDDEN
370
    -3
390
159AE
  0
ENDTAB
  0
TABLE
  2
STYLE
  5
7468
330
0
100
AcDbSymbolTable
 70
     4
  0
STYLE
  5
7475
330
7468
100
AcDbSymbolTableRecord
100
AcDbTextStyleTableRecord
  2
STANDARD
 70
     0
 40
0.0
 41
1.0
 50
0.0
 71
     0
 42
4.0
  3
txt
  4
C:\AutoCAD LT\bigfont.shx
  0
STYLE
  5
F706
330
7468
100
AcDbSymbolTableRecord
100
AcDbTextStyleTableRecord
  2
STYLE1
 70
     0
 40
0.0
 41
1.0
 50
0.0
 71
     0
 42
100.0
  3
isocp.shx
  4
bigfont.shx
  0
STYLE
  5
103BF
330
7468
100
AcDbSymbolTableRecord
100
AcDbTextStyleTableRecord
  2
STYLE2
 70
     0
 40
0.0
 41
1.0
 50
0.0
 71
     0
 42
100.0
  3
MS PGothic.ttf
  4

1001
ACAD
1000
MS PGothic
1071
    32818
  0
STYLE
  5
1EDEE
330
7468
100
AcDbSymbolTableRecord
100
AcDbTextStyleTableRecord
  2
STYLE3
 70
     0
 40
0.0
 41
1.0
 50
0.0
 71
     0
 42
100.0
  3
DFPGothic-EB.ttf
  4

1001
ACAD
1000
DFPGothic-EB
1071
    32818
  0
ENDTAB
  0
TABLE
  2
VIEW
  5
746B
330
0
100
AcDbSymbolTable
 70
     0
  0
ENDTAB
  0
TABLE
  2
UCS
  5
746C
330
0
100
AcDbSymbolTable
 70
     0
  0
ENDTAB
  0
TABLE
  2
APPID
  5
746E
330
0
100
AcDbSymbolTable
 70
     6
  0
APPID
  5
7476
330
746E
100
AcDbSymbolTableRecord
100
AcDbRegAppTableRecord
  2
ACAD
 70
     0
  0
APPID
  5
DEA9
330
746E
100
AcDbSymbolTableRecord
100
AcDbRegAppTableRecord
  2
CONTENTBLOCKICON
 70
     0
  0
APPID
  5
DEAA
330
746E
100
AcDbSymbolTableRecord
100
AcDbRegAppTableRecord
  2
CONTENTBLOCKDESCRIPTION
 70
     0
  0
APPID
  5
E71D
330
746E
100
AcDbSymbolTableRecord
100
AcDbRegAppTableRecord
  2
CONTENTTABDATA
 70
     0
  0
APPID
  5
E71E
330
746E
100
AcDbSymbolTableRecord
100
AcDbRegAppTableRecord
  2
CONTENTCURRENTTAB
 70
     0
  0
APPID
  5
F3BA
330
746E
100
AcDbSymbolTableRecord
100
AcDbRegAppTableRecord
  2
DRAWINGVARIABLESXDATA
 70
     0
  0
ENDTAB
  0
TABLE
  2
DIMSTYLE
  5
746F
330
0
100
AcDbSymbolTable
 70
     4
100
AcDbDimStyleTable
 71
     1
340
F71F
  0
DIMSTYLE
105
F71F
102
{ACAD_REACTORS
330
1D93F
330
1D93E
330
1D926
330
1D925
330
1D920
330
1D91D
330
1D934
330
1D933
330
1D92D
330
1D92C
330
1D929
330
1D927
330
1D91C
330
1D91B
330
1D959
330
1D942
330
1D940
330
1D947
330
1EE89
330
1EE96
330
1EECC
330
1EED9
330
1F27F
102
}
330
746F
100
AcDbSymbolTableRecord
100
AcDbDimStyleTableRecord
  2
INABA_S40G
 70
     0
 40
40.0
 41
2.5
 42
0.5
 43
7.0
 44
1.5
 73
     0
 74
     0
 77
     3
 78
     8
140
3.0
141
0.0
143
0.0394
147
1.0
172
     1
173
     1
174
     1
178
     7
271
     1
288
     1
340
F706
341
F770
343
F770
344
F770
  0
DIMSTYLE
105
1C645
102
{ACAD_REACTORS
330
1F07D
330
1F07E
330
1F086
330
1F08D
330
1F090
330
1F0F0
102
}
330
746F
100
AcDbSymbolTableRecord
100
AcDbDimStyleTableRecord
  2
INABA_S50G
 70
     0
 40
0.0
 41
125.0
 42
25.0
 43
7.0
 44
75.0
 73
     0
 74
     0
 77
     3
 78
     8
140
150.0
141
0.0
143
0.0394
147
25.0
172
     1
173
     1
174
     1
178
     7
271
     1
340
F706
341
F770
343
F770
344
F770
  0
DIMSTYLE
105
1EDEF
330
746F
100
AcDbSymbolTableRecord
100
AcDbDimStyleTableRecord
  2
INABA_S100G
 70
     0
 40
100.0
 41
2.5
 42
0.5
 43
7.0
 44
1.5
 73
     0
 74
     0
 77
     3
 78
     8
140
3.0
141
0.0
143
0.0394
147
1.0
172
     1
173
     1
174
     1
178
     7
271
     1
340
F706
341
F770
343
F770
344
F770
  0
DIMSTYLE
105
1EDF0
330
746F
100
AcDbSymbolTableRecord
100
AcDbDimStyleTableRecord
  2
INABA_S100Gsmall
 70
     0
 40
100.0
 41
1.5
 42
0.5
 43
7.0
 44
0.5
 73
     0
 74
     0
 77
     3
 78
     8
140
2.0
141
0.0
143
0.0394
147
0.5
172
     1
173
     1
174
     1
178
     7
271
     1
272
     1
279
     2
340
F706
343
F770
344
F770
  0
ENDTAB
  0
TABLE
  2
BLOCK_RECORD
  5
7466
330
0
100
AcDbSymbolTable
 70
    31
  0
BLOCK_RECORD
  5
747D
330
7466
100
AcDbSymbolTableRecord
100
AcDbBlockTableRecord
  2
*MODEL_SPACE
340
159B3
  0
BLOCK_RECORD
  5
747A
330
7466
100
AcDbSymbolTableRecord
100
AcDbBlockTableRecord
  2
*PAPER_SPACE
340
159B4
  0
BLOCK_RECORD
  5
F770
330
7466
100
AcDbSymbolTableRecord
100
AcDbBlockTableRecord
  2
_DOTSMALL
340
0
102
{BLKREFS
331
1ED3A
331
1ED3B
331
1ED44
331
1ED45
331
1ED4F
331
1ED50
331
1ED59
331
1ED5A
331
1ED64
331
1ED65
331
1ED6E
331
1ED6F
331
1ED77
331
1ED78
331
1ED80
331
1ED81
331
1ED8B
331
1ED8C
331
1ED95
331
1ED96
331
1ED9E
331
1ED9F
331
1EDA7
331
1EDA8
331
1EE8E
331
1EE8F
331
1EE9B
331
1EE9C
331
1EED1
331
1EED2
331
1EEDE
331
1EEDF
331
1F22E
331
1F22F
331
1F236
331
1F237
331
1F23F
331
1F240
331
1F249
331
1F24A
331
1F254
331
1F255
331
1F25B
331
1F25C
331
1F279
331
1F27A
331
1F2AF
331
1F2B0
331
1F2B9
331
1F2BA
331
1F2CD
331
1F2CE
331
1F2D7
331
1F2D8
331
1F347
331
1F348
102
}
  0
BLOCK_RECORD
  5
1C530
330
7466
100
AcDbSymbolTableRecord
100
AcDbBlockTableRecord
  2
_NONE
340
0
  0
BLOCK_RECORD
  5
1DA44
330
7466
100
AcDbSymbolTableRecord
100
AcDbBlockTableRecord
  2
*D2
340
0
  0
BLOCK_RECORD
  5
1DA51
330
7466
100
AcDbSymbolTableRecord
100
AcDbBlockTableRecord
  2
*D3
340
0
  0
BLOCK_RECORD
  5
1DA5E
330
7466
100
AcDbSymbolTableRecord
100
AcDbBlockTableRecord
  2
*D4
340
0
  0
BLOCK_RECORD
  5
1DA69
330
7466
100
AcDbSymbolTableRecord
100
AcDbBlockTableRecord
  2
*D5
340
0
  0
BLOCK_RECORD
  5
1DA74
330
7466
100
AcDbSymbolTableRecord
100
AcDbBlockTableRecord
  2
*D6
340
0
  0
BLOCK_RECORD
  5
1DA81
330
7466
100
AcDbSymbolTableRecord
100
AcDbBlockTableRecord
  2
*D7
340
0
  0
BLOCK_RECORD
  5
1DA8E
330
7466
100
AcDbSymbolTableRecord
100
AcDbBlockTableRecord
  2
*D8
340
0
  0
BLOCK_RECORD
  5
1DA9A
330
7466
100
AcDbSymbolTableRecord
100
AcDbBlockTableRecord
  2
*D9
340
0
  0
BLOCK_RECORD
  5
1DAA5
330
7466
100
AcDbSymbolTableRecord
100
AcDbBlockTableRecord
  2
*D10
340
0
  0
BLOCK_RECORD
  5
1DAB2
330
7466
100
AcDbSymbolTableRecord
100
AcDbBlockTableRecord
  2
*D11
340
0
  0
BLOCK_RECORD
  5
1DABE
330
7466
100
AcDbSymbolTableRecord
100
AcDbBlockTableRecord
  2
*D12
340
0
  0
BLOCK_RECORD
  5
1DACB
330
7466
100
AcDbSymbolTableRecord
100
AcDbBlockTableRecord
  2
*D13
340
0
  0
BLOCK_RECORD
  5
1DAD9
330
7466
100
AcDbSymbolTableRecord
100
AcDbBlockTableRecord
  2
*D14
340
0
  0
BLOCK_RECORD
  5
1DAE6
330
7466
100
AcDbSymbolTableRecord
100
AcDbBlockTableRecord
  2
*D15
340
0
  0
BLOCK_RECORD
  5
1DAF3
330
7466
100
AcDbSymbolTableRecord
100
AcDbBlockTableRecord
  2
*D16
340
0
  0
BLOCK_RECORD
  5
1DB00
330
7466
100
AcDbSymbolTableRecord
100
AcDbBlockTableRecord
  2
*D17
340
0
  0
BLOCK_RECORD
  5
1DB1A
330
7466
100
AcDbSymbolTableRecord
100
AcDbBlockTableRecord
  2
*D18
340
0
  0
BLOCK_RECORD
  5
1EE8A
330
7466
100
AcDbSymbolTableRecord
100
AcDbBlockTableRecord
  2
*D19
340
0
  0
BLOCK_RECORD
  5
1EE97
330
7466
100
AcDbSymbolTableRecord
100
AcDbBlockTableRecord
  2
*D20
340
0
  0
BLOCK_RECORD
  5
1EECD
330
7466
100
AcDbSymbolTableRecord
100
AcDbBlockTableRecord
  2
*D21
340
0
  0
BLOCK_RECORD
  5
1EEDA
330
7466
100
AcDbSymbolTableRecord
100
AcDbBlockTableRecord
  2
*D22
340
0
  0
BLOCK_RECORD
  5
1F1AA
330
7466
100
AcDbSymbolTableRecord
100
AcDbBlockTableRecord
  2
*D23
340
0
  0
BLOCK_RECORD
  5
1F1B5
330
7466
100
AcDbSymbolTableRecord
100
AcDbBlockTableRecord
  2
*D24
340
0
  0
BLOCK_RECORD
  5
1F1C3
330
7466
100
AcDbSymbolTableRecord
100
AcDbBlockTableRecord
  2
*D25
340
0
  0
BLOCK_RECORD
  5
1F1CF
330
7466
100
AcDbSymbolTableRecord
100
AcDbBlockTableRecord
  2
*D26
340
0
  0
BLOCK_RECORD
  5
1F1DB
330
7466
100
AcDbSymbolTableRecord
100
AcDbBlockTableRecord
  2
*D27
340
0
  0
BLOCK_RECORD
  5
1F1E7
330
7466
100
AcDbSymbolTableRecord
100
AcDbBlockTableRecord
  2
*D28
340
0
  0
BLOCK_RECORD
  5
1F280
330
7466
100
AcDbSymbolTableRecord
100
AcDbBlockTableRecord
  2
*D29
340
0
  0
ENDTAB
  0
ENDSEC
  0
SECTION
  2
BLOCKS
  0
BLOCK
  5
7489
330
747D
100
AcDbEntity
  8
0
100
AcDbBlockBegin
  2
*MODEL_SPACE
 70
     0
 10
0.0
 20
0.0
 30
0.0
  3
*MODEL_SPACE
  1

  0
ENDBLK
  5
748A
330
747D
100
AcDbEntity
  8
0
100
AcDbBlockEnd
  0
BLOCK
  5
7487
330
747A
100
AcDbEntity
 67
     1
  8
0
100
AcDbBlockBegin
  2
*PAPER_SPACE
 70
     0
 10
0.0
 20
0.0
 30
0.0
  3
*PAPER_SPACE
  1

  0
ENDBLK
  5
7488
330
747A
100
AcDbEntity
 67
     1
  8
0
100
AcDbBlockEnd
  0
BLOCK
  5
F771
330
F770
100
AcDbEntity
  8
0
 48
50.0
100
AcDbBlockBegin
  2
_DOTSMALL
 70
     0
 10
0.0
 20
0.0
 30
0.0
  3
_DOTSMALL
  1

  0
LWPOLYLINE
  5
F772
330
F770
100
AcDbEntity
  8
0
  6
ByBlock
 62
     0
 48
50.0
100
AcDbPolyline
 90
        2
 70
     1
 43
0.5
 10
-0.0625
 20
0.0
 42
1.0
 10
0.0625
 20
0.0
 42
1.0
  0
ENDBLK
  5
F776
330
F770
100
AcDbEntity
  8
0
 48
50.0
100
AcDbBlockEnd
  0
BLOCK
  5
1C531
330
1C530
100
AcDbEntity
  8
0
 48
50.0
100
AcDbBlockBegin
  2
_NONE
 70
     0
 10
0.0
 20
0.0
 30
0.0
  3
_NONE
  1

  0
CIRCLE
  5
1C532
330
1C530
100
AcDbEntity
  8
0
  6
ByBlock
 62
     0
 48
50.0
100
AcDbCircle
 10
0.0
 20
0.0
 30
0.0
 40
0.25
  0
ENDBLK
  5
1C533
330
1C530
100
AcDbEntity
  8
0
 48
50.0
100
AcDbBlockEnd
  0
BLOCK
  5
1DA4F
330
1DA44
100
AcDbEntity
  8
0
 48
50.0
100
AcDbBlockBegin
  2
*D2
 70
     1
 10
0.0
 20
0.0
 30
0.0
  3
*D2
  1

  0
LINE
  5
1F2C9
330
1DA44
100
AcDbEntity
  8
寸法
 62
     0
 48
50.0
370
    -2
100
AcDbLine
 10
7573.599999999998
 20
6290.878363921547
 30
0.0
 11
7700.251118443223
 21
6290.878363921547
 31
0.0
  0
LINE
  5
1F2CA
330
1DA44
100
AcDbEntity
  8
寸法
 62
     0
 48
50.0
370
    -2
100
AcDbLine
 10
7573.599999999998
 20
6420.878363921549
 30
0.0
 11
7700.251118443223
 21
6420.878363921549
 31
0.0
  0
LINE
  5
1F2CB
330
1DA44
100
AcDbEntity
  8
寸法
 62
     0
 48
50.0
370
    -2
100
AcDbLine
 10
7640.251118443223
 20
6290.878363921547
 30
0.0
 11
7640.251118443223
 21
6420.878363921549
 31
0.0
  0
LINE
  5
1F2CC
330
1DA44
100
AcDbEntity
  8
寸法
 62
     0
 48
50.0
370
    -2
100
AcDbLine
 10
7640.251118443223
 20
6420.878363921549
 30
0.0
 11
7640.251118443223
 21
6792.972852110526
 31
0.0
  0
INSERT
  5
1F2CD
330
1DA44
100
AcDbEntity
  8
寸法
 62
     0
 48
50.0
370
    -2
100
AcDbBlockReference
  2
_DOTSMALL
 10
7640.251118443223
 20
6290.878363921547
 30
0.0
 41
100.0
 42
100.0
 43
100.0
 50
270.0
  0
INSERT
  5
1F2CE
330
1DA44
100
AcDbEntity
  8
寸法
 62
     0
 48
50.0
370
    -2
100
AcDbBlockReference
  2
_DOTSMALL
 10
7640.251118443223
 20
6420.878363921549
 30
0.0
 41
100.0
 42
100.0
 43
100.0
 50
90.0
  0
MTEXT
  5
1F2CF
330
1DA44
100
AcDbEntity
  8
寸法
 62
     7
 48
50.0
100
AcDbMText
 10
7540.251118443221
 20
6656.925608016038
 30
0.0
 40
120.0
 41
0.0
 71
     5
 72
     1
  1
\A1;130
  7
STYLE1
 11
0.0000000000000001
 21
1.0
 31
0.0
 73
     1
 44
1.0
1001
ACAD
1000
MTEXTBEGIN
1070
    73
1070
     1
1070
    44
1040
1.0
1070
    74
1070
     0
1000
MTEXTEND
  0
POINT
  5
1F2D0
330
1DA44
100
AcDbEntity
  8
DEFPOINTS
 62
     0
 48
50.0
100
AcDbPoint
 10
7553.599999999999
 20
6290.878363921547
 30
0.0
  0
POINT
  5
1F2D1
330
1DA44
100
AcDbEntity
  8
DEFPOINTS
 62
     0
 48
50.0
100
AcDbPoint
 10
7553.599999999999
 20
6420.878363921549
 30
0.0
  0
POINT
  5
1F2D2
330
1DA44
100
AcDbEntity
  8
DEFPOINTS
 62
     0
 48
50.0
100
AcDbPoint
 10
7640.251118443223
 20
6420.878363921549
 30
0.0
  0
ENDBLK
  5
1DA50
330
1DA44
100
AcDbEntity
  8
0
 48
50.0
100
AcDbBlockEnd
  0
BLOCK
  5
1DA5C
330
1DA51
100
AcDbEntity
  8
0
 48
50.0
100
AcDbBlockBegin
  2
*D3
 70
     1
 10
0.0
 20
0.0
 30
0.0
  3
*D3
  1

  0
LINE
  5
1F2D3
330
1DA51
100
AcDbEntity
  8
寸法
 62
     0
 48
50.0
370
    -2
100
AcDbLine
 10
7573.599999999998
 20
6290.878363921549
 30
0.0
 11
7700.251118443223
 21
6290.878363921549
 31
0.0
  0
LINE
  5
1F2D4
330
1DA51
100
AcDbEntity
  8
寸法
 62
     0
 48
50.0
370
    -2
100
AcDbLine
 10
7573.599999999998
 20
6120.878363921548
 30
0.0
 11
7700.251118443223
 21
6120.878363921548
 31
0.0
  0
LINE
  5
1F2D5
330
1DA51
100
AcDbEntity
  8
寸法
 62
     0
 48
50.0
370
    -2
100
AcDbLine
 10
7640.251118443224
 20
6290.878363921549
 30
0.0
 11
7640.251118443223
 21
6120.878363921548
 31
0.0
  0
LINE
  5
1F2D6
330
1DA51
100
AcDbEntity
  8
寸法
 62
     0
 48
50.0
370
    -2
100
AcDbLine
 10
7640.251118443223
 20
6120.878363921548
 30
0.0
 11
7640.251118443223
 21
5748.783875732571
 31
0.0
  0
INSERT
  5
1F2D7
330
1DA51
100
AcDbEntity
  8
寸法
 62
     0
 48
50.0
370
    -2
100
AcDbBlockReference
  2
_DOTSMALL
 10
7640.251118443224
 20
6290.878363921549
 30
0.0
 41
100.0
 42
100.0
 43
100.0
 50
90.0
  0
INSERT
  5
1F2D8
330
1DA51
100
AcDbEntity
  8
寸法
 62
     0
 48
50.0
370
    -2
100
AcDbBlockReference
  2
_DOTSMALL
 10
7640.251118443223
 20
6120.878363921548
 30
0.0
 41
100.0
 42
100.0
 43
100.0
 50
270.0
  0
MTEXT
  5
1F2D9
330
1DA51
100
AcDbEntity
  8
寸法
 62
     7
 48
50.0
100
AcDbMText
 10
7540.251118443222
 20
5884.831119827059
 30
0.0
 40
120.0
 41
0.0
 71
     5
 72
     1
  1
\A1;170
  7
STYLE1
 11
0.0000000000000001
 21
1.0
 31
0.0
 73
     1
 44
1.0
1001
ACAD
1000
MTEXTBEGIN
1070
    73
1070
     1
1070
    44
1040
1.0
1070
    74
1070
     0
1000
MTEXTEND
  0
POINT
  5
1F2DA
330
1DA51
100
AcDbEntity
  8
DEFPOINTS
 62
     0
 48
50.0
100
AcDbPoint
 10
7553.599999999999
 20
6290.878363921549
 30
0.0
  0
POINT
  5
1F2DB
330
1DA51
100
AcDbEntity
  8
DEFPOINTS
 62
     0
 48
50.0
100
AcDbPoint
 10
7553.599999999999
 20
6120.878363921548
 30
0.0
  0
POINT
  5
1F2DC
330
1DA51
100
AcDbEntity
  8
DEFPOINTS
 62
     0
 48
50.0
100
AcDbPoint
 10
7640.251118443223
 20
6120.878363921548
 30
0.0
  0
ENDBLK
  5
1DA5D
330
1DA51
100
AcDbEntity
  8
0
 48
50.0
100
AcDbBlockEnd
  0
BLOCK
  5
1DA67
330
1DA5E
100
AcDbEntity
  8
0
 48
50.0
100
AcDbBlockBegin
  2
*D4
 70
     1
 10
0.0
 20
0.0
 30
0.0
  3
*D4
  1

  0
LINE
  5
1EDA4
330
1DA5E
100
AcDbEntity
  8
寸法
 62
     0
 48
50.0
370
    -2
100
AcDbLine
 10
8580.599999999998
 20
7447.878363921545
 30
0.0
 11
8580.599999999998
 21
8165.938974311476
 31
0.0
  0
LINE
  5
1EDA5
330
1DA5E
100
AcDbEntity
  8
寸法
 62
     0
 48
50.0
370
    -2
100
AcDbLine
 10
7446.6
 20
7447.878363921545
 30
0.0
 11
7446.6
 21
8165.938974311476
 31
0.0
  0
LINE
  5
1EDA6
330
1DA5E
100
AcDbEntity
  8
寸法
 62
     0
 48
50.0
370
    -2
100
AcDbLine
 10
8580.599999999998
 20
8105.938974311476
 30
0.0
 11
7446.6
 21
8105.938974311476
 31
0.0
  0
INSERT
  5
1EDA7
330
1DA5E
100
AcDbEntity
  8
寸法
 62
     0
 48
50.0
370
    -2
100
AcDbBlockReference
  2
_DOTSMALL
 10
8580.599999999998
 20
8105.938974311476
 30
0.0
 41
100.0
 42
100.0
 43
100.0
  0
INSERT
  5
1EDA8
330
1DA5E
100
AcDbEntity
  8
寸法
 62
     0
 48
50.0
370
    -2
100
AcDbBlockReference
  2
_DOTSMALL
 10
7446.6
 20
8105.938974311476
 30
0.0
 41
100.0
 42
100.0
 43
100.0
 50
180.0
  0
MTEXT
  5
1EDA9
330
1DA5E
100
AcDbEntity
  8
寸法
 62
     7
 48
50.0
100
AcDbMText
 10
8013.599999999998
 20
8205.938974311475
 30
0.0
 40
120.0
 41
0.0
 71
     5
 72
     1
  1
\A1;1134
  7
STYLE1
 73
     1
 44
1.0
1001
ACAD
1000
MTEXTBEGIN
1070
    73
1070
     1
1070
    44
1040
1.0
1070
    74
1070
     0
1000
MTEXTEND
  0
POINT
  5
1EDAA
330
1DA5E
100
AcDbEntity
  8
DEFPOINTS
 62
     0
 48
50.0
100
AcDbPoint
 10
8580.599999999998
 20
7427.878363921546
 30
0.0
  0
POINT
  5
1EDAB
330
1DA5E
100
AcDbEntity
  8
DEFPOINTS
 62
     0
 48
50.0
100
AcDbPoint
 10
7446.6
 20
7427.878363921546
 30
0.0
  0
POINT
  5
1EDAC
330
1DA5E
100
AcDbEntity
  8
DEFPOINTS
 62
     0
 48
50.0
100
AcDbPoint
 10
7446.6
 20
8105.938974311476
 30
0.0
  0
ENDBLK
  5
1DA68
330
1DA5E
100
AcDbEntity
  8
0
 48
50.0
100
AcDbBlockEnd
  0
BLOCK
  5
1DA72
330
1DA69
100
AcDbEntity
  8
0
 48
50.0
100
AcDbBlockBegin
  2
*D5
 70
     1
 10
0.0
 20
0.0
 30
0.0
  3
*D5
  1

  0
LINE
  5
1ED9B
330
1DA69
100
AcDbEntity
  8
寸法
 62
     0
 48
50.0
370
    -2
100
AcDbLine
 10
7323.599999999998
 20
7520.878363921545
 30
0.0
 11
7323.599999999998
 21
8378.399669828311
 31
0.0
  0
LINE
  5
1ED9C
330
1DA69
100
AcDbEntity
  8
寸法
 62
     0
 48
50.0
370
    -2
100
AcDbLine
 10
8703.599999999999
 20
7520.878363921545
 30
0.0
 11
8703.599999999999
 21
8378.399669828311
 31
0.0
  0
LINE
  5
1ED9D
330
1DA69
100
AcDbEntity
  8
寸法
 62
     0
 48
50.0
370
    -2
100
AcDbLine
 10
7323.599999999998
 20
8318.399669828313
 30
0.0
 11
8703.599999999999
 21
8318.399669828313
 31
0.0
  0
INSERT
  5
1ED9E
330
1DA69
100
AcDbEntity
  8
寸法
 62
     0
 48
50.0
370
    -2
100
AcDbBlockReference
  2
_DOTSMALL
 10
7323.599999999998
 20
8318.399669828313
 30
0.0
 41
100.0
 42
100.0
 43
100.0
 50
180.0
  0
INSERT
  5
1ED9F
330
1DA69
100
AcDbEntity
  8
寸法
 62
     0
 48
50.0
370
    -2
100
AcDbBlockReference
  2
_DOTSMALL
 10
8703.599999999999
 20
8318.399669828313
 30
0.0
 41
100.0
 42
100.0
 43
100.0
  0
MTEXT
  5
1EDA0
330
1DA69
100
AcDbEntity
  8
寸法
 62
     7
 48
50.0
100
AcDbMText
 10
8013.599999999998
 20
8418.399669828312
 30
0.0
 40
120.0
 41
0.0
 71
     5
 72
     1
  1
\A1;1380
  7
STYLE1
 73
     1
 44
1.0
1001
ACAD
1000
MTEXTBEGIN
1070
    73
1070
     1
1070
    44
1040
1.0
1070
    74
1070
     0
1000
MTEXTEND
  0
POINT
  5
1EDA1
330
1DA69
100
AcDbEntity
  8
DEFPOINTS
 62
     0
 48
50.0
100
AcDbPoint
 10
7323.599999999998
 20
7500.878363921545
 30
0.0
  0
POINT
  5
1EDA2
330
1DA69
100
AcDbEntity
  8
DEFPOINTS
 62
     0
 48
50.0
100
AcDbPoint
 10
8703.599999999999
 20
7500.878363921545
 30
0.0
  0
POINT
  5
1EDA3
330
1DA69
100
AcDbEntity
  8
DEFPOINTS
 62
     0
 48
50.0
100
AcDbPoint
 10
8703.599999999999
 20
8318.399669828313
 30
0.0
  0
ENDBLK
  5
1DA73
330
1DA69
100
AcDbEntity
  8
0
 48
50.0
100
AcDbBlockEnd
  0
BLOCK
  5
1DA7F
330
1DA74
100
AcDbEntity
  8
0
 48
50.0
100
AcDbBlockBegin
  2
*D6
 70
     1
 10
0.0
 20
0.0
 30
0.0
  3
*D6
  1

  0
LINE
  5
1ED91
330
1DA74
100
AcDbEntity
  8
寸法
 62
     0
 48
50.0
370
    -2
100
AcDbLine
 10
7446.6
 20
7447.878363921545
 30
0.0
 11
7446.6
 21
8165.938974311476
 31
0.0
  0
LINE
  5
1ED92
330
1DA74
100
AcDbEntity
  8
寸法
 62
     0
 48
50.0
370
    -2
100
AcDbLine
 10
7323.599999999998
 20
7520.878363921545
 30
0.0
 11
7323.599999999998
 21
8165.938974311476
 31
0.0
  0
LINE
  5
1ED93
330
1DA74
100
AcDbEntity
  8
寸法
 62
     0
 48
50.0
370
    -2
100
AcDbLine
 10
7446.6
 20
8105.938974311476
 30
0.0
 11
7323.599999999998
 21
8105.938974311476
 31
0.0
  0
LINE
  5
1ED94
330
1DA74
100
AcDbEntity
  8
寸法
 62
     0
 48
50.0
370
    -2
100
AcDbLine
 10
7323.599999999998
 20
8105.938974311476
 30
0.0
 11
6946.62943725152
 21
8105.938974311476
 31
0.0
  0
INSERT
  5
1ED95
330
1DA74
100
AcDbEntity
  8
寸法
 62
     0
 48
50.0
370
    -2
100
AcDbBlockReference
  2
_DOTSMALL
 10
7446.6
 20
8105.938974311476
 30
0.0
 41
100.0
 42
100.0
 43
100.0
  0
INSERT
  5
1ED96
330
1DA74
100
AcDbEntity
  8
寸法
 62
     0
 48
50.0
370
    -2
100
AcDbBlockReference
  2
_DOTSMALL
 10
7323.599999999998
 20
8105.938974311476
 30
0.0
 41
100.0
 42
100.0
 43
100.0
 50
180.0
  0
MTEXT
  5
1ED97
330
1DA74
100
AcDbEntity
  8
寸法
 62
     7
 48
50.0
100
AcDbMText
 10
7085.11471862576
 20
8205.950785335096
 30
0.0
 40
120.0
 41
0.0
 71
     5
 72
     1
  1
\A1;123
  7
STYLE1
 73
     1
 44
1.0
1001
ACAD
1000
MTEXTBEGIN
1070
    73
1070
     1
1070
    44
1040
1.0
1070
    74
1070
     0
1000
MTEXTEND
  0
POINT
  5
1ED98
330
1DA74
100
AcDbEntity
  8
DEFPOINTS
 62
     0
 48
50.0
100
AcDbPoint
 10
7446.6
 20
7427.878363921546
 30
0.0
  0
POINT
  5
1ED99
330
1DA74
100
AcDbEntity
  8
DEFPOINTS
 62
     0
 48
50.0
100
AcDbPoint
 10
7323.599999999998
 20
7500.878363921545
 30
0.0
  0
POINT
  5
1ED9A
330
1DA74
100
AcDbEntity
  8
DEFPOINTS
 62
     0
 48
50.0
100
AcDbPoint
 10
7323.599999999998
 20
8105.938974311476
 30
0.0
  0
ENDBLK
  5
1DA80
330
1DA74
100
AcDbEntity
  8
0
 48
50.0
100
AcDbBlockEnd
  0
BLOCK
  5
1DA8C
330
1DA81
100
AcDbEntity
  8
0
 48
50.0
100
AcDbBlockBegin
  2
*D7
 70
     1
 10
0.0
 20
0.0
 30
0.0
  3
*D7
  1

  0
LINE
  5
1ED86
330
1DA81
100
AcDbEntity
  8
寸法
 62
     0
 48
50.0
370
    -2
100
AcDbLine
 10
7278.599999999994
 20
8125.938974311475
 30
0.0
 11
7278.599999999994
 21
8378.399669828313
 31
0.0
  0
LINE
  5
1ED87
330
1DA81
100
AcDbEntity
  8
寸法
 62
     0
 48
50.0
370
    -2
100
AcDbLine
 10
7323.599999999998
 20
7520.878363921545
 30
0.0
 11
7323.599999999998
 21
8378.399669828313
 31
0.0
  0
LINE
  5
1ED88
330
1DA81
100
AcDbEntity
  8
寸法
 62
     0
 48
50.0
370
    -2
100
AcDbLine
 10
7278.599999999994
 20
8318.399669828314
 30
0.0
 11
7178.599999999994
 21
8318.399669828314
 31
0.0
  0
LINE
  5
1ED89
330
1DA81
100
AcDbEntity
  8
寸法
 62
     0
 48
50.0
370
    -2
100
AcDbLine
 10
7323.599999999998
 20
8318.399669828314
 30
0.0
 11
7423.599999999999
 21
8318.399669828314
 31
0.0
  0
LINE
  5
1ED8A
330
1DA81
100
AcDbEntity
  8
寸法
 62
     0
 48
50.0
370
    -2
100
AcDbLine
 10
7278.599999999994
 20
8318.399669828314
 30
0.0
 11
7323.599999999998
 21
8318.399669828314
 31
0.0
  0
INSERT
  5
1ED8B
330
1DA81
100
AcDbEntity
  8
寸法
 62
     0
 48
50.0
370
    -2
100
AcDbBlockReference
  2
_DOTSMALL
 10
7278.599999999994
 20
8318.399669828314
 30
0.0
 41
100.0
 42
100.0
 43
100.0
  0
INSERT
  5
1ED8C
330
1DA81
100
AcDbEntity
  8
寸法
 62
     0
 48
50.0
370
    -2
100
AcDbBlockReference
  2
_DOTSMALL
 10
7323.599999999998
 20
8318.399669828314
 30
0.0
 41
100.0
 42
100.0
 43
100.0
 50
180.0
  0
MTEXT
  5
1ED8D
330
1DA81
100
AcDbEntity
  8
寸法
 62
     7
 48
50.0
100
AcDbMText
 10
7301.099999999997
 20
8418.399669828314
 30
0.0
 40
120.0
 41
0.0
 71
     5
 72
     1
  1
\A1;a
  7
STYLE1
 73
     1
 44
1.0
1001
ACAD
1000
MTEXTBEGIN
1070
    73
1070
     1
1070
    44
1040
1.0
1070
    74
1070
     0
1000
MTEXTEND
  0
POINT
  5
1ED8E
330
1DA81
100
AcDbEntity
  8
DEFPOINTS
 62
     0
 48
50.0
100
AcDbPoint
 10
7278.599999999994
 20
8105.938974311476
 30
0.0
  0
POINT
  5
1ED8F
330
1DA81
100
AcDbEntity
  8
DEFPOINTS
 62
     0
 48
50.0
100
AcDbPoint
 10
7323.599999999998
 20
7500.878363921545
 30
0.0
  0
POINT
  5
1ED90
330
1DA81
100
AcDbEntity
  8
DEFPOINTS
 62
     0
 48
50.0
100
AcDbPoint
 10
7323.599999999998
 20
8318.399669828314
 30
0.0
  0
ENDBLK
  5
1DA8D
330
1DA81
100
AcDbEntity
  8
0
 48
50.0
100
AcDbBlockEnd
  0
BLOCK
  5
1DA98
330
1DA8E
100
AcDbEntity
  8
0
 48
50.0
100
AcDbBlockBegin
  2
*D8
 70
     1
 10
0.0
 20
0.0
 30
0.0
  3
*D8
  1

  0
LINE
  5
1ED7D
330
1DA8E
100
AcDbEntity
  8
寸法
 62
     0
 48
50.0
370
    -2
100
AcDbLine
 10
7376.599999999999
 20
7377.878363921546
 30
0.0
 11
6767.657733986178
 21
7377.878363921546
 31
0.0
  0
LINE
  5
1ED7E
330
1DA8E
100
AcDbEntity
  8
寸法
 62
     0
 48
50.0
370
    -2
100
AcDbLine
 10
7376.600000000006
 20
6318.878363921547
 30
0.0
 11
6767.657733986178
 21
6318.878363921547
 31
0.0
  0
LINE
  5
1ED7F
330
1DA8E
100
AcDbEntity
  8
寸法
 62
     0
 48
50.0
370
    -2
100
AcDbLine
 10
6827.657733986177
 20
7377.878363921546
 30
0.0
 11
6827.657733986177
 21
6318.878363921547
 31
0.0
  0
INSERT
  5
1ED80
330
1DA8E
100
AcDbEntity
  8
寸法
 62
     0
 48
50.0
370
    -2
100
AcDbBlockReference
  2
_DOTSMALL
 10
6827.657733986177
 20
7377.878363921546
 30
0.0
 41
100.0
 42
100.0
 43
100.0
 50
90.0
  0
INSERT
  5
1ED81
330
1DA8E
100
AcDbEntity
  8
寸法
 62
     0
 48
50.0
370
    -2
100
AcDbBlockReference
  2
_DOTSMALL
 10
6827.657733986177
 20
6318.878363921547
 30
0.0
 41
100.0
 42
100.0
 43
100.0
 50
270.0
  0
MTEXT
  5
1ED82
330
1DA8E
100
AcDbEntity
  8
寸法
 62
     7
 48
50.0
100
AcDbMText
 10
6727.657733986176
 20
6854.501726735804
 30
0.0
 40
120.0
 41
0.0
 71
     5
 72
     1
  1
\A1;1059
  7
STYLE1
 11
0.0000000000000001
 21
1.0
 31
0.0
 73
     1
 44
1.0
1001
ACAD
1000
MTEXTBEGIN
1070
    73
1070
     1
1070
    44
1040
1.0
1070
    74
1070
     0
1000
MTEXTEND
  0
POINT
  5
1ED83
330
1DA8E
100
AcDbEntity
  8
DEFPOINTS
 62
     0
 48
50.0
100
AcDbPoint
 10
7396.599999999999
 20
7377.878363921546
 30
0.0
  0
POINT
  5
1ED84
330
1DA8E
100
AcDbEntity
  8
DEFPOINTS
 62
     0
 48
50.0
100
AcDbPoint
 10
7396.600000000006
 20
6318.878363921547
 30
0.0
  0
POINT
  5
1ED85
330
1DA8E
100
AcDbEntity
  8
DEFPOINTS
 62
     0
 48
50.0
100
AcDbPoint
 10
6827.657733986177
 20
6318.878363921547
 30
0.0
  0
ENDBLK
  5
1DA99
330
1DA8E
100
AcDbEntity
  8
0
 48
50.0
100
AcDbBlockEnd
  0
BLOCK
  5
1DAA3
330
1DA9A
100
AcDbEntity
  8
0
 48
50.0
100
AcDbBlockBegin
  2
*D9
 70
     1
 10
0.0
 20
0.0
 30
0.0
  3
*D9
  1

  0
LINE
  5
1ED74
330
1DA9A
100
AcDbEntity
  8
寸法
 62
     0
 48
50.0
370
    -2
100
AcDbLine
 10
7303.599999999999
 20
7500.878363921545
 30
0.0
 11
6522.164931848212
 21
7500.878363921545
 31
0.0
  0
LINE
  5
1ED75
330
1DA9A
100
AcDbEntity
  8
寸法
 62
     0
 48
50.0
370
    -2
100
AcDbLine
 10
7303.599999999999
 20
6120.878363921545
 30
0.0
 11
6522.164931848211
 21
6120.878363921545
 31
0.0
  0
LINE
  5
1ED76
330
1DA9A
100
AcDbEntity
  8
寸法
 62
     0
 48
50.0
370
    -2
100
AcDbLine
 10
6582.164931848211
 20
7500.878363921545
 30
0.0
 11
6582.16493184821
 21
6120.878363921545
 31
0.0
  0
INSERT
  5
1ED77
330
1DA9A
100
AcDbEntity
  8
寸法
 62
     0
 48
50.0
370
    -2
100
AcDbBlockReference
  2
_DOTSMALL
 10
6582.164931848211
 20
7500.878363921545
 30
0.0
 41
100.0
 42
100.0
 43
100.0
 50
90.0
  0
INSERT
  5
1ED78
330
1DA9A
100
AcDbEntity
  8
寸法
 62
     0
 48
50.0
370
    -2
100
AcDbBlockReference
  2
_DOTSMALL
 10
6582.16493184821
 20
6120.878363921545
 30
0.0
 41
100.0
 42
100.0
 43
100.0
 50
270.0
  0
MTEXT
  5
1ED79
330
1DA9A
100
AcDbEntity
  8
寸法
 62
     7
 48
50.0
100
AcDbMText
 10
6482.16493184821
 20
6844.44938302788
 30
0.0
 40
120.0
 41
0.0
 71
     5
 72
     1
  1
\A1;1380
  7
STYLE1
 11
0.0000000000000001
 21
1.0
 31
0.0
 73
     1
 44
1.0
1001
ACAD
1000
MTEXTBEGIN
1070
    73
1070
     1
1070
    44
1040
1.0
1070
    74
1070
     0
1000
MTEXTEND
  0
POINT
  5
1ED7A
330
1DA9A
100
AcDbEntity
  8
DEFPOINTS
 62
     0
 48
50.0
100
AcDbPoint
 10
7323.599999999998
 20
7500.878363921545
 30
0.0
  0
POINT
  5
1ED7B
330
1DA9A
100
AcDbEntity
  8
DEFPOINTS
 62
     0
 48
50.0
100
AcDbPoint
 10
7323.599999999998
 20
6120.878363921545
 30
0.0
  0
POINT
  5
1ED7C
330
1DA9A
100
AcDbEntity
  8
DEFPOINTS
 62
     0
 48
50.0
100
AcDbPoint
 10
6582.16493184821
 20
6120.878363921545
 30
0.0
  0
ENDBLK
  5
1DAA4
330
1DA9A
100
AcDbEntity
  8
0
 48
50.0
100
AcDbBlockEnd
  0
BLOCK
  5
1DAB0
330
1DAA5
100
AcDbEntity
  8
0
 48
50.0
100
AcDbBlockBegin
  2
*D10
 70
     1
 10
0.0
 20
0.0
 30
0.0
  3
*D10
  1

  0
LINE
  5
1ED6A
330
1DAA5
100
AcDbEntity
  8
寸法
 62
     0
 48
50.0
370
    -2
100
AcDbLine
 10
7376.600000000006
 20
6318.878363921547
 30
0.0
 11
6767.657733986178
 21
6318.878363921547
 31
0.0
  0
LINE
  5
1ED6B
330
1DAA5
100
AcDbEntity
  8
寸法
 62
     0
 48
50.0
370
    -2
100
AcDbLine
 10
7303.599999999999
 20
6120.878363921545
 30
0.0
 11
6767.657733986176
 21
6120.878363921545
 31
0.0
  0
LINE
  5
1ED6C
330
1DAA5
100
AcDbEntity
  8
寸法
 62
     0
 48
50.0
370
    -2
100
AcDbLine
 10
6827.657733986177
 20
6318.878363921547
 30
0.0
 11
6827.657733986177
 21
6120.878363921545
 31
0.0
  0
LINE
  5
1ED6D
330
1DAA5
100
AcDbEntity
  8
寸法
 62
     0
 48
50.0
370
    -2
100
AcDbLine
 10
6827.657733986177
 20
6120.878363921545
 30
0.0
 11
6827.657733986177
 21
5748.459044262232
 31
0.0
  0
INSERT
  5
1ED6E
330
1DAA5
100
AcDbEntity
  8
寸法
 62
     0
 48
50.0
370
    -2
100
AcDbBlockReference
  2
_DOTSMALL
 10
6827.657733986177
 20
6318.878363921547
 30
0.0
 41
100.0
 42
100.0
 43
100.0
 50
90.0
  0
INSERT
  5
1ED6F
330
1DAA5
100
AcDbEntity
  8
寸法
 62
     0
 48
50.0
370
    -2
100
AcDbBlockReference
  2
_DOTSMALL
 10
6827.657733986177
 20
6120.878363921545
 30
0.0
 41
100.0
 42
100.0
 43
100.0
 50
270.0
  0
MTEXT
  5
1ED70
330
1DAA5
100
AcDbEntity
  8
寸法
 62
     7
 48
50.0
100
AcDbMText
 10
6727.657733986176
 20
5884.668704091891
 30
0.0
 40
120.0
 41
0.0
 71
     5
 72
     1
  1
\A1;198
  7
STYLE1
 11
0.0000000000000001
 21
1.0
 31
0.0
 73
     1
 44
1.0
1001
ACAD
1000
MTEXTBEGIN
1070
    73
1070
     1
1070
    44
1040
1.0
1070
    74
1070
     0
1000
MTEXTEND
  0
POINT
  5
1ED71
330
1DAA5
100
AcDbEntity
  8
DEFPOINTS
 62
     0
 48
50.0
100
AcDbPoint
 10
7396.600000000006
 20
6318.878363921547
 30
0.0
  0
POINT
  5
1ED72
330
1DAA5
100
AcDbEntity
  8
DEFPOINTS
 62
     0
 48
50.0
100
AcDbPoint
 10
7323.599999999998
 20
6120.878363921545
 30
0.0
  0
POINT
  5
1ED73
330
1DAA5
100
AcDbEntity
  8
DEFPOINTS
 62
     0
 48
50.0
100
AcDbPoint
 10
6827.657733986177
 20
6120.878363921545
 30
0.0
  0
ENDBLK
  5
1DAB1
330
1DAA5
100
AcDbEntity
  8
0
 48
50.0
100
AcDbBlockEnd
  0
BLOCK
  5
1DABC
330
1DAB2
100
AcDbEntity
  8
0
 48
50.0
100
AcDbBlockBegin
  2
*D11
 70
     1
 10
0.0
 20
0.0
 30
0.0
  3
*D11
  1

  0
LINE
  5
1ED5F
330
1DAB2
100
AcDbEntity
  8
寸法
 62
     0
 48
50.0
370
    -2
100
AcDbLine
 10
7303.599999999999
 20
6120.878363921545
 30
0.0
 11
6522.164931848211
 21
6120.878363921545
 31
0.0
  0
LINE
  5
1ED60
330
1DAB2
100
AcDbEntity
  8
寸法
 62
     0
 48
50.0
370
    -2
100
AcDbLine
 10
6807.657733986177
 20
6065.878363921545
 30
0.0
 11
6522.164931848211
 21
6065.878363921545
 31
0.0
  0
LINE
  5
1ED61
330
1DAB2
100
AcDbEntity
  8
寸法
 62
     0
 48
50.0
370
    -2
100
AcDbLine
 10
6582.16493184821
 20
6120.878363921545
 30
0.0
 11
6582.164931848211
 21
6220.878363921546
 31
0.0
  0
LINE
  5
1ED62
330
1DAB2
100
AcDbEntity
  8
寸法
 62
     0
 48
50.0
370
    -2
100
AcDbLine
 10
6582.16493184821
 20
6065.878363921545
 30
0.0
 11
6582.16493184821
 21
5965.878363921546
 31
0.0
  0
LINE
  5
1ED63
330
1DAB2
100
AcDbEntity
  8
寸法
 62
     0
 48
50.0
370
    -2
100
AcDbLine
 10
6582.16493184821
 20
6120.878363921545
 30
0.0
 11
6582.16493184821
 21
6065.878363921545
 31
0.0
  0
INSERT
  5
1ED64
330
1DAB2
100
AcDbEntity
  8
寸法
 62
     0
 48
50.0
370
    -2
100
AcDbBlockReference
  2
_DOTSMALL
 10
6582.16493184821
 20
6120.878363921545
 30
0.0
 41
100.0
 42
100.0
 43
100.0
 50
270.0
  0
INSERT
  5
1ED65
330
1DAB2
100
AcDbEntity
  8
寸法
 62
     0
 48
50.0
370
    -2
100
AcDbBlockReference
  2
_DOTSMALL
 10
6582.16493184821
 20
6065.878363921545
 30
0.0
 41
100.0
 42
100.0
 43
100.0
 50
90.0
  0
MTEXT
  5
1ED66
330
1DAB2
100
AcDbEntity
  8
寸法
 62
     7
 48
50.0
100
AcDbMText
 10
6482.16493184821
 20
6093.378363921547
 30
0.0
 40
120.0
 41
0.0
 71
     5
 72
     1
  1
\A1;b
  7
STYLE1
 11
0.0000000000000001
 21
1.0
 31
0.0
 73
     1
 44
1.0
1001
ACAD
1000
MTEXTBEGIN
1070
    73
1070
     1
1070
    44
1040
1.0
1070
    74
1070
     0
1000
MTEXTEND
  0
POINT
  5
1ED67
330
1DAB2
100
AcDbEntity
  8
DEFPOINTS
 62
     0
 48
50.0
100
AcDbPoint
 10
7323.599999999998
 20
6120.878363921545
 30
0.0
  0
POINT
  5
1ED68
330
1DAB2
100
AcDbEntity
  8
DEFPOINTS
 62
     0
 48
50.0
100
AcDbPoint
 10
6827.657733986177
 20
6065.878363921545
 30
0.0
  0
POINT
  5
1ED69
330
1DAB2
100
AcDbEntity
  8
DEFPOINTS
 62
     0
 48
50.0
100
AcDbPoint
 10
6582.16493184821
 20
6065.878363921545
 30
0.0
  0
ENDBLK
  5
1DABD
330
1DAB2
100
AcDbEntity
  8
0
 48
50.0
100
AcDbBlockEnd
  0
BLOCK
  5
1DAC9
330
1DABE
100
AcDbEntity
  8
0
 48
50.0
100
AcDbBlockBegin
  2
*D12
 70
     1
 10
0.0
 20
0.0
 30
0.0
  3
*D12
  1

  0
LINE
  5
1ED55
330
1DABE
100
AcDbEntity
  8
寸法
 62
     0
 48
50.0
370
    -2
100
AcDbLine
 10
7303.599999999999
 20
7500.878363921545
 30
0.0
 11
6767.657733986176
 21
7500.878363921545
 31
0.0
  0
LINE
  5
1ED56
330
1DABE
100
AcDbEntity
  8
寸法
 62
     0
 48
50.0
370
    -2
100
AcDbLine
 10
7376.599999999999
 20
7377.878363921546
 30
0.0
 11
6767.657733986176
 21
7377.878363921546
 31
0.0
  0
LINE
  5
1ED57
330
1DABE
100
AcDbEntity
  8
寸法
 62
     0
 48
50.0
370
    -2
100
AcDbLine
 10
6827.657733986177
 20
7377.878363921546
 30
0.0
 11
6827.657733986177
 21
7500.878363921545
 31
0.0
  0
LINE
  5
1ED58
330
1DABE
100
AcDbEntity
  8
寸法
 62
     0
 48
50.0
370
    -2
100
AcDbLine
 10
6827.657733986177
 20
7500.878363921545
 30
0.0
 11
6827.657733986177
 21
7877.848926670023
 31
0.0
  0
INSERT
  5
1ED59
330
1DABE
100
AcDbEntity
  8
寸法
 62
     0
 48
50.0
370
    -2
100
AcDbBlockReference
  2
_DOTSMALL
 10
6827.657733986177
 20
7377.878363921546
 30
0.0
 41
100.0
 42
100.0
 43
100.0
 50
270.0
  0
INSERT
  5
1ED5A
330
1DABE
100
AcDbEntity
  8
寸法
 62
     0
 48
50.0
370
    -2
100
AcDbBlockReference
  2
_DOTSMALL
 10
6827.657733986177
 20
7500.878363921545
 30
0.0
 41
100.0
 42
100.0
 43
100.0
 50
90.0
  0
MTEXT
  5
1ED5B
330
1DABE
100
AcDbEntity
  8
寸法
 62
     7
 48
50.0
100
AcDbMText
 10
6727.645922962555
 20
7739.363645295785
 30
0.0
 40
120.0
 41
0.0
 71
     5
 72
     1
  1
\A1;123
  7
STYLE1
 11
0.0000000000000001
 21
1.0
 31
0.0
 73
     1
 44
1.0
1001
ACAD
1000
MTEXTBEGIN
1070
    73
1070
     1
1070
    44
1040
1.0
1070
    74
1070
     0
1000
MTEXTEND
  0
POINT
  5
1ED5C
330
1DABE
100
AcDbEntity
  8
DEFPOINTS
 62
     0
 48
50.0
100
AcDbPoint
 10
7323.599999999998
 20
7500.878363921545
 30
0.0
  0
POINT
  5
1ED5D
330
1DABE
100
AcDbEntity
  8
DEFPOINTS
 62
     0
 48
50.0
100
AcDbPoint
 10
7396.599999999999
 20
7377.878363921546
 30
0.0
  0
POINT
  5
1ED5E
330
1DABE
100
AcDbEntity
  8
DEFPOINTS
 62
     0
 48
50.0
100
AcDbPoint
 10
6827.657733986177
 20
7377.878363921546
 30
0.0
  0
ENDBLK
  5
1DACA
330
1DABE
100
AcDbEntity
  8
0
 48
50.0
100
AcDbBlockEnd
  0
BLOCK
  5
1DAD7
330
1DACB
100
AcDbEntity
  8
0
 48
50.0
100
AcDbBlockBegin
  2
*D13
 70
     1
 10
0.0
 20
0.0
 30
0.0
  3
*D13
  1

  0
LINE
  5
1ED4A
330
1DACB
100
AcDbEntity
  8
寸法
 62
     0
 48
50.0
370
    -2
100
AcDbLine
 10
6807.657733986179
 20
7575.878363921545
 30
0.0
 11
6522.164931848209
 21
7575.878363921545
 31
0.0
  0
LINE
  5
1ED4B
330
1DACB
100
AcDbEntity
  8
寸法
 62
     0
 48
50.0
370
    -2
100
AcDbLine
 10
7303.599999999999
 20
7500.878363921545
 30
0.0
 11
6522.164931848209
 21
7500.878363921545
 31
0.0
  0
LINE
  5
1ED4C
330
1DACB
100
AcDbEntity
  8
寸法
 62
     0
 48
50.0
370
    -2
100
AcDbLine
 10
6582.16493184821
 20
7575.878363921545
 30
0.0
 11
6582.16493184821
 21
7675.878363921545
 31
0.0
  0
LINE
  5
1ED4D
330
1DACB
100
AcDbEntity
  8
寸法
 62
     0
 48
50.0
370
    -2
100
AcDbLine
 10
6582.16493184821
 20
7500.878363921545
 30
0.0
 11
6582.16493184821
 21
7400.878363921545
 31
0.0
  0
LINE
  5
1ED4E
330
1DACB
100
AcDbEntity
  8
寸法
 62
     0
 48
50.0
370
    -2
100
AcDbLine
 10
6582.16493184821
 20
7575.878363921545
 30
0.0
 11
6582.16493184821
 21
7500.878363921545
 31
0.0
  0
INSERT
  5
1ED4F
330
1DACB
100
AcDbEntity
  8
寸法
 62
     0
 48
50.0
370
    -2
100
AcDbBlockReference
  2
_DOTSMALL
 10
6582.16493184821
 20
7575.878363921545
 30
0.0
 41
100.0
 42
100.0
 43
100.0
 50
270.0
  0
INSERT
  5
1ED50
330
1DACB
100
AcDbEntity
  8
寸法
 62
     0
 48
50.0
370
    -2
100
AcDbBlockReference
  2
_DOTSMALL
 10
6582.16493184821
 20
7500.878363921545
 30
0.0
 41
100.0
 42
100.0
 43
100.0
 50
90.0
  0
MTEXT
  5
1ED51
330
1DACB
100
AcDbEntity
  8
寸法
 62
     7
 48
50.0
100
AcDbMText
 10
6482.164931848209
 20
7538.378363921548
 30
0.0
 40
120.0
 41
0.0
 71
     5
 72
     1
  1
\A1;c
  7
STYLE1
 11
0.0000000000000001
 21
1.0
 31
0.0
 73
     1
 44
1.0
1001
ACAD
1000
MTEXTBEGIN
1070
    73
1070
     1
1070
    44
1040
1.0
1070
    74
1070
     0
1000
MTEXTEND
  0
POINT
  5
1ED52
330
1DACB
100
AcDbEntity
  8
DEFPOINTS
 62
     0
 48
50.0
100
AcDbPoint
 10
6827.657733986177
 20
7575.878363921545
 30
0.0
  0
POINT
  5
1ED53
330
1DACB
100
AcDbEntity
  8
DEFPOINTS
 62
     0
 48
50.0
100
AcDbPoint
 10
7323.599999999998
 20
7500.878363921545
 30
0.0
  0
POINT
  5
1ED54
330
1DACB
100
AcDbEntity
  8
DEFPOINTS
 62
     0
 48
50.0
100
AcDbPoint
 10
6582.16493184821
 20
7500.878363921545
 30
0.0
  0
ENDBLK
  5
1DAD8
330
1DACB
100
AcDbEntity
  8
0
 48
50.0
100
AcDbBlockEnd
  0
BLOCK
  5
1DAE4
330
1DAD9
100
AcDbEntity
  8
0
 48
50.0
100
AcDbBlockBegin
  2
*D14
 70
     1
 10
0.0
 20
0.0
 30
0.0
  3
*D14
  1

  0
LINE
  5
1ED40
330
1DAD9
100
AcDbEntity
  8
寸法
 62
     0
 48
50.0
370
    -2
100
AcDbLine
 10
8703.599999999999
 20
7520.878363921545
 30
0.0
 11
8703.599999999999
 21
8165.938974311476
 31
0.0
  0
LINE
  5
1ED41
330
1DAD9
100
AcDbEntity
  8
寸法
 62
     0
 48
50.0
370
    -2
100
AcDbLine
 10
8580.599999999998
 20
7447.878363921545
 30
0.0
 11
8580.599999999998
 21
8165.938974311476
 31
0.0
  0
LINE
  5
1ED42
330
1DAD9
100
AcDbEntity
  8
寸法
 62
     0
 48
50.0
370
    -2
100
AcDbLine
 10
8580.599999999998
 20
8105.938974311476
 30
0.0
 11
8703.599999999999
 21
8105.938974311476
 31
0.0
  0
LINE
  5
1ED43
330
1DAD9
100
AcDbEntity
  8
寸法
 62
     0
 48
50.0
370
    -2
100
AcDbLine
 10
8703.599999999999
 20
8105.938974311476
 30
0.0
 11
9080.570562748475
 21
8105.938974311476
 31
0.0
  0
INSERT
  5
1ED44
330
1DAD9
100
AcDbEntity
  8
寸法
 62
     0
 48
50.0
370
    -2
100
AcDbBlockReference
  2
_DOTSMALL
 10
8580.599999999998
 20
8105.938974311476
 30
0.0
 41
100.0
 42
100.0
 43
100.0
 50
180.0
  0
INSERT
  5
1ED45
330
1DAD9
100
AcDbEntity
  8
寸法
 62
     0
 48
50.0
370
    -2
100
AcDbBlockReference
  2
_DOTSMALL
 10
8703.599999999999
 20
8105.938974311476
 30
0.0
 41
100.0
 42
100.0
 43
100.0
  0
MTEXT
  5
1ED46
330
1DAD9
100
AcDbEntity
  8
寸法
 62
     7
 48
50.0
100
AcDbMText
 10
8942.085281374238
 20
8205.950785335096
 30
0.0
 40
120.0
 41
0.0
 71
     5
 72
     1
  1
\A1;123
  7
STYLE1
 73
     1
 44
1.0
1001
ACAD
1000
MTEXTBEGIN
1070
    73
1070
     1
1070
    44
1040
1.0
1070
    74
1070
     0
1000
MTEXTEND
  0
POINT
  5
1ED47
330
1DAD9
100
AcDbEntity
  8
DEFPOINTS
 62
     0
 48
50.0
100
AcDbPoint
 10
8703.599999999999
 20
7500.878363921545
 30
0.0
  0
POINT
  5
1ED48
330
1DAD9
100
AcDbEntity
  8
DEFPOINTS
 62
     0
 48
50.0
100
AcDbPoint
 10
8580.599999999998
 20
7427.878363921546
 30
0.0
  0
POINT
  5
1ED49
330
1DAD9
100
AcDbEntity
  8
DEFPOINTS
 62
     0
 48
50.0
100
AcDbPoint
 10
8580.599999999998
 20
8105.938974311476
 30
0.0
  0
ENDBLK
  5
1DAE5
330
1DAD9
100
AcDbEntity
  8
0
 48
50.0
100
AcDbBlockEnd
  0
BLOCK
  5
1DAF1
330
1DAE6
100
AcDbEntity
  8
0
 48
50.0
100
AcDbBlockBegin
  2
*D15
 70
     1
 10
0.0
 20
0.0
 30
0.0
  3
*D15
  1

  0
LINE
  5
1ED35
330
1DAE6
100
AcDbEntity
  8
寸法
 62
     0
 48
50.0
370
    -2
100
AcDbLine
 10
8703.599999999999
 20
7520.878363921545
 30
0.0
 11
8703.599999999999
 21
8378.399669828311
 31
0.0
  0
LINE
  5
1ED36
330
1DAE6
100
AcDbEntity
  8
寸法
 62
     0
 48
50.0
370
    -2
100
AcDbLine
 10
8748.599999999999
 20
8125.938974311475
 30
0.0
 11
8748.599999999999
 21
8378.399669828311
 31
0.0
  0
LINE
  5
1ED37
330
1DAE6
100
AcDbEntity
  8
寸法
 62
     0
 48
50.0
370
    -2
100
AcDbLine
 10
8703.599999999999
 20
8318.399669828313
 30
0.0
 11
8603.599999999998
 21
8318.399669828313
 31
0.0
  0
LINE
  5
1ED38
330
1DAE6
100
AcDbEntity
  8
寸法
 62
     0
 48
50.0
370
    -2
100
AcDbLine
 10
8748.599999999999
 20
8318.399669828313
 30
0.0
 11
8848.599999999999
 21
8318.399669828313
 31
0.0
  0
LINE
  5
1ED39
330
1DAE6
100
AcDbEntity
  8
寸法
 62
     0
 48
50.0
370
    -2
100
AcDbLine
 10
8703.599999999999
 20
8318.399669828313
 30
0.0
 11
8748.599999999999
 21
8318.399669828313
 31
0.0
  0
INSERT
  5
1ED3A
330
1DAE6
100
AcDbEntity
  8
寸法
 62
     0
 48
50.0
370
    -2
100
AcDbBlockReference
  2
_DOTSMALL
 10
8703.599999999999
 20
8318.399669828313
 30
0.0
 41
100.0
 42
100.0
 43
100.0
  0
INSERT
  5
1ED3B
330
1DAE6
100
AcDbEntity
  8
寸法
 62
     0
 48
50.0
370
    -2
100
AcDbBlockReference
  2
_DOTSMALL
 10
8748.599999999999
 20
8318.399669828313
 30
0.0
 41
100.0
 42
100.0
 43
100.0
 50
180.0
  0
MTEXT
  5
1ED3C
330
1DAE6
100
AcDbEntity
  8
寸法
 62
     7
 48
50.0
100
AcDbMText
 10
8726.099999999998
 20
8418.399669828312
 30
0.0
 40
120.0
 41
0.0
 71
     5
 72
     1
  1
\A1;a
  7
STYLE1
 73
     1
 44
1.0
1001
ACAD
1000
MTEXTBEGIN
1070
    73
1070
     1
1070
    44
1040
1.0
1070
    74
1070
     0
1000
MTEXTEND
  0
POINT
  5
1ED3D
330
1DAE6
100
AcDbEntity
  8
DEFPOINTS
 62
     0
 48
50.0
100
AcDbPoint
 10
8703.599999999999
 20
7500.878363921545
 30
0.0
  0
POINT
  5
1ED3E
330
1DAE6
100
AcDbEntity
  8
DEFPOINTS
 62
     0
 48
50.0
100
AcDbPoint
 10
8748.599999999999
 20
8105.938974311476
 30
0.0
  0
POINT
  5
1ED3F
330
1DAE6
100
AcDbEntity
  8
DEFPOINTS
 62
     0
 48
50.0
100
AcDbPoint
 10
8748.599999999999
 20
8318.399669828313
 30
0.0
  0
ENDBLK
  5
1DAF2
330
1DAE6
100
AcDbEntity
  8
0
 48
50.0
100
AcDbBlockEnd
  0
BLOCK
  5
1DAFE
330
1DAF3
100
AcDbEntity
  8
0
 48
50.0
100
AcDbBlockBegin
  2
*D16
 70
     1
 10
0.0
 20
0.0
 30
0.0
  3
*D16
  1

  0
LINE
  5
1F275
330
1DAF3
100
AcDbEntity
  8
寸法
 62
     0
 48
50.0
370
    -2
100
AcDbLine
 10
8703.599999999999
 20
6690.878363921545
 30
0.0
 11
8703.599999999999
 21
6549.111459181441
 31
0.0
  0
LINE
  5
1F276
330
1DAF3
100
AcDbEntity
  8
寸法
 62
     0
 48
50.0
370
    -2
100
AcDbLine
 10
8583.6
 20
6690.878363921545
 30
0.0
 11
8583.6
 21
6549.111459181441
 31
0.0
  0
LINE
  5
1F277
330
1DAF3
100
AcDbEntity
  8
寸法
 62
     0
 48
50.0
370
    -2
100
AcDbLine
 10
8583.6
 20
6609.11145918144
 30
0.0
 11
8703.599999999999
 21
6609.11145918144
 31
0.0
  0
LINE
  5
1F278
330
1DAF3
100
AcDbEntity
  8
寸法
 62
     0
 48
50.0
370
    -2
100
AcDbLine
 10
8703.599999999999
 20
6609.11145918144
 30
0.0
 11
9075.694488188977
 21
6609.11145918144
 31
0.0
  0
INSERT
  5
1F279
330
1DAF3
100
AcDbEntity
  8
寸法
 62
     0
 48
50.0
370
    -2
100
AcDbBlockReference
  2
_DOTSMALL
 10
8583.6
 20
6609.11145918144
 30
0.0
 41
100.0
 42
100.0
 43
100.0
 50
180.0
  0
INSERT
  5
1F27A
330
1DAF3
100
AcDbEntity
  8
寸法
 62
     0
 48
50.0
370
    -2
100
AcDbBlockReference
  2
_DOTSMALL
 10
8703.599999999999
 20
6609.11145918144
 30
0.0
 41
100.0
 42
100.0
 43
100.0
  0
MTEXT
  5
1F27B
330
1DAF3
100
AcDbEntity
  8
寸法
 62
     7
 48
50.0
100
AcDbMText
 10
8939.647244094487
 20
6709.123270205061
 30
0.0
 40
120.0
 41
0.0
 71
     5
 72
     1
  1
\A1;120
  7
STYLE1
 73
     1
 44
1.0
1001
ACAD
1000
MTEXTBEGIN
1070
    73
1070
     1
1070
    44
1040
1.0
1070
    74
1070
     0
1000
MTEXTEND
  0
POINT
  5
1F27C
330
1DAF3
100
AcDbEntity
  8
DEFPOINTS
 62
     0
 48
50.0
100
AcDbPoint
 10
8703.599999999999
 20
6710.878363921546
 30
0.0
  0
POINT
  5
1F27D
330
1DAF3
100
AcDbEntity
  8
DEFPOINTS
 62
     0
 48
50.0
100
AcDbPoint
 10
8583.6
 20
6710.878363921546
 30
0.0
  0
POINT
  5
1F27E
330
1DAF3
100
AcDbEntity
  8
DEFPOINTS
 62
     0
 48
50.0
100
AcDbPoint
 10
8583.6
 20
6609.11145918144
 30
0.0
  0
ENDBLK
  5
1DAFF
330
1DAF3
100
AcDbEntity
  8
0
 48
50.0
100
AcDbBlockEnd
  0
BLOCK
  5
1DB0B
330
1DB00
100
AcDbEntity
  8
0
 48
50.0
100
AcDbBlockBegin
  2
*D17
 70
     1
 10
0.0
 20
0.0
 30
0.0
  3
*D17
  1

  0
LINE
  5
1F2AB
330
1DB00
100
AcDbEntity
  8
寸法
 62
     0
 48
50.0
370
    -2
100
AcDbLine
 10
7573.599999999998
 20
7380.878363921546
 30
0.0
 11
7700.251118443222
 21
7380.878363921546
 31
0.0
  0
LINE
  5
1F2AC
330
1DB00
100
AcDbEntity
  8
寸法
 62
     0
 48
50.0
370
    -2
100
AcDbLine
 10
7573.599999999998
 20
7270.878363921543
 30
0.0
 11
7700.251118443222
 21
7270.878363921543
 31
0.0
  0
LINE
  5
1F2AD
330
1DB00
100
AcDbEntity
  8
寸法
 62
     0
 48
50.0
370
    -2
100
AcDbLine
 10
7640.251118443221
 20
7380.878363921546
 30
0.0
 11
7640.251118443221
 21
7270.878363921543
 31
0.0
  0
LINE
  5
1F2AE
330
1DB00
100
AcDbEntity
  8
寸法
 62
     0
 48
50.0
370
    -2
100
AcDbLine
 10
7640.251118443221
 20
7270.878363921543
 30
0.0
 11
7640.251118443221
 21
6910.783875732565
 31
0.0
  0
INSERT
  5
1F2AF
330
1DB00
100
AcDbEntity
  8
寸法
 62
     0
 48
50.0
370
    -2
100
AcDbBlockReference
  2
_DOTSMALL
 10
7640.251118443221
 20
7380.878363921546
 30
0.0
 41
100.0
 42
100.0
 43
100.0
 50
90.0
  0
INSERT
  5
1F2B0
330
1DB00
100
AcDbEntity
  8
寸法
 62
     0
 48
50.0
370
    -2
100
AcDbBlockReference
  2
_DOTSMALL
 10
7640.251118443221
 20
7270.878363921543
 30
0.0
 41
100.0
 42
100.0
 43
100.0
 50
270.0
  0
MTEXT
  5
1F2B1
330
1DB00
100
AcDbEntity
  8
寸法
 62
     7
 48
50.0
100
AcDbMText
 10
7540.25111844322
 20
7034.831119827053
 30
0.0
 40
120.0
 41
0.0
 71
     5
 72
     1
  1
\A1;110
  7
STYLE1
 11
0.0000000000000001
 21
1.0
 31
0.0
 73
     1
 44
1.0
1001
ACAD
1000
MTEXTBEGIN
1070
    73
1070
     1
1070
    44
1040
1.0
1070
    74
1070
     0
1000
MTEXTEND
  0
POINT
  5
1F2B2
330
1DB00
100
AcDbEntity
  8
DEFPOINTS
 62
     0
 48
50.0
100
AcDbPoint
 10
7553.599999999997
 20
7380.878363921546
 30
0.0
  0
POINT
  5
1F2B3
330
1DB00
100
AcDbEntity
  8
DEFPOINTS
 62
     0
 48
50.0
100
AcDbPoint
 10
7553.599999999999
 20
7270.878363921543
 30
0.0
  0
POINT
  5
1F2B4
330
1DB00
100
AcDbEntity
  8
DEFPOINTS
 62
     0
 48
50.0
100
AcDbPoint
 10
7640.251118443221
 20
7270.878363921543
 30
0.0
  0
ENDBLK
  5
1DB0C
330
1DB00
100
AcDbEntity
  8
0
 48
50.0
100
AcDbBlockEnd
  0
BLOCK
  5
1DB25
330
1DB1A
100
AcDbEntity
  8
0
 48
50.0
100
AcDbBlockBegin
  2
*D18
 70
     1
 10
0.0
 20
0.0
 30
0.0
  3
*D18
  1

  0
LINE
  5
1F2B5
330
1DB1A
100
AcDbEntity
  8
寸法
 62
     0
 48
50.0
370
    -2
100
AcDbLine
 10
7574.09886994877
 20
7500.878363921545
 30
0.0
 11
7700.251118443221
 21
7500.878363921545
 31
0.0
  0
LINE
  5
1F2B6
330
1DB1A
100
AcDbEntity
  8
寸法
 62
     0
 48
50.0
370
    -2
100
AcDbLine
 10
7573.599999999998
 20
7380.878363921546
 30
0.0
 11
7700.251118443221
 21
7380.878363921546
 31
0.0
  0
LINE
  5
1F2B7
330
1DB1A
100
AcDbEntity
  8
寸法
 62
     0
 48
50.0
370
    -2
100
AcDbLine
 10
7640.251118443221
 20
7380.878363921546
 30
0.0
 11
7640.251118443221
 21
7500.878363921545
 31
0.0
  0
LINE
  5
1F2B8
330
1DB1A
100
AcDbEntity
  8
寸法
 62
     0
 48
50.0
370
    -2
100
AcDbLine
 10
7640.251118443221
 20
7500.878363921545
 30
0.0
 11
7640.251118443221
 21
7872.972852110521
 31
0.0
  0
INSERT
  5
1F2B9
330
1DB1A
100
AcDbEntity
  8
寸法
 62
     0
 48
50.0
370
    -2
100
AcDbBlockReference
  2
_DOTSMALL
 10
7640.251118443221
 20
7380.878363921546
 30
0.0
 41
100.0
 42
100.0
 43
100.0
 50
270.0
  0
INSERT
  5
1F2BA
330
1DB1A
100
AcDbEntity
  8
寸法
 62
     0
 48
50.0
370
    -2
100
AcDbBlockReference
  2
_DOTSMALL
 10
7640.251118443221
 20
7500.878363921545
 30
0.0
 41
100.0
 42
100.0
 43
100.0
 50
90.0
  0
MTEXT
  5
1F2BB
330
1DB1A
100
AcDbEntity
  8
寸法
 62
     7
 48
50.0
100
AcDbMText
 10
7540.239307419598
 20
7736.925608016034
 30
0.0
 40
120.0
 41
0.0
 71
     5
 72
     1
  1
\A1;120
  7
STYLE1
 11
0.0000000000000001
 21
1.0
 31
0.0
 73
     1
 44
1.0
1001
ACAD
1000
MTEXTBEGIN
1070
    73
1070
     1
1070
    44
1040
1.0
1070
    74
1070
     0
1000
MTEXTEND
  0
POINT
  5
1F2BC
330
1DB1A
100
AcDbEntity
  8
DEFPOINTS
 62
     0
 48
50.0
100
AcDbPoint
 10
7554.09886994877
 20
7500.878363921545
 30
0.0
  0
POINT
  5
1F2BD
330
1DB1A
100
AcDbEntity
  8
DEFPOINTS
 62
     0
 48
50.0
100
AcDbPoint
 10
7553.599999999997
 20
7380.878363921546
 30
0.0
  0
POINT
  5
1F2BE
330
1DB1A
100
AcDbEntity
  8
DEFPOINTS
 62
     0
 48
50.0
100
AcDbPoint
 10
7640.251118443221
 20
7380.878363921546
 30
0.0
  0
ENDBLK
  5
1DB26
330
1DB1A
100
AcDbEntity
  8
0
 48
50.0
100
AcDbBlockEnd
  0
BLOCK
  5
1EE94
330
1EE8A
100
AcDbEntity
  8
0
 48
50.0
100
AcDbBlockBegin
  2
*D19
 70
     1
 10
0.0
 20
0.0
 30
0.0
  3
*D19
  1

  0
LINE
  5
1EE8B
330
1EE8A
100
AcDbEntity
  8
寸法
 62
     0
 48
50.0
370
    -2
100
AcDbLine
 10
8220.675462383326
 20
7500.878363921545
 30
0.0
 11
8272.976879583898
 21
7500.878363921545
 31
0.0
  0
LINE
  5
1EE8C
330
1EE8A
100
AcDbEntity
  8
寸法
 62
     0
 48
50.0
370
    -2
100
AcDbLine
 10
8083.599999999998
 20
6847.878363921545
 30
0.0
 11
8272.976879583898
 21
6847.878363921545
 31
0.0
  0
LINE
  5
1EE8D
330
1EE8A
100
AcDbEntity
  8
寸法
 62
     0
 48
50.0
370
    -2
100
AcDbLine
 10
8212.976879583896
 20
7500.878363921545
 30
0.0
 11
8212.976879583896
 21
6847.878363921545
 31
0.0
  0
INSERT
  5
1EE8E
330
1EE8A
100
AcDbEntity
  8
寸法
 62
     0
 48
50.0
370
    -2
100
AcDbBlockReference
  2
_DOTSMALL
 10
8212.976879583896
 20
7500.878363921545
 30
0.0
 41
100.0
 42
100.0
 43
100.0
 50
90.0
  0
INSERT
  5
1EE8F
330
1EE8A
100
AcDbEntity
  8
寸法
 62
     0
 48
50.0
370
    -2
100
AcDbBlockReference
  2
_DOTSMALL
 10
8212.976879583896
 20
6847.878363921545
 30
0.0
 41
100.0
 42
100.0
 43
100.0
 50
270.0
  0
MTEXT
  5
1EE90
330
1EE8A
100
AcDbEntity
  8
寸法
 62
     7
 48
50.0
100
AcDbMText
 10
8112.976879583895
 20
7174.378363921547
 30
0.0
 40
120.0
 41
0.0
 71
     5
 72
     1
  1
\A1;653
  7
STYLE1
 11
0.0000000000000001
 21
1.0
 31
0.0
 73
     1
 44
1.0
1001
ACAD
1000
MTEXTBEGIN
1070
    73
1070
     1
1070
    44
1040
1.0
1070
    74
1070
     0
1000
MTEXTEND
  0
POINT
  5
1EE91
330
1EE8A
100
AcDbEntity
  8
DEFPOINTS
 62
     0
 48
50.0
100
AcDbPoint
 10
8200.675462383326
 20
7500.878363921545
 30
0.0
  0
POINT
  5
1EE92
330
1EE8A
100
AcDbEntity
  8
DEFPOINTS
 62
     0
 48
50.0
100
AcDbPoint
 10
8063.599999999999
 20
6847.878363921545
 30
0.0
  0
POINT
  5
1EE93
330
1EE8A
100
AcDbEntity
  8
DEFPOINTS
 62
     0
 48
50.0
100
AcDbPoint
 10
8212.976879583896
 20
6847.878363921545
 30
0.0
  0
ENDBLK
  5
1EE95
330
1EE8A
100
AcDbEntity
  8
0
 48
50.0
100
AcDbBlockEnd
  0
BLOCK
  5
1EEA1
330
1EE97
100
AcDbEntity
  8
0
 48
50.0
100
AcDbBlockBegin
  2
*D20
 70
     1
 10
0.0
 20
0.0
 30
0.0
  3
*D20
  1

  0
LINE
  5
1EE98
330
1EE97
100
AcDbEntity
  8
寸法
 62
     0
 48
50.0
370
    -2
100
AcDbLine
 10
8083.599999999998
 20
6847.878363921545
 30
0.0
 11
8272.976879583898
 21
6847.878363921545
 31
0.0
  0
LINE
  5
1EE99
330
1EE97
100
AcDbEntity
  8
寸法
 62
     0
 48
50.0
370
    -2
100
AcDbLine
 10
8192.976879583907
 20
6120.878363921558
 30
0.0
 11
8152.976879583896
 21
6120.878363921558
 31
0.0
  0
LINE
  5
1EE9A
330
1EE97
100
AcDbEntity
  8
寸法
 62
     0
 48
50.0
370
    -2
100
AcDbLine
 10
8212.976879583896
 20
6847.878363921545
 30
0.0
 11
8212.976879583896
 21
6120.878363921558
 31
0.0
  0
INSERT
  5
1EE9B
330
1EE97
100
AcDbEntity
  8
寸法
 62
     0
 48
50.0
370
    -2
100
AcDbBlockReference
  2
_DOTSMALL
 10
8212.976879583896
 20
6847.878363921545
 30
0.0
 41
100.0
 42
100.0
 43
100.0
 50
90.0
  0
INSERT
  5
1EE9C
330
1EE97
100
AcDbEntity
  8
寸法
 62
     0
 48
50.0
370
    -2
100
AcDbBlockReference
  2
_DOTSMALL
 10
8212.976879583896
 20
6120.878363921558
 30
0.0
 41
100.0
 42
100.0
 43
100.0
 50
270.0
  0
MTEXT
  5
1EE9D
330
1EE97
100
AcDbEntity
  8
寸法
 62
     7
 48
50.0
100
AcDbMText
 10
8112.965068560274
 20
6484.378363921551
 30
0.0
 40
120.0
 41
0.0
 71
     5
 72
     1
  1
\A1;727
  7
STYLE1
 11
0.0000000000000001
 21
1.0
 31
0.0
 73
     1
 44
1.0
1001
ACAD
1000
MTEXTBEGIN
1070
    73
1070
     1
1070
    44
1040
1.0
1070
    74
1070
     0
1000
MTEXTEND
  0
POINT
  5
1EE9E
330
1EE97
100
AcDbEntity
  8
DEFPOINTS
 62
     0
 48
50.0
100
AcDbPoint
 10
8063.599999999999
 20
6847.878363921545
 30
0.0
  0
POINT
  5
1EE9F
330
1EE97
100
AcDbEntity
  8
DEFPOINTS
 62
     0
 48
50.0
100
AcDbPoint
 10
8212.976879583909
 20
6120.878363921558
 30
0.0
  0
POINT
  5
1EEA0
330
1EE97
100
AcDbEntity
  8
DEFPOINTS
 62
     0
 48
50.0
100
AcDbPoint
 10
8212.976879583896
 20
6120.878363921558
 30
0.0
  0
ENDBLK
  5
1EEA2
330
1EE97
100
AcDbEntity
  8
0
 48
50.0
100
AcDbBlockEnd
  0
BLOCK
  5
1EED7
330
1EECD
100
AcDbEntity
  8
0
 48
50.0
100
AcDbBlockBegin
  2
*D21
 70
     1
 10
0.0
 20
0.0
 30
0.0
  3
*D21
  1

  0
LINE
  5
1EECE
330
1EECD
100
AcDbEntity
  8
寸法
 62
     0
 48
50.0
370
    -2
100
AcDbLine
 10
7323.599999999998
 20
7520.878363921545
 30
0.0
 11
7323.599999999998
 21
7985.854767362114
 31
0.0
  0
LINE
  5
1EECF
330
1EECD
100
AcDbEntity
  8
寸法
 62
     0
 48
50.0
370
    -2
100
AcDbLine
 10
8013.599999999998
 20
6917.878363921545
 30
0.0
 11
8013.599999999998
 21
7985.854767362114
 31
0.0
  0
LINE
  5
1EED0
330
1EECD
100
AcDbEntity
  8
寸法
 62
     0
 48
50.0
370
    -2
100
AcDbLine
 10
7323.599999999998
 20
7925.854767362114
 30
0.0
 11
8013.599999999998
 21
7925.854767362114
 31
0.0
  0
INSERT
  5
1EED1
330
1EECD
100
AcDbEntity
  8
寸法
 62
     0
 48
50.0
370
    -2
100
AcDbBlockReference
  2
_DOTSMALL
 10
7323.599999999998
 20
7925.854767362114
 30
0.0
 41
100.0
 42
100.0
 43
100.0
 50
180.0
  0
INSERT
  5
1EED2
330
1EECD
100
AcDbEntity
  8
寸法
 62
     0
 48
50.0
370
    -2
100
AcDbBlockReference
  2
_DOTSMALL
 10
8013.599999999998
 20
7925.854767362114
 30
0.0
 41
100.0
 42
100.0
 43
100.0
  0
MTEXT
  5
1EED3
330
1EECD
100
AcDbEntity
  8
寸法
 62
     7
 48
50.0
100
AcDbMText
 10
7668.599999999999
 20
8025.854767362114
 30
0.0
 40
120.0
 41
0.0
 71
     5
 72
     1
  1
\A1;690
  7
STYLE1
 73
     1
 44
1.0
1001
ACAD
1000
MTEXTBEGIN
1070
    73
1070
     1
1070
    44
1040
1.0
1070
    74
1070
     0
1000
MTEXTEND
  0
POINT
  5
1EED4
330
1EECD
100
AcDbEntity
  8
DEFPOINTS
 62
     0
 48
50.0
100
AcDbPoint
 10
7323.599999999998
 20
7500.878363921545
 30
0.0
  0
POINT
  5
1EED5
330
1EECD
100
AcDbEntity
  8
DEFPOINTS
 62
     0
 48
50.0
100
AcDbPoint
 10
8013.599999999998
 20
6897.878363921545
 30
0.0
  0
POINT
  5
1EED6
330
1EECD
100
AcDbEntity
  8
DEFPOINTS
 62
     0
 48
50.0
100
AcDbPoint
 10
8013.599999999998
 20
7925.854767362114
 30
0.0
  0
ENDBLK
  5
1EED8
330
1EECD
100
AcDbEntity
  8
0
 48
50.0
100
AcDbBlockEnd
  0
BLOCK
  5
1EEE4
330
1EEDA
100
AcDbEntity
  8
0
 48
50.0
100
AcDbBlockBegin
  2
*D22
 70
     1
 10
0.0
 20
0.0
 30
0.0
  3
*D22
  1

  0
LINE
  5
1EEDB
330
1EEDA
100
AcDbEntity
  8
寸法
 62
     0
 48
50.0
370
    -2
100
AcDbLine
 10
8013.599999999998
 20
6917.878363921545
 30
0.0
 11
8013.599999999998
 21
7985.854767362114
 31
0.0
  0
LINE
  5
1EEDC
330
1EEDA
100
AcDbEntity
  8
寸法
 62
     0
 48
50.0
370
    -2
100
AcDbLine
 10
8703.599999999999
 20
7520.878363921545
 30
0.0
 11
8703.599999999999
 21
7985.854767362114
 31
0.0
  0
LINE
  5
1EEDD
330
1EEDA
100
AcDbEntity
  8
寸法
 62
     0
 48
50.0
370
    -2
100
AcDbLine
 10
8013.599999999998
 20
7925.854767362114
 30
0.0
 11
8703.599999999999
 21
7925.854767362114
 31
0.0
  0
INSERT
  5
1EEDE
330
1EEDA
100
AcDbEntity
  8
寸法
 62
     0
 48
50.0
370
    -2
100
AcDbBlockReference
  2
_DOTSMALL
 10
8013.599999999998
 20
7925.854767362114
 30
0.0
 41
100.0
 42
100.0
 43
100.0
 50
180.0
  0
INSERT
  5
1EEDF
330
1EEDA
100
AcDbEntity
  8
寸法
 62
     0
 48
50.0
370
    -2
100
AcDbBlockReference
  2
_DOTSMALL
 10
8703.599999999999
 20
7925.854767362114
 30
0.0
 41
100.0
 42
100.0
 43
100.0
  0
MTEXT
  5
1EEE0
330
1EEDA
100
AcDbEntity
  8
寸法
 62
     7
 48
50.0
100
AcDbMText
 10
8358.599999999999
 20
8025.854767362114
 30
0.0
 40
120.0
 41
0.0
 71
     5
 72
     1
  1
\A1;690
  7
STYLE1
 73
     1
 44
1.0
1001
ACAD
1000
MTEXTBEGIN
1070
    73
1070
     1
1070
    44
1040
1.0
1070
    74
1070
     0
1000
MTEXTEND
  0
POINT
  5
1EEE1
330
1EEDA
100
AcDbEntity
  8
DEFPOINTS
 62
     0
 48
50.0
100
AcDbPoint
 10
8013.599999999998
 20
6897.878363921545
 30
0.0
  0
POINT
  5
1EEE2
330
1EEDA
100
AcDbEntity
  8
DEFPOINTS
 62
     0
 48
50.0
100
AcDbPoint
 10
8703.599999999999
 20
7500.878363921545
 30
0.0
  0
POINT
  5
1EEE3
330
1EEDA
100
AcDbEntity
  8
DEFPOINTS
 62
     0
 48
50.0
100
AcDbPoint
 10
8703.599999999999
 20
7925.854767362114
 30
0.0
  0
ENDBLK
  5
1EEE5
330
1EEDA
100
AcDbEntity
  8
0
 48
50.0
100
AcDbBlockEnd
  0
BLOCK
  5
1F1B3
330
1F1AA
100
AcDbEntity
  8
0
 48
50.0
100
AcDbBlockBegin
  2
*D23
 70
     1
 10
0.0
 20
0.0
 30
0.0
  3
*D23
  1

  0
LINE
  5
1F259
330
1F1AA
100
AcDbEntity
  8
寸法
 62
     0
 48
50.0
370
    -2
100
AcDbLine
 10
7870.784499384729
 20
1636.909309129764
 30
0.0
 11
8422.653099153572
 21
1636.909309129764
 31
0.0
  0
LINE
  5
1F25A
330
1F1AA
100
AcDbEntity
  8
寸法
 62
     0
 48
50.0
370
    -2
100
AcDbLine
 10
8347.653099153573
 20
1960.909309129765
 30
0.0
 11
8347.653099153573
 21
1636.909309129764
 31
0.0
  0
INSERT
  5
1F25B
330
1F1AA
100
AcDbEntity
  8
寸法
 62
     0
 48
50.0
370
    -2
100
AcDbBlockReference
  2
_DOTSMALL
 10
8347.653099153573
 20
1960.909309129765
 30
0.0
 41
125.0
 42
125.0
 43
125.0
 50
90.0
  0
INSERT
  5
1F25C
330
1F1AA
100
AcDbEntity
  8
寸法
 62
     0
 48
50.0
370
    -2
100
AcDbBlockReference
  2
_DOTSMALL
 10
8347.653099153573
 20
1636.909309129764
 30
0.0
 41
125.0
 42
125.0
 43
125.0
 50
270.0
  0
MTEXT
  5
1F25D
330
1F1AA
100
AcDbEntity
  8
寸法
 62
     7
 48
50.0
100
AcDbMText
 10
8247.653099153572
 20
1798.909309129766
 30
0.0
 40
150.0
 41
0.0
 71
     5
 72
     1
  1
\A1;180
  7
STYLE1
 11
0.0000000000000001
 21
1.0
 31
0.0
 73
     1
 44
1.0
1001
ACAD
1000
MTEXTBEGIN
1070
    73
1070
     1
1070
    44
1040
1.0
1070
    74
1070
     0
1000
MTEXTEND
  0
POINT
  5
1F25E
330
1F1AA
100
AcDbEntity
  8
DEFPOINTS
 62
     0
 48
50.0
100
AcDbPoint
 10
7845.784499384729
 20
1960.909309129765
 30
0.0
  0
POINT
  5
1F25F
330
1F1AA
100
AcDbEntity
  8
DEFPOINTS
 62
     0
 48
50.0
100
AcDbPoint
 10
7845.784499384729
 20
1636.909309129764
 30
0.0
  0
POINT
  5
1F260
330
1F1AA
100
AcDbEntity
  8
DEFPOINTS
 62
     0
 48
50.0
100
AcDbPoint
 10
8347.653099153573
 20
1636.909309129764
 30
0.0
  0
ENDBLK
  5
1F1B4
330
1F1AA
100
AcDbEntity
  8
0
 48
50.0
100
AcDbBlockEnd
  0
BLOCK
  5
1F1C1
330
1F1B5
100
AcDbEntity
  8
0
 48
50.0
100
AcDbBlockBegin
  2
*D24
 70
     1
 10
0.0
 20
0.0
 30
0.0
  3
*D24
  1

  0
LINE
  5
1F24E
330
1F1B5
100
AcDbEntity
  8
寸法
 62
     0
 48
50.0
370
    -2
100
AcDbLine
 10
7683.58449938473
 20
2013.669309129767
 30
0.0
 11
8422.653099153572
 21
2013.669309129767
 31
0.0
  0
LINE
  5
1F24F
330
1F1B5
100
AcDbEntity
  8
寸法
 62
     0
 48
50.0
370
    -2
100
AcDbLine
 10
7870.784499384729
 20
1960.909309129765
 30
0.0
 11
8422.653099153572
 21
1960.909309129765
 31
0.0
  0
LINE
  5
1F250
330
1F1B5
100
AcDbEntity
  8
寸法
 62
     0
 48
50.0
370
    -2
100
AcDbLine
 10
8347.653099153573
 20
2013.669309129767
 30
0.0
 11
8347.653099153573
 21
1960.909309129765
 31
0.0
  0
LINE
  5
1F251
330
1F1B5
100
AcDbEntity
  8
寸法
 62
     0
 48
50.0
370
    -2
100
AcDbLine
 10
8347.653099153573
 20
1987.289309129766
 30
0.0
 11
8623.7077652726
 21
1960.785351525552
 31
0.0
  0
LINE
  5
1F252
330
1F1B5
100
AcDbEntity
  8
寸法
 62
     0
 48
50.0
370
    -2
100
AcDbLine
 10
8623.7077652726
 20
1960.785351525552
 30
0.0
 11
8623.7077652726
 21
1345.763092971846
 31
0.0
  0
MTEXT
  5
1F253
330
1F1B5
100
AcDbEntity
  8
寸法
 62
     7
 48
50.0
100
AcDbMText
 10
8523.693001493073
 20
1653.2742222487
 30
0.0
 40
150.0
 41
0.0
 71
     5
 72
     1
  1
\A1;20～25
  7
STYLE1
 11
0.0000000000000001
 21
1.0
 31
0.0
 73
     1
 44
1.0
1001
ACAD
1000
MTEXTBEGIN
1070
    73
1070
     1
1070
    44
1040
1.0
1070
    74
1070
     0
1000
MTEXTEND
  0
INSERT
  5
1F254
330
1F1B5
100
AcDbEntity
  8
寸法
 62
     0
 48
50.0
370
    -2
100
AcDbBlockReference
  2
_DOTSMALL
 10
8347.653099153573
 20
2013.669309129767
 30
0.0
 41
125.0
 42
125.0
 43
125.0
 50
90.0
  0
INSERT
  5
1F255
330
1F1B5
100
AcDbEntity
  8
寸法
 62
     0
 48
50.0
370
    -2
100
AcDbBlockReference
  2
_DOTSMALL
 10
8347.653099153573
 20
1960.909309129765
 30
0.0
 41
125.0
 42
125.0
 43
125.0
 50
270.0
  0
POINT
  5
1F256
330
1F1B5
100
AcDbEntity
  8
DEFPOINTS
 62
     0
 48
50.0
100
AcDbPoint
 10
7658.58449938473
 20
2013.669309129767
 30
0.0
  0
POINT
  5
1F257
330
1F1B5
100
AcDbEntity
  8
DEFPOINTS
 62
     0
 48
50.0
100
AcDbPoint
 10
7845.784499384729
 20
1960.909309129765
 30
0.0
  0
POINT
  5
1F258
330
1F1B5
100
AcDbEntity
  8
DEFPOINTS
 62
     0
 48
50.0
100
AcDbPoint
 10
8347.653099153573
 20
1960.909309129765
 30
0.0
  0
ENDBLK
  5
1F1C2
330
1F1B5
100
AcDbEntity
  8
0
 48
50.0
100
AcDbBlockEnd
  0
BLOCK
  5
1F1CD
330
1F1C3
100
AcDbEntity
  8
0
 48
50.0
100
AcDbBlockBegin
  2
*D25
 70
     1
 10
0.0
 20
0.0
 30
0.0
  3
*D25
  1

  0
LINE
  5
1F245
330
1F1C3
100
AcDbEntity
  8
寸法
 62
     0
 48
50.0
370
    -2
100
AcDbLine
 10
5578.745186207535
 20
1416.909309129765
 30
0.0
 11
5386.324872475075
 21
1416.909309129765
 31
0.0
  0
LINE
  5
1F246
330
1F1C3
100
AcDbEntity
  8
寸法
 62
     0
 48
50.0
370
    -2
100
AcDbLine
 10
5498.745186207539
 20
1176.909309129765
 30
0.0
 11
5386.324872475075
 21
1176.909309129765
 31
0.0
  0
LINE
  5
1F247
330
1F1C3
100
AcDbEntity
  8
寸法
 62
     0
 48
50.0
370
    -2
100
AcDbLine
 10
5461.324872475075
 20
1416.909309129765
 30
0.0
 11
5461.324872475075
 21
1176.909309129765
 31
0.0
  0
MTEXT
  5
1F248
330
1F1C3
100
AcDbEntity
  8
寸法
 62
     7
 48
50.0
100
AcDbMText
 10
5361.324872475075
 20
1296.909309129765
 30
0.0
 40
150.0
 41
0.0
 71
     5
 72
     1
  1
\A1;150
  7
STYLE1
 11
0.0000000000000001
 21
1.0
 31
0.0
 73
     1
 44
1.0
1001
ACAD
1000
MTEXTBEGIN
1070
    73
1070
     1
1070
    44
1040
1.0
1070
    74
1070
     0
1000
MTEXTEND
  0
INSERT
  5
1F249
330
1F1C3
100
AcDbEntity
  8
寸法
 62
     0
 48
50.0
370
    -2
100
AcDbBlockReference
  2
_DOTSMALL
 10
5461.324872475075
 20
1416.909309129765
 30
0.0
 41
125.0
 42
125.0
 43
125.0
 50
90.0
  0
INSERT
  5
1F24A
330
1F1C3
100
AcDbEntity
  8
寸法
 62
     0
 48
50.0
370
    -2
100
AcDbBlockReference
  2
_DOTSMALL
 10
5461.324872475075
 20
1176.909309129765
 30
0.0
 41
125.0
 42
125.0
 43
125.0
 50
270.0
  0
POINT
  5
1F24B
330
1F1C3
100
AcDbEntity
  8
DEFPOINTS
 62
     0
 48
50.0
100
AcDbPoint
 10
5603.745186207535
 20
1416.909309129765
 30
0.0
  0
POINT
  5
1F24C
330
1F1C3
100
AcDbEntity
  8
DEFPOINTS
 62
     0
 48
50.0
100
AcDbPoint
 10
5523.745186207539
 20
1176.909309129765
 30
0.0
  0
POINT
  5
1F24D
330
1F1C3
100
AcDbEntity
  8
DEFPOINTS
 62
     0
 48
50.0
100
AcDbPoint
 10
5461.324872475075
 20
1176.909309129765
 30
0.0
  0
ENDBLK
  5
1F1CE
330
1F1C3
100
AcDbEntity
  8
0
 48
50.0
100
AcDbBlockEnd
  0
BLOCK
  5
1F1D9
330
1F1CF
100
AcDbEntity
  8
0
 48
50.0
100
AcDbBlockBegin
  2
*D26
 70
     1
 10
0.0
 20
0.0
 30
0.0
  3
*D26
  1

  0
LINE
  5
1F23C
330
1F1CF
100
AcDbEntity
  8
寸法
 62
     0
 48
50.0
370
    -2
100
AcDbLine
 10
5706.745186207535
 20
1960.909309129765
 30
0.0
 11
4921.707947645795
 21
1960.909309129766
 31
0.0
  0
LINE
  5
1F23D
330
1F1CF
100
AcDbEntity
  8
寸法
 62
     0
 48
50.0
370
    -2
100
AcDbLine
 10
5498.745186207539
 20
1176.909309129765
 30
0.0
 11
4921.707947645795
 21
1176.909309129765
 31
0.0
  0
LINE
  5
1F23E
330
1F1CF
100
AcDbEntity
  8
寸法
 62
     0
 48
50.0
370
    -2
100
AcDbLine
 10
4996.707947645795
 20
1960.909309129766
 30
0.0
 11
4996.707947645795
 21
1176.909309129765
 31
0.0
  0
INSERT
  5
1F23F
330
1F1CF
100
AcDbEntity
  8
寸法
 62
     0
 48
50.0
370
    -2
100
AcDbBlockReference
  2
_DOTSMALL
 10
4996.707947645795
 20
1960.909309129766
 30
0.0
 41
125.0
 42
125.0
 43
125.0
 50
90.0
  0
INSERT
  5
1F240
330
1F1CF
100
AcDbEntity
  8
寸法
 62
     0
 48
50.0
370
    -2
100
AcDbBlockReference
  2
_DOTSMALL
 10
4996.707947645795
 20
1176.909309129765
 30
0.0
 41
125.0
 42
125.0
 43
125.0
 50
270.0
  0
MTEXT
  5
1F241
330
1F1CF
100
AcDbEntity
  8
寸法
 62
     7
 48
50.0
100
AcDbMText
 10
4896.707947645794
 20
1548.449458785766
 30
0.0
 40
150.0
 41
0.0
 71
     5
 72
     1
  1
\A1;540
  7
STYLE1
 11
0.0000000000000001
 21
1.0
 31
0.0
 73
     1
 44
1.0
1001
ACAD
1000
MTEXTBEGIN
1070
    73
1070
     1
1070
    44
1040
1.0
1070
    74
1070
     0
1000
MTEXTEND
  0
POINT
  5
1F242
330
1F1CF
100
AcDbEntity
  8
DEFPOINTS
 62
     0
 48
50.0
100
AcDbPoint
 10
5731.745186207535
 20
1960.909309129765
 30
0.0
  0
POINT
  5
1F243
330
1F1CF
100
AcDbEntity
  8
DEFPOINTS
 62
     0
 48
50.0
100
AcDbPoint
 10
5523.745186207539
 20
1176.909309129765
 30
0.0
  0
POINT
  5
1F244
330
1F1CF
100
AcDbEntity
  8
DEFPOINTS
 62
     0
 48
50.0
100
AcDbPoint
 10
4996.707947645795
 20
1176.909309129765
 30
0.0
  0
ENDBLK
  5
1F1DA
330
1F1CF
100
AcDbEntity
  8
0
 48
50.0
100
AcDbBlockEnd
  0
BLOCK
  5
1F1E5
330
1F1DB
100
AcDbEntity
  8
0
 48
50.0
100
AcDbBlockBegin
  2
*D27
 70
     1
 10
0.0
 20
0.0
 30
0.0
  3
*D27
  1

  0
LINE
  5
1F233
330
1F1DB
100
AcDbEntity
  8
寸法
 62
     0
 48
50.0
370
    -2
100
AcDbLine
 10
5603.745186207535
 20
1023.909309129765
 30
0.0
 11
5603.745186207535
 21
563.4796711246053
 31
0.0
  0
LINE
  5
1F234
330
1F1DB
100
AcDbEntity
  8
寸法
 62
     0
 48
50.0
370
    -2
100
AcDbLine
 10
6051.745186207535
 20
1023.909309129765
 30
0.0
 11
6051.745186207535
 21
563.4796711246053
 31
0.0
  0
LINE
  5
1F235
330
1F1DB
100
AcDbEntity
  8
寸法
 62
     0
 48
50.0
370
    -2
100
AcDbLine
 10
5603.745186207535
 20
638.4796711246053
 30
0.0
 11
6051.745186207535
 21
638.4796711246053
 31
0.0
  0
INSERT
  5
1F236
330
1F1DB
100
AcDbEntity
  8
寸法
 62
     0
 48
50.0
370
    -2
100
AcDbBlockReference
  2
_DOTSMALL
 10
5603.745186207535
 20
638.4796711246053
 30
0.0
 41
125.0
 42
125.0
 43
125.0
 50
180.0
  0
INSERT
  5
1F237
330
1F1DB
100
AcDbEntity
  8
寸法
 62
     0
 48
50.0
370
    -2
100
AcDbBlockReference
  2
_DOTSMALL
 10
6051.745186207535
 20
638.4796711246053
 30
0.0
 41
125.0
 42
125.0
 43
125.0
  0
MTEXT
  5
1F238
330
1F1DB
100
AcDbEntity
  8
寸法
 62
     7
 48
50.0
100
AcDbMText
 10
5807.648427529311
 20
738.4796711246053
 30
0.0
 40
150.0
 41
0.0
 71
     5
 72
     1
  1
\A1;300
  7
STYLE1
 73
     1
 44
1.0
1001
ACAD
1000
MTEXTBEGIN
1070
    73
1070
     1
1070
    44
1040
1.0
1070
    74
1070
     0
1000
MTEXTEND
  0
POINT
  5
1F239
330
1F1DB
100
AcDbEntity
  8
DEFPOINTS
 62
     0
 48
50.0
100
AcDbPoint
 10
5603.745186207535
 20
1048.909309129765
 30
0.0
  0
POINT
  5
1F23A
330
1F1DB
100
AcDbEntity
  8
DEFPOINTS
 62
     0
 48
50.0
100
AcDbPoint
 10
6051.745186207535
 20
1048.909309129765
 30
0.0
  0
POINT
  5
1F23B
330
1F1DB
100
AcDbEntity
  8
DEFPOINTS
 62
     0
 48
50.0
100
AcDbPoint
 10
6051.745186207535
 20
638.4796711246053
 30
0.0
  0
ENDBLK
  5
1F1E6
330
1F1DB
100
AcDbEntity
  8
0
 48
50.0
100
AcDbBlockEnd
  0
BLOCK
  5
1F1F1
330
1F1E7
100
AcDbEntity
  8
0
 48
50.0
100
AcDbBlockBegin
  2
*D28
 70
     1
 10
0.0
 20
0.0
 30
0.0
  3
*D28
  1

  0
LINE
  5
1F22A
330
1F1E7
100
AcDbEntity
  8
寸法
 62
     0
 48
50.0
370
    -2
100
AcDbLine
 10
5923.745186207535
 20
1985.909309129765
 30
0.0
 11
5923.745186207535
 21
2355.909309129765
 31
0.0
  0
LINE
  5
1F22B
330
1F1E7
100
AcDbEntity
  8
寸法
 62
     0
 48
50.0
370
    -2
100
AcDbLine
 10
5731.745186207535
 20
1985.909309129765
 30
0.0
 11
5731.745186207535
 21
2355.909309129765
 31
0.0
  0
LINE
  5
1F22C
330
1F1E7
100
AcDbEntity
  8
寸法
 62
     0
 48
50.0
370
    -2
100
AcDbLine
 10
5923.745186207535
 20
2280.909309129766
 30
0.0
 11
5731.745186207535
 21
2280.909309129766
 31
0.0
  0
MTEXT
  5
1F22D
330
1F1E7
100
AcDbEntity
  8
寸法
 62
     7
 48
50.0
100
AcDbMText
 10
5838.971516552732
 20
2605.591880825674
 30
0.0
 40
150.0
 41
0.0
 71
     5
 72
     1
  1
\A1;120\P170
  7
STYLE1
 73
     1
 44
1.0
1001
ACAD
1000
MTEXTBEGIN
1070
    73
1070
     1
1070
    44
1040
1.0
1070
    74
1070
     0
1000
MTEXTEND
  0
INSERT
  5
1F22E
330
1F1E7
100
AcDbEntity
  8
寸法
 62
     0
 48
50.0
370
    -2
100
AcDbBlockReference
  2
_DOTSMALL
 10
5923.745186207535
 20
2280.909309129766
 30
0.0
 41
125.0
 42
125.0
 43
125.0
  0
INSERT
  5
1F22F
330
1F1E7
100
AcDbEntity
  8
寸法
 62
     0
 48
50.0
370
    -2
100
AcDbBlockReference
  2
_DOTSMALL
 10
5731.745186207535
 20
2280.909309129766
 30
0.0
 41
125.0
 42
125.0
 43
125.0
 50
180.0
  0
POINT
  5
1F230
330
1F1E7
100
AcDbEntity
  8
DEFPOINTS
 62
     0
 48
50.0
100
AcDbPoint
 10
5923.745186207535
 20
1960.909309129765
 30
0.0
  0
POINT
  5
1F231
330
1F1E7
100
AcDbEntity
  8
DEFPOINTS
 62
     0
 48
50.0
100
AcDbPoint
 10
5731.745186207535
 20
1960.909309129765
 30
0.0
  0
POINT
  5
1F232
330
1F1E7
100
AcDbEntity
  8
DEFPOINTS
 62
     0
 48
50.0
100
AcDbPoint
 10
5731.745186207535
 20
2280.909309129766
 30
0.0
  0
ENDBLK
  5
1F1F2
330
1F1E7
100
AcDbEntity
  8
0
 48
50.0
100
AcDbBlockEnd
  0
BLOCK
  5
1F28C
330
1F280
100
AcDbEntity
  8
0
 48
50.0
100
AcDbBlockBegin
  2
*D29
 70
     1
 10
0.0
 20
0.0
 30
0.0
  3
*D29
  1

  0
LINE
  5
1F343
330
1F280
100
AcDbEntity
  8
寸法
 62
     0
 48
50.0
370
    -2
100
AcDbLine
 10
8473.599999999999
 20
7250.878363921543
 30
0.0
 11
8473.599999999999
 21
6549.111459181441
 31
0.0
  0
LINE
  5
1F344
330
1F280
100
AcDbEntity
  8
寸法
 62
     0
 48
50.0
370
    -2
100
AcDbLine
 10
8583.599999999998
 20
6690.878363921545
 30
0.0
 11
8583.599999999998
 21
6549.111459181441
 31
0.0
  0
LINE
  5
1F345
330
1F280
100
AcDbEntity
  8
寸法
 62
     0
 48
50.0
370
    -2
100
AcDbLine
 10
8473.599999999999
 20
6609.11145918144
 30
0.0
 11
8583.599999999998
 21
6609.11145918144
 31
0.0
  0
MTEXT
  5
1F346
330
1F280
100
AcDbEntity
  8
寸法
 62
     7
 48
50.0
100
AcDbMText
 10
8335.832147142886
 20
6710.44816161193
 30
0.0
 40
120.0
 41
0.0
 71
     5
 72
     1
  1
\A1;110
  7
STYLE1
 73
     1
 44
1.0
1001
ACAD
1000
MTEXTBEGIN
1070
    73
1070
     1
1070
    44
1040
1.0
1070
    74
1070
     0
1000
MTEXTEND
  0
INSERT
  5
1F347
330
1F280
100
AcDbEntity
  8
寸法
 62
     0
 48
50.0
370
    -2
100
AcDbBlockReference
  2
_DOTSMALL
 10
8473.599999999999
 20
6609.11145918144
 30
0.0
 41
100.0
 42
100.0
 43
100.0
 50
180.0
  0
INSERT
  5
1F348
330
1F280
100
AcDbEntity
  8
寸法
 62
     0
 48
50.0
370
    -2
100
AcDbBlockReference
  2
_DOTSMALL
 10
8583.599999999998
 20
6609.11145918144
 30
0.0
 41
100.0
 42
100.0
 43
100.0
  0
POINT
  5
1F349
330
1F280
100
AcDbEntity
  8
DEFPOINTS
 62
     0
 48
50.0
100
AcDbPoint
 10
8473.599999999999
 20
7270.878363921544
 30
0.0
  0
POINT
  5
1F34A
330
1F280
100
AcDbEntity
  8
DEFPOINTS
 62
     0
 48
50.0
100
AcDbPoint
 10
8583.599999999998
 20
6710.878363921546
 30
0.0
  0
POINT
  5
1F34B
330
1F280
100
AcDbEntity
  8
DEFPOINTS
 62
     0
 48
50.0
100
AcDbPoint
 10
8583.599999999998
 20
6609.11145918144
 30
0.0
  0
ENDBLK
  5
1F28D
330
1F280
100
AcDbEntity
  8
0
 48
50.0
100
AcDbBlockEnd
  0
ENDSEC
  0
SECTION
  2
ENTITIES
  0
LINE
  5
10B57
330
747D
100
AcDbEntity
  8
補助
  6
PHANTOM
 62
   230
 48
50.0
100
AcDbLine
 10
139.9999999999995
 20
11409.6
 30
0.0
 11
16307.2
 21
11409.6
 31
0.0
  0
LINE
  5
10B59
330
747D
100
AcDbEntity
  8
仕様書枠
  6
Continuous
 48
50.0
100
AcDbLine
 10
13107.2
 20
1200.0
 30
0.0
 11
13107.2
 21
-0.0000000000000729
 31
0.0
  0
LINE
  5
10B5C
330
747D
100
AcDbEntity
  8
仕様書枠
 48
50.0
100
AcDbLine
 10
16307.2
 20
1200.0
 30
0.0
 11
16307.2
 21
-0.0000000000000909
 31
0.0
  0
LINE
  5
10B5D
330
747D
100
AcDbEntity
  8
仕様書枠
 48
50.0
100
AcDbLine
 10
140.0
 20
0.0
 30
0.0
 11
16307.2
 21
-0.0000000000000909
 31
0.0
  0
LINE
  5
10B5E
330
747D
100
AcDbEntity
  8
補助
  6
PHANTOM
 62
   230
 48
50.0
100
AcDbLine
 10
16307.2
 20
11409.6
 30
0.0
 11
16307.2
 21
1200.0
 31
0.0
  0
LINE
  5
10B6C
330
747D
100
AcDbEntity
  8
仕様書枠
 48
50.0
100
AcDbLine
 10
13107.2
 20
1200.0
 30
0.0
 11
16307.2
 21
1200.0
 31
0.0
  0
LINE
  5
10B6D
330
747D
100
AcDbEntity
  8
補助
  6
PHANTOM
 62
   230
 48
50.0
100
AcDbLine
 10
13107.2
 20
11409.6
 30
0.0
 11
13107.2
 21
4800.0
 31
0.0
  0
LINE
  5
10B6F
330
747D
100
AcDbEntity
  8
補助
  6
PHANTOM
 62
   230
 48
50.0
100
AcDbLine
 10
13107.2
 20
4800.0
 30
0.0
 11
16307.2
 21
4800.0
 31
0.0
  0
LINE
  5
10B72
330
747D
100
AcDbEntity
  8
文字
 62
     7
 48
50.0
100
AcDbLine
 10
13187.2
 20
400.0
 30
0.0
 11
16227.2
 21
400.0
 31
0.0
  0
TEXT
  5
10B73
330
747D
100
AcDbEntity
  8
文字
 62
     7
 48
50.0
100
AcDbText
 10
13162.9790565769
 20
895.0906074299405
 30
0.0
 40
200.0
  1
基 礎 図
  7
STYLE2
100
AcDbText
  0
TEXT
  5
10B74
330
747D
100
AcDbEntity
  8
文字
 62
     7
 48
50.0
100
AcDbText
 10
13201.43669998441
 20
477.2740661031255
 30
0.0
 40
160.0
  1
機種名
  7
STYLE2
100
AcDbText
  0
LINE
  5
10B7B
330
747D
100
AcDbEntity
  8
仕様書枠
 48
50.0
100
AcDbLine
 10
13107.2
 20
800.0
 30
0.0
 11
14251.2
 21
800.0
 31
0.0
  0
LINE
  5
10B88
330
747D
100
AcDbEntity
  8
仕様書枠
  6
Continuous
 48
50.0
100
AcDbLine
 10
14251.2
 20
1200.0
 30
0.0
 11
14251.2
 21
800.0
 31
0.0
  0
TEXT
  5
14DEF
330
747D
100
AcDbEntity
  8
文字
 62
     7
 48
50.0
100
AcDbText
 10
14641.2525855784
 20
871.1744590657925
 30
0.0
 40
100.0
  1
～一般型・多雪地型～
  7
STYLE2
100
AcDbText
  0
TEXT
  5
15A76
330
747D
100
AcDbEntity
  8
文字
 62
     7
 48
50.0
100
AcDbText
 10
14478.98566430227
 20
499.5983841039501
 30
0.0
 40
160.0
  1
ＮＸＮ－２０CＳ
  7
STYLE2
100
AcDbText
  0
TEXT
  5
1D002
330
747D
100
AcDbEntity
  8
文字
 62
     7
 48
50.0
100
AcDbText
 10
13188.16259899338
 20
246.7109242801889
 30
0.0
 40
80.0
  1
※寒冷地等は地域の実情に合わせた基礎にして下さい。
  7
STYLE2
100
AcDbText
  0
DIMENSION
  5
1D91B
330
747D
100
AcDbEntity
  8
寸法
 48
50.0
100
AcDbDimension
  2
*D2
 10
7640.251118443223
 20
6420.878363921549
 30
0.0
 11
7640.251118443221
 21
6656.925608016038
 31
0.0
 70
   160
 71
     5
 42
130.0000000000018
  3
INABA_S40G
100
AcDbAlignedDimension
 13
7553.599999999999
 23
6290.878363921547
 33
0.0
 14
7553.599999999999
 24
6420.878363921549
 34
0.0
 50
90.0
100
AcDbRotatedDimension
1001
ACAD
1000
DSTYLE
1002
{
1070
   174
1070
     0
1070
   272
1070
     1
1070
   288
1070
     0
1070
   341
1005
0
1002
}
  0
DIMENSION
  5
1D91C
330
747D
100
AcDbEntity
  8
寸法
 48
50.0
100
AcDbDimension
  2
*D3
 10
7640.251118443223
 20
6120.878363921548
 30
0.0
 11
7640.251118443223
 21
5884.831119827059
 31
0.0
 70
   160
 71
     5
 42
170.0000000000018
  3
INABA_S40G
100
AcDbAlignedDimension
 13
7553.599999999999
 23
6290.878363921549
 33
0.0
 14
7553.599999999999
 24
6120.878363921548
 34
0.0
 50
90.0
100
AcDbRotatedDimension
1001
ACAD
1000
DSTYLE
1002
{
1070
   174
1070
     0
1070
   272
1070
     1
1070
   288
1070
     0
1070
   341
1005
0
1002
}
  0
DIMENSION
  5
1D91D
330
747D
100
AcDbEntity
  8
寸法
 48
50.0
100
AcDbDimension
  2
*D4
 10
7446.6
 20
8105.938974311476
 30
0.0
 11
8013.599999999998
 21
8205.938974311475
 31
0.0
 70
    32
 71
     5
 42
1134.0
  3
INABA_S40G
100
AcDbAlignedDimension
 13
8580.599999999998
 23
7427.878363921546
 33
0.0
 14
7446.6
 24
7427.878363921546
 34
0.0
100
AcDbRotatedDimension
1001
ACAD
1000
DSTYLE
1002
{
1070
   174
1070
     0
1070
   272
1070
     1
1070
   288
1070
     0
1070
   341
1005
0
1002
}
  0
LINE
  5
1D91E
330
747D
100
AcDbEntity
  8
部品1
 48
50.0
100
AcDbLine
 10
8473.599999999999
 20
6290.878363921562
 30
0.0
 11
7553.599999999999
 21
6290.878363921549
 31
0.0
  0
LINE
  5
1D91F
330
747D
100
AcDbEntity
  8
部品1
 48
50.0
100
AcDbLine
 10
8473.599999999999
 20
7380.878363921543
 30
0.0
 11
7553.599999999999
 21
7380.878363921545
 31
0.0
  0
DIMENSION
  5
1D920
330
747D
100
AcDbEntity
  8
寸法
 48
50.0
100
AcDbDimension
  2
*D5
 10
8703.599999999999
 20
8318.399669828313
 30
0.0
 11
8013.599999999998
 21
8418.399669828312
 31
0.0
 70
    32
 71
     5
 42
1380.0
  3
INABA_S40G
100
AcDbAlignedDimension
 13
7323.599999999998
 23
7500.878363921545
 33
0.0
 14
8703.599999999999
 24
7500.878363921545
 34
0.0
100
AcDbRotatedDimension
1001
ACAD
1000
DSTYLE
1002
{
1070
   174
1070
     0
1070
   272
1070
     1
1070
   288
1070
     0
1070
   341
1005
0
1002
}
  0
LINE
  5
1D921
330
747D
100
AcDbEntity
  8
部品1
 48
50.0
100
AcDbLine
 10
8703.599999999999
 20
6120.878363921564
 30
0.0
 11
7323.599999999998
 21
6120.878363921545
 31
0.0
  0
LINE
  5
1D922
330
747D
100
AcDbEntity
  8
部品1
 48
50.0
100
AcDbLine
 10
8703.599999999999
 20
7500.878363921545
 30
0.0
 11
7323.599999999998
 21
7500.878363921545
 31
0.0
  0
LINE
  5
1D923
330
747D
100
AcDbEntity
  8
想像線
 48
10.0
100
AcDbLine
 10
8748.599999999999
 20
6065.878363921541
 30
0.0
 11
7278.599999999999
 21
6065.878363921545
 31
0.0
  0
LINE
  5
1D924
330
747D
100
AcDbEntity
  8
想像線
 48
10.0
100
AcDbLine
 10
7278.599999999994
 20
7575.878363921545
 30
0.0
 11
8748.600000000001
 21
7575.87836392155
 31
0.0
  0
DIMENSION
  5
1D925
330
747D
100
AcDbEntity
  8
寸法
 48
50.0
100
AcDbDimension
  2
*D6
 10
7323.599999999998
 20
8105.938974311476
 30
0.0
 11
7085.11471862576
 21
8105.938974311476
 31
0.0
 70
   160
 71
     5
 42
123.0
  3
INABA_S40G
100
AcDbAlignedDimension
 13
7446.6
 23
7427.878363921546
 33
0.0
 14
7323.599999999998
 24
7500.878363921545
 34
0.0
100
AcDbRotatedDimension
1001
ACAD
1000
DSTYLE
1002
{
1070
   174
1070
     0
1070
   272
1070
     1
1070
   288
1070
     0
1070
   341
1005
0
1002
}
  0
DIMENSION
  5
1D926
330
747D
100
AcDbEntity
  8
寸法
 48
50.0
100
AcDbDimension
  2
*D7
 10
7323.599999999998
 20
8318.399669828314
 30
0.0
 11
7301.099999999997
 21
8318.399669828314
 31
0.0
 70
   160
  1
a
 71
     5
 42
45.00000000000364
  3
INABA_S40G
100
AcDbAlignedDimension
 13
7278.599999999994
 23
8105.938974311476
 33
0.0
 14
7323.599999999998
 24
7500.878363921545
 34
0.0
100
AcDbRotatedDimension
1001
ACAD
1000
DSTYLE
1002
{
1070
   174
1070
     0
1070
   272
1070
     1
1070
   288
1070
     0
1070
   341
1005
0
1002
}
  0
DIMENSION
  5
1D927
330
747D
100
AcDbEntity
  8
寸法
 48
50.0
100
AcDbDimension
  2
*D8
 10
6827.657733986177
 20
6318.878363921547
 30
0.0
 11
6827.657733986176
 21
6854.501726735804
 31
0.0
 70
   160
 71
     5
 42
1058.999999999998
  3
INABA_S40G
100
AcDbAlignedDimension
 13
7396.599999999999
 23
7377.878363921546
 33
0.0
 14
7396.600000000006
 24
6318.878363921547
 34
0.0
 50
90.0
100
AcDbRotatedDimension
1001
ACAD
1000
DSTYLE
1002
{
1070
   174
1070
     0
1070
   272
1070
     1
1070
   288
1070
     0
1070
   341
1005
0
1002
}
  0
LINE
  5
1D928
330
747D
100
AcDbEntity
  8
部品1
 48
50.0
100
AcDbLine
 10
7443.599999999999
 20
6420.878363921547
 30
0.0
 11
7443.599999999999
 21
7270.878363921541
 31
0.0
  0
DIMENSION
  5
1D929
330
747D
100
AcDbEntity
  8
寸法
 48
50.0
100
AcDbDimension
  2
*D9
 10
6582.16493184821
 20
6120.878363921545
 30
0.0
 11
6582.16493184821
 21
6844.44938302788
 31
0.0
 70
   160
 71
     5
 42
1380.0
  3
INABA_S40G
100
AcDbAlignedDimension
 13
7323.599999999998
 23
7500.878363921545
 33
0.0
 14
7323.599999999998
 24
6120.878363921545
 34
0.0
 50
90.0
100
AcDbRotatedDimension
1001
ACAD
1000
DSTYLE
1002
{
1070
   174
1070
     0
1070
   272
1070
     1
1070
   288
1070
     0
1070
   341
1005
0
1002
}
  0
LINE
  5
1D92A
330
747D
100
AcDbEntity
  8
部品1
 48
50.0
100
AcDbLine
 10
7323.599999999998
 20
6120.878363921545
 30
0.0
 11
7323.599999999998
 21
7500.878363921545
 31
0.0
  0
LINE
  5
1D92B
330
747D
100
AcDbEntity
  8
想像線
 48
10.0
100
AcDbLine
 10
7278.599999999999
 20
6065.878363921545
 30
0.0
 11
7278.599999999999
 21
7575.87836392155
 31
0.0
  0
DIMENSION
  5
1D92C
330
747D
100
AcDbEntity
  8
寸法
 48
50.0
100
AcDbDimension
  2
*D10
 10
6827.657733986177
 20
6120.878363921545
 30
0.0
 11
6827.657733986176
 21
5884.668704091891
 31
0.0
 70
   160
 71
     5
 42
198.0000000000018
  3
INABA_S40G
100
AcDbAlignedDimension
 13
7396.600000000006
 23
6318.878363921547
 33
0.0
 14
7323.599999999998
 24
6120.878363921545
 34
0.0
 50
90.0
100
AcDbRotatedDimension
1001
ACAD
1000
DSTYLE
1002
{
1070
   174
1070
     0
1070
   272
1070
     1
1070
   288
1070
     0
1070
   341
1005
0
1002
}
  0
DIMENSION
  5
1D92D
330
747D
100
AcDbEntity
  8
寸法
 48
50.0
100
AcDbDimension
  2
*D11
 10
6582.16493184821
 20
6065.878363921545
 30
0.0
 11
6582.16493184821
 21
6093.378363921547
 31
0.0
 70
   160
  1
b
 71
     5
 42
55.0
  3
INABA_S40G
100
AcDbAlignedDimension
 13
7323.599999999998
 23
6120.878363921545
 33
0.0
 14
6827.657733986177
 24
6065.878363921545
 34
0.0
 50
90.0
100
AcDbRotatedDimension
1001
ACAD
1000
DSTYLE
1002
{
1070
   174
1070
     0
1070
   272
1070
     1
1070
   288
1070
     0
1070
   341
1005
0
1002
}
  0
LINE
  5
1D92E
330
747D
100
AcDbEntity
  8
センター
 48
2.0
100
AcDbLine
 10
7446.600000000007
 20
6368.878363921547
 30
0.0
 11
7446.600000000007
 21
6268.878363921547
 31
0.0
  0
LINE
  5
1D92F
330
747D
100
AcDbEntity
  8
センター
 48
2.0
100
AcDbLine
 10
7396.600000000006
 20
6318.878363921547
 30
0.0
 11
7496.600000000007
 21
6318.878363921547
 31
0.0
  0
CIRCLE
  5
1D930
330
747D
100
AcDbEntity
  8
部品1
 48
50.0
100
AcDbCircle
 10
7446.600000000007
 20
6318.878363921547
 30
0.0
 40
35.0
  0
LINE
  5
1D931
330
747D
100
AcDbEntity
  8
部品1
 48
50.0
100
AcDbLine
 10
7553.599999999999
 20
6420.878363921549
 30
0.0
 11
7443.599999999999
 21
6420.878363921548
 31
0.0
  0
LINE
  5
1D932
330
747D
100
AcDbEntity
  8
部品1
 48
50.0
100
AcDbLine
 10
7553.599999999999
 20
6290.878363921547
 30
0.0
 11
7553.599999999999
 21
6420.878363921549
 31
0.0
  0
DIMENSION
  5
1D933
330
747D
100
AcDbEntity
  8
寸法
 48
50.0
100
AcDbDimension
  2
*D12
 10
6827.657733986177
 20
7377.878363921546
 30
0.0
 11
6827.657733986176
 21
7739.363645295785
 31
0.0
 70
   160
 71
     5
 42
123.0
  3
INABA_S40G
100
AcDbAlignedDimension
 13
7323.599999999998
 23
7500.878363921545
 33
0.0
 14
7396.599999999999
 24
7377.878363921546
 34
0.0
 50
90.0
100
AcDbRotatedDimension
1001
ACAD
1000
DSTYLE
1002
{
1070
   174
1070
     0
1070
   272
1070
     1
1070
   288
1070
     0
1070
   341
1005
0
1002
}
  0
DIMENSION
  5
1D934
330
747D
100
AcDbEntity
  8
寸法
 48
50.0
100
AcDbDimension
  2
*D13
 10
6582.16493184821
 20
7500.878363921545
 30
0.0
 11
6582.164931848208
 21
7538.378363921548
 31
0.0
 70
   160
  1
c
 71
     5
 42
75.0
  3
INABA_S40G
100
AcDbAlignedDimension
 13
6827.657733986177
 23
7575.878363921545
 33
0.0
 14
7323.599999999998
 24
7500.878363921545
 34
0.0
 50
90.0
100
AcDbRotatedDimension
1001
ACAD
1000
DSTYLE
1002
{
1070
   174
1070
     0
1070
   272
1070
     1
1070
   288
1070
     0
1070
   341
1005
0
1002
}
  0
LINE
  5
1D935
330
747D
100
AcDbEntity
  8
部品1
 48
50.0
100
AcDbLine
 10
7443.599999999999
 20
6910.878363921546
 30
0.0
 11
7323.599999999998
 21
6910.878363921546
 31
0.0
  0
LINE
  5
1D936
330
747D
100
AcDbEntity
  8
部品1
 48
50.0
100
AcDbLine
 10
7443.599999999999
 20
6710.878363921546
 30
0.0
 11
7323.599999999998
 21
6710.878363921546
 31
0.0
  0
LINE
  5
1D938
330
747D
100
AcDbEntity
  8
センター
 48
2.0
100
AcDbLine
 10
7446.6
 20
7427.878363921546
 30
0.0
 11
7446.6
 21
7327.878363921546
 31
0.0
  0
LINE
  5
1D939
330
747D
100
AcDbEntity
  8
センター
 48
2.0
100
AcDbLine
 10
7396.599999999999
 20
7377.878363921546
 30
0.0
 11
7496.599999999999
 21
7377.878363921546
 31
0.0
  0
CIRCLE
  5
1D93A
330
747D
100
AcDbEntity
  8
部品1
 48
50.0
100
AcDbCircle
 10
7446.6
 20
7377.878363921546
 30
0.0
 40
35.0
  0
LINE
  5
1D93B
330
747D
100
AcDbEntity
  8
部品1
 48
50.0
100
AcDbLine
 10
7553.599999999999
 20
7270.878363921541
 30
0.0
 11
7443.599999999999
 21
7270.878363921544
 31
0.0
  0
LINE
  5
1D93C
330
747D
100
AcDbEntity
  8
部品1
 48
50.0
100
AcDbLine
 10
7553.599999999999
 20
7270.878363921541
 30
0.0
 11
7553.599999999997
 21
7380.878363921546
 31
0.0
  0
DIMENSION
  5
1D93E
330
747D
100
AcDbEntity
  8
寸法
 48
50.0
100
AcDbDimension
  2
*D14
 10
8580.599999999998
 20
8105.938974311476
 30
0.0
 11
8942.085281374238
 21
8105.938974311476
 31
0.0
 70
   160
 71
     5
 42
123.0
  3
INABA_S40G
100
AcDbAlignedDimension
 13
8703.599999999999
 23
7500.878363921545
 33
0.0
 14
8580.599999999998
 24
7427.878363921546
 34
0.0
100
AcDbRotatedDimension
1001
ACAD
1000
DSTYLE
1002
{
1070
   174
1070
     0
1070
   272
1070
     1
1070
   288
1070
     0
1070
   341
1005
0
1002
}
  0
DIMENSION
  5
1D93F
330
747D
100
AcDbEntity
  8
寸法
 48
50.0
100
AcDbDimension
  2
*D15
 10
8748.599999999999
 20
8318.399669828313
 30
0.0
 11
8726.099999999998
 21
8318.399669828313
 31
0.0
 70
   160
  1
a
 71
     5
 42
45.0
  3
INABA_S40G
100
AcDbAlignedDimension
 13
8703.599999999999
 23
7500.878363921545
 33
0.0
 14
8748.599999999999
 24
8105.938974311476
 34
0.0
100
AcDbRotatedDimension
1001
ACAD
1000
DSTYLE
1002
{
1070
   174
1070
     0
1070
   272
1070
     1
1070
   288
1070
     0
1070
   341
1005
0
1002
}
  0
LEADER
  5
1D940
330
747D
100
AcDbEntity
  8
寸法
 48
50.0
100
AcDbLeader
  3
INABA_S40G
 71
     0
 73
     0
 74
     0
 75
     1
 40
120.0
 41
720.0000000000001
 76
     3
 10
8703.599999999999
 20
6846.765908989138
 30
0.0
 10
8953.148163484241
 20
7103.680945911763
 30
0.0
 10
9053.148163484241
 20
7103.680945911763
 30
0.0
340
1D941
1001
ACAD
1000
DSTYLE
1002
{
1070
   174
1070
     0
1070
   272
1070
     1
1070
   288
1070
     0
1070
   341
1005
0
1002
}
  0
MTEXT
  5
1D941
102
{ACAD_REACTORS
330
1D940
102
}
330
747D
100
AcDbEntity
  8
部品1
 62
     7
 48
50.0
100
AcDbMText
 10
9813.148163484241
 20
7203.680945911763
 30
0.0
 40
120.0
 41
0.0
 71
     6
 72
     1
  1
\A1;床下換気口
  7
STYLE1
 73
     1
 44
1.0
1001
ACAD
1000
MTEXTBEGIN
1070
    73
1070
     1
1070
    44
1040
1.0
1070
    74
1070
     0
1000
MTEXTEND
  0
DIMENSION
  5
1D942
330
747D
100
AcDbEntity
  8
寸法
 48
50.0
100
AcDbDimension
  2
*D16
 10
8583.6
 20
6609.11145918144
 30
0.0
 11
8939.647244094487
 21
6609.11145918144
 31
0.0
 70
   160
 71
     5
 42
119.9999999999981
  3
INABA_S40G
100
AcDbAlignedDimension
 13
8703.599999999999
 23
6710.878363921546
 33
0.0
 14
8583.6
 24
6710.878363921546
 34
0.0
100
AcDbRotatedDimension
1001
ACAD
1000
DSTYLE
1002
{
1070
   174
1070
     0
1070
   272
1070
     1
1070
   288
1070
     0
1070
   341
1005
0
1002
}
  0
TEXT
  5
1D943
330
747D
100
AcDbEntity
  8
部品1
 48
50.0
100
AcDbText
 10
8790.4200666784
 20
5425.991567142272
 30
0.0
 40
80.0
  1
(a=45,b=55,c=75)
  7
STYLE1
100
AcDbText
  0
TEXT
  5
1D944
330
747D
100
AcDbEntity
  8
部品1
 48
50.0
100
AcDbText
 10
8720.543179073516
 20
5545.722613295411
 30
0.0
 40
80.0
  1
※a,b,cは屋根の出幅です。
  7
STYLE1
100
AcDbText
  0
MTEXT
  5
1D945
102
{ACAD_REACTORS
330
1D946
102
}
330
747D
100
AcDbEntity
  8
部品1
 62
     7
 48
50.0
100
AcDbMText
 10
9585.725774538317
 20
5769.860971961755
 30
0.0
 40
120.0
 41
0.0
 71
     6
 72
     1
  1
\A1;屋根の外寸
  7
STYLE1
 73
     1
 44
1.0
1001
ACAD
1000
MTEXTBEGIN
1070
    73
1070
     1
1070
    44
1040
1.0
1070
    74
1070
     0
1000
MTEXTEND
  0
LEADER
  5
1D946
330
747D
100
AcDbEntity
  8
寸法
 48
50.0
100
AcDbLeader
  3
INABA_S50G
 71
     0
 73
     0
 74
     0
 75
     1
 40
120.0
 41
672.0
 76
     3
 10
8515.488587933825
 20
6064.878363921545
 30
0.0
 10
8763.725774538318
 20
5684.860971961754
 30
0.0
 10
8888.725774538318
 20
5684.860971961754
 30
0.0
340
1D945
1001
ACAD
1000
DSTYLE
1002
{
1070
   341
1005
1C530
1070
    40
1040
1.0
1070
   343
1005
1C530
1070
   344
1005
1C530
1002
}
  0
DIMENSION
  5
1D947
330
747D
100
AcDbEntity
  8
寸法
 48
50.0
100
AcDbDimension
  2
*D17
 10
7640.251118443221
 20
7270.878363921543
 30
0.0
 11
7640.25111844322
 21
7034.831119827053
 31
0.0
 70
   160
 71
     5
 42
110.0000000000036
  3
INABA_S40G
100
AcDbAlignedDimension
 13
7553.599999999997
 23
7380.878363921546
 33
0.0
 14
7553.599999999999
 24
7270.878363921543
 34
0.0
 50
90.0
100
AcDbRotatedDimension
1001
ACAD
1000
DSTYLE
1002
{
1070
   174
1070
     0
1070
   272
1070
     1
1070
   288
1070
     0
1070
   341
1005
0
1002
}
  0
LINE
  5
1D949
330
747D
100
AcDbEntity
  8
部品1
 48
50.0
100
AcDbLine
 10
8583.599999999998
 20
6420.878363921565
 30
0.0
 11
8583.599999999998
 21
7270.878363921545
 31
0.0
  0
LINE
  5
1D94A
330
747D
100
AcDbEntity
  8
部品1
 48
50.0
100
AcDbLine
 10
8703.599999999999
 20
6120.878363921564
 30
0.0
 11
8703.599999999999
 21
7500.878363921545
 31
0.0
  0
LINE
  5
1D94B
330
747D
100
AcDbEntity
  8
想像線
 48
10.0
100
AcDbLine
 10
8748.599999999999
 20
7575.87836392155
 30
0.0
 11
8748.600000000001
 21
6065.878363921545
 31
0.0
  0
TEXT
  5
1D94C
330
747D
100
AcDbEntity
  8
部品1
 48
50.0
100
AcDbText
 10
7894.294671087948
 20
5913.496100642864
 30
0.0
 40
120.0
  1
扉面
  7
STYLE1
 72
     1
 11
8022.294671087948
 21
5897.496100642865
 31
0.0
100
AcDbText
 73
     1
  0
HATCH
  5
1D94E
330
747D
100
AcDbEntity
  8
細線
 48
50.0
100
AcDbHatch
 10
0.0
 20
0.0
 30
0.0
210
0.0
220
0.0
230
1.0
  2
LINE
 70
     0
 71
     0
 91
        1
 92
        7
 72
     0
 73
     1
 93
        4
 10
8113.600000000014
 20
6120.878363921555
 10
8113.600000000014
 20
6290.878363921553
 10
7913.600000000013
 20
6290.87836392155
 10
7913.600000000013
 20
6120.878363921549
 97
        0
 75
     0
 76
     1
 52
45.0
 41
10.0
 77
     0
 78
     1
 53
45.0
 43
4410.48843901349
 44
-5030.663191154743
 45
-22.45064030267288
 46
22.45064030267288
 79
     0
 47
2.903594399684136
 98
        1
 10
8026.710000003099
 20
6159.905419353994
  0
LINE
  5
1D94F
330
747D
100
AcDbEntity
  8
部品1
 48
50.0
100
AcDbLine
 10
7913.600000000013
 20
6120.878363921555
 30
0.0
 11
7913.600000000013
 21
6290.878363921549
 31
0.0
  0
LINE
  5
1D950
330
747D
100
AcDbEntity
  8
部品1
 48
50.0
100
AcDbLine
 10
8113.600000000014
 20
6120.878363921555
 30
0.0
 11
8113.600000000014
 21
6290.878363921553
 31
0.0
  0
LINE
  5
1D951
330
747D
100
AcDbEntity
  8
センター
 48
2.0
100
AcDbLine
 10
8530.600000000005
 20
6318.878363921547
 30
0.0
 11
8630.600000000006
 21
6318.878363921547
 31
0.0
  0
CIRCLE
  5
1D952
330
747D
100
AcDbEntity
  8
部品1
 48
50.0
100
AcDbCircle
 10
8580.600000000005
 20
6318.878363921547
 30
0.0
 40
35.0
  0
LINE
  5
1D953
330
747D
100
AcDbEntity
  8
部品1
 48
50.0
100
AcDbLine
 10
8583.599999999998
 20
6420.878363921564
 30
0.0
 11
8473.599999999999
 21
6420.878363921564
 31
0.0
  0
LINE
  5
1D954
330
747D
100
AcDbEntity
  8
部品1
 48
50.0
100
AcDbLine
 10
8473.599999999999
 20
6290.878363921562
 30
0.0
 11
8473.599999999999
 21
6420.878363921564
 31
0.0
  0
LINE
  5
1D955
330
747D
100
AcDbEntity
  8
センター
 48
2.0
100
AcDbLine
 10
8580.600000000005
 20
6368.878363921547
 30
0.0
 11
8580.600000000005
 21
6268.878363921547
 31
0.0
  0
LINE
  5
1D956
330
747D
100
AcDbEntity
  8
部品1
 48
50.0
100
AcDbLine
 10
8113.599999999999
 20
7380.878363921545
 30
0.0
 11
8113.599999999998
 21
7500.878363921545
 31
0.0
  0
LINE
  5
1D957
330
747D
100
AcDbEntity
  8
部品1
 48
50.0
100
AcDbLine
 10
7913.599999999999
 20
7380.878363921545
 30
0.0
 11
7913.599999999998
 21
7500.878363921545
 31
0.0
  0
DIMENSION
  5
1D959
330
747D
100
AcDbEntity
  8
寸法
 48
50.0
100
AcDbDimension
  2
*D18
 10
7640.251118443221
 20
7380.878363921546
 30
0.0
 11
7640.25111844322
 21
7736.925608016034
 31
0.0
 70
   160
 71
     5
 42
119.9999999999981
  3
INABA_S40G
100
AcDbAlignedDimension
 13
7554.09886994877
 23
7500.878363921545
 33
0.0
 14
7553.599999999997
 24
7380.878363921546
 34
0.0
 50
90.0
100
AcDbRotatedDimension
1001
ACAD
1000
DSTYLE
1002
{
1070
   174
1070
     0
1070
   272
1070
     1
1070
   288
1070
     0
1070
   341
1005
0
1002
}
  0
LINE
  5
1D95A
330
747D
100
AcDbEntity
  8
センター
 48
2.0
100
AcDbLine
 10
8530.599999999997
 20
7377.878363921546
 30
0.0
 11
8630.599999999999
 21
7377.878363921546
 31
0.0
  0
CIRCLE
  5
1D95B
330
747D
100
AcDbEntity
  8
部品1
 48
50.0
100
AcDbCircle
 10
8580.599999999998
 20
7377.878363921546
 30
0.0
 40
35.0
  0
LINE
  5
1D95C
330
747D
100
AcDbEntity
  8
部品1
 48
50.0
100
AcDbLine
 10
8583.599999999998
 20
7270.878363921548
 30
0.0
 11
8473.599999999999
 21
7270.878363921544
 31
0.0
  0
LINE
  5
1D95D
330
747D
100
AcDbEntity
  8
部品1
 48
50.0
100
AcDbLine
 10
8473.599999999999
 20
7270.878363921544
 30
0.0
 11
8473.599999999999
 21
7380.878363921545
 31
0.0
  0
LINE
  5
1D95E
330
747D
100
AcDbEntity
  8
部品1
 48
50.0
100
AcDbLine
 10
8703.599999999999
 20
6910.878363921546
 30
0.0
 11
8583.6
 21
6910.878363921546
 31
0.0
  0
LINE
  5
1D95F
330
747D
100
AcDbEntity
  8
部品1
 48
50.0
100
AcDbLine
 10
8703.599999999999
 20
6710.878363921546
 30
0.0
 11
8583.6
 21
6710.878363921546
 31
0.0
  0
LINE
  5
1D961
330
747D
100
AcDbEntity
  8
センター
 48
2.0
100
AcDbLine
 10
8580.599999999998
 20
7427.878363921546
 30
0.0
 11
8580.599999999998
 21
7327.878363921546
 31
0.0
  0
TEXT
  5
1DEDA
330
747D
100
AcDbEntity
  8
文字
 62
     7
 48
50.0
100
AcDbText
 10
13188.16259899338
 20
79.80631269190325
 30
0.0
 40
80.0
  1
※布基礎には換気口を設けてください。
  7
STYLE2
100
AcDbText
  0
MTEXT
  5
1E700
102
{ACAD_REACTORS
330
1E701
102
}
330
747D
100
AcDbEntity
  8
部品1
 62
     7
 48
50.0
100
AcDbMText
 10
9753.416979436106
 20
7743.903807729497
 30
0.0
 40
120.0
 41
0.0
 71
     6
 72
     1
  1
基礎ボルト芯
  7
STYLE1
 73
     1
 44
1.0
1001
ACAD
1000
MTEXTBEGIN
1070
    73
1070
     1
1070
    44
1040
1.0
1070
    74
1070
     0
1000
MTEXTEND
  0
LEADER
  5
1E701
330
747D
100
AcDbEntity
  8
寸法
 48
50.0
100
AcDbLeader
  3
INABA_S40G
 71
     0
 73
     0
 74
     0
 75
     1
 40
120.0
 41
846.0000000000002
 76
     3
 10
8580.599999999998
 20
7377.878363921546
 30
0.0
 10
8767.416979436106
 20
7643.903807729497
 30
0.0
 10
8867.416979436105
 20
7643.903807729497
 30
0.0
340
1E700
1001
ACAD
1000
DSTYLE
1002
{
1070
   174
1070
     0
1070
   272
1070
     1
1070
   288
1070
     0
1070
   341
1005
0
1002
}
  0
LINE
  5
1EDFD
330
747D
100
AcDbEntity
  8
部品1
 48
50.0
100
AcDbLine
 10
7918.599999999999
 20
6752.878363921545
 30
0.0
 11
7918.599999999999
 21
6942.878363921545
 31
0.0
  0
LINE
  5
1EDFE
330
747D
100
AcDbEntity
  8
部品1
 48
50.0
100
AcDbLine
 10
8108.599999999999
 20
6942.878363921545
 30
0.0
 11
7918.599999999999
 21
6942.878363921545
 31
0.0
  0
LINE
  5
1EDFF
330
747D
100
AcDbEntity
  8
部品1
 48
50.0
100
AcDbLine
 10
8108.599999999999
 20
6752.878363921545
 30
0.0
 11
8108.599999999999
 21
6942.878363921545
 31
0.0
  0
LINE
  5
1EE00
330
747D
100
AcDbEntity
  8
部品1
 48
50.0
100
AcDbLine
 10
8108.599999999999
 20
6752.878363921545
 30
0.0
 11
7918.599999999999
 21
6752.878363921545
 31
0.0
  0
LINE
  5
1EE01
330
747D
100
AcDbEntity
  8
センター
 48
2.0
100
AcDbLine
 10
8013.599999999998
 20
6897.878363921545
 30
0.0
 11
8013.599999999998
 21
6797.878363921545
 31
0.0
  0
LINE
  5
1EE02
330
747D
100
AcDbEntity
  8
センター
 48
2.0
100
AcDbLine
 10
7963.599999999998
 20
6847.878363921545
 30
0.0
 11
8063.599999999999
 21
6847.878363921545
 31
0.0
  0
MTEXT
  5
1EE41
102
{ACAD_REACTORS
330
1EE42
102
}
330
747D
100
AcDbEntity
  8
部品1
 62
     7
 48
50.0
100
AcDbMText
 10
7926.137002396645
 20
6667.719394983447
 30
0.0
 40
120.0
 41
0.0
 71
     6
 72
     1
  1
\A1;C.B
  7
STYLE1
 73
     1
 44
1.0
1001
ACAD
1000
MTEXTBEGIN
1070
    73
1070
     1
1070
    44
1040
1.0
1070
    74
1070
     0
1000
MTEXTEND
  0
LEADER
  5
1EE42
330
747D
100
AcDbEntity
  8
寸法
 48
50.0
100
AcDbLeader
  3
INABA_S50G
 71
     0
 73
     0
 75
     1
 40
120.0
 41
185.591883092037
 76
     3
 10
8033.33568952787
 20
6779.50272240572
 30
0.0
 10
8004.717642953382
 20
6584.794079190953
 30
0.0
 10
7879.717642953382
 20
6584.794079190953
 30
0.0
340
1EE41
210
0.0
220
0.0
230
-1.0
213
-71.41935944326269
223
-47.92531579249407
233
0.0
1001
ACAD
1000
DSTYLE
1002
{
1070
   341
1005
1C530
1070
    40
1040
1.0
1070
   343
1005
1C530
1070
   344
1005
1C530
1002
}
  0
DIMENSION
  5
1EE89
330
747D
100
AcDbEntity
  8
寸法
 48
50.0
100
AcDbDimension
  2
*D19
 10
8212.976879583896
 20
6847.878363921545
 30
0.0
 11
8112.976879583895
 21
7174.378363921547
 31
0.0
 70
    32
 71
     5
 42
653.0
  3
INABA_S40G
100
AcDbAlignedDimension
 13
8200.675462383326
 23
7500.878363921545
 33
0.0
 14
8063.599999999999
 24
6847.878363921545
 34
0.0
 50
90.0
100
AcDbRotatedDimension
1001
ACAD
1000
DSTYLE
1002
{
1070
   174
1070
     0
1070
   272
1070
     1
1070
   279
1070
     1
1070
   288
1070
     0
1070
   341
1005
0
1002
}
  0
DIMENSION
  5
1EE96
330
747D
100
AcDbEntity
  8
寸法
 48
50.0
100
AcDbDimension
  2
*D20
 10
8212.976879583896
 20
6120.878363921558
 30
0.0
 11
8112.965068560274
 21
6484.378363921551
 31
0.0
 70
    32
 71
     5
 42
726.9999999999882
  3
INABA_S40G
100
AcDbAlignedDimension
 13
8063.599999999999
 23
6847.878363921545
 33
0.0
 14
8212.976879583909
 24
6120.878363921558
 34
0.0
 50
90.0
100
AcDbRotatedDimension
1001
ACAD
1000
DSTYLE
1002
{
1070
   174
1070
     0
1070
   272
1070
     1
1070
   279
1070
     1
1070
   288
1070
     0
1070
   341
1005
0
1002
}
  0
DIMENSION
  5
1EECC
330
747D
100
AcDbEntity
  8
寸法
 48
50.0
100
AcDbDimension
  2
*D21
 10
8013.599999999998
 20
7925.854767362114
 30
0.0
 11
7668.599999999999
 21
8025.854767362114
 31
0.0
 70
    32
 71
     5
 42
690.0
  3
INABA_S40G
100
AcDbAlignedDimension
 13
7323.599999999998
 23
7500.878363921545
 33
0.0
 14
8013.599999999998
 24
6897.878363921545
 34
0.0
100
AcDbRotatedDimension
1001
ACAD
1000
DSTYLE
1002
{
1070
   174
1070
     0
1070
   272
1070
     1
1070
   279
1070
     1
1070
   288
1070
     0
1070
   341
1005
0
1002
}
  0
DIMENSION
  5
1EED9
330
747D
100
AcDbEntity
  8
寸法
 48
50.0
100
AcDbDimension
  2
*D22
 10
8703.599999999999
 20
7925.854767362114
 30
0.0
 11
8358.599999999999
 21
8025.854767362114
 31
0.0
 70
    32
 71
     5
 42
690.0
  3
INABA_S40G
100
AcDbAlignedDimension
 13
8013.599999999998
 23
6897.878363921545
 33
0.0
 14
8703.599999999999
 24
7500.878363921545
 34
0.0
100
AcDbRotatedDimension
1001
ACAD
1000
DSTYLE
1002
{
1070
   174
1070
     0
1070
   272
1070
     1
1070
   279
1070
     1
1070
   288
1070
     0
1070
   341
1005
0
1002
}
  0
LINE
  5
1F074
330
747D
100
AcDbEntity
  8
部品1
100
AcDbLine
 10
10732.06193278452
 20
3281.88092890661
 30
0.0
 11
4661.07674739827
 21
3281.880928906609
 31
0.0
  0
LINE
  5
1F075
330
747D
100
AcDbEntity
  8
部品1
100
AcDbLine
 10
10732.06193278452
 20
3041.880928906608
 30
0.0
 11
4661.076747398274
 21
3041.880928906609
 31
0.0
  0
LINE
  5
1F076
330
747D
100
AcDbEntity
  8
部品1
100
AcDbLine
 10
4661.076747398276
 20
317.5739593219632
 30
0.0
 11
10732.06193278452
 21
317.5739593219632
 31
0.0
  0
LEADER
  5
1F077
330
747D
100
AcDbEntity
  8
寸法
 48
50.0
100
AcDbLeader
  3
INABA_S50G
 73
     0
 74
     0
 75
     1
 40
102.2727272727273
 41
680.0000000000001
 76
     3
 10
7669.18449938473
 20
2359.784590238908
 30
0.0
 10
7703.538470498085
 20
2770.237401345449
 30
0.0
 10
7828.538470498085
 20
2770.237401345449
 30
0.0
340
1F078
1001
ACAD
1000
DSTYLE
1002
{
1070
   341
1005
0
1070
    40
1040
1.0
1070
   343
1005
0
1070
   344
1005
0
1002
}
  0
MTEXT
  5
1F078
102
{ACAD_REACTORS
330
1F077
102
}
330
747D
100
AcDbEntity
  8
部品1
 62
     7
 48
50.0
100
AcDbMText
 10
7853.538470498086
 20
2846.373764981813
 30
0.0
 40
80.0
 41
0.8
 71
     4
 72
     1
  1
\A1;ナット(市販品)
  7
STYLE2
 73
     1
 44
1.0
1001
ACAD
1000
MTEXTBEGIN
1070
    73
1070
     1
1070
    44
1040
1.0
1070
    74
1070
     0
1000
MTEXTEND
  0
LEADER
  5
1F079
330
747D
100
AcDbEntity
  8
寸法
 48
50.0
100
AcDbLeader
  3
INABA_S50G
 73
     0
 74
     0
 75
     1
 40
102.2727272727273
 41
906.8181818181818
 76
     3
 10
7693.184499384731
 20
2230.032597574045
 30
0.0
 10
7735.056089753569
 20
2585.268318580662
 30
0.0
 10
7860.056089753569
 20
2585.268318580662
 30
0.0
340
1F07A
1001
ACAD
1000
DSTYLE
1002
{
1070
   341
1005
0
1070
    40
1040
1.0
1070
   343
1005
0
1070
   344
1005
0
1002
}
  0
MTEXT
  5
1F07A
102
{ACAD_REACTORS
330
1F079
102
}
330
747D
100
AcDbEntity
  8
部品1
 62
     7
 48
50.0
100
AcDbMText
 10
7885.056089753568
 20
2661.404682217026
 30
0.0
 40
80.0
 41
0.8
 71
     4
 72
     1
  1
\A1;ワッシャー(市販品)
  7
STYLE2
 73
     1
 44
1.0
1001
ACAD
1000
MTEXTBEGIN
1070
    73
1070
     1
1070
    44
1040
1.0
1070
    74
1070
     0
1000
MTEXTEND
  0
LWPOLYLINE
  5
1F07B
330
747D
100
AcDbEntity
  8
部品1
 48
50.0
100
AcDbPolyline
 90
        2
 70
     0
 43
8.0
 10
7845.784499384729
 20
1720.909309129766
 10
8139.486962784113
 20
1720.909309129766
  0
TEXT
  5
1F07C
330
747D
100
AcDbEntity
  8
部品1
 48
50.0
100
AcDbText
 10
7850.138083669157
 20
2316.787989891965
 30
0.0
 40
80.0
  1
基礎ボルト(市販品)
  7
STYLE2
100
AcDbText
  0
DIMENSION
  5
1F07D
330
747D
100
AcDbEntity
  8
寸法
 48
50.0
100
AcDbDimension
  2
*D23
 10
8347.653099153573
 20
1636.909309129764
 30
0.0
 11
8247.653099153572
 21
1798.909309129766
 31
0.0
 70
    32
  1
180
 71
     5
 42
324.0000000000009
  3
INABA_S50G
100
AcDbAlignedDimension
 13
7845.784499384729
 23
1960.909309129765
 33
0.0
 14
7845.784499384729
 24
1636.909309129764
 34
0.0
 50
90.0
100
AcDbRotatedDimension
1001
ACAD
1000
DSTYLE
1002
{
1070
    40
1040
1.0
1070
    75
1070
     1
1070
   279
1070
     1
1002
}
  0
DIMENSION
  5
1F07E
330
747D
100
AcDbEntity
  8
寸法
 48
50.0
100
AcDbDimension
  2
*D24
 10
8347.653099153573
 20
1960.909309129765
 30
0.0
 11
8623.7077652726
 21
1935.785351525554
 31
0.0
 70
   160
  1
20～25
 71
     5
 42
52.7600000000009
  3
INABA_S50G
100
AcDbAlignedDimension
 13
7658.58449938473
 23
2013.669309129767
 33
0.0
 14
7845.784499384729
 24
1960.909309129765
 34
0.0
 50
90.0
100
AcDbRotatedDimension
1001
ACAD
1000
DSTYLE
1002
{
1070
    40
1040
1.0
1070
   279
1070
     1
1002
}
  0
MTEXT
  5
1F07F
102
{ACAD_REACTORS
330
1F080
102
}
330
747D
100
AcDbEntity
  8
部品1
 62
     7
 48
50.0
100
AcDbMText
 10
7854.728961804049
 20
2225.292635282996
 30
0.0
 40
80.0
 41
0.8
 71
     4
 72
     1
  1
M10X160
  7
STYLE2
 73
     1
 44
1.0
1001
ACAD
1000
MTEXTBEGIN
1070
    73
1070
     1
1070
    44
1040
1.0
1070
    74
1070
     0
1000
MTEXTEND
  0
LEADER
  5
1F080
330
747D
100
AcDbEntity
  8
寸法
 48
50.0
100
AcDbLeader
  3
INABA_S50G
 73
     0
 74
     0
 75
     1
 40
80.0
 41
435.0
 76
     3
 10
7662.18449938473
 20
2010.069309129766
 30
0.0
 10
7704.728961804049
 20
2160.292635282996
 30
0.0
 10
7829.728961804049
 20
2160.292635282996
 30
0.0
340
1F07F
1001
ACAD
1000
DSTYLE
1002
{
1070
   341
1005
0
1070
    40
1040
1.0
1070
   343
1005
0
1070
   344
1005
0
1002
}
  0
LINE
  5
1F081
330
747D
100
AcDbEntity
  8
部品1
100
AcDbLine
 10
4661.076747398272
 20
3281.88092890661
 30
0.0
 11
4661.076747398274
 21
317.5739593219632
 31
0.0
  0
LEADER
  5
1F082
330
747D
100
AcDbEntity
  8
寸法
 48
50.0
100
AcDbLeader
  3
INABA_S50G
 73
     0
 75
     1
 40
113.1818181818182
 41
608.6363636363635
 76
     3
 10
7621.921249522781
 20
1910.424982488044
 30
0.0
 10
7488.117420831432
 20
2761.804064844522
 30
0.0
 10
7363.117420831432
 20
2761.804064844522
 30
0.0
340
1F083
1001
ACAD
1000
DSTYLE
1002
{
1070
   341
1005
0
1070
    40
1040
1.0
1070
   343
1005
0
1070
   344
1005
0
1002
}
  0
MTEXT
  5
1F083
102
{ACAD_REACTORS
330
1F082
102
}
330
747D
100
AcDbEntity
  8
寸法
 62
     7
 48
50.0
100
AcDbMText
 10
7338.117420831432
 20
2843.394973935431
 30
0.0
 40
80.0
 41
0.8
 71
     6
 72
     1
  1
\A1;φ70スリーブ
  7
STYLE2
 73
     1
 44
1.0
1001
ACAD
1000
MTEXTBEGIN
1070
    73
1070
     1
1070
    44
1040
1.0
1070
    74
1070
     0
1000
MTEXTEND
  0
LWPOLYLINE
  5
1F084
330
747D
100
AcDbEntity
  8
部品1
 48
50.0
100
AcDbPolyline
 90
        2
 70
     0
 43
8.0
 10
5317.605284374579
 20
1720.909309129766
 10
5731.745186207535
 20
1720.909309129766
  0
TEXT
  5
1F085
330
747D
100
AcDbEntity
  8
部品1
 48
50.0
100
AcDbText
 10
5317.605284374579
 20
1732.148301413021
 30
0.0
 40
80.0
  1
▽G.L
  7
STYLE2
100
AcDbText
  0
DIMENSION
  5
1F086
330
747D
100
AcDbEntity
  8
寸法
 48
50.0
100
AcDbDimension
  2
*D25
 10
5461.324872475075
 20
1176.909309129765
 30
0.0
 11
5461.324872475075
 21
1296.909309129765
 31
0.0
 70
   160
  1
150
 71
     5
 42
240.0
  3
INABA_S50G
100
AcDbAlignedDimension
 13
5603.745186207535
 23
1416.909309129765
 33
0.0
 14
5523.745186207539
 24
1176.909309129765
 34
0.0
 50
90.0
100
AcDbRotatedDimension
1001
ACAD
1000
DSTYLE
1002
{
1070
    40
1040
1.0
1070
   272
1070
     1
1070
   279
1070
     1
1070
   341
1005
0
1002
}
  0
LEADER
  5
1F087
330
747D
100
AcDbEntity
  8
寸法
 48
50.0
100
AcDbLeader
  3
INABA_S50G
 71
     0
 73
     0
 75
     1
 40
100.0
 41
225.0
 76
     3
 10
5699.648138559678
 20
1296.909309129765
 30
0.0
 10
5577.810160012341
 20
1033.386615511329
 30
0.0
 10
5452.810160012341
 20
1033.386615511329
 30
0.0
1001
ACAD
1000
DSTYLE
1002
{
1070
    40
1040
1.0
1070
   272
1070
     1
1070
   279
1070
     1
1070
   341
1005
0
1002
}
  0
LEADER
  5
1F088
330
747D
100
AcDbEntity
  8
寸法
 48
50.0
100
AcDbLeader
  3
INABA_S50G
 71
     0
 73
     0
 75
     1
 40
100.0
 41
222.7272727272727
 76
     3
 10
5827.745186207535
 20
1296.909309129765
 30
0.0
 10
5605.932887569776
 20
853.0704629718856
 30
0.0
 10
5480.932887569776
 20
853.0704629718856
 30
0.0
1001
ACAD
1000
DSTYLE
1002
{
1070
    40
1040
1.0
1070
   272
1070
     1
1070
   279
1070
     1
1070
   341
1005
0
1002
}
  0
MTEXT
  5
1F089
102
{ACAD_REACTORS
330
1F08A
102
}
330
747D
100
AcDbEntity
  8
寸法
 62
     7
 48
50.0
100
AcDbMText
 10
5642.49513198473
 20
1562.209911947222
 30
0.0
 40
80.0
 41
0.8
 71
     6
 72
     1
  1
\A1;D10@300
  7
STYLE2
 73
     1
 44
1.0
1001
ACAD
1000
MTEXTBEGIN
1070
    73
1070
     1
1070
    44
1040
1.0
1070
    74
1070
     0
1000
MTEXTEND
  0
LEADER
  5
1F08A
330
747D
100
AcDbEntity
  8
寸法
 48
50.0
100
AcDbLeader
  3
INABA_S50G
 71
     0
 73
     0
 75
     1
 40
100.0
 41
540.3409090909091
 76
     3
 10
5835.745186207535
 20
1719.036523826889
 30
0.0
 10
5777.762949678837
 20
1497.566195286084
 30
0.0
 10
5652.762949678837
 20
1497.566195286084
 30
0.0
213
-9.732182305893367
223
-4.643716661138569
233
0.0
1001
ACAD
1000
DSTYLE
1002
{
1070
    40
1040
1.0
1070
   272
1070
     1
1070
   279
1070
     1
1070
   341
1005
0
1002
}
  0
LEADER
  5
1F08B
330
747D
100
AcDbEntity
  8
寸法
 48
50.0
100
AcDbLeader
  3
INABA_S50G
 71
     0
 73
     0
 75
     1
 40
130.1136363636363
 41
651.1363636363636
 76
     3
 10
5811.745186207534
 20
1960.909309129765
 30
0.0
 10
5699.320606043518
 20
2101.380074586354
 30
0.0
 10
5574.320606043518
 20
2101.380074586354
 30
0.0
1001
ACAD
1000
DSTYLE
1002
{
1070
    40
1040
1.0
1070
   272
1070
     1
1070
   279
1070
     1
1070
   341
1005
0
1002
}
  0
MTEXT
  5
1F08C
102
{ACAD_REACTORS
330
1F08B
102
}
330
747D
100
AcDbEntity
  8
寸法
 62
     7
 48
50.0
100
AcDbMText
 10
5511.646706724262
 20
2173.425529131808
 30
0.0
 40
80.0
 41
0.8
 71
     6
 72
     1
  1
\A1;金コテ押エ
  7
STYLE2
 73
     1
 44
1.0
1001
ACAD
1000
MTEXTBEGIN
1070
    73
1070
     1
1070
    44
1040
1.0
1070
    74
1070
     0
1000
MTEXTEND
  0
DIMENSION
  5
1F08D
330
747D
100
AcDbEntity
  8
寸法
 48
50.0
100
AcDbDimension
  2
*D26
 10
4996.707947645795
 20
1176.909309129765
 30
0.0
 11
4996.707947645795
 21
1548.449458785766
 31
0.0
 70
   160
  1
540
 71
     5
 42
784.0000000000002
  3
INABA_S50G
100
AcDbAlignedDimension
 13
5731.745186207535
 23
1960.909309129765
 33
0.0
 14
5523.745186207539
 24
1176.909309129765
 34
0.0
 50
90.0
100
AcDbRotatedDimension
1001
ACAD
1000
DSTYLE
1002
{
1070
    40
1040
1.0
1070
   272
1070
     1
1070
   341
1005
0
1002
}
  0
MTEXT
  5
1F08E
102
{ACAD_REACTORS
330
1F088
102
}
330
747D
100
AcDbEntity
  8
寸法
 62
     7
 48
50.0
100
AcDbMText
 10
5460.932887569775
 20
913.0704629718858
 30
0.0
 40
80.0
 41
0.8
 71
     6
 72
     1
  1
D13
  7
STYLE2
 73
     1
 44
1.0
1001
ACAD
1000
MTEXTBEGIN
1070
    73
1070
     1
1070
    44
1040
1.0
1070
    74
1070
     0
1000
MTEXTEND
  0
MTEXT
  5
1F08F
102
{ACAD_REACTORS
330
1F087
102
}
330
747D
100
AcDbEntity
  8
寸法
 62
     7
 48
50.0
100
AcDbMText
 10
5432.810160012341
 20
1093.386615511329
 30
0.0
 40
80.0
 41
0.8
 71
     6
 72
     1
  1
D10
  7
STYLE2
 73
     1
 44
1.0
1001
ACAD
1000
MTEXTBEGIN
1070
    73
1070
     1
1070
    44
1040
1.0
1070
    74
1070
     0
1000
MTEXTEND
  0
DIMENSION
  5
1F090
330
747D
100
AcDbEntity
  8
寸法
 48
50.0
100
AcDbDimension
  2
*D27
 10
6051.745186207535
 20
638.4796711246053
 30
0.0
 11
5807.648427529311
 21
638.4796711246053
 31
0.0
 70
   160
  1
300
 71
     5
 42
448.0
  3
INABA_S50G
100
AcDbAlignedDimension
 13
5603.745186207535
 23
1048.909309129765
 33
0.0
 14
6051.745186207535
 24
1048.909309129765
 34
0.0
100
AcDbRotatedDimension
1001
ACAD
1000
DSTYLE
1002
{
1070
    40
1040
1.0
1070
   272
1070
     1
1070
   341
1005
0
1002
}
  0
MTEXT
  5
1F091
102
{ACAD_REACTORS
330
1F092
102
}
330
747D
100
AcDbEntity
  8
寸法
 62
     7
 48
50.0
100
AcDbMText
 10
7364.76042703979
 20
2482.710702027917
 30
0.0
 40
80.0
 41
0.8
 71
     6
 72
     1
  1
アンカープレート {\fArial|b0|i0|c0|p32;U}
  7
STYLE2
 73
     1
 44
1.0
1001
ACAD
1000
MTEXTBEGIN
1070
    73
1070
     1
1070
    44
1040
1.0
1070
    74
1070
     0
1000
MTEXTEND
  0
LEADER
  5
1F092
330
747D
100
AcDbEntity
  8
寸法
 48
50.0
100
AcDbLeader
  3
INABA_S50G
 73
     0
 75
     1
 40
106.3636363636363
 41
903.5235024184547
 76
     3
 10
7563.184499384729
 20
2030.469309129767
 30
0.0
 10
7514.76042703979
 20
2404.528883846099
 30
0.0
 10
7389.76042703979
 20
2404.528883846099
 30
0.0
340
1F091
1001
ACAD
1000
DSTYLE
1002
{
1070
   341
1005
0
1070
    40
1040
1.0
1070
   343
1005
0
1070
   344
1005
0
1002
}
  0
LINE
  5
1F093
330
747D
100
AcDbEntity
  8
細線
 48
50.0
100
AcDbLine
 10
5851.745186207536
 20
1799.282201797596
 30
0.0
 11
5923.745186207536
 21
1871.282201797596
 31
0.0
  0
ARC
  5
1F094
330
747D
100
AcDbEntity
  8
部品1
 48
50.0
100
AcDbCircle
 10
5827.745186207536
 20
1821.163738524011
 30
0.0
 40
24.0
100
AcDbArc
 50
0.0
 51
180.0
  0
CIRCLE
  5
1F095
330
747D
100
AcDbEntity
  8
部品1
 48
50.0
100
AcDbCircle
 10
5827.745186207536
 20
1821.163738524011
 30
0.0
 40
8.0
  0
LINE
  5
1F096
330
747D
100
AcDbEntity
  8
部品1
 48
50.0
100
AcDbLine
 10
5731.745186207536
 20
1416.909309129765
 30
0.0
 11
5731.745186207536
 21
1960.909309129765
 31
0.0
  0
LINE
  5
1F097
330
747D
100
AcDbEntity
  8
部品1
 48
50.0
100
AcDbLine
 10
5923.745186207536
 20
1960.909309129765
 30
0.0
 11
5923.745186207536
 21
1416.909309129765
 31
0.0
  0
MTEXT
  5
1F098
102
{ACAD_REACTORS
330
1F09D
102
}
330
747D
100
AcDbEntity
  8
寸法
 62
     7
 48
50.0
100
AcDbMText
 10
6006.63112323493
 20
1822.176870428693
 30
0.0
 40
80.0
 41
0.8
 71
     4
 72
     1
  1
D13
  7
STYLE2
 73
     1
 44
1.0
1001
ACAD
1000
MTEXTBEGIN
1070
    73
1070
     1
1070
    44
1040
1.0
1070
    74
1070
     0
1000
MTEXTEND
  0
LEADER
  5
1F099
330
747D
100
AcDbEntity
  8
寸法
 48
50.0
100
AcDbLeader
  3
INABA_S50G
 71
     0
 73
     0
 74
     0
 75
     1
 40
100.0
 41
225.0
 76
     3
 10
5955.648138559678
 20
1296.909309129765
 30
0.0
 10
6010.07284601422
 20
1201.512240186793
 30
0.0
 10
6135.07284601422
 20
1201.512240186793
 30
0.0
1001
ACAD
1000
DSTYLE
1002
{
1070
    40
1040
1.0
1070
   272
1070
     1
1070
   279
1070
     1
1070
   341
1005
0
1002
}
  0
LEADER
  5
1F09A
330
747D
100
AcDbEntity
  8
寸法
 48
50.0
100
AcDbLeader
  3
INABA_S50G
 71
     0
 73
     0
 74
     0
 75
     1
 40
100.0
 41
540.3409090909091
 76
     3
 10
5901.69035522071
 20
1280.16877871624
 30
0.0
 10
6020.483642068786
 20
938.5379607213426
 30
0.0
 10
6145.483642068786
 20
938.5379607213426
 30
0.0
213
0.0
223
-1.022262676269383
233
0.0
1001
ACAD
1000
DSTYLE
1002
{
1070
    40
1040
1.0
1070
   272
1070
     1
1070
   279
1070
     1
1070
   341
1005
0
1002
}
  0
MTEXT
  5
1F09B
102
{ACAD_REACTORS
330
1F099
102
}
330
747D
100
AcDbEntity
  8
寸法
 62
     7
 48
50.0
100
AcDbMText
 10
6155.07284601422
 20
1261.512240186793
 30
0.0
 40
80.0
 41
0.8
 71
     4
 72
     1
  1
D10
  7
STYLE2
 73
     1
 44
1.0
1001
ACAD
1000
MTEXTBEGIN
1070
    73
1070
     1
1070
    44
1040
1.0
1070
    74
1070
     0
1000
MTEXTEND
  0
LWPOLYLINE
  5
1F09C
330
747D
100
AcDbEntity
  8
部品1
 48
50.0
100
AcDbPolyline
 90
        2
 70
     0
 43
8.0
 10
5923.745186207535
 20
1720.909309129766
 10
6337.885088040493
 20
1720.909309129766
  0
LEADER
  5
1F09D
330
747D
100
AcDbEntity
  8
寸法
 48
50.0
100
AcDbLeader
  3
INABA_S50G
 71
     0
 73
     0
 74
     0
 75
     1
 40
100.0
 41
222.7272727272727
 76
     3
 10
5827.745186207535
 20
1821.163738524011
 30
0.0
 10
5861.631123234929
 20
1762.176870428693
 30
0.0
 10
5986.631123234929
 20
1762.176870428693
 30
0.0
1001
ACAD
1000
DSTYLE
1002
{
1070
    40
1040
1.0
1070
   272
1070
     1
1070
   279
1070
     1
1070
   341
1005
0
1002
}
  0
LINE
  5
1F09E
330
747D
100
AcDbEntity
  8
細線
 48
50.0
100
AcDbLine
 10
5603.745186207529
 20
1335.756054891936
 30
0.0
 11
5684.898440445364
 21
1416.909309129765
 31
0.0
  0
LINE
  5
1F09F
330
747D
100
AcDbEntity
  8
細線
 48
50.0
100
AcDbLine
 10
5811.61103368494
 20
1355.036523826887
 30
0.0
 11
5835.745186207542
 21
1379.170676349487
 31
0.0
  0
LINE
  5
1F0A0
330
747D
100
AcDbEntity
  8
細線
 48
50.0
100
AcDbLine
 10
5718.543050624608
 20
1288.909309129765
 30
0.0
 11
5835.745186207535
 21
1406.111444712691
 31
0.0
  0
LINE
  5
1F0A1
330
747D
100
AcDbEntity
  8
部品1
 48
50.0
100
AcDbLine
 10
5603.745186207536
 20
1176.909309129765
 30
0.0
 11
5603.745186207536
 21
1416.909309129765
 31
0.0
  0
LINE
  5
1F0A2
330
747D
100
AcDbEntity
  8
細線
 48
50.0
100
AcDbLine
 10
5961.00996589348
 20
1288.909309129765
 30
0.0
 11
6051.745186207536
 21
1379.644529443824
 31
0.0
  0
LINE
  5
1F0A3
330
747D
100
AcDbEntity
  8
細線
 48
50.0
100
AcDbLine
 10
5934.069197530263
 20
1288.909309129765
 30
0.0
 11
6051.745186207536
 21
1406.585297807031
 31
0.0
  0
LINE
  5
1F0A4
330
747D
100
AcDbEntity
  8
部品1
 48
50.0
100
AcDbLine
 10
6051.745186207536
 20
1416.909309129765
 30
0.0
 11
6051.745186207536
 21
1176.909309129765
 31
0.0
  0
LINE
  5
1F0A5
330
747D
100
AcDbEntity
  8
部品1
 48
50.0
100
AcDbLine
 10
5851.745186207541
 20
1296.909309129765
 30
0.0
 11
5851.745186207536
 21
1821.163738524011
 31
0.0
  0
LINE
  5
1F0A6
330
747D
100
AcDbEntity
  8
部品1
 48
50.0
100
AcDbLine
 10
5835.745186207542
 20
1296.909309129765
 30
0.0
 11
5835.745186207528
 21
1821.163738524011
 31
0.0
  0
LINE
  5
1F0A7
330
747D
100
AcDbEntity
  8
細線
 48
50.0
100
AcDbLine
 10
5819.745186207536
 20
1336.229907986277
 30
0.0
 11
5835.745186207542
 21
1352.229907986277
 31
0.0
  0
LINE
  5
1F0A8
330
747D
100
AcDbEntity
  8
細線
 48
50.0
100
AcDbLine
 10
5808.92802570355
 20
1048.909309129765
 30
0.0
 11
5843.225522334734
 21
1176.909309129765
 31
0.0
  0
LINE
  5
1F0A9
330
747D
100
AcDbEntity
  8
部品1
 48
50.0
100
AcDbLine
 10
6131.745186207539
 20
1048.909309129765
 30
0.0
 11
5523.745186207538
 21
1048.909309129765
 31
0.0
  0
LINE
  5
1F0AA
330
747D
100
AcDbEntity
  8
部品1
 48
50.0
100
AcDbLine
 10
5659.745186207536
 20
1272.909309129765
 30
0.0
 11
5995.745186207535
 21
1272.909309129765
 31
0.0
  0
LINE
  5
1F0AB
330
747D
100
AcDbEntity
  8
部品1
 48
50.0
100
AcDbLine
 10
5659.745186207536
 20
1288.909309129765
 30
0.0
 11
5995.745186207535
 21
1288.909309129765
 31
0.0
  0
LINE
  5
1F0AC
330
747D
100
AcDbEntity
  8
部品1
 48
50.0
100
AcDbLine
 10
6131.745186207539
 20
1176.909309129765
 30
0.0
 11
5523.745186207538
 21
1176.909309129765
 31
0.0
  0
CIRCLE
  5
1F0AD
330
747D
100
AcDbEntity
  8
部品1
 48
50.0
100
AcDbCircle
 10
5827.745186207536
 20
1296.909309129765
 30
0.0
 40
8.0
  0
LINE
  5
1F0AE
330
747D
100
AcDbEntity
  8
細線
 48
50.0
100
AcDbLine
 10
5822.069197530269
 20
1176.909309129765
 30
0.0
 11
5918.069197530269
 21
1272.909309129765
 31
0.0
  0
LINE
  5
1F0AF
330
747D
100
AcDbEntity
  8
細線
 48
50.0
100
AcDbLine
 10
5651.151935809052
 20
1048.909309129765
 30
0.0
 11
5685.449432440235
 21
1176.909309129765
 31
0.0
  0
LINE
  5
1F0B0
330
747D
100
AcDbEntity
  8
細線
 48
50.0
100
AcDbLine
 10
5730.039980756298
 20
1048.909309129763
 30
0.0
 11
5764.33747738748
 21
1176.909309129763
 31
0.0
  0
LINE
  5
1F0B1
330
747D
100
AcDbEntity
  8
細線
 48
50.0
100
AcDbLine
 10
5572.263890861794
 20
1048.909309129763
 30
0.0
 11
5606.561387492977
 21
1176.909309129763
 31
0.0
  0
LINE
  5
1F0B2
330
747D
100
AcDbEntity
  8
部品1
 48
50.0
100
AcDbLine
 10
5523.745186207538
 20
1048.909309129765
 30
0.0
 11
5523.745186207538
 21
1176.909309129765
 31
0.0
  0
LINE
  5
1F0B3
330
747D
100
AcDbEntity
  8
細線
 48
50.0
100
AcDbLine
 10
5657.582716427398
 20
1072.909309129765
 30
0.0
 11
5664.013497045746
 21
1048.909309129765
 31
0.0
  0
LINE
  5
1F0B4
330
747D
100
AcDbEntity
  8
細線
 48
50.0
100
AcDbLine
 10
5578.694671480147
 20
1072.909309129765
 30
0.0
 11
5585.125452098493
 21
1048.909309129765
 31
0.0
  0
LINE
  5
1F0B5
330
747D
100
AcDbEntity
  8
細線
 48
50.0
100
AcDbLine
 10
5815.358806321903
 20
1072.909309129765
 30
0.0
 11
5821.789586940249
 21
1048.909309129765
 31
0.0
  0
LINE
  5
1F0B6
330
747D
100
AcDbEntity
  8
細線
 48
50.0
100
AcDbLine
 10
5736.470761374651
 20
1072.909309129765
 30
0.0
 11
5742.901541992996
 21
1048.909309129765
 31
0.0
  0
LINE
  5
1F0B7
330
747D
100
AcDbEntity
  8
細線
 48
50.0
100
AcDbLine
 10
5633.483818987819
 20
1176.909309129765
 30
0.0
 11
5729.483818987819
 21
1272.909309129765
 31
0.0
  0
LINE
  5
1F0B8
330
747D
100
AcDbEntity
  8
細線
 48
50.0
100
AcDbLine
 10
5606.543050624608
 20
1176.909309129765
 30
0.0
 11
5702.543050624608
 21
1272.909309129765
 31
0.0
  0
LINE
  5
1F0B9
330
747D
100
AcDbEntity
  8
部品1
 48
50.0
100
AcDbLine
 10
5659.745186207536
 20
1288.909309129765
 30
0.0
 11
5659.745186207536
 21
1272.909309129765
 31
0.0
  0
LINE
  5
1F0BA
330
747D
100
AcDbEntity
  8
細線
 48
50.0
100
AcDbLine
 10
5600.130606874636
 20
1152.909309129765
 30
0.0
 11
5593.699826256289
 21
1176.909309129765
 31
0.0
  0
LINE
  5
1F0BB
330
747D
100
AcDbEntity
  8
細線
 48
50.0
100
AcDbLine
 10
5523.745186207536
 20
1162.249230095545
 30
0.0
 11
5527.673342545732
 21
1176.909309129765
 31
0.0
  0
LINE
  5
1F0BC
330
747D
100
AcDbEntity
  8
部品1
 48
50.0
100
AcDbLine
 10
5819.745186207536
 20
1355.036523826887
 30
0.0
 11
5803.745186207535
 21
1355.036523826887
 31
0.0
  0
CIRCLE
  5
1F0BD
330
747D
100
AcDbEntity
  8
部品1
 48
50.0
100
AcDbCircle
 10
5699.745186207536
 20
1296.909309129765
 30
0.0
 40
8.0
  0
LINE
  5
1F0BE
330
747D
100
AcDbEntity
  8
細線
 48
50.0
100
AcDbLine
 10
5772.424587351025
 20
1288.909309129765
 30
0.0
 11
5803.745186207535
 21
1320.229907986277
 31
0.0
  0
ARC
  5
1F0BF
330
747D
100
AcDbEntity
  8
部品1
 48
50.0
100
AcDbCircle
 10
5827.745186207536
 20
1296.909309129765
 30
0.0
 40
24.0
100
AcDbArc
 50
180.0
 51
199.4712206345204
  0
LINE
  5
1F0C0
330
747D
100
AcDbEntity
  8
細線
 48
50.0
100
AcDbLine
 10
5679.018651821888
 20
1152.909309129765
 30
0.0
 11
5672.587871203541
 21
1176.909309129765
 31
0.0
  0
LINE
  5
1F0C1
330
747D
100
AcDbEntity
  8
細線
 48
50.0
100
AcDbLine
 10
5757.90669676914
 20
1152.909309129765
 30
0.0
 11
5751.475916150794
 21
1176.909309129765
 31
0.0
  0
LINE
  5
1F0C2
330
747D
100
AcDbEntity
  8
細線
 48
50.0
100
AcDbLine
 10
5660.424587351024
 20
1176.909309129765
 30
0.0
 11
5756.424587351024
 21
1272.909309129765
 31
0.0
  0
LINE
  5
1F0C3
330
747D
100
AcDbEntity
  8
部品1
 48
50.0
100
AcDbLine
 10
5803.745186207535
 20
1355.036523826887
 30
0.0
 11
5803.745186207535
 21
1296.909309129765
 31
0.0
  0
LINE
  5
1F0C4
330
747D
100
AcDbEntity
  8
細線
 48
50.0
100
AcDbLine
 10
5745.483818987819
 20
1288.909309129765
 30
0.0
 11
5803.745186207535
 21
1347.170676349484
 31
0.0
  0
LINE
  5
1F0C5
330
747D
100
AcDbEntity
  8
部品1
 48
50.0
100
AcDbLine
 10
5819.745186207536
 20
1355.036523826887
 30
0.0
 11
5819.745186207536
 21
1296.909309129765
 31
0.0
  0
LINE
  5
1F0C6
330
747D
100
AcDbEntity
  8
部品1
 48
50.0
100
AcDbLine
 10
6131.745186207539
 20
1176.909309129765
 30
0.0
 11
6131.745186207539
 21
1048.909309129765
 31
0.0
  0
LINE
  5
1F0C7
330
747D
100
AcDbEntity
  8
細線
 48
50.0
100
AcDbLine
 10
6045.59216054529
 20
1048.909309129765
 30
0.0
 11
6079.889657176474
 21
1176.909309129763
 31
0.0
  0
LINE
  5
1F0C8
330
747D
100
AcDbEntity
  8
細線
 48
50.0
100
AcDbLine
 10
5887.816070650796
 20
1048.909309129765
 30
0.0
 11
5922.113567281982
 21
1176.909309129763
 31
0.0
  0
LINE
  5
1F0C9
330
747D
100
AcDbEntity
  8
細線
 48
50.0
100
AcDbLine
 10
5966.704115598044
 20
1048.909309129763
 30
0.0
 11
6001.001612229229
 21
1176.909309129763
 31
0.0
  0
LINE
  5
1F0CA
330
747D
100
AcDbEntity
  8
細線
 48
50.0
100
AcDbLine
 10
5973.134896216394
 20
1072.909309129765
 30
0.0
 11
5979.565676834742
 21
1048.909309129765
 31
0.0
  0
LINE
  5
1F0CB
330
747D
100
AcDbEntity
  8
細線
 48
50.0
100
AcDbLine
 10
5894.246851269148
 20
1072.909309129765
 30
0.0
 11
5900.677631887495
 21
1048.909309129765
 31
0.0
  0
LINE
  5
1F0CC
330
747D
100
AcDbEntity
  8
細線
 48
50.0
100
AcDbLine
 10
6052.022941163642
 20
1072.909309129765
 30
0.0
 11
6058.453721781989
 21
1048.909309129765
 31
0.0
  0
LINE
  5
1F0CD
330
747D
100
AcDbEntity
  8
細線
 48
50.0
100
AcDbLine
 10
6130.910986110888
 20
1072.909309129765
 30
0.0
 11
6131.745186207536
 21
1069.796031985401
 31
0.0
  0
LINE
  5
1F0CE
330
747D
100
AcDbEntity
  8
細線
 48
50.0
100
AcDbLine
 10
6124.480205492538
 20
1048.909309129763
 30
0.0
 11
6131.745186207536
 21
1076.022586274153
 31
0.0
  0
LINE
  5
1F0CF
330
747D
100
AcDbEntity
  8
細線
 48
50.0
100
AcDbLine
 10
5987.950734256683
 20
1288.909309129765
 30
0.0
 11
6051.745186207536
 21
1352.703761080616
 31
0.0
  0
CIRCLE
  5
1F0D0
330
747D
100
AcDbEntity
  8
部品1
 48
50.0
100
AcDbCircle
 10
5955.745186207536
 20
1296.909309129765
 30
0.0
 40
8.0
  0
ARC
  5
1F0D1
330
747D
100
AcDbEntity
  8
部品1
 48
50.0
100
AcDbCircle
 10
5827.745186207536
 20
1296.909309129765
 30
0.0
 40
24.0
100
AcDbArc
 50
340.5287793654796
 51
0.0
  0
LINE
  5
1F0D2
330
747D
100
AcDbEntity
  8
細線
 48
50.0
100
AcDbLine
 10
5836.794741716392
 20
1152.909309129765
 30
0.0
 11
5830.363961098044
 21
1176.909309129765
 31
0.0
  0
LINE
  5
1F0D3
330
747D
100
AcDbEntity
  8
細線
 48
50.0
100
AcDbLine
 10
5915.682786663637
 20
1152.909309129765
 30
0.0
 11
5909.252006045292
 21
1176.909309129765
 31
0.0
  0
LINE
  5
1F0D4
330
747D
100
AcDbEntity
  8
細線
 48
50.0
100
AcDbLine
 10
5849.009965893479
 20
1176.909309129765
 30
0.0
 11
5945.009965893479
 21
1272.909309129765
 31
0.0
  0
LINE
  5
1F0D5
330
747D
100
AcDbEntity
  8
細線
 48
50.0
100
AcDbLine
 10
5875.950734256683
 20
1176.909309129765
 30
0.0
 11
5971.95162210182
 21
1272.910196974904
 31
0.0
  0
LINE
  5
1F0D6
330
747D
100
AcDbEntity
  8
部品1
 48
50.0
100
AcDbLine
 10
5995.745186207535
 20
1288.909309129765
 30
0.0
 11
5995.745186207535
 21
1272.909309129765
 31
0.0
  0
LINE
  5
1F0D7
330
747D
100
AcDbEntity
  8
細線
 48
50.0
100
AcDbLine
 10
6073.45887655813
 20
1152.909309129765
 30
0.0
 11
6067.028095939782
 21
1176.909309129765
 31
0.0
  0
LINE
  5
1F0D8
330
747D
100
AcDbEntity
  8
細線
 48
50.0
100
AcDbLine
 10
6037.59534443593
 20
1176.909309129765
 30
0.0
 11
6051.745186207536
 21
1191.059150901372
 31
0.0
  0
LINE
  5
1F0D9
330
747D
100
AcDbEntity
  8
細線
 48
50.0
100
AcDbLine
 10
5994.570831610883
 20
1152.909309129765
 30
0.0
 11
5988.140050992537
 21
1176.909309129765
 31
0.0
  0
LINE
  5
1F0DA
330
747D
100
AcDbEntity
  8
細線
 48
50.0
100
AcDbLine
 10
5731.745186207536
 20
1490.696823255143
 30
0.0
 11
5835.745186207542
 21
1594.696823255146
 31
0.0
  0
LINE
  5
1F0DB
330
747D
100
AcDbEntity
  8
細線
 48
50.0
100
AcDbLine
 10
5731.745186207536
 20
1517.637591618351
 30
0.0
 11
5835.745186207535
 21
1621.637591618351
 31
0.0
  0
LINE
  5
1F0DC
330
747D
100
AcDbEntity
  8
細線
 48
50.0
100
AcDbLine
 10
5731.745186207536
 20
1463.756054891936
 30
0.0
 11
5835.745186207542
 21
1567.756054891936
 31
0.0
  0
LINE
  5
1F0DD
330
747D
100
AcDbEntity
  8
細線
 48
50.0
100
AcDbLine
 10
5819.745186207536
 20
1767.282201797596
 30
0.0
 11
5835.745186207535
 21
1783.282201797596
 31
0.0
  0
LINE
  5
1F0DE
330
747D
100
AcDbEntity
  8
細線
 48
50.0
100
AcDbLine
 10
5819.745186207536
 20
1794.222970160803
 30
0.0
 11
5835.745186207535
 21
1810.222970160803
 31
0.0
  0
LINE
  5
1F0DF
330
747D
100
AcDbEntity
  8
部品1
 48
50.0
100
AcDbLine
 10
5603.745186207536
 20
1416.909309129765
 30
0.0
 11
5731.745186207536
 21
1416.909309129765
 31
0.0
  0
LINE
  5
1F0E0
330
747D
100
AcDbEntity
  8
細線
 48
50.0
100
AcDbLine
 10
5603.745186207529
 20
1362.696823255141
 30
0.0
 11
5657.957672082161
 21
1416.909309129765
 31
0.0
  0
LINE
  5
1F0E1
330
747D
100
AcDbEntity
  8
細線
 48
50.0
100
AcDbLine
 10
5603.745186207529
 20
1389.637591618351
 30
0.0
 11
5631.01690371895
 21
1416.909309129765
 31
0.0
  0
LINE
  5
1F0E2
330
747D
100
AcDbEntity
  8
部品1
 48
50.0
100
AcDbLine
 10
5819.745186207536
 20
1763.036523826888
 30
0.0
 11
5803.745186207535
 21
1763.036523826891
 31
0.0
  0
LINE
  5
1F0E3
330
747D
100
AcDbEntity
  8
細線
 48
50.0
100
AcDbLine
 10
5731.745186207536
 20
1679.282201797596
 30
0.0
 11
5815.499508236829
 21
1763.036523826888
 31
0.0
  0
LINE
  5
1F0E4
330
747D
100
AcDbEntity
  8
細線
 48
50.0
100
AcDbLine
 10
5731.745186207536
 20
1706.222970160803
 30
0.0
 11
5803.745186207535
 21
1778.222970160803
 31
0.0
  0
LINE
  5
1F0E5
330
747D
100
AcDbEntity
  8
部品1
 48
50.0
100
AcDbLine
 10
5803.745186207535
 20
1763.036523826891
 30
0.0
 11
5803.745186207535
 21
1821.163738524011
 31
0.0
  0
LINE
  5
1F0E6
330
747D
100
AcDbEntity
  8
細線
 48
50.0
100
AcDbLine
 10
5731.745186207536
 20
1733.163738524011
 30
0.0
 11
5803.745186207535
 21
1805.163738524011
 31
0.0
  0
LINE
  5
1F0E7
330
747D
100
AcDbEntity
  8
部品1
 48
50.0
100
AcDbLine
 10
5819.745186207536
 20
1763.036523826888
 30
0.0
 11
5819.745186207536
 21
1821.163738524011
 31
0.0
  0
LINE
  5
1F0E8
330
747D
100
AcDbEntity
  8
細線
 48
50.0
100
AcDbLine
 10
5851.745186207541
 20
1583.756054891936
 30
0.0
 11
5923.745186207529
 21
1655.756054891936
 31
0.0
  0
LINE
  5
1F0E9
330
747D
100
AcDbEntity
  8
部品1
 48
50.0
100
AcDbLine
 10
5923.745186207536
 20
1416.909309129765
 30
0.0
 11
6051.745186207536
 21
1416.909309129765
 31
0.0
  0
LINE
  5
1F0EA
330
747D
100
AcDbEntity
  8
細線
 48
50.0
100
AcDbLine
 10
5851.745186207541
 20
1395.170676349487
 30
0.0
 11
5923.745186207529
 21
1467.170676349481
 31
0.0
  0
LINE
  5
1F0EB
330
747D
100
AcDbEntity
  8
細線
 48
50.0
100
AcDbLine
 10
5851.745186207541
 20
1422.111444712695
 30
0.0
 11
5923.745186207529
 21
1494.111444712691
 31
0.0
  0
LINE
  5
1F0EC
330
747D
100
AcDbEntity
  8
細線
 48
50.0
100
AcDbLine
 10
5851.745186207541
 20
1368.229907986277
 30
0.0
 11
5923.745186207529
 21
1440.229907986277
 31
0.0
  0
LINE
  5
1F0ED
330
747D
100
AcDbEntity
  8
細線
 48
50.0
100
AcDbLine
 10
5851.745186207536
 20
1637.637591618351
 30
0.0
 11
5923.745186207536
 21
1709.637591618351
 31
0.0
  0
LINE
  5
1F0EE
330
747D
100
AcDbEntity
  8
細線
 48
50.0
100
AcDbLine
 10
5851.745186207541
 20
1610.696823255146
 30
0.0
 11
5923.745186207529
 21
1682.696823255141
 31
0.0
  0
MTEXT
  5
1F0EF
102
{ACAD_REACTORS
330
1F09A
102
}
330
747D
100
AcDbEntity
  8
寸法
 62
     7
 48
50.0
100
AcDbMText
 10
6165.483642068786
 20
999.5602233976123
 30
0.0
 40
80.0
 41
0.8
 71
     4
 72
     1
  1
\A1;D10@300
  7
STYLE2
 73
     1
 44
1.0
1001
ACAD
1000
MTEXTBEGIN
1070
    73
1070
     1
1070
    44
1040
1.0
1070
    74
1070
     0
1000
MTEXTEND
  0
DIMENSION
  5
1F0F0
330
747D
100
AcDbEntity
  8
寸法
 48
50.0
100
AcDbDimension
  2
*D28
 10
5731.745186207535
 20
2280.909309129766
 30
0.0
 11
5838.971516552732
 21
2380.577117046146
 31
0.0
 70
   160
  1
120\P170
 71
     5
 42
192.0
  3
INABA_S50G
100
AcDbAlignedDimension
 13
5923.745186207535
 23
1960.909309129765
 33
0.0
 14
5731.745186207535
 24
1960.909309129765
 34
0.0
100
AcDbRotatedDimension
1001
ACAD
1000
DSTYLE
1002
{
1070
    40
1040
1.0
1070
   272
1070
     1
1070
   279
1070
     1
1070
   341
1005
0
1002
}
  0
LINE
  5
1F0F1
330
747D
100
AcDbEntity
  8
部品1
 48
50.0
100
AcDbLine
 10
5731.745186207536
 20
1960.909309129765
 30
0.0
 11
5923.745186207536
 21
1960.909309129765
 31
0.0
  0
LINE
  5
1F0F2
330
747D
100
AcDbEntity
  8
細線
 48
50.0
100
AcDbLine
 10
5731.745186207536
 20
1921.749117066463
 30
0.0
 11
5770.905378270839
 21
1960.909309129765
 31
0.0
  0
LINE
  5
1F0F3
330
747D
100
AcDbEntity
  8
細線
 48
50.0
100
AcDbLine
 10
5731.745186207536
 20
1894.808348703255
 30
0.0
 11
5797.846146634045
 21
1960.909309129765
 31
0.0
  0
LINE
  5
1F0F4
330
747D
100
AcDbEntity
  8
細線
 48
50.0
100
AcDbLine
 10
5731.745186207536
 20
1948.68988542967
 30
0.0
 11
5743.964609907631
 21
1960.909309129765
 31
0.0
  0
LINE
  5
1F0F5
330
747D
100
AcDbEntity
  8
細線
 48
50.0
100
AcDbLine
 10
5851.297893473522
 20
1825.775677426787
 30
0.0
 11
5923.745186207536
 21
1898.222970160803
 31
0.0
  0
LINE
  5
1F0F6
330
747D
100
AcDbEntity
  8
細線
 48
50.0
100
AcDbLine
 10
5840.237608710006
 20
1841.656161026482
 30
0.0
 11
5923.745186207536
 21
1925.163738524011
 31
0.0
  0
LINE
  5
1F0F7
330
747D
100
AcDbEntity
  8
細線
 48
50.0
100
AcDbLine
 10
7716.18449938473
 20
1802.037591618354
 30
0.0
 11
7845.784499384729
 21
1931.637591618352
 31
0.0
  0
LINE
  5
1F0F8
330
747D
100
AcDbEntity
  8
部品1
100
AcDbLine
 10
7845.784499384729
 20
1416.909309129765
 30
0.0
 11
7845.784499384729
 21
1960.909309129765
 31
0.0
  0
LINE
  5
1F0F9
330
747D
100
AcDbEntity
  8
部品1
 48
50.0
100
AcDbLine
 10
7431.784499384729
 20
1416.909309129765
 30
0.0
 11
7431.784499384729
 21
1960.909309129765
 31
0.0
  0
LINE
  5
1F0FA
330
747D
100
AcDbEntity
  8
細線
 48
50.0
100
AcDbLine
 10
7431.784499384729
 20
1733.163738524011
 30
0.0
 11
7590.184499384728
 21
1891.563738524008
 31
0.0
  0
LINE
  5
1F0FB
330
747D
100
AcDbEntity
  8
細線
 48
50.0
100
AcDbLine
 10
7431.784499384729
 20
1706.222970160803
 30
0.0
 11
7590.184499384728
 21
1864.622970160801
 31
0.0
  0
LINE
  5
1F0FC
330
747D
100
AcDbEntity
  8
細線
 48
50.0
100
AcDbLine
 10
7431.784499384729
 20
1679.282201797596
 30
0.0
 11
7590.184499384726
 21
1837.682201797588
 31
0.0
  0
TEXT
  5
1F0FD
330
747D
100
AcDbEntity
  8
部品1
 48
50.0
100
AcDbText
 10
7017.644597551772
 20
1732.148301413021
 30
0.0
 40
80.0
  1
▽G.L
  7
STYLE2
100
AcDbText
  0
LINE
  5
1F0FE
330
747D
100
AcDbEntity
  8
部品1
100
AcDbLine
 10
7662.18449938473
 20
1735.909309129765
 30
0.0
 11
7662.184499384726
 21
2010.069309129766
 31
0.0
  0
LINE
  5
1F0FF
330
747D
100
AcDbEntity
  8
部品1
100
AcDbLine
 10
7644.18449938473
 20
1735.909309129765
 30
0.0
 11
7644.184499384727
 21
2010.069309129766
 31
0.0
  0
LINE
  5
1F100
330
747D
100
AcDbEntity
  8
細線
 48
50.0
100
AcDbLine
 10
7716.18449938473
 20
1748.156054891924
 30
0.0
 11
7845.784499384729
 21
1877.756054891915
 31
0.0
  0
LINE
  5
1F101
330
747D
100
AcDbEntity
  8
細線
 48
50.0
100
AcDbLine
 10
7716.18449938473
 20
1775.096823255137
 30
0.0
 11
7845.784499384729
 21
1904.696823255133
 31
0.0
  0
LINE
  5
1F102
330
747D
100
AcDbEntity
  8
部品1
100
AcDbLine
 10
7716.18449938473
 20
1636.909309129765
 30
0.0
 11
7716.18449938473
 21
1960.909309129765
 31
0.0
  0
LINE
  5
1F103
330
747D
100
AcDbEntity
  8
部品1
100
AcDbLine
 10
7590.184499384723
 20
1636.909309129765
 30
0.0
 11
7590.18449938473
 21
1960.909309129765
 31
0.0
  0
LINE
  5
1F104
330
747D
100
AcDbEntity
  8
細線
 48
50.0
100
AcDbLine
 10
7431.784499384729
 20
1490.696823255143
 30
0.0
 11
7590.184499384723
 21
1649.096823255132
 31
0.0
  0
LINE
  5
1F105
330
747D
100
AcDbEntity
  8
細線
 48
50.0
100
AcDbLine
 10
7431.784499384729
 20
1463.756054891936
 30
0.0
 11
7604.937753622566
 21
1636.909309129763
 31
0.0
  0
LINE
  5
1F106
330
747D
100
AcDbEntity
  8
細線
 48
50.0
100
AcDbLine
 10
7431.784499384729
 20
1517.637591618351
 30
0.0
 11
7590.184499384723
 21
1676.037591618347
 31
0.0
  0
LINE
  5
1F107
330
747D
100
AcDbEntity
  8
細線
 48
50.0
100
AcDbLine
 10
7360.46390052822
 20
1176.909309129765
 30
0.0
 11
7845.784499384729
 21
1662.229907986273
 31
0.0
  0
LINE
  5
1F108
330
747D
100
AcDbEntity
  8
細線
 48
50.0
100
AcDbLine
 10
7333.523132165014
 20
1176.909309129765
 30
0.0
 11
7845.784499384731
 21
1689.170676349479
 31
0.0
  0
LINE
  5
1F109
330
747D
100
AcDbEntity
  8
細線
 48
50.0
100
AcDbLine
 10
7306.582363801805
 20
1176.909309129765
 30
0.0
 11
7845.784499384729
 21
1716.111444712691
 31
0.0
  0
LINE
  5
1F10A
330
747D
100
AcDbEntity
  8
部品1
 48
50.0
100
AcDbLine
 10
8053.784499384731
 20
1176.909309129765
 30
0.0
 11
7223.784499384731
 21
1176.909309129765
 31
0.0
  0
LINE
  5
1F10B
330
747D
100
AcDbEntity
  8
部品1
 48
50.0
100
AcDbLine
 10
8053.784499384731
 20
1048.909309129765
 30
0.0
 11
7223.784499384731
 21
1048.909309129765
 31
0.0
  0
LINE
  5
1F10C
330
747D
100
AcDbEntity
  8
細線
 48
50.0
100
AcDbLine
 10
7303.784499384724
 20
1335.756054891936
 30
0.0
 11
7384.937753622558
 21
1416.909309129765
 31
0.0
  0
LINE
  5
1F10D
330
747D
100
AcDbEntity
  8
部品1
 48
50.0
100
AcDbLine
 10
7303.784499384729
 20
1176.909309129765
 30
0.0
 11
7303.784499384729
 21
1416.909309129765
 31
0.0
  0
LINE
  5
1F10E
330
747D
100
AcDbEntity
  8
細線
 48
50.0
100
AcDbLine
 10
7351.191248986246
 20
1048.909309129765
 30
0.0
 11
7385.488745617429
 21
1176.909309129765
 31
0.0
  0
LINE
  5
1F10F
330
747D
100
AcDbEntity
  8
部品1
 48
50.0
100
AcDbLine
 10
7223.784499384731
 20
1048.909309129765
 30
0.0
 11
7223.784499384731
 21
1176.909309129765
 31
0.0
  0
LINE
  5
1F110
330
747D
100
AcDbEntity
  8
細線
 48
50.0
100
AcDbLine
 10
7272.303204038988
 20
1048.909309129763
 30
0.0
 11
7306.600700670171
 21
1176.909309129763
 31
0.0
  0
LINE
  5
1F111
330
747D
100
AcDbEntity
  8
細線
 48
50.0
100
AcDbLine
 10
7430.079293933494
 20
1048.909309129763
 30
0.0
 11
7464.376790564675
 21
1176.909309129763
 31
0.0
  0
LINE
  5
1F112
330
747D
100
AcDbEntity
  8
細線
 48
50.0
100
AcDbLine
 10
7278.733984657342
 20
1072.909309129765
 30
0.0
 11
7285.164765275688
 21
1048.909309129765
 31
0.0
  0
LINE
  5
1F113
330
747D
100
AcDbEntity
  8
細線
 48
50.0
100
AcDbLine
 10
7436.510074551844
 20
1072.909309129765
 30
0.0
 11
7442.940855170192
 21
1048.909309129765
 31
0.0
  0
LINE
  5
1F114
330
747D
100
AcDbEntity
  8
細線
 48
50.0
100
AcDbLine
 10
7357.622029604595
 20
1072.909309129765
 30
0.0
 11
7364.05281022294
 21
1048.909309129765
 31
0.0
  0
LINE
  5
1F115
330
747D
100
AcDbEntity
  8
細線
 48
50.0
100
AcDbLine
 10
7223.784499384729
 20
1162.249230095545
 30
0.0
 11
7227.712655722924
 21
1176.909309129765
 31
0.0
  0
LINE
  5
1F116
330
747D
100
AcDbEntity
  8
細線
 48
50.0
100
AcDbLine
 10
7300.16992005183
 20
1152.909309129765
 30
0.0
 11
7293.739139433485
 21
1176.909309129765
 31
0.0
  0
LINE
  5
1F117
330
747D
100
AcDbEntity
  8
細線
 48
50.0
100
AcDbLine
 10
7457.946009946335
 20
1152.909309129765
 30
0.0
 11
7451.515229327987
 21
1176.909309129765
 31
0.0
  0
LINE
  5
1F118
330
747D
100
AcDbEntity
  8
細線
 48
50.0
100
AcDbLine
 10
7379.057964999083
 20
1152.909309129765
 30
0.0
 11
7372.627184380736
 21
1176.909309129765
 31
0.0
  0
LWPOLYLINE
  5
1F119
330
747D
100
AcDbEntity
  8
部品1
 48
50.0
100
AcDbPolyline
 90
        2
 70
     0
 43
8.0
 10
7017.644597551772
 20
1720.909309129766
 10
7431.784499384729
 20
1720.909309129766
  0
LINE
  5
1F11A
330
747D
100
AcDbEntity
  8
細線
 48
50.0
100
AcDbLine
 10
7303.784499384724
 20
1362.696823255141
 30
0.0
 11
7357.996985259354
 21
1416.909309129765
 31
0.0
  0
LINE
  5
1F11B
330
747D
100
AcDbEntity
  8
部品1
 48
50.0
100
AcDbLine
 10
7303.784499384729
 20
1416.909309129765
 30
0.0
 11
7431.784499384729
 21
1416.909309129765
 31
0.0
  0
LINE
  5
1F11C
330
747D
100
AcDbEntity
  8
細線
 48
50.0
100
AcDbLine
 10
7303.784499384724
 20
1389.637591618351
 30
0.0
 11
7331.056216896143
 21
1416.909309129765
 31
0.0
  0
LINE
  5
1F11D
330
747D
100
AcDbEntity
  8
細線
 48
50.0
100
AcDbLine
 10
7549.049279070674
 20
1176.909309129765
 30
0.0
 11
7845.784499384729
 21
1473.644529443818
 31
0.0
  0
LINE
  5
1F11E
330
747D
100
AcDbEntity
  8
細線
 48
50.0
100
AcDbLine
 10
7575.990047433879
 20
1176.909309129765
 30
0.0
 11
7845.784499384729
 21
1446.703761080622
 31
0.0
  0
LINE
  5
1F11F
330
747D
100
AcDbEntity
  8
細線
 48
50.0
100
AcDbLine
 10
7522.108510707463
 20
1176.909309129765
 30
0.0
 11
7845.784499384729
 21
1500.585297807031
 31
0.0
  0
LINE
  5
1F120
330
747D
100
AcDbEntity
  8
細線
 48
50.0
100
AcDbLine
 10
7737.634657613122
 20
1176.909309129765
 30
0.0
 11
7973.784499384729
 21
1413.059150901374
 31
0.0
  0
LINE
  5
1F121
330
747D
100
AcDbEntity
  8
細線
 48
50.0
100
AcDbLine
 10
7764.575425976335
 20
1176.909309129765
 30
0.0
 11
7973.784499384729
 21
1386.118382538158
 31
0.0
  0
LINE
  5
1F122
330
747D
100
AcDbEntity
  8
部品1
 48
50.0
100
AcDbLine
 10
7973.784499384729
 20
1416.909309129765
 30
0.0
 11
7973.784499384729
 21
1176.909309129765
 31
0.0
  0
LINE
  5
1F123
330
747D
100
AcDbEntity
  8
細線
 48
50.0
100
AcDbLine
 10
7791.516194339537
 20
1176.909309129765
 30
0.0
 11
7973.784499384729
 21
1359.177614174961
 31
0.0
  0
LINE
  5
1F124
330
747D
100
AcDbEntity
  8
細線
 48
50.0
100
AcDbLine
 10
7666.74342877524
 20
1048.909309129763
 30
0.0
 11
7701.040925406421
 21
1176.909309129763
 31
0.0
  0
LINE
  5
1F125
330
747D
100
AcDbEntity
  8
細線
 48
50.0
100
AcDbLine
 10
7508.967338880744
 20
1048.909309129765
 30
0.0
 11
7543.264835511926
 21
1176.909309129765
 31
0.0
  0
LINE
  5
1F126
330
747D
100
AcDbEntity
  8
細線
 48
50.0
100
AcDbLine
 10
7587.855383827991
 20
1048.909309129765
 30
0.0
 11
7622.152880459177
 21
1176.909309129763
 31
0.0
  0
LINE
  5
1F127
330
747D
100
AcDbEntity
  8
細線
 48
50.0
100
AcDbLine
 10
7745.631473722482
 20
1048.909309129765
 30
0.0
 11
7779.928970353667
 21
1176.909309129763
 31
0.0
  0
LINE
  5
1F128
330
747D
100
AcDbEntity
  8
細線
 48
50.0
100
AcDbLine
 10
7594.286164446343
 20
1072.909309129765
 30
0.0
 11
7600.716945064691
 21
1048.909309129765
 31
0.0
  0
LINE
  5
1F129
330
747D
100
AcDbEntity
  8
細線
 48
50.0
100
AcDbLine
 10
7515.398119499096
 20
1072.909309129765
 30
0.0
 11
7521.828900117444
 21
1048.909309129765
 31
0.0
  0
LINE
  5
1F12A
330
747D
100
AcDbEntity
  8
細線
 48
50.0
100
AcDbLine
 10
7752.062254340835
 20
1072.909309129765
 30
0.0
 11
7758.493034959181
 21
1048.909309129765
 31
0.0
  0
LINE
  5
1F12B
330
747D
100
AcDbEntity
  8
細線
 48
50.0
100
AcDbLine
 10
7673.17420939359
 20
1072.909309129765
 30
0.0
 11
7679.604990011935
 21
1048.909309129765
 31
0.0
  0
LINE
  5
1F12C
330
747D
100
AcDbEntity
  8
細線
 48
50.0
100
AcDbLine
 10
7615.722099840832
 20
1152.909309129765
 30
0.0
 11
7609.291319222484
 21
1176.909309129765
 31
0.0
  0
LINE
  5
1F12D
330
747D
100
AcDbEntity
  8
細線
 48
50.0
100
AcDbLine
 10
7536.834054893585
 20
1152.909309129765
 30
0.0
 11
7530.403274275238
 21
1176.909309129765
 31
0.0
  0
LINE
  5
1F12E
330
747D
100
AcDbEntity
  8
細線
 48
50.0
100
AcDbLine
 10
7694.610144788079
 20
1152.909309129765
 30
0.0
 11
7688.179364169731
 21
1176.909309129765
 31
0.0
  0
LINE
  5
1F12F
330
747D
100
AcDbEntity
  8
細線
 48
50.0
100
AcDbLine
 10
7773.498189735325
 20
1152.909309129765
 30
0.0
 11
7767.067409116979
 21
1176.909309129765
 31
0.0
  0
LINE
  5
1F130
330
747D
100
AcDbEntity
  8
部品1
 48
50.0
100
AcDbLine
 10
8053.784499384731
 20
1176.909309129765
 30
0.0
 11
8053.784499384731
 21
1048.909309129765
 31
0.0
  0
LINE
  5
1F131
330
747D
100
AcDbEntity
  8
細線
 48
50.0
100
AcDbLine
 10
7982.295608564223
 20
1048.909309129763
 30
0.0
 11
8016.59310519541
 21
1176.909309129762
 31
0.0
  0
LINE
  5
1F132
330
747D
100
AcDbEntity
  8
細線
 48
50.0
100
AcDbLine
 10
7824.519518669731
 20
1048.909309129763
 30
0.0
 11
7858.817015300904
 21
1176.909309129765
 31
0.0
  0
LINE
  5
1F133
330
747D
100
AcDbEntity
  8
細線
 48
50.0
100
AcDbLine
 10
7903.40756361698
 20
1048.909309129762
 30
0.0
 11
7937.705060248163
 21
1176.909309129762
 31
0.0
  0
LINE
  5
1F134
330
747D
100
AcDbEntity
  8
細線
 48
50.0
100
AcDbLine
 10
7830.950299288081
 20
1072.909309129765
 30
0.0
 11
7837.381079906437
 21
1048.909309129765
 31
0.0
  0
LINE
  5
1F135
330
747D
100
AcDbEntity
  8
細線
 48
50.0
100
AcDbLine
 10
7909.838344235329
 20
1072.909309129763
 30
0.0
 11
7916.269124853676
 21
1048.909309129763
 31
0.0
  0
LINE
  5
1F136
330
747D
100
AcDbEntity
  8
細線
 48
50.0
100
AcDbLine
 10
7988.726389182575
 20
1072.909309129763
 30
0.0
 11
7995.157169800923
 21
1048.909309129763
 31
0.0
  0
LINE
  5
1F137
330
747D
100
AcDbEntity
  8
細線
 48
50.0
100
AcDbLine
 10
7852.386234682562
 20
1152.909309129765
 30
0.0
 11
7845.955454064214
 21
1176.909309129765
 31
0.0
  0
LINE
  5
1F138
330
747D
100
AcDbEntity
  8
細線
 48
50.0
100
AcDbLine
 10
7931.274279629819
 20
1152.909309129763
 30
0.0
 11
7924.843499011473
 21
1176.909309129763
 31
0.0
  0
LINE
  5
1F139
330
747D
100
AcDbEntity
  8
細線
 48
50.0
100
AcDbLine
 10
8010.162324577065
 20
1152.909309129763
 30
0.0
 11
8003.731543958719
 21
1176.909309129763
 31
0.0
  0
LINE
  5
1F13A
330
747D
100
AcDbEntity
  8
部品1
100
AcDbLine
 10
7716.18449938473
 20
1636.909309129763
 30
0.0
 11
7590.184499384723
 21
1636.909309129763
 31
0.0
  0
LINE
  5
1F13B
330
747D
100
AcDbEntity
  8
部品1
100
AcDbLine
 10
7698.18449938473
 20
1717.909309129765
 30
0.0
 11
7698.18449938473
 21
1735.909309129765
 31
0.0
  0
ARC
  5
1F13C
330
747D
100
AcDbEntity
  8
部品1
100
AcDbCircle
 10
7662.18449938473
 20
1735.909309129765
 30
0.0
 40
18.0
100
AcDbArc
 50
180.0
 51
270.0
  0
LINE
  5
1F13D
330
747D
100
AcDbEntity
  8
部品1
100
AcDbLine
 10
7662.18449938473
 20
1717.909309129765
 30
0.0
 11
7698.18449938473
 21
1717.909309129765
 31
0.0
  0
LINE
  5
1F13E
330
747D
100
AcDbEntity
  8
部品1
100
AcDbLine
 10
7662.18449938473
 20
1735.909309129765
 30
0.0
 11
7698.18449938473
 21
1735.909309129765
 31
0.0
  0
LINE
  5
1F13F
330
747D
100
AcDbEntity
  8
部品1
 48
50.0
100
AcDbLine
 10
7845.784499384729
 20
1416.909309129765
 30
0.0
 11
7973.784499384729
 21
1416.909309129765
 31
0.0
  0
LINE
  5
1F140
330
747D
100
AcDbEntity
  8
部品1
100
AcDbLine
 10
7451.584499384729
 20
2050.909309129766
 30
0.0
 11
7489.384499384731
 21
2050.909309129766
 31
0.0
  0
LINE
  5
1F141
330
747D
100
AcDbEntity
  8
細線
 48
50.0
100
AcDbLine
 10
7431.784499384729
 20
1921.749117066463
 30
0.0
 11
7470.944691448036
 21
1960.909309129765
 31
0.0
  0
LINE
  5
1F142
330
747D
100
AcDbEntity
  8
細線
 48
50.0
100
AcDbLine
 10
7431.784499384729
 20
1894.808348703255
 30
0.0
 11
7497.885459811239
 21
1960.909309129765
 31
0.0
  0
LINE
  5
1F143
330
747D
100
AcDbEntity
  8
部品1
 48
50.0
100
AcDbLine
 10
7431.784499384729
 20
1960.909309129765
 30
0.0
 11
7845.784499384731
 21
1960.909309129765
 31
0.0
  0
TEXT
  5
1F144
330
747D
100
AcDbEntity
  8
部品1
 48
50.0
100
AcDbText
 10
7005.338402805239
 20
2291.469830230241
 30
0.0
 40
80.0
  1
※(別売)
  7
STYLE2
100
AcDbText
  0
LINE
  5
1F145
330
747D
100
AcDbEntity
  8
部品1
100
AcDbLine
 10
7448.884499384731
 20
2040.109309129765
 30
0.0
 11
7448.884499384731
 21
2048.209309129766
 31
0.0
  0
ARC
  5
1F146
330
747D
100
AcDbEntity
  8
部品1
100
AcDbCircle
 10
7451.584499384729
 20
2048.209309129766
 30
0.0
 40
2.7
100
AcDbArc
 50
90.0
 51
180.0
  0
ARC
  5
1F147
330
747D
100
AcDbEntity
  8
部品1
100
AcDbCircle
 10
7440.784499384729
 20
2035.301212832473
 30
0.0
 40
2.7
100
AcDbArc
 50
104.0362434679075
 51
180.0
  0
LINE
  5
1F148
330
747D
100
AcDbEntity
  8
部品1
100
AcDbLine
 10
7440.129653197131
 20
2037.920597582866
 30
0.0
 11
7448.884499384731
 21
2040.109309129765
 31
0.0
  0
ARC
  5
1F149
330
747D
100
AcDbEntity
  8
部品1
100
AcDbCircle
 10
7440.784499384729
 20
1973.169309129765
 30
0.0
 40
2.7
100
AcDbArc
 50
180.0
 51
270.0
  0
LINE
  5
1F14A
330
747D
100
AcDbEntity
  8
細線
 48
50.0
100
AcDbLine
 10
7431.784499384729
 20
1948.68988542967
 30
0.0
 11
7444.003923084823
 21
1960.909309129765
 31
0.0
  0
LINE
  5
1F14B
330
747D
100
AcDbEntity
  8
部品1
100
AcDbLine
 10
7440.784499384729
 20
1970.469309129766
 30
0.0
 11
7452.484499384723
 21
1970.469309129766
 31
0.0
  0
LINE
  5
1F14C
330
747D
100
AcDbEntity
  8
部品1
100
AcDbLine
 10
7438.084499384729
 20
1973.169309129765
 30
0.0
 11
7438.084499384729
 21
2035.301212832473
 31
0.0
  0
LINE
  5
1F14D
330
747D
100
AcDbEntity
  8
部品1
100
AcDbLine
 10
7596.744499384723
 20
1970.469309129766
 30
0.0
 11
7798.084499384724
 21
1970.469309129766
 31
0.0
  0
LINE
  5
1F14E
330
747D
100
AcDbEntity
  8
部品1
100
AcDbLine
 10
7489.384499384731
 20
2050.909309129766
 30
0.0
 11
7489.384499384731
 21
2059.009309129766
 31
0.0
  0
LINE
  5
1F14F
330
747D
100
AcDbEntity
  8
部品1
100
AcDbLine
 10
7539.784499384729
 20
2069.809309129762
 30
0.0
 11
7539.784499384729
 21
2018.509309129766
 31
0.0
  0
LINE
  5
1F150
330
747D
100
AcDbEntity
  8
部品1
100
AcDbLine
 10
7563.184499384729
 20
2030.469309129766
 30
0.0
 11
7591.344499384729
 21
2030.469309129766
 31
0.0
  0
ARC
  5
1F151
330
747D
100
AcDbEntity
  8
部品1
100
AcDbCircle
 10
7563.184499384729
 20
2027.769309129766
 30
0.0
 40
2.7
100
AcDbArc
 50
90.0
 51
180.0
  0
ARC
  5
1F152
330
747D
100
AcDbEntity
  8
部品1
100
AcDbCircle
 10
7591.344499384729
 20
2027.769309129766
 30
0.0
 40
2.7
100
AcDbArc
 50
0.0
 51
90.0
  0
LINE
  5
1F153
330
747D
100
AcDbEntity
  8
部品1
100
AcDbLine
 10
7582.08449938473
 20
2015.809309129765
 30
0.0
 11
7582.08449938473
 21
1973.169309129765
 31
0.0
  0
LINE
  5
1F154
330
747D
100
AcDbEntity
  8
部品1
100
AcDbLine
 10
7567.684499384729
 20
1970.469309129766
 30
0.0
 11
7579.38449938473
 21
1970.469309129766
 31
0.0
  0
ARC
  5
1F155
330
747D
100
AcDbEntity
  8
部品1
100
AcDbCircle
 10
7596.744499384723
 20
1973.169309129765
 30
0.0
 40
2.7
100
AcDbArc
 50
180.0
 51
270.0
  0
ARC
  5
1F156
330
747D
100
AcDbEntity
  8
部品1
100
AcDbCircle
 10
7579.38449938473
 20
1973.169309129765
 30
0.0
 40
2.7
100
AcDbArc
 50
270.0
 51
0.0
  0
LINE
  5
1F157
330
747D
100
AcDbEntity
  8
部品1
100
AcDbLine
 10
7539.784499384729
 20
2018.509309129766
 30
0.0
 11
7579.38449938473
 21
2018.509309129766
 31
0.0
  0
ARC
  5
1F158
330
747D
100
AcDbEntity
  8
部品1
100
AcDbCircle
 10
7579.38449938473
 20
2015.809309129765
 30
0.0
 40
2.7
100
AcDbArc
 50
0.0
 51
90.0
  0
LINE
  5
1F159
330
747D
100
AcDbEntity
  8
部品1
100
AcDbLine
 10
7594.044499384731
 20
2027.769309129766
 30
0.0
 11
7594.044499384726
 21
1973.169309129765
 31
0.0
  0
LINE
  5
1F15A
330
747D
100
AcDbEntity
  8
部品1
100
AcDbLine
 10
7560.484499384729
 20
2027.769309129766
 30
0.0
 11
7560.484499384729
 21
2010.669309129766
 31
0.0
  0
LINE
  5
1F15B
330
747D
100
AcDbEntity
  8
細線
100
AcDbLine
 10
7658.58449938473
 20
1970.469309129766
 30
0.0
 11
7658.58449938473
 21
2013.669309129766
 31
0.0
  0
LINE
  5
1F15C
330
747D
100
AcDbEntity
  8
細線
100
AcDbLine
 10
7647.784499384733
 20
1970.469309129766
 30
0.0
 11
7647.784499384728
 21
2013.669309129766
 31
0.0
  0
LINE
  5
1F15D
330
747D
100
AcDbEntity
  8
部品1
100
AcDbLine
 10
7644.18449938473
 20
2010.069309129766
 30
0.0
 11
7662.18449938473
 21
2010.069309129766
 31
0.0
  0
LINE
  5
1F15E
330
747D
100
AcDbEntity
  8
部品1
100
AcDbLine
 10
7647.784499384728
 20
2013.669309129766
 30
0.0
 11
7658.58449938473
 21
2013.669309129766
 31
0.0
  0
ELLIPSE
  5
1F15F
330
747D
100
AcDbEntity
  8
部品1
 48
50.0
100
AcDbEllipse
 10
7653.18449938473
 20
2230.032597574038
 30
0.0
 11
40.0
 21
0.0
 31
0.0
210
0.0
220
0.0
230
1.0
 40
0.4
 41
0.0
 42
6.283185307179586
  0
ELLIPSE
  5
1F160
330
747D
100
AcDbEntity
  8
部品1
 48
50.0
100
AcDbEllipse
 10
7653.18449938473
 20
2220.432597574038
 30
0.0
 11
40.0
 21
0.0
 31
0.0
210
0.0
220
0.0
230
1.0
 40
0.4
 41
3.141592653589793
 42
6.283185307179586
  0
LINE
  5
1F161
330
747D
100
AcDbEntity
  8
部品1
 48
50.0
100
AcDbLine
 10
7613.184499384729
 20
2230.032597574038
 30
0.0
 11
7613.184499384729
 21
2220.432597574037
 31
0.0
  0
ARC
  5
1F162
330
747D
100
AcDbEntity
  8
部品1
100
AcDbCircle
 10
7537.08449938473
 20
2069.809309129762
 30
0.0
 40
2.7
100
AcDbArc
 50
0.0
 51
90.0
  0
ARC
  5
1F163
330
747D
100
AcDbEntity
  8
部品1
100
AcDbCircle
 10
7494.784499384728
 20
2069.809309129765
 30
0.0
 40
2.7
100
AcDbArc
 50
90.0
 51
180.0
  0
LINE
  5
1F164
330
747D
100
AcDbEntity
  8
部品1
100
AcDbLine
 10
7492.08449938473
 20
2061.709309129766
 30
0.0
 11
7492.08449938473
 21
2061.709309129766
 31
0.0
  0
LINE
  5
1F165
330
747D
100
AcDbEntity
  8
部品1
100
AcDbLine
 10
7492.08449938473
 20
2061.709309129766
 30
0.0
 11
7492.08449938473
 21
2069.809309129765
 31
0.0
  0
LINE
  5
1F166
330
747D
100
AcDbEntity
  8
部品1
100
AcDbLine
 10
7494.784499384728
 20
2072.509309129766
 30
0.0
 11
7537.08449938473
 21
2072.509309129762
 31
0.0
  0
ARC
  5
1F167
330
747D
100
AcDbEntity
  8
部品1
100
AcDbCircle
 10
7492.08449938473
 20
2059.009309129766
 30
0.0
 40
2.7
100
AcDbArc
 50
90.0
 51
180.0
  0
ELLIPSE
  5
1F168
330
747D
100
AcDbEntity
  8
部品1
 48
50.0
100
AcDbEllipse
 10
7653.18449938473
 20
2230.032597574038
 30
0.0
 11
18.4
 21
0.0
 31
0.0
210
0.0
220
0.0
230
1.0
 40
0.3478260869565217
 41
0.0
 42
6.283185307179586
  0
LINE
  5
1F169
330
747D
100
AcDbEntity
  8
部品1
 48
50.0
100
AcDbLine
 10
7693.184499384731
 20
2220.432597574037
 30
0.0
 11
7693.184499384731
 21
2230.032597574038
 31
0.0
  0
LINE
  5
1F16A
330
747D
100
AcDbEntity
  8
部品1
 48
50.0
100
AcDbLine
 10
7621.184499384729
 20
2351.784590238908
 30
0.0
 11
7637.18449938473
 21
2343.784590238908
 31
0.0
  0
LINE
  5
1F16B
330
747D
100
AcDbEntity
  8
部品1
 48
50.0
100
AcDbLine
 10
7621.184499384729
 20
2319.784590238908
 30
0.0
 11
7637.18449938473
 21
2311.784590238908
 31
0.0
  0
LINE
  5
1F16C
330
747D
100
AcDbEntity
  8
部品1
 48
50.0
100
AcDbLine
 10
7621.184499384729
 20
2351.784590238908
 30
0.0
 11
7637.18449938473
 21
2359.784590238908
 31
0.0
  0
LINE
  5
1F16D
330
747D
100
AcDbEntity
  8
部品1
 48
50.0
100
AcDbLine
 10
7621.184499384729
 20
2319.784590238908
 30
0.0
 11
7621.184499384729
 21
2351.784590238908
 31
0.0
  0
LINE
  5
1F16E
330
747D
100
AcDbEntity
  8
部品1
 48
50.0
100
AcDbLine
 10
7637.18449938473
 20
2359.784590238908
 30
0.0
 11
7669.18449938473
 21
2359.784590238908
 31
0.0
  0
ELLIPSE
  5
1F16F
330
747D
100
AcDbEntity
  8
細線
 48
50.0
100
AcDbEllipse
 10
7653.18449938473
 20
2351.784590238908
 30
0.0
 11
14.76670786606846
 21
0.0
 31
0.0
210
0.0
220
0.0
230
1.0
 40
0.2071254069489396
 41
0.0
 42
6.283185307179586
  0
LINE
  5
1F170
330
747D
100
AcDbEntity
  8
部品1
 48
50.0
100
AcDbLine
 10
7637.18449938473
 20
2311.784590238908
 30
0.0
 11
7669.18449938473
 21
2311.784590238908
 31
0.0
  0
LINE
  5
1F171
330
747D
100
AcDbEntity
  8
部品1
 48
50.0
100
AcDbLine
 10
7669.18449938473
 20
2311.784590238908
 30
0.0
 11
7685.184499384729
 21
2319.784590238908
 31
0.0
  0
LINE
  5
1F172
330
747D
100
AcDbEntity
  8
部品1
 48
50.0
100
AcDbLine
 10
7637.18449938473
 20
2343.784590238908
 30
0.0
 11
7669.18449938473
 21
2343.784590238908
 31
0.0
  0
LINE
  5
1F173
330
747D
100
AcDbEntity
  8
部品1
 48
50.0
100
AcDbLine
 10
7669.18449938473
 20
2343.784590238908
 30
0.0
 11
7685.184499384729
 21
2351.784590238908
 31
0.0
  0
LINE
  5
1F174
330
747D
100
AcDbEntity
  8
細線
 48
50.0
100
AcDbLine
 10
7669.18449938473
 20
2311.784590238908
 30
0.0
 11
7669.18449938473
 21
2343.784590238908
 31
0.0
  0
LINE
  5
1F175
330
747D
100
AcDbEntity
  8
部品1
 48
50.0
100
AcDbLine
 10
7685.184499384729
 20
2319.784590238908
 30
0.0
 11
7685.184499384729
 21
2351.784590238908
 31
0.0
  0
LINE
  5
1F176
330
747D
100
AcDbEntity
  8
細線
 48
50.0
100
AcDbLine
 10
7637.18449938473
 20
2311.784590238908
 30
0.0
 11
7637.18449938473
 21
2343.784590238908
 31
0.0
  0
LINE
  5
1F177
330
747D
100
AcDbEntity
  8
部品1
 48
50.0
100
AcDbLine
 10
7669.18449938473
 20
2359.784590238908
 30
0.0
 11
7685.184499384729
 21
2351.784590238908
 31
0.0
  0
TEXT
  5
1F178
330
747D
100
AcDbEntity
  8
部品1
100
AcDbText
 10
7353.95674857666
 20
3102.328996955183
 30
0.0
 40
120.0
  1
基礎詳細
  7
STYLE2
100
AcDbText
  0
LINE
  5
1F179
330
747D
100
AcDbEntity
  8
部品1
100
AcDbLine
 10
10732.06193278452
 20
317.5739593219632
 30
0.0
 11
10732.06193278452
 21
3281.88092890661
 31
0.0
  0
LINE
  5
1F17A
330
747D
100
AcDbEntity
  8
細線
100
AcDbLine
 10
9739.953765364271
 20
1720.909309129766
 30
0.0
 11
9545.320431687487
 21
1915.542642806548
 31
0.0
  0
LINE
  5
1F17B
330
747D
100
AcDbEntity
  8
部品1
100
AcDbLine
 10
9545.320431687487
 20
1960.909309129765
 30
0.0
 11
10025.32043168748
 21
1960.909309129765
 31
0.0
  0
LINE
  5
1F17C
330
747D
100
AcDbEntity
  8
細線
 48
50.0
100
AcDbLine
 10
9679.391316130745
 20
1501.210393476415
 30
0.0
 11
9713.688812761931
 21
1629.210393476414
 31
0.0
  0
LINE
  5
1F17D
330
747D
100
AcDbEntity
  8
部品1
100
AcDbLine
 10
9425.320431687486
 20
1501.210393476412
 30
0.0
 11
10145.32043168749
 21
1501.210393476415
 31
0.0
  0
LINE
  5
1F17E
330
747D
100
AcDbEntity
  8
部品1
100
AcDbLine
 10
9425.320431687486
 20
1629.210393476415
 30
0.0
 11
10145.32043168749
 21
1629.210393476418
 31
0.0
  0
LINE
  5
1F17F
330
747D
100
AcDbEntity
  8
細線
100
AcDbLine
 10
9606.239077180731
 20
1629.210393476415
 30
0.0
 11
9697.937992834075
 21
1720.909309129766
 31
0.0
  0
LWPOLYLINE
  5
1F180
330
747D
100
AcDbEntity
  8
部品1
 48
50.0
100
AcDbPolyline
 90
        2
 70
     0
 43
12.0
 10
9160.709169587098
 20
1720.909309129766
 10
10361.80147271872
 20
1720.909309129766
  0
LINE
  5
1F181
330
747D
100
AcDbEntity
  8
細線
100
AcDbLine
 10
9689.042077118841
 20
1720.909309129766
 30
0.0
 11
9545.320431687487
 21
1864.630954561118
 31
0.0
  0
TEXT
  5
1F182
330
747D
100
AcDbEntity
  8
部品1
 48
50.0
100
AcDbText
 10
8781.202344928985
 20
1454.109568492456
 30
0.0
 40
80.0
  1
ボルトの出
 50
90.0
  7
STYLE2
100
AcDbText
  0
LINE
  5
1F183
330
747D
100
AcDbEntity
  8
部品1
100
AcDbLine
 10
9545.320431687487
 20
1720.909309129766
 30
0.0
 11
9545.320431687487
 21
1960.909309129765
 31
0.0
  0
LINE
  5
1F184
330
747D
100
AcDbEntity
  8
細線
 48
50.0
100
AcDbLine
 10
9521.615226236248
 20
1501.210393476414
 30
0.0
 11
9555.91272286743
 21
1629.210393476414
 31
0.0
  0
LINE
  5
1F185
330
747D
100
AcDbEntity
  8
細線
 48
50.0
100
AcDbLine
 10
9600.503271183498
 20
1501.210393476415
 30
0.0
 11
9634.800767814683
 21
1629.210393476415
 31
0.0
  0
LINE
  5
1F186
330
747D
100
AcDbEntity
  8
細線
 48
50.0
100
AcDbLine
 10
9442.727181288999
 20
1501.210393476415
 30
0.0
 11
9477.024677920184
 21
1629.210393476415
 31
0.0
  0
LINE
  5
1F187
330
747D
100
AcDbEntity
  8
部品1
100
AcDbLine
 10
9425.320431687486
 20
1501.210393476412
 30
0.0
 11
9425.320431687486
 21
1720.909309129766
 31
0.0
  0
LINE
  5
1F188
330
747D
100
AcDbEntity
  8
細線
 48
50.0
100
AcDbLine
 10
9528.046006854598
 20
1525.210393476415
 30
0.0
 11
9534.476787472945
 21
1501.210393476415
 31
0.0
  0
LINE
  5
1F189
330
747D
100
AcDbEntity
  8
細線
 48
50.0
100
AcDbLine
 10
9449.157961907348
 20
1525.210393476415
 30
0.0
 11
9455.588742525696
 21
1501.210393476415
 31
0.0
  0
LINE
  5
1F18A
330
747D
100
AcDbEntity
  8
細線
 48
50.0
100
AcDbLine
 10
9606.93405180185
 20
1525.210393476415
 30
0.0
 11
9613.364832420197
 21
1501.210393476415
 31
0.0
  0
LINE
  5
1F18B
330
747D
100
AcDbEntity
  8
細線
 48
50.0
100
AcDbLine
 10
9685.822096749097
 20
1525.210393476415
 30
0.0
 11
9692.252877367444
 21
1501.210393476415
 31
0.0
  0
LINE
  5
1F18C
330
747D
100
AcDbEntity
  8
細線
 48
50.0
100
AcDbLine
 10
9470.593897301837
 20
1605.210393476415
 30
0.0
 11
9464.163116683488
 21
1629.210393476415
 31
0.0
  0
LINE
  5
1F18D
330
747D
100
AcDbEntity
  8
細線
 48
50.0
100
AcDbLine
 10
9628.369987196341
 20
1605.210393476415
 30
0.0
 11
9621.939206577994
 21
1629.210393476415
 31
0.0
  0
LINE
  5
1F18E
330
747D
100
AcDbEntity
  8
細線
 48
50.0
100
AcDbLine
 10
9549.481942249087
 20
1605.210393476415
 30
0.0
 11
9543.05116163074
 21
1629.210393476415
 31
0.0
  0
LINE
  5
1F18F
330
747D
100
AcDbEntity
  8
細線
100
AcDbLine
 10
9538.356826186815
 20
1629.210393476415
 30
0.0
 11
9630.055741840166
 21
1720.909309129766
 31
0.0
  0
LINE
  5
1F190
330
747D
100
AcDbEntity
  8
細線
100
AcDbLine
 10
9572.297951683774
 20
1629.210393476415
 30
0.0
 11
9663.996867337118
 21
1720.909309129766
 31
0.0
  0
LINE
  5
1F191
330
747D
100
AcDbEntity
  8
細線
100
AcDbLine
 10
9960.571081094474
 20
1720.909309129766
 30
0.0
 11
9720.571081094476
 21
1960.909309129765
 31
0.0
  0
LINE
  5
1F192
330
747D
100
AcDbEntity
  8
細線
100
AcDbLine
 10
10011.4827693399
 20
1720.909309129767
 30
0.0
 11
9771.482769339908
 21
1960.909309129765
 31
0.0
  0
LINE
  5
1F193
330
747D
100
AcDbEntity
  8
部品1
100
AcDbLine
 10
10025.32043168748
 20
1960.909309129765
 30
0.0
 11
10025.32043168748
 21
1720.909309129766
 31
0.0
  0
LINE
  5
1F194
330
747D
100
AcDbEntity
  8
細線
 48
50.0
100
AcDbLine
 10
9994.943495919734
 20
1501.210393476412
 30
0.0
 11
10029.24099255092
 21
1629.210393476413
 31
0.0
  0
LINE
  5
1F195
330
747D
100
AcDbEntity
  8
細線
100
AcDbLine
 10
9966.239077180729
 20
1629.210393476417
 30
0.0
 11
10057.93799283407
 21
1720.909309129766
 31
0.0
  0
LINE
  5
1F196
330
747D
100
AcDbEntity
  8
細線
 48
50.0
100
AcDbLine
 10
9916.055450972486
 20
1501.210393476414
 30
0.0
 11
9950.352947603661
 21
1629.210393476415
 31
0.0
  0
LINE
  5
1F197
330
747D
100
AcDbEntity
  8
細線
 48
50.0
100
AcDbLine
 10
9758.279361077995
 20
1501.210393476414
 30
0.0
 11
9792.576857709178
 21
1629.210393476414
 31
0.0
  0
LINE
  5
1F198
330
747D
100
AcDbEntity
  8
細線
 48
50.0
100
AcDbLine
 10
9837.167406025237
 20
1501.210393476415
 30
0.0
 11
9871.464902656422
 21
1629.210393476414
 31
0.0
  0
LINE
  5
1F199
330
747D
100
AcDbEntity
  8
細線
 48
50.0
100
AcDbLine
 10
9843.598186643589
 20
1525.210393476415
 30
0.0
 11
9850.028967261938
 21
1501.210393476415
 31
0.0
  0
LINE
  5
1F19A
330
747D
100
AcDbEntity
  8
細線
 48
50.0
100
AcDbLine
 10
9764.710141696344
 20
1525.210393476415
 30
0.0
 11
9771.140922314691
 21
1501.210393476415
 31
0.0
  0
LINE
  5
1F19B
330
747D
100
AcDbEntity
  8
細線
 48
50.0
100
AcDbLine
 10
9922.486231590836
 20
1525.210393476415
 30
0.0
 11
9928.917012209193
 21
1501.210393476415
 31
0.0
  0
LINE
  5
1F19C
330
747D
100
AcDbEntity
  8
細線
 48
50.0
100
AcDbLine
 10
10001.37427653808
 20
1525.210393476414
 30
0.0
 11
10007.80505715643
 21
1501.210393476414
 31
0.0
  0
LINE
  5
1F19D
330
747D
100
AcDbEntity
  8
細線
 48
50.0
100
AcDbLine
 10
9865.034122038078
 20
1605.210393476415
 30
0.0
 11
9858.603341419732
 21
1629.210393476415
 31
0.0
  0
LINE
  5
1F19E
330
747D
100
AcDbEntity
  8
細線
 48
50.0
100
AcDbLine
 10
9786.146077090833
 20
1605.210393476415
 30
0.0
 11
9779.715296472488
 21
1629.210393476415
 31
0.0
  0
LINE
  5
1F19F
330
747D
100
AcDbEntity
  8
細線
 48
50.0
100
AcDbLine
 10
9707.258032143585
 20
1605.210393476415
 30
0.0
 11
9700.82725152524
 21
1629.210393476415
 31
0.0
  0
LINE
  5
1F1A0
330
747D
100
AcDbEntity
  8
細線
100
AcDbLine
 10
9932.297951683779
 20
1629.210393476417
 30
0.0
 11
10023.99686733712
 21
1720.909309129766
 31
0.0
  0
LINE
  5
1F1A1
330
747D
100
AcDbEntity
  8
細線
 48
50.0
100
AcDbLine
 10
9943.922166985316
 20
1605.210393476415
 30
0.0
 11
9937.491386366971
 21
1629.210393476415
 31
0.0
  0
LINE
  5
1F1A2
330
747D
100
AcDbEntity
  8
細線
100
AcDbLine
 10
9898.35682618682
 20
1629.210393476417
 30
0.0
 11
9990.055741840166
 21
1720.909309129766
 31
0.0
  0
LINE
  5
1F1A3
330
747D
100
AcDbEntity
  8
細線
 48
50.0
100
AcDbLine
 10
10022.81021193257
 20
1605.210393476414
 30
0.0
 11
10016.37943131422
 21
1629.210393476414
 31
0.0
  0
LINE
  5
1F1A4
330
747D
100
AcDbEntity
  8
細線
 48
50.0
100
AcDbLine
 10
10073.83154086698
 20
1501.210393476414
 30
0.0
 11
10108.12903749816
 21
1629.210393476413
 31
0.0
  0
LINE
  5
1F1A5
330
747D
100
AcDbEntity
  8
部品1
100
AcDbLine
 10
10145.32043168749
 20
1720.909309129766
 30
0.0
 11
10145.32043168749
 21
1501.210393476415
 31
0.0
  0
LINE
  5
1F1A6
330
747D
100
AcDbEntity
  8
細線
 48
50.0
100
AcDbLine
 10
10080.26232148533
 20
1525.210393476414
 30
0.0
 11
10086.69310210368
 21
1501.210393476414
 31
0.0
  0
LINE
  5
1F1A7
330
747D
100
AcDbEntity
  8
細線
 48
50.0
100
AcDbLine
 10
10101.69825687982
 20
1605.210393476414
 30
0.0
 11
10095.26747626147
 21
1629.210393476414
 31
0.0
  0
LEADER
  5
1F1A8
330
747D
100
AcDbEntity
  8
寸法
 48
50.0
100
AcDbLeader
  3
INABA_S50G
 73
     0
 74
     0
 75
     1
 40
120.0
 41
185.591883092037
 76
     3
 10
9956.044843303411
 20
1960.909309129765
 30
0.0
 10
9989.183049937054
 20
2133.055629810903
 30
0.0
 10
10114.18304993705
 20
2133.055629810903
 30
0.0
340
1F1A9
1001
ACAD
1000
DSTYLE
1002
{
1070
    40
1040
1.0
1002
}
  0
MTEXT
  5
1F1A9
102
{ACAD_REACTORS
330
1F1A8
102
}
330
747D
100
AcDbEntity
  8
寸法
 62
     7
 48
50.0
100
AcDbMText
 10
10139.18304993705
 20
2218.055629810903
 30
0.0
 40
120.0
 41
0.8
 71
     4
 72
     1
  1
\A1;C.B
  7
STYLE1
 73
     1
 44
1.0
1001
ACAD
1000
MTEXTBEGIN
1070
    73
1070
     1
1070
    44
1040
1.0
1070
    74
1070
     0
1000
MTEXTEND
  0
DIMENSION
  5
1F27F
330
747D
100
AcDbEntity
  8
寸法
 48
50.0
100
AcDbDimension
  2
*D29
 10
8583.599999999998
 20
6609.11145918144
 30
0.0
 11
8335.832147142886
 21
6610.44816161193
 31
0.0
 70
   160
 71
     5
 42
110.0
  3
INABA_S40G
100
AcDbAlignedDimension
 13
8473.599999999999
 23
7270.878363921544
 33
0.0
 14
8583.599999999998
 24
6710.878363921546
 34
0.0
100
AcDbRotatedDimension
1001
ACAD
1000
DSTYLE
1002
{
1070
   174
1070
     0
1070
   272
1070
     1
1070
   279
1070
     1
1070
   288
1070
     0
1070
   341
1005
0
1002
}
  0
HATCH
  5
1F2F7
330
747D
100
AcDbEntity
  8
細線
 48
50.0
100
AcDbHatch
 10
0.0
 20
0.0
 30
0.0
210
0.0
220
0.0
230
1.0
  2
LINE
 70
     0
 71
     0
 91
        1
 92
        7
 72
     0
 73
     1
 93
        4
 10
8703.599999999999
 20
6910.878363921546
 10
8583.599999999998
 20
6910.878363921546
 10
8583.599999999998
 20
6710.878363921546
 10
8703.599999999999
 20
6710.878363921546
 97
        0
 75
     0
 76
     1
 52
45.0
 41
10.0
 77
     0
 78
     1
 53
45.0
 43
0.0
 44
0.0
 45
-22.45064030267288
 46
22.45064030267288
 79
     0
 47
2.808006018783193
 98
        1
 10
8629.122809232118
 20
6853.521848468739
  0
HATCH
  5
1F312
330
747D
100
AcDbEntity
  8
細線
 48
50.0
100
AcDbHatch
 10
0.0
 20
0.0
 30
0.0
210
0.0
220
0.0
230
1.0
  2
LINE
 70
     0
 71
     0
 91
        1
 92
        7
 72
     0
 73
     1
 93
        4
 10
8113.599999999999
 20
7500.878363921548
 10
7913.599999999998
 20
7500.878363921545
 10
7913.599999999998
 20
7380.878363921546
 10
8113.599999999998
 20
7380.878363921545
 97
        0
 75
     0
 76
     1
 52
45.0
 41
10.0
 77
     0
 78
     1
 53
45.0
 43
0.0
 44
0.0
 45
-22.45064030267288
 46
22.45064030267288
 79
     0
 47
3.965956083272326
 98
        1
 10
8071.729379395366
 20
7419.785494849555
  0
HATCH
  5
1F32D
330
747D
100
AcDbEntity
  8
細線
 48
50.0
100
AcDbHatch
 10
0.0
 20
0.0
 30
0.0
210
0.0
220
0.0
230
1.0
  2
LINE
 70
     0
 71
     0
 91
        1
 92
        7
 72
     0
 73
     1
 93
        4
 10
7443.599999999999
 20
6910.878363921547
 10
7323.599999999998
 20
6910.878363921546
 10
7323.599999999998
 20
6710.878363921544
 10
7443.599999999999
 20
6710.878363921548
 97
        0
 75
     0
 76
     1
 52
45.0
 41
10.0
 77
     0
 78
     1
 53
45.0
 43
0.0
 44
0.0
 45
-22.45064030267288
 46
22.45064030267288
 79
     0
 47
3.965956083272326
 98
        1
 10
7389.294909741926
 20
6805.062296537991
  0
LINE
  5
1F342
330
747D
100
AcDbEntity
  8
寸法
 48
50.0
100
AcDbLine
 10
8473.599999999999
 20
6609.11145918144
 30
0.0
 11
8258.958358557656
 21
6609.11145918144
 31
0.0
  0
TEXT
  5
1F390
330
747D
100
AcDbEntity
  8
文字
 62
     7
 48
50.0
100
AcDbText
 10
14816.49629419351
 20
1031.557706291228
 30
0.0
 40
100.0
  1
 <縮尺> S=1/40
  7
STYLE2
100
AcDbText
  0
ENDSEC
  0
SECTION
  2
OBJECTS
  0
DICTIONARY
  5
7471
330
0
100
AcDbDictionary
281
     1
  3
ACAD_COLOR
350
159B0
  3
ACAD_GROUP
350
7472
  3
ACAD_LAYOUT
350
159B1
  3
ACAD_MATERIAL
350
159AF
  3
ACAD_MLINESTYLE
350
7473
  3
ACAD_PLOTSETTINGS
350
159B2
  3
ACAD_PLOTSTYLENAME
350
159AD
  3
ACDBHEADERROUNDTRIPXREC
350
1F394
  3
AcDbVariableDictionary
350
1EDE3
  3
CONTENTDICTIONARY
350
E71C
  3
DRAWINGVARIABLESDICT
350
F3B9
  0
DICTIONARY
  5
1EDF1
330
7467
100
AcDbDictionary
280
     1
281
     1
  3
ACAD_LAYERSTATES
360
1EDF2
  0
DICTIONARY
  5
159B0
102
{ACAD_REACTORS
330
7471
102
}
330
7471
100
AcDbDictionary
281
     1
  0
DICTIONARY
  5
7472
102
{ACAD_REACTORS
330
7471
102
}
330
7471
100
AcDbDictionary
281
     1
  0
DICTIONARY
  5
159B1
102
{ACAD_REACTORS
330
7471
102
}
330
7471
100
AcDbDictionary
281
     1
  3
Model
350
159B3
  3
レイアウト1
350
159B4
  0
DICTIONARY
  5
159AF
102
{ACAD_REACTORS
330
7471
102
}
330
7471
100
AcDbDictionary
281
     1
  0
DICTIONARY
  5
7473
102
{ACAD_REACTORS
330
7471
102
}
330
7471
100
AcDbDictionary
281
     1
  3
STANDARD
350
7480
  0
DICTIONARY
  5
159B2
102
{ACAD_REACTORS
330
7471
102
}
330
7471
100
AcDbDictionary
281
     1
  0
ACDBDICTIONARYWDFLT
  5
159AD
102
{ACAD_REACTORS
330
7471
102
}
330
7471
100
AcDbDictionary
281
     1
  3
Normal
350
159AE
100
AcDbDictionaryWithDefault
340
159AE
  0
DICTIONARY
  5
1F394
102
{ACAD_REACTORS
330
7471
102
}
330
7471
100
AcDbDictionary
281
     1
  3
COLORDICT
350
1F396
  3
MATERIALDICT
350
1F395
  0
DICTIONARY
  5
1EDE3
102
{ACAD_REACTORS
330
7471
102
}
330
7471
100
AcDbDictionary
281
     1
  3
DIMASSOC
350
1EDE4
  3
PROJECTNAME
350
1EDE5
  0
DICTIONARY
  5
E71C
102
{ACAD_REACTORS
330
7471
102
}
330
7471
100
AcDbDictionary
281
     1
  0
DICTIONARY
  5
F3B9
102
{ACAD_REACTORS
330
7471
102
}
330
7471
100
AcDbDictionary
281
     1
1001
DRAWINGVARIABLESXDATA
1000
POLARMODE
1000
1
  0
DICTIONARY
  5
1EDF2
102
{ACAD_REACTORS
330
1EDF1
102
}
330
1EDF1
100
AcDbDictionary
281
     1
  0
LAYOUT
  5
159B3
102
{ACAD_XDICTIONARY
360
1F397
102
}
102
{ACAD_REACTORS
330
159B1
102
}
330
159B1
100
AcDbPlotSettings
  1

  2
クセロPDF
  4
A3
  6

 40
3.174999952316284
 41
3.174999952316284
 42
3.17498779296875
 43
3.17498779296875
 44
419.9466552734374
 45
296.9259948730469
 46
0.0
 47
0.0
 48
0.0
 49
0.0
140
0.0
141
0.0
142
1.0
143
40.88431153497317
 70
 11952
 72
     1
 73
     0
 74
     2
  7
inaba.ctb
 75
     0
147
0.0244592598592392
148
0.0
149
0.0
100
AcDbLayout
  1
Model
 70
     1
 71
     0
 10
0.0
 20
0.0
 11
12.0
 21
9.0
 12
0.0
 22
0.0
 32
0.0
 14
0.0
 24
0.0
 34
0.0
 15
0.0
 25
0.0
 35
0.0
146
0.0
 13
0.0
 23
0.0
 33
0.0
 16
1.0
 26
0.0
 36
0.0
 17
0.0
 27
1.0
 37
0.0
 76
     0
330
747D
  0
LAYOUT
  5
159B4
102
{ACAD_XDICTIONARY
360
1F399
102
}
102
{ACAD_REACTORS
330
159B1
102
}
330
159B1
100
AcDbPlotSettings
  1

  2
自動 EPSON LP-8400FX (TATENO 上)
  4

  6

 40
0.0
 41
0.0
 42
0.0
 43
0.0
 44
0.0
 45
0.0
 46
0.0
 47
0.0
 48
0.0
 49
0.0
140
0.0
141
0.0
142
1.0
143
1.0
 70
   688
 72
     0
 73
     0
 74
     5
  7
inaba.ctb
 75
    16
147
1.0
148
0.0
149
0.0
100
AcDbLayout
  1
レイアウト1
 70
     0
 71
     1
 10
0.0
 20
0.0
 11
420.0
 21
297.0
 12
0.0
 22
0.0
 32
0.0
 14
1.000000000000000E+20
 24
1.000000000000000E+20
 34
1.000000000000000E+20
 15
-1.000000000000000E+20
 25
-1.000000000000000E+20
 35
-1.000000000000000E+20
146
0.0
 13
0.0
 23
0.0
 33
0.0
 16
1.0
 26
0.0
 36
0.0
 17
0.0
 27
1.0
 37
0.0
 76
     0
330
747A
  0
MLINESTYLE
  5
7480
102
{ACAD_REACTORS
330
7473
102
}
330
7473
100
AcDbMlineStyle
  2
STANDARD
 70
     0
  3

 62
     0
 51
90.0
 52
90.0
 71
     2
 49
0.5
 62
   256
  6
BYLAYER
 49
-0.5
 62
   256
  6
BYLAYER
  0
ACDBPLACEHOLDER
  5
159AE
102
{ACAD_REACTORS
330
159AD
102
}
330
159AD
  0
XRECORD
  5
1F396
102
{ACAD_REACTORS
330
1F394
102
}
330
1F394
100
AcDbXrecord
280
     1
340
159B0
  0
XRECORD
  5
1F395
102
{ACAD_REACTORS
330
1F394
102
}
330
1F394
100
AcDbXrecord
280
     1
340
159AF
  0
DICTIONARYVAR
  5
1EDE4
102
{ACAD_REACTORS
330
1EDE3
102
}
330
1EDE3
100
DictionaryVariables
280
     0
  1
1
  0
DICTIONARYVAR
  5
1EDE5
102
{ACAD_REACTORS
330
1EDE3
102
}
330
1EDE3
100
DictionaryVariables
280
     0
  1

  0
DICTIONARY
  5
1F397
330
159B3
100
AcDbDictionary
280
     1
281
     1
  3
ACAD_XREC_ROUNDTRIP
360
1F398
  0
DICTIONARY
  5
1F399
330
159B4
100
AcDbDictionary
280
     1
281
     1
  3
ACAD_XREC_ROUNDTRIP
360
1F39A
  0
XRECORD
  5
1F398
102
{ACAD_REACTORS
330
1F397
102
}
330
1F397
100
AcDbXrecord
280
     1
102
SHADEPLOT
 70
     1
102
SHADEPLOTRESLEVEL
 70
     2
102
SHADEPLOTCUSTOMDPI
 70
   300
  0
XRECORD
  5
1F39A
102
{ACAD_REACTORS
330
1F399
102
}
330
1F399
100
AcDbXrecord
280
     1
102
SHADEPLOT
 70
     0
102
SHADEPLOTRESLEVEL
 70
     2
102
SHADEPLOTCUSTOMDPI
 70
   300
  0
ENDSEC
  0
EOF
