  0
SECTION
  2
HEADER
  9
$ACADVER
  1
AC1015
  9
$ACADMAINTVER
 70
    20
  9
$DWGCODEPAGE
  3
ANSI_932
  9
$INSBASE
 10
0.0
 20
0.0
 30
0.0
  9
$EXTMIN
 10
139.196816621341
 20
-0.3623413705354324
 30
-0.0000000000000053
  9
$EXTMAX
 10
16308.32523385566
 20
11409.91961536986
 30
0.0000000000000099
  9
$LIMMIN
 10
0.0
 20
0.0
  9
$LIMMAX
 10
16800.0
 20
11880.0
  9
$ORTHOMODE
 70
     0
  9
$REGENMODE
 70
     1
  9
$FILLMODE
 70
     1
  9
$QTEXTMODE
 70
     0
  9
$MIRRTEXT
 70
     1
  9
$LTSCALE
 40
20.0
  9
$ATTMODE
 70
     1
  9
$TEXTSIZE
 40
100.0
  9
$TRACEWID
 40
1.0
  9
$TEXTSTYLE
  7
STYLE2
  9
$CLAYER
  8
細線
  9
$CELTYPE
  6
BYLAYER
  9
$CECOLOR
 62
   256
  9
$CELTSCALE
 40
50.0
  9
$DISPSILH
 70
     0
  9
$DIMSCALE
 40
40.0
  9
$DIMASZ
 40
2.5
  9
$DIMEXO
 40
0.5
  9
$DIMDLI
 40
7.0
  9
$DIMRND
 40
0.0
  9
$DIMDLE
 40
0.0
  9
$DIMEXE
 40
1.5
  9
$DIMTP
 40
0.0
  9
$DIMTM
 40
0.0
  9
$DIMTXT
 40
3.0
  9
$DIMCEN
 40
0.0
  9
$DIMTSZ
 40
0.0
  9
$DIMTOL
 70
     0
  9
$DIMLIM
 70
     0
  9
$DIMTIH
 70
     0
  9
$DIMTOH
 70
     0
  9
$DIMSE1
 70
     0
  9
$DIMSE2
 70
     0
  9
$DIMTAD
 70
     3
  9
$DIMZIN
 70
     8
  9
$DIMBLK
  1

  9
$DIMASO
 70
     1
  9
$DIMSHO
 70
     1
  9
$DIMPOST
  1

  9
$DIMAPOST
  1

  9
$DIMALT
 70
     0
  9
$DIMALTD
 70
     2
  9
$DIMALTF
 40
0.0394
  9
$DIMLFAC
 40
1.0
  9
$DIMTOFL
 70
     1
  9
$DIMTVP
 40
0.0
  9
$DIMTIX
 70
     0
  9
$DIMSOXD
 70
     0
  9
$DIMSAH
 70
     1
  9
$DIMBLK1
  1
DOTSMALL
  9
$DIMBLK2
  1
DOTSMALL
  9
$DIMSTYLE
  2
INABA_S40G
  9
$DIMCLRD
 70
     0
  9
$DIMCLRE
 70
     0
  9
$DIMCLRT
 70
     7
  9
$DIMTFAC
 40
1.0
  9
$DIMGAP
 40
1.0
  9
$DIMJUST
 70
     0
  9
$DIMSD1
 70
     0
  9
$DIMSD2
 70
     0
  9
$DIMTOLJ
 70
     1
  9
$DIMTZIN
 70
     0
  9
$DIMALTZ
 70
     0
  9
$DIMALTTZ
 70
     0
  9
$DIMUPT
 70
     0
  9
$DIMDEC
 70
     1
  9
$DIMTDEC
 70
     1
  9
$DIMALTU
 70
     2
  9
$DIMALTTD
 70
     2
  9
$DIMTXSTY
  7
STYLE1
  9
$DIMAUNIT
 70
     0
  9
$DIMADEC
 70
     0
  9
$DIMALTRND
 40
0.0
  9
$DIMAZIN
 70
     0
  9
$DIMDSEP
 70
    46
  9
$DIMATFIT
 70
     3
  9
$DIMFRAC
 70
     0
  9
$DIMLDRBLK
  1

  9
$DIMLUNIT
 70
     2
  9
$DIMLWD
 70
    -2
  9
$DIMLWE
 70
    -2
  9
$DIMTMOVE
 70
     1
  9
$LUNITS
 70
     2
  9
$LUPREC
 70
     1
  9
$SKETCHINC
 40
1.0
  9
$FILLETRAD
 40
2.299999999999999
  9
$AUNITS
 70
     0
  9
$AUPREC
 70
     0
  9
$MENU
  1
acad
  9
$ELEVATION
 40
0.0
  9
$PELEVATION
 40
0.0
  9
$THICKNESS
 40
0.0
  9
$LIMCHECK
 70
     0
  9
$CHAMFERA
 40
3.0
  9
$CHAMFERB
 40
3.0
  9
$CHAMFERC
 40
0.0
  9
$CHAMFERD
 40
0.0
  9
$SKPOLY
 70
     0
  9
$TDCREATE
 40
2451368.612993866
  9
$TDUCREATE
 40
2451368.237993866
  9
$TDUPDATE
 40
2455765.638607129
  9
$TDUUPDATE
 40
2455765.263607130
  9
$TDINDWG
 40
1.6562956829
  9
$TDUSRTIMER
 40
1.6562956829
  9
$USRTIMER
 70
     1
  9
$ANGBASE
 50
0.0
  9
$ANGDIR
 70
     0
  9
$PDMODE
 70
     3
  9
$PDSIZE
 40
2.0
  9
$PLINEWID
 40
0.0
  9
$SPLFRAME
 70
     0
  9
$SPLINETYPE
 70
     6
  9
$SPLINESEGS
 70
     8
  9
$HANDSEED
  5
1F99A
  9
$SURFTAB1
 70
     6
  9
$SURFTAB2
 70
     6
  9
$SURFTYPE
 70
     6
  9
$SURFU
 70
     6
  9
$SURFV
 70
     6
  9
$UCSBASE
  2

  9
$UCSNAME
  2

  9
$UCSORG
 10
0.0
 20
0.0
 30
0.0
  9
$UCSXDIR
 10
1.0
 20
0.0
 30
0.0
  9
$UCSYDIR
 10
0.0
 20
1.0
 30
0.0
  9
$UCSORTHOREF
  2

  9
$UCSORTHOVIEW
 70
     0
  9
$UCSORGTOP
 10
0.0
 20
0.0
 30
0.0
  9
$UCSORGBOTTOM
 10
0.0
 20
0.0
 30
0.0
  9
$UCSORGLEFT
 10
0.0
 20
0.0
 30
0.0
  9
$UCSORGRIGHT
 10
0.0
 20
0.0
 30
0.0
  9
$UCSORGFRONT
 10
0.0
 20
0.0
 30
0.0
  9
$UCSORGBACK
 10
0.0
 20
0.0
 30
0.0
  9
$PUCSBASE
  2

  9
$PUCSNAME
  2

  9
$PUCSORG
 10
0.0
 20
0.0
 30
0.0
  9
$PUCSXDIR
 10
1.0
 20
0.0
 30
0.0
  9
$PUCSYDIR
 10
0.0
 20
1.0
 30
0.0
  9
$PUCSORTHOREF
  2

  9
$PUCSORTHOVIEW
 70
     0
  9
$PUCSORGTOP
 10
0.0
 20
0.0
 30
0.0
  9
$PUCSORGBOTTOM
 10
0.0
 20
0.0
 30
0.0
  9
$PUCSORGLEFT
 10
0.0
 20
0.0
 30
0.0
  9
$PUCSORGRIGHT
 10
0.0
 20
0.0
 30
0.0
  9
$PUCSORGFRONT
 10
0.0
 20
0.0
 30
0.0
  9
$PUCSORGBACK
 10
0.0
 20
0.0
 30
0.0
  9
$USERI1
 70
     0
  9
$USERI2
 70
     0
  9
$USERI3
 70
     0
  9
$USERI4
 70
     0
  9
$USERI5
 70
     0
  9
$USERR1
 40
0.0
  9
$USERR2
 40
0.0
  9
$USERR3
 40
0.0
  9
$USERR4
 40
0.0
  9
$USERR5
 40
0.0
  9
$WORLDVIEW
 70
     1
  9
$SHADEDGE
 70
     3
  9
$SHADEDIF
 70
    70
  9
$TILEMODE
 70
     1
  9
$MAXACTVP
 70
    16
  9
$PINSBASE
 10
0.0
 20
0.0
 30
0.0
  9
$PLIMCHECK
 70
     0
  9
$PEXTMIN
 10
1.000000000000000E+20
 20
1.000000000000000E+20
 30
1.000000000000000E+20
  9
$PEXTMAX
 10
-1.000000000000000E+20
 20
-1.000000000000000E+20
 30
-1.000000000000000E+20
  9
$PLIMMIN
 10
0.0
 20
0.0
  9
$PLIMMAX
 10
420.0
 20
297.0
  9
$UNITMODE
 70
     0
  9
$VISRETAIN
 70
     0
  9
$PLINEGEN
 70
     0
  9
$PSLTSCALE
 70
     0
  9
$TREEDEPTH
 70
  3020
  9
$CMLSTYLE
  2
STANDARD
  9
$CMLJUST
 70
     0
  9
$CMLSCALE
 40
1.0
  9
$PROXYGRAPHICS
 70
     1
  9
$MEASUREMENT
 70
     1
  9
$CELWEIGHT
370
    -1
  9
$ENDCAPS
280
     0
  9
$JOINSTYLE
280
     0
  9
$LWDISPLAY
290
     0
  9
$INSUNITS
 70
     0
  9
$HYPERLINKBASE
  1

  9
$STYLESHEET
  1
inaba.ctb
  9
$XEDIT
290
     1
  9
$CEPSNTYPE
380
     0
  9
$PSTYLEMODE
290
     1
  9
$FINGERPRINTGUID
  2
{3B57B35E-7D77-4BBF-81B7-6C583B9EB24C}
  9
$VERSIONGUID
  2
{912ED103-119F-4131-84C0-BFB77F126C4A}
  9
$EXTNAMES
290
     1
  9
$PSVPSCALE
 40
0.0
  9
$OLESTARTUP
290
     0
  0
ENDSEC
  0
SECTION
  2
CLASSES
  0
CLASS
  1
ACDBDICTIONARYWDFLT
  2
AcDbDictionaryWithDefault
  3
ObjectDBX Classes
 90
        0
280
     0
281
     0
  0
CLASS
  1
DICTIONARYVAR
  2
AcDbDictionaryVar
  3
ObjectDBX Classes
 90
        0
280
     0
281
     0
  0
CLASS
  1
ACDBPLACEHOLDER
  2
AcDbPlaceHolder
  3
ObjectDBX Classes
 90
        0
280
     0
281
     0
  0
CLASS
  1
LAYOUT
  2
AcDbLayout
  3
ObjectDBX Classes
 90
        0
280
     0
281
     0
  0
ENDSEC
  0
SECTION
  2
TABLES
  0
TABLE
  2
VPORT
  5
746D
330
0
100
AcDbSymbolTable
 70
     4
  0
VPORT
  5
1F992
330
746D
100
AcDbSymbolTableRecord
100
AcDbViewportTableRecord
  2
*Active
 70
     0
 10
0.0
 20
0.0
 11
1.0
 21
1.0
 12
8223.761025238504
 22
5704.77863699966
 13
0.0
 23
0.0
 14
10.0
 24
10.0
 15
10.0
 25
10.0
 16
0.0
 26
0.0
 36
1.0
 17
0.0
 27
0.0
 37
0.0
 40
11496.94232603209
 41
1.528517110266159
 42
50.0
 43
0.0
 44
0.0
 50
0.0
 51
0.0
 71
     0
 72
     0
 73
     1
 74
     0
 75
     0
 76
     0
 77
     0
 78
     0
281
     0
 65
     1
110
0.0
120
0.0
130
0.0
111
1.0
121
0.0
131
0.0
112
0.0
122
1.0
132
0.0
 79
     0
146
0.0
  0
ENDTAB
  0
TABLE
  2
LTYPE
  5
746A
330
0
100
AcDbSymbolTable
 70
     4
  0
LTYPE
  5
7477
330
746A
100
AcDbSymbolTableRecord
100
AcDbLinetypeTableRecord
  2
BYBLOCK
 70
     0
  3

 72
    65
 73
     0
 40
0.0
  0
LTYPE
  5
7478
330
746A
100
AcDbSymbolTableRecord
100
AcDbLinetypeTableRecord
  2
BYLAYER
 70
     0
  3

 72
    65
 73
     0
 40
0.0
  0
LTYPE
  5
7479
330
746A
100
AcDbSymbolTableRecord
100
AcDbLinetypeTableRecord
  2
CONTINUOUS
 70
     0
  3
Solid line
 72
    65
 73
     0
 40
0.0
  0
LTYPE
  5
7816
330
746A
100
AcDbSymbolTableRecord
100
AcDbLinetypeTableRecord
  2
CENTER
 70
     0
  3
____ _ ____ _ ____ _ ____ _ ____ _ ____ _ ____ 
 72
    65
 73
     4
 40
2.0
 49
1.25
 74
     0
 49
-0.25
 74
     0
 49
0.25
 74
     0
 49
-0.25
 74
     0
  0
LTYPE
  5
781A
330
746A
100
AcDbSymbolTableRecord
100
AcDbLinetypeTableRecord
  2
HIDDEN
 70
     0
  3
__ __ __ __ __ __ __ __ __ __ __ __ __ __ __ __
 72
    65
 73
     2
 40
0.375
 49
0.25
 74
     0
 49
-0.125
 74
     0
  0
LTYPE
  5
781B
330
746A
100
AcDbSymbolTableRecord
100
AcDbLinetypeTableRecord
  2
PHANTOM
 70
     0
  3
______  __  __  ______  __  __  ______  __  __ 
 72
    65
 73
     6
 40
2.5
 49
1.25
 74
     0
 49
-0.25
 74
     0
 49
0.25
 74
     0
 49
-0.25
 74
     0
 49
0.25
 74
     0
 49
-0.25
 74
     0
  0
ENDTAB
  0
TABLE
  2
LAYER
  5
7467
102
{ACAD_XDICTIONARY
360
1F310
102
}
330
0
100
AcDbSymbolTable
 70
    12
  0
LAYER
  5
7474
330
7467
100
AcDbSymbolTableRecord
100
AcDbLayerTableRecord
  2
0
 70
     0
 62
     7
  6
CONTINUOUS
370
    -3
390
159AE
  0
LAYER
  5
DEB2
330
7467
100
AcDbSymbolTableRecord
100
AcDbLayerTableRecord
  2
センター
 70
     0
 62
     3
  6
CENTER
370
    -3
390
159AE
  0
LAYER
  5
DEB3
330
7467
100
AcDbSymbolTableRecord
100
AcDbLayerTableRecord
  2
寸法
 70
     0
 62
     4
  6
CONTINUOUS
370
    -3
390
159AE
  0
LAYER
  5
DEB4
330
7467
100
AcDbSymbolTableRecord
100
AcDbLayerTableRecord
  2
部品1
 70
     0
 62
     7
  6
CONTINUOUS
370
    -3
390
159AE
  0
LAYER
  5
DEB5
330
7467
100
AcDbSymbolTableRecord
100
AcDbLayerTableRecord
  2
補助
 70
     0
 62
    -1
  6
CONTINUOUS
370
    -3
390
159AE
  0
LAYER
  5
DEB6
330
7467
100
AcDbSymbolTableRecord
100
AcDbLayerTableRecord
  2
文字
 70
     0
 62
     7
  6
CONTINUOUS
370
    -3
390
159AE
  0
LAYER
  5
F255
330
7467
100
AcDbSymbolTableRecord
100
AcDbLayerTableRecord
  2
DEFPOINTS
 70
     0
 62
     7
  6
CONTINUOUS
290
     0
370
    -3
390
159AE
  0
LAYER
  5
10B54
330
7467
100
AcDbSymbolTableRecord
100
AcDbLayerTableRecord
  2
仕様書枠
 70
     0
 62
   230
  6
CONTINUOUS
370
    -3
390
159AE
  0
LAYER
  5
11729
330
7467
100
AcDbSymbolTableRecord
100
AcDbLayerTableRecord
  2
Ｇ．Ｌ
 70
     0
 62
    30
  6
CONTINUOUS
370
    -3
390
159AE
  0
LAYER
  5
1173F
330
7467
100
AcDbSymbolTableRecord
100
AcDbLayerTableRecord
  2
細線
 70
     0
 62
     5
  6
CONTINUOUS
370
    -3
390
159AE
  0
LAYER
  5
12CC4
330
7467
100
AcDbSymbolTableRecord
100
AcDbLayerTableRecord
  2
想像線
 70
     0
 62
     6
  6
PHANTOM
370
    -3
390
159AE
  0
LAYER
  5
142E2
330
7467
100
AcDbSymbolTableRecord
100
AcDbLayerTableRecord
  2
破線
 70
     0
 62
     2
  6
HIDDEN
370
    -3
390
159AE
  0
ENDTAB
  0
TABLE
  2
STYLE
  5
7468
330
0
100
AcDbSymbolTable
 70
     3
  0
STYLE
  5
7475
330
7468
100
AcDbSymbolTableRecord
100
AcDbTextStyleTableRecord
  2
STANDARD
 70
     0
 40
0.0
 41
1.0
 50
0.0
 71
     0
 42
4.0
  3
txt
  4
C:\AutoCAD LT\bigfont.shx
  0
STYLE
  5
F706
330
7468
100
AcDbSymbolTableRecord
100
AcDbTextStyleTableRecord
  2
STYLE1
 70
     0
 40
0.0
 41
1.0
 50
0.0
 71
     0
 42
100.0
  3
isocp.shx
  4
bigfont.shx
  0
STYLE
  5
103BF
330
7468
100
AcDbSymbolTableRecord
100
AcDbTextStyleTableRecord
  2
STYLE2
 70
     0
 40
0.0
 41
1.0
 50
0.0
 71
     0
 42
100.0
  3
MS PGothic.ttf
  4

1001
ACAD
1000
MS PGothic
1071
    32818
  0
ENDTAB
  0
TABLE
  2
VIEW
  5
746B
330
0
100
AcDbSymbolTable
 70
     0
  0
ENDTAB
  0
TABLE
  2
UCS
  5
746C
330
0
100
AcDbSymbolTable
 70
     0
  0
ENDTAB
  0
TABLE
  2
APPID
  5
746E
330
0
100
AcDbSymbolTable
 70
     6
  0
APPID
  5
7476
330
746E
100
AcDbSymbolTableRecord
100
AcDbRegAppTableRecord
  2
ACAD
 70
     0
  0
APPID
  5
DEA9
330
746E
100
AcDbSymbolTableRecord
100
AcDbRegAppTableRecord
  2
CONTENTBLOCKICON
 70
     0
  0
APPID
  5
DEAA
330
746E
100
AcDbSymbolTableRecord
100
AcDbRegAppTableRecord
  2
CONTENTBLOCKDESCRIPTION
 70
     0
  0
APPID
  5
E71D
330
746E
100
AcDbSymbolTableRecord
100
AcDbRegAppTableRecord
  2
CONTENTTABDATA
 70
     0
  0
APPID
  5
E71E
330
746E
100
AcDbSymbolTableRecord
100
AcDbRegAppTableRecord
  2
CONTENTCURRENTTAB
 70
     0
  0
APPID
  5
F3BA
330
746E
100
AcDbSymbolTableRecord
100
AcDbRegAppTableRecord
  2
DRAWINGVARIABLESXDATA
 70
     0
  0
ENDTAB
  0
TABLE
  2
DIMSTYLE
  5
746F
330
0
100
AcDbSymbolTable
 70
     2
100
AcDbDimStyleTable
 71
     1
340
F71F
  0
DIMSTYLE
105
F71F
102
{ACAD_REACTORS
330
1D93F
330
1D93E
330
1D926
330
1D925
330
1D920
330
1D91D
330
1D934
330
1D933
330
1D92D
330
1D92C
330
1D929
330
1D927
330
1D91C
330
1D91B
330
1D948
330
1D947
330
1D959
330
1D942
330
1D940
330
1F7E4
330
1F844
330
1F847
330
1F84E
330
1F856
330
1F857
102
}
330
746F
100
AcDbSymbolTableRecord
100
AcDbDimStyleTableRecord
  2
INABA_S40G
 70
     0
 40
40.0
 41
2.5
 42
0.5
 43
7.0
 44
1.5
 73
     0
 74
     0
 77
     3
 78
     8
140
3.0
141
0.0
143
0.0394
147
1.0
172
     1
173
     1
174
     1
178
     7
271
     1
288
     1
340
F706
341
F770
343
F770
344
F770
  0
DIMSTYLE
105
1C645
330
746F
100
AcDbSymbolTableRecord
100
AcDbDimStyleTableRecord
  2
INABA_S50G
 70
     0
 40
0.0
 41
125.0
 42
25.0
 43
7.0
 44
75.0
 73
     0
 74
     0
 77
     3
 78
     8
140
150.0
141
0.0
143
0.0394
147
25.0
172
     1
173
     1
174
     1
178
     7
271
     1
340
F706
341
F770
343
F770
344
F770
  0
ENDTAB
  0
TABLE
  2
BLOCK_RECORD
  5
7466
330
0
100
AcDbSymbolTable
 70
    26
  0
BLOCK_RECORD
  5
747D
330
7466
100
AcDbSymbolTableRecord
100
AcDbBlockTableRecord
  2
*MODEL_SPACE
340
159B3
  0
BLOCK_RECORD
  5
747A
330
7466
100
AcDbSymbolTableRecord
100
AcDbBlockTableRecord
  2
*PAPER_SPACE
340
159B4
  0
BLOCK_RECORD
  5
F770
330
7466
100
AcDbSymbolTableRecord
100
AcDbBlockTableRecord
  2
_DOTSMALL
340
0
102
{BLKREFS
331
1F20A
331
1F20B
331
1F214
331
1F215
331
1F21F
331
1F220
331
1F229
331
1F22A
331
1F234
331
1F235
331
1F23E
331
1F23F
331
1F247
331
1F248
331
1F250
331
1F251
331
1F25B
331
1F25C
331
1F265
331
1F266
331
1F26E
331
1F26F
331
1F277
331
1F278
331
1F281
331
1F282
331
1F28B
331
1F28C
331
1F8B2
331
1F8B3
331
1F8BB
331
1F8BC
331
1F8C4
331
1F8C5
331
1F8CD
331
1F8CE
331
1F8DB
331
1F8DC
331
1F8E3
331
1F8E4
331
1F8ED
331
1F8EE
331
1F8F7
331
1F8F8
331
1F901
331
1F902
331
1F90B
331
1F90C
102
}
  0
BLOCK_RECORD
  5
1C530
330
7466
100
AcDbSymbolTableRecord
100
AcDbBlockTableRecord
  2
_NONE
340
0
  0
BLOCK_RECORD
  5
1DA44
330
7466
100
AcDbSymbolTableRecord
100
AcDbBlockTableRecord
  2
*D2
340
0
  0
BLOCK_RECORD
  5
1DA51
330
7466
100
AcDbSymbolTableRecord
100
AcDbBlockTableRecord
  2
*D3
340
0
  0
BLOCK_RECORD
  5
1DA5E
330
7466
100
AcDbSymbolTableRecord
100
AcDbBlockTableRecord
  2
*D4
340
0
  0
BLOCK_RECORD
  5
1DA69
330
7466
100
AcDbSymbolTableRecord
100
AcDbBlockTableRecord
  2
*D5
340
0
  0
BLOCK_RECORD
  5
1DA74
330
7466
100
AcDbSymbolTableRecord
100
AcDbBlockTableRecord
  2
*D6
340
0
  0
BLOCK_RECORD
  5
1DA81
330
7466
100
AcDbSymbolTableRecord
100
AcDbBlockTableRecord
  2
*D7
340
0
  0
BLOCK_RECORD
  5
1DA8E
330
7466
100
AcDbSymbolTableRecord
100
AcDbBlockTableRecord
  2
*D8
340
0
  0
BLOCK_RECORD
  5
1DA9A
330
7466
100
AcDbSymbolTableRecord
100
AcDbBlockTableRecord
  2
*D9
340
0
  0
BLOCK_RECORD
  5
1DAA5
330
7466
100
AcDbSymbolTableRecord
100
AcDbBlockTableRecord
  2
*D10
340
0
  0
BLOCK_RECORD
  5
1DAB2
330
7466
100
AcDbSymbolTableRecord
100
AcDbBlockTableRecord
  2
*D11
340
0
  0
BLOCK_RECORD
  5
1DABE
330
7466
100
AcDbSymbolTableRecord
100
AcDbBlockTableRecord
  2
*D12
340
0
  0
BLOCK_RECORD
  5
1DACB
330
7466
100
AcDbSymbolTableRecord
100
AcDbBlockTableRecord
  2
*D13
340
0
  0
BLOCK_RECORD
  5
1DAD9
330
7466
100
AcDbSymbolTableRecord
100
AcDbBlockTableRecord
  2
*D14
340
0
  0
BLOCK_RECORD
  5
1DAE6
330
7466
100
AcDbSymbolTableRecord
100
AcDbBlockTableRecord
  2
*D15
340
0
  0
BLOCK_RECORD
  5
1DAF3
330
7466
100
AcDbSymbolTableRecord
100
AcDbBlockTableRecord
  2
*D16
340
0
  0
BLOCK_RECORD
  5
1DB00
330
7466
100
AcDbSymbolTableRecord
100
AcDbBlockTableRecord
  2
*D17
340
0
  0
BLOCK_RECORD
  5
1DB0D
330
7466
100
AcDbSymbolTableRecord
100
AcDbBlockTableRecord
  2
*D18
340
0
  0
BLOCK_RECORD
  5
1DB1A
330
7466
100
AcDbSymbolTableRecord
100
AcDbBlockTableRecord
  2
*D19
340
0
  0
BLOCK_RECORD
  5
1F861
330
7466
100
AcDbSymbolTableRecord
100
AcDbBlockTableRecord
  2
*D20
340
0
  0
BLOCK_RECORD
  5
1F86D
330
7466
100
AcDbSymbolTableRecord
100
AcDbBlockTableRecord
  2
*D21
340
0
  0
BLOCK_RECORD
  5
1F879
330
7466
100
AcDbSymbolTableRecord
100
AcDbBlockTableRecord
  2
*D22
340
0
  0
BLOCK_RECORD
  5
1F885
330
7466
100
AcDbSymbolTableRecord
100
AcDbBlockTableRecord
  2
*D23
340
0
  0
BLOCK_RECORD
  5
1F891
330
7466
100
AcDbSymbolTableRecord
100
AcDbBlockTableRecord
  2
*D24
340
0
  0
BLOCK_RECORD
  5
1F8A2
330
7466
100
AcDbSymbolTableRecord
100
AcDbBlockTableRecord
  2
*D25
340
0
  0
ENDTAB
  0
ENDSEC
  0
SECTION
  2
BLOCKS
  0
BLOCK
  5
7489
330
747D
100
AcDbEntity
  8
0
100
AcDbBlockBegin
  2
*MODEL_SPACE
 70
     0
 10
0.0
 20
0.0
 30
0.0
  3
*MODEL_SPACE
  1

  0
ENDBLK
  5
748A
330
747D
100
AcDbEntity
  8
0
100
AcDbBlockEnd
  0
BLOCK
  5
7487
330
747A
100
AcDbEntity
 67
     1
  8
0
100
AcDbBlockBegin
  2
*PAPER_SPACE
 70
     0
 10
0.0
 20
0.0
 30
0.0
  3
*PAPER_SPACE
  1

  0
ENDBLK
  5
7488
330
747A
100
AcDbEntity
 67
     1
  8
0
100
AcDbBlockEnd
  0
BLOCK
  5
F771
330
F770
100
AcDbEntity
  8
0
 48
50.0
100
AcDbBlockBegin
  2
_DOTSMALL
 70
     0
 10
0.0
 20
0.0
 30
0.0
  3
_DOTSMALL
  1

  0
LWPOLYLINE
  5
F772
330
F770
100
AcDbEntity
  8
0
  6
ByBlock
 62
     0
 48
50.0
100
AcDbPolyline
 90
        2
 70
     1
 43
0.5
 10
-0.0625
 20
0.0
 42
1.0
 10
0.0625
 20
0.0
 42
1.0
  0
ENDBLK
  5
F776
330
F770
100
AcDbEntity
  8
0
 48
50.0
100
AcDbBlockEnd
  0
BLOCK
  5
1C531
330
1C530
100
AcDbEntity
  8
0
 48
50.0
100
AcDbBlockBegin
  2
_NONE
 70
     0
 10
0.0
 20
0.0
 30
0.0
  3
_NONE
  1

  0
CIRCLE
  5
1C532
330
1C530
100
AcDbEntity
  8
0
  6
ByBlock
 62
     0
 48
50.0
100
AcDbCircle
 10
0.0
 20
0.0
 30
0.0
 40
0.25
  0
ENDBLK
  5
1C533
330
1C530
100
AcDbEntity
  8
0
 48
50.0
100
AcDbBlockEnd
  0
BLOCK
  5
1DA4F
330
1DA44
100
AcDbEntity
  8
0
 48
50.0
100
AcDbBlockBegin
  2
*D2
 70
     1
 10
0.0
 20
0.0
 30
0.0
  3
*D2
  1

  0
LINE
  5
1F287
330
1DA44
100
AcDbEntity
  8
寸法
 62
     0
 48
50.0
370
    -2
100
AcDbLine
 10
7573.599999999998
 20
6229.246300175037
 30
0.0
 11
7830.307249876098
 21
6229.246300175037
 31
0.0
  0
LINE
  5
1F288
330
1DA44
100
AcDbEntity
  8
寸法
 62
     0
 48
50.0
370
    -2
100
AcDbLine
 10
7573.599999999998
 20
6359.246300175039
 30
0.0
 11
7830.307249876098
 21
6359.246300175039
 31
0.0
  0
LINE
  5
1F289
330
1DA44
100
AcDbEntity
  8
寸法
 62
     0
 48
50.0
370
    -2
100
AcDbLine
 10
7770.307249876097
 20
6229.246300175037
 30
0.0
 11
7770.307249876097
 21
6359.246300175039
 31
0.0
  0
LINE
  5
1F28A
330
1DA44
100
AcDbEntity
  8
寸法
 62
     0
 48
50.0
370
    -2
100
AcDbLine
 10
7770.307249876097
 20
6359.246300175039
 30
0.0
 11
7770.307249876097
 21
6731.340788364015
 31
0.0
  0
INSERT
  5
1F28B
330
1DA44
100
AcDbEntity
  8
寸法
 62
     0
 48
50.0
370
    -2
100
AcDbBlockReference
  2
_DOTSMALL
 10
7770.307249876097
 20
6229.246300175037
 30
0.0
 41
100.0
 42
100.0
 43
100.0
 50
270.0
  0
INSERT
  5
1F28C
330
1DA44
100
AcDbEntity
  8
寸法
 62
     0
 48
50.0
370
    -2
100
AcDbBlockReference
  2
_DOTSMALL
 10
7770.307249876097
 20
6359.246300175039
 30
0.0
 41
100.0
 42
100.0
 43
100.0
 50
90.0
  0
MTEXT
  5
1F28D
330
1DA44
100
AcDbEntity
  8
寸法
 62
     7
 48
50.0
100
AcDbMText
 10
7670.307249876096
 20
6595.293544269527
 30
0.0
 40
120.0
 41
0.0
 71
     5
 72
     1
  1
\A1;130
  7
STYLE1
 11
0.0000000000000001
 21
1.0
 31
0.0
 73
     1
 44
1.0
1001
ACAD
1000
MTEXTBEGIN
1070
    73
1070
     1
1070
    44
1040
1.0
1070
    74
1070
     0
1000
MTEXTEND
  0
POINT
  5
1F28E
330
1DA44
100
AcDbEntity
  8
DEFPOINTS
 62
     0
 48
50.0
100
AcDbPoint
 10
7553.599999999999
 20
6229.246300175037
 30
0.0
  0
POINT
  5
1F28F
330
1DA44
100
AcDbEntity
  8
DEFPOINTS
 62
     0
 48
50.0
100
AcDbPoint
 10
7553.599999999999
 20
6359.246300175039
 30
0.0
  0
POINT
  5
1F290
330
1DA44
100
AcDbEntity
  8
DEFPOINTS
 62
     0
 48
50.0
100
AcDbPoint
 10
7770.307249876097
 20
6359.246300175039
 30
0.0
  0
ENDBLK
  5
1DA50
330
1DA44
100
AcDbEntity
  8
0
 48
50.0
100
AcDbBlockEnd
  0
BLOCK
  5
1DA5C
330
1DA51
100
AcDbEntity
  8
0
 48
50.0
100
AcDbBlockBegin
  2
*D3
 70
     1
 10
0.0
 20
0.0
 30
0.0
  3
*D3
  1

  0
LINE
  5
1F27D
330
1DA51
100
AcDbEntity
  8
寸法
 62
     0
 48
50.0
370
    -2
100
AcDbLine
 10
7573.599999999998
 20
6229.246300175038
 30
0.0
 11
7830.307249876098
 21
6229.246300175038
 31
0.0
  0
LINE
  5
1F27E
330
1DA51
100
AcDbEntity
  8
寸法
 62
     0
 48
50.0
370
    -2
100
AcDbLine
 10
7573.599999999998
 20
6059.246300175036
 30
0.0
 11
7830.307249876097
 21
6059.246300175036
 31
0.0
  0
LINE
  5
1F27F
330
1DA51
100
AcDbEntity
  8
寸法
 62
     0
 48
50.0
370
    -2
100
AcDbLine
 10
7770.307249876097
 20
6229.246300175038
 30
0.0
 11
7770.307249876097
 21
6059.246300175036
 31
0.0
  0
LINE
  5
1F280
330
1DA51
100
AcDbEntity
  8
寸法
 62
     0
 48
50.0
370
    -2
100
AcDbLine
 10
7770.307249876097
 20
6059.246300175036
 30
0.0
 11
7770.307249876097
 21
5687.15181198606
 31
0.0
  0
INSERT
  5
1F281
330
1DA51
100
AcDbEntity
  8
寸法
 62
     0
 48
50.0
370
    -2
100
AcDbBlockReference
  2
_DOTSMALL
 10
7770.307249876097
 20
6229.246300175038
 30
0.0
 41
100.0
 42
100.0
 43
100.0
 50
90.0
  0
INSERT
  5
1F282
330
1DA51
100
AcDbEntity
  8
寸法
 62
     0
 48
50.0
370
    -2
100
AcDbBlockReference
  2
_DOTSMALL
 10
7770.307249876097
 20
6059.246300175036
 30
0.0
 41
100.0
 42
100.0
 43
100.0
 50
270.0
  0
MTEXT
  5
1F283
330
1DA51
100
AcDbEntity
  8
寸法
 62
     7
 48
50.0
100
AcDbMText
 10
7670.307249876096
 20
5823.199056080549
 30
0.0
 40
120.0
 41
0.0
 71
     5
 72
     1
  1
\A1;170
  7
STYLE1
 11
0.0000000000000001
 21
1.0
 31
0.0
 73
     1
 44
1.0
1001
ACAD
1000
MTEXTBEGIN
1070
    73
1070
     1
1070
    44
1040
1.0
1070
    74
1070
     0
1000
MTEXTEND
  0
POINT
  5
1F284
330
1DA51
100
AcDbEntity
  8
DEFPOINTS
 62
     0
 48
50.0
100
AcDbPoint
 10
7553.599999999999
 20
6229.246300175038
 30
0.0
  0
POINT
  5
1F285
330
1DA51
100
AcDbEntity
  8
DEFPOINTS
 62
     0
 48
50.0
100
AcDbPoint
 10
7553.599999999999
 20
6059.246300175036
 30
0.0
  0
POINT
  5
1F286
330
1DA51
100
AcDbEntity
  8
DEFPOINTS
 62
     0
 48
50.0
100
AcDbPoint
 10
7770.307249876097
 20
6059.246300175036
 30
0.0
  0
ENDBLK
  5
1DA5D
330
1DA51
100
AcDbEntity
  8
0
 48
50.0
100
AcDbBlockEnd
  0
BLOCK
  5
1DA67
330
1DA5E
100
AcDbEntity
  8
0
 48
50.0
100
AcDbBlockBegin
  2
*D4
 70
     1
 10
0.0
 20
0.0
 30
0.0
  3
*D4
  1

  0
LINE
  5
1F274
330
1DA5E
100
AcDbEntity
  8
寸法
 62
     0
 48
50.0
370
    -2
100
AcDbLine
 10
8740.599999999998
 20
6966.246300175035
 30
0.0
 11
8740.599999999998
 21
7684.306910564965
 31
0.0
  0
LINE
  5
1F275
330
1DA5E
100
AcDbEntity
  8
寸法
 62
     0
 48
50.0
370
    -2
100
AcDbLine
 10
7446.6
 20
6966.246300175035
 30
0.0
 11
7446.6
 21
7684.306910564965
 31
0.0
  0
LINE
  5
1F276
330
1DA5E
100
AcDbEntity
  8
寸法
 62
     0
 48
50.0
370
    -2
100
AcDbLine
 10
8740.599999999998
 20
7624.306910564965
 30
0.0
 11
7446.6
 21
7624.306910564965
 31
0.0
  0
INSERT
  5
1F277
330
1DA5E
100
AcDbEntity
  8
寸法
 62
     0
 48
50.0
370
    -2
100
AcDbBlockReference
  2
_DOTSMALL
 10
8740.599999999998
 20
7624.306910564965
 30
0.0
 41
100.0
 42
100.0
 43
100.0
  0
INSERT
  5
1F278
330
1DA5E
100
AcDbEntity
  8
寸法
 62
     0
 48
50.0
370
    -2
100
AcDbBlockReference
  2
_DOTSMALL
 10
7446.6
 20
7624.306910564965
 30
0.0
 41
100.0
 42
100.0
 43
100.0
 50
180.0
  0
MTEXT
  5
1F279
330
1DA5E
100
AcDbEntity
  8
寸法
 62
     7
 48
50.0
100
AcDbMText
 10
8093.6
 20
7724.318721588587
 30
0.0
 40
120.0
 41
0.0
 71
     5
 72
     1
  1
\A1;1294
  7
STYLE1
 73
     1
 44
1.0
1001
ACAD
1000
MTEXTBEGIN
1070
    73
1070
     1
1070
    44
1040
1.0
1070
    74
1070
     0
1000
MTEXTEND
  0
POINT
  5
1F27A
330
1DA5E
100
AcDbEntity
  8
DEFPOINTS
 62
     0
 48
50.0
100
AcDbPoint
 10
8740.599999999998
 20
6946.246300175035
 30
0.0
  0
POINT
  5
1F27B
330
1DA5E
100
AcDbEntity
  8
DEFPOINTS
 62
     0
 48
50.0
100
AcDbPoint
 10
7446.6
 20
6946.246300175035
 30
0.0
  0
POINT
  5
1F27C
330
1DA5E
100
AcDbEntity
  8
DEFPOINTS
 62
     0
 48
50.0
100
AcDbPoint
 10
7446.6
 20
7624.306910564965
 30
0.0
  0
ENDBLK
  5
1DA68
330
1DA5E
100
AcDbEntity
  8
0
 48
50.0
100
AcDbBlockEnd
  0
BLOCK
  5
1DA72
330
1DA69
100
AcDbEntity
  8
0
 48
50.0
100
AcDbBlockBegin
  2
*D5
 70
     1
 10
0.0
 20
0.0
 30
0.0
  3
*D5
  1

  0
LINE
  5
1F26B
330
1DA69
100
AcDbEntity
  8
寸法
 62
     0
 48
50.0
370
    -2
100
AcDbLine
 10
7323.599999999998
 20
7039.246300175034
 30
0.0
 11
7323.599999999998
 21
7896.767606081801
 31
0.0
  0
LINE
  5
1F26C
330
1DA69
100
AcDbEntity
  8
寸法
 62
     0
 48
50.0
370
    -2
100
AcDbLine
 10
8863.599999999998
 20
7039.246300175034
 30
0.0
 11
8863.599999999998
 21
7896.767606081801
 31
0.0
  0
LINE
  5
1F26D
330
1DA69
100
AcDbEntity
  8
寸法
 62
     0
 48
50.0
370
    -2
100
AcDbLine
 10
7323.599999999998
 20
7836.767606081801
 30
0.0
 11
8863.599999999998
 21
7836.767606081801
 31
0.0
  0
INSERT
  5
1F26E
330
1DA69
100
AcDbEntity
  8
寸法
 62
     0
 48
50.0
370
    -2
100
AcDbBlockReference
  2
_DOTSMALL
 10
7323.599999999998
 20
7836.767606081801
 30
0.0
 41
100.0
 42
100.0
 43
100.0
 50
180.0
  0
INSERT
  5
1F26F
330
1DA69
100
AcDbEntity
  8
寸法
 62
     0
 48
50.0
370
    -2
100
AcDbBlockReference
  2
_DOTSMALL
 10
8863.599999999998
 20
7836.767606081801
 30
0.0
 41
100.0
 42
100.0
 43
100.0
  0
MTEXT
  5
1F270
330
1DA69
100
AcDbEntity
  8
寸法
 62
     7
 48
50.0
100
AcDbMText
 10
8093.6
 20
7936.767606081801
 30
0.0
 40
120.0
 41
0.0
 71
     5
 72
     1
  1
\A1;1540
  7
STYLE1
 73
     1
 44
1.0
1001
ACAD
1000
MTEXTBEGIN
1070
    73
1070
     1
1070
    44
1040
1.0
1070
    74
1070
     0
1000
MTEXTEND
  0
POINT
  5
1F271
330
1DA69
100
AcDbEntity
  8
DEFPOINTS
 62
     0
 48
50.0
100
AcDbPoint
 10
7323.599999999998
 20
7019.246300175035
 30
0.0
  0
POINT
  5
1F272
330
1DA69
100
AcDbEntity
  8
DEFPOINTS
 62
     0
 48
50.0
100
AcDbPoint
 10
8863.599999999998
 20
7019.246300175035
 30
0.0
  0
POINT
  5
1F273
330
1DA69
100
AcDbEntity
  8
DEFPOINTS
 62
     0
 48
50.0
100
AcDbPoint
 10
8863.599999999998
 20
7836.767606081801
 30
0.0
  0
ENDBLK
  5
1DA73
330
1DA69
100
AcDbEntity
  8
0
 48
50.0
100
AcDbBlockEnd
  0
BLOCK
  5
1DA7F
330
1DA74
100
AcDbEntity
  8
0
 48
50.0
100
AcDbBlockBegin
  2
*D6
 70
     1
 10
0.0
 20
0.0
 30
0.0
  3
*D6
  1

  0
LINE
  5
1F261
330
1DA74
100
AcDbEntity
  8
寸法
 62
     0
 48
50.0
370
    -2
100
AcDbLine
 10
7446.6
 20
6966.246300175035
 30
0.0
 11
7446.6
 21
7684.306910564965
 31
0.0
  0
LINE
  5
1F262
330
1DA74
100
AcDbEntity
  8
寸法
 62
     0
 48
50.0
370
    -2
100
AcDbLine
 10
7323.599999999998
 20
7039.246300175034
 30
0.0
 11
7323.599999999998
 21
7684.306910564965
 31
0.0
  0
LINE
  5
1F263
330
1DA74
100
AcDbEntity
  8
寸法
 62
     0
 48
50.0
370
    -2
100
AcDbLine
 10
7446.6
 20
7624.306910564965
 30
0.0
 11
7323.599999999998
 21
7624.306910564965
 31
0.0
  0
LINE
  5
1F264
330
1DA74
100
AcDbEntity
  8
寸法
 62
     0
 48
50.0
370
    -2
100
AcDbLine
 10
7323.599999999998
 20
7624.306910564965
 30
0.0
 11
6946.62943725152
 21
7624.306910564965
 31
0.0
  0
INSERT
  5
1F265
330
1DA74
100
AcDbEntity
  8
寸法
 62
     0
 48
50.0
370
    -2
100
AcDbBlockReference
  2
_DOTSMALL
 10
7446.6
 20
7624.306910564965
 30
0.0
 41
100.0
 42
100.0
 43
100.0
  0
INSERT
  5
1F266
330
1DA74
100
AcDbEntity
  8
寸法
 62
     0
 48
50.0
370
    -2
100
AcDbBlockReference
  2
_DOTSMALL
 10
7323.599999999998
 20
7624.306910564965
 30
0.0
 41
100.0
 42
100.0
 43
100.0
 50
180.0
  0
MTEXT
  5
1F267
330
1DA74
100
AcDbEntity
  8
寸法
 62
     7
 48
50.0
100
AcDbMText
 10
7085.11471862576
 20
7724.318721588587
 30
0.0
 40
120.0
 41
0.0
 71
     5
 72
     1
  1
\A1;123
  7
STYLE1
 73
     1
 44
1.0
1001
ACAD
1000
MTEXTBEGIN
1070
    73
1070
     1
1070
    44
1040
1.0
1070
    74
1070
     0
1000
MTEXTEND
  0
POINT
  5
1F268
330
1DA74
100
AcDbEntity
  8
DEFPOINTS
 62
     0
 48
50.0
100
AcDbPoint
 10
7446.6
 20
6946.246300175035
 30
0.0
  0
POINT
  5
1F269
330
1DA74
100
AcDbEntity
  8
DEFPOINTS
 62
     0
 48
50.0
100
AcDbPoint
 10
7323.599999999998
 20
7019.246300175035
 30
0.0
  0
POINT
  5
1F26A
330
1DA74
100
AcDbEntity
  8
DEFPOINTS
 62
     0
 48
50.0
100
AcDbPoint
 10
7323.599999999998
 20
7624.306910564965
 30
0.0
  0
ENDBLK
  5
1DA80
330
1DA74
100
AcDbEntity
  8
0
 48
50.0
100
AcDbBlockEnd
  0
BLOCK
  5
1DA8C
330
1DA81
100
AcDbEntity
  8
0
 48
50.0
100
AcDbBlockBegin
  2
*D7
 70
     1
 10
0.0
 20
0.0
 30
0.0
  3
*D7
  1

  0
LINE
  5
1F256
330
1DA81
100
AcDbEntity
  8
寸法
 62
     0
 48
50.0
370
    -2
100
AcDbLine
 10
7278.599999999994
 20
7644.306910564965
 30
0.0
 11
7278.599999999994
 21
7896.767606081803
 31
0.0
  0
LINE
  5
1F257
330
1DA81
100
AcDbEntity
  8
寸法
 62
     0
 48
50.0
370
    -2
100
AcDbLine
 10
7323.599999999998
 20
7039.246300175034
 30
0.0
 11
7323.599999999998
 21
7896.767606081803
 31
0.0
  0
LINE
  5
1F258
330
1DA81
100
AcDbEntity
  8
寸法
 62
     0
 48
50.0
370
    -2
100
AcDbLine
 10
7278.599999999994
 20
7836.767606081803
 30
0.0
 11
7178.599999999994
 21
7836.767606081803
 31
0.0
  0
LINE
  5
1F259
330
1DA81
100
AcDbEntity
  8
寸法
 62
     0
 48
50.0
370
    -2
100
AcDbLine
 10
7323.599999999998
 20
7836.767606081803
 30
0.0
 11
7423.599999999999
 21
7836.767606081803
 31
0.0
  0
LINE
  5
1F25A
330
1DA81
100
AcDbEntity
  8
寸法
 62
     0
 48
50.0
370
    -2
100
AcDbLine
 10
7278.599999999994
 20
7836.767606081803
 30
0.0
 11
7323.599999999998
 21
7836.767606081803
 31
0.0
  0
INSERT
  5
1F25B
330
1DA81
100
AcDbEntity
  8
寸法
 62
     0
 48
50.0
370
    -2
100
AcDbBlockReference
  2
_DOTSMALL
 10
7278.599999999994
 20
7836.767606081803
 30
0.0
 41
100.0
 42
100.0
 43
100.0
  0
INSERT
  5
1F25C
330
1DA81
100
AcDbEntity
  8
寸法
 62
     0
 48
50.0
370
    -2
100
AcDbBlockReference
  2
_DOTSMALL
 10
7323.599999999998
 20
7836.767606081803
 30
0.0
 41
100.0
 42
100.0
 43
100.0
 50
180.0
  0
MTEXT
  5
1F25D
330
1DA81
100
AcDbEntity
  8
寸法
 62
     7
 48
50.0
100
AcDbMText
 10
7301.099999999997
 20
7936.767606081803
 30
0.0
 40
120.0
 41
0.0
 71
     5
 72
     1
  1
\A1;a
  7
STYLE1
 73
     1
 44
1.0
1001
ACAD
1000
MTEXTBEGIN
1070
    73
1070
     1
1070
    44
1040
1.0
1070
    74
1070
     0
1000
MTEXTEND
  0
POINT
  5
1F25E
330
1DA81
100
AcDbEntity
  8
DEFPOINTS
 62
     0
 48
50.0
100
AcDbPoint
 10
7278.599999999994
 20
7624.306910564965
 30
0.0
  0
POINT
  5
1F25F
330
1DA81
100
AcDbEntity
  8
DEFPOINTS
 62
     0
 48
50.0
100
AcDbPoint
 10
7323.599999999998
 20
7019.246300175035
 30
0.0
  0
POINT
  5
1F260
330
1DA81
100
AcDbEntity
  8
DEFPOINTS
 62
     0
 48
50.0
100
AcDbPoint
 10
7323.599999999998
 20
7836.767606081803
 30
0.0
  0
ENDBLK
  5
1DA8D
330
1DA81
100
AcDbEntity
  8
0
 48
50.0
100
AcDbBlockEnd
  0
BLOCK
  5
1DA98
330
1DA8E
100
AcDbEntity
  8
0
 48
50.0
100
AcDbBlockBegin
  2
*D8
 70
     1
 10
0.0
 20
0.0
 30
0.0
  3
*D8
  1

  0
LINE
  5
1F24D
330
1DA8E
100
AcDbEntity
  8
寸法
 62
     0
 48
50.0
370
    -2
100
AcDbLine
 10
7376.599999999999
 20
6896.246300175035
 30
0.0
 11
6767.657733986176
 21
6896.246300175035
 31
0.0
  0
LINE
  5
1F24E
330
1DA8E
100
AcDbEntity
  8
寸法
 62
     0
 48
50.0
370
    -2
100
AcDbLine
 10
7376.600000000006
 20
6257.246300175037
 30
0.0
 11
6767.657733986176
 21
6257.246300175037
 31
0.0
  0
LINE
  5
1F24F
330
1DA8E
100
AcDbEntity
  8
寸法
 62
     0
 48
50.0
370
    -2
100
AcDbLine
 10
6827.657733986177
 20
6896.246300175035
 30
0.0
 11
6827.657733986177
 21
6257.246300175037
 31
0.0
  0
INSERT
  5
1F250
330
1DA8E
100
AcDbEntity
  8
寸法
 62
     0
 48
50.0
370
    -2
100
AcDbBlockReference
  2
_DOTSMALL
 10
6827.657733986177
 20
6896.246300175035
 30
0.0
 41
100.0
 42
100.0
 43
100.0
 50
90.0
  0
INSERT
  5
1F251
330
1DA8E
100
AcDbEntity
  8
寸法
 62
     0
 48
50.0
370
    -2
100
AcDbBlockReference
  2
_DOTSMALL
 10
6827.657733986177
 20
6257.246300175037
 30
0.0
 41
100.0
 42
100.0
 43
100.0
 50
270.0
  0
MTEXT
  5
1F252
330
1DA8E
100
AcDbEntity
  8
寸法
 62
     7
 48
50.0
100
AcDbMText
 10
6727.657733986174
 20
6539.246300175034
 30
0.0
 40
120.0
 41
0.0
 71
     5
 72
     1
  1
\A1;639
  7
STYLE1
 11
0.0000000000000001
 21
1.0
 31
0.0
 73
     1
 44
1.0
1001
ACAD
1000
MTEXTBEGIN
1070
    73
1070
     1
1070
    44
1040
1.0
1070
    74
1070
     0
1000
MTEXTEND
  0
POINT
  5
1F253
330
1DA8E
100
AcDbEntity
  8
DEFPOINTS
 62
     0
 48
50.0
100
AcDbPoint
 10
7396.599999999999
 20
6896.246300175035
 30
0.0
  0
POINT
  5
1F254
330
1DA8E
100
AcDbEntity
  8
DEFPOINTS
 62
     0
 48
50.0
100
AcDbPoint
 10
7396.600000000006
 20
6257.246300175037
 30
0.0
  0
POINT
  5
1F255
330
1DA8E
100
AcDbEntity
  8
DEFPOINTS
 62
     0
 48
50.0
100
AcDbPoint
 10
6827.657733986177
 20
6257.246300175037
 30
0.0
  0
ENDBLK
  5
1DA99
330
1DA8E
100
AcDbEntity
  8
0
 48
50.0
100
AcDbBlockEnd
  0
BLOCK
  5
1DAA3
330
1DA9A
100
AcDbEntity
  8
0
 48
50.0
100
AcDbBlockBegin
  2
*D9
 70
     1
 10
0.0
 20
0.0
 30
0.0
  3
*D9
  1

  0
LINE
  5
1F244
330
1DA9A
100
AcDbEntity
  8
寸法
 62
     0
 48
50.0
370
    -2
100
AcDbLine
 10
7303.599999999999
 20
7019.246300175035
 30
0.0
 11
6522.164931848213
 21
7019.246300175035
 31
0.0
  0
LINE
  5
1F245
330
1DA9A
100
AcDbEntity
  8
寸法
 62
     0
 48
50.0
370
    -2
100
AcDbLine
 10
7303.599999999999
 20
6059.246300175034
 30
0.0
 11
6522.164931848212
 21
6059.246300175034
 31
0.0
  0
LINE
  5
1F246
330
1DA9A
100
AcDbEntity
  8
寸法
 62
     0
 48
50.0
370
    -2
100
AcDbLine
 10
6582.164931848213
 20
7019.246300175035
 30
0.0
 11
6582.164931848213
 21
6059.246300175034
 31
0.0
  0
INSERT
  5
1F247
330
1DA9A
100
AcDbEntity
  8
寸法
 62
     0
 48
50.0
370
    -2
100
AcDbBlockReference
  2
_DOTSMALL
 10
6582.164931848213
 20
7019.246300175035
 30
0.0
 41
100.0
 42
100.0
 43
100.0
 50
90.0
  0
INSERT
  5
1F248
330
1DA9A
100
AcDbEntity
  8
寸法
 62
     0
 48
50.0
370
    -2
100
AcDbBlockReference
  2
_DOTSMALL
 10
6582.164931848213
 20
6059.246300175034
 30
0.0
 41
100.0
 42
100.0
 43
100.0
 50
270.0
  0
MTEXT
  5
1F249
330
1DA9A
100
AcDbEntity
  8
寸法
 62
     7
 48
50.0
100
AcDbMText
 10
6482.164931848211
 20
6539.246300175034
 30
0.0
 40
120.0
 41
0.0
 71
     5
 72
     1
  1
\A1;960
  7
STYLE1
 11
0.0000000000000001
 21
1.0
 31
0.0
 73
     1
 44
1.0
1001
ACAD
1000
MTEXTBEGIN
1070
    73
1070
     1
1070
    44
1040
1.0
1070
    74
1070
     0
1000
MTEXTEND
  0
POINT
  5
1F24A
330
1DA9A
100
AcDbEntity
  8
DEFPOINTS
 62
     0
 48
50.0
100
AcDbPoint
 10
7323.599999999998
 20
7019.246300175035
 30
0.0
  0
POINT
  5
1F24B
330
1DA9A
100
AcDbEntity
  8
DEFPOINTS
 62
     0
 48
50.0
100
AcDbPoint
 10
7323.599999999998
 20
6059.246300175034
 30
0.0
  0
POINT
  5
1F24C
330
1DA9A
100
AcDbEntity
  8
DEFPOINTS
 62
     0
 48
50.0
100
AcDbPoint
 10
6582.164931848213
 20
6059.246300175034
 30
0.0
  0
ENDBLK
  5
1DAA4
330
1DA9A
100
AcDbEntity
  8
0
 48
50.0
100
AcDbBlockEnd
  0
BLOCK
  5
1DAB0
330
1DAA5
100
AcDbEntity
  8
0
 48
50.0
100
AcDbBlockBegin
  2
*D10
 70
     1
 10
0.0
 20
0.0
 30
0.0
  3
*D10
  1

  0
LINE
  5
1F23A
330
1DAA5
100
AcDbEntity
  8
寸法
 62
     0
 48
50.0
370
    -2
100
AcDbLine
 10
7376.600000000006
 20
6257.246300175037
 30
0.0
 11
6767.657733986178
 21
6257.246300175037
 31
0.0
  0
LINE
  5
1F23B
330
1DAA5
100
AcDbEntity
  8
寸法
 62
     0
 48
50.0
370
    -2
100
AcDbLine
 10
7303.599999999999
 20
6059.246300175034
 30
0.0
 11
6767.657733986176
 21
6059.246300175034
 31
0.0
  0
LINE
  5
1F23C
330
1DAA5
100
AcDbEntity
  8
寸法
 62
     0
 48
50.0
370
    -2
100
AcDbLine
 10
6827.657733986177
 20
6257.246300175037
 30
0.0
 11
6827.657733986177
 21
6059.246300175034
 31
0.0
  0
LINE
  5
1F23D
330
1DAA5
100
AcDbEntity
  8
寸法
 62
     0
 48
50.0
370
    -2
100
AcDbLine
 10
6827.657733986177
 20
6059.246300175034
 30
0.0
 11
6827.657733986177
 21
5686.826980515721
 31
0.0
  0
INSERT
  5
1F23E
330
1DAA5
100
AcDbEntity
  8
寸法
 62
     0
 48
50.0
370
    -2
100
AcDbBlockReference
  2
_DOTSMALL
 10
6827.657733986177
 20
6257.246300175037
 30
0.0
 41
100.0
 42
100.0
 43
100.0
 50
90.0
  0
INSERT
  5
1F23F
330
1DAA5
100
AcDbEntity
  8
寸法
 62
     0
 48
50.0
370
    -2
100
AcDbBlockReference
  2
_DOTSMALL
 10
6827.657733986177
 20
6059.246300175034
 30
0.0
 41
100.0
 42
100.0
 43
100.0
 50
270.0
  0
MTEXT
  5
1F240
330
1DAA5
100
AcDbEntity
  8
寸法
 62
     7
 48
50.0
100
AcDbMText
 10
6727.657733986176
 20
5823.03664034538
 30
0.0
 40
120.0
 41
0.0
 71
     5
 72
     1
  1
\A1;198
  7
STYLE1
 11
0.0000000000000001
 21
1.0
 31
0.0
 73
     1
 44
1.0
1001
ACAD
1000
MTEXTBEGIN
1070
    73
1070
     1
1070
    44
1040
1.0
1070
    74
1070
     0
1000
MTEXTEND
  0
POINT
  5
1F241
330
1DAA5
100
AcDbEntity
  8
DEFPOINTS
 62
     0
 48
50.0
100
AcDbPoint
 10
7396.600000000006
 20
6257.246300175037
 30
0.0
  0
POINT
  5
1F242
330
1DAA5
100
AcDbEntity
  8
DEFPOINTS
 62
     0
 48
50.0
100
AcDbPoint
 10
7323.599999999998
 20
6059.246300175034
 30
0.0
  0
POINT
  5
1F243
330
1DAA5
100
AcDbEntity
  8
DEFPOINTS
 62
     0
 48
50.0
100
AcDbPoint
 10
6827.657733986177
 20
6059.246300175034
 30
0.0
  0
ENDBLK
  5
1DAB1
330
1DAA5
100
AcDbEntity
  8
0
 48
50.0
100
AcDbBlockEnd
  0
BLOCK
  5
1DABC
330
1DAB2
100
AcDbEntity
  8
0
 48
50.0
100
AcDbBlockBegin
  2
*D11
 70
     1
 10
0.0
 20
0.0
 30
0.0
  3
*D11
  1

  0
LINE
  5
1F22F
330
1DAB2
100
AcDbEntity
  8
寸法
 62
     0
 48
50.0
370
    -2
100
AcDbLine
 10
7303.599999999999
 20
6059.246300175034
 30
0.0
 11
6522.164931848211
 21
6059.246300175034
 31
0.0
  0
LINE
  5
1F230
330
1DAB2
100
AcDbEntity
  8
寸法
 62
     0
 48
50.0
370
    -2
100
AcDbLine
 10
6807.657733986177
 20
6004.246300175035
 30
0.0
 11
6522.164931848211
 21
6004.246300175035
 31
0.0
  0
LINE
  5
1F231
330
1DAB2
100
AcDbEntity
  8
寸法
 62
     0
 48
50.0
370
    -2
100
AcDbLine
 10
6582.16493184821
 20
6059.246300175034
 30
0.0
 11
6582.164931848211
 21
6159.246300175034
 31
0.0
  0
LINE
  5
1F232
330
1DAB2
100
AcDbEntity
  8
寸法
 62
     0
 48
50.0
370
    -2
100
AcDbLine
 10
6582.16493184821
 20
6004.246300175035
 30
0.0
 11
6582.16493184821
 21
5904.246300175035
 31
0.0
  0
LINE
  5
1F233
330
1DAB2
100
AcDbEntity
  8
寸法
 62
     0
 48
50.0
370
    -2
100
AcDbLine
 10
6582.16493184821
 20
6059.246300175034
 30
0.0
 11
6582.16493184821
 21
6004.246300175035
 31
0.0
  0
INSERT
  5
1F234
330
1DAB2
100
AcDbEntity
  8
寸法
 62
     0
 48
50.0
370
    -2
100
AcDbBlockReference
  2
_DOTSMALL
 10
6582.16493184821
 20
6059.246300175034
 30
0.0
 41
100.0
 42
100.0
 43
100.0
 50
270.0
  0
INSERT
  5
1F235
330
1DAB2
100
AcDbEntity
  8
寸法
 62
     0
 48
50.0
370
    -2
100
AcDbBlockReference
  2
_DOTSMALL
 10
6582.16493184821
 20
6004.246300175035
 30
0.0
 41
100.0
 42
100.0
 43
100.0
 50
90.0
  0
MTEXT
  5
1F236
330
1DAB2
100
AcDbEntity
  8
寸法
 62
     7
 48
50.0
100
AcDbMText
 10
6482.16493184821
 20
6031.746300175036
 30
0.0
 40
120.0
 41
0.0
 71
     5
 72
     1
  1
\A1;b
  7
STYLE1
 11
0.0000000000000001
 21
1.0
 31
0.0
 73
     1
 44
1.0
1001
ACAD
1000
MTEXTBEGIN
1070
    73
1070
     1
1070
    44
1040
1.0
1070
    74
1070
     0
1000
MTEXTEND
  0
POINT
  5
1F237
330
1DAB2
100
AcDbEntity
  8
DEFPOINTS
 62
     0
 48
50.0
100
AcDbPoint
 10
7323.599999999998
 20
6059.246300175034
 30
0.0
  0
POINT
  5
1F238
330
1DAB2
100
AcDbEntity
  8
DEFPOINTS
 62
     0
 48
50.0
100
AcDbPoint
 10
6827.657733986177
 20
6004.246300175035
 30
0.0
  0
POINT
  5
1F239
330
1DAB2
100
AcDbEntity
  8
DEFPOINTS
 62
     0
 48
50.0
100
AcDbPoint
 10
6582.16493184821
 20
6004.246300175035
 30
0.0
  0
ENDBLK
  5
1DABD
330
1DAB2
100
AcDbEntity
  8
0
 48
50.0
100
AcDbBlockEnd
  0
BLOCK
  5
1DAC9
330
1DABE
100
AcDbEntity
  8
0
 48
50.0
100
AcDbBlockBegin
  2
*D12
 70
     1
 10
0.0
 20
0.0
 30
0.0
  3
*D12
  1

  0
LINE
  5
1F225
330
1DABE
100
AcDbEntity
  8
寸法
 62
     0
 48
50.0
370
    -2
100
AcDbLine
 10
7303.599999999999
 20
7019.246300175035
 30
0.0
 11
6767.657733986178
 21
7019.246300175035
 31
0.0
  0
LINE
  5
1F226
330
1DABE
100
AcDbEntity
  8
寸法
 62
     0
 48
50.0
370
    -2
100
AcDbLine
 10
7376.599999999999
 20
6896.246300175035
 30
0.0
 11
6767.657733986178
 21
6896.246300175035
 31
0.0
  0
LINE
  5
1F227
330
1DABE
100
AcDbEntity
  8
寸法
 62
     0
 48
50.0
370
    -2
100
AcDbLine
 10
6827.657733986177
 20
6896.246300175035
 30
0.0
 11
6827.657733986177
 21
7019.246300175035
 31
0.0
  0
LINE
  5
1F228
330
1DABE
100
AcDbEntity
  8
寸法
 62
     0
 48
50.0
370
    -2
100
AcDbLine
 10
6827.657733986177
 20
7019.246300175035
 30
0.0
 11
6827.657733986177
 21
7396.216862923512
 31
0.0
  0
INSERT
  5
1F229
330
1DABE
100
AcDbEntity
  8
寸法
 62
     0
 48
50.0
370
    -2
100
AcDbBlockReference
  2
_DOTSMALL
 10
6827.657733986177
 20
6896.246300175035
 30
0.0
 41
100.0
 42
100.0
 43
100.0
 50
270.0
  0
INSERT
  5
1F22A
330
1DABE
100
AcDbEntity
  8
寸法
 62
     0
 48
50.0
370
    -2
100
AcDbBlockReference
  2
_DOTSMALL
 10
6827.657733986177
 20
7019.246300175035
 30
0.0
 41
100.0
 42
100.0
 43
100.0
 50
90.0
  0
MTEXT
  5
1F22B
330
1DABE
100
AcDbEntity
  8
寸法
 62
     7
 48
50.0
100
AcDbMText
 10
6727.645922962555
 20
7257.731581549276
 30
0.0
 40
120.0
 41
0.0
 71
     5
 72
     1
  1
\A1;123
  7
STYLE1
 11
0.0000000000000001
 21
1.0
 31
0.0
 73
     1
 44
1.0
1001
ACAD
1000
MTEXTBEGIN
1070
    73
1070
     1
1070
    44
1040
1.0
1070
    74
1070
     0
1000
MTEXTEND
  0
POINT
  5
1F22C
330
1DABE
100
AcDbEntity
  8
DEFPOINTS
 62
     0
 48
50.0
100
AcDbPoint
 10
7323.599999999998
 20
7019.246300175035
 30
0.0
  0
POINT
  5
1F22D
330
1DABE
100
AcDbEntity
  8
DEFPOINTS
 62
     0
 48
50.0
100
AcDbPoint
 10
7396.599999999999
 20
6896.246300175035
 30
0.0
  0
POINT
  5
1F22E
330
1DABE
100
AcDbEntity
  8
DEFPOINTS
 62
     0
 48
50.0
100
AcDbPoint
 10
6827.657733986177
 20
6896.246300175035
 30
0.0
  0
ENDBLK
  5
1DACA
330
1DABE
100
AcDbEntity
  8
0
 48
50.0
100
AcDbBlockEnd
  0
BLOCK
  5
1DAD7
330
1DACB
100
AcDbEntity
  8
0
 48
50.0
100
AcDbBlockBegin
  2
*D13
 70
     1
 10
0.0
 20
0.0
 30
0.0
  3
*D13
  1

  0
LINE
  5
1F21A
330
1DACB
100
AcDbEntity
  8
寸法
 62
     0
 48
50.0
370
    -2
100
AcDbLine
 10
6807.657733986179
 20
7094.246300175035
 30
0.0
 11
6522.164931848211
 21
7094.246300175035
 31
0.0
  0
LINE
  5
1F21B
330
1DACB
100
AcDbEntity
  8
寸法
 62
     0
 48
50.0
370
    -2
100
AcDbLine
 10
7303.599999999999
 20
7019.246300175035
 30
0.0
 11
6522.164931848211
 21
7019.246300175035
 31
0.0
  0
LINE
  5
1F21C
330
1DACB
100
AcDbEntity
  8
寸法
 62
     0
 48
50.0
370
    -2
100
AcDbLine
 10
6582.16493184821
 20
7094.246300175035
 30
0.0
 11
6582.16493184821
 21
7194.246300175035
 31
0.0
  0
LINE
  5
1F21D
330
1DACB
100
AcDbEntity
  8
寸法
 62
     0
 48
50.0
370
    -2
100
AcDbLine
 10
6582.16493184821
 20
7019.246300175035
 30
0.0
 11
6582.16493184821
 21
6919.246300175036
 31
0.0
  0
LINE
  5
1F21E
330
1DACB
100
AcDbEntity
  8
寸法
 62
     0
 48
50.0
370
    -2
100
AcDbLine
 10
6582.16493184821
 20
7094.246300175035
 30
0.0
 11
6582.16493184821
 21
7019.246300175035
 31
0.0
  0
INSERT
  5
1F21F
330
1DACB
100
AcDbEntity
  8
寸法
 62
     0
 48
50.0
370
    -2
100
AcDbBlockReference
  2
_DOTSMALL
 10
6582.16493184821
 20
7094.246300175035
 30
0.0
 41
100.0
 42
100.0
 43
100.0
 50
270.0
  0
INSERT
  5
1F220
330
1DACB
100
AcDbEntity
  8
寸法
 62
     0
 48
50.0
370
    -2
100
AcDbBlockReference
  2
_DOTSMALL
 10
6582.16493184821
 20
7019.246300175035
 30
0.0
 41
100.0
 42
100.0
 43
100.0
 50
90.0
  0
MTEXT
  5
1F221
330
1DACB
100
AcDbEntity
  8
寸法
 62
     7
 48
50.0
100
AcDbMText
 10
6482.164931848209
 20
7056.746300175037
 30
0.0
 40
120.0
 41
0.0
 71
     5
 72
     1
  1
\A1;c
  7
STYLE1
 11
0.0000000000000001
 21
1.0
 31
0.0
 73
     1
 44
1.0
1001
ACAD
1000
MTEXTBEGIN
1070
    73
1070
     1
1070
    44
1040
1.0
1070
    74
1070
     0
1000
MTEXTEND
  0
POINT
  5
1F222
330
1DACB
100
AcDbEntity
  8
DEFPOINTS
 62
     0
 48
50.0
100
AcDbPoint
 10
6827.657733986177
 20
7094.246300175035
 30
0.0
  0
POINT
  5
1F223
330
1DACB
100
AcDbEntity
  8
DEFPOINTS
 62
     0
 48
50.0
100
AcDbPoint
 10
7323.599999999998
 20
7019.246300175035
 30
0.0
  0
POINT
  5
1F224
330
1DACB
100
AcDbEntity
  8
DEFPOINTS
 62
     0
 48
50.0
100
AcDbPoint
 10
6582.16493184821
 20
7019.246300175035
 30
0.0
  0
ENDBLK
  5
1DAD8
330
1DACB
100
AcDbEntity
  8
0
 48
50.0
100
AcDbBlockEnd
  0
BLOCK
  5
1DAE4
330
1DAD9
100
AcDbEntity
  8
0
 48
50.0
100
AcDbBlockBegin
  2
*D14
 70
     1
 10
0.0
 20
0.0
 30
0.0
  3
*D14
  1

  0
LINE
  5
1F210
330
1DAD9
100
AcDbEntity
  8
寸法
 62
     0
 48
50.0
370
    -2
100
AcDbLine
 10
8863.599999999998
 20
7039.246300175034
 30
0.0
 11
8863.599999999998
 21
7684.306910564965
 31
0.0
  0
LINE
  5
1F211
330
1DAD9
100
AcDbEntity
  8
寸法
 62
     0
 48
50.0
370
    -2
100
AcDbLine
 10
8740.599999999998
 20
6966.246300175035
 30
0.0
 11
8740.599999999998
 21
7684.306910564965
 31
0.0
  0
LINE
  5
1F212
330
1DAD9
100
AcDbEntity
  8
寸法
 62
     0
 48
50.0
370
    -2
100
AcDbLine
 10
8740.599999999998
 20
7624.306910564965
 30
0.0
 11
8863.599999999998
 21
7624.306910564965
 31
0.0
  0
LINE
  5
1F213
330
1DAD9
100
AcDbEntity
  8
寸法
 62
     0
 48
50.0
370
    -2
100
AcDbLine
 10
8863.599999999998
 20
7624.306910564965
 30
0.0
 11
9240.570562748475
 21
7624.306910564965
 31
0.0
  0
INSERT
  5
1F214
330
1DAD9
100
AcDbEntity
  8
寸法
 62
     0
 48
50.0
370
    -2
100
AcDbBlockReference
  2
_DOTSMALL
 10
8740.599999999998
 20
7624.306910564965
 30
0.0
 41
100.0
 42
100.0
 43
100.0
 50
180.0
  0
INSERT
  5
1F215
330
1DAD9
100
AcDbEntity
  8
寸法
 62
     0
 48
50.0
370
    -2
100
AcDbBlockReference
  2
_DOTSMALL
 10
8863.599999999998
 20
7624.306910564965
 30
0.0
 41
100.0
 42
100.0
 43
100.0
  0
MTEXT
  5
1F216
330
1DAD9
100
AcDbEntity
  8
寸法
 62
     7
 48
50.0
100
AcDbMText
 10
9102.085281374236
 20
7724.318721588587
 30
0.0
 40
120.0
 41
0.0
 71
     5
 72
     1
  1
\A1;123
  7
STYLE1
 73
     1
 44
1.0
1001
ACAD
1000
MTEXTBEGIN
1070
    73
1070
     1
1070
    44
1040
1.0
1070
    74
1070
     0
1000
MTEXTEND
  0
POINT
  5
1F217
330
1DAD9
100
AcDbEntity
  8
DEFPOINTS
 62
     0
 48
50.0
100
AcDbPoint
 10
8863.599999999998
 20
7019.246300175035
 30
0.0
  0
POINT
  5
1F218
330
1DAD9
100
AcDbEntity
  8
DEFPOINTS
 62
     0
 48
50.0
100
AcDbPoint
 10
8740.599999999998
 20
6946.246300175035
 30
0.0
  0
POINT
  5
1F219
330
1DAD9
100
AcDbEntity
  8
DEFPOINTS
 62
     0
 48
50.0
100
AcDbPoint
 10
8740.599999999998
 20
7624.306910564965
 30
0.0
  0
ENDBLK
  5
1DAE5
330
1DAD9
100
AcDbEntity
  8
0
 48
50.0
100
AcDbBlockEnd
  0
BLOCK
  5
1DAF1
330
1DAE6
100
AcDbEntity
  8
0
 48
50.0
100
AcDbBlockBegin
  2
*D15
 70
     1
 10
0.0
 20
0.0
 30
0.0
  3
*D15
  1

  0
LINE
  5
1F205
330
1DAE6
100
AcDbEntity
  8
寸法
 62
     0
 48
50.0
370
    -2
100
AcDbLine
 10
8863.599999999998
 20
7039.246300175034
 30
0.0
 11
8863.599999999998
 21
7896.767606081801
 31
0.0
  0
LINE
  5
1F206
330
1DAE6
100
AcDbEntity
  8
寸法
 62
     0
 48
50.0
370
    -2
100
AcDbLine
 10
8908.599999999998
 20
7644.306910564965
 30
0.0
 11
8908.599999999998
 21
7896.767606081801
 31
0.0
  0
LINE
  5
1F207
330
1DAE6
100
AcDbEntity
  8
寸法
 62
     0
 48
50.0
370
    -2
100
AcDbLine
 10
8863.599999999998
 20
7836.767606081801
 30
0.0
 11
8763.599999999998
 21
7836.767606081801
 31
0.0
  0
LINE
  5
1F208
330
1DAE6
100
AcDbEntity
  8
寸法
 62
     0
 48
50.0
370
    -2
100
AcDbLine
 10
8908.599999999998
 20
7836.767606081801
 30
0.0
 11
9008.599999999999
 21
7836.767606081801
 31
0.0
  0
LINE
  5
1F209
330
1DAE6
100
AcDbEntity
  8
寸法
 62
     0
 48
50.0
370
    -2
100
AcDbLine
 10
8863.599999999998
 20
7836.767606081801
 30
0.0
 11
8908.599999999998
 21
7836.767606081801
 31
0.0
  0
INSERT
  5
1F20A
330
1DAE6
100
AcDbEntity
  8
寸法
 62
     0
 48
50.0
370
    -2
100
AcDbBlockReference
  2
_DOTSMALL
 10
8863.599999999998
 20
7836.767606081801
 30
0.0
 41
100.0
 42
100.0
 43
100.0
  0
INSERT
  5
1F20B
330
1DAE6
100
AcDbEntity
  8
寸法
 62
     0
 48
50.0
370
    -2
100
AcDbBlockReference
  2
_DOTSMALL
 10
8908.599999999998
 20
7836.767606081801
 30
0.0
 41
100.0
 42
100.0
 43
100.0
 50
180.0
  0
MTEXT
  5
1F20C
330
1DAE6
100
AcDbEntity
  8
寸法
 62
     7
 48
50.0
100
AcDbMText
 10
8886.099999999998
 20
7936.767606081801
 30
0.0
 40
120.0
 41
0.0
 71
     5
 72
     1
  1
\A1;a
  7
STYLE1
 73
     1
 44
1.0
1001
ACAD
1000
MTEXTBEGIN
1070
    73
1070
     1
1070
    44
1040
1.0
1070
    74
1070
     0
1000
MTEXTEND
  0
POINT
  5
1F20D
330
1DAE6
100
AcDbEntity
  8
DEFPOINTS
 62
     0
 48
50.0
100
AcDbPoint
 10
8863.599999999998
 20
7019.246300175035
 30
0.0
  0
POINT
  5
1F20E
330
1DAE6
100
AcDbEntity
  8
DEFPOINTS
 62
     0
 48
50.0
100
AcDbPoint
 10
8908.599999999998
 20
7624.306910564965
 30
0.0
  0
POINT
  5
1F20F
330
1DAE6
100
AcDbEntity
  8
DEFPOINTS
 62
     0
 48
50.0
100
AcDbPoint
 10
8908.599999999998
 20
7836.767606081801
 30
0.0
  0
ENDBLK
  5
1DAF2
330
1DAE6
100
AcDbEntity
  8
0
 48
50.0
100
AcDbBlockEnd
  0
BLOCK
  5
1DAFE
330
1DAF3
100
AcDbEntity
  8
0
 48
50.0
100
AcDbBlockBegin
  2
*D16
 70
     1
 10
0.0
 20
0.0
 30
0.0
  3
*D16
  1

  0
LINE
  5
1F907
330
1DAF3
100
AcDbEntity
  8
寸法
 62
     0
 48
50.0
370
    -2
100
AcDbLine
 10
8863.599999999998
 20
6619.246300175035
 30
0.0
 11
8863.599999999998
 21
6494.256477853152
 31
0.0
  0
LINE
  5
1F908
330
1DAF3
100
AcDbEntity
  8
寸法
 62
     0
 48
50.0
370
    -2
100
AcDbLine
 10
8743.599999999998
 20
6619.246300175035
 30
0.0
 11
8743.599999999998
 21
6494.256477853152
 31
0.0
  0
LINE
  5
1F909
330
1DAF3
100
AcDbEntity
  8
寸法
 62
     0
 48
50.0
370
    -2
100
AcDbLine
 10
8743.599999999998
 20
6554.256477853153
 30
0.0
 11
8863.599999999998
 21
6554.256477853153
 31
0.0
  0
LINE
  5
1F90A
330
1DAF3
100
AcDbEntity
  8
寸法
 62
     0
 48
50.0
370
    -2
100
AcDbLine
 10
8863.599999999998
 20
6554.256477853153
 30
0.0
 11
9235.694488188975
 21
6554.256477853153
 31
0.0
  0
INSERT
  5
1F90B
330
1DAF3
100
AcDbEntity
  8
寸法
 62
     0
 48
50.0
370
    -2
100
AcDbBlockReference
  2
_DOTSMALL
 10
8743.599999999998
 20
6554.256477853153
 30
0.0
 41
100.0
 42
100.0
 43
100.0
 50
180.0
  0
INSERT
  5
1F90C
330
1DAF3
100
AcDbEntity
  8
寸法
 62
     0
 48
50.0
370
    -2
100
AcDbBlockReference
  2
_DOTSMALL
 10
8863.599999999998
 20
6554.256477853153
 30
0.0
 41
100.0
 42
100.0
 43
100.0
  0
MTEXT
  5
1F90D
330
1DAF3
100
AcDbEntity
  8
寸法
 62
     7
 48
50.0
100
AcDbMText
 10
9099.647244094487
 20
6654.268288876775
 30
0.0
 40
120.0
 41
0.0
 71
     5
 72
     1
  1
\A1;120
  7
STYLE1
 73
     1
 44
1.0
1001
ACAD
1000
MTEXTBEGIN
1070
    73
1070
     1
1070
    44
1040
1.0
1070
    74
1070
     0
1000
MTEXTEND
  0
POINT
  5
1F90E
330
1DAF3
100
AcDbEntity
  8
DEFPOINTS
 62
     0
 48
50.0
100
AcDbPoint
 10
8863.599999999998
 20
6639.246300175035
 30
0.0
  0
POINT
  5
1F90F
330
1DAF3
100
AcDbEntity
  8
DEFPOINTS
 62
     0
 48
50.0
100
AcDbPoint
 10
8743.599999999998
 20
6639.246300175035
 30
0.0
  0
POINT
  5
1F910
330
1DAF3
100
AcDbEntity
  8
DEFPOINTS
 62
     0
 48
50.0
100
AcDbPoint
 10
8743.599999999998
 20
6554.256477853153
 30
0.0
  0
ENDBLK
  5
1DAFF
330
1DAF3
100
AcDbEntity
  8
0
 48
50.0
100
AcDbBlockEnd
  0
BLOCK
  5
1DB0B
330
1DB00
100
AcDbEntity
  8
0
 48
50.0
100
AcDbBlockBegin
  2
*D17
 70
     1
 10
0.0
 20
0.0
 30
0.0
  3
*D17
  1

  0
LINE
  5
1F8E9
330
1DB00
100
AcDbEntity
  8
寸法
 62
     0
 48
50.0
370
    -2
100
AcDbLine
 10
8613.599999999998
 20
6899.246300175033
 30
0.0
 11
8047.981646172166
 21
6899.246300175033
 31
0.0
  0
LINE
  5
1F8EA
330
1DB00
100
AcDbEntity
  8
寸法
 62
     0
 48
50.0
370
    -2
100
AcDbLine
 10
8613.599999999998
 20
6789.246300175033
 30
0.0
 11
8047.981646172166
 21
6789.246300175033
 31
0.0
  0
LINE
  5
1F8EB
330
1DB00
100
AcDbEntity
  8
寸法
 62
     0
 48
50.0
370
    -2
100
AcDbLine
 10
8107.981646172165
 20
6899.246300175033
 30
0.0
 11
8107.981646172165
 21
6789.246300175033
 31
0.0
  0
LINE
  5
1F8EC
330
1DB00
100
AcDbEntity
  8
寸法
 62
     0
 48
50.0
370
    -2
100
AcDbLine
 10
8107.981646172165
 20
6789.246300175033
 30
0.0
 11
8107.981646172165
 21
6429.151811986056
 31
0.0
  0
INSERT
  5
1F8ED
330
1DB00
100
AcDbEntity
  8
寸法
 62
     0
 48
50.0
370
    -2
100
AcDbBlockReference
  2
_DOTSMALL
 10
8107.981646172165
 20
6899.246300175033
 30
0.0
 41
100.0
 42
100.0
 43
100.0
 50
90.0
  0
INSERT
  5
1F8EE
330
1DB00
100
AcDbEntity
  8
寸法
 62
     0
 48
50.0
370
    -2
100
AcDbBlockReference
  2
_DOTSMALL
 10
8107.981646172165
 20
6789.246300175033
 30
0.0
 41
100.0
 42
100.0
 43
100.0
 50
270.0
  0
MTEXT
  5
1F8EF
330
1DB00
100
AcDbEntity
  8
寸法
 62
     7
 48
50.0
100
AcDbMText
 10
8007.981646172163
 20
6553.199056080543
 30
0.0
 40
120.0
 41
0.0
 71
     5
 72
     1
  1
\A1;110
  7
STYLE1
 11
0.0000000000000001
 21
1.0
 31
0.0
 73
     1
 44
1.0
1001
ACAD
1000
MTEXTBEGIN
1070
    73
1070
     1
1070
    44
1040
1.0
1070
    74
1070
     0
1000
MTEXTEND
  0
POINT
  5
1F8F0
330
1DB00
100
AcDbEntity
  8
DEFPOINTS
 62
     0
 48
50.0
100
AcDbPoint
 10
8633.599999999999
 20
6899.246300175033
 30
0.0
  0
POINT
  5
1F8F1
330
1DB00
100
AcDbEntity
  8
DEFPOINTS
 62
     0
 48
50.0
100
AcDbPoint
 10
8633.599999999999
 20
6789.246300175033
 30
0.0
  0
POINT
  5
1F8F2
330
1DB00
100
AcDbEntity
  8
DEFPOINTS
 62
     0
 48
50.0
100
AcDbPoint
 10
8107.981646172165
 20
6789.246300175033
 30
0.0
  0
ENDBLK
  5
1DB0C
330
1DB00
100
AcDbEntity
  8
0
 48
50.0
100
AcDbBlockEnd
  0
BLOCK
  5
1DB18
330
1DB0D
100
AcDbEntity
  8
0
 48
50.0
100
AcDbBlockBegin
  2
*D18
 70
     1
 10
0.0
 20
0.0
 30
0.0
  3
*D18
  1

  0
LINE
  5
1F8FD
330
1DB0D
100
AcDbEntity
  8
寸法
 62
     0
 48
50.0
370
    -2
100
AcDbLine
 10
8743.599999999998
 20
6619.246300175035
 30
0.0
 11
8743.599999999998
 21
6494.256477853152
 31
0.0
  0
LINE
  5
1F8FE
330
1DB0D
100
AcDbEntity
  8
寸法
 62
     0
 48
50.0
370
    -2
100
AcDbLine
 10
8633.599999999999
 20
6769.246300175033
 30
0.0
 11
8633.599999999999
 21
6494.256477853152
 31
0.0
  0
LINE
  5
1F8FF
330
1DB0D
100
AcDbEntity
  8
寸法
 62
     0
 48
50.0
370
    -2
100
AcDbLine
 10
8743.599999999998
 20
6554.256477853153
 30
0.0
 11
8633.599999999999
 21
6554.256477853153
 31
0.0
  0
LINE
  5
1F900
330
1DB0D
100
AcDbEntity
  8
寸法
 62
     0
 48
50.0
370
    -2
100
AcDbLine
 10
8633.599999999999
 20
6554.256477853153
 30
0.0
 11
8273.505511811022
 21
6554.256477853153
 31
0.0
  0
INSERT
  5
1F901
330
1DB0D
100
AcDbEntity
  8
寸法
 62
     0
 48
50.0
370
    -2
100
AcDbBlockReference
  2
_DOTSMALL
 10
8743.599999999998
 20
6554.256477853153
 30
0.0
 41
100.0
 42
100.0
 43
100.0
  0
INSERT
  5
1F902
330
1DB0D
100
AcDbEntity
  8
寸法
 62
     0
 48
50.0
370
    -2
100
AcDbBlockReference
  2
_DOTSMALL
 10
8633.599999999999
 20
6554.256477853153
 30
0.0
 41
100.0
 42
100.0
 43
100.0
 50
180.0
  0
MTEXT
  5
1F903
330
1DB0D
100
AcDbEntity
  8
寸法
 62
     7
 48
50.0
100
AcDbMText
 10
8397.552755905509
 20
6654.256477853152
 30
0.0
 40
120.0
 41
0.0
 71
     5
 72
     1
  1
\A1;110
  7
STYLE1
 73
     1
 44
1.0
1001
ACAD
1000
MTEXTBEGIN
1070
    73
1070
     1
1070
    44
1040
1.0
1070
    74
1070
     0
1000
MTEXTEND
  0
POINT
  5
1F904
330
1DB0D
100
AcDbEntity
  8
DEFPOINTS
 62
     0
 48
50.0
100
AcDbPoint
 10
8743.599999999998
 20
6639.246300175035
 30
0.0
  0
POINT
  5
1F905
330
1DB0D
100
AcDbEntity
  8
DEFPOINTS
 62
     0
 48
50.0
100
AcDbPoint
 10
8633.599999999999
 20
6789.246300175033
 30
0.0
  0
POINT
  5
1F906
330
1DB0D
100
AcDbEntity
  8
DEFPOINTS
 62
     0
 48
50.0
100
AcDbPoint
 10
8633.599999999999
 20
6554.256477853153
 30
0.0
  0
ENDBLK
  5
1DB19
330
1DB0D
100
AcDbEntity
  8
0
 48
50.0
100
AcDbBlockEnd
  0
BLOCK
  5
1DB25
330
1DB1A
100
AcDbEntity
  8
0
 48
50.0
100
AcDbBlockBegin
  2
*D19
 70
     1
 10
0.0
 20
0.0
 30
0.0
  3
*D19
  1

  0
LINE
  5
1F8F3
330
1DB1A
100
AcDbEntity
  8
寸法
 62
     0
 48
50.0
370
    -2
100
AcDbLine
 10
8363.599999999998
 20
7019.246300175035
 30
0.0
 11
8047.981646172166
 21
7019.246300175035
 31
0.0
  0
LINE
  5
1F8F4
330
1DB1A
100
AcDbEntity
  8
寸法
 62
     0
 48
50.0
370
    -2
100
AcDbLine
 10
8613.599999999998
 20
6899.246300175033
 30
0.0
 11
8047.981646172166
 21
6899.246300175033
 31
0.0
  0
LINE
  5
1F8F5
330
1DB1A
100
AcDbEntity
  8
寸法
 62
     0
 48
50.0
370
    -2
100
AcDbLine
 10
8107.981646172166
 20
6899.246300175033
 30
0.0
 11
8107.981646172166
 21
7019.246300175035
 31
0.0
  0
LINE
  5
1F8F6
330
1DB1A
100
AcDbEntity
  8
寸法
 62
     0
 48
50.0
370
    -2
100
AcDbLine
 10
8107.981646172166
 20
7019.246300175035
 30
0.0
 11
8107.981646172166
 21
7391.340788364011
 31
0.0
  0
INSERT
  5
1F8F7
330
1DB1A
100
AcDbEntity
  8
寸法
 62
     0
 48
50.0
370
    -2
100
AcDbBlockReference
  2
_DOTSMALL
 10
8107.981646172166
 20
6899.246300175033
 30
0.0
 41
100.0
 42
100.0
 43
100.0
 50
270.0
  0
INSERT
  5
1F8F8
330
1DB1A
100
AcDbEntity
  8
寸法
 62
     0
 48
50.0
370
    -2
100
AcDbBlockReference
  2
_DOTSMALL
 10
8107.981646172166
 20
7019.246300175035
 30
0.0
 41
100.0
 42
100.0
 43
100.0
 50
90.0
  0
MTEXT
  5
1F8F9
330
1DB1A
100
AcDbEntity
  8
寸法
 62
     7
 48
50.0
100
AcDbMText
 10
8007.969835148541
 20
7255.293544269524
 30
0.0
 40
120.0
 41
0.0
 71
     5
 72
     1
  1
\A1;120
  7
STYLE1
 11
0.0000000000000001
 21
1.0
 31
0.0
 73
     1
 44
1.0
1001
ACAD
1000
MTEXTBEGIN
1070
    73
1070
     1
1070
    44
1040
1.0
1070
    74
1070
     0
1000
MTEXTEND
  0
POINT
  5
1F8FA
330
1DB1A
100
AcDbEntity
  8
DEFPOINTS
 62
     0
 48
50.0
100
AcDbPoint
 10
8383.599999999999
 20
7019.246300175035
 30
0.0
  0
POINT
  5
1F8FB
330
1DB1A
100
AcDbEntity
  8
DEFPOINTS
 62
     0
 48
50.0
100
AcDbPoint
 10
8633.599999999999
 20
6899.246300175033
 30
0.0
  0
POINT
  5
1F8FC
330
1DB1A
100
AcDbEntity
  8
DEFPOINTS
 62
     0
 48
50.0
100
AcDbPoint
 10
8107.981646172166
 20
6899.246300175033
 30
0.0
  0
ENDBLK
  5
1DB26
330
1DB1A
100
AcDbEntity
  8
0
 48
50.0
100
AcDbBlockEnd
  0
BLOCK
  5
1F86B
330
1F861
100
AcDbEntity
  8
0
 48
50.0
100
AcDbBlockBegin
  2
*D20
 70
     1
 10
0.0
 20
0.0
 30
0.0
  3
*D20
  1

  0
LINE
  5
1F8AE
330
1F861
100
AcDbEntity
  8
寸法
 62
     0
 48
50.0
370
    -2
100
AcDbLine
 10
6893.691372724003
 20
2221.616354577902
 30
0.0
 11
6893.691372724003
 21
2581.616354577902
 31
0.0
  0
LINE
  5
1F8AF
330
1F861
100
AcDbEntity
  8
寸法
 62
     0
 48
50.0
370
    -2
100
AcDbLine
 10
6701.691372724003
 20
2221.616354577902
 30
0.0
 11
6701.691372724003
 21
2581.616354577902
 31
0.0
  0
LINE
  5
1F8B0
330
1F861
100
AcDbEntity
  8
寸法
 62
     0
 48
50.0
370
    -2
100
AcDbLine
 10
6893.691372724003
 20
2521.616354577902
 30
0.0
 11
6701.691372724003
 21
2521.616354577902
 31
0.0
  0
MTEXT
  5
1F8B1
330
1F861
100
AcDbEntity
  8
寸法
 62
     7
 48
50.0
100
AcDbMText
 10
6800.157649223573
 20
2760.421889464161
 30
0.0
 40
120.0
 41
0.0
 71
     5
 72
     1
  1
\A1;120\P170
  7
STYLE1
 73
     1
 44
1.0
1001
ACAD
1000
MTEXTBEGIN
1070
    73
1070
     1
1070
    44
1040
1.0
1070
    74
1070
     0
1000
MTEXTEND
  0
INSERT
  5
1F8B2
330
1F861
100
AcDbEntity
  8
寸法
 62
     0
 48
50.0
370
    -2
100
AcDbBlockReference
  2
_DOTSMALL
 10
6893.691372724003
 20
2521.616354577902
 30
0.0
 41
100.0
 42
100.0
 43
100.0
  0
INSERT
  5
1F8B3
330
1F861
100
AcDbEntity
  8
寸法
 62
     0
 48
50.0
370
    -2
100
AcDbBlockReference
  2
_DOTSMALL
 10
6701.691372724003
 20
2521.616354577902
 30
0.0
 41
100.0
 42
100.0
 43
100.0
 50
180.0
  0
POINT
  5
1F8B4
330
1F861
100
AcDbEntity
  8
DEFPOINTS
 62
     0
 48
50.0
100
AcDbPoint
 10
6893.691372724003
 20
2201.616354577902
 30
0.0
  0
POINT
  5
1F8B5
330
1F861
100
AcDbEntity
  8
DEFPOINTS
 62
     0
 48
50.0
100
AcDbPoint
 10
6701.691372724003
 20
2201.616354577902
 30
0.0
  0
POINT
  5
1F8B6
330
1F861
100
AcDbEntity
  8
DEFPOINTS
 62
     0
 48
50.0
100
AcDbPoint
 10
6701.691372724003
 20
2521.616354577902
 30
0.0
  0
ENDBLK
  5
1F86C
330
1F861
100
AcDbEntity
  8
0
 48
50.0
100
AcDbBlockEnd
  0
BLOCK
  5
1F877
330
1F86D
100
AcDbEntity
  8
0
 48
50.0
100
AcDbBlockBegin
  2
*D21
 70
     1
 10
0.0
 20
0.0
 30
0.0
  3
*D21
  1

  0
LINE
  5
1F8B7
330
1F86D
100
AcDbEntity
  8
寸法
 62
     0
 48
50.0
370
    -2
100
AcDbLine
 10
6573.691372724002
 20
1269.616354577902
 30
0.0
 11
6573.691372724002
 21
819.1867165727417
 31
0.0
  0
LINE
  5
1F8B8
330
1F86D
100
AcDbEntity
  8
寸法
 62
     0
 48
50.0
370
    -2
100
AcDbLine
 10
7021.691372724001
 20
1269.616354577902
 30
0.0
 11
7021.691372724001
 21
819.1867165727417
 31
0.0
  0
LINE
  5
1F8B9
330
1F86D
100
AcDbEntity
  8
寸法
 62
     0
 48
50.0
370
    -2
100
AcDbLine
 10
6573.691372724002
 20
879.1867165727417
 30
0.0
 11
7021.691372724001
 21
879.1867165727417
 31
0.0
  0
MTEXT
  5
1F8BA
330
1F86D
100
AcDbEntity
  8
寸法
 62
     7
 48
50.0
100
AcDbMText
 10
6777.594614045778
 20
979.1867165727417
 30
0.0
 40
120.0
 41
0.0
 71
     5
 72
     1
  1
\A1;300
  7
STYLE1
 73
     1
 44
1.0
1001
ACAD
1000
MTEXTBEGIN
1070
    73
1070
     1
1070
    44
1040
1.0
1070
    74
1070
     0
1000
MTEXTEND
  0
INSERT
  5
1F8BB
330
1F86D
100
AcDbEntity
  8
寸法
 62
     0
 48
50.0
370
    -2
100
AcDbBlockReference
  2
_DOTSMALL
 10
6573.691372724002
 20
879.1867165727417
 30
0.0
 41
100.0
 42
100.0
 43
100.0
 50
180.0
  0
INSERT
  5
1F8BC
330
1F86D
100
AcDbEntity
  8
寸法
 62
     0
 48
50.0
370
    -2
100
AcDbBlockReference
  2
_DOTSMALL
 10
7021.691372724001
 20
879.1867165727417
 30
0.0
 41
100.0
 42
100.0
 43
100.0
  0
POINT
  5
1F8BD
330
1F86D
100
AcDbEntity
  8
DEFPOINTS
 62
     0
 48
50.0
100
AcDbPoint
 10
6573.691372724002
 20
1289.616354577902
 30
0.0
  0
POINT
  5
1F8BE
330
1F86D
100
AcDbEntity
  8
DEFPOINTS
 62
     0
 48
50.0
100
AcDbPoint
 10
7021.691372724001
 20
1289.616354577902
 30
0.0
  0
POINT
  5
1F8BF
330
1F86D
100
AcDbEntity
  8
DEFPOINTS
 62
     0
 48
50.0
100
AcDbPoint
 10
7021.691372724001
 20
879.1867165727417
 30
0.0
  0
ENDBLK
  5
1F878
330
1F86D
100
AcDbEntity
  8
0
 48
50.0
100
AcDbBlockEnd
  0
BLOCK
  5
1F883
330
1F879
100
AcDbEntity
  8
0
 48
50.0
100
AcDbBlockBegin
  2
*D22
 70
     1
 10
0.0
 20
0.0
 30
0.0
  3
*D22
  1

  0
LINE
  5
1F8C0
330
1F879
100
AcDbEntity
  8
寸法
 62
     0
 48
50.0
370
    -2
100
AcDbLine
 10
6681.691372724002
 20
2201.616354577902
 30
0.0
 11
5906.654134162263
 21
2201.616354577902
 31
0.0
  0
LINE
  5
1F8C1
330
1F879
100
AcDbEntity
  8
寸法
 62
     0
 48
50.0
370
    -2
100
AcDbLine
 10
6473.691372724005
 20
1417.616354577902
 30
0.0
 11
5906.654134162262
 21
1417.616354577902
 31
0.0
  0
LINE
  5
1F8C2
330
1F879
100
AcDbEntity
  8
寸法
 62
     0
 48
50.0
370
    -2
100
AcDbLine
 10
5966.654134162262
 20
2201.616354577902
 30
0.0
 11
5966.654134162261
 21
1417.616354577902
 31
0.0
  0
MTEXT
  5
1F8C3
330
1F879
100
AcDbEntity
  8
寸法
 62
     7
 48
50.0
100
AcDbMText
 10
5866.654134162262
 20
1789.156504233902
 30
0.0
 40
120.0
 41
0.0
 71
     5
 72
     1
  1
\A1;540
  7
STYLE1
 11
0.0000000000000001
 21
1.0
 31
0.0
 73
     1
 44
1.0
1001
ACAD
1000
MTEXTBEGIN
1070
    73
1070
     1
1070
    44
1040
1.0
1070
    74
1070
     0
1000
MTEXTEND
  0
INSERT
  5
1F8C4
330
1F879
100
AcDbEntity
  8
寸法
 62
     0
 48
50.0
370
    -2
100
AcDbBlockReference
  2
_DOTSMALL
 10
5966.654134162262
 20
2201.616354577902
 30
0.0
 41
100.0
 42
100.0
 43
100.0
 50
90.0
  0
INSERT
  5
1F8C5
330
1F879
100
AcDbEntity
  8
寸法
 62
     0
 48
50.0
370
    -2
100
AcDbBlockReference
  2
_DOTSMALL
 10
5966.654134162261
 20
1417.616354577902
 30
0.0
 41
100.0
 42
100.0
 43
100.0
 50
270.0
  0
POINT
  5
1F8C6
330
1F879
100
AcDbEntity
  8
DEFPOINTS
 62
     0
 48
50.0
100
AcDbPoint
 10
6701.691372724003
 20
2201.616354577902
 30
0.0
  0
POINT
  5
1F8C7
330
1F879
100
AcDbEntity
  8
DEFPOINTS
 62
     0
 48
50.0
100
AcDbPoint
 10
6493.691372724005
 20
1417.616354577902
 30
0.0
  0
POINT
  5
1F8C8
330
1F879
100
AcDbEntity
  8
DEFPOINTS
 62
     0
 48
50.0
100
AcDbPoint
 10
5966.654134162261
 20
1417.616354577902
 30
0.0
  0
ENDBLK
  5
1F884
330
1F879
100
AcDbEntity
  8
0
 48
50.0
100
AcDbBlockEnd
  0
BLOCK
  5
1F88F
330
1F885
100
AcDbEntity
  8
0
 48
50.0
100
AcDbBlockBegin
  2
*D23
 70
     1
 10
0.0
 20
0.0
 30
0.0
  3
*D23
  1

  0
LINE
  5
1F8C9
330
1F885
100
AcDbEntity
  8
寸法
 62
     0
 48
50.0
370
    -2
100
AcDbLine
 10
6553.691372724002
 20
1657.616354577902
 30
0.0
 11
6371.271058991542
 21
1657.616354577902
 31
0.0
  0
LINE
  5
1F8CA
330
1F885
100
AcDbEntity
  8
寸法
 62
     0
 48
50.0
370
    -2
100
AcDbLine
 10
6473.691372724005
 20
1417.616354577902
 30
0.0
 11
6371.271058991542
 21
1417.616354577902
 31
0.0
  0
LINE
  5
1F8CB
330
1F885
100
AcDbEntity
  8
寸法
 62
     0
 48
50.0
370
    -2
100
AcDbLine
 10
6431.271058991542
 20
1657.616354577902
 30
0.0
 11
6431.271058991542
 21
1417.616354577902
 31
0.0
  0
MTEXT
  5
1F8CC
330
1F885
100
AcDbEntity
  8
寸法
 62
     7
 48
50.0
100
AcDbMText
 10
6331.271058991543
 20
1537.616354577902
 30
0.0
 40
120.0
 41
0.0
 71
     5
 72
     1
  1
\A1;150
  7
STYLE1
 11
0.0000000000000001
 21
1.0
 31
0.0
 73
     1
 44
1.0
1001
ACAD
1000
MTEXTBEGIN
1070
    73
1070
     1
1070
    44
1040
1.0
1070
    74
1070
     0
1000
MTEXTEND
  0
INSERT
  5
1F8CD
330
1F885
100
AcDbEntity
  8
寸法
 62
     0
 48
50.0
370
    -2
100
AcDbBlockReference
  2
_DOTSMALL
 10
6431.271058991542
 20
1657.616354577902
 30
0.0
 41
100.0
 42
100.0
 43
100.0
 50
90.0
  0
INSERT
  5
1F8CE
330
1F885
100
AcDbEntity
  8
寸法
 62
     0
 48
50.0
370
    -2
100
AcDbBlockReference
  2
_DOTSMALL
 10
6431.271058991542
 20
1417.616354577902
 30
0.0
 41
100.0
 42
100.0
 43
100.0
 50
270.0
  0
POINT
  5
1F8CF
330
1F885
100
AcDbEntity
  8
DEFPOINTS
 62
     0
 48
50.0
100
AcDbPoint
 10
6573.691372724002
 20
1657.616354577902
 30
0.0
  0
POINT
  5
1F8D0
330
1F885
100
AcDbEntity
  8
DEFPOINTS
 62
     0
 48
50.0
100
AcDbPoint
 10
6493.691372724005
 20
1417.616354577902
 30
0.0
  0
POINT
  5
1F8D1
330
1F885
100
AcDbEntity
  8
DEFPOINTS
 62
     0
 48
50.0
100
AcDbPoint
 10
6431.271058991542
 20
1417.616354577902
 30
0.0
  0
ENDBLK
  5
1F890
330
1F885
100
AcDbEntity
  8
0
 48
50.0
100
AcDbBlockEnd
  0
BLOCK
  5
1F8A0
330
1F891
100
AcDbEntity
  8
0
 48
50.0
100
AcDbBlockBegin
  2
*D24
 70
     1
 10
0.0
 20
0.0
 30
0.0
  3
*D24
  1

  0
LINE
  5
1F8D2
330
1F891
100
AcDbEntity
  8
寸法
 62
     0
 48
50.0
370
    -2
100
AcDbLine
 10
8857.805989267333
 20
2254.376354577903
 30
0.0
 11
9586.874589036176
 21
2254.376354577903
 31
0.0
  0
LINE
  5
1F8D3
330
1F891
100
AcDbEntity
  8
寸法
 62
     0
 48
50.0
370
    -2
100
AcDbLine
 10
9045.005989267332
 20
2201.616354577902
 30
0.0
 11
9586.874589036176
 21
2201.616354577902
 31
0.0
  0
LINE
  5
1F8D4
330
1F891
100
AcDbEntity
  8
寸法
 62
     0
 48
50.0
370
    -2
100
AcDbLine
 10
9526.874589036177
 20
2254.376354577903
 30
0.0
 11
9526.874589036177
 21
2354.376354577903
 31
0.0
  0
LINE
  5
1F8D5
330
1F891
100
AcDbEntity
  8
寸法
 62
     0
 48
50.0
370
    -2
100
AcDbLine
 10
9526.874589036177
 20
2201.616354577902
 30
0.0
 11
9526.874589036177
 21
2101.616354577902
 31
0.0
  0
LINE
  5
1F8D6
330
1F891
100
AcDbEntity
  8
寸法
 62
     0
 48
50.0
370
    -2
100
AcDbLine
 10
9526.874589036177
 20
2227.996354577902
 30
0.0
 11
9802.929255155206
 21
2216.492396973688
 31
0.0
  0
LINE
  5
1F8D7
330
1F891
100
AcDbEntity
  8
寸法
 62
     0
 48
50.0
370
    -2
100
AcDbLine
 10
9802.929255155206
 20
2216.492396973688
 30
0.0
 11
9802.929255155206
 21
1684.474590130722
 31
0.0
  0
MTEXT
  5
1F8D8
330
1F891
100
AcDbEntity
  8
寸法
 62
     7
 48
50.0
100
AcDbMText
 10
9702.917444131584
 20
1950.483493552207
 30
0.0
 40
120.0
 41
0.0
 71
     5
 72
     1
  1
\A1;20～25
  7
STYLE1
 11
0.0000000000000001
 21
1.0
 31
0.0
 73
     1
 44
1.0
1001
ACAD
1000
MTEXTBEGIN
1070
    73
1070
     1
1070
    44
1040
1.0
1070
    74
1070
     0
1000
MTEXTEND
  0
LINE
  5
1F8D9
330
1F891
100
AcDbEntity
  8
寸法
 62
     0
 48
50.0
370
    -2
100
AcDbLine
 10
9526.874589036177
 20
2254.376354577903
 30
0.0
 11
9526.874589036177
 21
2201.616354577902
 31
0.0
  0
LINE
  5
1F8DA
330
1F891
100
AcDbEntity
  8
寸法
 62
     0
 48
50.0
370
    -2
100
AcDbLine
 10
9526.874589036177
 20
2254.376354577903
 30
0.0
 11
9526.874589036177
 21
2201.616354577902
 31
0.0
  0
INSERT
  5
1F8DB
330
1F891
100
AcDbEntity
  8
寸法
 62
     0
 48
50.0
370
    -2
100
AcDbBlockReference
  2
_DOTSMALL
 10
9526.874589036177
 20
2254.376354577903
 30
0.0
 41
100.0
 42
100.0
 43
100.0
 50
270.0
  0
INSERT
  5
1F8DC
330
1F891
100
AcDbEntity
  8
寸法
 62
     0
 48
50.0
370
    -2
100
AcDbBlockReference
  2
_DOTSMALL
 10
9526.874589036177
 20
2201.616354577902
 30
0.0
 41
100.0
 42
100.0
 43
100.0
 50
90.0
  0
POINT
  5
1F8DD
330
1F891
100
AcDbEntity
  8
DEFPOINTS
 62
     0
 48
50.0
100
AcDbPoint
 10
8837.805989267334
 20
2254.376354577903
 30
0.0
  0
POINT
  5
1F8DE
330
1F891
100
AcDbEntity
  8
DEFPOINTS
 62
     0
 48
50.0
100
AcDbPoint
 10
9025.005989267333
 20
2201.616354577902
 30
0.0
  0
POINT
  5
1F8DF
330
1F891
100
AcDbEntity
  8
DEFPOINTS
 62
     0
 48
50.0
100
AcDbPoint
 10
9526.874589036177
 20
2201.616354577902
 30
0.0
  0
ENDBLK
  5
1F8A1
330
1F891
100
AcDbEntity
  8
0
 48
50.0
100
AcDbBlockEnd
  0
BLOCK
  5
1F8AC
330
1F8A2
100
AcDbEntity
  8
0
 48
50.0
100
AcDbBlockBegin
  2
*D25
 70
     1
 10
0.0
 20
0.0
 30
0.0
  3
*D25
  1

  0
LINE
  5
1F8E0
330
1F8A2
100
AcDbEntity
  8
寸法
 62
     0
 48
50.0
370
    -2
100
AcDbLine
 10
9045.005989267332
 20
2201.616354577902
 30
0.0
 11
9586.874589036176
 21
2201.616354577902
 31
0.0
  0
LINE
  5
1F8E1
330
1F8A2
100
AcDbEntity
  8
寸法
 62
     0
 48
50.0
370
    -2
100
AcDbLine
 10
9045.005989267332
 20
1877.616354577901
 30
0.0
 11
9586.874589036176
 21
1877.616354577901
 31
0.0
  0
LINE
  5
1F8E2
330
1F8A2
100
AcDbEntity
  8
寸法
 62
     0
 48
50.0
370
    -2
100
AcDbLine
 10
9526.874589036177
 20
2201.616354577902
 30
0.0
 11
9526.874589036177
 21
1877.616354577901
 31
0.0
  0
INSERT
  5
1F8E3
330
1F8A2
100
AcDbEntity
  8
寸法
 62
     0
 48
50.0
370
    -2
100
AcDbBlockReference
  2
_DOTSMALL
 10
9526.874589036177
 20
2201.616354577902
 30
0.0
 41
100.0
 42
100.0
 43
100.0
 50
90.0
  0
INSERT
  5
1F8E4
330
1F8A2
100
AcDbEntity
  8
寸法
 62
     0
 48
50.0
370
    -2
100
AcDbBlockReference
  2
_DOTSMALL
 10
9526.874589036177
 20
1877.616354577901
 30
0.0
 41
100.0
 42
100.0
 43
100.0
 50
270.0
  0
MTEXT
  5
1F8E5
330
1F8A2
100
AcDbEntity
  8
寸法
 62
     7
 48
50.0
100
AcDbMText
 10
9426.874589036177
 20
2039.616354577903
 30
0.0
 40
120.0
 41
0.0
 71
     5
 72
     1
  1
\A1;180
  7
STYLE1
 11
0.0000000000000001
 21
1.0
 31
0.0
 73
     1
 44
1.0
1001
ACAD
1000
MTEXTBEGIN
1070
    73
1070
     1
1070
    44
1040
1.0
1070
    74
1070
     0
1000
MTEXTEND
  0
POINT
  5
1F8E6
330
1F8A2
100
AcDbEntity
  8
DEFPOINTS
 62
     0
 48
50.0
100
AcDbPoint
 10
9025.005989267333
 20
2201.616354577902
 30
0.0
  0
POINT
  5
1F8E7
330
1F8A2
100
AcDbEntity
  8
DEFPOINTS
 62
     0
 48
50.0
100
AcDbPoint
 10
9025.005989267333
 20
1877.616354577901
 30
0.0
  0
POINT
  5
1F8E8
330
1F8A2
100
AcDbEntity
  8
DEFPOINTS
 62
     0
 48
50.0
100
AcDbPoint
 10
9526.874589036177
 20
1877.616354577901
 30
0.0
  0
ENDBLK
  5
1F8AD
330
1F8A2
100
AcDbEntity
  8
0
 48
50.0
100
AcDbBlockEnd
  0
ENDSEC
  0
SECTION
  2
ENTITIES
  0
LINE
  5
10B57
330
747D
100
AcDbEntity
  8
補助
  6
PHANTOM
 62
   230
 48
50.0
100
AcDbLine
 10
139.9999999999995
 20
11409.6
 30
0.0
 11
16307.2
 21
11409.6
 31
0.0
  0
LINE
  5
10B59
330
747D
100
AcDbEntity
  8
仕様書枠
  6
Continuous
 48
50.0
100
AcDbLine
 10
13107.2
 20
1200.0
 30
0.0
 11
13107.2
 21
-0.0000000000000729
 31
0.0
  0
LINE
  5
10B5C
330
747D
100
AcDbEntity
  8
仕様書枠
 48
50.0
100
AcDbLine
 10
16307.2
 20
1200.0
 30
0.0
 11
16307.2
 21
-0.0000000000000909
 31
0.0
  0
LINE
  5
10B5D
330
747D
100
AcDbEntity
  8
仕様書枠
 48
50.0
100
AcDbLine
 10
140.0
 20
0.0
 30
0.0
 11
16307.2
 21
-0.0000000000000909
 31
0.0
  0
LINE
  5
10B5E
330
747D
100
AcDbEntity
  8
補助
  6
PHANTOM
 62
   230
 48
50.0
100
AcDbLine
 10
16307.2
 20
11409.6
 30
0.0
 11
16307.2
 21
1200.0
 31
0.0
  0
LINE
  5
10B6C
330
747D
100
AcDbEntity
  8
仕様書枠
 48
50.0
100
AcDbLine
 10
13107.2
 20
1200.0
 30
0.0
 11
16307.2
 21
1200.0
 31
0.0
  0
LINE
  5
10B6D
330
747D
100
AcDbEntity
  8
補助
  6
PHANTOM
 62
   230
 48
50.0
100
AcDbLine
 10
13107.2
 20
11409.6
 30
0.0
 11
13107.2
 21
4800.0
 31
0.0
  0
LINE
  5
10B6F
330
747D
100
AcDbEntity
  8
補助
  6
PHANTOM
 62
   230
 48
50.0
100
AcDbLine
 10
13107.2
 20
4800.0
 30
0.0
 11
16307.2
 21
4800.0
 31
0.0
  0
LINE
  5
10B72
330
747D
100
AcDbEntity
  8
文字
 62
     7
 48
50.0
100
AcDbLine
 10
13187.2
 20
400.0
 30
0.0
 11
16227.2
 21
400.0
 31
0.0
  0
TEXT
  5
10B73
330
747D
100
AcDbEntity
  8
文字
 62
     7
 48
50.0
100
AcDbText
 10
13162.9790565769
 20
895.0906074299405
 30
0.0
 40
200.0
  1
基 礎 図
  7
STYLE2
100
AcDbText
  0
TEXT
  5
10B74
330
747D
100
AcDbEntity
  8
文字
 62
     7
 48
50.0
100
AcDbText
 10
13201.43669998441
 20
477.2740661031255
 30
0.0
 40
160.0
  1
機種名
  7
STYLE2
100
AcDbText
  0
LINE
  5
10B7B
330
747D
100
AcDbEntity
  8
仕様書枠
 48
50.0
100
AcDbLine
 10
13107.2
 20
800.0
 30
0.0
 11
14251.2
 21
800.0
 31
0.0
  0
LINE
  5
10B88
330
747D
100
AcDbEntity
  8
仕様書枠
  6
Continuous
 48
50.0
100
AcDbLine
 10
14251.2
 20
1200.0
 30
0.0
 11
14251.2
 21
800.0
 31
0.0
  0
TEXT
  5
14DEF
330
747D
100
AcDbEntity
  8
文字
 62
     7
 48
50.0
100
AcDbText
 10
14641.2525855784
 20
871.1744590657925
 30
0.0
 40
100.0
  1
～一般型・多雪地型～
  7
STYLE2
100
AcDbText
  0
TEXT
  5
15A76
330
747D
100
AcDbEntity
  8
文字
 62
     7
 48
50.0
100
AcDbText
 10
14478.98566430227
 20
499.5983841039501
 30
0.0
 40
160.0
  1
ＮＸＮ－１５Ｓ
  7
STYLE2
100
AcDbText
  0
TEXT
  5
1D002
330
747D
100
AcDbEntity
  8
文字
 62
     7
 48
50.0
100
AcDbText
 10
13188.16259899338
 20
246.7109242801889
 30
0.0
 40
80.0
  1
※寒冷地等は地域の実情に合わせた基礎にして下さい。
  7
STYLE2
100
AcDbText
  0
DIMENSION
  5
1D91B
330
747D
100
AcDbEntity
  8
寸法
 48
50.0
100
AcDbDimension
  2
*D2
 10
7770.307249876097
 20
6359.246300175039
 30
0.0
 11
7770.307249876096
 21
6595.293544269527
 31
0.0
 70
   160
 71
     5
 42
130.0000000000018
  3
INABA_S40G
100
AcDbAlignedDimension
 13
7553.599999999999
 23
6229.246300175037
 33
0.0
 14
7553.599999999999
 24
6359.246300175039
 34
0.0
 50
90.0
100
AcDbRotatedDimension
1001
ACAD
1000
DSTYLE
1002
{
1070
   174
1070
     0
1070
   272
1070
     1
1070
   288
1070
     0
1070
   341
1005
0
1002
}
  0
DIMENSION
  5
1D91C
330
747D
100
AcDbEntity
  8
寸法
 48
50.0
100
AcDbDimension
  2
*D3
 10
7770.307249876097
 20
6059.246300175036
 30
0.0
 11
7770.307249876096
 21
5823.199056080549
 31
0.0
 70
   160
 71
     5
 42
170.0000000000018
  3
INABA_S40G
100
AcDbAlignedDimension
 13
7553.599999999999
 23
6229.246300175038
 33
0.0
 14
7553.599999999999
 24
6059.246300175036
 34
0.0
 50
90.0
100
AcDbRotatedDimension
1001
ACAD
1000
DSTYLE
1002
{
1070
   174
1070
     0
1070
   272
1070
     1
1070
   288
1070
     0
1070
   341
1005
0
1002
}
  0
DIMENSION
  5
1D91D
330
747D
100
AcDbEntity
  8
寸法
 48
50.0
100
AcDbDimension
  2
*D4
 10
7446.6
 20
7624.306910564965
 30
0.0
 11
8093.6
 21
7724.318721588587
 31
0.0
 70
    32
 71
     5
 42
1294.0
  3
INABA_S40G
100
AcDbAlignedDimension
 13
8740.599999999998
 23
6946.246300175035
 33
0.0
 14
7446.6
 24
6946.246300175035
 34
0.0
100
AcDbRotatedDimension
1001
ACAD
1000
DSTYLE
1002
{
1070
   174
1070
     0
1070
   272
1070
     1
1070
   288
1070
     0
1070
   341
1005
0
1002
}
  0
LINE
  5
1D91E
330
747D
100
AcDbEntity
  8
部品1
 48
50.0
100
AcDbLine
 10
8633.599999999999
 20
6229.246300175051
 30
0.0
 11
7553.599999999997
 21
6229.246300175037
 31
0.0
  0
LINE
  5
1D91F
330
747D
100
AcDbEntity
  8
部品1
 48
50.0
100
AcDbLine
 10
8633.599999999999
 20
6899.246300175033
 30
0.0
 11
7553.599999999997
 21
6899.246300175035
 31
0.0
  0
DIMENSION
  5
1D920
330
747D
100
AcDbEntity
  8
寸法
 48
50.0
100
AcDbDimension
  2
*D5
 10
8863.599999999998
 20
7836.767606081801
 30
0.0
 11
8093.6
 21
7936.767606081801
 31
0.0
 70
    32
 71
     5
 42
1540.0
  3
INABA_S40G
100
AcDbAlignedDimension
 13
7323.599999999998
 23
7019.246300175035
 33
0.0
 14
8863.599999999998
 24
7019.246300175035
 34
0.0
100
AcDbRotatedDimension
1001
ACAD
1000
DSTYLE
1002
{
1070
   174
1070
     0
1070
   272
1070
     1
1070
   288
1070
     0
1070
   341
1005
0
1002
}
  0
LINE
  5
1D921
330
747D
100
AcDbEntity
  8
部品1
 48
50.0
100
AcDbLine
 10
8863.599999999998
 20
6059.246300175053
 30
0.0
 11
7323.599999999998
 21
6059.246300175033
 31
0.0
  0
LINE
  5
1D922
330
747D
100
AcDbEntity
  8
部品1
 48
50.0
100
AcDbLine
 10
8863.599999999998
 20
7019.246300175035
 30
0.0
 11
7323.599999999998
 21
7019.246300175034
 31
0.0
  0
LINE
  5
1D923
330
747D
100
AcDbEntity
  8
想像線
 48
10.0
100
AcDbLine
 10
8908.599999999998
 20
6004.246300175031
 30
0.0
 11
7278.6
 21
6004.246300175036
 31
0.0
  0
LINE
  5
1D924
330
747D
100
AcDbEntity
  8
想像線
 48
10.0
100
AcDbLine
 10
7278.6
 20
7094.246300175035
 30
0.0
 11
8908.600000000003
 21
7094.246300175038
 31
0.0
  0
DIMENSION
  5
1D925
330
747D
100
AcDbEntity
  8
寸法
 48
50.0
100
AcDbDimension
  2
*D6
 10
7323.599999999998
 20
7624.306910564965
 30
0.0
 11
7085.11471862576
 21
7624.306910564965
 31
0.0
 70
   160
 71
     5
 42
123.0
  3
INABA_S40G
100
AcDbAlignedDimension
 13
7446.6
 23
6946.246300175035
 33
0.0
 14
7323.599999999998
 24
7019.246300175035
 34
0.0
100
AcDbRotatedDimension
1001
ACAD
1000
DSTYLE
1002
{
1070
   174
1070
     0
1070
   272
1070
     1
1070
   288
1070
     0
1070
   341
1005
0
1002
}
  0
DIMENSION
  5
1D926
330
747D
100
AcDbEntity
  8
寸法
 48
50.0
100
AcDbDimension
  2
*D7
 10
7323.599999999998
 20
7836.767606081803
 30
0.0
 11
7301.099999999997
 21
7836.767606081803
 31
0.0
 70
   160
  1
a
 71
     5
 42
45.00000000000364
  3
INABA_S40G
100
AcDbAlignedDimension
 13
7278.599999999994
 23
7624.306910564965
 33
0.0
 14
7323.599999999998
 24
7019.246300175035
 34
0.0
100
AcDbRotatedDimension
1001
ACAD
1000
DSTYLE
1002
{
1070
   174
1070
     0
1070
   272
1070
     1
1070
   288
1070
     0
1070
   341
1005
0
1002
}
  0
DIMENSION
  5
1D927
330
747D
100
AcDbEntity
  8
寸法
 48
50.0
100
AcDbDimension
  2
*D8
 10
6827.657733986177
 20
6257.246300175037
 30
0.0
 11
6827.657733986176
 21
6539.246300175034
 31
0.0
 70
   160
 71
     5
 42
638.9999999999981
  3
INABA_S40G
100
AcDbAlignedDimension
 13
7396.599999999999
 23
6896.246300175035
 33
0.0
 14
7396.600000000006
 24
6257.246300175037
 34
0.0
 50
90.0
100
AcDbRotatedDimension
1001
ACAD
1000
DSTYLE
1002
{
1070
   174
1070
     0
1070
   272
1070
     1
1070
   288
1070
     0
1070
   341
1005
0
1002
}
  0
LINE
  5
1D928
330
747D
100
AcDbEntity
  8
部品1
 48
50.0
100
AcDbLine
 10
7443.599999999999
 20
6359.246300175037
 30
0.0
 11
7443.599999999999
 21
6789.246300175031
 31
0.0
  0
DIMENSION
  5
1D929
330
747D
100
AcDbEntity
  8
寸法
 48
50.0
100
AcDbDimension
  2
*D9
 10
6582.164931848213
 20
6059.246300175034
 30
0.0
 11
6582.164931848211
 21
6539.246300175034
 31
0.0
 70
   160
 71
     5
 42
960.0
  3
INABA_S40G
100
AcDbAlignedDimension
 13
7323.599999999998
 23
7019.246300175035
 33
0.0
 14
7323.599999999998
 24
6059.246300175034
 34
0.0
 50
90.0
100
AcDbRotatedDimension
1001
ACAD
1000
DSTYLE
1002
{
1070
   174
1070
     0
1070
   272
1070
     1
1070
   288
1070
     0
1070
   341
1005
0
1002
}
  0
LINE
  5
1D92A
330
747D
100
AcDbEntity
  8
部品1
 48
50.0
100
AcDbLine
 10
7323.599999999998
 20
6059.246300175034
 30
0.0
 11
7323.599999999998
 21
7019.246300175034
 31
0.0
  0
LINE
  5
1D92B
330
747D
100
AcDbEntity
  8
想像線
 48
10.0
100
AcDbLine
 10
7278.599999999999
 20
6004.246300175035
 30
0.0
 11
7278.599999999999
 21
7094.246300175038
 31
0.0
  0
DIMENSION
  5
1D92C
330
747D
100
AcDbEntity
  8
寸法
 48
50.0
100
AcDbDimension
  2
*D10
 10
6827.657733986177
 20
6059.246300175034
 30
0.0
 11
6827.657733986176
 21
5823.03664034538
 31
0.0
 70
   160
 71
     5
 42
198.0000000000018
  3
INABA_S40G
100
AcDbAlignedDimension
 13
7396.600000000006
 23
6257.246300175037
 33
0.0
 14
7323.599999999998
 24
6059.246300175034
 34
0.0
 50
90.0
100
AcDbRotatedDimension
1001
ACAD
1000
DSTYLE
1002
{
1070
   174
1070
     0
1070
   272
1070
     1
1070
   288
1070
     0
1070
   341
1005
0
1002
}
  0
DIMENSION
  5
1D92D
330
747D
100
AcDbEntity
  8
寸法
 48
50.0
100
AcDbDimension
  2
*D11
 10
6582.16493184821
 20
6004.246300175035
 30
0.0
 11
6582.16493184821
 21
6031.746300175036
 31
0.0
 70
   160
  1
b
 71
     5
 42
55.0
  3
INABA_S40G
100
AcDbAlignedDimension
 13
7323.599999999998
 23
6059.246300175034
 33
0.0
 14
6827.657733986177
 24
6004.246300175035
 34
0.0
 50
90.0
100
AcDbRotatedDimension
1001
ACAD
1000
DSTYLE
1002
{
1070
   174
1070
     0
1070
   272
1070
     1
1070
   288
1070
     0
1070
   341
1005
0
1002
}
  0
LINE
  5
1D92E
330
747D
100
AcDbEntity
  8
センター
 48
2.0
100
AcDbLine
 10
7446.600000000007
 20
6307.246300175036
 30
0.0
 11
7446.600000000007
 21
6207.246300175036
 31
0.0
  0
LINE
  5
1D92F
330
747D
100
AcDbEntity
  8
センター
 48
2.0
100
AcDbLine
 10
7396.600000000006
 20
6257.246300175037
 30
0.0
 11
7496.600000000007
 21
6257.246300175037
 31
0.0
  0
CIRCLE
  5
1D930
330
747D
100
AcDbEntity
  8
部品1
 48
50.0
100
AcDbCircle
 10
7446.600000000007
 20
6257.246300175037
 30
0.0
 40
35.0
  0
LINE
  5
1D931
330
747D
100
AcDbEntity
  8
部品1
 48
50.0
100
AcDbLine
 10
7553.599999999999
 20
6359.246300175039
 30
0.0
 11
7443.599999999999
 21
6359.246300175037
 31
0.0
  0
LINE
  5
1D932
330
747D
100
AcDbEntity
  8
部品1
 48
50.0
100
AcDbLine
 10
7553.599999999999
 20
6229.246300175037
 30
0.0
 11
7553.599999999999
 21
6359.246300175039
 31
0.0
  0
DIMENSION
  5
1D933
330
747D
100
AcDbEntity
  8
寸法
 48
50.0
100
AcDbDimension
  2
*D12
 10
6827.657733986177
 20
6896.246300175035
 30
0.0
 11
6827.657733986176
 21
7257.731581549276
 31
0.0
 70
   160
 71
     5
 42
123.0
  3
INABA_S40G
100
AcDbAlignedDimension
 13
7323.599999999998
 23
7019.246300175035
 33
0.0
 14
7396.599999999999
 24
6896.246300175035
 34
0.0
 50
90.0
100
AcDbRotatedDimension
1001
ACAD
1000
DSTYLE
1002
{
1070
   174
1070
     0
1070
   272
1070
     1
1070
   288
1070
     0
1070
   341
1005
0
1002
}
  0
DIMENSION
  5
1D934
330
747D
100
AcDbEntity
  8
寸法
 48
50.0
100
AcDbDimension
  2
*D13
 10
6582.16493184821
 20
7019.246300175035
 30
0.0
 11
6582.164931848208
 21
7056.746300175037
 31
0.0
 70
   160
  1
c
 71
     5
 42
75.0
  3
INABA_S40G
100
AcDbAlignedDimension
 13
6827.657733986177
 23
7094.246300175035
 33
0.0
 14
7323.599999999998
 24
7019.246300175035
 34
0.0
 50
90.0
100
AcDbRotatedDimension
1001
ACAD
1000
DSTYLE
1002
{
1070
   174
1070
     0
1070
   272
1070
     1
1070
   288
1070
     0
1070
   341
1005
0
1002
}
  0
LINE
  5
1D935
330
747D
100
AcDbEntity
  8
部品1
 48
50.0
100
AcDbLine
 10
7443.599999999998
 20
6639.246300175037
 30
0.0
 11
7323.599999999998
 21
6639.246300175035
 31
0.0
  0
LINE
  5
1D936
330
747D
100
AcDbEntity
  8
部品1
 48
50.0
100
AcDbLine
 10
7443.599999999998
 20
6439.246300175034
 30
0.0
 11
7323.599999999998
 21
6439.246300175034
 31
0.0
  0
LINE
  5
1D938
330
747D
100
AcDbEntity
  8
センター
 48
2.0
100
AcDbLine
 10
7446.6
 20
6946.246300175035
 30
0.0
 11
7446.6
 21
6846.246300175035
 31
0.0
  0
LINE
  5
1D939
330
747D
100
AcDbEntity
  8
センター
 48
2.0
100
AcDbLine
 10
7396.599999999999
 20
6896.246300175035
 30
0.0
 11
7496.599999999999
 21
6896.246300175035
 31
0.0
  0
CIRCLE
  5
1D93A
330
747D
100
AcDbEntity
  8
部品1
 48
50.0
100
AcDbCircle
 10
7446.6
 20
6896.246300175035
 30
0.0
 40
35.0
  0
LINE
  5
1D93B
330
747D
100
AcDbEntity
  8
部品1
 48
50.0
100
AcDbLine
 10
7553.599999999999
 20
6789.246300175031
 30
0.0
 11
7443.599999999999
 21
6789.246300175034
 31
0.0
  0
LINE
  5
1D93C
330
747D
100
AcDbEntity
  8
部品1
 48
50.0
100
AcDbLine
 10
7553.599999999999
 20
6789.246300175031
 30
0.0
 11
7553.599999999997
 21
6899.246300175035
 31
0.0
  0
DIMENSION
  5
1D93E
330
747D
100
AcDbEntity
  8
寸法
 48
50.0
100
AcDbDimension
  2
*D14
 10
8740.599999999998
 20
7624.306910564965
 30
0.0
 11
9102.085281374236
 21
7624.306910564965
 31
0.0
 70
   160
 71
     5
 42
123.0
  3
INABA_S40G
100
AcDbAlignedDimension
 13
8863.599999999998
 23
7019.246300175035
 33
0.0
 14
8740.599999999998
 24
6946.246300175035
 34
0.0
100
AcDbRotatedDimension
1001
ACAD
1000
DSTYLE
1002
{
1070
   174
1070
     0
1070
   272
1070
     1
1070
   288
1070
     0
1070
   341
1005
0
1002
}
  0
DIMENSION
  5
1D93F
330
747D
100
AcDbEntity
  8
寸法
 48
50.0
100
AcDbDimension
  2
*D15
 10
8908.599999999998
 20
7836.767606081801
 30
0.0
 11
8886.099999999998
 21
7836.767606081801
 31
0.0
 70
   160
  1
a
 71
     5
 42
45.0
  3
INABA_S40G
100
AcDbAlignedDimension
 13
8863.599999999998
 23
7019.246300175035
 33
0.0
 14
8908.599999999998
 24
7624.306910564965
 34
0.0
100
AcDbRotatedDimension
1001
ACAD
1000
DSTYLE
1002
{
1070
   174
1070
     0
1070
   272
1070
     1
1070
   288
1070
     0
1070
   341
1005
0
1002
}
  0
LEADER
  5
1D940
330
747D
100
AcDbEntity
  8
寸法
 48
50.0
100
AcDbLeader
  3
INABA_S40G
 71
     0
 73
     0
 74
     0
 75
     1
 40
120.0
 41
720.0000000000001
 76
     3
 10
8863.599999999998
 20
6453.92131121148
 30
0.0
 10
9113.148163484241
 20
6140.877369946565
 30
0.0
 10
9213.148163484241
 20
6140.877369946565
 30
0.0
340
1D941
1001
ACAD
1000
DSTYLE
1002
{
1070
   174
1070
     0
1070
   272
1070
     1
1070
   288
1070
     0
1070
   341
1005
0
1002
}
  0
MTEXT
  5
1D941
102
{ACAD_REACTORS
330
1D940
102
}
330
747D
100
AcDbEntity
  8
部品1
 62
     7
 48
50.0
100
AcDbMText
 10
9973.148163484243
 20
6240.877369946566
 30
0.0
 40
120.0
 41
0.0
 71
     6
 72
     1
  1
\A1;床下換気口
  7
STYLE1
 73
     1
 44
1.0
1001
ACAD
1000
MTEXTBEGIN
1070
    73
1070
     1
1070
    44
1040
1.0
1070
    74
1070
     0
1000
MTEXTEND
  0
DIMENSION
  5
1D942
330
747D
100
AcDbEntity
  8
寸法
 48
50.0
100
AcDbDimension
  2
*D16
 10
8743.599999999998
 20
6554.256477853153
 30
0.0
 11
9099.647244094487
 21
6554.256477853153
 31
0.0
 70
   160
 71
     5
 42
120.0
  3
INABA_S40G
100
AcDbAlignedDimension
 13
8863.599999999998
 23
6639.246300175035
 33
0.0
 14
8743.599999999998
 24
6639.246300175035
 34
0.0
100
AcDbRotatedDimension
1001
ACAD
1000
DSTYLE
1002
{
1070
   174
1070
     0
1070
   272
1070
     1
1070
   288
1070
     0
1070
   341
1005
0
1002
}
  0
TEXT
  5
1D943
330
747D
100
AcDbEntity
  8
部品1
 48
50.0
100
AcDbText
 10
8950.4200666784
 20
5364.35950339576
 30
0.0
 40
80.0
  1
(a=45,b=55,c=75)
  7
STYLE1
100
AcDbText
  0
TEXT
  5
1D944
330
747D
100
AcDbEntity
  8
部品1
 48
50.0
100
AcDbText
 10
8880.543179073518
 20
5484.0905495489
 30
0.0
 40
80.0
  1
※a,b,cは屋根の出幅です。
  7
STYLE1
100
AcDbText
  0
MTEXT
  5
1D945
102
{ACAD_REACTORS
330
1D946
102
}
330
747D
100
AcDbEntity
  8
部品1
 62
     7
 48
50.0
100
AcDbMText
 10
9745.725774538318
 20
5708.228908215244
 30
0.0
 40
120.0
 41
0.0
 71
     6
 72
     1
  1
\A1;屋根の外寸
  7
STYLE1
 73
     1
 44
1.0
1001
ACAD
1000
MTEXTBEGIN
1070
    73
1070
     1
1070
    44
1040
1.0
1070
    74
1070
     0
1000
MTEXTEND
  0
LEADER
  5
1D946
330
747D
100
AcDbEntity
  8
寸法
 48
50.0
100
AcDbLeader
  3
INABA_S50G
 71
     0
 73
     0
 74
     0
 75
     1
 40
120.0
 41
672.0
 76
     3
 10
8675.488587933825
 20
6003.246300175035
 30
0.0
 10
8923.725774538317
 20
5623.228908215244
 30
0.0
 10
9048.725774538317
 20
5623.228908215244
 30
0.0
340
1D945
1001
ACAD
1000
DSTYLE
1002
{
1070
   341
1005
1C530
1070
    40
1040
1.0
1070
   343
1005
1C530
1070
   344
1005
1C530
1002
}
  0
DIMENSION
  5
1D947
330
747D
100
AcDbEntity
  8
寸法
 48
50.0
100
AcDbDimension
  2
*D17
 10
8107.981646172165
 20
6789.246300175033
 30
0.0
 11
8107.981646172163
 21
6553.199056080543
 31
0.0
 70
   160
 71
     5
 42
110.0
  3
INABA_S40G
100
AcDbAlignedDimension
 13
8633.599999999999
 23
6899.246300175033
 33
0.0
 14
8633.599999999999
 24
6789.246300175033
 34
0.0
 50
90.0
100
AcDbRotatedDimension
1001
ACAD
1000
DSTYLE
1002
{
1070
   174
1070
     0
1070
   272
1070
     1
1070
   288
1070
     0
1070
   341
1005
0
1002
}
  0
DIMENSION
  5
1D948
330
747D
100
AcDbEntity
  8
寸法
 48
50.0
100
AcDbDimension
  2
*D18
 10
8633.599999999999
 20
6554.256477853153
 30
0.0
 11
8397.552755905509
 21
6554.256477853153
 31
0.0
 70
   160
 71
     5
 42
110.0
  3
INABA_S40G
100
AcDbAlignedDimension
 13
8743.599999999998
 23
6639.246300175035
 33
0.0
 14
8633.599999999999
 24
6789.246300175033
 34
0.0
100
AcDbRotatedDimension
1001
ACAD
1000
DSTYLE
1002
{
1070
   174
1070
     0
1070
   272
1070
     1
1070
   288
1070
     0
1070
   341
1005
0
1002
}
  0
LINE
  5
1D949
330
747D
100
AcDbEntity
  8
部品1
 48
50.0
100
AcDbLine
 10
8743.599999999998
 20
6359.246300175055
 30
0.0
 11
8743.599999999998
 21
6789.246300175034
 31
0.0
  0
LINE
  5
1D94A
330
747D
100
AcDbEntity
  8
部品1
 48
50.0
100
AcDbLine
 10
8863.599999999998
 20
6059.246300175053
 30
0.0
 11
8863.599999999998
 21
7019.246300175035
 31
0.0
  0
LINE
  5
1D94B
330
747D
100
AcDbEntity
  8
想像線
 48
10.0
100
AcDbLine
 10
8908.599999999998
 20
7094.246300175038
 30
0.0
 11
8908.600000000003
 21
6004.246300175035
 31
0.0
  0
TEXT
  5
1D94C
330
747D
100
AcDbEntity
  8
部品1
 48
50.0
100
AcDbText
 10
7974.294671087948
 20
5851.864036896353
 30
0.0
 40
120.0
  1
扉面
  7
STYLE1
 72
     1
 11
8102.294671087948
 21
5835.864036896353
 31
0.0
100
AcDbText
 73
     1
  0
HATCH
  5
1D94E
330
747D
100
AcDbEntity
  8
細線
 48
50.0
100
AcDbHatch
 10
0.0
 20
0.0
 30
0.0
210
0.0
220
0.0
230
1.0
  2
LINE
 70
     0
 71
     0
 91
        1
 92
        7
 72
     0
 73
     1
 93
        4
 10
8193.600000000014
 20
6059.246300175043
 10
8193.600000000014
 20
6229.246300175041
 10
7993.600000000014
 20
6229.246300175041
 10
7993.600000000014
 20
6059.246300175039
 97
        0
 75
     0
 76
     1
 52
45.0
 41
10.0
 77
     0
 78
     1
 53
45.0
 43
4490.48843901349
 44
-5092.295254901253
 45
-22.45064030267288
 46
22.45064030267288
 79
     0
 47
2.903594399684136
 98
        1
 10
8106.710000003099
 20
6098.273355607483
  0
LINE
  5
1D94F
330
747D
100
AcDbEntity
  8
部品1
 48
50.0
100
AcDbLine
 10
7993.600000000014
 20
6059.246300175043
 30
0.0
 11
7993.600000000014
 21
6229.246300175038
 31
0.0
  0
LINE
  5
1D950
330
747D
100
AcDbEntity
  8
部品1
 48
50.0
100
AcDbLine
 10
8193.600000000014
 20
6059.246300175043
 30
0.0
 11
8193.600000000014
 21
6229.246300175041
 31
0.0
  0
LINE
  5
1D951
330
747D
100
AcDbEntity
  8
センター
 48
2.0
100
AcDbLine
 10
8690.600000000006
 20
6257.246300175037
 30
0.0
 11
8790.600000000006
 21
6257.246300175037
 31
0.0
  0
CIRCLE
  5
1D952
330
747D
100
AcDbEntity
  8
部品1
 48
50.0
100
AcDbCircle
 10
8740.600000000005
 20
6257.246300175037
 30
0.0
 40
35.0
  0
LINE
  5
1D953
330
747D
100
AcDbEntity
  8
部品1
 48
50.0
100
AcDbLine
 10
8743.599999999998
 20
6359.246300175054
 30
0.0
 11
8633.599999999999
 21
6359.246300175053
 31
0.0
  0
LINE
  5
1D954
330
747D
100
AcDbEntity
  8
部品1
 48
50.0
100
AcDbLine
 10
8633.599999999999
 20
6229.246300175051
 30
0.0
 11
8633.599999999999
 21
6359.246300175053
 31
0.0
  0
LINE
  5
1D955
330
747D
100
AcDbEntity
  8
センター
 48
2.0
100
AcDbLine
 10
8740.600000000005
 20
6307.246300175036
 30
0.0
 11
8740.600000000005
 21
6207.246300175036
 31
0.0
  0
LINE
  5
1D956
330
747D
100
AcDbEntity
  8
部品1
 48
50.0
100
AcDbLine
 10
8193.599999999999
 20
6899.246300175033
 30
0.0
 11
8193.599999999999
 21
7019.246300175035
 31
0.0
  0
LINE
  5
1D957
330
747D
100
AcDbEntity
  8
部品1
 48
50.0
100
AcDbLine
 10
7993.599999999999
 20
6899.246300175035
 30
0.0
 11
7993.599999999999
 21
7019.246300175035
 31
0.0
  0
DIMENSION
  5
1D959
330
747D
100
AcDbEntity
  8
寸法
 48
50.0
100
AcDbDimension
  2
*D19
 10
8107.981646172166
 20
6899.246300175033
 30
0.0
 11
8107.981646172163
 21
7255.293544269524
 31
0.0
 70
   160
 71
     5
 42
120.0000000000018
  3
INABA_S40G
100
AcDbAlignedDimension
 13
8383.599999999999
 23
7019.246300175035
 33
0.0
 14
8633.599999999999
 24
6899.246300175033
 34
0.0
 50
90.0
100
AcDbRotatedDimension
1001
ACAD
1000
DSTYLE
1002
{
1070
   174
1070
     0
1070
   272
1070
     1
1070
   288
1070
     0
1070
   341
1005
0
1002
}
  0
LINE
  5
1D95A
330
747D
100
AcDbEntity
  8
センター
 48
2.0
100
AcDbLine
 10
8690.599999999999
 20
6896.246300175035
 30
0.0
 11
8790.599999999999
 21
6896.246300175035
 31
0.0
  0
CIRCLE
  5
1D95B
330
747D
100
AcDbEntity
  8
部品1
 48
50.0
100
AcDbCircle
 10
8740.599999999998
 20
6896.246300175035
 30
0.0
 40
35.0
  0
LINE
  5
1D95C
330
747D
100
AcDbEntity
  8
部品1
 48
50.0
100
AcDbLine
 10
8743.599999999998
 20
6789.246300175037
 30
0.0
 11
8633.599999999999
 21
6789.246300175033
 31
0.0
  0
LINE
  5
1D95D
330
747D
100
AcDbEntity
  8
部品1
 48
50.0
100
AcDbLine
 10
8633.599999999999
 20
6789.246300175033
 30
0.0
 11
8633.599999999999
 21
6899.246300175033
 31
0.0
  0
LINE
  5
1D95E
330
747D
100
AcDbEntity
  8
部品1
 48
50.0
100
AcDbLine
 10
8863.599999999998
 20
6639.246300175035
 30
0.0
 11
8743.599999999998
 21
6639.246300175035
 31
0.0
  0
LINE
  5
1D95F
330
747D
100
AcDbEntity
  8
部品1
 48
50.0
100
AcDbLine
 10
8863.599999999998
 20
6439.246300175034
 30
0.0
 11
8743.599999999998
 21
6439.246300175034
 31
0.0
  0
LINE
  5
1D961
330
747D
100
AcDbEntity
  8
センター
 48
2.0
100
AcDbLine
 10
8740.599999999998
 20
6946.246300175035
 30
0.0
 11
8740.599999999998
 21
6846.246300175035
 31
0.0
  0
TEXT
  5
1DEDA
330
747D
100
AcDbEntity
  8
文字
 62
     7
 48
50.0
100
AcDbText
 10
13188.16259899338
 20
79.80631269190325
 30
0.0
 40
80.0
  1
※布基礎には換気口を設けてください。
  7
STYLE2
100
AcDbText
  0
MTEXT
  5
1E700
102
{ACAD_REACTORS
330
1E701
102
}
330
747D
100
AcDbEntity
  8
部品1
 62
     7
 48
50.0
100
AcDbMText
 10
9913.416979436107
 20
7262.271743982987
 30
0.0
 40
120.0
 41
0.0
 71
     6
 72
     1
  1
基礎ボルト芯
  7
STYLE1
 73
     1
 44
1.0
1001
ACAD
1000
MTEXTBEGIN
1070
    73
1070
     1
1070
    44
1040
1.0
1070
    74
1070
     0
1000
MTEXTEND
  0
LEADER
  5
1E701
330
747D
100
AcDbEntity
  8
寸法
 48
50.0
100
AcDbLeader
  3
INABA_S40G
 71
     0
 73
     0
 74
     0
 75
     1
 40
120.0
 41
846.0000000000002
 76
     3
 10
8740.599999999998
 20
6896.246300175035
 30
0.0
 10
8927.416979436106
 20
7162.271743982987
 30
0.0
 10
9027.416979436106
 20
7162.271743982987
 30
0.0
340
1E700
1001
ACAD
1000
DSTYLE
1002
{
1070
   174
1070
     0
1070
   272
1070
     1
1070
   288
1070
     0
1070
   341
1005
0
1002
}
  0
TEXT
  5
1F75A
330
747D
100
AcDbEntity
  8
部品1
 48
50.0
100
AcDbText
 10
9960.423834811589
 20
1694.816613940593
 30
0.0
 40
80.0
  1
ボルトの出
 50
90.0
  7
STYLE2
100
AcDbText
  0
LINE
  5
1F75B
330
747D
100
AcDbEntity
  8
部品1
100
AcDbLine
 10
10484.26163226678
 20
666.4335294136138
 30
0.0
 11
10484.26163226678
 21
3522.587974354747
 31
0.0
  0
TEXT
  5
1F75C
330
747D
100
AcDbEntity
  8
部品1
100
AcDbText
 10
7709.590844254691
 20
3343.036042403319
 30
0.0
 40
120.0
  1
基礎詳細
  7
STYLE2
100
AcDbText
  0
LINE
  5
1F75D
330
747D
100
AcDbEntity
  8
部品1
 48
50.0
100
AcDbLine
 10
8848.405989267334
 20
2600.491635687045
 30
0.0
 11
8864.405989267334
 21
2592.491635687045
 31
0.0
  0
LINE
  5
1F75E
330
747D
100
AcDbEntity
  8
細線
 48
50.0
100
AcDbLine
 10
8816.405989267334
 20
2552.491635687045
 30
0.0
 11
8816.405989267334
 21
2584.491635687045
 31
0.0
  0
LINE
  5
1F75F
330
747D
100
AcDbEntity
  8
部品1
 48
50.0
100
AcDbLine
 10
8864.405989267334
 20
2560.491635687045
 30
0.0
 11
8864.405989267334
 21
2592.491635687045
 31
0.0
  0
LINE
  5
1F760
330
747D
100
AcDbEntity
  8
細線
 48
50.0
100
AcDbLine
 10
8848.405989267334
 20
2552.491635687045
 30
0.0
 11
8848.405989267334
 21
2584.491635687045
 31
0.0
  0
LINE
  5
1F761
330
747D
100
AcDbEntity
  8
部品1
 48
50.0
100
AcDbLine
 10
8848.405989267334
 20
2584.491635687045
 30
0.0
 11
8864.405989267334
 21
2592.491635687045
 31
0.0
  0
LINE
  5
1F762
330
747D
100
AcDbEntity
  8
部品1
 48
50.0
100
AcDbLine
 10
8816.405989267334
 20
2584.491635687045
 30
0.0
 11
8848.405989267334
 21
2584.491635687045
 31
0.0
  0
LINE
  5
1F763
330
747D
100
AcDbEntity
  8
部品1
 48
50.0
100
AcDbLine
 10
8848.405989267334
 20
2552.491635687045
 30
0.0
 11
8864.405989267334
 21
2560.491635687045
 31
0.0
  0
LINE
  5
1F764
330
747D
100
AcDbEntity
  8
部品1
 48
50.0
100
AcDbLine
 10
8816.405989267334
 20
2552.491635687045
 30
0.0
 11
8848.405989267334
 21
2552.491635687045
 31
0.0
  0
ELLIPSE
  5
1F765
330
747D
100
AcDbEntity
  8
細線
 48
50.0
100
AcDbEllipse
 10
8832.405989267332
 20
2592.491635687045
 30
0.0
 11
14.76670786606846
 21
0.0
 31
0.0
210
0.0
220
0.0
230
1.0
 40
0.2071254069489396
 41
0.0
 42
6.283185307179586
  0
LINE
  5
1F766
330
747D
100
AcDbEntity
  8
部品1
 48
50.0
100
AcDbLine
 10
8816.405989267334
 20
2600.491635687045
 30
0.0
 11
8848.405989267334
 21
2600.491635687045
 31
0.0
  0
LINE
  5
1F767
330
747D
100
AcDbEntity
  8
部品1
 48
50.0
100
AcDbLine
 10
8800.405989267334
 20
2560.491635687045
 30
0.0
 11
8800.405989267334
 21
2592.491635687045
 31
0.0
  0
LINE
  5
1F768
330
747D
100
AcDbEntity
  8
部品1
 48
50.0
100
AcDbLine
 10
8800.405989267334
 20
2592.491635687045
 30
0.0
 11
8816.405989267334
 21
2600.491635687045
 31
0.0
  0
LINE
  5
1F769
330
747D
100
AcDbEntity
  8
部品1
 48
50.0
100
AcDbLine
 10
8800.405989267334
 20
2560.491635687045
 30
0.0
 11
8816.405989267334
 21
2552.491635687045
 31
0.0
  0
LINE
  5
1F76A
330
747D
100
AcDbEntity
  8
部品1
 48
50.0
100
AcDbLine
 10
8800.405989267334
 20
2592.491635687045
 30
0.0
 11
8816.405989267334
 21
2584.491635687045
 31
0.0
  0
LINE
  5
1F76B
330
747D
100
AcDbEntity
  8
部品1
 48
50.0
100
AcDbLine
 10
8872.405989267333
 20
2461.139643022174
 30
0.0
 11
8872.405989267333
 21
2470.739643022174
 31
0.0
  0
ELLIPSE
  5
1F76C
330
747D
100
AcDbEntity
  8
部品1
 48
50.0
100
AcDbEllipse
 10
8832.405989267332
 20
2470.739643022174
 30
0.0
 11
18.4
 21
0.0
 31
0.0
210
0.0
220
0.0
230
1.0
 40
0.3478260869565217
 41
0.0
 42
6.283185307179586
  0
ARC
  5
1F76D
330
747D
100
AcDbEntity
  8
部品1
100
AcDbCircle
 10
8671.305989267334
 20
2299.716354577902
 30
0.0
 40
2.7
100
AcDbArc
 50
90.0
 51
180.0
  0
LINE
  5
1F76E
330
747D
100
AcDbEntity
  8
部品1
100
AcDbLine
 10
8674.005989267334
 20
2313.216354577902
 30
0.0
 11
8716.305989267333
 21
2313.216354577899
 31
0.0
  0
LINE
  5
1F76F
330
747D
100
AcDbEntity
  8
部品1
100
AcDbLine
 10
8671.305989267334
 20
2302.416354577902
 30
0.0
 11
8671.305989267334
 21
2310.516354577901
 31
0.0
  0
LINE
  5
1F770
330
747D
100
AcDbEntity
  8
部品1
100
AcDbLine
 10
8671.305989267334
 20
2302.416354577902
 30
0.0
 11
8671.305989267334
 21
2302.416354577902
 31
0.0
  0
ARC
  5
1F771
330
747D
100
AcDbEntity
  8
部品1
100
AcDbCircle
 10
8674.005989267334
 20
2310.516354577901
 30
0.0
 40
2.7
100
AcDbArc
 50
90.0
 51
180.0
  0
ARC
  5
1F772
330
747D
100
AcDbEntity
  8
部品1
100
AcDbCircle
 10
8716.305989267333
 20
2310.516354577899
 30
0.0
 40
2.7
100
AcDbArc
 50
0.0
 51
90.0
  0
LINE
  5
1F773
330
747D
100
AcDbEntity
  8
部品1
 48
50.0
100
AcDbLine
 10
8792.405989267335
 20
2470.739643022174
 30
0.0
 11
8792.405989267335
 21
2461.139643022174
 31
0.0
  0
ELLIPSE
  5
1F774
330
747D
100
AcDbEntity
  8
部品1
 48
50.0
100
AcDbEllipse
 10
8832.405989267332
 20
2461.139643022175
 30
0.0
 11
40.0
 21
0.0
 31
0.0
210
0.0
220
0.0
230
1.0
 40
0.4
 41
3.141592653589793
 42
6.283185307179586
  0
ELLIPSE
  5
1F775
330
747D
100
AcDbEntity
  8
部品1
 48
50.0
100
AcDbEllipse
 10
8832.405989267332
 20
2470.739643022174
 30
0.0
 11
40.0
 21
0.0
 31
0.0
210
0.0
220
0.0
230
1.0
 40
0.4
 41
0.0
 42
6.283185307179586
  0
LINE
  5
1F776
330
747D
100
AcDbEntity
  8
部品1
100
AcDbLine
 10
8827.005989267334
 20
2254.376354577902
 30
0.0
 11
8837.805989267334
 21
2254.376354577902
 31
0.0
  0
LINE
  5
1F777
330
747D
100
AcDbEntity
  8
部品1
100
AcDbLine
 10
8823.405989267333
 20
2250.776354577903
 30
0.0
 11
8841.405989267334
 21
2250.776354577903
 31
0.0
  0
LINE
  5
1F778
330
747D
100
AcDbEntity
  8
細線
100
AcDbLine
 10
8827.005989267336
 20
2211.176354577903
 30
0.0
 11
8827.005989267334
 21
2254.376354577902
 31
0.0
  0
LINE
  5
1F779
330
747D
100
AcDbEntity
  8
細線
100
AcDbLine
 10
8837.805989267334
 20
2211.176354577903
 30
0.0
 11
8837.805989267334
 21
2254.376354577902
 31
0.0
  0
LINE
  5
1F77A
330
747D
100
AcDbEntity
  8
部品1
100
AcDbLine
 10
8739.705989267333
 20
2268.476354577902
 30
0.0
 11
8739.705989267333
 21
2251.376354577902
 31
0.0
  0
LINE
  5
1F77B
330
747D
100
AcDbEntity
  8
部品1
100
AcDbLine
 10
8773.265989267335
 20
2268.476354577902
 30
0.0
 11
8773.265989267331
 21
2213.876354577902
 31
0.0
  0
ARC
  5
1F77C
330
747D
100
AcDbEntity
  8
部品1
100
AcDbCircle
 10
8758.605989267334
 20
2256.516354577902
 30
0.0
 40
2.7
100
AcDbArc
 50
0.0
 51
90.0
  0
LINE
  5
1F77D
330
747D
100
AcDbEntity
  8
部品1
100
AcDbLine
 10
8719.005989267335
 20
2259.216354577902
 30
0.0
 11
8758.605989267334
 21
2259.216354577902
 31
0.0
  0
ARC
  5
1F77E
330
747D
100
AcDbEntity
  8
部品1
100
AcDbCircle
 10
8758.605989267334
 20
2213.876354577902
 30
0.0
 40
2.7
100
AcDbArc
 50
270.0
 51
0.0
  0
ARC
  5
1F77F
330
747D
100
AcDbEntity
  8
部品1
100
AcDbCircle
 10
8775.965989267328
 20
2213.876354577902
 30
0.0
 40
2.7
100
AcDbArc
 50
180.0
 51
270.0
  0
LINE
  5
1F780
330
747D
100
AcDbEntity
  8
部品1
100
AcDbLine
 10
8746.905989267334
 20
2211.176354577903
 30
0.0
 11
8758.605989267334
 21
2211.176354577903
 31
0.0
  0
LINE
  5
1F781
330
747D
100
AcDbEntity
  8
部品1
100
AcDbLine
 10
8761.305989267333
 20
2256.516354577902
 30
0.0
 11
8761.305989267333
 21
2213.876354577902
 31
0.0
  0
ARC
  5
1F782
330
747D
100
AcDbEntity
  8
部品1
100
AcDbCircle
 10
8770.565989267334
 20
2268.476354577902
 30
0.0
 40
2.7
100
AcDbArc
 50
0.0
 51
90.0
  0
ARC
  5
1F783
330
747D
100
AcDbEntity
  8
部品1
100
AcDbCircle
 10
8742.405989267334
 20
2268.476354577902
 30
0.0
 40
2.7
100
AcDbArc
 50
90.0
 51
180.0
  0
LINE
  5
1F784
330
747D
100
AcDbEntity
  8
部品1
100
AcDbLine
 10
8742.405989267334
 20
2271.176354577902
 30
0.0
 11
8770.565989267334
 21
2271.176354577902
 31
0.0
  0
LINE
  5
1F785
330
747D
100
AcDbEntity
  8
部品1
100
AcDbLine
 10
8719.005989267335
 20
2310.516354577899
 30
0.0
 11
8719.005989267335
 21
2259.216354577902
 31
0.0
  0
LINE
  5
1F786
330
747D
100
AcDbEntity
  8
部品1
100
AcDbLine
 10
8668.605989267332
 20
2291.616354577902
 30
0.0
 11
8668.605989267332
 21
2299.716354577902
 31
0.0
  0
LINE
  5
1F787
330
747D
100
AcDbEntity
  8
部品1
100
AcDbLine
 10
8775.965989267328
 20
2211.176354577903
 30
0.0
 11
8977.305989267328
 21
2211.176354577903
 31
0.0
  0
LINE
  5
1F788
330
747D
100
AcDbEntity
  8
部品1
100
AcDbLine
 10
8617.305989267334
 20
2213.876354577902
 30
0.0
 11
8617.305989267334
 21
2276.00825828061
 31
0.0
  0
LINE
  5
1F789
330
747D
100
AcDbEntity
  8
部品1
100
AcDbLine
 10
8620.005989267335
 20
2211.176354577903
 30
0.0
 11
8631.705989267329
 21
2211.176354577903
 31
0.0
  0
LINE
  5
1F78A
330
747D
100
AcDbEntity
  8
細線
 48
50.0
100
AcDbLine
 10
8611.005989267335
 20
2189.396930877807
 30
0.0
 11
8623.225412967428
 21
2201.616354577902
 31
0.0
  0
ARC
  5
1F78B
330
747D
100
AcDbEntity
  8
部品1
100
AcDbCircle
 10
8620.005989267335
 20
2213.876354577902
 30
0.0
 40
2.7
100
AcDbArc
 50
180.0
 51
270.0
  0
LINE
  5
1F78C
330
747D
100
AcDbEntity
  8
部品1
100
AcDbLine
 10
8619.351143079732
 20
2278.627643031002
 30
0.0
 11
8628.105989267332
 21
2280.816354577902
 31
0.0
  0
ARC
  5
1F78D
330
747D
100
AcDbEntity
  8
部品1
100
AcDbCircle
 10
8620.005989267335
 20
2276.00825828061
 30
0.0
 40
2.7
100
AcDbArc
 50
104.0362434679075
 51
180.0
  0
ARC
  5
1F78E
330
747D
100
AcDbEntity
  8
部品1
100
AcDbCircle
 10
8630.805989267335
 20
2288.916354577902
 30
0.0
 40
2.7
100
AcDbArc
 50
90.0
 51
180.0
  0
LINE
  5
1F78F
330
747D
100
AcDbEntity
  8
部品1
100
AcDbLine
 10
8628.105989267332
 20
2280.816354577902
 30
0.0
 11
8628.105989267332
 21
2288.916354577902
 31
0.0
  0
TEXT
  5
1F790
330
747D
100
AcDbEntity
  8
部品1
 48
50.0
100
AcDbText
 10
8184.559892687842
 20
2532.176875678378
 30
0.0
 40
80.0
  1
※(別売)
  7
STYLE2
100
AcDbText
  0
LINE
  5
1F791
330
747D
100
AcDbEntity
  8
部品1
 48
50.0
100
AcDbLine
 10
8611.005989267335
 20
2201.616354577902
 30
0.0
 11
9025.005989267336
 21
2201.616354577902
 31
0.0
  0
LINE
  5
1F792
330
747D
100
AcDbEntity
  8
細線
 48
50.0
100
AcDbLine
 10
8611.005989267335
 20
2135.515394151392
 30
0.0
 11
8677.106949693843
 21
2201.616354577902
 31
0.0
  0
LINE
  5
1F793
330
747D
100
AcDbEntity
  8
細線
 48
50.0
100
AcDbLine
 10
8611.005989267335
 20
2162.4561625146
 30
0.0
 11
8650.166181330638
 21
2201.616354577902
 31
0.0
  0
LINE
  5
1F794
330
747D
100
AcDbEntity
  8
部品1
100
AcDbLine
 10
8630.805989267335
 20
2291.616354577902
 30
0.0
 11
8668.605989267332
 21
2291.616354577902
 31
0.0
  0
LINE
  5
1F795
330
747D
100
AcDbEntity
  8
部品1
 48
50.0
100
AcDbLine
 10
9025.005989267333
 20
1657.616354577902
 30
0.0
 11
9153.005989267333
 21
1657.616354577902
 31
0.0
  0
LINE
  5
1F796
330
747D
100
AcDbEntity
  8
部品1
100
AcDbLine
 10
8841.405989267334
 20
1976.616354577902
 30
0.0
 11
8877.405989267334
 21
1976.616354577902
 31
0.0
  0
LINE
  5
1F797
330
747D
100
AcDbEntity
  8
部品1
100
AcDbLine
 10
8841.405989267334
 20
1958.616354577902
 30
0.0
 11
8877.405989267334
 21
1958.616354577902
 31
0.0
  0
ARC
  5
1F798
330
747D
100
AcDbEntity
  8
部品1
100
AcDbCircle
 10
8841.405989267334
 20
1976.616354577902
 30
0.0
 40
18.0
100
AcDbArc
 50
180.0
 51
270.0
  0
LINE
  5
1F799
330
747D
100
AcDbEntity
  8
部品1
100
AcDbLine
 10
8877.405989267334
 20
1958.616354577902
 30
0.0
 11
8877.405989267334
 21
1976.616354577902
 31
0.0
  0
LINE
  5
1F79A
330
747D
100
AcDbEntity
  8
部品1
100
AcDbLine
 10
8895.405989267334
 20
1877.6163545779
 30
0.0
 11
8769.405989267328
 21
1877.6163545779
 31
0.0
  0
LINE
  5
1F79B
330
747D
100
AcDbEntity
  8
細線
 48
50.0
100
AcDbLine
 10
9189.383814459668
 20
1393.6163545779
 30
0.0
 11
9182.953033841322
 21
1417.6163545779
 31
0.0
  0
LINE
  5
1F79C
330
747D
100
AcDbEntity
  8
細線
 48
50.0
100
AcDbLine
 10
9110.495769512423
 20
1393.6163545779
 30
0.0
 11
9104.064988894078
 21
1417.6163545779
 31
0.0
  0
LINE
  5
1F79D
330
747D
100
AcDbEntity
  8
細線
 48
50.0
100
AcDbLine
 10
9031.607724565168
 20
1393.616354577902
 30
0.0
 11
9025.176943946819
 21
1417.616354577902
 31
0.0
  0
LINE
  5
1F79E
330
747D
100
AcDbEntity
  8
細線
 48
50.0
100
AcDbLine
 10
9167.947879065179
 20
1313.6163545779
 30
0.0
 11
9174.378659683528
 21
1289.6163545779
 31
0.0
  0
LINE
  5
1F79F
330
747D
100
AcDbEntity
  8
細線
 48
50.0
100
AcDbLine
 10
9089.059834117934
 20
1313.6163545779
 30
0.0
 11
9095.490614736281
 21
1289.6163545779
 31
0.0
  0
LINE
  5
1F7A0
330
747D
100
AcDbEntity
  8
細線
 48
50.0
100
AcDbLine
 10
9010.171789170685
 20
1313.616354577902
 30
0.0
 11
9016.602569789041
 21
1289.616354577902
 31
0.0
  0
LINE
  5
1F7A1
330
747D
100
AcDbEntity
  8
細線
 48
50.0
100
AcDbLine
 10
9082.629053499585
 20
1289.616354577899
 30
0.0
 11
9116.926550130768
 21
1417.616354577899
 31
0.0
  0
LINE
  5
1F7A2
330
747D
100
AcDbEntity
  8
細線
 48
50.0
100
AcDbLine
 10
9003.741008552335
 20
1289.6163545779
 30
0.0
 11
9038.038505183509
 21
1417.616354577902
 31
0.0
  0
LINE
  5
1F7A3
330
747D
100
AcDbEntity
  8
細線
 48
50.0
100
AcDbLine
 10
9161.517098446827
 20
1289.6163545779
 30
0.0
 11
9195.814595078015
 21
1417.616354577899
 31
0.0
  0
LINE
  5
1F7A4
330
747D
100
AcDbEntity
  8
部品1
 48
50.0
100
AcDbLine
 10
9233.005989267336
 20
1417.616354577902
 30
0.0
 11
9233.005989267336
 21
1289.616354577902
 31
0.0
  0
LINE
  5
1F7A5
330
747D
100
AcDbEntity
  8
細線
 48
50.0
100
AcDbLine
 10
8952.719679617928
 20
1393.616354577902
 30
0.0
 11
8946.288898999583
 21
1417.616354577902
 31
0.0
  0
LINE
  5
1F7A6
330
747D
100
AcDbEntity
  8
細線
 48
50.0
100
AcDbLine
 10
8873.831634670681
 20
1393.616354577902
 30
0.0
 11
8867.400854052336
 21
1417.616354577902
 31
0.0
  0
LINE
  5
1F7A7
330
747D
100
AcDbEntity
  8
細線
 48
50.0
100
AcDbLine
 10
8716.055544776191
 20
1393.616354577902
 30
0.0
 11
8709.624764157842
 21
1417.616354577902
 31
0.0
  0
LINE
  5
1F7A8
330
747D
100
AcDbEntity
  8
細線
 48
50.0
100
AcDbLine
 10
8794.943589723436
 20
1393.616354577902
 30
0.0
 11
8788.512809105091
 21
1417.616354577902
 31
0.0
  0
LINE
  5
1F7A9
330
747D
100
AcDbEntity
  8
細線
 48
50.0
100
AcDbLine
 10
8852.395699276192
 20
1313.616354577902
 30
0.0
 11
8858.82647989454
 21
1289.616354577902
 31
0.0
  0
LINE
  5
1F7AA
330
747D
100
AcDbEntity
  8
細線
 48
50.0
100
AcDbLine
 10
8931.28374422344
 20
1313.616354577902
 30
0.0
 11
8937.714524841785
 21
1289.616354577902
 31
0.0
  0
LINE
  5
1F7AB
330
747D
100
AcDbEntity
  8
細線
 48
50.0
100
AcDbLine
 10
8694.619609381701
 20
1313.616354577902
 30
0.0
 11
8701.050390000046
 21
1289.616354577902
 31
0.0
  0
LINE
  5
1F7AC
330
747D
100
AcDbEntity
  8
細線
 48
50.0
100
AcDbLine
 10
8773.507654328946
 20
1313.616354577902
 30
0.0
 11
8779.938434947293
 21
1289.616354577902
 31
0.0
  0
LINE
  5
1F7AD
330
747D
100
AcDbEntity
  8
細線
 48
50.0
100
AcDbLine
 10
8924.852963605086
 20
1289.616354577902
 30
0.0
 11
8959.150460236271
 21
1417.6163545779
 31
0.0
  0
LINE
  5
1F7AE
330
747D
100
AcDbEntity
  8
細線
 48
50.0
100
AcDbLine
 10
8767.076873710594
 20
1289.616354577902
 30
0.0
 11
8801.374370341781
 21
1417.6163545779
 31
0.0
  0
LINE
  5
1F7AF
330
747D
100
AcDbEntity
  8
細線
 48
50.0
100
AcDbLine
 10
8688.188828763349
 20
1289.616354577902
 30
0.0
 11
8722.486325394532
 21
1417.616354577902
 31
0.0
  0
LINE
  5
1F7B0
330
747D
100
AcDbEntity
  8
細線
 48
50.0
100
AcDbLine
 10
8845.964918657843
 20
1289.6163545779
 30
0.0
 11
8880.262415289026
 21
1417.6163545779
 31
0.0
  0
LINE
  5
1F7B1
330
747D
100
AcDbEntity
  8
細線
 48
50.0
100
AcDbLine
 10
8970.737684222141
 20
1417.616354577902
 30
0.0
 11
9153.005989267333
 21
1599.884659623097
 31
0.0
  0
LINE
  5
1F7B2
330
747D
100
AcDbEntity
  8
部品1
 48
50.0
100
AcDbLine
 10
9153.005989267333
 20
1657.616354577902
 30
0.0
 11
9153.005989267333
 21
1417.616354577902
 31
0.0
  0
LINE
  5
1F7B3
330
747D
100
AcDbEntity
  8
細線
 48
50.0
100
AcDbLine
 10
8943.796915858937
 20
1417.616354577902
 30
0.0
 11
9153.005989267333
 21
1626.825427986295
 31
0.0
  0
LINE
  5
1F7B4
330
747D
100
AcDbEntity
  8
細線
 48
50.0
100
AcDbLine
 10
8916.856147495726
 20
1417.616354577902
 30
0.0
 11
9153.005989267333
 21
1653.76619634951
 31
0.0
  0
LINE
  5
1F7B5
330
747D
100
AcDbEntity
  8
細線
 48
50.0
100
AcDbLine
 10
8701.330000590067
 20
1417.616354577902
 30
0.0
 11
9025.005989267333
 21
1741.292343255168
 31
0.0
  0
LINE
  5
1F7B6
330
747D
100
AcDbEntity
  8
細線
 48
50.0
100
AcDbLine
 10
8755.211537316482
 20
1417.616354577902
 30
0.0
 11
9025.005989267333
 21
1687.410806528759
 31
0.0
  0
LINE
  5
1F7B7
330
747D
100
AcDbEntity
  8
細線
 48
50.0
100
AcDbLine
 10
8728.270768953278
 20
1417.616354577902
 30
0.0
 11
9025.005989267333
 21
1714.351574891954
 31
0.0
  0
LINE
  5
1F7B8
330
747D
100
AcDbEntity
  8
細線
 48
50.0
100
AcDbLine
 10
8483.005989267327
 20
1630.344637066488
 30
0.0
 11
8510.277706778749
 21
1657.616354577902
 31
0.0
  0
LINE
  5
1F7B9
330
747D
100
AcDbEntity
  8
部品1
 48
50.0
100
AcDbLine
 10
8483.005989267335
 20
1657.616354577902
 30
0.0
 11
8611.005989267335
 21
1657.616354577902
 31
0.0
  0
LINE
  5
1F7BA
330
747D
100
AcDbEntity
  8
細線
 48
50.0
100
AcDbLine
 10
8483.005989267327
 20
1603.403868703277
 30
0.0
 11
8537.21847514196
 21
1657.616354577902
 31
0.0
  0
LWPOLYLINE
  5
1F7BB
330
747D
100
AcDbEntity
  8
部品1
 48
50.0
100
AcDbPolyline
 90
        2
 70
     0
 43
8.0
 10
8196.866087434377
 20
1961.616354577903
 10
8611.005989267335
 20
1961.616354577903
  0
LINE
  5
1F7BC
330
747D
100
AcDbEntity
  8
細線
 48
50.0
100
AcDbLine
 10
8558.279454881686
 20
1393.616354577902
 30
0.0
 11
8551.848674263339
 21
1417.616354577902
 31
0.0
  0
LINE
  5
1F7BD
330
747D
100
AcDbEntity
  8
細線
 48
50.0
100
AcDbLine
 10
8637.167499828938
 20
1393.616354577902
 30
0.0
 11
8630.736719210593
 21
1417.616354577902
 31
0.0
  0
LINE
  5
1F7BE
330
747D
100
AcDbEntity
  8
細線
 48
50.0
100
AcDbLine
 10
8479.391409934434
 20
1393.616354577902
 30
0.0
 11
8472.960629316087
 21
1417.616354577902
 31
0.0
  0
LINE
  5
1F7BF
330
747D
100
AcDbEntity
  8
細線
 48
50.0
100
AcDbLine
 10
8403.005989267334
 20
1402.956275543682
 30
0.0
 11
8406.93414560553
 21
1417.616354577902
 31
0.0
  0
LINE
  5
1F7C0
330
747D
100
AcDbEntity
  8
細線
 48
50.0
100
AcDbLine
 10
8536.843519487197
 20
1313.616354577902
 30
0.0
 11
8543.274300105544
 21
1289.616354577902
 31
0.0
  0
LINE
  5
1F7C1
330
747D
100
AcDbEntity
  8
細線
 48
50.0
100
AcDbLine
 10
8615.731564434449
 20
1313.616354577902
 30
0.0
 11
8622.162345052796
 21
1289.616354577902
 31
0.0
  0
LINE
  5
1F7C2
330
747D
100
AcDbEntity
  8
細線
 48
50.0
100
AcDbLine
 10
8457.955474539947
 20
1313.616354577902
 30
0.0
 11
8464.386255158292
 21
1289.616354577902
 31
0.0
  0
LINE
  5
1F7C3
330
747D
100
AcDbEntity
  8
細線
 48
50.0
100
AcDbLine
 10
8609.300783816095
 20
1289.6163545779
 30
0.0
 11
8643.598280447278
 21
1417.6163545779
 31
0.0
  0
LINE
  5
1F7C4
330
747D
100
AcDbEntity
  8
細線
 48
50.0
100
AcDbLine
 10
8451.524693921593
 20
1289.6163545779
 30
0.0
 11
8485.822190552775
 21
1417.6163545779
 31
0.0
  0
LINE
  5
1F7C5
330
747D
100
AcDbEntity
  8
部品1
 48
50.0
100
AcDbLine
 10
8403.005989267336
 20
1289.616354577902
 30
0.0
 11
8403.005989267336
 21
1417.616354577902
 31
0.0
  0
LINE
  5
1F7C6
330
747D
100
AcDbEntity
  8
細線
 48
50.0
100
AcDbLine
 10
8530.41273886885
 20
1289.616354577902
 30
0.0
 11
8564.710235500035
 21
1417.616354577902
 31
0.0
  0
LINE
  5
1F7C7
330
747D
100
AcDbEntity
  8
部品1
 48
50.0
100
AcDbLine
 10
8483.005989267335
 20
1417.616354577902
 30
0.0
 11
8483.005989267335
 21
1657.616354577902
 31
0.0
  0
LINE
  5
1F7C8
330
747D
100
AcDbEntity
  8
細線
 48
50.0
100
AcDbLine
 10
8483.005989267327
 20
1576.463100340073
 30
0.0
 11
8564.159243505162
 21
1657.616354577902
 31
0.0
  0
LINE
  5
1F7C9
330
747D
100
AcDbEntity
  8
部品1
 48
50.0
100
AcDbLine
 10
9233.005989267336
 20
1289.616354577902
 30
0.0
 11
8403.005989267336
 21
1289.616354577902
 31
0.0
  0
LINE
  5
1F7CA
330
747D
100
AcDbEntity
  8
部品1
 48
50.0
100
AcDbLine
 10
9233.005989267336
 20
1417.616354577902
 30
0.0
 11
8403.005989267336
 21
1417.616354577902
 31
0.0
  0
LINE
  5
1F7CB
330
747D
100
AcDbEntity
  8
細線
 48
50.0
100
AcDbLine
 10
8485.803853684407
 20
1417.616354577902
 30
0.0
 11
9025.005989267333
 21
1956.818490160827
 31
0.0
  0
LINE
  5
1F7CC
330
747D
100
AcDbEntity
  8
細線
 48
50.0
100
AcDbLine
 10
8512.744622047618
 20
1417.616354577902
 30
0.0
 11
9025.005989267336
 21
1929.877721797616
 31
0.0
  0
LINE
  5
1F7CD
330
747D
100
AcDbEntity
  8
細線
 48
50.0
100
AcDbLine
 10
8539.685390410822
 20
1417.616354577902
 30
0.0
 11
9025.005989267333
 21
1902.936953434409
 31
0.0
  0
LINE
  5
1F7CE
330
747D
100
AcDbEntity
  8
細線
 48
50.0
100
AcDbLine
 10
8611.005989267335
 20
1758.344637066488
 30
0.0
 11
8769.405989267326
 21
1916.744637066483
 31
0.0
  0
LINE
  5
1F7CF
330
747D
100
AcDbEntity
  8
細線
 48
50.0
100
AcDbLine
 10
8611.005989267335
 20
1704.463100340072
 30
0.0
 11
8784.15924350517
 21
1877.6163545779
 31
0.0
  0
LINE
  5
1F7D0
330
747D
100
AcDbEntity
  8
細線
 48
50.0
100
AcDbLine
 10
8611.005989267335
 20
1731.40386870328
 30
0.0
 11
8769.405989267326
 21
1889.803868703268
 31
0.0
  0
LINE
  5
1F7D1
330
747D
100
AcDbEntity
  8
部品1
100
AcDbLine
 10
8769.405989267328
 20
1877.616354577902
 30
0.0
 11
8769.405989267333
 21
2201.616354577902
 31
0.0
  0
LINE
  5
1F7D2
330
747D
100
AcDbEntity
  8
部品1
100
AcDbLine
 10
8895.405989267334
 20
1877.616354577902
 30
0.0
 11
8895.405989267334
 21
2201.616354577902
 31
0.0
  0
LINE
  5
1F7D3
330
747D
100
AcDbEntity
  8
細線
 48
50.0
100
AcDbLine
 10
8895.405989267336
 20
2015.803868703273
 30
0.0
 11
9025.005989267333
 21
2145.40386870327
 31
0.0
  0
LINE
  5
1F7D4
330
747D
100
AcDbEntity
  8
細線
 48
50.0
100
AcDbLine
 10
8895.405989267336
 20
1988.86310034006
 30
0.0
 11
9025.005989267333
 21
2118.463100340052
 31
0.0
  0
LINE
  5
1F7D5
330
747D
100
AcDbEntity
  8
部品1
100
AcDbLine
 10
8823.405989267333
 20
1976.616354577902
 30
0.0
 11
8823.40598926733
 21
2250.776354577903
 31
0.0
  0
LINE
  5
1F7D6
330
747D
100
AcDbEntity
  8
部品1
100
AcDbLine
 10
8841.405989267334
 20
1976.616354577902
 30
0.0
 11
8841.405989267331
 21
2250.776354577903
 31
0.0
  0
TEXT
  5
1F7D7
330
747D
100
AcDbEntity
  8
部品1
 48
50.0
100
AcDbText
 10
8196.866087434377
 20
1972.855346861157
 30
0.0
 40
80.0
  1
▽G.L
  7
STYLE2
100
AcDbText
  0
LINE
  5
1F7D8
330
747D
100
AcDbEntity
  8
細線
 48
50.0
100
AcDbLine
 10
8611.005989267335
 20
1919.989247245732
 30
0.0
 11
8769.405989267331
 21
2078.389247245725
 31
0.0
  0
LINE
  5
1F7D9
330
747D
100
AcDbEntity
  8
細線
 48
50.0
100
AcDbLine
 10
8611.005989267335
 20
1946.930015608939
 30
0.0
 11
8769.405989267331
 21
2105.330015608937
 31
0.0
  0
LINE
  5
1F7DA
330
747D
100
AcDbEntity
  8
細線
 48
50.0
100
AcDbLine
 10
8611.005989267335
 20
1973.870783972147
 30
0.0
 11
8769.405989267331
 21
2132.270783972144
 31
0.0
  0
LINE
  5
1F7DB
330
747D
100
AcDbEntity
  8
部品1
 48
50.0
100
AcDbLine
 10
8611.005989267335
 20
1657.616354577902
 30
0.0
 11
8611.005989267335
 21
2201.616354577902
 31
0.0
  0
LINE
  5
1F7DC
330
747D
100
AcDbEntity
  8
部品1
100
AcDbLine
 10
9025.005989267333
 20
1657.616354577902
 30
0.0
 11
9025.005989267333
 21
2201.616354577902
 31
0.0
  0
LINE
  5
1F7DD
330
747D
100
AcDbEntity
  8
細線
 48
50.0
100
AcDbLine
 10
8895.405989267336
 20
2042.744637066491
 30
0.0
 11
9025.005989267333
 21
2172.344637066489
 31
0.0
  0
LINE
  5
1F7DE
330
747D
100
AcDbEntity
  8
細線
 48
50.0
100
AcDbLine
 10
6810.183795226473
 20
2082.363206474618
 30
0.0
 11
6893.691372724003
 21
2165.870783972147
 31
0.0
  0
LINE
  5
1F7DF
330
747D
100
AcDbEntity
  8
細線
 48
50.0
100
AcDbLine
 10
6821.244079989989
 20
2066.482722874924
 30
0.0
 11
6893.691372724003
 21
2138.93001560894
 31
0.0
  0
LINE
  5
1F7E0
330
747D
100
AcDbEntity
  8
細線
 48
50.0
100
AcDbLine
 10
6701.691372724003
 20
2189.396930877807
 30
0.0
 11
6713.910796424098
 21
2201.616354577902
 31
0.0
  0
LINE
  5
1F7E1
330
747D
100
AcDbEntity
  8
細線
 48
50.0
100
AcDbLine
 10
6701.691372724003
 20
2135.515394151392
 30
0.0
 11
6767.792333150511
 21
2201.616354577902
 31
0.0
  0
LINE
  5
1F7E2
330
747D
100
AcDbEntity
  8
細線
 48
50.0
100
AcDbLine
 10
6701.691372724003
 20
2162.4561625146
 30
0.0
 11
6740.851564787305
 21
2201.616354577902
 31
0.0
  0
LINE
  5
1F7E3
330
747D
100
AcDbEntity
  8
部品1
 48
50.0
100
AcDbLine
 10
6701.691372724003
 20
2201.616354577902
 30
0.0
 11
6893.691372724003
 21
2201.616354577902
 31
0.0
  0
DIMENSION
  5
1F7E4
330
747D
100
AcDbEntity
  8
寸法
 48
50.0
100
AcDbDimension
  2
*D20
 10
6701.691372724003
 20
2521.616354577902
 30
0.0
 11
6800.157649223573
 21
2560.410078440539
 31
0.0
 70
   160
  1
120\P170
 71
     5
 42
192.0
  3
INABA_S40G
100
AcDbAlignedDimension
 13
6893.691372724003
 23
2201.616354577902
 33
0.0
 14
6701.691372724003
 24
2201.616354577902
 34
0.0
100
AcDbRotatedDimension
1001
ACAD
1000
DSTYLE
1002
{
1070
   174
1070
     0
1070
   272
1070
     1
1070
   279
1070
     1
1070
   288
1070
     0
1070
   341
1005
0
1002
}
  0
MTEXT
  5
1F7E5
102
{ACAD_REACTORS
330
1F83A
102
}
330
747D
100
AcDbEntity
  8
寸法
 62
     7
 48
50.0
100
AcDbMText
 10
7135.429828585253
 20
1240.267268845749
 30
0.0
 40
80.0
 41
0.8
 71
     4
 72
     1
  1
\A1;D10@300
  7
STYLE2
 73
     1
 44
1.0
1001
ACAD
1000
MTEXTBEGIN
1070
    73
1070
     1
1070
    44
1040
1.0
1070
    74
1070
     0
1000
MTEXTEND
  0
LINE
  5
1F7E6
330
747D
100
AcDbEntity
  8
細線
 48
50.0
100
AcDbLine
 10
6821.691372724008
 20
1851.403868703282
 30
0.0
 11
6893.691372723996
 21
1923.403868703277
 31
0.0
  0
LINE
  5
1F7E7
330
747D
100
AcDbEntity
  8
細線
 48
50.0
100
AcDbLine
 10
6821.691372724003
 20
1878.344637066488
 30
0.0
 11
6893.691372724003
 21
1950.344637066488
 31
0.0
  0
LINE
  5
1F7E8
330
747D
100
AcDbEntity
  8
細線
 48
50.0
100
AcDbLine
 10
6821.691372724008
 20
1608.936953434413
 30
0.0
 11
6893.691372723996
 21
1680.936953434413
 31
0.0
  0
LINE
  5
1F7E9
330
747D
100
AcDbEntity
  8
細線
 48
50.0
100
AcDbLine
 10
6821.691372724008
 20
1662.818490160831
 30
0.0
 11
6893.691372723996
 21
1734.818490160827
 31
0.0
  0
LINE
  5
1F7EA
330
747D
100
AcDbEntity
  8
細線
 48
50.0
100
AcDbLine
 10
6821.691372724008
 20
1635.877721797623
 30
0.0
 11
6893.691372723996
 21
1707.877721797618
 31
0.0
  0
LINE
  5
1F7EB
330
747D
100
AcDbEntity
  8
部品1
 48
50.0
100
AcDbLine
 10
6893.691372724003
 20
1657.616354577902
 30
0.0
 11
7021.691372724003
 21
1657.616354577902
 31
0.0
  0
LINE
  5
1F7EC
330
747D
100
AcDbEntity
  8
細線
 48
50.0
100
AcDbLine
 10
6821.691372724008
 20
1824.463100340073
 30
0.0
 11
6893.691372723996
 21
1896.463100340073
 31
0.0
  0
LINE
  5
1F7ED
330
747D
100
AcDbEntity
  8
部品1
 48
50.0
100
AcDbLine
 10
6789.691372724004
 20
2003.743569275024
 30
0.0
 11
6789.691372724004
 21
2061.870783972147
 31
0.0
  0
LINE
  5
1F7EE
330
747D
100
AcDbEntity
  8
細線
 48
50.0
100
AcDbLine
 10
6701.691372724003
 20
1973.870783972147
 30
0.0
 11
6773.691372724002
 21
2045.870783972147
 31
0.0
  0
LINE
  5
1F7EF
330
747D
100
AcDbEntity
  8
部品1
 48
50.0
100
AcDbLine
 10
6773.691372724002
 20
2003.743569275028
 30
0.0
 11
6773.691372724002
 21
2061.870783972147
 31
0.0
  0
LINE
  5
1F7F0
330
747D
100
AcDbEntity
  8
細線
 48
50.0
100
AcDbLine
 10
6701.691372724003
 20
1946.930015608939
 30
0.0
 11
6773.691372724002
 21
2018.93001560894
 31
0.0
  0
LINE
  5
1F7F1
330
747D
100
AcDbEntity
  8
細線
 48
50.0
100
AcDbLine
 10
6701.691372724003
 20
1919.989247245732
 30
0.0
 11
6785.445694753296
 21
2003.743569275024
 31
0.0
  0
LINE
  5
1F7F2
330
747D
100
AcDbEntity
  8
部品1
 48
50.0
100
AcDbLine
 10
6789.691372724004
 20
2003.743569275024
 30
0.0
 11
6773.691372724002
 21
2003.743569275028
 31
0.0
  0
LINE
  5
1F7F3
330
747D
100
AcDbEntity
  8
細線
 48
50.0
100
AcDbLine
 10
6573.691372723995
 20
1630.344637066488
 30
0.0
 11
6600.963090235416
 21
1657.616354577902
 31
0.0
  0
LINE
  5
1F7F4
330
747D
100
AcDbEntity
  8
細線
 48
50.0
100
AcDbLine
 10
6573.691372723995
 20
1603.403868703277
 30
0.0
 11
6627.903858598627
 21
1657.616354577902
 31
0.0
  0
LINE
  5
1F7F5
330
747D
100
AcDbEntity
  8
部品1
 48
50.0
100
AcDbLine
 10
6573.691372724002
 20
1657.616354577902
 30
0.0
 11
6701.691372724003
 21
1657.616354577902
 31
0.0
  0
LINE
  5
1F7F6
330
747D
100
AcDbEntity
  8
細線
 48
50.0
100
AcDbLine
 10
6789.691372724004
 20
2034.93001560894
 30
0.0
 11
6805.691372724003
 21
2050.93001560894
 31
0.0
  0
LINE
  5
1F7F7
330
747D
100
AcDbEntity
  8
細線
 48
50.0
100
AcDbLine
 10
6789.691372724004
 20
2007.989247245733
 30
0.0
 11
6805.691372724003
 21
2023.989247245733
 31
0.0
  0
LINE
  5
1F7F8
330
747D
100
AcDbEntity
  8
細線
 48
50.0
100
AcDbLine
 10
6701.691372724003
 20
1704.463100340072
 30
0.0
 11
6805.691372724009
 21
1808.463100340073
 31
0.0
  0
LINE
  5
1F7F9
330
747D
100
AcDbEntity
  8
細線
 48
50.0
100
AcDbLine
 10
6701.691372724003
 20
1758.344637066488
 30
0.0
 11
6805.691372724003
 21
1862.344637066488
 31
0.0
  0
LINE
  5
1F7FA
330
747D
100
AcDbEntity
  8
細線
 48
50.0
100
AcDbLine
 10
6701.691372724003
 20
1731.40386870328
 30
0.0
 11
6805.691372724009
 21
1835.403868703282
 31
0.0
  0
LINE
  5
1F7FB
330
747D
100
AcDbEntity
  8
細線
 48
50.0
100
AcDbLine
 10
6964.51701812735
 20
1393.616354577902
 30
0.0
 11
6958.086237509004
 21
1417.616354577902
 31
0.0
  0
LINE
  5
1F7FC
330
747D
100
AcDbEntity
  8
細線
 48
50.0
100
AcDbLine
 10
7007.541530952396
 20
1417.616354577902
 30
0.0
 11
7021.691372724003
 21
1431.766196349508
 31
0.0
  0
LINE
  5
1F7FD
330
747D
100
AcDbEntity
  8
細線
 48
50.0
100
AcDbLine
 10
7043.405063074597
 20
1393.616354577902
 30
0.0
 11
7036.974282456249
 21
1417.616354577902
 31
0.0
  0
LINE
  5
1F7FE
330
747D
100
AcDbEntity
  8
部品1
 48
50.0
100
AcDbLine
 10
6965.691372724002
 20
1529.616354577902
 30
0.0
 11
6965.691372724002
 21
1513.616354577902
 31
0.0
  0
LINE
  5
1F7FF
330
747D
100
AcDbEntity
  8
細線
 48
50.0
100
AcDbLine
 10
6845.896920773149
 20
1417.616354577902
 30
0.0
 11
6941.897808618287
 21
1513.617242423041
 31
0.0
  0
LINE
  5
1F800
330
747D
100
AcDbEntity
  8
細線
 48
50.0
100
AcDbLine
 10
6818.956152409946
 20
1417.616354577902
 30
0.0
 11
6914.956152409946
 21
1513.616354577902
 31
0.0
  0
LINE
  5
1F801
330
747D
100
AcDbEntity
  8
細線
 48
50.0
100
AcDbLine
 10
6885.628973180104
 20
1393.616354577902
 30
0.0
 11
6879.198192561759
 21
1417.616354577902
 31
0.0
  0
LINE
  5
1F802
330
747D
100
AcDbEntity
  8
細線
 48
50.0
100
AcDbLine
 10
6806.740928232859
 20
1393.616354577902
 30
0.0
 11
6800.310147614512
 21
1417.616354577902
 31
0.0
  0
ARC
  5
1F803
330
747D
100
AcDbEntity
  8
部品1
 48
50.0
100
AcDbCircle
 10
6797.691372724003
 20
1537.616354577902
 30
0.0
 40
24.0
100
AcDbArc
 50
340.528779365498
 51
0.0
  0
CIRCLE
  5
1F804
330
747D
100
AcDbEntity
  8
部品1
 48
50.0
100
AcDbCircle
 10
6925.691372724003
 20
1537.616354577902
 30
0.0
 40
8.0
  0
LINE
  5
1F805
330
747D
100
AcDbEntity
  8
細線
 48
50.0
100
AcDbLine
 10
6957.89692077315
 20
1529.616354577902
 30
0.0
 11
7021.691372724003
 21
1593.410806528753
 31
0.0
  0
LINE
  5
1F806
330
747D
100
AcDbEntity
  8
細線
 48
50.0
100
AcDbLine
 10
7094.426392009005
 20
1289.6163545779
 30
0.0
 11
7101.691372724002
 21
1316.72963172229
 31
0.0
  0
LINE
  5
1F807
330
747D
100
AcDbEntity
  8
細線
 48
50.0
100
AcDbLine
 10
7100.857172627354
 20
1313.616354577902
 30
0.0
 11
7101.691372724002
 21
1310.503077433537
 31
0.0
  0
LINE
  5
1F808
330
747D
100
AcDbEntity
  8
細線
 48
50.0
100
AcDbLine
 10
7021.969127680107
 20
1313.616354577902
 30
0.0
 11
7028.399908298455
 21
1289.616354577902
 31
0.0
  0
LINE
  5
1F809
330
747D
100
AcDbEntity
  8
細線
 48
50.0
100
AcDbLine
 10
6864.193037785615
 20
1313.616354577902
 30
0.0
 11
6870.623818403962
 21
1289.616354577902
 31
0.0
  0
LINE
  5
1F80A
330
747D
100
AcDbEntity
  8
細線
 48
50.0
100
AcDbLine
 10
6943.081082732861
 20
1313.616354577902
 30
0.0
 11
6949.511863351209
 21
1289.616354577902
 31
0.0
  0
LINE
  5
1F80B
330
747D
100
AcDbEntity
  8
細線
 48
50.0
100
AcDbLine
 10
6936.650302114511
 20
1289.6163545779
 30
0.0
 11
6970.947798745696
 21
1417.6163545779
 31
0.0
  0
LINE
  5
1F80C
330
747D
100
AcDbEntity
  8
細線
 48
50.0
100
AcDbLine
 10
6857.762257167262
 20
1289.616354577902
 30
0.0
 11
6892.059753798449
 21
1417.6163545779
 31
0.0
  0
LINE
  5
1F80D
330
747D
100
AcDbEntity
  8
細線
 48
50.0
100
AcDbLine
 10
7015.538347061756
 20
1289.616354577902
 30
0.0
 11
7049.835843692941
 21
1417.6163545779
 31
0.0
  0
LINE
  5
1F80E
330
747D
100
AcDbEntity
  8
部品1
 48
50.0
100
AcDbLine
 10
7101.691372724006
 20
1417.616354577902
 30
0.0
 11
7101.691372724006
 21
1289.616354577902
 31
0.0
  0
LINE
  5
1F80F
330
747D
100
AcDbEntity
  8
部品1
 48
50.0
100
AcDbLine
 10
6789.691372724004
 20
1595.743569275024
 30
0.0
 11
6789.691372724004
 21
1537.616354577902
 31
0.0
  0
LINE
  5
1F810
330
747D
100
AcDbEntity
  8
細線
 48
50.0
100
AcDbLine
 10
6715.430005504285
 20
1529.616354577902
 30
0.0
 11
6773.691372724002
 21
1587.87772179762
 31
0.0
  0
LINE
  5
1F811
330
747D
100
AcDbEntity
  8
部品1
 48
50.0
100
AcDbLine
 10
6773.691372724002
 20
1595.743569275024
 30
0.0
 11
6773.691372724002
 21
1537.616354577902
 31
0.0
  0
LINE
  5
1F812
330
747D
100
AcDbEntity
  8
細線
 48
50.0
100
AcDbLine
 10
6630.370773867491
 20
1417.616354577902
 30
0.0
 11
6726.370773867491
 21
1513.616354577902
 31
0.0
  0
LINE
  5
1F813
330
747D
100
AcDbEntity
  8
細線
 48
50.0
100
AcDbLine
 10
6727.852883285606
 20
1393.616354577902
 30
0.0
 11
6721.42210266726
 21
1417.616354577902
 31
0.0
  0
LINE
  5
1F814
330
747D
100
AcDbEntity
  8
細線
 48
50.0
100
AcDbLine
 10
6648.964838338354
 20
1393.616354577902
 30
0.0
 11
6642.534057720007
 21
1417.616354577902
 31
0.0
  0
ARC
  5
1F815
330
747D
100
AcDbEntity
  8
部品1
 48
50.0
100
AcDbCircle
 10
6797.691372724003
 20
1537.616354577902
 30
0.0
 40
24.0
100
AcDbArc
 50
180.0
 51
199.471220634502
  0
LINE
  5
1F816
330
747D
100
AcDbEntity
  8
細線
 48
50.0
100
AcDbLine
 10
6742.370773867491
 20
1529.616354577902
 30
0.0
 11
6773.691372724002
 21
1560.936953434413
 31
0.0
  0
CIRCLE
  5
1F817
330
747D
100
AcDbEntity
  8
部品1
 48
50.0
100
AcDbCircle
 10
6669.691372724003
 20
1537.616354577902
 30
0.0
 40
8.0
  0
LINE
  5
1F818
330
747D
100
AcDbEntity
  8
部品1
 48
50.0
100
AcDbLine
 10
6789.691372724004
 20
1595.743569275024
 30
0.0
 11
6773.691372724002
 21
1595.743569275024
 31
0.0
  0
LINE
  5
1F819
330
747D
100
AcDbEntity
  8
細線
 48
50.0
100
AcDbLine
 10
6493.691372724002
 20
1402.956275543682
 30
0.0
 11
6497.619529062198
 21
1417.616354577902
 31
0.0
  0
LINE
  5
1F81A
330
747D
100
AcDbEntity
  8
細線
 48
50.0
100
AcDbLine
 10
6570.076793391102
 20
1393.616354577902
 30
0.0
 11
6563.646012772754
 21
1417.616354577902
 31
0.0
  0
LINE
  5
1F81B
330
747D
100
AcDbEntity
  8
部品1
 48
50.0
100
AcDbLine
 10
6629.691372724002
 20
1529.616354577902
 30
0.0
 11
6629.691372724002
 21
1513.616354577902
 31
0.0
  0
LINE
  5
1F81C
330
747D
100
AcDbEntity
  8
細線
 48
50.0
100
AcDbLine
 10
6576.489237141075
 20
1417.616354577902
 30
0.0
 11
6672.489237141075
 21
1513.616354577902
 31
0.0
  0
LINE
  5
1F81D
330
747D
100
AcDbEntity
  8
細線
 48
50.0
100
AcDbLine
 10
6603.430005504286
 20
1417.616354577902
 30
0.0
 11
6699.430005504286
 21
1513.616354577902
 31
0.0
  0
LINE
  5
1F81E
330
747D
100
AcDbEntity
  8
細線
 48
50.0
100
AcDbLine
 10
6706.416947891117
 20
1313.616354577902
 30
0.0
 11
6712.847728509463
 21
1289.616354577902
 31
0.0
  0
LINE
  5
1F81F
330
747D
100
AcDbEntity
  8
細線
 48
50.0
100
AcDbLine
 10
6785.304992838369
 20
1313.616354577902
 30
0.0
 11
6791.735773456716
 21
1289.616354577902
 31
0.0
  0
LINE
  5
1F820
330
747D
100
AcDbEntity
  8
細線
 48
50.0
100
AcDbLine
 10
6548.640857996613
 20
1313.616354577902
 30
0.0
 11
6555.07163861496
 21
1289.616354577902
 31
0.0
  0
LINE
  5
1F821
330
747D
100
AcDbEntity
  8
細線
 48
50.0
100
AcDbLine
 10
6627.528902943865
 20
1313.616354577902
 30
0.0
 11
6633.959683562213
 21
1289.616354577902
 31
0.0
  0
LINE
  5
1F822
330
747D
100
AcDbEntity
  8
部品1
 48
50.0
100
AcDbLine
 10
6493.691372724004
 20
1289.616354577902
 30
0.0
 11
6493.691372724004
 21
1417.616354577902
 31
0.0
  0
LINE
  5
1F823
330
747D
100
AcDbEntity
  8
細線
 48
50.0
100
AcDbLine
 10
6542.21007737826
 20
1289.6163545779
 30
0.0
 11
6576.507574009443
 21
1417.6163545779
 31
0.0
  0
LINE
  5
1F824
330
747D
100
AcDbEntity
  8
細線
 48
50.0
100
AcDbLine
 10
6699.986167272763
 20
1289.6163545779
 30
0.0
 11
6734.283663903948
 21
1417.6163545779
 31
0.0
  0
LINE
  5
1F825
330
747D
100
AcDbEntity
  8
細線
 48
50.0
100
AcDbLine
 10
6621.098122325519
 20
1289.616354577902
 30
0.0
 11
6655.395618956702
 21
1417.616354577902
 31
0.0
  0
LINE
  5
1F826
330
747D
100
AcDbEntity
  8
細線
 48
50.0
100
AcDbLine
 10
6792.015384046734
 20
1417.616354577902
 30
0.0
 11
6888.015384046735
 21
1513.616354577902
 31
0.0
  0
CIRCLE
  5
1F827
330
747D
100
AcDbEntity
  8
部品1
 48
50.0
100
AcDbCircle
 10
6797.691372724003
 20
1537.616354577902
 30
0.0
 40
8.0
  0
LINE
  5
1F828
330
747D
100
AcDbEntity
  8
部品1
 48
50.0
100
AcDbLine
 10
7101.691372724006
 20
1417.616354577902
 30
0.0
 11
6493.691372724004
 21
1417.616354577902
 31
0.0
  0
LINE
  5
1F829
330
747D
100
AcDbEntity
  8
部品1
 48
50.0
100
AcDbLine
 10
6629.691372724002
 20
1529.616354577902
 30
0.0
 11
6965.691372724002
 21
1529.616354577902
 31
0.0
  0
LINE
  5
1F82A
330
747D
100
AcDbEntity
  8
部品1
 48
50.0
100
AcDbLine
 10
6629.691372724002
 20
1513.616354577902
 30
0.0
 11
6965.691372724002
 21
1513.616354577902
 31
0.0
  0
LINE
  5
1F82B
330
747D
100
AcDbEntity
  8
部品1
 48
50.0
100
AcDbLine
 10
7101.691372724006
 20
1289.616354577902
 30
0.0
 11
6493.691372724004
 21
1289.616354577902
 31
0.0
  0
LINE
  5
1F82C
330
747D
100
AcDbEntity
  8
細線
 48
50.0
100
AcDbLine
 10
6778.874212220016
 20
1289.616354577902
 30
0.0
 11
6813.171708851199
 21
1417.616354577902
 31
0.0
  0
LINE
  5
1F82D
330
747D
100
AcDbEntity
  8
細線
 48
50.0
100
AcDbLine
 10
6789.691372724004
 20
1576.936953434413
 30
0.0
 11
6805.691372724009
 21
1592.936953434413
 31
0.0
  0
LINE
  5
1F82E
330
747D
100
AcDbEntity
  8
部品1
 48
50.0
100
AcDbLine
 10
6805.691372724009
 20
1537.616354577902
 30
0.0
 11
6805.691372723996
 21
2061.870783972147
 31
0.0
  0
LINE
  5
1F82F
330
747D
100
AcDbEntity
  8
部品1
 48
50.0
100
AcDbLine
 10
6821.691372724008
 20
1537.616354577902
 30
0.0
 11
6821.691372724003
 21
2061.870783972147
 31
0.0
  0
LINE
  5
1F830
330
747D
100
AcDbEntity
  8
部品1
 48
50.0
100
AcDbLine
 10
7021.691372724003
 20
1657.616354577902
 30
0.0
 11
7021.691372724003
 21
1417.616354577902
 31
0.0
  0
LINE
  5
1F831
330
747D
100
AcDbEntity
  8
細線
 48
50.0
100
AcDbLine
 10
6904.015384046729
 20
1529.616354577902
 30
0.0
 11
7021.691372724003
 21
1647.292343255168
 31
0.0
  0
LINE
  5
1F832
330
747D
100
AcDbEntity
  8
細線
 48
50.0
100
AcDbLine
 10
6930.956152409947
 20
1529.616354577902
 30
0.0
 11
7021.691372724003
 21
1620.351574891961
 31
0.0
  0
LINE
  5
1F833
330
747D
100
AcDbEntity
  8
部品1
 48
50.0
100
AcDbLine
 10
6573.691372724002
 20
1417.616354577902
 30
0.0
 11
6573.691372724002
 21
1657.616354577902
 31
0.0
  0
LINE
  5
1F834
330
747D
100
AcDbEntity
  8
細線
 48
50.0
100
AcDbLine
 10
6688.489237141076
 20
1529.616354577902
 30
0.0
 11
6805.691372724003
 21
1646.818490160827
 31
0.0
  0
LINE
  5
1F835
330
747D
100
AcDbEntity
  8
細線
 48
50.0
100
AcDbLine
 10
6781.557220201406
 20
1595.743569275024
 30
0.0
 11
6805.691372724009
 21
1619.877721797623
 31
0.0
  0
LINE
  5
1F836
330
747D
100
AcDbEntity
  8
細線
 48
50.0
100
AcDbLine
 10
6573.691372723995
 20
1576.463100340073
 30
0.0
 11
6654.844626961831
 21
1657.616354577902
 31
0.0
  0
LEADER
  5
1F837
330
747D
100
AcDbEntity
  8
寸法
 48
50.0
100
AcDbLeader
  3
INABA_S50G
 71
     0
 73
     0
 74
     0
 75
     1
 40
100.0
 41
222.7272727272727
 76
     3
 10
6797.691372724002
 20
2061.870783972147
 30
0.0
 10
6831.577309751397
 20
2002.88391587683
 30
0.0
 10
6956.577309751397
 20
2002.88391587683
 30
0.0
1001
ACAD
1000
DSTYLE
1002
{
1070
    40
1040
1.0
1070
   272
1070
     1
1070
   279
1070
     1
1070
   341
1005
0
1002
}
  0
LWPOLYLINE
  5
1F838
330
747D
100
AcDbEntity
  8
部品1
 48
50.0
100
AcDbPolyline
 90
        2
 70
     0
 43
8.0
 10
6893.691372724003
 20
1961.616354577903
 10
7307.831274556959
 20
1961.616354577903
  0
MTEXT
  5
1F839
102
{ACAD_REACTORS
330
1F83B
102
}
330
747D
100
AcDbEntity
  8
寸法
 62
     7
 48
50.0
100
AcDbMText
 10
7125.019032530687
 20
1502.219285634929
 30
0.0
 40
80.0
 41
0.8
 71
     4
 72
     1
  1
D10
  7
STYLE2
 73
     1
 44
1.0
1001
ACAD
1000
MTEXTBEGIN
1070
    73
1070
     1
1070
    44
1040
1.0
1070
    74
1070
     0
1000
MTEXTEND
  0
LEADER
  5
1F83A
330
747D
100
AcDbEntity
  8
寸法
 48
50.0
100
AcDbLeader
  3
INABA_S50G
 71
     0
 73
     0
 74
     0
 75
     1
 40
100.0
 41
540.3409090909091
 76
     3
 10
6871.636541737176
 20
1520.875824164376
 30
0.0
 10
6990.429828585253
 20
1179.245006169479
 30
0.0
 10
7115.429828585253
 20
1179.245006169479
 30
0.0
213
0.0
223
-1.022262676269383
233
0.0
1001
ACAD
1000
DSTYLE
1002
{
1070
    40
1040
1.0
1070
   272
1070
     1
1070
   279
1070
     1
1070
   341
1005
0
1002
}
  0
LEADER
  5
1F83B
330
747D
100
AcDbEntity
  8
寸法
 48
50.0
100
AcDbLeader
  3
INABA_S50G
 71
     0
 73
     0
 74
     0
 75
     1
 40
100.0
 41
225.0
 76
     3
 10
6925.594325076144
 20
1537.616354577902
 30
0.0
 10
6980.019032530687
 20
1442.219285634929
 30
0.0
 10
7105.019032530687
 20
1442.219285634929
 30
0.0
1001
ACAD
1000
DSTYLE
1002
{
1070
    40
1040
1.0
1070
   272
1070
     1
1070
   279
1070
     1
1070
   341
1005
0
1002
}
  0
MTEXT
  5
1F83C
102
{ACAD_REACTORS
330
1F837
102
}
330
747D
100
AcDbEntity
  8
寸法
 62
     7
 48
50.0
100
AcDbMText
 10
6976.577309751397
 20
2062.88391587683
 30
0.0
 40
80.0
 41
0.8
 71
     4
 72
     1
  1
D13
  7
STYLE2
 73
     1
 44
1.0
1001
ACAD
1000
MTEXTBEGIN
1070
    73
1070
     1
1070
    44
1040
1.0
1070
    74
1070
     0
1000
MTEXTEND
  0
LINE
  5
1F83D
330
747D
100
AcDbEntity
  8
部品1
 48
50.0
100
AcDbLine
 10
6893.691372724003
 20
2201.616354577902
 30
0.0
 11
6893.691372724003
 21
1657.616354577902
 31
0.0
  0
LINE
  5
1F83E
330
747D
100
AcDbEntity
  8
部品1
 48
50.0
100
AcDbLine
 10
6701.691372724003
 20
1657.616354577902
 30
0.0
 11
6701.691372724003
 21
2201.616354577902
 31
0.0
  0
CIRCLE
  5
1F83F
330
747D
100
AcDbEntity
  8
部品1
 48
50.0
100
AcDbCircle
 10
6797.691372724003
 20
2061.870783972147
 30
0.0
 40
8.0
  0
ARC
  5
1F840
330
747D
100
AcDbEntity
  8
部品1
 48
50.0
100
AcDbCircle
 10
6797.691372724003
 20
2061.870783972147
 30
0.0
 40
24.0
100
AcDbArc
 50
0.0
 51
180.0
  0
LINE
  5
1F841
330
747D
100
AcDbEntity
  8
細線
 48
50.0
100
AcDbLine
 10
6821.691372724003
 20
2039.989247245733
 30
0.0
 11
6893.691372724003
 21
2111.989247245732
 31
0.0
  0
LEADER
  5
1F842
330
747D
100
AcDbEntity
  8
寸法
 48
50.0
100
AcDbLeader
  3
INABA_S50G
 73
     0
 75
     1
 40
106.3636363636363
 41
903.5235024184547
 76
     3
 10
8742.405989267332
 20
2271.176354577903
 30
0.0
 10
8693.981916922394
 20
2645.235929294235
 30
0.0
 10
8568.981916922394
 20
2645.235929294235
 30
0.0
340
1F843
1001
ACAD
1000
DSTYLE
1002
{
1070
   341
1005
0
1070
    40
1040
1.0
1070
   343
1005
0
1070
   344
1005
0
1002
}
  0
MTEXT
  5
1F843
102
{ACAD_REACTORS
330
1F842
102
}
330
747D
100
AcDbEntity
  8
寸法
 62
     7
 48
50.0
100
AcDbMText
 10
8543.981916922396
 20
2723.417747476054
 30
0.0
 40
80.0
 41
0.8
 71
     6
 72
     1
  1
アンカープレート {\fArial|b0|i0|c0|p32;U}
  7
STYLE2
 73
     1
 44
1.0
1001
ACAD
1000
MTEXTBEGIN
1070
    73
1070
     1
1070
    44
1040
1.0
1070
    74
1070
     0
1000
MTEXTEND
  0
DIMENSION
  5
1F844
330
747D
100
AcDbEntity
  8
寸法
 48
50.0
100
AcDbDimension
  2
*D21
 10
7021.691372724001
 20
879.1867165727417
 30
0.0
 11
6777.594614045778
 21
879.1867165727417
 31
0.0
 70
   160
  1
300
 71
     5
 42
448.0
  3
INABA_S40G
100
AcDbAlignedDimension
 13
6573.691372724002
 23
1289.616354577902
 33
0.0
 14
7021.691372724001
 24
1289.616354577902
 34
0.0
100
AcDbRotatedDimension
1001
ACAD
1000
DSTYLE
1002
{
1070
   174
1070
     0
1070
   272
1070
     1
1070
   279
1070
     1
1070
   288
1070
     0
1070
   341
1005
0
1002
}
  0
MTEXT
  5
1F845
102
{ACAD_REACTORS
330
1F84D
102
}
330
747D
100
AcDbEntity
  8
寸法
 62
     7
 48
50.0
100
AcDbMText
 10
6402.756346528808
 20
1334.093660959465
 30
0.0
 40
80.0
 41
0.8
 71
     6
 72
     1
  1
D10
  7
STYLE2
 73
     1
 44
1.0
1001
ACAD
1000
MTEXTBEGIN
1070
    73
1070
     1
1070
    44
1040
1.0
1070
    74
1070
     0
1000
MTEXTEND
  0
MTEXT
  5
1F846
102
{ACAD_REACTORS
330
1F84C
102
}
330
747D
100
AcDbEntity
  8
寸法
 62
     7
 48
50.0
100
AcDbMText
 10
6430.879074086242
 20
1153.777508420022
 30
0.0
 40
80.0
 41
0.8
 71
     6
 72
     1
  1
D13
  7
STYLE2
 73
     1
 44
1.0
1001
ACAD
1000
MTEXTBEGIN
1070
    73
1070
     1
1070
    44
1040
1.0
1070
    74
1070
     0
1000
MTEXTEND
  0
DIMENSION
  5
1F847
330
747D
100
AcDbEntity
  8
寸法
 48
50.0
100
AcDbDimension
  2
*D22
 10
5966.654134162261
 20
1417.616354577902
 30
0.0
 11
5966.654134162261
 21
1789.156504233902
 31
0.0
 70
   160
  1
540
 71
     5
 42
784.0
  3
INABA_S40G
100
AcDbAlignedDimension
 13
6701.691372724003
 23
2201.616354577902
 33
0.0
 14
6493.691372724005
 24
1417.616354577902
 34
0.0
 50
90.0
100
AcDbRotatedDimension
1001
ACAD
1000
DSTYLE
1002
{
1070
   174
1070
     0
1070
   272
1070
     1
1070
   279
1070
     1
1070
   288
1070
     0
1070
   341
1005
0
1002
}
  0
MTEXT
  5
1F848
102
{ACAD_REACTORS
330
1F849
102
}
330
747D
100
AcDbEntity
  8
寸法
 62
     7
 48
50.0
100
AcDbMText
 10
6481.592893240729
 20
2414.132574579944
 30
0.0
 40
80.0
 41
0.8
 71
     6
 72
     1
  1
\A1;金コテ押エ
  7
STYLE2
 73
     1
 44
1.0
1001
ACAD
1000
MTEXTBEGIN
1070
    73
1070
     1
1070
    44
1040
1.0
1070
    74
1070
     0
1000
MTEXTEND
  0
LEADER
  5
1F849
330
747D
100
AcDbEntity
  8
寸法
 48
50.0
100
AcDbLeader
  3
INABA_S50G
 71
     0
 73
     0
 75
     1
 40
130.1136363636363
 41
651.1363636363636
 76
     3
 10
6781.691372724002
 20
2201.616354577902
 30
0.0
 10
6669.266792559985
 20
2342.08712003449
 30
0.0
 10
6544.266792559985
 20
2342.08712003449
 30
0.0
1001
ACAD
1000
DSTYLE
1002
{
1070
    40
1040
1.0
1070
   272
1070
     1
1070
   279
1070
     1
1070
   341
1005
0
1002
}
  0
LEADER
  5
1F84A
330
747D
100
AcDbEntity
  8
寸法
 48
50.0
100
AcDbLeader
  3
INABA_S50G
 71
     0
 73
     0
 75
     1
 40
100.0
 41
540.3409090909091
 76
     3
 10
6805.691372724002
 20
1959.743569275025
 30
0.0
 10
6747.709136195303
 20
1738.27324073422
 30
0.0
 10
6622.709136195303
 20
1738.27324073422
 30
0.0
213
-9.732182305893367
223
-4.643716661138569
233
0.0
1001
ACAD
1000
DSTYLE
1002
{
1070
    40
1040
1.0
1070
   272
1070
     1
1070
   279
1070
     1
1070
   341
1005
0
1002
}
  0
MTEXT
  5
1F84B
102
{ACAD_REACTORS
330
1F84A
102
}
330
747D
100
AcDbEntity
  8
寸法
 62
     7
 48
50.0
100
AcDbMText
 10
6612.441318501197
 20
1802.916957395359
 30
0.0
 40
80.0
 41
0.8
 71
     6
 72
     1
  1
\A1;D10@300
  7
STYLE2
 73
     1
 44
1.0
1001
ACAD
1000
MTEXTBEGIN
1070
    73
1070
     1
1070
    44
1040
1.0
1070
    74
1070
     0
1000
MTEXTEND
  0
LEADER
  5
1F84C
330
747D
100
AcDbEntity
  8
寸法
 48
50.0
100
AcDbLeader
  3
INABA_S50G
 71
     0
 73
     0
 75
     1
 40
100.0
 41
222.7272727272727
 76
     3
 10
6797.691372724002
 20
1537.616354577902
 30
0.0
 10
6575.879074086242
 20
1093.777508420022
 30
0.0
 10
6450.879074086242
 20
1093.777508420022
 30
0.0
1001
ACAD
1000
DSTYLE
1002
{
1070
    40
1040
1.0
1070
   272
1070
     1
1070
   279
1070
     1
1070
   341
1005
0
1002
}
  0
LEADER
  5
1F84D
330
747D
100
AcDbEntity
  8
寸法
 48
50.0
100
AcDbLeader
  3
INABA_S50G
 71
     0
 73
     0
 75
     1
 40
100.0
 41
225.0
 76
     3
 10
6669.594325076144
 20
1537.616354577902
 30
0.0
 10
6547.756346528807
 20
1274.093660959465
 30
0.0
 10
6422.756346528807
 20
1274.093660959465
 30
0.0
1001
ACAD
1000
DSTYLE
1002
{
1070
    40
1040
1.0
1070
   272
1070
     1
1070
   279
1070
     1
1070
   341
1005
0
1002
}
  0
DIMENSION
  5
1F84E
330
747D
100
AcDbEntity
  8
寸法
 48
50.0
100
AcDbDimension
  2
*D23
 10
6431.271058991542
 20
1417.616354577902
 30
0.0
 11
6431.271058991542
 21
1537.616354577902
 31
0.0
 70
   160
  1
150
 71
     5
 42
240.0
  3
INABA_S40G
100
AcDbAlignedDimension
 13
6573.691372724002
 23
1657.616354577902
 33
0.0
 14
6493.691372724005
 24
1417.616354577902
 34
0.0
 50
90.0
100
AcDbRotatedDimension
1001
ACAD
1000
DSTYLE
1002
{
1070
   174
1070
     0
1070
   272
1070
     1
1070
   279
1070
     1
1070
   288
1070
     0
1070
   341
1005
0
1002
}
  0
TEXT
  5
1F84F
330
747D
100
AcDbEntity
  8
部品1
 48
50.0
100
AcDbText
 10
6287.551470891045
 20
1972.855346861157
 30
0.0
 40
80.0
  1
▽G.L
  7
STYLE2
100
AcDbText
  0
LWPOLYLINE
  5
1F850
330
747D
100
AcDbEntity
  8
部品1
 48
50.0
100
AcDbPolyline
 90
        2
 70
     0
 43
8.0
 10
6287.551470891045
 20
1961.616354577903
 10
6701.691372724003
 20
1961.616354577903
  0
MTEXT
  5
1F851
102
{ACAD_REACTORS
330
1F852
102
}
330
747D
100
AcDbEntity
  8
寸法
 62
     7
 48
50.0
100
AcDbMText
 10
8517.338910714036
 20
3084.102019383568
 30
0.0
 40
80.0
 41
0.8
 71
     6
 72
     1
  1
\A1;φ70スリーブ
  7
STYLE2
 73
     1
 44
1.0
1001
ACAD
1000
MTEXTBEGIN
1070
    73
1070
     1
1070
    44
1040
1.0
1070
    74
1070
     0
1000
MTEXTEND
  0
LEADER
  5
1F852
330
747D
100
AcDbEntity
  8
寸法
 48
50.0
100
AcDbLeader
  3
INABA_S50G
 73
     0
 75
     1
 40
113.1818181818182
 41
608.6363636363635
 76
     3
 10
8801.142739405383
 20
2151.132027936181
 30
0.0
 10
8667.338910714034
 20
3002.511110292659
 30
0.0
 10
8542.338910714034
 20
3002.511110292659
 30
0.0
340
1F851
1001
ACAD
1000
DSTYLE
1002
{
1070
   341
1005
0
1070
    40
1040
1.0
1070
   343
1005
0
1070
   344
1005
0
1002
}
  0
LINE
  5
1F853
330
747D
100
AcDbEntity
  8
部品1
100
AcDbLine
 10
5631.022933914739
 20
3522.587974354747
 30
0.0
 11
5631.022933914739
 21
666.4335294136138
 31
0.0
  0
LEADER
  5
1F854
330
747D
100
AcDbEntity
  8
寸法
 48
50.0
100
AcDbLeader
  3
INABA_S50G
 73
     0
 74
     0
 75
     1
 40
80.0
 41
435.0
 76
     3
 10
8841.405989267332
 20
2250.776354577903
 30
0.0
 10
8883.950451686652
 20
2400.999680731132
 30
0.0
 10
9008.950451686652
 20
2400.999680731132
 30
0.0
340
1F855
1001
ACAD
1000
DSTYLE
1002
{
1070
   341
1005
0
1070
    40
1040
1.0
1070
   343
1005
0
1070
   344
1005
0
1002
}
  0
MTEXT
  5
1F855
102
{ACAD_REACTORS
330
1F854
102
}
330
747D
100
AcDbEntity
  8
部品1
 62
     7
 48
50.0
100
AcDbMText
 10
9033.950451686653
 20
2465.999680731132
 30
0.0
 40
80.0
 41
0.8
 71
     4
 72
     1
  1
M10X160
  7
STYLE2
 73
     1
 44
1.0
1001
ACAD
1000
MTEXTBEGIN
1070
    73
1070
     1
1070
    44
1040
1.0
1070
    74
1070
     0
1000
MTEXTEND
  0
DIMENSION
  5
1F856
330
747D
100
AcDbEntity
  8
寸法
 48
50.0
100
AcDbDimension
  2
*D24
 10
9526.874589036177
 20
2201.616354577902
 30
0.0
 11
9802.929255155206
 21
2176.49239697369
 31
0.0
 70
   160
  1
20～25
 71
     5
 42
52.76000000000113
  3
INABA_S40G
100
AcDbAlignedDimension
 13
8837.805989267334
 23
2254.376354577903
 33
0.0
 14
9025.005989267333
 24
2201.616354577902
 34
0.0
 50
90.0
100
AcDbRotatedDimension
1001
ACAD
1000
DSTYLE
1002
{
1070
   174
1070
     0
1070
   272
1070
     1
1070
   279
1070
     1
1070
   288
1070
     0
1070
   341
1005
0
1002
}
  0
DIMENSION
  5
1F857
330
747D
100
AcDbEntity
  8
寸法
 48
50.0
100
AcDbDimension
  2
*D25
 10
9526.874589036177
 20
1877.616354577901
 30
0.0
 11
9426.874589036177
 21
2039.616354577903
 31
0.0
 70
    32
  1
180
 71
     5
 42
324.0000000000007
  3
INABA_S40G
100
AcDbAlignedDimension
 13
9025.005989267333
 23
2201.616354577902
 33
0.0
 14
9025.005989267333
 24
1877.616354577901
 34
0.0
 50
90.0
100
AcDbRotatedDimension
1001
ACAD
1000
DSTYLE
1002
{
1070
   174
1070
     0
1070
   272
1070
     1
1070
   279
1070
     1
1070
   288
1070
     0
1070
   341
1005
0
1002
}
  0
TEXT
  5
1F858
330
747D
100
AcDbEntity
  8
部品1
 48
50.0
100
AcDbText
 10
9029.359573551761
 20
2557.495035340102
 30
0.0
 40
80.0
  1
基礎ボルト(市販品)
  7
STYLE2
100
AcDbText
  0
LWPOLYLINE
  5
1F859
330
747D
100
AcDbEntity
  8
部品1
 48
50.0
100
AcDbPolyline
 90
        2
 70
     0
 43
8.0
 10
9025.005989267333
 20
1961.616354577903
 10
9318.708452666717
 20
1961.616354577903
  0
MTEXT
  5
1F85A
102
{ACAD_REACTORS
330
1F85B
102
}
330
747D
100
AcDbEntity
  8
部品1
 62
     7
 48
50.0
100
AcDbMText
 10
9064.277579636174
 20
2902.111727665162
 30
0.0
 40
80.0
 41
0.8
 71
     4
 72
     1
  1
\A1;ワッシャー(市販品)
  7
STYLE2
 73
     1
 44
1.0
1001
ACAD
1000
MTEXTBEGIN
1070
    73
1070
     1
1070
    44
1040
1.0
1070
    74
1070
     0
1000
MTEXTEND
  0
LEADER
  5
1F85B
330
747D
100
AcDbEntity
  8
寸法
 48
50.0
100
AcDbLeader
  3
INABA_S50G
 73
     0
 74
     0
 75
     1
 40
102.2727272727273
 41
906.8181818181818
 76
     3
 10
8872.405989267333
 20
2470.739643022182
 30
0.0
 10
8914.277579636173
 20
2825.975364028798
 30
0.0
 10
9039.277579636173
 20
2825.975364028798
 30
0.0
340
1F85A
1001
ACAD
1000
DSTYLE
1002
{
1070
   341
1005
0
1070
    40
1040
1.0
1070
   343
1005
0
1070
   344
1005
0
1002
}
  0
MTEXT
  5
1F85C
102
{ACAD_REACTORS
330
1F85D
102
}
330
747D
100
AcDbEntity
  8
部品1
 62
     7
 48
50.0
100
AcDbMText
 10
9032.75996038069
 20
3087.08081042995
 30
0.0
 40
80.0
 41
0.8
 71
     4
 72
     1
  1
\A1;ナット(市販品)
  7
STYLE2
 73
     1
 44
1.0
1001
ACAD
1000
MTEXTBEGIN
1070
    73
1070
     1
1070
    44
1040
1.0
1070
    74
1070
     0
1000
MTEXTEND
  0
LEADER
  5
1F85D
330
747D
100
AcDbEntity
  8
寸法
 48
50.0
100
AcDbLeader
  3
INABA_S50G
 73
     0
 74
     0
 75
     1
 40
102.2727272727273
 41
680.0000000000001
 76
     3
 10
8848.405989267332
 20
2600.491635687045
 30
0.0
 10
8882.75996038069
 20
3010.944446793585
 30
0.0
 10
9007.75996038069
 20
3010.944446793585
 30
0.0
340
1F85C
1001
ACAD
1000
DSTYLE
1002
{
1070
   341
1005
0
1070
    40
1040
1.0
1070
   343
1005
0
1070
   344
1005
0
1002
}
  0
LINE
  5
1F85E
330
747D
100
AcDbEntity
  8
部品1
100
AcDbLine
 10
5631.022933914741
 20
666.4335294136139
 30
0.0
 11
10484.26163226677
 21
666.4335294136139
 31
0.0
  0
LINE
  5
1F85F
330
747D
100
AcDbEntity
  8
部品1
100
AcDbLine
 10
10484.26163226678
 20
3282.587974354745
 30
0.0
 11
5631.022933914741
 21
3282.587974354745
 31
0.0
  0
LINE
  5
1F860
330
747D
100
AcDbEntity
  8
部品1
100
AcDbLine
 10
10484.26163226678
 20
3522.587974354746
 30
0.0
 11
5631.022933914738
 21
3522.587974354747
 31
0.0
  0
HATCH
  5
1F927
330
747D
100
AcDbEntity
  8
細線
 48
50.0
100
AcDbHatch
 10
0.0
 20
0.0
 30
0.0
210
0.0
220
0.0
230
1.0
  2
LINE
 70
     0
 71
     0
 91
        1
 92
        7
 72
     0
 73
     1
 93
        4
 10
8863.600000000001
 20
6639.246300175035
 10
8743.6
 20
6639.246300175035
 10
8743.6
 20
6439.246300175034
 10
8863.600000000001
 20
6439.246300175035
 97
        0
 75
     0
 76
     1
 52
45.0
 41
10.0
 77
     0
 78
     1
 53
45.0
 43
0.0
 44
0.0
 45
-22.45064030267288
 46
22.45064030267288
 79
     0
 47
1.685225417215957
 98
        1
 10
8796.41815415874
 20
6615.403327829608
  0
HATCH
  5
1F93E
330
747D
100
AcDbEntity
  8
細線
 48
50.0
100
AcDbHatch
 10
0.0
 20
0.0
 30
0.0
210
0.0
220
0.0
230
1.0
  2
LINE
 70
     0
 71
     0
 91
        1
 92
        7
 72
     0
 73
     1
 93
        4
 10
8193.600000000001
 20
7019.246300175035
 10
7993.599999999998
 20
7019.246300175035
 10
7993.599999999999
 20
6899.246300175033
 10
8193.600000000001
 20
6899.246300175033
 97
        0
 75
     0
 76
     1
 52
45.0
 41
10.0
 77
     0
 78
     1
 53
45.0
 43
0.0
 44
0.0
 45
-22.45064030267288
 46
22.45064030267288
 79
     0
 47
1.685225417215957
 98
        1
 10
8170.933695305139
 20
6932.225728643989
  0
HATCH
  5
1F955
330
747D
100
AcDbEntity
  8
細線
 48
50.0
100
AcDbHatch
 10
0.0
 20
0.0
 30
0.0
210
0.0
220
0.0
230
1.0
  2
LINE
 70
     0
 71
     0
 91
        1
 92
        7
 72
     0
 73
     1
 93
        4
 10
7443.599999999998
 20
6639.246300175037
 10
7323.599999999998
 20
6639.246300175035
 10
7323.599999999998
 20
6439.246300175034
 10
7443.599999999999
 20
6439.246300175035
 97
        0
 75
     0
 76
     1
 52
45.0
 41
10.0
 77
     0
 78
     1
 53
45.0
 43
0.0
 44
0.0
 45
-22.45064030267288
 46
22.45064030267288
 79
     0
 47
1.685225417215957
 98
        1
 10
7417.317650349396
 20
6542.93863924163
  0
TEXT
  5
1F984
330
747D
100
AcDbEntity
  8
文字
 62
     7
 48
50.0
100
AcDbText
 10
14816.49629419351
 20
1031.557706291228
 30
0.0
 40
100.0
  1
 <縮尺> S=1/40
  7
STYLE2
100
AcDbText
  0
ENDSEC
  0
SECTION
  2
OBJECTS
  0
DICTIONARY
  5
7471
330
0
100
AcDbDictionary
281
     1
  3
ACAD_COLOR
350
159B0
  3
ACAD_GROUP
350
7472
  3
ACAD_LAYOUT
350
159B1
  3
ACAD_MATERIAL
350
159AF
  3
ACAD_MLINESTYLE
350
7473
  3
ACAD_PLOTSETTINGS
350
159B2
  3
ACAD_PLOTSTYLENAME
350
159AD
  3
ACDBHEADERROUNDTRIPXREC
350
1F993
  3
AcDbVariableDictionary
350
1F2B2
  3
CONTENTDICTIONARY
350
E71C
  3
DRAWINGVARIABLESDICT
350
F3B9
  0
DICTIONARY
  5
1F310
330
7467
100
AcDbDictionary
280
     1
281
     1
  3
ACAD_LAYERSTATES
360
1F311
  0
DICTIONARY
  5
159B0
102
{ACAD_REACTORS
330
7471
102
}
330
7471
100
AcDbDictionary
281
     1
  0
DICTIONARY
  5
7472
102
{ACAD_REACTORS
330
7471
102
}
330
7471
100
AcDbDictionary
281
     1
  0
DICTIONARY
  5
159B1
102
{ACAD_REACTORS
330
7471
102
}
330
7471
100
AcDbDictionary
281
     1
  3
Model
350
159B3
  3
レイアウト1
350
159B4
  0
DICTIONARY
  5
159AF
102
{ACAD_REACTORS
330
7471
102
}
330
7471
100
AcDbDictionary
281
     1
  0
DICTIONARY
  5
7473
102
{ACAD_REACTORS
330
7471
102
}
330
7471
100
AcDbDictionary
281
     1
  3
STANDARD
350
7480
  0
DICTIONARY
  5
159B2
102
{ACAD_REACTORS
330
7471
102
}
330
7471
100
AcDbDictionary
281
     1
  0
ACDBDICTIONARYWDFLT
  5
159AD
102
{ACAD_REACTORS
330
7471
102
}
330
7471
100
AcDbDictionary
281
     1
  3
Normal
350
159AE
100
AcDbDictionaryWithDefault
340
159AE
  0
DICTIONARY
  5
1F993
102
{ACAD_REACTORS
330
7471
102
}
330
7471
100
AcDbDictionary
281
     1
  3
COLORDICT
350
1F995
  3
MATERIALDICT
350
1F994
  0
DICTIONARY
  5
1F2B2
102
{ACAD_REACTORS
330
7471
102
}
330
7471
100
AcDbDictionary
281
     1
  3
DIMASSOC
350
1F2B3
  3
PROJECTNAME
350
1F2B4
  0
DICTIONARY
  5
E71C
102
{ACAD_REACTORS
330
7471
102
}
330
7471
100
AcDbDictionary
281
     1
  0
DICTIONARY
  5
F3B9
102
{ACAD_REACTORS
330
7471
102
}
330
7471
100
AcDbDictionary
281
     1
1001
DRAWINGVARIABLESXDATA
1000
POLARMODE
1000
1
  0
DICTIONARY
  5
1F311
102
{ACAD_REACTORS
330
1F310
102
}
330
1F310
100
AcDbDictionary
281
     1
  0
LAYOUT
  5
159B3
102
{ACAD_XDICTIONARY
360
1F996
102
}
102
{ACAD_REACTORS
330
159B1
102
}
330
159B1
100
AcDbPlotSettings
  1

  2
クセロPDF
  4
A3
  6

 40
3.174999952316284
 41
3.174999952316284
 42
3.17498779296875
 43
3.17498779296875
 44
419.9466552734374
 45
296.9259948730469
 46
0.0
 47
0.0
 48
0.0
 49
0.0
140
0.0
141
0.0
142
1.0
143
40.88431153497317
 70
 11952
 72
     1
 73
     0
 74
     2
  7
inaba.ctb
 75
     0
147
0.0244592598592392
148
0.0
149
0.0
100
AcDbLayout
  1
Model
 70
     1
 71
     0
 10
0.0
 20
0.0
 11
12.0
 21
9.0
 12
0.0
 22
0.0
 32
0.0
 14
0.0
 24
0.0
 34
0.0
 15
0.0
 25
0.0
 35
0.0
146
0.0
 13
0.0
 23
0.0
 33
0.0
 16
1.0
 26
0.0
 36
0.0
 17
0.0
 27
1.0
 37
0.0
 76
     0
330
747D
  0
LAYOUT
  5
159B4
102
{ACAD_XDICTIONARY
360
1F998
102
}
102
{ACAD_REACTORS
330
159B1
102
}
330
159B1
100
AcDbPlotSettings
  1

  2
自動 EPSON LP-8400FX (TATENO 上)
  4

  6

 40
0.0
 41
0.0
 42
0.0
 43
0.0
 44
0.0
 45
0.0
 46
0.0
 47
0.0
 48
0.0
 49
0.0
140
0.0
141
0.0
142
1.0
143
1.0
 70
   688
 72
     0
 73
     0
 74
     5
  7
inaba.ctb
 75
    16
147
1.0
148
0.0
149
0.0
100
AcDbLayout
  1
レイアウト1
 70
     0
 71
     1
 10
0.0
 20
0.0
 11
420.0
 21
297.0
 12
0.0
 22
0.0
 32
0.0
 14
1.000000000000000E+20
 24
1.000000000000000E+20
 34
1.000000000000000E+20
 15
-1.000000000000000E+20
 25
-1.000000000000000E+20
 35
-1.000000000000000E+20
146
0.0
 13
0.0
 23
0.0
 33
0.0
 16
1.0
 26
0.0
 36
0.0
 17
0.0
 27
1.0
 37
0.0
 76
     0
330
747A
  0
MLINESTYLE
  5
7480
102
{ACAD_REACTORS
330
7473
102
}
330
7473
100
AcDbMlineStyle
  2
STANDARD
 70
     0
  3

 62
     0
 51
90.0
 52
90.0
 71
     2
 49
0.5
 62
   256
  6
BYLAYER
 49
-0.5
 62
   256
  6
BYLAYER
  0
ACDBPLACEHOLDER
  5
159AE
102
{ACAD_REACTORS
330
159AD
102
}
330
159AD
  0
XRECORD
  5
1F995
102
{ACAD_REACTORS
330
1F993
102
}
330
1F993
100
AcDbXrecord
280
     1
340
159B0
  0
XRECORD
  5
1F994
102
{ACAD_REACTORS
330
1F993
102
}
330
1F993
100
AcDbXrecord
280
     1
340
159AF
  0
DICTIONARYVAR
  5
1F2B3
102
{ACAD_REACTORS
330
1F2B2
102
}
330
1F2B2
100
DictionaryVariables
280
     0
  1
1
  0
DICTIONARYVAR
  5
1F2B4
102
{ACAD_REACTORS
330
1F2B2
102
}
330
1F2B2
100
DictionaryVariables
280
     0
  1

  0
DICTIONARY
  5
1F996
330
159B3
100
AcDbDictionary
280
     1
281
     1
  3
ACAD_XREC_ROUNDTRIP
360
1F997
  0
DICTIONARY
  5
1F998
330
159B4
100
AcDbDictionary
280
     1
281
     1
  3
ACAD_XREC_ROUNDTRIP
360
1F999
  0
XRECORD
  5
1F997
102
{ACAD_REACTORS
330
1F996
102
}
330
1F996
100
AcDbXrecord
280
     1
102
SHADEPLOT
 70
     1
102
SHADEPLOTRESLEVEL
 70
     2
102
SHADEPLOTCUSTOMDPI
 70
   300
  0
XRECORD
  5
1F999
102
{ACAD_REACTORS
330
1F998
102
}
330
1F998
100
AcDbXrecord
280
     1
102
SHADEPLOT
 70
     0
102
SHADEPLOTRESLEVEL
 70
     2
102
SHADEPLOTCUSTOMDPI
 70
   300
  0
ENDSEC
  0
EOF
