  0
SECTION
  2
HEADER
  9
$ACADVER
  1
AC1015
  9
$ACADMAINTVER
 70
    20
  9
$DWGCODEPAGE
  3
ANSI_932
  9
$INSBASE
 10
0.0
 20
0.0
 30
0.0
  9
$EXTMIN
 10
139.9999999999995
 20
-0.0000000000000909
 30
0.0
  9
$EXTMAX
 10
16307.2
 20
11409.6
 30
0.0
  9
$LIMMIN
 10
0.0
 20
0.0
  9
$LIMMAX
 10
16800.0
 20
11880.0
  9
$ORTHOMODE
 70
     0
  9
$REGENMODE
 70
     1
  9
$FILLMODE
 70
     1
  9
$QTEXTMODE
 70
     0
  9
$MIRRTEXT
 70
     1
  9
$LTSCALE
 40
20.0
  9
$ATTMODE
 70
     1
  9
$TEXTSIZE
 40
100.0
  9
$TRACEWID
 40
1.0
  9
$TEXTSTYLE
  7
STYLE2
  9
$CLAYER
  8
寸法
  9
$CELTYPE
  6
BYLAYER
  9
$CECOLOR
 62
   256
  9
$CELTSCALE
 40
50.0
  9
$DISPSILH
 70
     0
  9
$DIMSCALE
 40
40.0
  9
$DIMASZ
 40
2.5
  9
$DIMEXO
 40
0.5
  9
$DIMDLI
 40
7.0
  9
$DIMRND
 40
0.0
  9
$DIMDLE
 40
0.0
  9
$DIMEXE
 40
1.5
  9
$DIMTP
 40
0.0
  9
$DIMTM
 40
0.0
  9
$DIMTXT
 40
3.0
  9
$DIMCEN
 40
0.0
  9
$DIMTSZ
 40
0.0
  9
$DIMTOL
 70
     0
  9
$DIMLIM
 70
     0
  9
$DIMTIH
 70
     0
  9
$DIMTOH
 70
     0
  9
$DIMSE1
 70
     0
  9
$DIMSE2
 70
     0
  9
$DIMTAD
 70
     3
  9
$DIMZIN
 70
     8
  9
$DIMBLK
  1

  9
$DIMASO
 70
     1
  9
$DIMSHO
 70
     1
  9
$DIMPOST
  1

  9
$DIMAPOST
  1

  9
$DIMALT
 70
     0
  9
$DIMALTD
 70
     2
  9
$DIMALTF
 40
0.0394
  9
$DIMLFAC
 40
1.0
  9
$DIMTOFL
 70
     1
  9
$DIMTVP
 40
0.0
  9
$DIMTIX
 70
     0
  9
$DIMSOXD
 70
     0
  9
$DIMSAH
 70
     1
  9
$DIMBLK1
  1
DOTSMALL
  9
$DIMBLK2
  1
DOTSMALL
  9
$DIMSTYLE
  2
INABA_S40G
  9
$DIMCLRD
 70
     0
  9
$DIMCLRE
 70
     0
  9
$DIMCLRT
 70
     7
  9
$DIMTFAC
 40
1.0
  9
$DIMGAP
 40
1.0
  9
$DIMJUST
 70
     0
  9
$DIMSD1
 70
     0
  9
$DIMSD2
 70
     0
  9
$DIMTOLJ
 70
     1
  9
$DIMTZIN
 70
     0
  9
$DIMALTZ
 70
     0
  9
$DIMALTTZ
 70
     0
  9
$DIMUPT
 70
     0
  9
$DIMDEC
 70
     1
  9
$DIMTDEC
 70
     1
  9
$DIMALTU
 70
     2
  9
$DIMALTTD
 70
     2
  9
$DIMTXSTY
  7
STYLE1
  9
$DIMAUNIT
 70
     0
  9
$DIMADEC
 70
     0
  9
$DIMALTRND
 40
0.0
  9
$DIMAZIN
 70
     0
  9
$DIMDSEP
 70
    46
  9
$DIMATFIT
 70
     3
  9
$DIMFRAC
 70
     0
  9
$DIMLDRBLK
  1

  9
$DIMLUNIT
 70
     2
  9
$DIMLWD
 70
    -2
  9
$DIMLWE
 70
    -2
  9
$DIMTMOVE
 70
     0
  9
$LUNITS
 70
     2
  9
$LUPREC
 70
     1
  9
$SKETCHINC
 40
1.0
  9
$FILLETRAD
 40
0.0
  9
$AUNITS
 70
     0
  9
$AUPREC
 70
     0
  9
$MENU
  1
acad
  9
$ELEVATION
 40
0.0
  9
$PELEVATION
 40
0.0
  9
$THICKNESS
 40
0.0
  9
$LIMCHECK
 70
     0
  9
$CHAMFERA
 40
3.0
  9
$CHAMFERB
 40
3.0
  9
$CHAMFERC
 40
0.0
  9
$CHAMFERD
 40
0.0
  9
$SKPOLY
 70
     0
  9
$TDCREATE
 40
2451368.612993866
  9
$TDUCREATE
 40
2451368.237993866
  9
$TDUPDATE
 40
2455575.709425267
  9
$TDUUPDATE
 40
2455575.334425267
  9
$TDINDWG
 40
1.4583517593
  9
$TDUSRTIMER
 40
1.4583517593
  9
$USRTIMER
 70
     1
  9
$ANGBASE
 50
0.0
  9
$ANGDIR
 70
     0
  9
$PDMODE
 70
     3
  9
$PDSIZE
 40
2.0
  9
$PLINEWID
 40
0.0
  9
$SPLFRAME
 70
     0
  9
$SPLINETYPE
 70
     6
  9
$SPLINESEGS
 70
     8
  9
$HANDSEED
  5
20CE1
  9
$SURFTAB1
 70
     6
  9
$SURFTAB2
 70
     6
  9
$SURFTYPE
 70
     6
  9
$SURFU
 70
     6
  9
$SURFV
 70
     6
  9
$UCSBASE
  2

  9
$UCSNAME
  2

  9
$UCSORG
 10
0.0
 20
0.0
 30
0.0
  9
$UCSXDIR
 10
1.0
 20
0.0
 30
0.0
  9
$UCSYDIR
 10
0.0
 20
1.0
 30
0.0
  9
$UCSORTHOREF
  2

  9
$UCSORTHOVIEW
 70
     0
  9
$UCSORGTOP
 10
0.0
 20
0.0
 30
0.0
  9
$UCSORGBOTTOM
 10
0.0
 20
0.0
 30
0.0
  9
$UCSORGLEFT
 10
0.0
 20
0.0
 30
0.0
  9
$UCSORGRIGHT
 10
0.0
 20
0.0
 30
0.0
  9
$UCSORGFRONT
 10
0.0
 20
0.0
 30
0.0
  9
$UCSORGBACK
 10
0.0
 20
0.0
 30
0.0
  9
$PUCSBASE
  2

  9
$PUCSNAME
  2

  9
$PUCSORG
 10
0.0
 20
0.0
 30
0.0
  9
$PUCSXDIR
 10
1.0
 20
0.0
 30
0.0
  9
$PUCSYDIR
 10
0.0
 20
1.0
 30
0.0
  9
$PUCSORTHOREF
  2

  9
$PUCSORTHOVIEW
 70
     0
  9
$PUCSORGTOP
 10
0.0
 20
0.0
 30
0.0
  9
$PUCSORGBOTTOM
 10
0.0
 20
0.0
 30
0.0
  9
$PUCSORGLEFT
 10
0.0
 20
0.0
 30
0.0
  9
$PUCSORGRIGHT
 10
0.0
 20
0.0
 30
0.0
  9
$PUCSORGFRONT
 10
0.0
 20
0.0
 30
0.0
  9
$PUCSORGBACK
 10
0.0
 20
0.0
 30
0.0
  9
$USERI1
 70
     0
  9
$USERI2
 70
     0
  9
$USERI3
 70
     0
  9
$USERI4
 70
     0
  9
$USERI5
 70
     0
  9
$USERR1
 40
0.0
  9
$USERR2
 40
0.0
  9
$USERR3
 40
0.0
  9
$USERR4
 40
0.0
  9
$USERR5
 40
0.0
  9
$WORLDVIEW
 70
     1
  9
$SHADEDGE
 70
     3
  9
$SHADEDIF
 70
    70
  9
$TILEMODE
 70
     1
  9
$MAXACTVP
 70
    16
  9
$PINSBASE
 10
0.0
 20
0.0
 30
0.0
  9
$PLIMCHECK
 70
     0
  9
$PEXTMIN
 10
1.000000000000000E+20
 20
1.000000000000000E+20
 30
1.000000000000000E+20
  9
$PEXTMAX
 10
-1.000000000000000E+20
 20
-1.000000000000000E+20
 30
-1.000000000000000E+20
  9
$PLIMMIN
 10
0.0
 20
0.0
  9
$PLIMMAX
 10
420.0
 20
297.0
  9
$UNITMODE
 70
     0
  9
$VISRETAIN
 70
     0
  9
$PLINEGEN
 70
     0
  9
$PSLTSCALE
 70
     0
  9
$TREEDEPTH
 70
  3020
  9
$CMLSTYLE
  2
STANDARD
  9
$CMLJUST
 70
     0
  9
$CMLSCALE
 40
1.0
  9
$PROXYGRAPHICS
 70
     1
  9
$MEASUREMENT
 70
     1
  9
$CELWEIGHT
370
    -1
  9
$ENDCAPS
280
     0
  9
$JOINSTYLE
280
     0
  9
$LWDISPLAY
290
     0
  9
$INSUNITS
 70
     0
  9
$HYPERLINKBASE
  1

  9
$STYLESHEET
  1
inaba.ctb
  9
$XEDIT
290
     1
  9
$CEPSNTYPE
380
     0
  9
$PSTYLEMODE
290
     1
  9
$FINGERPRINTGUID
  2
{3B57B35E-7D77-4BBF-81B7-6C583B9EB24C}
  9
$VERSIONGUID
  2
{EDA8472C-5C6B-47B1-A890-2CB8ECBC7908}
  9
$EXTNAMES
290
     1
  9
$PSVPSCALE
 40
0.0
  9
$OLESTARTUP
290
     0
  0
ENDSEC
  0
SECTION
  2
CLASSES
  0
CLASS
  1
ACDBDICTIONARYWDFLT
  2
AcDbDictionaryWithDefault
  3
ObjectDBX Classes
 90
        0
280
     0
281
     0
  0
CLASS
  1
DICTIONARYVAR
  2
AcDbDictionaryVar
  3
ObjectDBX Classes
 90
        0
280
     0
281
     0
  0
CLASS
  1
ACDBPLACEHOLDER
  2
AcDbPlaceHolder
  3
ObjectDBX Classes
 90
        0
280
     0
281
     0
  0
CLASS
  1
LAYOUT
  2
AcDbLayout
  3
ObjectDBX Classes
 90
        0
280
     0
281
     0
  0
ENDSEC
  0
SECTION
  2
TABLES
  0
TABLE
  2
VPORT
  5
746D
330
0
100
AcDbSymbolTable
 70
     2
  0
VPORT
  5
20CD9
330
746D
100
AcDbSymbolTableRecord
100
AcDbViewportTableRecord
  2
*Active
 70
     0
 10
0.0
 20
0.0
 11
1.0
 21
1.0
 12
8223.7610252385
 22
6348.799202806252
 13
0.0
 23
0.0
 14
10.0
 24
10.0
 15
10.0
 25
10.0
 16
0.0
 26
0.0
 36
1.0
 17
0.0
 27
0.0
 37
0.0
 40
12805.29810104017
 41
1.525925925925925
 42
50.0
 43
0.0
 44
0.0
 50
0.0
 51
0.0
 71
     0
 72
     0
 73
     1
 74
     0
 75
     0
 76
     0
 77
     0
 78
     0
281
     0
 65
     1
110
0.0
120
0.0
130
0.0
111
1.0
121
0.0
131
0.0
112
0.0
122
1.0
132
0.0
 79
     0
146
0.0
  0
ENDTAB
  0
TABLE
  2
LTYPE
  5
746A
330
0
100
AcDbSymbolTable
 70
     4
  0
LTYPE
  5
7477
330
746A
100
AcDbSymbolTableRecord
100
AcDbLinetypeTableRecord
  2
BYBLOCK
 70
     0
  3

 72
    65
 73
     0
 40
0.0
  0
LTYPE
  5
7478
330
746A
100
AcDbSymbolTableRecord
100
AcDbLinetypeTableRecord
  2
BYLAYER
 70
     0
  3

 72
    65
 73
     0
 40
0.0
  0
LTYPE
  5
7479
330
746A
100
AcDbSymbolTableRecord
100
AcDbLinetypeTableRecord
  2
CONTINUOUS
 70
     0
  3
Solid line
 72
    65
 73
     0
 40
0.0
  0
LTYPE
  5
7816
330
746A
100
AcDbSymbolTableRecord
100
AcDbLinetypeTableRecord
  2
CENTER
 70
     0
  3
____ _ ____ _ ____ _ ____ _ ____ _ ____ _ ____ 
 72
    65
 73
     4
 40
2.0
 49
1.25
 74
     0
 49
-0.25
 74
     0
 49
0.25
 74
     0
 49
-0.25
 74
     0
  0
LTYPE
  5
781A
330
746A
100
AcDbSymbolTableRecord
100
AcDbLinetypeTableRecord
  2
HIDDEN
 70
     0
  3
__ __ __ __ __ __ __ __ __ __ __ __ __ __ __ __
 72
    65
 73
     2
 40
0.375
 49
0.25
 74
     0
 49
-0.125
 74
     0
  0
LTYPE
  5
781B
330
746A
100
AcDbSymbolTableRecord
100
AcDbLinetypeTableRecord
  2
PHANTOM
 70
     0
  3
______  __  __  ______  __  __  ______  __  __ 
 72
    65
 73
     6
 40
2.5
 49
1.25
 74
     0
 49
-0.25
 74
     0
 49
0.25
 74
     0
 49
-0.25
 74
     0
 49
0.25
 74
     0
 49
-0.25
 74
     0
  0
ENDTAB
  0
TABLE
  2
LAYER
  5
7467
102
{ACAD_XDICTIONARY
360
1E67E
102
}
330
0
100
AcDbSymbolTable
 70
    13
  0
LAYER
  5
7474
330
7467
100
AcDbSymbolTableRecord
100
AcDbLayerTableRecord
  2
0
 70
     0
 62
     7
  6
CONTINUOUS
370
    -3
390
159AE
  0
LAYER
  5
DEB2
330
7467
100
AcDbSymbolTableRecord
100
AcDbLayerTableRecord
  2
センター
 70
     0
 62
     3
  6
CENTER
370
    -3
390
159AE
  0
LAYER
  5
DEB3
330
7467
100
AcDbSymbolTableRecord
100
AcDbLayerTableRecord
  2
寸法
 70
     0
 62
     4
  6
CONTINUOUS
370
    -3
390
159AE
  0
LAYER
  5
DEB4
330
7467
100
AcDbSymbolTableRecord
100
AcDbLayerTableRecord
  2
部品1
 70
     0
 62
     7
  6
CONTINUOUS
370
    -3
390
159AE
  0
LAYER
  5
DEB5
330
7467
100
AcDbSymbolTableRecord
100
AcDbLayerTableRecord
  2
補助
 70
     0
 62
    -1
  6
CONTINUOUS
370
    -3
390
159AE
  0
LAYER
  5
DEB6
330
7467
100
AcDbSymbolTableRecord
100
AcDbLayerTableRecord
  2
文字
 70
     0
 62
     7
  6
CONTINUOUS
370
    -3
390
159AE
  0
LAYER
  5
F255
330
7467
100
AcDbSymbolTableRecord
100
AcDbLayerTableRecord
  2
DEFPOINTS
 70
     0
 62
     7
  6
CONTINUOUS
290
     0
370
    -3
390
159AE
  0
LAYER
  5
10B54
330
7467
100
AcDbSymbolTableRecord
100
AcDbLayerTableRecord
  2
仕様書枠
 70
     0
 62
   230
  6
CONTINUOUS
370
    -3
390
159AE
  0
LAYER
  5
11729
330
7467
100
AcDbSymbolTableRecord
100
AcDbLayerTableRecord
  2
Ｇ．Ｌ
 70
     0
 62
    30
  6
CONTINUOUS
370
    -3
390
159AE
  0
LAYER
  5
1173F
330
7467
100
AcDbSymbolTableRecord
100
AcDbLayerTableRecord
  2
細線
 70
     0
 62
     5
  6
CONTINUOUS
370
    -3
390
159AE
  0
LAYER
  5
12CC4
330
7467
100
AcDbSymbolTableRecord
100
AcDbLayerTableRecord
  2
想像線
 70
     0
 62
     6
  6
PHANTOM
370
    -3
390
159AE
  0
LAYER
  5
142E2
330
7467
100
AcDbSymbolTableRecord
100
AcDbLayerTableRecord
  2
破線
 70
     0
 62
     2
  6
HIDDEN
370
    -3
390
159AE
  0
LAYER
  5
1C644
330
7467
100
AcDbSymbolTableRecord
100
AcDbLayerTableRecord
  2
点線
 70
     0
 62
     2
  6
HIDDEN
370
    -3
390
159AE
  0
ENDTAB
  0
TABLE
  2
STYLE
  5
7468
330
0
100
AcDbSymbolTable
 70
     3
  0
STYLE
  5
7475
330
7468
100
AcDbSymbolTableRecord
100
AcDbTextStyleTableRecord
  2
STANDARD
 70
     0
 40
0.0
 41
1.0
 50
0.0
 71
     0
 42
4.0
  3
txt
  4
C:\AutoCAD LT\bigfont.shx
  0
STYLE
  5
F706
330
7468
100
AcDbSymbolTableRecord
100
AcDbTextStyleTableRecord
  2
STYLE1
 70
     0
 40
0.0
 41
1.0
 50
0.0
 71
     0
 42
100.0
  3
isocp.shx
  4
bigfont.shx
  0
STYLE
  5
103BF
330
7468
100
AcDbSymbolTableRecord
100
AcDbTextStyleTableRecord
  2
STYLE2
 70
     0
 40
0.0
 41
1.0
 50
0.0
 71
     0
 42
100.0
  3
MS PGothic.ttf
  4

1001
ACAD
1000
MS PGothic
1071
    32818
  0
ENDTAB
  0
TABLE
  2
VIEW
  5
746B
330
0
100
AcDbSymbolTable
 70
     0
  0
ENDTAB
  0
TABLE
  2
UCS
  5
746C
330
0
100
AcDbSymbolTable
 70
     0
  0
ENDTAB
  0
TABLE
  2
APPID
  5
746E
330
0
100
AcDbSymbolTable
 70
     6
  0
APPID
  5
7476
330
746E
100
AcDbSymbolTableRecord
100
AcDbRegAppTableRecord
  2
ACAD
 70
     0
  0
APPID
  5
DEA9
330
746E
100
AcDbSymbolTableRecord
100
AcDbRegAppTableRecord
  2
CONTENTBLOCKICON
 70
     0
  0
APPID
  5
DEAA
330
746E
100
AcDbSymbolTableRecord
100
AcDbRegAppTableRecord
  2
CONTENTBLOCKDESCRIPTION
 70
     0
  0
APPID
  5
E71D
330
746E
100
AcDbSymbolTableRecord
100
AcDbRegAppTableRecord
  2
CONTENTTABDATA
 70
     0
  0
APPID
  5
E71E
330
746E
100
AcDbSymbolTableRecord
100
AcDbRegAppTableRecord
  2
CONTENTCURRENTTAB
 70
     0
  0
APPID
  5
F3BA
330
746E
100
AcDbSymbolTableRecord
100
AcDbRegAppTableRecord
  2
DRAWINGVARIABLESXDATA
 70
     0
  0
ENDTAB
  0
TABLE
  2
DIMSTYLE
  5
746F
330
0
100
AcDbSymbolTable
 70
     2
100
AcDbDimStyleTable
 71
     1
340
F71F
  0
DIMSTYLE
105
F71F
102
{ACAD_REACTORS
330
1F71E
330
1F71F
330
1F720
330
1F730
330
1F739
330
1F743
330
1F744
330
1F745
330
1F748
330
1F702
330
1F98A
330
1F98B
330
20889
330
208EB
330
20953
330
209B0
102
}
330
746F
100
AcDbSymbolTableRecord
100
AcDbDimStyleTableRecord
  2
INABA_S40G
 70
     0
 40
40.0
 41
2.5
 42
0.5
 43
7.0
 44
1.5
 73
     0
 74
     0
 77
     3
 78
     8
140
3.0
141
0.0
143
0.0394
147
1.0
172
     1
173
     1
174
     1
178
     7
271
     1
288
     1
340
F706
341
F770
343
F770
344
F770
  0
DIMSTYLE
105
1C645
330
746F
100
AcDbSymbolTableRecord
100
AcDbDimStyleTableRecord
  2
INABA_S50G
 70
     0
 40
0.0
 41
125.0
 42
25.0
 43
7.0
 44
75.0
 73
     0
 74
     0
 77
     3
 78
     8
140
150.0
141
0.0
143
0.0394
147
25.0
172
     1
173
     1
174
     1
178
     7
271
     1
340
F706
341
F770
343
F770
344
F770
  0
ENDTAB
  0
TABLE
  2
BLOCK_RECORD
  5
7466
330
0
100
AcDbSymbolTable
 70
    18
  0
BLOCK_RECORD
  5
747D
330
7466
100
AcDbSymbolTableRecord
100
AcDbBlockTableRecord
  2
*MODEL_SPACE
340
159B3
  0
BLOCK_RECORD
  5
747A
330
7466
100
AcDbSymbolTableRecord
100
AcDbBlockTableRecord
  2
*PAPER_SPACE
340
159B4
  0
BLOCK_RECORD
  5
F770
330
7466
100
AcDbSymbolTableRecord
100
AcDbBlockTableRecord
  2
_DOTSMALL
340
0
102
{BLKREFS
331
2065C
331
2065D
331
20665
331
20666
331
2066E
331
2066F
331
20679
331
2067A
331
20682
331
20683
331
2068B
331
2068C
331
20696
331
20697
331
206A1
331
206A2
331
206AA
331
206AB
331
206B3
331
206B4
331
206BC
331
206BD
331
206C5
331
206C6
331
20A12
331
20A13
331
20A1B
331
20A1C
331
20A24
331
20A25
331
20A2D
331
20A2E
102
}
  0
BLOCK_RECORD
  5
1C530
330
7466
100
AcDbSymbolTableRecord
100
AcDbBlockTableRecord
  2
_NONE
340
0
  0
BLOCK_RECORD
  5
1F765
330
7466
100
AcDbSymbolTableRecord
100
AcDbBlockTableRecord
  2
*D2
340
0
  0
BLOCK_RECORD
  5
1F771
330
7466
100
AcDbSymbolTableRecord
100
AcDbBlockTableRecord
  2
*D3
340
0
  0
BLOCK_RECORD
  5
1F77D
330
7466
100
AcDbSymbolTableRecord
100
AcDbBlockTableRecord
  2
*D4
340
0
  0
BLOCK_RECORD
  5
1F789
330
7466
100
AcDbSymbolTableRecord
100
AcDbBlockTableRecord
  2
*D5
340
0
  0
BLOCK_RECORD
  5
1F797
330
7466
100
AcDbSymbolTableRecord
100
AcDbBlockTableRecord
  2
*D6
340
0
  0
BLOCK_RECORD
  5
1F7A5
330
7466
100
AcDbSymbolTableRecord
100
AcDbBlockTableRecord
  2
*D7
340
0
  0
BLOCK_RECORD
  5
1F7B1
330
7466
100
AcDbSymbolTableRecord
100
AcDbBlockTableRecord
  2
*D8
340
0
  0
BLOCK_RECORD
  5
1F7BD
330
7466
100
AcDbSymbolTableRecord
100
AcDbBlockTableRecord
  2
*D9
340
0
  0
BLOCK_RECORD
  5
1F7CB
330
7466
100
AcDbSymbolTableRecord
100
AcDbBlockTableRecord
  2
*D10
340
0
  0
BLOCK_RECORD
  5
1F7D7
330
7466
100
AcDbSymbolTableRecord
100
AcDbBlockTableRecord
  2
*D11
340
0
  0
BLOCK_RECORD
  5
1F98D
330
7466
100
AcDbSymbolTableRecord
100
AcDbBlockTableRecord
  2
*D12
340
0
  0
BLOCK_RECORD
  5
1F999
330
7466
100
AcDbSymbolTableRecord
100
AcDbBlockTableRecord
  2
*D13
340
0
  0
BLOCK_RECORD
  5
209BB
330
7466
100
AcDbSymbolTableRecord
100
AcDbBlockTableRecord
  2
*D14
340
0
  0
BLOCK_RECORD
  5
209C7
330
7466
100
AcDbSymbolTableRecord
100
AcDbBlockTableRecord
  2
*D15
340
0
  0
BLOCK_RECORD
  5
209D3
330
7466
100
AcDbSymbolTableRecord
100
AcDbBlockTableRecord
  2
*D16
340
0
  0
BLOCK_RECORD
  5
209DF
330
7466
100
AcDbSymbolTableRecord
100
AcDbBlockTableRecord
  2
*D17
340
0
  0
ENDTAB
  0
ENDSEC
  0
SECTION
  2
BLOCKS
  0
BLOCK
  5
7489
330
747D
100
AcDbEntity
  8
0
100
AcDbBlockBegin
  2
*MODEL_SPACE
 70
     0
 10
0.0
 20
0.0
 30
0.0
  3
*MODEL_SPACE
  1

  0
ENDBLK
  5
748A
330
747D
100
AcDbEntity
  8
0
100
AcDbBlockEnd
  0
BLOCK
  5
7487
330
747A
100
AcDbEntity
 67
     1
  8
0
100
AcDbBlockBegin
  2
*PAPER_SPACE
 70
     0
 10
0.0
 20
0.0
 30
0.0
  3
*PAPER_SPACE
  1

  0
ENDBLK
  5
7488
330
747A
100
AcDbEntity
 67
     1
  8
0
100
AcDbBlockEnd
  0
BLOCK
  5
F771
330
F770
100
AcDbEntity
  8
0
 48
50.0
100
AcDbBlockBegin
  2
_DOTSMALL
 70
     0
 10
0.0
 20
0.0
 30
0.0
  3
_DOTSMALL
  1

  0
LWPOLYLINE
  5
F772
330
F770
100
AcDbEntity
  8
0
  6
ByBlock
 62
     0
 48
50.0
100
AcDbPolyline
 90
        2
 70
     1
 43
0.5
 10
-0.0625
 20
0.0
 42
1.0
 10
0.0625
 20
0.0
 42
1.0
  0
ENDBLK
  5
F776
330
F770
100
AcDbEntity
  8
0
 48
50.0
100
AcDbBlockEnd
  0
BLOCK
  5
1C531
330
1C530
100
AcDbEntity
  8
0
 48
50.0
100
AcDbBlockBegin
  2
_NONE
 70
     0
 10
0.0
 20
0.0
 30
0.0
  3
_NONE
  1

  0
CIRCLE
  5
1C532
330
1C530
100
AcDbEntity
  8
0
  6
ByBlock
 62
     0
 48
50.0
100
AcDbCircle
 10
0.0
 20
0.0
 30
0.0
 40
0.25
  0
ENDBLK
  5
1C533
330
1C530
100
AcDbEntity
  8
0
 48
50.0
100
AcDbBlockEnd
  0
BLOCK
  5
1F76F
330
1F765
100
AcDbEntity
  8
0
 48
50.0
100
AcDbBlockBegin
  2
*D2
 70
     1
 10
0.0
 20
0.0
 30
0.0
  3
*D2
  1

  0
LINE
  5
206B9
330
1F765
100
AcDbEntity
  8
寸法
 62
     0
 48
50.0
370
    -2
100
AcDbLine
 10
9160.6
 20
8578.794428664066
 30
0.0
 11
9160.6
 21
9127.41866580003
 31
0.0
  0
LINE
  5
206BA
330
1F765
100
AcDbEntity
  8
寸法
 62
     0
 48
50.0
370
    -2
100
AcDbLine
 10
9959.600000000001
 20
8578.794428664069
 30
0.0
 11
9959.600000000001
 21
9127.41866580003
 31
0.0
  0
LINE
  5
206BB
330
1F765
100
AcDbEntity
  8
寸法
 62
     0
 48
50.0
370
    -2
100
AcDbLine
 10
9160.6
 20
9067.418665800031
 30
0.0
 11
9959.600000000001
 21
9067.418665800031
 31
0.0
  0
INSERT
  5
206BC
330
1F765
100
AcDbEntity
  8
寸法
 62
     0
 48
50.0
370
    -2
100
AcDbBlockReference
  2
_DOTSMALL
 10
9160.6
 20
9067.418665800031
 30
0.0
 41
100.0
 42
100.0
 43
100.0
 50
180.0
  0
INSERT
  5
206BD
330
1F765
100
AcDbEntity
  8
寸法
 62
     0
 48
50.0
370
    -2
100
AcDbBlockReference
  2
_DOTSMALL
 10
9959.600000000001
 20
9067.418665800031
 30
0.0
 41
100.0
 42
100.0
 43
100.0
  0
MTEXT
  5
206BE
330
1F765
100
AcDbEntity
  8
寸法
 62
     7
 48
50.0
100
AcDbMText
 10
9560.1
 20
9167.418665800031
 30
0.0
 40
120.0
 41
0.0
 71
     5
 72
     1
  1
\A1;799
  7
STYLE1
 73
     1
 44
1.0
1001
ACAD
1000
MTEXTBEGIN
1070
    73
1070
     1
1070
    44
1040
1.0
1070
    74
1070
     0
1000
MTEXTEND
  0
POINT
  5
206BF
330
1F765
100
AcDbEntity
  8
DEFPOINTS
 62
     0
 48
50.0
100
AcDbPoint
 10
9160.6
 20
8558.794428664064
 30
0.0
  0
POINT
  5
206C0
330
1F765
100
AcDbEntity
  8
DEFPOINTS
 62
     0
 48
50.0
100
AcDbPoint
 10
9959.600000000001
 20
8558.79442866407
 30
0.0
  0
POINT
  5
206C1
330
1F765
100
AcDbEntity
  8
DEFPOINTS
 62
     0
 48
50.0
100
AcDbPoint
 10
9959.600000000001
 20
9067.418665800031
 30
0.0
  0
ENDBLK
  5
1F770
330
1F765
100
AcDbEntity
  8
0
 48
50.0
100
AcDbBlockEnd
  0
BLOCK
  5
1F77B
330
1F771
100
AcDbEntity
  8
0
 48
50.0
100
AcDbBlockBegin
  2
*D3
 70
     1
 10
0.0
 20
0.0
 30
0.0
  3
*D3
  1

  0
LINE
  5
206B0
330
1F771
100
AcDbEntity
  8
寸法
 62
     0
 48
50.0
370
    -2
100
AcDbLine
 10
7706.6
 20
8578.794428664069
 30
0.0
 11
7706.6
 21
9127.41866580003
 31
0.0
  0
LINE
  5
206B1
330
1F771
100
AcDbEntity
  8
寸法
 62
     0
 48
50.0
370
    -2
100
AcDbLine
 10
6907.600000000001
 20
8578.794428664069
 30
0.0
 11
6907.600000000001
 21
9127.41866580003
 31
0.0
  0
LINE
  5
206B2
330
1F771
100
AcDbEntity
  8
寸法
 62
     0
 48
50.0
370
    -2
100
AcDbLine
 10
7706.6
 20
9067.418665800031
 30
0.0
 11
6907.600000000001
 21
9067.418665800031
 31
0.0
  0
INSERT
  5
206B3
330
1F771
100
AcDbEntity
  8
寸法
 62
     0
 48
50.0
370
    -2
100
AcDbBlockReference
  2
_DOTSMALL
 10
7706.6
 20
9067.418665800031
 30
0.0
 41
100.0
 42
100.0
 43
100.0
  0
INSERT
  5
206B4
330
1F771
100
AcDbEntity
  8
寸法
 62
     0
 48
50.0
370
    -2
100
AcDbBlockReference
  2
_DOTSMALL
 10
6907.600000000001
 20
9067.418665800031
 30
0.0
 41
100.0
 42
100.0
 43
100.0
 50
180.0
  0
MTEXT
  5
206B5
330
1F771
100
AcDbEntity
  8
寸法
 62
     7
 48
50.0
100
AcDbMText
 10
7307.100000000001
 20
9167.418665800031
 30
0.0
 40
120.0
 41
0.0
 71
     5
 72
     1
  1
\A1;799
  7
STYLE1
 73
     1
 44
1.0
1001
ACAD
1000
MTEXTBEGIN
1070
    73
1070
     1
1070
    44
1040
1.0
1070
    74
1070
     0
1000
MTEXTEND
  0
POINT
  5
206B6
330
1F771
100
AcDbEntity
  8
DEFPOINTS
 62
     0
 48
50.0
100
AcDbPoint
 10
7706.6
 20
8558.79442866407
 30
0.0
  0
POINT
  5
206B7
330
1F771
100
AcDbEntity
  8
DEFPOINTS
 62
     0
 48
50.0
100
AcDbPoint
 10
6907.600000000001
 20
8558.79442866407
 30
0.0
  0
POINT
  5
206B8
330
1F771
100
AcDbEntity
  8
DEFPOINTS
 62
     0
 48
50.0
100
AcDbPoint
 10
6907.600000000001
 20
9067.418665800031
 30
0.0
  0
ENDBLK
  5
1F77C
330
1F771
100
AcDbEntity
  8
0
 48
50.0
100
AcDbBlockEnd
  0
BLOCK
  5
1F787
330
1F77D
100
AcDbEntity
  8
0
 48
50.0
100
AcDbBlockBegin
  2
*D4
 70
     1
 10
0.0
 20
0.0
 30
0.0
  3
*D4
  1

  0
LINE
  5
206A7
330
1F77D
100
AcDbEntity
  8
寸法
 62
     0
 48
50.0
370
    -2
100
AcDbLine
 10
7706.6
 20
8578.794428664069
 30
0.0
 11
7706.6
 21
9127.41866580003
 31
0.0
  0
LINE
  5
206A8
330
1F77D
100
AcDbEntity
  8
寸法
 62
     0
 48
50.0
370
    -2
100
AcDbLine
 10
8433.6
 20
8578.794428664069
 30
0.0
 11
8433.6
 21
9127.41866580003
 31
0.0
  0
LINE
  5
206A9
330
1F77D
100
AcDbEntity
  8
寸法
 62
     0
 48
50.0
370
    -2
100
AcDbLine
 10
7706.6
 20
9067.418665800031
 30
0.0
 11
8433.6
 21
9067.418665800031
 31
0.0
  0
INSERT
  5
206AA
330
1F77D
100
AcDbEntity
  8
寸法
 62
     0
 48
50.0
370
    -2
100
AcDbBlockReference
  2
_DOTSMALL
 10
7706.6
 20
9067.418665800031
 30
0.0
 41
100.0
 42
100.0
 43
100.0
 50
180.0
  0
INSERT
  5
206AB
330
1F77D
100
AcDbEntity
  8
寸法
 62
     0
 48
50.0
370
    -2
100
AcDbBlockReference
  2
_DOTSMALL
 10
8433.6
 20
9067.418665800031
 30
0.0
 41
100.0
 42
100.0
 43
100.0
  0
MTEXT
  5
206AC
330
1F77D
100
AcDbEntity
  8
寸法
 62
     7
 48
50.0
100
AcDbMText
 10
8070.100000000001
 20
9167.430476823652
 30
0.0
 40
120.0
 41
0.0
 71
     5
 72
     1
  1
\A1;727
  7
STYLE1
 73
     1
 44
1.0
1001
ACAD
1000
MTEXTBEGIN
1070
    73
1070
     1
1070
    44
1040
1.0
1070
    74
1070
     0
1000
MTEXTEND
  0
POINT
  5
206AD
330
1F77D
100
AcDbEntity
  8
DEFPOINTS
 62
     0
 48
50.0
100
AcDbPoint
 10
7706.6
 20
8558.79442866407
 30
0.0
  0
POINT
  5
206AE
330
1F77D
100
AcDbEntity
  8
DEFPOINTS
 62
     0
 48
50.0
100
AcDbPoint
 10
8433.6
 20
8558.79442866407
 30
0.0
  0
POINT
  5
206AF
330
1F77D
100
AcDbEntity
  8
DEFPOINTS
 62
     0
 48
50.0
100
AcDbPoint
 10
8433.6
 20
9067.418665800031
 30
0.0
  0
ENDBLK
  5
1F788
330
1F77D
100
AcDbEntity
  8
0
 48
50.0
100
AcDbBlockEnd
  0
BLOCK
  5
1F795
330
1F789
100
AcDbEntity
  8
0
 48
50.0
100
AcDbBlockBegin
  2
*D5
 70
     1
 10
0.0
 20
0.0
 30
0.0
  3
*D5
  1

  0
LINE
  5
2069C
330
1F789
100
AcDbEntity
  8
寸法
 62
     0
 48
50.0
370
    -2
100
AcDbLine
 10
9959.600000000001
 20
8578.794428664069
 30
0.0
 11
9959.600000000001
 21
9385.34605446609
 31
0.0
  0
LINE
  5
2069D
330
1F789
100
AcDbEntity
  8
寸法
 62
     0
 48
50.0
370
    -2
100
AcDbLine
 10
10009.6
 20
8658.794428664071
 30
0.0
 11
10009.6
 21
9385.34605446609
 31
0.0
  0
LINE
  5
2069E
330
1F789
100
AcDbEntity
  8
寸法
 62
     0
 48
50.0
370
    -2
100
AcDbLine
 10
9959.600000000001
 20
9325.346054466091
 30
0.0
 11
9859.6
 21
9325.346054466091
 31
0.0
  0
LINE
  5
2069F
330
1F789
100
AcDbEntity
  8
寸法
 62
     0
 48
50.0
370
    -2
100
AcDbLine
 10
10009.6
 20
9325.346054466091
 30
0.0
 11
10109.6
 21
9325.346054466091
 31
0.0
  0
LINE
  5
206A0
330
1F789
100
AcDbEntity
  8
寸法
 62
     0
 48
50.0
370
    -2
100
AcDbLine
 10
9959.600000000001
 20
9325.346054466091
 30
0.0
 11
10009.6
 21
9325.346054466091
 31
0.0
  0
INSERT
  5
206A1
330
1F789
100
AcDbEntity
  8
寸法
 62
     0
 48
50.0
370
    -2
100
AcDbBlockReference
  2
_DOTSMALL
 10
9959.600000000001
 20
9325.346054466091
 30
0.0
 41
100.0
 42
100.0
 43
100.0
  0
INSERT
  5
206A2
330
1F789
100
AcDbEntity
  8
寸法
 62
     0
 48
50.0
370
    -2
100
AcDbBlockReference
  2
_DOTSMALL
 10
10009.6
 20
9325.346054466091
 30
0.0
 41
100.0
 42
100.0
 43
100.0
 50
180.0
  0
MTEXT
  5
206A3
330
1F789
100
AcDbEntity
  8
寸法
 62
     7
 48
50.0
100
AcDbMText
 10
9984.6
 20
9425.346054466091
 30
0.0
 40
120.0
 41
0.0
 71
     5
 72
     1
  1
\A1;a
  7
STYLE1
 73
     1
 44
1.0
1001
ACAD
1000
MTEXTBEGIN
1070
    73
1070
     1
1070
    44
1040
1.0
1070
    74
1070
     0
1000
MTEXTEND
  0
POINT
  5
206A4
330
1F789
100
AcDbEntity
  8
DEFPOINTS
 62
     0
 48
50.0
100
AcDbPoint
 10
9959.600000000001
 20
8558.79442866407
 30
0.0
  0
POINT
  5
206A5
330
1F789
100
AcDbEntity
  8
DEFPOINTS
 62
     0
 48
50.0
100
AcDbPoint
 10
10009.6
 20
8638.794428664072
 30
0.0
  0
POINT
  5
206A6
330
1F789
100
AcDbEntity
  8
DEFPOINTS
 62
     0
 48
50.0
100
AcDbPoint
 10
10009.6
 20
9325.346054466091
 30
0.0
  0
ENDBLK
  5
1F796
330
1F789
100
AcDbEntity
  8
0
 48
50.0
100
AcDbBlockEnd
  0
BLOCK
  5
1F7A3
330
1F797
100
AcDbEntity
  8
0
 48
50.0
100
AcDbBlockBegin
  2
*D6
 70
     1
 10
0.0
 20
0.0
 30
0.0
  3
*D6
  1

  0
LINE
  5
20691
330
1F797
100
AcDbEntity
  8
寸法
 62
     0
 48
50.0
370
    -2
100
AcDbLine
 10
6857.600000000001
 20
8658.794428664069
 30
0.0
 11
6857.600000000001
 21
9385.34605446609
 31
0.0
  0
LINE
  5
20692
330
1F797
100
AcDbEntity
  8
寸法
 62
     0
 48
50.0
370
    -2
100
AcDbLine
 10
6907.600000000001
 20
8578.794428664069
 30
0.0
 11
6907.600000000001
 21
9385.34605446609
 31
0.0
  0
LINE
  5
20693
330
1F797
100
AcDbEntity
  8
寸法
 62
     0
 48
50.0
370
    -2
100
AcDbLine
 10
6857.600000000001
 20
9325.346054466091
 30
0.0
 11
6757.6
 21
9325.346054466091
 31
0.0
  0
LINE
  5
20694
330
1F797
100
AcDbEntity
  8
寸法
 62
     0
 48
50.0
370
    -2
100
AcDbLine
 10
6907.600000000001
 20
9325.346054466091
 30
0.0
 11
7007.6
 21
9325.346054466091
 31
0.0
  0
LINE
  5
20695
330
1F797
100
AcDbEntity
  8
寸法
 62
     0
 48
50.0
370
    -2
100
AcDbLine
 10
6857.600000000001
 20
9325.346054466091
 30
0.0
 11
6907.600000000001
 21
9325.346054466091
 31
0.0
  0
INSERT
  5
20696
330
1F797
100
AcDbEntity
  8
寸法
 62
     0
 48
50.0
370
    -2
100
AcDbBlockReference
  2
_DOTSMALL
 10
6857.600000000001
 20
9325.346054466091
 30
0.0
 41
100.0
 42
100.0
 43
100.0
  0
INSERT
  5
20697
330
1F797
100
AcDbEntity
  8
寸法
 62
     0
 48
50.0
370
    -2
100
AcDbBlockReference
  2
_DOTSMALL
 10
6907.600000000001
 20
9325.346054466091
 30
0.0
 41
100.0
 42
100.0
 43
100.0
 50
180.0
  0
MTEXT
  5
20698
330
1F797
100
AcDbEntity
  8
寸法
 62
     7
 48
50.0
100
AcDbMText
 10
6882.6
 20
9425.346054466091
 30
0.0
 40
120.0
 41
0.0
 71
     5
 72
     1
  1
\A1;a
  7
STYLE1
 73
     1
 44
1.0
1001
ACAD
1000
MTEXTBEGIN
1070
    73
1070
     1
1070
    44
1040
1.0
1070
    74
1070
     0
1000
MTEXTEND
  0
POINT
  5
20699
330
1F797
100
AcDbEntity
  8
DEFPOINTS
 62
     0
 48
50.0
100
AcDbPoint
 10
6857.600000000001
 20
8638.794428664068
 30
0.0
  0
POINT
  5
2069A
330
1F797
100
AcDbEntity
  8
DEFPOINTS
 62
     0
 48
50.0
100
AcDbPoint
 10
6907.600000000001
 20
8558.79442866407
 30
0.0
  0
POINT
  5
2069B
330
1F797
100
AcDbEntity
  8
DEFPOINTS
 62
     0
 48
50.0
100
AcDbPoint
 10
6907.600000000001
 20
9325.346054466091
 30
0.0
  0
ENDBLK
  5
1F7A4
330
1F797
100
AcDbEntity
  8
0
 48
50.0
100
AcDbBlockEnd
  0
BLOCK
  5
1F7AF
330
1F7A5
100
AcDbEntity
  8
0
 48
50.0
100
AcDbBlockBegin
  2
*D7
 70
     1
 10
0.0
 20
0.0
 30
0.0
  3
*D7
  1

  0
LINE
  5
20688
330
1F7A5
100
AcDbEntity
  8
寸法
 62
     0
 48
50.0
370
    -2
100
AcDbLine
 10
6837.600000000001
 20
8638.794428664068
 30
0.0
 11
6406.88811655075
 21
8638.794428664068
 31
0.0
  0
LINE
  5
20689
330
1F7A5
100
AcDbEntity
  8
寸法
 62
     0
 48
50.0
370
    -2
100
AcDbLine
 10
6887.6
 20
8558.79442866407
 30
0.0
 11
6406.88811655075
 21
8558.79442866407
 31
0.0
  0
LINE
  5
2068A
330
1F7A5
100
AcDbEntity
  8
寸法
 62
     0
 48
50.0
370
    -2
100
AcDbLine
 10
6466.88811655075
 20
8638.794428664068
 30
0.0
 11
6466.88811655075
 21
8558.79442866407
 31
0.0
  0
INSERT
  5
2068B
330
1F7A5
100
AcDbEntity
  8
寸法
 62
     0
 48
50.0
370
    -2
100
AcDbBlockReference
  2
_DOTSMALL
 10
6466.88811655075
 20
8638.794428664068
 30
0.0
 41
100.0
 42
100.0
 43
100.0
 50
90.0
  0
INSERT
  5
2068C
330
1F7A5
100
AcDbEntity
  8
寸法
 62
     0
 48
50.0
370
    -2
100
AcDbBlockReference
  2
_DOTSMALL
 10
6466.88811655075
 20
8558.79442866407
 30
0.0
 41
100.0
 42
100.0
 43
100.0
 50
270.0
  0
MTEXT
  5
2068D
330
1F7A5
100
AcDbEntity
  8
寸法
 62
     7
 48
50.0
100
AcDbMText
 10
6366.888116550749
 20
8598.794428664071
 30
0.0
 40
120.0
 41
0.0
 71
     5
 72
     1
  1
\A1;c
  7
STYLE1
 11
0.0000000000000001
 21
1.0
 31
0.0
 73
     1
 44
1.0
1001
ACAD
1000
MTEXTBEGIN
1070
    73
1070
     1
1070
    44
1040
1.0
1070
    74
1070
     0
1000
MTEXTEND
  0
POINT
  5
2068E
330
1F7A5
100
AcDbEntity
  8
DEFPOINTS
 62
     0
 48
50.0
100
AcDbPoint
 10
6857.600000000001
 20
8638.794428664068
 30
0.0
  0
POINT
  5
2068F
330
1F7A5
100
AcDbEntity
  8
DEFPOINTS
 62
     0
 48
50.0
100
AcDbPoint
 10
6907.600000000001
 20
8558.79442866407
 30
0.0
  0
POINT
  5
20690
330
1F7A5
100
AcDbEntity
  8
DEFPOINTS
 62
     0
 48
50.0
100
AcDbPoint
 10
6466.88811655075
 20
8558.79442866407
 30
0.0
  0
ENDBLK
  5
1F7B0
330
1F7A5
100
AcDbEntity
  8
0
 48
50.0
100
AcDbBlockEnd
  0
BLOCK
  5
1F7BB
330
1F7B1
100
AcDbEntity
  8
0
 48
50.0
100
AcDbBlockBegin
  2
*D8
 70
     1
 10
0.0
 20
0.0
 30
0.0
  3
*D8
  1

  0
LINE
  5
2067F
330
1F7B1
100
AcDbEntity
  8
寸法
 62
     0
 48
50.0
370
    -2
100
AcDbLine
 10
6887.6
 20
8558.79442866407
 30
0.0
 11
6406.888116550756
 21
8558.79442866407
 31
0.0
  0
LINE
  5
20680
330
1F7B1
100
AcDbEntity
  8
寸法
 62
     0
 48
50.0
370
    -2
100
AcDbLine
 10
6867.599999999985
 20
5506.794428664072
 30
0.0
 11
6406.888116550755
 21
5506.794428664072
 31
0.0
  0
LINE
  5
20681
330
1F7B1
100
AcDbEntity
  8
寸法
 62
     0
 48
50.0
370
    -2
100
AcDbLine
 10
6466.888116550755
 20
8558.79442866407
 30
0.0
 11
6466.888116550754
 21
5506.794428664072
 31
0.0
  0
INSERT
  5
20682
330
1F7B1
100
AcDbEntity
  8
寸法
 62
     0
 48
50.0
370
    -2
100
AcDbBlockReference
  2
_DOTSMALL
 10
6466.888116550755
 20
8558.79442866407
 30
0.0
 41
100.0
 42
100.0
 43
100.0
 50
90.0
  0
INSERT
  5
20683
330
1F7B1
100
AcDbEntity
  8
寸法
 62
     0
 48
50.0
370
    -2
100
AcDbBlockReference
  2
_DOTSMALL
 10
6466.888116550754
 20
5506.794428664072
 30
0.0
 41
100.0
 42
100.0
 43
100.0
 50
270.0
  0
MTEXT
  5
20684
330
1F7B1
100
AcDbEntity
  8
寸法
 62
     7
 48
50.0
100
AcDbMText
 10
6366.876305527132
 20
7032.79442866407
 30
0.0
 40
120.0
 41
0.0
 71
     5
 72
     1
  1
\A1;3052
  7
STYLE1
 11
0.0000000000000001
 21
1.0
 31
0.0
 73
     1
 44
1.0
1001
ACAD
1000
MTEXTBEGIN
1070
    73
1070
     1
1070
    44
1040
1.0
1070
    74
1070
     0
1000
MTEXTEND
  0
POINT
  5
20685
330
1F7B1
100
AcDbEntity
  8
DEFPOINTS
 62
     0
 48
50.0
100
AcDbPoint
 10
6907.600000000001
 20
8558.79442866407
 30
0.0
  0
POINT
  5
20686
330
1F7B1
100
AcDbEntity
  8
DEFPOINTS
 62
     0
 48
50.0
100
AcDbPoint
 10
6887.599999999984
 20
5506.794428664072
 30
0.0
  0
POINT
  5
20687
330
1F7B1
100
AcDbEntity
  8
DEFPOINTS
 62
     0
 48
50.0
100
AcDbPoint
 10
6466.888116550754
 20
5506.794428664072
 30
0.0
  0
ENDBLK
  5
1F7BC
330
1F7B1
100
AcDbEntity
  8
0
 48
50.0
100
AcDbBlockEnd
  0
BLOCK
  5
1F7C9
330
1F7BD
100
AcDbEntity
  8
0
 48
50.0
100
AcDbBlockBegin
  2
*D9
 70
     1
 10
0.0
 20
0.0
 30
0.0
  3
*D9
  1

  0
LINE
  5
20674
330
1F7BD
100
AcDbEntity
  8
寸法
 62
     0
 48
50.0
370
    -2
100
AcDbLine
 10
6887.599999999984
 20
5506.794428664072
 30
0.0
 11
6406.888116550733
 21
5506.794428664072
 31
0.0
  0
LINE
  5
20675
330
1F7BD
100
AcDbEntity
  8
寸法
 62
     0
 48
50.0
370
    -2
100
AcDbLine
 10
6837.599999999985
 20
5446.794428664072
 30
0.0
 11
6406.888116550733
 21
5446.794428664072
 31
0.0
  0
LINE
  5
20676
330
1F7BD
100
AcDbEntity
  8
寸法
 62
     0
 48
50.0
370
    -2
100
AcDbLine
 10
6466.888116550734
 20
5506.794428664072
 30
0.0
 11
6466.888116550734
 21
5606.794428664072
 31
0.0
  0
LINE
  5
20677
330
1F7BD
100
AcDbEntity
  8
寸法
 62
     0
 48
50.0
370
    -2
100
AcDbLine
 10
6466.888116550734
 20
5446.794428664072
 30
0.0
 11
6466.888116550734
 21
5346.794428664072
 31
0.0
  0
LINE
  5
20678
330
1F7BD
100
AcDbEntity
  8
寸法
 62
     0
 48
50.0
370
    -2
100
AcDbLine
 10
6466.888116550734
 20
5506.794428664072
 30
0.0
 11
6466.888116550734
 21
5446.794428664072
 31
0.0
  0
INSERT
  5
20679
330
1F7BD
100
AcDbEntity
  8
寸法
 62
     0
 48
50.0
370
    -2
100
AcDbBlockReference
  2
_DOTSMALL
 10
6466.888116550734
 20
5506.794428664072
 30
0.0
 41
100.0
 42
100.0
 43
100.0
 50
270.0
  0
INSERT
  5
2067A
330
1F7BD
100
AcDbEntity
  8
寸法
 62
     0
 48
50.0
370
    -2
100
AcDbBlockReference
  2
_DOTSMALL
 10
6466.888116550734
 20
5446.794428664072
 30
0.0
 41
100.0
 42
100.0
 43
100.0
 50
90.0
  0
MTEXT
  5
2067B
330
1F7BD
100
AcDbEntity
  8
寸法
 62
     7
 48
50.0
100
AcDbMText
 10
6366.888116550732
 20
5476.794428664074
 30
0.0
 40
120.0
 41
0.0
 71
     5
 72
     1
  1
\A1;b
  7
STYLE1
 11
0.0000000000000001
 21
1.0
 31
0.0
 73
     1
 44
1.0
1001
ACAD
1000
MTEXTBEGIN
1070
    73
1070
     1
1070
    44
1040
1.0
1070
    74
1070
     0
1000
MTEXTEND
  0
POINT
  5
2067C
330
1F7BD
100
AcDbEntity
  8
DEFPOINTS
 62
     0
 48
50.0
100
AcDbPoint
 10
6907.599999999984
 20
5506.794428664072
 30
0.0
  0
POINT
  5
2067D
330
1F7BD
100
AcDbEntity
  8
DEFPOINTS
 62
     0
 48
50.0
100
AcDbPoint
 10
6857.599999999983
 20
5446.794428664072
 30
0.0
  0
POINT
  5
2067E
330
1F7BD
100
AcDbEntity
  8
DEFPOINTS
 62
     0
 48
50.0
100
AcDbPoint
 10
6466.888116550734
 20
5446.794428664072
 30
0.0
  0
ENDBLK
  5
1F7CA
330
1F7BD
100
AcDbEntity
  8
0
 48
50.0
100
AcDbBlockEnd
  0
BLOCK
  5
1F7D5
330
1F7CB
100
AcDbEntity
  8
0
 48
50.0
100
AcDbBlockBegin
  2
*D10
 70
     1
 10
0.0
 20
0.0
 30
0.0
  3
*D10
  1

  0
LINE
  5
2066B
330
1F7CB
100
AcDbEntity
  8
寸法
 62
     0
 48
50.0
370
    -2
100
AcDbLine
 10
6907.600000000001
 20
8578.794428664069
 30
0.0
 11
6907.600000000001
 21
9385.34605446609
 31
0.0
  0
LINE
  5
2066C
330
1F7CB
100
AcDbEntity
  8
寸法
 62
     0
 48
50.0
370
    -2
100
AcDbLine
 10
9959.600000000001
 20
8578.794428664069
 30
0.0
 11
9959.600000000001
 21
9385.34605446609
 31
0.0
  0
LINE
  5
2066D
330
1F7CB
100
AcDbEntity
  8
寸法
 62
     0
 48
50.0
370
    -2
100
AcDbLine
 10
6907.600000000001
 20
9325.346054466091
 30
0.0
 11
9959.600000000001
 21
9325.346054466091
 31
0.0
  0
INSERT
  5
2066E
330
1F7CB
100
AcDbEntity
  8
寸法
 62
     0
 48
50.0
370
    -2
100
AcDbBlockReference
  2
_DOTSMALL
 10
6907.600000000001
 20
9325.346054466091
 30
0.0
 41
100.0
 42
100.0
 43
100.0
 50
180.0
  0
INSERT
  5
2066F
330
1F7CB
100
AcDbEntity
  8
寸法
 62
     0
 48
50.0
370
    -2
100
AcDbBlockReference
  2
_DOTSMALL
 10
9959.600000000001
 20
9325.346054466091
 30
0.0
 41
100.0
 42
100.0
 43
100.0
  0
MTEXT
  5
20670
330
1F7CB
100
AcDbEntity
  8
寸法
 62
     7
 48
50.0
100
AcDbMText
 10
8433.6
 20
9425.357865489713
 30
0.0
 40
120.0
 41
0.0
 71
     5
 72
     1
  1
\A1;3052
  7
STYLE1
 73
     1
 44
1.0
1001
ACAD
1000
MTEXTBEGIN
1070
    73
1070
     1
1070
    44
1040
1.0
1070
    74
1070
     0
1000
MTEXTEND
  0
POINT
  5
20671
330
1F7CB
100
AcDbEntity
  8
DEFPOINTS
 62
     0
 48
50.0
100
AcDbPoint
 10
6907.600000000001
 20
8558.79442866407
 30
0.0
  0
POINT
  5
20672
330
1F7CB
100
AcDbEntity
  8
DEFPOINTS
 62
     0
 48
50.0
100
AcDbPoint
 10
9959.600000000001
 20
8558.79442866407
 30
0.0
  0
POINT
  5
20673
330
1F7CB
100
AcDbEntity
  8
DEFPOINTS
 62
     0
 48
50.0
100
AcDbPoint
 10
9959.600000000001
 20
9325.346054466091
 30
0.0
  0
ENDBLK
  5
1F7D6
330
1F7CB
100
AcDbEntity
  8
0
 48
50.0
100
AcDbBlockEnd
  0
BLOCK
  5
1F7E1
330
1F7D7
100
AcDbEntity
  8
0
 48
50.0
100
AcDbBlockBegin
  2
*D11
 70
     1
 10
0.0
 20
0.0
 30
0.0
  3
*D11
  1

  0
LINE
  5
206C2
330
1F7D7
100
AcDbEntity
  8
寸法
 62
     0
 48
50.0
370
    -2
100
AcDbLine
 10
8433.6
 20
8578.794428664069
 30
0.0
 11
8433.6
 21
9127.41866580003
 31
0.0
  0
LINE
  5
206C3
330
1F7D7
100
AcDbEntity
  8
寸法
 62
     0
 48
50.0
370
    -2
100
AcDbLine
 10
9160.6
 20
8578.794428664066
 30
0.0
 11
9160.6
 21
9127.41866580003
 31
0.0
  0
LINE
  5
206C4
330
1F7D7
100
AcDbEntity
  8
寸法
 62
     0
 48
50.0
370
    -2
100
AcDbLine
 10
8433.6
 20
9067.418665800031
 30
0.0
 11
9160.6
 21
9067.418665800031
 31
0.0
  0
INSERT
  5
206C5
330
1F7D7
100
AcDbEntity
  8
寸法
 62
     0
 48
50.0
370
    -2
100
AcDbBlockReference
  2
_DOTSMALL
 10
8433.6
 20
9067.418665800031
 30
0.0
 41
100.0
 42
100.0
 43
100.0
 50
180.0
  0
INSERT
  5
206C6
330
1F7D7
100
AcDbEntity
  8
寸法
 62
     0
 48
50.0
370
    -2
100
AcDbBlockReference
  2
_DOTSMALL
 10
9160.6
 20
9067.418665800031
 30
0.0
 41
100.0
 42
100.0
 43
100.0
  0
MTEXT
  5
206C7
330
1F7D7
100
AcDbEntity
  8
寸法
 62
     7
 48
50.0
100
AcDbMText
 10
8797.1
 20
9167.430476823652
 30
0.0
 40
120.0
 41
0.0
 71
     5
 72
     1
  1
\A1;727
  7
STYLE1
 73
     1
 44
1.0
1001
ACAD
1000
MTEXTBEGIN
1070
    73
1070
     1
1070
    44
1040
1.0
1070
    74
1070
     0
1000
MTEXTEND
  0
POINT
  5
206C8
330
1F7D7
100
AcDbEntity
  8
DEFPOINTS
 62
     0
 48
50.0
100
AcDbPoint
 10
8433.6
 20
8558.79442866407
 30
0.0
  0
POINT
  5
206C9
330
1F7D7
100
AcDbEntity
  8
DEFPOINTS
 62
     0
 48
50.0
100
AcDbPoint
 10
9160.6
 20
8558.794428664064
 30
0.0
  0
POINT
  5
206CA
330
1F7D7
100
AcDbEntity
  8
DEFPOINTS
 62
     0
 48
50.0
100
AcDbPoint
 10
9160.6
 20
9067.418665800031
 30
0.0
  0
ENDBLK
  5
1F7E2
330
1F7D7
100
AcDbEntity
  8
0
 48
50.0
100
AcDbBlockEnd
  0
BLOCK
  5
1F997
330
1F98D
100
AcDbEntity
  8
0
 48
50.0
100
AcDbBlockBegin
  2
*D12
 70
     1
 10
0.0
 20
0.0
 30
0.0
  3
*D12
  1

  0
LINE
  5
20662
330
1F98D
100
AcDbEntity
  8
寸法
 62
     0
 48
50.0
370
    -2
100
AcDbLine
 10
10079.59999999998
 20
5606.794428664072
 30
0.0
 11
10408.66514751619
 21
5606.79442866407
 31
0.0
  0
LINE
  5
20663
330
1F98D
100
AcDbEntity
  8
寸法
 62
     0
 48
50.0
370
    -2
100
AcDbLine
 10
10079.59999999998
 20
5406.794428664071
 30
0.0
 11
10408.66514751619
 21
5406.794428664071
 31
0.0
  0
LINE
  5
20664
330
1F98D
100
AcDbEntity
  8
寸法
 62
     0
 48
50.0
370
    -2
100
AcDbLine
 10
10348.66514751619
 20
5606.79442866407
 30
0.0
 11
10348.66514751619
 21
5406.794428664071
 31
0.0
  0
INSERT
  5
20665
330
1F98D
100
AcDbEntity
  8
寸法
 62
     0
 48
50.0
370
    -2
100
AcDbBlockReference
  2
_DOTSMALL
 10
10348.66514751619
 20
5606.79442866407
 30
0.0
 41
100.0
 42
100.0
 43
100.0
 50
90.0
  0
INSERT
  5
20666
330
1F98D
100
AcDbEntity
  8
寸法
 62
     0
 48
50.0
370
    -2
100
AcDbBlockReference
  2
_DOTSMALL
 10
10348.66514751619
 20
5406.794428664071
 30
0.0
 41
100.0
 42
100.0
 43
100.0
 50
270.0
  0
MTEXT
  5
20667
330
1F98D
100
AcDbEntity
  8
寸法
 62
     7
 48
50.0
100
AcDbMText
 10
10248.65333649257
 20
5506.794428664072
 30
0.0
 40
120.0
 41
0.0
 71
     5
 72
     1
  1
\A1;200
  7
STYLE1
 11
0.0000000000000001
 21
1.0
 31
0.0
 73
     1
 44
1.0
1001
ACAD
1000
MTEXTBEGIN
1070
    73
1070
     1
1070
    44
1040
1.0
1070
    74
1070
     0
1000
MTEXTEND
  0
POINT
  5
20668
330
1F98D
100
AcDbEntity
  8
DEFPOINTS
 62
     0
 48
50.0
100
AcDbPoint
 10
10059.59999999998
 20
5606.794428664072
 30
0.0
  0
POINT
  5
20669
330
1F98D
100
AcDbEntity
  8
DEFPOINTS
 62
     0
 48
50.0
100
AcDbPoint
 10
10059.59999999998
 20
5406.794428664071
 30
0.0
  0
POINT
  5
2066A
330
1F98D
100
AcDbEntity
  8
DEFPOINTS
 62
     0
 48
50.0
100
AcDbPoint
 10
10348.66514751619
 20
5406.794428664071
 30
0.0
  0
ENDBLK
  5
1F998
330
1F98D
100
AcDbEntity
  8
0
 48
50.0
100
AcDbBlockEnd
  0
BLOCK
  5
1F9A3
330
1F999
100
AcDbEntity
  8
0
 48
50.0
100
AcDbBlockBegin
  2
*D13
 70
     1
 10
0.0
 20
0.0
 30
0.0
  3
*D13
  1

  0
LINE
  5
20659
330
1F999
100
AcDbEntity
  8
寸法
 62
     0
 48
50.0
370
    -2
100
AcDbLine
 10
10059.59999999998
 20
5386.794428664071
 30
0.0
 11
10059.59999999998
 21
5093.468943718608
 31
0.0
  0
LINE
  5
2065A
330
1F999
100
AcDbEntity
  8
寸法
 62
     0
 48
50.0
370
    -2
100
AcDbLine
 10
9859.599999999986
 20
5386.794428664071
 30
0.0
 11
9859.599999999986
 21
5093.468943718608
 31
0.0
  0
LINE
  5
2065B
330
1F999
100
AcDbEntity
  8
寸法
 62
     0
 48
50.0
370
    -2
100
AcDbLine
 10
10059.59999999998
 20
5153.468943718608
 30
0.0
 11
9859.599999999986
 21
5153.468943718608
 31
0.0
  0
INSERT
  5
2065C
330
1F999
100
AcDbEntity
  8
寸法
 62
     0
 48
50.0
370
    -2
100
AcDbBlockReference
  2
_DOTSMALL
 10
10059.59999999998
 20
5153.468943718608
 30
0.0
 41
100.0
 42
100.0
 43
100.0
  0
INSERT
  5
2065D
330
1F999
100
AcDbEntity
  8
寸法
 62
     0
 48
50.0
370
    -2
100
AcDbBlockReference
  2
_DOTSMALL
 10
9859.599999999986
 20
5153.468943718608
 30
0.0
 41
100.0
 42
100.0
 43
100.0
 50
180.0
  0
MTEXT
  5
2065E
330
1F999
100
AcDbEntity
  8
寸法
 62
     7
 48
50.0
100
AcDbMText
 10
9959.599999999985
 20
5253.48075474223
 30
0.0
 40
120.0
 41
0.0
 71
     5
 72
     1
  1
\A1;200
  7
STYLE1
 73
     1
 44
1.0
1001
ACAD
1000
MTEXTBEGIN
1070
    73
1070
     1
1070
    44
1040
1.0
1070
    74
1070
     0
1000
MTEXTEND
  0
POINT
  5
2065F
330
1F999
100
AcDbEntity
  8
DEFPOINTS
 62
     0
 48
50.0
100
AcDbPoint
 10
10059.59999999998
 20
5406.794428664071
 30
0.0
  0
POINT
  5
20660
330
1F999
100
AcDbEntity
  8
DEFPOINTS
 62
     0
 48
50.0
100
AcDbPoint
 10
9859.599999999986
 20
5406.794428664071
 30
0.0
  0
POINT
  5
20661
330
1F999
100
AcDbEntity
  8
DEFPOINTS
 62
     0
 48
50.0
100
AcDbPoint
 10
9859.599999999986
 20
5153.468943718608
 30
0.0
  0
ENDBLK
  5
1F9A4
330
1F999
100
AcDbEntity
  8
0
 48
50.0
100
AcDbBlockEnd
  0
BLOCK
  5
209C5
330
209BB
100
AcDbEntity
  8
0
 48
50.0
100
AcDbBlockBegin
  2
*D14
 70
     1
 10
0.0
 20
0.0
 30
0.0
  3
*D14
  1

  0
LINE
  5
20A2A
330
209BB
100
AcDbEntity
  8
寸法
 62
     0
 48
50.0
370
    -2
100
AcDbLine
 10
5633.84157612118
 20
1399.73947345958
 30
0.0
 11
5500.51182904565
 21
1399.73947345958
 31
0.0
  0
LINE
  5
20A2B
330
209BB
100
AcDbEntity
  8
寸法
 62
     0
 48
50.0
370
    -2
100
AcDbLine
 10
5783.841576121179
 20
999.73947345958
 30
0.0
 11
5500.51182904565
 21
999.73947345958
 31
0.0
  0
LINE
  5
20A2C
330
209BB
100
AcDbEntity
  8
寸法
 62
     0
 48
50.0
370
    -2
100
AcDbLine
 10
5560.51182904565
 20
1399.73947345958
 30
0.0
 11
5560.51182904565
 21
999.73947345958
 31
0.0
  0
INSERT
  5
20A2D
330
209BB
100
AcDbEntity
  8
寸法
 62
     0
 48
50.0
370
    -2
100
AcDbBlockReference
  2
_DOTSMALL
 10
5560.51182904565
 20
1399.73947345958
 30
0.0
 41
100.0
 42
100.0
 43
100.0
 50
90.0
  0
INSERT
  5
20A2E
330
209BB
100
AcDbEntity
  8
寸法
 62
     0
 48
50.0
370
    -2
100
AcDbBlockReference
  2
_DOTSMALL
 10
5560.51182904565
 20
999.73947345958
 30
0.0
 41
100.0
 42
100.0
 43
100.0
 50
270.0
  0
MTEXT
  5
20A2F
330
209BB
100
AcDbEntity
  8
寸法
 62
     7
 48
50.0
100
AcDbMText
 10
5460.500018022028
 20
1187.364106575485
 30
0.0
 40
120.0
 41
0.0
 71
     5
 72
     1
  1
\A1;200
  7
STYLE1
 11
0.0000000000000001
 21
1.0
 31
0.0
 73
     1
 44
1.0
1001
ACAD
1000
MTEXTBEGIN
1070
    73
1070
     1
1070
    44
1040
1.0
1070
    74
1070
     0
1000
MTEXTEND
  0
POINT
  5
20A30
330
209BB
100
AcDbEntity
  8
DEFPOINTS
 62
     0
 48
50.0
100
AcDbPoint
 10
5653.84157612118
 20
1399.73947345958
 30
0.0
  0
POINT
  5
20A31
330
209BB
100
AcDbEntity
  8
DEFPOINTS
 62
     0
 48
50.0
100
AcDbPoint
 10
5803.84157612118
 20
999.73947345958
 30
0.0
  0
POINT
  5
20A32
330
209BB
100
AcDbEntity
  8
DEFPOINTS
 62
     0
 48
50.0
100
AcDbPoint
 10
5560.51182904565
 20
999.73947345958
 30
0.0
  0
ENDBLK
  5
209C6
330
209BB
100
AcDbEntity
  8
0
 48
50.0
100
AcDbBlockEnd
  0
BLOCK
  5
209D1
330
209C7
100
AcDbEntity
  8
0
 48
50.0
100
AcDbBlockBegin
  2
*D15
 70
     1
 10
0.0
 20
0.0
 30
0.0
  3
*D15
  1

  0
LINE
  5
20A21
330
209C7
100
AcDbEntity
  8
寸法
 62
     0
 48
50.0
370
    -2
100
AcDbLine
 10
7687.44784023979
 20
1599.739473459582
 30
0.0
 11
7949.66108770269
 21
1599.739473459582
 31
0.0
  0
LINE
  5
20A22
330
209C7
100
AcDbEntity
  8
寸法
 62
     0
 48
50.0
370
    -2
100
AcDbLine
 10
7706.897077134279
 20
1399.73947345958
 30
0.0
 11
7949.66108770269
 21
1399.73947345958
 31
0.0
  0
LINE
  5
20A23
330
209C7
100
AcDbEntity
  8
寸法
 62
     0
 48
50.0
370
    -2
100
AcDbLine
 10
7889.661087702688
 20
1599.739473459582
 30
0.0
 11
7889.661087702688
 21
1399.73947345958
 31
0.0
  0
INSERT
  5
20A24
330
209C7
100
AcDbEntity
  8
寸法
 62
     0
 48
50.0
370
    -2
100
AcDbBlockReference
  2
_DOTSMALL
 10
7889.661087702688
 20
1599.739473459582
 30
0.0
 41
100.0
 42
100.0
 43
100.0
 50
90.0
  0
INSERT
  5
20A25
330
209C7
100
AcDbEntity
  8
寸法
 62
     0
 48
50.0
370
    -2
100
AcDbBlockReference
  2
_DOTSMALL
 10
7889.661087702688
 20
1399.73947345958
 30
0.0
 41
100.0
 42
100.0
 43
100.0
 50
270.0
  0
MTEXT
  5
20A26
330
209C7
100
AcDbEntity
  8
寸法
 62
     7
 48
50.0
100
AcDbMText
 10
7789.661087702689
 20
1499.739473459582
 30
0.0
 40
120.0
 41
0.0
 71
     5
 72
     1
  1
\A1;b
  7
STYLE1
 11
0.0000000000000001
 21
1.0
 31
0.0
 73
     1
 44
1.0
1001
ACAD
1000
MTEXTBEGIN
1070
    73
1070
     1
1070
    44
1040
1.0
1070
    74
1070
     0
1000
MTEXTEND
  0
POINT
  5
20A27
330
209C7
100
AcDbEntity
  8
DEFPOINTS
 62
     0
 48
50.0
100
AcDbPoint
 10
7667.447840239789
 20
1599.739473459582
 30
0.0
  0
POINT
  5
20A28
330
209C7
100
AcDbEntity
  8
DEFPOINTS
 62
     0
 48
50.0
100
AcDbPoint
 10
7686.897077134279
 20
1399.73947345958
 30
0.0
  0
POINT
  5
20A29
330
209C7
100
AcDbEntity
  8
DEFPOINTS
 62
     0
 48
50.0
100
AcDbPoint
 10
7889.661087702688
 20
1399.73947345958
 30
0.0
  0
ENDBLK
  5
209D2
330
209C7
100
AcDbEntity
  8
0
 48
50.0
100
AcDbBlockEnd
  0
BLOCK
  5
209DD
330
209D3
100
AcDbEntity
  8
0
 48
50.0
100
AcDbBlockBegin
  2
*D16
 70
     1
 10
0.0
 20
0.0
 30
0.0
  3
*D16
  1

  0
LINE
  5
20A18
330
209D3
100
AcDbEntity
  8
寸法
 62
     0
 48
50.0
370
    -2
100
AcDbLine
 10
9187.340773756929
 20
1699.73947345958
 30
0.0
 11
9429.976327474046
 21
1699.73947345958
 31
0.0
  0
LINE
  5
20A19
330
209D3
100
AcDbEntity
  8
寸法
 62
     0
 48
50.0
370
    -2
100
AcDbLine
 10
9217.22968184726
 20
1399.73947345958
 30
0.0
 11
9429.976327474046
 21
1399.73947345958
 31
0.0
  0
LINE
  5
20A1A
330
209D3
100
AcDbEntity
  8
寸法
 62
     0
 48
50.0
370
    -2
100
AcDbLine
 10
9369.976327474045
 20
1699.73947345958
 30
0.0
 11
9369.976327474045
 21
1399.73947345958
 31
0.0
  0
INSERT
  5
20A1B
330
209D3
100
AcDbEntity
  8
寸法
 62
     0
 48
50.0
370
    -2
100
AcDbBlockReference
  2
_DOTSMALL
 10
9369.976327474045
 20
1699.73947345958
 30
0.0
 41
100.0
 42
100.0
 43
100.0
 50
90.0
  0
INSERT
  5
20A1C
330
209D3
100
AcDbEntity
  8
寸法
 62
     0
 48
50.0
370
    -2
100
AcDbBlockReference
  2
_DOTSMALL
 10
9369.976327474045
 20
1399.73947345958
 30
0.0
 41
100.0
 42
100.0
 43
100.0
 50
270.0
  0
MTEXT
  5
20A1D
330
209D3
100
AcDbEntity
  8
寸法
 62
     7
 48
50.0
100
AcDbMText
 10
9269.976327474045
 20
1549.739473459581
 30
0.0
 40
120.0
 41
0.0
 71
     5
 72
     1
  1
\A1;c
  7
STYLE1
 11
0.0000000000000001
 21
1.0
 31
0.0
 73
     1
 44
1.0
1001
ACAD
1000
MTEXTBEGIN
1070
    73
1070
     1
1070
    44
1040
1.0
1070
    74
1070
     0
1000
MTEXTEND
  0
POINT
  5
20A1E
330
209D3
100
AcDbEntity
  8
DEFPOINTS
 62
     0
 48
50.0
100
AcDbPoint
 10
9167.340773756929
 20
1699.73947345958
 30
0.0
  0
POINT
  5
20A1F
330
209D3
100
AcDbEntity
  8
DEFPOINTS
 62
     0
 48
50.0
100
AcDbPoint
 10
9197.229681847259
 20
1399.73947345958
 30
0.0
  0
POINT
  5
20A20
330
209D3
100
AcDbEntity
  8
DEFPOINTS
 62
     0
 48
50.0
100
AcDbPoint
 10
9369.976327474045
 20
1399.73947345958
 30
0.0
  0
ENDBLK
  5
209DE
330
209D3
100
AcDbEntity
  8
0
 48
50.0
100
AcDbBlockEnd
  0
BLOCK
  5
209E9
330
209DF
100
AcDbEntity
  8
0
 48
50.0
100
AcDbBlockBegin
  2
*D17
 70
     1
 10
0.0
 20
0.0
 30
0.0
  3
*D17
  1

  0
LINE
  5
20A0F
330
209DF
100
AcDbEntity
  8
寸法
 62
     0
 48
50.0
370
    -2
100
AcDbLine
 10
6073.841576121182
 20
1599.739473459581
 30
0.0
 11
6361.912580481575
 21
1599.739473459581
 31
0.0
  0
LINE
  5
20A10
330
209DF
100
AcDbEntity
  8
寸法
 62
     0
 48
50.0
370
    -2
100
AcDbLine
 10
6073.841576121184
 20
1399.73947345958
 30
0.0
 11
6361.912580481575
 21
1399.73947345958
 31
0.0
  0
LINE
  5
20A11
330
209DF
100
AcDbEntity
  8
寸法
 62
     0
 48
50.0
370
    -2
100
AcDbLine
 10
6301.912580481576
 20
1599.739473459581
 30
0.0
 11
6301.912580481576
 21
1399.73947345958
 31
0.0
  0
INSERT
  5
20A12
330
209DF
100
AcDbEntity
  8
寸法
 62
     0
 48
50.0
370
    -2
100
AcDbBlockReference
  2
_DOTSMALL
 10
6301.912580481576
 20
1599.739473459581
 30
0.0
 41
100.0
 42
100.0
 43
100.0
 50
90.0
  0
INSERT
  5
20A13
330
209DF
100
AcDbEntity
  8
寸法
 62
     0
 48
50.0
370
    -2
100
AcDbBlockReference
  2
_DOTSMALL
 10
6301.912580481576
 20
1399.73947345958
 30
0.0
 41
100.0
 42
100.0
 43
100.0
 50
270.0
  0
MTEXT
  5
20A14
330
209DF
100
AcDbEntity
  8
寸法
 62
     7
 48
50.0
100
AcDbMText
 10
6201.912580481575
 20
1499.739473459581
 30
0.0
 40
120.0
 41
0.0
 71
     5
 72
     1
  1
\A1;a
  7
STYLE1
 11
0.0000000000000001
 21
1.0
 31
0.0
 73
     1
 44
1.0
1001
ACAD
1000
MTEXTBEGIN
1070
    73
1070
     1
1070
    44
1040
1.0
1070
    74
1070
     0
1000
MTEXTEND
  0
POINT
  5
20A15
330
209DF
100
AcDbEntity
  8
DEFPOINTS
 62
     0
 48
50.0
100
AcDbPoint
 10
6053.841576121182
 20
1599.739473459581
 30
0.0
  0
POINT
  5
20A16
330
209DF
100
AcDbEntity
  8
DEFPOINTS
 62
     0
 48
50.0
100
AcDbPoint
 10
6053.841576121183
 20
1399.73947345958
 30
0.0
  0
POINT
  5
20A17
330
209DF
100
AcDbEntity
  8
DEFPOINTS
 62
     0
 48
50.0
100
AcDbPoint
 10
6301.912580481576
 20
1399.73947345958
 30
0.0
  0
ENDBLK
  5
209EA
330
209DF
100
AcDbEntity
  8
0
 48
50.0
100
AcDbBlockEnd
  0
ENDSEC
  0
SECTION
  2
ENTITIES
  0
LINE
  5
10B57
330
747D
100
AcDbEntity
  8
補助
  6
PHANTOM
 62
   230
 48
50.0
100
AcDbLine
 10
139.9999999999995
 20
11409.6
 30
0.0
 11
16307.2
 21
11409.6
 31
0.0
  0
LINE
  5
10B59
330
747D
100
AcDbEntity
  8
仕様書枠
  6
Continuous
 48
50.0
100
AcDbLine
 10
13107.2
 20
1200.0
 30
0.0
 11
13107.2
 21
-0.0000000000000729
 31
0.0
  0
LINE
  5
10B5C
330
747D
100
AcDbEntity
  8
仕様書枠
 48
50.0
100
AcDbLine
 10
16307.2
 20
1200.0
 30
0.0
 11
16307.2
 21
-0.0000000000000909
 31
0.0
  0
LINE
  5
10B5D
330
747D
100
AcDbEntity
  8
仕様書枠
 48
50.0
100
AcDbLine
 10
140.0
 20
0.0
 30
0.0
 11
16307.2
 21
-0.0000000000000909
 31
0.0
  0
LINE
  5
10B5E
330
747D
100
AcDbEntity
  8
補助
  6
PHANTOM
 62
   230
 48
50.0
100
AcDbLine
 10
16307.2
 20
11409.6
 30
0.0
 11
16307.2
 21
1200.0
 31
0.0
  0
LINE
  5
10B6C
330
747D
100
AcDbEntity
  8
仕様書枠
 48
50.0
100
AcDbLine
 10
13107.2
 20
1200.0
 30
0.0
 11
16307.2
 21
1200.0
 31
0.0
  0
LINE
  5
10B6D
330
747D
100
AcDbEntity
  8
補助
  6
PHANTOM
 62
   230
 48
50.0
100
AcDbLine
 10
13107.2
 20
11409.6
 30
0.0
 11
13107.2
 21
4800.0
 31
0.0
  0
LINE
  5
10B6F
330
747D
100
AcDbEntity
  8
補助
  6
PHANTOM
 62
   230
 48
50.0
100
AcDbLine
 10
13107.2
 20
4800.0
 30
0.0
 11
16307.2
 21
4800.0
 31
0.0
  0
LINE
  5
10B72
330
747D
100
AcDbEntity
  8
文字
 62
     7
 48
50.0
100
AcDbLine
 10
13187.2
 20
400.0
 30
0.0
 11
16227.2
 21
400.0
 31
0.0
  0
TEXT
  5
10B73
330
747D
100
AcDbEntity
  8
文字
 62
     7
 48
50.0
100
AcDbText
 10
13162.9790565769
 20
895.0906074299405
 30
0.0
 40
200.0
  1
基 礎 図
  7
STYLE2
100
AcDbText
  0
TEXT
  5
10B74
330
747D
100
AcDbEntity
  8
文字
 62
     7
 48
50.0
100
AcDbText
 10
13201.43669998441
 20
477.2740661031255
 30
0.0
 40
160.0
  1
機種名
  7
STYLE2
100
AcDbText
  0
TEXT
  5
10B79
330
747D
100
AcDbEntity
  8
文字
 62
     7
 48
50.0
100
AcDbText
 10
14524.131837222
 20
1031.557706291228
 30
0.0
 40
100.0
  1
NO.27      <縮尺> S=1/40
  7
STYLE2
100
AcDbText
  0
LINE
  5
10B7B
330
747D
100
AcDbEntity
  8
仕様書枠
 48
50.0
100
AcDbLine
 10
13107.2
 20
800.0
 30
0.0
 11
14251.2
 21
800.0
 31
0.0
  0
LINE
  5
10B88
330
747D
100
AcDbEntity
  8
仕様書枠
  6
Continuous
 48
50.0
100
AcDbLine
 10
14251.2
 20
1200.0
 30
0.0
 11
14251.2
 21
800.0
 31
0.0
  0
TEXT
  5
14DEF
330
747D
100
AcDbEntity
  8
文字
 62
     7
 48
50.0
100
AcDbText
 10
14641.2525855784
 20
871.1744590657925
 30
0.0
 40
100.0
  1
～一般型・多雪地型～
  7
STYLE2
100
AcDbText
  0
TEXT
  5
15A76
330
747D
100
AcDbEntity
  8
文字
 62
     7
 48
50.0
100
AcDbText
 10
14482.61482192223
 20
488.1241585855691
 30
0.0
 40
160.0
  1
ＮＸＮ－９５Ｓ・Ｈ
  7
STYLE2
100
AcDbText
  0
LINE
  5
1CAC7
330
747D
100
AcDbEntity
  8
部品1
 48
50.0
100
AcDbLine
 10
7297.6
 20
8558.79442866407
 30
0.0
 11
6907.600000000001
 21
8558.79442866407
 31
0.0
  0
LINE
  5
1CAC8
330
747D
100
AcDbEntity
  8
部品1
 48
50.0
100
AcDbLine
 10
7297.6
 20
8558.794428664064
 30
0.0
 11
6907.600000000001
 21
8558.79442866407
 31
0.0
  0
LINE
  5
1CACE
330
747D
100
AcDbEntity
  8
部品1
 48
50.0
100
AcDbLine
 10
6907.600000000001
 20
8368.794428664068
 30
0.0
 11
6907.600000000001
 21
8558.79442866407
 31
0.0
  0
TEXT
  5
1D002
330
747D
100
AcDbEntity
  8
文字
 62
     7
 48
50.0
100
AcDbText
 10
13188.16259899338
 20
246.7109242801889
 30
0.0
 40
80.0
  1
※寒冷地等は地域の実情に合わせた基礎にして下さい。
  7
STYLE2
100
AcDbText
  0
DIMENSION
  5
1F702
330
747D
100
AcDbEntity
  8
寸法
 48
50.0
100
AcDbDimension
  2
*D11
 10
9160.6
 20
9067.418665800031
 30
0.0
 11
8797.1
 21
9167.430476823652
 31
0.0
 70
    32
 71
     5
 42
727.0
  3
INABA_S40G
100
AcDbAlignedDimension
 13
8433.6
 23
8558.79442866407
 33
0.0
 14
9160.6
 24
8558.794428664064
 34
0.0
100
AcDbRotatedDimension
1001
ACAD
1000
DSTYLE
1002
{
1070
   174
1070
     0
1070
   272
1070
     1
1070
   288
1070
     0
1070
   341
1005
0
1002
}
  0
LINE
  5
1F703
330
747D
100
AcDbEntity
  8
部品1
 48
50.0
100
AcDbLine
 10
9569.600000000001
 20
8368.794428664065
 30
0.0
 11
9569.600000000001
 21
8558.794428664064
 31
0.0
  0
LINE
  5
1F704
330
747D
100
AcDbEntity
  8
部品1
 48
50.0
100
AcDbLine
 10
9255.599999999985
 20
5506.794428664068
 30
0.0
 11
9065.599999999983
 21
5506.794428664068
 31
0.0
  0
LINE
  5
1F706
330
747D
100
AcDbEntity
  8
部品1
 48
50.0
100
AcDbLine
 10
9065.599999999983
 20
5506.794428664072
 30
0.0
 11
9065.599999999983
 21
5696.794428664072
 31
0.0
  0
LINE
  5
1F707
330
747D
100
AcDbEntity
  8
部品1
 48
50.0
100
AcDbLine
 10
9255.599999999985
 20
5506.794428664072
 30
0.0
 11
9255.599999999985
 21
5696.794428664072
 31
0.0
  0
LINE
  5
1F709
330
747D
100
AcDbEntity
  8
部品1
 48
50.0
100
AcDbLine
 10
9255.600000000001
 20
8558.794428664064
 30
0.0
 11
9065.600000000001
 21
8558.794428664064
 31
0.0
  0
LINE
  5
1F70B
330
747D
100
AcDbEntity
  8
部品1
 48
50.0
100
AcDbLine
 10
9065.600000000001
 20
8368.794428664068
 30
0.0
 11
9065.600000000001
 21
8558.79442866407
 31
0.0
  0
LINE
  5
1F70C
330
747D
100
AcDbEntity
  8
部品1
 48
50.0
100
AcDbLine
 10
9255.600000000001
 20
8368.794428664068
 30
0.0
 11
9255.600000000001
 21
8558.79442866407
 31
0.0
  0
TEXT
  5
1F715
330
747D
100
AcDbEntity
  8
文字
 48
50.0
100
AcDbText
 10
10486.75041623232
 20
8554.157958052003
 30
0.0
 40
120.0
  1
深サ:200
  7
STYLE1
100
AcDbText
  0
LEADER
  5
1F716
330
747D
100
AcDbEntity
  8
寸法
 48
50.0
100
AcDbLeader
  3
INABA_S50G
 71
     0
 73
     0
 74
     0
 75
     1
 40
120.0
 41
185.591883092037
 76
     3
 10
7127.606616180269
 20
8398.853893449073
 30
0.0
 10
7198.980023861057
 20
8137.309677066749
 30
0.0
 10
7323.980023861057
 20
8137.309677066749
 30
0.0
340
1F717
1001
ACAD
1000
DSTYLE
1002
{
1070
   341
1005
1C530
1070
    40
1040
1.0
1070
   343
1005
1C530
1070
   344
1005
1C530
1002
}
  0
MTEXT
  5
1F717
102
{ACAD_REACTORS
330
1F716
102
}
330
747D
100
AcDbEntity
  8
部品1
 62
     7
 48
50.0
100
AcDbMText
 10
7348.980023861057
 20
8222.30967706675
 30
0.0
 40
120.0
 41
0.0
 71
     4
 72
     1
  1
\A1;C.B
  7
STYLE1
 73
     1
 44
1.0
1001
ACAD
1000
MTEXTBEGIN
1070
    73
1070
     1
1070
    44
1040
1.0
1070
    74
1070
     0
1000
MTEXTEND
  0
TEXT
  5
1F718
330
747D
100
AcDbEntity
  8
文字
 48
50.0
100
AcDbText
 10
7210.038838996521
 20
7969.811077573128
 30
0.0
 40
120.0
  1
100x190x390
  7
STYLE1
100
AcDbText
  0
LEADER
  5
1F71B
330
747D
100
AcDbEntity
  8
寸法
 48
50.0
100
AcDbLeader
  3
INABA_S50G
 71
     0
 73
     0
 74
     0
 75
     1
 40
120.0
 41
1282.349242404918
 76
     3
 10
10049.32467532425
 20
8548.251067951985
 30
0.0
 10
10305.71188690667
 20
8744.595005568127
 30
0.0
 10
10430.71188690667
 20
8744.595005568127
 30
0.0
340
1F71C
1001
ACAD
1000
DSTYLE
1002
{
1070
   341
1005
1C530
1070
    40
1040
1.0
1070
   343
1005
1C530
1070
   344
1005
1C530
1002
}
  0
MTEXT
  5
1F71C
102
{ACAD_REACTORS
330
1F71B
102
}
330
747D
100
AcDbEntity
  8
部品1
 62
     7
 48
50.0
100
AcDbMText
 10
10455.71188690667
 20
8829.595005568126
 30
0.0
 40
120.0
 41
0.0
 71
     4
 72
     1
  1
現場打コンクリート
  7
STYLE1
 73
     1
 44
1.0
1001
ACAD
1000
MTEXTBEGIN
1070
    73
1070
     1
1070
    44
1040
1.0
1070
    74
1070
     0
1000
MTEXTEND
  0
TEXT
  5
1F71D
330
747D
100
AcDbEntity
  8
部品1
 48
50.0
100
AcDbText
 10
10463.83581900176
 20
8956.072594040202
 30
0.0
 40
120.0
  1
組立後
  7
STYLE1
100
AcDbText
  0
DIMENSION
  5
1F71E
330
747D
100
AcDbEntity
  8
寸法
 48
50.0
100
AcDbDimension
  2
*D2
 10
9959.600000000001
 20
9067.418665800031
 30
0.0
 11
9560.1
 21
9167.418665800031
 31
0.0
 70
    32
 71
     5
 42
799.0
  3
INABA_S40G
100
AcDbAlignedDimension
 13
9160.6
 23
8558.794428664064
 33
0.0
 14
9959.600000000001
 24
8558.79442866407
 34
0.0
100
AcDbRotatedDimension
1001
ACAD
1000
DSTYLE
1002
{
1070
   174
1070
     0
1070
   272
1070
     1
1070
   288
1070
     0
1070
   341
1005
0
1002
}
  0
DIMENSION
  5
1F71F
330
747D
100
AcDbEntity
  8
寸法
 48
50.0
100
AcDbDimension
  2
*D3
 10
6907.600000000001
 20
9067.418665800031
 30
0.0
 11
7307.100000000001
 21
9167.418665800031
 31
0.0
 70
    32
 71
     5
 42
799.0
  3
INABA_S40G
100
AcDbAlignedDimension
 13
7706.6
 23
8558.79442866407
 33
0.0
 14
6907.600000000001
 24
8558.79442866407
 34
0.0
100
AcDbRotatedDimension
1001
ACAD
1000
DSTYLE
1002
{
1070
   174
1070
     0
1070
   272
1070
     1
1070
   288
1070
     0
1070
   341
1005
0
1002
}
  0
DIMENSION
  5
1F720
330
747D
100
AcDbEntity
  8
寸法
 48
50.0
100
AcDbDimension
  2
*D4
 10
8433.6
 20
9067.418665800031
 30
0.0
 11
8070.100000000001
 21
9167.430476823652
 31
0.0
 70
    32
 71
     5
 42
727.0
  3
INABA_S40G
100
AcDbAlignedDimension
 13
7706.6
 23
8558.79442866407
 33
0.0
 14
8433.6
 24
8558.79442866407
 34
0.0
100
AcDbRotatedDimension
1001
ACAD
1000
DSTYLE
1002
{
1070
   174
1070
     0
1070
   272
1070
     1
1070
   288
1070
     0
1070
   341
1005
0
1002
}
  0
LINE
  5
1F721
330
747D
100
AcDbEntity
  8
部品1
 48
50.0
100
AcDbLine
 10
7801.6
 20
8558.79442866407
 30
0.0
 11
7611.6
 21
8558.79442866407
 31
0.0
  0
LINE
  5
1F723
330
747D
100
AcDbEntity
  8
部品1
 48
50.0
100
AcDbLine
 10
7611.6
 20
8368.794428664072
 30
0.0
 11
7611.6
 21
8558.794428664072
 31
0.0
  0
LINE
  5
1F724
330
747D
100
AcDbEntity
  8
部品1
 48
50.0
100
AcDbLine
 10
7801.6
 20
8368.794428664072
 30
0.0
 11
7801.6
 21
8558.794428664072
 31
0.0
  0
LINE
  5
1F725
330
747D
100
AcDbEntity
  8
部品1
 48
50.0
100
AcDbLine
 10
7801.599999999983
 20
5506.794428664072
 30
0.0
 11
7611.599999999985
 21
5506.794428664072
 31
0.0
  0
LINE
  5
1F727
330
747D
100
AcDbEntity
  8
部品1
 48
50.0
100
AcDbLine
 10
7611.599999999985
 20
5506.794428664075
 30
0.0
 11
7611.599999999985
 21
5696.794428664076
 31
0.0
  0
LINE
  5
1F728
330
747D
100
AcDbEntity
  8
部品1
 48
50.0
100
AcDbLine
 10
7801.599999999983
 20
5506.794428664075
 30
0.0
 11
7801.599999999983
 21
5696.794428664076
 31
0.0
  0
LINE
  5
1F729
330
747D
100
AcDbEntity
  8
想像線
 48
10.0
100
AcDbLine
 10
6857.599999999983
 20
5449.794428664072
 30
0.0
 11
6860.599999999983
 21
5446.794428664072
 31
0.0
  0
LINE
  5
1F72A
330
747D
100
AcDbEntity
  8
想像線
 48
10.0
100
AcDbLine
 10
6860.600000000001
 20
8638.794428664068
 30
0.0
 11
6857.600000000001
 21
8635.794428664068
 31
0.0
  0
TEXT
  5
1F72B
330
747D
100
AcDbEntity
  8
部品1
 48
50.0
100
AcDbText
 10
8305.786779658701
 20
5288.327816470505
 30
0.0
 40
120.0
  1
扉面
  7
STYLE1
 72
     1
 11
8433.786779658701
 21
5272.327816470504
 31
0.0
100
AcDbText
 73
     1
  0
LINE
  5
1F72D
330
747D
100
AcDbEntity
  8
部品1
 48
50.0
100
AcDbLine
 10
9569.600000000001
 20
8368.794428664068
 30
0.0
 11
9959.600000000001
 21
8368.794428664068
 31
0.0
  0
LINE
  5
1F72E
330
747D
100
AcDbEntity
  8
部品1
 48
50.0
100
AcDbLine
 10
9569.600000000001
 20
8558.79442866407
 30
0.0
 11
9959.600000000001
 21
8558.79442866407
 31
0.0
  0
LINE
  5
1F72F
330
747D
100
AcDbEntity
  8
部品1
 48
50.0
100
AcDbLine
 10
9569.600000000001
 20
8558.794428664064
 30
0.0
 11
9959.600000000001
 21
8558.79442866407
 31
0.0
  0
DIMENSION
  5
1F730
330
747D
100
AcDbEntity
  8
寸法
 48
50.0
100
AcDbDimension
  2
*D5
 10
10009.6
 20
9325.346054466091
 30
0.0
 11
9984.6
 21
9325.346054466091
 31
0.0
 70
   160
  1
a
 71
     5
 42
50.0
  3
INABA_S40G
100
AcDbAlignedDimension
 13
9959.600000000001
 23
8558.79442866407
 33
0.0
 14
10009.6
 24
8638.794428664072
 34
0.0
100
AcDbRotatedDimension
1001
ACAD
1000
DSTYLE
1002
{
1070
   174
1070
     0
1070
   272
1070
     1
1070
   288
1070
     0
1070
   341
1005
0
1002
}
  0
LINE
  5
1F731
330
747D
100
AcDbEntity
  8
部品1
 48
50.0
100
AcDbLine
 10
9959.599999999985
 20
5696.794428664072
 30
0.0
 11
9959.599999999985
 21
5506.794428664072
 31
0.0
  0
LINE
  5
1F732
330
747D
100
AcDbEntity
  8
部品1
 48
50.0
100
AcDbLine
 10
9569.599999999985
 20
5696.794428664072
 30
0.0
 11
9569.599999999985
 21
5506.794428664072
 31
0.0
  0
LINE
  5
1F733
330
747D
100
AcDbEntity
  8
部品1
 48
50.0
100
AcDbLine
 10
9569.599999999985
 20
5506.794428664075
 30
0.0
 11
9959.599999999985
 21
5506.794428664072
 31
0.0
  0
LINE
  5
1F734
330
747D
100
AcDbEntity
  8
部品1
 48
50.0
100
AcDbLine
 10
9569.599999999985
 20
5506.794428664072
 30
0.0
 11
9959.599999999985
 21
5506.794428664072
 31
0.0
  0
LINE
  5
1F735
330
747D
100
AcDbEntity
  8
部品1
 48
50.0
100
AcDbLine
 10
9569.599999999985
 20
5696.794428664072
 30
0.0
 11
9959.599999999985
 21
5696.794428664072
 31
0.0
  0
LINE
  5
1F736
330
747D
100
AcDbEntity
  8
想像線
 48
10.0
100
AcDbLine
 10
10009.6
 20
8638.828603683938
 30
0.0
 11
10009.59999999998
 21
5446.794428664069
 31
0.0
  0
LINE
  5
1F737
330
747D
100
AcDbEntity
  8
部品1
 48
50.0
100
AcDbLine
 10
7297.6
 20
8368.794428664068
 30
0.0
 11
7297.6
 21
8558.79442866407
 31
0.0
  0
LINE
  5
1F738
330
747D
100
AcDbEntity
  8
部品1
 48
50.0
100
AcDbLine
 10
6907.600000000001
 20
8368.794428664068
 30
0.0
 11
6907.600000000001
 21
8558.79442866407
 31
0.0
  0
DIMENSION
  5
1F739
330
747D
100
AcDbEntity
  8
寸法
 48
50.0
100
AcDbDimension
  2
*D6
 10
6907.600000000001
 20
9325.346054466091
 30
0.0
 11
6882.6
 21
9325.346054466091
 31
0.0
 70
   160
  1
a
 71
     5
 42
50.0
  3
INABA_S40G
100
AcDbAlignedDimension
 13
6857.600000000001
 23
8638.794428664068
 33
0.0
 14
6907.600000000001
 24
8558.79442866407
 34
0.0
100
AcDbRotatedDimension
1001
ACAD
1000
DSTYLE
1002
{
1070
   174
1070
     0
1070
   272
1070
     1
1070
   288
1070
     0
1070
   341
1005
0
1002
}
  0
LINE
  5
1F73A
330
747D
100
AcDbEntity
  8
部品1
 48
50.0
100
AcDbLine
 10
7297.6
 20
8368.794428664068
 30
0.0
 11
6907.600000000001
 21
8368.794428664068
 31
0.0
  0
LINE
  5
1F73B
330
747D
100
AcDbEntity
  8
部品1
 48
50.0
100
AcDbLine
 10
7297.6
 20
8558.794428664064
 30
0.0
 11
6907.600000000001
 21
8558.79442866407
 31
0.0
  0
LINE
  5
1F73C
330
747D
100
AcDbEntity
  8
部品1
 48
50.0
100
AcDbLine
 10
7297.6
 20
8558.79442866407
 30
0.0
 11
6907.600000000001
 21
8558.79442866407
 31
0.0
  0
LINE
  5
1F73D
330
747D
100
AcDbEntity
  8
部品1
 48
50.0
100
AcDbLine
 10
7297.599999999984
 20
5696.794428664072
 30
0.0
 11
7297.599999999984
 21
5506.794428664072
 31
0.0
  0
LINE
  5
1F73F
330
747D
100
AcDbEntity
  8
部品1
 48
50.0
100
AcDbLine
 10
7297.599999999984
 20
5696.794428664072
 30
0.0
 11
6907.599999999984
 21
5696.794428664072
 31
0.0
  0
LINE
  5
1F740
330
747D
100
AcDbEntity
  8
部品1
 48
50.0
100
AcDbLine
 10
7297.599999999984
 20
5506.794428664072
 30
0.0
 11
6907.599999999984
 21
5506.794428664072
 31
0.0
  0
LINE
  5
1F741
330
747D
100
AcDbEntity
  8
部品1
 48
50.0
100
AcDbLine
 10
7297.599999999984
 20
5506.794428664075
 30
0.0
 11
6907.599999999984
 21
5506.794428664072
 31
0.0
  0
LINE
  5
1F742
330
747D
100
AcDbEntity
  8
想像線
 48
10.0
100
AcDbLine
 10
6857.599999999983
 20
5449.794428664072
 30
0.0
 11
6857.600000000001
 21
8635.794428664068
 31
0.0
  0
DIMENSION
  5
1F743
330
747D
100
AcDbEntity
  8
寸法
 48
50.0
100
AcDbDimension
  2
*D7
 10
6466.88811655075
 20
8558.79442866407
 30
0.0
 11
6466.888116550748
 21
8598.794428664071
 31
0.0
 70
   160
  1
c
 71
     5
 42
80.0
  3
INABA_S40G
100
AcDbAlignedDimension
 13
6857.600000000001
 23
8638.794428664068
 33
0.0
 14
6907.600000000001
 24
8558.79442866407
 34
0.0
 50
90.0
100
AcDbRotatedDimension
1001
ACAD
1000
DSTYLE
1002
{
1070
   174
1070
     0
1070
   272
1070
     1
1070
   288
1070
     0
1070
   341
1005
0
1002
}
  0
DIMENSION
  5
1F744
330
747D
100
AcDbEntity
  8
寸法
 48
50.0
100
AcDbDimension
  2
*D8
 10
6466.888116550754
 20
5506.794428664072
 30
0.0
 11
6466.888116550754
 21
7032.79442866407
 31
0.0
 70
   160
 71
     5
 42
3051.999999999996
  3
INABA_S40G
100
AcDbAlignedDimension
 13
6907.600000000001
 23
8558.79442866407
 33
0.0
 14
6887.599999999984
 24
5506.794428664072
 34
0.0
 50
90.0
100
AcDbRotatedDimension
1001
ACAD
1000
DSTYLE
1002
{
1070
   174
1070
     0
1070
   272
1070
     1
1070
   288
1070
     0
1070
   341
1005
0
1002
}
  0
DIMENSION
  5
1F745
330
747D
100
AcDbEntity
  8
寸法
 48
50.0
100
AcDbDimension
  2
*D9
 10
6466.888116550734
 20
5446.794428664072
 30
0.0
 11
6466.888116550733
 21
5476.794428664074
 31
0.0
 70
   160
  1
b
 71
     5
 42
60.0
  3
INABA_S40G
100
AcDbAlignedDimension
 13
6907.599999999984
 23
5506.794428664072
 33
0.0
 14
6857.599999999983
 24
5446.794428664072
 34
0.0
 50
90.0
100
AcDbRotatedDimension
1001
ACAD
1000
DSTYLE
1002
{
1070
   174
1070
     0
1070
   272
1070
     1
1070
   288
1070
     0
1070
   341
1005
0
1002
}
  0
LINE
  5
1F746
330
747D
100
AcDbEntity
  8
想像線
 48
10.0
100
AcDbLine
 10
6860.600000000001
 20
8638.794428664068
 30
0.0
 11
10009.6
 21
8638.794428664072
 31
0.0
  0
LINE
  5
1F747
330
747D
100
AcDbEntity
  8
想像線
 48
10.0
100
AcDbLine
 10
10009.59999999998
 20
5446.794428664069
 30
0.0
 11
6860.599999999983
 21
5446.794428664072
 31
0.0
  0
DIMENSION
  5
1F748
330
747D
100
AcDbEntity
  8
寸法
 48
50.0
100
AcDbDimension
  2
*D10
 10
9959.600000000001
 20
9325.346054466091
 30
0.0
 11
8433.6
 21
9325.346054466091
 31
0.0
 70
   160
 71
     5
 42
3052.0
  3
INABA_S40G
100
AcDbAlignedDimension
 13
6907.600000000001
 23
8558.79442866407
 33
0.0
 14
9959.600000000001
 24
8558.79442866407
 34
0.0
100
AcDbRotatedDimension
1001
ACAD
1000
DSTYLE
1002
{
1070
   174
1070
     0
1070
   272
1070
     1
1070
   288
1070
     0
1070
   341
1005
0
1002
}
  0
LEADER
  5
1F749
330
747D
100
AcDbEntity
  8
寸法
 48
50.0
100
AcDbLeader
  3
INABA_S50G
 71
     0
 73
     0
 74
     0
 75
     1
 40
120.0
 41
672.0
 76
     3
 10
7092.496925270928
 20
5446.794428664072
 30
0.0
 10
7340.734111875419
 20
5066.777036704281
 30
0.0
 10
7465.734111875419
 20
5066.777036704281
 30
0.0
340
1F74A
1001
ACAD
1000
DSTYLE
1002
{
1070
   341
1005
1C530
1070
    40
1040
1.0
1070
   343
1005
1C530
1070
   344
1005
1C530
1002
}
  0
MTEXT
  5
1F74A
102
{ACAD_REACTORS
330
1F749
102
}
330
747D
100
AcDbEntity
  8
部品1
 62
     7
 48
50.0
100
AcDbMText
 10
8162.734111875419
 20
5151.777036704281
 30
0.0
 40
120.0
 41
0.0
 71
     6
 72
     1
  1
\A1;屋根の外寸
  7
STYLE1
 73
     1
 44
1.0
1001
ACAD
1000
MTEXTBEGIN
1070
    73
1070
     1
1070
    44
1040
1.0
1070
    74
1070
     0
1000
MTEXTEND
  0
TEXT
  5
1F74B
330
747D
100
AcDbEntity
  8
部品1
 48
50.0
100
AcDbText
 10
7296.56402169865
 20
4940.109136504815
 30
0.0
 40
80.0
  1
※a,b,cは屋根の出幅です。
  7
STYLE1
100
AcDbText
  0
TEXT
  5
1F74C
330
747D
100
AcDbEntity
  8
部品1
 48
50.0
100
AcDbText
 10
7410.2642624246
 20
4806.552610418872
 30
0.0
 40
80.0
  1
(a=50,b=60,c=80)
  7
STYLE1
100
AcDbText
  0
LINE
  5
1F939
330
747D
100
AcDbEntity
  8
部品1
 48
50.0
100
AcDbLine
 10
7297.599999999984
 20
5506.794428664072
 30
0.0
 11
6907.599999999984
 21
5506.794428664072
 31
0.0
  0
DIMENSION
  5
1F98A
330
747D
100
AcDbEntity
  8
寸法
 48
50.0
100
AcDbDimension
  2
*D12
 10
10348.66514751619
 20
5406.794428664071
 30
0.0
 11
10348.66514751619
 21
5506.794428664072
 31
0.0
 70
   160
 71
     5
 42
200.0
  3
INABA_S40G
100
AcDbAlignedDimension
 13
10059.59999999998
 23
5606.794428664072
 33
0.0
 14
10059.59999999998
 24
5406.794428664071
 34
0.0
 50
90.0
100
AcDbRotatedDimension
1001
ACAD
1000
DSTYLE
1002
{
1070
   174
1070
     0
1070
   272
1070
     1
1070
   288
1070
     0
1070
   341
1005
0
1002
}
  0
DIMENSION
  5
1F98B
330
747D
100
AcDbEntity
  8
寸法
 48
50.0
100
AcDbDimension
  2
*D13
 10
9859.599999999986
 20
5153.468943718608
 30
0.0
 11
9959.599999999985
 21
5153.468943718608
 31
0.0
 70
   160
 71
     5
 42
200.0
  3
INABA_S40G
100
AcDbAlignedDimension
 13
10059.59999999998
 23
5406.794428664071
 33
0.0
 14
9859.599999999986
 24
5406.794428664071
 34
0.0
100
AcDbRotatedDimension
1001
ACAD
1000
DSTYLE
1002
{
1070
   174
1070
     0
1070
   272
1070
     1
1070
   288
1070
     0
1070
   341
1005
0
1002
}
  0
LINE
  5
1F9DD
330
747D
100
AcDbEntity
  8
部品1
 48
50.0
100
AcDbLine
 10
7611.599999999985
 20
5896.794428664076
 30
0.0
 11
7801.599999999983
 21
5896.794428664076
 31
0.0
  0
LINE
  5
1F9DE
330
747D
100
AcDbEntity
  8
部品1
 48
50.0
100
AcDbLine
 10
7611.599999999985
 20
5506.794428664075
 30
0.0
 11
7801.599999999983
 21
5506.794428664075
 31
0.0
  0
LINE
  5
1F9DF
330
747D
100
AcDbEntity
  8
部品1
 48
50.0
100
AcDbLine
 10
7611.599999999985
 20
5896.794428664076
 30
0.0
 11
7611.599999999985
 21
5506.794428664075
 31
0.0
  0
LINE
  5
1F9E0
330
747D
100
AcDbEntity
  8
部品1
 48
50.0
100
AcDbLine
 10
7801.599999999983
 20
5896.794428664076
 30
0.0
 11
7801.599999999983
 21
5506.794428664075
 31
0.0
  0
LINE
  5
1F9E1
330
747D
100
AcDbEntity
  8
部品1
 48
50.0
100
AcDbLine
 10
7801.59999999998
 20
5896.794428664076
 30
0.0
 11
7801.599999999983
 21
5506.794428664075
 31
0.0
  0
LINE
  5
1F9E2
330
747D
100
AcDbEntity
  8
部品1
 48
50.0
100
AcDbLine
 10
7801.599999999983
 20
5896.794428664076
 30
0.0
 11
7801.599999999983
 21
5506.794428664075
 31
0.0
  0
LINE
  5
1F9E3
330
747D
100
AcDbEntity
  8
部品1
 48
50.0
100
AcDbLine
 10
7611.599999999985
 20
5696.794428664076
 30
0.0
 11
7611.599999999985
 21
5506.794428664075
 31
0.0
  0
LINE
  5
1F9E4
330
747D
100
AcDbEntity
  8
部品1
 48
50.0
100
AcDbLine
 10
9065.599999999983
 20
5896.794428664072
 30
0.0
 11
9255.599999999985
 21
5896.794428664072
 31
0.0
  0
LINE
  5
1F9E5
330
747D
100
AcDbEntity
  8
部品1
 48
50.0
100
AcDbLine
 10
9065.599999999983
 20
5506.794428664072
 30
0.0
 11
9255.599999999985
 21
5506.794428664072
 31
0.0
  0
LINE
  5
1F9E6
330
747D
100
AcDbEntity
  8
部品1
 48
50.0
100
AcDbLine
 10
9065.599999999983
 20
5896.794428664072
 30
0.0
 11
9065.599999999983
 21
5506.794428664072
 31
0.0
  0
LINE
  5
1F9E7
330
747D
100
AcDbEntity
  8
部品1
 48
50.0
100
AcDbLine
 10
9255.599999999985
 20
5896.794428664072
 30
0.0
 11
9255.599999999985
 21
5506.794428664072
 31
0.0
  0
LINE
  5
1F9E8
330
747D
100
AcDbEntity
  8
部品1
 48
50.0
100
AcDbLine
 10
9255.599999999979
 20
5896.794428664072
 30
0.0
 11
9255.599999999985
 21
5506.794428664072
 31
0.0
  0
LINE
  5
1F9E9
330
747D
100
AcDbEntity
  8
部品1
 48
50.0
100
AcDbLine
 10
9255.599999999985
 20
5896.794428664072
 30
0.0
 11
9255.599999999985
 21
5506.794428664072
 31
0.0
  0
LINE
  5
1F9EA
330
747D
100
AcDbEntity
  8
部品1
 48
50.0
100
AcDbLine
 10
9065.599999999983
 20
5696.794428664072
 30
0.0
 11
9065.599999999983
 21
5506.794428664072
 31
0.0
  0
LINE
  5
1F9EB
330
747D
100
AcDbEntity
  8
部品1
 48
50.0
100
AcDbLine
 10
9255.599999999985
 20
5506.794428664068
 30
0.0
 11
9065.599999999983
 21
5506.794428664068
 31
0.0
  0
LINE
  5
1F9ED
330
747D
100
AcDbEntity
  8
部品1
 48
50.0
100
AcDbLine
 10
9065.599999999983
 20
5506.794428664072
 30
0.0
 11
9065.599999999983
 21
5696.794428664072
 31
0.0
  0
LINE
  5
1F9EE
330
747D
100
AcDbEntity
  8
部品1
 48
50.0
100
AcDbLine
 10
9255.599999999985
 20
5506.794428664072
 30
0.0
 11
9255.599999999985
 21
5696.794428664072
 31
0.0
  0
LINE
  5
1F9EF
330
747D
100
AcDbEntity
  8
寸法
 62
     0
 48
50.0
100
AcDbLine
 10
6907.599999999984
 20
5696.794428664072
 30
0.0
 11
6907.599999999984
 21
5506.794428664072
 31
0.0
  0
LINE
  5
1F9F0
330
747D
100
AcDbEntity
  8
部品1
 48
50.0
100
AcDbLine
 10
9255.600000000001
 20
8168.794428664066
 30
0.0
 11
9255.600000000001
 21
8358.794428664065
 31
0.0
  0
LINE
  5
1F9F1
330
747D
100
AcDbEntity
  8
部品1
 48
50.0
100
AcDbLine
 10
9065.600000000001
 20
8168.794428664066
 30
0.0
 11
9065.600000000001
 21
8358.794428664065
 31
0.0
  0
LINE
  5
1F9F3
330
747D
100
AcDbEntity
  8
部品1
 48
50.0
100
AcDbLine
 10
9255.600000000001
 20
8168.794428664062
 30
0.0
 11
9065.600000000001
 21
8168.794428664062
 31
0.0
  0
LINE
  5
1F9F4
330
747D
100
AcDbEntity
  8
部品1
 48
50.0
100
AcDbLine
 10
9065.600000000001
 20
8358.794428664065
 30
0.0
 11
9065.600000000001
 21
8168.794428664066
 31
0.0
  0
LINE
  5
1F9F5
330
747D
100
AcDbEntity
  8
部品1
 48
50.0
100
AcDbLine
 10
9255.600000000001
 20
8558.794428664064
 30
0.0
 11
9255.600000000001
 21
8168.794428664066
 31
0.0
  0
LINE
  5
1F9F6
330
747D
100
AcDbEntity
  8
部品1
 48
50.0
100
AcDbLine
 10
9255.599999999997
 20
8558.794428664064
 30
0.0
 11
9255.600000000001
 21
8168.794428664066
 31
0.0
  0
LINE
  5
1F9F7
330
747D
100
AcDbEntity
  8
部品1
 48
50.0
100
AcDbLine
 10
9255.600000000001
 20
8558.794428664064
 30
0.0
 11
9255.600000000001
 21
8168.794428664066
 31
0.0
  0
LINE
  5
1F9F8
330
747D
100
AcDbEntity
  8
部品1
 48
50.0
100
AcDbLine
 10
9065.600000000001
 20
8558.794428664064
 30
0.0
 11
9065.600000000001
 21
8168.794428664066
 31
0.0
  0
LINE
  5
1F9F9
330
747D
100
AcDbEntity
  8
部品1
 48
50.0
100
AcDbLine
 10
9065.600000000001
 20
8168.794428664066
 30
0.0
 11
9255.600000000001
 21
8168.794428664066
 31
0.0
  0
LINE
  5
1F9FA
330
747D
100
AcDbEntity
  8
部品1
 48
50.0
100
AcDbLine
 10
9065.600000000001
 20
8558.794428664064
 30
0.0
 11
9255.600000000001
 21
8558.794428664064
 31
0.0
  0
LINE
  5
1F9FB
330
747D
100
AcDbEntity
  8
部品1
 48
50.0
100
AcDbLine
 10
7801.6
 20
8558.79442866407
 30
0.0
 11
7801.6
 21
8168.794428664069
 31
0.0
  0
LINE
  5
1F9FC
330
747D
100
AcDbEntity
  8
部品1
 48
50.0
100
AcDbLine
 10
7801.599999999996
 20
8558.79442866407
 30
0.0
 11
7801.6
 21
8168.794428664069
 31
0.0
  0
LINE
  5
1F9FD
330
747D
100
AcDbEntity
  8
部品1
 48
50.0
100
AcDbLine
 10
7801.6
 20
8558.79442866407
 30
0.0
 11
7801.6
 21
8168.794428664069
 31
0.0
  0
LINE
  5
1F9FE
330
747D
100
AcDbEntity
  8
部品1
 48
50.0
100
AcDbLine
 10
7611.6
 20
8168.794428664069
 30
0.0
 11
7801.6
 21
8168.794428664069
 31
0.0
  0
LINE
  5
1F9FF
330
747D
100
AcDbEntity
  8
部品1
 48
50.0
100
AcDbLine
 10
7611.6
 20
8558.79442866407
 30
0.0
 11
7801.6
 21
8558.79442866407
 31
0.0
  0
LINE
  5
1FA07
330
747D
100
AcDbEntity
  8
部品1
 48
50.0
100
AcDbLine
 10
7801.6
 20
8168.794428664069
 30
0.0
 11
7801.6
 21
8358.794428664069
 31
0.0
  0
LINE
  5
1FA09
330
747D
100
AcDbEntity
  8
部品1
 48
50.0
100
AcDbLine
 10
7801.6
 20
8168.794428664066
 30
0.0
 11
7611.6
 21
8168.794428664066
 31
0.0
  0
LINE
  5
1FA0E
330
747D
100
AcDbEntity
  8
部品1
 48
50.0
100
AcDbLine
 10
9255.600000000001
 20
8168.794428664066
 30
0.0
 11
9255.600000000001
 21
8358.794428664065
 31
0.0
  0
LINE
  5
1FA0F
330
747D
100
AcDbEntity
  8
部品1
 48
50.0
100
AcDbLine
 10
9065.600000000001
 20
8168.794428664066
 30
0.0
 11
9065.600000000001
 21
8358.794428664065
 31
0.0
  0
LINE
  5
1FA11
330
747D
100
AcDbEntity
  8
部品1
 48
50.0
100
AcDbLine
 10
9255.600000000001
 20
8168.794428664062
 30
0.0
 11
9065.600000000001
 21
8168.794428664062
 31
0.0
  0
LINE
  5
1FA12
330
747D
100
AcDbEntity
  8
部品1
 48
50.0
100
AcDbLine
 10
7611.6
 20
8558.79442866407
 30
0.0
 11
7611.6
 21
8168.794428664069
 31
0.0
  0
LINE
  5
1FB3A
102
{ACAD_REACTORS
330
1FC8E
102
}
330
747D
100
AcDbEntity
  8
点線
 48
10.0
100
AcDbLine
 10
9859.599999999986
 20
5606.794428664072
 30
0.0
 11
10059.59999999998
 21
5606.794428664072
 31
0.0
  0
LINE
  5
1FB3B
102
{ACAD_REACTORS
330
1FC8E
102
}
330
747D
100
AcDbEntity
  8
点線
 48
10.0
100
AcDbLine
 10
9859.599999999986
 20
5606.794428664072
 30
0.0
 11
9859.599999999986
 21
5406.794428664071
 31
0.0
  0
LINE
  5
1FB3C
102
{ACAD_REACTORS
330
1FC8E
102
}
330
747D
100
AcDbEntity
  8
点線
 48
10.0
100
AcDbLine
 10
9859.599999999986
 20
5406.794428664071
 30
0.0
 11
10059.59999999998
 21
5406.794428664071
 31
0.0
  0
LINE
  5
1FB3D
102
{ACAD_REACTORS
330
1FC8E
102
}
330
747D
100
AcDbEntity
  8
点線
 48
10.0
100
AcDbLine
 10
10059.59999999998
 20
5606.794428664072
 30
0.0
 11
10059.59999999998
 21
5406.794428664071
 31
0.0
  0
LINE
  5
1FB72
330
747D
100
AcDbEntity
  8
部品1
 48
50.0
100
AcDbLine
 10
7297.6
 20
8558.79442866407
 30
0.0
 11
6907.600000000001
 21
8558.79442866407
 31
0.0
  0
LINE
  5
1FCB3
330
747D
100
AcDbEntity
  8
部品1
 48
50.0
100
AcDbLine
 10
7297.6
 20
8558.79442866407
 30
0.0
 11
6907.600000000001
 21
8558.79442866407
 31
0.0
  0
LINE
  5
1FCB4
330
747D
100
AcDbEntity
  8
部品1
 48
50.0
100
AcDbLine
 10
7297.6
 20
8558.794428664064
 30
0.0
 11
6907.600000000001
 21
8558.79442866407
 31
0.0
  0
LINE
  5
1FCCB
330
747D
100
AcDbEntity
  8
部品1
 48
50.0
100
AcDbLine
 10
7297.599999999984
 20
5506.794428664068
 30
0.0
 11
6907.599999999984
 21
5506.794428664072
 31
0.0
  0
LINE
  5
1FD3E
102
{ACAD_REACTORS
330
1FD42
102
}
330
747D
100
AcDbEntity
  8
点線
 48
10.0
100
AcDbLine
 10
9859.6
 20
8458.794428664067
 30
0.0
 11
10059.6
 21
8458.794428664067
 31
0.0
  0
LINE
  5
1FD3F
102
{ACAD_REACTORS
330
1FD42
102
}
330
747D
100
AcDbEntity
  8
点線
 48
10.0
100
AcDbLine
 10
9859.6
 20
8658.794428664069
 30
0.0
 11
9859.6
 21
8458.794428664067
 31
0.0
  0
LINE
  5
1FD40
102
{ACAD_REACTORS
330
1FD42
102
}
330
747D
100
AcDbEntity
  8
点線
 48
10.0
100
AcDbLine
 10
9859.6
 20
8658.794428664069
 30
0.0
 11
10059.6
 21
8658.794428664066
 31
0.0
  0
LINE
  5
1FD41
102
{ACAD_REACTORS
330
1FD42
102
}
330
747D
100
AcDbEntity
  8
点線
 48
10.0
100
AcDbLine
 10
10059.6
 20
8658.794428664066
 30
0.0
 11
10059.6
 21
8458.794428664067
 31
0.0
  0
LINE
  5
1FD43
102
{ACAD_REACTORS
330
1FD47
102
}
330
747D
100
AcDbEntity
  8
点線
 48
10.0
100
AcDbLine
 10
6807.6
 20
8458.794428664067
 30
0.0
 11
7007.6
 21
8458.794428664067
 31
0.0
  0
LINE
  5
1FD44
102
{ACAD_REACTORS
330
1FD47
102
}
330
747D
100
AcDbEntity
  8
点線
 48
10.0
100
AcDbLine
 10
6807.6
 20
8658.794428664069
 30
0.0
 11
6807.6
 21
8458.794428664067
 31
0.0
  0
LINE
  5
1FD45
102
{ACAD_REACTORS
330
1FD47
102
}
330
747D
100
AcDbEntity
  8
点線
 48
10.0
100
AcDbLine
 10
6807.6
 20
8658.794428664069
 30
0.0
 11
7007.6
 21
8658.794428664066
 31
0.0
  0
LINE
  5
1FD46
102
{ACAD_REACTORS
330
1FD47
102
}
330
747D
100
AcDbEntity
  8
点線
 48
10.0
100
AcDbLine
 10
7007.6
 20
8658.794428664066
 30
0.0
 11
7007.6
 21
8458.794428664067
 31
0.0
  0
LINE
  5
1FD48
102
{ACAD_REACTORS
330
1FD4C
102
}
330
747D
100
AcDbEntity
  8
点線
 48
10.0
100
AcDbLine
 10
6807.599999999983
 20
5406.794428664071
 30
0.0
 11
7007.599999999984
 21
5406.794428664071
 31
0.0
  0
LINE
  5
1FD49
102
{ACAD_REACTORS
330
1FD4C
102
}
330
747D
100
AcDbEntity
  8
点線
 48
10.0
100
AcDbLine
 10
6807.599999999983
 20
5606.794428664072
 30
0.0
 11
6807.599999999983
 21
5406.794428664071
 31
0.0
  0
LINE
  5
1FD4A
102
{ACAD_REACTORS
330
1FD4C
102
}
330
747D
100
AcDbEntity
  8
点線
 48
10.0
100
AcDbLine
 10
6807.599999999983
 20
5606.794428664072
 30
0.0
 11
7007.599999999982
 21
5606.794428664072
 31
0.0
  0
LINE
  5
1FD4B
102
{ACAD_REACTORS
330
1FD4C
102
}
330
747D
100
AcDbEntity
  8
点線
 48
10.0
100
AcDbLine
 10
7007.599999999982
 20
5606.794428664072
 30
0.0
 11
7007.599999999984
 21
5406.794428664071
 31
0.0
  0
LINE
  5
1FFE4
330
747D
100
AcDbEntity
  8
部品1
 48
50.0
100
AcDbLine
 10
7297.6
 20
8558.79442866407
 30
0.0
 11
6907.600000000001
 21
8558.79442866407
 31
0.0
  0
LINE
  5
1FFEA
330
747D
100
AcDbEntity
  8
部品1
 48
50.0
100
AcDbLine
 10
7297.6
 20
5506.794428664072
 30
0.0
 11
6907.600000000001
 21
5506.794428664072
 31
0.0
  0
LINE
  5
20241
330
747D
100
AcDbEntity
  8
部品1
 48
50.0
100
AcDbLine
 10
7297.6
 20
5506.794428664072
 30
0.0
 11
6907.600000000001
 21
5506.794428664072
 31
0.0
  0
LINE
  5
2027A
330
747D
100
AcDbEntity
  8
部品1
 48
50.0
100
AcDbLine
 10
7297.6
 20
8558.794428664072
 30
0.0
 11
6907.600000000001
 21
8558.794428664072
 31
0.0
  0
LINE
  5
20541
330
747D
100
AcDbEntity
  8
部品1
 48
50.0
100
AcDbLine
 10
7297.6
 20
5506.794428664072
 30
0.0
 11
6907.600000000001
 21
5506.794428664072
 31
0.0
  0
LINE
  5
205CF
102
{ACAD_REACTORS
330
205D9
102
}
330
747D
100
AcDbEntity
  8
部品1
 48
50.0
100
AcDbLine
 10
7097.599999999999
 20
7650.794428664068
 30
0.0
 11
7097.599999999999
 21
7840.794428664068
 31
0.0
  0
LINE
  5
205D0
102
{ACAD_REACTORS
330
205D9
102
}
330
747D
100
AcDbEntity
  8
部品1
 48
50.0
100
AcDbLine
 10
7097.599999999999
 20
7840.794428664068
 30
0.0
 11
6907.599999999999
 21
7840.794428664068
 31
0.0
  0
LINE
  5
205D1
102
{ACAD_REACTORS
330
205D9
102
}
330
747D
100
AcDbEntity
  8
部品1
 48
50.0
100
AcDbLine
 10
6907.600000000001
 20
7650.794428664069
 30
0.0
 11
6907.600000000001
 21
7840.794428664068
 31
0.0
  0
LINE
  5
205D4
102
{ACAD_REACTORS
330
205D9
102
}
330
747D
100
AcDbEntity
  8
部品1
 48
50.0
100
AcDbLine
 10
7097.599999999999
 20
7650.794428664068
 30
0.0
 11
6907.600000000001
 21
7650.794428664069
 31
0.0
  0
LINE
  5
205D5
330
747D
100
AcDbEntity
  8
部品1
 48
50.0
100
AcDbLine
 10
7801.599999999993
 20
7650.794428664068
 30
0.0
 11
7611.599999999994
 21
7650.794428664069
 31
0.0
  0
LINE
  5
205D6
330
747D
100
AcDbEntity
  8
部品1
 48
50.0
100
AcDbLine
 10
7611.599999999994
 20
7650.794428664069
 30
0.0
 11
7611.599999999994
 21
7840.794428664068
 31
0.0
  0
LINE
  5
205D7
330
747D
100
AcDbEntity
  8
部品1
 48
50.0
100
AcDbLine
 10
7801.599999999995
 20
7840.794428664068
 30
0.0
 11
7611.599999999993
 21
7840.794428664068
 31
0.0
  0
LINE
  5
205D8
330
747D
100
AcDbEntity
  8
部品1
 48
50.0
100
AcDbLine
 10
7801.599999999993
 20
7650.794428664068
 30
0.0
 11
7801.599999999995
 21
7840.794428664068
 31
0.0
  0
LINE
  5
205DA
102
{ACAD_REACTORS
330
205DE
102
}
330
747D
100
AcDbEntity
  8
部品1
 48
50.0
100
AcDbLine
 10
8528.599999999999
 20
7650.794428664068
 30
0.0
 11
8528.6
 21
7840.794428664068
 31
0.0
  0
LINE
  5
205DB
102
{ACAD_REACTORS
330
205DE
102
}
330
747D
100
AcDbEntity
  8
部品1
 48
50.0
100
AcDbLine
 10
8528.599999999999
 20
7650.794428664068
 30
0.0
 11
8338.600000000001
 21
7650.794428664069
 31
0.0
  0
LINE
  5
205DC
102
{ACAD_REACTORS
330
205DE
102
}
330
747D
100
AcDbEntity
  8
部品1
 48
50.0
100
AcDbLine
 10
8338.600000000001
 20
7650.794428664069
 30
0.0
 11
8338.600000000001
 21
7840.794428664068
 31
0.0
  0
LINE
  5
205DD
102
{ACAD_REACTORS
330
205DE
102
}
330
747D
100
AcDbEntity
  8
部品1
 48
50.0
100
AcDbLine
 10
8528.6
 20
7840.794428664068
 30
0.0
 11
8338.599999999997
 21
7840.794428664068
 31
0.0
  0
LINE
  5
205DF
102
{ACAD_REACTORS
330
205E3
102
}
330
747D
100
AcDbEntity
  8
部品1
 48
50.0
100
AcDbLine
 10
9255.599999999992
 20
7840.794428664068
 30
0.0
 11
9065.599999999989
 21
7840.794428664068
 31
0.0
  0
LINE
  5
205E0
102
{ACAD_REACTORS
330
205E3
102
}
330
747D
100
AcDbEntity
  8
部品1
 48
50.0
100
AcDbLine
 10
9065.599999999992
 20
7650.794428664069
 30
0.0
 11
9065.599999999992
 21
7840.794428664068
 31
0.0
  0
LINE
  5
205E1
102
{ACAD_REACTORS
330
205E3
102
}
330
747D
100
AcDbEntity
  8
部品1
 48
50.0
100
AcDbLine
 10
9255.59999999999
 20
7650.794428664068
 30
0.0
 11
9065.599999999992
 21
7650.794428664069
 31
0.0
  0
LINE
  5
205E2
102
{ACAD_REACTORS
330
205E3
102
}
330
747D
100
AcDbEntity
  8
部品1
 48
50.0
100
AcDbLine
 10
9255.59999999999
 20
7650.794428664068
 30
0.0
 11
9255.599999999992
 21
7840.794428664068
 31
0.0
  0
LINE
  5
205E4
102
{ACAD_REACTORS
330
205E8
102
}
330
747D
100
AcDbEntity
  8
部品1
 48
50.0
100
AcDbLine
 10
9959.599999999998
 20
7650.794428664068
 30
0.0
 11
9959.6
 21
7840.794428664068
 31
0.0
  0
LINE
  5
205E5
102
{ACAD_REACTORS
330
205E8
102
}
330
747D
100
AcDbEntity
  8
部品1
 48
50.0
100
AcDbLine
 10
9959.599999999998
 20
7650.794428664068
 30
0.0
 11
9769.599999999998
 21
7650.794428664069
 31
0.0
  0
LINE
  5
205E6
102
{ACAD_REACTORS
330
205E8
102
}
330
747D
100
AcDbEntity
  8
部品1
 48
50.0
100
AcDbLine
 10
9769.599999999998
 20
7650.794428664069
 30
0.0
 11
9769.599999999998
 21
7840.794428664068
 31
0.0
  0
LINE
  5
205E7
102
{ACAD_REACTORS
330
205E8
102
}
330
747D
100
AcDbEntity
  8
部品1
 48
50.0
100
AcDbLine
 10
9959.6
 20
7840.794428664068
 30
0.0
 11
9769.599999999996
 21
7840.794428664068
 31
0.0
  0
LINE
  5
205E9
102
{ACAD_REACTORS
330
205FD
102
}
330
747D
100
AcDbEntity
  8
部品1
 48
50.0
100
AcDbLine
 10
7097.599999999999
 20
6937.794428664068
 30
0.0
 11
6907.600000000001
 21
6937.794428664068
 31
0.0
  0
LINE
  5
205EA
102
{ACAD_REACTORS
330
205FD
102
}
330
747D
100
AcDbEntity
  8
部品1
 48
50.0
100
AcDbLine
 10
6907.600000000001
 20
6937.794428664068
 30
0.0
 11
6907.600000000001
 21
7127.794428664069
 31
0.0
  0
LINE
  5
205EB
102
{ACAD_REACTORS
330
205FD
102
}
330
747D
100
AcDbEntity
  8
部品1
 48
50.0
100
AcDbLine
 10
7097.599999999999
 20
7127.794428664069
 30
0.0
 11
6907.599999999999
 21
7127.794428664067
 31
0.0
  0
LINE
  5
205EC
102
{ACAD_REACTORS
330
205FD
102
}
330
747D
100
AcDbEntity
  8
部品1
 48
50.0
100
AcDbLine
 10
7097.599999999999
 20
6937.794428664068
 30
0.0
 11
7097.599999999999
 21
7127.794428664069
 31
0.0
  0
LINE
  5
205ED
330
747D
100
AcDbEntity
  8
部品1
 48
50.0
100
AcDbLine
 10
7801.599999999993
 20
6937.794428664068
 30
0.0
 11
7801.599999999995
 21
7127.794428664069
 31
0.0
  0
LINE
  5
205EE
330
747D
100
AcDbEntity
  8
部品1
 48
50.0
100
AcDbLine
 10
7801.599999999995
 20
7127.794428664069
 30
0.0
 11
7611.599999999993
 21
7127.794428664067
 31
0.0
  0
LINE
  5
205EF
330
747D
100
AcDbEntity
  8
部品1
 48
50.0
100
AcDbLine
 10
7611.599999999994
 20
6937.794428664068
 30
0.0
 11
7611.599999999994
 21
7127.794428664069
 31
0.0
  0
LINE
  5
205F0
330
747D
100
AcDbEntity
  8
部品1
 48
50.0
100
AcDbLine
 10
7801.599999999993
 20
6937.794428664068
 30
0.0
 11
7611.599999999994
 21
6937.794428664068
 31
0.0
  0
LINE
  5
205F5
102
{ACAD_REACTORS
330
205FF
102
}
330
747D
100
AcDbEntity
  8
部品1
 48
50.0
100
AcDbLine
 10
9255.599999999992
 20
7127.794428664069
 30
0.0
 11
9065.599999999989
 21
7127.794428664067
 31
0.0
  0
LINE
  5
205F6
102
{ACAD_REACTORS
330
205FF
102
}
330
747D
100
AcDbEntity
  8
部品1
 48
50.0
100
AcDbLine
 10
9255.59999999999
 20
6937.794428664068
 30
0.0
 11
9065.599999999992
 21
6937.794428664068
 31
0.0
  0
LINE
  5
205F7
102
{ACAD_REACTORS
330
205FF
102
}
330
747D
100
AcDbEntity
  8
部品1
 48
50.0
100
AcDbLine
 10
9065.599999999992
 20
6937.794428664068
 30
0.0
 11
9065.599999999992
 21
7127.794428664069
 31
0.0
  0
LINE
  5
205F8
102
{ACAD_REACTORS
330
205FF
102
}
330
747D
100
AcDbEntity
  8
部品1
 48
50.0
100
AcDbLine
 10
9255.59999999999
 20
6937.794428664068
 30
0.0
 11
9255.599999999992
 21
7127.794428664069
 31
0.0
  0
LINE
  5
205F9
102
{ACAD_REACTORS
330
20600
102
}
330
747D
100
AcDbEntity
  8
部品1
 48
50.0
100
AcDbLine
 10
9959.599999999994
 20
7127.794428664069
 30
0.0
 11
9769.599999999991
 21
7127.794428664067
 31
0.0
  0
LINE
  5
205FA
102
{ACAD_REACTORS
330
20600
102
}
330
747D
100
AcDbEntity
  8
部品1
 48
50.0
100
AcDbLine
 10
9769.599999999993
 20
6937.794428664068
 30
0.0
 11
9769.599999999993
 21
7127.794428664069
 31
0.0
  0
LINE
  5
205FB
102
{ACAD_REACTORS
330
20600
102
}
330
747D
100
AcDbEntity
  8
部品1
 48
50.0
100
AcDbLine
 10
9959.599999999992
 20
6937.794428664068
 30
0.0
 11
9769.599999999993
 21
6937.794428664068
 31
0.0
  0
LINE
  5
205FC
102
{ACAD_REACTORS
330
20600
102
}
330
747D
100
AcDbEntity
  8
部品1
 48
50.0
100
AcDbLine
 10
9959.599999999992
 20
6937.794428664068
 30
0.0
 11
9959.599999999994
 21
7127.794428664069
 31
0.0
  0
LINE
  5
20601
102
{ACAD_REACTORS
330
20615
102
}
330
747D
100
AcDbEntity
  8
部品1
 48
50.0
100
AcDbLine
 10
7097.599999999999
 20
6224.794428664068
 30
0.0
 11
7097.599999999999
 21
6414.79442866407
 31
0.0
  0
LINE
  5
20602
102
{ACAD_REACTORS
330
20615
102
}
330
747D
100
AcDbEntity
  8
部品1
 48
50.0
100
AcDbLine
 10
7097.599999999999
 20
6224.794428664068
 30
0.0
 11
6907.600000000001
 21
6224.794428664068
 31
0.0
  0
LINE
  5
20603
102
{ACAD_REACTORS
330
20615
102
}
330
747D
100
AcDbEntity
  8
部品1
 48
50.0
100
AcDbLine
 10
6907.600000000001
 20
6224.794428664068
 30
0.0
 11
6907.600000000001
 21
6414.79442866407
 31
0.0
  0
LINE
  5
20604
102
{ACAD_REACTORS
330
20615
102
}
330
747D
100
AcDbEntity
  8
部品1
 48
50.0
100
AcDbLine
 10
7097.599999999999
 20
6414.79442866407
 30
0.0
 11
6907.599999999999
 21
6414.794428664068
 31
0.0
  0
LINE
  5
20605
330
747D
100
AcDbEntity
  8
部品1
 48
50.0
100
AcDbLine
 10
7801.599999999993
 20
6224.794428664068
 30
0.0
 11
7611.599999999994
 21
6224.794428664068
 31
0.0
  0
LINE
  5
20606
330
747D
100
AcDbEntity
  8
部品1
 48
50.0
100
AcDbLine
 10
7611.599999999994
 20
6224.794428664068
 30
0.0
 11
7611.599999999994
 21
6414.79442866407
 31
0.0
  0
LINE
  5
20607
330
747D
100
AcDbEntity
  8
部品1
 48
50.0
100
AcDbLine
 10
7801.599999999995
 20
6414.79442866407
 30
0.0
 11
7611.599999999993
 21
6414.794428664068
 31
0.0
  0
LINE
  5
20608
330
747D
100
AcDbEntity
  8
部品1
 48
50.0
100
AcDbLine
 10
7801.599999999993
 20
6224.794428664068
 30
0.0
 11
7801.599999999995
 21
6414.79442866407
 31
0.0
  0
LINE
  5
20609
102
{ACAD_REACTORS
330
20616
102
}
330
747D
100
AcDbEntity
  8
部品1
 48
50.0
100
AcDbLine
 10
8533.600000000015
 20
6224.794428664068
 30
0.0
 11
8533.600000000017
 21
6414.79442866407
 31
0.0
  0
LINE
  5
2060A
102
{ACAD_REACTORS
330
20616
102
}
330
747D
100
AcDbEntity
  8
部品1
 48
50.0
100
AcDbLine
 10
8533.600000000017
 20
6414.79442866407
 30
0.0
 11
8343.600000000014
 21
6414.794428664068
 31
0.0
  0
LINE
  5
2060B
102
{ACAD_REACTORS
330
20616
102
}
330
747D
100
AcDbEntity
  8
部品1
 48
50.0
100
AcDbLine
 10
8533.600000000015
 20
6224.794428664068
 30
0.0
 11
8343.600000000016
 21
6224.794428664068
 31
0.0
  0
LINE
  5
2060C
102
{ACAD_REACTORS
330
20616
102
}
330
747D
100
AcDbEntity
  8
部品1
 48
50.0
100
AcDbLine
 10
8343.600000000016
 20
6224.794428664068
 30
0.0
 11
8343.600000000016
 21
6414.79442866407
 31
0.0
  0
LINE
  5
2060D
102
{ACAD_REACTORS
330
20618
102
}
330
747D
100
AcDbEntity
  8
部品1
 48
50.0
100
AcDbLine
 10
9959.599999999987
 20
6224.794428664068
 30
0.0
 11
9959.599999999989
 21
6414.79442866407
 31
0.0
  0
LINE
  5
2060E
102
{ACAD_REACTORS
330
20618
102
}
330
747D
100
AcDbEntity
  8
部品1
 48
50.0
100
AcDbLine
 10
9959.599999999987
 20
6224.794428664068
 30
0.0
 11
9769.599999999989
 21
6224.794428664068
 31
0.0
  0
LINE
  5
2060F
102
{ACAD_REACTORS
330
20618
102
}
330
747D
100
AcDbEntity
  8
部品1
 48
50.0
100
AcDbLine
 10
9769.599999999989
 20
6224.794428664068
 30
0.0
 11
9769.599999999989
 21
6414.79442866407
 31
0.0
  0
LINE
  5
20610
102
{ACAD_REACTORS
330
20618
102
}
330
747D
100
AcDbEntity
  8
部品1
 48
50.0
100
AcDbLine
 10
9959.599999999989
 20
6414.79442866407
 30
0.0
 11
9769.599999999989
 21
6414.794428664068
 31
0.0
  0
LINE
  5
20611
102
{ACAD_REACTORS
330
20617
102
}
330
747D
100
AcDbEntity
  8
部品1
 48
50.0
100
AcDbLine
 10
9255.59999999999
 20
6224.794428664068
 30
0.0
 11
9255.599999999992
 21
6414.79442866407
 31
0.0
  0
LINE
  5
20612
102
{ACAD_REACTORS
330
20617
102
}
330
747D
100
AcDbEntity
  8
部品1
 48
50.0
100
AcDbLine
 10
9065.599999999992
 20
6224.794428664068
 30
0.0
 11
9065.599999999992
 21
6414.79442866407
 31
0.0
  0
LINE
  5
20613
102
{ACAD_REACTORS
330
20617
102
}
330
747D
100
AcDbEntity
  8
部品1
 48
50.0
100
AcDbLine
 10
9255.59999999999
 20
6224.794428664068
 30
0.0
 11
9065.599999999992
 21
6224.794428664068
 31
0.0
  0
LINE
  5
20614
102
{ACAD_REACTORS
330
20617
102
}
330
747D
100
AcDbEntity
  8
部品1
 48
50.0
100
AcDbLine
 10
9255.599999999992
 20
6414.79442866407
 30
0.0
 11
9065.599999999989
 21
6414.794428664068
 31
0.0
  0
LINE
  5
2061F
102
{ACAD_REACTORS
330
20623
102
}
330
747D
100
AcDbEntity
  8
部品1
 48
50.0
100
AcDbLine
 10
8533.600000000015
 20
6937.794428664071
 30
0.0
 11
8343.600000000016
 21
6937.794428664073
 31
0.0
  0
LINE
  5
20620
102
{ACAD_REACTORS
330
20623
102
}
330
747D
100
AcDbEntity
  8
部品1
 48
50.0
100
AcDbLine
 10
8343.600000000016
 20
6937.794428664073
 30
0.0
 11
8343.600000000016
 21
7127.794428664071
 31
0.0
  0
LINE
  5
20621
102
{ACAD_REACTORS
330
20623
102
}
330
747D
100
AcDbEntity
  8
部品1
 48
50.0
100
AcDbLine
 10
8533.600000000017
 20
7127.794428664071
 30
0.0
 11
8343.600000000014
 21
7127.794428664071
 31
0.0
  0
LINE
  5
20622
102
{ACAD_REACTORS
330
20623
102
}
330
747D
100
AcDbEntity
  8
部品1
 48
50.0
100
AcDbLine
 10
8533.600000000015
 20
6937.794428664071
 30
0.0
 11
8533.600000000017
 21
7127.794428664071
 31
0.0
  0
LINE
  5
20624
102
{ACAD_REACTORS
330
20628
102
}
330
747D
100
AcDbEntity
  8
部品1
 48
50.0
100
AcDbLine
 10
8528.6
 20
8363.794428664069
 30
0.0
 11
8528.600000000002
 21
8553.794428664073
 31
0.0
  0
LINE
  5
20625
102
{ACAD_REACTORS
330
20628
102
}
330
747D
100
AcDbEntity
  8
部品1
 48
50.0
100
AcDbLine
 10
8528.600000000002
 20
8553.794428664073
 30
0.0
 11
8338.600000000001
 21
8553.794428664071
 31
0.0
  0
LINE
  5
20626
102
{ACAD_REACTORS
330
20628
102
}
330
747D
100
AcDbEntity
  8
部品1
 48
50.0
100
AcDbLine
 10
8338.600000000003
 20
8363.794428664071
 30
0.0
 11
8338.600000000003
 21
8553.794428664073
 31
0.0
  0
LINE
  5
20627
102
{ACAD_REACTORS
330
20628
102
}
330
747D
100
AcDbEntity
  8
部品1
 48
50.0
100
AcDbLine
 10
8528.6
 20
8363.794428664069
 30
0.0
 11
8338.600000000003
 21
8363.794428664071
 31
0.0
  0
LINE
  5
2062A
102
{ACAD_REACTORS
330
2062E
102
}
330
747D
100
AcDbEntity
  8
部品1
 48
50.0
100
AcDbLine
 10
8338.600000000001
 20
5506.794428664072
 30
0.0
 11
8338.600000000001
 21
5696.794428664072
 31
0.0
  0
LINE
  5
2062B
102
{ACAD_REACTORS
330
2062E
102
}
330
747D
100
AcDbEntity
  8
部品1
 48
50.0
100
AcDbLine
 10
8528.599999999999
 20
5506.794428664072
 30
0.0
 11
8338.600000000001
 21
5506.794428664072
 31
0.0
  0
LINE
  5
2062C
102
{ACAD_REACTORS
330
2062E
102
}
330
747D
100
AcDbEntity
  8
部品1
 48
50.0
100
AcDbLine
 10
8528.6
 20
5696.794428664072
 30
0.0
 11
8338.599999999997
 21
5696.794428664071
 31
0.0
  0
LINE
  5
2062D
102
{ACAD_REACTORS
330
2062E
102
}
330
747D
100
AcDbEntity
  8
部品1
 48
50.0
100
AcDbLine
 10
8528.599999999999
 20
5506.794428664072
 30
0.0
 11
8528.6
 21
5696.794428664072
 31
0.0
  0
LINE
  5
20638
330
747D
100
AcDbEntity
  8
寸法
 62
     0
 48
50.0
100
AcDbLine
 10
9959.600000000001
 20
8558.79442866407
 30
0.0
 11
9959.600000000001
 21
8368.794428664068
 31
0.0
  0
LINE
  5
2085D
330
747D
100
AcDbEntity
  8
部品1
 48
50.0
100
AcDbLine
 10
3671.13387385798
 20
2378.978685847826
 30
0.0
 11
10071.13387385798
 21
2378.978685847826
 31
0.0
  0
LINE
  5
2085E
330
747D
100
AcDbEntity
  8
部品1
 48
50.0
100
AcDbLine
 10
10071.13387385798
 20
2618.978685847826
 30
0.0
 11
5271.13387385798
 21
2618.978685847826
 31
0.0
  0
LINE
  5
2085F
330
747D
100
AcDbEntity
  8
部品1
 48
50.0
100
AcDbLine
 10
10071.13387385798
 20
2858.978685847826
 30
0.0
 11
3671.13387385798
 21
2858.978685847827
 31
0.0
  0
LINE
  5
20860
330
747D
100
AcDbEntity
  8
部品1
 48
50.0
100
AcDbLine
 10
3671.13387385798
 20
458.9786858478255
 30
0.0
 11
10071.13387385798
 21
458.9786858478255
 31
0.0
  0
TEXT
  5
20861
330
747D
100
AcDbEntity
  8
部品1
100
AcDbText
 10
6924.861190236672
 20
2673.04250045056
 30
0.0
 40
120.0
  1
アンカー部詳細
  7
STYLE2
100
AcDbText
  0
LINE
  5
20862
330
747D
100
AcDbEntity
  8
細線
100
AcDbLine
 10
4466.620382892772
 20
1299.73947345958
 30
0.0
 11
4566.620382892768
 21
1399.739473459582
 31
0.0
  0
LINE
  5
20863
330
747D
100
AcDbEntity
  8
細線
100
AcDbLine
 10
4542.049832271361
 20
1399.739473459582
 30
0.0
 11
4342.049832271364
 21
1599.73947345958
 31
0.0
  0
LEADER
  5
20864
330
747D
100
AcDbEntity
  8
寸法
 48
50.0
100
AcDbLeader
  3
INABA_S50G
 71
     0
 73
     0
 74
     0
 75
     1
 40
120.0
 41
185.591883092037
 76
     3
 10
4396.007624432206
 20
1599.73947345958
 30
0.0
 10
4551.271207003384
 20
1812.591391268348
 30
0.0
 10
4676.271207003384
 20
1812.591391268348
 30
0.0
340
20865
213
67.73172584638814
223
0.0
233
0.0
1001
ACAD
1000
DSTYLE
1002
{
1070
    40
1040
1.0
1002
}
  0
MTEXT
  5
20865
102
{ACAD_REACTORS
330
20864
102
}
330
747D
100
AcDbEntity
  8
寸法
 62
     7
 48
50.0
100
AcDbMText
 10
4633.539481156994
 20
1897.591391268348
 30
0.0
 40
120.0
 41
1.0
 71
     4
 72
     1
  1
\A1;C.B
  7
STYLE1
 73
     1
 44
1.0
1001
ACAD
1000
MTEXTBEGIN
1070
    73
1070
     1
1070
    44
1040
1.0
1070
    74
1070
     0
1000
MTEXTEND
  0
TEXT
  5
20866
330
747D
100
AcDbEntity
  8
部品1
100
AcDbText
 10
4136.733894862778
 20
2566.950903026147
 30
0.0
 40
120.0
  1
基礎詳細
  7
STYLE2
100
AcDbText
  0
LINE
  5
20867
330
747D
100
AcDbEntity
  8
細線
100
AcDbLine
 10
4584.476239142554
 20
1399.739473459582
 30
0.0
 11
4384.476239142557
 21
1599.73947345958
 31
0.0
  0
LINE
  5
20868
330
747D
100
AcDbEntity
  8
Ｇ．Ｌ
100
AcDbLine
 10
3765.906618386882
 20
1399.739473459582
 30
0.0
 11
5196.799902210042
 21
1399.739473459582
 31
0.0
  0
LINE
  5
20869
330
747D
100
AcDbEntity
  8
部品1
100
AcDbLine
 10
4196.007624432207
 20
1599.73947345958
 30
0.0
 11
4596.007624432204
 21
1599.73947345958
 31
0.0
  0
LINE
  5
2086A
330
747D
100
AcDbEntity
  8
部品1
100
AcDbLine
 10
4096.007624432204
 20
1299.739473459578
 30
0.0
 11
4696.007624432204
 21
1299.73947345958
 31
0.0
  0
LINE
  5
2086B
330
747D
100
AcDbEntity
  8
部品1
100
AcDbLine
 10
4096.007624432204
 20
1099.739473459576
 30
0.0
 11
4696.007624432204
 21
1099.73947345958
 31
0.0
  0
LINE
  5
2086C
330
747D
100
AcDbEntity
  8
部品1
 48
50.0
100
AcDbLine
 10
3671.13387385798
 20
2858.978685847826
 30
0.0
 11
3671.13387385798
 21
458.9786858478255
 31
0.0
  0
LINE
  5
2086D
330
747D
100
AcDbEntity
  8
細線
100
AcDbLine
 10
4196.007624432207
 20
1299.739473459578
 30
0.0
 11
4249.597462918427
 21
1099.739473459574
 31
0.0
  0
LINE
  5
2086E
330
747D
100
AcDbEntity
  8
細線
100
AcDbLine
 10
4296.007624432204
 20
1299.73947345958
 30
0.0
 11
4349.597462918427
 21
1099.739473459576
 31
0.0
  0
LINE
  5
2086F
330
747D
100
AcDbEntity
  8
細線
100
AcDbLine
 10
4396.007624432204
 20
1299.73947345958
 30
0.0
 11
4449.597462918431
 21
1099.739473459576
 31
0.0
  0
LINE
  5
20870
330
747D
100
AcDbEntity
  8
細線
100
AcDbLine
 10
4096.007624432204
 20
1299.739473459578
 30
0.0
 11
4149.597462918431
 21
1099.739473459574
 31
0.0
  0
LINE
  5
20871
330
747D
100
AcDbEntity
  8
部品1
100
AcDbLine
 10
4096.007624432204
 20
1099.739473459576
 30
0.0
 11
4096.007624432204
 21
1399.739473459582
 31
0.0
  0
LINE
  5
20872
330
747D
100
AcDbEntity
  8
細線
100
AcDbLine
 10
4236.200003296874
 20
1149.739473459578
 30
0.0
 11
4222.802543675316
 21
1099.739473459576
 31
0.0
  0
LINE
  5
20873
330
747D
100
AcDbEntity
  8
細線
100
AcDbLine
 10
4136.200003296871
 20
1149.739473459578
 30
0.0
 11
4122.802543675316
 21
1099.739473459576
 31
0.0
  0
LINE
  5
20874
330
747D
100
AcDbEntity
  8
細線
100
AcDbLine
 10
4336.200003296871
 20
1149.73947345958
 30
0.0
 11
4322.80254367532
 21
1099.73947345958
 31
0.0
  0
LINE
  5
20875
330
747D
100
AcDbEntity
  8
細線
100
AcDbLine
 10
4436.200003296871
 20
1149.73947345958
 30
0.0
 11
4422.802543675316
 21
1099.73947345958
 31
0.0
  0
LINE
  5
20876
330
747D
100
AcDbEntity
  8
部品1
100
AcDbLine
 10
4196.007624432207
 20
1399.739473459582
 30
0.0
 11
4196.007624432207
 21
1599.73947345958
 31
0.0
  0
LINE
  5
20877
330
747D
100
AcDbEntity
  8
細線
100
AcDbLine
 10
4358.20206916286
 20
1399.739473459582
 30
0.0
 11
4196.007624432204
 21
1561.933918190234
 31
0.0
  0
LINE
  5
20878
330
747D
100
AcDbEntity
  8
細線
100
AcDbLine
 10
4223.188925387698
 20
1299.73947345958
 30
0.0
 11
4323.188925387694
 21
1399.739473459582
 31
0.0
  0
LINE
  5
20879
330
747D
100
AcDbEntity
  8
細線
100
AcDbLine
 10
4315.775662291668
 20
1399.739473459582
 30
0.0
 11
4196.007624432207
 21
1519.507511319041
 31
0.0
  0
LINE
  5
2087A
330
747D
100
AcDbEntity
  8
細線
100
AcDbLine
 10
4194.904654140235
 20
1299.73947345958
 30
0.0
 11
4294.904654140231
 21
1399.739473459582
 31
0.0
  0
LINE
  5
2087B
330
747D
100
AcDbEntity
  8
細線
100
AcDbLine
 10
4166.620382892772
 20
1299.739473459578
 30
0.0
 11
4266.620382892772
 21
1399.739473459582
 31
0.0
  0
LINE
  5
2087C
330
747D
100
AcDbEntity
  8
細線
100
AcDbLine
 10
4222.802543675316
 20
1299.739473459578
 30
0.0
 11
4209.40508405376
 21
1249.739473459576
 31
0.0
  0
LINE
  5
2087D
330
747D
100
AcDbEntity
  8
細線
100
AcDbLine
 10
4122.802543675316
 20
1299.739473459578
 30
0.0
 11
4109.405084053764
 21
1249.739473459576
 31
0.0
  0
LINE
  5
2087E
330
747D
100
AcDbEntity
  8
細線
100
AcDbLine
 10
4322.80254367532
 20
1299.73947345958
 30
0.0
 11
4309.40508405376
 21
1249.739473459582
 31
0.0
  0
LINE
  5
2087F
330
747D
100
AcDbEntity
  8
細線
100
AcDbLine
 10
4422.802543675316
 20
1299.73947345958
 30
0.0
 11
4409.405084053764
 21
1249.739473459582
 31
0.0
  0
LINE
  5
20880
330
747D
100
AcDbEntity
  8
細線
 48
50.0
100
AcDbLine
 10
5508.84157612118
 20
2199.739473459578
 30
0.0
 11
5508.84157612118
 21
1699.73947345958
 31
0.0
  0
LINE
  5
20881
330
747D
100
AcDbEntity
  8
細線
 48
50.0
100
AcDbLine
 10
5538.84157612118
 20
2199.739473459578
 30
0.0
 11
5538.84157612118
 21
1699.73947345958
 31
0.0
  0
LINE
  5
20882
330
747D
100
AcDbEntity
  8
細線
 48
50.0
100
AcDbLine
 10
5818.84157612118
 20
2199.739473459578
 30
0.0
 11
5818.84157612118
 21
1699.73947345958
 31
0.0
  0
LINE
  5
20883
330
747D
100
AcDbEntity
  8
細線
 48
50.0
100
AcDbLine
 10
5788.84157612118
 20
2199.739473459578
 30
0.0
 11
5788.84157612118
 21
1699.73947345958
 31
0.0
  0
LINE
  5
20884
330
747D
100
AcDbEntity
  8
部品1
 48
50.0
100
AcDbLine
 10
6871.13387385798
 20
2618.978685847826
 30
0.0
 11
6871.13387385798
 21
458.9786858478255
 31
0.0
  0
LINE
  5
20885
330
747D
100
AcDbEntity
  8
部品1
 48
50.0
100
AcDbLine
 10
5271.13387385798
 20
2858.978685847826
 30
0.0
 11
5271.13387385798
 21
458.9786858478255
 31
0.0
  0
LINE
  5
20886
330
747D
100
AcDbEntity
  8
部品1
100
AcDbLine
 10
6053.84157612118
 20
2199.739473459578
 30
0.0
 11
6053.84157612118
 21
1399.73947345958
 31
0.0
  0
LINE
  5
20887
330
747D
100
AcDbEntity
  8
部品1
100
AcDbLine
 10
5943.84157612118
 20
2199.739473459578
 30
0.0
 11
5943.841576121183
 21
1693.739473459582
 31
0.0
  0
LINE
  5
20888
330
747D
100
AcDbEntity
  8
部品1
100
AcDbLine
 10
5338.587142877586
 20
1693.73947345958
 30
0.0
 11
6053.84157612118
 21
1693.73947345958
 31
0.0
  0
DIMENSION
  5
20889
330
747D
100
AcDbEntity
  8
寸法
 48
50.0
100
AcDbDimension
  2
*D14
 10
5560.51182904565
 20
999.73947345958
 30
0.0
 11
5560.51182904565
 21
1187.364106575485
 31
0.0
 70
   160
  1
200
 71
     5
 42
400.0
  3
INABA_S40G
100
AcDbAlignedDimension
 13
5653.84157612118
 23
1399.73947345958
 33
0.0
 14
5803.84157612118
 24
999.73947345958
 34
0.0
 50
90.0
100
AcDbRotatedDimension
1001
ACAD
1000
DSTYLE
1002
{
1070
   174
1070
     0
1070
   272
1070
     1
1070
   288
1070
     0
1070
   341
1005
0
1002
}
  0
LINE
  5
2088A
330
747D
100
AcDbEntity
  8
Ｇ．Ｌ
100
AcDbLine
 10
5338.587142877586
 20
1399.73947345958
 30
0.0
 11
5973.84157612118
 21
1399.73947345958
 31
0.0
  0
LINE
  5
2088B
330
747D
100
AcDbEntity
  8
部品1
100
AcDbLine
 10
5338.587142877586
 20
1599.73947345958
 30
0.0
 11
5973.84157612118
 21
1599.73947345958
 31
0.0
  0
LINE
  5
2088C
330
747D
100
AcDbEntity
  8
部品1
100
AcDbLine
 10
5338.587142877586
 20
1699.739473459582
 30
0.0
 11
5943.84157612118
 21
1699.73947345958
 31
0.0
  0
LINE
  5
2088D
330
747D
100
AcDbEntity
  8
細線
100
AcDbLine
 10
4596.007624432204
 20
1299.73947345958
 30
0.0
 11
4649.597462918428
 21
1099.73947345958
 31
0.0
  0
LINE
  5
2088E
330
747D
100
AcDbEntity
  8
細線
100
AcDbLine
 10
4496.007624432208
 20
1299.73947345958
 30
0.0
 11
4549.597462918427
 21
1099.739473459576
 31
0.0
  0
LINE
  5
2088F
330
747D
100
AcDbEntity
  8
部品1
100
AcDbLine
 10
4696.007624432204
 20
1399.739473459582
 30
0.0
 11
4696.007624432204
 21
1099.73947345958
 31
0.0
  0
LINE
  5
20890
330
747D
100
AcDbEntity
  8
細線
100
AcDbLine
 10
4636.200003296871
 20
1149.73947345958
 30
0.0
 11
4622.802543675319
 21
1099.73947345958
 31
0.0
  0
LINE
  5
20891
330
747D
100
AcDbEntity
  8
細線
100
AcDbLine
 10
4536.200003296875
 20
1149.73947345958
 30
0.0
 11
4522.802543675316
 21
1099.73947345958
 31
0.0
  0
TEXT
  5
20892
330
747D
100
AcDbEntity
  8
部品1
100
AcDbText
 10
4819.260250299635
 20
1407.645515138485
 30
0.0
 40
120.0
  1
▽G.L
  7
STYLE1
100
AcDbText
  0
LINE
  5
20893
330
747D
100
AcDbEntity
  8
部品1
100
AcDbLine
 10
4596.007624432204
 20
1599.73947345958
 30
0.0
 11
4596.007624432204
 21
1399.739473459582
 31
0.0
  0
LINE
  5
20894
330
747D
100
AcDbEntity
  8
細線
100
AcDbLine
 10
4523.188925387694
 20
1299.73947345958
 30
0.0
 11
4623.188925387694
 21
1399.739473459582
 31
0.0
  0
LINE
  5
20895
330
747D
100
AcDbEntity
  8
細線
100
AcDbLine
 10
4494.904654140235
 20
1299.73947345958
 30
0.0
 11
4594.904654140231
 21
1399.739473459582
 31
0.0
  0
LINE
  5
20896
330
747D
100
AcDbEntity
  8
細線
100
AcDbLine
 10
4622.802543675319
 20
1299.73947345958
 30
0.0
 11
4609.405084053761
 21
1249.739473459582
 31
0.0
  0
LINE
  5
20897
330
747D
100
AcDbEntity
  8
細線
100
AcDbLine
 10
4522.802543675316
 20
1299.73947345958
 30
0.0
 11
4509.40508405376
 21
1249.739473459582
 31
0.0
  0
TEXT
  5
20898
330
747D
100
AcDbEntity
  8
部品1
100
AcDbText
 10
6438.40512319079
 20
1407.645515138483
 30
0.0
 40
120.0
  1
▽G.L
  7
STYLE1
100
AcDbText
  0
LINE
  5
20899
330
747D
100
AcDbEntity
  8
細線
  6
HIDDEN
 48
10.0
100
AcDbLine
 10
6088.568305023136
 20
999.7394734595818
 30
0.0
 11
6203.841576121179
 21
1115.012744557629
 31
0.0
  0
LINE
  5
2089A
330
747D
100
AcDbEntity
  8
細線
  6
HIDDEN
 48
10.0
100
AcDbLine
 10
6060.284033775675
 20
999.7394734595809
 30
0.0
 11
6203.84157612118
 21
1143.297015805089
 31
0.0
  0
LINE
  5
2089B
330
747D
100
AcDbEntity
  8
細線
  6
HIDDEN
 48
10.0
100
AcDbLine
 10
6116.852576270598
 20
999.7394734595818
 30
0.0
 11
6203.841576121179
 21
1086.728473310165
 31
0.0
  0
LINE
  5
2089C
330
747D
100
AcDbEntity
  8
Ｇ．Ｌ
100
AcDbLine
 10
6053.84157612118
 20
1399.73947345958
 30
0.0
 11
6805.937818359518
 21
1399.73947345958
 31
0.0
  0
LINE
  5
2089D
330
747D
100
AcDbEntity
  8
細線
  6
HIDDEN
 48
10.0
100
AcDbLine
 10
5803.841576121181
 20
1141.671133410455
 30
0.0
 11
5967.103902074414
 21
1304.933459363698
 31
0.0
  0
LINE
  5
2089E
330
747D
100
AcDbEntity
  8
細線
  6
HIDDEN
 48
10.0
100
AcDbLine
 10
5803.84157612118
 20
1169.955404657916
 30
0.0
 11
5970.320802271017
 21
1336.434630807757
 31
0.0
  0
LINE
  5
2089F
330
747D
100
AcDbEntity
  8
細線
  6
HIDDEN
 48
10.0
100
AcDbLine
 10
5803.841576121181
 20
1113.386862162993
 30
0.0
 11
5963.887001877804
 21
1273.432287919633
 31
0.0
  0
LINE
  5
208A0
330
747D
100
AcDbEntity
  8
部品1
100
AcDbLine
 10
5972.944807113112
 20
1362.129934158482
 30
0.0
 11
5943.84157612118
 21
1077.139473459579
 31
0.0
  0
LINE
  5
208A1
330
747D
100
AcDbEntity
  8
部品1
100
AcDbLine
 10
6054.738345129255
 20
1362.129934158482
 30
0.0
 11
6083.84157612118
 21
1077.139473459579
 31
0.0
  0
LINE
  5
208A2
330
747D
100
AcDbEntity
  8
部品1
100
AcDbLine
 10
5943.84157612118
 20
1077.139473459579
 30
0.0
 11
6083.84157612118
 21
1077.139473459579
 31
0.0
  0
LINE
  5
208A3
330
747D
100
AcDbEntity
  8
部品1
100
AcDbLine
 10
5943.84157612118
 20
1065.13947345958
 30
0.0
 11
6083.84157612118
 21
1065.13947345958
 31
0.0
  0
LINE
  5
208A4
330
747D
100
AcDbEntity
  8
部品1
100
AcDbLine
 10
5943.84157612118
 20
1077.139473459578
 30
0.0
 11
5943.84157612118
 21
1065.13947345958
 31
0.0
  0
LINE
  5
208A5
330
747D
100
AcDbEntity
  8
細線
100
AcDbLine
 10
5998.841576121179
 20
1089.139473459581
 30
0.0
 11
6028.84157612118
 21
1089.139473459578
 31
0.0
  0
LINE
  5
208A6
330
747D
100
AcDbEntity
  8
細線
100
AcDbLine
 10
5998.841576121179
 20
1095.139473459581
 30
0.0
 11
6028.84157612118
 21
1095.139473459578
 31
0.0
  0
LINE
  5
208A7
330
747D
100
AcDbEntity
  8
細線
100
AcDbLine
 10
5998.841576121179
 20
1135.139473459583
 30
0.0
 11
6028.84157612118
 21
1135.139473459578
 31
0.0
  0
LINE
  5
208A8
330
747D
100
AcDbEntity
  8
細線
100
AcDbLine
 10
5998.841576121179
 20
1129.139473459583
 30
0.0
 11
6028.84157612118
 21
1129.139473459578
 31
0.0
  0
LINE
  5
208A9
330
747D
100
AcDbEntity
  8
細線
100
AcDbLine
 10
5998.841576121179
 20
1095.139473459581
 30
0.0
 11
5998.841576121179
 21
1089.139473459578
 31
0.0
  0
LINE
  5
208AA
330
747D
100
AcDbEntity
  8
細線
100
AcDbLine
 10
5998.841576121179
 20
1135.139473459583
 30
0.0
 11
5998.841576121179
 21
1129.139473459578
 31
0.0
  0
LINE
  5
208AB
330
747D
100
AcDbEntity
  8
細線
100
AcDbLine
 10
6028.84157612118
 20
1095.139473459576
 30
0.0
 11
6028.84157612118
 21
1089.139473459576
 31
0.0
  0
LINE
  5
208AC
330
747D
100
AcDbEntity
  8
細線
100
AcDbLine
 10
6028.84157612118
 20
1135.139473459574
 30
0.0
 11
6028.84157612118
 21
1129.139473459574
 31
0.0
  0
LINE
  5
208AD
330
747D
100
AcDbEntity
  8
部品1
100
AcDbLine
 10
6083.84157612118
 20
1077.139473459579
 30
0.0
 11
6083.84157612118
 21
1065.13947345958
 31
0.0
  0
LINE
  5
208AE
330
747D
100
AcDbEntity
  8
細線
100
AcDbLine
 10
5782.296245684571
 20
1399.73947345958
 30
0.0
 11
5653.84157612118
 21
1528.194143022973
 31
0.0
  0
LINE
  5
208AF
330
747D
100
AcDbEntity
  8
細線
100
AcDbLine
 10
5966.144008793075
 20
1399.73947345958
 30
0.0
 11
5766.144008793075
 21
1599.73947345958
 31
0.0
  0
LINE
  5
208B0
330
747D
100
AcDbEntity
  8
部品1
100
AcDbLine
 10
5653.84157612118
 20
1399.73947345958
 30
0.0
 11
5653.84157612118
 21
1599.73947345958
 31
0.0
  0
LINE
  5
208B1
330
747D
100
AcDbEntity
  8
細線
100
AcDbLine
 10
5739.869838813378
 20
1399.73947345958
 30
0.0
 11
5653.84157612118
 21
1485.76773615178
 31
0.0
  0
LINE
  5
208B2
330
747D
100
AcDbEntity
  8
細線
100
AcDbLine
 10
5973.84157612118
 20
1434.468313002668
 30
0.0
 11
5808.570415664267
 21
1599.73947345958
 31
0.0
  0
LINE
  5
208B3
330
747D
100
AcDbEntity
  8
部品1
100
AcDbLine
 10
6053.84157612118
 20
1662.73947345958
 30
0.0
 11
6053.841576121183
 21
1365.384942447588
 31
0.0
  0
LINE
  5
208B4
330
747D
100
AcDbEntity
  8
部品1
100
AcDbLine
 10
5973.84157612118
 20
1663.73947345958
 30
0.0
 11
5973.84157612118
 21
1365.384942447588
 31
0.0
  0
LINE
  5
208B5
330
747D
100
AcDbEntity
  8
部品1
100
AcDbLine
 10
5982.895635601424
 20
1371.13947345958
 30
0.0
 11
6044.787516640936
 21
1371.139473459574
 31
0.0
  0
ARC
  5
208B6
330
747D
100
AcDbEntity
  8
部品1
100
AcDbCircle
 10
5982.895635601424
 20
1361.139473459578
 30
0.0
 40
10.0
100
AcDbArc
 50
90.0
 51
174.3157584018092
  0
LINE
  5
208B7
330
747D
100
AcDbEntity
  8
細線
  6
HIDDEN
 48
10.0
100
AcDbLine
 10
6053.84157612118
 20
1391.671133410467
 30
0.0
 11
6061.909916170294
 21
1399.73947345958
 31
0.0
  0
LINE
  5
208B8
330
747D
100
AcDbEntity
  8
細線
  6
HIDDEN
 48
10.0
100
AcDbLine
 10
6054.389021778068
 20
1363.934307819898
 30
0.0
 11
6090.19418741775
 21
1399.739473459582
 31
0.0
  0
ARC
  5
208B9
330
747D
100
AcDbEntity
  8
部品1
100
AcDbCircle
 10
6044.787516640936
 20
1361.139473459574
 30
0.0
 40
10.0
100
AcDbArc
 50
5.684241598190771
 51
90.0
  0
CIRCLE
  5
208BA
330
747D
100
AcDbEntity
  8
細線
100
AcDbCircle
 10
6013.84157612118
 20
1503.739473459582
 30
0.0
 40
6.0
  0
CIRCLE
  5
208BB
330
747D
100
AcDbEntity
  8
細線
100
AcDbCircle
 10
6013.84157612118
 20
1503.739473459582
 30
0.0
 40
7.0
  0
CIRCLE
  5
208BC
330
747D
100
AcDbEntity
  8
細線
100
AcDbCircle
 10
6013.84157612118
 20
1348.73947345958
 30
0.0
 40
16.0
  0
LINE
  5
208BD
330
747D
100
AcDbEntity
  8
細線
100
AcDbLine
 10
5998.841576121179
 20
1279.139473459581
 30
0.0
 11
5999.84157612118
 21
1279.139473459581
 31
0.0
  0
LINE
  5
208BE
330
747D
100
AcDbEntity
  8
細線
100
AcDbLine
 10
5998.841576121179
 20
1285.139473459581
 30
0.0
 11
6028.84157612118
 21
1285.139473459578
 31
0.0
  0
ARC
  5
208BF
330
747D
100
AcDbEntity
  8
細線
100
AcDbCircle
 10
6013.84157612118
 20
1309.139473459576
 30
0.0
 40
8.0
100
AcDbArc
 50
180.0
 51
0.0
  0
LINE
  5
208C0
330
747D
100
AcDbEntity
  8
細線
100
AcDbLine
 10
5998.841576121179
 20
1285.139473459581
 30
0.0
 11
5998.841576121179
 21
1279.139473459578
 31
0.0
  0
LINE
  5
208C1
330
747D
100
AcDbEntity
  8
細線
100
AcDbLine
 10
5998.841576121179
 20
1283.739473459574
 30
0.0
 11
6028.84157612118
 21
1283.73947345958
 31
0.0
  0
LINE
  5
208C2
330
747D
100
AcDbEntity
  8
細線
100
AcDbLine
 10
6005.964681746802
 20
1267.13947345957
 30
0.0
 11
6021.718470495565
 21
1267.139473459576
 31
0.0
  0
LINE
  5
208C3
330
747D
100
AcDbEntity
  8
細線
100
AcDbLine
 10
5999.84157612118
 20
1283.739473459574
 30
0.0
 11
5999.84157612118
 21
1279.139473459578
 31
0.0
  0
LINE
  5
208C4
330
747D
100
AcDbEntity
  8
細線
100
AcDbLine
 10
5999.84157612118
 20
1279.139473459576
 30
0.0
 11
6002.084111746219
 21
1270.169330959426
 31
0.0
  0
ARC
  5
208C5
330
747D
100
AcDbEntity
  8
細線
100
AcDbCircle
 10
6005.964681746802
 20
1271.139473459572
 30
0.0
 40
4.0
100
AcDbArc
 50
194.0362434679644
 51
270.0
  0
LINE
  5
208C6
330
747D
100
AcDbEntity
  8
細線
100
AcDbLine
 10
6027.84157612118
 20
1283.739473459576
 30
0.0
 11
6027.84157612118
 21
1279.139473459578
 31
0.0
  0
LINE
  5
208C7
330
747D
100
AcDbEntity
  8
細線
100
AcDbLine
 10
6027.84157612118
 20
1279.139473459576
 30
0.0
 11
6025.599040496142
 21
1270.169330959426
 31
0.0
  0
ARC
  5
208C8
330
747D
100
AcDbEntity
  8
細線
100
AcDbCircle
 10
6021.718470495565
 20
1271.139473459574
 30
0.0
 40
4.0
100
AcDbArc
 50
270.0
 51
345.9637565320356
  0
LINE
  5
208C9
330
747D
100
AcDbEntity
  8
細線
100
AcDbLine
 10
6028.84157612118
 20
1285.139473459576
 30
0.0
 11
6028.84157612118
 21
1279.139473459576
 31
0.0
  0
LINE
  5
208CA
330
747D
100
AcDbEntity
  8
細線
100
AcDbLine
 10
6027.84157612118
 20
1279.139473459581
 30
0.0
 11
6028.84157612118
 21
1279.139473459578
 31
0.0
  0
LINE
  5
208CB
330
747D
100
AcDbEntity
  8
細線
100
AcDbLine
 10
6021.84157612118
 20
1334.883066999029
 30
0.0
 11
6021.84157612118
 21
1309.139473459576
 31
0.0
  0
LINE
  5
208CC
330
747D
100
AcDbEntity
  8
細線
100
AcDbLine
 10
6005.84157612118
 20
1334.883066999029
 30
0.0
 11
6005.84157612118
 21
1309.139473459576
 31
0.0
  0
LINE
  5
208CD
330
747D
100
AcDbEntity
  8
部品1
100
AcDbLine
 10
5983.84157612118
 20
1673.73947345958
 30
0.0
 11
6043.84157612118
 21
1673.73947345958
 31
0.0
  0
ARC
  5
208CE
330
747D
100
AcDbEntity
  8
部品1
100
AcDbCircle
 10
5983.84157612118
 20
1663.73947345958
 30
0.0
 40
10.0
100
AcDbArc
 50
90.0
 51
180.0
  0
ARC
  5
208CF
330
747D
100
AcDbEntity
  8
細線
100
AcDbCircle
 10
6013.84157612118
 20
1613.73947345958
 30
0.0
 40
8.0
100
AcDbArc
 50
0.0
 51
180.0
  0
ARC
  5
208D0
330
747D
100
AcDbEntity
  8
細線
100
AcDbCircle
 10
6013.84157612118
 20
1573.73947345958
 30
0.0
 40
8.0
100
AcDbArc
 50
180.0
 51
0.0
  0
LINE
  5
208D1
330
747D
100
AcDbEntity
  8
細線
100
AcDbLine
 10
6005.84157612118
 20
1613.73947345958
 30
0.0
 11
6005.84157612118
 21
1573.73947345958
 31
0.0
  0
LINE
  5
208D2
330
747D
100
AcDbEntity
  8
細線
100
AcDbLine
 10
6021.84157612118
 20
1613.73947345958
 30
0.0
 11
6021.84157612118
 21
1573.73947345958
 31
0.0
  0
ARC
  5
208D3
330
747D
100
AcDbEntity
  8
部品1
100
AcDbCircle
 10
6043.84157612118
 20
1663.73947345958
 30
0.0
 40
10.0
100
AcDbArc
 50
0.0
 51
90.0
  0
CIRCLE
  5
208D4
330
747D
100
AcDbEntity
  8
部品1
100
AcDbCircle
 10
6013.84157612118
 20
1643.73947345958
 30
0.0
 40
16.0
  0
TEXT
  5
208D5
330
747D
100
AcDbEntity
  8
部品1
100
AcDbText
 10
5483.28723529655
 20
2437.263802189029
 30
0.0
 40
120.0
  1
地盤が土の場合
  7
STYLE2
100
AcDbText
  0
TEXT
  5
208D6
330
747D
100
AcDbEntity
  8
部品1
100
AcDbText
 10
9617.299916499051
 20
1407.645515138483
 30
0.0
 40
120.0
  1
▽G.L
  7
STYLE1
100
AcDbText
  0
LINE
  5
208D7
330
747D
100
AcDbEntity
  8
細線
 48
10.0
100
AcDbLine
 10
9638.02137148591
 20
1092.821276120296
 30
0.0
 11
9944.939568825191
 21
1399.73947345958
 31
0.0
  0
LINE
  5
208D8
330
747D
100
AcDbEntity
  8
細線
 48
10.0
100
AcDbLine
 10
9609.737100238442
 20
1092.821276120296
 30
0.0
 11
9916.655297577717
 21
1399.73947345958
 31
0.0
  0
LINE
  5
208D9
330
747D
100
AcDbEntity
  8
細線
 48
10.0
100
AcDbLine
 10
9581.452828990984
 20
1092.821276120296
 30
0.0
 11
9888.371026330265
 21
1399.73947345958
 31
0.0
  0
LINE
  5
208DA
330
747D
100
AcDbEntity
  8
Ｇ．Ｌ
100
AcDbLine
 10
8544.432285048554
 20
1399.73947345958
 30
0.0
 11
9989.323987053701
 21
1399.73947345958
 31
0.0
  0
LINE
  5
208DB
330
747D
100
AcDbEntity
  8
部品1
100
AcDbLine
 10
9057.229681847264
 20
2299.739473459578
 30
0.0
 11
9057.229681847267
 21
1793.739473459582
 31
0.0
  0
LINE
  5
208DC
330
747D
100
AcDbEntity
  8
部品1
100
AcDbLine
 10
9167.229681847265
 20
2299.739473459578
 30
0.0
 11
9167.229681847267
 21
1799.984942447587
 31
0.0
  0
LINE
  5
208DD
330
747D
100
AcDbEntity
  8
細線
 48
50.0
100
AcDbLine
 10
8622.22968184726
 20
2299.739473459578
 30
0.0
 11
8622.22968184726
 21
1799.739473459582
 31
0.0
  0
LINE
  5
208DE
330
747D
100
AcDbEntity
  8
細線
 48
50.0
100
AcDbLine
 10
8652.229681847261
 20
2299.739473459578
 30
0.0
 11
8652.229681847261
 21
1799.739473459582
 31
0.0
  0
LINE
  5
208DF
330
747D
100
AcDbEntity
  8
細線
 48
50.0
100
AcDbLine
 10
8902.229681847261
 20
2299.739473459578
 30
0.0
 11
8902.229681847261
 21
1799.739473459582
 31
0.0
  0
LINE
  5
208E0
330
747D
100
AcDbEntity
  8
細線
 48
50.0
100
AcDbLine
 10
8932.22968184726
 20
2299.739473459578
 30
0.0
 11
8932.22968184726
 21
1799.739473459582
 31
0.0
  0
LINE
  5
208E1
330
747D
100
AcDbEntity
  8
部品1
100
AcDbLine
 10
7546.897077134282
 20
2199.73947345958
 30
0.0
 11
7546.897077134286
 21
1693.739473459584
 31
0.0
  0
LINE
  5
208E2
330
747D
100
AcDbEntity
  8
細線
 48
50.0
100
AcDbLine
 10
7421.897077134279
 20
2199.73947345958
 30
0.0
 11
7421.897077134279
 21
1699.739473459582
 31
0.0
  0
LINE
  5
208E3
330
747D
100
AcDbEntity
  8
細線
 48
50.0
100
AcDbLine
 10
7391.89707713428
 20
2199.73947345958
 30
0.0
 11
7391.89707713428
 21
1699.739473459582
 31
0.0
  0
LINE
  5
208E4
330
747D
100
AcDbEntity
  8
細線
 48
50.0
100
AcDbLine
 10
7141.89707713428
 20
2199.73947345958
 30
0.0
 11
7141.89707713428
 21
1699.739473459582
 31
0.0
  0
LINE
  5
208E5
330
747D
100
AcDbEntity
  8
細線
 48
50.0
100
AcDbLine
 10
7111.897077134279
 20
2199.73947345958
 30
0.0
 11
7111.897077134279
 21
1699.739473459582
 31
0.0
  0
LINE
  5
208E6
330
747D
100
AcDbEntity
  8
部品1
100
AcDbLine
 10
7656.897077134283
 20
2199.73947345958
 30
0.0
 11
7656.897077134286
 21
1699.984942447587
 31
0.0
  0
LINE
  5
208E7
330
747D
100
AcDbEntity
  8
部品1
 48
50.0
100
AcDbLine
 10
8471.133873857979
 20
2378.978685847826
 30
0.0
 11
8471.133873857979
 21
458.9786858478255
 31
0.0
  0
LINE
  5
208E8
330
747D
100
AcDbEntity
  8
細線
 48
10.0
100
AcDbLine
 10
7554.032940864669
 20
1092.821276120296
 30
0.0
 11
7860.951138203941
 21
1399.73947345958
 31
0.0
  0
LINE
  5
208E9
330
747D
100
AcDbEntity
  8
細線
 48
10.0
100
AcDbLine
 10
7525.748669617209
 20
1092.821276120296
 30
0.0
 11
7832.666866956483
 21
1399.73947345958
 31
0.0
  0
LINE
  5
208EA
330
747D
100
AcDbEntity
  8
細線
 48
10.0
100
AcDbLine
 10
7582.31721211213
 20
1092.821276120296
 30
0.0
 11
7889.235409451408
 21
1399.73947345958
 31
0.0
  0
DIMENSION
  5
208EB
330
747D
100
AcDbEntity
  8
寸法
 48
50.0
100
AcDbDimension
  2
*D15
 10
7889.661087702688
 20
1399.73947345958
 30
0.0
 11
7789.661087702689
 21
1499.739473459582
 31
0.0
 70
    32
  1
b
 71
     5
 42
200.0000000000016
  3
INABA_S40G
100
AcDbAlignedDimension
 13
7667.447840239789
 23
1599.739473459582
 33
0.0
 14
7686.897077134279
 24
1399.73947345958
 34
0.0
 50
90.0
100
AcDbRotatedDimension
1001
ACAD
1000
DSTYLE
1002
{
1070
   174
1070
     0
1070
   272
1070
     1
1070
   288
1070
     0
1070
   341
1005
0
1002
}
  0
LINE
  5
208EC
330
747D
100
AcDbEntity
  8
Ｇ．Ｌ
100
AcDbLine
 10
6941.642643890689
 20
1399.73947345958
 30
0.0
 11
8405.67788265497
 21
1399.73947345958
 31
0.0
  0
LINE
  5
208ED
330
747D
100
AcDbEntity
  8
細線
 48
10.0
100
AcDbLine
 10
7127.374552011847
 20
1092.821276120296
 30
0.0
 11
7434.292749351117
 21
1399.73947345958
 31
0.0
  0
LINE
  5
208EE
330
747D
100
AcDbEntity
  8
細線
 48
10.0
100
AcDbLine
 10
7099.090280764383
 20
1092.821276120296
 30
0.0
 11
7406.008478103661
 21
1399.73947345958
 31
0.0
  0
LINE
  5
208EF
330
747D
100
AcDbEntity
  8
細線
 48
10.0
100
AcDbLine
 10
7155.658823259307
 20
1092.821276120296
 30
0.0
 11
7462.577020598569
 21
1399.73947345958
 31
0.0
  0
LINE
  5
208F0
330
747D
100
AcDbEntity
  8
部品1
100
AcDbLine
 10
6941.642643890685
 20
1599.739473459582
 30
0.0
 11
7566.095640528525
 21
1599.739473459582
 31
0.0
  0
LINE
  5
208F1
330
747D
100
AcDbEntity
  8
部品1
100
AcDbLine
 10
6941.642643890685
 20
1699.739473459583
 30
0.0
 11
7546.897077134282
 21
1699.739473459582
 31
0.0
  0
LINE
  5
208F2
330
747D
100
AcDbEntity
  8
部品1
100
AcDbLine
 10
6941.642643890685
 20
1693.739473459584
 30
0.0
 11
7575.694922225645
 21
1693.739473459584
 31
0.0
  0
LINE
  5
208F3
330
747D
100
AcDbEntity
  8
細線
100
AcDbLine
 10
7342.925339826478
 20
1399.73947345958
 30
0.0
 11
7256.897077134279
 21
1485.76773615178
 31
0.0
  0
LINE
  5
208F4
330
747D
100
AcDbEntity
  8
細線
100
AcDbLine
 10
7385.351746697669
 20
1399.73947345958
 30
0.0
 11
7256.897077134279
 21
1528.194143022973
 31
0.0
  0
LINE
  5
208F5
330
747D
100
AcDbEntity
  8
部品1
100
AcDbLine
 10
7256.897077134279
 20
1399.73947345958
 30
0.0
 11
7256.897077134279
 21
1599.739473459582
 31
0.0
  0
LINE
  5
208F6
330
747D
100
AcDbEntity
  8
細線
 48
10.0
100
AcDbLine
 10
6941.642643890685
 20
1362.032028099445
 30
0.0
 11
6979.350089250823
 21
1399.73947345958
 31
0.0
  0
LINE
  5
208F7
330
747D
100
AcDbEntity
  8
細線
 48
10.0
100
AcDbLine
 10
6941.642643890689
 20
1305.46348560453
 30
0.0
 11
7035.918631745729
 21
1399.73947345958
 31
0.0
  0
LINE
  5
208F8
330
747D
100
AcDbEntity
  8
細線
 48
10.0
100
AcDbLine
 10
6941.642643890689
 20
1333.74775685199
 30
0.0
 11
7007.634360498276
 21
1399.73947345958
 31
0.0
  0
LINE
  5
208F9
330
747D
100
AcDbEntity
  8
細線
100
AcDbLine
 10
7547.851677897561
 20
1421.087305368195
 30
0.0
 11
7369.199509806174
 21
1599.73947345958
 31
0.0
  0
LINE
  5
208FA
330
747D
100
AcDbEntity
  8
細線
100
AcDbLine
 10
7551.782815491198
 20
1459.582574645752
 30
0.0
 11
7411.625916677367
 21
1599.73947345958
 31
0.0
  0
LINE
  5
208FB
330
747D
100
AcDbEntity
  8
部品1
100
AcDbLine
 10
7657.793846142354
 20
1696.729934158482
 30
0.0
 11
7686.897077134279
 21
1411.73947345958
 31
0.0
  0
LINE
  5
208FC
330
747D
100
AcDbEntity
  8
部品1
100
AcDbLine
 10
7576.000308126211
 20
1696.729934158482
 30
0.0
 11
7546.897077134279
 21
1411.73947345958
 31
0.0
  0
LINE
  5
208FD
330
747D
100
AcDbEntity
  8
部品1
100
AcDbLine
 10
7546.897077134279
 20
1411.73947345958
 30
0.0
 11
7686.897077134279
 21
1411.73947345958
 31
0.0
  0
LINE
  5
208FE
330
747D
100
AcDbEntity
  8
部品1
100
AcDbLine
 10
7546.897077134279
 20
1399.73947345958
 30
0.0
 11
7686.897077134279
 21
1399.73947345958
 31
0.0
  0
LINE
  5
208FF
330
747D
100
AcDbEntity
  8
部品1
100
AcDbLine
 10
7546.897077134279
 20
1411.73947345958
 30
0.0
 11
7546.897077134279
 21
1399.73947345958
 31
0.0
  0
LINE
  5
20900
330
747D
100
AcDbEntity
  8
部品1
100
AcDbLine
 10
7601.897077134279
 20
1466.139473459583
 30
0.0
 11
7631.897077134279
 21
1466.139473459583
 31
0.0
  0
LINE
  5
20901
330
747D
100
AcDbEntity
  8
部品1
100
AcDbLine
 10
7601.897077134279
 20
1472.139473459583
 30
0.0
 11
7631.897077134279
 21
1472.139473459583
 31
0.0
  0
LINE
  5
20902
330
747D
100
AcDbEntity
  8
部品1
100
AcDbLine
 10
7601.897077134279
 20
1432.139473459583
 30
0.0
 11
7606.897077134279
 21
1432.139473459583
 31
0.0
  0
LINE
  5
20903
330
747D
100
AcDbEntity
  8
部品1
100
AcDbLine
 10
7601.897077134279
 20
1472.139473459583
 30
0.0
 11
7601.897077134279
 21
1466.139473459583
 31
0.0
  0
LINE
  5
20904
330
747D
100
AcDbEntity
  8
部品1
100
AcDbLine
 10
7601.897077134279
 20
1432.139473459583
 30
0.0
 11
7601.897077134279
 21
1430.739473459582
 31
0.0
  0
LINE
  5
20905
330
747D
100
AcDbEntity
  8
部品1
100
AcDbLine
 10
7686.897077134279
 20
1411.73947345958
 30
0.0
 11
7686.897077134279
 21
1399.73947345958
 31
0.0
  0
LINE
  5
20906
330
747D
100
AcDbEntity
  8
部品1
100
AcDbLine
 10
7631.897077134279
 20
1472.13947345958
 30
0.0
 11
7631.897077134279
 21
1466.13947345958
 31
0.0
  0
LINE
  5
20907
330
747D
100
AcDbEntity
  8
部品1
100
AcDbLine
 10
7631.897077134279
 20
1432.139473459578
 30
0.0
 11
7631.897077134279
 21
1430.739473459582
 31
0.0
  0
LINE
  5
20908
330
747D
100
AcDbEntity
  8
部品1
100
AcDbLine
 10
7586.897077134278
 20
1414.73947345958
 30
0.0
 11
7646.89707713428
 21
1414.739473459585
 31
0.0
  0
LINE
  5
20909
330
747D
100
AcDbEntity
  8
部品1
100
AcDbLine
 10
7606.897077134279
 20
1451.739473459582
 30
0.0
 11
7626.897077134279
 21
1451.739473459582
 31
0.0
  0
LINE
  5
2090A
330
747D
100
AcDbEntity
  8
部品1
100
AcDbLine
 10
7606.897077134279
 20
1414.73947345958
 30
0.0
 11
7606.897077134279
 21
1451.739473459582
 31
0.0
  0
LINE
  5
2090B
330
747D
100
AcDbEntity
  8
部品1
100
AcDbLine
 10
7626.897077134279
 20
1414.73947345958
 30
0.0
 11
7626.897077134279
 21
1451.739473459582
 31
0.0
  0
LINE
  5
2090C
330
747D
100
AcDbEntity
  8
部品1
100
AcDbLine
 10
7599.897077134279
 20
1430.739473459582
 30
0.0
 11
7633.89707713428
 21
1430.739473459582
 31
0.0
  0
LINE
  5
2090D
330
747D
100
AcDbEntity
  8
部品1
100
AcDbLine
 10
7596.897077134279
 20
1414.73947345958
 30
0.0
 11
7596.897077134279
 21
1427.739473459582
 31
0.0
  0
LINE
  5
2090E
330
747D
100
AcDbEntity
  8
部品1
100
AcDbLine
 10
7636.897077134278
 20
1414.739473459585
 30
0.0
 11
7636.897077134278
 21
1427.739473459582
 31
0.0
  0
LINE
  5
2090F
330
747D
100
AcDbEntity
  8
部品1
100
AcDbLine
 10
7599.897077134279
 20
1430.739473459582
 30
0.0
 11
7596.897077134279
 21
1427.739473459582
 31
0.0
  0
LINE
  5
20910
330
747D
100
AcDbEntity
  8
部品1
100
AcDbLine
 10
7633.89707713428
 20
1430.739473459582
 30
0.0
 11
7636.897077134278
 21
1427.739473459582
 31
0.0
  0
LINE
  5
20911
330
747D
100
AcDbEntity
  8
部品1
100
AcDbLine
 10
7586.897077134278
 20
1411.73947345958
 30
0.0
 11
7586.897077134278
 21
1414.73947345958
 31
0.0
  0
LINE
  5
20912
330
747D
100
AcDbEntity
  8
部品1
100
AcDbLine
 10
7646.89707713428
 20
1411.73947345958
 30
0.0
 11
7646.89707713428
 21
1414.739473459589
 31
0.0
  0
LINE
  5
20913
330
747D
100
AcDbEntity
  8
部品1
100
AcDbLine
 10
7626.897077134279
 20
1432.139473459583
 30
0.0
 11
7631.897077134279
 21
1432.139473459583
 31
0.0
  0
LINE
  5
20914
330
747D
100
AcDbEntity
  8
部品1
100
AcDbLine
 10
7596.897077134279
 20
1427.739473459582
 30
0.0
 11
7636.897077134278
 21
1427.739473459582
 31
0.0
  0
ARC
  5
20915
330
747D
100
AcDbEntity
  8
部品1
100
AcDbCircle
 10
7601.897077134279
 20
1423.224718669264
 30
0.0
 40
6.736691384996243
100
AcDbArc
 50
42.08048849858703
 51
137.9195115014129
  0
ARC
  5
20916
330
747D
100
AcDbEntity
  8
部品1
100
AcDbCircle
 10
7631.897077134279
 20
1423.224718669264
 30
0.0
 40
6.736691384996243
100
AcDbArc
 50
42.08048849858703
 51
137.9195115014129
  0
ARC
  5
20917
330
747D
100
AcDbEntity
  8
部品1
100
AcDbCircle
 10
7616.89707713428
 20
1406.650840238762
 30
0.0
 40
23.33946124318486
100
AcDbArc
 50
64.63020194521864
 51
115.3697980547813
  0
LINE
  5
20918
330
747D
100
AcDbEntity
  8
部品1
100
AcDbLine
 10
7609.897077134279
 20
1463.992369483241
 30
0.0
 11
7623.897077134279
 21
1463.992369483241
 31
0.0
  0
LINE
  5
20919
330
747D
100
AcDbEntity
  8
部品1
100
AcDbLine
 10
7611.897077134279
 20
1451.739473459582
 30
0.0
 11
7611.897077134279
 21
1459.992369483241
 31
0.0
  0
LINE
  5
2091A
330
747D
100
AcDbEntity
  8
部品1
100
AcDbLine
 10
7621.897077134279
 20
1451.739473459582
 30
0.0
 11
7621.897077134279
 21
1459.992369483241
 31
0.0
  0
LINE
  5
2091B
330
747D
100
AcDbEntity
  8
部品1
100
AcDbLine
 10
7609.897077134279
 20
1459.992369483241
 30
0.0
 11
7609.897077134279
 21
1463.992369483241
 31
0.0
  0
LINE
  5
2091C
330
747D
100
AcDbEntity
  8
部品1
100
AcDbLine
 10
7623.897077134279
 20
1459.992369483241
 30
0.0
 11
7623.897077134279
 21
1463.992369483241
 31
0.0
  0
LINE
  5
2091D
330
747D
100
AcDbEntity
  8
部品1
100
AcDbLine
 10
7609.897077134279
 20
1459.992369483241
 30
0.0
 11
7623.897077134279
 21
1459.992369483241
 31
0.0
  0
LINE
  5
2091E
330
747D
100
AcDbEntity
  8
部品1
100
AcDbLine
 10
7606.897077134279
 20
1399.73947345958
 30
0.0
 11
7606.897077134279
 21
1364.33947345958
 31
0.0
  0
LINE
  5
2091F
330
747D
100
AcDbEntity
  8
部品1
100
AcDbLine
 10
7626.897077134279
 20
1399.73947345958
 30
0.0
 11
7626.897077134279
 21
1364.33947345958
 31
0.0
  0
LINE
  5
20920
330
747D
100
AcDbEntity
  8
部品1
100
AcDbLine
 10
7614.986576500742
 20
1364.33947345958
 30
0.0
 11
7618.807577767817
 21
1364.33947345958
 31
0.0
  0
LINE
  5
20921
330
747D
100
AcDbEntity
  8
部品1
100
AcDbLine
 10
7606.897077134279
 20
1364.33947345958
 30
0.0
 11
7600.897077134279
 21
1324.33947345958
 31
0.0
  0
LINE
  5
20922
330
747D
100
AcDbEntity
  8
部品1
100
AcDbLine
 10
7632.89707713428
 20
1324.33947345958
 30
0.0
 11
7626.897077134279
 21
1364.33947345958
 31
0.0
  0
LINE
  5
20923
330
747D
100
AcDbEntity
  8
部品1
100
AcDbLine
 10
7614.986576500742
 20
1364.33947345958
 30
0.0
 11
7608.808567957225
 21
1323.152749836141
 31
0.0
  0
LINE
  5
20924
330
747D
100
AcDbEntity
  8
部品1
100
AcDbLine
 10
7624.985586311334
 20
1323.152749836141
 30
0.0
 11
7618.807577767817
 21
1364.33947345958
 31
0.0
  0
LINE
  5
20925
330
747D
100
AcDbEntity
  8
部品1
100
AcDbLine
 10
7600.897077134279
 20
1324.33947345958
 30
0.0
 11
7608.808567957225
 21
1323.152749836141
 31
0.0
  0
LINE
  5
20926
330
747D
100
AcDbEntity
  8
部品1
100
AcDbLine
 10
7624.985586311334
 20
1323.152749836141
 30
0.0
 11
7632.89707713428
 21
1324.33947345958
 31
0.0
  0
LINE
  5
20927
330
747D
100
AcDbEntity
  8
部品1
100
AcDbLine
 10
7601.787119851862
 20
1330.273091576789
 30
0.0
 11
7609.698610674808
 21
1329.086367953347
 31
0.0
  0
LINE
  5
20928
330
747D
100
AcDbEntity
  8
部品1
100
AcDbLine
 10
7602.677162569438
 20
1336.206709693999
 30
0.0
 11
7610.588653392383
 21
1335.019986070556
 31
0.0
  0
LINE
  5
20929
330
747D
100
AcDbEntity
  8
部品1
100
AcDbLine
 10
7603.567205287021
 20
1342.140327811206
 30
0.0
 11
7611.478696109966
 21
1340.953604187765
 31
0.0
  0
LINE
  5
2092A
330
747D
100
AcDbEntity
  8
部品1
100
AcDbLine
 10
7604.457248004604
 20
1348.073945928418
 30
0.0
 11
7612.36873882755
 21
1346.887222304978
 31
0.0
  0
LINE
  5
2092B
330
747D
100
AcDbEntity
  8
部品1
100
AcDbLine
 10
7605.34729072218
 20
1354.007564045627
 30
0.0
 11
7613.258781545126
 21
1352.820840422184
 31
0.0
  0
LINE
  5
2092C
330
747D
100
AcDbEntity
  8
部品1
100
AcDbLine
 10
7606.237333439763
 20
1359.941182162836
 30
0.0
 11
7614.148824262709
 21
1358.754458539393
 31
0.0
  0
LINE
  5
2092D
330
747D
100
AcDbEntity
  8
部品1
100
AcDbLine
 10
7624.09554359375
 20
1329.086367953347
 30
0.0
 11
7632.007034416703
 21
1330.273091576789
 31
0.0
  0
LINE
  5
2092E
330
747D
100
AcDbEntity
  8
部品1
100
AcDbLine
 10
7623.205500876174
 20
1335.019986070556
 30
0.0
 11
7631.11699169912
 21
1336.206709693999
 31
0.0
  0
LINE
  5
2092F
330
747D
100
AcDbEntity
  8
部品1
100
AcDbLine
 10
7622.315458158592
 20
1340.953604187765
 30
0.0
 11
7630.226948981537
 21
1342.140327811206
 31
0.0
  0
LINE
  5
20930
330
747D
100
AcDbEntity
  8
部品1
100
AcDbLine
 10
7621.425415441016
 20
1346.887222304978
 30
0.0
 11
7629.336906263961
 21
1348.073945928418
 31
0.0
  0
LINE
  5
20931
330
747D
100
AcDbEntity
  8
部品1
100
AcDbLine
 10
7620.535372723432
 20
1352.820840422184
 30
0.0
 11
7628.446863546378
 21
1354.007564045627
 31
0.0
  0
LINE
  5
20932
330
747D
100
AcDbEntity
  8
部品1
100
AcDbLine
 10
7619.645330005849
 20
1358.754458539393
 30
0.0
 11
7627.556820828795
 21
1359.941182162836
 31
0.0
  0
ARC
  5
20933
330
747D
100
AcDbEntity
  8
部品1
100
AcDbCircle
 10
7585.951136614524
 20
1695.739473459582
 30
0.0
 40
10.0
100
AcDbArc
 50
90.0
 51
174.3157584018092
  0
CIRCLE
  5
20934
330
747D
100
AcDbEntity
  8
部品1
100
AcDbCircle
 10
7616.89707713428
 20
1643.73947345958
 30
0.0
 40
16.0
  0
LINE
  5
20935
330
747D
100
AcDbEntity
  8
細線
100
AcDbLine
 10
7601.897077134279
 20
1619.739473459581
 30
0.0
 11
7631.897077134279
 21
1619.739473459581
 31
0.0
  0
LINE
  5
20936
330
747D
100
AcDbEntity
  8
細線
100
AcDbLine
 10
7608.89707713428
 20
1683.739473459578
 30
0.0
 11
7608.89707713428
 21
1657.595879920133
 31
0.0
  0
LINE
  5
20937
330
747D
100
AcDbEntity
  8
細線
100
AcDbLine
 10
7624.89707713428
 20
1683.739473459578
 30
0.0
 11
7624.89707713428
 21
1657.595879920133
 31
0.0
  0
ARC
  5
20938
330
747D
100
AcDbEntity
  8
細線
100
AcDbCircle
 10
7616.89707713428
 20
1683.739473459578
 30
0.0
 40
8.0
100
AcDbArc
 50
0.0
 51
180.0
  0
LINE
  5
20939
330
747D
100
AcDbEntity
  8
部品1
100
AcDbLine
 10
7585.951136614524
 20
1705.73947345958
 30
0.0
 11
7647.843017654036
 21
1705.739473459578
 31
0.0
  0
ARC
  5
2093A
330
747D
100
AcDbEntity
  8
部品1
100
AcDbCircle
 10
7647.843017654036
 20
1695.739473459578
 30
0.0
 40
10.0
100
AcDbArc
 50
5.684241598190771
 51
90.0
  0
LINE
  5
2093B
330
747D
100
AcDbEntity
  8
細線
100
AcDbLine
 10
7601.897077134279
 20
1613.739473459582
 30
0.0
 11
7631.897077134279
 21
1613.739473459582
 31
0.0
  0
LINE
  5
2093C
330
747D
100
AcDbEntity
  8
細線
100
AcDbLine
 10
7601.897077134279
 20
1619.739473459581
 30
0.0
 11
7601.897077134279
 21
1613.739473459582
 31
0.0
  0
LINE
  5
2093D
330
747D
100
AcDbEntity
  8
細線
100
AcDbLine
 10
7631.897077134279
 20
1619.739473459576
 30
0.0
 11
7631.897077134279
 21
1613.739473459576
 31
0.0
  0
LINE
  5
2093E
330
747D
100
AcDbEntity
  8
細線
 48
10.0
100
AcDbLine
 10
8008.97560096495
 20
1092.821276120296
 30
0.0
 11
8315.893798304227
 21
1399.73947345958
 31
0.0
  0
LINE
  5
2093F
330
747D
100
AcDbEntity
  8
細線
 48
10.0
100
AcDbLine
 10
7980.691329717487
 20
1092.821276120296
 30
0.0
 11
8287.60952705676
 21
1399.73947345958
 31
0.0
  0
LINE
  5
20940
330
747D
100
AcDbEntity
  8
細線
 48
10.0
100
AcDbLine
 10
7952.407058470026
 20
1092.821276120296
 30
0.0
 11
8259.325255809301
 21
1399.73947345958
 31
0.0
  0
TEXT
  5
20941
330
747D
100
AcDbEntity
  8
部品1
100
AcDbText
 10
8031.386280402655
 20
1407.645515138483
 30
0.0
 40
120.0
  1
▽G.L
  7
STYLE1
100
AcDbText
  0
LINE
  5
20942
330
747D
100
AcDbEntity
  8
部品1
100
AcDbLine
 10
8544.432285048554
 20
1699.73947345958
 30
0.0
 11
9087.118589937595
 21
1699.739473459582
 31
0.0
  0
LINE
  5
20943
330
747D
100
AcDbEntity
  8
部品1
100
AcDbLine
 10
8544.432285048554
 20
1799.739473459582
 30
0.0
 11
9057.229681847264
 21
1799.739473459582
 31
0.0
  0
LINE
  5
20944
330
747D
100
AcDbEntity
  8
部品1
100
AcDbLine
 10
8544.432285048554
 20
1793.739473459582
 30
0.0
 11
9087.229681847265
 21
1793.739473459582
 31
0.0
  0
LINE
  5
20945
330
747D
100
AcDbEntity
  8
細線
100
AcDbLine
 10
9058.184282610543
 20
1421.087305368195
 30
0.0
 11
8779.532114519154
 21
1699.73947345958
 31
0.0
  0
LINE
  5
20946
330
747D
100
AcDbEntity
  8
細線
100
AcDbLine
 10
9062.115420204179
 20
1459.582574645752
 30
0.0
 11
8821.958521390348
 21
1699.73947345958
 31
0.0
  0
LINE
  5
20947
330
747D
100
AcDbEntity
  8
細線
 48
10.0
100
AcDbLine
 10
8728.136051285343
 20
1092.821276120296
 30
0.0
 11
9035.054248624616
 21
1399.739473459582
 31
0.0
  0
LINE
  5
20948
330
747D
100
AcDbEntity
  8
細線
 48
10.0
100
AcDbLine
 10
8756.4203225328
 20
1092.821276120296
 30
0.0
 11
9063.338519872072
 21
1399.73947345958
 31
0.0
  0
LINE
  5
20949
330
747D
100
AcDbEntity
  8
細線
 48
10.0
100
AcDbLine
 10
8784.704593780265
 20
1092.821276120296
 30
0.0
 11
9091.622791119524
 21
1399.73947345958
 31
0.0
  0
LINE
  5
2094A
330
747D
100
AcDbEntity
  8
細線
 48
10.0
100
AcDbLine
 10
8544.432285048552
 20
1279.207356241439
 30
0.0
 11
8664.964402266683
 21
1399.73947345958
 31
0.0
  0
LINE
  5
2094B
330
747D
100
AcDbEntity
  8
細線
 48
10.0
100
AcDbLine
 10
8544.432285048555
 20
1307.491627488897
 30
0.0
 11
8636.680131019231
 21
1399.73947345958
 31
0.0
  0
LINE
  5
2094C
330
747D
100
AcDbEntity
  8
細線
 48
10.0
100
AcDbLine
 10
8544.432285048554
 20
1335.775898736352
 30
0.0
 11
8608.39585977178
 21
1399.73947345958
 31
0.0
  0
LINE
  5
2094D
330
747D
100
AcDbEntity
  8
部品1
100
AcDbLine
 10
8767.229681847259
 20
1399.739473459576
 30
0.0
 11
8767.229681847259
 21
1699.73947345958
 31
0.0
  0
LINE
  5
2094E
330
747D
100
AcDbEntity
  8
細線
100
AcDbLine
 10
8895.68435141065
 20
1399.73947345958
 30
0.0
 11
8767.229681847259
 21
1528.194143022973
 31
0.0
  0
LINE
  5
2094F
330
747D
100
AcDbEntity
  8
細線
100
AcDbLine
 10
8853.257944539459
 20
1399.73947345958
 30
0.0
 11
8767.229681847259
 21
1485.76773615178
 31
0.0
  0
LINE
  5
20950
330
747D
100
AcDbEntity
  8
細線
 48
10.0
100
AcDbLine
 10
9211.362982633081
 20
1092.821276120296
 30
0.0
 11
9518.281179972364
 21
1399.739473459582
 31
0.0
  0
LINE
  5
20951
330
747D
100
AcDbEntity
  8
細線
 48
10.0
100
AcDbLine
 10
9183.078711385624
 20
1092.821276120296
 30
0.0
 11
9489.996908724897
 21
1399.73947345958
 31
0.0
  0
LINE
  5
20952
330
747D
100
AcDbEntity
  8
細線
 48
10.0
100
AcDbLine
 10
9154.794440138164
 20
1092.821276120296
 30
0.0
 11
9461.712637477438
 21
1399.73947345958
 31
0.0
  0
DIMENSION
  5
20953
330
747D
100
AcDbEntity
  8
寸法
 48
50.0
100
AcDbDimension
  2
*D16
 10
9369.976327474045
 20
1399.73947345958
 30
0.0
 11
9269.976327474045
 21
1549.739473459581
 31
0.0
 70
    32
  1
c
 71
     5
 42
300.0
  3
INABA_S40G
100
AcDbAlignedDimension
 13
9167.340773756929
 23
1699.73947345958
 33
0.0
 14
9197.229681847259
 24
1399.73947345958
 34
0.0
 50
90.0
100
AcDbRotatedDimension
1001
ACAD
1000
DSTYLE
1002
{
1070
   174
1070
     0
1070
   272
1070
     1
1070
   288
1070
     0
1070
   341
1005
0
1002
}
  0
LINE
  5
20954
330
747D
100
AcDbEntity
  8
部品1
100
AcDbLine
 10
9086.332912839193
 20
1696.72993415848
 30
0.0
 11
9057.22968184726
 21
1411.73947345958
 31
0.0
  0
LINE
  5
20955
330
747D
100
AcDbEntity
  8
部品1
100
AcDbLine
 10
9168.126450855332
 20
1696.72993415848
 30
0.0
 11
9197.229681847259
 21
1411.73947345958
 31
0.0
  0
LINE
  5
20956
330
747D
100
AcDbEntity
  8
部品1
100
AcDbLine
 10
9057.22968184726
 20
1411.73947345958
 30
0.0
 11
9197.229681847259
 21
1411.73947345958
 31
0.0
  0
LINE
  5
20957
330
747D
100
AcDbEntity
  8
部品1
100
AcDbLine
 10
9057.22968184726
 20
1399.73947345958
 30
0.0
 11
9197.229681847259
 21
1399.73947345958
 31
0.0
  0
LINE
  5
20958
330
747D
100
AcDbEntity
  8
部品1
100
AcDbLine
 10
9135.318191024316
 20
1323.152749836139
 30
0.0
 11
9129.140182480798
 21
1364.339473459578
 31
0.0
  0
LINE
  5
20959
330
747D
100
AcDbEntity
  8
部品1
100
AcDbLine
 10
9125.319181213724
 20
1364.339473459578
 30
0.0
 11
9119.141172670207
 21
1323.152749836139
 31
0.0
  0
LINE
  5
2095A
330
747D
100
AcDbEntity
  8
部品1
100
AcDbLine
 10
9143.229681847261
 20
1324.339473459578
 30
0.0
 11
9137.22968184726
 21
1364.339473459578
 31
0.0
  0
LINE
  5
2095B
330
747D
100
AcDbEntity
  8
部品1
100
AcDbLine
 10
9117.229681847261
 20
1364.339473459578
 30
0.0
 11
9111.229681847261
 21
1324.339473459578
 31
0.0
  0
LINE
  5
2095C
330
747D
100
AcDbEntity
  8
部品1
100
AcDbLine
 10
9133.538105589156
 20
1335.019986070554
 30
0.0
 11
9141.449596412101
 21
1336.206709693997
 31
0.0
  0
LINE
  5
2095D
330
747D
100
AcDbEntity
  8
部品1
100
AcDbLine
 10
9134.428148306731
 20
1329.086367953347
 30
0.0
 11
9142.33963912968
 21
1330.273091576789
 31
0.0
  0
LINE
  5
2095E
330
747D
100
AcDbEntity
  8
部品1
100
AcDbLine
 10
9113.009767282418
 20
1336.206709693997
 30
0.0
 11
9120.921258105365
 21
1335.019986070554
 31
0.0
  0
LINE
  5
2095F
330
747D
100
AcDbEntity
  8
部品1
100
AcDbLine
 10
9112.119724564843
 20
1330.273091576789
 30
0.0
 11
9120.03121538779
 21
1329.086367953347
 31
0.0
  0
LINE
  5
20960
330
747D
100
AcDbEntity
  8
部品1
100
AcDbLine
 10
9135.318191024316
 20
1323.152749836139
 30
0.0
 11
9143.229681847261
 21
1324.339473459578
 31
0.0
  0
LINE
  5
20961
330
747D
100
AcDbEntity
  8
部品1
100
AcDbLine
 10
9111.229681847261
 20
1324.339473459578
 30
0.0
 11
9119.141172670207
 21
1323.152749836139
 31
0.0
  0
LINE
  5
20962
330
747D
100
AcDbEntity
  8
部品1
100
AcDbLine
 10
9057.22968184726
 20
1411.73947345958
 30
0.0
 11
9057.22968184726
 21
1399.73947345958
 31
0.0
  0
LINE
  5
20963
330
747D
100
AcDbEntity
  8
部品1
100
AcDbLine
 10
9112.22968184726
 20
1466.139473459581
 30
0.0
 11
9142.229681847259
 21
1466.139473459581
 31
0.0
  0
LINE
  5
20964
330
747D
100
AcDbEntity
  8
部品1
100
AcDbLine
 10
9112.22968184726
 20
1472.139473459581
 30
0.0
 11
9142.229681847259
 21
1472.139473459581
 31
0.0
  0
LINE
  5
20965
330
747D
100
AcDbEntity
  8
部品1
100
AcDbLine
 10
9112.22968184726
 20
1472.139473459581
 30
0.0
 11
9112.22968184726
 21
1466.139473459581
 31
0.0
  0
LINE
  5
20966
330
747D
100
AcDbEntity
  8
部品1
100
AcDbLine
 10
9142.229681847259
 20
1472.139473459578
 30
0.0
 11
9142.229681847259
 21
1466.139473459578
 31
0.0
  0
LINE
  5
20967
330
747D
100
AcDbEntity
  8
部品1
100
AcDbLine
 10
9112.22968184726
 20
1432.139473459581
 30
0.0
 11
9117.229681847261
 21
1432.139473459581
 31
0.0
  0
LINE
  5
20968
330
747D
100
AcDbEntity
  8
部品1
100
AcDbLine
 10
9112.22968184726
 20
1432.139473459581
 30
0.0
 11
9112.22968184726
 21
1430.739473459576
 31
0.0
  0
LINE
  5
20969
330
747D
100
AcDbEntity
  8
部品1
100
AcDbLine
 10
9142.229681847259
 20
1432.139473459578
 30
0.0
 11
9142.229681847259
 21
1430.73947345958
 31
0.0
  0
LINE
  5
2096A
330
747D
100
AcDbEntity
  8
部品1
100
AcDbLine
 10
9112.22968184726
 20
1430.73947345958
 30
0.0
 11
9142.229681847259
 21
1430.73947345958
 31
0.0
  0
LINE
  5
2096B
330
747D
100
AcDbEntity
  8
部品1
100
AcDbLine
 10
9134.22968184726
 20
1459.99236948324
 30
0.0
 11
9134.22968184726
 21
1463.992369483239
 31
0.0
  0
LINE
  5
2096C
330
747D
100
AcDbEntity
  8
部品1
100
AcDbLine
 10
9120.229681847261
 20
1459.99236948324
 30
0.0
 11
9120.229681847261
 21
1463.992369483239
 31
0.0
  0
LINE
  5
2096D
330
747D
100
AcDbEntity
  8
部品1
100
AcDbLine
 10
9129.97793471883
 20
1358.754458539391
 30
0.0
 11
9137.889425541777
 21
1359.941182162834
 31
0.0
  0
LINE
  5
2096E
330
747D
100
AcDbEntity
  8
部品1
100
AcDbLine
 10
9130.867977436414
 20
1352.820840422184
 30
0.0
 11
9138.779468259359
 21
1354.007564045627
 31
0.0
  0
LINE
  5
2096F
330
747D
100
AcDbEntity
  8
部品1
100
AcDbLine
 10
9131.758020153997
 20
1346.887222304977
 30
0.0
 11
9139.669510976942
 21
1348.073945928416
 31
0.0
  0
LINE
  5
20970
330
747D
100
AcDbEntity
  8
部品1
100
AcDbLine
 10
9132.648062871572
 20
1340.953604187765
 30
0.0
 11
9140.559553694519
 21
1342.140327811205
 31
0.0
  0
LINE
  5
20971
330
747D
100
AcDbEntity
  8
部品1
100
AcDbLine
 10
9116.569938152744
 20
1359.941182162834
 30
0.0
 11
9124.481428975689
 21
1358.754458539391
 31
0.0
  0
LINE
  5
20972
330
747D
100
AcDbEntity
  8
部品1
100
AcDbLine
 10
9115.679895435162
 20
1354.007564045627
 30
0.0
 11
9123.591386258107
 21
1352.820840422184
 31
0.0
  0
LINE
  5
20973
330
747D
100
AcDbEntity
  8
部品1
100
AcDbLine
 10
9114.789852717585
 20
1348.073945928416
 30
0.0
 11
9122.701343540528
 21
1346.887222304977
 31
0.0
  0
LINE
  5
20974
330
747D
100
AcDbEntity
  8
部品1
100
AcDbLine
 10
9113.899810000003
 20
1342.140327811205
 30
0.0
 11
9121.811300822947
 21
1340.953604187765
 31
0.0
  0
LINE
  5
20975
330
747D
100
AcDbEntity
  8
部品1
100
AcDbLine
 10
9125.319181213724
 20
1364.339473459578
 30
0.0
 11
9129.140182480798
 21
1364.339473459578
 31
0.0
  0
LINE
  5
20976
330
747D
100
AcDbEntity
  8
部品1
100
AcDbLine
 10
9137.22968184726
 20
1399.73947345958
 30
0.0
 11
9137.22968184726
 21
1364.339473459578
 31
0.0
  0
LINE
  5
20977
330
747D
100
AcDbEntity
  8
部品1
100
AcDbLine
 10
9117.229681847261
 20
1399.73947345958
 30
0.0
 11
9117.229681847261
 21
1364.339473459578
 31
0.0
  0
LINE
  5
20978
330
747D
100
AcDbEntity
  8
部品1
100
AcDbLine
 10
9132.229681847261
 20
1451.73947345958
 30
0.0
 11
9132.229681847261
 21
1459.99236948324
 31
0.0
  0
LINE
  5
20979
330
747D
100
AcDbEntity
  8
部品1
100
AcDbLine
 10
9122.22968184726
 20
1451.73947345958
 30
0.0
 11
9122.22968184726
 21
1459.99236948324
 31
0.0
  0
LINE
  5
2097A
330
747D
100
AcDbEntity
  8
部品1
100
AcDbLine
 10
9120.229681847261
 20
1459.99236948324
 30
0.0
 11
9134.22968184726
 21
1459.99236948324
 31
0.0
  0
ARC
  5
2097B
330
747D
100
AcDbEntity
  8
部品1
100
AcDbCircle
 10
9127.229681847261
 20
1406.650840238762
 30
0.0
 40
23.33946124318486
100
AcDbArc
 50
64.63020194521864
 51
115.3697980547813
  0
ARC
  5
2097C
330
747D
100
AcDbEntity
  8
部品1
100
AcDbCircle
 10
9142.229681847259
 20
1423.224718669262
 30
0.0
 40
6.736691384996243
100
AcDbArc
 50
42.08048849858703
 51
137.9195115014129
  0
ARC
  5
2097D
330
747D
100
AcDbEntity
  8
部品1
100
AcDbCircle
 10
9112.22968184726
 20
1423.224718669262
 30
0.0
 40
6.736691384996243
100
AcDbArc
 50
42.08048849858703
 51
137.9195115014129
  0
LINE
  5
2097E
330
747D
100
AcDbEntity
  8
部品1
100
AcDbLine
 10
9107.229681847261
 20
1427.73947345958
 30
0.0
 11
9147.22968184726
 21
1427.73947345958
 31
0.0
  0
LINE
  5
2097F
330
747D
100
AcDbEntity
  8
部品1
100
AcDbLine
 10
9137.22968184726
 20
1432.139473459581
 30
0.0
 11
9142.229681847259
 21
1432.139473459581
 31
0.0
  0
LINE
  5
20980
330
747D
100
AcDbEntity
  8
部品1
100
AcDbLine
 10
9112.22968184726
 20
1432.139473459581
 30
0.0
 11
9117.229681847261
 21
1432.139473459581
 31
0.0
  0
LINE
  5
20981
330
747D
100
AcDbEntity
  8
部品1
100
AcDbLine
 10
9147.22968184726
 20
1414.739473459583
 30
0.0
 11
9147.22968184726
 21
1427.73947345958
 31
0.0
  0
LINE
  5
20982
330
747D
100
AcDbEntity
  8
部品1
100
AcDbLine
 10
9137.22968184726
 20
1414.73947345958
 30
0.0
 11
9137.22968184726
 21
1451.73947345958
 31
0.0
  0
LINE
  5
20983
330
747D
100
AcDbEntity
  8
部品1
100
AcDbLine
 10
9117.229681847261
 20
1414.73947345958
 30
0.0
 11
9117.229681847261
 21
1451.73947345958
 31
0.0
  0
LINE
  5
20984
330
747D
100
AcDbEntity
  8
部品1
100
AcDbLine
 10
9107.229681847261
 20
1414.73947345958
 30
0.0
 11
9107.229681847261
 21
1427.73947345958
 31
0.0
  0
LINE
  5
20985
330
747D
100
AcDbEntity
  8
部品1
100
AcDbLine
 10
9157.22968184726
 20
1411.73947345958
 30
0.0
 11
9157.22968184726
 21
1414.739473459587
 31
0.0
  0
LINE
  5
20986
330
747D
100
AcDbEntity
  8
部品1
100
AcDbLine
 10
9097.229681847259
 20
1411.73947345958
 30
0.0
 11
9097.229681847259
 21
1414.73947345958
 31
0.0
  0
LINE
  5
20987
330
747D
100
AcDbEntity
  8
部品1
100
AcDbLine
 10
9097.229681847259
 20
1414.73947345958
 30
0.0
 11
9157.22968184726
 21
1414.739473459583
 31
0.0
  0
LINE
  5
20988
330
747D
100
AcDbEntity
  8
部品1
100
AcDbLine
 10
9142.229681847259
 20
1432.139473459578
 30
0.0
 11
9142.229681847259
 21
1430.73947345958
 31
0.0
  0
LINE
  5
20989
330
747D
100
AcDbEntity
  8
部品1
100
AcDbLine
 10
9112.22968184726
 20
1432.139473459581
 30
0.0
 11
9112.22968184726
 21
1430.73947345958
 31
0.0
  0
LINE
  5
2098A
330
747D
100
AcDbEntity
  8
部品1
100
AcDbLine
 10
9144.229681847262
 20
1430.73947345958
 30
0.0
 11
9147.22968184726
 21
1427.73947345958
 31
0.0
  0
LINE
  5
2098B
330
747D
100
AcDbEntity
  8
部品1
100
AcDbLine
 10
9110.229681847261
 20
1430.73947345958
 30
0.0
 11
9144.229681847262
 21
1430.73947345958
 31
0.0
  0
LINE
  5
2098C
330
747D
100
AcDbEntity
  8
部品1
100
AcDbLine
 10
9110.229681847261
 20
1430.73947345958
 30
0.0
 11
9107.229681847261
 21
1427.73947345958
 31
0.0
  0
LINE
  5
2098D
330
747D
100
AcDbEntity
  8
部品1
100
AcDbLine
 10
9117.229681847261
 20
1451.73947345958
 30
0.0
 11
9137.22968184726
 21
1451.73947345958
 31
0.0
  0
LINE
  5
2098E
330
747D
100
AcDbEntity
  8
部品1
100
AcDbLine
 10
9120.229681847261
 20
1463.992369483239
 30
0.0
 11
9134.22968184726
 21
1463.992369483239
 31
0.0
  0
LINE
  5
2098F
330
747D
100
AcDbEntity
  8
部品1
100
AcDbLine
 10
9142.229681847259
 20
1472.139473459578
 30
0.0
 11
9142.229681847259
 21
1466.139473459578
 31
0.0
  0
LINE
  5
20990
330
747D
100
AcDbEntity
  8
部品1
100
AcDbLine
 10
9112.22968184726
 20
1472.139473459581
 30
0.0
 11
9112.22968184726
 21
1466.139473459581
 31
0.0
  0
LINE
  5
20991
330
747D
100
AcDbEntity
  8
部品1
100
AcDbLine
 10
9112.22968184726
 20
1472.139473459581
 30
0.0
 11
9142.229681847259
 21
1472.139473459581
 31
0.0
  0
LINE
  5
20992
330
747D
100
AcDbEntity
  8
部品1
100
AcDbLine
 10
9112.22968184726
 20
1466.139473459581
 30
0.0
 11
9142.229681847259
 21
1466.139473459581
 31
0.0
  0
LINE
  5
20993
330
747D
100
AcDbEntity
  8
部品1
100
AcDbLine
 10
9137.22968184726
 20
1432.139473459581
 30
0.0
 11
9142.229681847259
 21
1432.139473459581
 31
0.0
  0
LINE
  5
20994
330
747D
100
AcDbEntity
  8
部品1
100
AcDbLine
 10
9197.229681847259
 20
1411.73947345958
 30
0.0
 11
9197.229681847259
 21
1399.73947345958
 31
0.0
  0
LINE
  5
20995
330
747D
100
AcDbEntity
  8
細線
100
AcDbLine
 10
9083.081487370236
 20
1664.890677459391
 30
0.0
 11
9048.232691370049
 21
1699.73947345958
 31
0.0
  0
LINE
  5
20996
330
747D
100
AcDbEntity
  8
細線
100
AcDbLine
 10
9079.150349776602
 20
1626.395408181833
 30
0.0
 11
9005.806284498858
 21
1699.73947345958
 31
0.0
  0
LINE
  5
20997
330
747D
100
AcDbEntity
  8
部品1
100
AcDbLine
 10
9097.229681847259
 20
1813.339473459578
 30
0.0
 11
9157.22968184726
 21
1813.339473459582
 31
0.0
  0
ARC
  5
20998
330
747D
100
AcDbEntity
  8
部品1
100
AcDbCircle
 10
9097.229681847259
 20
1803.339473459578
 30
0.0
 40
10.0
100
AcDbArc
 50
90.0
 51
180.0
  0
ARC
  5
20999
330
747D
100
AcDbEntity
  8
部品1
100
AcDbCircle
 10
9157.22968184726
 20
1803.339473459582
 30
0.0
 40
10.0
100
AcDbArc
 50
0.0
 51
90.0
  0
ARC
  5
2099A
330
747D
100
AcDbEntity
  8
部品1
100
AcDbCircle
 10
9127.229681847261
 20
1753.339473459578
 30
0.0
 40
8.0
100
AcDbArc
 50
28.00674301450029
 51
151.9932569854997
  0
CIRCLE
  5
2099B
330
747D
100
AcDbEntity
  8
部品1
100
AcDbCircle
 10
9127.229681847261
 20
1742.73947345958
 30
0.0
 40
16.0
  0
CIRCLE
  5
2099C
330
747D
100
AcDbEntity
  8
細線
100
AcDbCircle
 10
9127.229681847261
 20
1783.339473459578
 30
0.0
 40
8.0
  0
ARC
  5
2099D
330
747D
100
AcDbEntity
  8
細線
100
AcDbCircle
 10
9127.229681847261
 20
1683.739473459576
 30
0.0
 40
8.0
100
AcDbArc
 50
0.0
 51
180.0
  0
LINE
  5
2099E
330
747D
100
AcDbEntity
  8
細線
100
AcDbLine
 10
9112.22968184726
 20
1613.73947345958
 30
0.0
 11
9142.229681847259
 21
1613.73947345958
 31
0.0
  0
LINE
  5
2099F
330
747D
100
AcDbEntity
  8
細線
100
AcDbLine
 10
9112.22968184726
 20
1619.73947345958
 30
0.0
 11
9142.229681847259
 21
1619.73947345958
 31
0.0
  0
LINE
  5
209A0
330
747D
100
AcDbEntity
  8
細線
100
AcDbLine
 10
9112.22968184726
 20
1619.73947345958
 30
0.0
 11
9112.22968184726
 21
1613.73947345958
 31
0.0
  0
LINE
  5
209A1
330
747D
100
AcDbEntity
  8
細線
100
AcDbLine
 10
9142.229681847259
 20
1619.739473459576
 30
0.0
 11
9142.229681847259
 21
1613.739473459576
 31
0.0
  0
LINE
  5
209A2
330
747D
100
AcDbEntity
  8
細線
100
AcDbLine
 10
9119.229681847262
 20
1683.739473459576
 30
0.0
 11
9119.229681847262
 21
1657.195879920131
 31
0.0
  0
LINE
  5
209A3
330
747D
100
AcDbEntity
  8
細線
100
AcDbLine
 10
9135.229681847262
 20
1683.739473459576
 30
0.0
 11
9135.229681847262
 21
1657.195879920131
 31
0.0
  0
CIRCLE
  5
209A4
330
747D
100
AcDbEntity
  8
部品1
100
AcDbCircle
 10
9127.229681847261
 20
1643.339473459579
 30
0.0
 40
16.0
  0
LINE
  5
209A5
330
747D
100
AcDbEntity
  8
部品1
100
AcDbLine
 10
9096.283741327505
 20
1705.73947345958
 30
0.0
 11
9158.175622367016
 21
1705.739473459576
 31
0.0
  0
ARC
  5
209A6
330
747D
100
AcDbEntity
  8
部品1
100
AcDbCircle
 10
9096.283741327505
 20
1695.73947345958
 30
0.0
 40
10.0
100
AcDbArc
 50
90.0
 51
174.3157584018092
  0
ARC
  5
209A7
330
747D
100
AcDbEntity
  8
部品1
100
AcDbCircle
 10
9158.175622367016
 20
1695.739473459576
 30
0.0
 40
10.0
100
AcDbArc
 50
5.684241598190771
 51
90.0
  0
ARC
  5
209A8
330
747D
100
AcDbEntity
  8
部品1
100
AcDbCircle
 10
9127.229681847261
 20
1713.339473459578
 30
0.0
 40
8.0
100
AcDbArc
 50
180.0
 51
251.8051276613376
  0
ARC
  5
209A9
330
747D
100
AcDbEntity
  8
部品1
100
AcDbCircle
 10
9127.229681847261
 20
1713.339473459578
 30
0.0
 40
8.0
100
AcDbArc
 50
288.1948723386625
 51
0.0
  0
LINE
  5
209AA
330
747D
100
AcDbEntity
  8
部品1
100
AcDbLine
 10
9087.22968184726
 20
1803.339473459578
 30
0.0
 11
9087.22968184726
 21
1699.984942447587
 31
0.0
  0
LINE
  5
209AB
330
747D
100
AcDbEntity
  8
部品1
100
AcDbLine
 10
9167.22968184726
 20
1803.339473459582
 30
0.0
 11
9167.22968184726
 21
1699.984942447592
 31
0.0
  0
LINE
  5
209AC
330
747D
100
AcDbEntity
  8
部品1
100
AcDbLine
 10
9135.229681847262
 20
1728.883066999027
 30
0.0
 11
9135.229681847262
 21
1713.339473459578
 31
0.0
  0
LINE
  5
209AD
330
747D
100
AcDbEntity
  8
部品1
100
AcDbLine
 10
9119.229681847262
 20
1728.883066999027
 30
0.0
 11
9119.229681847262
 21
1713.339473459578
 31
0.0
  0
TEXT
  5
209AE
330
747D
100
AcDbEntity
  8
部品1
100
AcDbText
 10
7632.478654703255
 20
2434.844735352466
 30
0.0
 40
120.0
  1
地盤がコンクリートの場合
  7
STYLE2
100
AcDbText
  0
LINE
  5
209AF
330
747D
100
AcDbEntity
  8
部品1
 48
50.0
100
AcDbLine
 10
10071.13387385798
 20
2858.978685847827
 30
0.0
 11
10071.13387385798
 21
458.9786858478255
 31
0.0
  0
DIMENSION
  5
209B0
330
747D
100
AcDbEntity
  8
寸法
 48
50.0
100
AcDbDimension
  2
*D17
 10
6301.912580481576
 20
1399.73947345958
 30
0.0
 11
6201.912580481575
 21
1499.739473459581
 31
0.0
 70
    32
  1
a
 71
     5
 42
200.0000000000009
  3
INABA_S40G
100
AcDbAlignedDimension
 13
6053.841576121182
 23
1599.739473459581
 33
0.0
 14
6053.841576121183
 24
1399.73947345958
 34
0.0
 50
90.0
100
AcDbRotatedDimension
1001
ACAD
1000
DSTYLE
1002
{
1070
   174
1070
     0
1070
   272
1070
     1
1070
   288
1070
     0
1070
   341
1005
0
1002
}
  0
TEXT
  5
209B1
330
747D
100
AcDbEntity
  8
部品1
100
AcDbText
 10
6960.301131106577
 20
932.9037956949333
 30
0.0
 40
80.0
  1
b寸法：100～120mmに対応
  7
STYLE2
100
AcDbText
  0
TEXT
  5
209B2
330
747D
100
AcDbEntity
  8
部品1
100
AcDbText
 10
6964.84658565203
 20
787.2977350888723
 30
0.0
 40
80.0
  1
\U+203BオールアンカーM10(市販品)
  7
STYLE2
100
AcDbText
  0
TEXT
  5
209B3
330
747D
100
AcDbEntity
  8
部品1
100
AcDbText
 10
6966.210222015667
 20
637.6007653919032
 30
0.0
 40
80.0
  1
  が4本必要になります。
  7
STYLE2
100
AcDbText
  0
TEXT
  5
209B4
330
747D
100
AcDbEntity
  8
部品1
100
AcDbText
 10
8519.632975631212
 20
932.9037956949333
 30
0.0
 40
80.0
  1
c寸法：135～175,190mmに対応
  7
STYLE2
100
AcDbText
  0
TEXT
  5
209B5
330
747D
100
AcDbEntity
  8
部品1
100
AcDbText
 10
8523.723884722121
 20
787.2977350888723
 30
0.0
 40
80.0
  1
\U+203BオールアンカーM10(市販品)
  7
STYLE2
100
AcDbText
  0
TEXT
  5
209B6
330
747D
100
AcDbEntity
  8
部品1
100
AcDbText
 10
8525.087521085756
 20
637.6007653919032
 30
0.0
 40
80.0
  1
  が4本必要になります。
  7
STYLE2
100
AcDbText
  0
TEXT
  5
209B7
330
747D
100
AcDbEntity
  8
部品1
100
AcDbText
 10
5407.683151906923
 20
661.0700529748437
 30
0.0
 40
80.0
  1
a寸法：100～150mmに対応
  7
STYLE2
100
AcDbText
  0
LINE
  5
209B8
330
747D
100
AcDbEntity
  8
部品1
 48
50.0
100
AcDbLine
 10
5803.84157612118
 20
999.73947345958
 30
0.0
 11
5803.84157612118
 21
1399.73947345958
 31
0.0
  0
LINE
  5
209B9
330
747D
100
AcDbEntity
  8
部品1
 48
50.0
100
AcDbLine
 10
6203.84157612118
 20
1399.73947345958
 30
0.0
 11
6203.841576121179
 21
999.7394734595818
 31
0.0
  0
LINE
  5
209BA
330
747D
100
AcDbEntity
  8
部品1
 48
50.0
100
AcDbLine
 10
6203.841576121179
 20
999.7394734595818
 30
0.0
 11
5803.84157612118
 21
999.73947345958
 31
0.0
  0
ENDSEC
  0
SECTION
  2
OBJECTS
  0
DICTIONARY
  5
7471
330
0
100
AcDbDictionary
281
     1
  3
ACAD_COLOR
350
159B0
  3
ACAD_GROUP
350
7472
  3
ACAD_LAYOUT
350
159B1
  3
ACAD_MATERIAL
350
159AF
  3
ACAD_MLINESTYLE
350
7473
  3
ACAD_PLOTSETTINGS
350
159B2
  3
ACAD_PLOTSTYLENAME
350
159AD
  3
ACDBHEADERROUNDTRIPXREC
350
20CDA
  3
AcDbVariableDictionary
350
20CD6
  3
CONTENTDICTIONARY
350
E71C
  3
DRAWINGVARIABLESDICT
350
F3B9
  0
DICTIONARY
  5
1E67E
330
7467
100
AcDbDictionary
280
     1
281
     1
  3
ACAD_LAYERSTATES
360
1E67F
  0
DICTIONARY
  5
159B0
102
{ACAD_REACTORS
330
7471
102
}
330
7471
100
AcDbDictionary
281
     1
  0
DICTIONARY
  5
7472
102
{ACAD_REACTORS
330
7471
102
}
330
7471
100
AcDbDictionary
281
     1
  3
*A1
350
1FC8E
  3
*A10
350
205DE
  3
*A11
350
205D9
  3
*A12
350
205FD
  3
*A13
350
205E3
  3
*A14
350
205E8
  3
*A15
350
205FF
  3
*A16
350
205FE
  3
*A17
350
20600
  3
*A18
350
20616
  3
*A19
350
20615
  3
*A2
350
2061E
  3
*A20
350
20617
  3
*A3
350
20618
  3
*A4
350
1FD42
  3
*A5
350
20623
  3
*A6
350
20628
  3
*A7
350
1FD47
  3
*A8
350
2062E
  3
*A9
350
1FD4C
  0
DICTIONARY
  5
159B1
102
{ACAD_REACTORS
330
7471
102
}
330
7471
100
AcDbDictionary
281
     1
  3
Model
350
159B3
  3
レイアウト1
350
159B4
  0
DICTIONARY
  5
159AF
102
{ACAD_REACTORS
330
7471
102
}
330
7471
100
AcDbDictionary
281
     1
  0
DICTIONARY
  5
7473
102
{ACAD_REACTORS
330
7471
102
}
330
7471
100
AcDbDictionary
281
     1
  3
STANDARD
350
7480
  0
DICTIONARY
  5
159B2
102
{ACAD_REACTORS
330
7471
102
}
330
7471
100
AcDbDictionary
281
     1
  0
ACDBDICTIONARYWDFLT
  5
159AD
102
{ACAD_REACTORS
330
7471
102
}
330
7471
100
AcDbDictionary
281
     1
  3
Normal
350
159AE
100
AcDbDictionaryWithDefault
340
159AE
  0
DICTIONARY
  5
20CDA
102
{ACAD_REACTORS
330
7471
102
}
330
7471
100
AcDbDictionary
281
     1
  3
COLORDICT
350
20CDC
  3
MATERIALDICT
350
20CDB
  0
DICTIONARY
  5
20CD6
102
{ACAD_REACTORS
330
7471
102
}
330
7471
100
AcDbDictionary
281
     1
  3
DIMASSOC
350
20CD7
  3
PROJECTNAME
350
20CD8
  0
DICTIONARY
  5
E71C
102
{ACAD_REACTORS
330
7471
102
}
330
7471
100
AcDbDictionary
281
     1
  0
DICTIONARY
  5
F3B9
102
{ACAD_REACTORS
330
7471
102
}
330
7471
100
AcDbDictionary
281
     1
1001
DRAWINGVARIABLESXDATA
1000
POLARMODE
1000
1
  0
DICTIONARY
  5
1E67F
102
{ACAD_REACTORS
330
1E67E
102
}
330
1E67E
100
AcDbDictionary
281
     1
  0
GROUP
  5
1FC8E
102
{ACAD_REACTORS
330
7472
102
}
330
7472
100
AcDbGroup
300

 70
     1
 71
     1
340
1FB3C
340
1FB3B
340
1FB3A
340
1FB3D
  0
GROUP
  5
205DE
102
{ACAD_REACTORS
330
7472
102
}
330
7472
100
AcDbGroup
300

 70
     1
 71
     1
340
205DB
340
205DC
340
205DD
340
205DA
  0
GROUP
  5
205D9
102
{ACAD_REACTORS
330
7472
102
}
330
7472
100
AcDbGroup
300

 70
     1
 71
     1
340
205D4
340
205D1
340
205D0
340
205CF
  0
GROUP
  5
205FD
102
{ACAD_REACTORS
330
7472
102
}
330
7472
100
AcDbGroup
300

 70
     1
 71
     1
340
205E9
340
205EA
340
205EB
340
205EC
  0
GROUP
  5
205E3
102
{ACAD_REACTORS
330
7472
102
}
330
7472
100
AcDbGroup
300

 70
     1
 71
     1
340
205E1
340
205E0
340
205DF
340
205E2
  0
GROUP
  5
205E8
102
{ACAD_REACTORS
330
7472
102
}
330
7472
100
AcDbGroup
300

 70
     1
 71
     1
340
205E5
340
205E6
340
205E7
340
205E4
  0
GROUP
  5
205FF
102
{ACAD_REACTORS
330
7472
102
}
330
7472
100
AcDbGroup
300

 70
     1
 71
     1
340
205F6
340
205F7
340
205F5
340
205F8
  0
GROUP
  5
205FE
102
{ACAD_REACTORS
330
7472
102
}
330
7472
100
AcDbGroup
300

 70
     1
 71
     1
  0
GROUP
  5
20600
102
{ACAD_REACTORS
330
7472
102
}
330
7472
100
AcDbGroup
300

 70
     1
 71
     1
340
205FB
340
205FA
340
205F9
340
205FC
  0
GROUP
  5
20616
102
{ACAD_REACTORS
330
7472
102
}
330
7472
100
AcDbGroup
300

 70
     1
 71
     1
340
2060B
340
2060C
340
2060A
340
20609
  0
GROUP
  5
20615
102
{ACAD_REACTORS
330
7472
102
}
330
7472
100
AcDbGroup
300

 70
     1
 71
     1
340
20602
340
20603
340
20604
340
20601
  0
GROUP
  5
2061E
102
{ACAD_REACTORS
330
7472
102
}
330
7472
100
AcDbGroup
300

 70
     1
 71
     1
  0
GROUP
  5
20617
102
{ACAD_REACTORS
330
7472
102
}
330
7472
100
AcDbGroup
300

 70
     1
 71
     1
340
20613
340
20612
340
20614
340
20611
  0
GROUP
  5
20618
102
{ACAD_REACTORS
330
7472
102
}
330
7472
100
AcDbGroup
300

 70
     1
 71
     1
340
2060E
340
2060F
340
20610
340
2060D
  0
GROUP
  5
1FD42
102
{ACAD_REACTORS
330
7472
102
}
330
7472
100
AcDbGroup
300

 70
     1
 71
     1
340
1FD3E
340
1FD3F
340
1FD40
340
1FD41
  0
GROUP
  5
20623
102
{ACAD_REACTORS
330
7472
102
}
330
7472
100
AcDbGroup
300

 70
     1
 71
     1
340
2061F
340
20620
340
20621
340
20622
  0
GROUP
  5
20628
102
{ACAD_REACTORS
330
7472
102
}
330
7472
100
AcDbGroup
300

 70
     1
 71
     1
340
20627
340
20626
340
20625
340
20624
  0
GROUP
  5
1FD47
102
{ACAD_REACTORS
330
7472
102
}
330
7472
100
AcDbGroup
300

 70
     1
 71
     1
340
1FD43
340
1FD44
340
1FD45
340
1FD46
  0
GROUP
  5
2062E
102
{ACAD_REACTORS
330
7472
102
}
330
7472
100
AcDbGroup
300

 70
     1
 71
     1
340
2062B
340
2062A
340
2062C
340
2062D
  0
GROUP
  5
1FD4C
102
{ACAD_REACTORS
330
7472
102
}
330
7472
100
AcDbGroup
300

 70
     1
 71
     1
340
1FD48
340
1FD49
340
1FD4A
340
1FD4B
  0
LAYOUT
  5
159B3
102
{ACAD_XDICTIONARY
360
20CDD
102
}
102
{ACAD_REACTORS
330
159B1
102
}
330
159B1
100
AcDbPlotSettings
  1

  2
none_device
  4
Letter_(8.50_x_11.00_Inches)
  6

 40
6.349999904632568
 41
6.349999904632568
 42
6.350006103515625
 43
6.350006103515625
 44
215.8999938964844
 45
279.3999938964844
 46
0.0
 47
0.0
 48
0.0
 49
0.0
140
0.0
141
0.0
142
1.0
143
1.0
 70
 11952
 72
     1
 73
     1
 74
     0
  7

 75
     0
147
1.0
148
-4149.571981164617
149
65.56433826894044
100
AcDbLayout
  1
Model
 70
     1
 71
     0
 10
0.0
 20
0.0
 11
12.0
 21
9.0
 12
0.0
 22
0.0
 32
0.0
 14
0.0
 24
0.0
 34
0.0
 15
0.0
 25
0.0
 35
0.0
146
0.0
 13
0.0
 23
0.0
 33
0.0
 16
1.0
 26
0.0
 36
0.0
 17
0.0
 27
1.0
 37
0.0
 76
     0
330
747D
  0
LAYOUT
  5
159B4
102
{ACAD_XDICTIONARY
360
20CDF
102
}
102
{ACAD_REACTORS
330
159B1
102
}
330
159B1
100
AcDbPlotSettings
  1

  2
自動 EPSON LP-8400FX (TATENO 上)
  4

  6

 40
0.0
 41
0.0
 42
0.0
 43
0.0
 44
0.0
 45
0.0
 46
0.0
 47
0.0
 48
0.0
 49
0.0
140
0.0
141
0.0
142
1.0
143
1.0
 70
   688
 72
     0
 73
     0
 74
     5
  7
inaba.ctb
 75
    16
147
1.0
148
0.0
149
0.0
100
AcDbLayout
  1
レイアウト1
 70
     0
 71
     1
 10
0.0
 20
0.0
 11
420.0
 21
297.0
 12
0.0
 22
0.0
 32
0.0
 14
1.000000000000000E+20
 24
1.000000000000000E+20
 34
1.000000000000000E+20
 15
-1.000000000000000E+20
 25
-1.000000000000000E+20
 35
-1.000000000000000E+20
146
0.0
 13
0.0
 23
0.0
 33
0.0
 16
1.0
 26
0.0
 36
0.0
 17
0.0
 27
1.0
 37
0.0
 76
     0
330
747A
  0
MLINESTYLE
  5
7480
102
{ACAD_REACTORS
330
7473
102
}
330
7473
100
AcDbMlineStyle
  2
STANDARD
 70
     0
  3

 62
     0
 51
90.0
 52
90.0
 71
     2
 49
0.5
 62
   256
  6
BYLAYER
 49
-0.5
 62
   256
  6
BYLAYER
  0
ACDBPLACEHOLDER
  5
159AE
102
{ACAD_REACTORS
330
159AD
102
}
330
159AD
  0
XRECORD
  5
20CDC
102
{ACAD_REACTORS
330
20CDA
102
}
330
20CDA
100
AcDbXrecord
280
     1
340
159B0
  0
XRECORD
  5
20CDB
102
{ACAD_REACTORS
330
20CDA
102
}
330
20CDA
100
AcDbXrecord
280
     1
340
159AF
  0
DICTIONARYVAR
  5
20CD7
102
{ACAD_REACTORS
330
20CD6
102
}
330
20CD6
100
DictionaryVariables
280
     0
  1
1
  0
DICTIONARYVAR
  5
20CD8
102
{ACAD_REACTORS
330
20CD6
102
}
330
20CD6
100
DictionaryVariables
280
     0
  1

  0
DICTIONARY
  5
20CDD
330
159B3
100
AcDbDictionary
280
     1
281
     1
  3
ACAD_XREC_ROUNDTRIP
360
20CDE
  0
DICTIONARY
  5
20CDF
330
159B4
100
AcDbDictionary
280
     1
281
     1
  3
ACAD_XREC_ROUNDTRIP
360
20CE0
  0
XRECORD
  5
20CDE
102
{ACAD_REACTORS
330
20CDD
102
}
330
20CDD
100
AcDbXrecord
280
     1
102
SHADEPLOT
 70
     0
102
SHADEPLOTRESLEVEL
 70
     2
102
SHADEPLOTCUSTOMDPI
 70
   300
  0
XRECORD
  5
20CE0
102
{ACAD_REACTORS
330
20CDF
102
}
330
20CDF
100
AcDbXrecord
280
     1
102
SHADEPLOT
 70
     0
102
SHADEPLOTRESLEVEL
 70
     2
102
SHADEPLOTCUSTOMDPI
 70
   300
  0
ENDSEC
  0
EOF
