  0
SECTION
  2
HEADER
  9
$ACADVER
  1
AC1015
  9
$ACADMAINTVER
 70
    20
  9
$DWGCODEPAGE
  3
ANSI_932
  9
$INSBASE
 10
0.0
 20
0.0
 30
0.0
  9
$EXTMIN
 10
139.9999999999995
 20
-0.0000000000000909
 30
0.0
  9
$EXTMAX
 10
16307.2
 20
11409.6
 30
0.0
  9
$LIMMIN
 10
0.0
 20
0.0
  9
$LIMMAX
 10
16800.0
 20
11880.0
  9
$ORTHOMODE
 70
     0
  9
$REGENMODE
 70
     1
  9
$FILLMODE
 70
     1
  9
$QTEXTMODE
 70
     0
  9
$MIRRTEXT
 70
     1
  9
$LTSCALE
 40
20.0
  9
$ATTMODE
 70
     1
  9
$TEXTSIZE
 40
100.0
  9
$TRACEWID
 40
1.0
  9
$TEXTSTYLE
  7
STYLE2
  9
$CLAYER
  8
寸法
  9
$CELTYPE
  6
BYLAYER
  9
$CECOLOR
 62
   256
  9
$CELTSCALE
 40
50.0
  9
$DISPSILH
 70
     0
  9
$DIMSCALE
 40
40.0
  9
$DIMASZ
 40
2.5
  9
$DIMEXO
 40
0.5
  9
$DIMDLI
 40
7.0
  9
$DIMRND
 40
0.0
  9
$DIMDLE
 40
0.0
  9
$DIMEXE
 40
1.5
  9
$DIMTP
 40
0.0
  9
$DIMTM
 40
0.0
  9
$DIMTXT
 40
3.0
  9
$DIMCEN
 40
0.0
  9
$DIMTSZ
 40
0.0
  9
$DIMTOL
 70
     0
  9
$DIMLIM
 70
     0
  9
$DIMTIH
 70
     0
  9
$DIMTOH
 70
     0
  9
$DIMSE1
 70
     0
  9
$DIMSE2
 70
     0
  9
$DIMTAD
 70
     3
  9
$DIMZIN
 70
     8
  9
$DIMBLK
  1

  9
$DIMASO
 70
     1
  9
$DIMSHO
 70
     1
  9
$DIMPOST
  1

  9
$DIMAPOST
  1

  9
$DIMALT
 70
     0
  9
$DIMALTD
 70
     2
  9
$DIMALTF
 40
0.0394
  9
$DIMLFAC
 40
1.0
  9
$DIMTOFL
 70
     1
  9
$DIMTVP
 40
0.0
  9
$DIMTIX
 70
     0
  9
$DIMSOXD
 70
     0
  9
$DIMSAH
 70
     1
  9
$DIMBLK1
  1
DOTSMALL
  9
$DIMBLK2
  1
DOTSMALL
  9
$DIMSTYLE
  2
INABA_S40G
  9
$DIMCLRD
 70
     0
  9
$DIMCLRE
 70
     0
  9
$DIMCLRT
 70
     7
  9
$DIMTFAC
 40
1.0
  9
$DIMGAP
 40
1.0
  9
$DIMJUST
 70
     0
  9
$DIMSD1
 70
     0
  9
$DIMSD2
 70
     0
  9
$DIMTOLJ
 70
     1
  9
$DIMTZIN
 70
     0
  9
$DIMALTZ
 70
     0
  9
$DIMALTTZ
 70
     0
  9
$DIMUPT
 70
     0
  9
$DIMDEC
 70
     1
  9
$DIMTDEC
 70
     1
  9
$DIMALTU
 70
     2
  9
$DIMALTTD
 70
     2
  9
$DIMTXSTY
  7
STYLE1
  9
$DIMAUNIT
 70
     0
  9
$DIMADEC
 70
     0
  9
$DIMALTRND
 40
0.0
  9
$DIMAZIN
 70
     0
  9
$DIMDSEP
 70
    46
  9
$DIMATFIT
 70
     3
  9
$DIMFRAC
 70
     0
  9
$DIMLDRBLK
  1

  9
$DIMLUNIT
 70
     2
  9
$DIMLWD
 70
    -2
  9
$DIMLWE
 70
    -2
  9
$DIMTMOVE
 70
     0
  9
$LUNITS
 70
     2
  9
$LUPREC
 70
     1
  9
$SKETCHINC
 40
1.0
  9
$FILLETRAD
 40
0.0
  9
$AUNITS
 70
     0
  9
$AUPREC
 70
     0
  9
$MENU
  1
acad
  9
$ELEVATION
 40
0.0
  9
$PELEVATION
 40
0.0
  9
$THICKNESS
 40
0.0
  9
$LIMCHECK
 70
     0
  9
$CHAMFERA
 40
3.0
  9
$CHAMFERB
 40
3.0
  9
$CHAMFERC
 40
0.0
  9
$CHAMFERD
 40
0.0
  9
$SKPOLY
 70
     0
  9
$TDCREATE
 40
2451368.612993866
  9
$TDUCREATE
 40
2451368.237993866
  9
$TDUPDATE
 40
2455575.709394341
  9
$TDUUPDATE
 40
2455575.334394341
  9
$TDINDWG
 40
1.4799284144
  9
$TDUSRTIMER
 40
1.4799284144
  9
$USRTIMER
 70
     1
  9
$ANGBASE
 50
0.0
  9
$ANGDIR
 70
     0
  9
$PDMODE
 70
     3
  9
$PDSIZE
 40
2.0
  9
$PLINEWID
 40
0.0
  9
$SPLFRAME
 70
     0
  9
$SPLINETYPE
 70
     6
  9
$SPLINESEGS
 70
     8
  9
$HANDSEED
  5
20866
  9
$SURFTAB1
 70
     6
  9
$SURFTAB2
 70
     6
  9
$SURFTYPE
 70
     6
  9
$SURFU
 70
     6
  9
$SURFV
 70
     6
  9
$UCSBASE
  2

  9
$UCSNAME
  2

  9
$UCSORG
 10
0.0
 20
0.0
 30
0.0
  9
$UCSXDIR
 10
1.0
 20
0.0
 30
0.0
  9
$UCSYDIR
 10
0.0
 20
1.0
 30
0.0
  9
$UCSORTHOREF
  2

  9
$UCSORTHOVIEW
 70
     0
  9
$UCSORGTOP
 10
0.0
 20
0.0
 30
0.0
  9
$UCSORGBOTTOM
 10
0.0
 20
0.0
 30
0.0
  9
$UCSORGLEFT
 10
0.0
 20
0.0
 30
0.0
  9
$UCSORGRIGHT
 10
0.0
 20
0.0
 30
0.0
  9
$UCSORGFRONT
 10
0.0
 20
0.0
 30
0.0
  9
$UCSORGBACK
 10
0.0
 20
0.0
 30
0.0
  9
$PUCSBASE
  2

  9
$PUCSNAME
  2

  9
$PUCSORG
 10
0.0
 20
0.0
 30
0.0
  9
$PUCSXDIR
 10
1.0
 20
0.0
 30
0.0
  9
$PUCSYDIR
 10
0.0
 20
1.0
 30
0.0
  9
$PUCSORTHOREF
  2

  9
$PUCSORTHOVIEW
 70
     0
  9
$PUCSORGTOP
 10
0.0
 20
0.0
 30
0.0
  9
$PUCSORGBOTTOM
 10
0.0
 20
0.0
 30
0.0
  9
$PUCSORGLEFT
 10
0.0
 20
0.0
 30
0.0
  9
$PUCSORGRIGHT
 10
0.0
 20
0.0
 30
0.0
  9
$PUCSORGFRONT
 10
0.0
 20
0.0
 30
0.0
  9
$PUCSORGBACK
 10
0.0
 20
0.0
 30
0.0
  9
$USERI1
 70
     0
  9
$USERI2
 70
     0
  9
$USERI3
 70
     0
  9
$USERI4
 70
     0
  9
$USERI5
 70
     0
  9
$USERR1
 40
0.0
  9
$USERR2
 40
0.0
  9
$USERR3
 40
0.0
  9
$USERR4
 40
0.0
  9
$USERR5
 40
0.0
  9
$WORLDVIEW
 70
     1
  9
$SHADEDGE
 70
     3
  9
$SHADEDIF
 70
    70
  9
$TILEMODE
 70
     1
  9
$MAXACTVP
 70
    16
  9
$PINSBASE
 10
0.0
 20
0.0
 30
0.0
  9
$PLIMCHECK
 70
     0
  9
$PEXTMIN
 10
1.000000000000000E+20
 20
1.000000000000000E+20
 30
1.000000000000000E+20
  9
$PEXTMAX
 10
-1.000000000000000E+20
 20
-1.000000000000000E+20
 30
-1.000000000000000E+20
  9
$PLIMMIN
 10
0.0
 20
0.0
  9
$PLIMMAX
 10
420.0
 20
297.0
  9
$UNITMODE
 70
     0
  9
$VISRETAIN
 70
     0
  9
$PLINEGEN
 70
     0
  9
$PSLTSCALE
 70
     0
  9
$TREEDEPTH
 70
  3020
  9
$CMLSTYLE
  2
STANDARD
  9
$CMLJUST
 70
     0
  9
$CMLSCALE
 40
1.0
  9
$PROXYGRAPHICS
 70
     1
  9
$MEASUREMENT
 70
     1
  9
$CELWEIGHT
370
    -1
  9
$ENDCAPS
280
     0
  9
$JOINSTYLE
280
     0
  9
$LWDISPLAY
290
     0
  9
$INSUNITS
 70
     0
  9
$HYPERLINKBASE
  1

  9
$STYLESHEET
  1
inaba.ctb
  9
$XEDIT
290
     1
  9
$CEPSNTYPE
380
     0
  9
$PSTYLEMODE
290
     1
  9
$FINGERPRINTGUID
  2
{3B57B35E-7D77-4BBF-81B7-6C583B9EB24C}
  9
$VERSIONGUID
  2
{8BDCEEE5-9E34-42B1-9DBF-5CE9D18781DD}
  9
$EXTNAMES
290
     1
  9
$PSVPSCALE
 40
0.0
  9
$OLESTARTUP
290
     0
  0
ENDSEC
  0
SECTION
  2
CLASSES
  0
CLASS
  1
ACDBDICTIONARYWDFLT
  2
AcDbDictionaryWithDefault
  3
ObjectDBX Classes
 90
        0
280
     0
281
     0
  0
CLASS
  1
DICTIONARYVAR
  2
AcDbDictionaryVar
  3
ObjectDBX Classes
 90
        0
280
     0
281
     0
  0
CLASS
  1
ACDBPLACEHOLDER
  2
AcDbPlaceHolder
  3
ObjectDBX Classes
 90
        0
280
     0
281
     0
  0
CLASS
  1
LAYOUT
  2
AcDbLayout
  3
ObjectDBX Classes
 90
        0
280
     0
281
     0
  0
ENDSEC
  0
SECTION
  2
TABLES
  0
TABLE
  2
VPORT
  5
746D
330
0
100
AcDbSymbolTable
 70
     2
  0
VPORT
  5
2085E
330
746D
100
AcDbSymbolTableRecord
100
AcDbViewportTableRecord
  2
*Active
 70
     0
 10
0.0
 20
0.0
 11
1.0
 21
1.0
 12
8223.761025238502
 22
6348.43519888615
 13
0.0
 23
0.0
 14
10.0
 24
10.0
 15
10.0
 25
10.0
 16
0.0
 26
0.0
 36
1.0
 17
0.0
 27
0.0
 37
0.0
 40
12805.53868243671
 41
1.525925925925925
 42
50.0
 43
0.0
 44
0.0
 50
0.0
 51
0.0
 71
     0
 72
     0
 73
     1
 74
     0
 75
     0
 76
     0
 77
     0
 78
     0
281
     0
 65
     1
110
0.0
120
0.0
130
0.0
111
1.0
121
0.0
131
0.0
112
0.0
122
1.0
132
0.0
 79
     0
146
0.0
  0
ENDTAB
  0
TABLE
  2
LTYPE
  5
746A
330
0
100
AcDbSymbolTable
 70
     4
  0
LTYPE
  5
7477
330
746A
100
AcDbSymbolTableRecord
100
AcDbLinetypeTableRecord
  2
BYBLOCK
 70
     0
  3

 72
    65
 73
     0
 40
0.0
  0
LTYPE
  5
7478
330
746A
100
AcDbSymbolTableRecord
100
AcDbLinetypeTableRecord
  2
BYLAYER
 70
     0
  3

 72
    65
 73
     0
 40
0.0
  0
LTYPE
  5
7479
330
746A
100
AcDbSymbolTableRecord
100
AcDbLinetypeTableRecord
  2
CONTINUOUS
 70
     0
  3
Solid line
 72
    65
 73
     0
 40
0.0
  0
LTYPE
  5
7816
330
746A
100
AcDbSymbolTableRecord
100
AcDbLinetypeTableRecord
  2
CENTER
 70
     0
  3
____ _ ____ _ ____ _ ____ _ ____ _ ____ _ ____ 
 72
    65
 73
     4
 40
2.0
 49
1.25
 74
     0
 49
-0.25
 74
     0
 49
0.25
 74
     0
 49
-0.25
 74
     0
  0
LTYPE
  5
781A
330
746A
100
AcDbSymbolTableRecord
100
AcDbLinetypeTableRecord
  2
HIDDEN
 70
     0
  3
__ __ __ __ __ __ __ __ __ __ __ __ __ __ __ __
 72
    65
 73
     2
 40
0.375
 49
0.25
 74
     0
 49
-0.125
 74
     0
  0
LTYPE
  5
781B
330
746A
100
AcDbSymbolTableRecord
100
AcDbLinetypeTableRecord
  2
PHANTOM
 70
     0
  3
______  __  __  ______  __  __  ______  __  __ 
 72
    65
 73
     6
 40
2.5
 49
1.25
 74
     0
 49
-0.25
 74
     0
 49
0.25
 74
     0
 49
-0.25
 74
     0
 49
0.25
 74
     0
 49
-0.25
 74
     0
  0
ENDTAB
  0
TABLE
  2
LAYER
  5
7467
102
{ACAD_XDICTIONARY
360
1E67E
102
}
330
0
100
AcDbSymbolTable
 70
    13
  0
LAYER
  5
7474
330
7467
100
AcDbSymbolTableRecord
100
AcDbLayerTableRecord
  2
0
 70
     0
 62
     7
  6
CONTINUOUS
370
    -3
390
159AE
  0
LAYER
  5
DEB2
330
7467
100
AcDbSymbolTableRecord
100
AcDbLayerTableRecord
  2
センター
 70
     0
 62
     3
  6
CENTER
370
    -3
390
159AE
  0
LAYER
  5
DEB3
330
7467
100
AcDbSymbolTableRecord
100
AcDbLayerTableRecord
  2
寸法
 70
     0
 62
     4
  6
CONTINUOUS
370
    -3
390
159AE
  0
LAYER
  5
DEB4
330
7467
100
AcDbSymbolTableRecord
100
AcDbLayerTableRecord
  2
部品1
 70
     0
 62
     7
  6
CONTINUOUS
370
    -3
390
159AE
  0
LAYER
  5
DEB5
330
7467
100
AcDbSymbolTableRecord
100
AcDbLayerTableRecord
  2
補助
 70
     0
 62
    -1
  6
CONTINUOUS
370
    -3
390
159AE
  0
LAYER
  5
DEB6
330
7467
100
AcDbSymbolTableRecord
100
AcDbLayerTableRecord
  2
文字
 70
     0
 62
     7
  6
CONTINUOUS
370
    -3
390
159AE
  0
LAYER
  5
F255
330
7467
100
AcDbSymbolTableRecord
100
AcDbLayerTableRecord
  2
DEFPOINTS
 70
     0
 62
     7
  6
CONTINUOUS
290
     0
370
    -3
390
159AE
  0
LAYER
  5
10B54
330
7467
100
AcDbSymbolTableRecord
100
AcDbLayerTableRecord
  2
仕様書枠
 70
     0
 62
   230
  6
CONTINUOUS
370
    -3
390
159AE
  0
LAYER
  5
11729
330
7467
100
AcDbSymbolTableRecord
100
AcDbLayerTableRecord
  2
Ｇ．Ｌ
 70
     0
 62
    30
  6
CONTINUOUS
370
    -3
390
159AE
  0
LAYER
  5
1173F
330
7467
100
AcDbSymbolTableRecord
100
AcDbLayerTableRecord
  2
細線
 70
     0
 62
     5
  6
CONTINUOUS
370
    -3
390
159AE
  0
LAYER
  5
12CC4
330
7467
100
AcDbSymbolTableRecord
100
AcDbLayerTableRecord
  2
想像線
 70
     0
 62
     6
  6
PHANTOM
370
    -3
390
159AE
  0
LAYER
  5
142E2
330
7467
100
AcDbSymbolTableRecord
100
AcDbLayerTableRecord
  2
破線
 70
     0
 62
     2
  6
HIDDEN
370
    -3
390
159AE
  0
LAYER
  5
1C644
330
7467
100
AcDbSymbolTableRecord
100
AcDbLayerTableRecord
  2
点線
 70
     0
 62
     2
  6
HIDDEN
370
    -3
390
159AE
  0
ENDTAB
  0
TABLE
  2
STYLE
  5
7468
330
0
100
AcDbSymbolTable
 70
     3
  0
STYLE
  5
7475
330
7468
100
AcDbSymbolTableRecord
100
AcDbTextStyleTableRecord
  2
STANDARD
 70
     0
 40
0.0
 41
1.0
 50
0.0
 71
     0
 42
4.0
  3
txt
  4
C:\AutoCAD LT\bigfont.shx
  0
STYLE
  5
F706
330
7468
100
AcDbSymbolTableRecord
100
AcDbTextStyleTableRecord
  2
STYLE1
 70
     0
 40
0.0
 41
1.0
 50
0.0
 71
     0
 42
100.0
  3
isocp.shx
  4
bigfont.shx
  0
STYLE
  5
103BF
330
7468
100
AcDbSymbolTableRecord
100
AcDbTextStyleTableRecord
  2
STYLE2
 70
     0
 40
0.0
 41
1.0
 50
0.0
 71
     0
 42
100.0
  3
MS PGothic.ttf
  4

1001
ACAD
1000
MS PGothic
1071
    32818
  0
ENDTAB
  0
TABLE
  2
VIEW
  5
746B
330
0
100
AcDbSymbolTable
 70
     0
  0
ENDTAB
  0
TABLE
  2
UCS
  5
746C
330
0
100
AcDbSymbolTable
 70
     0
  0
ENDTAB
  0
TABLE
  2
APPID
  5
746E
330
0
100
AcDbSymbolTable
 70
     6
  0
APPID
  5
7476
330
746E
100
AcDbSymbolTableRecord
100
AcDbRegAppTableRecord
  2
ACAD
 70
     0
  0
APPID
  5
DEA9
330
746E
100
AcDbSymbolTableRecord
100
AcDbRegAppTableRecord
  2
CONTENTBLOCKICON
 70
     0
  0
APPID
  5
DEAA
330
746E
100
AcDbSymbolTableRecord
100
AcDbRegAppTableRecord
  2
CONTENTBLOCKDESCRIPTION
 70
     0
  0
APPID
  5
E71D
330
746E
100
AcDbSymbolTableRecord
100
AcDbRegAppTableRecord
  2
CONTENTTABDATA
 70
     0
  0
APPID
  5
E71E
330
746E
100
AcDbSymbolTableRecord
100
AcDbRegAppTableRecord
  2
CONTENTCURRENTTAB
 70
     0
  0
APPID
  5
F3BA
330
746E
100
AcDbSymbolTableRecord
100
AcDbRegAppTableRecord
  2
DRAWINGVARIABLESXDATA
 70
     0
  0
ENDTAB
  0
TABLE
  2
DIMSTYLE
  5
746F
330
0
100
AcDbSymbolTable
 70
     2
100
AcDbDimStyleTable
 71
     1
340
F71F
  0
DIMSTYLE
105
F71F
102
{ACAD_REACTORS
330
1F71E
330
1F71F
330
1F720
330
1F730
330
1F739
330
1F743
330
1F744
330
1F745
330
1F748
330
1F702
330
1F98A
330
1F98B
330
205DF
330
20641
330
206A9
330
20706
102
}
330
746F
100
AcDbSymbolTableRecord
100
AcDbDimStyleTableRecord
  2
INABA_S40G
 70
     0
 40
40.0
 41
2.5
 42
0.5
 43
7.0
 44
1.5
 73
     0
 74
     0
 77
     3
 78
     8
140
3.0
141
0.0
143
0.0394
147
1.0
172
     1
173
     1
174
     1
178
     7
271
     1
288
     1
340
F706
341
F770
343
F770
344
F770
  0
DIMSTYLE
105
1C645
330
746F
100
AcDbSymbolTableRecord
100
AcDbDimStyleTableRecord
  2
INABA_S50G
 70
     0
 40
0.0
 41
125.0
 42
25.0
 43
7.0
 44
75.0
 73
     0
 74
     0
 77
     3
 78
     8
140
150.0
141
0.0
143
0.0394
147
25.0
172
     1
173
     1
174
     1
178
     7
271
     1
340
F706
341
F770
343
F770
344
F770
  0
ENDTAB
  0
TABLE
  2
BLOCK_RECORD
  5
7466
330
0
100
AcDbSymbolTable
 70
    18
  0
BLOCK_RECORD
  5
747D
330
7466
100
AcDbSymbolTableRecord
100
AcDbBlockTableRecord
  2
*MODEL_SPACE
340
159B3
  0
BLOCK_RECORD
  5
747A
330
7466
100
AcDbSymbolTableRecord
100
AcDbBlockTableRecord
  2
*PAPER_SPACE
340
159B4
  0
BLOCK_RECORD
  5
F770
330
7466
100
AcDbSymbolTableRecord
100
AcDbBlockTableRecord
  2
_DOTSMALL
340
0
102
{BLKREFS
331
20768
331
20769
331
20771
331
20772
331
2077A
331
2077B
331
20783
331
20784
331
2078C
331
2078D
331
20795
331
20796
331
2079E
331
2079F
331
207A9
331
207AA
331
207B2
331
207B3
331
207BB
331
207BC
331
207C6
331
207C7
331
207D1
331
207D2
331
207DA
331
207DB
331
207E3
331
207E4
331
207EC
331
207ED
331
207F5
331
207F6
102
}
  0
BLOCK_RECORD
  5
1C530
330
7466
100
AcDbSymbolTableRecord
100
AcDbBlockTableRecord
  2
_NONE
340
0
  0
BLOCK_RECORD
  5
1F765
330
7466
100
AcDbSymbolTableRecord
100
AcDbBlockTableRecord
  2
*D2
340
0
  0
BLOCK_RECORD
  5
1F771
330
7466
100
AcDbSymbolTableRecord
100
AcDbBlockTableRecord
  2
*D3
340
0
  0
BLOCK_RECORD
  5
1F77D
330
7466
100
AcDbSymbolTableRecord
100
AcDbBlockTableRecord
  2
*D4
340
0
  0
BLOCK_RECORD
  5
1F789
330
7466
100
AcDbSymbolTableRecord
100
AcDbBlockTableRecord
  2
*D5
340
0
  0
BLOCK_RECORD
  5
1F797
330
7466
100
AcDbSymbolTableRecord
100
AcDbBlockTableRecord
  2
*D6
340
0
  0
BLOCK_RECORD
  5
1F7A5
330
7466
100
AcDbSymbolTableRecord
100
AcDbBlockTableRecord
  2
*D7
340
0
  0
BLOCK_RECORD
  5
1F7B1
330
7466
100
AcDbSymbolTableRecord
100
AcDbBlockTableRecord
  2
*D8
340
0
  0
BLOCK_RECORD
  5
1F7BD
330
7466
100
AcDbSymbolTableRecord
100
AcDbBlockTableRecord
  2
*D9
340
0
  0
BLOCK_RECORD
  5
1F7CB
330
7466
100
AcDbSymbolTableRecord
100
AcDbBlockTableRecord
  2
*D10
340
0
  0
BLOCK_RECORD
  5
1F7D7
330
7466
100
AcDbSymbolTableRecord
100
AcDbBlockTableRecord
  2
*D11
340
0
  0
BLOCK_RECORD
  5
1F98D
330
7466
100
AcDbSymbolTableRecord
100
AcDbBlockTableRecord
  2
*D12
340
0
  0
BLOCK_RECORD
  5
1F999
330
7466
100
AcDbSymbolTableRecord
100
AcDbBlockTableRecord
  2
*D13
340
0
  0
BLOCK_RECORD
  5
20711
330
7466
100
AcDbSymbolTableRecord
100
AcDbBlockTableRecord
  2
*D14
340
0
  0
BLOCK_RECORD
  5
2071D
330
7466
100
AcDbSymbolTableRecord
100
AcDbBlockTableRecord
  2
*D15
340
0
  0
BLOCK_RECORD
  5
20729
330
7466
100
AcDbSymbolTableRecord
100
AcDbBlockTableRecord
  2
*D16
340
0
  0
BLOCK_RECORD
  5
20735
330
7466
100
AcDbSymbolTableRecord
100
AcDbBlockTableRecord
  2
*D17
340
0
  0
ENDTAB
  0
ENDSEC
  0
SECTION
  2
BLOCKS
  0
BLOCK
  5
7489
330
747D
100
AcDbEntity
  8
0
100
AcDbBlockBegin
  2
*MODEL_SPACE
 70
     0
 10
0.0
 20
0.0
 30
0.0
  3
*MODEL_SPACE
  1

  0
ENDBLK
  5
748A
330
747D
100
AcDbEntity
  8
0
100
AcDbBlockEnd
  0
BLOCK
  5
7487
330
747A
100
AcDbEntity
 67
     1
  8
0
100
AcDbBlockBegin
  2
*PAPER_SPACE
 70
     0
 10
0.0
 20
0.0
 30
0.0
  3
*PAPER_SPACE
  1

  0
ENDBLK
  5
7488
330
747A
100
AcDbEntity
 67
     1
  8
0
100
AcDbBlockEnd
  0
BLOCK
  5
F771
330
F770
100
AcDbEntity
  8
0
 48
50.0
100
AcDbBlockBegin
  2
_DOTSMALL
 70
     0
 10
0.0
 20
0.0
 30
0.0
  3
_DOTSMALL
  1

  0
LWPOLYLINE
  5
F772
330
F770
100
AcDbEntity
  8
0
  6
ByBlock
 62
     0
 48
50.0
100
AcDbPolyline
 90
        2
 70
     1
 43
0.5
 10
-0.0625
 20
0.0
 42
1.0
 10
0.0625
 20
0.0
 42
1.0
  0
ENDBLK
  5
F776
330
F770
100
AcDbEntity
  8
0
 48
50.0
100
AcDbBlockEnd
  0
BLOCK
  5
1C531
330
1C530
100
AcDbEntity
  8
0
 48
50.0
100
AcDbBlockBegin
  2
_NONE
 70
     0
 10
0.0
 20
0.0
 30
0.0
  3
_NONE
  1

  0
CIRCLE
  5
1C532
330
1C530
100
AcDbEntity
  8
0
  6
ByBlock
 62
     0
 48
50.0
100
AcDbCircle
 10
0.0
 20
0.0
 30
0.0
 40
0.25
  0
ENDBLK
  5
1C533
330
1C530
100
AcDbEntity
  8
0
 48
50.0
100
AcDbBlockEnd
  0
BLOCK
  5
1F76F
330
1F765
100
AcDbEntity
  8
0
 48
50.0
100
AcDbBlockBegin
  2
*D2
 70
     1
 10
0.0
 20
0.0
 30
0.0
  3
*D2
  1

  0
LINE
  5
207E9
330
1F765
100
AcDbEntity
  8
寸法
 62
     0
 48
50.0
370
    -2
100
AcDbLine
 10
8809.644625212591
 20
7944.007639154794
 30
0.0
 11
8809.644625212591
 21
8492.63187629076
 31
0.0
  0
LINE
  5
207EA
330
1F765
100
AcDbEntity
  8
寸法
 62
     0
 48
50.0
370
    -2
100
AcDbLine
 10
9608.644625212592
 20
7944.007639154797
 30
0.0
 11
9608.644625212592
 21
8492.63187629076
 31
0.0
  0
LINE
  5
207EB
330
1F765
100
AcDbEntity
  8
寸法
 62
     0
 48
50.0
370
    -2
100
AcDbLine
 10
8809.644625212591
 20
8432.631876290759
 30
0.0
 11
9608.644625212592
 21
8432.631876290759
 31
0.0
  0
INSERT
  5
207EC
330
1F765
100
AcDbEntity
  8
寸法
 62
     0
 48
50.0
370
    -2
100
AcDbBlockReference
  2
_DOTSMALL
 10
8809.644625212591
 20
8432.631876290759
 30
0.0
 41
100.0
 42
100.0
 43
100.0
 50
180.0
  0
INSERT
  5
207ED
330
1F765
100
AcDbEntity
  8
寸法
 62
     0
 48
50.0
370
    -2
100
AcDbBlockReference
  2
_DOTSMALL
 10
9608.644625212592
 20
8432.631876290759
 30
0.0
 41
100.0
 42
100.0
 43
100.0
  0
MTEXT
  5
207EE
330
1F765
100
AcDbEntity
  8
寸法
 62
     7
 48
50.0
100
AcDbMText
 10
9209.144625212593
 20
8532.631876290759
 30
0.0
 40
120.0
 41
0.0
 71
     5
 72
     1
  1
\A1;799
  7
STYLE1
 73
     1
 44
1.0
1001
ACAD
1000
MTEXTBEGIN
1070
    73
1070
     1
1070
    44
1040
1.0
1070
    74
1070
     0
1000
MTEXTEND
  0
POINT
  5
207EF
330
1F765
100
AcDbEntity
  8
DEFPOINTS
 62
     0
 48
50.0
100
AcDbPoint
 10
8809.644625212591
 20
7924.007639154794
 30
0.0
  0
POINT
  5
207F0
330
1F765
100
AcDbEntity
  8
DEFPOINTS
 62
     0
 48
50.0
100
AcDbPoint
 10
9608.644625212592
 20
7924.007639154797
 30
0.0
  0
POINT
  5
207F1
330
1F765
100
AcDbEntity
  8
DEFPOINTS
 62
     0
 48
50.0
100
AcDbPoint
 10
9608.644625212592
 20
8432.631876290759
 30
0.0
  0
ENDBLK
  5
1F770
330
1F765
100
AcDbEntity
  8
0
 48
50.0
100
AcDbBlockEnd
  0
BLOCK
  5
1F77B
330
1F771
100
AcDbEntity
  8
0
 48
50.0
100
AcDbBlockBegin
  2
*D3
 70
     1
 10
0.0
 20
0.0
 30
0.0
  3
*D3
  1

  0
LINE
  5
207E0
330
1F771
100
AcDbEntity
  8
寸法
 62
     0
 48
50.0
370
    -2
100
AcDbLine
 10
7355.644625212592
 20
7944.007639154797
 30
0.0
 11
7355.644625212592
 21
8492.63187629076
 31
0.0
  0
LINE
  5
207E1
330
1F771
100
AcDbEntity
  8
寸法
 62
     0
 48
50.0
370
    -2
100
AcDbLine
 10
6556.644625212591
 20
7944.007639154797
 30
0.0
 11
6556.644625212591
 21
8492.63187629076
 31
0.0
  0
LINE
  5
207E2
330
1F771
100
AcDbEntity
  8
寸法
 62
     0
 48
50.0
370
    -2
100
AcDbLine
 10
7355.644625212592
 20
8432.631876290759
 30
0.0
 11
6556.644625212591
 21
8432.631876290759
 31
0.0
  0
INSERT
  5
207E3
330
1F771
100
AcDbEntity
  8
寸法
 62
     0
 48
50.0
370
    -2
100
AcDbBlockReference
  2
_DOTSMALL
 10
7355.644625212592
 20
8432.631876290759
 30
0.0
 41
100.0
 42
100.0
 43
100.0
  0
INSERT
  5
207E4
330
1F771
100
AcDbEntity
  8
寸法
 62
     0
 48
50.0
370
    -2
100
AcDbBlockReference
  2
_DOTSMALL
 10
6556.644625212591
 20
8432.631876290759
 30
0.0
 41
100.0
 42
100.0
 43
100.0
 50
180.0
  0
MTEXT
  5
207E5
330
1F771
100
AcDbEntity
  8
寸法
 62
     7
 48
50.0
100
AcDbMText
 10
6956.144625212592
 20
8532.631876290759
 30
0.0
 40
120.0
 41
0.0
 71
     5
 72
     1
  1
\A1;799
  7
STYLE1
 73
     1
 44
1.0
1001
ACAD
1000
MTEXTBEGIN
1070
    73
1070
     1
1070
    44
1040
1.0
1070
    74
1070
     0
1000
MTEXTEND
  0
POINT
  5
207E6
330
1F771
100
AcDbEntity
  8
DEFPOINTS
 62
     0
 48
50.0
100
AcDbPoint
 10
7355.644625212592
 20
7924.007639154797
 30
0.0
  0
POINT
  5
207E7
330
1F771
100
AcDbEntity
  8
DEFPOINTS
 62
     0
 48
50.0
100
AcDbPoint
 10
6556.644625212591
 20
7924.007639154797
 30
0.0
  0
POINT
  5
207E8
330
1F771
100
AcDbEntity
  8
DEFPOINTS
 62
     0
 48
50.0
100
AcDbPoint
 10
6556.644625212591
 20
8432.631876290759
 30
0.0
  0
ENDBLK
  5
1F77C
330
1F771
100
AcDbEntity
  8
0
 48
50.0
100
AcDbBlockEnd
  0
BLOCK
  5
1F787
330
1F77D
100
AcDbEntity
  8
0
 48
50.0
100
AcDbBlockBegin
  2
*D4
 70
     1
 10
0.0
 20
0.0
 30
0.0
  3
*D4
  1

  0
LINE
  5
207D7
330
1F77D
100
AcDbEntity
  8
寸法
 62
     0
 48
50.0
370
    -2
100
AcDbLine
 10
7355.644625212592
 20
7944.007639154797
 30
0.0
 11
7355.644625212592
 21
8492.63187629076
 31
0.0
  0
LINE
  5
207D8
330
1F77D
100
AcDbEntity
  8
寸法
 62
     0
 48
50.0
370
    -2
100
AcDbLine
 10
8082.644625212592
 20
7944.007639154797
 30
0.0
 11
8082.644625212592
 21
8492.63187629076
 31
0.0
  0
LINE
  5
207D9
330
1F77D
100
AcDbEntity
  8
寸法
 62
     0
 48
50.0
370
    -2
100
AcDbLine
 10
7355.644625212592
 20
8432.631876290759
 30
0.0
 11
8082.644625212592
 21
8432.631876290759
 31
0.0
  0
INSERT
  5
207DA
330
1F77D
100
AcDbEntity
  8
寸法
 62
     0
 48
50.0
370
    -2
100
AcDbBlockReference
  2
_DOTSMALL
 10
7355.644625212592
 20
8432.631876290759
 30
0.0
 41
100.0
 42
100.0
 43
100.0
 50
180.0
  0
INSERT
  5
207DB
330
1F77D
100
AcDbEntity
  8
寸法
 62
     0
 48
50.0
370
    -2
100
AcDbBlockReference
  2
_DOTSMALL
 10
8082.644625212592
 20
8432.631876290759
 30
0.0
 41
100.0
 42
100.0
 43
100.0
  0
MTEXT
  5
207DC
330
1F77D
100
AcDbEntity
  8
寸法
 62
     7
 48
50.0
100
AcDbMText
 10
7719.144625212591
 20
8532.643687314381
 30
0.0
 40
120.0
 41
0.0
 71
     5
 72
     1
  1
\A1;727
  7
STYLE1
 73
     1
 44
1.0
1001
ACAD
1000
MTEXTBEGIN
1070
    73
1070
     1
1070
    44
1040
1.0
1070
    74
1070
     0
1000
MTEXTEND
  0
POINT
  5
207DD
330
1F77D
100
AcDbEntity
  8
DEFPOINTS
 62
     0
 48
50.0
100
AcDbPoint
 10
7355.644625212592
 20
7924.007639154797
 30
0.0
  0
POINT
  5
207DE
330
1F77D
100
AcDbEntity
  8
DEFPOINTS
 62
     0
 48
50.0
100
AcDbPoint
 10
8082.644625212592
 20
7924.007639154797
 30
0.0
  0
POINT
  5
207DF
330
1F77D
100
AcDbEntity
  8
DEFPOINTS
 62
     0
 48
50.0
100
AcDbPoint
 10
8082.644625212592
 20
8432.631876290759
 30
0.0
  0
ENDBLK
  5
1F788
330
1F77D
100
AcDbEntity
  8
0
 48
50.0
100
AcDbBlockEnd
  0
BLOCK
  5
1F795
330
1F789
100
AcDbEntity
  8
0
 48
50.0
100
AcDbBlockBegin
  2
*D5
 70
     1
 10
0.0
 20
0.0
 30
0.0
  3
*D5
  1

  0
LINE
  5
207CC
330
1F789
100
AcDbEntity
  8
寸法
 62
     0
 48
50.0
370
    -2
100
AcDbLine
 10
9608.644625212592
 20
7944.007639154797
 30
0.0
 11
9608.644625212592
 21
8750.559264956818
 31
0.0
  0
LINE
  5
207CD
330
1F789
100
AcDbEntity
  8
寸法
 62
     0
 48
50.0
370
    -2
100
AcDbLine
 10
9658.644625212593
 20
8024.007639154801
 30
0.0
 11
9658.644625212593
 21
8750.559264956818
 31
0.0
  0
LINE
  5
207CE
330
1F789
100
AcDbEntity
  8
寸法
 62
     0
 48
50.0
370
    -2
100
AcDbLine
 10
9608.644625212592
 20
8690.559264956819
 30
0.0
 11
9508.644625212593
 21
8690.559264956819
 31
0.0
  0
LINE
  5
207CF
330
1F789
100
AcDbEntity
  8
寸法
 62
     0
 48
50.0
370
    -2
100
AcDbLine
 10
9658.644625212593
 20
8690.559264956819
 30
0.0
 11
9758.644625212593
 21
8690.559264956819
 31
0.0
  0
LINE
  5
207D0
330
1F789
100
AcDbEntity
  8
寸法
 62
     0
 48
50.0
370
    -2
100
AcDbLine
 10
9608.644625212592
 20
8690.559264956819
 30
0.0
 11
9658.644625212593
 21
8690.559264956819
 31
0.0
  0
INSERT
  5
207D1
330
1F789
100
AcDbEntity
  8
寸法
 62
     0
 48
50.0
370
    -2
100
AcDbBlockReference
  2
_DOTSMALL
 10
9608.644625212592
 20
8690.559264956819
 30
0.0
 41
100.0
 42
100.0
 43
100.0
  0
INSERT
  5
207D2
330
1F789
100
AcDbEntity
  8
寸法
 62
     0
 48
50.0
370
    -2
100
AcDbBlockReference
  2
_DOTSMALL
 10
9658.644625212593
 20
8690.559264956819
 30
0.0
 41
100.0
 42
100.0
 43
100.0
 50
180.0
  0
MTEXT
  5
207D3
330
1F789
100
AcDbEntity
  8
寸法
 62
     7
 48
50.0
100
AcDbMText
 10
9633.644625212593
 20
8790.559264956819
 30
0.0
 40
120.0
 41
0.0
 71
     5
 72
     1
  1
\A1;a
  7
STYLE1
 73
     1
 44
1.0
1001
ACAD
1000
MTEXTBEGIN
1070
    73
1070
     1
1070
    44
1040
1.0
1070
    74
1070
     0
1000
MTEXTEND
  0
POINT
  5
207D4
330
1F789
100
AcDbEntity
  8
DEFPOINTS
 62
     0
 48
50.0
100
AcDbPoint
 10
9608.644625212592
 20
7924.007639154797
 30
0.0
  0
POINT
  5
207D5
330
1F789
100
AcDbEntity
  8
DEFPOINTS
 62
     0
 48
50.0
100
AcDbPoint
 10
9658.644625212593
 20
8004.007639154801
 30
0.0
  0
POINT
  5
207D6
330
1F789
100
AcDbEntity
  8
DEFPOINTS
 62
     0
 48
50.0
100
AcDbPoint
 10
9658.644625212593
 20
8690.559264956819
 30
0.0
  0
ENDBLK
  5
1F796
330
1F789
100
AcDbEntity
  8
0
 48
50.0
100
AcDbBlockEnd
  0
BLOCK
  5
1F7A3
330
1F797
100
AcDbEntity
  8
0
 48
50.0
100
AcDbBlockBegin
  2
*D6
 70
     1
 10
0.0
 20
0.0
 30
0.0
  3
*D6
  1

  0
LINE
  5
207C1
330
1F797
100
AcDbEntity
  8
寸法
 62
     0
 48
50.0
370
    -2
100
AcDbLine
 10
6506.644625212591
 20
8024.007639154797
 30
0.0
 11
6506.644625212591
 21
8750.559264956818
 31
0.0
  0
LINE
  5
207C2
330
1F797
100
AcDbEntity
  8
寸法
 62
     0
 48
50.0
370
    -2
100
AcDbLine
 10
6556.644625212591
 20
7944.007639154797
 30
0.0
 11
6556.644625212591
 21
8750.559264956818
 31
0.0
  0
LINE
  5
207C3
330
1F797
100
AcDbEntity
  8
寸法
 62
     0
 48
50.0
370
    -2
100
AcDbLine
 10
6506.644625212591
 20
8690.559264956819
 30
0.0
 11
6406.644625212591
 21
8690.559264956819
 31
0.0
  0
LINE
  5
207C4
330
1F797
100
AcDbEntity
  8
寸法
 62
     0
 48
50.0
370
    -2
100
AcDbLine
 10
6556.644625212591
 20
8690.559264956819
 30
0.0
 11
6656.644625212591
 21
8690.559264956819
 31
0.0
  0
LINE
  5
207C5
330
1F797
100
AcDbEntity
  8
寸法
 62
     0
 48
50.0
370
    -2
100
AcDbLine
 10
6506.644625212591
 20
8690.559264956819
 30
0.0
 11
6556.644625212591
 21
8690.559264956819
 31
0.0
  0
INSERT
  5
207C6
330
1F797
100
AcDbEntity
  8
寸法
 62
     0
 48
50.0
370
    -2
100
AcDbBlockReference
  2
_DOTSMALL
 10
6506.644625212591
 20
8690.559264956819
 30
0.0
 41
100.0
 42
100.0
 43
100.0
  0
INSERT
  5
207C7
330
1F797
100
AcDbEntity
  8
寸法
 62
     0
 48
50.0
370
    -2
100
AcDbBlockReference
  2
_DOTSMALL
 10
6556.644625212591
 20
8690.559264956819
 30
0.0
 41
100.0
 42
100.0
 43
100.0
 50
180.0
  0
MTEXT
  5
207C8
330
1F797
100
AcDbEntity
  8
寸法
 62
     7
 48
50.0
100
AcDbMText
 10
6531.644625212591
 20
8790.559264956819
 30
0.0
 40
120.0
 41
0.0
 71
     5
 72
     1
  1
\A1;a
  7
STYLE1
 73
     1
 44
1.0
1001
ACAD
1000
MTEXTBEGIN
1070
    73
1070
     1
1070
    44
1040
1.0
1070
    74
1070
     0
1000
MTEXTEND
  0
POINT
  5
207C9
330
1F797
100
AcDbEntity
  8
DEFPOINTS
 62
     0
 48
50.0
100
AcDbPoint
 10
6506.644625212591
 20
8004.007639154798
 30
0.0
  0
POINT
  5
207CA
330
1F797
100
AcDbEntity
  8
DEFPOINTS
 62
     0
 48
50.0
100
AcDbPoint
 10
6556.644625212591
 20
7924.007639154797
 30
0.0
  0
POINT
  5
207CB
330
1F797
100
AcDbEntity
  8
DEFPOINTS
 62
     0
 48
50.0
100
AcDbPoint
 10
6556.644625212591
 20
8690.559264956819
 30
0.0
  0
ENDBLK
  5
1F7A4
330
1F797
100
AcDbEntity
  8
0
 48
50.0
100
AcDbBlockEnd
  0
BLOCK
  5
1F7AF
330
1F7A5
100
AcDbEntity
  8
0
 48
50.0
100
AcDbBlockBegin
  2
*D7
 70
     1
 10
0.0
 20
0.0
 30
0.0
  3
*D7
  1

  0
LINE
  5
207B8
330
1F7A5
100
AcDbEntity
  8
寸法
 62
     0
 48
50.0
370
    -2
100
AcDbLine
 10
6486.644625212591
 20
8004.007639154798
 30
0.0
 11
6055.932741763341
 21
8004.007639154798
 31
0.0
  0
LINE
  5
207B9
330
1F7A5
100
AcDbEntity
  8
寸法
 62
     0
 48
50.0
370
    -2
100
AcDbLine
 10
6536.644625212591
 20
7924.007639154797
 30
0.0
 11
6055.932741763341
 21
7924.007639154798
 31
0.0
  0
LINE
  5
207BA
330
1F7A5
100
AcDbEntity
  8
寸法
 62
     0
 48
50.0
370
    -2
100
AcDbLine
 10
6115.932741763341
 20
8004.007639154798
 30
0.0
 11
6115.932741763341
 21
7924.007639154798
 31
0.0
  0
INSERT
  5
207BB
330
1F7A5
100
AcDbEntity
  8
寸法
 62
     0
 48
50.0
370
    -2
100
AcDbBlockReference
  2
_DOTSMALL
 10
6115.932741763341
 20
8004.007639154798
 30
0.0
 41
100.0
 42
100.0
 43
100.0
 50
90.0
  0
INSERT
  5
207BC
330
1F7A5
100
AcDbEntity
  8
寸法
 62
     0
 48
50.0
370
    -2
100
AcDbBlockReference
  2
_DOTSMALL
 10
6115.932741763341
 20
7924.007639154798
 30
0.0
 41
100.0
 42
100.0
 43
100.0
 50
270.0
  0
MTEXT
  5
207BD
330
1F7A5
100
AcDbEntity
  8
寸法
 62
     7
 48
50.0
100
AcDbMText
 10
6015.93274176334
 20
7964.007639154799
 30
0.0
 40
120.0
 41
0.0
 71
     5
 72
     1
  1
\A1;c
  7
STYLE1
 11
0.0000000000000001
 21
1.0
 31
0.0
 73
     1
 44
1.0
1001
ACAD
1000
MTEXTBEGIN
1070
    73
1070
     1
1070
    44
1040
1.0
1070
    74
1070
     0
1000
MTEXTEND
  0
POINT
  5
207BE
330
1F7A5
100
AcDbEntity
  8
DEFPOINTS
 62
     0
 48
50.0
100
AcDbPoint
 10
6506.644625212591
 20
8004.007639154798
 30
0.0
  0
POINT
  5
207BF
330
1F7A5
100
AcDbEntity
  8
DEFPOINTS
 62
     0
 48
50.0
100
AcDbPoint
 10
6556.644625212591
 20
7924.007639154797
 30
0.0
  0
POINT
  5
207C0
330
1F7A5
100
AcDbEntity
  8
DEFPOINTS
 62
     0
 48
50.0
100
AcDbPoint
 10
6115.932741763341
 20
7924.007639154798
 30
0.0
  0
ENDBLK
  5
1F7B0
330
1F7A5
100
AcDbEntity
  8
0
 48
50.0
100
AcDbBlockEnd
  0
BLOCK
  5
1F7BB
330
1F7B1
100
AcDbEntity
  8
0
 48
50.0
100
AcDbBlockBegin
  2
*D8
 70
     1
 10
0.0
 20
0.0
 30
0.0
  3
*D8
  1

  0
LINE
  5
207AF
330
1F7B1
100
AcDbEntity
  8
寸法
 62
     0
 48
50.0
370
    -2
100
AcDbLine
 10
6536.644625212591
 20
7924.007639154797
 30
0.0
 11
6055.932741763347
 21
7924.007639154798
 31
0.0
  0
LINE
  5
207B0
330
1F7B1
100
AcDbEntity
  8
寸法
 62
     0
 48
50.0
370
    -2
100
AcDbLine
 10
6516.644625212575
 20
5292.007639154797
 30
0.0
 11
6055.932741763346
 21
5292.007639154798
 31
0.0
  0
LINE
  5
207B1
330
1F7B1
100
AcDbEntity
  8
寸法
 62
     0
 48
50.0
370
    -2
100
AcDbLine
 10
6115.932741763347
 20
7924.007639154798
 30
0.0
 11
6115.932741763345
 21
5292.007639154798
 31
0.0
  0
INSERT
  5
207B2
330
1F7B1
100
AcDbEntity
  8
寸法
 62
     0
 48
50.0
370
    -2
100
AcDbBlockReference
  2
_DOTSMALL
 10
6115.932741763347
 20
7924.007639154798
 30
0.0
 41
100.0
 42
100.0
 43
100.0
 50
90.0
  0
INSERT
  5
207B3
330
1F7B1
100
AcDbEntity
  8
寸法
 62
     0
 48
50.0
370
    -2
100
AcDbBlockReference
  2
_DOTSMALL
 10
6115.932741763345
 20
5292.007639154798
 30
0.0
 41
100.0
 42
100.0
 43
100.0
 50
270.0
  0
MTEXT
  5
207B4
330
1F7B1
100
AcDbEntity
  8
寸法
 62
     7
 48
50.0
100
AcDbMText
 10
6015.920930739723
 20
6608.007639154798
 30
0.0
 40
120.0
 41
0.0
 71
     5
 72
     1
  1
\A1;2632
  7
STYLE1
 11
0.0000000000000001
 21
1.0
 31
0.0
 73
     1
 44
1.0
1001
ACAD
1000
MTEXTBEGIN
1070
    73
1070
     1
1070
    44
1040
1.0
1070
    74
1070
     0
1000
MTEXTEND
  0
POINT
  5
207B5
330
1F7B1
100
AcDbEntity
  8
DEFPOINTS
 62
     0
 48
50.0
100
AcDbPoint
 10
6556.644625212591
 20
7924.007639154797
 30
0.0
  0
POINT
  5
207B6
330
1F7B1
100
AcDbEntity
  8
DEFPOINTS
 62
     0
 48
50.0
100
AcDbPoint
 10
6536.644625212575
 20
5292.007639154797
 30
0.0
  0
POINT
  5
207B7
330
1F7B1
100
AcDbEntity
  8
DEFPOINTS
 62
     0
 48
50.0
100
AcDbPoint
 10
6115.932741763345
 20
5292.007639154798
 30
0.0
  0
ENDBLK
  5
1F7BC
330
1F7B1
100
AcDbEntity
  8
0
 48
50.0
100
AcDbBlockEnd
  0
BLOCK
  5
1F7C9
330
1F7BD
100
AcDbEntity
  8
0
 48
50.0
100
AcDbBlockBegin
  2
*D9
 70
     1
 10
0.0
 20
0.0
 30
0.0
  3
*D9
  1

  0
LINE
  5
207A4
330
1F7BD
100
AcDbEntity
  8
寸法
 62
     0
 48
50.0
370
    -2
100
AcDbLine
 10
6536.644625212575
 20
5292.007639154797
 30
0.0
 11
6055.932741763324
 21
5292.007639154798
 31
0.0
  0
LINE
  5
207A5
330
1F7BD
100
AcDbEntity
  8
寸法
 62
     0
 48
50.0
370
    -2
100
AcDbLine
 10
6486.644625212576
 20
5232.007639154797
 30
0.0
 11
6055.932741763324
 21
5232.007639154798
 31
0.0
  0
LINE
  5
207A6
330
1F7BD
100
AcDbEntity
  8
寸法
 62
     0
 48
50.0
370
    -2
100
AcDbLine
 10
6115.932741763325
 20
5292.007639154798
 30
0.0
 11
6115.932741763325
 21
5392.007639154797
 31
0.0
  0
LINE
  5
207A7
330
1F7BD
100
AcDbEntity
  8
寸法
 62
     0
 48
50.0
370
    -2
100
AcDbLine
 10
6115.932741763325
 20
5232.007639154798
 30
0.0
 11
6115.932741763325
 21
5132.007639154799
 31
0.0
  0
LINE
  5
207A8
330
1F7BD
100
AcDbEntity
  8
寸法
 62
     0
 48
50.0
370
    -2
100
AcDbLine
 10
6115.932741763325
 20
5292.007639154798
 30
0.0
 11
6115.932741763325
 21
5232.007639154798
 31
0.0
  0
INSERT
  5
207A9
330
1F7BD
100
AcDbEntity
  8
寸法
 62
     0
 48
50.0
370
    -2
100
AcDbBlockReference
  2
_DOTSMALL
 10
6115.932741763325
 20
5292.007639154798
 30
0.0
 41
100.0
 42
100.0
 43
100.0
 50
270.0
  0
INSERT
  5
207AA
330
1F7BD
100
AcDbEntity
  8
寸法
 62
     0
 48
50.0
370
    -2
100
AcDbBlockReference
  2
_DOTSMALL
 10
6115.932741763325
 20
5232.007639154798
 30
0.0
 41
100.0
 42
100.0
 43
100.0
 50
90.0
  0
MTEXT
  5
207AB
330
1F7BD
100
AcDbEntity
  8
寸法
 62
     7
 48
50.0
100
AcDbMText
 10
6015.932741763324
 20
5262.007639154798
 30
0.0
 40
120.0
 41
0.0
 71
     5
 72
     1
  1
\A1;b
  7
STYLE1
 11
0.0000000000000001
 21
1.0
 31
0.0
 73
     1
 44
1.0
1001
ACAD
1000
MTEXTBEGIN
1070
    73
1070
     1
1070
    44
1040
1.0
1070
    74
1070
     0
1000
MTEXTEND
  0
POINT
  5
207AC
330
1F7BD
100
AcDbEntity
  8
DEFPOINTS
 62
     0
 48
50.0
100
AcDbPoint
 10
6556.644625212576
 20
5292.007639154797
 30
0.0
  0
POINT
  5
207AD
330
1F7BD
100
AcDbEntity
  8
DEFPOINTS
 62
     0
 48
50.0
100
AcDbPoint
 10
6506.644625212576
 20
5232.007639154797
 30
0.0
  0
POINT
  5
207AE
330
1F7BD
100
AcDbEntity
  8
DEFPOINTS
 62
     0
 48
50.0
100
AcDbPoint
 10
6115.932741763325
 20
5232.007639154798
 30
0.0
  0
ENDBLK
  5
1F7CA
330
1F7BD
100
AcDbEntity
  8
0
 48
50.0
100
AcDbBlockEnd
  0
BLOCK
  5
1F7D5
330
1F7CB
100
AcDbEntity
  8
0
 48
50.0
100
AcDbBlockBegin
  2
*D10
 70
     1
 10
0.0
 20
0.0
 30
0.0
  3
*D10
  1

  0
LINE
  5
2079B
330
1F7CB
100
AcDbEntity
  8
寸法
 62
     0
 48
50.0
370
    -2
100
AcDbLine
 10
6556.644625212591
 20
7944.007639154797
 30
0.0
 11
6556.644625212591
 21
8750.559264956818
 31
0.0
  0
LINE
  5
2079C
330
1F7CB
100
AcDbEntity
  8
寸法
 62
     0
 48
50.0
370
    -2
100
AcDbLine
 10
9608.644625212592
 20
7944.007639154797
 30
0.0
 11
9608.644625212592
 21
8750.559264956818
 31
0.0
  0
LINE
  5
2079D
330
1F7CB
100
AcDbEntity
  8
寸法
 62
     0
 48
50.0
370
    -2
100
AcDbLine
 10
6556.644625212591
 20
8690.559264956819
 30
0.0
 11
9608.644625212592
 21
8690.559264956819
 31
0.0
  0
INSERT
  5
2079E
330
1F7CB
100
AcDbEntity
  8
寸法
 62
     0
 48
50.0
370
    -2
100
AcDbBlockReference
  2
_DOTSMALL
 10
6556.644625212591
 20
8690.559264956819
 30
0.0
 41
100.0
 42
100.0
 43
100.0
 50
180.0
  0
INSERT
  5
2079F
330
1F7CB
100
AcDbEntity
  8
寸法
 62
     0
 48
50.0
370
    -2
100
AcDbBlockReference
  2
_DOTSMALL
 10
9608.644625212592
 20
8690.559264956819
 30
0.0
 41
100.0
 42
100.0
 43
100.0
  0
MTEXT
  5
207A0
330
1F7CB
100
AcDbEntity
  8
寸法
 62
     7
 48
50.0
100
AcDbMText
 10
8082.644625212592
 20
8790.571075980441
 30
0.0
 40
120.0
 41
0.0
 71
     5
 72
     1
  1
\A1;3052
  7
STYLE1
 73
     1
 44
1.0
1001
ACAD
1000
MTEXTBEGIN
1070
    73
1070
     1
1070
    44
1040
1.0
1070
    74
1070
     0
1000
MTEXTEND
  0
POINT
  5
207A1
330
1F7CB
100
AcDbEntity
  8
DEFPOINTS
 62
     0
 48
50.0
100
AcDbPoint
 10
6556.644625212591
 20
7924.007639154797
 30
0.0
  0
POINT
  5
207A2
330
1F7CB
100
AcDbEntity
  8
DEFPOINTS
 62
     0
 48
50.0
100
AcDbPoint
 10
9608.644625212592
 20
7924.007639154797
 30
0.0
  0
POINT
  5
207A3
330
1F7CB
100
AcDbEntity
  8
DEFPOINTS
 62
     0
 48
50.0
100
AcDbPoint
 10
9608.644625212592
 20
8690.559264956819
 30
0.0
  0
ENDBLK
  5
1F7D6
330
1F7CB
100
AcDbEntity
  8
0
 48
50.0
100
AcDbBlockEnd
  0
BLOCK
  5
1F7E1
330
1F7D7
100
AcDbEntity
  8
0
 48
50.0
100
AcDbBlockBegin
  2
*D11
 70
     1
 10
0.0
 20
0.0
 30
0.0
  3
*D11
  1

  0
LINE
  5
207F2
330
1F7D7
100
AcDbEntity
  8
寸法
 62
     0
 48
50.0
370
    -2
100
AcDbLine
 10
8082.644625212592
 20
7944.007639154797
 30
0.0
 11
8082.644625212592
 21
8492.63187629076
 31
0.0
  0
LINE
  5
207F3
330
1F7D7
100
AcDbEntity
  8
寸法
 62
     0
 48
50.0
370
    -2
100
AcDbLine
 10
8809.644625212591
 20
7944.007639154794
 30
0.0
 11
8809.644625212591
 21
8492.63187629076
 31
0.0
  0
LINE
  5
207F4
330
1F7D7
100
AcDbEntity
  8
寸法
 62
     0
 48
50.0
370
    -2
100
AcDbLine
 10
8082.644625212592
 20
8432.631876290759
 30
0.0
 11
8809.644625212591
 21
8432.631876290759
 31
0.0
  0
INSERT
  5
207F5
330
1F7D7
100
AcDbEntity
  8
寸法
 62
     0
 48
50.0
370
    -2
100
AcDbBlockReference
  2
_DOTSMALL
 10
8082.644625212592
 20
8432.631876290759
 30
0.0
 41
100.0
 42
100.0
 43
100.0
 50
180.0
  0
INSERT
  5
207F6
330
1F7D7
100
AcDbEntity
  8
寸法
 62
     0
 48
50.0
370
    -2
100
AcDbBlockReference
  2
_DOTSMALL
 10
8809.644625212591
 20
8432.631876290759
 30
0.0
 41
100.0
 42
100.0
 43
100.0
  0
MTEXT
  5
207F7
330
1F7D7
100
AcDbEntity
  8
寸法
 62
     7
 48
50.0
100
AcDbMText
 10
8446.144625212593
 20
8532.643687314381
 30
0.0
 40
120.0
 41
0.0
 71
     5
 72
     1
  1
\A1;727
  7
STYLE1
 73
     1
 44
1.0
1001
ACAD
1000
MTEXTBEGIN
1070
    73
1070
     1
1070
    44
1040
1.0
1070
    74
1070
     0
1000
MTEXTEND
  0
POINT
  5
207F8
330
1F7D7
100
AcDbEntity
  8
DEFPOINTS
 62
     0
 48
50.0
100
AcDbPoint
 10
8082.644625212592
 20
7924.007639154797
 30
0.0
  0
POINT
  5
207F9
330
1F7D7
100
AcDbEntity
  8
DEFPOINTS
 62
     0
 48
50.0
100
AcDbPoint
 10
8809.644625212591
 20
7924.007639154794
 30
0.0
  0
POINT
  5
207FA
330
1F7D7
100
AcDbEntity
  8
DEFPOINTS
 62
     0
 48
50.0
100
AcDbPoint
 10
8809.644625212591
 20
8432.631876290759
 30
0.0
  0
ENDBLK
  5
1F7E2
330
1F7D7
100
AcDbEntity
  8
0
 48
50.0
100
AcDbBlockEnd
  0
BLOCK
  5
1F997
330
1F98D
100
AcDbEntity
  8
0
 48
50.0
100
AcDbBlockBegin
  2
*D12
 70
     1
 10
0.0
 20
0.0
 30
0.0
  3
*D12
  1

  0
LINE
  5
20792
330
1F98D
100
AcDbEntity
  8
寸法
 62
     0
 48
50.0
370
    -2
100
AcDbLine
 10
9728.644625212574
 20
5392.007639154797
 30
0.0
 11
10057.70977272878
 21
5392.007639154797
 31
0.0
  0
LINE
  5
20793
330
1F98D
100
AcDbEntity
  8
寸法
 62
     0
 48
50.0
370
    -2
100
AcDbLine
 10
9728.644625212576
 20
5192.007639154796
 30
0.0
 11
10057.70977272878
 21
5192.007639154796
 31
0.0
  0
LINE
  5
20794
330
1F98D
100
AcDbEntity
  8
寸法
 62
     0
 48
50.0
370
    -2
100
AcDbLine
 10
9997.709772728784
 20
5392.007639154797
 30
0.0
 11
9997.709772728784
 21
5192.007639154796
 31
0.0
  0
INSERT
  5
20795
330
1F98D
100
AcDbEntity
  8
寸法
 62
     0
 48
50.0
370
    -2
100
AcDbBlockReference
  2
_DOTSMALL
 10
9997.709772728784
 20
5392.007639154797
 30
0.0
 41
100.0
 42
100.0
 43
100.0
 50
90.0
  0
INSERT
  5
20796
330
1F98D
100
AcDbEntity
  8
寸法
 62
     0
 48
50.0
370
    -2
100
AcDbBlockReference
  2
_DOTSMALL
 10
9997.709772728784
 20
5192.007639154796
 30
0.0
 41
100.0
 42
100.0
 43
100.0
 50
270.0
  0
MTEXT
  5
20797
330
1F98D
100
AcDbEntity
  8
寸法
 62
     7
 48
50.0
100
AcDbMText
 10
9897.69796170516
 20
5292.007639154797
 30
0.0
 40
120.0
 41
0.0
 71
     5
 72
     1
  1
\A1;200
  7
STYLE1
 11
0.0000000000000001
 21
1.0
 31
0.0
 73
     1
 44
1.0
1001
ACAD
1000
MTEXTBEGIN
1070
    73
1070
     1
1070
    44
1040
1.0
1070
    74
1070
     0
1000
MTEXTEND
  0
POINT
  5
20798
330
1F98D
100
AcDbEntity
  8
DEFPOINTS
 62
     0
 48
50.0
100
AcDbPoint
 10
9708.644625212574
 20
5392.007639154797
 30
0.0
  0
POINT
  5
20799
330
1F98D
100
AcDbEntity
  8
DEFPOINTS
 62
     0
 48
50.0
100
AcDbPoint
 10
9708.644625212576
 20
5192.007639154796
 30
0.0
  0
POINT
  5
2079A
330
1F98D
100
AcDbEntity
  8
DEFPOINTS
 62
     0
 48
50.0
100
AcDbPoint
 10
9997.709772728784
 20
5192.007639154796
 30
0.0
  0
ENDBLK
  5
1F998
330
1F98D
100
AcDbEntity
  8
0
 48
50.0
100
AcDbBlockEnd
  0
BLOCK
  5
1F9A3
330
1F999
100
AcDbEntity
  8
0
 48
50.0
100
AcDbBlockBegin
  2
*D13
 70
     1
 10
0.0
 20
0.0
 30
0.0
  3
*D13
  1

  0
LINE
  5
20789
330
1F999
100
AcDbEntity
  8
寸法
 62
     0
 48
50.0
370
    -2
100
AcDbLine
 10
9708.644625212576
 20
5172.007639154796
 30
0.0
 11
9708.644625212576
 21
4878.682154209332
 31
0.0
  0
LINE
  5
2078A
330
1F999
100
AcDbEntity
  8
寸法
 62
     0
 48
50.0
370
    -2
100
AcDbLine
 10
9508.644625212575
 20
5172.007639154796
 30
0.0
 11
9508.644625212575
 21
4878.682154209332
 31
0.0
  0
LINE
  5
2078B
330
1F999
100
AcDbEntity
  8
寸法
 62
     0
 48
50.0
370
    -2
100
AcDbLine
 10
9708.644625212576
 20
4938.682154209333
 30
0.0
 11
9508.644625212575
 21
4938.682154209333
 31
0.0
  0
INSERT
  5
2078C
330
1F999
100
AcDbEntity
  8
寸法
 62
     0
 48
50.0
370
    -2
100
AcDbBlockReference
  2
_DOTSMALL
 10
9708.644625212576
 20
4938.682154209333
 30
0.0
 41
100.0
 42
100.0
 43
100.0
  0
INSERT
  5
2078D
330
1F999
100
AcDbEntity
  8
寸法
 62
     0
 48
50.0
370
    -2
100
AcDbBlockReference
  2
_DOTSMALL
 10
9508.644625212575
 20
4938.682154209333
 30
0.0
 41
100.0
 42
100.0
 43
100.0
 50
180.0
  0
MTEXT
  5
2078E
330
1F999
100
AcDbEntity
  8
寸法
 62
     7
 48
50.0
100
AcDbMText
 10
9608.644625212576
 20
5038.693965232955
 30
0.0
 40
120.0
 41
0.0
 71
     5
 72
     1
  1
\A1;200
  7
STYLE1
 73
     1
 44
1.0
1001
ACAD
1000
MTEXTBEGIN
1070
    73
1070
     1
1070
    44
1040
1.0
1070
    74
1070
     0
1000
MTEXTEND
  0
POINT
  5
2078F
330
1F999
100
AcDbEntity
  8
DEFPOINTS
 62
     0
 48
50.0
100
AcDbPoint
 10
9708.644625212576
 20
5192.007639154796
 30
0.0
  0
POINT
  5
20790
330
1F999
100
AcDbEntity
  8
DEFPOINTS
 62
     0
 48
50.0
100
AcDbPoint
 10
9508.644625212575
 20
5192.007639154796
 30
0.0
  0
POINT
  5
20791
330
1F999
100
AcDbEntity
  8
DEFPOINTS
 62
     0
 48
50.0
100
AcDbPoint
 10
9508.644625212575
 20
4938.682154209333
 30
0.0
  0
ENDBLK
  5
1F9A4
330
1F999
100
AcDbEntity
  8
0
 48
50.0
100
AcDbBlockEnd
  0
BLOCK
  5
2071B
330
20711
100
AcDbEntity
  8
0
 48
50.0
100
AcDbBlockBegin
  2
*D14
 70
     1
 10
0.0
 20
0.0
 30
0.0
  3
*D14
  1

  0
LINE
  5
20780
330
20711
100
AcDbEntity
  8
寸法
 62
     0
 48
50.0
370
    -2
100
AcDbLine
 10
6135.863935877075
 20
1267.170122259038
 30
0.0
 11
6002.534188801544
 21
1267.170122259038
 31
0.0
  0
LINE
  5
20781
330
20711
100
AcDbEntity
  8
寸法
 62
     0
 48
50.0
370
    -2
100
AcDbLine
 10
6285.863935877074
 20
867.1701222590382
 30
0.0
 11
6002.534188801544
 21
867.1701222590382
 31
0.0
  0
LINE
  5
20782
330
20711
100
AcDbEntity
  8
寸法
 62
     0
 48
50.0
370
    -2
100
AcDbLine
 10
6062.534188801545
 20
1267.170122259038
 30
0.0
 11
6062.534188801545
 21
867.1701222590382
 31
0.0
  0
INSERT
  5
20783
330
20711
100
AcDbEntity
  8
寸法
 62
     0
 48
50.0
370
    -2
100
AcDbBlockReference
  2
_DOTSMALL
 10
6062.534188801545
 20
1267.170122259038
 30
0.0
 41
100.0
 42
100.0
 43
100.0
 50
90.0
  0
INSERT
  5
20784
330
20711
100
AcDbEntity
  8
寸法
 62
     0
 48
50.0
370
    -2
100
AcDbBlockReference
  2
_DOTSMALL
 10
6062.534188801545
 20
867.1701222590382
 30
0.0
 41
100.0
 42
100.0
 43
100.0
 50
270.0
  0
MTEXT
  5
20785
330
20711
100
AcDbEntity
  8
寸法
 62
     7
 48
50.0
100
AcDbMText
 10
5962.522377777923
 20
1054.794755374943
 30
0.0
 40
120.0
 41
0.0
 71
     5
 72
     1
  1
\A1;200
  7
STYLE1
 11
0.0000000000000001
 21
1.0
 31
0.0
 73
     1
 44
1.0
1001
ACAD
1000
MTEXTBEGIN
1070
    73
1070
     1
1070
    44
1040
1.0
1070
    74
1070
     0
1000
MTEXTEND
  0
POINT
  5
20786
330
20711
100
AcDbEntity
  8
DEFPOINTS
 62
     0
 48
50.0
100
AcDbPoint
 10
6155.863935877074
 20
1267.170122259038
 30
0.0
  0
POINT
  5
20787
330
20711
100
AcDbEntity
  8
DEFPOINTS
 62
     0
 48
50.0
100
AcDbPoint
 10
6305.863935877074
 20
867.1701222590382
 30
0.0
  0
POINT
  5
20788
330
20711
100
AcDbEntity
  8
DEFPOINTS
 62
     0
 48
50.0
100
AcDbPoint
 10
6062.534188801545
 20
867.1701222590382
 30
0.0
  0
ENDBLK
  5
2071C
330
20711
100
AcDbEntity
  8
0
 48
50.0
100
AcDbBlockEnd
  0
BLOCK
  5
20727
330
2071D
100
AcDbEntity
  8
0
 48
50.0
100
AcDbBlockBegin
  2
*D15
 70
     1
 10
0.0
 20
0.0
 30
0.0
  3
*D15
  1

  0
LINE
  5
20777
330
2071D
100
AcDbEntity
  8
寸法
 62
     0
 48
50.0
370
    -2
100
AcDbLine
 10
8189.470199995684
 20
1467.17012225904
 30
0.0
 11
8451.683447458583
 21
1467.17012225904
 31
0.0
  0
LINE
  5
20778
330
2071D
100
AcDbEntity
  8
寸法
 62
     0
 48
50.0
370
    -2
100
AcDbLine
 10
8208.919436890175
 20
1267.170122259038
 30
0.0
 11
8451.683447458583
 21
1267.170122259038
 31
0.0
  0
LINE
  5
20779
330
2071D
100
AcDbEntity
  8
寸法
 62
     0
 48
50.0
370
    -2
100
AcDbLine
 10
8391.683447458582
 20
1467.17012225904
 30
0.0
 11
8391.683447458582
 21
1267.170122259038
 31
0.0
  0
INSERT
  5
2077A
330
2071D
100
AcDbEntity
  8
寸法
 62
     0
 48
50.0
370
    -2
100
AcDbBlockReference
  2
_DOTSMALL
 10
8391.683447458582
 20
1467.17012225904
 30
0.0
 41
100.0
 42
100.0
 43
100.0
 50
90.0
  0
INSERT
  5
2077B
330
2071D
100
AcDbEntity
  8
寸法
 62
     0
 48
50.0
370
    -2
100
AcDbBlockReference
  2
_DOTSMALL
 10
8391.683447458582
 20
1267.170122259038
 30
0.0
 41
100.0
 42
100.0
 43
100.0
 50
270.0
  0
MTEXT
  5
2077C
330
2071D
100
AcDbEntity
  8
寸法
 62
     7
 48
50.0
100
AcDbMText
 10
8291.683447458582
 20
1367.17012225904
 30
0.0
 40
120.0
 41
0.0
 71
     5
 72
     1
  1
\A1;b
  7
STYLE1
 11
0.0000000000000001
 21
1.0
 31
0.0
 73
     1
 44
1.0
1001
ACAD
1000
MTEXTBEGIN
1070
    73
1070
     1
1070
    44
1040
1.0
1070
    74
1070
     0
1000
MTEXTEND
  0
POINT
  5
2077D
330
2071D
100
AcDbEntity
  8
DEFPOINTS
 62
     0
 48
50.0
100
AcDbPoint
 10
8169.470199995684
 20
1467.17012225904
 30
0.0
  0
POINT
  5
2077E
330
2071D
100
AcDbEntity
  8
DEFPOINTS
 62
     0
 48
50.0
100
AcDbPoint
 10
8188.919436890174
 20
1267.170122259038
 30
0.0
  0
POINT
  5
2077F
330
2071D
100
AcDbEntity
  8
DEFPOINTS
 62
     0
 48
50.0
100
AcDbPoint
 10
8391.683447458582
 20
1267.170122259038
 30
0.0
  0
ENDBLK
  5
20728
330
2071D
100
AcDbEntity
  8
0
 48
50.0
100
AcDbBlockEnd
  0
BLOCK
  5
20733
330
20729
100
AcDbEntity
  8
0
 48
50.0
100
AcDbBlockBegin
  2
*D16
 70
     1
 10
0.0
 20
0.0
 30
0.0
  3
*D16
  1

  0
LINE
  5
2076E
330
20729
100
AcDbEntity
  8
寸法
 62
     0
 48
50.0
370
    -2
100
AcDbLine
 10
9689.363133512824
 20
1567.170122259038
 30
0.0
 11
9931.99868722994
 21
1567.170122259038
 31
0.0
  0
LINE
  5
2076F
330
20729
100
AcDbEntity
  8
寸法
 62
     0
 48
50.0
370
    -2
100
AcDbLine
 10
9719.252041603155
 20
1267.170122259038
 30
0.0
 11
9931.99868722994
 21
1267.170122259038
 31
0.0
  0
LINE
  5
20770
330
20729
100
AcDbEntity
  8
寸法
 62
     0
 48
50.0
370
    -2
100
AcDbLine
 10
9871.99868722994
 20
1567.170122259038
 30
0.0
 11
9871.99868722994
 21
1267.170122259038
 31
0.0
  0
INSERT
  5
20771
330
20729
100
AcDbEntity
  8
寸法
 62
     0
 48
50.0
370
    -2
100
AcDbBlockReference
  2
_DOTSMALL
 10
9871.99868722994
 20
1567.170122259038
 30
0.0
 41
100.0
 42
100.0
 43
100.0
 50
90.0
  0
INSERT
  5
20772
330
20729
100
AcDbEntity
  8
寸法
 62
     0
 48
50.0
370
    -2
100
AcDbBlockReference
  2
_DOTSMALL
 10
9871.99868722994
 20
1267.170122259038
 30
0.0
 41
100.0
 42
100.0
 43
100.0
 50
270.0
  0
MTEXT
  5
20773
330
20729
100
AcDbEntity
  8
寸法
 62
     7
 48
50.0
100
AcDbMText
 10
9771.99868722994
 20
1417.170122259039
 30
0.0
 40
120.0
 41
0.0
 71
     5
 72
     1
  1
\A1;c
  7
STYLE1
 11
0.0000000000000001
 21
1.0
 31
0.0
 73
     1
 44
1.0
1001
ACAD
1000
MTEXTBEGIN
1070
    73
1070
     1
1070
    44
1040
1.0
1070
    74
1070
     0
1000
MTEXTEND
  0
POINT
  5
20774
330
20729
100
AcDbEntity
  8
DEFPOINTS
 62
     0
 48
50.0
100
AcDbPoint
 10
9669.363133512824
 20
1567.170122259038
 30
0.0
  0
POINT
  5
20775
330
20729
100
AcDbEntity
  8
DEFPOINTS
 62
     0
 48
50.0
100
AcDbPoint
 10
9699.252041603156
 20
1267.170122259038
 30
0.0
  0
POINT
  5
20776
330
20729
100
AcDbEntity
  8
DEFPOINTS
 62
     0
 48
50.0
100
AcDbPoint
 10
9871.99868722994
 20
1267.170122259038
 30
0.0
  0
ENDBLK
  5
20734
330
20729
100
AcDbEntity
  8
0
 48
50.0
100
AcDbBlockEnd
  0
BLOCK
  5
2073F
330
20735
100
AcDbEntity
  8
0
 48
50.0
100
AcDbBlockBegin
  2
*D17
 70
     1
 10
0.0
 20
0.0
 30
0.0
  3
*D17
  1

  0
LINE
  5
20765
330
20735
100
AcDbEntity
  8
寸法
 62
     0
 48
50.0
370
    -2
100
AcDbLine
 10
6575.863935877077
 20
1467.170122259039
 30
0.0
 11
6863.93494023747
 21
1467.170122259039
 31
0.0
  0
LINE
  5
20766
330
20735
100
AcDbEntity
  8
寸法
 62
     0
 48
50.0
370
    -2
100
AcDbLine
 10
6575.863935877078
 20
1267.170122259038
 30
0.0
 11
6863.93494023747
 21
1267.170122259038
 31
0.0
  0
LINE
  5
20767
330
20735
100
AcDbEntity
  8
寸法
 62
     0
 48
50.0
370
    -2
100
AcDbLine
 10
6803.93494023747
 20
1467.170122259039
 30
0.0
 11
6803.93494023747
 21
1267.170122259038
 31
0.0
  0
INSERT
  5
20768
330
20735
100
AcDbEntity
  8
寸法
 62
     0
 48
50.0
370
    -2
100
AcDbBlockReference
  2
_DOTSMALL
 10
6803.93494023747
 20
1467.170122259039
 30
0.0
 41
100.0
 42
100.0
 43
100.0
 50
90.0
  0
INSERT
  5
20769
330
20735
100
AcDbEntity
  8
寸法
 62
     0
 48
50.0
370
    -2
100
AcDbBlockReference
  2
_DOTSMALL
 10
6803.93494023747
 20
1267.170122259038
 30
0.0
 41
100.0
 42
100.0
 43
100.0
 50
270.0
  0
MTEXT
  5
2076A
330
20735
100
AcDbEntity
  8
寸法
 62
     7
 48
50.0
100
AcDbMText
 10
6703.93494023747
 20
1367.170122259039
 30
0.0
 40
120.0
 41
0.0
 71
     5
 72
     1
  1
\A1;a
  7
STYLE1
 11
0.0000000000000001
 21
1.0
 31
0.0
 73
     1
 44
1.0
1001
ACAD
1000
MTEXTBEGIN
1070
    73
1070
     1
1070
    44
1040
1.0
1070
    74
1070
     0
1000
MTEXTEND
  0
POINT
  5
2076B
330
20735
100
AcDbEntity
  8
DEFPOINTS
 62
     0
 48
50.0
100
AcDbPoint
 10
6555.863935877076
 20
1467.170122259039
 30
0.0
  0
POINT
  5
2076C
330
20735
100
AcDbEntity
  8
DEFPOINTS
 62
     0
 48
50.0
100
AcDbPoint
 10
6555.863935877077
 20
1267.170122259038
 30
0.0
  0
POINT
  5
2076D
330
20735
100
AcDbEntity
  8
DEFPOINTS
 62
     0
 48
50.0
100
AcDbPoint
 10
6803.93494023747
 20
1267.170122259038
 30
0.0
  0
ENDBLK
  5
20740
330
20735
100
AcDbEntity
  8
0
 48
50.0
100
AcDbBlockEnd
  0
ENDSEC
  0
SECTION
  2
ENTITIES
  0
LINE
  5
10B57
330
747D
100
AcDbEntity
  8
補助
  6
PHANTOM
 62
   230
 48
50.0
100
AcDbLine
 10
139.9999999999995
 20
11409.6
 30
0.0
 11
16307.2
 21
11409.6
 31
0.0
  0
LINE
  5
10B59
330
747D
100
AcDbEntity
  8
仕様書枠
  6
Continuous
 48
50.0
100
AcDbLine
 10
13107.2
 20
1200.0
 30
0.0
 11
13107.2
 21
-0.0000000000000729
 31
0.0
  0
LINE
  5
10B5C
330
747D
100
AcDbEntity
  8
仕様書枠
 48
50.0
100
AcDbLine
 10
16307.2
 20
1200.0
 30
0.0
 11
16307.2
 21
-0.0000000000000909
 31
0.0
  0
LINE
  5
10B5D
330
747D
100
AcDbEntity
  8
仕様書枠
 48
50.0
100
AcDbLine
 10
140.0
 20
0.0
 30
0.0
 11
16307.2
 21
-0.0000000000000909
 31
0.0
  0
LINE
  5
10B5E
330
747D
100
AcDbEntity
  8
補助
  6
PHANTOM
 62
   230
 48
50.0
100
AcDbLine
 10
16307.2
 20
11409.6
 30
0.0
 11
16307.2
 21
1200.0
 31
0.0
  0
LINE
  5
10B6C
330
747D
100
AcDbEntity
  8
仕様書枠
 48
50.0
100
AcDbLine
 10
13107.2
 20
1200.0
 30
0.0
 11
16307.2
 21
1200.0
 31
0.0
  0
LINE
  5
10B6D
330
747D
100
AcDbEntity
  8
補助
  6
PHANTOM
 62
   230
 48
50.0
100
AcDbLine
 10
13107.2
 20
11409.6
 30
0.0
 11
13107.2
 21
4800.0
 31
0.0
  0
LINE
  5
10B6F
330
747D
100
AcDbEntity
  8
補助
  6
PHANTOM
 62
   230
 48
50.0
100
AcDbLine
 10
13107.2
 20
4800.0
 30
0.0
 11
16307.2
 21
4800.0
 31
0.0
  0
LINE
  5
10B72
330
747D
100
AcDbEntity
  8
文字
 62
     7
 48
50.0
100
AcDbLine
 10
13187.2
 20
400.0
 30
0.0
 11
16227.2
 21
400.0
 31
0.0
  0
TEXT
  5
10B73
330
747D
100
AcDbEntity
  8
文字
 62
     7
 48
50.0
100
AcDbText
 10
13162.9790565769
 20
895.0906074299405
 30
0.0
 40
200.0
  1
基 礎 図
  7
STYLE2
100
AcDbText
  0
TEXT
  5
10B74
330
747D
100
AcDbEntity
  8
文字
 62
     7
 48
50.0
100
AcDbText
 10
13201.43669998441
 20
477.2740661031255
 30
0.0
 40
160.0
  1
機種名
  7
STYLE2
100
AcDbText
  0
TEXT
  5
10B79
330
747D
100
AcDbEntity
  8
文字
 62
     7
 48
50.0
100
AcDbText
 10
14524.131837222
 20
1031.557706291228
 30
0.0
 40
100.0
  1
NO.26      <縮尺> S=1/40
  7
STYLE2
100
AcDbText
  0
LINE
  5
10B7B
330
747D
100
AcDbEntity
  8
仕様書枠
 48
50.0
100
AcDbLine
 10
13107.2
 20
800.0
 30
0.0
 11
14251.2
 21
800.0
 31
0.0
  0
LINE
  5
10B88
330
747D
100
AcDbEntity
  8
仕様書枠
  6
Continuous
 48
50.0
100
AcDbLine
 10
14251.2
 20
1200.0
 30
0.0
 11
14251.2
 21
800.0
 31
0.0
  0
TEXT
  5
14DEF
330
747D
100
AcDbEntity
  8
文字
 62
     7
 48
50.0
100
AcDbText
 10
14641.2525855784
 20
871.1744590657925
 30
0.0
 40
100.0
  1
～一般型・多雪地型～
  7
STYLE2
100
AcDbText
  0
TEXT
  5
15A76
330
747D
100
AcDbEntity
  8
文字
 62
     7
 48
50.0
100
AcDbText
 10
14482.61482192223
 20
488.1241585855691
 30
0.0
 40
160.0
  1
ＮＸＮ－８０Ｓ・Ｈ
  7
STYLE2
100
AcDbText
  0
LINE
  5
1CAC7
330
747D
100
AcDbEntity
  8
部品1
 48
50.0
100
AcDbLine
 10
6946.644625212591
 20
7924.007639154797
 30
0.0
 11
6556.644625212591
 21
7924.007639154797
 31
0.0
  0
LINE
  5
1CAC8
330
747D
100
AcDbEntity
  8
部品1
 48
50.0
100
AcDbLine
 10
6946.644625212591
 20
7924.007639154794
 30
0.0
 11
6556.644625212591
 21
7924.007639154797
 31
0.0
  0
LINE
  5
1CACE
330
747D
100
AcDbEntity
  8
部品1
 48
50.0
100
AcDbLine
 10
6556.644625212591
 20
7734.007639154798
 30
0.0
 11
6556.644625212591
 21
7924.007639154797
 31
0.0
  0
TEXT
  5
1D002
330
747D
100
AcDbEntity
  8
文字
 62
     7
 48
50.0
100
AcDbText
 10
13188.16259899338
 20
246.7109242801889
 30
0.0
 40
80.0
  1
※寒冷地等は地域の実情に合わせた基礎にして下さい。
  7
STYLE2
100
AcDbText
  0
DIMENSION
  5
1F702
330
747D
100
AcDbEntity
  8
寸法
 48
50.0
100
AcDbDimension
  2
*D11
 10
8809.644625212591
 20
8432.631876290759
 30
0.0
 11
8446.144625212593
 21
8532.643687314381
 31
0.0
 70
    32
 71
     5
 42
727.0
  3
INABA_S40G
100
AcDbAlignedDimension
 13
8082.644625212592
 23
7924.007639154797
 33
0.0
 14
8809.644625212591
 24
7924.007639154794
 34
0.0
100
AcDbRotatedDimension
1001
ACAD
1000
DSTYLE
1002
{
1070
   174
1070
     0
1070
   272
1070
     1
1070
   288
1070
     0
1070
   341
1005
0
1002
}
  0
LINE
  5
1F703
330
747D
100
AcDbEntity
  8
部品1
 48
50.0
100
AcDbLine
 10
9218.644625212592
 20
7734.007639154794
 30
0.0
 11
9218.644625212592
 21
7924.007639154794
 31
0.0
  0
LINE
  5
1F704
330
747D
100
AcDbEntity
  8
部品1
 48
50.0
100
AcDbLine
 10
8904.644625212574
 20
5292.007639154793
 30
0.0
 11
8714.644625212576
 21
5292.007639154793
 31
0.0
  0
LINE
  5
1F706
330
747D
100
AcDbEntity
  8
部品1
 48
50.0
100
AcDbLine
 10
8714.644625212576
 20
5292.007639154797
 30
0.0
 11
8714.644625212576
 21
5482.007639154797
 31
0.0
  0
LINE
  5
1F707
330
747D
100
AcDbEntity
  8
部品1
 48
50.0
100
AcDbLine
 10
8904.644625212574
 20
5292.007639154797
 30
0.0
 11
8904.644625212574
 21
5482.007639154797
 31
0.0
  0
LINE
  5
1F709
330
747D
100
AcDbEntity
  8
部品1
 48
50.0
100
AcDbLine
 10
8904.644625212592
 20
7924.007639154794
 30
0.0
 11
8714.64462521259
 21
7924.007639154794
 31
0.0
  0
LINE
  5
1F70B
330
747D
100
AcDbEntity
  8
部品1
 48
50.0
100
AcDbLine
 10
8714.64462521259
 20
7734.007639154798
 30
0.0
 11
8714.64462521259
 21
7924.007639154797
 31
0.0
  0
LINE
  5
1F70C
330
747D
100
AcDbEntity
  8
部品1
 48
50.0
100
AcDbLine
 10
8904.644625212592
 20
7734.007639154798
 30
0.0
 11
8904.644625212592
 21
7924.007639154797
 31
0.0
  0
TEXT
  5
1F715
330
747D
100
AcDbEntity
  8
文字
 48
50.0
100
AcDbText
 10
10135.79504144491
 20
7919.371168542731
 30
0.0
 40
120.0
  1
深サ:200
  7
STYLE1
100
AcDbText
  0
LEADER
  5
1F716
330
747D
100
AcDbEntity
  8
寸法
 48
50.0
100
AcDbLeader
  3
INABA_S50G
 71
     0
 73
     0
 74
     0
 75
     1
 40
120.0
 41
185.591883092037
 76
     3
 10
6776.651241392859
 20
7764.067103939803
 30
0.0
 10
6840.346150923668
 20
7469.408310229517
 30
0.0
 10
6965.346150923668
 20
7469.408310229517
 30
0.0
340
1F717
1001
ACAD
1000
DSTYLE
1002
{
1070
   341
1005
1C530
1070
    40
1040
1.0
1070
   343
1005
1C530
1070
   344
1005
1C530
1002
}
  0
MTEXT
  5
1F717
102
{ACAD_REACTORS
330
1F716
102
}
330
747D
100
AcDbEntity
  8
部品1
 62
     7
 48
50.0
100
AcDbMText
 10
6990.346150923667
 20
7554.408310229518
 30
0.0
 40
120.0
 41
0.0
 71
     4
 72
     1
  1
\A1;C.B
  7
STYLE1
 73
     1
 44
1.0
1001
ACAD
1000
MTEXTBEGIN
1070
    73
1070
     1
1070
    44
1040
1.0
1070
    74
1070
     0
1000
MTEXTEND
  0
TEXT
  5
1F718
330
747D
100
AcDbEntity
  8
文字
 48
50.0
100
AcDbText
 10
6851.404966059132
 20
7301.909710735896
 30
0.0
 40
120.0
  1
100x190x390
  7
STYLE1
100
AcDbText
  0
LEADER
  5
1F71B
330
747D
100
AcDbEntity
  8
寸法
 48
50.0
100
AcDbLeader
  3
INABA_S50G
 71
     0
 73
     0
 74
     0
 75
     1
 40
120.0
 41
1282.349242404918
 76
     3
 10
9698.369300536848
 20
7913.464278442714
 30
0.0
 10
9954.756512119267
 20
8109.808216058855
 30
0.0
 10
10079.75651211926
 20
8109.808216058855
 30
0.0
340
1F71C
1001
ACAD
1000
DSTYLE
1002
{
1070
   341
1005
1C530
1070
    40
1040
1.0
1070
   343
1005
1C530
1070
   344
1005
1C530
1002
}
  0
MTEXT
  5
1F71C
102
{ACAD_REACTORS
330
1F71B
102
}
330
747D
100
AcDbEntity
  8
部品1
 62
     7
 48
50.0
100
AcDbMText
 10
10104.75651211926
 20
8194.808216058856
 30
0.0
 40
120.0
 41
0.0
 71
     4
 72
     1
  1
現場打コンクリート
  7
STYLE1
 73
     1
 44
1.0
1001
ACAD
1000
MTEXTBEGIN
1070
    73
1070
     1
1070
    44
1040
1.0
1070
    74
1070
     0
1000
MTEXTEND
  0
TEXT
  5
1F71D
330
747D
100
AcDbEntity
  8
部品1
 48
50.0
100
AcDbText
 10
10112.88044421436
 20
8321.285804530932
 30
0.0
 40
120.0
  1
組立後
  7
STYLE1
100
AcDbText
  0
DIMENSION
  5
1F71E
330
747D
100
AcDbEntity
  8
寸法
 48
50.0
100
AcDbDimension
  2
*D2
 10
9608.644625212592
 20
8432.631876290759
 30
0.0
 11
9209.144625212593
 21
8532.631876290759
 31
0.0
 70
    32
 71
     5
 42
799.0
  3
INABA_S40G
100
AcDbAlignedDimension
 13
8809.644625212591
 23
7924.007639154794
 33
0.0
 14
9608.644625212592
 24
7924.007639154797
 34
0.0
100
AcDbRotatedDimension
1001
ACAD
1000
DSTYLE
1002
{
1070
   174
1070
     0
1070
   272
1070
     1
1070
   288
1070
     0
1070
   341
1005
0
1002
}
  0
DIMENSION
  5
1F71F
330
747D
100
AcDbEntity
  8
寸法
 48
50.0
100
AcDbDimension
  2
*D3
 10
6556.644625212591
 20
8432.631876290759
 30
0.0
 11
6956.144625212592
 21
8532.631876290759
 31
0.0
 70
    32
 71
     5
 42
799.0
  3
INABA_S40G
100
AcDbAlignedDimension
 13
7355.644625212592
 23
7924.007639154797
 33
0.0
 14
6556.644625212591
 24
7924.007639154797
 34
0.0
100
AcDbRotatedDimension
1001
ACAD
1000
DSTYLE
1002
{
1070
   174
1070
     0
1070
   272
1070
     1
1070
   288
1070
     0
1070
   341
1005
0
1002
}
  0
DIMENSION
  5
1F720
330
747D
100
AcDbEntity
  8
寸法
 48
50.0
100
AcDbDimension
  2
*D4
 10
8082.644625212592
 20
8432.631876290759
 30
0.0
 11
7719.144625212591
 21
8532.643687314381
 31
0.0
 70
    32
 71
     5
 42
727.0
  3
INABA_S40G
100
AcDbAlignedDimension
 13
7355.644625212592
 23
7924.007639154797
 33
0.0
 14
8082.644625212592
 24
7924.007639154797
 34
0.0
100
AcDbRotatedDimension
1001
ACAD
1000
DSTYLE
1002
{
1070
   174
1070
     0
1070
   272
1070
     1
1070
   288
1070
     0
1070
   341
1005
0
1002
}
  0
LINE
  5
1F721
330
747D
100
AcDbEntity
  8
部品1
 48
50.0
100
AcDbLine
 10
7450.644625212591
 20
7924.007639154797
 30
0.0
 11
7260.644625212592
 21
7924.007639154797
 31
0.0
  0
LINE
  5
1F723
330
747D
100
AcDbEntity
  8
部品1
 48
50.0
100
AcDbLine
 10
7260.644625212592
 20
7734.007639154801
 30
0.0
 11
7260.644625212592
 21
7924.007639154801
 31
0.0
  0
LINE
  5
1F724
330
747D
100
AcDbEntity
  8
部品1
 48
50.0
100
AcDbLine
 10
7450.644625212591
 20
7734.007639154801
 30
0.0
 11
7450.644625212591
 21
7924.007639154801
 31
0.0
  0
LINE
  5
1F725
330
747D
100
AcDbEntity
  8
部品1
 48
50.0
100
AcDbLine
 10
7450.644625212575
 20
5292.007639154797
 30
0.0
 11
7260.644625212575
 21
5292.007639154797
 31
0.0
  0
LINE
  5
1F727
330
747D
100
AcDbEntity
  8
部品1
 48
50.0
100
AcDbLine
 10
7260.644625212575
 20
5292.0076391548
 30
0.0
 11
7260.644625212575
 21
5482.007639154801
 31
0.0
  0
LINE
  5
1F728
330
747D
100
AcDbEntity
  8
部品1
 48
50.0
100
AcDbLine
 10
7450.644625212575
 20
5292.0076391548
 30
0.0
 11
7450.644625212575
 21
5482.007639154801
 31
0.0
  0
LINE
  5
1F729
330
747D
100
AcDbEntity
  8
想像線
 48
10.0
100
AcDbLine
 10
6506.644625212574
 20
5235.007639154797
 30
0.0
 11
6509.644625212574
 21
5232.007639154797
 31
0.0
  0
LINE
  5
1F72A
330
747D
100
AcDbEntity
  8
想像線
 48
10.0
100
AcDbLine
 10
6509.644625212591
 20
8004.007639154798
 30
0.0
 11
6506.644625212591
 21
8001.007639154797
 31
0.0
  0
TEXT
  5
1F72B
330
747D
100
AcDbEntity
  8
部品1
 48
50.0
100
AcDbText
 10
7954.831404871291
 20
5073.54102696123
 30
0.0
 40
120.0
  1
扉面
  7
STYLE1
 72
     1
 11
8082.83140487129
 21
5057.541026961229
 31
0.0
100
AcDbText
 73
     1
  0
LINE
  5
1F72D
330
747D
100
AcDbEntity
  8
部品1
 48
50.0
100
AcDbLine
 10
9218.644625212592
 20
7734.007639154798
 30
0.0
 11
9608.644625212592
 21
7734.007639154798
 31
0.0
  0
LINE
  5
1F72E
330
747D
100
AcDbEntity
  8
部品1
 48
50.0
100
AcDbLine
 10
9218.644625212592
 20
7924.007639154797
 30
0.0
 11
9608.644625212592
 21
7924.007639154797
 31
0.0
  0
LINE
  5
1F72F
330
747D
100
AcDbEntity
  8
部品1
 48
50.0
100
AcDbLine
 10
9218.644625212592
 20
7924.007639154794
 30
0.0
 11
9608.644625212592
 21
7924.007639154797
 31
0.0
  0
DIMENSION
  5
1F730
330
747D
100
AcDbEntity
  8
寸法
 48
50.0
100
AcDbDimension
  2
*D5
 10
9658.644625212593
 20
8690.559264956819
 30
0.0
 11
9633.644625212593
 21
8690.559264956819
 31
0.0
 70
   160
  1
a
 71
     5
 42
50.0
  3
INABA_S40G
100
AcDbAlignedDimension
 13
9608.644625212592
 23
7924.007639154797
 33
0.0
 14
9658.644625212593
 24
8004.007639154801
 34
0.0
100
AcDbRotatedDimension
1001
ACAD
1000
DSTYLE
1002
{
1070
   174
1070
     0
1070
   272
1070
     1
1070
   288
1070
     0
1070
   341
1005
0
1002
}
  0
LINE
  5
1F731
330
747D
100
AcDbEntity
  8
部品1
 48
50.0
100
AcDbLine
 10
9608.644625212576
 20
5482.007639154797
 30
0.0
 11
9608.644625212576
 21
5292.007639154797
 31
0.0
  0
LINE
  5
1F732
330
747D
100
AcDbEntity
  8
部品1
 48
50.0
100
AcDbLine
 10
9218.644625212574
 20
5482.007639154797
 30
0.0
 11
9218.644625212574
 21
5292.007639154797
 31
0.0
  0
LINE
  5
1F733
330
747D
100
AcDbEntity
  8
部品1
 48
50.0
100
AcDbLine
 10
9218.644625212574
 20
5292.0076391548
 30
0.0
 11
9608.644625212576
 21
5292.007639154797
 31
0.0
  0
LINE
  5
1F734
330
747D
100
AcDbEntity
  8
部品1
 48
50.0
100
AcDbLine
 10
9218.644625212574
 20
5292.007639154797
 30
0.0
 11
9608.644625212576
 21
5292.007639154797
 31
0.0
  0
LINE
  5
1F735
330
747D
100
AcDbEntity
  8
部品1
 48
50.0
100
AcDbLine
 10
9218.644625212574
 20
5482.007639154797
 30
0.0
 11
9608.644625212576
 21
5482.007639154797
 31
0.0
  0
LINE
  5
1F736
330
747D
100
AcDbEntity
  8
想像線
 48
10.0
100
AcDbLine
 10
9658.644625212595
 20
8004.041814174668
 30
0.0
 11
9658.644625212575
 21
5232.007639154794
 31
0.0
  0
LINE
  5
1F737
330
747D
100
AcDbEntity
  8
部品1
 48
50.0
100
AcDbLine
 10
6946.644625212591
 20
7734.007639154798
 30
0.0
 11
6946.644625212591
 21
7924.007639154797
 31
0.0
  0
LINE
  5
1F738
330
747D
100
AcDbEntity
  8
部品1
 48
50.0
100
AcDbLine
 10
6556.644625212591
 20
7734.007639154798
 30
0.0
 11
6556.644625212591
 21
7924.007639154797
 31
0.0
  0
DIMENSION
  5
1F739
330
747D
100
AcDbEntity
  8
寸法
 48
50.0
100
AcDbDimension
  2
*D6
 10
6556.644625212591
 20
8690.559264956819
 30
0.0
 11
6531.644625212591
 21
8690.559264956819
 31
0.0
 70
   160
  1
a
 71
     5
 42
50.0
  3
INABA_S40G
100
AcDbAlignedDimension
 13
6506.644625212591
 23
8004.007639154798
 33
0.0
 14
6556.644625212591
 24
7924.007639154797
 34
0.0
100
AcDbRotatedDimension
1001
ACAD
1000
DSTYLE
1002
{
1070
   174
1070
     0
1070
   272
1070
     1
1070
   288
1070
     0
1070
   341
1005
0
1002
}
  0
LINE
  5
1F73A
330
747D
100
AcDbEntity
  8
部品1
 48
50.0
100
AcDbLine
 10
6946.644625212591
 20
7734.007639154798
 30
0.0
 11
6556.644625212591
 21
7734.007639154798
 31
0.0
  0
LINE
  5
1F73B
330
747D
100
AcDbEntity
  8
部品1
 48
50.0
100
AcDbLine
 10
6946.644625212591
 20
7924.007639154794
 30
0.0
 11
6556.644625212591
 21
7924.007639154797
 31
0.0
  0
LINE
  5
1F73C
330
747D
100
AcDbEntity
  8
部品1
 48
50.0
100
AcDbLine
 10
6946.644625212591
 20
7924.007639154797
 30
0.0
 11
6556.644625212591
 21
7924.007639154797
 31
0.0
  0
LINE
  5
1F73D
330
747D
100
AcDbEntity
  8
部品1
 48
50.0
100
AcDbLine
 10
6946.644625212575
 20
5482.007639154797
 30
0.0
 11
6946.644625212575
 21
5292.007639154797
 31
0.0
  0
LINE
  5
1F73F
330
747D
100
AcDbEntity
  8
部品1
 48
50.0
100
AcDbLine
 10
6946.644625212575
 20
5482.007639154797
 30
0.0
 11
6556.644625212576
 21
5482.007639154797
 31
0.0
  0
LINE
  5
1F740
330
747D
100
AcDbEntity
  8
部品1
 48
50.0
100
AcDbLine
 10
6946.644625212575
 20
5292.007639154797
 30
0.0
 11
6556.644625212576
 21
5292.007639154797
 31
0.0
  0
LINE
  5
1F741
330
747D
100
AcDbEntity
  8
部品1
 48
50.0
100
AcDbLine
 10
6946.644625212575
 20
5292.0076391548
 30
0.0
 11
6556.644625212576
 21
5292.007639154797
 31
0.0
  0
LINE
  5
1F742
330
747D
100
AcDbEntity
  8
想像線
 48
10.0
100
AcDbLine
 10
6508.144625212574
 20
5233.507639154797
 30
0.0
 11
6506.644625212591
 21
8001.007639154797
 31
0.0
  0
DIMENSION
  5
1F743
330
747D
100
AcDbEntity
  8
寸法
 48
50.0
100
AcDbDimension
  2
*D7
 10
6115.932741763341
 20
7924.007639154798
 30
0.0
 11
6115.932741763341
 21
7964.007639154799
 31
0.0
 70
   160
  1
c
 71
     5
 42
80.0
  3
INABA_S40G
100
AcDbAlignedDimension
 13
6506.644625212591
 23
8004.007639154798
 33
0.0
 14
6556.644625212591
 24
7924.007639154797
 34
0.0
 50
90.0
100
AcDbRotatedDimension
1001
ACAD
1000
DSTYLE
1002
{
1070
   174
1070
     0
1070
   272
1070
     1
1070
   288
1070
     0
1070
   341
1005
0
1002
}
  0
DIMENSION
  5
1F744
330
747D
100
AcDbEntity
  8
寸法
 48
50.0
100
AcDbDimension
  2
*D8
 10
6115.932741763345
 20
5292.007639154798
 30
0.0
 11
6115.932741763344
 21
6608.007639154798
 31
0.0
 70
   160
 71
     5
 42
2632.0
  3
INABA_S40G
100
AcDbAlignedDimension
 13
6556.644625212591
 23
7924.007639154797
 33
0.0
 14
6536.644625212575
 24
5292.007639154797
 34
0.0
 50
90.0
100
AcDbRotatedDimension
1001
ACAD
1000
DSTYLE
1002
{
1070
   174
1070
     0
1070
   272
1070
     1
1070
   288
1070
     0
1070
   341
1005
0
1002
}
  0
DIMENSION
  5
1F745
330
747D
100
AcDbEntity
  8
寸法
 48
50.0
100
AcDbDimension
  2
*D9
 10
6115.932741763325
 20
5232.007639154798
 30
0.0
 11
6115.932741763324
 21
5262.007639154798
 31
0.0
 70
   160
  1
b
 71
     5
 42
60.0
  3
INABA_S40G
100
AcDbAlignedDimension
 13
6556.644625212576
 23
5292.007639154797
 33
0.0
 14
6506.644625212576
 24
5232.007639154797
 34
0.0
 50
90.0
100
AcDbRotatedDimension
1001
ACAD
1000
DSTYLE
1002
{
1070
   174
1070
     0
1070
   272
1070
     1
1070
   288
1070
     0
1070
   341
1005
0
1002
}
  0
LINE
  5
1F746
330
747D
100
AcDbEntity
  8
想像線
 48
10.0
100
AcDbLine
 10
6509.644625212591
 20
8004.007639154798
 30
0.0
 11
9658.644625212595
 21
8004.007639154801
 31
0.0
  0
LINE
  5
1F747
330
747D
100
AcDbEntity
  8
想像線
 48
10.0
100
AcDbLine
 10
9658.644625212575
 20
5232.007639154794
 30
0.0
 11
6509.644625212574
 21
5232.007639154797
 31
0.0
  0
DIMENSION
  5
1F748
330
747D
100
AcDbEntity
  8
寸法
 48
50.0
100
AcDbDimension
  2
*D10
 10
9608.644625212592
 20
8690.559264956819
 30
0.0
 11
8082.644625212592
 21
8690.559264956819
 31
0.0
 70
   160
 71
     5
 42
3052.0
  3
INABA_S40G
100
AcDbAlignedDimension
 13
6556.644625212591
 23
7924.007639154797
 33
0.0
 14
9608.644625212592
 24
7924.007639154797
 34
0.0
100
AcDbRotatedDimension
1001
ACAD
1000
DSTYLE
1002
{
1070
   174
1070
     0
1070
   272
1070
     1
1070
   288
1070
     0
1070
   341
1005
0
1002
}
  0
LEADER
  5
1F749
330
747D
100
AcDbEntity
  8
寸法
 48
50.0
100
AcDbLeader
  3
INABA_S50G
 71
     0
 73
     0
 74
     0
 75
     1
 40
120.0
 41
672.0
 76
     3
 10
6741.541550483518
 20
5232.007639154797
 30
0.0
 10
6989.778737088011
 20
4851.990247195006
 30
0.0
 10
7114.778737088011
 20
4851.990247195006
 30
0.0
340
1F74A
1001
ACAD
1000
DSTYLE
1002
{
1070
   341
1005
1C530
1070
    40
1040
1.0
1070
   343
1005
1C530
1070
   344
1005
1C530
1002
}
  0
MTEXT
  5
1F74A
102
{ACAD_REACTORS
330
1F749
102
}
330
747D
100
AcDbEntity
  8
部品1
 62
     7
 48
50.0
100
AcDbMText
 10
7811.778737088011
 20
4936.990247195006
 30
0.0
 40
120.0
 41
0.0
 71
     6
 72
     1
  1
\A1;屋根の外寸
  7
STYLE1
 73
     1
 44
1.0
1001
ACAD
1000
MTEXTBEGIN
1070
    73
1070
     1
1070
    44
1040
1.0
1070
    74
1070
     0
1000
MTEXTEND
  0
TEXT
  5
1F74B
330
747D
100
AcDbEntity
  8
部品1
 48
50.0
100
AcDbText
 10
6945.608646911242
 20
4725.32234699554
 30
0.0
 40
80.0
  1
※a,b,cは屋根の出幅です。
  7
STYLE1
100
AcDbText
  0
TEXT
  5
1F74C
330
747D
100
AcDbEntity
  8
部品1
 48
50.0
100
AcDbText
 10
7059.30888763719
 20
4591.765820909596
 30
0.0
 40
80.0
  1
(a=50,b=60,c=80)
  7
STYLE1
100
AcDbText
  0
LINE
  5
1F939
330
747D
100
AcDbEntity
  8
部品1
 48
50.0
100
AcDbLine
 10
6946.644625212575
 20
5292.007639154797
 30
0.0
 11
6556.644625212576
 21
5292.007639154797
 31
0.0
  0
DIMENSION
  5
1F98A
330
747D
100
AcDbEntity
  8
寸法
 48
50.0
100
AcDbDimension
  2
*D12
 10
9997.709772728784
 20
5192.007639154796
 30
0.0
 11
9997.709772728782
 21
5292.007639154797
 31
0.0
 70
   160
 71
     5
 42
200.0
  3
INABA_S40G
100
AcDbAlignedDimension
 13
9708.644625212574
 23
5392.007639154797
 33
0.0
 14
9708.644625212576
 24
5192.007639154796
 34
0.0
 50
90.0
100
AcDbRotatedDimension
1001
ACAD
1000
DSTYLE
1002
{
1070
   174
1070
     0
1070
   272
1070
     1
1070
   288
1070
     0
1070
   341
1005
0
1002
}
  0
DIMENSION
  5
1F98B
330
747D
100
AcDbEntity
  8
寸法
 48
50.0
100
AcDbDimension
  2
*D13
 10
9508.644625212575
 20
4938.682154209333
 30
0.0
 11
9608.644625212576
 21
4938.682154209333
 31
0.0
 70
   160
 71
     5
 42
200.0
  3
INABA_S40G
100
AcDbAlignedDimension
 13
9708.644625212576
 23
5192.007639154796
 33
0.0
 14
9508.644625212575
 24
5192.007639154796
 34
0.0
100
AcDbRotatedDimension
1001
ACAD
1000
DSTYLE
1002
{
1070
   174
1070
     0
1070
   272
1070
     1
1070
   288
1070
     0
1070
   341
1005
0
1002
}
  0
LINE
  5
1F9DD
330
747D
100
AcDbEntity
  8
部品1
 48
50.0
100
AcDbLine
 10
7260.644625212575
 20
5682.007639154801
 30
0.0
 11
7450.644625212575
 21
5682.007639154801
 31
0.0
  0
LINE
  5
1F9DE
330
747D
100
AcDbEntity
  8
部品1
 48
50.0
100
AcDbLine
 10
7260.644625212575
 20
5292.0076391548
 30
0.0
 11
7450.644625212575
 21
5292.0076391548
 31
0.0
  0
LINE
  5
1F9DF
330
747D
100
AcDbEntity
  8
部品1
 48
50.0
100
AcDbLine
 10
7260.644625212575
 20
5682.007639154801
 30
0.0
 11
7260.644625212575
 21
5292.0076391548
 31
0.0
  0
LINE
  5
1F9E0
330
747D
100
AcDbEntity
  8
部品1
 48
50.0
100
AcDbLine
 10
7450.644625212575
 20
5682.007639154801
 30
0.0
 11
7450.644625212575
 21
5292.0076391548
 31
0.0
  0
LINE
  5
1F9E1
330
747D
100
AcDbEntity
  8
部品1
 48
50.0
100
AcDbLine
 10
7450.644625212571
 20
5682.007639154801
 30
0.0
 11
7450.644625212575
 21
5292.0076391548
 31
0.0
  0
LINE
  5
1F9E2
330
747D
100
AcDbEntity
  8
部品1
 48
50.0
100
AcDbLine
 10
7450.644625212575
 20
5682.007639154801
 30
0.0
 11
7450.644625212575
 21
5292.0076391548
 31
0.0
  0
LINE
  5
1F9E3
330
747D
100
AcDbEntity
  8
部品1
 48
50.0
100
AcDbLine
 10
7260.644625212575
 20
5482.007639154801
 30
0.0
 11
7260.644625212575
 21
5292.0076391548
 31
0.0
  0
LINE
  5
1F9E4
330
747D
100
AcDbEntity
  8
部品1
 48
50.0
100
AcDbLine
 10
8714.644625212576
 20
5682.007639154797
 30
0.0
 11
8904.644625212574
 21
5682.007639154797
 31
0.0
  0
LINE
  5
1F9E5
330
747D
100
AcDbEntity
  8
部品1
 48
50.0
100
AcDbLine
 10
8714.644625212576
 20
5292.007639154797
 30
0.0
 11
8904.644625212574
 21
5292.007639154797
 31
0.0
  0
LINE
  5
1F9E6
330
747D
100
AcDbEntity
  8
部品1
 48
50.0
100
AcDbLine
 10
8714.644625212576
 20
5682.007639154797
 30
0.0
 11
8714.644625212576
 21
5292.007639154797
 31
0.0
  0
LINE
  5
1F9E7
330
747D
100
AcDbEntity
  8
部品1
 48
50.0
100
AcDbLine
 10
8904.644625212574
 20
5682.007639154797
 30
0.0
 11
8904.644625212574
 21
5292.007639154797
 31
0.0
  0
LINE
  5
1F9E8
330
747D
100
AcDbEntity
  8
部品1
 48
50.0
100
AcDbLine
 10
8904.644625212572
 20
5682.007639154797
 30
0.0
 11
8904.644625212574
 21
5292.007639154797
 31
0.0
  0
LINE
  5
1F9E9
330
747D
100
AcDbEntity
  8
部品1
 48
50.0
100
AcDbLine
 10
8904.644625212574
 20
5682.007639154797
 30
0.0
 11
8904.644625212574
 21
5292.007639154797
 31
0.0
  0
LINE
  5
1F9EA
330
747D
100
AcDbEntity
  8
部品1
 48
50.0
100
AcDbLine
 10
8714.644625212576
 20
5482.007639154797
 30
0.0
 11
8714.644625212576
 21
5292.007639154797
 31
0.0
  0
LINE
  5
1F9EB
330
747D
100
AcDbEntity
  8
部品1
 48
50.0
100
AcDbLine
 10
8904.644625212574
 20
5292.007639154793
 30
0.0
 11
8714.644625212576
 21
5292.007639154793
 31
0.0
  0
LINE
  5
1F9ED
330
747D
100
AcDbEntity
  8
部品1
 48
50.0
100
AcDbLine
 10
8714.644625212576
 20
5292.007639154797
 30
0.0
 11
8714.644625212576
 21
5482.007639154797
 31
0.0
  0
LINE
  5
1F9EE
330
747D
100
AcDbEntity
  8
部品1
 48
50.0
100
AcDbLine
 10
8904.644625212574
 20
5292.007639154797
 30
0.0
 11
8904.644625212574
 21
5482.007639154797
 31
0.0
  0
LINE
  5
1F9EF
330
747D
100
AcDbEntity
  8
寸法
 62
     0
 48
50.0
100
AcDbLine
 10
6556.644625212576
 20
5482.007639154797
 30
0.0
 11
6556.644625212576
 21
5292.007639154797
 31
0.0
  0
LINE
  5
1F9F0
330
747D
100
AcDbEntity
  8
部品1
 48
50.0
100
AcDbLine
 10
8904.644625212592
 20
7534.007639154793
 30
0.0
 11
8904.644625212592
 21
7724.007639154795
 31
0.0
  0
LINE
  5
1F9F1
330
747D
100
AcDbEntity
  8
部品1
 48
50.0
100
AcDbLine
 10
8714.64462521259
 20
7534.007639154793
 30
0.0
 11
8714.64462521259
 21
7724.007639154795
 31
0.0
  0
LINE
  5
1F9F3
330
747D
100
AcDbEntity
  8
部品1
 48
50.0
100
AcDbLine
 10
8904.644625212592
 20
7534.00763915479
 30
0.0
 11
8714.64462521259
 21
7534.00763915479
 31
0.0
  0
LINE
  5
1F9F4
330
747D
100
AcDbEntity
  8
部品1
 48
50.0
100
AcDbLine
 10
8714.64462521259
 20
7724.007639154795
 30
0.0
 11
8714.64462521259
 21
7534.007639154793
 31
0.0
  0
LINE
  5
1F9F5
330
747D
100
AcDbEntity
  8
部品1
 48
50.0
100
AcDbLine
 10
8904.644625212592
 20
7924.007639154794
 30
0.0
 11
8904.644625212592
 21
7534.007639154793
 31
0.0
  0
LINE
  5
1F9F6
330
747D
100
AcDbEntity
  8
部品1
 48
50.0
100
AcDbLine
 10
8904.644625212588
 20
7924.007639154794
 30
0.0
 11
8904.644625212592
 21
7534.007639154793
 31
0.0
  0
LINE
  5
1F9F7
330
747D
100
AcDbEntity
  8
部品1
 48
50.0
100
AcDbLine
 10
8904.644625212592
 20
7924.007639154794
 30
0.0
 11
8904.644625212592
 21
7534.007639154793
 31
0.0
  0
LINE
  5
1F9F8
330
747D
100
AcDbEntity
  8
部品1
 48
50.0
100
AcDbLine
 10
8714.64462521259
 20
7924.007639154794
 30
0.0
 11
8714.64462521259
 21
7534.007639154793
 31
0.0
  0
LINE
  5
1F9F9
330
747D
100
AcDbEntity
  8
部品1
 48
50.0
100
AcDbLine
 10
8714.64462521259
 20
7534.007639154793
 30
0.0
 11
8904.644625212592
 21
7534.007639154793
 31
0.0
  0
LINE
  5
1F9FA
330
747D
100
AcDbEntity
  8
部品1
 48
50.0
100
AcDbLine
 10
8714.64462521259
 20
7924.007639154794
 30
0.0
 11
8904.644625212592
 21
7924.007639154794
 31
0.0
  0
LINE
  5
1F9FB
330
747D
100
AcDbEntity
  8
部品1
 48
50.0
100
AcDbLine
 10
7450.644625212591
 20
7924.007639154797
 30
0.0
 11
7450.644625212591
 21
7534.007639154798
 31
0.0
  0
LINE
  5
1F9FC
330
747D
100
AcDbEntity
  8
部品1
 48
50.0
100
AcDbLine
 10
7450.644625212588
 20
7924.007639154797
 30
0.0
 11
7450.644625212591
 21
7534.007639154798
 31
0.0
  0
LINE
  5
1F9FD
330
747D
100
AcDbEntity
  8
部品1
 48
50.0
100
AcDbLine
 10
7450.644625212591
 20
7924.007639154797
 30
0.0
 11
7450.644625212591
 21
7534.007639154798
 31
0.0
  0
LINE
  5
1F9FE
330
747D
100
AcDbEntity
  8
部品1
 48
50.0
100
AcDbLine
 10
7260.644625212592
 20
7534.007639154798
 30
0.0
 11
7450.644625212591
 21
7534.007639154798
 31
0.0
  0
LINE
  5
1F9FF
330
747D
100
AcDbEntity
  8
部品1
 48
50.0
100
AcDbLine
 10
7260.644625212592
 20
7924.007639154797
 30
0.0
 11
7450.644625212591
 21
7924.007639154797
 31
0.0
  0
LINE
  5
1FA07
330
747D
100
AcDbEntity
  8
部品1
 48
50.0
100
AcDbLine
 10
7450.644625212591
 20
7534.007639154798
 30
0.0
 11
7450.644625212591
 21
7724.007639154797
 31
0.0
  0
LINE
  5
1FA09
330
747D
100
AcDbEntity
  8
部品1
 48
50.0
100
AcDbLine
 10
7450.644625212591
 20
7534.007639154793
 30
0.0
 11
7260.644625212592
 21
7534.007639154793
 31
0.0
  0
LINE
  5
1FA0E
330
747D
100
AcDbEntity
  8
部品1
 48
50.0
100
AcDbLine
 10
8904.644625212592
 20
7534.007639154793
 30
0.0
 11
8904.644625212592
 21
7724.007639154795
 31
0.0
  0
LINE
  5
1FA0F
330
747D
100
AcDbEntity
  8
部品1
 48
50.0
100
AcDbLine
 10
8714.64462521259
 20
7534.007639154793
 30
0.0
 11
8714.64462521259
 21
7724.007639154795
 31
0.0
  0
LINE
  5
1FA11
330
747D
100
AcDbEntity
  8
部品1
 48
50.0
100
AcDbLine
 10
8904.644625212592
 20
7534.00763915479
 30
0.0
 11
8714.64462521259
 21
7534.00763915479
 31
0.0
  0
LINE
  5
1FA12
330
747D
100
AcDbEntity
  8
部品1
 48
50.0
100
AcDbLine
 10
7260.644625212592
 20
7924.007639154797
 30
0.0
 11
7260.644625212592
 21
7534.007639154798
 31
0.0
  0
LINE
  5
1FB3A
102
{ACAD_REACTORS
330
1FC8E
102
}
330
747D
100
AcDbEntity
  8
点線
 48
10.0
100
AcDbLine
 10
9508.644625212575
 20
5392.007639154797
 30
0.0
 11
9708.644625212574
 21
5392.007639154797
 31
0.0
  0
LINE
  5
1FB3B
102
{ACAD_REACTORS
330
1FC8E
102
}
330
747D
100
AcDbEntity
  8
点線
 48
10.0
100
AcDbLine
 10
9508.644625212575
 20
5392.007639154797
 30
0.0
 11
9508.644625212575
 21
5192.007639154796
 31
0.0
  0
LINE
  5
1FB3C
102
{ACAD_REACTORS
330
1FC8E
102
}
330
747D
100
AcDbEntity
  8
点線
 48
10.0
100
AcDbLine
 10
9508.644625212575
 20
5192.007639154796
 30
0.0
 11
9708.644625212576
 21
5192.007639154796
 31
0.0
  0
LINE
  5
1FB3D
102
{ACAD_REACTORS
330
1FC8E
102
}
330
747D
100
AcDbEntity
  8
点線
 48
10.0
100
AcDbLine
 10
9708.644625212574
 20
5392.007639154797
 30
0.0
 11
9708.644625212576
 21
5192.007639154796
 31
0.0
  0
LINE
  5
1FB72
330
747D
100
AcDbEntity
  8
部品1
 48
50.0
100
AcDbLine
 10
6946.644625212591
 20
7924.007639154797
 30
0.0
 11
6556.644625212591
 21
7924.007639154797
 31
0.0
  0
LINE
  5
1FCB3
330
747D
100
AcDbEntity
  8
部品1
 48
50.0
100
AcDbLine
 10
6946.644625212591
 20
7924.007639154797
 30
0.0
 11
6556.644625212591
 21
7924.007639154797
 31
0.0
  0
LINE
  5
1FCB4
330
747D
100
AcDbEntity
  8
部品1
 48
50.0
100
AcDbLine
 10
6946.644625212591
 20
7924.007639154794
 30
0.0
 11
6556.644625212591
 21
7924.007639154797
 31
0.0
  0
LINE
  5
1FCCB
330
747D
100
AcDbEntity
  8
部品1
 48
50.0
100
AcDbLine
 10
6946.644625212575
 20
5292.007639154793
 30
0.0
 11
6556.644625212576
 21
5292.007639154797
 31
0.0
  0
LINE
  5
1FD3E
102
{ACAD_REACTORS
330
1FD42
102
}
330
747D
100
AcDbEntity
  8
点線
 48
10.0
100
AcDbLine
 10
9508.644625212593
 20
7824.007639154796
 30
0.0
 11
9708.644625212592
 21
7824.007639154796
 31
0.0
  0
LINE
  5
1FD3F
102
{ACAD_REACTORS
330
1FD42
102
}
330
747D
100
AcDbEntity
  8
点線
 48
10.0
100
AcDbLine
 10
9508.644625212593
 20
8024.007639154797
 30
0.0
 11
9508.644625212593
 21
7824.007639154796
 31
0.0
  0
LINE
  5
1FD40
102
{ACAD_REACTORS
330
1FD42
102
}
330
747D
100
AcDbEntity
  8
点線
 48
10.0
100
AcDbLine
 10
9508.644625212593
 20
8024.007639154797
 30
0.0
 11
9708.64462521259
 21
8024.007639154795
 31
0.0
  0
LINE
  5
1FD41
102
{ACAD_REACTORS
330
1FD42
102
}
330
747D
100
AcDbEntity
  8
点線
 48
10.0
100
AcDbLine
 10
9708.64462521259
 20
8024.007639154795
 30
0.0
 11
9708.644625212592
 21
7824.007639154796
 31
0.0
  0
LINE
  5
1FD43
102
{ACAD_REACTORS
330
1FD47
102
}
330
747D
100
AcDbEntity
  8
点線
 48
10.0
100
AcDbLine
 10
6456.644625212591
 20
7824.007639154796
 30
0.0
 11
6656.644625212591
 21
7824.007639154796
 31
0.0
  0
LINE
  5
1FD44
102
{ACAD_REACTORS
330
1FD47
102
}
330
747D
100
AcDbEntity
  8
点線
 48
10.0
100
AcDbLine
 10
6456.644625212591
 20
8024.007639154797
 30
0.0
 11
6456.644625212591
 21
7824.007639154796
 31
0.0
  0
LINE
  5
1FD45
102
{ACAD_REACTORS
330
1FD47
102
}
330
747D
100
AcDbEntity
  8
点線
 48
10.0
100
AcDbLine
 10
6456.644625212591
 20
8024.007639154797
 30
0.0
 11
6656.64462521259
 21
8024.007639154795
 31
0.0
  0
LINE
  5
1FD46
102
{ACAD_REACTORS
330
1FD47
102
}
330
747D
100
AcDbEntity
  8
点線
 48
10.0
100
AcDbLine
 10
6656.64462521259
 20
8024.007639154795
 30
0.0
 11
6656.644625212591
 21
7824.007639154796
 31
0.0
  0
LINE
  5
1FD48
102
{ACAD_REACTORS
330
1FD4C
102
}
330
747D
100
AcDbEntity
  8
点線
 48
10.0
100
AcDbLine
 10
6456.644625212575
 20
5192.007639154796
 30
0.0
 11
6656.644625212575
 21
5192.007639154796
 31
0.0
  0
LINE
  5
1FD49
102
{ACAD_REACTORS
330
1FD4C
102
}
330
747D
100
AcDbEntity
  8
点線
 48
10.0
100
AcDbLine
 10
6456.644625212575
 20
5392.007639154797
 30
0.0
 11
6456.644625212575
 21
5192.007639154796
 31
0.0
  0
LINE
  5
1FD4A
102
{ACAD_REACTORS
330
1FD4C
102
}
330
747D
100
AcDbEntity
  8
点線
 48
10.0
100
AcDbLine
 10
6456.644625212575
 20
5392.007639154797
 30
0.0
 11
6656.644625212573
 21
5392.007639154797
 31
0.0
  0
LINE
  5
1FD4B
102
{ACAD_REACTORS
330
1FD4C
102
}
330
747D
100
AcDbEntity
  8
点線
 48
10.0
100
AcDbLine
 10
6656.644625212573
 20
5392.007639154797
 30
0.0
 11
6656.644625212575
 21
5192.007639154796
 31
0.0
  0
LINE
  5
1FFE4
330
747D
100
AcDbEntity
  8
部品1
 48
50.0
100
AcDbLine
 10
6946.644625212591
 20
7924.007639154797
 30
0.0
 11
6556.644625212591
 21
7924.007639154797
 31
0.0
  0
LINE
  5
1FFEA
330
747D
100
AcDbEntity
  8
部品1
 48
50.0
100
AcDbLine
 10
6946.644625212591
 20
5292.007639154797
 30
0.0
 11
6556.644625212591
 21
5292.007639154797
 31
0.0
  0
LINE
  5
20241
330
747D
100
AcDbEntity
  8
部品1
 48
50.0
100
AcDbLine
 10
6946.644625212591
 20
5292.007639154797
 30
0.0
 11
6556.644625212591
 21
5292.007639154797
 31
0.0
  0
LINE
  5
2027A
330
747D
100
AcDbEntity
  8
部品1
 48
50.0
100
AcDbLine
 10
6946.644625212591
 20
7924.007639154801
 30
0.0
 11
6556.644625212591
 21
7924.007639154801
 31
0.0
  0
LINE
  5
20316
330
747D
100
AcDbEntity
  8
部品1
 48
50.0
100
AcDbLine
 10
6746.644625212592
 20
6148.007639154795
 30
0.0
 11
6556.644625212593
 21
6148.007639154797
 31
0.0
  0
LINE
  5
20317
330
747D
100
AcDbEntity
  8
部品1
 48
50.0
100
AcDbLine
 10
6556.644625212593
 20
6148.007639154797
 30
0.0
 11
6556.644625212593
 21
6338.007639154796
 31
0.0
  0
LINE
  5
20318
330
747D
100
AcDbEntity
  8
部品1
 48
50.0
100
AcDbLine
 10
6746.644625212593
 20
6338.007639154796
 30
0.0
 11
6556.644625212593
 21
6338.007639154795
 31
0.0
  0
LINE
  5
20319
330
747D
100
AcDbEntity
  8
部品1
 48
50.0
100
AcDbLine
 10
6746.644625212592
 20
6148.007639154795
 30
0.0
 11
6746.644625212593
 21
6338.007639154796
 31
0.0
  0
LINE
  5
20324
330
747D
100
AcDbEntity
  8
寸法
 62
     0
 48
50.0
100
AcDbLine
 10
9608.644625212592
 20
7924.007639154797
 30
0.0
 11
9608.644625212592
 21
7734.007639154798
 31
0.0
  0
LINE
  5
2032A
330
747D
100
AcDbEntity
  8
部品1
 48
50.0
100
AcDbLine
 10
6746.644625212593
 20
6951.980521065168
 30
0.0
 11
6746.644625212595
 21
7141.980521065169
 31
0.0
  0
LINE
  5
2032B
330
747D
100
AcDbEntity
  8
部品1
 48
50.0
100
AcDbLine
 10
6746.644625212595
 20
7141.980521065169
 30
0.0
 11
6556.644625212593
 21
7141.980521065169
 31
0.0
  0
LINE
  5
2032C
330
747D
100
AcDbEntity
  8
部品1
 48
50.0
100
AcDbLine
 10
6556.644625212594
 20
6951.98052106517
 30
0.0
 11
6556.644625212594
 21
7141.980521065169
 31
0.0
  0
LINE
  5
2032D
330
747D
100
AcDbEntity
  8
部品1
 48
50.0
100
AcDbLine
 10
6746.644625212593
 20
6951.980521065168
 30
0.0
 11
6556.644625212594
 21
6951.98052106517
 31
0.0
  0
LINE
  5
203CD
330
747D
100
AcDbEntity
  8
部品1
 48
50.0
100
AcDbLine
 10
6746.644625212593
 20
6951.980521065168
 30
0.0
 11
6746.644625212595
 21
7141.980521065169
 31
0.0
  0
LINE
  5
203CE
330
747D
100
AcDbEntity
  8
部品1
 48
50.0
100
AcDbLine
 10
6746.644625212595
 20
7141.980521065169
 30
0.0
 11
6556.644625212593
 21
7141.980521065169
 31
0.0
  0
LINE
  5
203CF
330
747D
100
AcDbEntity
  8
部品1
 48
50.0
100
AcDbLine
 10
6556.644625212594
 20
6951.98052106517
 30
0.0
 11
6556.644625212594
 21
7141.980521065169
 31
0.0
  0
LINE
  5
203D0
330
747D
100
AcDbEntity
  8
部品1
 48
50.0
100
AcDbLine
 10
6746.644625212593
 20
6951.980521065168
 30
0.0
 11
6556.644625212594
 21
6951.98052106517
 31
0.0
  0
LINE
  5
203DD
330
747D
100
AcDbEntity
  8
部品1
 48
50.0
100
AcDbLine
 10
9608.64462521259
 20
6951.980521065168
 30
0.0
 11
9608.644625212594
 21
7141.980521065169
 31
0.0
  0
LINE
  5
203DE
330
747D
100
AcDbEntity
  8
部品1
 48
50.0
100
AcDbLine
 10
9608.64462521259
 20
6951.980521065168
 30
0.0
 11
9418.644625212593
 21
6951.98052106517
 31
0.0
  0
LINE
  5
203DF
330
747D
100
AcDbEntity
  8
部品1
 48
50.0
100
AcDbLine
 10
9418.644625212593
 20
6951.98052106517
 30
0.0
 11
9418.644625212593
 21
7141.980521065169
 31
0.0
  0
LINE
  5
203E0
330
747D
100
AcDbEntity
  8
部品1
 48
50.0
100
AcDbLine
 10
9608.644625212594
 20
7141.980521065169
 30
0.0
 11
9418.644625212591
 21
7141.980521065169
 31
0.0
  0
LINE
  5
203E1
330
747D
100
AcDbEntity
  8
部品1
 48
50.0
100
AcDbLine
 10
6746.644625212592
 20
6148.007639154795
 30
0.0
 11
6746.644625212593
 21
6338.007639154796
 31
0.0
  0
LINE
  5
203E2
330
747D
100
AcDbEntity
  8
部品1
 48
50.0
100
AcDbLine
 10
6746.644625212593
 20
6338.007639154796
 30
0.0
 11
6556.644625212593
 21
6338.007639154795
 31
0.0
  0
LINE
  5
203E3
330
747D
100
AcDbEntity
  8
部品1
 48
50.0
100
AcDbLine
 10
6556.644625212593
 20
6148.007639154797
 30
0.0
 11
6556.644625212593
 21
6338.007639154796
 31
0.0
  0
LINE
  5
203E4
330
747D
100
AcDbEntity
  8
部品1
 48
50.0
100
AcDbLine
 10
6746.644625212592
 20
6148.007639154795
 30
0.0
 11
6556.644625212593
 21
6148.007639154797
 31
0.0
  0
LINE
  5
203F1
330
747D
100
AcDbEntity
  8
部品1
 48
50.0
100
AcDbLine
 10
9608.64462521259
 20
6148.007639154795
 30
0.0
 11
9608.644625212592
 21
6338.007639154796
 31
0.0
  0
LINE
  5
203F2
330
747D
100
AcDbEntity
  8
部品1
 48
50.0
100
AcDbLine
 10
9608.64462521259
 20
6148.007639154795
 30
0.0
 11
9418.644625212591
 21
6148.007639154797
 31
0.0
  0
LINE
  5
203F3
330
747D
100
AcDbEntity
  8
部品1
 48
50.0
100
AcDbLine
 10
9418.644625212591
 20
6148.007639154797
 30
0.0
 11
9418.644625212591
 21
6338.007639154796
 31
0.0
  0
LINE
  5
203F4
330
747D
100
AcDbEntity
  8
部品1
 48
50.0
100
AcDbLine
 10
9608.644625212592
 20
6338.007639154796
 30
0.0
 11
9418.644625212591
 21
6338.007639154795
 31
0.0
  0
LINE
  5
203F9
330
747D
100
AcDbEntity
  8
部品1
 48
50.0
100
AcDbLine
 10
8177.64462521259
 20
5292.007639154796
 30
0.0
 11
8177.644625212591
 21
5482.007639154797
 31
0.0
  0
LINE
  5
203FA
330
747D
100
AcDbEntity
  8
部品1
 48
50.0
100
AcDbLine
 10
8177.64462521259
 20
5292.007639154796
 30
0.0
 11
7987.644625212592
 21
5292.007639154797
 31
0.0
  0
LINE
  5
203FB
330
747D
100
AcDbEntity
  8
部品1
 48
50.0
100
AcDbLine
 10
7987.644625212592
 20
5292.007639154797
 30
0.0
 11
7987.644625212592
 21
5482.007639154797
 31
0.0
  0
LINE
  5
203FC
330
747D
100
AcDbEntity
  8
部品1
 48
50.0
100
AcDbLine
 10
8177.644625212591
 20
5482.007639154797
 30
0.0
 11
7987.64462521259
 21
5482.007639154796
 31
0.0
  0
LINE
  5
203FD
330
747D
100
AcDbEntity
  8
部品1
 48
50.0
100
AcDbLine
 10
8177.644625212607
 20
7924.007639154796
 30
0.0
 11
7987.644625212606
 21
7924.007639154794
 31
0.0
  0
LINE
  5
203FE
330
747D
100
AcDbEntity
  8
部品1
 48
50.0
100
AcDbLine
 10
7987.644625212609
 20
7734.007639154795
 30
0.0
 11
7987.644625212609
 21
7924.007639154796
 31
0.0
  0
LINE
  5
203FF
330
747D
100
AcDbEntity
  8
部品1
 48
50.0
100
AcDbLine
 10
8177.644625212606
 20
7734.007639154795
 30
0.0
 11
7987.644625212609
 21
7734.007639154795
 31
0.0
  0
LINE
  5
20400
330
747D
100
AcDbEntity
  8
部品1
 48
50.0
100
AcDbLine
 10
8177.644625212606
 20
7734.007639154795
 30
0.0
 11
8177.644625212607
 21
7924.007639154796
 31
0.0
  0
LINE
  5
205B3
330
747D
100
AcDbEntity
  8
部品1
 48
50.0
100
AcDbLine
 10
4173.156233613874
 20
2246.409334647283
 30
0.0
 11
10573.15623361387
 21
2246.409334647283
 31
0.0
  0
LINE
  5
205B4
330
747D
100
AcDbEntity
  8
部品1
 48
50.0
100
AcDbLine
 10
10573.15623361387
 20
2486.409334647284
 30
0.0
 11
5773.156233613875
 21
2486.409334647284
 31
0.0
  0
LINE
  5
205B5
330
747D
100
AcDbEntity
  8
部品1
 48
50.0
100
AcDbLine
 10
10573.15623361387
 20
2726.409334647284
 30
0.0
 11
4173.156233613874
 21
2726.409334647286
 31
0.0
  0
LINE
  5
205B6
330
747D
100
AcDbEntity
  8
部品1
 48
50.0
100
AcDbLine
 10
4173.156233613874
 20
326.4093346472837
 30
0.0
 11
10573.15623361387
 21
326.4093346472837
 31
0.0
  0
TEXT
  5
205B7
330
747D
100
AcDbEntity
  8
部品1
100
AcDbText
 10
7426.883549992566
 20
2540.473149250018
 30
0.0
 40
120.0
  1
アンカー部詳細
  7
STYLE2
100
AcDbText
  0
LINE
  5
205B8
330
747D
100
AcDbEntity
  8
細線
100
AcDbLine
 10
4968.642742648666
 20
1167.170122259038
 30
0.0
 11
5068.642742648663
 21
1267.17012225904
 31
0.0
  0
LINE
  5
205B9
330
747D
100
AcDbEntity
  8
細線
100
AcDbLine
 10
5044.072192027255
 20
1267.17012225904
 30
0.0
 11
4844.072192027259
 21
1467.170122259038
 31
0.0
  0
LEADER
  5
205BA
330
747D
100
AcDbEntity
  8
寸法
 48
50.0
100
AcDbLeader
  3
INABA_S50G
 71
     0
 73
     0
 74
     0
 75
     1
 40
120.0
 41
185.591883092037
 76
     3
 10
4898.0299841881
 20
1467.170122259038
 30
0.0
 10
5053.293566759277
 20
1680.022040067806
 30
0.0
 10
5178.293566759277
 20
1680.022040067806
 30
0.0
340
205BB
213
67.73172584638814
223
0.0
233
0.0
1001
ACAD
1000
DSTYLE
1002
{
1070
    40
1040
1.0
1002
}
  0
MTEXT
  5
205BB
102
{ACAD_REACTORS
330
205BA
102
}
330
747D
100
AcDbEntity
  8
寸法
 62
     7
 48
50.0
100
AcDbMText
 10
5135.561840912889
 20
1765.022040067806
 30
0.0
 40
120.0
 41
1.0
 71
     4
 72
     1
  1
\A1;C.B
  7
STYLE1
 73
     1
 44
1.0
1001
ACAD
1000
MTEXTBEGIN
1070
    73
1070
     1
1070
    44
1040
1.0
1070
    74
1070
     0
1000
MTEXTEND
  0
TEXT
  5
205BC
330
747D
100
AcDbEntity
  8
部品1
100
AcDbText
 10
4638.756254618672
 20
2434.381551825605
 30
0.0
 40
120.0
  1
基礎詳細
  7
STYLE2
100
AcDbText
  0
LINE
  5
205BD
330
747D
100
AcDbEntity
  8
細線
100
AcDbLine
 10
5086.498598898447
 20
1267.17012225904
 30
0.0
 11
4886.498598898452
 21
1467.170122259038
 31
0.0
  0
LINE
  5
205BE
330
747D
100
AcDbEntity
  8
Ｇ．Ｌ
100
AcDbLine
 10
4267.928978142776
 20
1267.17012225904
 30
0.0
 11
5698.822261965935
 21
1267.17012225904
 31
0.0
  0
LINE
  5
205BF
330
747D
100
AcDbEntity
  8
部品1
100
AcDbLine
 10
4698.029984188102
 20
1467.170122259038
 30
0.0
 11
5098.029984188099
 21
1467.170122259038
 31
0.0
  0
LINE
  5
205C0
330
747D
100
AcDbEntity
  8
部品1
100
AcDbLine
 10
4598.029984188098
 20
1167.170122259036
 30
0.0
 11
5198.029984188099
 21
1167.170122259038
 31
0.0
  0
LINE
  5
205C1
330
747D
100
AcDbEntity
  8
部品1
100
AcDbLine
 10
4598.029984188098
 20
967.1701222590344
 30
0.0
 11
5198.029984188099
 21
967.1701222590382
 31
0.0
  0
LINE
  5
205C2
330
747D
100
AcDbEntity
  8
部品1
 48
50.0
100
AcDbLine
 10
4173.156233613874
 20
2726.409334647284
 30
0.0
 11
4173.156233613874
 21
326.4093346472837
 31
0.0
  0
LINE
  5
205C3
330
747D
100
AcDbEntity
  8
細線
100
AcDbLine
 10
4698.029984188102
 20
1167.170122259036
 30
0.0
 11
4751.619822674322
 21
967.1701222590327
 31
0.0
  0
LINE
  5
205C4
330
747D
100
AcDbEntity
  8
細線
100
AcDbLine
 10
4798.029984188099
 20
1167.170122259038
 30
0.0
 11
4851.619822674322
 21
967.1701222590344
 31
0.0
  0
LINE
  5
205C5
330
747D
100
AcDbEntity
  8
細線
100
AcDbLine
 10
4898.029984188099
 20
1167.170122259038
 30
0.0
 11
4951.619822674325
 21
967.1701222590344
 31
0.0
  0
LINE
  5
205C6
330
747D
100
AcDbEntity
  8
細線
100
AcDbLine
 10
4598.029984188098
 20
1167.170122259036
 30
0.0
 11
4651.619822674326
 21
967.1701222590327
 31
0.0
  0
LINE
  5
205C7
330
747D
100
AcDbEntity
  8
部品1
100
AcDbLine
 10
4598.029984188098
 20
967.1701222590344
 30
0.0
 11
4598.029984188098
 21
1267.17012225904
 31
0.0
  0
LINE
  5
205C8
330
747D
100
AcDbEntity
  8
細線
100
AcDbLine
 10
4738.222363052769
 20
1017.170122259036
 30
0.0
 11
4724.82490343121
 21
967.1701222590344
 31
0.0
  0
LINE
  5
205C9
330
747D
100
AcDbEntity
  8
細線
100
AcDbLine
 10
4638.222363052766
 20
1017.170122259036
 30
0.0
 11
4624.82490343121
 21
967.1701222590344
 31
0.0
  0
LINE
  5
205CA
330
747D
100
AcDbEntity
  8
細線
100
AcDbLine
 10
4838.222363052766
 20
1017.170122259038
 30
0.0
 11
4824.824903431213
 21
967.1701222590382
 31
0.0
  0
LINE
  5
205CB
330
747D
100
AcDbEntity
  8
細線
100
AcDbLine
 10
4938.222363052766
 20
1017.170122259038
 30
0.0
 11
4924.82490343121
 21
967.1701222590382
 31
0.0
  0
LINE
  5
205CC
330
747D
100
AcDbEntity
  8
部品1
100
AcDbLine
 10
4698.029984188102
 20
1267.17012225904
 30
0.0
 11
4698.029984188102
 21
1467.170122259038
 31
0.0
  0
LINE
  5
205CD
330
747D
100
AcDbEntity
  8
細線
100
AcDbLine
 10
4860.224428918755
 20
1267.17012225904
 30
0.0
 11
4698.029984188099
 21
1429.364566989692
 31
0.0
  0
LINE
  5
205CE
330
747D
100
AcDbEntity
  8
細線
100
AcDbLine
 10
4725.211285143593
 20
1167.170122259038
 30
0.0
 11
4825.211285143589
 21
1267.17012225904
 31
0.0
  0
LINE
  5
205CF
330
747D
100
AcDbEntity
  8
細線
100
AcDbLine
 10
4817.798022047561
 20
1267.17012225904
 30
0.0
 11
4698.029984188102
 21
1386.938160118499
 31
0.0
  0
LINE
  5
205D0
330
747D
100
AcDbEntity
  8
細線
100
AcDbLine
 10
4696.927013896129
 20
1167.170122259038
 30
0.0
 11
4796.927013896126
 21
1267.17012225904
 31
0.0
  0
LINE
  5
205D1
330
747D
100
AcDbEntity
  8
細線
100
AcDbLine
 10
4668.642742648666
 20
1167.170122259036
 30
0.0
 11
4768.642742648665
 21
1267.17012225904
 31
0.0
  0
LINE
  5
205D2
330
747D
100
AcDbEntity
  8
細線
100
AcDbLine
 10
4724.82490343121
 20
1167.170122259036
 30
0.0
 11
4711.427443809654
 21
1117.170122259034
 31
0.0
  0
LINE
  5
205D3
330
747D
100
AcDbEntity
  8
細線
100
AcDbLine
 10
4624.82490343121
 20
1167.170122259036
 30
0.0
 11
4611.427443809658
 21
1117.170122259034
 31
0.0
  0
LINE
  5
205D4
330
747D
100
AcDbEntity
  8
細線
100
AcDbLine
 10
4824.824903431213
 20
1167.170122259038
 30
0.0
 11
4811.427443809654
 21
1117.17012225904
 31
0.0
  0
LINE
  5
205D5
330
747D
100
AcDbEntity
  8
細線
100
AcDbLine
 10
4924.82490343121
 20
1167.170122259038
 30
0.0
 11
4911.427443809658
 21
1117.17012225904
 31
0.0
  0
LINE
  5
205D6
330
747D
100
AcDbEntity
  8
細線
 48
50.0
100
AcDbLine
 10
6010.863935877075
 20
2067.170122259037
 30
0.0
 11
6010.863935877075
 21
1567.170122259038
 31
0.0
  0
LINE
  5
205D7
330
747D
100
AcDbEntity
  8
細線
 48
50.0
100
AcDbLine
 10
6040.863935877074
 20
2067.170122259037
 30
0.0
 11
6040.863935877074
 21
1567.170122259038
 31
0.0
  0
LINE
  5
205D8
330
747D
100
AcDbEntity
  8
細線
 48
50.0
100
AcDbLine
 10
6320.863935877074
 20
2067.170122259037
 30
0.0
 11
6320.863935877074
 21
1567.170122259038
 31
0.0
  0
LINE
  5
205D9
330
747D
100
AcDbEntity
  8
細線
 48
50.0
100
AcDbLine
 10
6290.863935877074
 20
2067.170122259037
 30
0.0
 11
6290.863935877074
 21
1567.170122259038
 31
0.0
  0
LINE
  5
205DA
330
747D
100
AcDbEntity
  8
部品1
 48
50.0
100
AcDbLine
 10
7373.156233613873
 20
2486.409334647284
 30
0.0
 11
7373.156233613873
 21
326.4093346472837
 31
0.0
  0
LINE
  5
205DB
330
747D
100
AcDbEntity
  8
部品1
 48
50.0
100
AcDbLine
 10
5773.156233613875
 20
2726.409334647284
 30
0.0
 11
5773.156233613875
 21
326.4093346472837
 31
0.0
  0
LINE
  5
205DC
330
747D
100
AcDbEntity
  8
部品1
100
AcDbLine
 10
6555.863935877074
 20
2067.170122259037
 30
0.0
 11
6555.863935877074
 21
1267.170122259038
 31
0.0
  0
LINE
  5
205DD
330
747D
100
AcDbEntity
  8
部品1
100
AcDbLine
 10
6445.863935877074
 20
2067.170122259037
 30
0.0
 11
6445.863935877078
 21
1561.17012225904
 31
0.0
  0
LINE
  5
205DE
330
747D
100
AcDbEntity
  8
部品1
100
AcDbLine
 10
5840.609502633481
 20
1561.170122259038
 30
0.0
 11
6555.863935877074
 21
1561.170122259038
 31
0.0
  0
DIMENSION
  5
205DF
330
747D
100
AcDbEntity
  8
寸法
 48
50.0
100
AcDbDimension
  2
*D14
 10
6062.534188801545
 20
867.1701222590382
 30
0.0
 11
6062.534188801545
 21
1054.794755374943
 31
0.0
 70
   160
  1
200
 71
     5
 42
400.0
  3
INABA_S40G
100
AcDbAlignedDimension
 13
6155.863935877074
 23
1267.170122259038
 33
0.0
 14
6305.863935877074
 24
867.1701222590382
 34
0.0
 50
90.0
100
AcDbRotatedDimension
1001
ACAD
1000
DSTYLE
1002
{
1070
   174
1070
     0
1070
   272
1070
     1
1070
   288
1070
     0
1070
   341
1005
0
1002
}
  0
LINE
  5
205E0
330
747D
100
AcDbEntity
  8
Ｇ．Ｌ
100
AcDbLine
 10
5840.609502633481
 20
1267.170122259038
 30
0.0
 11
6475.863935877075
 21
1267.170122259038
 31
0.0
  0
LINE
  5
205E1
330
747D
100
AcDbEntity
  8
部品1
100
AcDbLine
 10
5840.609502633481
 20
1467.170122259038
 30
0.0
 11
6475.863935877075
 21
1467.170122259038
 31
0.0
  0
LINE
  5
205E2
330
747D
100
AcDbEntity
  8
部品1
100
AcDbLine
 10
5840.609502633481
 20
1567.17012225904
 30
0.0
 11
6445.863935877074
 21
1567.170122259038
 31
0.0
  0
LINE
  5
205E3
330
747D
100
AcDbEntity
  8
細線
100
AcDbLine
 10
5098.029984188099
 20
1167.170122259038
 30
0.0
 11
5151.619822674322
 21
967.1701222590382
 31
0.0
  0
LINE
  5
205E4
330
747D
100
AcDbEntity
  8
細線
100
AcDbLine
 10
4998.029984188103
 20
1167.170122259038
 30
0.0
 11
5051.619822674322
 21
967.1701222590344
 31
0.0
  0
LINE
  5
205E5
330
747D
100
AcDbEntity
  8
部品1
100
AcDbLine
 10
5198.029984188099
 20
1267.17012225904
 30
0.0
 11
5198.029984188099
 21
967.1701222590382
 31
0.0
  0
LINE
  5
205E6
330
747D
100
AcDbEntity
  8
細線
100
AcDbLine
 10
5138.222363052766
 20
1017.170122259038
 30
0.0
 11
5124.824903431214
 21
967.1701222590382
 31
0.0
  0
LINE
  5
205E7
330
747D
100
AcDbEntity
  8
細線
100
AcDbLine
 10
5038.22236305277
 20
1017.170122259038
 30
0.0
 11
5024.82490343121
 21
967.1701222590382
 31
0.0
  0
TEXT
  5
205E8
330
747D
100
AcDbEntity
  8
部品1
100
AcDbText
 10
5321.282610055528
 20
1275.076163937943
 30
0.0
 40
120.0
  1
▽G.L
  7
STYLE1
100
AcDbText
  0
LINE
  5
205E9
330
747D
100
AcDbEntity
  8
部品1
100
AcDbLine
 10
5098.029984188099
 20
1467.170122259038
 30
0.0
 11
5098.029984188099
 21
1267.17012225904
 31
0.0
  0
LINE
  5
205EA
330
747D
100
AcDbEntity
  8
細線
100
AcDbLine
 10
5025.211285143589
 20
1167.170122259038
 30
0.0
 11
5125.211285143588
 21
1267.17012225904
 31
0.0
  0
LINE
  5
205EB
330
747D
100
AcDbEntity
  8
細線
100
AcDbLine
 10
4996.927013896129
 20
1167.170122259038
 30
0.0
 11
5096.927013896126
 21
1267.17012225904
 31
0.0
  0
LINE
  5
205EC
330
747D
100
AcDbEntity
  8
細線
100
AcDbLine
 10
5124.824903431214
 20
1167.170122259038
 30
0.0
 11
5111.427443809654
 21
1117.17012225904
 31
0.0
  0
LINE
  5
205ED
330
747D
100
AcDbEntity
  8
細線
100
AcDbLine
 10
5024.82490343121
 20
1167.170122259038
 30
0.0
 11
5011.427443809655
 21
1117.17012225904
 31
0.0
  0
TEXT
  5
205EE
330
747D
100
AcDbEntity
  8
部品1
100
AcDbText
 10
6940.427482946685
 20
1275.076163937941
 30
0.0
 40
120.0
  1
▽G.L
  7
STYLE1
100
AcDbText
  0
LINE
  5
205EF
330
747D
100
AcDbEntity
  8
細線
  6
HIDDEN
 48
10.0
100
AcDbLine
 10
6590.59066477903
 20
867.1701222590399
 30
0.0
 11
6705.863935877073
 21
982.4433933570871
 31
0.0
  0
LINE
  5
205F0
330
747D
100
AcDbEntity
  8
細線
  6
HIDDEN
 48
10.0
100
AcDbLine
 10
6562.30639353157
 20
867.1701222590391
 30
0.0
 11
6705.863935877075
 21
1010.727664604547
 31
0.0
  0
LINE
  5
205F1
330
747D
100
AcDbEntity
  8
細線
  6
HIDDEN
 48
10.0
100
AcDbLine
 10
6618.874936026492
 20
867.1701222590399
 30
0.0
 11
6705.863935877073
 21
954.1591221096233
 31
0.0
  0
LINE
  5
205F2
330
747D
100
AcDbEntity
  8
Ｇ．Ｌ
100
AcDbLine
 10
6555.863935877074
 20
1267.170122259038
 30
0.0
 11
7307.960178115412
 21
1267.170122259038
 31
0.0
  0
LINE
  5
205F3
330
747D
100
AcDbEntity
  8
細線
  6
HIDDEN
 48
10.0
100
AcDbLine
 10
6305.863935877075
 20
1009.101782209913
 30
0.0
 11
6469.126261830308
 21
1172.364108163156
 31
0.0
  0
LINE
  5
205F4
330
747D
100
AcDbEntity
  8
細線
  6
HIDDEN
 48
10.0
100
AcDbLine
 10
6305.863935877074
 20
1037.386053457374
 30
0.0
 11
6472.343162026911
 21
1203.865279607215
 31
0.0
  0
LINE
  5
205F5
330
747D
100
AcDbEntity
  8
細線
  6
HIDDEN
 48
10.0
100
AcDbLine
 10
6305.863935877075
 20
980.8175109624517
 30
0.0
 11
6465.909361633698
 21
1140.862936719091
 31
0.0
  0
LINE
  5
205F6
330
747D
100
AcDbEntity
  8
部品1
100
AcDbLine
 10
6474.967166869006
 20
1229.56058295794
 30
0.0
 11
6445.863935877074
 21
944.5701222590377
 31
0.0
  0
LINE
  5
205F7
330
747D
100
AcDbEntity
  8
部品1
100
AcDbLine
 10
6556.760704885149
 20
1229.56058295794
 30
0.0
 11
6585.863935877075
 21
944.5701222590377
 31
0.0
  0
LINE
  5
205F8
330
747D
100
AcDbEntity
  8
部品1
100
AcDbLine
 10
6445.863935877074
 20
944.5701222590377
 30
0.0
 11
6585.863935877075
 21
944.5701222590377
 31
0.0
  0
LINE
  5
205F9
330
747D
100
AcDbEntity
  8
部品1
100
AcDbLine
 10
6445.863935877074
 20
932.5701222590378
 30
0.0
 11
6585.863935877075
 21
932.5701222590378
 31
0.0
  0
LINE
  5
205FA
330
747D
100
AcDbEntity
  8
部品1
100
AcDbLine
 10
6445.863935877074
 20
944.570122259036
 30
0.0
 11
6445.863935877074
 21
932.5701222590378
 31
0.0
  0
LINE
  5
205FB
330
747D
100
AcDbEntity
  8
細線
100
AcDbLine
 10
6500.863935877075
 20
956.5701222590396
 30
0.0
 11
6530.863935877075
 21
956.5701222590361
 31
0.0
  0
LINE
  5
205FC
330
747D
100
AcDbEntity
  8
細線
100
AcDbLine
 10
6500.863935877075
 20
962.5701222590397
 30
0.0
 11
6530.863935877075
 21
962.5701222590359
 31
0.0
  0
LINE
  5
205FD
330
747D
100
AcDbEntity
  8
細線
100
AcDbLine
 10
6500.863935877075
 20
1002.570122259041
 30
0.0
 11
6530.863935877075
 21
1002.570122259036
 31
0.0
  0
LINE
  5
205FE
330
747D
100
AcDbEntity
  8
細線
100
AcDbLine
 10
6500.863935877075
 20
996.5701222590414
 30
0.0
 11
6530.863935877075
 21
996.5701222590359
 31
0.0
  0
LINE
  5
205FF
330
747D
100
AcDbEntity
  8
細線
100
AcDbLine
 10
6500.863935877075
 20
962.5701222590397
 30
0.0
 11
6500.863935877075
 21
956.5701222590361
 31
0.0
  0
LINE
  5
20600
330
747D
100
AcDbEntity
  8
細線
100
AcDbLine
 10
6500.863935877075
 20
1002.570122259041
 30
0.0
 11
6500.863935877075
 21
996.5701222590359
 31
0.0
  0
LINE
  5
20601
330
747D
100
AcDbEntity
  8
細線
100
AcDbLine
 10
6530.863935877075
 20
962.5701222590341
 30
0.0
 11
6530.863935877075
 21
956.5701222590341
 31
0.0
  0
LINE
  5
20602
330
747D
100
AcDbEntity
  8
細線
100
AcDbLine
 10
6530.863935877075
 20
1002.570122259032
 30
0.0
 11
6530.863935877075
 21
996.5701222590324
 31
0.0
  0
LINE
  5
20603
330
747D
100
AcDbEntity
  8
部品1
100
AcDbLine
 10
6585.863935877075
 20
944.5701222590377
 30
0.0
 11
6585.863935877075
 21
932.5701222590378
 31
0.0
  0
LINE
  5
20604
330
747D
100
AcDbEntity
  8
細線
100
AcDbLine
 10
6284.318605440465
 20
1267.170122259038
 30
0.0
 11
6155.863935877074
 21
1395.624791822431
 31
0.0
  0
LINE
  5
20605
330
747D
100
AcDbEntity
  8
細線
100
AcDbLine
 10
6468.16636854897
 20
1267.170122259038
 30
0.0
 11
6268.166368548969
 21
1467.170122259038
 31
0.0
  0
LINE
  5
20606
330
747D
100
AcDbEntity
  8
部品1
100
AcDbLine
 10
6155.863935877074
 20
1267.170122259038
 30
0.0
 11
6155.863935877074
 21
1467.170122259038
 31
0.0
  0
LINE
  5
20607
330
747D
100
AcDbEntity
  8
細線
100
AcDbLine
 10
6241.892198569273
 20
1267.170122259038
 30
0.0
 11
6155.863935877074
 21
1353.198384951238
 31
0.0
  0
LINE
  5
20608
330
747D
100
AcDbEntity
  8
細線
100
AcDbLine
 10
6475.863935877075
 20
1301.898961802126
 30
0.0
 11
6310.592775420162
 21
1467.170122259038
 31
0.0
  0
LINE
  5
20609
330
747D
100
AcDbEntity
  8
部品1
100
AcDbLine
 10
6555.863935877074
 20
1530.170122259038
 30
0.0
 11
6555.863935877077
 21
1232.815591247046
 31
0.0
  0
LINE
  5
2060A
330
747D
100
AcDbEntity
  8
部品1
100
AcDbLine
 10
6475.863935877075
 20
1531.170122259038
 30
0.0
 11
6475.863935877075
 21
1232.815591247046
 31
0.0
  0
LINE
  5
2060B
330
747D
100
AcDbEntity
  8
部品1
100
AcDbLine
 10
6484.917995357318
 20
1238.570122259038
 30
0.0
 11
6546.80987639683
 21
1238.570122259032
 31
0.0
  0
ARC
  5
2060C
330
747D
100
AcDbEntity
  8
部品1
100
AcDbCircle
 10
6484.917995357318
 20
1228.570122259036
 30
0.0
 40
10.0
100
AcDbArc
 50
90.0
 51
174.3157584018092
  0
LINE
  5
2060D
330
747D
100
AcDbEntity
  8
細線
  6
HIDDEN
 48
10.0
100
AcDbLine
 10
6555.863935877074
 20
1259.101782209925
 30
0.0
 11
6563.932275926188
 21
1267.170122259038
 31
0.0
  0
LINE
  5
2060E
330
747D
100
AcDbEntity
  8
細線
  6
HIDDEN
 48
10.0
100
AcDbLine
 10
6556.411381533962
 20
1231.364956619356
 30
0.0
 11
6592.216547173645
 21
1267.17012225904
 31
0.0
  0
ARC
  5
2060F
330
747D
100
AcDbEntity
  8
部品1
100
AcDbCircle
 10
6546.80987639683
 20
1228.570122259032
 30
0.0
 40
10.0
100
AcDbArc
 50
5.684241598190771
 51
90.0
  0
CIRCLE
  5
20610
330
747D
100
AcDbEntity
  8
細線
100
AcDbCircle
 10
6515.863935877074
 20
1371.17012225904
 30
0.0
 40
6.0
  0
CIRCLE
  5
20611
330
747D
100
AcDbEntity
  8
細線
100
AcDbCircle
 10
6515.863935877074
 20
1371.17012225904
 30
0.0
 40
7.0
  0
CIRCLE
  5
20612
330
747D
100
AcDbEntity
  8
細線
100
AcDbCircle
 10
6515.863935877074
 20
1216.170122259038
 30
0.0
 40
16.0
  0
LINE
  5
20613
330
747D
100
AcDbEntity
  8
細線
100
AcDbLine
 10
6500.863935877075
 20
1146.570122259039
 30
0.0
 11
6501.863935877074
 21
1146.570122259039
 31
0.0
  0
LINE
  5
20614
330
747D
100
AcDbEntity
  8
細線
100
AcDbLine
 10
6500.863935877075
 20
1152.57012225904
 30
0.0
 11
6530.863935877075
 21
1152.570122259036
 31
0.0
  0
ARC
  5
20615
330
747D
100
AcDbEntity
  8
細線
100
AcDbCircle
 10
6515.863935877074
 20
1176.570122259034
 30
0.0
 40
8.0
100
AcDbArc
 50
180.0
 51
0.0
  0
LINE
  5
20616
330
747D
100
AcDbEntity
  8
細線
100
AcDbLine
 10
6500.863935877075
 20
1152.57012225904
 30
0.0
 11
6500.863935877075
 21
1146.570122259036
 31
0.0
  0
LINE
  5
20617
330
747D
100
AcDbEntity
  8
細線
100
AcDbLine
 10
6500.863935877075
 20
1151.170122259032
 30
0.0
 11
6530.863935877075
 21
1151.170122259038
 31
0.0
  0
LINE
  5
20618
330
747D
100
AcDbEntity
  8
細線
100
AcDbLine
 10
6507.987041502696
 20
1134.570122259028
 30
0.0
 11
6523.740830251459
 21
1134.570122259034
 31
0.0
  0
LINE
  5
20619
330
747D
100
AcDbEntity
  8
細線
100
AcDbLine
 10
6501.863935877074
 20
1151.170122259032
 30
0.0
 11
6501.863935877074
 21
1146.570122259036
 31
0.0
  0
LINE
  5
2061A
330
747D
100
AcDbEntity
  8
細線
100
AcDbLine
 10
6501.863935877074
 20
1146.570122259034
 30
0.0
 11
6504.106471502113
 21
1137.599979758884
 31
0.0
  0
ARC
  5
2061B
330
747D
100
AcDbEntity
  8
細線
100
AcDbCircle
 10
6507.987041502696
 20
1138.57012225903
 30
0.0
 40
4.0
100
AcDbArc
 50
194.0362434679644
 51
270.0
  0
LINE
  5
2061C
330
747D
100
AcDbEntity
  8
細線
100
AcDbLine
 10
6529.863935877074
 20
1151.170122259034
 30
0.0
 11
6529.863935877074
 21
1146.570122259036
 31
0.0
  0
LINE
  5
2061D
330
747D
100
AcDbEntity
  8
細線
100
AcDbLine
 10
6529.863935877074
 20
1146.570122259034
 30
0.0
 11
6527.621400252036
 21
1137.599979758884
 31
0.0
  0
ARC
  5
2061E
330
747D
100
AcDbEntity
  8
細線
100
AcDbCircle
 10
6523.740830251459
 20
1138.570122259032
 30
0.0
 40
4.0
100
AcDbArc
 50
270.0
 51
345.9637565320356
  0
LINE
  5
2061F
330
747D
100
AcDbEntity
  8
細線
100
AcDbLine
 10
6530.863935877075
 20
1152.570122259034
 30
0.0
 11
6530.863935877075
 21
1146.570122259034
 31
0.0
  0
LINE
  5
20620
330
747D
100
AcDbEntity
  8
細線
100
AcDbLine
 10
6529.863935877074
 20
1146.570122259039
 30
0.0
 11
6530.863935877075
 21
1146.570122259036
 31
0.0
  0
LINE
  5
20621
330
747D
100
AcDbEntity
  8
細線
100
AcDbLine
 10
6523.863935877074
 20
1202.313715798487
 30
0.0
 11
6523.863935877074
 21
1176.570122259034
 31
0.0
  0
LINE
  5
20622
330
747D
100
AcDbEntity
  8
細線
100
AcDbLine
 10
6507.863935877074
 20
1202.313715798487
 30
0.0
 11
6507.863935877074
 21
1176.570122259034
 31
0.0
  0
LINE
  5
20623
330
747D
100
AcDbEntity
  8
部品1
100
AcDbLine
 10
6485.863935877074
 20
1541.170122259038
 30
0.0
 11
6545.863935877074
 21
1541.170122259038
 31
0.0
  0
ARC
  5
20624
330
747D
100
AcDbEntity
  8
部品1
100
AcDbCircle
 10
6485.863935877074
 20
1531.170122259038
 30
0.0
 40
10.0
100
AcDbArc
 50
90.0
 51
180.0
  0
ARC
  5
20625
330
747D
100
AcDbEntity
  8
細線
100
AcDbCircle
 10
6515.863935877074
 20
1481.170122259038
 30
0.0
 40
8.0
100
AcDbArc
 50
0.0
 51
180.0
  0
ARC
  5
20626
330
747D
100
AcDbEntity
  8
細線
100
AcDbCircle
 10
6515.863935877074
 20
1441.170122259038
 30
0.0
 40
8.0
100
AcDbArc
 50
180.0
 51
0.0
  0
LINE
  5
20627
330
747D
100
AcDbEntity
  8
細線
100
AcDbLine
 10
6507.863935877074
 20
1481.170122259038
 30
0.0
 11
6507.863935877074
 21
1441.170122259038
 31
0.0
  0
LINE
  5
20628
330
747D
100
AcDbEntity
  8
細線
100
AcDbLine
 10
6523.863935877074
 20
1481.170122259038
 30
0.0
 11
6523.863935877074
 21
1441.170122259038
 31
0.0
  0
ARC
  5
20629
330
747D
100
AcDbEntity
  8
部品1
100
AcDbCircle
 10
6545.863935877074
 20
1531.170122259038
 30
0.0
 40
10.0
100
AcDbArc
 50
0.0
 51
90.0
  0
CIRCLE
  5
2062A
330
747D
100
AcDbEntity
  8
部品1
100
AcDbCircle
 10
6515.863935877074
 20
1511.170122259038
 30
0.0
 40
16.0
  0
TEXT
  5
2062B
330
747D
100
AcDbEntity
  8
部品1
100
AcDbText
 10
5985.309595052444
 20
2304.694450988487
 30
0.0
 40
120.0
  1
地盤が土の場合
  7
STYLE2
100
AcDbText
  0
TEXT
  5
2062C
330
747D
100
AcDbEntity
  8
部品1
100
AcDbText
 10
10119.32227625494
 20
1275.076163937941
 30
0.0
 40
120.0
  1
▽G.L
  7
STYLE1
100
AcDbText
  0
LINE
  5
2062D
330
747D
100
AcDbEntity
  8
細線
 48
10.0
100
AcDbLine
 10
10140.0437312418
 20
960.2519249197539
 30
0.0
 11
10446.96192858108
 21
1267.170122259038
 31
0.0
  0
LINE
  5
2062E
330
747D
100
AcDbEntity
  8
細線
 48
10.0
100
AcDbLine
 10
10111.75945999434
 20
960.2519249197539
 30
0.0
 11
10418.67765733361
 21
1267.170122259038
 31
0.0
  0
LINE
  5
2062F
330
747D
100
AcDbEntity
  8
細線
 48
10.0
100
AcDbLine
 10
10083.47518874688
 20
960.2519249197539
 30
0.0
 11
10390.39338608616
 21
1267.170122259038
 31
0.0
  0
LINE
  5
20630
330
747D
100
AcDbEntity
  8
Ｇ．Ｌ
100
AcDbLine
 10
9046.454644804446
 20
1267.170122259038
 30
0.0
 11
10491.34634680959
 21
1267.170122259038
 31
0.0
  0
LINE
  5
20631
330
747D
100
AcDbEntity
  8
部品1
100
AcDbLine
 10
9559.252041603159
 20
2167.170122259037
 30
0.0
 11
9559.252041603162
 21
1661.17012225904
 31
0.0
  0
LINE
  5
20632
330
747D
100
AcDbEntity
  8
部品1
100
AcDbLine
 10
9669.252041603158
 20
2167.170122259037
 30
0.0
 11
9669.252041603163
 21
1667.415591247045
 31
0.0
  0
LINE
  5
20633
330
747D
100
AcDbEntity
  8
細線
 48
50.0
100
AcDbLine
 10
9124.252041603154
 20
2167.170122259037
 30
0.0
 11
9124.252041603154
 21
1667.17012225904
 31
0.0
  0
LINE
  5
20634
330
747D
100
AcDbEntity
  8
細線
 48
50.0
100
AcDbLine
 10
9154.252041603156
 20
2167.170122259037
 30
0.0
 11
9154.252041603156
 21
1667.17012225904
 31
0.0
  0
LINE
  5
20635
330
747D
100
AcDbEntity
  8
細線
 48
50.0
100
AcDbLine
 10
9404.252041603156
 20
2167.170122259037
 30
0.0
 11
9404.252041603156
 21
1667.17012225904
 31
0.0
  0
LINE
  5
20636
330
747D
100
AcDbEntity
  8
細線
 48
50.0
100
AcDbLine
 10
9434.252041603155
 20
2167.170122259037
 30
0.0
 11
9434.252041603155
 21
1667.17012225904
 31
0.0
  0
LINE
  5
20637
330
747D
100
AcDbEntity
  8
部品1
100
AcDbLine
 10
8048.919436890178
 20
2067.170122259038
 30
0.0
 11
8048.91943689018
 21
1561.170122259042
 31
0.0
  0
LINE
  5
20638
330
747D
100
AcDbEntity
  8
細線
 48
50.0
100
AcDbLine
 10
7923.919436890173
 20
2067.170122259038
 30
0.0
 11
7923.919436890173
 21
1567.17012225904
 31
0.0
  0
LINE
  5
20639
330
747D
100
AcDbEntity
  8
細線
 48
50.0
100
AcDbLine
 10
7893.919436890174
 20
2067.170122259038
 30
0.0
 11
7893.919436890174
 21
1567.17012225904
 31
0.0
  0
LINE
  5
2063A
330
747D
100
AcDbEntity
  8
細線
 48
50.0
100
AcDbLine
 10
7643.919436890174
 20
2067.170122259038
 30
0.0
 11
7643.919436890174
 21
1567.17012225904
 31
0.0
  0
LINE
  5
2063B
330
747D
100
AcDbEntity
  8
細線
 48
50.0
100
AcDbLine
 10
7613.919436890174
 20
2067.170122259038
 30
0.0
 11
7613.919436890174
 21
1567.17012225904
 31
0.0
  0
LINE
  5
2063C
330
747D
100
AcDbEntity
  8
部品1
100
AcDbLine
 10
8158.919436890178
 20
2067.170122259038
 30
0.0
 11
8158.919436890181
 21
1567.415591247045
 31
0.0
  0
LINE
  5
2063D
330
747D
100
AcDbEntity
  8
部品1
 48
50.0
100
AcDbLine
 10
8973.156233613874
 20
2246.409334647283
 30
0.0
 11
8973.156233613874
 21
326.4093346472837
 31
0.0
  0
LINE
  5
2063E
330
747D
100
AcDbEntity
  8
細線
 48
10.0
100
AcDbLine
 10
8056.055300620561
 20
960.2519249197539
 30
0.0
 11
8362.973497959837
 21
1267.170122259038
 31
0.0
  0
LINE
  5
2063F
330
747D
100
AcDbEntity
  8
細線
 48
10.0
100
AcDbLine
 10
8027.771029373104
 20
960.2519249197539
 30
0.0
 11
8334.689226712375
 21
1267.170122259038
 31
0.0
  0
LINE
  5
20640
330
747D
100
AcDbEntity
  8
細線
 48
10.0
100
AcDbLine
 10
8084.339571868024
 20
960.2519249197539
 30
0.0
 11
8391.257769207303
 21
1267.170122259038
 31
0.0
  0
DIMENSION
  5
20641
330
747D
100
AcDbEntity
  8
寸法
 48
50.0
100
AcDbDimension
  2
*D15
 10
8391.683447458582
 20
1267.170122259038
 30
0.0
 11
8291.683447458582
 21
1367.17012225904
 31
0.0
 70
    32
  1
b
 71
     5
 42
200.0000000000018
  3
INABA_S40G
100
AcDbAlignedDimension
 13
8169.470199995684
 23
1467.17012225904
 33
0.0
 14
8188.919436890174
 24
1267.170122259038
 34
0.0
 50
90.0
100
AcDbRotatedDimension
1001
ACAD
1000
DSTYLE
1002
{
1070
   174
1070
     0
1070
   272
1070
     1
1070
   288
1070
     0
1070
   341
1005
0
1002
}
  0
LINE
  5
20642
330
747D
100
AcDbEntity
  8
Ｇ．Ｌ
100
AcDbLine
 10
7443.665003646583
 20
1267.170122259038
 30
0.0
 11
8907.700242410866
 21
1267.170122259038
 31
0.0
  0
LINE
  5
20643
330
747D
100
AcDbEntity
  8
細線
 48
10.0
100
AcDbLine
 10
7629.396911767741
 20
960.2519249197539
 30
0.0
 11
7936.31510910701
 21
1267.170122259038
 31
0.0
  0
LINE
  5
20644
330
747D
100
AcDbEntity
  8
細線
 48
10.0
100
AcDbLine
 10
7601.112640520277
 20
960.2519249197539
 30
0.0
 11
7908.030837859555
 21
1267.170122259038
 31
0.0
  0
LINE
  5
20645
330
747D
100
AcDbEntity
  8
細線
 48
10.0
100
AcDbLine
 10
7657.681183015203
 20
960.2519249197539
 30
0.0
 11
7964.599380354463
 21
1267.170122259038
 31
0.0
  0
LINE
  5
20646
330
747D
100
AcDbEntity
  8
部品1
100
AcDbLine
 10
7443.665003646581
 20
1467.17012225904
 30
0.0
 11
8068.118000284419
 21
1467.17012225904
 31
0.0
  0
LINE
  5
20647
330
747D
100
AcDbEntity
  8
部品1
100
AcDbLine
 10
7443.665003646581
 20
1567.170122259042
 30
0.0
 11
8048.919436890178
 21
1567.17012225904
 31
0.0
  0
LINE
  5
20648
330
747D
100
AcDbEntity
  8
部品1
100
AcDbLine
 10
7443.665003646581
 20
1561.170122259042
 30
0.0
 11
8077.71728198154
 21
1561.170122259042
 31
0.0
  0
LINE
  5
20649
330
747D
100
AcDbEntity
  8
細線
100
AcDbLine
 10
7844.947699582371
 20
1267.170122259038
 30
0.0
 11
7758.919436890174
 21
1353.198384951238
 31
0.0
  0
LINE
  5
2064A
330
747D
100
AcDbEntity
  8
細線
100
AcDbLine
 10
7887.374106453565
 20
1267.170122259038
 30
0.0
 11
7758.919436890174
 21
1395.624791822431
 31
0.0
  0
LINE
  5
2064B
330
747D
100
AcDbEntity
  8
部品1
100
AcDbLine
 10
7758.919436890174
 20
1267.170122259038
 30
0.0
 11
7758.919436890174
 21
1467.17012225904
 31
0.0
  0
LINE
  5
2064C
330
747D
100
AcDbEntity
  8
細線
 48
10.0
100
AcDbLine
 10
7443.665003646581
 20
1229.462676898904
 30
0.0
 11
7481.372449006719
 21
1267.170122259038
 31
0.0
  0
LINE
  5
2064D
330
747D
100
AcDbEntity
  8
細線
 48
10.0
100
AcDbLine
 10
7443.665003646583
 20
1172.894134403988
 30
0.0
 11
7537.940991501622
 21
1267.170122259038
 31
0.0
  0
LINE
  5
2064E
330
747D
100
AcDbEntity
  8
細線
 48
10.0
100
AcDbLine
 10
7443.665003646583
 20
1201.178405651448
 30
0.0
 11
7509.65672025417
 21
1267.170122259038
 31
0.0
  0
LINE
  5
2064F
330
747D
100
AcDbEntity
  8
細線
100
AcDbLine
 10
8049.874037653456
 20
1288.517954167653
 30
0.0
 11
7871.221869562069
 21
1467.170122259038
 31
0.0
  0
LINE
  5
20650
330
747D
100
AcDbEntity
  8
細線
100
AcDbLine
 10
8053.805175247093
 20
1327.01322344521
 30
0.0
 11
7913.648276433261
 21
1467.170122259038
 31
0.0
  0
LINE
  5
20651
330
747D
100
AcDbEntity
  8
部品1
100
AcDbLine
 10
8159.81620589825
 20
1564.16058295794
 30
0.0
 11
8188.919436890174
 21
1279.170122259038
 31
0.0
  0
LINE
  5
20652
330
747D
100
AcDbEntity
  8
部品1
100
AcDbLine
 10
8078.022667882105
 20
1564.16058295794
 30
0.0
 11
8048.919436890173
 21
1279.170122259038
 31
0.0
  0
LINE
  5
20653
330
747D
100
AcDbEntity
  8
部品1
100
AcDbLine
 10
8048.919436890173
 20
1279.170122259038
 30
0.0
 11
8188.919436890174
 21
1279.170122259038
 31
0.0
  0
LINE
  5
20654
330
747D
100
AcDbEntity
  8
部品1
100
AcDbLine
 10
8048.919436890173
 20
1267.170122259038
 30
0.0
 11
8188.919436890174
 21
1267.170122259038
 31
0.0
  0
LINE
  5
20655
330
747D
100
AcDbEntity
  8
部品1
100
AcDbLine
 10
8048.919436890173
 20
1279.170122259038
 30
0.0
 11
8048.919436890173
 21
1267.170122259038
 31
0.0
  0
LINE
  5
20656
330
747D
100
AcDbEntity
  8
部品1
100
AcDbLine
 10
8103.919436890173
 20
1333.570122259041
 30
0.0
 11
8133.919436890174
 21
1333.570122259041
 31
0.0
  0
LINE
  5
20657
330
747D
100
AcDbEntity
  8
部品1
100
AcDbLine
 10
8103.919436890173
 20
1339.570122259041
 30
0.0
 11
8133.919436890174
 21
1339.570122259041
 31
0.0
  0
LINE
  5
20658
330
747D
100
AcDbEntity
  8
部品1
100
AcDbLine
 10
8103.919436890173
 20
1299.570122259041
 30
0.0
 11
8108.919436890174
 21
1299.570122259041
 31
0.0
  0
LINE
  5
20659
330
747D
100
AcDbEntity
  8
部品1
100
AcDbLine
 10
8103.919436890173
 20
1339.570122259041
 30
0.0
 11
8103.919436890173
 21
1333.570122259041
 31
0.0
  0
LINE
  5
2065A
330
747D
100
AcDbEntity
  8
部品1
100
AcDbLine
 10
8103.919436890173
 20
1299.570122259041
 30
0.0
 11
8103.919436890173
 21
1298.17012225904
 31
0.0
  0
LINE
  5
2065B
330
747D
100
AcDbEntity
  8
部品1
100
AcDbLine
 10
8188.919436890174
 20
1279.170122259038
 30
0.0
 11
8188.919436890174
 21
1267.170122259038
 31
0.0
  0
LINE
  5
2065C
330
747D
100
AcDbEntity
  8
部品1
100
AcDbLine
 10
8133.919436890174
 20
1339.570122259038
 30
0.0
 11
8133.919436890174
 21
1333.570122259038
 31
0.0
  0
LINE
  5
2065D
330
747D
100
AcDbEntity
  8
部品1
100
AcDbLine
 10
8133.919436890174
 20
1299.570122259036
 30
0.0
 11
8133.919436890174
 21
1298.17012225904
 31
0.0
  0
LINE
  5
2065E
330
747D
100
AcDbEntity
  8
部品1
100
AcDbLine
 10
8088.919436890174
 20
1282.170122259038
 30
0.0
 11
8148.919436890173
 21
1282.170122259043
 31
0.0
  0
LINE
  5
2065F
330
747D
100
AcDbEntity
  8
部品1
100
AcDbLine
 10
8108.919436890174
 20
1319.17012225904
 30
0.0
 11
8128.919436890173
 21
1319.17012225904
 31
0.0
  0
LINE
  5
20660
330
747D
100
AcDbEntity
  8
部品1
100
AcDbLine
 10
8108.919436890174
 20
1282.170122259038
 30
0.0
 11
8108.919436890174
 21
1319.17012225904
 31
0.0
  0
LINE
  5
20661
330
747D
100
AcDbEntity
  8
部品1
100
AcDbLine
 10
8128.919436890173
 20
1282.170122259038
 30
0.0
 11
8128.919436890173
 21
1319.17012225904
 31
0.0
  0
LINE
  5
20662
330
747D
100
AcDbEntity
  8
部品1
100
AcDbLine
 10
8101.919436890174
 20
1298.17012225904
 30
0.0
 11
8135.919436890175
 21
1298.17012225904
 31
0.0
  0
LINE
  5
20663
330
747D
100
AcDbEntity
  8
部品1
100
AcDbLine
 10
8098.919436890174
 20
1282.170122259038
 30
0.0
 11
8098.919436890174
 21
1295.17012225904
 31
0.0
  0
LINE
  5
20664
330
747D
100
AcDbEntity
  8
部品1
100
AcDbLine
 10
8138.919436890175
 20
1282.170122259043
 30
0.0
 11
8138.919436890175
 21
1295.17012225904
 31
0.0
  0
LINE
  5
20665
330
747D
100
AcDbEntity
  8
部品1
100
AcDbLine
 10
8101.919436890174
 20
1298.17012225904
 30
0.0
 11
8098.919436890174
 21
1295.17012225904
 31
0.0
  0
LINE
  5
20666
330
747D
100
AcDbEntity
  8
部品1
100
AcDbLine
 10
8135.919436890175
 20
1298.17012225904
 30
0.0
 11
8138.919436890175
 21
1295.17012225904
 31
0.0
  0
LINE
  5
20667
330
747D
100
AcDbEntity
  8
部品1
100
AcDbLine
 10
8088.919436890174
 20
1279.170122259038
 30
0.0
 11
8088.919436890174
 21
1282.170122259038
 31
0.0
  0
LINE
  5
20668
330
747D
100
AcDbEntity
  8
部品1
100
AcDbLine
 10
8148.919436890173
 20
1279.170122259038
 30
0.0
 11
8148.919436890173
 21
1282.170122259047
 31
0.0
  0
LINE
  5
20669
330
747D
100
AcDbEntity
  8
部品1
100
AcDbLine
 10
8128.919436890173
 20
1299.570122259041
 30
0.0
 11
8133.919436890174
 21
1299.570122259041
 31
0.0
  0
LINE
  5
2066A
330
747D
100
AcDbEntity
  8
部品1
100
AcDbLine
 10
8098.919436890174
 20
1295.17012225904
 30
0.0
 11
8138.919436890175
 21
1295.17012225904
 31
0.0
  0
ARC
  5
2066B
330
747D
100
AcDbEntity
  8
部品1
100
AcDbCircle
 10
8103.919436890173
 20
1290.655367468722
 30
0.0
 40
6.736691384996243
100
AcDbArc
 50
42.08048849858703
 51
137.9195115014129
  0
ARC
  5
2066C
330
747D
100
AcDbEntity
  8
部品1
100
AcDbCircle
 10
8133.919436890174
 20
1290.655367468722
 30
0.0
 40
6.736691384996243
100
AcDbArc
 50
42.08048849858703
 51
137.9195115014129
  0
ARC
  5
2066D
330
747D
100
AcDbEntity
  8
部品1
100
AcDbCircle
 10
8118.919436890173
 20
1274.081489038221
 30
0.0
 40
23.33946124318486
100
AcDbArc
 50
64.63020194521864
 51
115.3697980547813
  0
LINE
  5
2066E
330
747D
100
AcDbEntity
  8
部品1
100
AcDbLine
 10
8111.919436890174
 20
1331.4230182827
 30
0.0
 11
8125.919436890173
 21
1331.4230182827
 31
0.0
  0
LINE
  5
2066F
330
747D
100
AcDbEntity
  8
部品1
100
AcDbLine
 10
8113.919436890174
 20
1319.17012225904
 30
0.0
 11
8113.919436890174
 21
1327.423018282699
 31
0.0
  0
LINE
  5
20670
330
747D
100
AcDbEntity
  8
部品1
100
AcDbLine
 10
8123.919436890174
 20
1319.17012225904
 30
0.0
 11
8123.919436890174
 21
1327.423018282699
 31
0.0
  0
LINE
  5
20671
330
747D
100
AcDbEntity
  8
部品1
100
AcDbLine
 10
8111.919436890174
 20
1327.423018282699
 30
0.0
 11
8111.919436890174
 21
1331.4230182827
 31
0.0
  0
LINE
  5
20672
330
747D
100
AcDbEntity
  8
部品1
100
AcDbLine
 10
8125.919436890173
 20
1327.423018282699
 30
0.0
 11
8125.919436890173
 21
1331.4230182827
 31
0.0
  0
LINE
  5
20673
330
747D
100
AcDbEntity
  8
部品1
100
AcDbLine
 10
8111.919436890174
 20
1327.423018282699
 30
0.0
 11
8125.919436890173
 21
1327.423018282699
 31
0.0
  0
LINE
  5
20674
330
747D
100
AcDbEntity
  8
部品1
100
AcDbLine
 10
8108.919436890174
 20
1267.170122259038
 30
0.0
 11
8108.919436890174
 21
1231.770122259038
 31
0.0
  0
LINE
  5
20675
330
747D
100
AcDbEntity
  8
部品1
100
AcDbLine
 10
8128.919436890173
 20
1267.170122259038
 30
0.0
 11
8128.919436890173
 21
1231.770122259038
 31
0.0
  0
LINE
  5
20676
330
747D
100
AcDbEntity
  8
部品1
100
AcDbLine
 10
8117.008936256636
 20
1231.770122259038
 30
0.0
 11
8120.829937523712
 21
1231.770122259038
 31
0.0
  0
LINE
  5
20677
330
747D
100
AcDbEntity
  8
部品1
100
AcDbLine
 10
8108.919436890174
 20
1231.770122259038
 30
0.0
 11
8102.919436890173
 21
1191.770122259038
 31
0.0
  0
LINE
  5
20678
330
747D
100
AcDbEntity
  8
部品1
100
AcDbLine
 10
8134.919436890173
 20
1191.770122259038
 30
0.0
 11
8128.919436890173
 21
1231.770122259038
 31
0.0
  0
LINE
  5
20679
330
747D
100
AcDbEntity
  8
部品1
100
AcDbLine
 10
8117.008936256636
 20
1231.770122259038
 30
0.0
 11
8110.83092771312
 21
1190.583398635599
 31
0.0
  0
LINE
  5
2067A
330
747D
100
AcDbEntity
  8
部品1
100
AcDbLine
 10
8127.007946067228
 20
1190.583398635599
 30
0.0
 11
8120.829937523712
 21
1231.770122259038
 31
0.0
  0
LINE
  5
2067B
330
747D
100
AcDbEntity
  8
部品1
100
AcDbLine
 10
8102.919436890173
 20
1191.770122259038
 30
0.0
 11
8110.83092771312
 21
1190.583398635599
 31
0.0
  0
LINE
  5
2067C
330
747D
100
AcDbEntity
  8
部品1
100
AcDbLine
 10
8127.007946067228
 20
1190.583398635599
 30
0.0
 11
8134.919436890173
 21
1191.770122259038
 31
0.0
  0
LINE
  5
2067D
330
747D
100
AcDbEntity
  8
部品1
100
AcDbLine
 10
8103.809479607757
 20
1197.703740376248
 30
0.0
 11
8111.720970430702
 21
1196.517016752805
 31
0.0
  0
LINE
  5
2067E
330
747D
100
AcDbEntity
  8
部品1
100
AcDbLine
 10
8104.699522325333
 20
1203.637358493457
 30
0.0
 11
8112.61101314828
 21
1202.450634870014
 31
0.0
  0
LINE
  5
2067F
330
747D
100
AcDbEntity
  8
部品1
100
AcDbLine
 10
8105.589565042917
 20
1209.570976610665
 30
0.0
 11
8113.501055865862
 21
1208.384252987223
 31
0.0
  0
LINE
  5
20680
330
747D
100
AcDbEntity
  8
部品1
100
AcDbLine
 10
8106.479607760499
 20
1215.504594727876
 30
0.0
 11
8114.391098583444
 21
1214.317871104436
 31
0.0
  0
LINE
  5
20681
330
747D
100
AcDbEntity
  8
部品1
100
AcDbLine
 10
8107.369650478075
 20
1221.438212845085
 30
0.0
 11
8115.281141301021
 21
1220.251489221642
 31
0.0
  0
LINE
  5
20682
330
747D
100
AcDbEntity
  8
部品1
100
AcDbLine
 10
8108.259693195657
 20
1227.371830962294
 30
0.0
 11
8116.171184018604
 21
1226.185107338851
 31
0.0
  0
LINE
  5
20683
330
747D
100
AcDbEntity
  8
部品1
100
AcDbLine
 10
8126.117903349644
 20
1196.517016752805
 30
0.0
 11
8134.029394172598
 21
1197.703740376248
 31
0.0
  0
LINE
  5
20684
330
747D
100
AcDbEntity
  8
部品1
100
AcDbLine
 10
8125.227860632069
 20
1202.450634870014
 30
0.0
 11
8133.139351455014
 21
1203.637358493457
 31
0.0
  0
LINE
  5
20685
330
747D
100
AcDbEntity
  8
部品1
100
AcDbLine
 10
8124.337817914485
 20
1208.384252987223
 30
0.0
 11
8132.249308737431
 21
1209.570976610665
 31
0.0
  0
LINE
  5
20686
330
747D
100
AcDbEntity
  8
部品1
100
AcDbLine
 10
8123.447775196909
 20
1214.317871104436
 30
0.0
 11
8131.359266019854
 21
1215.504594727876
 31
0.0
  0
LINE
  5
20687
330
747D
100
AcDbEntity
  8
部品1
100
AcDbLine
 10
8122.557732479327
 20
1220.251489221642
 30
0.0
 11
8130.469223302272
 21
1221.438212845085
 31
0.0
  0
LINE
  5
20688
330
747D
100
AcDbEntity
  8
部品1
100
AcDbLine
 10
8121.667689761743
 20
1226.185107338851
 30
0.0
 11
8129.579180584689
 21
1227.371830962294
 31
0.0
  0
ARC
  5
20689
330
747D
100
AcDbEntity
  8
部品1
100
AcDbCircle
 10
8087.973496370418
 20
1563.17012225904
 30
0.0
 40
10.0
100
AcDbArc
 50
90.0
 51
174.3157584018092
  0
CIRCLE
  5
2068A
330
747D
100
AcDbEntity
  8
部品1
100
AcDbCircle
 10
8118.919436890173
 20
1511.170122259038
 30
0.0
 40
16.0
  0
LINE
  5
2068B
330
747D
100
AcDbEntity
  8
細線
100
AcDbLine
 10
8103.919436890173
 20
1487.17012225904
 30
0.0
 11
8133.919436890174
 21
1487.17012225904
 31
0.0
  0
LINE
  5
2068C
330
747D
100
AcDbEntity
  8
細線
100
AcDbLine
 10
8110.919436890174
 20
1551.170122259036
 30
0.0
 11
8110.919436890174
 21
1525.026528719591
 31
0.0
  0
LINE
  5
2068D
330
747D
100
AcDbEntity
  8
細線
100
AcDbLine
 10
8126.919436890174
 20
1551.170122259036
 30
0.0
 11
8126.919436890174
 21
1525.026528719591
 31
0.0
  0
ARC
  5
2068E
330
747D
100
AcDbEntity
  8
細線
100
AcDbCircle
 10
8118.919436890173
 20
1551.170122259036
 30
0.0
 40
8.0
100
AcDbArc
 50
0.0
 51
180.0
  0
LINE
  5
2068F
330
747D
100
AcDbEntity
  8
部品1
100
AcDbLine
 10
8087.973496370418
 20
1573.170122259038
 30
0.0
 11
8149.865377409929
 21
1573.170122259036
 31
0.0
  0
ARC
  5
20690
330
747D
100
AcDbEntity
  8
部品1
100
AcDbCircle
 10
8149.865377409929
 20
1563.170122259036
 30
0.0
 40
10.0
100
AcDbArc
 50
5.684241598190771
 51
90.0
  0
LINE
  5
20691
330
747D
100
AcDbEntity
  8
細線
100
AcDbLine
 10
8103.919436890173
 20
1481.17012225904
 30
0.0
 11
8133.919436890174
 21
1481.17012225904
 31
0.0
  0
LINE
  5
20692
330
747D
100
AcDbEntity
  8
細線
100
AcDbLine
 10
8103.919436890173
 20
1487.17012225904
 30
0.0
 11
8103.919436890173
 21
1481.17012225904
 31
0.0
  0
LINE
  5
20693
330
747D
100
AcDbEntity
  8
細線
100
AcDbLine
 10
8133.919436890174
 20
1487.170122259034
 30
0.0
 11
8133.919436890174
 21
1481.170122259034
 31
0.0
  0
LINE
  5
20694
330
747D
100
AcDbEntity
  8
細線
 48
10.0
100
AcDbLine
 10
8510.997960720844
 20
960.2519249197539
 30
0.0
 11
8817.916158060121
 21
1267.170122259038
 31
0.0
  0
LINE
  5
20695
330
747D
100
AcDbEntity
  8
細線
 48
10.0
100
AcDbLine
 10
8482.713689473381
 20
960.2519249197539
 30
0.0
 11
8789.631886812655
 21
1267.170122259038
 31
0.0
  0
LINE
  5
20696
330
747D
100
AcDbEntity
  8
細線
 48
10.0
100
AcDbLine
 10
8454.42941822592
 20
960.2519249197539
 30
0.0
 11
8761.347615565195
 21
1267.170122259038
 31
0.0
  0
TEXT
  5
20697
330
747D
100
AcDbEntity
  8
部品1
100
AcDbText
 10
8533.408640158548
 20
1275.076163937941
 30
0.0
 40
120.0
  1
▽G.L
  7
STYLE1
100
AcDbText
  0
LINE
  5
20698
330
747D
100
AcDbEntity
  8
部品1
100
AcDbLine
 10
9046.454644804446
 20
1567.170122259038
 30
0.0
 11
9589.14094969349
 21
1567.17012225904
 31
0.0
  0
LINE
  5
20699
330
747D
100
AcDbEntity
  8
部品1
100
AcDbLine
 10
9046.454644804446
 20
1667.17012225904
 30
0.0
 11
9559.252041603159
 21
1667.17012225904
 31
0.0
  0
LINE
  5
2069A
330
747D
100
AcDbEntity
  8
部品1
100
AcDbLine
 10
9046.454644804446
 20
1661.17012225904
 30
0.0
 11
9589.252041603158
 21
1661.17012225904
 31
0.0
  0
LINE
  5
2069B
330
747D
100
AcDbEntity
  8
細線
100
AcDbLine
 10
9560.206642366436
 20
1288.517954167653
 30
0.0
 11
9281.554474275051
 21
1567.170122259038
 31
0.0
  0
LINE
  5
2069C
330
747D
100
AcDbEntity
  8
細線
100
AcDbLine
 10
9564.137779960075
 20
1327.01322344521
 30
0.0
 11
9323.980881146242
 21
1567.170122259038
 31
0.0
  0
LINE
  5
2069D
330
747D
100
AcDbEntity
  8
細線
 48
10.0
100
AcDbLine
 10
9230.158411041236
 20
960.2519249197539
 30
0.0
 11
9537.076608380511
 21
1267.17012225904
 31
0.0
  0
LINE
  5
2069E
330
747D
100
AcDbEntity
  8
細線
 48
10.0
100
AcDbLine
 10
9258.442682288693
 20
960.2519249197539
 30
0.0
 11
9565.360879627965
 21
1267.170122259038
 31
0.0
  0
LINE
  5
2069F
330
747D
100
AcDbEntity
  8
細線
 48
10.0
100
AcDbLine
 10
9286.72695353616
 20
960.2519249197539
 30
0.0
 11
9593.645150875419
 21
1267.170122259038
 31
0.0
  0
LINE
  5
206A0
330
747D
100
AcDbEntity
  8
細線
 48
10.0
100
AcDbLine
 10
9046.454644804446
 20
1146.638005040897
 30
0.0
 11
9166.986762022578
 21
1267.170122259038
 31
0.0
  0
LINE
  5
206A1
330
747D
100
AcDbEntity
  8
細線
 48
10.0
100
AcDbLine
 10
9046.45464480445
 20
1174.922276288355
 30
0.0
 11
9138.702490775125
 21
1267.170122259038
 31
0.0
  0
LINE
  5
206A2
330
747D
100
AcDbEntity
  8
細線
 48
10.0
100
AcDbLine
 10
9046.454644804446
 20
1203.20654753581
 30
0.0
 11
9110.418219527673
 21
1267.170122259038
 31
0.0
  0
LINE
  5
206A3
330
747D
100
AcDbEntity
  8
部品1
100
AcDbLine
 10
9269.252041603156
 20
1267.170122259034
 30
0.0
 11
9269.252041603156
 21
1567.170122259038
 31
0.0
  0
LINE
  5
206A4
330
747D
100
AcDbEntity
  8
細線
100
AcDbLine
 10
9397.706711166547
 20
1267.170122259038
 30
0.0
 11
9269.252041603156
 21
1395.624791822431
 31
0.0
  0
LINE
  5
206A5
330
747D
100
AcDbEntity
  8
細線
100
AcDbLine
 10
9355.280304295353
 20
1267.170122259038
 30
0.0
 11
9269.252041603156
 21
1353.198384951238
 31
0.0
  0
LINE
  5
206A6
330
747D
100
AcDbEntity
  8
細線
 48
10.0
100
AcDbLine
 10
9713.385342388976
 20
960.2519249197539
 30
0.0
 11
10020.30353972826
 21
1267.17012225904
 31
0.0
  0
LINE
  5
206A7
330
747D
100
AcDbEntity
  8
細線
 48
10.0
100
AcDbLine
 10
9685.101071141518
 20
960.2519249197539
 30
0.0
 11
9992.019268480792
 21
1267.170122259038
 31
0.0
  0
LINE
  5
206A8
330
747D
100
AcDbEntity
  8
細線
 48
10.0
100
AcDbLine
 10
9656.816799894059
 20
960.2519249197539
 30
0.0
 11
9963.734997233332
 21
1267.170122259038
 31
0.0
  0
DIMENSION
  5
206A9
330
747D
100
AcDbEntity
  8
寸法
 48
50.0
100
AcDbDimension
  2
*D16
 10
9871.99868722994
 20
1267.170122259038
 30
0.0
 11
9771.99868722994
 21
1417.170122259039
 31
0.0
 70
    32
  1
c
 71
     5
 42
300.0
  3
INABA_S40G
100
AcDbAlignedDimension
 13
9669.363133512824
 23
1567.170122259038
 33
0.0
 14
9699.252041603156
 24
1267.170122259038
 34
0.0
 50
90.0
100
AcDbRotatedDimension
1001
ACAD
1000
DSTYLE
1002
{
1070
   174
1070
     0
1070
   272
1070
     1
1070
   288
1070
     0
1070
   341
1005
0
1002
}
  0
LINE
  5
206AA
330
747D
100
AcDbEntity
  8
部品1
100
AcDbLine
 10
9588.355272595086
 20
1564.160582957938
 30
0.0
 11
9559.252041603155
 21
1279.170122259038
 31
0.0
  0
LINE
  5
206AB
330
747D
100
AcDbEntity
  8
部品1
100
AcDbLine
 10
9670.148810611227
 20
1564.160582957938
 30
0.0
 11
9699.252041603156
 21
1279.170122259038
 31
0.0
  0
LINE
  5
206AC
330
747D
100
AcDbEntity
  8
部品1
100
AcDbLine
 10
9559.252041603155
 20
1279.170122259038
 30
0.0
 11
9699.252041603156
 21
1279.170122259038
 31
0.0
  0
LINE
  5
206AD
330
747D
100
AcDbEntity
  8
部品1
100
AcDbLine
 10
9559.252041603155
 20
1267.170122259038
 30
0.0
 11
9699.252041603156
 21
1267.170122259038
 31
0.0
  0
LINE
  5
206AE
330
747D
100
AcDbEntity
  8
部品1
100
AcDbLine
 10
9637.340550780209
 20
1190.583398635597
 30
0.0
 11
9631.162542236694
 21
1231.770122259036
 31
0.0
  0
LINE
  5
206AF
330
747D
100
AcDbEntity
  8
部品1
100
AcDbLine
 10
9627.341540969617
 20
1231.770122259036
 30
0.0
 11
9621.163532426102
 21
1190.583398635597
 31
0.0
  0
LINE
  5
206B0
330
747D
100
AcDbEntity
  8
部品1
100
AcDbLine
 10
9645.252041603155
 20
1191.770122259036
 30
0.0
 11
9639.252041603155
 21
1231.770122259036
 31
0.0
  0
LINE
  5
206B1
330
747D
100
AcDbEntity
  8
部品1
100
AcDbLine
 10
9619.252041603155
 20
1231.770122259036
 30
0.0
 11
9613.252041603155
 21
1191.770122259036
 31
0.0
  0
LINE
  5
206B2
330
747D
100
AcDbEntity
  8
部品1
100
AcDbLine
 10
9635.560465345051
 20
1202.450634870012
 30
0.0
 11
9643.471956167996
 21
1203.637358493455
 31
0.0
  0
LINE
  5
206B3
330
747D
100
AcDbEntity
  8
部品1
100
AcDbLine
 10
9636.450508062626
 20
1196.517016752805
 30
0.0
 11
9644.361998885576
 21
1197.703740376248
 31
0.0
  0
LINE
  5
206B4
330
747D
100
AcDbEntity
  8
部品1
100
AcDbLine
 10
9615.032127038315
 20
1203.637358493455
 30
0.0
 11
9622.94361786126
 21
1202.450634870012
 31
0.0
  0
LINE
  5
206B5
330
747D
100
AcDbEntity
  8
部品1
100
AcDbLine
 10
9614.142084320739
 20
1197.703740376248
 30
0.0
 11
9622.053575143684
 21
1196.517016752805
 31
0.0
  0
LINE
  5
206B6
330
747D
100
AcDbEntity
  8
部品1
100
AcDbLine
 10
9637.340550780209
 20
1190.583398635597
 30
0.0
 11
9645.252041603155
 21
1191.770122259036
 31
0.0
  0
LINE
  5
206B7
330
747D
100
AcDbEntity
  8
部品1
100
AcDbLine
 10
9613.252041603155
 20
1191.770122259036
 30
0.0
 11
9621.163532426102
 21
1190.583398635597
 31
0.0
  0
LINE
  5
206B8
330
747D
100
AcDbEntity
  8
部品1
100
AcDbLine
 10
9559.252041603155
 20
1279.170122259038
 30
0.0
 11
9559.252041603155
 21
1267.170122259038
 31
0.0
  0
LINE
  5
206B9
330
747D
100
AcDbEntity
  8
部品1
100
AcDbLine
 10
9614.252041603155
 20
1333.570122259039
 30
0.0
 11
9644.252041603156
 21
1333.570122259039
 31
0.0
  0
LINE
  5
206BA
330
747D
100
AcDbEntity
  8
部品1
100
AcDbLine
 10
9614.252041603155
 20
1339.570122259039
 30
0.0
 11
9644.252041603156
 21
1339.570122259039
 31
0.0
  0
LINE
  5
206BB
330
747D
100
AcDbEntity
  8
部品1
100
AcDbLine
 10
9614.252041603155
 20
1339.570122259039
 30
0.0
 11
9614.252041603155
 21
1333.570122259039
 31
0.0
  0
LINE
  5
206BC
330
747D
100
AcDbEntity
  8
部品1
100
AcDbLine
 10
9644.252041603156
 20
1339.570122259036
 30
0.0
 11
9644.252041603156
 21
1333.570122259036
 31
0.0
  0
LINE
  5
206BD
330
747D
100
AcDbEntity
  8
部品1
100
AcDbLine
 10
9614.252041603155
 20
1299.570122259039
 30
0.0
 11
9619.252041603155
 21
1299.570122259039
 31
0.0
  0
LINE
  5
206BE
330
747D
100
AcDbEntity
  8
部品1
100
AcDbLine
 10
9614.252041603155
 20
1299.570122259039
 30
0.0
 11
9614.252041603155
 21
1298.170122259034
 31
0.0
  0
LINE
  5
206BF
330
747D
100
AcDbEntity
  8
部品1
100
AcDbLine
 10
9644.252041603156
 20
1299.570122259036
 30
0.0
 11
9644.252041603156
 21
1298.170122259038
 31
0.0
  0
LINE
  5
206C0
330
747D
100
AcDbEntity
  8
部品1
100
AcDbLine
 10
9614.252041603155
 20
1298.170122259038
 30
0.0
 11
9644.252041603156
 21
1298.170122259038
 31
0.0
  0
LINE
  5
206C1
330
747D
100
AcDbEntity
  8
部品1
100
AcDbLine
 10
9636.252041603155
 20
1327.423018282698
 30
0.0
 11
9636.252041603155
 21
1331.423018282698
 31
0.0
  0
LINE
  5
206C2
330
747D
100
AcDbEntity
  8
部品1
100
AcDbLine
 10
9622.252041603156
 20
1327.423018282698
 30
0.0
 11
9622.252041603156
 21
1331.423018282698
 31
0.0
  0
LINE
  5
206C3
330
747D
100
AcDbEntity
  8
部品1
100
AcDbLine
 10
9632.000294474725
 20
1226.18510733885
 30
0.0
 11
9639.91178529767
 21
1227.371830962292
 31
0.0
  0
LINE
  5
206C4
330
747D
100
AcDbEntity
  8
部品1
100
AcDbLine
 10
9632.890337192307
 20
1220.251489221642
 30
0.0
 11
9640.801828015254
 21
1221.438212845085
 31
0.0
  0
LINE
  5
206C5
330
747D
100
AcDbEntity
  8
部品1
100
AcDbLine
 10
9633.780379909891
 20
1214.317871104435
 30
0.0
 11
9641.691870732836
 21
1215.504594727874
 31
0.0
  0
LINE
  5
206C6
330
747D
100
AcDbEntity
  8
部品1
100
AcDbLine
 10
9634.670422627467
 20
1208.384252987223
 30
0.0
 11
9642.581913450413
 21
1209.570976610663
 31
0.0
  0
LINE
  5
206C7
330
747D
100
AcDbEntity
  8
部品1
100
AcDbLine
 10
9618.592297908641
 20
1227.371830962292
 30
0.0
 11
9626.503788731586
 21
1226.18510733885
 31
0.0
  0
LINE
  5
206C8
330
747D
100
AcDbEntity
  8
部品1
100
AcDbLine
 10
9617.702255191057
 20
1221.438212845085
 30
0.0
 11
9625.613746014003
 21
1220.251489221642
 31
0.0
  0
LINE
  5
206C9
330
747D
100
AcDbEntity
  8
部品1
100
AcDbLine
 10
9616.812212473481
 20
1215.504594727874
 30
0.0
 11
9624.723703296423
 21
1214.317871104435
 31
0.0
  0
LINE
  5
206CA
330
747D
100
AcDbEntity
  8
部品1
100
AcDbLine
 10
9615.922169755897
 20
1209.570976610663
 30
0.0
 11
9623.833660578844
 21
1208.384252987223
 31
0.0
  0
LINE
  5
206CB
330
747D
100
AcDbEntity
  8
部品1
100
AcDbLine
 10
9627.341540969617
 20
1231.770122259036
 30
0.0
 11
9631.162542236694
 21
1231.770122259036
 31
0.0
  0
LINE
  5
206CC
330
747D
100
AcDbEntity
  8
部品1
100
AcDbLine
 10
9639.252041603155
 20
1267.170122259038
 30
0.0
 11
9639.252041603155
 21
1231.770122259036
 31
0.0
  0
LINE
  5
206CD
330
747D
100
AcDbEntity
  8
部品1
100
AcDbLine
 10
9619.252041603155
 20
1267.170122259038
 30
0.0
 11
9619.252041603155
 21
1231.770122259036
 31
0.0
  0
LINE
  5
206CE
330
747D
100
AcDbEntity
  8
部品1
100
AcDbLine
 10
9634.252041603154
 20
1319.170122259038
 30
0.0
 11
9634.252041603154
 21
1327.423018282698
 31
0.0
  0
LINE
  5
206CF
330
747D
100
AcDbEntity
  8
部品1
100
AcDbLine
 10
9624.252041603156
 20
1319.170122259038
 30
0.0
 11
9624.252041603156
 21
1327.423018282698
 31
0.0
  0
LINE
  5
206D0
330
747D
100
AcDbEntity
  8
部品1
100
AcDbLine
 10
9622.252041603156
 20
1327.423018282698
 30
0.0
 11
9636.252041603155
 21
1327.423018282698
 31
0.0
  0
ARC
  5
206D1
330
747D
100
AcDbEntity
  8
部品1
100
AcDbCircle
 10
9629.252041603155
 20
1274.081489038221
 30
0.0
 40
23.33946124318486
100
AcDbArc
 50
64.63020194521864
 51
115.3697980547813
  0
ARC
  5
206D2
330
747D
100
AcDbEntity
  8
部品1
100
AcDbCircle
 10
9644.252041603156
 20
1290.65536746872
 30
0.0
 40
6.736691384996243
100
AcDbArc
 50
42.08048849858703
 51
137.9195115014129
  0
ARC
  5
206D3
330
747D
100
AcDbEntity
  8
部品1
100
AcDbCircle
 10
9614.252041603155
 20
1290.65536746872
 30
0.0
 40
6.736691384996243
100
AcDbArc
 50
42.08048849858703
 51
137.9195115014129
  0
LINE
  5
206D4
330
747D
100
AcDbEntity
  8
部品1
100
AcDbLine
 10
9609.252041603156
 20
1295.170122259038
 30
0.0
 11
9649.252041603155
 21
1295.170122259038
 31
0.0
  0
LINE
  5
206D5
330
747D
100
AcDbEntity
  8
部品1
100
AcDbLine
 10
9639.252041603155
 20
1299.570122259039
 30
0.0
 11
9644.252041603156
 21
1299.570122259039
 31
0.0
  0
LINE
  5
206D6
330
747D
100
AcDbEntity
  8
部品1
100
AcDbLine
 10
9614.252041603155
 20
1299.570122259039
 30
0.0
 11
9619.252041603155
 21
1299.570122259039
 31
0.0
  0
LINE
  5
206D7
330
747D
100
AcDbEntity
  8
部品1
100
AcDbLine
 10
9649.252041603155
 20
1282.170122259042
 30
0.0
 11
9649.252041603155
 21
1295.170122259038
 31
0.0
  0
LINE
  5
206D8
330
747D
100
AcDbEntity
  8
部品1
100
AcDbLine
 10
9639.252041603155
 20
1282.170122259038
 30
0.0
 11
9639.252041603155
 21
1319.170122259038
 31
0.0
  0
LINE
  5
206D9
330
747D
100
AcDbEntity
  8
部品1
100
AcDbLine
 10
9619.252041603155
 20
1282.170122259038
 30
0.0
 11
9619.252041603155
 21
1319.170122259038
 31
0.0
  0
LINE
  5
206DA
330
747D
100
AcDbEntity
  8
部品1
100
AcDbLine
 10
9609.252041603156
 20
1282.170122259038
 30
0.0
 11
9609.252041603156
 21
1295.170122259038
 31
0.0
  0
LINE
  5
206DB
330
747D
100
AcDbEntity
  8
部品1
100
AcDbLine
 10
9659.252041603155
 20
1279.170122259038
 30
0.0
 11
9659.252041603155
 21
1282.170122259045
 31
0.0
  0
LINE
  5
206DC
330
747D
100
AcDbEntity
  8
部品1
100
AcDbLine
 10
9599.252041603156
 20
1279.170122259038
 30
0.0
 11
9599.252041603156
 21
1282.170122259038
 31
0.0
  0
LINE
  5
206DD
330
747D
100
AcDbEntity
  8
部品1
100
AcDbLine
 10
9599.252041603156
 20
1282.170122259038
 30
0.0
 11
9659.252041603155
 21
1282.170122259042
 31
0.0
  0
LINE
  5
206DE
330
747D
100
AcDbEntity
  8
部品1
100
AcDbLine
 10
9644.252041603156
 20
1299.570122259036
 30
0.0
 11
9644.252041603156
 21
1298.170122259038
 31
0.0
  0
LINE
  5
206DF
330
747D
100
AcDbEntity
  8
部品1
100
AcDbLine
 10
9614.252041603155
 20
1299.570122259039
 30
0.0
 11
9614.252041603155
 21
1298.170122259038
 31
0.0
  0
LINE
  5
206E0
330
747D
100
AcDbEntity
  8
部品1
100
AcDbLine
 10
9646.252041603155
 20
1298.170122259038
 30
0.0
 11
9649.252041603155
 21
1295.170122259038
 31
0.0
  0
LINE
  5
206E1
330
747D
100
AcDbEntity
  8
部品1
100
AcDbLine
 10
9612.252041603156
 20
1298.170122259038
 30
0.0
 11
9646.252041603155
 21
1298.170122259038
 31
0.0
  0
LINE
  5
206E2
330
747D
100
AcDbEntity
  8
部品1
100
AcDbLine
 10
9612.252041603156
 20
1298.170122259038
 30
0.0
 11
9609.252041603156
 21
1295.170122259038
 31
0.0
  0
LINE
  5
206E3
330
747D
100
AcDbEntity
  8
部品1
100
AcDbLine
 10
9619.252041603155
 20
1319.170122259038
 30
0.0
 11
9639.252041603155
 21
1319.170122259038
 31
0.0
  0
LINE
  5
206E4
330
747D
100
AcDbEntity
  8
部品1
100
AcDbLine
 10
9622.252041603156
 20
1331.423018282698
 30
0.0
 11
9636.252041603155
 21
1331.423018282698
 31
0.0
  0
LINE
  5
206E5
330
747D
100
AcDbEntity
  8
部品1
100
AcDbLine
 10
9644.252041603156
 20
1339.570122259036
 30
0.0
 11
9644.252041603156
 21
1333.570122259036
 31
0.0
  0
LINE
  5
206E6
330
747D
100
AcDbEntity
  8
部品1
100
AcDbLine
 10
9614.252041603155
 20
1339.570122259039
 30
0.0
 11
9614.252041603155
 21
1333.570122259039
 31
0.0
  0
LINE
  5
206E7
330
747D
100
AcDbEntity
  8
部品1
100
AcDbLine
 10
9614.252041603155
 20
1339.570122259039
 30
0.0
 11
9644.252041603156
 21
1339.570122259039
 31
0.0
  0
LINE
  5
206E8
330
747D
100
AcDbEntity
  8
部品1
100
AcDbLine
 10
9614.252041603155
 20
1333.570122259039
 30
0.0
 11
9644.252041603156
 21
1333.570122259039
 31
0.0
  0
LINE
  5
206E9
330
747D
100
AcDbEntity
  8
部品1
100
AcDbLine
 10
9639.252041603155
 20
1299.570122259039
 30
0.0
 11
9644.252041603156
 21
1299.570122259039
 31
0.0
  0
LINE
  5
206EA
330
747D
100
AcDbEntity
  8
部品1
100
AcDbLine
 10
9699.252041603156
 20
1279.170122259038
 30
0.0
 11
9699.252041603156
 21
1267.170122259038
 31
0.0
  0
LINE
  5
206EB
330
747D
100
AcDbEntity
  8
細線
100
AcDbLine
 10
9585.103847126131
 20
1532.321326258849
 30
0.0
 11
9550.255051125942
 21
1567.170122259038
 31
0.0
  0
LINE
  5
206EC
330
747D
100
AcDbEntity
  8
細線
100
AcDbLine
 10
9581.172709532497
 20
1493.826056981292
 30
0.0
 11
9507.82864425475
 21
1567.170122259038
 31
0.0
  0
LINE
  5
206ED
330
747D
100
AcDbEntity
  8
部品1
100
AcDbLine
 10
9599.252041603156
 20
1680.770122259036
 30
0.0
 11
9659.252041603155
 21
1680.77012225904
 31
0.0
  0
ARC
  5
206EE
330
747D
100
AcDbEntity
  8
部品1
100
AcDbCircle
 10
9599.252041603156
 20
1670.770122259036
 30
0.0
 40
10.0
100
AcDbArc
 50
90.0
 51
180.0
  0
ARC
  5
206EF
330
747D
100
AcDbEntity
  8
部品1
100
AcDbCircle
 10
9659.252041603155
 20
1670.77012225904
 30
0.0
 40
10.0
100
AcDbArc
 50
0.0
 51
90.0
  0
ARC
  5
206F0
330
747D
100
AcDbEntity
  8
部品1
100
AcDbCircle
 10
9629.252041603155
 20
1620.770122259036
 30
0.0
 40
8.0
100
AcDbArc
 50
28.00674301450029
 51
151.9932569854997
  0
CIRCLE
  5
206F1
330
747D
100
AcDbEntity
  8
部品1
100
AcDbCircle
 10
9629.252041603155
 20
1610.170122259038
 30
0.0
 40
16.0
  0
CIRCLE
  5
206F2
330
747D
100
AcDbEntity
  8
細線
100
AcDbCircle
 10
9629.252041603155
 20
1650.770122259037
 30
0.0
 40
8.0
  0
ARC
  5
206F3
330
747D
100
AcDbEntity
  8
細線
100
AcDbCircle
 10
9629.252041603155
 20
1551.170122259035
 30
0.0
 40
8.0
100
AcDbArc
 50
0.0
 51
180.0
  0
LINE
  5
206F4
330
747D
100
AcDbEntity
  8
細線
100
AcDbLine
 10
9614.252041603155
 20
1481.170122259038
 30
0.0
 11
9644.252041603156
 21
1481.170122259038
 31
0.0
  0
LINE
  5
206F5
330
747D
100
AcDbEntity
  8
細線
100
AcDbLine
 10
9614.252041603155
 20
1487.170122259038
 30
0.0
 11
9644.252041603156
 21
1487.170122259038
 31
0.0
  0
LINE
  5
206F6
330
747D
100
AcDbEntity
  8
細線
100
AcDbLine
 10
9614.252041603155
 20
1487.170122259038
 30
0.0
 11
9614.252041603155
 21
1481.170122259038
 31
0.0
  0
LINE
  5
206F7
330
747D
100
AcDbEntity
  8
細線
100
AcDbLine
 10
9644.252041603156
 20
1487.170122259034
 30
0.0
 11
9644.252041603156
 21
1481.170122259034
 31
0.0
  0
LINE
  5
206F8
330
747D
100
AcDbEntity
  8
細線
100
AcDbLine
 10
9621.252041603156
 20
1551.170122259035
 30
0.0
 11
9621.252041603156
 21
1524.626528719589
 31
0.0
  0
LINE
  5
206F9
330
747D
100
AcDbEntity
  8
細線
100
AcDbLine
 10
9637.252041603154
 20
1551.170122259035
 30
0.0
 11
9637.252041603154
 21
1524.626528719589
 31
0.0
  0
CIRCLE
  5
206FA
330
747D
100
AcDbEntity
  8
部品1
100
AcDbCircle
 10
9629.252041603155
 20
1510.770122259037
 30
0.0
 40
16.0
  0
LINE
  5
206FB
330
747D
100
AcDbEntity
  8
部品1
100
AcDbLine
 10
9598.3061010834
 20
1573.170122259038
 30
0.0
 11
9660.197982122911
 21
1573.170122259034
 31
0.0
  0
ARC
  5
206FC
330
747D
100
AcDbEntity
  8
部品1
100
AcDbCircle
 10
9598.3061010834
 20
1563.170122259038
 30
0.0
 40
10.0
100
AcDbArc
 50
90.0
 51
174.3157584018092
  0
ARC
  5
206FD
330
747D
100
AcDbEntity
  8
部品1
100
AcDbCircle
 10
9660.197982122911
 20
1563.170122259034
 30
0.0
 40
10.0
100
AcDbArc
 50
5.684241598190771
 51
90.0
  0
ARC
  5
206FE
330
747D
100
AcDbEntity
  8
部品1
100
AcDbCircle
 10
9629.252041603155
 20
1580.770122259037
 30
0.0
 40
8.0
100
AcDbArc
 50
180.0
 51
251.8051276613376
  0
ARC
  5
206FF
330
747D
100
AcDbEntity
  8
部品1
100
AcDbCircle
 10
9629.252041603155
 20
1580.770122259037
 30
0.0
 40
8.0
100
AcDbArc
 50
288.1948723386625
 51
0.0
  0
LINE
  5
20700
330
747D
100
AcDbEntity
  8
部品1
100
AcDbLine
 10
9589.252041603154
 20
1670.770122259036
 30
0.0
 11
9589.252041603154
 21
1567.415591247045
 31
0.0
  0
LINE
  5
20701
330
747D
100
AcDbEntity
  8
部品1
100
AcDbLine
 10
9669.252041603156
 20
1670.77012225904
 30
0.0
 11
9669.252041603156
 21
1567.41559124705
 31
0.0
  0
LINE
  5
20702
330
747D
100
AcDbEntity
  8
部品1
100
AcDbLine
 10
9637.252041603154
 20
1596.313715798485
 30
0.0
 11
9637.252041603154
 21
1580.770122259037
 31
0.0
  0
LINE
  5
20703
330
747D
100
AcDbEntity
  8
部品1
100
AcDbLine
 10
9621.252041603156
 20
1596.313715798485
 30
0.0
 11
9621.252041603156
 21
1580.770122259037
 31
0.0
  0
TEXT
  5
20704
330
747D
100
AcDbEntity
  8
部品1
100
AcDbText
 10
8134.501014459152
 20
2302.275384151924
 30
0.0
 40
120.0
  1
地盤がコンクリートの場合
  7
STYLE2
100
AcDbText
  0
LINE
  5
20705
330
747D
100
AcDbEntity
  8
部品1
 48
50.0
100
AcDbLine
 10
10573.15623361387
 20
2726.409334647286
 30
0.0
 11
10573.15623361387
 21
326.4093346472837
 31
0.0
  0
DIMENSION
  5
20706
330
747D
100
AcDbEntity
  8
寸法
 48
50.0
100
AcDbDimension
  2
*D17
 10
6803.93494023747
 20
1267.170122259038
 30
0.0
 11
6703.93494023747
 21
1367.170122259039
 31
0.0
 70
    32
  1
a
 71
     5
 42
200.0000000000009
  3
INABA_S40G
100
AcDbAlignedDimension
 13
6555.863935877076
 23
1467.170122259039
 33
0.0
 14
6555.863935877077
 24
1267.170122259038
 34
0.0
 50
90.0
100
AcDbRotatedDimension
1001
ACAD
1000
DSTYLE
1002
{
1070
   174
1070
     0
1070
   272
1070
     1
1070
   288
1070
     0
1070
   341
1005
0
1002
}
  0
TEXT
  5
20707
330
747D
100
AcDbEntity
  8
部品1
100
AcDbText
 10
7462.323490862471
 20
800.3344444943914
 30
0.0
 40
80.0
  1
b寸法：100～120mmに対応
  7
STYLE2
100
AcDbText
  0
TEXT
  5
20708
330
747D
100
AcDbEntity
  8
部品1
100
AcDbText
 10
7466.868945407926
 20
654.7283838883304
 30
0.0
 40
80.0
  1
\U+203BオールアンカーM10(市販品)
  7
STYLE2
100
AcDbText
  0
TEXT
  5
20709
330
747D
100
AcDbEntity
  8
部品1
100
AcDbText
 10
7468.232581771561
 20
505.0314141913613
 30
0.0
 40
80.0
  1
  が4本必要になります。
  7
STYLE2
100
AcDbText
  0
TEXT
  5
2070A
330
747D
100
AcDbEntity
  8
部品1
100
AcDbText
 10
9021.655335387107
 20
800.3344444943914
 30
0.0
 40
80.0
  1
c寸法：135～175,190mmに対応
  7
STYLE2
100
AcDbText
  0
TEXT
  5
2070B
330
747D
100
AcDbEntity
  8
部品1
100
AcDbText
 10
9025.746244478016
 20
654.7283838883304
 30
0.0
 40
80.0
  1
\U+203BオールアンカーM10(市販品)
  7
STYLE2
100
AcDbText
  0
TEXT
  5
2070C
330
747D
100
AcDbEntity
  8
部品1
100
AcDbText
 10
9027.109880841653
 20
505.0314141913613
 30
0.0
 40
80.0
  1
  が4本必要になります。
  7
STYLE2
100
AcDbText
  0
TEXT
  5
2070D
330
747D
100
AcDbEntity
  8
部品1
100
AcDbText
 10
5909.705511662816
 20
528.5007017743018
 30
0.0
 40
80.0
  1
a寸法：100～150mmに対応
  7
STYLE2
100
AcDbText
  0
LINE
  5
2070E
330
747D
100
AcDbEntity
  8
部品1
 48
50.0
100
AcDbLine
 10
6305.863935877074
 20
867.1701222590382
 30
0.0
 11
6305.863935877074
 21
1267.170122259038
 31
0.0
  0
LINE
  5
2070F
330
747D
100
AcDbEntity
  8
部品1
 48
50.0
100
AcDbLine
 10
6705.863935877075
 20
1267.170122259038
 30
0.0
 11
6705.863935877073
 21
867.1701222590399
 31
0.0
  0
LINE
  5
20710
330
747D
100
AcDbEntity
  8
部品1
 48
50.0
100
AcDbLine
 10
6705.863935877073
 20
867.1701222590399
 30
0.0
 11
6305.863935877074
 21
867.1701222590382
 31
0.0
  0
LINE
  5
20804
330
747D
100
AcDbEntity
  8
部品1
 48
50.0
100
AcDbLine
 10
7260.644625212591
 20
7241.980521065169
 30
0.0
 11
7260.644625212591
 21
6851.980521065168
 31
0.0
  0
LINE
  5
20805
330
747D
100
AcDbEntity
  8
部品1
 48
50.0
100
AcDbLine
 10
7450.644625212589
 20
6851.980521065165
 30
0.0
 11
7260.644625212591
 21
6851.980521065165
 31
0.0
  0
LINE
  5
20807
330
747D
100
AcDbEntity
  8
部品1
 48
50.0
100
AcDbLine
 10
7260.644625212591
 20
7241.980521065169
 30
0.0
 11
7450.644625212589
 21
7241.980521065169
 31
0.0
  0
LINE
  5
20808
330
747D
100
AcDbEntity
  8
部品1
 48
50.0
100
AcDbLine
 10
7260.644625212591
 20
6851.980521065168
 30
0.0
 11
7450.644625212589
 21
6851.980521065168
 31
0.0
  0
LINE
  5
20809
330
747D
100
AcDbEntity
  8
部品1
 48
50.0
100
AcDbLine
 10
7450.644625212589
 20
7241.980521065169
 30
0.0
 11
7450.644625212589
 21
6851.980521065168
 31
0.0
  0
LINE
  5
2080A
330
747D
100
AcDbEntity
  8
部品1
 48
50.0
100
AcDbLine
 10
7450.644625212587
 20
7241.980521065169
 30
0.0
 11
7450.644625212589
 21
6851.980521065168
 31
0.0
  0
LINE
  5
2080B
330
747D
100
AcDbEntity
  8
部品1
 48
50.0
100
AcDbLine
 10
7450.644625212589
 20
7241.980521065169
 30
0.0
 11
7450.644625212589
 21
6851.980521065168
 31
0.0
  0
LINE
  5
2080E
330
747D
100
AcDbEntity
  8
部品1
 48
50.0
100
AcDbLine
 10
7450.644625212589
 20
7241.980521065169
 30
0.0
 11
7260.644625212591
 21
7241.980521065169
 31
0.0
  0
LINE
  5
2080F
330
747D
100
AcDbEntity
  8
部品1
 48
50.0
100
AcDbLine
 10
7450.644625212587
 20
6438.007639154796
 30
0.0
 11
7260.644625212586
 21
6438.007639154796
 31
0.0
  0
LINE
  5
20812
330
747D
100
AcDbEntity
  8
部品1
 48
50.0
100
AcDbLine
 10
7450.644625212587
 20
6438.007639154796
 30
0.0
 11
7450.644625212587
 21
6048.007639154795
 31
0.0
  0
LINE
  5
20813
330
747D
100
AcDbEntity
  8
部品1
 48
50.0
100
AcDbLine
 10
7450.644625212582
 20
6438.007639154796
 30
0.0
 11
7450.644625212587
 21
6048.007639154795
 31
0.0
  0
LINE
  5
20814
330
747D
100
AcDbEntity
  8
部品1
 48
50.0
100
AcDbLine
 10
7450.644625212587
 20
6438.007639154796
 30
0.0
 11
7450.644625212587
 21
6048.007639154795
 31
0.0
  0
LINE
  5
20815
330
747D
100
AcDbEntity
  8
部品1
 48
50.0
100
AcDbLine
 10
7260.644625212586
 20
6048.007639154795
 30
0.0
 11
7450.644625212587
 21
6048.007639154795
 31
0.0
  0
LINE
  5
20816
330
747D
100
AcDbEntity
  8
部品1
 48
50.0
100
AcDbLine
 10
7260.644625212586
 20
6438.007639154796
 30
0.0
 11
7450.644625212587
 21
6438.007639154796
 31
0.0
  0
LINE
  5
20818
330
747D
100
AcDbEntity
  8
部品1
 48
50.0
100
AcDbLine
 10
7450.644625212587
 20
6048.007639154792
 30
0.0
 11
7260.644625212586
 21
6048.007639154792
 31
0.0
  0
LINE
  5
20819
330
747D
100
AcDbEntity
  8
部品1
 48
50.0
100
AcDbLine
 10
7260.644625212586
 20
6438.007639154796
 30
0.0
 11
7260.644625212586
 21
6048.007639154795
 31
0.0
  0
LINE
  5
20832
330
747D
100
AcDbEntity
  8
部品1
 48
50.0
100
AcDbLine
 10
7987.644625212602
 20
6438.007639154793
 30
0.0
 11
7987.644625212602
 21
6048.007639154794
 31
0.0
  0
LINE
  5
20833
330
747D
100
AcDbEntity
  8
部品1
 48
50.0
100
AcDbLine
 10
8177.644625212602
 20
6048.00763915479
 30
0.0
 11
7987.644625212602
 21
6048.00763915479
 31
0.0
  0
LINE
  5
20834
330
747D
100
AcDbEntity
  8
部品1
 48
50.0
100
AcDbLine
 10
7987.644625212602
 20
6438.007639154793
 30
0.0
 11
8177.644625212602
 21
6438.007639154793
 31
0.0
  0
LINE
  5
20835
330
747D
100
AcDbEntity
  8
部品1
 48
50.0
100
AcDbLine
 10
7987.644625212602
 20
6048.007639154794
 30
0.0
 11
8177.644625212602
 21
6048.007639154794
 31
0.0
  0
LINE
  5
20836
330
747D
100
AcDbEntity
  8
部品1
 48
50.0
100
AcDbLine
 10
8177.644625212602
 20
6438.007639154793
 30
0.0
 11
8177.644625212602
 21
6048.007639154794
 31
0.0
  0
LINE
  5
20837
330
747D
100
AcDbEntity
  8
部品1
 48
50.0
100
AcDbLine
 10
8177.644625212598
 20
6438.007639154793
 30
0.0
 11
8177.644625212602
 21
6048.007639154794
 31
0.0
  0
LINE
  5
20838
330
747D
100
AcDbEntity
  8
部品1
 48
50.0
100
AcDbLine
 10
8177.644625212602
 20
6438.007639154793
 30
0.0
 11
8177.644625212602
 21
6048.007639154794
 31
0.0
  0
LINE
  5
20839
330
747D
100
AcDbEntity
  8
部品1
 48
50.0
100
AcDbLine
 10
8177.644625212602
 20
6438.007639154793
 30
0.0
 11
7987.644625212602
 21
6438.007639154793
 31
0.0
  0
LINE
  5
2083A
330
747D
100
AcDbEntity
  8
部品1
 48
50.0
100
AcDbLine
 10
8177.644625212606
 20
7241.980521065167
 30
0.0
 11
7987.644625212606
 21
7241.980521065167
 31
0.0
  0
LINE
  5
2083B
330
747D
100
AcDbEntity
  8
部品1
 48
50.0
100
AcDbLine
 10
8177.644625212606
 20
7241.980521065167
 30
0.0
 11
8177.644625212606
 21
6851.980521065167
 31
0.0
  0
LINE
  5
2083C
330
747D
100
AcDbEntity
  8
部品1
 48
50.0
100
AcDbLine
 10
8177.644625212602
 20
7241.980521065167
 30
0.0
 11
8177.644625212606
 21
6851.980521065167
 31
0.0
  0
LINE
  5
2083D
330
747D
100
AcDbEntity
  8
部品1
 48
50.0
100
AcDbLine
 10
8177.644625212606
 20
7241.980521065167
 30
0.0
 11
8177.644625212606
 21
6851.980521065167
 31
0.0
  0
LINE
  5
2083E
330
747D
100
AcDbEntity
  8
部品1
 48
50.0
100
AcDbLine
 10
7987.644625212606
 20
6851.980521065167
 30
0.0
 11
8177.644625212606
 21
6851.980521065167
 31
0.0
  0
LINE
  5
2083F
330
747D
100
AcDbEntity
  8
部品1
 48
50.0
100
AcDbLine
 10
7987.644625212606
 20
7241.980521065167
 30
0.0
 11
8177.644625212606
 21
7241.980521065167
 31
0.0
  0
LINE
  5
20840
330
747D
100
AcDbEntity
  8
部品1
 48
50.0
100
AcDbLine
 10
8177.644625212606
 20
6851.980521065162
 30
0.0
 11
7987.644625212606
 21
6851.980521065162
 31
0.0
  0
LINE
  5
20841
330
747D
100
AcDbEntity
  8
部品1
 48
50.0
100
AcDbLine
 10
7987.644625212606
 20
7241.980521065167
 30
0.0
 11
7987.644625212606
 21
6851.980521065167
 31
0.0
  0
LINE
  5
20842
330
747D
100
AcDbEntity
  8
部品1
 48
50.0
100
AcDbLine
 10
8714.644625212589
 20
7241.980521065167
 30
0.0
 11
8714.644625212589
 21
6851.980521065167
 31
0.0
  0
LINE
  5
20843
330
747D
100
AcDbEntity
  8
部品1
 48
50.0
100
AcDbLine
 10
8904.644625212588
 20
6851.980521065162
 30
0.0
 11
8714.644625212589
 21
6851.980521065162
 31
0.0
  0
LINE
  5
20844
330
747D
100
AcDbEntity
  8
部品1
 48
50.0
100
AcDbLine
 10
8714.644625212589
 20
7241.980521065167
 30
0.0
 11
8904.644625212588
 21
7241.980521065167
 31
0.0
  0
LINE
  5
20845
330
747D
100
AcDbEntity
  8
部品1
 48
50.0
100
AcDbLine
 10
8714.644625212589
 20
6851.980521065167
 30
0.0
 11
8904.644625212588
 21
6851.980521065167
 31
0.0
  0
LINE
  5
20846
330
747D
100
AcDbEntity
  8
部品1
 48
50.0
100
AcDbLine
 10
8904.644625212588
 20
7241.980521065167
 30
0.0
 11
8904.644625212588
 21
6851.980521065167
 31
0.0
  0
LINE
  5
20847
330
747D
100
AcDbEntity
  8
部品1
 48
50.0
100
AcDbLine
 10
8904.644625212585
 20
7241.980521065167
 30
0.0
 11
8904.644625212588
 21
6851.980521065167
 31
0.0
  0
LINE
  5
20848
330
747D
100
AcDbEntity
  8
部品1
 48
50.0
100
AcDbLine
 10
8904.644625212588
 20
7241.980521065167
 30
0.0
 11
8904.644625212588
 21
6851.980521065167
 31
0.0
  0
LINE
  5
20849
330
747D
100
AcDbEntity
  8
部品1
 48
50.0
100
AcDbLine
 10
8904.644625212588
 20
7241.980521065167
 30
0.0
 11
8714.644625212589
 21
7241.980521065167
 31
0.0
  0
LINE
  5
2084A
330
747D
100
AcDbEntity
  8
部品1
 48
50.0
100
AcDbLine
 10
8904.644625212585
 20
6438.007639154793
 30
0.0
 11
8714.644625212583
 21
6438.007639154793
 31
0.0
  0
LINE
  5
2084B
330
747D
100
AcDbEntity
  8
部品1
 48
50.0
100
AcDbLine
 10
8904.644625212585
 20
6438.007639154793
 30
0.0
 11
8904.644625212585
 21
6048.007639154794
 31
0.0
  0
LINE
  5
2084C
330
747D
100
AcDbEntity
  8
部品1
 48
50.0
100
AcDbLine
 10
8904.644625212581
 20
6438.007639154793
 30
0.0
 11
8904.644625212585
 21
6048.007639154794
 31
0.0
  0
LINE
  5
2084D
330
747D
100
AcDbEntity
  8
部品1
 48
50.0
100
AcDbLine
 10
8904.644625212585
 20
6438.007639154793
 30
0.0
 11
8904.644625212585
 21
6048.007639154794
 31
0.0
  0
LINE
  5
2084E
330
747D
100
AcDbEntity
  8
部品1
 48
50.0
100
AcDbLine
 10
8714.644625212583
 20
6048.007639154794
 30
0.0
 11
8904.644625212585
 21
6048.007639154794
 31
0.0
  0
LINE
  5
2084F
330
747D
100
AcDbEntity
  8
部品1
 48
50.0
100
AcDbLine
 10
8714.644625212583
 20
6438.007639154793
 30
0.0
 11
8904.644625212585
 21
6438.007639154793
 31
0.0
  0
LINE
  5
20850
330
747D
100
AcDbEntity
  8
部品1
 48
50.0
100
AcDbLine
 10
8904.644625212585
 20
6048.00763915479
 30
0.0
 11
8714.644625212583
 21
6048.00763915479
 31
0.0
  0
LINE
  5
20851
330
747D
100
AcDbEntity
  8
部品1
 48
50.0
100
AcDbLine
 10
8714.644625212583
 20
6438.007639154793
 30
0.0
 11
8714.644625212583
 21
6048.007639154794
 31
0.0
  0
ENDSEC
  0
SECTION
  2
OBJECTS
  0
DICTIONARY
  5
7471
330
0
100
AcDbDictionary
281
     1
  3
ACAD_COLOR
350
159B0
  3
ACAD_GROUP
350
7472
  3
ACAD_LAYOUT
350
159B1
  3
ACAD_MATERIAL
350
159AF
  3
ACAD_MLINESTYLE
350
7473
  3
ACAD_PLOTSETTINGS
350
159B2
  3
ACAD_PLOTSTYLENAME
350
159AD
  3
ACDBHEADERROUNDTRIPXREC
350
2085F
  3
AcDbVariableDictionary
350
2085B
  3
CONTENTDICTIONARY
350
E71C
  3
DRAWINGVARIABLESDICT
350
F3B9
  0
DICTIONARY
  5
1E67E
330
7467
100
AcDbDictionary
280
     1
281
     1
  3
ACAD_LAYERSTATES
360
1E67F
  0
DICTIONARY
  5
159B0
102
{ACAD_REACTORS
330
7471
102
}
330
7471
100
AcDbDictionary
281
     1
  0
DICTIONARY
  5
7472
102
{ACAD_REACTORS
330
7471
102
}
330
7471
100
AcDbDictionary
281
     1
  3
*A1
350
1FC8E
  3
*A2
350
1FD42
  3
*A3
350
1FD47
  3
*A4
350
1FD4C
  0
DICTIONARY
  5
159B1
102
{ACAD_REACTORS
330
7471
102
}
330
7471
100
AcDbDictionary
281
     1
  3
Model
350
159B3
  3
レイアウト1
350
159B4
  0
DICTIONARY
  5
159AF
102
{ACAD_REACTORS
330
7471
102
}
330
7471
100
AcDbDictionary
281
     1
  0
DICTIONARY
  5
7473
102
{ACAD_REACTORS
330
7471
102
}
330
7471
100
AcDbDictionary
281
     1
  3
STANDARD
350
7480
  0
DICTIONARY
  5
159B2
102
{ACAD_REACTORS
330
7471
102
}
330
7471
100
AcDbDictionary
281
     1
  0
ACDBDICTIONARYWDFLT
  5
159AD
102
{ACAD_REACTORS
330
7471
102
}
330
7471
100
AcDbDictionary
281
     1
  3
Normal
350
159AE
100
AcDbDictionaryWithDefault
340
159AE
  0
DICTIONARY
  5
2085F
102
{ACAD_REACTORS
330
7471
102
}
330
7471
100
AcDbDictionary
281
     1
  3
COLORDICT
350
20861
  3
MATERIALDICT
350
20860
  0
DICTIONARY
  5
2085B
102
{ACAD_REACTORS
330
7471
102
}
330
7471
100
AcDbDictionary
281
     1
  3
DIMASSOC
350
2085C
  3
PROJECTNAME
350
2085D
  0
DICTIONARY
  5
E71C
102
{ACAD_REACTORS
330
7471
102
}
330
7471
100
AcDbDictionary
281
     1
  0
DICTIONARY
  5
F3B9
102
{ACAD_REACTORS
330
7471
102
}
330
7471
100
AcDbDictionary
281
     1
1001
DRAWINGVARIABLESXDATA
1000
POLARMODE
1000
1
  0
DICTIONARY
  5
1E67F
102
{ACAD_REACTORS
330
1E67E
102
}
330
1E67E
100
AcDbDictionary
281
     1
  0
GROUP
  5
1FC8E
102
{ACAD_REACTORS
330
7472
102
}
330
7472
100
AcDbGroup
300

 70
     1
 71
     1
340
1FB3C
340
1FB3B
340
1FB3A
340
1FB3D
  0
GROUP
  5
1FD42
102
{ACAD_REACTORS
330
7472
102
}
330
7472
100
AcDbGroup
300

 70
     1
 71
     1
340
1FD3E
340
1FD3F
340
1FD40
340
1FD41
  0
GROUP
  5
1FD47
102
{ACAD_REACTORS
330
7472
102
}
330
7472
100
AcDbGroup
300

 70
     1
 71
     1
340
1FD43
340
1FD44
340
1FD45
340
1FD46
  0
GROUP
  5
1FD4C
102
{ACAD_REACTORS
330
7472
102
}
330
7472
100
AcDbGroup
300

 70
     1
 71
     1
340
1FD48
340
1FD49
340
1FD4A
340
1FD4B
  0
LAYOUT
  5
159B3
102
{ACAD_XDICTIONARY
360
20862
102
}
102
{ACAD_REACTORS
330
159B1
102
}
330
159B1
100
AcDbPlotSettings
  1

  2
none_device
  4
Letter_(8.50_x_11.00_Inches)
  6

 40
6.349999904632568
 41
6.349999904632568
 42
6.350006103515625
 43
6.350006103515625
 44
215.8999938964844
 45
279.3999938964844
 46
0.0
 47
0.0
 48
0.0
 49
0.0
140
0.0
141
0.0
142
1.0
143
1.0
 70
 11952
 72
     1
 73
     1
 74
     0
  7

 75
     0
147
1.0
148
-4149.571981164617
149
65.56433826894044
100
AcDbLayout
  1
Model
 70
     1
 71
     0
 10
0.0
 20
0.0
 11
12.0
 21
9.0
 12
0.0
 22
0.0
 32
0.0
 14
0.0
 24
0.0
 34
0.0
 15
0.0
 25
0.0
 35
0.0
146
0.0
 13
0.0
 23
0.0
 33
0.0
 16
1.0
 26
0.0
 36
0.0
 17
0.0
 27
1.0
 37
0.0
 76
     0
330
747D
  0
LAYOUT
  5
159B4
102
{ACAD_XDICTIONARY
360
20864
102
}
102
{ACAD_REACTORS
330
159B1
102
}
330
159B1
100
AcDbPlotSettings
  1

  2
自動 EPSON LP-8400FX (TATENO 上)
  4

  6

 40
0.0
 41
0.0
 42
0.0
 43
0.0
 44
0.0
 45
0.0
 46
0.0
 47
0.0
 48
0.0
 49
0.0
140
0.0
141
0.0
142
1.0
143
1.0
 70
   688
 72
     0
 73
     0
 74
     5
  7
inaba.ctb
 75
    16
147
1.0
148
0.0
149
0.0
100
AcDbLayout
  1
レイアウト1
 70
     0
 71
     1
 10
0.0
 20
0.0
 11
420.0
 21
297.0
 12
0.0
 22
0.0
 32
0.0
 14
1.000000000000000E+20
 24
1.000000000000000E+20
 34
1.000000000000000E+20
 15
-1.000000000000000E+20
 25
-1.000000000000000E+20
 35
-1.000000000000000E+20
146
0.0
 13
0.0
 23
0.0
 33
0.0
 16
1.0
 26
0.0
 36
0.0
 17
0.0
 27
1.0
 37
0.0
 76
     0
330
747A
  0
MLINESTYLE
  5
7480
102
{ACAD_REACTORS
330
7473
102
}
330
7473
100
AcDbMlineStyle
  2
STANDARD
 70
     0
  3

 62
     0
 51
90.0
 52
90.0
 71
     2
 49
0.5
 62
   256
  6
BYLAYER
 49
-0.5
 62
   256
  6
BYLAYER
  0
ACDBPLACEHOLDER
  5
159AE
102
{ACAD_REACTORS
330
159AD
102
}
330
159AD
  0
XRECORD
  5
20861
102
{ACAD_REACTORS
330
2085F
102
}
330
2085F
100
AcDbXrecord
280
     1
340
159B0
  0
XRECORD
  5
20860
102
{ACAD_REACTORS
330
2085F
102
}
330
2085F
100
AcDbXrecord
280
     1
340
159AF
  0
DICTIONARYVAR
  5
2085C
102
{ACAD_REACTORS
330
2085B
102
}
330
2085B
100
DictionaryVariables
280
     0
  1
1
  0
DICTIONARYVAR
  5
2085D
102
{ACAD_REACTORS
330
2085B
102
}
330
2085B
100
DictionaryVariables
280
     0
  1

  0
DICTIONARY
  5
20862
330
159B3
100
AcDbDictionary
280
     1
281
     1
  3
ACAD_XREC_ROUNDTRIP
360
20863
  0
DICTIONARY
  5
20864
330
159B4
100
AcDbDictionary
280
     1
281
     1
  3
ACAD_XREC_ROUNDTRIP
360
20865
  0
XRECORD
  5
20863
102
{ACAD_REACTORS
330
20862
102
}
330
20862
100
AcDbXrecord
280
     1
102
SHADEPLOT
 70
     0
102
SHADEPLOTRESLEVEL
 70
     2
102
SHADEPLOTCUSTOMDPI
 70
   300
  0
XRECORD
  5
20865
102
{ACAD_REACTORS
330
20864
102
}
330
20864
100
AcDbXrecord
280
     1
102
SHADEPLOT
 70
     0
102
SHADEPLOTRESLEVEL
 70
     2
102
SHADEPLOTCUSTOMDPI
 70
   300
  0
ENDSEC
  0
EOF
