  0
SECTION
  2
HEADER
  9
$ACADVER
  1
AC1015
  9
$ACADMAINTVER
 70
    20
  9
$DWGCODEPAGE
  3
ANSI_932
  9
$INSBASE
 10
0.0
 20
0.0
 30
0.0
  9
$EXTMIN
 10
139.9999999999995
 20
-0.0000000000000909
 30
0.0
  9
$EXTMAX
 10
16307.2
 20
11409.6
 30
0.0
  9
$LIMMIN
 10
0.0
 20
0.0
  9
$LIMMAX
 10
16800.0
 20
11880.0
  9
$ORTHOMODE
 70
     0
  9
$REGENMODE
 70
     1
  9
$FILLMODE
 70
     1
  9
$QTEXTMODE
 70
     0
  9
$MIRRTEXT
 70
     1
  9
$LTSCALE
 40
20.0
  9
$ATTMODE
 70
     1
  9
$TEXTSIZE
 40
100.0
  9
$TRACEWID
 40
1.0
  9
$TEXTSTYLE
  7
STYLE2
  9
$CLAYER
  8
寸法
  9
$CELTYPE
  6
BYLAYER
  9
$CECOLOR
 62
   256
  9
$CELTSCALE
 40
50.0
  9
$DISPSILH
 70
     0
  9
$DIMSCALE
 40
40.0
  9
$DIMASZ
 40
2.5
  9
$DIMEXO
 40
0.5
  9
$DIMDLI
 40
7.0
  9
$DIMRND
 40
0.0
  9
$DIMDLE
 40
0.0
  9
$DIMEXE
 40
1.5
  9
$DIMTP
 40
0.0
  9
$DIMTM
 40
0.0
  9
$DIMTXT
 40
3.0
  9
$DIMCEN
 40
0.0
  9
$DIMTSZ
 40
0.0
  9
$DIMTOL
 70
     0
  9
$DIMLIM
 70
     0
  9
$DIMTIH
 70
     0
  9
$DIMTOH
 70
     0
  9
$DIMSE1
 70
     0
  9
$DIMSE2
 70
     0
  9
$DIMTAD
 70
     3
  9
$DIMZIN
 70
     8
  9
$DIMBLK
  1

  9
$DIMASO
 70
     1
  9
$DIMSHO
 70
     1
  9
$DIMPOST
  1

  9
$DIMAPOST
  1

  9
$DIMALT
 70
     0
  9
$DIMALTD
 70
     2
  9
$DIMALTF
 40
0.0394
  9
$DIMLFAC
 40
1.0
  9
$DIMTOFL
 70
     1
  9
$DIMTVP
 40
0.0
  9
$DIMTIX
 70
     0
  9
$DIMSOXD
 70
     0
  9
$DIMSAH
 70
     1
  9
$DIMBLK1
  1
DOTSMALL
  9
$DIMBLK2
  1
DOTSMALL
  9
$DIMSTYLE
  2
INABA_S40G
  9
$DIMCLRD
 70
     0
  9
$DIMCLRE
 70
     0
  9
$DIMCLRT
 70
     7
  9
$DIMTFAC
 40
1.0
  9
$DIMGAP
 40
1.0
  9
$DIMJUST
 70
     0
  9
$DIMSD1
 70
     0
  9
$DIMSD2
 70
     0
  9
$DIMTOLJ
 70
     1
  9
$DIMTZIN
 70
     0
  9
$DIMALTZ
 70
     0
  9
$DIMALTTZ
 70
     0
  9
$DIMUPT
 70
     0
  9
$DIMDEC
 70
     1
  9
$DIMTDEC
 70
     1
  9
$DIMALTU
 70
     2
  9
$DIMALTTD
 70
     2
  9
$DIMTXSTY
  7
STYLE1
  9
$DIMAUNIT
 70
     0
  9
$DIMADEC
 70
     0
  9
$DIMALTRND
 40
0.0
  9
$DIMAZIN
 70
     0
  9
$DIMDSEP
 70
    46
  9
$DIMATFIT
 70
     3
  9
$DIMFRAC
 70
     0
  9
$DIMLDRBLK
  1

  9
$DIMLUNIT
 70
     2
  9
$DIMLWD
 70
    -2
  9
$DIMLWE
 70
    -2
  9
$DIMTMOVE
 70
     0
  9
$LUNITS
 70
     2
  9
$LUPREC
 70
     1
  9
$SKETCHINC
 40
1.0
  9
$FILLETRAD
 40
0.0
  9
$AUNITS
 70
     0
  9
$AUPREC
 70
     0
  9
$MENU
  1
acad
  9
$ELEVATION
 40
0.0
  9
$PELEVATION
 40
0.0
  9
$THICKNESS
 40
0.0
  9
$LIMCHECK
 70
     0
  9
$CHAMFERA
 40
3.0
  9
$CHAMFERB
 40
3.0
  9
$CHAMFERC
 40
0.0
  9
$CHAMFERD
 40
0.0
  9
$SKPOLY
 70
     0
  9
$TDCREATE
 40
2451368.612993866
  9
$TDUCREATE
 40
2451368.237993866
  9
$TDUPDATE
 40
2455575.709326713
  9
$TDUUPDATE
 40
2455575.334326713
  9
$TDINDWG
 40
1.4457106713
  9
$TDUSRTIMER
 40
1.4457106713
  9
$USRTIMER
 70
     1
  9
$ANGBASE
 50
0.0
  9
$ANGDIR
 70
     0
  9
$PDMODE
 70
     3
  9
$PDSIZE
 40
2.0
  9
$PLINEWID
 40
0.0
  9
$SPLFRAME
 70
     0
  9
$SPLINETYPE
 70
     6
  9
$SPLINESEGS
 70
     8
  9
$HANDSEED
  5
20279
  9
$SURFTAB1
 70
     6
  9
$SURFTAB2
 70
     6
  9
$SURFTYPE
 70
     6
  9
$SURFU
 70
     6
  9
$SURFV
 70
     6
  9
$UCSBASE
  2

  9
$UCSNAME
  2

  9
$UCSORG
 10
0.0
 20
0.0
 30
0.0
  9
$UCSXDIR
 10
1.0
 20
0.0
 30
0.0
  9
$UCSYDIR
 10
0.0
 20
1.0
 30
0.0
  9
$UCSORTHOREF
  2

  9
$UCSORTHOVIEW
 70
     0
  9
$UCSORGTOP
 10
0.0
 20
0.0
 30
0.0
  9
$UCSORGBOTTOM
 10
0.0
 20
0.0
 30
0.0
  9
$UCSORGLEFT
 10
0.0
 20
0.0
 30
0.0
  9
$UCSORGRIGHT
 10
0.0
 20
0.0
 30
0.0
  9
$UCSORGFRONT
 10
0.0
 20
0.0
 30
0.0
  9
$UCSORGBACK
 10
0.0
 20
0.0
 30
0.0
  9
$PUCSBASE
  2

  9
$PUCSNAME
  2

  9
$PUCSORG
 10
0.0
 20
0.0
 30
0.0
  9
$PUCSXDIR
 10
1.0
 20
0.0
 30
0.0
  9
$PUCSYDIR
 10
0.0
 20
1.0
 30
0.0
  9
$PUCSORTHOREF
  2

  9
$PUCSORTHOVIEW
 70
     0
  9
$PUCSORGTOP
 10
0.0
 20
0.0
 30
0.0
  9
$PUCSORGBOTTOM
 10
0.0
 20
0.0
 30
0.0
  9
$PUCSORGLEFT
 10
0.0
 20
0.0
 30
0.0
  9
$PUCSORGRIGHT
 10
0.0
 20
0.0
 30
0.0
  9
$PUCSORGFRONT
 10
0.0
 20
0.0
 30
0.0
  9
$PUCSORGBACK
 10
0.0
 20
0.0
 30
0.0
  9
$USERI1
 70
     0
  9
$USERI2
 70
     0
  9
$USERI3
 70
     0
  9
$USERI4
 70
     0
  9
$USERI5
 70
     0
  9
$USERR1
 40
0.0
  9
$USERR2
 40
0.0
  9
$USERR3
 40
0.0
  9
$USERR4
 40
0.0
  9
$USERR5
 40
0.0
  9
$WORLDVIEW
 70
     1
  9
$SHADEDGE
 70
     3
  9
$SHADEDIF
 70
    70
  9
$TILEMODE
 70
     1
  9
$MAXACTVP
 70
    16
  9
$PINSBASE
 10
0.0
 20
0.0
 30
0.0
  9
$PLIMCHECK
 70
     0
  9
$PEXTMIN
 10
1.000000000000000E+20
 20
1.000000000000000E+20
 30
1.000000000000000E+20
  9
$PEXTMAX
 10
-1.000000000000000E+20
 20
-1.000000000000000E+20
 30
-1.000000000000000E+20
  9
$PLIMMIN
 10
0.0
 20
0.0
  9
$PLIMMAX
 10
420.0
 20
297.0
  9
$UNITMODE
 70
     0
  9
$VISRETAIN
 70
     0
  9
$PLINEGEN
 70
     0
  9
$PSLTSCALE
 70
     0
  9
$TREEDEPTH
 70
  3020
  9
$CMLSTYLE
  2
STANDARD
  9
$CMLJUST
 70
     0
  9
$CMLSCALE
 40
1.0
  9
$PROXYGRAPHICS
 70
     1
  9
$MEASUREMENT
 70
     1
  9
$CELWEIGHT
370
    -1
  9
$ENDCAPS
280
     0
  9
$JOINSTYLE
280
     0
  9
$LWDISPLAY
290
     0
  9
$INSUNITS
 70
     0
  9
$HYPERLINKBASE
  1

  9
$STYLESHEET
  1
inaba.ctb
  9
$XEDIT
290
     1
  9
$CEPSNTYPE
380
     0
  9
$PSTYLEMODE
290
     1
  9
$FINGERPRINTGUID
  2
{3B57B35E-7D77-4BBF-81B7-6C583B9EB24C}
  9
$VERSIONGUID
  2
{5FE15E00-6E34-4018-9C6C-149EE33CCD7A}
  9
$EXTNAMES
290
     1
  9
$PSVPSCALE
 40
0.0
  9
$OLESTARTUP
290
     0
  0
ENDSEC
  0
SECTION
  2
CLASSES
  0
CLASS
  1
ACDBDICTIONARYWDFLT
  2
AcDbDictionaryWithDefault
  3
ObjectDBX Classes
 90
        0
280
     0
281
     0
  0
CLASS
  1
DICTIONARYVAR
  2
AcDbDictionaryVar
  3
ObjectDBX Classes
 90
        0
280
     0
281
     0
  0
CLASS
  1
ACDBPLACEHOLDER
  2
AcDbPlaceHolder
  3
ObjectDBX Classes
 90
        0
280
     0
281
     0
  0
CLASS
  1
LAYOUT
  2
AcDbLayout
  3
ObjectDBX Classes
 90
        0
280
     0
281
     0
  0
ENDSEC
  0
SECTION
  2
TABLES
  0
TABLE
  2
VPORT
  5
746D
330
0
100
AcDbSymbolTable
 70
     2
  0
VPORT
  5
20271
330
746D
100
AcDbSymbolTableRecord
100
AcDbViewportTableRecord
  2
*Active
 70
     0
 10
0.0
 20
0.0
 11
1.0
 21
1.0
 12
8223.761025238498
 22
6621.561008946533
 13
0.0
 23
0.0
 14
10.0
 24
10.0
 15
10.0
 25
10.0
 16
0.0
 26
0.0
 36
1.0
 17
0.0
 27
0.0
 37
0.0
 40
13357.14223066041
 41
1.525925925925925
 42
50.0
 43
0.0
 44
0.0
 50
0.0
 51
0.0
 71
     0
 72
     0
 73
     1
 74
     0
 75
     0
 76
     0
 77
     0
 78
     0
281
     0
 65
     1
110
0.0
120
0.0
130
0.0
111
1.0
121
0.0
131
0.0
112
0.0
122
1.0
132
0.0
 79
     0
146
0.0
  0
ENDTAB
  0
TABLE
  2
LTYPE
  5
746A
330
0
100
AcDbSymbolTable
 70
     4
  0
LTYPE
  5
7477
330
746A
100
AcDbSymbolTableRecord
100
AcDbLinetypeTableRecord
  2
BYBLOCK
 70
     0
  3

 72
    65
 73
     0
 40
0.0
  0
LTYPE
  5
7478
330
746A
100
AcDbSymbolTableRecord
100
AcDbLinetypeTableRecord
  2
BYLAYER
 70
     0
  3

 72
    65
 73
     0
 40
0.0
  0
LTYPE
  5
7479
330
746A
100
AcDbSymbolTableRecord
100
AcDbLinetypeTableRecord
  2
CONTINUOUS
 70
     0
  3
Solid line
 72
    65
 73
     0
 40
0.0
  0
LTYPE
  5
7816
330
746A
100
AcDbSymbolTableRecord
100
AcDbLinetypeTableRecord
  2
CENTER
 70
     0
  3
____ _ ____ _ ____ _ ____ _ ____ _ ____ _ ____ 
 72
    65
 73
     4
 40
2.0
 49
1.25
 74
     0
 49
-0.25
 74
     0
 49
0.25
 74
     0
 49
-0.25
 74
     0
  0
LTYPE
  5
781A
330
746A
100
AcDbSymbolTableRecord
100
AcDbLinetypeTableRecord
  2
HIDDEN
 70
     0
  3
__ __ __ __ __ __ __ __ __ __ __ __ __ __ __ __
 72
    65
 73
     2
 40
0.375
 49
0.25
 74
     0
 49
-0.125
 74
     0
  0
LTYPE
  5
781B
330
746A
100
AcDbSymbolTableRecord
100
AcDbLinetypeTableRecord
  2
PHANTOM
 70
     0
  3
______  __  __  ______  __  __  ______  __  __ 
 72
    65
 73
     6
 40
2.5
 49
1.25
 74
     0
 49
-0.25
 74
     0
 49
0.25
 74
     0
 49
-0.25
 74
     0
 49
0.25
 74
     0
 49
-0.25
 74
     0
  0
ENDTAB
  0
TABLE
  2
LAYER
  5
7467
102
{ACAD_XDICTIONARY
360
1E67E
102
}
330
0
100
AcDbSymbolTable
 70
    13
  0
LAYER
  5
7474
330
7467
100
AcDbSymbolTableRecord
100
AcDbLayerTableRecord
  2
0
 70
     0
 62
     7
  6
CONTINUOUS
370
    -3
390
159AE
  0
LAYER
  5
DEB2
330
7467
100
AcDbSymbolTableRecord
100
AcDbLayerTableRecord
  2
センター
 70
     0
 62
     3
  6
CENTER
370
    -3
390
159AE
  0
LAYER
  5
DEB3
330
7467
100
AcDbSymbolTableRecord
100
AcDbLayerTableRecord
  2
寸法
 70
     0
 62
     4
  6
CONTINUOUS
370
    -3
390
159AE
  0
LAYER
  5
DEB4
330
7467
100
AcDbSymbolTableRecord
100
AcDbLayerTableRecord
  2
部品1
 70
     0
 62
     7
  6
CONTINUOUS
370
    -3
390
159AE
  0
LAYER
  5
DEB5
330
7467
100
AcDbSymbolTableRecord
100
AcDbLayerTableRecord
  2
補助
 70
     0
 62
    -1
  6
CONTINUOUS
370
    -3
390
159AE
  0
LAYER
  5
DEB6
330
7467
100
AcDbSymbolTableRecord
100
AcDbLayerTableRecord
  2
文字
 70
     0
 62
     7
  6
CONTINUOUS
370
    -3
390
159AE
  0
LAYER
  5
F255
330
7467
100
AcDbSymbolTableRecord
100
AcDbLayerTableRecord
  2
DEFPOINTS
 70
     0
 62
     7
  6
CONTINUOUS
290
     0
370
    -3
390
159AE
  0
LAYER
  5
10B54
330
7467
100
AcDbSymbolTableRecord
100
AcDbLayerTableRecord
  2
仕様書枠
 70
     0
 62
   230
  6
CONTINUOUS
370
    -3
390
159AE
  0
LAYER
  5
11729
330
7467
100
AcDbSymbolTableRecord
100
AcDbLayerTableRecord
  2
Ｇ．Ｌ
 70
     0
 62
    30
  6
CONTINUOUS
370
    -3
390
159AE
  0
LAYER
  5
1173F
330
7467
100
AcDbSymbolTableRecord
100
AcDbLayerTableRecord
  2
細線
 70
     0
 62
     5
  6
CONTINUOUS
370
    -3
390
159AE
  0
LAYER
  5
12CC4
330
7467
100
AcDbSymbolTableRecord
100
AcDbLayerTableRecord
  2
想像線
 70
     0
 62
     6
  6
PHANTOM
370
    -3
390
159AE
  0
LAYER
  5
142E2
330
7467
100
AcDbSymbolTableRecord
100
AcDbLayerTableRecord
  2
破線
 70
     0
 62
     2
  6
HIDDEN
370
    -3
390
159AE
  0
LAYER
  5
1C644
330
7467
100
AcDbSymbolTableRecord
100
AcDbLayerTableRecord
  2
点線
 70
     0
 62
     2
  6
HIDDEN
370
    -3
390
159AE
  0
ENDTAB
  0
TABLE
  2
STYLE
  5
7468
330
0
100
AcDbSymbolTable
 70
     3
  0
STYLE
  5
7475
330
7468
100
AcDbSymbolTableRecord
100
AcDbTextStyleTableRecord
  2
STANDARD
 70
     0
 40
0.0
 41
1.0
 50
0.0
 71
     0
 42
4.0
  3
txt
  4
C:\AutoCAD LT\bigfont.shx
  0
STYLE
  5
F706
330
7468
100
AcDbSymbolTableRecord
100
AcDbTextStyleTableRecord
  2
STYLE1
 70
     0
 40
0.0
 41
1.0
 50
0.0
 71
     0
 42
100.0
  3
isocp.shx
  4
bigfont.shx
  0
STYLE
  5
103BF
330
7468
100
AcDbSymbolTableRecord
100
AcDbTextStyleTableRecord
  2
STYLE2
 70
     0
 40
0.0
 41
1.0
 50
0.0
 71
     0
 42
100.0
  3
MS PGothic.ttf
  4

1001
ACAD
1000
MS PGothic
1071
    32818
  0
ENDTAB
  0
TABLE
  2
VIEW
  5
746B
330
0
100
AcDbSymbolTable
 70
     0
  0
ENDTAB
  0
TABLE
  2
UCS
  5
746C
330
0
100
AcDbSymbolTable
 70
     0
  0
ENDTAB
  0
TABLE
  2
APPID
  5
746E
330
0
100
AcDbSymbolTable
 70
     6
  0
APPID
  5
7476
330
746E
100
AcDbSymbolTableRecord
100
AcDbRegAppTableRecord
  2
ACAD
 70
     0
  0
APPID
  5
DEA9
330
746E
100
AcDbSymbolTableRecord
100
AcDbRegAppTableRecord
  2
CONTENTBLOCKICON
 70
     0
  0
APPID
  5
DEAA
330
746E
100
AcDbSymbolTableRecord
100
AcDbRegAppTableRecord
  2
CONTENTBLOCKDESCRIPTION
 70
     0
  0
APPID
  5
E71D
330
746E
100
AcDbSymbolTableRecord
100
AcDbRegAppTableRecord
  2
CONTENTTABDATA
 70
     0
  0
APPID
  5
E71E
330
746E
100
AcDbSymbolTableRecord
100
AcDbRegAppTableRecord
  2
CONTENTCURRENTTAB
 70
     0
  0
APPID
  5
F3BA
330
746E
100
AcDbSymbolTableRecord
100
AcDbRegAppTableRecord
  2
DRAWINGVARIABLESXDATA
 70
     0
  0
ENDTAB
  0
TABLE
  2
DIMSTYLE
  5
746F
330
0
100
AcDbSymbolTable
 70
     2
100
AcDbDimStyleTable
 71
     1
340
F71F
  0
DIMSTYLE
105
F71F
102
{ACAD_REACTORS
330
1F71E
330
1F71F
330
1F720
330
1F730
330
1F739
330
1F743
330
1F744
330
1F745
330
1F748
330
1F702
330
1F98A
330
1F98B
330
200B2
330
20114
330
2017C
330
201D9
102
}
330
746F
100
AcDbSymbolTableRecord
100
AcDbDimStyleTableRecord
  2
INABA_S40G
 70
     0
 40
40.0
 41
2.5
 42
0.5
 43
7.0
 44
1.5
 73
     0
 74
     0
 77
     3
 78
     8
140
3.0
141
0.0
143
0.0394
147
1.0
172
     1
173
     1
174
     1
178
     7
271
     1
288
     1
340
F706
341
F770
343
F770
344
F770
  0
DIMSTYLE
105
1C645
330
746F
100
AcDbSymbolTableRecord
100
AcDbDimStyleTableRecord
  2
INABA_S50G
 70
     0
 40
0.0
 41
125.0
 42
25.0
 43
7.0
 44
75.0
 73
     0
 74
     0
 77
     3
 78
     8
140
150.0
141
0.0
143
0.0394
147
25.0
172
     1
173
     1
174
     1
178
     7
271
     1
340
F706
341
F770
343
F770
344
F770
  0
ENDTAB
  0
TABLE
  2
BLOCK_RECORD
  5
7466
330
0
100
AcDbSymbolTable
 70
    18
  0
BLOCK_RECORD
  5
747D
330
7466
100
AcDbSymbolTableRecord
100
AcDbBlockTableRecord
  2
*MODEL_SPACE
340
159B3
  0
BLOCK_RECORD
  5
747A
330
7466
100
AcDbSymbolTableRecord
100
AcDbBlockTableRecord
  2
*PAPER_SPACE
340
159B4
  0
BLOCK_RECORD
  5
F770
330
7466
100
AcDbSymbolTableRecord
100
AcDbBlockTableRecord
  2
_DOTSMALL
340
0
102
{BLKREFS
331
1F8CA
331
1F8CB
331
1F8E7
331
1F8E8
331
1F8F2
331
1F8F3
331
1F8FD
331
1F8FE
331
1F906
331
1F907
331
1F90F
331
1F910
331
1F918
331
1F919
331
1F933
331
1F934
331
1FCCF
331
1FCD0
331
1FCD8
331
1FCD9
331
1FCE3
331
1FCE4
331
1FD59
331
1FD5A
331
2023B
331
2023C
331
20244
331
20245
331
2024D
331
2024E
331
20256
331
20257
102
}
  0
BLOCK_RECORD
  5
1C530
330
7466
100
AcDbSymbolTableRecord
100
AcDbBlockTableRecord
  2
_NONE
340
0
  0
BLOCK_RECORD
  5
1F765
330
7466
100
AcDbSymbolTableRecord
100
AcDbBlockTableRecord
  2
*D2
340
0
  0
BLOCK_RECORD
  5
1F771
330
7466
100
AcDbSymbolTableRecord
100
AcDbBlockTableRecord
  2
*D3
340
0
  0
BLOCK_RECORD
  5
1F77D
330
7466
100
AcDbSymbolTableRecord
100
AcDbBlockTableRecord
  2
*D4
340
0
  0
BLOCK_RECORD
  5
1F789
330
7466
100
AcDbSymbolTableRecord
100
AcDbBlockTableRecord
  2
*D5
340
0
  0
BLOCK_RECORD
  5
1F797
330
7466
100
AcDbSymbolTableRecord
100
AcDbBlockTableRecord
  2
*D6
340
0
  0
BLOCK_RECORD
  5
1F7A5
330
7466
100
AcDbSymbolTableRecord
100
AcDbBlockTableRecord
  2
*D7
340
0
  0
BLOCK_RECORD
  5
1F7B1
330
7466
100
AcDbSymbolTableRecord
100
AcDbBlockTableRecord
  2
*D8
340
0
  0
BLOCK_RECORD
  5
1F7BD
330
7466
100
AcDbSymbolTableRecord
100
AcDbBlockTableRecord
  2
*D9
340
0
  0
BLOCK_RECORD
  5
1F7CB
330
7466
100
AcDbSymbolTableRecord
100
AcDbBlockTableRecord
  2
*D10
340
0
  0
BLOCK_RECORD
  5
1F7D7
330
7466
100
AcDbSymbolTableRecord
100
AcDbBlockTableRecord
  2
*D11
340
0
  0
BLOCK_RECORD
  5
1F98D
330
7466
100
AcDbSymbolTableRecord
100
AcDbBlockTableRecord
  2
*D12
340
0
  0
BLOCK_RECORD
  5
1F999
330
7466
100
AcDbSymbolTableRecord
100
AcDbBlockTableRecord
  2
*D13
340
0
  0
BLOCK_RECORD
  5
201E4
330
7466
100
AcDbSymbolTableRecord
100
AcDbBlockTableRecord
  2
*D14
340
0
  0
BLOCK_RECORD
  5
201F0
330
7466
100
AcDbSymbolTableRecord
100
AcDbBlockTableRecord
  2
*D15
340
0
  0
BLOCK_RECORD
  5
201FC
330
7466
100
AcDbSymbolTableRecord
100
AcDbBlockTableRecord
  2
*D16
340
0
  0
BLOCK_RECORD
  5
20208
330
7466
100
AcDbSymbolTableRecord
100
AcDbBlockTableRecord
  2
*D17
340
0
  0
ENDTAB
  0
ENDSEC
  0
SECTION
  2
BLOCKS
  0
BLOCK
  5
7489
330
747D
100
AcDbEntity
  8
0
100
AcDbBlockBegin
  2
*MODEL_SPACE
 70
     0
 10
0.0
 20
0.0
 30
0.0
  3
*MODEL_SPACE
  1

  0
ENDBLK
  5
748A
330
747D
100
AcDbEntity
  8
0
100
AcDbBlockEnd
  0
BLOCK
  5
7487
330
747A
100
AcDbEntity
 67
     1
  8
0
100
AcDbBlockBegin
  2
*PAPER_SPACE
 70
     0
 10
0.0
 20
0.0
 30
0.0
  3
*PAPER_SPACE
  1

  0
ENDBLK
  5
7488
330
747A
100
AcDbEntity
 67
     1
  8
0
100
AcDbBlockEnd
  0
BLOCK
  5
F771
330
F770
100
AcDbEntity
  8
0
 48
50.0
100
AcDbBlockBegin
  2
_DOTSMALL
 70
     0
 10
0.0
 20
0.0
 30
0.0
  3
_DOTSMALL
  1

  0
LWPOLYLINE
  5
F772
330
F770
100
AcDbEntity
  8
0
  6
ByBlock
 62
     0
 48
50.0
100
AcDbPolyline
 90
        2
 70
     1
 43
0.5
 10
-0.0625
 20
0.0
 42
1.0
 10
0.0625
 20
0.0
 42
1.0
  0
ENDBLK
  5
F776
330
F770
100
AcDbEntity
  8
0
 48
50.0
100
AcDbBlockEnd
  0
BLOCK
  5
1C531
330
1C530
100
AcDbEntity
  8
0
 48
50.0
100
AcDbBlockBegin
  2
_NONE
 70
     0
 10
0.0
 20
0.0
 30
0.0
  3
_NONE
  1

  0
CIRCLE
  5
1C532
330
1C530
100
AcDbEntity
  8
0
  6
ByBlock
 62
     0
 48
50.0
100
AcDbCircle
 10
0.0
 20
0.0
 30
0.0
 40
0.25
  0
ENDBLK
  5
1C533
330
1C530
100
AcDbEntity
  8
0
 48
50.0
100
AcDbBlockEnd
  0
BLOCK
  5
1F76F
330
1F765
100
AcDbEntity
  8
0
 48
50.0
100
AcDbBlockBegin
  2
*D2
 70
     1
 10
0.0
 20
0.0
 30
0.0
  3
*D2
  1

  0
LINE
  5
1F915
330
1F765
100
AcDbEntity
  8
寸法
 62
     0
 48
50.0
370
    -2
100
AcDbLine
 10
9160.6
 20
6891.999999999995
 30
0.0
 11
9160.6
 21
7440.624237135961
 31
0.0
  0
LINE
  5
1F916
330
1F765
100
AcDbEntity
  8
寸法
 62
     0
 48
50.0
370
    -2
100
AcDbLine
 10
9959.600000000001
 20
6891.999999999999
 30
0.0
 11
9959.600000000001
 21
7440.624237135961
 31
0.0
  0
LINE
  5
1F917
330
1F765
100
AcDbEntity
  8
寸法
 62
     0
 48
50.0
370
    -2
100
AcDbLine
 10
9160.6
 20
7380.62423713596
 30
0.0
 11
9959.600000000001
 21
7380.62423713596
 31
0.0
  0
INSERT
  5
1F918
330
1F765
100
AcDbEntity
  8
寸法
 62
     0
 48
50.0
370
    -2
100
AcDbBlockReference
  2
_DOTSMALL
 10
9160.6
 20
7380.62423713596
 30
0.0
 41
100.0
 42
100.0
 43
100.0
 50
180.0
  0
INSERT
  5
1F919
330
1F765
100
AcDbEntity
  8
寸法
 62
     0
 48
50.0
370
    -2
100
AcDbBlockReference
  2
_DOTSMALL
 10
9959.600000000001
 20
7380.62423713596
 30
0.0
 41
100.0
 42
100.0
 43
100.0
  0
MTEXT
  5
1F91A
330
1F765
100
AcDbEntity
  8
寸法
 62
     7
 48
50.0
100
AcDbMText
 10
9560.1
 20
7480.62423713596
 30
0.0
 40
120.0
 41
0.0
 71
     5
 72
     1
  1
\A1;799
  7
STYLE1
 73
     1
 44
1.0
1001
ACAD
1000
MTEXTBEGIN
1070
    73
1070
     1
1070
    44
1040
1.0
1070
    74
1070
     0
1000
MTEXTEND
  0
POINT
  5
1F91B
330
1F765
100
AcDbEntity
  8
DEFPOINTS
 62
     0
 48
50.0
100
AcDbPoint
 10
9160.6
 20
6871.999999999994
 30
0.0
  0
POINT
  5
1F91C
330
1F765
100
AcDbEntity
  8
DEFPOINTS
 62
     0
 48
50.0
100
AcDbPoint
 10
9959.600000000001
 20
6871.999999999998
 30
0.0
  0
POINT
  5
1F91D
330
1F765
100
AcDbEntity
  8
DEFPOINTS
 62
     0
 48
50.0
100
AcDbPoint
 10
9959.600000000001
 20
7380.62423713596
 30
0.0
  0
ENDBLK
  5
1F770
330
1F765
100
AcDbEntity
  8
0
 48
50.0
100
AcDbBlockEnd
  0
BLOCK
  5
1F77B
330
1F771
100
AcDbEntity
  8
0
 48
50.0
100
AcDbBlockBegin
  2
*D3
 70
     1
 10
0.0
 20
0.0
 30
0.0
  3
*D3
  1

  0
LINE
  5
1F90C
330
1F771
100
AcDbEntity
  8
寸法
 62
     0
 48
50.0
370
    -2
100
AcDbLine
 10
7706.6
 20
6891.999999999999
 30
0.0
 11
7706.6
 21
7440.624237135961
 31
0.0
  0
LINE
  5
1F90D
330
1F771
100
AcDbEntity
  8
寸法
 62
     0
 48
50.0
370
    -2
100
AcDbLine
 10
6907.600000000001
 20
6891.999999999999
 30
0.0
 11
6907.600000000001
 21
7440.624237135961
 31
0.0
  0
LINE
  5
1F90E
330
1F771
100
AcDbEntity
  8
寸法
 62
     0
 48
50.0
370
    -2
100
AcDbLine
 10
7706.6
 20
7380.62423713596
 30
0.0
 11
6907.600000000001
 21
7380.62423713596
 31
0.0
  0
INSERT
  5
1F90F
330
1F771
100
AcDbEntity
  8
寸法
 62
     0
 48
50.0
370
    -2
100
AcDbBlockReference
  2
_DOTSMALL
 10
7706.6
 20
7380.62423713596
 30
0.0
 41
100.0
 42
100.0
 43
100.0
  0
INSERT
  5
1F910
330
1F771
100
AcDbEntity
  8
寸法
 62
     0
 48
50.0
370
    -2
100
AcDbBlockReference
  2
_DOTSMALL
 10
6907.600000000001
 20
7380.62423713596
 30
0.0
 41
100.0
 42
100.0
 43
100.0
 50
180.0
  0
MTEXT
  5
1F911
330
1F771
100
AcDbEntity
  8
寸法
 62
     7
 48
50.0
100
AcDbMText
 10
7307.100000000001
 20
7480.62423713596
 30
0.0
 40
120.0
 41
0.0
 71
     5
 72
     1
  1
\A1;799
  7
STYLE1
 73
     1
 44
1.0
1001
ACAD
1000
MTEXTBEGIN
1070
    73
1070
     1
1070
    44
1040
1.0
1070
    74
1070
     0
1000
MTEXTEND
  0
POINT
  5
1F912
330
1F771
100
AcDbEntity
  8
DEFPOINTS
 62
     0
 48
50.0
100
AcDbPoint
 10
7706.6
 20
6871.999999999998
 30
0.0
  0
POINT
  5
1F913
330
1F771
100
AcDbEntity
  8
DEFPOINTS
 62
     0
 48
50.0
100
AcDbPoint
 10
6907.600000000001
 20
6871.999999999998
 30
0.0
  0
POINT
  5
1F914
330
1F771
100
AcDbEntity
  8
DEFPOINTS
 62
     0
 48
50.0
100
AcDbPoint
 10
6907.600000000001
 20
7380.62423713596
 30
0.0
  0
ENDBLK
  5
1F77C
330
1F771
100
AcDbEntity
  8
0
 48
50.0
100
AcDbBlockEnd
  0
BLOCK
  5
1F787
330
1F77D
100
AcDbEntity
  8
0
 48
50.0
100
AcDbBlockBegin
  2
*D4
 70
     1
 10
0.0
 20
0.0
 30
0.0
  3
*D4
  1

  0
LINE
  5
1F903
330
1F77D
100
AcDbEntity
  8
寸法
 62
     0
 48
50.0
370
    -2
100
AcDbLine
 10
7706.6
 20
6891.999999999999
 30
0.0
 11
7706.6
 21
7440.624237135961
 31
0.0
  0
LINE
  5
1F904
330
1F77D
100
AcDbEntity
  8
寸法
 62
     0
 48
50.0
370
    -2
100
AcDbLine
 10
8433.6
 20
6891.999999999999
 30
0.0
 11
8433.6
 21
7440.624237135961
 31
0.0
  0
LINE
  5
1F905
330
1F77D
100
AcDbEntity
  8
寸法
 62
     0
 48
50.0
370
    -2
100
AcDbLine
 10
7706.6
 20
7380.62423713596
 30
0.0
 11
8433.6
 21
7380.62423713596
 31
0.0
  0
INSERT
  5
1F906
330
1F77D
100
AcDbEntity
  8
寸法
 62
     0
 48
50.0
370
    -2
100
AcDbBlockReference
  2
_DOTSMALL
 10
7706.6
 20
7380.62423713596
 30
0.0
 41
100.0
 42
100.0
 43
100.0
 50
180.0
  0
INSERT
  5
1F907
330
1F77D
100
AcDbEntity
  8
寸法
 62
     0
 48
50.0
370
    -2
100
AcDbBlockReference
  2
_DOTSMALL
 10
8433.6
 20
7380.62423713596
 30
0.0
 41
100.0
 42
100.0
 43
100.0
  0
MTEXT
  5
1F908
330
1F77D
100
AcDbEntity
  8
寸法
 62
     7
 48
50.0
100
AcDbMText
 10
8070.100000000001
 20
7480.636048159581
 30
0.0
 40
120.0
 41
0.0
 71
     5
 72
     1
  1
\A1;727
  7
STYLE1
 73
     1
 44
1.0
1001
ACAD
1000
MTEXTBEGIN
1070
    73
1070
     1
1070
    44
1040
1.0
1070
    74
1070
     0
1000
MTEXTEND
  0
POINT
  5
1F909
330
1F77D
100
AcDbEntity
  8
DEFPOINTS
 62
     0
 48
50.0
100
AcDbPoint
 10
7706.6
 20
6871.999999999998
 30
0.0
  0
POINT
  5
1F90A
330
1F77D
100
AcDbEntity
  8
DEFPOINTS
 62
     0
 48
50.0
100
AcDbPoint
 10
8433.6
 20
6871.999999999998
 30
0.0
  0
POINT
  5
1F90B
330
1F77D
100
AcDbEntity
  8
DEFPOINTS
 62
     0
 48
50.0
100
AcDbPoint
 10
8433.6
 20
7380.62423713596
 30
0.0
  0
ENDBLK
  5
1F788
330
1F77D
100
AcDbEntity
  8
0
 48
50.0
100
AcDbBlockEnd
  0
BLOCK
  5
1F795
330
1F789
100
AcDbEntity
  8
0
 48
50.0
100
AcDbBlockBegin
  2
*D5
 70
     1
 10
0.0
 20
0.0
 30
0.0
  3
*D5
  1

  0
LINE
  5
1F8F8
330
1F789
100
AcDbEntity
  8
寸法
 62
     0
 48
50.0
370
    -2
100
AcDbLine
 10
9959.600000000001
 20
6891.999999999999
 30
0.0
 11
9959.600000000001
 21
7698.55162580202
 31
0.0
  0
LINE
  5
1F8F9
330
1F789
100
AcDbEntity
  8
寸法
 62
     0
 48
50.0
370
    -2
100
AcDbLine
 10
10009.6
 20
6972.000000000001
 30
0.0
 11
10009.6
 21
7698.55162580202
 31
0.0
  0
LINE
  5
1F8FA
330
1F789
100
AcDbEntity
  8
寸法
 62
     0
 48
50.0
370
    -2
100
AcDbLine
 10
9959.600000000001
 20
7638.55162580202
 30
0.0
 11
9859.6
 21
7638.55162580202
 31
0.0
  0
LINE
  5
1F8FB
330
1F789
100
AcDbEntity
  8
寸法
 62
     0
 48
50.0
370
    -2
100
AcDbLine
 10
10009.6
 20
7638.55162580202
 30
0.0
 11
10109.6
 21
7638.55162580202
 31
0.0
  0
LINE
  5
1F8FC
330
1F789
100
AcDbEntity
  8
寸法
 62
     0
 48
50.0
370
    -2
100
AcDbLine
 10
9959.600000000001
 20
7638.55162580202
 30
0.0
 11
10009.6
 21
7638.55162580202
 31
0.0
  0
INSERT
  5
1F8FD
330
1F789
100
AcDbEntity
  8
寸法
 62
     0
 48
50.0
370
    -2
100
AcDbBlockReference
  2
_DOTSMALL
 10
9959.600000000001
 20
7638.55162580202
 30
0.0
 41
100.0
 42
100.0
 43
100.0
  0
INSERT
  5
1F8FE
330
1F789
100
AcDbEntity
  8
寸法
 62
     0
 48
50.0
370
    -2
100
AcDbBlockReference
  2
_DOTSMALL
 10
10009.6
 20
7638.55162580202
 30
0.0
 41
100.0
 42
100.0
 43
100.0
 50
180.0
  0
MTEXT
  5
1F8FF
330
1F789
100
AcDbEntity
  8
寸法
 62
     7
 48
50.0
100
AcDbMText
 10
9984.6
 20
7738.551625802021
 30
0.0
 40
120.0
 41
0.0
 71
     5
 72
     1
  1
\A1;a
  7
STYLE1
 73
     1
 44
1.0
1001
ACAD
1000
MTEXTBEGIN
1070
    73
1070
     1
1070
    44
1040
1.0
1070
    74
1070
     0
1000
MTEXTEND
  0
POINT
  5
1F900
330
1F789
100
AcDbEntity
  8
DEFPOINTS
 62
     0
 48
50.0
100
AcDbPoint
 10
9959.600000000001
 20
6871.999999999998
 30
0.0
  0
POINT
  5
1F901
330
1F789
100
AcDbEntity
  8
DEFPOINTS
 62
     0
 48
50.0
100
AcDbPoint
 10
10009.6
 20
6952.000000000002
 30
0.0
  0
POINT
  5
1F902
330
1F789
100
AcDbEntity
  8
DEFPOINTS
 62
     0
 48
50.0
100
AcDbPoint
 10
10009.6
 20
7638.55162580202
 30
0.0
  0
ENDBLK
  5
1F796
330
1F789
100
AcDbEntity
  8
0
 48
50.0
100
AcDbBlockEnd
  0
BLOCK
  5
1F7A3
330
1F797
100
AcDbEntity
  8
0
 48
50.0
100
AcDbBlockBegin
  2
*D6
 70
     1
 10
0.0
 20
0.0
 30
0.0
  3
*D6
  1

  0
LINE
  5
1F8ED
330
1F797
100
AcDbEntity
  8
寸法
 62
     0
 48
50.0
370
    -2
100
AcDbLine
 10
6857.600000000001
 20
6971.999999999998
 30
0.0
 11
6857.600000000001
 21
7698.55162580202
 31
0.0
  0
LINE
  5
1F8EE
330
1F797
100
AcDbEntity
  8
寸法
 62
     0
 48
50.0
370
    -2
100
AcDbLine
 10
6907.600000000001
 20
6891.999999999999
 30
0.0
 11
6907.600000000001
 21
7698.55162580202
 31
0.0
  0
LINE
  5
1F8EF
330
1F797
100
AcDbEntity
  8
寸法
 62
     0
 48
50.0
370
    -2
100
AcDbLine
 10
6857.600000000001
 20
7638.55162580202
 30
0.0
 11
6757.6
 21
7638.55162580202
 31
0.0
  0
LINE
  5
1F8F0
330
1F797
100
AcDbEntity
  8
寸法
 62
     0
 48
50.0
370
    -2
100
AcDbLine
 10
6907.600000000001
 20
7638.55162580202
 30
0.0
 11
7007.6
 21
7638.55162580202
 31
0.0
  0
LINE
  5
1F8F1
330
1F797
100
AcDbEntity
  8
寸法
 62
     0
 48
50.0
370
    -2
100
AcDbLine
 10
6857.600000000001
 20
7638.55162580202
 30
0.0
 11
6907.600000000001
 21
7638.55162580202
 31
0.0
  0
INSERT
  5
1F8F2
330
1F797
100
AcDbEntity
  8
寸法
 62
     0
 48
50.0
370
    -2
100
AcDbBlockReference
  2
_DOTSMALL
 10
6857.600000000001
 20
7638.55162580202
 30
0.0
 41
100.0
 42
100.0
 43
100.0
  0
INSERT
  5
1F8F3
330
1F797
100
AcDbEntity
  8
寸法
 62
     0
 48
50.0
370
    -2
100
AcDbBlockReference
  2
_DOTSMALL
 10
6907.600000000001
 20
7638.55162580202
 30
0.0
 41
100.0
 42
100.0
 43
100.0
 50
180.0
  0
MTEXT
  5
1F8F4
330
1F797
100
AcDbEntity
  8
寸法
 62
     7
 48
50.0
100
AcDbMText
 10
6882.6
 20
7738.551625802021
 30
0.0
 40
120.0
 41
0.0
 71
     5
 72
     1
  1
\A1;a
  7
STYLE1
 73
     1
 44
1.0
1001
ACAD
1000
MTEXTBEGIN
1070
    73
1070
     1
1070
    44
1040
1.0
1070
    74
1070
     0
1000
MTEXTEND
  0
POINT
  5
1F8F5
330
1F797
100
AcDbEntity
  8
DEFPOINTS
 62
     0
 48
50.0
100
AcDbPoint
 10
6857.600000000001
 20
6951.999999999998
 30
0.0
  0
POINT
  5
1F8F6
330
1F797
100
AcDbEntity
  8
DEFPOINTS
 62
     0
 48
50.0
100
AcDbPoint
 10
6907.600000000001
 20
6871.999999999998
 30
0.0
  0
POINT
  5
1F8F7
330
1F797
100
AcDbEntity
  8
DEFPOINTS
 62
     0
 48
50.0
100
AcDbPoint
 10
6907.600000000001
 20
7638.55162580202
 30
0.0
  0
ENDBLK
  5
1F7A4
330
1F797
100
AcDbEntity
  8
0
 48
50.0
100
AcDbBlockEnd
  0
BLOCK
  5
1F7AF
330
1F7A5
100
AcDbEntity
  8
0
 48
50.0
100
AcDbBlockBegin
  2
*D7
 70
     1
 10
0.0
 20
0.0
 30
0.0
  3
*D7
  1

  0
LINE
  5
1F8E4
330
1F7A5
100
AcDbEntity
  8
寸法
 62
     0
 48
50.0
370
    -2
100
AcDbLine
 10
6837.600000000001
 20
6951.999999999998
 30
0.0
 11
6406.88811655075
 21
6951.999999999998
 31
0.0
  0
LINE
  5
1F8E5
330
1F7A5
100
AcDbEntity
  8
寸法
 62
     0
 48
50.0
370
    -2
100
AcDbLine
 10
6887.6
 20
6871.999999999998
 30
0.0
 11
6406.88811655075
 21
6871.999999999998
 31
0.0
  0
LINE
  5
1F8E6
330
1F7A5
100
AcDbEntity
  8
寸法
 62
     0
 48
50.0
370
    -2
100
AcDbLine
 10
6466.888116550752
 20
6951.999999999998
 30
0.0
 11
6466.888116550752
 21
6871.999999999998
 31
0.0
  0
INSERT
  5
1F8E7
330
1F7A5
100
AcDbEntity
  8
寸法
 62
     0
 48
50.0
370
    -2
100
AcDbBlockReference
  2
_DOTSMALL
 10
6466.888116550752
 20
6951.999999999998
 30
0.0
 41
100.0
 42
100.0
 43
100.0
 50
90.0
  0
INSERT
  5
1F8E8
330
1F7A5
100
AcDbEntity
  8
寸法
 62
     0
 48
50.0
370
    -2
100
AcDbBlockReference
  2
_DOTSMALL
 10
6466.888116550752
 20
6871.999999999998
 30
0.0
 41
100.0
 42
100.0
 43
100.0
 50
270.0
  0
MTEXT
  5
1F8E9
330
1F7A5
100
AcDbEntity
  8
寸法
 62
     7
 48
50.0
100
AcDbMText
 10
6366.888116550749
 20
6912.0
 30
0.0
 40
120.0
 41
0.0
 71
     5
 72
     1
  1
\A1;c
  7
STYLE1
 11
0.0000000000000001
 21
1.0
 31
0.0
 73
     1
 44
1.0
1001
ACAD
1000
MTEXTBEGIN
1070
    73
1070
     1
1070
    44
1040
1.0
1070
    74
1070
     0
1000
MTEXTEND
  0
POINT
  5
1F8EA
330
1F7A5
100
AcDbEntity
  8
DEFPOINTS
 62
     0
 48
50.0
100
AcDbPoint
 10
6857.600000000001
 20
6951.999999999998
 30
0.0
  0
POINT
  5
1F8EB
330
1F7A5
100
AcDbEntity
  8
DEFPOINTS
 62
     0
 48
50.0
100
AcDbPoint
 10
6907.600000000001
 20
6871.999999999998
 30
0.0
  0
POINT
  5
1F8EC
330
1F7A5
100
AcDbEntity
  8
DEFPOINTS
 62
     0
 48
50.0
100
AcDbPoint
 10
6466.888116550752
 20
6871.999999999998
 30
0.0
  0
ENDBLK
  5
1F7B0
330
1F7A5
100
AcDbEntity
  8
0
 48
50.0
100
AcDbBlockEnd
  0
BLOCK
  5
1F7BB
330
1F7B1
100
AcDbEntity
  8
0
 48
50.0
100
AcDbBlockBegin
  2
*D8
 70
     1
 10
0.0
 20
0.0
 30
0.0
  3
*D8
  1

  0
LINE
  5
1FD56
330
1F7B1
100
AcDbEntity
  8
寸法
 62
     0
 48
50.0
370
    -2
100
AcDbLine
 10
6887.6
 20
6871.999999999998
 30
0.0
 11
6406.888116550752
 21
6871.999999999998
 31
0.0
  0
LINE
  5
1FD57
330
1F7B1
100
AcDbEntity
  8
寸法
 62
     0
 48
50.0
370
    -2
100
AcDbLine
 10
6887.599999999984
 20
5079.999999999998
 30
0.0
 11
6406.88811655075
 21
5079.999999999998
 31
0.0
  0
LINE
  5
1FD58
330
1F7B1
100
AcDbEntity
  8
寸法
 62
     0
 48
50.0
370
    -2
100
AcDbLine
 10
6466.888116550752
 20
6871.999999999998
 30
0.0
 11
6466.888116550752
 21
5079.999999999998
 31
0.0
  0
INSERT
  5
1FD59
330
1F7B1
100
AcDbEntity
  8
寸法
 62
     0
 48
50.0
370
    -2
100
AcDbBlockReference
  2
_DOTSMALL
 10
6466.888116550752
 20
6871.999999999998
 30
0.0
 41
100.0
 42
100.0
 43
100.0
 50
90.0
  0
INSERT
  5
1FD5A
330
1F7B1
100
AcDbEntity
  8
寸法
 62
     0
 48
50.0
370
    -2
100
AcDbBlockReference
  2
_DOTSMALL
 10
6466.888116550752
 20
5079.999999999998
 30
0.0
 41
100.0
 42
100.0
 43
100.0
 50
270.0
  0
MTEXT
  5
1FD5B
330
1F7B1
100
AcDbEntity
  8
寸法
 62
     7
 48
50.0
100
AcDbMText
 10
6366.847303985946
 20
5975.999999999999
 30
0.0
 40
120.0
 41
0.0
 71
     5
 72
     1
  1
\A1;1792
  7
STYLE1
 11
0.0000000000000001
 21
1.0
 31
0.0
 73
     1
 44
1.0
1001
ACAD
1000
MTEXTBEGIN
1070
    73
1070
     1
1070
    44
1040
1.0
1070
    74
1070
     0
1000
MTEXTEND
  0
POINT
  5
1FD5C
330
1F7B1
100
AcDbEntity
  8
DEFPOINTS
 62
     0
 48
50.0
100
AcDbPoint
 10
6907.600000000001
 20
6871.999999999998
 30
0.0
  0
POINT
  5
1FD5D
330
1F7B1
100
AcDbEntity
  8
DEFPOINTS
 62
     0
 48
50.0
100
AcDbPoint
 10
6907.599999999984
 20
5079.999999999998
 30
0.0
  0
POINT
  5
1FD5E
330
1F7B1
100
AcDbEntity
  8
DEFPOINTS
 62
     0
 48
50.0
100
AcDbPoint
 10
6466.888116550752
 20
5079.999999999998
 30
0.0
  0
ENDBLK
  5
1F7BC
330
1F7B1
100
AcDbEntity
  8
0
 48
50.0
100
AcDbBlockEnd
  0
BLOCK
  5
1F7C9
330
1F7BD
100
AcDbEntity
  8
0
 48
50.0
100
AcDbBlockBegin
  2
*D9
 70
     1
 10
0.0
 20
0.0
 30
0.0
  3
*D9
  1

  0
LINE
  5
1FCDE
330
1F7BD
100
AcDbEntity
  8
寸法
 62
     0
 48
50.0
370
    -2
100
AcDbLine
 10
6887.599999999984
 20
5079.999999999998
 30
0.0
 11
6406.888116550733
 21
5079.999999999998
 31
0.0
  0
LINE
  5
1FCDF
330
1F7BD
100
AcDbEntity
  8
寸法
 62
     0
 48
50.0
370
    -2
100
AcDbLine
 10
6837.599999999985
 20
5019.999999999998
 30
0.0
 11
6406.888116550733
 21
5019.999999999998
 31
0.0
  0
LINE
  5
1FCE0
330
1F7BD
100
AcDbEntity
  8
寸法
 62
     0
 48
50.0
370
    -2
100
AcDbLine
 10
6466.888116550734
 20
5079.999999999998
 30
0.0
 11
6466.888116550734
 21
5179.999999999998
 31
0.0
  0
LINE
  5
1FCE1
330
1F7BD
100
AcDbEntity
  8
寸法
 62
     0
 48
50.0
370
    -2
100
AcDbLine
 10
6466.888116550734
 20
5019.999999999998
 30
0.0
 11
6466.888116550734
 21
4919.999999999998
 31
0.0
  0
LINE
  5
1FCE2
330
1F7BD
100
AcDbEntity
  8
寸法
 62
     0
 48
50.0
370
    -2
100
AcDbLine
 10
6466.888116550734
 20
5079.999999999998
 30
0.0
 11
6466.888116550734
 21
5019.999999999998
 31
0.0
  0
INSERT
  5
1FCE3
330
1F7BD
100
AcDbEntity
  8
寸法
 62
     0
 48
50.0
370
    -2
100
AcDbBlockReference
  2
_DOTSMALL
 10
6466.888116550734
 20
5079.999999999998
 30
0.0
 41
100.0
 42
100.0
 43
100.0
 50
270.0
  0
INSERT
  5
1FCE4
330
1F7BD
100
AcDbEntity
  8
寸法
 62
     0
 48
50.0
370
    -2
100
AcDbBlockReference
  2
_DOTSMALL
 10
6466.888116550734
 20
5019.999999999998
 30
0.0
 41
100.0
 42
100.0
 43
100.0
 50
90.0
  0
MTEXT
  5
1FCE5
330
1F7BD
100
AcDbEntity
  8
寸法
 62
     7
 48
50.0
100
AcDbMText
 10
6366.888116550732
 20
5050.0
 30
0.0
 40
120.0
 41
0.0
 71
     5
 72
     1
  1
\A1;b
  7
STYLE1
 11
0.0000000000000001
 21
1.0
 31
0.0
 73
     1
 44
1.0
1001
ACAD
1000
MTEXTBEGIN
1070
    73
1070
     1
1070
    44
1040
1.0
1070
    74
1070
     0
1000
MTEXTEND
  0
POINT
  5
1FCE6
330
1F7BD
100
AcDbEntity
  8
DEFPOINTS
 62
     0
 48
50.0
100
AcDbPoint
 10
6907.599999999984
 20
5079.999999999998
 30
0.0
  0
POINT
  5
1FCE7
330
1F7BD
100
AcDbEntity
  8
DEFPOINTS
 62
     0
 48
50.0
100
AcDbPoint
 10
6857.599999999983
 20
5019.999999999998
 30
0.0
  0
POINT
  5
1FCE8
330
1F7BD
100
AcDbEntity
  8
DEFPOINTS
 62
     0
 48
50.0
100
AcDbPoint
 10
6466.888116550734
 20
5019.999999999998
 30
0.0
  0
ENDBLK
  5
1F7CA
330
1F7BD
100
AcDbEntity
  8
0
 48
50.0
100
AcDbBlockEnd
  0
BLOCK
  5
1F7D5
330
1F7CB
100
AcDbEntity
  8
0
 48
50.0
100
AcDbBlockBegin
  2
*D10
 70
     1
 10
0.0
 20
0.0
 30
0.0
  3
*D10
  1

  0
LINE
  5
1F8C7
330
1F7CB
100
AcDbEntity
  8
寸法
 62
     0
 48
50.0
370
    -2
100
AcDbLine
 10
6907.600000000001
 20
6891.999999999999
 30
0.0
 11
6907.600000000001
 21
7698.55162580202
 31
0.0
  0
LINE
  5
1F8C8
330
1F7CB
100
AcDbEntity
  8
寸法
 62
     0
 48
50.0
370
    -2
100
AcDbLine
 10
9959.600000000001
 20
6891.999999999999
 30
0.0
 11
9959.600000000001
 21
7698.55162580202
 31
0.0
  0
LINE
  5
1F8C9
330
1F7CB
100
AcDbEntity
  8
寸法
 62
     0
 48
50.0
370
    -2
100
AcDbLine
 10
6907.600000000001
 20
7638.55162580202
 30
0.0
 11
9959.600000000001
 21
7638.55162580202
 31
0.0
  0
INSERT
  5
1F8CA
330
1F7CB
100
AcDbEntity
  8
寸法
 62
     0
 48
50.0
370
    -2
100
AcDbBlockReference
  2
_DOTSMALL
 10
6907.600000000001
 20
7638.55162580202
 30
0.0
 41
100.0
 42
100.0
 43
100.0
 50
180.0
  0
INSERT
  5
1F8CB
330
1F7CB
100
AcDbEntity
  8
寸法
 62
     0
 48
50.0
370
    -2
100
AcDbBlockReference
  2
_DOTSMALL
 10
9959.600000000001
 20
7638.55162580202
 30
0.0
 41
100.0
 42
100.0
 43
100.0
  0
MTEXT
  5
1F8CC
330
1F7CB
100
AcDbEntity
  8
寸法
 62
     7
 48
50.0
100
AcDbMText
 10
8433.6
 20
7738.563436825642
 30
0.0
 40
120.0
 41
0.0
 71
     5
 72
     1
  1
\A1;3052
  7
STYLE1
 73
     1
 44
1.0
1001
ACAD
1000
MTEXTBEGIN
1070
    73
1070
     1
1070
    44
1040
1.0
1070
    74
1070
     0
1000
MTEXTEND
  0
POINT
  5
1F8CD
330
1F7CB
100
AcDbEntity
  8
DEFPOINTS
 62
     0
 48
50.0
100
AcDbPoint
 10
6907.600000000001
 20
6871.999999999998
 30
0.0
  0
POINT
  5
1F8CE
330
1F7CB
100
AcDbEntity
  8
DEFPOINTS
 62
     0
 48
50.0
100
AcDbPoint
 10
9959.600000000001
 20
6871.999999999998
 30
0.0
  0
POINT
  5
1F8CF
330
1F7CB
100
AcDbEntity
  8
DEFPOINTS
 62
     0
 48
50.0
100
AcDbPoint
 10
9959.600000000001
 20
7638.55162580202
 30
0.0
  0
ENDBLK
  5
1F7D6
330
1F7CB
100
AcDbEntity
  8
0
 48
50.0
100
AcDbBlockEnd
  0
BLOCK
  5
1F7E1
330
1F7D7
100
AcDbEntity
  8
0
 48
50.0
100
AcDbBlockBegin
  2
*D11
 70
     1
 10
0.0
 20
0.0
 30
0.0
  3
*D11
  1

  0
LINE
  5
1F930
330
1F7D7
100
AcDbEntity
  8
寸法
 62
     0
 48
50.0
370
    -2
100
AcDbLine
 10
8433.6
 20
6891.999999999999
 30
0.0
 11
8433.6
 21
7440.624237135961
 31
0.0
  0
LINE
  5
1F931
330
1F7D7
100
AcDbEntity
  8
寸法
 62
     0
 48
50.0
370
    -2
100
AcDbLine
 10
9160.6
 20
6891.999999999995
 30
0.0
 11
9160.6
 21
7440.624237135961
 31
0.0
  0
LINE
  5
1F932
330
1F7D7
100
AcDbEntity
  8
寸法
 62
     0
 48
50.0
370
    -2
100
AcDbLine
 10
8433.6
 20
7380.62423713596
 30
0.0
 11
9160.6
 21
7380.62423713596
 31
0.0
  0
INSERT
  5
1F933
330
1F7D7
100
AcDbEntity
  8
寸法
 62
     0
 48
50.0
370
    -2
100
AcDbBlockReference
  2
_DOTSMALL
 10
8433.6
 20
7380.62423713596
 30
0.0
 41
100.0
 42
100.0
 43
100.0
 50
180.0
  0
INSERT
  5
1F934
330
1F7D7
100
AcDbEntity
  8
寸法
 62
     0
 48
50.0
370
    -2
100
AcDbBlockReference
  2
_DOTSMALL
 10
9160.6
 20
7380.62423713596
 30
0.0
 41
100.0
 42
100.0
 43
100.0
  0
MTEXT
  5
1F935
330
1F7D7
100
AcDbEntity
  8
寸法
 62
     7
 48
50.0
100
AcDbMText
 10
8797.1
 20
7480.636048159581
 30
0.0
 40
120.0
 41
0.0
 71
     5
 72
     1
  1
\A1;727
  7
STYLE1
 73
     1
 44
1.0
1001
ACAD
1000
MTEXTBEGIN
1070
    73
1070
     1
1070
    44
1040
1.0
1070
    74
1070
     0
1000
MTEXTEND
  0
POINT
  5
1F936
330
1F7D7
100
AcDbEntity
  8
DEFPOINTS
 62
     0
 48
50.0
100
AcDbPoint
 10
8433.6
 20
6871.999999999998
 30
0.0
  0
POINT
  5
1F937
330
1F7D7
100
AcDbEntity
  8
DEFPOINTS
 62
     0
 48
50.0
100
AcDbPoint
 10
9160.6
 20
6871.999999999994
 30
0.0
  0
POINT
  5
1F938
330
1F7D7
100
AcDbEntity
  8
DEFPOINTS
 62
     0
 48
50.0
100
AcDbPoint
 10
9160.6
 20
7380.62423713596
 30
0.0
  0
ENDBLK
  5
1F7E2
330
1F7D7
100
AcDbEntity
  8
0
 48
50.0
100
AcDbBlockEnd
  0
BLOCK
  5
1F997
330
1F98D
100
AcDbEntity
  8
0
 48
50.0
100
AcDbBlockBegin
  2
*D12
 70
     1
 10
0.0
 20
0.0
 30
0.0
  3
*D12
  1

  0
LINE
  5
1FCD5
330
1F98D
100
AcDbEntity
  8
寸法
 62
     0
 48
50.0
370
    -2
100
AcDbLine
 10
10079.59999999998
 20
5179.999999999997
 30
0.0
 11
10408.66514751619
 21
5179.999999999996
 31
0.0
  0
LINE
  5
1FCD6
330
1F98D
100
AcDbEntity
  8
寸法
 62
     0
 48
50.0
370
    -2
100
AcDbLine
 10
10079.59999999998
 20
4979.999999999997
 30
0.0
 11
10408.66514751619
 21
4979.999999999996
 31
0.0
  0
LINE
  5
1FCD7
330
1F98D
100
AcDbEntity
  8
寸法
 62
     0
 48
50.0
370
    -2
100
AcDbLine
 10
10348.66514751619
 20
5179.999999999996
 30
0.0
 11
10348.66514751619
 21
4979.999999999996
 31
0.0
  0
INSERT
  5
1FCD8
330
1F98D
100
AcDbEntity
  8
寸法
 62
     0
 48
50.0
370
    -2
100
AcDbBlockReference
  2
_DOTSMALL
 10
10348.66514751619
 20
5179.999999999996
 30
0.0
 41
100.0
 42
100.0
 43
100.0
 50
90.0
  0
INSERT
  5
1FCD9
330
1F98D
100
AcDbEntity
  8
寸法
 62
     0
 48
50.0
370
    -2
100
AcDbBlockReference
  2
_DOTSMALL
 10
10348.66514751619
 20
4979.999999999996
 30
0.0
 41
100.0
 42
100.0
 43
100.0
 50
270.0
  0
MTEXT
  5
1FCDA
330
1F98D
100
AcDbEntity
  8
寸法
 62
     7
 48
50.0
100
AcDbMText
 10
10248.65333649257
 20
5079.999999999998
 30
0.0
 40
120.0
 41
0.0
 71
     5
 72
     1
  1
\A1;200
  7
STYLE1
 11
0.0000000000000001
 21
1.0
 31
0.0
 73
     1
 44
1.0
1001
ACAD
1000
MTEXTBEGIN
1070
    73
1070
     1
1070
    44
1040
1.0
1070
    74
1070
     0
1000
MTEXTEND
  0
POINT
  5
1FCDB
330
1F98D
100
AcDbEntity
  8
DEFPOINTS
 62
     0
 48
50.0
100
AcDbPoint
 10
10059.59999999998
 20
5179.999999999997
 30
0.0
  0
POINT
  5
1FCDC
330
1F98D
100
AcDbEntity
  8
DEFPOINTS
 62
     0
 48
50.0
100
AcDbPoint
 10
10059.59999999998
 20
4979.999999999997
 30
0.0
  0
POINT
  5
1FCDD
330
1F98D
100
AcDbEntity
  8
DEFPOINTS
 62
     0
 48
50.0
100
AcDbPoint
 10
10348.66514751619
 20
4979.999999999996
 30
0.0
  0
ENDBLK
  5
1F998
330
1F98D
100
AcDbEntity
  8
0
 48
50.0
100
AcDbBlockEnd
  0
BLOCK
  5
1F9A3
330
1F999
100
AcDbEntity
  8
0
 48
50.0
100
AcDbBlockBegin
  2
*D13
 70
     1
 10
0.0
 20
0.0
 30
0.0
  3
*D13
  1

  0
LINE
  5
1FCCC
330
1F999
100
AcDbEntity
  8
寸法
 62
     0
 48
50.0
370
    -2
100
AcDbLine
 10
10059.59999999998
 20
4959.999999999997
 30
0.0
 11
10059.59999999998
 21
4666.674515054533
 31
0.0
  0
LINE
  5
1FCCD
330
1F999
100
AcDbEntity
  8
寸法
 62
     0
 48
50.0
370
    -2
100
AcDbLine
 10
9859.599999999986
 20
4959.999999999997
 30
0.0
 11
9859.599999999986
 21
4666.674515054533
 31
0.0
  0
LINE
  5
1FCCE
330
1F999
100
AcDbEntity
  8
寸法
 62
     0
 48
50.0
370
    -2
100
AcDbLine
 10
10059.59999999998
 20
4726.674515054534
 30
0.0
 11
9859.599999999986
 21
4726.674515054534
 31
0.0
  0
INSERT
  5
1FCCF
330
1F999
100
AcDbEntity
  8
寸法
 62
     0
 48
50.0
370
    -2
100
AcDbBlockReference
  2
_DOTSMALL
 10
10059.59999999998
 20
4726.674515054534
 30
0.0
 41
100.0
 42
100.0
 43
100.0
  0
INSERT
  5
1FCD0
330
1F999
100
AcDbEntity
  8
寸法
 62
     0
 48
50.0
370
    -2
100
AcDbBlockReference
  2
_DOTSMALL
 10
9859.599999999986
 20
4726.674515054534
 30
0.0
 41
100.0
 42
100.0
 43
100.0
 50
180.0
  0
MTEXT
  5
1FCD1
330
1F999
100
AcDbEntity
  8
寸法
 62
     7
 48
50.0
100
AcDbMText
 10
9959.599999999985
 20
4826.686326078156
 30
0.0
 40
120.0
 41
0.0
 71
     5
 72
     1
  1
\A1;200
  7
STYLE1
 73
     1
 44
1.0
1001
ACAD
1000
MTEXTBEGIN
1070
    73
1070
     1
1070
    44
1040
1.0
1070
    74
1070
     0
1000
MTEXTEND
  0
POINT
  5
1FCD2
330
1F999
100
AcDbEntity
  8
DEFPOINTS
 62
     0
 48
50.0
100
AcDbPoint
 10
10059.59999999998
 20
4979.999999999997
 30
0.0
  0
POINT
  5
1FCD3
330
1F999
100
AcDbEntity
  8
DEFPOINTS
 62
     0
 48
50.0
100
AcDbPoint
 10
9859.599999999986
 20
4979.999999999997
 30
0.0
  0
POINT
  5
1FCD4
330
1F999
100
AcDbEntity
  8
DEFPOINTS
 62
     0
 48
50.0
100
AcDbPoint
 10
9859.599999999986
 20
4726.674515054534
 30
0.0
  0
ENDBLK
  5
1F9A4
330
1F999
100
AcDbEntity
  8
0
 48
50.0
100
AcDbBlockEnd
  0
BLOCK
  5
201EE
330
201E4
100
AcDbEntity
  8
0
 48
50.0
100
AcDbBlockBegin
  2
*D14
 70
     1
 10
0.0
 20
0.0
 30
0.0
  3
*D14
  1

  0
LINE
  5
20253
330
201E4
100
AcDbEntity
  8
寸法
 62
     0
 48
50.0
370
    -2
100
AcDbLine
 10
5444.640890901363
 20
1355.820360971036
 30
0.0
 11
5311.311143825832
 21
1355.820360971036
 31
0.0
  0
LINE
  5
20254
330
201E4
100
AcDbEntity
  8
寸法
 62
     0
 48
50.0
370
    -2
100
AcDbLine
 10
5594.640890901363
 20
955.8203609710362
 30
0.0
 11
5311.311143825832
 21
955.8203609710364
 31
0.0
  0
LINE
  5
20255
330
201E4
100
AcDbEntity
  8
寸法
 62
     0
 48
50.0
370
    -2
100
AcDbLine
 10
5371.311143825833
 20
1355.820360971036
 30
0.0
 11
5371.311143825833
 21
955.8203609710364
 31
0.0
  0
INSERT
  5
20256
330
201E4
100
AcDbEntity
  8
寸法
 62
     0
 48
50.0
370
    -2
100
AcDbBlockReference
  2
_DOTSMALL
 10
5371.311143825833
 20
1355.820360971036
 30
0.0
 41
100.0
 42
100.0
 43
100.0
 50
90.0
  0
INSERT
  5
20257
330
201E4
100
AcDbEntity
  8
寸法
 62
     0
 48
50.0
370
    -2
100
AcDbBlockReference
  2
_DOTSMALL
 10
5371.311143825833
 20
955.8203609710364
 30
0.0
 41
100.0
 42
100.0
 43
100.0
 50
270.0
  0
MTEXT
  5
20258
330
201E4
100
AcDbEntity
  8
寸法
 62
     7
 48
50.0
100
AcDbMText
 10
5271.299332802211
 20
1143.444994086942
 30
0.0
 40
120.0
 41
0.0
 71
     5
 72
     1
  1
\A1;200
  7
STYLE1
 11
0.0000000000000001
 21
1.0
 31
0.0
 73
     1
 44
1.0
1001
ACAD
1000
MTEXTBEGIN
1070
    73
1070
     1
1070
    44
1040
1.0
1070
    74
1070
     0
1000
MTEXTEND
  0
POINT
  5
20259
330
201E4
100
AcDbEntity
  8
DEFPOINTS
 62
     0
 48
50.0
100
AcDbPoint
 10
5464.640890901363
 20
1355.820360971036
 30
0.0
  0
POINT
  5
2025A
330
201E4
100
AcDbEntity
  8
DEFPOINTS
 62
     0
 48
50.0
100
AcDbPoint
 10
5614.640890901362
 20
955.8203609710362
 30
0.0
  0
POINT
  5
2025B
330
201E4
100
AcDbEntity
  8
DEFPOINTS
 62
     0
 48
50.0
100
AcDbPoint
 10
5371.311143825833
 20
955.8203609710364
 30
0.0
  0
ENDBLK
  5
201EF
330
201E4
100
AcDbEntity
  8
0
 48
50.0
100
AcDbBlockEnd
  0
BLOCK
  5
201FA
330
201F0
100
AcDbEntity
  8
0
 48
50.0
100
AcDbBlockBegin
  2
*D15
 70
     1
 10
0.0
 20
0.0
 30
0.0
  3
*D15
  1

  0
LINE
  5
2024A
330
201F0
100
AcDbEntity
  8
寸法
 62
     0
 48
50.0
370
    -2
100
AcDbLine
 10
7498.247155019972
 20
1555.820360971038
 30
0.0
 11
7760.460402482872
 21
1555.820360971038
 31
0.0
  0
LINE
  5
2024B
330
201F0
100
AcDbEntity
  8
寸法
 62
     0
 48
50.0
370
    -2
100
AcDbLine
 10
7517.696391914462
 20
1355.820360971036
 30
0.0
 11
7760.460402482872
 21
1355.820360971036
 31
0.0
  0
LINE
  5
2024C
330
201F0
100
AcDbEntity
  8
寸法
 62
     0
 48
50.0
370
    -2
100
AcDbLine
 10
7700.460402482871
 20
1555.820360971038
 30
0.0
 11
7700.460402482871
 21
1355.820360971036
 31
0.0
  0
INSERT
  5
2024D
330
201F0
100
AcDbEntity
  8
寸法
 62
     0
 48
50.0
370
    -2
100
AcDbBlockReference
  2
_DOTSMALL
 10
7700.460402482871
 20
1555.820360971038
 30
0.0
 41
100.0
 42
100.0
 43
100.0
 50
90.0
  0
INSERT
  5
2024E
330
201F0
100
AcDbEntity
  8
寸法
 62
     0
 48
50.0
370
    -2
100
AcDbBlockReference
  2
_DOTSMALL
 10
7700.460402482871
 20
1355.820360971036
 30
0.0
 41
100.0
 42
100.0
 43
100.0
 50
270.0
  0
MTEXT
  5
2024F
330
201F0
100
AcDbEntity
  8
寸法
 62
     7
 48
50.0
100
AcDbMText
 10
7600.460402482871
 20
1455.820360971038
 30
0.0
 40
120.0
 41
0.0
 71
     5
 72
     1
  1
\A1;b
  7
STYLE1
 11
0.0000000000000001
 21
1.0
 31
0.0
 73
     1
 44
1.0
1001
ACAD
1000
MTEXTBEGIN
1070
    73
1070
     1
1070
    44
1040
1.0
1070
    74
1070
     0
1000
MTEXTEND
  0
POINT
  5
20250
330
201F0
100
AcDbEntity
  8
DEFPOINTS
 62
     0
 48
50.0
100
AcDbPoint
 10
7478.247155019971
 20
1555.820360971038
 30
0.0
  0
POINT
  5
20251
330
201F0
100
AcDbEntity
  8
DEFPOINTS
 62
     0
 48
50.0
100
AcDbPoint
 10
7497.696391914463
 20
1355.820360971036
 30
0.0
  0
POINT
  5
20252
330
201F0
100
AcDbEntity
  8
DEFPOINTS
 62
     0
 48
50.0
100
AcDbPoint
 10
7700.460402482871
 20
1355.820360971036
 30
0.0
  0
ENDBLK
  5
201FB
330
201F0
100
AcDbEntity
  8
0
 48
50.0
100
AcDbBlockEnd
  0
BLOCK
  5
20206
330
201FC
100
AcDbEntity
  8
0
 48
50.0
100
AcDbBlockBegin
  2
*D16
 70
     1
 10
0.0
 20
0.0
 30
0.0
  3
*D16
  1

  0
LINE
  5
20241
330
201FC
100
AcDbEntity
  8
寸法
 62
     0
 48
50.0
370
    -2
100
AcDbLine
 10
8998.140088537111
 20
1655.820360971036
 30
0.0
 11
9240.775642254227
 21
1655.820360971036
 31
0.0
  0
LINE
  5
20242
330
201FC
100
AcDbEntity
  8
寸法
 62
     0
 48
50.0
370
    -2
100
AcDbLine
 10
9028.028996627444
 20
1355.820360971036
 30
0.0
 11
9240.775642254227
 21
1355.820360971036
 31
0.0
  0
LINE
  5
20243
330
201FC
100
AcDbEntity
  8
寸法
 62
     0
 48
50.0
370
    -2
100
AcDbLine
 10
9180.775642254229
 20
1655.820360971036
 30
0.0
 11
9180.775642254229
 21
1355.820360971036
 31
0.0
  0
INSERT
  5
20244
330
201FC
100
AcDbEntity
  8
寸法
 62
     0
 48
50.0
370
    -2
100
AcDbBlockReference
  2
_DOTSMALL
 10
9180.775642254229
 20
1655.820360971036
 30
0.0
 41
100.0
 42
100.0
 43
100.0
 50
90.0
  0
INSERT
  5
20245
330
201FC
100
AcDbEntity
  8
寸法
 62
     0
 48
50.0
370
    -2
100
AcDbBlockReference
  2
_DOTSMALL
 10
9180.775642254229
 20
1355.820360971036
 30
0.0
 41
100.0
 42
100.0
 43
100.0
 50
270.0
  0
MTEXT
  5
20246
330
201FC
100
AcDbEntity
  8
寸法
 62
     7
 48
50.0
100
AcDbMText
 10
9080.775642254229
 20
1505.820360971038
 30
0.0
 40
120.0
 41
0.0
 71
     5
 72
     1
  1
\A1;c
  7
STYLE1
 11
0.0000000000000001
 21
1.0
 31
0.0
 73
     1
 44
1.0
1001
ACAD
1000
MTEXTBEGIN
1070
    73
1070
     1
1070
    44
1040
1.0
1070
    74
1070
     0
1000
MTEXTEND
  0
POINT
  5
20247
330
201FC
100
AcDbEntity
  8
DEFPOINTS
 62
     0
 48
50.0
100
AcDbPoint
 10
8978.140088537111
 20
1655.820360971036
 30
0.0
  0
POINT
  5
20248
330
201FC
100
AcDbEntity
  8
DEFPOINTS
 62
     0
 48
50.0
100
AcDbPoint
 10
9008.028996627443
 20
1355.820360971036
 30
0.0
  0
POINT
  5
20249
330
201FC
100
AcDbEntity
  8
DEFPOINTS
 62
     0
 48
50.0
100
AcDbPoint
 10
9180.775642254229
 20
1355.820360971036
 30
0.0
  0
ENDBLK
  5
20207
330
201FC
100
AcDbEntity
  8
0
 48
50.0
100
AcDbBlockEnd
  0
BLOCK
  5
20212
330
20208
100
AcDbEntity
  8
0
 48
50.0
100
AcDbBlockBegin
  2
*D17
 70
     1
 10
0.0
 20
0.0
 30
0.0
  3
*D17
  1

  0
LINE
  5
20238
330
20208
100
AcDbEntity
  8
寸法
 62
     0
 48
50.0
370
    -2
100
AcDbLine
 10
5884.640890901365
 20
1555.820360971037
 30
0.0
 11
6172.711895261759
 21
1555.820360971037
 31
0.0
  0
LINE
  5
20239
330
20208
100
AcDbEntity
  8
寸法
 62
     0
 48
50.0
370
    -2
100
AcDbLine
 10
5884.640890901366
 20
1355.820360971036
 30
0.0
 11
6172.711895261759
 21
1355.820360971036
 31
0.0
  0
LINE
  5
2023A
330
20208
100
AcDbEntity
  8
寸法
 62
     0
 48
50.0
370
    -2
100
AcDbLine
 10
6112.711895261758
 20
1555.820360971037
 30
0.0
 11
6112.711895261758
 21
1355.820360971036
 31
0.0
  0
INSERT
  5
2023B
330
20208
100
AcDbEntity
  8
寸法
 62
     0
 48
50.0
370
    -2
100
AcDbBlockReference
  2
_DOTSMALL
 10
6112.711895261758
 20
1555.820360971037
 30
0.0
 41
100.0
 42
100.0
 43
100.0
 50
90.0
  0
INSERT
  5
2023C
330
20208
100
AcDbEntity
  8
寸法
 62
     0
 48
50.0
370
    -2
100
AcDbBlockReference
  2
_DOTSMALL
 10
6112.711895261758
 20
1355.820360971036
 30
0.0
 41
100.0
 42
100.0
 43
100.0
 50
270.0
  0
MTEXT
  5
2023D
330
20208
100
AcDbEntity
  8
寸法
 62
     7
 48
50.0
100
AcDbMText
 10
6012.711895261759
 20
1455.820360971038
 30
0.0
 40
120.0
 41
0.0
 71
     5
 72
     1
  1
\A1;a
  7
STYLE1
 11
0.0000000000000001
 21
1.0
 31
0.0
 73
     1
 44
1.0
1001
ACAD
1000
MTEXTBEGIN
1070
    73
1070
     1
1070
    44
1040
1.0
1070
    74
1070
     0
1000
MTEXTEND
  0
POINT
  5
2023E
330
20208
100
AcDbEntity
  8
DEFPOINTS
 62
     0
 48
50.0
100
AcDbPoint
 10
5864.640890901364
 20
1555.820360971037
 30
0.0
  0
POINT
  5
2023F
330
20208
100
AcDbEntity
  8
DEFPOINTS
 62
     0
 48
50.0
100
AcDbPoint
 10
5864.640890901366
 20
1355.820360971036
 30
0.0
  0
POINT
  5
20240
330
20208
100
AcDbEntity
  8
DEFPOINTS
 62
     0
 48
50.0
100
AcDbPoint
 10
6112.711895261758
 20
1355.820360971036
 30
0.0
  0
ENDBLK
  5
20213
330
20208
100
AcDbEntity
  8
0
 48
50.0
100
AcDbBlockEnd
  0
ENDSEC
  0
SECTION
  2
ENTITIES
  0
LINE
  5
10B57
330
747D
100
AcDbEntity
  8
補助
  6
PHANTOM
 62
   230
 48
50.0
100
AcDbLine
 10
139.9999999999995
 20
11409.6
 30
0.0
 11
16307.2
 21
11409.6
 31
0.0
  0
LINE
  5
10B59
330
747D
100
AcDbEntity
  8
仕様書枠
  6
Continuous
 48
50.0
100
AcDbLine
 10
13107.2
 20
1200.0
 30
0.0
 11
13107.2
 21
-0.0000000000000729
 31
0.0
  0
LINE
  5
10B5C
330
747D
100
AcDbEntity
  8
仕様書枠
 48
50.0
100
AcDbLine
 10
16307.2
 20
1200.0
 30
0.0
 11
16307.2
 21
-0.0000000000000909
 31
0.0
  0
LINE
  5
10B5D
330
747D
100
AcDbEntity
  8
仕様書枠
 48
50.0
100
AcDbLine
 10
140.0
 20
0.0
 30
0.0
 11
16307.2
 21
-0.0000000000000909
 31
0.0
  0
LINE
  5
10B5E
330
747D
100
AcDbEntity
  8
補助
  6
PHANTOM
 62
   230
 48
50.0
100
AcDbLine
 10
16307.2
 20
11409.6
 30
0.0
 11
16307.2
 21
1200.0
 31
0.0
  0
LINE
  5
10B6C
330
747D
100
AcDbEntity
  8
仕様書枠
 48
50.0
100
AcDbLine
 10
13107.2
 20
1200.0
 30
0.0
 11
16307.2
 21
1200.0
 31
0.0
  0
LINE
  5
10B6D
330
747D
100
AcDbEntity
  8
補助
  6
PHANTOM
 62
   230
 48
50.0
100
AcDbLine
 10
13107.2
 20
11409.6
 30
0.0
 11
13107.2
 21
4800.0
 31
0.0
  0
LINE
  5
10B6F
330
747D
100
AcDbEntity
  8
補助
  6
PHANTOM
 62
   230
 48
50.0
100
AcDbLine
 10
13107.2
 20
4800.0
 30
0.0
 11
16307.2
 21
4800.0
 31
0.0
  0
LINE
  5
10B72
330
747D
100
AcDbEntity
  8
文字
 62
     7
 48
50.0
100
AcDbLine
 10
13187.2
 20
400.0
 30
0.0
 11
16227.2
 21
400.0
 31
0.0
  0
TEXT
  5
10B73
330
747D
100
AcDbEntity
  8
文字
 62
     7
 48
50.0
100
AcDbText
 10
13162.9790565769
 20
895.0906074299405
 30
0.0
 40
200.0
  1
基 礎 図
  7
STYLE2
100
AcDbText
  0
TEXT
  5
10B74
330
747D
100
AcDbEntity
  8
文字
 62
     7
 48
50.0
100
AcDbText
 10
13201.43669998441
 20
477.2740661031255
 30
0.0
 40
160.0
  1
機種名
  7
STYLE2
100
AcDbText
  0
TEXT
  5
10B79
330
747D
100
AcDbEntity
  8
文字
 62
     7
 48
50.0
100
AcDbText
 10
14524.131837222
 20
1031.557706291228
 30
0.0
 40
100.0
  1
NO.24      <縮尺> S=1/40
  7
STYLE2
100
AcDbText
  0
LINE
  5
10B7B
330
747D
100
AcDbEntity
  8
仕様書枠
 48
50.0
100
AcDbLine
 10
13107.2
 20
800.0
 30
0.0
 11
14251.2
 21
800.0
 31
0.0
  0
LINE
  5
10B88
330
747D
100
AcDbEntity
  8
仕様書枠
  6
Continuous
 48
50.0
100
AcDbLine
 10
14251.2
 20
1200.0
 30
0.0
 11
14251.2
 21
800.0
 31
0.0
  0
TEXT
  5
14DEF
330
747D
100
AcDbEntity
  8
文字
 62
     7
 48
50.0
100
AcDbText
 10
14641.2525855784
 20
871.1744590657925
 30
0.0
 40
100.0
  1
～一般型・多雪地型～
  7
STYLE2
100
AcDbText
  0
TEXT
  5
15A76
330
747D
100
AcDbEntity
  8
文字
 62
     7
 48
50.0
100
AcDbText
 10
14482.61482192223
 20
488.1241585855691
 30
0.0
 40
160.0
  1
ＮＸＮ－５５Ｓ・Ｈ
  7
STYLE2
100
AcDbText
  0
LINE
  5
1CAC7
330
747D
100
AcDbEntity
  8
部品1
 48
50.0
100
AcDbLine
 10
7297.6
 20
6871.999999999998
 30
0.0
 11
6907.600000000001
 21
6871.999999999998
 31
0.0
  0
LINE
  5
1CAC8
330
747D
100
AcDbEntity
  8
部品1
 48
50.0
100
AcDbLine
 10
7297.6
 20
6871.999999999994
 30
0.0
 11
6907.600000000001
 21
6871.999999999998
 31
0.0
  0
LINE
  5
1CACE
330
747D
100
AcDbEntity
  8
部品1
 48
50.0
100
AcDbLine
 10
6907.600000000001
 20
6681.999999999998
 30
0.0
 11
6907.600000000001
 21
6871.999999999998
 31
0.0
  0
TEXT
  5
1D002
330
747D
100
AcDbEntity
  8
文字
 62
     7
 48
50.0
100
AcDbText
 10
13188.16259899338
 20
246.7109242801889
 30
0.0
 40
80.0
  1
※寒冷地等は地域の実情に合わせた基礎にして下さい。
  7
STYLE2
100
AcDbText
  0
DIMENSION
  5
1F702
330
747D
100
AcDbEntity
  8
寸法
 48
50.0
100
AcDbDimension
  2
*D11
 10
9160.6
 20
7380.62423713596
 30
0.0
 11
8797.1
 21
7480.636048159581
 31
0.0
 70
    32
 71
     5
 42
727.0
  3
INABA_S40G
100
AcDbAlignedDimension
 13
8433.6
 23
6871.999999999998
 33
0.0
 14
9160.6
 24
6871.999999999994
 34
0.0
100
AcDbRotatedDimension
1001
ACAD
1000
DSTYLE
1002
{
1070
   174
1070
     0
1070
   272
1070
     1
1070
   288
1070
     0
1070
   341
1005
0
1002
}
  0
LINE
  5
1F703
330
747D
100
AcDbEntity
  8
部品1
 48
50.0
100
AcDbLine
 10
9569.600000000001
 20
6681.999999999995
 30
0.0
 11
9569.600000000001
 21
6871.999999999994
 31
0.0
  0
LINE
  5
1F704
330
747D
100
AcDbEntity
  8
部品1
 48
50.0
100
AcDbLine
 10
9255.599999999985
 20
5079.999999999994
 30
0.0
 11
9065.599999999983
 21
5079.999999999994
 31
0.0
  0
LINE
  5
1F706
330
747D
100
AcDbEntity
  8
部品1
 48
50.0
100
AcDbLine
 10
9065.599999999983
 20
5079.999999999998
 30
0.0
 11
9065.599999999983
 21
5269.999999999998
 31
0.0
  0
LINE
  5
1F707
330
747D
100
AcDbEntity
  8
部品1
 48
50.0
100
AcDbLine
 10
9255.599999999985
 20
5079.999999999998
 30
0.0
 11
9255.599999999985
 21
5269.999999999998
 31
0.0
  0
LINE
  5
1F708
330
747D
100
AcDbEntity
  8
部品1
 48
50.0
100
AcDbLine
 10
9959.600000000001
 20
6681.999999999998
 30
0.0
 11
9959.600000000001
 21
6871.999999999998
 31
0.0
  0
LINE
  5
1F709
330
747D
100
AcDbEntity
  8
部品1
 48
50.0
100
AcDbLine
 10
9255.600000000001
 20
6871.999999999994
 30
0.0
 11
9065.600000000001
 21
6871.999999999994
 31
0.0
  0
LINE
  5
1F70B
330
747D
100
AcDbEntity
  8
部品1
 48
50.0
100
AcDbLine
 10
9065.600000000001
 20
6681.999999999998
 30
0.0
 11
9065.600000000001
 21
6871.999999999998
 31
0.0
  0
LINE
  5
1F70C
330
747D
100
AcDbEntity
  8
部品1
 48
50.0
100
AcDbLine
 10
9255.600000000001
 20
6681.999999999998
 30
0.0
 11
9255.600000000001
 21
6871.999999999998
 31
0.0
  0
TEXT
  5
1F715
330
747D
100
AcDbEntity
  8
文字
 48
50.0
100
AcDbText
 10
10486.75041623232
 20
6867.363529387933
 30
0.0
 40
120.0
  1
深サ:200
  7
STYLE1
100
AcDbText
  0
LEADER
  5
1F716
330
747D
100
AcDbEntity
  8
寸法
 48
50.0
100
AcDbLeader
  3
INABA_S50G
 71
     0
 73
     0
 74
     0
 75
     1
 40
120.0
 41
185.591883092037
 76
     3
 10
7127.606616180269
 20
6712.059464785003
 30
0.0
 10
7198.193942286841
 20
6446.124073005575
 30
0.0
 10
7323.193942286841
 20
6446.124073005575
 30
0.0
340
1F717
1001
ACAD
1000
DSTYLE
1002
{
1070
   341
1005
1C530
1070
    40
1040
1.0
1070
   343
1005
1C530
1070
   344
1005
1C530
1002
}
  0
MTEXT
  5
1F717
102
{ACAD_REACTORS
330
1F716
102
}
330
747D
100
AcDbEntity
  8
部品1
 62
     7
 48
50.0
100
AcDbMText
 10
7348.19394228684
 20
6531.124073005575
 30
0.0
 40
120.0
 41
0.0
 71
     4
 72
     1
  1
\A1;C.B
  7
STYLE1
 73
     1
 44
1.0
1001
ACAD
1000
MTEXTBEGIN
1070
    73
1070
     1
1070
    44
1040
1.0
1070
    74
1070
     0
1000
MTEXTEND
  0
TEXT
  5
1F718
330
747D
100
AcDbEntity
  8
文字
 48
50.0
100
AcDbText
 10
7209.252757422304
 20
6278.625473511953
 30
0.0
 40
120.0
  1
100x190x390
  7
STYLE1
100
AcDbText
  0
LEADER
  5
1F71B
330
747D
100
AcDbEntity
  8
寸法
 48
50.0
100
AcDbLeader
  3
INABA_S50G
 71
     0
 73
     0
 74
     0
 75
     1
 40
120.0
 41
1282.349242404918
 76
     3
 10
10049.32467532425
 20
6861.456639287915
 30
0.0
 10
10305.71188690667
 20
7057.800576904056
 30
0.0
 10
10430.71188690667
 20
7057.800576904056
 30
0.0
340
1F71C
1001
ACAD
1000
DSTYLE
1002
{
1070
   341
1005
1C530
1070
    40
1040
1.0
1070
   343
1005
1C530
1070
   344
1005
1C530
1002
}
  0
MTEXT
  5
1F71C
102
{ACAD_REACTORS
330
1F71B
102
}
330
747D
100
AcDbEntity
  8
部品1
 62
     7
 48
50.0
100
AcDbMText
 10
10455.71188690667
 20
7142.800576904055
 30
0.0
 40
120.0
 41
0.0
 71
     4
 72
     1
  1
現場打コンクリート
  7
STYLE1
 73
     1
 44
1.0
1001
ACAD
1000
MTEXTBEGIN
1070
    73
1070
     1
1070
    44
1040
1.0
1070
    74
1070
     0
1000
MTEXTEND
  0
TEXT
  5
1F71D
330
747D
100
AcDbEntity
  8
部品1
 48
50.0
100
AcDbText
 10
10463.83581900176
 20
7269.278165376133
 30
0.0
 40
120.0
  1
組立後
  7
STYLE1
100
AcDbText
  0
DIMENSION
  5
1F71E
330
747D
100
AcDbEntity
  8
寸法
 48
50.0
100
AcDbDimension
  2
*D2
 10
9959.600000000001
 20
7380.62423713596
 30
0.0
 11
9560.1
 21
7480.62423713596
 31
0.0
 70
    32
 71
     5
 42
799.0
  3
INABA_S40G
100
AcDbAlignedDimension
 13
9160.6
 23
6871.999999999994
 33
0.0
 14
9959.600000000001
 24
6871.999999999998
 34
0.0
100
AcDbRotatedDimension
1001
ACAD
1000
DSTYLE
1002
{
1070
   174
1070
     0
1070
   272
1070
     1
1070
   288
1070
     0
1070
   341
1005
0
1002
}
  0
DIMENSION
  5
1F71F
330
747D
100
AcDbEntity
  8
寸法
 48
50.0
100
AcDbDimension
  2
*D3
 10
6907.600000000001
 20
7380.62423713596
 30
0.0
 11
7307.100000000001
 21
7480.62423713596
 31
0.0
 70
    32
 71
     5
 42
799.0
  3
INABA_S40G
100
AcDbAlignedDimension
 13
7706.6
 23
6871.999999999998
 33
0.0
 14
6907.600000000001
 24
6871.999999999998
 34
0.0
100
AcDbRotatedDimension
1001
ACAD
1000
DSTYLE
1002
{
1070
   174
1070
     0
1070
   272
1070
     1
1070
   288
1070
     0
1070
   341
1005
0
1002
}
  0
DIMENSION
  5
1F720
330
747D
100
AcDbEntity
  8
寸法
 48
50.0
100
AcDbDimension
  2
*D4
 10
8433.6
 20
7380.62423713596
 30
0.0
 11
8070.100000000001
 21
7480.636048159581
 31
0.0
 70
    32
 71
     5
 42
727.0
  3
INABA_S40G
100
AcDbAlignedDimension
 13
7706.6
 23
6871.999999999998
 33
0.0
 14
8433.6
 24
6871.999999999998
 34
0.0
100
AcDbRotatedDimension
1001
ACAD
1000
DSTYLE
1002
{
1070
   174
1070
     0
1070
   272
1070
     1
1070
   288
1070
     0
1070
   341
1005
0
1002
}
  0
LINE
  5
1F721
330
747D
100
AcDbEntity
  8
部品1
 48
50.0
100
AcDbLine
 10
7801.6
 20
6871.999999999998
 30
0.0
 11
7611.6
 21
6871.999999999998
 31
0.0
  0
LINE
  5
1F723
330
747D
100
AcDbEntity
  8
部品1
 48
50.0
100
AcDbLine
 10
7611.6
 20
6682.000000000002
 30
0.0
 11
7611.6
 21
6872.000000000001
 31
0.0
  0
LINE
  5
1F724
330
747D
100
AcDbEntity
  8
部品1
 48
50.0
100
AcDbLine
 10
7801.6
 20
6682.000000000002
 30
0.0
 11
7801.6
 21
6872.000000000001
 31
0.0
  0
LINE
  5
1F725
330
747D
100
AcDbEntity
  8
部品1
 48
50.0
100
AcDbLine
 10
7801.599999999983
 20
5079.999999999998
 30
0.0
 11
7611.599999999985
 21
5079.999999999998
 31
0.0
  0
LINE
  5
1F727
330
747D
100
AcDbEntity
  8
部品1
 48
50.0
100
AcDbLine
 10
7611.599999999985
 20
5080.000000000001
 30
0.0
 11
7611.599999999985
 21
5270.000000000002
 31
0.0
  0
LINE
  5
1F728
330
747D
100
AcDbEntity
  8
部品1
 48
50.0
100
AcDbLine
 10
7801.599999999983
 20
5080.000000000001
 30
0.0
 11
7801.599999999983
 21
5270.000000000002
 31
0.0
  0
LINE
  5
1F729
330
747D
100
AcDbEntity
  8
想像線
 48
10.0
100
AcDbLine
 10
6857.599999999983
 20
5022.999999999998
 30
0.0
 11
6860.599999999983
 21
5019.999999999998
 31
0.0
  0
LINE
  5
1F72A
330
747D
100
AcDbEntity
  8
想像線
 48
10.0
100
AcDbLine
 10
6860.600000000001
 20
6951.999999999997
 30
0.0
 11
6857.600000000001
 21
6948.999999999998
 31
0.0
  0
TEXT
  5
1F72B
330
747D
100
AcDbEntity
  8
部品1
 48
50.0
100
AcDbText
 10
8305.786779658701
 20
4861.533387806431
 30
0.0
 40
120.0
  1
扉面
  7
STYLE1
 72
     1
 11
8433.786779658701
 21
4845.53338780643
 31
0.0
100
AcDbText
 73
     1
  0
LINE
  5
1F72C
330
747D
100
AcDbEntity
  8
部品1
 48
50.0
100
AcDbLine
 10
9959.600000000001
 20
6682.000000000002
 30
0.0
 11
9959.600000000001
 21
6872.000000000001
 31
0.0
  0
LINE
  5
1F72D
330
747D
100
AcDbEntity
  8
部品1
 48
50.0
100
AcDbLine
 10
9569.600000000001
 20
6681.999999999998
 30
0.0
 11
9959.600000000001
 21
6681.999999999998
 31
0.0
  0
LINE
  5
1F72E
330
747D
100
AcDbEntity
  8
部品1
 48
50.0
100
AcDbLine
 10
9569.600000000001
 20
6871.999999999998
 30
0.0
 11
9959.600000000001
 21
6871.999999999998
 31
0.0
  0
LINE
  5
1F72F
330
747D
100
AcDbEntity
  8
部品1
 48
50.0
100
AcDbLine
 10
9569.600000000001
 20
6871.999999999994
 30
0.0
 11
9959.600000000001
 21
6871.999999999998
 31
0.0
  0
DIMENSION
  5
1F730
330
747D
100
AcDbEntity
  8
寸法
 48
50.0
100
AcDbDimension
  2
*D5
 10
10009.6
 20
7638.55162580202
 30
0.0
 11
9984.6
 21
7638.55162580202
 31
0.0
 70
   160
  1
a
 71
     5
 42
50.0
  3
INABA_S40G
100
AcDbAlignedDimension
 13
9959.600000000001
 23
6871.999999999998
 33
0.0
 14
10009.6
 24
6952.000000000002
 34
0.0
100
AcDbRotatedDimension
1001
ACAD
1000
DSTYLE
1002
{
1070
   174
1070
     0
1070
   272
1070
     1
1070
   288
1070
     0
1070
   341
1005
0
1002
}
  0
LINE
  5
1F731
330
747D
100
AcDbEntity
  8
部品1
 48
50.0
100
AcDbLine
 10
9959.599999999985
 20
5269.999999999998
 30
0.0
 11
9959.599999999985
 21
5079.999999999998
 31
0.0
  0
LINE
  5
1F732
330
747D
100
AcDbEntity
  8
部品1
 48
50.0
100
AcDbLine
 10
9569.599999999985
 20
5269.999999999998
 30
0.0
 11
9569.599999999985
 21
5079.999999999998
 31
0.0
  0
LINE
  5
1F733
330
747D
100
AcDbEntity
  8
部品1
 48
50.0
100
AcDbLine
 10
9569.599999999985
 20
5080.000000000001
 30
0.0
 11
9959.599999999985
 21
5079.999999999998
 31
0.0
  0
LINE
  5
1F734
330
747D
100
AcDbEntity
  8
部品1
 48
50.0
100
AcDbLine
 10
9569.599999999985
 20
5079.999999999998
 30
0.0
 11
9959.599999999985
 21
5079.999999999998
 31
0.0
  0
LINE
  5
1F735
330
747D
100
AcDbEntity
  8
部品1
 48
50.0
100
AcDbLine
 10
9569.599999999985
 20
5269.999999999998
 30
0.0
 11
9959.599999999985
 21
5269.999999999998
 31
0.0
  0
LINE
  5
1F736
330
747D
100
AcDbEntity
  8
想像線
 48
10.0
100
AcDbLine
 10
10009.6
 20
6952.034175019868
 30
0.0
 11
10009.59999999998
 21
5019.999999999995
 31
0.0
  0
LINE
  5
1F737
330
747D
100
AcDbEntity
  8
部品1
 48
50.0
100
AcDbLine
 10
7297.6
 20
6681.999999999998
 30
0.0
 11
7297.6
 21
6871.999999999998
 31
0.0
  0
LINE
  5
1F738
330
747D
100
AcDbEntity
  8
部品1
 48
50.0
100
AcDbLine
 10
6907.600000000001
 20
6681.999999999998
 30
0.0
 11
6907.600000000001
 21
6871.999999999998
 31
0.0
  0
DIMENSION
  5
1F739
330
747D
100
AcDbEntity
  8
寸法
 48
50.0
100
AcDbDimension
  2
*D6
 10
6907.600000000001
 20
7638.55162580202
 30
0.0
 11
6882.6
 21
7638.55162580202
 31
0.0
 70
   160
  1
a
 71
     5
 42
50.0
  3
INABA_S40G
100
AcDbAlignedDimension
 13
6857.600000000001
 23
6951.999999999998
 33
0.0
 14
6907.600000000001
 24
6871.999999999998
 34
0.0
100
AcDbRotatedDimension
1001
ACAD
1000
DSTYLE
1002
{
1070
   174
1070
     0
1070
   272
1070
     1
1070
   288
1070
     0
1070
   341
1005
0
1002
}
  0
LINE
  5
1F73A
330
747D
100
AcDbEntity
  8
部品1
 48
50.0
100
AcDbLine
 10
7297.6
 20
6681.999999999998
 30
0.0
 11
6907.600000000001
 21
6681.999999999998
 31
0.0
  0
LINE
  5
1F73B
330
747D
100
AcDbEntity
  8
部品1
 48
50.0
100
AcDbLine
 10
7297.6
 20
6871.999999999994
 30
0.0
 11
6907.600000000001
 21
6871.999999999998
 31
0.0
  0
LINE
  5
1F73C
330
747D
100
AcDbEntity
  8
部品1
 48
50.0
100
AcDbLine
 10
7297.6
 20
6871.999999999998
 30
0.0
 11
6907.600000000001
 21
6871.999999999998
 31
0.0
  0
LINE
  5
1F73D
330
747D
100
AcDbEntity
  8
部品1
 48
50.0
100
AcDbLine
 10
7297.599999999984
 20
5269.999999999998
 30
0.0
 11
7297.599999999984
 21
5079.999999999998
 31
0.0
  0
LINE
  5
1F73F
330
747D
100
AcDbEntity
  8
部品1
 48
50.0
100
AcDbLine
 10
7297.599999999984
 20
5269.999999999998
 30
0.0
 11
6907.599999999984
 21
5269.999999999998
 31
0.0
  0
LINE
  5
1F740
330
747D
100
AcDbEntity
  8
部品1
 48
50.0
100
AcDbLine
 10
7297.599999999984
 20
5079.999999999998
 30
0.0
 11
6907.599999999984
 21
5079.999999999998
 31
0.0
  0
LINE
  5
1F741
330
747D
100
AcDbEntity
  8
部品1
 48
50.0
100
AcDbLine
 10
7297.599999999984
 20
5080.000000000001
 30
0.0
 11
6907.599999999984
 21
5079.999999999998
 31
0.0
  0
LINE
  5
1F742
330
747D
100
AcDbEntity
  8
想像線
 48
10.0
100
AcDbLine
 10
6860.599999999983
 20
5019.999999999998
 30
0.0
 11
6857.600000000001
 21
6948.999999999998
 31
0.0
  0
DIMENSION
  5
1F743
330
747D
100
AcDbEntity
  8
寸法
 48
50.0
100
AcDbDimension
  2
*D7
 10
6466.888116550752
 20
6871.999999999998
 30
0.0
 11
6466.888116550748
 21
6912.0
 31
0.0
 70
   160
  1
c
 71
     5
 42
80.0
  3
INABA_S40G
100
AcDbAlignedDimension
 13
6857.600000000001
 23
6951.999999999998
 33
0.0
 14
6907.600000000001
 24
6871.999999999998
 34
0.0
 50
90.0
100
AcDbRotatedDimension
1001
ACAD
1000
DSTYLE
1002
{
1070
   174
1070
     0
1070
   272
1070
     1
1070
   288
1070
     0
1070
   341
1005
0
1002
}
  0
DIMENSION
  5
1F744
330
747D
100
AcDbEntity
  8
寸法
 48
50.0
100
AcDbDimension
  2
*D8
 10
6466.888116550752
 20
5079.999999999998
 30
0.0
 11
6466.88811655075
 21
5975.999999999999
 31
0.0
 70
   160
 71
     5
 42
1792.0
  3
INABA_S40G
100
AcDbAlignedDimension
 13
6907.600000000001
 23
6871.999999999998
 33
0.0
 14
6907.599999999984
 24
5079.999999999998
 34
0.0
 50
90.0
100
AcDbRotatedDimension
1001
ACAD
1000
DSTYLE
1002
{
1070
   174
1070
     0
1070
   272
1070
     1
1070
   288
1070
     0
1070
   341
1005
0
1002
}
  0
DIMENSION
  5
1F745
330
747D
100
AcDbEntity
  8
寸法
 48
50.0
100
AcDbDimension
  2
*D9
 10
6466.888116550734
 20
5019.999999999998
 30
0.0
 11
6466.888116550733
 21
5050.0
 31
0.0
 70
   160
  1
b
 71
     5
 42
60.0
  3
INABA_S40G
100
AcDbAlignedDimension
 13
6907.599999999984
 23
5079.999999999998
 33
0.0
 14
6857.599999999983
 24
5019.999999999998
 34
0.0
 50
90.0
100
AcDbRotatedDimension
1001
ACAD
1000
DSTYLE
1002
{
1070
   174
1070
     0
1070
   272
1070
     1
1070
   288
1070
     0
1070
   341
1005
0
1002
}
  0
LINE
  5
1F746
330
747D
100
AcDbEntity
  8
想像線
 48
10.0
100
AcDbLine
 10
6860.600000000001
 20
6951.999999999997
 30
0.0
 11
10009.6
 21
6952.000000000002
 31
0.0
  0
LINE
  5
1F747
330
747D
100
AcDbEntity
  8
想像線
 48
10.0
100
AcDbLine
 10
10009.59999999998
 20
5019.999999999995
 30
0.0
 11
6860.599999999983
 21
5019.999999999998
 31
0.0
  0
DIMENSION
  5
1F748
330
747D
100
AcDbEntity
  8
寸法
 48
50.0
100
AcDbDimension
  2
*D10
 10
9959.600000000001
 20
7638.55162580202
 30
0.0
 11
8433.6
 21
7638.55162580202
 31
0.0
 70
   160
 71
     5
 42
3052.0
  3
INABA_S40G
100
AcDbAlignedDimension
 13
6907.600000000001
 23
6871.999999999998
 33
0.0
 14
9959.600000000001
 24
6871.999999999998
 34
0.0
100
AcDbRotatedDimension
1001
ACAD
1000
DSTYLE
1002
{
1070
   174
1070
     0
1070
   272
1070
     1
1070
   288
1070
     0
1070
   341
1005
0
1002
}
  0
LEADER
  5
1F749
330
747D
100
AcDbEntity
  8
寸法
 48
50.0
100
AcDbLeader
  3
INABA_S50G
 71
     0
 73
     0
 74
     0
 75
     1
 40
120.0
 41
672.0
 76
     3
 10
7092.496925270928
 20
5019.999999999998
 30
0.0
 10
7340.734111875419
 20
4639.982608040207
 30
0.0
 10
7465.734111875419
 20
4639.982608040207
 30
0.0
340
1F74A
1001
ACAD
1000
DSTYLE
1002
{
1070
   341
1005
1C530
1070
    40
1040
1.0
1070
   343
1005
1C530
1070
   344
1005
1C530
1002
}
  0
MTEXT
  5
1F74A
102
{ACAD_REACTORS
330
1F749
102
}
330
747D
100
AcDbEntity
  8
部品1
 62
     7
 48
50.0
100
AcDbMText
 10
8162.734111875419
 20
4724.982608040207
 30
0.0
 40
120.0
 41
0.0
 71
     6
 72
     1
  1
\A1;屋根の外寸
  7
STYLE1
 73
     1
 44
1.0
1001
ACAD
1000
MTEXTBEGIN
1070
    73
1070
     1
1070
    44
1040
1.0
1070
    74
1070
     0
1000
MTEXTEND
  0
TEXT
  5
1F74B
330
747D
100
AcDbEntity
  8
部品1
 48
50.0
100
AcDbText
 10
7296.56402169865
 20
4513.314707840741
 30
0.0
 40
80.0
  1
※a,b,cは屋根の出幅です。
  7
STYLE1
100
AcDbText
  0
TEXT
  5
1F74C
330
747D
100
AcDbEntity
  8
部品1
 48
50.0
100
AcDbText
 10
7410.2642624246
 20
4379.758181754797
 30
0.0
 40
80.0
  1
(a=50,b=60,c=80)
  7
STYLE1
100
AcDbText
  0
LINE
  5
1F939
330
747D
100
AcDbEntity
  8
部品1
 48
50.0
100
AcDbLine
 10
7297.599999999984
 20
5079.999999999998
 30
0.0
 11
6907.599999999984
 21
5079.999999999998
 31
0.0
  0
DIMENSION
  5
1F98A
330
747D
100
AcDbEntity
  8
寸法
 48
50.0
100
AcDbDimension
  2
*D12
 10
10348.66514751619
 20
4979.999999999996
 30
0.0
 11
10348.66514751619
 21
5079.999999999998
 31
0.0
 70
   160
 71
     5
 42
200.0
  3
INABA_S40G
100
AcDbAlignedDimension
 13
10059.59999999998
 23
5179.999999999997
 33
0.0
 14
10059.59999999998
 24
4979.999999999997
 34
0.0
 50
90.0
100
AcDbRotatedDimension
1001
ACAD
1000
DSTYLE
1002
{
1070
   174
1070
     0
1070
   272
1070
     1
1070
   288
1070
     0
1070
   341
1005
0
1002
}
  0
DIMENSION
  5
1F98B
330
747D
100
AcDbEntity
  8
寸法
 48
50.0
100
AcDbDimension
  2
*D13
 10
9859.599999999986
 20
4726.674515054534
 30
0.0
 11
9959.599999999985
 21
4726.674515054534
 31
0.0
 70
   160
 71
     5
 42
200.0
  3
INABA_S40G
100
AcDbAlignedDimension
 13
10059.59999999998
 23
4979.999999999997
 33
0.0
 14
9859.599999999986
 24
4979.999999999997
 34
0.0
100
AcDbRotatedDimension
1001
ACAD
1000
DSTYLE
1002
{
1070
   174
1070
     0
1070
   272
1070
     1
1070
   288
1070
     0
1070
   341
1005
0
1002
}
  0
LINE
  5
1F9DD
330
747D
100
AcDbEntity
  8
部品1
 48
50.0
100
AcDbLine
 10
7611.599999999985
 20
5470.000000000002
 30
0.0
 11
7801.599999999983
 21
5470.000000000002
 31
0.0
  0
LINE
  5
1F9DE
330
747D
100
AcDbEntity
  8
部品1
 48
50.0
100
AcDbLine
 10
7611.599999999985
 20
5080.000000000001
 30
0.0
 11
7801.599999999983
 21
5080.000000000001
 31
0.0
  0
LINE
  5
1F9DF
330
747D
100
AcDbEntity
  8
部品1
 48
50.0
100
AcDbLine
 10
7611.599999999985
 20
5470.000000000002
 30
0.0
 11
7611.599999999985
 21
5080.000000000001
 31
0.0
  0
LINE
  5
1F9E0
330
747D
100
AcDbEntity
  8
部品1
 48
50.0
100
AcDbLine
 10
7801.599999999983
 20
5470.000000000002
 30
0.0
 11
7801.599999999983
 21
5080.000000000001
 31
0.0
  0
LINE
  5
1F9E1
330
747D
100
AcDbEntity
  8
部品1
 48
50.0
100
AcDbLine
 10
7801.59999999998
 20
5470.000000000002
 30
0.0
 11
7801.599999999983
 21
5080.000000000001
 31
0.0
  0
LINE
  5
1F9E2
330
747D
100
AcDbEntity
  8
部品1
 48
50.0
100
AcDbLine
 10
7801.599999999983
 20
5470.000000000002
 30
0.0
 11
7801.599999999983
 21
5080.000000000001
 31
0.0
  0
LINE
  5
1F9E3
330
747D
100
AcDbEntity
  8
部品1
 48
50.0
100
AcDbLine
 10
7611.599999999985
 20
5270.000000000002
 30
0.0
 11
7611.599999999985
 21
5080.000000000001
 31
0.0
  0
LINE
  5
1F9E4
330
747D
100
AcDbEntity
  8
部品1
 48
50.0
100
AcDbLine
 10
9065.599999999983
 20
5469.999999999998
 30
0.0
 11
9255.599999999985
 21
5469.999999999998
 31
0.0
  0
LINE
  5
1F9E5
330
747D
100
AcDbEntity
  8
部品1
 48
50.0
100
AcDbLine
 10
9065.599999999983
 20
5079.999999999998
 30
0.0
 11
9255.599999999985
 21
5079.999999999998
 31
0.0
  0
LINE
  5
1F9E6
330
747D
100
AcDbEntity
  8
部品1
 48
50.0
100
AcDbLine
 10
9065.599999999983
 20
5469.999999999998
 30
0.0
 11
9065.599999999983
 21
5079.999999999998
 31
0.0
  0
LINE
  5
1F9E7
330
747D
100
AcDbEntity
  8
部品1
 48
50.0
100
AcDbLine
 10
9255.599999999985
 20
5469.999999999998
 30
0.0
 11
9255.599999999985
 21
5079.999999999998
 31
0.0
  0
LINE
  5
1F9E8
330
747D
100
AcDbEntity
  8
部品1
 48
50.0
100
AcDbLine
 10
9255.599999999979
 20
5469.999999999998
 30
0.0
 11
9255.599999999985
 21
5079.999999999998
 31
0.0
  0
LINE
  5
1F9E9
330
747D
100
AcDbEntity
  8
部品1
 48
50.0
100
AcDbLine
 10
9255.599999999985
 20
5469.999999999998
 30
0.0
 11
9255.599999999985
 21
5079.999999999998
 31
0.0
  0
LINE
  5
1F9EA
330
747D
100
AcDbEntity
  8
部品1
 48
50.0
100
AcDbLine
 10
9065.599999999983
 20
5269.999999999998
 30
0.0
 11
9065.599999999983
 21
5079.999999999998
 31
0.0
  0
LINE
  5
1F9EB
330
747D
100
AcDbEntity
  8
部品1
 48
50.0
100
AcDbLine
 10
9255.599999999985
 20
5079.999999999994
 30
0.0
 11
9065.599999999983
 21
5079.999999999994
 31
0.0
  0
LINE
  5
1F9ED
330
747D
100
AcDbEntity
  8
部品1
 48
50.0
100
AcDbLine
 10
9065.599999999983
 20
5079.999999999998
 30
0.0
 11
9065.599999999983
 21
5269.999999999998
 31
0.0
  0
LINE
  5
1F9EE
330
747D
100
AcDbEntity
  8
部品1
 48
50.0
100
AcDbLine
 10
9255.599999999985
 20
5079.999999999998
 30
0.0
 11
9255.599999999985
 21
5269.999999999998
 31
0.0
  0
LINE
  5
1F9EF
330
747D
100
AcDbEntity
  8
寸法
 62
     0
 48
50.0
100
AcDbLine
 10
6907.599999999984
 20
5269.999999999998
 30
0.0
 11
6907.599999999984
 21
5079.999999999998
 31
0.0
  0
LINE
  5
1F9F0
330
747D
100
AcDbEntity
  8
部品1
 48
50.0
100
AcDbLine
 10
9255.600000000001
 20
6481.999999999995
 30
0.0
 11
9255.600000000001
 21
6671.999999999994
 31
0.0
  0
LINE
  5
1F9F1
330
747D
100
AcDbEntity
  8
部品1
 48
50.0
100
AcDbLine
 10
9065.600000000001
 20
6481.999999999995
 30
0.0
 11
9065.600000000001
 21
6671.999999999994
 31
0.0
  0
LINE
  5
1F9F3
330
747D
100
AcDbEntity
  8
部品1
 48
50.0
100
AcDbLine
 10
9255.600000000001
 20
6481.999999999991
 30
0.0
 11
9065.600000000001
 21
6481.999999999991
 31
0.0
  0
LINE
  5
1F9F4
330
747D
100
AcDbEntity
  8
部品1
 48
50.0
100
AcDbLine
 10
9065.600000000001
 20
6671.999999999994
 30
0.0
 11
9065.600000000001
 21
6481.999999999995
 31
0.0
  0
LINE
  5
1F9F5
330
747D
100
AcDbEntity
  8
部品1
 48
50.0
100
AcDbLine
 10
9255.600000000001
 20
6871.999999999994
 30
0.0
 11
9255.600000000001
 21
6481.999999999995
 31
0.0
  0
LINE
  5
1F9F6
330
747D
100
AcDbEntity
  8
部品1
 48
50.0
100
AcDbLine
 10
9255.599999999997
 20
6871.999999999994
 30
0.0
 11
9255.600000000001
 21
6481.999999999995
 31
0.0
  0
LINE
  5
1F9F7
330
747D
100
AcDbEntity
  8
部品1
 48
50.0
100
AcDbLine
 10
9255.600000000001
 20
6871.999999999994
 30
0.0
 11
9255.600000000001
 21
6481.999999999995
 31
0.0
  0
LINE
  5
1F9F8
330
747D
100
AcDbEntity
  8
部品1
 48
50.0
100
AcDbLine
 10
9065.600000000001
 20
6871.999999999994
 30
0.0
 11
9065.600000000001
 21
6481.999999999995
 31
0.0
  0
LINE
  5
1F9F9
330
747D
100
AcDbEntity
  8
部品1
 48
50.0
100
AcDbLine
 10
9065.600000000001
 20
6481.999999999995
 30
0.0
 11
9255.600000000001
 21
6481.999999999995
 31
0.0
  0
LINE
  5
1F9FA
330
747D
100
AcDbEntity
  8
部品1
 48
50.0
100
AcDbLine
 10
9065.600000000001
 20
6871.999999999994
 30
0.0
 11
9255.600000000001
 21
6871.999999999994
 31
0.0
  0
LINE
  5
1F9FB
330
747D
100
AcDbEntity
  8
部品1
 48
50.0
100
AcDbLine
 10
7801.6
 20
6871.999999999998
 30
0.0
 11
7801.6
 21
6481.999999999998
 31
0.0
  0
LINE
  5
1F9FC
330
747D
100
AcDbEntity
  8
部品1
 48
50.0
100
AcDbLine
 10
7801.599999999996
 20
6871.999999999998
 30
0.0
 11
7801.6
 21
6481.999999999998
 31
0.0
  0
LINE
  5
1F9FD
330
747D
100
AcDbEntity
  8
部品1
 48
50.0
100
AcDbLine
 10
7801.6
 20
6871.999999999998
 30
0.0
 11
7801.6
 21
6481.999999999998
 31
0.0
  0
LINE
  5
1F9FE
330
747D
100
AcDbEntity
  8
部品1
 48
50.0
100
AcDbLine
 10
7611.6
 20
6481.999999999998
 30
0.0
 11
7801.6
 21
6481.999999999998
 31
0.0
  0
LINE
  5
1F9FF
330
747D
100
AcDbEntity
  8
部品1
 48
50.0
100
AcDbLine
 10
7611.6
 20
6871.999999999998
 30
0.0
 11
7801.6
 21
6871.999999999998
 31
0.0
  0
LINE
  5
1FA07
330
747D
100
AcDbEntity
  8
部品1
 48
50.0
100
AcDbLine
 10
7801.6
 20
6481.999999999998
 30
0.0
 11
7801.6
 21
6671.999999999998
 31
0.0
  0
LINE
  5
1FA09
330
747D
100
AcDbEntity
  8
部品1
 48
50.0
100
AcDbLine
 10
7801.6
 20
6481.999999999995
 30
0.0
 11
7611.6
 21
6481.999999999995
 31
0.0
  0
LINE
  5
1FA0E
330
747D
100
AcDbEntity
  8
部品1
 48
50.0
100
AcDbLine
 10
9255.600000000001
 20
6481.999999999995
 30
0.0
 11
9255.600000000001
 21
6671.999999999994
 31
0.0
  0
LINE
  5
1FA0F
330
747D
100
AcDbEntity
  8
部品1
 48
50.0
100
AcDbLine
 10
9065.600000000001
 20
6481.999999999995
 30
0.0
 11
9065.600000000001
 21
6671.999999999994
 31
0.0
  0
LINE
  5
1FA11
330
747D
100
AcDbEntity
  8
部品1
 48
50.0
100
AcDbLine
 10
9255.600000000001
 20
6481.999999999991
 30
0.0
 11
9065.600000000001
 21
6481.999999999991
 31
0.0
  0
LINE
  5
1FA12
330
747D
100
AcDbEntity
  8
部品1
 48
50.0
100
AcDbLine
 10
7611.6
 20
6871.999999999998
 30
0.0
 11
7611.6
 21
6481.999999999998
 31
0.0
  0
LINE
  5
1FB3A
102
{ACAD_REACTORS
330
1FC8E
102
}
330
747D
100
AcDbEntity
  8
点線
 48
10.0
100
AcDbLine
 10
9859.599999999986
 20
5179.999999999998
 30
0.0
 11
10059.59999999998
 21
5179.999999999997
 31
0.0
  0
LINE
  5
1FB3B
102
{ACAD_REACTORS
330
1FC8E
102
}
330
747D
100
AcDbEntity
  8
点線
 48
10.0
100
AcDbLine
 10
9859.599999999986
 20
5179.999999999998
 30
0.0
 11
9859.599999999986
 21
4979.999999999997
 31
0.0
  0
LINE
  5
1FB3C
102
{ACAD_REACTORS
330
1FC8E
102
}
330
747D
100
AcDbEntity
  8
点線
 48
10.0
100
AcDbLine
 10
9859.599999999986
 20
4979.999999999997
 30
0.0
 11
10059.59999999998
 21
4979.999999999997
 31
0.0
  0
LINE
  5
1FB3D
102
{ACAD_REACTORS
330
1FC8E
102
}
330
747D
100
AcDbEntity
  8
点線
 48
10.0
100
AcDbLine
 10
10059.59999999998
 20
5179.999999999997
 30
0.0
 11
10059.59999999998
 21
4979.999999999997
 31
0.0
  0
LINE
  5
1FB72
330
747D
100
AcDbEntity
  8
部品1
 48
50.0
100
AcDbLine
 10
7297.6
 20
6871.999999999998
 30
0.0
 11
6907.600000000001
 21
6871.999999999998
 31
0.0
  0
LINE
  5
1FCB3
330
747D
100
AcDbEntity
  8
部品1
 48
50.0
100
AcDbLine
 10
7297.6
 20
6871.999999999998
 30
0.0
 11
6907.600000000001
 21
6871.999999999998
 31
0.0
  0
LINE
  5
1FCB4
330
747D
100
AcDbEntity
  8
部品1
 48
50.0
100
AcDbLine
 10
7297.6
 20
6871.999999999994
 30
0.0
 11
6907.600000000001
 21
6871.999999999998
 31
0.0
  0
LINE
  5
1FCCB
330
747D
100
AcDbEntity
  8
部品1
 48
50.0
100
AcDbLine
 10
7297.599999999984
 20
5079.999999999994
 30
0.0
 11
6907.599999999984
 21
5079.999999999998
 31
0.0
  0
LINE
  5
1FD3E
102
{ACAD_REACTORS
330
1FD42
102
}
330
747D
100
AcDbEntity
  8
点線
 48
10.0
100
AcDbLine
 10
9859.6
 20
6771.999999999997
 30
0.0
 11
10059.6
 21
6771.999999999997
 31
0.0
  0
LINE
  5
1FD3F
102
{ACAD_REACTORS
330
1FD42
102
}
330
747D
100
AcDbEntity
  8
点線
 48
10.0
100
AcDbLine
 10
9859.6
 20
6971.999999999998
 30
0.0
 11
9859.6
 21
6771.999999999997
 31
0.0
  0
LINE
  5
1FD40
102
{ACAD_REACTORS
330
1FD42
102
}
330
747D
100
AcDbEntity
  8
点線
 48
10.0
100
AcDbLine
 10
9859.6
 20
6971.999999999998
 30
0.0
 11
10059.6
 21
6971.999999999997
 31
0.0
  0
LINE
  5
1FD41
102
{ACAD_REACTORS
330
1FD42
102
}
330
747D
100
AcDbEntity
  8
点線
 48
10.0
100
AcDbLine
 10
10059.6
 20
6971.999999999997
 30
0.0
 11
10059.6
 21
6771.999999999997
 31
0.0
  0
LINE
  5
1FD43
102
{ACAD_REACTORS
330
1FD47
102
}
330
747D
100
AcDbEntity
  8
点線
 48
10.0
100
AcDbLine
 10
6807.6
 20
6771.999999999997
 30
0.0
 11
7007.6
 21
6771.999999999997
 31
0.0
  0
LINE
  5
1FD44
102
{ACAD_REACTORS
330
1FD47
102
}
330
747D
100
AcDbEntity
  8
点線
 48
10.0
100
AcDbLine
 10
6807.6
 20
6971.999999999998
 30
0.0
 11
6807.6
 21
6771.999999999997
 31
0.0
  0
LINE
  5
1FD45
102
{ACAD_REACTORS
330
1FD47
102
}
330
747D
100
AcDbEntity
  8
点線
 48
10.0
100
AcDbLine
 10
6807.6
 20
6971.999999999998
 30
0.0
 11
7007.6
 21
6971.999999999997
 31
0.0
  0
LINE
  5
1FD46
102
{ACAD_REACTORS
330
1FD47
102
}
330
747D
100
AcDbEntity
  8
点線
 48
10.0
100
AcDbLine
 10
7007.6
 20
6971.999999999997
 30
0.0
 11
7007.6
 21
6771.999999999997
 31
0.0
  0
LINE
  5
1FD48
102
{ACAD_REACTORS
330
1FD4C
102
}
330
747D
100
AcDbEntity
  8
点線
 48
10.0
100
AcDbLine
 10
6807.599999999983
 20
4979.999999999997
 30
0.0
 11
7007.599999999984
 21
4979.999999999997
 31
0.0
  0
LINE
  5
1FD49
102
{ACAD_REACTORS
330
1FD4C
102
}
330
747D
100
AcDbEntity
  8
点線
 48
10.0
100
AcDbLine
 10
6807.599999999983
 20
5179.999999999998
 30
0.0
 11
6807.599999999983
 21
4979.999999999997
 31
0.0
  0
LINE
  5
1FD4A
102
{ACAD_REACTORS
330
1FD4C
102
}
330
747D
100
AcDbEntity
  8
点線
 48
10.0
100
AcDbLine
 10
6807.599999999983
 20
5179.999999999998
 30
0.0
 11
7007.599999999982
 21
5179.999999999997
 31
0.0
  0
LINE
  5
1FD4B
102
{ACAD_REACTORS
330
1FD4C
102
}
330
747D
100
AcDbEntity
  8
点線
 48
10.0
100
AcDbLine
 10
7007.599999999982
 20
5179.999999999997
 30
0.0
 11
7007.599999999984
 21
4979.999999999997
 31
0.0
  0
LINE
  5
1FE16
330
747D
100
AcDbEntity
  8
部品1
 48
50.0
100
AcDbLine
 10
7097.599999999999
 20
5880.999999999997
 30
0.0
 11
7097.599999999999
 21
6070.999999999997
 31
0.0
  0
LINE
  5
1FE17
330
747D
100
AcDbEntity
  8
部品1
 48
50.0
100
AcDbLine
 10
7097.599999999999
 20
5880.999999999997
 30
0.0
 11
6907.600000000001
 21
5880.999999999998
 31
0.0
  0
LINE
  5
1FE18
330
747D
100
AcDbEntity
  8
部品1
 48
50.0
100
AcDbLine
 10
6907.600000000001
 20
5880.999999999998
 30
0.0
 11
6907.600000000001
 21
6070.999999999997
 31
0.0
  0
LINE
  5
1FE19
330
747D
100
AcDbEntity
  8
部品1
 48
50.0
100
AcDbLine
 10
7097.599999999999
 20
6070.999999999997
 30
0.0
 11
6907.599999999999
 21
6070.999999999997
 31
0.0
  0
LINE
  5
1FEC5
330
747D
100
AcDbEntity
  8
部品1
 48
50.0
100
AcDbLine
 10
7097.599999999999
 20
5880.999999999997
 30
0.0
 11
7097.599999999999
 21
6070.999999999997
 31
0.0
  0
LINE
  5
1FEC6
330
747D
100
AcDbEntity
  8
部品1
 48
50.0
100
AcDbLine
 10
7097.599999999999
 20
6070.999999999997
 30
0.0
 11
6907.599999999999
 21
6070.999999999997
 31
0.0
  0
LINE
  5
1FEC7
330
747D
100
AcDbEntity
  8
部品1
 48
50.0
100
AcDbLine
 10
6907.600000000001
 20
5880.999999999998
 30
0.0
 11
6907.600000000001
 21
6070.999999999997
 31
0.0
  0
LINE
  5
1FEC8
330
747D
100
AcDbEntity
  8
部品1
 48
50.0
100
AcDbLine
 10
7097.599999999999
 20
5880.999999999997
 30
0.0
 11
6907.600000000001
 21
5880.999999999998
 31
0.0
  0
LINE
  5
1FEC9
330
747D
100
AcDbEntity
  8
部品1
 48
50.0
100
AcDbLine
 10
7801.599999999993
 20
5880.999999999997
 30
0.0
 11
7611.599999999995
 21
5880.999999999998
 31
0.0
  0
LINE
  5
1FECA
330
747D
100
AcDbEntity
  8
部品1
 48
50.0
100
AcDbLine
 10
7611.599999999995
 20
5880.999999999998
 30
0.0
 11
7611.599999999995
 21
6070.999999999997
 31
0.0
  0
LINE
  5
1FECB
330
747D
100
AcDbEntity
  8
部品1
 48
50.0
100
AcDbLine
 10
7801.599999999995
 20
6070.999999999997
 30
0.0
 11
7611.599999999993
 21
6070.999999999997
 31
0.0
  0
LINE
  5
1FECC
330
747D
100
AcDbEntity
  8
部品1
 48
50.0
100
AcDbLine
 10
7801.599999999993
 20
5880.999999999997
 30
0.0
 11
7801.599999999995
 21
6070.999999999997
 31
0.0
  0
LINE
  5
1FECD
330
747D
100
AcDbEntity
  8
部品1
 48
50.0
100
AcDbLine
 10
8528.599999999999
 20
5880.999999999997
 30
0.0
 11
8528.6
 21
6070.999999999997
 31
0.0
  0
LINE
  5
1FECE
330
747D
100
AcDbEntity
  8
部品1
 48
50.0
100
AcDbLine
 10
8528.599999999999
 20
5880.999999999997
 30
0.0
 11
8338.600000000001
 21
5880.999999999998
 31
0.0
  0
LINE
  5
1FECF
330
747D
100
AcDbEntity
  8
部品1
 48
50.0
100
AcDbLine
 10
8338.600000000001
 20
5880.999999999998
 30
0.0
 11
8338.600000000001
 21
6070.999999999997
 31
0.0
  0
LINE
  5
1FED0
330
747D
100
AcDbEntity
  8
部品1
 48
50.0
100
AcDbLine
 10
8528.6
 20
6070.999999999997
 30
0.0
 11
8338.599999999997
 21
6070.999999999997
 31
0.0
  0
LINE
  5
1FED1
330
747D
100
AcDbEntity
  8
部品1
 48
50.0
100
AcDbLine
 10
9255.599999999992
 20
6070.999999999997
 30
0.0
 11
9065.599999999989
 21
6070.999999999997
 31
0.0
  0
LINE
  5
1FED2
330
747D
100
AcDbEntity
  8
部品1
 48
50.0
100
AcDbLine
 10
9065.599999999992
 20
5880.999999999998
 30
0.0
 11
9065.599999999992
 21
6070.999999999997
 31
0.0
  0
LINE
  5
1FED3
330
747D
100
AcDbEntity
  8
部品1
 48
50.0
100
AcDbLine
 10
9255.59999999999
 20
5880.999999999997
 30
0.0
 11
9065.599999999992
 21
5880.999999999998
 31
0.0
  0
LINE
  5
1FED4
330
747D
100
AcDbEntity
  8
部品1
 48
50.0
100
AcDbLine
 10
9255.59999999999
 20
5880.999999999997
 30
0.0
 11
9255.599999999992
 21
6070.999999999997
 31
0.0
  0
LINE
  5
1FED5
330
747D
100
AcDbEntity
  8
部品1
 48
50.0
100
AcDbLine
 10
9959.6
 20
5880.999999999997
 30
0.0
 11
9959.6
 21
6070.999999999997
 31
0.0
  0
LINE
  5
1FED6
330
747D
100
AcDbEntity
  8
部品1
 48
50.0
100
AcDbLine
 10
9959.6
 20
5880.999999999997
 30
0.0
 11
9769.599999999998
 21
5880.999999999998
 31
0.0
  0
LINE
  5
1FED7
330
747D
100
AcDbEntity
  8
部品1
 48
50.0
100
AcDbLine
 10
9769.599999999998
 20
5880.999999999998
 30
0.0
 11
9769.599999999998
 21
6070.999999999997
 31
0.0
  0
LINE
  5
1FED8
330
747D
100
AcDbEntity
  8
部品1
 48
50.0
100
AcDbLine
 10
9959.6
 20
6070.999999999997
 30
0.0
 11
9769.599999999998
 21
6070.999999999997
 31
0.0
  0
LINE
  5
1FED9
330
747D
100
AcDbEntity
  8
部品1
 48
50.0
100
AcDbLine
 10
8531.100000000002
 20
6867.000000000001
 30
0.0
 11
8341.1
 21
6867.000000000001
 31
0.0
  0
LINE
  5
1FEDA
330
747D
100
AcDbEntity
  8
部品1
 48
50.0
100
AcDbLine
 10
8341.100000000002
 20
6677.000000000003
 30
0.0
 11
8341.100000000002
 21
6867.000000000001
 31
0.0
  0
LINE
  5
1FEDB
330
747D
100
AcDbEntity
  8
部品1
 48
50.0
100
AcDbLine
 10
8531.1
 20
6677.000000000001
 30
0.0
 11
8341.100000000002
 21
6677.000000000003
 31
0.0
  0
LINE
  5
1FEDC
330
747D
100
AcDbEntity
  8
部品1
 48
50.0
100
AcDbLine
 10
8531.1
 20
6677.000000000001
 30
0.0
 11
8531.100000000002
 21
6867.000000000001
 31
0.0
  0
LINE
  5
1FEDD
330
747D
100
AcDbEntity
  8
部品1
 48
50.0
100
AcDbLine
 10
8528.6
 20
5270.000000000002
 30
0.0
 11
8338.599999999997
 21
5270.000000000001
 31
0.0
  0
LINE
  5
1FEDE
330
747D
100
AcDbEntity
  8
部品1
 48
50.0
100
AcDbLine
 10
8338.600000000001
 20
5080.000000000001
 30
0.0
 11
8338.600000000001
 21
5270.000000000002
 31
0.0
  0
LINE
  5
1FEDF
330
747D
100
AcDbEntity
  8
部品1
 48
50.0
100
AcDbLine
 10
8528.599999999999
 20
5080.000000000001
 30
0.0
 11
8338.600000000001
 21
5080.000000000001
 31
0.0
  0
LINE
  5
1FEE0
330
747D
100
AcDbEntity
  8
部品1
 48
50.0
100
AcDbLine
 10
8528.599999999999
 20
5080.000000000001
 30
0.0
 11
8528.6
 21
5270.000000000002
 31
0.0
  0
LINE
  5
20086
330
747D
100
AcDbEntity
  8
部品1
 48
50.0
100
AcDbLine
 10
3481.933188638163
 20
2335.059573359282
 30
0.0
 11
9881.933188638164
 21
2335.059573359282
 31
0.0
  0
LINE
  5
20087
330
747D
100
AcDbEntity
  8
部品1
 48
50.0
100
AcDbLine
 10
9881.933188638164
 20
2575.059573359282
 30
0.0
 11
5081.933188638163
 21
2575.059573359282
 31
0.0
  0
LINE
  5
20088
330
747D
100
AcDbEntity
  8
部品1
 48
50.0
100
AcDbLine
 10
9881.933188638164
 20
2815.059573359282
 30
0.0
 11
3481.933188638163
 21
2815.059573359284
 31
0.0
  0
LINE
  5
20089
330
747D
100
AcDbEntity
  8
部品1
 48
50.0
100
AcDbLine
 10
3481.933188638163
 20
415.0595733592817
 30
0.0
 11
9881.933188638164
 21
415.0595733592817
 31
0.0
  0
TEXT
  5
2008A
330
747D
100
AcDbEntity
  8
部品1
100
AcDbText
 10
6735.660505016856
 20
2629.123387962016
 30
0.0
 40
120.0
  1
アンカー部詳細
  7
STYLE2
100
AcDbText
  0
LINE
  5
2008B
330
747D
100
AcDbEntity
  8
細線
100
AcDbLine
 10
4277.419697672955
 20
1255.820360971036
 30
0.0
 11
4377.419697672951
 21
1355.820360971038
 31
0.0
  0
LINE
  5
2008C
330
747D
100
AcDbEntity
  8
細線
100
AcDbLine
 10
4352.849147051544
 20
1355.820360971038
 30
0.0
 11
4152.849147051547
 21
1555.820360971036
 31
0.0
  0
LEADER
  5
2008D
330
747D
100
AcDbEntity
  8
寸法
 48
50.0
100
AcDbLeader
  3
INABA_S50G
 71
     0
 73
     0
 74
     0
 75
     1
 40
120.0
 41
185.591883092037
 76
     3
 10
4206.806939212389
 20
1555.820360971036
 30
0.0
 10
4362.070521783565
 20
1768.672278779804
 30
0.0
 10
4487.070521783565
 20
1768.672278779804
 30
0.0
340
2008E
213
67.73172584638814
223
0.0
233
0.0
1001
ACAD
1000
DSTYLE
1002
{
1070
    40
1040
1.0
1002
}
  0
MTEXT
  5
2008E
102
{ACAD_REACTORS
330
2008D
102
}
330
747D
100
AcDbEntity
  8
寸法
 62
     7
 48
50.0
100
AcDbMText
 10
4444.338795937177
 20
1853.672278779804
 30
0.0
 40
120.0
 41
1.0
 71
     4
 72
     1
  1
\A1;C.B
  7
STYLE1
 73
     1
 44
1.0
1001
ACAD
1000
MTEXTBEGIN
1070
    73
1070
     1
1070
    44
1040
1.0
1070
    74
1070
     0
1000
MTEXTEND
  0
TEXT
  5
2008F
330
747D
100
AcDbEntity
  8
部品1
100
AcDbText
 10
3947.533209642961
 20
2523.031790537603
 30
0.0
 40
120.0
  1
基礎詳細
  7
STYLE2
100
AcDbText
  0
LINE
  5
20090
330
747D
100
AcDbEntity
  8
細線
100
AcDbLine
 10
4395.275553922736
 20
1355.820360971038
 30
0.0
 11
4195.27555392274
 21
1555.820360971036
 31
0.0
  0
LINE
  5
20091
330
747D
100
AcDbEntity
  8
Ｇ．Ｌ
100
AcDbLine
 10
3576.705933167064
 20
1355.820360971038
 30
0.0
 11
5007.599216990223
 21
1355.820360971038
 31
0.0
  0
LINE
  5
20092
330
747D
100
AcDbEntity
  8
部品1
100
AcDbLine
 10
4006.806939212391
 20
1555.820360971036
 30
0.0
 11
4406.806939212387
 21
1555.820360971036
 31
0.0
  0
LINE
  5
20093
330
747D
100
AcDbEntity
  8
部品1
100
AcDbLine
 10
3906.806939212387
 20
1255.820360971034
 30
0.0
 11
4506.806939212387
 21
1255.820360971036
 31
0.0
  0
LINE
  5
20094
330
747D
100
AcDbEntity
  8
部品1
100
AcDbLine
 10
3906.806939212387
 20
1055.820360971033
 30
0.0
 11
4506.806939212387
 21
1055.820360971036
 31
0.0
  0
LINE
  5
20095
330
747D
100
AcDbEntity
  8
部品1
 48
50.0
100
AcDbLine
 10
3481.933188638163
 20
2815.059573359282
 30
0.0
 11
3481.933188638163
 21
415.0595733592817
 31
0.0
  0
LINE
  5
20096
330
747D
100
AcDbEntity
  8
細線
100
AcDbLine
 10
4006.806939212391
 20
1255.820360971034
 30
0.0
 11
4060.39677769861
 21
1055.820360971031
 31
0.0
  0
LINE
  5
20097
330
747D
100
AcDbEntity
  8
細線
100
AcDbLine
 10
4106.806939212387
 20
1255.820360971036
 30
0.0
 11
4160.39677769861
 21
1055.820360971033
 31
0.0
  0
LINE
  5
20098
330
747D
100
AcDbEntity
  8
細線
100
AcDbLine
 10
4206.806939212387
 20
1255.820360971036
 30
0.0
 11
4260.396777698614
 21
1055.820360971033
 31
0.0
  0
LINE
  5
20099
330
747D
100
AcDbEntity
  8
細線
100
AcDbLine
 10
3906.806939212387
 20
1255.820360971034
 30
0.0
 11
3960.396777698614
 21
1055.820360971031
 31
0.0
  0
LINE
  5
2009A
330
747D
100
AcDbEntity
  8
部品1
100
AcDbLine
 10
3906.806939212387
 20
1055.820360971033
 30
0.0
 11
3906.806939212387
 21
1355.820360971038
 31
0.0
  0
LINE
  5
2009B
330
747D
100
AcDbEntity
  8
細線
100
AcDbLine
 10
4046.999318077058
 20
1105.820360971034
 30
0.0
 11
4033.601858455498
 21
1055.820360971033
 31
0.0
  0
LINE
  5
2009C
330
747D
100
AcDbEntity
  8
細線
100
AcDbLine
 10
3946.999318077054
 20
1105.820360971034
 30
0.0
 11
3933.601858455499
 21
1055.820360971033
 31
0.0
  0
LINE
  5
2009D
330
747D
100
AcDbEntity
  8
細線
100
AcDbLine
 10
4146.999318077054
 20
1105.820360971036
 30
0.0
 11
4133.601858455501
 21
1055.820360971036
 31
0.0
  0
LINE
  5
2009E
330
747D
100
AcDbEntity
  8
細線
100
AcDbLine
 10
4246.999318077054
 20
1105.820360971036
 30
0.0
 11
4233.601858455498
 21
1055.820360971036
 31
0.0
  0
LINE
  5
2009F
330
747D
100
AcDbEntity
  8
部品1
100
AcDbLine
 10
4006.806939212391
 20
1355.820360971038
 30
0.0
 11
4006.806939212391
 21
1555.820360971036
 31
0.0
  0
LINE
  5
200A0
330
747D
100
AcDbEntity
  8
細線
100
AcDbLine
 10
4169.001383943043
 20
1355.820360971038
 30
0.0
 11
4006.806939212387
 21
1518.01480570169
 31
0.0
  0
LINE
  5
200A1
330
747D
100
AcDbEntity
  8
細線
100
AcDbLine
 10
4033.988240167881
 20
1255.820360971036
 30
0.0
 11
4133.988240167877
 21
1355.820360971038
 31
0.0
  0
LINE
  5
200A2
330
747D
100
AcDbEntity
  8
細線
100
AcDbLine
 10
4126.57497707185
 20
1355.820360971038
 30
0.0
 11
4006.806939212391
 21
1475.588398830497
 31
0.0
  0
LINE
  5
200A3
330
747D
100
AcDbEntity
  8
細線
100
AcDbLine
 10
4005.703968920417
 20
1255.820360971036
 30
0.0
 11
4105.703968920414
 21
1355.820360971038
 31
0.0
  0
LINE
  5
200A4
330
747D
100
AcDbEntity
  8
細線
100
AcDbLine
 10
3977.419697672955
 20
1255.820360971034
 30
0.0
 11
4077.419697672954
 21
1355.820360971038
 31
0.0
  0
LINE
  5
200A5
330
747D
100
AcDbEntity
  8
細線
100
AcDbLine
 10
4033.601858455498
 20
1255.820360971034
 30
0.0
 11
4020.204398833942
 21
1205.820360971032
 31
0.0
  0
LINE
  5
200A6
330
747D
100
AcDbEntity
  8
細線
100
AcDbLine
 10
3933.601858455499
 20
1255.820360971034
 30
0.0
 11
3920.204398833947
 21
1205.820360971032
 31
0.0
  0
LINE
  5
200A7
330
747D
100
AcDbEntity
  8
細線
100
AcDbLine
 10
4133.601858455501
 20
1255.820360971036
 30
0.0
 11
4120.204398833942
 21
1205.820360971038
 31
0.0
  0
LINE
  5
200A8
330
747D
100
AcDbEntity
  8
細線
100
AcDbLine
 10
4233.601858455498
 20
1255.820360971036
 30
0.0
 11
4220.204398833947
 21
1205.820360971038
 31
0.0
  0
LINE
  5
200A9
330
747D
100
AcDbEntity
  8
細線
 48
50.0
100
AcDbLine
 10
5319.640890901363
 20
2155.820360971034
 30
0.0
 11
5319.640890901363
 21
1655.820360971036
 31
0.0
  0
LINE
  5
200AA
330
747D
100
AcDbEntity
  8
細線
 48
50.0
100
AcDbLine
 10
5349.640890901362
 20
2155.820360971034
 30
0.0
 11
5349.640890901362
 21
1655.820360971036
 31
0.0
  0
LINE
  5
200AB
330
747D
100
AcDbEntity
  8
細線
 48
50.0
100
AcDbLine
 10
5629.640890901363
 20
2155.820360971034
 30
0.0
 11
5629.640890901363
 21
1655.820360971036
 31
0.0
  0
LINE
  5
200AC
330
747D
100
AcDbEntity
  8
細線
 48
50.0
100
AcDbLine
 10
5599.640890901362
 20
2155.820360971034
 30
0.0
 11
5599.640890901362
 21
1655.820360971036
 31
0.0
  0
LINE
  5
200AD
330
747D
100
AcDbEntity
  8
部品1
 48
50.0
100
AcDbLine
 10
6681.933188638161
 20
2575.059573359282
 30
0.0
 11
6681.933188638161
 21
415.0595733592817
 31
0.0
  0
LINE
  5
200AE
330
747D
100
AcDbEntity
  8
部品1
 48
50.0
100
AcDbLine
 10
5081.933188638163
 20
2815.059573359282
 30
0.0
 11
5081.933188638163
 21
415.0595733592817
 31
0.0
  0
LINE
  5
200AF
330
747D
100
AcDbEntity
  8
部品1
100
AcDbLine
 10
5864.640890901362
 20
2155.820360971034
 30
0.0
 11
5864.640890901362
 21
1355.820360971036
 31
0.0
  0
LINE
  5
200B0
330
747D
100
AcDbEntity
  8
部品1
100
AcDbLine
 10
5754.640890901363
 20
2155.820360971034
 30
0.0
 11
5754.640890901367
 21
1649.820360971038
 31
0.0
  0
LINE
  5
200B1
330
747D
100
AcDbEntity
  8
部品1
100
AcDbLine
 10
5149.386457657769
 20
1649.820360971036
 30
0.0
 11
5864.640890901362
 21
1649.820360971036
 31
0.0
  0
DIMENSION
  5
200B2
330
747D
100
AcDbEntity
  8
寸法
 48
50.0
100
AcDbDimension
  2
*D14
 10
5371.311143825833
 20
955.8203609710364
 30
0.0
 11
5371.311143825833
 21
1143.444994086942
 31
0.0
 70
   160
  1
200
 71
     5
 42
399.9999999999999
  3
INABA_S40G
100
AcDbAlignedDimension
 13
5464.640890901363
 23
1355.820360971036
 33
0.0
 14
5614.640890901362
 24
955.8203609710362
 34
0.0
 50
90.0
100
AcDbRotatedDimension
1001
ACAD
1000
DSTYLE
1002
{
1070
   174
1070
     0
1070
   272
1070
     1
1070
   288
1070
     0
1070
   341
1005
0
1002
}
  0
LINE
  5
200B3
330
747D
100
AcDbEntity
  8
Ｇ．Ｌ
100
AcDbLine
 10
5149.386457657769
 20
1355.820360971036
 30
0.0
 11
5784.640890901362
 21
1355.820360971036
 31
0.0
  0
LINE
  5
200B4
330
747D
100
AcDbEntity
  8
部品1
100
AcDbLine
 10
5149.386457657769
 20
1555.820360971036
 30
0.0
 11
5784.640890901362
 21
1555.820360971036
 31
0.0
  0
LINE
  5
200B5
330
747D
100
AcDbEntity
  8
部品1
100
AcDbLine
 10
5149.386457657769
 20
1655.820360971038
 30
0.0
 11
5754.640890901363
 21
1655.820360971036
 31
0.0
  0
LINE
  5
200B6
330
747D
100
AcDbEntity
  8
細線
100
AcDbLine
 10
4406.806939212387
 20
1255.820360971036
 30
0.0
 11
4460.39677769861
 21
1055.820360971036
 31
0.0
  0
LINE
  5
200B7
330
747D
100
AcDbEntity
  8
細線
100
AcDbLine
 10
4306.806939212391
 20
1255.820360971036
 30
0.0
 11
4360.39677769861
 21
1055.820360971033
 31
0.0
  0
LINE
  5
200B8
330
747D
100
AcDbEntity
  8
部品1
100
AcDbLine
 10
4506.806939212387
 20
1355.820360971038
 30
0.0
 11
4506.806939212387
 21
1055.820360971036
 31
0.0
  0
LINE
  5
200B9
330
747D
100
AcDbEntity
  8
細線
100
AcDbLine
 10
4446.999318077054
 20
1105.820360971036
 30
0.0
 11
4433.601858455502
 21
1055.820360971036
 31
0.0
  0
LINE
  5
200BA
330
747D
100
AcDbEntity
  8
細線
100
AcDbLine
 10
4346.999318077058
 20
1105.820360971036
 30
0.0
 11
4333.601858455498
 21
1055.820360971036
 31
0.0
  0
TEXT
  5
200BB
330
747D
100
AcDbEntity
  8
部品1
100
AcDbText
 10
4630.059565079817
 20
1363.726402649941
 30
0.0
 40
120.0
  1
▽G.L
  7
STYLE1
100
AcDbText
  0
LINE
  5
200BC
330
747D
100
AcDbEntity
  8
部品1
100
AcDbLine
 10
4406.806939212387
 20
1555.820360971036
 30
0.0
 11
4406.806939212387
 21
1355.820360971038
 31
0.0
  0
LINE
  5
200BD
330
747D
100
AcDbEntity
  8
細線
100
AcDbLine
 10
4333.988240167877
 20
1255.820360971036
 30
0.0
 11
4433.988240167876
 21
1355.820360971038
 31
0.0
  0
LINE
  5
200BE
330
747D
100
AcDbEntity
  8
細線
100
AcDbLine
 10
4305.703968920417
 20
1255.820360971036
 30
0.0
 11
4405.703968920414
 21
1355.820360971038
 31
0.0
  0
LINE
  5
200BF
330
747D
100
AcDbEntity
  8
細線
100
AcDbLine
 10
4433.601858455502
 20
1255.820360971036
 30
0.0
 11
4420.204398833942
 21
1205.820360971038
 31
0.0
  0
LINE
  5
200C0
330
747D
100
AcDbEntity
  8
細線
100
AcDbLine
 10
4333.601858455498
 20
1255.820360971036
 30
0.0
 11
4320.204398833943
 21
1205.820360971038
 31
0.0
  0
TEXT
  5
200C1
330
747D
100
AcDbEntity
  8
部品1
100
AcDbText
 10
6249.204437970973
 20
1363.72640264994
 30
0.0
 40
120.0
  1
▽G.L
  7
STYLE1
100
AcDbText
  0
LINE
  5
200C2
330
747D
100
AcDbEntity
  8
細線
  6
HIDDEN
 48
10.0
100
AcDbLine
 10
5899.367619803319
 20
955.820360971038
 30
0.0
 11
6014.640890901361
 21
1071.093632069085
 31
0.0
  0
LINE
  5
200C3
330
747D
100
AcDbEntity
  8
細線
  6
HIDDEN
 48
10.0
100
AcDbLine
 10
5871.083348555858
 20
955.8203609710371
 30
0.0
 11
6014.640890901363
 21
1099.377903316545
 31
0.0
  0
LINE
  5
200C4
330
747D
100
AcDbEntity
  8
細線
  6
HIDDEN
 48
10.0
100
AcDbLine
 10
5927.65189105078
 20
955.820360971038
 30
0.0
 11
6014.640890901361
 21
1042.809360821621
 31
0.0
  0
LINE
  5
200C5
330
747D
100
AcDbEntity
  8
Ｇ．Ｌ
100
AcDbLine
 10
5864.640890901362
 20
1355.820360971036
 30
0.0
 11
6616.7371331397
 21
1355.820360971036
 31
0.0
  0
LINE
  5
200C6
330
747D
100
AcDbEntity
  8
細線
  6
HIDDEN
 48
10.0
100
AcDbLine
 10
5614.640890901363
 20
1097.752020921911
 30
0.0
 11
5777.903216854596
 21
1261.014346875154
 31
0.0
  0
LINE
  5
200C7
330
747D
100
AcDbEntity
  8
細線
  6
HIDDEN
 48
10.0
100
AcDbLine
 10
5614.640890901362
 20
1126.036292169372
 30
0.0
 11
5781.120117051199
 21
1292.515518319213
 31
0.0
  0
LINE
  5
200C8
330
747D
100
AcDbEntity
  8
細線
  6
HIDDEN
 48
10.0
100
AcDbLine
 10
5614.640890901363
 20
1069.46774967445
 30
0.0
 11
5774.686316657986
 21
1229.513175431089
 31
0.0
  0
LINE
  5
200C9
330
747D
100
AcDbEntity
  8
部品1
100
AcDbLine
 10
5783.744121893295
 20
1318.210821669938
 30
0.0
 11
5754.640890901363
 21
1033.220360971036
 31
0.0
  0
LINE
  5
200CA
330
747D
100
AcDbEntity
  8
部品1
100
AcDbLine
 10
5865.537659909438
 20
1318.210821669938
 30
0.0
 11
5894.640890901363
 21
1033.220360971036
 31
0.0
  0
LINE
  5
200CB
330
747D
100
AcDbEntity
  8
部品1
100
AcDbLine
 10
5754.640890901363
 20
1033.220360971036
 30
0.0
 11
5894.640890901363
 21
1033.220360971036
 31
0.0
  0
LINE
  5
200CC
330
747D
100
AcDbEntity
  8
部品1
100
AcDbLine
 10
5754.640890901363
 20
1021.220360971036
 30
0.0
 11
5894.640890901363
 21
1021.220360971036
 31
0.0
  0
LINE
  5
200CD
330
747D
100
AcDbEntity
  8
部品1
100
AcDbLine
 10
5754.640890901363
 20
1033.220360971034
 30
0.0
 11
5754.640890901363
 21
1021.220360971036
 31
0.0
  0
LINE
  5
200CE
330
747D
100
AcDbEntity
  8
細線
100
AcDbLine
 10
5809.640890901363
 20
1045.220360971037
 30
0.0
 11
5839.640890901363
 21
1045.220360971034
 31
0.0
  0
LINE
  5
200CF
330
747D
100
AcDbEntity
  8
細線
100
AcDbLine
 10
5809.640890901363
 20
1051.220360971037
 30
0.0
 11
5839.640890901363
 21
1051.220360971034
 31
0.0
  0
LINE
  5
200D0
330
747D
100
AcDbEntity
  8
細線
100
AcDbLine
 10
5809.640890901363
 20
1091.220360971039
 30
0.0
 11
5839.640890901363
 21
1091.220360971034
 31
0.0
  0
LINE
  5
200D1
330
747D
100
AcDbEntity
  8
細線
100
AcDbLine
 10
5809.640890901363
 20
1085.220360971039
 30
0.0
 11
5839.640890901363
 21
1085.220360971034
 31
0.0
  0
LINE
  5
200D2
330
747D
100
AcDbEntity
  8
細線
100
AcDbLine
 10
5809.640890901363
 20
1051.220360971037
 30
0.0
 11
5809.640890901363
 21
1045.220360971034
 31
0.0
  0
LINE
  5
200D3
330
747D
100
AcDbEntity
  8
細線
100
AcDbLine
 10
5809.640890901363
 20
1091.220360971039
 30
0.0
 11
5809.640890901363
 21
1085.220360971034
 31
0.0
  0
LINE
  5
200D4
330
747D
100
AcDbEntity
  8
細線
100
AcDbLine
 10
5839.640890901363
 20
1051.220360971032
 30
0.0
 11
5839.640890901363
 21
1045.220360971032
 31
0.0
  0
LINE
  5
200D5
330
747D
100
AcDbEntity
  8
細線
100
AcDbLine
 10
5839.640890901363
 20
1091.22036097103
 30
0.0
 11
5839.640890901363
 21
1085.22036097103
 31
0.0
  0
LINE
  5
200D6
330
747D
100
AcDbEntity
  8
部品1
100
AcDbLine
 10
5894.640890901363
 20
1033.220360971036
 30
0.0
 11
5894.640890901363
 21
1021.220360971036
 31
0.0
  0
LINE
  5
200D7
330
747D
100
AcDbEntity
  8
細線
100
AcDbLine
 10
5593.095560464753
 20
1355.820360971036
 30
0.0
 11
5464.640890901363
 21
1484.275030534429
 31
0.0
  0
LINE
  5
200D8
330
747D
100
AcDbEntity
  8
細線
100
AcDbLine
 10
5776.943323573258
 20
1355.820360971036
 30
0.0
 11
5576.943323573257
 21
1555.820360971036
 31
0.0
  0
LINE
  5
200D9
330
747D
100
AcDbEntity
  8
部品1
100
AcDbLine
 10
5464.640890901363
 20
1355.820360971036
 30
0.0
 11
5464.640890901363
 21
1555.820360971036
 31
0.0
  0
LINE
  5
200DA
330
747D
100
AcDbEntity
  8
細線
100
AcDbLine
 10
5550.669153593561
 20
1355.820360971036
 30
0.0
 11
5464.640890901363
 21
1441.848623663236
 31
0.0
  0
LINE
  5
200DB
330
747D
100
AcDbEntity
  8
細線
100
AcDbLine
 10
5784.640890901362
 20
1390.549200514124
 30
0.0
 11
5619.36973044445
 21
1555.820360971036
 31
0.0
  0
LINE
  5
200DC
330
747D
100
AcDbEntity
  8
部品1
100
AcDbLine
 10
5864.640890901362
 20
1618.820360971036
 30
0.0
 11
5864.640890901366
 21
1321.465829959044
 31
0.0
  0
LINE
  5
200DD
330
747D
100
AcDbEntity
  8
部品1
100
AcDbLine
 10
5784.640890901362
 20
1619.820360971036
 30
0.0
 11
5784.640890901362
 21
1321.465829959044
 31
0.0
  0
LINE
  5
200DE
330
747D
100
AcDbEntity
  8
部品1
100
AcDbLine
 10
5793.694950381606
 20
1327.220360971036
 30
0.0
 11
5855.586831421118
 21
1327.22036097103
 31
0.0
  0
ARC
  5
200DF
330
747D
100
AcDbEntity
  8
部品1
100
AcDbCircle
 10
5793.694950381606
 20
1317.220360971034
 30
0.0
 40
10.0
100
AcDbArc
 50
90.0
 51
174.3157584018092
  0
LINE
  5
200E0
330
747D
100
AcDbEntity
  8
細線
  6
HIDDEN
 48
10.0
100
AcDbLine
 10
5864.640890901362
 20
1347.752020921924
 30
0.0
 11
5872.709230950476
 21
1355.820360971036
 31
0.0
  0
LINE
  5
200E1
330
747D
100
AcDbEntity
  8
細線
  6
HIDDEN
 48
10.0
100
AcDbLine
 10
5865.188336558251
 20
1320.015195331354
 30
0.0
 11
5900.993502197933
 21
1355.820360971038
 31
0.0
  0
ARC
  5
200E2
330
747D
100
AcDbEntity
  8
部品1
100
AcDbCircle
 10
5855.586831421118
 20
1317.22036097103
 30
0.0
 40
10.0
100
AcDbArc
 50
5.684241598190771
 51
90.0
  0
CIRCLE
  5
200E3
330
747D
100
AcDbEntity
  8
細線
100
AcDbCircle
 10
5824.640890901362
 20
1459.820360971038
 30
0.0
 40
6.0
  0
CIRCLE
  5
200E4
330
747D
100
AcDbEntity
  8
細線
100
AcDbCircle
 10
5824.640890901362
 20
1459.820360971038
 30
0.0
 40
7.0
  0
CIRCLE
  5
200E5
330
747D
100
AcDbEntity
  8
細線
100
AcDbCircle
 10
5824.640890901362
 20
1304.820360971036
 30
0.0
 40
16.0
  0
LINE
  5
200E6
330
747D
100
AcDbEntity
  8
細線
100
AcDbLine
 10
5809.640890901363
 20
1235.220360971038
 30
0.0
 11
5810.640890901362
 21
1235.220360971038
 31
0.0
  0
LINE
  5
200E7
330
747D
100
AcDbEntity
  8
細線
100
AcDbLine
 10
5809.640890901363
 20
1241.220360971038
 30
0.0
 11
5839.640890901363
 21
1241.220360971034
 31
0.0
  0
ARC
  5
200E8
330
747D
100
AcDbEntity
  8
細線
100
AcDbCircle
 10
5824.640890901362
 20
1265.220360971032
 30
0.0
 40
8.0
100
AcDbArc
 50
180.0
 51
0.0
  0
LINE
  5
200E9
330
747D
100
AcDbEntity
  8
細線
100
AcDbLine
 10
5809.640890901363
 20
1241.220360971038
 30
0.0
 11
5809.640890901363
 21
1235.220360971034
 31
0.0
  0
LINE
  5
200EA
330
747D
100
AcDbEntity
  8
細線
100
AcDbLine
 10
5809.640890901363
 20
1239.82036097103
 30
0.0
 11
5839.640890901363
 21
1239.820360971036
 31
0.0
  0
LINE
  5
200EB
330
747D
100
AcDbEntity
  8
細線
100
AcDbLine
 10
5816.763996526985
 20
1223.220360971027
 30
0.0
 11
5832.517785275747
 21
1223.220360971032
 31
0.0
  0
LINE
  5
200EC
330
747D
100
AcDbEntity
  8
細線
100
AcDbLine
 10
5810.640890901362
 20
1239.82036097103
 30
0.0
 11
5810.640890901362
 21
1235.220360971034
 31
0.0
  0
LINE
  5
200ED
330
747D
100
AcDbEntity
  8
細線
100
AcDbLine
 10
5810.640890901362
 20
1235.220360971032
 30
0.0
 11
5812.883426526401
 21
1226.250218470883
 31
0.0
  0
ARC
  5
200EE
330
747D
100
AcDbEntity
  8
細線
100
AcDbCircle
 10
5816.763996526985
 20
1227.220360971029
 30
0.0
 40
4.0
100
AcDbArc
 50
194.0362434679644
 51
270.0
  0
LINE
  5
200EF
330
747D
100
AcDbEntity
  8
細線
100
AcDbLine
 10
5838.640890901363
 20
1239.820360971032
 30
0.0
 11
5838.640890901363
 21
1235.220360971034
 31
0.0
  0
LINE
  5
200F0
330
747D
100
AcDbEntity
  8
細線
100
AcDbLine
 10
5838.640890901363
 20
1235.220360971032
 30
0.0
 11
5836.398355276323
 21
1226.250218470883
 31
0.0
  0
ARC
  5
200F1
330
747D
100
AcDbEntity
  8
細線
100
AcDbCircle
 10
5832.517785275747
 20
1227.22036097103
 30
0.0
 40
4.0
100
AcDbArc
 50
270.0
 51
345.9637565320356
  0
LINE
  5
200F2
330
747D
100
AcDbEntity
  8
細線
100
AcDbLine
 10
5839.640890901363
 20
1241.220360971032
 30
0.0
 11
5839.640890901363
 21
1235.220360971032
 31
0.0
  0
LINE
  5
200F3
330
747D
100
AcDbEntity
  8
細線
100
AcDbLine
 10
5838.640890901363
 20
1235.220360971038
 30
0.0
 11
5839.640890901363
 21
1235.220360971034
 31
0.0
  0
LINE
  5
200F4
330
747D
100
AcDbEntity
  8
細線
100
AcDbLine
 10
5832.640890901362
 20
1290.963954510485
 30
0.0
 11
5832.640890901362
 21
1265.220360971032
 31
0.0
  0
LINE
  5
200F5
330
747D
100
AcDbEntity
  8
細線
100
AcDbLine
 10
5816.640890901362
 20
1290.963954510485
 30
0.0
 11
5816.640890901362
 21
1265.220360971032
 31
0.0
  0
LINE
  5
200F6
330
747D
100
AcDbEntity
  8
部品1
100
AcDbLine
 10
5794.640890901362
 20
1629.820360971036
 30
0.0
 11
5854.640890901363
 21
1629.820360971036
 31
0.0
  0
ARC
  5
200F7
330
747D
100
AcDbEntity
  8
部品1
100
AcDbCircle
 10
5794.640890901362
 20
1619.820360971036
 30
0.0
 40
10.0
100
AcDbArc
 50
90.0
 51
180.0
  0
ARC
  5
200F8
330
747D
100
AcDbEntity
  8
細線
100
AcDbCircle
 10
5824.640890901362
 20
1569.820360971036
 30
0.0
 40
8.0
100
AcDbArc
 50
0.0
 51
180.0
  0
ARC
  5
200F9
330
747D
100
AcDbEntity
  8
細線
100
AcDbCircle
 10
5824.640890901362
 20
1529.820360971036
 30
0.0
 40
8.0
100
AcDbArc
 50
180.0
 51
0.0
  0
LINE
  5
200FA
330
747D
100
AcDbEntity
  8
細線
100
AcDbLine
 10
5816.640890901362
 20
1569.820360971036
 30
0.0
 11
5816.640890901362
 21
1529.820360971036
 31
0.0
  0
LINE
  5
200FB
330
747D
100
AcDbEntity
  8
細線
100
AcDbLine
 10
5832.640890901362
 20
1569.820360971036
 30
0.0
 11
5832.640890901362
 21
1529.820360971036
 31
0.0
  0
ARC
  5
200FC
330
747D
100
AcDbEntity
  8
部品1
100
AcDbCircle
 10
5854.640890901363
 20
1619.820360971036
 30
0.0
 40
10.0
100
AcDbArc
 50
0.0
 51
90.0
  0
CIRCLE
  5
200FD
330
747D
100
AcDbEntity
  8
部品1
100
AcDbCircle
 10
5824.640890901362
 20
1599.820360971036
 30
0.0
 40
16.0
  0
TEXT
  5
200FE
330
747D
100
AcDbEntity
  8
部品1
100
AcDbText
 10
5294.086550076732
 20
2393.344689700485
 30
0.0
 40
120.0
  1
地盤が土の場合
  7
STYLE2
100
AcDbText
  0
TEXT
  5
200FF
330
747D
100
AcDbEntity
  8
部品1
100
AcDbText
 10
9428.099231279233
 20
1363.72640264994
 30
0.0
 40
120.0
  1
▽G.L
  7
STYLE1
100
AcDbText
  0
LINE
  5
20100
330
747D
100
AcDbEntity
  8
細線
 48
10.0
100
AcDbLine
 10
9448.820686266092
 20
1048.902163631752
 30
0.0
 11
9755.738883605374
 21
1355.820360971036
 31
0.0
  0
LINE
  5
20101
330
747D
100
AcDbEntity
  8
細線
 48
10.0
100
AcDbLine
 10
9420.536415018625
 20
1048.902163631752
 30
0.0
 11
9727.454612357899
 21
1355.820360971036
 31
0.0
  0
LINE
  5
20102
330
747D
100
AcDbEntity
  8
細線
 48
10.0
100
AcDbLine
 10
9392.252143771168
 20
1048.902163631752
 30
0.0
 11
9699.170341110447
 21
1355.820360971036
 31
0.0
  0
LINE
  5
20103
330
747D
100
AcDbEntity
  8
Ｇ．Ｌ
100
AcDbLine
 10
8355.231599828735
 20
1355.820360971036
 30
0.0
 11
9800.123301833883
 21
1355.820360971036
 31
0.0
  0
LINE
  5
20104
330
747D
100
AcDbEntity
  8
部品1
100
AcDbLine
 10
8868.028996627447
 20
2255.820360971034
 30
0.0
 11
8868.028996627449
 21
1749.820360971038
 31
0.0
  0
LINE
  5
20105
330
747D
100
AcDbEntity
  8
部品1
100
AcDbLine
 10
8978.028996627447
 20
2255.820360971034
 30
0.0
 11
8978.02899662745
 21
1756.065829959043
 31
0.0
  0
LINE
  5
20106
330
747D
100
AcDbEntity
  8
細線
 48
50.0
100
AcDbLine
 10
8433.028996627443
 20
2255.820360971034
 30
0.0
 11
8433.028996627443
 21
1755.820360971038
 31
0.0
  0
LINE
  5
20107
330
747D
100
AcDbEntity
  8
細線
 48
50.0
100
AcDbLine
 10
8463.028996627443
 20
2255.820360971034
 30
0.0
 11
8463.028996627443
 21
1755.820360971038
 31
0.0
  0
LINE
  5
20108
330
747D
100
AcDbEntity
  8
細線
 48
50.0
100
AcDbLine
 10
8713.028996627443
 20
2255.820360971034
 30
0.0
 11
8713.028996627443
 21
1755.820360971038
 31
0.0
  0
LINE
  5
20109
330
747D
100
AcDbEntity
  8
細線
 48
50.0
100
AcDbLine
 10
8743.028996627442
 20
2255.820360971034
 30
0.0
 11
8743.028996627442
 21
1755.820360971038
 31
0.0
  0
LINE
  5
2010A
330
747D
100
AcDbEntity
  8
部品1
100
AcDbLine
 10
7357.696391914466
 20
2155.820360971036
 30
0.0
 11
7357.696391914469
 21
1649.820360971039
 31
0.0
  0
LINE
  5
2010B
330
747D
100
AcDbEntity
  8
細線
 48
50.0
100
AcDbLine
 10
7232.696391914462
 20
2155.820360971036
 30
0.0
 11
7232.696391914462
 21
1655.820360971038
 31
0.0
  0
LINE
  5
2010C
330
747D
100
AcDbEntity
  8
細線
 48
50.0
100
AcDbLine
 10
7202.696391914462
 20
2155.820360971036
 30
0.0
 11
7202.696391914462
 21
1655.820360971038
 31
0.0
  0
LINE
  5
2010D
330
747D
100
AcDbEntity
  8
細線
 48
50.0
100
AcDbLine
 10
6952.696391914462
 20
2155.820360971036
 30
0.0
 11
6952.696391914462
 21
1655.820360971038
 31
0.0
  0
LINE
  5
2010E
330
747D
100
AcDbEntity
  8
細線
 48
50.0
100
AcDbLine
 10
6922.696391914462
 20
2155.820360971036
 30
0.0
 11
6922.696391914462
 21
1655.820360971038
 31
0.0
  0
LINE
  5
2010F
330
747D
100
AcDbEntity
  8
部品1
100
AcDbLine
 10
7467.696391914465
 20
2155.820360971036
 30
0.0
 11
7467.696391914469
 21
1656.065829959043
 31
0.0
  0
LINE
  5
20110
330
747D
100
AcDbEntity
  8
部品1
 48
50.0
100
AcDbLine
 10
8281.933188638161
 20
2335.059573359282
 30
0.0
 11
8281.933188638161
 21
415.0595733592817
 31
0.0
  0
LINE
  5
20111
330
747D
100
AcDbEntity
  8
細線
 48
10.0
100
AcDbLine
 10
7364.832255644852
 20
1048.902163631752
 30
0.0
 11
7671.750452984125
 21
1355.820360971036
 31
0.0
  0
LINE
  5
20112
330
747D
100
AcDbEntity
  8
細線
 48
10.0
100
AcDbLine
 10
7336.547984397391
 20
1048.902163631752
 30
0.0
 11
7643.466181736664
 21
1355.820360971036
 31
0.0
  0
LINE
  5
20113
330
747D
100
AcDbEntity
  8
細線
 48
10.0
100
AcDbLine
 10
7393.116526892312
 20
1048.902163631752
 30
0.0
 11
7700.034724231591
 21
1355.820360971036
 31
0.0
  0
DIMENSION
  5
20114
330
747D
100
AcDbEntity
  8
寸法
 48
50.0
100
AcDbDimension
  2
*D15
 10
7700.460402482871
 20
1355.820360971036
 30
0.0
 11
7600.460402482871
 21
1455.820360971038
 31
0.0
 70
    32
  1
b
 71
     5
 42
200.0000000000018
  3
INABA_S40G
100
AcDbAlignedDimension
 13
7478.247155019971
 23
1555.820360971038
 33
0.0
 14
7497.696391914463
 24
1355.820360971036
 34
0.0
 50
90.0
100
AcDbRotatedDimension
1001
ACAD
1000
DSTYLE
1002
{
1070
   174
1070
     0
1070
   272
1070
     1
1070
   288
1070
     0
1070
   341
1005
0
1002
}
  0
LINE
  5
20115
330
747D
100
AcDbEntity
  8
Ｇ．Ｌ
100
AcDbLine
 10
6752.441958670871
 20
1355.820360971036
 30
0.0
 11
8216.477197435153
 21
1355.820360971036
 31
0.0
  0
LINE
  5
20116
330
747D
100
AcDbEntity
  8
細線
 48
10.0
100
AcDbLine
 10
6938.173866792029
 20
1048.902163631752
 30
0.0
 11
7245.092064131299
 21
1355.820360971036
 31
0.0
  0
LINE
  5
20117
330
747D
100
AcDbEntity
  8
細線
 48
10.0
100
AcDbLine
 10
6909.889595544566
 20
1048.902163631752
 30
0.0
 11
7216.807792883843
 21
1355.820360971036
 31
0.0
  0
LINE
  5
20118
330
747D
100
AcDbEntity
  8
細線
 48
10.0
100
AcDbLine
 10
6966.458138039491
 20
1048.902163631752
 30
0.0
 11
7273.376335378751
 21
1355.820360971036
 31
0.0
  0
LINE
  5
20119
330
747D
100
AcDbEntity
  8
部品1
100
AcDbLine
 10
6752.441958670869
 20
1555.820360971038
 30
0.0
 11
7376.894955308708
 21
1555.820360971038
 31
0.0
  0
LINE
  5
2011A
330
747D
100
AcDbEntity
  8
部品1
100
AcDbLine
 10
6752.441958670869
 20
1655.82036097104
 30
0.0
 11
7357.696391914466
 21
1655.820360971038
 31
0.0
  0
LINE
  5
2011B
330
747D
100
AcDbEntity
  8
部品1
100
AcDbLine
 10
6752.441958670869
 20
1649.820360971039
 30
0.0
 11
7386.494237005827
 21
1649.820360971039
 31
0.0
  0
LINE
  5
2011C
330
747D
100
AcDbEntity
  8
細線
100
AcDbLine
 10
7153.724654606659
 20
1355.820360971036
 30
0.0
 11
7067.696391914463
 21
1441.848623663236
 31
0.0
  0
LINE
  5
2011D
330
747D
100
AcDbEntity
  8
細線
100
AcDbLine
 10
7196.151061477853
 20
1355.820360971036
 30
0.0
 11
7067.696391914463
 21
1484.275030534429
 31
0.0
  0
LINE
  5
2011E
330
747D
100
AcDbEntity
  8
部品1
100
AcDbLine
 10
7067.696391914463
 20
1355.820360971036
 30
0.0
 11
7067.696391914463
 21
1555.820360971038
 31
0.0
  0
LINE
  5
2011F
330
747D
100
AcDbEntity
  8
細線
 48
10.0
100
AcDbLine
 10
6752.441958670869
 20
1318.112915610902
 30
0.0
 11
6790.149404031007
 21
1355.820360971036
 31
0.0
  0
LINE
  5
20120
330
747D
100
AcDbEntity
  8
細線
 48
10.0
100
AcDbLine
 10
6752.441958670871
 20
1261.544373115986
 30
0.0
 11
6846.71794652591
 21
1355.820360971036
 31
0.0
  0
LINE
  5
20121
330
747D
100
AcDbEntity
  8
細線
 48
10.0
100
AcDbLine
 10
6752.441958670871
 20
1289.828644363446
 30
0.0
 11
6818.433675278459
 21
1355.820360971036
 31
0.0
  0
LINE
  5
20122
330
747D
100
AcDbEntity
  8
細線
100
AcDbLine
 10
7358.650992677744
 20
1377.168192879651
 30
0.0
 11
7179.998824586357
 21
1555.820360971036
 31
0.0
  0
LINE
  5
20123
330
747D
100
AcDbEntity
  8
細線
100
AcDbLine
 10
7362.582130271381
 20
1415.663462157208
 30
0.0
 11
7222.425231457549
 21
1555.820360971036
 31
0.0
  0
LINE
  5
20124
330
747D
100
AcDbEntity
  8
部品1
100
AcDbLine
 10
7468.593160922537
 20
1652.810821669938
 30
0.0
 11
7497.696391914463
 21
1367.820360971036
 31
0.0
  0
LINE
  5
20125
330
747D
100
AcDbEntity
  8
部品1
100
AcDbLine
 10
7386.799622906393
 20
1652.810821669938
 30
0.0
 11
7357.696391914462
 21
1367.820360971036
 31
0.0
  0
LINE
  5
20126
330
747D
100
AcDbEntity
  8
部品1
100
AcDbLine
 10
7357.696391914462
 20
1367.820360971036
 30
0.0
 11
7497.696391914463
 21
1367.820360971036
 31
0.0
  0
LINE
  5
20127
330
747D
100
AcDbEntity
  8
部品1
100
AcDbLine
 10
7357.696391914462
 20
1355.820360971036
 30
0.0
 11
7497.696391914463
 21
1355.820360971036
 31
0.0
  0
LINE
  5
20128
330
747D
100
AcDbEntity
  8
部品1
100
AcDbLine
 10
7357.696391914462
 20
1367.820360971036
 30
0.0
 11
7357.696391914462
 21
1355.820360971036
 31
0.0
  0
LINE
  5
20129
330
747D
100
AcDbEntity
  8
部品1
100
AcDbLine
 10
7412.696391914462
 20
1422.220360971039
 30
0.0
 11
7442.696391914463
 21
1422.220360971039
 31
0.0
  0
LINE
  5
2012A
330
747D
100
AcDbEntity
  8
部品1
100
AcDbLine
 10
7412.696391914462
 20
1428.220360971039
 30
0.0
 11
7442.696391914463
 21
1428.220360971039
 31
0.0
  0
LINE
  5
2012B
330
747D
100
AcDbEntity
  8
部品1
100
AcDbLine
 10
7412.696391914462
 20
1388.220360971039
 30
0.0
 11
7417.696391914462
 21
1388.220360971039
 31
0.0
  0
LINE
  5
2012C
330
747D
100
AcDbEntity
  8
部品1
100
AcDbLine
 10
7412.696391914462
 20
1428.220360971039
 30
0.0
 11
7412.696391914462
 21
1422.220360971039
 31
0.0
  0
LINE
  5
2012D
330
747D
100
AcDbEntity
  8
部品1
100
AcDbLine
 10
7412.696391914462
 20
1388.220360971039
 30
0.0
 11
7412.696391914462
 21
1386.820360971038
 31
0.0
  0
LINE
  5
2012E
330
747D
100
AcDbEntity
  8
部品1
100
AcDbLine
 10
7497.696391914463
 20
1367.820360971036
 30
0.0
 11
7497.696391914463
 21
1355.820360971036
 31
0.0
  0
LINE
  5
2012F
330
747D
100
AcDbEntity
  8
部品1
100
AcDbLine
 10
7442.696391914463
 20
1428.220360971036
 30
0.0
 11
7442.696391914463
 21
1422.220360971036
 31
0.0
  0
LINE
  5
20130
330
747D
100
AcDbEntity
  8
部品1
100
AcDbLine
 10
7442.696391914463
 20
1388.220360971034
 30
0.0
 11
7442.696391914463
 21
1386.820360971038
 31
0.0
  0
LINE
  5
20131
330
747D
100
AcDbEntity
  8
部品1
100
AcDbLine
 10
7397.696391914462
 20
1370.820360971036
 30
0.0
 11
7457.696391914462
 21
1370.820360971042
 31
0.0
  0
LINE
  5
20132
330
747D
100
AcDbEntity
  8
部品1
100
AcDbLine
 10
7417.696391914462
 20
1407.820360971038
 30
0.0
 11
7437.696391914461
 21
1407.820360971038
 31
0.0
  0
LINE
  5
20133
330
747D
100
AcDbEntity
  8
部品1
100
AcDbLine
 10
7417.696391914462
 20
1370.820360971036
 30
0.0
 11
7417.696391914462
 21
1407.820360971038
 31
0.0
  0
LINE
  5
20134
330
747D
100
AcDbEntity
  8
部品1
100
AcDbLine
 10
7437.696391914461
 20
1370.820360971036
 30
0.0
 11
7437.696391914461
 21
1407.820360971038
 31
0.0
  0
LINE
  5
20135
330
747D
100
AcDbEntity
  8
部品1
100
AcDbLine
 10
7410.696391914462
 20
1386.820360971038
 30
0.0
 11
7444.696391914462
 21
1386.820360971038
 31
0.0
  0
LINE
  5
20136
330
747D
100
AcDbEntity
  8
部品1
100
AcDbLine
 10
7407.696391914462
 20
1370.820360971036
 30
0.0
 11
7407.696391914462
 21
1383.820360971038
 31
0.0
  0
LINE
  5
20137
330
747D
100
AcDbEntity
  8
部品1
100
AcDbLine
 10
7447.696391914462
 20
1370.820360971042
 30
0.0
 11
7447.696391914462
 21
1383.820360971038
 31
0.0
  0
LINE
  5
20138
330
747D
100
AcDbEntity
  8
部品1
100
AcDbLine
 10
7410.696391914462
 20
1386.820360971038
 30
0.0
 11
7407.696391914462
 21
1383.820360971038
 31
0.0
  0
LINE
  5
20139
330
747D
100
AcDbEntity
  8
部品1
100
AcDbLine
 10
7444.696391914462
 20
1386.820360971038
 30
0.0
 11
7447.696391914462
 21
1383.820360971038
 31
0.0
  0
LINE
  5
2013A
330
747D
100
AcDbEntity
  8
部品1
100
AcDbLine
 10
7397.696391914462
 20
1367.820360971036
 30
0.0
 11
7397.696391914462
 21
1370.820360971036
 31
0.0
  0
LINE
  5
2013B
330
747D
100
AcDbEntity
  8
部品1
100
AcDbLine
 10
7457.696391914462
 20
1367.820360971036
 30
0.0
 11
7457.696391914462
 21
1370.820360971045
 31
0.0
  0
LINE
  5
2013C
330
747D
100
AcDbEntity
  8
部品1
100
AcDbLine
 10
7437.696391914461
 20
1388.220360971039
 30
0.0
 11
7442.696391914463
 21
1388.220360971039
 31
0.0
  0
LINE
  5
2013D
330
747D
100
AcDbEntity
  8
部品1
100
AcDbLine
 10
7407.696391914462
 20
1383.820360971038
 30
0.0
 11
7447.696391914462
 21
1383.820360971038
 31
0.0
  0
ARC
  5
2013E
330
747D
100
AcDbEntity
  8
部品1
100
AcDbCircle
 10
7412.696391914462
 20
1379.30560618072
 30
0.0
 40
6.736691384996243
100
AcDbArc
 50
42.08048849858703
 51
137.9195115014129
  0
ARC
  5
2013F
330
747D
100
AcDbEntity
  8
部品1
100
AcDbCircle
 10
7442.696391914463
 20
1379.30560618072
 30
0.0
 40
6.736691384996243
100
AcDbArc
 50
42.08048849858703
 51
137.9195115014129
  0
ARC
  5
20140
330
747D
100
AcDbEntity
  8
部品1
100
AcDbCircle
 10
7427.696391914462
 20
1362.731727750219
 30
0.0
 40
23.33946124318486
100
AcDbArc
 50
64.63020194521864
 51
115.3697980547813
  0
LINE
  5
20141
330
747D
100
AcDbEntity
  8
部品1
100
AcDbLine
 10
7420.696391914463
 20
1420.073256994698
 30
0.0
 11
7434.696391914461
 21
1420.073256994698
 31
0.0
  0
LINE
  5
20142
330
747D
100
AcDbEntity
  8
部品1
100
AcDbLine
 10
7422.696391914462
 20
1407.820360971038
 30
0.0
 11
7422.696391914462
 21
1416.073256994697
 31
0.0
  0
LINE
  5
20143
330
747D
100
AcDbEntity
  8
部品1
100
AcDbLine
 10
7432.696391914461
 20
1407.820360971038
 30
0.0
 11
7432.696391914461
 21
1416.073256994697
 31
0.0
  0
LINE
  5
20144
330
747D
100
AcDbEntity
  8
部品1
100
AcDbLine
 10
7420.696391914463
 20
1416.073256994697
 30
0.0
 11
7420.696391914463
 21
1420.073256994698
 31
0.0
  0
LINE
  5
20145
330
747D
100
AcDbEntity
  8
部品1
100
AcDbLine
 10
7434.696391914461
 20
1416.073256994697
 30
0.0
 11
7434.696391914461
 21
1420.073256994698
 31
0.0
  0
LINE
  5
20146
330
747D
100
AcDbEntity
  8
部品1
100
AcDbLine
 10
7420.696391914463
 20
1416.073256994697
 30
0.0
 11
7434.696391914461
 21
1416.073256994697
 31
0.0
  0
LINE
  5
20147
330
747D
100
AcDbEntity
  8
部品1
100
AcDbLine
 10
7417.696391914462
 20
1355.820360971036
 30
0.0
 11
7417.696391914462
 21
1320.420360971036
 31
0.0
  0
LINE
  5
20148
330
747D
100
AcDbEntity
  8
部品1
100
AcDbLine
 10
7437.696391914461
 20
1355.820360971036
 30
0.0
 11
7437.696391914461
 21
1320.420360971036
 31
0.0
  0
LINE
  5
20149
330
747D
100
AcDbEntity
  8
部品1
100
AcDbLine
 10
7425.785891280924
 20
1320.420360971036
 30
0.0
 11
7429.606892548
 21
1320.420360971036
 31
0.0
  0
LINE
  5
2014A
330
747D
100
AcDbEntity
  8
部品1
100
AcDbLine
 10
7417.696391914462
 20
1320.420360971036
 30
0.0
 11
7411.696391914462
 21
1280.420360971036
 31
0.0
  0
LINE
  5
2014B
330
747D
100
AcDbEntity
  8
部品1
100
AcDbLine
 10
7443.696391914461
 20
1280.420360971036
 30
0.0
 11
7437.696391914461
 21
1320.420360971036
 31
0.0
  0
LINE
  5
2014C
330
747D
100
AcDbEntity
  8
部品1
100
AcDbLine
 10
7425.785891280924
 20
1320.420360971036
 30
0.0
 11
7419.607882737408
 21
1279.233637347597
 31
0.0
  0
LINE
  5
2014D
330
747D
100
AcDbEntity
  8
部品1
100
AcDbLine
 10
7435.784901091516
 20
1279.233637347597
 30
0.0
 11
7429.606892548
 21
1320.420360971036
 31
0.0
  0
LINE
  5
2014E
330
747D
100
AcDbEntity
  8
部品1
100
AcDbLine
 10
7411.696391914462
 20
1280.420360971036
 30
0.0
 11
7419.607882737408
 21
1279.233637347597
 31
0.0
  0
LINE
  5
2014F
330
747D
100
AcDbEntity
  8
部品1
100
AcDbLine
 10
7435.784901091516
 20
1279.233637347597
 30
0.0
 11
7443.696391914461
 21
1280.420360971036
 31
0.0
  0
LINE
  5
20150
330
747D
100
AcDbEntity
  8
部品1
100
AcDbLine
 10
7412.586434632046
 20
1286.353979088246
 30
0.0
 11
7420.497925454991
 21
1285.167255464803
 31
0.0
  0
LINE
  5
20151
330
747D
100
AcDbEntity
  8
部品1
100
AcDbLine
 10
7413.476477349622
 20
1292.287597205455
 30
0.0
 11
7421.387968172567
 21
1291.100873582012
 31
0.0
  0
LINE
  5
20152
330
747D
100
AcDbEntity
  8
部品1
100
AcDbLine
 10
7414.366520067204
 20
1298.221215322663
 30
0.0
 11
7422.27801089015
 21
1297.034491699222
 31
0.0
  0
LINE
  5
20153
330
747D
100
AcDbEntity
  8
部品1
100
AcDbLine
 10
7415.256562784787
 20
1304.154833439874
 30
0.0
 11
7423.168053607733
 21
1302.968109816434
 31
0.0
  0
LINE
  5
20154
330
747D
100
AcDbEntity
  8
部品1
100
AcDbLine
 10
7416.146605502364
 20
1310.088451557083
 30
0.0
 11
7424.058096325309
 21
1308.90172793364
 31
0.0
  0
LINE
  5
20155
330
747D
100
AcDbEntity
  8
部品1
100
AcDbLine
 10
7417.036648219947
 20
1316.022069674293
 30
0.0
 11
7424.948139042893
 21
1314.835346050849
 31
0.0
  0
LINE
  5
20156
330
747D
100
AcDbEntity
  8
部品1
100
AcDbLine
 10
7434.894858373933
 20
1285.167255464803
 30
0.0
 11
7442.806349196885
 21
1286.353979088246
 31
0.0
  0
LINE
  5
20157
330
747D
100
AcDbEntity
  8
部品1
100
AcDbLine
 10
7434.004815656357
 20
1291.100873582012
 30
0.0
 11
7441.916306479303
 21
1292.287597205455
 31
0.0
  0
LINE
  5
20158
330
747D
100
AcDbEntity
  8
部品1
100
AcDbLine
 10
7433.114772938774
 20
1297.034491699222
 30
0.0
 11
7441.026263761719
 21
1298.221215322663
 31
0.0
  0
LINE
  5
20159
330
747D
100
AcDbEntity
  8
部品1
100
AcDbLine
 10
7432.224730221197
 20
1302.968109816434
 30
0.0
 11
7440.136221044143
 21
1304.154833439874
 31
0.0
  0
LINE
  5
2015A
330
747D
100
AcDbEntity
  8
部品1
100
AcDbLine
 10
7431.334687503614
 20
1308.90172793364
 30
0.0
 11
7439.24617832656
 21
1310.088451557083
 31
0.0
  0
LINE
  5
2015B
330
747D
100
AcDbEntity
  8
部品1
100
AcDbLine
 10
7430.444644786032
 20
1314.835346050849
 30
0.0
 11
7438.356135608977
 21
1316.022069674293
 31
0.0
  0
ARC
  5
2015C
330
747D
100
AcDbEntity
  8
部品1
100
AcDbCircle
 10
7396.750451394706
 20
1651.820360971038
 30
0.0
 40
10.0
100
AcDbArc
 50
90.0
 51
174.3157584018092
  0
CIRCLE
  5
2015D
330
747D
100
AcDbEntity
  8
部品1
100
AcDbCircle
 10
7427.696391914462
 20
1599.820360971036
 30
0.0
 40
16.0
  0
LINE
  5
2015E
330
747D
100
AcDbEntity
  8
細線
100
AcDbLine
 10
7412.696391914462
 20
1575.820360971038
 30
0.0
 11
7442.696391914463
 21
1575.820360971038
 31
0.0
  0
LINE
  5
2015F
330
747D
100
AcDbEntity
  8
細線
100
AcDbLine
 10
7419.696391914462
 20
1639.820360971034
 30
0.0
 11
7419.696391914462
 21
1613.676767431589
 31
0.0
  0
LINE
  5
20160
330
747D
100
AcDbEntity
  8
細線
100
AcDbLine
 10
7435.696391914461
 20
1639.820360971034
 30
0.0
 11
7435.696391914461
 21
1613.676767431589
 31
0.0
  0
ARC
  5
20161
330
747D
100
AcDbEntity
  8
細線
100
AcDbCircle
 10
7427.696391914462
 20
1639.820360971034
 30
0.0
 40
8.0
100
AcDbArc
 50
0.0
 51
180.0
  0
LINE
  5
20162
330
747D
100
AcDbEntity
  8
部品1
100
AcDbLine
 10
7396.750451394706
 20
1661.820360971036
 30
0.0
 11
7458.642332434218
 21
1661.820360971034
 31
0.0
  0
ARC
  5
20163
330
747D
100
AcDbEntity
  8
部品1
100
AcDbCircle
 10
7458.642332434218
 20
1651.820360971034
 30
0.0
 40
10.0
100
AcDbArc
 50
5.684241598190771
 51
90.0
  0
LINE
  5
20164
330
747D
100
AcDbEntity
  8
細線
100
AcDbLine
 10
7412.696391914462
 20
1569.820360971038
 30
0.0
 11
7442.696391914463
 21
1569.820360971038
 31
0.0
  0
LINE
  5
20165
330
747D
100
AcDbEntity
  8
細線
100
AcDbLine
 10
7412.696391914462
 20
1575.820360971038
 30
0.0
 11
7412.696391914462
 21
1569.820360971038
 31
0.0
  0
LINE
  5
20166
330
747D
100
AcDbEntity
  8
細線
100
AcDbLine
 10
7442.696391914463
 20
1575.820360971033
 30
0.0
 11
7442.696391914463
 21
1569.820360971032
 31
0.0
  0
LINE
  5
20167
330
747D
100
AcDbEntity
  8
細線
 48
10.0
100
AcDbLine
 10
7819.774915745132
 20
1048.902163631752
 30
0.0
 11
8126.69311308441
 21
1355.820360971036
 31
0.0
  0
LINE
  5
20168
330
747D
100
AcDbEntity
  8
細線
 48
10.0
100
AcDbLine
 10
7791.490644497669
 20
1048.902163631752
 30
0.0
 11
8098.408841836942
 21
1355.820360971036
 31
0.0
  0
LINE
  5
20169
330
747D
100
AcDbEntity
  8
細線
 48
10.0
100
AcDbLine
 10
7763.206373250209
 20
1048.902163631752
 30
0.0
 11
8070.124570589483
 21
1355.820360971036
 31
0.0
  0
TEXT
  5
2016A
330
747D
100
AcDbEntity
  8
部品1
100
AcDbText
 10
7842.185595182836
 20
1363.72640264994
 30
0.0
 40
120.0
  1
▽G.L
  7
STYLE1
100
AcDbText
  0
LINE
  5
2016B
330
747D
100
AcDbEntity
  8
部品1
100
AcDbLine
 10
8355.231599828735
 20
1655.820360971036
 30
0.0
 11
8897.917904717779
 21
1655.820360971038
 31
0.0
  0
LINE
  5
2016C
330
747D
100
AcDbEntity
  8
部品1
100
AcDbLine
 10
8355.231599828735
 20
1755.820360971038
 30
0.0
 11
8868.028996627447
 21
1755.820360971038
 31
0.0
  0
LINE
  5
2016D
330
747D
100
AcDbEntity
  8
部品1
100
AcDbLine
 10
8355.231599828735
 20
1749.820360971038
 30
0.0
 11
8898.028996627447
 21
1749.820360971038
 31
0.0
  0
LINE
  5
2016E
330
747D
100
AcDbEntity
  8
細線
100
AcDbLine
 10
8868.983597390725
 20
1377.168192879651
 30
0.0
 11
8590.331429299338
 21
1655.820360971036
 31
0.0
  0
LINE
  5
2016F
330
747D
100
AcDbEntity
  8
細線
100
AcDbLine
 10
8872.914734984362
 20
1415.663462157208
 30
0.0
 11
8632.757836170531
 21
1655.820360971036
 31
0.0
  0
LINE
  5
20170
330
747D
100
AcDbEntity
  8
細線
 48
10.0
100
AcDbLine
 10
8538.935366065526
 20
1048.902163631752
 30
0.0
 11
8845.8535634048
 21
1355.820360971038
 31
0.0
  0
LINE
  5
20171
330
747D
100
AcDbEntity
  8
細線
 48
10.0
100
AcDbLine
 10
8567.219637312984
 20
1048.902163631752
 30
0.0
 11
8874.137834652254
 21
1355.820360971036
 31
0.0
  0
LINE
  5
20172
330
747D
100
AcDbEntity
  8
細線
 48
10.0
100
AcDbLine
 10
8595.503908560448
 20
1048.902163631752
 30
0.0
 11
8902.422105899708
 21
1355.820360971036
 31
0.0
  0
LINE
  5
20173
330
747D
100
AcDbEntity
  8
細線
 48
10.0
100
AcDbLine
 10
8355.231599828734
 20
1235.288243752895
 30
0.0
 11
8475.763717046866
 21
1355.820360971036
 31
0.0
  0
LINE
  5
20174
330
747D
100
AcDbEntity
  8
細線
 48
10.0
100
AcDbLine
 10
8355.231599828739
 20
1263.572515000354
 30
0.0
 11
8447.479445799414
 21
1355.820360971036
 31
0.0
  0
LINE
  5
20175
330
747D
100
AcDbEntity
  8
細線
 48
10.0
100
AcDbLine
 10
8355.231599828735
 20
1291.856786247808
 30
0.0
 11
8419.195174551962
 21
1355.820360971036
 31
0.0
  0
LINE
  5
20176
330
747D
100
AcDbEntity
  8
部品1
100
AcDbLine
 10
8578.028996627443
 20
1355.820360971033
 30
0.0
 11
8578.028996627443
 21
1655.820360971036
 31
0.0
  0
LINE
  5
20177
330
747D
100
AcDbEntity
  8
細線
100
AcDbLine
 10
8706.483666190834
 20
1355.820360971036
 30
0.0
 11
8578.028996627443
 21
1484.275030534429
 31
0.0
  0
LINE
  5
20178
330
747D
100
AcDbEntity
  8
細線
100
AcDbLine
 10
8664.05725931964
 20
1355.820360971036
 30
0.0
 11
8578.028996627443
 21
1441.848623663236
 31
0.0
  0
LINE
  5
20179
330
747D
100
AcDbEntity
  8
細線
 48
10.0
100
AcDbLine
 10
9022.162297413265
 20
1048.902163631752
 30
0.0
 11
9329.080494752547
 21
1355.820360971038
 31
0.0
  0
LINE
  5
2017A
330
747D
100
AcDbEntity
  8
細線
 48
10.0
100
AcDbLine
 10
8993.878026165807
 20
1048.902163631752
 30
0.0
 11
9300.796223505079
 21
1355.820360971036
 31
0.0
  0
LINE
  5
2017B
330
747D
100
AcDbEntity
  8
細線
 48
10.0
100
AcDbLine
 10
8965.593754918348
 20
1048.902163631752
 30
0.0
 11
9272.511952257621
 21
1355.820360971036
 31
0.0
  0
DIMENSION
  5
2017C
330
747D
100
AcDbEntity
  8
寸法
 48
50.0
100
AcDbDimension
  2
*D16
 10
9180.775642254229
 20
1355.820360971036
 30
0.0
 11
9080.775642254229
 21
1505.820360971038
 31
0.0
 70
    32
  1
c
 71
     5
 42
300.0
  3
INABA_S40G
100
AcDbAlignedDimension
 13
8978.140088537111
 23
1655.820360971036
 33
0.0
 14
9008.028996627443
 24
1355.820360971036
 34
0.0
 50
90.0
100
AcDbRotatedDimension
1001
ACAD
1000
DSTYLE
1002
{
1070
   174
1070
     0
1070
   272
1070
     1
1070
   288
1070
     0
1070
   341
1005
0
1002
}
  0
LINE
  5
2017D
330
747D
100
AcDbEntity
  8
部品1
100
AcDbLine
 10
8897.132227619374
 20
1652.810821669936
 30
0.0
 11
8868.028996627442
 21
1367.820360971036
 31
0.0
  0
LINE
  5
2017E
330
747D
100
AcDbEntity
  8
部品1
100
AcDbLine
 10
8978.925765635514
 20
1652.810821669936
 30
0.0
 11
9008.028996627443
 21
1367.820360971036
 31
0.0
  0
LINE
  5
2017F
330
747D
100
AcDbEntity
  8
部品1
100
AcDbLine
 10
8868.028996627442
 20
1367.820360971036
 30
0.0
 11
9008.028996627443
 21
1367.820360971036
 31
0.0
  0
LINE
  5
20180
330
747D
100
AcDbEntity
  8
部品1
100
AcDbLine
 10
8868.028996627442
 20
1355.820360971036
 30
0.0
 11
9008.028996627443
 21
1355.820360971036
 31
0.0
  0
LINE
  5
20181
330
747D
100
AcDbEntity
  8
部品1
100
AcDbLine
 10
8946.117505804497
 20
1279.233637347595
 30
0.0
 11
8939.939497260981
 21
1320.420360971034
 31
0.0
  0
LINE
  5
20182
330
747D
100
AcDbEntity
  8
部品1
100
AcDbLine
 10
8936.118495993905
 20
1320.420360971034
 30
0.0
 11
8929.940487450389
 21
1279.233637347595
 31
0.0
  0
LINE
  5
20183
330
747D
100
AcDbEntity
  8
部品1
100
AcDbLine
 10
8954.028996627442
 20
1280.420360971035
 30
0.0
 11
8948.028996627442
 21
1320.420360971034
 31
0.0
  0
LINE
  5
20184
330
747D
100
AcDbEntity
  8
部品1
100
AcDbLine
 10
8928.028996627444
 20
1320.420360971034
 30
0.0
 11
8922.028996627444
 21
1280.420360971035
 31
0.0
  0
LINE
  5
20185
330
747D
100
AcDbEntity
  8
部品1
100
AcDbLine
 10
8944.337420369338
 20
1291.10087358201
 30
0.0
 11
8952.248911192283
 21
1292.287597205453
 31
0.0
  0
LINE
  5
20186
330
747D
100
AcDbEntity
  8
部品1
100
AcDbLine
 10
8945.227463086913
 20
1285.167255464803
 30
0.0
 11
8953.138953909864
 21
1286.353979088246
 31
0.0
  0
LINE
  5
20187
330
747D
100
AcDbEntity
  8
部品1
100
AcDbLine
 10
8923.809082062602
 20
1292.287597205453
 30
0.0
 11
8931.720572885549
 21
1291.10087358201
 31
0.0
  0
LINE
  5
20188
330
747D
100
AcDbEntity
  8
部品1
100
AcDbLine
 10
8922.919039345027
 20
1286.353979088246
 30
0.0
 11
8930.830530167972
 21
1285.167255464803
 31
0.0
  0
LINE
  5
20189
330
747D
100
AcDbEntity
  8
部品1
100
AcDbLine
 10
8946.117505804497
 20
1279.233637347595
 30
0.0
 11
8954.028996627442
 21
1280.420360971035
 31
0.0
  0
LINE
  5
2018A
330
747D
100
AcDbEntity
  8
部品1
100
AcDbLine
 10
8922.028996627444
 20
1280.420360971035
 30
0.0
 11
8929.940487450389
 21
1279.233637347595
 31
0.0
  0
LINE
  5
2018B
330
747D
100
AcDbEntity
  8
部品1
100
AcDbLine
 10
8868.028996627442
 20
1367.820360971036
 30
0.0
 11
8868.028996627442
 21
1355.820360971036
 31
0.0
  0
LINE
  5
2018C
330
747D
100
AcDbEntity
  8
部品1
100
AcDbLine
 10
8923.028996627442
 20
1422.220360971038
 30
0.0
 11
8953.028996627443
 21
1422.220360971038
 31
0.0
  0
LINE
  5
2018D
330
747D
100
AcDbEntity
  8
部品1
100
AcDbLine
 10
8923.028996627442
 20
1428.220360971037
 30
0.0
 11
8953.028996627443
 21
1428.220360971037
 31
0.0
  0
LINE
  5
2018E
330
747D
100
AcDbEntity
  8
部品1
100
AcDbLine
 10
8923.028996627442
 20
1428.220360971037
 30
0.0
 11
8923.028996627442
 21
1422.220360971038
 31
0.0
  0
LINE
  5
2018F
330
747D
100
AcDbEntity
  8
部品1
100
AcDbLine
 10
8953.028996627443
 20
1428.220360971034
 30
0.0
 11
8953.028996627443
 21
1422.220360971034
 31
0.0
  0
LINE
  5
20190
330
747D
100
AcDbEntity
  8
部品1
100
AcDbLine
 10
8923.028996627442
 20
1388.220360971037
 30
0.0
 11
8928.028996627444
 21
1388.220360971037
 31
0.0
  0
LINE
  5
20191
330
747D
100
AcDbEntity
  8
部品1
100
AcDbLine
 10
8923.028996627442
 20
1388.220360971037
 30
0.0
 11
8923.028996627442
 21
1386.820360971032
 31
0.0
  0
LINE
  5
20192
330
747D
100
AcDbEntity
  8
部品1
100
AcDbLine
 10
8953.028996627443
 20
1388.220360971034
 30
0.0
 11
8953.028996627443
 21
1386.820360971036
 31
0.0
  0
LINE
  5
20193
330
747D
100
AcDbEntity
  8
部品1
100
AcDbLine
 10
8923.028996627442
 20
1386.820360971036
 30
0.0
 11
8953.028996627443
 21
1386.820360971036
 31
0.0
  0
LINE
  5
20194
330
747D
100
AcDbEntity
  8
部品1
100
AcDbLine
 10
8945.028996627444
 20
1416.073256994696
 30
0.0
 11
8945.028996627444
 21
1420.073256994696
 31
0.0
  0
LINE
  5
20195
330
747D
100
AcDbEntity
  8
部品1
100
AcDbLine
 10
8931.028996627444
 20
1416.073256994696
 30
0.0
 11
8931.028996627444
 21
1420.073256994696
 31
0.0
  0
LINE
  5
20196
330
747D
100
AcDbEntity
  8
部品1
100
AcDbLine
 10
8940.777249499012
 20
1314.835346050848
 30
0.0
 11
8948.68874032196
 21
1316.022069674291
 31
0.0
  0
LINE
  5
20197
330
747D
100
AcDbEntity
  8
部品1
100
AcDbLine
 10
8941.667292216596
 20
1308.90172793364
 30
0.0
 11
8949.578783039543
 21
1310.088451557083
 31
0.0
  0
LINE
  5
20198
330
747D
100
AcDbEntity
  8
部品1
100
AcDbLine
 10
8942.557334934178
 20
1302.968109816433
 30
0.0
 11
8950.468825757125
 21
1304.154833439872
 31
0.0
  0
LINE
  5
20199
330
747D
100
AcDbEntity
  8
部品1
100
AcDbLine
 10
8943.447377651756
 20
1297.034491699222
 30
0.0
 11
8951.3588684747
 21
1298.221215322661
 31
0.0
  0
LINE
  5
2019A
330
747D
100
AcDbEntity
  8
部品1
100
AcDbLine
 10
8927.369252932928
 20
1316.022069674291
 30
0.0
 11
8935.280743755873
 21
1314.835346050848
 31
0.0
  0
LINE
  5
2019B
330
747D
100
AcDbEntity
  8
部品1
100
AcDbLine
 10
8926.479210215346
 20
1310.088451557083
 30
0.0
 11
8934.390701038291
 21
1308.90172793364
 31
0.0
  0
LINE
  5
2019C
330
747D
100
AcDbEntity
  8
部品1
100
AcDbLine
 10
8925.589167497768
 20
1304.154833439872
 30
0.0
 11
8933.50065832071
 21
1302.968109816433
 31
0.0
  0
LINE
  5
2019D
330
747D
100
AcDbEntity
  8
部品1
100
AcDbLine
 10
8924.699124780186
 20
1298.221215322661
 30
0.0
 11
8932.610615603131
 21
1297.034491699222
 31
0.0
  0
LINE
  5
2019E
330
747D
100
AcDbEntity
  8
部品1
100
AcDbLine
 10
8936.118495993905
 20
1320.420360971034
 30
0.0
 11
8939.939497260981
 21
1320.420360971034
 31
0.0
  0
LINE
  5
2019F
330
747D
100
AcDbEntity
  8
部品1
100
AcDbLine
 10
8948.028996627442
 20
1355.820360971036
 30
0.0
 11
8948.028996627442
 21
1320.420360971034
 31
0.0
  0
LINE
  5
201A0
330
747D
100
AcDbEntity
  8
部品1
100
AcDbLine
 10
8928.028996627444
 20
1355.820360971036
 30
0.0
 11
8928.028996627444
 21
1320.420360971034
 31
0.0
  0
LINE
  5
201A1
330
747D
100
AcDbEntity
  8
部品1
100
AcDbLine
 10
8943.028996627443
 20
1407.820360971036
 30
0.0
 11
8943.028996627443
 21
1416.073256994696
 31
0.0
  0
LINE
  5
201A2
330
747D
100
AcDbEntity
  8
部品1
100
AcDbLine
 10
8933.028996627443
 20
1407.820360971036
 30
0.0
 11
8933.028996627443
 21
1416.073256994696
 31
0.0
  0
LINE
  5
201A3
330
747D
100
AcDbEntity
  8
部品1
100
AcDbLine
 10
8931.028996627444
 20
1416.073256994696
 30
0.0
 11
8945.028996627444
 21
1416.073256994696
 31
0.0
  0
ARC
  5
201A4
330
747D
100
AcDbEntity
  8
部品1
100
AcDbCircle
 10
8938.028996627442
 20
1362.731727750219
 30
0.0
 40
23.33946124318486
100
AcDbArc
 50
64.63020194521864
 51
115.3697980547813
  0
ARC
  5
201A5
330
747D
100
AcDbEntity
  8
部品1
100
AcDbCircle
 10
8953.028996627443
 20
1379.305606180718
 30
0.0
 40
6.736691384996243
100
AcDbArc
 50
42.08048849858703
 51
137.9195115014129
  0
ARC
  5
201A6
330
747D
100
AcDbEntity
  8
部品1
100
AcDbCircle
 10
8923.028996627442
 20
1379.305606180718
 30
0.0
 40
6.736691384996243
100
AcDbArc
 50
42.08048849858703
 51
137.9195115014129
  0
LINE
  5
201A7
330
747D
100
AcDbEntity
  8
部品1
100
AcDbLine
 10
8918.028996627443
 20
1383.820360971036
 30
0.0
 11
8958.028996627444
 21
1383.820360971036
 31
0.0
  0
LINE
  5
201A8
330
747D
100
AcDbEntity
  8
部品1
100
AcDbLine
 10
8948.028996627442
 20
1388.220360971037
 30
0.0
 11
8953.028996627443
 21
1388.220360971037
 31
0.0
  0
LINE
  5
201A9
330
747D
100
AcDbEntity
  8
部品1
100
AcDbLine
 10
8923.028996627442
 20
1388.220360971037
 30
0.0
 11
8928.028996627444
 21
1388.220360971037
 31
0.0
  0
LINE
  5
201AA
330
747D
100
AcDbEntity
  8
部品1
100
AcDbLine
 10
8958.028996627444
 20
1370.82036097104
 30
0.0
 11
8958.028996627444
 21
1383.820360971036
 31
0.0
  0
LINE
  5
201AB
330
747D
100
AcDbEntity
  8
部品1
100
AcDbLine
 10
8948.028996627442
 20
1370.820360971036
 30
0.0
 11
8948.028996627442
 21
1407.820360971036
 31
0.0
  0
LINE
  5
201AC
330
747D
100
AcDbEntity
  8
部品1
100
AcDbLine
 10
8928.028996627444
 20
1370.820360971036
 30
0.0
 11
8928.028996627444
 21
1407.820360971036
 31
0.0
  0
LINE
  5
201AD
330
747D
100
AcDbEntity
  8
部品1
100
AcDbLine
 10
8918.028996627443
 20
1370.820360971036
 30
0.0
 11
8918.028996627443
 21
1383.820360971036
 31
0.0
  0
LINE
  5
201AE
330
747D
100
AcDbEntity
  8
部品1
100
AcDbLine
 10
8968.028996627444
 20
1367.820360971036
 30
0.0
 11
8968.028996627444
 21
1370.820360971043
 31
0.0
  0
LINE
  5
201AF
330
747D
100
AcDbEntity
  8
部品1
100
AcDbLine
 10
8908.028996627443
 20
1367.820360971036
 30
0.0
 11
8908.028996627443
 21
1370.820360971036
 31
0.0
  0
LINE
  5
201B0
330
747D
100
AcDbEntity
  8
部品1
100
AcDbLine
 10
8908.028996627443
 20
1370.820360971036
 30
0.0
 11
8968.028996627444
 21
1370.82036097104
 31
0.0
  0
LINE
  5
201B1
330
747D
100
AcDbEntity
  8
部品1
100
AcDbLine
 10
8953.028996627443
 20
1388.220360971034
 30
0.0
 11
8953.028996627443
 21
1386.820360971036
 31
0.0
  0
LINE
  5
201B2
330
747D
100
AcDbEntity
  8
部品1
100
AcDbLine
 10
8923.028996627442
 20
1388.220360971037
 30
0.0
 11
8923.028996627442
 21
1386.820360971036
 31
0.0
  0
LINE
  5
201B3
330
747D
100
AcDbEntity
  8
部品1
100
AcDbLine
 10
8955.028996627444
 20
1386.820360971036
 30
0.0
 11
8958.028996627444
 21
1383.820360971036
 31
0.0
  0
LINE
  5
201B4
330
747D
100
AcDbEntity
  8
部品1
100
AcDbLine
 10
8921.028996627443
 20
1386.820360971036
 30
0.0
 11
8955.028996627444
 21
1386.820360971036
 31
0.0
  0
LINE
  5
201B5
330
747D
100
AcDbEntity
  8
部品1
100
AcDbLine
 10
8921.028996627443
 20
1386.820360971036
 30
0.0
 11
8918.028996627443
 21
1383.820360971036
 31
0.0
  0
LINE
  5
201B6
330
747D
100
AcDbEntity
  8
部品1
100
AcDbLine
 10
8928.028996627444
 20
1407.820360971036
 30
0.0
 11
8948.028996627442
 21
1407.820360971036
 31
0.0
  0
LINE
  5
201B7
330
747D
100
AcDbEntity
  8
部品1
100
AcDbLine
 10
8931.028996627444
 20
1420.073256994696
 30
0.0
 11
8945.028996627444
 21
1420.073256994696
 31
0.0
  0
LINE
  5
201B8
330
747D
100
AcDbEntity
  8
部品1
100
AcDbLine
 10
8953.028996627443
 20
1428.220360971034
 30
0.0
 11
8953.028996627443
 21
1422.220360971034
 31
0.0
  0
LINE
  5
201B9
330
747D
100
AcDbEntity
  8
部品1
100
AcDbLine
 10
8923.028996627442
 20
1428.220360971037
 30
0.0
 11
8923.028996627442
 21
1422.220360971038
 31
0.0
  0
LINE
  5
201BA
330
747D
100
AcDbEntity
  8
部品1
100
AcDbLine
 10
8923.028996627442
 20
1428.220360971037
 30
0.0
 11
8953.028996627443
 21
1428.220360971037
 31
0.0
  0
LINE
  5
201BB
330
747D
100
AcDbEntity
  8
部品1
100
AcDbLine
 10
8923.028996627442
 20
1422.220360971038
 30
0.0
 11
8953.028996627443
 21
1422.220360971038
 31
0.0
  0
LINE
  5
201BC
330
747D
100
AcDbEntity
  8
部品1
100
AcDbLine
 10
8948.028996627442
 20
1388.220360971037
 30
0.0
 11
8953.028996627443
 21
1388.220360971037
 31
0.0
  0
LINE
  5
201BD
330
747D
100
AcDbEntity
  8
部品1
100
AcDbLine
 10
9008.028996627443
 20
1367.820360971036
 30
0.0
 11
9008.028996627443
 21
1355.820360971036
 31
0.0
  0
LINE
  5
201BE
330
747D
100
AcDbEntity
  8
細線
100
AcDbLine
 10
8893.880802150418
 20
1620.971564970847
 30
0.0
 11
8859.032006150231
 21
1655.820360971036
 31
0.0
  0
LINE
  5
201BF
330
747D
100
AcDbEntity
  8
細線
100
AcDbLine
 10
8889.949664556786
 20
1582.47629569329
 30
0.0
 11
8816.605599279039
 21
1655.820360971036
 31
0.0
  0
LINE
  5
201C0
330
747D
100
AcDbEntity
  8
部品1
100
AcDbLine
 10
8908.028996627443
 20
1769.420360971035
 30
0.0
 11
8968.028996627444
 21
1769.420360971038
 31
0.0
  0
ARC
  5
201C1
330
747D
100
AcDbEntity
  8
部品1
100
AcDbCircle
 10
8908.028996627443
 20
1759.420360971035
 30
0.0
 40
10.0
100
AcDbArc
 50
90.0
 51
180.0
  0
ARC
  5
201C2
330
747D
100
AcDbEntity
  8
部品1
100
AcDbCircle
 10
8968.028996627444
 20
1759.420360971038
 30
0.0
 40
10.0
100
AcDbArc
 50
0.0
 51
90.0
  0
ARC
  5
201C3
330
747D
100
AcDbEntity
  8
部品1
100
AcDbCircle
 10
8938.028996627442
 20
1709.420360971035
 30
0.0
 40
8.0
100
AcDbArc
 50
28.00674301450029
 51
151.9932569854997
  0
CIRCLE
  5
201C4
330
747D
100
AcDbEntity
  8
部品1
100
AcDbCircle
 10
8938.028996627442
 20
1698.820360971036
 30
0.0
 40
16.0
  0
CIRCLE
  5
201C5
330
747D
100
AcDbEntity
  8
細線
100
AcDbCircle
 10
8938.028996627442
 20
1739.420360971035
 30
0.0
 40
8.0
  0
ARC
  5
201C6
330
747D
100
AcDbEntity
  8
細線
100
AcDbCircle
 10
8938.028996627442
 20
1639.820360971032
 30
0.0
 40
8.0
100
AcDbArc
 50
0.0
 51
180.0
  0
LINE
  5
201C7
330
747D
100
AcDbEntity
  8
細線
100
AcDbLine
 10
8923.028996627442
 20
1569.820360971036
 30
0.0
 11
8953.028996627443
 21
1569.820360971036
 31
0.0
  0
LINE
  5
201C8
330
747D
100
AcDbEntity
  8
細線
100
AcDbLine
 10
8923.028996627442
 20
1575.820360971036
 30
0.0
 11
8953.028996627443
 21
1575.820360971036
 31
0.0
  0
LINE
  5
201C9
330
747D
100
AcDbEntity
  8
細線
100
AcDbLine
 10
8923.028996627442
 20
1575.820360971036
 30
0.0
 11
8923.028996627442
 21
1569.820360971036
 31
0.0
  0
LINE
  5
201CA
330
747D
100
AcDbEntity
  8
細線
100
AcDbLine
 10
8953.028996627443
 20
1575.820360971033
 30
0.0
 11
8953.028996627443
 21
1569.820360971032
 31
0.0
  0
LINE
  5
201CB
330
747D
100
AcDbEntity
  8
細線
100
AcDbLine
 10
8930.028996627443
 20
1639.820360971032
 30
0.0
 11
8930.028996627443
 21
1613.276767431587
 31
0.0
  0
LINE
  5
201CC
330
747D
100
AcDbEntity
  8
細線
100
AcDbLine
 10
8946.028996627443
 20
1639.820360971032
 30
0.0
 11
8946.028996627443
 21
1613.276767431587
 31
0.0
  0
CIRCLE
  5
201CD
330
747D
100
AcDbEntity
  8
部品1
100
AcDbCircle
 10
8938.028996627442
 20
1599.420360971035
 30
0.0
 40
16.0
  0
LINE
  5
201CE
330
747D
100
AcDbEntity
  8
部品1
100
AcDbLine
 10
8907.083056107687
 20
1661.820360971036
 30
0.0
 11
8968.9749371472
 21
1661.820360971033
 31
0.0
  0
ARC
  5
201CF
330
747D
100
AcDbEntity
  8
部品1
100
AcDbCircle
 10
8907.083056107687
 20
1651.820360971036
 30
0.0
 40
10.0
100
AcDbArc
 50
90.0
 51
174.3157584018092
  0
ARC
  5
201D0
330
747D
100
AcDbEntity
  8
部品1
100
AcDbCircle
 10
8968.9749371472
 20
1651.820360971032
 30
0.0
 40
10.0
100
AcDbArc
 50
5.684241598190771
 51
90.0
  0
ARC
  5
201D1
330
747D
100
AcDbEntity
  8
部品1
100
AcDbCircle
 10
8938.028996627442
 20
1669.420360971035
 30
0.0
 40
8.0
100
AcDbArc
 50
180.0
 51
251.8051276613376
  0
ARC
  5
201D2
330
747D
100
AcDbEntity
  8
部品1
100
AcDbCircle
 10
8938.028996627442
 20
1669.420360971035
 30
0.0
 40
8.0
100
AcDbArc
 50
288.1948723386625
 51
0.0
  0
LINE
  5
201D3
330
747D
100
AcDbEntity
  8
部品1
100
AcDbLine
 10
8898.028996627443
 20
1759.420360971035
 30
0.0
 11
8898.028996627443
 21
1656.065829959043
 31
0.0
  0
LINE
  5
201D4
330
747D
100
AcDbEntity
  8
部品1
100
AcDbLine
 10
8978.028996627443
 20
1759.420360971038
 30
0.0
 11
8978.028996627443
 21
1656.065829959048
 31
0.0
  0
LINE
  5
201D5
330
747D
100
AcDbEntity
  8
部品1
100
AcDbLine
 10
8946.028996627443
 20
1684.963954510484
 30
0.0
 11
8946.028996627443
 21
1669.420360971035
 31
0.0
  0
LINE
  5
201D6
330
747D
100
AcDbEntity
  8
部品1
100
AcDbLine
 10
8930.028996627443
 20
1684.963954510484
 30
0.0
 11
8930.028996627443
 21
1669.420360971035
 31
0.0
  0
TEXT
  5
201D7
330
747D
100
AcDbEntity
  8
部品1
100
AcDbText
 10
7443.277969483439
 20
2390.925622863923
 30
0.0
 40
120.0
  1
地盤がコンクリートの場合
  7
STYLE2
100
AcDbText
  0
LINE
  5
201D8
330
747D
100
AcDbEntity
  8
部品1
 48
50.0
100
AcDbLine
 10
9881.933188638164
 20
2815.059573359284
 30
0.0
 11
9881.933188638164
 21
415.0595733592817
 31
0.0
  0
DIMENSION
  5
201D9
330
747D
100
AcDbEntity
  8
寸法
 48
50.0
100
AcDbDimension
  2
*D17
 10
6112.711895261758
 20
1355.820360971036
 30
0.0
 11
6012.711895261759
 21
1455.820360971038
 31
0.0
 70
    32
  1
a
 71
     5
 42
200.0000000000009
  3
INABA_S40G
100
AcDbAlignedDimension
 13
5864.640890901364
 23
1555.820360971037
 33
0.0
 14
5864.640890901366
 24
1355.820360971036
 34
0.0
 50
90.0
100
AcDbRotatedDimension
1001
ACAD
1000
DSTYLE
1002
{
1070
   174
1070
     0
1070
   272
1070
     1
1070
   288
1070
     0
1070
   341
1005
0
1002
}
  0
TEXT
  5
201DA
330
747D
100
AcDbEntity
  8
部品1
100
AcDbText
 10
6771.100445886759
 20
888.9846832063895
 30
0.0
 40
80.0
  1
b寸法：100～120mmに対応
  7
STYLE2
100
AcDbText
  0
TEXT
  5
201DB
330
747D
100
AcDbEntity
  8
部品1
100
AcDbText
 10
6775.645900432214
 20
743.3786226003284
 30
0.0
 40
80.0
  1
\U+203BオールアンカーM10(市販品)
  7
STYLE2
100
AcDbText
  0
TEXT
  5
201DC
330
747D
100
AcDbEntity
  8
部品1
100
AcDbText
 10
6777.009536795849
 20
593.6816529033595
 30
0.0
 40
80.0
  1
  が4本必要になります。
  7
STYLE2
100
AcDbText
  0
TEXT
  5
201DD
330
747D
100
AcDbEntity
  8
部品1
100
AcDbText
 10
8330.432290411394
 20
888.9846832063895
 30
0.0
 40
80.0
  1
c寸法：135～175,190mmに対応
  7
STYLE2
100
AcDbText
  0
TEXT
  5
201DE
330
747D
100
AcDbEntity
  8
部品1
100
AcDbText
 10
8334.523199502305
 20
743.3786226003284
 30
0.0
 40
80.0
  1
\U+203BオールアンカーM10(市販品)
  7
STYLE2
100
AcDbText
  0
TEXT
  5
201DF
330
747D
100
AcDbEntity
  8
部品1
100
AcDbText
 10
8335.88683586594
 20
593.6816529033595
 30
0.0
 40
80.0
  1
  が4本必要になります。
  7
STYLE2
100
AcDbText
  0
TEXT
  5
201E0
330
747D
100
AcDbEntity
  8
部品1
100
AcDbText
 10
5218.482466687104
 20
617.1509404863
 30
0.0
 40
80.0
  1
a寸法：100～150mmに対応
  7
STYLE2
100
AcDbText
  0
LINE
  5
201E1
330
747D
100
AcDbEntity
  8
部品1
 48
50.0
100
AcDbLine
 10
5614.640890901362
 20
955.8203609710362
 30
0.0
 11
5614.640890901362
 21
1355.820360971036
 31
0.0
  0
LINE
  5
201E2
330
747D
100
AcDbEntity
  8
部品1
 48
50.0
100
AcDbLine
 10
6014.640890901363
 20
1355.820360971036
 30
0.0
 11
6014.640890901361
 21
955.820360971038
 31
0.0
  0
LINE
  5
201E3
330
747D
100
AcDbEntity
  8
部品1
 48
50.0
100
AcDbLine
 10
6014.640890901361
 20
955.820360971038
 30
0.0
 11
5614.640890901362
 21
955.8203609710362
 31
0.0
  0
ENDSEC
  0
SECTION
  2
OBJECTS
  0
DICTIONARY
  5
7471
330
0
100
AcDbDictionary
281
     1
  3
ACAD_COLOR
350
159B0
  3
ACAD_GROUP
350
7472
  3
ACAD_LAYOUT
350
159B1
  3
ACAD_MATERIAL
350
159AF
  3
ACAD_MLINESTYLE
350
7473
  3
ACAD_PLOTSETTINGS
350
159B2
  3
ACAD_PLOTSTYLENAME
350
159AD
  3
ACDBHEADERROUNDTRIPXREC
350
20272
  3
AcDbVariableDictionary
350
2026E
  3
CONTENTDICTIONARY
350
E71C
  3
DRAWINGVARIABLESDICT
350
F3B9
  0
DICTIONARY
  5
1E67E
330
7467
100
AcDbDictionary
280
     1
281
     1
  3
ACAD_LAYERSTATES
360
1E67F
  0
DICTIONARY
  5
159B0
102
{ACAD_REACTORS
330
7471
102
}
330
7471
100
AcDbDictionary
281
     1
  0
DICTIONARY
  5
7472
102
{ACAD_REACTORS
330
7471
102
}
330
7471
100
AcDbDictionary
281
     1
  3
*A1
350
1FC8E
  3
*A2
350
1FD42
  3
*A3
350
1FD47
  3
*A4
350
1FD4C
  0
DICTIONARY
  5
159B1
102
{ACAD_REACTORS
330
7471
102
}
330
7471
100
AcDbDictionary
281
     1
  3
Model
350
159B3
  3
レイアウト1
350
159B4
  0
DICTIONARY
  5
159AF
102
{ACAD_REACTORS
330
7471
102
}
330
7471
100
AcDbDictionary
281
     1
  0
DICTIONARY
  5
7473
102
{ACAD_REACTORS
330
7471
102
}
330
7471
100
AcDbDictionary
281
     1
  3
STANDARD
350
7480
  0
DICTIONARY
  5
159B2
102
{ACAD_REACTORS
330
7471
102
}
330
7471
100
AcDbDictionary
281
     1
  0
ACDBDICTIONARYWDFLT
  5
159AD
102
{ACAD_REACTORS
330
7471
102
}
330
7471
100
AcDbDictionary
281
     1
  3
Normal
350
159AE
100
AcDbDictionaryWithDefault
340
159AE
  0
DICTIONARY
  5
20272
102
{ACAD_REACTORS
330
7471
102
}
330
7471
100
AcDbDictionary
281
     1
  3
COLORDICT
350
20274
  3
MATERIALDICT
350
20273
  0
DICTIONARY
  5
2026E
102
{ACAD_REACTORS
330
7471
102
}
330
7471
100
AcDbDictionary
281
     1
  3
DIMASSOC
350
2026F
  3
PROJECTNAME
350
20270
  0
DICTIONARY
  5
E71C
102
{ACAD_REACTORS
330
7471
102
}
330
7471
100
AcDbDictionary
281
     1
  0
DICTIONARY
  5
F3B9
102
{ACAD_REACTORS
330
7471
102
}
330
7471
100
AcDbDictionary
281
     1
1001
DRAWINGVARIABLESXDATA
1000
POLARMODE
1000
1
  0
DICTIONARY
  5
1E67F
102
{ACAD_REACTORS
330
1E67E
102
}
330
1E67E
100
AcDbDictionary
281
     1
  0
GROUP
  5
1FC8E
102
{ACAD_REACTORS
330
7472
102
}
330
7472
100
AcDbGroup
300

 70
     1
 71
     1
340
1FB3C
340
1FB3B
340
1FB3A
340
1FB3D
  0
GROUP
  5
1FD42
102
{ACAD_REACTORS
330
7472
102
}
330
7472
100
AcDbGroup
300

 70
     1
 71
     1
340
1FD3E
340
1FD3F
340
1FD40
340
1FD41
  0
GROUP
  5
1FD47
102
{ACAD_REACTORS
330
7472
102
}
330
7472
100
AcDbGroup
300

 70
     1
 71
     1
340
1FD43
340
1FD44
340
1FD45
340
1FD46
  0
GROUP
  5
1FD4C
102
{ACAD_REACTORS
330
7472
102
}
330
7472
100
AcDbGroup
300

 70
     1
 71
     1
340
1FD48
340
1FD49
340
1FD4A
340
1FD4B
  0
LAYOUT
  5
159B3
102
{ACAD_XDICTIONARY
360
20275
102
}
102
{ACAD_REACTORS
330
159B1
102
}
330
159B1
100
AcDbPlotSettings
  1

  2
none_device
  4
Letter_(8.50_x_11.00_Inches)
  6

 40
6.349999904632568
 41
6.349999904632568
 42
6.350006103515625
 43
6.350006103515625
 44
215.8999938964844
 45
279.3999938964844
 46
0.0
 47
0.0
 48
0.0
 49
0.0
140
0.0
141
0.0
142
1.0
143
1.0
 70
 11952
 72
     1
 73
     1
 74
     0
  7

 75
     0
147
1.0
148
-4149.571981164617
149
65.56433826894044
100
AcDbLayout
  1
Model
 70
     1
 71
     0
 10
0.0
 20
0.0
 11
12.0
 21
9.0
 12
0.0
 22
0.0
 32
0.0
 14
0.0
 24
0.0
 34
0.0
 15
0.0
 25
0.0
 35
0.0
146
0.0
 13
0.0
 23
0.0
 33
0.0
 16
1.0
 26
0.0
 36
0.0
 17
0.0
 27
1.0
 37
0.0
 76
     0
330
747D
  0
LAYOUT
  5
159B4
102
{ACAD_XDICTIONARY
360
20277
102
}
102
{ACAD_REACTORS
330
159B1
102
}
330
159B1
100
AcDbPlotSettings
  1

  2
自動 EPSON LP-8400FX (TATENO 上)
  4

  6

 40
0.0
 41
0.0
 42
0.0
 43
0.0
 44
0.0
 45
0.0
 46
0.0
 47
0.0
 48
0.0
 49
0.0
140
0.0
141
0.0
142
1.0
143
1.0
 70
   688
 72
     0
 73
     0
 74
     5
  7
inaba.ctb
 75
    16
147
1.0
148
0.0
149
0.0
100
AcDbLayout
  1
レイアウト1
 70
     0
 71
     1
 10
0.0
 20
0.0
 11
420.0
 21
297.0
 12
0.0
 22
0.0
 32
0.0
 14
1.000000000000000E+20
 24
1.000000000000000E+20
 34
1.000000000000000E+20
 15
-1.000000000000000E+20
 25
-1.000000000000000E+20
 35
-1.000000000000000E+20
146
0.0
 13
0.0
 23
0.0
 33
0.0
 16
1.0
 26
0.0
 36
0.0
 17
0.0
 27
1.0
 37
0.0
 76
     0
330
747A
  0
MLINESTYLE
  5
7480
102
{ACAD_REACTORS
330
7473
102
}
330
7473
100
AcDbMlineStyle
  2
STANDARD
 70
     0
  3

 62
     0
 51
90.0
 52
90.0
 71
     2
 49
0.5
 62
   256
  6
BYLAYER
 49
-0.5
 62
   256
  6
BYLAYER
  0
ACDBPLACEHOLDER
  5
159AE
102
{ACAD_REACTORS
330
159AD
102
}
330
159AD
  0
XRECORD
  5
20274
102
{ACAD_REACTORS
330
20272
102
}
330
20272
100
AcDbXrecord
280
     1
340
159B0
  0
XRECORD
  5
20273
102
{ACAD_REACTORS
330
20272
102
}
330
20272
100
AcDbXrecord
280
     1
340
159AF
  0
DICTIONARYVAR
  5
2026F
102
{ACAD_REACTORS
330
2026E
102
}
330
2026E
100
DictionaryVariables
280
     0
  1
1
  0
DICTIONARYVAR
  5
20270
102
{ACAD_REACTORS
330
2026E
102
}
330
2026E
100
DictionaryVariables
280
     0
  1

  0
DICTIONARY
  5
20275
330
159B3
100
AcDbDictionary
280
     1
281
     1
  3
ACAD_XREC_ROUNDTRIP
360
20276
  0
DICTIONARY
  5
20277
330
159B4
100
AcDbDictionary
280
     1
281
     1
  3
ACAD_XREC_ROUNDTRIP
360
20278
  0
XRECORD
  5
20276
102
{ACAD_REACTORS
330
20275
102
}
330
20275
100
AcDbXrecord
280
     1
102
SHADEPLOT
 70
     0
102
SHADEPLOTRESLEVEL
 70
     2
102
SHADEPLOTCUSTOMDPI
 70
   300
  0
XRECORD
  5
20278
102
{ACAD_REACTORS
330
20277
102
}
330
20277
100
AcDbXrecord
280
     1
102
SHADEPLOT
 70
     0
102
SHADEPLOTRESLEVEL
 70
     2
102
SHADEPLOTCUSTOMDPI
 70
   300
  0
ENDSEC
  0
EOF
