  0
SECTION
  2
HEADER
  9
$ACADVER
  1
AC1015
  9
$ACADMAINTVER
 70
    20
  9
$DWGCODEPAGE
  3
ANSI_932
  9
$INSBASE
 10
0.0
 20
0.0
 30
0.0
  9
$EXTMIN
 10
139.9999999999995
 20
-0.0000000000000909
 30
0.0
  9
$EXTMAX
 10
16307.2
 20
11409.6
 30
0.0
  9
$LIMMIN
 10
0.0
 20
0.0
  9
$LIMMAX
 10
16800.0
 20
11880.0
  9
$ORTHOMODE
 70
     0
  9
$REGENMODE
 70
     1
  9
$FILLMODE
 70
     1
  9
$QTEXTMODE
 70
     0
  9
$MIRRTEXT
 70
     1
  9
$LTSCALE
 40
20.0
  9
$ATTMODE
 70
     1
  9
$TEXTSIZE
 40
100.0
  9
$TRACEWID
 40
1.0
  9
$TEXTSTYLE
  7
STYLE2
  9
$CLAYER
  8
寸法
  9
$CELTYPE
  6
BYLAYER
  9
$CECOLOR
 62
   256
  9
$CELTSCALE
 40
50.0
  9
$DISPSILH
 70
     0
  9
$DIMSCALE
 40
40.0
  9
$DIMASZ
 40
2.5
  9
$DIMEXO
 40
0.5
  9
$DIMDLI
 40
7.0
  9
$DIMRND
 40
0.0
  9
$DIMDLE
 40
0.0
  9
$DIMEXE
 40
1.5
  9
$DIMTP
 40
0.0
  9
$DIMTM
 40
0.0
  9
$DIMTXT
 40
3.0
  9
$DIMCEN
 40
0.0
  9
$DIMTSZ
 40
0.0
  9
$DIMTOL
 70
     0
  9
$DIMLIM
 70
     0
  9
$DIMTIH
 70
     0
  9
$DIMTOH
 70
     0
  9
$DIMSE1
 70
     0
  9
$DIMSE2
 70
     0
  9
$DIMTAD
 70
     3
  9
$DIMZIN
 70
     8
  9
$DIMBLK
  1

  9
$DIMASO
 70
     1
  9
$DIMSHO
 70
     1
  9
$DIMPOST
  1

  9
$DIMAPOST
  1

  9
$DIMALT
 70
     0
  9
$DIMALTD
 70
     2
  9
$DIMALTF
 40
0.0394
  9
$DIMLFAC
 40
1.0
  9
$DIMTOFL
 70
     1
  9
$DIMTVP
 40
0.0
  9
$DIMTIX
 70
     0
  9
$DIMSOXD
 70
     0
  9
$DIMSAH
 70
     1
  9
$DIMBLK1
  1
DOTSMALL
  9
$DIMBLK2
  1
DOTSMALL
  9
$DIMSTYLE
  2
INABA_S40G
  9
$DIMCLRD
 70
     0
  9
$DIMCLRE
 70
     0
  9
$DIMCLRT
 70
     7
  9
$DIMTFAC
 40
1.0
  9
$DIMGAP
 40
1.0
  9
$DIMJUST
 70
     0
  9
$DIMSD1
 70
     0
  9
$DIMSD2
 70
     0
  9
$DIMTOLJ
 70
     1
  9
$DIMTZIN
 70
     0
  9
$DIMALTZ
 70
     0
  9
$DIMALTTZ
 70
     0
  9
$DIMUPT
 70
     0
  9
$DIMDEC
 70
     1
  9
$DIMTDEC
 70
     1
  9
$DIMALTU
 70
     2
  9
$DIMALTTD
 70
     2
  9
$DIMTXSTY
  7
STYLE1
  9
$DIMAUNIT
 70
     0
  9
$DIMADEC
 70
     0
  9
$DIMALTRND
 40
0.0
  9
$DIMAZIN
 70
     0
  9
$DIMDSEP
 70
    46
  9
$DIMATFIT
 70
     3
  9
$DIMFRAC
 70
     0
  9
$DIMLDRBLK
  1

  9
$DIMLUNIT
 70
     2
  9
$DIMLWD
 70
    -2
  9
$DIMLWE
 70
    -2
  9
$DIMTMOVE
 70
     0
  9
$LUNITS
 70
     2
  9
$LUPREC
 70
     1
  9
$SKETCHINC
 40
1.0
  9
$FILLETRAD
 40
0.0
  9
$AUNITS
 70
     0
  9
$AUPREC
 70
     0
  9
$MENU
  1
acad
  9
$ELEVATION
 40
0.0
  9
$PELEVATION
 40
0.0
  9
$THICKNESS
 40
0.0
  9
$LIMCHECK
 70
     0
  9
$CHAMFERA
 40
3.0
  9
$CHAMFERB
 40
3.0
  9
$CHAMFERC
 40
0.0
  9
$CHAMFERD
 40
0.0
  9
$SKPOLY
 70
     0
  9
$TDCREATE
 40
2451368.612993866
  9
$TDUCREATE
 40
2451368.237993866
  9
$TDUPDATE
 40
2455575.708537141
  9
$TDUUPDATE
 40
2455575.333537141
  9
$TDINDWG
 40
1.4626221181
  9
$TDUSRTIMER
 40
1.4626221181
  9
$USRTIMER
 70
     1
  9
$ANGBASE
 50
0.0
  9
$ANGDIR
 70
     0
  9
$PDMODE
 70
     3
  9
$PDSIZE
 40
2.0
  9
$PLINEWID
 40
0.0
  9
$SPLFRAME
 70
     0
  9
$SPLINETYPE
 70
     6
  9
$SPLINESEGS
 70
     8
  9
$HANDSEED
  5
1E199
  9
$SURFTAB1
 70
     6
  9
$SURFTAB2
 70
     6
  9
$SURFTYPE
 70
     6
  9
$SURFU
 70
     6
  9
$SURFV
 70
     6
  9
$UCSBASE
  2

  9
$UCSNAME
  2

  9
$UCSORG
 10
0.0
 20
0.0
 30
0.0
  9
$UCSXDIR
 10
1.0
 20
0.0
 30
0.0
  9
$UCSYDIR
 10
0.0
 20
1.0
 30
0.0
  9
$UCSORTHOREF
  2

  9
$UCSORTHOVIEW
 70
     0
  9
$UCSORGTOP
 10
0.0
 20
0.0
 30
0.0
  9
$UCSORGBOTTOM
 10
0.0
 20
0.0
 30
0.0
  9
$UCSORGLEFT
 10
0.0
 20
0.0
 30
0.0
  9
$UCSORGRIGHT
 10
0.0
 20
0.0
 30
0.0
  9
$UCSORGFRONT
 10
0.0
 20
0.0
 30
0.0
  9
$UCSORGBACK
 10
0.0
 20
0.0
 30
0.0
  9
$PUCSBASE
  2

  9
$PUCSNAME
  2

  9
$PUCSORG
 10
0.0
 20
0.0
 30
0.0
  9
$PUCSXDIR
 10
1.0
 20
0.0
 30
0.0
  9
$PUCSYDIR
 10
0.0
 20
1.0
 30
0.0
  9
$PUCSORTHOREF
  2

  9
$PUCSORTHOVIEW
 70
     0
  9
$PUCSORGTOP
 10
0.0
 20
0.0
 30
0.0
  9
$PUCSORGBOTTOM
 10
0.0
 20
0.0
 30
0.0
  9
$PUCSORGLEFT
 10
0.0
 20
0.0
 30
0.0
  9
$PUCSORGRIGHT
 10
0.0
 20
0.0
 30
0.0
  9
$PUCSORGFRONT
 10
0.0
 20
0.0
 30
0.0
  9
$PUCSORGBACK
 10
0.0
 20
0.0
 30
0.0
  9
$USERI1
 70
     0
  9
$USERI2
 70
     0
  9
$USERI3
 70
     0
  9
$USERI4
 70
     0
  9
$USERI5
 70
     0
  9
$USERR1
 40
0.0
  9
$USERR2
 40
0.0
  9
$USERR3
 40
0.0
  9
$USERR4
 40
0.0
  9
$USERR5
 40
0.0
  9
$WORLDVIEW
 70
     1
  9
$SHADEDGE
 70
     3
  9
$SHADEDIF
 70
    70
  9
$TILEMODE
 70
     1
  9
$MAXACTVP
 70
    16
  9
$PINSBASE
 10
0.0
 20
0.0
 30
0.0
  9
$PLIMCHECK
 70
     0
  9
$PEXTMIN
 10
1.000000000000000E+20
 20
1.000000000000000E+20
 30
1.000000000000000E+20
  9
$PEXTMAX
 10
-1.000000000000000E+20
 20
-1.000000000000000E+20
 30
-1.000000000000000E+20
  9
$PLIMMIN
 10
0.0
 20
0.0
  9
$PLIMMAX
 10
420.0
 20
297.0
  9
$UNITMODE
 70
     0
  9
$VISRETAIN
 70
     0
  9
$PLINEGEN
 70
     0
  9
$PSLTSCALE
 70
     0
  9
$TREEDEPTH
 70
  3020
  9
$CMLSTYLE
  2
STANDARD
  9
$CMLJUST
 70
     0
  9
$CMLSCALE
 40
1.0
  9
$PROXYGRAPHICS
 70
     1
  9
$MEASUREMENT
 70
     1
  9
$CELWEIGHT
370
    -1
  9
$ENDCAPS
280
     0
  9
$JOINSTYLE
280
     0
  9
$LWDISPLAY
290
     0
  9
$INSUNITS
 70
     0
  9
$HYPERLINKBASE
  1

  9
$STYLESHEET
  1
inaba.ctb
  9
$XEDIT
290
     1
  9
$CEPSNTYPE
380
     0
  9
$PSTYLEMODE
290
     1
  9
$FINGERPRINTGUID
  2
{3B57B35E-7D77-4BBF-81B7-6C583B9EB24C}
  9
$VERSIONGUID
  2
{421E1E78-F8CD-402E-98B3-0CE81AE20239}
  9
$EXTNAMES
290
     1
  9
$PSVPSCALE
 40
0.0
  9
$OLESTARTUP
290
     0
  0
ENDSEC
  0
SECTION
  2
CLASSES
  0
CLASS
  1
ACDBDICTIONARYWDFLT
  2
AcDbDictionaryWithDefault
  3
ObjectDBX Classes
 90
        0
280
     0
281
     0
  0
CLASS
  1
DICTIONARYVAR
  2
AcDbDictionaryVar
  3
ObjectDBX Classes
 90
        0
280
     0
281
     0
  0
CLASS
  1
ACDBPLACEHOLDER
  2
AcDbPlaceHolder
  3
ObjectDBX Classes
 90
        0
280
     0
281
     0
  0
CLASS
  1
LAYOUT
  2
AcDbLayout
  3
ObjectDBX Classes
 90
        0
280
     0
281
     0
  0
ENDSEC
  0
SECTION
  2
TABLES
  0
TABLE
  2
VPORT
  5
746D
330
0
100
AcDbSymbolTable
 70
     2
  0
VPORT
  5
1E191
330
746D
100
AcDbSymbolTableRecord
100
AcDbViewportTableRecord
  2
*Active
 70
     0
 10
0.0
 20
0.0
 11
1.0
 21
1.0
 12
9437.007896422294
 22
5756.236713528342
 13
0.0
 23
0.0
 14
10.0
 24
10.0
 15
10.0
 25
10.0
 16
0.0
 26
0.0
 36
1.0
 17
0.0
 27
0.0
 37
0.0
 40
17706.52353256251
 41
1.525925925925925
 42
50.0
 43
0.0
 44
0.0
 50
0.0
 51
0.0
 71
     0
 72
     0
 73
     1
 74
     0
 75
     0
 76
     0
 77
     0
 78
     0
281
     0
 65
     1
110
0.0
120
0.0
130
0.0
111
1.0
121
0.0
131
0.0
112
0.0
122
1.0
132
0.0
 79
     0
146
0.0
  0
ENDTAB
  0
TABLE
  2
LTYPE
  5
746A
330
0
100
AcDbSymbolTable
 70
     4
  0
LTYPE
  5
7477
330
746A
100
AcDbSymbolTableRecord
100
AcDbLinetypeTableRecord
  2
BYBLOCK
 70
     0
  3

 72
    65
 73
     0
 40
0.0
  0
LTYPE
  5
7478
330
746A
100
AcDbSymbolTableRecord
100
AcDbLinetypeTableRecord
  2
BYLAYER
 70
     0
  3

 72
    65
 73
     0
 40
0.0
  0
LTYPE
  5
7479
330
746A
100
AcDbSymbolTableRecord
100
AcDbLinetypeTableRecord
  2
CONTINUOUS
 70
     0
  3
Solid line
 72
    65
 73
     0
 40
0.0
  0
LTYPE
  5
7816
330
746A
100
AcDbSymbolTableRecord
100
AcDbLinetypeTableRecord
  2
CENTER
 70
     0
  3
____ _ ____ _ ____ _ ____ _ ____ _ ____ _ ____ 
 72
    65
 73
     4
 40
2.0
 49
1.25
 74
     0
 49
-0.25
 74
     0
 49
0.25
 74
     0
 49
-0.25
 74
     0
  0
LTYPE
  5
781A
330
746A
100
AcDbSymbolTableRecord
100
AcDbLinetypeTableRecord
  2
HIDDEN
 70
     0
  3
__ __ __ __ __ __ __ __ __ __ __ __ __ __ __ __
 72
    65
 73
     2
 40
0.375
 49
0.25
 74
     0
 49
-0.125
 74
     0
  0
LTYPE
  5
781B
330
746A
100
AcDbSymbolTableRecord
100
AcDbLinetypeTableRecord
  2
PHANTOM
 70
     0
  3
______  __  __  ______  __  __  ______  __  __ 
 72
    65
 73
     6
 40
2.5
 49
1.25
 74
     0
 49
-0.25
 74
     0
 49
0.25
 74
     0
 49
-0.25
 74
     0
 49
0.25
 74
     0
 49
-0.25
 74
     0
  0
ENDTAB
  0
TABLE
  2
LAYER
  5
7467
330
0
100
AcDbSymbolTable
 70
    13
  0
LAYER
  5
7474
330
7467
100
AcDbSymbolTableRecord
100
AcDbLayerTableRecord
  2
0
 70
     0
 62
     7
  6
CONTINUOUS
370
    -3
390
159AE
  0
LAYER
  5
DEB2
330
7467
100
AcDbSymbolTableRecord
100
AcDbLayerTableRecord
  2
センター
 70
     0
 62
     3
  6
CENTER
370
    -3
390
159AE
  0
LAYER
  5
DEB3
330
7467
100
AcDbSymbolTableRecord
100
AcDbLayerTableRecord
  2
寸法
 70
     0
 62
     4
  6
CONTINUOUS
370
    -3
390
159AE
  0
LAYER
  5
DEB4
330
7467
100
AcDbSymbolTableRecord
100
AcDbLayerTableRecord
  2
部品1
 70
     0
 62
     7
  6
CONTINUOUS
370
    -3
390
159AE
  0
LAYER
  5
DEB5
330
7467
100
AcDbSymbolTableRecord
100
AcDbLayerTableRecord
  2
補助
 70
     0
 62
    -1
  6
CONTINUOUS
370
    -3
390
159AE
  0
LAYER
  5
DEB6
330
7467
100
AcDbSymbolTableRecord
100
AcDbLayerTableRecord
  2
文字
 70
     0
 62
     7
  6
CONTINUOUS
370
    -3
390
159AE
  0
LAYER
  5
F255
330
7467
100
AcDbSymbolTableRecord
100
AcDbLayerTableRecord
  2
DEFPOINTS
 70
     0
 62
     7
  6
CONTINUOUS
290
     0
370
    -3
390
159AE
  0
LAYER
  5
10B54
330
7467
100
AcDbSymbolTableRecord
100
AcDbLayerTableRecord
  2
仕様書枠
 70
     0
 62
   230
  6
CONTINUOUS
370
    -3
390
159AE
  0
LAYER
  5
11729
330
7467
100
AcDbSymbolTableRecord
100
AcDbLayerTableRecord
  2
Ｇ．Ｌ
 70
     0
 62
    30
  6
CONTINUOUS
370
    -3
390
159AE
  0
LAYER
  5
1173F
330
7467
100
AcDbSymbolTableRecord
100
AcDbLayerTableRecord
  2
細線
 70
     0
 62
     5
  6
CONTINUOUS
370
    -3
390
159AE
  0
LAYER
  5
12CC4
330
7467
100
AcDbSymbolTableRecord
100
AcDbLayerTableRecord
  2
想像線
 70
     0
 62
     6
  6
PHANTOM
370
    -3
390
159AE
  0
LAYER
  5
142E2
330
7467
100
AcDbSymbolTableRecord
100
AcDbLayerTableRecord
  2
破線
 70
     0
 62
     2
  6
HIDDEN
370
    -3
390
159AE
  0
LAYER
  5
1C644
330
7467
100
AcDbSymbolTableRecord
100
AcDbLayerTableRecord
  2
点線
 70
     0
 62
     2
  6
HIDDEN
370
    -3
390
159AE
  0
ENDTAB
  0
TABLE
  2
STYLE
  5
7468
330
0
100
AcDbSymbolTable
 70
     3
  0
STYLE
  5
7475
330
7468
100
AcDbSymbolTableRecord
100
AcDbTextStyleTableRecord
  2
STANDARD
 70
     0
 40
0.0
 41
1.0
 50
0.0
 71
     0
 42
4.0
  3
txt
  4
C:\AutoCAD LT\bigfont.shx
  0
STYLE
  5
F706
330
7468
100
AcDbSymbolTableRecord
100
AcDbTextStyleTableRecord
  2
STYLE1
 70
     0
 40
0.0
 41
1.0
 50
0.0
 71
     0
 42
100.0
  3
isocp.shx
  4
bigfont.shx
  0
STYLE
  5
103BF
330
7468
100
AcDbSymbolTableRecord
100
AcDbTextStyleTableRecord
  2
STYLE2
 70
     0
 40
0.0
 41
1.0
 50
0.0
 71
     0
 42
100.0
  3
MS PGothic.ttf
  4

1001
ACAD
1000
MS PGothic
1071
    32818
  0
ENDTAB
  0
TABLE
  2
VIEW
  5
746B
330
0
100
AcDbSymbolTable
 70
     0
  0
ENDTAB
  0
TABLE
  2
UCS
  5
746C
330
0
100
AcDbSymbolTable
 70
     0
  0
ENDTAB
  0
TABLE
  2
APPID
  5
746E
330
0
100
AcDbSymbolTable
 70
     6
  0
APPID
  5
7476
330
746E
100
AcDbSymbolTableRecord
100
AcDbRegAppTableRecord
  2
ACAD
 70
     0
  0
APPID
  5
DEA9
330
746E
100
AcDbSymbolTableRecord
100
AcDbRegAppTableRecord
  2
CONTENTBLOCKICON
 70
     0
  0
APPID
  5
DEAA
330
746E
100
AcDbSymbolTableRecord
100
AcDbRegAppTableRecord
  2
CONTENTBLOCKDESCRIPTION
 70
     0
  0
APPID
  5
E71D
330
746E
100
AcDbSymbolTableRecord
100
AcDbRegAppTableRecord
  2
CONTENTTABDATA
 70
     0
  0
APPID
  5
E71E
330
746E
100
AcDbSymbolTableRecord
100
AcDbRegAppTableRecord
  2
CONTENTCURRENTTAB
 70
     0
  0
APPID
  5
F3BA
330
746E
100
AcDbSymbolTableRecord
100
AcDbRegAppTableRecord
  2
DRAWINGVARIABLESXDATA
 70
     0
  0
ENDTAB
  0
TABLE
  2
DIMSTYLE
  5
746F
330
0
100
AcDbSymbolTable
 70
     2
100
AcDbDimStyleTable
 71
     1
340
F71F
  0
DIMSTYLE
105
F71F
102
{ACAD_REACTORS
330
1CCFC
330
1CACA
330
1C9B8
330
1CAB8
330
1CAB7
330
1CAB6
330
1CCF2
330
1CCF1
330
1CA66
330
1CBF3
330
1CC5E
330
1D583
330
1DEF7
330
1DEF6
102
}
330
746F
100
AcDbSymbolTableRecord
100
AcDbDimStyleTableRecord
  2
INABA_S40G
 70
     0
 40
40.0
 41
2.5
 42
0.5
 43
7.0
 44
1.5
 73
     0
 74
     0
 77
     3
 78
     8
140
3.0
141
0.0
143
0.0394
147
1.0
172
     1
173
     1
174
     1
178
     7
271
     1
288
     1
340
F706
341
F770
343
F770
344
F770
  0
DIMSTYLE
105
1C645
330
746F
100
AcDbSymbolTableRecord
100
AcDbDimStyleTableRecord
  2
INABA_S50G
 70
     0
 40
0.0
 41
125.0
 42
25.0
 43
7.0
 44
75.0
 73
     0
 74
     0
 77
     3
 78
     8
140
150.0
141
0.0
143
0.0394
147
25.0
172
     1
173
     1
174
     1
178
     7
271
     1
340
F706
341
F770
343
F770
344
F770
  0
ENDTAB
  0
TABLE
  2
BLOCK_RECORD
  5
7466
330
0
100
AcDbSymbolTable
 70
    16
  0
BLOCK_RECORD
  5
747D
330
7466
100
AcDbSymbolTableRecord
100
AcDbBlockTableRecord
  2
*MODEL_SPACE
340
159B3
  0
BLOCK_RECORD
  5
747A
330
7466
100
AcDbSymbolTableRecord
100
AcDbBlockTableRecord
  2
*PAPER_SPACE
340
159B4
  0
BLOCK_RECORD
  5
F770
330
7466
100
AcDbSymbolTableRecord
100
AcDbBlockTableRecord
  2
_DOTSMALL
340
0
102
{BLKREFS
331
1D5B2
331
1D5B3
331
1D5E8
331
1D5E9
331
1D60C
331
1D60D
331
1DD17
331
1DD18
331
1DFB6
331
1DFB7
331
1DFBF
331
1DFC0
331
1DFD3
331
1DFD4
331
1DFDC
331
1DFDD
331
1DFE5
331
1DFE6
331
1DFF0
331
1DFF1
331
1DFF9
331
1DFFA
331
1E002
331
1E003
331
1E00D
331
1E00E
331
1E016
331
1E017
102
}
  0
BLOCK_RECORD
  5
1C530
330
7466
100
AcDbSymbolTableRecord
100
AcDbBlockTableRecord
  2
_NONE
340
0
  0
BLOCK_RECORD
  5
1CD38
330
7466
100
AcDbSymbolTableRecord
100
AcDbBlockTableRecord
  2
*D2
340
0
  0
BLOCK_RECORD
  5
1CD44
330
7466
100
AcDbSymbolTableRecord
100
AcDbBlockTableRecord
  2
*D3
340
0
  0
BLOCK_RECORD
  5
1CD76
330
7466
100
AcDbSymbolTableRecord
100
AcDbBlockTableRecord
  2
*D4
340
0
  0
BLOCK_RECORD
  5
1CD83
330
7466
100
AcDbSymbolTableRecord
100
AcDbBlockTableRecord
  2
*D5
340
0
  0
BLOCK_RECORD
  5
1CD8F
330
7466
100
AcDbSymbolTableRecord
100
AcDbBlockTableRecord
  2
*D6
340
0
  0
BLOCK_RECORD
  5
1CD9C
330
7466
100
AcDbSymbolTableRecord
100
AcDbBlockTableRecord
  2
*D7
340
0
  0
BLOCK_RECORD
  5
1CDB3
330
7466
100
AcDbSymbolTableRecord
100
AcDbBlockTableRecord
  2
*D8
340
0
  0
BLOCK_RECORD
  5
1CDBF
330
7466
100
AcDbSymbolTableRecord
100
AcDbBlockTableRecord
  2
*D9
340
0
  0
BLOCK_RECORD
  5
1CDCD
330
7466
100
AcDbSymbolTableRecord
100
AcDbBlockTableRecord
  2
*D10
340
0
  0
BLOCK_RECORD
  5
1CDD8
330
7466
100
AcDbSymbolTableRecord
100
AcDbBlockTableRecord
  2
*D11
340
0
  0
BLOCK_RECORD
  5
1CDE6
330
7466
100
AcDbSymbolTableRecord
100
AcDbBlockTableRecord
  2
*D12
340
0
  0
BLOCK_RECORD
  5
1D584
330
7466
100
AcDbSymbolTableRecord
100
AcDbBlockTableRecord
  2
*D13
340
0
  0
BLOCK_RECORD
  5
1DEF8
330
7466
100
AcDbSymbolTableRecord
100
AcDbBlockTableRecord
  2
*D14
340
0
  0
BLOCK_RECORD
  5
1DF04
330
7466
100
AcDbSymbolTableRecord
100
AcDbBlockTableRecord
  2
*D15
340
0
  0
ENDTAB
  0
ENDSEC
  0
SECTION
  2
BLOCKS
  0
BLOCK
  5
7489
330
747D
100
AcDbEntity
  8
0
100
AcDbBlockBegin
  2
*MODEL_SPACE
 70
     0
 10
0.0
 20
0.0
 30
0.0
  3
*MODEL_SPACE
  1

  0
ENDBLK
  5
748A
330
747D
100
AcDbEntity
  8
0
100
AcDbBlockEnd
  0
BLOCK
  5
7487
330
747A
100
AcDbEntity
 67
     1
  8
0
100
AcDbBlockBegin
  2
*PAPER_SPACE
 70
     0
 10
0.0
 20
0.0
 30
0.0
  3
*PAPER_SPACE
  1

  0
ENDBLK
  5
7488
330
747A
100
AcDbEntity
 67
     1
  8
0
100
AcDbBlockEnd
  0
BLOCK
  5
F771
330
F770
100
AcDbEntity
  8
0
 48
50.0
100
AcDbBlockBegin
  2
_DOTSMALL
 70
     0
 10
0.0
 20
0.0
 30
0.0
  3
_DOTSMALL
  1

  0
LWPOLYLINE
  5
F772
330
F770
100
AcDbEntity
  8
0
  6
ByBlock
 62
     0
 48
50.0
100
AcDbPolyline
 90
        2
 70
     1
 43
0.5
 10
-0.0625
 20
0.0
 42
1.0
 10
0.0625
 20
0.0
 42
1.0
  0
ENDBLK
  5
F776
330
F770
100
AcDbEntity
  8
0
 48
50.0
100
AcDbBlockEnd
  0
BLOCK
  5
1C531
330
1C530
100
AcDbEntity
  8
0
 48
50.0
100
AcDbBlockBegin
  2
_NONE
 70
     0
 10
0.0
 20
0.0
 30
0.0
  3
_NONE
  1

  0
CIRCLE
  5
1C532
330
1C530
100
AcDbEntity
  8
0
  6
ByBlock
 62
     0
 48
50.0
100
AcDbCircle
 10
0.0
 20
0.0
 30
0.0
 40
0.25
  0
ENDBLK
  5
1C533
330
1C530
100
AcDbEntity
  8
0
 48
50.0
100
AcDbBlockEnd
  0
BLOCK
  5
1CD42
330
1CD38
100
AcDbEntity
  8
0
 48
50.0
100
AcDbBlockBegin
  2
*D2
 70
     1
 10
0.0
 20
0.0
 30
0.0
  3
*D2
  1

  0
LINE
  5
1D5E5
330
1CD38
100
AcDbEntity
  8
寸法
 62
     0
 48
50.0
370
    -2
100
AcDbLine
 10
9039.91396638181
 20
1340.760787611756
 30
0.0
 11
9302.127213844709
 21
1340.760787611756
 31
0.0
  0
LINE
  5
1D5E6
330
1CD38
100
AcDbEntity
  8
寸法
 62
     0
 48
50.0
370
    -2
100
AcDbLine
 10
9059.3632032763
 20
1140.760787611754
 30
0.0
 11
9302.127213844709
 21
1140.760787611754
 31
0.0
  0
LINE
  5
1D5E7
330
1CD38
100
AcDbEntity
  8
寸法
 62
     0
 48
50.0
370
    -2
100
AcDbLine
 10
9242.127213844709
 20
1340.760787611756
 30
0.0
 11
9242.127213844709
 21
1140.760787611754
 31
0.0
  0
INSERT
  5
1D5E8
330
1CD38
100
AcDbEntity
  8
寸法
 62
     0
 48
50.0
370
    -2
100
AcDbBlockReference
  2
_DOTSMALL
 10
9242.127213844709
 20
1340.760787611756
 30
0.0
 41
100.0
 42
100.0
 43
100.0
 50
90.0
  0
INSERT
  5
1D5E9
330
1CD38
100
AcDbEntity
  8
寸法
 62
     0
 48
50.0
370
    -2
100
AcDbBlockReference
  2
_DOTSMALL
 10
9242.127213844709
 20
1140.760787611754
 30
0.0
 41
100.0
 42
100.0
 43
100.0
 50
270.0
  0
MTEXT
  5
1D5EA
330
1CD38
100
AcDbEntity
  8
寸法
 62
     7
 48
50.0
100
AcDbMText
 10
9142.127213844709
 20
1240.760787611757
 30
0.0
 40
120.0
 41
0.0
 71
     5
 72
     1
  1
\A1;b
  7
STYLE1
 11
0.0000000000000001
 21
1.0
 31
0.0
 73
     1
 44
1.0
1001
ACAD
1000
MTEXTBEGIN
1070
    73
1070
     1
1070
    44
1040
1.0
1070
    74
1070
     0
1000
MTEXTEND
  0
POINT
  5
1D5EB
330
1CD38
100
AcDbEntity
  8
DEFPOINTS
 62
     0
 48
50.0
100
AcDbPoint
 10
9019.91396638181
 20
1340.760787611756
 30
0.0
  0
POINT
  5
1D5EC
330
1CD38
100
AcDbEntity
  8
DEFPOINTS
 62
     0
 48
50.0
100
AcDbPoint
 10
9039.3632032763
 20
1140.760787611754
 30
0.0
  0
POINT
  5
1D5ED
330
1CD38
100
AcDbEntity
  8
DEFPOINTS
 62
     0
 48
50.0
100
AcDbPoint
 10
9242.127213844709
 20
1140.760787611754
 30
0.0
  0
ENDBLK
  5
1CD43
330
1CD38
100
AcDbEntity
  8
0
 48
50.0
100
AcDbBlockEnd
  0
BLOCK
  5
1CD4E
330
1CD44
100
AcDbEntity
  8
0
 48
50.0
100
AcDbBlockBegin
  2
*D3
 70
     1
 10
0.0
 20
0.0
 30
0.0
  3
*D3
  1

  0
LINE
  5
1D609
330
1CD44
100
AcDbEntity
  8
寸法
 62
     0
 48
50.0
370
    -2
100
AcDbLine
 10
10539.80689989895
 20
1440.760787611754
 30
0.0
 11
10782.44245361606
 21
1440.760787611754
 31
0.0
  0
LINE
  5
1D60A
330
1CD44
100
AcDbEntity
  8
寸法
 62
     0
 48
50.0
370
    -2
100
AcDbLine
 10
10569.69580798928
 20
1140.760787611754
 30
0.0
 11
10782.44245361606
 21
1140.760787611754
 31
0.0
  0
LINE
  5
1D60B
330
1CD44
100
AcDbEntity
  8
寸法
 62
     0
 48
50.0
370
    -2
100
AcDbLine
 10
10722.44245361606
 20
1440.760787611754
 30
0.0
 11
10722.44245361606
 21
1140.760787611754
 31
0.0
  0
INSERT
  5
1D60C
330
1CD44
100
AcDbEntity
  8
寸法
 62
     0
 48
50.0
370
    -2
100
AcDbBlockReference
  2
_DOTSMALL
 10
10722.44245361606
 20
1440.760787611754
 30
0.0
 41
100.0
 42
100.0
 43
100.0
 50
90.0
  0
INSERT
  5
1D60D
330
1CD44
100
AcDbEntity
  8
寸法
 62
     0
 48
50.0
370
    -2
100
AcDbBlockReference
  2
_DOTSMALL
 10
10722.44245361606
 20
1140.760787611754
 30
0.0
 41
100.0
 42
100.0
 43
100.0
 50
270.0
  0
MTEXT
  5
1D60E
330
1CD44
100
AcDbEntity
  8
寸法
 62
     7
 48
50.0
100
AcDbMText
 10
10622.44245361606
 20
1290.760787611756
 30
0.0
 40
120.0
 41
0.0
 71
     5
 72
     1
  1
\A1;c
  7
STYLE1
 11
0.0000000000000001
 21
1.0
 31
0.0
 73
     1
 44
1.0
1001
ACAD
1000
MTEXTBEGIN
1070
    73
1070
     1
1070
    44
1040
1.0
1070
    74
1070
     0
1000
MTEXTEND
  0
POINT
  5
1D60F
330
1CD44
100
AcDbEntity
  8
DEFPOINTS
 62
     0
 48
50.0
100
AcDbPoint
 10
10519.80689989895
 20
1440.760787611754
 30
0.0
  0
POINT
  5
1D610
330
1CD44
100
AcDbEntity
  8
DEFPOINTS
 62
     0
 48
50.0
100
AcDbPoint
 10
10549.69580798928
 20
1140.760787611754
 30
0.0
  0
POINT
  5
1D611
330
1CD44
100
AcDbEntity
  8
DEFPOINTS
 62
     0
 48
50.0
100
AcDbPoint
 10
10722.44245361606
 20
1140.760787611754
 30
0.0
  0
ENDBLK
  5
1CD4F
330
1CD44
100
AcDbEntity
  8
0
 48
50.0
100
AcDbBlockEnd
  0
BLOCK
  5
1CD81
330
1CD76
100
AcDbEntity
  8
0
 48
50.0
100
AcDbBlockBegin
  2
*D4
 70
     1
 10
0.0
 20
0.0
 30
0.0
  3
*D4
  1

  0
LINE
  5
1DFE2
330
1CD76
100
AcDbEntity
  8
寸法
 62
     0
 48
50.0
370
    -2
100
AcDbLine
 10
9219.600000000003
 20
5705.003545050063
 30
0.0
 11
9219.600000000003
 21
5436.678060104597
 31
0.0
  0
LINE
  5
1DFE3
330
1CD76
100
AcDbEntity
  8
寸法
 62
     0
 48
50.0
370
    -2
100
AcDbLine
 10
9019.600000000002
 20
5705.003545050061
 30
0.0
 11
9019.600000000002
 21
5436.678060104597
 31
0.0
  0
LINE
  5
1DFE4
330
1CD76
100
AcDbEntity
  8
寸法
 62
     0
 48
50.0
370
    -2
100
AcDbLine
 10
9219.600000000003
 20
5496.678060104597
 30
0.0
 11
9019.600000000002
 21
5496.678060104597
 31
0.0
  0
INSERT
  5
1DFE5
330
1CD76
100
AcDbEntity
  8
寸法
 62
     0
 48
50.0
370
    -2
100
AcDbBlockReference
  2
_DOTSMALL
 10
9219.600000000003
 20
5496.678060104597
 30
0.0
 41
100.0
 42
100.0
 43
100.0
  0
INSERT
  5
1DFE6
330
1CD76
100
AcDbEntity
  8
寸法
 62
     0
 48
50.0
370
    -2
100
AcDbBlockReference
  2
_DOTSMALL
 10
9019.600000000002
 20
5496.678060104597
 30
0.0
 41
100.0
 42
100.0
 43
100.0
 50
180.0
  0
MTEXT
  5
1DFE7
330
1CD76
100
AcDbEntity
  8
寸法
 62
     7
 48
50.0
100
AcDbMText
 10
9119.600000000003
 20
5596.689871128219
 30
0.0
 40
120.0
 41
0.0
 71
     5
 72
     1
  1
\A1;200
  7
STYLE1
 73
     1
 44
1.0
1001
ACAD
1000
MTEXTBEGIN
1070
    73
1070
     1
1070
    44
1040
1.0
1070
    74
1070
     0
1000
MTEXTEND
  0
POINT
  5
1DFE8
330
1CD76
100
AcDbEntity
  8
DEFPOINTS
 62
     0
 48
50.0
100
AcDbPoint
 10
9219.600000000003
 20
5725.003545050062
 30
0.0
  0
POINT
  5
1DFE9
330
1CD76
100
AcDbEntity
  8
DEFPOINTS
 62
     0
 48
50.0
100
AcDbPoint
 10
9019.600000000002
 20
5725.003545050062
 30
0.0
  0
POINT
  5
1DFEA
330
1CD76
100
AcDbEntity
  8
DEFPOINTS
 62
     0
 48
50.0
100
AcDbPoint
 10
9019.600000000002
 20
5496.678060104597
 30
0.0
  0
ENDBLK
  5
1CD82
330
1CD76
100
AcDbEntity
  8
0
 48
50.0
100
AcDbBlockEnd
  0
BLOCK
  5
1CD8D
330
1CD83
100
AcDbEntity
  8
0
 48
50.0
100
AcDbBlockBegin
  2
*D5
 70
     1
 10
0.0
 20
0.0
 30
0.0
  3
*D5
  1

  0
LINE
  5
1DFD9
330
1CD83
100
AcDbEntity
  8
寸法
 62
     0
 48
50.0
370
    -2
100
AcDbLine
 10
9239.599999999997
 20
5925.003545050059
 30
0.0
 11
9543.665147516209
 21
5925.003545050059
 31
0.0
  0
LINE
  5
1DFDA
330
1CD83
100
AcDbEntity
  8
寸法
 62
     0
 48
50.0
370
    -2
100
AcDbLine
 10
9239.600000000002
 20
5725.003545050062
 30
0.0
 11
9543.665147516209
 21
5725.003545050062
 31
0.0
  0
LINE
  5
1DFDB
330
1CD83
100
AcDbEntity
  8
寸法
 62
     0
 48
50.0
370
    -2
100
AcDbLine
 10
9483.665147516209
 20
5925.003545050059
 30
0.0
 11
9483.665147516209
 21
5725.003545050062
 31
0.0
  0
INSERT
  5
1DFDC
330
1CD83
100
AcDbEntity
  8
寸法
 62
     0
 48
50.0
370
    -2
100
AcDbBlockReference
  2
_DOTSMALL
 10
9483.665147516209
 20
5925.003545050059
 30
0.0
 41
100.0
 42
100.0
 43
100.0
 50
90.0
  0
INSERT
  5
1DFDD
330
1CD83
100
AcDbEntity
  8
寸法
 62
     0
 48
50.0
370
    -2
100
AcDbBlockReference
  2
_DOTSMALL
 10
9483.665147516209
 20
5725.003545050062
 30
0.0
 41
100.0
 42
100.0
 43
100.0
 50
270.0
  0
MTEXT
  5
1DFDE
330
1CD83
100
AcDbEntity
  8
寸法
 62
     7
 48
50.0
100
AcDbMText
 10
9383.653336492585
 20
5825.003545050062
 30
0.0
 40
120.0
 41
0.0
 71
     5
 72
     1
  1
\A1;200
  7
STYLE1
 11
0.0000000000000001
 21
1.0
 31
0.0
 73
     1
 44
1.0
1001
ACAD
1000
MTEXTBEGIN
1070
    73
1070
     1
1070
    44
1040
1.0
1070
    74
1070
     0
1000
MTEXTEND
  0
POINT
  5
1DFDF
330
1CD83
100
AcDbEntity
  8
DEFPOINTS
 62
     0
 48
50.0
100
AcDbPoint
 10
9219.599999999998
 20
5925.003545050059
 30
0.0
  0
POINT
  5
1DFE0
330
1CD83
100
AcDbEntity
  8
DEFPOINTS
 62
     0
 48
50.0
100
AcDbPoint
 10
9219.600000000003
 20
5725.003545050062
 30
0.0
  0
POINT
  5
1DFE1
330
1CD83
100
AcDbEntity
  8
DEFPOINTS
 62
     0
 48
50.0
100
AcDbPoint
 10
9483.665147516209
 20
5725.003545050062
 30
0.0
  0
ENDBLK
  5
1CD8E
330
1CD83
100
AcDbEntity
  8
0
 48
50.0
100
AcDbBlockEnd
  0
BLOCK
  5
1CD9A
330
1CD8F
100
AcDbEntity
  8
0
 48
50.0
100
AcDbBlockBegin
  2
*D6
 70
     1
 10
0.0
 20
0.0
 30
0.0
  3
*D6
  1

  0
LINE
  5
1DFCE
330
1CD8F
100
AcDbEntity
  8
寸法
 62
     0
 48
50.0
370
    -2
100
AcDbLine
 10
9119.600000000001
 20
7637.003545050065
 30
0.0
 11
9119.600000000001
 21
8069.416132721688
 31
0.0
  0
LINE
  5
1DFCF
330
1CD8F
100
AcDbEntity
  8
寸法
 62
     0
 48
50.0
370
    -2
100
AcDbLine
 10
9169.6
 20
7717.003545050069
 30
0.0
 11
9169.6
 21
8069.416132721688
 31
0.0
  0
LINE
  5
1DFD0
330
1CD8F
100
AcDbEntity
  8
寸法
 62
     0
 48
50.0
370
    -2
100
AcDbLine
 10
9119.600000000001
 20
8009.416132721687
 30
0.0
 11
9019.600000000002
 21
8009.416132721687
 31
0.0
  0
LINE
  5
1DFD1
330
1CD8F
100
AcDbEntity
  8
寸法
 62
     0
 48
50.0
370
    -2
100
AcDbLine
 10
9169.6
 20
8009.416132721687
 30
0.0
 11
9269.600000000002
 21
8009.416132721687
 31
0.0
  0
LINE
  5
1DFD2
330
1CD8F
100
AcDbEntity
  8
寸法
 62
     0
 48
50.0
370
    -2
100
AcDbLine
 10
9119.600000000001
 20
8009.416132721687
 30
0.0
 11
9169.6
 21
8009.416132721687
 31
0.0
  0
INSERT
  5
1DFD3
330
1CD8F
100
AcDbEntity
  8
寸法
 62
     0
 48
50.0
370
    -2
100
AcDbBlockReference
  2
_DOTSMALL
 10
9119.600000000001
 20
8009.416132721687
 30
0.0
 41
100.0
 42
100.0
 43
100.0
  0
INSERT
  5
1DFD4
330
1CD8F
100
AcDbEntity
  8
寸法
 62
     0
 48
50.0
370
    -2
100
AcDbBlockReference
  2
_DOTSMALL
 10
9169.6
 20
8009.416132721687
 30
0.0
 41
100.0
 42
100.0
 43
100.0
 50
180.0
  0
MTEXT
  5
1DFD5
330
1CD8F
100
AcDbEntity
  8
寸法
 62
     7
 48
50.0
100
AcDbMText
 10
9144.600000000002
 20
8109.416132721689
 30
0.0
 40
120.0
 41
0.0
 71
     5
 72
     1
  1
\A1;a
  7
STYLE1
 73
     1
 44
1.0
1001
ACAD
1000
MTEXTBEGIN
1070
    73
1070
     1
1070
    44
1040
1.0
1070
    74
1070
     0
1000
MTEXTEND
  0
POINT
  5
1DFD6
330
1CD8F
100
AcDbEntity
  8
DEFPOINTS
 62
     0
 48
50.0
100
AcDbPoint
 10
9119.600000000001
 20
7617.003545050066
 30
0.0
  0
POINT
  5
1DFD7
330
1CD8F
100
AcDbEntity
  8
DEFPOINTS
 62
     0
 48
50.0
100
AcDbPoint
 10
9169.6
 20
7697.003545050069
 30
0.0
  0
POINT
  5
1DFD8
330
1CD8F
100
AcDbEntity
  8
DEFPOINTS
 62
     0
 48
50.0
100
AcDbPoint
 10
9169.6
 20
8009.416132721687
 30
0.0
  0
ENDBLK
  5
1CD9B
330
1CD8F
100
AcDbEntity
  8
0
 48
50.0
100
AcDbBlockEnd
  0
BLOCK
  5
1CDA5
330
1CD9C
100
AcDbEntity
  8
0
 48
50.0
100
AcDbBlockBegin
  2
*D7
 70
     1
 10
0.0
 20
0.0
 30
0.0
  3
*D7
  1

  0
LINE
  5
1E013
330
1CD9C
100
AcDbEntity
  8
寸法
 62
     0
 48
50.0
370
    -2
100
AcDbLine
 10
7747.6
 20
7637.003545050065
 30
0.0
 11
7747.6
 21
8069.416132721686
 31
0.0
  0
LINE
  5
1E014
330
1CD9C
100
AcDbEntity
  8
寸法
 62
     0
 48
50.0
370
    -2
100
AcDbLine
 10
9119.600000000001
 20
7637.003545050065
 30
0.0
 11
9119.600000000001
 21
8069.416132721686
 31
0.0
  0
LINE
  5
1E015
330
1CD9C
100
AcDbEntity
  8
寸法
 62
     0
 48
50.0
370
    -2
100
AcDbLine
 10
7747.6
 20
8009.416132721687
 30
0.0
 11
9119.600000000001
 21
8009.416132721687
 31
0.0
  0
INSERT
  5
1E016
330
1CD9C
100
AcDbEntity
  8
寸法
 62
     0
 48
50.0
370
    -2
100
AcDbBlockReference
  2
_DOTSMALL
 10
7747.6
 20
8009.416132721687
 30
0.0
 41
100.0
 42
100.0
 43
100.0
 50
180.0
  0
INSERT
  5
1E017
330
1CD9C
100
AcDbEntity
  8
寸法
 62
     0
 48
50.0
370
    -2
100
AcDbBlockReference
  2
_DOTSMALL
 10
9119.600000000001
 20
8009.416132721687
 30
0.0
 41
100.0
 42
100.0
 43
100.0
  0
MTEXT
  5
1E018
330
1CD9C
100
AcDbEntity
  8
寸法
 62
     7
 48
50.0
100
AcDbMText
 10
8433.6
 20
8109.427943745307
 30
0.0
 40
120.0
 41
0.0
 71
     5
 72
     1
  1
\A1;1372
  7
STYLE1
 73
     1
 44
1.0
1001
ACAD
1000
MTEXTBEGIN
1070
    73
1070
     1
1070
    44
1040
1.0
1070
    74
1070
     0
1000
MTEXTEND
  0
POINT
  5
1E019
330
1CD9C
100
AcDbEntity
  8
DEFPOINTS
 62
     0
 48
50.0
100
AcDbPoint
 10
7747.6
 20
7617.003545050066
 30
0.0
  0
POINT
  5
1E01A
330
1CD9C
100
AcDbEntity
  8
DEFPOINTS
 62
     0
 48
50.0
100
AcDbPoint
 10
9119.600000000001
 20
7617.003545050066
 30
0.0
  0
POINT
  5
1E01B
330
1CD9C
100
AcDbEntity
  8
DEFPOINTS
 62
     0
 48
50.0
100
AcDbPoint
 10
9119.600000000001
 20
8009.416132721687
 30
0.0
  0
ENDBLK
  5
1CDA6
330
1CD9C
100
AcDbEntity
  8
0
 48
50.0
100
AcDbBlockEnd
  0
BLOCK
  5
1CDBD
330
1CDB3
100
AcDbEntity
  8
0
 48
50.0
100
AcDbBlockBegin
  2
*D8
 70
     1
 10
0.0
 20
0.0
 30
0.0
  3
*D8
  1

  0
LINE
  5
1DD14
330
1CDB3
100
AcDbEntity
  8
寸法
 62
     0
 48
50.0
370
    -2
100
AcDbLine
 10
6986.307702263201
 20
1140.760787611754
 30
0.0
 11
6854.362273998908
 21
1140.760787611754
 31
0.0
  0
LINE
  5
1DD15
330
1CDB3
100
AcDbEntity
  8
寸法
 62
     0
 48
50.0
370
    -2
100
AcDbLine
 10
7086.307702263201
 20
640.7607876117545
 30
0.0
 11
6854.362273998908
 21
640.7607876117546
 31
0.0
  0
LINE
  5
1DD16
330
1CDB3
100
AcDbEntity
  8
寸法
 62
     0
 48
50.0
370
    -2
100
AcDbLine
 10
6914.362273998908
 20
1140.760787611754
 30
0.0
 11
6914.362273998908
 21
640.7607876117545
 31
0.0
  0
INSERT
  5
1DD17
330
1CDB3
100
AcDbEntity
  8
寸法
 62
     0
 48
50.0
370
    -2
100
AcDbBlockReference
  2
_DOTSMALL
 10
6914.362273998908
 20
1140.760787611754
 30
0.0
 41
100.0
 42
100.0
 43
100.0
 50
90.0
  0
INSERT
  5
1DD18
330
1CDB3
100
AcDbEntity
  8
寸法
 62
     0
 48
50.0
370
    -2
100
AcDbBlockReference
  2
_DOTSMALL
 10
6914.362273998908
 20
640.7607876117545
 30
0.0
 41
100.0
 42
100.0
 43
100.0
 50
270.0
  0
MTEXT
  5
1DD19
330
1CDB3
100
AcDbEntity
  8
寸法
 62
     7
 48
50.0
100
AcDbMText
 10
6814.350462975287
 20
882.850377456838
 30
0.0
 40
120.0
 41
0.0
 71
     5
 72
     1
  1
\A1;200
  7
STYLE1
 11
0.0000000000000001
 21
1.0
 31
0.0
 73
     1
 44
1.0
1001
ACAD
1000
MTEXTBEGIN
1070
    73
1070
     1
1070
    44
1040
1.0
1070
    74
1070
     0
1000
MTEXTEND
  0
POINT
  5
1DD1A
330
1CDB3
100
AcDbEntity
  8
DEFPOINTS
 62
     0
 48
50.0
100
AcDbPoint
 10
7006.3077022632
 20
1140.760787611754
 30
0.0
  0
POINT
  5
1DD1B
330
1CDB3
100
AcDbEntity
  8
DEFPOINTS
 62
     0
 48
50.0
100
AcDbPoint
 10
7106.3077022632
 20
640.7607876117545
 30
0.0
  0
POINT
  5
1DD1C
330
1CDB3
100
AcDbEntity
  8
DEFPOINTS
 62
     0
 48
50.0
100
AcDbPoint
 10
6914.362273998908
 20
640.7607876117545
 30
0.0
  0
ENDBLK
  5
1CDBE
330
1CDB3
100
AcDbEntity
  8
0
 48
50.0
100
AcDbBlockEnd
  0
BLOCK
  5
1CDCB
330
1CDBF
100
AcDbEntity
  8
0
 48
50.0
100
AcDbBlockBegin
  2
*D9
 70
     1
 10
0.0
 20
0.0
 30
0.0
  3
*D9
  1

  0
LINE
  5
1E008
330
1CDBF
100
AcDbEntity
  8
寸法
 62
     0
 48
50.0
370
    -2
100
AcDbLine
 10
7727.600000000001
 20
5825.003545050066
 30
0.0
 11
7046.88811655075
 21
5825.003545050066
 31
0.0
  0
LINE
  5
1E009
330
1CDBF
100
AcDbEntity
  8
寸法
 62
     0
 48
50.0
370
    -2
100
AcDbLine
 10
7677.600000000001
 20
5765.003545050065
 30
0.0
 11
7046.88811655075
 21
5765.003545050065
 31
0.0
  0
LINE
  5
1E00A
330
1CDBF
100
AcDbEntity
  8
寸法
 62
     0
 48
50.0
370
    -2
100
AcDbLine
 10
7106.88811655075
 20
5825.003545050066
 30
0.0
 11
7106.88811655075
 21
5925.003545050065
 31
0.0
  0
LINE
  5
1E00B
330
1CDBF
100
AcDbEntity
  8
寸法
 62
     0
 48
50.0
370
    -2
100
AcDbLine
 10
7106.88811655075
 20
5765.003545050065
 30
0.0
 11
7106.88811655075
 21
5665.003545050065
 31
0.0
  0
LINE
  5
1E00C
330
1CDBF
100
AcDbEntity
  8
寸法
 62
     0
 48
50.0
370
    -2
100
AcDbLine
 10
7106.88811655075
 20
5825.003545050066
 30
0.0
 11
7106.88811655075
 21
5765.003545050065
 31
0.0
  0
INSERT
  5
1E00D
330
1CDBF
100
AcDbEntity
  8
寸法
 62
     0
 48
50.0
370
    -2
100
AcDbBlockReference
  2
_DOTSMALL
 10
7106.88811655075
 20
5825.003545050066
 30
0.0
 41
100.0
 42
100.0
 43
100.0
 50
270.0
  0
INSERT
  5
1E00E
330
1CDBF
100
AcDbEntity
  8
寸法
 62
     0
 48
50.0
370
    -2
100
AcDbBlockReference
  2
_DOTSMALL
 10
7106.88811655075
 20
5765.003545050065
 30
0.0
 41
100.0
 42
100.0
 43
100.0
 50
90.0
  0
MTEXT
  5
1E00F
330
1CDBF
100
AcDbEntity
  8
寸法
 62
     7
 48
50.0
100
AcDbMText
 10
7006.888116550749
 20
5795.003545050067
 30
0.0
 40
120.0
 41
0.0
 71
     5
 72
     1
  1
\A1;b
  7
STYLE1
 11
0.0000000000000001
 21
1.0
 31
0.0
 73
     1
 44
1.0
1001
ACAD
1000
MTEXTBEGIN
1070
    73
1070
     1
1070
    44
1040
1.0
1070
    74
1070
     0
1000
MTEXTEND
  0
POINT
  5
1E010
330
1CDBF
100
AcDbEntity
  8
DEFPOINTS
 62
     0
 48
50.0
100
AcDbPoint
 10
7747.6
 20
5825.003545050066
 30
0.0
  0
POINT
  5
1E011
330
1CDBF
100
AcDbEntity
  8
DEFPOINTS
 62
     0
 48
50.0
100
AcDbPoint
 10
7697.6
 20
5765.003545050065
 30
0.0
  0
POINT
  5
1E012
330
1CDBF
100
AcDbEntity
  8
DEFPOINTS
 62
     0
 48
50.0
100
AcDbPoint
 10
7106.88811655075
 20
5765.003545050065
 30
0.0
  0
ENDBLK
  5
1CDCC
330
1CDBF
100
AcDbEntity
  8
0
 48
50.0
100
AcDbBlockEnd
  0
BLOCK
  5
1CDD6
330
1CDCD
100
AcDbEntity
  8
0
 48
50.0
100
AcDbBlockBegin
  2
*D10
 70
     1
 10
0.0
 20
0.0
 30
0.0
  3
*D10
  1

  0
LINE
  5
1DFFF
330
1CDCD
100
AcDbEntity
  8
寸法
 62
     0
 48
50.0
370
    -2
100
AcDbLine
 10
7727.600000000004
 20
7617.003545050066
 30
0.0
 11
7046.888116550751
 21
7617.003545050066
 31
0.0
  0
LINE
  5
1E000
330
1CDCD
100
AcDbEntity
  8
寸法
 62
     0
 48
50.0
370
    -2
100
AcDbLine
 10
7727.600000000001
 20
5825.003545050066
 30
0.0
 11
7046.88811655075
 21
5825.003545050066
 31
0.0
  0
LINE
  5
1E001
330
1CDCD
100
AcDbEntity
  8
寸法
 62
     0
 48
50.0
370
    -2
100
AcDbLine
 10
7106.88811655075
 20
7617.003545050066
 30
0.0
 11
7106.88811655075
 21
5825.003545050066
 31
0.0
  0
INSERT
  5
1E002
330
1CDCD
100
AcDbEntity
  8
寸法
 62
     0
 48
50.0
370
    -2
100
AcDbBlockReference
  2
_DOTSMALL
 10
7106.88811655075
 20
7617.003545050066
 30
0.0
 41
100.0
 42
100.0
 43
100.0
 50
90.0
  0
INSERT
  5
1E003
330
1CDCD
100
AcDbEntity
  8
寸法
 62
     0
 48
50.0
370
    -2
100
AcDbBlockReference
  2
_DOTSMALL
 10
7106.88811655075
 20
5825.003545050066
 30
0.0
 41
100.0
 42
100.0
 43
100.0
 50
270.0
  0
MTEXT
  5
1E004
330
1CDCD
100
AcDbEntity
  8
寸法
 62
     7
 48
50.0
100
AcDbMText
 10
7006.847303985946
 20
6721.003545050066
 30
0.0
 40
120.0
 41
0.0
 71
     5
 72
     1
  1
\A1;1792
  7
STYLE1
 11
0.0000000000000001
 21
1.0
 31
0.0
 73
     1
 44
1.0
1001
ACAD
1000
MTEXTBEGIN
1070
    73
1070
     1
1070
    44
1040
1.0
1070
    74
1070
     0
1000
MTEXTEND
  0
POINT
  5
1E005
330
1CDCD
100
AcDbEntity
  8
DEFPOINTS
 62
     0
 48
50.0
100
AcDbPoint
 10
7747.600000000002
 20
7617.003545050066
 30
0.0
  0
POINT
  5
1E006
330
1CDCD
100
AcDbEntity
  8
DEFPOINTS
 62
     0
 48
50.0
100
AcDbPoint
 10
7747.6
 20
5825.003545050066
 30
0.0
  0
POINT
  5
1E007
330
1CDCD
100
AcDbEntity
  8
DEFPOINTS
 62
     0
 48
50.0
100
AcDbPoint
 10
7106.88811655075
 20
5825.003545050066
 30
0.0
  0
ENDBLK
  5
1CDD7
330
1CDCD
100
AcDbEntity
  8
0
 48
50.0
100
AcDbBlockEnd
  0
BLOCK
  5
1CDE4
330
1CDD8
100
AcDbEntity
  8
0
 48
50.0
100
AcDbBlockBegin
  2
*D11
 70
     1
 10
0.0
 20
0.0
 30
0.0
  3
*D11
  1

  0
LINE
  5
1DFF6
330
1CDD8
100
AcDbEntity
  8
寸法
 62
     0
 48
50.0
370
    -2
100
AcDbLine
 10
7677.600000000001
 20
7697.003545050066
 30
0.0
 11
7046.88811655075
 21
7697.003545050066
 31
0.0
  0
LINE
  5
1DFF7
330
1CDD8
100
AcDbEntity
  8
寸法
 62
     0
 48
50.0
370
    -2
100
AcDbLine
 10
7727.600000000001
 20
7617.003545050066
 30
0.0
 11
7046.88811655075
 21
7617.003545050066
 31
0.0
  0
LINE
  5
1DFF8
330
1CDD8
100
AcDbEntity
  8
寸法
 62
     0
 48
50.0
370
    -2
100
AcDbLine
 10
7106.88811655075
 20
7697.003545050066
 30
0.0
 11
7106.88811655075
 21
7617.003545050066
 31
0.0
  0
INSERT
  5
1DFF9
330
1CDD8
100
AcDbEntity
  8
寸法
 62
     0
 48
50.0
370
    -2
100
AcDbBlockReference
  2
_DOTSMALL
 10
7106.88811655075
 20
7697.003545050066
 30
0.0
 41
100.0
 42
100.0
 43
100.0
 50
90.0
  0
INSERT
  5
1DFFA
330
1CDD8
100
AcDbEntity
  8
寸法
 62
     0
 48
50.0
370
    -2
100
AcDbBlockReference
  2
_DOTSMALL
 10
7106.88811655075
 20
7617.003545050066
 30
0.0
 41
100.0
 42
100.0
 43
100.0
 50
270.0
  0
MTEXT
  5
1DFFB
330
1CDD8
100
AcDbEntity
  8
寸法
 62
     7
 48
50.0
100
AcDbMText
 10
7006.888116550749
 20
7657.003545050066
 30
0.0
 40
120.0
 41
0.0
 71
     5
 72
     1
  1
\A1;c
  7
STYLE1
 11
0.0000000000000001
 21
1.0
 31
0.0
 73
     1
 44
1.0
1001
ACAD
1000
MTEXTBEGIN
1070
    73
1070
     1
1070
    44
1040
1.0
1070
    74
1070
     0
1000
MTEXTEND
  0
POINT
  5
1DFFC
330
1CDD8
100
AcDbEntity
  8
DEFPOINTS
 62
     0
 48
50.0
100
AcDbPoint
 10
7697.6
 20
7697.003545050066
 30
0.0
  0
POINT
  5
1DFFD
330
1CDD8
100
AcDbEntity
  8
DEFPOINTS
 62
     0
 48
50.0
100
AcDbPoint
 10
7747.6
 20
7617.003545050066
 30
0.0
  0
POINT
  5
1DFFE
330
1CDD8
100
AcDbEntity
  8
DEFPOINTS
 62
     0
 48
50.0
100
AcDbPoint
 10
7106.88811655075
 20
7617.003545050066
 30
0.0
  0
ENDBLK
  5
1CDE5
330
1CDD8
100
AcDbEntity
  8
0
 48
50.0
100
AcDbBlockEnd
  0
BLOCK
  5
1CDF1
330
1CDE6
100
AcDbEntity
  8
0
 48
50.0
100
AcDbBlockBegin
  2
*D12
 70
     1
 10
0.0
 20
0.0
 30
0.0
  3
*D12
  1

  0
LINE
  5
1DFEB
330
1CDE6
100
AcDbEntity
  8
寸法
 62
     0
 48
50.0
370
    -2
100
AcDbLine
 10
7697.6
 20
7717.003545050066
 30
0.0
 11
7697.6
 21
8069.416132721688
 31
0.0
  0
LINE
  5
1DFEC
330
1CDE6
100
AcDbEntity
  8
寸法
 62
     0
 48
50.0
370
    -2
100
AcDbLine
 10
7747.6
 20
7637.003545050065
 30
0.0
 11
7747.6
 21
8069.416132721688
 31
0.0
  0
LINE
  5
1DFED
330
1CDE6
100
AcDbEntity
  8
寸法
 62
     0
 48
50.0
370
    -2
100
AcDbLine
 10
7697.6
 20
8009.416132721687
 30
0.0
 11
7597.599999999999
 21
8009.416132721687
 31
0.0
  0
LINE
  5
1DFEE
330
1CDE6
100
AcDbEntity
  8
寸法
 62
     0
 48
50.0
370
    -2
100
AcDbLine
 10
7747.6
 20
8009.416132721687
 30
0.0
 11
7847.599999999999
 21
8009.416132721687
 31
0.0
  0
LINE
  5
1DFEF
330
1CDE6
100
AcDbEntity
  8
寸法
 62
     0
 48
50.0
370
    -2
100
AcDbLine
 10
7697.6
 20
8009.416132721687
 30
0.0
 11
7747.6
 21
8009.416132721687
 31
0.0
  0
INSERT
  5
1DFF0
330
1CDE6
100
AcDbEntity
  8
寸法
 62
     0
 48
50.0
370
    -2
100
AcDbBlockReference
  2
_DOTSMALL
 10
7697.6
 20
8009.416132721687
 30
0.0
 41
100.0
 42
100.0
 43
100.0
  0
INSERT
  5
1DFF1
330
1CDE6
100
AcDbEntity
  8
寸法
 62
     0
 48
50.0
370
    -2
100
AcDbBlockReference
  2
_DOTSMALL
 10
7747.6
 20
8009.416132721687
 30
0.0
 41
100.0
 42
100.0
 43
100.0
 50
180.0
  0
MTEXT
  5
1DFF2
330
1CDE6
100
AcDbEntity
  8
寸法
 62
     7
 48
50.0
100
AcDbMText
 10
7722.599999999999
 20
8109.416132721689
 30
0.0
 40
120.0
 41
0.0
 71
     5
 72
     1
  1
\A1;a
  7
STYLE1
 73
     1
 44
1.0
1001
ACAD
1000
MTEXTBEGIN
1070
    73
1070
     1
1070
    44
1040
1.0
1070
    74
1070
     0
1000
MTEXTEND
  0
POINT
  5
1DFF3
330
1CDE6
100
AcDbEntity
  8
DEFPOINTS
 62
     0
 48
50.0
100
AcDbPoint
 10
7697.6
 20
7697.003545050066
 30
0.0
  0
POINT
  5
1DFF4
330
1CDE6
100
AcDbEntity
  8
DEFPOINTS
 62
     0
 48
50.0
100
AcDbPoint
 10
7747.6
 20
7617.003545050066
 30
0.0
  0
POINT
  5
1DFF5
330
1CDE6
100
AcDbEntity
  8
DEFPOINTS
 62
     0
 48
50.0
100
AcDbPoint
 10
7747.6
 20
8009.416132721687
 30
0.0
  0
ENDBLK
  5
1CDF2
330
1CDE6
100
AcDbEntity
  8
0
 48
50.0
100
AcDbBlockEnd
  0
BLOCK
  5
1D58F
330
1D584
100
AcDbEntity
  8
0
 48
50.0
100
AcDbBlockBegin
  2
*D13
 70
     1
 10
0.0
 20
0.0
 30
0.0
  3
*D13
  1

  0
LINE
  5
1D5AF
330
1D584
100
AcDbEntity
  8
寸法
 62
     0
 48
50.0
370
    -2
100
AcDbLine
 10
7426.307702263203
 20
1340.760787611755
 30
0.0
 11
7714.378706623596
 21
1340.760787611755
 31
0.0
  0
LINE
  5
1D5B0
330
1D584
100
AcDbEntity
  8
寸法
 62
     0
 48
50.0
370
    -2
100
AcDbLine
 10
7426.307702263205
 20
1140.760787611754
 30
0.0
 11
7714.378706623596
 21
1140.760787611754
 31
0.0
  0
LINE
  5
1D5B1
330
1D584
100
AcDbEntity
  8
寸法
 62
     0
 48
50.0
370
    -2
100
AcDbLine
 10
7654.378706623596
 20
1340.760787611755
 30
0.0
 11
7654.378706623596
 21
1140.760787611754
 31
0.0
  0
INSERT
  5
1D5B2
330
1D584
100
AcDbEntity
  8
寸法
 62
     0
 48
50.0
370
    -2
100
AcDbBlockReference
  2
_DOTSMALL
 10
7654.378706623596
 20
1340.760787611755
 30
0.0
 41
100.0
 42
100.0
 43
100.0
 50
90.0
  0
INSERT
  5
1D5B3
330
1D584
100
AcDbEntity
  8
寸法
 62
     0
 48
50.0
370
    -2
100
AcDbBlockReference
  2
_DOTSMALL
 10
7654.378706623596
 20
1140.760787611754
 30
0.0
 41
100.0
 42
100.0
 43
100.0
 50
270.0
  0
MTEXT
  5
1D5B4
330
1D584
100
AcDbEntity
  8
寸法
 62
     7
 48
50.0
100
AcDbMText
 10
7554.378706623596
 20
1240.760787611756
 30
0.0
 40
120.0
 41
0.0
 71
     5
 72
     1
  1
\A1;a
  7
STYLE1
 11
0.0000000000000001
 21
1.0
 31
0.0
 73
     1
 44
1.0
1001
ACAD
1000
MTEXTBEGIN
1070
    73
1070
     1
1070
    44
1040
1.0
1070
    74
1070
     0
1000
MTEXTEND
  0
POINT
  5
1D5B5
330
1D584
100
AcDbEntity
  8
DEFPOINTS
 62
     0
 48
50.0
100
AcDbPoint
 10
7406.307702263203
 20
1340.760787611755
 30
0.0
  0
POINT
  5
1D5B6
330
1D584
100
AcDbEntity
  8
DEFPOINTS
 62
     0
 48
50.0
100
AcDbPoint
 10
7406.307702263204
 20
1140.760787611754
 30
0.0
  0
POINT
  5
1D5B7
330
1D584
100
AcDbEntity
  8
DEFPOINTS
 62
     0
 48
50.0
100
AcDbPoint
 10
7654.378706623596
 20
1140.760787611754
 30
0.0
  0
ENDBLK
  5
1D590
330
1D584
100
AcDbEntity
  8
0
 48
50.0
100
AcDbBlockEnd
  0
BLOCK
  5
1DF02
330
1DEF8
100
AcDbEntity
  8
0
 48
50.0
100
AcDbBlockBegin
  2
*D14
 70
     1
 10
0.0
 20
0.0
 30
0.0
  3
*D14
  1

  0
LINE
  5
1DFB3
330
1DEF8
100
AcDbEntity
  8
寸法
 62
     0
 48
50.0
370
    -2
100
AcDbLine
 10
7727.600000000001
 20
6758.003545050065
 30
0.0
 11
7248.978338615607
 21
6758.003545050065
 31
0.0
  0
LINE
  5
1DFB4
330
1DEF8
100
AcDbEntity
  8
寸法
 62
     0
 48
50.0
370
    -2
100
AcDbLine
 10
7727.600000000001
 20
5825.003545050066
 30
0.0
 11
7248.978338615607
 21
5825.003545050066
 31
0.0
  0
LINE
  5
1DFB5
330
1DEF8
100
AcDbEntity
  8
寸法
 62
     0
 48
50.0
370
    -2
100
AcDbLine
 10
7308.978338615609
 20
6758.003545050065
 30
0.0
 11
7308.978338615607
 21
5825.003545050066
 31
0.0
  0
INSERT
  5
1DFB6
330
1DEF8
100
AcDbEntity
  8
寸法
 62
     0
 48
50.0
370
    -2
100
AcDbBlockReference
  2
_DOTSMALL
 10
7308.978338615609
 20
6758.003545050065
 30
0.0
 41
100.0
 42
100.0
 43
100.0
 50
90.0
  0
INSERT
  5
1DFB7
330
1DEF8
100
AcDbEntity
  8
寸法
 62
     0
 48
50.0
370
    -2
100
AcDbBlockReference
  2
_DOTSMALL
 10
7308.978338615607
 20
5825.003545050066
 30
0.0
 41
100.0
 42
100.0
 43
100.0
 50
270.0
  0
MTEXT
  5
1DFB8
330
1DEF8
100
AcDbEntity
  8
寸法
 62
     7
 48
50.0
100
AcDbMText
 10
7208.978338615605
 20
6291.503545050067
 30
0.0
 40
120.0
 41
0.0
 71
     5
 72
     1
  1
\A1;933
  7
STYLE1
 11
0.0000000000000001
 21
1.0
 31
0.0
 73
     1
 44
1.0
1001
ACAD
1000
MTEXTBEGIN
1070
    73
1070
     1
1070
    44
1040
1.0
1070
    74
1070
     0
1000
MTEXTEND
  0
POINT
  5
1DFB9
330
1DEF8
100
AcDbEntity
  8
DEFPOINTS
 62
     0
 48
50.0
100
AcDbPoint
 10
7747.6
 20
6758.003545050065
 30
0.0
  0
POINT
  5
1DFBA
330
1DEF8
100
AcDbEntity
  8
DEFPOINTS
 62
     0
 48
50.0
100
AcDbPoint
 10
7747.6
 20
5825.003545050066
 30
0.0
  0
POINT
  5
1DFBB
330
1DEF8
100
AcDbEntity
  8
DEFPOINTS
 62
     0
 48
50.0
100
AcDbPoint
 10
7308.978338615607
 20
5825.003545050066
 30
0.0
  0
ENDBLK
  5
1DF03
330
1DEF8
100
AcDbEntity
  8
0
 48
50.0
100
AcDbBlockEnd
  0
BLOCK
  5
1DF0E
330
1DF04
100
AcDbEntity
  8
0
 48
50.0
100
AcDbBlockBegin
  2
*D15
 70
     1
 10
0.0
 20
0.0
 30
0.0
  3
*D15
  1

  0
LINE
  5
1DFBC
330
1DF04
100
AcDbEntity
  8
寸法
 62
     0
 48
50.0
370
    -2
100
AcDbLine
 10
7727.600000000001
 20
7617.003545050066
 30
0.0
 11
7248.978338615607
 21
7617.003545050066
 31
0.0
  0
LINE
  5
1DFBD
330
1DF04
100
AcDbEntity
  8
寸法
 62
     0
 48
50.0
370
    -2
100
AcDbLine
 10
7727.600000000001
 20
6758.003545050065
 30
0.0
 11
7248.978338615607
 21
6758.003545050065
 31
0.0
  0
LINE
  5
1DFBE
330
1DF04
100
AcDbEntity
  8
寸法
 62
     0
 48
50.0
370
    -2
100
AcDbLine
 10
7308.978338615607
 20
7617.003545050066
 30
0.0
 11
7308.978338615607
 21
6758.003545050065
 31
0.0
  0
INSERT
  5
1DFBF
330
1DF04
100
AcDbEntity
  8
寸法
 62
     0
 48
50.0
370
    -2
100
AcDbBlockReference
  2
_DOTSMALL
 10
7308.978338615607
 20
7617.003545050066
 30
0.0
 41
100.0
 42
100.0
 43
100.0
 50
90.0
  0
INSERT
  5
1DFC0
330
1DF04
100
AcDbEntity
  8
寸法
 62
     0
 48
50.0
370
    -2
100
AcDbBlockReference
  2
_DOTSMALL
 10
7308.978338615607
 20
6758.003545050065
 30
0.0
 41
100.0
 42
100.0
 43
100.0
 50
270.0
  0
MTEXT
  5
1DFC1
330
1DF04
100
AcDbEntity
  8
寸法
 62
     7
 48
50.0
100
AcDbMText
 10
7208.978338615605
 20
7187.503545050067
 30
0.0
 40
120.0
 41
0.0
 71
     5
 72
     1
  1
\A1;859
  7
STYLE1
 11
0.0000000000000001
 21
1.0
 31
0.0
 73
     1
 44
1.0
1001
ACAD
1000
MTEXTBEGIN
1070
    73
1070
     1
1070
    44
1040
1.0
1070
    74
1070
     0
1000
MTEXTEND
  0
POINT
  5
1DFC2
330
1DF04
100
AcDbEntity
  8
DEFPOINTS
 62
     0
 48
50.0
100
AcDbPoint
 10
7747.6
 20
7617.003545050066
 30
0.0
  0
POINT
  5
1DFC3
330
1DF04
100
AcDbEntity
  8
DEFPOINTS
 62
     0
 48
50.0
100
AcDbPoint
 10
7747.6
 20
6758.003545050065
 30
0.0
  0
POINT
  5
1DFC4
330
1DF04
100
AcDbEntity
  8
DEFPOINTS
 62
     0
 48
50.0
100
AcDbPoint
 10
7308.978338615607
 20
6758.003545050065
 30
0.0
  0
ENDBLK
  5
1DF0F
330
1DF04
100
AcDbEntity
  8
0
 48
50.0
100
AcDbBlockEnd
  0
ENDSEC
  0
SECTION
  2
ENTITIES
  0
LINE
  5
10B57
330
747D
100
AcDbEntity
  8
補助
  6
PHANTOM
 62
   230
 48
50.0
100
AcDbLine
 10
139.9999999999995
 20
11409.6
 30
0.0
 11
16307.2
 21
11409.6
 31
0.0
  0
LINE
  5
10B59
330
747D
100
AcDbEntity
  8
仕様書枠
  6
Continuous
 48
50.0
100
AcDbLine
 10
13107.2
 20
1200.0
 30
0.0
 11
13107.2
 21
-0.0000000000000729
 31
0.0
  0
LINE
  5
10B5C
330
747D
100
AcDbEntity
  8
仕様書枠
 48
50.0
100
AcDbLine
 10
16307.2
 20
1200.0
 30
0.0
 11
16307.2
 21
-0.0000000000000909
 31
0.0
  0
LINE
  5
10B5D
330
747D
100
AcDbEntity
  8
仕様書枠
 48
50.0
100
AcDbLine
 10
140.0
 20
0.0
 30
0.0
 11
16307.2
 21
-0.0000000000000909
 31
0.0
  0
LINE
  5
10B5E
330
747D
100
AcDbEntity
  8
補助
  6
PHANTOM
 62
   230
 48
50.0
100
AcDbLine
 10
16307.2
 20
11409.6
 30
0.0
 11
16307.2
 21
1200.0
 31
0.0
  0
LINE
  5
10B6C
330
747D
100
AcDbEntity
  8
仕様書枠
 48
50.0
100
AcDbLine
 10
13107.2
 20
1200.0
 30
0.0
 11
16307.2
 21
1200.0
 31
0.0
  0
LINE
  5
10B6D
330
747D
100
AcDbEntity
  8
補助
  6
PHANTOM
 62
   230
 48
50.0
100
AcDbLine
 10
13107.2
 20
11409.6
 30
0.0
 11
13107.2
 21
4800.0
 31
0.0
  0
LINE
  5
10B6F
330
747D
100
AcDbEntity
  8
補助
  6
PHANTOM
 62
   230
 48
50.0
100
AcDbLine
 10
13107.2
 20
4800.0
 30
0.0
 11
16307.2
 21
4800.0
 31
0.0
  0
LINE
  5
10B72
330
747D
100
AcDbEntity
  8
文字
 62
     7
 48
50.0
100
AcDbLine
 10
13187.2
 20
400.0
 30
0.0
 11
16227.2
 21
400.0
 31
0.0
  0
TEXT
  5
10B73
330
747D
100
AcDbEntity
  8
文字
 62
     7
 48
50.0
100
AcDbText
 10
13162.9790565769
 20
895.0906074299405
 30
0.0
 40
200.0
  1
基 礎 図
  7
STYLE2
100
AcDbText
  0
TEXT
  5
10B74
330
747D
100
AcDbEntity
  8
文字
 62
     7
 48
50.0
100
AcDbText
 10
13201.43669998441
 20
477.2740661031255
 30
0.0
 40
160.0
  1
機種名
  7
STYLE2
100
AcDbText
  0
TEXT
  5
10B79
330
747D
100
AcDbEntity
  8
文字
 62
     7
 48
50.0
100
AcDbText
 10
14524.131837222
 20
1031.557706291228
 30
0.0
 40
100.0
  1
NO.02      <縮尺> S=1/40
  7
STYLE2
100
AcDbText
  0
LINE
  5
10B7B
330
747D
100
AcDbEntity
  8
仕様書枠
 48
50.0
100
AcDbLine
 10
13107.2
 20
800.0
 30
0.0
 11
14251.2
 21
800.0
 31
0.0
  0
LINE
  5
10B88
330
747D
100
AcDbEntity
  8
仕様書枠
  6
Continuous
 48
50.0
100
AcDbLine
 10
14251.2
 20
1200.0
 30
0.0
 11
14251.2
 21
800.0
 31
0.0
  0
TEXT
  5
14DEF
330
747D
100
AcDbEntity
  8
文字
 62
     7
 48
50.0
100
AcDbText
 10
14641.2525855784
 20
871.1744590657925
 30
0.0
 40
100.0
  1
～一般型・多雪地型～
  7
STYLE2
100
AcDbText
  0
TEXT
  5
15A76
330
747D
100
AcDbEntity
  8
文字
 62
     7
 48
50.0
100
AcDbText
 10
14482.61482192223
 20
488.1241585855691
 30
0.0
 40
160.0
  1
ＮＸＮ－２５CS
  7
STYLE2
100
AcDbText
  0
LINE
  5
1C9AE
330
747D
100
AcDbEntity
  8
部品1
 48
50.0
100
AcDbLine
 10
5023.6
 20
2120.0
 30
0.0
 11
11423.6
 21
2120.0
 31
0.0
  0
LINE
  5
1C9AF
330
747D
100
AcDbEntity
  8
部品1
 48
50.0
100
AcDbLine
 10
11423.6
 20
2360.0
 30
0.0
 11
6623.6
 21
2360.0
 31
0.0
  0
LINE
  5
1C9B0
330
747D
100
AcDbEntity
  8
部品1
 48
50.0
100
AcDbLine
 10
11423.6
 20
2600.0
 30
0.0
 11
5023.6
 21
2600.000000000001
 31
0.0
  0
LINE
  5
1C9B1
330
747D
100
AcDbEntity
  8
部品1
 48
50.0
100
AcDbLine
 10
5023.6
 20
200.0
 30
0.0
 11
11423.6
 21
200.0
 31
0.0
  0
TEXT
  5
1C9B2
330
747D
100
AcDbEntity
  8
部品1
 48
50.0
100
AcDbText
 10
8203.551753915462
 20
5124.761726804866
 30
0.0
 40
80.0
  1
(a=50,b=60,c=80)
  7
STYLE1
100
AcDbText
  0
TEXT
  5
1C9B3
330
747D
100
AcDbEntity
  8
部品1
 48
50.0
100
AcDbText
 10
8089.851513189513
 20
5258.318252890809
 30
0.0
 40
80.0
  1
※a,b,cは屋根の出幅です。
  7
STYLE1
100
AcDbText
  0
MTEXT
  5
1C9B4
102
{ACAD_REACTORS
330
1C9B5
102
}
330
747D
100
AcDbEntity
  8
部品1
 62
     7
 48
50.0
100
AcDbMText
 10
8884.156211641364
 20
5469.986153090275
 30
0.0
 40
120.0
 41
0.0
 71
     6
 72
     1
  1
\A1;屋根の外寸
  7
STYLE1
 73
     1
 44
1.0
1001
ACAD
1000
MTEXTBEGIN
1070
    73
1070
     1
1070
    44
1040
1.0
1070
    74
1070
     0
1000
MTEXTEND
  0
LEADER
  5
1C9B5
330
747D
100
AcDbEntity
  8
寸法
 48
50.0
100
AcDbLeader
  3
INABA_S50G
 71
     0
 73
     0
 74
     0
 75
     1
 40
120.0
 41
672.0
 76
     3
 10
7932.496925270943
 20
5765.003545050065
 30
0.0
 10
8062.156211641363
 20
5384.986153090274
 30
0.0
 10
8187.156211641363
 20
5384.986153090274
 30
0.0
340
1C9B4
1001
ACAD
1000
DSTYLE
1002
{
1070
   341
1005
1C530
1070
    40
1040
1.0
1070
   343
1005
1C530
1070
   344
1005
1C530
1002
}
  0
TEXT
  5
1C9B7
330
747D
100
AcDbEntity
  8
部品1
100
AcDbText
 10
8277.327316378693
 20
2414.063814602734
 30
0.0
 40
120.0
  1
アンカー部詳細
  7
STYLE2
100
AcDbText
  0
DIMENSION
  5
1C9B8
330
747D
100
AcDbEntity
  8
寸法
 48
50.0
100
AcDbDimension
  2
*D7
 10
9119.600000000001
 20
8009.416132721687
 30
0.0
 11
8433.6
 21
8109.427943745307
 31
0.0
 70
    32
 71
     5
 42
1372.0
  3
INABA_S40G
100
AcDbAlignedDimension
 13
7747.6
 23
7617.003545050066
 33
0.0
 14
9119.600000000001
 24
7617.003545050066
 34
0.0
100
AcDbRotatedDimension
1001
ACAD
1000
DSTYLE
1002
{
1070
   174
1070
     0
1070
   272
1070
     1
1070
   288
1070
     0
1070
   341
1005
0
1002
}
  0
LINE
  5
1C9BB
330
747D
100
AcDbEntity
  8
想像線
 48
10.0
100
AcDbLine
 10
9169.600000000004
 20
5765.003545050062
 30
0.0
 11
7697.6
 21
5765.003545050063
 31
0.0
  0
LINE
  5
1C9BC
330
747D
100
AcDbEntity
  8
想像線
 48
10.0
100
AcDbLine
 10
7697.6
 20
7697.003545050066
 30
0.0
 11
9169.600000000004
 21
7697.003545050069
 31
0.0
  0
LINE
  5
1CA3F
330
747D
100
AcDbEntity
  8
細線
100
AcDbLine
 10
5819.086509034793
 20
1040.760787611754
 30
0.0
 11
5919.086509034789
 21
1140.760787611756
 31
0.0
  0
LINE
  5
1CA40
330
747D
100
AcDbEntity
  8
細線
100
AcDbLine
 10
5894.515958413382
 20
1140.760787611756
 30
0.0
 11
5694.515958413385
 21
1340.760787611754
 31
0.0
  0
LEADER
  5
1CA41
330
747D
100
AcDbEntity
  8
寸法
 48
50.0
100
AcDbLeader
  3
INABA_S50G
 71
     0
 73
     0
 74
     0
 75
     1
 40
120.0
 41
185.591883092037
 76
     3
 10
5748.473750574227
 20
1340.760787611754
 30
0.0
 10
5903.737333145404
 20
1553.612705420522
 30
0.0
 10
6028.737333145404
 20
1553.612705420522
 30
0.0
340
1CA42
213
67.73172584638814
223
0.0
233
0.0
1001
ACAD
1000
DSTYLE
1002
{
1070
    40
1040
1.0
1002
}
  0
MTEXT
  5
1CA42
102
{ACAD_REACTORS
330
1CA41
102
}
330
747D
100
AcDbEntity
  8
寸法
 62
     7
 48
50.0
100
AcDbMText
 10
5986.005607299015
 20
1638.612705420522
 30
0.0
 40
120.0
 41
1.0
 71
     4
 72
     1
  1
\A1;C.B
  7
STYLE1
 73
     1
 44
1.0
1001
ACAD
1000
MTEXTBEGIN
1070
    73
1070
     1
1070
    44
1040
1.0
1070
    74
1070
     0
1000
MTEXTEND
  0
TEXT
  5
1CA43
330
747D
100
AcDbEntity
  8
部品1
100
AcDbText
 10
5489.200021004799
 20
2307.972217178321
 30
0.0
 40
120.0
  1
基礎詳細
  7
STYLE2
100
AcDbText
  0
LINE
  5
1CA44
330
747D
100
AcDbEntity
  8
細線
100
AcDbLine
 10
5936.942365284575
 20
1140.760787611756
 30
0.0
 11
5736.942365284578
 21
1340.760787611754
 31
0.0
  0
LINE
  5
1CA45
330
747D
100
AcDbEntity
  8
Ｇ．Ｌ
100
AcDbLine
 10
5118.372744528902
 20
1140.760787611756
 30
0.0
 11
6549.266028352062
 21
1140.760787611756
 31
0.0
  0
LINE
  5
1CA46
330
747D
100
AcDbEntity
  8
部品1
100
AcDbLine
 10
5548.473750574228
 20
1340.760787611754
 30
0.0
 11
5948.473750574225
 21
1340.760787611754
 31
0.0
  0
LINE
  5
1CA47
330
747D
100
AcDbEntity
  8
部品1
100
AcDbLine
 10
5448.473750574225
 20
1040.760787611753
 30
0.0
 11
6048.473750574225
 21
1040.760787611754
 31
0.0
  0
LINE
  5
1CA48
330
747D
100
AcDbEntity
  8
部品1
100
AcDbLine
 10
5448.473750574225
 20
840.7607876117507
 30
0.0
 11
6048.473750574225
 21
840.7607876117545
 31
0.0
  0
LINE
  5
1CA49
330
747D
100
AcDbEntity
  8
部品1
 48
50.0
100
AcDbLine
 10
5023.6
 20
2600.0
 30
0.0
 11
5023.6
 21
200.0
 31
0.0
  0
LINE
  5
1CA4A
330
747D
100
AcDbEntity
  8
細線
100
AcDbLine
 10
5548.473750574228
 20
1040.760787611753
 30
0.0
 11
5602.063589060448
 21
840.760787611749
 31
0.0
  0
LINE
  5
1CA4B
330
747D
100
AcDbEntity
  8
細線
100
AcDbLine
 10
5648.473750574225
 20
1040.760787611754
 30
0.0
 11
5702.063589060448
 21
840.7607876117507
 31
0.0
  0
LINE
  5
1CA4C
330
747D
100
AcDbEntity
  8
細線
100
AcDbLine
 10
5748.473750574225
 20
1040.760787611754
 30
0.0
 11
5802.063589060452
 21
840.7607876117507
 31
0.0
  0
LINE
  5
1CA4D
330
747D
100
AcDbEntity
  8
細線
100
AcDbLine
 10
5448.473750574225
 20
1040.760787611753
 30
0.0
 11
5502.063589060451
 21
840.760787611749
 31
0.0
  0
LINE
  5
1CA4E
330
747D
100
AcDbEntity
  8
部品1
100
AcDbLine
 10
5448.473750574225
 20
840.7607876117507
 30
0.0
 11
5448.473750574225
 21
1140.760787611756
 31
0.0
  0
LINE
  5
1CA4F
330
747D
100
AcDbEntity
  8
細線
100
AcDbLine
 10
5588.666129438895
 20
890.7607876117527
 30
0.0
 11
5575.268669817337
 21
840.7607876117507
 31
0.0
  0
LINE
  5
1CA50
330
747D
100
AcDbEntity
  8
細線
100
AcDbLine
 10
5488.666129438892
 20
890.7607876117527
 30
0.0
 11
5475.268669817336
 21
840.7607876117507
 31
0.0
  0
LINE
  5
1CA51
330
747D
100
AcDbEntity
  8
細線
100
AcDbLine
 10
5688.666129438892
 20
890.7607876117545
 30
0.0
 11
5675.268669817341
 21
840.7607876117545
 31
0.0
  0
LINE
  5
1CA52
330
747D
100
AcDbEntity
  8
細線
100
AcDbLine
 10
5788.666129438892
 20
890.7607876117545
 30
0.0
 11
5775.268669817336
 21
840.7607876117545
 31
0.0
  0
LINE
  5
1CA53
330
747D
100
AcDbEntity
  8
部品1
100
AcDbLine
 10
5548.473750574228
 20
1140.760787611756
 30
0.0
 11
5548.473750574228
 21
1340.760787611754
 31
0.0
  0
LINE
  5
1CA54
330
747D
100
AcDbEntity
  8
細線
100
AcDbLine
 10
5710.668195304881
 20
1140.760787611756
 30
0.0
 11
5548.473750574225
 21
1302.955232342408
 31
0.0
  0
LINE
  5
1CA55
330
747D
100
AcDbEntity
  8
細線
100
AcDbLine
 10
5575.655051529718
 20
1040.760787611754
 30
0.0
 11
5675.655051529715
 21
1140.760787611756
 31
0.0
  0
LINE
  5
1CA56
330
747D
100
AcDbEntity
  8
細線
100
AcDbLine
 10
5668.241788433689
 20
1140.760787611756
 30
0.0
 11
5548.473750574228
 21
1260.528825471216
 31
0.0
  0
LINE
  5
1CA57
330
747D
100
AcDbEntity
  8
細線
100
AcDbLine
 10
5547.370780282256
 20
1040.760787611754
 30
0.0
 11
5647.370780282251
 21
1140.760787611756
 31
0.0
  0
LINE
  5
1CA58
330
747D
100
AcDbEntity
  8
細線
100
AcDbLine
 10
5519.086509034792
 20
1040.760787611753
 30
0.0
 11
5619.086509034793
 21
1140.760787611756
 31
0.0
  0
LINE
  5
1CA59
330
747D
100
AcDbEntity
  8
細線
100
AcDbLine
 10
5575.268669817337
 20
1040.760787611753
 30
0.0
 11
5561.871210195781
 21
990.7607876117507
 31
0.0
  0
LINE
  5
1CA5A
330
747D
100
AcDbEntity
  8
細線
100
AcDbLine
 10
5475.268669817336
 20
1040.760787611753
 30
0.0
 11
5461.871210195784
 21
990.7607876117507
 31
0.0
  0
LINE
  5
1CA5B
330
747D
100
AcDbEntity
  8
細線
100
AcDbLine
 10
5675.268669817341
 20
1040.760787611754
 30
0.0
 11
5661.871210195781
 21
990.7607876117562
 31
0.0
  0
LINE
  5
1CA5C
330
747D
100
AcDbEntity
  8
細線
100
AcDbLine
 10
5775.268669817336
 20
1040.760787611754
 30
0.0
 11
5761.871210195785
 21
990.7607876117562
 31
0.0
  0
LINE
  5
1CA5D
330
747D
100
AcDbEntity
  8
細線
 48
50.0
100
AcDbLine
 10
6861.307702263201
 20
1940.760787611752
 30
0.0
 11
6861.307702263201
 21
1440.760787611754
 31
0.0
  0
LINE
  5
1CA5E
330
747D
100
AcDbEntity
  8
細線
 48
50.0
100
AcDbLine
 10
6891.307702263201
 20
1940.760787611752
 30
0.0
 11
6891.307702263201
 21
1440.760787611754
 31
0.0
  0
LINE
  5
1CA5F
330
747D
100
AcDbEntity
  8
細線
 48
50.0
100
AcDbLine
 10
7171.307702263201
 20
1940.760787611752
 30
0.0
 11
7171.307702263201
 21
1440.760787611754
 31
0.0
  0
LINE
  5
1CA60
330
747D
100
AcDbEntity
  8
細線
 48
50.0
100
AcDbLine
 10
7141.307702263201
 20
1940.760787611752
 30
0.0
 11
7141.307702263201
 21
1440.760787611754
 31
0.0
  0
LINE
  5
1CA61
330
747D
100
AcDbEntity
  8
部品1
 48
50.0
100
AcDbLine
 10
8223.600000000001
 20
2360.0
 30
0.0
 11
8223.600000000001
 21
200.0
 31
0.0
  0
LINE
  5
1CA62
330
747D
100
AcDbEntity
  8
部品1
 48
50.0
100
AcDbLine
 10
6623.6
 20
2600.0
 30
0.0
 11
6623.6
 21
200.0
 31
0.0
  0
LINE
  5
1CA63
330
747D
100
AcDbEntity
  8
部品1
100
AcDbLine
 10
7406.3077022632
 20
1940.760787611752
 30
0.0
 11
7406.3077022632
 21
1140.760787611754
 31
0.0
  0
LINE
  5
1CA64
330
747D
100
AcDbEntity
  8
部品1
100
AcDbLine
 10
7296.307702263201
 20
1940.760787611752
 30
0.0
 11
7296.307702263205
 21
1434.760787611756
 31
0.0
  0
LINE
  5
1CA65
330
747D
100
AcDbEntity
  8
部品1
100
AcDbLine
 10
6691.053269019606
 20
1434.760787611754
 30
0.0
 11
7406.3077022632
 21
1434.760787611754
 31
0.0
  0
DIMENSION
  5
1CA66
330
747D
100
AcDbEntity
  8
寸法
 48
50.0
100
AcDbDimension
  2
*D8
 10
6914.362273998908
 20
640.7607876117545
 30
0.0
 11
6914.362273998908
 21
882.850377456838
 31
0.0
 70
   160
  1
200
 71
     5
 42
500.0
  3
INABA_S40G
100
AcDbAlignedDimension
 13
7006.3077022632
 23
1140.760787611754
 33
0.0
 14
7106.3077022632
 24
640.7607876117545
 34
0.0
 50
90.0
100
AcDbRotatedDimension
1001
ACAD
1000
DSTYLE
1002
{
1070
   174
1070
     0
1070
   272
1070
     1
1070
   288
1070
     0
1070
   341
1005
0
1002
}
  0
LINE
  5
1CA67
330
747D
100
AcDbEntity
  8
Ｇ．Ｌ
100
AcDbLine
 10
6691.053269019606
 20
1140.760787611754
 30
0.0
 11
7326.3077022632
 21
1140.760787611754
 31
0.0
  0
LINE
  5
1CA68
330
747D
100
AcDbEntity
  8
部品1
100
AcDbLine
 10
6691.053269019606
 20
1340.760787611754
 30
0.0
 11
7326.3077022632
 21
1340.760787611754
 31
0.0
  0
LINE
  5
1CA69
330
747D
100
AcDbEntity
  8
部品1
100
AcDbLine
 10
6691.053269019606
 20
1440.760787611756
 30
0.0
 11
7296.307702263201
 21
1440.760787611754
 31
0.0
  0
LINE
  5
1CA6A
330
747D
100
AcDbEntity
  8
細線
100
AcDbLine
 10
5948.473750574225
 20
1040.760787611754
 30
0.0
 11
6002.063589060448
 21
840.7607876117545
 31
0.0
  0
LINE
  5
1CA6B
330
747D
100
AcDbEntity
  8
細線
100
AcDbLine
 10
5848.473750574228
 20
1040.760787611754
 30
0.0
 11
5902.063589060448
 21
840.7607876117507
 31
0.0
  0
LINE
  5
1CA6C
330
747D
100
AcDbEntity
  8
部品1
100
AcDbLine
 10
6048.473750574225
 20
1140.760787611756
 30
0.0
 11
6048.473750574225
 21
840.7607876117545
 31
0.0
  0
LINE
  5
1CA6D
330
747D
100
AcDbEntity
  8
細線
100
AcDbLine
 10
5988.666129438892
 20
890.7607876117545
 30
0.0
 11
5975.26866981734
 21
840.7607876117545
 31
0.0
  0
LINE
  5
1CA6E
330
747D
100
AcDbEntity
  8
細線
100
AcDbLine
 10
5888.666129438895
 20
890.7607876117545
 30
0.0
 11
5875.268669817336
 21
840.7607876117545
 31
0.0
  0
TEXT
  5
1CA6F
330
747D
100
AcDbEntity
  8
部品1
100
AcDbText
 10
6171.726376441655
 20
1148.66682929066
 30
0.0
 40
120.0
  1
▽G.L
  7
STYLE1
100
AcDbText
  0
LINE
  5
1CA70
330
747D
100
AcDbEntity
  8
部品1
100
AcDbLine
 10
5948.473750574225
 20
1340.760787611754
 30
0.0
 11
5948.473750574225
 21
1140.760787611756
 31
0.0
  0
LINE
  5
1CA71
330
747D
100
AcDbEntity
  8
細線
100
AcDbLine
 10
5875.655051529715
 20
1040.760787611754
 30
0.0
 11
5975.655051529715
 21
1140.760787611756
 31
0.0
  0
LINE
  5
1CA72
330
747D
100
AcDbEntity
  8
細線
100
AcDbLine
 10
5847.370780282256
 20
1040.760787611754
 30
0.0
 11
5947.370780282252
 21
1140.760787611756
 31
0.0
  0
LINE
  5
1CA73
330
747D
100
AcDbEntity
  8
細線
100
AcDbLine
 10
5975.26866981734
 20
1040.760787611754
 30
0.0
 11
5961.871210195781
 21
990.7607876117562
 31
0.0
  0
LINE
  5
1CA74
330
747D
100
AcDbEntity
  8
細線
100
AcDbLine
 10
5875.268669817336
 20
1040.760787611754
 30
0.0
 11
5861.871210195781
 21
990.7607876117562
 31
0.0
  0
LINE
  5
1CA75
330
747D
100
AcDbEntity
  8
部品1
 48
50.0
100
AcDbLine
 10
7606.3077022632
 20
640.7607876117562
 30
0.0
 11
7106.3077022632
 21
640.7607876117545
 31
0.0
  0
TEXT
  5
1CA76
330
747D
100
AcDbEntity
  8
部品1
100
AcDbText
 10
7790.871249332811
 20
1148.666829290658
 30
0.0
 40
120.0
  1
▽G.L
  7
STYLE1
100
AcDbText
  0
LINE
  5
1CA77
330
747D
100
AcDbEntity
  8
細線
  6
HIDDEN
 48
10.0
100
AcDbLine
 10
7341.034431165159
 20
640.7607876117545
 30
0.0
 11
7606.3077022632
 21
906.0340587098053
 31
0.0
  0
LINE
  5
1CA78
330
747D
100
AcDbEntity
  8
細線
  6
HIDDEN
 48
10.0
100
AcDbLine
 10
7312.750159917699
 20
640.7607876117545
 30
0.0
 11
7606.3077022632
 21
934.3183299572665
 31
0.0
  0
LINE
  5
1CA79
330
747D
100
AcDbEntity
  8
細線
  6
HIDDEN
 48
10.0
100
AcDbLine
 10
7369.318702412619
 20
640.7607876117545
 30
0.0
 11
7606.3077022632
 21
877.7497874623422
 31
0.0
  0
LINE
  5
1CA7A
330
747D
100
AcDbEntity
  8
Ｇ．Ｌ
100
AcDbLine
 10
7406.3077022632
 20
1140.760787611754
 30
0.0
 11
8158.403944501539
 21
1140.760787611754
 31
0.0
  0
LINE
  5
1CA7B
330
747D
100
AcDbEntity
  8
部品1
 48
50.0
100
AcDbLine
 10
7106.3077022632
 20
640.7607876117545
 30
0.0
 11
7106.3077022632
 21
1140.760787611754
 31
0.0
  0
LINE
  5
1CA7C
330
747D
100
AcDbEntity
  8
細線
  6
HIDDEN
 48
10.0
100
AcDbLine
 10
7106.3077022632
 20
832.6924475626274
 30
0.0
 11
7319.570028216434
 21
1045.954773515872
 31
0.0
  0
LINE
  5
1CA7D
330
747D
100
AcDbEntity
  8
細線
  6
HIDDEN
 48
10.0
100
AcDbLine
 10
7106.3077022632
 20
860.9767188100867
 30
0.0
 11
7322.786928413037
 21
1077.455944959931
 31
0.0
  0
LINE
  5
1CA7E
330
747D
100
AcDbEntity
  8
細線
  6
HIDDEN
 48
10.0
100
AcDbLine
 10
7106.3077022632
 20
804.4081763151625
 30
0.0
 11
7316.353128019824
 21
1014.453602071808
 31
0.0
  0
LINE
  5
1CA7F
330
747D
100
AcDbEntity
  8
部品1
100
AcDbLine
 10
7325.410933255132
 20
1103.151248310656
 30
0.0
 11
7296.307702263201
 21
818.160787611754
 31
0.0
  0
LINE
  5
1CA80
330
747D
100
AcDbEntity
  8
部品1
100
AcDbLine
 10
7407.204471271277
 20
1103.151248310656
 30
0.0
 11
7436.307702263201
 21
818.160787611754
 31
0.0
  0
LINE
  5
1CA81
330
747D
100
AcDbEntity
  8
部品1
100
AcDbLine
 10
7296.307702263201
 20
818.160787611754
 30
0.0
 11
7436.307702263201
 21
818.160787611754
 31
0.0
  0
LINE
  5
1CA82
330
747D
100
AcDbEntity
  8
部品1
100
AcDbLine
 10
7296.307702263201
 20
806.1607876117541
 30
0.0
 11
7436.307702263201
 21
806.1607876117541
 31
0.0
  0
LINE
  5
1CA83
330
747D
100
AcDbEntity
  8
部品1
100
AcDbLine
 10
7296.307702263201
 20
818.1607876117523
 30
0.0
 11
7296.307702263201
 21
806.1607876117541
 31
0.0
  0
LINE
  5
1CA84
330
747D
100
AcDbEntity
  8
細線
100
AcDbLine
 10
7351.3077022632
 20
830.1607876117559
 30
0.0
 11
7381.3077022632
 21
830.1607876117524
 31
0.0
  0
LINE
  5
1CA85
330
747D
100
AcDbEntity
  8
細線
100
AcDbLine
 10
7351.3077022632
 20
836.160787611756
 30
0.0
 11
7381.3077022632
 21
836.1607876117522
 31
0.0
  0
LINE
  5
1CA86
330
747D
100
AcDbEntity
  8
細線
100
AcDbLine
 10
7351.3077022632
 20
876.1607876117578
 30
0.0
 11
7381.3077022632
 21
876.1607876117523
 31
0.0
  0
LINE
  5
1CA87
330
747D
100
AcDbEntity
  8
細線
100
AcDbLine
 10
7351.3077022632
 20
870.1607876117577
 30
0.0
 11
7381.3077022632
 21
870.1607876117522
 31
0.0
  0
LINE
  5
1CA88
330
747D
100
AcDbEntity
  8
細線
100
AcDbLine
 10
7351.3077022632
 20
836.160787611756
 30
0.0
 11
7351.3077022632
 21
830.1607876117524
 31
0.0
  0
LINE
  5
1CA89
330
747D
100
AcDbEntity
  8
細線
100
AcDbLine
 10
7351.3077022632
 20
876.1607876117578
 30
0.0
 11
7351.3077022632
 21
870.1607876117522
 31
0.0
  0
LINE
  5
1CA8A
330
747D
100
AcDbEntity
  8
細線
100
AcDbLine
 10
7381.3077022632
 20
836.1607876117505
 30
0.0
 11
7381.3077022632
 21
830.1607876117504
 31
0.0
  0
LINE
  5
1CA8B
330
747D
100
AcDbEntity
  8
細線
100
AcDbLine
 10
7381.3077022632
 20
876.1607876117487
 30
0.0
 11
7381.3077022632
 21
870.1607876117487
 31
0.0
  0
LINE
  5
1CA8C
330
747D
100
AcDbEntity
  8
部品1
100
AcDbLine
 10
7436.307702263201
 20
818.160787611754
 30
0.0
 11
7436.307702263201
 21
806.1607876117541
 31
0.0
  0
LINE
  5
1CA8D
330
747D
100
AcDbEntity
  8
細線
100
AcDbLine
 10
7134.762371826592
 20
1140.760787611754
 30
0.0
 11
7006.3077022632
 21
1269.215457175147
 31
0.0
  0
LINE
  5
1CA8E
330
747D
100
AcDbEntity
  8
細線
100
AcDbLine
 10
7318.610134935096
 20
1140.760787611754
 30
0.0
 11
7118.610134935096
 21
1340.760787611754
 31
0.0
  0
LINE
  5
1CA8F
330
747D
100
AcDbEntity
  8
部品1
100
AcDbLine
 10
7006.3077022632
 20
1140.760787611754
 30
0.0
 11
7006.3077022632
 21
1340.760787611754
 31
0.0
  0
LINE
  5
1CA90
330
747D
100
AcDbEntity
  8
細線
100
AcDbLine
 10
7092.335964955399
 20
1140.760787611754
 30
0.0
 11
7006.3077022632
 21
1226.789050303954
 31
0.0
  0
LINE
  5
1CA91
330
747D
100
AcDbEntity
  8
細線
100
AcDbLine
 10
7326.3077022632
 20
1175.489627154842
 30
0.0
 11
7161.036541806288
 21
1340.760787611754
 31
0.0
  0
LINE
  5
1CA92
330
747D
100
AcDbEntity
  8
部品1
100
AcDbLine
 10
7406.3077022632
 20
1403.760787611754
 30
0.0
 11
7406.307702263204
 21
1106.406256599763
 31
0.0
  0
LINE
  5
1CA93
330
747D
100
AcDbEntity
  8
部品1
100
AcDbLine
 10
7326.3077022632
 20
1404.760787611754
 30
0.0
 11
7326.3077022632
 21
1106.406256599763
 31
0.0
  0
LINE
  5
1CA94
330
747D
100
AcDbEntity
  8
部品1
100
AcDbLine
 10
7335.361761743445
 20
1112.160787611754
 30
0.0
 11
7397.253642782956
 21
1112.160787611748
 31
0.0
  0
ARC
  5
1CA95
330
747D
100
AcDbEntity
  8
部品1
100
AcDbCircle
 10
7335.361761743445
 20
1102.160787611752
 30
0.0
 40
10.0
100
AcDbArc
 50
90.0
 51
174.3157584018092
  0
LINE
  5
1CA96
330
747D
100
AcDbEntity
  8
細線
  6
HIDDEN
 48
10.0
100
AcDbLine
 10
7406.3077022632
 20
1132.692447562642
 30
0.0
 11
7414.376042312316
 21
1140.760787611754
 31
0.0
  0
LINE
  5
1CA97
330
747D
100
AcDbEntity
  8
細線
  6
HIDDEN
 48
10.0
100
AcDbLine
 10
7406.855147920089
 20
1104.955621972072
 30
0.0
 11
7442.66031355977
 21
1140.760787611756
 31
0.0
  0
ARC
  5
1CA98
330
747D
100
AcDbEntity
  8
部品1
100
AcDbCircle
 10
7397.253642782956
 20
1102.160787611748
 30
0.0
 40
10.0
100
AcDbArc
 50
5.684241598190771
 51
90.0
  0
CIRCLE
  5
1CA99
330
747D
100
AcDbEntity
  8
細線
100
AcDbCircle
 10
7366.307702263201
 20
1244.760787611756
 30
0.0
 40
6.0
  0
CIRCLE
  5
1CA9A
330
747D
100
AcDbEntity
  8
細線
100
AcDbCircle
 10
7366.307702263201
 20
1244.760787611756
 30
0.0
 40
7.0
  0
CIRCLE
  5
1CA9B
330
747D
100
AcDbEntity
  8
細線
100
AcDbCircle
 10
7366.307702263201
 20
1089.760787611754
 30
0.0
 40
16.0
  0
LINE
  5
1CA9C
330
747D
100
AcDbEntity
  8
細線
100
AcDbLine
 10
7351.3077022632
 20
1020.160787611756
 30
0.0
 11
7352.307702263201
 21
1020.160787611756
 31
0.0
  0
LINE
  5
1CA9D
330
747D
100
AcDbEntity
  8
細線
100
AcDbLine
 10
7351.3077022632
 20
1026.160787611756
 30
0.0
 11
7381.3077022632
 21
1026.160787611752
 31
0.0
  0
ARC
  5
1CA9E
330
747D
100
AcDbEntity
  8
細線
100
AcDbCircle
 10
7366.307702263201
 20
1050.16078761175
 30
0.0
 40
8.0
100
AcDbArc
 50
180.0
 51
0.0
  0
LINE
  5
1CA9F
330
747D
100
AcDbEntity
  8
細線
100
AcDbLine
 10
7351.3077022632
 20
1026.160787611756
 30
0.0
 11
7351.3077022632
 21
1020.160787611752
 31
0.0
  0
LINE
  5
1CAA0
330
747D
100
AcDbEntity
  8
細線
100
AcDbLine
 10
7351.3077022632
 20
1024.760787611749
 30
0.0
 11
7381.3077022632
 21
1024.760787611754
 31
0.0
  0
LINE
  5
1CAA1
330
747D
100
AcDbEntity
  8
細線
100
AcDbLine
 10
7358.430807888822
 20
1008.160787611745
 30
0.0
 11
7374.184596637586
 21
1008.16078761175
 31
0.0
  0
LINE
  5
1CAA2
330
747D
100
AcDbEntity
  8
細線
100
AcDbLine
 10
7352.307702263201
 20
1024.760787611749
 30
0.0
 11
7352.307702263201
 21
1020.160787611752
 31
0.0
  0
LINE
  5
1CAA3
330
747D
100
AcDbEntity
  8
細線
100
AcDbLine
 10
7352.307702263201
 20
1020.16078761175
 30
0.0
 11
7354.550237888239
 21
1011.190645111601
 31
0.0
  0
ARC
  5
1CAA4
330
747D
100
AcDbEntity
  8
細線
100
AcDbCircle
 10
7358.430807888822
 20
1012.160787611747
 30
0.0
 40
4.0
100
AcDbArc
 50
194.0362434679581
 51
270.0
  0
LINE
  5
1CAA5
330
747D
100
AcDbEntity
  8
細線
100
AcDbLine
 10
7380.307702263201
 20
1024.760787611751
 30
0.0
 11
7380.307702263201
 21
1020.160787611752
 31
0.0
  0
LINE
  5
1CAA6
330
747D
100
AcDbEntity
  8
細線
100
AcDbLine
 10
7380.307702263201
 20
1020.16078761175
 30
0.0
 11
7378.065166638162
 21
1011.190645111601
 31
0.0
  0
ARC
  5
1CAA7
330
747D
100
AcDbEntity
  8
細線
100
AcDbCircle
 10
7374.184596637586
 20
1012.160787611748
 30
0.0
 40
4.0
100
AcDbArc
 50
270.0
 51
345.963756532042
  0
LINE
  5
1CAA8
330
747D
100
AcDbEntity
  8
細線
100
AcDbLine
 10
7381.3077022632
 20
1026.16078761175
 30
0.0
 11
7381.3077022632
 21
1020.16078761175
 31
0.0
  0
LINE
  5
1CAA9
330
747D
100
AcDbEntity
  8
細線
100
AcDbLine
 10
7380.307702263201
 20
1020.160787611756
 30
0.0
 11
7381.3077022632
 21
1020.160787611752
 31
0.0
  0
LINE
  5
1CAAA
330
747D
100
AcDbEntity
  8
細線
100
AcDbLine
 10
7374.307702263201
 20
1075.904381151204
 30
0.0
 11
7374.307702263201
 21
1050.16078761175
 31
0.0
  0
LINE
  5
1CAAB
330
747D
100
AcDbEntity
  8
細線
100
AcDbLine
 10
7358.307702263201
 20
1075.904381151204
 30
0.0
 11
7358.307702263201
 21
1050.16078761175
 31
0.0
  0
LINE
  5
1CAAC
330
747D
100
AcDbEntity
  8
部品1
100
AcDbLine
 10
7336.307702263201
 20
1414.760787611754
 30
0.0
 11
7396.3077022632
 21
1414.760787611754
 31
0.0
  0
ARC
  5
1CAAD
330
747D
100
AcDbEntity
  8
部品1
100
AcDbCircle
 10
7336.307702263201
 20
1404.760787611754
 30
0.0
 40
10.0
100
AcDbArc
 50
90.0
 51
180.0
  0
ARC
  5
1CAAE
330
747D
100
AcDbEntity
  8
細線
100
AcDbCircle
 10
7366.307702263201
 20
1354.760787611754
 30
0.0
 40
8.0
100
AcDbArc
 50
0.0
 51
180.0
  0
ARC
  5
1CAAF
330
747D
100
AcDbEntity
  8
細線
100
AcDbCircle
 10
7366.307702263201
 20
1314.760787611754
 30
0.0
 40
8.0
100
AcDbArc
 50
180.0
 51
0.0
  0
LINE
  5
1CAB0
330
747D
100
AcDbEntity
  8
細線
100
AcDbLine
 10
7358.307702263201
 20
1354.760787611754
 30
0.0
 11
7358.307702263201
 21
1314.760787611754
 31
0.0
  0
LINE
  5
1CAB1
330
747D
100
AcDbEntity
  8
細線
100
AcDbLine
 10
7374.307702263201
 20
1354.760787611754
 30
0.0
 11
7374.307702263201
 21
1314.760787611754
 31
0.0
  0
ARC
  5
1CAB2
330
747D
100
AcDbEntity
  8
部品1
100
AcDbCircle
 10
7396.3077022632
 20
1404.760787611754
 30
0.0
 40
10.0
100
AcDbArc
 50
0.0
 51
90.0
  0
CIRCLE
  5
1CAB3
330
747D
100
AcDbEntity
  8
部品1
100
AcDbCircle
 10
7366.307702263201
 20
1384.760787611754
 30
0.0
 40
16.0
  0
LINE
  5
1CAB4
330
747D
100
AcDbEntity
  8
部品1
 48
50.0
100
AcDbLine
 10
7606.3077022632
 20
1140.760787611754
 30
0.0
 11
7606.3077022632
 21
640.7607876117562
 31
0.0
  0
TEXT
  5
1CAB5
330
747D
100
AcDbEntity
  8
部品1
100
AcDbText
 10
6835.75336143857
 20
2178.285116341204
 30
0.0
 40
120.0
  1
地盤が土の場合
  7
STYLE2
100
AcDbText
  0
DIMENSION
  5
1CAB6
330
747D
100
AcDbEntity
  8
寸法
 48
50.0
100
AcDbDimension
  2
*D9
 10
7106.88811655075
 20
5765.003545050065
 30
0.0
 11
7106.888116550749
 21
5795.003545050067
 31
0.0
 70
   160
  1
b
 71
     5
 42
60.0
  3
INABA_S40G
100
AcDbAlignedDimension
 13
7747.6
 23
5825.003545050066
 33
0.0
 14
7697.6
 24
5765.003545050065
 34
0.0
 50
90.0
100
AcDbRotatedDimension
1001
ACAD
1000
DSTYLE
1002
{
1070
   174
1070
     0
1070
   272
1070
     1
1070
   288
1070
     0
1070
   341
1005
0
1002
}
  0
DIMENSION
  5
1CAB7
330
747D
100
AcDbEntity
  8
寸法
 48
50.0
100
AcDbDimension
  2
*D10
 10
7106.88811655075
 20
5825.003545050066
 30
0.0
 11
7006.847303985946
 21
6721.003545050066
 31
0.0
 70
    32
 71
     5
 42
1792.0
  3
INABA_S40G
100
AcDbAlignedDimension
 13
7747.600000000002
 23
7617.003545050066
 33
0.0
 14
7747.6
 24
5825.003545050066
 34
0.0
 50
90.0
100
AcDbRotatedDimension
1001
ACAD
1000
DSTYLE
1002
{
1070
   174
1070
     0
1070
   272
1070
     1
1070
   288
1070
     0
1070
   341
1005
0
1002
}
  0
DIMENSION
  5
1CAB8
330
747D
100
AcDbEntity
  8
寸法
 48
50.0
100
AcDbDimension
  2
*D11
 10
7106.88811655075
 20
7617.003545050066
 30
0.0
 11
7106.888116550749
 21
7657.003545050066
 31
0.0
 70
   160
  1
c
 71
     5
 42
80.0
  3
INABA_S40G
100
AcDbAlignedDimension
 13
7697.6
 23
7697.003545050066
 33
0.0
 14
7747.6
 24
7617.003545050066
 34
0.0
 50
90.0
100
AcDbRotatedDimension
1001
ACAD
1000
DSTYLE
1002
{
1070
   174
1070
     0
1070
   272
1070
     1
1070
   288
1070
     0
1070
   341
1005
0
1002
}
  0
LINE
  5
1CAB9
330
747D
100
AcDbEntity
  8
想像線
 48
10.0
100
AcDbLine
 10
7697.6
 20
5765.003545050063
 30
0.0
 11
7697.6
 21
7697.003545050066
 31
0.0
  0
LINE
  5
1CABA
330
747D
100
AcDbEntity
  8
部品1
 48
50.0
100
AcDbLine
 10
8137.6
 20
5825.003545050069
 30
0.0
 11
7747.6
 21
5825.003545050066
 31
0.0
  0
LINE
  5
1CABB
330
747D
100
AcDbEntity
  8
部品1
 48
50.0
100
AcDbLine
 10
8137.6
 20
5825.003545050066
 30
0.0
 11
7747.6
 21
5825.003545050066
 31
0.0
  0
LINE
  5
1CABC
330
747D
100
AcDbEntity
  8
部品1
 48
50.0
100
AcDbLine
 10
8137.6
 20
6015.003545050065
 30
0.0
 11
7747.6
 21
6015.003545050065
 31
0.0
  0
LINE
  5
1CAC0
330
747D
100
AcDbEntity
  8
部品1
 48
50.0
100
AcDbLine
 10
7747.6
 20
6015.003545050065
 30
0.0
 11
7747.6
 21
5825.003545050066
 31
0.0
  0
LINE
  5
1CAC2
330
747D
100
AcDbEntity
  8
部品1
 48
50.0
100
AcDbLine
 10
8137.6
 20
6015.003545050065
 30
0.0
 11
8137.6
 21
5825.003545050066
 31
0.0
  0
LINE
  5
1CAC7
330
747D
100
AcDbEntity
  8
部品1
 48
50.0
100
AcDbLine
 10
8137.6
 20
7617.003545050066
 30
0.0
 11
7747.6
 21
7617.003545050066
 31
0.0
  0
LINE
  5
1CAC8
330
747D
100
AcDbEntity
  8
部品1
 48
50.0
100
AcDbLine
 10
8137.6
 20
7617.003545050062
 30
0.0
 11
7747.6
 21
7617.003545050066
 31
0.0
  0
LINE
  5
1CAC9
330
747D
100
AcDbEntity
  8
部品1
 48
50.0
100
AcDbLine
 10
8137.6
 20
7427.003545050066
 30
0.0
 11
7747.6
 21
7427.003545050066
 31
0.0
  0
DIMENSION
  5
1CACA
330
747D
100
AcDbEntity
  8
寸法
 48
50.0
100
AcDbDimension
  2
*D12
 10
7747.6
 20
8009.416132721687
 30
0.0
 11
7722.599999999999
 21
8009.416132721687
 31
0.0
 70
   160
  1
a
 71
     5
 42
50.0
  3
INABA_S40G
100
AcDbAlignedDimension
 13
7697.6
 23
7697.003545050066
 33
0.0
 14
7747.6
 24
7617.003545050066
 34
0.0
100
AcDbRotatedDimension
1001
ACAD
1000
DSTYLE
1002
{
1070
   174
1070
     0
1070
   272
1070
     1
1070
   288
1070
     0
1070
   341
1005
0
1002
}
  0
LINE
  5
1CACE
330
747D
100
AcDbEntity
  8
部品1
 48
50.0
100
AcDbLine
 10
7747.6
 20
7427.003545050066
 30
0.0
 11
7747.6
 21
7617.003545050066
 31
0.0
  0
LINE
  5
1CAD0
330
747D
100
AcDbEntity
  8
部品1
 48
50.0
100
AcDbLine
 10
8137.6
 20
7427.003545050066
 30
0.0
 11
8137.6
 21
7617.003545050066
 31
0.0
  0
TEXT
  5
1CBDD
330
747D
100
AcDbEntity
  8
部品1
100
AcDbText
 10
10969.76604264107
 20
1148.666829290658
 30
0.0
 40
120.0
  1
▽G.L
  7
STYLE1
100
AcDbText
  0
LINE
  5
1CBDE
330
747D
100
AcDbEntity
  8
細線
 48
10.0
100
AcDbLine
 10
10990.48749762793
 20
833.8425902724702
 30
0.0
 11
11297.40569496721
 21
1140.760787611754
 31
0.0
  0
LINE
  5
1CBDF
330
747D
100
AcDbEntity
  8
細線
 48
10.0
100
AcDbLine
 10
10962.20322638046
 20
833.8425902724702
 30
0.0
 11
11269.12142371973
 21
1140.760787611754
 31
0.0
  0
LINE
  5
1CBE0
330
747D
100
AcDbEntity
  8
細線
 48
10.0
100
AcDbLine
 10
10933.918955133
 20
833.8425902724702
 30
0.0
 11
11240.83715247228
 21
1140.760787611754
 31
0.0
  0
LINE
  5
1CBE2
330
747D
100
AcDbEntity
  8
Ｇ．Ｌ
100
AcDbLine
 10
9896.898411190575
 20
1140.760787611754
 30
0.0
 11
11341.79011319572
 21
1140.760787611754
 31
0.0
  0
LINE
  5
1CBE3
330
747D
100
AcDbEntity
  8
部品1
100
AcDbLine
 10
10409.69580798928
 20
2040.760787611753
 30
0.0
 11
10409.69580798929
 21
1534.760787611756
 31
0.0
  0
LINE
  5
1CBE4
330
747D
100
AcDbEntity
  8
部品1
100
AcDbLine
 10
10519.69580798928
 20
2040.760787611753
 30
0.0
 11
10519.69580798929
 21
1541.006256599761
 31
0.0
  0
LINE
  5
1CBE5
330
747D
100
AcDbEntity
  8
細線
 48
50.0
100
AcDbLine
 10
9974.695807989281
 20
2040.760787611753
 30
0.0
 11
9974.695807989281
 21
1540.760787611756
 31
0.0
  0
LINE
  5
1CBE6
330
747D
100
AcDbEntity
  8
細線
 48
50.0
100
AcDbLine
 10
10004.69580798928
 20
2040.760787611753
 30
0.0
 11
10004.69580798928
 21
1540.760787611756
 31
0.0
  0
LINE
  5
1CBE7
330
747D
100
AcDbEntity
  8
細線
 48
50.0
100
AcDbLine
 10
10254.69580798928
 20
2040.760787611753
 30
0.0
 11
10254.69580798928
 21
1540.760787611756
 31
0.0
  0
LINE
  5
1CBE8
330
747D
100
AcDbEntity
  8
細線
 48
50.0
100
AcDbLine
 10
10284.69580798928
 20
2040.760787611753
 30
0.0
 11
10284.69580798928
 21
1540.760787611756
 31
0.0
  0
LINE
  5
1CBE9
330
747D
100
AcDbEntity
  8
部品1
100
AcDbLine
 10
8899.363203276303
 20
1940.760787611754
 30
0.0
 11
8899.363203276307
 21
1434.760787611758
 31
0.0
  0
LINE
  5
1CBEA
330
747D
100
AcDbEntity
  8
細線
 48
50.0
100
AcDbLine
 10
8774.363203276299
 20
1940.760787611754
 30
0.0
 11
8774.363203276299
 21
1440.760787611756
 31
0.0
  0
LINE
  5
1CBEB
330
747D
100
AcDbEntity
  8
細線
 48
50.0
100
AcDbLine
 10
8744.3632032763
 20
1940.760787611754
 30
0.0
 11
8744.3632032763
 21
1440.760787611756
 31
0.0
  0
LINE
  5
1CBEC
330
747D
100
AcDbEntity
  8
細線
 48
50.0
100
AcDbLine
 10
8494.3632032763
 20
1940.760787611754
 30
0.0
 11
8494.3632032763
 21
1440.760787611756
 31
0.0
  0
LINE
  5
1CBED
330
747D
100
AcDbEntity
  8
細線
 48
50.0
100
AcDbLine
 10
8464.363203276299
 20
1940.760787611754
 30
0.0
 11
8464.363203276299
 21
1440.760787611756
 31
0.0
  0
LINE
  5
1CBEE
330
747D
100
AcDbEntity
  8
部品1
100
AcDbLine
 10
9009.363203276304
 20
1940.760787611754
 30
0.0
 11
9009.363203276306
 21
1441.006256599761
 31
0.0
  0
LINE
  5
1CBEF
330
747D
100
AcDbEntity
  8
部品1
 48
50.0
100
AcDbLine
 10
9823.6
 20
2120.0
 30
0.0
 11
9823.6
 21
200.0
 31
0.0
  0
LINE
  5
1CBF0
330
747D
100
AcDbEntity
  8
細線
 48
10.0
100
AcDbLine
 10
8906.49906700669
 20
833.8425902724702
 30
0.0
 11
9213.417264345961
 21
1140.760787611754
 31
0.0
  0
LINE
  5
1CBF1
330
747D
100
AcDbEntity
  8
細線
 48
10.0
100
AcDbLine
 10
8878.21479575923
 20
833.8425902724702
 30
0.0
 11
9185.132993098504
 21
1140.760787611754
 31
0.0
  0
LINE
  5
1CBF2
330
747D
100
AcDbEntity
  8
細線
 48
10.0
100
AcDbLine
 10
8934.783338254151
 20
833.8425902724702
 30
0.0
 11
9241.701535593429
 21
1140.760787611754
 31
0.0
  0
DIMENSION
  5
1CBF3
330
747D
100
AcDbEntity
  8
寸法
 48
50.0
100
AcDbDimension
  2
*D2
 10
9242.127213844709
 20
1140.760787611754
 30
0.0
 11
9142.127213844709
 21
1240.760787611757
 31
0.0
 70
    32
  1
b
 71
     5
 42
200.0000000000018
  3
INABA_S40G
100
AcDbAlignedDimension
 13
9019.91396638181
 23
1340.760787611756
 33
0.0
 14
9039.3632032763
 24
1140.760787611754
 34
0.0
 50
90.0
100
AcDbRotatedDimension
1001
ACAD
1000
DSTYLE
1002
{
1070
   174
1070
     0
1070
   272
1070
     1
1070
   288
1070
     0
1070
   341
1005
0
1002
}
  0
LINE
  5
1CBF4
330
747D
100
AcDbEntity
  8
Ｇ．Ｌ
100
AcDbLine
 10
8294.10877003271
 20
1140.760787611754
 30
0.0
 11
9758.144008796991
 21
1140.760787611754
 31
0.0
  0
LINE
  5
1CBF5
330
747D
100
AcDbEntity
  8
細線
 48
10.0
100
AcDbLine
 10
8479.840678153868
 20
833.8425902724702
 30
0.0
 11
8786.758875493136
 21
1140.760787611754
 31
0.0
  0
LINE
  5
1CBF6
330
747D
100
AcDbEntity
  8
細線
 48
10.0
100
AcDbLine
 10
8451.556406906403
 20
833.8425902724702
 30
0.0
 11
8758.474604245682
 21
1140.760787611754
 31
0.0
  0
LINE
  5
1CBF7
330
747D
100
AcDbEntity
  8
細線
 48
10.0
100
AcDbLine
 10
8508.124949401327
 20
833.8425902724702
 30
0.0
 11
8815.04314674059
 21
1140.760787611754
 31
0.0
  0
LINE
  5
1CBF8
330
747D
100
AcDbEntity
  8
部品1
100
AcDbLine
 10
8294.108770032705
 20
1340.760787611756
 30
0.0
 11
8918.561766670546
 21
1340.760787611756
 31
0.0
  0
LINE
  5
1CBF9
330
747D
100
AcDbEntity
  8
部品1
100
AcDbLine
 10
8294.108770032705
 20
1440.760787611758
 30
0.0
 11
8899.363203276303
 21
1440.760787611756
 31
0.0
  0
LINE
  5
1CBFA
330
747D
100
AcDbEntity
  8
部品1
100
AcDbLine
 10
8294.108770032705
 20
1434.760787611758
 30
0.0
 11
8928.161048367666
 21
1434.760787611758
 31
0.0
  0
LINE
  5
1CBFB
330
747D
100
AcDbEntity
  8
細線
100
AcDbLine
 10
8695.391465968498
 20
1140.760787611754
 30
0.0
 11
8609.3632032763
 21
1226.789050303954
 31
0.0
  0
LINE
  5
1CBFC
330
747D
100
AcDbEntity
  8
細線
100
AcDbLine
 10
8737.81787283969
 20
1140.760787611754
 30
0.0
 11
8609.3632032763
 21
1269.215457175147
 31
0.0
  0
LINE
  5
1CBFD
330
747D
100
AcDbEntity
  8
部品1
100
AcDbLine
 10
8609.3632032763
 20
1140.760787611754
 30
0.0
 11
8609.3632032763
 21
1340.760787611756
 31
0.0
  0
LINE
  5
1CBFE
330
747D
100
AcDbEntity
  8
細線
 48
10.0
100
AcDbLine
 10
8294.108770032705
 20
1103.05334225162
 30
0.0
 11
8331.816215392844
 21
1140.760787611754
 31
0.0
  0
LINE
  5
1CBFF
330
747D
100
AcDbEntity
  8
細線
 48
10.0
100
AcDbLine
 10
8294.10877003271
 20
1046.484799756705
 30
0.0
 11
8388.384757887749
 21
1140.760787611754
 31
0.0
  0
LINE
  5
1CC00
330
747D
100
AcDbEntity
  8
細線
 48
10.0
100
AcDbLine
 10
8294.10877003271
 20
1074.769071004164
 30
0.0
 11
8360.100486640297
 21
1140.760787611754
 31
0.0
  0
LINE
  5
1CC01
330
747D
100
AcDbEntity
  8
細線
100
AcDbLine
 10
8900.31780403958
 20
1162.10861952037
 30
0.0
 11
8721.665635948195
 21
1340.760787611754
 31
0.0
  0
LINE
  5
1CC02
330
747D
100
AcDbEntity
  8
細線
100
AcDbLine
 10
8904.248941633218
 20
1200.603888797927
 30
0.0
 11
8764.092042819388
 21
1340.760787611754
 31
0.0
  0
LINE
  5
1CC03
330
747D
100
AcDbEntity
  8
部品1
100
AcDbLine
 10
9010.259972284375
 20
1437.751248310656
 30
0.0
 11
9039.3632032763
 21
1152.760787611754
 31
0.0
  0
LINE
  5
1CC04
330
747D
100
AcDbEntity
  8
部品1
100
AcDbLine
 10
8928.466434268232
 20
1437.751248310656
 30
0.0
 11
8899.363203276299
 21
1152.760787611754
 31
0.0
  0
LINE
  5
1CC05
330
747D
100
AcDbEntity
  8
部品1
100
AcDbLine
 10
8899.363203276299
 20
1152.760787611754
 30
0.0
 11
9039.3632032763
 21
1152.760787611754
 31
0.0
  0
LINE
  5
1CC06
330
747D
100
AcDbEntity
  8
部品1
100
AcDbLine
 10
8899.363203276299
 20
1140.760787611754
 30
0.0
 11
9039.3632032763
 21
1140.760787611754
 31
0.0
  0
LINE
  5
1CC07
330
747D
100
AcDbEntity
  8
部品1
100
AcDbLine
 10
8899.363203276299
 20
1152.760787611754
 30
0.0
 11
8899.363203276299
 21
1140.760787611754
 31
0.0
  0
LINE
  5
1CC08
330
747D
100
AcDbEntity
  8
部品1
100
AcDbLine
 10
8954.363203276299
 20
1207.160787611758
 30
0.0
 11
8984.3632032763
 21
1207.160787611758
 31
0.0
  0
LINE
  5
1CC09
330
747D
100
AcDbEntity
  8
部品1
100
AcDbLine
 10
8954.363203276299
 20
1213.160787611758
 30
0.0
 11
8984.3632032763
 21
1213.160787611758
 31
0.0
  0
LINE
  5
1CC0A
330
747D
100
AcDbEntity
  8
部品1
100
AcDbLine
 10
8954.363203276299
 20
1173.160787611758
 30
0.0
 11
8959.3632032763
 21
1173.160787611758
 31
0.0
  0
LINE
  5
1CC0B
330
747D
100
AcDbEntity
  8
部品1
100
AcDbLine
 10
8954.363203276299
 20
1213.160787611758
 30
0.0
 11
8954.363203276299
 21
1207.160787611758
 31
0.0
  0
LINE
  5
1CC0C
330
747D
100
AcDbEntity
  8
部品1
100
AcDbLine
 10
8954.363203276299
 20
1173.160787611758
 30
0.0
 11
8954.363203276299
 21
1171.760787611756
 31
0.0
  0
LINE
  5
1CC0D
330
747D
100
AcDbEntity
  8
部品1
100
AcDbLine
 10
9039.3632032763
 20
1152.760787611754
 30
0.0
 11
9039.3632032763
 21
1140.760787611754
 31
0.0
  0
LINE
  5
1CC0E
330
747D
100
AcDbEntity
  8
部品1
100
AcDbLine
 10
8984.3632032763
 20
1213.160787611754
 30
0.0
 11
8984.3632032763
 21
1207.160787611754
 31
0.0
  0
LINE
  5
1CC0F
330
747D
100
AcDbEntity
  8
部品1
100
AcDbLine
 10
8984.3632032763
 20
1173.160787611752
 30
0.0
 11
8984.3632032763
 21
1171.760787611756
 31
0.0
  0
LINE
  5
1CC10
330
747D
100
AcDbEntity
  8
部品1
100
AcDbLine
 10
8939.363203276299
 20
1155.760787611754
 30
0.0
 11
8999.363203276301
 21
1155.76078761176
 31
0.0
  0
LINE
  5
1CC11
330
747D
100
AcDbEntity
  8
部品1
100
AcDbLine
 10
8959.3632032763
 20
1192.760787611756
 30
0.0
 11
8979.363203276299
 21
1192.760787611756
 31
0.0
  0
LINE
  5
1CC12
330
747D
100
AcDbEntity
  8
部品1
100
AcDbLine
 10
8959.3632032763
 20
1155.760787611754
 30
0.0
 11
8959.3632032763
 21
1192.760787611756
 31
0.0
  0
LINE
  5
1CC13
330
747D
100
AcDbEntity
  8
部品1
100
AcDbLine
 10
8979.363203276299
 20
1155.760787611754
 30
0.0
 11
8979.363203276299
 21
1192.760787611756
 31
0.0
  0
LINE
  5
1CC14
330
747D
100
AcDbEntity
  8
部品1
100
AcDbLine
 10
8952.3632032763
 20
1171.760787611756
 30
0.0
 11
8986.363203276299
 21
1171.760787611756
 31
0.0
  0
LINE
  5
1CC15
330
747D
100
AcDbEntity
  8
部品1
100
AcDbLine
 10
8949.3632032763
 20
1155.760787611754
 30
0.0
 11
8949.3632032763
 21
1168.760787611756
 31
0.0
  0
LINE
  5
1CC16
330
747D
100
AcDbEntity
  8
部品1
100
AcDbLine
 10
8989.363203276299
 20
1155.76078761176
 30
0.0
 11
8989.363203276299
 21
1168.760787611756
 31
0.0
  0
LINE
  5
1CC17
330
747D
100
AcDbEntity
  8
部品1
100
AcDbLine
 10
8952.3632032763
 20
1171.760787611756
 30
0.0
 11
8949.3632032763
 21
1168.760787611756
 31
0.0
  0
LINE
  5
1CC18
330
747D
100
AcDbEntity
  8
部品1
100
AcDbLine
 10
8986.363203276299
 20
1171.760787611756
 30
0.0
 11
8989.363203276299
 21
1168.760787611756
 31
0.0
  0
LINE
  5
1CC19
330
747D
100
AcDbEntity
  8
部品1
100
AcDbLine
 10
8939.363203276299
 20
1152.760787611754
 30
0.0
 11
8939.363203276299
 21
1155.760787611754
 31
0.0
  0
LINE
  5
1CC1A
330
747D
100
AcDbEntity
  8
部品1
100
AcDbLine
 10
8999.363203276301
 20
1152.760787611754
 30
0.0
 11
8999.363203276301
 21
1155.760787611763
 31
0.0
  0
LINE
  5
1CC1B
330
747D
100
AcDbEntity
  8
部品1
100
AcDbLine
 10
8979.363203276299
 20
1173.160787611758
 30
0.0
 11
8984.3632032763
 21
1173.160787611758
 31
0.0
  0
LINE
  5
1CC1C
330
747D
100
AcDbEntity
  8
部品1
100
AcDbLine
 10
8949.3632032763
 20
1168.760787611756
 30
0.0
 11
8989.363203276299
 21
1168.760787611756
 31
0.0
  0
ARC
  5
1CC1D
330
747D
100
AcDbEntity
  8
部品1
100
AcDbCircle
 10
8954.363203276299
 20
1164.246032821438
 30
0.0
 40
6.736691384996243
100
AcDbArc
 50
42.08048849855023
 51
137.9195115014498
  0
ARC
  5
1CC1E
330
747D
100
AcDbEntity
  8
部品1
100
AcDbCircle
 10
8984.3632032763
 20
1164.246032821438
 30
0.0
 40
6.736691384996243
100
AcDbArc
 50
42.08048849855023
 51
137.9195115014498
  0
ARC
  5
1CC1F
330
747D
100
AcDbEntity
  8
部品1
100
AcDbCircle
 10
8969.3632032763
 20
1147.672154390937
 30
0.0
 40
23.33946124318486
100
AcDbArc
 50
64.63020194519632
 51
115.3697980548037
  0
LINE
  5
1CC20
330
747D
100
AcDbEntity
  8
部品1
100
AcDbLine
 10
8962.3632032763
 20
1205.013683635416
 30
0.0
 11
8976.363203276299
 21
1205.013683635416
 31
0.0
  0
LINE
  5
1CC21
330
747D
100
AcDbEntity
  8
部品1
100
AcDbLine
 10
8964.363203276299
 20
1192.760787611756
 30
0.0
 11
8964.363203276299
 21
1201.013683635416
 31
0.0
  0
LINE
  5
1CC22
330
747D
100
AcDbEntity
  8
部品1
100
AcDbLine
 10
8974.3632032763
 20
1192.760787611756
 30
0.0
 11
8974.3632032763
 21
1201.013683635416
 31
0.0
  0
LINE
  5
1CC23
330
747D
100
AcDbEntity
  8
部品1
100
AcDbLine
 10
8962.3632032763
 20
1201.013683635416
 30
0.0
 11
8962.3632032763
 21
1205.013683635416
 31
0.0
  0
LINE
  5
1CC24
330
747D
100
AcDbEntity
  8
部品1
100
AcDbLine
 10
8976.363203276299
 20
1201.013683635416
 30
0.0
 11
8976.363203276299
 21
1205.013683635416
 31
0.0
  0
LINE
  5
1CC25
330
747D
100
AcDbEntity
  8
部品1
100
AcDbLine
 10
8962.3632032763
 20
1201.013683635416
 30
0.0
 11
8976.363203276299
 21
1201.013683635416
 31
0.0
  0
LINE
  5
1CC26
330
747D
100
AcDbEntity
  8
部品1
100
AcDbLine
 10
8959.3632032763
 20
1140.760787611754
 30
0.0
 11
8959.3632032763
 21
1105.360787611755
 31
0.0
  0
LINE
  5
1CC27
330
747D
100
AcDbEntity
  8
部品1
100
AcDbLine
 10
8979.363203276299
 20
1140.760787611754
 30
0.0
 11
8979.363203276299
 21
1105.360787611755
 31
0.0
  0
LINE
  5
1CC28
330
747D
100
AcDbEntity
  8
部品1
100
AcDbLine
 10
8967.452702642763
 20
1105.360787611755
 30
0.0
 11
8971.273703909837
 21
1105.360787611755
 31
0.0
  0
LINE
  5
1CC29
330
747D
100
AcDbEntity
  8
部品1
100
AcDbLine
 10
8959.3632032763
 20
1105.360787611755
 30
0.0
 11
8953.3632032763
 21
1065.360787611755
 31
0.0
  0
LINE
  5
1CC2A
330
747D
100
AcDbEntity
  8
部品1
100
AcDbLine
 10
8985.3632032763
 20
1065.360787611755
 30
0.0
 11
8979.363203276299
 21
1105.360787611755
 31
0.0
  0
LINE
  5
1CC2B
330
747D
100
AcDbEntity
  8
部品1
100
AcDbLine
 10
8967.452702642763
 20
1105.360787611755
 30
0.0
 11
8961.274694099245
 21
1064.174063988315
 31
0.0
  0
LINE
  5
1CC2C
330
747D
100
AcDbEntity
  8
部品1
100
AcDbLine
 10
8977.451712453355
 20
1064.174063988315
 30
0.0
 11
8971.273703909837
 21
1105.360787611755
 31
0.0
  0
LINE
  5
1CC2D
330
747D
100
AcDbEntity
  8
部品1
100
AcDbLine
 10
8953.3632032763
 20
1065.360787611755
 30
0.0
 11
8961.274694099245
 21
1064.174063988315
 31
0.0
  0
LINE
  5
1CC2E
330
747D
100
AcDbEntity
  8
部品1
100
AcDbLine
 10
8977.451712453355
 20
1064.174063988315
 30
0.0
 11
8985.3632032763
 21
1065.360787611755
 31
0.0
  0
LINE
  5
1CC2F
330
747D
100
AcDbEntity
  8
部品1
100
AcDbLine
 10
8954.253245993882
 20
1071.294405728964
 30
0.0
 11
8962.164736816829
 21
1070.107682105521
 31
0.0
  0
LINE
  5
1CC30
330
747D
100
AcDbEntity
  8
部品1
100
AcDbLine
 10
8955.143288711459
 20
1077.228023846173
 30
0.0
 11
8963.054779534404
 21
1076.04130022273
 31
0.0
  0
LINE
  5
1CC31
330
747D
100
AcDbEntity
  8
部品1
100
AcDbLine
 10
8956.033331429042
 20
1083.161641963381
 30
0.0
 11
8963.944822251987
 21
1081.97491833994
 31
0.0
  0
LINE
  5
1CC32
330
747D
100
AcDbEntity
  8
部品1
100
AcDbLine
 10
8956.923374146624
 20
1089.095260080592
 30
0.0
 11
8964.834864969571
 21
1087.908536457153
 31
0.0
  0
LINE
  5
1CC33
330
747D
100
AcDbEntity
  8
部品1
100
AcDbLine
 10
8957.813416864201
 20
1095.028878197801
 30
0.0
 11
8965.724907687146
 21
1093.842154574358
 31
0.0
  0
LINE
  5
1CC34
330
747D
100
AcDbEntity
  8
部品1
100
AcDbLine
 10
8958.703459581784
 20
1100.962496315011
 30
0.0
 11
8966.61495040473
 21
1099.775772691568
 31
0.0
  0
LINE
  5
1CC35
330
747D
100
AcDbEntity
  8
部品1
100
AcDbLine
 10
8976.561669735771
 20
1070.107682105521
 30
0.0
 11
8984.473160558724
 21
1071.294405728964
 31
0.0
  0
LINE
  5
1CC36
330
747D
100
AcDbEntity
  8
部品1
100
AcDbLine
 10
8975.671627018195
 20
1076.04130022273
 30
0.0
 11
8983.58311784114
 21
1077.228023846173
 31
0.0
  0
LINE
  5
1CC37
330
747D
100
AcDbEntity
  8
部品1
100
AcDbLine
 10
8974.781584300613
 20
1081.97491833994
 30
0.0
 11
8982.693075123558
 21
1083.161641963381
 31
0.0
  0
LINE
  5
1CC38
330
747D
100
AcDbEntity
  8
部品1
100
AcDbLine
 10
8973.891541583036
 20
1087.908536457153
 30
0.0
 11
8981.803032405982
 21
1089.095260080592
 31
0.0
  0
LINE
  5
1CC39
330
747D
100
AcDbEntity
  8
部品1
100
AcDbLine
 10
8973.001498865453
 20
1093.842154574358
 30
0.0
 11
8980.912989688398
 21
1095.028878197801
 31
0.0
  0
LINE
  5
1CC3A
330
747D
100
AcDbEntity
  8
部品1
100
AcDbLine
 10
8972.111456147869
 20
1099.775772691568
 30
0.0
 11
8980.022946970816
 21
1100.962496315011
 31
0.0
  0
ARC
  5
1CC3B
330
747D
100
AcDbEntity
  8
部品1
100
AcDbCircle
 10
8938.417262756544
 20
1436.760787611756
 30
0.0
 40
10.0
100
AcDbArc
 50
90.0
 51
174.3157584018092
  0
CIRCLE
  5
1CC3C
330
747D
100
AcDbEntity
  8
部品1
100
AcDbCircle
 10
8969.3632032763
 20
1384.760787611754
 30
0.0
 40
16.0
  0
LINE
  5
1CC3D
330
747D
100
AcDbEntity
  8
細線
100
AcDbLine
 10
8954.363203276299
 20
1360.760787611756
 30
0.0
 11
8984.3632032763
 21
1360.760787611756
 31
0.0
  0
LINE
  5
1CC3E
330
747D
100
AcDbEntity
  8
細線
100
AcDbLine
 10
8961.363203276299
 20
1424.760787611752
 30
0.0
 11
8961.363203276299
 21
1398.617194072307
 31
0.0
  0
LINE
  5
1CC3F
330
747D
100
AcDbEntity
  8
細線
100
AcDbLine
 10
8977.363203276301
 20
1424.760787611752
 30
0.0
 11
8977.363203276301
 21
1398.617194072307
 31
0.0
  0
ARC
  5
1CC40
330
747D
100
AcDbEntity
  8
細線
100
AcDbCircle
 10
8969.3632032763
 20
1424.760787611752
 30
0.0
 40
8.0
100
AcDbArc
 50
0.0
 51
180.0
  0
LINE
  5
1CC41
330
747D
100
AcDbEntity
  8
部品1
100
AcDbLine
 10
8938.417262756544
 20
1446.760787611754
 30
0.0
 11
9000.309143796057
 21
1446.760787611752
 31
0.0
  0
ARC
  5
1CC42
330
747D
100
AcDbEntity
  8
部品1
100
AcDbCircle
 10
9000.309143796057
 20
1436.760787611753
 30
0.0
 40
10.0
100
AcDbArc
 50
5.684241598190771
 51
90.0
  0
LINE
  5
1CC43
330
747D
100
AcDbEntity
  8
細線
100
AcDbLine
 10
8954.363203276299
 20
1354.760787611756
 30
0.0
 11
8984.3632032763
 21
1354.760787611756
 31
0.0
  0
LINE
  5
1CC44
330
747D
100
AcDbEntity
  8
細線
100
AcDbLine
 10
8954.363203276299
 20
1360.760787611756
 30
0.0
 11
8954.363203276299
 21
1354.760787611756
 31
0.0
  0
LINE
  5
1CC45
330
747D
100
AcDbEntity
  8
細線
100
AcDbLine
 10
8984.3632032763
 20
1360.760787611751
 30
0.0
 11
8984.3632032763
 21
1354.760787611751
 31
0.0
  0
LINE
  5
1CC49
330
747D
100
AcDbEntity
  8
細線
 48
10.0
100
AcDbLine
 10
9361.441727106971
 20
833.8425902724702
 30
0.0
 11
9668.359924446248
 21
1140.760787611754
 31
0.0
  0
LINE
  5
1CC4A
330
747D
100
AcDbEntity
  8
細線
 48
10.0
100
AcDbLine
 10
9333.157455859508
 20
833.8425902724702
 30
0.0
 11
9640.075653198781
 21
1140.760787611754
 31
0.0
  0
LINE
  5
1CC4B
330
747D
100
AcDbEntity
  8
細線
 48
10.0
100
AcDbLine
 10
9304.873184612047
 20
833.8425902724702
 30
0.0
 11
9611.791381951322
 21
1140.760787611754
 31
0.0
  0
TEXT
  5
1CC4C
330
747D
100
AcDbEntity
  8
部品1
100
AcDbText
 10
9383.852406544674
 20
1148.666829290658
 30
0.0
 40
120.0
  1
▽G.L
  7
STYLE1
100
AcDbText
  0
LINE
  5
1CC4D
330
747D
100
AcDbEntity
  8
部品1
100
AcDbLine
 10
9896.898411190575
 20
1440.760787611755
 30
0.0
 11
10439.58471607961
 21
1440.760787611756
 31
0.0
  0
LINE
  5
1CC4E
330
747D
100
AcDbEntity
  8
部品1
100
AcDbLine
 10
9896.898411190575
 20
1540.760787611757
 30
0.0
 11
10409.69580798928
 21
1540.760787611756
 31
0.0
  0
LINE
  5
1CC4F
330
747D
100
AcDbEntity
  8
部品1
100
AcDbLine
 10
9896.898411190575
 20
1534.760787611756
 30
0.0
 11
10439.69580798928
 21
1534.760787611756
 31
0.0
  0
LINE
  5
1CC50
330
747D
100
AcDbEntity
  8
細線
100
AcDbLine
 10
10410.65040875256
 20
1162.10861952037
 30
0.0
 11
10131.99824066117
 21
1440.760787611754
 31
0.0
  0
LINE
  5
1CC51
330
747D
100
AcDbEntity
  8
細線
100
AcDbLine
 10
10414.5815463462
 20
1200.603888797927
 30
0.0
 11
10174.42464753237
 21
1440.760787611754
 31
0.0
  0
LINE
  5
1CC52
330
747D
100
AcDbEntity
  8
細線
 48
10.0
100
AcDbLine
 10
10080.60217742736
 20
833.8425902724702
 30
0.0
 11
10387.52037476663
 21
1140.760787611756
 31
0.0
  0
LINE
  5
1CC53
330
747D
100
AcDbEntity
  8
細線
 48
10.0
100
AcDbLine
 10
10108.88644867482
 20
833.8425902724702
 30
0.0
 11
10415.80464601409
 21
1140.760787611754
 31
0.0
  0
LINE
  5
1CC54
330
747D
100
AcDbEntity
  8
細線
 48
10.0
100
AcDbLine
 10
10137.17071992228
 20
833.8425902724702
 30
0.0
 11
10444.08891726154
 21
1140.760787611754
 31
0.0
  0
LINE
  5
1CC55
330
747D
100
AcDbEntity
  8
細線
 48
10.0
100
AcDbLine
 10
9896.898411190573
 20
1020.228670393614
 30
0.0
 11
10017.4305284087
 21
1140.760787611754
 31
0.0
  0
LINE
  5
1CC56
330
747D
100
AcDbEntity
  8
細線
 48
10.0
100
AcDbLine
 10
9896.898411190576
 20
1048.512941641072
 30
0.0
 11
9989.146257161252
 21
1140.760787611754
 31
0.0
  0
LINE
  5
1CC57
330
747D
100
AcDbEntity
  8
細線
 48
10.0
100
AcDbLine
 10
9896.898411190575
 20
1076.797212888527
 30
0.0
 11
9960.861985913801
 21
1140.760787611754
 31
0.0
  0
LINE
  5
1CC58
330
747D
100
AcDbEntity
  8
部品1
100
AcDbLine
 10
10119.69580798928
 20
1140.760787611751
 30
0.0
 11
10119.69580798928
 21
1440.760787611754
 31
0.0
  0
LINE
  5
1CC59
330
747D
100
AcDbEntity
  8
細線
100
AcDbLine
 10
10248.15047755267
 20
1140.760787611754
 30
0.0
 11
10119.69580798928
 21
1269.215457175147
 31
0.0
  0
LINE
  5
1CC5A
330
747D
100
AcDbEntity
  8
細線
100
AcDbLine
 10
10205.72407068148
 20
1140.760787611754
 30
0.0
 11
10119.69580798928
 21
1226.789050303954
 31
0.0
  0
LINE
  5
1CC5B
330
747D
100
AcDbEntity
  8
細線
 48
10.0
100
AcDbLine
 10
10563.8291087751
 20
833.8425902724702
 30
0.0
 11
10870.74730611438
 21
1140.760787611756
 31
0.0
  0
LINE
  5
1CC5C
330
747D
100
AcDbEntity
  8
細線
 48
10.0
100
AcDbLine
 10
10535.54483752764
 20
833.8425902724702
 30
0.0
 11
10842.46303486692
 21
1140.760787611754
 31
0.0
  0
LINE
  5
1CC5D
330
747D
100
AcDbEntity
  8
細線
 48
10.0
100
AcDbLine
 10
10507.26056628018
 20
833.8425902724702
 30
0.0
 11
10814.17876361946
 21
1140.760787611754
 31
0.0
  0
DIMENSION
  5
1CC5E
330
747D
100
AcDbEntity
  8
寸法
 48
50.0
100
AcDbDimension
  2
*D3
 10
10722.44245361606
 20
1140.760787611754
 30
0.0
 11
10622.44245361606
 21
1290.760787611756
 31
0.0
 70
    32
  1
c
 71
     5
 42
300.0
  3
INABA_S40G
100
AcDbAlignedDimension
 13
10519.80689989895
 23
1440.760787611754
 33
0.0
 14
10549.69580798928
 24
1140.760787611754
 34
0.0
 50
90.0
100
AcDbRotatedDimension
1001
ACAD
1000
DSTYLE
1002
{
1070
   174
1070
     0
1070
   272
1070
     1
1070
   288
1070
     0
1070
   341
1005
0
1002
}
  0
LINE
  5
1CC5F
330
747D
100
AcDbEntity
  8
部品1
100
AcDbLine
 10
10438.79903898121
 20
1437.751248310655
 30
0.0
 11
10409.69580798928
 21
1152.760787611754
 31
0.0
  0
LINE
  5
1CC60
330
747D
100
AcDbEntity
  8
部品1
100
AcDbLine
 10
10520.59257699735
 20
1437.751248310655
 30
0.0
 11
10549.69580798928
 21
1152.760787611754
 31
0.0
  0
LINE
  5
1CC61
330
747D
100
AcDbEntity
  8
部品1
100
AcDbLine
 10
10409.69580798928
 20
1152.760787611754
 30
0.0
 11
10549.69580798928
 21
1152.760787611754
 31
0.0
  0
LINE
  5
1CC62
330
747D
100
AcDbEntity
  8
部品1
100
AcDbLine
 10
10409.69580798928
 20
1140.760787611754
 30
0.0
 11
10549.69580798928
 21
1140.760787611754
 31
0.0
  0
LINE
  5
1CC63
330
747D
100
AcDbEntity
  8
部品1
100
AcDbLine
 10
10487.78431716633
 20
1064.174063988313
 30
0.0
 11
10481.60630862282
 21
1105.360787611753
 31
0.0
  0
LINE
  5
1CC64
330
747D
100
AcDbEntity
  8
部品1
100
AcDbLine
 10
10477.78530735574
 20
1105.360787611753
 30
0.0
 11
10471.60729881222
 21
1064.174063988313
 31
0.0
  0
LINE
  5
1CC65
330
747D
100
AcDbEntity
  8
部品1
100
AcDbLine
 10
10495.69580798928
 20
1065.360787611753
 30
0.0
 11
10489.69580798928
 21
1105.360787611753
 31
0.0
  0
LINE
  5
1CC66
330
747D
100
AcDbEntity
  8
部品1
100
AcDbLine
 10
10469.69580798928
 20
1105.360787611753
 30
0.0
 11
10463.69580798928
 21
1065.360787611753
 31
0.0
  0
LINE
  5
1CC67
330
747D
100
AcDbEntity
  8
部品1
100
AcDbLine
 10
10486.00423173117
 20
1076.041300222729
 30
0.0
 11
10493.91572255412
 21
1077.228023846172
 31
0.0
  0
LINE
  5
1CC68
330
747D
100
AcDbEntity
  8
部品1
100
AcDbLine
 10
10486.89427444875
 20
1070.107682105521
 30
0.0
 11
10494.8057652717
 21
1071.294405728964
 31
0.0
  0
LINE
  5
1CC69
330
747D
100
AcDbEntity
  8
部品1
100
AcDbLine
 10
10465.47589342444
 20
1077.228023846172
 30
0.0
 11
10473.38738424738
 21
1076.041300222729
 31
0.0
  0
LINE
  5
1CC6A
330
747D
100
AcDbEntity
  8
部品1
100
AcDbLine
 10
10464.58585070686
 20
1071.294405728964
 30
0.0
 11
10472.49734152981
 21
1070.107682105521
 31
0.0
  0
LINE
  5
1CC6B
330
747D
100
AcDbEntity
  8
部品1
100
AcDbLine
 10
10487.78431716633
 20
1064.174063988313
 30
0.0
 11
10495.69580798928
 21
1065.360787611753
 31
0.0
  0
LINE
  5
1CC6C
330
747D
100
AcDbEntity
  8
部品1
100
AcDbLine
 10
10463.69580798928
 20
1065.360787611753
 30
0.0
 11
10471.60729881222
 21
1064.174063988313
 31
0.0
  0
LINE
  5
1CC6D
330
747D
100
AcDbEntity
  8
部品1
100
AcDbLine
 10
10409.69580798928
 20
1152.760787611754
 30
0.0
 11
10409.69580798928
 21
1140.760787611754
 31
0.0
  0
LINE
  5
1CC6E
330
747D
100
AcDbEntity
  8
部品1
100
AcDbLine
 10
10464.69580798928
 20
1207.160787611756
 30
0.0
 11
10494.69580798928
 21
1207.160787611756
 31
0.0
  0
LINE
  5
1CC6F
330
747D
100
AcDbEntity
  8
部品1
100
AcDbLine
 10
10464.69580798928
 20
1213.160787611756
 30
0.0
 11
10494.69580798928
 21
1213.160787611756
 31
0.0
  0
LINE
  5
1CC70
330
747D
100
AcDbEntity
  8
部品1
100
AcDbLine
 10
10464.69580798928
 20
1213.160787611756
 30
0.0
 11
10464.69580798928
 21
1207.160787611756
 31
0.0
  0
LINE
  5
1CC71
330
747D
100
AcDbEntity
  8
部品1
100
AcDbLine
 10
10494.69580798928
 20
1213.160787611752
 30
0.0
 11
10494.69580798928
 21
1207.160787611752
 31
0.0
  0
LINE
  5
1CC72
330
747D
100
AcDbEntity
  8
部品1
100
AcDbLine
 10
10464.69580798928
 20
1173.160787611756
 30
0.0
 11
10469.69580798928
 21
1173.160787611756
 31
0.0
  0
LINE
  5
1CC73
330
747D
100
AcDbEntity
  8
部品1
100
AcDbLine
 10
10464.69580798928
 20
1173.160787611756
 30
0.0
 11
10464.69580798928
 21
1171.760787611751
 31
0.0
  0
LINE
  5
1CC74
330
747D
100
AcDbEntity
  8
部品1
100
AcDbLine
 10
10494.69580798928
 20
1173.160787611752
 30
0.0
 11
10494.69580798928
 21
1171.760787611754
 31
0.0
  0
LINE
  5
1CC75
330
747D
100
AcDbEntity
  8
部品1
100
AcDbLine
 10
10464.69580798928
 20
1171.760787611754
 30
0.0
 11
10494.69580798928
 21
1171.760787611754
 31
0.0
  0
LINE
  5
1CC76
330
747D
100
AcDbEntity
  8
部品1
100
AcDbLine
 10
10486.69580798928
 20
1201.013683635414
 30
0.0
 11
10486.69580798928
 21
1205.013683635414
 31
0.0
  0
LINE
  5
1CC77
330
747D
100
AcDbEntity
  8
部品1
100
AcDbLine
 10
10472.69580798928
 20
1201.013683635414
 30
0.0
 11
10472.69580798928
 21
1205.013683635414
 31
0.0
  0
LINE
  5
1CC78
330
747D
100
AcDbEntity
  8
部品1
100
AcDbLine
 10
10482.44406086085
 20
1099.775772691566
 30
0.0
 11
10490.35555168379
 21
1100.962496315009
 31
0.0
  0
LINE
  5
1CC79
330
747D
100
AcDbEntity
  8
部品1
100
AcDbLine
 10
10483.33410357843
 20
1093.842154574358
 30
0.0
 11
10491.24559440138
 21
1095.028878197801
 31
0.0
  0
LINE
  5
1CC7A
330
747D
100
AcDbEntity
  8
部品1
100
AcDbLine
 10
10484.22414629601
 20
1087.908536457151
 30
0.0
 11
10492.13563711896
 21
1089.09526008059
 31
0.0
  0
LINE
  5
1CC7B
330
747D
100
AcDbEntity
  8
部品1
100
AcDbLine
 10
10485.11418901359
 20
1081.97491833994
 30
0.0
 11
10493.02567983654
 21
1083.161641963379
 31
0.0
  0
LINE
  5
1CC7C
330
747D
100
AcDbEntity
  8
部品1
100
AcDbLine
 10
10469.03606429476
 20
1100.962496315009
 30
0.0
 11
10476.94755511771
 21
1099.775772691566
 31
0.0
  0
LINE
  5
1CC7D
330
747D
100
AcDbEntity
  8
部品1
100
AcDbLine
 10
10468.14602157718
 20
1095.028878197801
 30
0.0
 11
10476.05751240012
 21
1093.842154574358
 31
0.0
  0
LINE
  5
1CC7E
330
747D
100
AcDbEntity
  8
部品1
100
AcDbLine
 10
10467.2559788596
 20
1089.09526008059
 30
0.0
 11
10475.16746968255
 21
1087.908536457151
 31
0.0
  0
LINE
  5
1CC7F
330
747D
100
AcDbEntity
  8
部品1
100
AcDbLine
 10
10466.36593614202
 20
1083.161641963379
 30
0.0
 11
10474.27742696497
 21
1081.97491833994
 31
0.0
  0
LINE
  5
1CC80
330
747D
100
AcDbEntity
  8
部品1
100
AcDbLine
 10
10477.78530735574
 20
1105.360787611753
 30
0.0
 11
10481.60630862282
 21
1105.360787611753
 31
0.0
  0
LINE
  5
1CC81
330
747D
100
AcDbEntity
  8
部品1
100
AcDbLine
 10
10489.69580798928
 20
1140.760787611754
 30
0.0
 11
10489.69580798928
 21
1105.360787611753
 31
0.0
  0
LINE
  5
1CC82
330
747D
100
AcDbEntity
  8
部品1
100
AcDbLine
 10
10469.69580798928
 20
1140.760787611754
 30
0.0
 11
10469.69580798928
 21
1105.360787611753
 31
0.0
  0
LINE
  5
1CC83
330
747D
100
AcDbEntity
  8
部品1
100
AcDbLine
 10
10484.69580798928
 20
1192.760787611754
 30
0.0
 11
10484.69580798928
 21
1201.013683635414
 31
0.0
  0
LINE
  5
1CC84
330
747D
100
AcDbEntity
  8
部品1
100
AcDbLine
 10
10474.69580798928
 20
1192.760787611754
 30
0.0
 11
10474.69580798928
 21
1201.013683635414
 31
0.0
  0
LINE
  5
1CC85
330
747D
100
AcDbEntity
  8
部品1
100
AcDbLine
 10
10472.69580798928
 20
1201.013683635414
 30
0.0
 11
10486.69580798928
 21
1201.013683635414
 31
0.0
  0
ARC
  5
1CC86
330
747D
100
AcDbEntity
  8
部品1
100
AcDbCircle
 10
10479.69580798928
 20
1147.672154390937
 30
0.0
 40
23.33946124318486
100
AcDbArc
 50
64.63020194519632
 51
115.3697980548037
  0
ARC
  5
1CC87
330
747D
100
AcDbEntity
  8
部品1
100
AcDbCircle
 10
10494.69580798928
 20
1164.246032821436
 30
0.0
 40
6.736691384996243
100
AcDbArc
 50
42.08048849855023
 51
137.9195115014498
  0
ARC
  5
1CC88
330
747D
100
AcDbEntity
  8
部品1
100
AcDbCircle
 10
10464.69580798928
 20
1164.246032821436
 30
0.0
 40
6.736691384996243
100
AcDbArc
 50
42.08048849855023
 51
137.9195115014498
  0
LINE
  5
1CC89
330
747D
100
AcDbEntity
  8
部品1
100
AcDbLine
 10
10459.69580798928
 20
1168.760787611754
 30
0.0
 11
10499.69580798928
 21
1168.760787611754
 31
0.0
  0
LINE
  5
1CC8A
330
747D
100
AcDbEntity
  8
部品1
100
AcDbLine
 10
10489.69580798928
 20
1173.160787611756
 30
0.0
 11
10494.69580798928
 21
1173.160787611756
 31
0.0
  0
LINE
  5
1CC8B
330
747D
100
AcDbEntity
  8
部品1
100
AcDbLine
 10
10464.69580798928
 20
1173.160787611756
 30
0.0
 11
10469.69580798928
 21
1173.160787611756
 31
0.0
  0
LINE
  5
1CC8C
330
747D
100
AcDbEntity
  8
部品1
100
AcDbLine
 10
10499.69580798928
 20
1155.760787611758
 30
0.0
 11
10499.69580798928
 21
1168.760787611754
 31
0.0
  0
LINE
  5
1CC8D
330
747D
100
AcDbEntity
  8
部品1
100
AcDbLine
 10
10489.69580798928
 20
1155.760787611754
 30
0.0
 11
10489.69580798928
 21
1192.760787611754
 31
0.0
  0
LINE
  5
1CC8E
330
747D
100
AcDbEntity
  8
部品1
100
AcDbLine
 10
10469.69580798928
 20
1155.760787611754
 30
0.0
 11
10469.69580798928
 21
1192.760787611754
 31
0.0
  0
LINE
  5
1CC8F
330
747D
100
AcDbEntity
  8
部品1
100
AcDbLine
 10
10459.69580798928
 20
1155.760787611754
 30
0.0
 11
10459.69580798928
 21
1168.760787611754
 31
0.0
  0
LINE
  5
1CC90
330
747D
100
AcDbEntity
  8
部品1
100
AcDbLine
 10
10509.69580798928
 20
1152.760787611754
 30
0.0
 11
10509.69580798928
 21
1155.760787611762
 31
0.0
  0
LINE
  5
1CC91
330
747D
100
AcDbEntity
  8
部品1
100
AcDbLine
 10
10449.69580798928
 20
1152.760787611754
 30
0.0
 11
10449.69580798928
 21
1155.760787611754
 31
0.0
  0
LINE
  5
1CC92
330
747D
100
AcDbEntity
  8
部品1
100
AcDbLine
 10
10449.69580798928
 20
1155.760787611754
 30
0.0
 11
10509.69580798928
 21
1155.760787611758
 31
0.0
  0
LINE
  5
1CC93
330
747D
100
AcDbEntity
  8
部品1
100
AcDbLine
 10
10494.69580798928
 20
1173.160787611752
 30
0.0
 11
10494.69580798928
 21
1171.760787611754
 31
0.0
  0
LINE
  5
1CC94
330
747D
100
AcDbEntity
  8
部品1
100
AcDbLine
 10
10464.69580798928
 20
1173.160787611756
 30
0.0
 11
10464.69580798928
 21
1171.760787611754
 31
0.0
  0
LINE
  5
1CC95
330
747D
100
AcDbEntity
  8
部品1
100
AcDbLine
 10
10496.69580798928
 20
1171.760787611754
 30
0.0
 11
10499.69580798928
 21
1168.760787611754
 31
0.0
  0
LINE
  5
1CC96
330
747D
100
AcDbEntity
  8
部品1
100
AcDbLine
 10
10462.69580798928
 20
1171.760787611754
 30
0.0
 11
10496.69580798928
 21
1171.760787611754
 31
0.0
  0
LINE
  5
1CC97
330
747D
100
AcDbEntity
  8
部品1
100
AcDbLine
 10
10462.69580798928
 20
1171.760787611754
 30
0.0
 11
10459.69580798928
 21
1168.760787611754
 31
0.0
  0
LINE
  5
1CC98
330
747D
100
AcDbEntity
  8
部品1
100
AcDbLine
 10
10469.69580798928
 20
1192.760787611754
 30
0.0
 11
10489.69580798928
 21
1192.760787611754
 31
0.0
  0
LINE
  5
1CC99
330
747D
100
AcDbEntity
  8
部品1
100
AcDbLine
 10
10472.69580798928
 20
1205.013683635414
 30
0.0
 11
10486.69580798928
 21
1205.013683635414
 31
0.0
  0
LINE
  5
1CC9A
330
747D
100
AcDbEntity
  8
部品1
100
AcDbLine
 10
10494.69580798928
 20
1213.160787611752
 30
0.0
 11
10494.69580798928
 21
1207.160787611752
 31
0.0
  0
LINE
  5
1CC9B
330
747D
100
AcDbEntity
  8
部品1
100
AcDbLine
 10
10464.69580798928
 20
1213.160787611756
 30
0.0
 11
10464.69580798928
 21
1207.160787611756
 31
0.0
  0
LINE
  5
1CC9C
330
747D
100
AcDbEntity
  8
部品1
100
AcDbLine
 10
10464.69580798928
 20
1213.160787611756
 30
0.0
 11
10494.69580798928
 21
1213.160787611756
 31
0.0
  0
LINE
  5
1CC9D
330
747D
100
AcDbEntity
  8
部品1
100
AcDbLine
 10
10464.69580798928
 20
1207.160787611756
 30
0.0
 11
10494.69580798928
 21
1207.160787611756
 31
0.0
  0
LINE
  5
1CC9E
330
747D
100
AcDbEntity
  8
部品1
100
AcDbLine
 10
10489.69580798928
 20
1173.160787611756
 30
0.0
 11
10494.69580798928
 21
1173.160787611756
 31
0.0
  0
LINE
  5
1CC9F
330
747D
100
AcDbEntity
  8
部品1
100
AcDbLine
 10
10549.69580798928
 20
1152.760787611754
 30
0.0
 11
10549.69580798928
 21
1140.760787611754
 31
0.0
  0
LINE
  5
1CCA0
330
747D
100
AcDbEntity
  8
細線
100
AcDbLine
 10
10435.54761351225
 20
1405.911991611565
 30
0.0
 11
10400.69881751207
 21
1440.760787611754
 31
0.0
  0
LINE
  5
1CCA1
330
747D
100
AcDbEntity
  8
細線
100
AcDbLine
 10
10431.61647591862
 20
1367.416722334008
 30
0.0
 11
10358.27241064087
 21
1440.760787611754
 31
0.0
  0
LINE
  5
1CCA2
330
747D
100
AcDbEntity
  8
部品1
100
AcDbLine
 10
10449.69580798928
 20
1554.360787611753
 30
0.0
 11
10509.69580798928
 21
1554.360787611757
 31
0.0
  0
ARC
  5
1CCA3
330
747D
100
AcDbEntity
  8
部品1
100
AcDbCircle
 10
10449.69580798928
 20
1544.360787611753
 30
0.0
 40
10.0
100
AcDbArc
 50
90.0
 51
180.0
  0
ARC
  5
1CCA4
330
747D
100
AcDbEntity
  8
部品1
100
AcDbCircle
 10
10509.69580798928
 20
1544.360787611757
 30
0.0
 40
10.0
100
AcDbArc
 50
0.0
 51
90.0
  0
ARC
  5
1CCA5
330
747D
100
AcDbEntity
  8
部品1
100
AcDbCircle
 10
10479.69580798928
 20
1494.360787611753
 30
0.0
 40
8.0
100
AcDbArc
 50
28.00674301446505
 51
151.9932569855349
  0
CIRCLE
  5
1CCA6
330
747D
100
AcDbEntity
  8
部品1
100
AcDbCircle
 10
10479.69580798928
 20
1483.760787611754
 30
0.0
 40
16.0
  0
CIRCLE
  5
1CCA7
330
747D
100
AcDbEntity
  8
細線
100
AcDbCircle
 10
10479.69580798928
 20
1524.360787611753
 30
0.0
 40
8.0
  0
ARC
  5
1CCA8
330
747D
100
AcDbEntity
  8
細線
100
AcDbCircle
 10
10479.69580798928
 20
1424.760787611751
 30
0.0
 40
8.0
100
AcDbArc
 50
0.0
 51
180.0
  0
LINE
  5
1CCA9
330
747D
100
AcDbEntity
  8
細線
100
AcDbLine
 10
10464.69580798928
 20
1354.760787611754
 30
0.0
 11
10494.69580798928
 21
1354.760787611754
 31
0.0
  0
LINE
  5
1CCAA
330
747D
100
AcDbEntity
  8
細線
100
AcDbLine
 10
10464.69580798928
 20
1360.760787611754
 30
0.0
 11
10494.69580798928
 21
1360.760787611754
 31
0.0
  0
LINE
  5
1CCAB
330
747D
100
AcDbEntity
  8
細線
100
AcDbLine
 10
10464.69580798928
 20
1360.760787611754
 30
0.0
 11
10464.69580798928
 21
1354.760787611754
 31
0.0
  0
LINE
  5
1CCAC
330
747D
100
AcDbEntity
  8
細線
100
AcDbLine
 10
10494.69580798928
 20
1360.760787611751
 30
0.0
 11
10494.69580798928
 21
1354.760787611751
 31
0.0
  0
LINE
  5
1CCAD
330
747D
100
AcDbEntity
  8
細線
100
AcDbLine
 10
10471.69580798928
 20
1424.760787611751
 30
0.0
 11
10471.69580798928
 21
1398.217194072305
 31
0.0
  0
LINE
  5
1CCAE
330
747D
100
AcDbEntity
  8
細線
100
AcDbLine
 10
10487.69580798928
 20
1424.760787611751
 30
0.0
 11
10487.69580798928
 21
1398.217194072305
 31
0.0
  0
CIRCLE
  5
1CCAF
330
747D
100
AcDbEntity
  8
部品1
100
AcDbCircle
 10
10479.69580798928
 20
1384.360787611753
 30
0.0
 40
16.0
  0
LINE
  5
1CCB0
330
747D
100
AcDbEntity
  8
部品1
100
AcDbLine
 10
10448.74986746952
 20
1446.760787611754
 30
0.0
 11
10510.64174850903
 21
1446.760787611751
 31
0.0
  0
ARC
  5
1CCB1
330
747D
100
AcDbEntity
  8
部品1
100
AcDbCircle
 10
10448.74986746952
 20
1436.760787611754
 30
0.0
 40
10.0
100
AcDbArc
 50
90.0
 51
174.3157584018092
  0
ARC
  5
1CCB2
330
747D
100
AcDbEntity
  8
部品1
100
AcDbCircle
 10
10510.64174850903
 20
1436.760787611751
 30
0.0
 40
10.0
100
AcDbArc
 50
5.684241598190771
 51
90.0
  0
ARC
  5
1CCB3
330
747D
100
AcDbEntity
  8
部品1
100
AcDbCircle
 10
10479.69580798928
 20
1454.360787611753
 30
0.0
 40
8.0
100
AcDbArc
 50
180.0
 51
251.8051276613128
  0
ARC
  5
1CCB4
330
747D
100
AcDbEntity
  8
部品1
100
AcDbCircle
 10
10479.69580798928
 20
1454.360787611753
 30
0.0
 40
8.0
100
AcDbArc
 50
288.1948723386872
 51
0.0
  0
LINE
  5
1CCB5
330
747D
100
AcDbEntity
  8
部品1
100
AcDbLine
 10
10439.69580798928
 20
1544.360787611753
 30
0.0
 11
10439.69580798928
 21
1441.006256599761
 31
0.0
  0
LINE
  5
1CCB6
330
747D
100
AcDbEntity
  8
部品1
100
AcDbLine
 10
10519.69580798928
 20
1544.360787611757
 30
0.0
 11
10519.69580798928
 21
1441.006256599767
 31
0.0
  0
LINE
  5
1CCB7
330
747D
100
AcDbEntity
  8
部品1
100
AcDbLine
 10
10487.69580798928
 20
1469.904381151202
 30
0.0
 11
10487.69580798928
 21
1454.360787611753
 31
0.0
  0
LINE
  5
1CCB8
330
747D
100
AcDbEntity
  8
部品1
100
AcDbLine
 10
10471.69580798928
 20
1469.904381151202
 30
0.0
 11
10471.69580798928
 21
1454.360787611753
 31
0.0
  0
TEXT
  5
1CCB9
330
747D
100
AcDbEntity
  8
部品1
100
AcDbText
 10
8984.944780845276
 20
2175.866049504641
 30
0.0
 40
120.0
  1
地盤がコンクリートの場合
  7
STYLE2
100
AcDbText
  0
LINE
  5
1CCBA
330
747D
100
AcDbEntity
  8
部品1
 48
50.0
100
AcDbLine
 10
11423.6
 20
2600.000000000001
 30
0.0
 11
11423.6
 21
200.0
 31
0.0
  0
TEXT
  5
1CCED
330
747D
100
AcDbEntity
  8
部品1
 48
50.0
100
AcDbText
 10
9628.951829250343
 20
8014.2817104262
 30
0.0
 40
120.0
  1
組立後
  7
STYLE1
100
AcDbText
  0
MTEXT
  5
1CCEE
102
{ACAD_REACTORS
330
1CCEF
102
}
330
747D
100
AcDbEntity
  8
部品1
 62
     7
 48
50.0
100
AcDbMText
 10
9620.827897155237
 20
7887.804121954123
 30
0.0
 40
120.0
 41
0.0
 71
     4
 72
     1
  1
現場打コンクリート
  7
STYLE1
 73
     1
 44
1.0
1001
ACAD
1000
MTEXTBEGIN
1070
    73
1070
     1
1070
    44
1040
1.0
1070
    74
1070
     0
1000
MTEXTEND
  0
LEADER
  5
1CCEF
330
747D
100
AcDbEntity
  8
寸法
 48
50.0
100
AcDbLeader
  3
INABA_S50G
 71
     0
 73
     0
 74
     0
 75
     1
 40
120.0
 41
1282.349242404918
 76
     3
 10
9214.440685572832
 20
7606.460184337982
 30
0.0
 10
9470.827897155237
 20
7802.804121954124
 30
0.0
 10
9595.827897155237
 20
7802.804121954124
 30
0.0
340
1CCEE
1001
ACAD
1000
DSTYLE
1002
{
1070
   341
1005
1C530
1070
    40
1040
1.0
1070
   343
1005
1C530
1070
   344
1005
1C530
1002
}
  0
LINE
  5
1CCF0
330
747D
100
AcDbEntity
  8
想像線
 48
10.0
100
AcDbLine
 10
9169.6
 20
7697.003545050069
 30
0.0
 11
9169.600000000004
 21
5765.003545050065
 31
0.0
  0
DIMENSION
  5
1CCF1
330
747D
100
AcDbEntity
  8
寸法
 48
50.0
100
AcDbDimension
  2
*D4
 10
9019.600000000002
 20
5496.678060104597
 30
0.0
 11
9119.600000000003
 21
5496.678060104597
 31
0.0
 70
   160
 71
     5
 42
200.0000000000018
  3
INABA_S40G
100
AcDbAlignedDimension
 13
9219.600000000003
 23
5725.003545050062
 33
0.0
 14
9019.600000000002
 24
5725.003545050062
 34
0.0
100
AcDbRotatedDimension
1001
ACAD
1000
DSTYLE
1002
{
1070
   174
1070
     0
1070
   272
1070
     1
1070
   288
1070
     0
1070
   341
1005
0
1002
}
  0
DIMENSION
  5
1CCF2
330
747D
100
AcDbEntity
  8
寸法
 48
50.0
100
AcDbDimension
  2
*D5
 10
9483.665147516209
 20
5725.003545050062
 30
0.0
 11
9483.665147516207
 21
5825.003545050062
 31
0.0
 70
   160
 71
     5
 42
199.9999999999963
  3
INABA_S40G
100
AcDbAlignedDimension
 13
9219.599999999998
 23
5925.003545050059
 33
0.0
 14
9219.600000000003
 24
5725.003545050062
 34
0.0
 50
90.0
100
AcDbRotatedDimension
1001
ACAD
1000
DSTYLE
1002
{
1070
   174
1070
     0
1070
   272
1070
     1
1070
   288
1070
     0
1070
   341
1005
0
1002
}
  0
LINE
  5
1CCF3
330
747D
100
AcDbEntity
  8
部品1
 48
50.0
100
AcDbLine
 10
8729.600000000001
 20
6015.003545050065
 30
0.0
 11
9119.600000000001
 21
6015.003545050065
 31
0.0
  0
LINE
  5
1CCF4
330
747D
100
AcDbEntity
  8
部品1
 48
50.0
100
AcDbLine
 10
8729.600000000001
 20
5825.003545050066
 30
0.0
 11
9119.600000000001
 21
5825.003545050066
 31
0.0
  0
LINE
  5
1CCF5
330
747D
100
AcDbEntity
  8
部品1
 48
50.0
100
AcDbLine
 10
8729.600000000001
 20
5825.003545050069
 30
0.0
 11
9119.600000000001
 21
5825.003545050066
 31
0.0
  0
LINE
  5
1CCF6
330
747D
100
AcDbEntity
  8
部品1
 48
50.0
100
AcDbLine
 10
8729.600000000001
 20
6015.003545050065
 30
0.0
 11
8729.600000000001
 21
5825.003545050066
 31
0.0
  0
LINE
  5
1CCFB
330
747D
100
AcDbEntity
  8
部品1
 48
50.0
100
AcDbLine
 10
9119.600000000001
 20
6015.003545050065
 30
0.0
 11
9119.600000000001
 21
5825.003545050066
 31
0.0
  0
DIMENSION
  5
1CCFC
330
747D
100
AcDbEntity
  8
寸法
 48
50.0
100
AcDbDimension
  2
*D6
 10
9169.6
 20
8009.416132721687
 30
0.0
 11
9144.600000000002
 21
8009.416132721687
 31
0.0
 70
   160
  1
a
 71
     5
 42
50.0
  3
INABA_S40G
100
AcDbAlignedDimension
 13
9119.600000000001
 23
7617.003545050066
 33
0.0
 14
9169.6
 24
7697.003545050069
 34
0.0
100
AcDbRotatedDimension
1001
ACAD
1000
DSTYLE
1002
{
1070
   174
1070
     0
1070
   272
1070
     1
1070
   288
1070
     0
1070
   341
1005
0
1002
}
  0
LINE
  5
1CCFF
330
747D
100
AcDbEntity
  8
部品1
 48
50.0
100
AcDbLine
 10
8729.600000000001
 20
7617.003545050062
 30
0.0
 11
9119.600000000001
 21
7617.003545050066
 31
0.0
  0
LINE
  5
1CD00
330
747D
100
AcDbEntity
  8
部品1
 48
50.0
100
AcDbLine
 10
8729.600000000001
 20
7617.003545050066
 30
0.0
 11
9119.600000000001
 21
7617.003545050066
 31
0.0
  0
LINE
  5
1CD01
330
747D
100
AcDbEntity
  8
部品1
 48
50.0
100
AcDbLine
 10
8729.600000000001
 20
7427.003545050066
 30
0.0
 11
9119.600000000001
 21
7427.003545050066
 31
0.0
  0
LINE
  5
1CD02
330
747D
100
AcDbEntity
  8
部品1
 48
50.0
100
AcDbLine
 10
8729.600000000001
 20
7427.003545050066
 30
0.0
 11
8729.600000000001
 21
7617.003545050066
 31
0.0
  0
LINE
  5
1CD04
330
747D
100
AcDbEntity
  8
部品1
 48
50.0
100
AcDbLine
 10
9119.600000000001
 20
7427.003545050066
 30
0.0
 11
9119.600000000001
 21
7617.003545050066
 31
0.0
  0
TEXT
  5
1D002
330
747D
100
AcDbEntity
  8
文字
 62
     7
 48
50.0
100
AcDbText
 10
13188.16259899338
 20
246.7109242801889
 30
0.0
 40
80.0
  1
※寒冷地等は地域の実情に合わせた基礎にして下さい。
  7
STYLE2
100
AcDbText
  0
DIMENSION
  5
1D583
330
747D
100
AcDbEntity
  8
寸法
 48
50.0
100
AcDbDimension
  2
*D13
 10
7654.378706623596
 20
1140.760787611754
 30
0.0
 11
7554.378706623596
 21
1240.760787611756
 31
0.0
 70
    32
  1
a
 71
     5
 42
200.0000000000011
  3
INABA_S40G
100
AcDbAlignedDimension
 13
7406.307702263203
 23
1340.760787611755
 33
0.0
 14
7406.307702263204
 24
1140.760787611754
 34
0.0
 50
90.0
100
AcDbRotatedDimension
1001
ACAD
1000
DSTYLE
1002
{
1070
   174
1070
     0
1070
   272
1070
     1
1070
   288
1070
     0
1070
   341
1005
0
1002
}
  0
TEXT
  5
1D613
330
747D
100
AcDbEntity
  8
部品1
100
AcDbText
 10
8312.767257248598
 20
673.9251098471076
 30
0.0
 40
80.0
  1
b寸法：100～120mmに対応
  7
STYLE2
100
AcDbText
  0
TEXT
  5
1D614
330
747D
100
AcDbEntity
  8
部品1
100
AcDbText
 10
8317.31271179405
 20
528.3190492410471
 30
0.0
 40
80.0
  1
\U+203BオールアンカーM10(市販品)
  7
STYLE2
100
AcDbText
  0
TEXT
  5
1D615
330
747D
100
AcDbEntity
  8
部品1
100
AcDbText
 10
8318.676348157687
 20
378.6220795440775
 30
0.0
 40
80.0
  1
  が4本必要になります。
  7
STYLE2
100
AcDbText
  0
TEXT
  5
1D616
330
747D
100
AcDbEntity
  8
部品1
100
AcDbText
 10
9872.099101773233
 20
673.9251098471076
 30
0.0
 40
80.0
  1
c寸法：135～175,190mmに対応
  7
STYLE2
100
AcDbText
  0
TEXT
  5
1D617
330
747D
100
AcDbEntity
  8
部品1
100
AcDbText
 10
9876.190010864142
 20
528.3190492410471
 30
0.0
 40
80.0
  1
\U+203BオールアンカーM10(市販品)
  7
STYLE2
100
AcDbText
  0
TEXT
  5
1D618
330
747D
100
AcDbEntity
  8
部品1
100
AcDbText
 10
9877.553647227777
 20
378.6220795440775
 30
0.0
 40
80.0
  1
  が4本必要になります。
  7
STYLE2
100
AcDbText
  0
TEXT
  5
1D619
330
747D
100
AcDbEntity
  8
部品1
100
AcDbText
 10
6760.149278048942
 20
402.0913671270181
 30
0.0
 40
80.0
  1
a寸法：100～150mmに対応
  7
STYLE2
100
AcDbText
  0
TEXT
  5
1D6DB
330
747D
100
AcDbEntity
  8
部品1
 48
50.0
100
AcDbText
 10
8334.012483089749
 20
5606.536932856498
 30
0.0
 40
120.0
  1
扉面
  7
STYLE1
 72
     1
 11
8462.012483089749
 21
5590.536932856497
 31
0.0
100
AcDbText
 73
     1
  0
LINE
  5
1DC75
102
{ACAD_REACTORS
330
1DC9F
102
}
330
747D
100
AcDbEntity
  8
点線
 48
10.0
100
AcDbLine
 10
9019.600000000002
 20
5925.003545050061
 30
0.0
 11
9219.599999999998
 21
5925.003545050059
 31
0.0
  0
LINE
  5
1DC76
102
{ACAD_REACTORS
330
1DC9F
102
}
330
747D
100
AcDbEntity
  8
点線
 48
10.0
100
AcDbLine
 10
9219.599999999998
 20
5925.003545050059
 30
0.0
 11
9219.600000000003
 21
5725.003545050062
 31
0.0
  0
LINE
  5
1DC77
102
{ACAD_REACTORS
330
1DC9F
102
}
330
747D
100
AcDbEntity
  8
点線
 48
10.0
100
AcDbLine
 10
9019.600000000002
 20
5725.003545050061
 30
0.0
 11
9219.600000000003
 21
5725.003545050062
 31
0.0
  0
LINE
  5
1DC78
102
{ACAD_REACTORS
330
1DC9F
102
}
330
747D
100
AcDbEntity
  8
点線
 48
10.0
100
AcDbLine
 10
9019.600000000002
 20
5925.003545050061
 30
0.0
 11
9019.600000000002
 21
5725.003545050061
 31
0.0
  0
LINE
  5
1DCA0
102
{ACAD_REACTORS
330
1DCA4
102
}
330
747D
100
AcDbEntity
  8
点線
 48
10.0
100
AcDbLine
 10
9019.600000000002
 20
7717.003545050061
 30
0.0
 11
9019.600000000002
 21
7517.00354505006
 31
0.0
  0
LINE
  5
1DCA1
102
{ACAD_REACTORS
330
1DCA4
102
}
330
747D
100
AcDbEntity
  8
点線
 48
10.0
100
AcDbLine
 10
9019.600000000002
 20
7717.003545050061
 30
0.0
 11
9219.599999999998
 21
7717.003545050059
 31
0.0
  0
LINE
  5
1DCA2
102
{ACAD_REACTORS
330
1DCA4
102
}
330
747D
100
AcDbEntity
  8
点線
 48
10.0
100
AcDbLine
 10
9019.600000000002
 20
7517.00354505006
 30
0.0
 11
9219.600000000003
 21
7517.003545050063
 31
0.0
  0
LINE
  5
1DCA3
102
{ACAD_REACTORS
330
1DCA4
102
}
330
747D
100
AcDbEntity
  8
点線
 48
10.0
100
AcDbLine
 10
9219.599999999998
 20
7717.003545050059
 30
0.0
 11
9219.600000000003
 21
7517.003545050063
 31
0.0
  0
LINE
  5
1DCA5
102
{ACAD_REACTORS
330
1DCAD
102
}
330
747D
100
AcDbEntity
  8
点線
 48
10.0
100
AcDbLine
 10
7647.6
 20
5925.003545050061
 30
0.0
 11
7647.6
 21
5725.003545050061
 31
0.0
  0
LINE
  5
1DCA6
102
{ACAD_REACTORS
330
1DCAD
102
}
330
747D
100
AcDbEntity
  8
点線
 48
10.0
100
AcDbLine
 10
7647.6
 20
5925.003545050061
 30
0.0
 11
7847.599999999996
 21
5925.003545050059
 31
0.0
  0
LINE
  5
1DCA7
102
{ACAD_REACTORS
330
1DCAD
102
}
330
747D
100
AcDbEntity
  8
点線
 48
10.0
100
AcDbLine
 10
7647.6
 20
5725.003545050061
 30
0.0
 11
7847.600000000001
 21
5725.003545050062
 31
0.0
  0
LINE
  5
1DCA8
102
{ACAD_REACTORS
330
1DCAD
102
}
330
747D
100
AcDbEntity
  8
点線
 48
10.0
100
AcDbLine
 10
7847.599999999996
 20
5925.003545050059
 30
0.0
 11
7847.600000000001
 21
5725.003545050062
 31
0.0
  0
LINE
  5
1DCA9
102
{ACAD_REACTORS
330
1DCAE
102
}
330
747D
100
AcDbEntity
  8
点線
 48
10.0
100
AcDbLine
 10
7647.6
 20
7717.003545050061
 30
0.0
 11
7647.6
 21
7517.00354505006
 31
0.0
  0
LINE
  5
1DCAA
102
{ACAD_REACTORS
330
1DCAE
102
}
330
747D
100
AcDbEntity
  8
点線
 48
10.0
100
AcDbLine
 10
7647.6
 20
7717.003545050061
 30
0.0
 11
7847.599999999996
 21
7717.003545050059
 31
0.0
  0
LINE
  5
1DCAB
102
{ACAD_REACTORS
330
1DCAE
102
}
330
747D
100
AcDbEntity
  8
点線
 48
10.0
100
AcDbLine
 10
7647.6
 20
7517.00354505006
 30
0.0
 11
7847.600000000001
 21
7517.003545050063
 31
0.0
  0
LINE
  5
1DCAC
102
{ACAD_REACTORS
330
1DCAE
102
}
330
747D
100
AcDbEntity
  8
点線
 48
10.0
100
AcDbLine
 10
7847.599999999996
 20
7717.003545050059
 30
0.0
 11
7847.600000000001
 21
7517.003545050063
 31
0.0
  0
LINE
  5
1DEEA
330
747D
100
AcDbEntity
  8
部品1
 48
50.0
100
AcDbLine
 10
9119.600000000001
 20
6658.003545050066
 30
0.0
 11
9119.600000000001
 21
6858.003545050066
 31
0.0
  0
LINE
  5
1DEEB
330
747D
100
AcDbEntity
  8
部品1
 48
50.0
100
AcDbLine
 10
8919.6
 20
6658.003545050066
 30
0.0
 11
8919.6
 21
6858.003545050066
 31
0.0
  0
LINE
  5
1DEEC
330
747D
100
AcDbEntity
  8
部品1
 48
50.0
100
AcDbLine
 10
8919.6
 20
6858.003545050062
 30
0.0
 11
9119.600000000001
 21
6858.003545050062
 31
0.0
  0
LINE
  5
1DEED
330
747D
100
AcDbEntity
  8
部品1
 48
50.0
100
AcDbLine
 10
8919.6
 20
6658.003545050061
 30
0.0
 11
9119.600000000001
 21
6658.003545050061
 31
0.0
  0
LINE
  5
1DEEE
330
747D
100
AcDbEntity
  8
部品1
 48
50.0
100
AcDbLine
 10
8533.599999999999
 20
6858.003545050062
 30
0.0
 11
8333.6
 21
6858.003545050062
 31
0.0
  0
LINE
  5
1DEEF
330
747D
100
AcDbEntity
  8
部品1
 48
50.0
100
AcDbLine
 10
8533.599999999999
 20
6658.003545050061
 30
0.0
 11
8333.6
 21
6658.003545050061
 31
0.0
  0
LINE
  5
1DEF0
330
747D
100
AcDbEntity
  8
部品1
 48
50.0
100
AcDbLine
 10
8533.599999999999
 20
6658.003545050066
 30
0.0
 11
8533.599999999999
 21
6858.003545050066
 31
0.0
  0
LINE
  5
1DEF1
330
747D
100
AcDbEntity
  8
部品1
 48
50.0
100
AcDbLine
 10
8333.6
 20
6658.003545050066
 30
0.0
 11
8333.6
 21
6858.003545050066
 31
0.0
  0
LINE
  5
1DEF2
330
747D
100
AcDbEntity
  8
部品1
 48
50.0
100
AcDbLine
 10
7947.6
 20
6658.003545050066
 30
0.0
 11
7947.6
 21
6858.003545050066
 31
0.0
  0
LINE
  5
1DEF3
330
747D
100
AcDbEntity
  8
部品1
 48
50.0
100
AcDbLine
 10
7747.6
 20
6658.003545050066
 30
0.0
 11
7747.6
 21
6858.003545050066
 31
0.0
  0
LINE
  5
1DEF4
330
747D
100
AcDbEntity
  8
部品1
 48
50.0
100
AcDbLine
 10
7947.6
 20
6858.003545050062
 30
0.0
 11
7747.6
 21
6858.003545050062
 31
0.0
  0
LINE
  5
1DEF5
330
747D
100
AcDbEntity
  8
部品1
 48
50.0
100
AcDbLine
 10
7947.6
 20
6658.003545050061
 30
0.0
 11
7747.6
 21
6658.003545050061
 31
0.0
  0
DIMENSION
  5
1DEF6
330
747D
100
AcDbEntity
  8
寸法
 48
50.0
100
AcDbDimension
  2
*D15
 10
7308.978338615607
 20
6758.003545050065
 30
0.0
 11
7208.978338615605
 21
7187.503545050067
 31
0.0
 70
    32
 71
     5
 42
859.0
  3
INABA_S40G
100
AcDbAlignedDimension
 13
7747.6
 23
7617.003545050066
 33
0.0
 14
7747.6
 24
6758.003545050065
 34
0.0
 50
90.0
100
AcDbRotatedDimension
1001
ACAD
1000
DSTYLE
1002
{
1070
   272
1070
     1
1070
   341
1005
0
1002
}
  0
DIMENSION
  5
1DEF7
330
747D
100
AcDbEntity
  8
寸法
 48
50.0
100
AcDbDimension
  2
*D14
 10
7308.978338615607
 20
5825.003545050066
 30
0.0
 11
7208.978338615605
 21
6291.503545050067
 31
0.0
 70
    32
 71
     5
 42
933.0
  3
INABA_S40G
100
AcDbAlignedDimension
 13
7747.6
 23
6758.003545050065
 33
0.0
 14
7747.6
 24
5825.003545050066
 34
0.0
 50
90.0
100
AcDbRotatedDimension
1001
ACAD
1000
DSTYLE
1002
{
1070
   272
1070
     1
1070
   341
1005
0
1002
}
  0
TEXT
  5
1DFB1
330
747D
100
AcDbEntity
  8
文字
 48
50.0
100
AcDbText
 10
9651.8664264809
 20
7612.367074437999
 30
0.0
 40
120.0
  1
深サ:200
  7
STYLE1
100
AcDbText
  0
LEADER
  5
1E0D6
330
747D
100
AcDbEntity
  8
寸法
 48
50.0
100
AcDbLeader
  3
INABA_S50G
 71
     0
 73
     0
 74
     0
 75
     1
 40
120.0
 41
185.591883092037
 76
     3
 10
8069.116701030523
 20
7474.700552777274
 30
0.0
 10
8137.493414253828
 20
7259.567409508196
 30
0.0
 10
8262.493414253828
 20
7259.567409508196
 30
0.0
340
1E0D7
1001
ACAD
1000
DSTYLE
1002
{
1070
   341
1005
1C530
1070
    40
1040
1.0
1070
   343
1005
1C530
1070
   344
1005
1C530
1002
}
  0
MTEXT
  5
1E0D7
102
{ACAD_REACTORS
330
1E0D6
102
}
330
747D
100
AcDbEntity
  8
部品1
 62
     7
 48
50.0
100
AcDbMText
 10
8287.493414253829
 20
7344.567409508195
 30
0.0
 40
120.0
 41
0.0
 71
     4
 72
     1
  1
\A1;C.B
  7
STYLE1
 73
     1
 44
1.0
1001
ACAD
1000
MTEXTBEGIN
1070
    73
1070
     1
1070
    44
1040
1.0
1070
    74
1070
     0
1000
MTEXTEND
  0
TEXT
  5
1E0F4
330
747D
100
AcDbEntity
  8
文字
 48
50.0
100
AcDbText
 10
8148.552229389292
 20
7092.068810014573
 30
0.0
 40
120.0
  1
100x190x390
  7
STYLE1
100
AcDbText
  0
ENDSEC
  0
SECTION
  2
OBJECTS
  0
DICTIONARY
  5
7471
330
0
100
AcDbDictionary
281
     1
  3
ACAD_COLOR
350
159B0
  3
ACAD_GROUP
350
7472
  3
ACAD_LAYOUT
350
159B1
  3
ACAD_MATERIAL
350
159AF
  3
ACAD_MLINESTYLE
350
7473
  3
ACAD_PLOTSETTINGS
350
159B2
  3
ACAD_PLOTSTYLENAME
350
159AD
  3
ACDBHEADERROUNDTRIPXREC
350
1E192
  3
AcDbVariableDictionary
350
1E18E
  3
CONTENTDICTIONARY
350
E71C
  3
DRAWINGVARIABLESDICT
350
F3B9
  0
DICTIONARY
  5
159B0
102
{ACAD_REACTORS
330
7471
102
}
330
7471
100
AcDbDictionary
281
     1
  0
DICTIONARY
  5
7472
102
{ACAD_REACTORS
330
7471
102
}
330
7471
100
AcDbDictionary
281
     1
  3
*A1
350
1DC57
  3
*A2
350
1DC61
  3
*A3
350
1DC62
  3
*A4
350
1DC9F
  3
*A5
350
1DCA4
  3
*A6
350
1DCAD
  3
*A7
350
1DCAE
  0
DICTIONARY
  5
159B1
102
{ACAD_REACTORS
330
7471
102
}
330
7471
100
AcDbDictionary
281
     1
  3
Model
350
159B3
  3
レイアウト1
350
159B4
  0
DICTIONARY
  5
159AF
102
{ACAD_REACTORS
330
7471
102
}
330
7471
100
AcDbDictionary
281
     1
  0
DICTIONARY
  5
7473
102
{ACAD_REACTORS
330
7471
102
}
330
7471
100
AcDbDictionary
281
     1
  3
STANDARD
350
7480
  0
DICTIONARY
  5
159B2
102
{ACAD_REACTORS
330
7471
102
}
330
7471
100
AcDbDictionary
281
     1
  0
ACDBDICTIONARYWDFLT
  5
159AD
102
{ACAD_REACTORS
330
7471
102
}
330
7471
100
AcDbDictionary
281
     1
  3
Normal
350
159AE
100
AcDbDictionaryWithDefault
340
159AE
  0
DICTIONARY
  5
1E192
102
{ACAD_REACTORS
330
7471
102
}
330
7471
100
AcDbDictionary
281
     1
  3
COLORDICT
350
1E194
  3
MATERIALDICT
350
1E193
  0
DICTIONARY
  5
1E18E
102
{ACAD_REACTORS
330
7471
102
}
330
7471
100
AcDbDictionary
281
     1
  3
DIMASSOC
350
1E18F
  3
PROJECTNAME
350
1E190
  0
DICTIONARY
  5
E71C
102
{ACAD_REACTORS
330
7471
102
}
330
7471
100
AcDbDictionary
281
     1
  0
DICTIONARY
  5
F3B9
102
{ACAD_REACTORS
330
7471
102
}
330
7471
100
AcDbDictionary
281
     1
1001
DRAWINGVARIABLESXDATA
1000
POLARMODE
1000
1
  0
GROUP
  5
1DC57
102
{ACAD_REACTORS
330
7472
102
}
330
7472
100
AcDbGroup
300

 70
     1
 71
     1
  0
GROUP
  5
1DC61
102
{ACAD_REACTORS
330
7472
102
}
330
7472
100
AcDbGroup
300

 70
     1
 71
     1
  0
GROUP
  5
1DC62
102
{ACAD_REACTORS
330
7472
102
}
330
7472
100
AcDbGroup
300

 70
     1
 71
     1
  0
GROUP
  5
1DC9F
102
{ACAD_REACTORS
330
7472
102
}
330
7472
100
AcDbGroup
300

 70
     1
 71
     1
340
1DC78
340
1DC75
340
1DC77
340
1DC76
  0
GROUP
  5
1DCA4
102
{ACAD_REACTORS
330
7472
102
}
330
7472
100
AcDbGroup
300

 70
     1
 71
     1
340
1DCA0
340
1DCA1
340
1DCA2
340
1DCA3
  0
GROUP
  5
1DCAD
102
{ACAD_REACTORS
330
7472
102
}
330
7472
100
AcDbGroup
300

 70
     1
 71
     1
340
1DCA5
340
1DCA6
340
1DCA7
340
1DCA8
  0
GROUP
  5
1DCAE
102
{ACAD_REACTORS
330
7472
102
}
330
7472
100
AcDbGroup
300

 70
     1
 71
     1
340
1DCA9
340
1DCAA
340
1DCAB
340
1DCAC
  0
LAYOUT
  5
159B3
102
{ACAD_XDICTIONARY
360
1E195
102
}
102
{ACAD_REACTORS
330
159B1
102
}
330
159B1
100
AcDbPlotSettings
  1

  2
none_device
  4
Letter_(8.50_x_11.00_Inches)
  6

 40
6.349999904632568
 41
6.349999904632568
 42
6.350006103515625
 43
6.350006103515625
 44
215.8999938964844
 45
279.3999938964844
 46
0.0
 47
0.0
 48
0.0
 49
0.0
140
0.0
141
0.0
142
1.0
143
1.0
 70
 11952
 72
     1
 73
     1
 74
     0
  7

 75
     0
147
1.0
148
-4149.571981164617
149
65.56433826894044
100
AcDbLayout
  1
Model
 70
     1
 71
     0
 10
0.0
 20
0.0
 11
12.0
 21
9.0
 12
0.0
 22
0.0
 32
0.0
 14
0.0
 24
0.0
 34
0.0
 15
0.0
 25
0.0
 35
0.0
146
0.0
 13
0.0
 23
0.0
 33
0.0
 16
1.0
 26
0.0
 36
0.0
 17
0.0
 27
1.0
 37
0.0
 76
     0
330
747D
  0
LAYOUT
  5
159B4
102
{ACAD_XDICTIONARY
360
1E197
102
}
102
{ACAD_REACTORS
330
159B1
102
}
330
159B1
100
AcDbPlotSettings
  1

  2
自動 EPSON LP-8400FX (TATENO 上)
  4

  6

 40
0.0
 41
0.0
 42
0.0
 43
0.0
 44
0.0
 45
0.0
 46
0.0
 47
0.0
 48
0.0
 49
0.0
140
0.0
141
0.0
142
1.0
143
1.0
 70
   688
 72
     0
 73
     0
 74
     5
  7
inaba.ctb
 75
    16
147
1.0
148
0.0
149
0.0
100
AcDbLayout
  1
レイアウト1
 70
     0
 71
     1
 10
0.0
 20
0.0
 11
420.0
 21
297.0
 12
0.0
 22
0.0
 32
0.0
 14
1.000000000000000E+20
 24
1.000000000000000E+20
 34
1.000000000000000E+20
 15
-1.000000000000000E+20
 25
-1.000000000000000E+20
 35
-1.000000000000000E+20
146
0.0
 13
0.0
 23
0.0
 33
0.0
 16
1.0
 26
0.0
 36
0.0
 17
0.0
 27
1.0
 37
0.0
 76
     0
330
747A
  0
MLINESTYLE
  5
7480
102
{ACAD_REACTORS
330
7473
102
}
330
7473
100
AcDbMlineStyle
  2
STANDARD
 70
     0
  3

 62
     0
 51
90.0
 52
90.0
 71
     2
 49
0.5
 62
   256
  6
BYLAYER
 49
-0.5
 62
   256
  6
BYLAYER
  0
ACDBPLACEHOLDER
  5
159AE
102
{ACAD_REACTORS
330
159AD
102
}
330
159AD
  0
XRECORD
  5
1E194
102
{ACAD_REACTORS
330
1E192
102
}
330
1E192
100
AcDbXrecord
280
     1
340
159B0
  0
XRECORD
  5
1E193
102
{ACAD_REACTORS
330
1E192
102
}
330
1E192
100
AcDbXrecord
280
     1
340
159AF
  0
DICTIONARYVAR
  5
1E18F
102
{ACAD_REACTORS
330
1E18E
102
}
330
1E18E
100
DictionaryVariables
280
     0
  1
1
  0
DICTIONARYVAR
  5
1E190
102
{ACAD_REACTORS
330
1E18E
102
}
330
1E18E
100
DictionaryVariables
280
     0
  1

  0
DICTIONARY
  5
1E195
330
159B3
100
AcDbDictionary
280
     1
281
     1
  3
ACAD_XREC_ROUNDTRIP
360
1E196
  0
DICTIONARY
  5
1E197
330
159B4
100
AcDbDictionary
280
     1
281
     1
  3
ACAD_XREC_ROUNDTRIP
360
1E198
  0
XRECORD
  5
1E196
102
{ACAD_REACTORS
330
1E195
102
}
330
1E195
100
AcDbXrecord
280
     1
102
SHADEPLOT
 70
     0
102
SHADEPLOTRESLEVEL
 70
     2
102
SHADEPLOTCUSTOMDPI
 70
   300
  0
XRECORD
  5
1E198
102
{ACAD_REACTORS
330
1E197
102
}
330
1E197
100
AcDbXrecord
280
     1
102
SHADEPLOT
 70
     0
102
SHADEPLOTRESLEVEL
 70
     2
102
SHADEPLOTCUSTOMDPI
 70
   300
  0
ENDSEC
  0
EOF
