  0
SECTION
  2
HEADER
  9
$ACADVER
  1
AC1015
  9
$ACADMAINTVER
 70
    20
  9
$DWGCODEPAGE
  3
ANSI_932
  9
$INSBASE
 10
0.0
 20
0.0
 30
0.0
  9
$EXTMIN
 10
139.8427842704986
 20
-0.264306497767393
 30
-0.0000000000000053
  9
$EXTMAX
 10
16307.98708817691
 20
11409.90526204624
 30
0.0000000000000099
  9
$LIMMIN
 10
-25.79074261211281
 20
-125.8223078213959
  9
$LIMMAX
 10
16471.10331197129
 20
11496.44801950658
  9
$ORTHOMODE
 70
     0
  9
$REGENMODE
 70
     1
  9
$FILLMODE
 70
     1
  9
$QTEXTMODE
 70
     0
  9
$MIRRTEXT
 70
     1
  9
$LTSCALE
 40
20.0
  9
$ATTMODE
 70
     1
  9
$TEXTSIZE
 40
100.0
  9
$TRACEWID
 40
1.0
  9
$TEXTSTYLE
  7
STYLE3
  9
$CLAYER
  8
寸法
  9
$CELTYPE
  6
BYLAYER
  9
$CECOLOR
 62
   256
  9
$CELTSCALE
 40
50.0
  9
$DISPSILH
 70
     0
  9
$DIMSCALE
 40
40.0
  9
$DIMASZ
 40
2.5
  9
$DIMEXO
 40
0.5
  9
$DIMDLI
 40
7.0
  9
$DIMRND
 40
0.0
  9
$DIMDLE
 40
0.0
  9
$DIMEXE
 40
1.5
  9
$DIMTP
 40
0.0
  9
$DIMTM
 40
0.0
  9
$DIMTXT
 40
3.0
  9
$DIMCEN
 40
0.0
  9
$DIMTSZ
 40
0.0
  9
$DIMTOL
 70
     0
  9
$DIMLIM
 70
     0
  9
$DIMTIH
 70
     0
  9
$DIMTOH
 70
     0
  9
$DIMSE1
 70
     0
  9
$DIMSE2
 70
     0
  9
$DIMTAD
 70
     3
  9
$DIMZIN
 70
     8
  9
$DIMBLK
  1

  9
$DIMASO
 70
     1
  9
$DIMSHO
 70
     1
  9
$DIMPOST
  1

  9
$DIMAPOST
  1

  9
$DIMALT
 70
     0
  9
$DIMALTD
 70
     2
  9
$DIMALTF
 40
0.0394
  9
$DIMLFAC
 40
1.0
  9
$DIMTOFL
 70
     1
  9
$DIMTVP
 40
0.0
  9
$DIMTIX
 70
     1
  9
$DIMSOXD
 70
     0
  9
$DIMSAH
 70
     1
  9
$DIMBLK1
  1
DOTSMALL
  9
$DIMBLK2
  1
DOTSMALL
  9
$DIMSTYLE
  2
INABA_S40G
  9
$DIMCLRD
 70
     0
  9
$DIMCLRE
 70
     0
  9
$DIMCLRT
 70
     7
  9
$DIMTFAC
 40
1.0
  9
$DIMGAP
 40
1.0
  9
$DIMJUST
 70
     0
  9
$DIMSD1
 70
     0
  9
$DIMSD2
 70
     0
  9
$DIMTOLJ
 70
     1
  9
$DIMTZIN
 70
     0
  9
$DIMALTZ
 70
     0
  9
$DIMALTTZ
 70
     0
  9
$DIMUPT
 70
     0
  9
$DIMDEC
 70
     1
  9
$DIMTDEC
 70
     4
  9
$DIMALTU
 70
     2
  9
$DIMALTTD
 70
     2
  9
$DIMTXSTY
  7
STYLE1
  9
$DIMAUNIT
 70
     0
  9
$DIMADEC
 70
     0
  9
$DIMALTRND
 40
0.0
  9
$DIMAZIN
 70
     0
  9
$DIMDSEP
 70
    46
  9
$DIMATFIT
 70
     3
  9
$DIMFRAC
 70
     0
  9
$DIMLDRBLK
  1

  9
$DIMLUNIT
 70
     2
  9
$DIMLWD
 70
    -2
  9
$DIMLWE
 70
    -2
  9
$DIMTMOVE
 70
     0
  9
$LUNITS
 70
     2
  9
$LUPREC
 70
     1
  9
$SKETCHINC
 40
1.0
  9
$FILLETRAD
 40
5.0
  9
$AUNITS
 70
     0
  9
$AUPREC
 70
     0
  9
$MENU
  1
acad
  9
$ELEVATION
 40
0.0
  9
$PELEVATION
 40
0.0
  9
$THICKNESS
 40
0.0
  9
$LIMCHECK
 70
     0
  9
$CHAMFERA
 40
0.0
  9
$CHAMFERB
 40
0.0
  9
$CHAMFERC
 40
0.0
  9
$CHAMFERD
 40
0.0
  9
$SKPOLY
 70
     0
  9
$TDCREATE
 40
2452116.684896065
  9
$TDUCREATE
 40
2452116.309896065
  9
$TDUPDATE
 40
2457984.459938831
  9
$TDUUPDATE
 40
2457984.084938831
  9
$TDINDWG
 40
0.4590050926
  9
$TDUSRTIMER
 40
0.4590050926
  9
$USRTIMER
 70
     1
  9
$ANGBASE
 50
0.0
  9
$ANGDIR
 70
     0
  9
$PDMODE
 70
     3
  9
$PDSIZE
 40
2.0
  9
$PLINEWID
 40
0.0
  9
$SPLFRAME
 70
     0
  9
$SPLINETYPE
 70
     6
  9
$SPLINESEGS
 70
     8
  9
$HANDSEED
  5
169D2
  9
$SURFTAB1
 70
     6
  9
$SURFTAB2
 70
     6
  9
$SURFTYPE
 70
     6
  9
$SURFU
 70
     6
  9
$SURFV
 70
     6
  9
$UCSBASE
  2

  9
$UCSNAME
  2

  9
$UCSORG
 10
0.0
 20
0.0
 30
0.0
  9
$UCSXDIR
 10
1.0
 20
0.0
 30
0.0
  9
$UCSYDIR
 10
0.0
 20
1.0
 30
0.0
  9
$UCSORTHOREF
  2

  9
$UCSORTHOVIEW
 70
     0
  9
$UCSORGTOP
 10
0.0
 20
0.0
 30
0.0
  9
$UCSORGBOTTOM
 10
0.0
 20
0.0
 30
0.0
  9
$UCSORGLEFT
 10
0.0
 20
0.0
 30
0.0
  9
$UCSORGRIGHT
 10
0.0
 20
0.0
 30
0.0
  9
$UCSORGFRONT
 10
0.0
 20
0.0
 30
0.0
  9
$UCSORGBACK
 10
0.0
 20
0.0
 30
0.0
  9
$PUCSBASE
  2

  9
$PUCSNAME
  2

  9
$PUCSORG
 10
0.0
 20
0.0
 30
0.0
  9
$PUCSXDIR
 10
1.0
 20
0.0
 30
0.0
  9
$PUCSYDIR
 10
0.0
 20
1.0
 30
0.0
  9
$PUCSORTHOREF
  2

  9
$PUCSORTHOVIEW
 70
     0
  9
$PUCSORGTOP
 10
0.0
 20
0.0
 30
0.0
  9
$PUCSORGBOTTOM
 10
0.0
 20
0.0
 30
0.0
  9
$PUCSORGLEFT
 10
0.0
 20
0.0
 30
0.0
  9
$PUCSORGRIGHT
 10
0.0
 20
0.0
 30
0.0
  9
$PUCSORGFRONT
 10
0.0
 20
0.0
 30
0.0
  9
$PUCSORGBACK
 10
0.0
 20
0.0
 30
0.0
  9
$USERI1
 70
     0
  9
$USERI2
 70
     0
  9
$USERI3
 70
     0
  9
$USERI4
 70
     0
  9
$USERI5
 70
     0
  9
$USERR1
 40
0.0
  9
$USERR2
 40
0.0
  9
$USERR3
 40
0.0
  9
$USERR4
 40
0.0
  9
$USERR5
 40
0.0
  9
$WORLDVIEW
 70
     1
  9
$SHADEDGE
 70
     3
  9
$SHADEDIF
 70
    70
  9
$TILEMODE
 70
     1
  9
$MAXACTVP
 70
    16
  9
$PINSBASE
 10
0.0
 20
0.0
 30
0.0
  9
$PLIMCHECK
 70
     0
  9
$PEXTMIN
 10
1.000000000000000E+20
 20
1.000000000000000E+20
 30
1.000000000000000E+20
  9
$PEXTMAX
 10
-1.000000000000000E+20
 20
-1.000000000000000E+20
 30
-1.000000000000000E+20
  9
$PLIMMIN
 10
0.0
 20
0.0
  9
$PLIMMAX
 10
420.0
 20
297.0
  9
$UNITMODE
 70
     0
  9
$VISRETAIN
 70
     0
  9
$PLINEGEN
 70
     0
  9
$PSLTSCALE
 70
     0
  9
$TREEDEPTH
 70
  3020
  9
$CMLSTYLE
  2
STANDARD
  9
$CMLJUST
 70
     0
  9
$CMLSCALE
 40
1.0
  9
$PROXYGRAPHICS
 70
     1
  9
$MEASUREMENT
 70
     1
  9
$CELWEIGHT
370
    -1
  9
$ENDCAPS
280
     0
  9
$JOINSTYLE
280
     0
  9
$LWDISPLAY
290
     0
  9
$INSUNITS
 70
     0
  9
$HYPERLINKBASE
  1

  9
$STYLESHEET
  1
inabass.ctb
  9
$XEDIT
290
     1
  9
$CEPSNTYPE
380
     0
  9
$PSTYLEMODE
290
     1
  9
$FINGERPRINTGUID
  2
{90EC572A-323C-4E40-AB88-DB0658135A44}
  9
$VERSIONGUID
  2
{3650F7CF-1CAC-4AEA-93E8-A5E882FB932D}
  9
$EXTNAMES
290
     1
  9
$PSVPSCALE
 40
0.0
  9
$OLESTARTUP
290
     0
  0
ENDSEC
  0
SECTION
  2
CLASSES
  0
CLASS
  1
ACDBDICTIONARYWDFLT
  2
AcDbDictionaryWithDefault
  3
ObjectDBX Classes
 90
        0
280
     0
281
     0
  0
CLASS
  1
MATERIAL
  2
AcDbMaterial
  3
ObjectDBX Classes
 90
     1153
280
     0
281
     0
  0
CLASS
  1
VISUALSTYLE
  2
AcDbVisualStyle
  3
ObjectDBX Classes
 90
     4095
280
     0
281
     0
  0
CLASS
  1
TABLESTYLE
  2
AcDbTableStyle
  3
ObjectDBX Classes
 90
     4095
280
     0
281
     0
  0
CLASS
  1
SCALE
  2
AcDbScale
  3
ObjectDBX Classes
 90
     1153
280
     0
281
     0
  0
CLASS
  1
MLEADERSTYLE
  2
AcDbMLeaderStyle
  3
ACDB_MLEADERSTYLE_CLASS
 90
     4095
280
     0
281
     0
  0
CLASS
  1
ACDBSECTIONVIEWSTYLE
  2
AcDbSectionViewStyle
  3
ObjectDBX Classes
 90
     1025
280
     0
281
     0
  0
CLASS
  1
ACDBDETAILVIEWSTYLE
  2
AcDbDetailViewStyle
  3
ObjectDBX Classes
 90
     1025
280
     0
281
     0
  0
CLASS
  1
DICTIONARYVAR
  2
AcDbDictionaryVar
  3
ObjectDBX Classes
 90
        0
280
     0
281
     0
  0
CLASS
  1
SORTENTSTABLE
  2
AcDbSortentsTable
  3
ObjectDBX Classes
 90
        0
280
     0
281
     0
  0
CLASS
  1
CELLSTYLEMAP
  2
AcDbCellStyleMap
  3
ObjectDBX Classes
 90
     1152
280
     0
281
     0
  0
CLASS
  1
ACDBPLACEHOLDER
  2
AcDbPlaceHolder
  3
ObjectDBX Classes
 90
        0
280
     0
281
     0
  0
CLASS
  1
LAYOUT
  2
AcDbLayout
  3
ObjectDBX Classes
 90
        0
280
     0
281
     0
  0
ENDSEC
  0
SECTION
  2
TABLES
  0
TABLE
  2
VPORT
  5
746D
330
0
100
AcDbSymbolTable
 70
     1
  0
VPORT
  5
16774
330
746D
100
AcDbSymbolTableRecord
100
AcDbViewportTableRecord
  2
*Active
 70
     0
 10
0.0
 20
0.0
 11
1.0
 21
1.0
 12
8222.656284679592
 22
5685.312855842594
 13
0.0
 23
0.0
 14
10.0
 24
10.0
 15
10.0
 25
10.0
 16
0.0
 26
0.0
 36
1.0
 17
0.0
 27
0.0
 37
0.0
 40
11713.55108077679
 41
1.646596858638743
 42
50.0
 43
0.0
 44
0.0
 50
0.0
 51
0.0
 71
     0
 72
     0
 73
     1
 74
     0
 75
     0
 76
     0
 77
     0
 78
     0
281
     0
 65
     1
110
0.0
120
0.0
130
0.0
111
1.0
121
0.0
131
0.0
112
0.0
122
1.0
132
0.0
 79
     0
146
0.0
1001
ACAD_NAV_VCDISPLAY
1070
     3
  0
ENDTAB
  0
TABLE
  2
LTYPE
  5
746A
330
0
100
AcDbSymbolTable
 70
     4
  0
LTYPE
  5
7477
330
746A
100
AcDbSymbolTableRecord
100
AcDbLinetypeTableRecord
  2
BYBLOCK
 70
     0
  3

 72
    65
 73
     0
 40
0.0
  0
LTYPE
  5
7478
330
746A
100
AcDbSymbolTableRecord
100
AcDbLinetypeTableRecord
  2
BYLAYER
 70
     0
  3

 72
    65
 73
     0
 40
0.0
  0
LTYPE
  5
7479
330
746A
100
AcDbSymbolTableRecord
100
AcDbLinetypeTableRecord
  2
CONTINUOUS
 70
     0
  3
Solid line
 72
    65
 73
     0
 40
0.0
  0
LTYPE
  5
7816
330
746A
100
AcDbSymbolTableRecord
100
AcDbLinetypeTableRecord
  2
CENTER
 70
     0
  3
____ _ ____ _ ____ _ ____ _ ____ _ ____ _ ____ 
 72
    65
 73
     4
 40
2.0
 49
1.25
 74
     0
 49
-0.25
 74
     0
 49
0.25
 74
     0
 49
-0.25
 74
     0
  0
LTYPE
  5
781A
330
746A
100
AcDbSymbolTableRecord
100
AcDbLinetypeTableRecord
  2
HIDDEN
 70
     0
  3
__ __ __ __ __ __ __ __ __ __ __ __ __ __ __ __
 72
    65
 73
     2
 40
0.375
 49
0.25
 74
     0
 49
-0.125
 74
     0
  0
LTYPE
  5
781B
330
746A
100
AcDbSymbolTableRecord
100
AcDbLinetypeTableRecord
  2
PHANTOM
 70
     0
  3
______  __  __  ______  __  __  ______  __  __ 
 72
    65
 73
     6
 40
2.5
 49
1.25
 74
     0
 49
-0.25
 74
     0
 49
0.25
 74
     0
 49
-0.25
 74
     0
 49
0.25
 74
     0
 49
-0.25
 74
     0
  0
ENDTAB
  0
TABLE
  2
LAYER
  5
7467
102
{ACAD_XDICTIONARY
360
15671
102
}
330
0
100
AcDbSymbolTable
 70
    13
  0
LAYER
  5
7474
102
{ACAD_XDICTIONARY
360
168E0
102
}
330
7467
100
AcDbSymbolTableRecord
100
AcDbLayerTableRecord
  2
0
 70
     0
 62
     7
  6
CONTINUOUS
370
    -3
390
154F5
  0
LAYER
  5
DEB2
102
{ACAD_XDICTIONARY
360
168E2
102
}
330
7467
100
AcDbSymbolTableRecord
100
AcDbLayerTableRecord
  2
センター
 70
     0
 62
     3
  6
CENTER
370
    -3
390
154F5
  0
LAYER
  5
DEB3
102
{ACAD_XDICTIONARY
360
168E4
102
}
330
7467
100
AcDbSymbolTableRecord
100
AcDbLayerTableRecord
  2
寸法
 70
     0
 62
     4
  6
CONTINUOUS
370
    -3
390
154F5
  0
LAYER
  5
DEB4
102
{ACAD_XDICTIONARY
360
168E6
102
}
330
7467
100
AcDbSymbolTableRecord
100
AcDbLayerTableRecord
  2
部品1
 70
     0
 62
     7
  6
CONTINUOUS
370
    -3
390
154F5
  0
LAYER
  5
DEB5
102
{ACAD_XDICTIONARY
360
168E8
102
}
330
7467
100
AcDbSymbolTableRecord
100
AcDbLayerTableRecord
  2
補助
 70
     0
 62
    -1
  6
CONTINUOUS
370
    -3
390
154F5
  0
LAYER
  5
DEB6
102
{ACAD_XDICTIONARY
360
168EA
102
}
330
7467
100
AcDbSymbolTableRecord
100
AcDbLayerTableRecord
  2
文字
 70
     0
 62
     7
  6
CONTINUOUS
370
    -3
390
154F5
  0
LAYER
  5
F255
330
7467
100
AcDbSymbolTableRecord
100
AcDbLayerTableRecord
  2
DEFPOINTS
 70
     0
 62
     7
  6
CONTINUOUS
290
     0
370
    -3
390
154F5
  0
LAYER
  5
10B54
102
{ACAD_XDICTIONARY
360
168EC
102
}
330
7467
100
AcDbSymbolTableRecord
100
AcDbLayerTableRecord
  2
仕様書枠
 70
     0
 62
   230
  6
CONTINUOUS
370
    -3
390
154F5
  0
LAYER
  5
11729
102
{ACAD_XDICTIONARY
360
168EE
102
}
330
7467
100
AcDbSymbolTableRecord
100
AcDbLayerTableRecord
  2
Ｇ．Ｌ
 70
     0
 62
    30
  6
CONTINUOUS
370
    -3
390
154F5
  0
LAYER
  5
1173F
102
{ACAD_XDICTIONARY
360
168F0
102
}
330
7467
100
AcDbSymbolTableRecord
100
AcDbLayerTableRecord
  2
細線
 70
     0
 62
     5
  6
CONTINUOUS
370
    -3
390
154F5
  0
LAYER
  5
118A1
102
{ACAD_XDICTIONARY
360
168F2
102
}
330
7467
100
AcDbSymbolTableRecord
100
AcDbLayerTableRecord
  2
想像線
 70
     0
 62
     6
  6
PHANTOM
370
    -3
390
154F5
  0
LAYER
  5
123C1
102
{ACAD_XDICTIONARY
360
168F4
102
}
330
7467
100
AcDbSymbolTableRecord
100
AcDbLayerTableRecord
  2
破線
 70
     0
 62
     2
  6
HIDDEN
370
    -3
390
154F5
  0
LAYER
  5
16936
102
{ACAD_XDICTIONARY
360
16937
102
}
330
7467
100
AcDbSymbolTableRecord
100
AcDbLayerTableRecord
  2
部品
 70
     0
 62
     7
  6
CONTINUOUS
370
    -3
390
154F5
  0
ENDTAB
  0
TABLE
  2
STYLE
  5
7468
330
0
100
AcDbSymbolTable
 70
     5
  0
STYLE
  5
7475
330
7468
100
AcDbSymbolTableRecord
100
AcDbTextStyleTableRecord
  2
STANDARD
 70
     0
 40
0.0
 41
1.0
 50
0.0
 71
     0
 42
4.0
  3
txt
  4
C:\AutoCAD LT\bigfont.shx
  0
STYLE
  5
F706
330
7468
100
AcDbSymbolTableRecord
100
AcDbTextStyleTableRecord
  2
STYLE1
 70
     0
 40
0.0
 41
1.0
 50
0.0
 71
     0
 42
4.0
  3
isocp.shx
  4
bigfont.shx
  0
STYLE
  5
103BF
330
7468
100
AcDbSymbolTableRecord
100
AcDbTextStyleTableRecord
  2
STYLE2
 70
     0
 40
0.0
 41
1.0
 50
0.0
 71
     0
 42
100.0
  3
MS PGothic.ttf
  4

1001
ACAD
1000
MS PGothic
1071
    32818
  0
STYLE
  5
10BAA
330
7468
100
AcDbSymbolTableRecord
100
AcDbTextStyleTableRecord
  2
STYLE3
 70
     0
 40
0.0
 41
1.0
 50
0.0
 71
     0
 42
100.0
  3
DFPGothic-EB.ttf
  4

1001
ACAD
1000
DFPGothic-EB
1071
    32818
  0
ENDTAB
  0
TABLE
  2
VIEW
  5
746B
330
0
100
AcDbSymbolTable
 70
     0
  0
ENDTAB
  0
TABLE
  2
UCS
  5
746C
330
0
100
AcDbSymbolTable
 70
     0
  0
ENDTAB
  0
TABLE
  2
APPID
  5
746E
330
0
100
AcDbSymbolTable
 70
    10
  0
APPID
  5
7476
330
746E
100
AcDbSymbolTableRecord
100
AcDbRegAppTableRecord
  2
ACAD
 70
     0
  0
APPID
  5
DEA9
330
746E
100
AcDbSymbolTableRecord
100
AcDbRegAppTableRecord
  2
CONTENTBLOCKICON
 70
     0
  0
APPID
  5
DEAA
330
746E
100
AcDbSymbolTableRecord
100
AcDbRegAppTableRecord
  2
CONTENTBLOCKDESCRIPTION
 70
     0
  0
APPID
  5
E71D
330
746E
100
AcDbSymbolTableRecord
100
AcDbRegAppTableRecord
  2
CONTENTTABDATA
 70
     0
  0
APPID
  5
E71E
330
746E
100
AcDbSymbolTableRecord
100
AcDbRegAppTableRecord
  2
CONTENTCURRENTTAB
 70
     0
  0
APPID
  5
F3BA
330
746E
100
AcDbSymbolTableRecord
100
AcDbRegAppTableRecord
  2
DRAWINGVARIABLESXDATA
 70
     0
  0
APPID
  5
167CB
330
746E
100
AcDbSymbolTableRecord
100
AcDbRegAppTableRecord
  2
ACAD_NAV_VCDISPLAY
 70
     0
  0
APPID
  5
167D2
330
746E
100
AcDbSymbolTableRecord
100
AcDbRegAppTableRecord
  2
ACAD_EXEMPT_FROM_CAD_STANDARDS
 70
     0
  0
APPID
  5
16916
330
746E
100
AcDbSymbolTableRecord
100
AcDbRegAppTableRecord
  2
ACAD_PSEXT
 70
     0
  0
APPID
  5
169CD
330
746E
100
AcDbSymbolTableRecord
100
AcDbRegAppTableRecord
  2
ACAD_MLEADERVER
 70
     0
  0
ENDTAB
  0
TABLE
  2
DIMSTYLE
  5
746F
330
0
100
AcDbSymbolTable
 70
     3
100
AcDbDimStyleTable
 71
     1
340
F71F
  0
DIMSTYLE
105
7484
330
746F
100
AcDbSymbolTableRecord
100
AcDbDimStyleTableRecord
  2
JIS
 70
     0
 41
2.5
 42
1.0
 43
7.0
 44
1.0
 73
     0
 74
     0
 77
     1
 78
     8
140
2.5
141
0.0
143
0.0394
147
0.0
172
     1
174
     1
175
     1
340
7475
  0
DIMSTYLE
105
F71F
102
{ACAD_REACTORS
330
14BFF
330
15093
330
15095
330
15096
330
15097
330
15098
330
15099
330
1509A
330
1509B
330
1509C
330
1509D
330
1509E
330
1549E
330
158C6
330
158D5
330
158D6
330
158D7
330
15A8D
330
160D3
330
160D4
330
1612B
330
1612C
330
1612D
330
16131
330
16135
330
16137
330
16554
330
16555
330
16945
102
}
330
746F
100
AcDbSymbolTableRecord
100
AcDbDimStyleTableRecord
  2
INABA_S40G
 70
     0
 40
40.0
 41
2.5
 42
0.5
 43
7.0
 44
1.5
 73
     0
 74
     0
 77
     3
 78
     8
140
3.0
141
0.0
143
0.0394
147
1.0
172
     1
173
     1
174
     1
178
     7
271
     1
340
F706
341
F770
343
F770
344
F770
  0
ENDTAB
  0
TABLE
  2
BLOCK_RECORD
  5
7466
330
0
100
AcDbSymbolTable
 70
    34
  0
BLOCK_RECORD
  5
747D
330
7466
100
AcDbSymbolTableRecord
100
AcDbBlockTableRecord
  2
*MODEL_SPACE
340
154FA
  0
BLOCK_RECORD
  5
747A
330
7466
100
AcDbSymbolTableRecord
100
AcDbBlockTableRecord
  2
*PAPER_SPACE
340
154FB
  0
BLOCK_RECORD
  5
F770
330
7466
100
AcDbSymbolTableRecord
100
AcDbBlockTableRecord
  2
_DOTSMALL
340
0
102
{BLKREFS
331
16964
331
16965
331
165FC
331
165FD
331
16613
331
16614
331
163C7
331
163C8
331
163D2
331
163D3
331
163DB
331
163DC
331
163E4
331
163E5
331
163EF
331
163F0
331
163F8
331
163F9
331
16402
331
16403
331
1640C
331
1640D
331
16415
331
16416
331
16430
331
16431
331
16439
331
1643A
331
16444
331
16445
331
1644F
331
16450
331
16458
331
16459
331
16461
331
16462
331
1646C
331
1646D
331
16475
331
16476
331
1647F
331
16480
331
16487
331
16488
331
16490
331
16491
331
16499
331
1649A
331
164A4
331
164A5
331
164AF
331
164B0
331
164BA
331
164BB
331
164C3
331
164C4
331
164CC
331
164CD
102
}
  0
BLOCK_RECORD
  5
14CD6
330
7466
100
AcDbSymbolTableRecord
100
AcDbBlockTableRecord
  2
*D1
340
0
  0
BLOCK_RECORD
  5
1517A
330
7466
100
AcDbSymbolTableRecord
100
AcDbBlockTableRecord
  2
*D2
340
0
  0
BLOCK_RECORD
  5
15192
330
7466
100
AcDbSymbolTableRecord
100
AcDbBlockTableRecord
  2
*D3
340
0
  0
BLOCK_RECORD
  5
151A0
330
7466
100
AcDbSymbolTableRecord
100
AcDbBlockTableRecord
  2
*D4
340
0
  0
BLOCK_RECORD
  5
151AE
330
7466
100
AcDbSymbolTableRecord
100
AcDbBlockTableRecord
  2
*D5
340
0
  0
BLOCK_RECORD
  5
151BC
330
7466
100
AcDbSymbolTableRecord
100
AcDbBlockTableRecord
  2
*D6
340
0
  0
BLOCK_RECORD
  5
151C8
330
7466
100
AcDbSymbolTableRecord
100
AcDbBlockTableRecord
  2
*D7
340
0
  0
BLOCK_RECORD
  5
151D4
330
7466
100
AcDbSymbolTableRecord
100
AcDbBlockTableRecord
  2
*D8
340
0
  0
BLOCK_RECORD
  5
151E0
330
7466
100
AcDbSymbolTableRecord
100
AcDbBlockTableRecord
  2
*D9
340
0
  0
BLOCK_RECORD
  5
151EC
330
7466
100
AcDbSymbolTableRecord
100
AcDbBlockTableRecord
  2
*D10
340
0
  0
BLOCK_RECORD
  5
151F8
330
7466
100
AcDbSymbolTableRecord
100
AcDbBlockTableRecord
  2
*D11
340
0
  0
BLOCK_RECORD
  5
15206
330
7466
100
AcDbSymbolTableRecord
100
AcDbBlockTableRecord
  2
*D12
340
0
  0
BLOCK_RECORD
  5
1549F
330
7466
100
AcDbSymbolTableRecord
100
AcDbBlockTableRecord
  2
*D13
340
0
  0
BLOCK_RECORD
  5
15AA5
330
7466
100
AcDbSymbolTableRecord
100
AcDbBlockTableRecord
  2
*D14
340
0
  0
BLOCK_RECORD
  5
15AB3
330
7466
100
AcDbSymbolTableRecord
100
AcDbBlockTableRecord
  2
*D15
340
0
  0
BLOCK_RECORD
  5
15AC1
330
7466
100
AcDbSymbolTableRecord
100
AcDbBlockTableRecord
  2
*D16
340
0
  0
BLOCK_RECORD
  5
15ACD
330
7466
100
AcDbSymbolTableRecord
100
AcDbBlockTableRecord
  2
*D17
340
0
  0
BLOCK_RECORD
  5
15C07
330
7466
100
AcDbSymbolTableRecord
100
AcDbBlockTableRecord
  2
*D18
340
0
  0
BLOCK_RECORD
  5
16164
330
7466
100
AcDbSymbolTableRecord
100
AcDbBlockTableRecord
  2
*D19
340
0
  0
BLOCK_RECORD
  5
16171
330
7466
100
AcDbSymbolTableRecord
100
AcDbBlockTableRecord
  2
*D20
340
0
  0
BLOCK_RECORD
  5
161B2
330
7466
100
AcDbSymbolTableRecord
100
AcDbBlockTableRecord
  2
*D21
340
0
  0
BLOCK_RECORD
  5
161BE
330
7466
100
AcDbSymbolTableRecord
100
AcDbBlockTableRecord
  2
*D22
340
0
  0
BLOCK_RECORD
  5
161CC
330
7466
100
AcDbSymbolTableRecord
100
AcDbBlockTableRecord
  2
*D23
340
0
  0
BLOCK_RECORD
  5
161D8
330
7466
100
AcDbSymbolTableRecord
100
AcDbBlockTableRecord
  2
*D24
340
0
  0
BLOCK_RECORD
  5
161E4
330
7466
100
AcDbSymbolTableRecord
100
AcDbBlockTableRecord
  2
*D25
340
0
  0
BLOCK_RECORD
  5
161FF
330
7466
100
AcDbSymbolTableRecord
100
AcDbBlockTableRecord
  2
*D26
340
0
  0
BLOCK_RECORD
  5
16556
330
7466
100
AcDbSymbolTableRecord
100
AcDbBlockTableRecord
  2
*D28
340
0
  0
BLOCK_RECORD
  5
16562
330
7466
100
AcDbSymbolTableRecord
100
AcDbBlockTableRecord
  2
*D29
340
0
  0
BLOCK_RECORD
  5
167CC
330
7466
100
AcDbSymbolTableRecord
100
AcDbBlockTableRecord
  2
A$C68115C75
340
0
  0
BLOCK_RECORD
  5
1694C
330
7466
100
AcDbSymbolTableRecord
100
AcDbBlockTableRecord
  2
*D32
340
0
  0
ENDTAB
  0
ENDSEC
  0
SECTION
  2
BLOCKS
  0
BLOCK
  5
7489
330
747D
100
AcDbEntity
  8
0
100
AcDbBlockBegin
  2
*MODEL_SPACE
 70
     0
 10
0.0
 20
0.0
 30
0.0
  3
*MODEL_SPACE
  1

  0
ENDBLK
  5
748A
330
747D
100
AcDbEntity
  8
0
100
AcDbBlockEnd
  0
BLOCK
  5
7487
330
747A
100
AcDbEntity
 67
     1
  8
0
100
AcDbBlockBegin
  2
*PAPER_SPACE
 70
     0
 10
0.0
 20
0.0
 30
0.0
  3
*PAPER_SPACE
  1

  0
ENDBLK
  5
7488
330
747A
100
AcDbEntity
 67
     1
  8
0
100
AcDbBlockEnd
  0
BLOCK
  5
F771
330
F770
100
AcDbEntity
  8
0
 48
50.0
100
AcDbBlockBegin
  2
_DOTSMALL
 70
     0
 10
0.0
 20
0.0
 30
0.0
  3
_DOTSMALL
  1

  0
LWPOLYLINE
  5
F772
330
F770
100
AcDbEntity
  8
0
  6
ByBlock
 62
     0
 48
50.0
100
AcDbPolyline
 90
        2
 70
     1
 43
0.5
 10
-0.0625
 20
0.0
 42
1.0
 10
0.0625
 20
0.0
 42
1.0
  0
ENDBLK
  5
F776
330
F770
100
AcDbEntity
  8
0
 48
50.0
100
AcDbBlockEnd
  0
BLOCK
  5
14DCB
330
14CD6
100
AcDbEntity
  8
0
 48
50.0
100
AcDbBlockBegin
  2
*D1
 70
     1
 10
0.0
 20
0.0
 30
0.0
  3
*D1
  1

  0
LINE
  5
164C9
330
14CD6
100
AcDbEntity
  8
寸法
 62
     0
 48
50.0
370
    -2
100
AcDbLine
 10
5453.016918567824
 20
8028.893446026669
 30
0.0
 11
5453.016918567824
 21
7001.791571166599
 31
0.0
  0
LINE
  5
164CA
330
14CD6
100
AcDbEntity
  8
寸法
 62
     0
 48
50.0
370
    -2
100
AcDbLine
 10
7353.016918567806
 20
8028.893446026801
 30
0.0
 11
7353.016918567806
 21
7001.791571166599
 31
0.0
  0
LINE
  5
164CB
330
14CD6
100
AcDbEntity
  8
寸法
 62
     0
 48
50.0
370
    -2
100
AcDbLine
 10
5453.016918567824
 20
7061.791571166598
 30
0.0
 11
7353.016918567806
 21
7061.791571166598
 31
0.0
  0
INSERT
  5
164CC
330
14CD6
100
AcDbEntity
  8
寸法
 62
     0
 48
50.0
370
    -2
100
AcDbBlockReference
  2
_DOTSMALL
 10
5453.016918567824
 20
7061.791571166598
 30
0.0
 41
100.0
 42
100.0
 43
100.0
 50
180.0
  0
INSERT
  5
164CD
330
14CD6
100
AcDbEntity
  8
寸法
 62
     0
 48
50.0
370
    -2
100
AcDbBlockReference
  2
_DOTSMALL
 10
7353.016918567806
 20
7061.791571166598
 30
0.0
 41
100.0
 42
100.0
 43
100.0
  0
MTEXT
  5
164CE
330
14CD6
100
AcDbEntity
  8
寸法
 62
     7
 48
50.0
100
AcDbMText
 10
6403.01691856783
 20
7161.791571166599
 30
0.0
 40
120.0
 41
0.0
 71
     5
 72
     1
  1
\A1;1900
  7
STYLE1
 73
     1
 44
1.0
1001
ACAD
1000
MTEXTBEGIN
1070
    73
1070
     1
1070
    44
1040
1.0
1070
    74
1070
     0
1000
MTEXTEND
  0
POINT
  5
164CF
330
14CD6
100
AcDbEntity
  8
DEFPOINTS
 62
     0
 48
50.0
100
AcDbPoint
 10
5453.016918567824
 20
8048.893446026671
 30
0.0
  0
POINT
  5
164D0
330
14CD6
100
AcDbEntity
  8
DEFPOINTS
 62
     0
 48
50.0
100
AcDbPoint
 10
7353.016918567806
 20
8048.8934460268
 30
0.0
  0
POINT
  5
164D1
330
14CD6
100
AcDbEntity
  8
DEFPOINTS
 62
     0
 48
50.0
100
AcDbPoint
 10
7353.016918567806
 20
7061.791571166598
 30
0.0
  0
ENDBLK
  5
14DD5
330
14CD6
100
AcDbEntity
  8
0
 48
50.0
100
AcDbBlockEnd
  0
BLOCK
  5
152B3
330
1517A
100
AcDbEntity
  8
0
 48
50.0
100
AcDbBlockBegin
  2
*D2
 70
     1
 10
0.0
 20
0.0
 30
0.0
  3
*D2
  1

  0
LINE
  5
164C0
330
1517A
100
AcDbEntity
  8
寸法
 62
     0
 48
50.0
370
    -2
100
AcDbLine
 10
6458.016918567827
 20
8028.89344602674
 30
0.0
 11
6458.016918567827
 21
7549.069778231665
 31
0.0
  0
LINE
  5
164C1
330
1517A
100
AcDbEntity
  8
寸法
 62
     0
 48
50.0
370
    -2
100
AcDbLine
 10
7143.016918567823
 20
8028.893446026705
 30
0.0
 11
7143.016918567823
 21
7549.069778231665
 31
0.0
  0
LINE
  5
164C2
330
1517A
100
AcDbEntity
  8
寸法
 62
     0
 48
50.0
370
    -2
100
AcDbLine
 10
6458.016918567827
 20
7609.069778231663
 30
0.0
 11
7143.016918567823
 21
7609.069778231663
 31
0.0
  0
INSERT
  5
164C3
330
1517A
100
AcDbEntity
  8
寸法
 62
     0
 48
50.0
370
    -2
100
AcDbBlockReference
  2
_DOTSMALL
 10
6458.016918567827
 20
7609.069778231663
 30
0.0
 41
100.0
 42
100.0
 43
100.0
 50
180.0
  0
INSERT
  5
164C4
330
1517A
100
AcDbEntity
  8
寸法
 62
     0
 48
50.0
370
    -2
100
AcDbBlockReference
  2
_DOTSMALL
 10
7143.016918567823
 20
7609.069778231663
 30
0.0
 41
100.0
 42
100.0
 43
100.0
  0
MTEXT
  5
164C5
330
1517A
100
AcDbEntity
  8
寸法
 62
     7
 48
50.0
100
AcDbMText
 10
6800.516918567826
 20
7809.069778231664
 30
0.0
 40
120.0
 41
0.0
 71
     5
 72
     1
  1
\A1;有効開口部間口\P685
  7
STYLE1
 73
     1
 44
1.0
1001
ACAD
1000
MTEXTBEGIN
1070
    73
1070
     1
1070
    44
1040
1.0
1070
    74
1070
     0
1000
MTEXTEND
  0
POINT
  5
164C6
330
1517A
100
AcDbEntity
  8
DEFPOINTS
 62
     0
 48
50.0
100
AcDbPoint
 10
6458.016918567827
 20
8048.893446026742
 30
0.0
  0
POINT
  5
164C7
330
1517A
100
AcDbEntity
  8
DEFPOINTS
 62
     0
 48
50.0
100
AcDbPoint
 10
7143.016918567823
 20
8048.893446026704
 30
0.0
  0
POINT
  5
164C8
330
1517A
100
AcDbEntity
  8
DEFPOINTS
 62
     0
 48
50.0
100
AcDbPoint
 10
7143.016918567823
 20
7609.069778231663
 30
0.0
  0
ENDBLK
  5
152BD
330
1517A
100
AcDbEntity
  8
0
 48
50.0
100
AcDbBlockEnd
  0
BLOCK
  5
152C9
330
15192
100
AcDbEntity
  8
0
 48
50.0
100
AcDbBlockBegin
  2
*D3
 70
     1
 10
0.0
 20
0.0
 30
0.0
  3
*D3
  1

  0
LINE
  5
164B5
330
15192
100
AcDbEntity
  8
寸法
 62
     0
 48
50.0
370
    -2
100
AcDbLine
 10
7373.016918567806
 20
8103.893446026829
 30
0.0
 11
8060.443264302216
 21
8103.893446026829
 31
0.0
  0
LINE
  5
164B6
330
15192
100
AcDbEntity
  8
寸法
 62
     0
 48
50.0
370
    -2
100
AcDbLine
 10
7373.016918567806
 20
8048.893446026832
 30
0.0
 11
8060.443264302216
 21
8048.893446026832
 31
0.0
  0
LINE
  5
164B7
330
15192
100
AcDbEntity
  8
寸法
 62
     0
 48
50.0
370
    -2
100
AcDbLine
 10
8000.443264302218
 20
8103.893446026829
 30
0.0
 11
8000.443264302218
 21
8203.893446026828
 31
0.0
  0
LINE
  5
164B8
330
15192
100
AcDbEntity
  8
寸法
 62
     0
 48
50.0
370
    -2
100
AcDbLine
 10
8000.443264302218
 20
8048.893446026832
 30
0.0
 11
8000.443264302218
 21
7562.546697747733
 31
0.0
  0
LINE
  5
164B9
330
15192
100
AcDbEntity
  8
寸法
 62
     0
 48
50.0
370
    -2
100
AcDbLine
 10
8000.443264302218
 20
8103.893446026829
 30
0.0
 11
8000.443264302218
 21
8048.893446026832
 31
0.0
  0
INSERT
  5
164BA
330
15192
100
AcDbEntity
  8
寸法
 62
     0
 48
50.0
370
    -2
100
AcDbBlockReference
  2
_DOTSMALL
 10
8000.443264302218
 20
8103.893446026829
 30
0.0
 41
100.0
 42
100.0
 43
100.0
 50
270.0
  0
INSERT
  5
164BB
330
15192
100
AcDbEntity
  8
寸法
 62
     0
 48
50.0
370
    -2
100
AcDbBlockReference
  2
_DOTSMALL
 10
8000.443264302218
 20
8048.893446026832
 30
0.0
 41
100.0
 42
100.0
 43
100.0
 50
90.0
  0
MTEXT
  5
164BC
330
15192
100
AcDbEntity
  8
寸法
 62
     7
 48
50.0
100
AcDbMText
 10
7900.443264302215
 20
7671.031979121973
 30
0.0
 40
120.0
 41
0.0
 71
     5
 72
     1
  1
\A1;55
  7
STYLE1
 11
0.0000000000000001
 21
1.0
 31
0.0
 73
     1
 44
1.0
1001
ACAD
1000
MTEXTBEGIN
1070
    73
1070
     1
1070
    44
1040
1.0
1070
    74
1070
     0
1000
MTEXTEND
  0
POINT
  5
164BD
330
15192
100
AcDbEntity
  8
DEFPOINTS
 62
     0
 48
50.0
100
AcDbPoint
 10
7353.016918567806
 20
8103.893446026829
 30
0.0
  0
POINT
  5
164BE
330
15192
100
AcDbEntity
  8
DEFPOINTS
 62
     0
 48
50.0
100
AcDbPoint
 10
7353.016918567806
 20
8048.893446026832
 30
0.0
  0
POINT
  5
164BF
330
15192
100
AcDbEntity
  8
DEFPOINTS
 62
     0
 48
50.0
100
AcDbPoint
 10
8000.443264302218
 20
8048.893446026832
 30
0.0
  0
ENDBLK
  5
152D5
330
15192
100
AcDbEntity
  8
0
 48
50.0
100
AcDbBlockEnd
  0
BLOCK
  5
152D6
330
151A0
100
AcDbEntity
  8
0
 48
50.0
100
AcDbBlockBegin
  2
*D4
 70
     1
 10
0.0
 20
0.0
 30
0.0
  3
*D4
  1

  0
LINE
  5
164AA
330
151A0
100
AcDbEntity
  8
寸法
 62
     0
 48
50.0
370
    -2
100
AcDbLine
 10
7298.016918567832
 20
9438.893446026844
 30
0.0
 11
7298.016918567832
 21
9694.701665651825
 31
0.0
  0
LINE
  5
164AB
330
151A0
100
AcDbEntity
  8
寸法
 62
     0
 48
50.0
370
    -2
100
AcDbLine
 10
7353.016918567831
 20
9438.893446026844
 30
0.0
 11
7353.016918567831
 21
9694.701665651825
 31
0.0
  0
LINE
  5
164AC
330
151A0
100
AcDbEntity
  8
寸法
 62
     0
 48
50.0
370
    -2
100
AcDbLine
 10
7298.016918567832
 20
9634.701665651824
 30
0.0
 11
7198.016918567832
 21
9634.701665651824
 31
0.0
  0
LINE
  5
164AD
330
151A0
100
AcDbEntity
  8
寸法
 62
     0
 48
50.0
370
    -2
100
AcDbLine
 10
7353.016918567831
 20
9634.701665651824
 30
0.0
 11
7769.98748131631
 21
9634.701665651824
 31
0.0
  0
LINE
  5
164AE
330
151A0
100
AcDbEntity
  8
寸法
 62
     0
 48
50.0
370
    -2
100
AcDbLine
 10
7298.016918567832
 20
9634.701665651824
 30
0.0
 11
7353.016918567831
 21
9634.701665651824
 31
0.0
  0
INSERT
  5
164AF
330
151A0
100
AcDbEntity
  8
寸法
 62
     0
 48
50.0
370
    -2
100
AcDbBlockReference
  2
_DOTSMALL
 10
7298.016918567832
 20
9634.701665651824
 30
0.0
 41
100.0
 42
100.0
 43
100.0
  0
INSERT
  5
164B0
330
151A0
100
AcDbEntity
  8
寸法
 62
     0
 48
50.0
370
    -2
100
AcDbBlockReference
  2
_DOTSMALL
 10
7353.016918567831
 20
9634.701665651824
 30
0.0
 41
100.0
 42
100.0
 43
100.0
 50
180.0
  0
MTEXT
  5
164B1
330
151A0
100
AcDbEntity
  8
寸法
 62
     7
 48
50.0
100
AcDbMText
 10
7661.502199942072
 20
9734.701665651826
 30
0.0
 40
120.0
 41
0.0
 71
     5
 72
     1
  1
\A1;55
  7
STYLE1
 73
     1
 44
1.0
1001
ACAD
1000
MTEXTBEGIN
1070
    73
1070
     1
1070
    44
1040
1.0
1070
    74
1070
     0
1000
MTEXTEND
  0
POINT
  5
164B2
330
151A0
100
AcDbEntity
  8
DEFPOINTS
 62
     0
 48
50.0
100
AcDbPoint
 10
7298.016918567832
 20
9418.893446026842
 30
0.0
  0
POINT
  5
164B3
330
151A0
100
AcDbEntity
  8
DEFPOINTS
 62
     0
 48
50.0
100
AcDbPoint
 10
7353.016918567831
 20
9418.893446026842
 30
0.0
  0
POINT
  5
164B4
330
151A0
100
AcDbEntity
  8
DEFPOINTS
 62
     0
 48
50.0
100
AcDbPoint
 10
7353.016918567831
 20
9634.701665651824
 30
0.0
  0
ENDBLK
  5
152E2
330
151A0
100
AcDbEntity
  8
0
 48
50.0
100
AcDbBlockEnd
  0
BLOCK
  5
152E3
330
151AE
100
AcDbEntity
  8
0
 48
50.0
100
AcDbBlockBegin
  2
*D5
 70
     1
 10
0.0
 20
0.0
 30
0.0
  3
*D5
  1

  0
LINE
  5
1649F
330
151AE
100
AcDbEntity
  8
寸法
 62
     0
 48
50.0
370
    -2
100
AcDbLine
 10
7373.016918567832
 20
9418.893446026842
 30
0.0
 11
8060.443264302241
 21
9418.893446026842
 31
0.0
  0
LINE
  5
164A0
330
151AE
100
AcDbEntity
  8
寸法
 62
     0
 48
50.0
370
    -2
100
AcDbLine
 10
7373.016918567832
 20
9363.893446026848
 30
0.0
 11
8060.443264302241
 21
9363.893446026848
 31
0.0
  0
LINE
  5
164A1
330
151AE
100
AcDbEntity
  8
寸法
 62
     0
 48
50.0
370
    -2
100
AcDbLine
 10
8000.443264302242
 20
9363.893446026848
 30
0.0
 11
8000.443264302242
 21
9263.893446026846
 31
0.0
  0
LINE
  5
164A2
330
151AE
100
AcDbEntity
  8
寸法
 62
     0
 48
50.0
370
    -2
100
AcDbLine
 10
8000.443264302242
 20
9418.893446026842
 30
0.0
 11
8000.443264302242
 21
9835.86400877532
 31
0.0
  0
LINE
  5
164A3
330
151AE
100
AcDbEntity
  8
寸法
 62
     0
 48
50.0
370
    -2
100
AcDbLine
 10
8000.443264302242
 20
9363.893446026848
 30
0.0
 11
8000.443264302242
 21
9418.893446026842
 31
0.0
  0
INSERT
  5
164A4
330
151AE
100
AcDbEntity
  8
寸法
 62
     0
 48
50.0
370
    -2
100
AcDbBlockReference
  2
_DOTSMALL
 10
8000.443264302242
 20
9363.893446026848
 30
0.0
 41
100.0
 42
100.0
 43
100.0
 50
90.0
  0
INSERT
  5
164A5
330
151AE
100
AcDbEntity
  8
寸法
 62
     0
 48
50.0
370
    -2
100
AcDbBlockReference
  2
_DOTSMALL
 10
8000.443264302242
 20
9418.893446026842
 30
0.0
 41
100.0
 42
100.0
 43
100.0
 50
270.0
  0
MTEXT
  5
164A6
330
151AE
100
AcDbEntity
  8
寸法
 62
     7
 48
50.0
100
AcDbMText
 10
7900.443264302241
 20
9727.378727401083
 30
0.0
 40
120.0
 41
0.0
 71
     5
 72
     1
  1
\A1;55
  7
STYLE1
 11
0.0000000000000001
 21
1.0
 31
0.0
 73
     1
 44
1.0
1001
ACAD
1000
MTEXTBEGIN
1070
    73
1070
     1
1070
    44
1040
1.0
1070
    74
1070
     0
1000
MTEXTEND
  0
POINT
  5
164A7
330
151AE
100
AcDbEntity
  8
DEFPOINTS
 62
     0
 48
50.0
100
AcDbPoint
 10
7353.016918567831
 20
9418.893446026842
 30
0.0
  0
POINT
  5
164A8
330
151AE
100
AcDbEntity
  8
DEFPOINTS
 62
     0
 48
50.0
100
AcDbPoint
 10
7353.016918567831
 20
9363.893446026848
 30
0.0
  0
POINT
  5
164A9
330
151AE
100
AcDbEntity
  8
DEFPOINTS
 62
     0
 48
50.0
100
AcDbPoint
 10
8000.443264302242
 20
9363.893446026848
 30
0.0
  0
ENDBLK
  5
152EF
330
151AE
100
AcDbEntity
  8
0
 48
50.0
100
AcDbBlockEnd
  0
BLOCK
  5
152F0
330
151BC
100
AcDbEntity
  8
0
 48
50.0
100
AcDbBlockBegin
  2
*D6
 70
     1
 10
0.0
 20
0.0
 30
0.0
  3
*D6
  1

  0
LINE
  5
16496
330
151BC
100
AcDbEntity
  8
寸法
 62
     0
 48
50.0
370
    -2
100
AcDbLine
 10
7373.016918567832
 20
9363.893446026848
 30
0.0
 11
8060.443264302241
 21
9363.893446026848
 31
0.0
  0
LINE
  5
16497
330
151BC
100
AcDbEntity
  8
寸法
 62
     0
 48
50.0
370
    -2
100
AcDbLine
 10
7373.016918567806
 20
8103.893446026829
 30
0.0
 11
8060.443264302241
 21
8103.893446026829
 31
0.0
  0
LINE
  5
16498
330
151BC
100
AcDbEntity
  8
寸法
 62
     0
 48
50.0
370
    -2
100
AcDbLine
 10
8000.443264302242
 20
9363.893446026848
 30
0.0
 11
8000.443264302242
 21
8103.893446026829
 31
0.0
  0
INSERT
  5
16499
330
151BC
100
AcDbEntity
  8
寸法
 62
     0
 48
50.0
370
    -2
100
AcDbBlockReference
  2
_DOTSMALL
 10
8000.443264302242
 20
9363.893446026848
 30
0.0
 41
100.0
 42
100.0
 43
100.0
 50
90.0
  0
INSERT
  5
1649A
330
151BC
100
AcDbEntity
  8
寸法
 62
     0
 48
50.0
370
    -2
100
AcDbBlockReference
  2
_DOTSMALL
 10
8000.443264302242
 20
8103.893446026829
 30
0.0
 41
100.0
 42
100.0
 43
100.0
 50
270.0
  0
MTEXT
  5
1649B
330
151BC
100
AcDbEntity
  8
寸法
 62
     7
 48
50.0
100
AcDbMText
 10
7900.43145327862
 20
8733.893446026838
 30
0.0
 40
120.0
 41
0.0
 71
     5
 72
     1
  1
\A1;3X420=1260
  7
STYLE1
 11
0.0000000000000001
 21
1.0
 31
0.0
 73
     1
 44
1.0
1001
ACAD
1000
MTEXTBEGIN
1070
    73
1070
     1
1070
    44
1040
1.0
1070
    74
1070
     0
1000
MTEXTEND
  0
POINT
  5
1649C
330
151BC
100
AcDbEntity
  8
DEFPOINTS
 62
     0
 48
50.0
100
AcDbPoint
 10
7353.016918567831
 20
9363.893446026848
 30
0.0
  0
POINT
  5
1649D
330
151BC
100
AcDbEntity
  8
DEFPOINTS
 62
     0
 48
50.0
100
AcDbPoint
 10
7353.016918567806
 20
8103.893446026829
 30
0.0
  0
POINT
  5
1649E
330
151BC
100
AcDbEntity
  8
DEFPOINTS
 62
     0
 48
50.0
100
AcDbPoint
 10
8000.443264302242
 20
8103.893446026829
 30
0.0
  0
ENDBLK
  5
152FA
330
151BC
100
AcDbEntity
  8
0
 48
50.0
100
AcDbBlockEnd
  0
BLOCK
  5
152FB
330
151C8
100
AcDbEntity
  8
0
 48
50.0
100
AcDbBlockBegin
  2
*D7
 70
     1
 10
0.0
 20
0.0
 30
0.0
  3
*D7
  1

  0
LINE
  5
1648D
330
151C8
100
AcDbEntity
  8
寸法
 62
     0
 48
50.0
370
    -2
100
AcDbLine
 10
7373.016918567832
 20
9418.893446026842
 30
0.0
 11
8369.554795117918
 21
9418.893446026842
 31
0.0
  0
LINE
  5
1648E
330
151C8
100
AcDbEntity
  8
寸法
 62
     0
 48
50.0
370
    -2
100
AcDbLine
 10
7373.016918567806
 20
8048.893446026832
 30
0.0
 11
8369.554795117918
 21
8048.893446026832
 31
0.0
  0
LINE
  5
1648F
330
151C8
100
AcDbEntity
  8
寸法
 62
     0
 48
50.0
370
    -2
100
AcDbLine
 10
8309.55479511792
 20
9418.893446026842
 30
0.0
 11
8309.55479511792
 21
8048.893446026832
 31
0.0
  0
INSERT
  5
16490
330
151C8
100
AcDbEntity
  8
寸法
 62
     0
 48
50.0
370
    -2
100
AcDbBlockReference
  2
_DOTSMALL
 10
8309.55479511792
 20
9418.893446026842
 30
0.0
 41
100.0
 42
100.0
 43
100.0
 50
90.0
  0
INSERT
  5
16491
330
151C8
100
AcDbEntity
  8
寸法
 62
     0
 48
50.0
370
    -2
100
AcDbBlockReference
  2
_DOTSMALL
 10
8309.55479511792
 20
8048.893446026832
 30
0.0
 41
100.0
 42
100.0
 43
100.0
 50
270.0
  0
MTEXT
  5
16492
330
151C8
100
AcDbEntity
  8
寸法
 62
     7
 48
50.0
100
AcDbMText
 10
8209.554795117918
 20
8733.893446026838
 30
0.0
 40
120.0
 41
0.0
 71
     5
 72
     1
  1
\A1;1370
  7
STYLE1
 11
0.0000000000000001
 21
1.0
 31
0.0
 73
     1
 44
1.0
1001
ACAD
1000
MTEXTBEGIN
1070
    73
1070
     1
1070
    44
1040
1.0
1070
    74
1070
     0
1000
MTEXTEND
  0
POINT
  5
16493
330
151C8
100
AcDbEntity
  8
DEFPOINTS
 62
     0
 48
50.0
100
AcDbPoint
 10
7353.016918567831
 20
9418.893446026842
 30
0.0
  0
POINT
  5
16494
330
151C8
100
AcDbEntity
  8
DEFPOINTS
 62
     0
 48
50.0
100
AcDbPoint
 10
7353.016918567806
 20
8048.893446026832
 30
0.0
  0
POINT
  5
16495
330
151C8
100
AcDbEntity
  8
DEFPOINTS
 62
     0
 48
50.0
100
AcDbPoint
 10
8309.55479511792
 20
8048.893446026832
 30
0.0
  0
ENDBLK
  5
15305
330
151C8
100
AcDbEntity
  8
0
 48
50.0
100
AcDbBlockEnd
  0
BLOCK
  5
15306
330
151D4
100
AcDbEntity
  8
0
 48
50.0
100
AcDbBlockBegin
  2
*D8
 70
     1
 10
0.0
 20
0.0
 30
0.0
  3
*D8
  1

  0
LINE
  5
16484
330
151D4
100
AcDbEntity
  8
寸法
 62
     0
 48
50.0
370
    -2
100
AcDbLine
 10
7344.01692524544
 20
9384.034462178092
 30
0.0
 11
7739.374651107465
 21
9278.098678811959
 31
0.0
  0
LINE
  5
16485
330
151D4
100
AcDbEntity
  8
寸法
 62
     0
 48
50.0
370
    -2
100
AcDbLine
 10
7344.016925245451
 20
8934.034462178097
 30
0.0
 11
7739.374651107465
 21
8828.098678811965
 31
0.0
  0
LINE
  5
16486
330
151D4
100
AcDbEntity
  8
寸法
 62
     0
 48
50.0
370
    -2
100
AcDbLine
 10
7679.374651107465
 20
9294.175630357825
 30
0.0
 11
7679.374651107465
 21
8844.175630357831
 31
0.0
  0
INSERT
  5
16487
330
151D4
100
AcDbEntity
  8
寸法
 62
     0
 48
50.0
370
    -2
100
AcDbBlockReference
  2
_DOTSMALL
 10
7679.374651107465
 20
9294.175630357825
 30
0.0
 41
100.0
 42
100.0
 43
100.0
 50
90.0
  0
INSERT
  5
16488
330
151D4
100
AcDbEntity
  8
寸法
 62
     0
 48
50.0
370
    -2
100
AcDbBlockReference
  2
_DOTSMALL
 10
7679.374651107465
 20
8844.175630357831
 30
0.0
 41
100.0
 42
100.0
 43
100.0
 50
270.0
  0
MTEXT
  5
16489
330
151D4
100
AcDbEntity
  8
寸法
 62
     7
 48
50.0
100
AcDbMText
 10
7579.374651107464
 20
9069.175630357831
 30
0.0
 40
120.0
 41
0.0
 71
     5
 72
     1
  1
\A1;450
  7
STYLE1
 11
0.0000000000000001
 21
1.0
 31
0.0
 73
     1
 44
1.0
1001
ACAD
1000
MTEXTBEGIN
1070
    73
1070
     1
1070
    44
1040
1.0
1070
    74
1070
     0
1000
MTEXTEND
  0
POINT
  5
1648A
330
151D4
100
AcDbEntity
  8
DEFPOINTS
 62
     0
 48
50.0
100
AcDbPoint
 10
7324.016925245439
 20
9389.393446026716
 30
0.0
  0
POINT
  5
1648B
330
151D4
100
AcDbEntity
  8
DEFPOINTS
 62
     0
 48
50.0
100
AcDbPoint
 10
7324.016925245451
 20
8939.393446026718
 30
0.0
  0
POINT
  5
1648C
330
151D4
100
AcDbEntity
  8
DEFPOINTS
 62
     0
 48
50.0
100
AcDbPoint
 10
7679.374651107465
 20
8844.175630357831
 30
0.0
  0
ENDBLK
  5
15310
330
151D4
100
AcDbEntity
  8
0
 48
50.0
100
AcDbBlockEnd
  0
BLOCK
  5
15311
330
151E0
100
AcDbEntity
  8
0
 48
50.0
100
AcDbBlockBegin
  2
*D9
 70
     1
 10
0.0
 20
0.0
 30
0.0
  3
*D9
  1

  0
LINE
  5
1647B
330
151E0
100
AcDbEntity
  8
寸法
 62
     0
 48
50.0
370
    -2
100
AcDbLine
 10
6348.016918567831
 20
9438.893446026868
 30
0.0
 11
6348.016918567831
 21
9694.701665651848
 31
0.0
  0
LINE
  5
1647C
330
151E0
100
AcDbEntity
  8
寸法
 62
     0
 48
50.0
370
    -2
100
AcDbLine
 10
6458.016918567835
 20
9438.893446026847
 30
0.0
 11
6458.016918567835
 21
9694.701665651848
 31
0.0
  0
LINE
  5
1647D
330
151E0
100
AcDbEntity
  8
寸法
 62
     0
 48
50.0
370
    -2
100
AcDbLine
 10
6348.016918567831
 20
9634.701665651846
 30
0.0
 11
6458.016918567835
 21
9634.701665651846
 31
0.0
  0
MTEXT
  5
1647E
330
151E0
100
AcDbEntity
  8
寸法
 62
     7
 48
50.0
100
AcDbMText
 10
6403.016918567832
 20
9894.995374399059
 30
0.0
 40
120.0
 41
0.0
 71
     5
 72
     1
  1
\A1;110
  7
STYLE1
 73
     1
 44
1.0
1001
ACAD
1000
MTEXTBEGIN
1070
    73
1070
     1
1070
    44
1040
1.0
1070
    74
1070
     0
1000
MTEXTEND
  0
INSERT
  5
1647F
330
151E0
100
AcDbEntity
  8
寸法
 62
     0
 48
50.0
370
    -2
100
AcDbBlockReference
  2
_DOTSMALL
 10
6348.016918567831
 20
9634.701665651846
 30
0.0
 41
100.0
 42
100.0
 43
100.0
 50
180.0
  0
INSERT
  5
16480
330
151E0
100
AcDbEntity
  8
寸法
 62
     0
 48
50.0
370
    -2
100
AcDbBlockReference
  2
_DOTSMALL
 10
6458.016918567835
 20
9634.701665651846
 30
0.0
 41
100.0
 42
100.0
 43
100.0
  0
POINT
  5
16481
330
151E0
100
AcDbEntity
  8
DEFPOINTS
 62
     0
 48
50.0
100
AcDbPoint
 10
6348.016918567831
 20
9418.893446026869
 30
0.0
  0
POINT
  5
16482
330
151E0
100
AcDbEntity
  8
DEFPOINTS
 62
     0
 48
50.0
100
AcDbPoint
 10
6458.016918567835
 20
9418.893446026848
 30
0.0
  0
POINT
  5
16483
330
151E0
100
AcDbEntity
  8
DEFPOINTS
 62
     0
 48
50.0
100
AcDbPoint
 10
6458.016918567835
 20
9634.701665651846
 30
0.0
  0
ENDBLK
  5
1531B
330
151E0
100
AcDbEntity
  8
0
 48
50.0
100
AcDbBlockEnd
  0
BLOCK
  5
1531C
330
151EC
100
AcDbEntity
  8
0
 48
50.0
100
AcDbBlockBegin
  2
*D10
 70
     1
 10
0.0
 20
0.0
 30
0.0
  3
*D10
  1

  0
LINE
  5
16472
330
151EC
100
AcDbEntity
  8
寸法
 62
     0
 48
50.0
370
    -2
100
AcDbLine
 10
6458.016918567832
 20
9438.89344602678
 30
0.0
 11
6458.016918567832
 21
9694.701665651848
 31
0.0
  0
LINE
  5
16473
330
151EC
100
AcDbEntity
  8
寸法
 62
     0
 48
50.0
370
    -2
100
AcDbLine
 10
7298.016918567832
 20
9438.893446026868
 30
0.0
 11
7298.016918567832
 21
9694.701665651848
 31
0.0
  0
LINE
  5
16474
330
151EC
100
AcDbEntity
  8
寸法
 62
     0
 48
50.0
370
    -2
100
AcDbLine
 10
6458.016918567832
 20
9634.701665651846
 30
0.0
 11
7298.016918567832
 21
9634.701665651846
 31
0.0
  0
INSERT
  5
16475
330
151EC
100
AcDbEntity
  8
寸法
 62
     0
 48
50.0
370
    -2
100
AcDbBlockReference
  2
_DOTSMALL
 10
6458.016918567832
 20
9634.701665651846
 30
0.0
 41
100.0
 42
100.0
 43
100.0
 50
180.0
  0
INSERT
  5
16476
330
151EC
100
AcDbEntity
  8
寸法
 62
     0
 48
50.0
370
    -2
100
AcDbBlockReference
  2
_DOTSMALL
 10
7298.016918567832
 20
9634.701665651846
 30
0.0
 41
100.0
 42
100.0
 43
100.0
  0
MTEXT
  5
16477
330
151EC
100
AcDbEntity
  8
寸法
 62
     7
 48
50.0
100
AcDbMText
 10
6878.016918567832
 20
9734.713476675468
 30
0.0
 40
120.0
 41
0.0
 71
     5
 72
     1
  1
\A1;2X420=840
  7
STYLE1
 73
     1
 44
1.0
1001
ACAD
1000
MTEXTBEGIN
1070
    73
1070
     1
1070
    44
1040
1.0
1070
    74
1070
     0
1000
MTEXTEND
  0
POINT
  5
16478
330
151EC
100
AcDbEntity
  8
DEFPOINTS
 62
     0
 48
50.0
100
AcDbPoint
 10
6458.016918567832
 20
9418.893446026782
 30
0.0
  0
POINT
  5
16479
330
151EC
100
AcDbEntity
  8
DEFPOINTS
 62
     0
 48
50.0
100
AcDbPoint
 10
7298.016918567832
 20
9418.893446026869
 30
0.0
  0
POINT
  5
1647A
330
151EC
100
AcDbEntity
  8
DEFPOINTS
 62
     0
 48
50.0
100
AcDbPoint
 10
7298.016918567832
 20
9634.701665651846
 30
0.0
  0
ENDBLK
  5
15326
330
151EC
100
AcDbEntity
  8
0
 48
50.0
100
AcDbBlockEnd
  0
BLOCK
  5
15327
330
151F8
100
AcDbEntity
  8
0
 48
50.0
100
AcDbBlockBegin
  2
*D11
 70
     1
 10
0.0
 20
0.0
 30
0.0
  3
*D11
  1

  0
LINE
  5
16467
330
151F8
100
AcDbEntity
  8
寸法
 62
     0
 48
50.0
370
    -2
100
AcDbLine
 10
5453.016918567797
 20
9438.893446026748
 30
0.0
 11
5453.016918567797
 21
9694.701665651731
 31
0.0
  0
LINE
  5
16468
330
151F8
100
AcDbEntity
  8
寸法
 62
     0
 48
50.0
370
    -2
100
AcDbLine
 10
5508.016918567832
 20
9438.893446026748
 30
0.0
 11
5508.016918567832
 21
9694.701665651731
 31
0.0
  0
LINE
  5
16469
330
151F8
100
AcDbEntity
  8
寸法
 62
     0
 48
50.0
370
    -2
100
AcDbLine
 10
5508.016918567832
 20
9634.70166565173
 30
0.0
 11
5608.016918567831
 21
9634.70166565173
 31
0.0
  0
LINE
  5
1646A
330
151F8
100
AcDbEntity
  8
寸法
 62
     0
 48
50.0
370
    -2
100
AcDbLine
 10
5453.016918567797
 20
9634.70166565173
 30
0.0
 11
5036.046355819319
 21
9634.70166565173
 31
0.0
  0
LINE
  5
1646B
330
151F8
100
AcDbEntity
  8
寸法
 62
     0
 48
50.0
370
    -2
100
AcDbLine
 10
5508.016918567832
 20
9634.70166565173
 30
0.0
 11
5453.016918567797
 21
9634.70166565173
 31
0.0
  0
INSERT
  5
1646C
330
151F8
100
AcDbEntity
  8
寸法
 62
     0
 48
50.0
370
    -2
100
AcDbBlockReference
  2
_DOTSMALL
 10
5508.016918567832
 20
9634.70166565173
 30
0.0
 41
100.0
 42
100.0
 43
100.0
 50
180.0
  0
INSERT
  5
1646D
330
151F8
100
AcDbEntity
  8
寸法
 62
     0
 48
50.0
370
    -2
100
AcDbBlockReference
  2
_DOTSMALL
 10
5453.016918567797
 20
9634.70166565173
 30
0.0
 41
100.0
 42
100.0
 43
100.0
  0
MTEXT
  5
1646E
330
151F8
100
AcDbEntity
  8
寸法
 62
     7
 48
50.0
100
AcDbMText
 10
5144.531637193558
 20
9734.70166565173
 30
0.0
 40
120.0
 41
0.0
 71
     5
 72
     1
  1
\A1;55
  7
STYLE1
 73
     1
 44
1.0
1001
ACAD
1000
MTEXTBEGIN
1070
    73
1070
     1
1070
    44
1040
1.0
1070
    74
1070
     0
1000
MTEXTEND
  0
POINT
  5
1646F
330
151F8
100
AcDbEntity
  8
DEFPOINTS
 62
     0
 48
50.0
100
AcDbPoint
 10
5453.016918567797
 20
9418.893446026748
 30
0.0
  0
POINT
  5
16470
330
151F8
100
AcDbEntity
  8
DEFPOINTS
 62
     0
 48
50.0
100
AcDbPoint
 10
5508.016918567832
 20
9418.893446026748
 30
0.0
  0
POINT
  5
16471
330
151F8
100
AcDbEntity
  8
DEFPOINTS
 62
     0
 48
50.0
100
AcDbPoint
 10
5508.016918567832
 20
9634.70166565173
 30
0.0
  0
ENDBLK
  5
15333
330
151F8
100
AcDbEntity
  8
0
 48
50.0
100
AcDbBlockEnd
  0
BLOCK
  5
15334
330
15206
100
AcDbEntity
  8
0
 48
50.0
100
AcDbBlockBegin
  2
*D12
 70
     1
 10
0.0
 20
0.0
 30
0.0
  3
*D12
  1

  0
LINE
  5
1645E
330
15206
100
AcDbEntity
  8
寸法
 62
     0
 48
50.0
370
    -2
100
AcDbLine
 10
5508.016918567832
 20
9438.89344602678
 30
0.0
 11
5508.016918567832
 21
9694.701665651848
 31
0.0
  0
LINE
  5
1645F
330
15206
100
AcDbEntity
  8
寸法
 62
     0
 48
50.0
370
    -2
100
AcDbLine
 10
6348.016918567831
 20
9438.893446026868
 30
0.0
 11
6348.016918567831
 21
9694.701665651848
 31
0.0
  0
LINE
  5
16460
330
15206
100
AcDbEntity
  8
寸法
 62
     0
 48
50.0
370
    -2
100
AcDbLine
 10
5508.016918567832
 20
9634.701665651846
 30
0.0
 11
6348.016918567831
 21
9634.701665651846
 31
0.0
  0
INSERT
  5
16461
330
15206
100
AcDbEntity
  8
寸法
 62
     0
 48
50.0
370
    -2
100
AcDbBlockReference
  2
_DOTSMALL
 10
5508.016918567832
 20
9634.701665651846
 30
0.0
 41
100.0
 42
100.0
 43
100.0
 50
180.0
  0
INSERT
  5
16462
330
15206
100
AcDbEntity
  8
寸法
 62
     0
 48
50.0
370
    -2
100
AcDbBlockReference
  2
_DOTSMALL
 10
6348.016918567831
 20
9634.701665651846
 30
0.0
 41
100.0
 42
100.0
 43
100.0
  0
MTEXT
  5
16463
330
15206
100
AcDbEntity
  8
寸法
 62
     7
 48
50.0
100
AcDbMText
 10
5928.016918567831
 20
9734.713476675468
 30
0.0
 40
120.0
 41
0.0
 71
     5
 72
     1
  1
\A1;2X420=840
  7
STYLE1
 73
     1
 44
1.0
1001
ACAD
1000
MTEXTBEGIN
1070
    73
1070
     1
1070
    44
1040
1.0
1070
    74
1070
     0
1000
MTEXTEND
  0
POINT
  5
16464
330
15206
100
AcDbEntity
  8
DEFPOINTS
 62
     0
 48
50.0
100
AcDbPoint
 10
5508.016918567832
 20
9418.893446026782
 30
0.0
  0
POINT
  5
16465
330
15206
100
AcDbEntity
  8
DEFPOINTS
 62
     0
 48
50.0
100
AcDbPoint
 10
6348.016918567831
 20
9418.893446026869
 30
0.0
  0
POINT
  5
16466
330
15206
100
AcDbEntity
  8
DEFPOINTS
 62
     0
 48
50.0
100
AcDbPoint
 10
6348.016918567831
 20
9634.701665651846
 30
0.0
  0
ENDBLK
  5
1533E
330
15206
100
AcDbEntity
  8
0
 48
50.0
100
AcDbBlockEnd
  0
BLOCK
  5
154AB
330
1549F
100
AcDbEntity
  8
0
 48
50.0
100
AcDbBlockBegin
  2
*D13
 70
     1
 10
0.0
 20
0.0
 30
0.0
  3
*D13
  1

  0
LINE
  5
16455
330
1549F
100
AcDbEntity
  8
寸法
 62
     0
 48
50.0
370
    -2
100
AcDbLine
 10
5508.016918567828
 20
8028.89344602674
 30
0.0
 11
5508.016918567828
 21
7549.069778231665
 31
0.0
  0
LINE
  5
16456
330
1549F
100
AcDbEntity
  8
寸法
 62
     0
 48
50.0
370
    -2
100
AcDbLine
 10
6193.016918567824
 20
8028.893446026705
 30
0.0
 11
6193.016918567824
 21
7549.069778231665
 31
0.0
  0
LINE
  5
16457
330
1549F
100
AcDbEntity
  8
寸法
 62
     0
 48
50.0
370
    -2
100
AcDbLine
 10
5508.016918567828
 20
7609.069778231663
 30
0.0
 11
6193.016918567824
 21
7609.069778231663
 31
0.0
  0
INSERT
  5
16458
330
1549F
100
AcDbEntity
  8
寸法
 62
     0
 48
50.0
370
    -2
100
AcDbBlockReference
  2
_DOTSMALL
 10
5508.016918567828
 20
7609.069778231663
 30
0.0
 41
100.0
 42
100.0
 43
100.0
 50
180.0
  0
INSERT
  5
16459
330
1549F
100
AcDbEntity
  8
寸法
 62
     0
 48
50.0
370
    -2
100
AcDbBlockReference
  2
_DOTSMALL
 10
6193.016918567824
 20
7609.069778231663
 30
0.0
 41
100.0
 42
100.0
 43
100.0
  0
MTEXT
  5
1645A
330
1549F
100
AcDbEntity
  8
寸法
 62
     7
 48
50.0
100
AcDbMText
 10
5850.516918567826
 20
7709.069778231664
 30
0.0
 40
120.0
 41
0.0
 71
     5
 72
     1
  1
\A1;685
  7
STYLE1
 73
     1
 44
1.0
1001
ACAD
1000
MTEXTBEGIN
1070
    73
1070
     1
1070
    44
1040
1.0
1070
    74
1070
     0
1000
MTEXTEND
  0
POINT
  5
1645B
330
1549F
100
AcDbEntity
  8
DEFPOINTS
 62
     0
 48
50.0
100
AcDbPoint
 10
5508.016918567828
 20
8048.893446026742
 30
0.0
  0
POINT
  5
1645C
330
1549F
100
AcDbEntity
  8
DEFPOINTS
 62
     0
 48
50.0
100
AcDbPoint
 10
6193.016918567824
 20
8048.893446026704
 30
0.0
  0
POINT
  5
1645D
330
1549F
100
AcDbEntity
  8
DEFPOINTS
 62
     0
 48
50.0
100
AcDbPoint
 10
6193.016918567824
 20
7609.069778231663
 30
0.0
  0
ENDBLK
  5
154B5
330
1549F
100
AcDbEntity
  8
0
 48
50.0
100
AcDbBlockEnd
  0
BLOCK
  5
15AB1
330
15AA5
100
AcDbEntity
  8
0
 48
50.0
100
AcDbBlockBegin
  2
*D14
 70
     1
 10
0.0
 20
0.0
 30
0.0
  3
*D14
  1

  0
LINE
  5
1644A
330
15AA5
100
AcDbEntity
  8
寸法
 62
     0
 48
50.0
370
    -2
100
AcDbLine
 10
7403.016918567828
 20
5357.104807812178
 30
0.0
 11
7403.016918567828
 21
5609.64639307042
 31
0.0
  0
LINE
  5
1644B
330
15AA5
100
AcDbEntity
  8
寸法
 62
     0
 48
50.0
370
    -2
100
AcDbLine
 10
7353.016918567828
 20
5357.104807812181
 30
0.0
 11
7353.016918567828
 21
5609.64639307042
 31
0.0
  0
LINE
  5
1644C
330
15AA5
100
AcDbEntity
  8
寸法
 62
     0
 48
50.0
370
    -2
100
AcDbLine
 10
7353.016918567828
 20
5549.646393070419
 30
0.0
 11
7253.016918567827
 21
5549.646393070419
 31
0.0
  0
LINE
  5
1644D
330
15AA5
100
AcDbEntity
  8
寸法
 62
     0
 48
50.0
370
    -2
100
AcDbLine
 10
7403.016918567828
 20
5549.646393070419
 30
0.0
 11
7822.549444036552
 21
5549.646393070419
 31
0.0
  0
LINE
  5
1644E
330
15AA5
100
AcDbEntity
  8
寸法
 62
     0
 48
50.0
370
    -2
100
AcDbLine
 10
7353.016918567828
 20
5549.646393070419
 30
0.0
 11
7403.016918567828
 21
5549.646393070419
 31
0.0
  0
INSERT
  5
1644F
330
15AA5
100
AcDbEntity
  8
寸法
 62
     0
 48
50.0
370
    -2
100
AcDbBlockReference
  2
_DOTSMALL
 10
7353.016918567828
 20
5549.646393070419
 30
0.0
 41
100.0
 42
100.0
 43
100.0
  0
INSERT
  5
16450
330
15AA5
100
AcDbEntity
  8
寸法
 62
     0
 48
50.0
370
    -2
100
AcDbBlockReference
  2
_DOTSMALL
 10
7403.016918567828
 20
5549.646393070419
 30
0.0
 41
100.0
 42
100.0
 43
100.0
 50
180.0
  0
MTEXT
  5
16451
330
15AA5
100
AcDbEntity
  8
寸法
 62
     7
 48
50.0
100
AcDbMText
 10
7716.502199942064
 20
5649.646393070419
 30
0.0
 40
120.0
 41
0.0
 71
     5
 72
     1
  1
\A1;50
  7
STYLE1
 73
     1
 44
1.0
1001
ACAD
1000
MTEXTBEGIN
1070
    73
1070
     1
1070
    44
1040
1.0
1070
    74
1070
     0
1000
MTEXTEND
  0
POINT
  5
16452
330
15AA5
100
AcDbEntity
  8
DEFPOINTS
 62
     0
 48
50.0
100
AcDbPoint
 10
7403.016918567828
 20
5337.104807812178
 30
0.0
  0
POINT
  5
16453
330
15AA5
100
AcDbEntity
  8
DEFPOINTS
 62
     0
 48
50.0
100
AcDbPoint
 10
7353.016918567828
 20
5337.10480781218
 30
0.0
  0
POINT
  5
16454
330
15AA5
100
AcDbEntity
  8
DEFPOINTS
 62
     0
 48
50.0
100
AcDbPoint
 10
7353.016918567828
 20
5549.646393070419
 30
0.0
  0
ENDBLK
  5
15AB2
330
15AA5
100
AcDbEntity
  8
0
 48
50.0
100
AcDbBlockEnd
  0
BLOCK
  5
15ABF
330
15AB3
100
AcDbEntity
  8
0
 48
50.0
100
AcDbBlockBegin
  2
*D15
 70
     1
 10
0.0
 20
0.0
 30
0.0
  3
*D15
  1

  0
LINE
  5
1643F
330
15AB3
100
AcDbEntity
  8
寸法
 62
     0
 48
50.0
370
    -2
100
AcDbLine
 10
5453.016918567824
 20
5357.104807812186
 30
0.0
 11
5453.016918567824
 21
5609.646393070423
 31
0.0
  0
LINE
  5
16440
330
15AB3
100
AcDbEntity
  8
寸法
 62
     0
 48
50.0
370
    -2
100
AcDbLine
 10
5403.016918567824
 20
5357.104807812184
 30
0.0
 11
5403.016918567824
 21
5609.646393070423
 31
0.0
  0
LINE
  5
16441
330
15AB3
100
AcDbEntity
  8
寸法
 62
     0
 48
50.0
370
    -2
100
AcDbLine
 10
5453.016918567824
 20
5549.646393070423
 30
0.0
 11
5553.016918567823
 21
5549.646393070423
 31
0.0
  0
LINE
  5
16442
330
15AB3
100
AcDbEntity
  8
寸法
 62
     0
 48
50.0
370
    -2
100
AcDbLine
 10
5403.016918567824
 20
5549.646393070423
 30
0.0
 11
4983.484393099089
 21
5549.646393070423
 31
0.0
  0
LINE
  5
16443
330
15AB3
100
AcDbEntity
  8
寸法
 62
     0
 48
50.0
370
    -2
100
AcDbLine
 10
5453.016918567824
 20
5549.646393070423
 30
0.0
 11
5403.016918567824
 21
5549.646393070423
 31
0.0
  0
INSERT
  5
16444
330
15AB3
100
AcDbEntity
  8
寸法
 62
     0
 48
50.0
370
    -2
100
AcDbBlockReference
  2
_DOTSMALL
 10
5453.016918567824
 20
5549.646393070423
 30
0.0
 41
100.0
 42
100.0
 43
100.0
 50
180.0
  0
INSERT
  5
16445
330
15AB3
100
AcDbEntity
  8
寸法
 62
     0
 48
50.0
370
    -2
100
AcDbBlockReference
  2
_DOTSMALL
 10
5403.016918567824
 20
5549.646393070423
 30
0.0
 41
100.0
 42
100.0
 43
100.0
  0
MTEXT
  5
16446
330
15AB3
100
AcDbEntity
  8
寸法
 62
     7
 48
50.0
100
AcDbMText
 10
5089.531637193577
 20
5649.646393070423
 30
0.0
 40
120.0
 41
0.0
 71
     5
 72
     1
  1
\A1;50
  7
STYLE1
 73
     1
 44
1.0
1001
ACAD
1000
MTEXTBEGIN
1070
    73
1070
     1
1070
    44
1040
1.0
1070
    74
1070
     0
1000
MTEXTEND
  0
POINT
  5
16447
330
15AB3
100
AcDbEntity
  8
DEFPOINTS
 62
     0
 48
50.0
100
AcDbPoint
 10
5453.016918567824
 20
5337.104807812186
 30
0.0
  0
POINT
  5
16448
330
15AB3
100
AcDbEntity
  8
DEFPOINTS
 62
     0
 48
50.0
100
AcDbPoint
 10
5403.016918567824
 20
5337.104807812184
 30
0.0
  0
POINT
  5
16449
330
15AB3
100
AcDbEntity
  8
DEFPOINTS
 62
     0
 48
50.0
100
AcDbPoint
 10
5403.016918567824
 20
5549.646393070423
 30
0.0
  0
ENDBLK
  5
15AC0
330
15AB3
100
AcDbEntity
  8
0
 48
50.0
100
AcDbBlockEnd
  0
BLOCK
  5
15ACB
330
15AC1
100
AcDbEntity
  8
0
 48
50.0
100
AcDbBlockBegin
  2
*D16
 70
     1
 10
0.0
 20
0.0
 30
0.0
  3
*D16
  1

  0
LINE
  5
16436
330
15AC1
100
AcDbEntity
  8
寸法
 62
     0
 48
50.0
370
    -2
100
AcDbLine
 10
7353.016918567828
 20
5357.104807812181
 30
0.0
 11
7353.016918567828
 21
5609.646393070423
 31
0.0
  0
LINE
  5
16437
330
15AC1
100
AcDbEntity
  8
寸法
 62
     0
 48
50.0
370
    -2
100
AcDbLine
 10
5453.016918567824
 20
5357.104807812186
 30
0.0
 11
5453.016918567824
 21
5609.646393070423
 31
0.0
  0
LINE
  5
16438
330
15AC1
100
AcDbEntity
  8
寸法
 62
     0
 48
50.0
370
    -2
100
AcDbLine
 10
7353.016918567828
 20
5549.646393070423
 30
0.0
 11
5453.016918567824
 21
5549.646393070423
 31
0.0
  0
INSERT
  5
16439
330
15AC1
100
AcDbEntity
  8
寸法
 62
     0
 48
50.0
370
    -2
100
AcDbBlockReference
  2
_DOTSMALL
 10
7353.016918567828
 20
5549.646393070423
 30
0.0
 41
100.0
 42
100.0
 43
100.0
  0
INSERT
  5
1643A
330
15AC1
100
AcDbEntity
  8
寸法
 62
     0
 48
50.0
370
    -2
100
AcDbBlockReference
  2
_DOTSMALL
 10
5453.016918567824
 20
5549.646393070423
 30
0.0
 41
100.0
 42
100.0
 43
100.0
 50
180.0
  0
MTEXT
  5
1643B
330
15AC1
100
AcDbEntity
  8
寸法
 62
     7
 48
50.0
100
AcDbMText
 10
6403.016918567826
 20
5649.646393070423
 30
0.0
 40
120.0
 41
0.0
 71
     5
 72
     1
  1
\A1;柱外寸法1900
  7
STYLE1
 73
     1
 44
1.0
1001
ACAD
1000
MTEXTBEGIN
1070
    73
1070
     1
1070
    44
1040
1.0
1070
    74
1070
     0
1000
MTEXTEND
  0
POINT
  5
1643C
330
15AC1
100
AcDbEntity
  8
DEFPOINTS
 62
     0
 48
50.0
100
AcDbPoint
 10
7353.016918567828
 20
5337.10480781218
 30
0.0
  0
POINT
  5
1643D
330
15AC1
100
AcDbEntity
  8
DEFPOINTS
 62
     0
 48
50.0
100
AcDbPoint
 10
5453.016918567824
 20
5337.104807812186
 30
0.0
  0
POINT
  5
1643E
330
15AC1
100
AcDbEntity
  8
DEFPOINTS
 62
     0
 48
50.0
100
AcDbPoint
 10
5453.016918567824
 20
5549.646393070423
 30
0.0
  0
ENDBLK
  5
15ACC
330
15AC1
100
AcDbEntity
  8
0
 48
50.0
100
AcDbBlockEnd
  0
BLOCK
  5
15AD7
330
15ACD
100
AcDbEntity
  8
0
 48
50.0
100
AcDbBlockBegin
  2
*D17
 70
     1
 10
0.0
 20
0.0
 30
0.0
  3
*D17
  1

  0
LINE
  5
1642D
330
15ACD
100
AcDbEntity
  8
寸法
 62
     0
 48
50.0
370
    -2
100
AcDbLine
 10
5403.016918567824
 20
5357.104807812184
 30
0.0
 11
5403.016918567824
 21
5832.60337150827
 31
0.0
  0
LINE
  5
1642E
330
15ACD
100
AcDbEntity
  8
寸法
 62
     0
 48
50.0
370
    -2
100
AcDbLine
 10
7403.016918567828
 20
5357.104807812178
 30
0.0
 11
7403.016918567828
 21
5832.60337150827
 31
0.0
  0
LINE
  5
1642F
330
15ACD
100
AcDbEntity
  8
寸法
 62
     0
 48
50.0
370
    -2
100
AcDbLine
 10
5403.016918567824
 20
5772.603371508271
 30
0.0
 11
7403.016918567828
 21
5772.603371508271
 31
0.0
  0
INSERT
  5
16430
330
15ACD
100
AcDbEntity
  8
寸法
 62
     0
 48
50.0
370
    -2
100
AcDbBlockReference
  2
_DOTSMALL
 10
5403.016918567824
 20
5772.603371508271
 30
0.0
 41
100.0
 42
100.0
 43
100.0
 50
180.0
  0
INSERT
  5
16431
330
15ACD
100
AcDbEntity
  8
寸法
 62
     0
 48
50.0
370
    -2
100
AcDbBlockReference
  2
_DOTSMALL
 10
7403.016918567828
 20
5772.603371508271
 30
0.0
 41
100.0
 42
100.0
 43
100.0
  0
MTEXT
  5
16432
330
15ACD
100
AcDbEntity
  8
寸法
 62
     7
 48
50.0
100
AcDbMText
 10
6403.016918567826
 20
5872.615182531892
 30
0.0
 40
120.0
 41
0.0
 71
     5
 72
     1
  1
\A1;2000
  7
STYLE1
 73
     1
 44
1.0
1001
ACAD
1000
MTEXTBEGIN
1070
    73
1070
     1
1070
    44
1040
1.0
1070
    74
1070
     0
1000
MTEXTEND
  0
POINT
  5
16433
330
15ACD
100
AcDbEntity
  8
DEFPOINTS
 62
     0
 48
50.0
100
AcDbPoint
 10
5403.016918567824
 20
5337.104807812184
 30
0.0
  0
POINT
  5
16434
330
15ACD
100
AcDbEntity
  8
DEFPOINTS
 62
     0
 48
50.0
100
AcDbPoint
 10
7403.016918567828
 20
5337.104807812178
 30
0.0
  0
POINT
  5
16435
330
15ACD
100
AcDbEntity
  8
DEFPOINTS
 62
     0
 48
50.0
100
AcDbPoint
 10
7403.016918567828
 20
5772.603371508271
 30
0.0
  0
ENDBLK
  5
15AD8
330
15ACD
100
AcDbEntity
  8
0
 48
50.0
100
AcDbBlockEnd
  0
BLOCK
  5
15C11
330
15C07
100
AcDbEntity
  8
0
 48
50.0
100
AcDbBlockBegin
  2
*D18
 70
     1
 10
0.0
 20
0.0
 30
0.0
  3
*D18
  1

  0
LINE
  5
16412
330
15C07
100
AcDbEntity
  8
寸法
 62
     0
 48
50.0
370
    -2
100
AcDbLine
 10
5433.016918567824
 20
5083.604807812177
 30
0.0
 11
5074.912390960221
 21
5083.604807812177
 31
0.0
  0
LINE
  5
16413
330
15C07
100
AcDbEntity
  8
寸法
 62
     0
 48
50.0
370
    -2
100
AcDbLine
 10
5433.016918567824
 20
3323.604807812181
 30
0.0
 11
5074.912390960221
 21
3323.604807812182
 31
0.0
  0
LINE
  5
16414
330
15C07
100
AcDbEntity
  8
寸法
 62
     0
 48
50.0
370
    -2
100
AcDbLine
 10
5134.912390960221
 20
5083.604807812177
 30
0.0
 11
5134.912390960221
 21
3323.604807812181
 31
0.0
  0
INSERT
  5
16415
330
15C07
100
AcDbEntity
  8
寸法
 62
     0
 48
50.0
370
    -2
100
AcDbBlockReference
  2
_DOTSMALL
 10
5134.912390960221
 20
5083.604807812177
 30
0.0
 41
100.0
 42
100.0
 43
100.0
 50
90.0
  0
INSERT
  5
16416
330
15C07
100
AcDbEntity
  8
寸法
 62
     0
 48
50.0
370
    -2
100
AcDbBlockReference
  2
_DOTSMALL
 10
5134.912390960221
 20
3323.604807812181
 30
0.0
 41
100.0
 42
100.0
 43
100.0
 50
270.0
  0
MTEXT
  5
16417
330
15C07
100
AcDbEntity
  8
寸法
 62
     7
 48
50.0
100
AcDbMText
 10
5034.91239096022
 20
4202.604807812178
 30
0.0
 40
120.0
 41
0.0
 71
     5
 72
     1
  1
\A1;有効開口部高サ1760
  7
STYLE1
 11
0.0000000000000001
 21
1.0
 31
0.0
 73
     1
 44
1.0
1001
ACAD
1000
MTEXTBEGIN
1070
    73
1070
     1
1070
    44
1040
1.0
1070
    74
1070
     0
1000
MTEXTEND
  0
POINT
  5
16418
330
15C07
100
AcDbEntity
  8
DEFPOINTS
 62
     0
 48
50.0
100
AcDbPoint
 10
5453.016918567824
 20
5083.604807812177
 30
0.0
  0
POINT
  5
16419
330
15C07
100
AcDbEntity
  8
DEFPOINTS
 62
     0
 48
50.0
100
AcDbPoint
 10
5453.016918567824
 20
3323.604807812181
 30
0.0
  0
POINT
  5
1641A
330
15C07
100
AcDbEntity
  8
DEFPOINTS
 62
     0
 48
50.0
100
AcDbPoint
 10
5134.912390960221
 20
3323.604807812181
 30
0.0
  0
ENDBLK
  5
15C12
330
15C07
100
AcDbEntity
  8
0
 48
50.0
100
AcDbBlockEnd
  0
BLOCK
  5
1616F
330
16164
100
AcDbEntity
  8
0
 48
50.0
100
AcDbBlockBegin
  2
*D19
 70
     1
 10
0.0
 20
0.0
 30
0.0
  3
*D19
  1

  0
LINE
  5
16408
330
16164
100
AcDbEntity
  8
寸法
 62
     0
 48
50.0
370
    -2
100
AcDbLine
 10
9224.171105062806
 20
5195.640419285654
 30
0.0
 11
8571.270934768788
 21
5220.291450525632
 31
0.0
  0
LINE
  5
16409
330
16164
100
AcDbEntity
  8
寸法
 62
     0
 48
50.0
370
    -2
100
AcDbLine
 10
9229.490939214761
 20
5336.540026682536
 30
0.0
 11
8576.59076892058
 21
5361.19105792252
 31
0.0
  0
LINE
  5
1640A
330
16164
100
AcDbEntity
  8
寸法
 62
     0
 48
50.0
370
    -2
100
AcDbLine
 10
8631.228214512143
 20
5218.027691312103
 30
0.0
 11
8636.548048663936
 21
5358.927298708993
 31
0.0
  0
LINE
  5
1640B
330
16164
100
AcDbEntity
  8
寸法
 62
     0
 48
50.0
370
    -2
100
AcDbLine
 10
8636.548048663936
 20
5358.927298708993
 30
0.0
 11
8650.130603945136
 21
5718.670977169832
 31
0.0
  0
INSERT
  5
1640C
330
16164
100
AcDbEntity
  8
寸法
 62
     0
 48
50.0
370
    -2
100
AcDbBlockReference
  2
_DOTSMALL
 10
8631.228214512143
 20
5218.027691312103
 30
0.0
 41
100.0
 42
100.0
 43
100.0
 50
267.8377559871574
  0
INSERT
  5
1640D
330
16164
100
AcDbEntity
  8
寸法
 62
     0
 48
50.0
370
    -2
100
AcDbBlockReference
  2
_DOTSMALL
 10
8636.548048663936
 20
5358.927298708993
 30
0.0
 41
100.0
 42
100.0
 43
100.0
 50
87.83775598715743
  0
MTEXT
  5
1640E
330
16164
100
AcDbEntity
  8
寸法
 62
     7
 48
50.0
100
AcDbMText
 10
8545.296992743564
 20
5592.536469748438
 30
0.0
 40
120.0
 41
0.0
 71
     5
 72
     1
  1
\A1;141
  7
STYLE1
 11
0.03772932022548
 21
0.9992879957226159
 31
0.0
 73
     1
 44
1.0
1001
ACAD
1000
MTEXTBEGIN
1070
    73
1070
     1
1070
    44
1040
1.0
1070
    74
1070
     0
1000
MTEXTEND
  0
POINT
  5
1640F
330
16164
100
AcDbEntity
  8
DEFPOINTS
 62
     0
 48
50.0
100
AcDbPoint
 10
9244.156864977261
 20
5194.885832881144
 30
0.0
  0
POINT
  5
16410
330
16164
100
AcDbEntity
  8
DEFPOINTS
 62
     0
 48
50.0
100
AcDbPoint
 10
9249.476699129216
 20
5335.785440278026
 30
0.0
  0
POINT
  5
16411
330
16164
100
AcDbEntity
  8
DEFPOINTS
 62
     0
 48
50.0
100
AcDbPoint
 10
8636.548048663936
 20
5358.927298708993
 30
0.0
  0
ENDBLK
  5
16170
330
16164
100
AcDbEntity
  8
0
 48
50.0
100
AcDbBlockEnd
  0
BLOCK
  5
1617C
330
16171
100
AcDbEntity
  8
0
 48
50.0
100
AcDbBlockBegin
  2
*D20
 70
     1
 10
0.0
 20
0.0
 30
0.0
  3
*D20
  1

  0
LINE
  5
163FE
330
16171
100
AcDbEntity
  8
寸法
 62
     0
 48
50.0
370
    -2
100
AcDbLine
 10
10658.81430037531
 20
5303.915487423831
 30
0.0
 11
10658.81430037531
 21
5795.76226139148
 31
0.0
  0
LINE
  5
163FF
330
16171
100
AcDbEntity
  8
寸法
 62
     0
 48
50.0
370
    -2
100
AcDbLine
 10
10738.81430037531
 20
5302.104807812178
 30
0.0
 11
10738.81430037531
 21
5795.76226139148
 31
0.0
  0
LINE
  5
16400
330
16171
100
AcDbEntity
  8
寸法
 62
     0
 48
50.0
370
    -2
100
AcDbLine
 10
10658.81430037531
 20
5735.762261391482
 30
0.0
 11
10738.81430037531
 21
5735.762261391482
 31
0.0
  0
LINE
  5
16401
330
16171
100
AcDbEntity
  8
寸法
 62
     0
 48
50.0
370
    -2
100
AcDbLine
 10
10738.81430037531
 20
5735.762261391482
 30
0.0
 11
11050.90878856428
 21
5735.762261391482
 31
0.0
  0
INSERT
  5
16402
330
16171
100
AcDbEntity
  8
寸法
 62
     0
 48
50.0
370
    -2
100
AcDbBlockReference
  2
_DOTSMALL
 10
10658.81430037531
 20
5735.762261391482
 30
0.0
 41
100.0
 42
100.0
 43
100.0
 50
180.0
  0
INSERT
  5
16403
330
16171
100
AcDbEntity
  8
寸法
 62
     0
 48
50.0
370
    -2
100
AcDbBlockReference
  2
_DOTSMALL
 10
10738.81430037531
 20
5735.762261391482
 30
0.0
 41
100.0
 42
100.0
 43
100.0
  0
MTEXT
  5
16404
330
16171
100
AcDbEntity
  8
寸法
 62
     7
 48
50.0
100
AcDbMText
 10
10944.86154446979
 20
5835.762261391481
 30
0.0
 40
120.0
 41
0.0
 71
     5
 72
     1
  1
\A1;80
  7
STYLE1
 73
     1
 44
1.0
1001
ACAD
1000
MTEXTBEGIN
1070
    73
1070
     1
1070
    44
1040
1.0
1070
    74
1070
     0
1000
MTEXTEND
  0
POINT
  5
16405
330
16171
100
AcDbEntity
  8
DEFPOINTS
 62
     0
 48
50.0
100
AcDbPoint
 10
10658.81430037531
 20
5283.91548742383
 30
0.0
  0
POINT
  5
16406
330
16171
100
AcDbEntity
  8
DEFPOINTS
 62
     0
 48
50.0
100
AcDbPoint
 10
10738.81430037531
 20
5282.104807812178
 30
0.0
  0
POINT
  5
16407
330
16171
100
AcDbEntity
  8
DEFPOINTS
 62
     0
 48
50.0
100
AcDbPoint
 10
10738.81430037531
 20
5735.762261391482
 30
0.0
  0
ENDBLK
  5
1617D
330
16171
100
AcDbEntity
  8
0
 48
50.0
100
AcDbBlockEnd
  0
BLOCK
  5
161BC
330
161B2
100
AcDbEntity
  8
0
 48
50.0
100
AcDbBlockBegin
  2
*D21
 70
     1
 10
0.0
 20
0.0
 30
0.0
  3
*D21
  1

  0
LINE
  5
163F5
330
161B2
100
AcDbEntity
  8
寸法
 62
     0
 48
50.0
370
    -2
100
AcDbLine
 10
10738.81430037531
 20
5302.104807812178
 30
0.0
 11
10738.81430037531
 21
6003.936582583445
 31
0.0
  0
LINE
  5
163F6
330
161B2
100
AcDbEntity
  8
寸法
 62
     0
 48
50.0
370
    -2
100
AcDbLine
 10
9228.81430037531
 20
5357.104807812182
 30
0.0
 11
9228.81430037531
 21
6003.936582583445
 31
0.0
  0
LINE
  5
163F7
330
161B2
100
AcDbEntity
  8
寸法
 62
     0
 48
50.0
370
    -2
100
AcDbLine
 10
10738.81430037531
 20
5943.936582583445
 30
0.0
 11
9228.81430037531
 21
5943.936582583445
 31
0.0
  0
INSERT
  5
163F8
330
161B2
100
AcDbEntity
  8
寸法
 62
     0
 48
50.0
370
    -2
100
AcDbBlockReference
  2
_DOTSMALL
 10
10738.81430037531
 20
5943.936582583445
 30
0.0
 41
100.0
 42
100.0
 43
100.0
  0
INSERT
  5
163F9
330
161B2
100
AcDbEntity
  8
寸法
 62
     0
 48
50.0
370
    -2
100
AcDbBlockReference
  2
_DOTSMALL
 10
9228.81430037531
 20
5943.936582583445
 30
0.0
 41
100.0
 42
100.0
 43
100.0
 50
180.0
  0
MTEXT
  5
163FA
330
161B2
100
AcDbEntity
  8
寸法
 62
     7
 48
50.0
100
AcDbMText
 10
9955.939130077132
 20
6043.936582583445
 30
0.0
 40
120.0
 41
0.0
 71
     5
 72
     1
  1
\A1;1510
  7
STYLE1
 73
     1
 44
1.0
1001
ACAD
1000
MTEXTBEGIN
1070
    73
1070
     1
1070
    44
1040
1.0
1070
    74
1070
     0
1000
MTEXTEND
  0
POINT
  5
163FB
330
161B2
100
AcDbEntity
  8
DEFPOINTS
 62
     0
 48
50.0
100
AcDbPoint
 10
10738.81430037531
 20
5282.104807812178
 30
0.0
  0
POINT
  5
163FC
330
161B2
100
AcDbEntity
  8
DEFPOINTS
 62
     0
 48
50.0
100
AcDbPoint
 10
9228.81430037531
 20
5337.104807812182
 30
0.0
  0
POINT
  5
163FD
330
161B2
100
AcDbEntity
  8
DEFPOINTS
 62
     0
 48
50.0
100
AcDbPoint
 10
9228.81430037531
 20
5943.936582583445
 30
0.0
  0
ENDBLK
  5
161BD
330
161B2
100
AcDbEntity
  8
0
 48
50.0
100
AcDbBlockEnd
  0
BLOCK
  5
161CA
330
161BE
100
AcDbEntity
  8
0
 48
50.0
100
AcDbBlockBegin
  2
*D22
 70
     1
 10
0.0
 20
0.0
 30
0.0
  3
*D22
  1

  0
LINE
  5
163EA
330
161BE
100
AcDbEntity
  8
寸法
 62
     0
 48
50.0
370
    -2
100
AcDbLine
 10
9288.814300375308
 20
5353.106425935153
 30
0.0
 11
9288.814300375308
 21
5795.76226139148
 31
0.0
  0
LINE
  5
163EB
330
161BE
100
AcDbEntity
  8
寸法
 62
     0
 48
50.0
370
    -2
100
AcDbLine
 10
9228.81430037531
 20
5357.104807812182
 30
0.0
 11
9228.81430037531
 21
5795.76226139148
 31
0.0
  0
LINE
  5
163EC
330
161BE
100
AcDbEntity
  8
寸法
 62
     0
 48
50.0
370
    -2
100
AcDbLine
 10
9288.814300375308
 20
5735.762261391482
 30
0.0
 11
9388.814300375308
 21
5735.762261391482
 31
0.0
  0
LINE
  5
163ED
330
161BE
100
AcDbEntity
  8
寸法
 62
     0
 48
50.0
370
    -2
100
AcDbLine
 10
9228.81430037531
 20
5735.762261391482
 30
0.0
 11
8809.53870982413
 21
5735.762261391482
 31
0.0
  0
LINE
  5
163EE
330
161BE
100
AcDbEntity
  8
寸法
 62
     0
 48
50.0
370
    -2
100
AcDbLine
 10
9288.814300375308
 20
5735.762261391482
 30
0.0
 11
9228.81430037531
 21
5735.762261391482
 31
0.0
  0
INSERT
  5
163EF
330
161BE
100
AcDbEntity
  8
寸法
 62
     0
 48
50.0
370
    -2
100
AcDbBlockReference
  2
_DOTSMALL
 10
9288.814300375308
 20
5735.762261391482
 30
0.0
 41
100.0
 42
100.0
 43
100.0
 50
180.0
  0
INSERT
  5
163F0
330
161BE
100
AcDbEntity
  8
寸法
 62
     0
 48
50.0
370
    -2
100
AcDbBlockReference
  2
_DOTSMALL
 10
9228.81430037531
 20
5735.762261391482
 30
0.0
 41
100.0
 42
100.0
 43
100.0
  0
MTEXT
  5
163F1
330
161BE
100
AcDbEntity
  8
寸法
 62
     7
 48
50.0
100
AcDbMText
 10
8919.176505099718
 20
5835.762261391481
 30
0.0
 40
120.0
 41
0.0
 71
     5
 72
     1
  1
\A1;60
  7
STYLE1
 73
     1
 44
1.0
1001
ACAD
1000
MTEXTBEGIN
1070
    73
1070
     1
1070
    44
1040
1.0
1070
    74
1070
     0
1000
MTEXTEND
  0
POINT
  5
163F2
330
161BE
100
AcDbEntity
  8
DEFPOINTS
 62
     0
 48
50.0
100
AcDbPoint
 10
9288.814300375308
 20
5333.106425935153
 30
0.0
  0
POINT
  5
163F3
330
161BE
100
AcDbEntity
  8
DEFPOINTS
 62
     0
 48
50.0
100
AcDbPoint
 10
9228.81430037531
 20
5337.104807812182
 30
0.0
  0
POINT
  5
163F4
330
161BE
100
AcDbEntity
  8
DEFPOINTS
 62
     0
 48
50.0
100
AcDbPoint
 10
9228.81430037531
 20
5735.762261391482
 30
0.0
  0
ENDBLK
  5
161CB
330
161BE
100
AcDbEntity
  8
0
 48
50.0
100
AcDbBlockEnd
  0
BLOCK
  5
161D6
330
161CC
100
AcDbEntity
  8
0
 48
50.0
100
AcDbBlockBegin
  2
*D23
 70
     1
 10
0.0
 20
0.0
 30
0.0
  3
*D23
  1

  0
LINE
  5
163E1
330
161CC
100
AcDbEntity
  8
寸法
 62
     0
 48
50.0
370
    -2
100
AcDbLine
 10
10658.81430037531
 20
5303.915487423831
 30
0.0
 11
10658.81430037531
 21
5795.76226139148
 31
0.0
  0
LINE
  5
163E2
330
161CC
100
AcDbEntity
  8
寸法
 62
     0
 48
50.0
370
    -2
100
AcDbLine
 10
9288.814300375308
 20
5353.106425935153
 30
0.0
 11
9288.814300375308
 21
5795.76226139148
 31
0.0
  0
LINE
  5
163E3
330
161CC
100
AcDbEntity
  8
寸法
 62
     0
 48
50.0
370
    -2
100
AcDbLine
 10
10658.81430037531
 20
5735.762261391482
 30
0.0
 11
9288.814300375308
 21
5735.762261391482
 31
0.0
  0
INSERT
  5
163E4
330
161CC
100
AcDbEntity
  8
寸法
 62
     0
 48
50.0
370
    -2
100
AcDbBlockReference
  2
_DOTSMALL
 10
10658.81430037531
 20
5735.762261391482
 30
0.0
 41
100.0
 42
100.0
 43
100.0
  0
INSERT
  5
163E5
330
161CC
100
AcDbEntity
  8
寸法
 62
     0
 48
50.0
370
    -2
100
AcDbBlockReference
  2
_DOTSMALL
 10
9288.814300375308
 20
5735.762261391482
 30
0.0
 41
100.0
 42
100.0
 43
100.0
 50
180.0
  0
MTEXT
  5
163E6
330
161CC
100
AcDbEntity
  8
寸法
 62
     7
 48
50.0
100
AcDbMText
 10
9938.633333265855
 20
5835.762261391481
 30
0.0
 40
120.0
 41
0.0
 71
     5
 72
     1
  1
\A1;柱外寸法1370
  7
STYLE1
 73
     1
 44
1.0
1001
ACAD
1000
MTEXTBEGIN
1070
    73
1070
     1
1070
    44
1040
1.0
1070
    74
1070
     0
1000
MTEXTEND
  0
POINT
  5
163E7
330
161CC
100
AcDbEntity
  8
DEFPOINTS
 62
     0
 48
50.0
100
AcDbPoint
 10
10658.81430037531
 20
5283.91548742383
 30
0.0
  0
POINT
  5
163E8
330
161CC
100
AcDbEntity
  8
DEFPOINTS
 62
     0
 48
50.0
100
AcDbPoint
 10
9288.814300375308
 20
5333.106425935153
 30
0.0
  0
POINT
  5
163E9
330
161CC
100
AcDbEntity
  8
DEFPOINTS
 62
     0
 48
50.0
100
AcDbPoint
 10
9288.814300375308
 20
5735.762261391482
 30
0.0
  0
ENDBLK
  5
161D7
330
161CC
100
AcDbEntity
  8
0
 48
50.0
100
AcDbBlockEnd
  0
BLOCK
  5
161E2
330
161D8
100
AcDbEntity
  8
0
 48
50.0
100
AcDbBlockBegin
  2
*D24
 70
     1
 10
0.0
 20
0.0
 30
0.0
  3
*D24
  1

  0
LINE
  5
163D8
330
161D8
100
AcDbEntity
  8
寸法
 62
     0
 48
50.0
370
    -2
100
AcDbLine
 10
10678.81430037531
 20
3262.104807812177
 30
0.0
 11
11423.74145834743
 21
3262.104807812177
 31
0.0
  0
LINE
  5
163D9
330
161D8
100
AcDbEntity
  8
寸法
 62
     0
 48
50.0
370
    -2
100
AcDbLine
 10
10758.81430037531
 20
5282.104807812178
 30
0.0
 11
11423.74145834743
 21
5282.104807812178
 31
0.0
  0
LINE
  5
163DA
330
161D8
100
AcDbEntity
  8
寸法
 62
     0
 48
50.0
370
    -2
100
AcDbLine
 10
11363.74145834743
 20
3262.104807812177
 30
0.0
 11
11363.74145834743
 21
5282.104807812178
 31
0.0
  0
INSERT
  5
163DB
330
161D8
100
AcDbEntity
  8
寸法
 62
     0
 48
50.0
370
    -2
100
AcDbBlockReference
  2
_DOTSMALL
 10
11363.74145834743
 20
3262.104807812177
 30
0.0
 41
100.0
 42
100.0
 43
100.0
 50
270.0
  0
INSERT
  5
163DC
330
161D8
100
AcDbEntity
  8
寸法
 62
     0
 48
50.0
370
    -2
100
AcDbBlockReference
  2
_DOTSMALL
 10
11363.74145834743
 20
5282.104807812178
 30
0.0
 41
100.0
 42
100.0
 43
100.0
 50
90.0
  0
MTEXT
  5
163DD
330
161D8
100
AcDbEntity
  8
寸法
 62
     7
 48
50.0
100
AcDbMText
 10
11263.72964732381
 20
4272.104807812179
 30
0.0
 40
120.0
 41
0.0
 71
     5
 72
     1
  1
\A1;2020
  7
STYLE1
 11
0.0000000000000001
 21
1.0
 31
0.0
 73
     1
 44
1.0
1001
ACAD
1000
MTEXTBEGIN
1070
    73
1070
     1
1070
    44
1040
1.0
1070
    74
1070
     0
1000
MTEXTEND
  0
POINT
  5
163DE
330
161D8
100
AcDbEntity
  8
DEFPOINTS
 62
     0
 48
50.0
100
AcDbPoint
 10
10658.81430037531
 20
3262.104807812177
 30
0.0
  0
POINT
  5
163DF
330
161D8
100
AcDbEntity
  8
DEFPOINTS
 62
     0
 48
50.0
100
AcDbPoint
 10
10738.81430037531
 20
5282.104807812178
 30
0.0
  0
POINT
  5
163E0
330
161D8
100
AcDbEntity
  8
DEFPOINTS
 62
     0
 48
50.0
100
AcDbPoint
 10
11363.74145834743
 20
5282.104807812178
 30
0.0
  0
ENDBLK
  5
161E3
330
161D8
100
AcDbEntity
  8
0
 48
50.0
100
AcDbBlockEnd
  0
BLOCK
  5
161F0
330
161E4
100
AcDbEntity
  8
0
 48
50.0
100
AcDbBlockBegin
  2
*D25
 70
     1
 10
0.0
 20
0.0
 30
0.0
  3
*D25
  1

  0
LINE
  5
163CD
330
161E4
100
AcDbEntity
  8
寸法
 62
     0
 48
50.0
370
    -2
100
AcDbLine
 10
9268.814300375307
 20
3312.104807812178
 30
0.0
 11
8385.064171192047
 21
3312.104807812178
 31
0.0
  0
LINE
  5
163CE
330
161E4
100
AcDbEntity
  8
寸法
 62
     0
 48
50.0
370
    -2
100
AcDbLine
 10
9213.814300375307
 20
3262.104807812177
 30
0.0
 11
8385.064171192047
 21
3262.104807812177
 31
0.0
  0
LINE
  5
163CF
330
161E4
100
AcDbEntity
  8
寸法
 62
     0
 48
50.0
370
    -2
100
AcDbLine
 10
8445.064171192047
 20
3312.104807812178
 30
0.0
 11
8445.064171192047
 21
3412.104807812177
 31
0.0
  0
LINE
  5
163D0
330
161E4
100
AcDbEntity
  8
寸法
 62
     0
 48
50.0
370
    -2
100
AcDbLine
 10
8445.064171192047
 20
3262.104807812177
 30
0.0
 11
8445.064171192047
 21
2850.010319623199
 31
0.0
  0
LINE
  5
163D1
330
161E4
100
AcDbEntity
  8
寸法
 62
     0
 48
50.0
370
    -2
100
AcDbLine
 10
8445.064171192047
 20
3312.104807812178
 30
0.0
 11
8445.064171192047
 21
3262.104807812177
 31
0.0
  0
INSERT
  5
163D2
330
161E4
100
AcDbEntity
  8
寸法
 62
     0
 48
50.0
370
    -2
100
AcDbBlockReference
  2
_DOTSMALL
 10
8445.064171192047
 20
3312.104807812178
 30
0.0
 41
100.0
 42
100.0
 43
100.0
 50
270.0
  0
INSERT
  5
163D3
330
161E4
100
AcDbEntity
  8
寸法
 62
     0
 48
50.0
370
    -2
100
AcDbBlockReference
  2
_DOTSMALL
 10
8445.064171192047
 20
3262.104807812177
 30
0.0
 41
100.0
 42
100.0
 43
100.0
 50
90.0
  0
MTEXT
  5
163D4
330
161E4
100
AcDbEntity
  8
寸法
 62
     7
 48
50.0
100
AcDbMText
 10
8345.064171192047
 20
2956.057563717689
 30
0.0
 40
120.0
 41
0.0
 71
     5
 72
     1
  1
\A1;50
  7
STYLE1
 11
0.0000000000000001
 21
1.0
 31
0.0
 73
     1
 44
1.0
1001
ACAD
1000
MTEXTBEGIN
1070
    73
1070
     1
1070
    44
1040
1.0
1070
    74
1070
     0
1000
MTEXTEND
  0
POINT
  5
163D5
330
161E4
100
AcDbEntity
  8
DEFPOINTS
 62
     0
 48
50.0
100
AcDbPoint
 10
9288.814300375307
 20
3312.104807812178
 30
0.0
  0
POINT
  5
163D6
330
161E4
100
AcDbEntity
  8
DEFPOINTS
 62
     0
 48
50.0
100
AcDbPoint
 10
9233.814300375307
 20
3262.104807812177
 30
0.0
  0
POINT
  5
163D7
330
161E4
100
AcDbEntity
  8
DEFPOINTS
 62
     0
 48
50.0
100
AcDbPoint
 10
8445.064171192047
 20
3262.104807812177
 30
0.0
  0
ENDBLK
  5
161F1
330
161E4
100
AcDbEntity
  8
0
 48
50.0
100
AcDbBlockEnd
  0
BLOCK
  5
16209
330
161FF
100
AcDbEntity
  8
0
 48
50.0
100
AcDbBlockBegin
  2
*D26
 70
     1
 10
0.0
 20
0.0
 30
0.0
  3
*D26
  1

  0
LINE
  5
163C4
330
161FF
100
AcDbEntity
  8
寸法
 62
     0
 48
50.0
370
    -2
100
AcDbLine
 10
9268.814300375307
 20
3262.104807812177
 30
0.0
 11
8085.064171192048
 21
3262.104807812177
 31
0.0
  0
LINE
  5
163C5
330
161FF
100
AcDbEntity
  8
寸法
 62
     0
 48
50.0
370
    -2
100
AcDbLine
 10
9208.814300375308
 20
5337.104807812182
 30
0.0
 11
8085.064171192048
 21
5337.104807812182
 31
0.0
  0
LINE
  5
163C6
330
161FF
100
AcDbEntity
  8
寸法
 62
     0
 48
50.0
370
    -2
100
AcDbLine
 10
8145.064171192046
 20
3262.104807812177
 30
0.0
 11
8145.064171192046
 21
5337.104807812182
 31
0.0
  0
INSERT
  5
163C7
330
161FF
100
AcDbEntity
  8
寸法
 62
     0
 48
50.0
370
    -2
100
AcDbBlockReference
  2
_DOTSMALL
 10
8145.064171192046
 20
3262.104807812177
 30
0.0
 41
100.0
 42
100.0
 43
100.0
 50
270.0
  0
INSERT
  5
163C8
330
161FF
100
AcDbEntity
  8
寸法
 62
     0
 48
50.0
370
    -2
100
AcDbBlockReference
  2
_DOTSMALL
 10
8145.064171192046
 20
5337.104807812182
 30
0.0
 41
100.0
 42
100.0
 43
100.0
 50
90.0
  0
MTEXT
  5
163C9
330
161FF
100
AcDbEntity
  8
寸法
 62
     7
 48
50.0
100
AcDbMText
 10
8045.052360168424
 20
4299.604807812181
 30
0.0
 40
120.0
 41
0.0
 71
     5
 72
     1
  1
\A1;2075
  7
STYLE1
 11
0.0000000000000001
 21
1.0
 31
0.0
 73
     1
 44
1.0
1001
ACAD
1000
MTEXTBEGIN
1070
    73
1070
     1
1070
    44
1040
1.0
1070
    74
1070
     0
1000
MTEXTEND
  0
POINT
  5
163CA
330
161FF
100
AcDbEntity
  8
DEFPOINTS
 62
     0
 48
50.0
100
AcDbPoint
 10
9288.814300375307
 20
3262.104807812177
 30
0.0
  0
POINT
  5
163CB
330
161FF
100
AcDbEntity
  8
DEFPOINTS
 62
     0
 48
50.0
100
AcDbPoint
 10
9228.81430037531
 20
5337.104807812182
 30
0.0
  0
POINT
  5
163CC
330
161FF
100
AcDbEntity
  8
DEFPOINTS
 62
     0
 48
50.0
100
AcDbPoint
 10
8145.064171192046
 20
5337.104807812182
 30
0.0
  0
ENDBLK
  5
1620A
330
161FF
100
AcDbEntity
  8
0
 48
50.0
100
AcDbBlockEnd
  0
BLOCK
  5
16560
330
16556
100
AcDbEntity
  8
0
 48
50.0
100
AcDbBlockBegin
  2
*D28
 70
     1
 10
0.0
 20
0.0
 30
0.0
  3
*D28
  1

  0
LINE
  5
165F9
330
16556
100
AcDbEntity
  8
寸法
 62
     0
 48
50.0
370
    -2
100
AcDbLine
 10
6426.657941396806
 20
8919.393446026719
 30
0.0
 11
6318.004543865985
 21
8513.893446026715
 31
0.0
  0
LINE
  5
165FA
330
16556
100
AcDbEntity
  8
寸法
 62
     0
 48
50.0
370
    -2
100
AcDbLine
 10
7318.657941396804
 20
8919.393446026825
 30
0.0
 11
7210.004543865953
 21
8513.893446026715
 31
0.0
  0
LINE
  5
165FB
330
16556
100
AcDbEntity
  8
寸法
 62
     0
 48
50.0
370
    -2
100
AcDbLine
 10
6334.081495411852
 20
8573.893446026715
 30
0.0
 11
7226.08149541182
 21
8573.893446026715
 31
0.0
  0
INSERT
  5
165FC
330
16556
100
AcDbEntity
  8
寸法
 62
     0
 48
50.0
370
    -2
100
AcDbBlockReference
  2
_DOTSMALL
 10
6334.081495411852
 20
8573.893446026715
 30
0.0
 41
100.0
 42
100.0
 43
100.0
 50
180.0
  0
INSERT
  5
165FD
330
16556
100
AcDbEntity
  8
寸法
 62
     0
 48
50.0
370
    -2
100
AcDbBlockReference
  2
_DOTSMALL
 10
7226.08149541182
 20
8573.893446026715
 30
0.0
 41
100.0
 42
100.0
 43
100.0
  0
MTEXT
  5
165FE
330
16556
100
AcDbEntity
  8
寸法
 62
     7
 48
50.0
100
AcDbMText
 10
6780.081495411836
 20
8673.934258591518
 30
0.0
 40
120.0
 41
0.0
 71
     5
 72
     1
  1
\A1;892
  7
STYLE1
 73
     1
 44
1.0
1001
ACAD
1000
MTEXTBEGIN
1070
    73
1070
     1
1070
    44
1040
1.0
1070
    74
1070
     0
1000
MTEXTEND
  0
POINT
  5
165FF
330
16556
100
AcDbEntity
  8
DEFPOINTS
 62
     0
 48
50.0
100
AcDbPoint
 10
6432.016925245429
 20
8939.393446026718
 30
0.0
  0
POINT
  5
16600
330
16556
100
AcDbEntity
  8
DEFPOINTS
 62
     0
 48
50.0
100
AcDbPoint
 10
7324.016925245425
 20
8939.393446026825
 30
0.0
  0
POINT
  5
16601
330
16556
100
AcDbEntity
  8
DEFPOINTS
 62
     0
 48
50.0
100
AcDbPoint
 10
7226.08149541182
 20
8573.893446026715
 30
0.0
  0
ENDBLK
  5
16561
330
16556
100
AcDbEntity
  8
0
 48
50.0
100
AcDbBlockEnd
  0
BLOCK
  5
1656C
330
16562
100
AcDbEntity
  8
0
 48
50.0
100
AcDbBlockBegin
  2
*D29
 70
     1
 10
0.0
 20
0.0
 30
0.0
  3
*D29
  1

  0
LINE
  5
16610
330
16562
100
AcDbEntity
  8
寸法
 62
     0
 48
50.0
370
    -2
100
AcDbLine
 10
5476.657941396807
 20
8919.393446026719
 30
0.0
 11
5368.004543865985
 21
8513.893446026715
 31
0.0
  0
LINE
  5
16611
330
16562
100
AcDbEntity
  8
寸法
 62
     0
 48
50.0
370
    -2
100
AcDbLine
 10
6368.657941396807
 20
8919.393446026743
 30
0.0
 11
6260.004543865978
 21
8513.893446026715
 31
0.0
  0
LINE
  5
16612
330
16562
100
AcDbEntity
  8
寸法
 62
     0
 48
50.0
370
    -2
100
AcDbLine
 10
5384.081495411852
 20
8573.893446026715
 30
0.0
 11
6276.081495411845
 21
8573.893446026715
 31
0.0
  0
INSERT
  5
16613
330
16562
100
AcDbEntity
  8
寸法
 62
     0
 48
50.0
370
    -2
100
AcDbBlockReference
  2
_DOTSMALL
 10
5384.081495411852
 20
8573.893446026715
 30
0.0
 41
100.0
 42
100.0
 43
100.0
 50
180.0
  0
INSERT
  5
16614
330
16562
100
AcDbEntity
  8
寸法
 62
     0
 48
50.0
370
    -2
100
AcDbBlockReference
  2
_DOTSMALL
 10
6276.081495411845
 20
8573.893446026715
 30
0.0
 41
100.0
 42
100.0
 43
100.0
  0
MTEXT
  5
16615
330
16562
100
AcDbEntity
  8
寸法
 62
     7
 48
50.0
100
AcDbMText
 10
5830.081495411849
 20
8673.934258591518
 30
0.0
 40
120.0
 41
0.0
 71
     5
 72
     1
  1
\A1;892
  7
STYLE1
 73
     1
 44
1.0
1001
ACAD
1000
MTEXTBEGIN
1070
    73
1070
     1
1070
    44
1040
1.0
1070
    74
1070
     0
1000
MTEXTEND
  0
POINT
  5
16616
330
16562
100
AcDbEntity
  8
DEFPOINTS
 62
     0
 48
50.0
100
AcDbPoint
 10
5482.016925245429
 20
8939.393446026718
 30
0.0
  0
POINT
  5
16617
330
16562
100
AcDbEntity
  8
DEFPOINTS
 62
     0
 48
50.0
100
AcDbPoint
 10
6374.016925245428
 20
8939.393446026745
 30
0.0
  0
POINT
  5
16618
330
16562
100
AcDbEntity
  8
DEFPOINTS
 62
     0
 48
50.0
100
AcDbPoint
 10
6276.081495411845
 20
8573.893446026715
 30
0.0
  0
ENDBLK
  5
1656D
330
16562
100
AcDbEntity
  8
0
 48
50.0
100
AcDbBlockEnd
  0
BLOCK
  5
167CE
330
167CC
100
AcDbEntity
  8
0
 48
50.0
100
AcDbBlockBegin
  2
A$C68115C75
 70
     0
 10
0.0
 20
0.0
 30
0.0
  3
A$C68115C75
  1

  0
TEXT
  5
167CD
330
167CC
100
AcDbEntity
  8
文字
 62
     7
 48
50.0
100
AcDbText
 10
-1260.060420668549
 20
-168.4422937087713
 30
0.0
 40
100.0
  1
     <縮尺> S=1/40
  7
STYLE2
100
AcDbText
  0
ENDBLK
  5
167CF
330
167CC
100
AcDbEntity
  8
0
 48
50.0
100
AcDbBlockEnd
  0
BLOCK
  5
1694D
330
1694C
100
AcDbEntity
  8
0
 48
50.0
100
AcDbBlockBegin
  2
*D32
 70
     1
 10
0.0
 20
0.0
 30
0.0
  3
*D32
  1

  0
LINE
  5
16961
330
1694C
100
AcDbEntity
  8
寸法
 62
     0
370
    -2
100
AcDbLine
 10
9268.814300375307
 20
5102.104807812178
 30
0.0
 11
8385.064171192048
 21
5102.104807812178
 31
0.0
  0
LINE
  5
16962
330
1694C
100
AcDbEntity
  8
寸法
 62
     0
370
    -2
100
AcDbLine
 10
9261.811930330528
 20
3312.104807812181
 30
0.0
 11
8385.064171192047
 21
3312.104807812181
 31
0.0
  0
LINE
  5
16963
330
1694C
100
AcDbEntity
  8
寸法
 62
     0
370
    -2
100
AcDbLine
 10
8445.064171192049
 20
5102.104807812178
 30
0.0
 11
8445.064171192047
 21
3312.104807812181
 31
0.0
  0
INSERT
  5
16964
330
1694C
100
AcDbEntity
  8
寸法
 62
     0
370
    -2
100
AcDbBlockReference
  2
_DOTSMALL
 10
8445.064171192049
 20
5102.104807812178
 30
0.0
 41
100.0
 42
100.0
 43
100.0
 50
90.0
  0
INSERT
  5
16965
330
1694C
100
AcDbEntity
  8
寸法
 62
     0
370
    -2
100
AcDbBlockReference
  2
_DOTSMALL
 10
8445.064171192047
 20
3312.104807812181
 30
0.0
 41
100.0
 42
100.0
 43
100.0
 50
270.0
  0
MTEXT
  5
16966
330
1694C
100
AcDbEntity
  8
寸法
 62
     7
100
AcDbMText
 10
8345.064171192047
 20
4217.139819688561
 30
0.0
 40
120.0
 41
0.0
 71
     5
 72
     1
  1
\A1;1790
  7
STYLE1
 11
0.0000000000000001
 21
1.0
 31
0.0
 73
     1
 44
1.0
1001
ACAD
1000
MTEXTBEGIN
1070
    73
1070
     1
1070
    44
1040
1.0
1070
    74
1070
     0
1000
MTEXTEND
  0
POINT
  5
16967
330
1694C
100
AcDbEntity
  8
DEFPOINTS
 62
     0
100
AcDbPoint
 10
9288.814300375307
 20
5102.104807812178
 30
0.0
  0
POINT
  5
16968
330
1694C
100
AcDbEntity
  8
DEFPOINTS
 62
     0
100
AcDbPoint
 10
9281.811930330528
 20
3312.104807812181
 30
0.0
  0
POINT
  5
16969
330
1694C
100
AcDbEntity
  8
DEFPOINTS
 62
     0
100
AcDbPoint
 10
8445.064171192047
 20
3312.104807812181
 30
0.0
  0
ENDBLK
  5
1694E
330
1694C
100
AcDbEntity
  8
0
 48
50.0
100
AcDbBlockEnd
  0
ENDSEC
  0
SECTION
  2
ENTITIES
  0
LINE
  5
10B56
330
747D
100
AcDbEntity
  8
補助
  6
PHANTOM
 62
   230
 48
50.0
100
AcDbLine
 10
140.0
 20
0.0
 30
0.0
 11
139.9999999999995
 21
11409.6
 31
0.0
  0
LINE
  5
10B57
330
747D
100
AcDbEntity
  8
補助
  6
PHANTOM
 62
   230
 48
50.0
100
AcDbLine
 10
139.9999999999995
 20
11409.6
 30
0.0
 11
16307.2
 21
11409.6
 31
0.0
  0
LINE
  5
10B59
330
747D
100
AcDbEntity
  8
仕様書枠
  6
Continuous
 48
50.0
100
AcDbLine
 10
13107.2
 20
1200.0
 30
0.0
 11
13107.2
 21
-0.0000000000000729
 31
0.0
  0
LINE
  5
10B5C
330
747D
100
AcDbEntity
  8
仕様書枠
 48
50.0
100
AcDbLine
 10
16307.2
 20
1200.0
 30
0.0
 11
16307.2
 21
-0.0000000000000909
 31
0.0
  0
LINE
  5
10B5D
330
747D
100
AcDbEntity
  8
仕様書枠
 48
50.0
100
AcDbLine
 10
140.0
 20
0.0
 30
0.0
 11
16307.2
 21
-0.0000000000000909
 31
0.0
  0
LINE
  5
10B5E
330
747D
100
AcDbEntity
  8
補助
  6
PHANTOM
 62
   230
 48
50.0
100
AcDbLine
 10
16307.2
 20
11409.6
 30
0.0
 11
16307.2
 21
1200.0
 31
0.0
  0
LINE
  5
10B6C
330
747D
100
AcDbEntity
  8
仕様書枠
 48
50.0
100
AcDbLine
 10
13107.2
 20
1200.0
 30
0.0
 11
16307.2
 21
1200.0
 31
0.0
  0
LINE
  5
10B6D
330
747D
100
AcDbEntity
  8
補助
  6
PHANTOM
 62
   230
 48
50.0
100
AcDbLine
 10
13107.2
 20
11409.6
 30
0.0
 11
13107.2
 21
4800.0
 31
0.0
  0
LINE
  5
10B6F
330
747D
100
AcDbEntity
  8
補助
  6
PHANTOM
 62
   230
 48
50.0
100
AcDbLine
 10
13107.2
 20
4800.0
 30
0.0
 11
16307.2
 21
4800.0
 31
0.0
  0
LINE
  5
10B72
330
747D
100
AcDbEntity
  8
文字
 62
     7
 48
50.0
100
AcDbLine
 10
13187.2
 20
400.0
 30
0.0
 11
16227.2
 21
400.0
 31
0.0
  0
TEXT
  5
10B73
330
747D
100
AcDbEntity
  8
文字
 62
     7
 48
50.0
100
AcDbText
 10
13162.9790565769
 20
895.0906074299405
 30
0.0
 40
200.0
  1
外 形 図
  7
STYLE2
100
AcDbText
  0
TEXT
  5
10B74
330
747D
100
AcDbEntity
  8
文字
 62
     7
 48
50.0
100
AcDbText
 10
13201.43669998441
 20
477.2740661031255
 30
0.0
 40
160.0
  1
機種名
  7
STYLE2
100
AcDbText
  0
TEXT
  5
10B75
330
747D
100
AcDbEntity
  8
文字
 62
     7
 48
50.0
100
AcDbText
 10
13209.4053442172
 20
228.5435242569016
 30
0.0
 40
100.0
  1
○有効開口寸法 ： 685\U+00D71760(mm)
  7
STYLE2
100
AcDbText
  0
TEXT
  5
10B76
330
747D
100
AcDbEntity
  8
文字
 62
     7
 48
50.0
100
AcDbText
 10
13209.4053442172
 20
76.09434707649343
 30
0.0
 40
100.0
  1
○床面積 ： 2.60㎡(0.79坪) 　
  7
STYLE2
100
AcDbText
  0
LINE
  5
10B7B
330
747D
100
AcDbEntity
  8
仕様書枠
 48
50.0
100
AcDbLine
 10
13107.2
 20
800.0
 30
0.0
 11
14251.2
 21
800.0
 31
0.0
  0
LINE
  5
10B88
330
747D
100
AcDbEntity
  8
仕様書枠
  6
Continuous
 48
50.0
100
AcDbLine
 10
14251.2
 20
1200.0
 30
0.0
 11
14251.2
 21
800.0
 31
0.0
  0
TEXT
  5
13B2F
330
747D
100
AcDbEntity
  8
部品1
100
AcDbText
 10
6111.201195282643
 20
6518.421228008439
 30
0.0
 40
135.0
  1
平面図
  7
STYLE2
100
AcDbText
  0
LWPOLYLINE
  5
13B30
330
747D
100
AcDbEntity
  8
部品1
100
AcDbPolyline
 90
        4
 70
     1
 43
0.0
 10
6021.281585453606
 20
6711.314757226962
 10
6021.281585453606
 20
6471.42243568143
 10
6784.752251682045
 20
6471.42243568143
 10
6784.752251682045
 20
6711.314757226962
  0
DIMENSION
  5
14BFF
330
747D
100
AcDbEntity
  8
寸法
100
AcDbDimension
  2
*D1
 10
7353.016918567806
 20
7061.791571166598
 30
0.0
 11
6403.01691856783
 21
7061.791571166598
 31
0.0
 70
   160
 71
     5
 42
1899.999999999982
  3
INABA_S40G
100
AcDbAlignedDimension
 13
5453.016918567824
 23
8048.893446026671
 33
0.0
 14
7353.016918567806
 24
8048.8934460268
 34
0.0
100
AcDbRotatedDimension
1001
ACAD
1000
DSTYLE
1002
{
1002
}
  0
LINE
  5
1508E
330
747D
100
AcDbEntity
  8
想像線
 48
10.0
100
AcDbLine
 10
7178.016918567824
 20
8048.893446026784
 30
0.0
 11
7178.016918567824
 21
7327.975802370994
 31
0.0
  0
LINE
  5
1508F
330
747D
100
AcDbEntity
  8
想像線
 48
10.0
100
AcDbLine
 10
6228.016918567824
 20
8048.893446026784
 30
0.0
 11
6228.016918567824
 21
7327.975802370994
 31
0.0
  0
ARC
  5
15090
330
747D
100
AcDbEntity
  8
想像線
 48
10.0
100
AcDbCircle
 10
7170.664867890668
 20
8050.588339402363
 30
0.0
 40
722.649936915561
100
AcDbArc
 50
180.1343808685491
 51
270.5829222700353
  0
ARC
  5
15092
330
747D
100
AcDbEntity
  8
想像線
 48
10.0
100
AcDbCircle
 10
6220.664867890667
 20
8050.588339402359
 30
0.0
 40
722.6499369155609
100
AcDbArc
 50
180.1343808685461
 51
270.5829222700353
  0
DIMENSION
  5
15093
330
747D
100
AcDbEntity
  8
寸法
 48
50.0
100
AcDbDimension
  2
*D2
 10
7143.016918567823
 20
7609.069778231663
 30
0.0
 11
6800.516918567826
 21
7609.069778231663
 31
0.0
 70
   160
  1
有効開口部間口\P<>
 71
     5
 42
684.9999999999964
  3
INABA_S40G
100
AcDbAlignedDimension
 13
6458.016918567827
 23
8048.893446026742
 33
0.0
 14
7143.016918567823
 24
8048.893446026704
 34
0.0
100
AcDbRotatedDimension
  0
DIMENSION
  5
15095
330
747D
100
AcDbEntity
  8
寸法
100
AcDbDimension
  2
*D3
 10
8000.443264302218
 20
8048.893446026832
 30
0.0
 11
8000.443264302216
 21
7671.031979121973
 31
0.0
 70
   160
 71
     5
 42
54.99999999999636
  3
INABA_S40G
100
AcDbAlignedDimension
 13
7353.016918567806
 23
8103.893446026829
 33
0.0
 14
7353.016918567806
 24
8048.893446026832
 34
0.0
 50
90.0
100
AcDbRotatedDimension
1001
ACAD
1000
DSTYLE
1002
{
1002
}
  0
DIMENSION
  5
15096
330
747D
100
AcDbEntity
  8
寸法
100
AcDbDimension
  2
*D4
 10
7353.016918567831
 20
9634.701665651824
 30
0.0
 11
7661.502199942072
 21
9634.701665651824
 31
0.0
 70
   160
 71
     5
 42
55.0
  3
INABA_S40G
100
AcDbAlignedDimension
 13
7298.016918567832
 23
9418.893446026842
 33
0.0
 14
7353.016918567831
 24
9418.893446026842
 34
0.0
100
AcDbRotatedDimension
1001
ACAD
1000
DSTYLE
1002
{
1002
}
  0
DIMENSION
  5
15097
330
747D
100
AcDbEntity
  8
寸法
100
AcDbDimension
  2
*D5
 10
8000.443264302242
 20
9363.893446026848
 30
0.0
 11
8000.443264302241
 21
9727.378727401083
 31
0.0
 70
   160
 71
     5
 42
54.99999999999636
  3
INABA_S40G
100
AcDbAlignedDimension
 13
7353.016918567831
 23
9418.893446026842
 33
0.0
 14
7353.016918567831
 24
9363.893446026848
 34
0.0
 50
90.0
100
AcDbRotatedDimension
1001
ACAD
1000
DSTYLE
1002
{
1002
}
  0
DIMENSION
  5
15098
330
747D
100
AcDbEntity
  8
寸法
100
AcDbDimension
  2
*D6
 10
8000.443264302242
 20
8103.893446026829
 30
0.0
 11
8000.443264302241
 21
8733.893446026838
 31
0.0
 70
   160
  1
3X420=<>
 71
     5
 42
1260.000000000018
  3
INABA_S40G
100
AcDbAlignedDimension
 13
7353.016918567831
 23
9363.893446026848
 33
0.0
 14
7353.016918567806
 24
8103.893446026829
 34
0.0
 50
90.0
100
AcDbRotatedDimension
1001
ACAD
1000
DSTYLE
1002
{
1002
}
  0
DIMENSION
  5
15099
330
747D
100
AcDbEntity
  8
寸法
100
AcDbDimension
  2
*D7
 10
8309.55479511792
 20
8048.893446026832
 30
0.0
 11
8309.554795117918
 21
8733.893446026838
 31
0.0
 70
   160
 71
     5
 42
1370.000000000011
  3
INABA_S40G
100
AcDbAlignedDimension
 13
7353.016918567831
 23
9418.893446026842
 33
0.0
 14
7353.016918567806
 24
8048.893446026832
 34
0.0
 50
90.0
100
AcDbRotatedDimension
1001
ACAD
1000
DSTYLE
1002
{
1002
}
  0
DIMENSION
  5
1509A
330
747D
100
AcDbEntity
  8
寸法
100
AcDbDimension
  2
*D8
 10
7679.374651107465
 20
8844.175630357831
 30
0.0
 11
7679.374651107464
 21
9069.175630357831
 31
0.0
 70
   160
 71
     5
 42
449.9999999999963
  3
INABA_S40G
100
AcDbAlignedDimension
 13
7324.016925245439
 23
9389.393446026716
 33
0.0
 14
7324.016925245451
 24
8939.393446026718
 34
0.0
 50
90.0
100
AcDbRotatedDimension
1001
ACAD
1000
DSTYLE
1002
{
1002
}
  0
DIMENSION
  5
1509B
330
747D
100
AcDbEntity
  8
寸法
 48
50.0
100
AcDbDimension
  2
*D9
 10
6458.016918567835
 20
9634.701665651846
 30
0.0
 11
6403.016918567832
 21
9894.995374399059
 31
0.0
 70
   160
 71
     5
 42
110.0000000000036
  3
INABA_S40G
100
AcDbAlignedDimension
 13
6348.016918567831
 23
9418.893446026869
 33
0.0
 14
6458.016918567835
 24
9418.893446026848
 34
0.0
100
AcDbRotatedDimension
1001
ACAD
1000
DSTYLE
1002
{
1070
   279
1070
     2
1002
}
  0
DIMENSION
  5
1509C
330
747D
100
AcDbEntity
  8
寸法
100
AcDbDimension
  2
*D10
 10
7298.016918567832
 20
9634.701665651846
 30
0.0
 11
6878.016918567832
 21
9634.701665651846
 31
0.0
 70
   160
  1
2X420=<>
 71
     5
 42
840.0
  3
INABA_S40G
100
AcDbAlignedDimension
 13
6458.016918567832
 23
9418.893446026782
 33
0.0
 14
7298.016918567832
 24
9418.893446026869
 34
0.0
100
AcDbRotatedDimension
1001
ACAD
1000
DSTYLE
1002
{
1002
}
  0
DIMENSION
  5
1509D
330
747D
100
AcDbEntity
  8
寸法
100
AcDbDimension
  2
*D11
 10
5508.016918567832
 20
9634.70166565173
 30
0.0
 11
5144.531637193558
 21
9634.70166565173
 31
0.0
 70
   160
 71
     5
 42
55.00000000003456
  3
INABA_S40G
100
AcDbAlignedDimension
 13
5453.016918567797
 23
9418.893446026748
 33
0.0
 14
5508.016918567832
 24
9418.893446026748
 34
0.0
100
AcDbRotatedDimension
1001
ACAD
1000
DSTYLE
1002
{
1002
}
  0
DIMENSION
  5
1509E
330
747D
100
AcDbEntity
  8
寸法
100
AcDbDimension
  2
*D12
 10
6348.016918567831
 20
9634.701665651846
 30
0.0
 11
5928.016918567831
 21
9634.701665651846
 31
0.0
 70
   160
  1
2X420=<>
 71
     5
 42
840.0
  3
INABA_S40G
100
AcDbAlignedDimension
 13
5508.016918567832
 23
9418.893446026782
 33
0.0
 14
6348.016918567831
 24
9418.893446026869
 34
0.0
100
AcDbRotatedDimension
1001
ACAD
1000
DSTYLE
1002
{
1002
}
  0
LINE
  5
150A0
330
747D
100
AcDbEntity
  8
部品1
100
AcDbLine
 10
6454.016918567823
 20
8048.893446026735
 30
0.0
 11
5453.016918567824
 21
8048.893446026704
 31
0.0
  0
LINE
  5
150A1
330
747D
100
AcDbEntity
  8
部品1
 48
5.0
100
AcDbLine
 10
5496.016918567826
 20
8078.393446026668
 30
0.0
 11
6379.016918567828
 21
8078.393446026726
 31
0.0
  0
LINE
  5
150A2
330
747D
100
AcDbEntity
  8
部品1
100
AcDbLine
 10
5482.016925245425
 20
9389.393446026723
 30
0.0
 11
6374.016925245428
 21
9389.393446026828
 31
0.0
  0
LINE
  5
150A3
330
747D
100
AcDbEntity
  8
細線
 48
50.0
100
AcDbLine
 10
6374.016925245425
 20
8939.393446026825
 30
0.0
 11
5482.016925245425
 21
9389.393446026723
 31
0.0
  0
LINE
  5
150A4
330
747D
100
AcDbEntity
  8
細線
 48
50.0
100
AcDbLine
 10
6374.016925245428
 20
9389.393446026826
 30
0.0
 11
5482.016925245427
 21
8939.393446026718
 31
0.0
  0
LINE
  5
150A5
330
747D
100
AcDbEntity
  8
部品1
100
AcDbLine
 10
5482.016925245429
 20
8939.393446026718
 30
0.0
 11
6374.016925245425
 21
8939.393446026825
 31
0.0
  0
LINE
  5
150A6
330
747D
100
AcDbEntity
  8
部品1
100
AcDbLine
 10
5481.016918567831
 20
9390.893446026749
 30
0.0
 11
6400.397621586453
 21
9390.893446026771
 31
0.0
  0
LINE
  5
150A7
330
747D
100
AcDbEntity
  8
部品1
100
AcDbLine
 10
5453.016918567832
 20
9418.893446026748
 30
0.0
 11
7353.016918567831
 21
9418.893446026842
 31
0.0
  0
LINE
  5
150A8
330
747D
100
AcDbEntity
  8
部品1
100
AcDbLine
 10
7353.016918567806
 20
8048.893446026832
 30
0.0
 11
5453.016918567824
 21
8048.893446026736
 31
0.0
  0
LINE
  5
150A9
330
747D
100
AcDbEntity
  8
破線
 48
10.0
100
AcDbLine
 10
6324.016918567817
 20
8203.893446026778
 30
0.0
 11
5533.016918567819
 21
8203.893446026755
 31
0.0
  0
LINE
  5
150AA
330
747D
100
AcDbEntity
  8
部品1
100
AcDbLine
 10
6347.517489015991
 20
8180.392865206831
 30
0.0
 11
5509.517889994218
 21
8180.39236371831
 31
0.0
  0
LINE
  5
150AB
330
747D
100
AcDbEntity
  8
部品1
 48
50.0
100
AcDbLine
 10
5927.516918567818
 20
8939.393446026775
 30
0.0
 11
5927.516755695712
 21
8180.392613863576
 31
0.0
  0
LINE
  5
150AC
330
747D
100
AcDbEntity
  8
破線
 48
10.0
100
AcDbLine
 10
5533.016983492533
 20
8939.393446026755
 30
0.0
 11
5533.016970869512
 21
8796.393474281227
 31
0.0
  0
LINE
  5
150AD
330
747D
100
AcDbEntity
  8
部品1
 48
5.0
100
AcDbLine
 10
5509.517889992789
 20
8180.393446026844
 30
0.0
 11
5509.517397061478
 21
8939.393446026755
 31
0.0
  0
LINE
  5
150AE
330
747D
100
AcDbEntity
  8
部品1
100
AcDbLine
 10
5481.016918567807
 20
8103.893446026701
 30
0.0
 11
5481.016918567831
 21
9390.893446026749
 31
0.0
  0
LINE
  5
150AF
330
747D
100
AcDbEntity
  8
部品1
100
AcDbLine
 10
5453.016918567797
 20
9418.893446026716
 30
0.0
 11
5453.016918567824
 21
8048.893446026704
 31
0.0
  0
LINE
  5
150B0
330
747D
100
AcDbEntity
  8
部品1
100
AcDbLine
 10
6228.016918567824
 20
8074.893446026804
 30
0.0
 11
5498.016918567824
 21
8074.893446026806
 31
0.0
  0
LINE
  5
150B1
330
747D
100
AcDbEntity
  8
部品1
 48
50.0
100
AcDbLine
 10
5509.517889994218
 20
8180.39236371831
 30
0.0
 11
5481.016918567807
 21
8151.373192785845
 31
0.0
  0
LINE
  5
150B2
330
747D
100
AcDbEntity
  8
部品1
100
AcDbLine
 10
5498.016918567824
 20
8074.893446026806
 30
0.0
 11
5498.016918567824
 21
8048.89344602677
 31
0.0
  0
LINE
  5
150B3
330
747D
100
AcDbEntity
  8
部品1
 48
2.83
100
AcDbLine
 10
5508.016918567824
 20
8103.893446026669
 30
0.0
 11
5508.016918567828
 21
8078.393446026668
 31
0.0
  0
LINE
  5
150B4
330
747D
100
AcDbEntity
  8
部品1
 48
2.83
100
AcDbLine
 10
5496.016918567826
 20
8078.393446026668
 30
0.0
 11
5496.016918567826
 21
8048.893446026669
 31
0.0
  0
LINE
  5
150B5
330
747D
100
AcDbEntity
  8
部品1
100
AcDbLine
 10
5453.016918567824
 20
8103.893446026669
 30
0.0
 11
5453.016918567824
 21
8048.893446026669
 31
0.0
  0
LINE
  5
150B6
330
747D
100
AcDbEntity
  8
部品1
 48
2.83
100
AcDbLine
 10
5453.016918567824
 20
8048.893446026669
 30
0.0
 11
5453.016918567826
 21
8103.893446026669
 31
0.0
  0
LINE
  5
150B7
330
747D
100
AcDbEntity
  8
部品1
100
AcDbLine
 10
5481.016918567824
 20
8103.893446026715
 30
0.0
 11
5453.016918567824
 21
8103.893446026715
 31
0.0
  0
LINE
  5
150B8
330
747D
100
AcDbEntity
  8
部品1
100
AcDbLine
 10
5481.016918567807
 20
8103.893446026701
 30
0.0
 11
5453.016918567824
 21
8103.893446026701
 31
0.0
  0
LINE
  5
150B9
330
747D
100
AcDbEntity
  8
部品1
100
AcDbLine
 10
5481.016918567807
 20
8103.893446026669
 30
0.0
 11
5453.016918567824
 21
8103.893446026669
 31
0.0
  0
LINE
  5
150BA
330
747D
100
AcDbEntity
  8
部品1
 48
2.83
100
AcDbLine
 10
5453.016918567826
 20
8103.893446026669
 30
0.0
 11
5476.016918567825
 21
8103.893446026669
 31
0.0
  0
LINE
  5
150BB
330
747D
100
AcDbEntity
  8
部品1
 48
2.83
100
AcDbLine
 10
5485.016918567826
 20
8103.893446026669
 30
0.0
 11
5508.016918567825
 21
8103.893446026669
 31
0.0
  0
LINE
  5
150BC
330
747D
100
AcDbEntity
  8
部品1
 48
2.83
100
AcDbLine
 10
5496.016918567826
 20
8048.893446026669
 30
0.0
 11
5453.016918567824
 21
8048.893446026669
 31
0.0
  0
LINE
  5
150BD
330
747D
100
AcDbEntity
  8
部品1
100
AcDbLine
 10
5481.016918567807
 20
8523.893446026717
 30
0.0
 11
5453.016918567806
 21
8523.893446026717
 31
0.0
  0
LINE
  5
150BE
330
747D
100
AcDbEntity
  8
部品1
 48
5.0
100
AcDbLine
 10
6230.016918567828
 20
8078.393446026785
 30
0.0
 11
6230.016918567828
 21
8048.893446026784
 31
0.0
  0
ARC
  5
150BF
330
747D
100
AcDbEntity
  8
部品1
 48
0.2
100
AcDbCircle
 10
6220.079366396501
 20
8049.891075982007
 30
0.0
 40
8.0
100
AcDbArc
 50
270.0
 51
352.8363522778074
  0
ARC
  5
150C0
330
747D
100
AcDbEntity
  8
部品1
 48
0.2
100
AcDbCircle
 10
6215.079366396501
 20
8049.891075982007
 30
0.0
 40
8.0
100
AcDbArc
 50
187.1636477221926
 51
269.9999999999992
  0
ARC
  5
150C1
330
747D
100
AcDbEntity
  8
細線
 48
0.2
100
AcDbCircle
 10
6220.079366396501
 20
8049.891075982007
 30
0.0
 40
4.049999999999999
100
AcDbArc
 50
194.2603506853988
 51
345.7396493146012
  0
LINE
  5
150C2
330
747D
100
AcDbEntity
  8
部品1
 48
0.2
100
AcDbLine
 10
6215.079366396501
 20
8041.891075982006
 30
0.0
 11
6220.079366396501
 21
8041.891075982006
 31
0.0
  0
LINE
  5
150C3
330
747D
100
AcDbEntity
  8
部品1
100
AcDbLine
 10
6228.016918567824
 20
8074.893446026839
 30
0.0
 11
6228.016918567824
 21
8048.893446026784
 31
0.0
  0
LINE
  5
150C4
330
747D
100
AcDbEntity
  8
部品1
 48
50.0
100
AcDbLine
 10
5482.016925245425
 20
9389.393446026716
 30
0.0
 11
5482.016925245427
 21
8939.393446026718
 31
0.0
  0
LINE
  5
150C5
330
747D
100
AcDbEntity
  8
部品1
100
AcDbLine
 10
5481.016918567807
 20
8943.893446026716
 30
0.0
 11
5453.016918567806
 21
8943.893446026716
 31
0.0
  0
LINE
  5
150C6
330
747D
100
AcDbEntity
  8
部品1
 48
50.0
100
AcDbLine
 10
5482.516925245422
 20
9389.393446026723
 30
0.0
 11
5481.016918567797
 21
9390.893446026716
 31
0.0
  0
LINE
  5
150C7
330
747D
100
AcDbEntity
  8
部品1
100
AcDbLine
 10
5508.016918567832
 20
9418.893446026748
 30
0.0
 11
5508.016918567832
 21
9390.893446026749
 31
0.0
  0
LINE
  5
150C8
330
747D
100
AcDbEntity
  8
部品1
100
AcDbLine
 10
5508.016918567797
 20
9418.893446026716
 30
0.0
 11
5508.016918567799
 21
9390.893446026716
 31
0.0
  0
LINE
  5
150C9
330
747D
100
AcDbEntity
  8
部品1
100
AcDbLine
 10
5481.016918567799
 20
9363.89344602672
 30
0.0
 11
5453.016918567799
 21
9363.89344602672
 31
0.0
  0
LINE
  5
150CA
330
747D
100
AcDbEntity
  8
部品1
100
AcDbLine
 10
5927.516918567762
 20
9418.893446026713
 30
0.0
 11
5927.516918567766
 21
9390.893446026712
 31
0.0
  0
LINE
  5
150CB
330
747D
100
AcDbEntity
  8
部品1
100
AcDbLine
 10
5927.516918567795
 20
9418.893446026741
 30
0.0
 11
5927.516918567795
 21
9390.893446026742
 31
0.0
  0
LINE
  5
150CC
330
747D
100
AcDbEntity
  8
部品1
 48
50.0
100
AcDbLine
 10
7297.51691856781
 20
8180.393446026796
 30
0.0
 11
7297.516918567788
 21
8939.39344602685
 31
0.0
  0
LINE
  5
150CD
330
747D
100
AcDbEntity
  8
破線
 48
10.0
100
AcDbLine
 10
7274.016918567816
 20
8203.893446026793
 30
0.0
 11
7274.016912405556
 21
8746.393402417087
 31
0.0
  0
LINE
  5
150CE
330
747D
100
AcDbEntity
  8
部品1
 48
50.0
100
AcDbLine
 10
6877.516918567817
 20
8939.393446026775
 30
0.0
 11
6877.516755695713
 21
8180.392613863576
 31
0.0
  0
LINE
  5
150CF
330
747D
100
AcDbEntity
  8
部品1
 48
50.0
100
AcDbLine
 10
6458.516912223524
 20
8180.393446051459
 30
0.0
 11
6458.516915196385
 21
8939.3934460268
 31
0.0
  0
LINE
  5
150D0
330
747D
100
AcDbEntity
  8
破線
 48
10.0
100
AcDbLine
 10
6482.016918567817
 20
8203.893446026802
 30
0.0
 11
6482.016909398713
 21
8746.393435108874
 31
0.0
  0
LINE
  5
150D1
330
747D
100
AcDbEntity
  8
部品1
 48
50.0
100
AcDbLine
 10
6347.516918567809
 20
8180.393446026796
 30
0.0
 11
6347.516918567787
 21
8939.39344602685
 31
0.0
  0
LINE
  5
150D2
330
747D
100
AcDbEntity
  8
破線
 48
10.0
100
AcDbLine
 10
6324.016918567817
 20
8203.893446026793
 30
0.0
 11
6324.016912405554
 21
8746.393441630722
 31
0.0
  0
LINE
  5
150D4
330
747D
100
AcDbEntity
  8
部品1
100
AcDbLine
 10
7325.016918567832
 20
9390.893446026842
 30
0.0
 11
7325.01691856781
 21
8103.893446026829
 31
0.0
  0
LINE
  5
150D5
330
747D
100
AcDbEntity
  8
部品1
100
AcDbLine
 10
7353.016918567831
 20
9418.893446026842
 30
0.0
 11
7353.016918567806
 21
8048.893446026832
 31
0.0
  0
LINE
  5
150D6
330
747D
100
AcDbEntity
  8
部品1
 48
50.0
100
AcDbLine
 10
7325.01691856781
 20
8103.893446026786
 30
0.0
 11
7325.016918567759
 21
9390.893446026796
 31
0.0
  0
LINE
  5
150D7
330
747D
100
AcDbEntity
  8
部品1
 48
50.0
100
AcDbLine
 10
6403.016918567809
 20
8103.893446026786
 30
0.0
 11
6403.016918567809
 21
9363.893446026796
 31
0.0
  0
LINE
  5
150D8
330
747D
100
AcDbEntity
  8
部品1
 48
50.0
100
AcDbLine
 10
6375.016918567809
 20
8103.893446026786
 30
0.0
 11
6375.016918567759
 21
9390.893446026796
 31
0.0
  0
LINE
  5
150D9
330
747D
100
AcDbEntity
  8
部品1
 48
50.0
100
AcDbLine
 10
6431.016918567809
 20
8103.893446026786
 30
0.0
 11
6431.016918567755
 21
9418.893446026796
 31
0.0
  0
LINE
  5
150DA
330
747D
100
AcDbEntity
  8
部品1
100
AcDbLine
 10
7178.016918567824
 20
8074.893446026836
 30
0.0
 11
6448.016918567825
 21
8074.893446026806
 31
0.0
  0
LINE
  5
150DB
330
747D
100
AcDbEntity
  8
破線
 48
10.0
100
AcDbLine
 10
7274.016918567816
 20
8203.893446026794
 30
0.0
 11
6482.016918567817
 21
8203.893446026778
 31
0.0
  0
LINE
  5
150DC
330
747D
100
AcDbEntity
  8
部品1
100
AcDbLine
 10
7297.51691856781
 20
8180.393446026796
 30
0.0
 11
6458.516425313927
 21
8180.392943829319
 31
0.0
  0
LINE
  5
150DD
330
747D
100
AcDbEntity
  8
部品1
 48
5.0
100
AcDbLine
 10
6427.016918567828
 20
8078.39344602673
 30
0.0
 11
7329.016918567828
 21
8078.393446026785
 31
0.0
  0
LINE
  5
150DE
330
747D
100
AcDbEntity
  8
部品1
 48
50.0
100
AcDbLine
 10
6458.516918567809
 20
8180.393446051459
 30
0.0
 11
6431.016918567809
 21
8152.393446026785
 31
0.0
  0
LINE
  5
150DF
330
747D
100
AcDbEntity
  8
部品1
 48
5.0
100
AcDbLine
 10
6435.016918567828
 20
8103.893446026786
 30
0.0
 11
6458.016918567827
 21
8103.893446026786
 31
0.0
  0
LINE
  5
150E0
330
747D
100
AcDbEntity
  8
部品1
 48
5.0
100
AcDbLine
 10
6427.016918567828
 20
8103.893446026786
 30
0.0
 11
6427.016918567828
 21
8078.393446026785
 31
0.0
  0
LINE
  5
150E1
330
747D
100
AcDbEntity
  8
部品1
 48
5.0
100
AcDbLine
 10
6458.016918567827
 20
8103.893446026786
 30
0.0
 11
6458.016918567827
 21
8078.393446026785
 31
0.0
  0
LINE
  5
150E2
330
747D
100
AcDbEntity
  8
部品1
 48
5.0
100
AcDbLine
 10
6446.016918567828
 20
8078.393446026785
 30
0.0
 11
6446.016918567828
 21
8048.893446026784
 31
0.0
  0
LINE
  5
150E3
330
747D
100
AcDbEntity
  8
部品1
100
AcDbLine
 10
6446.016918567824
 20
8078.393446026742
 30
0.0
 11
6446.016918567828
 21
8048.893446026784
 31
0.0
  0
LINE
  5
150E4
330
747D
100
AcDbEntity
  8
部品1
100
AcDbLine
 10
6448.016918567825
 20
8074.893446026806
 30
0.0
 11
6448.016918567825
 21
8048.89344602677
 31
0.0
  0
LINE
  5
150E5
330
747D
100
AcDbEntity
  8
部品1
 48
50.0
100
AcDbLine
 10
6375.016918567809
 20
8152.393446026785
 30
0.0
 11
6347.516918567809
 21
8180.393446026796
 31
0.0
  0
LINE
  5
150E6
330
747D
100
AcDbEntity
  8
部品1
 48
5.0
100
AcDbLine
 10
6371.016918567828
 20
8103.893446026786
 30
0.0
 11
6348.016918567824
 21
8103.893446026786
 31
0.0
  0
LINE
  5
150E7
330
747D
100
AcDbEntity
  8
部品1
 48
5.0
100
AcDbLine
 10
6348.016918567828
 20
8103.893446026788
 30
0.0
 11
6348.016918567828
 21
8078.393446026785
 31
0.0
  0
LINE
  5
150E8
330
747D
100
AcDbEntity
  8
部品1
 48
5.0
100
AcDbLine
 10
6379.016918567828
 20
8103.893446026786
 30
0.0
 11
6379.016918567828
 21
8078.393446026785
 31
0.0
  0
LINE
  5
150E9
330
747D
100
AcDbEntity
  8
部品1
 48
5.0
100
AcDbLine
 10
6360.016918567828
 20
8078.393446026785
 30
0.0
 11
6360.016918567828
 21
8048.893446026784
 31
0.0
  0
LINE
  5
150EA
330
747D
100
AcDbEntity
  8
部品1
100
AcDbLine
 10
6360.016918567824
 20
8078.393446026733
 30
0.0
 11
6360.016918567824
 21
8048.893446026781
 31
0.0
  0
LINE
  5
150EB
330
747D
100
AcDbEntity
  8
部品1
 48
5.0
100
AcDbLine
 10
6360.016918567828
 20
8048.893446026784
 30
0.0
 11
6446.016918567828
 21
8048.893446026784
 31
0.0
  0
LINE
  5
150EC
330
747D
100
AcDbEntity
  8
部品1
 48
5.0
100
AcDbLine
 10
6375.016918567809
 20
8103.893446026786
 30
0.0
 11
6431.016918567809
 21
8103.893446026786
 31
0.0
  0
LINE
  5
150ED
330
747D
100
AcDbEntity
  8
部品1
 48
5.0
100
AcDbLine
 10
6403.016918567809
 20
8523.893446026793
 30
0.0
 11
6375.016918567759
 21
8523.893446026795
 31
0.0
  0
ARC
  5
150EE
330
747D
100
AcDbEntity
  8
部品1
 48
0.2
100
AcDbCircle
 10
7170.079366396501
 20
8049.891075982007
 30
0.0
 40
8.0
100
AcDbArc
 50
270.0
 51
352.8363522778074
  0
ARC
  5
150EF
330
747D
100
AcDbEntity
  8
細線
 48
0.2
100
AcDbCircle
 10
7170.079366396501
 20
8049.891075982007
 30
0.0
 40
4.049999999999999
100
AcDbArc
 50
194.2603506853988
 51
345.7396493146012
  0
LINE
  5
150F0
330
747D
100
AcDbEntity
  8
部品1
 48
0.2
100
AcDbLine
 10
7165.079366396502
 20
8041.891075982006
 30
0.0
 11
7170.079366396501
 21
8041.891075982006
 31
0.0
  0
ARC
  5
150F1
330
747D
100
AcDbEntity
  8
部品1
 48
0.2
100
AcDbCircle
 10
7165.079366396502
 20
8049.891075982007
 30
0.0
 40
8.0
100
AcDbArc
 50
187.1636477221926
 51
269.9999999999992
  0
LINE
  5
150F2
330
747D
100
AcDbEntity
  8
部品1
 48
5.0
100
AcDbLine
 10
7180.016918567829
 20
8078.393446026785
 30
0.0
 11
7180.016918567829
 21
8048.893446026784
 31
0.0
  0
LINE
  5
150F3
330
747D
100
AcDbEntity
  8
部品1
100
AcDbLine
 10
7178.016918567824
 20
8074.893446026839
 30
0.0
 11
7178.016918567824
 21
8048.893446026784
 31
0.0
  0
LINE
  5
150F4
330
747D
100
AcDbEntity
  8
部品1
100
AcDbLine
 10
7325.016918567839
 20
8103.893446026846
 30
0.0
 11
7353.016918567838
 21
8103.893446026846
 31
0.0
  0
LINE
  5
150F5
330
747D
100
AcDbEntity
  8
部品1
100
AcDbLine
 10
7325.01691856781
 20
8103.893446026829
 30
0.0
 11
7353.016918567806
 21
8103.893446026829
 31
0.0
  0
LINE
  5
150F6
330
747D
100
AcDbEntity
  8
部品1
 48
2.83
100
AcDbLine
 10
7353.016918567806
 20
8103.8934460268
 30
0.0
 11
7330.016918567806
 21
8103.8934460268
 31
0.0
  0
LINE
  5
150F7
330
747D
100
AcDbEntity
  8
部品1
 48
50.0
100
AcDbLine
 10
7325.01691856781
 20
8152.393446026785
 30
0.0
 11
7297.51691856781
 21
8180.393446026796
 31
0.0
  0
LINE
  5
150F8
330
747D
100
AcDbEntity
  8
部品1
 48
2.83
100
AcDbLine
 10
7321.016918567806
 20
8103.8934460268
 30
0.0
 11
7298.016918567807
 21
8103.8934460268
 31
0.0
  0
LINE
  5
150F9
330
747D
100
AcDbEntity
  8
部品1
 48
2.83
100
AcDbLine
 10
7298.016918567807
 20
8103.8934460268
 30
0.0
 11
7298.016918567807
 21
8078.393446026799
 31
0.0
  0
LINE
  5
150FA
330
747D
100
AcDbEntity
  8
部品1
 48
2.83
100
AcDbLine
 10
7310.016918567805
 20
8078.393446026799
 30
0.0
 11
7310.016918567805
 21
8048.8934460268
 31
0.0
  0
LINE
  5
150FB
330
747D
100
AcDbEntity
  8
部品1
 48
5.0
100
AcDbLine
 10
7329.016918567828
 20
8103.893446026786
 30
0.0
 11
7329.016918567828
 21
8078.393446026785
 31
0.0
  0
LINE
  5
150FC
330
747D
100
AcDbEntity
  8
部品1
 48
5.0
100
AcDbLine
 10
7298.016918567828
 20
8103.893446026788
 30
0.0
 11
7298.016918567828
 21
8078.393446026785
 31
0.0
  0
LINE
  5
150FD
330
747D
100
AcDbEntity
  8
部品1
 48
5.0
100
AcDbLine
 10
7310.016918567828
 20
8078.393446026785
 30
0.0
 11
7310.016918567828
 21
8048.893446026784
 31
0.0
  0
LINE
  5
150FE
330
747D
100
AcDbEntity
  8
部品1
100
AcDbLine
 10
7310.016918567824
 20
8078.393446026733
 30
0.0
 11
7310.016918567824
 21
8048.893446026781
 31
0.0
  0
LINE
  5
150FF
330
747D
100
AcDbEntity
  8
部品1
 48
5.0
100
AcDbLine
 10
7321.016918567828
 20
8103.893446026786
 30
0.0
 11
7298.016918567824
 21
8103.893446026786
 31
0.0
  0
LINE
  5
15100
330
747D
100
AcDbEntity
  8
部品1
100
AcDbLine
 10
7325.016918567832
 20
8523.893446026846
 30
0.0
 11
7353.016918567831
 21
8523.893446026846
 31
0.0
  0
LINE
  5
15101
330
747D
100
AcDbEntity
  8
部品1
100
AcDbLine
 10
6431.016918567781
 20
9390.893446026774
 30
0.0
 11
7325.016918567832
 21
9390.893446026796
 31
0.0
  0
LINE
  5
15102
330
747D
100
AcDbEntity
  8
部品1
100
AcDbLine
 10
6432.016925245425
 20
9389.393446026723
 30
0.0
 11
7324.016925245429
 21
9389.393446026828
 31
0.0
  0
LINE
  5
15103
330
747D
100
AcDbEntity
  8
部品1
100
AcDbLine
 10
6432.016925245429
 20
8939.393446026718
 30
0.0
 11
7324.016925245425
 21
8939.393446026825
 31
0.0
  0
LINE
  5
15104
330
747D
100
AcDbEntity
  8
細線
 48
50.0
100
AcDbLine
 10
7324.016925245429
 20
9389.393446026826
 30
0.0
 11
6432.016925245429
 21
8939.393446026718
 31
0.0
  0
LINE
  5
15105
330
747D
100
AcDbEntity
  8
細線
 48
50.0
100
AcDbLine
 10
7324.016925245425
 20
8939.393446026825
 30
0.0
 11
6432.016925245425
 21
9389.393446026723
 31
0.0
  0
LINE
  5
15106
330
747D
100
AcDbEntity
  8
部品1
 48
50.0
100
AcDbLine
 10
6374.016925245428
 20
9389.393446026826
 30
0.0
 11
6374.016925245428
 21
8939.393446026825
 31
0.0
  0
LINE
  5
15107
330
747D
100
AcDbEntity
  8
部品1
 48
50.0
100
AcDbLine
 10
6432.016925245425
 20
9389.393446026716
 30
0.0
 11
6432.016925245429
 21
8939.393446026718
 31
0.0
  0
LINE
  5
15108
330
747D
100
AcDbEntity
  8
部品1
 48
50.0
100
AcDbLine
 10
6403.016918567802
 20
8981.893446026795
 30
0.0
 11
6431.016918567788
 21
8981.8934460268
 31
0.0
  0
LINE
  5
15109
330
747D
100
AcDbEntity
  8
部品1
 48
50.0
100
AcDbLine
 10
6403.016918567802
 20
8943.893446026796
 30
0.0
 11
6431.016918567788
 21
8943.893446026798
 31
0.0
  0
LINE
  5
1510A
330
747D
100
AcDbEntity
  8
部品1
 48
5.0
100
AcDbLine
 10
6403.016918567809
 20
8943.893446026791
 30
0.0
 11
6375.016918567759
 21
8943.893446026796
 31
0.0
  0
LINE
  5
1510B
330
747D
100
AcDbEntity
  8
部品1
 48
5.0
100
AcDbLine
 10
6458.016918567835
 20
9418.893446026798
 30
0.0
 11
6458.016918567827
 21
9390.893446026799
 31
0.0
  0
LINE
  5
1510C
330
747D
100
AcDbEntity
  8
部品1
 48
50.0
100
AcDbLine
 10
6432.516925245422
 20
9389.393446026723
 30
0.0
 11
6431.016918567795
 21
9390.893446026716
 31
0.0
  0
LINE
  5
1510D
330
747D
100
AcDbEntity
  8
部品1
 48
5.0
100
AcDbLine
 10
6348.016918567831
 20
9390.893446026792
 30
0.0
 11
6348.016918567831
 21
9418.893446026791
 31
0.0
  0
LINE
  5
1510E
330
747D
100
AcDbEntity
  8
部品1
 48
50.0
100
AcDbLine
 10
6373.569526055849
 20
9389.393446026828
 30
0.0
 11
6375.016918567722
 21
9390.893446026764
 31
0.0
  0
LINE
  5
1510F
330
747D
100
AcDbEntity
  8
部品1
 48
5.0
100
AcDbLine
 10
6431.01691856776
 20
9363.893446026796
 30
0.0
 11
6375.016918567759
 21
9363.893446026796
 31
0.0
  0
LINE
  5
15110
330
747D
100
AcDbEntity
  8
部品1
 48
5.0
100
AcDbLine
 10
6377.726193015005
 20
9418.893446026791
 30
0.0
 11
6400.397621586435
 21
9390.893446026796
 31
0.0
  0
LINE
  5
15111
330
747D
100
AcDbEntity
  8
部品1
100
AcDbLine
 10
6877.516918567796
 20
9418.893446026817
 30
0.0
 11
6877.516918567796
 21
9390.893446026817
 31
0.0
  0
LINE
  5
15112
330
747D
100
AcDbEntity
  8
部品1
100
AcDbLine
 10
6877.516918567763
 20
9418.893446026789
 30
0.0
 11
6877.516918567765
 21
9390.893446026788
 31
0.0
  0
LINE
  5
15113
330
747D
100
AcDbEntity
  8
部品1
 48
50.0
100
AcDbLine
 10
7324.016925245429
 20
9389.393446026826
 30
0.0
 11
7324.016925245429
 21
8939.393446026825
 31
0.0
  0
LINE
  5
15114
330
747D
100
AcDbEntity
  8
部品1
 48
50.0
100
AcDbLine
 10
7324.016925245429
 20
9389.393446026826
 30
0.0
 11
7324.016925245429
 21
8939.393446026825
 31
0.0
  0
LINE
  5
15115
330
747D
100
AcDbEntity
  8
部品1
100
AcDbLine
 10
7325.016918567832
 20
8943.893446026846
 30
0.0
 11
7353.016918567831
 21
8943.893446026846
 31
0.0
  0
LINE
  5
15116
330
747D
100
AcDbEntity
  8
部品1
100
AcDbLine
 10
7298.016918567832
 20
9418.893446026862
 30
0.0
 11
7298.016918567832
 21
9390.893446026861
 31
0.0
  0
LINE
  5
15117
330
747D
100
AcDbEntity
  8
部品1
100
AcDbLine
 10
7298.016918567832
 20
9418.893446026842
 30
0.0
 11
7298.016918567832
 21
9390.893446026842
 31
0.0
  0
LINE
  5
15118
330
747D
100
AcDbEntity
  8
部品1
 48
50.0
100
AcDbLine
 10
7323.56952605585
 20
9389.393446026828
 30
0.0
 11
7325.016918567722
 21
9390.893446026764
 31
0.0
  0
LINE
  5
15119
330
747D
100
AcDbEntity
  8
部品1
 48
50.0
100
AcDbLine
 10
7323.56952605585
 20
9389.393446026828
 30
0.0
 11
7325.016918567722
 21
9390.893446026764
 31
0.0
  0
LINE
  5
1511A
330
747D
100
AcDbEntity
  8
部品1
 48
5.0
100
AcDbLine
 10
7298.016918567832
 20
9390.893446026792
 30
0.0
 11
7298.016918567832
 21
9418.893446026791
 31
0.0
  0
LINE
  5
1511B
330
747D
100
AcDbEntity
  8
部品1
100
AcDbLine
 10
7325.016918567832
 20
9363.893446026848
 30
0.0
 11
7353.016918567831
 21
9363.893446026848
 31
0.0
  0
LINE
  5
153F0
330
747D
100
AcDbEntity
  8
細線
 48
50.0
100
AcDbLine
 10
6035.01691856782
 20
8074.89344602709
 30
0.0
 11
6035.01691856782
 21
8048.893446027054
 31
0.0
  0
LINE
  5
153F1
330
747D
100
AcDbEntity
  8
細線
 48
50.0
100
AcDbLine
 10
6075.01691856782
 20
8074.89344602709
 30
0.0
 11
6075.01691856782
 21
8048.893446027054
 31
0.0
  0
LINE
  5
153F5
330
747D
100
AcDbEntity
  8
細線
 48
50.0
100
AcDbLine
 10
7025.01691856782
 20
8074.89344602709
 30
0.0
 11
7025.01691856782
 21
8048.893446027054
 31
0.0
  0
LINE
  5
153F6
330
747D
100
AcDbEntity
  8
細線
 48
50.0
100
AcDbLine
 10
6985.016918567821
 20
8074.89344602709
 30
0.0
 11
6985.016918567821
 21
8048.893446027054
 31
0.0
  0
DIMENSION
  5
1549E
330
747D
100
AcDbEntity
  8
寸法
 48
50.0
100
AcDbDimension
  2
*D13
 10
6193.016918567824
 20
7609.069778231663
 30
0.0
 11
5850.516918567826
 21
7609.069778231663
 31
0.0
 70
   160
 71
     5
 42
684.9999999999964
  3
INABA_S40G
100
AcDbAlignedDimension
 13
5508.016918567828
 23
8048.893446026742
 33
0.0
 14
6193.016918567824
 24
8048.893446026704
 34
0.0
100
AcDbRotatedDimension
  0
ARC
  5
15890
330
747D
100
AcDbEntity
  8
部品1
 48
0.01
100
AcDbCircle
 10
6966.016918567821
 20
5134.604807812173
 30
0.0
 40
2.0
100
AcDbArc
 50
270.0
 51
0.0
  0
ARC
  5
15891
330
747D
100
AcDbEntity
  8
部品1
 48
0.01
100
AcDbCircle
 10
6966.016918567824
 20
5166.104807812173
 30
0.0
 40
2.0
100
AcDbArc
 50
0.0
 51
90.0
  0
ARC
  5
15892
330
747D
100
AcDbEntity
  8
部品1
 48
0.01
100
AcDbCircle
 10
6790.016918567824
 20
5134.604807812173
 30
0.0
 40
2.0
100
AcDbArc
 50
180.0
 51
270.0
  0
ARC
  5
15893
330
747D
100
AcDbEntity
  8
部品1
 48
0.01
100
AcDbCircle
 10
6790.016918567824
 20
5166.104807812173
 30
0.0
 40
2.0
100
AcDbArc
 50
90.0
 51
180.0
  0
LINE
  5
15894
330
747D
100
AcDbEntity
  8
細線
100
AcDbLine
 10
6878.01691856782
 20
5138.604807812173
 30
0.0
 11
6952.016918567824
 21
5138.604807812173
 31
0.0
  0
LINE
  5
15895
330
747D
100
AcDbEntity
  8
細線
100
AcDbLine
 10
6878.016918567825
 20
5161.604807812173
 30
0.0
 11
6804.016918567824
 21
5161.604807812173
 31
0.0
  0
LINE
  5
15896
330
747D
100
AcDbEntity
  8
細線
100
AcDbLine
 10
6804.016918567824
 20
5138.604807812173
 30
0.0
 11
6878.016918567825
 21
5138.604807812173
 31
0.0
  0
LINE
  5
15897
330
747D
100
AcDbEntity
  8
細線
100
AcDbLine
 10
6952.016918567824
 20
5161.604807812173
 30
0.0
 11
6878.016918567825
 21
5161.604807812173
 31
0.0
  0
LINE
  5
15898
330
747D
100
AcDbEntity
  8
細線
100
AcDbLine
 10
6952.016918567824
 20
5138.604807812173
 30
0.0
 11
6952.016918567824
 21
5161.604807812173
 31
0.0
  0
LINE
  5
15899
330
747D
100
AcDbEntity
  8
細線
100
AcDbLine
 10
6804.016918567824
 20
5161.604807812173
 30
0.0
 11
6804.016918567824
 21
5138.604807812173
 31
0.0
  0
LINE
  5
1589A
330
747D
100
AcDbEntity
  8
部品1
 48
0.01
100
AcDbLine
 10
6968.016918567821
 20
5134.604807812173
 30
0.0
 11
6968.016918567824
 21
5166.104807812173
 31
0.0
  0
LINE
  5
1589B
330
747D
100
AcDbEntity
  8
部品1
 48
0.01
100
AcDbLine
 10
6790.016918567824
 20
5132.604807812173
 30
0.0
 11
6966.016918567821
 21
5132.604807812173
 31
0.0
  0
LINE
  5
1589C
330
747D
100
AcDbEntity
  8
部品1
 48
0.01
100
AcDbLine
 10
6788.016918567824
 20
5166.104807812173
 30
0.0
 11
6788.016918567824
 21
5134.604807812173
 31
0.0
  0
LINE
  5
1589D
330
747D
100
AcDbEntity
  8
部品1
 48
0.01
100
AcDbLine
 10
6966.016918567824
 20
5168.104807812174
 30
0.0
 11
6790.016918567824
 21
5168.104807812174
 31
0.0
  0
LINE
  5
1589E
330
747D
100
AcDbEntity
  8
細線
100
AcDbLine
 10
6804.016918567824
 20
5155.604807812173
 30
0.0
 11
6878.016918567825
 21
5155.604807812173
 31
0.0
  0
LINE
  5
1589F
330
747D
100
AcDbEntity
  8
細線
100
AcDbLine
 10
6804.016918567824
 20
5149.604807812173
 30
0.0
 11
6878.016918567825
 21
5149.604807812173
 31
0.0
  0
LINE
  5
158A0
330
747D
100
AcDbEntity
  8
細線
100
AcDbLine
 10
6804.016918567821
 20
5143.604807812173
 30
0.0
 11
6878.016918567825
 21
5143.604807812173
 31
0.0
  0
LINE
  5
158A1
330
747D
100
AcDbEntity
  8
細線
100
AcDbLine
 10
6804.016918567824
 20
5155.604807812173
 30
0.0
 11
6873.016918567825
 21
5155.604807812173
 31
0.0
  0
LINE
  5
158A2
330
747D
100
AcDbEntity
  8
細線
100
AcDbLine
 10
6952.016918567821
 20
5155.604807812173
 30
0.0
 11
6878.016918567825
 21
5155.604807812173
 31
0.0
  0
LINE
  5
158A3
330
747D
100
AcDbEntity
  8
細線
100
AcDbLine
 10
6952.016918567821
 20
5143.604807812173
 30
0.0
 11
6878.016918567825
 21
5143.604807812173
 31
0.0
  0
LINE
  5
158A4
330
747D
100
AcDbEntity
  8
細線
100
AcDbLine
 10
6952.016918567821
 20
5149.604807812173
 30
0.0
 11
6878.016918567825
 21
5149.604807812173
 31
0.0
  0
LINE
  5
158A5
330
747D
100
AcDbEntity
  8
細線
100
AcDbLine
 10
6878.016918567825
 20
5161.604807812173
 30
0.0
 11
6878.01691856782
 21
5138.604807812173
 31
0.0
  0
LINE
  5
158A6
330
747D
100
AcDbEntity
  8
細線
100
AcDbLine
 10
5928.016918567823
 20
5161.604807812175
 30
0.0
 11
5928.01691856782
 21
5138.604807812175
 31
0.0
  0
LINE
  5
158A7
330
747D
100
AcDbEntity
  8
細線
100
AcDbLine
 10
6002.016918567821
 20
5149.604807812175
 30
0.0
 11
5928.016918567823
 21
5149.604807812175
 31
0.0
  0
LINE
  5
158A8
330
747D
100
AcDbEntity
  8
細線
100
AcDbLine
 10
6002.016918567821
 20
5143.604807812175
 30
0.0
 11
5928.016918567823
 21
5143.604807812175
 31
0.0
  0
LINE
  5
158A9
330
747D
100
AcDbEntity
  8
細線
100
AcDbLine
 10
6002.016918567821
 20
5155.604807812174
 30
0.0
 11
5928.016918567823
 21
5155.604807812174
 31
0.0
  0
LINE
  5
158AA
330
747D
100
AcDbEntity
  8
細線
100
AcDbLine
 10
5854.016918567825
 20
5155.604807812174
 30
0.0
 11
5923.016918567824
 21
5155.604807812174
 31
0.0
  0
LINE
  5
158AB
330
747D
100
AcDbEntity
  8
細線
100
AcDbLine
 10
5854.016918567821
 20
5143.604807812175
 30
0.0
 11
5928.016918567823
 21
5143.604807812175
 31
0.0
  0
LINE
  5
158AC
330
747D
100
AcDbEntity
  8
細線
100
AcDbLine
 10
5854.016918567825
 20
5149.604807812175
 30
0.0
 11
5928.016918567823
 21
5149.604807812175
 31
0.0
  0
LINE
  5
158AD
330
747D
100
AcDbEntity
  8
細線
100
AcDbLine
 10
5854.016918567825
 20
5155.604807812174
 30
0.0
 11
5928.016918567823
 21
5155.604807812174
 31
0.0
  0
LINE
  5
158AE
330
747D
100
AcDbEntity
  8
部品1
 48
0.01
100
AcDbLine
 10
6016.016918567824
 20
5168.104807812174
 30
0.0
 11
5840.016918567824
 21
5168.104807812174
 31
0.0
  0
LINE
  5
158AF
330
747D
100
AcDbEntity
  8
部品1
 48
0.01
100
AcDbLine
 10
5838.016918567824
 20
5166.104807812175
 30
0.0
 11
5838.016918567824
 21
5134.604807812174
 31
0.0
  0
LINE
  5
158B0
330
747D
100
AcDbEntity
  8
部品1
 48
0.01
100
AcDbLine
 10
5840.016918567824
 20
5132.604807812175
 30
0.0
 11
6016.016918567821
 21
5132.604807812175
 31
0.0
  0
LINE
  5
158B1
330
747D
100
AcDbEntity
  8
部品1
 48
0.01
100
AcDbLine
 10
6018.016918567821
 20
5134.604807812174
 30
0.0
 11
6018.016918567824
 21
5166.104807812175
 31
0.0
  0
LINE
  5
158B2
330
747D
100
AcDbEntity
  8
細線
100
AcDbLine
 10
5854.016918567825
 20
5161.604807812175
 30
0.0
 11
5854.016918567825
 21
5138.604807812175
 31
0.0
  0
LINE
  5
158B3
330
747D
100
AcDbEntity
  8
細線
100
AcDbLine
 10
6002.016918567824
 20
5138.604807812175
 30
0.0
 11
6002.016918567824
 21
5161.604807812175
 31
0.0
  0
LINE
  5
158B4
330
747D
100
AcDbEntity
  8
細線
100
AcDbLine
 10
6002.016918567824
 20
5161.604807812175
 30
0.0
 11
5928.016918567823
 21
5161.604807812175
 31
0.0
  0
LINE
  5
158B5
330
747D
100
AcDbEntity
  8
細線
100
AcDbLine
 10
5854.016918567825
 20
5138.604807812175
 30
0.0
 11
5928.016918567823
 21
5138.604807812175
 31
0.0
  0
LINE
  5
158B6
330
747D
100
AcDbEntity
  8
細線
100
AcDbLine
 10
5928.016918567823
 20
5161.604807812175
 30
0.0
 11
5854.016918567825
 21
5161.604807812175
 31
0.0
  0
LINE
  5
158B7
330
747D
100
AcDbEntity
  8
細線
100
AcDbLine
 10
5928.01691856782
 20
5138.604807812175
 30
0.0
 11
6002.016918567824
 21
5138.604807812175
 31
0.0
  0
ARC
  5
158B8
330
747D
100
AcDbEntity
  8
部品1
 48
0.01
100
AcDbCircle
 10
5840.016918567824
 20
5166.104807812175
 30
0.0
 40
2.0
100
AcDbArc
 50
90.0
 51
180.0
  0
ARC
  5
158B9
330
747D
100
AcDbEntity
  8
部品1
 48
0.01
100
AcDbCircle
 10
5840.016918567824
 20
5134.604807812174
 30
0.0
 40
2.0
100
AcDbArc
 50
180.0
 51
270.0
  0
ARC
  5
158BA
330
747D
100
AcDbEntity
  8
部品1
 48
0.01
100
AcDbCircle
 10
6016.016918567824
 20
5166.104807812175
 30
0.0
 40
2.0
100
AcDbArc
 50
0.0
 51
90.0
  0
ARC
  5
158BB
330
747D
100
AcDbEntity
  8
部品1
 48
0.01
100
AcDbCircle
 10
6016.016918567821
 20
5134.604807812174
 30
0.0
 40
2.0
100
AcDbArc
 50
270.0
 51
0.0
  0
ARC
  5
158BC
330
747D
100
AcDbEntity
  8
部品1
100
AcDbCircle
 10
7395.608497461395
 20
5330.104807812179
 30
0.0
 40
7.0
100
AcDbArc
 50
356.7526572096623
 51
90.0
  0
ARC
  5
158BD
330
747D
100
AcDbEntity
  8
部品1
100
AcDbCircle
 10
7382.393174000362
 20
5203.104807812181
 30
0.0
 40
7.0
100
AcDbArc
 50
270.0
 51
356.7526572096623
  0
ARC
  5
158BE
330
747D
100
AcDbEntity
  8
部品1
 48
50.0
100
AcDbCircle
 10
7400.764984211041
 20
5309.771806973866
 30
0.0
 40
0.7
100
AcDbArc
 50
277.6581272073652
 51
356.7526572096103
  0
ARC
  5
158BF
330
747D
100
AcDbEntity
  8
部品1
 48
50.0
100
AcDbCircle
 10
7392.528953686197
 20
5217.571806973861
 30
0.0
 40
0.7
100
AcDbArc
 50
277.6581272073652
 51
356.7526572097143
  0
ARC
  5
158C0
330
747D
100
AcDbEntity
  8
部品1
 48
50.0
100
AcDbCircle
 10
7393.022022794757
 20
5213.904807812178
 30
0.0
 40
3.0
100
AcDbArc
 50
97.65812720736519
 51
176.7526572096623
  0
ARC
  5
158C1
330
747D
100
AcDbEntity
  8
部品1
 48
50.0
100
AcDbCircle
 10
7401.258053319601
 20
5306.104807812181
 30
0.0
 40
3.0
100
AcDbArc
 50
97.65812720736519
 51
176.7526572096623
  0
LINE
  5
158C2
330
747D
100
AcDbEntity
  8
部品1
100
AcDbLine
 10
7398.262870423415
 20
5306.274747267281
 30
0.0
 11
7393.227829695304
 21
5217.532154434339
 31
0.0
  0
LINE
  5
158C3
330
747D
100
AcDbEntity
  8
部品1
100
AcDbLine
 10
7390.026839898571
 20
5214.074747267281
 30
0.0
 11
7389.38193409146
 21
5202.708282416941
 31
0.0
  0
LINE
  5
158C4
330
747D
100
AcDbEntity
  8
細線
 48
50.0
100
AcDbLine
 10
7370.016918567827
 20
5337.104807812178
 30
0.0
 11
7370.016918567827
 21
5196.104807812178
 31
0.0
  0
LINE
  5
158C5
330
747D
100
AcDbEntity
  8
部品1
100
AcDbLine
 10
7402.597257552494
 20
5329.708282416939
 30
0.0
 11
7401.463860220149
 21
5309.732154434339
 31
0.0
  0
DIMENSION
  5
158C6
330
747D
100
AcDbEntity
  8
寸法
 48
50.0
100
AcDbDimension
  2
*D14
 10
7353.016918567828
 20
5549.646393070419
 30
0.0
 11
7716.502199942064
 21
5549.646393070419
 31
0.0
 70
   160
 71
     5
 42
50.0
  3
INABA_S40G
100
AcDbAlignedDimension
 13
7403.016918567828
 23
5337.104807812178
 33
0.0
 14
7353.016918567828
 24
5337.10480781218
 34
0.0
100
AcDbRotatedDimension
  0
LINE
  5
158C7
330
747D
100
AcDbEntity
  8
部品1
 48
50.0
100
AcDbLine
 10
7382.393174000362
 20
5196.104807812178
 30
0.0
 11
5423.640663135287
 21
5196.10480781218
 31
0.0
  0
LINE
  5
158C8
330
747D
100
AcDbEntity
  8
細線
 48
50.0
100
AcDbLine
 10
7392.622237030868
 20
5216.878050375942
 30
0.0
 11
5413.411600103071
 21
5216.878050376177
 31
0.0
  0
LINE
  5
158C9
330
747D
100
AcDbEntity
  8
細線
 48
50.0
100
AcDbLine
 10
7400.858267555668
 20
5309.07805037594
 30
0.0
 11
5405.175569578237
 21
5309.078050376178
 31
0.0
  0
LINE
  5
158CA
330
747D
100
AcDbEntity
  8
部品1
 48
50.0
100
AcDbLine
 10
7395.608497461395
 20
5337.10480781218
 30
0.0
 11
5410.425339674254
 21
5337.104807812178
 31
0.0
  0
LINE
  5
158CB
330
747D
100
AcDbEntity
  8
部品1
100
AcDbLine
 10
5403.436579583154
 20
5329.708282416943
 30
0.0
 11
5404.569976915503
 21
5309.732154434342
 31
0.0
  0
LINE
  5
158CC
330
747D
100
AcDbEntity
  8
部品1
100
AcDbLine
 10
5416.00699723708
 20
5214.074747267285
 30
0.0
 11
5416.651903044189
 21
5202.708282416943
 31
0.0
  0
LINE
  5
158CD
330
747D
100
AcDbEntity
  8
部品1
100
AcDbLine
 10
5407.770966712233
 20
5306.274747267285
 30
0.0
 11
5412.806007440344
 21
5217.532154434342
 31
0.0
  0
ARC
  5
158CE
330
747D
100
AcDbEntity
  8
部品1
 48
50.0
100
AcDbCircle
 10
5404.775783816047
 20
5306.104807812184
 30
0.0
 40
3.0
100
AcDbArc
 50
3.247342790337682
 51
82.3418727926348
  0
ARC
  5
158CF
330
747D
100
AcDbEntity
  8
部品1
 48
50.0
100
AcDbCircle
 10
5413.01181434089
 20
5213.904807812181
 30
0.0
 40
3.0
100
AcDbArc
 50
3.247342790337682
 51
82.3418727926348
  0
ARC
  5
158D0
330
747D
100
AcDbEntity
  8
部品1
 48
50.0
100
AcDbCircle
 10
5413.504883449451
 20
5217.571806973865
 30
0.0
 40
0.7
100
AcDbArc
 50
183.2473427902856
 51
262.3418727926349
  0
ARC
  5
158D1
330
747D
100
AcDbEntity
  8
部品1
 48
50.0
100
AcDbCircle
 10
5405.268852924612
 20
5309.77180697387
 30
0.0
 40
0.7
100
AcDbArc
 50
183.2473427903897
 51
262.3418727926349
  0
ARC
  5
158D2
330
747D
100
AcDbEntity
  8
部品1
100
AcDbCircle
 10
5423.640663135287
 20
5203.104807812184
 30
0.0
 40
7.0
100
AcDbArc
 50
183.2473427903377
 51
270.0
  0
ARC
  5
158D3
330
747D
100
AcDbEntity
  8
部品1
100
AcDbCircle
 10
5410.425339674254
 20
5330.104807812182
 30
0.0
 40
7.0
100
AcDbArc
 50
90.0
 51
183.2473427903377
  0
LINE
  5
158D4
330
747D
100
AcDbEntity
  8
細線
 48
50.0
100
AcDbLine
 10
5436.016918567824
 20
5337.104807812182
 30
0.0
 11
5436.016918567824
 21
5196.10480781218
 31
0.0
  0
DIMENSION
  5
158D5
330
747D
100
AcDbEntity
  8
寸法
 48
50.0
100
AcDbDimension
  2
*D15
 10
5403.016918567824
 20
5549.646393070423
 30
0.0
 11
5089.531637193577
 21
5549.646393070423
 31
0.0
 70
   160
 71
     5
 42
50.0
  3
INABA_S40G
100
AcDbAlignedDimension
 13
5453.016918567824
 23
5337.104807812186
 33
0.0
 14
5403.016918567824
 24
5337.104807812184
 34
0.0
100
AcDbRotatedDimension
1001
ACAD
1000
DSTYLE
1002
{
1002
}
  0
DIMENSION
  5
158D6
330
747D
100
AcDbEntity
  8
寸法
 48
50.0
100
AcDbDimension
  2
*D16
 10
5453.016918567824
 20
5549.646393070423
 30
0.0
 11
6403.016918567826
 21
5549.646393070423
 31
0.0
 70
   160
  1
柱外寸法<>
 71
     5
 42
1900.000000000003
  3
INABA_S40G
100
AcDbAlignedDimension
 13
7353.016918567828
 23
5337.10480781218
 33
0.0
 14
5453.016918567824
 24
5337.104807812186
 34
0.0
100
AcDbRotatedDimension
  0
DIMENSION
  5
158D7
330
747D
100
AcDbEntity
  8
寸法
 48
50.0
100
AcDbDimension
  2
*D17
 10
7403.016918567828
 20
5772.603371508271
 30
0.0
 11
6403.016918567826
 21
5772.603371508271
 31
0.0
 70
   160
 71
     5
 42
2000.000000000003
  3
INABA_S40G
100
AcDbAlignedDimension
 13
5403.016918567824
 23
5337.104807812184
 33
0.0
 14
7403.016918567828
 24
5337.104807812178
 34
0.0
100
AcDbRotatedDimension
  0
TEXT
  5
15919
330
747D
100
AcDbEntity
  8
文字
 62
     7
 48
50.0
100
AcDbText
 10
14271.39351435261
 20
483.8967129911411
 30
0.0
 40
160.0
  1
ＮＸＤ－１３Ｌ－２
  7
STYLE2
100
AcDbText
  0
LINE
  5
15954
330
747D
100
AcDbEntity
  8
仕様書枠
 48
50.0
100
AcDbLine
 10
16307.2
 20
11409.6
 30
0.0
 11
13127.2
 21
11409.6
 31
0.0
  0
MTEXT
  5
1595A
330
747D
100
AcDbEntity
  8
寸法
 62
     7
 48
50.0
100
AcDbMText
 10
5942.565121411062
 20
9009.00719356402
 30
0.0
 40
96.0
 41
0.0
 71
     5
 72
     1
  1
棚 2段
  7
STYLE1
 73
     1
 44
1.0
1001
ACAD
1000
MTEXTBEGIN
1070
    73
1070
     1
1070
    44
1040
1.0
1070
    74
1070
     0
1000
MTEXTEND
  0
MTEXT
  5
1595B
330
747D
100
AcDbEntity
  8
寸法
 62
     7
 48
50.0
100
AcDbMText
 10
6893.29672285607
 20
9009.007193564007
 30
0.0
 40
96.0
 41
0.0
 71
     5
 72
     1
  1
棚 2段
  7
STYLE1
 73
     1
 44
1.0
1001
ACAD
1000
MTEXTBEGIN
1070
    73
1070
     1
1070
    44
1040
1.0
1070
    74
1070
     0
1000
MTEXTEND
  0
LINE
  5
15A40
330
747D
100
AcDbEntity
  8
部品1
100
AcDbLine
 10
7177.954470739144
 20
5099.604807812175
 30
0.0
 11
7178.016918567824
 21
5099.604807812177
 31
0.0
  0
LINE
  5
15A41
330
747D
100
AcDbEntity
  8
部品1
 48
0.2
100
AcDbLine
 10
7177.954470739144
 20
5092.854807812178
 30
0.0
 11
7157.954470739143
 21
5092.854807812178
 31
0.0
  0
LINE
  5
15A42
330
747D
100
AcDbEntity
  8
部品1
100
AcDbLine
 10
7177.954470739144
 20
5099.604807812179
 30
0.0
 11
7178.016918567824
 21
5099.604807812177
 31
0.0
  0
LINE
  5
15A43
330
747D
100
AcDbEntity
  8
部品1
 48
50.0
100
AcDbLine
 10
7157.954470739143
 20
5092.854807812178
 30
0.0
 11
7157.954470739143
 21
5099.604807812179
 31
0.0
  0
LINE
  5
15A44
330
747D
100
AcDbEntity
  8
細線
 48
50.0
100
AcDbLine
 10
7157.954470739143
 20
5099.604807812179
 30
0.0
 11
7157.954470739143
 21
5099.854807812178
 31
0.0
  0
LINE
  5
15A45
330
747D
100
AcDbEntity
  8
細線
 48
0.2
100
AcDbLine
 10
7175.638462035651
 20
5100.554807812179
 30
0.0
 11
7164.270479442639
 21
5100.554807812179
 31
0.0
  0
ARC
  5
15A46
330
747D
100
AcDbEntity
  8
細線
 48
0.2
100
AcDbCircle
 10
7169.954470739144
 20
5083.054807812181
 30
0.0
 40
18.49999999999796
100
AcDbArc
 50
73.39845040100779
 51
106.6015495989922
  0
ARC
  5
15A47
330
747D
100
AcDbEntity
  8
細線
 48
0.2
100
AcDbCircle
 10
7164.954470739143
 20
5099.825317643427
 30
0.0
 40
1.0
100
AcDbArc
 50
106.6015495989922
 51
180.0
  0
LINE
  5
15A48
330
747D
100
AcDbEntity
  8
細線
 48
0.2
100
AcDbLine
 10
7177.954470739144
 20
5097.354807812179
 30
0.0
 11
7157.954470739143
 21
5097.354807812179
 31
0.0
  0
LINE
  5
15A49
330
747D
100
AcDbEntity
  8
細線
 48
0.2
100
AcDbLine
 10
7177.954470739144
 20
5095.354807812178
 30
0.0
 11
7157.954470739143
 21
5095.354807812178
 31
0.0
  0
LINE
  5
15A4A
330
747D
100
AcDbEntity
  8
細線
 48
0.2
100
AcDbLine
 10
7177.954470739144
 20
5099.854807812178
 30
0.0
 11
7157.954470739143
 21
5099.854807812178
 31
0.0
  0
LINE
  5
15A4B
330
747D
100
AcDbEntity
  8
細線
 48
50.0
100
AcDbLine
 10
7173.942123590802
 20
5097.354807812179
 30
0.0
 11
7173.942123590802
 21
5095.354807812178
 31
0.0
  0
LINE
  5
15A4C
330
747D
100
AcDbEntity
  8
細線
 48
50.0
100
AcDbLine
 10
7166.09171354484
 20
5097.354807812179
 30
0.0
 11
7166.09171354484
 21
5095.354807812178
 31
0.0
  0
LINE
  5
15A4D
330
747D
100
AcDbEntity
  8
細線
 48
0.1
100
AcDbLine
 10
7177.954470739144
 20
5099.854807812178
 30
0.0
 11
7177.954470739144
 21
5092.854807812178
 31
0.0
  0
ARC
  5
15A4E
330
747D
100
AcDbEntity
  8
細線
 48
0.2
100
AcDbCircle
 10
7174.954470739144
 20
5099.825317643427
 30
0.0
 40
1.0
100
AcDbArc
 50
0.0
 51
73.39845040100779
  0
LINE
  5
15A4F
330
747D
100
AcDbEntity
  8
細線
 48
50.0
100
AcDbLine
 10
6207.954470739143
 20
5099.604807812179
 30
0.0
 11
6207.954470739143
 21
5099.854807812178
 31
0.0
  0
LINE
  5
15A50
330
747D
100
AcDbEntity
  8
部品1
100
AcDbLine
 10
6227.954470739144
 20
5099.604807812179
 30
0.0
 11
6228.016918567824
 21
5099.604807812177
 31
0.0
  0
LINE
  5
15A51
330
747D
100
AcDbEntity
  8
部品1
 48
50.0
100
AcDbLine
 10
6207.954470739143
 20
5092.854807812178
 30
0.0
 11
6207.954470739143
 21
5099.604807812179
 31
0.0
  0
LINE
  5
15A52
330
747D
100
AcDbEntity
  8
細線
 48
0.2
100
AcDbLine
 10
6227.954470739144
 20
5099.854807812178
 30
0.0
 11
6207.954470739143
 21
5099.854807812178
 31
0.0
  0
LINE
  5
15A53
330
747D
100
AcDbEntity
  8
細線
 48
0.2
100
AcDbLine
 10
6227.954470739144
 20
5095.354807812178
 30
0.0
 11
6207.954470739143
 21
5095.354807812178
 31
0.0
  0
LINE
  5
15A54
330
747D
100
AcDbEntity
  8
細線
 48
0.2
100
AcDbLine
 10
6227.954470739144
 20
5097.354807812179
 30
0.0
 11
6207.954470739143
 21
5097.354807812179
 31
0.0
  0
LINE
  5
15A55
330
747D
100
AcDbEntity
  8
部品1
 48
0.2
100
AcDbLine
 10
6227.954470739144
 20
5092.854807812178
 30
0.0
 11
6207.954470739143
 21
5092.854807812178
 31
0.0
  0
ARC
  5
15A56
330
747D
100
AcDbEntity
  8
細線
 48
0.2
100
AcDbCircle
 10
6214.954470739144
 20
5099.825317643427
 30
0.0
 40
1.0
100
AcDbArc
 50
106.6015495989922
 51
180.0
  0
ARC
  5
15A57
330
747D
100
AcDbEntity
  8
細線
 48
0.2
100
AcDbCircle
 10
6224.954470739143
 20
5099.825317643427
 30
0.0
 40
1.0
100
AcDbArc
 50
0.0
 51
73.39845040100779
  0
LINE
  5
15A58
330
747D
100
AcDbEntity
  8
細線
 48
0.1
100
AcDbLine
 10
6227.954470739144
 20
5099.854807812178
 30
0.0
 11
6227.954470739144
 21
5092.854807812178
 31
0.0
  0
ARC
  5
15A59
330
747D
100
AcDbEntity
  8
細線
 48
0.2
100
AcDbCircle
 10
6219.954470739143
 20
5083.054807812181
 30
0.0
 40
18.49999999999796
100
AcDbArc
 50
73.39845040100779
 51
106.6015495989922
  0
LINE
  5
15A5A
330
747D
100
AcDbEntity
  8
細線
 48
0.2
100
AcDbLine
 10
6225.638462035651
 20
5100.554807812179
 30
0.0
 11
6214.270479442639
 21
5100.554807812179
 31
0.0
  0
LINE
  5
15A5B
330
747D
100
AcDbEntity
  8
細線
 48
50.0
100
AcDbLine
 10
6216.09171354484
 20
5097.354807812179
 30
0.0
 11
6216.09171354484
 21
5095.354807812178
 31
0.0
  0
LINE
  5
15A5C
330
747D
100
AcDbEntity
  8
細線
 48
50.0
100
AcDbLine
 10
6223.942123590803
 20
5097.354807812179
 30
0.0
 11
6223.942123590803
 21
5095.354807812178
 31
0.0
  0
LINE
  5
15A5D
330
747D
100
AcDbEntity
  8
部品1
100
AcDbLine
 10
5498.016918567824
 20
5099.604807812179
 30
0.0
 11
6207.954470739143
 21
5099.604807812179
 31
0.0
  0
LINE
  5
15A5E
330
747D
100
AcDbEntity
  8
部品1
100
AcDbLine
 10
5453.016918567824
 20
5102.104807812176
 30
0.0
 11
7353.016918567824
 21
5102.104807812176
 31
0.0
  0
LINE
  5
15A5F
330
747D
100
AcDbEntity
  8
部品1
100
AcDbLine
 10
6448.016918567825
 20
5099.604807812175
 30
0.0
 11
7157.954470739143
 21
5099.604807812177
 31
0.0
  0
LINE
  5
15A60
330
747D
100
AcDbEntity
  8
細線
 48
0.1
100
AcDbLine
 10
7177.954470739144
 20
3308.354807812195
 30
0.0
 11
7177.954470739144
 21
3315.354807812195
 31
0.0
  0
LINE
  5
15A61
330
747D
100
AcDbEntity
  8
細線
 48
50.0
100
AcDbLine
 10
7166.09171354484
 20
3310.854807812197
 30
0.0
 11
7166.09171354484
 21
3312.854807812195
 31
0.0
  0
LINE
  5
15A62
330
747D
100
AcDbEntity
  8
細線
 48
50.0
100
AcDbLine
 10
7173.942123590802
 20
3310.854807812197
 30
0.0
 11
7173.942123590802
 21
3312.854807812195
 31
0.0
  0
LINE
  5
15A63
330
747D
100
AcDbEntity
  8
部品1
 48
50.0
100
AcDbLine
 10
7157.954470739143
 20
3315.354807812195
 30
0.0
 11
7157.954470739143
 21
3308.604807812197
 31
0.0
  0
LINE
  5
15A64
330
747D
100
AcDbEntity
  8
部品1
100
AcDbLine
 10
7177.954470739144
 20
3308.604807812197
 30
0.0
 11
7178.016918567824
 21
3308.604807812197
 31
0.0
  0
ARC
  5
15A65
330
747D
100
AcDbEntity
  8
細線
 48
0.2
100
AcDbCircle
 10
7174.954470739144
 20
3308.384297980948
 30
0.0
 40
1.0
100
AcDbArc
 50
286.6015495989922
 51
0.0
  0
LINE
  5
15A66
330
747D
100
AcDbEntity
  8
細線
 48
0.2
100
AcDbLine
 10
7177.954470739144
 20
3308.354807812195
 30
0.0
 11
7157.954470739143
 21
3308.354807812195
 31
0.0
  0
LINE
  5
15A67
330
747D
100
AcDbEntity
  8
細線
 48
0.2
100
AcDbLine
 10
7177.954470739144
 20
3310.854807812196
 30
0.0
 11
7157.954470739143
 21
3310.854807812197
 31
0.0
  0
ARC
  5
15A68
330
747D
100
AcDbEntity
  8
細線
 48
0.2
100
AcDbCircle
 10
7164.954470739143
 20
3308.384297980948
 30
0.0
 40
1.0
100
AcDbArc
 50
180.0
 51
253.3984504010078
  0
ARC
  5
15A69
330
747D
100
AcDbEntity
  8
細線
 48
0.2
100
AcDbCircle
 10
7169.954470739144
 20
3325.154807812193
 30
0.0
 40
18.49999999999796
100
AcDbArc
 50
253.3984504010078
 51
286.6015495989922
  0
LINE
  5
15A6A
330
747D
100
AcDbEntity
  8
細線
 48
0.2
100
AcDbLine
 10
7175.638462035651
 20
3307.654807812195
 30
0.0
 11
7164.270479442639
 21
3307.654807812195
 31
0.0
  0
LINE
  5
15A6B
330
747D
100
AcDbEntity
  8
細線
 48
50.0
100
AcDbLine
 10
7157.954470739143
 20
3308.604807812197
 30
0.0
 11
7157.954470739143
 21
3308.354807812195
 31
0.0
  0
LINE
  5
15A6C
330
747D
100
AcDbEntity
  8
部品1
100
AcDbLine
 10
7177.954470739144
 20
3308.604807812197
 30
0.0
 11
7178.016918567824
 21
3308.604807812197
 31
0.0
  0
LINE
  5
15A6D
330
747D
100
AcDbEntity
  8
部品1
100
AcDbLine
 10
7177.954470739144
 20
3308.604807812199
 30
0.0
 11
7178.016918567824
 21
3308.604807812199
 31
0.0
  0
LINE
  5
15A6E
330
747D
100
AcDbEntity
  8
細線
 48
0.2
100
AcDbLine
 10
7177.954470739144
 20
3312.854807812195
 30
0.0
 11
7157.954470739143
 21
3312.854807812195
 31
0.0
  0
LINE
  5
15A6F
330
747D
100
AcDbEntity
  8
部品1
 48
0.2
100
AcDbLine
 10
7177.954470739144
 20
3315.354807812195
 30
0.0
 11
7157.954470739143
 21
3315.354807812195
 31
0.0
  0
LINE
  5
15A70
330
747D
100
AcDbEntity
  8
部品1
 48
50.0
100
AcDbLine
 10
6207.954470739143
 20
3315.354807812195
 30
0.0
 11
6207.954470739143
 21
3308.604807812197
 31
0.0
  0
LINE
  5
15A71
330
747D
100
AcDbEntity
  8
細線
 48
50.0
100
AcDbLine
 10
6223.942123590803
 20
3310.854807812197
 30
0.0
 11
6223.942123590803
 21
3312.854807812195
 31
0.0
  0
LINE
  5
15A72
330
747D
100
AcDbEntity
  8
細線
 48
50.0
100
AcDbLine
 10
6216.09171354484
 20
3310.854807812197
 30
0.0
 11
6216.09171354484
 21
3312.854807812195
 31
0.0
  0
LINE
  5
15A73
330
747D
100
AcDbEntity
  8
細線
 48
0.1
100
AcDbLine
 10
6227.954470739144
 20
3308.354807812195
 30
0.0
 11
6227.954470739144
 21
3315.354807812195
 31
0.0
  0
LINE
  5
15A74
330
747D
100
AcDbEntity
  8
部品1
100
AcDbLine
 10
6227.954470739144
 20
3308.604807812189
 30
0.0
 11
6228.016918567824
 21
3308.604807812189
 31
0.0
  0
LINE
  5
15A75
330
747D
100
AcDbEntity
  8
部品1
100
AcDbLine
 10
6227.954470739144
 20
3308.604807812197
 30
0.0
 11
6228.016918567824
 21
3308.604807812197
 31
0.0
  0
LINE
  5
15A76
330
747D
100
AcDbEntity
  8
細線
 48
50.0
100
AcDbLine
 10
6207.954470739143
 20
3308.604807812197
 30
0.0
 11
6207.954470739143
 21
3308.354807812195
 31
0.0
  0
LINE
  5
15A77
330
747D
100
AcDbEntity
  8
細線
 48
0.2
100
AcDbLine
 10
6225.638462035651
 20
3307.654807812195
 30
0.0
 11
6214.270479442639
 21
3307.654807812195
 31
0.0
  0
ARC
  5
15A78
330
747D
100
AcDbEntity
  8
細線
 48
0.2
100
AcDbCircle
 10
6219.954470739143
 20
3325.154807812193
 30
0.0
 40
18.49999999999796
100
AcDbArc
 50
253.3984504010078
 51
286.6015495989922
  0
ARC
  5
15A79
330
747D
100
AcDbEntity
  8
細線
 48
0.2
100
AcDbCircle
 10
6214.954470739144
 20
3308.384297980948
 30
0.0
 40
1.0
100
AcDbArc
 50
180.0
 51
253.3984504010078
  0
LINE
  5
15A7A
330
747D
100
AcDbEntity
  8
細線
 48
0.2
100
AcDbLine
 10
6227.954470739144
 20
3310.854807812196
 30
0.0
 11
6207.954470739143
 21
3310.854807812197
 31
0.0
  0
LINE
  5
15A7B
330
747D
100
AcDbEntity
  8
細線
 48
0.2
100
AcDbLine
 10
6227.954470739144
 20
3308.354807812195
 30
0.0
 11
6207.954470739143
 21
3308.354807812195
 31
0.0
  0
ARC
  5
15A7C
330
747D
100
AcDbEntity
  8
細線
 48
0.2
100
AcDbCircle
 10
6224.954470739143
 20
3308.384297980948
 30
0.0
 40
1.0
100
AcDbArc
 50
286.6015495989922
 51
0.0
  0
LINE
  5
15A7D
330
747D
100
AcDbEntity
  8
部品1
 48
0.2
100
AcDbLine
 10
6227.954470739144
 20
3315.354807812195
 30
0.0
 11
6207.954470739143
 21
3315.354807812195
 31
0.0
  0
LINE
  5
15A7E
330
747D
100
AcDbEntity
  8
細線
 48
0.2
100
AcDbLine
 10
6227.954470739144
 20
3312.854807812195
 30
0.0
 11
6207.954470739143
 21
3312.854807812195
 31
0.0
  0
LINE
  5
15A7F
330
747D
100
AcDbEntity
  8
部品1
100
AcDbLine
 10
5498.016918567824
 20
3308.604807812183
 30
0.0
 11
6207.954470739143
 21
3308.604807812197
 31
0.0
  0
LINE
  5
15A80
330
747D
100
AcDbEntity
  8
部品1
100
AcDbLine
 10
5453.016918567824
 20
3262.104807812177
 30
0.0
 11
7353.016918567824
 21
3262.104807812177
 31
0.0
  0
LINE
  5
15A81
330
747D
100
AcDbEntity
  8
部品1
100
AcDbLine
 10
5453.016918567824
 20
3305.104807812181
 30
0.0
 11
7353.016918567824
 21
3305.104807812198
 31
0.0
  0
LINE
  5
15A82
330
747D
100
AcDbEntity
  8
部品1
100
AcDbLine
 10
6448.016918567825
 20
3308.60480781219
 30
0.0
 11
7157.954470739143
 21
3308.604807812196
 31
0.0
  0
LINE
  5
15A83
330
747D
100
AcDbEntity
  8
部品1
100
AcDbLine
 10
5496.016918567824
 20
5102.104807812176
 30
0.0
 11
5496.016918567824
 21
3305.104807812198
 31
0.0
  0
LINE
  5
15A84
330
747D
100
AcDbEntity
  8
部品1
100
AcDbLine
 10
5453.016918567824
 20
5196.10480781218
 30
0.0
 11
5453.016918567824
 21
3162.104807812177
 31
0.0
  0
LINE
  5
15A85
330
747D
100
AcDbEntity
  8
部品1
100
AcDbLine
 10
5498.016918567824
 20
5099.604807812179
 30
0.0
 11
5498.016918567824
 21
3308.604807812181
 31
0.0
  0
LINE
  5
15A86
330
747D
100
AcDbEntity
  8
部品1
100
AcDbLine
 10
6228.016918567822
 20
5099.604807812175
 30
0.0
 11
6228.016918567824
 21
3308.604807812189
 31
0.0
  0
LINE
  5
15A87
330
747D
100
AcDbEntity
  8
部品1
100
AcDbLine
 10
6360.016918567824
 20
5102.104807812176
 30
0.0
 11
6360.016918567824
 21
3305.104807812198
 31
0.0
  0
LINE
  5
15A88
330
747D
100
AcDbEntity
  8
部品1
100
AcDbLine
 10
6446.016918567824
 20
5102.104807812176
 30
0.0
 11
6446.016918567824
 21
3305.104807812198
 31
0.0
  0
LINE
  5
15A89
330
747D
100
AcDbEntity
  8
部品1
100
AcDbLine
 10
6448.016918567825
 20
5099.604807812177
 30
0.0
 11
6448.016918567825
 21
3308.604807812192
 31
0.0
  0
LINE
  5
15A8A
330
747D
100
AcDbEntity
  8
部品1
100
AcDbLine
 10
7178.016918567824
 20
5099.604807812175
 30
0.0
 11
7178.016918567824
 21
3308.604807812197
 31
0.0
  0
LINE
  5
15A8B
330
747D
100
AcDbEntity
  8
部品1
100
AcDbLine
 10
7353.016918567824
 20
5196.10480781218
 30
0.0
 11
7353.016918567824
 21
3162.104807812177
 31
0.0
  0
LINE
  5
15A8C
330
747D
100
AcDbEntity
  8
部品1
100
AcDbLine
 10
7310.016918567824
 20
5102.104807812176
 30
0.0
 11
7310.016918567824
 21
3305.104807812198
 31
0.0
  0
DIMENSION
  5
15A8D
330
747D
100
AcDbEntity
  8
寸法
100
AcDbDimension
  2
*D18
 10
5134.912390960221
 20
3323.604807812181
 30
0.0
 11
5134.91239096022
 21
4202.604807812178
 31
0.0
 70
   160
  1
有効開口部高サ<>
 71
     5
 42
1759.999999999995
  3
INABA_S40G
100
AcDbAlignedDimension
 13
5453.016918567824
 23
5083.604807812177
 33
0.0
 14
5453.016918567824
 24
3323.604807812181
 34
0.0
 50
90.0
100
AcDbRotatedDimension
1001
ACAD
1000
DSTYLE
1002
{
1070
   288
1070
     1
1002
}
  0
LINE
  5
15A8E
330
747D
100
AcDbEntity
  8
部品1
100
AcDbLine
 10
7180.016918567824
 20
5102.104807812176
 30
0.0
 11
7180.016918567824
 21
3305.104807812198
 31
0.0
  0
LINE
  5
15A8F
330
747D
100
AcDbEntity
  8
部品1
100
AcDbLine
 10
6230.016918567824
 20
5102.104807812176
 30
0.0
 11
6230.016918567824
 21
3305.104807812198
 31
0.0
  0
TEXT
  5
15A92
330
747D
100
AcDbEntity
  8
部品1
100
AcDbText
 10
9691.525068684697
 20
2178.161992237212
 30
0.0
 40
135.0
  1
側面図
  7
STYLE2
100
AcDbText
  0
LWPOLYLINE
  5
15A93
330
747D
100
AcDbEntity
  8
部品1
100
AcDbPolyline
 90
        4
 70
     1
 43
0.0
 10
9602.078967261089
 20
2371.055521455735
 10
9602.078967261089
 20
2131.163199910203
 10
10365.54963348953
 20
2131.163199910203
 10
10365.54963348953
 20
2371.055521455735
  0
TEXT
  5
15A94
330
747D
100
AcDbEntity
  8
部品1
100
AcDbText
 10
6111.806989191562
 20
2178.161992237212
 30
0.0
 40
135.0
  1
正面図
  7
STYLE2
100
AcDbText
  0
LWPOLYLINE
  5
15A95
330
747D
100
AcDbEntity
  8
部品1
100
AcDbPolyline
 90
        4
 70
     1
 43
0.0
 10
6021.281585453606
 20
2371.055521455735
 10
6021.281585453606
 20
2131.163199910203
 10
6784.752251682045
 20
2131.163199910203
 10
6784.752251682045
 20
2371.055521455735
  0
TEXT
  5
15A96
330
747D
100
AcDbEntity
  8
部品1
100
AcDbText
 10
4326.348271563329
 20
3198.211711418079
 30
0.0
 40
125.0
  1
▽G.L
  7
STYLE2
100
AcDbText
  0
LINE
  5
1604C
330
747D
100
AcDbEntity
  8
部品1
 48
50.0
100
AcDbLine
 10
9833.814300375308
 20
5467.972946913456
 30
0.0
 11
10133.81430037531
 21
5446.372946913458
 31
0.0
  0
LINE
  5
1604F
330
747D
100
AcDbEntity
  8
細線
 48
50.0
100
AcDbLine
 10
10261.31430037531
 20
5102.104807812176
 30
0.0
 11
10261.31430037531
 21
3312.104807812178
 31
0.0
  0
LINE
  5
16050
330
747D
100
AcDbEntity
  8
細線
 48
50.0
100
AcDbLine
 10
10246.31430037531
 20
5102.104807812176
 30
0.0
 11
10246.31430037531
 21
3312.104807812178
 31
0.0
  0
LINE
  5
16051
330
747D
100
AcDbEntity
  8
細線
 48
50.0
100
AcDbLine
 10
10386.31430037531
 20
5102.104807812176
 30
0.0
 11
10386.31430037531
 21
3312.104807812178
 31
0.0
  0
LINE
  5
16052
330
747D
100
AcDbEntity
  8
細線
 48
50.0
100
AcDbLine
 10
10401.31430037531
 20
5102.104807812176
 30
0.0
 11
10401.31430037531
 21
3312.104807812178
 31
0.0
  0
LINE
  5
16053
330
747D
100
AcDbEntity
  8
細線
 48
50.0
100
AcDbLine
 10
10541.31430037531
 20
5102.104807812176
 30
0.0
 11
10541.31430037531
 21
3312.104807812178
 31
0.0
  0
LINE
  5
16054
330
747D
100
AcDbEntity
  8
細線
 48
50.0
100
AcDbLine
 10
10526.31430037531
 20
5102.104807812176
 30
0.0
 11
10526.31430037531
 21
3312.104807812178
 31
0.0
  0
LINE
  5
16055
330
747D
100
AcDbEntity
  8
部品1
100
AcDbLine
 10
10183.8143003753
 20
5102.104807812176
 30
0.0
 11
10183.8143003753
 21
3312.104807812178
 31
0.0
  0
TEXT
  5
1609A
330
747D
100
AcDbEntity
  8
部品1
 48
50.0
100
AcDbText
 10
10310.90714766317
 20
5366.355710847606
 30
0.0
 40
120.0
  1
71
 50
90.0
  7
STYLE1
100
AcDbText
  0
TEXT
  5
1609B
330
747D
100
AcDbEntity
  8
部品1
 48
50.0
100
AcDbText
 10
9822.082135599035
 20
5503.856969065889
 30
0.0
 40
120.0
  1
1000
  7
STYLE1
100
AcDbText
  0
LINE
  5
1609C
330
747D
100
AcDbEntity
  8
部品1
 48
50.0
100
AcDbLine
 10
10133.81430037531
 20
5467.972946913456
 30
0.0
 11
10133.81430037531
 21
5446.372946913458
 31
0.0
  0
LINE
  5
1609D
330
747D
100
AcDbEntity
  8
部品1
 48
50.0
100
AcDbLine
 10
9833.814300375308
 20
5467.972946913456
 30
0.0
 11
10133.81430037531
 21
5467.972946913456
 31
0.0
  0
DIMENSION
  5
160D3
330
747D
100
AcDbEntity
  8
寸法
 48
50.0
100
AcDbDimension
  2
*D19
 10
8636.548048663936
 20
5358.927298708993
 30
0.0
 11
8645.225792315823
 21
5588.76353772589
 31
0.0
 70
   160
 71
     5
 42
141.0
  3
INABA_S40G
100
AcDbAlignedDimension
 13
9244.156864977261
 23
5194.885832881144
 33
0.0
 14
9249.476699129216
 24
5335.785440278026
 34
0.0
 50
87.83775598715743
100
AcDbRotatedDimension
1001
ACAD
1000
DSTYLE
1002
{
1070
   174
1070
     0
1070
   272
1070
     1
1070
   288
1070
     0
1070
   341
1005
0
1002
}
  0
DIMENSION
  5
160D4
330
747D
100
AcDbEntity
  8
寸法
 48
50.0
100
AcDbDimension
  2
*D20
 10
10738.81430037531
 20
5735.762261391482
 30
0.0
 11
10944.86154446979
 21
5735.762261391482
 31
0.0
 70
   160
 71
     5
 42
80.0
  3
INABA_S40G
100
AcDbAlignedDimension
 13
10658.81430037531
 23
5283.91548742383
 33
0.0
 14
10738.81430037531
 24
5282.104807812178
 34
0.0
100
AcDbRotatedDimension
1001
ACAD
1000
DSTYLE
1002
{
1070
   174
1070
     0
1070
   272
1070
     1
1070
   288
1070
     0
1070
   341
1005
0
1002
}
  0
ARC
  5
160D5
330
747D
100
AcDbEntity
  8
部品1
100
AcDbCircle
 10
10724.44183618924
 20
5175.538608696395
 30
0.0
 40
0.7
100
AcDbArc
 50
275.0921697642102
 51
354.1866997666828
  0
ARC
  5
160D6
330
747D
100
AcDbEntity
  8
部品1
100
AcDbCircle
 10
10735.30118193856
 20
5252.581863514318
 30
0.0
 40
0.7
100
AcDbArc
 50
275.0921697642102
 51
354.1866997665273
  0
ARC
  5
160D7
330
747D
100
AcDbEntity
  8
部品1
100
AcDbCircle
 10
10735.62958718117
 20
5248.896466657228
 30
0.0
 40
3.0
100
AcDbArc
 50
95.092169764314
 51
174.1866997665272
  0
ARC
  5
160D8
330
747D
100
AcDbEntity
  8
部品1
100
AcDbCircle
 10
10724.77024143184
 20
5171.853211839305
 30
0.0
 40
3.0
100
AcDbArc
 50
95.0921697642102
 51
174.1866997665272
  0
ARC
  5
160D9
330
747D
100
AcDbEntity
  8
部品1
 48
50.0
100
AcDbCircle
 10
10713.74210615674
 20
5162.262467235423
 30
0.0
 40
7.0
100
AcDbArc
 50
267.8377559870533
 51
354.1866997665273
  0
ARC
  5
160DA
330
747D
100
AcDbEntity
  8
部品1
 48
50.0
100
AcDbCircle
 10
10731.06420262125
 20
5273.165014377595
 30
0.0
 40
7.0
100
AcDbArc
 50
354.1866997665273
 51
87.03587545293501
  0
LINE
  5
160DB
330
747D
100
AcDbEntity
  8
部品1
 48
50.0
100
AcDbLine
 10
10721.78566976123
 20
5172.157073556207
 30
0.0
 11
10720.70610672149
 21
5161.55345656265
 31
0.0
  0
LINE
  5
160DC
330
747D
100
AcDbEntity
  8
部品1
 48
50.0
100
AcDbLine
 10
10732.64501551055
 20
5249.200328374133
 30
0.0
 11
10725.13823624572
 21
5175.46770762912
 31
0.0
  0
LINE
  5
160DD
330
747D
100
AcDbEntity
  8
部品1
 48
50.0
100
AcDbLine
 10
10738.028203186
 20
5272.456003704821
 30
0.0
 11
10735.99758199504
 21
5252.510962447041
 31
0.0
  0
ARC
  5
160DE
330
747D
100
AcDbEntity
  8
部品1
100
AcDbCircle
 10
9234.851392246673
 20
5215.918966771082
 30
0.0
 40
0.7
100
AcDbArc
 50
181.0932240292375
 51
260.1877540315916
  0
ARC
  5
160DF
330
747D
100
AcDbEntity
  8
部品1
100
AcDbCircle
 10
9230.078718649064
 20
5308.784744971201
 30
0.0
 40
0.7
100
AcDbArc
 50
181.0932240292114
 51
260.1877540315916
  0
ARC
  5
160E0
330
747D
100
AcDbEntity
  8
部品1
100
AcDbCircle
 10
9229.448164246042
 20
5305.138870433802
 30
0.0
 40
3.0
100
AcDbArc
 50
1.093224029289586
 51
80.18775403159162
  0
ARC
  5
160E1
330
747D
100
AcDbEntity
  8
部品1
100
AcDbCircle
 10
9234.220837843647
 20
5212.273092233683
 30
0.0
 40
3.0
100
AcDbArc
 50
1.093224029289586
 51
80.18775403159162
  0
ARC
  5
160E2
330
747D
100
AcDbEntity
  8
部品1
 48
50.0
100
AcDbCircle
 10
9244.420970218849
 20
5201.880848851202
 30
0.0
 40
7.0
100
AcDbArc
 50
181.0932240292895
 51
267.8377559870533
  0
ARC
  5
160E3
330
747D
100
AcDbEntity
  8
部品1
 48
50.0
100
AcDbCircle
 10
9235.997312116753
 20
5328.831908384298
 30
0.0
 40
7.0
100
AcDbArc
 50
87.03587545293501
 51
181.0932240292895
  0
LINE
  5
160E4
330
747D
100
AcDbEntity
  8
部品1
 48
50.0
100
AcDbLine
 10
9237.220291770077
 20
5212.330329836866
 30
0.0
 11
9237.422244390511
 21
5201.747294443774
 31
0.0
  0
LINE
  5
160E5
330
747D
100
AcDbEntity
  8
細線
 48
50.0
100
AcDbLine
 10
9234.614198713407
 20
5215.260377955676
 30
0.0
 11
10724.61786314404
 21
5174.861102599606
 31
0.0
  0
LINE
  5
160E6
330
747D
100
AcDbEntity
  8
細線
 48
50.0
100
AcDbLine
 10
9229.853723476121
 20
5308.12188965354
 30
0.0
 11
10735.48970822129
 21
5251.907728631136
 31
0.0
  0
LINE
  5
160E7
330
747D
100
AcDbEntity
  8
部品1
 48
50.0
100
AcDbLine
 10
9232.447618172471
 20
5305.196108036986
 30
0.0
 11
9234.151519663837
 21
5215.905611330339
 31
0.0
  0
LINE
  5
160E8
330
747D
100
AcDbEntity
  8
部品1
 48
50.0
100
AcDbLine
 10
9228.998586288415
 20
5328.69835397687
 30
0.0
 11
9229.378846066227
 21
5308.771389530459
 31
0.0
  0
LINE
  5
160E9
330
747D
100
AcDbEntity
  8
細線
 48
50.0
100
AcDbLine
 10
10705.81430037531
 20
5281.481830465899
 30
0.0
 11
10701.06661748731
 21
5155.736057975155
 31
0.0
  0
LINE
  5
160EA
330
747D
100
AcDbEntity
  8
細線
 48
50.0
100
AcDbLine
 10
9261.814300375309
 20
5334.504484187583
 30
0.0
 11
9256.525198819799
 21
5194.418851560227
 31
0.0
  0
LINE
  5
160EB
330
747D
100
AcDbEntity
  8
部品1
100
AcDbLine
 10
9244.156864977261
 20
5194.885832881144
 30
0.0
 11
10713.47800091515
 21
5155.267451265365
 31
0.0
  0
LINE
  5
160EC
330
747D
100
AcDbEntity
  8
部品1
100
AcDbLine
 10
9236.35928673227
 20
5335.822543146443
 30
0.0
 11
10731.42617723677
 21
5280.155649139743
 31
0.0
  0
LINE
  5
160ED
330
747D
100
AcDbEntity
  8
細線
 48
50.0
100
AcDbLine
 10
9421.314300375307
 20
5102.104807812176
 30
0.0
 11
9421.314300375307
 21
3312.104807812178
 31
0.0
  0
LINE
  5
160EE
330
747D
100
AcDbEntity
  8
細線
 48
50.0
100
AcDbLine
 10
9406.314300375306
 20
5102.104807812176
 30
0.0
 11
9406.314300375306
 21
3312.104807812178
 31
0.0
  0
LINE
  5
160EF
330
747D
100
AcDbEntity
  8
細線
 48
50.0
100
AcDbLine
 10
9546.314300375307
 20
5102.104807812176
 30
0.0
 11
9546.314300375307
 21
3312.104807812178
 31
0.0
  0
LINE
  5
160F0
330
747D
100
AcDbEntity
  8
細線
 48
50.0
100
AcDbLine
 10
9561.314300375306
 20
5102.104807812176
 30
0.0
 11
9561.314300375306
 21
3312.104807812178
 31
0.0
  0
LINE
  5
160F1
330
747D
100
AcDbEntity
  8
細線
 48
50.0
100
AcDbLine
 10
9701.314300375308
 20
5102.104807812176
 30
0.0
 11
9701.314300375308
 21
3312.104807812178
 31
0.0
  0
LINE
  5
160F2
330
747D
100
AcDbEntity
  8
細線
 48
50.0
100
AcDbLine
 10
9686.314300375308
 20
5102.104807812176
 30
0.0
 11
9686.314300375308
 21
3312.104807812178
 31
0.0
  0
LINE
  5
160F3
330
747D
100
AcDbEntity
  8
細線
 48
50.0
100
AcDbLine
 10
10106.3143003753
 20
5102.104807812176
 30
0.0
 11
10106.3143003753
 21
3312.104807812178
 31
0.0
  0
LINE
  5
160F4
330
747D
100
AcDbEntity
  8
細線
 48
50.0
100
AcDbLine
 10
10121.31430037531
 20
5102.104807812176
 30
0.0
 11
10121.31430037531
 21
3312.104807812178
 31
0.0
  0
LINE
  5
160F5
330
747D
100
AcDbEntity
  8
細線
 48
50.0
100
AcDbLine
 10
9981.314300375307
 20
5102.104807812176
 30
0.0
 11
9981.314300375307
 21
3312.104807812178
 31
0.0
  0
LINE
  5
160F6
330
747D
100
AcDbEntity
  8
細線
 48
50.0
100
AcDbLine
 10
9966.314300375307
 20
5102.104807812176
 30
0.0
 11
9966.314300375307
 21
3312.104807812178
 31
0.0
  0
LINE
  5
160F7
330
747D
100
AcDbEntity
  8
細線
 48
50.0
100
AcDbLine
 10
9826.314300375308
 20
5102.104807812176
 30
0.0
 11
9826.314300375308
 21
3312.104807812178
 31
0.0
  0
LINE
  5
160F8
330
747D
100
AcDbEntity
  8
細線
 48
50.0
100
AcDbLine
 10
9841.314300375307
 20
5102.104807812176
 30
0.0
 11
9841.314300375307
 21
3312.104807812178
 31
0.0
  0
LINE
  5
160FE
330
747D
100
AcDbEntity
  8
部品1
100
AcDbLine
 10
9288.814300375307
 20
3262.104807812177
 30
0.0
 11
10658.81430037531
 21
3262.104807812177
 31
0.0
  0
DIMENSION
  5
1612B
330
747D
100
AcDbEntity
  8
寸法
 48
50.0
100
AcDbDimension
  2
*D21
 10
9228.81430037531
 20
5943.936582583445
 30
0.0
 11
9955.939130077132
 21
5943.936582583445
 31
0.0
 70
   160
 71
     5
 42
1510.0
  3
INABA_S40G
100
AcDbAlignedDimension
 13
10738.81430037531
 23
5282.104807812178
 33
0.0
 14
9228.81430037531
 24
5337.104807812182
 34
0.0
100
AcDbRotatedDimension
1001
ACAD
1000
DSTYLE
1002
{
1070
   174
1070
     0
1070
   272
1070
     1
1070
   288
1070
     0
1070
   341
1005
0
1002
}
  0
DIMENSION
  5
1612C
330
747D
100
AcDbEntity
  8
寸法
 48
50.0
100
AcDbDimension
  2
*D22
 10
9228.81430037531
 20
5735.762261391482
 30
0.0
 11
8919.176505099718
 21
5735.762261391482
 31
0.0
 70
   160
 71
     5
 42
60.0
  3
INABA_S40G
100
AcDbAlignedDimension
 13
9288.814300375308
 23
5333.106425935153
 33
0.0
 14
9228.81430037531
 24
5337.104807812182
 34
0.0
100
AcDbRotatedDimension
1001
ACAD
1000
DSTYLE
1002
{
1070
   174
1070
     0
1070
   272
1070
     1
1070
   288
1070
     0
1070
   341
1005
0
1002
}
  0
DIMENSION
  5
1612D
330
747D
100
AcDbEntity
  8
寸法
 48
50.0
100
AcDbDimension
  2
*D23
 10
9288.814300375308
 20
5735.762261391482
 30
0.0
 11
9938.633333265855
 21
5735.762261391482
 31
0.0
 70
   160
  1
柱外寸法<>
 71
     5
 42
1370.0
  3
INABA_S40G
100
AcDbAlignedDimension
 13
10658.81430037531
 23
5283.91548742383
 33
0.0
 14
9288.814300375308
 24
5333.106425935153
 34
0.0
100
AcDbRotatedDimension
1001
ACAD
1000
DSTYLE
1002
{
1070
   174
1070
     0
1070
   272
1070
     1
1070
   288
1070
     0
1070
   341
1005
0
1002
}
  0
DIMENSION
  5
16131
330
747D
100
AcDbEntity
  8
寸法
100
AcDbDimension
  2
*D24
 10
11363.74145834743
 20
5282.104807812178
 30
0.0
 11
11263.72964732381
 21
4272.104807812179
 31
0.0
 70
    32
 71
     5
 42
2020.000000000002
  3
INABA_S40G
100
AcDbAlignedDimension
 13
10658.81430037531
 23
3262.104807812177
 33
0.0
 14
10738.81430037531
 24
5282.104807812178
 34
0.0
 50
90.0
100
AcDbRotatedDimension
1001
ACAD
1000
DSTYLE
1002
{
1070
   174
1070
     0
1070
   272
1070
     1
1070
   288
1070
     0
1070
   341
1005
0
1002
}
  0
LINE
  5
16132
330
747D
100
AcDbEntity
  8
部品1
100
AcDbLine
 10
10603.81430037531
 20
5102.104807812176
 30
0.0
 11
10603.81430037531
 21
3312.104807812178
 31
0.0
  0
LINE
  5
16133
330
747D
100
AcDbEntity
  8
部品1
100
AcDbLine
 10
10658.8143003753
 20
5156.74138864743
 30
0.0
 11
10658.81430037531
 21
3162.104807812177
 31
0.0
  0
LINE
  5
16134
330
747D
100
AcDbEntity
  8
部品1
100
AcDbLine
 10
9763.814300375308
 20
5102.104807812176
 30
0.0
 11
9763.814300375308
 21
3312.104807812178
 31
0.0
  0
DIMENSION
  5
16135
330
747D
100
AcDbEntity
  8
寸法
100
AcDbDimension
  2
*D25
 10
8445.064171192047
 20
3262.104807812177
 30
0.0
 11
8445.064171192047
 21
2956.057563717689
 31
0.0
 70
   160
 71
     5
 42
50.0
  3
INABA_S40G
100
AcDbAlignedDimension
 13
9288.814300375307
 23
3312.104807812178
 33
0.0
 14
9233.814300375307
 24
3262.104807812177
 34
0.0
 50
90.0
100
AcDbRotatedDimension
1001
ACAD
1000
DSTYLE
1002
{
1070
   174
1070
     0
1070
   272
1070
     1
1070
   288
1070
     0
1070
   341
1005
0
1002
}
  0
DIMENSION
  5
16137
330
747D
100
AcDbEntity
  8
寸法
100
AcDbDimension
  2
*D26
 10
8145.064171192046
 20
5337.104807812182
 30
0.0
 11
8045.052360168424
 21
4299.604807812181
 31
0.0
 70
    32
 71
     5
 42
2075.000000000005
  3
INABA_S40G
100
AcDbAlignedDimension
 13
9288.814300375307
 23
3262.104807812177
 33
0.0
 14
9228.81430037531
 24
5337.104807812182
 34
0.0
 50
90.0
100
AcDbRotatedDimension
1001
ACAD
1000
DSTYLE
1002
{
1070
   174
1070
     0
1070
   272
1070
     1
1070
   288
1070
     0
1070
   341
1005
0
1002
}
  0
LINE
  5
1613A
330
747D
100
AcDbEntity
  8
部品1
100
AcDbLine
 10
9288.814300375312
 20
5193.68170175262
 30
0.0
 11
9288.814300375307
 21
3162.104807812177
 31
0.0
  0
LINE
  5
1613B
330
747D
100
AcDbEntity
  8
部品1
100
AcDbLine
 10
9343.814300375306
 20
5102.104807812176
 30
0.0
 11
9343.814300375306
 21
3312.104807812178
 31
0.0
  0
LINE
  5
1613D
330
747D
100
AcDbEntity
  8
部品1
100
AcDbLine
 10
9288.814300375307
 20
3312.104807812178
 30
0.0
 11
10658.81430037531
 21
3312.104807812178
 31
0.0
  0
LINE
  5
1613E
330
747D
100
AcDbEntity
  8
部品1
100
AcDbLine
 10
9288.814300375308
 20
5102.104807812176
 30
0.0
 11
10658.81430037531
 21
5102.104807812176
 31
0.0
  0
LINE
  5
164DC
330
747D
100
AcDbEntity
  8
Ｇ．Ｌ
100
AcDbLine
 10
4328.767737843388
 20
3162.104807812177
 30
0.0
 11
11718.03492688169
 21
3162.104807812177
 31
0.0
  0
TEXT
  5
16503
330
747D
100
AcDbEntity
  8
文字
 62
     7
 48
50.0
100
AcDbText
 10
14260.68475616112
 20
855.469579666289
 30
0.0
 40
100.0
  1
～一般型・多雪地型・豪雪地型～
  7
STYLE2
100
AcDbText
  0
LINE
  5
16550
330
747D
100
AcDbEntity
  8
破線
 48
10.0
100
AcDbLine
 10
5509.517531755641
 20
8746.393475251226
 30
0.0
 11
6347.516918567793
 21
8746.393440660698
 31
0.0
  0
LINE
  5
16551
330
747D
100
AcDbEntity
  8
破線
 48
10.0
100
AcDbLine
 10
5509.517531755641
 20
8796.393475251226
 30
0.0
 11
6347.516918567791
 21
8796.393440660697
 31
0.0
  0
LINE
  5
16552
330
747D
100
AcDbEntity
  8
破線
 48
10.0
100
AcDbLine
 10
6458.516914440441
 20
8746.393474116096
 30
0.0
 11
7297.516918567794
 21
8746.393439484267
 31
0.0
  0
LINE
  5
16553
330
747D
100
AcDbEntity
  8
破線
 48
10.0
100
AcDbLine
 10
6458.51691463628
 20
8796.393474116095
 30
0.0
 11
7297.516918567793
 21
8796.393439484265
 31
0.0
  0
DIMENSION
  5
16554
330
747D
100
AcDbEntity
  8
寸法
100
AcDbDimension
  2
*D28
 10
7226.08149541182
 20
8573.893446026715
 30
0.0
 11
6780.081495411836
 21
8573.893446026715
 31
0.0
 70
   160
 71
     5
 42
891.9999999999964
  3
INABA_S40G
100
AcDbAlignedDimension
 13
6432.016925245429
 23
8939.393446026718
 33
0.0
 14
7324.016925245425
 24
8939.393446026825
 34
0.0
100
AcDbRotatedDimension
1001
ACAD
1000
DSTYLE
1002
{
1002
}
  0
DIMENSION
  5
16555
330
747D
100
AcDbEntity
  8
寸法
100
AcDbDimension
  2
*D29
 10
6276.081495411845
 20
8573.893446026715
 30
0.0
 11
5830.081495411849
 21
8573.893446026715
 31
0.0
 70
   160
 71
     5
 42
892.0
  3
INABA_S40G
100
AcDbAlignedDimension
 13
5482.016925245429
 23
8939.393446026718
 33
0.0
 14
6374.016925245428
 24
8939.393446026745
 34
0.0
100
AcDbRotatedDimension
1001
ACAD
1000
DSTYLE
1002
{
1002
}
  0
LINE
  5
1660B
330
747D
100
AcDbEntity
  8
破線
 48
10.0
100
AcDbLine
 10
5533.016966455868
 20
8746.393474281228
 30
0.0
 11
5533.016918567819
 21
8203.893446026755
 31
0.0
  0
LINE
  5
1660C
330
747D
100
AcDbEntity
  8
破線
 48
10.0
100
AcDbLine
 10
6324.016911837604
 20
8796.393441630719
 30
0.0
 11
6324.016910213264
 21
8939.39344602685
 31
0.0
  0
LINE
  5
1660D
330
747D
100
AcDbEntity
  8
破線
 48
10.0
100
AcDbLine
 10
6482.016908553633
 20
8796.393435108873
 30
0.0
 11
6482.016906136708
 21
8939.3934460268
 31
0.0
  0
LINE
  5
1660E
330
747D
100
AcDbEntity
  8
破線
 48
10.0
100
AcDbLine
 10
7274.016911837603
 20
8796.393402417086
 30
0.0
 11
7274.016910213264
 21
8939.39344602685
 31
0.0
  0
TEXT
  5
1670F
330
747D
100
AcDbEntity
  8
文字
 62
     7
 48
50.0
100
AcDbText
 10
13583.11819016568
 20
9060.013745883729
 30
0.0
 40
100.0
  1
脇パネル
  7
STYLE1
100
AcDbText
  0
TEXT
  5
16710
330
747D
100
AcDbEntity
  8
文字
 62
     7
 48
50.0
100
AcDbText
 10
15022.63965474515
 20
9060.013745883725
 30
0.0
 40
100.0
  1
F12            0.6
  7
STYLE1
100
AcDbText
  0
TEXT
  5
16711
330
747D
100
AcDbEntity
  8
文字
 62
     7
 48
50.0
100
AcDbText
 10
13248.77747366447
 20
8550.013745883735
 30
0.0
 40
100.0
  1
16
  7
STYLE1
100
AcDbText
  0
LINE
  5
16712
330
747D
100
AcDbEntity
  8
仕様書枠
 48
50.0
100
AcDbLine
 10
16307.19999999997
 20
8179.600000000007
 30
0.0
 11
13127.19999999998
 21
8179.600000000007
 31
0.0
  0
TEXT
  5
16713
330
747D
100
AcDbEntity
  8
文字
 62
     7
 48
50.0
100
AcDbText
 10
13583.1181901657
 20
9570.013745883729
 30
0.0
 40
100.0
  1
母屋中
  7
STYLE1
100
AcDbText
  0
TEXT
  5
16714
330
747D
100
AcDbEntity
  8
文字
 62
     7
 48
50.0
100
AcDbText
 10
15022.63965474518
 20
9570.013745883725
 30
0.0
 40
100.0
  1
F12            1.0
  7
STYLE1
100
AcDbText
  0
TEXT
  5
16715
330
747D
100
AcDbEntity
  8
文字
 62
     7
 48
50.0
100
AcDbText
 10
13248.77747366447
 20
8890.013745883731
 30
0.0
 40
100.0
  1
14
  7
STYLE1
100
AcDbText
  0
LINE
  5
16716
330
747D
100
AcDbEntity
  8
仕様書枠
 48
50.0
100
AcDbLine
 10
16307.2
 20
9539.6
 30
0.0
 11
13127.2
 21
9539.6
 31
0.0
  0
TEXT
  5
16717
330
747D
100
AcDbEntity
  8
文字
 62
     7
 48
50.0
100
AcDbText
 10
13583.11819016567
 20
8720.013745883733
 30
0.0
 40
100.0
  1
棚板
  7
STYLE1
100
AcDbText
  0
TEXT
  5
16718
330
747D
100
AcDbEntity
  8
文字
 62
     7
 48
50.0
100
AcDbText
 10
15022.63965474514
 20
8720.013745883729
 30
0.0
 40
100.0
  1
F12            0.6
  7
STYLE1
100
AcDbText
  0
TEXT
  5
16719
330
747D
100
AcDbEntity
  8
文字
 62
     7
 48
50.0
100
AcDbText
 10
13583.11819016567
 20
8890.013745883729
 30
0.0
 40
100.0
  1
扉
  7
STYLE1
100
AcDbText
  0
TEXT
  5
1671A
330
747D
100
AcDbEntity
  8
文字
 62
     7
 48
50.0
100
AcDbText
 10
15022.63965474514
 20
8890.013745883726
 30
0.0
 40
100.0
  1
F12            0.8
  7
STYLE1
100
AcDbText
  0
TEXT
  5
1671B
330
747D
100
AcDbEntity
  8
文字
 62
     7
 48
50.0
100
AcDbText
 10
15022.63965474518
 20
10590.01374588372
 30
0.0
 40
100.0
  1
F12            1.0
  7
STYLE1
100
AcDbText
  0
TEXT
  5
1671C
330
747D
100
AcDbEntity
  8
文字
 62
     7
 48
50.0
100
AcDbText
 10
13583.11819016571
 20
10590.01374588373
 30
0.0
 40
100.0
  1
床パネル
 41
0.9
  7
STYLE1
100
AcDbText
  0
LINE
  5
1671D
330
747D
100
AcDbEntity
  8
仕様書枠
 48
50.0
100
AcDbLine
 10
16307.19999999999
 20
8689.6
 30
0.0
 11
13127.19999999999
 21
8689.600000000003
 31
0.0
  0
LINE
  5
1671E
330
747D
100
AcDbEntity
  8
仕様書枠
 48
50.0
100
AcDbLine
 10
13127.2
 20
11409.6
 30
0.0
 11
13127.19999999999
 21
8179.600000000007
 31
0.0
  0
TEXT
  5
1671F
330
747D
100
AcDbEntity
  8
文字
 62
     7
 48
50.0
100
AcDbText
 10
13229.83081656553
 20
8210.013745883729
 30
0.0
 40
100.0
  1
Y10→溶融亜鉛-5％アルミニウム合金めっき鋼板(JIS G 3317)
 41
0.9
  7
STYLE1
100
AcDbText
  0
TEXT
  5
16720
330
747D
100
AcDbEntity
  8
文字
 62
     7
 48
50.0
100
AcDbText
 10
13229.83081656553
 20
8380.013745883728
 30
0.0
 40
100.0
  1
F12→溶融亜鉛めっき鋼板(JIS G 3302)
  7
STYLE1
100
AcDbText
  0
LINE
  5
16721
330
747D
100
AcDbEntity
  8
仕様書枠
 48
50.0
100
AcDbLine
 10
16307.19999999998
 20
8349.600000000004
 30
0.0
 11
13127.19999999999
 21
8349.600000000004
 31
0.0
  0
TEXT
  5
16722
330
747D
100
AcDbEntity
  8
文字
 62
     7
 48
50.0
100
AcDbText
 10
15022.63965474515
 20
9230.013745883725
 30
0.0
 40
100.0
  1
F12            0.6
  7
STYLE1
100
AcDbText
  0
TEXT
  5
16723
330
747D
100
AcDbEntity
  8
文字
 62
     7
 48
50.0
100
AcDbText
 10
15022.63965474517
 20
9400.013745883725
 30
0.0
 40
100.0
  1
Y10            0.5
  7
STYLE1
100
AcDbText
  0
TEXT
  5
16724
330
747D
100
AcDbEntity
  8
文字
 62
     7
 48
50.0
100
AcDbText
 10
15022.63965474517
 20
9910.013745883725
 30
0.0
 40
100.0
  1
Y10            0.7
  7
STYLE1
100
AcDbText
  0
TEXT
  5
16725
330
747D
100
AcDbEntity
  8
文字
 62
     7
 48
50.0
100
AcDbText
 10
15022.63965474518
 20
10080.01374588372
 30
0.0
 40
100.0
  1
Y10            0.7
  7
STYLE1
100
AcDbText
  0
TEXT
  5
16726
330
747D
100
AcDbEntity
  8
文字
 62
     7
 48
50.0
100
AcDbText
 10
15022.63965474517
 20
10250.01374588372
 30
0.0
 40
100.0
  1
Y10            1.0
  7
STYLE1
100
AcDbText
  0
TEXT
  5
16727
330
747D
100
AcDbEntity
  8
文字
 62
     7
 48
50.0
100
AcDbText
 10
15022.63965474518
 20
10420.01374588372
 30
0.0
 40
100.0
  1
Y10            1.0
  7
STYLE1
100
AcDbText
  0
TEXT
  5
16728
330
747D
100
AcDbEntity
  8
文字
 62
     7
 48
50.0
100
AcDbText
 10
15022.63965474518
 20
10760.01374588372
 30
0.0
 40
100.0
  1
F12            1.0
  7
STYLE1
100
AcDbText
  0
TEXT
  5
16729
330
747D
100
AcDbEntity
  8
文字
 62
     7
 48
50.0
100
AcDbText
 10
15022.63965474517
 20
11100.01374588372
 30
0.0
 40
100.0
  1
F12            1.2
  7
STYLE1
100
AcDbText
  0
TEXT
  5
1672A
330
747D
100
AcDbEntity
  8
文字
 62
     7
 48
50.0
100
AcDbText
 10
13248.77747366447
 20
9230.013745883729
 30
0.0
 40
100.0
  1
12
  7
STYLE1
100
AcDbText
  0
TEXT
  5
1672B
330
747D
100
AcDbEntity
  8
文字
 62
     7
 48
50.0
100
AcDbText
 10
13248.77747366447
 20
9060.013745883729
 30
0.0
 40
100.0
  1
13
  7
STYLE1
100
AcDbText
  0
LINE
  5
1672C
330
747D
100
AcDbEntity
  8
仕様書枠
 48
50.0
100
AcDbLine
 10
16307.19999999999
 20
8519.600000000002
 30
0.0
 11
13127.19999999999
 21
8519.600000000004
 31
0.0
  0
LINE
  5
1672D
330
747D
100
AcDbEntity
  8
仕様書枠
 48
50.0
100
AcDbLine
 10
16307.19999999999
 20
8859.6
 30
0.0
 11
13127.19999999999
 21
8859.6
 31
0.0
  0
TEXT
  5
1672E
330
747D
100
AcDbEntity
  8
文字
 62
     7
 48
50.0
100
AcDbText
 10
13248.77747366447
 20
9400.013745883729
 30
0.0
 40
100.0
  1
11
  7
STYLE1
100
AcDbText
  0
LINE
  5
1672F
330
747D
100
AcDbEntity
  8
仕様書枠
 48
50.0
100
AcDbLine
 10
16307.2
 20
9709.600000000001
 30
0.0
 11
13127.2
 21
9709.600000000001
 31
0.0
  0
LINE
  5
16730
330
747D
100
AcDbEntity
  8
仕様書枠
 48
50.0
100
AcDbLine
 10
16307.2
 20
10049.6
 30
0.0
 11
13127.2
 21
10049.6
 31
0.0
  0
LINE
  5
16731
330
747D
100
AcDbEntity
  8
仕様書枠
 48
50.0
100
AcDbLine
 10
16307.19999999999
 20
9199.600000000001
 30
0.0
 11
13127.19999999999
 21
9199.600000000001
 31
0.0
  0
LINE
  5
16732
330
747D
100
AcDbEntity
  8
仕様書枠
 48
50.0
100
AcDbLine
 10
16307.19999999999
 20
9029.6
 30
0.0
 11
13127.19999999999
 21
9029.6
 31
0.0
  0
LINE
  5
16733
330
747D
100
AcDbEntity
  8
仕様書枠
 48
50.0
100
AcDbLine
 10
16307.19999999999
 20
9369.600000000001
 30
0.0
 11
13127.19999999999
 21
9369.600000000001
 31
0.0
  0
TEXT
  5
16734
330
747D
100
AcDbEntity
  8
文字
 62
     7
 48
50.0
100
AcDbText
 10
13271.19032244793
 20
10250.01374588373
 30
0.0
 40
100.0
  1
6
  7
STYLE1
100
AcDbText
  0
TEXT
  5
16735
330
747D
100
AcDbEntity
  8
文字
 62
     7
 48
50.0
100
AcDbText
 10
13271.19032244793
 20
10080.01374588373
 30
0.0
 40
100.0
  1
7
  7
STYLE1
100
AcDbText
  0
TEXT
  5
16736
330
747D
100
AcDbEntity
  8
文字
 62
     7
 48
50.0
100
AcDbText
 10
13271.19032244792
 20
9740.013745883729
 30
0.0
 40
100.0
  1
9
  7
STYLE1
100
AcDbText
  0
TEXT
  5
16737
330
747D
100
AcDbEntity
  8
文字
 62
     7
 48
50.0
100
AcDbText
 10
13271.19032244793
 20
9910.01374588373
 30
0.0
 40
100.0
  1
8
  7
STYLE1
100
AcDbText
  0
TEXT
  5
16738
330
747D
100
AcDbEntity
  8
文字
 62
     7
 48
50.0
100
AcDbText
 10
13583.1181901657
 20
9910.01374588373
 30
0.0
 40
100.0
  1
鼻隠シ前後
  7
STYLE1
100
AcDbText
  0
TEXT
  5
16739
330
747D
100
AcDbEntity
  8
文字
 62
     7
 48
50.0
100
AcDbText
 10
13583.11819016569
 20
9400.013745883729
 30
0.0
 40
100.0
  1
屋根パネル
  7
STYLE1
100
AcDbText
  0
TEXT
  5
1673A
330
747D
100
AcDbEntity
  8
文字
 62
     7
 48
50.0
100
AcDbText
 10
13583.11819016568
 20
9230.013745883729
 30
0.0
 40
100.0
  1
壁パネル
  7
STYLE1
100
AcDbText
  0
TEXT
  5
1673B
330
747D
100
AcDbEntity
  8
文字
 62
     7
 48
50.0
100
AcDbText
 10
13248.77747366447
 20
9570.013745883729
 30
0.0
 40
100.0
  1
10
  7
STYLE1
100
AcDbText
  0
TEXT
  5
1673C
330
747D
100
AcDbEntity
  8
文字
 62
     7
 48
50.0
100
AcDbText
 10
13583.1181901657
 20
10080.01374588373
 30
0.0
 40
100.0
  1
妻板左右
  7
STYLE1
100
AcDbText
  0
TEXT
  5
1673D
330
747D
100
AcDbEntity
  8
文字
 62
     7
 48
50.0
100
AcDbText
 10
13271.19032244793
 20
10420.01374588373
 30
0.0
 40
100.0
  1
5
  7
STYLE1
100
AcDbText
  0
TEXT
  5
1673E
330
747D
100
AcDbEntity
  8
文字
 62
     7
 48
50.0
100
AcDbText
 10
13583.1181901657
 20
10250.01374588373
 30
0.0
 40
100.0
  1
桁後
  7
STYLE1
100
AcDbText
  0
TEXT
  5
1673F
330
747D
100
AcDbEntity
  8
文字
 62
     7
 48
50.0
100
AcDbText
 10
13583.1181901657
 20
10420.01374588373
 30
0.0
 40
100.0
  1
鴨居
  7
STYLE1
100
AcDbText
  0
TEXT
  5
16740
330
747D
100
AcDbEntity
  8
文字
 62
     7
 48
50.0
100
AcDbText
 10
13583.1181901657
 20
10760.01374588373
 30
0.0
 40
100.0
  1
柱
  7
STYLE1
100
AcDbText
  0
TEXT
  5
16741
330
747D
100
AcDbEntity
  8
文字
 62
     7
 48
50.0
100
AcDbText
 10
13583.11819016569
 20
11100.01374588373
 30
0.0
 40
100.0
  1
土台枠
  7
STYLE1
100
AcDbText
  0
TEXT
  5
16742
330
747D
100
AcDbEntity
  8
文字
 62
     7
 48
50.0
100
AcDbText
 10
14859.79774614482
 20
11270.01374588373
 30
0.0
 40
100.0
  1
材料（材質）　　単位mm
  7
STYLE1
100
AcDbText
  0
TEXT
  5
16743
330
747D
100
AcDbEntity
  8
文字
 62
     7
 48
50.0
100
AcDbText
 10
13732.03840939435
 20
11270.01374588373
 30
0.0
 40
100.0
  1
部　　品　　名
  7
STYLE1
100
AcDbText
  0
TEXT
  5
16744
330
747D
100
AcDbEntity
  8
文字
 62
     7
 48
50.0
100
AcDbText
 10
13271.19032244793
 20
10760.01374588373
 30
0.0
 40
100.0
  1
3
  7
STYLE1
100
AcDbText
  0
TEXT
  5
16745
330
747D
100
AcDbEntity
  8
文字
 62
     7
 48
50.0
100
AcDbText
 10
13271.19032244793
 20
10590.01374588373
 30
0.0
 40
100.0
  1
4
  7
STYLE1
100
AcDbText
  0
TEXT
  5
16746
330
747D
100
AcDbEntity
  8
文字
 62
     7
 48
50.0
100
AcDbText
 10
13271.19032244792
 20
10930.01374588373
 30
0.0
 40
100.0
  1
2
  7
STYLE1
100
AcDbText
  0
TEXT
  5
16747
330
747D
100
AcDbEntity
  8
文字
 62
     7
 48
50.0
100
AcDbText
 10
13271.19032244792
 20
11100.01374588373
 30
0.0
 40
100.0
  1
1
  7
STYLE1
100
AcDbText
  0
TEXT
  5
16748
330
747D
100
AcDbEntity
  8
文字
 62
     7
 48
50.0
100
AcDbText
 10
13197.42518560407
 20
11270.01374588373
 30
0.0
 40
100.0
  1
品番
  7
STYLE1
100
AcDbText
  0
LINE
  5
16749
330
747D
100
AcDbEntity
  8
仕様書枠
 48
50.0
100
AcDbLine
 10
16307.2
 20
10559.6
 30
0.0
 11
13127.2
 21
10559.6
 31
0.0
  0
LINE
  5
1674A
330
747D
100
AcDbEntity
  8
仕様書枠
 48
50.0
100
AcDbLine
 10
16307.2
 20
10219.6
 30
0.0
 11
13127.2
 21
10219.6
 31
0.0
  0
LINE
  5
1674B
330
747D
100
AcDbEntity
  8
仕様書枠
 48
50.0
100
AcDbLine
 10
16307.2
 20
10389.6
 30
0.0
 11
13127.2
 21
10389.6
 31
0.0
  0
LINE
  5
1674C
330
747D
100
AcDbEntity
  8
仕様書枠
 48
50.0
100
AcDbLine
 10
16307.2
 20
11069.6
 30
0.0
 11
13127.2
 21
11069.6
 31
0.0
  0
LINE
  5
1674D
330
747D
100
AcDbEntity
  8
仕様書枠
 48
50.0
100
AcDbLine
 10
16307.2
 20
10729.6
 30
0.0
 11
13127.2
 21
10729.6
 31
0.0
  0
LINE
  5
1674E
330
747D
100
AcDbEntity
  8
仕様書枠
 48
50.0
100
AcDbLine
 10
16307.2
 20
11239.6
 30
0.0
 11
13127.2
 21
11239.6
 31
0.0
  0
LINE
  5
1674F
330
747D
100
AcDbEntity
  8
仕様書枠
 48
50.0
100
AcDbLine
 10
13490.2
 20
11409.6
 30
0.0
 11
13490.20000000001
 21
8519.600000000004
 31
0.0
  0
LINE
  5
16750
330
747D
100
AcDbEntity
  8
仕様書枠
 48
50.0
100
AcDbLine
 10
14785.2
 20
11409.59999999999
 30
0.0
 11
14785.2
 21
8519.600000000002
 31
0.0
  0
LINE
  5
16751
330
747D
100
AcDbEntity
  8
仕様書枠
 48
50.0
100
AcDbLine
 10
16307.19999999999
 20
8179.600000000007
 30
0.0
 11
16307.2
 21
11409.6
 31
0.0
  0
LINE
  5
16752
330
747D
100
AcDbEntity
  8
仕様書枠
 48
50.0
100
AcDbLine
 10
16307.2
 20
9879.600000000001
 30
0.0
 11
13127.2
 21
9879.600000000001
 31
0.0
  0
TEXT
  5
16753
330
747D
100
AcDbEntity
  8
文字
 62
     7
 48
50.0
100
AcDbText
 10
15022.63965474513
 20
8550.013745883722
 30
0.0
 40
100.0
  1
F12            2.3
  7
STYLE1
100
AcDbText
  0
TEXT
  5
16754
330
747D
100
AcDbEntity
  8
文字
 62
     7
 48
50.0
100
AcDbText
 10
13583.11819016567
 20
8550.013745883729
 30
0.0
 40
100.0
  1
アンカープレート
  7
STYLE1
100
AcDbText
  0
TEXT
  5
16755
330
747D
100
AcDbEntity
  8
文字
 62
     7
 48
50.0
100
AcDbText
 10
15022.63965474517
 20
9740.013745883729
 30
0.0
 40
100.0
  1
F12,Y10       0.7+1.0
  7
STYLE1
100
AcDbText
  0
TEXT
  5
16756
330
747D
100
AcDbEntity
  8
文字
 62
     7
 48
50.0
100
AcDbText
 10
13583.1181901657
 20
9740.013745883729
 30
0.0
 40
100.0
  1
梁中央
 41
0.9
  7
STYLE1
100
AcDbText
  0
LINE
  5
16757
330
747D
100
AcDbEntity
  8
仕様書枠
 48
50.0
100
AcDbLine
 10
16307.2
 20
10899.6
 30
0.0
 11
13127.2
 21
10899.6
 31
0.0
  0
TEXT
  5
16758
330
747D
100
AcDbEntity
  8
文字
 62
     7
 48
50.0
100
AcDbText
 10
13248.77747366447
 20
8720.013745883735
 30
0.0
 40
100.0
  1
15
  7
STYLE1
100
AcDbText
  0
TEXT
  5
16759
330
747D
100
AcDbEntity
  8
文字
 62
     7
 48
50.0
100
AcDbText
 10
13583.11819016569
 20
10930.01374588373
 30
0.0
 40
100.0
  1
根太
  7
STYLE1
100
AcDbText
  0
TEXT
  5
1675A
330
747D
100
AcDbEntity
  8
文字
 62
     7
 48
50.0
100
AcDbText
 10
15022.63965474517
 20
10930.01374588372
 30
0.0
 40
100.0
  1
F12            1.2
  7
STYLE1
100
AcDbText
  0
TEXT
  5
167D1
330
747D
100
AcDbEntity
  8
文字
 62
     7
 48
50.0
100
AcDbText
 10
15047.13957933145
 20
1031.557706291228
 30
0.0
 40
100.0
  1
     <縮尺> S=1/40
  7
STYLE2
100
AcDbText
  0
LWPOLYLINE
  5
16854
330
747D
100
AcDbEntity
  8
細線
  6
Continuous
370
    15
100
AcDbPolyline
 90
        3
 70
   128
 43
0.0
 10
5548.430145172284
 20
4179.618339497053
 10
5548.501730350659
 20
4179.594080406629
 10
5548.516929535077
 20
4179.591398197614
  0
ARC
  5
16855
330
747D
100
AcDbEntity
  8
細線
  6
Continuous
370
    15
100
AcDbCircle
 10
5545.016917669387
 20
4172.604765219507
 30
0.0
 40
7.799999999999959
100
AcDbArc
 50
64.04961909222373
 51
115.6437752580401
  0
LWPOLYLINE
  5
16856
330
747D
100
AcDbEntity
  8
細線
  6
Continuous
370
    15
100
AcDbPolyline
 90
        3
 70
   128
 43
0.0
 10
5541.516930250333
 20
4179.606955009901
 10
5541.569561151669
 20
4179.612617451154
 10
5541.641265539334
 20
4179.636459309064
  0
SPLINE
  5
16857
330
747D
100
AcDbEntity
  8
細線
  6
Continuous
370
    15
100
AcDbSpline
210
0.0
220
0.0
230
1.0
 70
     8
 71
     3
 72
     9
 73
     5
 74
     0
 42
0.000000001
 43
0.0000000001
 40
0.0
 40
0.0
 40
0.0
 40
0.0
 40
0.7237658969060897
 40
1.0
 40
1.0
 40
1.0
 40
1.0
 10
5526.921838907407
 20
4206.916551548444
 30
0.0
 10
5527.117580404329
 20
4207.145232990656
 30
0.0
 10
5527.388029036634
 20
4207.461193501071
 30
0.0
 10
5527.425561282345
 20
4208.02020793495
 30
0.0
 10
5527.435928968595
 20
4208.174626785718
 30
0.0
  0
SPLINE
  5
16858
330
747D
100
AcDbEntity
  8
細線
  6
Continuous
370
    15
100
AcDbSpline
210
0.0
220
0.0
230
1.0
 70
     8
 71
     3
 72
     9
 73
     5
 74
     0
 42
0.000000001
 43
0.0000000001
 40
0.0
 40
0.0
 40
0.0
 40
0.0
 40
0.1817420378681831
 40
1.0
 40
1.0
 40
1.0
 40
1.0
 10
5527.430713562177
 20
4289.143185574018
 30
0.0
 10
5527.423717897675
 20
4289.237700040433
 30
0.0
 10
5527.385225622622
 20
4289.757747397273
 30
0.0
 10
5527.130373602236
 20
4290.052101545919
 30
0.0
 10
5526.921838907407
 20
4290.292959171735
 30
0.0
  0
LINE
  5
16859
330
747D
100
AcDbEntity
  8
細線
  6
Continuous
370
    15
100
AcDbLine
 10
5552.605122713254
 20
4284.855108219587
 30
0.0
 11
5552.605122713254
 21
4212.354402500593
 31
0.0
  0
LINE
  5
1685A
330
747D
100
AcDbEntity
  8
細線
  6
Continuous
370
    15
100
AcDbLine
 10
5547.167271761106
 20
4206.916551548444
 30
0.0
 11
5526.921838907407
 21
4206.916551548444
 31
0.0
  0
ELLIPSE
  5
1685B
330
747D
100
AcDbEntity
  8
細線
  6
Continuous
370
    15
100
AcDbEllipse
 10
5522.116917669421
 20
4208.065687749981
 30
0.0
 11
5.399999999999976
 21
0.0
 31
0.0
210
0.0
220
0.0
230
1.0
 40
0.4663076581550023
 41
5.04728513882407
 42
5.809296398627029
  0
LINE
  5
1685C
330
747D
100
AcDbEntity
  8
細線
  6
Continuous
370
    15
100
AcDbLine
 10
5523.891747383283
 20
4205.687503773176
 30
0.0
 11
5522.116929678128
 21
4205.687503773176
 31
0.0
  0
LINE
  5
1685D
330
747D
100
AcDbEntity
  8
細線
  6
Continuous
370
    15
100
AcDbLine
 10
5522.116929678128
 20
4291.522006947004
 30
0.0
 11
5523.891747383283
 21
4291.522006947004
 31
0.0
  0
ELLIPSE
  5
1685E
330
747D
100
AcDbEntity
  8
細線
  6
Continuous
370
    15
100
AcDbEllipse
 10
5522.116917669421
 20
4289.143842689019
 30
0.0
 11
5.399999999999976
 21
0.0
 31
0.0
210
0.0
220
0.0
230
1.0
 40
0.4663076581550023
 41
0.4738889085525403
 42
1.235900168355494
  0
LINE
  5
1685F
330
747D
100
AcDbEntity
  8
細線
  6
Continuous
370
    15
100
AcDbLine
 10
5526.921838907407
 20
4290.292959171735
 30
0.0
 11
5547.167271761106
 21
4290.292959171735
 31
0.0
  0
ELLIPSE
  5
16860
330
747D
100
AcDbEntity
  8
細線
  6
Continuous
370
    15
100
AcDbEllipse
 10
5522.116917669421
 20
4288.211877988734
 30
0.0
 11
0.0
 21
-3.310133756887523
 31
0.0
210
0.0
220
0.0
230
1.0
 40
0.9063077870366367
 41
3.141592653589783
 42
4.712388980384702
  0
ELLIPSE
  5
16861
330
747D
100
AcDbEntity
  8
細線
  6
Continuous
370
    15
100
AcDbEllipse
 10
5522.116917669421
 20
4208.997652450281
 30
0.0
 11
0.0
 21
-3.310133756887466
 31
0.0
210
0.0
220
0.0
230
1.0
 40
0.9063077870366523
 41
4.712388980384702
 42
6.283185307179586
  0
ARC
  5
16862
330
747D
100
AcDbEntity
  8
細線
  6
Continuous
370
    15
100
AcDbCircle
 10
5545.016917669387
 20
4172.604765219507
 30
0.0
 40
7.499999999999996
100
AcDbArc
 50
120.3006176375393
 51
59.69938236246067
  0
SPLINE
  5
16863
330
747D
100
AcDbEntity
  8
細線
  6
Continuous
370
    15
100
AcDbSpline
210
0.0
220
0.0
230
1.0
 70
    24
 71
     3
 72
     9
 73
     5
 74
     0
 42
0.000000001
 43
0.0000000001
 40
0.0
 40
0.0
 40
0.0
 40
0.0
 40
0.8663703693180105
 40
1.0
 40
1.0
 40
1.0
 40
1.0
 10
5541.516930250333
 20
4179.414133984052
 30
0.0
 10
5541.516930250333
 20
4179.361762423864
 30
0.0
 10
5541.516930250333
 20
4179.30131303405
 30
0.0
 10
5541.516930250333
 20
4179.245465186041
 30
0.0
 10
5541.516930250333
 20
4179.238002258741
 30
0.0
  0
LINE
  5
16864
330
747D
100
AcDbEntity
  8
細線
  6
Continuous
370
    15
100
AcDbLine
 10
5541.516930250333
 20
4179.238002258741
 30
0.0
 11
5541.232884315656
 21
4179.080169159376
 31
0.0
  0
LINE
  5
16865
330
747D
100
AcDbEntity
  8
細線
  6
Continuous
370
    15
100
AcDbLine
 10
5548.800945667432
 20
4179.080169159376
 30
0.0
 11
5548.516929535077
 21
4179.238002258741
 31
0.0
  0
SPLINE
  5
16866
330
747D
100
AcDbEntity
  8
細線
  6
Continuous
370
    15
100
AcDbSpline
210
0.0
220
0.0
230
1.0
 70
    24
 71
     3
 72
     9
 73
     5
 74
     0
 42
0.000000001
 43
0.0000000001
 40
0.0
 40
0.0
 40
0.0
 40
0.0
 40
0.8651188723649402
 40
1.0
 40
1.0
 40
1.0
 40
1.0
 10
5548.516929535077
 20
4179.238002258741
 30
0.0
 10
5548.516929535077
 20
4179.288089576172
 30
0.0
 10
5548.516929535077
 20
4179.345986032984
 30
0.0
 10
5548.516929535077
 20
4179.406034569702
 30
0.0
 10
5548.516929535077
 20
4179.414133984052
 30
0.0
  0
ARC
  5
16867
330
747D
100
AcDbEntity
  8
細線
  6
Continuous
370
    15
100
AcDbCircle
 10
5545.016917669387
 20
4172.604765219507
 30
0.0
 40
9.499999999999973
100
AcDbArc
 50
69.15570700480905
 51
110.8442929951909
  0
LINE
  5
16868
330
747D
100
AcDbEntity
  8
細線
  6
Continuous
370
    15
100
AcDbLine
 10
5548.516929535077
 20
4179.414133984052
 30
0.0
 11
5548.516929535077
 21
4181.30944247862
 31
0.0
  0
LINE
  5
16869
330
747D
100
AcDbEntity
  8
細線
  6
Continuous
370
    15
100
AcDbLine
 10
5541.516930250333
 20
4181.30944247862
 30
0.0
 11
5541.516930250333
 21
4179.414133984052
 31
0.0
  0
LINE
  5
1686A
330
747D
100
AcDbEntity
  8
細線
  6
Continuous
370
    15
100
AcDbLine
 10
5548.516929535077
 20
4181.30944247862
 30
0.0
 11
5548.516929535077
 21
4181.436519581281
 31
0.0
  0
LINE
  5
1686B
330
747D
100
AcDbEntity
  8
細線
  6
Continuous
370
    15
100
AcDbLine
 10
5548.516929535077
 20
4181.436519581281
 30
0.0
 11
5548.397303013013
 21
4181.483011204206
 31
0.0
  0
LINE
  5
1686C
330
747D
100
AcDbEntity
  8
細線
  6
Continuous
370
    15
100
AcDbLine
 10
5541.636526970075
 20
4181.483011204206
 30
0.0
 11
5541.516930250333
 21
4181.436519581281
 31
0.0
  0
LINE
  5
1686D
330
747D
100
AcDbEntity
  8
細線
  6
Continuous
370
    15
100
AcDbLine
 10
5541.516930250333
 20
4181.436519581281
 30
0.0
 11
5541.516930250333
 21
4181.30944247862
 31
0.0
  0
ARC
  5
1686E
330
747D
100
AcDbEntity
  8
細線
  6
Continuous
370
    15
100
AcDbCircle
 10
5562.016917669387
 20
4312.604765219507
 30
0.0
 40
6.0
100
AcDbArc
 50
0.0
 51
90.0
  0
LINE
  5
1686F
330
747D
100
AcDbEntity
  8
細線
  6
Continuous
370
    15
100
AcDbLine
 10
5568.016916898892
 20
4312.604765850507
 30
0.0
 11
5568.016916898892
 21
4144.604783016645
 31
0.0
  0
LINE
  5
16870
330
747D
100
AcDbEntity
  8
細線
  6
Continuous
370
    15
100
AcDbLine
 10
5510.016918567822
 20
4144.604783016645
 30
0.0
 11
5510.016918567822
 21
4312.604765850507
 31
0.0
  0
LINE
  5
16871
330
747D
100
AcDbEntity
  8
細線
  6
Continuous
370
    15
100
AcDbLine
 10
5516.01693072717
 20
4318.604807812177
 30
0.0
 11
5562.016904739545
 21
4318.604807812177
 31
0.0
  0
ARC
  5
16872
330
747D
100
AcDbEntity
  8
細線
  6
Continuous
370
    15
100
AcDbCircle
 10
5562.016917669387
 20
4144.604765219507
 30
0.0
 40
6.0
100
AcDbArc
 50
270.0
 51
0.0
  0
ARC
  5
16873
330
747D
100
AcDbEntity
  8
細線
  6
Continuous
370
    15
100
AcDbCircle
 10
5516.016917669387
 20
4312.604765219507
 30
0.0
 40
6.0
100
AcDbArc
 50
90.0
 51
180.0
  0
LINE
  5
16874
330
747D
100
AcDbEntity
  8
細線
  6
Continuous
370
    15
100
AcDbLine
 10
5562.016904739545
 20
4138.604741054975
 30
0.0
 11
5516.01693072717
 21
4138.604741054975
 31
0.0
  0
ARC
  5
16875
330
747D
100
AcDbEntity
  8
細線
  6
Continuous
370
    15
100
AcDbCircle
 10
5516.016917669387
 20
4144.604765219507
 30
0.0
 40
6.0
100
AcDbArc
 50
180.0
 51
270.0
  0
LINE
  5
16876
330
747D
100
AcDbEntity
  8
細線
  6
Continuous
370
    15
100
AcDbLine
 10
5551.113218454526
 20
4182.836990314924
 30
0.0
 11
5551.113218454526
 21
4178.82160421034
 31
0.0
  0
ARC
  5
16877
330
747D
100
AcDbEntity
  8
細線
  6
Continuous
370
    15
100
AcDbCircle
 10
5545.016917669387
 20
4172.604765219507
 30
0.0
 40
8.707106781186586
100
AcDbArc
 50
134.4391355081549
 51
45.56086449184513
  0
LINE
  5
16878
330
747D
100
AcDbEntity
  8
細線
  6
Continuous
370
    15
100
AcDbLine
 10
5538.920641330884
 20
4178.82160421034
 30
0.0
 11
5538.920641330884
 21
4182.836990314924
 31
0.0
  0
SPLINE
  5
16879
330
747D
100
AcDbEntity
  8
細線
  6
Continuous
370
    15
100
AcDbSpline
210
0.0
220
0.0
230
1.0
 70
     8
 71
     3
 72
    11
 73
     7
 74
     0
 42
0.000000001
 43
0.0000000001
 40
0.0
 40
0.0
 40
0.0
 40
0.0
 40
0.0781314889249488
 40
0.3601777463886433
 40
0.6812698848259567
 40
1.0
 40
1.0
 40
1.0
 40
1.0
 10
5539.11069074075
 20
4183.161120373212
 30
0.0
 10
5539.101828310055
 20
4183.155932257704
 30
0.0
 10
5539.060973459329
 20
4183.132015604186
 30
0.0
 10
5538.992228315763
 20
4183.072705276335
 30
0.0
 10
5538.93018680444
 20
4182.96383997035
 30
0.0
 10
5538.923815314888
 20
4182.879169340925
 30
0.0
 10
5538.920641330884
 20
4182.836990314924
 30
0.0
  0
ARC
  5
1687A
330
747D
100
AcDbEntity
  8
細線
  6
Continuous
370
    15
100
AcDbCircle
 10
5545.016917669387
 20
4172.604765219507
 30
0.0
 40
12.09629120178367
100
AcDbArc
 50
60.77315626978887
 51
119.2268437302111
  0
SPLINE
  5
1687B
330
747D
100
AcDbEntity
  8
細線
  6
Continuous
370
    15
100
AcDbSpline
210
0.0
220
0.0
230
1.0
 70
     8
 71
     3
 72
    11
 73
     7
 74
     0
 42
0.000000001
 43
0.0000000001
 40
0.0
 40
0.0
 40
0.0
 40
0.0
 40
0.0779029322309155
 40
0.3600683505069131
 40
0.6812326600027312
 40
1.0
 40
1.0
 40
1.0
 40
1.0
 10
5551.113218454526
 20
4182.836990314924
 30
0.0
 10
5551.113016181361
 20
4182.84722724066
 30
0.0
 10
5551.112081272293
 20
4182.894542442542
 30
0.0
 10
5551.093884262633
 20
4182.983479198719
 30
0.0
 10
5551.029227233549
 20
4183.090843678054
 30
0.0
 10
5550.958433384248
 20
4183.137753377489
 30
0.0
 10
5550.92316904466
 20
4183.161120373212
 30
0.0
  0
LINE
  5
1687C
330
747D
100
AcDbEntity
  8
細線
  6
Continuous
370
    15
100
AcDbLine
 10
5522.049461988614
 20
4297.604780155622
 30
0.0
 11
5552.916913894819
 21
4297.604780155622
 31
0.0
  0
LINE
  5
1687D
330
747D
100
AcDbEntity
  8
細線
  6
Continuous
370
    15
100
AcDbLine
 10
5517.049461988614
 20
4204.604790169202
 30
0.0
 11
5517.049461988614
 21
4292.604780155622
 31
0.0
  0
ARC
  5
1687E
330
747D
100
AcDbEntity
  8
細線
  6
Continuous
370
    15
100
AcDbCircle
 10
5522.049461988614
 20
4292.604780155622
 30
0.0
 40
5.0
100
AcDbArc
 50
90.0
 51
180.0
  0
LINE
  5
1687F
330
747D
100
AcDbEntity
  8
細線
  6
Continuous
370
    15
100
AcDbLine
 10
5519.116908697293
 20
4288.211877988734
 30
0.0
 11
5519.116908697293
 21
4208.997652450281
 31
0.0
  0
LINE
  5
16880
330
747D
100
AcDbEntity
  8
細線
  6
Continuous
370
    15
100
AcDbLine
 10
5559.916913894818
 20
4290.604780155622
 30
0.0
 11
5559.916913894818
 21
4206.604790169203
 31
0.0
  0
ARC
  5
16881
330
747D
100
AcDbEntity
  8
細線
  6
Continuous
370
    15
100
AcDbCircle
 10
5552.916913894819
 20
4206.604790169203
 30
0.0
 40
7.0
100
AcDbArc
 50
270.0
 51
0.0
  0
ARC
  5
16882
330
747D
100
AcDbEntity
  8
細線
  6
Continuous
370
    15
100
AcDbCircle
 10
5552.916913894819
 20
4290.604780155622
 30
0.0
 40
7.0
100
AcDbArc
 50
0.0
 51
90.0
  0
LINE
  5
16883
330
747D
100
AcDbEntity
  8
細線
  6
Continuous
370
    15
100
AcDbLine
 10
5552.916913894819
 20
4199.604790169202
 30
0.0
 11
5522.049461988614
 21
4199.604790169202
 31
0.0
  0
ARC
  5
16884
330
747D
100
AcDbEntity
  8
細線
  6
Continuous
370
    15
100
AcDbCircle
 10
5522.049461988614
 20
4204.604790169202
 30
0.0
 40
5.0
100
AcDbArc
 50
180.0
 51
270.0
  0
ARC
  5
16885
330
747D
100
AcDbEntity
  8
細線
  6
Continuous
370
    15
100
AcDbCircle
 10
5545.836520584298
 20
4213.6851536774
 30
0.0
 40
6.898178997000096
100
AcDbArc
 50
281.1228560456502
 51
348.8771439544009
  0
ARC
  5
16886
330
747D
100
AcDbEntity
  8
細線
  6
Continuous
370
    15
100
AcDbCircle
 10
5545.836572610655
 20
4283.52440906915
 30
0.0
 40
6.89811791144148
100
AcDbArc
 50
11.12251539540163
 51
78.87748460464951
  0
LINE
  5
16887
330
747D
100
AcDbEntity
  8
細線
  6
Continuous
370
    15
100
AcDbLine
 10
5535.114705948041
 20
4210.174626785718
 30
0.0
 11
5535.114705948041
 21
4287.143185574018
 31
0.0
  0
ARC
  5
16888
330
747D
100
AcDbEntity
  8
細線
  6
Continuous
370
    15
100
AcDbCircle
 10
5533.11470594804
 20
4287.143185574018
 30
0.0
 40
2.0
100
AcDbArc
 50
0.0
 51
90.0
  0
ARC
  5
16889
330
747D
100
AcDbEntity
  8
細線
  6
Continuous
370
    15
100
AcDbCircle
 10
5533.11469502677
 20
4210.158921581703
 30
0.0
 40
2.0
100
AcDbArc
 50
262.8149626715364
 51
0.0
  0
LWPOLYLINE
  5
1688A
330
747D
100
AcDbEntity
  8
細線
 48
50.0
100
AcDbPolyline
 90
        4
 70
     1
 43
0.0
 10
5546.27901354234
 20
4167.776386696302
 10
5543.75484624307
 20
4167.776386696302
 10
5543.75484624307
 20
4177.433173614942
 10
5546.27901354234
 20
4177.433173614942
  0
LINE
  5
1688B
330
747D
100
AcDbEntity
  8
細線
  6
Continuous
370
    15
100
AcDbLine
 10
5533.11470594804
 20
4208.174626785718
 30
0.0
 11
5527.435928968595
 21
4208.17462678572
 31
0.0
  0
LINE
  5
1688C
330
747D
100
AcDbEntity
  8
細線
  6
Continuous
370
    15
100
AcDbLine
 10
5521.844715265439
 20
4209.174626785719
 30
0.0
 11
5521.844715265439
 21
4288.143185574018
 31
0.0
  0
ARC
  5
1688D
330
747D
100
AcDbEntity
  8
細線
  6
Continuous
370
    15
100
AcDbCircle
 10
5522.844715265438
 20
4288.143185574018
 30
0.0
 40
1.0
100
AcDbArc
 50
90.0
 51
180.0
  0
LINE
  5
1688E
330
747D
100
AcDbEntity
  8
細線
  6
Continuous
370
    15
100
AcDbLine
 10
5527.430713562177
 20
4289.143185574018
 30
0.0
 11
5522.844715265438
 21
4289.143185574018
 31
0.0
  0
LINE
  5
1688F
330
747D
100
AcDbEntity
  8
細線
  6
Continuous
370
    15
100
AcDbLine
 10
5527.435928968595
 20
4208.174626785718
 30
0.0
 11
5522.844715265438
 21
4208.174626785718
 31
0.0
  0
ARC
  5
16890
330
747D
100
AcDbEntity
  8
細線
  6
Continuous
370
    15
100
AcDbCircle
 10
5522.844715265438
 20
4209.174626785719
 30
0.0
 40
1.0
100
AcDbArc
 50
180.0
 51
270.0
  0
LINE
  5
16891
330
747D
100
AcDbEntity
  8
細線
  6
Continuous
370
    15
100
AcDbLine
 10
5533.11470594804
 20
4289.143185574018
 30
0.0
 11
5527.315236737155
 21
4289.143185574018
 31
0.0
  0
LWPOLYLINE
  5
16892
330
747D
100
AcDbEntity
  8
細線
  6
Continuous
370
    15
100
AcDbPolyline
 90
        3
 70
   128
 43
0.0
 10
6498.430145172285
 20
4179.618339497052
 10
6498.50173035066
 20
4179.594080406628
 10
6498.516929535078
 20
4179.591398197613
  0
ARC
  5
16893
330
747D
100
AcDbEntity
  8
細線
  6
Continuous
370
    15
100
AcDbCircle
 10
6495.016917669388
 20
4172.604765219506
 30
0.0
 40
7.799999999999959
100
AcDbArc
 50
64.04961909222373
 51
115.6437752580401
  0
LWPOLYLINE
  5
16894
330
747D
100
AcDbEntity
  8
細線
  6
Continuous
370
    15
100
AcDbPolyline
 90
        3
 70
   128
 43
0.0
 10
6491.516930250334
 20
4179.6069550099
 10
6491.569561151671
 20
4179.612617451153
 10
6491.641265539335
 20
4179.636459309064
  0
SPLINE
  5
16895
330
747D
100
AcDbEntity
  8
細線
  6
Continuous
370
    15
100
AcDbSpline
210
0.0
220
0.0
230
1.0
 70
     8
 71
     3
 72
     9
 73
     5
 74
     0
 42
0.000000001
 43
0.0000000001
 40
0.0
 40
0.0
 40
0.0
 40
0.0
 40
0.7237658969060897
 40
1.0
 40
1.0
 40
1.0
 40
1.0
 10
6476.921838907408
 20
4206.916551548443
 30
0.0
 10
6477.117580404329
 20
4207.145232990654
 30
0.0
 10
6477.388029036635
 20
4207.46119350107
 30
0.0
 10
6477.425561282347
 20
4208.020207934949
 30
0.0
 10
6477.435928968596
 20
4208.174626785718
 30
0.0
  0
SPLINE
  5
16896
330
747D
100
AcDbEntity
  8
細線
  6
Continuous
370
    15
100
AcDbSpline
210
0.0
220
0.0
230
1.0
 70
     8
 71
     3
 72
     9
 73
     5
 74
     0
 42
0.000000001
 43
0.0000000001
 40
0.0
 40
0.0
 40
0.0
 40
0.0
 40
0.1817420378681831
 40
1.0
 40
1.0
 40
1.0
 40
1.0
 10
6477.430713562178
 20
4289.143185574017
 30
0.0
 10
6477.423717897676
 20
4289.237700040432
 30
0.0
 10
6477.385225622623
 20
4289.757747397272
 30
0.0
 10
6477.130373602237
 20
4290.052101545918
 30
0.0
 10
6476.921838907408
 20
4290.292959171734
 30
0.0
  0
LINE
  5
16897
330
747D
100
AcDbEntity
  8
細線
  6
Continuous
370
    15
100
AcDbLine
 10
6502.605122713255
 20
4284.855108219586
 30
0.0
 11
6502.605122713255
 21
4212.354402500592
 31
0.0
  0
LINE
  5
16898
330
747D
100
AcDbEntity
  8
細線
  6
Continuous
370
    15
100
AcDbLine
 10
6497.167271761107
 20
4206.916551548443
 30
0.0
 11
6476.921838907408
 21
4206.916551548443
 31
0.0
  0
ELLIPSE
  5
16899
330
747D
100
AcDbEntity
  8
細線
  6
Continuous
370
    15
100
AcDbEllipse
 10
6472.116917669423
 20
4208.06568774998
 30
0.0
 11
5.399999999999976
 21
0.0
 31
0.0
210
0.0
220
0.0
230
1.0
 40
0.4663076581550023
 41
5.04728513882407
 42
5.809296398627029
  0
LINE
  5
1689A
330
747D
100
AcDbEntity
  8
細線
  6
Continuous
370
    15
100
AcDbLine
 10
6473.891747383284
 20
4205.687503773175
 30
0.0
 11
6472.116929678129
 21
4205.687503773175
 31
0.0
  0
LINE
  5
1689B
330
747D
100
AcDbEntity
  8
細線
  6
Continuous
370
    15
100
AcDbLine
 10
6472.116929678129
 20
4291.522006947003
 30
0.0
 11
6473.891747383284
 21
4291.522006947003
 31
0.0
  0
ELLIPSE
  5
1689C
330
747D
100
AcDbEntity
  8
細線
  6
Continuous
370
    15
100
AcDbEllipse
 10
6472.116917669423
 20
4289.143842689018
 30
0.0
 11
5.399999999999976
 21
0.0
 31
0.0
210
0.0
220
0.0
230
1.0
 40
0.4663076581550023
 41
0.4738889085525403
 42
1.235900168355494
  0
LINE
  5
1689D
330
747D
100
AcDbEntity
  8
細線
  6
Continuous
370
    15
100
AcDbLine
 10
6476.921838907408
 20
4290.292959171734
 30
0.0
 11
6497.167271761107
 21
4290.292959171734
 31
0.0
  0
ELLIPSE
  5
1689E
330
747D
100
AcDbEntity
  8
細線
  6
Continuous
370
    15
100
AcDbEllipse
 10
6472.116917669423
 20
4288.211877988733
 30
0.0
 11
0.0
 21
-3.310133756887523
 31
0.0
210
0.0
220
0.0
230
1.0
 40
0.9063077870366367
 41
3.141592653589783
 42
4.712388980384702
  0
ELLIPSE
  5
1689F
330
747D
100
AcDbEntity
  8
細線
  6
Continuous
370
    15
100
AcDbEllipse
 10
6472.116917669423
 20
4208.99765245028
 30
0.0
 11
0.0
 21
-3.310133756887466
 31
0.0
210
0.0
220
0.0
230
1.0
 40
0.9063077870366523
 41
4.712388980384702
 42
6.283185307179586
  0
ARC
  5
168A0
330
747D
100
AcDbEntity
  8
細線
  6
Continuous
370
    15
100
AcDbCircle
 10
6495.016917669388
 20
4172.604765219506
 30
0.0
 40
7.499999999999996
100
AcDbArc
 50
120.3006176375393
 51
59.69938236246067
  0
SPLINE
  5
168A1
330
747D
100
AcDbEntity
  8
細線
  6
Continuous
370
    15
100
AcDbSpline
210
0.0
220
0.0
230
1.0
 70
    24
 71
     3
 72
     9
 73
     5
 74
     0
 42
0.000000001
 43
0.0000000001
 40
0.0
 40
0.0
 40
0.0
 40
0.0
 40
0.8663703693180105
 40
1.0
 40
1.0
 40
1.0
 40
1.0
 10
6491.516930250334
 20
4179.414133984051
 30
0.0
 10
6491.516930250334
 20
4179.361762423863
 30
0.0
 10
6491.516930250334
 20
4179.301313034049
 30
0.0
 10
6491.516930250334
 20
4179.245465186041
 30
0.0
 10
6491.516930250334
 20
4179.23800225874
 30
0.0
  0
LINE
  5
168A2
330
747D
100
AcDbEntity
  8
細線
  6
Continuous
370
    15
100
AcDbLine
 10
6491.516930250334
 20
4179.23800225874
 30
0.0
 11
6491.232884315657
 21
4179.080169159375
 31
0.0
  0
LINE
  5
168A3
330
747D
100
AcDbEntity
  8
細線
  6
Continuous
370
    15
100
AcDbLine
 10
6498.800945667433
 20
4179.080169159375
 30
0.0
 11
6498.516929535078
 21
4179.23800225874
 31
0.0
  0
SPLINE
  5
168A4
330
747D
100
AcDbEntity
  8
細線
  6
Continuous
370
    15
100
AcDbSpline
210
0.0
220
0.0
230
1.0
 70
    24
 71
     3
 72
     9
 73
     5
 74
     0
 42
0.000000001
 43
0.0000000001
 40
0.0
 40
0.0
 40
0.0
 40
0.0
 40
0.8651188723649402
 40
1.0
 40
1.0
 40
1.0
 40
1.0
 10
6498.516929535078
 20
4179.23800225874
 30
0.0
 10
6498.516929535078
 20
4179.288089576171
 30
0.0
 10
6498.516929535078
 20
4179.345986032983
 30
0.0
 10
6498.516929535078
 20
4179.406034569701
 30
0.0
 10
6498.516929535078
 20
4179.414133984051
 30
0.0
  0
ARC
  5
168A5
330
747D
100
AcDbEntity
  8
細線
  6
Continuous
370
    15
100
AcDbCircle
 10
6495.016917669388
 20
4172.604765219506
 30
0.0
 40
9.499999999999973
100
AcDbArc
 50
69.15570700480905
 51
110.8442929951909
  0
LINE
  5
168A6
330
747D
100
AcDbEntity
  8
細線
  6
Continuous
370
    15
100
AcDbLine
 10
6498.516929535078
 20
4179.414133984051
 30
0.0
 11
6498.516929535078
 21
4181.309442478619
 31
0.0
  0
LINE
  5
168A7
330
747D
100
AcDbEntity
  8
細線
  6
Continuous
370
    15
100
AcDbLine
 10
6491.516930250334
 20
4181.309442478619
 30
0.0
 11
6491.516930250334
 21
4179.414133984051
 31
0.0
  0
LINE
  5
168A8
330
747D
100
AcDbEntity
  8
細線
  6
Continuous
370
    15
100
AcDbLine
 10
6498.516929535078
 20
4181.309442478619
 30
0.0
 11
6498.516929535078
 21
4181.43651958128
 31
0.0
  0
LINE
  5
168A9
330
747D
100
AcDbEntity
  8
細線
  6
Continuous
370
    15
100
AcDbLine
 10
6498.516929535078
 20
4181.43651958128
 30
0.0
 11
6498.397303013014
 21
4181.483011204205
 31
0.0
  0
LINE
  5
168AA
330
747D
100
AcDbEntity
  8
細線
  6
Continuous
370
    15
100
AcDbLine
 10
6491.636526970076
 20
4181.483011204205
 30
0.0
 11
6491.516930250334
 21
4181.43651958128
 31
0.0
  0
LINE
  5
168AB
330
747D
100
AcDbEntity
  8
細線
  6
Continuous
370
    15
100
AcDbLine
 10
6491.516930250334
 20
4181.43651958128
 30
0.0
 11
6491.516930250334
 21
4181.309442478619
 31
0.0
  0
ARC
  5
168AC
330
747D
100
AcDbEntity
  8
細線
  6
Continuous
370
    15
100
AcDbCircle
 10
6512.016917669388
 20
4312.604765219506
 30
0.0
 40
6.0
100
AcDbArc
 50
0.0
 51
90.0
  0
LINE
  5
168AD
330
747D
100
AcDbEntity
  8
細線
  6
Continuous
370
    15
100
AcDbLine
 10
6518.016916898893
 20
4312.604765850506
 30
0.0
 11
6518.016916898893
 21
4144.604783016644
 31
0.0
  0
LINE
  5
168AE
330
747D
100
AcDbEntity
  8
細線
  6
Continuous
370
    15
100
AcDbLine
 10
6460.016918567824
 20
4144.604783016644
 30
0.0
 11
6460.016918567824
 21
4312.604765850506
 31
0.0
  0
LINE
  5
168AF
330
747D
100
AcDbEntity
  8
細線
  6
Continuous
370
    15
100
AcDbLine
 10
6466.016930727171
 20
4318.604807812176
 30
0.0
 11
6512.016904739546
 21
4318.604807812176
 31
0.0
  0
ARC
  5
168B0
330
747D
100
AcDbEntity
  8
細線
  6
Continuous
370
    15
100
AcDbCircle
 10
6512.016917669388
 20
4144.604765219507
 30
0.0
 40
6.0
100
AcDbArc
 50
270.0
 51
0.0
  0
ARC
  5
168B1
330
747D
100
AcDbEntity
  8
細線
  6
Continuous
370
    15
100
AcDbCircle
 10
6466.016917669389
 20
4312.604765219506
 30
0.0
 40
6.0
100
AcDbArc
 50
90.0
 51
180.0
  0
LINE
  5
168B2
330
747D
100
AcDbEntity
  8
細線
  6
Continuous
370
    15
100
AcDbLine
 10
6512.016904739546
 20
4138.604741054974
 30
0.0
 11
6466.016930727171
 21
4138.604741054974
 31
0.0
  0
ARC
  5
168B3
330
747D
100
AcDbEntity
  8
細線
  6
Continuous
370
    15
100
AcDbCircle
 10
6466.016917669389
 20
4144.604765219507
 30
0.0
 40
6.0
100
AcDbArc
 50
180.0
 51
270.0
  0
LINE
  5
168B4
330
747D
100
AcDbEntity
  8
細線
  6
Continuous
370
    15
100
AcDbLine
 10
6501.113218454527
 20
4182.836990314923
 30
0.0
 11
6501.113218454527
 21
4178.821604210339
 31
0.0
  0
ARC
  5
168B5
330
747D
100
AcDbEntity
  8
細線
  6
Continuous
370
    15
100
AcDbCircle
 10
6495.016917669388
 20
4172.604765219506
 30
0.0
 40
8.707106781186586
100
AcDbArc
 50
134.4391355081549
 51
45.56086449184513
  0
LINE
  5
168B6
330
747D
100
AcDbEntity
  8
細線
  6
Continuous
370
    15
100
AcDbLine
 10
6488.920641330885
 20
4178.821604210339
 30
0.0
 11
6488.920641330885
 21
4182.836990314923
 31
0.0
  0
SPLINE
  5
168B7
330
747D
100
AcDbEntity
  8
細線
  6
Continuous
370
    15
100
AcDbSpline
210
0.0
220
0.0
230
1.0
 70
     8
 71
     3
 72
    11
 73
     7
 74
     0
 42
0.000000001
 43
0.0000000001
 40
0.0
 40
0.0
 40
0.0
 40
0.0
 40
0.0781314889249488
 40
0.3601777463886433
 40
0.6812698848259567
 40
1.0
 40
1.0
 40
1.0
 40
1.0
 10
6489.110690740751
 20
4183.161120373211
 30
0.0
 10
6489.101828310056
 20
4183.155932257704
 30
0.0
 10
6489.06097345933
 20
4183.132015604186
 30
0.0
 10
6488.992228315765
 20
4183.072705276334
 30
0.0
 10
6488.930186804442
 20
4182.963839970349
 30
0.0
 10
6488.92381531489
 20
4182.879169340924
 30
0.0
 10
6488.920641330885
 20
4182.836990314923
 30
0.0
  0
ARC
  5
168B8
330
747D
100
AcDbEntity
  8
細線
  6
Continuous
370
    15
100
AcDbCircle
 10
6495.016917669388
 20
4172.604765219506
 30
0.0
 40
12.09629120178367
100
AcDbArc
 50
60.77315626978887
 51
119.2268437302111
  0
SPLINE
  5
168B9
330
747D
100
AcDbEntity
  8
細線
  6
Continuous
370
    15
100
AcDbSpline
210
0.0
220
0.0
230
1.0
 70
     8
 71
     3
 72
    11
 73
     7
 74
     0
 42
0.000000001
 43
0.0000000001
 40
0.0
 40
0.0
 40
0.0
 40
0.0
 40
0.0779029322309155
 40
0.3600683505069131
 40
0.6812326600027312
 40
1.0
 40
1.0
 40
1.0
 40
1.0
 10
6501.113218454527
 20
4182.836990314923
 30
0.0
 10
6501.113016181363
 20
4182.847227240659
 30
0.0
 10
6501.112081272293
 20
4182.894542442542
 30
0.0
 10
6501.093884262634
 20
4182.983479198718
 30
0.0
 10
6501.029227233549
 20
4183.090843678054
 30
0.0
 10
6500.95843338425
 20
4183.137753377488
 30
0.0
 10
6500.923169044661
 20
4183.161120373211
 30
0.0
  0
LINE
  5
168BA
330
747D
100
AcDbEntity
  8
細線
  6
Continuous
370
    15
100
AcDbLine
 10
6472.049461988615
 20
4297.604780155621
 30
0.0
 11
6502.916913894819
 21
4297.604780155621
 31
0.0
  0
LINE
  5
168BB
330
747D
100
AcDbEntity
  8
細線
  6
Continuous
370
    15
100
AcDbLine
 10
6467.049461988615
 20
4204.604790169201
 30
0.0
 11
6467.049461988615
 21
4292.604780155621
 31
0.0
  0
ARC
  5
168BC
330
747D
100
AcDbEntity
  8
細線
  6
Continuous
370
    15
100
AcDbCircle
 10
6472.049461988615
 20
4292.604780155621
 30
0.0
 40
5.0
100
AcDbArc
 50
90.0
 51
180.0
  0
LINE
  5
168BD
330
747D
100
AcDbEntity
  8
細線
  6
Continuous
370
    15
100
AcDbLine
 10
6469.116908697294
 20
4288.211877988733
 30
0.0
 11
6469.116908697294
 21
4208.99765245028
 31
0.0
  0
LINE
  5
168BE
330
747D
100
AcDbEntity
  8
細線
  6
Continuous
370
    15
100
AcDbLine
 10
6509.916913894819
 20
4290.604780155621
 30
0.0
 11
6509.916913894819
 21
4206.604790169201
 31
0.0
  0
ARC
  5
168BF
330
747D
100
AcDbEntity
  8
細線
  6
Continuous
370
    15
100
AcDbCircle
 10
6502.916913894819
 20
4206.604790169201
 30
0.0
 40
7.0
100
AcDbArc
 50
270.0
 51
0.0
  0
ARC
  5
168C0
330
747D
100
AcDbEntity
  8
細線
  6
Continuous
370
    15
100
AcDbCircle
 10
6502.916913894819
 20
4290.604780155621
 30
0.0
 40
7.0
100
AcDbArc
 50
0.0
 51
90.0
  0
LINE
  5
168C1
330
747D
100
AcDbEntity
  8
細線
  6
Continuous
370
    15
100
AcDbLine
 10
6502.916913894819
 20
4199.604790169201
 30
0.0
 11
6472.049461988615
 21
4199.604790169201
 31
0.0
  0
ARC
  5
168C2
330
747D
100
AcDbEntity
  8
細線
  6
Continuous
370
    15
100
AcDbCircle
 10
6472.049461988615
 20
4204.604790169201
 30
0.0
 40
5.0
100
AcDbArc
 50
180.0
 51
270.0
  0
ARC
  5
168C3
330
747D
100
AcDbEntity
  8
細線
  6
Continuous
370
    15
100
AcDbCircle
 10
6495.836520584299
 20
4213.685153677399
 30
0.0
 40
6.898178997000096
100
AcDbArc
 50
281.1228560456502
 51
348.8771439544009
  0
ARC
  5
168C4
330
747D
100
AcDbEntity
  8
細線
  6
Continuous
370
    15
100
AcDbCircle
 10
6495.836572610656
 20
4283.52440906915
 30
0.0
 40
6.89811791144148
100
AcDbArc
 50
11.12251539540163
 51
78.87748460464951
  0
LINE
  5
168C5
330
747D
100
AcDbEntity
  8
細線
  6
Continuous
370
    15
100
AcDbLine
 10
6485.114705948042
 20
4210.174626785717
 30
0.0
 11
6485.114705948042
 21
4287.143185574017
 31
0.0
  0
ARC
  5
168C6
330
747D
100
AcDbEntity
  8
細線
  6
Continuous
370
    15
100
AcDbCircle
 10
6483.114705948041
 20
4287.143185574017
 30
0.0
 40
2.0
100
AcDbArc
 50
0.0
 51
90.0
  0
ARC
  5
168C7
330
747D
100
AcDbEntity
  8
細線
  6
Continuous
370
    15
100
AcDbCircle
 10
6483.11469502677
 20
4210.158921581702
 30
0.0
 40
2.0
100
AcDbArc
 50
262.8149626715364
 51
0.0
  0
LWPOLYLINE
  5
168C8
330
747D
100
AcDbEntity
  8
細線
 48
50.0
100
AcDbPolyline
 90
        4
 70
     1
 43
0.0
 10
6496.279013542341
 20
4167.776386696301
 10
6493.754846243071
 20
4167.776386696301
 10
6493.754846243071
 20
4177.433173614941
 10
6496.279013542341
 20
4177.433173614941
  0
LINE
  5
168C9
330
747D
100
AcDbEntity
  8
細線
  6
Continuous
370
    15
100
AcDbLine
 10
6483.114705948041
 20
4208.174626785718
 30
0.0
 11
6477.435928968596
 21
4208.174626785719
 31
0.0
  0
LINE
  5
168CA
330
747D
100
AcDbEntity
  8
細線
  6
Continuous
370
    15
100
AcDbLine
 10
6471.84471526544
 20
4209.174626785718
 30
0.0
 11
6471.84471526544
 21
4288.143185574017
 31
0.0
  0
ARC
  5
168CB
330
747D
100
AcDbEntity
  8
細線
  6
Continuous
370
    15
100
AcDbCircle
 10
6472.84471526544
 20
4288.143185574017
 30
0.0
 40
1.0
100
AcDbArc
 50
90.0
 51
180.0
  0
LINE
  5
168CC
330
747D
100
AcDbEntity
  8
細線
  6
Continuous
370
    15
100
AcDbLine
 10
6477.430713562178
 20
4289.143185574017
 30
0.0
 11
6472.84471526544
 21
4289.143185574017
 31
0.0
  0
LINE
  5
168CD
330
747D
100
AcDbEntity
  8
細線
  6
Continuous
370
    15
100
AcDbLine
 10
6477.435928968596
 20
4208.174626785718
 30
0.0
 11
6472.84471526544
 21
4208.174626785718
 31
0.0
  0
ARC
  5
168CE
330
747D
100
AcDbEntity
  8
細線
  6
Continuous
370
    15
100
AcDbCircle
 10
6472.84471526544
 20
4209.174626785718
 30
0.0
 40
1.0
100
AcDbArc
 50
180.0
 51
270.0
  0
LINE
  5
168CF
330
747D
100
AcDbEntity
  8
細線
  6
Continuous
370
    15
100
AcDbLine
 10
6483.114705948041
 20
4289.143185574017
 30
0.0
 11
6477.315236737156
 21
4289.143185574017
 31
0.0
  0
LINE
  5
168DA
330
747D
100
AcDbEntity
  8
細線
 48
50.0
100
AcDbLine
 10
5589.516918567826
 20
8074.893446028609
 30
0.0
 11
5589.516918567826
 21
8048.893446028561
 31
0.0
  0
LINE
  5
168DB
330
747D
100
AcDbEntity
  8
細線
 48
50.0
100
AcDbLine
 10
5832.016918567826
 20
8074.893446028596
 30
0.0
 11
5832.016918567826
 21
8048.893446028561
 31
0.0
  0
LINE
  5
168DC
330
747D
100
AcDbEntity
  8
細線
 48
50.0
100
AcDbLine
 10
5792.016918567826
 20
8074.893446028596
 30
0.0
 11
5792.016918567826
 21
8048.893446028561
 31
0.0
  0
LINE
  5
168DD
330
747D
100
AcDbEntity
  8
細線
 48
50.0
100
AcDbLine
 10
6539.516918567826
 20
8074.893446028609
 30
0.0
 11
6539.516918567826
 21
8048.893446028561
 31
0.0
  0
LINE
  5
168DE
330
747D
100
AcDbEntity
  8
細線
 48
50.0
100
AcDbLine
 10
6782.016918567826
 20
8074.893446028596
 30
0.0
 11
6782.016918567826
 21
8048.893446028561
 31
0.0
  0
LINE
  5
168DF
330
747D
100
AcDbEntity
  8
細線
 48
50.0
100
AcDbLine
 10
6742.016918567826
 20
8074.893446028596
 30
0.0
 11
6742.016918567826
 21
8048.893446028561
 31
0.0
  0
DIMENSION
  5
16945
330
747D
100
AcDbEntity
  8
寸法
100
AcDbDimension
  2
*D32
 10
8445.064171192047
 20
3312.104807812181
 30
0.0
 11
8445.064171192047
 21
4217.139819688561
 31
0.0
 70
   160
 71
     5
 42
1789.999999999997
  3
INABA_S40G
100
AcDbAlignedDimension
 13
9288.814300375307
 23
5102.104807812178
 33
0.0
 14
9281.811930330528
 24
3312.104807812181
 34
0.0
 50
90.0
100
AcDbRotatedDimension
1001
ACAD
1000
DSTYLE
1002
{
1070
   288
1070
     1
1002
}
  0
LINE
  5
16946
330
747D
100
AcDbEntity
  8
部品1
 48
50.0
100
AcDbLine
 10
9281.811930330528
 20
5093.104919261925
 30
0.0
 11
9288.814300375307
 21
5093.104919261925
 31
0.0
  0
LINE
  5
16947
330
747D
100
AcDbEntity
  8
部品1
 48
0.2
100
AcDbLine
 10
9281.811930330528
 20
5102.004919261925
 30
0.0
 11
9281.811930330528
 21
5093.104919261925
 31
0.0
  0
LINE
  5
16948
330
747D
100
AcDbEntity
  8
部品1
 48
50.0
100
AcDbLine
 10
9281.811930330528
 20
3306.204919261916
 30
0.0
 11
9288.814300375307
 21
3306.204919261916
 31
0.0
  0
LINE
  5
16949
330
747D
100
AcDbEntity
  8
部品1
 48
0.2
100
AcDbLine
 10
9281.811930330528
 20
3315.104919261916
 30
0.0
 11
9281.811930330528
 21
3306.204919261916
 31
0.0
  0
LINE
  5
1694A
330
747D
100
AcDbEntity
  8
部品1
 48
50.0
100
AcDbLine
 10
9281.811930330528
 20
3315.104919261916
 30
0.0
 11
9288.814300375307
 21
3315.104919261916
 31
0.0
  0
LINE
  5
1694B
330
747D
100
AcDbEntity
  8
部品
 48
50.0
100
AcDbLine
 10
9281.811930330528
 20
5102.004919261925
 30
0.0
 11
9288.814300375307
 21
5102.004919261925
 31
0.0
  0
ENDSEC
  0
SECTION
  2
OBJECTS
  0
DICTIONARY
  5
7471
330
0
100
AcDbDictionary
281
     1
  3
ACAD_CIP_PREVIOUS_PRODUCT_INFO
350
167C9
  3
ACAD_COLOR
350
154F7
  3
ACAD_DETAILVIEWSTYLE
350
167BF
  3
ACAD_GROUP
350
7472
  3
ACAD_LAYOUT
350
154F8
  3
ACAD_MATERIAL
350
154F6
  3
ACAD_MLEADERSTYLE
350
167BB
  3
ACAD_MLINESTYLE
350
7473
  3
ACAD_PLOTSETTINGS
350
154F9
  3
ACAD_PLOTSTYLENAME
350
154F4
  3
ACAD_SCALELIST
350
167A9
  3
ACAD_SECTIONVIEWSTYLE
350
167BD
  3
ACAD_TABLESTYLE
350
167A7
  3
ACAD_VISUALSTYLE
350
1678E
  3
ACDB_RECOMPOSE_DATA
350
1698B
  3
AcDbVariableDictionary
350
168FB
  3
AcDsDecomposeData
350
16992
  3
CONTENTDICTIONARY
350
E71C
  3
DRAWINGVARIABLESDICT
350
F3B9
  3
DWGPROPS
350
1698C
  0
DICTIONARY
  5
15671
330
7467
100
AcDbDictionary
280
     1
281
     1
  3
ACAD_LAYERSTATES
360
15672
  0
DICTIONARY
  5
168E0
330
7474
100
AcDbDictionary
280
     1
281
     1
  3
ADSK_XREC_LAYER_RECONCILED
360
168E1
  0
DICTIONARY
  5
168E2
330
DEB2
100
AcDbDictionary
280
     1
281
     1
  3
ADSK_XREC_LAYER_RECONCILED
360
168E3
  0
DICTIONARY
  5
168E4
330
DEB3
100
AcDbDictionary
280
     1
281
     1
  3
ADSK_XREC_LAYER_RECONCILED
360
168E5
  0
DICTIONARY
  5
168E6
330
DEB4
100
AcDbDictionary
280
     1
281
     1
  3
ADSK_XREC_LAYER_RECONCILED
360
168E7
  0
DICTIONARY
  5
168E8
330
DEB5
100
AcDbDictionary
280
     1
281
     1
  3
ADSK_XREC_LAYER_RECONCILED
360
168E9
  0
DICTIONARY
  5
168EA
330
DEB6
100
AcDbDictionary
280
     1
281
     1
  3
ADSK_XREC_LAYER_RECONCILED
360
168EB
  0
DICTIONARY
  5
168EC
330
10B54
100
AcDbDictionary
280
     1
281
     1
  3
ADSK_XREC_LAYER_RECONCILED
360
168ED
  0
DICTIONARY
  5
168EE
330
11729
100
AcDbDictionary
280
     1
281
     1
  3
ADSK_XREC_LAYER_RECONCILED
360
168EF
  0
DICTIONARY
  5
168F0
330
1173F
100
AcDbDictionary
280
     1
281
     1
  3
ADSK_XREC_LAYER_RECONCILED
360
168F1
  0
DICTIONARY
  5
168F2
330
118A1
100
AcDbDictionary
280
     1
281
     1
  3
ADSK_XREC_LAYER_RECONCILED
360
168F3
  0
DICTIONARY
  5
168F4
330
123C1
100
AcDbDictionary
280
     1
281
     1
  3
ADSK_XREC_LAYER_RECONCILED
360
168F5
  0
DICTIONARY
  5
16937
330
16936
100
AcDbDictionary
280
     1
281
     1
  0
XRECORD
  5
167C9
102
{ACAD_REACTORS
330
7471
102
}
330
7471
100
AcDbXrecord
280
     1
300
ACDLT
300
2014
300
ACDLT_F_S
  0
DICTIONARY
  5
154F7
102
{ACAD_REACTORS
330
7471
102
}
330
7471
100
AcDbDictionary
281
     1
  0
DICTIONARY
  5
167BF
102
{ACAD_REACTORS
330
7471
102
}
330
7471
100
AcDbDictionary
281
     1
  3
Metric50
350
167C0
  0
DICTIONARY
  5
7472
102
{ACAD_REACTORS
330
7471
102
}
330
7471
100
AcDbDictionary
281
     1
  0
DICTIONARY
  5
154F8
102
{ACAD_REACTORS
330
7471
102
}
330
7471
100
AcDbDictionary
281
     1
  3
Model
350
154FA
  3
レイアウト1
350
154FB
  0
DICTIONARY
  5
154F6
102
{ACAD_REACTORS
330
7471
102
}
330
7471
100
AcDbDictionary
281
     1
  3
ByBlock
350
1677E
  3
ByLayer
350
16776
  3
Global
350
16786
  0
DICTIONARY
  5
167BB
102
{ACAD_REACTORS
330
7471
102
}
330
7471
100
AcDbDictionary
281
     1
  3
Standard
350
167BC
  0
DICTIONARY
  5
7473
102
{ACAD_REACTORS
330
7471
102
}
330
7471
100
AcDbDictionary
281
     1
  3
STANDARD
350
7480
  0
DICTIONARY
  5
154F9
102
{ACAD_REACTORS
330
7471
102
}
330
7471
100
AcDbDictionary
281
     1
  0
ACDBDICTIONARYWDFLT
  5
154F4
102
{ACAD_REACTORS
330
7471
102
}
330
7471
100
AcDbDictionary
281
     1
  3
Normal
350
154F5
100
AcDbDictionaryWithDefault
340
154F5
  0
DICTIONARY
  5
167A9
102
{ACAD_REACTORS
330
7471
102
}
330
7471
100
AcDbDictionary
281
     1
  3
A0
350
167AA
  3
A1
350
167AB
  3
A2
350
167AC
  3
A3
350
167AD
  3
A4
350
167AE
  3
A5
350
167AF
  3
A6
350
167B0
  3
A7
350
167B1
  3
A8
350
167B2
  3
A9
350
167B3
  3
B0
350
167B4
  3
B1
350
167B5
  3
B2
350
167B6
  3
B3
350
167B7
  3
B4
350
167B8
  3
B5
350
167B9
  3
B6
350
167BA
  0
DICTIONARY
  5
167BD
102
{ACAD_REACTORS
330
7471
102
}
330
7471
100
AcDbDictionary
281
     1
  3
Metric50
350
167BE
  0
DICTIONARY
  5
167A7
102
{ACAD_REACTORS
330
7471
102
}
330
7471
100
AcDbDictionary
281
     1
  3
Standard
350
167A8
  0
DICTIONARY
  5
1678E
102
{ACAD_REACTORS
330
7471
102
}
330
7471
100
AcDbDictionary
281
     1
  3
2dWireframe
350
16794
  3
Basic
350
16793
  3
Brighten
350
1679A
  3
ColorChange
350
1679E
  3
Conceptual
350
16797
  3
Dim
350
16799
  3
EdgeColorOff
350
167A6
  3
Facepattern
350
1679D
  3
Flat
350
1678F
  3
FlatWithEdges
350
16790
  3
Gouraud
350
16791
  3
GouraudWithEdges
350
16792
  3
Hidden
350
16796
  3
JitterOff
350
167A4
  3
Linepattern
350
1679C
  3
OverhangOff
350
167A5
  3
Realistic
350
16798
  3
Shaded
350
167A3
  3
Shaded with edges
350
167A2
  3
Shades of Gray
350
1679F
  3
Sketchy
350
167A0
  3
Thicken
350
1679B
  3
Wireframe
350
16795
  3
X-Ray
350
167A1
  0
XRECORD
  5
1698B
102
{ACAD_REACTORS
330
7471
102
}
330
7471
100
AcDbXrecord
280
     1
 90
        1
330
1509B
330
167A8
  0
DICTIONARY
  5
168FB
102
{ACAD_REACTORS
330
7471
102
}
330
7471
100
AcDbDictionary
281
     1
  3
CANNOSCALE
350
16901
  3
CMLEADERSTYLE
350
168FD
  3
CTABLESTYLE
350
168FC
  3
CVIEWDETAILSTYLE
350
168FE
  3
CVIEWSECTIONSTYLE
350
168FF
  3
DIMASSOC
350
16988
  3
INDEXCTL
350
16986
  3
LAYEREVAL
350
16903
  3
LAYERNOTIFY
350
16904
  3
LIGHTINGUNITS
350
16902
  3
MSLTSCALE
350
16900
  3
SORTENTS
350
16985
  3
XCLIPFRAME
350
16987
  0
DICTIONARY
  5
16992
102
{ACAD_REACTORS
330
7471
102
}
330
7471
100
AcDbDictionary
281
     1
  3
AcDsRecords
350
16994
  3
AcDsSchemas
350
16993
1001
ACAD
1070
     2
  0
DICTIONARY
  5
E71C
102
{ACAD_REACTORS
330
7471
102
}
330
7471
100
AcDbDictionary
281
     1
  0
DICTIONARY
  5
F3B9
102
{ACAD_REACTORS
330
7471
102
}
330
7471
100
AcDbDictionary
281
     1
1001
DRAWINGVARIABLESXDATA
1000
POLARMODE
1000
1
  0
XRECORD
  5
1698C
102
{ACAD_REACTORS
330
7471
102
}
330
7471
100
AcDbXrecord
280
     1
  1
DWGPROPS COOKIE
  2

  3

  4

  6

  7

  8
TSUJIKAWA
  9

300
=
301
=
302
=
303
=
304
=
305
=
306
=
307
=
308
=
309
=
 40
0.4590040046296297
 41
2452116.684896065
 42
2457984.459938831
  1

 90
        0
  0
DICTIONARY
  5
15672
102
{ACAD_REACTORS
330
15671
102
}
330
15671
100
AcDbDictionary
281
     1
  0
XRECORD
  5
168E1
102
{ACAD_REACTORS
330
168E0
102
}
330
168E0
100
AcDbXrecord
280
     1
290
     1
  0
XRECORD
  5
168E3
102
{ACAD_REACTORS
330
168E2
102
}
330
168E2
100
AcDbXrecord
280
     1
290
     1
  0
XRECORD
  5
168E5
102
{ACAD_REACTORS
330
168E4
102
}
330
168E4
100
AcDbXrecord
280
     1
290
     1
  0
XRECORD
  5
168E7
102
{ACAD_REACTORS
330
168E6
102
}
330
168E6
100
AcDbXrecord
280
     1
290
     1
  0
XRECORD
  5
168E9
102
{ACAD_REACTORS
330
168E8
102
}
330
168E8
100
AcDbXrecord
280
     1
290
     1
  0
XRECORD
  5
168EB
102
{ACAD_REACTORS
330
168EA
102
}
330
168EA
100
AcDbXrecord
280
     1
290
     1
  0
XRECORD
  5
168ED
102
{ACAD_REACTORS
330
168EC
102
}
330
168EC
100
AcDbXrecord
280
     1
290
     1
  0
XRECORD
  5
168EF
102
{ACAD_REACTORS
330
168EE
102
}
330
168EE
100
AcDbXrecord
280
     1
290
     1
  0
XRECORD
  5
168F1
102
{ACAD_REACTORS
330
168F0
102
}
330
168F0
100
AcDbXrecord
280
     1
290
     1
  0
XRECORD
  5
168F3
102
{ACAD_REACTORS
330
168F2
102
}
330
168F2
100
AcDbXrecord
280
     1
290
     1
  0
XRECORD
  5
168F5
102
{ACAD_REACTORS
330
168F4
102
}
330
168F4
100
AcDbXrecord
280
     1
290
     1
  0
ACDBDETAILVIEWSTYLE
  5
167C0
102
{ACAD_XDICTIONARY
360
168F8
102
}
102
{ACAD_REACTORS
330
167BF
102
}
330
167BF
100
AcDbModelDocViewStyle
 70
     0
  3
Metric50
290
     0
100
AcDbDetailViewStyle
 70
     0
 71
     0
 90
        3
 71
     1
340
7475
 40
5.0
340
0
 40
5.0
300

 40
0.0
280
     1
 71
     2
340
7479
 90
       25
 71
     3
340
7475
 40
5.0
 90
        0
 40
15.0
 90
        1
300
%<\AcVar ViewDetailId>% (%<\AcVar ViewScale \f "%sn">%)
 71
     4
340
7479
 90
       25
340
7479
 90
       25
280
     0
  0
LAYOUT
  5
154FA
102
{ACAD_XDICTIONARY
360
16995
102
}
102
{ACAD_REACTORS
330
154F8
102
}
330
154F8
100
AcDbPlotSettings
  1

  2
CubePDF
  4
A3
  6

 40
3.174999952316284
 41
3.174999952316284
 42
3.17498779296875
 43
3.17498779296875
 44
420.1583251953125
 45
297.0318298339844
 46
0.6042196843820023
 47
0.0
 48
424.6042489999999
 49
264.156711
140
1777.606053
141
968.930615
142
1.0
143
39.98278751715608
 70
  3764
 72
     1
 73
     0
 74
     2
  7
inabass.ctb
 75
     0
147
0.0250107624329823
148
25.79074261211281
149
125.8223078213959
100
AcDbLayout
  1
Model
 70
     1
 71
     0
 10
0.0
 20
0.0
 11
12.0
 21
9.0
 12
0.0
 22
0.0
 32
0.0
 14
0.0
 24
0.0
 34
0.0
 15
0.0
 25
0.0
 35
0.0
146
0.0
 13
0.0
 23
0.0
 33
0.0
 16
1.0
 26
0.0
 36
0.0
 17
0.0
 27
1.0
 37
0.0
 76
     0
330
747D
331
16774
1001
ACAD_PSEXT
1000
CubePDF
1000
CubePDF
1000
CubePDF:
1000
CubePDF
1070
     0
  0
LAYOUT
  5
154FB
102
{ACAD_XDICTIONARY
360
16997
102
}
102
{ACAD_REACTORS
330
154F8
102
}
330
154F8
100
AcDbPlotSettings
  1

  2
Microsoft Office Document Image Writer
  4

  6

 40
0.0
 41
0.0
 42
0.0
 43
0.0
 44
0.0
 45
0.0
 46
0.0
 47
0.0
 48
0.0
 49
0.0
140
0.0
141
0.0
142
1.0
143
1.0
 70
   688
 72
     0
 73
     0
 74
     5
  7

 75
    16
147
1.0
148
0.0
149
0.0
100
AcDbLayout
  1
レイアウト1
 70
     0
 71
     1
 10
0.0
 20
0.0
 11
420.0
 21
297.0
 12
0.0
 22
0.0
 32
0.0
 14
1.000000000000000E+20
 24
1.000000000000000E+20
 34
1.000000000000000E+20
 15
-1.000000000000000E+20
 25
-1.000000000000000E+20
 35
-1.000000000000000E+20
146
0.0
 13
0.0
 23
0.0
 33
0.0
 16
1.0
 26
0.0
 36
0.0
 17
0.0
 27
1.0
 37
0.0
 76
     0
330
747A
  0
MATERIAL
  5
1677E
102
{ACAD_XDICTIONARY
360
1677F
102
}
102
{ACAD_REACTORS
330
154F6
102
}
330
154F6
100
AcDbMaterial
  1
ByBlock
 72
     0
 43
0.0208333333333333
 43
0.0
 43
0.0
 43
0.0
 43
0.0
 43
0.0208333333333333
 43
0.0
 43
0.0
 43
0.0
 43
0.0
 43
1.0
 43
0.0
 43
0.0
 43
0.0
 43
0.0
 43
1.0
 77
     0
 47
0.0208333333333333
 47
0.0
 47
0.0
 47
0.0
 47
0.0
 47
0.0208333333333333
 47
0.0
 47
0.0
 47
0.0
 47
0.0
 47
1.0
 47
0.0
 47
0.0
 47
0.0
 47
0.0
 47
1.0
171
     0
 49
0.0208333333333333
 49
0.0
 49
0.0
 49
0.0
 49
0.0
 49
0.0208333333333333
 49
0.0
 49
0.0
 49
0.0
 49
0.0
 49
1.0
 49
0.0
 49
0.0
 49
0.0
 49
0.0
 49
1.0
175
     0
142
0.0208333333333333
142
0.0
142
0.0
142
0.0
142
0.0
142
0.0208333333333333
142
0.0
142
0.0
142
0.0
142
0.0
142
1.0
142
0.0
142
0.0
142
0.0
142
0.0
142
1.0
179
     0
144
0.0208333333333333
144
0.0
144
0.0
144
0.0
144
0.0
144
0.0208333333333333
144
0.0
144
0.0
144
0.0
144
0.0
144
1.0
144
0.0
144
0.0
144
0.0
144
0.0
144
1.0
147
0.0208333333333333
147
0.0
147
0.0
147
0.0
147
0.0
147
0.0208333333333333
147
0.0
147
0.0
147
0.0
147
0.0
147
1.0
147
0.0
147
0.0
147
0.0
147
0.0
147
1.0
  0
MATERIAL
  5
16776
102
{ACAD_XDICTIONARY
360
16777
102
}
102
{ACAD_REACTORS
330
154F6
102
}
330
154F6
100
AcDbMaterial
  1
ByLayer
 72
     0
 43
0.0208333333333333
 43
0.0
 43
0.0
 43
0.0
 43
0.0
 43
0.0208333333333333
 43
0.0
 43
0.0
 43
0.0
 43
0.0
 43
1.0
 43
0.0
 43
0.0
 43
0.0
 43
0.0
 43
1.0
 77
     0
 47
0.0208333333333333
 47
0.0
 47
0.0
 47
0.0
 47
0.0
 47
0.0208333333333333
 47
0.0
 47
0.0
 47
0.0
 47
0.0
 47
1.0
 47
0.0
 47
0.0
 47
0.0
 47
0.0
 47
1.0
171
     0
 49
0.0208333333333333
 49
0.0
 49
0.0
 49
0.0
 49
0.0
 49
0.0208333333333333
 49
0.0
 49
0.0
 49
0.0
 49
0.0
 49
1.0
 49
0.0
 49
0.0
 49
0.0
 49
0.0
 49
1.0
175
     0
142
0.0208333333333333
142
0.0
142
0.0
142
0.0
142
0.0
142
0.0208333333333333
142
0.0
142
0.0
142
0.0
142
0.0
142
1.0
142
0.0
142
0.0
142
0.0
142
0.0
142
1.0
179
     0
144
0.0208333333333333
144
0.0
144
0.0
144
0.0
144
0.0
144
0.0208333333333333
144
0.0
144
0.0
144
0.0
144
0.0
144
1.0
144
0.0
144
0.0
144
0.0
144
0.0
144
1.0
147
0.0208333333333333
147
0.0
147
0.0
147
0.0
147
0.0
147
0.0208333333333333
147
0.0
147
0.0
147
0.0
147
0.0
147
1.0
147
0.0
147
0.0
147
0.0
147
0.0
147
1.0
  0
MATERIAL
  5
16786
102
{ACAD_XDICTIONARY
360
16787
102
}
102
{ACAD_REACTORS
330
154F6
102
}
330
154F6
100
AcDbMaterial
  1
Global
 72
     0
 43
0.0208333333333333
 43
0.0
 43
0.0
 43
0.0
 43
0.0
 43
0.0208333333333333
 43
0.0
 43
0.0
 43
0.0
 43
0.0
 43
1.0
 43
0.0
 43
0.0
 43
0.0
 43
0.0
 43
1.0
 77
     0
 47
0.0208333333333333
 47
0.0
 47
0.0
 47
0.0
 47
0.0
 47
0.0208333333333333
 47
0.0
 47
0.0
 47
0.0
 47
0.0
 47
1.0
 47
0.0
 47
0.0
 47
0.0
 47
0.0
 47
1.0
171
     0
 49
0.0208333333333333
 49
0.0
 49
0.0
 49
0.0
 49
0.0
 49
0.0208333333333333
 49
0.0
 49
0.0
 49
0.0
 49
0.0
 49
1.0
 49
0.0
 49
0.0
 49
0.0
 49
0.0
 49
1.0
175
     0
142
0.0208333333333333
142
0.0
142
0.0
142
0.0
142
0.0
142
0.0208333333333333
142
0.0
142
0.0
142
0.0
142
0.0
142
1.0
142
0.0
142
0.0
142
0.0
142
0.0
142
1.0
179
     0
144
0.0208333333333333
144
0.0
144
0.0
144
0.0
144
0.0
144
0.0208333333333333
144
0.0
144
0.0
144
0.0
144
0.0
144
1.0
144
0.0
144
0.0
144
0.0
144
0.0
144
1.0
147
0.0208333333333333
147
0.0
147
0.0
147
0.0
147
0.0
147
0.0208333333333333
147
0.0
147
0.0
147
0.0
147
0.0
147
1.0
147
0.0
147
0.0
147
0.0
147
0.0
147
1.0
  0
MLEADERSTYLE
  5
167BC
102
{ACAD_XDICTIONARY
360
169CE
102
}
102
{ACAD_REACTORS
330
167BB
102
}
330
167BB
100
AcDbMLeaderStyle
170
     2
171
     1
172
     0
 90
        2
 40
0.0
 41
0.0
173
     1
 91
-1056964608
340
7477
 92
       -2
290
     1
 42
2.0
291
     1
 43
0.36
  3
Standard
 44
4.0
300

342
7475
174
     1
178
     6
175
     1
176
     0
 93
-1056964608
 45
4.0
292
     0
297
     0
 46
4.0
 94
-1056964608
 47
1.0
 49
1.0
140
1.0
293
     1
141
0.0
294
     1
177
     0
142
1.0
295
     0
296
     0
143
0.125
1001
ACAD_MLEADERVER
1070
     2
  0
MLINESTYLE
  5
7480
102
{ACAD_REACTORS
330
7473
102
}
330
7473
100
AcDbMlineStyle
  2
STANDARD
 70
     0
  3

 62
     0
 51
90.0
 52
90.0
 71
     2
 49
0.5
 62
   256
  6
BYLAYER
 49
-0.5
 62
   256
  6
BYLAYER
  0
ACDBPLACEHOLDER
  5
154F5
102
{ACAD_REACTORS
330
154F4
102
}
330
154F4
  0
SCALE
  5
167AA
102
{ACAD_REACTORS
330
167A9
102
}
330
167A9
100
AcDbScale
 70
     0
300
1:1
140
1.0
141
1.0
290
     1
  0
SCALE
  5
167AB
102
{ACAD_REACTORS
330
167A9
102
}
330
167A9
100
AcDbScale
 70
     0
300
1:2
140
1.0
141
2.0
290
     0
  0
SCALE
  5
167AC
102
{ACAD_REACTORS
330
167A9
102
}
330
167A9
100
AcDbScale
 70
     0
300
1:4
140
1.0
141
4.0
290
     0
  0
SCALE
  5
167AD
102
{ACAD_REACTORS
330
167A9
102
}
330
167A9
100
AcDbScale
 70
     0
300
1:5
140
1.0
141
5.0
290
     0
  0
SCALE
  5
167AE
102
{ACAD_REACTORS
330
167A9
102
}
330
167A9
100
AcDbScale
 70
     0
300
1:8
140
1.0
141
8.0
290
     0
  0
SCALE
  5
167AF
102
{ACAD_REACTORS
330
167A9
102
}
330
167A9
100
AcDbScale
 70
     0
300
1:10
140
1.0
141
10.0
290
     0
  0
SCALE
  5
167B0
102
{ACAD_REACTORS
330
167A9
102
}
330
167A9
100
AcDbScale
 70
     0
300
1:16
140
1.0
141
16.0
290
     0
  0
SCALE
  5
167B1
102
{ACAD_REACTORS
330
167A9
102
}
330
167A9
100
AcDbScale
 70
     0
300
1:20
140
1.0
141
20.0
290
     0
  0
SCALE
  5
167B2
102
{ACAD_REACTORS
330
167A9
102
}
330
167A9
100
AcDbScale
 70
     0
300
1:30
140
1.0
141
30.0
290
     0
  0
SCALE
  5
167B3
102
{ACAD_REACTORS
330
167A9
102
}
330
167A9
100
AcDbScale
 70
     0
300
1:40
140
1.0
141
40.0
290
     0
  0
SCALE
  5
167B4
102
{ACAD_REACTORS
330
167A9
102
}
330
167A9
100
AcDbScale
 70
     0
300
1:50
140
1.0
141
50.0
290
     0
  0
SCALE
  5
167B5
102
{ACAD_REACTORS
330
167A9
102
}
330
167A9
100
AcDbScale
 70
     0
300
1:100
140
1.0
141
100.0
290
     0
  0
SCALE
  5
167B6
102
{ACAD_REACTORS
330
167A9
102
}
330
167A9
100
AcDbScale
 70
     0
300
2:1
140
2.0
141
1.0
290
     0
  0
SCALE
  5
167B7
102
{ACAD_REACTORS
330
167A9
102
}
330
167A9
100
AcDbScale
 70
     0
300
4:1
140
4.0
141
1.0
290
     0
  0
SCALE
  5
167B8
102
{ACAD_REACTORS
330
167A9
102
}
330
167A9
100
AcDbScale
 70
     0
300
8:1
140
8.0
141
1.0
290
     0
  0
SCALE
  5
167B9
102
{ACAD_REACTORS
330
167A9
102
}
330
167A9
100
AcDbScale
 70
     0
300
10:1
140
10.0
141
1.0
290
     0
  0
SCALE
  5
167BA
102
{ACAD_REACTORS
330
167A9
102
}
330
167A9
100
AcDbScale
 70
     0
300
100:1
140
100.0
141
1.0
290
     0
  0
ACDBSECTIONVIEWSTYLE
  5
167BE
102
{ACAD_XDICTIONARY
360
168F6
102
}
102
{ACAD_REACTORS
330
167BD
102
}
330
167BD
100
AcDbModelDocViewStyle
 70
     0
  3
Metric50
290
     0
100
AcDbSectionViewStyle
 70
     0
 71
     0
 90
      102
 71
     1
340
7475
 40
5.0
340
0
340
0
 40
5.0
300
I, O, Q, S, X, Z
 40
10.0
 90
        0
 40
2.5
 90
        0
 71
     2
340
7479
 90
       25
340
7479
 90
       50
 40
5.0
 40
2.5
 40
5.0
 71
     3
340
7475
 40
5.0
 90
        0
 40
15.0
 90
        1
300
%<\AcVar ViewSectionStartId>%-%<\AcVar ViewSectionEndId>% (%<\AcVar ViewScale \f "%sn">%)
 71
     4
300
ANSI31
 40
1.0
 90
        0
290
     0
290
     0
 90
        6
 40
0.0
 40
1.570796326794896
 40
0.2617993877991494
 40
1.308996938995747
 40
-0.2617993877991494
 40
1.832595714594046
  0
TABLESTYLE
  5
167A8
102
{ACAD_XDICTIONARY
360
16989
102
}
102
{ACAD_REACTORS
330
167A7
102
}
330
167A7
100
AcDbTableStyle
  3
Standard
 70
     0
 71
     0
 40
1.5
 41
1.5
280
     0
281
     0
  7
STANDARD
140
4.5
170
     2
 62
     0
 63
     7
283
     0
274
    -2
284
     1
 64
     0
275
    -2
285
     1
 65
     0
276
    -2
286
     1
 66
     0
277
    -2
287
     1
 67
     0
278
    -2
288
     1
 68
     0
279
    -2
289
     1
 69
     0
  7
STANDARD
140
6.0
170
     5
 62
     0
 63
     7
283
     0
274
    -2
284
     1
 64
     0
275
    -2
285
     1
 65
     0
276
    -2
286
     1
 66
     0
277
    -2
287
     1
 67
     0
278
    -2
288
     1
 68
     0
279
    -2
289
     1
 69
     0
  7
STANDARD
140
4.5
170
     5
 62
     0
 63
     7
283
     0
274
    -2
284
     1
 64
     0
275
    -2
285
     1
 65
     0
276
    -2
286
     1
 66
     0
277
    -2
287
     1
 67
     0
278
    -2
288
     1
 68
     0
279
    -2
289
     1
 69
     0
  0
VISUALSTYLE
  5
16794
102
{ACAD_XDICTIONARY
360
169A6
102
}
102
{ACAD_REACTORS
330
1678E
102
}
330
1678E
100
AcDbVisualStyle
  2
2dWireframe
 70
     4
 71
     0
 72
     2
 73
     0
 90
        0
 40
-0.6
 41
-30.0
 62
     5
 63
     7
 74
     1
 91
        4
 64
     7
 65
   257
 75
     1
175
     1
 42
1.0
 92
        0
 66
   257
 43
1.0
 76
     1
 77
     6
 78
     2
 67
     7
 79
     5
170
     0
171
     0
290
     0
174
     0
 93
        1
 44
0.0
173
     0
291
     0
 45
0.0
1001
ACAD
1000
AcDbSavedByObjectVersion
1070
     0
  0
VISUALSTYLE
  5
16793
102
{ACAD_XDICTIONARY
360
169A4
102
}
102
{ACAD_REACTORS
330
1678E
102
}
330
1678E
100
AcDbVisualStyle
  2
Basic
 70
     7
 71
     1
 72
     0
 73
     1
 90
        0
 40
-0.6
 41
-30.0
 62
     5
 63
     7
 74
     0
 91
        4
 64
     7
 65
   257
 75
     1
175
     1
 42
1.0
 92
        8
 66
     7
 43
1.0
 76
     1
 77
     6
 78
     2
 67
     7
 79
     5
170
     0
171
     0
290
     0
174
     0
 93
        1
 44
0.0
173
     0
291
     1
 45
0.0
1001
ACAD
1000
AcDbSavedByObjectVersion
1070
     0
  0
VISUALSTYLE
  5
1679A
102
{ACAD_XDICTIONARY
360
169B2
102
}
102
{ACAD_REACTORS
330
1678E
102
}
330
1678E
100
AcDbVisualStyle
  2
Brighten
 70
    12
 71
     2
 72
     2
 73
     0
 90
        0
 40
-0.6
 41
-30.0
 62
     5
 63
     7
 74
     1
 91
        4
 64
     7
 65
   257
 75
     1
175
     1
 42
1.0
 92
        8
 66
     7
 43
1.0
 76
     1
 77
     6
 78
     2
 67
     7
 79
     5
170
     0
171
     0
290
     0
174
     0
 93
        1
 44
50.0
173
     0
291
     1
 45
0.0
1001
ACAD
1000
AcDbSavedByObjectVersion
1070
     0
  0
VISUALSTYLE
  5
1679E
102
{ACAD_XDICTIONARY
360
169BA
102
}
102
{ACAD_REACTORS
330
1678E
102
}
330
1678E
100
AcDbVisualStyle
  2
ColorChange
 70
    16
 71
     2
 72
     2
 73
     3
 90
        0
 40
-0.6
 41
-30.0
 62
     5
 63
     8
 74
     1
 91
        4
 64
     7
 65
   257
 75
     1
175
     1
 42
1.0
 92
        8
 66
     8
 43
1.0
 76
     1
 77
     6
 78
     2
 67
     7
 79
     5
170
     0
171
     0
290
     0
174
     0
 93
        1
 44
0.0
173
     0
291
     1
 45
0.0
1001
ACAD
1000
AcDbSavedByObjectVersion
1070
     0
  0
VISUALSTYLE
  5
16797
102
{ACAD_XDICTIONARY
360
169AC
102
}
102
{ACAD_REACTORS
330
1678E
102
}
330
1678E
100
AcDbVisualStyle
  2
Conceptual
 70
     9
 71
     3
 72
     2
 73
     0
 90
        0
 40
-0.6
 41
-30.0
 62
     5
 63
     7
 74
     2
 91
        2
 64
     7
 65
   257
 75
     1
175
     1
 42
179.0
 92
        8
 66
     7
 43
1.0
 76
     1
 77
     6
 78
     2
 67
     7
 79
     3
170
     0
171
     0
290
     0
174
     0
 93
        1
 44
0.0
173
     0
291
     0
 45
0.0
1001
ACAD
1000
AcDbSavedByObjectVersion
1070
     0
  0
VISUALSTYLE
  5
16799
102
{ACAD_XDICTIONARY
360
169B0
102
}
102
{ACAD_REACTORS
330
1678E
102
}
330
1678E
100
AcDbVisualStyle
  2
Dim
 70
    11
 71
     2
 72
     2
 73
     0
 90
        0
 40
-0.6
 41
-30.0
 62
     5
 63
     7
 74
     1
 91
        4
 64
     7
 65
   257
 75
     1
175
     1
 42
1.0
 92
        8
 66
     7
 43
1.0
 76
     1
 77
     6
 78
     2
 67
     7
 79
     5
170
     0
171
     0
290
     0
174
     0
 93
        1
 44
-50.0
173
     0
291
     1
 45
0.0
1001
ACAD
1000
AcDbSavedByObjectVersion
1070
     0
  0
VISUALSTYLE
  5
167A6
102
{ACAD_XDICTIONARY
360
169CA
102
}
102
{ACAD_REACTORS
330
1678E
102
}
330
1678E
100
AcDbVisualStyle
  2
EdgeColorOff
 70
    22
 71
     2
 72
     2
 73
     0
 90
        0
 40
-0.6
 41
-30.0
 62
     5
 63
     7
 74
     1
 91
        4
 64
     7
 65
   257
 75
     1
175
     1
 42
1.0
 92
        8
 66
     7
 43
1.0
 76
     1
 77
     6
 78
     2
 67
     7
 79
     5
170
     0
171
     0
290
     0
174
     0
 93
        1
 44
0.0
173
     0
291
     1
 45
0.0
1001
ACAD
1000
AcDbSavedByObjectVersion
1070
     0
  0
VISUALSTYLE
  5
1679D
102
{ACAD_XDICTIONARY
360
169B8
102
}
102
{ACAD_REACTORS
330
1678E
102
}
330
1678E
100
AcDbVisualStyle
  2
Facepattern
 70
    15
 71
     2
 72
     2
 73
     0
 90
        0
 40
-0.6
 41
-30.0
 62
     5
 63
     7
 74
     1
 91
        4
 64
     7
 65
   257
 75
     1
175
     1
 42
1.0
 92
        8
 66
     7
 43
1.0
 76
     1
 77
     6
 78
     2
 67
     7
 79
     5
170
     0
171
     0
290
     0
174
     0
 93
        1
 44
0.0
173
     0
291
     1
 45
0.0
1001
ACAD
1000
AcDbSavedByObjectVersion
1070
     0
  0
VISUALSTYLE
  5
1678F
102
{ACAD_XDICTIONARY
360
1699C
102
}
102
{ACAD_REACTORS
330
1678E
102
}
330
1678E
100
AcDbVisualStyle
  2
Flat
 70
     0
 71
     2
 72
     1
 73
     1
 90
        2
 40
-0.6
 41
30.0
 62
     5
 63
     7
 74
     0
 91
        0
 64
     7
 65
   257
 75
     1
175
     1
 42
1.0
 92
        8
 66
     7
 43
1.0
 76
     1
 77
     6
 78
     2
 67
     7
 79
     5
170
     0
171
     0
290
     0
174
     0
 93
       13
 44
0.0
173
     0
291
     1
 45
0.0
1001
ACAD
1000
AcDbSavedByObjectVersion
1070
     0
  0
VISUALSTYLE
  5
16790
102
{ACAD_XDICTIONARY
360
1699E
102
}
102
{ACAD_REACTORS
330
1678E
102
}
330
1678E
100
AcDbVisualStyle
  2
FlatWithEdges
 70
     1
 71
     2
 72
     1
 73
     1
 90
        2
 40
-0.6
 41
30.0
 62
     5
 63
     7
 74
     1
 91
        0
 64
     7
 65
   257
 75
     1
175
     1
 42
1.0
 92
        0
 66
   257
 43
1.0
 76
     1
 77
     6
 78
     2
 67
     7
 79
     5
170
     0
171
     0
290
     0
174
     0
 93
       13
 44
0.0
173
     0
291
     1
 45
0.0
1001
ACAD
1000
AcDbSavedByObjectVersion
1070
     0
  0
VISUALSTYLE
  5
16791
102
{ACAD_XDICTIONARY
360
169A0
102
}
102
{ACAD_REACTORS
330
1678E
102
}
330
1678E
100
AcDbVisualStyle
  2
Gouraud
 70
     2
 71
     2
 72
     2
 73
     1
 90
        2
 40
-0.6
 41
30.0
 62
     5
 63
     7
 74
     0
 91
        0
 64
     7
 65
   257
 75
     1
175
     1
 42
1.0
 92
        0
 66
     7
 43
1.0
 76
     1
 77
     6
 78
     2
 67
     7
 79
     5
170
     0
171
     0
290
     0
174
     0
 93
       13
 44
0.0
173
     0
291
     1
 45
0.0
1001
ACAD
1000
AcDbSavedByObjectVersion
1070
     0
  0
VISUALSTYLE
  5
16792
102
{ACAD_XDICTIONARY
360
169A2
102
}
102
{ACAD_REACTORS
330
1678E
102
}
330
1678E
100
AcDbVisualStyle
  2
GouraudWithEdges
 70
     3
 71
     2
 72
     2
 73
     1
 90
        2
 40
-0.6
 41
30.0
 62
     5
 63
     7
 74
     1
 91
        0
 64
     7
 65
   257
 75
     1
175
     1
 42
1.0
 92
        0
 66
   257
 43
1.0
 76
     1
 77
     6
 78
     2
 67
     7
 79
     5
170
     0
171
     0
290
     0
174
     0
 93
       13
 44
0.0
173
     0
291
     1
 45
0.0
1001
ACAD
1000
AcDbSavedByObjectVersion
1070
     0
  0
VISUALSTYLE
  5
16796
102
{ACAD_XDICTIONARY
360
169AA
102
}
102
{ACAD_REACTORS
330
1678E
102
}
330
1678E
100
AcDbVisualStyle
  2
Hidden
 70
     6
 71
     1
 72
     2
 73
     2
 90
        0
 40
-0.6
 41
-30.0
 62
     5
 63
     7
 74
     2
 91
        2
 64
     7
 65
   257
 75
     2
175
     1
 42
40.0
 92
        0
 66
   257
 43
1.0
 76
     1
 77
     6
 78
     2
 67
     7
 79
     3
170
     0
171
     0
290
     0
174
     0
 93
        1
 44
0.0
173
     0
291
     0
 45
0.0
1001
ACAD
1000
AcDbSavedByObjectVersion
1070
     0
  0
VISUALSTYLE
  5
167A4
102
{ACAD_XDICTIONARY
360
169C6
102
}
102
{ACAD_REACTORS
330
1678E
102
}
330
1678E
100
AcDbVisualStyle
  2
JitterOff
 70
    20
 71
     2
 72
     2
 73
     0
 90
        0
 40
-0.6
 41
-30.0
 62
     5
 63
     7
 74
     1
 91
        4
 64
     7
 65
   257
 75
     1
175
     1
 42
1.0
 92
       10
 66
     7
 43
1.0
 76
     1
 77
     6
 78
     2
 67
     7
 79
     5
170
     0
171
     0
290
     0
174
     0
 93
        1
 44
0.0
173
     0
291
     1
 45
0.0
1001
ACAD
1000
AcDbSavedByObjectVersion
1070
     0
  0
VISUALSTYLE
  5
1679C
102
{ACAD_XDICTIONARY
360
169B6
102
}
102
{ACAD_REACTORS
330
1678E
102
}
330
1678E
100
AcDbVisualStyle
  2
Linepattern
 70
    14
 71
     2
 72
     2
 73
     0
 90
        0
 40
-0.6
 41
-30.0
 62
     5
 63
     7
 74
     1
 91
        4
 64
     7
 65
   257
 75
     7
175
     7
 42
1.0
 92
        8
 66
     7
 43
1.0
 76
     1
 77
     6
 78
     2
 67
     7
 79
     5
170
     0
171
     0
290
     0
174
     0
 93
        1
 44
0.0
173
     0
291
     1
 45
0.0
1001
ACAD
1000
AcDbSavedByObjectVersion
1070
     0
  0
VISUALSTYLE
  5
167A5
102
{ACAD_XDICTIONARY
360
169C8
102
}
102
{ACAD_REACTORS
330
1678E
102
}
330
1678E
100
AcDbVisualStyle
  2
OverhangOff
 70
    21
 71
     2
 72
     2
 73
     0
 90
        0
 40
-0.6
 41
-30.0
 62
     5
 63
     7
 74
     1
 91
        4
 64
     7
 65
   257
 75
     1
175
     1
 42
1.0
 92
        9
 66
     7
 43
1.0
 76
     1
 77
     6
 78
     2
 67
     7
 79
     5
170
     0
171
     0
290
     0
174
     0
 93
        1
 44
0.0
173
     0
291
     1
 45
0.0
1001
ACAD
1000
AcDbSavedByObjectVersion
1070
     0
  0
VISUALSTYLE
  5
16798
102
{ACAD_XDICTIONARY
360
169AE
102
}
102
{ACAD_REACTORS
330
1678E
102
}
330
1678E
100
AcDbVisualStyle
  2
Realistic
 70
     8
 71
     2
 72
     3
 73
     0
 90
        2
 40
-0.6
 41
30.0
 62
     5
 63
     7
 74
     0
 91
        0
 64
     7
 65
   257
 75
     1
175
     1
 42
1.0
 92
        8
 66
   257
 43
1.0
 76
     1
 77
     6
 78
     2
 67
     7
 79
     3
170
     0
171
     0
290
     0
174
     0
 93
       13
 44
0.0
173
     0
291
     0
 45
0.0
1001
ACAD
1000
AcDbSavedByObjectVersion
1070
     0
  0
VISUALSTYLE
  5
167A3
102
{ACAD_XDICTIONARY
360
169C4
102
}
102
{ACAD_REACTORS
330
1678E
102
}
330
1678E
100
AcDbVisualStyle
  2
Shaded
 70
    27
 71
     2
 72
     2
 73
     1
 90
        2
 40
-0.6
 41
30.0
 62
     5
 63
     7
 74
     0
 91
        4
 64
     7
 65
   257
 75
     1
175
     1
 42
1.0
 92
        8
 66
   257
 43
1.0
 76
     1
 77
     6
 78
     2
 67
     8
 79
     3
170
     0
171
     0
290
     0
174
     0
 93
        5
 44
0.0
173
     0
291
     0
 45
0.0
1001
ACAD
1000
AcDbSavedByObjectVersion
1070
     0
  0
VISUALSTYLE
  5
167A2
102
{ACAD_XDICTIONARY
360
169C2
102
}
102
{ACAD_REACTORS
330
1678E
102
}
330
1678E
100
AcDbVisualStyle
  2
Shaded with edges
 70
    26
 71
     2
 72
     2
 73
     1
 90
        2
 40
-0.6
 41
30.0
 62
     5
 63
     7
 74
     1
 91
       10
 64
     7
 65
   257
 75
     2
175
     1
 42
1.0
 92
        8
 66
   257
 43
1.0
 76
     1
 77
     6
 78
     2
 67
     7
 79
     3
170
     0
171
     0
290
     0
174
     0
 93
        5
 44
0.0
173
     0
291
     0
 45
0.0
1001
ACAD
1000
AcDbSavedByObjectVersion
1070
     0
  0
VISUALSTYLE
  5
1679F
102
{ACAD_XDICTIONARY
360
169BC
102
}
102
{ACAD_REACTORS
330
1678E
102
}
330
1678E
100
AcDbVisualStyle
  2
Shades of Gray
 70
    23
 71
     2
 72
     2
 73
     3
 90
        0
 40
-0.6
 41
-30.0
 62
     5
 63
     7
 74
     2
 91
        2
 64
     7
 65
     7
 75
     1
175
     1
 42
40.0
 92
        8
 66
     7
 43
1.0
 76
     1
 77
     6
 78
     2
 67
     7
 79
     3
170
     0
171
     0
290
     0
174
     0
 93
        1
 44
0.0
173
     0
291
     0
 45
0.0
1001
ACAD
1000
AcDbSavedByObjectVersion
1070
     0
  0
VISUALSTYLE
  5
167A0
102
{ACAD_XDICTIONARY
360
169BE
102
}
102
{ACAD_REACTORS
330
1678E
102
}
330
1678E
100
AcDbVisualStyle
  2
Sketchy
 70
    24
 71
     1
 72
     2
 73
     2
 90
        0
 40
-0.6
 41
-30.0
 62
     5
 63
     7
 74
     2
 91
        2
 64
     7
 65
     7
 75
     1
175
     1
 42
40.0
 92
       11
 66
     7
 43
1.0
 76
     1
 77
     6
 78
     2
 67
     7
 79
     6
170
     0
171
     0
290
     0
174
     0
 93
        1
 44
0.0
173
     0
291
     0
 45
0.0
1001
ACAD
1000
AcDbSavedByObjectVersion
1070
     0
  0
VISUALSTYLE
  5
1679B
102
{ACAD_XDICTIONARY
360
169B4
102
}
102
{ACAD_REACTORS
330
1678E
102
}
330
1678E
100
AcDbVisualStyle
  2
Thicken
 70
    13
 71
     2
 72
     2
 73
     0
 90
        0
 40
-0.6
 41
-30.0
 62
     5
 63
     7
 74
     1
 91
        4
 64
     7
 65
   257
 75
     1
175
     1
 42
1.0
 92
       12
 66
     7
 43
1.0
 76
     1
 77
     6
 78
     2
 67
     7
 79
     5
170
     0
171
     0
290
     0
174
     0
 93
        1
 44
0.0
173
     0
291
     1
 45
0.0
1001
ACAD
1000
AcDbSavedByObjectVersion
1070
     0
  0
VISUALSTYLE
  5
16795
102
{ACAD_XDICTIONARY
360
169A8
102
}
102
{ACAD_REACTORS
330
1678E
102
}
330
1678E
100
AcDbVisualStyle
  2
Wireframe
 70
     5
 71
     0
 72
     2
 73
     0
 90
        0
 40
-0.6
 41
-30.0
 62
     5
 63
     7
 74
     1
 91
        4
 64
     7
 65
   257
 75
     1
175
     1
 42
1.0
 92
        0
 66
   257
 43
1.0
 76
     1
 77
     6
 78
     2
 67
     7
 79
     3
170
     0
171
     0
290
     0
174
     0
 93
        1
 44
0.0
173
     0
291
     0
 45
0.0
1001
ACAD
1000
AcDbSavedByObjectVersion
1070
     0
  0
VISUALSTYLE
  5
167A1
102
{ACAD_XDICTIONARY
360
169C0
102
}
102
{ACAD_REACTORS
330
1678E
102
}
330
1678E
100
AcDbVisualStyle
  2
X-Ray
 70
    25
 71
     2
 72
     2
 73
     1
 90
        1
 40
0.5
 41
-30.0
 62
     5
 63
     7
 74
     1
 91
        0
 64
     7
 65
   257
 75
     1
175
     1
 42
1.0
 92
        8
 66
     7
 43
1.0
 76
     1
 77
     6
 78
     2
 67
     7
 79
     3
170
     0
171
     0
290
     0
174
     0
 93
       13
 44
0.0
173
     0
291
     0
 45
0.0
1001
ACAD
1000
AcDbSavedByObjectVersion
1070
     0
  0
DICTIONARYVAR
  5
16901
102
{ACAD_REACTORS
330
168FB
102
}
330
168FB
100
DictionaryVariables
280
     0
  1
1:1
  0
DICTIONARYVAR
  5
168FD
102
{ACAD_REACTORS
330
168FB
102
}
330
168FB
100
DictionaryVariables
280
     0
  1
STANDARD
  0
DICTIONARYVAR
  5
168FC
102
{ACAD_REACTORS
330
168FB
102
}
330
168FB
100
DictionaryVariables
280
     0
  1
STANDARD
  0
DICTIONARYVAR
  5
168FE
102
{ACAD_REACTORS
330
168FB
102
}
330
168FB
100
DictionaryVariables
280
     0
  1
Metric50
  0
DICTIONARYVAR
  5
168FF
102
{ACAD_REACTORS
330
168FB
102
}
330
168FB
100
DictionaryVariables
280
     0
  1
Metric50
  0
DICTIONARYVAR
  5
16988
102
{ACAD_REACTORS
330
168FB
102
}
330
168FB
100
DictionaryVariables
280
     0
  1
1
  0
DICTIONARYVAR
  5
16986
102
{ACAD_REACTORS
330
168FB
102
}
330
168FB
100
DictionaryVariables
280
     0
  1
0
  0
DICTIONARYVAR
  5
16903
102
{ACAD_REACTORS
330
168FB
102
}
330
168FB
100
DictionaryVariables
280
     0
  1
1
  0
DICTIONARYVAR
  5
16904
102
{ACAD_REACTORS
330
168FB
102
}
330
168FB
100
DictionaryVariables
280
     0
  1
15
  0
DICTIONARYVAR
  5
16902
102
{ACAD_REACTORS
330
168FB
102
}
330
168FB
100
DictionaryVariables
280
     0
  1
0
  0
DICTIONARYVAR
  5
16900
102
{ACAD_REACTORS
330
168FB
102
}
330
168FB
100
DictionaryVariables
280
     0
  1
0
  0
DICTIONARYVAR
  5
16985
102
{ACAD_REACTORS
330
168FB
102
}
330
168FB
100
DictionaryVariables
280
     0
  1
127
  0
DICTIONARYVAR
  5
16987
102
{ACAD_REACTORS
330
168FB
102
}
330
168FB
100
DictionaryVariables
280
     0
  1
0
  0
DICTIONARY
  5
16994
102
{ACAD_REACTORS
330
16992
102
}
330
16992
100
AcDbDictionary
281
     1
  0
DICTIONARY
  5
16993
102
{ACAD_REACTORS
330
16992
102
}
330
16992
100
AcDbDictionary
281
     1
  3
2129768872
350
1698D
  3
2129768880
350
1698E
  3
2129768888
350
1698F
  3
2129768896
350
16990
  3
2129768904
350
16991
  0
DICTIONARY
  5
168F8
330
167C0
100
AcDbDictionary
280
     1
281
     1
  3
ACAD_XREC_ROUNDTRIP
360
169D1
  0
DICTIONARY
  5
16995
330
154FA
100
AcDbDictionary
280
     1
281
     1
  3
ACAD_XREC_ROUNDTRIP
360
16996
  0
DICTIONARY
  5
16997
330
154FB
100
AcDbDictionary
280
     1
281
     1
  3
ACAD_XREC_ROUNDTRIP
360
16998
  0
DICTIONARY
  5
1677F
330
1677E
100
AcDbDictionary
280
     1
281
     1
  3
ACAD_XREC_ROUNDTRIP
360
1699A
  3
BUMPTILE
360
16781
  3
DIFFUSETILE
360
16780
  3
OPACITYTILE
360
16784
  3
REFLECTIONTILE
360
16783
  3
REFRACTIONTILE
360
16785
  3
SPECULARTILE
360
16782
  0
DICTIONARY
  5
16777
330
16776
100
AcDbDictionary
280
     1
281
     1
  3
ACAD_XREC_ROUNDTRIP
360
16999
  3
BUMPTILE
360
16779
  3
DIFFUSETILE
360
16778
  3
OPACITYTILE
360
1677C
  3
REFLECTIONTILE
360
1677B
  3
REFRACTIONTILE
360
1677D
  3
SPECULARTILE
360
1677A
  0
DICTIONARY
  5
16787
330
16786
100
AcDbDictionary
280
     1
281
     1
  3
ACAD_XREC_ROUNDTRIP
360
1699B
  3
BUMPTILE
360
16789
  3
DIFFUSETILE
360
16788
  3
OPACITYTILE
360
1678C
  3
REFLECTIONTILE
360
1678B
  3
REFRACTIONTILE
360
1678D
  3
SPECULARTILE
360
1678A
  0
DICTIONARY
  5
169CE
330
167BC
100
AcDbDictionary
280
     1
281
     1
  3
ACAD_XREC_ROUNDTRIP
360
169CF
  0
DICTIONARY
  5
168F6
330
167BE
100
AcDbDictionary
280
     1
281
     1
  3
ACAD_XREC_ROUNDTRIP
360
169D0
  0
DICTIONARY
  5
16989
330
167A8
100
AcDbDictionary
280
     1
281
     1
  3
ACAD_ROUNDTRIP_2008_TABLESTYLE_CELLSTYLEMAP
360
1698A
  3
ACAD_XREC_ROUNDTRIP
360
169CC
  0
DICTIONARY
  5
169A6
330
16794
100
AcDbDictionary
280
     1
281
     1
  3
ACAD_XREC_ROUNDTRIP
360
169A7
  0
DICTIONARY
  5
169A4
330
16793
100
AcDbDictionary
280
     1
281
     1
  3
ACAD_XREC_ROUNDTRIP
360
169A5
  0
DICTIONARY
  5
169B2
330
1679A
100
AcDbDictionary
280
     1
281
     1
  3
ACAD_XREC_ROUNDTRIP
360
169B3
  0
DICTIONARY
  5
169BA
330
1679E
100
AcDbDictionary
280
     1
281
     1
  3
ACAD_XREC_ROUNDTRIP
360
169BB
  0
DICTIONARY
  5
169AC
330
16797
100
AcDbDictionary
280
     1
281
     1
  3
ACAD_XREC_ROUNDTRIP
360
169AD
  0
DICTIONARY
  5
169B0
330
16799
100
AcDbDictionary
280
     1
281
     1
  3
ACAD_XREC_ROUNDTRIP
360
169B1
  0
DICTIONARY
  5
169CA
330
167A6
100
AcDbDictionary
280
     1
281
     1
  3
ACAD_XREC_ROUNDTRIP
360
169CB
  0
DICTIONARY
  5
169B8
330
1679D
100
AcDbDictionary
280
     1
281
     1
  3
ACAD_XREC_ROUNDTRIP
360
169B9
  0
DICTIONARY
  5
1699C
330
1678F
100
AcDbDictionary
280
     1
281
     1
  3
ACAD_XREC_ROUNDTRIP
360
1699D
  0
DICTIONARY
  5
1699E
330
16790
100
AcDbDictionary
280
     1
281
     1
  3
ACAD_XREC_ROUNDTRIP
360
1699F
  0
DICTIONARY
  5
169A0
330
16791
100
AcDbDictionary
280
     1
281
     1
  3
ACAD_XREC_ROUNDTRIP
360
169A1
  0
DICTIONARY
  5
169A2
330
16792
100
AcDbDictionary
280
     1
281
     1
  3
ACAD_XREC_ROUNDTRIP
360
169A3
  0
DICTIONARY
  5
169AA
330
16796
100
AcDbDictionary
280
     1
281
     1
  3
ACAD_XREC_ROUNDTRIP
360
169AB
  0
DICTIONARY
  5
169C6
330
167A4
100
AcDbDictionary
280
     1
281
     1
  3
ACAD_XREC_ROUNDTRIP
360
169C7
  0
DICTIONARY
  5
169B6
330
1679C
100
AcDbDictionary
280
     1
281
     1
  3
ACAD_XREC_ROUNDTRIP
360
169B7
  0
DICTIONARY
  5
169C8
330
167A5
100
AcDbDictionary
280
     1
281
     1
  3
ACAD_XREC_ROUNDTRIP
360
169C9
  0
DICTIONARY
  5
169AE
330
16798
100
AcDbDictionary
280
     1
281
     1
  3
ACAD_XREC_ROUNDTRIP
360
169AF
  0
DICTIONARY
  5
169C4
330
167A3
100
AcDbDictionary
280
     1
281
     1
  3
ACAD_XREC_ROUNDTRIP
360
169C5
  0
DICTIONARY
  5
169C2
330
167A2
100
AcDbDictionary
280
     1
281
     1
  3
ACAD_XREC_ROUNDTRIP
360
169C3
  0
DICTIONARY
  5
169BC
330
1679F
100
AcDbDictionary
280
     1
281
     1
  3
ACAD_XREC_ROUNDTRIP
360
169BD
  0
DICTIONARY
  5
169BE
330
167A0
100
AcDbDictionary
280
     1
281
     1
  3
ACAD_XREC_ROUNDTRIP
360
169BF
  0
DICTIONARY
  5
169B4
330
1679B
100
AcDbDictionary
280
     1
281
     1
  3
ACAD_XREC_ROUNDTRIP
360
169B5
  0
DICTIONARY
  5
169A8
330
16795
100
AcDbDictionary
280
     1
281
     1
  3
ACAD_XREC_ROUNDTRIP
360
169A9
  0
DICTIONARY
  5
169C0
330
167A1
100
AcDbDictionary
280
     1
281
     1
  3
ACAD_XREC_ROUNDTRIP
360
169C1
  0
XRECORD
  5
1698D
102
{ACAD_REACTORS
330
16993
102
}
330
16993
100
AcDbXrecord
280
     1
  1
AcDb_Thumbnail_Schema
102
{ATTRRECORD
341
1698E
  2
AcDbDs::TreatedAsObjectData
280
     1
291
     1
102
ATTRRECORD}
102
{ATTRRECORD
341
1698F
  2
AcDbDs::Legacy
280
     1
291
     1
102
ATTRRECORD}
  2
AcDbDs::ID
280
    10
 91
        8
102
{ATTRRECORD
341
16990
  2
AcDs:Indexable
280
     1
291
     1
102
ATTRRECORD}
102
{ATTRRECORD
341
16991
  2
AcDbDs::HandleAttribute
280
     7
282
     1
102
ATTRRECORD}
  2
Thumbnail_Data
280
    15
 91
        0
  0
XRECORD
  5
1698E
102
{ACAD_REACTORS
330
16993
102
}
330
16993
100
AcDbXrecord
280
     1
  1
AcDbDs::TreatedAsObjectDataSchema
  2
AcDbDs::TreatedAsObjectData
280
     1
 91
        0
  0
XRECORD
  5
1698F
102
{ACAD_REACTORS
330
16993
102
}
330
16993
100
AcDbXrecord
280
     1
  1
AcDbDs::LegacySchema
  2
AcDbDs::Legacy
280
     1
 91
        0
  0
XRECORD
  5
16990
102
{ACAD_REACTORS
330
16993
102
}
330
16993
100
AcDbXrecord
280
     1
  1
AcDbDs::IndexedPropertySchema
  2
AcDs:Indexable
280
     1
 91
        0
  0
XRECORD
  5
16991
102
{ACAD_REACTORS
330
16993
102
}
330
16993
100
AcDbXrecord
280
     1
  1
AcDbDs::HandleAttributeSchema
  2
AcDbDs::HandleAttribute
280
     7
 91
        1
284
     1
  0
XRECORD
  5
169D1
102
{ACAD_REACTORS
330
168F8
102
}
330
168F8
100
AcDbXrecord
280
     1
102
DISPLAYNAME
  1
Metric50
102
FLAGS
 90
        0
  0
XRECORD
  5
16996
102
{ACAD_REACTORS
330
16995
102
}
330
16995
100
AcDbXrecord
280
     1
102
SHADEPLOT
 70
     1
102
SHADEPLOTRESLEVEL
 70
     2
102
SHADEPLOTCUSTOMDPI
 70
   300
  0
XRECORD
  5
16998
102
{ACAD_REACTORS
330
16997
102
}
330
16997
100
AcDbXrecord
280
     1
102
SHADEPLOT
 70
     0
102
SHADEPLOTRESLEVEL
 70
     2
102
SHADEPLOTCUSTOMDPI
 70
   300
  0
XRECORD
  5
1699A
102
{ACAD_REACTORS
330
1677F
102
}
330
1677F
100
AcDbXrecord
280
     1
102
MATERIAL
148
0.0
149
0.0
149
0.0
 93
        0
 94
      127
282
     0
 72
     0
 77
     0
171
     0
175
     0
179
     0
273
     0
  0
XRECORD
  5
16781
102
{ACAD_REACTORS
330
1677F
102
}
330
1677F
100
AcDbXrecord
280
     1
270
     1
271
     1
  0
XRECORD
  5
16780
102
{ACAD_REACTORS
330
1677F
102
}
330
1677F
100
AcDbXrecord
280
     1
270
     1
271
     1
  0
XRECORD
  5
16784
102
{ACAD_REACTORS
330
1677F
102
}
330
1677F
100
AcDbXrecord
280
     1
270
     1
271
     1
  0
XRECORD
  5
16783
102
{ACAD_REACTORS
330
1677F
102
}
330
1677F
100
AcDbXrecord
280
     1
270
     1
271
     1
  0
XRECORD
  5
16785
102
{ACAD_REACTORS
330
1677F
102
}
330
1677F
100
AcDbXrecord
280
     1
270
     1
271
     1
  0
XRECORD
  5
16782
102
{ACAD_REACTORS
330
1677F
102
}
330
1677F
100
AcDbXrecord
280
     1
270
     1
271
     1
  0
XRECORD
  5
16999
102
{ACAD_REACTORS
330
16777
102
}
330
16777
100
AcDbXrecord
280
     1
102
MATERIAL
148
0.0
149
0.0
149
0.0
 93
        0
 94
      127
282
     0
 72
     0
 77
     0
171
     0
175
     0
179
     0
273
     0
  0
XRECORD
  5
16779
102
{ACAD_REACTORS
330
16777
102
}
330
16777
100
AcDbXrecord
280
     1
270
     1
271
     1
  0
XRECORD
  5
16778
102
{ACAD_REACTORS
330
16777
102
}
330
16777
100
AcDbXrecord
280
     1
270
     1
271
     1
  0
XRECORD
  5
1677C
102
{ACAD_REACTORS
330
16777
102
}
330
16777
100
AcDbXrecord
280
     1
270
     1
271
     1
  0
XRECORD
  5
1677B
102
{ACAD_REACTORS
330
16777
102
}
330
16777
100
AcDbXrecord
280
     1
270
     1
271
     1
  0
XRECORD
  5
1677D
102
{ACAD_REACTORS
330
16777
102
}
330
16777
100
AcDbXrecord
280
     1
270
     1
271
     1
  0
XRECORD
  5
1677A
102
{ACAD_REACTORS
330
16777
102
}
330
16777
100
AcDbXrecord
280
     1
270
     1
271
     1
  0
XRECORD
  5
1699B
102
{ACAD_REACTORS
330
16787
102
}
330
16787
100
AcDbXrecord
280
     1
102
MATERIAL
148
0.0
149
0.0
149
0.0
 93
        0
 94
      127
282
     0
 72
     0
 77
     0
171
     0
175
     0
179
     0
273
     0
  0
XRECORD
  5
16789
102
{ACAD_REACTORS
330
16787
102
}
330
16787
100
AcDbXrecord
280
     1
270
     1
271
     1
  0
XRECORD
  5
16788
102
{ACAD_REACTORS
330
16787
102
}
330
16787
100
AcDbXrecord
280
     1
270
     1
271
     1
  0
XRECORD
  5
1678C
102
{ACAD_REACTORS
330
16787
102
}
330
16787
100
AcDbXrecord
280
     1
270
     1
271
     1
  0
XRECORD
  5
1678B
102
{ACAD_REACTORS
330
16787
102
}
330
16787
100
AcDbXrecord
280
     1
270
     1
271
     1
  0
XRECORD
  5
1678D
102
{ACAD_REACTORS
330
16787
102
}
330
16787
100
AcDbXrecord
280
     1
270
     1
271
     1
  0
XRECORD
  5
1678A
102
{ACAD_REACTORS
330
16787
102
}
330
16787
100
AcDbXrecord
280
     1
270
     1
271
     1
  0
XRECORD
  5
169CF
102
{ACAD_REACTORS
330
169CE
102
}
330
169CE
100
AcDbXrecord
280
     1
102
ACAD_ROUNDTRIP_2012_MLEADER_STYLE
298
     1
  0
XRECORD
  5
169D0
102
{ACAD_REACTORS
330
168F6
102
}
330
168F6
100
AcDbXrecord
280
     1
102
DISPLAYNAME
  1
Metric50
102
FLAGS
 90
        0
  0
CELLSTYLEMAP
  5
1698A
102
{ACAD_REACTORS
330
16989
102
}
330
16989
100
AcDbCellStyleMap
 90
        3
300
CELLSTYLE
  1
TABLEFORMAT_BEGIN
 90
        5
170
     1
 91
        0
 92
    32768
 62
   257
 93
        1
300
CONTENTFORMAT
  1
CONTENTFORMAT_BEGIN
 90
        0
 91
        0
 92
      512
 93
        0
300

 40
0.0
140
1.0
 94
        5
 62
     0
340
7475
144
6.0
309
CONTENTFORMAT_END
171
     1
301
MARGIN
  1
CELLMARGIN_BEGIN
 40
1.5
 40
1.5
 40
1.5
 40
1.5
 40
4.5
 40
4.5
309
CELLMARGIN_END
 94
        6
 95
        1
302
GRIDFORMAT
  1
GRIDFORMAT_BEGIN
 90
        0
 91
        1
 62
     0
 92
       -2
340
0
 93
        0
 40
1.125
309
GRIDFORMAT_END
 95
        2
302
GRIDFORMAT
  1
GRIDFORMAT_BEGIN
 90
        0
 91
        1
 62
     0
 92
       -2
340
0
 93
        0
 40
1.125
309
GRIDFORMAT_END
 95
        4
302
GRIDFORMAT
  1
GRIDFORMAT_BEGIN
 90
        0
 91
        1
 62
     0
 92
       -2
340
0
 93
        0
 40
1.125
309
GRIDFORMAT_END
 95
        8
302
GRIDFORMAT
  1
GRIDFORMAT_BEGIN
 90
        0
 91
        1
 62
     0
 92
       -2
340
0
 93
        0
 40
1.125
309
GRIDFORMAT_END
 95
       16
302
GRIDFORMAT
  1
GRIDFORMAT_BEGIN
 90
        0
 91
        1
 62
     0
 92
       -2
340
0
 93
        0
 40
1.125
309
GRIDFORMAT_END
 95
       32
302
GRIDFORMAT
  1
GRIDFORMAT_BEGIN
 90
        0
 91
        1
 62
     0
 92
       -2
340
0
 93
        0
 40
1.125
309
GRIDFORMAT_END
309
TABLEFORMAT_END
  1
CELLSTYLE_BEGIN
 90
        1
 91
        1
300
_TITLE
309
CELLSTYLE_END
300
CELLSTYLE
  1
TABLEFORMAT_BEGIN
 90
        5
170
     1
 91
        0
 92
        0
 62
   257
 93
        1
300
CONTENTFORMAT
  1
CONTENTFORMAT_BEGIN
 90
        0
 91
        0
 92
      512
 93
        0
300

 40
0.0
140
1.0
 94
        5
 62
     0
340
7475
144
4.5
309
CONTENTFORMAT_END
171
     1
301
MARGIN
  1
CELLMARGIN_BEGIN
 40
1.5
 40
1.5
 40
1.5
 40
1.5
 40
4.5
 40
4.5
309
CELLMARGIN_END
 94
        6
 95
        1
302
GRIDFORMAT
  1
GRIDFORMAT_BEGIN
 90
        0
 91
        1
 62
     0
 92
       -2
340
0
 93
        0
 40
1.125
309
GRIDFORMAT_END
 95
        2
302
GRIDFORMAT
  1
GRIDFORMAT_BEGIN
 90
        0
 91
        1
 62
     0
 92
       -2
340
0
 93
        0
 40
1.125
309
GRIDFORMAT_END
 95
        4
302
GRIDFORMAT
  1
GRIDFORMAT_BEGIN
 90
        0
 91
        1
 62
     0
 92
       -2
340
0
 93
        0
 40
1.125
309
GRIDFORMAT_END
 95
        8
302
GRIDFORMAT
  1
GRIDFORMAT_BEGIN
 90
        0
 91
        1
 62
     0
 92
       -2
340
0
 93
        0
 40
1.125
309
GRIDFORMAT_END
 95
       16
302
GRIDFORMAT
  1
GRIDFORMAT_BEGIN
 90
        0
 91
        1
 62
     0
 92
       -2
340
0
 93
        0
 40
1.125
309
GRIDFORMAT_END
 95
       32
302
GRIDFORMAT
  1
GRIDFORMAT_BEGIN
 90
        0
 91
        1
 62
     0
 92
       -2
340
0
 93
        0
 40
1.125
309
GRIDFORMAT_END
309
TABLEFORMAT_END
  1
CELLSTYLE_BEGIN
 90
        2
 91
        1
300
_HEADER
309
CELLSTYLE_END
300
CELLSTYLE
  1
TABLEFORMAT_BEGIN
 90
        5
170
     1
 91
        0
 92
        0
 62
   257
 93
        1
300
CONTENTFORMAT
  1
CONTENTFORMAT_BEGIN
 90
        0
 91
        0
 92
      512
 93
        0
300

 40
0.0
140
1.0
 94
        2
 62
     0
340
7475
144
4.5
309
CONTENTFORMAT_END
171
     1
301
MARGIN
  1
CELLMARGIN_BEGIN
 40
1.5
 40
1.5
 40
1.5
 40
1.5
 40
4.5
 40
4.5
309
CELLMARGIN_END
 94
        6
 95
        1
302
GRIDFORMAT
  1
GRIDFORMAT_BEGIN
 90
        0
 91
        1
 62
     0
 92
       -2
340
0
 93
        0
 40
1.125
309
GRIDFORMAT_END
 95
        2
302
GRIDFORMAT
  1
GRIDFORMAT_BEGIN
 90
        0
 91
        1
 62
     0
 92
       -2
340
0
 93
        0
 40
1.125
309
GRIDFORMAT_END
 95
        4
302
GRIDFORMAT
  1
GRIDFORMAT_BEGIN
 90
        0
 91
        1
 62
     0
 92
       -2
340
0
 93
        0
 40
1.125
309
GRIDFORMAT_END
 95
        8
302
GRIDFORMAT
  1
GRIDFORMAT_BEGIN
 90
        0
 91
        1
 62
     0
 92
       -2
340
0
 93
        0
 40
1.125
309
GRIDFORMAT_END
 95
       16
302
GRIDFORMAT
  1
GRIDFORMAT_BEGIN
 90
        0
 91
        1
 62
     0
 92
       -2
340
0
 93
        0
 40
1.125
309
GRIDFORMAT_END
 95
       32
302
GRIDFORMAT
  1
GRIDFORMAT_BEGIN
 90
        0
 91
        1
 62
     0
 92
       -2
340
0
 93
        0
 40
1.125
309
GRIDFORMAT_END
309
TABLEFORMAT_END
  1
CELLSTYLE_BEGIN
 90
        3
 91
        2
300
_DATA
309
CELLSTYLE_END
  0
XRECORD
  5
169CC
102
{ACAD_REACTORS
330
16989
102
}
330
16989
100
AcDbXrecord
280
     1
102
ACAD_ROUNDTRIP_PRE2007_TABLESTYLE
 90
      512
 91
        0
  1

 92
      512
 93
        0
  2

 94
      512
 95
        0
  3

  0
XRECORD
  5
169A7
102
{ACAD_REACTORS
330
169A6
102
}
330
169A6
100
AcDbXrecord
280
     1
102
RTVSPost2010Prop28
280
     1
102
RTVSPost2010PropOp28
 70
     1
102
RTVSPost2010Prop29
280
     1
102
RTVSPost2010PropOp29
 70
     1
102
RTVSPost2010Prop30
280
     0
102
RTVSPost2010PropOp30
 70
     1
102
RTVSPost2010Prop31
280
     0
102
RTVSPost2010PropOp31
 70
     1
102
RTVSPost2010Prop32
280
     0
102
RTVSPost2010PropOp32
 70
     1
102
RTVSPost2010Prop33
280
     0
102
RTVSPost2010PropOp33
 70
     1
102
RTVSPost2010Prop34
280
     0
102
RTVSPost2010PropOp34
 70
     1
102
RTVSPost2010Prop35
280
     0
102
RTVSPost2010PropOp35
 70
     1
102
RTVSPost2010Prop36
280
     0
102
RTVSPost2010PropOp36
 70
     1
102
RTVSPost2010Prop37
 90
       50
102
RTVSPost2010PropOp37
 70
     1
102
RTVSPost2010Prop38
140
0.0
102
RTVSPost2010PropOp38
 70
     1
102
RTVSPost2010Prop39
140
1.0
102
RTVSPost2010PropOp39
 70
     1
102
RTVSPost2010Prop40
 90
        0
102
RTVSPost2010PropOp40
 70
     1
102
RTVSPost2010Prop41ColorIndex
 90
       18
102
RTVSPost2010Prop41ColorRGB
 90
        0
102
RTVSPost2010PropOp41
 70
     1
102
RTVSPost2010Prop42
 90
       50
102
RTVSPost2010PropOp42
 70
     1
102
RTVSPost2010Prop43
 90
        3
102
RTVSPost2010PropOp43
 70
     1
102
RTVSPost2010Prop44ColorIndex
 90
        5
102
RTVSPost2010Prop44ColorRGB
 90
      255
102
RTVSPost2010PropOp44
 70
     1
102
RTVSPost2010Prop45
280
     0
102
RTVSPost2010PropOp45
 70
     1
102
RTVSPost2010Prop46
 90
       50
102
RTVSPost2010PropOp46
 70
     1
102
RTVSPost2010Prop47
 90
       50
102
RTVSPost2010PropOp47
 70
     1
102
RTVSPost2010Prop48
 90
       50
102
RTVSPost2010PropOp48
 70
     1
102
RTVSPost2010Prop49
280
     0
102
RTVSPost2010PropOp49
 70
     1
102
RTVSPost2010Prop50
 90
       50
102
RTVSPost2010PropOp50
 70
     1
102
RTVSPost2010Prop51ColorIndex
 90
      256
102
RTVSPost2010Prop51ColorRGB
 90
-16777216
102
RTVSPost2010PropOp51
 70
     0
102
RTVSPost2010Prop52
140
1.0
102
RTVSPost2010PropOp52
 70
     0
102
RTVSPost2010Prop53
 90
        2
102
RTVSPost2010PropOp53
 70
     1
102
RTVSPost2010Prop54
  1
strokes_ogs.tif
102
RTVSPost2010PropOp54
 70
     1
102
RTVSPost2010Prop55
280
     0
102
RTVSPost2010PropOp55
 70
     1
102
RTVSPost2010Prop56
140
1.0
102
RTVSPost2010PropOp56
 70
     1
102
RTVSPost2010Prop57
140
1.0
102
RTVSPost2010PropOp57
 70
     1
102
RTVSPropertyOp0
 70
     1
102
RTVSPropertyOp1
 70
     1
102
RTVSPropertyOp2
 70
     1
102
RTVSPropertyOp3
 70
     1
102
RTVSPropertyOp4
 70
     1
102
RTVSPropertyOp5
 70
     1
102
RTVSPropertyOp6
 70
     1
102
RTVSPropertyOp7
 70
     1
102
RTVSPropertyOp8
 70
     1
102
RTVSPropertyOp9
 70
     1
102
RTVSPropertyOp10
 70
     1
102
RTVSPropertyOp11
 70
     1
102
RTVSPropertyOp12
 70
     1
102
RTVSPropertyOp13
 70
     1
102
RTVSPropertyOp14
 70
     1
102
RTVSPropertyOp15
 70
     1
102
RTVSPropertyOp16
 70
     1
102
RTVSPropertyOp17
 70
     1
102
RTVSPropertyOp18
 70
     1
102
RTVSPropertyOp19
 70
     1
102
RTVSPropertyOp20
 70
     1
102
RTVSPropertyOp21
 70
     1
102
RTVSPropertyOp22
 70
     1
102
RTVSPropertyOp23
 70
     1
102
RTVSPropertyOp24
 70
     1
102
RTVSPropertyOp25
 70
     1
102
RTVSPropertyOp26
 70
     1
102
RTVSPropertyOp27
 70
     1
102
RTVSPropertyOp28
 70
     1
102
RTVSPropertyOp29
 70
     1
102
RTVSPropertyOp30
 70
     1
102
RTVSPropertyOp31
 70
     1
102
RTVSPropertyOp32
 70
     1
102
RTVSPropertyOp33
 70
     1
102
RTVSPropertyOp34
 70
     1
102
RTVSPropertyOp35
 70
     1
102
RTVSPropertyOp36
 70
     1
102
RTVSPropertyOp37
 70
     1
102
RTVSPropertyOp38
 70
     1
102
RTVSPropertyOp39
 70
     1
102
RTVSPropertyOp40
 70
     1
102
RTVSPropertyOp41
 70
     1
102
RTVSPropertyOp42
 70
     1
102
RTVSPropertyOp43
 70
     1
102
RTVSPropertyOp44
 70
     1
102
RTVSPropertyOp45
 70
     1
102
RTVSPropertyOp46
 70
     1
102
RTVSPropertyOp47
 70
     1
102
RTVSPropertyOp48
 70
     1
102
RTVSPropertyOp49
 70
     1
102
RTVSPropertyOp50
 70
     1
102
RTVSPropertyOp51
 70
     0
102
RTVSPropertyOp52
 70
     0
102
RTVSPropertyOp53
 70
     1
102
RTVSPropertyOp54
 70
     1
102
RTVSPropertyOp55
 70
     1
102
RTVSPropertyOp56
 70
     1
102
RTVSPropertyOp57
 70
     1
102
RTVSPropertyOp58
 70
     1
102
RTVSPropertyOp59
 70
     1
102
RTVSPropertyOp60
 70
     1
102
RTVSPropertyOp61
 70
     1
102
RTVSPropertyOp62
 70
     1
  0
XRECORD
  5
169A5
102
{ACAD_REACTORS
330
169A4
102
}
330
169A4
100
AcDbXrecord
280
     1
102
RTVSPost2010Prop28
280
     0
102
RTVSPost2010PropOp28
 70
     1
102
RTVSPost2010Prop29
280
     1
102
RTVSPost2010PropOp29
 70
     1
102
RTVSPost2010Prop30
280
     1
102
RTVSPost2010PropOp30
 70
     1
102
RTVSPost2010Prop31
280
     0
102
RTVSPost2010PropOp31
 70
     1
102
RTVSPost2010Prop32
280
     0
102
RTVSPost2010PropOp32
 70
     1
102
RTVSPost2010Prop33
280
     0
102
RTVSPost2010PropOp33
 70
     1
102
RTVSPost2010Prop34
280
     0
102
RTVSPost2010PropOp34
 70
     1
102
RTVSPost2010Prop35
280
     0
102
RTVSPost2010PropOp35
 70
     1
102
RTVSPost2010Prop36
280
     0
102
RTVSPost2010PropOp36
 70
     1
102
RTVSPost2010Prop37
 90
       50
102
RTVSPost2010PropOp37
 70
     1
102
RTVSPost2010Prop38
140
0.0
102
RTVSPost2010PropOp38
 70
     1
102
RTVSPost2010Prop39
140
1.0
102
RTVSPost2010PropOp39
 70
     1
102
RTVSPost2010Prop40
 90
        0
102
RTVSPost2010PropOp40
 70
     1
102
RTVSPost2010Prop41ColorIndex
 90
       18
102
RTVSPost2010Prop41ColorRGB
 90
        0
102
RTVSPost2010PropOp41
 70
     1
102
RTVSPost2010Prop42
 90
       50
102
RTVSPost2010PropOp42
 70
     1
102
RTVSPost2010Prop43
 90
        3
102
RTVSPost2010PropOp43
 70
     1
102
RTVSPost2010Prop44ColorIndex
 90
        5
102
RTVSPost2010Prop44ColorRGB
 90
      255
102
RTVSPost2010PropOp44
 70
     1
102
RTVSPost2010Prop45
280
     0
102
RTVSPost2010PropOp45
 70
     1
102
RTVSPost2010Prop46
 90
       50
102
RTVSPost2010PropOp46
 70
     1
102
RTVSPost2010Prop47
 90
       50
102
RTVSPost2010PropOp47
 70
     1
102
RTVSPost2010Prop48
 90
       50
102
RTVSPost2010PropOp48
 70
     1
102
RTVSPost2010Prop49
280
     0
102
RTVSPost2010PropOp49
 70
     1
102
RTVSPost2010Prop50
 90
       50
102
RTVSPost2010PropOp50
 70
     1
102
RTVSPost2010Prop51ColorIndex
 90
      256
102
RTVSPost2010Prop51ColorRGB
 90
-16777216
102
RTVSPost2010PropOp51
 70
     0
102
RTVSPost2010Prop52
140
1.0
102
RTVSPost2010PropOp52
 70
     0
102
RTVSPost2010Prop53
 90
        2
102
RTVSPost2010PropOp53
 70
     1
102
RTVSPost2010Prop54
  1
strokes_ogs.tif
102
RTVSPost2010PropOp54
 70
     1
102
RTVSPost2010Prop55
280
     0
102
RTVSPost2010PropOp55
 70
     1
102
RTVSPost2010Prop56
140
1.0
102
RTVSPost2010PropOp56
 70
     1
102
RTVSPost2010Prop57
140
1.0
102
RTVSPost2010PropOp57
 70
     1
102
RTVSPropertyOp0
 70
     1
102
RTVSPropertyOp1
 70
     1
102
RTVSPropertyOp2
 70
     1
102
RTVSPropertyOp3
 70
     1
102
RTVSPropertyOp4
 70
     1
102
RTVSPropertyOp5
 70
     1
102
RTVSPropertyOp6
 70
     1
102
RTVSPropertyOp7
 70
     1
102
RTVSPropertyOp8
 70
     1
102
RTVSPropertyOp9
 70
     1
102
RTVSPropertyOp10
 70
     1
102
RTVSPropertyOp11
 70
     1
102
RTVSPropertyOp12
 70
     1
102
RTVSPropertyOp13
 70
     1
102
RTVSPropertyOp14
 70
     1
102
RTVSPropertyOp15
 70
     1
102
RTVSPropertyOp16
 70
     1
102
RTVSPropertyOp17
 70
     1
102
RTVSPropertyOp18
 70
     1
102
RTVSPropertyOp19
 70
     1
102
RTVSPropertyOp20
 70
     1
102
RTVSPropertyOp21
 70
     1
102
RTVSPropertyOp22
 70
     1
102
RTVSPropertyOp23
 70
     1
102
RTVSPropertyOp24
 70
     1
102
RTVSPropertyOp25
 70
     1
102
RTVSPropertyOp26
 70
     1
102
RTVSPropertyOp27
 70
     1
102
RTVSPropertyOp28
 70
     1
102
RTVSPropertyOp29
 70
     1
102
RTVSPropertyOp30
 70
     1
102
RTVSPropertyOp31
 70
     1
102
RTVSPropertyOp32
 70
     1
102
RTVSPropertyOp33
 70
     1
102
RTVSPropertyOp34
 70
     1
102
RTVSPropertyOp35
 70
     1
102
RTVSPropertyOp36
 70
     1
102
RTVSPropertyOp37
 70
     1
102
RTVSPropertyOp38
 70
     1
102
RTVSPropertyOp39
 70
     1
102
RTVSPropertyOp40
 70
     1
102
RTVSPropertyOp41
 70
     1
102
RTVSPropertyOp42
 70
     1
102
RTVSPropertyOp43
 70
     1
102
RTVSPropertyOp44
 70
     1
102
RTVSPropertyOp45
 70
     1
102
RTVSPropertyOp46
 70
     1
102
RTVSPropertyOp47
 70
     1
102
RTVSPropertyOp48
 70
     1
102
RTVSPropertyOp49
 70
     1
102
RTVSPropertyOp50
 70
     1
102
RTVSPropertyOp51
 70
     0
102
RTVSPropertyOp52
 70
     0
102
RTVSPropertyOp53
 70
     1
102
RTVSPropertyOp54
 70
     1
102
RTVSPropertyOp55
 70
     1
102
RTVSPropertyOp56
 70
     1
102
RTVSPropertyOp57
 70
     1
102
RTVSPropertyOp58
 70
     1
102
RTVSPropertyOp59
 70
     1
102
RTVSPropertyOp60
 70
     1
102
RTVSPropertyOp61
 70
     1
102
RTVSPropertyOp62
 70
     1
  0
XRECORD
  5
169B3
102
{ACAD_REACTORS
330
169B2
102
}
330
169B2
100
AcDbXrecord
280
     1
102
RTVSPost2010Prop28
280
     0
102
RTVSPost2010PropOp28
 70
     1
102
RTVSPost2010Prop29
280
     1
102
RTVSPost2010PropOp29
 70
     1
102
RTVSPost2010Prop30
280
     1
102
RTVSPost2010PropOp30
 70
     1
102
RTVSPost2010Prop31
280
     0
102
RTVSPost2010PropOp31
 70
     1
102
RTVSPost2010Prop32
280
     0
102
RTVSPost2010PropOp32
 70
     1
102
RTVSPost2010Prop33
280
     0
102
RTVSPost2010PropOp33
 70
     1
102
RTVSPost2010Prop34
280
     0
102
RTVSPost2010PropOp34
 70
     1
102
RTVSPost2010Prop35
280
     0
102
RTVSPost2010PropOp35
 70
     1
102
RTVSPost2010Prop36
280
     0
102
RTVSPost2010PropOp36
 70
     1
102
RTVSPost2010Prop37
 90
       50
102
RTVSPost2010PropOp37
 70
     1
102
RTVSPost2010Prop38
140
0.0
102
RTVSPost2010PropOp38
 70
     1
102
RTVSPost2010Prop39
140
1.0
102
RTVSPost2010PropOp39
 70
     1
102
RTVSPost2010Prop40
 90
        0
102
RTVSPost2010PropOp40
 70
     1
102
RTVSPost2010Prop41ColorIndex
 90
       18
102
RTVSPost2010Prop41ColorRGB
 90
        0
102
RTVSPost2010PropOp41
 70
     1
102
RTVSPost2010Prop42
 90
       50
102
RTVSPost2010PropOp42
 70
     1
102
RTVSPost2010Prop43
 90
        3
102
RTVSPost2010PropOp43
 70
     1
102
RTVSPost2010Prop44ColorIndex
 90
        5
102
RTVSPost2010Prop44ColorRGB
 90
      255
102
RTVSPost2010PropOp44
 70
     1
102
RTVSPost2010Prop45
280
     0
102
RTVSPost2010PropOp45
 70
     1
102
RTVSPost2010Prop46
 90
       50
102
RTVSPost2010PropOp46
 70
     1
102
RTVSPost2010Prop47
 90
       50
102
RTVSPost2010PropOp47
 70
     1
102
RTVSPost2010Prop48
 90
       50
102
RTVSPost2010PropOp48
 70
     1
102
RTVSPost2010Prop49
280
     0
102
RTVSPost2010PropOp49
 70
     1
102
RTVSPost2010Prop50
 90
       50
102
RTVSPost2010PropOp50
 70
     1
102
RTVSPost2010Prop51ColorIndex
 90
      256
102
RTVSPost2010Prop51ColorRGB
 90
-16777216
102
RTVSPost2010PropOp51
 70
     0
102
RTVSPost2010Prop52
140
1.0
102
RTVSPost2010PropOp52
 70
     0
102
RTVSPost2010Prop53
 90
        2
102
RTVSPost2010PropOp53
 70
     1
102
RTVSPost2010Prop54
  1
strokes_ogs.tif
102
RTVSPost2010PropOp54
 70
     1
102
RTVSPost2010Prop55
280
     0
102
RTVSPost2010PropOp55
 70
     1
102
RTVSPost2010Prop56
140
1.0
102
RTVSPost2010PropOp56
 70
     1
102
RTVSPost2010Prop57
140
1.0
102
RTVSPost2010PropOp57
 70
     1
102
RTVSPropertyOp0
 70
     1
102
RTVSPropertyOp1
 70
     1
102
RTVSPropertyOp2
 70
     1
102
RTVSPropertyOp3
 70
     1
102
RTVSPropertyOp4
 70
     1
102
RTVSPropertyOp5
 70
     1
102
RTVSPropertyOp6
 70
     1
102
RTVSPropertyOp7
 70
     1
102
RTVSPropertyOp8
 70
     1
102
RTVSPropertyOp9
 70
     1
102
RTVSPropertyOp10
 70
     1
102
RTVSPropertyOp11
 70
     1
102
RTVSPropertyOp12
 70
     1
102
RTVSPropertyOp13
 70
     1
102
RTVSPropertyOp14
 70
     1
102
RTVSPropertyOp15
 70
     1
102
RTVSPropertyOp16
 70
     1
102
RTVSPropertyOp17
 70
     1
102
RTVSPropertyOp18
 70
     1
102
RTVSPropertyOp19
 70
     1
102
RTVSPropertyOp20
 70
     1
102
RTVSPropertyOp21
 70
     1
102
RTVSPropertyOp22
 70
     1
102
RTVSPropertyOp23
 70
     1
102
RTVSPropertyOp24
 70
     1
102
RTVSPropertyOp25
 70
     1
102
RTVSPropertyOp26
 70
     1
102
RTVSPropertyOp27
 70
     1
102
RTVSPropertyOp28
 70
     1
102
RTVSPropertyOp29
 70
     1
102
RTVSPropertyOp30
 70
     1
102
RTVSPropertyOp31
 70
     1
102
RTVSPropertyOp32
 70
     1
102
RTVSPropertyOp33
 70
     1
102
RTVSPropertyOp34
 70
     1
102
RTVSPropertyOp35
 70
     1
102
RTVSPropertyOp36
 70
     1
102
RTVSPropertyOp37
 70
     1
102
RTVSPropertyOp38
 70
     1
102
RTVSPropertyOp39
 70
     1
102
RTVSPropertyOp40
 70
     1
102
RTVSPropertyOp41
 70
     1
102
RTVSPropertyOp42
 70
     1
102
RTVSPropertyOp43
 70
     1
102
RTVSPropertyOp44
 70
     1
102
RTVSPropertyOp45
 70
     1
102
RTVSPropertyOp46
 70
     1
102
RTVSPropertyOp47
 70
     1
102
RTVSPropertyOp48
 70
     1
102
RTVSPropertyOp49
 70
     1
102
RTVSPropertyOp50
 70
     1
102
RTVSPropertyOp51
 70
     0
102
RTVSPropertyOp52
 70
     0
102
RTVSPropertyOp53
 70
     1
102
RTVSPropertyOp54
 70
     1
102
RTVSPropertyOp55
 70
     1
102
RTVSPropertyOp56
 70
     1
102
RTVSPropertyOp57
 70
     1
102
RTVSPropertyOp58
 70
     1
102
RTVSPropertyOp59
 70
     1
102
RTVSPropertyOp60
 70
     1
102
RTVSPropertyOp61
 70
     1
102
RTVSPropertyOp62
 70
     1
  0
XRECORD
  5
169BB
102
{ACAD_REACTORS
330
169BA
102
}
330
169BA
100
AcDbXrecord
280
     1
102
RTVSPost2010Prop28
280
     0
102
RTVSPost2010PropOp28
 70
     1
102
RTVSPost2010Prop29
280
     1
102
RTVSPost2010PropOp29
 70
     1
102
RTVSPost2010Prop30
280
     1
102
RTVSPost2010PropOp30
 70
     1
102
RTVSPost2010Prop31
280
     0
102
RTVSPost2010PropOp31
 70
     1
102
RTVSPost2010Prop32
280
     0
102
RTVSPost2010PropOp32
 70
     1
102
RTVSPost2010Prop33
280
     0
102
RTVSPost2010PropOp33
 70
     1
102
RTVSPost2010Prop34
280
     0
102
RTVSPost2010PropOp34
 70
     1
102
RTVSPost2010Prop35
280
     0
102
RTVSPost2010PropOp35
 70
     1
102
RTVSPost2010Prop36
280
     0
102
RTVSPost2010PropOp36
 70
     1
102
RTVSPost2010Prop37
 90
       50
102
RTVSPost2010PropOp37
 70
     1
102
RTVSPost2010Prop38
140
0.0
102
RTVSPost2010PropOp38
 70
     1
102
RTVSPost2010Prop39
140
1.0
102
RTVSPost2010PropOp39
 70
     1
102
RTVSPost2010Prop40
 90
        0
102
RTVSPost2010PropOp40
 70
     1
102
RTVSPost2010Prop41ColorIndex
 90
       18
102
RTVSPost2010Prop41ColorRGB
 90
        0
102
RTVSPost2010PropOp41
 70
     1
102
RTVSPost2010Prop42
 90
       50
102
RTVSPost2010PropOp42
 70
     1
102
RTVSPost2010Prop43
 90
        3
102
RTVSPost2010PropOp43
 70
     1
102
RTVSPost2010Prop44ColorIndex
 90
        5
102
RTVSPost2010Prop44ColorRGB
 90
      255
102
RTVSPost2010PropOp44
 70
     1
102
RTVSPost2010Prop45
280
     0
102
RTVSPost2010PropOp45
 70
     1
102
RTVSPost2010Prop46
 90
       50
102
RTVSPost2010PropOp46
 70
     1
102
RTVSPost2010Prop47
 90
       50
102
RTVSPost2010PropOp47
 70
     1
102
RTVSPost2010Prop48
 90
       50
102
RTVSPost2010PropOp48
 70
     1
102
RTVSPost2010Prop49
280
     0
102
RTVSPost2010PropOp49
 70
     1
102
RTVSPost2010Prop50
 90
       50
102
RTVSPost2010PropOp50
 70
     1
102
RTVSPost2010Prop51ColorIndex
 90
      256
102
RTVSPost2010Prop51ColorRGB
 90
-16777216
102
RTVSPost2010PropOp51
 70
     0
102
RTVSPost2010Prop52
140
1.0
102
RTVSPost2010PropOp52
 70
     0
102
RTVSPost2010Prop53
 90
        2
102
RTVSPost2010PropOp53
 70
     1
102
RTVSPost2010Prop54
  1
strokes_ogs.tif
102
RTVSPost2010PropOp54
 70
     1
102
RTVSPost2010Prop55
280
     0
102
RTVSPost2010PropOp55
 70
     1
102
RTVSPost2010Prop56
140
1.0
102
RTVSPost2010PropOp56
 70
     1
102
RTVSPost2010Prop57
140
1.0
102
RTVSPost2010PropOp57
 70
     1
102
RTVSPropertyOp0
 70
     1
102
RTVSPropertyOp1
 70
     1
102
RTVSPropertyOp2
 70
     1
102
RTVSPropertyOp3
 70
     1
102
RTVSPropertyOp4
 70
     1
102
RTVSPropertyOp5
 70
     1
102
RTVSPropertyOp6
 70
     1
102
RTVSPropertyOp7
 70
     1
102
RTVSPropertyOp8
 70
     1
102
RTVSPropertyOp9
 70
     1
102
RTVSPropertyOp10
 70
     1
102
RTVSPropertyOp11
 70
     1
102
RTVSPropertyOp12
 70
     1
102
RTVSPropertyOp13
 70
     1
102
RTVSPropertyOp14
 70
     1
102
RTVSPropertyOp15
 70
     1
102
RTVSPropertyOp16
 70
     1
102
RTVSPropertyOp17
 70
     1
102
RTVSPropertyOp18
 70
     1
102
RTVSPropertyOp19
 70
     1
102
RTVSPropertyOp20
 70
     1
102
RTVSPropertyOp21
 70
     1
102
RTVSPropertyOp22
 70
     1
102
RTVSPropertyOp23
 70
     1
102
RTVSPropertyOp24
 70
     1
102
RTVSPropertyOp25
 70
     1
102
RTVSPropertyOp26
 70
     1
102
RTVSPropertyOp27
 70
     1
102
RTVSPropertyOp28
 70
     1
102
RTVSPropertyOp29
 70
     1
102
RTVSPropertyOp30
 70
     1
102
RTVSPropertyOp31
 70
     1
102
RTVSPropertyOp32
 70
     1
102
RTVSPropertyOp33
 70
     1
102
RTVSPropertyOp34
 70
     1
102
RTVSPropertyOp35
 70
     1
102
RTVSPropertyOp36
 70
     1
102
RTVSPropertyOp37
 70
     1
102
RTVSPropertyOp38
 70
     1
102
RTVSPropertyOp39
 70
     1
102
RTVSPropertyOp40
 70
     1
102
RTVSPropertyOp41
 70
     1
102
RTVSPropertyOp42
 70
     1
102
RTVSPropertyOp43
 70
     1
102
RTVSPropertyOp44
 70
     1
102
RTVSPropertyOp45
 70
     1
102
RTVSPropertyOp46
 70
     1
102
RTVSPropertyOp47
 70
     1
102
RTVSPropertyOp48
 70
     1
102
RTVSPropertyOp49
 70
     1
102
RTVSPropertyOp50
 70
     1
102
RTVSPropertyOp51
 70
     0
102
RTVSPropertyOp52
 70
     0
102
RTVSPropertyOp53
 70
     1
102
RTVSPropertyOp54
 70
     1
102
RTVSPropertyOp55
 70
     1
102
RTVSPropertyOp56
 70
     1
102
RTVSPropertyOp57
 70
     1
102
RTVSPropertyOp58
 70
     1
102
RTVSPropertyOp59
 70
     1
102
RTVSPropertyOp60
 70
     1
102
RTVSPropertyOp61
 70
     1
102
RTVSPropertyOp62
 70
     1
  0
XRECORD
  5
169AD
102
{ACAD_REACTORS
330
169AC
102
}
330
169AC
100
AcDbXrecord
280
     1
102
RTVSPost2010Prop28
280
     0
102
RTVSPost2010PropOp28
 70
     1
102
RTVSPost2010Prop29
280
     1
102
RTVSPost2010PropOp29
 70
     1
102
RTVSPost2010Prop30
280
     1
102
RTVSPost2010PropOp30
 70
     1
102
RTVSPost2010Prop31
280
     0
102
RTVSPost2010PropOp31
 70
     1
102
RTVSPost2010Prop32
280
     0
102
RTVSPost2010PropOp32
 70
     1
102
RTVSPost2010Prop33
280
     0
102
RTVSPost2010PropOp33
 70
     1
102
RTVSPost2010Prop34
280
     0
102
RTVSPost2010PropOp34
 70
     1
102
RTVSPost2010Prop35
280
     0
102
RTVSPost2010PropOp35
 70
     1
102
RTVSPost2010Prop36
280
     0
102
RTVSPost2010PropOp36
 70
     1
102
RTVSPost2010Prop37
 90
       50
102
RTVSPost2010PropOp37
 70
     1
102
RTVSPost2010Prop38
140
0.0
102
RTVSPost2010PropOp38
 70
     1
102
RTVSPost2010Prop39
140
1.0
102
RTVSPost2010PropOp39
 70
     1
102
RTVSPost2010Prop40
 90
        0
102
RTVSPost2010PropOp40
 70
     1
102
RTVSPost2010Prop41ColorIndex
 90
       18
102
RTVSPost2010Prop41ColorRGB
 90
        0
102
RTVSPost2010PropOp41
 70
     1
102
RTVSPost2010Prop42
 90
       50
102
RTVSPost2010PropOp42
 70
     1
102
RTVSPost2010Prop43
 90
        3
102
RTVSPost2010PropOp43
 70
     1
102
RTVSPost2010Prop44ColorIndex
 90
        5
102
RTVSPost2010Prop44ColorRGB
 90
      255
102
RTVSPost2010PropOp44
 70
     1
102
RTVSPost2010Prop45
280
     0
102
RTVSPost2010PropOp45
 70
     1
102
RTVSPost2010Prop46
 90
       50
102
RTVSPost2010PropOp46
 70
     1
102
RTVSPost2010Prop47
 90
       50
102
RTVSPost2010PropOp47
 70
     1
102
RTVSPost2010Prop48
 90
       50
102
RTVSPost2010PropOp48
 70
     1
102
RTVSPost2010Prop49
280
     0
102
RTVSPost2010PropOp49
 70
     1
102
RTVSPost2010Prop50
 90
       50
102
RTVSPost2010PropOp50
 70
     1
102
RTVSPost2010Prop51ColorIndex
 90
      256
102
RTVSPost2010Prop51ColorRGB
 90
-16777216
102
RTVSPost2010PropOp51
 70
     0
102
RTVSPost2010Prop52
140
1.0
102
RTVSPost2010PropOp52
 70
     0
102
RTVSPost2010Prop53
 90
        2
102
RTVSPost2010PropOp53
 70
     1
102
RTVSPost2010Prop54
  1
strokes_ogs.tif
102
RTVSPost2010PropOp54
 70
     1
102
RTVSPost2010Prop55
280
     0
102
RTVSPost2010PropOp55
 70
     1
102
RTVSPost2010Prop56
140
1.0
102
RTVSPost2010PropOp56
 70
     1
102
RTVSPost2010Prop57
140
1.0
102
RTVSPost2010PropOp57
 70
     1
102
RTVSPropertyOp0
 70
     1
102
RTVSPropertyOp1
 70
     1
102
RTVSPropertyOp2
 70
     1
102
RTVSPropertyOp3
 70
     1
102
RTVSPropertyOp4
 70
     1
102
RTVSPropertyOp5
 70
     1
102
RTVSPropertyOp6
 70
     1
102
RTVSPropertyOp7
 70
     1
102
RTVSPropertyOp8
 70
     1
102
RTVSPropertyOp9
 70
     1
102
RTVSPropertyOp10
 70
     1
102
RTVSPropertyOp11
 70
     1
102
RTVSPropertyOp12
 70
     1
102
RTVSPropertyOp13
 70
     1
102
RTVSPropertyOp14
 70
     1
102
RTVSPropertyOp15
 70
     1
102
RTVSPropertyOp16
 70
     1
102
RTVSPropertyOp17
 70
     1
102
RTVSPropertyOp18
 70
     1
102
RTVSPropertyOp19
 70
     1
102
RTVSPropertyOp20
 70
     1
102
RTVSPropertyOp21
 70
     1
102
RTVSPropertyOp22
 70
     1
102
RTVSPropertyOp23
 70
     1
102
RTVSPropertyOp24
 70
     1
102
RTVSPropertyOp25
 70
     1
102
RTVSPropertyOp26
 70
     1
102
RTVSPropertyOp27
 70
     1
102
RTVSPropertyOp28
 70
     1
102
RTVSPropertyOp29
 70
     1
102
RTVSPropertyOp30
 70
     1
102
RTVSPropertyOp31
 70
     1
102
RTVSPropertyOp32
 70
     1
102
RTVSPropertyOp33
 70
     1
102
RTVSPropertyOp34
 70
     1
102
RTVSPropertyOp35
 70
     1
102
RTVSPropertyOp36
 70
     1
102
RTVSPropertyOp37
 70
     1
102
RTVSPropertyOp38
 70
     1
102
RTVSPropertyOp39
 70
     1
102
RTVSPropertyOp40
 70
     1
102
RTVSPropertyOp41
 70
     1
102
RTVSPropertyOp42
 70
     1
102
RTVSPropertyOp43
 70
     1
102
RTVSPropertyOp44
 70
     1
102
RTVSPropertyOp45
 70
     1
102
RTVSPropertyOp46
 70
     1
102
RTVSPropertyOp47
 70
     1
102
RTVSPropertyOp48
 70
     1
102
RTVSPropertyOp49
 70
     1
102
RTVSPropertyOp50
 70
     1
102
RTVSPropertyOp51
 70
     0
102
RTVSPropertyOp52
 70
     0
102
RTVSPropertyOp53
 70
     1
102
RTVSPropertyOp54
 70
     1
102
RTVSPropertyOp55
 70
     1
102
RTVSPropertyOp56
 70
     1
102
RTVSPropertyOp57
 70
     1
102
RTVSPropertyOp58
 70
     1
102
RTVSPropertyOp59
 70
     1
102
RTVSPropertyOp60
 70
     1
102
RTVSPropertyOp61
 70
     1
102
RTVSPropertyOp62
 70
     1
  0
XRECORD
  5
169B1
102
{ACAD_REACTORS
330
169B0
102
}
330
169B0
100
AcDbXrecord
280
     1
102
RTVSPost2010Prop28
280
     0
102
RTVSPost2010PropOp28
 70
     1
102
RTVSPost2010Prop29
280
     1
102
RTVSPost2010PropOp29
 70
     1
102
RTVSPost2010Prop30
280
     1
102
RTVSPost2010PropOp30
 70
     1
102
RTVSPost2010Prop31
280
     0
102
RTVSPost2010PropOp31
 70
     1
102
RTVSPost2010Prop32
280
     0
102
RTVSPost2010PropOp32
 70
     1
102
RTVSPost2010Prop33
280
     0
102
RTVSPost2010PropOp33
 70
     1
102
RTVSPost2010Prop34
280
     0
102
RTVSPost2010PropOp34
 70
     1
102
RTVSPost2010Prop35
280
     0
102
RTVSPost2010PropOp35
 70
     1
102
RTVSPost2010Prop36
280
     0
102
RTVSPost2010PropOp36
 70
     1
102
RTVSPost2010Prop37
 90
       50
102
RTVSPost2010PropOp37
 70
     1
102
RTVSPost2010Prop38
140
0.0
102
RTVSPost2010PropOp38
 70
     1
102
RTVSPost2010Prop39
140
1.0
102
RTVSPost2010PropOp39
 70
     1
102
RTVSPost2010Prop40
 90
        0
102
RTVSPost2010PropOp40
 70
     1
102
RTVSPost2010Prop41ColorIndex
 90
       18
102
RTVSPost2010Prop41ColorRGB
 90
        0
102
RTVSPost2010PropOp41
 70
     1
102
RTVSPost2010Prop42
 90
       50
102
RTVSPost2010PropOp42
 70
     1
102
RTVSPost2010Prop43
 90
        3
102
RTVSPost2010PropOp43
 70
     1
102
RTVSPost2010Prop44ColorIndex
 90
        5
102
RTVSPost2010Prop44ColorRGB
 90
      255
102
RTVSPost2010PropOp44
 70
     1
102
RTVSPost2010Prop45
280
     0
102
RTVSPost2010PropOp45
 70
     1
102
RTVSPost2010Prop46
 90
       50
102
RTVSPost2010PropOp46
 70
     1
102
RTVSPost2010Prop47
 90
       50
102
RTVSPost2010PropOp47
 70
     1
102
RTVSPost2010Prop48
 90
       50
102
RTVSPost2010PropOp48
 70
     1
102
RTVSPost2010Prop49
280
     0
102
RTVSPost2010PropOp49
 70
     1
102
RTVSPost2010Prop50
 90
       50
102
RTVSPost2010PropOp50
 70
     1
102
RTVSPost2010Prop51ColorIndex
 90
      256
102
RTVSPost2010Prop51ColorRGB
 90
-16777216
102
RTVSPost2010PropOp51
 70
     0
102
RTVSPost2010Prop52
140
1.0
102
RTVSPost2010PropOp52
 70
     0
102
RTVSPost2010Prop53
 90
        2
102
RTVSPost2010PropOp53
 70
     1
102
RTVSPost2010Prop54
  1
strokes_ogs.tif
102
RTVSPost2010PropOp54
 70
     1
102
RTVSPost2010Prop55
280
     0
102
RTVSPost2010PropOp55
 70
     1
102
RTVSPost2010Prop56
140
1.0
102
RTVSPost2010PropOp56
 70
     1
102
RTVSPost2010Prop57
140
1.0
102
RTVSPost2010PropOp57
 70
     1
102
RTVSPropertyOp0
 70
     1
102
RTVSPropertyOp1
 70
     1
102
RTVSPropertyOp2
 70
     1
102
RTVSPropertyOp3
 70
     1
102
RTVSPropertyOp4
 70
     1
102
RTVSPropertyOp5
 70
     1
102
RTVSPropertyOp6
 70
     1
102
RTVSPropertyOp7
 70
     1
102
RTVSPropertyOp8
 70
     1
102
RTVSPropertyOp9
 70
     1
102
RTVSPropertyOp10
 70
     1
102
RTVSPropertyOp11
 70
     1
102
RTVSPropertyOp12
 70
     1
102
RTVSPropertyOp13
 70
     1
102
RTVSPropertyOp14
 70
     1
102
RTVSPropertyOp15
 70
     1
102
RTVSPropertyOp16
 70
     1
102
RTVSPropertyOp17
 70
     1
102
RTVSPropertyOp18
 70
     1
102
RTVSPropertyOp19
 70
     1
102
RTVSPropertyOp20
 70
     1
102
RTVSPropertyOp21
 70
     1
102
RTVSPropertyOp22
 70
     1
102
RTVSPropertyOp23
 70
     1
102
RTVSPropertyOp24
 70
     1
102
RTVSPropertyOp25
 70
     1
102
RTVSPropertyOp26
 70
     1
102
RTVSPropertyOp27
 70
     1
102
RTVSPropertyOp28
 70
     1
102
RTVSPropertyOp29
 70
     1
102
RTVSPropertyOp30
 70
     1
102
RTVSPropertyOp31
 70
     1
102
RTVSPropertyOp32
 70
     1
102
RTVSPropertyOp33
 70
     1
102
RTVSPropertyOp34
 70
     1
102
RTVSPropertyOp35
 70
     1
102
RTVSPropertyOp36
 70
     1
102
RTVSPropertyOp37
 70
     1
102
RTVSPropertyOp38
 70
     1
102
RTVSPropertyOp39
 70
     1
102
RTVSPropertyOp40
 70
     1
102
RTVSPropertyOp41
 70
     1
102
RTVSPropertyOp42
 70
     1
102
RTVSPropertyOp43
 70
     1
102
RTVSPropertyOp44
 70
     1
102
RTVSPropertyOp45
 70
     1
102
RTVSPropertyOp46
 70
     1
102
RTVSPropertyOp47
 70
     1
102
RTVSPropertyOp48
 70
     1
102
RTVSPropertyOp49
 70
     1
102
RTVSPropertyOp50
 70
     1
102
RTVSPropertyOp51
 70
     0
102
RTVSPropertyOp52
 70
     0
102
RTVSPropertyOp53
 70
     1
102
RTVSPropertyOp54
 70
     1
102
RTVSPropertyOp55
 70
     1
102
RTVSPropertyOp56
 70
     1
102
RTVSPropertyOp57
 70
     1
102
RTVSPropertyOp58
 70
     1
102
RTVSPropertyOp59
 70
     1
102
RTVSPropertyOp60
 70
     1
102
RTVSPropertyOp61
 70
     1
102
RTVSPropertyOp62
 70
     1
  0
XRECORD
  5
169CB
102
{ACAD_REACTORS
330
169CA
102
}
330
169CA
100
AcDbXrecord
280
     1
102
RTVSPost2010Prop28
280
     0
102
RTVSPost2010PropOp28
 70
     0
102
RTVSPost2010Prop29
280
     1
102
RTVSPost2010PropOp29
 70
     0
102
RTVSPost2010Prop30
280
     1
102
RTVSPost2010PropOp30
 70
     0
102
RTVSPost2010Prop31
280
     0
102
RTVSPost2010PropOp31
 70
     0
102
RTVSPost2010Prop32
280
     0
102
RTVSPost2010PropOp32
 70
     0
102
RTVSPost2010Prop33
280
     0
102
RTVSPost2010PropOp33
 70
     0
102
RTVSPost2010Prop34
280
     0
102
RTVSPost2010PropOp34
 70
     0
102
RTVSPost2010Prop35
280
     0
102
RTVSPost2010PropOp35
 70
     0
102
RTVSPost2010Prop36
280
     0
102
RTVSPost2010PropOp36
 70
     0
102
RTVSPost2010Prop37
 90
       50
102
RTVSPost2010PropOp37
 70
     0
102
RTVSPost2010Prop38
140
0.0
102
RTVSPost2010PropOp38
 70
     0
102
RTVSPost2010Prop39
140
1.0
102
RTVSPost2010PropOp39
 70
     0
102
RTVSPost2010Prop40
 90
        0
102
RTVSPost2010PropOp40
 70
     0
102
RTVSPost2010Prop41ColorIndex
 90
       18
102
RTVSPost2010Prop41ColorRGB
 90
        0
102
RTVSPost2010PropOp41
 70
     0
102
RTVSPost2010Prop42
 90
       50
102
RTVSPost2010PropOp42
 70
     0
102
RTVSPost2010Prop43
 90
        3
102
RTVSPost2010PropOp43
 70
     0
102
RTVSPost2010Prop44ColorIndex
 90
        5
102
RTVSPost2010Prop44ColorRGB
 90
      255
102
RTVSPost2010PropOp44
 70
     0
102
RTVSPost2010Prop45
280
     0
102
RTVSPost2010PropOp45
 70
     0
102
RTVSPost2010Prop46
 90
       50
102
RTVSPost2010PropOp46
 70
     0
102
RTVSPost2010Prop47
 90
       50
102
RTVSPost2010PropOp47
 70
     0
102
RTVSPost2010Prop48
 90
       50
102
RTVSPost2010PropOp48
 70
     0
102
RTVSPost2010Prop49
280
     0
102
RTVSPost2010PropOp49
 70
     0
102
RTVSPost2010Prop50
 90
       50
102
RTVSPost2010PropOp50
 70
     0
102
RTVSPost2010Prop51ColorIndex
 90
      256
102
RTVSPost2010Prop51ColorRGB
 90
-16777216
102
RTVSPost2010PropOp51
 70
     0
102
RTVSPost2010Prop52
140
1.0
102
RTVSPost2010PropOp52
 70
     0
102
RTVSPost2010Prop53
 90
        2
102
RTVSPost2010PropOp53
 70
     0
102
RTVSPost2010Prop54
  1
strokes_ogs.tif
102
RTVSPost2010PropOp54
 70
     0
102
RTVSPost2010Prop55
280
     0
102
RTVSPost2010PropOp55
 70
     0
102
RTVSPost2010Prop56
140
1.0
102
RTVSPost2010PropOp56
 70
     0
102
RTVSPost2010Prop57
140
1.0
102
RTVSPost2010PropOp57
 70
     0
102
RTVSPropertyOp0
 70
     0
102
RTVSPropertyOp1
 70
     0
102
RTVSPropertyOp2
 70
     0
102
RTVSPropertyOp3
 70
     0
102
RTVSPropertyOp4
 70
     0
102
RTVSPropertyOp5
 70
     0
102
RTVSPropertyOp6
 70
     0
102
RTVSPropertyOp7
 70
     0
102
RTVSPropertyOp8
 70
     0
102
RTVSPropertyOp9
 70
     0
102
RTVSPropertyOp10
 70
     0
102
RTVSPropertyOp11
 70
     0
102
RTVSPropertyOp12
 70
     0
102
RTVSPropertyOp13
 70
     0
102
RTVSPropertyOp14
 70
     2
102
RTVSPropertyOp15
 70
     0
102
RTVSPropertyOp16
 70
     0
102
RTVSPropertyOp17
 70
     0
102
RTVSPropertyOp18
 70
     0
102
RTVSPropertyOp19
 70
     0
102
RTVSPropertyOp20
 70
     0
102
RTVSPropertyOp21
 70
     0
102
RTVSPropertyOp22
 70
     0
102
RTVSPropertyOp23
 70
     0
102
RTVSPropertyOp24
 70
     0
102
RTVSPropertyOp25
 70
     0
102
RTVSPropertyOp26
 70
     0
102
RTVSPropertyOp27
 70
     0
102
RTVSPropertyOp28
 70
     0
102
RTVSPropertyOp29
 70
     0
102
RTVSPropertyOp30
 70
     0
102
RTVSPropertyOp31
 70
     0
102
RTVSPropertyOp32
 70
     0
102
RTVSPropertyOp33
 70
     0
102
RTVSPropertyOp34
 70
     0
102
RTVSPropertyOp35
 70
     0
102
RTVSPropertyOp36
 70
     0
102
RTVSPropertyOp37
 70
     0
102
RTVSPropertyOp38
 70
     0
102
RTVSPropertyOp39
 70
     0
102
RTVSPropertyOp40
 70
     0
102
RTVSPropertyOp41
 70
     0
102
RTVSPropertyOp42
 70
     0
102
RTVSPropertyOp43
 70
     0
102
RTVSPropertyOp44
 70
     0
102
RTVSPropertyOp45
 70
     0
102
RTVSPropertyOp46
 70
     0
102
RTVSPropertyOp47
 70
     0
102
RTVSPropertyOp48
 70
     0
102
RTVSPropertyOp49
 70
     0
102
RTVSPropertyOp50
 70
     0
102
RTVSPropertyOp51
 70
     0
102
RTVSPropertyOp52
 70
     0
102
RTVSPropertyOp53
 70
     0
102
RTVSPropertyOp54
 70
     0
102
RTVSPropertyOp55
 70
     0
102
RTVSPropertyOp56
 70
     0
102
RTVSPropertyOp57
 70
     0
102
RTVSPropertyOp58
 70
     1
102
RTVSPropertyOp59
 70
     1
102
RTVSPropertyOp60
 70
     1
102
RTVSPropertyOp61
 70
     1
102
RTVSPropertyOp62
 70
     1
  0
XRECORD
  5
169B9
102
{ACAD_REACTORS
330
169B8
102
}
330
169B8
100
AcDbXrecord
280
     1
102
RTVSPost2010Prop28
280
     0
102
RTVSPost2010PropOp28
 70
     1
102
RTVSPost2010Prop29
280
     1
102
RTVSPost2010PropOp29
 70
     1
102
RTVSPost2010Prop30
280
     1
102
RTVSPost2010PropOp30
 70
     1
102
RTVSPost2010Prop31
280
     0
102
RTVSPost2010PropOp31
 70
     1
102
RTVSPost2010Prop32
280
     0
102
RTVSPost2010PropOp32
 70
     1
102
RTVSPost2010Prop33
280
     0
102
RTVSPost2010PropOp33
 70
     1
102
RTVSPost2010Prop34
280
     0
102
RTVSPost2010PropOp34
 70
     1
102
RTVSPost2010Prop35
280
     0
102
RTVSPost2010PropOp35
 70
     1
102
RTVSPost2010Prop36
280
     0
102
RTVSPost2010PropOp36
 70
     1
102
RTVSPost2010Prop37
 90
       50
102
RTVSPost2010PropOp37
 70
     1
102
RTVSPost2010Prop38
140
0.0
102
RTVSPost2010PropOp38
 70
     1
102
RTVSPost2010Prop39
140
1.0
102
RTVSPost2010PropOp39
 70
     1
102
RTVSPost2010Prop40
 90
        0
102
RTVSPost2010PropOp40
 70
     1
102
RTVSPost2010Prop41ColorIndex
 90
       18
102
RTVSPost2010Prop41ColorRGB
 90
        0
102
RTVSPost2010PropOp41
 70
     1
102
RTVSPost2010Prop42
 90
       50
102
RTVSPost2010PropOp42
 70
     1
102
RTVSPost2010Prop43
 90
        3
102
RTVSPost2010PropOp43
 70
     1
102
RTVSPost2010Prop44ColorIndex
 90
        5
102
RTVSPost2010Prop44ColorRGB
 90
      255
102
RTVSPost2010PropOp44
 70
     1
102
RTVSPost2010Prop45
280
     0
102
RTVSPost2010PropOp45
 70
     1
102
RTVSPost2010Prop46
 90
       50
102
RTVSPost2010PropOp46
 70
     1
102
RTVSPost2010Prop47
 90
       50
102
RTVSPost2010PropOp47
 70
     1
102
RTVSPost2010Prop48
 90
       50
102
RTVSPost2010PropOp48
 70
     1
102
RTVSPost2010Prop49
280
     0
102
RTVSPost2010PropOp49
 70
     1
102
RTVSPost2010Prop50
 90
       50
102
RTVSPost2010PropOp50
 70
     1
102
RTVSPost2010Prop51ColorIndex
 90
      256
102
RTVSPost2010Prop51ColorRGB
 90
-16777216
102
RTVSPost2010PropOp51
 70
     0
102
RTVSPost2010Prop52
140
1.0
102
RTVSPost2010PropOp52
 70
     0
102
RTVSPost2010Prop53
 90
        2
102
RTVSPost2010PropOp53
 70
     1
102
RTVSPost2010Prop54
  1
strokes_ogs.tif
102
RTVSPost2010PropOp54
 70
     1
102
RTVSPost2010Prop55
280
     0
102
RTVSPost2010PropOp55
 70
     1
102
RTVSPost2010Prop56
140
1.0
102
RTVSPost2010PropOp56
 70
     1
102
RTVSPost2010Prop57
140
1.0
102
RTVSPost2010PropOp57
 70
     1
102
RTVSPropertyOp0
 70
     1
102
RTVSPropertyOp1
 70
     1
102
RTVSPropertyOp2
 70
     1
102
RTVSPropertyOp3
 70
     1
102
RTVSPropertyOp4
 70
     1
102
RTVSPropertyOp5
 70
     1
102
RTVSPropertyOp6
 70
     1
102
RTVSPropertyOp7
 70
     1
102
RTVSPropertyOp8
 70
     1
102
RTVSPropertyOp9
 70
     1
102
RTVSPropertyOp10
 70
     1
102
RTVSPropertyOp11
 70
     1
102
RTVSPropertyOp12
 70
     1
102
RTVSPropertyOp13
 70
     1
102
RTVSPropertyOp14
 70
     1
102
RTVSPropertyOp15
 70
     1
102
RTVSPropertyOp16
 70
     1
102
RTVSPropertyOp17
 70
     1
102
RTVSPropertyOp18
 70
     1
102
RTVSPropertyOp19
 70
     1
102
RTVSPropertyOp20
 70
     1
102
RTVSPropertyOp21
 70
     1
102
RTVSPropertyOp22
 70
     1
102
RTVSPropertyOp23
 70
     1
102
RTVSPropertyOp24
 70
     1
102
RTVSPropertyOp25
 70
     1
102
RTVSPropertyOp26
 70
     1
102
RTVSPropertyOp27
 70
     1
102
RTVSPropertyOp28
 70
     1
102
RTVSPropertyOp29
 70
     1
102
RTVSPropertyOp30
 70
     1
102
RTVSPropertyOp31
 70
     1
102
RTVSPropertyOp32
 70
     1
102
RTVSPropertyOp33
 70
     1
102
RTVSPropertyOp34
 70
     1
102
RTVSPropertyOp35
 70
     1
102
RTVSPropertyOp36
 70
     1
102
RTVSPropertyOp37
 70
     1
102
RTVSPropertyOp38
 70
     1
102
RTVSPropertyOp39
 70
     1
102
RTVSPropertyOp40
 70
     1
102
RTVSPropertyOp41
 70
     1
102
RTVSPropertyOp42
 70
     1
102
RTVSPropertyOp43
 70
     1
102
RTVSPropertyOp44
 70
     1
102
RTVSPropertyOp45
 70
     1
102
RTVSPropertyOp46
 70
     1
102
RTVSPropertyOp47
 70
     1
102
RTVSPropertyOp48
 70
     1
102
RTVSPropertyOp49
 70
     1
102
RTVSPropertyOp50
 70
     1
102
RTVSPropertyOp51
 70
     0
102
RTVSPropertyOp52
 70
     0
102
RTVSPropertyOp53
 70
     1
102
RTVSPropertyOp54
 70
     1
102
RTVSPropertyOp55
 70
     1
102
RTVSPropertyOp56
 70
     1
102
RTVSPropertyOp57
 70
     1
102
RTVSPropertyOp58
 70
     1
102
RTVSPropertyOp59
 70
     1
102
RTVSPropertyOp60
 70
     1
102
RTVSPropertyOp61
 70
     1
102
RTVSPropertyOp62
 70
     1
  0
XRECORD
  5
1699D
102
{ACAD_REACTORS
330
1699C
102
}
330
1699C
100
AcDbXrecord
280
     1
102
RTVSPost2010Prop28
280
     0
102
RTVSPost2010PropOp28
 70
     1
102
RTVSPost2010Prop29
280
     1
102
RTVSPost2010PropOp29
 70
     1
102
RTVSPost2010Prop30
280
     1
102
RTVSPost2010PropOp30
 70
     1
102
RTVSPost2010Prop31
280
     0
102
RTVSPost2010PropOp31
 70
     1
102
RTVSPost2010Prop32
280
     0
102
RTVSPost2010PropOp32
 70
     1
102
RTVSPost2010Prop33
280
     0
102
RTVSPost2010PropOp33
 70
     1
102
RTVSPost2010Prop34
280
     0
102
RTVSPost2010PropOp34
 70
     1
102
RTVSPost2010Prop35
280
     0
102
RTVSPost2010PropOp35
 70
     1
102
RTVSPost2010Prop36
280
     0
102
RTVSPost2010PropOp36
 70
     1
102
RTVSPost2010Prop37
 90
       50
102
RTVSPost2010PropOp37
 70
     1
102
RTVSPost2010Prop38
140
0.0
102
RTVSPost2010PropOp38
 70
     1
102
RTVSPost2010Prop39
140
1.0
102
RTVSPost2010PropOp39
 70
     1
102
RTVSPost2010Prop40
 90
        0
102
RTVSPost2010PropOp40
 70
     1
102
RTVSPost2010Prop41ColorIndex
 90
       18
102
RTVSPost2010Prop41ColorRGB
 90
        0
102
RTVSPost2010PropOp41
 70
     1
102
RTVSPost2010Prop42
 90
       50
102
RTVSPost2010PropOp42
 70
     1
102
RTVSPost2010Prop43
 90
        3
102
RTVSPost2010PropOp43
 70
     1
102
RTVSPost2010Prop44ColorIndex
 90
        5
102
RTVSPost2010Prop44ColorRGB
 90
      255
102
RTVSPost2010PropOp44
 70
     1
102
RTVSPost2010Prop45
280
     0
102
RTVSPost2010PropOp45
 70
     1
102
RTVSPost2010Prop46
 90
       50
102
RTVSPost2010PropOp46
 70
     1
102
RTVSPost2010Prop47
 90
       50
102
RTVSPost2010PropOp47
 70
     1
102
RTVSPost2010Prop48
 90
       50
102
RTVSPost2010PropOp48
 70
     1
102
RTVSPost2010Prop49
280
     0
102
RTVSPost2010PropOp49
 70
     1
102
RTVSPost2010Prop50
 90
       50
102
RTVSPost2010PropOp50
 70
     1
102
RTVSPost2010Prop51ColorIndex
 90
      256
102
RTVSPost2010Prop51ColorRGB
 90
-16777216
102
RTVSPost2010PropOp51
 70
     0
102
RTVSPost2010Prop52
140
1.0
102
RTVSPost2010PropOp52
 70
     0
102
RTVSPost2010Prop53
 90
        2
102
RTVSPost2010PropOp53
 70
     1
102
RTVSPost2010Prop54
  1
strokes_ogs.tif
102
RTVSPost2010PropOp54
 70
     1
102
RTVSPost2010Prop55
280
     0
102
RTVSPost2010PropOp55
 70
     1
102
RTVSPost2010Prop56
140
1.0
102
RTVSPost2010PropOp56
 70
     1
102
RTVSPost2010Prop57
140
1.0
102
RTVSPost2010PropOp57
 70
     1
102
RTVSPropertyOp0
 70
     1
102
RTVSPropertyOp1
 70
     1
102
RTVSPropertyOp2
 70
     1
102
RTVSPropertyOp3
 70
     1
102
RTVSPropertyOp4
 70
     1
102
RTVSPropertyOp5
 70
     1
102
RTVSPropertyOp6
 70
     1
102
RTVSPropertyOp7
 70
     1
102
RTVSPropertyOp8
 70
     1
102
RTVSPropertyOp9
 70
     1
102
RTVSPropertyOp10
 70
     1
102
RTVSPropertyOp11
 70
     1
102
RTVSPropertyOp12
 70
     1
102
RTVSPropertyOp13
 70
     1
102
RTVSPropertyOp14
 70
     1
102
RTVSPropertyOp15
 70
     1
102
RTVSPropertyOp16
 70
     1
102
RTVSPropertyOp17
 70
     1
102
RTVSPropertyOp18
 70
     1
102
RTVSPropertyOp19
 70
     1
102
RTVSPropertyOp20
 70
     1
102
RTVSPropertyOp21
 70
     1
102
RTVSPropertyOp22
 70
     1
102
RTVSPropertyOp23
 70
     1
102
RTVSPropertyOp24
 70
     1
102
RTVSPropertyOp25
 70
     1
102
RTVSPropertyOp26
 70
     1
102
RTVSPropertyOp27
 70
     1
102
RTVSPropertyOp28
 70
     1
102
RTVSPropertyOp29
 70
     1
102
RTVSPropertyOp30
 70
     1
102
RTVSPropertyOp31
 70
     1
102
RTVSPropertyOp32
 70
     1
102
RTVSPropertyOp33
 70
     1
102
RTVSPropertyOp34
 70
     1
102
RTVSPropertyOp35
 70
     1
102
RTVSPropertyOp36
 70
     1
102
RTVSPropertyOp37
 70
     1
102
RTVSPropertyOp38
 70
     1
102
RTVSPropertyOp39
 70
     1
102
RTVSPropertyOp40
 70
     1
102
RTVSPropertyOp41
 70
     1
102
RTVSPropertyOp42
 70
     1
102
RTVSPropertyOp43
 70
     1
102
RTVSPropertyOp44
 70
     1
102
RTVSPropertyOp45
 70
     1
102
RTVSPropertyOp46
 70
     1
102
RTVSPropertyOp47
 70
     1
102
RTVSPropertyOp48
 70
     1
102
RTVSPropertyOp49
 70
     1
102
RTVSPropertyOp50
 70
     1
102
RTVSPropertyOp51
 70
     0
102
RTVSPropertyOp52
 70
     0
102
RTVSPropertyOp53
 70
     1
102
RTVSPropertyOp54
 70
     1
102
RTVSPropertyOp55
 70
     1
102
RTVSPropertyOp56
 70
     1
102
RTVSPropertyOp57
 70
     1
102
RTVSPropertyOp58
 70
     1
102
RTVSPropertyOp59
 70
     1
102
RTVSPropertyOp60
 70
     1
102
RTVSPropertyOp61
 70
     1
102
RTVSPropertyOp62
 70
     1
  0
XRECORD
  5
1699F
102
{ACAD_REACTORS
330
1699E
102
}
330
1699E
100
AcDbXrecord
280
     1
102
RTVSPost2010Prop28
280
     0
102
RTVSPost2010PropOp28
 70
     1
102
RTVSPost2010Prop29
280
     1
102
RTVSPost2010PropOp29
 70
     1
102
RTVSPost2010Prop30
280
     1
102
RTVSPost2010PropOp30
 70
     1
102
RTVSPost2010Prop31
280
     0
102
RTVSPost2010PropOp31
 70
     1
102
RTVSPost2010Prop32
280
     0
102
RTVSPost2010PropOp32
 70
     1
102
RTVSPost2010Prop33
280
     0
102
RTVSPost2010PropOp33
 70
     1
102
RTVSPost2010Prop34
280
     0
102
RTVSPost2010PropOp34
 70
     1
102
RTVSPost2010Prop35
280
     0
102
RTVSPost2010PropOp35
 70
     1
102
RTVSPost2010Prop36
280
     0
102
RTVSPost2010PropOp36
 70
     1
102
RTVSPost2010Prop37
 90
       50
102
RTVSPost2010PropOp37
 70
     1
102
RTVSPost2010Prop38
140
0.0
102
RTVSPost2010PropOp38
 70
     1
102
RTVSPost2010Prop39
140
1.0
102
RTVSPost2010PropOp39
 70
     1
102
RTVSPost2010Prop40
 90
        0
102
RTVSPost2010PropOp40
 70
     1
102
RTVSPost2010Prop41ColorIndex
 90
       18
102
RTVSPost2010Prop41ColorRGB
 90
        0
102
RTVSPost2010PropOp41
 70
     1
102
RTVSPost2010Prop42
 90
       50
102
RTVSPost2010PropOp42
 70
     1
102
RTVSPost2010Prop43
 90
        3
102
RTVSPost2010PropOp43
 70
     1
102
RTVSPost2010Prop44ColorIndex
 90
        5
102
RTVSPost2010Prop44ColorRGB
 90
      255
102
RTVSPost2010PropOp44
 70
     1
102
RTVSPost2010Prop45
280
     0
102
RTVSPost2010PropOp45
 70
     1
102
RTVSPost2010Prop46
 90
       50
102
RTVSPost2010PropOp46
 70
     1
102
RTVSPost2010Prop47
 90
       50
102
RTVSPost2010PropOp47
 70
     1
102
RTVSPost2010Prop48
 90
       50
102
RTVSPost2010PropOp48
 70
     1
102
RTVSPost2010Prop49
280
     0
102
RTVSPost2010PropOp49
 70
     1
102
RTVSPost2010Prop50
 90
       50
102
RTVSPost2010PropOp50
 70
     1
102
RTVSPost2010Prop51ColorIndex
 90
      256
102
RTVSPost2010Prop51ColorRGB
 90
-16777216
102
RTVSPost2010PropOp51
 70
     0
102
RTVSPost2010Prop52
140
1.0
102
RTVSPost2010PropOp52
 70
     0
102
RTVSPost2010Prop53
 90
        2
102
RTVSPost2010PropOp53
 70
     1
102
RTVSPost2010Prop54
  1
strokes_ogs.tif
102
RTVSPost2010PropOp54
 70
     1
102
RTVSPost2010Prop55
280
     0
102
RTVSPost2010PropOp55
 70
     1
102
RTVSPost2010Prop56
140
1.0
102
RTVSPost2010PropOp56
 70
     1
102
RTVSPost2010Prop57
140
1.0
102
RTVSPost2010PropOp57
 70
     1
102
RTVSPropertyOp0
 70
     1
102
RTVSPropertyOp1
 70
     1
102
RTVSPropertyOp2
 70
     1
102
RTVSPropertyOp3
 70
     1
102
RTVSPropertyOp4
 70
     1
102
RTVSPropertyOp5
 70
     1
102
RTVSPropertyOp6
 70
     1
102
RTVSPropertyOp7
 70
     1
102
RTVSPropertyOp8
 70
     1
102
RTVSPropertyOp9
 70
     1
102
RTVSPropertyOp10
 70
     1
102
RTVSPropertyOp11
 70
     1
102
RTVSPropertyOp12
 70
     1
102
RTVSPropertyOp13
 70
     1
102
RTVSPropertyOp14
 70
     1
102
RTVSPropertyOp15
 70
     1
102
RTVSPropertyOp16
 70
     1
102
RTVSPropertyOp17
 70
     1
102
RTVSPropertyOp18
 70
     1
102
RTVSPropertyOp19
 70
     1
102
RTVSPropertyOp20
 70
     1
102
RTVSPropertyOp21
 70
     1
102
RTVSPropertyOp22
 70
     1
102
RTVSPropertyOp23
 70
     1
102
RTVSPropertyOp24
 70
     1
102
RTVSPropertyOp25
 70
     1
102
RTVSPropertyOp26
 70
     1
102
RTVSPropertyOp27
 70
     1
102
RTVSPropertyOp28
 70
     1
102
RTVSPropertyOp29
 70
     1
102
RTVSPropertyOp30
 70
     1
102
RTVSPropertyOp31
 70
     1
102
RTVSPropertyOp32
 70
     1
102
RTVSPropertyOp33
 70
     1
102
RTVSPropertyOp34
 70
     1
102
RTVSPropertyOp35
 70
     1
102
RTVSPropertyOp36
 70
     1
102
RTVSPropertyOp37
 70
     1
102
RTVSPropertyOp38
 70
     1
102
RTVSPropertyOp39
 70
     1
102
RTVSPropertyOp40
 70
     1
102
RTVSPropertyOp41
 70
     1
102
RTVSPropertyOp42
 70
     1
102
RTVSPropertyOp43
 70
     1
102
RTVSPropertyOp44
 70
     1
102
RTVSPropertyOp45
 70
     1
102
RTVSPropertyOp46
 70
     1
102
RTVSPropertyOp47
 70
     1
102
RTVSPropertyOp48
 70
     1
102
RTVSPropertyOp49
 70
     1
102
RTVSPropertyOp50
 70
     1
102
RTVSPropertyOp51
 70
     0
102
RTVSPropertyOp52
 70
     0
102
RTVSPropertyOp53
 70
     1
102
RTVSPropertyOp54
 70
     1
102
RTVSPropertyOp55
 70
     1
102
RTVSPropertyOp56
 70
     1
102
RTVSPropertyOp57
 70
     1
102
RTVSPropertyOp58
 70
     1
102
RTVSPropertyOp59
 70
     1
102
RTVSPropertyOp60
 70
     1
102
RTVSPropertyOp61
 70
     1
102
RTVSPropertyOp62
 70
     1
  0
XRECORD
  5
169A1
102
{ACAD_REACTORS
330
169A0
102
}
330
169A0
100
AcDbXrecord
280
     1
102
RTVSPost2010Prop28
280
     0
102
RTVSPost2010PropOp28
 70
     1
102
RTVSPost2010Prop29
280
     1
102
RTVSPost2010PropOp29
 70
     1
102
RTVSPost2010Prop30
280
     1
102
RTVSPost2010PropOp30
 70
     1
102
RTVSPost2010Prop31
280
     0
102
RTVSPost2010PropOp31
 70
     1
102
RTVSPost2010Prop32
280
     0
102
RTVSPost2010PropOp32
 70
     1
102
RTVSPost2010Prop33
280
     0
102
RTVSPost2010PropOp33
 70
     1
102
RTVSPost2010Prop34
280
     0
102
RTVSPost2010PropOp34
 70
     1
102
RTVSPost2010Prop35
280
     0
102
RTVSPost2010PropOp35
 70
     1
102
RTVSPost2010Prop36
280
     0
102
RTVSPost2010PropOp36
 70
     1
102
RTVSPost2010Prop37
 90
       50
102
RTVSPost2010PropOp37
 70
     1
102
RTVSPost2010Prop38
140
0.0
102
RTVSPost2010PropOp38
 70
     1
102
RTVSPost2010Prop39
140
1.0
102
RTVSPost2010PropOp39
 70
     1
102
RTVSPost2010Prop40
 90
        0
102
RTVSPost2010PropOp40
 70
     1
102
RTVSPost2010Prop41ColorIndex
 90
       18
102
RTVSPost2010Prop41ColorRGB
 90
        0
102
RTVSPost2010PropOp41
 70
     1
102
RTVSPost2010Prop42
 90
       50
102
RTVSPost2010PropOp42
 70
     1
102
RTVSPost2010Prop43
 90
        3
102
RTVSPost2010PropOp43
 70
     1
102
RTVSPost2010Prop44ColorIndex
 90
        5
102
RTVSPost2010Prop44ColorRGB
 90
      255
102
RTVSPost2010PropOp44
 70
     1
102
RTVSPost2010Prop45
280
     0
102
RTVSPost2010PropOp45
 70
     1
102
RTVSPost2010Prop46
 90
       50
102
RTVSPost2010PropOp46
 70
     1
102
RTVSPost2010Prop47
 90
       50
102
RTVSPost2010PropOp47
 70
     1
102
RTVSPost2010Prop48
 90
       50
102
RTVSPost2010PropOp48
 70
     1
102
RTVSPost2010Prop49
280
     0
102
RTVSPost2010PropOp49
 70
     1
102
RTVSPost2010Prop50
 90
       50
102
RTVSPost2010PropOp50
 70
     1
102
RTVSPost2010Prop51ColorIndex
 90
      256
102
RTVSPost2010Prop51ColorRGB
 90
-16777216
102
RTVSPost2010PropOp51
 70
     0
102
RTVSPost2010Prop52
140
1.0
102
RTVSPost2010PropOp52
 70
     0
102
RTVSPost2010Prop53
 90
        2
102
RTVSPost2010PropOp53
 70
     1
102
RTVSPost2010Prop54
  1
strokes_ogs.tif
102
RTVSPost2010PropOp54
 70
     1
102
RTVSPost2010Prop55
280
     0
102
RTVSPost2010PropOp55
 70
     1
102
RTVSPost2010Prop56
140
1.0
102
RTVSPost2010PropOp56
 70
     1
102
RTVSPost2010Prop57
140
1.0
102
RTVSPost2010PropOp57
 70
     1
102
RTVSPropertyOp0
 70
     1
102
RTVSPropertyOp1
 70
     1
102
RTVSPropertyOp2
 70
     1
102
RTVSPropertyOp3
 70
     1
102
RTVSPropertyOp4
 70
     1
102
RTVSPropertyOp5
 70
     1
102
RTVSPropertyOp6
 70
     1
102
RTVSPropertyOp7
 70
     1
102
RTVSPropertyOp8
 70
     1
102
RTVSPropertyOp9
 70
     1
102
RTVSPropertyOp10
 70
     1
102
RTVSPropertyOp11
 70
     1
102
RTVSPropertyOp12
 70
     1
102
RTVSPropertyOp13
 70
     1
102
RTVSPropertyOp14
 70
     1
102
RTVSPropertyOp15
 70
     1
102
RTVSPropertyOp16
 70
     1
102
RTVSPropertyOp17
 70
     1
102
RTVSPropertyOp18
 70
     1
102
RTVSPropertyOp19
 70
     1
102
RTVSPropertyOp20
 70
     1
102
RTVSPropertyOp21
 70
     1
102
RTVSPropertyOp22
 70
     1
102
RTVSPropertyOp23
 70
     1
102
RTVSPropertyOp24
 70
     1
102
RTVSPropertyOp25
 70
     1
102
RTVSPropertyOp26
 70
     1
102
RTVSPropertyOp27
 70
     1
102
RTVSPropertyOp28
 70
     1
102
RTVSPropertyOp29
 70
     1
102
RTVSPropertyOp30
 70
     1
102
RTVSPropertyOp31
 70
     1
102
RTVSPropertyOp32
 70
     1
102
RTVSPropertyOp33
 70
     1
102
RTVSPropertyOp34
 70
     1
102
RTVSPropertyOp35
 70
     1
102
RTVSPropertyOp36
 70
     1
102
RTVSPropertyOp37
 70
     1
102
RTVSPropertyOp38
 70
     1
102
RTVSPropertyOp39
 70
     1
102
RTVSPropertyOp40
 70
     1
102
RTVSPropertyOp41
 70
     1
102
RTVSPropertyOp42
 70
     1
102
RTVSPropertyOp43
 70
     1
102
RTVSPropertyOp44
 70
     1
102
RTVSPropertyOp45
 70
     1
102
RTVSPropertyOp46
 70
     1
102
RTVSPropertyOp47
 70
     1
102
RTVSPropertyOp48
 70
     1
102
RTVSPropertyOp49
 70
     1
102
RTVSPropertyOp50
 70
     1
102
RTVSPropertyOp51
 70
     0
102
RTVSPropertyOp52
 70
     0
102
RTVSPropertyOp53
 70
     1
102
RTVSPropertyOp54
 70
     1
102
RTVSPropertyOp55
 70
     1
102
RTVSPropertyOp56
 70
     1
102
RTVSPropertyOp57
 70
     1
102
RTVSPropertyOp58
 70
     1
102
RTVSPropertyOp59
 70
     1
102
RTVSPropertyOp60
 70
     1
102
RTVSPropertyOp61
 70
     1
102
RTVSPropertyOp62
 70
     1
  0
XRECORD
  5
169A3
102
{ACAD_REACTORS
330
169A2
102
}
330
169A2
100
AcDbXrecord
280
     1
102
RTVSPost2010Prop28
280
     0
102
RTVSPost2010PropOp28
 70
     1
102
RTVSPost2010Prop29
280
     1
102
RTVSPost2010PropOp29
 70
     1
102
RTVSPost2010Prop30
280
     1
102
RTVSPost2010PropOp30
 70
     1
102
RTVSPost2010Prop31
280
     0
102
RTVSPost2010PropOp31
 70
     1
102
RTVSPost2010Prop32
280
     0
102
RTVSPost2010PropOp32
 70
     1
102
RTVSPost2010Prop33
280
     0
102
RTVSPost2010PropOp33
 70
     1
102
RTVSPost2010Prop34
280
     0
102
RTVSPost2010PropOp34
 70
     1
102
RTVSPost2010Prop35
280
     0
102
RTVSPost2010PropOp35
 70
     1
102
RTVSPost2010Prop36
280
     0
102
RTVSPost2010PropOp36
 70
     1
102
RTVSPost2010Prop37
 90
       50
102
RTVSPost2010PropOp37
 70
     1
102
RTVSPost2010Prop38
140
0.0
102
RTVSPost2010PropOp38
 70
     1
102
RTVSPost2010Prop39
140
1.0
102
RTVSPost2010PropOp39
 70
     1
102
RTVSPost2010Prop40
 90
        0
102
RTVSPost2010PropOp40
 70
     1
102
RTVSPost2010Prop41ColorIndex
 90
       18
102
RTVSPost2010Prop41ColorRGB
 90
        0
102
RTVSPost2010PropOp41
 70
     1
102
RTVSPost2010Prop42
 90
       50
102
RTVSPost2010PropOp42
 70
     1
102
RTVSPost2010Prop43
 90
        3
102
RTVSPost2010PropOp43
 70
     1
102
RTVSPost2010Prop44ColorIndex
 90
        5
102
RTVSPost2010Prop44ColorRGB
 90
      255
102
RTVSPost2010PropOp44
 70
     1
102
RTVSPost2010Prop45
280
     0
102
RTVSPost2010PropOp45
 70
     1
102
RTVSPost2010Prop46
 90
       50
102
RTVSPost2010PropOp46
 70
     1
102
RTVSPost2010Prop47
 90
       50
102
RTVSPost2010PropOp47
 70
     1
102
RTVSPost2010Prop48
 90
       50
102
RTVSPost2010PropOp48
 70
     1
102
RTVSPost2010Prop49
280
     0
102
RTVSPost2010PropOp49
 70
     1
102
RTVSPost2010Prop50
 90
       50
102
RTVSPost2010PropOp50
 70
     1
102
RTVSPost2010Prop51ColorIndex
 90
      256
102
RTVSPost2010Prop51ColorRGB
 90
-16777216
102
RTVSPost2010PropOp51
 70
     0
102
RTVSPost2010Prop52
140
1.0
102
RTVSPost2010PropOp52
 70
     0
102
RTVSPost2010Prop53
 90
        2
102
RTVSPost2010PropOp53
 70
     1
102
RTVSPost2010Prop54
  1
strokes_ogs.tif
102
RTVSPost2010PropOp54
 70
     1
102
RTVSPost2010Prop55
280
     0
102
RTVSPost2010PropOp55
 70
     1
102
RTVSPost2010Prop56
140
1.0
102
RTVSPost2010PropOp56
 70
     1
102
RTVSPost2010Prop57
140
1.0
102
RTVSPost2010PropOp57
 70
     1
102
RTVSPropertyOp0
 70
     1
102
RTVSPropertyOp1
 70
     1
102
RTVSPropertyOp2
 70
     1
102
RTVSPropertyOp3
 70
     1
102
RTVSPropertyOp4
 70
     1
102
RTVSPropertyOp5
 70
     1
102
RTVSPropertyOp6
 70
     1
102
RTVSPropertyOp7
 70
     1
102
RTVSPropertyOp8
 70
     1
102
RTVSPropertyOp9
 70
     1
102
RTVSPropertyOp10
 70
     1
102
RTVSPropertyOp11
 70
     1
102
RTVSPropertyOp12
 70
     1
102
RTVSPropertyOp13
 70
     1
102
RTVSPropertyOp14
 70
     1
102
RTVSPropertyOp15
 70
     1
102
RTVSPropertyOp16
 70
     1
102
RTVSPropertyOp17
 70
     1
102
RTVSPropertyOp18
 70
     1
102
RTVSPropertyOp19
 70
     1
102
RTVSPropertyOp20
 70
     1
102
RTVSPropertyOp21
 70
     1
102
RTVSPropertyOp22
 70
     1
102
RTVSPropertyOp23
 70
     1
102
RTVSPropertyOp24
 70
     1
102
RTVSPropertyOp25
 70
     1
102
RTVSPropertyOp26
 70
     1
102
RTVSPropertyOp27
 70
     1
102
RTVSPropertyOp28
 70
     1
102
RTVSPropertyOp29
 70
     1
102
RTVSPropertyOp30
 70
     1
102
RTVSPropertyOp31
 70
     1
102
RTVSPropertyOp32
 70
     1
102
RTVSPropertyOp33
 70
     1
102
RTVSPropertyOp34
 70
     1
102
RTVSPropertyOp35
 70
     1
102
RTVSPropertyOp36
 70
     1
102
RTVSPropertyOp37
 70
     1
102
RTVSPropertyOp38
 70
     1
102
RTVSPropertyOp39
 70
     1
102
RTVSPropertyOp40
 70
     1
102
RTVSPropertyOp41
 70
     1
102
RTVSPropertyOp42
 70
     1
102
RTVSPropertyOp43
 70
     1
102
RTVSPropertyOp44
 70
     1
102
RTVSPropertyOp45
 70
     1
102
RTVSPropertyOp46
 70
     1
102
RTVSPropertyOp47
 70
     1
102
RTVSPropertyOp48
 70
     1
102
RTVSPropertyOp49
 70
     1
102
RTVSPropertyOp50
 70
     1
102
RTVSPropertyOp51
 70
     0
102
RTVSPropertyOp52
 70
     0
102
RTVSPropertyOp53
 70
     1
102
RTVSPropertyOp54
 70
     1
102
RTVSPropertyOp55
 70
     1
102
RTVSPropertyOp56
 70
     1
102
RTVSPropertyOp57
 70
     1
102
RTVSPropertyOp58
 70
     1
102
RTVSPropertyOp59
 70
     1
102
RTVSPropertyOp60
 70
     1
102
RTVSPropertyOp61
 70
     1
102
RTVSPropertyOp62
 70
     1
  0
XRECORD
  5
169AB
102
{ACAD_REACTORS
330
169AA
102
}
330
169AA
100
AcDbXrecord
280
     1
102
RTVSPost2010Prop28
280
     0
102
RTVSPost2010PropOp28
 70
     1
102
RTVSPost2010Prop29
280
     1
102
RTVSPost2010PropOp29
 70
     1
102
RTVSPost2010Prop30
280
     1
102
RTVSPost2010PropOp30
 70
     1
102
RTVSPost2010Prop31
280
     0
102
RTVSPost2010PropOp31
 70
     1
102
RTVSPost2010Prop32
280
     0
102
RTVSPost2010PropOp32
 70
     1
102
RTVSPost2010Prop33
280
     0
102
RTVSPost2010PropOp33
 70
     1
102
RTVSPost2010Prop34
280
     0
102
RTVSPost2010PropOp34
 70
     1
102
RTVSPost2010Prop35
280
     0
102
RTVSPost2010PropOp35
 70
     1
102
RTVSPost2010Prop36
280
     0
102
RTVSPost2010PropOp36
 70
     1
102
RTVSPost2010Prop37
 90
       50
102
RTVSPost2010PropOp37
 70
     1
102
RTVSPost2010Prop38
140
0.0
102
RTVSPost2010PropOp38
 70
     1
102
RTVSPost2010Prop39
140
1.0
102
RTVSPost2010PropOp39
 70
     1
102
RTVSPost2010Prop40
 90
        0
102
RTVSPost2010PropOp40
 70
     1
102
RTVSPost2010Prop41ColorIndex
 90
       18
102
RTVSPost2010Prop41ColorRGB
 90
        0
102
RTVSPost2010PropOp41
 70
     1
102
RTVSPost2010Prop42
 90
       50
102
RTVSPost2010PropOp42
 70
     1
102
RTVSPost2010Prop43
 90
        3
102
RTVSPost2010PropOp43
 70
     1
102
RTVSPost2010Prop44ColorIndex
 90
        5
102
RTVSPost2010Prop44ColorRGB
 90
      255
102
RTVSPost2010PropOp44
 70
     1
102
RTVSPost2010Prop45
280
     0
102
RTVSPost2010PropOp45
 70
     1
102
RTVSPost2010Prop46
 90
       50
102
RTVSPost2010PropOp46
 70
     1
102
RTVSPost2010Prop47
 90
       50
102
RTVSPost2010PropOp47
 70
     1
102
RTVSPost2010Prop48
 90
       50
102
RTVSPost2010PropOp48
 70
     1
102
RTVSPost2010Prop49
280
     0
102
RTVSPost2010PropOp49
 70
     1
102
RTVSPost2010Prop50
 90
       50
102
RTVSPost2010PropOp50
 70
     1
102
RTVSPost2010Prop51ColorIndex
 90
      256
102
RTVSPost2010Prop51ColorRGB
 90
-16777216
102
RTVSPost2010PropOp51
 70
     0
102
RTVSPost2010Prop52
140
1.0
102
RTVSPost2010PropOp52
 70
     0
102
RTVSPost2010Prop53
 90
        2
102
RTVSPost2010PropOp53
 70
     1
102
RTVSPost2010Prop54
  1
strokes_ogs.tif
102
RTVSPost2010PropOp54
 70
     1
102
RTVSPost2010Prop55
280
     0
102
RTVSPost2010PropOp55
 70
     1
102
RTVSPost2010Prop56
140
1.0
102
RTVSPost2010PropOp56
 70
     1
102
RTVSPost2010Prop57
140
1.0
102
RTVSPost2010PropOp57
 70
     1
102
RTVSPropertyOp0
 70
     1
102
RTVSPropertyOp1
 70
     1
102
RTVSPropertyOp2
 70
     1
102
RTVSPropertyOp3
 70
     1
102
RTVSPropertyOp4
 70
     1
102
RTVSPropertyOp5
 70
     1
102
RTVSPropertyOp6
 70
     1
102
RTVSPropertyOp7
 70
     1
102
RTVSPropertyOp8
 70
     1
102
RTVSPropertyOp9
 70
     1
102
RTVSPropertyOp10
 70
     1
102
RTVSPropertyOp11
 70
     1
102
RTVSPropertyOp12
 70
     1
102
RTVSPropertyOp13
 70
     1
102
RTVSPropertyOp14
 70
     1
102
RTVSPropertyOp15
 70
     1
102
RTVSPropertyOp16
 70
     1
102
RTVSPropertyOp17
 70
     1
102
RTVSPropertyOp18
 70
     1
102
RTVSPropertyOp19
 70
     1
102
RTVSPropertyOp20
 70
     1
102
RTVSPropertyOp21
 70
     1
102
RTVSPropertyOp22
 70
     1
102
RTVSPropertyOp23
 70
     1
102
RTVSPropertyOp24
 70
     1
102
RTVSPropertyOp25
 70
     1
102
RTVSPropertyOp26
 70
     1
102
RTVSPropertyOp27
 70
     1
102
RTVSPropertyOp28
 70
     1
102
RTVSPropertyOp29
 70
     1
102
RTVSPropertyOp30
 70
     1
102
RTVSPropertyOp31
 70
     1
102
RTVSPropertyOp32
 70
     1
102
RTVSPropertyOp33
 70
     1
102
RTVSPropertyOp34
 70
     1
102
RTVSPropertyOp35
 70
     1
102
RTVSPropertyOp36
 70
     1
102
RTVSPropertyOp37
 70
     1
102
RTVSPropertyOp38
 70
     1
102
RTVSPropertyOp39
 70
     1
102
RTVSPropertyOp40
 70
     1
102
RTVSPropertyOp41
 70
     1
102
RTVSPropertyOp42
 70
     1
102
RTVSPropertyOp43
 70
     1
102
RTVSPropertyOp44
 70
     1
102
RTVSPropertyOp45
 70
     1
102
RTVSPropertyOp46
 70
     1
102
RTVSPropertyOp47
 70
     1
102
RTVSPropertyOp48
 70
     1
102
RTVSPropertyOp49
 70
     1
102
RTVSPropertyOp50
 70
     1
102
RTVSPropertyOp51
 70
     0
102
RTVSPropertyOp52
 70
     0
102
RTVSPropertyOp53
 70
     1
102
RTVSPropertyOp54
 70
     1
102
RTVSPropertyOp55
 70
     1
102
RTVSPropertyOp56
 70
     1
102
RTVSPropertyOp57
 70
     1
102
RTVSPropertyOp58
 70
     1
102
RTVSPropertyOp59
 70
     1
102
RTVSPropertyOp60
 70
     1
102
RTVSPropertyOp61
 70
     1
102
RTVSPropertyOp62
 70
     1
  0
XRECORD
  5
169C7
102
{ACAD_REACTORS
330
169C6
102
}
330
169C6
100
AcDbXrecord
280
     1
102
RTVSPost2010Prop28
280
     0
102
RTVSPost2010PropOp28
 70
     0
102
RTVSPost2010Prop29
280
     1
102
RTVSPost2010PropOp29
 70
     0
102
RTVSPost2010Prop30
280
     1
102
RTVSPost2010PropOp30
 70
     0
102
RTVSPost2010Prop31
280
     0
102
RTVSPost2010PropOp31
 70
     0
102
RTVSPost2010Prop32
280
     0
102
RTVSPost2010PropOp32
 70
     0
102
RTVSPost2010Prop33
280
     0
102
RTVSPost2010PropOp33
 70
     0
102
RTVSPost2010Prop34
280
     0
102
RTVSPost2010PropOp34
 70
     0
102
RTVSPost2010Prop35
280
     0
102
RTVSPost2010PropOp35
 70
     0
102
RTVSPost2010Prop36
280
     0
102
RTVSPost2010PropOp36
 70
     0
102
RTVSPost2010Prop37
 90
       50
102
RTVSPost2010PropOp37
 70
     0
102
RTVSPost2010Prop38
140
0.0
102
RTVSPost2010PropOp38
 70
     0
102
RTVSPost2010Prop39
140
1.0
102
RTVSPost2010PropOp39
 70
     0
102
RTVSPost2010Prop40
 90
        0
102
RTVSPost2010PropOp40
 70
     0
102
RTVSPost2010Prop41ColorIndex
 90
       18
102
RTVSPost2010Prop41ColorRGB
 90
        0
102
RTVSPost2010PropOp41
 70
     0
102
RTVSPost2010Prop42
 90
       50
102
RTVSPost2010PropOp42
 70
     0
102
RTVSPost2010Prop43
 90
        3
102
RTVSPost2010PropOp43
 70
     0
102
RTVSPost2010Prop44ColorIndex
 90
        5
102
RTVSPost2010Prop44ColorRGB
 90
      255
102
RTVSPost2010PropOp44
 70
     0
102
RTVSPost2010Prop45
280
     0
102
RTVSPost2010PropOp45
 70
     0
102
RTVSPost2010Prop46
 90
       50
102
RTVSPost2010PropOp46
 70
     0
102
RTVSPost2010Prop47
 90
       50
102
RTVSPost2010PropOp47
 70
     0
102
RTVSPost2010Prop48
 90
       50
102
RTVSPost2010PropOp48
 70
     0
102
RTVSPost2010Prop49
280
     0
102
RTVSPost2010PropOp49
 70
     0
102
RTVSPost2010Prop50
 90
       50
102
RTVSPost2010PropOp50
 70
     0
102
RTVSPost2010Prop51ColorIndex
 90
      256
102
RTVSPost2010Prop51ColorRGB
 90
-16777216
102
RTVSPost2010PropOp51
 70
     0
102
RTVSPost2010Prop52
140
1.0
102
RTVSPost2010PropOp52
 70
     0
102
RTVSPost2010Prop53
 90
        2
102
RTVSPost2010PropOp53
 70
     0
102
RTVSPost2010Prop54
  1
strokes_ogs.tif
102
RTVSPost2010PropOp54
 70
     0
102
RTVSPost2010Prop55
280
     0
102
RTVSPost2010PropOp55
 70
     0
102
RTVSPost2010Prop56
140
1.0
102
RTVSPost2010PropOp56
 70
     0
102
RTVSPost2010Prop57
140
1.0
102
RTVSPost2010PropOp57
 70
     0
102
RTVSPropertyOp0
 70
     0
102
RTVSPropertyOp1
 70
     0
102
RTVSPropertyOp2
 70
     0
102
RTVSPropertyOp3
 70
     0
102
RTVSPropertyOp4
 70
     0
102
RTVSPropertyOp5
 70
     0
102
RTVSPropertyOp6
 70
     0
102
RTVSPropertyOp7
 70
     0
102
RTVSPropertyOp8
 70
     0
102
RTVSPropertyOp9
 70
     0
102
RTVSPropertyOp10
 70
     0
102
RTVSPropertyOp11
 70
     0
102
RTVSPropertyOp12
 70
     0
102
RTVSPropertyOp13
 70
     0
102
RTVSPropertyOp14
 70
     2
102
RTVSPropertyOp15
 70
     0
102
RTVSPropertyOp16
 70
     0
102
RTVSPropertyOp17
 70
     0
102
RTVSPropertyOp18
 70
     0
102
RTVSPropertyOp19
 70
     0
102
RTVSPropertyOp20
 70
     0
102
RTVSPropertyOp21
 70
     0
102
RTVSPropertyOp22
 70
     0
102
RTVSPropertyOp23
 70
     0
102
RTVSPropertyOp24
 70
     0
102
RTVSPropertyOp25
 70
     0
102
RTVSPropertyOp26
 70
     0
102
RTVSPropertyOp27
 70
     0
102
RTVSPropertyOp28
 70
     0
102
RTVSPropertyOp29
 70
     0
102
RTVSPropertyOp30
 70
     0
102
RTVSPropertyOp31
 70
     0
102
RTVSPropertyOp32
 70
     0
102
RTVSPropertyOp33
 70
     0
102
RTVSPropertyOp34
 70
     0
102
RTVSPropertyOp35
 70
     0
102
RTVSPropertyOp36
 70
     0
102
RTVSPropertyOp37
 70
     0
102
RTVSPropertyOp38
 70
     0
102
RTVSPropertyOp39
 70
     0
102
RTVSPropertyOp40
 70
     0
102
RTVSPropertyOp41
 70
     0
102
RTVSPropertyOp42
 70
     0
102
RTVSPropertyOp43
 70
     0
102
RTVSPropertyOp44
 70
     0
102
RTVSPropertyOp45
 70
     0
102
RTVSPropertyOp46
 70
     0
102
RTVSPropertyOp47
 70
     0
102
RTVSPropertyOp48
 70
     0
102
RTVSPropertyOp49
 70
     0
102
RTVSPropertyOp50
 70
     0
102
RTVSPropertyOp51
 70
     0
102
RTVSPropertyOp52
 70
     0
102
RTVSPropertyOp53
 70
     0
102
RTVSPropertyOp54
 70
     0
102
RTVSPropertyOp55
 70
     0
102
RTVSPropertyOp56
 70
     0
102
RTVSPropertyOp57
 70
     0
102
RTVSPropertyOp58
 70
     1
102
RTVSPropertyOp59
 70
     1
102
RTVSPropertyOp60
 70
     1
102
RTVSPropertyOp61
 70
     1
102
RTVSPropertyOp62
 70
     1
  0
XRECORD
  5
169B7
102
{ACAD_REACTORS
330
169B6
102
}
330
169B6
100
AcDbXrecord
280
     1
102
RTVSPost2010Prop28
280
     0
102
RTVSPost2010PropOp28
 70
     1
102
RTVSPost2010Prop29
280
     1
102
RTVSPost2010PropOp29
 70
     1
102
RTVSPost2010Prop30
280
     1
102
RTVSPost2010PropOp30
 70
     1
102
RTVSPost2010Prop31
280
     0
102
RTVSPost2010PropOp31
 70
     1
102
RTVSPost2010Prop32
280
     0
102
RTVSPost2010PropOp32
 70
     1
102
RTVSPost2010Prop33
280
     0
102
RTVSPost2010PropOp33
 70
     1
102
RTVSPost2010Prop34
280
     0
102
RTVSPost2010PropOp34
 70
     1
102
RTVSPost2010Prop35
280
     0
102
RTVSPost2010PropOp35
 70
     1
102
RTVSPost2010Prop36
280
     0
102
RTVSPost2010PropOp36
 70
     1
102
RTVSPost2010Prop37
 90
       50
102
RTVSPost2010PropOp37
 70
     1
102
RTVSPost2010Prop38
140
0.0
102
RTVSPost2010PropOp38
 70
     1
102
RTVSPost2010Prop39
140
1.0
102
RTVSPost2010PropOp39
 70
     1
102
RTVSPost2010Prop40
 90
        0
102
RTVSPost2010PropOp40
 70
     1
102
RTVSPost2010Prop41ColorIndex
 90
       18
102
RTVSPost2010Prop41ColorRGB
 90
        0
102
RTVSPost2010PropOp41
 70
     1
102
RTVSPost2010Prop42
 90
       50
102
RTVSPost2010PropOp42
 70
     1
102
RTVSPost2010Prop43
 90
        3
102
RTVSPost2010PropOp43
 70
     1
102
RTVSPost2010Prop44ColorIndex
 90
        5
102
RTVSPost2010Prop44ColorRGB
 90
      255
102
RTVSPost2010PropOp44
 70
     1
102
RTVSPost2010Prop45
280
     0
102
RTVSPost2010PropOp45
 70
     1
102
RTVSPost2010Prop46
 90
       50
102
RTVSPost2010PropOp46
 70
     1
102
RTVSPost2010Prop47
 90
       50
102
RTVSPost2010PropOp47
 70
     1
102
RTVSPost2010Prop48
 90
       50
102
RTVSPost2010PropOp48
 70
     1
102
RTVSPost2010Prop49
280
     0
102
RTVSPost2010PropOp49
 70
     1
102
RTVSPost2010Prop50
 90
       50
102
RTVSPost2010PropOp50
 70
     1
102
RTVSPost2010Prop51ColorIndex
 90
      256
102
RTVSPost2010Prop51ColorRGB
 90
-16777216
102
RTVSPost2010PropOp51
 70
     0
102
RTVSPost2010Prop52
140
1.0
102
RTVSPost2010PropOp52
 70
     0
102
RTVSPost2010Prop53
 90
        2
102
RTVSPost2010PropOp53
 70
     1
102
RTVSPost2010Prop54
  1
strokes_ogs.tif
102
RTVSPost2010PropOp54
 70
     1
102
RTVSPost2010Prop55
280
     0
102
RTVSPost2010PropOp55
 70
     1
102
RTVSPost2010Prop56
140
1.0
102
RTVSPost2010PropOp56
 70
     1
102
RTVSPost2010Prop57
140
1.0
102
RTVSPost2010PropOp57
 70
     1
102
RTVSPropertyOp0
 70
     1
102
RTVSPropertyOp1
 70
     1
102
RTVSPropertyOp2
 70
     1
102
RTVSPropertyOp3
 70
     1
102
RTVSPropertyOp4
 70
     1
102
RTVSPropertyOp5
 70
     1
102
RTVSPropertyOp6
 70
     1
102
RTVSPropertyOp7
 70
     1
102
RTVSPropertyOp8
 70
     1
102
RTVSPropertyOp9
 70
     1
102
RTVSPropertyOp10
 70
     1
102
RTVSPropertyOp11
 70
     1
102
RTVSPropertyOp12
 70
     1
102
RTVSPropertyOp13
 70
     1
102
RTVSPropertyOp14
 70
     1
102
RTVSPropertyOp15
 70
     1
102
RTVSPropertyOp16
 70
     1
102
RTVSPropertyOp17
 70
     1
102
RTVSPropertyOp18
 70
     1
102
RTVSPropertyOp19
 70
     1
102
RTVSPropertyOp20
 70
     1
102
RTVSPropertyOp21
 70
     1
102
RTVSPropertyOp22
 70
     1
102
RTVSPropertyOp23
 70
     1
102
RTVSPropertyOp24
 70
     1
102
RTVSPropertyOp25
 70
     1
102
RTVSPropertyOp26
 70
     1
102
RTVSPropertyOp27
 70
     1
102
RTVSPropertyOp28
 70
     1
102
RTVSPropertyOp29
 70
     1
102
RTVSPropertyOp30
 70
     1
102
RTVSPropertyOp31
 70
     1
102
RTVSPropertyOp32
 70
     1
102
RTVSPropertyOp33
 70
     1
102
RTVSPropertyOp34
 70
     1
102
RTVSPropertyOp35
 70
     1
102
RTVSPropertyOp36
 70
     1
102
RTVSPropertyOp37
 70
     1
102
RTVSPropertyOp38
 70
     1
102
RTVSPropertyOp39
 70
     1
102
RTVSPropertyOp40
 70
     1
102
RTVSPropertyOp41
 70
     1
102
RTVSPropertyOp42
 70
     1
102
RTVSPropertyOp43
 70
     1
102
RTVSPropertyOp44
 70
     1
102
RTVSPropertyOp45
 70
     1
102
RTVSPropertyOp46
 70
     1
102
RTVSPropertyOp47
 70
     1
102
RTVSPropertyOp48
 70
     1
102
RTVSPropertyOp49
 70
     1
102
RTVSPropertyOp50
 70
     1
102
RTVSPropertyOp51
 70
     0
102
RTVSPropertyOp52
 70
     0
102
RTVSPropertyOp53
 70
     1
102
RTVSPropertyOp54
 70
     1
102
RTVSPropertyOp55
 70
     1
102
RTVSPropertyOp56
 70
     1
102
RTVSPropertyOp57
 70
     1
102
RTVSPropertyOp58
 70
     1
102
RTVSPropertyOp59
 70
     1
102
RTVSPropertyOp60
 70
     1
102
RTVSPropertyOp61
 70
     1
102
RTVSPropertyOp62
 70
     1
  0
XRECORD
  5
169C9
102
{ACAD_REACTORS
330
169C8
102
}
330
169C8
100
AcDbXrecord
280
     1
102
RTVSPost2010Prop28
280
     0
102
RTVSPost2010PropOp28
 70
     0
102
RTVSPost2010Prop29
280
     1
102
RTVSPost2010PropOp29
 70
     0
102
RTVSPost2010Prop30
280
     1
102
RTVSPost2010PropOp30
 70
     0
102
RTVSPost2010Prop31
280
     0
102
RTVSPost2010PropOp31
 70
     0
102
RTVSPost2010Prop32
280
     0
102
RTVSPost2010PropOp32
 70
     0
102
RTVSPost2010Prop33
280
     0
102
RTVSPost2010PropOp33
 70
     0
102
RTVSPost2010Prop34
280
     0
102
RTVSPost2010PropOp34
 70
     0
102
RTVSPost2010Prop35
280
     0
102
RTVSPost2010PropOp35
 70
     0
102
RTVSPost2010Prop36
280
     0
102
RTVSPost2010PropOp36
 70
     0
102
RTVSPost2010Prop37
 90
       50
102
RTVSPost2010PropOp37
 70
     0
102
RTVSPost2010Prop38
140
0.0
102
RTVSPost2010PropOp38
 70
     0
102
RTVSPost2010Prop39
140
1.0
102
RTVSPost2010PropOp39
 70
     0
102
RTVSPost2010Prop40
 90
        0
102
RTVSPost2010PropOp40
 70
     0
102
RTVSPost2010Prop41ColorIndex
 90
       18
102
RTVSPost2010Prop41ColorRGB
 90
        0
102
RTVSPost2010PropOp41
 70
     0
102
RTVSPost2010Prop42
 90
       50
102
RTVSPost2010PropOp42
 70
     0
102
RTVSPost2010Prop43
 90
        3
102
RTVSPost2010PropOp43
 70
     0
102
RTVSPost2010Prop44ColorIndex
 90
        5
102
RTVSPost2010Prop44ColorRGB
 90
      255
102
RTVSPost2010PropOp44
 70
     0
102
RTVSPost2010Prop45
280
     0
102
RTVSPost2010PropOp45
 70
     0
102
RTVSPost2010Prop46
 90
       50
102
RTVSPost2010PropOp46
 70
     0
102
RTVSPost2010Prop47
 90
       50
102
RTVSPost2010PropOp47
 70
     0
102
RTVSPost2010Prop48
 90
       50
102
RTVSPost2010PropOp48
 70
     0
102
RTVSPost2010Prop49
280
     0
102
RTVSPost2010PropOp49
 70
     0
102
RTVSPost2010Prop50
 90
       50
102
RTVSPost2010PropOp50
 70
     0
102
RTVSPost2010Prop51ColorIndex
 90
      256
102
RTVSPost2010Prop51ColorRGB
 90
-16777216
102
RTVSPost2010PropOp51
 70
     0
102
RTVSPost2010Prop52
140
1.0
102
RTVSPost2010PropOp52
 70
     0
102
RTVSPost2010Prop53
 90
        2
102
RTVSPost2010PropOp53
 70
     0
102
RTVSPost2010Prop54
  1
strokes_ogs.tif
102
RTVSPost2010PropOp54
 70
     0
102
RTVSPost2010Prop55
280
     0
102
RTVSPost2010PropOp55
 70
     0
102
RTVSPost2010Prop56
140
1.0
102
RTVSPost2010PropOp56
 70
     0
102
RTVSPost2010Prop57
140
1.0
102
RTVSPost2010PropOp57
 70
     0
102
RTVSPropertyOp0
 70
     0
102
RTVSPropertyOp1
 70
     0
102
RTVSPropertyOp2
 70
     0
102
RTVSPropertyOp3
 70
     0
102
RTVSPropertyOp4
 70
     0
102
RTVSPropertyOp5
 70
     0
102
RTVSPropertyOp6
 70
     0
102
RTVSPropertyOp7
 70
     0
102
RTVSPropertyOp8
 70
     0
102
RTVSPropertyOp9
 70
     0
102
RTVSPropertyOp10
 70
     0
102
RTVSPropertyOp11
 70
     0
102
RTVSPropertyOp12
 70
     0
102
RTVSPropertyOp13
 70
     0
102
RTVSPropertyOp14
 70
     2
102
RTVSPropertyOp15
 70
     0
102
RTVSPropertyOp16
 70
     0
102
RTVSPropertyOp17
 70
     0
102
RTVSPropertyOp18
 70
     0
102
RTVSPropertyOp19
 70
     0
102
RTVSPropertyOp20
 70
     0
102
RTVSPropertyOp21
 70
     0
102
RTVSPropertyOp22
 70
     0
102
RTVSPropertyOp23
 70
     0
102
RTVSPropertyOp24
 70
     0
102
RTVSPropertyOp25
 70
     0
102
RTVSPropertyOp26
 70
     0
102
RTVSPropertyOp27
 70
     0
102
RTVSPropertyOp28
 70
     0
102
RTVSPropertyOp29
 70
     0
102
RTVSPropertyOp30
 70
     0
102
RTVSPropertyOp31
 70
     0
102
RTVSPropertyOp32
 70
     0
102
RTVSPropertyOp33
 70
     0
102
RTVSPropertyOp34
 70
     0
102
RTVSPropertyOp35
 70
     0
102
RTVSPropertyOp36
 70
     0
102
RTVSPropertyOp37
 70
     0
102
RTVSPropertyOp38
 70
     0
102
RTVSPropertyOp39
 70
     0
102
RTVSPropertyOp40
 70
     0
102
RTVSPropertyOp41
 70
     0
102
RTVSPropertyOp42
 70
     0
102
RTVSPropertyOp43
 70
     0
102
RTVSPropertyOp44
 70
     0
102
RTVSPropertyOp45
 70
     0
102
RTVSPropertyOp46
 70
     0
102
RTVSPropertyOp47
 70
     0
102
RTVSPropertyOp48
 70
     0
102
RTVSPropertyOp49
 70
     0
102
RTVSPropertyOp50
 70
     0
102
RTVSPropertyOp51
 70
     0
102
RTVSPropertyOp52
 70
     0
102
RTVSPropertyOp53
 70
     0
102
RTVSPropertyOp54
 70
     0
102
RTVSPropertyOp55
 70
     0
102
RTVSPropertyOp56
 70
     0
102
RTVSPropertyOp57
 70
     0
102
RTVSPropertyOp58
 70
     1
102
RTVSPropertyOp59
 70
     1
102
RTVSPropertyOp60
 70
     1
102
RTVSPropertyOp61
 70
     1
102
RTVSPropertyOp62
 70
     1
  0
XRECORD
  5
169AF
102
{ACAD_REACTORS
330
169AE
102
}
330
169AE
100
AcDbXrecord
280
     1
102
RTVSPost2010Prop28
280
     0
102
RTVSPost2010PropOp28
 70
     1
102
RTVSPost2010Prop29
280
     1
102
RTVSPost2010PropOp29
 70
     1
102
RTVSPost2010Prop30
280
     1
102
RTVSPost2010PropOp30
 70
     1
102
RTVSPost2010Prop31
280
     0
102
RTVSPost2010PropOp31
 70
     1
102
RTVSPost2010Prop32
280
     0
102
RTVSPost2010PropOp32
 70
     1
102
RTVSPost2010Prop33
280
     0
102
RTVSPost2010PropOp33
 70
     1
102
RTVSPost2010Prop34
280
     0
102
RTVSPost2010PropOp34
 70
     1
102
RTVSPost2010Prop35
280
     0
102
RTVSPost2010PropOp35
 70
     1
102
RTVSPost2010Prop36
280
     0
102
RTVSPost2010PropOp36
 70
     1
102
RTVSPost2010Prop37
 90
       50
102
RTVSPost2010PropOp37
 70
     1
102
RTVSPost2010Prop38
140
0.0
102
RTVSPost2010PropOp38
 70
     1
102
RTVSPost2010Prop39
140
1.0
102
RTVSPost2010PropOp39
 70
     1
102
RTVSPost2010Prop40
 90
        0
102
RTVSPost2010PropOp40
 70
     1
102
RTVSPost2010Prop41ColorIndex
 90
       18
102
RTVSPost2010Prop41ColorRGB
 90
        0
102
RTVSPost2010PropOp41
 70
     1
102
RTVSPost2010Prop42
 90
       50
102
RTVSPost2010PropOp42
 70
     1
102
RTVSPost2010Prop43
 90
        3
102
RTVSPost2010PropOp43
 70
     1
102
RTVSPost2010Prop44ColorIndex
 90
        5
102
RTVSPost2010Prop44ColorRGB
 90
      255
102
RTVSPost2010PropOp44
 70
     1
102
RTVSPost2010Prop45
280
     0
102
RTVSPost2010PropOp45
 70
     1
102
RTVSPost2010Prop46
 90
       50
102
RTVSPost2010PropOp46
 70
     1
102
RTVSPost2010Prop47
 90
       50
102
RTVSPost2010PropOp47
 70
     1
102
RTVSPost2010Prop48
 90
       50
102
RTVSPost2010PropOp48
 70
     1
102
RTVSPost2010Prop49
280
     0
102
RTVSPost2010PropOp49
 70
     1
102
RTVSPost2010Prop50
 90
       50
102
RTVSPost2010PropOp50
 70
     1
102
RTVSPost2010Prop51ColorIndex
 90
      256
102
RTVSPost2010Prop51ColorRGB
 90
-16777216
102
RTVSPost2010PropOp51
 70
     0
102
RTVSPost2010Prop52
140
1.0
102
RTVSPost2010PropOp52
 70
     0
102
RTVSPost2010Prop53
 90
        2
102
RTVSPost2010PropOp53
 70
     1
102
RTVSPost2010Prop54
  1
strokes_ogs.tif
102
RTVSPost2010PropOp54
 70
     1
102
RTVSPost2010Prop55
280
     0
102
RTVSPost2010PropOp55
 70
     1
102
RTVSPost2010Prop56
140
1.0
102
RTVSPost2010PropOp56
 70
     1
102
RTVSPost2010Prop57
140
1.0
102
RTVSPost2010PropOp57
 70
     1
102
RTVSPropertyOp0
 70
     1
102
RTVSPropertyOp1
 70
     1
102
RTVSPropertyOp2
 70
     1
102
RTVSPropertyOp3
 70
     1
102
RTVSPropertyOp4
 70
     1
102
RTVSPropertyOp5
 70
     1
102
RTVSPropertyOp6
 70
     1
102
RTVSPropertyOp7
 70
     1
102
RTVSPropertyOp8
 70
     1
102
RTVSPropertyOp9
 70
     1
102
RTVSPropertyOp10
 70
     1
102
RTVSPropertyOp11
 70
     1
102
RTVSPropertyOp12
 70
     1
102
RTVSPropertyOp13
 70
     1
102
RTVSPropertyOp14
 70
     1
102
RTVSPropertyOp15
 70
     1
102
RTVSPropertyOp16
 70
     1
102
RTVSPropertyOp17
 70
     1
102
RTVSPropertyOp18
 70
     1
102
RTVSPropertyOp19
 70
     1
102
RTVSPropertyOp20
 70
     1
102
RTVSPropertyOp21
 70
     1
102
RTVSPropertyOp22
 70
     1
102
RTVSPropertyOp23
 70
     1
102
RTVSPropertyOp24
 70
     1
102
RTVSPropertyOp25
 70
     1
102
RTVSPropertyOp26
 70
     1
102
RTVSPropertyOp27
 70
     1
102
RTVSPropertyOp28
 70
     1
102
RTVSPropertyOp29
 70
     1
102
RTVSPropertyOp30
 70
     1
102
RTVSPropertyOp31
 70
     1
102
RTVSPropertyOp32
 70
     1
102
RTVSPropertyOp33
 70
     1
102
RTVSPropertyOp34
 70
     1
102
RTVSPropertyOp35
 70
     1
102
RTVSPropertyOp36
 70
     1
102
RTVSPropertyOp37
 70
     1
102
RTVSPropertyOp38
 70
     1
102
RTVSPropertyOp39
 70
     1
102
RTVSPropertyOp40
 70
     1
102
RTVSPropertyOp41
 70
     1
102
RTVSPropertyOp42
 70
     1
102
RTVSPropertyOp43
 70
     1
102
RTVSPropertyOp44
 70
     1
102
RTVSPropertyOp45
 70
     1
102
RTVSPropertyOp46
 70
     1
102
RTVSPropertyOp47
 70
     1
102
RTVSPropertyOp48
 70
     1
102
RTVSPropertyOp49
 70
     1
102
RTVSPropertyOp50
 70
     1
102
RTVSPropertyOp51
 70
     0
102
RTVSPropertyOp52
 70
     0
102
RTVSPropertyOp53
 70
     1
102
RTVSPropertyOp54
 70
     1
102
RTVSPropertyOp55
 70
     1
102
RTVSPropertyOp56
 70
     1
102
RTVSPropertyOp57
 70
     1
102
RTVSPropertyOp58
 70
     1
102
RTVSPropertyOp59
 70
     1
102
RTVSPropertyOp60
 70
     1
102
RTVSPropertyOp61
 70
     1
102
RTVSPropertyOp62
 70
     1
  0
XRECORD
  5
169C5
102
{ACAD_REACTORS
330
169C4
102
}
330
169C4
100
AcDbXrecord
280
     1
102
RTVSPost2010Prop28
280
     0
102
RTVSPost2010PropOp28
 70
     1
102
RTVSPost2010Prop29
280
     1
102
RTVSPost2010PropOp29
 70
     1
102
RTVSPost2010Prop30
280
     1
102
RTVSPost2010PropOp30
 70
     1
102
RTVSPost2010Prop31
280
     0
102
RTVSPost2010PropOp31
 70
     1
102
RTVSPost2010Prop32
280
     0
102
RTVSPost2010PropOp32
 70
     1
102
RTVSPost2010Prop33
280
     0
102
RTVSPost2010PropOp33
 70
     1
102
RTVSPost2010Prop34
280
     0
102
RTVSPost2010PropOp34
 70
     1
102
RTVSPost2010Prop35
280
     0
102
RTVSPost2010PropOp35
 70
     1
102
RTVSPost2010Prop36
280
     0
102
RTVSPost2010PropOp36
 70
     1
102
RTVSPost2010Prop37
 90
       50
102
RTVSPost2010PropOp37
 70
     1
102
RTVSPost2010Prop38
140
0.0
102
RTVSPost2010PropOp38
 70
     1
102
RTVSPost2010Prop39
140
1.0
102
RTVSPost2010PropOp39
 70
     1
102
RTVSPost2010Prop40
 90
        0
102
RTVSPost2010PropOp40
 70
     1
102
RTVSPost2010Prop41ColorIndex
 90
       18
102
RTVSPost2010Prop41ColorRGB
 90
        0
102
RTVSPost2010PropOp41
 70
     1
102
RTVSPost2010Prop42
 90
       50
102
RTVSPost2010PropOp42
 70
     1
102
RTVSPost2010Prop43
 90
        3
102
RTVSPost2010PropOp43
 70
     1
102
RTVSPost2010Prop44ColorIndex
 90
        5
102
RTVSPost2010Prop44ColorRGB
 90
      255
102
RTVSPost2010PropOp44
 70
     1
102
RTVSPost2010Prop45
280
     0
102
RTVSPost2010PropOp45
 70
     1
102
RTVSPost2010Prop46
 90
       50
102
RTVSPost2010PropOp46
 70
     1
102
RTVSPost2010Prop47
 90
       50
102
RTVSPost2010PropOp47
 70
     1
102
RTVSPost2010Prop48
 90
       50
102
RTVSPost2010PropOp48
 70
     1
102
RTVSPost2010Prop49
280
     0
102
RTVSPost2010PropOp49
 70
     1
102
RTVSPost2010Prop50
 90
       50
102
RTVSPost2010PropOp50
 70
     1
102
RTVSPost2010Prop51ColorIndex
 90
      256
102
RTVSPost2010Prop51ColorRGB
 90
-16777216
102
RTVSPost2010PropOp51
 70
     0
102
RTVSPost2010Prop52
140
1.0
102
RTVSPost2010PropOp52
 70
     0
102
RTVSPost2010Prop53
 90
        2
102
RTVSPost2010PropOp53
 70
     1
102
RTVSPost2010Prop54
  1
strokes_ogs.tif
102
RTVSPost2010PropOp54
 70
     1
102
RTVSPost2010Prop55
280
     0
102
RTVSPost2010PropOp55
 70
     1
102
RTVSPost2010Prop56
140
1.0
102
RTVSPost2010PropOp56
 70
     1
102
RTVSPost2010Prop57
140
1.0
102
RTVSPost2010PropOp57
 70
     1
102
RTVSPropertyOp0
 70
     1
102
RTVSPropertyOp1
 70
     1
102
RTVSPropertyOp2
 70
     1
102
RTVSPropertyOp3
 70
     1
102
RTVSPropertyOp4
 70
     1
102
RTVSPropertyOp5
 70
     1
102
RTVSPropertyOp6
 70
     1
102
RTVSPropertyOp7
 70
     1
102
RTVSPropertyOp8
 70
     1
102
RTVSPropertyOp9
 70
     1
102
RTVSPropertyOp10
 70
     1
102
RTVSPropertyOp11
 70
     1
102
RTVSPropertyOp12
 70
     1
102
RTVSPropertyOp13
 70
     1
102
RTVSPropertyOp14
 70
     1
102
RTVSPropertyOp15
 70
     1
102
RTVSPropertyOp16
 70
     1
102
RTVSPropertyOp17
 70
     1
102
RTVSPropertyOp18
 70
     1
102
RTVSPropertyOp19
 70
     1
102
RTVSPropertyOp20
 70
     1
102
RTVSPropertyOp21
 70
     1
102
RTVSPropertyOp22
 70
     1
102
RTVSPropertyOp23
 70
     1
102
RTVSPropertyOp24
 70
     1
102
RTVSPropertyOp25
 70
     1
102
RTVSPropertyOp26
 70
     1
102
RTVSPropertyOp27
 70
     1
102
RTVSPropertyOp28
 70
     1
102
RTVSPropertyOp29
 70
     1
102
RTVSPropertyOp30
 70
     1
102
RTVSPropertyOp31
 70
     1
102
RTVSPropertyOp32
 70
     1
102
RTVSPropertyOp33
 70
     1
102
RTVSPropertyOp34
 70
     1
102
RTVSPropertyOp35
 70
     1
102
RTVSPropertyOp36
 70
     1
102
RTVSPropertyOp37
 70
     1
102
RTVSPropertyOp38
 70
     1
102
RTVSPropertyOp39
 70
     1
102
RTVSPropertyOp40
 70
     1
102
RTVSPropertyOp41
 70
     1
102
RTVSPropertyOp42
 70
     1
102
RTVSPropertyOp43
 70
     1
102
RTVSPropertyOp44
 70
     1
102
RTVSPropertyOp45
 70
     1
102
RTVSPropertyOp46
 70
     1
102
RTVSPropertyOp47
 70
     1
102
RTVSPropertyOp48
 70
     1
102
RTVSPropertyOp49
 70
     1
102
RTVSPropertyOp50
 70
     1
102
RTVSPropertyOp51
 70
     0
102
RTVSPropertyOp52
 70
     0
102
RTVSPropertyOp53
 70
     1
102
RTVSPropertyOp54
 70
     1
102
RTVSPropertyOp55
 70
     1
102
RTVSPropertyOp56
 70
     1
102
RTVSPropertyOp57
 70
     1
102
RTVSPropertyOp58
 70
     1
102
RTVSPropertyOp59
 70
     1
102
RTVSPropertyOp60
 70
     1
102
RTVSPropertyOp61
 70
     1
102
RTVSPropertyOp62
 70
     1
  0
XRECORD
  5
169C3
102
{ACAD_REACTORS
330
169C2
102
}
330
169C2
100
AcDbXrecord
280
     1
102
RTVSPost2010Prop28
280
     0
102
RTVSPost2010PropOp28
 70
     1
102
RTVSPost2010Prop29
280
     1
102
RTVSPost2010PropOp29
 70
     1
102
RTVSPost2010Prop30
280
     1
102
RTVSPost2010PropOp30
 70
     1
102
RTVSPost2010Prop31
280
     0
102
RTVSPost2010PropOp31
 70
     1
102
RTVSPost2010Prop32
280
     0
102
RTVSPost2010PropOp32
 70
     1
102
RTVSPost2010Prop33
280
     0
102
RTVSPost2010PropOp33
 70
     1
102
RTVSPost2010Prop34
280
     0
102
RTVSPost2010PropOp34
 70
     1
102
RTVSPost2010Prop35
280
     0
102
RTVSPost2010PropOp35
 70
     1
102
RTVSPost2010Prop36
280
     0
102
RTVSPost2010PropOp36
 70
     1
102
RTVSPost2010Prop37
 90
       50
102
RTVSPost2010PropOp37
 70
     1
102
RTVSPost2010Prop38
140
0.0
102
RTVSPost2010PropOp38
 70
     1
102
RTVSPost2010Prop39
140
1.0
102
RTVSPost2010PropOp39
 70
     1
102
RTVSPost2010Prop40
 90
        0
102
RTVSPost2010PropOp40
 70
     1
102
RTVSPost2010Prop41ColorIndex
 90
       18
102
RTVSPost2010Prop41ColorRGB
 90
        0
102
RTVSPost2010PropOp41
 70
     1
102
RTVSPost2010Prop42
 90
       50
102
RTVSPost2010PropOp42
 70
     1
102
RTVSPost2010Prop43
 90
        3
102
RTVSPost2010PropOp43
 70
     1
102
RTVSPost2010Prop44ColorIndex
 90
        5
102
RTVSPost2010Prop44ColorRGB
 90
      255
102
RTVSPost2010PropOp44
 70
     1
102
RTVSPost2010Prop45
280
     0
102
RTVSPost2010PropOp45
 70
     1
102
RTVSPost2010Prop46
 90
       50
102
RTVSPost2010PropOp46
 70
     1
102
RTVSPost2010Prop47
 90
       50
102
RTVSPost2010PropOp47
 70
     1
102
RTVSPost2010Prop48
 90
       50
102
RTVSPost2010PropOp48
 70
     1
102
RTVSPost2010Prop49
280
     0
102
RTVSPost2010PropOp49
 70
     1
102
RTVSPost2010Prop50
 90
       50
102
RTVSPost2010PropOp50
 70
     1
102
RTVSPost2010Prop51ColorIndex
 90
      256
102
RTVSPost2010Prop51ColorRGB
 90
-16777216
102
RTVSPost2010PropOp51
 70
     0
102
RTVSPost2010Prop52
140
1.0
102
RTVSPost2010PropOp52
 70
     0
102
RTVSPost2010Prop53
 90
        2
102
RTVSPost2010PropOp53
 70
     1
102
RTVSPost2010Prop54
  1
strokes_ogs.tif
102
RTVSPost2010PropOp54
 70
     1
102
RTVSPost2010Prop55
280
     0
102
RTVSPost2010PropOp55
 70
     1
102
RTVSPost2010Prop56
140
1.0
102
RTVSPost2010PropOp56
 70
     1
102
RTVSPost2010Prop57
140
1.0
102
RTVSPost2010PropOp57
 70
     1
102
RTVSPropertyOp0
 70
     1
102
RTVSPropertyOp1
 70
     1
102
RTVSPropertyOp2
 70
     1
102
RTVSPropertyOp3
 70
     1
102
RTVSPropertyOp4
 70
     1
102
RTVSPropertyOp5
 70
     1
102
RTVSPropertyOp6
 70
     1
102
RTVSPropertyOp7
 70
     1
102
RTVSPropertyOp8
 70
     1
102
RTVSPropertyOp9
 70
     1
102
RTVSPropertyOp10
 70
     1
102
RTVSPropertyOp11
 70
     1
102
RTVSPropertyOp12
 70
     1
102
RTVSPropertyOp13
 70
     1
102
RTVSPropertyOp14
 70
     1
102
RTVSPropertyOp15
 70
     1
102
RTVSPropertyOp16
 70
     1
102
RTVSPropertyOp17
 70
     1
102
RTVSPropertyOp18
 70
     1
102
RTVSPropertyOp19
 70
     1
102
RTVSPropertyOp20
 70
     1
102
RTVSPropertyOp21
 70
     1
102
RTVSPropertyOp22
 70
     1
102
RTVSPropertyOp23
 70
     1
102
RTVSPropertyOp24
 70
     1
102
RTVSPropertyOp25
 70
     1
102
RTVSPropertyOp26
 70
     1
102
RTVSPropertyOp27
 70
     1
102
RTVSPropertyOp28
 70
     1
102
RTVSPropertyOp29
 70
     1
102
RTVSPropertyOp30
 70
     1
102
RTVSPropertyOp31
 70
     1
102
RTVSPropertyOp32
 70
     1
102
RTVSPropertyOp33
 70
     1
102
RTVSPropertyOp34
 70
     1
102
RTVSPropertyOp35
 70
     1
102
RTVSPropertyOp36
 70
     1
102
RTVSPropertyOp37
 70
     1
102
RTVSPropertyOp38
 70
     1
102
RTVSPropertyOp39
 70
     1
102
RTVSPropertyOp40
 70
     1
102
RTVSPropertyOp41
 70
     1
102
RTVSPropertyOp42
 70
     1
102
RTVSPropertyOp43
 70
     1
102
RTVSPropertyOp44
 70
     1
102
RTVSPropertyOp45
 70
     1
102
RTVSPropertyOp46
 70
     1
102
RTVSPropertyOp47
 70
     1
102
RTVSPropertyOp48
 70
     1
102
RTVSPropertyOp49
 70
     1
102
RTVSPropertyOp50
 70
     1
102
RTVSPropertyOp51
 70
     0
102
RTVSPropertyOp52
 70
     0
102
RTVSPropertyOp53
 70
     1
102
RTVSPropertyOp54
 70
     1
102
RTVSPropertyOp55
 70
     1
102
RTVSPropertyOp56
 70
     1
102
RTVSPropertyOp57
 70
     1
102
RTVSPropertyOp58
 70
     1
102
RTVSPropertyOp59
 70
     1
102
RTVSPropertyOp60
 70
     1
102
RTVSPropertyOp61
 70
     1
102
RTVSPropertyOp62
 70
     1
  0
XRECORD
  5
169BD
102
{ACAD_REACTORS
330
169BC
102
}
330
169BC
100
AcDbXrecord
280
     1
102
RTVSPost2010Prop28
280
     0
102
RTVSPost2010PropOp28
 70
     1
102
RTVSPost2010Prop29
280
     1
102
RTVSPost2010PropOp29
 70
     1
102
RTVSPost2010Prop30
280
     1
102
RTVSPost2010PropOp30
 70
     1
102
RTVSPost2010Prop31
280
     0
102
RTVSPost2010PropOp31
 70
     1
102
RTVSPost2010Prop32
280
     0
102
RTVSPost2010PropOp32
 70
     1
102
RTVSPost2010Prop33
280
     0
102
RTVSPost2010PropOp33
 70
     1
102
RTVSPost2010Prop34
280
     0
102
RTVSPost2010PropOp34
 70
     1
102
RTVSPost2010Prop35
280
     0
102
RTVSPost2010PropOp35
 70
     1
102
RTVSPost2010Prop36
280
     0
102
RTVSPost2010PropOp36
 70
     1
102
RTVSPost2010Prop37
 90
       50
102
RTVSPost2010PropOp37
 70
     1
102
RTVSPost2010Prop38
140
0.0
102
RTVSPost2010PropOp38
 70
     1
102
RTVSPost2010Prop39
140
1.0
102
RTVSPost2010PropOp39
 70
     1
102
RTVSPost2010Prop40
 90
        0
102
RTVSPost2010PropOp40
 70
     1
102
RTVSPost2010Prop41ColorIndex
 90
       18
102
RTVSPost2010Prop41ColorRGB
 90
        0
102
RTVSPost2010PropOp41
 70
     1
102
RTVSPost2010Prop42
 90
       50
102
RTVSPost2010PropOp42
 70
     1
102
RTVSPost2010Prop43
 90
        3
102
RTVSPost2010PropOp43
 70
     1
102
RTVSPost2010Prop44ColorIndex
 90
        5
102
RTVSPost2010Prop44ColorRGB
 90
      255
102
RTVSPost2010PropOp44
 70
     1
102
RTVSPost2010Prop45
280
     0
102
RTVSPost2010PropOp45
 70
     1
102
RTVSPost2010Prop46
 90
       50
102
RTVSPost2010PropOp46
 70
     1
102
RTVSPost2010Prop47
 90
       50
102
RTVSPost2010PropOp47
 70
     1
102
RTVSPost2010Prop48
 90
       50
102
RTVSPost2010PropOp48
 70
     1
102
RTVSPost2010Prop49
280
     0
102
RTVSPost2010PropOp49
 70
     1
102
RTVSPost2010Prop50
 90
       50
102
RTVSPost2010PropOp50
 70
     1
102
RTVSPost2010Prop51ColorIndex
 90
      256
102
RTVSPost2010Prop51ColorRGB
 90
-16777216
102
RTVSPost2010PropOp51
 70
     0
102
RTVSPost2010Prop52
140
1.0
102
RTVSPost2010PropOp52
 70
     0
102
RTVSPost2010Prop53
 90
        2
102
RTVSPost2010PropOp53
 70
     1
102
RTVSPost2010Prop54
  1
strokes_ogs.tif
102
RTVSPost2010PropOp54
 70
     1
102
RTVSPost2010Prop55
280
     0
102
RTVSPost2010PropOp55
 70
     1
102
RTVSPost2010Prop56
140
1.0
102
RTVSPost2010PropOp56
 70
     1
102
RTVSPost2010Prop57
140
1.0
102
RTVSPost2010PropOp57
 70
     1
102
RTVSPropertyOp0
 70
     1
102
RTVSPropertyOp1
 70
     1
102
RTVSPropertyOp2
 70
     1
102
RTVSPropertyOp3
 70
     1
102
RTVSPropertyOp4
 70
     1
102
RTVSPropertyOp5
 70
     1
102
RTVSPropertyOp6
 70
     1
102
RTVSPropertyOp7
 70
     1
102
RTVSPropertyOp8
 70
     1
102
RTVSPropertyOp9
 70
     1
102
RTVSPropertyOp10
 70
     1
102
RTVSPropertyOp11
 70
     1
102
RTVSPropertyOp12
 70
     1
102
RTVSPropertyOp13
 70
     1
102
RTVSPropertyOp14
 70
     1
102
RTVSPropertyOp15
 70
     1
102
RTVSPropertyOp16
 70
     1
102
RTVSPropertyOp17
 70
     1
102
RTVSPropertyOp18
 70
     1
102
RTVSPropertyOp19
 70
     1
102
RTVSPropertyOp20
 70
     1
102
RTVSPropertyOp21
 70
     1
102
RTVSPropertyOp22
 70
     1
102
RTVSPropertyOp23
 70
     1
102
RTVSPropertyOp24
 70
     1
102
RTVSPropertyOp25
 70
     1
102
RTVSPropertyOp26
 70
     1
102
RTVSPropertyOp27
 70
     1
102
RTVSPropertyOp28
 70
     1
102
RTVSPropertyOp29
 70
     1
102
RTVSPropertyOp30
 70
     1
102
RTVSPropertyOp31
 70
     1
102
RTVSPropertyOp32
 70
     1
102
RTVSPropertyOp33
 70
     1
102
RTVSPropertyOp34
 70
     1
102
RTVSPropertyOp35
 70
     1
102
RTVSPropertyOp36
 70
     1
102
RTVSPropertyOp37
 70
     1
102
RTVSPropertyOp38
 70
     1
102
RTVSPropertyOp39
 70
     1
102
RTVSPropertyOp40
 70
     1
102
RTVSPropertyOp41
 70
     1
102
RTVSPropertyOp42
 70
     1
102
RTVSPropertyOp43
 70
     1
102
RTVSPropertyOp44
 70
     1
102
RTVSPropertyOp45
 70
     1
102
RTVSPropertyOp46
 70
     1
102
RTVSPropertyOp47
 70
     1
102
RTVSPropertyOp48
 70
     1
102
RTVSPropertyOp49
 70
     1
102
RTVSPropertyOp50
 70
     1
102
RTVSPropertyOp51
 70
     0
102
RTVSPropertyOp52
 70
     0
102
RTVSPropertyOp53
 70
     1
102
RTVSPropertyOp54
 70
     1
102
RTVSPropertyOp55
 70
     1
102
RTVSPropertyOp56
 70
     1
102
RTVSPropertyOp57
 70
     1
102
RTVSPropertyOp58
 70
     1
102
RTVSPropertyOp59
 70
     1
102
RTVSPropertyOp60
 70
     1
102
RTVSPropertyOp61
 70
     1
102
RTVSPropertyOp62
 70
     1
  0
XRECORD
  5
169BF
102
{ACAD_REACTORS
330
169BE
102
}
330
169BE
100
AcDbXrecord
280
     1
102
RTVSPost2010Prop28
280
     0
102
RTVSPost2010PropOp28
 70
     1
102
RTVSPost2010Prop29
280
     1
102
RTVSPost2010PropOp29
 70
     1
102
RTVSPost2010Prop30
280
     1
102
RTVSPost2010PropOp30
 70
     1
102
RTVSPost2010Prop31
280
     0
102
RTVSPost2010PropOp31
 70
     1
102
RTVSPost2010Prop32
280
     0
102
RTVSPost2010PropOp32
 70
     1
102
RTVSPost2010Prop33
280
     0
102
RTVSPost2010PropOp33
 70
     1
102
RTVSPost2010Prop34
280
     0
102
RTVSPost2010PropOp34
 70
     1
102
RTVSPost2010Prop35
280
     0
102
RTVSPost2010PropOp35
 70
     1
102
RTVSPost2010Prop36
280
     0
102
RTVSPost2010PropOp36
 70
     1
102
RTVSPost2010Prop37
 90
       50
102
RTVSPost2010PropOp37
 70
     1
102
RTVSPost2010Prop38
140
0.0
102
RTVSPost2010PropOp38
 70
     1
102
RTVSPost2010Prop39
140
1.0
102
RTVSPost2010PropOp39
 70
     1
102
RTVSPost2010Prop40
 90
        0
102
RTVSPost2010PropOp40
 70
     1
102
RTVSPost2010Prop41ColorIndex
 90
       18
102
RTVSPost2010Prop41ColorRGB
 90
        0
102
RTVSPost2010PropOp41
 70
     1
102
RTVSPost2010Prop42
 90
       50
102
RTVSPost2010PropOp42
 70
     1
102
RTVSPost2010Prop43
 90
        3
102
RTVSPost2010PropOp43
 70
     1
102
RTVSPost2010Prop44ColorIndex
 90
        5
102
RTVSPost2010Prop44ColorRGB
 90
      255
102
RTVSPost2010PropOp44
 70
     1
102
RTVSPost2010Prop45
280
     0
102
RTVSPost2010PropOp45
 70
     1
102
RTVSPost2010Prop46
 90
       50
102
RTVSPost2010PropOp46
 70
     1
102
RTVSPost2010Prop47
 90
       50
102
RTVSPost2010PropOp47
 70
     1
102
RTVSPost2010Prop48
 90
       50
102
RTVSPost2010PropOp48
 70
     1
102
RTVSPost2010Prop49
280
     0
102
RTVSPost2010PropOp49
 70
     1
102
RTVSPost2010Prop50
 90
       50
102
RTVSPost2010PropOp50
 70
     1
102
RTVSPost2010Prop51ColorIndex
 90
      256
102
RTVSPost2010Prop51ColorRGB
 90
-16777216
102
RTVSPost2010PropOp51
 70
     0
102
RTVSPost2010Prop52
140
1.0
102
RTVSPost2010PropOp52
 70
     0
102
RTVSPost2010Prop53
 90
        2
102
RTVSPost2010PropOp53
 70
     1
102
RTVSPost2010Prop54
  1
strokes_ogs.tif
102
RTVSPost2010PropOp54
 70
     1
102
RTVSPost2010Prop55
280
     0
102
RTVSPost2010PropOp55
 70
     1
102
RTVSPost2010Prop56
140
1.0
102
RTVSPost2010PropOp56
 70
     1
102
RTVSPost2010Prop57
140
1.0
102
RTVSPost2010PropOp57
 70
     1
102
RTVSPropertyOp0
 70
     1
102
RTVSPropertyOp1
 70
     1
102
RTVSPropertyOp2
 70
     1
102
RTVSPropertyOp3
 70
     1
102
RTVSPropertyOp4
 70
     1
102
RTVSPropertyOp5
 70
     1
102
RTVSPropertyOp6
 70
     1
102
RTVSPropertyOp7
 70
     1
102
RTVSPropertyOp8
 70
     1
102
RTVSPropertyOp9
 70
     1
102
RTVSPropertyOp10
 70
     1
102
RTVSPropertyOp11
 70
     1
102
RTVSPropertyOp12
 70
     1
102
RTVSPropertyOp13
 70
     1
102
RTVSPropertyOp14
 70
     1
102
RTVSPropertyOp15
 70
     1
102
RTVSPropertyOp16
 70
     1
102
RTVSPropertyOp17
 70
     1
102
RTVSPropertyOp18
 70
     1
102
RTVSPropertyOp19
 70
     1
102
RTVSPropertyOp20
 70
     1
102
RTVSPropertyOp21
 70
     1
102
RTVSPropertyOp22
 70
     1
102
RTVSPropertyOp23
 70
     1
102
RTVSPropertyOp24
 70
     1
102
RTVSPropertyOp25
 70
     1
102
RTVSPropertyOp26
 70
     1
102
RTVSPropertyOp27
 70
     1
102
RTVSPropertyOp28
 70
     1
102
RTVSPropertyOp29
 70
     1
102
RTVSPropertyOp30
 70
     1
102
RTVSPropertyOp31
 70
     1
102
RTVSPropertyOp32
 70
     1
102
RTVSPropertyOp33
 70
     1
102
RTVSPropertyOp34
 70
     1
102
RTVSPropertyOp35
 70
     1
102
RTVSPropertyOp36
 70
     1
102
RTVSPropertyOp37
 70
     1
102
RTVSPropertyOp38
 70
     1
102
RTVSPropertyOp39
 70
     1
102
RTVSPropertyOp40
 70
     1
102
RTVSPropertyOp41
 70
     1
102
RTVSPropertyOp42
 70
     1
102
RTVSPropertyOp43
 70
     1
102
RTVSPropertyOp44
 70
     1
102
RTVSPropertyOp45
 70
     1
102
RTVSPropertyOp46
 70
     1
102
RTVSPropertyOp47
 70
     1
102
RTVSPropertyOp48
 70
     1
102
RTVSPropertyOp49
 70
     1
102
RTVSPropertyOp50
 70
     1
102
RTVSPropertyOp51
 70
     0
102
RTVSPropertyOp52
 70
     0
102
RTVSPropertyOp53
 70
     1
102
RTVSPropertyOp54
 70
     1
102
RTVSPropertyOp55
 70
     1
102
RTVSPropertyOp56
 70
     1
102
RTVSPropertyOp57
 70
     1
102
RTVSPropertyOp58
 70
     1
102
RTVSPropertyOp59
 70
     1
102
RTVSPropertyOp60
 70
     1
102
RTVSPropertyOp61
 70
     1
102
RTVSPropertyOp62
 70
     1
  0
XRECORD
  5
169B5
102
{ACAD_REACTORS
330
169B4
102
}
330
169B4
100
AcDbXrecord
280
     1
102
RTVSPost2010Prop28
280
     0
102
RTVSPost2010PropOp28
 70
     1
102
RTVSPost2010Prop29
280
     1
102
RTVSPost2010PropOp29
 70
     1
102
RTVSPost2010Prop30
280
     1
102
RTVSPost2010PropOp30
 70
     1
102
RTVSPost2010Prop31
280
     0
102
RTVSPost2010PropOp31
 70
     1
102
RTVSPost2010Prop32
280
     0
102
RTVSPost2010PropOp32
 70
     1
102
RTVSPost2010Prop33
280
     0
102
RTVSPost2010PropOp33
 70
     1
102
RTVSPost2010Prop34
280
     0
102
RTVSPost2010PropOp34
 70
     1
102
RTVSPost2010Prop35
280
     0
102
RTVSPost2010PropOp35
 70
     1
102
RTVSPost2010Prop36
280
     0
102
RTVSPost2010PropOp36
 70
     1
102
RTVSPost2010Prop37
 90
       50
102
RTVSPost2010PropOp37
 70
     1
102
RTVSPost2010Prop38
140
0.0
102
RTVSPost2010PropOp38
 70
     1
102
RTVSPost2010Prop39
140
1.0
102
RTVSPost2010PropOp39
 70
     1
102
RTVSPost2010Prop40
 90
        0
102
RTVSPost2010PropOp40
 70
     1
102
RTVSPost2010Prop41ColorIndex
 90
       18
102
RTVSPost2010Prop41ColorRGB
 90
        0
102
RTVSPost2010PropOp41
 70
     1
102
RTVSPost2010Prop42
 90
       50
102
RTVSPost2010PropOp42
 70
     1
102
RTVSPost2010Prop43
 90
        3
102
RTVSPost2010PropOp43
 70
     1
102
RTVSPost2010Prop44ColorIndex
 90
        5
102
RTVSPost2010Prop44ColorRGB
 90
      255
102
RTVSPost2010PropOp44
 70
     1
102
RTVSPost2010Prop45
280
     0
102
RTVSPost2010PropOp45
 70
     1
102
RTVSPost2010Prop46
 90
       50
102
RTVSPost2010PropOp46
 70
     1
102
RTVSPost2010Prop47
 90
       50
102
RTVSPost2010PropOp47
 70
     1
102
RTVSPost2010Prop48
 90
       50
102
RTVSPost2010PropOp48
 70
     1
102
RTVSPost2010Prop49
280
     0
102
RTVSPost2010PropOp49
 70
     1
102
RTVSPost2010Prop50
 90
       50
102
RTVSPost2010PropOp50
 70
     1
102
RTVSPost2010Prop51ColorIndex
 90
      256
102
RTVSPost2010Prop51ColorRGB
 90
-16777216
102
RTVSPost2010PropOp51
 70
     0
102
RTVSPost2010Prop52
140
1.0
102
RTVSPost2010PropOp52
 70
     0
102
RTVSPost2010Prop53
 90
        2
102
RTVSPost2010PropOp53
 70
     1
102
RTVSPost2010Prop54
  1
strokes_ogs.tif
102
RTVSPost2010PropOp54
 70
     1
102
RTVSPost2010Prop55
280
     0
102
RTVSPost2010PropOp55
 70
     1
102
RTVSPost2010Prop56
140
1.0
102
RTVSPost2010PropOp56
 70
     1
102
RTVSPost2010Prop57
140
1.0
102
RTVSPost2010PropOp57
 70
     1
102
RTVSPropertyOp0
 70
     1
102
RTVSPropertyOp1
 70
     1
102
RTVSPropertyOp2
 70
     1
102
RTVSPropertyOp3
 70
     1
102
RTVSPropertyOp4
 70
     1
102
RTVSPropertyOp5
 70
     1
102
RTVSPropertyOp6
 70
     1
102
RTVSPropertyOp7
 70
     1
102
RTVSPropertyOp8
 70
     1
102
RTVSPropertyOp9
 70
     1
102
RTVSPropertyOp10
 70
     1
102
RTVSPropertyOp11
 70
     1
102
RTVSPropertyOp12
 70
     1
102
RTVSPropertyOp13
 70
     1
102
RTVSPropertyOp14
 70
     1
102
RTVSPropertyOp15
 70
     1
102
RTVSPropertyOp16
 70
     1
102
RTVSPropertyOp17
 70
     1
102
RTVSPropertyOp18
 70
     1
102
RTVSPropertyOp19
 70
     1
102
RTVSPropertyOp20
 70
     1
102
RTVSPropertyOp21
 70
     1
102
RTVSPropertyOp22
 70
     1
102
RTVSPropertyOp23
 70
     1
102
RTVSPropertyOp24
 70
     1
102
RTVSPropertyOp25
 70
     1
102
RTVSPropertyOp26
 70
     1
102
RTVSPropertyOp27
 70
     1
102
RTVSPropertyOp28
 70
     1
102
RTVSPropertyOp29
 70
     1
102
RTVSPropertyOp30
 70
     1
102
RTVSPropertyOp31
 70
     1
102
RTVSPropertyOp32
 70
     1
102
RTVSPropertyOp33
 70
     1
102
RTVSPropertyOp34
 70
     1
102
RTVSPropertyOp35
 70
     1
102
RTVSPropertyOp36
 70
     1
102
RTVSPropertyOp37
 70
     1
102
RTVSPropertyOp38
 70
     1
102
RTVSPropertyOp39
 70
     1
102
RTVSPropertyOp40
 70
     1
102
RTVSPropertyOp41
 70
     1
102
RTVSPropertyOp42
 70
     1
102
RTVSPropertyOp43
 70
     1
102
RTVSPropertyOp44
 70
     1
102
RTVSPropertyOp45
 70
     1
102
RTVSPropertyOp46
 70
     1
102
RTVSPropertyOp47
 70
     1
102
RTVSPropertyOp48
 70
     1
102
RTVSPropertyOp49
 70
     1
102
RTVSPropertyOp50
 70
     1
102
RTVSPropertyOp51
 70
     0
102
RTVSPropertyOp52
 70
     0
102
RTVSPropertyOp53
 70
     1
102
RTVSPropertyOp54
 70
     1
102
RTVSPropertyOp55
 70
     1
102
RTVSPropertyOp56
 70
     1
102
RTVSPropertyOp57
 70
     1
102
RTVSPropertyOp58
 70
     1
102
RTVSPropertyOp59
 70
     1
102
RTVSPropertyOp60
 70
     1
102
RTVSPropertyOp61
 70
     1
102
RTVSPropertyOp62
 70
     1
  0
XRECORD
  5
169A9
102
{ACAD_REACTORS
330
169A8
102
}
330
169A8
100
AcDbXrecord
280
     1
102
RTVSPost2010Prop28
280
     0
102
RTVSPost2010PropOp28
 70
     1
102
RTVSPost2010Prop29
280
     1
102
RTVSPost2010PropOp29
 70
     1
102
RTVSPost2010Prop30
280
     1
102
RTVSPost2010PropOp30
 70
     1
102
RTVSPost2010Prop31
280
     0
102
RTVSPost2010PropOp31
 70
     1
102
RTVSPost2010Prop32
280
     0
102
RTVSPost2010PropOp32
 70
     1
102
RTVSPost2010Prop33
280
     0
102
RTVSPost2010PropOp33
 70
     1
102
RTVSPost2010Prop34
280
     0
102
RTVSPost2010PropOp34
 70
     1
102
RTVSPost2010Prop35
280
     0
102
RTVSPost2010PropOp35
 70
     1
102
RTVSPost2010Prop36
280
     0
102
RTVSPost2010PropOp36
 70
     1
102
RTVSPost2010Prop37
 90
       50
102
RTVSPost2010PropOp37
 70
     1
102
RTVSPost2010Prop38
140
0.0
102
RTVSPost2010PropOp38
 70
     1
102
RTVSPost2010Prop39
140
1.0
102
RTVSPost2010PropOp39
 70
     1
102
RTVSPost2010Prop40
 90
        0
102
RTVSPost2010PropOp40
 70
     1
102
RTVSPost2010Prop41ColorIndex
 90
       18
102
RTVSPost2010Prop41ColorRGB
 90
        0
102
RTVSPost2010PropOp41
 70
     1
102
RTVSPost2010Prop42
 90
       50
102
RTVSPost2010PropOp42
 70
     1
102
RTVSPost2010Prop43
 90
        3
102
RTVSPost2010PropOp43
 70
     1
102
RTVSPost2010Prop44ColorIndex
 90
        5
102
RTVSPost2010Prop44ColorRGB
 90
      255
102
RTVSPost2010PropOp44
 70
     1
102
RTVSPost2010Prop45
280
     0
102
RTVSPost2010PropOp45
 70
     1
102
RTVSPost2010Prop46
 90
       50
102
RTVSPost2010PropOp46
 70
     1
102
RTVSPost2010Prop47
 90
       50
102
RTVSPost2010PropOp47
 70
     1
102
RTVSPost2010Prop48
 90
       50
102
RTVSPost2010PropOp48
 70
     1
102
RTVSPost2010Prop49
280
     0
102
RTVSPost2010PropOp49
 70
     1
102
RTVSPost2010Prop50
 90
       50
102
RTVSPost2010PropOp50
 70
     1
102
RTVSPost2010Prop51ColorIndex
 90
      256
102
RTVSPost2010Prop51ColorRGB
 90
-16777216
102
RTVSPost2010PropOp51
 70
     0
102
RTVSPost2010Prop52
140
1.0
102
RTVSPost2010PropOp52
 70
     0
102
RTVSPost2010Prop53
 90
        2
102
RTVSPost2010PropOp53
 70
     1
102
RTVSPost2010Prop54
  1
strokes_ogs.tif
102
RTVSPost2010PropOp54
 70
     1
102
RTVSPost2010Prop55
280
     0
102
RTVSPost2010PropOp55
 70
     1
102
RTVSPost2010Prop56
140
1.0
102
RTVSPost2010PropOp56
 70
     1
102
RTVSPost2010Prop57
140
1.0
102
RTVSPost2010PropOp57
 70
     1
102
RTVSPropertyOp0
 70
     1
102
RTVSPropertyOp1
 70
     1
102
RTVSPropertyOp2
 70
     1
102
RTVSPropertyOp3
 70
     1
102
RTVSPropertyOp4
 70
     1
102
RTVSPropertyOp5
 70
     1
102
RTVSPropertyOp6
 70
     1
102
RTVSPropertyOp7
 70
     1
102
RTVSPropertyOp8
 70
     1
102
RTVSPropertyOp9
 70
     1
102
RTVSPropertyOp10
 70
     1
102
RTVSPropertyOp11
 70
     1
102
RTVSPropertyOp12
 70
     1
102
RTVSPropertyOp13
 70
     1
102
RTVSPropertyOp14
 70
     1
102
RTVSPropertyOp15
 70
     1
102
RTVSPropertyOp16
 70
     1
102
RTVSPropertyOp17
 70
     1
102
RTVSPropertyOp18
 70
     1
102
RTVSPropertyOp19
 70
     1
102
RTVSPropertyOp20
 70
     1
102
RTVSPropertyOp21
 70
     1
102
RTVSPropertyOp22
 70
     1
102
RTVSPropertyOp23
 70
     1
102
RTVSPropertyOp24
 70
     1
102
RTVSPropertyOp25
 70
     1
102
RTVSPropertyOp26
 70
     1
102
RTVSPropertyOp27
 70
     1
102
RTVSPropertyOp28
 70
     1
102
RTVSPropertyOp29
 70
     1
102
RTVSPropertyOp30
 70
     1
102
RTVSPropertyOp31
 70
     1
102
RTVSPropertyOp32
 70
     1
102
RTVSPropertyOp33
 70
     1
102
RTVSPropertyOp34
 70
     1
102
RTVSPropertyOp35
 70
     1
102
RTVSPropertyOp36
 70
     1
102
RTVSPropertyOp37
 70
     1
102
RTVSPropertyOp38
 70
     1
102
RTVSPropertyOp39
 70
     1
102
RTVSPropertyOp40
 70
     1
102
RTVSPropertyOp41
 70
     1
102
RTVSPropertyOp42
 70
     1
102
RTVSPropertyOp43
 70
     1
102
RTVSPropertyOp44
 70
     1
102
RTVSPropertyOp45
 70
     1
102
RTVSPropertyOp46
 70
     1
102
RTVSPropertyOp47
 70
     1
102
RTVSPropertyOp48
 70
     1
102
RTVSPropertyOp49
 70
     1
102
RTVSPropertyOp50
 70
     1
102
RTVSPropertyOp51
 70
     0
102
RTVSPropertyOp52
 70
     0
102
RTVSPropertyOp53
 70
     1
102
RTVSPropertyOp54
 70
     1
102
RTVSPropertyOp55
 70
     1
102
RTVSPropertyOp56
 70
     1
102
RTVSPropertyOp57
 70
     1
102
RTVSPropertyOp58
 70
     1
102
RTVSPropertyOp59
 70
     1
102
RTVSPropertyOp60
 70
     1
102
RTVSPropertyOp61
 70
     1
102
RTVSPropertyOp62
 70
     1
  0
XRECORD
  5
169C1
102
{ACAD_REACTORS
330
169C0
102
}
330
169C0
100
AcDbXrecord
280
     1
102
RTVSPost2010Prop28
280
     0
102
RTVSPost2010PropOp28
 70
     1
102
RTVSPost2010Prop29
280
     1
102
RTVSPost2010PropOp29
 70
     1
102
RTVSPost2010Prop30
280
     1
102
RTVSPost2010PropOp30
 70
     1
102
RTVSPost2010Prop31
280
     0
102
RTVSPost2010PropOp31
 70
     1
102
RTVSPost2010Prop32
280
     0
102
RTVSPost2010PropOp32
 70
     1
102
RTVSPost2010Prop33
280
     0
102
RTVSPost2010PropOp33
 70
     1
102
RTVSPost2010Prop34
280
     0
102
RTVSPost2010PropOp34
 70
     1
102
RTVSPost2010Prop35
280
     0
102
RTVSPost2010PropOp35
 70
     1
102
RTVSPost2010Prop36
280
     0
102
RTVSPost2010PropOp36
 70
     1
102
RTVSPost2010Prop37
 90
       50
102
RTVSPost2010PropOp37
 70
     1
102
RTVSPost2010Prop38
140
0.0
102
RTVSPost2010PropOp38
 70
     1
102
RTVSPost2010Prop39
140
1.0
102
RTVSPost2010PropOp39
 70
     1
102
RTVSPost2010Prop40
 90
        0
102
RTVSPost2010PropOp40
 70
     1
102
RTVSPost2010Prop41ColorIndex
 90
       18
102
RTVSPost2010Prop41ColorRGB
 90
        0
102
RTVSPost2010PropOp41
 70
     1
102
RTVSPost2010Prop42
 90
       50
102
RTVSPost2010PropOp42
 70
     1
102
RTVSPost2010Prop43
 90
        3
102
RTVSPost2010PropOp43
 70
     1
102
RTVSPost2010Prop44ColorIndex
 90
        5
102
RTVSPost2010Prop44ColorRGB
 90
      255
102
RTVSPost2010PropOp44
 70
     1
102
RTVSPost2010Prop45
280
     0
102
RTVSPost2010PropOp45
 70
     1
102
RTVSPost2010Prop46
 90
       50
102
RTVSPost2010PropOp46
 70
     1
102
RTVSPost2010Prop47
 90
       50
102
RTVSPost2010PropOp47
 70
     1
102
RTVSPost2010Prop48
 90
       50
102
RTVSPost2010PropOp48
 70
     1
102
RTVSPost2010Prop49
280
     0
102
RTVSPost2010PropOp49
 70
     1
102
RTVSPost2010Prop50
 90
       50
102
RTVSPost2010PropOp50
 70
     1
102
RTVSPost2010Prop51ColorIndex
 90
      256
102
RTVSPost2010Prop51ColorRGB
 90
-16777216
102
RTVSPost2010PropOp51
 70
     0
102
RTVSPost2010Prop52
140
1.0
102
RTVSPost2010PropOp52
 70
     0
102
RTVSPost2010Prop53
 90
        2
102
RTVSPost2010PropOp53
 70
     1
102
RTVSPost2010Prop54
  1
strokes_ogs.tif
102
RTVSPost2010PropOp54
 70
     1
102
RTVSPost2010Prop55
280
     0
102
RTVSPost2010PropOp55
 70
     1
102
RTVSPost2010Prop56
140
1.0
102
RTVSPost2010PropOp56
 70
     1
102
RTVSPost2010Prop57
140
1.0
102
RTVSPost2010PropOp57
 70
     1
102
RTVSPropertyOp0
 70
     1
102
RTVSPropertyOp1
 70
     1
102
RTVSPropertyOp2
 70
     1
102
RTVSPropertyOp3
 70
     1
102
RTVSPropertyOp4
 70
     1
102
RTVSPropertyOp5
 70
     1
102
RTVSPropertyOp6
 70
     1
102
RTVSPropertyOp7
 70
     1
102
RTVSPropertyOp8
 70
     1
102
RTVSPropertyOp9
 70
     1
102
RTVSPropertyOp10
 70
     1
102
RTVSPropertyOp11
 70
     1
102
RTVSPropertyOp12
 70
     1
102
RTVSPropertyOp13
 70
     1
102
RTVSPropertyOp14
 70
     1
102
RTVSPropertyOp15
 70
     1
102
RTVSPropertyOp16
 70
     1
102
RTVSPropertyOp17
 70
     1
102
RTVSPropertyOp18
 70
     1
102
RTVSPropertyOp19
 70
     1
102
RTVSPropertyOp20
 70
     1
102
RTVSPropertyOp21
 70
     1
102
RTVSPropertyOp22
 70
     1
102
RTVSPropertyOp23
 70
     1
102
RTVSPropertyOp24
 70
     1
102
RTVSPropertyOp25
 70
     1
102
RTVSPropertyOp26
 70
     1
102
RTVSPropertyOp27
 70
     1
102
RTVSPropertyOp28
 70
     1
102
RTVSPropertyOp29
 70
     1
102
RTVSPropertyOp30
 70
     1
102
RTVSPropertyOp31
 70
     1
102
RTVSPropertyOp32
 70
     1
102
RTVSPropertyOp33
 70
     1
102
RTVSPropertyOp34
 70
     1
102
RTVSPropertyOp35
 70
     1
102
RTVSPropertyOp36
 70
     1
102
RTVSPropertyOp37
 70
     1
102
RTVSPropertyOp38
 70
     1
102
RTVSPropertyOp39
 70
     1
102
RTVSPropertyOp40
 70
     1
102
RTVSPropertyOp41
 70
     1
102
RTVSPropertyOp42
 70
     1
102
RTVSPropertyOp43
 70
     1
102
RTVSPropertyOp44
 70
     1
102
RTVSPropertyOp45
 70
     1
102
RTVSPropertyOp46
 70
     1
102
RTVSPropertyOp47
 70
     1
102
RTVSPropertyOp48
 70
     1
102
RTVSPropertyOp49
 70
     1
102
RTVSPropertyOp50
 70
     1
102
RTVSPropertyOp51
 70
     0
102
RTVSPropertyOp52
 70
     0
102
RTVSPropertyOp53
 70
     1
102
RTVSPropertyOp54
 70
     1
102
RTVSPropertyOp55
 70
     1
102
RTVSPropertyOp56
 70
     1
102
RTVSPropertyOp57
 70
     1
102
RTVSPropertyOp58
 70
     1
102
RTVSPropertyOp59
 70
     1
102
RTVSPropertyOp60
 70
     1
102
RTVSPropertyOp61
 70
     1
102
RTVSPropertyOp62
 70
     1
  0
ENDSEC
  0
EOF
