  0
SECTION
  2
HEADER
  9
$ACADVER
  1
AC1015
  9
$ACADMAINTVER
 70
    20
  9
$DWGCODEPAGE
  3
ANSI_932
  9
$INSBASE
 10
0.0
 20
0.0
 30
0.0
  9
$EXTMIN
 10
139.8427842704986
 20
-0.264306497767393
 30
-0.0000000000000053
  9
$EXTMAX
 10
16307.98708817691
 20
11409.90526204624
 30
0.0000000000000099
  9
$LIMMIN
 10
-25.79074261211281
 20
-125.8223078213959
  9
$LIMMAX
 10
16471.10331197129
 20
11496.44801950658
  9
$ORTHOMODE
 70
     0
  9
$REGENMODE
 70
     1
  9
$FILLMODE
 70
     1
  9
$QTEXTMODE
 70
     0
  9
$MIRRTEXT
 70
     1
  9
$LTSCALE
 40
20.0
  9
$ATTMODE
 70
     1
  9
$TEXTSIZE
 40
100.0
  9
$TRACEWID
 40
1.0
  9
$TEXTSTYLE
  7
STYLE3
  9
$CLAYER
  8
寸法
  9
$CELTYPE
  6
BYLAYER
  9
$CECOLOR
 62
   256
  9
$CELTSCALE
 40
50.0
  9
$DISPSILH
 70
     0
  9
$DIMSCALE
 40
40.0
  9
$DIMASZ
 40
2.5
  9
$DIMEXO
 40
0.5
  9
$DIMDLI
 40
7.0
  9
$DIMRND
 40
0.0
  9
$DIMDLE
 40
0.0
  9
$DIMEXE
 40
1.5
  9
$DIMTP
 40
0.0
  9
$DIMTM
 40
0.0
  9
$DIMTXT
 40
3.0
  9
$DIMCEN
 40
0.0
  9
$DIMTSZ
 40
0.0
  9
$DIMTOL
 70
     0
  9
$DIMLIM
 70
     0
  9
$DIMTIH
 70
     0
  9
$DIMTOH
 70
     0
  9
$DIMSE1
 70
     0
  9
$DIMSE2
 70
     0
  9
$DIMTAD
 70
     3
  9
$DIMZIN
 70
     8
  9
$DIMBLK
  1

  9
$DIMASO
 70
     1
  9
$DIMSHO
 70
     1
  9
$DIMPOST
  1

  9
$DIMAPOST
  1

  9
$DIMALT
 70
     0
  9
$DIMALTD
 70
     2
  9
$DIMALTF
 40
0.0394
  9
$DIMLFAC
 40
1.0
  9
$DIMTOFL
 70
     1
  9
$DIMTVP
 40
0.0
  9
$DIMTIX
 70
     1
  9
$DIMSOXD
 70
     0
  9
$DIMSAH
 70
     1
  9
$DIMBLK1
  1
DOTSMALL
  9
$DIMBLK2
  1
DOTSMALL
  9
$DIMSTYLE
  2
INABA_S40G
  9
$DIMCLRD
 70
     0
  9
$DIMCLRE
 70
     0
  9
$DIMCLRT
 70
     7
  9
$DIMTFAC
 40
1.0
  9
$DIMGAP
 40
1.0
  9
$DIMJUST
 70
     0
  9
$DIMSD1
 70
     0
  9
$DIMSD2
 70
     0
  9
$DIMTOLJ
 70
     1
  9
$DIMTZIN
 70
     0
  9
$DIMALTZ
 70
     0
  9
$DIMALTTZ
 70
     0
  9
$DIMUPT
 70
     0
  9
$DIMDEC
 70
     1
  9
$DIMTDEC
 70
     4
  9
$DIMALTU
 70
     2
  9
$DIMALTTD
 70
     2
  9
$DIMTXSTY
  7
STYLE1
  9
$DIMAUNIT
 70
     0
  9
$DIMADEC
 70
     0
  9
$DIMALTRND
 40
0.0
  9
$DIMAZIN
 70
     0
  9
$DIMDSEP
 70
    46
  9
$DIMATFIT
 70
     3
  9
$DIMFRAC
 70
     0
  9
$DIMLDRBLK
  1

  9
$DIMLUNIT
 70
     2
  9
$DIMLWD
 70
    -2
  9
$DIMLWE
 70
    -2
  9
$DIMTMOVE
 70
     0
  9
$LUNITS
 70
     2
  9
$LUPREC
 70
     1
  9
$SKETCHINC
 40
1.0
  9
$FILLETRAD
 40
5.0
  9
$AUNITS
 70
     0
  9
$AUPREC
 70
     0
  9
$MENU
  1
acad
  9
$ELEVATION
 40
0.0
  9
$PELEVATION
 40
0.0
  9
$THICKNESS
 40
0.0
  9
$LIMCHECK
 70
     0
  9
$CHAMFERA
 40
0.0
  9
$CHAMFERB
 40
0.0
  9
$CHAMFERC
 40
0.0
  9
$CHAMFERD
 40
0.0
  9
$SKPOLY
 70
     0
  9
$TDCREATE
 40
2452116.684896065
  9
$TDUCREATE
 40
2452116.309896065
  9
$TDUPDATE
 40
2457984.451339248
  9
$TDUUPDATE
 40
2457984.076339247
  9
$TDINDWG
 40
0.4930662731
  9
$TDUSRTIMER
 40
0.4930662731
  9
$USRTIMER
 70
     1
  9
$ANGBASE
 50
0.0
  9
$ANGDIR
 70
     0
  9
$PDMODE
 70
     3
  9
$PDSIZE
 40
2.0
  9
$PLINEWID
 40
0.0
  9
$SPLFRAME
 70
     0
  9
$SPLINETYPE
 70
     6
  9
$SPLINESEGS
 70
     8
  9
$HANDSEED
  5
16377
  9
$SURFTAB1
 70
     6
  9
$SURFTAB2
 70
     6
  9
$SURFTYPE
 70
     6
  9
$SURFU
 70
     6
  9
$SURFV
 70
     6
  9
$UCSBASE
  2

  9
$UCSNAME
  2

  9
$UCSORG
 10
0.0
 20
0.0
 30
0.0
  9
$UCSXDIR
 10
1.0
 20
0.0
 30
0.0
  9
$UCSYDIR
 10
0.0
 20
1.0
 30
0.0
  9
$UCSORTHOREF
  2

  9
$UCSORTHOVIEW
 70
     0
  9
$UCSORGTOP
 10
0.0
 20
0.0
 30
0.0
  9
$UCSORGBOTTOM
 10
0.0
 20
0.0
 30
0.0
  9
$UCSORGLEFT
 10
0.0
 20
0.0
 30
0.0
  9
$UCSORGRIGHT
 10
0.0
 20
0.0
 30
0.0
  9
$UCSORGFRONT
 10
0.0
 20
0.0
 30
0.0
  9
$UCSORGBACK
 10
0.0
 20
0.0
 30
0.0
  9
$PUCSBASE
  2

  9
$PUCSNAME
  2

  9
$PUCSORG
 10
0.0
 20
0.0
 30
0.0
  9
$PUCSXDIR
 10
1.0
 20
0.0
 30
0.0
  9
$PUCSYDIR
 10
0.0
 20
1.0
 30
0.0
  9
$PUCSORTHOREF
  2

  9
$PUCSORTHOVIEW
 70
     0
  9
$PUCSORGTOP
 10
0.0
 20
0.0
 30
0.0
  9
$PUCSORGBOTTOM
 10
0.0
 20
0.0
 30
0.0
  9
$PUCSORGLEFT
 10
0.0
 20
0.0
 30
0.0
  9
$PUCSORGRIGHT
 10
0.0
 20
0.0
 30
0.0
  9
$PUCSORGFRONT
 10
0.0
 20
0.0
 30
0.0
  9
$PUCSORGBACK
 10
0.0
 20
0.0
 30
0.0
  9
$USERI1
 70
     0
  9
$USERI2
 70
     0
  9
$USERI3
 70
     0
  9
$USERI4
 70
     0
  9
$USERI5
 70
     0
  9
$USERR1
 40
0.0
  9
$USERR2
 40
0.0
  9
$USERR3
 40
0.0
  9
$USERR4
 40
0.0
  9
$USERR5
 40
0.0
  9
$WORLDVIEW
 70
     1
  9
$SHADEDGE
 70
     3
  9
$SHADEDIF
 70
    70
  9
$TILEMODE
 70
     1
  9
$MAXACTVP
 70
    16
  9
$PINSBASE
 10
0.0
 20
0.0
 30
0.0
  9
$PLIMCHECK
 70
     0
  9
$PEXTMIN
 10
1.000000000000000E+20
 20
1.000000000000000E+20
 30
1.000000000000000E+20
  9
$PEXTMAX
 10
-1.000000000000000E+20
 20
-1.000000000000000E+20
 30
-1.000000000000000E+20
  9
$PLIMMIN
 10
0.0
 20
0.0
  9
$PLIMMAX
 10
420.0
 20
297.0
  9
$UNITMODE
 70
     0
  9
$VISRETAIN
 70
     0
  9
$PLINEGEN
 70
     0
  9
$PSLTSCALE
 70
     0
  9
$TREEDEPTH
 70
  3020
  9
$CMLSTYLE
  2
STANDARD
  9
$CMLJUST
 70
     0
  9
$CMLSCALE
 40
1.0
  9
$PROXYGRAPHICS
 70
     1
  9
$MEASUREMENT
 70
     1
  9
$CELWEIGHT
370
    -1
  9
$ENDCAPS
280
     0
  9
$JOINSTYLE
280
     0
  9
$LWDISPLAY
290
     0
  9
$INSUNITS
 70
     0
  9
$HYPERLINKBASE
  1

  9
$STYLESHEET
  1
inabass.ctb
  9
$XEDIT
290
     1
  9
$CEPSNTYPE
380
     0
  9
$PSTYLEMODE
290
     1
  9
$FINGERPRINTGUID
  2
{0FE33C6F-BAE9-40F4-9DED-307E91CAB260}
  9
$VERSIONGUID
  2
{3FAEEF60-D2AB-42EB-8AC3-277EFFBACA7C}
  9
$EXTNAMES
290
     1
  9
$PSVPSCALE
 40
0.0
  9
$OLESTARTUP
290
     0
  0
ENDSEC
  0
SECTION
  2
CLASSES
  0
CLASS
  1
ACDBDICTIONARYWDFLT
  2
AcDbDictionaryWithDefault
  3
ObjectDBX Classes
 90
        0
280
     0
281
     0
  0
CLASS
  1
MATERIAL
  2
AcDbMaterial
  3
ObjectDBX Classes
 90
     1153
280
     0
281
     0
  0
CLASS
  1
VISUALSTYLE
  2
AcDbVisualStyle
  3
ObjectDBX Classes
 90
     4095
280
     0
281
     0
  0
CLASS
  1
TABLESTYLE
  2
AcDbTableStyle
  3
ObjectDBX Classes
 90
     4095
280
     0
281
     0
  0
CLASS
  1
SCALE
  2
AcDbScale
  3
ObjectDBX Classes
 90
     1153
280
     0
281
     0
  0
CLASS
  1
MLEADERSTYLE
  2
AcDbMLeaderStyle
  3
ACDB_MLEADERSTYLE_CLASS
 90
     4095
280
     0
281
     0
  0
CLASS
  1
ACDBSECTIONVIEWSTYLE
  2
AcDbSectionViewStyle
  3
ObjectDBX Classes
 90
     1025
280
     0
281
     0
  0
CLASS
  1
ACDBDETAILVIEWSTYLE
  2
AcDbDetailViewStyle
  3
ObjectDBX Classes
 90
     1025
280
     0
281
     0
  0
CLASS
  1
DICTIONARYVAR
  2
AcDbDictionaryVar
  3
ObjectDBX Classes
 90
        0
280
     0
281
     0
  0
CLASS
  1
SORTENTSTABLE
  2
AcDbSortentsTable
  3
ObjectDBX Classes
 90
    32768
280
     0
281
     0
  0
CLASS
  1
CELLSTYLEMAP
  2
AcDbCellStyleMap
  3
ObjectDBX Classes
 90
     1152
280
     0
281
     0
  0
CLASS
  1
ACDBPLACEHOLDER
  2
AcDbPlaceHolder
  3
ObjectDBX Classes
 90
        0
280
     0
281
     0
  0
CLASS
  1
LAYOUT
  2
AcDbLayout
  3
ObjectDBX Classes
 90
        0
280
     0
281
     0
  0
ENDSEC
  0
SECTION
  2
TABLES
  0
TABLE
  2
VPORT
  5
746D
330
0
100
AcDbSymbolTable
 70
     1
  0
VPORT
  5
1610D
330
746D
100
AcDbSymbolTableRecord
100
AcDbViewportTableRecord
  2
*Active
 70
     0
 10
0.0
 20
0.0
 11
1.0
 21
1.0
 12
8222.656284679592
 22
5685.312855842594
 13
0.0
 23
0.0
 14
10.0
 24
10.0
 15
10.0
 25
10.0
 16
0.0
 26
0.0
 36
1.0
 17
0.0
 27
0.0
 37
0.0
 40
11713.55108077679
 41
1.646596858638743
 42
50.0
 43
0.0
 44
0.0
 50
0.0
 51
0.0
 71
     0
 72
     0
 73
     1
 74
     0
 75
     0
 76
     0
 77
     0
 78
     0
281
     0
 65
     1
110
0.0
120
0.0
130
0.0
111
1.0
121
0.0
131
0.0
112
0.0
122
1.0
132
0.0
 79
     0
146
0.0
1001
ACAD_NAV_VCDISPLAY
1070
     3
  0
ENDTAB
  0
TABLE
  2
LTYPE
  5
746A
330
0
100
AcDbSymbolTable
 70
     4
  0
LTYPE
  5
7477
330
746A
100
AcDbSymbolTableRecord
100
AcDbLinetypeTableRecord
  2
BYBLOCK
 70
     0
  3

 72
    65
 73
     0
 40
0.0
  0
LTYPE
  5
7478
330
746A
100
AcDbSymbolTableRecord
100
AcDbLinetypeTableRecord
  2
BYLAYER
 70
     0
  3

 72
    65
 73
     0
 40
0.0
  0
LTYPE
  5
7479
330
746A
100
AcDbSymbolTableRecord
100
AcDbLinetypeTableRecord
  2
CONTINUOUS
 70
     0
  3
Solid line
 72
    65
 73
     0
 40
0.0
  0
LTYPE
  5
7816
330
746A
100
AcDbSymbolTableRecord
100
AcDbLinetypeTableRecord
  2
CENTER
 70
     0
  3
____ _ ____ _ ____ _ ____ _ ____ _ ____ _ ____ 
 72
    65
 73
     4
 40
2.0
 49
1.25
 74
     0
 49
-0.25
 74
     0
 49
0.25
 74
     0
 49
-0.25
 74
     0
  0
LTYPE
  5
781A
330
746A
100
AcDbSymbolTableRecord
100
AcDbLinetypeTableRecord
  2
HIDDEN
 70
     0
  3
__ __ __ __ __ __ __ __ __ __ __ __ __ __ __ __
 72
    65
 73
     2
 40
0.375
 49
0.25
 74
     0
 49
-0.125
 74
     0
  0
LTYPE
  5
781B
330
746A
100
AcDbSymbolTableRecord
100
AcDbLinetypeTableRecord
  2
PHANTOM
 70
     0
  3
______  __  __  ______  __  __  ______  __  __ 
 72
    65
 73
     6
 40
2.5
 49
1.25
 74
     0
 49
-0.25
 74
     0
 49
0.25
 74
     0
 49
-0.25
 74
     0
 49
0.25
 74
     0
 49
-0.25
 74
     0
  0
ENDTAB
  0
TABLE
  2
LAYER
  5
7467
102
{ACAD_XDICTIONARY
360
15648
102
}
330
0
100
AcDbSymbolTable
 70
    13
  0
LAYER
  5
7474
102
{ACAD_XDICTIONARY
360
16279
102
}
330
7467
100
AcDbSymbolTableRecord
100
AcDbLayerTableRecord
  2
0
 70
     0
 62
     7
  6
CONTINUOUS
370
    -3
390
154CC
  0
LAYER
  5
DEB2
102
{ACAD_XDICTIONARY
360
1627B
102
}
330
7467
100
AcDbSymbolTableRecord
100
AcDbLayerTableRecord
  2
センター
 70
     0
 62
     3
  6
CENTER
370
    -3
390
154CC
  0
LAYER
  5
DEB3
102
{ACAD_XDICTIONARY
360
1627D
102
}
330
7467
100
AcDbSymbolTableRecord
100
AcDbLayerTableRecord
  2
寸法
 70
     0
 62
     4
  6
CONTINUOUS
370
    -3
390
154CC
  0
LAYER
  5
DEB4
102
{ACAD_XDICTIONARY
360
1627F
102
}
330
7467
100
AcDbSymbolTableRecord
100
AcDbLayerTableRecord
  2
部品1
 70
     0
 62
     7
  6
CONTINUOUS
370
    -3
390
154CC
  0
LAYER
  5
DEB5
102
{ACAD_XDICTIONARY
360
16281
102
}
330
7467
100
AcDbSymbolTableRecord
100
AcDbLayerTableRecord
  2
補助
 70
     0
 62
    -1
  6
CONTINUOUS
370
    -3
390
154CC
  0
LAYER
  5
DEB6
102
{ACAD_XDICTIONARY
360
16283
102
}
330
7467
100
AcDbSymbolTableRecord
100
AcDbLayerTableRecord
  2
文字
 70
     0
 62
     7
  6
CONTINUOUS
370
    -3
390
154CC
  0
LAYER
  5
F255
330
7467
100
AcDbSymbolTableRecord
100
AcDbLayerTableRecord
  2
DEFPOINTS
 70
     0
 62
     7
  6
CONTINUOUS
290
     0
370
    -3
390
154CC
  0
LAYER
  5
10B54
102
{ACAD_XDICTIONARY
360
16285
102
}
330
7467
100
AcDbSymbolTableRecord
100
AcDbLayerTableRecord
  2
仕様書枠
 70
     0
 62
   230
  6
CONTINUOUS
370
    -3
390
154CC
  0
LAYER
  5
11729
102
{ACAD_XDICTIONARY
360
16287
102
}
330
7467
100
AcDbSymbolTableRecord
100
AcDbLayerTableRecord
  2
Ｇ．Ｌ
 70
     0
 62
    30
  6
CONTINUOUS
370
    -3
390
154CC
  0
LAYER
  5
1173F
102
{ACAD_XDICTIONARY
360
16289
102
}
330
7467
100
AcDbSymbolTableRecord
100
AcDbLayerTableRecord
  2
細線
 70
     0
 62
     5
  6
CONTINUOUS
370
    -3
390
154CC
  0
LAYER
  5
118A1
102
{ACAD_XDICTIONARY
360
1628B
102
}
330
7467
100
AcDbSymbolTableRecord
100
AcDbLayerTableRecord
  2
想像線
 70
     0
 62
     6
  6
PHANTOM
370
    -3
390
154CC
  0
LAYER
  5
123C1
102
{ACAD_XDICTIONARY
360
1628D
102
}
330
7467
100
AcDbSymbolTableRecord
100
AcDbLayerTableRecord
  2
破線
 70
     0
 62
     2
  6
HIDDEN
370
    -3
390
154CC
  0
LAYER
  5
162E4
102
{ACAD_XDICTIONARY
360
162E5
102
}
330
7467
100
AcDbSymbolTableRecord
100
AcDbLayerTableRecord
  2
部品
 70
     0
 62
     7
  6
CONTINUOUS
370
    -3
390
154CC
  0
ENDTAB
  0
TABLE
  2
STYLE
  5
7468
330
0
100
AcDbSymbolTable
 70
     5
  0
STYLE
  5
7475
330
7468
100
AcDbSymbolTableRecord
100
AcDbTextStyleTableRecord
  2
STANDARD
 70
     0
 40
0.0
 41
1.0
 50
0.0
 71
     0
 42
4.0
  3
txt
  4
C:\AutoCAD LT\bigfont.shx
  0
STYLE
  5
F706
330
7468
100
AcDbSymbolTableRecord
100
AcDbTextStyleTableRecord
  2
STYLE1
 70
     0
 40
0.0
 41
1.0
 50
0.0
 71
     0
 42
4.0
  3
isocp.shx
  4
bigfont.shx
  0
STYLE
  5
103BF
330
7468
100
AcDbSymbolTableRecord
100
AcDbTextStyleTableRecord
  2
STYLE2
 70
     0
 40
0.0
 41
1.0
 50
0.0
 71
     0
 42
100.0
  3
MS PGothic.ttf
  4

1001
ACAD
1000
MS PGothic
1071
    32818
  0
STYLE
  5
10BAA
330
7468
100
AcDbSymbolTableRecord
100
AcDbTextStyleTableRecord
  2
STYLE3
 70
     0
 40
0.0
 41
1.0
 50
0.0
 71
     0
 42
100.0
  3
DFPGothic-EB.ttf
  4

1001
ACAD
1000
DFPGothic-EB
1071
    32818
  0
ENDTAB
  0
TABLE
  2
VIEW
  5
746B
330
0
100
AcDbSymbolTable
 70
     0
  0
ENDTAB
  0
TABLE
  2
UCS
  5
746C
330
0
100
AcDbSymbolTable
 70
     0
  0
ENDTAB
  0
TABLE
  2
APPID
  5
746E
330
0
100
AcDbSymbolTable
 70
    10
  0
APPID
  5
7476
330
746E
100
AcDbSymbolTableRecord
100
AcDbRegAppTableRecord
  2
ACAD
 70
     0
  0
APPID
  5
DEA9
330
746E
100
AcDbSymbolTableRecord
100
AcDbRegAppTableRecord
  2
CONTENTBLOCKICON
 70
     0
  0
APPID
  5
DEAA
330
746E
100
AcDbSymbolTableRecord
100
AcDbRegAppTableRecord
  2
CONTENTBLOCKDESCRIPTION
 70
     0
  0
APPID
  5
E71D
330
746E
100
AcDbSymbolTableRecord
100
AcDbRegAppTableRecord
  2
CONTENTTABDATA
 70
     0
  0
APPID
  5
E71E
330
746E
100
AcDbSymbolTableRecord
100
AcDbRegAppTableRecord
  2
CONTENTCURRENTTAB
 70
     0
  0
APPID
  5
F3BA
330
746E
100
AcDbSymbolTableRecord
100
AcDbRegAppTableRecord
  2
DRAWINGVARIABLESXDATA
 70
     0
  0
APPID
  5
16164
330
746E
100
AcDbSymbolTableRecord
100
AcDbRegAppTableRecord
  2
ACAD_NAV_VCDISPLAY
 70
     0
  0
APPID
  5
16271
330
746E
100
AcDbSymbolTableRecord
100
AcDbRegAppTableRecord
  2
ACAD_EXEMPT_FROM_CAD_STANDARDS
 70
     0
  0
APPID
  5
162C4
330
746E
100
AcDbSymbolTableRecord
100
AcDbRegAppTableRecord
  2
ACAD_PSEXT
 70
     0
  0
APPID
  5
16372
330
746E
100
AcDbSymbolTableRecord
100
AcDbRegAppTableRecord
  2
ACAD_MLEADERVER
 70
     0
  0
ENDTAB
  0
TABLE
  2
DIMSTYLE
  5
746F
330
0
100
AcDbSymbolTable
 70
     3
100
AcDbDimStyleTable
 71
     1
340
F71F
  0
DIMSTYLE
105
7484
330
746F
100
AcDbSymbolTableRecord
100
AcDbDimStyleTableRecord
  2
JIS
 70
     0
 41
2.5
 42
1.0
 43
7.0
 44
1.0
 73
     0
 74
     0
 77
     1
 78
     8
140
2.5
141
0.0
143
0.0394
147
0.0
172
     1
174
     1
175
     1
340
7475
  0
DIMSTYLE
105
F71F
102
{ACAD_REACTORS
330
13B23
330
15024
330
1502E
330
15033
330
15097
330
15098
330
15099
330
1509A
330
1509B
330
1509C
330
1509E
330
1509F
330
150A1
330
150A6
330
150A7
330
1546D
330
154BC
330
15874
330
15875
330
1589D
330
1589E
330
1589F
330
158A0
330
158A4
330
158A5
330
158B9
330
15990
330
15991
330
15992
330
159A1
330
162F3
102
}
330
746F
100
AcDbSymbolTableRecord
100
AcDbDimStyleTableRecord
  2
INABA_S40G
 70
     0
 40
40.0
 41
2.5
 42
0.5
 43
7.0
 44
1.5
 73
     0
 74
     0
 77
     3
 78
     8
140
3.0
141
0.0
143
0.0394
147
1.0
172
     1
173
     1
174
     1
178
     7
271
     1
340
F706
341
F770
343
F770
344
F770
  0
ENDTAB
  0
TABLE
  2
BLOCK_RECORD
  5
7466
330
0
100
AcDbSymbolTable
 70
    35
  0
BLOCK_RECORD
  5
747D
330
7466
100
AcDbSymbolTableRecord
100
AcDbBlockTableRecord
  2
*MODEL_SPACE
340
154D1
  0
BLOCK_RECORD
  5
747A
330
7466
100
AcDbSymbolTableRecord
100
AcDbBlockTableRecord
  2
*PAPER_SPACE
340
154D2
  0
BLOCK_RECORD
  5
F770
330
7466
100
AcDbSymbolTableRecord
100
AcDbBlockTableRecord
  2
_DOTSMALL
340
0
102
{BLKREFS
331
15F61
331
15F62
331
15F6C
331
15F6D
331
15F75
331
15F76
331
15F7E
331
15F7F
331
15F87
331
15F88
331
15F90
331
15F91
331
15F9B
331
15F9C
331
15FA4
331
15FA5
331
15FAD
331
15FAE
331
15FB8
331
15FB9
331
15FC1
331
15FC2
331
15FCB
331
15FCC
331
15FD5
331
15FD6
331
15FF0
331
15FF1
331
15FF9
331
15FFA
331
16002
331
16003
331
1600B
331
1600C
331
16014
331
16015
331
1601D
331
1601E
331
16028
331
16029
331
16033
331
16034
331
1603C
331
1603D
331
16045
331
16046
331
16050
331
16051
331
16059
331
1605A
331
16062
331
16063
331
16076
331
16077
331
1607F
331
16080
331
1609C
331
1609D
331
160A6
331
160A7
331
16309
331
1630A
102
}
  0
BLOCK_RECORD
  5
13C83
330
7466
100
AcDbSymbolTableRecord
100
AcDbBlockTableRecord
  2
*D1
340
0
  0
BLOCK_RECORD
  5
150FE
330
7466
100
AcDbSymbolTableRecord
100
AcDbBlockTableRecord
  2
*D2
340
0
  0
BLOCK_RECORD
  5
1510C
330
7466
100
AcDbSymbolTableRecord
100
AcDbBlockTableRecord
  2
*D3
340
0
  0
BLOCK_RECORD
  5
15130
330
7466
100
AcDbSymbolTableRecord
100
AcDbBlockTableRecord
  2
*D4
340
0
  0
BLOCK_RECORD
  5
15148
330
7466
100
AcDbSymbolTableRecord
100
AcDbBlockTableRecord
  2
*D5
340
0
  0
BLOCK_RECORD
  5
15154
330
7466
100
AcDbSymbolTableRecord
100
AcDbBlockTableRecord
  2
*D6
340
0
  0
BLOCK_RECORD
  5
15162
330
7466
100
AcDbSymbolTableRecord
100
AcDbBlockTableRecord
  2
*D7
340
0
  0
BLOCK_RECORD
  5
1516E
330
7466
100
AcDbSymbolTableRecord
100
AcDbBlockTableRecord
  2
*D8
340
0
  0
BLOCK_RECORD
  5
1517A
330
7466
100
AcDbSymbolTableRecord
100
AcDbBlockTableRecord
  2
*D9
340
0
  0
BLOCK_RECORD
  5
15188
330
7466
100
AcDbSymbolTableRecord
100
AcDbBlockTableRecord
  2
*D10
340
0
  0
BLOCK_RECORD
  5
15196
330
7466
100
AcDbSymbolTableRecord
100
AcDbBlockTableRecord
  2
*D11
340
0
  0
BLOCK_RECORD
  5
151A2
330
7466
100
AcDbSymbolTableRecord
100
AcDbBlockTableRecord
  2
*D12
340
0
  0
BLOCK_RECORD
  5
151AE
330
7466
100
AcDbSymbolTableRecord
100
AcDbBlockTableRecord
  2
*D13
340
0
  0
BLOCK_RECORD
  5
151BA
330
7466
100
AcDbSymbolTableRecord
100
AcDbBlockTableRecord
  2
*D14
340
0
  0
BLOCK_RECORD
  5
151C6
330
7466
100
AcDbSymbolTableRecord
100
AcDbBlockTableRecord
  2
*D15
340
0
  0
BLOCK_RECORD
  5
1546E
330
7466
100
AcDbSymbolTableRecord
100
AcDbBlockTableRecord
  2
*D16
340
0
  0
BLOCK_RECORD
  5
154BD
330
7466
100
AcDbSymbolTableRecord
100
AcDbBlockTableRecord
  2
*D17
340
0
  0
BLOCK_RECORD
  5
15A82
330
7466
100
AcDbSymbolTableRecord
100
AcDbBlockTableRecord
  2
*D19
340
0
  0
BLOCK_RECORD
  5
15A8F
330
7466
100
AcDbSymbolTableRecord
100
AcDbBlockTableRecord
  2
*D20
340
0
  0
BLOCK_RECORD
  5
15A9C
330
7466
100
AcDbSymbolTableRecord
100
AcDbBlockTableRecord
  2
*D21
340
0
  0
BLOCK_RECORD
  5
15AA8
330
7466
100
AcDbSymbolTableRecord
100
AcDbBlockTableRecord
  2
*D22
340
0
  0
BLOCK_RECORD
  5
15AB6
330
7466
100
AcDbSymbolTableRecord
100
AcDbBlockTableRecord
  2
*D23
340
0
  0
BLOCK_RECORD
  5
15AC2
330
7466
100
AcDbSymbolTableRecord
100
AcDbBlockTableRecord
  2
*D24
340
0
  0
BLOCK_RECORD
  5
15ACE
330
7466
100
AcDbSymbolTableRecord
100
AcDbBlockTableRecord
  2
*D25
340
0
  0
BLOCK_RECORD
  5
15ADC
330
7466
100
AcDbSymbolTableRecord
100
AcDbBlockTableRecord
  2
*D26
340
0
  0
BLOCK_RECORD
  5
15AE8
330
7466
100
AcDbSymbolTableRecord
100
AcDbBlockTableRecord
  2
*D27
340
0
  0
BLOCK_RECORD
  5
15AF4
330
7466
100
AcDbSymbolTableRecord
100
AcDbBlockTableRecord
  2
*D28
340
0
  0
BLOCK_RECORD
  5
15B00
330
7466
100
AcDbSymbolTableRecord
100
AcDbBlockTableRecord
  2
*D29
340
0
  0
BLOCK_RECORD
  5
15B0C
330
7466
100
AcDbSymbolTableRecord
100
AcDbBlockTableRecord
  2
*D30
340
0
  0
BLOCK_RECORD
  5
15B1A
330
7466
100
AcDbSymbolTableRecord
100
AcDbBlockTableRecord
  2
*D31
340
0
  0
BLOCK_RECORD
  5
162FA
330
7466
100
AcDbSymbolTableRecord
100
AcDbBlockTableRecord
  2
*D33
340
0
  0
ENDTAB
  0
ENDSEC
  0
SECTION
  2
BLOCKS
  0
BLOCK
  5
7489
330
747D
100
AcDbEntity
  8
0
100
AcDbBlockBegin
  2
*MODEL_SPACE
 70
     0
 10
0.0
 20
0.0
 30
0.0
  3
*MODEL_SPACE
  1

  0
ENDBLK
  5
748A
330
747D
100
AcDbEntity
  8
0
100
AcDbBlockEnd
  0
BLOCK
  5
7487
330
747A
100
AcDbEntity
 67
     1
  8
0
100
AcDbBlockBegin
  2
*PAPER_SPACE
 70
     0
 10
0.0
 20
0.0
 30
0.0
  3
*PAPER_SPACE
  1

  0
ENDBLK
  5
7488
330
747A
100
AcDbEntity
 67
     1
  8
0
100
AcDbBlockEnd
  0
BLOCK
  5
F771
330
F770
100
AcDbEntity
  8
0
 48
50.0
100
AcDbBlockBegin
  2
_DOTSMALL
 70
     0
 10
0.0
 20
0.0
 30
0.0
  3
_DOTSMALL
  1

  0
LWPOLYLINE
  5
F772
330
F770
100
AcDbEntity
  8
0
  6
ByBlock
 62
     0
 48
50.0
100
AcDbPolyline
 90
        2
 70
     1
 43
0.5
 10
-0.0625
 20
0.0
 42
1.0
 10
0.0625
 20
0.0
 42
1.0
  0
ENDBLK
  5
F776
330
F770
100
AcDbEntity
  8
0
 48
50.0
100
AcDbBlockEnd
  0
BLOCK
  5
1477E
330
13C83
100
AcDbEntity
  8
0
 48
50.0
100
AcDbBlockBegin
  2
*D1
 70
     1
 10
0.0
 20
0.0
 30
0.0
  3
*D1
  1

  0
LINE
  5
1607C
330
13C83
100
AcDbEntity
  8
寸法
 62
     0
 48
50.0
370
    -2
100
AcDbLine
 10
5439.4849982394
 20
8214.581830763574
 30
0.0
 11
5439.4849982394
 21
7187.479955903502
 31
0.0
  0
LINE
  5
1607D
330
13C83
100
AcDbEntity
  8
寸法
 62
     0
 48
50.0
370
    -2
100
AcDbLine
 10
7079.484998239383
 20
8214.581830763703
 30
0.0
 11
7079.484998239383
 21
7187.479955903502
 31
0.0
  0
LINE
  5
1607E
330
13C83
100
AcDbEntity
  8
寸法
 62
     0
 48
50.0
370
    -2
100
AcDbLine
 10
5439.4849982394
 20
7247.479955903502
 30
0.0
 11
7079.484998239383
 21
7247.479955903502
 31
0.0
  0
INSERT
  5
1607F
330
13C83
100
AcDbEntity
  8
寸法
 62
     0
 48
50.0
370
    -2
100
AcDbBlockReference
  2
_DOTSMALL
 10
5439.4849982394
 20
7247.479955903502
 30
0.0
 41
100.0
 42
100.0
 43
100.0
 50
180.0
  0
INSERT
  5
16080
330
13C83
100
AcDbEntity
  8
寸法
 62
     0
 48
50.0
370
    -2
100
AcDbBlockReference
  2
_DOTSMALL
 10
7079.484998239383
 20
7247.479955903502
 30
0.0
 41
100.0
 42
100.0
 43
100.0
  0
MTEXT
  5
16081
330
13C83
100
AcDbEntity
  8
寸法
 62
     7
 48
50.0
100
AcDbMText
 10
6251.236540082384
 20
7347.479955903502
 30
0.0
 40
120.0
 41
0.0
 71
     5
 72
     1
  1
\A1;1640
  7
STYLE1
 73
     1
 44
1.0
1001
ACAD
1000
MTEXTBEGIN
1070
    73
1070
     1
1070
    44
1040
1.0
1070
    74
1070
     0
1000
MTEXTEND
  0
POINT
  5
16082
330
13C83
100
AcDbEntity
  8
DEFPOINTS
 62
     0
 48
50.0
100
AcDbPoint
 10
5439.4849982394
 20
8234.581830763572
 30
0.0
  0
POINT
  5
16083
330
13C83
100
AcDbEntity
  8
DEFPOINTS
 62
     0
 48
50.0
100
AcDbPoint
 10
7079.484998239383
 20
8234.581830763703
 30
0.0
  0
POINT
  5
16084
330
13C83
100
AcDbEntity
  8
DEFPOINTS
 62
     0
 48
50.0
100
AcDbPoint
 10
7079.484998239383
 20
7247.479955903502
 30
0.0
  0
ENDBLK
  5
14788
330
13C83
100
AcDbEntity
  8
0
 48
50.0
100
AcDbBlockEnd
  0
BLOCK
  5
15250
330
150FE
100
AcDbEntity
  8
0
 48
50.0
100
AcDbBlockBegin
  2
*D2
 70
     1
 10
0.0
 20
0.0
 30
0.0
  3
*D2
  1

  0
LINE
  5
16071
330
150FE
100
AcDbEntity
  8
寸法
 62
     0
 48
50.0
370
    -2
100
AcDbLine
 10
7024.484998239408
 20
9784.581830763713
 30
0.0
 11
7024.484998239408
 21
10040.39005038869
 31
0.0
  0
LINE
  5
16072
330
150FE
100
AcDbEntity
  8
寸法
 62
     0
 48
50.0
370
    -2
100
AcDbLine
 10
7079.484998239408
 20
9784.581830763713
 30
0.0
 11
7079.484998239408
 21
10040.39005038869
 31
0.0
  0
LINE
  5
16073
330
150FE
100
AcDbEntity
  8
寸法
 62
     0
 48
50.0
370
    -2
100
AcDbLine
 10
7024.484998239408
 20
9980.390050388692
 30
0.0
 11
6924.484998239408
 21
9980.390050388692
 31
0.0
  0
LINE
  5
16074
330
150FE
100
AcDbEntity
  8
寸法
 62
     0
 48
50.0
370
    -2
100
AcDbLine
 10
7079.484998239408
 20
9980.390050388692
 30
0.0
 11
7496.455560987887
 21
9980.390050388692
 31
0.0
  0
LINE
  5
16075
330
150FE
100
AcDbEntity
  8
寸法
 62
     0
 48
50.0
370
    -2
100
AcDbLine
 10
7024.484998239408
 20
9980.390050388692
 30
0.0
 11
7079.484998239408
 21
9980.390050388692
 31
0.0
  0
INSERT
  5
16076
330
150FE
100
AcDbEntity
  8
寸法
 62
     0
 48
50.0
370
    -2
100
AcDbBlockReference
  2
_DOTSMALL
 10
7024.484998239408
 20
9980.390050388692
 30
0.0
 41
100.0
 42
100.0
 43
100.0
  0
INSERT
  5
16077
330
150FE
100
AcDbEntity
  8
寸法
 62
     0
 48
50.0
370
    -2
100
AcDbBlockReference
  2
_DOTSMALL
 10
7079.484998239408
 20
9980.390050388692
 30
0.0
 41
100.0
 42
100.0
 43
100.0
 50
180.0
  0
MTEXT
  5
16078
330
150FE
100
AcDbEntity
  8
寸法
 62
     7
 48
50.0
100
AcDbMText
 10
7387.970279613648
 20
10080.39005038869
 30
0.0
 40
120.0
 41
0.0
 71
     5
 72
     1
  1
\A1;55
  7
STYLE1
 73
     1
 44
1.0
1001
ACAD
1000
MTEXTBEGIN
1070
    73
1070
     1
1070
    44
1040
1.0
1070
    74
1070
     0
1000
MTEXTEND
  0
POINT
  5
16079
330
150FE
100
AcDbEntity
  8
DEFPOINTS
 62
     0
 48
50.0
100
AcDbPoint
 10
7024.484998239408
 20
9764.581830763711
 30
0.0
  0
POINT
  5
1607A
330
150FE
100
AcDbEntity
  8
DEFPOINTS
 62
     0
 48
50.0
100
AcDbPoint
 10
7079.484998239408
 20
9764.581830763711
 30
0.0
  0
POINT
  5
1607B
330
150FE
100
AcDbEntity
  8
DEFPOINTS
 62
     0
 48
50.0
100
AcDbPoint
 10
7079.484998239408
 20
9980.390050388692
 30
0.0
  0
ENDBLK
  5
1525C
330
150FE
100
AcDbEntity
  8
0
 48
50.0
100
AcDbBlockEnd
  0
BLOCK
  5
1525D
330
1510C
100
AcDbEntity
  8
0
 48
50.0
100
AcDbBlockBegin
  2
*D3
 70
     1
 10
0.0
 20
0.0
 30
0.0
  3
*D3
  1

  0
LINE
  5
160A3
330
1510C
100
AcDbEntity
  8
寸法
 62
     0
 48
50.0
370
    -2
100
AcDbLine
 10
6283.626021068419
 20
9265.081830763625
 30
0.0
 11
6222.712259537921
 21
9037.748577851671
 31
0.0
  0
LINE
  5
160A4
330
1510C
100
AcDbEntity
  8
寸法
 62
     0
 48
50.0
370
    -2
100
AcDbLine
 10
7044.62602106843
 20
9265.081830763618
 30
0.0
 11
6983.712259537934
 21
9037.748577851671
 31
0.0
  0
LINE
  5
160A5
330
1510C
100
AcDbEntity
  8
寸法
 62
     0
 48
50.0
370
    -2
100
AcDbLine
 10
6238.789211083788
 20
9097.748577851671
 30
0.0
 11
6999.7892110838
 21
9097.748577851671
 31
0.0
  0
INSERT
  5
160A6
330
1510C
100
AcDbEntity
  8
寸法
 62
     0
 48
50.0
370
    -2
100
AcDbBlockReference
  2
_DOTSMALL
 10
6238.789211083788
 20
9097.748577851671
 30
0.0
 41
100.0
 42
100.0
 43
100.0
 50
180.0
  0
INSERT
  5
160A7
330
1510C
100
AcDbEntity
  8
寸法
 62
     0
 48
50.0
370
    -2
100
AcDbBlockReference
  2
_DOTSMALL
 10
6999.7892110838
 20
9097.748577851671
 30
0.0
 41
100.0
 42
100.0
 43
100.0
  0
MTEXT
  5
160A8
330
1510C
100
AcDbEntity
  8
寸法
 62
     7
 48
50.0
100
AcDbMText
 10
6610.791508623067
 20
9197.748577851671
 30
0.0
 40
120.0
 41
0.0
 71
     5
 72
     1
  1
\A1;761
  7
STYLE1
 73
     1
 44
1.0
1001
ACAD
1000
MTEXTBEGIN
1070
    73
1070
     1
1070
    44
1040
1.0
1070
    74
1070
     0
1000
MTEXTEND
  0
POINT
  5
160A9
330
1510C
100
AcDbEntity
  8
DEFPOINTS
 62
     0
 48
50.0
100
AcDbPoint
 10
6288.985004917042
 20
9285.081830763623
 30
0.0
  0
POINT
  5
160AA
330
1510C
100
AcDbEntity
  8
DEFPOINTS
 62
     0
 48
50.0
100
AcDbPoint
 10
7049.985004917053
 20
9285.081830763616
 30
0.0
  0
POINT
  5
160AB
330
1510C
100
AcDbEntity
  8
DEFPOINTS
 62
     0
 48
50.0
100
AcDbPoint
 10
6999.7892110838
 20
9097.748577851671
 30
0.0
  0
ENDBLK
  5
15267
330
1510C
100
AcDbEntity
  8
0
 48
50.0
100
AcDbBlockEnd
  0
BLOCK
  5
1527E
330
15130
100
AcDbEntity
  8
0
 48
50.0
100
AcDbBlockBegin
  2
*D4
 70
     1
 10
0.0
 20
0.0
 30
0.0
  3
*D4
  1

  0
LINE
  5
1605F
330
15130
100
AcDbEntity
  8
寸法
 62
     0
 48
50.0
370
    -2
100
AcDbLine
 10
6314.484998239404
 20
8214.581830763609
 30
0.0
 11
6314.484998239404
 21
7734.758162968532
 31
0.0
  0
LINE
  5
16060
330
15130
100
AcDbEntity
  8
寸法
 62
     0
 48
50.0
370
    -2
100
AcDbLine
 10
6999.484998239402
 20
8214.581830763574
 30
0.0
 11
6999.484998239402
 21
7734.758162968532
 31
0.0
  0
LINE
  5
16061
330
15130
100
AcDbEntity
  8
寸法
 62
     0
 48
50.0
370
    -2
100
AcDbLine
 10
6314.484998239404
 20
7794.758162968531
 30
0.0
 11
6999.484998239402
 21
7794.758162968531
 31
0.0
  0
INSERT
  5
16062
330
15130
100
AcDbEntity
  8
寸法
 62
     0
 48
50.0
370
    -2
100
AcDbBlockReference
  2
_DOTSMALL
 10
6314.484998239404
 20
7794.758162968531
 30
0.0
 41
100.0
 42
100.0
 43
100.0
 50
180.0
  0
INSERT
  5
16063
330
15130
100
AcDbEntity
  8
寸法
 62
     0
 48
50.0
370
    -2
100
AcDbBlockReference
  2
_DOTSMALL
 10
6999.484998239402
 20
7794.758162968531
 30
0.0
 41
100.0
 42
100.0
 43
100.0
  0
MTEXT
  5
16064
330
15130
100
AcDbEntity
  8
寸法
 62
     7
 48
50.0
100
AcDbMText
 10
6656.984998239403
 20
7994.758162968532
 30
0.0
 40
120.0
 41
0.0
 71
     5
 72
     1
  1
\A1;有効開口部間口\P685
  7
STYLE1
 73
     1
 44
1.0
1001
ACAD
1000
MTEXTBEGIN
1070
    73
1070
     1
1070
    44
1040
1.0
1070
    74
1070
     0
1000
MTEXTEND
  0
POINT
  5
16065
330
15130
100
AcDbEntity
  8
DEFPOINTS
 62
     0
 48
50.0
100
AcDbPoint
 10
6314.484998239404
 20
8234.581830763609
 30
0.0
  0
POINT
  5
16066
330
15130
100
AcDbEntity
  8
DEFPOINTS
 62
     0
 48
50.0
100
AcDbPoint
 10
6999.484998239402
 20
8234.581830763572
 30
0.0
  0
POINT
  5
16067
330
15130
100
AcDbEntity
  8
DEFPOINTS
 62
     0
 48
50.0
100
AcDbPoint
 10
6999.484998239402
 20
7794.758162968531
 30
0.0
  0
ENDBLK
  5
15288
330
15130
100
AcDbEntity
  8
0
 48
50.0
100
AcDbBlockEnd
  0
BLOCK
  5
15294
330
15148
100
AcDbEntity
  8
0
 48
50.0
100
AcDbBlockBegin
  2
*D5
 70
     1
 10
0.0
 20
0.0
 30
0.0
  3
*D5
  1

  0
LINE
  5
16056
330
15148
100
AcDbEntity
  8
寸法
 62
     0
 48
50.0
370
    -2
100
AcDbLine
 10
5494.484998239408
 20
9784.581830763617
 30
0.0
 11
5494.484998239408
 21
10040.39005038871
 31
0.0
  0
LINE
  5
16057
330
15148
100
AcDbEntity
  8
寸法
 62
     0
 48
50.0
370
    -2
100
AcDbLine
 10
6204.484998239408
 20
9784.581830763741
 30
0.0
 11
6204.484998239408
 21
10040.39005038871
 31
0.0
  0
LINE
  5
16058
330
15148
100
AcDbEntity
  8
寸法
 62
     0
 48
50.0
370
    -2
100
AcDbLine
 10
5494.484998239408
 20
9980.390050388715
 30
0.0
 11
6204.484998239408
 21
9980.390050388715
 31
0.0
  0
INSERT
  5
16059
330
15148
100
AcDbEntity
  8
寸法
 62
     0
 48
50.0
370
    -2
100
AcDbBlockReference
  2
_DOTSMALL
 10
5494.484998239408
 20
9980.390050388715
 30
0.0
 41
100.0
 42
100.0
 43
100.0
 50
180.0
  0
INSERT
  5
1605A
330
15148
100
AcDbEntity
  8
寸法
 62
     0
 48
50.0
370
    -2
100
AcDbBlockReference
  2
_DOTSMALL
 10
6204.484998239408
 20
9980.390050388715
 30
0.0
 41
100.0
 42
100.0
 43
100.0
  0
MTEXT
  5
1605B
330
15148
100
AcDbEntity
  8
寸法
 62
     7
 48
50.0
100
AcDbMText
 10
5849.734998239409
 20
10080.39005038871
 30
0.0
 40
120.0
 41
0.0
 71
     5
 72
     1
  1
\A1;710
  7
STYLE1
 73
     1
 44
1.0
1001
ACAD
1000
MTEXTBEGIN
1070
    73
1070
     1
1070
    44
1040
1.0
1070
    74
1070
     0
1000
MTEXTEND
  0
POINT
  5
1605C
330
15148
100
AcDbEntity
  8
DEFPOINTS
 62
     0
 48
50.0
100
AcDbPoint
 10
5494.484998239408
 20
9764.581830763617
 30
0.0
  0
POINT
  5
1605D
330
15148
100
AcDbEntity
  8
DEFPOINTS
 62
     0
 48
50.0
100
AcDbPoint
 10
6204.484998239408
 20
9764.58183076374
 30
0.0
  0
POINT
  5
1605E
330
15148
100
AcDbEntity
  8
DEFPOINTS
 62
     0
 48
50.0
100
AcDbPoint
 10
6204.484998239408
 20
9980.390050388715
 30
0.0
  0
ENDBLK
  5
1529E
330
15148
100
AcDbEntity
  8
0
 48
50.0
100
AcDbBlockEnd
  0
BLOCK
  5
1529F
330
15154
100
AcDbEntity
  8
0
 48
50.0
100
AcDbBlockBegin
  2
*D6
 70
     1
 10
0.0
 20
0.0
 30
0.0
  3
*D6
  1

  0
LINE
  5
1604B
330
15154
100
AcDbEntity
  8
寸法
 62
     0
 48
50.0
370
    -2
100
AcDbLine
 10
5439.484998239372
 20
9784.581830763617
 30
0.0
 11
5439.484998239372
 21
10040.3900503886
 31
0.0
  0
LINE
  5
1604C
330
15154
100
AcDbEntity
  8
寸法
 62
     0
 48
50.0
370
    -2
100
AcDbLine
 10
5494.484998239408
 20
9784.581830763617
 30
0.0
 11
5494.484998239408
 21
10040.3900503886
 31
0.0
  0
LINE
  5
1604D
330
15154
100
AcDbEntity
  8
寸法
 62
     0
 48
50.0
370
    -2
100
AcDbLine
 10
5494.484998239408
 20
9980.390050388599
 30
0.0
 11
5594.484998239408
 21
9980.390050388599
 31
0.0
  0
LINE
  5
1604E
330
15154
100
AcDbEntity
  8
寸法
 62
     0
 48
50.0
370
    -2
100
AcDbLine
 10
5439.484998239372
 20
9980.390050388599
 30
0.0
 11
5022.514435490893
 21
9980.390050388599
 31
0.0
  0
LINE
  5
1604F
330
15154
100
AcDbEntity
  8
寸法
 62
     0
 48
50.0
370
    -2
100
AcDbLine
 10
5494.484998239408
 20
9980.390050388599
 30
0.0
 11
5439.484998239372
 21
9980.390050388599
 31
0.0
  0
INSERT
  5
16050
330
15154
100
AcDbEntity
  8
寸法
 62
     0
 48
50.0
370
    -2
100
AcDbBlockReference
  2
_DOTSMALL
 10
5494.484998239408
 20
9980.390050388599
 30
0.0
 41
100.0
 42
100.0
 43
100.0
 50
180.0
  0
INSERT
  5
16051
330
15154
100
AcDbEntity
  8
寸法
 62
     0
 48
50.0
370
    -2
100
AcDbBlockReference
  2
_DOTSMALL
 10
5439.484998239372
 20
9980.390050388599
 30
0.0
 41
100.0
 42
100.0
 43
100.0
  0
MTEXT
  5
16052
330
15154
100
AcDbEntity
  8
寸法
 62
     7
 48
50.0
100
AcDbMText
 10
5130.999716865131
 20
10080.3900503886
 30
0.0
 40
120.0
 41
0.0
 71
     5
 72
     1
  1
\A1;55
  7
STYLE1
 73
     1
 44
1.0
1001
ACAD
1000
MTEXTBEGIN
1070
    73
1070
     1
1070
    44
1040
1.0
1070
    74
1070
     0
1000
MTEXTEND
  0
POINT
  5
16053
330
15154
100
AcDbEntity
  8
DEFPOINTS
 62
     0
 48
50.0
100
AcDbPoint
 10
5439.484998239372
 20
9764.581830763617
 30
0.0
  0
POINT
  5
16054
330
15154
100
AcDbEntity
  8
DEFPOINTS
 62
     0
 48
50.0
100
AcDbPoint
 10
5494.484998239408
 20
9764.581830763617
 30
0.0
  0
POINT
  5
16055
330
15154
100
AcDbEntity
  8
DEFPOINTS
 62
     0
 48
50.0
100
AcDbPoint
 10
5494.484998239408
 20
9980.390050388599
 30
0.0
  0
ENDBLK
  5
152AB
330
15154
100
AcDbEntity
  8
0
 48
50.0
100
AcDbBlockEnd
  0
BLOCK
  5
152AC
330
15162
100
AcDbEntity
  8
0
 48
50.0
100
AcDbBlockBegin
  2
*D7
 70
     1
 10
0.0
 20
0.0
 30
0.0
  3
*D7
  1

  0
LINE
  5
16042
330
15162
100
AcDbEntity
  8
寸法
 62
     0
 48
50.0
370
    -2
100
AcDbLine
 10
6314.484998239408
 20
9784.581830763617
 30
0.0
 11
6314.484998239408
 21
10040.39005038871
 31
0.0
  0
LINE
  5
16043
330
15162
100
AcDbEntity
  8
寸法
 62
     0
 48
50.0
370
    -2
100
AcDbLine
 10
7024.484998239408
 20
9784.581830763741
 30
0.0
 11
7024.484998239408
 21
10040.39005038871
 31
0.0
  0
LINE
  5
16044
330
15162
100
AcDbEntity
  8
寸法
 62
     0
 48
50.0
370
    -2
100
AcDbLine
 10
6314.484998239408
 20
9980.390050388715
 30
0.0
 11
7024.484998239408
 21
9980.390050388715
 31
0.0
  0
INSERT
  5
16045
330
15162
100
AcDbEntity
  8
寸法
 62
     0
 48
50.0
370
    -2
100
AcDbBlockReference
  2
_DOTSMALL
 10
6314.484998239408
 20
9980.390050388715
 30
0.0
 41
100.0
 42
100.0
 43
100.0
 50
180.0
  0
INSERT
  5
16046
330
15162
100
AcDbEntity
  8
寸法
 62
     0
 48
50.0
370
    -2
100
AcDbBlockReference
  2
_DOTSMALL
 10
7024.484998239408
 20
9980.390050388715
 30
0.0
 41
100.0
 42
100.0
 43
100.0
  0
MTEXT
  5
16047
330
15162
100
AcDbEntity
  8
寸法
 62
     7
 48
50.0
100
AcDbMText
 10
6669.734998239409
 20
10080.39005038871
 30
0.0
 40
120.0
 41
0.0
 71
     5
 72
     1
  1
\A1;710
  7
STYLE1
 73
     1
 44
1.0
1001
ACAD
1000
MTEXTBEGIN
1070
    73
1070
     1
1070
    44
1040
1.0
1070
    74
1070
     0
1000
MTEXTEND
  0
POINT
  5
16048
330
15162
100
AcDbEntity
  8
DEFPOINTS
 62
     0
 48
50.0
100
AcDbPoint
 10
6314.484998239408
 20
9764.581830763617
 30
0.0
  0
POINT
  5
16049
330
15162
100
AcDbEntity
  8
DEFPOINTS
 62
     0
 48
50.0
100
AcDbPoint
 10
7024.484998239408
 20
9764.58183076374
 30
0.0
  0
POINT
  5
1604A
330
15162
100
AcDbEntity
  8
DEFPOINTS
 62
     0
 48
50.0
100
AcDbPoint
 10
7024.484998239408
 20
9980.390050388715
 30
0.0
  0
ENDBLK
  5
152B6
330
15162
100
AcDbEntity
  8
0
 48
50.0
100
AcDbBlockEnd
  0
BLOCK
  5
152B7
330
1516E
100
AcDbEntity
  8
0
 48
50.0
100
AcDbBlockBegin
  2
*D8
 70
     1
 10
0.0
 20
0.0
 30
0.0
  3
*D8
  1

  0
LINE
  5
16039
330
1516E
100
AcDbEntity
  8
寸法
 62
     0
 48
50.0
370
    -2
100
AcDbLine
 10
6204.484998239408
 20
9784.581830763741
 30
0.0
 11
6204.484998239408
 21
10040.39005038871
 31
0.0
  0
LINE
  5
1603A
330
1516E
100
AcDbEntity
  8
寸法
 62
     0
 48
50.0
370
    -2
100
AcDbLine
 10
6314.484998239412
 20
9784.58183076372
 30
0.0
 11
6314.484998239412
 21
10040.39005038871
 31
0.0
  0
LINE
  5
1603B
330
1516E
100
AcDbEntity
  8
寸法
 62
     0
 48
50.0
370
    -2
100
AcDbLine
 10
6204.484998239408
 20
9980.390050388715
 30
0.0
 11
6314.484998239412
 21
9980.390050388715
 31
0.0
  0
INSERT
  5
1603C
330
1516E
100
AcDbEntity
  8
寸法
 62
     0
 48
50.0
370
    -2
100
AcDbBlockReference
  2
_DOTSMALL
 10
6204.484998239408
 20
9980.390050388715
 30
0.0
 41
100.0
 42
100.0
 43
100.0
 50
180.0
  0
INSERT
  5
1603D
330
1516E
100
AcDbEntity
  8
寸法
 62
     0
 48
50.0
370
    -2
100
AcDbBlockReference
  2
_DOTSMALL
 10
6314.484998239412
 20
9980.390050388715
 30
0.0
 41
100.0
 42
100.0
 43
100.0
  0
MTEXT
  5
1603E
330
1516E
100
AcDbEntity
  8
寸法
 62
     7
 48
50.0
100
AcDbMText
 10
6259.48499823941
 20
10080.39005038871
 30
0.0
 40
120.0
 41
0.0
 71
     5
 72
     1
  1
\A1;110
  7
STYLE1
 73
     1
 44
1.0
1001
ACAD
1000
MTEXTBEGIN
1070
    73
1070
     1
1070
    44
1040
1.0
1070
    74
1070
     0
1000
MTEXTEND
  0
POINT
  5
1603F
330
1516E
100
AcDbEntity
  8
DEFPOINTS
 62
     0
 48
50.0
100
AcDbPoint
 10
6204.484998239408
 20
9764.58183076374
 30
0.0
  0
POINT
  5
16040
330
1516E
100
AcDbEntity
  8
DEFPOINTS
 62
     0
 48
50.0
100
AcDbPoint
 10
6314.484998239412
 20
9764.581830763718
 30
0.0
  0
POINT
  5
16041
330
1516E
100
AcDbEntity
  8
DEFPOINTS
 62
     0
 48
50.0
100
AcDbPoint
 10
6314.484998239412
 20
9980.390050388715
 30
0.0
  0
ENDBLK
  5
152C1
330
1516E
100
AcDbEntity
  8
0
 48
50.0
100
AcDbBlockEnd
  0
BLOCK
  5
152C2
330
1517A
100
AcDbEntity
  8
0
 48
50.0
100
AcDbBlockBegin
  2
*D9
 70
     1
 10
0.0
 20
0.0
 30
0.0
  3
*D9
  1

  0
LINE
  5
1602E
330
1517A
100
AcDbEntity
  8
寸法
 62
     0
 48
50.0
370
    -2
100
AcDbLine
 10
7099.484998239383
 20
8289.581830763697
 30
0.0
 11
7786.911343973793
 21
8289.581830763697
 31
0.0
  0
LINE
  5
1602F
330
1517A
100
AcDbEntity
  8
寸法
 62
     0
 48
50.0
370
    -2
100
AcDbLine
 10
7099.484998239383
 20
8234.581830763696
 30
0.0
 11
7786.911343973793
 21
8234.581830763696
 31
0.0
  0
LINE
  5
16030
330
1517A
100
AcDbEntity
  8
寸法
 62
     0
 48
50.0
370
    -2
100
AcDbLine
 10
7726.911343973793
 20
8289.581830763697
 30
0.0
 11
7726.911343973793
 21
8389.581830763697
 31
0.0
  0
LINE
  5
16031
330
1517A
100
AcDbEntity
  8
寸法
 62
     0
 48
50.0
370
    -2
100
AcDbLine
 10
7726.911343973793
 20
8234.581830763696
 30
0.0
 11
7726.911343973793
 21
7748.235082484602
 31
0.0
  0
LINE
  5
16032
330
1517A
100
AcDbEntity
  8
寸法
 62
     0
 48
50.0
370
    -2
100
AcDbLine
 10
7726.911343973793
 20
8289.581830763697
 30
0.0
 11
7726.911343973793
 21
8234.581830763696
 31
0.0
  0
INSERT
  5
16033
330
1517A
100
AcDbEntity
  8
寸法
 62
     0
 48
50.0
370
    -2
100
AcDbBlockReference
  2
_DOTSMALL
 10
7726.911343973793
 20
8289.581830763697
 30
0.0
 41
100.0
 42
100.0
 43
100.0
 50
270.0
  0
INSERT
  5
16034
330
1517A
100
AcDbEntity
  8
寸法
 62
     0
 48
50.0
370
    -2
100
AcDbBlockReference
  2
_DOTSMALL
 10
7726.911343973793
 20
8234.581830763696
 30
0.0
 41
100.0
 42
100.0
 43
100.0
 50
90.0
  0
MTEXT
  5
16035
330
1517A
100
AcDbEntity
  8
寸法
 62
     7
 48
50.0
100
AcDbMText
 10
7626.911343973792
 20
7856.720363858842
 30
0.0
 40
120.0
 41
0.0
 71
     5
 72
     1
  1
\A1;55
  7
STYLE1
 11
0.0000000000000001
 21
1.0
 31
0.0
 73
     1
 44
1.0
1001
ACAD
1000
MTEXTBEGIN
1070
    73
1070
     1
1070
    44
1040
1.0
1070
    74
1070
     0
1000
MTEXTEND
  0
POINT
  5
16036
330
1517A
100
AcDbEntity
  8
DEFPOINTS
 62
     0
 48
50.0
100
AcDbPoint
 10
7079.484998239383
 20
8289.581830763697
 30
0.0
  0
POINT
  5
16037
330
1517A
100
AcDbEntity
  8
DEFPOINTS
 62
     0
 48
50.0
100
AcDbPoint
 10
7079.484998239383
 20
8234.581830763696
 30
0.0
  0
POINT
  5
16038
330
1517A
100
AcDbEntity
  8
DEFPOINTS
 62
     0
 48
50.0
100
AcDbPoint
 10
7726.911343973793
 20
8234.581830763696
 30
0.0
  0
ENDBLK
  5
152CE
330
1517A
100
AcDbEntity
  8
0
 48
50.0
100
AcDbBlockEnd
  0
BLOCK
  5
152CF
330
15188
100
AcDbEntity
  8
0
 48
50.0
100
AcDbBlockBegin
  2
*D10
 70
     1
 10
0.0
 20
0.0
 30
0.0
  3
*D10
  1

  0
LINE
  5
16023
330
15188
100
AcDbEntity
  8
寸法
 62
     0
 48
50.0
370
    -2
100
AcDbLine
 10
7099.484998239408
 20
9764.581830763711
 30
0.0
 11
7786.911343973819
 21
9764.581830763711
 31
0.0
  0
LINE
  5
16024
330
15188
100
AcDbEntity
  8
寸法
 62
     0
 48
50.0
370
    -2
100
AcDbLine
 10
7099.484998239408
 20
9709.581830763712
 30
0.0
 11
7786.911343973819
 21
9709.581830763712
 31
0.0
  0
LINE
  5
16025
330
15188
100
AcDbEntity
  8
寸法
 62
     0
 48
50.0
370
    -2
100
AcDbLine
 10
7726.911343973819
 20
9709.581830763712
 30
0.0
 11
7726.911343973819
 21
9609.581830763712
 31
0.0
  0
LINE
  5
16026
330
15188
100
AcDbEntity
  8
寸法
 62
     0
 48
50.0
370
    -2
100
AcDbLine
 10
7726.911343973819
 20
9764.581830763711
 30
0.0
 11
7726.911343973819
 21
10181.55239351218
 31
0.0
  0
LINE
  5
16027
330
15188
100
AcDbEntity
  8
寸法
 62
     0
 48
50.0
370
    -2
100
AcDbLine
 10
7726.911343973819
 20
9709.581830763712
 30
0.0
 11
7726.911343973819
 21
9764.581830763711
 31
0.0
  0
INSERT
  5
16028
330
15188
100
AcDbEntity
  8
寸法
 62
     0
 48
50.0
370
    -2
100
AcDbBlockReference
  2
_DOTSMALL
 10
7726.911343973819
 20
9709.581830763712
 30
0.0
 41
100.0
 42
100.0
 43
100.0
 50
90.0
  0
INSERT
  5
16029
330
15188
100
AcDbEntity
  8
寸法
 62
     0
 48
50.0
370
    -2
100
AcDbBlockReference
  2
_DOTSMALL
 10
7726.911343973819
 20
9764.581830763711
 30
0.0
 41
100.0
 42
100.0
 43
100.0
 50
270.0
  0
MTEXT
  5
1602A
330
15188
100
AcDbEntity
  8
寸法
 62
     7
 48
50.0
100
AcDbMText
 10
7626.911343973818
 20
10073.06711213795
 30
0.0
 40
120.0
 41
0.0
 71
     5
 72
     1
  1
\A1;55
  7
STYLE1
 11
0.0000000000000001
 21
1.0
 31
0.0
 73
     1
 44
1.0
1001
ACAD
1000
MTEXTBEGIN
1070
    73
1070
     1
1070
    44
1040
1.0
1070
    74
1070
     0
1000
MTEXTEND
  0
POINT
  5
1602B
330
15188
100
AcDbEntity
  8
DEFPOINTS
 62
     0
 48
50.0
100
AcDbPoint
 10
7079.484998239408
 20
9764.581830763711
 30
0.0
  0
POINT
  5
1602C
330
15188
100
AcDbEntity
  8
DEFPOINTS
 62
     0
 48
50.0
100
AcDbPoint
 10
7079.484998239408
 20
9709.581830763712
 30
0.0
  0
POINT
  5
1602D
330
15188
100
AcDbEntity
  8
DEFPOINTS
 62
     0
 48
50.0
100
AcDbPoint
 10
7726.911343973819
 20
9709.581830763712
 30
0.0
  0
ENDBLK
  5
152DB
330
15188
100
AcDbEntity
  8
0
 48
50.0
100
AcDbBlockEnd
  0
BLOCK
  5
152DC
330
15196
100
AcDbEntity
  8
0
 48
50.0
100
AcDbBlockBegin
  2
*D11
 70
     1
 10
0.0
 20
0.0
 30
0.0
  3
*D11
  1

  0
LINE
  5
1601A
330
15196
100
AcDbEntity
  8
寸法
 62
     0
 48
50.0
370
    -2
100
AcDbLine
 10
7099.484998239408
 20
9764.581830763711
 30
0.0
 11
8096.022874789495
 21
9764.581830763711
 31
0.0
  0
LINE
  5
1601B
330
15196
100
AcDbEntity
  8
寸法
 62
     0
 48
50.0
370
    -2
100
AcDbLine
 10
7099.484998239383
 20
8234.581830763696
 30
0.0
 11
8096.022874789495
 21
8234.581830763696
 31
0.0
  0
LINE
  5
1601C
330
15196
100
AcDbEntity
  8
寸法
 62
     0
 48
50.0
370
    -2
100
AcDbLine
 10
8036.022874789495
 20
9764.581830763711
 30
0.0
 11
8036.022874789495
 21
8234.581830763696
 31
0.0
  0
INSERT
  5
1601D
330
15196
100
AcDbEntity
  8
寸法
 62
     0
 48
50.0
370
    -2
100
AcDbBlockReference
  2
_DOTSMALL
 10
8036.022874789495
 20
9764.581830763711
 30
0.0
 41
100.0
 42
100.0
 43
100.0
 50
90.0
  0
INSERT
  5
1601E
330
15196
100
AcDbEntity
  8
寸法
 62
     0
 48
50.0
370
    -2
100
AcDbBlockReference
  2
_DOTSMALL
 10
8036.022874789495
 20
8234.581830763696
 30
0.0
 41
100.0
 42
100.0
 43
100.0
 50
270.0
  0
MTEXT
  5
1601F
330
15196
100
AcDbEntity
  8
寸法
 62
     7
 48
50.0
100
AcDbMText
 10
7936.022874789495
 20
8999.581830763704
 30
0.0
 40
120.0
 41
0.0
 71
     5
 72
     1
  1
\A1;1530
  7
STYLE1
 11
0.0000000000000001
 21
1.0
 31
0.0
 73
     1
 44
1.0
1001
ACAD
1000
MTEXTBEGIN
1070
    73
1070
     1
1070
    44
1040
1.0
1070
    74
1070
     0
1000
MTEXTEND
  0
POINT
  5
16020
330
15196
100
AcDbEntity
  8
DEFPOINTS
 62
     0
 48
50.0
100
AcDbPoint
 10
7079.484998239408
 20
9764.581830763711
 30
0.0
  0
POINT
  5
16021
330
15196
100
AcDbEntity
  8
DEFPOINTS
 62
     0
 48
50.0
100
AcDbPoint
 10
7079.484998239383
 20
8234.581830763696
 30
0.0
  0
POINT
  5
16022
330
15196
100
AcDbEntity
  8
DEFPOINTS
 62
     0
 48
50.0
100
AcDbPoint
 10
8036.022874789495
 20
8234.581830763696
 30
0.0
  0
ENDBLK
  5
152E6
330
15196
100
AcDbEntity
  8
0
 48
50.0
100
AcDbBlockEnd
  0
BLOCK
  5
152E7
330
151A2
100
AcDbEntity
  8
0
 48
50.0
100
AcDbBlockBegin
  2
*D12
 70
     1
 10
0.0
 20
0.0
 30
0.0
  3
*D12
  1

  0
LINE
  5
16011
330
151A2
100
AcDbEntity
  8
寸法
 62
     0
 48
50.0
370
    -2
100
AcDbLine
 10
7099.484998239408
 20
9289.581830763712
 30
0.0
 11
7786.911343973817
 21
9289.581830763712
 31
0.0
  0
LINE
  5
16012
330
151A2
100
AcDbEntity
  8
寸法
 62
     0
 48
50.0
370
    -2
100
AcDbLine
 10
7099.484998239408
 20
8709.581830763712
 30
0.0
 11
7786.911343973817
 21
8709.581830763712
 31
0.0
  0
LINE
  5
16013
330
151A2
100
AcDbEntity
  8
寸法
 62
     0
 48
50.0
370
    -2
100
AcDbLine
 10
7726.911343973817
 20
9289.581830763712
 30
0.0
 11
7726.911343973817
 21
8709.581830763712
 31
0.0
  0
INSERT
  5
16014
330
151A2
100
AcDbEntity
  8
寸法
 62
     0
 48
50.0
370
    -2
100
AcDbBlockReference
  2
_DOTSMALL
 10
7726.911343973817
 20
9289.581830763712
 30
0.0
 41
100.0
 42
100.0
 43
100.0
 50
90.0
  0
INSERT
  5
16015
330
151A2
100
AcDbEntity
  8
寸法
 62
     0
 48
50.0
370
    -2
100
AcDbBlockReference
  2
_DOTSMALL
 10
7726.911343973817
 20
8709.581830763712
 30
0.0
 41
100.0
 42
100.0
 43
100.0
 50
270.0
  0
MTEXT
  5
16016
330
151A2
100
AcDbEntity
  8
寸法
 62
     7
 48
50.0
100
AcDbMText
 10
7626.911343973816
 20
8999.581830763712
 30
0.0
 40
120.0
 41
0.0
 71
     5
 72
     1
  1
\A1;580
  7
STYLE1
 11
0.0000000000000001
 21
1.0
 31
0.0
 73
     1
 44
1.0
1001
ACAD
1000
MTEXTBEGIN
1070
    73
1070
     1
1070
    44
1040
1.0
1070
    74
1070
     0
1000
MTEXTEND
  0
POINT
  5
16017
330
151A2
100
AcDbEntity
  8
DEFPOINTS
 62
     0
 48
50.0
100
AcDbPoint
 10
7079.484998239408
 20
9289.581830763712
 30
0.0
  0
POINT
  5
16018
330
151A2
100
AcDbEntity
  8
DEFPOINTS
 62
     0
 48
50.0
100
AcDbPoint
 10
7079.484998239408
 20
8709.581830763712
 30
0.0
  0
POINT
  5
16019
330
151A2
100
AcDbEntity
  8
DEFPOINTS
 62
     0
 48
50.0
100
AcDbPoint
 10
7726.911343973817
 20
8709.581830763712
 30
0.0
  0
ENDBLK
  5
152F1
330
151A2
100
AcDbEntity
  8
0
 48
50.0
100
AcDbBlockEnd
  0
BLOCK
  5
152F2
330
151AE
100
AcDbEntity
  8
0
 48
50.0
100
AcDbBlockBegin
  2
*D13
 70
     1
 10
0.0
 20
0.0
 30
0.0
  3
*D13
  1

  0
LINE
  5
16008
330
151AE
100
AcDbEntity
  8
寸法
 62
     0
 48
50.0
370
    -2
100
AcDbLine
 10
7099.484998239408
 20
8709.581830763712
 30
0.0
 11
7786.911343973791
 21
8709.581830763712
 31
0.0
  0
LINE
  5
16009
330
151AE
100
AcDbEntity
  8
寸法
 62
     0
 48
50.0
370
    -2
100
AcDbLine
 10
7099.484998239415
 20
8289.581830763712
 30
0.0
 11
7786.911343973791
 21
8289.581830763712
 31
0.0
  0
LINE
  5
1600A
330
151AE
100
AcDbEntity
  8
寸法
 62
     0
 48
50.0
370
    -2
100
AcDbLine
 10
7726.911343973792
 20
8709.581830763712
 30
0.0
 11
7726.911343973792
 21
8289.581830763712
 31
0.0
  0
INSERT
  5
1600B
330
151AE
100
AcDbEntity
  8
寸法
 62
     0
 48
50.0
370
    -2
100
AcDbBlockReference
  2
_DOTSMALL
 10
7726.911343973792
 20
8709.581830763712
 30
0.0
 41
100.0
 42
100.0
 43
100.0
 50
90.0
  0
INSERT
  5
1600C
330
151AE
100
AcDbEntity
  8
寸法
 62
     0
 48
50.0
370
    -2
100
AcDbBlockReference
  2
_DOTSMALL
 10
7726.911343973792
 20
8289.581830763712
 30
0.0
 41
100.0
 42
100.0
 43
100.0
 50
270.0
  0
MTEXT
  5
1600D
330
151AE
100
AcDbEntity
  8
寸法
 62
     7
 48
50.0
100
AcDbMText
 10
7626.899532950169
 20
8499.581830763712
 30
0.0
 40
120.0
 41
0.0
 71
     5
 72
     1
  1
\A1;420
  7
STYLE1
 11
0.0000000000000001
 21
1.0
 31
0.0
 73
     1
 44
1.0
1001
ACAD
1000
MTEXTBEGIN
1070
    73
1070
     1
1070
    44
1040
1.0
1070
    74
1070
     0
1000
MTEXTEND
  0
POINT
  5
1600E
330
151AE
100
AcDbEntity
  8
DEFPOINTS
 62
     0
 48
50.0
100
AcDbPoint
 10
7079.484998239408
 20
8709.581830763712
 30
0.0
  0
POINT
  5
1600F
330
151AE
100
AcDbEntity
  8
DEFPOINTS
 62
     0
 48
50.0
100
AcDbPoint
 10
7079.484998239415
 20
8289.581830763712
 30
0.0
  0
POINT
  5
16010
330
151AE
100
AcDbEntity
  8
DEFPOINTS
 62
     0
 48
50.0
100
AcDbPoint
 10
7726.911343973792
 20
8289.581830763712
 30
0.0
  0
ENDBLK
  5
152FC
330
151AE
100
AcDbEntity
  8
0
 48
50.0
100
AcDbBlockEnd
  0
BLOCK
  5
152FD
330
151BA
100
AcDbEntity
  8
0
 48
50.0
100
AcDbBlockBegin
  2
*D14
 70
     1
 10
0.0
 20
0.0
 30
0.0
  3
*D14
  1

  0
LINE
  5
15FFF
330
151BA
100
AcDbEntity
  8
寸法
 62
     0
 48
50.0
370
    -2
100
AcDbLine
 10
7099.484998239408
 20
9709.581830763712
 30
0.0
 11
7786.911343973817
 21
9709.581830763712
 31
0.0
  0
LINE
  5
16000
330
151BA
100
AcDbEntity
  8
寸法
 62
     0
 48
50.0
370
    -2
100
AcDbLine
 10
7099.484998239408
 20
9289.581830763712
 30
0.0
 11
7786.911343973817
 21
9289.581830763712
 31
0.0
  0
LINE
  5
16001
330
151BA
100
AcDbEntity
  8
寸法
 62
     0
 48
50.0
370
    -2
100
AcDbLine
 10
7726.911343973817
 20
9709.581830763712
 30
0.0
 11
7726.911343973817
 21
9289.581830763712
 31
0.0
  0
INSERT
  5
16002
330
151BA
100
AcDbEntity
  8
寸法
 62
     0
 48
50.0
370
    -2
100
AcDbBlockReference
  2
_DOTSMALL
 10
7726.911343973817
 20
9709.581830763712
 30
0.0
 41
100.0
 42
100.0
 43
100.0
 50
90.0
  0
INSERT
  5
16003
330
151BA
100
AcDbEntity
  8
寸法
 62
     0
 48
50.0
370
    -2
100
AcDbBlockReference
  2
_DOTSMALL
 10
7726.911343973817
 20
9289.581830763712
 30
0.0
 41
100.0
 42
100.0
 43
100.0
 50
270.0
  0
MTEXT
  5
16004
330
151BA
100
AcDbEntity
  8
寸法
 62
     7
 48
50.0
100
AcDbMText
 10
7626.899532950194
 20
9499.581830763712
 30
0.0
 40
120.0
 41
0.0
 71
     5
 72
     1
  1
\A1;420
  7
STYLE1
 11
0.0000000000000001
 21
1.0
 31
0.0
 73
     1
 44
1.0
1001
ACAD
1000
MTEXTBEGIN
1070
    73
1070
     1
1070
    44
1040
1.0
1070
    74
1070
     0
1000
MTEXTEND
  0
POINT
  5
16005
330
151BA
100
AcDbEntity
  8
DEFPOINTS
 62
     0
 48
50.0
100
AcDbPoint
 10
7079.484998239408
 20
9709.581830763712
 30
0.0
  0
POINT
  5
16006
330
151BA
100
AcDbEntity
  8
DEFPOINTS
 62
     0
 48
50.0
100
AcDbPoint
 10
7079.484998239408
 20
9289.581830763712
 30
0.0
  0
POINT
  5
16007
330
151BA
100
AcDbEntity
  8
DEFPOINTS
 62
     0
 48
50.0
100
AcDbPoint
 10
7726.911343973817
 20
9289.581830763712
 30
0.0
  0
ENDBLK
  5
15307
330
151BA
100
AcDbEntity
  8
0
 48
50.0
100
AcDbBlockEnd
  0
BLOCK
  5
15308
330
151C6
100
AcDbEntity
  8
0
 48
50.0
100
AcDbBlockBegin
  2
*D15
 70
     1
 10
0.0
 20
0.0
 30
0.0
  3
*D15
  1

  0
LINE
  5
15FF6
330
151C6
100
AcDbEntity
  8
寸法
 62
     0
 48
50.0
370
    -2
100
AcDbLine
 10
7069.984998239343
 20
9729.722846915038
 30
0.0
 11
7465.342724101367
 21
9623.787063548903
 31
0.0
  0
LINE
  5
15FF7
330
151C6
100
AcDbEntity
  8
寸法
 62
     0
 48
50.0
370
    -2
100
AcDbLine
 10
7069.984998239343
 20
9279.722846915039
 30
0.0
 11
7465.342724101367
 21
9173.787063548903
 31
0.0
  0
LINE
  5
15FF8
330
151C6
100
AcDbEntity
  8
寸法
 62
     0
 48
50.0
370
    -2
100
AcDbLine
 10
7405.342724101366
 20
9639.86401509477
 30
0.0
 11
7405.342724101366
 21
9189.864015094769
 31
0.0
  0
INSERT
  5
15FF9
330
151C6
100
AcDbEntity
  8
寸法
 62
     0
 48
50.0
370
    -2
100
AcDbBlockReference
  2
_DOTSMALL
 10
7405.342724101366
 20
9639.86401509477
 30
0.0
 41
100.0
 42
100.0
 43
100.0
 50
90.0
  0
INSERT
  5
15FFA
330
151C6
100
AcDbEntity
  8
寸法
 62
     0
 48
50.0
370
    -2
100
AcDbBlockReference
  2
_DOTSMALL
 10
7405.342724101366
 20
9189.864015094769
 30
0.0
 41
100.0
 42
100.0
 43
100.0
 50
270.0
  0
MTEXT
  5
15FFB
330
151C6
100
AcDbEntity
  8
寸法
 62
     7
 48
50.0
100
AcDbMText
 10
7305.342724101366
 20
9414.864015094773
 30
0.0
 40
120.0
 41
0.0
 71
     5
 72
     1
  1
\A1;450
  7
STYLE1
 11
0.0000000000000001
 21
1.0
 31
0.0
 73
     1
 44
1.0
1001
ACAD
1000
MTEXTBEGIN
1070
    73
1070
     1
1070
    44
1040
1.0
1070
    74
1070
     0
1000
MTEXTEND
  0
POINT
  5
15FFC
330
151C6
100
AcDbEntity
  8
DEFPOINTS
 62
     0
 48
50.0
100
AcDbPoint
 10
7049.984998239342
 20
9735.081830763661
 30
0.0
  0
POINT
  5
15FFD
330
151C6
100
AcDbEntity
  8
DEFPOINTS
 62
     0
 48
50.0
100
AcDbPoint
 10
7049.984998239342
 20
9285.08183076366
 30
0.0
  0
POINT
  5
15FFE
330
151C6
100
AcDbEntity
  8
DEFPOINTS
 62
     0
 48
50.0
100
AcDbPoint
 10
7405.342724101366
 20
9189.864015094769
 30
0.0
  0
ENDBLK
  5
15312
330
151C6
100
AcDbEntity
  8
0
 48
50.0
100
AcDbBlockEnd
  0
BLOCK
  5
1547A
330
1546E
100
AcDbEntity
  8
0
 48
50.0
100
AcDbBlockBegin
  2
*D16
 70
     1
 10
0.0
 20
0.0
 30
0.0
  3
*D16
  1

  0
LINE
  5
15FED
330
1546E
100
AcDbEntity
  8
寸法
 62
     0
 48
50.0
370
    -2
100
AcDbLine
 10
5494.484998239404
 20
8214.581830763609
 30
0.0
 11
5494.484998239404
 21
7734.758162968532
 31
0.0
  0
LINE
  5
15FEE
330
1546E
100
AcDbEntity
  8
寸法
 62
     0
 48
50.0
370
    -2
100
AcDbLine
 10
6179.4849982394
 20
8214.581830763574
 30
0.0
 11
6179.4849982394
 21
7734.758162968532
 31
0.0
  0
LINE
  5
15FEF
330
1546E
100
AcDbEntity
  8
寸法
 62
     0
 48
50.0
370
    -2
100
AcDbLine
 10
5494.484998239404
 20
7794.758162968531
 30
0.0
 11
6179.4849982394
 21
7794.758162968531
 31
0.0
  0
INSERT
  5
15FF0
330
1546E
100
AcDbEntity
  8
寸法
 62
     0
 48
50.0
370
    -2
100
AcDbBlockReference
  2
_DOTSMALL
 10
5494.484998239404
 20
7794.758162968531
 30
0.0
 41
100.0
 42
100.0
 43
100.0
 50
180.0
  0
INSERT
  5
15FF1
330
1546E
100
AcDbEntity
  8
寸法
 62
     0
 48
50.0
370
    -2
100
AcDbBlockReference
  2
_DOTSMALL
 10
6179.4849982394
 20
7794.758162968531
 30
0.0
 41
100.0
 42
100.0
 43
100.0
  0
MTEXT
  5
15FF2
330
1546E
100
AcDbEntity
  8
寸法
 62
     7
 48
50.0
100
AcDbMText
 10
5836.984998239403
 20
7894.758162968532
 30
0.0
 40
120.0
 41
0.0
 71
     5
 72
     1
  1
\A1;685
  7
STYLE1
 73
     1
 44
1.0
1001
ACAD
1000
MTEXTBEGIN
1070
    73
1070
     1
1070
    44
1040
1.0
1070
    74
1070
     0
1000
MTEXTEND
  0
POINT
  5
15FF3
330
1546E
100
AcDbEntity
  8
DEFPOINTS
 62
     0
 48
50.0
100
AcDbPoint
 10
5494.484998239404
 20
8234.581830763609
 30
0.0
  0
POINT
  5
15FF4
330
1546E
100
AcDbEntity
  8
DEFPOINTS
 62
     0
 48
50.0
100
AcDbPoint
 10
6179.4849982394
 20
8234.581830763572
 30
0.0
  0
POINT
  5
15FF5
330
1546E
100
AcDbEntity
  8
DEFPOINTS
 62
     0
 48
50.0
100
AcDbPoint
 10
6179.4849982394
 20
7794.758162968531
 30
0.0
  0
ENDBLK
  5
15484
330
1546E
100
AcDbEntity
  8
0
 48
50.0
100
AcDbBlockEnd
  0
BLOCK
  5
154BE
330
154BD
100
AcDbEntity
  8
0
 48
50.0
100
AcDbBlockBegin
  2
*D17
 70
     1
 10
0.0
 20
0.0
 30
0.0
  3
*D17
  1

  0
LINE
  5
16099
330
154BD
100
AcDbEntity
  8
寸法
 62
     0
 48
50.0
370
    -2
100
AcDbLine
 10
5463.62602106842
 20
9265.081830763625
 30
0.0
 11
5402.712259537922
 21
9037.748577851671
 31
0.0
  0
LINE
  5
1609A
330
154BD
100
AcDbEntity
  8
寸法
 62
     0
 48
50.0
370
    -2
100
AcDbLine
 10
6224.626021068431
 20
9265.081830763618
 30
0.0
 11
6163.712259537934
 21
9037.748577851671
 31
0.0
  0
LINE
  5
1609B
330
154BD
100
AcDbEntity
  8
寸法
 62
     0
 48
50.0
370
    -2
100
AcDbLine
 10
5418.789211083788
 20
9097.748577851671
 30
0.0
 11
6179.789211083801
 21
9097.748577851671
 31
0.0
  0
INSERT
  5
1609C
330
154BD
100
AcDbEntity
  8
寸法
 62
     0
 48
50.0
370
    -2
100
AcDbBlockReference
  2
_DOTSMALL
 10
5418.789211083788
 20
9097.748577851671
 30
0.0
 41
100.0
 42
100.0
 43
100.0
 50
180.0
  0
INSERT
  5
1609D
330
154BD
100
AcDbEntity
  8
寸法
 62
     0
 48
50.0
370
    -2
100
AcDbBlockReference
  2
_DOTSMALL
 10
6179.789211083801
 20
9097.748577851671
 30
0.0
 41
100.0
 42
100.0
 43
100.0
  0
MTEXT
  5
1609E
330
154BD
100
AcDbEntity
  8
寸法
 62
     7
 48
50.0
100
AcDbMText
 10
5808.254620628664
 20
9197.748577851671
 30
0.0
 40
120.0
 41
0.0
 71
     5
 72
     1
  1
\A1;761
  7
STYLE1
 73
     1
 44
1.0
1001
ACAD
1000
MTEXTBEGIN
1070
    73
1070
     1
1070
    44
1040
1.0
1070
    74
1070
     0
1000
MTEXTEND
  0
POINT
  5
1609F
330
154BD
100
AcDbEntity
  8
DEFPOINTS
 62
     0
 48
50.0
100
AcDbPoint
 10
5468.985004917041
 20
9285.081830763623
 30
0.0
  0
POINT
  5
160A0
330
154BD
100
AcDbEntity
  8
DEFPOINTS
 62
     0
 48
50.0
100
AcDbPoint
 10
6229.985004917053
 20
9285.081830763616
 30
0.0
  0
POINT
  5
160A1
330
154BD
100
AcDbEntity
  8
DEFPOINTS
 62
     0
 48
50.0
100
AcDbPoint
 10
6179.789211083801
 20
9097.748577851671
 30
0.0
  0
ENDBLK
  5
154C8
330
154BD
100
AcDbEntity
  8
0
 48
50.0
100
AcDbBlockEnd
  0
BLOCK
  5
15A8D
330
15A82
100
AcDbEntity
  8
0
 48
50.0
100
AcDbBlockBegin
  2
*D19
 70
     1
 10
0.0
 20
0.0
 30
0.0
  3
*D19
  1

  0
LINE
  5
15FD1
330
15A82
100
AcDbEntity
  8
寸法
 62
     0
 48
50.0
370
    -2
100
AcDbLine
 10
9401.713715487284
 20
5097.485698188013
 30
0.0
 11
8748.813545193257
 21
5122.13672942799
 31
0.0
  0
LINE
  5
15FD2
330
15A82
100
AcDbEntity
  8
寸法
 62
     0
 48
50.0
370
    -2
100
AcDbLine
 10
9407.033549639239
 20
5238.385305584896
 30
0.0
 11
8754.13337934505
 21
5263.03633682488
 31
0.0
  0
LINE
  5
15FD3
330
15A82
100
AcDbEntity
  8
寸法
 62
     0
 48
50.0
370
    -2
100
AcDbLine
 10
8808.770824936614
 20
5119.872970214462
 30
0.0
 11
8814.090659088405
 21
5260.772577611351
 31
0.0
  0
LINE
  5
15FD4
330
15A82
100
AcDbEntity
  8
寸法
 62
     0
 48
50.0
370
    -2
100
AcDbLine
 10
8814.090659088405
 20
5260.772577611351
 30
0.0
 11
8827.673214369607
 21
5620.51625607218
 31
0.0
  0
INSERT
  5
15FD5
330
15A82
100
AcDbEntity
  8
寸法
 62
     0
 48
50.0
370
    -2
100
AcDbBlockReference
  2
_DOTSMALL
 10
8808.770824936614
 20
5119.872970214462
 30
0.0
 41
100.0
 42
100.0
 43
100.0
 50
267.8377559871574
  0
INSERT
  5
15FD6
330
15A82
100
AcDbEntity
  8
寸法
 62
     0
 48
50.0
370
    -2
100
AcDbBlockReference
  2
_DOTSMALL
 10
8814.090659088405
 20
5260.772577611351
 30
0.0
 41
100.0
 42
100.0
 43
100.0
 50
87.83775598715745
  0
MTEXT
  5
15FD7
330
15A82
100
AcDbEntity
  8
寸法
 62
     7
 48
50.0
100
AcDbMText
 10
8722.839603168031
 20
5494.381748650789
 30
0.0
 40
120.0
 41
0.0
 71
     5
 72
     1
  1
\A1;141
  7
STYLE1
 11
0.0377293202254798
 21
0.9992879957226159
 31
0.0
 73
     1
 44
1.0
1001
ACAD
1000
MTEXTBEGIN
1070
    73
1070
     1
1070
    44
1040
1.0
1070
    74
1070
     0
1000
MTEXTEND
  0
POINT
  5
15FD8
330
15A82
100
AcDbEntity
  8
DEFPOINTS
 62
     0
 48
50.0
100
AcDbPoint
 10
9421.699475401736
 20
5096.731111783502
 30
0.0
  0
POINT
  5
15FD9
330
15A82
100
AcDbEntity
  8
DEFPOINTS
 62
     0
 48
50.0
100
AcDbPoint
 10
9427.01930955369
 20
5237.630719180386
 30
0.0
  0
POINT
  5
15FDA
330
15A82
100
AcDbEntity
  8
DEFPOINTS
 62
     0
 48
50.0
100
AcDbPoint
 10
8814.090659088405
 20
5260.772577611351
 30
0.0
  0
ENDBLK
  5
15A8E
330
15A82
100
AcDbEntity
  8
0
 48
50.0
100
AcDbBlockEnd
  0
BLOCK
  5
15A9A
330
15A8F
100
AcDbEntity
  8
0
 48
50.0
100
AcDbBlockBegin
  2
*D20
 70
     1
 10
0.0
 20
0.0
 30
0.0
  3
*D20
  1

  0
LINE
  5
15FC7
330
15A8F
100
AcDbEntity
  8
寸法
 62
     0
 48
50.0
370
    -2
100
AcDbLine
 10
10996.35691079978
 20
5205.760766326189
 30
0.0
 11
10996.35691079978
 21
5697.607540293841
 31
0.0
  0
LINE
  5
15FC8
330
15A8F
100
AcDbEntity
  8
寸法
 62
     0
 48
50.0
370
    -2
100
AcDbLine
 10
11076.35691079978
 20
5203.950086714538
 30
0.0
 11
11076.35691079978
 21
5697.607540293841
 31
0.0
  0
LINE
  5
15FC9
330
15A8F
100
AcDbEntity
  8
寸法
 62
     0
 48
50.0
370
    -2
100
AcDbLine
 10
10996.35691079978
 20
5637.60754029384
 30
0.0
 11
11076.35691079978
 21
5637.60754029384
 31
0.0
  0
LINE
  5
15FCA
330
15A8F
100
AcDbEntity
  8
寸法
 62
     0
 48
50.0
370
    -2
100
AcDbLine
 10
11076.35691079978
 20
5637.60754029384
 30
0.0
 11
11388.45139898876
 21
5637.60754029384
 31
0.0
  0
INSERT
  5
15FCB
330
15A8F
100
AcDbEntity
  8
寸法
 62
     0
 48
50.0
370
    -2
100
AcDbBlockReference
  2
_DOTSMALL
 10
10996.35691079978
 20
5637.60754029384
 30
0.0
 41
100.0
 42
100.0
 43
100.0
 50
180.0
  0
INSERT
  5
15FCC
330
15A8F
100
AcDbEntity
  8
寸法
 62
     0
 48
50.0
370
    -2
100
AcDbBlockReference
  2
_DOTSMALL
 10
11076.35691079978
 20
5637.60754029384
 30
0.0
 41
100.0
 42
100.0
 43
100.0
  0
MTEXT
  5
15FCD
330
15A8F
100
AcDbEntity
  8
寸法
 62
     7
 48
50.0
100
AcDbMText
 10
11282.40415489427
 20
5737.60754029384
 30
0.0
 40
120.0
 41
0.0
 71
     5
 72
     1
  1
\A1;80
  7
STYLE1
 73
     1
 44
1.0
1001
ACAD
1000
MTEXTBEGIN
1070
    73
1070
     1
1070
    44
1040
1.0
1070
    74
1070
     0
1000
MTEXTEND
  0
POINT
  5
15FCE
330
15A8F
100
AcDbEntity
  8
DEFPOINTS
 62
     0
 48
50.0
100
AcDbPoint
 10
10996.35691079978
 20
5185.76076632619
 30
0.0
  0
POINT
  5
15FCF
330
15A8F
100
AcDbEntity
  8
DEFPOINTS
 62
     0
 48
50.0
100
AcDbPoint
 10
11076.35691079978
 20
5183.950086714538
 30
0.0
  0
POINT
  5
15FD0
330
15A8F
100
AcDbEntity
  8
DEFPOINTS
 62
     0
 48
50.0
100
AcDbPoint
 10
11076.35691079978
 20
5637.60754029384
 30
0.0
  0
ENDBLK
  5
15A9B
330
15A8F
100
AcDbEntity
  8
0
 48
50.0
100
AcDbBlockEnd
  0
BLOCK
  5
15AA6
330
15A9C
100
AcDbEntity
  8
0
 48
50.0
100
AcDbBlockBegin
  2
*D21
 70
     1
 10
0.0
 20
0.0
 30
0.0
  3
*D21
  1

  0
LINE
  5
15FBE
330
15A9C
100
AcDbEntity
  8
寸法
 62
     0
 48
50.0
370
    -2
100
AcDbLine
 10
11076.35691079978
 20
5203.950086714538
 30
0.0
 11
11076.35691079978
 21
5905.781861485804
 31
0.0
  0
LINE
  5
15FBF
330
15A9C
100
AcDbEntity
  8
寸法
 62
     0
 48
50.0
370
    -2
100
AcDbLine
 10
9406.356910799784
 20
5258.950086714541
 30
0.0
 11
9406.356910799784
 21
5905.781861485804
 31
0.0
  0
LINE
  5
15FC0
330
15A9C
100
AcDbEntity
  8
寸法
 62
     0
 48
50.0
370
    -2
100
AcDbLine
 10
11076.35691079978
 20
5845.781861485804
 30
0.0
 11
9406.356910799784
 21
5845.781861485804
 31
0.0
  0
INSERT
  5
15FC1
330
15A9C
100
AcDbEntity
  8
寸法
 62
     0
 48
50.0
370
    -2
100
AcDbBlockReference
  2
_DOTSMALL
 10
11076.35691079978
 20
5845.781861485804
 30
0.0
 41
100.0
 42
100.0
 43
100.0
  0
INSERT
  5
15FC2
330
15A9C
100
AcDbEntity
  8
寸法
 62
     0
 48
50.0
370
    -2
100
AcDbBlockReference
  2
_DOTSMALL
 10
9406.356910799784
 20
5845.781861485804
 30
0.0
 41
100.0
 42
100.0
 43
100.0
 50
180.0
  0
MTEXT
  5
15FC3
330
15A9C
100
AcDbEntity
  8
寸法
 62
     7
 48
50.0
100
AcDbMText
 10
10293.48174050161
 20
5945.781861485804
 30
0.0
 40
120.0
 41
0.0
 71
     5
 72
     1
  1
\A1;1670
  7
STYLE1
 73
     1
 44
1.0
1001
ACAD
1000
MTEXTBEGIN
1070
    73
1070
     1
1070
    44
1040
1.0
1070
    74
1070
     0
1000
MTEXTEND
  0
POINT
  5
15FC4
330
15A9C
100
AcDbEntity
  8
DEFPOINTS
 62
     0
 48
50.0
100
AcDbPoint
 10
11076.35691079978
 20
5183.950086714538
 30
0.0
  0
POINT
  5
15FC5
330
15A9C
100
AcDbEntity
  8
DEFPOINTS
 62
     0
 48
50.0
100
AcDbPoint
 10
9406.356910799784
 20
5238.950086714542
 30
0.0
  0
POINT
  5
15FC6
330
15A9C
100
AcDbEntity
  8
DEFPOINTS
 62
     0
 48
50.0
100
AcDbPoint
 10
9406.356910799784
 20
5845.781861485804
 30
0.0
  0
ENDBLK
  5
15AA7
330
15A9C
100
AcDbEntity
  8
0
 48
50.0
100
AcDbBlockEnd
  0
BLOCK
  5
15AB4
330
15AA8
100
AcDbEntity
  8
0
 48
50.0
100
AcDbBlockBegin
  2
*D22
 70
     1
 10
0.0
 20
0.0
 30
0.0
  3
*D22
  1

  0
LINE
  5
15FB3
330
15AA8
100
AcDbEntity
  8
寸法
 62
     0
 48
50.0
370
    -2
100
AcDbLine
 10
9466.356910799785
 20
5254.951704837512
 30
0.0
 11
9466.356910799785
 21
5697.607540293841
 31
0.0
  0
LINE
  5
15FB4
330
15AA8
100
AcDbEntity
  8
寸法
 62
     0
 48
50.0
370
    -2
100
AcDbLine
 10
9406.356910799784
 20
5258.950086714541
 30
0.0
 11
9406.356910799784
 21
5697.607540293841
 31
0.0
  0
LINE
  5
15FB5
330
15AA8
100
AcDbEntity
  8
寸法
 62
     0
 48
50.0
370
    -2
100
AcDbLine
 10
9466.356910799785
 20
5637.60754029384
 30
0.0
 11
9566.356910799784
 21
5637.60754029384
 31
0.0
  0
LINE
  5
15FB6
330
15AA8
100
AcDbEntity
  8
寸法
 62
     0
 48
50.0
370
    -2
100
AcDbLine
 10
9406.356910799784
 20
5637.60754029384
 30
0.0
 11
8987.081320248604
 21
5637.60754029384
 31
0.0
  0
LINE
  5
15FB7
330
15AA8
100
AcDbEntity
  8
寸法
 62
     0
 48
50.0
370
    -2
100
AcDbLine
 10
9466.356910799785
 20
5637.60754029384
 30
0.0
 11
9406.356910799784
 21
5637.60754029384
 31
0.0
  0
INSERT
  5
15FB8
330
15AA8
100
AcDbEntity
  8
寸法
 62
     0
 48
50.0
370
    -2
100
AcDbBlockReference
  2
_DOTSMALL
 10
9466.356910799785
 20
5637.60754029384
 30
0.0
 41
100.0
 42
100.0
 43
100.0
 50
180.0
  0
INSERT
  5
15FB9
330
15AA8
100
AcDbEntity
  8
寸法
 62
     0
 48
50.0
370
    -2
100
AcDbBlockReference
  2
_DOTSMALL
 10
9406.356910799784
 20
5637.60754029384
 30
0.0
 41
100.0
 42
100.0
 43
100.0
  0
MTEXT
  5
15FBA
330
15AA8
100
AcDbEntity
  8
寸法
 62
     7
 48
50.0
100
AcDbMText
 10
9096.719115524194
 20
5737.60754029384
 30
0.0
 40
120.0
 41
0.0
 71
     5
 72
     1
  1
\A1;60
  7
STYLE1
 73
     1
 44
1.0
1001
ACAD
1000
MTEXTBEGIN
1070
    73
1070
     1
1070
    44
1040
1.0
1070
    74
1070
     0
1000
MTEXTEND
  0
POINT
  5
15FBB
330
15AA8
100
AcDbEntity
  8
DEFPOINTS
 62
     0
 48
50.0
100
AcDbPoint
 10
9466.356910799785
 20
5234.951704837513
 30
0.0
  0
POINT
  5
15FBC
330
15AA8
100
AcDbEntity
  8
DEFPOINTS
 62
     0
 48
50.0
100
AcDbPoint
 10
9406.356910799784
 20
5238.950086714542
 30
0.0
  0
POINT
  5
15FBD
330
15AA8
100
AcDbEntity
  8
DEFPOINTS
 62
     0
 48
50.0
100
AcDbPoint
 10
9406.356910799784
 20
5637.60754029384
 30
0.0
  0
ENDBLK
  5
15AB5
330
15AA8
100
AcDbEntity
  8
0
 48
50.0
100
AcDbBlockEnd
  0
BLOCK
  5
15AC0
330
15AB6
100
AcDbEntity
  8
0
 48
50.0
100
AcDbBlockBegin
  2
*D23
 70
     1
 10
0.0
 20
0.0
 30
0.0
  3
*D23
  1

  0
LINE
  5
15FAA
330
15AB6
100
AcDbEntity
  8
寸法
 62
     0
 48
50.0
370
    -2
100
AcDbLine
 10
10996.35691079978
 20
5205.760766326189
 30
0.0
 11
10996.35691079978
 21
5697.607540293841
 31
0.0
  0
LINE
  5
15FAB
330
15AB6
100
AcDbEntity
  8
寸法
 62
     0
 48
50.0
370
    -2
100
AcDbLine
 10
9466.356910799785
 20
5254.951704837512
 30
0.0
 11
9466.356910799785
 21
5697.607540293841
 31
0.0
  0
LINE
  5
15FAC
330
15AB6
100
AcDbEntity
  8
寸法
 62
     0
 48
50.0
370
    -2
100
AcDbLine
 10
10996.35691079978
 20
5637.60754029384
 30
0.0
 11
9466.356910799785
 21
5637.60754029384
 31
0.0
  0
INSERT
  5
15FAD
330
15AB6
100
AcDbEntity
  8
寸法
 62
     0
 48
50.0
370
    -2
100
AcDbBlockReference
  2
_DOTSMALL
 10
10996.35691079978
 20
5637.60754029384
 30
0.0
 41
100.0
 42
100.0
 43
100.0
  0
INSERT
  5
15FAE
330
15AB6
100
AcDbEntity
  8
寸法
 62
     0
 48
50.0
370
    -2
100
AcDbBlockReference
  2
_DOTSMALL
 10
9466.356910799785
 20
5637.60754029384
 30
0.0
 41
100.0
 42
100.0
 43
100.0
 50
180.0
  0
MTEXT
  5
15FAF
330
15AB6
100
AcDbEntity
  8
寸法
 62
     7
 48
50.0
100
AcDbMText
 10
10276.17594369033
 20
5737.60754029384
 30
0.0
 40
120.0
 41
0.0
 71
     5
 72
     1
  1
\A1;柱外寸法1530
  7
STYLE1
 73
     1
 44
1.0
1001
ACAD
1000
MTEXTBEGIN
1070
    73
1070
     1
1070
    44
1040
1.0
1070
    74
1070
     0
1000
MTEXTEND
  0
POINT
  5
15FB0
330
15AB6
100
AcDbEntity
  8
DEFPOINTS
 62
     0
 48
50.0
100
AcDbPoint
 10
10996.35691079978
 20
5185.76076632619
 30
0.0
  0
POINT
  5
15FB1
330
15AB6
100
AcDbEntity
  8
DEFPOINTS
 62
     0
 48
50.0
100
AcDbPoint
 10
9466.356910799785
 20
5234.951704837513
 30
0.0
  0
POINT
  5
15FB2
330
15AB6
100
AcDbEntity
  8
DEFPOINTS
 62
     0
 48
50.0
100
AcDbPoint
 10
9466.356910799785
 20
5637.60754029384
 30
0.0
  0
ENDBLK
  5
15AC1
330
15AB6
100
AcDbEntity
  8
0
 48
50.0
100
AcDbBlockEnd
  0
BLOCK
  5
15ACC
330
15AC2
100
AcDbEntity
  8
0
 48
50.0
100
AcDbBlockBegin
  2
*D24
 70
     1
 10
0.0
 20
0.0
 30
0.0
  3
*D24
  1

  0
LINE
  5
15FA1
330
15AC2
100
AcDbEntity
  8
寸法
 62
     0
 48
50.0
370
    -2
100
AcDbLine
 10
11016.35691079978
 20
3163.950086714538
 30
0.0
 11
11761.28406877191
 21
3163.950086714538
 31
0.0
  0
LINE
  5
15FA2
330
15AC2
100
AcDbEntity
  8
寸法
 62
     0
 48
50.0
370
    -2
100
AcDbLine
 10
11096.35691079978
 20
5183.950086714538
 30
0.0
 11
11761.28406877191
 21
5183.950086714538
 31
0.0
  0
LINE
  5
15FA3
330
15AC2
100
AcDbEntity
  8
寸法
 62
     0
 48
50.0
370
    -2
100
AcDbLine
 10
11701.28406877191
 20
3163.950086714538
 30
0.0
 11
11701.28406877191
 21
5183.950086714538
 31
0.0
  0
INSERT
  5
15FA4
330
15AC2
100
AcDbEntity
  8
寸法
 62
     0
 48
50.0
370
    -2
100
AcDbBlockReference
  2
_DOTSMALL
 10
11701.28406877191
 20
3163.950086714538
 30
0.0
 41
100.0
 42
100.0
 43
100.0
 50
270.0
  0
INSERT
  5
15FA5
330
15AC2
100
AcDbEntity
  8
寸法
 62
     0
 48
50.0
370
    -2
100
AcDbBlockReference
  2
_DOTSMALL
 10
11701.28406877191
 20
5183.950086714538
 30
0.0
 41
100.0
 42
100.0
 43
100.0
 50
90.0
  0
MTEXT
  5
15FA6
330
15AC2
100
AcDbEntity
  8
寸法
 62
     7
 48
50.0
100
AcDbMText
 10
11601.27225774829
 20
4173.95008671454
 30
0.0
 40
120.0
 41
0.0
 71
     5
 72
     1
  1
\A1;2020
  7
STYLE1
 11
0.0000000000000001
 21
1.0
 31
0.0
 73
     1
 44
1.0
1001
ACAD
1000
MTEXTBEGIN
1070
    73
1070
     1
1070
    44
1040
1.0
1070
    74
1070
     0
1000
MTEXTEND
  0
POINT
  5
15FA7
330
15AC2
100
AcDbEntity
  8
DEFPOINTS
 62
     0
 48
50.0
100
AcDbPoint
 10
10996.35691079978
 20
3163.950086714538
 30
0.0
  0
POINT
  5
15FA8
330
15AC2
100
AcDbEntity
  8
DEFPOINTS
 62
     0
 48
50.0
100
AcDbPoint
 10
11076.35691079978
 20
5183.950086714538
 30
0.0
  0
POINT
  5
15FA9
330
15AC2
100
AcDbEntity
  8
DEFPOINTS
 62
     0
 48
50.0
100
AcDbPoint
 10
11701.28406877191
 20
5183.950086714538
 30
0.0
  0
ENDBLK
  5
15ACD
330
15AC2
100
AcDbEntity
  8
0
 48
50.0
100
AcDbBlockEnd
  0
BLOCK
  5
15ADA
330
15ACE
100
AcDbEntity
  8
0
 48
50.0
100
AcDbBlockBegin
  2
*D25
 70
     1
 10
0.0
 20
0.0
 30
0.0
  3
*D25
  1

  0
LINE
  5
15F96
330
15ACE
100
AcDbEntity
  8
寸法
 62
     0
 48
50.0
370
    -2
100
AcDbLine
 10
9439.354540755006
 20
3213.95008671454
 30
0.0
 11
8804.393820107581
 21
3213.95008671454
 31
0.0
  0
LINE
  5
15F97
330
15ACE
100
AcDbEntity
  8
寸法
 62
     0
 48
50.0
370
    -2
100
AcDbLine
 10
9391.356910799784
 20
3163.950086714538
 30
0.0
 11
8804.393820107581
 21
3163.950086714539
 31
0.0
  0
LINE
  5
15F98
330
15ACE
100
AcDbEntity
  8
寸法
 62
     0
 48
50.0
370
    -2
100
AcDbLine
 10
8864.393820107579
 20
3213.95008671454
 30
0.0
 11
8864.393820107579
 21
3313.95008671454
 31
0.0
  0
LINE
  5
15F99
330
15ACE
100
AcDbEntity
  8
寸法
 62
     0
 48
50.0
370
    -2
100
AcDbLine
 10
8864.393820107579
 20
3163.950086714539
 30
0.0
 11
8864.393820107579
 21
2751.855598525558
 31
0.0
  0
LINE
  5
15F9A
330
15ACE
100
AcDbEntity
  8
寸法
 62
     0
 48
50.0
370
    -2
100
AcDbLine
 10
8864.393820107579
 20
3213.95008671454
 30
0.0
 11
8864.393820107579
 21
3163.950086714539
 31
0.0
  0
INSERT
  5
15F9B
330
15ACE
100
AcDbEntity
  8
寸法
 62
     0
 48
50.0
370
    -2
100
AcDbBlockReference
  2
_DOTSMALL
 10
8864.393820107579
 20
3213.95008671454
 30
0.0
 41
100.0
 42
100.0
 43
100.0
 50
270.0
  0
INSERT
  5
15F9C
330
15ACE
100
AcDbEntity
  8
寸法
 62
     0
 48
50.0
370
    -2
100
AcDbBlockReference
  2
_DOTSMALL
 10
8864.393820107579
 20
3163.950086714539
 30
0.0
 41
100.0
 42
100.0
 43
100.0
 50
90.0
  0
MTEXT
  5
15F9D
330
15ACE
100
AcDbEntity
  8
寸法
 62
     7
 48
50.0
100
AcDbMText
 10
8764.39382010758
 20
2857.902842620048
 30
0.0
 40
120.0
 41
0.0
 71
     5
 72
     1
  1
\A1;50
  7
STYLE1
 11
0.0000000000000001
 21
1.0
 31
0.0
 73
     1
 44
1.0
1001
ACAD
1000
MTEXTBEGIN
1070
    73
1070
     1
1070
    44
1040
1.0
1070
    74
1070
     0
1000
MTEXTEND
  0
POINT
  5
15F9E
330
15ACE
100
AcDbEntity
  8
DEFPOINTS
 62
     0
 48
50.0
100
AcDbPoint
 10
9459.354540755006
 20
3213.95008671454
 30
0.0
  0
POINT
  5
15F9F
330
15ACE
100
AcDbEntity
  8
DEFPOINTS
 62
     0
 48
50.0
100
AcDbPoint
 10
9411.356910799783
 20
3163.950086714538
 30
0.0
  0
POINT
  5
15FA0
330
15ACE
100
AcDbEntity
  8
DEFPOINTS
 62
     0
 48
50.0
100
AcDbPoint
 10
8864.393820107579
 20
3163.950086714539
 30
0.0
  0
ENDBLK
  5
15ADB
330
15ACE
100
AcDbEntity
  8
0
 48
50.0
100
AcDbBlockEnd
  0
BLOCK
  5
15AE6
330
15ADC
100
AcDbEntity
  8
0
 48
50.0
100
AcDbBlockBegin
  2
*D26
 70
     1
 10
0.0
 20
0.0
 30
0.0
  3
*D26
  1

  0
LINE
  5
15F8D
330
15ADC
100
AcDbEntity
  8
寸法
 62
     0
 48
50.0
370
    -2
100
AcDbLine
 10
9446.356910799783
 20
3163.950086714538
 30
0.0
 11
8502.085099159303
 21
3163.950086714539
 31
0.0
  0
LINE
  5
15F8E
330
15ADC
100
AcDbEntity
  8
寸法
 62
     0
 48
50.0
370
    -2
100
AcDbLine
 10
9386.356910799785
 20
5238.950086714542
 30
0.0
 11
8502.085099159305
 21
5238.950086714542
 31
0.0
  0
LINE
  5
15F8F
330
15ADC
100
AcDbEntity
  8
寸法
 62
     0
 48
50.0
370
    -2
100
AcDbLine
 10
8562.085099159302
 20
3163.950086714539
 30
0.0
 11
8562.085099159306
 21
5238.950086714542
 31
0.0
  0
INSERT
  5
15F90
330
15ADC
100
AcDbEntity
  8
寸法
 62
     0
 48
50.0
370
    -2
100
AcDbBlockReference
  2
_DOTSMALL
 10
8562.085099159302
 20
3163.950086714539
 30
0.0
 41
100.0
 42
100.0
 43
100.0
 50
270.0
  0
INSERT
  5
15F91
330
15ADC
100
AcDbEntity
  8
寸法
 62
     0
 48
50.0
370
    -2
100
AcDbBlockReference
  2
_DOTSMALL
 10
8562.085099159306
 20
5238.950086714542
 30
0.0
 41
100.0
 42
100.0
 43
100.0
 50
90.0
  0
MTEXT
  5
15F92
330
15ADC
100
AcDbEntity
  8
寸法
 62
     7
 48
50.0
100
AcDbMText
 10
8462.073288135682
 20
4139.157077134339
 30
0.0
 40
120.0
 41
0.0
 71
     5
 72
     1
  1
\A1;2075
  7
STYLE1
 11
0.0000000000000001
 21
1.0
 31
0.0
 73
     1
 44
1.0
1001
ACAD
1000
MTEXTBEGIN
1070
    73
1070
     1
1070
    44
1040
1.0
1070
    74
1070
     0
1000
MTEXTEND
  0
POINT
  5
15F93
330
15ADC
100
AcDbEntity
  8
DEFPOINTS
 62
     0
 48
50.0
100
AcDbPoint
 10
9466.356910799783
 20
3163.950086714538
 30
0.0
  0
POINT
  5
15F94
330
15ADC
100
AcDbEntity
  8
DEFPOINTS
 62
     0
 48
50.0
100
AcDbPoint
 10
9406.356910799784
 20
5238.950086714542
 30
0.0
  0
POINT
  5
15F95
330
15ADC
100
AcDbEntity
  8
DEFPOINTS
 62
     0
 48
50.0
100
AcDbPoint
 10
8562.085099159306
 20
5238.950086714542
 30
0.0
  0
ENDBLK
  5
15AE7
330
15ADC
100
AcDbEntity
  8
0
 48
50.0
100
AcDbBlockEnd
  0
BLOCK
  5
15AF2
330
15AE8
100
AcDbEntity
  8
0
 48
50.0
100
AcDbBlockBegin
  2
*D27
 70
     1
 10
0.0
 20
0.0
 30
0.0
  3
*D27
  1

  0
LINE
  5
15F84
330
15AE8
100
AcDbEntity
  8
寸法
 62
     0
 48
50.0
370
    -2
100
AcDbLine
 10
5419.484998239401
 20
4985.450086714536
 30
0.0
 11
5061.380470631798
 21
4985.450086714536
 31
0.0
  0
LINE
  5
15F85
330
15AE8
100
AcDbEntity
  8
寸法
 62
     0
 48
50.0
370
    -2
100
AcDbLine
 10
5419.484998239401
 20
3225.450086714541
 30
0.0
 11
5061.380470631798
 21
3225.450086714541
 31
0.0
  0
LINE
  5
15F86
330
15AE8
100
AcDbEntity
  8
寸法
 62
     0
 48
50.0
370
    -2
100
AcDbLine
 10
5121.380470631798
 20
4985.450086714536
 30
0.0
 11
5121.380470631798
 21
3225.450086714541
 31
0.0
  0
INSERT
  5
15F87
330
15AE8
100
AcDbEntity
  8
寸法
 62
     0
 48
50.0
370
    -2
100
AcDbBlockReference
  2
_DOTSMALL
 10
5121.380470631798
 20
4985.450086714536
 30
0.0
 41
100.0
 42
100.0
 43
100.0
 50
90.0
  0
INSERT
  5
15F88
330
15AE8
100
AcDbEntity
  8
寸法
 62
     0
 48
50.0
370
    -2
100
AcDbBlockReference
  2
_DOTSMALL
 10
5121.380470631798
 20
3225.450086714541
 30
0.0
 41
100.0
 42
100.0
 43
100.0
 50
270.0
  0
MTEXT
  5
15F89
330
15AE8
100
AcDbEntity
  8
寸法
 62
     7
 48
50.0
100
AcDbMText
 10
5021.380470631797
 20
4104.450086714538
 30
0.0
 40
120.0
 41
0.0
 71
     5
 72
     1
  1
\A1;有効開口部高サ1760
  7
STYLE1
 11
0.0000000000000001
 21
1.0
 31
0.0
 73
     1
 44
1.0
1001
ACAD
1000
MTEXTBEGIN
1070
    73
1070
     1
1070
    44
1040
1.0
1070
    74
1070
     0
1000
MTEXTEND
  0
POINT
  5
15F8A
330
15AE8
100
AcDbEntity
  8
DEFPOINTS
 62
     0
 48
50.0
100
AcDbPoint
 10
5439.4849982394
 20
4985.450086714536
 30
0.0
  0
POINT
  5
15F8B
330
15AE8
100
AcDbEntity
  8
DEFPOINTS
 62
     0
 48
50.0
100
AcDbPoint
 10
5439.4849982394
 20
3225.450086714541
 30
0.0
  0
POINT
  5
15F8C
330
15AE8
100
AcDbEntity
  8
DEFPOINTS
 62
     0
 48
50.0
100
AcDbPoint
 10
5121.380470631798
 20
3225.450086714541
 30
0.0
  0
ENDBLK
  5
15AF3
330
15AE8
100
AcDbEntity
  8
0
 48
50.0
100
AcDbBlockEnd
  0
BLOCK
  5
15AFE
330
15AF4
100
AcDbEntity
  8
0
 48
50.0
100
AcDbBlockBegin
  2
*D28
 70
     1
 10
0.0
 20
0.0
 30
0.0
  3
*D28
  1

  0
LINE
  5
15F7B
330
15AF4
100
AcDbEntity
  8
寸法
 62
     0
 48
50.0
370
    -2
100
AcDbLine
 10
5389.4849982394
 20
5258.950086714543
 30
0.0
 11
5389.4849982394
 21
5734.44865041063
 31
0.0
  0
LINE
  5
15F7C
330
15AF4
100
AcDbEntity
  8
寸法
 62
     0
 48
50.0
370
    -2
100
AcDbLine
 10
7129.484998239404
 20
5258.950086714538
 30
0.0
 11
7129.484998239404
 21
5734.44865041063
 31
0.0
  0
LINE
  5
15F7D
330
15AF4
100
AcDbEntity
  8
寸法
 62
     0
 48
50.0
370
    -2
100
AcDbLine
 10
5389.4849982394
 20
5674.44865041063
 30
0.0
 11
7129.484998239404
 21
5674.44865041063
 31
0.0
  0
INSERT
  5
15F7E
330
15AF4
100
AcDbEntity
  8
寸法
 62
     0
 48
50.0
370
    -2
100
AcDbBlockReference
  2
_DOTSMALL
 10
5389.4849982394
 20
5674.44865041063
 30
0.0
 41
100.0
 42
100.0
 43
100.0
 50
180.0
  0
INSERT
  5
15F7F
330
15AF4
100
AcDbEntity
  8
寸法
 62
     0
 48
50.0
370
    -2
100
AcDbBlockReference
  2
_DOTSMALL
 10
7129.484998239404
 20
5674.44865041063
 30
0.0
 41
100.0
 42
100.0
 43
100.0
  0
MTEXT
  5
15F80
330
15AF4
100
AcDbEntity
  8
寸法
 62
     7
 48
50.0
100
AcDbMText
 10
6241.583474075596
 20
5774.448650410629
 30
0.0
 40
120.0
 41
0.0
 71
     5
 72
     1
  1
\A1;1740
  7
STYLE1
 73
     1
 44
1.0
1001
ACAD
1000
MTEXTBEGIN
1070
    73
1070
     1
1070
    44
1040
1.0
1070
    74
1070
     0
1000
MTEXTEND
  0
POINT
  5
15F81
330
15AF4
100
AcDbEntity
  8
DEFPOINTS
 62
     0
 48
50.0
100
AcDbPoint
 10
5389.4849982394
 20
5238.950086714543
 30
0.0
  0
POINT
  5
15F82
330
15AF4
100
AcDbEntity
  8
DEFPOINTS
 62
     0
 48
50.0
100
AcDbPoint
 10
7129.484998239404
 20
5238.950086714538
 30
0.0
  0
POINT
  5
15F83
330
15AF4
100
AcDbEntity
  8
DEFPOINTS
 62
     0
 48
50.0
100
AcDbPoint
 10
7129.484998239404
 20
5674.44865041063
 30
0.0
  0
ENDBLK
  5
15AFF
330
15AF4
100
AcDbEntity
  8
0
 48
50.0
100
AcDbBlockEnd
  0
BLOCK
  5
15B0A
330
15B00
100
AcDbEntity
  8
0
 48
50.0
100
AcDbBlockBegin
  2
*D29
 70
     1
 10
0.0
 20
0.0
 30
0.0
  3
*D29
  1

  0
LINE
  5
15F72
330
15B00
100
AcDbEntity
  8
寸法
 62
     0
 48
50.0
370
    -2
100
AcDbLine
 10
7079.484998239404
 20
5258.95008671454
 30
0.0
 11
7079.484998239404
 21
5511.491671972783
 31
0.0
  0
LINE
  5
15F73
330
15B00
100
AcDbEntity
  8
寸法
 62
     0
 48
50.0
370
    -2
100
AcDbLine
 10
5439.4849982394
 20
5258.950086714545
 30
0.0
 11
5439.4849982394
 21
5511.491671972783
 31
0.0
  0
LINE
  5
15F74
330
15B00
100
AcDbEntity
  8
寸法
 62
     0
 48
50.0
370
    -2
100
AcDbLine
 10
7079.484998239404
 20
5451.491671972783
 30
0.0
 11
5439.4849982394
 21
5451.491671972783
 31
0.0
  0
INSERT
  5
15F75
330
15B00
100
AcDbEntity
  8
寸法
 62
     0
 48
50.0
370
    -2
100
AcDbBlockReference
  2
_DOTSMALL
 10
7079.484998239404
 20
5451.491671972783
 30
0.0
 41
100.0
 42
100.0
 43
100.0
  0
INSERT
  5
15F76
330
15B00
100
AcDbEntity
  8
寸法
 62
     0
 48
50.0
370
    -2
100
AcDbBlockReference
  2
_DOTSMALL
 10
5439.4849982394
 20
5451.491671972783
 30
0.0
 41
100.0
 42
100.0
 43
100.0
 50
180.0
  0
MTEXT
  5
15F77
330
15B00
100
AcDbEntity
  8
寸法
 62
     7
 48
50.0
100
AcDbMText
 10
6275.858403643506
 20
5551.491671972783
 30
0.0
 40
120.0
 41
0.0
 71
     5
 72
     1
  1
\A1;柱外寸法1640
  7
STYLE1
 73
     1
 44
1.0
1001
ACAD
1000
MTEXTBEGIN
1070
    73
1070
     1
1070
    44
1040
1.0
1070
    74
1070
     0
1000
MTEXTEND
  0
POINT
  5
15F78
330
15B00
100
AcDbEntity
  8
DEFPOINTS
 62
     0
 48
50.0
100
AcDbPoint
 10
7079.484998239404
 20
5238.95008671454
 30
0.0
  0
POINT
  5
15F79
330
15B00
100
AcDbEntity
  8
DEFPOINTS
 62
     0
 48
50.0
100
AcDbPoint
 10
5439.4849982394
 20
5238.950086714545
 30
0.0
  0
POINT
  5
15F7A
330
15B00
100
AcDbEntity
  8
DEFPOINTS
 62
     0
 48
50.0
100
AcDbPoint
 10
5439.4849982394
 20
5451.491671972783
 30
0.0
  0
ENDBLK
  5
15B0B
330
15B00
100
AcDbEntity
  8
0
 48
50.0
100
AcDbBlockEnd
  0
BLOCK
  5
15B18
330
15B0C
100
AcDbEntity
  8
0
 48
50.0
100
AcDbBlockBegin
  2
*D30
 70
     1
 10
0.0
 20
0.0
 30
0.0
  3
*D30
  1

  0
LINE
  5
15F67
330
15B0C
100
AcDbEntity
  8
寸法
 62
     0
 48
50.0
370
    -2
100
AcDbLine
 10
5439.4849982394
 20
5258.950086714545
 30
0.0
 11
5439.4849982394
 21
5511.491671972783
 31
0.0
  0
LINE
  5
15F68
330
15B0C
100
AcDbEntity
  8
寸法
 62
     0
 48
50.0
370
    -2
100
AcDbLine
 10
5389.4849982394
 20
5258.950086714543
 30
0.0
 11
5389.4849982394
 21
5511.491671972783
 31
0.0
  0
LINE
  5
15F69
330
15B0C
100
AcDbEntity
  8
寸法
 62
     0
 48
50.0
370
    -2
100
AcDbLine
 10
5439.4849982394
 20
5451.491671972783
 30
0.0
 11
5539.484998239401
 21
5451.491671972783
 31
0.0
  0
LINE
  5
15F6A
330
15B0C
100
AcDbEntity
  8
寸法
 62
     0
 48
50.0
370
    -2
100
AcDbLine
 10
5389.4849982394
 20
5451.491671972783
 30
0.0
 11
4969.952472770666
 21
5451.491671972783
 31
0.0
  0
LINE
  5
15F6B
330
15B0C
100
AcDbEntity
  8
寸法
 62
     0
 48
50.0
370
    -2
100
AcDbLine
 10
5439.4849982394
 20
5451.491671972783
 30
0.0
 11
5389.4849982394
 21
5451.491671972783
 31
0.0
  0
INSERT
  5
15F6C
330
15B0C
100
AcDbEntity
  8
寸法
 62
     0
 48
50.0
370
    -2
100
AcDbBlockReference
  2
_DOTSMALL
 10
5439.4849982394
 20
5451.491671972783
 30
0.0
 41
100.0
 42
100.0
 43
100.0
 50
180.0
  0
INSERT
  5
15F6D
330
15B0C
100
AcDbEntity
  8
寸法
 62
     0
 48
50.0
370
    -2
100
AcDbBlockReference
  2
_DOTSMALL
 10
5389.4849982394
 20
5451.491671972783
 30
0.0
 41
100.0
 42
100.0
 43
100.0
  0
MTEXT
  5
15F6E
330
15B0C
100
AcDbEntity
  8
寸法
 62
     7
 48
50.0
100
AcDbMText
 10
5075.999716865154
 20
5551.491671972783
 30
0.0
 40
120.0
 41
0.0
 71
     5
 72
     1
  1
\A1;50
  7
STYLE1
 73
     1
 44
1.0
1001
ACAD
1000
MTEXTBEGIN
1070
    73
1070
     1
1070
    44
1040
1.0
1070
    74
1070
     0
1000
MTEXTEND
  0
POINT
  5
15F6F
330
15B0C
100
AcDbEntity
  8
DEFPOINTS
 62
     0
 48
50.0
100
AcDbPoint
 10
5439.4849982394
 20
5238.950086714545
 30
0.0
  0
POINT
  5
15F70
330
15B0C
100
AcDbEntity
  8
DEFPOINTS
 62
     0
 48
50.0
100
AcDbPoint
 10
5389.4849982394
 20
5238.950086714543
 30
0.0
  0
POINT
  5
15F71
330
15B0C
100
AcDbEntity
  8
DEFPOINTS
 62
     0
 48
50.0
100
AcDbPoint
 10
5389.4849982394
 20
5451.491671972783
 30
0.0
  0
ENDBLK
  5
15B19
330
15B0C
100
AcDbEntity
  8
0
 48
50.0
100
AcDbBlockEnd
  0
BLOCK
  5
15B26
330
15B1A
100
AcDbEntity
  8
0
 48
50.0
100
AcDbBlockBegin
  2
*D31
 70
     1
 10
0.0
 20
0.0
 30
0.0
  3
*D31
  1

  0
LINE
  5
15F5C
330
15B1A
100
AcDbEntity
  8
寸法
 62
     0
 48
50.0
370
    -2
100
AcDbLine
 10
7129.484998239404
 20
5258.950086714538
 30
0.0
 11
7129.484998239404
 21
5511.491671972779
 31
0.0
  0
LINE
  5
15F5D
330
15B1A
100
AcDbEntity
  8
寸法
 62
     0
 48
50.0
370
    -2
100
AcDbLine
 10
7079.484998239404
 20
5258.95008671454
 30
0.0
 11
7079.484998239404
 21
5511.491671972779
 31
0.0
  0
LINE
  5
15F5E
330
15B1A
100
AcDbEntity
  8
寸法
 62
     0
 48
50.0
370
    -2
100
AcDbLine
 10
7079.484998239404
 20
5451.491671972779
 30
0.0
 11
6979.484998239404
 21
5451.491671972779
 31
0.0
  0
LINE
  5
15F5F
330
15B1A
100
AcDbEntity
  8
寸法
 62
     0
 48
50.0
370
    -2
100
AcDbLine
 10
7129.484998239404
 20
5451.491671972779
 30
0.0
 11
7549.017523708129
 21
5451.491671972779
 31
0.0
  0
LINE
  5
15F60
330
15B1A
100
AcDbEntity
  8
寸法
 62
     0
 48
50.0
370
    -2
100
AcDbLine
 10
7079.484998239404
 20
5451.491671972779
 30
0.0
 11
7129.484998239404
 21
5451.491671972779
 31
0.0
  0
INSERT
  5
15F61
330
15B1A
100
AcDbEntity
  8
寸法
 62
     0
 48
50.0
370
    -2
100
AcDbBlockReference
  2
_DOTSMALL
 10
7079.484998239404
 20
5451.491671972779
 30
0.0
 41
100.0
 42
100.0
 43
100.0
  0
INSERT
  5
15F62
330
15B1A
100
AcDbEntity
  8
寸法
 62
     0
 48
50.0
370
    -2
100
AcDbBlockReference
  2
_DOTSMALL
 10
7129.484998239404
 20
5451.491671972779
 30
0.0
 41
100.0
 42
100.0
 43
100.0
 50
180.0
  0
MTEXT
  5
15F63
330
15B1A
100
AcDbEntity
  8
寸法
 62
     7
 48
50.0
100
AcDbMText
 10
7442.970279613641
 20
5551.49167197278
 30
0.0
 40
120.0
 41
0.0
 71
     5
 72
     1
  1
\A1;50
  7
STYLE1
 73
     1
 44
1.0
1001
ACAD
1000
MTEXTBEGIN
1070
    73
1070
     1
1070
    44
1040
1.0
1070
    74
1070
     0
1000
MTEXTEND
  0
POINT
  5
15F64
330
15B1A
100
AcDbEntity
  8
DEFPOINTS
 62
     0
 48
50.0
100
AcDbPoint
 10
7129.484998239404
 20
5238.950086714538
 30
0.0
  0
POINT
  5
15F65
330
15B1A
100
AcDbEntity
  8
DEFPOINTS
 62
     0
 48
50.0
100
AcDbPoint
 10
7079.484998239404
 20
5238.95008671454
 30
0.0
  0
POINT
  5
15F66
330
15B1A
100
AcDbEntity
  8
DEFPOINTS
 62
     0
 48
50.0
100
AcDbPoint
 10
7079.484998239404
 20
5451.491671972779
 30
0.0
  0
ENDBLK
  5
15B27
330
15B1A
100
AcDbEntity
  8
0
 48
50.0
100
AcDbBlockEnd
  0
BLOCK
  5
162FB
330
162FA
100
AcDbEntity
  8
0
 48
50.0
100
AcDbBlockBegin
  2
*D33
 70
     1
 10
0.0
 20
0.0
 30
0.0
  3
*D33
  1

  0
LINE
  5
16306
330
162FA
100
AcDbEntity
  8
寸法
 62
     0
370
    -2
100
AcDbLine
 10
9446.356910799783
 20
5003.950086714539
 30
0.0
 11
8804.393820107582
 21
5003.950086714539
 31
0.0
  0
LINE
  5
16307
330
162FA
100
AcDbEntity
  8
寸法
 62
     0
370
    -2
100
AcDbLine
 10
9439.354540755005
 20
3213.950086714542
 30
0.0
 11
8804.393820107581
 21
3213.950086714542
 31
0.0
  0
LINE
  5
16308
330
162FA
100
AcDbEntity
  8
寸法
 62
     0
370
    -2
100
AcDbLine
 10
8864.393820107581
 20
5003.950086714539
 30
0.0
 11
8864.393820107579
 21
3213.950086714542
 31
0.0
  0
INSERT
  5
16309
330
162FA
100
AcDbEntity
  8
寸法
 62
     0
370
    -2
100
AcDbBlockReference
  2
_DOTSMALL
 10
8864.393820107581
 20
5003.950086714539
 30
0.0
 41
100.0
 42
100.0
 43
100.0
 50
90.0
  0
INSERT
  5
1630A
330
162FA
100
AcDbEntity
  8
寸法
 62
     0
370
    -2
100
AcDbBlockReference
  2
_DOTSMALL
 10
8864.393820107579
 20
3213.950086714542
 30
0.0
 41
100.0
 42
100.0
 43
100.0
 50
270.0
  0
MTEXT
  5
1630B
330
162FA
100
AcDbEntity
  8
寸法
 62
     7
100
AcDbMText
 10
8764.39382010758
 20
4118.985098590927
 30
0.0
 40
120.0
 41
0.0
 71
     5
 72
     1
  1
\A1;1790
  7
STYLE1
 11
0.0000000000000001
 21
1.0
 31
0.0
 73
     1
 44
1.0
1001
ACAD
1000
MTEXTBEGIN
1070
    73
1070
     1
1070
    44
1040
1.0
1070
    74
1070
     0
1000
MTEXTEND
  0
POINT
  5
1630C
330
162FA
100
AcDbEntity
  8
DEFPOINTS
 62
     0
100
AcDbPoint
 10
9466.356910799783
 20
5003.950086714539
 30
0.0
  0
POINT
  5
1630D
330
162FA
100
AcDbEntity
  8
DEFPOINTS
 62
     0
100
AcDbPoint
 10
9459.354540755006
 20
3213.950086714542
 30
0.0
  0
POINT
  5
1630E
330
162FA
100
AcDbEntity
  8
DEFPOINTS
 62
     0
100
AcDbPoint
 10
8864.393820107579
 20
3213.950086714542
 30
0.0
  0
ENDBLK
  5
162FC
330
162FA
100
AcDbEntity
  8
0
 48
50.0
100
AcDbBlockEnd
  0
ENDSEC
  0
SECTION
  2
ENTITIES
  0
LINE
  5
10B56
330
747D
100
AcDbEntity
  8
補助
  6
PHANTOM
 62
   230
 48
50.0
100
AcDbLine
 10
140.0
 20
0.0
 30
0.0
 11
139.9999999999995
 21
11409.6
 31
0.0
  0
LINE
  5
10B57
330
747D
100
AcDbEntity
  8
補助
  6
PHANTOM
 62
   230
 48
50.0
100
AcDbLine
 10
139.9999999999995
 20
11409.6
 30
0.0
 11
16307.2
 21
11409.6
 31
0.0
  0
LINE
  5
10B59
330
747D
100
AcDbEntity
  8
仕様書枠
  6
Continuous
 48
50.0
100
AcDbLine
 10
13107.2
 20
1200.0
 30
0.0
 11
13107.2
 21
-0.0000000000000729
 31
0.0
  0
LINE
  5
10B5C
330
747D
100
AcDbEntity
  8
仕様書枠
 48
50.0
100
AcDbLine
 10
16307.2
 20
1200.0
 30
0.0
 11
16307.2
 21
-0.0000000000000909
 31
0.0
  0
LINE
  5
10B5D
330
747D
100
AcDbEntity
  8
仕様書枠
 48
50.0
100
AcDbLine
 10
140.0
 20
0.0
 30
0.0
 11
16307.2
 21
-0.0000000000000909
 31
0.0
  0
LINE
  5
10B5E
330
747D
100
AcDbEntity
  8
補助
  6
PHANTOM
 62
   230
 48
50.0
100
AcDbLine
 10
16307.2
 20
11409.6
 30
0.0
 11
16307.2
 21
1200.0
 31
0.0
  0
LINE
  5
10B6C
330
747D
100
AcDbEntity
  8
仕様書枠
 48
50.0
100
AcDbLine
 10
13107.2
 20
1200.0
 30
0.0
 11
16307.2
 21
1200.0
 31
0.0
  0
LINE
  5
10B6D
330
747D
100
AcDbEntity
  8
補助
  6
PHANTOM
 62
   230
 48
50.0
100
AcDbLine
 10
13107.2
 20
11409.6
 30
0.0
 11
13107.2
 21
4800.0
 31
0.0
  0
LINE
  5
10B6F
330
747D
100
AcDbEntity
  8
補助
  6
PHANTOM
 62
   230
 48
50.0
100
AcDbLine
 10
13107.2
 20
4800.0
 30
0.0
 11
16307.2
 21
4800.0
 31
0.0
  0
LINE
  5
10B72
330
747D
100
AcDbEntity
  8
文字
 62
     7
 48
50.0
100
AcDbLine
 10
13187.2
 20
400.0
 30
0.0
 11
16227.2
 21
400.0
 31
0.0
  0
TEXT
  5
10B73
330
747D
100
AcDbEntity
  8
文字
 62
     7
 48
50.0
100
AcDbText
 10
13162.9790565769
 20
895.0906074299405
 30
0.0
 40
200.0
  1
外 形 図
  7
STYLE2
100
AcDbText
  0
TEXT
  5
10B74
330
747D
100
AcDbEntity
  8
文字
 62
     7
 48
50.0
100
AcDbText
 10
13201.43669998441
 20
477.2740661031255
 30
0.0
 40
160.0
  1
機種名
  7
STYLE2
100
AcDbText
  0
TEXT
  5
10B75
330
747D
100
AcDbEntity
  8
文字
 62
     7
 48
50.0
100
AcDbText
 10
13209.4053442172
 20
228.5435242569016
 30
0.0
 40
100.0
  1
○有効開口寸法 ： 685\U+00D71760(mm)
  7
STYLE2
100
AcDbText
  0
TEXT
  5
10B76
330
747D
100
AcDbEntity
  8
文字
 62
     7
 48
50.0
100
AcDbText
 10
13209.4053442172
 20
76.09434707649343
 30
0.0
 40
100.0
  1
○床面積 ： 2.51㎡(0.76坪) 　
  7
STYLE2
100
AcDbText
  0
LINE
  5
10B7B
330
747D
100
AcDbEntity
  8
仕様書枠
 48
50.0
100
AcDbLine
 10
13107.2
 20
800.0
 30
0.0
 11
14251.2
 21
800.0
 31
0.0
  0
LINE
  5
10B88
330
747D
100
AcDbEntity
  8
仕様書枠
  6
Continuous
 48
50.0
100
AcDbLine
 10
14251.2
 20
1200.0
 30
0.0
 11
14251.2
 21
800.0
 31
0.0
  0
DIMENSION
  5
13B23
330
747D
100
AcDbEntity
  8
寸法
100
AcDbDimension
  2
*D1
 10
7079.484998239383
 20
7247.479955903502
 30
0.0
 11
6251.236540082384
 21
7247.479955903502
 31
0.0
 70
   160
 71
     5
 42
1639.999999999982
  3
INABA_S40G
100
AcDbAlignedDimension
 13
5439.4849982394
 23
8234.581830763572
 33
0.0
 14
7079.484998239383
 24
8234.581830763703
 34
0.0
100
AcDbRotatedDimension
1001
ACAD
1000
DSTYLE
1002
{
1002
}
  0
TEXT
  5
13B2F
330
747D
100
AcDbEntity
  8
部品1
100
AcDbText
 10
5959.420816797202
 20
6704.109612745341
 30
0.0
 40
135.0
  1
平面図
  7
STYLE2
100
AcDbText
  0
LWPOLYLINE
  5
13B30
330
747D
100
AcDbEntity
  8
部品1
100
AcDbPolyline
 90
        4
 70
     1
 43
0.0
 10
5869.501206968164
 20
6897.003141963866
 10
5869.501206968164
 20
6657.110820418333
 10
6632.971873196604
 20
6657.110820418333
 10
6632.971873196604
 20
6897.003141963866
  0
DIMENSION
  5
15024
330
747D
100
AcDbEntity
  8
寸法
100
AcDbDimension
  2
*D2
 10
7079.484998239408
 20
9980.390050388692
 30
0.0
 11
7387.970279613648
 21
9980.390050388692
 31
0.0
 70
   160
 71
     5
 42
55.0
  3
INABA_S40G
100
AcDbAlignedDimension
 13
7024.484998239408
 23
9764.581830763711
 33
0.0
 14
7079.484998239408
 24
9764.581830763711
 34
0.0
100
AcDbRotatedDimension
1001
ACAD
1000
DSTYLE
1002
{
1002
}
  0
LINE
  5
15025
330
747D
100
AcDbEntity
  8
部品1
 48
50.0
100
AcDbLine
 10
7051.484998239387
 20
8337.062765571305
 30
0.0
 11
7022.984026814594
 21
8366.08193647655
 31
0.0
  0
LINE
  5
15026
330
747D
100
AcDbEntity
  8
部品1
 48
2.83
100
AcDbLine
 10
7047.484998239382
 20
8289.581830763671
 30
0.0
 11
7024.484998239383
 21
8289.581830763667
 31
0.0
  0
LINE
  5
15027
330
747D
100
AcDbEntity
  8
部品1
100
AcDbLine
 10
7079.484998239383
 20
8234.581830763703
 30
0.0
 11
5439.4849982394
 21
8234.581830763609
 31
0.0
  0
LINE
  5
15028
330
747D
100
AcDbEntity
  8
部品1
100
AcDbLine
 10
5439.484998239407
 20
9764.581830763617
 30
0.0
 11
7079.484998239408
 21
9764.581830763711
 31
0.0
  0
LINE
  5
15029
330
747D
100
AcDbEntity
  8
部品1
100
AcDbLine
 10
6288.984998239342
 20
9735.081830763668
 30
0.0
 11
7049.984998239342
 21
9735.081830763661
 31
0.0
  0
LINE
  5
1502A
330
747D
100
AcDbEntity
  8
細線
 48
50.0
100
AcDbLine
 10
7049.984998239342
 20
9285.08183076366
 30
0.0
 11
6288.984998239342
 21
9735.081830763665
 31
0.0
  0
LINE
  5
1502B
330
747D
100
AcDbEntity
  8
細線
 48
50.0
100
AcDbLine
 10
7049.984998239342
 20
9735.081830763661
 30
0.0
 11
6288.984998239339
 21
9285.081830763667
 31
0.0
  0
LINE
  5
1502C
330
747D
100
AcDbEntity
  8
部品1
100
AcDbLine
 10
6288.984998239339
 20
9285.081830763667
 30
0.0
 11
7049.984998239342
 21
9285.08183076366
 31
0.0
  0
LINE
  5
1502D
330
747D
100
AcDbEntity
  8
部品1
100
AcDbLine
 10
6287.484998239332
 20
9736.581830763668
 30
0.0
 11
7051.484998239408
 21
9736.581830763711
 31
0.0
  0
DIMENSION
  5
1502E
330
747D
100
AcDbEntity
  8
寸法
100
AcDbDimension
  2
*D3
 10
6999.7892110838
 20
9097.748577851671
 30
0.0
 11
6610.791508623067
 21
9097.748577851671
 31
0.0
 70
   160
 71
     5
 42
761.0000000000109
  3
INABA_S40G
100
AcDbAlignedDimension
 13
6288.985004917042
 23
9285.081830763623
 33
0.0
 14
7049.985004917053
 24
9285.081830763616
 34
0.0
100
AcDbRotatedDimension
1001
ACAD
1000
DSTYLE
1002
{
1002
}
  0
ARC
  5
15030
330
747D
100
AcDbEntity
  8
想像線
 48
10.0
100
AcDbCircle
 10
7026.299106116967
 20
8235.432377686617
 30
0.0
 40
721.8146089967647
100
AcDbArc
 50
180.06751423376
 51
270.6497889048236
  0
ARC
  5
15031
330
747D
100
AcDbEntity
  8
想像線
 48
10.0
100
AcDbCircle
 10
6206.299106116967
 20
8235.43237768661
 30
0.0
 40
721.8146089967647
100
AcDbArc
 50
180.06751423376
 51
270.6497889048236
  0
DIMENSION
  5
15033
330
747D
100
AcDbEntity
  8
寸法
 48
50.0
100
AcDbDimension
  2
*D4
 10
6999.484998239402
 20
7794.758162968531
 30
0.0
 11
6656.984998239403
 21
7794.758162968531
 31
0.0
 70
   160
  1
有効開口部間口\P<>
 71
     5
 42
684.9999999999964
  3
INABA_S40G
100
AcDbAlignedDimension
 13
6314.484998239404
 23
8234.581830763609
 33
0.0
 14
6999.484998239402
 24
8234.581830763572
 34
0.0
100
AcDbRotatedDimension
  0
LINE
  5
15034
330
747D
100
AcDbEntity
  8
想像線
 48
10.0
100
AcDbLine
 10
6214.484998239401
 20
8234.581830763657
 30
0.0
 11
6214.484998239401
 21
7513.664187107862
 31
0.0
  0
LINE
  5
15035
330
747D
100
AcDbEntity
  8
想像線
 48
10.0
100
AcDbLine
 10
7034.484998239401
 20
8234.581830763668
 30
0.0
 11
7034.484998239401
 21
7513.664187107877
 31
0.0
  0
LINE
  5
15036
330
747D
100
AcDbEntity
  8
部品1
100
AcDbLine
 10
7024.484998239408
 20
9764.581830763733
 30
0.0
 11
7024.484998239408
 21
9736.581830763732
 31
0.0
  0
LINE
  5
15037
330
747D
100
AcDbEntity
  8
部品1
100
AcDbLine
 10
7024.484998239408
 20
9764.581830763711
 30
0.0
 11
7024.484998239408
 21
9736.581830763711
 31
0.0
  0
LINE
  5
15038
330
747D
100
AcDbEntity
  8
部品1
 48
5.0
100
AcDbLine
 10
6314.484998239412
 20
9764.581830763667
 30
0.0
 11
6314.484998239404
 21
9736.581830763668
 31
0.0
  0
LINE
  5
15039
330
747D
100
AcDbEntity
  8
部品1
 48
5.0
100
AcDbLine
 10
6204.484998239408
 20
9736.581830763661
 30
0.0
 11
6204.484998239408
 21
9764.58183076366
 31
0.0
  0
LINE
  5
1503A
330
747D
100
AcDbEntity
  8
部品1
 48
5.0
100
AcDbLine
 10
6234.194272686582
 20
9764.58183076366
 30
0.0
 11
6256.865701258012
 21
9736.581830763668
 31
0.0
  0
LINE
  5
1503B
330
747D
100
AcDbEntity
  8
部品1
100
AcDbLine
 10
5494.484998239408
 20
9764.581830763617
 30
0.0
 11
5494.484998239408
 21
9736.581830763617
 31
0.0
  0
LINE
  5
1503C
330
747D
100
AcDbEntity
  8
部品1
100
AcDbLine
 10
5494.484998239371
 20
9764.581830763589
 30
0.0
 11
5494.484998239375
 21
9736.581830763588
 31
0.0
  0
LINE
  5
1503D
330
747D
100
AcDbEntity
  8
部品1
100
AcDbLine
 10
5439.484998239372
 20
9764.581830763589
 30
0.0
 11
5439.4849982394
 21
8234.581830763572
 31
0.0
  0
LINE
  5
1503E
330
747D
100
AcDbEntity
  8
部品1
 48
50.0
100
AcDbLine
 10
6287.484998239386
 20
8289.581830763657
 30
0.0
 11
6287.484998239332
 21
9764.581830763667
 31
0.0
  0
LINE
  5
1503F
330
747D
100
AcDbEntity
  8
破線
 48
10.0
100
AcDbLine
 10
5495.985613802083
 20
9012.081859988096
 30
0.0
 11
6203.984998239368
 21
9012.081830763646
 31
0.0
  0
LINE
  5
15040
330
747D
100
AcDbEntity
  8
破線
 48
10.0
100
AcDbLine
 10
5495.985613802083
 20
9062.081859988095
 30
0.0
 11
6203.984998239368
 21
9062.081830763645
 31
0.0
  0
LINE
  5
15041
330
747D
100
AcDbEntity
  8
部品1
100
AcDbLine
 10
5467.484998239408
 20
9736.581830763617
 30
0.0
 11
6256.865701258008
 21
9736.581830763668
 31
0.0
  0
LINE
  5
15042
330
747D
100
AcDbEntity
  8
部品1
100
AcDbLine
 10
5468.985004917038
 20
9735.081830763625
 30
0.0
 11
6229.985004917038
 21
9735.081830763732
 31
0.0
  0
LINE
  5
15043
330
747D
100
AcDbEntity
  8
部品1
100
AcDbLine
 10
6203.984998239386
 20
8366.081830763667
 30
0.0
 11
5495.985969665795
 21
8366.08074845518
 31
0.0
  0
LINE
  5
15044
330
747D
100
AcDbEntity
  8
部品1
100
AcDbLine
 10
6214.484998239401
 20
8260.58183076371
 30
0.0
 11
5484.484998239401
 21
8260.581830763646
 31
0.0
  0
LINE
  5
15045
330
747D
100
AcDbEntity
  8
部品1
 48
5.0
100
AcDbLine
 10
5482.4849982394
 20
8264.08183076354
 30
0.0
 11
6235.484998239404
 21
8264.081830763656
 31
0.0
  0
LINE
  5
15046
330
747D
100
AcDbEntity
  8
破線
 48
10.0
100
AcDbLine
 10
6180.484998239394
 20
8389.581830763667
 30
0.0
 11
5519.484998239393
 21
8389.581830763628
 31
0.0
  0
LINE
  5
15048
330
747D
100
AcDbEntity
  8
部品1
100
AcDbLine
 10
5468.985004917038
 20
9285.081830763623
 30
0.0
 11
6229.985004917038
 21
9285.081830763726
 31
0.0
  0
LINE
  5
15049
330
747D
100
AcDbEntity
  8
細線
 48
50.0
100
AcDbLine
 10
6229.985004917038
 20
9285.081830763726
 30
0.0
 11
5468.985004917038
 21
9735.081830763625
 31
0.0
  0
LINE
  5
1504A
330
747D
100
AcDbEntity
  8
細線
 48
50.0
100
AcDbLine
 10
6229.985004917038
 20
9735.081830763725
 30
0.0
 11
5468.985004917038
 21
9285.081830763623
 31
0.0
  0
LINE
  5
1504B
330
747D
100
AcDbEntity
  8
破線
 48
10.0
100
AcDbLine
 10
5519.485044095315
 20
9012.081859018099
 30
0.0
 11
5519.485000614261
 21
8389.581830763622
 31
0.0
  0
LINE
  5
1504C
330
747D
100
AcDbEntity
  8
部品1
 48
5.0
100
AcDbLine
 10
5495.985952078718
 20
8366.080730548338
 30
0.0
 11
5495.985476733054
 21
9285.081830763628
 31
0.0
  0
LINE
  5
1504D
330
747D
100
AcDbEntity
  8
部品1
100
AcDbLine
 10
5467.484998239382
 20
8289.581830763573
 30
0.0
 11
5467.484998239408
 21
9736.581830763617
 31
0.0
  0
LINE
  5
1504E
330
747D
100
AcDbEntity
  8
部品1
 48
50.0
100
AcDbLine
 10
5495.985969665795
 20
8366.08074845518
 30
0.0
 11
5467.484998239386
 21
8337.061577522716
 31
0.0
  0
LINE
  5
1504F
330
747D
100
AcDbEntity
  8
部品1
100
AcDbLine
 10
5484.484998239401
 20
8260.581830763646
 30
0.0
 11
5484.484998239401
 21
8234.581830763609
 31
0.0
  0
LINE
  5
15050
330
747D
100
AcDbEntity
  8
部品1
 48
2.83
100
AcDbLine
 10
5439.4849982394
 20
8234.581830763536
 30
0.0
 11
5439.4849982394
 21
8289.581830763536
 31
0.0
  0
LINE
  5
15051
330
747D
100
AcDbEntity
  8
部品1
 48
2.83
100
AcDbLine
 10
5482.4849982394
 20
8264.08183076354
 30
0.0
 11
5482.4849982394
 21
8234.58183076354
 31
0.0
  0
LINE
  5
15052
330
747D
100
AcDbEntity
  8
部品1
 48
2.83
100
AcDbLine
 10
5494.484998239401
 20
8289.581830763536
 30
0.0
 11
5494.484998239404
 21
8264.08183076354
 31
0.0
  0
LINE
  5
15053
330
747D
100
AcDbEntity
  8
部品1
 48
2.83
100
AcDbLine
 10
5439.4849982394
 20
8289.581830763536
 30
0.0
 11
5462.484998239401
 21
8289.581830763539
 31
0.0
  0
LINE
  5
15054
330
747D
100
AcDbEntity
  8
部品1
 48
2.83
100
AcDbLine
 10
5482.4849982394
 20
8234.58183076354
 30
0.0
 11
5439.4849982394
 21
8234.581830763536
 31
0.0
  0
LINE
  5
15055
330
747D
100
AcDbEntity
  8
部品1
 48
2.83
100
AcDbLine
 10
5471.4849982394
 20
8289.581830763539
 30
0.0
 11
5494.484998239401
 21
8289.581830763536
 31
0.0
  0
LINE
  5
15056
330
747D
100
AcDbEntity
  8
部品1
100
AcDbLine
 10
5490.484998239401
 20
8234.581830763572
 30
0.0
 11
5439.4849982394
 21
8234.581830763572
 31
0.0
  0
LINE
  5
15057
330
747D
100
AcDbEntity
  8
部品1
100
AcDbLine
 10
5467.484998239382
 20
8289.581830763536
 30
0.0
 11
5439.4849982394
 21
8289.581830763536
 31
0.0
  0
LINE
  5
15058
330
747D
100
AcDbEntity
  8
部品1
100
AcDbLine
 10
5467.484998239382
 20
8289.581830763573
 30
0.0
 11
5439.4849982394
 21
8289.581830763573
 31
0.0
  0
LINE
  5
15059
330
747D
100
AcDbEntity
  8
部品1
100
AcDbLine
 10
5467.484998239401
 20
8289.581830763587
 30
0.0
 11
5439.4849982394
 21
8289.581830763587
 31
0.0
  0
LINE
  5
1505A
330
747D
100
AcDbEntity
  8
部品1
100
AcDbLine
 10
5439.4849982394
 20
8289.581830763536
 30
0.0
 11
5439.4849982394
 21
8234.581830763536
 31
0.0
  0
LINE
  5
1505B
330
747D
100
AcDbEntity
  8
部品1
100
AcDbLine
 10
5467.484998239382
 20
8709.581830763587
 30
0.0
 11
5439.484998239382
 21
8709.581830763587
 31
0.0
  0
LINE
  5
1505C
330
747D
100
AcDbEntity
  8
部品1
 48
50.0
100
AcDbLine
 10
5468.985004917038
 20
9735.081830763617
 30
0.0
 11
5468.985004917038
 21
9285.081830763623
 31
0.0
  0
LINE
  5
1505D
330
747D
100
AcDbEntity
  8
部品1
100
AcDbLine
 10
5467.484998239382
 20
9289.581830763587
 30
0.0
 11
5439.484998239382
 21
9289.581830763587
 31
0.0
  0
LINE
  5
1505E
330
747D
100
AcDbEntity
  8
破線
 48
10.0
100
AcDbLine
 10
5519.485063164109
 20
9285.081830763628
 30
0.0
 11
5519.48504758777
 21
9062.081859018098
 31
0.0
  0
LINE
  5
1505F
330
747D
100
AcDbEntity
  8
部品1
100
AcDbLine
 10
5467.484998239375
 20
9709.581830763589
 30
0.0
 11
5439.484998239375
 21
9709.581830763589
 31
0.0
  0
LINE
  5
15060
330
747D
100
AcDbEntity
  8
部品1
 48
50.0
100
AcDbLine
 10
5468.985004917031
 20
9735.081830763625
 30
0.0
 11
5467.484998239408
 21
9736.581830763617
 31
0.0
  0
LINE
  5
15061
330
747D
100
AcDbEntity
  8
破線
 48
10.0
100
AcDbLine
 10
6999.485044095293
 20
9012.081831774942
 30
0.0
 11
6999.485000614258
 21
8389.581830763711
 31
0.0
  0
LINE
  5
15062
330
747D
100
AcDbEntity
  8
部品1
 48
5.0
100
AcDbLine
 10
7022.984044400716
 20
8366.081918570678
 30
0.0
 11
7022.984519745762
 21
9285.08183076366
 31
0.0
  0
LINE
  5
15063
330
747D
100
AcDbEntity
  8
破線
 48
10.0
100
AcDbLine
 10
6338.484997784679
 20
8389.581830763674
 30
0.0
 11
6338.484989459376
 21
9012.081859059378
 31
0.0
  0
LINE
  5
15064
330
747D
100
AcDbEntity
  8
部品1
 48
50.0
100
AcDbLine
 10
6314.984992001163
 20
8366.081824436681
 30
0.0
 11
6314.984994867963
 21
9285.081830763667
 31
0.0
  0
LINE
  5
15065
330
747D
100
AcDbEntity
  8
破線
 48
10.0
100
AcDbLine
 10
6180.484997933793
 20
8389.581830763665
 30
0.0
 11
6180.484992338627
 21
9012.081831733667
 31
0.0
  0
LINE
  5
15066
330
747D
100
AcDbEntity
  8
部品1
 48
50.0
100
AcDbLine
 10
6203.984998239385
 20
8366.081830763667
 30
0.0
 11
6203.984998239365
 21
9285.081830763722
 31
0.0
  0
LINE
  5
15067
330
747D
100
AcDbEntity
  8
部品1
 48
50.0
100
AcDbLine
 10
6231.484998239387
 20
8289.581830763657
 30
0.0
 11
6231.484998239335
 21
9736.581830763668
 31
0.0
  0
LINE
  5
15068
330
747D
100
AcDbEntity
  8
部品1
 48
50.0
100
AcDbLine
 10
6259.484998239386
 20
8289.581830763657
 30
0.0
 11
6259.484998239386
 21
9709.581830763667
 31
0.0
  0
LINE
  5
15069
330
747D
100
AcDbEntity
  8
部品1
 48
5.0
100
AcDbLine
 10
7036.484998239382
 20
8264.081830763656
 30
0.0
 11
6283.484998239405
 21
8264.081830763656
 31
0.0
  0
LINE
  5
1506A
330
747D
100
AcDbEntity
  8
部品1
100
AcDbLine
 10
7034.484998239401
 20
8260.58183076371
 30
0.0
 11
6304.4849982394
 21
8260.581830763646
 31
0.0
  0
LINE
  5
1506B
330
747D
100
AcDbEntity
  8
破線
 48
10.0
100
AcDbLine
 10
6999.484998239386
 20
8389.581830763711
 30
0.0
 11
6338.484998239394
 21
8389.581830763674
 31
0.0
  0
LINE
  5
1506C
330
747D
100
AcDbEntity
  8
部品1
100
AcDbLine
 10
7022.984026814594
 20
8366.08193647655
 30
0.0
 11
6314.984998239386
 21
8366.081830788326
 31
0.0
  0
LINE
  5
1506D
330
747D
100
AcDbEntity
  8
部品1
 48
50.0
100
AcDbLine
 10
6314.984998239386
 20
8366.081830788326
 30
0.0
 11
6287.484998239386
 21
8338.081830763655
 31
0.0
  0
LINE
  5
1506E
330
747D
100
AcDbEntity
  8
部品1
 48
5.0
100
AcDbLine
 10
6291.484998239404
 20
8289.581830763657
 30
0.0
 11
6314.484998239404
 21
8289.581830763657
 31
0.0
  0
LINE
  5
1506F
330
747D
100
AcDbEntity
  8
部品1
 48
5.0
100
AcDbLine
 10
6283.484998239405
 20
8289.581830763657
 30
0.0
 11
6283.484998239405
 21
8264.081830763656
 31
0.0
  0
LINE
  5
15070
330
747D
100
AcDbEntity
  8
部品1
 48
5.0
100
AcDbLine
 10
6314.484998239404
 20
8289.581830763657
 30
0.0
 11
6314.484998239404
 21
8264.081830763656
 31
0.0
  0
LINE
  5
15071
330
747D
100
AcDbEntity
  8
部品1
 48
5.0
100
AcDbLine
 10
6302.484998239404
 20
8264.081830763656
 30
0.0
 11
6302.484998239404
 21
8234.581830763657
 31
0.0
  0
LINE
  5
15072
330
747D
100
AcDbEntity
  8
部品1
100
AcDbLine
 10
6304.4849982394
 20
8260.581830763646
 30
0.0
 11
6304.4849982394
 21
8234.58183076366
 31
0.0
  0
LINE
  5
15073
330
747D
100
AcDbEntity
  8
部品1
100
AcDbLine
 10
6302.484998239401
 20
8264.081830763609
 30
0.0
 11
6302.484998239404
 21
8234.581830763657
 31
0.0
  0
LINE
  5
15074
330
747D
100
AcDbEntity
  8
部品1
 48
50.0
100
AcDbLine
 10
6231.484998239387
 20
8338.081830763655
 30
0.0
 11
6203.984998239386
 21
8366.081830763667
 31
0.0
  0
LINE
  5
15075
330
747D
100
AcDbEntity
  8
部品1
 48
0.2
100
AcDbLine
 10
6201.547446068078
 20
8227.579460718875
 30
0.0
 11
6206.547446068078
 21
8227.579460718875
 31
0.0
  0
ARC
  5
15076
330
747D
100
AcDbEntity
  8
細線
 48
0.2
100
AcDbCircle
 10
6206.547446068078
 20
8235.579460718874
 30
0.0
 40
4.049999999999999
100
AcDbArc
 50
194.2603506853988
 51
345.7396493146012
  0
ARC
  5
15077
330
747D
100
AcDbEntity
  8
部品1
 48
0.2
100
AcDbCircle
 10
6201.547446068078
 20
8235.579460718874
 30
0.0
 40
8.0
100
AcDbArc
 50
187.1636477221926
 51
269.9999999999992
  0
ARC
  5
15078
330
747D
100
AcDbEntity
  8
部品1
 48
0.2
100
AcDbCircle
 10
6206.547446068078
 20
8235.579460718874
 30
0.0
 40
8.0
100
AcDbArc
 50
270.0
 51
352.8363522778074
  0
LINE
  5
15079
330
747D
100
AcDbEntity
  8
部品1
 48
5.0
100
AcDbLine
 10
6227.484998239404
 20
8289.581830763657
 30
0.0
 11
6204.484998239401
 21
8289.581830763657
 31
0.0
  0
LINE
  5
1507A
330
747D
100
AcDbEntity
  8
部品1
 48
5.0
100
AcDbLine
 10
6204.484998239404
 20
8289.58183076366
 30
0.0
 11
6204.484998239404
 21
8264.081830763656
 31
0.0
  0
LINE
  5
1507B
330
747D
100
AcDbEntity
  8
部品1
 48
5.0
100
AcDbLine
 10
6235.484998239404
 20
8289.581830763657
 30
0.0
 11
6235.484998239404
 21
8264.081830763656
 31
0.0
  0
LINE
  5
1507C
330
747D
100
AcDbEntity
  8
部品1
 48
5.0
100
AcDbLine
 10
6216.484998239405
 20
8264.081830763656
 30
0.0
 11
6216.484998239405
 21
8234.581830763657
 31
0.0
  0
LINE
  5
1507D
330
747D
100
AcDbEntity
  8
部品1
100
AcDbLine
 10
6216.484998239401
 20
8264.081830763602
 30
0.0
 11
6216.484998239401
 21
8234.581830763653
 31
0.0
  0
LINE
  5
1507E
330
747D
100
AcDbEntity
  8
部品1
100
AcDbLine
 10
6214.484998239401
 20
8260.58183076371
 30
0.0
 11
6214.484998239401
 21
8234.581830763653
 31
0.0
  0
LINE
  5
1507F
330
747D
100
AcDbEntity
  8
部品1
 48
5.0
100
AcDbLine
 10
6231.484998239387
 20
8289.581830763657
 30
0.0
 11
6287.484998239386
 21
8289.581830763657
 31
0.0
  0
LINE
  5
15080
330
747D
100
AcDbEntity
  8
部品1
 48
5.0
100
AcDbLine
 10
6216.484998239405
 20
8234.581830763657
 30
0.0
 11
6302.484998239404
 21
8234.581830763657
 31
0.0
  0
LINE
  5
15081
330
747D
100
AcDbEntity
  8
部品1
 48
5.0
100
AcDbLine
 10
6259.484998239386
 20
8709.58183076366
 30
0.0
 11
6231.484998239335
 21
8709.581830763667
 31
0.0
  0
ARC
  5
15082
330
747D
100
AcDbEntity
  8
細線
 48
0.2
100
AcDbCircle
 10
7026.547446068082
 20
8235.579460718897
 30
0.0
 40
4.049999999999999
100
AcDbArc
 50
194.2603506853988
 51
345.7396493146012
  0
ARC
  5
15083
330
747D
100
AcDbEntity
  8
部品1
 48
0.2
100
AcDbCircle
 10
7021.547446068082
 20
8235.579460718897
 30
0.0
 40
8.0
100
AcDbArc
 50
187.1636477221926
 51
269.9999999999992
  0
ARC
  5
15084
330
747D
100
AcDbEntity
  8
部品1
 48
0.2
100
AcDbCircle
 10
7026.547446068082
 20
8235.579460718897
 30
0.0
 40
8.0
100
AcDbArc
 50
270.0
 51
352.8363522778074
  0
LINE
  5
15085
330
747D
100
AcDbEntity
  8
部品1
 48
0.2
100
AcDbLine
 10
7021.547446068082
 20
8227.579460718898
 30
0.0
 11
7026.547446068082
 21
8227.579460718898
 31
0.0
  0
LINE
  5
15086
330
747D
100
AcDbEntity
  8
部品1
100
AcDbLine
 10
7034.484998239401
 20
8260.58183076371
 30
0.0
 11
7034.484998239401
 21
8234.581830763699
 31
0.0
  0
LINE
  5
15087
330
747D
100
AcDbEntity
  8
部品1
 48
2.83
100
AcDbLine
 10
7036.484998239382
 20
8264.08183076367
 30
0.0
 11
7036.484998239382
 21
8234.581830763671
 31
0.0
  0
LINE
  5
15088
330
747D
100
AcDbEntity
  8
部品1
 48
2.83
100
AcDbLine
 10
7024.484998239383
 20
8289.581830763667
 30
0.0
 11
7024.484998239383
 21
8264.08183076367
 31
0.0
  0
LINE
  5
15089
330
747D
100
AcDbEntity
  8
破線
 48
10.0
100
AcDbLine
 10
6315.985613802084
 20
9012.081859988096
 30
0.0
 11
7023.984998239368
 21
9012.081830763646
 31
0.0
  0
LINE
  5
1508A
330
747D
100
AcDbEntity
  8
破線
 48
10.0
100
AcDbLine
 10
6315.985613802084
 20
9062.081859988095
 30
0.0
 11
7023.984998239368
 21
9062.081830763645
 31
0.0
  0
LINE
  5
1508B
330
747D
100
AcDbEntity
  8
部品1
 48
50.0
100
AcDbLine
 10
6229.985004917038
 20
9735.081830763725
 30
0.0
 11
6229.985004917038
 21
9285.081830763726
 31
0.0
  0
LINE
  5
1508C
330
747D
100
AcDbEntity
  8
部品1
 48
50.0
100
AcDbLine
 10
6288.984998239342
 20
9735.081830763665
 30
0.0
 11
6288.984998239342
 21
9285.081830763667
 31
0.0
  0
LINE
  5
1508D
330
747D
100
AcDbEntity
  8
破線
 48
10.0
100
AcDbLine
 10
6180.484991889213
 20
9062.081831733667
 30
0.0
 11
6180.484989884841
 21
9285.081830763719
 31
0.0
  0
LINE
  5
1508E
330
747D
100
AcDbEntity
  8
破線
 48
10.0
100
AcDbLine
 10
6338.484988790679
 20
9062.081859059377
 30
0.0
 11
6338.484985808285
 21
9285.081830763667
 31
0.0
  0
LINE
  5
1508F
330
747D
100
AcDbEntity
  8
部品1
 48
50.0
100
AcDbLine
 10
6259.484998239379
 20
9289.581830763667
 30
0.0
 11
6287.484998239365
 21
9289.581830763667
 31
0.0
  0
LINE
  5
15090
330
747D
100
AcDbEntity
  8
部品1
 48
50.0
100
AcDbLine
 10
6259.484998239379
 20
9327.581830763667
 30
0.0
 11
6287.484998239365
 21
9327.581830763667
 31
0.0
  0
LINE
  5
15091
330
747D
100
AcDbEntity
  8
部品1
 48
5.0
100
AcDbLine
 10
6259.484998239386
 20
9289.58183076366
 30
0.0
 11
6231.484998239335
 21
9289.581830763667
 31
0.0
  0
LINE
  5
15092
330
747D
100
AcDbEntity
  8
部品1
 48
50.0
100
AcDbLine
 10
6288.984998239342
 20
9735.027309243402
 30
0.0
 11
6287.484998239335
 21
9736.581830763668
 31
0.0
  0
LINE
  5
15093
330
747D
100
AcDbEntity
  8
部品1
 48
50.0
100
AcDbLine
 10
6229.985004917038
 20
9735.027318103909
 30
0.0
 11
6231.484998239335
 21
9736.581830763665
 31
0.0
  0
LINE
  5
15094
330
747D
100
AcDbEntity
  8
部品1
 48
5.0
100
AcDbLine
 10
6287.484998239335
 20
9709.581830763667
 30
0.0
 11
6231.484998239335
 21
9709.581830763667
 31
0.0
  0
POINT
  5
15095
330
747D
100
AcDbEntity
  8
DEFPOINTS
  6
ByBlock
 62
     0
 48
50.0
100
AcDbPoint
 10
6991.291501945376
 20
9066.034720520683
 30
0.0
  0
LINE
  5
15096
330
747D
100
AcDbEntity
  8
破線
 48
10.0
100
AcDbLine
 10
6999.485063164077
 20
9285.08183076366
 30
0.0
 11
6999.485047587744
 21
9062.081831774944
 31
0.0
  0
DIMENSION
  5
15097
330
747D
100
AcDbEntity
  8
寸法
100
AcDbDimension
  2
*D5
 10
6204.484998239408
 20
9980.390050388715
 30
0.0
 11
5849.734998239409
 21
9980.390050388715
 31
0.0
 70
   160
 71
     5
 42
710.0
  3
INABA_S40G
100
AcDbAlignedDimension
 13
5494.484998239408
 23
9764.581830763617
 33
0.0
 14
6204.484998239408
 24
9764.58183076374
 34
0.0
100
AcDbRotatedDimension
1001
ACAD
1000
DSTYLE
1002
{
1002
}
  0
DIMENSION
  5
15098
330
747D
100
AcDbEntity
  8
寸法
100
AcDbDimension
  2
*D6
 10
5494.484998239408
 20
9980.390050388599
 30
0.0
 11
5130.999716865131
 21
9980.390050388599
 31
0.0
 70
   160
 71
     5
 42
55.00000000003637
  3
INABA_S40G
100
AcDbAlignedDimension
 13
5439.484998239372
 23
9764.581830763617
 33
0.0
 14
5494.484998239408
 24
9764.581830763617
 34
0.0
100
AcDbRotatedDimension
1001
ACAD
1000
DSTYLE
1002
{
1002
}
  0
DIMENSION
  5
15099
330
747D
100
AcDbEntity
  8
寸法
100
AcDbDimension
  2
*D7
 10
7024.484998239408
 20
9980.390050388715
 30
0.0
 11
6669.734998239409
 21
9980.390050388715
 31
0.0
 70
   160
 71
     5
 42
710.0
  3
INABA_S40G
100
AcDbAlignedDimension
 13
6314.484998239408
 23
9764.581830763617
 33
0.0
 14
7024.484998239408
 24
9764.58183076374
 34
0.0
100
AcDbRotatedDimension
1001
ACAD
1000
DSTYLE
1002
{
1002
}
  0
DIMENSION
  5
1509A
330
747D
100
AcDbEntity
  8
寸法
 48
50.0
100
AcDbDimension
  2
*D8
 10
6314.484998239412
 20
9980.390050388715
 30
0.0
 11
6259.48499823941
 21
9980.390050388715
 31
0.0
 70
   160
 71
     5
 42
110.0000000000036
  3
INABA_S40G
100
AcDbAlignedDimension
 13
6204.484998239408
 23
9764.58183076374
 33
0.0
 14
6314.484998239412
 24
9764.581830763718
 34
0.0
100
AcDbRotatedDimension
  0
DIMENSION
  5
1509B
330
747D
100
AcDbEntity
  8
寸法
100
AcDbDimension
  2
*D9
 10
7726.911343973793
 20
8234.581830763696
 30
0.0
 11
7726.911343973792
 21
7856.720363858842
 31
0.0
 70
   160
 71
     5
 42
55.0
  3
INABA_S40G
100
AcDbAlignedDimension
 13
7079.484998239383
 23
8289.581830763697
 33
0.0
 14
7079.484998239383
 24
8234.581830763696
 34
0.0
 50
90.0
100
AcDbRotatedDimension
1001
ACAD
1000
DSTYLE
1002
{
1002
}
  0
DIMENSION
  5
1509C
330
747D
100
AcDbEntity
  8
寸法
100
AcDbDimension
  2
*D10
 10
7726.911343973819
 20
9709.581830763712
 30
0.0
 11
7726.911343973817
 21
10073.06711213795
 31
0.0
 70
   160
 71
     5
 42
55.0
  3
INABA_S40G
100
AcDbAlignedDimension
 13
7079.484998239408
 23
9764.581830763711
 33
0.0
 14
7079.484998239408
 24
9709.581830763712
 34
0.0
 50
90.0
100
AcDbRotatedDimension
1001
ACAD
1000
DSTYLE
1002
{
1002
}
  0
LINE
  5
1509D
330
747D
100
AcDbEntity
  8
部品1
100
AcDbLine
 10
7079.484998239408
 20
9764.581830763711
 30
0.0
 11
7079.484998239383
 21
8234.581830763703
 31
0.0
  0
DIMENSION
  5
1509E
330
747D
100
AcDbEntity
  8
寸法
100
AcDbDimension
  2
*D11
 10
8036.022874789495
 20
8234.581830763696
 30
0.0
 11
8036.022874789495
 21
8999.581830763704
 31
0.0
 70
   160
 71
     5
 42
1530.000000000014
  3
INABA_S40G
100
AcDbAlignedDimension
 13
7079.484998239408
 23
9764.581830763711
 33
0.0
 14
7079.484998239383
 24
8234.581830763696
 34
0.0
 50
90.0
100
AcDbRotatedDimension
1001
ACAD
1000
DSTYLE
1002
{
1002
}
  0
DIMENSION
  5
1509F
330
747D
100
AcDbEntity
  8
寸法
 48
50.0
100
AcDbDimension
  2
*D12
 10
7726.911343973817
 20
8709.581830763712
 30
0.0
 11
7626.911343973816
 21
8999.581830763712
 31
0.0
 70
    32
 71
     5
 42
580.0
  3
INABA_S40G
100
AcDbAlignedDimension
 13
7079.484998239408
 23
9289.581830763712
 33
0.0
 14
7079.484998239408
 24
8709.581830763712
 34
0.0
 50
90.0
100
AcDbRotatedDimension
  0
LINE
  5
150A0
330
747D
100
AcDbEntity
  8
部品1
100
AcDbLine
 10
7051.484998239408
 20
9736.581830763711
 30
0.0
 11
7051.484998239387
 21
8289.581830763697
 31
0.0
  0
DIMENSION
  5
150A1
330
747D
100
AcDbEntity
  8
寸法
 48
50.0
100
AcDbDimension
  2
*D13
 10
7726.911343973792
 20
8289.581830763712
 30
0.0
 11
7626.899532950169
 21
8499.581830763712
 31
0.0
 70
    32
 71
     5
 42
420.0
  3
INABA_S40G
100
AcDbAlignedDimension
 13
7079.484998239408
 23
8709.581830763712
 33
0.0
 14
7079.484998239415
 24
8289.581830763712
 34
0.0
 50
90.0
100
AcDbRotatedDimension
  0
LINE
  5
150A2
330
747D
100
AcDbEntity
  8
部品1
 48
2.83
100
AcDbLine
 10
7079.484998239383
 20
8289.581830763667
 30
0.0
 11
7056.484998239382
 21
8289.581830763671
 31
0.0
  0
LINE
  5
150A3
330
747D
100
AcDbEntity
  8
部品1
100
AcDbLine
 10
7051.484998239387
 20
8289.581830763697
 30
0.0
 11
7079.484998239383
 21
8289.581830763697
 31
0.0
  0
LINE
  5
150A4
330
747D
100
AcDbEntity
  8
部品1
100
AcDbLine
 10
7051.484998239415
 20
8289.581830763719
 30
0.0
 11
7079.484998239415
 21
8289.581830763719
 31
0.0
  0
LINE
  5
150A5
330
747D
100
AcDbEntity
  8
部品1
100
AcDbLine
 10
7051.484998239408
 20
8709.581830763719
 30
0.0
 11
7079.484998239408
 21
8709.581830763719
 31
0.0
  0
DIMENSION
  5
150A6
330
747D
100
AcDbEntity
  8
寸法
 48
50.0
100
AcDbDimension
  2
*D14
 10
7726.911343973817
 20
9289.581830763712
 30
0.0
 11
7626.899532950194
 21
9499.581830763712
 31
0.0
 70
    32
 71
     5
 42
420.0
  3
INABA_S40G
100
AcDbAlignedDimension
 13
7079.484998239408
 23
9709.581830763712
 33
0.0
 14
7079.484998239408
 24
9289.581830763712
 34
0.0
 50
90.0
100
AcDbRotatedDimension
  0
DIMENSION
  5
150A7
330
747D
100
AcDbEntity
  8
寸法
100
AcDbDimension
  2
*D15
 10
7405.342724101366
 20
9189.864015094769
 30
0.0
 11
7305.342724101366
 21
9414.864015094773
 31
0.0
 70
    32
 71
     5
 42
450.0
  3
INABA_S40G
100
AcDbAlignedDimension
 13
7049.984998239342
 23
9735.081830763661
 33
0.0
 14
7049.984998239342
 24
9285.08183076366
 34
0.0
 50
90.0
100
AcDbRotatedDimension
1001
ACAD
1000
DSTYLE
1002
{
1002
}
  0
LINE
  5
150A8
330
747D
100
AcDbEntity
  8
部品1
100
AcDbLine
 10
7049.984998239342
 20
9735.081830763661
 30
0.0
 11
7049.984998239342
 21
9285.08183076366
 31
0.0
  0
LINE
  5
150A9
330
747D
100
AcDbEntity
  8
部品1
100
AcDbLine
 10
7051.484998239408
 20
9289.581830763719
 30
0.0
 11
7079.484998239408
 21
9289.581830763719
 31
0.0
  0
LINE
  5
150AA
330
747D
100
AcDbEntity
  8
部品1
100
AcDbLine
 10
7051.484998239408
 20
9709.581830763719
 30
0.0
 11
7079.484998239408
 21
9709.581830763719
 31
0.0
  0
LINE
  5
153B2
330
747D
100
AcDbEntity
  8
細線
 48
50.0
100
AcDbLine
 10
5819.484998239408
 20
9743.081830763497
 30
0.0
 11
5819.484998239405
 21
9764.581830763493
 31
0.0
  0
LINE
  5
153B3
330
747D
100
AcDbEntity
  8
細線
 48
50.0
100
AcDbLine
 10
5879.484998239409
 20
9743.081830763497
 30
0.0
 11
5879.484998239405
 21
9764.5818307635
 31
0.0
  0
LINE
  5
153B4
330
747D
100
AcDbEntity
  8
細線
 48
50.0
100
AcDbLine
 10
5879.484998239409
 20
9743.081830763497
 30
0.0
 11
5819.484998239408
 21
9743.081830763493
 31
0.0
  0
LINE
  5
153B5
330
747D
100
AcDbEntity
  8
細線
 48
50.0
100
AcDbLine
 10
6699.484998239409
 20
9743.081830763607
 30
0.0
 11
6699.484998239404
 21
9764.58183076361
 31
0.0
  0
LINE
  5
153B6
330
747D
100
AcDbEntity
  8
細線
 48
50.0
100
AcDbLine
 10
6639.484998239407
 20
9743.081830763607
 30
0.0
 11
6639.484998239405
 21
9764.581830763603
 31
0.0
  0
LINE
  5
153B7
330
747D
100
AcDbEntity
  8
細線
 48
50.0
100
AcDbLine
 10
6699.484998239409
 20
9743.081830763607
 30
0.0
 11
6639.484998239407
 21
9743.081830763602
 31
0.0
  0
LINE
  5
153B9
330
747D
100
AcDbEntity
  8
細線
 48
50.0
100
AcDbLine
 10
6021.484998239401
 20
8260.581830763952
 30
0.0
 11
6021.484998239401
 21
8234.581830763916
 31
0.0
  0
LINE
  5
153BC
330
747D
100
AcDbEntity
  8
細線
 48
50.0
100
AcDbLine
 10
6061.4849982394
 20
8260.581830763952
 30
0.0
 11
6061.4849982394
 21
8234.581830763916
 31
0.0
  0
LINE
  5
153C0
330
747D
100
AcDbEntity
  8
細線
 48
50.0
100
AcDbLine
 10
6841.4849982394
 20
8260.581830763952
 30
0.0
 11
6841.4849982394
 21
8234.581830763916
 31
0.0
  0
LINE
  5
153C1
330
747D
100
AcDbEntity
  8
細線
 48
50.0
100
AcDbLine
 10
6881.4849982394
 20
8260.581830763952
 30
0.0
 11
6881.4849982394
 21
8234.581830763916
 31
0.0
  0
DIMENSION
  5
1546D
330
747D
100
AcDbEntity
  8
寸法
 48
50.0
100
AcDbDimension
  2
*D16
 10
6179.4849982394
 20
7794.758162968531
 30
0.0
 11
5836.984998239403
 21
7794.758162968531
 31
0.0
 70
   160
 71
     5
 42
684.9999999999964
  3
INABA_S40G
100
AcDbAlignedDimension
 13
5494.484998239404
 23
8234.581830763609
 33
0.0
 14
6179.4849982394
 24
8234.581830763572
 34
0.0
100
AcDbRotatedDimension
  0
DIMENSION
  5
154BC
330
747D
100
AcDbEntity
  8
寸法
100
AcDbDimension
  2
*D17
 10
6179.789211083801
 20
9097.748577851671
 30
0.0
 11
5808.254620628664
 21
9097.748577851671
 31
0.0
 70
   160
 71
     5
 42
761.0000000000109
  3
INABA_S40G
100
AcDbAlignedDimension
 13
5468.985004917041
 23
9285.081830763623
 33
0.0
 14
6229.985004917053
 24
9285.081830763616
 34
0.0
100
AcDbRotatedDimension
1001
ACAD
1000
DSTYLE
1002
{
1002
}
  0
LINE
  5
15868
330
747D
100
AcDbEntity
  8
部品1
 48
50.0
100
AcDbLine
 10
10081.35691079978
 20
5369.818225815816
 30
0.0
 11
10381.35691079978
 21
5348.218225815817
 31
0.0
  0
LINE
  5
15869
330
747D
100
AcDbEntity
  8
細線
 48
50.0
100
AcDbLine
 10
10598.85691079978
 20
5003.950086714536
 30
0.0
 11
10598.85691079978
 21
3213.950086714536
 31
0.0
  0
LINE
  5
1586A
330
747D
100
AcDbEntity
  8
細線
 48
50.0
100
AcDbLine
 10
10583.85691079978
 20
5003.950086714536
 30
0.0
 11
10583.85691079978
 21
3213.950086714536
 31
0.0
  0
LINE
  5
1586B
330
747D
100
AcDbEntity
  8
細線
 48
50.0
100
AcDbLine
 10
10723.85691079978
 20
5003.950086714536
 30
0.0
 11
10723.85691079978
 21
3213.950086714536
 31
0.0
  0
LINE
  5
1586C
330
747D
100
AcDbEntity
  8
細線
 48
50.0
100
AcDbLine
 10
10738.85691079978
 20
5003.950086714536
 30
0.0
 11
10738.85691079978
 21
3213.950086714536
 31
0.0
  0
LINE
  5
1586D
330
747D
100
AcDbEntity
  8
細線
 48
50.0
100
AcDbLine
 10
10878.85691079979
 20
5003.950086714536
 30
0.0
 11
10878.85691079979
 21
3213.950086714536
 31
0.0
  0
LINE
  5
1586E
330
747D
100
AcDbEntity
  8
細線
 48
50.0
100
AcDbLine
 10
10863.85691079978
 20
5003.950086714536
 30
0.0
 11
10863.85691079978
 21
3213.950086714536
 31
0.0
  0
LINE
  5
1586F
330
747D
100
AcDbEntity
  8
部品1
100
AcDbLine
 10
10521.35691079978
 20
5003.950086714536
 30
0.0
 11
10521.35691079978
 21
3213.950086714536
 31
0.0
  0
TEXT
  5
15870
330
747D
100
AcDbEntity
  8
部品1
 48
50.0
100
AcDbText
 10
10558.44975808764
 20
5268.200989749967
 30
0.0
 40
120.0
  1
64
 50
90.0
  7
STYLE1
100
AcDbText
  0
TEXT
  5
15871
330
747D
100
AcDbEntity
  8
部品1
 48
50.0
100
AcDbText
 10
10069.62474602351
 20
5405.70224796825
 30
0.0
 40
120.0
  1
1000
  7
STYLE1
100
AcDbText
  0
LINE
  5
15872
330
747D
100
AcDbEntity
  8
部品1
 48
50.0
100
AcDbLine
 10
10381.35691079978
 20
5369.818225815816
 30
0.0
 11
10381.35691079978
 21
5348.218225815817
 31
0.0
  0
LINE
  5
15873
330
747D
100
AcDbEntity
  8
部品1
 48
50.0
100
AcDbLine
 10
10081.35691079978
 20
5369.818225815816
 30
0.0
 11
10381.35691079978
 21
5369.818225815816
 31
0.0
  0
DIMENSION
  5
15874
330
747D
100
AcDbEntity
  8
寸法
 48
50.0
100
AcDbDimension
  2
*D19
 10
8814.090659088405
 20
5260.772577611351
 30
0.0
 11
8822.768402740292
 21
5490.608816628241
 31
0.0
 70
   160
 71
     5
 42
141.0000000000009
  3
INABA_S40G
100
AcDbAlignedDimension
 13
9421.699475401737
 23
5096.731111783504
 33
0.0
 14
9427.019309553692
 24
5237.630719180386
 34
0.0
 50
87.83775598715745
100
AcDbRotatedDimension
1001
ACAD
1000
DSTYLE
1002
{
1070
   174
1070
     0
1070
   272
1070
     1
1070
   288
1070
     0
1070
   341
1005
0
1002
}
  0
DIMENSION
  5
15875
330
747D
100
AcDbEntity
  8
寸法
 48
50.0
100
AcDbDimension
  2
*D20
 10
11076.35691079978
 20
5637.60754029384
 30
0.0
 11
11282.40415489427
 21
5637.60754029384
 31
0.0
 70
   160
 71
     5
 42
80.0
  3
INABA_S40G
100
AcDbAlignedDimension
 13
10996.35691079978
 23
5185.76076632619
 33
0.0
 14
11076.35691079978
 24
5183.950086714538
 34
0.0
100
AcDbRotatedDimension
1001
ACAD
1000
DSTYLE
1002
{
1070
   174
1070
     0
1070
   272
1070
     1
1070
   288
1070
     0
1070
   341
1005
0
1002
}
  0
ARC
  5
15876
330
747D
100
AcDbEntity
  8
部品1
100
AcDbCircle
 10
11061.98444661372
 20
5077.383887598755
 30
0.0
 40
0.7
100
AcDbArc
 50
275.0921697642102
 51
354.1866997667087
  0
ARC
  5
15877
330
747D
100
AcDbEntity
  8
部品1
100
AcDbCircle
 10
11072.84379236304
 20
5154.427142416678
 30
0.0
 40
0.7
100
AcDbArc
 50
275.0921697642102
 51
354.1866997665013
  0
ARC
  5
15878
330
747D
100
AcDbEntity
  8
部品1
100
AcDbCircle
 10
11073.17219760564
 20
5150.741745559588
 30
0.0
 40
3.0
100
AcDbArc
 50
95.0921697642102
 51
174.1866997665013
  0
ARC
  5
15879
330
747D
100
AcDbEntity
  8
部品1
100
AcDbCircle
 10
11062.31285185631
 20
5073.698490741665
 30
0.0
 40
3.0
100
AcDbArc
 50
95.0921697642102
 51
174.1866997665013
  0
ARC
  5
1587A
330
747D
100
AcDbEntity
  8
部品1
 48
50.0
100
AcDbCircle
 10
11051.28471658121
 20
5064.107746137782
 30
0.0
 40
7.0
100
AcDbArc
 50
267.8377559869487
 51
354.1866997665013
  0
ARC
  5
1587B
330
747D
100
AcDbEntity
  8
部品1
 48
50.0
100
AcDbCircle
 10
11068.60681304573
 20
5175.010293279955
 30
0.0
 40
7.0
100
AcDbArc
 50
354.1866997665013
 51
87.03587545283093
  0
LINE
  5
1587C
330
747D
100
AcDbEntity
  8
部品1
 48
50.0
100
AcDbLine
 10
11059.32828018571
 20
5074.002352458567
 30
0.0
 11
11058.24871714597
 21
5063.398735465009
 31
0.0
  0
LINE
  5
1587D
330
747D
100
AcDbEntity
  8
部品1
 48
50.0
100
AcDbLine
 10
11070.18762593503
 20
5151.045607276492
 30
0.0
 11
11062.68084667019
 21
5077.312986531478
 31
0.0
  0
LINE
  5
1587E
330
747D
100
AcDbEntity
  8
部品1
 48
50.0
100
AcDbLine
 10
11075.57081361048
 20
5174.301282607181
 30
0.0
 11
11073.54019241951
 21
5154.3562413494
 31
0.0
  0
ARC
  5
1587F
330
747D
100
AcDbEntity
  8
部品1
100
AcDbCircle
 10
9412.394002671147
 20
5117.764245673441
 30
0.0
 40
0.7
100
AcDbArc
 50
181.0932240292114
 51
260.1877540314867
  0
ARC
  5
15880
330
747D
100
AcDbEntity
  8
部品1
100
AcDbCircle
 10
9407.62132907354
 20
5210.630023873561
 30
0.0
 40
0.7
100
AcDbArc
 50
181.0932240292114
 51
260.1877540314867
  0
ARC
  5
15881
330
747D
100
AcDbEntity
  8
部品1
100
AcDbCircle
 10
9406.990774670518
 20
5206.984149336162
 30
0.0
 40
3.0
100
AcDbArc
 50
1.093224029263536
 51
80.18775403169653
  0
ARC
  5
15882
330
747D
100
AcDbEntity
  8
部品1
100
AcDbCircle
 10
9411.763448268123
 20
5114.118371136043
 30
0.0
 40
3.0
100
AcDbArc
 50
1.093224029263536
 51
80.18775403148671
  0
ARC
  5
15883
330
747D
100
AcDbEntity
  8
部品1
 48
50.0
100
AcDbCircle
 10
9421.963580643327
 20
5103.726127753562
 30
0.0
 40
7.0
100
AcDbArc
 50
181.0932240292635
 51
267.8377559869487
  0
ARC
  5
15884
330
747D
100
AcDbEntity
  8
部品1
 48
50.0
100
AcDbCircle
 10
9413.539922541231
 20
5230.677187286658
 30
0.0
 40
7.0
100
AcDbArc
 50
87.03587545283093
 51
181.0932240292635
  0
LINE
  5
15885
330
747D
100
AcDbEntity
  8
部品1
 48
50.0
100
AcDbLine
 10
9414.762902194555
 20
5114.175608739226
 30
0.0
 11
9414.964854814988
 21
5103.592573346134
 31
0.0
  0
LINE
  5
15886
330
747D
100
AcDbEntity
  8
細線
 48
50.0
100
AcDbLine
 10
9412.156809137883
 20
5117.105656858035
 30
0.0
 11
11062.16047356852
 21
5076.706381501967
 31
0.0
  0
LINE
  5
15887
330
747D
100
AcDbEntity
  8
細線
 48
50.0
100
AcDbLine
 10
9407.396333900598
 20
5209.967168555898
 30
0.0
 11
11073.03231864576
 21
5153.753007533496
 31
0.0
  0
LINE
  5
15888
330
747D
100
AcDbEntity
  8
部品1
 48
50.0
100
AcDbLine
 10
9409.990228596948
 20
5207.041386939345
 30
0.0
 11
9411.694130088314
 21
5117.750890232699
 31
0.0
  0
LINE
  5
15889
330
747D
100
AcDbEntity
  8
部品1
 48
50.0
100
AcDbLine
 10
9406.541196712892
 20
5230.543632879229
 30
0.0
 11
9406.921456490703
 21
5210.616668432818
 31
0.0
  0
LINE
  5
1588A
330
747D
100
AcDbEntity
  8
細線
 48
50.0
100
AcDbLine
 10
11043.35691079978
 20
5183.327109368258
 30
0.0
 11
11038.60922791178
 21
5057.581336877515
 31
0.0
  0
LINE
  5
1588B
330
747D
100
AcDbEntity
  8
細線
 48
50.0
100
AcDbLine
 10
9439.356910799785
 20
5236.349763089942
 30
0.0
 11
9434.067809244274
 21
5096.264130462587
 31
0.0
  0
LINE
  5
1588C
330
747D
100
AcDbEntity
  8
部品1
100
AcDbLine
 10
9421.699475401737
 20
5096.731111783504
 30
0.0
 11
11051.02061133963
 21
5057.112730167724
 31
0.0
  0
LINE
  5
1588D
330
747D
100
AcDbEntity
  8
部品1
100
AcDbLine
 10
9413.901897156746
 20
5237.667822048803
 30
0.0
 11
11068.96878766124
 21
5182.000928042102
 31
0.0
  0
LINE
  5
1588E
330
747D
100
AcDbEntity
  8
細線
 48
50.0
100
AcDbLine
 10
9598.856910799783
 20
5003.950086714536
 30
0.0
 11
9598.856910799783
 21
3213.950086714536
 31
0.0
  0
LINE
  5
1588F
330
747D
100
AcDbEntity
  8
細線
 48
50.0
100
AcDbLine
 10
9583.856910799783
 20
5003.950086714536
 30
0.0
 11
9583.856910799783
 21
3213.950086714536
 31
0.0
  0
LINE
  5
15890
330
747D
100
AcDbEntity
  8
細線
 48
50.0
100
AcDbLine
 10
9723.856910799783
 20
5003.950086714536
 30
0.0
 11
9723.856910799783
 21
3213.950086714536
 31
0.0
  0
LINE
  5
15891
330
747D
100
AcDbEntity
  8
細線
 48
50.0
100
AcDbLine
 10
9738.856910799782
 20
5003.950086714536
 30
0.0
 11
9738.856910799782
 21
3213.950086714536
 31
0.0
  0
LINE
  5
15892
330
747D
100
AcDbEntity
  8
細線
 48
50.0
100
AcDbLine
 10
9878.856910799783
 20
5003.950086714536
 30
0.0
 11
9878.856910799783
 21
3213.950086714536
 31
0.0
  0
LINE
  5
15893
330
747D
100
AcDbEntity
  8
細線
 48
50.0
100
AcDbLine
 10
9863.856910799782
 20
5003.950086714536
 30
0.0
 11
9863.856910799782
 21
3213.950086714536
 31
0.0
  0
LINE
  5
15894
330
747D
100
AcDbEntity
  8
細線
 48
50.0
100
AcDbLine
 10
10441.35691079978
 20
5003.950086714536
 30
0.0
 11
10441.35691079978
 21
3213.950086714536
 31
0.0
  0
LINE
  5
15895
330
747D
100
AcDbEntity
  8
細線
 48
50.0
100
AcDbLine
 10
10456.35691079978
 20
5003.950086714536
 30
0.0
 11
10456.35691079978
 21
3213.950086714536
 31
0.0
  0
LWPOLYLINE
  5
1589A
330
747D
100
AcDbEntity
  8
部品1
100
AcDbPolyline
 90
        4
 70
     1
 43
0.0
 10
9779.621577685565
 20
2460.87350589782
 10
9779.621577685565
 20
2220.981184352288
 10
10543.092243914
 20
2220.981184352288
 10
10543.092243914
 20
2460.87350589782
  0
TEXT
  5
1589B
330
747D
100
AcDbEntity
  8
部品1
100
AcDbText
 10
9869.067679109171
 20
2267.979976679295
 30
0.0
 40
135.0
  1
側面図
  7
STYLE2
100
AcDbText
  0
LINE
  5
1589C
330
747D
100
AcDbEntity
  8
部品1
100
AcDbLine
 10
9466.356910799783
 20
3163.950086714538
 30
0.0
 11
10996.35691079978
 21
3163.950086714536
 31
0.0
  0
DIMENSION
  5
1589D
330
747D
100
AcDbEntity
  8
寸法
 48
50.0
100
AcDbDimension
  2
*D21
 10
9406.356910799784
 20
5845.781861485804
 30
0.0
 11
10293.48174050161
 21
5845.781861485804
 31
0.0
 70
   160
 71
     5
 42
1670.0
  3
INABA_S40G
100
AcDbAlignedDimension
 13
11076.35691079978
 23
5183.950086714538
 33
0.0
 14
9406.356910799784
 24
5238.950086714542
 34
0.0
100
AcDbRotatedDimension
1001
ACAD
1000
DSTYLE
1002
{
1070
   174
1070
     0
1070
   272
1070
     1
1070
   288
1070
     0
1070
   341
1005
0
1002
}
  0
DIMENSION
  5
1589E
330
747D
100
AcDbEntity
  8
寸法
 48
50.0
100
AcDbDimension
  2
*D22
 10
9406.356910799784
 20
5637.60754029384
 30
0.0
 11
9096.719115524194
 21
5637.60754029384
 31
0.0
 70
   160
 71
     5
 42
60.0
  3
INABA_S40G
100
AcDbAlignedDimension
 13
9466.356910799785
 23
5234.951704837513
 33
0.0
 14
9406.356910799784
 24
5238.950086714542
 34
0.0
100
AcDbRotatedDimension
1001
ACAD
1000
DSTYLE
1002
{
1070
   174
1070
     0
1070
   272
1070
     1
1070
   288
1070
     0
1070
   341
1005
0
1002
}
  0
DIMENSION
  5
1589F
330
747D
100
AcDbEntity
  8
寸法
 48
50.0
100
AcDbDimension
  2
*D23
 10
9466.356910799785
 20
5637.60754029384
 30
0.0
 11
10276.17594369033
 21
5637.60754029384
 31
0.0
 70
   160
  1
柱外寸法<>
 71
     5
 42
1530.0
  3
INABA_S40G
100
AcDbAlignedDimension
 13
10996.35691079978
 23
5185.76076632619
 33
0.0
 14
9466.356910799785
 24
5234.951704837513
 34
0.0
100
AcDbRotatedDimension
1001
ACAD
1000
DSTYLE
1002
{
1070
   174
1070
     0
1070
   272
1070
     1
1070
   288
1070
     0
1070
   341
1005
0
1002
}
  0
DIMENSION
  5
158A0
330
747D
100
AcDbEntity
  8
寸法
100
AcDbDimension
  2
*D24
 10
11701.28406877191
 20
5183.950086714538
 30
0.0
 11
11601.27225774829
 21
4173.95008671454
 31
0.0
 70
    32
 71
     5
 42
2020.000000000001
  3
INABA_S40G
100
AcDbAlignedDimension
 13
10996.35691079978
 23
3163.950086714538
 33
0.0
 14
11076.35691079978
 24
5183.950086714538
 34
0.0
 50
90.0
100
AcDbRotatedDimension
1001
ACAD
1000
DSTYLE
1002
{
1070
   174
1070
     0
1070
   272
1070
     1
1070
   288
1070
     0
1070
   341
1005
0
1002
}
  0
LINE
  5
158A1
330
747D
100
AcDbEntity
  8
部品1
100
AcDbLine
 10
10941.35691079978
 20
5003.950086714536
 30
0.0
 11
10941.35691079978
 21
3213.950086714536
 31
0.0
  0
LINE
  5
158A2
330
747D
100
AcDbEntity
  8
部品1
100
AcDbLine
 10
10996.35691079978
 20
5058.586667549789
 30
0.0
 11
10996.35691079978
 21
3063.950086714536
 31
0.0
  0
LINE
  5
158A3
330
747D
100
AcDbEntity
  8
部品1
100
AcDbLine
 10
9941.356910799783
 20
5003.950086714536
 30
0.0
 11
9941.356910799783
 21
3213.950086714536
 31
0.0
  0
DIMENSION
  5
158A4
330
747D
100
AcDbEntity
  8
寸法
100
AcDbDimension
  2
*D25
 10
8864.393820107579
 20
3163.950086714539
 30
0.0
 11
8864.393820107579
 21
2857.902842620048
 31
0.0
 70
   160
 71
     5
 42
50.00000000000182
  3
INABA_S40G
100
AcDbAlignedDimension
 13
9459.354540755006
 23
3213.95008671454
 33
0.0
 14
9411.356910799783
 24
3163.950086714538
 34
0.0
 50
90.0
100
AcDbRotatedDimension
1001
ACAD
1000
DSTYLE
1002
{
1070
   174
1070
     0
1070
   272
1070
     1
1070
   288
1070
     0
1070
   341
1005
0
1002
}
  0
DIMENSION
  5
158A5
330
747D
100
AcDbEntity
  8
寸法
100
AcDbDimension
  2
*D26
 10
8562.085099159306
 20
5238.950086714542
 30
0.0
 11
8562.085099159302
 21
4139.157077134339
 31
0.0
 70
   160
 71
     5
 42
2075.000000000003
  3
INABA_S40G
100
AcDbAlignedDimension
 13
9466.356910799783
 23
3163.950086714538
 33
0.0
 14
9406.356910799784
 24
5238.950086714542
 34
0.0
 50
90.0
100
AcDbRotatedDimension
1001
ACAD
1000
DSTYLE
1002
{
1070
   174
1070
     0
1070
   272
1070
     1
1070
   288
1070
     0
1070
   341
1005
0
1002
}
  0
LINE
  5
158A6
330
747D
100
AcDbEntity
  8
部品1
100
AcDbLine
 10
9466.356910799788
 20
5095.526980654978
 30
0.0
 11
9466.356910799783
 21
3063.950086714536
 31
0.0
  0
LINE
  5
158A7
330
747D
100
AcDbEntity
  8
部品1
100
AcDbLine
 10
9521.356910799783
 20
5003.950086714536
 30
0.0
 11
9521.356910799783
 21
3213.950086714536
 31
0.0
  0
LINE
  5
158A8
330
747D
100
AcDbEntity
  8
部品1
100
AcDbLine
 10
9466.356910799783
 20
3213.950086714536
 30
0.0
 11
10996.35691079979
 21
3213.950086714538
 31
0.0
  0
LINE
  5
158A9
330
747D
100
AcDbEntity
  8
部品1
100
AcDbLine
 10
9466.356910799788
 20
5003.950086714538
 30
0.0
 11
10996.35691079978
 21
5003.950086714536
 31
0.0
  0
TEXT
  5
158AA
330
747D
100
AcDbEntity
  8
文字
 62
     7
 48
50.0
100
AcDbText
 10
13583.1181901657
 20
9570.013745883729
 30
0.0
 40
100.0
  1
母屋中
  7
STYLE1
100
AcDbText
  0
TEXT
  5
158AB
330
747D
100
AcDbEntity
  8
文字
 62
     7
 48
50.0
100
AcDbText
 10
15022.63965474518
 20
9570.013745883725
 30
0.0
 40
100.0
  1
F12            1.0
  7
STYLE1
100
AcDbText
  0
TEXT
  5
158AC
330
747D
100
AcDbEntity
  8
文字
 62
     7
 48
50.0
100
AcDbText
 10
13248.77747366447
 20
8890.013745883731
 30
0.0
 40
100.0
  1
14
  7
STYLE1
100
AcDbText
  0
LINE
  5
158AD
330
747D
100
AcDbEntity
  8
仕様書枠
 48
50.0
100
AcDbLine
 10
16307.2
 20
9539.6
 30
0.0
 11
13127.2
 21
9539.6
 31
0.0
  0
LINE
  5
158AE
330
747D
100
AcDbEntity
  8
Ｇ．Ｌ
100
AcDbLine
 10
4101.949339401762
 20
3063.950086714536
 30
0.0
 11
11924.25081900461
 21
3063.950086714536
 31
0.0
  0
LINE
  5
158AF
330
747D
100
AcDbEntity
  8
部品1
100
AcDbLine
 10
5439.4849982394
 20
3206.95008671454
 30
0.0
 11
7079.484998239401
 21
3206.950086714556
 31
0.0
  0
LINE
  5
158B0
330
747D
100
AcDbEntity
  8
部品1
100
AcDbLine
 10
5439.4849982394
 20
5003.950086714536
 30
0.0
 11
7079.484998239401
 21
5003.950086714536
 31
0.0
  0
LINE
  5
158B1
330
747D
100
AcDbEntity
  8
部品1
100
AcDbLine
 10
5439.4849982394
 20
3163.950086714536
 30
0.0
 11
7079.484998239401
 21
3163.950086714536
 31
0.0
  0
LINE
  5
158B2
330
747D
100
AcDbEntity
  8
部品1
100
AcDbLine
 10
5484.484998239401
 20
5001.45008671454
 30
0.0
 11
5484.484998239401
 21
3210.450086714542
 31
0.0
  0
LINE
  5
158B3
330
747D
100
AcDbEntity
  8
部品1
100
AcDbLine
 10
7036.484998239401
 20
5003.950086714536
 30
0.0
 11
7036.484998239401
 21
3206.950086714556
 31
0.0
  0
LINE
  5
158B4
330
747D
100
AcDbEntity
  8
部品1
100
AcDbLine
 10
5439.4849982394
 20
5097.95008671454
 30
0.0
 11
5439.4849982394
 21
3063.950086714536
 31
0.0
  0
TEXT
  5
158B5
330
747D
100
AcDbEntity
  8
部品1
100
AcDbText
 10
4370.696484939741
 20
3100.056990320438
 30
0.0
 40
125.0
  1
▽G.L
  7
STYLE2
100
AcDbText
  0
LWPOLYLINE
  5
158B6
330
747D
100
AcDbEntity
  8
部品1
100
AcDbPolyline
 90
        4
 70
     1
 43
0.0
 10
5869.501206968165
 20
2460.873505897819
 10
5869.501206968165
 20
2220.981184352286
 10
6632.971873196602
 20
2220.981184352286
 10
6632.971873196602
 20
2460.873505897819
  0
TEXT
  5
158B7
330
747D
100
AcDbEntity
  8
部品1
100
AcDbText
 10
5960.026610706122
 20
2267.979976679295
 30
0.0
 40
135.0
  1
正面図
  7
STYLE2
100
AcDbText
  0
LINE
  5
158B8
330
747D
100
AcDbEntity
  8
部品1
100
AcDbLine
 10
7079.484998239401
 20
5097.95008671454
 30
0.0
 11
7079.484998239401
 21
3063.950086714536
 31
0.0
  0
DIMENSION
  5
158B9
330
747D
100
AcDbEntity
  8
寸法
100
AcDbDimension
  2
*D27
 10
5121.380470631798
 20
3225.450086714541
 30
0.0
 11
5121.380470631797
 21
4104.450086714538
 31
0.0
 70
   160
  1
有効開口部高サ<>
 71
     5
 42
1759.999999999995
  3
INABA_S40G
100
AcDbAlignedDimension
 13
5439.4849982394
 23
4985.450086714536
 33
0.0
 14
5439.4849982394
 24
3225.450086714541
 34
0.0
 50
90.0
100
AcDbRotatedDimension
1001
ACAD
1000
DSTYLE
1002
{
1070
   288
1070
     1
1002
}
  0
LINE
  5
158BA
330
747D
100
AcDbEntity
  8
部品1
100
AcDbLine
 10
7034.484998239401
 20
5001.450086714537
 30
0.0
 11
7034.484998239401
 21
3210.450086714558
 31
0.0
  0
LINE
  5
158BB
330
747D
100
AcDbEntity
  8
部品1
100
AcDbLine
 10
6304.4849982394
 20
5001.450086714533
 30
0.0
 11
6304.4849982394
 21
3210.450086714551
 31
0.0
  0
LINE
  5
158BC
330
747D
100
AcDbEntity
  8
部品1
100
AcDbLine
 10
6302.484998239401
 20
5003.950086714536
 30
0.0
 11
6302.484998239401
 21
3206.950086714556
 31
0.0
  0
LINE
  5
158BD
330
747D
100
AcDbEntity
  8
部品1
100
AcDbLine
 10
6216.484998239401
 20
5003.950086714536
 30
0.0
 11
6216.484998239401
 21
3206.950086714556
 31
0.0
  0
LINE
  5
158BE
330
747D
100
AcDbEntity
  8
部品1
100
AcDbLine
 10
6214.484998239399
 20
5001.450086714537
 30
0.0
 11
6214.484998239402
 21
3210.450086714556
 31
0.0
  0
LINE
  5
158BF
330
747D
100
AcDbEntity
  8
部品1
100
AcDbLine
 10
5482.4849982394
 20
5003.950086714536
 30
0.0
 11
5482.4849982394
 21
3206.950086714556
 31
0.0
  0
LINE
  5
158C0
330
747D
100
AcDbEntity
  8
部品1
100
AcDbLine
 10
5484.484998239401
 20
3210.450086714542
 30
0.0
 11
6194.42255041072
 21
3210.450086714547
 31
0.0
  0
LINE
  5
158C1
330
747D
100
AcDbEntity
  8
部品1
100
AcDbLine
 10
6304.4849982394
 20
3210.450086714551
 30
0.0
 11
7014.42255041072
 21
3210.450086714556
 31
0.0
  0
LINE
  5
158C2
330
747D
100
AcDbEntity
  8
部品1
100
AcDbLine
 10
5484.484998239401
 20
5001.45008671454
 30
0.0
 11
6194.42255041072
 21
5001.450086714537
 31
0.0
  0
LINE
  5
158C3
330
747D
100
AcDbEntity
  8
部品1
100
AcDbLine
 10
6304.4849982394
 20
5001.450086714533
 30
0.0
 11
7014.42255041072
 21
5001.450086714537
 31
0.0
  0
LINE
  5
1590E
330
747D
100
AcDbEntity
  8
細線
 48
50.0
100
AcDbLine
 10
6210.41020326238
 20
4999.200086714537
 30
0.0
 11
6210.41020326238
 21
4997.200086714538
 31
0.0
  0
LINE
  5
1590F
330
747D
100
AcDbEntity
  8
細線
 48
50.0
100
AcDbLine
 10
6202.559793216416
 20
4999.200086714537
 30
0.0
 11
6202.559793216416
 21
4997.200086714538
 31
0.0
  0
LINE
  5
15910
330
747D
100
AcDbEntity
  8
細線
 48
0.2
100
AcDbLine
 10
6212.106541707228
 20
5002.400086714539
 30
0.0
 11
6200.738559114216
 21
5002.400086714539
 31
0.0
  0
ARC
  5
15911
330
747D
100
AcDbEntity
  8
細線
 48
0.2
100
AcDbCircle
 10
6206.42255041072
 20
4984.90008671454
 30
0.0
 40
18.49999999999796
100
AcDbArc
 50
73.3984504010115
 51
106.6015495989885
  0
LINE
  5
15912
330
747D
100
AcDbEntity
  8
細線
 48
0.1
100
AcDbLine
 10
6214.42255041072
 20
5001.700086714539
 30
0.0
 11
6214.42255041072
 21
4994.700086714538
 31
0.0
  0
ARC
  5
15913
330
747D
100
AcDbEntity
  8
細線
 48
0.2
100
AcDbCircle
 10
6211.42255041072
 20
5001.670596545785
 30
0.0
 40
1.0
100
AcDbArc
 50
0.0
 51
73.3984504010115
  0
ARC
  5
15914
330
747D
100
AcDbEntity
  8
細線
 48
0.2
100
AcDbCircle
 10
6201.42255041072
 20
5001.670596545785
 30
0.0
 40
1.0
100
AcDbArc
 50
106.6015495989885
 51
180.0
  0
LINE
  5
15915
330
747D
100
AcDbEntity
  8
部品1
 48
0.2
100
AcDbLine
 10
6214.42255041072
 20
4994.700086714538
 30
0.0
 11
6194.42255041072
 21
4994.700086714538
 31
0.0
  0
LINE
  5
15916
330
747D
100
AcDbEntity
  8
細線
 48
0.2
100
AcDbLine
 10
6214.42255041072
 20
4999.200086714537
 30
0.0
 11
6194.42255041072
 21
4999.200086714537
 31
0.0
  0
LINE
  5
15917
330
747D
100
AcDbEntity
  8
細線
 48
0.2
100
AcDbLine
 10
6214.42255041072
 20
4997.200086714538
 30
0.0
 11
6194.42255041072
 21
4997.200086714538
 31
0.0
  0
LINE
  5
15918
330
747D
100
AcDbEntity
  8
細線
 48
0.2
100
AcDbLine
 10
6214.42255041072
 20
5001.700086714539
 30
0.0
 11
6194.42255041072
 21
5001.700086714539
 31
0.0
  0
LINE
  5
15919
330
747D
100
AcDbEntity
  8
部品1
 48
50.0
100
AcDbLine
 10
6194.42255041072
 20
4994.700086714538
 30
0.0
 11
6194.42255041072
 21
5001.450086714537
 31
0.0
  0
LINE
  5
1591A
330
747D
100
AcDbEntity
  8
部品1
100
AcDbLine
 10
6214.42255041072
 20
5001.450086714537
 30
0.0
 11
6214.484998239401
 21
5001.450086714537
 31
0.0
  0
LINE
  5
1591B
330
747D
100
AcDbEntity
  8
細線
 48
50.0
100
AcDbLine
 10
6194.42255041072
 20
5001.450086714537
 30
0.0
 11
6194.42255041072
 21
5001.700086714539
 31
0.0
  0
ARC
  5
1591C
330
747D
100
AcDbEntity
  8
細線
 48
0.2
100
AcDbCircle
 10
7031.42255041072
 20
5001.670596545785
 30
0.0
 40
1.0
100
AcDbArc
 50
0.0
 51
73.3984504010115
  0
LINE
  5
1591D
330
747D
100
AcDbEntity
  8
細線
 48
0.1
100
AcDbLine
 10
7034.42255041072
 20
5001.700086714539
 30
0.0
 11
7034.42255041072
 21
4994.700086714538
 31
0.0
  0
LINE
  5
1591E
330
747D
100
AcDbEntity
  8
細線
 48
50.0
100
AcDbLine
 10
7022.559793216416
 20
4999.200086714537
 30
0.0
 11
7022.559793216416
 21
4997.200086714538
 31
0.0
  0
LINE
  5
1591F
330
747D
100
AcDbEntity
  8
細線
 48
50.0
100
AcDbLine
 10
7030.41020326238
 20
4999.200086714537
 30
0.0
 11
7030.41020326238
 21
4997.200086714538
 31
0.0
  0
LINE
  5
15920
330
747D
100
AcDbEntity
  8
細線
 48
0.2
100
AcDbLine
 10
7034.42255041072
 20
5001.700086714539
 30
0.0
 11
7014.42255041072
 21
5001.700086714539
 31
0.0
  0
LINE
  5
15921
330
747D
100
AcDbEntity
  8
細線
 48
0.2
100
AcDbLine
 10
7034.42255041072
 20
4997.200086714538
 30
0.0
 11
7014.42255041072
 21
4997.200086714538
 31
0.0
  0
LINE
  5
15922
330
747D
100
AcDbEntity
  8
細線
 48
0.2
100
AcDbLine
 10
7034.42255041072
 20
4999.200086714537
 30
0.0
 11
7014.42255041072
 21
4999.200086714537
 31
0.0
  0
ARC
  5
15923
330
747D
100
AcDbEntity
  8
細線
 48
0.2
100
AcDbCircle
 10
7021.42255041072
 20
5001.670596545785
 30
0.0
 40
1.0
100
AcDbArc
 50
106.6015495989885
 51
180.0
  0
ARC
  5
15924
330
747D
100
AcDbEntity
  8
細線
 48
0.2
100
AcDbCircle
 10
7026.42255041072
 20
4984.90008671454
 30
0.0
 40
18.49999999999796
100
AcDbArc
 50
73.3984504010115
 51
106.6015495989885
  0
LINE
  5
15925
330
747D
100
AcDbEntity
  8
細線
 48
0.2
100
AcDbLine
 10
7032.106541707228
 20
5002.400086714539
 30
0.0
 11
7020.738559114215
 21
5002.400086714539
 31
0.0
  0
LINE
  5
15926
330
747D
100
AcDbEntity
  8
細線
 48
50.0
100
AcDbLine
 10
7014.42255041072
 20
5001.450086714537
 30
0.0
 11
7014.42255041072
 21
5001.700086714539
 31
0.0
  0
LINE
  5
15927
330
747D
100
AcDbEntity
  8
部品1
 48
50.0
100
AcDbLine
 10
7014.42255041072
 20
4994.700086714538
 30
0.0
 11
7014.42255041072
 21
5001.450086714537
 31
0.0
  0
LINE
  5
15928
330
747D
100
AcDbEntity
  8
部品1
100
AcDbLine
 10
7034.42255041072
 20
5001.450086714537
 30
0.0
 11
7034.484998239401
 21
5001.450086714537
 31
0.0
  0
LINE
  5
15929
330
747D
100
AcDbEntity
  8
部品1
 48
0.2
100
AcDbLine
 10
7034.42255041072
 20
4994.700086714538
 30
0.0
 11
7014.42255041072
 21
4994.700086714538
 31
0.0
  0
LINE
  5
1592A
330
747D
100
AcDbEntity
  8
部品1
100
AcDbLine
 10
7034.42255041072
 20
5001.450086714534
 30
0.0
 11
7034.484998239401
 21
5001.450086714537
 31
0.0
  0
ARC
  5
1592B
330
747D
100
AcDbEntity
  8
細線
 48
0.2
100
AcDbCircle
 10
6211.42255041072
 20
3210.229576883307
 30
0.0
 40
1.0
100
AcDbArc
 50
286.6015495989885
 51
0.0
  0
LINE
  5
1592C
330
747D
100
AcDbEntity
  8
細線
 48
0.1
100
AcDbLine
 10
6214.42255041072
 20
3210.200086714554
 30
0.0
 11
6214.42255041072
 21
3217.200086714554
 31
0.0
  0
LINE
  5
1592D
330
747D
100
AcDbEntity
  8
細線
 48
50.0
100
AcDbLine
 10
6202.559793216416
 20
3212.700086714556
 30
0.0
 11
6202.559793216416
 21
3214.700086714554
 31
0.0
  0
LINE
  5
1592E
330
747D
100
AcDbEntity
  8
細線
 48
50.0
100
AcDbLine
 10
6210.41020326238
 20
3212.700086714556
 30
0.0
 11
6210.41020326238
 21
3214.700086714554
 31
0.0
  0
LINE
  5
1592F
330
747D
100
AcDbEntity
  8
細線
 48
0.2
100
AcDbLine
 10
6214.42255041072
 20
3210.200086714554
 30
0.0
 11
6194.42255041072
 21
3210.200086714554
 31
0.0
  0
LINE
  5
15930
330
747D
100
AcDbEntity
  8
細線
 48
0.2
100
AcDbLine
 10
6214.42255041072
 20
3214.700086714554
 30
0.0
 11
6194.42255041072
 21
3214.700086714554
 31
0.0
  0
LINE
  5
15931
330
747D
100
AcDbEntity
  8
細線
 48
0.2
100
AcDbLine
 10
6214.42255041072
 20
3212.700086714555
 30
0.0
 11
6194.42255041072
 21
3212.700086714556
 31
0.0
  0
ARC
  5
15932
330
747D
100
AcDbEntity
  8
細線
 48
0.2
100
AcDbCircle
 10
6201.42255041072
 20
3210.229576883307
 30
0.0
 40
1.0
100
AcDbArc
 50
180.0
 51
253.3984504010115
  0
ARC
  5
15933
330
747D
100
AcDbEntity
  8
細線
 48
0.2
100
AcDbCircle
 10
6206.42255041072
 20
3227.000086714552
 30
0.0
 40
18.49999999999796
100
AcDbArc
 50
253.3984504010115
 51
286.6015495989885
  0
LINE
  5
15934
330
747D
100
AcDbEntity
  8
細線
 48
0.2
100
AcDbLine
 10
6212.106541707228
 20
3209.500086714554
 30
0.0
 11
6200.738559114216
 21
3209.500086714554
 31
0.0
  0
LINE
  5
15935
330
747D
100
AcDbEntity
  8
細線
 48
50.0
100
AcDbLine
 10
6194.42255041072
 20
3210.450086714556
 30
0.0
 11
6194.42255041072
 21
3210.200086714554
 31
0.0
  0
LINE
  5
15936
330
747D
100
AcDbEntity
  8
部品1
 48
50.0
100
AcDbLine
 10
6194.42255041072
 20
3217.200086714554
 30
0.0
 11
6194.42255041072
 21
3210.450086714556
 31
0.0
  0
LINE
  5
15937
330
747D
100
AcDbEntity
  8
部品1
100
AcDbLine
 10
6214.42255041072
 20
3210.450086714556
 30
0.0
 11
6214.484998239401
 21
3210.450086714556
 31
0.0
  0
LINE
  5
15938
330
747D
100
AcDbEntity
  8
部品1
 48
0.2
100
AcDbLine
 10
6214.42255041072
 20
3217.200086714554
 30
0.0
 11
6194.42255041072
 21
3217.200086714554
 31
0.0
  0
LINE
  5
15939
330
747D
100
AcDbEntity
  8
部品1
100
AcDbLine
 10
7034.42255041072
 20
3210.450086714558
 30
0.0
 11
7034.484998239401
 21
3210.450086714558
 31
0.0
  0
LINE
  5
1593A
330
747D
100
AcDbEntity
  8
部品1
 48
0.2
100
AcDbLine
 10
7034.42255041072
 20
3217.200086714554
 30
0.0
 11
7014.42255041072
 21
3217.200086714554
 31
0.0
  0
LINE
  5
1593B
330
747D
100
AcDbEntity
  8
部品1
100
AcDbLine
 10
7034.42255041072
 20
3210.450086714556
 30
0.0
 11
7034.484998239401
 21
3210.450086714556
 31
0.0
  0
LINE
  5
1593C
330
747D
100
AcDbEntity
  8
部品1
 48
50.0
100
AcDbLine
 10
7014.42255041072
 20
3217.200086714554
 30
0.0
 11
7014.42255041072
 21
3210.450086714556
 31
0.0
  0
LINE
  5
1593D
330
747D
100
AcDbEntity
  8
細線
 48
50.0
100
AcDbLine
 10
7014.42255041072
 20
3210.450086714556
 30
0.0
 11
7014.42255041072
 21
3210.200086714554
 31
0.0
  0
LINE
  5
1593E
330
747D
100
AcDbEntity
  8
細線
 48
0.2
100
AcDbLine
 10
7032.106541707228
 20
3209.500086714554
 30
0.0
 11
7020.738559114215
 21
3209.500086714554
 31
0.0
  0
ARC
  5
1593F
330
747D
100
AcDbEntity
  8
細線
 48
0.2
100
AcDbCircle
 10
7026.42255041072
 20
3227.000086714552
 30
0.0
 40
18.49999999999796
100
AcDbArc
 50
253.3984504010115
 51
286.6015495989885
  0
ARC
  5
15940
330
747D
100
AcDbEntity
  8
細線
 48
0.2
100
AcDbCircle
 10
7021.42255041072
 20
3210.229576883307
 30
0.0
 40
1.0
100
AcDbArc
 50
180.0
 51
253.3984504010115
  0
LINE
  5
15941
330
747D
100
AcDbEntity
  8
細線
 48
0.2
100
AcDbLine
 10
7034.42255041072
 20
3212.700086714555
 30
0.0
 11
7014.42255041072
 21
3212.700086714556
 31
0.0
  0
LINE
  5
15942
330
747D
100
AcDbEntity
  8
細線
 48
0.2
100
AcDbLine
 10
7034.42255041072
 20
3214.700086714554
 30
0.0
 11
7014.42255041072
 21
3214.700086714554
 31
0.0
  0
LINE
  5
15943
330
747D
100
AcDbEntity
  8
細線
 48
0.2
100
AcDbLine
 10
7034.42255041072
 20
3210.200086714554
 30
0.0
 11
7014.42255041072
 21
3210.200086714554
 31
0.0
  0
LINE
  5
15944
330
747D
100
AcDbEntity
  8
細線
 48
50.0
100
AcDbLine
 10
7030.41020326238
 20
3212.700086714556
 30
0.0
 11
7030.41020326238
 21
3214.700086714554
 31
0.0
  0
LINE
  5
15945
330
747D
100
AcDbEntity
  8
細線
 48
50.0
100
AcDbLine
 10
7022.559793216416
 20
3212.700086714556
 30
0.0
 11
7022.559793216416
 21
3214.700086714554
 31
0.0
  0
LINE
  5
15946
330
747D
100
AcDbEntity
  8
細線
 48
0.1
100
AcDbLine
 10
7034.42255041072
 20
3210.200086714554
 30
0.0
 11
7034.42255041072
 21
3217.200086714554
 31
0.0
  0
ARC
  5
15947
330
747D
100
AcDbEntity
  8
細線
 48
0.2
100
AcDbCircle
 10
7031.42255041072
 20
3210.229576883307
 30
0.0
 40
1.0
100
AcDbArc
 50
286.6015495989885
 51
0.0
  0
LINE
  5
15948
330
747D
100
AcDbEntity
  8
部品1
100
AcDbLine
 10
6214.42255041072
 20
3210.450086714547
 30
0.0
 11
6214.484998239401
 21
3210.450086714547
 31
0.0
  0
LINE
  5
15949
330
747D
100
AcDbEntity
  8
部品1
100
AcDbLine
 10
7034.42255041072
 20
3210.450086714556
 30
0.0
 11
7034.484998239401
 21
3210.450086714556
 31
0.0
  0
TEXT
  5
1594E
330
747D
100
AcDbEntity
  8
文字
 62
     7
 48
50.0
100
AcDbText
 10
14271.39351435261
 20
483.8967129911411
 30
0.0
 40
160.0
  1
ＮＸＤ－１２Ｌ－２
  7
STYLE2
100
AcDbText
  0
TEXT
  5
1594F
330
747D
100
AcDbEntity
  8
文字
 62
     7
 48
50.0
100
AcDbText
 10
13583.11819016568
 20
8890.013745883733
 30
0.0
 40
100.0
  1
棚板
  7
STYLE1
100
AcDbText
  0
TEXT
  5
15950
330
747D
100
AcDbEntity
  8
文字
 62
     7
 48
50.0
100
AcDbText
 10
15022.63965474515
 20
8890.013745883729
 30
0.0
 40
100.0
  1
F12            0.6
  7
STYLE1
100
AcDbText
  0
TEXT
  5
15951
330
747D
100
AcDbEntity
  8
文字
 62
     7
 48
50.0
100
AcDbText
 10
13583.11819016568
 20
9060.013745883729
 30
0.0
 40
100.0
  1
扉
  7
STYLE1
100
AcDbText
  0
TEXT
  5
15952
330
747D
100
AcDbEntity
  8
文字
 62
     7
 48
50.0
100
AcDbText
 10
15022.63965474515
 20
9060.013745883725
 30
0.0
 40
100.0
  1
F12            0.8
  7
STYLE1
100
AcDbText
  0
TEXT
  5
15953
330
747D
100
AcDbEntity
  8
文字
 62
     7
 48
50.0
100
AcDbText
 10
15022.63965474517
 20
10590.01374588372
 30
0.0
 40
100.0
  1
F12            1.0
  7
STYLE1
100
AcDbText
  0
TEXT
  5
15954
330
747D
100
AcDbEntity
  8
文字
 62
     7
 48
50.0
100
AcDbText
 10
13583.1181901657
 20
10590.01374588373
 30
0.0
 40
100.0
  1
床パネル
 41
0.9
  7
STYLE1
100
AcDbText
  0
LINE
  5
15955
330
747D
100
AcDbEntity
  8
仕様書枠
 48
50.0
100
AcDbLine
 10
16307.19999999998
 20
8689.6
 30
0.0
 11
13127.19999999999
 21
8689.600000000003
 31
0.0
  0
LINE
  5
15956
330
747D
100
AcDbEntity
  8
仕様書枠
 48
50.0
100
AcDbLine
 10
13127.2
 20
11409.6
 30
0.0
 11
13127.19999999999
 21
8349.600000000004
 31
0.0
  0
TEXT
  5
15957
330
747D
100
AcDbEntity
  8
文字
 62
     7
 48
50.0
100
AcDbText
 10
13229.83081656553
 20
8380.013745883728
 30
0.0
 40
100.0
  1
Y10→溶融亜鉛-5％アルミニウム合金めっき鋼板(JIS G 3317)
 41
0.9
  7
STYLE1
100
AcDbText
  0
TEXT
  5
15958
330
747D
100
AcDbEntity
  8
文字
 62
     7
 48
50.0
100
AcDbText
 10
13229.83081656553
 20
8550.013745883729
 30
0.0
 40
100.0
  1
F12→溶融亜鉛めっき鋼板(JIS G 3302)
  7
STYLE1
100
AcDbText
  0
LINE
  5
15959
330
747D
100
AcDbEntity
  8
仕様書枠
 48
50.0
100
AcDbLine
 10
16307.19999999998
 20
8349.600000000004
 30
0.0
 11
13127.19999999999
 21
8349.600000000004
 31
0.0
  0
TEXT
  5
1595A
330
747D
100
AcDbEntity
  8
文字
 62
     7
 48
50.0
100
AcDbText
 10
15022.63965474515
 20
9230.013745883725
 30
0.0
 40
100.0
  1
F12            0.6
  7
STYLE1
100
AcDbText
  0
TEXT
  5
1595B
330
747D
100
AcDbEntity
  8
文字
 62
     7
 48
50.0
100
AcDbText
 10
15022.63965474516
 20
9400.013745883725
 30
0.0
 40
100.0
  1
Y10            0.5
  7
STYLE1
100
AcDbText
  0
TEXT
  5
1595C
330
747D
100
AcDbEntity
  8
文字
 62
     7
 48
50.0
100
AcDbText
 10
15022.63965474517
 20
9910.013745883725
 30
0.0
 40
100.0
  1
Y10            0.7
  7
STYLE1
100
AcDbText
  0
TEXT
  5
1595D
330
747D
100
AcDbEntity
  8
文字
 62
     7
 48
50.0
100
AcDbText
 10
15022.63965474517
 20
10080.01374588372
 30
0.0
 40
100.0
  1
Y10            0.7
  7
STYLE1
100
AcDbText
  0
TEXT
  5
1595E
330
747D
100
AcDbEntity
  8
文字
 62
     7
 48
50.0
100
AcDbText
 10
15022.63965474517
 20
10250.01374588372
 30
0.0
 40
100.0
  1
Y10            1.0
  7
STYLE1
100
AcDbText
  0
TEXT
  5
1595F
330
747D
100
AcDbEntity
  8
文字
 62
     7
 48
50.0
100
AcDbText
 10
15022.63965474517
 20
10420.01374588372
 30
0.0
 40
100.0
  1
Y10            1.0
  7
STYLE1
100
AcDbText
  0
TEXT
  5
15960
330
747D
100
AcDbEntity
  8
文字
 62
     7
 48
50.0
100
AcDbText
 10
15022.63965474518
 20
10760.01374588372
 30
0.0
 40
100.0
  1
F12            1.0
  7
STYLE1
100
AcDbText
  0
TEXT
  5
15961
330
747D
100
AcDbEntity
  8
文字
 62
     7
 48
50.0
100
AcDbText
 10
15022.63965474517
 20
11100.01374588372
 30
0.0
 40
100.0
  1
F12            1.2
  7
STYLE1
100
AcDbText
  0
TEXT
  5
15962
330
747D
100
AcDbEntity
  8
文字
 62
     7
 48
50.0
100
AcDbText
 10
13248.77747366447
 20
9230.013745883729
 30
0.0
 40
100.0
  1
12
  7
STYLE1
100
AcDbText
  0
TEXT
  5
15963
330
747D
100
AcDbEntity
  8
文字
 62
     7
 48
50.0
100
AcDbText
 10
13248.77747366447
 20
9060.013745883729
 30
0.0
 40
100.0
  1
13
  7
STYLE1
100
AcDbText
  0
LINE
  5
15964
330
747D
100
AcDbEntity
  8
仕様書枠
 48
50.0
100
AcDbLine
 10
16307.19999999998
 20
8519.600000000002
 30
0.0
 11
13127.19999999999
 21
8519.600000000004
 31
0.0
  0
LINE
  5
15965
330
747D
100
AcDbEntity
  8
仕様書枠
 48
50.0
100
AcDbLine
 10
16307.19999999998
 20
8859.6
 30
0.0
 11
13127.19999999999
 21
8859.6
 31
0.0
  0
TEXT
  5
15966
330
747D
100
AcDbEntity
  8
文字
 62
     7
 48
50.0
100
AcDbText
 10
13248.77747366447
 20
9400.013745883729
 30
0.0
 40
100.0
  1
11
  7
STYLE1
100
AcDbText
  0
LINE
  5
15967
330
747D
100
AcDbEntity
  8
仕様書枠
 48
50.0
100
AcDbLine
 10
16307.2
 20
9709.600000000001
 30
0.0
 11
13127.2
 21
9709.600000000001
 31
0.0
  0
LINE
  5
15968
330
747D
100
AcDbEntity
  8
仕様書枠
 48
50.0
100
AcDbLine
 10
16307.2
 20
10049.6
 30
0.0
 11
13127.2
 21
10049.6
 31
0.0
  0
LINE
  5
15969
330
747D
100
AcDbEntity
  8
仕様書枠
 48
50.0
100
AcDbLine
 10
16307.19999999998
 20
9199.600000000001
 30
0.0
 11
13127.19999999999
 21
9199.600000000001
 31
0.0
  0
LINE
  5
1596A
330
747D
100
AcDbEntity
  8
仕様書枠
 48
50.0
100
AcDbLine
 10
16307.19999999998
 20
9029.6
 30
0.0
 11
13127.19999999999
 21
9029.6
 31
0.0
  0
LINE
  5
1596B
330
747D
100
AcDbEntity
  8
仕様書枠
 48
50.0
100
AcDbLine
 10
16307.19999999998
 20
9369.600000000001
 30
0.0
 11
13127.19999999999
 21
9369.600000000001
 31
0.0
  0
TEXT
  5
1596C
330
747D
100
AcDbEntity
  8
文字
 62
     7
 48
50.0
100
AcDbText
 10
13271.19032244793
 20
10250.01374588373
 30
0.0
 40
100.0
  1
6
  7
STYLE1
100
AcDbText
  0
TEXT
  5
1596D
330
747D
100
AcDbEntity
  8
文字
 62
     7
 48
50.0
100
AcDbText
 10
13271.19032244792
 20
10080.01374588373
 30
0.0
 40
100.0
  1
7
  7
STYLE1
100
AcDbText
  0
TEXT
  5
1596E
330
747D
100
AcDbEntity
  8
文字
 62
     7
 48
50.0
100
AcDbText
 10
13271.19032244792
 20
9740.013745883729
 30
0.0
 40
100.0
  1
9
  7
STYLE1
100
AcDbText
  0
TEXT
  5
1596F
330
747D
100
AcDbEntity
  8
文字
 62
     7
 48
50.0
100
AcDbText
 10
13271.19032244792
 20
9910.01374588373
 30
0.0
 40
100.0
  1
8
  7
STYLE1
100
AcDbText
  0
TEXT
  5
15970
330
747D
100
AcDbEntity
  8
文字
 62
     7
 48
50.0
100
AcDbText
 10
13583.1181901657
 20
9910.01374588373
 30
0.0
 40
100.0
  1
鼻隠シ前後
  7
STYLE1
100
AcDbText
  0
TEXT
  5
15971
330
747D
100
AcDbEntity
  8
文字
 62
     7
 48
50.0
100
AcDbText
 10
13583.11819016569
 20
9400.013745883729
 30
0.0
 40
100.0
  1
屋根パネル
  7
STYLE1
100
AcDbText
  0
TEXT
  5
15972
330
747D
100
AcDbEntity
  8
文字
 62
     7
 48
50.0
100
AcDbText
 10
13583.11819016568
 20
9230.013745883729
 30
0.0
 40
100.0
  1
壁パネル
  7
STYLE1
100
AcDbText
  0
TEXT
  5
15973
330
747D
100
AcDbEntity
  8
文字
 62
     7
 48
50.0
100
AcDbText
 10
13248.77747366447
 20
9570.013745883729
 30
0.0
 40
100.0
  1
10
  7
STYLE1
100
AcDbText
  0
TEXT
  5
15974
330
747D
100
AcDbEntity
  8
文字
 62
     7
 48
50.0
100
AcDbText
 10
13583.1181901657
 20
10080.01374588373
 30
0.0
 40
100.0
  1
妻板左右
  7
STYLE1
100
AcDbText
  0
TEXT
  5
15975
330
747D
100
AcDbEntity
  8
文字
 62
     7
 48
50.0
100
AcDbText
 10
13271.19032244793
 20
10420.01374588373
 30
0.0
 40
100.0
  1
5
  7
STYLE1
100
AcDbText
  0
TEXT
  5
15976
330
747D
100
AcDbEntity
  8
文字
 62
     7
 48
50.0
100
AcDbText
 10
13583.1181901657
 20
10250.01374588373
 30
0.0
 40
100.0
  1
桁後
  7
STYLE1
100
AcDbText
  0
TEXT
  5
15977
330
747D
100
AcDbEntity
  8
文字
 62
     7
 48
50.0
100
AcDbText
 10
13583.1181901657
 20
10420.01374588373
 30
0.0
 40
100.0
  1
鴨居
  7
STYLE1
100
AcDbText
  0
TEXT
  5
15978
330
747D
100
AcDbEntity
  8
文字
 62
     7
 48
50.0
100
AcDbText
 10
13583.1181901657
 20
10760.01374588373
 30
0.0
 40
100.0
  1
柱
  7
STYLE1
100
AcDbText
  0
TEXT
  5
15979
330
747D
100
AcDbEntity
  8
文字
 62
     7
 48
50.0
100
AcDbText
 10
13583.11819016569
 20
11100.01374588373
 30
0.0
 40
100.0
  1
土台枠
  7
STYLE1
100
AcDbText
  0
TEXT
  5
1597A
330
747D
100
AcDbEntity
  8
文字
 62
     7
 48
50.0
100
AcDbText
 10
14859.79774614482
 20
11270.01374588373
 30
0.0
 40
100.0
  1
材料（材質）　　単位mm
  7
STYLE1
100
AcDbText
  0
TEXT
  5
1597B
330
747D
100
AcDbEntity
  8
文字
 62
     7
 48
50.0
100
AcDbText
 10
13732.03840939434
 20
11270.01374588373
 30
0.0
 40
100.0
  1
部　　品　　名
  7
STYLE1
100
AcDbText
  0
TEXT
  5
1597C
330
747D
100
AcDbEntity
  8
文字
 62
     7
 48
50.0
100
AcDbText
 10
13271.19032244793
 20
10760.01374588373
 30
0.0
 40
100.0
  1
3
  7
STYLE1
100
AcDbText
  0
TEXT
  5
1597D
330
747D
100
AcDbEntity
  8
文字
 62
     7
 48
50.0
100
AcDbText
 10
13271.19032244793
 20
10590.01374588373
 30
0.0
 40
100.0
  1
4
  7
STYLE1
100
AcDbText
  0
TEXT
  5
1597E
330
747D
100
AcDbEntity
  8
文字
 62
     7
 48
50.0
100
AcDbText
 10
13271.19032244792
 20
10930.01374588373
 30
0.0
 40
100.0
  1
2
  7
STYLE1
100
AcDbText
  0
TEXT
  5
1597F
330
747D
100
AcDbEntity
  8
文字
 62
     7
 48
50.0
100
AcDbText
 10
13271.19032244792
 20
11100.01374588373
 30
0.0
 40
100.0
  1
1
  7
STYLE1
100
AcDbText
  0
TEXT
  5
15980
330
747D
100
AcDbEntity
  8
文字
 62
     7
 48
50.0
100
AcDbText
 10
13197.42518560407
 20
11270.01374588373
 30
0.0
 40
100.0
  1
品番
  7
STYLE1
100
AcDbText
  0
LINE
  5
15981
330
747D
100
AcDbEntity
  8
仕様書枠
 48
50.0
100
AcDbLine
 10
16307.19999999999
 20
10559.6
 30
0.0
 11
13127.2
 21
10559.6
 31
0.0
  0
LINE
  5
15982
330
747D
100
AcDbEntity
  8
仕様書枠
 48
50.0
100
AcDbLine
 10
16307.19999999999
 20
10219.6
 30
0.0
 11
13127.2
 21
10219.6
 31
0.0
  0
LINE
  5
15983
330
747D
100
AcDbEntity
  8
仕様書枠
 48
50.0
100
AcDbLine
 10
16307.19999999999
 20
10389.6
 30
0.0
 11
13127.2
 21
10389.6
 31
0.0
  0
LINE
  5
15984
330
747D
100
AcDbEntity
  8
仕様書枠
 48
50.0
100
AcDbLine
 10
16307.19999999999
 20
11069.6
 30
0.0
 11
13127.2
 21
11069.6
 31
0.0
  0
LINE
  5
15985
330
747D
100
AcDbEntity
  8
仕様書枠
 48
50.0
100
AcDbLine
 10
16307.2
 20
10729.6
 30
0.0
 11
13127.2
 21
10729.6
 31
0.0
  0
LINE
  5
15986
330
747D
100
AcDbEntity
  8
仕様書枠
 48
50.0
100
AcDbLine
 10
16307.19999999999
 20
11239.6
 30
0.0
 11
13127.2
 21
11239.6
 31
0.0
  0
LINE
  5
15987
330
747D
100
AcDbEntity
  8
仕様書枠
 48
50.0
100
AcDbLine
 10
13490.2
 20
11409.6
 30
0.0
 11
13490.2
 21
8689.600000000003
 31
0.0
  0
LINE
  5
15988
330
747D
100
AcDbEntity
  8
仕様書枠
 48
50.0
100
AcDbLine
 10
14785.2
 20
11409.59999999999
 30
0.0
 11
14785.19999999999
 21
8689.6
 31
0.0
  0
LINE
  5
15989
330
747D
100
AcDbEntity
  8
仕様書枠
 48
50.0
100
AcDbLine
 10
16307.19999999999
 20
8349.600000000007
 30
0.0
 11
16307.2
 21
11409.6
 31
0.0
  0
LINE
  5
1598A
330
747D
100
AcDbEntity
  8
仕様書枠
 48
50.0
100
AcDbLine
 10
16307.19999999999
 20
11409.6
 30
0.0
 11
13127.2
 21
11409.6
 31
0.0
  0
LINE
  5
1598B
330
747D
100
AcDbEntity
  8
仕様書枠
 48
50.0
100
AcDbLine
 10
16307.2
 20
9879.600000000001
 30
0.0
 11
13127.2
 21
9879.600000000001
 31
0.0
  0
TEXT
  5
1598C
330
747D
100
AcDbEntity
  8
文字
 62
     7
 48
50.0
100
AcDbText
 10
15022.63965474513
 20
8720.013745883722
 30
0.0
 40
100.0
  1
F12            2.3
  7
STYLE1
100
AcDbText
  0
TEXT
  5
1598D
330
747D
100
AcDbEntity
  8
文字
 62
     7
 48
50.0
100
AcDbText
 10
13583.11819016567
 20
8720.013745883729
 30
0.0
 40
100.0
  1
アンカープレート
  7
STYLE1
100
AcDbText
  0
TEXT
  5
1598E
330
747D
100
AcDbEntity
  8
文字
 62
     7
 48
50.0
100
AcDbText
 10
15022.63965474517
 20
9740.013745883729
 30
0.0
 40
100.0
  1
F12,Y10       0.7+1.0
  7
STYLE1
100
AcDbText
  0
TEXT
  5
1598F
330
747D
100
AcDbEntity
  8
文字
 62
     7
 48
50.0
100
AcDbText
 10
13583.1181901657
 20
9740.013745883729
 30
0.0
 40
100.0
  1
梁中央
 41
0.9
  7
STYLE1
100
AcDbText
  0
DIMENSION
  5
15990
330
747D
100
AcDbEntity
  8
寸法
 48
50.0
100
AcDbDimension
  2
*D28
 10
7129.484998239404
 20
5674.44865041063
 30
0.0
 11
6241.583474075596
 21
5674.44865041063
 31
0.0
 70
   160
 71
     5
 42
1740.000000000003
  3
INABA_S40G
100
AcDbAlignedDimension
 13
5389.4849982394
 23
5238.950086714543
 33
0.0
 14
7129.484998239404
 24
5238.950086714538
 34
0.0
100
AcDbRotatedDimension
  0
DIMENSION
  5
15991
330
747D
100
AcDbEntity
  8
寸法
 48
50.0
100
AcDbDimension
  2
*D29
 10
5439.4849982394
 20
5451.491671972783
 30
0.0
 11
6275.858403643506
 21
5451.491671972783
 31
0.0
 70
   160
  1
柱外寸法<>
 71
     5
 42
1640.000000000004
  3
INABA_S40G
100
AcDbAlignedDimension
 13
7079.484998239404
 23
5238.95008671454
 33
0.0
 14
5439.4849982394
 24
5238.950086714545
 34
0.0
100
AcDbRotatedDimension
  0
DIMENSION
  5
15992
330
747D
100
AcDbEntity
  8
寸法
 48
50.0
100
AcDbDimension
  2
*D30
 10
5389.4849982394
 20
5451.491671972783
 30
0.0
 11
5075.999716865154
 21
5451.491671972783
 31
0.0
 70
   160
 71
     5
 42
50.0
  3
INABA_S40G
100
AcDbAlignedDimension
 13
5439.4849982394
 23
5238.950086714545
 33
0.0
 14
5389.4849982394
 24
5238.950086714543
 34
0.0
100
AcDbRotatedDimension
1001
ACAD
1000
DSTYLE
1002
{
1002
}
  0
LINE
  5
15993
330
747D
100
AcDbEntity
  8
細線
 48
50.0
100
AcDbLine
 10
5422.484998239401
 20
5238.950086714542
 30
0.0
 11
5422.484998239401
 21
5097.95008671454
 31
0.0
  0
ARC
  5
15994
330
747D
100
AcDbEntity
  8
部品1
100
AcDbCircle
 10
5396.89341934583
 20
5231.950086714541
 30
0.0
 40
7.0
100
AcDbArc
 50
90.0
 51
183.2473427903377
  0
ARC
  5
15995
330
747D
100
AcDbEntity
  8
部品1
100
AcDbCircle
 10
5410.108742806864
 20
5104.950086714543
 30
0.0
 40
7.0
100
AcDbArc
 50
183.2473427903377
 51
270.0
  0
ARC
  5
15996
330
747D
100
AcDbEntity
  8
部品1
 48
50.0
100
AcDbCircle
 10
5391.736932596188
 20
5211.617085876229
 30
0.0
 40
0.7
100
AcDbArc
 50
183.2473427903897
 51
262.3418727926365
  0
ARC
  5
15997
330
747D
100
AcDbEntity
  8
部品1
 48
50.0
100
AcDbCircle
 10
5399.972963121029
 20
5119.417085876225
 30
0.0
 40
0.7
100
AcDbArc
 50
183.2473427902856
 51
262.3418727926365
  0
ARC
  5
15998
330
747D
100
AcDbEntity
  8
部品1
 48
50.0
100
AcDbCircle
 10
5399.479894012467
 20
5115.750086714541
 30
0.0
 40
3.0
100
AcDbArc
 50
3.247342790337682
 51
82.34187279263654
  0
ARC
  5
15999
330
747D
100
AcDbEntity
  8
部品1
 48
50.0
100
AcDbCircle
 10
5391.243863487623
 20
5207.950086714543
 30
0.0
 40
3.0
100
AcDbArc
 50
3.247342790337682
 51
82.34187279263654
  0
LINE
  5
1599A
330
747D
100
AcDbEntity
  8
部品1
100
AcDbLine
 10
5394.239046383809
 20
5208.120026169645
 30
0.0
 11
5399.27408711192
 21
5119.377433336701
 31
0.0
  0
LINE
  5
1599B
330
747D
100
AcDbEntity
  8
部品1
100
AcDbLine
 10
5402.475076908657
 20
5115.920026169644
 30
0.0
 11
5403.119982715764
 21
5104.553561319303
 31
0.0
  0
LINE
  5
1599C
330
747D
100
AcDbEntity
  8
部品1
100
AcDbLine
 10
5389.904659254732
 20
5231.553561319302
 30
0.0
 11
5391.03805658708
 21
5211.577433336703
 31
0.0
  0
LINE
  5
1599D
330
747D
100
AcDbEntity
  8
部品1
 48
50.0
100
AcDbLine
 10
7122.076577132972
 20
5238.950086714538
 30
0.0
 11
5396.89341934583
 21
5238.950086714538
 31
0.0
  0
LINE
  5
1599E
330
747D
100
AcDbEntity
  8
細線
 48
50.0
100
AcDbLine
 10
7127.326347227484
 20
5210.923329278332
 30
0.0
 11
5391.643649249814
 21
5210.923329278537
 31
0.0
  0
LINE
  5
1599F
330
747D
100
AcDbEntity
  8
細線
 48
50.0
100
AcDbLine
 10
7119.090316702664
 20
5118.723329278333
 30
0.0
 11
5399.879679774647
 21
5118.723329278537
 31
0.0
  0
LINE
  5
159A0
330
747D
100
AcDbEntity
  8
部品1
 48
50.0
100
AcDbLine
 10
7108.861253671938
 20
5097.95008671454
 30
0.0
 11
5410.108742806864
 21
5097.95008671454
 31
0.0
  0
DIMENSION
  5
159A1
330
747D
100
AcDbEntity
  8
寸法
 48
50.0
100
AcDbDimension
  2
*D31
 10
7079.484998239404
 20
5451.491671972779
 30
0.0
 11
7442.970279613641
 21
5451.491671972779
 31
0.0
 70
   160
 71
     5
 42
50.0
  3
INABA_S40G
100
AcDbAlignedDimension
 13
7129.484998239404
 23
5238.950086714538
 33
0.0
 14
7079.484998239404
 24
5238.95008671454
 34
0.0
100
AcDbRotatedDimension
  0
LINE
  5
159A2
330
747D
100
AcDbEntity
  8
部品1
100
AcDbLine
 10
7129.065337224071
 20
5231.553561319299
 30
0.0
 11
7127.931939891725
 21
5211.577433336699
 31
0.0
  0
LINE
  5
159A3
330
747D
100
AcDbEntity
  8
細線
 48
50.0
100
AcDbLine
 10
7096.484998239404
 20
5238.950086714538
 30
0.0
 11
7096.484998239404
 21
5097.950086714538
 31
0.0
  0
LINE
  5
159A4
330
747D
100
AcDbEntity
  8
部品1
100
AcDbLine
 10
7116.494919570148
 20
5115.92002616964
 30
0.0
 11
7115.850013763036
 21
5104.553561319301
 31
0.0
  0
LINE
  5
159A5
330
747D
100
AcDbEntity
  8
部品1
100
AcDbLine
 10
7124.730950094992
 20
5208.120026169641
 30
0.0
 11
7119.695909366881
 21
5119.377433336698
 31
0.0
  0
ARC
  5
159A6
330
747D
100
AcDbEntity
  8
部品1
 48
50.0
100
AcDbCircle
 10
7127.726132991178
 20
5207.950086714539
 30
0.0
 40
3.0
100
AcDbArc
 50
97.65812720736347
 51
176.7526572096623
  0
ARC
  5
159A7
330
747D
100
AcDbEntity
  8
部品1
 48
50.0
100
AcDbCircle
 10
7119.490102466333
 20
5115.750086714538
 30
0.0
 40
3.0
100
AcDbArc
 50
97.65812720736347
 51
176.7526572096623
  0
ARC
  5
159A8
330
747D
100
AcDbEntity
  8
部品1
 48
50.0
100
AcDbCircle
 10
7118.997033357773
 20
5119.417085876222
 30
0.0
 40
0.7
100
AcDbArc
 50
277.6581272073635
 51
356.7526572097143
  0
ARC
  5
159A9
330
747D
100
AcDbEntity
  8
部品1
 48
50.0
100
AcDbCircle
 10
7127.233063882617
 20
5211.617085876225
 30
0.0
 40
0.7
100
AcDbArc
 50
277.6581272073635
 51
356.7526572096103
  0
ARC
  5
159AA
330
747D
100
AcDbEntity
  8
部品1
100
AcDbCircle
 10
7108.861253671938
 20
5104.95008671454
 30
0.0
 40
7.0
100
AcDbArc
 50
270.0
 51
356.7526572096623
  0
ARC
  5
159AB
330
747D
100
AcDbEntity
  8
部品1
100
AcDbCircle
 10
7122.076577132972
 20
5231.950086714538
 30
0.0
 40
7.0
100
AcDbArc
 50
356.7526572096623
 51
90.0
  0
MTEXT
  5
159AC
330
747D
100
AcDbEntity
  8
寸法
 62
     7
 48
50.0
100
AcDbMText
 10
5864.764802527676
 20
9354.69557830091
 30
0.0
 40
96.0
 41
0.0
 71
     5
 72
     1
  1
棚 2段
  7
STYLE1
 73
     1
 44
1.0
1001
ACAD
1000
MTEXTBEGIN
1070
    73
1070
     1
1070
    44
1040
1.0
1070
    74
1070
     0
1000
MTEXTEND
  0
MTEXT
  5
159AD
330
747D
100
AcDbEntity
  8
寸法
 62
     7
 48
50.0
100
AcDbMText
 10
6684.76479584998
 20
9354.695578300898
 30
0.0
 40
96.0
 41
0.0
 71
     5
 72
     1
  1
棚 2段
  7
STYLE1
 73
     1
 44
1.0
1001
ACAD
1000
MTEXTBEGIN
1070
    73
1070
     1
1070
    44
1040
1.0
1070
    74
1070
     0
1000
MTEXTEND
  0
ARC
  5
159AE
330
747D
100
AcDbEntity
  8
部品1
 48
0.01
100
AcDbCircle
 10
5937.484998239405
 20
5036.450086714534
 30
0.0
 40
2.0
100
AcDbArc
 50
270.0
 51
0.0
  0
ARC
  5
159AF
330
747D
100
AcDbEntity
  8
部品1
 48
0.01
100
AcDbCircle
 10
5937.484998239408
 20
5067.950086714534
 30
0.0
 40
2.0
100
AcDbArc
 50
0.0
 51
90.0
  0
ARC
  5
159B0
330
747D
100
AcDbEntity
  8
部品1
 48
0.01
100
AcDbCircle
 10
5761.484998239408
 20
5036.450086714534
 30
0.0
 40
2.0
100
AcDbArc
 50
180.0
 51
270.0
  0
ARC
  5
159B1
330
747D
100
AcDbEntity
  8
部品1
 48
0.01
100
AcDbCircle
 10
5761.484998239408
 20
5067.950086714534
 30
0.0
 40
2.0
100
AcDbArc
 50
90.0
 51
180.0
  0
LINE
  5
159B2
330
747D
100
AcDbEntity
  8
細線
100
AcDbLine
 10
5849.484998239404
 20
5040.450086714534
 30
0.0
 11
5923.484998239408
 21
5040.450086714534
 31
0.0
  0
LINE
  5
159B3
330
747D
100
AcDbEntity
  8
細線
100
AcDbLine
 10
5849.484998239407
 20
5063.450086714534
 30
0.0
 11
5775.484998239408
 21
5063.450086714534
 31
0.0
  0
LINE
  5
159B4
330
747D
100
AcDbEntity
  8
細線
100
AcDbLine
 10
5775.484998239408
 20
5040.450086714534
 30
0.0
 11
5849.484998239407
 21
5040.450086714534
 31
0.0
  0
LINE
  5
159B5
330
747D
100
AcDbEntity
  8
細線
100
AcDbLine
 10
5923.484998239408
 20
5063.450086714534
 30
0.0
 11
5849.484998239407
 21
5063.450086714534
 31
0.0
  0
LINE
  5
159B6
330
747D
100
AcDbEntity
  8
細線
100
AcDbLine
 10
5923.484998239408
 20
5040.450086714534
 30
0.0
 11
5923.484998239408
 21
5063.450086714534
 31
0.0
  0
LINE
  5
159B7
330
747D
100
AcDbEntity
  8
細線
100
AcDbLine
 10
5775.484998239408
 20
5063.450086714534
 30
0.0
 11
5775.484998239408
 21
5040.450086714534
 31
0.0
  0
LINE
  5
159B8
330
747D
100
AcDbEntity
  8
部品1
 48
0.01
100
AcDbLine
 10
5939.484998239404
 20
5036.450086714534
 30
0.0
 11
5939.484998239407
 21
5067.950086714534
 31
0.0
  0
LINE
  5
159B9
330
747D
100
AcDbEntity
  8
部品1
 48
0.01
100
AcDbLine
 10
5761.484998239408
 20
5034.450086714534
 30
0.0
 11
5937.484998239405
 21
5034.450086714534
 31
0.0
  0
LINE
  5
159BA
330
747D
100
AcDbEntity
  8
部品1
 48
0.01
100
AcDbLine
 10
5759.484998239408
 20
5067.950086714534
 30
0.0
 11
5759.484998239408
 21
5036.450086714534
 31
0.0
  0
LINE
  5
159BB
330
747D
100
AcDbEntity
  8
部品1
 48
0.01
100
AcDbLine
 10
5937.484998239408
 20
5069.950086714534
 30
0.0
 11
5761.484998239408
 21
5069.950086714534
 31
0.0
  0
LINE
  5
159BC
330
747D
100
AcDbEntity
  8
細線
100
AcDbLine
 10
5775.484998239408
 20
5057.450086714535
 30
0.0
 11
5849.484998239407
 21
5057.450086714535
 31
0.0
  0
LINE
  5
159BD
330
747D
100
AcDbEntity
  8
細線
100
AcDbLine
 10
5775.484998239408
 20
5051.450086714535
 30
0.0
 11
5849.484998239407
 21
5051.450086714535
 31
0.0
  0
LINE
  5
159BE
330
747D
100
AcDbEntity
  8
細線
100
AcDbLine
 10
5775.484998239404
 20
5045.450086714534
 30
0.0
 11
5849.484998239407
 21
5045.450086714534
 31
0.0
  0
LINE
  5
159BF
330
747D
100
AcDbEntity
  8
細線
100
AcDbLine
 10
5775.484998239408
 20
5057.450086714535
 30
0.0
 11
5844.484998239408
 21
5057.450086714535
 31
0.0
  0
LINE
  5
159C0
330
747D
100
AcDbEntity
  8
細線
100
AcDbLine
 10
5923.484998239405
 20
5057.450086714535
 30
0.0
 11
5849.484998239407
 21
5057.450086714535
 31
0.0
  0
LINE
  5
159C1
330
747D
100
AcDbEntity
  8
細線
100
AcDbLine
 10
5923.484998239405
 20
5045.450086714534
 30
0.0
 11
5849.484998239407
 21
5045.450086714534
 31
0.0
  0
LINE
  5
159C2
330
747D
100
AcDbEntity
  8
細線
100
AcDbLine
 10
5923.484998239405
 20
5051.450086714535
 30
0.0
 11
5849.484998239407
 21
5051.450086714535
 31
0.0
  0
LINE
  5
159C3
330
747D
100
AcDbEntity
  8
細線
100
AcDbLine
 10
5849.484998239407
 20
5063.450086714534
 30
0.0
 11
5849.484998239404
 21
5040.450086714534
 31
0.0
  0
LINE
  5
159C4
330
747D
100
AcDbEntity
  8
細線
100
AcDbLine
 10
6669.484998239411
 20
5063.450086714534
 30
0.0
 11
6669.484998239408
 21
5040.450086714534
 31
0.0
  0
LINE
  5
159C5
330
747D
100
AcDbEntity
  8
細線
100
AcDbLine
 10
6743.484998239408
 20
5051.450086714535
 30
0.0
 11
6669.484998239411
 21
5051.450086714535
 31
0.0
  0
LINE
  5
159C6
330
747D
100
AcDbEntity
  8
細線
100
AcDbLine
 10
6743.484998239408
 20
5045.450086714534
 30
0.0
 11
6669.484998239411
 21
5045.450086714534
 31
0.0
  0
LINE
  5
159C7
330
747D
100
AcDbEntity
  8
細線
100
AcDbLine
 10
6743.484998239408
 20
5057.450086714535
 30
0.0
 11
6669.484998239411
 21
5057.450086714535
 31
0.0
  0
LINE
  5
159C8
330
747D
100
AcDbEntity
  8
細線
100
AcDbLine
 10
6595.484998239412
 20
5057.450086714535
 30
0.0
 11
6664.484998239412
 21
5057.450086714535
 31
0.0
  0
LINE
  5
159C9
330
747D
100
AcDbEntity
  8
細線
100
AcDbLine
 10
6595.484998239408
 20
5045.450086714534
 30
0.0
 11
6669.484998239411
 21
5045.450086714534
 31
0.0
  0
LINE
  5
159CA
330
747D
100
AcDbEntity
  8
細線
100
AcDbLine
 10
6595.484998239412
 20
5051.450086714535
 30
0.0
 11
6669.484998239411
 21
5051.450086714535
 31
0.0
  0
LINE
  5
159CB
330
747D
100
AcDbEntity
  8
細線
100
AcDbLine
 10
6595.484998239412
 20
5057.450086714535
 30
0.0
 11
6669.484998239411
 21
5057.450086714535
 31
0.0
  0
LINE
  5
159CC
330
747D
100
AcDbEntity
  8
部品1
 48
0.01
100
AcDbLine
 10
6757.484998239411
 20
5069.950086714534
 30
0.0
 11
6581.484998239412
 21
5069.950086714534
 31
0.0
  0
LINE
  5
159CD
330
747D
100
AcDbEntity
  8
部品1
 48
0.01
100
AcDbLine
 10
6579.484998239411
 20
5067.950086714534
 30
0.0
 11
6579.484998239411
 21
5036.450086714534
 31
0.0
  0
LINE
  5
159CE
330
747D
100
AcDbEntity
  8
部品1
 48
0.01
100
AcDbLine
 10
6581.484998239412
 20
5034.450086714534
 30
0.0
 11
6757.484998239409
 21
5034.450086714534
 31
0.0
  0
LINE
  5
159CF
330
747D
100
AcDbEntity
  8
部品1
 48
0.01
100
AcDbLine
 10
6759.484998239408
 20
5036.450086714534
 30
0.0
 11
6759.484998239412
 21
5067.950086714534
 31
0.0
  0
LINE
  5
159D0
330
747D
100
AcDbEntity
  8
細線
100
AcDbLine
 10
6595.484998239412
 20
5063.450086714534
 30
0.0
 11
6595.484998239412
 21
5040.450086714534
 31
0.0
  0
LINE
  5
159D1
330
747D
100
AcDbEntity
  8
細線
100
AcDbLine
 10
6743.484998239411
 20
5040.450086714534
 30
0.0
 11
6743.484998239411
 21
5063.450086714534
 31
0.0
  0
LINE
  5
159D2
330
747D
100
AcDbEntity
  8
細線
100
AcDbLine
 10
6743.484998239411
 20
5063.450086714534
 30
0.0
 11
6669.484998239411
 21
5063.450086714534
 31
0.0
  0
LINE
  5
159D3
330
747D
100
AcDbEntity
  8
細線
100
AcDbLine
 10
6595.484998239412
 20
5040.450086714534
 30
0.0
 11
6669.484998239411
 21
5040.450086714534
 31
0.0
  0
LINE
  5
159D4
330
747D
100
AcDbEntity
  8
細線
100
AcDbLine
 10
6669.484998239411
 20
5063.450086714534
 30
0.0
 11
6595.484998239412
 21
5063.450086714534
 31
0.0
  0
LINE
  5
159D5
330
747D
100
AcDbEntity
  8
細線
100
AcDbLine
 10
6669.484998239408
 20
5040.450086714534
 30
0.0
 11
6743.484998239411
 21
5040.450086714534
 31
0.0
  0
ARC
  5
159D6
330
747D
100
AcDbEntity
  8
部品1
 48
0.01
100
AcDbCircle
 10
6581.484998239412
 20
5067.950086714534
 30
0.0
 40
2.0
100
AcDbArc
 50
90.0
 51
180.0
  0
ARC
  5
159D7
330
747D
100
AcDbEntity
  8
部品1
 48
0.01
100
AcDbCircle
 10
6581.484998239412
 20
5036.450086714534
 30
0.0
 40
2.0
100
AcDbArc
 50
180.0
 51
270.0
  0
ARC
  5
159D8
330
747D
100
AcDbEntity
  8
部品1
 48
0.01
100
AcDbCircle
 10
6757.484998239411
 20
5067.950086714534
 30
0.0
 40
2.0
100
AcDbArc
 50
0.0
 51
90.0
  0
ARC
  5
159D9
330
747D
100
AcDbEntity
  8
部品1
 48
0.01
100
AcDbCircle
 10
6757.484998239409
 20
5036.450086714534
 30
0.0
 40
2.0
100
AcDbArc
 50
270.0
 51
0.0
  0
LINE
  5
15E13
330
747D
100
AcDbEntity
  8
仕様書枠
 48
50.0
100
AcDbLine
 10
16307.2
 20
10899.6
 30
0.0
 11
13127.2
 21
10899.6
 31
0.0
  0
TEXT
  5
15E14
330
747D
100
AcDbEntity
  8
文字
 62
     7
 48
50.0
100
AcDbText
 10
13248.77747366447
 20
8720.013745883735
 30
0.0
 40
100.0
  1
15
  7
STYLE1
100
AcDbText
  0
TEXT
  5
15E15
330
747D
100
AcDbEntity
  8
文字
 62
     7
 48
50.0
100
AcDbText
 10
13583.11819016569
 20
10930.01374588373
 30
0.0
 40
100.0
  1
根太
  7
STYLE1
100
AcDbText
  0
TEXT
  5
15E16
330
747D
100
AcDbEntity
  8
文字
 62
     7
 48
50.0
100
AcDbText
 10
15022.63965474517
 20
10930.01374588372
 30
0.0
 40
100.0
  1
F12            1.2
  7
STYLE1
100
AcDbText
  0
LINE
  5
15E43
330
747D
100
AcDbEntity
  8
細線
 48
50.0
100
AcDbLine
 10
10311.35691079978
 20
5003.950086714536
 30
0.0
 11
10311.35691079978
 21
3213.950086714536
 31
0.0
  0
LINE
  5
15E44
330
747D
100
AcDbEntity
  8
細線
 48
50.0
100
AcDbLine
 10
10296.35691079978
 20
5003.950086714536
 30
0.0
 11
10296.35691079978
 21
3213.950086714536
 31
0.0
  0
LINE
  5
15E45
330
747D
100
AcDbEntity
  8
細線
 48
50.0
100
AcDbLine
 10
10166.35691079978
 20
5003.950086714536
 30
0.0
 11
10166.35691079978
 21
3213.950086714536
 31
0.0
  0
LINE
  5
15E46
330
747D
100
AcDbEntity
  8
細線
 48
50.0
100
AcDbLine
 10
10151.35691079978
 20
5003.950086714536
 30
0.0
 11
10151.35691079978
 21
3213.950086714536
 31
0.0
  0
LINE
  5
15E47
330
747D
100
AcDbEntity
  8
細線
 48
50.0
100
AcDbLine
 10
10021.35691079978
 20
5003.950086714536
 30
0.0
 11
10021.35691079978
 21
3213.950086714536
 31
0.0
  0
LINE
  5
15E48
330
747D
100
AcDbEntity
  8
細線
 48
50.0
100
AcDbLine
 10
10006.35691079978
 20
5003.950086714536
 30
0.0
 11
10006.35691079978
 21
3213.950086714536
 31
0.0
  0
TEXT
  5
160E9
330
747D
100
AcDbEntity
  8
文字
 62
     7
 48
50.0
100
AcDbText
 10
14260.68475616112
 20
855.469579666289
 30
0.0
 40
100.0
  1
～一般型・多雪地型・豪雪地型～
  7
STYLE2
100
AcDbText
  0
LINE
  5
1616F
330
747D
100
AcDbEntity
  8
細線
 48
50.0
100
AcDbLine
 10
5575.984998239403
 20
8260.581830765451
 30
0.0
 11
5575.984998239403
 21
8234.581830765403
 31
0.0
  0
LINE
  5
16170
330
747D
100
AcDbEntity
  8
細線
 48
50.0
100
AcDbLine
 10
5818.484998239402
 20
8260.581830765438
 30
0.0
 11
5818.484998239402
 21
8234.581830765403
 31
0.0
  0
LINE
  5
16171
330
747D
100
AcDbEntity
  8
細線
 48
50.0
100
AcDbLine
 10
5778.484998239402
 20
8260.581830765438
 30
0.0
 11
5778.484998239402
 21
8234.581830765403
 31
0.0
  0
LINE
  5
16172
330
747D
100
AcDbEntity
  8
細線
 48
50.0
100
AcDbLine
 10
6395.984998239405
 20
8260.581830764197
 30
0.0
 11
6395.984998239405
 21
8234.581830764149
 31
0.0
  0
LINE
  5
16173
330
747D
100
AcDbEntity
  8
細線
 48
50.0
100
AcDbLine
 10
6638.484998239404
 20
8260.581830764186
 30
0.0
 11
6638.484998239404
 21
8234.581830764149
 31
0.0
  0
LINE
  5
16174
330
747D
100
AcDbEntity
  8
細線
 48
50.0
100
AcDbLine
 10
6598.484998239404
 20
8260.581830764186
 30
0.0
 11
6598.484998239404
 21
8234.581830764149
 31
0.0
  0
LWPOLYLINE
  5
161F5
330
747D
100
AcDbEntity
  8
細線
  6
Continuous
370
    15
100
AcDbPolyline
 90
        3
 70
   128
 43
0.0
 10
5534.898224843861
 20
4081.463618399415
 10
5534.969810022237
 20
4081.439359308991
 10
5534.985009206654
 20
4081.436677099977
  0
ARC
  5
161F6
330
747D
100
AcDbEntity
  8
細線
  6
Continuous
370
    15
100
AcDbCircle
 10
5531.484997340965
 20
4074.45004412187
 30
0.0
 40
7.799999999999959
100
AcDbArc
 50
64.04961909222373
 51
115.6437752580401
  0
LWPOLYLINE
  5
161F7
330
747D
100
AcDbEntity
  8
細線
  6
Continuous
370
    15
100
AcDbPolyline
 90
        3
 70
   128
 43
0.0
 10
5527.98500992191
 20
4081.452233912263
 10
5528.037640823247
 20
4081.457896353517
 10
5528.109345210912
 20
4081.481738211427
  0
SPLINE
  5
161F8
330
747D
100
AcDbEntity
  8
細線
  6
Continuous
370
    15
100
AcDbSpline
210
0.0
220
0.0
230
1.0
 70
     8
 71
     3
 72
     9
 73
     5
 74
     0
 42
0.000000001
 43
0.0000000001
 40
0.0
 40
0.0
 40
0.0
 40
0.0
 40
0.7237658969060897
 40
1.0
 40
1.0
 40
1.0
 40
1.0
 10
5513.389918578984
 20
4108.761830450807
 30
0.0
 10
5513.585660075906
 20
4108.990511893018
 30
0.0
 10
5513.856108708211
 20
4109.306472403434
 30
0.0
 10
5513.893640953923
 20
4109.865486837312
 30
0.0
 10
5513.904008640172
 20
4110.019905688081
 30
0.0
  0
SPLINE
  5
161F9
330
747D
100
AcDbEntity
  8
細線
  6
Continuous
370
    15
100
AcDbSpline
210
0.0
220
0.0
230
1.0
 70
     8
 71
     3
 72
     9
 73
     5
 74
     0
 42
0.000000001
 43
0.0000000001
 40
0.0
 40
0.0
 40
0.0
 40
0.0
 40
0.1817420378681831
 40
1.0
 40
1.0
 40
1.0
 40
1.0
 10
5513.898793233754
 20
4190.98846447638
 30
0.0
 10
5513.891797569252
 20
4191.082978942795
 30
0.0
 10
5513.853305294199
 20
4191.603026299635
 30
0.0
 10
5513.598453273814
 20
4191.89738044828
 30
0.0
 10
5513.389918578984
 20
4192.138238074098
 30
0.0
  0
LINE
  5
161FA
330
747D
100
AcDbEntity
  8
細線
  6
Continuous
370
    15
100
AcDbLine
 10
5539.073202384831
 20
4186.700387121949
 30
0.0
 11
5539.073202384831
 21
4114.199681402955
 31
0.0
  0
LINE
  5
161FB
330
747D
100
AcDbEntity
  8
細線
  6
Continuous
370
    15
100
AcDbLine
 10
5533.635351432683
 20
4108.761830450807
 30
0.0
 11
5513.389918578984
 21
4108.761830450807
 31
0.0
  0
ELLIPSE
  5
161FC
330
747D
100
AcDbEntity
  8
細線
  6
Continuous
370
    15
100
AcDbEllipse
 10
5508.584997340999
 20
4109.910966652344
 30
0.0
 11
5.399999999999976
 21
0.0
 31
0.0
210
0.0
220
0.0
230
1.0
 40
0.4663076581550023
 41
5.04728513882407
 42
5.809296398627029
  0
LINE
  5
161FD
330
747D
100
AcDbEntity
  8
細線
  6
Continuous
370
    15
100
AcDbLine
 10
5510.35982705486
 20
4107.532782675538
 30
0.0
 11
5508.585009349705
 21
4107.532782675538
 31
0.0
  0
LINE
  5
161FE
330
747D
100
AcDbEntity
  8
細線
  6
Continuous
370
    15
100
AcDbLine
 10
5508.585009349705
 20
4193.367285849366
 30
0.0
 11
5510.35982705486
 21
4193.367285849366
 31
0.0
  0
ELLIPSE
  5
161FF
330
747D
100
AcDbEntity
  8
細線
  6
Continuous
370
    15
100
AcDbEllipse
 10
5508.584997340999
 20
4190.989121591381
 30
0.0
 11
5.399999999999976
 21
0.0
 31
0.0
210
0.0
220
0.0
230
1.0
 40
0.4663076581550023
 41
0.4738889085525403
 42
1.235900168355494
  0
LINE
  5
16200
330
747D
100
AcDbEntity
  8
細線
  6
Continuous
370
    15
100
AcDbLine
 10
5513.389918578984
 20
4192.138238074098
 30
0.0
 11
5533.635351432683
 21
4192.138238074098
 31
0.0
  0
ELLIPSE
  5
16201
330
747D
100
AcDbEntity
  8
細線
  6
Continuous
370
    15
100
AcDbEllipse
 10
5508.584997340999
 20
4190.057156891096
 30
0.0
 11
0.0
 21
-3.310133756887523
 31
0.0
210
0.0
220
0.0
230
1.0
 40
0.9063077870366367
 41
3.141592653589783
 42
4.712388980384702
  0
ELLIPSE
  5
16202
330
747D
100
AcDbEntity
  8
細線
  6
Continuous
370
    15
100
AcDbEllipse
 10
5508.584997340999
 20
4110.842931352642
 30
0.0
 11
0.0
 21
-3.310133756887466
 31
0.0
210
0.0
220
0.0
230
1.0
 40
0.9063077870366523
 41
4.712388980384702
 42
6.283185307179586
  0
ARC
  5
16203
330
747D
100
AcDbEntity
  8
細線
  6
Continuous
370
    15
100
AcDbCircle
 10
5531.484997340965
 20
4074.45004412187
 30
0.0
 40
7.499999999999996
100
AcDbArc
 50
120.3006176375393
 51
59.69938236246067
  0
SPLINE
  5
16204
330
747D
100
AcDbEntity
  8
細線
  6
Continuous
370
    15
100
AcDbSpline
210
0.0
220
0.0
230
1.0
 70
    24
 71
     3
 72
     9
 73
     5
 74
     0
 42
0.000000001
 43
0.0000000001
 40
0.0
 40
0.0
 40
0.0
 40
0.0
 40
0.8663703693180105
 40
1.0
 40
1.0
 40
1.0
 40
1.0
 10
5527.98500992191
 20
4081.259412886415
 30
0.0
 10
5527.98500992191
 20
4081.207041326226
 30
0.0
 10
5527.98500992191
 20
4081.146591936413
 30
0.0
 10
5527.98500992191
 20
4081.090744088403
 30
0.0
 10
5527.98500992191
 20
4081.083281161103
 30
0.0
  0
LINE
  5
16205
330
747D
100
AcDbEntity
  8
細線
  6
Continuous
370
    15
100
AcDbLine
 10
5527.98500992191
 20
4081.083281161103
 30
0.0
 11
5527.700963987233
 21
4080.925448061738
 31
0.0
  0
LINE
  5
16206
330
747D
100
AcDbEntity
  8
細線
  6
Continuous
370
    15
100
AcDbLine
 10
5535.269025339009
 20
4080.925448061738
 30
0.0
 11
5534.985009206654
 21
4081.083281161103
 31
0.0
  0
SPLINE
  5
16207
330
747D
100
AcDbEntity
  8
細線
  6
Continuous
370
    15
100
AcDbSpline
210
0.0
220
0.0
230
1.0
 70
    24
 71
     3
 72
     9
 73
     5
 74
     0
 42
0.000000001
 43
0.0000000001
 40
0.0
 40
0.0
 40
0.0
 40
0.0
 40
0.8651188723649402
 40
1.0
 40
1.0
 40
1.0
 40
1.0
 10
5534.985009206654
 20
4081.083281161103
 30
0.0
 10
5534.985009206654
 20
4081.133368478535
 30
0.0
 10
5534.985009206654
 20
4081.191264935347
 30
0.0
 10
5534.985009206654
 20
4081.251313472065
 30
0.0
 10
5534.985009206654
 20
4081.259412886415
 30
0.0
  0
ARC
  5
16208
330
747D
100
AcDbEntity
  8
細線
  6
Continuous
370
    15
100
AcDbCircle
 10
5531.484997340965
 20
4074.45004412187
 30
0.0
 40
9.499999999999973
100
AcDbArc
 50
69.15570700480905
 51
110.8442929951909
  0
LINE
  5
16209
330
747D
100
AcDbEntity
  8
細線
  6
Continuous
370
    15
100
AcDbLine
 10
5534.985009206654
 20
4081.259412886415
 30
0.0
 11
5534.985009206654
 21
4083.154721380982
 31
0.0
  0
LINE
  5
1620A
330
747D
100
AcDbEntity
  8
細線
  6
Continuous
370
    15
100
AcDbLine
 10
5527.98500992191
 20
4083.154721380982
 30
0.0
 11
5527.98500992191
 21
4081.259412886415
 31
0.0
  0
LINE
  5
1620B
330
747D
100
AcDbEntity
  8
細線
  6
Continuous
370
    15
100
AcDbLine
 10
5534.985009206654
 20
4083.154721380982
 30
0.0
 11
5534.985009206654
 21
4083.281798483644
 31
0.0
  0
LINE
  5
1620C
330
747D
100
AcDbEntity
  8
細線
  6
Continuous
370
    15
100
AcDbLine
 10
5534.985009206654
 20
4083.281798483644
 30
0.0
 11
5534.86538268459
 21
4083.328290106568
 31
0.0
  0
LINE
  5
1620D
330
747D
100
AcDbEntity
  8
細線
  6
Continuous
370
    15
100
AcDbLine
 10
5528.104606641652
 20
4083.328290106568
 30
0.0
 11
5527.98500992191
 21
4083.281798483644
 31
0.0
  0
LINE
  5
1620E
330
747D
100
AcDbEntity
  8
細線
  6
Continuous
370
    15
100
AcDbLine
 10
5527.98500992191
 20
4083.281798483644
 30
0.0
 11
5527.98500992191
 21
4083.154721380982
 31
0.0
  0
ARC
  5
1620F
330
747D
100
AcDbEntity
  8
細線
  6
Continuous
370
    15
100
AcDbCircle
 10
5548.484997340964
 20
4214.450044121869
 30
0.0
 40
6.0
100
AcDbArc
 50
0.0
 51
90.0
  0
LINE
  5
16210
330
747D
100
AcDbEntity
  8
細線
  6
Continuous
370
    15
100
AcDbLine
 10
5554.48499657047
 20
4214.45004475287
 30
0.0
 11
5554.48499657047
 21
4046.450061919007
 31
0.0
  0
LINE
  5
16211
330
747D
100
AcDbEntity
  8
細線
  6
Continuous
370
    15
100
AcDbLine
 10
5496.4849982394
 20
4046.450061919007
 30
0.0
 11
5496.4849982394
 21
4214.45004475287
 31
0.0
  0
LINE
  5
16212
330
747D
100
AcDbEntity
  8
細線
  6
Continuous
370
    15
100
AcDbLine
 10
5502.485010398747
 20
4220.45008671454
 30
0.0
 11
5548.484984411122
 21
4220.45008671454
 31
0.0
  0
ARC
  5
16213
330
747D
100
AcDbEntity
  8
細線
  6
Continuous
370
    15
100
AcDbCircle
 10
5548.484997340964
 20
4046.450044121869
 30
0.0
 40
6.0
100
AcDbArc
 50
270.0
 51
0.0
  0
ARC
  5
16214
330
747D
100
AcDbEntity
  8
細線
  6
Continuous
370
    15
100
AcDbCircle
 10
5502.484997340964
 20
4214.450044121869
 30
0.0
 40
6.0
100
AcDbArc
 50
90.0
 51
180.0
  0
LINE
  5
16215
330
747D
100
AcDbEntity
  8
細線
  6
Continuous
370
    15
100
AcDbLine
 10
5548.484984411122
 20
4040.450019957337
 30
0.0
 11
5502.485010398747
 21
4040.450019957337
 31
0.0
  0
ARC
  5
16216
330
747D
100
AcDbEntity
  8
細線
  6
Continuous
370
    15
100
AcDbCircle
 10
5502.484997340964
 20
4046.450044121869
 30
0.0
 40
6.0
100
AcDbArc
 50
180.0
 51
270.0
  0
LINE
  5
16217
330
747D
100
AcDbEntity
  8
細線
  6
Continuous
370
    15
100
AcDbLine
 10
5537.581298126103
 20
4084.682269217286
 30
0.0
 11
5537.581298126103
 21
4080.666883112702
 31
0.0
  0
ARC
  5
16218
330
747D
100
AcDbEntity
  8
細線
  6
Continuous
370
    15
100
AcDbCircle
 10
5531.484997340965
 20
4074.45004412187
 30
0.0
 40
8.707106781186586
100
AcDbArc
 50
134.4391355081549
 51
45.56086449184513
  0
LINE
  5
16219
330
747D
100
AcDbEntity
  8
細線
  6
Continuous
370
    15
100
AcDbLine
 10
5525.388721002461
 20
4080.666883112702
 30
0.0
 11
5525.388721002461
 21
4084.682269217286
 31
0.0
  0
SPLINE
  5
1621A
330
747D
100
AcDbEntity
  8
細線
  6
Continuous
370
    15
100
AcDbSpline
210
0.0
220
0.0
230
1.0
 70
     8
 71
     3
 72
    11
 73
     7
 74
     0
 42
0.000000001
 43
0.0000000001
 40
0.0
 40
0.0
 40
0.0
 40
0.0
 40
0.0781314889249488
 40
0.3601777463886433
 40
0.6812698848259567
 40
1.0
 40
1.0
 40
1.0
 40
1.0
 10
5525.578770412328
 20
4085.006399275575
 30
0.0
 10
5525.569907981632
 20
4085.001211160066
 30
0.0
 10
5525.529053130906
 20
4084.977294506549
 30
0.0
 10
5525.460307987341
 20
4084.917984178697
 30
0.0
 10
5525.398266476018
 20
4084.809118872712
 30
0.0
 10
5525.391894986467
 20
4084.724448243287
 30
0.0
 10
5525.388721002461
 20
4084.682269217286
 30
0.0
  0
ARC
  5
1621B
330
747D
100
AcDbEntity
  8
細線
  6
Continuous
370
    15
100
AcDbCircle
 10
5531.484997340965
 20
4074.45004412187
 30
0.0
 40
12.09629120178367
100
AcDbArc
 50
60.77315626978887
 51
119.2268437302111
  0
SPLINE
  5
1621C
330
747D
100
AcDbEntity
  8
細線
  6
Continuous
370
    15
100
AcDbSpline
210
0.0
220
0.0
230
1.0
 70
     8
 71
     3
 72
    11
 73
     7
 74
     0
 42
0.000000001
 43
0.0000000001
 40
0.0
 40
0.0
 40
0.0
 40
0.0
 40
0.0779029322309155
 40
0.3600683505069131
 40
0.6812326600027312
 40
1.0
 40
1.0
 40
1.0
 40
1.0
 10
5537.581298126103
 20
4084.682269217286
 30
0.0
 10
5537.581095852939
 20
4084.692506143023
 30
0.0
 10
5537.58016094387
 20
4084.739821344905
 30
0.0
 10
5537.56196393421
 20
4084.828758101081
 30
0.0
 10
5537.497306905126
 20
4084.936122580416
 30
0.0
 10
5537.426513055827
 20
4084.983032279851
 30
0.0
 10
5537.391248716237
 20
4085.006399275575
 30
0.0
  0
LINE
  5
1621D
330
747D
100
AcDbEntity
  8
細線
  6
Continuous
370
    15
100
AcDbLine
 10
5508.517541660191
 20
4199.450059057984
 30
0.0
 11
5539.384993566396
 21
4199.450059057984
 31
0.0
  0
LINE
  5
1621E
330
747D
100
AcDbEntity
  8
細線
  6
Continuous
370
    15
100
AcDbLine
 10
5503.517541660191
 20
4106.450069071565
 30
0.0
 11
5503.517541660191
 21
4194.450059057984
 31
0.0
  0
ARC
  5
1621F
330
747D
100
AcDbEntity
  8
細線
  6
Continuous
370
    15
100
AcDbCircle
 10
5508.517541660191
 20
4194.450059057984
 30
0.0
 40
5.0
100
AcDbArc
 50
90.0
 51
180.0
  0
LINE
  5
16220
330
747D
100
AcDbEntity
  8
細線
  6
Continuous
370
    15
100
AcDbLine
 10
5505.584988368871
 20
4190.057156891096
 30
0.0
 11
5505.584988368871
 21
4110.842931352642
 31
0.0
  0
LINE
  5
16221
330
747D
100
AcDbEntity
  8
細線
  6
Continuous
370
    15
100
AcDbLine
 10
5546.384993566396
 20
4192.450059057985
 30
0.0
 11
5546.384993566396
 21
4108.450069071564
 31
0.0
  0
ARC
  5
16222
330
747D
100
AcDbEntity
  8
細線
  6
Continuous
370
    15
100
AcDbCircle
 10
5539.384993566396
 20
4108.450069071564
 30
0.0
 40
7.0
100
AcDbArc
 50
270.0
 51
0.0
  0
ARC
  5
16223
330
747D
100
AcDbEntity
  8
細線
  6
Continuous
370
    15
100
AcDbCircle
 10
5539.384993566396
 20
4192.450059057985
 30
0.0
 40
7.0
100
AcDbArc
 50
0.0
 51
90.0
  0
LINE
  5
16224
330
747D
100
AcDbEntity
  8
細線
  6
Continuous
370
    15
100
AcDbLine
 10
5539.384993566396
 20
4101.450069071565
 30
0.0
 11
5508.517541660191
 21
4101.450069071565
 31
0.0
  0
ARC
  5
16225
330
747D
100
AcDbEntity
  8
細線
  6
Continuous
370
    15
100
AcDbCircle
 10
5508.517541660191
 20
4106.450069071565
 30
0.0
 40
5.0
100
AcDbArc
 50
180.0
 51
270.0
  0
ARC
  5
16226
330
747D
100
AcDbEntity
  8
細線
  6
Continuous
370
    15
100
AcDbCircle
 10
5532.304600255876
 20
4115.530432579762
 30
0.0
 40
6.898178997000096
100
AcDbArc
 50
281.1228560456502
 51
348.8771439544009
  0
ARC
  5
16227
330
747D
100
AcDbEntity
  8
細線
  6
Continuous
370
    15
100
AcDbCircle
 10
5532.304652282232
 20
4185.369687971514
 30
0.0
 40
6.89811791144148
100
AcDbArc
 50
11.12251539540163
 51
78.87748460464951
  0
LINE
  5
16228
330
747D
100
AcDbEntity
  8
細線
  6
Continuous
370
    15
100
AcDbLine
 10
5521.582785619618
 20
4112.019905688081
 30
0.0
 11
5521.582785619618
 21
4188.98846447638
 31
0.0
  0
ARC
  5
16229
330
747D
100
AcDbEntity
  8
細線
  6
Continuous
370
    15
100
AcDbCircle
 10
5519.582785619618
 20
4188.98846447638
 30
0.0
 40
2.0
100
AcDbArc
 50
0.0
 51
90.0
  0
ARC
  5
1622A
330
747D
100
AcDbEntity
  8
細線
  6
Continuous
370
    15
100
AcDbCircle
 10
5519.582774698347
 20
4112.004200484065
 30
0.0
 40
2.0
100
AcDbArc
 50
262.8149626715364
 51
0.0
  0
LWPOLYLINE
  5
1622B
330
747D
100
AcDbEntity
  8
細線
 48
50.0
100
AcDbPolyline
 90
        4
 70
     1
 43
0.0
 10
5532.747093213917
 20
4069.621665598664
 10
5530.222925914647
 20
4069.621665598664
 10
5530.222925914647
 20
4079.278452517304
 10
5532.747093213917
 20
4079.278452517304
  0
LINE
  5
1622C
330
747D
100
AcDbEntity
  8
細線
  6
Continuous
370
    15
100
AcDbLine
 10
5519.582785619618
 20
4110.019905688081
 30
0.0
 11
5513.904008640172
 21
4110.019905688083
 31
0.0
  0
LINE
  5
1622D
330
747D
100
AcDbEntity
  8
細線
  6
Continuous
370
    15
100
AcDbLine
 10
5508.312794937016
 20
4111.01990568808
 30
0.0
 11
5508.312794937016
 21
4189.988464476381
 31
0.0
  0
ARC
  5
1622E
330
747D
100
AcDbEntity
  8
細線
  6
Continuous
370
    15
100
AcDbCircle
 10
5509.312794937017
 20
4189.988464476381
 30
0.0
 40
1.0
100
AcDbArc
 50
90.0
 51
180.0
  0
LINE
  5
1622F
330
747D
100
AcDbEntity
  8
細線
  6
Continuous
370
    15
100
AcDbLine
 10
5513.898793233754
 20
4190.98846447638
 30
0.0
 11
5509.312794937017
 21
4190.98846447638
 31
0.0
  0
LINE
  5
16230
330
747D
100
AcDbEntity
  8
細線
  6
Continuous
370
    15
100
AcDbLine
 10
5513.904008640172
 20
4110.019905688081
 30
0.0
 11
5509.312794937017
 21
4110.019905688081
 31
0.0
  0
ARC
  5
16231
330
747D
100
AcDbEntity
  8
細線
  6
Continuous
370
    15
100
AcDbCircle
 10
5509.312794937017
 20
4111.01990568808
 30
0.0
 40
1.0
100
AcDbArc
 50
180.0
 51
270.0
  0
LINE
  5
16232
330
747D
100
AcDbEntity
  8
細線
  6
Continuous
370
    15
100
AcDbLine
 10
5519.582785619618
 20
4190.98846447638
 30
0.0
 11
5513.783316408733
 21
4190.98846447638
 31
0.0
  0
LWPOLYLINE
  5
16233
330
747D
100
AcDbEntity
  8
細線
  6
Continuous
370
    15
100
AcDbPolyline
 90
        3
 70
   128
 43
0.0
 10
6354.898224843861
 20
4081.463618399408
 10
6354.969810022236
 20
4081.439359308984
 10
6354.985009206654
 20
4081.436677099969
  0
ARC
  5
16234
330
747D
100
AcDbEntity
  8
細線
  6
Continuous
370
    15
100
AcDbCircle
 10
6351.484997340964
 20
4074.450044121863
 30
0.0
 40
7.799999999999959
100
AcDbArc
 50
64.04961909222373
 51
115.6437752580401
  0
LWPOLYLINE
  5
16235
330
747D
100
AcDbEntity
  8
細線
  6
Continuous
370
    15
100
AcDbPolyline
 90
        3
 70
   128
 43
0.0
 10
6347.985009921909
 20
4081.452233912256
 10
6348.037640823246
 20
4081.457896353509
 10
6348.109345210911
 20
4081.48173821142
  0
SPLINE
  5
16236
330
747D
100
AcDbEntity
  8
細線
  6
Continuous
370
    15
100
AcDbSpline
210
0.0
220
0.0
230
1.0
 70
     8
 71
     3
 72
     9
 73
     5
 74
     0
 42
0.000000001
 43
0.0000000001
 40
0.0
 40
0.0
 40
0.0
 40
0.0
 40
0.7237658969060897
 40
1.0
 40
1.0
 40
1.0
 40
1.0
 10
6333.389918578983
 20
4108.7618304508
 30
0.0
 10
6333.585660075905
 20
4108.990511893011
 30
0.0
 10
6333.856108708211
 20
4109.306472403426
 30
0.0
 10
6333.893640953922
 20
4109.865486837305
 30
0.0
 10
6333.904008640171
 20
4110.019905688074
 30
0.0
  0
SPLINE
  5
16237
330
747D
100
AcDbEntity
  8
細線
  6
Continuous
370
    15
100
AcDbSpline
210
0.0
220
0.0
230
1.0
 70
     8
 71
     3
 72
     9
 73
     5
 74
     0
 42
0.000000001
 43
0.0000000001
 40
0.0
 40
0.0
 40
0.0
 40
0.0
 40
0.1817420378681831
 40
1.0
 40
1.0
 40
1.0
 40
1.0
 10
6333.898793233753
 20
4190.988464476373
 30
0.0
 10
6333.891797569251
 20
4191.082978942787
 30
0.0
 10
6333.853305294198
 20
4191.603026299627
 30
0.0
 10
6333.598453273813
 20
4191.897380448273
 30
0.0
 10
6333.389918578983
 20
4192.138238074091
 30
0.0
  0
LINE
  5
16238
330
747D
100
AcDbEntity
  8
細線
  6
Continuous
370
    15
100
AcDbLine
 10
6359.073202384831
 20
4186.700387121942
 30
0.0
 11
6359.073202384831
 21
4114.199681402948
 31
0.0
  0
LINE
  5
16239
330
747D
100
AcDbEntity
  8
細線
  6
Continuous
370
    15
100
AcDbLine
 10
6353.635351432682
 20
4108.7618304508
 30
0.0
 11
6333.389918578983
 21
4108.7618304508
 31
0.0
  0
ELLIPSE
  5
1623A
330
747D
100
AcDbEntity
  8
細線
  6
Continuous
370
    15
100
AcDbEllipse
 10
6328.584997340999
 20
4109.910966652336
 30
0.0
 11
5.399999999999976
 21
0.0
 31
0.0
210
0.0
220
0.0
230
1.0
 40
0.4663076581550023
 41
5.04728513882407
 42
5.809296398627029
  0
LINE
  5
1623B
330
747D
100
AcDbEntity
  8
細線
  6
Continuous
370
    15
100
AcDbLine
 10
6330.359827054859
 20
4107.532782675531
 30
0.0
 11
6328.585009349705
 21
4107.532782675531
 31
0.0
  0
LINE
  5
1623C
330
747D
100
AcDbEntity
  8
細線
  6
Continuous
370
    15
100
AcDbLine
 10
6328.585009349705
 20
4193.367285849359
 30
0.0
 11
6330.359827054859
 21
4193.367285849359
 31
0.0
  0
ELLIPSE
  5
1623D
330
747D
100
AcDbEntity
  8
細線
  6
Continuous
370
    15
100
AcDbEllipse
 10
6328.584997340999
 20
4190.989121591374
 30
0.0
 11
5.399999999999976
 21
0.0
 31
0.0
210
0.0
220
0.0
230
1.0
 40
0.4663076581550023
 41
0.4738889085525403
 42
1.235900168355494
  0
LINE
  5
1623E
330
747D
100
AcDbEntity
  8
細線
  6
Continuous
370
    15
100
AcDbLine
 10
6333.389918578983
 20
4192.138238074091
 30
0.0
 11
6353.635351432682
 21
4192.138238074091
 31
0.0
  0
ELLIPSE
  5
1623F
330
747D
100
AcDbEntity
  8
細線
  6
Continuous
370
    15
100
AcDbEllipse
 10
6328.584997340999
 20
4190.057156891088
 30
0.0
 11
0.0
 21
-3.310133756887523
 31
0.0
210
0.0
220
0.0
230
1.0
 40
0.9063077870366367
 41
3.141592653589783
 42
4.712388980384702
  0
ELLIPSE
  5
16240
330
747D
100
AcDbEntity
  8
細線
  6
Continuous
370
    15
100
AcDbEllipse
 10
6328.584997340999
 20
4110.842931352635
 30
0.0
 11
0.0
 21
-3.310133756887466
 31
0.0
210
0.0
220
0.0
230
1.0
 40
0.9063077870366523
 41
4.712388980384702
 42
6.283185307179586
  0
ARC
  5
16241
330
747D
100
AcDbEntity
  8
細線
  6
Continuous
370
    15
100
AcDbCircle
 10
6351.484997340964
 20
4074.450044121863
 30
0.0
 40
7.499999999999996
100
AcDbArc
 50
120.3006176375393
 51
59.69938236246067
  0
SPLINE
  5
16242
330
747D
100
AcDbEntity
  8
細線
  6
Continuous
370
    15
100
AcDbSpline
210
0.0
220
0.0
230
1.0
 70
    24
 71
     3
 72
     9
 73
     5
 74
     0
 42
0.000000001
 43
0.0000000001
 40
0.0
 40
0.0
 40
0.0
 40
0.0
 40
0.8663703693180105
 40
1.0
 40
1.0
 40
1.0
 40
1.0
 10
6347.985009921909
 20
4081.259412886407
 30
0.0
 10
6347.985009921909
 20
4081.207041326218
 30
0.0
 10
6347.985009921909
 20
4081.146591936405
 30
0.0
 10
6347.985009921909
 20
4081.090744088396
 30
0.0
 10
6347.985009921909
 20
4081.083281161096
 30
0.0
  0
LINE
  5
16243
330
747D
100
AcDbEntity
  8
細線
  6
Continuous
370
    15
100
AcDbLine
 10
6347.985009921909
 20
4081.083281161096
 30
0.0
 11
6347.700963987232
 21
4080.925448061731
 31
0.0
  0
LINE
  5
16244
330
747D
100
AcDbEntity
  8
細線
  6
Continuous
370
    15
100
AcDbLine
 10
6355.269025339008
 20
4080.925448061731
 30
0.0
 11
6354.985009206654
 21
4081.083281161096
 31
0.0
  0
SPLINE
  5
16245
330
747D
100
AcDbEntity
  8
細線
  6
Continuous
370
    15
100
AcDbSpline
210
0.0
220
0.0
230
1.0
 70
    24
 71
     3
 72
     9
 73
     5
 74
     0
 42
0.000000001
 43
0.0000000001
 40
0.0
 40
0.0
 40
0.0
 40
0.0
 40
0.8651188723649402
 40
1.0
 40
1.0
 40
1.0
 40
1.0
 10
6354.985009206654
 20
4081.083281161096
 30
0.0
 10
6354.985009206654
 20
4081.133368478528
 30
0.0
 10
6354.985009206654
 20
4081.19126493534
 30
0.0
 10
6354.985009206654
 20
4081.251313472058
 30
0.0
 10
6354.985009206654
 20
4081.259412886407
 30
0.0
  0
ARC
  5
16246
330
747D
100
AcDbEntity
  8
細線
  6
Continuous
370
    15
100
AcDbCircle
 10
6351.484997340964
 20
4074.450044121863
 30
0.0
 40
9.499999999999973
100
AcDbArc
 50
69.15570700480905
 51
110.8442929951909
  0
LINE
  5
16247
330
747D
100
AcDbEntity
  8
細線
  6
Continuous
370
    15
100
AcDbLine
 10
6354.985009206654
 20
4081.259412886407
 30
0.0
 11
6354.985009206654
 21
4083.154721380975
 31
0.0
  0
LINE
  5
16248
330
747D
100
AcDbEntity
  8
細線
  6
Continuous
370
    15
100
AcDbLine
 10
6347.985009921909
 20
4083.154721380975
 30
0.0
 11
6347.985009921909
 21
4081.259412886407
 31
0.0
  0
LINE
  5
16249
330
747D
100
AcDbEntity
  8
細線
  6
Continuous
370
    15
100
AcDbLine
 10
6354.985009206654
 20
4083.154721380975
 30
0.0
 11
6354.985009206654
 21
4083.281798483636
 31
0.0
  0
LINE
  5
1624A
330
747D
100
AcDbEntity
  8
細線
  6
Continuous
370
    15
100
AcDbLine
 10
6354.985009206654
 20
4083.281798483636
 30
0.0
 11
6354.86538268459
 21
4083.328290106561
 31
0.0
  0
LINE
  5
1624B
330
747D
100
AcDbEntity
  8
細線
  6
Continuous
370
    15
100
AcDbLine
 10
6348.104606641651
 20
4083.328290106561
 30
0.0
 11
6347.985009921909
 21
4083.281798483636
 31
0.0
  0
LINE
  5
1624C
330
747D
100
AcDbEntity
  8
細線
  6
Continuous
370
    15
100
AcDbLine
 10
6347.985009921909
 20
4083.281798483636
 30
0.0
 11
6347.985009921909
 21
4083.154721380975
 31
0.0
  0
ARC
  5
1624D
330
747D
100
AcDbEntity
  8
細線
  6
Continuous
370
    15
100
AcDbCircle
 10
6368.484997340964
 20
4214.450044121862
 30
0.0
 40
6.0
100
AcDbArc
 50
0.0
 51
90.0
  0
LINE
  5
1624E
330
747D
100
AcDbEntity
  8
細線
  6
Continuous
370
    15
100
AcDbLine
 10
6374.484996570469
 20
4214.450044752863
 30
0.0
 11
6374.484996570469
 21
4046.450061919
 31
0.0
  0
LINE
  5
1624F
330
747D
100
AcDbEntity
  8
細線
  6
Continuous
370
    15
100
AcDbLine
 10
6316.484998239399
 20
4046.450061919
 30
0.0
 11
6316.484998239399
 21
4214.450044752863
 31
0.0
  0
LINE
  5
16250
330
747D
100
AcDbEntity
  8
細線
  6
Continuous
370
    15
100
AcDbLine
 10
6322.485010398747
 20
4220.450086714532
 30
0.0
 11
6368.484984411121
 21
4220.450086714532
 31
0.0
  0
ARC
  5
16251
330
747D
100
AcDbEntity
  8
細線
  6
Continuous
370
    15
100
AcDbCircle
 10
6368.484997340964
 20
4046.450044121862
 30
0.0
 40
6.0
100
AcDbArc
 50
270.0
 51
0.0
  0
ARC
  5
16252
330
747D
100
AcDbEntity
  8
細線
  6
Continuous
370
    15
100
AcDbCircle
 10
6322.484997340964
 20
4214.450044121862
 30
0.0
 40
6.0
100
AcDbArc
 50
90.0
 51
180.0
  0
LINE
  5
16253
330
747D
100
AcDbEntity
  8
細線
  6
Continuous
370
    15
100
AcDbLine
 10
6368.484984411121
 20
4040.45001995733
 30
0.0
 11
6322.485010398747
 21
4040.45001995733
 31
0.0
  0
ARC
  5
16254
330
747D
100
AcDbEntity
  8
細線
  6
Continuous
370
    15
100
AcDbCircle
 10
6322.484997340964
 20
4046.450044121862
 30
0.0
 40
6.0
100
AcDbArc
 50
180.0
 51
270.0
  0
LINE
  5
16255
330
747D
100
AcDbEntity
  8
細線
  6
Continuous
370
    15
100
AcDbLine
 10
6357.581298126103
 20
4084.682269217279
 30
0.0
 11
6357.581298126103
 21
4080.666883112695
 31
0.0
  0
ARC
  5
16256
330
747D
100
AcDbEntity
  8
細線
  6
Continuous
370
    15
100
AcDbCircle
 10
6351.484997340964
 20
4074.450044121863
 30
0.0
 40
8.707106781186586
100
AcDbArc
 50
134.4391355081549
 51
45.56086449184513
  0
LINE
  5
16257
330
747D
100
AcDbEntity
  8
細線
  6
Continuous
370
    15
100
AcDbLine
 10
6345.388721002461
 20
4080.666883112695
 30
0.0
 11
6345.388721002461
 21
4084.682269217279
 31
0.0
  0
SPLINE
  5
16258
330
747D
100
AcDbEntity
  8
細線
  6
Continuous
370
    15
100
AcDbSpline
210
0.0
220
0.0
230
1.0
 70
     8
 71
     3
 72
    11
 73
     7
 74
     0
 42
0.000000001
 43
0.0000000001
 40
0.0
 40
0.0
 40
0.0
 40
0.0
 40
0.0781314889249488
 40
0.3601777463886433
 40
0.6812698848259567
 40
1.0
 40
1.0
 40
1.0
 40
1.0
 10
6345.578770412327
 20
4085.006399275568
 30
0.0
 10
6345.569907981631
 20
4085.001211160059
 30
0.0
 10
6345.529053130906
 20
4084.977294506542
 30
0.0
 10
6345.460307987339
 20
4084.91798417869
 30
0.0
 10
6345.398266476017
 20
4084.809118872704
 30
0.0
 10
6345.391894986466
 20
4084.72444824328
 30
0.0
 10
6345.388721002461
 20
4084.682269217279
 30
0.0
  0
ARC
  5
16259
330
747D
100
AcDbEntity
  8
細線
  6
Continuous
370
    15
100
AcDbCircle
 10
6351.484997340964
 20
4074.450044121863
 30
0.0
 40
12.09629120178367
100
AcDbArc
 50
60.77315626978887
 51
119.2268437302111
  0
SPLINE
  5
1625A
330
747D
100
AcDbEntity
  8
細線
  6
Continuous
370
    15
100
AcDbSpline
210
0.0
220
0.0
230
1.0
 70
     8
 71
     3
 72
    11
 73
     7
 74
     0
 42
0.000000001
 43
0.0000000001
 40
0.0
 40
0.0
 40
0.0
 40
0.0
 40
0.0779029322309155
 40
0.3600683505069131
 40
0.6812326600027312
 40
1.0
 40
1.0
 40
1.0
 40
1.0
 10
6357.581298126103
 20
4084.682269217279
 30
0.0
 10
6357.581095852938
 20
4084.692506143015
 30
0.0
 10
6357.58016094387
 20
4084.739821344897
 30
0.0
 10
6357.561963934209
 20
4084.828758101074
 30
0.0
 10
6357.497306905124
 20
4084.936122580409
 30
0.0
 10
6357.426513055825
 20
4084.983032279844
 30
0.0
 10
6357.391248716236
 20
4085.006399275568
 30
0.0
  0
LINE
  5
1625B
330
747D
100
AcDbEntity
  8
細線
  6
Continuous
370
    15
100
AcDbLine
 10
6328.517541660191
 20
4199.450059057977
 30
0.0
 11
6359.384993566394
 21
4199.450059057977
 31
0.0
  0
LINE
  5
1625C
330
747D
100
AcDbEntity
  8
細線
  6
Continuous
370
    15
100
AcDbLine
 10
6323.517541660191
 20
4106.450069071557
 30
0.0
 11
6323.517541660191
 21
4194.450059057976
 31
0.0
  0
ARC
  5
1625D
330
747D
100
AcDbEntity
  8
細線
  6
Continuous
370
    15
100
AcDbCircle
 10
6328.517541660191
 20
4194.450059057976
 30
0.0
 40
5.0
100
AcDbArc
 50
90.0
 51
180.0
  0
LINE
  5
1625E
330
747D
100
AcDbEntity
  8
細線
  6
Continuous
370
    15
100
AcDbLine
 10
6325.58498836887
 20
4190.057156891088
 30
0.0
 11
6325.58498836887
 21
4110.842931352635
 31
0.0
  0
LINE
  5
1625F
330
747D
100
AcDbEntity
  8
細線
  6
Continuous
370
    15
100
AcDbLine
 10
6366.384993566395
 20
4192.450059057978
 30
0.0
 11
6366.384993566395
 21
4108.450069071557
 31
0.0
  0
ARC
  5
16260
330
747D
100
AcDbEntity
  8
細線
  6
Continuous
370
    15
100
AcDbCircle
 10
6359.384993566394
 20
4108.450069071557
 30
0.0
 40
7.0
100
AcDbArc
 50
270.0
 51
0.0
  0
ARC
  5
16261
330
747D
100
AcDbEntity
  8
細線
  6
Continuous
370
    15
100
AcDbCircle
 10
6359.384993566394
 20
4192.450059057978
 30
0.0
 40
7.0
100
AcDbArc
 50
0.0
 51
90.0
  0
LINE
  5
16262
330
747D
100
AcDbEntity
  8
細線
  6
Continuous
370
    15
100
AcDbLine
 10
6359.384993566394
 20
4101.450069071558
 30
0.0
 11
6328.517541660191
 21
4101.450069071558
 31
0.0
  0
ARC
  5
16263
330
747D
100
AcDbEntity
  8
細線
  6
Continuous
370
    15
100
AcDbCircle
 10
6328.517541660191
 20
4106.450069071557
 30
0.0
 40
5.0
100
AcDbArc
 50
180.0
 51
270.0
  0
ARC
  5
16264
330
747D
100
AcDbEntity
  8
細線
  6
Continuous
370
    15
100
AcDbCircle
 10
6352.304600255875
 20
4115.530432579755
 30
0.0
 40
6.898178997000096
100
AcDbArc
 50
281.1228560456502
 51
348.8771439544009
  0
ARC
  5
16265
330
747D
100
AcDbEntity
  8
細線
  6
Continuous
370
    15
100
AcDbCircle
 10
6352.304652282231
 20
4185.369687971506
 30
0.0
 40
6.89811791144148
100
AcDbArc
 50
11.12251539540163
 51
78.87748460464951
  0
LINE
  5
16266
330
747D
100
AcDbEntity
  8
細線
  6
Continuous
370
    15
100
AcDbLine
 10
6341.582785619618
 20
4112.019905688073
 30
0.0
 11
6341.582785619618
 21
4188.988464476373
 31
0.0
  0
ARC
  5
16267
330
747D
100
AcDbEntity
  8
細線
  6
Continuous
370
    15
100
AcDbCircle
 10
6339.582785619618
 20
4188.988464476373
 30
0.0
 40
2.0
100
AcDbArc
 50
0.0
 51
90.0
  0
ARC
  5
16268
330
747D
100
AcDbEntity
  8
細線
  6
Continuous
370
    15
100
AcDbCircle
 10
6339.582774698347
 20
4112.004200484057
 30
0.0
 40
2.0
100
AcDbArc
 50
262.8149626715364
 51
0.0
  0
LWPOLYLINE
  5
16269
330
747D
100
AcDbEntity
  8
細線
 48
50.0
100
AcDbPolyline
 90
        4
 70
     1
 43
0.0
 10
6352.747093213917
 20
4069.621665598657
 10
6350.222925914646
 20
4069.621665598657
 10
6350.222925914646
 20
4079.278452517297
 10
6352.747093213917
 20
4079.278452517297
  0
LINE
  5
1626A
330
747D
100
AcDbEntity
  8
細線
  6
Continuous
370
    15
100
AcDbLine
 10
6339.582785619618
 20
4110.019905688074
 30
0.0
 11
6333.904008640171
 21
4110.019905688075
 31
0.0
  0
LINE
  5
1626B
330
747D
100
AcDbEntity
  8
細線
  6
Continuous
370
    15
100
AcDbLine
 10
6328.312794937016
 20
4111.019905688073
 30
0.0
 11
6328.312794937016
 21
4189.988464476374
 31
0.0
  0
ARC
  5
1626C
330
747D
100
AcDbEntity
  8
細線
  6
Continuous
370
    15
100
AcDbCircle
 10
6329.312794937016
 20
4189.988464476374
 30
0.0
 40
1.0
100
AcDbArc
 50
90.0
 51
180.0
  0
LINE
  5
1626D
330
747D
100
AcDbEntity
  8
細線
  6
Continuous
370
    15
100
AcDbLine
 10
6333.898793233753
 20
4190.988464476373
 30
0.0
 11
6329.312794937016
 21
4190.988464476373
 31
0.0
  0
LINE
  5
1626E
330
747D
100
AcDbEntity
  8
細線
  6
Continuous
370
    15
100
AcDbLine
 10
6333.904008640171
 20
4110.019905688074
 30
0.0
 11
6329.312794937016
 21
4110.019905688074
 31
0.0
  0
ARC
  5
1626F
330
747D
100
AcDbEntity
  8
細線
  6
Continuous
370
    15
100
AcDbCircle
 10
6329.312794937016
 20
4111.019905688073
 30
0.0
 40
1.0
100
AcDbArc
 50
180.0
 51
270.0
  0
LINE
  5
16270
330
747D
100
AcDbEntity
  8
細線
  6
Continuous
370
    15
100
AcDbLine
 10
6339.582785619618
 20
4190.988464476373
 30
0.0
 11
6333.783316408731
 21
4190.988464476373
 31
0.0
  0
TEXT
  5
16278
330
747D
100
AcDbEntity
  8
文字
 62
     7
 48
50.0
100
AcDbText
 10
15047.13957933145
 20
1031.557706291228
 30
0.0
 40
100.0
  1
     <縮尺> S=1/40
  7
STYLE2
100
AcDbText
  0
DIMENSION
  5
162F3
330
747D
100
AcDbEntity
  8
寸法
100
AcDbDimension
  2
*D33
 10
8864.393820107579
 20
3213.950086714542
 30
0.0
 11
8864.393820107579
 21
4118.985098590927
 31
0.0
 70
   160
 71
     5
 42
1789.999999999997
  3
INABA_S40G
100
AcDbAlignedDimension
 13
9466.356910799783
 23
5003.950086714539
 33
0.0
 14
9459.354540755006
 24
3213.950086714542
 34
0.0
 50
90.0
100
AcDbRotatedDimension
1001
ACAD
1000
DSTYLE
1002
{
1070
   288
1070
     1
1002
}
  0
LINE
  5
162F4
330
747D
100
AcDbEntity
  8
部品1
 48
50.0
100
AcDbLine
 10
9459.354540755006
 20
4994.950198164286
 30
0.0
 11
9466.356910799783
 21
4994.950198164286
 31
0.0
  0
LINE
  5
162F5
330
747D
100
AcDbEntity
  8
部品1
 48
0.2
100
AcDbLine
 10
9459.354540755006
 20
5003.850198164285
 30
0.0
 11
9459.354540755006
 21
4994.950198164286
 31
0.0
  0
LINE
  5
162F6
330
747D
100
AcDbEntity
  8
部品1
 48
50.0
100
AcDbLine
 10
9459.354540755006
 20
3208.050198164277
 30
0.0
 11
9466.356910799783
 21
3208.050198164277
 31
0.0
  0
LINE
  5
162F7
330
747D
100
AcDbEntity
  8
部品1
 48
0.2
100
AcDbLine
 10
9459.354540755006
 20
3216.950198164277
 30
0.0
 11
9459.354540755006
 21
3208.050198164278
 31
0.0
  0
LINE
  5
162F8
330
747D
100
AcDbEntity
  8
部品1
 48
50.0
100
AcDbLine
 10
9459.354540755006
 20
3216.950198164277
 30
0.0
 11
9466.356910799783
 21
3216.950198164277
 31
0.0
  0
LINE
  5
162F9
330
747D
100
AcDbEntity
  8
部品
 48
50.0
100
AcDbLine
 10
9459.354540755006
 20
5003.850198164285
 30
0.0
 11
9466.356910799783
 21
5003.850198164285
 31
0.0
  0
ENDSEC
  0
SECTION
  2
OBJECTS
  0
DICTIONARY
  5
7471
330
0
100
AcDbDictionary
281
     1
  3
ACAD_CIP_PREVIOUS_PRODUCT_INFO
350
16162
  3
ACAD_COLOR
350
154CE
  3
ACAD_DETAILVIEWSTYLE
350
16158
  3
ACAD_GROUP
350
7472
  3
ACAD_LAYOUT
350
154CF
  3
ACAD_MATERIAL
350
154CD
  3
ACAD_MLEADERSTYLE
350
16154
  3
ACAD_MLINESTYLE
350
7473
  3
ACAD_PLOTSETTINGS
350
154D0
  3
ACAD_PLOTSTYLENAME
350
154CB
  3
ACAD_SCALELIST
350
16142
  3
ACAD_SECTIONVIEWSTYLE
350
16156
  3
ACAD_TABLESTYLE
350
16140
  3
ACAD_VISUALSTYLE
350
16127
  3
ACDB_RECOMPOSE_DATA
350
16330
  3
AcDbVariableDictionary
350
16294
  3
AcDsDecomposeData
350
16337
  3
CONTENTDICTIONARY
350
E71C
  3
DRAWINGVARIABLESDICT
350
F3B9
  3
DWGPROPS
350
16331
  0
DICTIONARY
  5
15648
330
7467
100
AcDbDictionary
280
     1
281
     1
  3
ACAD_LAYERSTATES
360
15649
  0
DICTIONARY
  5
16279
330
7474
100
AcDbDictionary
280
     1
281
     1
  3
ADSK_XREC_LAYER_RECONCILED
360
1627A
  0
DICTIONARY
  5
1627B
330
DEB2
100
AcDbDictionary
280
     1
281
     1
  3
ADSK_XREC_LAYER_RECONCILED
360
1627C
  0
DICTIONARY
  5
1627D
330
DEB3
100
AcDbDictionary
280
     1
281
     1
  3
ADSK_XREC_LAYER_RECONCILED
360
1627E
  0
DICTIONARY
  5
1627F
330
DEB4
100
AcDbDictionary
280
     1
281
     1
  3
ADSK_XREC_LAYER_RECONCILED
360
16280
  0
DICTIONARY
  5
16281
330
DEB5
100
AcDbDictionary
280
     1
281
     1
  3
ADSK_XREC_LAYER_RECONCILED
360
16282
  0
DICTIONARY
  5
16283
330
DEB6
100
AcDbDictionary
280
     1
281
     1
  3
ADSK_XREC_LAYER_RECONCILED
360
16284
  0
DICTIONARY
  5
16285
330
10B54
100
AcDbDictionary
280
     1
281
     1
  3
ADSK_XREC_LAYER_RECONCILED
360
16286
  0
DICTIONARY
  5
16287
330
11729
100
AcDbDictionary
280
     1
281
     1
  3
ADSK_XREC_LAYER_RECONCILED
360
16288
  0
DICTIONARY
  5
16289
330
1173F
100
AcDbDictionary
280
     1
281
     1
  3
ADSK_XREC_LAYER_RECONCILED
360
1628A
  0
DICTIONARY
  5
1628B
330
118A1
100
AcDbDictionary
280
     1
281
     1
  3
ADSK_XREC_LAYER_RECONCILED
360
1628C
  0
DICTIONARY
  5
1628D
330
123C1
100
AcDbDictionary
280
     1
281
     1
  3
ADSK_XREC_LAYER_RECONCILED
360
1628E
  0
DICTIONARY
  5
162E5
330
162E4
100
AcDbDictionary
280
     1
281
     1
  0
XRECORD
  5
16162
102
{ACAD_REACTORS
330
7471
102
}
330
7471
100
AcDbXrecord
280
     1
300
ACDLT
300
2014
300
ACDLT_F_S
  0
DICTIONARY
  5
154CE
102
{ACAD_REACTORS
330
7471
102
}
330
7471
100
AcDbDictionary
281
     1
  0
DICTIONARY
  5
16158
102
{ACAD_REACTORS
330
7471
102
}
330
7471
100
AcDbDictionary
281
     1
  3
Metric50
350
16159
  0
DICTIONARY
  5
7472
102
{ACAD_REACTORS
330
7471
102
}
330
7471
100
AcDbDictionary
281
     1
  0
DICTIONARY
  5
154CF
102
{ACAD_REACTORS
330
7471
102
}
330
7471
100
AcDbDictionary
281
     1
  3
Model
350
154D1
  3
レイアウト1
350
154D2
  0
DICTIONARY
  5
154CD
102
{ACAD_REACTORS
330
7471
102
}
330
7471
100
AcDbDictionary
281
     1
  3
ByBlock
350
16117
  3
ByLayer
350
1610F
  3
Global
350
1611F
  0
DICTIONARY
  5
16154
102
{ACAD_REACTORS
330
7471
102
}
330
7471
100
AcDbDictionary
281
     1
  3
Standard
350
16155
  0
DICTIONARY
  5
7473
102
{ACAD_REACTORS
330
7471
102
}
330
7471
100
AcDbDictionary
281
     1
  3
STANDARD
350
7480
  0
DICTIONARY
  5
154D0
102
{ACAD_REACTORS
330
7471
102
}
330
7471
100
AcDbDictionary
281
     1
  0
ACDBDICTIONARYWDFLT
  5
154CB
102
{ACAD_REACTORS
330
7471
102
}
330
7471
100
AcDbDictionary
281
     1
  3
Normal
350
154CC
100
AcDbDictionaryWithDefault
340
154CC
  0
DICTIONARY
  5
16142
102
{ACAD_REACTORS
330
7471
102
}
330
7471
100
AcDbDictionary
281
     1
  3
A0
350
16143
  3
A1
350
16144
  3
A2
350
16145
  3
A3
350
16146
  3
A4
350
16147
  3
A5
350
16148
  3
A6
350
16149
  3
A7
350
1614A
  3
A8
350
1614B
  3
A9
350
1614C
  3
B0
350
1614D
  3
B1
350
1614E
  3
B2
350
1614F
  3
B3
350
16150
  3
B4
350
16151
  3
B5
350
16152
  3
B6
350
16153
  0
DICTIONARY
  5
16156
102
{ACAD_REACTORS
330
7471
102
}
330
7471
100
AcDbDictionary
281
     1
  3
Metric50
350
16157
  0
DICTIONARY
  5
16140
102
{ACAD_REACTORS
330
7471
102
}
330
7471
100
AcDbDictionary
281
     1
  3
Standard
350
16141
  0
DICTIONARY
  5
16127
102
{ACAD_REACTORS
330
7471
102
}
330
7471
100
AcDbDictionary
281
     1
  3
2dWireframe
350
1612D
  3
Basic
350
1612C
  3
Brighten
350
16133
  3
ColorChange
350
16137
  3
Conceptual
350
16130
  3
Dim
350
16132
  3
EdgeColorOff
350
1613F
  3
Facepattern
350
16136
  3
Flat
350
16128
  3
FlatWithEdges
350
16129
  3
Gouraud
350
1612A
  3
GouraudWithEdges
350
1612B
  3
Hidden
350
1612F
  3
JitterOff
350
1613D
  3
Linepattern
350
16135
  3
OverhangOff
350
1613E
  3
Realistic
350
16131
  3
Shaded
350
1613C
  3
Shaded with edges
350
1613B
  3
Shades of Gray
350
16138
  3
Sketchy
350
16139
  3
Thicken
350
16134
  3
Wireframe
350
1612E
  3
X-Ray
350
1613A
  0
XRECORD
  5
16330
102
{ACAD_REACTORS
330
7471
102
}
330
7471
100
AcDbXrecord
280
     1
 90
        1
330
16141
  0
DICTIONARY
  5
16294
102
{ACAD_REACTORS
330
7471
102
}
330
7471
100
AcDbDictionary
281
     1
  3
CANNOSCALE
350
1629A
  3
CMLEADERSTYLE
350
16296
  3
CTABLESTYLE
350
16295
  3
CVIEWDETAILSTYLE
350
16297
  3
CVIEWSECTIONSTYLE
350
16298
  3
DIMASSOC
350
1632D
  3
INDEXCTL
350
1632B
  3
LAYEREVAL
350
1629C
  3
LAYERNOTIFY
350
1629D
  3
LIGHTINGUNITS
350
1629B
  3
MSLTSCALE
350
16299
  3
SORTENTS
350
1632A
  3
XCLIPFRAME
350
1632C
  0
DICTIONARY
  5
16337
102
{ACAD_REACTORS
330
7471
102
}
330
7471
100
AcDbDictionary
281
     1
  3
AcDsRecords
350
16339
  3
AcDsSchemas
350
16338
1001
ACAD
1070
     2
  0
DICTIONARY
  5
E71C
102
{ACAD_REACTORS
330
7471
102
}
330
7471
100
AcDbDictionary
281
     1
  0
DICTIONARY
  5
F3B9
102
{ACAD_REACTORS
330
7471
102
}
330
7471
100
AcDbDictionary
281
     1
1001
DRAWINGVARIABLESXDATA
1000
POLARMODE
1000
1
  0
XRECORD
  5
16331
102
{ACAD_REACTORS
330
7471
102
}
330
7471
100
AcDbXrecord
280
     1
  1
DWGPROPS COOKIE
  2

  3

  4

  6

  7

  8
TSUJIKAWA
  9

300
=
301
=
302
=
303
=
304
=
305
=
306
=
307
=
308
=
309
=
 40
0.4930647222222222
 41
2452116.684896065
 42
2457984.451339248
  1

 90
        0
  0
DICTIONARY
  5
15649
102
{ACAD_REACTORS
330
15648
102
}
330
15648
100
AcDbDictionary
281
     1
  0
XRECORD
  5
1627A
102
{ACAD_REACTORS
330
16279
102
}
330
16279
100
AcDbXrecord
280
     1
290
     1
  0
XRECORD
  5
1627C
102
{ACAD_REACTORS
330
1627B
102
}
330
1627B
100
AcDbXrecord
280
     1
290
     1
  0
XRECORD
  5
1627E
102
{ACAD_REACTORS
330
1627D
102
}
330
1627D
100
AcDbXrecord
280
     1
290
     1
  0
XRECORD
  5
16280
102
{ACAD_REACTORS
330
1627F
102
}
330
1627F
100
AcDbXrecord
280
     1
290
     1
  0
XRECORD
  5
16282
102
{ACAD_REACTORS
330
16281
102
}
330
16281
100
AcDbXrecord
280
     1
290
     1
  0
XRECORD
  5
16284
102
{ACAD_REACTORS
330
16283
102
}
330
16283
100
AcDbXrecord
280
     1
290
     1
  0
XRECORD
  5
16286
102
{ACAD_REACTORS
330
16285
102
}
330
16285
100
AcDbXrecord
280
     1
290
     1
  0
XRECORD
  5
16288
102
{ACAD_REACTORS
330
16287
102
}
330
16287
100
AcDbXrecord
280
     1
290
     1
  0
XRECORD
  5
1628A
102
{ACAD_REACTORS
330
16289
102
}
330
16289
100
AcDbXrecord
280
     1
290
     1
  0
XRECORD
  5
1628C
102
{ACAD_REACTORS
330
1628B
102
}
330
1628B
100
AcDbXrecord
280
     1
290
     1
  0
XRECORD
  5
1628E
102
{ACAD_REACTORS
330
1628D
102
}
330
1628D
100
AcDbXrecord
280
     1
290
     1
  0
ACDBDETAILVIEWSTYLE
  5
16159
102
{ACAD_XDICTIONARY
360
16291
102
}
102
{ACAD_REACTORS
330
16158
102
}
330
16158
100
AcDbModelDocViewStyle
 70
     0
  3
Metric50
290
     0
100
AcDbDetailViewStyle
 70
     0
 71
     0
 90
        3
 71
     1
340
7475
 40
5.0
340
0
 40
5.0
300

 40
0.0
280
     1
 71
     2
340
7479
 90
       25
 71
     3
340
7475
 40
5.0
 90
        0
 40
15.0
 90
        1
300
%<\AcVar ViewDetailId>% (%<\AcVar ViewScale \f "%sn">%)
 71
     4
340
7479
 90
       25
340
7479
 90
       25
280
     0
  0
LAYOUT
  5
154D1
102
{ACAD_XDICTIONARY
360
1633A
102
}
102
{ACAD_REACTORS
330
154CF
102
}
330
154CF
100
AcDbPlotSettings
  1

  2
CubePDF
  4
A3
  6

 40
3.174999952316284
 41
3.174999952316284
 42
3.17498779296875
 43
3.17498779296875
 44
420.1583251953125
 45
297.0318298339844
 46
0.6042196843820023
 47
0.0
 48
424.6042489999999
 49
264.156711
140
1777.606053
141
968.930615
142
1.0
143
39.98278751715608
 70
  3764
 72
     1
 73
     0
 74
     2
  7
inabass.ctb
 75
     0
147
0.0250107624329823
148
25.79074261211281
149
125.8223078213959
100
AcDbLayout
  1
Model
 70
     1
 71
     0
 10
0.0
 20
0.0
 11
12.0
 21
9.0
 12
0.0
 22
0.0
 32
0.0
 14
0.0
 24
0.0
 34
0.0
 15
0.0
 25
0.0
 35
0.0
146
0.0
 13
0.0
 23
0.0
 33
0.0
 16
1.0
 26
0.0
 36
0.0
 17
0.0
 27
1.0
 37
0.0
 76
     0
330
747D
331
1610D
1001
ACAD_PSEXT
1000
CubePDF
1000
CubePDF
1000
CubePDF:
1000
CubePDF
1070
     0
  0
LAYOUT
  5
154D2
102
{ACAD_XDICTIONARY
360
1633C
102
}
102
{ACAD_REACTORS
330
154CF
102
}
330
154CF
100
AcDbPlotSettings
  1

  2
Microsoft Office Document Image Writer
  4

  6

 40
0.0
 41
0.0
 42
0.0
 43
0.0
 44
0.0
 45
0.0
 46
0.0
 47
0.0
 48
0.0
 49
0.0
140
0.0
141
0.0
142
1.0
143
1.0
 70
   688
 72
     0
 73
     0
 74
     5
  7

 75
    16
147
1.0
148
0.0
149
0.0
100
AcDbLayout
  1
レイアウト1
 70
     0
 71
     1
 10
0.0
 20
0.0
 11
420.0
 21
297.0
 12
0.0
 22
0.0
 32
0.0
 14
1.000000000000000E+20
 24
1.000000000000000E+20
 34
1.000000000000000E+20
 15
-1.000000000000000E+20
 25
-1.000000000000000E+20
 35
-1.000000000000000E+20
146
0.0
 13
0.0
 23
0.0
 33
0.0
 16
1.0
 26
0.0
 36
0.0
 17
0.0
 27
1.0
 37
0.0
 76
     0
330
747A
  0
MATERIAL
  5
16117
102
{ACAD_XDICTIONARY
360
16118
102
}
102
{ACAD_REACTORS
330
154CD
102
}
330
154CD
100
AcDbMaterial
  1
ByBlock
 72
     0
 43
0.0208333333333333
 43
0.0
 43
0.0
 43
0.0
 43
0.0
 43
0.0208333333333333
 43
0.0
 43
0.0
 43
0.0
 43
0.0
 43
1.0
 43
0.0
 43
0.0
 43
0.0
 43
0.0
 43
1.0
 77
     0
 47
0.0208333333333333
 47
0.0
 47
0.0
 47
0.0
 47
0.0
 47
0.0208333333333333
 47
0.0
 47
0.0
 47
0.0
 47
0.0
 47
1.0
 47
0.0
 47
0.0
 47
0.0
 47
0.0
 47
1.0
171
     0
 49
0.0208333333333333
 49
0.0
 49
0.0
 49
0.0
 49
0.0
 49
0.0208333333333333
 49
0.0
 49
0.0
 49
0.0
 49
0.0
 49
1.0
 49
0.0
 49
0.0
 49
0.0
 49
0.0
 49
1.0
175
     0
142
0.0208333333333333
142
0.0
142
0.0
142
0.0
142
0.0
142
0.0208333333333333
142
0.0
142
0.0
142
0.0
142
0.0
142
1.0
142
0.0
142
0.0
142
0.0
142
0.0
142
1.0
179
     0
144
0.0208333333333333
144
0.0
144
0.0
144
0.0
144
0.0
144
0.0208333333333333
144
0.0
144
0.0
144
0.0
144
0.0
144
1.0
144
0.0
144
0.0
144
0.0
144
0.0
144
1.0
147
0.0208333333333333
147
0.0
147
0.0
147
0.0
147
0.0
147
0.0208333333333333
147
0.0
147
0.0
147
0.0
147
0.0
147
1.0
147
0.0
147
0.0
147
0.0
147
0.0
147
1.0
  0
MATERIAL
  5
1610F
102
{ACAD_XDICTIONARY
360
16110
102
}
102
{ACAD_REACTORS
330
154CD
102
}
330
154CD
100
AcDbMaterial
  1
ByLayer
 72
     0
 43
0.0208333333333333
 43
0.0
 43
0.0
 43
0.0
 43
0.0
 43
0.0208333333333333
 43
0.0
 43
0.0
 43
0.0
 43
0.0
 43
1.0
 43
0.0
 43
0.0
 43
0.0
 43
0.0
 43
1.0
 77
     0
 47
0.0208333333333333
 47
0.0
 47
0.0
 47
0.0
 47
0.0
 47
0.0208333333333333
 47
0.0
 47
0.0
 47
0.0
 47
0.0
 47
1.0
 47
0.0
 47
0.0
 47
0.0
 47
0.0
 47
1.0
171
     0
 49
0.0208333333333333
 49
0.0
 49
0.0
 49
0.0
 49
0.0
 49
0.0208333333333333
 49
0.0
 49
0.0
 49
0.0
 49
0.0
 49
1.0
 49
0.0
 49
0.0
 49
0.0
 49
0.0
 49
1.0
175
     0
142
0.0208333333333333
142
0.0
142
0.0
142
0.0
142
0.0
142
0.0208333333333333
142
0.0
142
0.0
142
0.0
142
0.0
142
1.0
142
0.0
142
0.0
142
0.0
142
0.0
142
1.0
179
     0
144
0.0208333333333333
144
0.0
144
0.0
144
0.0
144
0.0
144
0.0208333333333333
144
0.0
144
0.0
144
0.0
144
0.0
144
1.0
144
0.0
144
0.0
144
0.0
144
0.0
144
1.0
147
0.0208333333333333
147
0.0
147
0.0
147
0.0
147
0.0
147
0.0208333333333333
147
0.0
147
0.0
147
0.0
147
0.0
147
1.0
147
0.0
147
0.0
147
0.0
147
0.0
147
1.0
  0
MATERIAL
  5
1611F
102
{ACAD_XDICTIONARY
360
16120
102
}
102
{ACAD_REACTORS
330
154CD
102
}
330
154CD
100
AcDbMaterial
  1
Global
 72
     0
 43
0.0208333333333333
 43
0.0
 43
0.0
 43
0.0
 43
0.0
 43
0.0208333333333333
 43
0.0
 43
0.0
 43
0.0
 43
0.0
 43
1.0
 43
0.0
 43
0.0
 43
0.0
 43
0.0
 43
1.0
 77
     0
 47
0.0208333333333333
 47
0.0
 47
0.0
 47
0.0
 47
0.0
 47
0.0208333333333333
 47
0.0
 47
0.0
 47
0.0
 47
0.0
 47
1.0
 47
0.0
 47
0.0
 47
0.0
 47
0.0
 47
1.0
171
     0
 49
0.0208333333333333
 49
0.0
 49
0.0
 49
0.0
 49
0.0
 49
0.0208333333333333
 49
0.0
 49
0.0
 49
0.0
 49
0.0
 49
1.0
 49
0.0
 49
0.0
 49
0.0
 49
0.0
 49
1.0
175
     0
142
0.0208333333333333
142
0.0
142
0.0
142
0.0
142
0.0
142
0.0208333333333333
142
0.0
142
0.0
142
0.0
142
0.0
142
1.0
142
0.0
142
0.0
142
0.0
142
0.0
142
1.0
179
     0
144
0.0208333333333333
144
0.0
144
0.0
144
0.0
144
0.0
144
0.0208333333333333
144
0.0
144
0.0
144
0.0
144
0.0
144
1.0
144
0.0
144
0.0
144
0.0
144
0.0
144
1.0
147
0.0208333333333333
147
0.0
147
0.0
147
0.0
147
0.0
147
0.0208333333333333
147
0.0
147
0.0
147
0.0
147
0.0
147
1.0
147
0.0
147
0.0
147
0.0
147
0.0
147
1.0
  0
MLEADERSTYLE
  5
16155
102
{ACAD_XDICTIONARY
360
16373
102
}
102
{ACAD_REACTORS
330
16154
102
}
330
16154
100
AcDbMLeaderStyle
170
     2
171
     1
172
     0
 90
        2
 40
0.0
 41
0.0
173
     1
 91
-1056964608
340
7477
 92
       -2
290
     1
 42
2.0
291
     1
 43
0.36
  3
Standard
 44
4.0
300

342
7475
174
     1
178
     6
175
     1
176
     0
 93
-1056964608
 45
4.0
292
     0
297
     0
 46
4.0
 94
-1056964608
 47
1.0
 49
1.0
140
1.0
293
     1
141
0.0
294
     1
177
     0
142
1.0
295
     0
296
     0
143
0.125
1001
ACAD_MLEADERVER
1070
     2
  0
MLINESTYLE
  5
7480
102
{ACAD_REACTORS
330
7473
102
}
330
7473
100
AcDbMlineStyle
  2
STANDARD
 70
     0
  3

 62
     0
 51
90.0
 52
90.0
 71
     2
 49
0.5
 62
   256
  6
BYLAYER
 49
-0.5
 62
   256
  6
BYLAYER
  0
ACDBPLACEHOLDER
  5
154CC
102
{ACAD_REACTORS
330
154CB
102
}
330
154CB
  0
SCALE
  5
16143
102
{ACAD_REACTORS
330
16142
102
}
330
16142
100
AcDbScale
 70
     0
300
1:1
140
1.0
141
1.0
290
     1
  0
SCALE
  5
16144
102
{ACAD_REACTORS
330
16142
102
}
330
16142
100
AcDbScale
 70
     0
300
1:2
140
1.0
141
2.0
290
     0
  0
SCALE
  5
16145
102
{ACAD_REACTORS
330
16142
102
}
330
16142
100
AcDbScale
 70
     0
300
1:4
140
1.0
141
4.0
290
     0
  0
SCALE
  5
16146
102
{ACAD_REACTORS
330
16142
102
}
330
16142
100
AcDbScale
 70
     0
300
1:5
140
1.0
141
5.0
290
     0
  0
SCALE
  5
16147
102
{ACAD_REACTORS
330
16142
102
}
330
16142
100
AcDbScale
 70
     0
300
1:8
140
1.0
141
8.0
290
     0
  0
SCALE
  5
16148
102
{ACAD_REACTORS
330
16142
102
}
330
16142
100
AcDbScale
 70
     0
300
1:10
140
1.0
141
10.0
290
     0
  0
SCALE
  5
16149
102
{ACAD_REACTORS
330
16142
102
}
330
16142
100
AcDbScale
 70
     0
300
1:16
140
1.0
141
16.0
290
     0
  0
SCALE
  5
1614A
102
{ACAD_REACTORS
330
16142
102
}
330
16142
100
AcDbScale
 70
     0
300
1:20
140
1.0
141
20.0
290
     0
  0
SCALE
  5
1614B
102
{ACAD_REACTORS
330
16142
102
}
330
16142
100
AcDbScale
 70
     0
300
1:30
140
1.0
141
30.0
290
     0
  0
SCALE
  5
1614C
102
{ACAD_REACTORS
330
16142
102
}
330
16142
100
AcDbScale
 70
     0
300
1:40
140
1.0
141
40.0
290
     0
  0
SCALE
  5
1614D
102
{ACAD_REACTORS
330
16142
102
}
330
16142
100
AcDbScale
 70
     0
300
1:50
140
1.0
141
50.0
290
     0
  0
SCALE
  5
1614E
102
{ACAD_REACTORS
330
16142
102
}
330
16142
100
AcDbScale
 70
     0
300
1:100
140
1.0
141
100.0
290
     0
  0
SCALE
  5
1614F
102
{ACAD_REACTORS
330
16142
102
}
330
16142
100
AcDbScale
 70
     0
300
2:1
140
2.0
141
1.0
290
     0
  0
SCALE
  5
16150
102
{ACAD_REACTORS
330
16142
102
}
330
16142
100
AcDbScale
 70
     0
300
4:1
140
4.0
141
1.0
290
     0
  0
SCALE
  5
16151
102
{ACAD_REACTORS
330
16142
102
}
330
16142
100
AcDbScale
 70
     0
300
8:1
140
8.0
141
1.0
290
     0
  0
SCALE
  5
16152
102
{ACAD_REACTORS
330
16142
102
}
330
16142
100
AcDbScale
 70
     0
300
10:1
140
10.0
141
1.0
290
     0
  0
SCALE
  5
16153
102
{ACAD_REACTORS
330
16142
102
}
330
16142
100
AcDbScale
 70
     0
300
100:1
140
100.0
141
1.0
290
     0
  0
ACDBSECTIONVIEWSTYLE
  5
16157
102
{ACAD_XDICTIONARY
360
1628F
102
}
102
{ACAD_REACTORS
330
16156
102
}
330
16156
100
AcDbModelDocViewStyle
 70
     0
  3
Metric50
290
     0
100
AcDbSectionViewStyle
 70
     0
 71
     0
 90
      102
 71
     1
340
7475
 40
5.0
340
0
340
0
 40
5.0
300
I, O, Q, S, X, Z
 40
10.0
 90
        0
 40
2.5
 90
        0
 71
     2
340
7479
 90
       25
340
7479
 90
       50
 40
5.0
 40
2.5
 40
5.0
 71
     3
340
7475
 40
5.0
 90
        0
 40
15.0
 90
        1
300
%<\AcVar ViewSectionStartId>%-%<\AcVar ViewSectionEndId>% (%<\AcVar ViewScale \f "%sn">%)
 71
     4
300
ANSI31
 40
1.0
 90
        0
290
     0
290
     0
 90
        6
 40
0.0
 40
1.570796326794896
 40
0.2617993877991494
 40
1.308996938995747
 40
-0.2617993877991494
 40
1.832595714594046
  0
TABLESTYLE
  5
16141
102
{ACAD_XDICTIONARY
360
1632E
102
}
102
{ACAD_REACTORS
330
16140
102
}
330
16140
100
AcDbTableStyle
  3
Standard
 70
     0
 71
     0
 40
1.5
 41
1.5
280
     0
281
     0
  7
STANDARD
140
4.5
170
     2
 62
     0
 63
     7
283
     0
274
    -2
284
     1
 64
     0
275
    -2
285
     1
 65
     0
276
    -2
286
     1
 66
     0
277
    -2
287
     1
 67
     0
278
    -2
288
     1
 68
     0
279
    -2
289
     1
 69
     0
  7
STANDARD
140
6.0
170
     5
 62
     0
 63
     7
283
     0
274
    -2
284
     1
 64
     0
275
    -2
285
     1
 65
     0
276
    -2
286
     1
 66
     0
277
    -2
287
     1
 67
     0
278
    -2
288
     1
 68
     0
279
    -2
289
     1
 69
     0
  7
STANDARD
140
4.5
170
     5
 62
     0
 63
     7
283
     0
274
    -2
284
     1
 64
     0
275
    -2
285
     1
 65
     0
276
    -2
286
     1
 66
     0
277
    -2
287
     1
 67
     0
278
    -2
288
     1
 68
     0
279
    -2
289
     1
 69
     0
  0
VISUALSTYLE
  5
1612D
102
{ACAD_XDICTIONARY
360
1634B
102
}
102
{ACAD_REACTORS
330
16127
102
}
330
16127
100
AcDbVisualStyle
  2
2dWireframe
 70
     4
 71
     0
 72
     2
 73
     0
 90
        0
 40
-0.6
 41
-30.0
 62
     5
 63
     7
 74
     1
 91
        4
 64
     7
 65
   257
 75
     1
175
     1
 42
1.0
 92
        0
 66
   257
 43
1.0
 76
     1
 77
     6
 78
     2
 67
     7
 79
     5
170
     0
171
     0
290
     0
174
     0
 93
        1
 44
0.0
173
     0
291
     0
 45
0.0
1001
ACAD
1000
AcDbSavedByObjectVersion
1070
     0
  0
VISUALSTYLE
  5
1612C
102
{ACAD_XDICTIONARY
360
16349
102
}
102
{ACAD_REACTORS
330
16127
102
}
330
16127
100
AcDbVisualStyle
  2
Basic
 70
     7
 71
     1
 72
     0
 73
     1
 90
        0
 40
-0.6
 41
-30.0
 62
     5
 63
     7
 74
     0
 91
        4
 64
     7
 65
   257
 75
     1
175
     1
 42
1.0
 92
        8
 66
     7
 43
1.0
 76
     1
 77
     6
 78
     2
 67
     7
 79
     5
170
     0
171
     0
290
     0
174
     0
 93
        1
 44
0.0
173
     0
291
     1
 45
0.0
1001
ACAD
1000
AcDbSavedByObjectVersion
1070
     0
  0
VISUALSTYLE
  5
16133
102
{ACAD_XDICTIONARY
360
16357
102
}
102
{ACAD_REACTORS
330
16127
102
}
330
16127
100
AcDbVisualStyle
  2
Brighten
 70
    12
 71
     2
 72
     2
 73
     0
 90
        0
 40
-0.6
 41
-30.0
 62
     5
 63
     7
 74
     1
 91
        4
 64
     7
 65
   257
 75
     1
175
     1
 42
1.0
 92
        8
 66
     7
 43
1.0
 76
     1
 77
     6
 78
     2
 67
     7
 79
     5
170
     0
171
     0
290
     0
174
     0
 93
        1
 44
50.0
173
     0
291
     1
 45
0.0
1001
ACAD
1000
AcDbSavedByObjectVersion
1070
     0
  0
VISUALSTYLE
  5
16137
102
{ACAD_XDICTIONARY
360
1635F
102
}
102
{ACAD_REACTORS
330
16127
102
}
330
16127
100
AcDbVisualStyle
  2
ColorChange
 70
    16
 71
     2
 72
     2
 73
     3
 90
        0
 40
-0.6
 41
-30.0
 62
     5
 63
     8
 74
     1
 91
        4
 64
     7
 65
   257
 75
     1
175
     1
 42
1.0
 92
        8
 66
     8
 43
1.0
 76
     1
 77
     6
 78
     2
 67
     7
 79
     5
170
     0
171
     0
290
     0
174
     0
 93
        1
 44
0.0
173
     0
291
     1
 45
0.0
1001
ACAD
1000
AcDbSavedByObjectVersion
1070
     0
  0
VISUALSTYLE
  5
16130
102
{ACAD_XDICTIONARY
360
16351
102
}
102
{ACAD_REACTORS
330
16127
102
}
330
16127
100
AcDbVisualStyle
  2
Conceptual
 70
     9
 71
     3
 72
     2
 73
     0
 90
        0
 40
-0.6
 41
-30.0
 62
     5
 63
     7
 74
     2
 91
        2
 64
     7
 65
   257
 75
     1
175
     1
 42
179.0
 92
        8
 66
     7
 43
1.0
 76
     1
 77
     6
 78
     2
 67
     7
 79
     3
170
     0
171
     0
290
     0
174
     0
 93
        1
 44
0.0
173
     0
291
     0
 45
0.0
1001
ACAD
1000
AcDbSavedByObjectVersion
1070
     0
  0
VISUALSTYLE
  5
16132
102
{ACAD_XDICTIONARY
360
16355
102
}
102
{ACAD_REACTORS
330
16127
102
}
330
16127
100
AcDbVisualStyle
  2
Dim
 70
    11
 71
     2
 72
     2
 73
     0
 90
        0
 40
-0.6
 41
-30.0
 62
     5
 63
     7
 74
     1
 91
        4
 64
     7
 65
   257
 75
     1
175
     1
 42
1.0
 92
        8
 66
     7
 43
1.0
 76
     1
 77
     6
 78
     2
 67
     7
 79
     5
170
     0
171
     0
290
     0
174
     0
 93
        1
 44
-50.0
173
     0
291
     1
 45
0.0
1001
ACAD
1000
AcDbSavedByObjectVersion
1070
     0
  0
VISUALSTYLE
  5
1613F
102
{ACAD_XDICTIONARY
360
1636F
102
}
102
{ACAD_REACTORS
330
16127
102
}
330
16127
100
AcDbVisualStyle
  2
EdgeColorOff
 70
    22
 71
     2
 72
     2
 73
     0
 90
        0
 40
-0.6
 41
-30.0
 62
     5
 63
     7
 74
     1
 91
        4
 64
     7
 65
   257
 75
     1
175
     1
 42
1.0
 92
        8
 66
     7
 43
1.0
 76
     1
 77
     6
 78
     2
 67
     7
 79
     5
170
     0
171
     0
290
     0
174
     0
 93
        1
 44
0.0
173
     0
291
     1
 45
0.0
1001
ACAD
1000
AcDbSavedByObjectVersion
1070
     0
  0
VISUALSTYLE
  5
16136
102
{ACAD_XDICTIONARY
360
1635D
102
}
102
{ACAD_REACTORS
330
16127
102
}
330
16127
100
AcDbVisualStyle
  2
Facepattern
 70
    15
 71
     2
 72
     2
 73
     0
 90
        0
 40
-0.6
 41
-30.0
 62
     5
 63
     7
 74
     1
 91
        4
 64
     7
 65
   257
 75
     1
175
     1
 42
1.0
 92
        8
 66
     7
 43
1.0
 76
     1
 77
     6
 78
     2
 67
     7
 79
     5
170
     0
171
     0
290
     0
174
     0
 93
        1
 44
0.0
173
     0
291
     1
 45
0.0
1001
ACAD
1000
AcDbSavedByObjectVersion
1070
     0
  0
VISUALSTYLE
  5
16128
102
{ACAD_XDICTIONARY
360
16341
102
}
102
{ACAD_REACTORS
330
16127
102
}
330
16127
100
AcDbVisualStyle
  2
Flat
 70
     0
 71
     2
 72
     1
 73
     1
 90
        2
 40
-0.6
 41
30.0
 62
     5
 63
     7
 74
     0
 91
        0
 64
     7
 65
   257
 75
     1
175
     1
 42
1.0
 92
        8
 66
     7
 43
1.0
 76
     1
 77
     6
 78
     2
 67
     7
 79
     5
170
     0
171
     0
290
     0
174
     0
 93
       13
 44
0.0
173
     0
291
     1
 45
0.0
1001
ACAD
1000
AcDbSavedByObjectVersion
1070
     0
  0
VISUALSTYLE
  5
16129
102
{ACAD_XDICTIONARY
360
16343
102
}
102
{ACAD_REACTORS
330
16127
102
}
330
16127
100
AcDbVisualStyle
  2
FlatWithEdges
 70
     1
 71
     2
 72
     1
 73
     1
 90
        2
 40
-0.6
 41
30.0
 62
     5
 63
     7
 74
     1
 91
        0
 64
     7
 65
   257
 75
     1
175
     1
 42
1.0
 92
        0
 66
   257
 43
1.0
 76
     1
 77
     6
 78
     2
 67
     7
 79
     5
170
     0
171
     0
290
     0
174
     0
 93
       13
 44
0.0
173
     0
291
     1
 45
0.0
1001
ACAD
1000
AcDbSavedByObjectVersion
1070
     0
  0
VISUALSTYLE
  5
1612A
102
{ACAD_XDICTIONARY
360
16345
102
}
102
{ACAD_REACTORS
330
16127
102
}
330
16127
100
AcDbVisualStyle
  2
Gouraud
 70
     2
 71
     2
 72
     2
 73
     1
 90
        2
 40
-0.6
 41
30.0
 62
     5
 63
     7
 74
     0
 91
        0
 64
     7
 65
   257
 75
     1
175
     1
 42
1.0
 92
        0
 66
     7
 43
1.0
 76
     1
 77
     6
 78
     2
 67
     7
 79
     5
170
     0
171
     0
290
     0
174
     0
 93
       13
 44
0.0
173
     0
291
     1
 45
0.0
1001
ACAD
1000
AcDbSavedByObjectVersion
1070
     0
  0
VISUALSTYLE
  5
1612B
102
{ACAD_XDICTIONARY
360
16347
102
}
102
{ACAD_REACTORS
330
16127
102
}
330
16127
100
AcDbVisualStyle
  2
GouraudWithEdges
 70
     3
 71
     2
 72
     2
 73
     1
 90
        2
 40
-0.6
 41
30.0
 62
     5
 63
     7
 74
     1
 91
        0
 64
     7
 65
   257
 75
     1
175
     1
 42
1.0
 92
        0
 66
   257
 43
1.0
 76
     1
 77
     6
 78
     2
 67
     7
 79
     5
170
     0
171
     0
290
     0
174
     0
 93
       13
 44
0.0
173
     0
291
     1
 45
0.0
1001
ACAD
1000
AcDbSavedByObjectVersion
1070
     0
  0
VISUALSTYLE
  5
1612F
102
{ACAD_XDICTIONARY
360
1634F
102
}
102
{ACAD_REACTORS
330
16127
102
}
330
16127
100
AcDbVisualStyle
  2
Hidden
 70
     6
 71
     1
 72
     2
 73
     2
 90
        0
 40
-0.6
 41
-30.0
 62
     5
 63
     7
 74
     2
 91
        2
 64
     7
 65
   257
 75
     2
175
     1
 42
40.0
 92
        0
 66
   257
 43
1.0
 76
     1
 77
     6
 78
     2
 67
     7
 79
     3
170
     0
171
     0
290
     0
174
     0
 93
        1
 44
0.0
173
     0
291
     0
 45
0.0
1001
ACAD
1000
AcDbSavedByObjectVersion
1070
     0
  0
VISUALSTYLE
  5
1613D
102
{ACAD_XDICTIONARY
360
1636B
102
}
102
{ACAD_REACTORS
330
16127
102
}
330
16127
100
AcDbVisualStyle
  2
JitterOff
 70
    20
 71
     2
 72
     2
 73
     0
 90
        0
 40
-0.6
 41
-30.0
 62
     5
 63
     7
 74
     1
 91
        4
 64
     7
 65
   257
 75
     1
175
     1
 42
1.0
 92
       10
 66
     7
 43
1.0
 76
     1
 77
     6
 78
     2
 67
     7
 79
     5
170
     0
171
     0
290
     0
174
     0
 93
        1
 44
0.0
173
     0
291
     1
 45
0.0
1001
ACAD
1000
AcDbSavedByObjectVersion
1070
     0
  0
VISUALSTYLE
  5
16135
102
{ACAD_XDICTIONARY
360
1635B
102
}
102
{ACAD_REACTORS
330
16127
102
}
330
16127
100
AcDbVisualStyle
  2
Linepattern
 70
    14
 71
     2
 72
     2
 73
     0
 90
        0
 40
-0.6
 41
-30.0
 62
     5
 63
     7
 74
     1
 91
        4
 64
     7
 65
   257
 75
     7
175
     7
 42
1.0
 92
        8
 66
     7
 43
1.0
 76
     1
 77
     6
 78
     2
 67
     7
 79
     5
170
     0
171
     0
290
     0
174
     0
 93
        1
 44
0.0
173
     0
291
     1
 45
0.0
1001
ACAD
1000
AcDbSavedByObjectVersion
1070
     0
  0
VISUALSTYLE
  5
1613E
102
{ACAD_XDICTIONARY
360
1636D
102
}
102
{ACAD_REACTORS
330
16127
102
}
330
16127
100
AcDbVisualStyle
  2
OverhangOff
 70
    21
 71
     2
 72
     2
 73
     0
 90
        0
 40
-0.6
 41
-30.0
 62
     5
 63
     7
 74
     1
 91
        4
 64
     7
 65
   257
 75
     1
175
     1
 42
1.0
 92
        9
 66
     7
 43
1.0
 76
     1
 77
     6
 78
     2
 67
     7
 79
     5
170
     0
171
     0
290
     0
174
     0
 93
        1
 44
0.0
173
     0
291
     1
 45
0.0
1001
ACAD
1000
AcDbSavedByObjectVersion
1070
     0
  0
VISUALSTYLE
  5
16131
102
{ACAD_XDICTIONARY
360
16353
102
}
102
{ACAD_REACTORS
330
16127
102
}
330
16127
100
AcDbVisualStyle
  2
Realistic
 70
     8
 71
     2
 72
     3
 73
     0
 90
        2
 40
-0.6
 41
30.0
 62
     5
 63
     7
 74
     0
 91
        0
 64
     7
 65
   257
 75
     1
175
     1
 42
1.0
 92
        8
 66
   257
 43
1.0
 76
     1
 77
     6
 78
     2
 67
     7
 79
     3
170
     0
171
     0
290
     0
174
     0
 93
       13
 44
0.0
173
     0
291
     0
 45
0.0
1001
ACAD
1000
AcDbSavedByObjectVersion
1070
     0
  0
VISUALSTYLE
  5
1613C
102
{ACAD_XDICTIONARY
360
16369
102
}
102
{ACAD_REACTORS
330
16127
102
}
330
16127
100
AcDbVisualStyle
  2
Shaded
 70
    27
 71
     2
 72
     2
 73
     1
 90
        2
 40
-0.6
 41
30.0
 62
     5
 63
     7
 74
     0
 91
        4
 64
     7
 65
   257
 75
     1
175
     1
 42
1.0
 92
        8
 66
   257
 43
1.0
 76
     1
 77
     6
 78
     2
 67
     8
 79
     3
170
     0
171
     0
290
     0
174
     0
 93
        5
 44
0.0
173
     0
291
     0
 45
0.0
1001
ACAD
1000
AcDbSavedByObjectVersion
1070
     0
  0
VISUALSTYLE
  5
1613B
102
{ACAD_XDICTIONARY
360
16367
102
}
102
{ACAD_REACTORS
330
16127
102
}
330
16127
100
AcDbVisualStyle
  2
Shaded with edges
 70
    26
 71
     2
 72
     2
 73
     1
 90
        2
 40
-0.6
 41
30.0
 62
     5
 63
     7
 74
     1
 91
       10
 64
     7
 65
   257
 75
     2
175
     1
 42
1.0
 92
        8
 66
   257
 43
1.0
 76
     1
 77
     6
 78
     2
 67
     7
 79
     3
170
     0
171
     0
290
     0
174
     0
 93
        5
 44
0.0
173
     0
291
     0
 45
0.0
1001
ACAD
1000
AcDbSavedByObjectVersion
1070
     0
  0
VISUALSTYLE
  5
16138
102
{ACAD_XDICTIONARY
360
16361
102
}
102
{ACAD_REACTORS
330
16127
102
}
330
16127
100
AcDbVisualStyle
  2
Shades of Gray
 70
    23
 71
     2
 72
     2
 73
     3
 90
        0
 40
-0.6
 41
-30.0
 62
     5
 63
     7
 74
     2
 91
        2
 64
     7
 65
     7
 75
     1
175
     1
 42
40.0
 92
        8
 66
     7
 43
1.0
 76
     1
 77
     6
 78
     2
 67
     7
 79
     3
170
     0
171
     0
290
     0
174
     0
 93
        1
 44
0.0
173
     0
291
     0
 45
0.0
1001
ACAD
1000
AcDbSavedByObjectVersion
1070
     0
  0
VISUALSTYLE
  5
16139
102
{ACAD_XDICTIONARY
360
16363
102
}
102
{ACAD_REACTORS
330
16127
102
}
330
16127
100
AcDbVisualStyle
  2
Sketchy
 70
    24
 71
     1
 72
     2
 73
     2
 90
        0
 40
-0.6
 41
-30.0
 62
     5
 63
     7
 74
     2
 91
        2
 64
     7
 65
     7
 75
     1
175
     1
 42
40.0
 92
       11
 66
     7
 43
1.0
 76
     1
 77
     6
 78
     2
 67
     7
 79
     6
170
     0
171
     0
290
     0
174
     0
 93
        1
 44
0.0
173
     0
291
     0
 45
0.0
1001
ACAD
1000
AcDbSavedByObjectVersion
1070
     0
  0
VISUALSTYLE
  5
16134
102
{ACAD_XDICTIONARY
360
16359
102
}
102
{ACAD_REACTORS
330
16127
102
}
330
16127
100
AcDbVisualStyle
  2
Thicken
 70
    13
 71
     2
 72
     2
 73
     0
 90
        0
 40
-0.6
 41
-30.0
 62
     5
 63
     7
 74
     1
 91
        4
 64
     7
 65
   257
 75
     1
175
     1
 42
1.0
 92
       12
 66
     7
 43
1.0
 76
     1
 77
     6
 78
     2
 67
     7
 79
     5
170
     0
171
     0
290
     0
174
     0
 93
        1
 44
0.0
173
     0
291
     1
 45
0.0
1001
ACAD
1000
AcDbSavedByObjectVersion
1070
     0
  0
VISUALSTYLE
  5
1612E
102
{ACAD_XDICTIONARY
360
1634D
102
}
102
{ACAD_REACTORS
330
16127
102
}
330
16127
100
AcDbVisualStyle
  2
Wireframe
 70
     5
 71
     0
 72
     2
 73
     0
 90
        0
 40
-0.6
 41
-30.0
 62
     5
 63
     7
 74
     1
 91
        4
 64
     7
 65
   257
 75
     1
175
     1
 42
1.0
 92
        0
 66
   257
 43
1.0
 76
     1
 77
     6
 78
     2
 67
     7
 79
     3
170
     0
171
     0
290
     0
174
     0
 93
        1
 44
0.0
173
     0
291
     0
 45
0.0
1001
ACAD
1000
AcDbSavedByObjectVersion
1070
     0
  0
VISUALSTYLE
  5
1613A
102
{ACAD_XDICTIONARY
360
16365
102
}
102
{ACAD_REACTORS
330
16127
102
}
330
16127
100
AcDbVisualStyle
  2
X-Ray
 70
    25
 71
     2
 72
     2
 73
     1
 90
        1
 40
0.5
 41
-30.0
 62
     5
 63
     7
 74
     1
 91
        0
 64
     7
 65
   257
 75
     1
175
     1
 42
1.0
 92
        8
 66
     7
 43
1.0
 76
     1
 77
     6
 78
     2
 67
     7
 79
     3
170
     0
171
     0
290
     0
174
     0
 93
       13
 44
0.0
173
     0
291
     0
 45
0.0
1001
ACAD
1000
AcDbSavedByObjectVersion
1070
     0
  0
DICTIONARYVAR
  5
1629A
102
{ACAD_REACTORS
330
16294
102
}
330
16294
100
DictionaryVariables
280
     0
  1
1:1
  0
DICTIONARYVAR
  5
16296
102
{ACAD_REACTORS
330
16294
102
}
330
16294
100
DictionaryVariables
280
     0
  1
STANDARD
  0
DICTIONARYVAR
  5
16295
102
{ACAD_REACTORS
330
16294
102
}
330
16294
100
DictionaryVariables
280
     0
  1
STANDARD
  0
DICTIONARYVAR
  5
16297
102
{ACAD_REACTORS
330
16294
102
}
330
16294
100
DictionaryVariables
280
     0
  1
Metric50
  0
DICTIONARYVAR
  5
16298
102
{ACAD_REACTORS
330
16294
102
}
330
16294
100
DictionaryVariables
280
     0
  1
Metric50
  0
DICTIONARYVAR
  5
1632D
102
{ACAD_REACTORS
330
16294
102
}
330
16294
100
DictionaryVariables
280
     0
  1
1
  0
DICTIONARYVAR
  5
1632B
102
{ACAD_REACTORS
330
16294
102
}
330
16294
100
DictionaryVariables
280
     0
  1
0
  0
DICTIONARYVAR
  5
1629C
102
{ACAD_REACTORS
330
16294
102
}
330
16294
100
DictionaryVariables
280
     0
  1
1
  0
DICTIONARYVAR
  5
1629D
102
{ACAD_REACTORS
330
16294
102
}
330
16294
100
DictionaryVariables
280
     0
  1
15
  0
DICTIONARYVAR
  5
1629B
102
{ACAD_REACTORS
330
16294
102
}
330
16294
100
DictionaryVariables
280
     0
  1
0
  0
DICTIONARYVAR
  5
16299
102
{ACAD_REACTORS
330
16294
102
}
330
16294
100
DictionaryVariables
280
     0
  1
0
  0
DICTIONARYVAR
  5
1632A
102
{ACAD_REACTORS
330
16294
102
}
330
16294
100
DictionaryVariables
280
     0
  1
127
  0
DICTIONARYVAR
  5
1632C
102
{ACAD_REACTORS
330
16294
102
}
330
16294
100
DictionaryVariables
280
     0
  1
0
  0
DICTIONARY
  5
16339
102
{ACAD_REACTORS
330
16337
102
}
330
16337
100
AcDbDictionary
281
     1
  0
DICTIONARY
  5
16338
102
{ACAD_REACTORS
330
16337
102
}
330
16337
100
AcDbDictionary
281
     1
  3
2130161808
350
16332
  3
2130161816
350
16333
  3
2130161824
350
16334
  3
2130161832
350
16335
  3
2130161840
350
16336
  0
DICTIONARY
  5
16291
330
16159
100
AcDbDictionary
280
     1
281
     1
  3
ACAD_XREC_ROUNDTRIP
360
16376
  0
DICTIONARY
  5
1633A
330
154D1
100
AcDbDictionary
280
     1
281
     1
  3
ACAD_XREC_ROUNDTRIP
360
1633B
  0
DICTIONARY
  5
1633C
330
154D2
100
AcDbDictionary
280
     1
281
     1
  3
ACAD_XREC_ROUNDTRIP
360
1633D
  0
DICTIONARY
  5
16118
330
16117
100
AcDbDictionary
280
     1
281
     1
  3
ACAD_XREC_ROUNDTRIP
360
1633F
  3
BUMPTILE
360
1611A
  3
DIFFUSETILE
360
16119
  3
OPACITYTILE
360
1611D
  3
REFLECTIONTILE
360
1611C
  3
REFRACTIONTILE
360
1611E
  3
SPECULARTILE
360
1611B
  0
DICTIONARY
  5
16110
330
1610F
100
AcDbDictionary
280
     1
281
     1
  3
ACAD_XREC_ROUNDTRIP
360
1633E
  3
BUMPTILE
360
16112
  3
DIFFUSETILE
360
16111
  3
OPACITYTILE
360
16115
  3
REFLECTIONTILE
360
16114
  3
REFRACTIONTILE
360
16116
  3
SPECULARTILE
360
16113
  0
DICTIONARY
  5
16120
330
1611F
100
AcDbDictionary
280
     1
281
     1
  3
ACAD_XREC_ROUNDTRIP
360
16340
  3
BUMPTILE
360
16122
  3
DIFFUSETILE
360
16121
  3
OPACITYTILE
360
16125
  3
REFLECTIONTILE
360
16124
  3
REFRACTIONTILE
360
16126
  3
SPECULARTILE
360
16123
  0
DICTIONARY
  5
16373
330
16155
100
AcDbDictionary
280
     1
281
     1
  3
ACAD_XREC_ROUNDTRIP
360
16374
  0
DICTIONARY
  5
1628F
330
16157
100
AcDbDictionary
280
     1
281
     1
  3
ACAD_XREC_ROUNDTRIP
360
16375
  0
DICTIONARY
  5
1632E
330
16141
100
AcDbDictionary
280
     1
281
     1
  3
ACAD_ROUNDTRIP_2008_TABLESTYLE_CELLSTYLEMAP
360
1632F
  3
ACAD_XREC_ROUNDTRIP
360
16371
  0
DICTIONARY
  5
1634B
330
1612D
100
AcDbDictionary
280
     1
281
     1
  3
ACAD_XREC_ROUNDTRIP
360
1634C
  0
DICTIONARY
  5
16349
330
1612C
100
AcDbDictionary
280
     1
281
     1
  3
ACAD_XREC_ROUNDTRIP
360
1634A
  0
DICTIONARY
  5
16357
330
16133
100
AcDbDictionary
280
     1
281
     1
  3
ACAD_XREC_ROUNDTRIP
360
16358
  0
DICTIONARY
  5
1635F
330
16137
100
AcDbDictionary
280
     1
281
     1
  3
ACAD_XREC_ROUNDTRIP
360
16360
  0
DICTIONARY
  5
16351
330
16130
100
AcDbDictionary
280
     1
281
     1
  3
ACAD_XREC_ROUNDTRIP
360
16352
  0
DICTIONARY
  5
16355
330
16132
100
AcDbDictionary
280
     1
281
     1
  3
ACAD_XREC_ROUNDTRIP
360
16356
  0
DICTIONARY
  5
1636F
330
1613F
100
AcDbDictionary
280
     1
281
     1
  3
ACAD_XREC_ROUNDTRIP
360
16370
  0
DICTIONARY
  5
1635D
330
16136
100
AcDbDictionary
280
     1
281
     1
  3
ACAD_XREC_ROUNDTRIP
360
1635E
  0
DICTIONARY
  5
16341
330
16128
100
AcDbDictionary
280
     1
281
     1
  3
ACAD_XREC_ROUNDTRIP
360
16342
  0
DICTIONARY
  5
16343
330
16129
100
AcDbDictionary
280
     1
281
     1
  3
ACAD_XREC_ROUNDTRIP
360
16344
  0
DICTIONARY
  5
16345
330
1612A
100
AcDbDictionary
280
     1
281
     1
  3
ACAD_XREC_ROUNDTRIP
360
16346
  0
DICTIONARY
  5
16347
330
1612B
100
AcDbDictionary
280
     1
281
     1
  3
ACAD_XREC_ROUNDTRIP
360
16348
  0
DICTIONARY
  5
1634F
330
1612F
100
AcDbDictionary
280
     1
281
     1
  3
ACAD_XREC_ROUNDTRIP
360
16350
  0
DICTIONARY
  5
1636B
330
1613D
100
AcDbDictionary
280
     1
281
     1
  3
ACAD_XREC_ROUNDTRIP
360
1636C
  0
DICTIONARY
  5
1635B
330
16135
100
AcDbDictionary
280
     1
281
     1
  3
ACAD_XREC_ROUNDTRIP
360
1635C
  0
DICTIONARY
  5
1636D
330
1613E
100
AcDbDictionary
280
     1
281
     1
  3
ACAD_XREC_ROUNDTRIP
360
1636E
  0
DICTIONARY
  5
16353
330
16131
100
AcDbDictionary
280
     1
281
     1
  3
ACAD_XREC_ROUNDTRIP
360
16354
  0
DICTIONARY
  5
16369
330
1613C
100
AcDbDictionary
280
     1
281
     1
  3
ACAD_XREC_ROUNDTRIP
360
1636A
  0
DICTIONARY
  5
16367
330
1613B
100
AcDbDictionary
280
     1
281
     1
  3
ACAD_XREC_ROUNDTRIP
360
16368
  0
DICTIONARY
  5
16361
330
16138
100
AcDbDictionary
280
     1
281
     1
  3
ACAD_XREC_ROUNDTRIP
360
16362
  0
DICTIONARY
  5
16363
330
16139
100
AcDbDictionary
280
     1
281
     1
  3
ACAD_XREC_ROUNDTRIP
360
16364
  0
DICTIONARY
  5
16359
330
16134
100
AcDbDictionary
280
     1
281
     1
  3
ACAD_XREC_ROUNDTRIP
360
1635A
  0
DICTIONARY
  5
1634D
330
1612E
100
AcDbDictionary
280
     1
281
     1
  3
ACAD_XREC_ROUNDTRIP
360
1634E
  0
DICTIONARY
  5
16365
330
1613A
100
AcDbDictionary
280
     1
281
     1
  3
ACAD_XREC_ROUNDTRIP
360
16366
  0
XRECORD
  5
16332
102
{ACAD_REACTORS
330
16338
102
}
330
16338
100
AcDbXrecord
280
     1
  1
AcDb_Thumbnail_Schema
102
{ATTRRECORD
341
16333
  2
AcDbDs::TreatedAsObjectData
280
     1
291
     1
102
ATTRRECORD}
102
{ATTRRECORD
341
16334
  2
AcDbDs::Legacy
280
     1
291
     1
102
ATTRRECORD}
  2
AcDbDs::ID
280
    10
 91
        8
102
{ATTRRECORD
341
16335
  2
AcDs:Indexable
280
     1
291
     1
102
ATTRRECORD}
102
{ATTRRECORD
341
16336
  2
AcDbDs::HandleAttribute
280
     7
282
     1
102
ATTRRECORD}
  2
Thumbnail_Data
280
    15
 91
        0
  0
XRECORD
  5
16333
102
{ACAD_REACTORS
330
16338
102
}
330
16338
100
AcDbXrecord
280
     1
  1
AcDbDs::TreatedAsObjectDataSchema
  2
AcDbDs::TreatedAsObjectData
280
     1
 91
        0
  0
XRECORD
  5
16334
102
{ACAD_REACTORS
330
16338
102
}
330
16338
100
AcDbXrecord
280
     1
  1
AcDbDs::LegacySchema
  2
AcDbDs::Legacy
280
     1
 91
        0
  0
XRECORD
  5
16335
102
{ACAD_REACTORS
330
16338
102
}
330
16338
100
AcDbXrecord
280
     1
  1
AcDbDs::IndexedPropertySchema
  2
AcDs:Indexable
280
     1
 91
        0
  0
XRECORD
  5
16336
102
{ACAD_REACTORS
330
16338
102
}
330
16338
100
AcDbXrecord
280
     1
  1
AcDbDs::HandleAttributeSchema
  2
AcDbDs::HandleAttribute
280
     7
 91
        1
284
     1
  0
XRECORD
  5
16376
102
{ACAD_REACTORS
330
16291
102
}
330
16291
100
AcDbXrecord
280
     1
102
DISPLAYNAME
  1
Metric50
102
FLAGS
 90
        0
  0
XRECORD
  5
1633B
102
{ACAD_REACTORS
330
1633A
102
}
330
1633A
100
AcDbXrecord
280
     1
102
SHADEPLOT
 70
     1
102
SHADEPLOTRESLEVEL
 70
     2
102
SHADEPLOTCUSTOMDPI
 70
   300
  0
XRECORD
  5
1633D
102
{ACAD_REACTORS
330
1633C
102
}
330
1633C
100
AcDbXrecord
280
     1
102
SHADEPLOT
 70
     0
102
SHADEPLOTRESLEVEL
 70
     2
102
SHADEPLOTCUSTOMDPI
 70
   300
  0
XRECORD
  5
1633F
102
{ACAD_REACTORS
330
16118
102
}
330
16118
100
AcDbXrecord
280
     1
102
MATERIAL
148
0.0
149
0.0
149
0.0
 93
        0
 94
      127
282
     0
 72
     0
 77
     0
171
     0
175
     0
179
     0
273
     0
  0
XRECORD
  5
1611A
102
{ACAD_REACTORS
330
16118
102
}
330
16118
100
AcDbXrecord
280
     1
270
     1
271
     1
  0
XRECORD
  5
16119
102
{ACAD_REACTORS
330
16118
102
}
330
16118
100
AcDbXrecord
280
     1
270
     1
271
     1
  0
XRECORD
  5
1611D
102
{ACAD_REACTORS
330
16118
102
}
330
16118
100
AcDbXrecord
280
     1
270
     1
271
     1
  0
XRECORD
  5
1611C
102
{ACAD_REACTORS
330
16118
102
}
330
16118
100
AcDbXrecord
280
     1
270
     1
271
     1
  0
XRECORD
  5
1611E
102
{ACAD_REACTORS
330
16118
102
}
330
16118
100
AcDbXrecord
280
     1
270
     1
271
     1
  0
XRECORD
  5
1611B
102
{ACAD_REACTORS
330
16118
102
}
330
16118
100
AcDbXrecord
280
     1
270
     1
271
     1
  0
XRECORD
  5
1633E
102
{ACAD_REACTORS
330
16110
102
}
330
16110
100
AcDbXrecord
280
     1
102
MATERIAL
148
0.0
149
0.0
149
0.0
 93
        0
 94
      127
282
     0
 72
     0
 77
     0
171
     0
175
     0
179
     0
273
     0
  0
XRECORD
  5
16112
102
{ACAD_REACTORS
330
16110
102
}
330
16110
100
AcDbXrecord
280
     1
270
     1
271
     1
  0
XRECORD
  5
16111
102
{ACAD_REACTORS
330
16110
102
}
330
16110
100
AcDbXrecord
280
     1
270
     1
271
     1
  0
XRECORD
  5
16115
102
{ACAD_REACTORS
330
16110
102
}
330
16110
100
AcDbXrecord
280
     1
270
     1
271
     1
  0
XRECORD
  5
16114
102
{ACAD_REACTORS
330
16110
102
}
330
16110
100
AcDbXrecord
280
     1
270
     1
271
     1
  0
XRECORD
  5
16116
102
{ACAD_REACTORS
330
16110
102
}
330
16110
100
AcDbXrecord
280
     1
270
     1
271
     1
  0
XRECORD
  5
16113
102
{ACAD_REACTORS
330
16110
102
}
330
16110
100
AcDbXrecord
280
     1
270
     1
271
     1
  0
XRECORD
  5
16340
102
{ACAD_REACTORS
330
16120
102
}
330
16120
100
AcDbXrecord
280
     1
102
MATERIAL
148
0.0
149
0.0
149
0.0
 93
        0
 94
      127
282
     0
 72
     0
 77
     0
171
     0
175
     0
179
     0
273
     0
  0
XRECORD
  5
16122
102
{ACAD_REACTORS
330
16120
102
}
330
16120
100
AcDbXrecord
280
     1
270
     1
271
     1
  0
XRECORD
  5
16121
102
{ACAD_REACTORS
330
16120
102
}
330
16120
100
AcDbXrecord
280
     1
270
     1
271
     1
  0
XRECORD
  5
16125
102
{ACAD_REACTORS
330
16120
102
}
330
16120
100
AcDbXrecord
280
     1
270
     1
271
     1
  0
XRECORD
  5
16124
102
{ACAD_REACTORS
330
16120
102
}
330
16120
100
AcDbXrecord
280
     1
270
     1
271
     1
  0
XRECORD
  5
16126
102
{ACAD_REACTORS
330
16120
102
}
330
16120
100
AcDbXrecord
280
     1
270
     1
271
     1
  0
XRECORD
  5
16123
102
{ACAD_REACTORS
330
16120
102
}
330
16120
100
AcDbXrecord
280
     1
270
     1
271
     1
  0
XRECORD
  5
16374
102
{ACAD_REACTORS
330
16373
102
}
330
16373
100
AcDbXrecord
280
     1
102
ACAD_ROUNDTRIP_2012_MLEADER_STYLE
298
     1
  0
XRECORD
  5
16375
102
{ACAD_REACTORS
330
1628F
102
}
330
1628F
100
AcDbXrecord
280
     1
102
DISPLAYNAME
  1
Metric50
102
FLAGS
 90
        0
  0
CELLSTYLEMAP
  5
1632F
102
{ACAD_REACTORS
330
1632E
102
}
330
1632E
100
AcDbCellStyleMap
 90
        3
300
CELLSTYLE
  1
TABLEFORMAT_BEGIN
 90
        5
170
     1
 91
        0
 92
    32768
 62
   257
 93
        1
300
CONTENTFORMAT
  1
CONTENTFORMAT_BEGIN
 90
        0
 91
        0
 92
      512
 93
        0
300

 40
0.0
140
1.0
 94
        5
 62
     0
340
7475
144
6.0
309
CONTENTFORMAT_END
171
     1
301
MARGIN
  1
CELLMARGIN_BEGIN
 40
1.5
 40
1.5
 40
1.5
 40
1.5
 40
4.5
 40
4.5
309
CELLMARGIN_END
 94
        6
 95
        1
302
GRIDFORMAT
  1
GRIDFORMAT_BEGIN
 90
        0
 91
        1
 62
     0
 92
       -2
340
0
 93
        0
 40
1.125
309
GRIDFORMAT_END
 95
        2
302
GRIDFORMAT
  1
GRIDFORMAT_BEGIN
 90
        0
 91
        1
 62
     0
 92
       -2
340
0
 93
        0
 40
1.125
309
GRIDFORMAT_END
 95
        4
302
GRIDFORMAT
  1
GRIDFORMAT_BEGIN
 90
        0
 91
        1
 62
     0
 92
       -2
340
0
 93
        0
 40
1.125
309
GRIDFORMAT_END
 95
        8
302
GRIDFORMAT
  1
GRIDFORMAT_BEGIN
 90
        0
 91
        1
 62
     0
 92
       -2
340
0
 93
        0
 40
1.125
309
GRIDFORMAT_END
 95
       16
302
GRIDFORMAT
  1
GRIDFORMAT_BEGIN
 90
        0
 91
        1
 62
     0
 92
       -2
340
0
 93
        0
 40
1.125
309
GRIDFORMAT_END
 95
       32
302
GRIDFORMAT
  1
GRIDFORMAT_BEGIN
 90
        0
 91
        1
 62
     0
 92
       -2
340
0
 93
        0
 40
1.125
309
GRIDFORMAT_END
309
TABLEFORMAT_END
  1
CELLSTYLE_BEGIN
 90
        1
 91
        1
300
_TITLE
309
CELLSTYLE_END
300
CELLSTYLE
  1
TABLEFORMAT_BEGIN
 90
        5
170
     1
 91
        0
 92
        0
 62
   257
 93
        1
300
CONTENTFORMAT
  1
CONTENTFORMAT_BEGIN
 90
        0
 91
        0
 92
      512
 93
        0
300

 40
0.0
140
1.0
 94
        5
 62
     0
340
7475
144
4.5
309
CONTENTFORMAT_END
171
     1
301
MARGIN
  1
CELLMARGIN_BEGIN
 40
1.5
 40
1.5
 40
1.5
 40
1.5
 40
4.5
 40
4.5
309
CELLMARGIN_END
 94
        6
 95
        1
302
GRIDFORMAT
  1
GRIDFORMAT_BEGIN
 90
        0
 91
        1
 62
     0
 92
       -2
340
0
 93
        0
 40
1.125
309
GRIDFORMAT_END
 95
        2
302
GRIDFORMAT
  1
GRIDFORMAT_BEGIN
 90
        0
 91
        1
 62
     0
 92
       -2
340
0
 93
        0
 40
1.125
309
GRIDFORMAT_END
 95
        4
302
GRIDFORMAT
  1
GRIDFORMAT_BEGIN
 90
        0
 91
        1
 62
     0
 92
       -2
340
0
 93
        0
 40
1.125
309
GRIDFORMAT_END
 95
        8
302
GRIDFORMAT
  1
GRIDFORMAT_BEGIN
 90
        0
 91
        1
 62
     0
 92
       -2
340
0
 93
        0
 40
1.125
309
GRIDFORMAT_END
 95
       16
302
GRIDFORMAT
  1
GRIDFORMAT_BEGIN
 90
        0
 91
        1
 62
     0
 92
       -2
340
0
 93
        0
 40
1.125
309
GRIDFORMAT_END
 95
       32
302
GRIDFORMAT
  1
GRIDFORMAT_BEGIN
 90
        0
 91
        1
 62
     0
 92
       -2
340
0
 93
        0
 40
1.125
309
GRIDFORMAT_END
309
TABLEFORMAT_END
  1
CELLSTYLE_BEGIN
 90
        2
 91
        1
300
_HEADER
309
CELLSTYLE_END
300
CELLSTYLE
  1
TABLEFORMAT_BEGIN
 90
        5
170
     1
 91
        0
 92
        0
 62
   257
 93
        1
300
CONTENTFORMAT
  1
CONTENTFORMAT_BEGIN
 90
        0
 91
        0
 92
      512
 93
        0
300

 40
0.0
140
1.0
 94
        2
 62
     0
340
7475
144
4.5
309
CONTENTFORMAT_END
171
     1
301
MARGIN
  1
CELLMARGIN_BEGIN
 40
1.5
 40
1.5
 40
1.5
 40
1.5
 40
4.5
 40
4.5
309
CELLMARGIN_END
 94
        6
 95
        1
302
GRIDFORMAT
  1
GRIDFORMAT_BEGIN
 90
        0
 91
        1
 62
     0
 92
       -2
340
0
 93
        0
 40
1.125
309
GRIDFORMAT_END
 95
        2
302
GRIDFORMAT
  1
GRIDFORMAT_BEGIN
 90
        0
 91
        1
 62
     0
 92
       -2
340
0
 93
        0
 40
1.125
309
GRIDFORMAT_END
 95
        4
302
GRIDFORMAT
  1
GRIDFORMAT_BEGIN
 90
        0
 91
        1
 62
     0
 92
       -2
340
0
 93
        0
 40
1.125
309
GRIDFORMAT_END
 95
        8
302
GRIDFORMAT
  1
GRIDFORMAT_BEGIN
 90
        0
 91
        1
 62
     0
 92
       -2
340
0
 93
        0
 40
1.125
309
GRIDFORMAT_END
 95
       16
302
GRIDFORMAT
  1
GRIDFORMAT_BEGIN
 90
        0
 91
        1
 62
     0
 92
       -2
340
0
 93
        0
 40
1.125
309
GRIDFORMAT_END
 95
       32
302
GRIDFORMAT
  1
GRIDFORMAT_BEGIN
 90
        0
 91
        1
 62
     0
 92
       -2
340
0
 93
        0
 40
1.125
309
GRIDFORMAT_END
309
TABLEFORMAT_END
  1
CELLSTYLE_BEGIN
 90
        3
 91
        2
300
_DATA
309
CELLSTYLE_END
  0
XRECORD
  5
16371
102
{ACAD_REACTORS
330
1632E
102
}
330
1632E
100
AcDbXrecord
280
     1
102
ACAD_ROUNDTRIP_PRE2007_TABLESTYLE
 90
      512
 91
        0
  1

 92
      512
 93
        0
  2

 94
      512
 95
        0
  3

  0
XRECORD
  5
1634C
102
{ACAD_REACTORS
330
1634B
102
}
330
1634B
100
AcDbXrecord
280
     1
102
RTVSPost2010Prop28
280
     1
102
RTVSPost2010PropOp28
 70
     1
102
RTVSPost2010Prop29
280
     1
102
RTVSPost2010PropOp29
 70
     1
102
RTVSPost2010Prop30
280
     0
102
RTVSPost2010PropOp30
 70
     1
102
RTVSPost2010Prop31
280
     0
102
RTVSPost2010PropOp31
 70
     1
102
RTVSPost2010Prop32
280
     0
102
RTVSPost2010PropOp32
 70
     1
102
RTVSPost2010Prop33
280
     0
102
RTVSPost2010PropOp33
 70
     1
102
RTVSPost2010Prop34
280
     0
102
RTVSPost2010PropOp34
 70
     1
102
RTVSPost2010Prop35
280
     0
102
RTVSPost2010PropOp35
 70
     1
102
RTVSPost2010Prop36
280
     0
102
RTVSPost2010PropOp36
 70
     1
102
RTVSPost2010Prop37
 90
       50
102
RTVSPost2010PropOp37
 70
     1
102
RTVSPost2010Prop38
140
0.0
102
RTVSPost2010PropOp38
 70
     1
102
RTVSPost2010Prop39
140
1.0
102
RTVSPost2010PropOp39
 70
     1
102
RTVSPost2010Prop40
 90
        0
102
RTVSPost2010PropOp40
 70
     1
102
RTVSPost2010Prop41ColorIndex
 90
       18
102
RTVSPost2010Prop41ColorRGB
 90
        0
102
RTVSPost2010PropOp41
 70
     1
102
RTVSPost2010Prop42
 90
       50
102
RTVSPost2010PropOp42
 70
     1
102
RTVSPost2010Prop43
 90
        3
102
RTVSPost2010PropOp43
 70
     1
102
RTVSPost2010Prop44ColorIndex
 90
        5
102
RTVSPost2010Prop44ColorRGB
 90
      255
102
RTVSPost2010PropOp44
 70
     1
102
RTVSPost2010Prop45
280
     0
102
RTVSPost2010PropOp45
 70
     1
102
RTVSPost2010Prop46
 90
       50
102
RTVSPost2010PropOp46
 70
     1
102
RTVSPost2010Prop47
 90
       50
102
RTVSPost2010PropOp47
 70
     1
102
RTVSPost2010Prop48
 90
       50
102
RTVSPost2010PropOp48
 70
     1
102
RTVSPost2010Prop49
280
     0
102
RTVSPost2010PropOp49
 70
     1
102
RTVSPost2010Prop50
 90
       50
102
RTVSPost2010PropOp50
 70
     1
102
RTVSPost2010Prop51ColorIndex
 90
      256
102
RTVSPost2010Prop51ColorRGB
 90
-16777216
102
RTVSPost2010PropOp51
 70
     0
102
RTVSPost2010Prop52
140
1.0
102
RTVSPost2010PropOp52
 70
     0
102
RTVSPost2010Prop53
 90
        2
102
RTVSPost2010PropOp53
 70
     1
102
RTVSPost2010Prop54
  1
strokes_ogs.tif
102
RTVSPost2010PropOp54
 70
     1
102
RTVSPost2010Prop55
280
     0
102
RTVSPost2010PropOp55
 70
     1
102
RTVSPost2010Prop56
140
1.0
102
RTVSPost2010PropOp56
 70
     1
102
RTVSPost2010Prop57
140
1.0
102
RTVSPost2010PropOp57
 70
     1
102
RTVSPropertyOp0
 70
     1
102
RTVSPropertyOp1
 70
     1
102
RTVSPropertyOp2
 70
     1
102
RTVSPropertyOp3
 70
     1
102
RTVSPropertyOp4
 70
     1
102
RTVSPropertyOp5
 70
     1
102
RTVSPropertyOp6
 70
     1
102
RTVSPropertyOp7
 70
     1
102
RTVSPropertyOp8
 70
     1
102
RTVSPropertyOp9
 70
     1
102
RTVSPropertyOp10
 70
     1
102
RTVSPropertyOp11
 70
     1
102
RTVSPropertyOp12
 70
     1
102
RTVSPropertyOp13
 70
     1
102
RTVSPropertyOp14
 70
     1
102
RTVSPropertyOp15
 70
     1
102
RTVSPropertyOp16
 70
     1
102
RTVSPropertyOp17
 70
     1
102
RTVSPropertyOp18
 70
     1
102
RTVSPropertyOp19
 70
     1
102
RTVSPropertyOp20
 70
     1
102
RTVSPropertyOp21
 70
     1
102
RTVSPropertyOp22
 70
     1
102
RTVSPropertyOp23
 70
     1
102
RTVSPropertyOp24
 70
     1
102
RTVSPropertyOp25
 70
     1
102
RTVSPropertyOp26
 70
     1
102
RTVSPropertyOp27
 70
     1
102
RTVSPropertyOp28
 70
     1
102
RTVSPropertyOp29
 70
     1
102
RTVSPropertyOp30
 70
     1
102
RTVSPropertyOp31
 70
     1
102
RTVSPropertyOp32
 70
     1
102
RTVSPropertyOp33
 70
     1
102
RTVSPropertyOp34
 70
     1
102
RTVSPropertyOp35
 70
     1
102
RTVSPropertyOp36
 70
     1
102
RTVSPropertyOp37
 70
     1
102
RTVSPropertyOp38
 70
     1
102
RTVSPropertyOp39
 70
     1
102
RTVSPropertyOp40
 70
     1
102
RTVSPropertyOp41
 70
     1
102
RTVSPropertyOp42
 70
     1
102
RTVSPropertyOp43
 70
     1
102
RTVSPropertyOp44
 70
     1
102
RTVSPropertyOp45
 70
     1
102
RTVSPropertyOp46
 70
     1
102
RTVSPropertyOp47
 70
     1
102
RTVSPropertyOp48
 70
     1
102
RTVSPropertyOp49
 70
     1
102
RTVSPropertyOp50
 70
     1
102
RTVSPropertyOp51
 70
     0
102
RTVSPropertyOp52
 70
     0
102
RTVSPropertyOp53
 70
     1
102
RTVSPropertyOp54
 70
     1
102
RTVSPropertyOp55
 70
     1
102
RTVSPropertyOp56
 70
     1
102
RTVSPropertyOp57
 70
     1
102
RTVSPropertyOp58
 70
     1
102
RTVSPropertyOp59
 70
     1
102
RTVSPropertyOp60
 70
     1
102
RTVSPropertyOp61
 70
     1
102
RTVSPropertyOp62
 70
     1
  0
XRECORD
  5
1634A
102
{ACAD_REACTORS
330
16349
102
}
330
16349
100
AcDbXrecord
280
     1
102
RTVSPost2010Prop28
280
     0
102
RTVSPost2010PropOp28
 70
     1
102
RTVSPost2010Prop29
280
     1
102
RTVSPost2010PropOp29
 70
     1
102
RTVSPost2010Prop30
280
     1
102
RTVSPost2010PropOp30
 70
     1
102
RTVSPost2010Prop31
280
     0
102
RTVSPost2010PropOp31
 70
     1
102
RTVSPost2010Prop32
280
     0
102
RTVSPost2010PropOp32
 70
     1
102
RTVSPost2010Prop33
280
     0
102
RTVSPost2010PropOp33
 70
     1
102
RTVSPost2010Prop34
280
     0
102
RTVSPost2010PropOp34
 70
     1
102
RTVSPost2010Prop35
280
     0
102
RTVSPost2010PropOp35
 70
     1
102
RTVSPost2010Prop36
280
     0
102
RTVSPost2010PropOp36
 70
     1
102
RTVSPost2010Prop37
 90
       50
102
RTVSPost2010PropOp37
 70
     1
102
RTVSPost2010Prop38
140
0.0
102
RTVSPost2010PropOp38
 70
     1
102
RTVSPost2010Prop39
140
1.0
102
RTVSPost2010PropOp39
 70
     1
102
RTVSPost2010Prop40
 90
        0
102
RTVSPost2010PropOp40
 70
     1
102
RTVSPost2010Prop41ColorIndex
 90
       18
102
RTVSPost2010Prop41ColorRGB
 90
        0
102
RTVSPost2010PropOp41
 70
     1
102
RTVSPost2010Prop42
 90
       50
102
RTVSPost2010PropOp42
 70
     1
102
RTVSPost2010Prop43
 90
        3
102
RTVSPost2010PropOp43
 70
     1
102
RTVSPost2010Prop44ColorIndex
 90
        5
102
RTVSPost2010Prop44ColorRGB
 90
      255
102
RTVSPost2010PropOp44
 70
     1
102
RTVSPost2010Prop45
280
     0
102
RTVSPost2010PropOp45
 70
     1
102
RTVSPost2010Prop46
 90
       50
102
RTVSPost2010PropOp46
 70
     1
102
RTVSPost2010Prop47
 90
       50
102
RTVSPost2010PropOp47
 70
     1
102
RTVSPost2010Prop48
 90
       50
102
RTVSPost2010PropOp48
 70
     1
102
RTVSPost2010Prop49
280
     0
102
RTVSPost2010PropOp49
 70
     1
102
RTVSPost2010Prop50
 90
       50
102
RTVSPost2010PropOp50
 70
     1
102
RTVSPost2010Prop51ColorIndex
 90
      256
102
RTVSPost2010Prop51ColorRGB
 90
-16777216
102
RTVSPost2010PropOp51
 70
     0
102
RTVSPost2010Prop52
140
1.0
102
RTVSPost2010PropOp52
 70
     0
102
RTVSPost2010Prop53
 90
        2
102
RTVSPost2010PropOp53
 70
     1
102
RTVSPost2010Prop54
  1
strokes_ogs.tif
102
RTVSPost2010PropOp54
 70
     1
102
RTVSPost2010Prop55
280
     0
102
RTVSPost2010PropOp55
 70
     1
102
RTVSPost2010Prop56
140
1.0
102
RTVSPost2010PropOp56
 70
     1
102
RTVSPost2010Prop57
140
1.0
102
RTVSPost2010PropOp57
 70
     1
102
RTVSPropertyOp0
 70
     1
102
RTVSPropertyOp1
 70
     1
102
RTVSPropertyOp2
 70
     1
102
RTVSPropertyOp3
 70
     1
102
RTVSPropertyOp4
 70
     1
102
RTVSPropertyOp5
 70
     1
102
RTVSPropertyOp6
 70
     1
102
RTVSPropertyOp7
 70
     1
102
RTVSPropertyOp8
 70
     1
102
RTVSPropertyOp9
 70
     1
102
RTVSPropertyOp10
 70
     1
102
RTVSPropertyOp11
 70
     1
102
RTVSPropertyOp12
 70
     1
102
RTVSPropertyOp13
 70
     1
102
RTVSPropertyOp14
 70
     1
102
RTVSPropertyOp15
 70
     1
102
RTVSPropertyOp16
 70
     1
102
RTVSPropertyOp17
 70
     1
102
RTVSPropertyOp18
 70
     1
102
RTVSPropertyOp19
 70
     1
102
RTVSPropertyOp20
 70
     1
102
RTVSPropertyOp21
 70
     1
102
RTVSPropertyOp22
 70
     1
102
RTVSPropertyOp23
 70
     1
102
RTVSPropertyOp24
 70
     1
102
RTVSPropertyOp25
 70
     1
102
RTVSPropertyOp26
 70
     1
102
RTVSPropertyOp27
 70
     1
102
RTVSPropertyOp28
 70
     1
102
RTVSPropertyOp29
 70
     1
102
RTVSPropertyOp30
 70
     1
102
RTVSPropertyOp31
 70
     1
102
RTVSPropertyOp32
 70
     1
102
RTVSPropertyOp33
 70
     1
102
RTVSPropertyOp34
 70
     1
102
RTVSPropertyOp35
 70
     1
102
RTVSPropertyOp36
 70
     1
102
RTVSPropertyOp37
 70
     1
102
RTVSPropertyOp38
 70
     1
102
RTVSPropertyOp39
 70
     1
102
RTVSPropertyOp40
 70
     1
102
RTVSPropertyOp41
 70
     1
102
RTVSPropertyOp42
 70
     1
102
RTVSPropertyOp43
 70
     1
102
RTVSPropertyOp44
 70
     1
102
RTVSPropertyOp45
 70
     1
102
RTVSPropertyOp46
 70
     1
102
RTVSPropertyOp47
 70
     1
102
RTVSPropertyOp48
 70
     1
102
RTVSPropertyOp49
 70
     1
102
RTVSPropertyOp50
 70
     1
102
RTVSPropertyOp51
 70
     0
102
RTVSPropertyOp52
 70
     0
102
RTVSPropertyOp53
 70
     1
102
RTVSPropertyOp54
 70
     1
102
RTVSPropertyOp55
 70
     1
102
RTVSPropertyOp56
 70
     1
102
RTVSPropertyOp57
 70
     1
102
RTVSPropertyOp58
 70
     1
102
RTVSPropertyOp59
 70
     1
102
RTVSPropertyOp60
 70
     1
102
RTVSPropertyOp61
 70
     1
102
RTVSPropertyOp62
 70
     1
  0
XRECORD
  5
16358
102
{ACAD_REACTORS
330
16357
102
}
330
16357
100
AcDbXrecord
280
     1
102
RTVSPost2010Prop28
280
     0
102
RTVSPost2010PropOp28
 70
     1
102
RTVSPost2010Prop29
280
     1
102
RTVSPost2010PropOp29
 70
     1
102
RTVSPost2010Prop30
280
     1
102
RTVSPost2010PropOp30
 70
     1
102
RTVSPost2010Prop31
280
     0
102
RTVSPost2010PropOp31
 70
     1
102
RTVSPost2010Prop32
280
     0
102
RTVSPost2010PropOp32
 70
     1
102
RTVSPost2010Prop33
280
     0
102
RTVSPost2010PropOp33
 70
     1
102
RTVSPost2010Prop34
280
     0
102
RTVSPost2010PropOp34
 70
     1
102
RTVSPost2010Prop35
280
     0
102
RTVSPost2010PropOp35
 70
     1
102
RTVSPost2010Prop36
280
     0
102
RTVSPost2010PropOp36
 70
     1
102
RTVSPost2010Prop37
 90
       50
102
RTVSPost2010PropOp37
 70
     1
102
RTVSPost2010Prop38
140
0.0
102
RTVSPost2010PropOp38
 70
     1
102
RTVSPost2010Prop39
140
1.0
102
RTVSPost2010PropOp39
 70
     1
102
RTVSPost2010Prop40
 90
        0
102
RTVSPost2010PropOp40
 70
     1
102
RTVSPost2010Prop41ColorIndex
 90
       18
102
RTVSPost2010Prop41ColorRGB
 90
        0
102
RTVSPost2010PropOp41
 70
     1
102
RTVSPost2010Prop42
 90
       50
102
RTVSPost2010PropOp42
 70
     1
102
RTVSPost2010Prop43
 90
        3
102
RTVSPost2010PropOp43
 70
     1
102
RTVSPost2010Prop44ColorIndex
 90
        5
102
RTVSPost2010Prop44ColorRGB
 90
      255
102
RTVSPost2010PropOp44
 70
     1
102
RTVSPost2010Prop45
280
     0
102
RTVSPost2010PropOp45
 70
     1
102
RTVSPost2010Prop46
 90
       50
102
RTVSPost2010PropOp46
 70
     1
102
RTVSPost2010Prop47
 90
       50
102
RTVSPost2010PropOp47
 70
     1
102
RTVSPost2010Prop48
 90
       50
102
RTVSPost2010PropOp48
 70
     1
102
RTVSPost2010Prop49
280
     0
102
RTVSPost2010PropOp49
 70
     1
102
RTVSPost2010Prop50
 90
       50
102
RTVSPost2010PropOp50
 70
     1
102
RTVSPost2010Prop51ColorIndex
 90
      256
102
RTVSPost2010Prop51ColorRGB
 90
-16777216
102
RTVSPost2010PropOp51
 70
     0
102
RTVSPost2010Prop52
140
1.0
102
RTVSPost2010PropOp52
 70
     0
102
RTVSPost2010Prop53
 90
        2
102
RTVSPost2010PropOp53
 70
     1
102
RTVSPost2010Prop54
  1
strokes_ogs.tif
102
RTVSPost2010PropOp54
 70
     1
102
RTVSPost2010Prop55
280
     0
102
RTVSPost2010PropOp55
 70
     1
102
RTVSPost2010Prop56
140
1.0
102
RTVSPost2010PropOp56
 70
     1
102
RTVSPost2010Prop57
140
1.0
102
RTVSPost2010PropOp57
 70
     1
102
RTVSPropertyOp0
 70
     1
102
RTVSPropertyOp1
 70
     1
102
RTVSPropertyOp2
 70
     1
102
RTVSPropertyOp3
 70
     1
102
RTVSPropertyOp4
 70
     1
102
RTVSPropertyOp5
 70
     1
102
RTVSPropertyOp6
 70
     1
102
RTVSPropertyOp7
 70
     1
102
RTVSPropertyOp8
 70
     1
102
RTVSPropertyOp9
 70
     1
102
RTVSPropertyOp10
 70
     1
102
RTVSPropertyOp11
 70
     1
102
RTVSPropertyOp12
 70
     1
102
RTVSPropertyOp13
 70
     1
102
RTVSPropertyOp14
 70
     1
102
RTVSPropertyOp15
 70
     1
102
RTVSPropertyOp16
 70
     1
102
RTVSPropertyOp17
 70
     1
102
RTVSPropertyOp18
 70
     1
102
RTVSPropertyOp19
 70
     1
102
RTVSPropertyOp20
 70
     1
102
RTVSPropertyOp21
 70
     1
102
RTVSPropertyOp22
 70
     1
102
RTVSPropertyOp23
 70
     1
102
RTVSPropertyOp24
 70
     1
102
RTVSPropertyOp25
 70
     1
102
RTVSPropertyOp26
 70
     1
102
RTVSPropertyOp27
 70
     1
102
RTVSPropertyOp28
 70
     1
102
RTVSPropertyOp29
 70
     1
102
RTVSPropertyOp30
 70
     1
102
RTVSPropertyOp31
 70
     1
102
RTVSPropertyOp32
 70
     1
102
RTVSPropertyOp33
 70
     1
102
RTVSPropertyOp34
 70
     1
102
RTVSPropertyOp35
 70
     1
102
RTVSPropertyOp36
 70
     1
102
RTVSPropertyOp37
 70
     1
102
RTVSPropertyOp38
 70
     1
102
RTVSPropertyOp39
 70
     1
102
RTVSPropertyOp40
 70
     1
102
RTVSPropertyOp41
 70
     1
102
RTVSPropertyOp42
 70
     1
102
RTVSPropertyOp43
 70
     1
102
RTVSPropertyOp44
 70
     1
102
RTVSPropertyOp45
 70
     1
102
RTVSPropertyOp46
 70
     1
102
RTVSPropertyOp47
 70
     1
102
RTVSPropertyOp48
 70
     1
102
RTVSPropertyOp49
 70
     1
102
RTVSPropertyOp50
 70
     1
102
RTVSPropertyOp51
 70
     0
102
RTVSPropertyOp52
 70
     0
102
RTVSPropertyOp53
 70
     1
102
RTVSPropertyOp54
 70
     1
102
RTVSPropertyOp55
 70
     1
102
RTVSPropertyOp56
 70
     1
102
RTVSPropertyOp57
 70
     1
102
RTVSPropertyOp58
 70
     1
102
RTVSPropertyOp59
 70
     1
102
RTVSPropertyOp60
 70
     1
102
RTVSPropertyOp61
 70
     1
102
RTVSPropertyOp62
 70
     1
  0
XRECORD
  5
16360
102
{ACAD_REACTORS
330
1635F
102
}
330
1635F
100
AcDbXrecord
280
     1
102
RTVSPost2010Prop28
280
     0
102
RTVSPost2010PropOp28
 70
     1
102
RTVSPost2010Prop29
280
     1
102
RTVSPost2010PropOp29
 70
     1
102
RTVSPost2010Prop30
280
     1
102
RTVSPost2010PropOp30
 70
     1
102
RTVSPost2010Prop31
280
     0
102
RTVSPost2010PropOp31
 70
     1
102
RTVSPost2010Prop32
280
     0
102
RTVSPost2010PropOp32
 70
     1
102
RTVSPost2010Prop33
280
     0
102
RTVSPost2010PropOp33
 70
     1
102
RTVSPost2010Prop34
280
     0
102
RTVSPost2010PropOp34
 70
     1
102
RTVSPost2010Prop35
280
     0
102
RTVSPost2010PropOp35
 70
     1
102
RTVSPost2010Prop36
280
     0
102
RTVSPost2010PropOp36
 70
     1
102
RTVSPost2010Prop37
 90
       50
102
RTVSPost2010PropOp37
 70
     1
102
RTVSPost2010Prop38
140
0.0
102
RTVSPost2010PropOp38
 70
     1
102
RTVSPost2010Prop39
140
1.0
102
RTVSPost2010PropOp39
 70
     1
102
RTVSPost2010Prop40
 90
        0
102
RTVSPost2010PropOp40
 70
     1
102
RTVSPost2010Prop41ColorIndex
 90
       18
102
RTVSPost2010Prop41ColorRGB
 90
        0
102
RTVSPost2010PropOp41
 70
     1
102
RTVSPost2010Prop42
 90
       50
102
RTVSPost2010PropOp42
 70
     1
102
RTVSPost2010Prop43
 90
        3
102
RTVSPost2010PropOp43
 70
     1
102
RTVSPost2010Prop44ColorIndex
 90
        5
102
RTVSPost2010Prop44ColorRGB
 90
      255
102
RTVSPost2010PropOp44
 70
     1
102
RTVSPost2010Prop45
280
     0
102
RTVSPost2010PropOp45
 70
     1
102
RTVSPost2010Prop46
 90
       50
102
RTVSPost2010PropOp46
 70
     1
102
RTVSPost2010Prop47
 90
       50
102
RTVSPost2010PropOp47
 70
     1
102
RTVSPost2010Prop48
 90
       50
102
RTVSPost2010PropOp48
 70
     1
102
RTVSPost2010Prop49
280
     0
102
RTVSPost2010PropOp49
 70
     1
102
RTVSPost2010Prop50
 90
       50
102
RTVSPost2010PropOp50
 70
     1
102
RTVSPost2010Prop51ColorIndex
 90
      256
102
RTVSPost2010Prop51ColorRGB
 90
-16777216
102
RTVSPost2010PropOp51
 70
     0
102
RTVSPost2010Prop52
140
1.0
102
RTVSPost2010PropOp52
 70
     0
102
RTVSPost2010Prop53
 90
        2
102
RTVSPost2010PropOp53
 70
     1
102
RTVSPost2010Prop54
  1
strokes_ogs.tif
102
RTVSPost2010PropOp54
 70
     1
102
RTVSPost2010Prop55
280
     0
102
RTVSPost2010PropOp55
 70
     1
102
RTVSPost2010Prop56
140
1.0
102
RTVSPost2010PropOp56
 70
     1
102
RTVSPost2010Prop57
140
1.0
102
RTVSPost2010PropOp57
 70
     1
102
RTVSPropertyOp0
 70
     1
102
RTVSPropertyOp1
 70
     1
102
RTVSPropertyOp2
 70
     1
102
RTVSPropertyOp3
 70
     1
102
RTVSPropertyOp4
 70
     1
102
RTVSPropertyOp5
 70
     1
102
RTVSPropertyOp6
 70
     1
102
RTVSPropertyOp7
 70
     1
102
RTVSPropertyOp8
 70
     1
102
RTVSPropertyOp9
 70
     1
102
RTVSPropertyOp10
 70
     1
102
RTVSPropertyOp11
 70
     1
102
RTVSPropertyOp12
 70
     1
102
RTVSPropertyOp13
 70
     1
102
RTVSPropertyOp14
 70
     1
102
RTVSPropertyOp15
 70
     1
102
RTVSPropertyOp16
 70
     1
102
RTVSPropertyOp17
 70
     1
102
RTVSPropertyOp18
 70
     1
102
RTVSPropertyOp19
 70
     1
102
RTVSPropertyOp20
 70
     1
102
RTVSPropertyOp21
 70
     1
102
RTVSPropertyOp22
 70
     1
102
RTVSPropertyOp23
 70
     1
102
RTVSPropertyOp24
 70
     1
102
RTVSPropertyOp25
 70
     1
102
RTVSPropertyOp26
 70
     1
102
RTVSPropertyOp27
 70
     1
102
RTVSPropertyOp28
 70
     1
102
RTVSPropertyOp29
 70
     1
102
RTVSPropertyOp30
 70
     1
102
RTVSPropertyOp31
 70
     1
102
RTVSPropertyOp32
 70
     1
102
RTVSPropertyOp33
 70
     1
102
RTVSPropertyOp34
 70
     1
102
RTVSPropertyOp35
 70
     1
102
RTVSPropertyOp36
 70
     1
102
RTVSPropertyOp37
 70
     1
102
RTVSPropertyOp38
 70
     1
102
RTVSPropertyOp39
 70
     1
102
RTVSPropertyOp40
 70
     1
102
RTVSPropertyOp41
 70
     1
102
RTVSPropertyOp42
 70
     1
102
RTVSPropertyOp43
 70
     1
102
RTVSPropertyOp44
 70
     1
102
RTVSPropertyOp45
 70
     1
102
RTVSPropertyOp46
 70
     1
102
RTVSPropertyOp47
 70
     1
102
RTVSPropertyOp48
 70
     1
102
RTVSPropertyOp49
 70
     1
102
RTVSPropertyOp50
 70
     1
102
RTVSPropertyOp51
 70
     0
102
RTVSPropertyOp52
 70
     0
102
RTVSPropertyOp53
 70
     1
102
RTVSPropertyOp54
 70
     1
102
RTVSPropertyOp55
 70
     1
102
RTVSPropertyOp56
 70
     1
102
RTVSPropertyOp57
 70
     1
102
RTVSPropertyOp58
 70
     1
102
RTVSPropertyOp59
 70
     1
102
RTVSPropertyOp60
 70
     1
102
RTVSPropertyOp61
 70
     1
102
RTVSPropertyOp62
 70
     1
  0
XRECORD
  5
16352
102
{ACAD_REACTORS
330
16351
102
}
330
16351
100
AcDbXrecord
280
     1
102
RTVSPost2010Prop28
280
     0
102
RTVSPost2010PropOp28
 70
     1
102
RTVSPost2010Prop29
280
     1
102
RTVSPost2010PropOp29
 70
     1
102
RTVSPost2010Prop30
280
     1
102
RTVSPost2010PropOp30
 70
     1
102
RTVSPost2010Prop31
280
     0
102
RTVSPost2010PropOp31
 70
     1
102
RTVSPost2010Prop32
280
     0
102
RTVSPost2010PropOp32
 70
     1
102
RTVSPost2010Prop33
280
     0
102
RTVSPost2010PropOp33
 70
     1
102
RTVSPost2010Prop34
280
     0
102
RTVSPost2010PropOp34
 70
     1
102
RTVSPost2010Prop35
280
     0
102
RTVSPost2010PropOp35
 70
     1
102
RTVSPost2010Prop36
280
     0
102
RTVSPost2010PropOp36
 70
     1
102
RTVSPost2010Prop37
 90
       50
102
RTVSPost2010PropOp37
 70
     1
102
RTVSPost2010Prop38
140
0.0
102
RTVSPost2010PropOp38
 70
     1
102
RTVSPost2010Prop39
140
1.0
102
RTVSPost2010PropOp39
 70
     1
102
RTVSPost2010Prop40
 90
        0
102
RTVSPost2010PropOp40
 70
     1
102
RTVSPost2010Prop41ColorIndex
 90
       18
102
RTVSPost2010Prop41ColorRGB
 90
        0
102
RTVSPost2010PropOp41
 70
     1
102
RTVSPost2010Prop42
 90
       50
102
RTVSPost2010PropOp42
 70
     1
102
RTVSPost2010Prop43
 90
        3
102
RTVSPost2010PropOp43
 70
     1
102
RTVSPost2010Prop44ColorIndex
 90
        5
102
RTVSPost2010Prop44ColorRGB
 90
      255
102
RTVSPost2010PropOp44
 70
     1
102
RTVSPost2010Prop45
280
     0
102
RTVSPost2010PropOp45
 70
     1
102
RTVSPost2010Prop46
 90
       50
102
RTVSPost2010PropOp46
 70
     1
102
RTVSPost2010Prop47
 90
       50
102
RTVSPost2010PropOp47
 70
     1
102
RTVSPost2010Prop48
 90
       50
102
RTVSPost2010PropOp48
 70
     1
102
RTVSPost2010Prop49
280
     0
102
RTVSPost2010PropOp49
 70
     1
102
RTVSPost2010Prop50
 90
       50
102
RTVSPost2010PropOp50
 70
     1
102
RTVSPost2010Prop51ColorIndex
 90
      256
102
RTVSPost2010Prop51ColorRGB
 90
-16777216
102
RTVSPost2010PropOp51
 70
     0
102
RTVSPost2010Prop52
140
1.0
102
RTVSPost2010PropOp52
 70
     0
102
RTVSPost2010Prop53
 90
        2
102
RTVSPost2010PropOp53
 70
     1
102
RTVSPost2010Prop54
  1
strokes_ogs.tif
102
RTVSPost2010PropOp54
 70
     1
102
RTVSPost2010Prop55
280
     0
102
RTVSPost2010PropOp55
 70
     1
102
RTVSPost2010Prop56
140
1.0
102
RTVSPost2010PropOp56
 70
     1
102
RTVSPost2010Prop57
140
1.0
102
RTVSPost2010PropOp57
 70
     1
102
RTVSPropertyOp0
 70
     1
102
RTVSPropertyOp1
 70
     1
102
RTVSPropertyOp2
 70
     1
102
RTVSPropertyOp3
 70
     1
102
RTVSPropertyOp4
 70
     1
102
RTVSPropertyOp5
 70
     1
102
RTVSPropertyOp6
 70
     1
102
RTVSPropertyOp7
 70
     1
102
RTVSPropertyOp8
 70
     1
102
RTVSPropertyOp9
 70
     1
102
RTVSPropertyOp10
 70
     1
102
RTVSPropertyOp11
 70
     1
102
RTVSPropertyOp12
 70
     1
102
RTVSPropertyOp13
 70
     1
102
RTVSPropertyOp14
 70
     1
102
RTVSPropertyOp15
 70
     1
102
RTVSPropertyOp16
 70
     1
102
RTVSPropertyOp17
 70
     1
102
RTVSPropertyOp18
 70
     1
102
RTVSPropertyOp19
 70
     1
102
RTVSPropertyOp20
 70
     1
102
RTVSPropertyOp21
 70
     1
102
RTVSPropertyOp22
 70
     1
102
RTVSPropertyOp23
 70
     1
102
RTVSPropertyOp24
 70
     1
102
RTVSPropertyOp25
 70
     1
102
RTVSPropertyOp26
 70
     1
102
RTVSPropertyOp27
 70
     1
102
RTVSPropertyOp28
 70
     1
102
RTVSPropertyOp29
 70
     1
102
RTVSPropertyOp30
 70
     1
102
RTVSPropertyOp31
 70
     1
102
RTVSPropertyOp32
 70
     1
102
RTVSPropertyOp33
 70
     1
102
RTVSPropertyOp34
 70
     1
102
RTVSPropertyOp35
 70
     1
102
RTVSPropertyOp36
 70
     1
102
RTVSPropertyOp37
 70
     1
102
RTVSPropertyOp38
 70
     1
102
RTVSPropertyOp39
 70
     1
102
RTVSPropertyOp40
 70
     1
102
RTVSPropertyOp41
 70
     1
102
RTVSPropertyOp42
 70
     1
102
RTVSPropertyOp43
 70
     1
102
RTVSPropertyOp44
 70
     1
102
RTVSPropertyOp45
 70
     1
102
RTVSPropertyOp46
 70
     1
102
RTVSPropertyOp47
 70
     1
102
RTVSPropertyOp48
 70
     1
102
RTVSPropertyOp49
 70
     1
102
RTVSPropertyOp50
 70
     1
102
RTVSPropertyOp51
 70
     0
102
RTVSPropertyOp52
 70
     0
102
RTVSPropertyOp53
 70
     1
102
RTVSPropertyOp54
 70
     1
102
RTVSPropertyOp55
 70
     1
102
RTVSPropertyOp56
 70
     1
102
RTVSPropertyOp57
 70
     1
102
RTVSPropertyOp58
 70
     1
102
RTVSPropertyOp59
 70
     1
102
RTVSPropertyOp60
 70
     1
102
RTVSPropertyOp61
 70
     1
102
RTVSPropertyOp62
 70
     1
  0
XRECORD
  5
16356
102
{ACAD_REACTORS
330
16355
102
}
330
16355
100
AcDbXrecord
280
     1
102
RTVSPost2010Prop28
280
     0
102
RTVSPost2010PropOp28
 70
     1
102
RTVSPost2010Prop29
280
     1
102
RTVSPost2010PropOp29
 70
     1
102
RTVSPost2010Prop30
280
     1
102
RTVSPost2010PropOp30
 70
     1
102
RTVSPost2010Prop31
280
     0
102
RTVSPost2010PropOp31
 70
     1
102
RTVSPost2010Prop32
280
     0
102
RTVSPost2010PropOp32
 70
     1
102
RTVSPost2010Prop33
280
     0
102
RTVSPost2010PropOp33
 70
     1
102
RTVSPost2010Prop34
280
     0
102
RTVSPost2010PropOp34
 70
     1
102
RTVSPost2010Prop35
280
     0
102
RTVSPost2010PropOp35
 70
     1
102
RTVSPost2010Prop36
280
     0
102
RTVSPost2010PropOp36
 70
     1
102
RTVSPost2010Prop37
 90
       50
102
RTVSPost2010PropOp37
 70
     1
102
RTVSPost2010Prop38
140
0.0
102
RTVSPost2010PropOp38
 70
     1
102
RTVSPost2010Prop39
140
1.0
102
RTVSPost2010PropOp39
 70
     1
102
RTVSPost2010Prop40
 90
        0
102
RTVSPost2010PropOp40
 70
     1
102
RTVSPost2010Prop41ColorIndex
 90
       18
102
RTVSPost2010Prop41ColorRGB
 90
        0
102
RTVSPost2010PropOp41
 70
     1
102
RTVSPost2010Prop42
 90
       50
102
RTVSPost2010PropOp42
 70
     1
102
RTVSPost2010Prop43
 90
        3
102
RTVSPost2010PropOp43
 70
     1
102
RTVSPost2010Prop44ColorIndex
 90
        5
102
RTVSPost2010Prop44ColorRGB
 90
      255
102
RTVSPost2010PropOp44
 70
     1
102
RTVSPost2010Prop45
280
     0
102
RTVSPost2010PropOp45
 70
     1
102
RTVSPost2010Prop46
 90
       50
102
RTVSPost2010PropOp46
 70
     1
102
RTVSPost2010Prop47
 90
       50
102
RTVSPost2010PropOp47
 70
     1
102
RTVSPost2010Prop48
 90
       50
102
RTVSPost2010PropOp48
 70
     1
102
RTVSPost2010Prop49
280
     0
102
RTVSPost2010PropOp49
 70
     1
102
RTVSPost2010Prop50
 90
       50
102
RTVSPost2010PropOp50
 70
     1
102
RTVSPost2010Prop51ColorIndex
 90
      256
102
RTVSPost2010Prop51ColorRGB
 90
-16777216
102
RTVSPost2010PropOp51
 70
     0
102
RTVSPost2010Prop52
140
1.0
102
RTVSPost2010PropOp52
 70
     0
102
RTVSPost2010Prop53
 90
        2
102
RTVSPost2010PropOp53
 70
     1
102
RTVSPost2010Prop54
  1
strokes_ogs.tif
102
RTVSPost2010PropOp54
 70
     1
102
RTVSPost2010Prop55
280
     0
102
RTVSPost2010PropOp55
 70
     1
102
RTVSPost2010Prop56
140
1.0
102
RTVSPost2010PropOp56
 70
     1
102
RTVSPost2010Prop57
140
1.0
102
RTVSPost2010PropOp57
 70
     1
102
RTVSPropertyOp0
 70
     1
102
RTVSPropertyOp1
 70
     1
102
RTVSPropertyOp2
 70
     1
102
RTVSPropertyOp3
 70
     1
102
RTVSPropertyOp4
 70
     1
102
RTVSPropertyOp5
 70
     1
102
RTVSPropertyOp6
 70
     1
102
RTVSPropertyOp7
 70
     1
102
RTVSPropertyOp8
 70
     1
102
RTVSPropertyOp9
 70
     1
102
RTVSPropertyOp10
 70
     1
102
RTVSPropertyOp11
 70
     1
102
RTVSPropertyOp12
 70
     1
102
RTVSPropertyOp13
 70
     1
102
RTVSPropertyOp14
 70
     1
102
RTVSPropertyOp15
 70
     1
102
RTVSPropertyOp16
 70
     1
102
RTVSPropertyOp17
 70
     1
102
RTVSPropertyOp18
 70
     1
102
RTVSPropertyOp19
 70
     1
102
RTVSPropertyOp20
 70
     1
102
RTVSPropertyOp21
 70
     1
102
RTVSPropertyOp22
 70
     1
102
RTVSPropertyOp23
 70
     1
102
RTVSPropertyOp24
 70
     1
102
RTVSPropertyOp25
 70
     1
102
RTVSPropertyOp26
 70
     1
102
RTVSPropertyOp27
 70
     1
102
RTVSPropertyOp28
 70
     1
102
RTVSPropertyOp29
 70
     1
102
RTVSPropertyOp30
 70
     1
102
RTVSPropertyOp31
 70
     1
102
RTVSPropertyOp32
 70
     1
102
RTVSPropertyOp33
 70
     1
102
RTVSPropertyOp34
 70
     1
102
RTVSPropertyOp35
 70
     1
102
RTVSPropertyOp36
 70
     1
102
RTVSPropertyOp37
 70
     1
102
RTVSPropertyOp38
 70
     1
102
RTVSPropertyOp39
 70
     1
102
RTVSPropertyOp40
 70
     1
102
RTVSPropertyOp41
 70
     1
102
RTVSPropertyOp42
 70
     1
102
RTVSPropertyOp43
 70
     1
102
RTVSPropertyOp44
 70
     1
102
RTVSPropertyOp45
 70
     1
102
RTVSPropertyOp46
 70
     1
102
RTVSPropertyOp47
 70
     1
102
RTVSPropertyOp48
 70
     1
102
RTVSPropertyOp49
 70
     1
102
RTVSPropertyOp50
 70
     1
102
RTVSPropertyOp51
 70
     0
102
RTVSPropertyOp52
 70
     0
102
RTVSPropertyOp53
 70
     1
102
RTVSPropertyOp54
 70
     1
102
RTVSPropertyOp55
 70
     1
102
RTVSPropertyOp56
 70
     1
102
RTVSPropertyOp57
 70
     1
102
RTVSPropertyOp58
 70
     1
102
RTVSPropertyOp59
 70
     1
102
RTVSPropertyOp60
 70
     1
102
RTVSPropertyOp61
 70
     1
102
RTVSPropertyOp62
 70
     1
  0
XRECORD
  5
16370
102
{ACAD_REACTORS
330
1636F
102
}
330
1636F
100
AcDbXrecord
280
     1
102
RTVSPost2010Prop28
280
     0
102
RTVSPost2010PropOp28
 70
     0
102
RTVSPost2010Prop29
280
     1
102
RTVSPost2010PropOp29
 70
     0
102
RTVSPost2010Prop30
280
     1
102
RTVSPost2010PropOp30
 70
     0
102
RTVSPost2010Prop31
280
     0
102
RTVSPost2010PropOp31
 70
     0
102
RTVSPost2010Prop32
280
     0
102
RTVSPost2010PropOp32
 70
     0
102
RTVSPost2010Prop33
280
     0
102
RTVSPost2010PropOp33
 70
     0
102
RTVSPost2010Prop34
280
     0
102
RTVSPost2010PropOp34
 70
     0
102
RTVSPost2010Prop35
280
     0
102
RTVSPost2010PropOp35
 70
     0
102
RTVSPost2010Prop36
280
     0
102
RTVSPost2010PropOp36
 70
     0
102
RTVSPost2010Prop37
 90
       50
102
RTVSPost2010PropOp37
 70
     0
102
RTVSPost2010Prop38
140
0.0
102
RTVSPost2010PropOp38
 70
     0
102
RTVSPost2010Prop39
140
1.0
102
RTVSPost2010PropOp39
 70
     0
102
RTVSPost2010Prop40
 90
        0
102
RTVSPost2010PropOp40
 70
     0
102
RTVSPost2010Prop41ColorIndex
 90
       18
102
RTVSPost2010Prop41ColorRGB
 90
        0
102
RTVSPost2010PropOp41
 70
     0
102
RTVSPost2010Prop42
 90
       50
102
RTVSPost2010PropOp42
 70
     0
102
RTVSPost2010Prop43
 90
        3
102
RTVSPost2010PropOp43
 70
     0
102
RTVSPost2010Prop44ColorIndex
 90
        5
102
RTVSPost2010Prop44ColorRGB
 90
      255
102
RTVSPost2010PropOp44
 70
     0
102
RTVSPost2010Prop45
280
     0
102
RTVSPost2010PropOp45
 70
     0
102
RTVSPost2010Prop46
 90
       50
102
RTVSPost2010PropOp46
 70
     0
102
RTVSPost2010Prop47
 90
       50
102
RTVSPost2010PropOp47
 70
     0
102
RTVSPost2010Prop48
 90
       50
102
RTVSPost2010PropOp48
 70
     0
102
RTVSPost2010Prop49
280
     0
102
RTVSPost2010PropOp49
 70
     0
102
RTVSPost2010Prop50
 90
       50
102
RTVSPost2010PropOp50
 70
     0
102
RTVSPost2010Prop51ColorIndex
 90
      256
102
RTVSPost2010Prop51ColorRGB
 90
-16777216
102
RTVSPost2010PropOp51
 70
     0
102
RTVSPost2010Prop52
140
1.0
102
RTVSPost2010PropOp52
 70
     0
102
RTVSPost2010Prop53
 90
        2
102
RTVSPost2010PropOp53
 70
     0
102
RTVSPost2010Prop54
  1
strokes_ogs.tif
102
RTVSPost2010PropOp54
 70
     0
102
RTVSPost2010Prop55
280
     0
102
RTVSPost2010PropOp55
 70
     0
102
RTVSPost2010Prop56
140
1.0
102
RTVSPost2010PropOp56
 70
     0
102
RTVSPost2010Prop57
140
1.0
102
RTVSPost2010PropOp57
 70
     0
102
RTVSPropertyOp0
 70
     0
102
RTVSPropertyOp1
 70
     0
102
RTVSPropertyOp2
 70
     0
102
RTVSPropertyOp3
 70
     0
102
RTVSPropertyOp4
 70
     0
102
RTVSPropertyOp5
 70
     0
102
RTVSPropertyOp6
 70
     0
102
RTVSPropertyOp7
 70
     0
102
RTVSPropertyOp8
 70
     0
102
RTVSPropertyOp9
 70
     0
102
RTVSPropertyOp10
 70
     0
102
RTVSPropertyOp11
 70
     0
102
RTVSPropertyOp12
 70
     0
102
RTVSPropertyOp13
 70
     0
102
RTVSPropertyOp14
 70
     2
102
RTVSPropertyOp15
 70
     0
102
RTVSPropertyOp16
 70
     0
102
RTVSPropertyOp17
 70
     0
102
RTVSPropertyOp18
 70
     0
102
RTVSPropertyOp19
 70
     0
102
RTVSPropertyOp20
 70
     0
102
RTVSPropertyOp21
 70
     0
102
RTVSPropertyOp22
 70
     0
102
RTVSPropertyOp23
 70
     0
102
RTVSPropertyOp24
 70
     0
102
RTVSPropertyOp25
 70
     0
102
RTVSPropertyOp26
 70
     0
102
RTVSPropertyOp27
 70
     0
102
RTVSPropertyOp28
 70
     0
102
RTVSPropertyOp29
 70
     0
102
RTVSPropertyOp30
 70
     0
102
RTVSPropertyOp31
 70
     0
102
RTVSPropertyOp32
 70
     0
102
RTVSPropertyOp33
 70
     0
102
RTVSPropertyOp34
 70
     0
102
RTVSPropertyOp35
 70
     0
102
RTVSPropertyOp36
 70
     0
102
RTVSPropertyOp37
 70
     0
102
RTVSPropertyOp38
 70
     0
102
RTVSPropertyOp39
 70
     0
102
RTVSPropertyOp40
 70
     0
102
RTVSPropertyOp41
 70
     0
102
RTVSPropertyOp42
 70
     0
102
RTVSPropertyOp43
 70
     0
102
RTVSPropertyOp44
 70
     0
102
RTVSPropertyOp45
 70
     0
102
RTVSPropertyOp46
 70
     0
102
RTVSPropertyOp47
 70
     0
102
RTVSPropertyOp48
 70
     0
102
RTVSPropertyOp49
 70
     0
102
RTVSPropertyOp50
 70
     0
102
RTVSPropertyOp51
 70
     0
102
RTVSPropertyOp52
 70
     0
102
RTVSPropertyOp53
 70
     0
102
RTVSPropertyOp54
 70
     0
102
RTVSPropertyOp55
 70
     0
102
RTVSPropertyOp56
 70
     0
102
RTVSPropertyOp57
 70
     0
102
RTVSPropertyOp58
 70
     1
102
RTVSPropertyOp59
 70
     1
102
RTVSPropertyOp60
 70
     1
102
RTVSPropertyOp61
 70
     1
102
RTVSPropertyOp62
 70
     1
  0
XRECORD
  5
1635E
102
{ACAD_REACTORS
330
1635D
102
}
330
1635D
100
AcDbXrecord
280
     1
102
RTVSPost2010Prop28
280
     0
102
RTVSPost2010PropOp28
 70
     1
102
RTVSPost2010Prop29
280
     1
102
RTVSPost2010PropOp29
 70
     1
102
RTVSPost2010Prop30
280
     1
102
RTVSPost2010PropOp30
 70
     1
102
RTVSPost2010Prop31
280
     0
102
RTVSPost2010PropOp31
 70
     1
102
RTVSPost2010Prop32
280
     0
102
RTVSPost2010PropOp32
 70
     1
102
RTVSPost2010Prop33
280
     0
102
RTVSPost2010PropOp33
 70
     1
102
RTVSPost2010Prop34
280
     0
102
RTVSPost2010PropOp34
 70
     1
102
RTVSPost2010Prop35
280
     0
102
RTVSPost2010PropOp35
 70
     1
102
RTVSPost2010Prop36
280
     0
102
RTVSPost2010PropOp36
 70
     1
102
RTVSPost2010Prop37
 90
       50
102
RTVSPost2010PropOp37
 70
     1
102
RTVSPost2010Prop38
140
0.0
102
RTVSPost2010PropOp38
 70
     1
102
RTVSPost2010Prop39
140
1.0
102
RTVSPost2010PropOp39
 70
     1
102
RTVSPost2010Prop40
 90
        0
102
RTVSPost2010PropOp40
 70
     1
102
RTVSPost2010Prop41ColorIndex
 90
       18
102
RTVSPost2010Prop41ColorRGB
 90
        0
102
RTVSPost2010PropOp41
 70
     1
102
RTVSPost2010Prop42
 90
       50
102
RTVSPost2010PropOp42
 70
     1
102
RTVSPost2010Prop43
 90
        3
102
RTVSPost2010PropOp43
 70
     1
102
RTVSPost2010Prop44ColorIndex
 90
        5
102
RTVSPost2010Prop44ColorRGB
 90
      255
102
RTVSPost2010PropOp44
 70
     1
102
RTVSPost2010Prop45
280
     0
102
RTVSPost2010PropOp45
 70
     1
102
RTVSPost2010Prop46
 90
       50
102
RTVSPost2010PropOp46
 70
     1
102
RTVSPost2010Prop47
 90
       50
102
RTVSPost2010PropOp47
 70
     1
102
RTVSPost2010Prop48
 90
       50
102
RTVSPost2010PropOp48
 70
     1
102
RTVSPost2010Prop49
280
     0
102
RTVSPost2010PropOp49
 70
     1
102
RTVSPost2010Prop50
 90
       50
102
RTVSPost2010PropOp50
 70
     1
102
RTVSPost2010Prop51ColorIndex
 90
      256
102
RTVSPost2010Prop51ColorRGB
 90
-16777216
102
RTVSPost2010PropOp51
 70
     0
102
RTVSPost2010Prop52
140
1.0
102
RTVSPost2010PropOp52
 70
     0
102
RTVSPost2010Prop53
 90
        2
102
RTVSPost2010PropOp53
 70
     1
102
RTVSPost2010Prop54
  1
strokes_ogs.tif
102
RTVSPost2010PropOp54
 70
     1
102
RTVSPost2010Prop55
280
     0
102
RTVSPost2010PropOp55
 70
     1
102
RTVSPost2010Prop56
140
1.0
102
RTVSPost2010PropOp56
 70
     1
102
RTVSPost2010Prop57
140
1.0
102
RTVSPost2010PropOp57
 70
     1
102
RTVSPropertyOp0
 70
     1
102
RTVSPropertyOp1
 70
     1
102
RTVSPropertyOp2
 70
     1
102
RTVSPropertyOp3
 70
     1
102
RTVSPropertyOp4
 70
     1
102
RTVSPropertyOp5
 70
     1
102
RTVSPropertyOp6
 70
     1
102
RTVSPropertyOp7
 70
     1
102
RTVSPropertyOp8
 70
     1
102
RTVSPropertyOp9
 70
     1
102
RTVSPropertyOp10
 70
     1
102
RTVSPropertyOp11
 70
     1
102
RTVSPropertyOp12
 70
     1
102
RTVSPropertyOp13
 70
     1
102
RTVSPropertyOp14
 70
     1
102
RTVSPropertyOp15
 70
     1
102
RTVSPropertyOp16
 70
     1
102
RTVSPropertyOp17
 70
     1
102
RTVSPropertyOp18
 70
     1
102
RTVSPropertyOp19
 70
     1
102
RTVSPropertyOp20
 70
     1
102
RTVSPropertyOp21
 70
     1
102
RTVSPropertyOp22
 70
     1
102
RTVSPropertyOp23
 70
     1
102
RTVSPropertyOp24
 70
     1
102
RTVSPropertyOp25
 70
     1
102
RTVSPropertyOp26
 70
     1
102
RTVSPropertyOp27
 70
     1
102
RTVSPropertyOp28
 70
     1
102
RTVSPropertyOp29
 70
     1
102
RTVSPropertyOp30
 70
     1
102
RTVSPropertyOp31
 70
     1
102
RTVSPropertyOp32
 70
     1
102
RTVSPropertyOp33
 70
     1
102
RTVSPropertyOp34
 70
     1
102
RTVSPropertyOp35
 70
     1
102
RTVSPropertyOp36
 70
     1
102
RTVSPropertyOp37
 70
     1
102
RTVSPropertyOp38
 70
     1
102
RTVSPropertyOp39
 70
     1
102
RTVSPropertyOp40
 70
     1
102
RTVSPropertyOp41
 70
     1
102
RTVSPropertyOp42
 70
     1
102
RTVSPropertyOp43
 70
     1
102
RTVSPropertyOp44
 70
     1
102
RTVSPropertyOp45
 70
     1
102
RTVSPropertyOp46
 70
     1
102
RTVSPropertyOp47
 70
     1
102
RTVSPropertyOp48
 70
     1
102
RTVSPropertyOp49
 70
     1
102
RTVSPropertyOp50
 70
     1
102
RTVSPropertyOp51
 70
     0
102
RTVSPropertyOp52
 70
     0
102
RTVSPropertyOp53
 70
     1
102
RTVSPropertyOp54
 70
     1
102
RTVSPropertyOp55
 70
     1
102
RTVSPropertyOp56
 70
     1
102
RTVSPropertyOp57
 70
     1
102
RTVSPropertyOp58
 70
     1
102
RTVSPropertyOp59
 70
     1
102
RTVSPropertyOp60
 70
     1
102
RTVSPropertyOp61
 70
     1
102
RTVSPropertyOp62
 70
     1
  0
XRECORD
  5
16342
102
{ACAD_REACTORS
330
16341
102
}
330
16341
100
AcDbXrecord
280
     1
102
RTVSPost2010Prop28
280
     0
102
RTVSPost2010PropOp28
 70
     1
102
RTVSPost2010Prop29
280
     1
102
RTVSPost2010PropOp29
 70
     1
102
RTVSPost2010Prop30
280
     1
102
RTVSPost2010PropOp30
 70
     1
102
RTVSPost2010Prop31
280
     0
102
RTVSPost2010PropOp31
 70
     1
102
RTVSPost2010Prop32
280
     0
102
RTVSPost2010PropOp32
 70
     1
102
RTVSPost2010Prop33
280
     0
102
RTVSPost2010PropOp33
 70
     1
102
RTVSPost2010Prop34
280
     0
102
RTVSPost2010PropOp34
 70
     1
102
RTVSPost2010Prop35
280
     0
102
RTVSPost2010PropOp35
 70
     1
102
RTVSPost2010Prop36
280
     0
102
RTVSPost2010PropOp36
 70
     1
102
RTVSPost2010Prop37
 90
       50
102
RTVSPost2010PropOp37
 70
     1
102
RTVSPost2010Prop38
140
0.0
102
RTVSPost2010PropOp38
 70
     1
102
RTVSPost2010Prop39
140
1.0
102
RTVSPost2010PropOp39
 70
     1
102
RTVSPost2010Prop40
 90
        0
102
RTVSPost2010PropOp40
 70
     1
102
RTVSPost2010Prop41ColorIndex
 90
       18
102
RTVSPost2010Prop41ColorRGB
 90
        0
102
RTVSPost2010PropOp41
 70
     1
102
RTVSPost2010Prop42
 90
       50
102
RTVSPost2010PropOp42
 70
     1
102
RTVSPost2010Prop43
 90
        3
102
RTVSPost2010PropOp43
 70
     1
102
RTVSPost2010Prop44ColorIndex
 90
        5
102
RTVSPost2010Prop44ColorRGB
 90
      255
102
RTVSPost2010PropOp44
 70
     1
102
RTVSPost2010Prop45
280
     0
102
RTVSPost2010PropOp45
 70
     1
102
RTVSPost2010Prop46
 90
       50
102
RTVSPost2010PropOp46
 70
     1
102
RTVSPost2010Prop47
 90
       50
102
RTVSPost2010PropOp47
 70
     1
102
RTVSPost2010Prop48
 90
       50
102
RTVSPost2010PropOp48
 70
     1
102
RTVSPost2010Prop49
280
     0
102
RTVSPost2010PropOp49
 70
     1
102
RTVSPost2010Prop50
 90
       50
102
RTVSPost2010PropOp50
 70
     1
102
RTVSPost2010Prop51ColorIndex
 90
      256
102
RTVSPost2010Prop51ColorRGB
 90
-16777216
102
RTVSPost2010PropOp51
 70
     0
102
RTVSPost2010Prop52
140
1.0
102
RTVSPost2010PropOp52
 70
     0
102
RTVSPost2010Prop53
 90
        2
102
RTVSPost2010PropOp53
 70
     1
102
RTVSPost2010Prop54
  1
strokes_ogs.tif
102
RTVSPost2010PropOp54
 70
     1
102
RTVSPost2010Prop55
280
     0
102
RTVSPost2010PropOp55
 70
     1
102
RTVSPost2010Prop56
140
1.0
102
RTVSPost2010PropOp56
 70
     1
102
RTVSPost2010Prop57
140
1.0
102
RTVSPost2010PropOp57
 70
     1
102
RTVSPropertyOp0
 70
     1
102
RTVSPropertyOp1
 70
     1
102
RTVSPropertyOp2
 70
     1
102
RTVSPropertyOp3
 70
     1
102
RTVSPropertyOp4
 70
     1
102
RTVSPropertyOp5
 70
     1
102
RTVSPropertyOp6
 70
     1
102
RTVSPropertyOp7
 70
     1
102
RTVSPropertyOp8
 70
     1
102
RTVSPropertyOp9
 70
     1
102
RTVSPropertyOp10
 70
     1
102
RTVSPropertyOp11
 70
     1
102
RTVSPropertyOp12
 70
     1
102
RTVSPropertyOp13
 70
     1
102
RTVSPropertyOp14
 70
     1
102
RTVSPropertyOp15
 70
     1
102
RTVSPropertyOp16
 70
     1
102
RTVSPropertyOp17
 70
     1
102
RTVSPropertyOp18
 70
     1
102
RTVSPropertyOp19
 70
     1
102
RTVSPropertyOp20
 70
     1
102
RTVSPropertyOp21
 70
     1
102
RTVSPropertyOp22
 70
     1
102
RTVSPropertyOp23
 70
     1
102
RTVSPropertyOp24
 70
     1
102
RTVSPropertyOp25
 70
     1
102
RTVSPropertyOp26
 70
     1
102
RTVSPropertyOp27
 70
     1
102
RTVSPropertyOp28
 70
     1
102
RTVSPropertyOp29
 70
     1
102
RTVSPropertyOp30
 70
     1
102
RTVSPropertyOp31
 70
     1
102
RTVSPropertyOp32
 70
     1
102
RTVSPropertyOp33
 70
     1
102
RTVSPropertyOp34
 70
     1
102
RTVSPropertyOp35
 70
     1
102
RTVSPropertyOp36
 70
     1
102
RTVSPropertyOp37
 70
     1
102
RTVSPropertyOp38
 70
     1
102
RTVSPropertyOp39
 70
     1
102
RTVSPropertyOp40
 70
     1
102
RTVSPropertyOp41
 70
     1
102
RTVSPropertyOp42
 70
     1
102
RTVSPropertyOp43
 70
     1
102
RTVSPropertyOp44
 70
     1
102
RTVSPropertyOp45
 70
     1
102
RTVSPropertyOp46
 70
     1
102
RTVSPropertyOp47
 70
     1
102
RTVSPropertyOp48
 70
     1
102
RTVSPropertyOp49
 70
     1
102
RTVSPropertyOp50
 70
     1
102
RTVSPropertyOp51
 70
     0
102
RTVSPropertyOp52
 70
     0
102
RTVSPropertyOp53
 70
     1
102
RTVSPropertyOp54
 70
     1
102
RTVSPropertyOp55
 70
     1
102
RTVSPropertyOp56
 70
     1
102
RTVSPropertyOp57
 70
     1
102
RTVSPropertyOp58
 70
     1
102
RTVSPropertyOp59
 70
     1
102
RTVSPropertyOp60
 70
     1
102
RTVSPropertyOp61
 70
     1
102
RTVSPropertyOp62
 70
     1
  0
XRECORD
  5
16344
102
{ACAD_REACTORS
330
16343
102
}
330
16343
100
AcDbXrecord
280
     1
102
RTVSPost2010Prop28
280
     0
102
RTVSPost2010PropOp28
 70
     1
102
RTVSPost2010Prop29
280
     1
102
RTVSPost2010PropOp29
 70
     1
102
RTVSPost2010Prop30
280
     1
102
RTVSPost2010PropOp30
 70
     1
102
RTVSPost2010Prop31
280
     0
102
RTVSPost2010PropOp31
 70
     1
102
RTVSPost2010Prop32
280
     0
102
RTVSPost2010PropOp32
 70
     1
102
RTVSPost2010Prop33
280
     0
102
RTVSPost2010PropOp33
 70
     1
102
RTVSPost2010Prop34
280
     0
102
RTVSPost2010PropOp34
 70
     1
102
RTVSPost2010Prop35
280
     0
102
RTVSPost2010PropOp35
 70
     1
102
RTVSPost2010Prop36
280
     0
102
RTVSPost2010PropOp36
 70
     1
102
RTVSPost2010Prop37
 90
       50
102
RTVSPost2010PropOp37
 70
     1
102
RTVSPost2010Prop38
140
0.0
102
RTVSPost2010PropOp38
 70
     1
102
RTVSPost2010Prop39
140
1.0
102
RTVSPost2010PropOp39
 70
     1
102
RTVSPost2010Prop40
 90
        0
102
RTVSPost2010PropOp40
 70
     1
102
RTVSPost2010Prop41ColorIndex
 90
       18
102
RTVSPost2010Prop41ColorRGB
 90
        0
102
RTVSPost2010PropOp41
 70
     1
102
RTVSPost2010Prop42
 90
       50
102
RTVSPost2010PropOp42
 70
     1
102
RTVSPost2010Prop43
 90
        3
102
RTVSPost2010PropOp43
 70
     1
102
RTVSPost2010Prop44ColorIndex
 90
        5
102
RTVSPost2010Prop44ColorRGB
 90
      255
102
RTVSPost2010PropOp44
 70
     1
102
RTVSPost2010Prop45
280
     0
102
RTVSPost2010PropOp45
 70
     1
102
RTVSPost2010Prop46
 90
       50
102
RTVSPost2010PropOp46
 70
     1
102
RTVSPost2010Prop47
 90
       50
102
RTVSPost2010PropOp47
 70
     1
102
RTVSPost2010Prop48
 90
       50
102
RTVSPost2010PropOp48
 70
     1
102
RTVSPost2010Prop49
280
     0
102
RTVSPost2010PropOp49
 70
     1
102
RTVSPost2010Prop50
 90
       50
102
RTVSPost2010PropOp50
 70
     1
102
RTVSPost2010Prop51ColorIndex
 90
      256
102
RTVSPost2010Prop51ColorRGB
 90
-16777216
102
RTVSPost2010PropOp51
 70
     0
102
RTVSPost2010Prop52
140
1.0
102
RTVSPost2010PropOp52
 70
     0
102
RTVSPost2010Prop53
 90
        2
102
RTVSPost2010PropOp53
 70
     1
102
RTVSPost2010Prop54
  1
strokes_ogs.tif
102
RTVSPost2010PropOp54
 70
     1
102
RTVSPost2010Prop55
280
     0
102
RTVSPost2010PropOp55
 70
     1
102
RTVSPost2010Prop56
140
1.0
102
RTVSPost2010PropOp56
 70
     1
102
RTVSPost2010Prop57
140
1.0
102
RTVSPost2010PropOp57
 70
     1
102
RTVSPropertyOp0
 70
     1
102
RTVSPropertyOp1
 70
     1
102
RTVSPropertyOp2
 70
     1
102
RTVSPropertyOp3
 70
     1
102
RTVSPropertyOp4
 70
     1
102
RTVSPropertyOp5
 70
     1
102
RTVSPropertyOp6
 70
     1
102
RTVSPropertyOp7
 70
     1
102
RTVSPropertyOp8
 70
     1
102
RTVSPropertyOp9
 70
     1
102
RTVSPropertyOp10
 70
     1
102
RTVSPropertyOp11
 70
     1
102
RTVSPropertyOp12
 70
     1
102
RTVSPropertyOp13
 70
     1
102
RTVSPropertyOp14
 70
     1
102
RTVSPropertyOp15
 70
     1
102
RTVSPropertyOp16
 70
     1
102
RTVSPropertyOp17
 70
     1
102
RTVSPropertyOp18
 70
     1
102
RTVSPropertyOp19
 70
     1
102
RTVSPropertyOp20
 70
     1
102
RTVSPropertyOp21
 70
     1
102
RTVSPropertyOp22
 70
     1
102
RTVSPropertyOp23
 70
     1
102
RTVSPropertyOp24
 70
     1
102
RTVSPropertyOp25
 70
     1
102
RTVSPropertyOp26
 70
     1
102
RTVSPropertyOp27
 70
     1
102
RTVSPropertyOp28
 70
     1
102
RTVSPropertyOp29
 70
     1
102
RTVSPropertyOp30
 70
     1
102
RTVSPropertyOp31
 70
     1
102
RTVSPropertyOp32
 70
     1
102
RTVSPropertyOp33
 70
     1
102
RTVSPropertyOp34
 70
     1
102
RTVSPropertyOp35
 70
     1
102
RTVSPropertyOp36
 70
     1
102
RTVSPropertyOp37
 70
     1
102
RTVSPropertyOp38
 70
     1
102
RTVSPropertyOp39
 70
     1
102
RTVSPropertyOp40
 70
     1
102
RTVSPropertyOp41
 70
     1
102
RTVSPropertyOp42
 70
     1
102
RTVSPropertyOp43
 70
     1
102
RTVSPropertyOp44
 70
     1
102
RTVSPropertyOp45
 70
     1
102
RTVSPropertyOp46
 70
     1
102
RTVSPropertyOp47
 70
     1
102
RTVSPropertyOp48
 70
     1
102
RTVSPropertyOp49
 70
     1
102
RTVSPropertyOp50
 70
     1
102
RTVSPropertyOp51
 70
     0
102
RTVSPropertyOp52
 70
     0
102
RTVSPropertyOp53
 70
     1
102
RTVSPropertyOp54
 70
     1
102
RTVSPropertyOp55
 70
     1
102
RTVSPropertyOp56
 70
     1
102
RTVSPropertyOp57
 70
     1
102
RTVSPropertyOp58
 70
     1
102
RTVSPropertyOp59
 70
     1
102
RTVSPropertyOp60
 70
     1
102
RTVSPropertyOp61
 70
     1
102
RTVSPropertyOp62
 70
     1
  0
XRECORD
  5
16346
102
{ACAD_REACTORS
330
16345
102
}
330
16345
100
AcDbXrecord
280
     1
102
RTVSPost2010Prop28
280
     0
102
RTVSPost2010PropOp28
 70
     1
102
RTVSPost2010Prop29
280
     1
102
RTVSPost2010PropOp29
 70
     1
102
RTVSPost2010Prop30
280
     1
102
RTVSPost2010PropOp30
 70
     1
102
RTVSPost2010Prop31
280
     0
102
RTVSPost2010PropOp31
 70
     1
102
RTVSPost2010Prop32
280
     0
102
RTVSPost2010PropOp32
 70
     1
102
RTVSPost2010Prop33
280
     0
102
RTVSPost2010PropOp33
 70
     1
102
RTVSPost2010Prop34
280
     0
102
RTVSPost2010PropOp34
 70
     1
102
RTVSPost2010Prop35
280
     0
102
RTVSPost2010PropOp35
 70
     1
102
RTVSPost2010Prop36
280
     0
102
RTVSPost2010PropOp36
 70
     1
102
RTVSPost2010Prop37
 90
       50
102
RTVSPost2010PropOp37
 70
     1
102
RTVSPost2010Prop38
140
0.0
102
RTVSPost2010PropOp38
 70
     1
102
RTVSPost2010Prop39
140
1.0
102
RTVSPost2010PropOp39
 70
     1
102
RTVSPost2010Prop40
 90
        0
102
RTVSPost2010PropOp40
 70
     1
102
RTVSPost2010Prop41ColorIndex
 90
       18
102
RTVSPost2010Prop41ColorRGB
 90
        0
102
RTVSPost2010PropOp41
 70
     1
102
RTVSPost2010Prop42
 90
       50
102
RTVSPost2010PropOp42
 70
     1
102
RTVSPost2010Prop43
 90
        3
102
RTVSPost2010PropOp43
 70
     1
102
RTVSPost2010Prop44ColorIndex
 90
        5
102
RTVSPost2010Prop44ColorRGB
 90
      255
102
RTVSPost2010PropOp44
 70
     1
102
RTVSPost2010Prop45
280
     0
102
RTVSPost2010PropOp45
 70
     1
102
RTVSPost2010Prop46
 90
       50
102
RTVSPost2010PropOp46
 70
     1
102
RTVSPost2010Prop47
 90
       50
102
RTVSPost2010PropOp47
 70
     1
102
RTVSPost2010Prop48
 90
       50
102
RTVSPost2010PropOp48
 70
     1
102
RTVSPost2010Prop49
280
     0
102
RTVSPost2010PropOp49
 70
     1
102
RTVSPost2010Prop50
 90
       50
102
RTVSPost2010PropOp50
 70
     1
102
RTVSPost2010Prop51ColorIndex
 90
      256
102
RTVSPost2010Prop51ColorRGB
 90
-16777216
102
RTVSPost2010PropOp51
 70
     0
102
RTVSPost2010Prop52
140
1.0
102
RTVSPost2010PropOp52
 70
     0
102
RTVSPost2010Prop53
 90
        2
102
RTVSPost2010PropOp53
 70
     1
102
RTVSPost2010Prop54
  1
strokes_ogs.tif
102
RTVSPost2010PropOp54
 70
     1
102
RTVSPost2010Prop55
280
     0
102
RTVSPost2010PropOp55
 70
     1
102
RTVSPost2010Prop56
140
1.0
102
RTVSPost2010PropOp56
 70
     1
102
RTVSPost2010Prop57
140
1.0
102
RTVSPost2010PropOp57
 70
     1
102
RTVSPropertyOp0
 70
     1
102
RTVSPropertyOp1
 70
     1
102
RTVSPropertyOp2
 70
     1
102
RTVSPropertyOp3
 70
     1
102
RTVSPropertyOp4
 70
     1
102
RTVSPropertyOp5
 70
     1
102
RTVSPropertyOp6
 70
     1
102
RTVSPropertyOp7
 70
     1
102
RTVSPropertyOp8
 70
     1
102
RTVSPropertyOp9
 70
     1
102
RTVSPropertyOp10
 70
     1
102
RTVSPropertyOp11
 70
     1
102
RTVSPropertyOp12
 70
     1
102
RTVSPropertyOp13
 70
     1
102
RTVSPropertyOp14
 70
     1
102
RTVSPropertyOp15
 70
     1
102
RTVSPropertyOp16
 70
     1
102
RTVSPropertyOp17
 70
     1
102
RTVSPropertyOp18
 70
     1
102
RTVSPropertyOp19
 70
     1
102
RTVSPropertyOp20
 70
     1
102
RTVSPropertyOp21
 70
     1
102
RTVSPropertyOp22
 70
     1
102
RTVSPropertyOp23
 70
     1
102
RTVSPropertyOp24
 70
     1
102
RTVSPropertyOp25
 70
     1
102
RTVSPropertyOp26
 70
     1
102
RTVSPropertyOp27
 70
     1
102
RTVSPropertyOp28
 70
     1
102
RTVSPropertyOp29
 70
     1
102
RTVSPropertyOp30
 70
     1
102
RTVSPropertyOp31
 70
     1
102
RTVSPropertyOp32
 70
     1
102
RTVSPropertyOp33
 70
     1
102
RTVSPropertyOp34
 70
     1
102
RTVSPropertyOp35
 70
     1
102
RTVSPropertyOp36
 70
     1
102
RTVSPropertyOp37
 70
     1
102
RTVSPropertyOp38
 70
     1
102
RTVSPropertyOp39
 70
     1
102
RTVSPropertyOp40
 70
     1
102
RTVSPropertyOp41
 70
     1
102
RTVSPropertyOp42
 70
     1
102
RTVSPropertyOp43
 70
     1
102
RTVSPropertyOp44
 70
     1
102
RTVSPropertyOp45
 70
     1
102
RTVSPropertyOp46
 70
     1
102
RTVSPropertyOp47
 70
     1
102
RTVSPropertyOp48
 70
     1
102
RTVSPropertyOp49
 70
     1
102
RTVSPropertyOp50
 70
     1
102
RTVSPropertyOp51
 70
     0
102
RTVSPropertyOp52
 70
     0
102
RTVSPropertyOp53
 70
     1
102
RTVSPropertyOp54
 70
     1
102
RTVSPropertyOp55
 70
     1
102
RTVSPropertyOp56
 70
     1
102
RTVSPropertyOp57
 70
     1
102
RTVSPropertyOp58
 70
     1
102
RTVSPropertyOp59
 70
     1
102
RTVSPropertyOp60
 70
     1
102
RTVSPropertyOp61
 70
     1
102
RTVSPropertyOp62
 70
     1
  0
XRECORD
  5
16348
102
{ACAD_REACTORS
330
16347
102
}
330
16347
100
AcDbXrecord
280
     1
102
RTVSPost2010Prop28
280
     0
102
RTVSPost2010PropOp28
 70
     1
102
RTVSPost2010Prop29
280
     1
102
RTVSPost2010PropOp29
 70
     1
102
RTVSPost2010Prop30
280
     1
102
RTVSPost2010PropOp30
 70
     1
102
RTVSPost2010Prop31
280
     0
102
RTVSPost2010PropOp31
 70
     1
102
RTVSPost2010Prop32
280
     0
102
RTVSPost2010PropOp32
 70
     1
102
RTVSPost2010Prop33
280
     0
102
RTVSPost2010PropOp33
 70
     1
102
RTVSPost2010Prop34
280
     0
102
RTVSPost2010PropOp34
 70
     1
102
RTVSPost2010Prop35
280
     0
102
RTVSPost2010PropOp35
 70
     1
102
RTVSPost2010Prop36
280
     0
102
RTVSPost2010PropOp36
 70
     1
102
RTVSPost2010Prop37
 90
       50
102
RTVSPost2010PropOp37
 70
     1
102
RTVSPost2010Prop38
140
0.0
102
RTVSPost2010PropOp38
 70
     1
102
RTVSPost2010Prop39
140
1.0
102
RTVSPost2010PropOp39
 70
     1
102
RTVSPost2010Prop40
 90
        0
102
RTVSPost2010PropOp40
 70
     1
102
RTVSPost2010Prop41ColorIndex
 90
       18
102
RTVSPost2010Prop41ColorRGB
 90
        0
102
RTVSPost2010PropOp41
 70
     1
102
RTVSPost2010Prop42
 90
       50
102
RTVSPost2010PropOp42
 70
     1
102
RTVSPost2010Prop43
 90
        3
102
RTVSPost2010PropOp43
 70
     1
102
RTVSPost2010Prop44ColorIndex
 90
        5
102
RTVSPost2010Prop44ColorRGB
 90
      255
102
RTVSPost2010PropOp44
 70
     1
102
RTVSPost2010Prop45
280
     0
102
RTVSPost2010PropOp45
 70
     1
102
RTVSPost2010Prop46
 90
       50
102
RTVSPost2010PropOp46
 70
     1
102
RTVSPost2010Prop47
 90
       50
102
RTVSPost2010PropOp47
 70
     1
102
RTVSPost2010Prop48
 90
       50
102
RTVSPost2010PropOp48
 70
     1
102
RTVSPost2010Prop49
280
     0
102
RTVSPost2010PropOp49
 70
     1
102
RTVSPost2010Prop50
 90
       50
102
RTVSPost2010PropOp50
 70
     1
102
RTVSPost2010Prop51ColorIndex
 90
      256
102
RTVSPost2010Prop51ColorRGB
 90
-16777216
102
RTVSPost2010PropOp51
 70
     0
102
RTVSPost2010Prop52
140
1.0
102
RTVSPost2010PropOp52
 70
     0
102
RTVSPost2010Prop53
 90
        2
102
RTVSPost2010PropOp53
 70
     1
102
RTVSPost2010Prop54
  1
strokes_ogs.tif
102
RTVSPost2010PropOp54
 70
     1
102
RTVSPost2010Prop55
280
     0
102
RTVSPost2010PropOp55
 70
     1
102
RTVSPost2010Prop56
140
1.0
102
RTVSPost2010PropOp56
 70
     1
102
RTVSPost2010Prop57
140
1.0
102
RTVSPost2010PropOp57
 70
     1
102
RTVSPropertyOp0
 70
     1
102
RTVSPropertyOp1
 70
     1
102
RTVSPropertyOp2
 70
     1
102
RTVSPropertyOp3
 70
     1
102
RTVSPropertyOp4
 70
     1
102
RTVSPropertyOp5
 70
     1
102
RTVSPropertyOp6
 70
     1
102
RTVSPropertyOp7
 70
     1
102
RTVSPropertyOp8
 70
     1
102
RTVSPropertyOp9
 70
     1
102
RTVSPropertyOp10
 70
     1
102
RTVSPropertyOp11
 70
     1
102
RTVSPropertyOp12
 70
     1
102
RTVSPropertyOp13
 70
     1
102
RTVSPropertyOp14
 70
     1
102
RTVSPropertyOp15
 70
     1
102
RTVSPropertyOp16
 70
     1
102
RTVSPropertyOp17
 70
     1
102
RTVSPropertyOp18
 70
     1
102
RTVSPropertyOp19
 70
     1
102
RTVSPropertyOp20
 70
     1
102
RTVSPropertyOp21
 70
     1
102
RTVSPropertyOp22
 70
     1
102
RTVSPropertyOp23
 70
     1
102
RTVSPropertyOp24
 70
     1
102
RTVSPropertyOp25
 70
     1
102
RTVSPropertyOp26
 70
     1
102
RTVSPropertyOp27
 70
     1
102
RTVSPropertyOp28
 70
     1
102
RTVSPropertyOp29
 70
     1
102
RTVSPropertyOp30
 70
     1
102
RTVSPropertyOp31
 70
     1
102
RTVSPropertyOp32
 70
     1
102
RTVSPropertyOp33
 70
     1
102
RTVSPropertyOp34
 70
     1
102
RTVSPropertyOp35
 70
     1
102
RTVSPropertyOp36
 70
     1
102
RTVSPropertyOp37
 70
     1
102
RTVSPropertyOp38
 70
     1
102
RTVSPropertyOp39
 70
     1
102
RTVSPropertyOp40
 70
     1
102
RTVSPropertyOp41
 70
     1
102
RTVSPropertyOp42
 70
     1
102
RTVSPropertyOp43
 70
     1
102
RTVSPropertyOp44
 70
     1
102
RTVSPropertyOp45
 70
     1
102
RTVSPropertyOp46
 70
     1
102
RTVSPropertyOp47
 70
     1
102
RTVSPropertyOp48
 70
     1
102
RTVSPropertyOp49
 70
     1
102
RTVSPropertyOp50
 70
     1
102
RTVSPropertyOp51
 70
     0
102
RTVSPropertyOp52
 70
     0
102
RTVSPropertyOp53
 70
     1
102
RTVSPropertyOp54
 70
     1
102
RTVSPropertyOp55
 70
     1
102
RTVSPropertyOp56
 70
     1
102
RTVSPropertyOp57
 70
     1
102
RTVSPropertyOp58
 70
     1
102
RTVSPropertyOp59
 70
     1
102
RTVSPropertyOp60
 70
     1
102
RTVSPropertyOp61
 70
     1
102
RTVSPropertyOp62
 70
     1
  0
XRECORD
  5
16350
102
{ACAD_REACTORS
330
1634F
102
}
330
1634F
100
AcDbXrecord
280
     1
102
RTVSPost2010Prop28
280
     0
102
RTVSPost2010PropOp28
 70
     1
102
RTVSPost2010Prop29
280
     1
102
RTVSPost2010PropOp29
 70
     1
102
RTVSPost2010Prop30
280
     1
102
RTVSPost2010PropOp30
 70
     1
102
RTVSPost2010Prop31
280
     0
102
RTVSPost2010PropOp31
 70
     1
102
RTVSPost2010Prop32
280
     0
102
RTVSPost2010PropOp32
 70
     1
102
RTVSPost2010Prop33
280
     0
102
RTVSPost2010PropOp33
 70
     1
102
RTVSPost2010Prop34
280
     0
102
RTVSPost2010PropOp34
 70
     1
102
RTVSPost2010Prop35
280
     0
102
RTVSPost2010PropOp35
 70
     1
102
RTVSPost2010Prop36
280
     0
102
RTVSPost2010PropOp36
 70
     1
102
RTVSPost2010Prop37
 90
       50
102
RTVSPost2010PropOp37
 70
     1
102
RTVSPost2010Prop38
140
0.0
102
RTVSPost2010PropOp38
 70
     1
102
RTVSPost2010Prop39
140
1.0
102
RTVSPost2010PropOp39
 70
     1
102
RTVSPost2010Prop40
 90
        0
102
RTVSPost2010PropOp40
 70
     1
102
RTVSPost2010Prop41ColorIndex
 90
       18
102
RTVSPost2010Prop41ColorRGB
 90
        0
102
RTVSPost2010PropOp41
 70
     1
102
RTVSPost2010Prop42
 90
       50
102
RTVSPost2010PropOp42
 70
     1
102
RTVSPost2010Prop43
 90
        3
102
RTVSPost2010PropOp43
 70
     1
102
RTVSPost2010Prop44ColorIndex
 90
        5
102
RTVSPost2010Prop44ColorRGB
 90
      255
102
RTVSPost2010PropOp44
 70
     1
102
RTVSPost2010Prop45
280
     0
102
RTVSPost2010PropOp45
 70
     1
102
RTVSPost2010Prop46
 90
       50
102
RTVSPost2010PropOp46
 70
     1
102
RTVSPost2010Prop47
 90
       50
102
RTVSPost2010PropOp47
 70
     1
102
RTVSPost2010Prop48
 90
       50
102
RTVSPost2010PropOp48
 70
     1
102
RTVSPost2010Prop49
280
     0
102
RTVSPost2010PropOp49
 70
     1
102
RTVSPost2010Prop50
 90
       50
102
RTVSPost2010PropOp50
 70
     1
102
RTVSPost2010Prop51ColorIndex
 90
      256
102
RTVSPost2010Prop51ColorRGB
 90
-16777216
102
RTVSPost2010PropOp51
 70
     0
102
RTVSPost2010Prop52
140
1.0
102
RTVSPost2010PropOp52
 70
     0
102
RTVSPost2010Prop53
 90
        2
102
RTVSPost2010PropOp53
 70
     1
102
RTVSPost2010Prop54
  1
strokes_ogs.tif
102
RTVSPost2010PropOp54
 70
     1
102
RTVSPost2010Prop55
280
     0
102
RTVSPost2010PropOp55
 70
     1
102
RTVSPost2010Prop56
140
1.0
102
RTVSPost2010PropOp56
 70
     1
102
RTVSPost2010Prop57
140
1.0
102
RTVSPost2010PropOp57
 70
     1
102
RTVSPropertyOp0
 70
     1
102
RTVSPropertyOp1
 70
     1
102
RTVSPropertyOp2
 70
     1
102
RTVSPropertyOp3
 70
     1
102
RTVSPropertyOp4
 70
     1
102
RTVSPropertyOp5
 70
     1
102
RTVSPropertyOp6
 70
     1
102
RTVSPropertyOp7
 70
     1
102
RTVSPropertyOp8
 70
     1
102
RTVSPropertyOp9
 70
     1
102
RTVSPropertyOp10
 70
     1
102
RTVSPropertyOp11
 70
     1
102
RTVSPropertyOp12
 70
     1
102
RTVSPropertyOp13
 70
     1
102
RTVSPropertyOp14
 70
     1
102
RTVSPropertyOp15
 70
     1
102
RTVSPropertyOp16
 70
     1
102
RTVSPropertyOp17
 70
     1
102
RTVSPropertyOp18
 70
     1
102
RTVSPropertyOp19
 70
     1
102
RTVSPropertyOp20
 70
     1
102
RTVSPropertyOp21
 70
     1
102
RTVSPropertyOp22
 70
     1
102
RTVSPropertyOp23
 70
     1
102
RTVSPropertyOp24
 70
     1
102
RTVSPropertyOp25
 70
     1
102
RTVSPropertyOp26
 70
     1
102
RTVSPropertyOp27
 70
     1
102
RTVSPropertyOp28
 70
     1
102
RTVSPropertyOp29
 70
     1
102
RTVSPropertyOp30
 70
     1
102
RTVSPropertyOp31
 70
     1
102
RTVSPropertyOp32
 70
     1
102
RTVSPropertyOp33
 70
     1
102
RTVSPropertyOp34
 70
     1
102
RTVSPropertyOp35
 70
     1
102
RTVSPropertyOp36
 70
     1
102
RTVSPropertyOp37
 70
     1
102
RTVSPropertyOp38
 70
     1
102
RTVSPropertyOp39
 70
     1
102
RTVSPropertyOp40
 70
     1
102
RTVSPropertyOp41
 70
     1
102
RTVSPropertyOp42
 70
     1
102
RTVSPropertyOp43
 70
     1
102
RTVSPropertyOp44
 70
     1
102
RTVSPropertyOp45
 70
     1
102
RTVSPropertyOp46
 70
     1
102
RTVSPropertyOp47
 70
     1
102
RTVSPropertyOp48
 70
     1
102
RTVSPropertyOp49
 70
     1
102
RTVSPropertyOp50
 70
     1
102
RTVSPropertyOp51
 70
     0
102
RTVSPropertyOp52
 70
     0
102
RTVSPropertyOp53
 70
     1
102
RTVSPropertyOp54
 70
     1
102
RTVSPropertyOp55
 70
     1
102
RTVSPropertyOp56
 70
     1
102
RTVSPropertyOp57
 70
     1
102
RTVSPropertyOp58
 70
     1
102
RTVSPropertyOp59
 70
     1
102
RTVSPropertyOp60
 70
     1
102
RTVSPropertyOp61
 70
     1
102
RTVSPropertyOp62
 70
     1
  0
XRECORD
  5
1636C
102
{ACAD_REACTORS
330
1636B
102
}
330
1636B
100
AcDbXrecord
280
     1
102
RTVSPost2010Prop28
280
     0
102
RTVSPost2010PropOp28
 70
     0
102
RTVSPost2010Prop29
280
     1
102
RTVSPost2010PropOp29
 70
     0
102
RTVSPost2010Prop30
280
     1
102
RTVSPost2010PropOp30
 70
     0
102
RTVSPost2010Prop31
280
     0
102
RTVSPost2010PropOp31
 70
     0
102
RTVSPost2010Prop32
280
     0
102
RTVSPost2010PropOp32
 70
     0
102
RTVSPost2010Prop33
280
     0
102
RTVSPost2010PropOp33
 70
     0
102
RTVSPost2010Prop34
280
     0
102
RTVSPost2010PropOp34
 70
     0
102
RTVSPost2010Prop35
280
     0
102
RTVSPost2010PropOp35
 70
     0
102
RTVSPost2010Prop36
280
     0
102
RTVSPost2010PropOp36
 70
     0
102
RTVSPost2010Prop37
 90
       50
102
RTVSPost2010PropOp37
 70
     0
102
RTVSPost2010Prop38
140
0.0
102
RTVSPost2010PropOp38
 70
     0
102
RTVSPost2010Prop39
140
1.0
102
RTVSPost2010PropOp39
 70
     0
102
RTVSPost2010Prop40
 90
        0
102
RTVSPost2010PropOp40
 70
     0
102
RTVSPost2010Prop41ColorIndex
 90
       18
102
RTVSPost2010Prop41ColorRGB
 90
        0
102
RTVSPost2010PropOp41
 70
     0
102
RTVSPost2010Prop42
 90
       50
102
RTVSPost2010PropOp42
 70
     0
102
RTVSPost2010Prop43
 90
        3
102
RTVSPost2010PropOp43
 70
     0
102
RTVSPost2010Prop44ColorIndex
 90
        5
102
RTVSPost2010Prop44ColorRGB
 90
      255
102
RTVSPost2010PropOp44
 70
     0
102
RTVSPost2010Prop45
280
     0
102
RTVSPost2010PropOp45
 70
     0
102
RTVSPost2010Prop46
 90
       50
102
RTVSPost2010PropOp46
 70
     0
102
RTVSPost2010Prop47
 90
       50
102
RTVSPost2010PropOp47
 70
     0
102
RTVSPost2010Prop48
 90
       50
102
RTVSPost2010PropOp48
 70
     0
102
RTVSPost2010Prop49
280
     0
102
RTVSPost2010PropOp49
 70
     0
102
RTVSPost2010Prop50
 90
       50
102
RTVSPost2010PropOp50
 70
     0
102
RTVSPost2010Prop51ColorIndex
 90
      256
102
RTVSPost2010Prop51ColorRGB
 90
-16777216
102
RTVSPost2010PropOp51
 70
     0
102
RTVSPost2010Prop52
140
1.0
102
RTVSPost2010PropOp52
 70
     0
102
RTVSPost2010Prop53
 90
        2
102
RTVSPost2010PropOp53
 70
     0
102
RTVSPost2010Prop54
  1
strokes_ogs.tif
102
RTVSPost2010PropOp54
 70
     0
102
RTVSPost2010Prop55
280
     0
102
RTVSPost2010PropOp55
 70
     0
102
RTVSPost2010Prop56
140
1.0
102
RTVSPost2010PropOp56
 70
     0
102
RTVSPost2010Prop57
140
1.0
102
RTVSPost2010PropOp57
 70
     0
102
RTVSPropertyOp0
 70
     0
102
RTVSPropertyOp1
 70
     0
102
RTVSPropertyOp2
 70
     0
102
RTVSPropertyOp3
 70
     0
102
RTVSPropertyOp4
 70
     0
102
RTVSPropertyOp5
 70
     0
102
RTVSPropertyOp6
 70
     0
102
RTVSPropertyOp7
 70
     0
102
RTVSPropertyOp8
 70
     0
102
RTVSPropertyOp9
 70
     0
102
RTVSPropertyOp10
 70
     0
102
RTVSPropertyOp11
 70
     0
102
RTVSPropertyOp12
 70
     0
102
RTVSPropertyOp13
 70
     0
102
RTVSPropertyOp14
 70
     2
102
RTVSPropertyOp15
 70
     0
102
RTVSPropertyOp16
 70
     0
102
RTVSPropertyOp17
 70
     0
102
RTVSPropertyOp18
 70
     0
102
RTVSPropertyOp19
 70
     0
102
RTVSPropertyOp20
 70
     0
102
RTVSPropertyOp21
 70
     0
102
RTVSPropertyOp22
 70
     0
102
RTVSPropertyOp23
 70
     0
102
RTVSPropertyOp24
 70
     0
102
RTVSPropertyOp25
 70
     0
102
RTVSPropertyOp26
 70
     0
102
RTVSPropertyOp27
 70
     0
102
RTVSPropertyOp28
 70
     0
102
RTVSPropertyOp29
 70
     0
102
RTVSPropertyOp30
 70
     0
102
RTVSPropertyOp31
 70
     0
102
RTVSPropertyOp32
 70
     0
102
RTVSPropertyOp33
 70
     0
102
RTVSPropertyOp34
 70
     0
102
RTVSPropertyOp35
 70
     0
102
RTVSPropertyOp36
 70
     0
102
RTVSPropertyOp37
 70
     0
102
RTVSPropertyOp38
 70
     0
102
RTVSPropertyOp39
 70
     0
102
RTVSPropertyOp40
 70
     0
102
RTVSPropertyOp41
 70
     0
102
RTVSPropertyOp42
 70
     0
102
RTVSPropertyOp43
 70
     0
102
RTVSPropertyOp44
 70
     0
102
RTVSPropertyOp45
 70
     0
102
RTVSPropertyOp46
 70
     0
102
RTVSPropertyOp47
 70
     0
102
RTVSPropertyOp48
 70
     0
102
RTVSPropertyOp49
 70
     0
102
RTVSPropertyOp50
 70
     0
102
RTVSPropertyOp51
 70
     0
102
RTVSPropertyOp52
 70
     0
102
RTVSPropertyOp53
 70
     0
102
RTVSPropertyOp54
 70
     0
102
RTVSPropertyOp55
 70
     0
102
RTVSPropertyOp56
 70
     0
102
RTVSPropertyOp57
 70
     0
102
RTVSPropertyOp58
 70
     1
102
RTVSPropertyOp59
 70
     1
102
RTVSPropertyOp60
 70
     1
102
RTVSPropertyOp61
 70
     1
102
RTVSPropertyOp62
 70
     1
  0
XRECORD
  5
1635C
102
{ACAD_REACTORS
330
1635B
102
}
330
1635B
100
AcDbXrecord
280
     1
102
RTVSPost2010Prop28
280
     0
102
RTVSPost2010PropOp28
 70
     1
102
RTVSPost2010Prop29
280
     1
102
RTVSPost2010PropOp29
 70
     1
102
RTVSPost2010Prop30
280
     1
102
RTVSPost2010PropOp30
 70
     1
102
RTVSPost2010Prop31
280
     0
102
RTVSPost2010PropOp31
 70
     1
102
RTVSPost2010Prop32
280
     0
102
RTVSPost2010PropOp32
 70
     1
102
RTVSPost2010Prop33
280
     0
102
RTVSPost2010PropOp33
 70
     1
102
RTVSPost2010Prop34
280
     0
102
RTVSPost2010PropOp34
 70
     1
102
RTVSPost2010Prop35
280
     0
102
RTVSPost2010PropOp35
 70
     1
102
RTVSPost2010Prop36
280
     0
102
RTVSPost2010PropOp36
 70
     1
102
RTVSPost2010Prop37
 90
       50
102
RTVSPost2010PropOp37
 70
     1
102
RTVSPost2010Prop38
140
0.0
102
RTVSPost2010PropOp38
 70
     1
102
RTVSPost2010Prop39
140
1.0
102
RTVSPost2010PropOp39
 70
     1
102
RTVSPost2010Prop40
 90
        0
102
RTVSPost2010PropOp40
 70
     1
102
RTVSPost2010Prop41ColorIndex
 90
       18
102
RTVSPost2010Prop41ColorRGB
 90
        0
102
RTVSPost2010PropOp41
 70
     1
102
RTVSPost2010Prop42
 90
       50
102
RTVSPost2010PropOp42
 70
     1
102
RTVSPost2010Prop43
 90
        3
102
RTVSPost2010PropOp43
 70
     1
102
RTVSPost2010Prop44ColorIndex
 90
        5
102
RTVSPost2010Prop44ColorRGB
 90
      255
102
RTVSPost2010PropOp44
 70
     1
102
RTVSPost2010Prop45
280
     0
102
RTVSPost2010PropOp45
 70
     1
102
RTVSPost2010Prop46
 90
       50
102
RTVSPost2010PropOp46
 70
     1
102
RTVSPost2010Prop47
 90
       50
102
RTVSPost2010PropOp47
 70
     1
102
RTVSPost2010Prop48
 90
       50
102
RTVSPost2010PropOp48
 70
     1
102
RTVSPost2010Prop49
280
     0
102
RTVSPost2010PropOp49
 70
     1
102
RTVSPost2010Prop50
 90
       50
102
RTVSPost2010PropOp50
 70
     1
102
RTVSPost2010Prop51ColorIndex
 90
      256
102
RTVSPost2010Prop51ColorRGB
 90
-16777216
102
RTVSPost2010PropOp51
 70
     0
102
RTVSPost2010Prop52
140
1.0
102
RTVSPost2010PropOp52
 70
     0
102
RTVSPost2010Prop53
 90
        2
102
RTVSPost2010PropOp53
 70
     1
102
RTVSPost2010Prop54
  1
strokes_ogs.tif
102
RTVSPost2010PropOp54
 70
     1
102
RTVSPost2010Prop55
280
     0
102
RTVSPost2010PropOp55
 70
     1
102
RTVSPost2010Prop56
140
1.0
102
RTVSPost2010PropOp56
 70
     1
102
RTVSPost2010Prop57
140
1.0
102
RTVSPost2010PropOp57
 70
     1
102
RTVSPropertyOp0
 70
     1
102
RTVSPropertyOp1
 70
     1
102
RTVSPropertyOp2
 70
     1
102
RTVSPropertyOp3
 70
     1
102
RTVSPropertyOp4
 70
     1
102
RTVSPropertyOp5
 70
     1
102
RTVSPropertyOp6
 70
     1
102
RTVSPropertyOp7
 70
     1
102
RTVSPropertyOp8
 70
     1
102
RTVSPropertyOp9
 70
     1
102
RTVSPropertyOp10
 70
     1
102
RTVSPropertyOp11
 70
     1
102
RTVSPropertyOp12
 70
     1
102
RTVSPropertyOp13
 70
     1
102
RTVSPropertyOp14
 70
     1
102
RTVSPropertyOp15
 70
     1
102
RTVSPropertyOp16
 70
     1
102
RTVSPropertyOp17
 70
     1
102
RTVSPropertyOp18
 70
     1
102
RTVSPropertyOp19
 70
     1
102
RTVSPropertyOp20
 70
     1
102
RTVSPropertyOp21
 70
     1
102
RTVSPropertyOp22
 70
     1
102
RTVSPropertyOp23
 70
     1
102
RTVSPropertyOp24
 70
     1
102
RTVSPropertyOp25
 70
     1
102
RTVSPropertyOp26
 70
     1
102
RTVSPropertyOp27
 70
     1
102
RTVSPropertyOp28
 70
     1
102
RTVSPropertyOp29
 70
     1
102
RTVSPropertyOp30
 70
     1
102
RTVSPropertyOp31
 70
     1
102
RTVSPropertyOp32
 70
     1
102
RTVSPropertyOp33
 70
     1
102
RTVSPropertyOp34
 70
     1
102
RTVSPropertyOp35
 70
     1
102
RTVSPropertyOp36
 70
     1
102
RTVSPropertyOp37
 70
     1
102
RTVSPropertyOp38
 70
     1
102
RTVSPropertyOp39
 70
     1
102
RTVSPropertyOp40
 70
     1
102
RTVSPropertyOp41
 70
     1
102
RTVSPropertyOp42
 70
     1
102
RTVSPropertyOp43
 70
     1
102
RTVSPropertyOp44
 70
     1
102
RTVSPropertyOp45
 70
     1
102
RTVSPropertyOp46
 70
     1
102
RTVSPropertyOp47
 70
     1
102
RTVSPropertyOp48
 70
     1
102
RTVSPropertyOp49
 70
     1
102
RTVSPropertyOp50
 70
     1
102
RTVSPropertyOp51
 70
     0
102
RTVSPropertyOp52
 70
     0
102
RTVSPropertyOp53
 70
     1
102
RTVSPropertyOp54
 70
     1
102
RTVSPropertyOp55
 70
     1
102
RTVSPropertyOp56
 70
     1
102
RTVSPropertyOp57
 70
     1
102
RTVSPropertyOp58
 70
     1
102
RTVSPropertyOp59
 70
     1
102
RTVSPropertyOp60
 70
     1
102
RTVSPropertyOp61
 70
     1
102
RTVSPropertyOp62
 70
     1
  0
XRECORD
  5
1636E
102
{ACAD_REACTORS
330
1636D
102
}
330
1636D
100
AcDbXrecord
280
     1
102
RTVSPost2010Prop28
280
     0
102
RTVSPost2010PropOp28
 70
     0
102
RTVSPost2010Prop29
280
     1
102
RTVSPost2010PropOp29
 70
     0
102
RTVSPost2010Prop30
280
     1
102
RTVSPost2010PropOp30
 70
     0
102
RTVSPost2010Prop31
280
     0
102
RTVSPost2010PropOp31
 70
     0
102
RTVSPost2010Prop32
280
     0
102
RTVSPost2010PropOp32
 70
     0
102
RTVSPost2010Prop33
280
     0
102
RTVSPost2010PropOp33
 70
     0
102
RTVSPost2010Prop34
280
     0
102
RTVSPost2010PropOp34
 70
     0
102
RTVSPost2010Prop35
280
     0
102
RTVSPost2010PropOp35
 70
     0
102
RTVSPost2010Prop36
280
     0
102
RTVSPost2010PropOp36
 70
     0
102
RTVSPost2010Prop37
 90
       50
102
RTVSPost2010PropOp37
 70
     0
102
RTVSPost2010Prop38
140
0.0
102
RTVSPost2010PropOp38
 70
     0
102
RTVSPost2010Prop39
140
1.0
102
RTVSPost2010PropOp39
 70
     0
102
RTVSPost2010Prop40
 90
        0
102
RTVSPost2010PropOp40
 70
     0
102
RTVSPost2010Prop41ColorIndex
 90
       18
102
RTVSPost2010Prop41ColorRGB
 90
        0
102
RTVSPost2010PropOp41
 70
     0
102
RTVSPost2010Prop42
 90
       50
102
RTVSPost2010PropOp42
 70
     0
102
RTVSPost2010Prop43
 90
        3
102
RTVSPost2010PropOp43
 70
     0
102
RTVSPost2010Prop44ColorIndex
 90
        5
102
RTVSPost2010Prop44ColorRGB
 90
      255
102
RTVSPost2010PropOp44
 70
     0
102
RTVSPost2010Prop45
280
     0
102
RTVSPost2010PropOp45
 70
     0
102
RTVSPost2010Prop46
 90
       50
102
RTVSPost2010PropOp46
 70
     0
102
RTVSPost2010Prop47
 90
       50
102
RTVSPost2010PropOp47
 70
     0
102
RTVSPost2010Prop48
 90
       50
102
RTVSPost2010PropOp48
 70
     0
102
RTVSPost2010Prop49
280
     0
102
RTVSPost2010PropOp49
 70
     0
102
RTVSPost2010Prop50
 90
       50
102
RTVSPost2010PropOp50
 70
     0
102
RTVSPost2010Prop51ColorIndex
 90
      256
102
RTVSPost2010Prop51ColorRGB
 90
-16777216
102
RTVSPost2010PropOp51
 70
     0
102
RTVSPost2010Prop52
140
1.0
102
RTVSPost2010PropOp52
 70
     0
102
RTVSPost2010Prop53
 90
        2
102
RTVSPost2010PropOp53
 70
     0
102
RTVSPost2010Prop54
  1
strokes_ogs.tif
102
RTVSPost2010PropOp54
 70
     0
102
RTVSPost2010Prop55
280
     0
102
RTVSPost2010PropOp55
 70
     0
102
RTVSPost2010Prop56
140
1.0
102
RTVSPost2010PropOp56
 70
     0
102
RTVSPost2010Prop57
140
1.0
102
RTVSPost2010PropOp57
 70
     0
102
RTVSPropertyOp0
 70
     0
102
RTVSPropertyOp1
 70
     0
102
RTVSPropertyOp2
 70
     0
102
RTVSPropertyOp3
 70
     0
102
RTVSPropertyOp4
 70
     0
102
RTVSPropertyOp5
 70
     0
102
RTVSPropertyOp6
 70
     0
102
RTVSPropertyOp7
 70
     0
102
RTVSPropertyOp8
 70
     0
102
RTVSPropertyOp9
 70
     0
102
RTVSPropertyOp10
 70
     0
102
RTVSPropertyOp11
 70
     0
102
RTVSPropertyOp12
 70
     0
102
RTVSPropertyOp13
 70
     0
102
RTVSPropertyOp14
 70
     2
102
RTVSPropertyOp15
 70
     0
102
RTVSPropertyOp16
 70
     0
102
RTVSPropertyOp17
 70
     0
102
RTVSPropertyOp18
 70
     0
102
RTVSPropertyOp19
 70
     0
102
RTVSPropertyOp20
 70
     0
102
RTVSPropertyOp21
 70
     0
102
RTVSPropertyOp22
 70
     0
102
RTVSPropertyOp23
 70
     0
102
RTVSPropertyOp24
 70
     0
102
RTVSPropertyOp25
 70
     0
102
RTVSPropertyOp26
 70
     0
102
RTVSPropertyOp27
 70
     0
102
RTVSPropertyOp28
 70
     0
102
RTVSPropertyOp29
 70
     0
102
RTVSPropertyOp30
 70
     0
102
RTVSPropertyOp31
 70
     0
102
RTVSPropertyOp32
 70
     0
102
RTVSPropertyOp33
 70
     0
102
RTVSPropertyOp34
 70
     0
102
RTVSPropertyOp35
 70
     0
102
RTVSPropertyOp36
 70
     0
102
RTVSPropertyOp37
 70
     0
102
RTVSPropertyOp38
 70
     0
102
RTVSPropertyOp39
 70
     0
102
RTVSPropertyOp40
 70
     0
102
RTVSPropertyOp41
 70
     0
102
RTVSPropertyOp42
 70
     0
102
RTVSPropertyOp43
 70
     0
102
RTVSPropertyOp44
 70
     0
102
RTVSPropertyOp45
 70
     0
102
RTVSPropertyOp46
 70
     0
102
RTVSPropertyOp47
 70
     0
102
RTVSPropertyOp48
 70
     0
102
RTVSPropertyOp49
 70
     0
102
RTVSPropertyOp50
 70
     0
102
RTVSPropertyOp51
 70
     0
102
RTVSPropertyOp52
 70
     0
102
RTVSPropertyOp53
 70
     0
102
RTVSPropertyOp54
 70
     0
102
RTVSPropertyOp55
 70
     0
102
RTVSPropertyOp56
 70
     0
102
RTVSPropertyOp57
 70
     0
102
RTVSPropertyOp58
 70
     1
102
RTVSPropertyOp59
 70
     1
102
RTVSPropertyOp60
 70
     1
102
RTVSPropertyOp61
 70
     1
102
RTVSPropertyOp62
 70
     1
  0
XRECORD
  5
16354
102
{ACAD_REACTORS
330
16353
102
}
330
16353
100
AcDbXrecord
280
     1
102
RTVSPost2010Prop28
280
     0
102
RTVSPost2010PropOp28
 70
     1
102
RTVSPost2010Prop29
280
     1
102
RTVSPost2010PropOp29
 70
     1
102
RTVSPost2010Prop30
280
     1
102
RTVSPost2010PropOp30
 70
     1
102
RTVSPost2010Prop31
280
     0
102
RTVSPost2010PropOp31
 70
     1
102
RTVSPost2010Prop32
280
     0
102
RTVSPost2010PropOp32
 70
     1
102
RTVSPost2010Prop33
280
     0
102
RTVSPost2010PropOp33
 70
     1
102
RTVSPost2010Prop34
280
     0
102
RTVSPost2010PropOp34
 70
     1
102
RTVSPost2010Prop35
280
     0
102
RTVSPost2010PropOp35
 70
     1
102
RTVSPost2010Prop36
280
     0
102
RTVSPost2010PropOp36
 70
     1
102
RTVSPost2010Prop37
 90
       50
102
RTVSPost2010PropOp37
 70
     1
102
RTVSPost2010Prop38
140
0.0
102
RTVSPost2010PropOp38
 70
     1
102
RTVSPost2010Prop39
140
1.0
102
RTVSPost2010PropOp39
 70
     1
102
RTVSPost2010Prop40
 90
        0
102
RTVSPost2010PropOp40
 70
     1
102
RTVSPost2010Prop41ColorIndex
 90
       18
102
RTVSPost2010Prop41ColorRGB
 90
        0
102
RTVSPost2010PropOp41
 70
     1
102
RTVSPost2010Prop42
 90
       50
102
RTVSPost2010PropOp42
 70
     1
102
RTVSPost2010Prop43
 90
        3
102
RTVSPost2010PropOp43
 70
     1
102
RTVSPost2010Prop44ColorIndex
 90
        5
102
RTVSPost2010Prop44ColorRGB
 90
      255
102
RTVSPost2010PropOp44
 70
     1
102
RTVSPost2010Prop45
280
     0
102
RTVSPost2010PropOp45
 70
     1
102
RTVSPost2010Prop46
 90
       50
102
RTVSPost2010PropOp46
 70
     1
102
RTVSPost2010Prop47
 90
       50
102
RTVSPost2010PropOp47
 70
     1
102
RTVSPost2010Prop48
 90
       50
102
RTVSPost2010PropOp48
 70
     1
102
RTVSPost2010Prop49
280
     0
102
RTVSPost2010PropOp49
 70
     1
102
RTVSPost2010Prop50
 90
       50
102
RTVSPost2010PropOp50
 70
     1
102
RTVSPost2010Prop51ColorIndex
 90
      256
102
RTVSPost2010Prop51ColorRGB
 90
-16777216
102
RTVSPost2010PropOp51
 70
     0
102
RTVSPost2010Prop52
140
1.0
102
RTVSPost2010PropOp52
 70
     0
102
RTVSPost2010Prop53
 90
        2
102
RTVSPost2010PropOp53
 70
     1
102
RTVSPost2010Prop54
  1
strokes_ogs.tif
102
RTVSPost2010PropOp54
 70
     1
102
RTVSPost2010Prop55
280
     0
102
RTVSPost2010PropOp55
 70
     1
102
RTVSPost2010Prop56
140
1.0
102
RTVSPost2010PropOp56
 70
     1
102
RTVSPost2010Prop57
140
1.0
102
RTVSPost2010PropOp57
 70
     1
102
RTVSPropertyOp0
 70
     1
102
RTVSPropertyOp1
 70
     1
102
RTVSPropertyOp2
 70
     1
102
RTVSPropertyOp3
 70
     1
102
RTVSPropertyOp4
 70
     1
102
RTVSPropertyOp5
 70
     1
102
RTVSPropertyOp6
 70
     1
102
RTVSPropertyOp7
 70
     1
102
RTVSPropertyOp8
 70
     1
102
RTVSPropertyOp9
 70
     1
102
RTVSPropertyOp10
 70
     1
102
RTVSPropertyOp11
 70
     1
102
RTVSPropertyOp12
 70
     1
102
RTVSPropertyOp13
 70
     1
102
RTVSPropertyOp14
 70
     1
102
RTVSPropertyOp15
 70
     1
102
RTVSPropertyOp16
 70
     1
102
RTVSPropertyOp17
 70
     1
102
RTVSPropertyOp18
 70
     1
102
RTVSPropertyOp19
 70
     1
102
RTVSPropertyOp20
 70
     1
102
RTVSPropertyOp21
 70
     1
102
RTVSPropertyOp22
 70
     1
102
RTVSPropertyOp23
 70
     1
102
RTVSPropertyOp24
 70
     1
102
RTVSPropertyOp25
 70
     1
102
RTVSPropertyOp26
 70
     1
102
RTVSPropertyOp27
 70
     1
102
RTVSPropertyOp28
 70
     1
102
RTVSPropertyOp29
 70
     1
102
RTVSPropertyOp30
 70
     1
102
RTVSPropertyOp31
 70
     1
102
RTVSPropertyOp32
 70
     1
102
RTVSPropertyOp33
 70
     1
102
RTVSPropertyOp34
 70
     1
102
RTVSPropertyOp35
 70
     1
102
RTVSPropertyOp36
 70
     1
102
RTVSPropertyOp37
 70
     1
102
RTVSPropertyOp38
 70
     1
102
RTVSPropertyOp39
 70
     1
102
RTVSPropertyOp40
 70
     1
102
RTVSPropertyOp41
 70
     1
102
RTVSPropertyOp42
 70
     1
102
RTVSPropertyOp43
 70
     1
102
RTVSPropertyOp44
 70
     1
102
RTVSPropertyOp45
 70
     1
102
RTVSPropertyOp46
 70
     1
102
RTVSPropertyOp47
 70
     1
102
RTVSPropertyOp48
 70
     1
102
RTVSPropertyOp49
 70
     1
102
RTVSPropertyOp50
 70
     1
102
RTVSPropertyOp51
 70
     0
102
RTVSPropertyOp52
 70
     0
102
RTVSPropertyOp53
 70
     1
102
RTVSPropertyOp54
 70
     1
102
RTVSPropertyOp55
 70
     1
102
RTVSPropertyOp56
 70
     1
102
RTVSPropertyOp57
 70
     1
102
RTVSPropertyOp58
 70
     1
102
RTVSPropertyOp59
 70
     1
102
RTVSPropertyOp60
 70
     1
102
RTVSPropertyOp61
 70
     1
102
RTVSPropertyOp62
 70
     1
  0
XRECORD
  5
1636A
102
{ACAD_REACTORS
330
16369
102
}
330
16369
100
AcDbXrecord
280
     1
102
RTVSPost2010Prop28
280
     0
102
RTVSPost2010PropOp28
 70
     1
102
RTVSPost2010Prop29
280
     1
102
RTVSPost2010PropOp29
 70
     1
102
RTVSPost2010Prop30
280
     1
102
RTVSPost2010PropOp30
 70
     1
102
RTVSPost2010Prop31
280
     0
102
RTVSPost2010PropOp31
 70
     1
102
RTVSPost2010Prop32
280
     0
102
RTVSPost2010PropOp32
 70
     1
102
RTVSPost2010Prop33
280
     0
102
RTVSPost2010PropOp33
 70
     1
102
RTVSPost2010Prop34
280
     0
102
RTVSPost2010PropOp34
 70
     1
102
RTVSPost2010Prop35
280
     0
102
RTVSPost2010PropOp35
 70
     1
102
RTVSPost2010Prop36
280
     0
102
RTVSPost2010PropOp36
 70
     1
102
RTVSPost2010Prop37
 90
       50
102
RTVSPost2010PropOp37
 70
     1
102
RTVSPost2010Prop38
140
0.0
102
RTVSPost2010PropOp38
 70
     1
102
RTVSPost2010Prop39
140
1.0
102
RTVSPost2010PropOp39
 70
     1
102
RTVSPost2010Prop40
 90
        0
102
RTVSPost2010PropOp40
 70
     1
102
RTVSPost2010Prop41ColorIndex
 90
       18
102
RTVSPost2010Prop41ColorRGB
 90
        0
102
RTVSPost2010PropOp41
 70
     1
102
RTVSPost2010Prop42
 90
       50
102
RTVSPost2010PropOp42
 70
     1
102
RTVSPost2010Prop43
 90
        3
102
RTVSPost2010PropOp43
 70
     1
102
RTVSPost2010Prop44ColorIndex
 90
        5
102
RTVSPost2010Prop44ColorRGB
 90
      255
102
RTVSPost2010PropOp44
 70
     1
102
RTVSPost2010Prop45
280
     0
102
RTVSPost2010PropOp45
 70
     1
102
RTVSPost2010Prop46
 90
       50
102
RTVSPost2010PropOp46
 70
     1
102
RTVSPost2010Prop47
 90
       50
102
RTVSPost2010PropOp47
 70
     1
102
RTVSPost2010Prop48
 90
       50
102
RTVSPost2010PropOp48
 70
     1
102
RTVSPost2010Prop49
280
     0
102
RTVSPost2010PropOp49
 70
     1
102
RTVSPost2010Prop50
 90
       50
102
RTVSPost2010PropOp50
 70
     1
102
RTVSPost2010Prop51ColorIndex
 90
      256
102
RTVSPost2010Prop51ColorRGB
 90
-16777216
102
RTVSPost2010PropOp51
 70
     0
102
RTVSPost2010Prop52
140
1.0
102
RTVSPost2010PropOp52
 70
     0
102
RTVSPost2010Prop53
 90
        2
102
RTVSPost2010PropOp53
 70
     1
102
RTVSPost2010Prop54
  1
strokes_ogs.tif
102
RTVSPost2010PropOp54
 70
     1
102
RTVSPost2010Prop55
280
     0
102
RTVSPost2010PropOp55
 70
     1
102
RTVSPost2010Prop56
140
1.0
102
RTVSPost2010PropOp56
 70
     1
102
RTVSPost2010Prop57
140
1.0
102
RTVSPost2010PropOp57
 70
     1
102
RTVSPropertyOp0
 70
     1
102
RTVSPropertyOp1
 70
     1
102
RTVSPropertyOp2
 70
     1
102
RTVSPropertyOp3
 70
     1
102
RTVSPropertyOp4
 70
     1
102
RTVSPropertyOp5
 70
     1
102
RTVSPropertyOp6
 70
     1
102
RTVSPropertyOp7
 70
     1
102
RTVSPropertyOp8
 70
     1
102
RTVSPropertyOp9
 70
     1
102
RTVSPropertyOp10
 70
     1
102
RTVSPropertyOp11
 70
     1
102
RTVSPropertyOp12
 70
     1
102
RTVSPropertyOp13
 70
     1
102
RTVSPropertyOp14
 70
     1
102
RTVSPropertyOp15
 70
     1
102
RTVSPropertyOp16
 70
     1
102
RTVSPropertyOp17
 70
     1
102
RTVSPropertyOp18
 70
     1
102
RTVSPropertyOp19
 70
     1
102
RTVSPropertyOp20
 70
     1
102
RTVSPropertyOp21
 70
     1
102
RTVSPropertyOp22
 70
     1
102
RTVSPropertyOp23
 70
     1
102
RTVSPropertyOp24
 70
     1
102
RTVSPropertyOp25
 70
     1
102
RTVSPropertyOp26
 70
     1
102
RTVSPropertyOp27
 70
     1
102
RTVSPropertyOp28
 70
     1
102
RTVSPropertyOp29
 70
     1
102
RTVSPropertyOp30
 70
     1
102
RTVSPropertyOp31
 70
     1
102
RTVSPropertyOp32
 70
     1
102
RTVSPropertyOp33
 70
     1
102
RTVSPropertyOp34
 70
     1
102
RTVSPropertyOp35
 70
     1
102
RTVSPropertyOp36
 70
     1
102
RTVSPropertyOp37
 70
     1
102
RTVSPropertyOp38
 70
     1
102
RTVSPropertyOp39
 70
     1
102
RTVSPropertyOp40
 70
     1
102
RTVSPropertyOp41
 70
     1
102
RTVSPropertyOp42
 70
     1
102
RTVSPropertyOp43
 70
     1
102
RTVSPropertyOp44
 70
     1
102
RTVSPropertyOp45
 70
     1
102
RTVSPropertyOp46
 70
     1
102
RTVSPropertyOp47
 70
     1
102
RTVSPropertyOp48
 70
     1
102
RTVSPropertyOp49
 70
     1
102
RTVSPropertyOp50
 70
     1
102
RTVSPropertyOp51
 70
     0
102
RTVSPropertyOp52
 70
     0
102
RTVSPropertyOp53
 70
     1
102
RTVSPropertyOp54
 70
     1
102
RTVSPropertyOp55
 70
     1
102
RTVSPropertyOp56
 70
     1
102
RTVSPropertyOp57
 70
     1
102
RTVSPropertyOp58
 70
     1
102
RTVSPropertyOp59
 70
     1
102
RTVSPropertyOp60
 70
     1
102
RTVSPropertyOp61
 70
     1
102
RTVSPropertyOp62
 70
     1
  0
XRECORD
  5
16368
102
{ACAD_REACTORS
330
16367
102
}
330
16367
100
AcDbXrecord
280
     1
102
RTVSPost2010Prop28
280
     0
102
RTVSPost2010PropOp28
 70
     1
102
RTVSPost2010Prop29
280
     1
102
RTVSPost2010PropOp29
 70
     1
102
RTVSPost2010Prop30
280
     1
102
RTVSPost2010PropOp30
 70
     1
102
RTVSPost2010Prop31
280
     0
102
RTVSPost2010PropOp31
 70
     1
102
RTVSPost2010Prop32
280
     0
102
RTVSPost2010PropOp32
 70
     1
102
RTVSPost2010Prop33
280
     0
102
RTVSPost2010PropOp33
 70
     1
102
RTVSPost2010Prop34
280
     0
102
RTVSPost2010PropOp34
 70
     1
102
RTVSPost2010Prop35
280
     0
102
RTVSPost2010PropOp35
 70
     1
102
RTVSPost2010Prop36
280
     0
102
RTVSPost2010PropOp36
 70
     1
102
RTVSPost2010Prop37
 90
       50
102
RTVSPost2010PropOp37
 70
     1
102
RTVSPost2010Prop38
140
0.0
102
RTVSPost2010PropOp38
 70
     1
102
RTVSPost2010Prop39
140
1.0
102
RTVSPost2010PropOp39
 70
     1
102
RTVSPost2010Prop40
 90
        0
102
RTVSPost2010PropOp40
 70
     1
102
RTVSPost2010Prop41ColorIndex
 90
       18
102
RTVSPost2010Prop41ColorRGB
 90
        0
102
RTVSPost2010PropOp41
 70
     1
102
RTVSPost2010Prop42
 90
       50
102
RTVSPost2010PropOp42
 70
     1
102
RTVSPost2010Prop43
 90
        3
102
RTVSPost2010PropOp43
 70
     1
102
RTVSPost2010Prop44ColorIndex
 90
        5
102
RTVSPost2010Prop44ColorRGB
 90
      255
102
RTVSPost2010PropOp44
 70
     1
102
RTVSPost2010Prop45
280
     0
102
RTVSPost2010PropOp45
 70
     1
102
RTVSPost2010Prop46
 90
       50
102
RTVSPost2010PropOp46
 70
     1
102
RTVSPost2010Prop47
 90
       50
102
RTVSPost2010PropOp47
 70
     1
102
RTVSPost2010Prop48
 90
       50
102
RTVSPost2010PropOp48
 70
     1
102
RTVSPost2010Prop49
280
     0
102
RTVSPost2010PropOp49
 70
     1
102
RTVSPost2010Prop50
 90
       50
102
RTVSPost2010PropOp50
 70
     1
102
RTVSPost2010Prop51ColorIndex
 90
      256
102
RTVSPost2010Prop51ColorRGB
 90
-16777216
102
RTVSPost2010PropOp51
 70
     0
102
RTVSPost2010Prop52
140
1.0
102
RTVSPost2010PropOp52
 70
     0
102
RTVSPost2010Prop53
 90
        2
102
RTVSPost2010PropOp53
 70
     1
102
RTVSPost2010Prop54
  1
strokes_ogs.tif
102
RTVSPost2010PropOp54
 70
     1
102
RTVSPost2010Prop55
280
     0
102
RTVSPost2010PropOp55
 70
     1
102
RTVSPost2010Prop56
140
1.0
102
RTVSPost2010PropOp56
 70
     1
102
RTVSPost2010Prop57
140
1.0
102
RTVSPost2010PropOp57
 70
     1
102
RTVSPropertyOp0
 70
     1
102
RTVSPropertyOp1
 70
     1
102
RTVSPropertyOp2
 70
     1
102
RTVSPropertyOp3
 70
     1
102
RTVSPropertyOp4
 70
     1
102
RTVSPropertyOp5
 70
     1
102
RTVSPropertyOp6
 70
     1
102
RTVSPropertyOp7
 70
     1
102
RTVSPropertyOp8
 70
     1
102
RTVSPropertyOp9
 70
     1
102
RTVSPropertyOp10
 70
     1
102
RTVSPropertyOp11
 70
     1
102
RTVSPropertyOp12
 70
     1
102
RTVSPropertyOp13
 70
     1
102
RTVSPropertyOp14
 70
     1
102
RTVSPropertyOp15
 70
     1
102
RTVSPropertyOp16
 70
     1
102
RTVSPropertyOp17
 70
     1
102
RTVSPropertyOp18
 70
     1
102
RTVSPropertyOp19
 70
     1
102
RTVSPropertyOp20
 70
     1
102
RTVSPropertyOp21
 70
     1
102
RTVSPropertyOp22
 70
     1
102
RTVSPropertyOp23
 70
     1
102
RTVSPropertyOp24
 70
     1
102
RTVSPropertyOp25
 70
     1
102
RTVSPropertyOp26
 70
     1
102
RTVSPropertyOp27
 70
     1
102
RTVSPropertyOp28
 70
     1
102
RTVSPropertyOp29
 70
     1
102
RTVSPropertyOp30
 70
     1
102
RTVSPropertyOp31
 70
     1
102
RTVSPropertyOp32
 70
     1
102
RTVSPropertyOp33
 70
     1
102
RTVSPropertyOp34
 70
     1
102
RTVSPropertyOp35
 70
     1
102
RTVSPropertyOp36
 70
     1
102
RTVSPropertyOp37
 70
     1
102
RTVSPropertyOp38
 70
     1
102
RTVSPropertyOp39
 70
     1
102
RTVSPropertyOp40
 70
     1
102
RTVSPropertyOp41
 70
     1
102
RTVSPropertyOp42
 70
     1
102
RTVSPropertyOp43
 70
     1
102
RTVSPropertyOp44
 70
     1
102
RTVSPropertyOp45
 70
     1
102
RTVSPropertyOp46
 70
     1
102
RTVSPropertyOp47
 70
     1
102
RTVSPropertyOp48
 70
     1
102
RTVSPropertyOp49
 70
     1
102
RTVSPropertyOp50
 70
     1
102
RTVSPropertyOp51
 70
     0
102
RTVSPropertyOp52
 70
     0
102
RTVSPropertyOp53
 70
     1
102
RTVSPropertyOp54
 70
     1
102
RTVSPropertyOp55
 70
     1
102
RTVSPropertyOp56
 70
     1
102
RTVSPropertyOp57
 70
     1
102
RTVSPropertyOp58
 70
     1
102
RTVSPropertyOp59
 70
     1
102
RTVSPropertyOp60
 70
     1
102
RTVSPropertyOp61
 70
     1
102
RTVSPropertyOp62
 70
     1
  0
XRECORD
  5
16362
102
{ACAD_REACTORS
330
16361
102
}
330
16361
100
AcDbXrecord
280
     1
102
RTVSPost2010Prop28
280
     0
102
RTVSPost2010PropOp28
 70
     1
102
RTVSPost2010Prop29
280
     1
102
RTVSPost2010PropOp29
 70
     1
102
RTVSPost2010Prop30
280
     1
102
RTVSPost2010PropOp30
 70
     1
102
RTVSPost2010Prop31
280
     0
102
RTVSPost2010PropOp31
 70
     1
102
RTVSPost2010Prop32
280
     0
102
RTVSPost2010PropOp32
 70
     1
102
RTVSPost2010Prop33
280
     0
102
RTVSPost2010PropOp33
 70
     1
102
RTVSPost2010Prop34
280
     0
102
RTVSPost2010PropOp34
 70
     1
102
RTVSPost2010Prop35
280
     0
102
RTVSPost2010PropOp35
 70
     1
102
RTVSPost2010Prop36
280
     0
102
RTVSPost2010PropOp36
 70
     1
102
RTVSPost2010Prop37
 90
       50
102
RTVSPost2010PropOp37
 70
     1
102
RTVSPost2010Prop38
140
0.0
102
RTVSPost2010PropOp38
 70
     1
102
RTVSPost2010Prop39
140
1.0
102
RTVSPost2010PropOp39
 70
     1
102
RTVSPost2010Prop40
 90
        0
102
RTVSPost2010PropOp40
 70
     1
102
RTVSPost2010Prop41ColorIndex
 90
       18
102
RTVSPost2010Prop41ColorRGB
 90
        0
102
RTVSPost2010PropOp41
 70
     1
102
RTVSPost2010Prop42
 90
       50
102
RTVSPost2010PropOp42
 70
     1
102
RTVSPost2010Prop43
 90
        3
102
RTVSPost2010PropOp43
 70
     1
102
RTVSPost2010Prop44ColorIndex
 90
        5
102
RTVSPost2010Prop44ColorRGB
 90
      255
102
RTVSPost2010PropOp44
 70
     1
102
RTVSPost2010Prop45
280
     0
102
RTVSPost2010PropOp45
 70
     1
102
RTVSPost2010Prop46
 90
       50
102
RTVSPost2010PropOp46
 70
     1
102
RTVSPost2010Prop47
 90
       50
102
RTVSPost2010PropOp47
 70
     1
102
RTVSPost2010Prop48
 90
       50
102
RTVSPost2010PropOp48
 70
     1
102
RTVSPost2010Prop49
280
     0
102
RTVSPost2010PropOp49
 70
     1
102
RTVSPost2010Prop50
 90
       50
102
RTVSPost2010PropOp50
 70
     1
102
RTVSPost2010Prop51ColorIndex
 90
      256
102
RTVSPost2010Prop51ColorRGB
 90
-16777216
102
RTVSPost2010PropOp51
 70
     0
102
RTVSPost2010Prop52
140
1.0
102
RTVSPost2010PropOp52
 70
     0
102
RTVSPost2010Prop53
 90
        2
102
RTVSPost2010PropOp53
 70
     1
102
RTVSPost2010Prop54
  1
strokes_ogs.tif
102
RTVSPost2010PropOp54
 70
     1
102
RTVSPost2010Prop55
280
     0
102
RTVSPost2010PropOp55
 70
     1
102
RTVSPost2010Prop56
140
1.0
102
RTVSPost2010PropOp56
 70
     1
102
RTVSPost2010Prop57
140
1.0
102
RTVSPost2010PropOp57
 70
     1
102
RTVSPropertyOp0
 70
     1
102
RTVSPropertyOp1
 70
     1
102
RTVSPropertyOp2
 70
     1
102
RTVSPropertyOp3
 70
     1
102
RTVSPropertyOp4
 70
     1
102
RTVSPropertyOp5
 70
     1
102
RTVSPropertyOp6
 70
     1
102
RTVSPropertyOp7
 70
     1
102
RTVSPropertyOp8
 70
     1
102
RTVSPropertyOp9
 70
     1
102
RTVSPropertyOp10
 70
     1
102
RTVSPropertyOp11
 70
     1
102
RTVSPropertyOp12
 70
     1
102
RTVSPropertyOp13
 70
     1
102
RTVSPropertyOp14
 70
     1
102
RTVSPropertyOp15
 70
     1
102
RTVSPropertyOp16
 70
     1
102
RTVSPropertyOp17
 70
     1
102
RTVSPropertyOp18
 70
     1
102
RTVSPropertyOp19
 70
     1
102
RTVSPropertyOp20
 70
     1
102
RTVSPropertyOp21
 70
     1
102
RTVSPropertyOp22
 70
     1
102
RTVSPropertyOp23
 70
     1
102
RTVSPropertyOp24
 70
     1
102
RTVSPropertyOp25
 70
     1
102
RTVSPropertyOp26
 70
     1
102
RTVSPropertyOp27
 70
     1
102
RTVSPropertyOp28
 70
     1
102
RTVSPropertyOp29
 70
     1
102
RTVSPropertyOp30
 70
     1
102
RTVSPropertyOp31
 70
     1
102
RTVSPropertyOp32
 70
     1
102
RTVSPropertyOp33
 70
     1
102
RTVSPropertyOp34
 70
     1
102
RTVSPropertyOp35
 70
     1
102
RTVSPropertyOp36
 70
     1
102
RTVSPropertyOp37
 70
     1
102
RTVSPropertyOp38
 70
     1
102
RTVSPropertyOp39
 70
     1
102
RTVSPropertyOp40
 70
     1
102
RTVSPropertyOp41
 70
     1
102
RTVSPropertyOp42
 70
     1
102
RTVSPropertyOp43
 70
     1
102
RTVSPropertyOp44
 70
     1
102
RTVSPropertyOp45
 70
     1
102
RTVSPropertyOp46
 70
     1
102
RTVSPropertyOp47
 70
     1
102
RTVSPropertyOp48
 70
     1
102
RTVSPropertyOp49
 70
     1
102
RTVSPropertyOp50
 70
     1
102
RTVSPropertyOp51
 70
     0
102
RTVSPropertyOp52
 70
     0
102
RTVSPropertyOp53
 70
     1
102
RTVSPropertyOp54
 70
     1
102
RTVSPropertyOp55
 70
     1
102
RTVSPropertyOp56
 70
     1
102
RTVSPropertyOp57
 70
     1
102
RTVSPropertyOp58
 70
     1
102
RTVSPropertyOp59
 70
     1
102
RTVSPropertyOp60
 70
     1
102
RTVSPropertyOp61
 70
     1
102
RTVSPropertyOp62
 70
     1
  0
XRECORD
  5
16364
102
{ACAD_REACTORS
330
16363
102
}
330
16363
100
AcDbXrecord
280
     1
102
RTVSPost2010Prop28
280
     0
102
RTVSPost2010PropOp28
 70
     1
102
RTVSPost2010Prop29
280
     1
102
RTVSPost2010PropOp29
 70
     1
102
RTVSPost2010Prop30
280
     1
102
RTVSPost2010PropOp30
 70
     1
102
RTVSPost2010Prop31
280
     0
102
RTVSPost2010PropOp31
 70
     1
102
RTVSPost2010Prop32
280
     0
102
RTVSPost2010PropOp32
 70
     1
102
RTVSPost2010Prop33
280
     0
102
RTVSPost2010PropOp33
 70
     1
102
RTVSPost2010Prop34
280
     0
102
RTVSPost2010PropOp34
 70
     1
102
RTVSPost2010Prop35
280
     0
102
RTVSPost2010PropOp35
 70
     1
102
RTVSPost2010Prop36
280
     0
102
RTVSPost2010PropOp36
 70
     1
102
RTVSPost2010Prop37
 90
       50
102
RTVSPost2010PropOp37
 70
     1
102
RTVSPost2010Prop38
140
0.0
102
RTVSPost2010PropOp38
 70
     1
102
RTVSPost2010Prop39
140
1.0
102
RTVSPost2010PropOp39
 70
     1
102
RTVSPost2010Prop40
 90
        0
102
RTVSPost2010PropOp40
 70
     1
102
RTVSPost2010Prop41ColorIndex
 90
       18
102
RTVSPost2010Prop41ColorRGB
 90
        0
102
RTVSPost2010PropOp41
 70
     1
102
RTVSPost2010Prop42
 90
       50
102
RTVSPost2010PropOp42
 70
     1
102
RTVSPost2010Prop43
 90
        3
102
RTVSPost2010PropOp43
 70
     1
102
RTVSPost2010Prop44ColorIndex
 90
        5
102
RTVSPost2010Prop44ColorRGB
 90
      255
102
RTVSPost2010PropOp44
 70
     1
102
RTVSPost2010Prop45
280
     0
102
RTVSPost2010PropOp45
 70
     1
102
RTVSPost2010Prop46
 90
       50
102
RTVSPost2010PropOp46
 70
     1
102
RTVSPost2010Prop47
 90
       50
102
RTVSPost2010PropOp47
 70
     1
102
RTVSPost2010Prop48
 90
       50
102
RTVSPost2010PropOp48
 70
     1
102
RTVSPost2010Prop49
280
     0
102
RTVSPost2010PropOp49
 70
     1
102
RTVSPost2010Prop50
 90
       50
102
RTVSPost2010PropOp50
 70
     1
102
RTVSPost2010Prop51ColorIndex
 90
      256
102
RTVSPost2010Prop51ColorRGB
 90
-16777216
102
RTVSPost2010PropOp51
 70
     0
102
RTVSPost2010Prop52
140
1.0
102
RTVSPost2010PropOp52
 70
     0
102
RTVSPost2010Prop53
 90
        2
102
RTVSPost2010PropOp53
 70
     1
102
RTVSPost2010Prop54
  1
strokes_ogs.tif
102
RTVSPost2010PropOp54
 70
     1
102
RTVSPost2010Prop55
280
     0
102
RTVSPost2010PropOp55
 70
     1
102
RTVSPost2010Prop56
140
1.0
102
RTVSPost2010PropOp56
 70
     1
102
RTVSPost2010Prop57
140
1.0
102
RTVSPost2010PropOp57
 70
     1
102
RTVSPropertyOp0
 70
     1
102
RTVSPropertyOp1
 70
     1
102
RTVSPropertyOp2
 70
     1
102
RTVSPropertyOp3
 70
     1
102
RTVSPropertyOp4
 70
     1
102
RTVSPropertyOp5
 70
     1
102
RTVSPropertyOp6
 70
     1
102
RTVSPropertyOp7
 70
     1
102
RTVSPropertyOp8
 70
     1
102
RTVSPropertyOp9
 70
     1
102
RTVSPropertyOp10
 70
     1
102
RTVSPropertyOp11
 70
     1
102
RTVSPropertyOp12
 70
     1
102
RTVSPropertyOp13
 70
     1
102
RTVSPropertyOp14
 70
     1
102
RTVSPropertyOp15
 70
     1
102
RTVSPropertyOp16
 70
     1
102
RTVSPropertyOp17
 70
     1
102
RTVSPropertyOp18
 70
     1
102
RTVSPropertyOp19
 70
     1
102
RTVSPropertyOp20
 70
     1
102
RTVSPropertyOp21
 70
     1
102
RTVSPropertyOp22
 70
     1
102
RTVSPropertyOp23
 70
     1
102
RTVSPropertyOp24
 70
     1
102
RTVSPropertyOp25
 70
     1
102
RTVSPropertyOp26
 70
     1
102
RTVSPropertyOp27
 70
     1
102
RTVSPropertyOp28
 70
     1
102
RTVSPropertyOp29
 70
     1
102
RTVSPropertyOp30
 70
     1
102
RTVSPropertyOp31
 70
     1
102
RTVSPropertyOp32
 70
     1
102
RTVSPropertyOp33
 70
     1
102
RTVSPropertyOp34
 70
     1
102
RTVSPropertyOp35
 70
     1
102
RTVSPropertyOp36
 70
     1
102
RTVSPropertyOp37
 70
     1
102
RTVSPropertyOp38
 70
     1
102
RTVSPropertyOp39
 70
     1
102
RTVSPropertyOp40
 70
     1
102
RTVSPropertyOp41
 70
     1
102
RTVSPropertyOp42
 70
     1
102
RTVSPropertyOp43
 70
     1
102
RTVSPropertyOp44
 70
     1
102
RTVSPropertyOp45
 70
     1
102
RTVSPropertyOp46
 70
     1
102
RTVSPropertyOp47
 70
     1
102
RTVSPropertyOp48
 70
     1
102
RTVSPropertyOp49
 70
     1
102
RTVSPropertyOp50
 70
     1
102
RTVSPropertyOp51
 70
     0
102
RTVSPropertyOp52
 70
     0
102
RTVSPropertyOp53
 70
     1
102
RTVSPropertyOp54
 70
     1
102
RTVSPropertyOp55
 70
     1
102
RTVSPropertyOp56
 70
     1
102
RTVSPropertyOp57
 70
     1
102
RTVSPropertyOp58
 70
     1
102
RTVSPropertyOp59
 70
     1
102
RTVSPropertyOp60
 70
     1
102
RTVSPropertyOp61
 70
     1
102
RTVSPropertyOp62
 70
     1
  0
XRECORD
  5
1635A
102
{ACAD_REACTORS
330
16359
102
}
330
16359
100
AcDbXrecord
280
     1
102
RTVSPost2010Prop28
280
     0
102
RTVSPost2010PropOp28
 70
     1
102
RTVSPost2010Prop29
280
     1
102
RTVSPost2010PropOp29
 70
     1
102
RTVSPost2010Prop30
280
     1
102
RTVSPost2010PropOp30
 70
     1
102
RTVSPost2010Prop31
280
     0
102
RTVSPost2010PropOp31
 70
     1
102
RTVSPost2010Prop32
280
     0
102
RTVSPost2010PropOp32
 70
     1
102
RTVSPost2010Prop33
280
     0
102
RTVSPost2010PropOp33
 70
     1
102
RTVSPost2010Prop34
280
     0
102
RTVSPost2010PropOp34
 70
     1
102
RTVSPost2010Prop35
280
     0
102
RTVSPost2010PropOp35
 70
     1
102
RTVSPost2010Prop36
280
     0
102
RTVSPost2010PropOp36
 70
     1
102
RTVSPost2010Prop37
 90
       50
102
RTVSPost2010PropOp37
 70
     1
102
RTVSPost2010Prop38
140
0.0
102
RTVSPost2010PropOp38
 70
     1
102
RTVSPost2010Prop39
140
1.0
102
RTVSPost2010PropOp39
 70
     1
102
RTVSPost2010Prop40
 90
        0
102
RTVSPost2010PropOp40
 70
     1
102
RTVSPost2010Prop41ColorIndex
 90
       18
102
RTVSPost2010Prop41ColorRGB
 90
        0
102
RTVSPost2010PropOp41
 70
     1
102
RTVSPost2010Prop42
 90
       50
102
RTVSPost2010PropOp42
 70
     1
102
RTVSPost2010Prop43
 90
        3
102
RTVSPost2010PropOp43
 70
     1
102
RTVSPost2010Prop44ColorIndex
 90
        5
102
RTVSPost2010Prop44ColorRGB
 90
      255
102
RTVSPost2010PropOp44
 70
     1
102
RTVSPost2010Prop45
280
     0
102
RTVSPost2010PropOp45
 70
     1
102
RTVSPost2010Prop46
 90
       50
102
RTVSPost2010PropOp46
 70
     1
102
RTVSPost2010Prop47
 90
       50
102
RTVSPost2010PropOp47
 70
     1
102
RTVSPost2010Prop48
 90
       50
102
RTVSPost2010PropOp48
 70
     1
102
RTVSPost2010Prop49
280
     0
102
RTVSPost2010PropOp49
 70
     1
102
RTVSPost2010Prop50
 90
       50
102
RTVSPost2010PropOp50
 70
     1
102
RTVSPost2010Prop51ColorIndex
 90
      256
102
RTVSPost2010Prop51ColorRGB
 90
-16777216
102
RTVSPost2010PropOp51
 70
     0
102
RTVSPost2010Prop52
140
1.0
102
RTVSPost2010PropOp52
 70
     0
102
RTVSPost2010Prop53
 90
        2
102
RTVSPost2010PropOp53
 70
     1
102
RTVSPost2010Prop54
  1
strokes_ogs.tif
102
RTVSPost2010PropOp54
 70
     1
102
RTVSPost2010Prop55
280
     0
102
RTVSPost2010PropOp55
 70
     1
102
RTVSPost2010Prop56
140
1.0
102
RTVSPost2010PropOp56
 70
     1
102
RTVSPost2010Prop57
140
1.0
102
RTVSPost2010PropOp57
 70
     1
102
RTVSPropertyOp0
 70
     1
102
RTVSPropertyOp1
 70
     1
102
RTVSPropertyOp2
 70
     1
102
RTVSPropertyOp3
 70
     1
102
RTVSPropertyOp4
 70
     1
102
RTVSPropertyOp5
 70
     1
102
RTVSPropertyOp6
 70
     1
102
RTVSPropertyOp7
 70
     1
102
RTVSPropertyOp8
 70
     1
102
RTVSPropertyOp9
 70
     1
102
RTVSPropertyOp10
 70
     1
102
RTVSPropertyOp11
 70
     1
102
RTVSPropertyOp12
 70
     1
102
RTVSPropertyOp13
 70
     1
102
RTVSPropertyOp14
 70
     1
102
RTVSPropertyOp15
 70
     1
102
RTVSPropertyOp16
 70
     1
102
RTVSPropertyOp17
 70
     1
102
RTVSPropertyOp18
 70
     1
102
RTVSPropertyOp19
 70
     1
102
RTVSPropertyOp20
 70
     1
102
RTVSPropertyOp21
 70
     1
102
RTVSPropertyOp22
 70
     1
102
RTVSPropertyOp23
 70
     1
102
RTVSPropertyOp24
 70
     1
102
RTVSPropertyOp25
 70
     1
102
RTVSPropertyOp26
 70
     1
102
RTVSPropertyOp27
 70
     1
102
RTVSPropertyOp28
 70
     1
102
RTVSPropertyOp29
 70
     1
102
RTVSPropertyOp30
 70
     1
102
RTVSPropertyOp31
 70
     1
102
RTVSPropertyOp32
 70
     1
102
RTVSPropertyOp33
 70
     1
102
RTVSPropertyOp34
 70
     1
102
RTVSPropertyOp35
 70
     1
102
RTVSPropertyOp36
 70
     1
102
RTVSPropertyOp37
 70
     1
102
RTVSPropertyOp38
 70
     1
102
RTVSPropertyOp39
 70
     1
102
RTVSPropertyOp40
 70
     1
102
RTVSPropertyOp41
 70
     1
102
RTVSPropertyOp42
 70
     1
102
RTVSPropertyOp43
 70
     1
102
RTVSPropertyOp44
 70
     1
102
RTVSPropertyOp45
 70
     1
102
RTVSPropertyOp46
 70
     1
102
RTVSPropertyOp47
 70
     1
102
RTVSPropertyOp48
 70
     1
102
RTVSPropertyOp49
 70
     1
102
RTVSPropertyOp50
 70
     1
102
RTVSPropertyOp51
 70
     0
102
RTVSPropertyOp52
 70
     0
102
RTVSPropertyOp53
 70
     1
102
RTVSPropertyOp54
 70
     1
102
RTVSPropertyOp55
 70
     1
102
RTVSPropertyOp56
 70
     1
102
RTVSPropertyOp57
 70
     1
102
RTVSPropertyOp58
 70
     1
102
RTVSPropertyOp59
 70
     1
102
RTVSPropertyOp60
 70
     1
102
RTVSPropertyOp61
 70
     1
102
RTVSPropertyOp62
 70
     1
  0
XRECORD
  5
1634E
102
{ACAD_REACTORS
330
1634D
102
}
330
1634D
100
AcDbXrecord
280
     1
102
RTVSPost2010Prop28
280
     0
102
RTVSPost2010PropOp28
 70
     1
102
RTVSPost2010Prop29
280
     1
102
RTVSPost2010PropOp29
 70
     1
102
RTVSPost2010Prop30
280
     1
102
RTVSPost2010PropOp30
 70
     1
102
RTVSPost2010Prop31
280
     0
102
RTVSPost2010PropOp31
 70
     1
102
RTVSPost2010Prop32
280
     0
102
RTVSPost2010PropOp32
 70
     1
102
RTVSPost2010Prop33
280
     0
102
RTVSPost2010PropOp33
 70
     1
102
RTVSPost2010Prop34
280
     0
102
RTVSPost2010PropOp34
 70
     1
102
RTVSPost2010Prop35
280
     0
102
RTVSPost2010PropOp35
 70
     1
102
RTVSPost2010Prop36
280
     0
102
RTVSPost2010PropOp36
 70
     1
102
RTVSPost2010Prop37
 90
       50
102
RTVSPost2010PropOp37
 70
     1
102
RTVSPost2010Prop38
140
0.0
102
RTVSPost2010PropOp38
 70
     1
102
RTVSPost2010Prop39
140
1.0
102
RTVSPost2010PropOp39
 70
     1
102
RTVSPost2010Prop40
 90
        0
102
RTVSPost2010PropOp40
 70
     1
102
RTVSPost2010Prop41ColorIndex
 90
       18
102
RTVSPost2010Prop41ColorRGB
 90
        0
102
RTVSPost2010PropOp41
 70
     1
102
RTVSPost2010Prop42
 90
       50
102
RTVSPost2010PropOp42
 70
     1
102
RTVSPost2010Prop43
 90
        3
102
RTVSPost2010PropOp43
 70
     1
102
RTVSPost2010Prop44ColorIndex
 90
        5
102
RTVSPost2010Prop44ColorRGB
 90
      255
102
RTVSPost2010PropOp44
 70
     1
102
RTVSPost2010Prop45
280
     0
102
RTVSPost2010PropOp45
 70
     1
102
RTVSPost2010Prop46
 90
       50
102
RTVSPost2010PropOp46
 70
     1
102
RTVSPost2010Prop47
 90
       50
102
RTVSPost2010PropOp47
 70
     1
102
RTVSPost2010Prop48
 90
       50
102
RTVSPost2010PropOp48
 70
     1
102
RTVSPost2010Prop49
280
     0
102
RTVSPost2010PropOp49
 70
     1
102
RTVSPost2010Prop50
 90
       50
102
RTVSPost2010PropOp50
 70
     1
102
RTVSPost2010Prop51ColorIndex
 90
      256
102
RTVSPost2010Prop51ColorRGB
 90
-16777216
102
RTVSPost2010PropOp51
 70
     0
102
RTVSPost2010Prop52
140
1.0
102
RTVSPost2010PropOp52
 70
     0
102
RTVSPost2010Prop53
 90
        2
102
RTVSPost2010PropOp53
 70
     1
102
RTVSPost2010Prop54
  1
strokes_ogs.tif
102
RTVSPost2010PropOp54
 70
     1
102
RTVSPost2010Prop55
280
     0
102
RTVSPost2010PropOp55
 70
     1
102
RTVSPost2010Prop56
140
1.0
102
RTVSPost2010PropOp56
 70
     1
102
RTVSPost2010Prop57
140
1.0
102
RTVSPost2010PropOp57
 70
     1
102
RTVSPropertyOp0
 70
     1
102
RTVSPropertyOp1
 70
     1
102
RTVSPropertyOp2
 70
     1
102
RTVSPropertyOp3
 70
     1
102
RTVSPropertyOp4
 70
     1
102
RTVSPropertyOp5
 70
     1
102
RTVSPropertyOp6
 70
     1
102
RTVSPropertyOp7
 70
     1
102
RTVSPropertyOp8
 70
     1
102
RTVSPropertyOp9
 70
     1
102
RTVSPropertyOp10
 70
     1
102
RTVSPropertyOp11
 70
     1
102
RTVSPropertyOp12
 70
     1
102
RTVSPropertyOp13
 70
     1
102
RTVSPropertyOp14
 70
     1
102
RTVSPropertyOp15
 70
     1
102
RTVSPropertyOp16
 70
     1
102
RTVSPropertyOp17
 70
     1
102
RTVSPropertyOp18
 70
     1
102
RTVSPropertyOp19
 70
     1
102
RTVSPropertyOp20
 70
     1
102
RTVSPropertyOp21
 70
     1
102
RTVSPropertyOp22
 70
     1
102
RTVSPropertyOp23
 70
     1
102
RTVSPropertyOp24
 70
     1
102
RTVSPropertyOp25
 70
     1
102
RTVSPropertyOp26
 70
     1
102
RTVSPropertyOp27
 70
     1
102
RTVSPropertyOp28
 70
     1
102
RTVSPropertyOp29
 70
     1
102
RTVSPropertyOp30
 70
     1
102
RTVSPropertyOp31
 70
     1
102
RTVSPropertyOp32
 70
     1
102
RTVSPropertyOp33
 70
     1
102
RTVSPropertyOp34
 70
     1
102
RTVSPropertyOp35
 70
     1
102
RTVSPropertyOp36
 70
     1
102
RTVSPropertyOp37
 70
     1
102
RTVSPropertyOp38
 70
     1
102
RTVSPropertyOp39
 70
     1
102
RTVSPropertyOp40
 70
     1
102
RTVSPropertyOp41
 70
     1
102
RTVSPropertyOp42
 70
     1
102
RTVSPropertyOp43
 70
     1
102
RTVSPropertyOp44
 70
     1
102
RTVSPropertyOp45
 70
     1
102
RTVSPropertyOp46
 70
     1
102
RTVSPropertyOp47
 70
     1
102
RTVSPropertyOp48
 70
     1
102
RTVSPropertyOp49
 70
     1
102
RTVSPropertyOp50
 70
     1
102
RTVSPropertyOp51
 70
     0
102
RTVSPropertyOp52
 70
     0
102
RTVSPropertyOp53
 70
     1
102
RTVSPropertyOp54
 70
     1
102
RTVSPropertyOp55
 70
     1
102
RTVSPropertyOp56
 70
     1
102
RTVSPropertyOp57
 70
     1
102
RTVSPropertyOp58
 70
     1
102
RTVSPropertyOp59
 70
     1
102
RTVSPropertyOp60
 70
     1
102
RTVSPropertyOp61
 70
     1
102
RTVSPropertyOp62
 70
     1
  0
XRECORD
  5
16366
102
{ACAD_REACTORS
330
16365
102
}
330
16365
100
AcDbXrecord
280
     1
102
RTVSPost2010Prop28
280
     0
102
RTVSPost2010PropOp28
 70
     1
102
RTVSPost2010Prop29
280
     1
102
RTVSPost2010PropOp29
 70
     1
102
RTVSPost2010Prop30
280
     1
102
RTVSPost2010PropOp30
 70
     1
102
RTVSPost2010Prop31
280
     0
102
RTVSPost2010PropOp31
 70
     1
102
RTVSPost2010Prop32
280
     0
102
RTVSPost2010PropOp32
 70
     1
102
RTVSPost2010Prop33
280
     0
102
RTVSPost2010PropOp33
 70
     1
102
RTVSPost2010Prop34
280
     0
102
RTVSPost2010PropOp34
 70
     1
102
RTVSPost2010Prop35
280
     0
102
RTVSPost2010PropOp35
 70
     1
102
RTVSPost2010Prop36
280
     0
102
RTVSPost2010PropOp36
 70
     1
102
RTVSPost2010Prop37
 90
       50
102
RTVSPost2010PropOp37
 70
     1
102
RTVSPost2010Prop38
140
0.0
102
RTVSPost2010PropOp38
 70
     1
102
RTVSPost2010Prop39
140
1.0
102
RTVSPost2010PropOp39
 70
     1
102
RTVSPost2010Prop40
 90
        0
102
RTVSPost2010PropOp40
 70
     1
102
RTVSPost2010Prop41ColorIndex
 90
       18
102
RTVSPost2010Prop41ColorRGB
 90
        0
102
RTVSPost2010PropOp41
 70
     1
102
RTVSPost2010Prop42
 90
       50
102
RTVSPost2010PropOp42
 70
     1
102
RTVSPost2010Prop43
 90
        3
102
RTVSPost2010PropOp43
 70
     1
102
RTVSPost2010Prop44ColorIndex
 90
        5
102
RTVSPost2010Prop44ColorRGB
 90
      255
102
RTVSPost2010PropOp44
 70
     1
102
RTVSPost2010Prop45
280
     0
102
RTVSPost2010PropOp45
 70
     1
102
RTVSPost2010Prop46
 90
       50
102
RTVSPost2010PropOp46
 70
     1
102
RTVSPost2010Prop47
 90
       50
102
RTVSPost2010PropOp47
 70
     1
102
RTVSPost2010Prop48
 90
       50
102
RTVSPost2010PropOp48
 70
     1
102
RTVSPost2010Prop49
280
     0
102
RTVSPost2010PropOp49
 70
     1
102
RTVSPost2010Prop50
 90
       50
102
RTVSPost2010PropOp50
 70
     1
102
RTVSPost2010Prop51ColorIndex
 90
      256
102
RTVSPost2010Prop51ColorRGB
 90
-16777216
102
RTVSPost2010PropOp51
 70
     0
102
RTVSPost2010Prop52
140
1.0
102
RTVSPost2010PropOp52
 70
     0
102
RTVSPost2010Prop53
 90
        2
102
RTVSPost2010PropOp53
 70
     1
102
RTVSPost2010Prop54
  1
strokes_ogs.tif
102
RTVSPost2010PropOp54
 70
     1
102
RTVSPost2010Prop55
280
     0
102
RTVSPost2010PropOp55
 70
     1
102
RTVSPost2010Prop56
140
1.0
102
RTVSPost2010PropOp56
 70
     1
102
RTVSPost2010Prop57
140
1.0
102
RTVSPost2010PropOp57
 70
     1
102
RTVSPropertyOp0
 70
     1
102
RTVSPropertyOp1
 70
     1
102
RTVSPropertyOp2
 70
     1
102
RTVSPropertyOp3
 70
     1
102
RTVSPropertyOp4
 70
     1
102
RTVSPropertyOp5
 70
     1
102
RTVSPropertyOp6
 70
     1
102
RTVSPropertyOp7
 70
     1
102
RTVSPropertyOp8
 70
     1
102
RTVSPropertyOp9
 70
     1
102
RTVSPropertyOp10
 70
     1
102
RTVSPropertyOp11
 70
     1
102
RTVSPropertyOp12
 70
     1
102
RTVSPropertyOp13
 70
     1
102
RTVSPropertyOp14
 70
     1
102
RTVSPropertyOp15
 70
     1
102
RTVSPropertyOp16
 70
     1
102
RTVSPropertyOp17
 70
     1
102
RTVSPropertyOp18
 70
     1
102
RTVSPropertyOp19
 70
     1
102
RTVSPropertyOp20
 70
     1
102
RTVSPropertyOp21
 70
     1
102
RTVSPropertyOp22
 70
     1
102
RTVSPropertyOp23
 70
     1
102
RTVSPropertyOp24
 70
     1
102
RTVSPropertyOp25
 70
     1
102
RTVSPropertyOp26
 70
     1
102
RTVSPropertyOp27
 70
     1
102
RTVSPropertyOp28
 70
     1
102
RTVSPropertyOp29
 70
     1
102
RTVSPropertyOp30
 70
     1
102
RTVSPropertyOp31
 70
     1
102
RTVSPropertyOp32
 70
     1
102
RTVSPropertyOp33
 70
     1
102
RTVSPropertyOp34
 70
     1
102
RTVSPropertyOp35
 70
     1
102
RTVSPropertyOp36
 70
     1
102
RTVSPropertyOp37
 70
     1
102
RTVSPropertyOp38
 70
     1
102
RTVSPropertyOp39
 70
     1
102
RTVSPropertyOp40
 70
     1
102
RTVSPropertyOp41
 70
     1
102
RTVSPropertyOp42
 70
     1
102
RTVSPropertyOp43
 70
     1
102
RTVSPropertyOp44
 70
     1
102
RTVSPropertyOp45
 70
     1
102
RTVSPropertyOp46
 70
     1
102
RTVSPropertyOp47
 70
     1
102
RTVSPropertyOp48
 70
     1
102
RTVSPropertyOp49
 70
     1
102
RTVSPropertyOp50
 70
     1
102
RTVSPropertyOp51
 70
     0
102
RTVSPropertyOp52
 70
     0
102
RTVSPropertyOp53
 70
     1
102
RTVSPropertyOp54
 70
     1
102
RTVSPropertyOp55
 70
     1
102
RTVSPropertyOp56
 70
     1
102
RTVSPropertyOp57
 70
     1
102
RTVSPropertyOp58
 70
     1
102
RTVSPropertyOp59
 70
     1
102
RTVSPropertyOp60
 70
     1
102
RTVSPropertyOp61
 70
     1
102
RTVSPropertyOp62
 70
     1
  0
ENDSEC
  0
EOF
