  0
SECTION
  2
HEADER
  9
$ACADVER
  1
AC1015
  9
$ACADMAINTVER
 70
    20
  9
$DWGCODEPAGE
  3
ANSI_932
  9
$INSBASE
 10
0.0
 20
0.0
 30
0.0
  9
$EXTMIN
 10
139.8427842704986
 20
-0.264306497767393
 30
-0.0000000000000053
  9
$EXTMAX
 10
16307.98708817691
 20
11409.90526204624
 30
0.0000000000000099
  9
$LIMMIN
 10
-25.79074261211281
 20
-125.8223078213959
  9
$LIMMAX
 10
16471.10331197129
 20
11496.44801950658
  9
$ORTHOMODE
 70
     0
  9
$REGENMODE
 70
     1
  9
$FILLMODE
 70
     1
  9
$QTEXTMODE
 70
     0
  9
$MIRRTEXT
 70
     1
  9
$LTSCALE
 40
20.0
  9
$ATTMODE
 70
     1
  9
$TEXTSIZE
 40
100.0
  9
$TRACEWID
 40
1.0
  9
$TEXTSTYLE
  7
STYLE3
  9
$CLAYER
  8
寸法
  9
$CELTYPE
  6
BYLAYER
  9
$CECOLOR
 62
   256
  9
$CELTSCALE
 40
50.0
  9
$DISPSILH
 70
     0
  9
$DIMSCALE
 40
40.0
  9
$DIMASZ
 40
2.5
  9
$DIMEXO
 40
0.5
  9
$DIMDLI
 40
7.0
  9
$DIMRND
 40
0.0
  9
$DIMDLE
 40
0.0
  9
$DIMEXE
 40
1.5
  9
$DIMTP
 40
0.0
  9
$DIMTM
 40
0.0
  9
$DIMTXT
 40
3.0
  9
$DIMCEN
 40
0.0
  9
$DIMTSZ
 40
0.0
  9
$DIMTOL
 70
     0
  9
$DIMLIM
 70
     0
  9
$DIMTIH
 70
     0
  9
$DIMTOH
 70
     0
  9
$DIMSE1
 70
     0
  9
$DIMSE2
 70
     0
  9
$DIMTAD
 70
     3
  9
$DIMZIN
 70
     8
  9
$DIMBLK
  1

  9
$DIMASO
 70
     1
  9
$DIMSHO
 70
     1
  9
$DIMPOST
  1

  9
$DIMAPOST
  1

  9
$DIMALT
 70
     0
  9
$DIMALTD
 70
     2
  9
$DIMALTF
 40
0.0394
  9
$DIMLFAC
 40
1.0
  9
$DIMTOFL
 70
     1
  9
$DIMTVP
 40
0.0
  9
$DIMTIX
 70
     1
  9
$DIMSOXD
 70
     0
  9
$DIMSAH
 70
     1
  9
$DIMBLK1
  1
DOTSMALL
  9
$DIMBLK2
  1
DOTSMALL
  9
$DIMSTYLE
  2
INABA_S40G
  9
$DIMCLRD
 70
     0
  9
$DIMCLRE
 70
     0
  9
$DIMCLRT
 70
     7
  9
$DIMTFAC
 40
1.0
  9
$DIMGAP
 40
1.0
  9
$DIMJUST
 70
     0
  9
$DIMSD1
 70
     0
  9
$DIMSD2
 70
     0
  9
$DIMTOLJ
 70
     1
  9
$DIMTZIN
 70
     0
  9
$DIMALTZ
 70
     0
  9
$DIMALTTZ
 70
     0
  9
$DIMUPT
 70
     0
  9
$DIMDEC
 70
     1
  9
$DIMTDEC
 70
     4
  9
$DIMALTU
 70
     2
  9
$DIMALTTD
 70
     2
  9
$DIMTXSTY
  7
STYLE1
  9
$DIMAUNIT
 70
     0
  9
$DIMADEC
 70
     0
  9
$DIMALTRND
 40
0.0
  9
$DIMAZIN
 70
     0
  9
$DIMDSEP
 70
    46
  9
$DIMATFIT
 70
     3
  9
$DIMFRAC
 70
     0
  9
$DIMLDRBLK
  1

  9
$DIMLUNIT
 70
     2
  9
$DIMLWD
 70
    -2
  9
$DIMLWE
 70
    -2
  9
$DIMTMOVE
 70
     0
  9
$LUNITS
 70
     2
  9
$LUPREC
 70
     1
  9
$SKETCHINC
 40
1.0
  9
$FILLETRAD
 40
5.0
  9
$AUNITS
 70
     0
  9
$AUPREC
 70
     0
  9
$MENU
  1
acad
  9
$ELEVATION
 40
0.0
  9
$PELEVATION
 40
0.0
  9
$THICKNESS
 40
0.0
  9
$LIMCHECK
 70
     0
  9
$CHAMFERA
 40
0.0
  9
$CHAMFERB
 40
0.0
  9
$CHAMFERC
 40
0.0
  9
$CHAMFERD
 40
0.0
  9
$SKPOLY
 70
     0
  9
$TDCREATE
 40
2452116.684896065
  9
$TDUCREATE
 40
2452116.309896065
  9
$TDUPDATE
 40
2457984.447393009
  9
$TDUUPDATE
 40
2457984.072393009
  9
$TDINDWG
 40
0.4665246296
  9
$TDUSRTIMER
 40
0.4665246296
  9
$USRTIMER
 70
     1
  9
$ANGBASE
 50
0.0
  9
$ANGDIR
 70
     0
  9
$PDMODE
 70
     3
  9
$PDSIZE
 40
2.0
  9
$PLINEWID
 40
0.0
  9
$SPLFRAME
 70
     0
  9
$SPLINETYPE
 70
     6
  9
$SPLINESEGS
 70
     8
  9
$HANDSEED
  5
1685D
  9
$SURFTAB1
 70
     6
  9
$SURFTAB2
 70
     6
  9
$SURFTYPE
 70
     6
  9
$SURFU
 70
     6
  9
$SURFV
 70
     6
  9
$UCSBASE
  2

  9
$UCSNAME
  2

  9
$UCSORG
 10
0.0
 20
0.0
 30
0.0
  9
$UCSXDIR
 10
1.0
 20
0.0
 30
0.0
  9
$UCSYDIR
 10
0.0
 20
1.0
 30
0.0
  9
$UCSORTHOREF
  2

  9
$UCSORTHOVIEW
 70
     0
  9
$UCSORGTOP
 10
0.0
 20
0.0
 30
0.0
  9
$UCSORGBOTTOM
 10
0.0
 20
0.0
 30
0.0
  9
$UCSORGLEFT
 10
0.0
 20
0.0
 30
0.0
  9
$UCSORGRIGHT
 10
0.0
 20
0.0
 30
0.0
  9
$UCSORGFRONT
 10
0.0
 20
0.0
 30
0.0
  9
$UCSORGBACK
 10
0.0
 20
0.0
 30
0.0
  9
$PUCSBASE
  2

  9
$PUCSNAME
  2

  9
$PUCSORG
 10
0.0
 20
0.0
 30
0.0
  9
$PUCSXDIR
 10
1.0
 20
0.0
 30
0.0
  9
$PUCSYDIR
 10
0.0
 20
1.0
 30
0.0
  9
$PUCSORTHOREF
  2

  9
$PUCSORTHOVIEW
 70
     0
  9
$PUCSORGTOP
 10
0.0
 20
0.0
 30
0.0
  9
$PUCSORGBOTTOM
 10
0.0
 20
0.0
 30
0.0
  9
$PUCSORGLEFT
 10
0.0
 20
0.0
 30
0.0
  9
$PUCSORGRIGHT
 10
0.0
 20
0.0
 30
0.0
  9
$PUCSORGFRONT
 10
0.0
 20
0.0
 30
0.0
  9
$PUCSORGBACK
 10
0.0
 20
0.0
 30
0.0
  9
$USERI1
 70
     0
  9
$USERI2
 70
     0
  9
$USERI3
 70
     0
  9
$USERI4
 70
     0
  9
$USERI5
 70
     0
  9
$USERR1
 40
0.0
  9
$USERR2
 40
0.0
  9
$USERR3
 40
0.0
  9
$USERR4
 40
0.0
  9
$USERR5
 40
0.0
  9
$WORLDVIEW
 70
     1
  9
$SHADEDGE
 70
     3
  9
$SHADEDIF
 70
    70
  9
$TILEMODE
 70
     1
  9
$MAXACTVP
 70
    16
  9
$PINSBASE
 10
0.0
 20
0.0
 30
0.0
  9
$PLIMCHECK
 70
     0
  9
$PEXTMIN
 10
1.000000000000000E+20
 20
1.000000000000000E+20
 30
1.000000000000000E+20
  9
$PEXTMAX
 10
-1.000000000000000E+20
 20
-1.000000000000000E+20
 30
-1.000000000000000E+20
  9
$PLIMMIN
 10
0.0
 20
0.0
  9
$PLIMMAX
 10
420.0
 20
297.0
  9
$UNITMODE
 70
     0
  9
$VISRETAIN
 70
     0
  9
$PLINEGEN
 70
     0
  9
$PSLTSCALE
 70
     0
  9
$TREEDEPTH
 70
  3020
  9
$CMLSTYLE
  2
STANDARD
  9
$CMLJUST
 70
     0
  9
$CMLSCALE
 40
1.0
  9
$PROXYGRAPHICS
 70
     1
  9
$MEASUREMENT
 70
     1
  9
$CELWEIGHT
370
    -1
  9
$ENDCAPS
280
     0
  9
$JOINSTYLE
280
     0
  9
$LWDISPLAY
290
     0
  9
$INSUNITS
 70
     0
  9
$HYPERLINKBASE
  1

  9
$STYLESHEET
  1
inabass.ctb
  9
$XEDIT
290
     1
  9
$CEPSNTYPE
380
     0
  9
$PSTYLEMODE
290
     1
  9
$FINGERPRINTGUID
  2
{A1F3EBBE-F4E2-41F7-8304-C2794D73190F}
  9
$VERSIONGUID
  2
{73F0EC61-9014-4A53-8BDA-706587029155}
  9
$EXTNAMES
290
     1
  9
$PSVPSCALE
 40
0.0
  9
$OLESTARTUP
290
     0
  0
ENDSEC
  0
SECTION
  2
CLASSES
  0
CLASS
  1
ACDBDICTIONARYWDFLT
  2
AcDbDictionaryWithDefault
  3
ObjectDBX Classes
 90
        0
280
     0
281
     0
  0
CLASS
  1
MATERIAL
  2
AcDbMaterial
  3
ObjectDBX Classes
 90
     1153
280
     0
281
     0
  0
CLASS
  1
VISUALSTYLE
  2
AcDbVisualStyle
  3
ObjectDBX Classes
 90
     4095
280
     0
281
     0
  0
CLASS
  1
TABLESTYLE
  2
AcDbTableStyle
  3
ObjectDBX Classes
 90
     4095
280
     0
281
     0
  0
CLASS
  1
SCALE
  2
AcDbScale
  3
ObjectDBX Classes
 90
     1153
280
     0
281
     0
  0
CLASS
  1
MLEADERSTYLE
  2
AcDbMLeaderStyle
  3
ACDB_MLEADERSTYLE_CLASS
 90
     4095
280
     0
281
     0
  0
CLASS
  1
ACDBSECTIONVIEWSTYLE
  2
AcDbSectionViewStyle
  3
ObjectDBX Classes
 90
     1025
280
     0
281
     0
  0
CLASS
  1
ACDBDETAILVIEWSTYLE
  2
AcDbDetailViewStyle
  3
ObjectDBX Classes
 90
     1025
280
     0
281
     0
  0
CLASS
  1
SORTENTSTABLE
  2
AcDbSortentsTable
  3
ObjectDBX Classes
 90
        0
280
     0
281
     0
  0
CLASS
  1
DICTIONARYVAR
  2
AcDbDictionaryVar
  3
ObjectDBX Classes
 90
        0
280
     0
281
     0
  0
CLASS
  1
CELLSTYLEMAP
  2
AcDbCellStyleMap
  3
ObjectDBX Classes
 90
     1152
280
     0
281
     0
  0
CLASS
  1
ACDBPLACEHOLDER
  2
AcDbPlaceHolder
  3
ObjectDBX Classes
 90
        0
280
     0
281
     0
  0
CLASS
  1
LAYOUT
  2
AcDbLayout
  3
ObjectDBX Classes
 90
        0
280
     0
281
     0
  0
ENDSEC
  0
SECTION
  2
TABLES
  0
TABLE
  2
VPORT
  5
746D
330
0
100
AcDbSymbolTable
 70
     1
  0
VPORT
  5
16602
330
746D
100
AcDbSymbolTableRecord
100
AcDbViewportTableRecord
  2
*Active
 70
     0
 10
0.0
 20
0.0
 11
1.0
 21
1.0
 12
8222.656284679592
 22
5685.312855842594
 13
0.0
 23
0.0
 14
10.0
 24
10.0
 15
10.0
 25
10.0
 16
0.0
 26
0.0
 36
1.0
 17
0.0
 27
0.0
 37
0.0
 40
11713.55108077679
 41
1.646596858638743
 42
50.0
 43
0.0
 44
0.0
 50
0.0
 51
0.0
 71
     0
 72
     0
 73
     1
 74
     0
 75
     0
 76
     0
 77
     0
 78
     0
281
     0
 65
     1
110
0.0
120
0.0
130
0.0
111
1.0
121
0.0
131
0.0
112
0.0
122
1.0
132
0.0
 79
     0
146
0.0
1001
ACAD_NAV_VCDISPLAY
1070
     3
  0
ENDTAB
  0
TABLE
  2
LTYPE
  5
746A
330
0
100
AcDbSymbolTable
 70
     4
  0
LTYPE
  5
7477
330
746A
100
AcDbSymbolTableRecord
100
AcDbLinetypeTableRecord
  2
BYBLOCK
 70
     0
  3

 72
    65
 73
     0
 40
0.0
  0
LTYPE
  5
7478
330
746A
100
AcDbSymbolTableRecord
100
AcDbLinetypeTableRecord
  2
BYLAYER
 70
     0
  3

 72
    65
 73
     0
 40
0.0
  0
LTYPE
  5
7479
330
746A
100
AcDbSymbolTableRecord
100
AcDbLinetypeTableRecord
  2
CONTINUOUS
 70
     0
  3
Solid line
 72
    65
 73
     0
 40
0.0
  0
LTYPE
  5
7816
330
746A
100
AcDbSymbolTableRecord
100
AcDbLinetypeTableRecord
  2
CENTER
 70
     0
  3
____ _ ____ _ ____ _ ____ _ ____ _ ____ _ ____ 
 72
    65
 73
     4
 40
2.0
 49
1.25
 74
     0
 49
-0.25
 74
     0
 49
0.25
 74
     0
 49
-0.25
 74
     0
  0
LTYPE
  5
781A
330
746A
100
AcDbSymbolTableRecord
100
AcDbLinetypeTableRecord
  2
HIDDEN
 70
     0
  3
__ __ __ __ __ __ __ __ __ __ __ __ __ __ __ __
 72
    65
 73
     2
 40
0.375
 49
0.25
 74
     0
 49
-0.125
 74
     0
  0
LTYPE
  5
781B
330
746A
100
AcDbSymbolTableRecord
100
AcDbLinetypeTableRecord
  2
PHANTOM
 70
     0
  3
______  __  __  ______  __  __  ______  __  __ 
 72
    65
 73
     6
 40
2.5
 49
1.25
 74
     0
 49
-0.25
 74
     0
 49
0.25
 74
     0
 49
-0.25
 74
     0
 49
0.25
 74
     0
 49
-0.25
 74
     0
  0
ENDTAB
  0
TABLE
  2
LAYER
  5
7467
102
{ACAD_XDICTIONARY
360
150A5
102
}
330
0
100
AcDbSymbolTable
 70
    13
  0
LAYER
  5
7474
102
{ACAD_XDICTIONARY
360
1677A
102
}
330
7467
100
AcDbSymbolTableRecord
100
AcDbLayerTableRecord
  2
0
 70
     0
 62
     7
  6
CONTINUOUS
370
    -3
390
14F27
  0
LAYER
  5
DEB2
102
{ACAD_XDICTIONARY
360
1677C
102
}
330
7467
100
AcDbSymbolTableRecord
100
AcDbLayerTableRecord
  2
センター
 70
     0
 62
     3
  6
CENTER
370
    -3
390
14F27
  0
LAYER
  5
DEB3
102
{ACAD_XDICTIONARY
360
1677E
102
}
330
7467
100
AcDbSymbolTableRecord
100
AcDbLayerTableRecord
  2
寸法
 70
     0
 62
     4
  6
CONTINUOUS
370
    -3
390
14F27
  0
LAYER
  5
DEB4
102
{ACAD_XDICTIONARY
360
16780
102
}
330
7467
100
AcDbSymbolTableRecord
100
AcDbLayerTableRecord
  2
部品1
 70
     0
 62
     7
  6
CONTINUOUS
370
    -3
390
14F27
  0
LAYER
  5
DEB5
102
{ACAD_XDICTIONARY
360
16782
102
}
330
7467
100
AcDbSymbolTableRecord
100
AcDbLayerTableRecord
  2
補助
 70
     0
 62
    -1
  6
CONTINUOUS
370
    -3
390
14F27
  0
LAYER
  5
DEB6
102
{ACAD_XDICTIONARY
360
16784
102
}
330
7467
100
AcDbSymbolTableRecord
100
AcDbLayerTableRecord
  2
文字
 70
     0
 62
     7
  6
CONTINUOUS
370
    -3
390
14F27
  0
LAYER
  5
F255
330
7467
100
AcDbSymbolTableRecord
100
AcDbLayerTableRecord
  2
DEFPOINTS
 70
     0
 62
     7
  6
CONTINUOUS
290
     0
370
    -3
390
14F27
  0
LAYER
  5
10B54
102
{ACAD_XDICTIONARY
360
16786
102
}
330
7467
100
AcDbSymbolTableRecord
100
AcDbLayerTableRecord
  2
仕様書枠
 70
     0
 62
   230
  6
CONTINUOUS
370
    -3
390
14F27
  0
LAYER
  5
11729
102
{ACAD_XDICTIONARY
360
16788
102
}
330
7467
100
AcDbSymbolTableRecord
100
AcDbLayerTableRecord
  2
Ｇ．Ｌ
 70
     0
 62
    30
  6
CONTINUOUS
370
    -3
390
14F27
  0
LAYER
  5
1173F
102
{ACAD_XDICTIONARY
360
1678A
102
}
330
7467
100
AcDbSymbolTableRecord
100
AcDbLayerTableRecord
  2
細線
 70
     0
 62
     5
  6
CONTINUOUS
370
    -3
390
14F27
  0
LAYER
  5
118A1
102
{ACAD_XDICTIONARY
360
1678C
102
}
330
7467
100
AcDbSymbolTableRecord
100
AcDbLayerTableRecord
  2
想像線
 70
     0
 62
     6
  6
PHANTOM
370
    -3
390
14F27
  0
LAYER
  5
123C1
102
{ACAD_XDICTIONARY
360
1678E
102
}
330
7467
100
AcDbSymbolTableRecord
100
AcDbLayerTableRecord
  2
破線
 70
     0
 62
     2
  6
HIDDEN
370
    -3
390
14F27
  0
LAYER
  5
167C9
102
{ACAD_XDICTIONARY
360
167CA
102
}
330
7467
100
AcDbSymbolTableRecord
100
AcDbLayerTableRecord
  2
部品
 70
     0
 62
     7
  6
CONTINUOUS
370
    -3
390
14F27
  0
ENDTAB
  0
TABLE
  2
STYLE
  5
7468
330
0
100
AcDbSymbolTable
 70
     5
  0
STYLE
  5
7475
330
7468
100
AcDbSymbolTableRecord
100
AcDbTextStyleTableRecord
  2
STANDARD
 70
     0
 40
0.0
 41
1.0
 50
0.0
 71
     0
 42
4.0
  3
txt
  4
C:\AutoCAD LT\bigfont.shx
  0
STYLE
  5
F706
330
7468
100
AcDbSymbolTableRecord
100
AcDbTextStyleTableRecord
  2
STYLE1
 70
     0
 40
0.0
 41
1.0
 50
0.0
 71
     0
 42
4.0
  3
isocp.shx
  4
bigfont.shx
  0
STYLE
  5
103BF
330
7468
100
AcDbSymbolTableRecord
100
AcDbTextStyleTableRecord
  2
STYLE2
 70
     0
 40
0.0
 41
1.0
 50
0.0
 71
     0
 42
100.0
  3
MS PGothic.ttf
  4

1001
ACAD
1000
MS PGothic
1071
    32818
  0
STYLE
  5
10BAA
330
7468
100
AcDbSymbolTableRecord
100
AcDbTextStyleTableRecord
  2
STYLE3
 70
     0
 40
0.0
 41
1.0
 50
0.0
 71
     0
 42
100.0
  3
DFPGothic-EB.ttf
  4

1001
ACAD
1000
DFPGothic-EB
1071
    32818
  0
ENDTAB
  0
TABLE
  2
VIEW
  5
746B
330
0
100
AcDbSymbolTable
 70
     0
  0
ENDTAB
  0
TABLE
  2
UCS
  5
746C
330
0
100
AcDbSymbolTable
 70
     0
  0
ENDTAB
  0
TABLE
  2
APPID
  5
746E
330
0
100
AcDbSymbolTable
 70
    10
  0
APPID
  5
7476
330
746E
100
AcDbSymbolTableRecord
100
AcDbRegAppTableRecord
  2
ACAD
 70
     0
  0
APPID
  5
DEA9
330
746E
100
AcDbSymbolTableRecord
100
AcDbRegAppTableRecord
  2
CONTENTBLOCKICON
 70
     0
  0
APPID
  5
DEAA
330
746E
100
AcDbSymbolTableRecord
100
AcDbRegAppTableRecord
  2
CONTENTBLOCKDESCRIPTION
 70
     0
  0
APPID
  5
E71D
330
746E
100
AcDbSymbolTableRecord
100
AcDbRegAppTableRecord
  2
CONTENTTABDATA
 70
     0
  0
APPID
  5
E71E
330
746E
100
AcDbSymbolTableRecord
100
AcDbRegAppTableRecord
  2
CONTENTCURRENTTAB
 70
     0
  0
APPID
  5
F3BA
330
746E
100
AcDbSymbolTableRecord
100
AcDbRegAppTableRecord
  2
DRAWINGVARIABLESXDATA
 70
     0
  0
APPID
  5
16659
330
746E
100
AcDbSymbolTableRecord
100
AcDbRegAppTableRecord
  2
ACAD_NAV_VCDISPLAY
 70
     0
  0
APPID
  5
16770
330
746E
100
AcDbSymbolTableRecord
100
AcDbRegAppTableRecord
  2
ACAD_EXEMPT_FROM_CAD_STANDARDS
 70
     0
  0
APPID
  5
167CB
330
746E
100
AcDbSymbolTableRecord
100
AcDbRegAppTableRecord
  2
ACAD_PSEXT
 70
     0
  0
APPID
  5
16858
330
746E
100
AcDbSymbolTableRecord
100
AcDbRegAppTableRecord
  2
ACAD_MLEADERVER
 70
     0
  0
ENDTAB
  0
TABLE
  2
DIMSTYLE
  5
746F
330
0
100
AcDbSymbolTable
 70
     4
100
AcDbDimStyleTable
 71
     1
340
F71F
  0
DIMSTYLE
105
7484
330
746F
100
AcDbSymbolTableRecord
100
AcDbDimStyleTableRecord
  2
JIS
 70
     0
 41
2.5
 42
1.0
 43
7.0
 44
1.0
 73
     0
 74
     0
 77
     1
 78
     8
140
2.5
141
0.0
143
0.0394
147
0.0
172
     1
174
     1
175
     1
340
7475
  0
DIMSTYLE
105
F71F
102
{ACAD_REACTORS
330
13B23
330
14ABF
330
14AD1
330
14AD2
330
14AD3
330
14AD4
330
14AD5
330
14B1F
330
14B20
330
14B21
330
14B22
330
14B38
330
14E3A
330
14ECF
330
14F17
330
152E3
330
152F2
330
152F3
330
152F4
330
15492
330
16046
330
16047
330
1604B
330
1604C
330
1604D
330
1604E
330
16076
330
16077
330
167D9
102
}
330
746F
100
AcDbSymbolTableRecord
100
AcDbDimStyleTableRecord
  2
INABA_S40G
 70
     0
 40
40.0
 41
2.5
 42
0.5
 43
7.0
 44
1.5
 73
     0
 74
     0
 77
     3
 78
     8
140
3.0
141
0.0
143
0.0394
147
1.0
172
     1
173
     1
174
     1
178
     7
271
     1
340
F706
341
F770
343
F770
344
F770
  0
DIMSTYLE
105
150A4
330
746F
100
AcDbSymbolTableRecord
100
AcDbDimStyleTableRecord
  2
INABA_S40
 70
     0
 40
40.0
 41
2.5
 42
0.5
 43
7.0
 44
1.5
 73
     0
 74
     0
 77
     3
 78
     8
140
3.0
141
0.0
143
0.0394
147
1.0
172
     1
173
     1
174
     1
175
     1
178
     7
289
     0
340
7475
341
14FFF
343
14FFF
344
14FFF
  0
ENDTAB
  0
TABLE
  2
BLOCK_RECORD
  5
7466
330
0
100
AcDbSymbolTable
 70
    36
  0
BLOCK_RECORD
  5
747D
330
7466
100
AcDbSymbolTableRecord
100
AcDbBlockTableRecord
  2
*MODEL_SPACE
340
14F2C
  0
BLOCK_RECORD
  5
747A
330
7466
100
AcDbSymbolTableRecord
100
AcDbBlockTableRecord
  2
*PAPER_SPACE
340
14F2D
  0
BLOCK_RECORD
  5
F770
330
7466
100
AcDbSymbolTableRecord
100
AcDbBlockTableRecord
  2
_DOTSMALL
340
0
102
{BLKREFS
331
16438
331
16442
331
16443
331
1644B
331
1644C
331
164AC
331
164AD
331
164B5
331
164B6
331
15C42
331
15C43
331
15C4B
331
15C4C
331
15C54
331
15C55
331
15C5F
331
15C60
331
15C6A
331
15C6B
331
15C7C
331
15C7D
331
15C85
331
15C86
331
15C8E
331
15C8F
331
15C97
331
15C98
331
15CA0
331
15CA1
331
15CAB
331
15CAC
331
15CB6
331
15CB7
331
15CBF
331
15CC0
331
15CCA
331
15CCB
331
15CD3
331
15CD4
331
15CDC
331
15CDD
331
15CF0
331
15CF1
331
15CF9
331
15CFA
331
16407
331
16408
331
16411
331
16412
331
1641A
331
1641B
331
16425
331
16426
331
1642E
331
1642F
331
16437
331
167EF
331
167F0
102
}
  0
BLOCK_RECORD
  5
13C83
330
7466
100
AcDbSymbolTableRecord
100
AcDbBlockTableRecord
  2
*D1
340
0
  0
BLOCK_RECORD
  5
14B8D
330
7466
100
AcDbSymbolTableRecord
100
AcDbBlockTableRecord
  2
*D2
340
0
  0
BLOCK_RECORD
  5
14BBF
330
7466
100
AcDbSymbolTableRecord
100
AcDbBlockTableRecord
  2
*D3
340
0
  0
BLOCK_RECORD
  5
14BCB
330
7466
100
AcDbSymbolTableRecord
100
AcDbBlockTableRecord
  2
*D4
340
0
  0
BLOCK_RECORD
  5
14BD7
330
7466
100
AcDbSymbolTableRecord
100
AcDbBlockTableRecord
  2
*D5
340
0
  0
BLOCK_RECORD
  5
14BE3
330
7466
100
AcDbSymbolTableRecord
100
AcDbBlockTableRecord
  2
*D6
340
0
  0
BLOCK_RECORD
  5
14BF1
330
7466
100
AcDbSymbolTableRecord
100
AcDbBlockTableRecord
  2
*D7
340
0
  0
BLOCK_RECORD
  5
14C09
330
7466
100
AcDbSymbolTableRecord
100
AcDbBlockTableRecord
  2
*D8
340
0
  0
BLOCK_RECORD
  5
14C17
330
7466
100
AcDbSymbolTableRecord
100
AcDbBlockTableRecord
  2
*D9
340
0
  0
BLOCK_RECORD
  5
14C25
330
7466
100
AcDbSymbolTableRecord
100
AcDbBlockTableRecord
  2
*D10
340
0
  0
BLOCK_RECORD
  5
14C31
330
7466
100
AcDbSymbolTableRecord
100
AcDbBlockTableRecord
  2
*D11
340
0
  0
BLOCK_RECORD
  5
14C3D
330
7466
100
AcDbSymbolTableRecord
100
AcDbBlockTableRecord
  2
*D12
340
0
  0
BLOCK_RECORD
  5
14E3B
330
7466
100
AcDbSymbolTableRecord
100
AcDbBlockTableRecord
  2
*D13
340
0
  0
BLOCK_RECORD
  5
14ED0
330
7466
100
AcDbSymbolTableRecord
100
AcDbBlockTableRecord
  2
*D14
340
0
  0
BLOCK_RECORD
  5
14F18
330
7466
100
AcDbSymbolTableRecord
100
AcDbBlockTableRecord
  2
*D15
340
0
  0
BLOCK_RECORD
  5
14FFF
330
7466
100
AcDbSymbolTableRecord
100
AcDbBlockTableRecord
  2
_OPEN
340
0
  0
BLOCK_RECORD
  5
15005
330
7466
100
AcDbSymbolTableRecord
100
AcDbBlockTableRecord
  2
_DOT
340
0
  0
BLOCK_RECORD
  5
154AB
330
7466
100
AcDbSymbolTableRecord
100
AcDbBlockTableRecord
  2
*D18
340
0
  0
BLOCK_RECORD
  5
154B9
330
7466
100
AcDbSymbolTableRecord
100
AcDbBlockTableRecord
  2
*D19
340
0
  0
BLOCK_RECORD
  5
154C7
330
7466
100
AcDbSymbolTableRecord
100
AcDbBlockTableRecord
  2
*D20
340
0
  0
BLOCK_RECORD
  5
154D3
330
7466
100
AcDbSymbolTableRecord
100
AcDbBlockTableRecord
  2
*D21
340
0
  0
BLOCK_RECORD
  5
15603
330
7466
100
AcDbSymbolTableRecord
100
AcDbBlockTableRecord
  2
*D22
340
0
  0
BLOCK_RECORD
  5
162C0
330
7466
100
AcDbSymbolTableRecord
100
AcDbBlockTableRecord
  2
*D23
340
0
  0
BLOCK_RECORD
  5
162CC
330
7466
100
AcDbSymbolTableRecord
100
AcDbBlockTableRecord
  2
*D24
340
0
  0
BLOCK_RECORD
  5
162DA
330
7466
100
AcDbSymbolTableRecord
100
AcDbBlockTableRecord
  2
*D25
340
0
  0
BLOCK_RECORD
  5
162E6
330
7466
100
AcDbSymbolTableRecord
100
AcDbBlockTableRecord
  2
*D26
340
0
  0
BLOCK_RECORD
  5
162F2
330
7466
100
AcDbSymbolTableRecord
100
AcDbBlockTableRecord
  2
*D27
340
0
  0
BLOCK_RECORD
  5
16300
330
7466
100
AcDbSymbolTableRecord
100
AcDbBlockTableRecord
  2
*D28
340
0
  0
BLOCK_RECORD
  5
1630C
330
7466
100
AcDbSymbolTableRecord
100
AcDbBlockTableRecord
  2
*D29
340
0
  0
BLOCK_RECORD
  5
16319
330
7466
100
AcDbSymbolTableRecord
100
AcDbBlockTableRecord
  2
*D30
340
0
  0
BLOCK_RECORD
  5
16672
102
{ACAD_XDICTIONARY
360
166EF
102
}
330
7466
100
AcDbSymbolTableRecord
100
AcDbBlockTableRecord
  2
A$C7FDD17E1
340
0
  0
BLOCK_RECORD
  5
167E0
330
7466
100
AcDbSymbolTableRecord
100
AcDbBlockTableRecord
  2
*D34
340
0
  0
ENDTAB
  0
ENDSEC
  0
SECTION
  2
BLOCKS
  0
BLOCK
  5
7489
330
747D
100
AcDbEntity
  8
0
100
AcDbBlockBegin
  2
*MODEL_SPACE
 70
     0
 10
0.0
 20
0.0
 30
0.0
  3
*MODEL_SPACE
  1

  0
ENDBLK
  5
748A
330
747D
100
AcDbEntity
  8
0
100
AcDbBlockEnd
  0
BLOCK
  5
7487
330
747A
100
AcDbEntity
 67
     1
  8
0
100
AcDbBlockBegin
  2
*PAPER_SPACE
 70
     0
 10
0.0
 20
0.0
 30
0.0
  3
*PAPER_SPACE
  1

  0
ENDBLK
  5
7488
330
747A
100
AcDbEntity
 67
     1
  8
0
100
AcDbBlockEnd
  0
BLOCK
  5
F771
330
F770
100
AcDbEntity
  8
0
 48
50.0
100
AcDbBlockBegin
  2
_DOTSMALL
 70
     0
 10
0.0
 20
0.0
 30
0.0
  3
_DOTSMALL
  1

  0
LWPOLYLINE
  5
F772
330
F770
100
AcDbEntity
  8
0
  6
ByBlock
 62
     0
 48
50.0
100
AcDbPolyline
 90
        2
 70
     1
 43
0.5
 10
-0.0625
 20
0.0
 42
1.0
 10
0.0625
 20
0.0
 42
1.0
  0
ENDBLK
  5
F776
330
F770
100
AcDbEntity
  8
0
 48
50.0
100
AcDbBlockEnd
  0
BLOCK
  5
1477E
330
13C83
100
AcDbEntity
  8
0
 48
50.0
100
AcDbBlockBegin
  2
*D1
 70
     1
 10
0.0
 20
0.0
 30
0.0
  3
*D1
  1

  0
LINE
  5
15CF6
330
13C83
100
AcDbEntity
  8
寸法
 62
     0
 48
50.0
370
    -2
100
AcDbLine
 10
5439.4849982394
 20
7924.545031521046
 30
0.0
 11
5439.4849982394
 21
6897.443156660975
 31
0.0
  0
LINE
  5
15CF7
330
13C83
100
AcDbEntity
  8
寸法
 62
     0
 48
50.0
370
    -2
100
AcDbLine
 10
7079.484998239383
 20
7924.545031521176
 30
0.0
 11
7079.484998239383
 21
6897.443156660975
 31
0.0
  0
LINE
  5
15CF8
330
13C83
100
AcDbEntity
  8
寸法
 62
     0
 48
50.0
370
    -2
100
AcDbLine
 10
5439.4849982394
 20
6957.443156660975
 30
0.0
 11
7079.484998239383
 21
6957.443156660975
 31
0.0
  0
INSERT
  5
15CF9
330
13C83
100
AcDbEntity
  8
寸法
 62
     0
 48
50.0
370
    -2
100
AcDbBlockReference
  2
_DOTSMALL
 10
5439.4849982394
 20
6957.443156660975
 30
0.0
 41
100.0
 42
100.0
 43
100.0
 50
180.0
  0
INSERT
  5
15CFA
330
13C83
100
AcDbEntity
  8
寸法
 62
     0
 48
50.0
370
    -2
100
AcDbBlockReference
  2
_DOTSMALL
 10
7079.484998239383
 20
6957.443156660975
 30
0.0
 41
100.0
 42
100.0
 43
100.0
  0
MTEXT
  5
15CFB
330
13C83
100
AcDbEntity
  8
寸法
 62
     7
 48
50.0
100
AcDbMText
 10
6251.236540082384
 20
7057.443156660974
 30
0.0
 40
120.0
 41
0.0
 71
     5
 72
     1
  1
\A1;1640
  7
STYLE1
 73
     1
 44
1.0
1001
ACAD
1000
MTEXTBEGIN
1070
    73
1070
     1
1070
    44
1040
1.0
1070
    74
1070
     0
1000
MTEXTEND
  0
POINT
  5
15CFC
330
13C83
100
AcDbEntity
  8
DEFPOINTS
 62
     0
 48
50.0
100
AcDbPoint
 10
5439.4849982394
 20
7944.545031521045
 30
0.0
  0
POINT
  5
15CFD
330
13C83
100
AcDbEntity
  8
DEFPOINTS
 62
     0
 48
50.0
100
AcDbPoint
 10
7079.484998239383
 20
7944.545031521177
 30
0.0
  0
POINT
  5
15CFE
330
13C83
100
AcDbEntity
  8
DEFPOINTS
 62
     0
 48
50.0
100
AcDbPoint
 10
7079.484998239383
 20
6957.443156660975
 30
0.0
  0
ENDBLK
  5
14788
330
13C83
100
AcDbEntity
  8
0
 48
50.0
100
AcDbBlockEnd
  0
BLOCK
  5
14CC7
330
14B8D
100
AcDbEntity
  8
0
 48
50.0
100
AcDbBlockBegin
  2
*D2
 70
     1
 10
0.0
 20
0.0
 30
0.0
  3
*D2
  1

  0
LINE
  5
15CEB
330
14B8D
100
AcDbEntity
  8
寸法
 62
     0
 48
50.0
370
    -2
100
AcDbLine
 10
7099.484998239383
 20
7999.545031521204
 30
0.0
 11
7786.911343973793
 21
7999.545031521204
 31
0.0
  0
LINE
  5
15CEC
330
14B8D
100
AcDbEntity
  8
寸法
 62
     0
 48
50.0
370
    -2
100
AcDbLine
 10
7099.484998239383
 20
7944.545031521204
 30
0.0
 11
7786.911343973793
 21
7944.545031521204
 31
0.0
  0
LINE
  5
15CED
330
14B8D
100
AcDbEntity
  8
寸法
 62
     0
 48
50.0
370
    -2
100
AcDbLine
 10
7726.911343973793
 20
7999.545031521204
 30
0.0
 11
7726.911343973793
 21
8099.545031521204
 31
0.0
  0
LINE
  5
15CEE
330
14B8D
100
AcDbEntity
  8
寸法
 62
     0
 48
50.0
370
    -2
100
AcDbLine
 10
7726.911343973793
 20
7944.545031521204
 30
0.0
 11
7726.911343973793
 21
7458.198283242109
 31
0.0
  0
LINE
  5
15CEF
330
14B8D
100
AcDbEntity
  8
寸法
 62
     0
 48
50.0
370
    -2
100
AcDbLine
 10
7726.911343973793
 20
7999.545031521204
 30
0.0
 11
7726.911343973793
 21
7944.545031521204
 31
0.0
  0
INSERT
  5
15CF0
330
14B8D
100
AcDbEntity
  8
寸法
 62
     0
 48
50.0
370
    -2
100
AcDbBlockReference
  2
_DOTSMALL
 10
7726.911343973793
 20
7999.545031521204
 30
0.0
 41
100.0
 42
100.0
 43
100.0
 50
270.0
  0
INSERT
  5
15CF1
330
14B8D
100
AcDbEntity
  8
寸法
 62
     0
 48
50.0
370
    -2
100
AcDbBlockReference
  2
_DOTSMALL
 10
7726.911343973793
 20
7944.545031521204
 30
0.0
 41
100.0
 42
100.0
 43
100.0
 50
90.0
  0
MTEXT
  5
15CF2
330
14B8D
100
AcDbEntity
  8
寸法
 62
     7
 48
50.0
100
AcDbMText
 10
7626.911343973792
 20
7566.683564616349
 30
0.0
 40
120.0
 41
0.0
 71
     5
 72
     1
  1
\A1;55
  7
STYLE1
 11
0.0000000000000001
 21
1.0
 31
0.0
 73
     1
 44
1.0
1001
ACAD
1000
MTEXTBEGIN
1070
    73
1070
     1
1070
    44
1040
1.0
1070
    74
1070
     0
1000
MTEXTEND
  0
POINT
  5
15CF3
330
14B8D
100
AcDbEntity
  8
DEFPOINTS
 62
     0
 48
50.0
100
AcDbPoint
 10
7079.484998239383
 20
7999.545031521204
 30
0.0
  0
POINT
  5
15CF4
330
14B8D
100
AcDbEntity
  8
DEFPOINTS
 62
     0
 48
50.0
100
AcDbPoint
 10
7079.484998239383
 20
7944.545031521204
 30
0.0
  0
POINT
  5
15CF5
330
14B8D
100
AcDbEntity
  8
DEFPOINTS
 62
     0
 48
50.0
100
AcDbPoint
 10
7726.911343973793
 20
7944.545031521204
 30
0.0
  0
ENDBLK
  5
14CD3
330
14B8D
100
AcDbEntity
  8
0
 48
50.0
100
AcDbBlockEnd
  0
BLOCK
  5
14CF5
330
14BBF
100
AcDbEntity
  8
0
 48
50.0
100
AcDbBlockBegin
  2
*D3
 70
     1
 10
0.0
 20
0.0
 30
0.0
  3
*D3
  1

  0
LINE
  5
164A9
330
14BBF
100
AcDbEntity
  8
寸法
 62
     0
 48
50.0
370
    -2
100
AcDbLine
 10
6283.626021068418
 20
8815.045031521131
 30
0.0
 11
6174.972623537587
 21
8409.545031521096
 31
0.0
  0
LINE
  5
164AA
330
14BBF
100
AcDbEntity
  8
寸法
 62
     0
 48
50.0
370
    -2
100
AcDbLine
 10
7044.62602106843
 20
8815.045031521124
 30
0.0
 11
6935.972623537601
 21
8409.545031521096
 31
0.0
  0
LINE
  5
164AB
330
14BBF
100
AcDbEntity
  8
寸法
 62
     0
 48
50.0
370
    -2
100
AcDbLine
 10
6191.049575083454
 20
8469.545031521095
 30
0.0
 11
6952.049575083468
 21
8469.545031521095
 31
0.0
  0
INSERT
  5
164AC
330
14BBF
100
AcDbEntity
  8
寸法
 62
     0
 48
50.0
370
    -2
100
AcDbBlockReference
  2
_DOTSMALL
 10
6191.049575083454
 20
8469.545031521095
 30
0.0
 41
100.0
 42
100.0
 43
100.0
 50
180.0
  0
INSERT
  5
164AD
330
14BBF
100
AcDbEntity
  8
寸法
 62
     0
 48
50.0
370
    -2
100
AcDbBlockReference
  2
_DOTSMALL
 10
6952.049575083468
 20
8469.545031521095
 30
0.0
 41
100.0
 42
100.0
 43
100.0
  0
MTEXT
  5
164AE
330
14BBF
100
AcDbEntity
  8
寸法
 62
     7
 48
50.0
100
AcDbMText
 10
6571.549575083462
 20
8569.545031521094
 30
0.0
 40
120.0
 41
0.0
 71
     5
 72
     1
  1
\A1;761
  7
STYLE1
 73
     1
 44
1.0
1001
ACAD
1000
MTEXTBEGIN
1070
    73
1070
     1
1070
    44
1040
1.0
1070
    74
1070
     0
1000
MTEXTEND
  0
POINT
  5
164AF
330
14BBF
100
AcDbEntity
  8
DEFPOINTS
 62
     0
 48
50.0
100
AcDbPoint
 10
6288.98500491704
 20
8835.045031521131
 30
0.0
  0
POINT
  5
164B0
330
14BBF
100
AcDbEntity
  8
DEFPOINTS
 62
     0
 48
50.0
100
AcDbPoint
 10
7049.985004917053
 20
8835.045031521124
 30
0.0
  0
POINT
  5
164B1
330
14BBF
100
AcDbEntity
  8
DEFPOINTS
 62
     0
 48
50.0
100
AcDbPoint
 10
6952.049575083468
 20
8469.545031521095
 30
0.0
  0
ENDBLK
  5
14CFF
330
14BBF
100
AcDbEntity
  8
0
 48
50.0
100
AcDbBlockEnd
  0
BLOCK
  5
14D00
330
14BCB
100
AcDbEntity
  8
0
 48
50.0
100
AcDbBlockBegin
  2
*D4
 70
     1
 10
0.0
 20
0.0
 30
0.0
  3
*D4
  1

  0
LINE
  5
15CD9
330
14BCB
100
AcDbEntity
  8
寸法
 62
     0
 48
50.0
370
    -2
100
AcDbLine
 10
6314.484998239408
 20
9334.545031521123
 30
0.0
 11
6314.484998239408
 21
9590.353251146222
 31
0.0
  0
LINE
  5
15CDA
330
14BCB
100
AcDbEntity
  8
寸法
 62
     0
 48
50.0
370
    -2
100
AcDbLine
 10
7024.484998239408
 20
9334.545031521248
 30
0.0
 11
7024.484998239408
 21
9590.353251146222
 31
0.0
  0
LINE
  5
15CDB
330
14BCB
100
AcDbEntity
  8
寸法
 62
     0
 48
50.0
370
    -2
100
AcDbLine
 10
6314.484998239408
 20
9530.353251146221
 30
0.0
 11
7024.484998239408
 21
9530.353251146221
 31
0.0
  0
INSERT
  5
15CDC
330
14BCB
100
AcDbEntity
  8
寸法
 62
     0
 48
50.0
370
    -2
100
AcDbBlockReference
  2
_DOTSMALL
 10
6314.484998239408
 20
9530.353251146221
 30
0.0
 41
100.0
 42
100.0
 43
100.0
 50
180.0
  0
INSERT
  5
15CDD
330
14BCB
100
AcDbEntity
  8
寸法
 62
     0
 48
50.0
370
    -2
100
AcDbBlockReference
  2
_DOTSMALL
 10
7024.484998239408
 20
9530.353251146221
 30
0.0
 41
100.0
 42
100.0
 43
100.0
  0
MTEXT
  5
15CDE
330
14BCB
100
AcDbEntity
  8
寸法
 62
     7
 48
50.0
100
AcDbMText
 10
6669.734998239409
 20
9630.353251146223
 30
0.0
 40
120.0
 41
0.0
 71
     5
 72
     1
  1
\A1;710
  7
STYLE1
 73
     1
 44
1.0
1001
ACAD
1000
MTEXTBEGIN
1070
    73
1070
     1
1070
    44
1040
1.0
1070
    74
1070
     0
1000
MTEXTEND
  0
POINT
  5
15CDF
330
14BCB
100
AcDbEntity
  8
DEFPOINTS
 62
     0
 48
50.0
100
AcDbPoint
 10
6314.484998239408
 20
9314.545031521124
 30
0.0
  0
POINT
  5
15CE0
330
14BCB
100
AcDbEntity
  8
DEFPOINTS
 62
     0
 48
50.0
100
AcDbPoint
 10
7024.484998239408
 20
9314.545031521246
 30
0.0
  0
POINT
  5
15CE1
330
14BCB
100
AcDbEntity
  8
DEFPOINTS
 62
     0
 48
50.0
100
AcDbPoint
 10
7024.484998239408
 20
9530.353251146221
 30
0.0
  0
ENDBLK
  5
14D0A
330
14BCB
100
AcDbEntity
  8
0
 48
50.0
100
AcDbBlockEnd
  0
BLOCK
  5
14D0B
330
14BD7
100
AcDbEntity
  8
0
 48
50.0
100
AcDbBlockBegin
  2
*D5
 70
     1
 10
0.0
 20
0.0
 30
0.0
  3
*D5
  1

  0
LINE
  5
15CD0
330
14BD7
100
AcDbEntity
  8
寸法
 62
     0
 48
50.0
370
    -2
100
AcDbLine
 10
6204.484998239408
 20
9334.545031521248
 30
0.0
 11
6204.484998239408
 21
9590.353251146222
 31
0.0
  0
LINE
  5
15CD1
330
14BD7
100
AcDbEntity
  8
寸法
 62
     0
 48
50.0
370
    -2
100
AcDbLine
 10
6314.484998239412
 20
9334.545031521226
 30
0.0
 11
6314.484998239412
 21
9590.353251146222
 31
0.0
  0
LINE
  5
15CD2
330
14BD7
100
AcDbEntity
  8
寸法
 62
     0
 48
50.0
370
    -2
100
AcDbLine
 10
6204.484998239408
 20
9530.353251146221
 30
0.0
 11
6314.484998239412
 21
9530.353251146221
 31
0.0
  0
INSERT
  5
15CD3
330
14BD7
100
AcDbEntity
  8
寸法
 62
     0
 48
50.0
370
    -2
100
AcDbBlockReference
  2
_DOTSMALL
 10
6204.484998239408
 20
9530.353251146221
 30
0.0
 41
100.0
 42
100.0
 43
100.0
 50
180.0
  0
INSERT
  5
15CD4
330
14BD7
100
AcDbEntity
  8
寸法
 62
     0
 48
50.0
370
    -2
100
AcDbBlockReference
  2
_DOTSMALL
 10
6314.484998239412
 20
9530.353251146221
 30
0.0
 41
100.0
 42
100.0
 43
100.0
  0
MTEXT
  5
15CD5
330
14BD7
100
AcDbEntity
  8
寸法
 62
     7
 48
50.0
100
AcDbMText
 10
6259.48499823941
 20
9630.353251146223
 30
0.0
 40
120.0
 41
0.0
 71
     5
 72
     1
  1
\A1;110
  7
STYLE1
 73
     1
 44
1.0
1001
ACAD
1000
MTEXTBEGIN
1070
    73
1070
     1
1070
    44
1040
1.0
1070
    74
1070
     0
1000
MTEXTEND
  0
POINT
  5
15CD6
330
14BD7
100
AcDbEntity
  8
DEFPOINTS
 62
     0
 48
50.0
100
AcDbPoint
 10
6204.484998239408
 20
9314.545031521246
 30
0.0
  0
POINT
  5
15CD7
330
14BD7
100
AcDbEntity
  8
DEFPOINTS
 62
     0
 48
50.0
100
AcDbPoint
 10
6314.484998239412
 20
9314.545031521225
 30
0.0
  0
POINT
  5
15CD8
330
14BD7
100
AcDbEntity
  8
DEFPOINTS
 62
     0
 48
50.0
100
AcDbPoint
 10
6314.484998239412
 20
9530.353251146221
 30
0.0
  0
ENDBLK
  5
14D15
330
14BD7
100
AcDbEntity
  8
0
 48
50.0
100
AcDbBlockEnd
  0
BLOCK
  5
14D16
330
14BE3
100
AcDbEntity
  8
0
 48
50.0
100
AcDbBlockBegin
  2
*D6
 70
     1
 10
0.0
 20
0.0
 30
0.0
  3
*D6
  1

  0
LINE
  5
15CC5
330
14BE3
100
AcDbEntity
  8
寸法
 62
     0
 48
50.0
370
    -2
100
AcDbLine
 10
5439.484998239374
 20
9334.545031521123
 30
0.0
 11
5439.484998239374
 21
9590.353251146105
 31
0.0
  0
LINE
  5
15CC6
330
14BE3
100
AcDbEntity
  8
寸法
 62
     0
 48
50.0
370
    -2
100
AcDbLine
 10
5494.484998239408
 20
9334.545031521123
 30
0.0
 11
5494.484998239408
 21
9590.353251146105
 31
0.0
  0
LINE
  5
15CC7
330
14BE3
100
AcDbEntity
  8
寸法
 62
     0
 48
50.0
370
    -2
100
AcDbLine
 10
5494.484998239408
 20
9530.353251146106
 30
0.0
 11
5594.484998239408
 21
9530.353251146106
 31
0.0
  0
LINE
  5
15CC8
330
14BE3
100
AcDbEntity
  8
寸法
 62
     0
 48
50.0
370
    -2
100
AcDbLine
 10
5439.484998239374
 20
9530.353251146106
 30
0.0
 11
5022.514435490896
 21
9530.353251146106
 31
0.0
  0
LINE
  5
15CC9
330
14BE3
100
AcDbEntity
  8
寸法
 62
     0
 48
50.0
370
    -2
100
AcDbLine
 10
5494.484998239408
 20
9530.353251146106
 30
0.0
 11
5439.484998239374
 21
9530.353251146106
 31
0.0
  0
INSERT
  5
15CCA
330
14BE3
100
AcDbEntity
  8
寸法
 62
     0
 48
50.0
370
    -2
100
AcDbBlockReference
  2
_DOTSMALL
 10
5494.484998239408
 20
9530.353251146106
 30
0.0
 41
100.0
 42
100.0
 43
100.0
 50
180.0
  0
INSERT
  5
15CCB
330
14BE3
100
AcDbEntity
  8
寸法
 62
     0
 48
50.0
370
    -2
100
AcDbBlockReference
  2
_DOTSMALL
 10
5439.484998239374
 20
9530.353251146106
 30
0.0
 41
100.0
 42
100.0
 43
100.0
  0
MTEXT
  5
15CCC
330
14BE3
100
AcDbEntity
  8
寸法
 62
     7
 48
50.0
100
AcDbMText
 10
5130.999716865136
 20
9630.353251146106
 30
0.0
 40
120.0
 41
0.0
 71
     5
 72
     1
  1
\A1;55
  7
STYLE1
 73
     1
 44
1.0
1001
ACAD
1000
MTEXTBEGIN
1070
    73
1070
     1
1070
    44
1040
1.0
1070
    74
1070
     0
1000
MTEXTEND
  0
POINT
  5
15CCD
330
14BE3
100
AcDbEntity
  8
DEFPOINTS
 62
     0
 48
50.0
100
AcDbPoint
 10
5439.484998239374
 20
9314.545031521124
 30
0.0
  0
POINT
  5
15CCE
330
14BE3
100
AcDbEntity
  8
DEFPOINTS
 62
     0
 48
50.0
100
AcDbPoint
 10
5494.484998239408
 20
9314.545031521124
 30
0.0
  0
POINT
  5
15CCF
330
14BE3
100
AcDbEntity
  8
DEFPOINTS
 62
     0
 48
50.0
100
AcDbPoint
 10
5494.484998239408
 20
9530.353251146106
 30
0.0
  0
ENDBLK
  5
14D22
330
14BE3
100
AcDbEntity
  8
0
 48
50.0
100
AcDbBlockEnd
  0
BLOCK
  5
14D23
330
14BF1
100
AcDbEntity
  8
0
 48
50.0
100
AcDbBlockBegin
  2
*D7
 70
     1
 10
0.0
 20
0.0
 30
0.0
  3
*D7
  1

  0
LINE
  5
15CBC
330
14BF1
100
AcDbEntity
  8
寸法
 62
     0
 48
50.0
370
    -2
100
AcDbLine
 10
5494.484998239408
 20
9334.545031521123
 30
0.0
 11
5494.484998239408
 21
9590.353251146222
 31
0.0
  0
LINE
  5
15CBD
330
14BF1
100
AcDbEntity
  8
寸法
 62
     0
 48
50.0
370
    -2
100
AcDbLine
 10
6204.484998239408
 20
9334.545031521248
 30
0.0
 11
6204.484998239408
 21
9590.353251146222
 31
0.0
  0
LINE
  5
15CBE
330
14BF1
100
AcDbEntity
  8
寸法
 62
     0
 48
50.0
370
    -2
100
AcDbLine
 10
5494.484998239408
 20
9530.353251146221
 30
0.0
 11
6204.484998239408
 21
9530.353251146221
 31
0.0
  0
INSERT
  5
15CBF
330
14BF1
100
AcDbEntity
  8
寸法
 62
     0
 48
50.0
370
    -2
100
AcDbBlockReference
  2
_DOTSMALL
 10
5494.484998239408
 20
9530.353251146221
 30
0.0
 41
100.0
 42
100.0
 43
100.0
 50
180.0
  0
INSERT
  5
15CC0
330
14BF1
100
AcDbEntity
  8
寸法
 62
     0
 48
50.0
370
    -2
100
AcDbBlockReference
  2
_DOTSMALL
 10
6204.484998239408
 20
9530.353251146221
 30
0.0
 41
100.0
 42
100.0
 43
100.0
  0
MTEXT
  5
15CC1
330
14BF1
100
AcDbEntity
  8
寸法
 62
     7
 48
50.0
100
AcDbMText
 10
5849.734998239409
 20
9630.353251146223
 30
0.0
 40
120.0
 41
0.0
 71
     5
 72
     1
  1
\A1;710
  7
STYLE1
 73
     1
 44
1.0
1001
ACAD
1000
MTEXTBEGIN
1070
    73
1070
     1
1070
    44
1040
1.0
1070
    74
1070
     0
1000
MTEXTEND
  0
POINT
  5
15CC2
330
14BF1
100
AcDbEntity
  8
DEFPOINTS
 62
     0
 48
50.0
100
AcDbPoint
 10
5494.484998239408
 20
9314.545031521124
 30
0.0
  0
POINT
  5
15CC3
330
14BF1
100
AcDbEntity
  8
DEFPOINTS
 62
     0
 48
50.0
100
AcDbPoint
 10
6204.484998239408
 20
9314.545031521246
 30
0.0
  0
POINT
  5
15CC4
330
14BF1
100
AcDbEntity
  8
DEFPOINTS
 62
     0
 48
50.0
100
AcDbPoint
 10
6204.484998239408
 20
9530.353251146221
 30
0.0
  0
ENDBLK
  5
14D2D
330
14BF1
100
AcDbEntity
  8
0
 48
50.0
100
AcDbBlockEnd
  0
BLOCK
  5
14D39
330
14C09
100
AcDbEntity
  8
0
 48
50.0
100
AcDbBlockBegin
  2
*D8
 70
     1
 10
0.0
 20
0.0
 30
0.0
  3
*D8
  1

  0
LINE
  5
15CB1
330
14C09
100
AcDbEntity
  8
寸法
 62
     0
 48
50.0
370
    -2
100
AcDbLine
 10
7024.484998239408
 20
9334.545031521219
 30
0.0
 11
7024.484998239408
 21
9590.353251146201
 31
0.0
  0
LINE
  5
15CB2
330
14C09
100
AcDbEntity
  8
寸法
 62
     0
 48
50.0
370
    -2
100
AcDbLine
 10
7079.484998239408
 20
9334.545031521219
 30
0.0
 11
7079.484998239408
 21
9590.353251146201
 31
0.0
  0
LINE
  5
15CB3
330
14C09
100
AcDbEntity
  8
寸法
 62
     0
 48
50.0
370
    -2
100
AcDbLine
 10
7024.484998239408
 20
9530.3532511462
 30
0.0
 11
6924.484998239408
 21
9530.3532511462
 31
0.0
  0
LINE
  5
15CB4
330
14C09
100
AcDbEntity
  8
寸法
 62
     0
 48
50.0
370
    -2
100
AcDbLine
 10
7079.484998239408
 20
9530.3532511462
 30
0.0
 11
7496.455560987887
 21
9530.3532511462
 31
0.0
  0
LINE
  5
15CB5
330
14C09
100
AcDbEntity
  8
寸法
 62
     0
 48
50.0
370
    -2
100
AcDbLine
 10
7024.484998239408
 20
9530.3532511462
 30
0.0
 11
7079.484998239408
 21
9530.3532511462
 31
0.0
  0
INSERT
  5
15CB6
330
14C09
100
AcDbEntity
  8
寸法
 62
     0
 48
50.0
370
    -2
100
AcDbBlockReference
  2
_DOTSMALL
 10
7024.484998239408
 20
9530.3532511462
 30
0.0
 41
100.0
 42
100.0
 43
100.0
  0
INSERT
  5
15CB7
330
14C09
100
AcDbEntity
  8
寸法
 62
     0
 48
50.0
370
    -2
100
AcDbBlockReference
  2
_DOTSMALL
 10
7079.484998239408
 20
9530.3532511462
 30
0.0
 41
100.0
 42
100.0
 43
100.0
 50
180.0
  0
MTEXT
  5
15CB8
330
14C09
100
AcDbEntity
  8
寸法
 62
     7
 48
50.0
100
AcDbMText
 10
7387.970279613648
 20
9630.3532511462
 30
0.0
 40
120.0
 41
0.0
 71
     5
 72
     1
  1
\A1;55
  7
STYLE1
 73
     1
 44
1.0
1001
ACAD
1000
MTEXTBEGIN
1070
    73
1070
     1
1070
    44
1040
1.0
1070
    74
1070
     0
1000
MTEXTEND
  0
POINT
  5
15CB9
330
14C09
100
AcDbEntity
  8
DEFPOINTS
 62
     0
 48
50.0
100
AcDbPoint
 10
7024.484998239408
 20
9314.545031521218
 30
0.0
  0
POINT
  5
15CBA
330
14C09
100
AcDbEntity
  8
DEFPOINTS
 62
     0
 48
50.0
100
AcDbPoint
 10
7079.484998239408
 20
9314.545031521218
 30
0.0
  0
POINT
  5
15CBB
330
14C09
100
AcDbEntity
  8
DEFPOINTS
 62
     0
 48
50.0
100
AcDbPoint
 10
7079.484998239408
 20
9530.3532511462
 30
0.0
  0
ENDBLK
  5
14D45
330
14C09
100
AcDbEntity
  8
0
 48
50.0
100
AcDbBlockEnd
  0
BLOCK
  5
14D46
330
14C17
100
AcDbEntity
  8
0
 48
50.0
100
AcDbBlockBegin
  2
*D9
 70
     1
 10
0.0
 20
0.0
 30
0.0
  3
*D9
  1

  0
LINE
  5
15CA6
330
14C17
100
AcDbEntity
  8
寸法
 62
     0
 48
50.0
370
    -2
100
AcDbLine
 10
7099.484998239408
 20
9314.545031521218
 30
0.0
 11
7786.911343973819
 21
9314.545031521218
 31
0.0
  0
LINE
  5
15CA7
330
14C17
100
AcDbEntity
  8
寸法
 62
     0
 48
50.0
370
    -2
100
AcDbLine
 10
7099.484998239408
 20
9259.545031521218
 30
0.0
 11
7786.911343973819
 21
9259.545031521218
 31
0.0
  0
LINE
  5
15CA8
330
14C17
100
AcDbEntity
  8
寸法
 62
     0
 48
50.0
370
    -2
100
AcDbLine
 10
7726.911343973819
 20
9259.545031521218
 30
0.0
 11
7726.911343973819
 21
9159.545031521219
 31
0.0
  0
LINE
  5
15CA9
330
14C17
100
AcDbEntity
  8
寸法
 62
     0
 48
50.0
370
    -2
100
AcDbLine
 10
7726.911343973819
 20
9314.545031521218
 30
0.0
 11
7726.911343973819
 21
9731.515594269694
 31
0.0
  0
LINE
  5
15CAA
330
14C17
100
AcDbEntity
  8
寸法
 62
     0
 48
50.0
370
    -2
100
AcDbLine
 10
7726.911343973819
 20
9259.545031521218
 30
0.0
 11
7726.911343973819
 21
9314.545031521218
 31
0.0
  0
INSERT
  5
15CAB
330
14C17
100
AcDbEntity
  8
寸法
 62
     0
 48
50.0
370
    -2
100
AcDbBlockReference
  2
_DOTSMALL
 10
7726.911343973819
 20
9259.545031521218
 30
0.0
 41
100.0
 42
100.0
 43
100.0
 50
90.0
  0
INSERT
  5
15CAC
330
14C17
100
AcDbEntity
  8
寸法
 62
     0
 48
50.0
370
    -2
100
AcDbBlockReference
  2
_DOTSMALL
 10
7726.911343973819
 20
9314.545031521218
 30
0.0
 41
100.0
 42
100.0
 43
100.0
 50
270.0
  0
MTEXT
  5
15CAD
330
14C17
100
AcDbEntity
  8
寸法
 62
     7
 48
50.0
100
AcDbMText
 10
7626.911343973818
 20
9623.030312895458
 30
0.0
 40
120.0
 41
0.0
 71
     5
 72
     1
  1
\A1;55
  7
STYLE1
 11
0.0000000000000001
 21
1.0
 31
0.0
 73
     1
 44
1.0
1001
ACAD
1000
MTEXTBEGIN
1070
    73
1070
     1
1070
    44
1040
1.0
1070
    74
1070
     0
1000
MTEXTEND
  0
POINT
  5
15CAE
330
14C17
100
AcDbEntity
  8
DEFPOINTS
 62
     0
 48
50.0
100
AcDbPoint
 10
7079.484998239408
 20
9314.545031521218
 30
0.0
  0
POINT
  5
15CAF
330
14C17
100
AcDbEntity
  8
DEFPOINTS
 62
     0
 48
50.0
100
AcDbPoint
 10
7079.484998239408
 20
9259.545031521218
 30
0.0
  0
POINT
  5
15CB0
330
14C17
100
AcDbEntity
  8
DEFPOINTS
 62
     0
 48
50.0
100
AcDbPoint
 10
7726.911343973819
 20
9259.545031521218
 30
0.0
  0
ENDBLK
  5
14D52
330
14C17
100
AcDbEntity
  8
0
 48
50.0
100
AcDbBlockEnd
  0
BLOCK
  5
14D53
330
14C25
100
AcDbEntity
  8
0
 48
50.0
100
AcDbBlockBegin
  2
*D10
 70
     1
 10
0.0
 20
0.0
 30
0.0
  3
*D10
  1

  0
LINE
  5
15C9D
330
14C25
100
AcDbEntity
  8
寸法
 62
     0
 48
50.0
370
    -2
100
AcDbLine
 10
7099.484998239408
 20
9314.545031521218
 30
0.0
 11
8096.022874789495
 21
9314.545031521218
 31
0.0
  0
LINE
  5
15C9E
330
14C25
100
AcDbEntity
  8
寸法
 62
     0
 48
50.0
370
    -2
100
AcDbLine
 10
7099.484998239383
 20
7944.545031521204
 30
0.0
 11
8096.022874789495
 21
7944.545031521204
 31
0.0
  0
LINE
  5
15C9F
330
14C25
100
AcDbEntity
  8
寸法
 62
     0
 48
50.0
370
    -2
100
AcDbLine
 10
8036.022874789495
 20
9314.545031521218
 30
0.0
 11
8036.022874789495
 21
7944.545031521204
 31
0.0
  0
INSERT
  5
15CA0
330
14C25
100
AcDbEntity
  8
寸法
 62
     0
 48
50.0
370
    -2
100
AcDbBlockReference
  2
_DOTSMALL
 10
8036.022874789495
 20
9314.545031521218
 30
0.0
 41
100.0
 42
100.0
 43
100.0
 50
90.0
  0
INSERT
  5
15CA1
330
14C25
100
AcDbEntity
  8
寸法
 62
     0
 48
50.0
370
    -2
100
AcDbBlockReference
  2
_DOTSMALL
 10
8036.022874789495
 20
7944.545031521204
 30
0.0
 41
100.0
 42
100.0
 43
100.0
 50
270.0
  0
MTEXT
  5
15CA2
330
14C25
100
AcDbEntity
  8
寸法
 62
     7
 48
50.0
100
AcDbMText
 10
7936.022874789495
 20
8629.54503152121
 30
0.0
 40
120.0
 41
0.0
 71
     5
 72
     1
  1
\A1;1370
  7
STYLE1
 11
0.0000000000000001
 21
1.0
 31
0.0
 73
     1
 44
1.0
1001
ACAD
1000
MTEXTBEGIN
1070
    73
1070
     1
1070
    44
1040
1.0
1070
    74
1070
     0
1000
MTEXTEND
  0
POINT
  5
15CA3
330
14C25
100
AcDbEntity
  8
DEFPOINTS
 62
     0
 48
50.0
100
AcDbPoint
 10
7079.484998239408
 20
9314.545031521218
 30
0.0
  0
POINT
  5
15CA4
330
14C25
100
AcDbEntity
  8
DEFPOINTS
 62
     0
 48
50.0
100
AcDbPoint
 10
7079.484998239383
 20
7944.545031521204
 30
0.0
  0
POINT
  5
15CA5
330
14C25
100
AcDbEntity
  8
DEFPOINTS
 62
     0
 48
50.0
100
AcDbPoint
 10
8036.022874789495
 20
7944.545031521204
 30
0.0
  0
ENDBLK
  5
14D5D
330
14C25
100
AcDbEntity
  8
0
 48
50.0
100
AcDbBlockEnd
  0
BLOCK
  5
14D5E
330
14C31
100
AcDbEntity
  8
0
 48
50.0
100
AcDbBlockBegin
  2
*D11
 70
     1
 10
0.0
 20
0.0
 30
0.0
  3
*D11
  1

  0
LINE
  5
15C94
330
14C31
100
AcDbEntity
  8
寸法
 62
     0
 48
50.0
370
    -2
100
AcDbLine
 10
7099.484998239408
 20
9259.545031521218
 30
0.0
 11
7786.911343973819
 21
9259.545031521218
 31
0.0
  0
LINE
  5
15C95
330
14C31
100
AcDbEntity
  8
寸法
 62
     0
 48
50.0
370
    -2
100
AcDbLine
 10
7099.484998239383
 20
7999.545031521204
 30
0.0
 11
7786.911343973819
 21
7999.545031521204
 31
0.0
  0
LINE
  5
15C96
330
14C31
100
AcDbEntity
  8
寸法
 62
     0
 48
50.0
370
    -2
100
AcDbLine
 10
7726.911343973819
 20
9259.545031521218
 30
0.0
 11
7726.911343973819
 21
7999.545031521204
 31
0.0
  0
INSERT
  5
15C97
330
14C31
100
AcDbEntity
  8
寸法
 62
     0
 48
50.0
370
    -2
100
AcDbBlockReference
  2
_DOTSMALL
 10
7726.911343973819
 20
9259.545031521218
 30
0.0
 41
100.0
 42
100.0
 43
100.0
 50
90.0
  0
INSERT
  5
15C98
330
14C31
100
AcDbEntity
  8
寸法
 62
     0
 48
50.0
370
    -2
100
AcDbBlockReference
  2
_DOTSMALL
 10
7726.911343973819
 20
7999.545031521204
 30
0.0
 41
100.0
 42
100.0
 43
100.0
 50
270.0
  0
MTEXT
  5
15C99
330
14C31
100
AcDbEntity
  8
寸法
 62
     7
 48
50.0
100
AcDbMText
 10
7626.899532950196
 20
8629.54503152121
 30
0.0
 40
120.0
 41
0.0
 71
     5
 72
     1
  1
\A1;3X420=1260
  7
STYLE1
 11
0.0000000000000001
 21
1.0
 31
0.0
 73
     1
 44
1.0
1001
ACAD
1000
MTEXTBEGIN
1070
    73
1070
     1
1070
    44
1040
1.0
1070
    74
1070
     0
1000
MTEXTEND
  0
POINT
  5
15C9A
330
14C31
100
AcDbEntity
  8
DEFPOINTS
 62
     0
 48
50.0
100
AcDbPoint
 10
7079.484998239408
 20
9259.545031521218
 30
0.0
  0
POINT
  5
15C9B
330
14C31
100
AcDbEntity
  8
DEFPOINTS
 62
     0
 48
50.0
100
AcDbPoint
 10
7079.484998239383
 20
7999.545031521204
 30
0.0
  0
POINT
  5
15C9C
330
14C31
100
AcDbEntity
  8
DEFPOINTS
 62
     0
 48
50.0
100
AcDbPoint
 10
7726.911343973819
 20
7999.545031521204
 30
0.0
  0
ENDBLK
  5
14D68
330
14C31
100
AcDbEntity
  8
0
 48
50.0
100
AcDbBlockEnd
  0
BLOCK
  5
14D69
330
14C3D
100
AcDbEntity
  8
0
 48
50.0
100
AcDbBlockBegin
  2
*D12
 70
     1
 10
0.0
 20
0.0
 30
0.0
  3
*D12
  1

  0
LINE
  5
15C8B
330
14C3D
100
AcDbEntity
  8
寸法
 62
     0
 48
50.0
370
    -2
100
AcDbLine
 10
7069.984998239343
 20
9279.686047672546
 30
0.0
 11
7465.342724101367
 21
9173.750264306411
 31
0.0
  0
LINE
  5
15C8C
330
14C3D
100
AcDbEntity
  8
寸法
 62
     0
 48
50.0
370
    -2
100
AcDbLine
 10
7069.984998239343
 20
8829.686047672545
 30
0.0
 11
7465.342724101367
 21
8723.75026430641
 31
0.0
  0
LINE
  5
15C8D
330
14C3D
100
AcDbEntity
  8
寸法
 62
     0
 48
50.0
370
    -2
100
AcDbLine
 10
7405.342724101366
 20
9189.827215852277
 30
0.0
 11
7405.342724101366
 21
8739.827215852278
 31
0.0
  0
INSERT
  5
15C8E
330
14C3D
100
AcDbEntity
  8
寸法
 62
     0
 48
50.0
370
    -2
100
AcDbBlockReference
  2
_DOTSMALL
 10
7405.342724101366
 20
9189.827215852277
 30
0.0
 41
100.0
 42
100.0
 43
100.0
 50
90.0
  0
INSERT
  5
15C8F
330
14C3D
100
AcDbEntity
  8
寸法
 62
     0
 48
50.0
370
    -2
100
AcDbBlockReference
  2
_DOTSMALL
 10
7405.342724101366
 20
8739.827215852278
 30
0.0
 41
100.0
 42
100.0
 43
100.0
 50
270.0
  0
MTEXT
  5
15C90
330
14C3D
100
AcDbEntity
  8
寸法
 62
     7
 48
50.0
100
AcDbMText
 10
7305.342724101366
 20
8964.827215852279
 30
0.0
 40
120.0
 41
0.0
 71
     5
 72
     1
  1
\A1;450
  7
STYLE1
 11
0.0000000000000001
 21
1.0
 31
0.0
 73
     1
 44
1.0
1001
ACAD
1000
MTEXTBEGIN
1070
    73
1070
     1
1070
    44
1040
1.0
1070
    74
1070
     0
1000
MTEXTEND
  0
POINT
  5
15C91
330
14C3D
100
AcDbEntity
  8
DEFPOINTS
 62
     0
 48
50.0
100
AcDbPoint
 10
7049.984998239342
 20
9285.045031521168
 30
0.0
  0
POINT
  5
15C92
330
14C3D
100
AcDbEntity
  8
DEFPOINTS
 62
     0
 48
50.0
100
AcDbPoint
 10
7049.984998239342
 20
8835.045031521167
 30
0.0
  0
POINT
  5
15C93
330
14C3D
100
AcDbEntity
  8
DEFPOINTS
 62
     0
 48
50.0
100
AcDbPoint
 10
7405.342724101366
 20
8739.827215852278
 30
0.0
  0
ENDBLK
  5
14D73
330
14C3D
100
AcDbEntity
  8
0
 48
50.0
100
AcDbBlockEnd
  0
BLOCK
  5
14E3C
330
14E3B
100
AcDbEntity
  8
0
 48
50.0
100
AcDbBlockBegin
  2
*D13
 70
     1
 10
0.0
 20
0.0
 30
0.0
  3
*D13
  1

  0
LINE
  5
15C82
330
14E3B
100
AcDbEntity
  8
寸法
 62
     0
 48
50.0
370
    -2
100
AcDbLine
 10
6314.484998239404
 20
7924.545031521117
 30
0.0
 11
6314.484998239404
 21
7444.721363726038
 31
0.0
  0
LINE
  5
15C83
330
14E3B
100
AcDbEntity
  8
寸法
 62
     0
 48
50.0
370
    -2
100
AcDbLine
 10
6999.484998239402
 20
7924.545031521081
 30
0.0
 11
6999.484998239402
 21
7444.721363726038
 31
0.0
  0
LINE
  5
15C84
330
14E3B
100
AcDbEntity
  8
寸法
 62
     0
 48
50.0
370
    -2
100
AcDbLine
 10
6314.484998239404
 20
7504.72136372604
 30
0.0
 11
6999.484998239402
 21
7504.72136372604
 31
0.0
  0
INSERT
  5
15C85
330
14E3B
100
AcDbEntity
  8
寸法
 62
     0
 48
50.0
370
    -2
100
AcDbBlockReference
  2
_DOTSMALL
 10
6314.484998239404
 20
7504.72136372604
 30
0.0
 41
100.0
 42
100.0
 43
100.0
 50
180.0
  0
INSERT
  5
15C86
330
14E3B
100
AcDbEntity
  8
寸法
 62
     0
 48
50.0
370
    -2
100
AcDbBlockReference
  2
_DOTSMALL
 10
6999.484998239402
 20
7504.72136372604
 30
0.0
 41
100.0
 42
100.0
 43
100.0
  0
MTEXT
  5
15C87
330
14E3B
100
AcDbEntity
  8
寸法
 62
     7
 48
50.0
100
AcDbMText
 10
6656.984998239403
 20
7704.72136372604
 30
0.0
 40
120.0
 41
0.0
 71
     5
 72
     1
  1
\A1;有効開口部間口\P685
  7
STYLE1
 73
     1
 44
1.0
1001
ACAD
1000
MTEXTBEGIN
1070
    73
1070
     1
1070
    44
1040
1.0
1070
    74
1070
     0
1000
MTEXTEND
  0
POINT
  5
15C88
330
14E3B
100
AcDbEntity
  8
DEFPOINTS
 62
     0
 48
50.0
100
AcDbPoint
 10
6314.484998239404
 20
7944.545031521116
 30
0.0
  0
POINT
  5
15C89
330
14E3B
100
AcDbEntity
  8
DEFPOINTS
 62
     0
 48
50.0
100
AcDbPoint
 10
6999.484998239402
 20
7944.54503152108
 30
0.0
  0
POINT
  5
15C8A
330
14E3B
100
AcDbEntity
  8
DEFPOINTS
 62
     0
 48
50.0
100
AcDbPoint
 10
6999.484998239402
 20
7504.72136372604
 30
0.0
  0
ENDBLK
  5
14E46
330
14E3B
100
AcDbEntity
  8
0
 48
50.0
100
AcDbBlockEnd
  0
BLOCK
  5
14EDC
330
14ED0
100
AcDbEntity
  8
0
 48
50.0
100
AcDbBlockBegin
  2
*D14
 70
     1
 10
0.0
 20
0.0
 30
0.0
  3
*D14
  1

  0
LINE
  5
15C79
330
14ED0
100
AcDbEntity
  8
寸法
 62
     0
 48
50.0
370
    -2
100
AcDbLine
 10
5494.484998239404
 20
7924.545031521117
 30
0.0
 11
5494.484998239404
 21
7444.721363726038
 31
0.0
  0
LINE
  5
15C7A
330
14ED0
100
AcDbEntity
  8
寸法
 62
     0
 48
50.0
370
    -2
100
AcDbLine
 10
6179.4849982394
 20
7924.545031521081
 30
0.0
 11
6179.4849982394
 21
7444.721363726038
 31
0.0
  0
LINE
  5
15C7B
330
14ED0
100
AcDbEntity
  8
寸法
 62
     0
 48
50.0
370
    -2
100
AcDbLine
 10
5494.484998239404
 20
7504.72136372604
 30
0.0
 11
6179.4849982394
 21
7504.72136372604
 31
0.0
  0
INSERT
  5
15C7C
330
14ED0
100
AcDbEntity
  8
寸法
 62
     0
 48
50.0
370
    -2
100
AcDbBlockReference
  2
_DOTSMALL
 10
5494.484998239404
 20
7504.72136372604
 30
0.0
 41
100.0
 42
100.0
 43
100.0
 50
180.0
  0
INSERT
  5
15C7D
330
14ED0
100
AcDbEntity
  8
寸法
 62
     0
 48
50.0
370
    -2
100
AcDbBlockReference
  2
_DOTSMALL
 10
6179.4849982394
 20
7504.72136372604
 30
0.0
 41
100.0
 42
100.0
 43
100.0
  0
MTEXT
  5
15C7E
330
14ED0
100
AcDbEntity
  8
寸法
 62
     7
 48
50.0
100
AcDbMText
 10
5836.984998239403
 20
7604.72136372604
 30
0.0
 40
120.0
 41
0.0
 71
     5
 72
     1
  1
\A1;685
  7
STYLE1
 73
     1
 44
1.0
1001
ACAD
1000
MTEXTBEGIN
1070
    73
1070
     1
1070
    44
1040
1.0
1070
    74
1070
     0
1000
MTEXTEND
  0
POINT
  5
15C7F
330
14ED0
100
AcDbEntity
  8
DEFPOINTS
 62
     0
 48
50.0
100
AcDbPoint
 10
5494.484998239404
 20
7944.545031521116
 30
0.0
  0
POINT
  5
15C80
330
14ED0
100
AcDbEntity
  8
DEFPOINTS
 62
     0
 48
50.0
100
AcDbPoint
 10
6179.4849982394
 20
7944.54503152108
 30
0.0
  0
POINT
  5
15C81
330
14ED0
100
AcDbEntity
  8
DEFPOINTS
 62
     0
 48
50.0
100
AcDbPoint
 10
6179.4849982394
 20
7504.72136372604
 30
0.0
  0
ENDBLK
  5
14EE6
330
14ED0
100
AcDbEntity
  8
0
 48
50.0
100
AcDbBlockEnd
  0
BLOCK
  5
14F19
330
14F18
100
AcDbEntity
  8
0
 48
50.0
100
AcDbBlockBegin
  2
*D15
 70
     1
 10
0.0
 20
0.0
 30
0.0
  3
*D15
  1

  0
LINE
  5
164B2
330
14F18
100
AcDbEntity
  8
寸法
 62
     0
 48
50.0
370
    -2
100
AcDbLine
 10
5463.626021068417
 20
8815.045031521131
 30
0.0
 11
5354.972623537586
 21
8409.545031521096
 31
0.0
  0
LINE
  5
164B3
330
14F18
100
AcDbEntity
  8
寸法
 62
     0
 48
50.0
370
    -2
100
AcDbLine
 10
6224.626021068431
 20
8815.045031521124
 30
0.0
 11
6115.972623537601
 21
8409.545031521096
 31
0.0
  0
LINE
  5
164B4
330
14F18
100
AcDbEntity
  8
寸法
 62
     0
 48
50.0
370
    -2
100
AcDbLine
 10
5371.049575083454
 20
8469.545031521095
 30
0.0
 11
6132.049575083469
 21
8469.545031521095
 31
0.0
  0
INSERT
  5
164B5
330
14F18
100
AcDbEntity
  8
寸法
 62
     0
 48
50.0
370
    -2
100
AcDbBlockReference
  2
_DOTSMALL
 10
5371.049575083454
 20
8469.545031521095
 30
0.0
 41
100.0
 42
100.0
 43
100.0
 50
180.0
  0
INSERT
  5
164B6
330
14F18
100
AcDbEntity
  8
寸法
 62
     0
 48
50.0
370
    -2
100
AcDbBlockReference
  2
_DOTSMALL
 10
6132.049575083469
 20
8469.545031521095
 30
0.0
 41
100.0
 42
100.0
 43
100.0
  0
MTEXT
  5
164B7
330
14F18
100
AcDbEntity
  8
寸法
 62
     7
 48
50.0
100
AcDbMText
 10
5751.491859890921
 20
8569.545031521094
 30
0.0
 40
120.0
 41
0.0
 71
     5
 72
     1
  1
\A1;761
  7
STYLE1
 73
     1
 44
1.0
1001
ACAD
1000
MTEXTBEGIN
1070
    73
1070
     1
1070
    44
1040
1.0
1070
    74
1070
     0
1000
MTEXTEND
  0
POINT
  5
164B8
330
14F18
100
AcDbEntity
  8
DEFPOINTS
 62
     0
 48
50.0
100
AcDbPoint
 10
5468.98500491704
 20
8835.045031521131
 30
0.0
  0
POINT
  5
164B9
330
14F18
100
AcDbEntity
  8
DEFPOINTS
 62
     0
 48
50.0
100
AcDbPoint
 10
6229.985004917053
 20
8835.045031521124
 30
0.0
  0
POINT
  5
164BA
330
14F18
100
AcDbEntity
  8
DEFPOINTS
 62
     0
 48
50.0
100
AcDbPoint
 10
6132.049575083469
 20
8469.545031521095
 30
0.0
  0
ENDBLK
  5
14F23
330
14F18
100
AcDbEntity
  8
0
 48
50.0
100
AcDbBlockEnd
  0
BLOCK
  5
15000
330
14FFF
100
AcDbEntity
  8
0
100
AcDbBlockBegin
  2
_OPEN
 70
     0
 10
0.0
 20
0.0
 30
0.0
  3
_OPEN
  1

  0
LINE
  5
15001
330
14FFF
100
AcDbEntity
  8
0
  6
ByBlock
 62
     0
100
AcDbLine
 10
-1.0
 20
0.1666666666666666
 30
0.0
 11
0.0
 21
0.0
 31
0.0
  0
LINE
  5
15002
330
14FFF
100
AcDbEntity
  8
0
  6
ByBlock
 62
     0
100
AcDbLine
 10
0.0
 20
0.0
 30
0.0
 11
-1.0
 21
-0.1666666666666666
 31
0.0
  0
LINE
  5
15003
330
14FFF
100
AcDbEntity
  8
0
  6
ByBlock
 62
     0
100
AcDbLine
 10
0.0
 20
0.0
 30
0.0
 11
-1.0
 21
0.0
 31
0.0
  0
ENDBLK
  5
15004
330
14FFF
100
AcDbEntity
  8
0
100
AcDbBlockEnd
  0
BLOCK
  5
15006
330
15005
100
AcDbEntity
  8
0
 48
50.0
100
AcDbBlockBegin
  2
_DOT
 70
     0
 10
0.0
 20
0.0
 30
0.0
  3
_DOT
  1

  0
LWPOLYLINE
  5
15007
330
15005
100
AcDbEntity
  8
0
  6
ByBlock
 62
     0
 48
50.0
100
AcDbPolyline
 90
        2
 70
     1
 43
0.5
 10
-0.25
 20
0.0
 42
1.0
 10
0.25
 20
0.0
 42
1.0
  0
LINE
  5
15008
330
15005
100
AcDbEntity
  8
0
  6
ByBlock
 62
     0
 48
50.0
100
AcDbLine
 10
-0.5
 20
0.0
 30
0.0
 11
-1.0
 21
0.0
 31
0.0
  0
ENDBLK
  5
15009
330
15005
100
AcDbEntity
  8
0
 48
50.0
100
AcDbBlockEnd
  0
BLOCK
  5
154B7
330
154AB
100
AcDbEntity
  8
0
 48
50.0
100
AcDbBlockBegin
  2
*D18
 70
     1
 10
0.0
 20
0.0
 30
0.0
  3
*D18
  1

  0
LINE
  5
15C65
330
154AB
100
AcDbEntity
  8
寸法
 62
     0
 48
50.0
370
    -2
100
AcDbLine
 10
7129.484998239404
 20
5252.756393306555
 30
0.0
 11
7129.484998239404
 21
5505.297978564795
 31
0.0
  0
LINE
  5
15C66
330
154AB
100
AcDbEntity
  8
寸法
 62
     0
 48
50.0
370
    -2
100
AcDbLine
 10
7079.484998239404
 20
5252.756393306555
 30
0.0
 11
7079.484998239404
 21
5505.297978564795
 31
0.0
  0
LINE
  5
15C67
330
154AB
100
AcDbEntity
  8
寸法
 62
     0
 48
50.0
370
    -2
100
AcDbLine
 10
7079.484998239404
 20
5445.297978564795
 30
0.0
 11
6979.484998239404
 21
5445.297978564795
 31
0.0
  0
LINE
  5
15C68
330
154AB
100
AcDbEntity
  8
寸法
 62
     0
 48
50.0
370
    -2
100
AcDbLine
 10
7129.484998239404
 20
5445.297978564795
 30
0.0
 11
7549.017523708129
 21
5445.297978564795
 31
0.0
  0
LINE
  5
15C69
330
154AB
100
AcDbEntity
  8
寸法
 62
     0
 48
50.0
370
    -2
100
AcDbLine
 10
7079.484998239404
 20
5445.297978564795
 30
0.0
 11
7129.484998239404
 21
5445.297978564795
 31
0.0
  0
INSERT
  5
15C6A
330
154AB
100
AcDbEntity
  8
寸法
 62
     0
 48
50.0
370
    -2
100
AcDbBlockReference
  2
_DOTSMALL
 10
7079.484998239404
 20
5445.297978564795
 30
0.0
 41
100.0
 42
100.0
 43
100.0
  0
INSERT
  5
15C6B
330
154AB
100
AcDbEntity
  8
寸法
 62
     0
 48
50.0
370
    -2
100
AcDbBlockReference
  2
_DOTSMALL
 10
7129.484998239404
 20
5445.297978564795
 30
0.0
 41
100.0
 42
100.0
 43
100.0
 50
180.0
  0
MTEXT
  5
15C6C
330
154AB
100
AcDbEntity
  8
寸法
 62
     7
 48
50.0
100
AcDbMText
 10
7442.970279613641
 20
5545.297978564795
 30
0.0
 40
120.0
 41
0.0
 71
     5
 72
     1
  1
\A1;50
  7
STYLE1
 73
     1
 44
1.0
1001
ACAD
1000
MTEXTBEGIN
1070
    73
1070
     1
1070
    44
1040
1.0
1070
    74
1070
     0
1000
MTEXTEND
  0
POINT
  5
15C6D
330
154AB
100
AcDbEntity
  8
DEFPOINTS
 62
     0
 48
50.0
100
AcDbPoint
 10
7129.484998239404
 20
5232.756393306554
 30
0.0
  0
POINT
  5
15C6E
330
154AB
100
AcDbEntity
  8
DEFPOINTS
 62
     0
 48
50.0
100
AcDbPoint
 10
7079.484998239404
 20
5232.756393306556
 30
0.0
  0
POINT
  5
15C6F
330
154AB
100
AcDbEntity
  8
DEFPOINTS
 62
     0
 48
50.0
100
AcDbPoint
 10
7079.484998239404
 20
5445.297978564795
 30
0.0
  0
ENDBLK
  5
154B8
330
154AB
100
AcDbEntity
  8
0
 48
50.0
100
AcDbBlockEnd
  0
BLOCK
  5
154C5
330
154B9
100
AcDbEntity
  8
0
 48
50.0
100
AcDbBlockBegin
  2
*D19
 70
     1
 10
0.0
 20
0.0
 30
0.0
  3
*D19
  1

  0
LINE
  5
15C5A
330
154B9
100
AcDbEntity
  8
寸法
 62
     0
 48
50.0
370
    -2
100
AcDbLine
 10
5439.4849982394
 20
5252.756393306562
 30
0.0
 11
5439.4849982394
 21
5505.297978564798
 31
0.0
  0
LINE
  5
15C5B
330
154B9
100
AcDbEntity
  8
寸法
 62
     0
 48
50.0
370
    -2
100
AcDbLine
 10
5389.4849982394
 20
5252.756393306559
 30
0.0
 11
5389.4849982394
 21
5505.297978564798
 31
0.0
  0
LINE
  5
15C5C
330
154B9
100
AcDbEntity
  8
寸法
 62
     0
 48
50.0
370
    -2
100
AcDbLine
 10
5439.4849982394
 20
5445.297978564799
 30
0.0
 11
5539.484998239401
 21
5445.297978564799
 31
0.0
  0
LINE
  5
15C5D
330
154B9
100
AcDbEntity
  8
寸法
 62
     0
 48
50.0
370
    -2
100
AcDbLine
 10
5389.4849982394
 20
5445.297978564799
 30
0.0
 11
4969.952472770666
 21
5445.297978564799
 31
0.0
  0
LINE
  5
15C5E
330
154B9
100
AcDbEntity
  8
寸法
 62
     0
 48
50.0
370
    -2
100
AcDbLine
 10
5439.4849982394
 20
5445.297978564799
 30
0.0
 11
5389.4849982394
 21
5445.297978564799
 31
0.0
  0
INSERT
  5
15C5F
330
154B9
100
AcDbEntity
  8
寸法
 62
     0
 48
50.0
370
    -2
100
AcDbBlockReference
  2
_DOTSMALL
 10
5439.4849982394
 20
5445.297978564799
 30
0.0
 41
100.0
 42
100.0
 43
100.0
 50
180.0
  0
INSERT
  5
15C60
330
154B9
100
AcDbEntity
  8
寸法
 62
     0
 48
50.0
370
    -2
100
AcDbBlockReference
  2
_DOTSMALL
 10
5389.4849982394
 20
5445.297978564799
 30
0.0
 41
100.0
 42
100.0
 43
100.0
  0
MTEXT
  5
15C61
330
154B9
100
AcDbEntity
  8
寸法
 62
     7
 48
50.0
100
AcDbMText
 10
5075.999716865154
 20
5545.297978564798
 30
0.0
 40
120.0
 41
0.0
 71
     5
 72
     1
  1
\A1;50
  7
STYLE1
 73
     1
 44
1.0
1001
ACAD
1000
MTEXTBEGIN
1070
    73
1070
     1
1070
    44
1040
1.0
1070
    74
1070
     0
1000
MTEXTEND
  0
POINT
  5
15C62
330
154B9
100
AcDbEntity
  8
DEFPOINTS
 62
     0
 48
50.0
100
AcDbPoint
 10
5439.4849982394
 20
5232.756393306561
 30
0.0
  0
POINT
  5
15C63
330
154B9
100
AcDbEntity
  8
DEFPOINTS
 62
     0
 48
50.0
100
AcDbPoint
 10
5389.4849982394
 20
5232.756393306559
 30
0.0
  0
POINT
  5
15C64
330
154B9
100
AcDbEntity
  8
DEFPOINTS
 62
     0
 48
50.0
100
AcDbPoint
 10
5389.4849982394
 20
5445.297978564799
 30
0.0
  0
ENDBLK
  5
154C6
330
154B9
100
AcDbEntity
  8
0
 48
50.0
100
AcDbBlockEnd
  0
BLOCK
  5
154D1
330
154C7
100
AcDbEntity
  8
0
 48
50.0
100
AcDbBlockBegin
  2
*D20
 70
     1
 10
0.0
 20
0.0
 30
0.0
  3
*D20
  1

  0
LINE
  5
15C51
330
154C7
100
AcDbEntity
  8
寸法
 62
     0
 48
50.0
370
    -2
100
AcDbLine
 10
7079.484998239404
 20
5252.756393306555
 30
0.0
 11
7079.484998239404
 21
5505.297978564798
 31
0.0
  0
LINE
  5
15C52
330
154C7
100
AcDbEntity
  8
寸法
 62
     0
 48
50.0
370
    -2
100
AcDbLine
 10
5439.4849982394
 20
5252.756393306562
 30
0.0
 11
5439.4849982394
 21
5505.297978564798
 31
0.0
  0
LINE
  5
15C53
330
154C7
100
AcDbEntity
  8
寸法
 62
     0
 48
50.0
370
    -2
100
AcDbLine
 10
7079.484998239404
 20
5445.297978564799
 30
0.0
 11
5439.4849982394
 21
5445.297978564799
 31
0.0
  0
INSERT
  5
15C54
330
154C7
100
AcDbEntity
  8
寸法
 62
     0
 48
50.0
370
    -2
100
AcDbBlockReference
  2
_DOTSMALL
 10
7079.484998239404
 20
5445.297978564799
 30
0.0
 41
100.0
 42
100.0
 43
100.0
  0
INSERT
  5
15C55
330
154C7
100
AcDbEntity
  8
寸法
 62
     0
 48
50.0
370
    -2
100
AcDbBlockReference
  2
_DOTSMALL
 10
5439.4849982394
 20
5445.297978564799
 30
0.0
 41
100.0
 42
100.0
 43
100.0
 50
180.0
  0
MTEXT
  5
15C56
330
154C7
100
AcDbEntity
  8
寸法
 62
     7
 48
50.0
100
AcDbMText
 10
6275.858403643506
 20
5545.297978564798
 30
0.0
 40
120.0
 41
0.0
 71
     5
 72
     1
  1
\A1;柱外寸法1640
  7
STYLE1
 73
     1
 44
1.0
1001
ACAD
1000
MTEXTBEGIN
1070
    73
1070
     1
1070
    44
1040
1.0
1070
    74
1070
     0
1000
MTEXTEND
  0
POINT
  5
15C57
330
154C7
100
AcDbEntity
  8
DEFPOINTS
 62
     0
 48
50.0
100
AcDbPoint
 10
7079.484998239404
 20
5232.756393306556
 30
0.0
  0
POINT
  5
15C58
330
154C7
100
AcDbEntity
  8
DEFPOINTS
 62
     0
 48
50.0
100
AcDbPoint
 10
5439.4849982394
 20
5232.756393306561
 30
0.0
  0
POINT
  5
15C59
330
154C7
100
AcDbEntity
  8
DEFPOINTS
 62
     0
 48
50.0
100
AcDbPoint
 10
5439.4849982394
 20
5445.297978564799
 30
0.0
  0
ENDBLK
  5
154D2
330
154C7
100
AcDbEntity
  8
0
 48
50.0
100
AcDbBlockEnd
  0
BLOCK
  5
154DD
330
154D3
100
AcDbEntity
  8
0
 48
50.0
100
AcDbBlockBegin
  2
*D21
 70
     1
 10
0.0
 20
0.0
 30
0.0
  3
*D21
  1

  0
LINE
  5
15C48
330
154D3
100
AcDbEntity
  8
寸法
 62
     0
 48
50.0
370
    -2
100
AcDbLine
 10
5389.4849982394
 20
5252.756393306559
 30
0.0
 11
5389.4849982394
 21
5728.254957002646
 31
0.0
  0
LINE
  5
15C49
330
154D3
100
AcDbEntity
  8
寸法
 62
     0
 48
50.0
370
    -2
100
AcDbLine
 10
7129.484998239404
 20
5252.756393306555
 30
0.0
 11
7129.484998239404
 21
5728.254957002646
 31
0.0
  0
LINE
  5
15C4A
330
154D3
100
AcDbEntity
  8
寸法
 62
     0
 48
50.0
370
    -2
100
AcDbLine
 10
5389.4849982394
 20
5668.254957002646
 30
0.0
 11
7129.484998239404
 21
5668.254957002646
 31
0.0
  0
INSERT
  5
15C4B
330
154D3
100
AcDbEntity
  8
寸法
 62
     0
 48
50.0
370
    -2
100
AcDbBlockReference
  2
_DOTSMALL
 10
5389.4849982394
 20
5668.254957002646
 30
0.0
 41
100.0
 42
100.0
 43
100.0
 50
180.0
  0
INSERT
  5
15C4C
330
154D3
100
AcDbEntity
  8
寸法
 62
     0
 48
50.0
370
    -2
100
AcDbBlockReference
  2
_DOTSMALL
 10
7129.484998239404
 20
5668.254957002646
 30
0.0
 41
100.0
 42
100.0
 43
100.0
  0
MTEXT
  5
15C4D
330
154D3
100
AcDbEntity
  8
寸法
 62
     7
 48
50.0
100
AcDbMText
 10
6241.583474075596
 20
5768.254957002646
 30
0.0
 40
120.0
 41
0.0
 71
     5
 72
     1
  1
\A1;1740
  7
STYLE1
 73
     1
 44
1.0
1001
ACAD
1000
MTEXTBEGIN
1070
    73
1070
     1
1070
    44
1040
1.0
1070
    74
1070
     0
1000
MTEXTEND
  0
POINT
  5
15C4E
330
154D3
100
AcDbEntity
  8
DEFPOINTS
 62
     0
 48
50.0
100
AcDbPoint
 10
5389.4849982394
 20
5232.756393306559
 30
0.0
  0
POINT
  5
15C4F
330
154D3
100
AcDbEntity
  8
DEFPOINTS
 62
     0
 48
50.0
100
AcDbPoint
 10
7129.484998239404
 20
5232.756393306554
 30
0.0
  0
POINT
  5
15C50
330
154D3
100
AcDbEntity
  8
DEFPOINTS
 62
     0
 48
50.0
100
AcDbPoint
 10
7129.484998239404
 20
5668.254957002646
 30
0.0
  0
ENDBLK
  5
154DE
330
154D3
100
AcDbEntity
  8
0
 48
50.0
100
AcDbBlockEnd
  0
BLOCK
  5
1560D
330
15603
100
AcDbEntity
  8
0
 48
50.0
100
AcDbBlockBegin
  2
*D22
 70
     1
 10
0.0
 20
0.0
 30
0.0
  3
*D22
  1

  0
LINE
  5
15C3F
330
15603
100
AcDbEntity
  8
寸法
 62
     0
 48
50.0
370
    -2
100
AcDbLine
 10
5419.484998239401
 20
4979.256393306553
 30
0.0
 11
5061.380470631798
 21
4979.256393306553
 31
0.0
  0
LINE
  5
15C40
330
15603
100
AcDbEntity
  8
寸法
 62
     0
 48
50.0
370
    -2
100
AcDbLine
 10
5419.484998239401
 20
3219.256393306557
 30
0.0
 11
5061.380470631798
 21
3219.256393306557
 31
0.0
  0
LINE
  5
15C41
330
15603
100
AcDbEntity
  8
寸法
 62
     0
 48
50.0
370
    -2
100
AcDbLine
 10
5121.380470631798
 20
4979.256393306553
 30
0.0
 11
5121.380470631798
 21
3219.256393306557
 31
0.0
  0
INSERT
  5
15C42
330
15603
100
AcDbEntity
  8
寸法
 62
     0
 48
50.0
370
    -2
100
AcDbBlockReference
  2
_DOTSMALL
 10
5121.380470631798
 20
4979.256393306553
 30
0.0
 41
100.0
 42
100.0
 43
100.0
 50
90.0
  0
INSERT
  5
15C43
330
15603
100
AcDbEntity
  8
寸法
 62
     0
 48
50.0
370
    -2
100
AcDbBlockReference
  2
_DOTSMALL
 10
5121.380470631798
 20
3219.256393306557
 30
0.0
 41
100.0
 42
100.0
 43
100.0
 50
270.0
  0
MTEXT
  5
15C44
330
15603
100
AcDbEntity
  8
寸法
 62
     7
 48
50.0
100
AcDbMText
 10
5021.380470631797
 20
4098.256393306554
 30
0.0
 40
120.0
 41
0.0
 71
     5
 72
     1
  1
\A1;有効開口部高サ1760
  7
STYLE1
 11
0.0000000000000001
 21
1.0
 31
0.0
 73
     1
 44
1.0
1001
ACAD
1000
MTEXTBEGIN
1070
    73
1070
     1
1070
    44
1040
1.0
1070
    74
1070
     0
1000
MTEXTEND
  0
POINT
  5
15C45
330
15603
100
AcDbEntity
  8
DEFPOINTS
 62
     0
 48
50.0
100
AcDbPoint
 10
5439.4849982394
 20
4979.256393306553
 30
0.0
  0
POINT
  5
15C46
330
15603
100
AcDbEntity
  8
DEFPOINTS
 62
     0
 48
50.0
100
AcDbPoint
 10
5439.4849982394
 20
3219.256393306557
 30
0.0
  0
POINT
  5
15C47
330
15603
100
AcDbEntity
  8
DEFPOINTS
 62
     0
 48
50.0
100
AcDbPoint
 10
5121.380470631798
 20
3219.256393306557
 30
0.0
  0
ENDBLK
  5
1560E
330
15603
100
AcDbEntity
  8
0
 48
50.0
100
AcDbBlockEnd
  0
BLOCK
  5
162CA
330
162C0
100
AcDbEntity
  8
0
 48
50.0
100
AcDbBlockBegin
  2
*D23
 70
     1
 10
0.0
 20
0.0
 30
0.0
  3
*D23
  1

  0
LINE
  5
16448
330
162C0
100
AcDbEntity
  8
寸法
 62
     0
 48
50.0
370
    -2
100
AcDbLine
 10
9446.356910799783
 20
3157.756393306554
 30
0.0
 11
8502.085099159303
 21
3157.756393306554
 31
0.0
  0
LINE
  5
16449
330
162C0
100
AcDbEntity
  8
寸法
 62
     0
 48
50.0
370
    -2
100
AcDbLine
 10
9386.356910799785
 20
5232.756393306558
 30
0.0
 11
8502.085099159305
 21
5232.756393306558
 31
0.0
  0
LINE
  5
1644A
330
162C0
100
AcDbEntity
  8
寸法
 62
     0
 48
50.0
370
    -2
100
AcDbLine
 10
8562.085099159302
 20
3157.756393306554
 30
0.0
 11
8562.085099159306
 21
5232.756393306558
 31
0.0
  0
INSERT
  5
1644B
330
162C0
100
AcDbEntity
  8
寸法
 62
     0
 48
50.0
370
    -2
100
AcDbBlockReference
  2
_DOTSMALL
 10
8562.085099159302
 20
3157.756393306554
 30
0.0
 41
100.0
 42
100.0
 43
100.0
 50
270.0
  0
INSERT
  5
1644C
330
162C0
100
AcDbEntity
  8
寸法
 62
     0
 48
50.0
370
    -2
100
AcDbBlockReference
  2
_DOTSMALL
 10
8562.085099159306
 20
5232.756393306558
 30
0.0
 41
100.0
 42
100.0
 43
100.0
 50
90.0
  0
MTEXT
  5
1644D
330
162C0
100
AcDbEntity
  8
寸法
 62
     7
 48
50.0
100
AcDbMText
 10
8462.073288135682
 20
4132.963383726355
 30
0.0
 40
120.0
 41
0.0
 71
     5
 72
     1
  1
\A1;2075
  7
STYLE1
 11
0.0000000000000001
 21
1.0
 31
0.0
 73
     1
 44
1.0
1001
ACAD
1000
MTEXTBEGIN
1070
    73
1070
     1
1070
    44
1040
1.0
1070
    74
1070
     0
1000
MTEXTEND
  0
POINT
  5
1644E
330
162C0
100
AcDbEntity
  8
DEFPOINTS
 62
     0
 48
50.0
100
AcDbPoint
 10
9466.356910799783
 20
3157.756393306554
 30
0.0
  0
POINT
  5
1644F
330
162C0
100
AcDbEntity
  8
DEFPOINTS
 62
     0
 48
50.0
100
AcDbPoint
 10
9406.356910799784
 20
5232.756393306558
 30
0.0
  0
POINT
  5
16450
330
162C0
100
AcDbEntity
  8
DEFPOINTS
 62
     0
 48
50.0
100
AcDbPoint
 10
8562.085099159306
 20
5232.756393306558
 30
0.0
  0
ENDBLK
  5
162CB
330
162C0
100
AcDbEntity
  8
0
 48
50.0
100
AcDbBlockEnd
  0
BLOCK
  5
162D8
330
162CC
100
AcDbEntity
  8
0
 48
50.0
100
AcDbBlockBegin
  2
*D24
 70
     1
 10
0.0
 20
0.0
 30
0.0
  3
*D24
  1

  0
LINE
  5
1643D
330
162CC
100
AcDbEntity
  8
寸法
 62
     0
 48
50.0
370
    -2
100
AcDbLine
 10
9439.354540755006
 20
3207.756393306556
 30
0.0
 11
8804.393820107581
 21
3207.756393306556
 31
0.0
  0
LINE
  5
1643E
330
162CC
100
AcDbEntity
  8
寸法
 62
     0
 48
50.0
370
    -2
100
AcDbLine
 10
9391.356910799784
 20
3157.756393306554
 30
0.0
 11
8804.393820107581
 21
3157.756393306554
 31
0.0
  0
LINE
  5
1643F
330
162CC
100
AcDbEntity
  8
寸法
 62
     0
 48
50.0
370
    -2
100
AcDbLine
 10
8864.393820107579
 20
3207.756393306556
 30
0.0
 11
8864.393820107579
 21
3307.756393306557
 31
0.0
  0
LINE
  5
16440
330
162CC
100
AcDbEntity
  8
寸法
 62
     0
 48
50.0
370
    -2
100
AcDbLine
 10
8864.393820107579
 20
3157.756393306554
 30
0.0
 11
8864.393820107579
 21
2745.661905117574
 31
0.0
  0
LINE
  5
16441
330
162CC
100
AcDbEntity
  8
寸法
 62
     0
 48
50.0
370
    -2
100
AcDbLine
 10
8864.393820107579
 20
3207.756393306556
 30
0.0
 11
8864.393820107579
 21
3157.756393306554
 31
0.0
  0
INSERT
  5
16442
330
162CC
100
AcDbEntity
  8
寸法
 62
     0
 48
50.0
370
    -2
100
AcDbBlockReference
  2
_DOTSMALL
 10
8864.393820107579
 20
3207.756393306556
 30
0.0
 41
100.0
 42
100.0
 43
100.0
 50
270.0
  0
INSERT
  5
16443
330
162CC
100
AcDbEntity
  8
寸法
 62
     0
 48
50.0
370
    -2
100
AcDbBlockReference
  2
_DOTSMALL
 10
8864.393820107579
 20
3157.756393306554
 30
0.0
 41
100.0
 42
100.0
 43
100.0
 50
90.0
  0
MTEXT
  5
16444
330
162CC
100
AcDbEntity
  8
寸法
 62
     7
 48
50.0
100
AcDbMText
 10
8764.39382010758
 20
2851.709149212064
 30
0.0
 40
120.0
 41
0.0
 71
     5
 72
     1
  1
\A1;50
  7
STYLE1
 11
0.0000000000000001
 21
1.0
 31
0.0
 73
     1
 44
1.0
1001
ACAD
1000
MTEXTBEGIN
1070
    73
1070
     1
1070
    44
1040
1.0
1070
    74
1070
     0
1000
MTEXTEND
  0
POINT
  5
16445
330
162CC
100
AcDbEntity
  8
DEFPOINTS
 62
     0
 48
50.0
100
AcDbPoint
 10
9459.354540755006
 20
3207.756393306556
 30
0.0
  0
POINT
  5
16446
330
162CC
100
AcDbEntity
  8
DEFPOINTS
 62
     0
 48
50.0
100
AcDbPoint
 10
9411.356910799783
 20
3157.756393306554
 30
0.0
  0
POINT
  5
16447
330
162CC
100
AcDbEntity
  8
DEFPOINTS
 62
     0
 48
50.0
100
AcDbPoint
 10
8864.393820107579
 20
3157.756393306554
 30
0.0
  0
ENDBLK
  5
162D9
330
162CC
100
AcDbEntity
  8
0
 48
50.0
100
AcDbBlockEnd
  0
BLOCK
  5
162E4
330
162DA
100
AcDbEntity
  8
0
 48
50.0
100
AcDbBlockBegin
  2
*D25
 70
     1
 10
0.0
 20
0.0
 30
0.0
  3
*D25
  1

  0
LINE
  5
16434
330
162DA
100
AcDbEntity
  8
寸法
 62
     0
 48
50.0
370
    -2
100
AcDbLine
 10
10856.35691079978
 20
3157.756393306554
 30
0.0
 11
11601.28406877191
 21
3157.756393306554
 31
0.0
  0
LINE
  5
16435
330
162DA
100
AcDbEntity
  8
寸法
 62
     0
 48
50.0
370
    -2
100
AcDbLine
 10
10936.35691079978
 20
5177.756393306554
 30
0.0
 11
11601.28406877191
 21
5177.756393306554
 31
0.0
  0
LINE
  5
16436
330
162DA
100
AcDbEntity
  8
寸法
 62
     0
 48
50.0
370
    -2
100
AcDbLine
 10
11541.28406877191
 20
3157.756393306554
 30
0.0
 11
11541.28406877191
 21
5177.756393306554
 31
0.0
  0
INSERT
  5
16437
330
162DA
100
AcDbEntity
  8
寸法
 62
     0
 48
50.0
370
    -2
100
AcDbBlockReference
  2
_DOTSMALL
 10
11541.28406877191
 20
3157.756393306554
 30
0.0
 41
100.0
 42
100.0
 43
100.0
 50
270.0
  0
INSERT
  5
16438
330
162DA
100
AcDbEntity
  8
寸法
 62
     0
 48
50.0
370
    -2
100
AcDbBlockReference
  2
_DOTSMALL
 10
11541.28406877191
 20
5177.756393306554
 30
0.0
 41
100.0
 42
100.0
 43
100.0
 50
90.0
  0
MTEXT
  5
16439
330
162DA
100
AcDbEntity
  8
寸法
 62
     7
 48
50.0
100
AcDbMText
 10
11441.27225774829
 20
4167.756393306556
 30
0.0
 40
120.0
 41
0.0
 71
     5
 72
     1
  1
\A1;2020
  7
STYLE1
 11
0.0000000000000001
 21
1.0
 31
0.0
 73
     1
 44
1.0
1001
ACAD
1000
MTEXTBEGIN
1070
    73
1070
     1
1070
    44
1040
1.0
1070
    74
1070
     0
1000
MTEXTEND
  0
POINT
  5
1643A
330
162DA
100
AcDbEntity
  8
DEFPOINTS
 62
     0
 48
50.0
100
AcDbPoint
 10
10836.35691079978
 20
3157.756393306554
 30
0.0
  0
POINT
  5
1643B
330
162DA
100
AcDbEntity
  8
DEFPOINTS
 62
     0
 48
50.0
100
AcDbPoint
 10
10916.35691079978
 20
5177.756393306554
 30
0.0
  0
POINT
  5
1643C
330
162DA
100
AcDbEntity
  8
DEFPOINTS
 62
     0
 48
50.0
100
AcDbPoint
 10
11541.28406877191
 20
5177.756393306554
 30
0.0
  0
ENDBLK
  5
162E5
330
162DA
100
AcDbEntity
  8
0
 48
50.0
100
AcDbBlockEnd
  0
BLOCK
  5
162F0
330
162E6
100
AcDbEntity
  8
0
 48
50.0
100
AcDbBlockBegin
  2
*D26
 70
     1
 10
0.0
 20
0.0
 30
0.0
  3
*D26
  1

  0
LINE
  5
1642B
330
162E6
100
AcDbEntity
  8
寸法
 62
     0
 48
50.0
370
    -2
100
AcDbLine
 10
10836.35691079978
 20
5199.567072918206
 30
0.0
 11
10836.35691079978
 21
5691.413846885857
 31
0.0
  0
LINE
  5
1642C
330
162E6
100
AcDbEntity
  8
寸法
 62
     0
 48
50.0
370
    -2
100
AcDbLine
 10
9466.356910799785
 20
5248.758011429529
 30
0.0
 11
9466.356910799785
 21
5691.413846885857
 31
0.0
  0
LINE
  5
1642D
330
162E6
100
AcDbEntity
  8
寸法
 62
     0
 48
50.0
370
    -2
100
AcDbLine
 10
10836.35691079978
 20
5631.413846885856
 30
0.0
 11
9466.356910799785
 21
5631.413846885856
 31
0.0
  0
INSERT
  5
1642E
330
162E6
100
AcDbEntity
  8
寸法
 62
     0
 48
50.0
370
    -2
100
AcDbBlockReference
  2
_DOTSMALL
 10
10836.35691079978
 20
5631.413846885856
 30
0.0
 41
100.0
 42
100.0
 43
100.0
  0
INSERT
  5
1642F
330
162E6
100
AcDbEntity
  8
寸法
 62
     0
 48
50.0
370
    -2
100
AcDbBlockReference
  2
_DOTSMALL
 10
9466.356910799785
 20
5631.413846885856
 30
0.0
 41
100.0
 42
100.0
 43
100.0
 50
180.0
  0
MTEXT
  5
16430
330
162E6
100
AcDbEntity
  8
寸法
 62
     7
 48
50.0
100
AcDbMText
 10
10116.17594369033
 20
5731.413846885857
 30
0.0
 40
120.0
 41
0.0
 71
     5
 72
     1
  1
\A1;柱外寸法1370
  7
STYLE1
 73
     1
 44
1.0
1001
ACAD
1000
MTEXTBEGIN
1070
    73
1070
     1
1070
    44
1040
1.0
1070
    74
1070
     0
1000
MTEXTEND
  0
POINT
  5
16431
330
162E6
100
AcDbEntity
  8
DEFPOINTS
 62
     0
 48
50.0
100
AcDbPoint
 10
10836.35691079978
 20
5179.567072918206
 30
0.0
  0
POINT
  5
16432
330
162E6
100
AcDbEntity
  8
DEFPOINTS
 62
     0
 48
50.0
100
AcDbPoint
 10
9466.356910799785
 20
5228.758011429529
 30
0.0
  0
POINT
  5
16433
330
162E6
100
AcDbEntity
  8
DEFPOINTS
 62
     0
 48
50.0
100
AcDbPoint
 10
9466.356910799785
 20
5631.413846885856
 30
0.0
  0
ENDBLK
  5
162F1
330
162E6
100
AcDbEntity
  8
0
 48
50.0
100
AcDbBlockEnd
  0
BLOCK
  5
162FE
330
162F2
100
AcDbEntity
  8
0
 48
50.0
100
AcDbBlockBegin
  2
*D27
 70
     1
 10
0.0
 20
0.0
 30
0.0
  3
*D27
  1

  0
LINE
  5
16420
330
162F2
100
AcDbEntity
  8
寸法
 62
     0
 48
50.0
370
    -2
100
AcDbLine
 10
9466.356910799785
 20
5248.758011429529
 30
0.0
 11
9466.356910799785
 21
5691.413846885857
 31
0.0
  0
LINE
  5
16421
330
162F2
100
AcDbEntity
  8
寸法
 62
     0
 48
50.0
370
    -2
100
AcDbLine
 10
9406.356910799784
 20
5252.756393306558
 30
0.0
 11
9406.356910799784
 21
5691.413846885857
 31
0.0
  0
LINE
  5
16422
330
162F2
100
AcDbEntity
  8
寸法
 62
     0
 48
50.0
370
    -2
100
AcDbLine
 10
9466.356910799785
 20
5631.413846885856
 30
0.0
 11
9566.356910799784
 21
5631.413846885856
 31
0.0
  0
LINE
  5
16423
330
162F2
100
AcDbEntity
  8
寸法
 62
     0
 48
50.0
370
    -2
100
AcDbLine
 10
9406.356910799784
 20
5631.413846885856
 30
0.0
 11
8987.081320248604
 21
5631.413846885856
 31
0.0
  0
LINE
  5
16424
330
162F2
100
AcDbEntity
  8
寸法
 62
     0
 48
50.0
370
    -2
100
AcDbLine
 10
9466.356910799785
 20
5631.413846885856
 30
0.0
 11
9406.356910799784
 21
5631.413846885856
 31
0.0
  0
INSERT
  5
16425
330
162F2
100
AcDbEntity
  8
寸法
 62
     0
 48
50.0
370
    -2
100
AcDbBlockReference
  2
_DOTSMALL
 10
9466.356910799785
 20
5631.413846885856
 30
0.0
 41
100.0
 42
100.0
 43
100.0
 50
180.0
  0
INSERT
  5
16426
330
162F2
100
AcDbEntity
  8
寸法
 62
     0
 48
50.0
370
    -2
100
AcDbBlockReference
  2
_DOTSMALL
 10
9406.356910799784
 20
5631.413846885856
 30
0.0
 41
100.0
 42
100.0
 43
100.0
  0
MTEXT
  5
16427
330
162F2
100
AcDbEntity
  8
寸法
 62
     7
 48
50.0
100
AcDbMText
 10
9096.719115524194
 20
5731.413846885857
 30
0.0
 40
120.0
 41
0.0
 71
     5
 72
     1
  1
\A1;60
  7
STYLE1
 73
     1
 44
1.0
1001
ACAD
1000
MTEXTBEGIN
1070
    73
1070
     1
1070
    44
1040
1.0
1070
    74
1070
     0
1000
MTEXTEND
  0
POINT
  5
16428
330
162F2
100
AcDbEntity
  8
DEFPOINTS
 62
     0
 48
50.0
100
AcDbPoint
 10
9466.356910799785
 20
5228.758011429529
 30
0.0
  0
POINT
  5
16429
330
162F2
100
AcDbEntity
  8
DEFPOINTS
 62
     0
 48
50.0
100
AcDbPoint
 10
9406.356910799784
 20
5232.756393306558
 30
0.0
  0
POINT
  5
1642A
330
162F2
100
AcDbEntity
  8
DEFPOINTS
 62
     0
 48
50.0
100
AcDbPoint
 10
9406.356910799784
 20
5631.413846885856
 30
0.0
  0
ENDBLK
  5
162FF
330
162F2
100
AcDbEntity
  8
0
 48
50.0
100
AcDbBlockEnd
  0
BLOCK
  5
1630A
330
16300
100
AcDbEntity
  8
0
 48
50.0
100
AcDbBlockBegin
  2
*D28
 70
     1
 10
0.0
 20
0.0
 30
0.0
  3
*D28
  1

  0
LINE
  5
16417
330
16300
100
AcDbEntity
  8
寸法
 62
     0
 48
50.0
370
    -2
100
AcDbLine
 10
10916.35691079978
 20
5197.756393306554
 30
0.0
 11
10916.35691079978
 21
5899.58816807782
 31
0.0
  0
LINE
  5
16418
330
16300
100
AcDbEntity
  8
寸法
 62
     0
 48
50.0
370
    -2
100
AcDbLine
 10
9406.356910799784
 20
5252.756393306558
 30
0.0
 11
9406.356910799784
 21
5899.58816807782
 31
0.0
  0
LINE
  5
16419
330
16300
100
AcDbEntity
  8
寸法
 62
     0
 48
50.0
370
    -2
100
AcDbLine
 10
10916.35691079978
 20
5839.58816807782
 30
0.0
 11
9406.356910799784
 21
5839.58816807782
 31
0.0
  0
INSERT
  5
1641A
330
16300
100
AcDbEntity
  8
寸法
 62
     0
 48
50.0
370
    -2
100
AcDbBlockReference
  2
_DOTSMALL
 10
10916.35691079978
 20
5839.58816807782
 30
0.0
 41
100.0
 42
100.0
 43
100.0
  0
INSERT
  5
1641B
330
16300
100
AcDbEntity
  8
寸法
 62
     0
 48
50.0
370
    -2
100
AcDbBlockReference
  2
_DOTSMALL
 10
9406.356910799784
 20
5839.58816807782
 30
0.0
 41
100.0
 42
100.0
 43
100.0
 50
180.0
  0
MTEXT
  5
1641C
330
16300
100
AcDbEntity
  8
寸法
 62
     7
 48
50.0
100
AcDbMText
 10
10133.48174050161
 20
5939.58816807782
 30
0.0
 40
120.0
 41
0.0
 71
     5
 72
     1
  1
\A1;1510
  7
STYLE1
 73
     1
 44
1.0
1001
ACAD
1000
MTEXTBEGIN
1070
    73
1070
     1
1070
    44
1040
1.0
1070
    74
1070
     0
1000
MTEXTEND
  0
POINT
  5
1641D
330
16300
100
AcDbEntity
  8
DEFPOINTS
 62
     0
 48
50.0
100
AcDbPoint
 10
10916.35691079978
 20
5177.756393306554
 30
0.0
  0
POINT
  5
1641E
330
16300
100
AcDbEntity
  8
DEFPOINTS
 62
     0
 48
50.0
100
AcDbPoint
 10
9406.356910799784
 20
5232.756393306558
 30
0.0
  0
POINT
  5
1641F
330
16300
100
AcDbEntity
  8
DEFPOINTS
 62
     0
 48
50.0
100
AcDbPoint
 10
9406.356910799784
 20
5839.58816807782
 30
0.0
  0
ENDBLK
  5
1630B
330
16300
100
AcDbEntity
  8
0
 48
50.0
100
AcDbBlockEnd
  0
BLOCK
  5
16317
330
1630C
100
AcDbEntity
  8
0
 48
50.0
100
AcDbBlockBegin
  2
*D29
 70
     1
 10
0.0
 20
0.0
 30
0.0
  3
*D29
  1

  0
LINE
  5
1640D
330
1630C
100
AcDbEntity
  8
寸法
 62
     0
 48
50.0
370
    -2
100
AcDbLine
 10
10836.35691079978
 20
5199.567072918206
 30
0.0
 11
10836.35691079978
 21
5691.413846885857
 31
0.0
  0
LINE
  5
1640E
330
1630C
100
AcDbEntity
  8
寸法
 62
     0
 48
50.0
370
    -2
100
AcDbLine
 10
10916.35691079978
 20
5197.756393306554
 30
0.0
 11
10916.35691079978
 21
5691.413846885857
 31
0.0
  0
LINE
  5
1640F
330
1630C
100
AcDbEntity
  8
寸法
 62
     0
 48
50.0
370
    -2
100
AcDbLine
 10
10836.35691079978
 20
5631.413846885856
 30
0.0
 11
10916.35691079978
 21
5631.413846885856
 31
0.0
  0
LINE
  5
16410
330
1630C
100
AcDbEntity
  8
寸法
 62
     0
 48
50.0
370
    -2
100
AcDbLine
 10
10916.35691079978
 20
5631.413846885856
 30
0.0
 11
11228.45139898876
 21
5631.413846885856
 31
0.0
  0
INSERT
  5
16411
330
1630C
100
AcDbEntity
  8
寸法
 62
     0
 48
50.0
370
    -2
100
AcDbBlockReference
  2
_DOTSMALL
 10
10836.35691079978
 20
5631.413846885856
 30
0.0
 41
100.0
 42
100.0
 43
100.0
 50
180.0
  0
INSERT
  5
16412
330
1630C
100
AcDbEntity
  8
寸法
 62
     0
 48
50.0
370
    -2
100
AcDbBlockReference
  2
_DOTSMALL
 10
10916.35691079978
 20
5631.413846885856
 30
0.0
 41
100.0
 42
100.0
 43
100.0
  0
MTEXT
  5
16413
330
1630C
100
AcDbEntity
  8
寸法
 62
     7
 48
50.0
100
AcDbMText
 10
11122.40415489427
 20
5731.413846885857
 30
0.0
 40
120.0
 41
0.0
 71
     5
 72
     1
  1
\A1;80
  7
STYLE1
 73
     1
 44
1.0
1001
ACAD
1000
MTEXTBEGIN
1070
    73
1070
     1
1070
    44
1040
1.0
1070
    74
1070
     0
1000
MTEXTEND
  0
POINT
  5
16414
330
1630C
100
AcDbEntity
  8
DEFPOINTS
 62
     0
 48
50.0
100
AcDbPoint
 10
10836.35691079978
 20
5179.567072918206
 30
0.0
  0
POINT
  5
16415
330
1630C
100
AcDbEntity
  8
DEFPOINTS
 62
     0
 48
50.0
100
AcDbPoint
 10
10916.35691079978
 20
5177.756393306554
 30
0.0
  0
POINT
  5
16416
330
1630C
100
AcDbEntity
  8
DEFPOINTS
 62
     0
 48
50.0
100
AcDbPoint
 10
10916.35691079978
 20
5631.413846885856
 30
0.0
  0
ENDBLK
  5
16318
330
1630C
100
AcDbEntity
  8
0
 48
50.0
100
AcDbBlockEnd
  0
BLOCK
  5
16324
330
16319
100
AcDbEntity
  8
0
 48
50.0
100
AcDbBlockBegin
  2
*D30
 70
     1
 10
0.0
 20
0.0
 30
0.0
  3
*D30
  1

  0
LINE
  5
16403
330
16319
100
AcDbEntity
  8
寸法
 62
     0
 48
50.0
370
    -2
100
AcDbLine
 10
9401.713715487284
 20
5091.292004780028
 30
0.0
 11
8748.813545193256
 21
5115.943036020007
 31
0.0
  0
LINE
  5
16404
330
16319
100
AcDbEntity
  8
寸法
 62
     0
 48
50.0
370
    -2
100
AcDbLine
 10
9407.03354963924
 20
5232.191612176912
 30
0.0
 11
8754.133379345049
 21
5256.842643416896
 31
0.0
  0
LINE
  5
16405
330
16319
100
AcDbEntity
  8
寸法
 62
     0
 48
50.0
370
    -2
100
AcDbLine
 10
8808.770824936614
 20
5113.679276806478
 30
0.0
 11
8814.090659088405
 21
5254.578884203367
 31
0.0
  0
LINE
  5
16406
330
16319
100
AcDbEntity
  8
寸法
 62
     0
 48
50.0
370
    -2
100
AcDbLine
 10
8814.090659088405
 20
5254.578884203367
 30
0.0
 11
8827.673214369607
 21
5614.3225626642
 31
0.0
  0
INSERT
  5
16407
330
16319
100
AcDbEntity
  8
寸法
 62
     0
 48
50.0
370
    -2
100
AcDbBlockReference
  2
_DOTSMALL
 10
8808.770824936614
 20
5113.679276806478
 30
0.0
 41
100.0
 42
100.0
 43
100.0
 50
267.8377559871574
  0
INSERT
  5
16408
330
16319
100
AcDbEntity
  8
寸法
 62
     0
 48
50.0
370
    -2
100
AcDbBlockReference
  2
_DOTSMALL
 10
8814.090659088405
 20
5254.578884203367
 30
0.0
 41
100.0
 42
100.0
 43
100.0
 50
87.83775598715743
  0
MTEXT
  5
16409
330
16319
100
AcDbEntity
  8
寸法
 62
     7
 48
50.0
100
AcDbMText
 10
8722.839603168031
 20
5488.188055242807
 30
0.0
 40
120.0
 41
0.0
 71
     5
 72
     1
  1
\A1;141
  7
STYLE1
 11
0.03772932022548
 21
0.9992879957226159
 31
0.0
 73
     1
 44
1.0
1001
ACAD
1000
MTEXTBEGIN
1070
    73
1070
     1
1070
    44
1040
1.0
1070
    74
1070
     0
1000
MTEXTEND
  0
POINT
  5
1640A
330
16319
100
AcDbEntity
  8
DEFPOINTS
 62
     0
 48
50.0
100
AcDbPoint
 10
9421.699475401736
 20
5090.537418375518
 30
0.0
  0
POINT
  5
1640B
330
16319
100
AcDbEntity
  8
DEFPOINTS
 62
     0
 48
50.0
100
AcDbPoint
 10
9427.01930955369
 20
5231.437025772402
 30
0.0
  0
POINT
  5
1640C
330
16319
100
AcDbEntity
  8
DEFPOINTS
 62
     0
 48
50.0
100
AcDbPoint
 10
8814.090659088405
 20
5254.578884203367
 30
0.0
  0
ENDBLK
  5
16325
330
16319
100
AcDbEntity
  8
0
 48
50.0
100
AcDbBlockEnd
  0
BLOCK
  5
166F1
330
16672
100
AcDbEntity
  8
0
 48
50.0
100
AcDbBlockBegin
  2
A$C7FDD17E1
 70
     0
 10
0.0
 20
0.0
 30
0.0
  3
A$C7FDD17E1
  1

  0
LWPOLYLINE
  5
16673
330
16672
100
AcDbEntity
  8
細線
  6
Continuous
370
    15
100
AcDbPolyline
 90
        3
 70
   128
 43
0.0
 10
50.41322660446076
 20
-919.9864683151245
 10
50.484811782836
 20
-920.0107274055481
 10
50.50001096725373
 20
-920.013409614563
  0
ARC
  5
16674
330
16672
100
AcDbEntity
  8
細線
  6
Continuous
370
    15
100
AcDbCircle
 10
46.99999910156384
 20
-927.0000425926701
 30
0.0
 40
7.799999999999959
100
AcDbArc
 50
64.04961909222373
 51
115.6437752580401
  0
LWPOLYLINE
  5
16675
330
16672
100
AcDbEntity
  8
細線
  6
Continuous
370
    15
100
AcDbPolyline
 90
        3
 70
   128
 43
0.0
 10
43.50001168250947
 20
-919.9978528022766
 10
43.55264258384614
 20
-919.9921903610229
 10
43.62434697151093
 20
-919.9683485031128
  0
SPLINE
  5
16676
330
16672
100
AcDbEntity
  8
細線
  6
Continuous
370
    15
100
AcDbSpline
210
0.0
220
0.0
230
1.0
 70
     8
 71
     3
 72
     9
 73
     5
 74
     0
 42
0.000000001
 43
0.0000000001
 40
0.0
 40
0.0
 40
0.0
 40
0.0
 40
0.7237658969060897
 40
1.0
 40
1.0
 40
1.0
 40
1.0
 10
28.90492033958344
 20
-892.6882562637329
 30
0.0
 10
29.10066183650542
 20
-892.4595748215216
 30
0.0
 10
29.37111046881091
 20
-892.1436143111058
 30
0.0
 10
29.4086427145221
 20
-891.5845998772274
 30
0.0
 10
29.41901040077119
 20
-891.4301810264587
 30
0.0
  0
SPLINE
  5
16677
330
16672
100
AcDbEntity
  8
細線
  6
Continuous
370
    15
100
AcDbSpline
210
0.0
220
0.0
230
1.0
 70
     8
 71
     3
 72
     9
 73
     5
 74
     0
 42
0.000000001
 43
0.0000000001
 40
0.0
 40
0.0
 40
0.0
 40
0.0
 40
0.1817420378681831
 40
1.0
 40
1.0
 40
1.0
 40
1.0
 10
29.41379499435334
 20
-810.4616222381592
 30
0.0
 10
29.40679932985131
 20
-810.3671077717445
 30
0.0
 10
29.36830705479861
 20
-809.8470604149042
 30
0.0
 10
29.11345503441316
 20
-809.5527062662586
 30
0.0
 10
28.90492033958344
 20
-809.3118486404419
 30
0.0
  0
LINE
  5
16678
330
16672
100
AcDbEntity
  8
細線
  6
Continuous
370
    15
100
AcDbLine
 10
54.58820414543061
 20
-814.7496995925903
 30
0.0
 11
54.58820414543061
 21
-887.2504053115845
 31
0.0
  0
LINE
  5
16679
330
16672
100
AcDbEntity
  8
細線
  6
Continuous
370
    15
100
AcDbLine
 10
49.15035319328217
 20
-892.6882562637329
 30
0.0
 11
28.90492033958344
 21
-892.6882562637329
 31
0.0
  0
ELLIPSE
  5
1667A
330
16672
100
AcDbEntity
  8
細線
  6
Continuous
370
    15
100
AcDbEllipse
 10
24.09999910159877
 20
-891.5391200621961
 30
0.0
 11
5.399999999999976
 21
0.0
 31
0.0
210
0.0
220
0.0
230
1.0
 40
0.4663076581550023
 41
5.04728513882407
 42
5.809296398627029
  0
LINE
  5
1667B
330
16672
100
AcDbEntity
  8
細線
  6
Continuous
370
    15
100
AcDbLine
 10
25.8748288154593
 20
-893.9173040390015
 30
0.0
 11
24.10001111030488
 21
-893.9173040390015
 31
0.0
  0
LINE
  5
1667C
330
16672
100
AcDbEntity
  8
細線
  6
Continuous
370
    15
100
AcDbLine
 10
24.10001111030488
 20
-808.0828008651733
 30
0.0
 11
25.8748288154593
 21
-808.0828008651733
 31
0.0
  0
ELLIPSE
  5
1667D
330
16672
100
AcDbEntity
  8
細線
  6
Continuous
370
    15
100
AcDbEllipse
 10
24.09999910159877
 20
-810.4609651231585
 30
0.0
 11
5.399999999999976
 21
0.0
 31
0.0
210
0.0
220
0.0
230
1.0
 40
0.4663076581550023
 41
0.4738889085525403
 42
1.235900168355494
  0
LINE
  5
1667E
330
16672
100
AcDbEntity
  8
細線
  6
Continuous
370
    15
100
AcDbLine
 10
28.90492033958344
 20
-809.3118486404419
 30
0.0
 11
49.15035319328217
 21
-809.3118486404419
 31
0.0
  0
ELLIPSE
  5
1667F
330
16672
100
AcDbEntity
  8
細線
  6
Continuous
370
    15
100
AcDbEllipse
 10
24.09999910159877
 20
-811.3929298234435
 30
0.0
 11
0.0
 21
-3.310133756887523
 31
0.0
210
0.0
220
0.0
230
1.0
 40
0.9063077870366367
 41
3.141592653589783
 42
4.712388980384702
  0
ELLIPSE
  5
16680
330
16672
100
AcDbEntity
  8
細線
  6
Continuous
370
    15
100
AcDbEllipse
 10
24.09999910159877
 20
-890.6071553618968
 30
0.0
 11
0.0
 21
-3.310133756887466
 31
0.0
210
0.0
220
0.0
230
1.0
 40
0.9063077870366523
 41
4.712388980384702
 42
6.283185307179586
  0
ARC
  5
16681
330
16672
100
AcDbEntity
  8
細線
  6
Continuous
370
    15
100
AcDbCircle
 10
46.99999910156384
 20
-927.0000425926701
 30
0.0
 40
7.499999999999996
100
AcDbArc
 50
120.3006176375393
 51
59.69938236246067
  0
SPLINE
  5
16682
330
16672
100
AcDbEntity
  8
細線
  6
Continuous
370
    15
100
AcDbSpline
210
0.0
220
0.0
230
1.0
 70
    24
 71
     3
 72
     9
 73
     5
 74
     0
 42
0.000000001
 43
0.0000000001
 40
0.0
 40
0.0
 40
0.0
 40
0.0
 40
0.8663703693180105
 40
1.0
 40
1.0
 40
1.0
 40
1.0
 10
43.50001168250947
 20
-920.190673828125
 30
0.0
 10
43.50001168250947
 20
-920.2430453883135
 30
0.0
 10
43.50001168250947
 20
-920.303494778127
 30
0.0
 10
43.50001168250947
 20
-920.359342626136
 30
0.0
 10
43.50001168250947
 20
-920.3668055534363
 30
0.0
  0
LINE
  5
16683
330
16672
100
AcDbEntity
  8
細線
  6
Continuous
370
    15
100
AcDbLine
 10
43.50001168250947
 20
-920.3668055534363
 30
0.0
 11
43.21596574783234
 21
-920.5246386528015
 31
0.0
  0
LINE
  5
16684
330
16672
100
AcDbEntity
  8
細線
  6
Continuous
370
    15
100
AcDbLine
 10
50.78402709960847
 20
-920.5246386528015
 30
0.0
 11
50.50001096725373
 21
-920.3668055534363
 31
0.0
  0
SPLINE
  5
16685
330
16672
100
AcDbEntity
  8
細線
  6
Continuous
370
    15
100
AcDbSpline
210
0.0
220
0.0
230
1.0
 70
    24
 71
     3
 72
     9
 73
     5
 74
     0
 42
0.000000001
 43
0.0000000001
 40
0.0
 40
0.0
 40
0.0
 40
0.0
 40
0.8651188723649402
 40
1.0
 40
1.0
 40
1.0
 40
1.0
 10
50.50001096725373
 20
-920.3668055534363
 30
0.0
 10
50.50001096725373
 20
-920.3167182360047
 30
0.0
 10
50.50001096725373
 20
-920.2588217791927
 30
0.0
 10
50.50001096725373
 20
-920.198773242475
 30
0.0
 10
50.50001096725373
 20
-920.190673828125
 30
0.0
  0
ARC
  5
16686
330
16672
100
AcDbEntity
  8
細線
  6
Continuous
370
    15
100
AcDbCircle
 10
46.99999910156384
 20
-927.0000425926701
 30
0.0
 40
9.499999999999973
100
AcDbArc
 50
69.15570700480905
 51
110.8442929951909
  0
LINE
  5
16687
330
16672
100
AcDbEntity
  8
細線
  6
Continuous
370
    15
100
AcDbLine
 10
50.50001096725373
 20
-920.190673828125
 30
0.0
 11
50.50001096725373
 21
-918.2953653335571
 31
0.0
  0
LINE
  5
16688
330
16672
100
AcDbEntity
  8
細線
  6
Continuous
370
    15
100
AcDbLine
 10
43.50001168250947
 20
-918.2953653335571
 30
0.0
 11
43.50001168250947
 21
-920.190673828125
 31
0.0
  0
LINE
  5
16689
330
16672
100
AcDbEntity
  8
細線
  6
Continuous
370
    15
100
AcDbLine
 10
50.50001096725373
 20
-918.2953653335571
 30
0.0
 11
50.50001096725373
 21
-918.168288230896
 31
0.0
  0
LINE
  5
1668A
330
16672
100
AcDbEntity
  8
細線
  6
Continuous
370
    15
100
AcDbLine
 10
50.50001096725373
 20
-918.168288230896
 30
0.0
 11
50.38038444518952
 21
-918.1217966079712
 31
0.0
  0
LINE
  5
1668B
330
16672
100
AcDbEntity
  8
細線
  6
Continuous
370
    15
100
AcDbLine
 10
43.61960840225129
 20
-918.1217966079712
 30
0.0
 11
43.50001168250947
 21
-918.168288230896
 31
0.0
  0
LINE
  5
1668C
330
16672
100
AcDbEntity
  8
細線
  6
Continuous
370
    15
100
AcDbLine
 10
43.50001168250947
 20
-918.168288230896
 30
0.0
 11
43.50001168250947
 21
-918.2953653335571
 31
0.0
  0
ARC
  5
1668D
330
16672
100
AcDbEntity
  8
細線
  6
Continuous
370
    15
100
AcDbCircle
 10
63.99999910156385
 20
-787.0000425926701
 30
0.0
 40
6.0
100
AcDbArc
 50
0.0
 51
90.0
  0
LINE
  5
1668E
330
16672
100
AcDbEntity
  8
細線
  6
Continuous
370
    15
100
AcDbLine
 10
69.99999833106904
 20
-787.0000419616699
 30
0.0
 11
69.99999833106904
 21
-955.0000247955322
 31
0.0
  0
LINE
  5
1668F
330
16672
100
AcDbEntity
  8
細線
  6
Continuous
370
    15
100
AcDbLine
 10
11.99999999999909
 20
-955.0000247955322
 30
0.0
 11
11.99999999999909
 21
-787.0000419616699
 31
0.0
  0
LINE
  5
16690
330
16672
100
AcDbEntity
  8
細線
  6
Continuous
370
    15
100
AcDbLine
 10
18.00001215934662
 20
-781.0
 30
0.0
 11
63.9999861717215
 21
-781.0
 31
0.0
  0
ARC
  5
16691
330
16672
100
AcDbEntity
  8
細線
  6
Continuous
370
    15
100
AcDbCircle
 10
63.99999910156385
 20
-955.00004259267
 30
0.0
 40
6.0
100
AcDbArc
 50
270.0
 51
0.0
  0
ARC
  5
16692
330
16672
100
AcDbEntity
  8
細線
  6
Continuous
370
    15
100
AcDbCircle
 10
17.99999910156384
 20
-787.0000425926701
 30
0.0
 40
6.0
100
AcDbArc
 50
90.0
 51
180.0
  0
LINE
  5
16693
330
16672
100
AcDbEntity
  8
細線
  6
Continuous
370
    15
100
AcDbLine
 10
63.9999861717215
 20
-961.0000667572021
 30
0.0
 11
18.00001215934662
 21
-961.0000667572021
 31
0.0
  0
ARC
  5
16694
330
16672
100
AcDbEntity
  8
細線
  6
Continuous
370
    15
100
AcDbCircle
 10
17.99999910156384
 20
-955.00004259267
 30
0.0
 40
6.0
100
AcDbArc
 50
180.0
 51
270.0
  0
LINE
  5
16695
330
16672
100
AcDbEntity
  8
細線
  6
Continuous
370
    15
100
AcDbLine
 10
53.09629988670258
 20
-916.7678174972534
 30
0.0
 11
53.09629988670258
 21
-920.7832036018372
 31
0.0
  0
ARC
  5
16696
330
16672
100
AcDbEntity
  8
細線
  6
Continuous
370
    15
100
AcDbCircle
 10
46.99999910156384
 20
-927.0000425926701
 30
0.0
 40
8.707106781186586
100
AcDbArc
 50
134.4391355081549
 51
45.56086449184513
  0
LINE
  5
16697
330
16672
100
AcDbEntity
  8
細線
  6
Continuous
370
    15
100
AcDbLine
 10
40.90372276306061
 20
-920.7832036018372
 30
0.0
 11
40.90372276306061
 21
-916.7678174972534
 31
0.0
  0
SPLINE
  5
16698
330
16672
100
AcDbEntity
  8
細線
  6
Continuous
370
    15
100
AcDbSpline
210
0.0
220
0.0
230
1.0
 70
     8
 71
     3
 72
    11
 73
     7
 74
     0
 42
0.000000001
 43
0.0000000001
 40
0.0
 40
0.0
 40
0.0
 40
0.0
 40
0.0781314889249488
 40
0.3601777463886433
 40
0.6812698848259567
 40
1.0
 40
1.0
 40
1.0
 40
1.0
 10
41.09377217292695
 20
-916.4436874389648
 30
0.0
 10
41.0849097422315
 20
-916.4488755544734
 30
0.0
 10
41.04405489150576
 20
-916.472792207991
 30
0.0
 10
40.97530974793971
 20
-916.5321025358425
 30
0.0
 10
40.91326823661711
 20
-916.6409678418276
 30
0.0
 10
40.90689674706573
 20
-916.7256384712528
 30
0.0
 10
40.90372276306061
 20
-916.7678174972534
 30
0.0
  0
ARC
  5
16699
330
16672
100
AcDbEntity
  8
細線
  6
Continuous
370
    15
100
AcDbCircle
 10
46.99999910156384
 20
-927.0000425926701
 30
0.0
 40
12.09629120178367
100
AcDbArc
 50
60.77315626978887
 51
119.2268437302111
  0
SPLINE
  5
1669A
330
16672
100
AcDbEntity
  8
細線
  6
Continuous
370
    15
100
AcDbSpline
210
0.0
220
0.0
230
1.0
 70
     8
 71
     3
 72
    11
 73
     7
 74
     0
 42
0.000000001
 43
0.0000000001
 40
0.0
 40
0.0
 40
0.0
 40
0.0
 40
0.0779029322309155
 40
0.3600683505069131
 40
0.6812326600027312
 40
1.0
 40
1.0
 40
1.0
 40
1.0
 10
53.09629988670258
 20
-916.7678174972534
 30
0.0
 10
53.0960976135384
 20
-916.7575805715168
 30
0.0
 10
53.09516270446966
 20
-916.7102653696346
 30
0.0
 10
53.07696569480959
 20
-916.6213286134588
 30
0.0
 10
53.01230866572495
 20
-916.5139641341228
 30
0.0
 10
52.94151481642529
 20
-916.4670544346881
 30
0.0
 10
52.90625047683625
 20
-916.4436874389648
 30
0.0
  0
LINE
  5
1669B
330
16672
100
AcDbEntity
  8
細線
  6
Continuous
370
    15
100
AcDbLine
 10
24.03254342079072
 20
-802.0000276565552
 30
0.0
 11
54.89999532699494
 21
-802.0000276565552
 31
0.0
  0
LINE
  5
1669C
330
16672
100
AcDbEntity
  8
細線
  6
Continuous
370
    15
100
AcDbLine
 10
19.03254342079072
 20
-895.0000176429748
 30
0.0
 11
19.03254342079072
 21
-807.0000276565551
 31
0.0
  0
ARC
  5
1669D
330
16672
100
AcDbEntity
  8
細線
  6
Continuous
370
    15
100
AcDbCircle
 10
24.03254342079072
 20
-807.0000276565551
 30
0.0
 40
5.0
100
AcDbArc
 50
90.0
 51
180.0
  0
LINE
  5
1669E
330
16672
100
AcDbEntity
  8
細線
  6
Continuous
370
    15
100
AcDbLine
 10
21.09999012946992
 20
-811.3929298234435
 30
0.0
 11
21.09999012946992
 21
-890.6071553618968
 31
0.0
  0
LINE
  5
1669F
330
16672
100
AcDbEntity
  8
細線
  6
Continuous
370
    15
100
AcDbLine
 10
61.89999532699494
 20
-809.0000276565552
 30
0.0
 11
61.89999532699494
 21
-893.0000176429748
 31
0.0
  0
ARC
  5
166A0
330
16672
100
AcDbEntity
  8
細線
  6
Continuous
370
    15
100
AcDbCircle
 10
54.89999532699494
 20
-893.0000176429748
 30
0.0
 40
7.0
100
AcDbArc
 50
270.0
 51
0.0
  0
ARC
  5
166A1
330
16672
100
AcDbEntity
  8
細線
  6
Continuous
370
    15
100
AcDbCircle
 10
54.89999532699494
 20
-809.0000276565552
 30
0.0
 40
7.0
100
AcDbArc
 50
0.0
 51
90.0
  0
LINE
  5
166A2
330
16672
100
AcDbEntity
  8
細線
  6
Continuous
370
    15
100
AcDbLine
 10
54.89999532699494
 20
-900.0000176429749
 30
0.0
 11
24.03254342079072
 21
-900.0000176429749
 31
0.0
  0
ARC
  5
166A3
330
16672
100
AcDbEntity
  8
細線
  6
Continuous
370
    15
100
AcDbCircle
 10
24.03254342079072
 20
-895.0000176429748
 30
0.0
 40
5.0
100
AcDbArc
 50
180.0
 51
270.0
  0
ARC
  5
166A4
330
16672
100
AcDbEntity
  8
細線
  6
Continuous
370
    15
100
AcDbCircle
 10
47.81960201647507
 20
-885.9196541347774
 30
0.0
 40
6.898178997000096
100
AcDbArc
 50
281.1228560456502
 51
348.8771439544009
  0
ARC
  5
166A5
330
16672
100
AcDbEntity
  8
細線
  6
Continuous
370
    15
100
AcDbCircle
 10
47.81965404283164
 20
-816.0803987430263
 30
0.0
 40
6.89811791144148
100
AcDbArc
 50
11.12251539540163
 51
78.87748460464951
  0
LINE
  5
166A6
330
16672
100
AcDbEntity
  8
細線
  6
Continuous
370
    15
100
AcDbLine
 10
37.0977873802176
 20
-889.4301810264588
 30
0.0
 11
37.0977873802176
 21
-812.4616222381591
 31
0.0
  0
ARC
  5
166A7
330
16672
100
AcDbEntity
  8
細線
  6
Continuous
370
    15
100
AcDbCircle
 10
35.0977873802176
 20
-812.4616222381591
 30
0.0
 40
2.0
100
AcDbArc
 50
0.0
 51
90.0
  0
ARC
  5
166A8
330
16672
100
AcDbEntity
  8
細線
  6
Continuous
370
    15
100
AcDbCircle
 10
35.09777645894701
 20
-889.4458862304745
 30
0.0
 40
2.0
100
AcDbArc
 50
262.8149626715364
 51
0.0
  0
LWPOLYLINE
  5
166A9
330
16672
100
AcDbEntity
  8
細線
 48
50.0
100
AcDbPolyline
 90
        4
 70
     1
 43
0.0
 10
48.26209497451691
 20
-931.8284211158752
 10
45.73792767524628
 20
-931.8284211158752
 10
45.73792767524628
 20
-922.1716341972351
 10
48.26209497451691
 20
-922.1716341972351
  0
LINE
  5
166AA
330
16672
100
AcDbEntity
  8
細線
  6
Continuous
370
    15
100
AcDbLine
 10
35.0977873802176
 20
-891.4301810264587
 30
0.0
 11
29.41901040077119
 21
-891.430181026457
 31
0.0
  0
LINE
  5
166AB
330
16672
100
AcDbEntity
  8
細線
  6
Continuous
370
    15
100
AcDbLine
 10
23.82779669761567
 20
-890.4301810264588
 30
0.0
 11
23.82779669761567
 21
-811.4616222381592
 31
0.0
  0
ARC
  5
166AC
330
16672
100
AcDbEntity
  8
細線
  6
Continuous
370
    15
100
AcDbCircle
 10
24.82779669761567
 20
-811.4616222381592
 30
0.0
 40
1.0
100
AcDbArc
 50
90.0
 51
180.0
  0
LINE
  5
166AD
330
16672
100
AcDbEntity
  8
細線
  6
Continuous
370
    15
100
AcDbLine
 10
29.41379499435334
 20
-810.4616222381592
 30
0.0
 11
24.82779669761567
 21
-810.4616222381592
 31
0.0
  0
LINE
  5
166AE
330
16672
100
AcDbEntity
  8
細線
  6
Continuous
370
    15
100
AcDbLine
 10
29.41901040077119
 20
-891.4301810264587
 30
0.0
 11
24.82779669761567
 21
-891.4301810264587
 31
0.0
  0
ARC
  5
166AF
330
16672
100
AcDbEntity
  8
細線
  6
Continuous
370
    15
100
AcDbCircle
 10
24.82779669761567
 20
-890.4301810264588
 30
0.0
 40
1.0
100
AcDbArc
 50
180.0
 51
270.0
  0
LINE
  5
166B0
330
16672
100
AcDbEntity
  8
細線
  6
Continuous
370
    15
100
AcDbLine
 10
35.0977873802176
 20
-810.4616222381592
 30
0.0
 11
29.29831816933165
 21
-810.4616222381592
 31
0.0
  0
LWPOLYLINE
  5
166B1
330
16672
100
AcDbEntity
  8
細線
  6
Continuous
370
    15
100
AcDbPolyline
 90
        3
 70
   128
 43
0.0
 10
870.4132266044599
 20
-919.9864683151318
 10
870.4848117828351
 20
-920.0107274055554
 10
870.5000109672528
 20
-920.0134096145703
  0
ARC
  5
166B2
330
16672
100
AcDbEntity
  8
細線
  6
Continuous
370
    15
100
AcDbCircle
 10
866.9999991015629
 20
-927.0000425926774
 30
0.0
 40
7.799999999999959
100
AcDbArc
 50
64.04961909222373
 51
115.6437752580401
  0
LWPOLYLINE
  5
166B3
330
16672
100
AcDbEntity
  8
細線
  6
Continuous
370
    15
100
AcDbPolyline
 90
        3
 70
   128
 43
0.0
 10
863.5000116825086
 20
-919.9978528022839
 10
863.5526425838452
 20
-919.9921903610302
 10
863.62434697151
 20
-919.9683485031201
  0
SPLINE
  5
166B4
330
16672
100
AcDbEntity
  8
細線
  6
Continuous
370
    15
100
AcDbSpline
210
0.0
220
0.0
230
1.0
 70
     8
 71
     3
 72
     9
 73
     5
 74
     0
 42
0.000000001
 43
0.0000000001
 40
0.0
 40
0.0
 40
0.0
 40
0.0
 40
0.7237658969060897
 40
1.0
 40
1.0
 40
1.0
 40
1.0
 10
848.9049203395826
 20
-892.6882562637402
 30
0.0
 10
849.1006618365045
 20
-892.4595748215288
 30
0.0
 10
849.3711104688099
 20
-892.1436143111131
 30
0.0
 10
849.4086427145212
 20
-891.5845998772347
 30
0.0
 10
849.4190104007703
 20
-891.430181026466
 30
0.0
  0
SPLINE
  5
166B5
330
16672
100
AcDbEntity
  8
細線
  6
Continuous
370
    15
100
AcDbSpline
210
0.0
220
0.0
230
1.0
 70
     8
 71
     3
 72
     9
 73
     5
 74
     0
 42
0.000000001
 43
0.0000000001
 40
0.0
 40
0.0
 40
0.0
 40
0.0
 40
0.1817420378681831
 40
1.0
 40
1.0
 40
1.0
 40
1.0
 10
849.4137949943525
 20
-810.4616222381665
 30
0.0
 10
849.4067993298504
 20
-810.3671077717518
 30
0.0
 10
849.3683070547977
 20
-809.8470604149115
 30
0.0
 10
849.1134550344122
 20
-809.5527062662659
 30
0.0
 10
848.9049203395826
 20
-809.3118486404492
 30
0.0
  0
LINE
  5
166B6
330
16672
100
AcDbEntity
  8
細線
  6
Continuous
370
    15
100
AcDbLine
 10
874.5882041454297
 20
-814.7496995925976
 30
0.0
 11
874.5882041454297
 21
-887.2504053115918
 31
0.0
  0
LINE
  5
166B7
330
16672
100
AcDbEntity
  8
細線
  6
Continuous
370
    15
100
AcDbLine
 10
869.1503531932813
 20
-892.6882562637402
 30
0.0
 11
848.9049203395826
 21
-892.6882562637402
 31
0.0
  0
ELLIPSE
  5
166B8
330
16672
100
AcDbEntity
  8
細線
  6
Continuous
370
    15
100
AcDbEllipse
 10
844.0999991015978
 20
-891.5391200622034
 30
0.0
 11
5.399999999999976
 21
0.0
 31
0.0
210
0.0
220
0.0
230
1.0
 40
0.4663076581550023
 41
5.04728513882407
 42
5.809296398627029
  0
LINE
  5
166B9
330
16672
100
AcDbEntity
  8
細線
  6
Continuous
370
    15
100
AcDbLine
 10
845.8748288154584
 20
-893.9173040390087
 30
0.0
 11
844.100011110304
 21
-893.9173040390087
 31
0.0
  0
LINE
  5
166BA
330
16672
100
AcDbEntity
  8
細線
  6
Continuous
370
    15
100
AcDbLine
 10
844.100011110304
 20
-808.0828008651806
 30
0.0
 11
845.8748288154584
 21
-808.0828008651806
 31
0.0
  0
ELLIPSE
  5
166BB
330
16672
100
AcDbEntity
  8
細線
  6
Continuous
370
    15
100
AcDbEllipse
 10
844.0999991015978
 20
-810.4609651231658
 30
0.0
 11
5.399999999999976
 21
0.0
 31
0.0
210
0.0
220
0.0
230
1.0
 40
0.4663076581550023
 41
0.4738889085525403
 42
1.235900168355494
  0
LINE
  5
166BC
330
16672
100
AcDbEntity
  8
細線
  6
Continuous
370
    15
100
AcDbLine
 10
848.9049203395826
 20
-809.3118486404492
 30
0.0
 11
869.1503531932813
 21
-809.3118486404492
 31
0.0
  0
ELLIPSE
  5
166BD
330
16672
100
AcDbEntity
  8
細線
  6
Continuous
370
    15
100
AcDbEllipse
 10
844.0999991015978
 20
-811.3929298234506
 30
0.0
 11
0.0
 21
-3.310133756887523
 31
0.0
210
0.0
220
0.0
230
1.0
 40
0.9063077870366367
 41
3.141592653589783
 42
4.712388980384702
  0
ELLIPSE
  5
166BE
330
16672
100
AcDbEntity
  8
細線
  6
Continuous
370
    15
100
AcDbEllipse
 10
844.0999991015978
 20
-890.6071553619041
 30
0.0
 11
0.0
 21
-3.310133756887466
 31
0.0
210
0.0
220
0.0
230
1.0
 40
0.9063077870366523
 41
4.712388980384702
 42
6.283185307179586
  0
ARC
  5
166BF
330
16672
100
AcDbEntity
  8
細線
  6
Continuous
370
    15
100
AcDbCircle
 10
866.9999991015629
 20
-927.0000425926774
 30
0.0
 40
7.499999999999996
100
AcDbArc
 50
120.3006176375393
 51
59.69938236246067
  0
SPLINE
  5
166C0
330
16672
100
AcDbEntity
  8
細線
  6
Continuous
370
    15
100
AcDbSpline
210
0.0
220
0.0
230
1.0
 70
    24
 71
     3
 72
     9
 73
     5
 74
     0
 42
0.000000001
 43
0.0000000001
 40
0.0
 40
0.0
 40
0.0
 40
0.0
 40
0.8663703693180105
 40
1.0
 40
1.0
 40
1.0
 40
1.0
 10
863.5000116825086
 20
-920.1906738281323
 30
0.0
 10
863.5000116825086
 20
-920.2430453883208
 30
0.0
 10
863.5000116825086
 20
-920.3034947781343
 30
0.0
 10
863.5000116825086
 20
-920.3593426261432
 30
0.0
 10
863.5000116825086
 20
-920.3668055534436
 30
0.0
  0
LINE
  5
166C1
330
16672
100
AcDbEntity
  8
細線
  6
Continuous
370
    15
100
AcDbLine
 10
863.5000116825086
 20
-920.3668055534436
 30
0.0
 11
863.2159657478315
 21
-920.5246386528088
 31
0.0
  0
LINE
  5
166C2
330
16672
100
AcDbEntity
  8
細線
  6
Continuous
370
    15
100
AcDbLine
 10
870.7840270996076
 20
-920.5246386528088
 30
0.0
 11
870.5000109672528
 21
-920.3668055534436
 31
0.0
  0
SPLINE
  5
166C3
330
16672
100
AcDbEntity
  8
細線
  6
Continuous
370
    15
100
AcDbSpline
210
0.0
220
0.0
230
1.0
 70
    24
 71
     3
 72
     9
 73
     5
 74
     0
 42
0.000000001
 43
0.0000000001
 40
0.0
 40
0.0
 40
0.0
 40
0.0
 40
0.8651188723649402
 40
1.0
 40
1.0
 40
1.0
 40
1.0
 10
870.5000109672528
 20
-920.3668055534436
 30
0.0
 10
870.5000109672528
 20
-920.316718236012
 30
0.0
 10
870.5000109672528
 20
-920.2588217791999
 30
0.0
 10
870.5000109672528
 20
-920.1987732424823
 30
0.0
 10
870.5000109672528
 20
-920.1906738281323
 30
0.0
  0
ARC
  5
166C4
330
16672
100
AcDbEntity
  8
細線
  6
Continuous
370
    15
100
AcDbCircle
 10
866.9999991015629
 20
-927.0000425926774
 30
0.0
 40
9.499999999999973
100
AcDbArc
 50
69.15570700480905
 51
110.8442929951909
  0
LINE
  5
166C5
330
16672
100
AcDbEntity
  8
細線
  6
Continuous
370
    15
100
AcDbLine
 10
870.5000109672528
 20
-920.1906738281323
 30
0.0
 11
870.5000109672528
 21
-918.2953653335644
 31
0.0
  0
LINE
  5
166C6
330
16672
100
AcDbEntity
  8
細線
  6
Continuous
370
    15
100
AcDbLine
 10
863.5000116825086
 20
-918.2953653335644
 30
0.0
 11
863.5000116825086
 21
-920.1906738281323
 31
0.0
  0
LINE
  5
166C7
330
16672
100
AcDbEntity
  8
細線
  6
Continuous
370
    15
100
AcDbLine
 10
870.5000109672528
 20
-918.2953653335644
 30
0.0
 11
870.5000109672528
 21
-918.1682882309033
 31
0.0
  0
LINE
  5
166C8
330
16672
100
AcDbEntity
  8
細線
  6
Continuous
370
    15
100
AcDbLine
 10
870.5000109672528
 20
-918.1682882309033
 30
0.0
 11
870.3803844451886
 21
-918.1217966079785
 31
0.0
  0
LINE
  5
166C9
330
16672
100
AcDbEntity
  8
細線
  6
Continuous
370
    15
100
AcDbLine
 10
863.6196084022504
 20
-918.1217966079785
 30
0.0
 11
863.5000116825086
 21
-918.1682882309033
 31
0.0
  0
LINE
  5
166CA
330
16672
100
AcDbEntity
  8
細線
  6
Continuous
370
    15
100
AcDbLine
 10
863.5000116825086
 20
-918.1682882309033
 30
0.0
 11
863.5000116825086
 21
-918.2953653335644
 31
0.0
  0
ARC
  5
166CB
330
16672
100
AcDbEntity
  8
細線
  6
Continuous
370
    15
100
AcDbCircle
 10
883.9999991015629
 20
-787.0000425926773
 30
0.0
 40
6.0
100
AcDbArc
 50
0.0
 51
90.0
  0
LINE
  5
166CC
330
16672
100
AcDbEntity
  8
細線
  6
Continuous
370
    15
100
AcDbLine
 10
889.9999983310681
 20
-787.0000419616772
 30
0.0
 11
889.9999983310681
 21
-955.0000247955395
 31
0.0
  0
LINE
  5
166CD
330
16672
100
AcDbEntity
  8
細線
  6
Continuous
370
    15
100
AcDbLine
 10
831.9999999999982
 20
-955.0000247955395
 30
0.0
 11
831.9999999999982
 21
-787.0000419616772
 31
0.0
  0
LINE
  5
166CE
330
16672
100
AcDbEntity
  8
細線
  6
Continuous
370
    15
100
AcDbLine
 10
838.0000121593457
 20
-781.0000000000073
 30
0.0
 11
883.9999861717206
 21
-781.0000000000073
 31
0.0
  0
ARC
  5
166CF
330
16672
100
AcDbEntity
  8
細線
  6
Continuous
370
    15
100
AcDbCircle
 10
883.9999991015629
 20
-955.0000425926773
 30
0.0
 40
6.0
100
AcDbArc
 50
270.0
 51
0.0
  0
ARC
  5
166D0
330
16672
100
AcDbEntity
  8
細線
  6
Continuous
370
    15
100
AcDbCircle
 10
837.999999101563
 20
-787.0000425926773
 30
0.0
 40
6.0
100
AcDbArc
 50
90.0
 51
180.0
  0
LINE
  5
166D1
330
16672
100
AcDbEntity
  8
細線
  6
Continuous
370
    15
100
AcDbLine
 10
883.9999861717206
 20
-961.0000667572094
 30
0.0
 11
838.0000121593457
 21
-961.0000667572094
 31
0.0
  0
ARC
  5
166D2
330
16672
100
AcDbEntity
  8
細線
  6
Continuous
370
    15
100
AcDbCircle
 10
837.999999101563
 20
-955.0000425926773
 30
0.0
 40
6.0
100
AcDbArc
 50
180.0
 51
270.0
  0
LINE
  5
166D3
330
16672
100
AcDbEntity
  8
細線
  6
Continuous
370
    15
100
AcDbLine
 10
873.0962998867017
 20
-916.7678174972607
 30
0.0
 11
873.0962998867017
 21
-920.7832036018444
 31
0.0
  0
ARC
  5
166D4
330
16672
100
AcDbEntity
  8
細線
  6
Continuous
370
    15
100
AcDbCircle
 10
866.9999991015629
 20
-927.0000425926774
 30
0.0
 40
8.707106781186586
100
AcDbArc
 50
134.4391355081549
 51
45.56086449184513
  0
LINE
  5
166D5
330
16672
100
AcDbEntity
  8
細線
  6
Continuous
370
    15
100
AcDbLine
 10
860.9037227630597
 20
-920.7832036018444
 30
0.0
 11
860.9037227630597
 21
-916.7678174972607
 31
0.0
  0
SPLINE
  5
166D6
330
16672
100
AcDbEntity
  8
細線
  6
Continuous
370
    15
100
AcDbSpline
210
0.0
220
0.0
230
1.0
 70
     8
 71
     3
 72
    11
 73
     7
 74
     0
 42
0.000000001
 43
0.0000000001
 40
0.0
 40
0.0
 40
0.0
 40
0.0
 40
0.0781314889249488
 40
0.3601777463886433
 40
0.6812698848259567
 40
1.0
 40
1.0
 40
1.0
 40
1.0
 10
861.0937721729261
 20
-916.4436874389721
 30
0.0
 10
861.0849097422306
 20
-916.4488755544807
 30
0.0
 10
861.0440548915049
 20
-916.4727922079983
 30
0.0
 10
860.9753097479387
 20
-916.5321025358498
 30
0.0
 10
860.9132682366162
 20
-916.6409678418348
 30
0.0
 10
860.9068967470648
 20
-916.7256384712599
 30
0.0
 10
860.9037227630597
 20
-916.7678174972607
 30
0.0
  0
ARC
  5
166D7
330
16672
100
AcDbEntity
  8
細線
  6
Continuous
370
    15
100
AcDbCircle
 10
866.9999991015629
 20
-927.0000425926774
 30
0.0
 40
12.09629120178367
100
AcDbArc
 50
60.77315626978887
 51
119.2268437302111
  0
SPLINE
  5
166D8
330
16672
100
AcDbEntity
  8
細線
  6
Continuous
370
    15
100
AcDbSpline
210
0.0
220
0.0
230
1.0
 70
     8
 71
     3
 72
    11
 73
     7
 74
     0
 42
0.000000001
 43
0.0000000001
 40
0.0
 40
0.0
 40
0.0
 40
0.0
 40
0.0779029322309155
 40
0.3600683505069131
 40
0.6812326600027312
 40
1.0
 40
1.0
 40
1.0
 40
1.0
 10
873.0962998867017
 20
-916.7678174972607
 30
0.0
 10
873.0960976135374
 20
-916.7575805715241
 30
0.0
 10
873.0951627044687
 20
-916.7102653696419
 30
0.0
 10
873.0769656948087
 20
-916.6213286134661
 30
0.0
 10
873.012308665724
 20
-916.5139641341301
 30
0.0
 10
872.9415148164244
 20
-916.4670544346954
 30
0.0
 10
872.9062504768354
 20
-916.4436874389721
 30
0.0
  0
LINE
  5
166D9
330
16672
100
AcDbEntity
  8
細線
  6
Continuous
370
    15
100
AcDbLine
 10
844.0325434207897
 20
-802.0000276565625
 30
0.0
 11
874.899995326994
 21
-802.0000276565625
 31
0.0
  0
LINE
  5
166DA
330
16672
100
AcDbEntity
  8
細線
  6
Continuous
370
    15
100
AcDbLine
 10
839.0325434207898
 20
-895.0000176429821
 30
0.0
 11
839.0325434207898
 21
-807.0000276565624
 31
0.0
  0
ARC
  5
166DB
330
16672
100
AcDbEntity
  8
細線
  6
Continuous
370
    15
100
AcDbCircle
 10
844.0325434207897
 20
-807.0000276565624
 30
0.0
 40
5.0
100
AcDbArc
 50
90.0
 51
180.0
  0
LINE
  5
166DC
330
16672
100
AcDbEntity
  8
細線
  6
Continuous
370
    15
100
AcDbLine
 10
841.099990129469
 20
-811.3929298234506
 30
0.0
 11
841.099990129469
 21
-890.6071553619041
 31
0.0
  0
LINE
  5
166DD
330
16672
100
AcDbEntity
  8
細線
  6
Continuous
370
    15
100
AcDbLine
 10
881.8999953269941
 20
-809.0000276565625
 30
0.0
 11
881.8999953269941
 21
-893.0000176429821
 31
0.0
  0
ARC
  5
166DE
330
16672
100
AcDbEntity
  8
細線
  6
Continuous
370
    15
100
AcDbCircle
 10
874.899995326994
 20
-893.0000176429821
 30
0.0
 40
7.0
100
AcDbArc
 50
270.0
 51
0.0
  0
ARC
  5
166DF
330
16672
100
AcDbEntity
  8
細線
  6
Continuous
370
    15
100
AcDbCircle
 10
874.899995326994
 20
-809.0000276565625
 30
0.0
 40
7.0
100
AcDbArc
 50
0.0
 51
90.0
  0
LINE
  5
166E0
330
16672
100
AcDbEntity
  8
細線
  6
Continuous
370
    15
100
AcDbLine
 10
874.899995326994
 20
-900.0000176429821
 30
0.0
 11
844.0325434207897
 21
-900.0000176429821
 31
0.0
  0
ARC
  5
166E1
330
16672
100
AcDbEntity
  8
細線
  6
Continuous
370
    15
100
AcDbCircle
 10
844.0325434207897
 20
-895.0000176429821
 30
0.0
 40
5.0
100
AcDbArc
 50
180.0
 51
270.0
  0
ARC
  5
166E2
330
16672
100
AcDbEntity
  8
細線
  6
Continuous
370
    15
100
AcDbCircle
 10
867.8196020164742
 20
-885.9196541347847
 30
0.0
 40
6.898178997000096
100
AcDbArc
 50
281.1228560456502
 51
348.8771439544009
  0
ARC
  5
166E3
330
16672
100
AcDbEntity
  8
細線
  6
Continuous
370
    15
100
AcDbCircle
 10
867.8196540428308
 20
-816.0803987430336
 30
0.0
 40
6.89811791144148
100
AcDbArc
 50
11.12251539540163
 51
78.87748460464951
  0
LINE
  5
166E4
330
16672
100
AcDbEntity
  8
細線
  6
Continuous
370
    15
100
AcDbLine
 10
857.0977873802167
 20
-889.4301810264661
 30
0.0
 11
857.0977873802167
 21
-812.4616222381664
 31
0.0
  0
ARC
  5
166E5
330
16672
100
AcDbEntity
  8
細線
  6
Continuous
370
    15
100
AcDbCircle
 10
855.0977873802166
 20
-812.4616222381664
 30
0.0
 40
2.0
100
AcDbArc
 50
0.0
 51
90.0
  0
ARC
  5
166E6
330
16672
100
AcDbEntity
  8
細線
  6
Continuous
370
    15
100
AcDbCircle
 10
855.0977764589461
 20
-889.4458862304817
 30
0.0
 40
2.0
100
AcDbArc
 50
262.8149626715364
 51
0.0
  0
LWPOLYLINE
  5
166E7
330
16672
100
AcDbEntity
  8
細線
 48
50.0
100
AcDbPolyline
 90
        4
 70
     1
 43
0.0
 10
868.262094974516
 20
-931.8284211158825
 10
865.7379276752454
 20
-931.8284211158825
 10
865.7379276752454
 20
-922.1716341972424
 10
868.262094974516
 20
-922.1716341972424
  0
LINE
  5
166E8
330
16672
100
AcDbEntity
  8
細線
  6
Continuous
370
    15
100
AcDbLine
 10
855.0977873802166
 20
-891.430181026466
 30
0.0
 11
849.4190104007703
 21
-891.4301810264642
 31
0.0
  0
LINE
  5
166E9
330
16672
100
AcDbEntity
  8
細線
  6
Continuous
370
    15
100
AcDbLine
 10
843.8277966976148
 20
-890.430181026466
 30
0.0
 11
843.8277966976148
 21
-811.4616222381664
 31
0.0
  0
ARC
  5
166EA
330
16672
100
AcDbEntity
  8
細線
  6
Continuous
370
    15
100
AcDbCircle
 10
844.8277966976148
 20
-811.4616222381664
 30
0.0
 40
1.0
100
AcDbArc
 50
90.0
 51
180.0
  0
LINE
  5
166EB
330
16672
100
AcDbEntity
  8
細線
  6
Continuous
370
    15
100
AcDbLine
 10
849.4137949943525
 20
-810.4616222381665
 30
0.0
 11
844.8277966976148
 21
-810.4616222381665
 31
0.0
  0
LINE
  5
166EC
330
16672
100
AcDbEntity
  8
細線
  6
Continuous
370
    15
100
AcDbLine
 10
849.4190104007703
 20
-891.430181026466
 30
0.0
 11
844.8277966976148
 21
-891.430181026466
 31
0.0
  0
ARC
  5
166ED
330
16672
100
AcDbEntity
  8
細線
  6
Continuous
370
    15
100
AcDbCircle
 10
844.8277966976148
 20
-890.430181026466
 30
0.0
 40
1.0
100
AcDbArc
 50
180.0
 51
270.0
  0
LINE
  5
166EE
330
16672
100
AcDbEntity
  8
細線
  6
Continuous
370
    15
100
AcDbLine
 10
855.0977873802166
 20
-810.4616222381665
 30
0.0
 11
849.2983181693308
 21
-810.4616222381665
 31
0.0
  0
ENDBLK
  5
166F2
330
16672
100
AcDbEntity
  8
0
 48
50.0
100
AcDbBlockEnd
  0
BLOCK
  5
167E1
330
167E0
100
AcDbEntity
  8
0
 48
50.0
100
AcDbBlockBegin
  2
*D34
 70
     1
 10
0.0
 20
0.0
 30
0.0
  3
*D34
  1

  0
LINE
  5
167EC
330
167E0
100
AcDbEntity
  8
寸法
 62
     0
370
    -2
100
AcDbLine
 10
9446.356910799783
 20
4997.756393306555
 30
0.0
 11
8804.393820107582
 21
4997.756393306555
 31
0.0
  0
LINE
  5
167ED
330
167E0
100
AcDbEntity
  8
寸法
 62
     0
370
    -2
100
AcDbLine
 10
9439.354540755005
 20
3207.756393306558
 30
0.0
 11
8804.393820107581
 21
3207.756393306559
 31
0.0
  0
LINE
  5
167EE
330
167E0
100
AcDbEntity
  8
寸法
 62
     0
370
    -2
100
AcDbLine
 10
8864.393820107581
 20
4997.756393306555
 30
0.0
 11
8864.393820107579
 21
3207.756393306559
 31
0.0
  0
INSERT
  5
167EF
330
167E0
100
AcDbEntity
  8
寸法
 62
     0
370
    -2
100
AcDbBlockReference
  2
_DOTSMALL
 10
8864.393820107581
 20
4997.756393306555
 30
0.0
 41
100.0
 42
100.0
 43
100.0
 50
90.0
  0
INSERT
  5
167F0
330
167E0
100
AcDbEntity
  8
寸法
 62
     0
370
    -2
100
AcDbBlockReference
  2
_DOTSMALL
 10
8864.393820107579
 20
3207.756393306559
 30
0.0
 41
100.0
 42
100.0
 43
100.0
 50
270.0
  0
MTEXT
  5
167F1
330
167E0
100
AcDbEntity
  8
寸法
 62
     7
100
AcDbMText
 10
8764.39382010758
 20
4112.791405182942
 30
0.0
 40
120.0
 41
0.0
 71
     5
 72
     1
  1
\A1;1790
  7
STYLE1
 11
0.0000000000000001
 21
1.0
 31
0.0
 73
     1
 44
1.0
1001
ACAD
1000
MTEXTBEGIN
1070
    73
1070
     1
1070
    44
1040
1.0
1070
    74
1070
     0
1000
MTEXTEND
  0
POINT
  5
167F2
330
167E0
100
AcDbEntity
  8
DEFPOINTS
 62
     0
100
AcDbPoint
 10
9466.356910799783
 20
4997.756393306555
 30
0.0
  0
POINT
  5
167F3
330
167E0
100
AcDbEntity
  8
DEFPOINTS
 62
     0
100
AcDbPoint
 10
9459.354540755006
 20
3207.756393306558
 30
0.0
  0
POINT
  5
167F4
330
167E0
100
AcDbEntity
  8
DEFPOINTS
 62
     0
100
AcDbPoint
 10
8864.393820107579
 20
3207.756393306559
 30
0.0
  0
ENDBLK
  5
167E2
330
167E0
100
AcDbEntity
  8
0
 48
50.0
100
AcDbBlockEnd
  0
ENDSEC
  0
SECTION
  2
ENTITIES
  0
LINE
  5
10B56
330
747D
100
AcDbEntity
  8
補助
  6
PHANTOM
 62
   230
 48
50.0
100
AcDbLine
 10
140.0
 20
0.0
 30
0.0
 11
139.9999999999995
 21
11409.6
 31
0.0
  0
LINE
  5
10B57
330
747D
100
AcDbEntity
  8
補助
  6
PHANTOM
 62
   230
 48
50.0
100
AcDbLine
 10
139.9999999999995
 20
11409.6
 30
0.0
 11
16307.2
 21
11409.6
 31
0.0
  0
LINE
  5
10B59
330
747D
100
AcDbEntity
  8
仕様書枠
  6
Continuous
 48
50.0
100
AcDbLine
 10
13107.2
 20
1200.0
 30
0.0
 11
13107.2
 21
-0.0000000000000729
 31
0.0
  0
LINE
  5
10B5C
330
747D
100
AcDbEntity
  8
仕様書枠
 48
50.0
100
AcDbLine
 10
16307.2
 20
1200.0
 30
0.0
 11
16307.2
 21
-0.0000000000000909
 31
0.0
  0
LINE
  5
10B5D
330
747D
100
AcDbEntity
  8
仕様書枠
 48
50.0
100
AcDbLine
 10
140.0
 20
0.0
 30
0.0
 11
16307.2
 21
-0.0000000000000909
 31
0.0
  0
LINE
  5
10B5E
330
747D
100
AcDbEntity
  8
補助
  6
PHANTOM
 62
   230
 48
50.0
100
AcDbLine
 10
16307.2
 20
11409.6
 30
0.0
 11
16307.2
 21
1200.0
 31
0.0
  0
LINE
  5
10B6C
330
747D
100
AcDbEntity
  8
仕様書枠
 48
50.0
100
AcDbLine
 10
13107.2
 20
1200.0
 30
0.0
 11
16307.2
 21
1200.0
 31
0.0
  0
LINE
  5
10B6D
330
747D
100
AcDbEntity
  8
補助
  6
PHANTOM
 62
   230
 48
50.0
100
AcDbLine
 10
13107.2
 20
11409.6
 30
0.0
 11
13107.2
 21
4800.0
 31
0.0
  0
LINE
  5
10B6F
330
747D
100
AcDbEntity
  8
補助
  6
PHANTOM
 62
   230
 48
50.0
100
AcDbLine
 10
13107.2
 20
4800.0
 30
0.0
 11
16307.2
 21
4800.0
 31
0.0
  0
LINE
  5
10B72
330
747D
100
AcDbEntity
  8
文字
 62
     7
 48
50.0
100
AcDbLine
 10
13187.2
 20
400.0
 30
0.0
 11
16227.2
 21
400.0
 31
0.0
  0
TEXT
  5
10B73
330
747D
100
AcDbEntity
  8
文字
 62
     7
 48
50.0
100
AcDbText
 10
13162.9790565769
 20
895.0906074299405
 30
0.0
 40
200.0
  1
外 形 図
  7
STYLE2
100
AcDbText
  0
TEXT
  5
10B74
330
747D
100
AcDbEntity
  8
文字
 62
     7
 48
50.0
100
AcDbText
 10
13201.43669998441
 20
477.2740661031255
 30
0.0
 40
160.0
  1
機種名
  7
STYLE2
100
AcDbText
  0
TEXT
  5
10B75
330
747D
100
AcDbEntity
  8
文字
 62
     7
 48
50.0
100
AcDbText
 10
13209.4053442172
 20
228.5435242569016
 30
0.0
 40
100.0
  1
○有効開口寸法 ： 685\U+00D71760(mm)
  7
STYLE2
100
AcDbText
  0
TEXT
  5
10B76
330
747D
100
AcDbEntity
  8
文字
 62
     7
 48
50.0
100
AcDbText
 10
13209.4053442172
 20
76.09434707649343
 30
0.0
 40
100.0
  1
○床面積 ： 2.25㎡(0.68坪) 　
  7
STYLE2
100
AcDbText
  0
LINE
  5
10B7B
330
747D
100
AcDbEntity
  8
仕様書枠
 48
50.0
100
AcDbLine
 10
13107.2
 20
800.0
 30
0.0
 11
14251.2
 21
800.0
 31
0.0
  0
LINE
  5
10B88
330
747D
100
AcDbEntity
  8
仕様書枠
  6
Continuous
 48
50.0
100
AcDbLine
 10
14251.2
 20
1200.0
 30
0.0
 11
14251.2
 21
800.0
 31
0.0
  0
TEXT
  5
10EA8
330
747D
100
AcDbEntity
  8
文字
 62
     7
 48
50.0
100
AcDbText
 10
14260.68475616112
 20
855.469579666289
 30
0.0
 40
100.0
  1
～一般型・多雪地型・豪雪地型～
  7
STYLE2
100
AcDbText
  0
DIMENSION
  5
13B23
330
747D
100
AcDbEntity
  8
寸法
100
AcDbDimension
  2
*D1
 10
7079.484998239383
 20
6957.443156660975
 30
0.0
 11
6251.236540082384
 21
6957.443156660975
 31
0.0
 70
   160
 71
     5
 42
1639.999999999982
  3
INABA_S40G
100
AcDbAlignedDimension
 13
5439.4849982394
 23
7944.545031521045
 33
0.0
 14
7079.484998239383
 24
7944.545031521177
 34
0.0
100
AcDbRotatedDimension
1001
ACAD
1000
DSTYLE
1002
{
1002
}
  0
TEXT
  5
13B2F
330
747D
100
AcDbEntity
  8
部品1
100
AcDbText
 10
5959.420816797202
 20
6414.072813502816
 30
0.0
 40
135.0
  1
平面図
  7
STYLE2
100
AcDbText
  0
LWPOLYLINE
  5
13B30
330
747D
100
AcDbEntity
  8
部品1
100
AcDbPolyline
 90
        4
 70
     1
 43
0.0
 10
5869.501206968164
 20
6606.966342721339
 10
5869.501206968164
 20
6367.074021175806
 10
6632.971873196604
 20
6367.074021175806
 10
6632.971873196604
 20
6606.966342721339
  0
LINE
  5
14ABE
330
747D
100
AcDbEntity
  8
想像線
 48
10.0
100
AcDbLine
 10
7034.484998239401
 20
7944.545031521174
 30
0.0
 11
7034.484998239401
 21
7223.627387865384
 31
0.0
  0
DIMENSION
  5
14ABF
330
747D
100
AcDbEntity
  8
寸法
100
AcDbDimension
  2
*D2
 10
7726.911343973793
 20
7944.545031521204
 30
0.0
 11
7726.911343973792
 21
7566.683564616349
 31
0.0
 70
   160
 71
     5
 42
55.0
  3
INABA_S40G
100
AcDbAlignedDimension
 13
7079.484998239383
 23
7999.545031521204
 33
0.0
 14
7079.484998239383
 24
7944.545031521204
 34
0.0
 50
90.0
100
AcDbRotatedDimension
1001
ACAD
1000
DSTYLE
1002
{
1002
}
  0
LINE
  5
14AC0
330
747D
100
AcDbEntity
  8
想像線
 48
10.0
100
AcDbLine
 10
6214.484998239401
 20
7944.545031521164
 30
0.0
 11
6214.484998239401
 21
7223.62738786537
 31
0.0
  0
ARC
  5
14AC4
330
747D
100
AcDbEntity
  8
想像線
 48
10.0
100
AcDbCircle
 10
6206.299106116967
 20
7945.395578444117
 30
0.0
 40
721.8146089967647
100
AcDbArc
 50
180.06751423376
 51
270.6497889048236
  0
ARC
  5
14AC5
330
747D
100
AcDbEntity
  8
想像線
 48
10.0
100
AcDbCircle
 10
7026.299106116967
 20
7945.395578444125
 30
0.0
 40
721.8146089967647
100
AcDbArc
 50
180.06751423376
 51
270.6497889048236
  0
LINE
  5
14AC6
330
747D
100
AcDbEntity
  8
部品1
100
AcDbLine
 10
5439.484998239407
 20
9314.545031521124
 30
0.0
 11
7079.484998239408
 21
9314.545031521218
 31
0.0
  0
LINE
  5
14AC7
330
747D
100
AcDbEntity
  8
部品1
100
AcDbLine
 10
7079.484998239383
 20
7944.545031521212
 30
0.0
 11
5439.4849982394
 21
7944.545031521116
 31
0.0
  0
LINE
  5
14AC8
330
747D
100
AcDbEntity
  8
部品1
100
AcDbLine
 10
7022.984026814594
 20
8076.045137234059
 30
0.0
 11
6314.984998239386
 21
8076.045031545833
 31
0.0
  0
LINE
  5
14AC9
330
747D
100
AcDbEntity
  8
破線
 48
10.0
100
AcDbLine
 10
6999.484998239386
 20
8099.545031521218
 30
0.0
 11
6338.484998239394
 21
8099.545031521182
 31
0.0
  0
LINE
  5
14ACA
330
747D
100
AcDbEntity
  8
部品1
100
AcDbLine
 10
6288.984998239341
 20
9285.045031521175
 30
0.0
 11
7049.984998239342
 21
9285.045031521168
 31
0.0
  0
LINE
  5
14ACB
330
747D
100
AcDbEntity
  8
細線
 48
50.0
100
AcDbLine
 10
7049.984998239342
 20
8835.045031521167
 30
0.0
 11
6288.984998239341
 21
9285.045031521171
 31
0.0
  0
LINE
  5
14ACC
330
747D
100
AcDbEntity
  8
細線
 48
50.0
100
AcDbLine
 10
7049.984998239342
 20
9285.045031521168
 30
0.0
 11
6288.984998239339
 21
8835.045031521174
 31
0.0
  0
LINE
  5
14ACD
330
747D
100
AcDbEntity
  8
部品1
100
AcDbLine
 10
6288.984998239339
 20
8835.045031521174
 30
0.0
 11
7049.984998239342
 21
8835.045031521167
 31
0.0
  0
LINE
  5
14ACE
330
747D
100
AcDbEntity
  8
部品1
100
AcDbLine
 10
7034.484998239401
 20
7970.545031521218
 30
0.0
 11
6304.4849982394
 21
7970.545031521154
 31
0.0
  0
LINE
  5
14ACF
330
747D
100
AcDbEntity
  8
部品1
 48
5.0
100
AcDbLine
 10
7036.484998239382
 20
7974.045031521164
 30
0.0
 11
6283.484998239405
 21
7974.045031521164
 31
0.0
  0
LINE
  5
14AD0
330
747D
100
AcDbEntity
  8
部品1
100
AcDbLine
 10
6287.484998239332
 20
9286.545031521175
 30
0.0
 11
7051.484998239408
 21
9286.545031521219
 31
0.0
  0
DIMENSION
  5
14AD1
330
747D
100
AcDbEntity
  8
寸法
100
AcDbDimension
  2
*D3
 10
6952.049575083468
 20
8469.545031521095
 30
0.0
 11
6571.549575083462
 21
8469.545031521095
 31
0.0
 70
   160
 71
     5
 42
761.0000000000127
  3
INABA_S40G
100
AcDbAlignedDimension
 13
6288.98500491704
 23
8835.045031521131
 33
0.0
 14
7049.985004917053
 24
8835.045031521124
 34
0.0
100
AcDbRotatedDimension
1001
ACAD
1000
DSTYLE
1002
{
1002
}
  0
DIMENSION
  5
14AD2
330
747D
100
AcDbEntity
  8
寸法
100
AcDbDimension
  2
*D4
 10
7024.484998239408
 20
9530.353251146221
 30
0.0
 11
6669.734998239409
 21
9530.353251146221
 31
0.0
 70
   160
 71
     5
 42
710.0
  3
INABA_S40G
100
AcDbAlignedDimension
 13
6314.484998239408
 23
9314.545031521124
 33
0.0
 14
7024.484998239408
 24
9314.545031521246
 34
0.0
100
AcDbRotatedDimension
1001
ACAD
1000
DSTYLE
1002
{
1002
}
  0
DIMENSION
  5
14AD3
330
747D
100
AcDbEntity
  8
寸法
 48
50.0
100
AcDbDimension
  2
*D5
 10
6314.484998239412
 20
9530.353251146221
 30
0.0
 11
6259.48499823941
 21
9530.353251146221
 31
0.0
 70
   160
 71
     5
 42
110.0000000000036
  3
INABA_S40G
100
AcDbAlignedDimension
 13
6204.484998239408
 23
9314.545031521246
 33
0.0
 14
6314.484998239412
 24
9314.545031521225
 34
0.0
100
AcDbRotatedDimension
  0
DIMENSION
  5
14AD4
330
747D
100
AcDbEntity
  8
寸法
100
AcDbDimension
  2
*D6
 10
5494.484998239408
 20
9530.353251146106
 30
0.0
 11
5130.999716865136
 21
9530.353251146106
 31
0.0
 70
   160
 71
     5
 42
55.00000000003456
  3
INABA_S40G
100
AcDbAlignedDimension
 13
5439.484998239374
 23
9314.545031521124
 33
0.0
 14
5494.484998239408
 24
9314.545031521124
 34
0.0
100
AcDbRotatedDimension
1001
ACAD
1000
DSTYLE
1002
{
1002
}
  0
DIMENSION
  5
14AD5
330
747D
100
AcDbEntity
  8
寸法
100
AcDbDimension
  2
*D7
 10
6204.484998239408
 20
9530.353251146221
 30
0.0
 11
5849.734998239409
 21
9530.353251146221
 31
0.0
 70
   160
 71
     5
 42
710.0
  3
INABA_S40G
100
AcDbAlignedDimension
 13
5494.484998239408
 23
9314.545031521124
 33
0.0
 14
6204.484998239408
 24
9314.545031521246
 34
0.0
100
AcDbRotatedDimension
1001
ACAD
1000
DSTYLE
1002
{
1002
}
  0
LINE
  5
14AD6
330
747D
100
AcDbEntity
  8
破線
 48
10.0
100
AcDbLine
 10
6338.484998239394
 20
8099.545031521182
 30
0.0
 11
6338.484989070289
 21
8642.045025969327
 31
0.0
  0
LINE
  5
14AD7
330
747D
100
AcDbEntity
  8
部品1
 48
50.0
100
AcDbLine
 10
6314.984991895101
 20
8076.045031545833
 30
0.0
 11
6314.984994867963
 21
8835.045031521174
 31
0.0
  0
LINE
  5
14AD8
330
747D
100
AcDbEntity
  8
破線
 48
10.0
100
AcDbLine
 10
6180.484998239395
 20
8099.545031521172
 30
0.0
 11
6180.484992077131
 21
8642.045032491177
 31
0.0
  0
LINE
  5
14AD9
330
747D
100
AcDbEntity
  8
部品1
 48
50.0
100
AcDbLine
 10
6203.984998239386
 20
8076.045031521173
 30
0.0
 11
6203.984998239363
 21
8835.04503152123
 31
0.0
  0
LINE
  5
14ADA
330
747D
100
AcDbEntity
  8
破線
 48
10.0
100
AcDbLine
 10
5519.485063164109
 20
8835.045031521135
 30
0.0
 11
5519.485050541088
 21
8692.045059775606
 31
0.0
  0
LINE
  5
14ADB
330
747D
100
AcDbEntity
  8
部品1
 48
5.0
100
AcDbLine
 10
5495.985969664365
 20
8076.045031521223
 30
0.0
 11
5495.985476733054
 21
8835.045031521135
 31
0.0
  0
LINE
  5
14ADD
330
747D
100
AcDbEntity
  8
部品1
100
AcDbLine
 10
5467.484998239382
 20
7999.54503152108
 30
0.0
 11
5467.484998239408
 21
9286.545031521123
 31
0.0
  0
LINE
  5
14ADE
330
747D
100
AcDbEntity
  8
部品1
100
AcDbLine
 10
5439.484998239374
 20
9314.545031521095
 30
0.0
 11
5439.4849982394
 21
7944.54503152108
 31
0.0
  0
LINE
  5
14ADF
330
747D
100
AcDbEntity
  8
部品1
 48
50.0
100
AcDbLine
 10
6287.484998239389
 20
7999.545031521164
 30
0.0
 11
6287.484998239332
 21
9314.545031521175
 31
0.0
  0
LINE
  5
14AE0
330
747D
100
AcDbEntity
  8
部品1
 48
50.0
100
AcDbLine
 10
6231.484998239388
 20
7999.545031521164
 30
0.0
 11
6231.484998239335
 21
9286.545031521175
 31
0.0
  0
LINE
  5
14AE1
330
747D
100
AcDbEntity
  8
部品1
 48
50.0
100
AcDbLine
 10
6259.484998239388
 20
7999.545031521164
 30
0.0
 11
6259.484998239388
 21
9259.545031521176
 31
0.0
  0
LINE
  5
14AE2
330
747D
100
AcDbEntity
  8
破線
 48
10.0
100
AcDbLine
 10
6180.484998239395
 20
8099.545031521175
 30
0.0
 11
5519.484998239395
 21
8099.545031521135
 31
0.0
  0
LINE
  5
14AE3
330
747D
100
AcDbEntity
  8
部品1
 48
5.0
100
AcDbLine
 10
5482.484998239403
 20
7974.045031521048
 30
0.0
 11
6235.484998239404
 21
7974.045031521164
 31
0.0
  0
LINE
  5
14AE4
330
747D
100
AcDbEntity
  8
部品1
100
AcDbLine
 10
6214.484998239401
 20
7970.545031521218
 30
0.0
 11
5484.484998239401
 21
7970.545031521154
 31
0.0
  0
LINE
  5
14AE5
330
747D
100
AcDbEntity
  8
部品1
100
AcDbLine
 10
6203.984998239386
 20
8076.045031521173
 30
0.0
 11
5495.985969665795
 21
8076.043949212687
 31
0.0
  0
LINE
  5
14AE6
330
747D
100
AcDbEntity
  8
部品1
100
AcDbLine
 10
5439.4849982394
 20
7999.545031521043
 30
0.0
 11
5439.4849982394
 21
7944.545031521044
 31
0.0
  0
LINE
  5
14AE7
330
747D
100
AcDbEntity
  8
部品1
100
AcDbLine
 10
5467.484998239401
 20
7999.545031521094
 30
0.0
 11
5439.4849982394
 21
7999.545031521094
 31
0.0
  0
LINE
  5
14AE8
330
747D
100
AcDbEntity
  8
部品1
100
AcDbLine
 10
5467.484998239382
 20
7999.54503152108
 30
0.0
 11
5439.4849982394
 21
7999.54503152108
 31
0.0
  0
LINE
  5
14AE9
330
747D
100
AcDbEntity
  8
部品1
100
AcDbLine
 10
5467.484998239382
 20
7999.545031521043
 30
0.0
 11
5439.4849982394
 21
7999.545031521043
 31
0.0
  0
LINE
  5
14AEA
330
747D
100
AcDbEntity
  8
部品1
100
AcDbLine
 10
5490.484998239401
 20
7944.54503152108
 30
0.0
 11
5439.4849982394
 21
7944.54503152108
 31
0.0
  0
LINE
  5
14AEB
330
747D
100
AcDbEntity
  8
部品1
 48
2.83
100
AcDbLine
 10
5471.484998239403
 20
7999.545031521048
 30
0.0
 11
5494.484998239403
 21
7999.545031521043
 31
0.0
  0
LINE
  5
14AEC
330
747D
100
AcDbEntity
  8
部品1
 48
2.83
100
AcDbLine
 10
5482.484998239403
 20
7944.545031521048
 30
0.0
 11
5439.4849982394
 21
7944.545031521044
 31
0.0
  0
LINE
  5
14AED
330
747D
100
AcDbEntity
  8
部品1
 48
2.83
100
AcDbLine
 10
5439.484998239403
 20
7999.545031521043
 30
0.0
 11
5462.484998239403
 21
7999.545031521048
 31
0.0
  0
LINE
  5
14AEE
330
747D
100
AcDbEntity
  8
部品1
 48
2.83
100
AcDbLine
 10
5494.484998239401
 20
7999.545031521043
 30
0.0
 11
5494.484998239404
 21
7974.045031521048
 31
0.0
  0
LINE
  5
14AEF
330
747D
100
AcDbEntity
  8
部品1
 48
2.83
100
AcDbLine
 10
5482.484998239403
 20
7974.045031521048
 30
0.0
 11
5482.484998239403
 21
7944.545031521048
 31
0.0
  0
LINE
  5
14AF0
330
747D
100
AcDbEntity
  8
部品1
 48
2.83
100
AcDbLine
 10
5439.4849982394
 20
7944.545031521044
 30
0.0
 11
5439.484998239403
 21
7999.545031521043
 31
0.0
  0
LINE
  5
14AF1
330
747D
100
AcDbEntity
  8
部品1
100
AcDbLine
 10
5484.484998239401
 20
7970.545031521154
 30
0.0
 11
5484.484998239401
 21
7944.545031521116
 31
0.0
  0
LINE
  5
14AF2
330
747D
100
AcDbEntity
  8
部品1
 48
50.0
100
AcDbLine
 10
5495.985969665795
 20
8076.043949212687
 30
0.0
 11
5467.484998239385
 21
8047.024778280222
 31
0.0
  0
LINE
  5
14AF3
330
747D
100
AcDbEntity
  8
部品1
100
AcDbLine
 10
5467.484998239382
 20
8419.545031521094
 30
0.0
 11
5439.484998239382
 21
8419.545031521094
 31
0.0
  0
LINE
  5
14AF4
330
747D
100
AcDbEntity
  8
部品1
100
AcDbLine
 10
6302.484998239402
 20
7974.045031521116
 30
0.0
 11
6302.484998239404
 21
7944.545031521164
 31
0.0
  0
LINE
  5
14AF5
330
747D
100
AcDbEntity
  8
部品1
100
AcDbLine
 10
6304.4849982394
 20
7970.545031521154
 30
0.0
 11
6304.4849982394
 21
7944.545031521167
 31
0.0
  0
LINE
  5
14AF6
330
747D
100
AcDbEntity
  8
部品1
 48
5.0
100
AcDbLine
 10
6302.484998239404
 20
7974.045031521164
 30
0.0
 11
6302.484998239404
 21
7944.545031521164
 31
0.0
  0
LINE
  5
14AF7
330
747D
100
AcDbEntity
  8
部品1
 48
5.0
100
AcDbLine
 10
6314.484998239404
 20
7999.545031521164
 30
0.0
 11
6314.484998239404
 21
7974.045031521164
 31
0.0
  0
LINE
  5
14AF8
330
747D
100
AcDbEntity
  8
部品1
 48
5.0
100
AcDbLine
 10
6283.484998239405
 20
7999.545031521164
 30
0.0
 11
6283.484998239405
 21
7974.045031521164
 31
0.0
  0
LINE
  5
14AF9
330
747D
100
AcDbEntity
  8
部品1
 48
5.0
100
AcDbLine
 10
6291.484998239404
 20
7999.545031521164
 30
0.0
 11
6314.484998239404
 21
7999.545031521164
 31
0.0
  0
LINE
  5
14AFA
330
747D
100
AcDbEntity
  8
部品1
 48
50.0
100
AcDbLine
 10
6314.984998239386
 20
8076.045031545833
 30
0.0
 11
6287.484998239389
 21
8048.045031521164
 31
0.0
  0
LINE
  5
14AFB
330
747D
100
AcDbEntity
  8
部品1
100
AcDbLine
 10
6214.484998239401
 20
7970.545031521218
 30
0.0
 11
6214.484998239401
 21
7944.54503152116
 31
0.0
  0
LINE
  5
14AFC
330
747D
100
AcDbEntity
  8
部品1
100
AcDbLine
 10
6216.484998239401
 20
7974.045031521109
 30
0.0
 11
6216.484998239399
 21
7944.54503152116
 31
0.0
  0
LINE
  5
14AFD
330
747D
100
AcDbEntity
  8
部品1
 48
5.0
100
AcDbLine
 10
6216.484998239405
 20
7974.045031521164
 30
0.0
 11
6216.484998239405
 21
7944.545031521164
 31
0.0
  0
LINE
  5
14AFE
330
747D
100
AcDbEntity
  8
部品1
 48
5.0
100
AcDbLine
 10
6235.484998239404
 20
7999.545031521164
 30
0.0
 11
6235.484998239404
 21
7974.045031521164
 31
0.0
  0
LINE
  5
14AFF
330
747D
100
AcDbEntity
  8
部品1
 48
5.0
100
AcDbLine
 10
6204.484998239404
 20
7999.545031521167
 30
0.0
 11
6204.484998239404
 21
7974.045031521164
 31
0.0
  0
LINE
  5
14B00
330
747D
100
AcDbEntity
  8
部品1
 48
5.0
100
AcDbLine
 10
6227.484998239404
 20
7999.545031521164
 30
0.0
 11
6204.484998239401
 21
7999.545031521164
 31
0.0
  0
ARC
  5
14B01
330
747D
100
AcDbEntity
  8
部品1
 48
0.2
100
AcDbCircle
 10
6206.547446068079
 20
7945.542661476382
 30
0.0
 40
8.0
100
AcDbArc
 50
270.0
 51
352.8363522778074
  0
ARC
  5
14B02
330
747D
100
AcDbEntity
  8
部品1
 48
0.2
100
AcDbCircle
 10
6201.547446068079
 20
7945.542661476382
 30
0.0
 40
8.0
100
AcDbArc
 50
187.1636477221926
 51
269.9999999999992
  0
ARC
  5
14B03
330
747D
100
AcDbEntity
  8
細線
 48
0.2
100
AcDbCircle
 10
6206.547446068079
 20
7945.542661476382
 30
0.0
 40
4.049999999999999
100
AcDbArc
 50
194.2603506853988
 51
345.7396493146012
  0
LINE
  5
14B04
330
747D
100
AcDbEntity
  8
部品1
 48
0.2
100
AcDbLine
 10
6201.547446068079
 20
7937.542661476382
 30
0.0
 11
6206.547446068079
 21
7937.542661476382
 31
0.0
  0
LINE
  5
14B05
330
747D
100
AcDbEntity
  8
部品1
 48
50.0
100
AcDbLine
 10
6231.484998239388
 20
8048.045031521164
 30
0.0
 11
6203.984998239386
 21
8076.045031521173
 31
0.0
  0
LINE
  5
14B06
330
747D
100
AcDbEntity
  8
部品1
 48
5.0
100
AcDbLine
 10
6216.484998239405
 20
7944.545031521164
 30
0.0
 11
6302.484998239404
 21
7944.545031521164
 31
0.0
  0
LINE
  5
14B07
330
747D
100
AcDbEntity
  8
部品1
 48
5.0
100
AcDbLine
 10
6231.484998239388
 20
7999.545031521164
 30
0.0
 11
6287.484998239389
 21
7999.545031521164
 31
0.0
  0
LINE
  5
14B08
330
747D
100
AcDbEntity
  8
部品1
 48
5.0
100
AcDbLine
 10
6259.484998239388
 20
8419.545031521167
 30
0.0
 11
6231.484998239335
 21
8419.545031521174
 31
0.0
  0
LINE
  5
14B09
330
747D
100
AcDbEntity
  8
部品1
100
AcDbLine
 10
5467.484998239408
 20
9286.545031521123
 30
0.0
 11
6256.86570125801
 21
9286.545031521175
 31
0.0
  0
LINE
  5
14B0A
330
747D
100
AcDbEntity
  8
部品1
100
AcDbLine
 10
5468.985004917038
 20
9285.045031521132
 30
0.0
 11
6229.985004917038
 21
9285.04503152124
 31
0.0
  0
LINE
  5
14B0B
330
747D
100
AcDbEntity
  8
部品1
100
AcDbLine
 10
5468.985004917038
 20
8835.045031521131
 30
0.0
 11
6229.985004917038
 21
8835.045031521232
 31
0.0
  0
LINE
  5
14B0C
330
747D
100
AcDbEntity
  8
細線
 48
50.0
100
AcDbLine
 10
6229.985004917038
 20
8835.045031521232
 30
0.0
 11
5468.985004917038
 21
9285.045031521132
 31
0.0
  0
LINE
  5
14B0D
330
747D
100
AcDbEntity
  8
細線
 48
50.0
100
AcDbLine
 10
6229.985004917038
 20
9285.045031521233
 30
0.0
 11
5468.985004917038
 21
8835.045031521131
 31
0.0
  0
LINE
  5
14B0E
330
747D
100
AcDbEntity
  8
部品1
 48
50.0
100
AcDbLine
 10
5468.985004917038
 20
9285.045031521123
 30
0.0
 11
5468.985004917038
 21
8835.045031521131
 31
0.0
  0
LINE
  5
14B0F
330
747D
100
AcDbEntity
  8
部品1
100
AcDbLine
 10
5467.484998239382
 20
8839.545031521096
 30
0.0
 11
5439.484998239382
 21
8839.545031521096
 31
0.0
  0
LINE
  5
14B10
330
747D
100
AcDbEntity
  8
部品1
100
AcDbLine
 10
5467.484998239375
 20
9259.545031521096
 30
0.0
 11
5439.484998239375
 21
9259.545031521096
 31
0.0
  0
LINE
  5
14B11
330
747D
100
AcDbEntity
  8
部品1
100
AcDbLine
 10
5494.484998239408
 20
9314.545031521124
 30
0.0
 11
5494.484998239408
 21
9286.545031521123
 31
0.0
  0
LINE
  5
14B12
330
747D
100
AcDbEntity
  8
部品1
100
AcDbLine
 10
5494.484998239373
 20
9314.545031521095
 30
0.0
 11
5494.484998239375
 21
9286.545031521095
 31
0.0
  0
LINE
  5
14B13
330
747D
100
AcDbEntity
  8
部品1
 48
50.0
100
AcDbLine
 10
5468.985004917031
 20
9285.045031521132
 30
0.0
 11
5467.484998239408
 21
9286.545031521123
 31
0.0
  0
LINE
  5
14B14
330
747D
100
AcDbEntity
  8
部品1
 48
50.0
100
AcDbLine
 10
6229.985004917038
 20
9285.045031521233
 30
0.0
 11
6229.985004917038
 21
8835.045031521232
 31
0.0
  0
LINE
  5
14B15
330
747D
100
AcDbEntity
  8
部品1
 48
50.0
100
AcDbLine
 10
6288.984998239341
 20
9285.045031521171
 30
0.0
 11
6288.984998239341
 21
8835.045031521174
 31
0.0
  0
LINE
  5
14B16
330
747D
100
AcDbEntity
  8
部品1
 48
50.0
100
AcDbLine
 10
6259.484998239379
 20
8839.545031521174
 30
0.0
 11
6287.484998239363
 21
8839.545031521174
 31
0.0
  0
LINE
  5
14B17
330
747D
100
AcDbEntity
  8
部品1
 48
50.0
100
AcDbLine
 10
6259.484998239379
 20
8877.545031521174
 30
0.0
 11
6287.484998239363
 21
8877.545031521174
 31
0.0
  0
LINE
  5
14B18
330
747D
100
AcDbEntity
  8
部品1
 48
5.0
100
AcDbLine
 10
6259.484998239388
 20
8839.545031521167
 30
0.0
 11
6231.484998239335
 21
8839.545031521174
 31
0.0
  0
LINE
  5
14B19
330
747D
100
AcDbEntity
  8
部品1
 48
50.0
100
AcDbLine
 10
6288.984998239341
 20
9284.990510000909
 30
0.0
 11
6287.484998239335
 21
9286.545031521175
 31
0.0
  0
LINE
  5
14B1A
330
747D
100
AcDbEntity
  8
部品1
 48
5.0
100
AcDbLine
 10
6314.484998239412
 20
9314.545031521175
 30
0.0
 11
6314.484998239404
 21
9286.545031521175
 31
0.0
  0
LINE
  5
14B1B
330
747D
100
AcDbEntity
  8
部品1
 48
50.0
100
AcDbLine
 10
6229.985004917038
 20
9284.990518861418
 30
0.0
 11
6231.484998239335
 21
9286.545031521171
 31
0.0
  0
LINE
  5
14B1C
330
747D
100
AcDbEntity
  8
部品1
 48
5.0
100
AcDbLine
 10
6204.484998239406
 20
9286.545031521168
 30
0.0
 11
6204.484998239408
 21
9314.545031521168
 31
0.0
  0
LINE
  5
14B1D
330
747D
100
AcDbEntity
  8
部品1
 48
5.0
100
AcDbLine
 10
6234.194272686582
 20
9314.545031521168
 30
0.0
 11
6256.865701258012
 21
9286.545031521175
 31
0.0
  0
LINE
  5
14B1E
330
747D
100
AcDbEntity
  8
部品1
 48
5.0
100
AcDbLine
 10
6287.484998239335
 20
9259.545031521176
 30
0.0
 11
6231.484998239335
 21
9259.545031521176
 31
0.0
  0
DIMENSION
  5
14B1F
330
747D
100
AcDbEntity
  8
寸法
100
AcDbDimension
  2
*D8
 10
7079.484998239408
 20
9530.3532511462
 30
0.0
 11
7387.970279613648
 21
9530.3532511462
 31
0.0
 70
   160
 71
     5
 42
55.0
  3
INABA_S40G
100
AcDbAlignedDimension
 13
7024.484998239408
 23
9314.545031521218
 33
0.0
 14
7079.484998239408
 24
9314.545031521218
 34
0.0
100
AcDbRotatedDimension
1001
ACAD
1000
DSTYLE
1002
{
1002
}
  0
DIMENSION
  5
14B20
330
747D
100
AcDbEntity
  8
寸法
100
AcDbDimension
  2
*D9
 10
7726.911343973819
 20
9259.545031521218
 30
0.0
 11
7726.911343973817
 21
9623.030312895458
 31
0.0
 70
   160
 71
     5
 42
55.0
  3
INABA_S40G
100
AcDbAlignedDimension
 13
7079.484998239408
 23
9314.545031521218
 33
0.0
 14
7079.484998239408
 24
9259.545031521218
 34
0.0
 50
90.0
100
AcDbRotatedDimension
1001
ACAD
1000
DSTYLE
1002
{
1002
}
  0
DIMENSION
  5
14B21
330
747D
100
AcDbEntity
  8
寸法
100
AcDbDimension
  2
*D10
 10
8036.022874789495
 20
7944.545031521204
 30
0.0
 11
8036.022874789495
 21
8629.54503152121
 31
0.0
 70
   160
 71
     5
 42
1370.000000000014
  3
INABA_S40G
100
AcDbAlignedDimension
 13
7079.484998239408
 23
9314.545031521218
 33
0.0
 14
7079.484998239383
 24
7944.545031521204
 34
0.0
 50
90.0
100
AcDbRotatedDimension
1001
ACAD
1000
DSTYLE
1002
{
1002
}
  0
DIMENSION
  5
14B22
330
747D
100
AcDbEntity
  8
寸法
100
AcDbDimension
  2
*D11
 10
7726.911343973819
 20
7999.545031521204
 30
0.0
 11
7726.911343973817
 21
8629.54503152121
 31
0.0
 70
   160
  1
3X420=<>
 71
     5
 42
1260.000000000014
  3
INABA_S40G
100
AcDbAlignedDimension
 13
7079.484998239408
 23
9259.545031521218
 33
0.0
 14
7079.484998239383
 24
7999.545031521204
 34
0.0
 50
90.0
100
AcDbRotatedDimension
1001
ACAD
1000
DSTYLE
1002
{
1002
}
  0
LINE
  5
14B23
330
747D
100
AcDbEntity
  8
破線
 48
10.0
100
AcDbLine
 10
6999.485063164077
 20
8835.045031521167
 30
0.0
 11
6999.485050541055
 21
8692.04499868489
 31
0.0
  0
LINE
  5
14B24
330
747D
100
AcDbEntity
  8
部品1
 48
5.0
100
AcDbLine
 10
7022.984026814452
 20
8076.045031521223
 30
0.0
 11
7022.984519745763
 21
8835.045031521167
 31
0.0
  0
LINE
  5
14B25
330
747D
100
AcDbEntity
  8
部品1
100
AcDbLine
 10
7051.484998239408
 20
9286.545031521219
 30
0.0
 11
7051.484998239387
 21
7999.545031521204
 31
0.0
  0
LINE
  5
14B26
330
747D
100
AcDbEntity
  8
部品1
100
AcDbLine
 10
7079.484998239408
 20
9314.545031521218
 30
0.0
 11
7079.484998239383
 21
7944.545031521212
 31
0.0
  0
LINE
  5
14B27
330
747D
100
AcDbEntity
  8
部品1
 48
2.83
100
AcDbLine
 10
7047.484998239382
 20
7999.545031521178
 30
0.0
 11
7024.484998239383
 21
7999.545031521176
 31
0.0
  0
LINE
  5
14B28
330
747D
100
AcDbEntity
  8
部品1
 48
50.0
100
AcDbLine
 10
7051.484998239387
 20
8047.025966328813
 30
0.0
 11
7022.984026814594
 21
8076.045137234059
 31
0.0
  0
LINE
  5
14B29
330
747D
100
AcDbEntity
  8
部品1
 48
2.83
100
AcDbLine
 10
7024.484998239383
 20
7999.545031521176
 30
0.0
 11
7024.484998239383
 21
7974.045031521178
 31
0.0
  0
LINE
  5
14B2A
330
747D
100
AcDbEntity
  8
部品1
100
AcDbLine
 10
7034.484998239401
 20
7970.545031521218
 30
0.0
 11
7034.484998239401
 21
7944.545031521207
 31
0.0
  0
LINE
  5
14B2B
330
747D
100
AcDbEntity
  8
部品1
 48
0.2
100
AcDbLine
 10
7021.547446068082
 20
7937.542661476403
 30
0.0
 11
7026.547446068082
 21
7937.542661476403
 31
0.0
  0
ARC
  5
14B2C
330
747D
100
AcDbEntity
  8
部品1
 48
0.2
100
AcDbCircle
 10
7026.547446068082
 20
7945.542661476403
 30
0.0
 40
8.0
100
AcDbArc
 50
270.0
 51
352.8363522778074
  0
ARC
  5
14B2D
330
747D
100
AcDbEntity
  8
部品1
 48
0.2
100
AcDbCircle
 10
7021.547446068082
 20
7945.542661476403
 30
0.0
 40
8.0
100
AcDbArc
 50
187.1636477221926
 51
269.9999999999992
  0
ARC
  5
14B2E
330
747D
100
AcDbEntity
  8
細線
 48
0.2
100
AcDbCircle
 10
7026.547446068082
 20
7945.542661476403
 30
0.0
 40
4.049999999999999
100
AcDbArc
 50
194.2603506853988
 51
345.7396493146012
  0
LINE
  5
14B30
330
747D
100
AcDbEntity
  8
部品1
100
AcDbLine
 10
7051.484998239415
 20
7999.545031521225
 30
0.0
 11
7079.484998239415
 21
7999.545031521225
 31
0.0
  0
LINE
  5
14B31
330
747D
100
AcDbEntity
  8
部品1
100
AcDbLine
 10
7051.484998239387
 20
7999.545031521204
 30
0.0
 11
7079.484998239383
 21
7999.545031521204
 31
0.0
  0
LINE
  5
14B32
330
747D
100
AcDbEntity
  8
部品1
 48
2.83
100
AcDbLine
 10
7079.484998239383
 20
7999.545031521176
 30
0.0
 11
7056.484998239382
 21
7999.545031521178
 31
0.0
  0
LINE
  5
14B33
330
747D
100
AcDbEntity
  8
部品1
 48
2.83
100
AcDbLine
 10
7036.484998239382
 20
7974.045031521178
 30
0.0
 11
7036.484998239382
 21
7944.545031521179
 31
0.0
  0
LINE
  5
14B34
330
747D
100
AcDbEntity
  8
部品1
100
AcDbLine
 10
7051.484998239408
 20
8419.545031521225
 30
0.0
 11
7079.484998239408
 21
8419.545031521225
 31
0.0
  0
LINE
  5
14B35
330
747D
100
AcDbEntity
  8
部品1
100
AcDbLine
 10
7024.484998239408
 20
9314.545031521239
 30
0.0
 11
7024.484998239408
 21
9286.545031521241
 31
0.0
  0
LINE
  5
14B36
330
747D
100
AcDbEntity
  8
部品1
100
AcDbLine
 10
7024.484998239408
 20
9314.545031521218
 30
0.0
 11
7024.484998239408
 21
9286.545031521219
 31
0.0
  0
LINE
  5
14B37
330
747D
100
AcDbEntity
  8
部品1
100
AcDbLine
 10
7049.984998239342
 20
9285.045031521168
 30
0.0
 11
7049.984998239342
 21
8835.045031521167
 31
0.0
  0
DIMENSION
  5
14B38
330
747D
100
AcDbEntity
  8
寸法
100
AcDbDimension
  2
*D12
 10
7405.342724101366
 20
8739.827215852278
 30
0.0
 11
7305.342724101366
 21
8964.827215852279
 31
0.0
 70
    32
 71
     5
 42
450.0
  3
INABA_S40G
100
AcDbAlignedDimension
 13
7049.984998239342
 23
9285.045031521168
 33
0.0
 14
7049.984998239342
 24
8835.045031521167
 34
0.0
 50
90.0
100
AcDbRotatedDimension
1001
ACAD
1000
DSTYLE
1002
{
1002
}
  0
LINE
  5
14B39
330
747D
100
AcDbEntity
  8
部品1
100
AcDbLine
 10
7051.484998239408
 20
8839.545031521225
 30
0.0
 11
7079.484998239408
 21
8839.545031521225
 31
0.0
  0
LINE
  5
14B3A
330
747D
100
AcDbEntity
  8
部品1
100
AcDbLine
 10
7051.484998239408
 20
9259.545031521225
 30
0.0
 11
7079.484998239408
 21
9259.545031521225
 31
0.0
  0
LINE
  5
14E13
330
747D
100
AcDbEntity
  8
細線
 48
50.0
100
AcDbLine
 10
5879.484998239409
 20
9293.04503152101
 30
0.0
 11
5819.484998239408
 21
9293.045031521009
 31
0.0
  0
LINE
  5
14E14
330
747D
100
AcDbEntity
  8
細線
 48
50.0
100
AcDbLine
 10
5879.484998239409
 20
9293.04503152101
 30
0.0
 11
5879.484998239406
 21
9314.545031521014
 31
0.0
  0
LINE
  5
14E15
330
747D
100
AcDbEntity
  8
細線
 48
50.0
100
AcDbLine
 10
5819.484998239408
 20
9293.04503152101
 30
0.0
 11
5819.484998239406
 21
9314.545031521006
 31
0.0
  0
LINE
  5
14E16
330
747D
100
AcDbEntity
  8
細線
 48
50.0
100
AcDbLine
 10
6699.484998239409
 20
9293.045031521121
 30
0.0
 11
6639.484998239407
 21
9293.045031521115
 31
0.0
  0
LINE
  5
14E17
330
747D
100
AcDbEntity
  8
細線
 48
50.0
100
AcDbLine
 10
6639.484998239407
 20
9293.045031521121
 30
0.0
 11
6639.484998239407
 21
9314.545031521117
 31
0.0
  0
LINE
  5
14E18
330
747D
100
AcDbEntity
  8
細線
 48
50.0
100
AcDbLine
 10
6699.484998239409
 20
9293.045031521121
 30
0.0
 11
6699.484998239405
 21
9314.545031521124
 31
0.0
  0
LINE
  5
14E1C
330
747D
100
AcDbEntity
  8
細線
 48
50.0
100
AcDbLine
 10
6021.484998239401
 20
7970.545031521499
 30
0.0
 11
6021.484998239401
 21
7944.545031521463
 31
0.0
  0
LINE
  5
14E1D
330
747D
100
AcDbEntity
  8
細線
 48
50.0
100
AcDbLine
 10
6061.4849982394
 20
7970.545031521499
 30
0.0
 11
6061.4849982394
 21
7944.545031521463
 31
0.0
  0
LINE
  5
14E21
330
747D
100
AcDbEntity
  8
細線
 48
50.0
100
AcDbLine
 10
6881.4849982394
 20
7970.545031521499
 30
0.0
 11
6881.4849982394
 21
7944.545031521463
 31
0.0
  0
LINE
  5
14E22
330
747D
100
AcDbEntity
  8
細線
 48
50.0
100
AcDbLine
 10
6841.4849982394
 20
7970.545031521499
 30
0.0
 11
6841.4849982394
 21
7944.545031521463
 31
0.0
  0
DIMENSION
  5
14E3A
330
747D
100
AcDbEntity
  8
寸法
 48
50.0
100
AcDbDimension
  2
*D13
 10
6999.484998239402
 20
7504.72136372604
 30
0.0
 11
6656.984998239403
 21
7504.72136372604
 31
0.0
 70
   160
  1
有効開口部間口\P<>
 71
     5
 42
684.9999999999964
  3
INABA_S40G
100
AcDbAlignedDimension
 13
6314.484998239404
 23
7944.545031521116
 33
0.0
 14
6999.484998239402
 24
7944.54503152108
 34
0.0
100
AcDbRotatedDimension
  0
DIMENSION
  5
14ECF
330
747D
100
AcDbEntity
  8
寸法
 48
50.0
100
AcDbDimension
  2
*D14
 10
6179.4849982394
 20
7504.72136372604
 30
0.0
 11
5836.984998239403
 21
7504.72136372604
 31
0.0
 70
   160
 71
     5
 42
684.9999999999964
  3
INABA_S40G
100
AcDbAlignedDimension
 13
5494.484998239404
 23
7944.545031521116
 33
0.0
 14
6179.4849982394
 24
7944.54503152108
 34
0.0
100
AcDbRotatedDimension
  0
DIMENSION
  5
14F17
330
747D
100
AcDbEntity
  8
寸法
100
AcDbDimension
  2
*D15
 10
6132.049575083469
 20
8469.545031521095
 30
0.0
 11
5751.491859890921
 21
8469.545031521095
 31
0.0
 70
   160
 71
     5
 42
761.0000000000127
  3
INABA_S40G
100
AcDbAlignedDimension
 13
5468.98500491704
 23
8835.045031521131
 33
0.0
 14
6229.985004917053
 24
8835.045031521124
 34
0.0
100
AcDbRotatedDimension
1001
ACAD
1000
DSTYLE
1002
{
1002
}
  0
ARC
  5
152AB
330
747D
100
AcDbEntity
  8
部品1
 48
0.01
100
AcDbCircle
 10
6757.484998239409
 20
5030.256393306551
 30
0.0
 40
2.0
100
AcDbArc
 50
270.0
 51
0.0
  0
ARC
  5
152AC
330
747D
100
AcDbEntity
  8
部品1
 48
0.01
100
AcDbCircle
 10
6757.484998239411
 20
5061.75639330655
 30
0.0
 40
2.0
100
AcDbArc
 50
0.0
 51
90.0
  0
ARC
  5
152AD
330
747D
100
AcDbEntity
  8
部品1
 48
0.01
100
AcDbCircle
 10
6581.484998239412
 20
5030.256393306551
 30
0.0
 40
2.0
100
AcDbArc
 50
180.0
 51
270.0
  0
ARC
  5
152AE
330
747D
100
AcDbEntity
  8
部品1
 48
0.01
100
AcDbCircle
 10
6581.484998239412
 20
5061.75639330655
 30
0.0
 40
2.0
100
AcDbArc
 50
90.0
 51
180.0
  0
LINE
  5
152AF
330
747D
100
AcDbEntity
  8
細線
100
AcDbLine
 10
6669.484998239408
 20
5034.25639330655
 30
0.0
 11
6743.484998239411
 21
5034.25639330655
 31
0.0
  0
LINE
  5
152B0
330
747D
100
AcDbEntity
  8
細線
100
AcDbLine
 10
6669.484998239411
 20
5057.25639330655
 30
0.0
 11
6595.484998239412
 21
5057.25639330655
 31
0.0
  0
LINE
  5
152B1
330
747D
100
AcDbEntity
  8
細線
100
AcDbLine
 10
6595.484998239412
 20
5034.25639330655
 30
0.0
 11
6669.484998239411
 21
5034.25639330655
 31
0.0
  0
LINE
  5
152B2
330
747D
100
AcDbEntity
  8
細線
100
AcDbLine
 10
6743.484998239411
 20
5057.25639330655
 30
0.0
 11
6669.484998239411
 21
5057.25639330655
 31
0.0
  0
LINE
  5
152B3
330
747D
100
AcDbEntity
  8
細線
100
AcDbLine
 10
6743.484998239411
 20
5034.25639330655
 30
0.0
 11
6743.484998239411
 21
5057.25639330655
 31
0.0
  0
LINE
  5
152B4
330
747D
100
AcDbEntity
  8
細線
100
AcDbLine
 10
6595.484998239412
 20
5057.25639330655
 30
0.0
 11
6595.484998239412
 21
5034.25639330655
 31
0.0
  0
LINE
  5
152B5
330
747D
100
AcDbEntity
  8
部品1
 48
0.01
100
AcDbLine
 10
6759.484998239408
 20
5030.256393306551
 30
0.0
 11
6759.484998239412
 21
5061.75639330655
 31
0.0
  0
LINE
  5
152B6
330
747D
100
AcDbEntity
  8
部品1
 48
0.01
100
AcDbLine
 10
6581.484998239412
 20
5028.25639330655
 30
0.0
 11
6757.484998239409
 21
5028.25639330655
 31
0.0
  0
LINE
  5
152B7
330
747D
100
AcDbEntity
  8
部品1
 48
0.01
100
AcDbLine
 10
6579.484998239411
 20
5061.75639330655
 30
0.0
 11
6579.484998239411
 21
5030.256393306551
 31
0.0
  0
LINE
  5
152B8
330
747D
100
AcDbEntity
  8
部品1
 48
0.01
100
AcDbLine
 10
6757.484998239411
 20
5063.756393306551
 30
0.0
 11
6581.484998239412
 21
5063.756393306551
 31
0.0
  0
LINE
  5
152B9
330
747D
100
AcDbEntity
  8
細線
100
AcDbLine
 10
6595.484998239412
 20
5051.256393306551
 30
0.0
 11
6669.484998239411
 21
5051.256393306551
 31
0.0
  0
LINE
  5
152BA
330
747D
100
AcDbEntity
  8
細線
100
AcDbLine
 10
6595.484998239412
 20
5045.256393306551
 30
0.0
 11
6669.484998239411
 21
5045.256393306551
 31
0.0
  0
LINE
  5
152BB
330
747D
100
AcDbEntity
  8
細線
100
AcDbLine
 10
6595.484998239408
 20
5039.25639330655
 30
0.0
 11
6669.484998239411
 21
5039.25639330655
 31
0.0
  0
LINE
  5
152BC
330
747D
100
AcDbEntity
  8
細線
100
AcDbLine
 10
6595.484998239412
 20
5051.256393306551
 30
0.0
 11
6664.484998239412
 21
5051.256393306551
 31
0.0
  0
LINE
  5
152BD
330
747D
100
AcDbEntity
  8
細線
100
AcDbLine
 10
6743.484998239408
 20
5051.256393306551
 30
0.0
 11
6669.484998239411
 21
5051.256393306551
 31
0.0
  0
LINE
  5
152BE
330
747D
100
AcDbEntity
  8
細線
100
AcDbLine
 10
6743.484998239408
 20
5039.25639330655
 30
0.0
 11
6669.484998239411
 21
5039.25639330655
 31
0.0
  0
LINE
  5
152BF
330
747D
100
AcDbEntity
  8
細線
100
AcDbLine
 10
6743.484998239408
 20
5045.256393306551
 30
0.0
 11
6669.484998239411
 21
5045.256393306551
 31
0.0
  0
LINE
  5
152C0
330
747D
100
AcDbEntity
  8
細線
100
AcDbLine
 10
6669.484998239411
 20
5057.25639330655
 30
0.0
 11
6669.484998239408
 21
5034.25639330655
 31
0.0
  0
LINE
  5
152C1
330
747D
100
AcDbEntity
  8
細線
100
AcDbLine
 10
5849.484998239407
 20
5057.25639330655
 30
0.0
 11
5849.484998239407
 21
5034.25639330655
 31
0.0
  0
LINE
  5
152C2
330
747D
100
AcDbEntity
  8
細線
100
AcDbLine
 10
5923.484998239405
 20
5045.256393306551
 30
0.0
 11
5849.484998239407
 21
5045.256393306551
 31
0.0
  0
LINE
  5
152C3
330
747D
100
AcDbEntity
  8
細線
100
AcDbLine
 10
5923.484998239405
 20
5039.25639330655
 30
0.0
 11
5849.484998239407
 21
5039.25639330655
 31
0.0
  0
LINE
  5
152C4
330
747D
100
AcDbEntity
  8
細線
100
AcDbLine
 10
5923.484998239405
 20
5051.256393306551
 30
0.0
 11
5849.484998239407
 21
5051.256393306551
 31
0.0
  0
LINE
  5
152C5
330
747D
100
AcDbEntity
  8
細線
100
AcDbLine
 10
5775.484998239408
 20
5051.256393306551
 30
0.0
 11
5844.484998239408
 21
5051.256393306551
 31
0.0
  0
LINE
  5
152C6
330
747D
100
AcDbEntity
  8
細線
100
AcDbLine
 10
5775.484998239406
 20
5039.25639330655
 30
0.0
 11
5849.484998239407
 21
5039.25639330655
 31
0.0
  0
LINE
  5
152C7
330
747D
100
AcDbEntity
  8
細線
100
AcDbLine
 10
5775.484998239408
 20
5045.256393306551
 30
0.0
 11
5849.484998239407
 21
5045.256393306551
 31
0.0
  0
LINE
  5
152C8
330
747D
100
AcDbEntity
  8
細線
100
AcDbLine
 10
5775.484998239408
 20
5051.256393306551
 30
0.0
 11
5849.484998239407
 21
5051.256393306551
 31
0.0
  0
LINE
  5
152C9
330
747D
100
AcDbEntity
  8
部品1
 48
0.01
100
AcDbLine
 10
5937.484998239408
 20
5063.756393306551
 30
0.0
 11
5761.484998239408
 21
5063.756393306551
 31
0.0
  0
LINE
  5
152CA
330
747D
100
AcDbEntity
  8
部品1
 48
0.01
100
AcDbLine
 10
5759.484998239408
 20
5061.75639330655
 30
0.0
 11
5759.484998239408
 21
5030.256393306551
 31
0.0
  0
LINE
  5
152CB
330
747D
100
AcDbEntity
  8
部品1
 48
0.01
100
AcDbLine
 10
5761.484998239408
 20
5028.25639330655
 30
0.0
 11
5937.484998239406
 21
5028.25639330655
 31
0.0
  0
LINE
  5
152CC
330
747D
100
AcDbEntity
  8
部品1
 48
0.01
100
AcDbLine
 10
5939.484998239406
 20
5030.256393306551
 30
0.0
 11
5939.484998239407
 21
5061.75639330655
 31
0.0
  0
LINE
  5
152CD
330
747D
100
AcDbEntity
  8
細線
100
AcDbLine
 10
5775.484998239408
 20
5057.25639330655
 30
0.0
 11
5775.484998239408
 21
5034.25639330655
 31
0.0
  0
LINE
  5
152CE
330
747D
100
AcDbEntity
  8
細線
100
AcDbLine
 10
5923.484998239408
 20
5034.25639330655
 30
0.0
 11
5923.484998239408
 21
5057.25639330655
 31
0.0
  0
LINE
  5
152CF
330
747D
100
AcDbEntity
  8
細線
100
AcDbLine
 10
5923.484998239408
 20
5057.25639330655
 30
0.0
 11
5849.484998239407
 21
5057.25639330655
 31
0.0
  0
LINE
  5
152D0
330
747D
100
AcDbEntity
  8
細線
100
AcDbLine
 10
5775.484998239408
 20
5034.25639330655
 30
0.0
 11
5849.484998239407
 21
5034.25639330655
 31
0.0
  0
LINE
  5
152D1
330
747D
100
AcDbEntity
  8
細線
100
AcDbLine
 10
5849.484998239407
 20
5057.25639330655
 30
0.0
 11
5775.484998239408
 21
5057.25639330655
 31
0.0
  0
LINE
  5
152D2
330
747D
100
AcDbEntity
  8
細線
100
AcDbLine
 10
5849.484998239407
 20
5034.25639330655
 30
0.0
 11
5923.484998239408
 21
5034.25639330655
 31
0.0
  0
ARC
  5
152D3
330
747D
100
AcDbEntity
  8
部品1
 48
0.01
100
AcDbCircle
 10
5761.484998239408
 20
5061.75639330655
 30
0.0
 40
2.0
100
AcDbArc
 50
90.0
 51
180.0
  0
ARC
  5
152D4
330
747D
100
AcDbEntity
  8
部品1
 48
0.01
100
AcDbCircle
 10
5761.484998239408
 20
5030.256393306551
 30
0.0
 40
2.0
100
AcDbArc
 50
180.0
 51
270.0
  0
ARC
  5
152D5
330
747D
100
AcDbEntity
  8
部品1
 48
0.01
100
AcDbCircle
 10
5937.484998239408
 20
5061.75639330655
 30
0.0
 40
2.0
100
AcDbArc
 50
0.0
 51
90.0
  0
ARC
  5
152D6
330
747D
100
AcDbEntity
  8
部品1
 48
0.01
100
AcDbCircle
 10
5937.484998239406
 20
5030.256393306551
 30
0.0
 40
2.0
100
AcDbArc
 50
270.0
 51
0.0
  0
MTEXT
  5
152D7
330
747D
100
AcDbEntity
  8
寸法
 62
     7
 48
50.0
100
AcDbMText
 10
6684.76479584998
 20
8904.658779058406
 30
0.0
 40
96.0
 41
0.0
 71
     5
 72
     1
  1
棚 2段
  7
STYLE1
 73
     1
 44
1.0
1001
ACAD
1000
MTEXTBEGIN
1070
    73
1070
     1
1070
    44
1040
1.0
1070
    74
1070
     0
1000
MTEXTEND
  0
MTEXT
  5
152D8
330
747D
100
AcDbEntity
  8
寸法
 62
     7
 48
50.0
100
AcDbMText
 10
5864.764802527678
 20
8904.658779058419
 30
0.0
 40
96.0
 41
0.0
 71
     5
 72
     1
  1
棚 2段
  7
STYLE1
 73
     1
 44
1.0
1001
ACAD
1000
MTEXTBEGIN
1070
    73
1070
     1
1070
    44
1040
1.0
1070
    74
1070
     0
1000
MTEXTEND
  0
ARC
  5
152D9
330
747D
100
AcDbEntity
  8
部品1
100
AcDbCircle
 10
7122.076577132972
 20
5225.756393306554
 30
0.0
 40
7.0
100
AcDbArc
 50
356.7526572096623
 51
90.0
  0
ARC
  5
152DA
330
747D
100
AcDbEntity
  8
部品1
100
AcDbCircle
 10
7108.861253671938
 20
5098.756393306556
 30
0.0
 40
7.0
100
AcDbArc
 50
270.0
 51
356.7526572096623
  0
ARC
  5
152DB
330
747D
100
AcDbEntity
  8
部品1
 48
50.0
100
AcDbCircle
 10
7127.233063882617
 20
5205.423392468241
 30
0.0
 40
0.7
100
AcDbArc
 50
277.6581272073652
 51
356.7526572096103
  0
ARC
  5
152DC
330
747D
100
AcDbEntity
  8
部品1
 48
50.0
100
AcDbCircle
 10
7118.997033357773
 20
5113.223392468237
 30
0.0
 40
0.7
100
AcDbArc
 50
277.6581272073652
 51
356.7526572097143
  0
ARC
  5
152DD
330
747D
100
AcDbEntity
  8
部品1
 48
50.0
100
AcDbCircle
 10
7119.490102466333
 20
5109.556393306553
 30
0.0
 40
3.0
100
AcDbArc
 50
97.65812720736519
 51
176.7526572096623
  0
ARC
  5
152DE
330
747D
100
AcDbEntity
  8
部品1
 48
50.0
100
AcDbCircle
 10
7127.726132991178
 20
5201.756393306556
 30
0.0
 40
3.0
100
AcDbArc
 50
97.65812720736519
 51
176.7526572096623
  0
LINE
  5
152DF
330
747D
100
AcDbEntity
  8
部品1
100
AcDbLine
 10
7124.730950094992
 20
5201.926332761657
 30
0.0
 11
7119.695909366881
 21
5113.183739928714
 31
0.0
  0
LINE
  5
152E0
330
747D
100
AcDbEntity
  8
部品1
100
AcDbLine
 10
7116.494919570148
 20
5109.726332761656
 30
0.0
 11
7115.850013763036
 21
5098.359867911316
 31
0.0
  0
LINE
  5
152E1
330
747D
100
AcDbEntity
  8
細線
 48
50.0
100
AcDbLine
 10
7096.484998239404
 20
5232.756393306554
 30
0.0
 11
7096.484998239404
 21
5091.756393306553
 31
0.0
  0
LINE
  5
152E2
330
747D
100
AcDbEntity
  8
部品1
100
AcDbLine
 10
7129.065337224071
 20
5225.359867911315
 30
0.0
 11
7127.931939891725
 21
5205.383739928715
 31
0.0
  0
DIMENSION
  5
152E3
330
747D
100
AcDbEntity
  8
寸法
 48
50.0
100
AcDbDimension
  2
*D18
 10
7079.484998239404
 20
5445.297978564795
 30
0.0
 11
7442.970279613641
 21
5445.297978564795
 31
0.0
 70
   160
 71
     5
 42
50.0
  3
INABA_S40G
100
AcDbAlignedDimension
 13
7129.484998239404
 23
5232.756393306554
 33
0.0
 14
7079.484998239404
 24
5232.756393306556
 34
0.0
100
AcDbRotatedDimension
  0
LINE
  5
152E4
330
747D
100
AcDbEntity
  8
部品1
 48
50.0
100
AcDbLine
 10
7108.861253671938
 20
5091.756393306556
 30
0.0
 11
5410.108742806864
 21
5091.756393306556
 31
0.0
  0
LINE
  5
152E5
330
747D
100
AcDbEntity
  8
細線
 48
50.0
100
AcDbLine
 10
7119.090316702664
 20
5112.529635870349
 30
0.0
 11
5399.879679774647
 21
5112.529635870552
 31
0.0
  0
LINE
  5
152E6
330
747D
100
AcDbEntity
  8
細線
 48
50.0
100
AcDbLine
 10
7127.326347227484
 20
5204.729635870347
 30
0.0
 11
5391.643649249814
 21
5204.729635870553
 31
0.0
  0
LINE
  5
152E7
330
747D
100
AcDbEntity
  8
部品1
 48
50.0
100
AcDbLine
 10
7122.076577132972
 20
5232.756393306554
 30
0.0
 11
5396.89341934583
 21
5232.756393306554
 31
0.0
  0
LINE
  5
152E8
330
747D
100
AcDbEntity
  8
部品1
100
AcDbLine
 10
5389.904659254732
 20
5225.359867911318
 30
0.0
 11
5391.03805658708
 21
5205.383739928719
 31
0.0
  0
LINE
  5
152E9
330
747D
100
AcDbEntity
  8
部品1
100
AcDbLine
 10
5402.475076908657
 20
5109.72633276166
 30
0.0
 11
5403.119982715764
 21
5098.359867911319
 31
0.0
  0
LINE
  5
152EA
330
747D
100
AcDbEntity
  8
部品1
100
AcDbLine
 10
5394.239046383809
 20
5201.926332761662
 30
0.0
 11
5399.27408711192
 21
5113.183739928718
 31
0.0
  0
ARC
  5
152EB
330
747D
100
AcDbEntity
  8
部品1
 48
50.0
100
AcDbCircle
 10
5391.243863487623
 20
5201.75639330656
 30
0.0
 40
3.0
100
AcDbArc
 50
3.247342790337682
 51
82.3418727926348
  0
ARC
  5
152EC
330
747D
100
AcDbEntity
  8
部品1
 48
50.0
100
AcDbCircle
 10
5399.479894012467
 20
5109.556393306557
 30
0.0
 40
3.0
100
AcDbArc
 50
3.247342790337682
 51
82.3418727926348
  0
ARC
  5
152ED
330
747D
100
AcDbEntity
  8
部品1
 48
50.0
100
AcDbCircle
 10
5399.972963121029
 20
5113.22339246824
 30
0.0
 40
0.7
100
AcDbArc
 50
183.2473427902856
 51
262.3418727926349
  0
ARC
  5
152EE
330
747D
100
AcDbEntity
  8
部品1
 48
50.0
100
AcDbCircle
 10
5391.736932596188
 20
5205.423392468245
 30
0.0
 40
0.7
100
AcDbArc
 50
183.2473427903897
 51
262.3418727926349
  0
ARC
  5
152EF
330
747D
100
AcDbEntity
  8
部品1
100
AcDbCircle
 10
5410.108742806864
 20
5098.756393306559
 30
0.0
 40
7.0
100
AcDbArc
 50
183.2473427903377
 51
270.0
  0
ARC
  5
152F0
330
747D
100
AcDbEntity
  8
部品1
100
AcDbCircle
 10
5396.89341934583
 20
5225.756393306557
 30
0.0
 40
7.0
100
AcDbArc
 50
90.0
 51
183.2473427903377
  0
LINE
  5
152F1
330
747D
100
AcDbEntity
  8
細線
 48
50.0
100
AcDbLine
 10
5422.484998239401
 20
5232.756393306558
 30
0.0
 11
5422.484998239401
 21
5091.756393306556
 31
0.0
  0
DIMENSION
  5
152F2
330
747D
100
AcDbEntity
  8
寸法
 48
50.0
100
AcDbDimension
  2
*D19
 10
5389.4849982394
 20
5445.297978564799
 30
0.0
 11
5075.999716865154
 21
5445.297978564799
 31
0.0
 70
   160
 71
     5
 42
50.0
  3
INABA_S40G
100
AcDbAlignedDimension
 13
5439.4849982394
 23
5232.756393306561
 33
0.0
 14
5389.4849982394
 24
5232.756393306559
 34
0.0
100
AcDbRotatedDimension
1001
ACAD
1000
DSTYLE
1002
{
1002
}
  0
DIMENSION
  5
152F3
330
747D
100
AcDbEntity
  8
寸法
 48
50.0
100
AcDbDimension
  2
*D20
 10
5439.4849982394
 20
5445.297978564799
 30
0.0
 11
6275.858403643506
 21
5445.297978564799
 31
0.0
 70
   160
  1
柱外寸法<>
 71
     5
 42
1640.000000000004
  3
INABA_S40G
100
AcDbAlignedDimension
 13
7079.484998239404
 23
5232.756393306556
 33
0.0
 14
5439.4849982394
 24
5232.756393306561
 34
0.0
100
AcDbRotatedDimension
  0
DIMENSION
  5
152F4
330
747D
100
AcDbEntity
  8
寸法
 48
50.0
100
AcDbDimension
  2
*D21
 10
7129.484998239404
 20
5668.254957002646
 30
0.0
 11
6241.583474075596
 21
5668.254957002646
 31
0.0
 70
   160
 71
     5
 42
1740.000000000003
  3
INABA_S40G
100
AcDbAlignedDimension
 13
5389.4849982394
 23
5232.756393306559
 33
0.0
 14
7129.484998239404
 24
5232.756393306554
 34
0.0
100
AcDbRotatedDimension
  0
LINE
  5
152FA
330
747D
100
AcDbEntity
  8
仕様書枠
 48
50.0
100
AcDbLine
 10
16307.19999999999
 20
11409.6
 30
0.0
 11
13127.2
 21
11409.6
 31
0.0
  0
TEXT
  5
15340
330
747D
100
AcDbEntity
  8
文字
 62
     7
 48
50.0
100
AcDbText
 10
14271.39351435261
 20
483.8967129911411
 30
0.0
 40
160.0
  1
ＮＸＤ－１１Ｌ－２
  7
STYLE2
100
AcDbText
  0
LINE
  5
153A3
330
747D
100
AcDbEntity
  8
部品1
100
AcDbLine
 10
7034.42255041072
 20
3204.256393306573
 30
0.0
 11
7034.484998239401
 21
3204.256393306573
 31
0.0
  0
LINE
  5
153A4
330
747D
100
AcDbEntity
  8
部品1
100
AcDbLine
 10
6214.42255041072
 20
3204.256393306564
 30
0.0
 11
6214.484998239401
 21
3204.256393306564
 31
0.0
  0
ARC
  5
153A5
330
747D
100
AcDbEntity
  8
細線
 48
0.2
100
AcDbCircle
 10
7031.42255041072
 20
3204.035883475323
 30
0.0
 40
1.0
100
AcDbArc
 50
286.6015495989848
 51
0.0
  0
LINE
  5
153A6
330
747D
100
AcDbEntity
  8
細線
 48
0.1
100
AcDbLine
 10
7034.42255041072
 20
3204.006393306571
 30
0.0
 11
7034.42255041072
 21
3211.006393306571
 31
0.0
  0
LINE
  5
153A7
330
747D
100
AcDbEntity
  8
細線
 48
50.0
100
AcDbLine
 10
7022.559793216416
 20
3206.506393306573
 30
0.0
 11
7022.559793216416
 21
3208.506393306571
 31
0.0
  0
LINE
  5
153A8
330
747D
100
AcDbEntity
  8
細線
 48
50.0
100
AcDbLine
 10
7030.41020326238
 20
3206.506393306573
 30
0.0
 11
7030.41020326238
 21
3208.506393306571
 31
0.0
  0
LINE
  5
153A9
330
747D
100
AcDbEntity
  8
細線
 48
0.2
100
AcDbLine
 10
7034.42255041072
 20
3204.006393306571
 30
0.0
 11
7014.42255041072
 21
3204.006393306571
 31
0.0
  0
LINE
  5
153AA
330
747D
100
AcDbEntity
  8
細線
 48
0.2
100
AcDbLine
 10
7034.42255041072
 20
3208.506393306571
 30
0.0
 11
7014.42255041072
 21
3208.506393306571
 31
0.0
  0
LINE
  5
153AB
330
747D
100
AcDbEntity
  8
細線
 48
0.2
100
AcDbLine
 10
7034.42255041072
 20
3206.506393306571
 30
0.0
 11
7014.42255041072
 21
3206.506393306573
 31
0.0
  0
ARC
  5
153AC
330
747D
100
AcDbEntity
  8
細線
 48
0.2
100
AcDbCircle
 10
7021.42255041072
 20
3204.035883475323
 30
0.0
 40
1.0
100
AcDbArc
 50
180.0
 51
253.3984504010152
  0
ARC
  5
153AD
330
747D
100
AcDbEntity
  8
細線
 48
0.2
100
AcDbCircle
 10
7026.42255041072
 20
3220.806393306568
 30
0.0
 40
18.49999999999796
100
AcDbArc
 50
253.3984504010152
 51
286.6015495989848
  0
LINE
  5
153AE
330
747D
100
AcDbEntity
  8
細線
 48
0.2
100
AcDbLine
 10
7032.106541707228
 20
3203.30639330657
 30
0.0
 11
7020.738559114215
 21
3203.30639330657
 31
0.0
  0
LINE
  5
153AF
330
747D
100
AcDbEntity
  8
細線
 48
50.0
100
AcDbLine
 10
7014.42255041072
 20
3204.256393306573
 30
0.0
 11
7014.42255041072
 21
3204.006393306571
 31
0.0
  0
LINE
  5
153B0
330
747D
100
AcDbEntity
  8
部品1
 48
50.0
100
AcDbLine
 10
7014.42255041072
 20
3211.006393306571
 30
0.0
 11
7014.42255041072
 21
3204.256393306573
 31
0.0
  0
LINE
  5
153B1
330
747D
100
AcDbEntity
  8
部品1
100
AcDbLine
 10
7034.42255041072
 20
3204.256393306573
 30
0.0
 11
7034.484998239401
 21
3204.256393306573
 31
0.0
  0
LINE
  5
153B2
330
747D
100
AcDbEntity
  8
部品1
 48
0.2
100
AcDbLine
 10
7034.42255041072
 20
3211.006393306571
 30
0.0
 11
7014.42255041072
 21
3211.006393306571
 31
0.0
  0
LINE
  5
153B3
330
747D
100
AcDbEntity
  8
部品1
100
AcDbLine
 10
7034.42255041072
 20
3204.256393306574
 30
0.0
 11
7034.484998239401
 21
3204.256393306574
 31
0.0
  0
LINE
  5
153B4
330
747D
100
AcDbEntity
  8
部品1
 48
0.2
100
AcDbLine
 10
6214.42255041072
 20
3211.006393306571
 30
0.0
 11
6194.42255041072
 21
3211.006393306571
 31
0.0
  0
LINE
  5
153B5
330
747D
100
AcDbEntity
  8
部品1
100
AcDbLine
 10
6214.42255041072
 20
3204.256393306573
 30
0.0
 11
6214.484998239401
 21
3204.256393306573
 31
0.0
  0
LINE
  5
153B6
330
747D
100
AcDbEntity
  8
部品1
 48
50.0
100
AcDbLine
 10
6194.42255041072
 20
3211.006393306571
 30
0.0
 11
6194.42255041072
 21
3204.256393306573
 31
0.0
  0
LINE
  5
153B7
330
747D
100
AcDbEntity
  8
細線
 48
50.0
100
AcDbLine
 10
6194.42255041072
 20
3204.256393306573
 30
0.0
 11
6194.42255041072
 21
3204.006393306571
 31
0.0
  0
LINE
  5
153B8
330
747D
100
AcDbEntity
  8
細線
 48
0.2
100
AcDbLine
 10
6212.106541707228
 20
3203.30639330657
 30
0.0
 11
6200.738559114216
 21
3203.30639330657
 31
0.0
  0
ARC
  5
153B9
330
747D
100
AcDbEntity
  8
細線
 48
0.2
100
AcDbCircle
 10
6206.42255041072
 20
3220.806393306568
 30
0.0
 40
18.49999999999796
100
AcDbArc
 50
253.3984504010152
 51
286.6015495989848
  0
ARC
  5
153BA
330
747D
100
AcDbEntity
  8
細線
 48
0.2
100
AcDbCircle
 10
6201.42255041072
 20
3204.035883475323
 30
0.0
 40
1.0
100
AcDbArc
 50
180.0
 51
253.3984504010152
  0
LINE
  5
153BB
330
747D
100
AcDbEntity
  8
細線
 48
0.2
100
AcDbLine
 10
6214.42255041072
 20
3206.506393306571
 30
0.0
 11
6194.42255041072
 21
3206.506393306573
 31
0.0
  0
LINE
  5
153BC
330
747D
100
AcDbEntity
  8
細線
 48
0.2
100
AcDbLine
 10
6214.42255041072
 20
3208.506393306571
 30
0.0
 11
6194.42255041072
 21
3208.506393306571
 31
0.0
  0
LINE
  5
153BD
330
747D
100
AcDbEntity
  8
細線
 48
0.2
100
AcDbLine
 10
6214.42255041072
 20
3204.006393306571
 30
0.0
 11
6194.42255041072
 21
3204.006393306571
 31
0.0
  0
LINE
  5
153BE
330
747D
100
AcDbEntity
  8
細線
 48
50.0
100
AcDbLine
 10
6210.41020326238
 20
3206.506393306573
 30
0.0
 11
6210.41020326238
 21
3208.506393306571
 31
0.0
  0
LINE
  5
153BF
330
747D
100
AcDbEntity
  8
細線
 48
50.0
100
AcDbLine
 10
6202.559793216416
 20
3206.506393306573
 30
0.0
 11
6202.559793216416
 21
3208.506393306571
 31
0.0
  0
LINE
  5
153C0
330
747D
100
AcDbEntity
  8
細線
 48
0.1
100
AcDbLine
 10
6214.42255041072
 20
3204.006393306571
 30
0.0
 11
6214.42255041072
 21
3211.006393306571
 31
0.0
  0
ARC
  5
153C1
330
747D
100
AcDbEntity
  8
細線
 48
0.2
100
AcDbCircle
 10
6211.42255041072
 20
3204.035883475323
 30
0.0
 40
1.0
100
AcDbArc
 50
286.6015495989848
 51
0.0
  0
LINE
  5
153C2
330
747D
100
AcDbEntity
  8
部品1
100
AcDbLine
 10
7034.42255041072
 20
4995.256393306551
 30
0.0
 11
7034.484998239401
 21
4995.256393306552
 31
0.0
  0
LINE
  5
153C3
330
747D
100
AcDbEntity
  8
部品1
 48
0.2
100
AcDbLine
 10
7034.42255041072
 20
4988.506393306554
 30
0.0
 11
7014.42255041072
 21
4988.506393306554
 31
0.0
  0
LINE
  5
153C4
330
747D
100
AcDbEntity
  8
部品1
100
AcDbLine
 10
7034.42255041072
 20
4995.256393306554
 30
0.0
 11
7034.484998239401
 21
4995.256393306552
 31
0.0
  0
LINE
  5
153C5
330
747D
100
AcDbEntity
  8
部品1
 48
50.0
100
AcDbLine
 10
7014.42255041072
 20
4988.506393306554
 30
0.0
 11
7014.42255041072
 21
4995.256393306554
 31
0.0
  0
LINE
  5
153C6
330
747D
100
AcDbEntity
  8
細線
 48
50.0
100
AcDbLine
 10
7014.42255041072
 20
4995.256393306554
 30
0.0
 11
7014.42255041072
 21
4995.506393306554
 31
0.0
  0
LINE
  5
153C7
330
747D
100
AcDbEntity
  8
細線
 48
0.2
100
AcDbLine
 10
7032.106541707228
 20
4996.206393306555
 30
0.0
 11
7020.738559114215
 21
4996.206393306555
 31
0.0
  0
ARC
  5
153C8
330
747D
100
AcDbEntity
  8
細線
 48
0.2
100
AcDbCircle
 10
7026.42255041072
 20
4978.706393306556
 30
0.0
 40
18.49999999999796
100
AcDbArc
 50
73.39845040101522
 51
106.6015495989848
  0
ARC
  5
153C9
330
747D
100
AcDbEntity
  8
細線
 48
0.2
100
AcDbCircle
 10
7021.42255041072
 20
4995.476903137802
 30
0.0
 40
1.0
100
AcDbArc
 50
106.6015495989848
 51
180.0
  0
LINE
  5
153CA
330
747D
100
AcDbEntity
  8
細線
 48
0.2
100
AcDbLine
 10
7034.42255041072
 20
4993.006393306554
 30
0.0
 11
7014.42255041072
 21
4993.006393306554
 31
0.0
  0
LINE
  5
153CB
330
747D
100
AcDbEntity
  8
細線
 48
0.2
100
AcDbLine
 10
7034.42255041072
 20
4991.006393306554
 30
0.0
 11
7014.42255041072
 21
4991.006393306554
 31
0.0
  0
LINE
  5
153CC
330
747D
100
AcDbEntity
  8
細線
 48
0.2
100
AcDbLine
 10
7034.42255041072
 20
4995.506393306554
 30
0.0
 11
7014.42255041072
 21
4995.506393306554
 31
0.0
  0
LINE
  5
153CD
330
747D
100
AcDbEntity
  8
細線
 48
50.0
100
AcDbLine
 10
7030.41020326238
 20
4993.006393306554
 30
0.0
 11
7030.41020326238
 21
4991.006393306554
 31
0.0
  0
LINE
  5
153CE
330
747D
100
AcDbEntity
  8
細線
 48
50.0
100
AcDbLine
 10
7022.559793216416
 20
4993.006393306554
 30
0.0
 11
7022.559793216416
 21
4991.006393306554
 31
0.0
  0
LINE
  5
153CF
330
747D
100
AcDbEntity
  8
細線
 48
0.1
100
AcDbLine
 10
7034.42255041072
 20
4995.506393306554
 30
0.0
 11
7034.42255041072
 21
4988.506393306554
 31
0.0
  0
ARC
  5
153D0
330
747D
100
AcDbEntity
  8
細線
 48
0.2
100
AcDbCircle
 10
7031.42255041072
 20
4995.476903137802
 30
0.0
 40
1.0
100
AcDbArc
 50
0.0
 51
73.39845040101522
  0
LINE
  5
153D1
330
747D
100
AcDbEntity
  8
細線
 48
50.0
100
AcDbLine
 10
6194.42255041072
 20
4995.256393306554
 30
0.0
 11
6194.42255041072
 21
4995.506393306554
 31
0.0
  0
LINE
  5
153D2
330
747D
100
AcDbEntity
  8
部品1
100
AcDbLine
 10
6214.42255041072
 20
4995.256393306554
 30
0.0
 11
6214.484998239401
 21
4995.256393306552
 31
0.0
  0
LINE
  5
153D3
330
747D
100
AcDbEntity
  8
部品1
 48
50.0
100
AcDbLine
 10
6194.42255041072
 20
4988.506393306554
 30
0.0
 11
6194.42255041072
 21
4995.256393306554
 31
0.0
  0
LINE
  5
153D4
330
747D
100
AcDbEntity
  8
細線
 48
0.2
100
AcDbLine
 10
6214.42255041072
 20
4995.506393306554
 30
0.0
 11
6194.42255041072
 21
4995.506393306554
 31
0.0
  0
LINE
  5
153D5
330
747D
100
AcDbEntity
  8
細線
 48
0.2
100
AcDbLine
 10
6214.42255041072
 20
4991.006393306554
 30
0.0
 11
6194.42255041072
 21
4991.006393306554
 31
0.0
  0
LINE
  5
153D6
330
747D
100
AcDbEntity
  8
細線
 48
0.2
100
AcDbLine
 10
6214.42255041072
 20
4993.006393306554
 30
0.0
 11
6194.42255041072
 21
4993.006393306554
 31
0.0
  0
LINE
  5
153D7
330
747D
100
AcDbEntity
  8
部品1
 48
0.2
100
AcDbLine
 10
6214.42255041072
 20
4988.506393306554
 30
0.0
 11
6194.42255041072
 21
4988.506393306554
 31
0.0
  0
ARC
  5
153D8
330
747D
100
AcDbEntity
  8
細線
 48
0.2
100
AcDbCircle
 10
6201.42255041072
 20
4995.476903137802
 30
0.0
 40
1.0
100
AcDbArc
 50
106.6015495989848
 51
180.0
  0
ARC
  5
153D9
330
747D
100
AcDbEntity
  8
細線
 48
0.2
100
AcDbCircle
 10
6211.42255041072
 20
4995.476903137802
 30
0.0
 40
1.0
100
AcDbArc
 50
0.0
 51
73.39845040101522
  0
LINE
  5
153DA
330
747D
100
AcDbEntity
  8
細線
 48
0.1
100
AcDbLine
 10
6214.42255041072
 20
4995.506393306554
 30
0.0
 11
6214.42255041072
 21
4988.506393306554
 31
0.0
  0
ARC
  5
153DB
330
747D
100
AcDbEntity
  8
細線
 48
0.2
100
AcDbCircle
 10
6206.42255041072
 20
4978.706393306556
 30
0.0
 40
18.49999999999796
100
AcDbArc
 50
73.39845040101522
 51
106.6015495989848
  0
LINE
  5
153DC
330
747D
100
AcDbEntity
  8
細線
 48
0.2
100
AcDbLine
 10
6212.106541707228
 20
4996.206393306555
 30
0.0
 11
6200.738559114216
 21
4996.206393306555
 31
0.0
  0
LINE
  5
153DD
330
747D
100
AcDbEntity
  8
細線
 48
50.0
100
AcDbLine
 10
6202.559793216416
 20
4993.006393306554
 30
0.0
 11
6202.559793216416
 21
4991.006393306554
 31
0.0
  0
LINE
  5
153DE
330
747D
100
AcDbEntity
  8
細線
 48
50.0
100
AcDbLine
 10
6210.41020326238
 20
4993.006393306554
 30
0.0
 11
6210.41020326238
 21
4991.006393306554
 31
0.0
  0
LINE
  5
15454
330
747D
100
AcDbEntity
  8
部品1
100
AcDbLine
 10
6304.4849982394
 20
4995.256393306548
 30
0.0
 11
7014.42255041072
 21
4995.256393306552
 31
0.0
  0
LINE
  5
15455
330
747D
100
AcDbEntity
  8
部品1
100
AcDbLine
 10
5484.484998239401
 20
4995.256393306556
 30
0.0
 11
6194.42255041072
 21
4995.256393306554
 31
0.0
  0
LINE
  5
15456
330
747D
100
AcDbEntity
  8
部品1
100
AcDbLine
 10
6304.4849982394
 20
3204.256393306567
 30
0.0
 11
7014.42255041072
 21
3204.256393306573
 31
0.0
  0
LINE
  5
15457
330
747D
100
AcDbEntity
  8
部品1
100
AcDbLine
 10
5484.484998239401
 20
3204.256393306558
 30
0.0
 11
6194.42255041072
 21
3204.256393306564
 31
0.0
  0
LINE
  5
15458
330
747D
100
AcDbEntity
  8
部品1
100
AcDbLine
 10
5482.4849982394
 20
4997.756393306552
 30
0.0
 11
5482.4849982394
 21
3200.756393306573
 31
0.0
  0
LINE
  5
15459
330
747D
100
AcDbEntity
  8
部品1
100
AcDbLine
 10
6214.484998239399
 20
4995.256393306552
 30
0.0
 11
6214.484998239402
 21
3204.256393306573
 31
0.0
  0
LINE
  5
1545A
330
747D
100
AcDbEntity
  8
部品1
100
AcDbLine
 10
6216.484998239401
 20
4997.756393306552
 30
0.0
 11
6216.484998239401
 21
3200.756393306573
 31
0.0
  0
LINE
  5
1545B
330
747D
100
AcDbEntity
  8
部品1
100
AcDbLine
 10
6302.484998239401
 20
4997.756393306552
 30
0.0
 11
6302.484998239401
 21
3200.756393306573
 31
0.0
  0
LINE
  5
1545C
330
747D
100
AcDbEntity
  8
部品1
100
AcDbLine
 10
6304.4849982394
 20
4995.256393306548
 30
0.0
 11
6304.4849982394
 21
3204.256393306567
 31
0.0
  0
LINE
  5
1545D
330
747D
100
AcDbEntity
  8
部品1
100
AcDbLine
 10
7034.484998239401
 20
4995.256393306552
 30
0.0
 11
7034.484998239401
 21
3204.256393306574
 31
0.0
  0
DIMENSION
  5
15492
330
747D
100
AcDbEntity
  8
寸法
100
AcDbDimension
  2
*D22
 10
5121.380470631798
 20
3219.256393306557
 30
0.0
 11
5121.380470631797
 21
4098.256393306554
 31
0.0
 70
   160
  1
有効開口部高サ<>
 71
     5
 42
1759.999999999995
  3
INABA_S40G
100
AcDbAlignedDimension
 13
5439.4849982394
 23
4979.256393306553
 33
0.0
 14
5439.4849982394
 24
3219.256393306557
 34
0.0
 50
90.0
100
AcDbRotatedDimension
1001
ACAD
1000
DSTYLE
1002
{
1070
   288
1070
     1
1002
}
  0
LINE
  5
15493
330
747D
100
AcDbEntity
  8
部品1
100
AcDbLine
 10
7079.484998239401
 20
5091.756393306556
 30
0.0
 11
7079.484998239401
 21
3057.756393306553
 31
0.0
  0
TEXT
  5
15494
330
747D
100
AcDbEntity
  8
部品1
100
AcDbText
 10
5960.02661070612
 20
2261.786283271311
 30
0.0
 40
135.0
  1
正面図
  7
STYLE2
100
AcDbText
  0
LWPOLYLINE
  5
15495
330
747D
100
AcDbEntity
  8
部品1
100
AcDbPolyline
 90
        4
 70
     1
 43
0.0
 10
5869.501206968165
 20
2454.679812489834
 10
5869.501206968165
 20
2214.787490944302
 10
6632.971873196602
 20
2214.787490944302
 10
6632.971873196602
 20
2454.679812489834
  0
TEXT
  5
15496
330
747D
100
AcDbEntity
  8
部品1
100
AcDbText
 10
4370.696484939741
 20
3093.863296912454
 30
0.0
 40
125.0
  1
▽G.L
  7
STYLE2
100
AcDbText
  0
LINE
  5
15497
330
747D
100
AcDbEntity
  8
部品1
100
AcDbLine
 10
5439.4849982394
 20
5091.756393306556
 30
0.0
 11
5439.4849982394
 21
3057.756393306553
 31
0.0
  0
LINE
  5
15498
330
747D
100
AcDbEntity
  8
部品1
100
AcDbLine
 10
7036.484998239401
 20
4997.756393306552
 30
0.0
 11
7036.484998239401
 21
3200.756393306573
 31
0.0
  0
LINE
  5
15499
330
747D
100
AcDbEntity
  8
部品1
100
AcDbLine
 10
5484.484998239401
 20
4995.256393306556
 30
0.0
 11
5484.484998239401
 21
3204.256393306558
 31
0.0
  0
LINE
  5
1549A
330
747D
100
AcDbEntity
  8
部品1
100
AcDbLine
 10
5439.4849982394
 20
3157.756393306553
 30
0.0
 11
7079.484998239401
 21
3157.756393306553
 31
0.0
  0
LINE
  5
1549B
330
747D
100
AcDbEntity
  8
部品1
100
AcDbLine
 10
5439.4849982394
 20
4997.756393306552
 30
0.0
 11
7079.484998239401
 21
4997.756393306552
 31
0.0
  0
LINE
  5
1549C
330
747D
100
AcDbEntity
  8
部品1
100
AcDbLine
 10
5439.4849982394
 20
3200.756393306556
 30
0.0
 11
7079.484998239401
 21
3200.756393306573
 31
0.0
  0
LINE
  5
1549D
330
747D
100
AcDbEntity
  8
Ｇ．Ｌ
100
AcDbLine
 10
4101.949339401762
 20
3057.756393306553
 30
0.0
 11
11764.25081900461
 21
3057.756393306553
 31
0.0
  0
LINE
  5
16042
330
747D
100
AcDbEntity
  8
部品1
100
AcDbLine
 10
9466.356910799788
 20
4997.756393306554
 30
0.0
 11
10836.35691079978
 21
4997.756393306552
 31
0.0
  0
LINE
  5
16043
330
747D
100
AcDbEntity
  8
部品1
100
AcDbLine
 10
9466.356910799783
 20
3207.756393306552
 30
0.0
 11
10836.35691079979
 21
3207.756393306554
 31
0.0
  0
LINE
  5
16044
330
747D
100
AcDbEntity
  8
部品1
100
AcDbLine
 10
9521.356910799783
 20
4997.756393306552
 30
0.0
 11
9521.356910799783
 21
3207.756393306552
 31
0.0
  0
LINE
  5
16045
330
747D
100
AcDbEntity
  8
部品1
100
AcDbLine
 10
9466.356910799788
 20
5089.333287246994
 30
0.0
 11
9466.356910799783
 21
3057.756393306553
 31
0.0
  0
DIMENSION
  5
16046
330
747D
100
AcDbEntity
  8
寸法
100
AcDbDimension
  2
*D23
 10
8562.085099159306
 20
5232.756393306558
 30
0.0
 11
8562.085099159302
 21
4132.963383726355
 31
0.0
 70
   160
 71
     5
 42
2075.000000000003
  3
INABA_S40G
100
AcDbAlignedDimension
 13
9466.356910799783
 23
3157.756393306554
 33
0.0
 14
9406.356910799784
 24
5232.756393306558
 34
0.0
 50
90.0
100
AcDbRotatedDimension
1001
ACAD
1000
DSTYLE
1002
{
1070
   174
1070
     0
1070
   272
1070
     1
1070
   288
1070
     0
1070
   341
1005
0
1002
}
  0
DIMENSION
  5
16047
330
747D
100
AcDbEntity
  8
寸法
100
AcDbDimension
  2
*D24
 10
8864.393820107579
 20
3157.756393306554
 30
0.0
 11
8864.393820107579
 21
2851.709149212064
 31
0.0
 70
   160
 71
     5
 42
50.00000000000182
  3
INABA_S40G
100
AcDbAlignedDimension
 13
9459.354540755006
 23
3207.756393306556
 33
0.0
 14
9411.356910799783
 24
3157.756393306554
 34
0.0
 50
90.0
100
AcDbRotatedDimension
1001
ACAD
1000
DSTYLE
1002
{
1070
   174
1070
     0
1070
   272
1070
     1
1070
   288
1070
     0
1070
   341
1005
0
1002
}
  0
LINE
  5
16048
330
747D
100
AcDbEntity
  8
部品1
100
AcDbLine
 10
9941.356910799783
 20
4997.756393306552
 30
0.0
 11
9941.356910799783
 21
3207.756393306552
 31
0.0
  0
LINE
  5
16049
330
747D
100
AcDbEntity
  8
部品1
100
AcDbLine
 10
10836.35691079978
 20
5052.392974141805
 30
0.0
 11
10836.35691079978
 21
3057.756393306553
 31
0.0
  0
LINE
  5
1604A
330
747D
100
AcDbEntity
  8
部品1
100
AcDbLine
 10
10781.35691079978
 20
4997.756393306552
 30
0.0
 11
10781.35691079978
 21
3207.756393306552
 31
0.0
  0
DIMENSION
  5
1604B
330
747D
100
AcDbEntity
  8
寸法
100
AcDbDimension
  2
*D25
 10
11541.28406877191
 20
5177.756393306554
 30
0.0
 11
11441.27225774829
 21
4167.756393306556
 31
0.0
 70
    32
 71
     5
 42
2020.000000000001
  3
INABA_S40G
100
AcDbAlignedDimension
 13
10836.35691079978
 23
3157.756393306554
 33
0.0
 14
10916.35691079978
 24
5177.756393306554
 34
0.0
 50
90.0
100
AcDbRotatedDimension
1001
ACAD
1000
DSTYLE
1002
{
1070
   174
1070
     0
1070
   272
1070
     1
1070
   288
1070
     0
1070
   341
1005
0
1002
}
  0
DIMENSION
  5
1604C
330
747D
100
AcDbEntity
  8
寸法
 48
50.0
100
AcDbDimension
  2
*D26
 10
9466.356910799785
 20
5631.413846885856
 30
0.0
 11
10116.17594369033
 21
5631.413846885856
 31
0.0
 70
   160
  1
柱外寸法<>
 71
     5
 42
1370.0
  3
INABA_S40G
100
AcDbAlignedDimension
 13
10836.35691079978
 23
5179.567072918206
 33
0.0
 14
9466.356910799785
 24
5228.758011429529
 34
0.0
100
AcDbRotatedDimension
1001
ACAD
1000
DSTYLE
1002
{
1070
   174
1070
     0
1070
   272
1070
     1
1070
   288
1070
     0
1070
   341
1005
0
1002
}
  0
DIMENSION
  5
1604D
330
747D
100
AcDbEntity
  8
寸法
 48
50.0
100
AcDbDimension
  2
*D27
 10
9406.356910799784
 20
5631.413846885856
 30
0.0
 11
9096.719115524194
 21
5631.413846885856
 31
0.0
 70
   160
 71
     5
 42
60.0
  3
INABA_S40G
100
AcDbAlignedDimension
 13
9466.356910799785
 23
5228.758011429529
 33
0.0
 14
9406.356910799784
 24
5232.756393306558
 34
0.0
100
AcDbRotatedDimension
1001
ACAD
1000
DSTYLE
1002
{
1070
   174
1070
     0
1070
   272
1070
     1
1070
   288
1070
     0
1070
   341
1005
0
1002
}
  0
DIMENSION
  5
1604E
330
747D
100
AcDbEntity
  8
寸法
 48
50.0
100
AcDbDimension
  2
*D28
 10
9406.356910799784
 20
5839.58816807782
 30
0.0
 11
10133.48174050161
 21
5839.58816807782
 31
0.0
 70
   160
 71
     5
 42
1510.0
  3
INABA_S40G
100
AcDbAlignedDimension
 13
10916.35691079978
 23
5177.756393306554
 33
0.0
 14
9406.356910799784
 24
5232.756393306558
 34
0.0
100
AcDbRotatedDimension
1001
ACAD
1000
DSTYLE
1002
{
1070
   174
1070
     0
1070
   272
1070
     1
1070
   288
1070
     0
1070
   341
1005
0
1002
}
  0
LINE
  5
1604F
330
747D
100
AcDbEntity
  8
部品1
100
AcDbLine
 10
9466.356910799783
 20
3157.756393306554
 30
0.0
 11
10836.35691079978
 21
3157.756393306553
 31
0.0
  0
TEXT
  5
16050
330
747D
100
AcDbEntity
  8
部品1
100
AcDbText
 10
9869.067679109171
 20
2261.786283271311
 30
0.0
 40
135.0
  1
側面図
  7
STYLE2
100
AcDbText
  0
LWPOLYLINE
  5
16051
330
747D
100
AcDbEntity
  8
部品1
100
AcDbPolyline
 90
        4
 70
     1
 43
0.0
 10
9779.621577685565
 20
2454.679812489836
 10
9779.621577685565
 20
2214.787490944304
 10
10543.092243914
 20
2214.787490944304
 10
10543.092243914
 20
2454.679812489836
  0
LINE
  5
16052
330
747D
100
AcDbEntity
  8
細線
 48
50.0
100
AcDbLine
 10
10018.85691079978
 20
4997.756393306552
 30
0.0
 11
10018.85691079978
 21
3207.756393306552
 31
0.0
  0
LINE
  5
16053
330
747D
100
AcDbEntity
  8
細線
 48
50.0
100
AcDbLine
 10
10003.85691079978
 20
4997.756393306552
 30
0.0
 11
10003.85691079978
 21
3207.756393306552
 31
0.0
  0
LINE
  5
16054
330
747D
100
AcDbEntity
  8
細線
 48
50.0
100
AcDbLine
 10
10143.85691079978
 20
4997.756393306552
 30
0.0
 11
10143.85691079978
 21
3207.756393306552
 31
0.0
  0
LINE
  5
16055
330
747D
100
AcDbEntity
  8
細線
 48
50.0
100
AcDbLine
 10
10158.85691079978
 20
4997.756393306552
 30
0.0
 11
10158.85691079978
 21
3207.756393306552
 31
0.0
  0
LINE
  5
16056
330
747D
100
AcDbEntity
  8
細線
 48
50.0
100
AcDbLine
 10
10298.85691079978
 20
4997.756393306552
 30
0.0
 11
10298.85691079978
 21
3207.756393306552
 31
0.0
  0
LINE
  5
16057
330
747D
100
AcDbEntity
  8
細線
 48
50.0
100
AcDbLine
 10
10283.85691079978
 20
4997.756393306552
 30
0.0
 11
10283.85691079978
 21
3207.756393306552
 31
0.0
  0
LINE
  5
16058
330
747D
100
AcDbEntity
  8
細線
 48
50.0
100
AcDbLine
 10
9863.856910799782
 20
4997.756393306552
 30
0.0
 11
9863.856910799782
 21
3207.756393306552
 31
0.0
  0
LINE
  5
16059
330
747D
100
AcDbEntity
  8
細線
 48
50.0
100
AcDbLine
 10
9878.856910799783
 20
4997.756393306552
 30
0.0
 11
9878.856910799783
 21
3207.756393306552
 31
0.0
  0
LINE
  5
1605A
330
747D
100
AcDbEntity
  8
細線
 48
50.0
100
AcDbLine
 10
9738.856910799782
 20
4997.756393306552
 30
0.0
 11
9738.856910799782
 21
3207.756393306552
 31
0.0
  0
LINE
  5
1605B
330
747D
100
AcDbEntity
  8
細線
 48
50.0
100
AcDbLine
 10
9723.856910799783
 20
4997.756393306552
 30
0.0
 11
9723.856910799783
 21
3207.756393306552
 31
0.0
  0
LINE
  5
1605C
330
747D
100
AcDbEntity
  8
細線
 48
50.0
100
AcDbLine
 10
9583.856910799783
 20
4997.756393306552
 30
0.0
 11
9583.856910799783
 21
3207.756393306552
 31
0.0
  0
LINE
  5
1605D
330
747D
100
AcDbEntity
  8
細線
 48
50.0
100
AcDbLine
 10
9598.856910799783
 20
4997.756393306552
 30
0.0
 11
9598.856910799783
 21
3207.756393306552
 31
0.0
  0
LINE
  5
1605E
330
747D
100
AcDbEntity
  8
部品1
100
AcDbLine
 10
9413.901897156746
 20
5231.474128640819
 30
0.0
 11
10908.96878766124
 21
5175.807234634118
 31
0.0
  0
LINE
  5
1605F
330
747D
100
AcDbEntity
  8
部品1
100
AcDbLine
 10
9421.699475401737
 20
5090.537418375519
 30
0.0
 11
10891.02061133963
 21
5050.91903675974
 31
0.0
  0
LINE
  5
16060
330
747D
100
AcDbEntity
  8
細線
 48
50.0
100
AcDbLine
 10
9439.356910799785
 20
5230.156069681958
 30
0.0
 11
9434.067809244274
 21
5090.070437054603
 31
0.0
  0
LINE
  5
16061
330
747D
100
AcDbEntity
  8
細線
 48
50.0
100
AcDbLine
 10
10883.35691079978
 20
5177.133415960273
 30
0.0
 11
10878.60922791178
 21
5051.387643469531
 31
0.0
  0
LINE
  5
16062
330
747D
100
AcDbEntity
  8
部品1
 48
50.0
100
AcDbLine
 10
9406.541196712892
 20
5224.349939471245
 30
0.0
 11
9406.921456490703
 21
5204.422975024834
 31
0.0
  0
LINE
  5
16063
330
747D
100
AcDbEntity
  8
部品1
 48
50.0
100
AcDbLine
 10
9409.990228596948
 20
5200.847693531361
 30
0.0
 11
9411.694130088314
 21
5111.557196824715
 31
0.0
  0
LINE
  5
16064
330
747D
100
AcDbEntity
  8
細線
 48
50.0
100
AcDbLine
 10
9407.396333900598
 20
5203.773475147915
 30
0.0
 11
10913.03231864576
 21
5147.559314125512
 31
0.0
  0
LINE
  5
16065
330
747D
100
AcDbEntity
  8
細線
 48
50.0
100
AcDbLine
 10
9412.156809137883
 20
5110.911963450051
 30
0.0
 11
10902.16047356852
 21
5070.512688093982
 31
0.0
  0
LINE
  5
16066
330
747D
100
AcDbEntity
  8
部品1
 48
50.0
100
AcDbLine
 10
9414.762902194555
 20
5107.981915331242
 30
0.0
 11
9414.964854814988
 21
5097.398879938149
 31
0.0
  0
ARC
  5
16067
330
747D
100
AcDbEntity
  8
部品1
 48
50.0
100
AcDbCircle
 10
9413.539922541231
 20
5224.483493878674
 30
0.0
 40
7.0
100
AcDbArc
 50
87.03587545283228
 51
181.093224029263
  0
ARC
  5
16068
330
747D
100
AcDbEntity
  8
部品1
 48
50.0
100
AcDbCircle
 10
9421.963580643327
 20
5097.532434345578
 30
0.0
 40
7.0
100
AcDbArc
 50
181.093224029263
 51
267.8377559869492
  0
ARC
  5
16069
330
747D
100
AcDbEntity
  8
部品1
100
AcDbCircle
 10
9411.763448268123
 20
5107.924677728059
 30
0.0
 40
3.0
100
AcDbArc
 50
1.093224029263039
 51
80.18775403148449
  0
ARC
  5
1606A
330
747D
100
AcDbEntity
  8
部品1
100
AcDbCircle
 10
9406.990774670518
 20
5200.790455928178
 30
0.0
 40
3.0
100
AcDbArc
 50
1.093224029263039
 51
80.18775403169875
  0
ARC
  5
1606B
330
747D
100
AcDbEntity
  8
部品1
100
AcDbCircle
 10
9407.62132907354
 20
5204.436330465576
 30
0.0
 40
0.7
100
AcDbArc
 50
181.0932240292109
 51
260.1877540314845
  0
ARC
  5
1606C
330
747D
100
AcDbEntity
  8
部品1
100
AcDbCircle
 10
9412.394002671147
 20
5111.570552265457
 30
0.0
 40
0.7
100
AcDbArc
 50
181.0932240292109
 51
260.1877540314845
  0
LINE
  5
1606D
330
747D
100
AcDbEntity
  8
部品1
 48
50.0
100
AcDbLine
 10
10915.57081361048
 20
5168.107589199196
 30
0.0
 11
10913.54019241951
 21
5148.162547941416
 31
0.0
  0
LINE
  5
1606E
330
747D
100
AcDbEntity
  8
部品1
 48
50.0
100
AcDbLine
 10
10910.18762593503
 20
5144.851913868508
 30
0.0
 11
10902.68084667019
 21
5071.119293123494
 31
0.0
  0
LINE
  5
1606F
330
747D
100
AcDbEntity
  8
部品1
 48
50.0
100
AcDbLine
 10
10899.32828018571
 20
5067.808659050583
 30
0.0
 11
10898.24871714597
 21
5057.205042057025
 31
0.0
  0
ARC
  5
16070
330
747D
100
AcDbEntity
  8
部品1
 48
50.0
100
AcDbCircle
 10
10908.60681304573
 20
5168.81659987197
 30
0.0
 40
7.0
100
AcDbArc
 50
354.1866997664961
 51
87.03587545283228
  0
ARC
  5
16071
330
747D
100
AcDbEntity
  8
部品1
 48
50.0
100
AcDbCircle
 10
10891.28471658121
 20
5057.914052729799
 30
0.0
 40
7.0
100
AcDbArc
 50
267.8377559869492
 51
354.1866997664961
  0
ARC
  5
16072
330
747D
100
AcDbEntity
  8
部品1
100
AcDbCircle
 10
10902.31285185631
 20
5067.50479733368
 30
0.0
 40
3.0
100
AcDbArc
 50
95.09216976420788
 51
174.186699766496
  0
ARC
  5
16073
330
747D
100
AcDbEntity
  8
部品1
100
AcDbCircle
 10
10913.17219760564
 20
5144.548052151604
 30
0.0
 40
3.0
100
AcDbArc
 50
95.09216976420788
 51
174.186699766496
  0
ARC
  5
16074
330
747D
100
AcDbEntity
  8
部品1
100
AcDbCircle
 10
10912.84379236304
 20
5148.233449008694
 30
0.0
 40
0.7
100
AcDbArc
 50
275.0921697642079
 51
354.1866997664961
  0
ARC
  5
16075
330
747D
100
AcDbEntity
  8
部品1
100
AcDbCircle
 10
10901.98444661372
 20
5071.190194190771
 30
0.0
 40
0.7
100
AcDbArc
 50
275.0921697642079
 51
354.1866997667061
  0
DIMENSION
  5
16076
330
747D
100
AcDbEntity
  8
寸法
 48
50.0
100
AcDbDimension
  2
*D29
 10
10916.35691079978
 20
5631.413846885856
 30
0.0
 11
11122.40415489427
 21
5631.413846885856
 31
0.0
 70
   160
 71
     5
 42
80.0
  3
INABA_S40G
100
AcDbAlignedDimension
 13
10836.35691079978
 23
5179.567072918206
 33
0.0
 14
10916.35691079978
 24
5177.756393306554
 34
0.0
100
AcDbRotatedDimension
1001
ACAD
1000
DSTYLE
1002
{
1070
   174
1070
     0
1070
   272
1070
     1
1070
   288
1070
     0
1070
   341
1005
0
1002
}
  0
DIMENSION
  5
16077
330
747D
100
AcDbEntity
  8
寸法
 48
50.0
100
AcDbDimension
  2
*D30
 10
8814.090659088405
 20
5254.578884203367
 30
0.0
 11
8822.768402740294
 21
5484.415123220259
 31
0.0
 70
   160
 71
     5
 42
141.0
  3
INABA_S40G
100
AcDbAlignedDimension
 13
9421.699475401737
 23
5090.537418375519
 33
0.0
 14
9427.019309553692
 24
5231.437025772402
 34
0.0
 50
87.83775598715743
100
AcDbRotatedDimension
1001
ACAD
1000
DSTYLE
1002
{
1070
   174
1070
     0
1070
   272
1070
     1
1070
   288
1070
     0
1070
   341
1005
0
1002
}
  0
LINE
  5
16078
330
747D
100
AcDbEntity
  8
部品1
 48
50.0
100
AcDbLine
 10
10011.35691079978
 20
5363.624532407832
 30
0.0
 11
10311.35691079978
 21
5363.624532407832
 31
0.0
  0
LINE
  5
16079
330
747D
100
AcDbEntity
  8
部品1
 48
50.0
100
AcDbLine
 10
10311.35691079978
 20
5363.624532407832
 30
0.0
 11
10311.35691079978
 21
5342.024532407833
 31
0.0
  0
TEXT
  5
1607A
330
747D
100
AcDbEntity
  8
部品1
 48
50.0
100
AcDbText
 10
9999.624746023513
 20
5399.508554560265
 30
0.0
 40
120.0
  1
1000
  7
STYLE1
100
AcDbText
  0
TEXT
  5
1607B
330
747D
100
AcDbEntity
  8
部品1
 48
50.0
100
AcDbText
 10
10488.44975808764
 20
5262.007296341983
 30
0.0
 40
120.0
  1
71
 50
90.0
  7
STYLE1
100
AcDbText
  0
LINE
  5
1607C
330
747D
100
AcDbEntity
  8
部品1
100
AcDbLine
 10
10361.35691079978
 20
4997.756393306552
 30
0.0
 11
10361.35691079978
 21
3207.756393306552
 31
0.0
  0
LINE
  5
1607D
330
747D
100
AcDbEntity
  8
細線
 48
50.0
100
AcDbLine
 10
10703.85691079978
 20
4997.756393306552
 30
0.0
 11
10703.85691079978
 21
3207.756393306552
 31
0.0
  0
LINE
  5
1607E
330
747D
100
AcDbEntity
  8
細線
 48
50.0
100
AcDbLine
 10
10718.85691079978
 20
4997.756393306552
 30
0.0
 11
10718.85691079978
 21
3207.756393306552
 31
0.0
  0
LINE
  5
1607F
330
747D
100
AcDbEntity
  8
細線
 48
50.0
100
AcDbLine
 10
10578.85691079978
 20
4997.756393306552
 30
0.0
 11
10578.85691079978
 21
3207.756393306552
 31
0.0
  0
LINE
  5
16080
330
747D
100
AcDbEntity
  8
細線
 48
50.0
100
AcDbLine
 10
10563.85691079978
 20
4997.756393306552
 30
0.0
 11
10563.85691079978
 21
3207.756393306552
 31
0.0
  0
LINE
  5
16081
330
747D
100
AcDbEntity
  8
細線
 48
50.0
100
AcDbLine
 10
10423.85691079978
 20
4997.756393306552
 30
0.0
 11
10423.85691079978
 21
3207.756393306552
 31
0.0
  0
LINE
  5
16082
330
747D
100
AcDbEntity
  8
細線
 48
50.0
100
AcDbLine
 10
10438.85691079978
 20
4997.756393306552
 30
0.0
 11
10438.85691079978
 21
3207.756393306552
 31
0.0
  0
LINE
  5
16083
330
747D
100
AcDbEntity
  8
部品1
 48
50.0
100
AcDbLine
 10
10011.35691079978
 20
5363.624532407832
 30
0.0
 11
10311.35691079978
 21
5342.024532407833
 31
0.0
  0
LINE
  5
1648D
330
747D
100
AcDbEntity
  8
破線
 48
10.0
100
AcDbLine
 10
5495.985611427218
 20
8692.045060745604
 30
0.0
 11
6203.984995864502
 21
8692.045031521152
 31
0.0
  0
LINE
  5
1648E
330
747D
100
AcDbEntity
  8
破線
 48
10.0
100
AcDbLine
 10
5495.985611427218
 20
8642.045060745605
 30
0.0
 11
6203.984995864502
 21
8642.045031521153
 31
0.0
  0
LINE
  5
1648F
330
747D
100
AcDbEntity
  8
破線
 48
10.0
100
AcDbLine
 10
6315.985611427218
 20
8692.045060745604
 30
0.0
 11
7023.984995864502
 21
8692.045031521152
 31
0.0
  0
LINE
  5
16490
330
747D
100
AcDbEntity
  8
破線
 48
10.0
100
AcDbLine
 10
6315.985611427218
 20
8642.045060745605
 30
0.0
 11
7023.984995864502
 21
8642.045031521153
 31
0.0
  0
LINE
  5
16491
330
747D
100
AcDbEntity
  8
破線
 48
10.0
100
AcDbLine
 10
5519.485046127442
 20
8642.045059775604
 30
0.0
 11
5519.484998239395
 21
8099.545031521135
 31
0.0
  0
LINE
  5
16492
330
747D
100
AcDbEntity
  8
破線
 48
10.0
100
AcDbLine
 10
6180.484991509181
 20
8692.045032491177
 30
0.0
 11
6180.484989884842
 21
8835.045031521225
 31
0.0
  0
LINE
  5
16493
330
747D
100
AcDbEntity
  8
破線
 48
10.0
100
AcDbLine
 10
6338.484988225209
 20
8692.045025969328
 30
0.0
 11
6338.484985808285
 21
8835.045031521174
 31
0.0
  0
LINE
  5
16494
330
747D
100
AcDbEntity
  8
破線
 48
10.0
100
AcDbLine
 10
6999.485046127412
 20
8642.044998684891
 30
0.0
 11
6999.48499823939
 21
8099.545031521218
 31
0.0
  0
LINE
  5
16496
330
747D
100
AcDbEntity
  8
寸法
 48
50.0
100
AcDbLine
 10
7135.690678565406
 20
8419.545031521094
 30
0.0
 11
7135.690678565406
 21
8419.545031521094
 31
0.0
  0
TEXT
  5
165A9
330
747D
100
AcDbEntity
  8
文字
 62
     7
 48
50.0
100
AcDbText
 10
15022.63965474517
 20
10930.01374588372
 30
0.0
 40
100.0
  1
F12            1.2
  7
STYLE1
100
AcDbText
  0
TEXT
  5
165AA
330
747D
100
AcDbEntity
  8
文字
 62
     7
 48
50.0
100
AcDbText
 10
13583.11819016569
 20
10930.01374588373
 30
0.0
 40
100.0
  1
根太
  7
STYLE1
100
AcDbText
  0
TEXT
  5
165AB
330
747D
100
AcDbEntity
  8
文字
 62
     7
 48
50.0
100
AcDbText
 10
13248.77747366447
 20
8720.013745883735
 30
0.0
 40
100.0
  1
15
  7
STYLE1
100
AcDbText
  0
LINE
  5
165AC
330
747D
100
AcDbEntity
  8
仕様書枠
 48
50.0
100
AcDbLine
 10
16307.2
 20
10899.6
 30
0.0
 11
13127.2
 21
10899.6
 31
0.0
  0
TEXT
  5
165AD
330
747D
100
AcDbEntity
  8
文字
 62
     7
 48
50.0
100
AcDbText
 10
13583.1181901657
 20
9740.013745883729
 30
0.0
 40
100.0
  1
梁中央
 41
0.9
  7
STYLE1
100
AcDbText
  0
TEXT
  5
165AE
330
747D
100
AcDbEntity
  8
文字
 62
     7
 48
50.0
100
AcDbText
 10
15022.63965474517
 20
9740.013745883729
 30
0.0
 40
100.0
  1
F12,Y10       0.7+1.0
  7
STYLE1
100
AcDbText
  0
TEXT
  5
165AF
330
747D
100
AcDbEntity
  8
文字
 62
     7
 48
50.0
100
AcDbText
 10
13583.11819016567
 20
8720.013745883729
 30
0.0
 40
100.0
  1
アンカープレート
  7
STYLE1
100
AcDbText
  0
TEXT
  5
165B0
330
747D
100
AcDbEntity
  8
文字
 62
     7
 48
50.0
100
AcDbText
 10
15022.63965474513
 20
8720.013745883722
 30
0.0
 40
100.0
  1
F12            2.3
  7
STYLE1
100
AcDbText
  0
LINE
  5
165B1
330
747D
100
AcDbEntity
  8
仕様書枠
 48
50.0
100
AcDbLine
 10
16307.2
 20
9879.600000000001
 30
0.0
 11
13127.2
 21
9879.600000000001
 31
0.0
  0
LINE
  5
165B3
330
747D
100
AcDbEntity
  8
仕様書枠
 48
50.0
100
AcDbLine
 10
16307.19999999999
 20
8349.600000000007
 30
0.0
 11
16307.2
 21
11409.6
 31
0.0
  0
LINE
  5
165B4
330
747D
100
AcDbEntity
  8
仕様書枠
 48
50.0
100
AcDbLine
 10
14785.2
 20
11409.59999999999
 30
0.0
 11
14785.19999999999
 21
8689.6
 31
0.0
  0
LINE
  5
165B5
330
747D
100
AcDbEntity
  8
仕様書枠
 48
50.0
100
AcDbLine
 10
13490.2
 20
11409.6
 30
0.0
 11
13490.2
 21
8689.600000000003
 31
0.0
  0
LINE
  5
165B6
330
747D
100
AcDbEntity
  8
仕様書枠
 48
50.0
100
AcDbLine
 10
16307.19999999999
 20
11239.6
 30
0.0
 11
13127.2
 21
11239.6
 31
0.0
  0
LINE
  5
165B7
330
747D
100
AcDbEntity
  8
仕様書枠
 48
50.0
100
AcDbLine
 10
16307.2
 20
10729.6
 30
0.0
 11
13127.2
 21
10729.6
 31
0.0
  0
LINE
  5
165B8
330
747D
100
AcDbEntity
  8
仕様書枠
 48
50.0
100
AcDbLine
 10
16307.19999999999
 20
11069.6
 30
0.0
 11
13127.2
 21
11069.6
 31
0.0
  0
LINE
  5
165B9
330
747D
100
AcDbEntity
  8
仕様書枠
 48
50.0
100
AcDbLine
 10
16307.19999999999
 20
10389.6
 30
0.0
 11
13127.2
 21
10389.6
 31
0.0
  0
LINE
  5
165BA
330
747D
100
AcDbEntity
  8
仕様書枠
 48
50.0
100
AcDbLine
 10
16307.19999999999
 20
10219.6
 30
0.0
 11
13127.2
 21
10219.6
 31
0.0
  0
LINE
  5
165BB
330
747D
100
AcDbEntity
  8
仕様書枠
 48
50.0
100
AcDbLine
 10
16307.19999999999
 20
10559.6
 30
0.0
 11
13127.2
 21
10559.6
 31
0.0
  0
TEXT
  5
165BC
330
747D
100
AcDbEntity
  8
文字
 62
     7
 48
50.0
100
AcDbText
 10
13197.42518560407
 20
11270.01374588373
 30
0.0
 40
100.0
  1
品番
  7
STYLE1
100
AcDbText
  0
TEXT
  5
165BD
330
747D
100
AcDbEntity
  8
文字
 62
     7
 48
50.0
100
AcDbText
 10
13271.19032244792
 20
11100.01374588373
 30
0.0
 40
100.0
  1
1
  7
STYLE1
100
AcDbText
  0
TEXT
  5
165BE
330
747D
100
AcDbEntity
  8
文字
 62
     7
 48
50.0
100
AcDbText
 10
13271.19032244792
 20
10930.01374588373
 30
0.0
 40
100.0
  1
2
  7
STYLE1
100
AcDbText
  0
TEXT
  5
165BF
330
747D
100
AcDbEntity
  8
文字
 62
     7
 48
50.0
100
AcDbText
 10
13271.19032244793
 20
10590.01374588373
 30
0.0
 40
100.0
  1
4
  7
STYLE1
100
AcDbText
  0
TEXT
  5
165C0
330
747D
100
AcDbEntity
  8
文字
 62
     7
 48
50.0
100
AcDbText
 10
13271.19032244793
 20
10760.01374588373
 30
0.0
 40
100.0
  1
3
  7
STYLE1
100
AcDbText
  0
TEXT
  5
165C1
330
747D
100
AcDbEntity
  8
文字
 62
     7
 48
50.0
100
AcDbText
 10
13732.03840939434
 20
11270.01374588373
 30
0.0
 40
100.0
  1
部　　品　　名
  7
STYLE1
100
AcDbText
  0
TEXT
  5
165C2
330
747D
100
AcDbEntity
  8
文字
 62
     7
 48
50.0
100
AcDbText
 10
14859.79774614482
 20
11270.01374588373
 30
0.0
 40
100.0
  1
材料（材質）　　単位mm
  7
STYLE1
100
AcDbText
  0
TEXT
  5
165C3
330
747D
100
AcDbEntity
  8
文字
 62
     7
 48
50.0
100
AcDbText
 10
13583.11819016569
 20
11100.01374588373
 30
0.0
 40
100.0
  1
土台枠
  7
STYLE1
100
AcDbText
  0
TEXT
  5
165C4
330
747D
100
AcDbEntity
  8
文字
 62
     7
 48
50.0
100
AcDbText
 10
13583.1181901657
 20
10760.01374588373
 30
0.0
 40
100.0
  1
柱
  7
STYLE1
100
AcDbText
  0
TEXT
  5
165C5
330
747D
100
AcDbEntity
  8
文字
 62
     7
 48
50.0
100
AcDbText
 10
13583.1181901657
 20
10420.01374588373
 30
0.0
 40
100.0
  1
鴨居
  7
STYLE1
100
AcDbText
  0
TEXT
  5
165C6
330
747D
100
AcDbEntity
  8
文字
 62
     7
 48
50.0
100
AcDbText
 10
13583.1181901657
 20
10250.01374588373
 30
0.0
 40
100.0
  1
桁後
  7
STYLE1
100
AcDbText
  0
TEXT
  5
165C7
330
747D
100
AcDbEntity
  8
文字
 62
     7
 48
50.0
100
AcDbText
 10
13271.19032244793
 20
10420.01374588373
 30
0.0
 40
100.0
  1
5
  7
STYLE1
100
AcDbText
  0
TEXT
  5
165C8
330
747D
100
AcDbEntity
  8
文字
 62
     7
 48
50.0
100
AcDbText
 10
13583.1181901657
 20
10080.01374588373
 30
0.0
 40
100.0
  1
妻板左右
  7
STYLE1
100
AcDbText
  0
TEXT
  5
165C9
330
747D
100
AcDbEntity
  8
文字
 62
     7
 48
50.0
100
AcDbText
 10
13248.77747366447
 20
9570.013745883729
 30
0.0
 40
100.0
  1
10
  7
STYLE1
100
AcDbText
  0
TEXT
  5
165CA
330
747D
100
AcDbEntity
  8
文字
 62
     7
 48
50.0
100
AcDbText
 10
13583.11819016568
 20
9230.013745883729
 30
0.0
 40
100.0
  1
壁パネル
  7
STYLE1
100
AcDbText
  0
TEXT
  5
165CB
330
747D
100
AcDbEntity
  8
文字
 62
     7
 48
50.0
100
AcDbText
 10
13583.11819016569
 20
9400.013745883729
 30
0.0
 40
100.0
  1
屋根パネル
  7
STYLE1
100
AcDbText
  0
TEXT
  5
165CC
330
747D
100
AcDbEntity
  8
文字
 62
     7
 48
50.0
100
AcDbText
 10
13583.1181901657
 20
9910.01374588373
 30
0.0
 40
100.0
  1
鼻隠シ前後
  7
STYLE1
100
AcDbText
  0
TEXT
  5
165CD
330
747D
100
AcDbEntity
  8
文字
 62
     7
 48
50.0
100
AcDbText
 10
13271.19032244792
 20
9910.01374588373
 30
0.0
 40
100.0
  1
8
  7
STYLE1
100
AcDbText
  0
TEXT
  5
165CE
330
747D
100
AcDbEntity
  8
文字
 62
     7
 48
50.0
100
AcDbText
 10
13271.19032244792
 20
9740.013745883729
 30
0.0
 40
100.0
  1
9
  7
STYLE1
100
AcDbText
  0
TEXT
  5
165CF
330
747D
100
AcDbEntity
  8
文字
 62
     7
 48
50.0
100
AcDbText
 10
13271.19032244792
 20
10080.01374588373
 30
0.0
 40
100.0
  1
7
  7
STYLE1
100
AcDbText
  0
TEXT
  5
165D0
330
747D
100
AcDbEntity
  8
文字
 62
     7
 48
50.0
100
AcDbText
 10
13271.19032244793
 20
10250.01374588373
 30
0.0
 40
100.0
  1
6
  7
STYLE1
100
AcDbText
  0
LINE
  5
165D1
330
747D
100
AcDbEntity
  8
仕様書枠
 48
50.0
100
AcDbLine
 10
16307.19999999998
 20
9369.600000000001
 30
0.0
 11
13127.19999999999
 21
9369.600000000001
 31
0.0
  0
LINE
  5
165D2
330
747D
100
AcDbEntity
  8
仕様書枠
 48
50.0
100
AcDbLine
 10
16307.19999999998
 20
9029.6
 30
0.0
 11
13127.19999999999
 21
9029.6
 31
0.0
  0
LINE
  5
165D3
330
747D
100
AcDbEntity
  8
仕様書枠
 48
50.0
100
AcDbLine
 10
16307.19999999998
 20
9199.600000000001
 30
0.0
 11
13127.19999999999
 21
9199.600000000001
 31
0.0
  0
LINE
  5
165D4
330
747D
100
AcDbEntity
  8
仕様書枠
 48
50.0
100
AcDbLine
 10
16307.2
 20
10049.6
 30
0.0
 11
13127.2
 21
10049.6
 31
0.0
  0
LINE
  5
165D5
330
747D
100
AcDbEntity
  8
仕様書枠
 48
50.0
100
AcDbLine
 10
16307.2
 20
9709.600000000001
 30
0.0
 11
13127.2
 21
9709.600000000001
 31
0.0
  0
TEXT
  5
165D6
330
747D
100
AcDbEntity
  8
文字
 62
     7
 48
50.0
100
AcDbText
 10
13248.77747366447
 20
9400.013745883729
 30
0.0
 40
100.0
  1
11
  7
STYLE1
100
AcDbText
  0
LINE
  5
165D7
330
747D
100
AcDbEntity
  8
仕様書枠
 48
50.0
100
AcDbLine
 10
16307.19999999998
 20
8859.6
 30
0.0
 11
13127.19999999999
 21
8859.6
 31
0.0
  0
LINE
  5
165D8
330
747D
100
AcDbEntity
  8
仕様書枠
 48
50.0
100
AcDbLine
 10
16307.19999999998
 20
8519.600000000002
 30
0.0
 11
13127.19999999999
 21
8519.600000000004
 31
0.0
  0
TEXT
  5
165D9
330
747D
100
AcDbEntity
  8
文字
 62
     7
 48
50.0
100
AcDbText
 10
13248.77747366447
 20
9060.013745883729
 30
0.0
 40
100.0
  1
13
  7
STYLE1
100
AcDbText
  0
TEXT
  5
165DA
330
747D
100
AcDbEntity
  8
文字
 62
     7
 48
50.0
100
AcDbText
 10
13248.77747366447
 20
9230.013745883729
 30
0.0
 40
100.0
  1
12
  7
STYLE1
100
AcDbText
  0
TEXT
  5
165DB
330
747D
100
AcDbEntity
  8
文字
 62
     7
 48
50.0
100
AcDbText
 10
15022.63965474517
 20
11100.01374588372
 30
0.0
 40
100.0
  1
F12            1.2
  7
STYLE1
100
AcDbText
  0
TEXT
  5
165DC
330
747D
100
AcDbEntity
  8
文字
 62
     7
 48
50.0
100
AcDbText
 10
15022.63965474518
 20
10760.01374588372
 30
0.0
 40
100.0
  1
F12            1.0
  7
STYLE1
100
AcDbText
  0
TEXT
  5
165DD
330
747D
100
AcDbEntity
  8
文字
 62
     7
 48
50.0
100
AcDbText
 10
15022.63965474517
 20
10420.01374588372
 30
0.0
 40
100.0
  1
Y10            1.0
  7
STYLE1
100
AcDbText
  0
TEXT
  5
165DE
330
747D
100
AcDbEntity
  8
文字
 62
     7
 48
50.0
100
AcDbText
 10
15022.63965474517
 20
10250.01374588372
 30
0.0
 40
100.0
  1
Y10            1.0
  7
STYLE1
100
AcDbText
  0
TEXT
  5
165DF
330
747D
100
AcDbEntity
  8
文字
 62
     7
 48
50.0
100
AcDbText
 10
15022.63965474517
 20
10080.01374588372
 30
0.0
 40
100.0
  1
Y10            0.7
  7
STYLE1
100
AcDbText
  0
TEXT
  5
165E0
330
747D
100
AcDbEntity
  8
文字
 62
     7
 48
50.0
100
AcDbText
 10
15022.63965474517
 20
9910.013745883725
 30
0.0
 40
100.0
  1
Y10            0.7
  7
STYLE1
100
AcDbText
  0
TEXT
  5
165E1
330
747D
100
AcDbEntity
  8
文字
 62
     7
 48
50.0
100
AcDbText
 10
15022.63965474516
 20
9400.013745883725
 30
0.0
 40
100.0
  1
Y10            0.5
  7
STYLE1
100
AcDbText
  0
TEXT
  5
165E2
330
747D
100
AcDbEntity
  8
文字
 62
     7
 48
50.0
100
AcDbText
 10
15022.63965474515
 20
9230.013745883725
 30
0.0
 40
100.0
  1
F12            0.6
  7
STYLE1
100
AcDbText
  0
LINE
  5
165E3
330
747D
100
AcDbEntity
  8
仕様書枠
 48
50.0
100
AcDbLine
 10
16307.19999999998
 20
8349.600000000004
 30
0.0
 11
13127.19999999999
 21
8349.600000000004
 31
0.0
  0
TEXT
  5
165E4
330
747D
100
AcDbEntity
  8
文字
 62
     7
 48
50.0
100
AcDbText
 10
13229.83081656553
 20
8550.013745883729
 30
0.0
 40
100.0
  1
F12→溶融亜鉛めっき鋼板(JIS G 3302)
  7
STYLE1
100
AcDbText
  0
TEXT
  5
165E5
330
747D
100
AcDbEntity
  8
文字
 62
     7
 48
50.0
100
AcDbText
 10
13229.83081656553
 20
8380.013745883728
 30
0.0
 40
100.0
  1
Y10→溶融亜鉛-5％アルミニウム合金めっき鋼板(JIS G 3317)
 41
0.9
  7
STYLE1
100
AcDbText
  0
LINE
  5
165E6
330
747D
100
AcDbEntity
  8
仕様書枠
 48
50.0
100
AcDbLine
 10
13127.2
 20
11409.6
 30
0.0
 11
13127.19999999999
 21
8349.600000000004
 31
0.0
  0
LINE
  5
165E7
330
747D
100
AcDbEntity
  8
仕様書枠
 48
50.0
100
AcDbLine
 10
16307.19999999998
 20
8689.6
 30
0.0
 11
13127.19999999999
 21
8689.600000000003
 31
0.0
  0
TEXT
  5
165E8
330
747D
100
AcDbEntity
  8
文字
 62
     7
 48
50.0
100
AcDbText
 10
13583.1181901657
 20
10590.01374588373
 30
0.0
 40
100.0
  1
床パネル
 41
0.9
  7
STYLE1
100
AcDbText
  0
TEXT
  5
165E9
330
747D
100
AcDbEntity
  8
文字
 62
     7
 48
50.0
100
AcDbText
 10
15022.63965474517
 20
10590.01374588372
 30
0.0
 40
100.0
  1
F12            1.0
  7
STYLE1
100
AcDbText
  0
TEXT
  5
165EA
330
747D
100
AcDbEntity
  8
文字
 62
     7
 48
50.0
100
AcDbText
 10
15022.63965474515
 20
9060.013745883725
 30
0.0
 40
100.0
  1
F12            0.8
  7
STYLE1
100
AcDbText
  0
TEXT
  5
165EB
330
747D
100
AcDbEntity
  8
文字
 62
     7
 48
50.0
100
AcDbText
 10
13583.11819016568
 20
9060.013745883729
 30
0.0
 40
100.0
  1
扉
  7
STYLE1
100
AcDbText
  0
TEXT
  5
165EC
330
747D
100
AcDbEntity
  8
文字
 62
     7
 48
50.0
100
AcDbText
 10
15022.63965474515
 20
8890.013745883729
 30
0.0
 40
100.0
  1
F12            0.6
  7
STYLE1
100
AcDbText
  0
TEXT
  5
165ED
330
747D
100
AcDbEntity
  8
文字
 62
     7
 48
50.0
100
AcDbText
 10
13583.11819016568
 20
8890.013745883733
 30
0.0
 40
100.0
  1
棚板
  7
STYLE1
100
AcDbText
  0
LINE
  5
165EE
330
747D
100
AcDbEntity
  8
仕様書枠
 48
50.0
100
AcDbLine
 10
16307.2
 20
9539.6
 30
0.0
 11
13127.2
 21
9539.6
 31
0.0
  0
TEXT
  5
165EF
330
747D
100
AcDbEntity
  8
文字
 62
     7
 48
50.0
100
AcDbText
 10
13248.77747366447
 20
8890.013745883731
 30
0.0
 40
100.0
  1
14
  7
STYLE1
100
AcDbText
  0
TEXT
  5
165F0
330
747D
100
AcDbEntity
  8
文字
 62
     7
 48
50.0
100
AcDbText
 10
15022.63965474518
 20
9570.013745883725
 30
0.0
 40
100.0
  1
F12            1.0
  7
STYLE1
100
AcDbText
  0
TEXT
  5
165F1
330
747D
100
AcDbEntity
  8
文字
 62
     7
 48
50.0
100
AcDbText
 10
13583.1181901657
 20
9570.013745883729
 30
0.0
 40
100.0
  1
母屋中
  7
STYLE1
100
AcDbText
  0
LINE
  5
16663
330
747D
100
AcDbEntity
  8
細線
 48
50.0
100
AcDbLine
 10
5575.984998239403
 20
7970.545031522957
 30
0.0
 11
5575.984998239403
 21
7944.54503152291
 31
0.0
  0
LINE
  5
16664
330
747D
100
AcDbEntity
  8
細線
 48
50.0
100
AcDbLine
 10
5818.484998239402
 20
7970.545031522947
 30
0.0
 11
5818.484998239402
 21
7944.54503152291
 31
0.0
  0
LINE
  5
16665
330
747D
100
AcDbEntity
  8
細線
 48
50.0
100
AcDbLine
 10
5778.484998239402
 20
7970.545031522947
 30
0.0
 11
5778.484998239402
 21
7944.54503152291
 31
0.0
  0
LINE
  5
1666F
330
747D
100
AcDbEntity
  8
細線
 48
50.0
100
AcDbLine
 10
6395.984998239405
 20
7970.545031521703
 30
0.0
 11
6395.984998239405
 21
7944.545031521657
 31
0.0
  0
LINE
  5
16670
330
747D
100
AcDbEntity
  8
細線
 48
50.0
100
AcDbLine
 10
6638.484998239404
 20
7970.545031521694
 30
0.0
 11
6638.484998239404
 21
7944.545031521657
 31
0.0
  0
LINE
  5
16671
330
747D
100
AcDbEntity
  8
細線
 48
50.0
100
AcDbLine
 10
6598.484998239404
 20
7970.545031521694
 30
0.0
 11
6598.484998239404
 21
7944.545031521657
 31
0.0
  0
LWPOLYLINE
  5
166F4
330
747D
100
AcDbEntity
  8
細線
  6
Continuous
370
    15
100
AcDbPolyline
 90
        3
 70
   128
 43
0.0
 10
5534.898224843861
 20
4075.269924991431
 10
5534.969810022237
 20
4075.245665901007
 10
5534.985009206654
 20
4075.242983691993
  0
ARC
  5
166F5
330
747D
100
AcDbEntity
  8
細線
  6
Continuous
370
    15
100
AcDbCircle
 10
5531.484997340965
 20
4068.256350713886
 30
0.0
 40
7.799999999999959
100
AcDbArc
 50
64.04961909222373
 51
115.6437752580401
  0
LWPOLYLINE
  5
166F6
330
747D
100
AcDbEntity
  8
細線
  6
Continuous
370
    15
100
AcDbPolyline
 90
        3
 70
   128
 43
0.0
 10
5527.98500992191
 20
4075.258540504279
 10
5528.037640823247
 20
4075.264202945533
 10
5528.109345210912
 20
4075.288044803443
  0
SPLINE
  5
166F7
330
747D
100
AcDbEntity
  8
細線
  6
Continuous
370
    15
100
AcDbSpline
210
0.0
220
0.0
230
1.0
 70
     8
 71
     3
 72
     9
 73
     5
 74
     0
 42
0.000000001
 43
0.0000000001
 40
0.0
 40
0.0
 40
0.0
 40
0.0
 40
0.7237658969060897
 40
1.0
 40
1.0
 40
1.0
 40
1.0
 10
5513.389918578984
 20
4102.568137042823
 30
0.0
 10
5513.585660075906
 20
4102.796818485034
 30
0.0
 10
5513.856108708211
 20
4103.112778995449
 30
0.0
 10
5513.893640953923
 20
4103.671793429328
 30
0.0
 10
5513.904008640172
 20
4103.826212280097
 30
0.0
  0
SPLINE
  5
166F8
330
747D
100
AcDbEntity
  8
細線
  6
Continuous
370
    15
100
AcDbSpline
210
0.0
220
0.0
230
1.0
 70
     8
 71
     3
 72
     9
 73
     5
 74
     0
 42
0.000000001
 43
0.0000000001
 40
0.0
 40
0.0
 40
0.0
 40
0.0
 40
0.1817420378681831
 40
1.0
 40
1.0
 40
1.0
 40
1.0
 10
5513.898793233754
 20
4184.794771068396
 30
0.0
 10
5513.891797569252
 20
4184.88928553481
 30
0.0
 10
5513.853305294199
 20
4185.409332891651
 30
0.0
 10
5513.598453273814
 20
4185.703687040297
 30
0.0
 10
5513.389918578984
 20
4185.944544666114
 30
0.0
  0
LINE
  5
166F9
330
747D
100
AcDbEntity
  8
細線
  6
Continuous
370
    15
100
AcDbLine
 10
5539.073202384831
 20
4180.506693713965
 30
0.0
 11
5539.073202384831
 21
4108.005987994971
 31
0.0
  0
LINE
  5
166FA
330
747D
100
AcDbEntity
  8
細線
  6
Continuous
370
    15
100
AcDbLine
 10
5533.635351432683
 20
4102.568137042823
 30
0.0
 11
5513.389918578984
 21
4102.568137042823
 31
0.0
  0
ELLIPSE
  5
166FB
330
747D
100
AcDbEntity
  8
細線
  6
Continuous
370
    15
100
AcDbEllipse
 10
5508.584997340999
 20
4103.717273244359
 30
0.0
 11
5.399999999999976
 21
0.0
 31
0.0
210
0.0
220
0.0
230
1.0
 40
0.4663076581550023
 41
5.04728513882407
 42
5.809296398627029
  0
LINE
  5
166FC
330
747D
100
AcDbEntity
  8
細線
  6
Continuous
370
    15
100
AcDbLine
 10
5510.35982705486
 20
4101.339089267554
 30
0.0
 11
5508.585009349705
 21
4101.339089267554
 31
0.0
  0
LINE
  5
166FD
330
747D
100
AcDbEntity
  8
細線
  6
Continuous
370
    15
100
AcDbLine
 10
5508.585009349705
 20
4187.173592441382
 30
0.0
 11
5510.35982705486
 21
4187.173592441382
 31
0.0
  0
ELLIPSE
  5
166FE
330
747D
100
AcDbEntity
  8
細線
  6
Continuous
370
    15
100
AcDbEllipse
 10
5508.584997340999
 20
4184.795428183397
 30
0.0
 11
5.399999999999976
 21
0.0
 31
0.0
210
0.0
220
0.0
230
1.0
 40
0.4663076581550023
 41
0.4738889085525403
 42
1.235900168355494
  0
LINE
  5
166FF
330
747D
100
AcDbEntity
  8
細線
  6
Continuous
370
    15
100
AcDbLine
 10
5513.389918578984
 20
4185.944544666114
 30
0.0
 11
5533.635351432683
 21
4185.944544666114
 31
0.0
  0
ELLIPSE
  5
16700
330
747D
100
AcDbEntity
  8
細線
  6
Continuous
370
    15
100
AcDbEllipse
 10
5508.584997340999
 20
4183.863463483112
 30
0.0
 11
0.0
 21
-3.310133756887523
 31
0.0
210
0.0
220
0.0
230
1.0
 40
0.9063077870366367
 41
3.141592653589783
 42
4.712388980384702
  0
ELLIPSE
  5
16701
330
747D
100
AcDbEntity
  8
細線
  6
Continuous
370
    15
100
AcDbEllipse
 10
5508.584997340999
 20
4104.649237944658
 30
0.0
 11
0.0
 21
-3.310133756887466
 31
0.0
210
0.0
220
0.0
230
1.0
 40
0.9063077870366523
 41
4.712388980384702
 42
6.283185307179586
  0
ARC
  5
16702
330
747D
100
AcDbEntity
  8
細線
  6
Continuous
370
    15
100
AcDbCircle
 10
5531.484997340965
 20
4068.256350713886
 30
0.0
 40
7.499999999999996
100
AcDbArc
 50
120.3006176375393
 51
59.69938236246067
  0
SPLINE
  5
16703
330
747D
100
AcDbEntity
  8
細線
  6
Continuous
370
    15
100
AcDbSpline
210
0.0
220
0.0
230
1.0
 70
    24
 71
     3
 72
     9
 73
     5
 74
     0
 42
0.000000001
 43
0.0000000001
 40
0.0
 40
0.0
 40
0.0
 40
0.0
 40
0.8663703693180105
 40
1.0
 40
1.0
 40
1.0
 40
1.0
 10
5527.98500992191
 20
4075.06571947843
 30
0.0
 10
5527.98500992191
 20
4075.013347918242
 30
0.0
 10
5527.98500992191
 20
4074.952898528429
 30
0.0
 10
5527.98500992191
 20
4074.897050680419
 30
0.0
 10
5527.98500992191
 20
4074.889587753119
 30
0.0
  0
LINE
  5
16704
330
747D
100
AcDbEntity
  8
細線
  6
Continuous
370
    15
100
AcDbLine
 10
5527.98500992191
 20
4074.889587753119
 30
0.0
 11
5527.700963987233
 21
4074.731754653754
 31
0.0
  0
LINE
  5
16705
330
747D
100
AcDbEntity
  8
細線
  6
Continuous
370
    15
100
AcDbLine
 10
5535.269025339009
 20
4074.731754653754
 30
0.0
 11
5534.985009206654
 21
4074.889587753119
 31
0.0
  0
SPLINE
  5
16706
330
747D
100
AcDbEntity
  8
細線
  6
Continuous
370
    15
100
AcDbSpline
210
0.0
220
0.0
230
1.0
 70
    24
 71
     3
 72
     9
 73
     5
 74
     0
 42
0.000000001
 43
0.0000000001
 40
0.0
 40
0.0
 40
0.0
 40
0.0
 40
0.8651188723649402
 40
1.0
 40
1.0
 40
1.0
 40
1.0
 10
5534.985009206654
 20
4074.889587753119
 30
0.0
 10
5534.985009206654
 20
4074.939675070551
 30
0.0
 10
5534.985009206654
 20
4074.997571527363
 30
0.0
 10
5534.985009206654
 20
4075.057620064081
 30
0.0
 10
5534.985009206654
 20
4075.06571947843
 30
0.0
  0
ARC
  5
16707
330
747D
100
AcDbEntity
  8
細線
  6
Continuous
370
    15
100
AcDbCircle
 10
5531.484997340965
 20
4068.256350713886
 30
0.0
 40
9.499999999999973
100
AcDbArc
 50
69.15570700480905
 51
110.8442929951909
  0
LINE
  5
16708
330
747D
100
AcDbEntity
  8
細線
  6
Continuous
370
    15
100
AcDbLine
 10
5534.985009206654
 20
4075.06571947843
 30
0.0
 11
5534.985009206654
 21
4076.961027972998
 31
0.0
  0
LINE
  5
16709
330
747D
100
AcDbEntity
  8
細線
  6
Continuous
370
    15
100
AcDbLine
 10
5527.98500992191
 20
4076.961027972998
 30
0.0
 11
5527.98500992191
 21
4075.06571947843
 31
0.0
  0
LINE
  5
1670A
330
747D
100
AcDbEntity
  8
細線
  6
Continuous
370
    15
100
AcDbLine
 10
5534.985009206654
 20
4076.961027972998
 30
0.0
 11
5534.985009206654
 21
4077.088105075659
 31
0.0
  0
LINE
  5
1670B
330
747D
100
AcDbEntity
  8
細線
  6
Continuous
370
    15
100
AcDbLine
 10
5534.985009206654
 20
4077.088105075659
 30
0.0
 11
5534.86538268459
 21
4077.134596698584
 31
0.0
  0
LINE
  5
1670C
330
747D
100
AcDbEntity
  8
細線
  6
Continuous
370
    15
100
AcDbLine
 10
5528.104606641652
 20
4077.134596698584
 30
0.0
 11
5527.98500992191
 21
4077.088105075659
 31
0.0
  0
LINE
  5
1670D
330
747D
100
AcDbEntity
  8
細線
  6
Continuous
370
    15
100
AcDbLine
 10
5527.98500992191
 20
4077.088105075659
 30
0.0
 11
5527.98500992191
 21
4076.961027972998
 31
0.0
  0
ARC
  5
1670E
330
747D
100
AcDbEntity
  8
細線
  6
Continuous
370
    15
100
AcDbCircle
 10
5548.484997340964
 20
4208.256350713885
 30
0.0
 40
6.0
100
AcDbArc
 50
0.0
 51
90.0
  0
LINE
  5
1670F
330
747D
100
AcDbEntity
  8
細線
  6
Continuous
370
    15
100
AcDbLine
 10
5554.48499657047
 20
4208.256351344886
 30
0.0
 11
5554.48499657047
 21
4040.256368511023
 31
0.0
  0
LINE
  5
16710
330
747D
100
AcDbEntity
  8
細線
  6
Continuous
370
    15
100
AcDbLine
 10
5496.4849982394
 20
4040.256368511023
 30
0.0
 11
5496.4849982394
 21
4208.256351344886
 31
0.0
  0
LINE
  5
16711
330
747D
100
AcDbEntity
  8
細線
  6
Continuous
370
    15
100
AcDbLine
 10
5502.485010398747
 20
4214.256393306555
 30
0.0
 11
5548.484984411122
 21
4214.256393306555
 31
0.0
  0
ARC
  5
16712
330
747D
100
AcDbEntity
  8
細線
  6
Continuous
370
    15
100
AcDbCircle
 10
5548.484997340964
 20
4040.256350713885
 30
0.0
 40
6.0
100
AcDbArc
 50
270.0
 51
0.0
  0
ARC
  5
16713
330
747D
100
AcDbEntity
  8
細線
  6
Continuous
370
    15
100
AcDbCircle
 10
5502.484997340964
 20
4208.256350713885
 30
0.0
 40
6.0
100
AcDbArc
 50
90.0
 51
180.0
  0
LINE
  5
16714
330
747D
100
AcDbEntity
  8
細線
  6
Continuous
370
    15
100
AcDbLine
 10
5548.484984411122
 20
4034.256326549353
 30
0.0
 11
5502.485010398747
 21
4034.256326549353
 31
0.0
  0
ARC
  5
16715
330
747D
100
AcDbEntity
  8
細線
  6
Continuous
370
    15
100
AcDbCircle
 10
5502.484997340964
 20
4040.256350713885
 30
0.0
 40
6.0
100
AcDbArc
 50
180.0
 51
270.0
  0
LINE
  5
16716
330
747D
100
AcDbEntity
  8
細線
  6
Continuous
370
    15
100
AcDbLine
 10
5537.581298126103
 20
4078.488575809302
 30
0.0
 11
5537.581298126103
 21
4074.473189704718
 31
0.0
  0
ARC
  5
16717
330
747D
100
AcDbEntity
  8
細線
  6
Continuous
370
    15
100
AcDbCircle
 10
5531.484997340965
 20
4068.256350713886
 30
0.0
 40
8.707106781186586
100
AcDbArc
 50
134.4391355081549
 51
45.56086449184513
  0
LINE
  5
16718
330
747D
100
AcDbEntity
  8
細線
  6
Continuous
370
    15
100
AcDbLine
 10
5525.388721002461
 20
4074.473189704718
 30
0.0
 11
5525.388721002461
 21
4078.488575809302
 31
0.0
  0
SPLINE
  5
16719
330
747D
100
AcDbEntity
  8
細線
  6
Continuous
370
    15
100
AcDbSpline
210
0.0
220
0.0
230
1.0
 70
     8
 71
     3
 72
    11
 73
     7
 74
     0
 42
0.000000001
 43
0.0000000001
 40
0.0
 40
0.0
 40
0.0
 40
0.0
 40
0.0781314889249488
 40
0.3601777463886433
 40
0.6812698848259567
 40
1.0
 40
1.0
 40
1.0
 40
1.0
 10
5525.578770412328
 20
4078.812705867591
 30
0.0
 10
5525.569907981632
 20
4078.807517752082
 30
0.0
 10
5525.529053130906
 20
4078.783601098565
 30
0.0
 10
5525.460307987341
 20
4078.724290770713
 30
0.0
 10
5525.398266476018
 20
4078.615425464728
 30
0.0
 10
5525.391894986467
 20
4078.530754835303
 30
0.0
 10
5525.388721002461
 20
4078.488575809302
 30
0.0
  0
ARC
  5
1671A
330
747D
100
AcDbEntity
  8
細線
  6
Continuous
370
    15
100
AcDbCircle
 10
5531.484997340965
 20
4068.256350713886
 30
0.0
 40
12.09629120178367
100
AcDbArc
 50
60.77315626978887
 51
119.2268437302111
  0
SPLINE
  5
1671B
330
747D
100
AcDbEntity
  8
細線
  6
Continuous
370
    15
100
AcDbSpline
210
0.0
220
0.0
230
1.0
 70
     8
 71
     3
 72
    11
 73
     7
 74
     0
 42
0.000000001
 43
0.0000000001
 40
0.0
 40
0.0
 40
0.0
 40
0.0
 40
0.0779029322309155
 40
0.3600683505069131
 40
0.6812326600027312
 40
1.0
 40
1.0
 40
1.0
 40
1.0
 10
5537.581298126103
 20
4078.488575809302
 30
0.0
 10
5537.581095852939
 20
4078.498812735039
 30
0.0
 10
5537.58016094387
 20
4078.54612793692
 30
0.0
 10
5537.56196393421
 20
4078.635064693097
 30
0.0
 10
5537.497306905126
 20
4078.742429172432
 30
0.0
 10
5537.426513055827
 20
4078.789338871867
 30
0.0
 10
5537.391248716237
 20
4078.812705867591
 30
0.0
  0
LINE
  5
1671C
330
747D
100
AcDbEntity
  8
細線
  6
Continuous
370
    15
100
AcDbLine
 10
5508.517541660191
 20
4193.25636565
 30
0.0
 11
5539.384993566396
 21
4193.25636565
 31
0.0
  0
LINE
  5
1671D
330
747D
100
AcDbEntity
  8
細線
  6
Continuous
370
    15
100
AcDbLine
 10
5503.517541660191
 20
4100.256375663581
 30
0.0
 11
5503.517541660191
 21
4188.25636565
 31
0.0
  0
ARC
  5
1671E
330
747D
100
AcDbEntity
  8
細線
  6
Continuous
370
    15
100
AcDbCircle
 10
5508.517541660191
 20
4188.25636565
 30
0.0
 40
5.0
100
AcDbArc
 50
90.0
 51
180.0
  0
LINE
  5
1671F
330
747D
100
AcDbEntity
  8
細線
  6
Continuous
370
    15
100
AcDbLine
 10
5505.584988368871
 20
4183.863463483112
 30
0.0
 11
5505.584988368871
 21
4104.649237944658
 31
0.0
  0
LINE
  5
16720
330
747D
100
AcDbEntity
  8
細線
  6
Continuous
370
    15
100
AcDbLine
 10
5546.384993566396
 20
4186.256365650001
 30
0.0
 11
5546.384993566396
 21
4102.256375663581
 31
0.0
  0
ARC
  5
16721
330
747D
100
AcDbEntity
  8
細線
  6
Continuous
370
    15
100
AcDbCircle
 10
5539.384993566396
 20
4102.256375663581
 30
0.0
 40
7.0
100
AcDbArc
 50
270.0
 51
0.0
  0
ARC
  5
16722
330
747D
100
AcDbEntity
  8
細線
  6
Continuous
370
    15
100
AcDbCircle
 10
5539.384993566396
 20
4186.256365650001
 30
0.0
 40
7.0
100
AcDbArc
 50
0.0
 51
90.0
  0
LINE
  5
16723
330
747D
100
AcDbEntity
  8
細線
  6
Continuous
370
    15
100
AcDbLine
 10
5539.384993566396
 20
4095.256375663581
 30
0.0
 11
5508.517541660191
 21
4095.256375663581
 31
0.0
  0
ARC
  5
16724
330
747D
100
AcDbEntity
  8
細線
  6
Continuous
370
    15
100
AcDbCircle
 10
5508.517541660191
 20
4100.256375663581
 30
0.0
 40
5.0
100
AcDbArc
 50
180.0
 51
270.0
  0
ARC
  5
16725
330
747D
100
AcDbEntity
  8
細線
  6
Continuous
370
    15
100
AcDbCircle
 10
5532.304600255876
 20
4109.336739171778
 30
0.0
 40
6.898178997000096
100
AcDbArc
 50
281.1228560456502
 51
348.8771439544009
  0
ARC
  5
16726
330
747D
100
AcDbEntity
  8
細線
  6
Continuous
370
    15
100
AcDbCircle
 10
5532.304652282232
 20
4179.17599456353
 30
0.0
 40
6.89811791144148
100
AcDbArc
 50
11.12251539540163
 51
78.87748460464951
  0
LINE
  5
16727
330
747D
100
AcDbEntity
  8
細線
  6
Continuous
370
    15
100
AcDbLine
 10
5521.582785619618
 20
4105.826212280097
 30
0.0
 11
5521.582785619618
 21
4182.794771068397
 31
0.0
  0
ARC
  5
16728
330
747D
100
AcDbEntity
  8
細線
  6
Continuous
370
    15
100
AcDbCircle
 10
5519.582785619618
 20
4182.794771068397
 30
0.0
 40
2.0
100
AcDbArc
 50
0.0
 51
90.0
  0
ARC
  5
16729
330
747D
100
AcDbEntity
  8
細線
  6
Continuous
370
    15
100
AcDbCircle
 10
5519.582774698347
 20
4105.810507076081
 30
0.0
 40
2.0
100
AcDbArc
 50
262.8149626715364
 51
0.0
  0
LWPOLYLINE
  5
1672A
330
747D
100
AcDbEntity
  8
細線
 48
50.0
100
AcDbPolyline
 90
        4
 70
     1
 43
0.0
 10
5532.747093213917
 20
4063.42797219068
 10
5530.222925914647
 20
4063.42797219068
 10
5530.222925914647
 20
4073.08475910932
 10
5532.747093213917
 20
4073.08475910932
  0
LINE
  5
1672B
330
747D
100
AcDbEntity
  8
細線
  6
Continuous
370
    15
100
AcDbLine
 10
5519.582785619618
 20
4103.826212280097
 30
0.0
 11
5513.904008640172
 21
4103.826212280099
 31
0.0
  0
LINE
  5
1672C
330
747D
100
AcDbEntity
  8
細線
  6
Continuous
370
    15
100
AcDbLine
 10
5508.312794937016
 20
4104.826212280097
 30
0.0
 11
5508.312794937016
 21
4183.794771068397
 31
0.0
  0
ARC
  5
1672D
330
747D
100
AcDbEntity
  8
細線
  6
Continuous
370
    15
100
AcDbCircle
 10
5509.312794937017
 20
4183.794771068397
 30
0.0
 40
1.0
100
AcDbArc
 50
90.0
 51
180.0
  0
LINE
  5
1672E
330
747D
100
AcDbEntity
  8
細線
  6
Continuous
370
    15
100
AcDbLine
 10
5513.898793233754
 20
4184.794771068396
 30
0.0
 11
5509.312794937017
 21
4184.794771068396
 31
0.0
  0
LINE
  5
1672F
330
747D
100
AcDbEntity
  8
細線
  6
Continuous
370
    15
100
AcDbLine
 10
5513.904008640172
 20
4103.826212280097
 30
0.0
 11
5509.312794937017
 21
4103.826212280097
 31
0.0
  0
ARC
  5
16730
330
747D
100
AcDbEntity
  8
細線
  6
Continuous
370
    15
100
AcDbCircle
 10
5509.312794937017
 20
4104.826212280097
 30
0.0
 40
1.0
100
AcDbArc
 50
180.0
 51
270.0
  0
LINE
  5
16731
330
747D
100
AcDbEntity
  8
細線
  6
Continuous
370
    15
100
AcDbLine
 10
5519.582785619618
 20
4184.794771068396
 30
0.0
 11
5513.783316408733
 21
4184.794771068396
 31
0.0
  0
LWPOLYLINE
  5
16732
330
747D
100
AcDbEntity
  8
細線
  6
Continuous
370
    15
100
AcDbPolyline
 90
        3
 70
   128
 43
0.0
 10
6354.898224843861
 20
4075.269924991424
 10
6354.969810022236
 20
4075.245665901
 10
6354.985009206654
 20
4075.242983691985
  0
ARC
  5
16733
330
747D
100
AcDbEntity
  8
細線
  6
Continuous
370
    15
100
AcDbCircle
 10
6351.484997340964
 20
4068.256350713879
 30
0.0
 40
7.799999999999959
100
AcDbArc
 50
64.04961909222373
 51
115.6437752580401
  0
LWPOLYLINE
  5
16734
330
747D
100
AcDbEntity
  8
細線
  6
Continuous
370
    15
100
AcDbPolyline
 90
        3
 70
   128
 43
0.0
 10
6347.985009921909
 20
4075.258540504272
 10
6348.037640823246
 20
4075.264202945525
 10
6348.109345210911
 20
4075.288044803436
  0
SPLINE
  5
16735
330
747D
100
AcDbEntity
  8
細線
  6
Continuous
370
    15
100
AcDbSpline
210
0.0
220
0.0
230
1.0
 70
     8
 71
     3
 72
     9
 73
     5
 74
     0
 42
0.000000001
 43
0.0000000001
 40
0.0
 40
0.0
 40
0.0
 40
0.0
 40
0.7237658969060897
 40
1.0
 40
1.0
 40
1.0
 40
1.0
 10
6333.389918578983
 20
4102.568137042815
 30
0.0
 10
6333.585660075905
 20
4102.796818485027
 30
0.0
 10
6333.856108708211
 20
4103.112778995442
 30
0.0
 10
6333.893640953922
 20
4103.671793429321
 30
0.0
 10
6333.904008640171
 20
4103.82621228009
 30
0.0
  0
SPLINE
  5
16736
330
747D
100
AcDbEntity
  8
細線
  6
Continuous
370
    15
100
AcDbSpline
210
0.0
220
0.0
230
1.0
 70
     8
 71
     3
 72
     9
 73
     5
 74
     0
 42
0.000000001
 43
0.0000000001
 40
0.0
 40
0.0
 40
0.0
 40
0.0
 40
0.1817420378681831
 40
1.0
 40
1.0
 40
1.0
 40
1.0
 10
6333.898793233753
 20
4184.794771068389
 30
0.0
 10
6333.891797569251
 20
4184.889285534803
 30
0.0
 10
6333.853305294198
 20
4185.409332891643
 30
0.0
 10
6333.598453273813
 20
4185.70368704029
 30
0.0
 10
6333.389918578983
 20
4185.944544666106
 30
0.0
  0
LINE
  5
16737
330
747D
100
AcDbEntity
  8
細線
  6
Continuous
370
    15
100
AcDbLine
 10
6359.073202384831
 20
4180.506693713958
 30
0.0
 11
6359.073202384831
 21
4108.005987994964
 31
0.0
  0
LINE
  5
16738
330
747D
100
AcDbEntity
  8
細線
  6
Continuous
370
    15
100
AcDbLine
 10
6353.635351432682
 20
4102.568137042815
 30
0.0
 11
6333.389918578983
 21
4102.568137042815
 31
0.0
  0
ELLIPSE
  5
16739
330
747D
100
AcDbEntity
  8
細線
  6
Continuous
370
    15
100
AcDbEllipse
 10
6328.584997340999
 20
4103.717273244352
 30
0.0
 11
5.399999999999976
 21
0.0
 31
0.0
210
0.0
220
0.0
230
1.0
 40
0.4663076581550023
 41
5.04728513882407
 42
5.809296398627029
  0
LINE
  5
1673A
330
747D
100
AcDbEntity
  8
細線
  6
Continuous
370
    15
100
AcDbLine
 10
6330.359827054859
 20
4101.339089267547
 30
0.0
 11
6328.585009349705
 21
4101.339089267547
 31
0.0
  0
LINE
  5
1673B
330
747D
100
AcDbEntity
  8
細線
  6
Continuous
370
    15
100
AcDbLine
 10
6328.585009349705
 20
4187.173592441375
 30
0.0
 11
6330.359827054859
 21
4187.173592441375
 31
0.0
  0
ELLIPSE
  5
1673C
330
747D
100
AcDbEntity
  8
細線
  6
Continuous
370
    15
100
AcDbEllipse
 10
6328.584997340999
 20
4184.79542818339
 30
0.0
 11
5.399999999999976
 21
0.0
 31
0.0
210
0.0
220
0.0
230
1.0
 40
0.4663076581550023
 41
0.4738889085525403
 42
1.235900168355494
  0
LINE
  5
1673D
330
747D
100
AcDbEntity
  8
細線
  6
Continuous
370
    15
100
AcDbLine
 10
6333.389918578983
 20
4185.944544666106
 30
0.0
 11
6353.635351432682
 21
4185.944544666106
 31
0.0
  0
ELLIPSE
  5
1673E
330
747D
100
AcDbEntity
  8
細線
  6
Continuous
370
    15
100
AcDbEllipse
 10
6328.584997340999
 20
4183.863463483105
 30
0.0
 11
0.0
 21
-3.310133756887523
 31
0.0
210
0.0
220
0.0
230
1.0
 40
0.9063077870366367
 41
3.141592653589783
 42
4.712388980384702
  0
ELLIPSE
  5
1673F
330
747D
100
AcDbEntity
  8
細線
  6
Continuous
370
    15
100
AcDbEllipse
 10
6328.584997340999
 20
4104.649237944651
 30
0.0
 11
0.0
 21
-3.310133756887466
 31
0.0
210
0.0
220
0.0
230
1.0
 40
0.9063077870366523
 41
4.712388980384702
 42
6.283185307179586
  0
ARC
  5
16740
330
747D
100
AcDbEntity
  8
細線
  6
Continuous
370
    15
100
AcDbCircle
 10
6351.484997340964
 20
4068.256350713879
 30
0.0
 40
7.499999999999996
100
AcDbArc
 50
120.3006176375393
 51
59.69938236246067
  0
SPLINE
  5
16741
330
747D
100
AcDbEntity
  8
細線
  6
Continuous
370
    15
100
AcDbSpline
210
0.0
220
0.0
230
1.0
 70
    24
 71
     3
 72
     9
 73
     5
 74
     0
 42
0.000000001
 43
0.0000000001
 40
0.0
 40
0.0
 40
0.0
 40
0.0
 40
0.8663703693180105
 40
1.0
 40
1.0
 40
1.0
 40
1.0
 10
6347.985009921909
 20
4075.065719478423
 30
0.0
 10
6347.985009921909
 20
4075.013347918235
 30
0.0
 10
6347.985009921909
 20
4074.952898528422
 30
0.0
 10
6347.985009921909
 20
4074.897050680412
 30
0.0
 10
6347.985009921909
 20
4074.889587753112
 30
0.0
  0
LINE
  5
16742
330
747D
100
AcDbEntity
  8
細線
  6
Continuous
370
    15
100
AcDbLine
 10
6347.985009921909
 20
4074.889587753112
 30
0.0
 11
6347.700963987232
 21
4074.731754653747
 31
0.0
  0
LINE
  5
16743
330
747D
100
AcDbEntity
  8
細線
  6
Continuous
370
    15
100
AcDbLine
 10
6355.269025339008
 20
4074.731754653747
 30
0.0
 11
6354.985009206654
 21
4074.889587753112
 31
0.0
  0
SPLINE
  5
16744
330
747D
100
AcDbEntity
  8
細線
  6
Continuous
370
    15
100
AcDbSpline
210
0.0
220
0.0
230
1.0
 70
    24
 71
     3
 72
     9
 73
     5
 74
     0
 42
0.000000001
 43
0.0000000001
 40
0.0
 40
0.0
 40
0.0
 40
0.0
 40
0.8651188723649402
 40
1.0
 40
1.0
 40
1.0
 40
1.0
 10
6354.985009206654
 20
4074.889587753112
 30
0.0
 10
6354.985009206654
 20
4074.939675070543
 30
0.0
 10
6354.985009206654
 20
4074.997571527355
 30
0.0
 10
6354.985009206654
 20
4075.057620064074
 30
0.0
 10
6354.985009206654
 20
4075.065719478423
 30
0.0
  0
ARC
  5
16745
330
747D
100
AcDbEntity
  8
細線
  6
Continuous
370
    15
100
AcDbCircle
 10
6351.484997340964
 20
4068.256350713879
 30
0.0
 40
9.499999999999973
100
AcDbArc
 50
69.15570700480905
 51
110.8442929951909
  0
LINE
  5
16746
330
747D
100
AcDbEntity
  8
細線
  6
Continuous
370
    15
100
AcDbLine
 10
6354.985009206654
 20
4075.065719478423
 30
0.0
 11
6354.985009206654
 21
4076.961027972991
 31
0.0
  0
LINE
  5
16747
330
747D
100
AcDbEntity
  8
細線
  6
Continuous
370
    15
100
AcDbLine
 10
6347.985009921909
 20
4076.961027972991
 30
0.0
 11
6347.985009921909
 21
4075.065719478423
 31
0.0
  0
LINE
  5
16748
330
747D
100
AcDbEntity
  8
細線
  6
Continuous
370
    15
100
AcDbLine
 10
6354.985009206654
 20
4076.961027972991
 30
0.0
 11
6354.985009206654
 21
4077.088105075652
 31
0.0
  0
LINE
  5
16749
330
747D
100
AcDbEntity
  8
細線
  6
Continuous
370
    15
100
AcDbLine
 10
6354.985009206654
 20
4077.088105075652
 30
0.0
 11
6354.86538268459
 21
4077.134596698577
 31
0.0
  0
LINE
  5
1674A
330
747D
100
AcDbEntity
  8
細線
  6
Continuous
370
    15
100
AcDbLine
 10
6348.104606641651
 20
4077.134596698577
 30
0.0
 11
6347.985009921909
 21
4077.088105075652
 31
0.0
  0
LINE
  5
1674B
330
747D
100
AcDbEntity
  8
細線
  6
Continuous
370
    15
100
AcDbLine
 10
6347.985009921909
 20
4077.088105075652
 30
0.0
 11
6347.985009921909
 21
4076.961027972991
 31
0.0
  0
ARC
  5
1674C
330
747D
100
AcDbEntity
  8
細線
  6
Continuous
370
    15
100
AcDbCircle
 10
6368.484997340964
 20
4208.256350713878
 30
0.0
 40
6.0
100
AcDbArc
 50
0.0
 51
90.0
  0
LINE
  5
1674D
330
747D
100
AcDbEntity
  8
細線
  6
Continuous
370
    15
100
AcDbLine
 10
6374.484996570469
 20
4208.256351344878
 30
0.0
 11
6374.484996570469
 21
4040.256368511016
 31
0.0
  0
LINE
  5
1674E
330
747D
100
AcDbEntity
  8
細線
  6
Continuous
370
    15
100
AcDbLine
 10
6316.484998239399
 20
4040.256368511016
 30
0.0
 11
6316.484998239399
 21
4208.256351344878
 31
0.0
  0
LINE
  5
1674F
330
747D
100
AcDbEntity
  8
細線
  6
Continuous
370
    15
100
AcDbLine
 10
6322.485010398747
 20
4214.256393306548
 30
0.0
 11
6368.484984411121
 21
4214.256393306548
 31
0.0
  0
ARC
  5
16750
330
747D
100
AcDbEntity
  8
細線
  6
Continuous
370
    15
100
AcDbCircle
 10
6368.484997340964
 20
4040.256350713878
 30
0.0
 40
6.0
100
AcDbArc
 50
270.0
 51
0.0
  0
ARC
  5
16751
330
747D
100
AcDbEntity
  8
細線
  6
Continuous
370
    15
100
AcDbCircle
 10
6322.484997340964
 20
4208.256350713878
 30
0.0
 40
6.0
100
AcDbArc
 50
90.0
 51
180.0
  0
LINE
  5
16752
330
747D
100
AcDbEntity
  8
細線
  6
Continuous
370
    15
100
AcDbLine
 10
6368.484984411121
 20
4034.256326549346
 30
0.0
 11
6322.485010398747
 21
4034.256326549346
 31
0.0
  0
ARC
  5
16753
330
747D
100
AcDbEntity
  8
細線
  6
Continuous
370
    15
100
AcDbCircle
 10
6322.484997340964
 20
4040.256350713878
 30
0.0
 40
6.0
100
AcDbArc
 50
180.0
 51
270.0
  0
LINE
  5
16754
330
747D
100
AcDbEntity
  8
細線
  6
Continuous
370
    15
100
AcDbLine
 10
6357.581298126103
 20
4078.488575809295
 30
0.0
 11
6357.581298126103
 21
4074.473189704711
 31
0.0
  0
ARC
  5
16755
330
747D
100
AcDbEntity
  8
細線
  6
Continuous
370
    15
100
AcDbCircle
 10
6351.484997340964
 20
4068.256350713879
 30
0.0
 40
8.707106781186586
100
AcDbArc
 50
134.4391355081549
 51
45.56086449184513
  0
LINE
  5
16756
330
747D
100
AcDbEntity
  8
細線
  6
Continuous
370
    15
100
AcDbLine
 10
6345.388721002461
 20
4074.473189704711
 30
0.0
 11
6345.388721002461
 21
4078.488575809295
 31
0.0
  0
SPLINE
  5
16757
330
747D
100
AcDbEntity
  8
細線
  6
Continuous
370
    15
100
AcDbSpline
210
0.0
220
0.0
230
1.0
 70
     8
 71
     3
 72
    11
 73
     7
 74
     0
 42
0.000000001
 43
0.0000000001
 40
0.0
 40
0.0
 40
0.0
 40
0.0
 40
0.0781314889249488
 40
0.3601777463886433
 40
0.6812698848259567
 40
1.0
 40
1.0
 40
1.0
 40
1.0
 10
6345.578770412327
 20
4078.812705867584
 30
0.0
 10
6345.569907981631
 20
4078.807517752075
 30
0.0
 10
6345.529053130906
 20
4078.783601098558
 30
0.0
 10
6345.460307987339
 20
4078.724290770706
 30
0.0
 10
6345.398266476017
 20
4078.615425464721
 30
0.0
 10
6345.391894986466
 20
4078.530754835296
 30
0.0
 10
6345.388721002461
 20
4078.488575809295
 30
0.0
  0
ARC
  5
16758
330
747D
100
AcDbEntity
  8
細線
  6
Continuous
370
    15
100
AcDbCircle
 10
6351.484997340964
 20
4068.256350713879
 30
0.0
 40
12.09629120178367
100
AcDbArc
 50
60.77315626978887
 51
119.2268437302111
  0
SPLINE
  5
16759
330
747D
100
AcDbEntity
  8
細線
  6
Continuous
370
    15
100
AcDbSpline
210
0.0
220
0.0
230
1.0
 70
     8
 71
     3
 72
    11
 73
     7
 74
     0
 42
0.000000001
 43
0.0000000001
 40
0.0
 40
0.0
 40
0.0
 40
0.0
 40
0.0779029322309155
 40
0.3600683505069131
 40
0.6812326600027312
 40
1.0
 40
1.0
 40
1.0
 40
1.0
 10
6357.581298126103
 20
4078.488575809295
 30
0.0
 10
6357.581095852938
 20
4078.498812735031
 30
0.0
 10
6357.58016094387
 20
4078.546127936913
 30
0.0
 10
6357.561963934209
 20
4078.63506469309
 30
0.0
 10
6357.497306905124
 20
4078.742429172425
 30
0.0
 10
6357.426513055825
 20
4078.789338871859
 30
0.0
 10
6357.391248716236
 20
4078.812705867584
 30
0.0
  0
LINE
  5
1675A
330
747D
100
AcDbEntity
  8
細線
  6
Continuous
370
    15
100
AcDbLine
 10
6328.517541660191
 20
4193.256365649993
 30
0.0
 11
6359.384993566394
 21
4193.256365649993
 31
0.0
  0
LINE
  5
1675B
330
747D
100
AcDbEntity
  8
細線
  6
Continuous
370
    15
100
AcDbLine
 10
6323.517541660191
 20
4100.256375663573
 30
0.0
 11
6323.517541660191
 21
4188.256365649993
 31
0.0
  0
ARC
  5
1675C
330
747D
100
AcDbEntity
  8
細線
  6
Continuous
370
    15
100
AcDbCircle
 10
6328.517541660191
 20
4188.256365649993
 30
0.0
 40
5.0
100
AcDbArc
 50
90.0
 51
180.0
  0
LINE
  5
1675D
330
747D
100
AcDbEntity
  8
細線
  6
Continuous
370
    15
100
AcDbLine
 10
6325.58498836887
 20
4183.863463483105
 30
0.0
 11
6325.58498836887
 21
4104.649237944651
 31
0.0
  0
LINE
  5
1675E
330
747D
100
AcDbEntity
  8
細線
  6
Continuous
370
    15
100
AcDbLine
 10
6366.384993566395
 20
4186.256365649994
 30
0.0
 11
6366.384993566395
 21
4102.256375663574
 31
0.0
  0
ARC
  5
1675F
330
747D
100
AcDbEntity
  8
細線
  6
Continuous
370
    15
100
AcDbCircle
 10
6359.384993566394
 20
4102.256375663574
 30
0.0
 40
7.0
100
AcDbArc
 50
270.0
 51
0.0
  0
ARC
  5
16760
330
747D
100
AcDbEntity
  8
細線
  6
Continuous
370
    15
100
AcDbCircle
 10
6359.384993566394
 20
4186.256365649994
 30
0.0
 40
7.0
100
AcDbArc
 50
0.0
 51
90.0
  0
LINE
  5
16761
330
747D
100
AcDbEntity
  8
細線
  6
Continuous
370
    15
100
AcDbLine
 10
6359.384993566394
 20
4095.256375663574
 30
0.0
 11
6328.517541660191
 21
4095.256375663574
 31
0.0
  0
ARC
  5
16762
330
747D
100
AcDbEntity
  8
細線
  6
Continuous
370
    15
100
AcDbCircle
 10
6328.517541660191
 20
4100.256375663573
 30
0.0
 40
5.0
100
AcDbArc
 50
180.0
 51
270.0
  0
ARC
  5
16763
330
747D
100
AcDbEntity
  8
細線
  6
Continuous
370
    15
100
AcDbCircle
 10
6352.304600255875
 20
4109.336739171771
 30
0.0
 40
6.898178997000096
100
AcDbArc
 50
281.1228560456502
 51
348.8771439544009
  0
ARC
  5
16764
330
747D
100
AcDbEntity
  8
細線
  6
Continuous
370
    15
100
AcDbCircle
 10
6352.304652282231
 20
4179.175994563522
 30
0.0
 40
6.89811791144148
100
AcDbArc
 50
11.12251539540163
 51
78.87748460464951
  0
LINE
  5
16765
330
747D
100
AcDbEntity
  8
細線
  6
Continuous
370
    15
100
AcDbLine
 10
6341.582785619618
 20
4105.826212280089
 30
0.0
 11
6341.582785619618
 21
4182.794771068389
 31
0.0
  0
ARC
  5
16766
330
747D
100
AcDbEntity
  8
細線
  6
Continuous
370
    15
100
AcDbCircle
 10
6339.582785619618
 20
4182.794771068389
 30
0.0
 40
2.0
100
AcDbArc
 50
0.0
 51
90.0
  0
ARC
  5
16767
330
747D
100
AcDbEntity
  8
細線
  6
Continuous
370
    15
100
AcDbCircle
 10
6339.582774698347
 20
4105.810507076074
 30
0.0
 40
2.0
100
AcDbArc
 50
262.8149626715364
 51
0.0
  0
LWPOLYLINE
  5
16768
330
747D
100
AcDbEntity
  8
細線
 48
50.0
100
AcDbPolyline
 90
        4
 70
     1
 43
0.0
 10
6352.747093213917
 20
4063.427972190673
 10
6350.222925914646
 20
4063.427972190673
 10
6350.222925914646
 20
4073.084759109313
 10
6352.747093213917
 20
4073.084759109313
  0
LINE
  5
16769
330
747D
100
AcDbEntity
  8
細線
  6
Continuous
370
    15
100
AcDbLine
 10
6339.582785619618
 20
4103.82621228009
 30
0.0
 11
6333.904008640171
 21
4103.826212280091
 31
0.0
  0
LINE
  5
1676A
330
747D
100
AcDbEntity
  8
細線
  6
Continuous
370
    15
100
AcDbLine
 10
6328.312794937016
 20
4104.82621228009
 30
0.0
 11
6328.312794937016
 21
4183.794771068389
 31
0.0
  0
ARC
  5
1676B
330
747D
100
AcDbEntity
  8
細線
  6
Continuous
370
    15
100
AcDbCircle
 10
6329.312794937016
 20
4183.794771068389
 30
0.0
 40
1.0
100
AcDbArc
 50
90.0
 51
180.0
  0
LINE
  5
1676C
330
747D
100
AcDbEntity
  8
細線
  6
Continuous
370
    15
100
AcDbLine
 10
6333.898793233753
 20
4184.794771068389
 30
0.0
 11
6329.312794937016
 21
4184.794771068389
 31
0.0
  0
LINE
  5
1676D
330
747D
100
AcDbEntity
  8
細線
  6
Continuous
370
    15
100
AcDbLine
 10
6333.904008640171
 20
4103.82621228009
 30
0.0
 11
6329.312794937016
 21
4103.82621228009
 31
0.0
  0
ARC
  5
1676E
330
747D
100
AcDbEntity
  8
細線
  6
Continuous
370
    15
100
AcDbCircle
 10
6329.312794937016
 20
4104.82621228009
 30
0.0
 40
1.0
100
AcDbArc
 50
180.0
 51
270.0
  0
LINE
  5
1676F
330
747D
100
AcDbEntity
  8
細線
  6
Continuous
370
    15
100
AcDbLine
 10
6339.582785619618
 20
4184.794771068389
 30
0.0
 11
6333.783316408731
 21
4184.794771068389
 31
0.0
  0
TEXT
  5
16779
330
747D
100
AcDbEntity
  8
文字
 62
     7
 48
50.0
100
AcDbText
 10
15047.13957933145
 20
1031.557706291228
 30
0.0
 40
100.0
  1
     <縮尺> S=1/40
  7
STYLE2
100
AcDbText
  0
DIMENSION
  5
167D9
330
747D
100
AcDbEntity
  8
寸法
100
AcDbDimension
  2
*D34
 10
8864.393820107579
 20
3207.756393306559
 30
0.0
 11
8864.393820107579
 21
4112.791405182942
 31
0.0
 70
   160
 71
     5
 42
1789.999999999997
  3
INABA_S40G
100
AcDbAlignedDimension
 13
9466.356910799783
 23
4997.756393306555
 33
0.0
 14
9459.354540755006
 24
3207.756393306558
 34
0.0
 50
90.0
100
AcDbRotatedDimension
1001
ACAD
1000
DSTYLE
1002
{
1070
   288
1070
     1
1002
}
  0
LINE
  5
167DA
330
747D
100
AcDbEntity
  8
部品1
 48
50.0
100
AcDbLine
 10
9459.354540755006
 20
4988.756504756302
 30
0.0
 11
9466.356910799783
 21
4988.756504756302
 31
0.0
  0
LINE
  5
167DB
330
747D
100
AcDbEntity
  8
部品1
 48
0.2
100
AcDbLine
 10
9459.354540755006
 20
4997.6565047563
 30
0.0
 11
9459.354540755006
 21
4988.756504756302
 31
0.0
  0
LINE
  5
167DC
330
747D
100
AcDbEntity
  8
部品1
 48
50.0
100
AcDbLine
 10
9459.354540755006
 20
3201.856504756293
 30
0.0
 11
9466.356910799783
 21
3201.856504756293
 31
0.0
  0
LINE
  5
167DD
330
747D
100
AcDbEntity
  8
部品1
 48
0.2
100
AcDbLine
 10
9459.354540755006
 20
3210.756504756293
 30
0.0
 11
9459.354540755006
 21
3201.856504756294
 31
0.0
  0
LINE
  5
167DE
330
747D
100
AcDbEntity
  8
部品1
 48
50.0
100
AcDbLine
 10
9459.354540755006
 20
3210.756504756293
 30
0.0
 11
9466.356910799783
 21
3210.756504756293
 31
0.0
  0
LINE
  5
167DF
330
747D
100
AcDbEntity
  8
部品
 48
50.0
100
AcDbLine
 10
9459.354540755006
 20
4997.6565047563
 30
0.0
 11
9466.356910799783
 21
4997.6565047563
 31
0.0
  0
ENDSEC
  0
SECTION
  2
OBJECTS
  0
DICTIONARY
  5
7471
330
0
100
AcDbDictionary
281
     1
  3
ACAD_CIP_PREVIOUS_PRODUCT_INFO
350
16657
  3
ACAD_COLOR
350
14F29
  3
ACAD_DETAILVIEWSTYLE
350
1664D
  3
ACAD_GROUP
350
7472
  3
ACAD_LAYOUT
350
14F2A
  3
ACAD_MATERIAL
350
14F28
  3
ACAD_MLEADERSTYLE
350
16649
  3
ACAD_MLINESTYLE
350
7473
  3
ACAD_PLOTSETTINGS
350
14F2B
  3
ACAD_PLOTSTYLENAME
350
14F26
  3
ACAD_SCALELIST
350
16637
  3
ACAD_SECTIONVIEWSTYLE
350
1664B
  3
ACAD_TABLESTYLE
350
16635
  3
ACAD_VISUALSTYLE
350
1661C
  3
ACDB_RECOMPOSE_DATA
350
16816
  3
AcDbVariableDictionary
350
16795
  3
AcDsDecomposeData
350
1681D
  3
CONTENTDICTIONARY
350
E71C
  3
DRAWINGVARIABLESDICT
350
F3B9
  3
DWGPROPS
350
16817
  0
DICTIONARY
  5
150A5
330
7467
100
AcDbDictionary
280
     1
281
     1
  3
ACAD_LAYERSTATES
360
150A6
  0
DICTIONARY
  5
1677A
330
7474
100
AcDbDictionary
280
     1
281
     1
  3
ADSK_XREC_LAYER_RECONCILED
360
1677B
  0
DICTIONARY
  5
1677C
330
DEB2
100
AcDbDictionary
280
     1
281
     1
  3
ADSK_XREC_LAYER_RECONCILED
360
1677D
  0
DICTIONARY
  5
1677E
330
DEB3
100
AcDbDictionary
280
     1
281
     1
  3
ADSK_XREC_LAYER_RECONCILED
360
1677F
  0
DICTIONARY
  5
16780
330
DEB4
100
AcDbDictionary
280
     1
281
     1
  3
ADSK_XREC_LAYER_RECONCILED
360
16781
  0
DICTIONARY
  5
16782
330
DEB5
100
AcDbDictionary
280
     1
281
     1
  3
ADSK_XREC_LAYER_RECONCILED
360
16783
  0
DICTIONARY
  5
16784
330
DEB6
100
AcDbDictionary
280
     1
281
     1
  3
ADSK_XREC_LAYER_RECONCILED
360
16785
  0
DICTIONARY
  5
16786
330
10B54
100
AcDbDictionary
280
     1
281
     1
  3
ADSK_XREC_LAYER_RECONCILED
360
16787
  0
DICTIONARY
  5
16788
330
11729
100
AcDbDictionary
280
     1
281
     1
  3
ADSK_XREC_LAYER_RECONCILED
360
16789
  0
DICTIONARY
  5
1678A
330
1173F
100
AcDbDictionary
280
     1
281
     1
  3
ADSK_XREC_LAYER_RECONCILED
360
1678B
  0
DICTIONARY
  5
1678C
330
118A1
100
AcDbDictionary
280
     1
281
     1
  3
ADSK_XREC_LAYER_RECONCILED
360
1678D
  0
DICTIONARY
  5
1678E
330
123C1
100
AcDbDictionary
280
     1
281
     1
  3
ADSK_XREC_LAYER_RECONCILED
360
1678F
  0
DICTIONARY
  5
167CA
330
167C9
100
AcDbDictionary
280
     1
281
     1
  0
DICTIONARY
  5
166EF
330
16672
100
AcDbDictionary
280
     1
281
     1
  3
ACAD_SORTENTS
360
166F0
  0
XRECORD
  5
16657
102
{ACAD_REACTORS
330
7471
102
}
330
7471
100
AcDbXrecord
280
     1
300
ACDLT
300
2014
300
ACDLT_F_S
  0
DICTIONARY
  5
14F29
102
{ACAD_REACTORS
330
7471
102
}
330
7471
100
AcDbDictionary
281
     1
  0
DICTIONARY
  5
1664D
102
{ACAD_REACTORS
330
7471
102
}
330
7471
100
AcDbDictionary
281
     1
  3
Metric50
350
1664E
  0
DICTIONARY
  5
7472
102
{ACAD_REACTORS
330
7471
102
}
330
7471
100
AcDbDictionary
281
     1
  0
DICTIONARY
  5
14F2A
102
{ACAD_REACTORS
330
7471
102
}
330
7471
100
AcDbDictionary
281
     1
  3
Model
350
14F2C
  3
レイアウト1
350
14F2D
  0
DICTIONARY
  5
14F28
102
{ACAD_REACTORS
330
7471
102
}
330
7471
100
AcDbDictionary
281
     1
  3
ByBlock
350
1660C
  3
ByLayer
350
16604
  3
Global
350
16614
  0
DICTIONARY
  5
16649
102
{ACAD_REACTORS
330
7471
102
}
330
7471
100
AcDbDictionary
281
     1
  3
Standard
350
1664A
  0
DICTIONARY
  5
7473
102
{ACAD_REACTORS
330
7471
102
}
330
7471
100
AcDbDictionary
281
     1
  3
STANDARD
350
7480
  0
DICTIONARY
  5
14F2B
102
{ACAD_REACTORS
330
7471
102
}
330
7471
100
AcDbDictionary
281
     1
  0
ACDBDICTIONARYWDFLT
  5
14F26
102
{ACAD_REACTORS
330
7471
102
}
330
7471
100
AcDbDictionary
281
     1
  3
Normal
350
14F27
100
AcDbDictionaryWithDefault
340
14F27
  0
DICTIONARY
  5
16637
102
{ACAD_REACTORS
330
7471
102
}
330
7471
100
AcDbDictionary
281
     1
  3
A0
350
16638
  3
A1
350
16639
  3
A2
350
1663A
  3
A3
350
1663B
  3
A4
350
1663C
  3
A5
350
1663D
  3
A6
350
1663E
  3
A7
350
1663F
  3
A8
350
16640
  3
A9
350
16641
  3
B0
350
16642
  3
B1
350
16643
  3
B2
350
16644
  3
B3
350
16645
  3
B4
350
16646
  3
B5
350
16647
  3
B6
350
16648
  0
DICTIONARY
  5
1664B
102
{ACAD_REACTORS
330
7471
102
}
330
7471
100
AcDbDictionary
281
     1
  3
Metric50
350
1664C
  0
DICTIONARY
  5
16635
102
{ACAD_REACTORS
330
7471
102
}
330
7471
100
AcDbDictionary
281
     1
  3
Standard
350
16636
  0
DICTIONARY
  5
1661C
102
{ACAD_REACTORS
330
7471
102
}
330
7471
100
AcDbDictionary
281
     1
  3
2dWireframe
350
16622
  3
Basic
350
16621
  3
Brighten
350
16628
  3
ColorChange
350
1662C
  3
Conceptual
350
16625
  3
Dim
350
16627
  3
EdgeColorOff
350
16634
  3
Facepattern
350
1662B
  3
Flat
350
1661D
  3
FlatWithEdges
350
1661E
  3
Gouraud
350
1661F
  3
GouraudWithEdges
350
16620
  3
Hidden
350
16624
  3
JitterOff
350
16632
  3
Linepattern
350
1662A
  3
OverhangOff
350
16633
  3
Realistic
350
16626
  3
Shaded
350
16631
  3
Shaded with edges
350
16630
  3
Shades of Gray
350
1662D
  3
Sketchy
350
1662E
  3
Thicken
350
16629
  3
Wireframe
350
16623
  3
X-Ray
350
1662F
  0
XRECORD
  5
16816
102
{ACAD_REACTORS
330
7471
102
}
330
7471
100
AcDbXrecord
280
     1
 90
        1
330
16636
  0
DICTIONARY
  5
16795
102
{ACAD_REACTORS
330
7471
102
}
330
7471
100
AcDbDictionary
281
     1
  3
CANNOSCALE
350
1679B
  3
CMLEADERSTYLE
350
16797
  3
CTABLESTYLE
350
16796
  3
CVIEWDETAILSTYLE
350
16798
  3
CVIEWSECTIONSTYLE
350
16799
  3
DIMASSOC
350
16813
  3
INDEXCTL
350
16811
  3
LAYEREVAL
350
1679D
  3
LAYERNOTIFY
350
1679E
  3
LIGHTINGUNITS
350
1679C
  3
MSLTSCALE
350
1679A
  3
SORTENTS
350
16810
  3
XCLIPFRAME
350
16812
  0
DICTIONARY
  5
1681D
102
{ACAD_REACTORS
330
7471
102
}
330
7471
100
AcDbDictionary
281
     1
  3
AcDsRecords
350
1681F
  3
AcDsSchemas
350
1681E
1001
ACAD
1070
     2
  0
DICTIONARY
  5
E71C
102
{ACAD_REACTORS
330
7471
102
}
330
7471
100
AcDbDictionary
281
     1
  0
DICTIONARY
  5
F3B9
102
{ACAD_REACTORS
330
7471
102
}
330
7471
100
AcDbDictionary
281
     1
1001
DRAWINGVARIABLESXDATA
1000
POLARMODE
1000
1
  0
XRECORD
  5
16817
102
{ACAD_REACTORS
330
7471
102
}
330
7471
100
AcDbXrecord
280
     1
  1
DWGPROPS COOKIE
  2

  3

  4

  6

  7

  8
TSUJIKAWA
  9

300
=
301
=
302
=
303
=
304
=
305
=
306
=
307
=
308
=
309
=
 40
0.4665235416666667
 41
2452116.684896065
 42
2457984.447393009
  1

 90
        0
  0
DICTIONARY
  5
150A6
102
{ACAD_REACTORS
330
150A5
102
}
330
150A5
100
AcDbDictionary
281
     1
  0
XRECORD
  5
1677B
102
{ACAD_REACTORS
330
1677A
102
}
330
1677A
100
AcDbXrecord
280
     1
290
     1
  0
XRECORD
  5
1677D
102
{ACAD_REACTORS
330
1677C
102
}
330
1677C
100
AcDbXrecord
280
     1
290
     1
  0
XRECORD
  5
1677F
102
{ACAD_REACTORS
330
1677E
102
}
330
1677E
100
AcDbXrecord
280
     1
290
     1
  0
XRECORD
  5
16781
102
{ACAD_REACTORS
330
16780
102
}
330
16780
100
AcDbXrecord
280
     1
290
     1
  0
XRECORD
  5
16783
102
{ACAD_REACTORS
330
16782
102
}
330
16782
100
AcDbXrecord
280
     1
290
     1
  0
XRECORD
  5
16785
102
{ACAD_REACTORS
330
16784
102
}
330
16784
100
AcDbXrecord
280
     1
290
     1
  0
XRECORD
  5
16787
102
{ACAD_REACTORS
330
16786
102
}
330
16786
100
AcDbXrecord
280
     1
290
     1
  0
XRECORD
  5
16789
102
{ACAD_REACTORS
330
16788
102
}
330
16788
100
AcDbXrecord
280
     1
290
     1
  0
XRECORD
  5
1678B
102
{ACAD_REACTORS
330
1678A
102
}
330
1678A
100
AcDbXrecord
280
     1
290
     1
  0
XRECORD
  5
1678D
102
{ACAD_REACTORS
330
1678C
102
}
330
1678C
100
AcDbXrecord
280
     1
290
     1
  0
XRECORD
  5
1678F
102
{ACAD_REACTORS
330
1678E
102
}
330
1678E
100
AcDbXrecord
280
     1
290
     1
  0
SORTENTSTABLE
  5
166F0
102
{ACAD_REACTORS
330
166EF
102
}
330
166EF
100
AcDbSortentsTable
330
16672
  0
ACDBDETAILVIEWSTYLE
  5
1664E
102
{ACAD_XDICTIONARY
360
16792
102
}
102
{ACAD_REACTORS
330
1664D
102
}
330
1664D
100
AcDbModelDocViewStyle
 70
     0
  3
Metric50
290
     0
100
AcDbDetailViewStyle
 70
     0
 71
     0
 90
        3
 71
     1
340
7475
 40
5.0
340
0
 40
5.0
300

 40
0.0
280
     1
 71
     2
340
7479
 90
       25
 71
     3
340
7475
 40
5.0
 90
        0
 40
15.0
 90
        1
300
%<\AcVar ViewDetailId>% (%<\AcVar ViewScale \f "%sn">%)
 71
     4
340
7479
 90
       25
340
7479
 90
       25
280
     0
  0
LAYOUT
  5
14F2C
102
{ACAD_XDICTIONARY
360
16820
102
}
102
{ACAD_REACTORS
330
14F2A
102
}
330
14F2A
100
AcDbPlotSettings
  1

  2
CubePDF
  4
A3
  6

 40
3.174999952316284
 41
3.174999952316284
 42
3.17498779296875
 43
3.17498779296875
 44
420.1583251953125
 45
297.0318298339844
 46
0.6042196843820023
 47
0.0
 48
424.6042489999999
 49
264.156711
140
1777.606053
141
968.930615
142
1.0
143
39.98278751715608
 70
  3764
 72
     1
 73
     0
 74
     2
  7
inabass.ctb
 75
     0
147
0.0250107624329823
148
25.79074261211281
149
125.8223078213959
100
AcDbLayout
  1
Model
 70
     1
 71
     0
 10
0.0
 20
0.0
 11
12.0
 21
9.0
 12
0.0
 22
0.0
 32
0.0
 14
0.0
 24
0.0
 34
0.0
 15
0.0
 25
0.0
 35
0.0
146
0.0
 13
0.0
 23
0.0
 33
0.0
 16
1.0
 26
0.0
 36
0.0
 17
0.0
 27
1.0
 37
0.0
 76
     0
330
747D
331
16602
1001
ACAD_PSEXT
1000
CubePDF
1000
CubePDF
1000
CubePDF:
1000
CubePDF
1070
     0
  0
LAYOUT
  5
14F2D
102
{ACAD_XDICTIONARY
360
16822
102
}
102
{ACAD_REACTORS
330
14F2A
102
}
330
14F2A
100
AcDbPlotSettings
  1

  2
Microsoft Office Document Image Writer
  4

  6

 40
0.0
 41
0.0
 42
0.0
 43
0.0
 44
0.0
 45
0.0
 46
0.0
 47
0.0
 48
0.0
 49
0.0
140
0.0
141
0.0
142
1.0
143
1.0
 70
   688
 72
     0
 73
     0
 74
     5
  7

 75
    16
147
1.0
148
0.0
149
0.0
100
AcDbLayout
  1
レイアウト1
 70
     0
 71
     1
 10
0.0
 20
0.0
 11
420.0
 21
297.0
 12
0.0
 22
0.0
 32
0.0
 14
1.000000000000000E+20
 24
1.000000000000000E+20
 34
1.000000000000000E+20
 15
-1.000000000000000E+20
 25
-1.000000000000000E+20
 35
-1.000000000000000E+20
146
0.0
 13
0.0
 23
0.0
 33
0.0
 16
1.0
 26
0.0
 36
0.0
 17
0.0
 27
1.0
 37
0.0
 76
     0
330
747A
  0
MATERIAL
  5
1660C
102
{ACAD_XDICTIONARY
360
1660D
102
}
102
{ACAD_REACTORS
330
14F28
102
}
330
14F28
100
AcDbMaterial
  1
ByBlock
 72
     0
 43
0.0208333333333333
 43
0.0
 43
0.0
 43
0.0
 43
0.0
 43
0.0208333333333333
 43
0.0
 43
0.0
 43
0.0
 43
0.0
 43
1.0
 43
0.0
 43
0.0
 43
0.0
 43
0.0
 43
1.0
 77
     0
 47
0.0208333333333333
 47
0.0
 47
0.0
 47
0.0
 47
0.0
 47
0.0208333333333333
 47
0.0
 47
0.0
 47
0.0
 47
0.0
 47
1.0
 47
0.0
 47
0.0
 47
0.0
 47
0.0
 47
1.0
171
     0
 49
0.0208333333333333
 49
0.0
 49
0.0
 49
0.0
 49
0.0
 49
0.0208333333333333
 49
0.0
 49
0.0
 49
0.0
 49
0.0
 49
1.0
 49
0.0
 49
0.0
 49
0.0
 49
0.0
 49
1.0
175
     0
142
0.0208333333333333
142
0.0
142
0.0
142
0.0
142
0.0
142
0.0208333333333333
142
0.0
142
0.0
142
0.0
142
0.0
142
1.0
142
0.0
142
0.0
142
0.0
142
0.0
142
1.0
179
     0
144
0.0208333333333333
144
0.0
144
0.0
144
0.0
144
0.0
144
0.0208333333333333
144
0.0
144
0.0
144
0.0
144
0.0
144
1.0
144
0.0
144
0.0
144
0.0
144
0.0
144
1.0
147
0.0208333333333333
147
0.0
147
0.0
147
0.0
147
0.0
147
0.0208333333333333
147
0.0
147
0.0
147
0.0
147
0.0
147
1.0
147
0.0
147
0.0
147
0.0
147
0.0
147
1.0
  0
MATERIAL
  5
16604
102
{ACAD_XDICTIONARY
360
16605
102
}
102
{ACAD_REACTORS
330
14F28
102
}
330
14F28
100
AcDbMaterial
  1
ByLayer
 72
     0
 43
0.0208333333333333
 43
0.0
 43
0.0
 43
0.0
 43
0.0
 43
0.0208333333333333
 43
0.0
 43
0.0
 43
0.0
 43
0.0
 43
1.0
 43
0.0
 43
0.0
 43
0.0
 43
0.0
 43
1.0
 77
     0
 47
0.0208333333333333
 47
0.0
 47
0.0
 47
0.0
 47
0.0
 47
0.0208333333333333
 47
0.0
 47
0.0
 47
0.0
 47
0.0
 47
1.0
 47
0.0
 47
0.0
 47
0.0
 47
0.0
 47
1.0
171
     0
 49
0.0208333333333333
 49
0.0
 49
0.0
 49
0.0
 49
0.0
 49
0.0208333333333333
 49
0.0
 49
0.0
 49
0.0
 49
0.0
 49
1.0
 49
0.0
 49
0.0
 49
0.0
 49
0.0
 49
1.0
175
     0
142
0.0208333333333333
142
0.0
142
0.0
142
0.0
142
0.0
142
0.0208333333333333
142
0.0
142
0.0
142
0.0
142
0.0
142
1.0
142
0.0
142
0.0
142
0.0
142
0.0
142
1.0
179
     0
144
0.0208333333333333
144
0.0
144
0.0
144
0.0
144
0.0
144
0.0208333333333333
144
0.0
144
0.0
144
0.0
144
0.0
144
1.0
144
0.0
144
0.0
144
0.0
144
0.0
144
1.0
147
0.0208333333333333
147
0.0
147
0.0
147
0.0
147
0.0
147
0.0208333333333333
147
0.0
147
0.0
147
0.0
147
0.0
147
1.0
147
0.0
147
0.0
147
0.0
147
0.0
147
1.0
  0
MATERIAL
  5
16614
102
{ACAD_XDICTIONARY
360
16615
102
}
102
{ACAD_REACTORS
330
14F28
102
}
330
14F28
100
AcDbMaterial
  1
Global
 72
     0
 43
0.0208333333333333
 43
0.0
 43
0.0
 43
0.0
 43
0.0
 43
0.0208333333333333
 43
0.0
 43
0.0
 43
0.0
 43
0.0
 43
1.0
 43
0.0
 43
0.0
 43
0.0
 43
0.0
 43
1.0
 77
     0
 47
0.0208333333333333
 47
0.0
 47
0.0
 47
0.0
 47
0.0
 47
0.0208333333333333
 47
0.0
 47
0.0
 47
0.0
 47
0.0
 47
1.0
 47
0.0
 47
0.0
 47
0.0
 47
0.0
 47
1.0
171
     0
 49
0.0208333333333333
 49
0.0
 49
0.0
 49
0.0
 49
0.0
 49
0.0208333333333333
 49
0.0
 49
0.0
 49
0.0
 49
0.0
 49
1.0
 49
0.0
 49
0.0
 49
0.0
 49
0.0
 49
1.0
175
     0
142
0.0208333333333333
142
0.0
142
0.0
142
0.0
142
0.0
142
0.0208333333333333
142
0.0
142
0.0
142
0.0
142
0.0
142
1.0
142
0.0
142
0.0
142
0.0
142
0.0
142
1.0
179
     0
144
0.0208333333333333
144
0.0
144
0.0
144
0.0
144
0.0
144
0.0208333333333333
144
0.0
144
0.0
144
0.0
144
0.0
144
1.0
144
0.0
144
0.0
144
0.0
144
0.0
144
1.0
147
0.0208333333333333
147
0.0
147
0.0
147
0.0
147
0.0
147
0.0208333333333333
147
0.0
147
0.0
147
0.0
147
0.0
147
1.0
147
0.0
147
0.0
147
0.0
147
0.0
147
1.0
  0
MLEADERSTYLE
  5
1664A
102
{ACAD_XDICTIONARY
360
16859
102
}
102
{ACAD_REACTORS
330
16649
102
}
330
16649
100
AcDbMLeaderStyle
170
     2
171
     1
172
     0
 90
        2
 40
0.0
 41
0.0
173
     1
 91
-1056964608
340
7477
 92
       -2
290
     1
 42
2.0
291
     1
 43
0.36
  3
Standard
 44
4.0
300

342
7475
174
     1
178
     6
175
     1
176
     0
 93
-1056964608
 45
4.0
292
     0
297
     0
 46
4.0
 94
-1056964608
 47
1.0
 49
1.0
140
1.0
293
     1
141
0.0
294
     1
177
     0
142
1.0
295
     0
296
     0
143
0.125
1001
ACAD_MLEADERVER
1070
     2
  0
MLINESTYLE
  5
7480
102
{ACAD_REACTORS
330
7473
102
}
330
7473
100
AcDbMlineStyle
  2
STANDARD
 70
     0
  3

 62
     0
 51
90.0
 52
90.0
 71
     2
 49
0.5
 62
   256
  6
BYLAYER
 49
-0.5
 62
   256
  6
BYLAYER
  0
ACDBPLACEHOLDER
  5
14F27
102
{ACAD_REACTORS
330
14F26
102
}
330
14F26
  0
SCALE
  5
16638
102
{ACAD_REACTORS
330
16637
102
}
330
16637
100
AcDbScale
 70
     0
300
1:1
140
1.0
141
1.0
290
     1
  0
SCALE
  5
16639
102
{ACAD_REACTORS
330
16637
102
}
330
16637
100
AcDbScale
 70
     0
300
1:2
140
1.0
141
2.0
290
     0
  0
SCALE
  5
1663A
102
{ACAD_REACTORS
330
16637
102
}
330
16637
100
AcDbScale
 70
     0
300
1:4
140
1.0
141
4.0
290
     0
  0
SCALE
  5
1663B
102
{ACAD_REACTORS
330
16637
102
}
330
16637
100
AcDbScale
 70
     0
300
1:5
140
1.0
141
5.0
290
     0
  0
SCALE
  5
1663C
102
{ACAD_REACTORS
330
16637
102
}
330
16637
100
AcDbScale
 70
     0
300
1:8
140
1.0
141
8.0
290
     0
  0
SCALE
  5
1663D
102
{ACAD_REACTORS
330
16637
102
}
330
16637
100
AcDbScale
 70
     0
300
1:10
140
1.0
141
10.0
290
     0
  0
SCALE
  5
1663E
102
{ACAD_REACTORS
330
16637
102
}
330
16637
100
AcDbScale
 70
     0
300
1:16
140
1.0
141
16.0
290
     0
  0
SCALE
  5
1663F
102
{ACAD_REACTORS
330
16637
102
}
330
16637
100
AcDbScale
 70
     0
300
1:20
140
1.0
141
20.0
290
     0
  0
SCALE
  5
16640
102
{ACAD_REACTORS
330
16637
102
}
330
16637
100
AcDbScale
 70
     0
300
1:30
140
1.0
141
30.0
290
     0
  0
SCALE
  5
16641
102
{ACAD_REACTORS
330
16637
102
}
330
16637
100
AcDbScale
 70
     0
300
1:40
140
1.0
141
40.0
290
     0
  0
SCALE
  5
16642
102
{ACAD_REACTORS
330
16637
102
}
330
16637
100
AcDbScale
 70
     0
300
1:50
140
1.0
141
50.0
290
     0
  0
SCALE
  5
16643
102
{ACAD_REACTORS
330
16637
102
}
330
16637
100
AcDbScale
 70
     0
300
1:100
140
1.0
141
100.0
290
     0
  0
SCALE
  5
16644
102
{ACAD_REACTORS
330
16637
102
}
330
16637
100
AcDbScale
 70
     0
300
2:1
140
2.0
141
1.0
290
     0
  0
SCALE
  5
16645
102
{ACAD_REACTORS
330
16637
102
}
330
16637
100
AcDbScale
 70
     0
300
4:1
140
4.0
141
1.0
290
     0
  0
SCALE
  5
16646
102
{ACAD_REACTORS
330
16637
102
}
330
16637
100
AcDbScale
 70
     0
300
8:1
140
8.0
141
1.0
290
     0
  0
SCALE
  5
16647
102
{ACAD_REACTORS
330
16637
102
}
330
16637
100
AcDbScale
 70
     0
300
10:1
140
10.0
141
1.0
290
     0
  0
SCALE
  5
16648
102
{ACAD_REACTORS
330
16637
102
}
330
16637
100
AcDbScale
 70
     0
300
100:1
140
100.0
141
1.0
290
     0
  0
ACDBSECTIONVIEWSTYLE
  5
1664C
102
{ACAD_XDICTIONARY
360
16790
102
}
102
{ACAD_REACTORS
330
1664B
102
}
330
1664B
100
AcDbModelDocViewStyle
 70
     0
  3
Metric50
290
     0
100
AcDbSectionViewStyle
 70
     0
 71
     0
 90
      102
 71
     1
340
7475
 40
5.0
340
0
340
0
 40
5.0
300
I, O, Q, S, X, Z
 40
10.0
 90
        0
 40
2.5
 90
        0
 71
     2
340
7479
 90
       25
340
7479
 90
       50
 40
5.0
 40
2.5
 40
5.0
 71
     3
340
7475
 40
5.0
 90
        0
 40
15.0
 90
        1
300
%<\AcVar ViewSectionStartId>%-%<\AcVar ViewSectionEndId>% (%<\AcVar ViewScale \f "%sn">%)
 71
     4
300
ANSI31
 40
1.0
 90
        0
290
     0
290
     0
 90
        6
 40
0.0
 40
1.570796326794896
 40
0.2617993877991494
 40
1.308996938995747
 40
-0.2617993877991494
 40
1.832595714594046
  0
TABLESTYLE
  5
16636
102
{ACAD_XDICTIONARY
360
16814
102
}
102
{ACAD_REACTORS
330
16635
102
}
330
16635
100
AcDbTableStyle
  3
Standard
 70
     0
 71
     0
 40
1.5
 41
1.5
280
     0
281
     0
  7
STANDARD
140
4.5
170
     2
 62
     0
 63
     7
283
     0
274
    -2
284
     1
 64
     0
275
    -2
285
     1
 65
     0
276
    -2
286
     1
 66
     0
277
    -2
287
     1
 67
     0
278
    -2
288
     1
 68
     0
279
    -2
289
     1
 69
     0
  7
STANDARD
140
6.0
170
     5
 62
     0
 63
     7
283
     0
274
    -2
284
     1
 64
     0
275
    -2
285
     1
 65
     0
276
    -2
286
     1
 66
     0
277
    -2
287
     1
 67
     0
278
    -2
288
     1
 68
     0
279
    -2
289
     1
 69
     0
  7
STANDARD
140
4.5
170
     5
 62
     0
 63
     7
283
     0
274
    -2
284
     1
 64
     0
275
    -2
285
     1
 65
     0
276
    -2
286
     1
 66
     0
277
    -2
287
     1
 67
     0
278
    -2
288
     1
 68
     0
279
    -2
289
     1
 69
     0
  0
VISUALSTYLE
  5
16622
102
{ACAD_XDICTIONARY
360
16831
102
}
102
{ACAD_REACTORS
330
1661C
102
}
330
1661C
100
AcDbVisualStyle
  2
2dWireframe
 70
     4
 71
     0
 72
     2
 73
     0
 90
        0
 40
-0.6
 41
-30.0
 62
     5
 63
     7
 74
     1
 91
        4
 64
     7
 65
   257
 75
     1
175
     1
 42
1.0
 92
        0
 66
   257
 43
1.0
 76
     1
 77
     6
 78
     2
 67
     7
 79
     5
170
     0
171
     0
290
     0
174
     0
 93
        1
 44
0.0
173
     0
291
     0
 45
0.0
1001
ACAD
1000
AcDbSavedByObjectVersion
1070
     0
  0
VISUALSTYLE
  5
16621
102
{ACAD_XDICTIONARY
360
1682F
102
}
102
{ACAD_REACTORS
330
1661C
102
}
330
1661C
100
AcDbVisualStyle
  2
Basic
 70
     7
 71
     1
 72
     0
 73
     1
 90
        0
 40
-0.6
 41
-30.0
 62
     5
 63
     7
 74
     0
 91
        4
 64
     7
 65
   257
 75
     1
175
     1
 42
1.0
 92
        8
 66
     7
 43
1.0
 76
     1
 77
     6
 78
     2
 67
     7
 79
     5
170
     0
171
     0
290
     0
174
     0
 93
        1
 44
0.0
173
     0
291
     1
 45
0.0
1001
ACAD
1000
AcDbSavedByObjectVersion
1070
     0
  0
VISUALSTYLE
  5
16628
102
{ACAD_XDICTIONARY
360
1683D
102
}
102
{ACAD_REACTORS
330
1661C
102
}
330
1661C
100
AcDbVisualStyle
  2
Brighten
 70
    12
 71
     2
 72
     2
 73
     0
 90
        0
 40
-0.6
 41
-30.0
 62
     5
 63
     7
 74
     1
 91
        4
 64
     7
 65
   257
 75
     1
175
     1
 42
1.0
 92
        8
 66
     7
 43
1.0
 76
     1
 77
     6
 78
     2
 67
     7
 79
     5
170
     0
171
     0
290
     0
174
     0
 93
        1
 44
50.0
173
     0
291
     1
 45
0.0
1001
ACAD
1000
AcDbSavedByObjectVersion
1070
     0
  0
VISUALSTYLE
  5
1662C
102
{ACAD_XDICTIONARY
360
16845
102
}
102
{ACAD_REACTORS
330
1661C
102
}
330
1661C
100
AcDbVisualStyle
  2
ColorChange
 70
    16
 71
     2
 72
     2
 73
     3
 90
        0
 40
-0.6
 41
-30.0
 62
     5
 63
     8
 74
     1
 91
        4
 64
     7
 65
   257
 75
     1
175
     1
 42
1.0
 92
        8
 66
     8
 43
1.0
 76
     1
 77
     6
 78
     2
 67
     7
 79
     5
170
     0
171
     0
290
     0
174
     0
 93
        1
 44
0.0
173
     0
291
     1
 45
0.0
1001
ACAD
1000
AcDbSavedByObjectVersion
1070
     0
  0
VISUALSTYLE
  5
16625
102
{ACAD_XDICTIONARY
360
16837
102
}
102
{ACAD_REACTORS
330
1661C
102
}
330
1661C
100
AcDbVisualStyle
  2
Conceptual
 70
     9
 71
     3
 72
     2
 73
     0
 90
        0
 40
-0.6
 41
-30.0
 62
     5
 63
     7
 74
     2
 91
        2
 64
     7
 65
   257
 75
     1
175
     1
 42
179.0
 92
        8
 66
     7
 43
1.0
 76
     1
 77
     6
 78
     2
 67
     7
 79
     3
170
     0
171
     0
290
     0
174
     0
 93
        1
 44
0.0
173
     0
291
     0
 45
0.0
1001
ACAD
1000
AcDbSavedByObjectVersion
1070
     0
  0
VISUALSTYLE
  5
16627
102
{ACAD_XDICTIONARY
360
1683B
102
}
102
{ACAD_REACTORS
330
1661C
102
}
330
1661C
100
AcDbVisualStyle
  2
Dim
 70
    11
 71
     2
 72
     2
 73
     0
 90
        0
 40
-0.6
 41
-30.0
 62
     5
 63
     7
 74
     1
 91
        4
 64
     7
 65
   257
 75
     1
175
     1
 42
1.0
 92
        8
 66
     7
 43
1.0
 76
     1
 77
     6
 78
     2
 67
     7
 79
     5
170
     0
171
     0
290
     0
174
     0
 93
        1
 44
-50.0
173
     0
291
     1
 45
0.0
1001
ACAD
1000
AcDbSavedByObjectVersion
1070
     0
  0
VISUALSTYLE
  5
16634
102
{ACAD_XDICTIONARY
360
16855
102
}
102
{ACAD_REACTORS
330
1661C
102
}
330
1661C
100
AcDbVisualStyle
  2
EdgeColorOff
 70
    22
 71
     2
 72
     2
 73
     0
 90
        0
 40
-0.6
 41
-30.0
 62
     5
 63
     7
 74
     1
 91
        4
 64
     7
 65
   257
 75
     1
175
     1
 42
1.0
 92
        8
 66
     7
 43
1.0
 76
     1
 77
     6
 78
     2
 67
     7
 79
     5
170
     0
171
     0
290
     0
174
     0
 93
        1
 44
0.0
173
     0
291
     1
 45
0.0
1001
ACAD
1000
AcDbSavedByObjectVersion
1070
     0
  0
VISUALSTYLE
  5
1662B
102
{ACAD_XDICTIONARY
360
16843
102
}
102
{ACAD_REACTORS
330
1661C
102
}
330
1661C
100
AcDbVisualStyle
  2
Facepattern
 70
    15
 71
     2
 72
     2
 73
     0
 90
        0
 40
-0.6
 41
-30.0
 62
     5
 63
     7
 74
     1
 91
        4
 64
     7
 65
   257
 75
     1
175
     1
 42
1.0
 92
        8
 66
     7
 43
1.0
 76
     1
 77
     6
 78
     2
 67
     7
 79
     5
170
     0
171
     0
290
     0
174
     0
 93
        1
 44
0.0
173
     0
291
     1
 45
0.0
1001
ACAD
1000
AcDbSavedByObjectVersion
1070
     0
  0
VISUALSTYLE
  5
1661D
102
{ACAD_XDICTIONARY
360
16827
102
}
102
{ACAD_REACTORS
330
1661C
102
}
330
1661C
100
AcDbVisualStyle
  2
Flat
 70
     0
 71
     2
 72
     1
 73
     1
 90
        2
 40
-0.6
 41
30.0
 62
     5
 63
     7
 74
     0
 91
        0
 64
     7
 65
   257
 75
     1
175
     1
 42
1.0
 92
        8
 66
     7
 43
1.0
 76
     1
 77
     6
 78
     2
 67
     7
 79
     5
170
     0
171
     0
290
     0
174
     0
 93
       13
 44
0.0
173
     0
291
     1
 45
0.0
1001
ACAD
1000
AcDbSavedByObjectVersion
1070
     0
  0
VISUALSTYLE
  5
1661E
102
{ACAD_XDICTIONARY
360
16829
102
}
102
{ACAD_REACTORS
330
1661C
102
}
330
1661C
100
AcDbVisualStyle
  2
FlatWithEdges
 70
     1
 71
     2
 72
     1
 73
     1
 90
        2
 40
-0.6
 41
30.0
 62
     5
 63
     7
 74
     1
 91
        0
 64
     7
 65
   257
 75
     1
175
     1
 42
1.0
 92
        0
 66
   257
 43
1.0
 76
     1
 77
     6
 78
     2
 67
     7
 79
     5
170
     0
171
     0
290
     0
174
     0
 93
       13
 44
0.0
173
     0
291
     1
 45
0.0
1001
ACAD
1000
AcDbSavedByObjectVersion
1070
     0
  0
VISUALSTYLE
  5
1661F
102
{ACAD_XDICTIONARY
360
1682B
102
}
102
{ACAD_REACTORS
330
1661C
102
}
330
1661C
100
AcDbVisualStyle
  2
Gouraud
 70
     2
 71
     2
 72
     2
 73
     1
 90
        2
 40
-0.6
 41
30.0
 62
     5
 63
     7
 74
     0
 91
        0
 64
     7
 65
   257
 75
     1
175
     1
 42
1.0
 92
        0
 66
     7
 43
1.0
 76
     1
 77
     6
 78
     2
 67
     7
 79
     5
170
     0
171
     0
290
     0
174
     0
 93
       13
 44
0.0
173
     0
291
     1
 45
0.0
1001
ACAD
1000
AcDbSavedByObjectVersion
1070
     0
  0
VISUALSTYLE
  5
16620
102
{ACAD_XDICTIONARY
360
1682D
102
}
102
{ACAD_REACTORS
330
1661C
102
}
330
1661C
100
AcDbVisualStyle
  2
GouraudWithEdges
 70
     3
 71
     2
 72
     2
 73
     1
 90
        2
 40
-0.6
 41
30.0
 62
     5
 63
     7
 74
     1
 91
        0
 64
     7
 65
   257
 75
     1
175
     1
 42
1.0
 92
        0
 66
   257
 43
1.0
 76
     1
 77
     6
 78
     2
 67
     7
 79
     5
170
     0
171
     0
290
     0
174
     0
 93
       13
 44
0.0
173
     0
291
     1
 45
0.0
1001
ACAD
1000
AcDbSavedByObjectVersion
1070
     0
  0
VISUALSTYLE
  5
16624
102
{ACAD_XDICTIONARY
360
16835
102
}
102
{ACAD_REACTORS
330
1661C
102
}
330
1661C
100
AcDbVisualStyle
  2
Hidden
 70
     6
 71
     1
 72
     2
 73
     2
 90
        0
 40
-0.6
 41
-30.0
 62
     5
 63
     7
 74
     2
 91
        2
 64
     7
 65
   257
 75
     2
175
     1
 42
40.0
 92
        0
 66
   257
 43
1.0
 76
     1
 77
     6
 78
     2
 67
     7
 79
     3
170
     0
171
     0
290
     0
174
     0
 93
        1
 44
0.0
173
     0
291
     0
 45
0.0
1001
ACAD
1000
AcDbSavedByObjectVersion
1070
     0
  0
VISUALSTYLE
  5
16632
102
{ACAD_XDICTIONARY
360
16851
102
}
102
{ACAD_REACTORS
330
1661C
102
}
330
1661C
100
AcDbVisualStyle
  2
JitterOff
 70
    20
 71
     2
 72
     2
 73
     0
 90
        0
 40
-0.6
 41
-30.0
 62
     5
 63
     7
 74
     1
 91
        4
 64
     7
 65
   257
 75
     1
175
     1
 42
1.0
 92
       10
 66
     7
 43
1.0
 76
     1
 77
     6
 78
     2
 67
     7
 79
     5
170
     0
171
     0
290
     0
174
     0
 93
        1
 44
0.0
173
     0
291
     1
 45
0.0
1001
ACAD
1000
AcDbSavedByObjectVersion
1070
     0
  0
VISUALSTYLE
  5
1662A
102
{ACAD_XDICTIONARY
360
16841
102
}
102
{ACAD_REACTORS
330
1661C
102
}
330
1661C
100
AcDbVisualStyle
  2
Linepattern
 70
    14
 71
     2
 72
     2
 73
     0
 90
        0
 40
-0.6
 41
-30.0
 62
     5
 63
     7
 74
     1
 91
        4
 64
     7
 65
   257
 75
     7
175
     7
 42
1.0
 92
        8
 66
     7
 43
1.0
 76
     1
 77
     6
 78
     2
 67
     7
 79
     5
170
     0
171
     0
290
     0
174
     0
 93
        1
 44
0.0
173
     0
291
     1
 45
0.0
1001
ACAD
1000
AcDbSavedByObjectVersion
1070
     0
  0
VISUALSTYLE
  5
16633
102
{ACAD_XDICTIONARY
360
16853
102
}
102
{ACAD_REACTORS
330
1661C
102
}
330
1661C
100
AcDbVisualStyle
  2
OverhangOff
 70
    21
 71
     2
 72
     2
 73
     0
 90
        0
 40
-0.6
 41
-30.0
 62
     5
 63
     7
 74
     1
 91
        4
 64
     7
 65
   257
 75
     1
175
     1
 42
1.0
 92
        9
 66
     7
 43
1.0
 76
     1
 77
     6
 78
     2
 67
     7
 79
     5
170
     0
171
     0
290
     0
174
     0
 93
        1
 44
0.0
173
     0
291
     1
 45
0.0
1001
ACAD
1000
AcDbSavedByObjectVersion
1070
     0
  0
VISUALSTYLE
  5
16626
102
{ACAD_XDICTIONARY
360
16839
102
}
102
{ACAD_REACTORS
330
1661C
102
}
330
1661C
100
AcDbVisualStyle
  2
Realistic
 70
     8
 71
     2
 72
     3
 73
     0
 90
        2
 40
-0.6
 41
30.0
 62
     5
 63
     7
 74
     0
 91
        0
 64
     7
 65
   257
 75
     1
175
     1
 42
1.0
 92
        8
 66
   257
 43
1.0
 76
     1
 77
     6
 78
     2
 67
     7
 79
     3
170
     0
171
     0
290
     0
174
     0
 93
       13
 44
0.0
173
     0
291
     0
 45
0.0
1001
ACAD
1000
AcDbSavedByObjectVersion
1070
     0
  0
VISUALSTYLE
  5
16631
102
{ACAD_XDICTIONARY
360
1684F
102
}
102
{ACAD_REACTORS
330
1661C
102
}
330
1661C
100
AcDbVisualStyle
  2
Shaded
 70
    27
 71
     2
 72
     2
 73
     1
 90
        2
 40
-0.6
 41
30.0
 62
     5
 63
     7
 74
     0
 91
        4
 64
     7
 65
   257
 75
     1
175
     1
 42
1.0
 92
        8
 66
   257
 43
1.0
 76
     1
 77
     6
 78
     2
 67
     8
 79
     3
170
     0
171
     0
290
     0
174
     0
 93
        5
 44
0.0
173
     0
291
     0
 45
0.0
1001
ACAD
1000
AcDbSavedByObjectVersion
1070
     0
  0
VISUALSTYLE
  5
16630
102
{ACAD_XDICTIONARY
360
1684D
102
}
102
{ACAD_REACTORS
330
1661C
102
}
330
1661C
100
AcDbVisualStyle
  2
Shaded with edges
 70
    26
 71
     2
 72
     2
 73
     1
 90
        2
 40
-0.6
 41
30.0
 62
     5
 63
     7
 74
     1
 91
       10
 64
     7
 65
   257
 75
     2
175
     1
 42
1.0
 92
        8
 66
   257
 43
1.0
 76
     1
 77
     6
 78
     2
 67
     7
 79
     3
170
     0
171
     0
290
     0
174
     0
 93
        5
 44
0.0
173
     0
291
     0
 45
0.0
1001
ACAD
1000
AcDbSavedByObjectVersion
1070
     0
  0
VISUALSTYLE
  5
1662D
102
{ACAD_XDICTIONARY
360
16847
102
}
102
{ACAD_REACTORS
330
1661C
102
}
330
1661C
100
AcDbVisualStyle
  2
Shades of Gray
 70
    23
 71
     2
 72
     2
 73
     3
 90
        0
 40
-0.6
 41
-30.0
 62
     5
 63
     7
 74
     2
 91
        2
 64
     7
 65
     7
 75
     1
175
     1
 42
40.0
 92
        8
 66
     7
 43
1.0
 76
     1
 77
     6
 78
     2
 67
     7
 79
     3
170
     0
171
     0
290
     0
174
     0
 93
        1
 44
0.0
173
     0
291
     0
 45
0.0
1001
ACAD
1000
AcDbSavedByObjectVersion
1070
     0
  0
VISUALSTYLE
  5
1662E
102
{ACAD_XDICTIONARY
360
16849
102
}
102
{ACAD_REACTORS
330
1661C
102
}
330
1661C
100
AcDbVisualStyle
  2
Sketchy
 70
    24
 71
     1
 72
     2
 73
     2
 90
        0
 40
-0.6
 41
-30.0
 62
     5
 63
     7
 74
     2
 91
        2
 64
     7
 65
     7
 75
     1
175
     1
 42
40.0
 92
       11
 66
     7
 43
1.0
 76
     1
 77
     6
 78
     2
 67
     7
 79
     6
170
     0
171
     0
290
     0
174
     0
 93
        1
 44
0.0
173
     0
291
     0
 45
0.0
1001
ACAD
1000
AcDbSavedByObjectVersion
1070
     0
  0
VISUALSTYLE
  5
16629
102
{ACAD_XDICTIONARY
360
1683F
102
}
102
{ACAD_REACTORS
330
1661C
102
}
330
1661C
100
AcDbVisualStyle
  2
Thicken
 70
    13
 71
     2
 72
     2
 73
     0
 90
        0
 40
-0.6
 41
-30.0
 62
     5
 63
     7
 74
     1
 91
        4
 64
     7
 65
   257
 75
     1
175
     1
 42
1.0
 92
       12
 66
     7
 43
1.0
 76
     1
 77
     6
 78
     2
 67
     7
 79
     5
170
     0
171
     0
290
     0
174
     0
 93
        1
 44
0.0
173
     0
291
     1
 45
0.0
1001
ACAD
1000
AcDbSavedByObjectVersion
1070
     0
  0
VISUALSTYLE
  5
16623
102
{ACAD_XDICTIONARY
360
16833
102
}
102
{ACAD_REACTORS
330
1661C
102
}
330
1661C
100
AcDbVisualStyle
  2
Wireframe
 70
     5
 71
     0
 72
     2
 73
     0
 90
        0
 40
-0.6
 41
-30.0
 62
     5
 63
     7
 74
     1
 91
        4
 64
     7
 65
   257
 75
     1
175
     1
 42
1.0
 92
        0
 66
   257
 43
1.0
 76
     1
 77
     6
 78
     2
 67
     7
 79
     3
170
     0
171
     0
290
     0
174
     0
 93
        1
 44
0.0
173
     0
291
     0
 45
0.0
1001
ACAD
1000
AcDbSavedByObjectVersion
1070
     0
  0
VISUALSTYLE
  5
1662F
102
{ACAD_XDICTIONARY
360
1684B
102
}
102
{ACAD_REACTORS
330
1661C
102
}
330
1661C
100
AcDbVisualStyle
  2
X-Ray
 70
    25
 71
     2
 72
     2
 73
     1
 90
        1
 40
0.5
 41
-30.0
 62
     5
 63
     7
 74
     1
 91
        0
 64
     7
 65
   257
 75
     1
175
     1
 42
1.0
 92
        8
 66
     7
 43
1.0
 76
     1
 77
     6
 78
     2
 67
     7
 79
     3
170
     0
171
     0
290
     0
174
     0
 93
       13
 44
0.0
173
     0
291
     0
 45
0.0
1001
ACAD
1000
AcDbSavedByObjectVersion
1070
     0
  0
DICTIONARYVAR
  5
1679B
102
{ACAD_REACTORS
330
16795
102
}
330
16795
100
DictionaryVariables
280
     0
  1
1:1
  0
DICTIONARYVAR
  5
16797
102
{ACAD_REACTORS
330
16795
102
}
330
16795
100
DictionaryVariables
280
     0
  1
STANDARD
  0
DICTIONARYVAR
  5
16796
102
{ACAD_REACTORS
330
16795
102
}
330
16795
100
DictionaryVariables
280
     0
  1
STANDARD
  0
DICTIONARYVAR
  5
16798
102
{ACAD_REACTORS
330
16795
102
}
330
16795
100
DictionaryVariables
280
     0
  1
Metric50
  0
DICTIONARYVAR
  5
16799
102
{ACAD_REACTORS
330
16795
102
}
330
16795
100
DictionaryVariables
280
     0
  1
Metric50
  0
DICTIONARYVAR
  5
16813
102
{ACAD_REACTORS
330
16795
102
}
330
16795
100
DictionaryVariables
280
     0
  1
1
  0
DICTIONARYVAR
  5
16811
102
{ACAD_REACTORS
330
16795
102
}
330
16795
100
DictionaryVariables
280
     0
  1
0
  0
DICTIONARYVAR
  5
1679D
102
{ACAD_REACTORS
330
16795
102
}
330
16795
100
DictionaryVariables
280
     0
  1
1
  0
DICTIONARYVAR
  5
1679E
102
{ACAD_REACTORS
330
16795
102
}
330
16795
100
DictionaryVariables
280
     0
  1
15
  0
DICTIONARYVAR
  5
1679C
102
{ACAD_REACTORS
330
16795
102
}
330
16795
100
DictionaryVariables
280
     0
  1
0
  0
DICTIONARYVAR
  5
1679A
102
{ACAD_REACTORS
330
16795
102
}
330
16795
100
DictionaryVariables
280
     0
  1
0
  0
DICTIONARYVAR
  5
16810
102
{ACAD_REACTORS
330
16795
102
}
330
16795
100
DictionaryVariables
280
     0
  1
127
  0
DICTIONARYVAR
  5
16812
102
{ACAD_REACTORS
330
16795
102
}
330
16795
100
DictionaryVariables
280
     0
  1
0
  0
DICTIONARY
  5
1681F
102
{ACAD_REACTORS
330
1681D
102
}
330
1681D
100
AcDbDictionary
281
     1
  0
DICTIONARY
  5
1681E
102
{ACAD_REACTORS
330
1681D
102
}
330
1681D
100
AcDbDictionary
281
     1
  3
2130343552
350
16818
  3
2130343560
350
16819
  3
2130343568
350
1681A
  3
2130343576
350
1681B
  3
2130343584
350
1681C
  0
DICTIONARY
  5
16792
330
1664E
100
AcDbDictionary
280
     1
281
     1
  3
ACAD_XREC_ROUNDTRIP
360
1685C
  0
DICTIONARY
  5
16820
330
14F2C
100
AcDbDictionary
280
     1
281
     1
  3
ACAD_XREC_ROUNDTRIP
360
16821
  0
DICTIONARY
  5
16822
330
14F2D
100
AcDbDictionary
280
     1
281
     1
  3
ACAD_XREC_ROUNDTRIP
360
16823
  0
DICTIONARY
  5
1660D
330
1660C
100
AcDbDictionary
280
     1
281
     1
  3
ACAD_XREC_ROUNDTRIP
360
16825
  3
BUMPTILE
360
1660F
  3
DIFFUSETILE
360
1660E
  3
OPACITYTILE
360
16612
  3
REFLECTIONTILE
360
16611
  3
REFRACTIONTILE
360
16613
  3
SPECULARTILE
360
16610
  0
DICTIONARY
  5
16605
330
16604
100
AcDbDictionary
280
     1
281
     1
  3
ACAD_XREC_ROUNDTRIP
360
16824
  3
BUMPTILE
360
16607
  3
DIFFUSETILE
360
16606
  3
OPACITYTILE
360
1660A
  3
REFLECTIONTILE
360
16609
  3
REFRACTIONTILE
360
1660B
  3
SPECULARTILE
360
16608
  0
DICTIONARY
  5
16615
330
16614
100
AcDbDictionary
280
     1
281
     1
  3
ACAD_XREC_ROUNDTRIP
360
16826
  3
BUMPTILE
360
16617
  3
DIFFUSETILE
360
16616
  3
OPACITYTILE
360
1661A
  3
REFLECTIONTILE
360
16619
  3
REFRACTIONTILE
360
1661B
  3
SPECULARTILE
360
16618
  0
DICTIONARY
  5
16859
330
1664A
100
AcDbDictionary
280
     1
281
     1
  3
ACAD_XREC_ROUNDTRIP
360
1685A
  0
DICTIONARY
  5
16790
330
1664C
100
AcDbDictionary
280
     1
281
     1
  3
ACAD_XREC_ROUNDTRIP
360
1685B
  0
DICTIONARY
  5
16814
330
16636
100
AcDbDictionary
280
     1
281
     1
  3
ACAD_ROUNDTRIP_2008_TABLESTYLE_CELLSTYLEMAP
360
16815
  3
ACAD_XREC_ROUNDTRIP
360
16857
  0
DICTIONARY
  5
16831
330
16622
100
AcDbDictionary
280
     1
281
     1
  3
ACAD_XREC_ROUNDTRIP
360
16832
  0
DICTIONARY
  5
1682F
330
16621
100
AcDbDictionary
280
     1
281
     1
  3
ACAD_XREC_ROUNDTRIP
360
16830
  0
DICTIONARY
  5
1683D
330
16628
100
AcDbDictionary
280
     1
281
     1
  3
ACAD_XREC_ROUNDTRIP
360
1683E
  0
DICTIONARY
  5
16845
330
1662C
100
AcDbDictionary
280
     1
281
     1
  3
ACAD_XREC_ROUNDTRIP
360
16846
  0
DICTIONARY
  5
16837
330
16625
100
AcDbDictionary
280
     1
281
     1
  3
ACAD_XREC_ROUNDTRIP
360
16838
  0
DICTIONARY
  5
1683B
330
16627
100
AcDbDictionary
280
     1
281
     1
  3
ACAD_XREC_ROUNDTRIP
360
1683C
  0
DICTIONARY
  5
16855
330
16634
100
AcDbDictionary
280
     1
281
     1
  3
ACAD_XREC_ROUNDTRIP
360
16856
  0
DICTIONARY
  5
16843
330
1662B
100
AcDbDictionary
280
     1
281
     1
  3
ACAD_XREC_ROUNDTRIP
360
16844
  0
DICTIONARY
  5
16827
330
1661D
100
AcDbDictionary
280
     1
281
     1
  3
ACAD_XREC_ROUNDTRIP
360
16828
  0
DICTIONARY
  5
16829
330
1661E
100
AcDbDictionary
280
     1
281
     1
  3
ACAD_XREC_ROUNDTRIP
360
1682A
  0
DICTIONARY
  5
1682B
330
1661F
100
AcDbDictionary
280
     1
281
     1
  3
ACAD_XREC_ROUNDTRIP
360
1682C
  0
DICTIONARY
  5
1682D
330
16620
100
AcDbDictionary
280
     1
281
     1
  3
ACAD_XREC_ROUNDTRIP
360
1682E
  0
DICTIONARY
  5
16835
330
16624
100
AcDbDictionary
280
     1
281
     1
  3
ACAD_XREC_ROUNDTRIP
360
16836
  0
DICTIONARY
  5
16851
330
16632
100
AcDbDictionary
280
     1
281
     1
  3
ACAD_XREC_ROUNDTRIP
360
16852
  0
DICTIONARY
  5
16841
330
1662A
100
AcDbDictionary
280
     1
281
     1
  3
ACAD_XREC_ROUNDTRIP
360
16842
  0
DICTIONARY
  5
16853
330
16633
100
AcDbDictionary
280
     1
281
     1
  3
ACAD_XREC_ROUNDTRIP
360
16854
  0
DICTIONARY
  5
16839
330
16626
100
AcDbDictionary
280
     1
281
     1
  3
ACAD_XREC_ROUNDTRIP
360
1683A
  0
DICTIONARY
  5
1684F
330
16631
100
AcDbDictionary
280
     1
281
     1
  3
ACAD_XREC_ROUNDTRIP
360
16850
  0
DICTIONARY
  5
1684D
330
16630
100
AcDbDictionary
280
     1
281
     1
  3
ACAD_XREC_ROUNDTRIP
360
1684E
  0
DICTIONARY
  5
16847
330
1662D
100
AcDbDictionary
280
     1
281
     1
  3
ACAD_XREC_ROUNDTRIP
360
16848
  0
DICTIONARY
  5
16849
330
1662E
100
AcDbDictionary
280
     1
281
     1
  3
ACAD_XREC_ROUNDTRIP
360
1684A
  0
DICTIONARY
  5
1683F
330
16629
100
AcDbDictionary
280
     1
281
     1
  3
ACAD_XREC_ROUNDTRIP
360
16840
  0
DICTIONARY
  5
16833
330
16623
100
AcDbDictionary
280
     1
281
     1
  3
ACAD_XREC_ROUNDTRIP
360
16834
  0
DICTIONARY
  5
1684B
330
1662F
100
AcDbDictionary
280
     1
281
     1
  3
ACAD_XREC_ROUNDTRIP
360
1684C
  0
XRECORD
  5
16818
102
{ACAD_REACTORS
330
1681E
102
}
330
1681E
100
AcDbXrecord
280
     1
  1
AcDb_Thumbnail_Schema
102
{ATTRRECORD
341
16819
  2
AcDbDs::TreatedAsObjectData
280
     1
291
     1
102
ATTRRECORD}
102
{ATTRRECORD
341
1681A
  2
AcDbDs::Legacy
280
     1
291
     1
102
ATTRRECORD}
  2
AcDbDs::ID
280
    10
 91
        8
102
{ATTRRECORD
341
1681B
  2
AcDs:Indexable
280
     1
291
     1
102
ATTRRECORD}
102
{ATTRRECORD
341
1681C
  2
AcDbDs::HandleAttribute
280
     7
282
     1
102
ATTRRECORD}
  2
Thumbnail_Data
280
    15
 91
        0
  0
XRECORD
  5
16819
102
{ACAD_REACTORS
330
1681E
102
}
330
1681E
100
AcDbXrecord
280
     1
  1
AcDbDs::TreatedAsObjectDataSchema
  2
AcDbDs::TreatedAsObjectData
280
     1
 91
        0
  0
XRECORD
  5
1681A
102
{ACAD_REACTORS
330
1681E
102
}
330
1681E
100
AcDbXrecord
280
     1
  1
AcDbDs::LegacySchema
  2
AcDbDs::Legacy
280
     1
 91
        0
  0
XRECORD
  5
1681B
102
{ACAD_REACTORS
330
1681E
102
}
330
1681E
100
AcDbXrecord
280
     1
  1
AcDbDs::IndexedPropertySchema
  2
AcDs:Indexable
280
     1
 91
        0
  0
XRECORD
  5
1681C
102
{ACAD_REACTORS
330
1681E
102
}
330
1681E
100
AcDbXrecord
280
     1
  1
AcDbDs::HandleAttributeSchema
  2
AcDbDs::HandleAttribute
280
     7
 91
        1
284
     1
  0
XRECORD
  5
1685C
102
{ACAD_REACTORS
330
16792
102
}
330
16792
100
AcDbXrecord
280
     1
102
DISPLAYNAME
  1
Metric50
102
FLAGS
 90
        0
  0
XRECORD
  5
16821
102
{ACAD_REACTORS
330
16820
102
}
330
16820
100
AcDbXrecord
280
     1
102
SHADEPLOT
 70
     1
102
SHADEPLOTRESLEVEL
 70
     2
102
SHADEPLOTCUSTOMDPI
 70
   300
  0
XRECORD
  5
16823
102
{ACAD_REACTORS
330
16822
102
}
330
16822
100
AcDbXrecord
280
     1
102
SHADEPLOT
 70
     0
102
SHADEPLOTRESLEVEL
 70
     2
102
SHADEPLOTCUSTOMDPI
 70
   300
  0
XRECORD
  5
16825
102
{ACAD_REACTORS
330
1660D
102
}
330
1660D
100
AcDbXrecord
280
     1
102
MATERIAL
148
0.0
149
0.0
149
0.0
 93
        0
 94
      127
282
     0
 72
     0
 77
     0
171
     0
175
     0
179
     0
273
     0
  0
XRECORD
  5
1660F
102
{ACAD_REACTORS
330
1660D
102
}
330
1660D
100
AcDbXrecord
280
     1
270
     1
271
     1
  0
XRECORD
  5
1660E
102
{ACAD_REACTORS
330
1660D
102
}
330
1660D
100
AcDbXrecord
280
     1
270
     1
271
     1
  0
XRECORD
  5
16612
102
{ACAD_REACTORS
330
1660D
102
}
330
1660D
100
AcDbXrecord
280
     1
270
     1
271
     1
  0
XRECORD
  5
16611
102
{ACAD_REACTORS
330
1660D
102
}
330
1660D
100
AcDbXrecord
280
     1
270
     1
271
     1
  0
XRECORD
  5
16613
102
{ACAD_REACTORS
330
1660D
102
}
330
1660D
100
AcDbXrecord
280
     1
270
     1
271
     1
  0
XRECORD
  5
16610
102
{ACAD_REACTORS
330
1660D
102
}
330
1660D
100
AcDbXrecord
280
     1
270
     1
271
     1
  0
XRECORD
  5
16824
102
{ACAD_REACTORS
330
16605
102
}
330
16605
100
AcDbXrecord
280
     1
102
MATERIAL
148
0.0
149
0.0
149
0.0
 93
        0
 94
      127
282
     0
 72
     0
 77
     0
171
     0
175
     0
179
     0
273
     0
  0
XRECORD
  5
16607
102
{ACAD_REACTORS
330
16605
102
}
330
16605
100
AcDbXrecord
280
     1
270
     1
271
     1
  0
XRECORD
  5
16606
102
{ACAD_REACTORS
330
16605
102
}
330
16605
100
AcDbXrecord
280
     1
270
     1
271
     1
  0
XRECORD
  5
1660A
102
{ACAD_REACTORS
330
16605
102
}
330
16605
100
AcDbXrecord
280
     1
270
     1
271
     1
  0
XRECORD
  5
16609
102
{ACAD_REACTORS
330
16605
102
}
330
16605
100
AcDbXrecord
280
     1
270
     1
271
     1
  0
XRECORD
  5
1660B
102
{ACAD_REACTORS
330
16605
102
}
330
16605
100
AcDbXrecord
280
     1
270
     1
271
     1
  0
XRECORD
  5
16608
102
{ACAD_REACTORS
330
16605
102
}
330
16605
100
AcDbXrecord
280
     1
270
     1
271
     1
  0
XRECORD
  5
16826
102
{ACAD_REACTORS
330
16615
102
}
330
16615
100
AcDbXrecord
280
     1
102
MATERIAL
148
0.0
149
0.0
149
0.0
 93
        0
 94
      127
282
     0
 72
     0
 77
     0
171
     0
175
     0
179
     0
273
     0
  0
XRECORD
  5
16617
102
{ACAD_REACTORS
330
16615
102
}
330
16615
100
AcDbXrecord
280
     1
270
     1
271
     1
  0
XRECORD
  5
16616
102
{ACAD_REACTORS
330
16615
102
}
330
16615
100
AcDbXrecord
280
     1
270
     1
271
     1
  0
XRECORD
  5
1661A
102
{ACAD_REACTORS
330
16615
102
}
330
16615
100
AcDbXrecord
280
     1
270
     1
271
     1
  0
XRECORD
  5
16619
102
{ACAD_REACTORS
330
16615
102
}
330
16615
100
AcDbXrecord
280
     1
270
     1
271
     1
  0
XRECORD
  5
1661B
102
{ACAD_REACTORS
330
16615
102
}
330
16615
100
AcDbXrecord
280
     1
270
     1
271
     1
  0
XRECORD
  5
16618
102
{ACAD_REACTORS
330
16615
102
}
330
16615
100
AcDbXrecord
280
     1
270
     1
271
     1
  0
XRECORD
  5
1685A
102
{ACAD_REACTORS
330
16859
102
}
330
16859
100
AcDbXrecord
280
     1
102
ACAD_ROUNDTRIP_2012_MLEADER_STYLE
298
     1
  0
XRECORD
  5
1685B
102
{ACAD_REACTORS
330
16790
102
}
330
16790
100
AcDbXrecord
280
     1
102
DISPLAYNAME
  1
Metric50
102
FLAGS
 90
        0
  0
CELLSTYLEMAP
  5
16815
102
{ACAD_REACTORS
330
16814
102
}
330
16814
100
AcDbCellStyleMap
 90
        3
300
CELLSTYLE
  1
TABLEFORMAT_BEGIN
 90
        5
170
     1
 91
        0
 92
    32768
 62
   257
 93
        1
300
CONTENTFORMAT
  1
CONTENTFORMAT_BEGIN
 90
        0
 91
        0
 92
      512
 93
        0
300

 40
0.0
140
1.0
 94
        5
 62
     0
340
7475
144
6.0
309
CONTENTFORMAT_END
171
     1
301
MARGIN
  1
CELLMARGIN_BEGIN
 40
1.5
 40
1.5
 40
1.5
 40
1.5
 40
4.5
 40
4.5
309
CELLMARGIN_END
 94
        6
 95
        1
302
GRIDFORMAT
  1
GRIDFORMAT_BEGIN
 90
        0
 91
        1
 62
     0
 92
       -2
340
0
 93
        0
 40
1.125
309
GRIDFORMAT_END
 95
        2
302
GRIDFORMAT
  1
GRIDFORMAT_BEGIN
 90
        0
 91
        1
 62
     0
 92
       -2
340
0
 93
        0
 40
1.125
309
GRIDFORMAT_END
 95
        4
302
GRIDFORMAT
  1
GRIDFORMAT_BEGIN
 90
        0
 91
        1
 62
     0
 92
       -2
340
0
 93
        0
 40
1.125
309
GRIDFORMAT_END
 95
        8
302
GRIDFORMAT
  1
GRIDFORMAT_BEGIN
 90
        0
 91
        1
 62
     0
 92
       -2
340
0
 93
        0
 40
1.125
309
GRIDFORMAT_END
 95
       16
302
GRIDFORMAT
  1
GRIDFORMAT_BEGIN
 90
        0
 91
        1
 62
     0
 92
       -2
340
0
 93
        0
 40
1.125
309
GRIDFORMAT_END
 95
       32
302
GRIDFORMAT
  1
GRIDFORMAT_BEGIN
 90
        0
 91
        1
 62
     0
 92
       -2
340
0
 93
        0
 40
1.125
309
GRIDFORMAT_END
309
TABLEFORMAT_END
  1
CELLSTYLE_BEGIN
 90
        1
 91
        1
300
_TITLE
309
CELLSTYLE_END
300
CELLSTYLE
  1
TABLEFORMAT_BEGIN
 90
        5
170
     1
 91
        0
 92
        0
 62
   257
 93
        1
300
CONTENTFORMAT
  1
CONTENTFORMAT_BEGIN
 90
        0
 91
        0
 92
      512
 93
        0
300

 40
0.0
140
1.0
 94
        5
 62
     0
340
7475
144
4.5
309
CONTENTFORMAT_END
171
     1
301
MARGIN
  1
CELLMARGIN_BEGIN
 40
1.5
 40
1.5
 40
1.5
 40
1.5
 40
4.5
 40
4.5
309
CELLMARGIN_END
 94
        6
 95
        1
302
GRIDFORMAT
  1
GRIDFORMAT_BEGIN
 90
        0
 91
        1
 62
     0
 92
       -2
340
0
 93
        0
 40
1.125
309
GRIDFORMAT_END
 95
        2
302
GRIDFORMAT
  1
GRIDFORMAT_BEGIN
 90
        0
 91
        1
 62
     0
 92
       -2
340
0
 93
        0
 40
1.125
309
GRIDFORMAT_END
 95
        4
302
GRIDFORMAT
  1
GRIDFORMAT_BEGIN
 90
        0
 91
        1
 62
     0
 92
       -2
340
0
 93
        0
 40
1.125
309
GRIDFORMAT_END
 95
        8
302
GRIDFORMAT
  1
GRIDFORMAT_BEGIN
 90
        0
 91
        1
 62
     0
 92
       -2
340
0
 93
        0
 40
1.125
309
GRIDFORMAT_END
 95
       16
302
GRIDFORMAT
  1
GRIDFORMAT_BEGIN
 90
        0
 91
        1
 62
     0
 92
       -2
340
0
 93
        0
 40
1.125
309
GRIDFORMAT_END
 95
       32
302
GRIDFORMAT
  1
GRIDFORMAT_BEGIN
 90
        0
 91
        1
 62
     0
 92
       -2
340
0
 93
        0
 40
1.125
309
GRIDFORMAT_END
309
TABLEFORMAT_END
  1
CELLSTYLE_BEGIN
 90
        2
 91
        1
300
_HEADER
309
CELLSTYLE_END
300
CELLSTYLE
  1
TABLEFORMAT_BEGIN
 90
        5
170
     1
 91
        0
 92
        0
 62
   257
 93
        1
300
CONTENTFORMAT
  1
CONTENTFORMAT_BEGIN
 90
        0
 91
        0
 92
      512
 93
        0
300

 40
0.0
140
1.0
 94
        2
 62
     0
340
7475
144
4.5
309
CONTENTFORMAT_END
171
     1
301
MARGIN
  1
CELLMARGIN_BEGIN
 40
1.5
 40
1.5
 40
1.5
 40
1.5
 40
4.5
 40
4.5
309
CELLMARGIN_END
 94
        6
 95
        1
302
GRIDFORMAT
  1
GRIDFORMAT_BEGIN
 90
        0
 91
        1
 62
     0
 92
       -2
340
0
 93
        0
 40
1.125
309
GRIDFORMAT_END
 95
        2
302
GRIDFORMAT
  1
GRIDFORMAT_BEGIN
 90
        0
 91
        1
 62
     0
 92
       -2
340
0
 93
        0
 40
1.125
309
GRIDFORMAT_END
 95
        4
302
GRIDFORMAT
  1
GRIDFORMAT_BEGIN
 90
        0
 91
        1
 62
     0
 92
       -2
340
0
 93
        0
 40
1.125
309
GRIDFORMAT_END
 95
        8
302
GRIDFORMAT
  1
GRIDFORMAT_BEGIN
 90
        0
 91
        1
 62
     0
 92
       -2
340
0
 93
        0
 40
1.125
309
GRIDFORMAT_END
 95
       16
302
GRIDFORMAT
  1
GRIDFORMAT_BEGIN
 90
        0
 91
        1
 62
     0
 92
       -2
340
0
 93
        0
 40
1.125
309
GRIDFORMAT_END
 95
       32
302
GRIDFORMAT
  1
GRIDFORMAT_BEGIN
 90
        0
 91
        1
 62
     0
 92
       -2
340
0
 93
        0
 40
1.125
309
GRIDFORMAT_END
309
TABLEFORMAT_END
  1
CELLSTYLE_BEGIN
 90
        3
 91
        2
300
_DATA
309
CELLSTYLE_END
  0
XRECORD
  5
16857
102
{ACAD_REACTORS
330
16814
102
}
330
16814
100
AcDbXrecord
280
     1
102
ACAD_ROUNDTRIP_PRE2007_TABLESTYLE
 90
      512
 91
        0
  1

 92
      512
 93
        0
  2

 94
      512
 95
        0
  3

  0
XRECORD
  5
16832
102
{ACAD_REACTORS
330
16831
102
}
330
16831
100
AcDbXrecord
280
     1
102
RTVSPost2010Prop28
280
     1
102
RTVSPost2010PropOp28
 70
     1
102
RTVSPost2010Prop29
280
     1
102
RTVSPost2010PropOp29
 70
     1
102
RTVSPost2010Prop30
280
     0
102
RTVSPost2010PropOp30
 70
     1
102
RTVSPost2010Prop31
280
     0
102
RTVSPost2010PropOp31
 70
     1
102
RTVSPost2010Prop32
280
     0
102
RTVSPost2010PropOp32
 70
     1
102
RTVSPost2010Prop33
280
     0
102
RTVSPost2010PropOp33
 70
     1
102
RTVSPost2010Prop34
280
     0
102
RTVSPost2010PropOp34
 70
     1
102
RTVSPost2010Prop35
280
     0
102
RTVSPost2010PropOp35
 70
     1
102
RTVSPost2010Prop36
280
     0
102
RTVSPost2010PropOp36
 70
     1
102
RTVSPost2010Prop37
 90
       50
102
RTVSPost2010PropOp37
 70
     1
102
RTVSPost2010Prop38
140
0.0
102
RTVSPost2010PropOp38
 70
     1
102
RTVSPost2010Prop39
140
1.0
102
RTVSPost2010PropOp39
 70
     1
102
RTVSPost2010Prop40
 90
        0
102
RTVSPost2010PropOp40
 70
     1
102
RTVSPost2010Prop41ColorIndex
 90
       18
102
RTVSPost2010Prop41ColorRGB
 90
        0
102
RTVSPost2010PropOp41
 70
     1
102
RTVSPost2010Prop42
 90
       50
102
RTVSPost2010PropOp42
 70
     1
102
RTVSPost2010Prop43
 90
        3
102
RTVSPost2010PropOp43
 70
     1
102
RTVSPost2010Prop44ColorIndex
 90
        5
102
RTVSPost2010Prop44ColorRGB
 90
      255
102
RTVSPost2010PropOp44
 70
     1
102
RTVSPost2010Prop45
280
     0
102
RTVSPost2010PropOp45
 70
     1
102
RTVSPost2010Prop46
 90
       50
102
RTVSPost2010PropOp46
 70
     1
102
RTVSPost2010Prop47
 90
       50
102
RTVSPost2010PropOp47
 70
     1
102
RTVSPost2010Prop48
 90
       50
102
RTVSPost2010PropOp48
 70
     1
102
RTVSPost2010Prop49
280
     0
102
RTVSPost2010PropOp49
 70
     1
102
RTVSPost2010Prop50
 90
       50
102
RTVSPost2010PropOp50
 70
     1
102
RTVSPost2010Prop51ColorIndex
 90
      256
102
RTVSPost2010Prop51ColorRGB
 90
-16777216
102
RTVSPost2010PropOp51
 70
     0
102
RTVSPost2010Prop52
140
1.0
102
RTVSPost2010PropOp52
 70
     0
102
RTVSPost2010Prop53
 90
        2
102
RTVSPost2010PropOp53
 70
     1
102
RTVSPost2010Prop54
  1
strokes_ogs.tif
102
RTVSPost2010PropOp54
 70
     1
102
RTVSPost2010Prop55
280
     0
102
RTVSPost2010PropOp55
 70
     1
102
RTVSPost2010Prop56
140
1.0
102
RTVSPost2010PropOp56
 70
     1
102
RTVSPost2010Prop57
140
1.0
102
RTVSPost2010PropOp57
 70
     1
102
RTVSPropertyOp0
 70
     1
102
RTVSPropertyOp1
 70
     1
102
RTVSPropertyOp2
 70
     1
102
RTVSPropertyOp3
 70
     1
102
RTVSPropertyOp4
 70
     1
102
RTVSPropertyOp5
 70
     1
102
RTVSPropertyOp6
 70
     1
102
RTVSPropertyOp7
 70
     1
102
RTVSPropertyOp8
 70
     1
102
RTVSPropertyOp9
 70
     1
102
RTVSPropertyOp10
 70
     1
102
RTVSPropertyOp11
 70
     1
102
RTVSPropertyOp12
 70
     1
102
RTVSPropertyOp13
 70
     1
102
RTVSPropertyOp14
 70
     1
102
RTVSPropertyOp15
 70
     1
102
RTVSPropertyOp16
 70
     1
102
RTVSPropertyOp17
 70
     1
102
RTVSPropertyOp18
 70
     1
102
RTVSPropertyOp19
 70
     1
102
RTVSPropertyOp20
 70
     1
102
RTVSPropertyOp21
 70
     1
102
RTVSPropertyOp22
 70
     1
102
RTVSPropertyOp23
 70
     1
102
RTVSPropertyOp24
 70
     1
102
RTVSPropertyOp25
 70
     1
102
RTVSPropertyOp26
 70
     1
102
RTVSPropertyOp27
 70
     1
102
RTVSPropertyOp28
 70
     1
102
RTVSPropertyOp29
 70
     1
102
RTVSPropertyOp30
 70
     1
102
RTVSPropertyOp31
 70
     1
102
RTVSPropertyOp32
 70
     1
102
RTVSPropertyOp33
 70
     1
102
RTVSPropertyOp34
 70
     1
102
RTVSPropertyOp35
 70
     1
102
RTVSPropertyOp36
 70
     1
102
RTVSPropertyOp37
 70
     1
102
RTVSPropertyOp38
 70
     1
102
RTVSPropertyOp39
 70
     1
102
RTVSPropertyOp40
 70
     1
102
RTVSPropertyOp41
 70
     1
102
RTVSPropertyOp42
 70
     1
102
RTVSPropertyOp43
 70
     1
102
RTVSPropertyOp44
 70
     1
102
RTVSPropertyOp45
 70
     1
102
RTVSPropertyOp46
 70
     1
102
RTVSPropertyOp47
 70
     1
102
RTVSPropertyOp48
 70
     1
102
RTVSPropertyOp49
 70
     1
102
RTVSPropertyOp50
 70
     1
102
RTVSPropertyOp51
 70
     0
102
RTVSPropertyOp52
 70
     0
102
RTVSPropertyOp53
 70
     1
102
RTVSPropertyOp54
 70
     1
102
RTVSPropertyOp55
 70
     1
102
RTVSPropertyOp56
 70
     1
102
RTVSPropertyOp57
 70
     1
102
RTVSPropertyOp58
 70
     1
102
RTVSPropertyOp59
 70
     1
102
RTVSPropertyOp60
 70
     1
102
RTVSPropertyOp61
 70
     1
102
RTVSPropertyOp62
 70
     1
  0
XRECORD
  5
16830
102
{ACAD_REACTORS
330
1682F
102
}
330
1682F
100
AcDbXrecord
280
     1
102
RTVSPost2010Prop28
280
     0
102
RTVSPost2010PropOp28
 70
     1
102
RTVSPost2010Prop29
280
     1
102
RTVSPost2010PropOp29
 70
     1
102
RTVSPost2010Prop30
280
     1
102
RTVSPost2010PropOp30
 70
     1
102
RTVSPost2010Prop31
280
     0
102
RTVSPost2010PropOp31
 70
     1
102
RTVSPost2010Prop32
280
     0
102
RTVSPost2010PropOp32
 70
     1
102
RTVSPost2010Prop33
280
     0
102
RTVSPost2010PropOp33
 70
     1
102
RTVSPost2010Prop34
280
     0
102
RTVSPost2010PropOp34
 70
     1
102
RTVSPost2010Prop35
280
     0
102
RTVSPost2010PropOp35
 70
     1
102
RTVSPost2010Prop36
280
     0
102
RTVSPost2010PropOp36
 70
     1
102
RTVSPost2010Prop37
 90
       50
102
RTVSPost2010PropOp37
 70
     1
102
RTVSPost2010Prop38
140
0.0
102
RTVSPost2010PropOp38
 70
     1
102
RTVSPost2010Prop39
140
1.0
102
RTVSPost2010PropOp39
 70
     1
102
RTVSPost2010Prop40
 90
        0
102
RTVSPost2010PropOp40
 70
     1
102
RTVSPost2010Prop41ColorIndex
 90
       18
102
RTVSPost2010Prop41ColorRGB
 90
        0
102
RTVSPost2010PropOp41
 70
     1
102
RTVSPost2010Prop42
 90
       50
102
RTVSPost2010PropOp42
 70
     1
102
RTVSPost2010Prop43
 90
        3
102
RTVSPost2010PropOp43
 70
     1
102
RTVSPost2010Prop44ColorIndex
 90
        5
102
RTVSPost2010Prop44ColorRGB
 90
      255
102
RTVSPost2010PropOp44
 70
     1
102
RTVSPost2010Prop45
280
     0
102
RTVSPost2010PropOp45
 70
     1
102
RTVSPost2010Prop46
 90
       50
102
RTVSPost2010PropOp46
 70
     1
102
RTVSPost2010Prop47
 90
       50
102
RTVSPost2010PropOp47
 70
     1
102
RTVSPost2010Prop48
 90
       50
102
RTVSPost2010PropOp48
 70
     1
102
RTVSPost2010Prop49
280
     0
102
RTVSPost2010PropOp49
 70
     1
102
RTVSPost2010Prop50
 90
       50
102
RTVSPost2010PropOp50
 70
     1
102
RTVSPost2010Prop51ColorIndex
 90
      256
102
RTVSPost2010Prop51ColorRGB
 90
-16777216
102
RTVSPost2010PropOp51
 70
     0
102
RTVSPost2010Prop52
140
1.0
102
RTVSPost2010PropOp52
 70
     0
102
RTVSPost2010Prop53
 90
        2
102
RTVSPost2010PropOp53
 70
     1
102
RTVSPost2010Prop54
  1
strokes_ogs.tif
102
RTVSPost2010PropOp54
 70
     1
102
RTVSPost2010Prop55
280
     0
102
RTVSPost2010PropOp55
 70
     1
102
RTVSPost2010Prop56
140
1.0
102
RTVSPost2010PropOp56
 70
     1
102
RTVSPost2010Prop57
140
1.0
102
RTVSPost2010PropOp57
 70
     1
102
RTVSPropertyOp0
 70
     1
102
RTVSPropertyOp1
 70
     1
102
RTVSPropertyOp2
 70
     1
102
RTVSPropertyOp3
 70
     1
102
RTVSPropertyOp4
 70
     1
102
RTVSPropertyOp5
 70
     1
102
RTVSPropertyOp6
 70
     1
102
RTVSPropertyOp7
 70
     1
102
RTVSPropertyOp8
 70
     1
102
RTVSPropertyOp9
 70
     1
102
RTVSPropertyOp10
 70
     1
102
RTVSPropertyOp11
 70
     1
102
RTVSPropertyOp12
 70
     1
102
RTVSPropertyOp13
 70
     1
102
RTVSPropertyOp14
 70
     1
102
RTVSPropertyOp15
 70
     1
102
RTVSPropertyOp16
 70
     1
102
RTVSPropertyOp17
 70
     1
102
RTVSPropertyOp18
 70
     1
102
RTVSPropertyOp19
 70
     1
102
RTVSPropertyOp20
 70
     1
102
RTVSPropertyOp21
 70
     1
102
RTVSPropertyOp22
 70
     1
102
RTVSPropertyOp23
 70
     1
102
RTVSPropertyOp24
 70
     1
102
RTVSPropertyOp25
 70
     1
102
RTVSPropertyOp26
 70
     1
102
RTVSPropertyOp27
 70
     1
102
RTVSPropertyOp28
 70
     1
102
RTVSPropertyOp29
 70
     1
102
RTVSPropertyOp30
 70
     1
102
RTVSPropertyOp31
 70
     1
102
RTVSPropertyOp32
 70
     1
102
RTVSPropertyOp33
 70
     1
102
RTVSPropertyOp34
 70
     1
102
RTVSPropertyOp35
 70
     1
102
RTVSPropertyOp36
 70
     1
102
RTVSPropertyOp37
 70
     1
102
RTVSPropertyOp38
 70
     1
102
RTVSPropertyOp39
 70
     1
102
RTVSPropertyOp40
 70
     1
102
RTVSPropertyOp41
 70
     1
102
RTVSPropertyOp42
 70
     1
102
RTVSPropertyOp43
 70
     1
102
RTVSPropertyOp44
 70
     1
102
RTVSPropertyOp45
 70
     1
102
RTVSPropertyOp46
 70
     1
102
RTVSPropertyOp47
 70
     1
102
RTVSPropertyOp48
 70
     1
102
RTVSPropertyOp49
 70
     1
102
RTVSPropertyOp50
 70
     1
102
RTVSPropertyOp51
 70
     0
102
RTVSPropertyOp52
 70
     0
102
RTVSPropertyOp53
 70
     1
102
RTVSPropertyOp54
 70
     1
102
RTVSPropertyOp55
 70
     1
102
RTVSPropertyOp56
 70
     1
102
RTVSPropertyOp57
 70
     1
102
RTVSPropertyOp58
 70
     1
102
RTVSPropertyOp59
 70
     1
102
RTVSPropertyOp60
 70
     1
102
RTVSPropertyOp61
 70
     1
102
RTVSPropertyOp62
 70
     1
  0
XRECORD
  5
1683E
102
{ACAD_REACTORS
330
1683D
102
}
330
1683D
100
AcDbXrecord
280
     1
102
RTVSPost2010Prop28
280
     0
102
RTVSPost2010PropOp28
 70
     1
102
RTVSPost2010Prop29
280
     1
102
RTVSPost2010PropOp29
 70
     1
102
RTVSPost2010Prop30
280
     1
102
RTVSPost2010PropOp30
 70
     1
102
RTVSPost2010Prop31
280
     0
102
RTVSPost2010PropOp31
 70
     1
102
RTVSPost2010Prop32
280
     0
102
RTVSPost2010PropOp32
 70
     1
102
RTVSPost2010Prop33
280
     0
102
RTVSPost2010PropOp33
 70
     1
102
RTVSPost2010Prop34
280
     0
102
RTVSPost2010PropOp34
 70
     1
102
RTVSPost2010Prop35
280
     0
102
RTVSPost2010PropOp35
 70
     1
102
RTVSPost2010Prop36
280
     0
102
RTVSPost2010PropOp36
 70
     1
102
RTVSPost2010Prop37
 90
       50
102
RTVSPost2010PropOp37
 70
     1
102
RTVSPost2010Prop38
140
0.0
102
RTVSPost2010PropOp38
 70
     1
102
RTVSPost2010Prop39
140
1.0
102
RTVSPost2010PropOp39
 70
     1
102
RTVSPost2010Prop40
 90
        0
102
RTVSPost2010PropOp40
 70
     1
102
RTVSPost2010Prop41ColorIndex
 90
       18
102
RTVSPost2010Prop41ColorRGB
 90
        0
102
RTVSPost2010PropOp41
 70
     1
102
RTVSPost2010Prop42
 90
       50
102
RTVSPost2010PropOp42
 70
     1
102
RTVSPost2010Prop43
 90
        3
102
RTVSPost2010PropOp43
 70
     1
102
RTVSPost2010Prop44ColorIndex
 90
        5
102
RTVSPost2010Prop44ColorRGB
 90
      255
102
RTVSPost2010PropOp44
 70
     1
102
RTVSPost2010Prop45
280
     0
102
RTVSPost2010PropOp45
 70
     1
102
RTVSPost2010Prop46
 90
       50
102
RTVSPost2010PropOp46
 70
     1
102
RTVSPost2010Prop47
 90
       50
102
RTVSPost2010PropOp47
 70
     1
102
RTVSPost2010Prop48
 90
       50
102
RTVSPost2010PropOp48
 70
     1
102
RTVSPost2010Prop49
280
     0
102
RTVSPost2010PropOp49
 70
     1
102
RTVSPost2010Prop50
 90
       50
102
RTVSPost2010PropOp50
 70
     1
102
RTVSPost2010Prop51ColorIndex
 90
      256
102
RTVSPost2010Prop51ColorRGB
 90
-16777216
102
RTVSPost2010PropOp51
 70
     0
102
RTVSPost2010Prop52
140
1.0
102
RTVSPost2010PropOp52
 70
     0
102
RTVSPost2010Prop53
 90
        2
102
RTVSPost2010PropOp53
 70
     1
102
RTVSPost2010Prop54
  1
strokes_ogs.tif
102
RTVSPost2010PropOp54
 70
     1
102
RTVSPost2010Prop55
280
     0
102
RTVSPost2010PropOp55
 70
     1
102
RTVSPost2010Prop56
140
1.0
102
RTVSPost2010PropOp56
 70
     1
102
RTVSPost2010Prop57
140
1.0
102
RTVSPost2010PropOp57
 70
     1
102
RTVSPropertyOp0
 70
     1
102
RTVSPropertyOp1
 70
     1
102
RTVSPropertyOp2
 70
     1
102
RTVSPropertyOp3
 70
     1
102
RTVSPropertyOp4
 70
     1
102
RTVSPropertyOp5
 70
     1
102
RTVSPropertyOp6
 70
     1
102
RTVSPropertyOp7
 70
     1
102
RTVSPropertyOp8
 70
     1
102
RTVSPropertyOp9
 70
     1
102
RTVSPropertyOp10
 70
     1
102
RTVSPropertyOp11
 70
     1
102
RTVSPropertyOp12
 70
     1
102
RTVSPropertyOp13
 70
     1
102
RTVSPropertyOp14
 70
     1
102
RTVSPropertyOp15
 70
     1
102
RTVSPropertyOp16
 70
     1
102
RTVSPropertyOp17
 70
     1
102
RTVSPropertyOp18
 70
     1
102
RTVSPropertyOp19
 70
     1
102
RTVSPropertyOp20
 70
     1
102
RTVSPropertyOp21
 70
     1
102
RTVSPropertyOp22
 70
     1
102
RTVSPropertyOp23
 70
     1
102
RTVSPropertyOp24
 70
     1
102
RTVSPropertyOp25
 70
     1
102
RTVSPropertyOp26
 70
     1
102
RTVSPropertyOp27
 70
     1
102
RTVSPropertyOp28
 70
     1
102
RTVSPropertyOp29
 70
     1
102
RTVSPropertyOp30
 70
     1
102
RTVSPropertyOp31
 70
     1
102
RTVSPropertyOp32
 70
     1
102
RTVSPropertyOp33
 70
     1
102
RTVSPropertyOp34
 70
     1
102
RTVSPropertyOp35
 70
     1
102
RTVSPropertyOp36
 70
     1
102
RTVSPropertyOp37
 70
     1
102
RTVSPropertyOp38
 70
     1
102
RTVSPropertyOp39
 70
     1
102
RTVSPropertyOp40
 70
     1
102
RTVSPropertyOp41
 70
     1
102
RTVSPropertyOp42
 70
     1
102
RTVSPropertyOp43
 70
     1
102
RTVSPropertyOp44
 70
     1
102
RTVSPropertyOp45
 70
     1
102
RTVSPropertyOp46
 70
     1
102
RTVSPropertyOp47
 70
     1
102
RTVSPropertyOp48
 70
     1
102
RTVSPropertyOp49
 70
     1
102
RTVSPropertyOp50
 70
     1
102
RTVSPropertyOp51
 70
     0
102
RTVSPropertyOp52
 70
     0
102
RTVSPropertyOp53
 70
     1
102
RTVSPropertyOp54
 70
     1
102
RTVSPropertyOp55
 70
     1
102
RTVSPropertyOp56
 70
     1
102
RTVSPropertyOp57
 70
     1
102
RTVSPropertyOp58
 70
     1
102
RTVSPropertyOp59
 70
     1
102
RTVSPropertyOp60
 70
     1
102
RTVSPropertyOp61
 70
     1
102
RTVSPropertyOp62
 70
     1
  0
XRECORD
  5
16846
102
{ACAD_REACTORS
330
16845
102
}
330
16845
100
AcDbXrecord
280
     1
102
RTVSPost2010Prop28
280
     0
102
RTVSPost2010PropOp28
 70
     1
102
RTVSPost2010Prop29
280
     1
102
RTVSPost2010PropOp29
 70
     1
102
RTVSPost2010Prop30
280
     1
102
RTVSPost2010PropOp30
 70
     1
102
RTVSPost2010Prop31
280
     0
102
RTVSPost2010PropOp31
 70
     1
102
RTVSPost2010Prop32
280
     0
102
RTVSPost2010PropOp32
 70
     1
102
RTVSPost2010Prop33
280
     0
102
RTVSPost2010PropOp33
 70
     1
102
RTVSPost2010Prop34
280
     0
102
RTVSPost2010PropOp34
 70
     1
102
RTVSPost2010Prop35
280
     0
102
RTVSPost2010PropOp35
 70
     1
102
RTVSPost2010Prop36
280
     0
102
RTVSPost2010PropOp36
 70
     1
102
RTVSPost2010Prop37
 90
       50
102
RTVSPost2010PropOp37
 70
     1
102
RTVSPost2010Prop38
140
0.0
102
RTVSPost2010PropOp38
 70
     1
102
RTVSPost2010Prop39
140
1.0
102
RTVSPost2010PropOp39
 70
     1
102
RTVSPost2010Prop40
 90
        0
102
RTVSPost2010PropOp40
 70
     1
102
RTVSPost2010Prop41ColorIndex
 90
       18
102
RTVSPost2010Prop41ColorRGB
 90
        0
102
RTVSPost2010PropOp41
 70
     1
102
RTVSPost2010Prop42
 90
       50
102
RTVSPost2010PropOp42
 70
     1
102
RTVSPost2010Prop43
 90
        3
102
RTVSPost2010PropOp43
 70
     1
102
RTVSPost2010Prop44ColorIndex
 90
        5
102
RTVSPost2010Prop44ColorRGB
 90
      255
102
RTVSPost2010PropOp44
 70
     1
102
RTVSPost2010Prop45
280
     0
102
RTVSPost2010PropOp45
 70
     1
102
RTVSPost2010Prop46
 90
       50
102
RTVSPost2010PropOp46
 70
     1
102
RTVSPost2010Prop47
 90
       50
102
RTVSPost2010PropOp47
 70
     1
102
RTVSPost2010Prop48
 90
       50
102
RTVSPost2010PropOp48
 70
     1
102
RTVSPost2010Prop49
280
     0
102
RTVSPost2010PropOp49
 70
     1
102
RTVSPost2010Prop50
 90
       50
102
RTVSPost2010PropOp50
 70
     1
102
RTVSPost2010Prop51ColorIndex
 90
      256
102
RTVSPost2010Prop51ColorRGB
 90
-16777216
102
RTVSPost2010PropOp51
 70
     0
102
RTVSPost2010Prop52
140
1.0
102
RTVSPost2010PropOp52
 70
     0
102
RTVSPost2010Prop53
 90
        2
102
RTVSPost2010PropOp53
 70
     1
102
RTVSPost2010Prop54
  1
strokes_ogs.tif
102
RTVSPost2010PropOp54
 70
     1
102
RTVSPost2010Prop55
280
     0
102
RTVSPost2010PropOp55
 70
     1
102
RTVSPost2010Prop56
140
1.0
102
RTVSPost2010PropOp56
 70
     1
102
RTVSPost2010Prop57
140
1.0
102
RTVSPost2010PropOp57
 70
     1
102
RTVSPropertyOp0
 70
     1
102
RTVSPropertyOp1
 70
     1
102
RTVSPropertyOp2
 70
     1
102
RTVSPropertyOp3
 70
     1
102
RTVSPropertyOp4
 70
     1
102
RTVSPropertyOp5
 70
     1
102
RTVSPropertyOp6
 70
     1
102
RTVSPropertyOp7
 70
     1
102
RTVSPropertyOp8
 70
     1
102
RTVSPropertyOp9
 70
     1
102
RTVSPropertyOp10
 70
     1
102
RTVSPropertyOp11
 70
     1
102
RTVSPropertyOp12
 70
     1
102
RTVSPropertyOp13
 70
     1
102
RTVSPropertyOp14
 70
     1
102
RTVSPropertyOp15
 70
     1
102
RTVSPropertyOp16
 70
     1
102
RTVSPropertyOp17
 70
     1
102
RTVSPropertyOp18
 70
     1
102
RTVSPropertyOp19
 70
     1
102
RTVSPropertyOp20
 70
     1
102
RTVSPropertyOp21
 70
     1
102
RTVSPropertyOp22
 70
     1
102
RTVSPropertyOp23
 70
     1
102
RTVSPropertyOp24
 70
     1
102
RTVSPropertyOp25
 70
     1
102
RTVSPropertyOp26
 70
     1
102
RTVSPropertyOp27
 70
     1
102
RTVSPropertyOp28
 70
     1
102
RTVSPropertyOp29
 70
     1
102
RTVSPropertyOp30
 70
     1
102
RTVSPropertyOp31
 70
     1
102
RTVSPropertyOp32
 70
     1
102
RTVSPropertyOp33
 70
     1
102
RTVSPropertyOp34
 70
     1
102
RTVSPropertyOp35
 70
     1
102
RTVSPropertyOp36
 70
     1
102
RTVSPropertyOp37
 70
     1
102
RTVSPropertyOp38
 70
     1
102
RTVSPropertyOp39
 70
     1
102
RTVSPropertyOp40
 70
     1
102
RTVSPropertyOp41
 70
     1
102
RTVSPropertyOp42
 70
     1
102
RTVSPropertyOp43
 70
     1
102
RTVSPropertyOp44
 70
     1
102
RTVSPropertyOp45
 70
     1
102
RTVSPropertyOp46
 70
     1
102
RTVSPropertyOp47
 70
     1
102
RTVSPropertyOp48
 70
     1
102
RTVSPropertyOp49
 70
     1
102
RTVSPropertyOp50
 70
     1
102
RTVSPropertyOp51
 70
     0
102
RTVSPropertyOp52
 70
     0
102
RTVSPropertyOp53
 70
     1
102
RTVSPropertyOp54
 70
     1
102
RTVSPropertyOp55
 70
     1
102
RTVSPropertyOp56
 70
     1
102
RTVSPropertyOp57
 70
     1
102
RTVSPropertyOp58
 70
     1
102
RTVSPropertyOp59
 70
     1
102
RTVSPropertyOp60
 70
     1
102
RTVSPropertyOp61
 70
     1
102
RTVSPropertyOp62
 70
     1
  0
XRECORD
  5
16838
102
{ACAD_REACTORS
330
16837
102
}
330
16837
100
AcDbXrecord
280
     1
102
RTVSPost2010Prop28
280
     0
102
RTVSPost2010PropOp28
 70
     1
102
RTVSPost2010Prop29
280
     1
102
RTVSPost2010PropOp29
 70
     1
102
RTVSPost2010Prop30
280
     1
102
RTVSPost2010PropOp30
 70
     1
102
RTVSPost2010Prop31
280
     0
102
RTVSPost2010PropOp31
 70
     1
102
RTVSPost2010Prop32
280
     0
102
RTVSPost2010PropOp32
 70
     1
102
RTVSPost2010Prop33
280
     0
102
RTVSPost2010PropOp33
 70
     1
102
RTVSPost2010Prop34
280
     0
102
RTVSPost2010PropOp34
 70
     1
102
RTVSPost2010Prop35
280
     0
102
RTVSPost2010PropOp35
 70
     1
102
RTVSPost2010Prop36
280
     0
102
RTVSPost2010PropOp36
 70
     1
102
RTVSPost2010Prop37
 90
       50
102
RTVSPost2010PropOp37
 70
     1
102
RTVSPost2010Prop38
140
0.0
102
RTVSPost2010PropOp38
 70
     1
102
RTVSPost2010Prop39
140
1.0
102
RTVSPost2010PropOp39
 70
     1
102
RTVSPost2010Prop40
 90
        0
102
RTVSPost2010PropOp40
 70
     1
102
RTVSPost2010Prop41ColorIndex
 90
       18
102
RTVSPost2010Prop41ColorRGB
 90
        0
102
RTVSPost2010PropOp41
 70
     1
102
RTVSPost2010Prop42
 90
       50
102
RTVSPost2010PropOp42
 70
     1
102
RTVSPost2010Prop43
 90
        3
102
RTVSPost2010PropOp43
 70
     1
102
RTVSPost2010Prop44ColorIndex
 90
        5
102
RTVSPost2010Prop44ColorRGB
 90
      255
102
RTVSPost2010PropOp44
 70
     1
102
RTVSPost2010Prop45
280
     0
102
RTVSPost2010PropOp45
 70
     1
102
RTVSPost2010Prop46
 90
       50
102
RTVSPost2010PropOp46
 70
     1
102
RTVSPost2010Prop47
 90
       50
102
RTVSPost2010PropOp47
 70
     1
102
RTVSPost2010Prop48
 90
       50
102
RTVSPost2010PropOp48
 70
     1
102
RTVSPost2010Prop49
280
     0
102
RTVSPost2010PropOp49
 70
     1
102
RTVSPost2010Prop50
 90
       50
102
RTVSPost2010PropOp50
 70
     1
102
RTVSPost2010Prop51ColorIndex
 90
      256
102
RTVSPost2010Prop51ColorRGB
 90
-16777216
102
RTVSPost2010PropOp51
 70
     0
102
RTVSPost2010Prop52
140
1.0
102
RTVSPost2010PropOp52
 70
     0
102
RTVSPost2010Prop53
 90
        2
102
RTVSPost2010PropOp53
 70
     1
102
RTVSPost2010Prop54
  1
strokes_ogs.tif
102
RTVSPost2010PropOp54
 70
     1
102
RTVSPost2010Prop55
280
     0
102
RTVSPost2010PropOp55
 70
     1
102
RTVSPost2010Prop56
140
1.0
102
RTVSPost2010PropOp56
 70
     1
102
RTVSPost2010Prop57
140
1.0
102
RTVSPost2010PropOp57
 70
     1
102
RTVSPropertyOp0
 70
     1
102
RTVSPropertyOp1
 70
     1
102
RTVSPropertyOp2
 70
     1
102
RTVSPropertyOp3
 70
     1
102
RTVSPropertyOp4
 70
     1
102
RTVSPropertyOp5
 70
     1
102
RTVSPropertyOp6
 70
     1
102
RTVSPropertyOp7
 70
     1
102
RTVSPropertyOp8
 70
     1
102
RTVSPropertyOp9
 70
     1
102
RTVSPropertyOp10
 70
     1
102
RTVSPropertyOp11
 70
     1
102
RTVSPropertyOp12
 70
     1
102
RTVSPropertyOp13
 70
     1
102
RTVSPropertyOp14
 70
     1
102
RTVSPropertyOp15
 70
     1
102
RTVSPropertyOp16
 70
     1
102
RTVSPropertyOp17
 70
     1
102
RTVSPropertyOp18
 70
     1
102
RTVSPropertyOp19
 70
     1
102
RTVSPropertyOp20
 70
     1
102
RTVSPropertyOp21
 70
     1
102
RTVSPropertyOp22
 70
     1
102
RTVSPropertyOp23
 70
     1
102
RTVSPropertyOp24
 70
     1
102
RTVSPropertyOp25
 70
     1
102
RTVSPropertyOp26
 70
     1
102
RTVSPropertyOp27
 70
     1
102
RTVSPropertyOp28
 70
     1
102
RTVSPropertyOp29
 70
     1
102
RTVSPropertyOp30
 70
     1
102
RTVSPropertyOp31
 70
     1
102
RTVSPropertyOp32
 70
     1
102
RTVSPropertyOp33
 70
     1
102
RTVSPropertyOp34
 70
     1
102
RTVSPropertyOp35
 70
     1
102
RTVSPropertyOp36
 70
     1
102
RTVSPropertyOp37
 70
     1
102
RTVSPropertyOp38
 70
     1
102
RTVSPropertyOp39
 70
     1
102
RTVSPropertyOp40
 70
     1
102
RTVSPropertyOp41
 70
     1
102
RTVSPropertyOp42
 70
     1
102
RTVSPropertyOp43
 70
     1
102
RTVSPropertyOp44
 70
     1
102
RTVSPropertyOp45
 70
     1
102
RTVSPropertyOp46
 70
     1
102
RTVSPropertyOp47
 70
     1
102
RTVSPropertyOp48
 70
     1
102
RTVSPropertyOp49
 70
     1
102
RTVSPropertyOp50
 70
     1
102
RTVSPropertyOp51
 70
     0
102
RTVSPropertyOp52
 70
     0
102
RTVSPropertyOp53
 70
     1
102
RTVSPropertyOp54
 70
     1
102
RTVSPropertyOp55
 70
     1
102
RTVSPropertyOp56
 70
     1
102
RTVSPropertyOp57
 70
     1
102
RTVSPropertyOp58
 70
     1
102
RTVSPropertyOp59
 70
     1
102
RTVSPropertyOp60
 70
     1
102
RTVSPropertyOp61
 70
     1
102
RTVSPropertyOp62
 70
     1
  0
XRECORD
  5
1683C
102
{ACAD_REACTORS
330
1683B
102
}
330
1683B
100
AcDbXrecord
280
     1
102
RTVSPost2010Prop28
280
     0
102
RTVSPost2010PropOp28
 70
     1
102
RTVSPost2010Prop29
280
     1
102
RTVSPost2010PropOp29
 70
     1
102
RTVSPost2010Prop30
280
     1
102
RTVSPost2010PropOp30
 70
     1
102
RTVSPost2010Prop31
280
     0
102
RTVSPost2010PropOp31
 70
     1
102
RTVSPost2010Prop32
280
     0
102
RTVSPost2010PropOp32
 70
     1
102
RTVSPost2010Prop33
280
     0
102
RTVSPost2010PropOp33
 70
     1
102
RTVSPost2010Prop34
280
     0
102
RTVSPost2010PropOp34
 70
     1
102
RTVSPost2010Prop35
280
     0
102
RTVSPost2010PropOp35
 70
     1
102
RTVSPost2010Prop36
280
     0
102
RTVSPost2010PropOp36
 70
     1
102
RTVSPost2010Prop37
 90
       50
102
RTVSPost2010PropOp37
 70
     1
102
RTVSPost2010Prop38
140
0.0
102
RTVSPost2010PropOp38
 70
     1
102
RTVSPost2010Prop39
140
1.0
102
RTVSPost2010PropOp39
 70
     1
102
RTVSPost2010Prop40
 90
        0
102
RTVSPost2010PropOp40
 70
     1
102
RTVSPost2010Prop41ColorIndex
 90
       18
102
RTVSPost2010Prop41ColorRGB
 90
        0
102
RTVSPost2010PropOp41
 70
     1
102
RTVSPost2010Prop42
 90
       50
102
RTVSPost2010PropOp42
 70
     1
102
RTVSPost2010Prop43
 90
        3
102
RTVSPost2010PropOp43
 70
     1
102
RTVSPost2010Prop44ColorIndex
 90
        5
102
RTVSPost2010Prop44ColorRGB
 90
      255
102
RTVSPost2010PropOp44
 70
     1
102
RTVSPost2010Prop45
280
     0
102
RTVSPost2010PropOp45
 70
     1
102
RTVSPost2010Prop46
 90
       50
102
RTVSPost2010PropOp46
 70
     1
102
RTVSPost2010Prop47
 90
       50
102
RTVSPost2010PropOp47
 70
     1
102
RTVSPost2010Prop48
 90
       50
102
RTVSPost2010PropOp48
 70
     1
102
RTVSPost2010Prop49
280
     0
102
RTVSPost2010PropOp49
 70
     1
102
RTVSPost2010Prop50
 90
       50
102
RTVSPost2010PropOp50
 70
     1
102
RTVSPost2010Prop51ColorIndex
 90
      256
102
RTVSPost2010Prop51ColorRGB
 90
-16777216
102
RTVSPost2010PropOp51
 70
     0
102
RTVSPost2010Prop52
140
1.0
102
RTVSPost2010PropOp52
 70
     0
102
RTVSPost2010Prop53
 90
        2
102
RTVSPost2010PropOp53
 70
     1
102
RTVSPost2010Prop54
  1
strokes_ogs.tif
102
RTVSPost2010PropOp54
 70
     1
102
RTVSPost2010Prop55
280
     0
102
RTVSPost2010PropOp55
 70
     1
102
RTVSPost2010Prop56
140
1.0
102
RTVSPost2010PropOp56
 70
     1
102
RTVSPost2010Prop57
140
1.0
102
RTVSPost2010PropOp57
 70
     1
102
RTVSPropertyOp0
 70
     1
102
RTVSPropertyOp1
 70
     1
102
RTVSPropertyOp2
 70
     1
102
RTVSPropertyOp3
 70
     1
102
RTVSPropertyOp4
 70
     1
102
RTVSPropertyOp5
 70
     1
102
RTVSPropertyOp6
 70
     1
102
RTVSPropertyOp7
 70
     1
102
RTVSPropertyOp8
 70
     1
102
RTVSPropertyOp9
 70
     1
102
RTVSPropertyOp10
 70
     1
102
RTVSPropertyOp11
 70
     1
102
RTVSPropertyOp12
 70
     1
102
RTVSPropertyOp13
 70
     1
102
RTVSPropertyOp14
 70
     1
102
RTVSPropertyOp15
 70
     1
102
RTVSPropertyOp16
 70
     1
102
RTVSPropertyOp17
 70
     1
102
RTVSPropertyOp18
 70
     1
102
RTVSPropertyOp19
 70
     1
102
RTVSPropertyOp20
 70
     1
102
RTVSPropertyOp21
 70
     1
102
RTVSPropertyOp22
 70
     1
102
RTVSPropertyOp23
 70
     1
102
RTVSPropertyOp24
 70
     1
102
RTVSPropertyOp25
 70
     1
102
RTVSPropertyOp26
 70
     1
102
RTVSPropertyOp27
 70
     1
102
RTVSPropertyOp28
 70
     1
102
RTVSPropertyOp29
 70
     1
102
RTVSPropertyOp30
 70
     1
102
RTVSPropertyOp31
 70
     1
102
RTVSPropertyOp32
 70
     1
102
RTVSPropertyOp33
 70
     1
102
RTVSPropertyOp34
 70
     1
102
RTVSPropertyOp35
 70
     1
102
RTVSPropertyOp36
 70
     1
102
RTVSPropertyOp37
 70
     1
102
RTVSPropertyOp38
 70
     1
102
RTVSPropertyOp39
 70
     1
102
RTVSPropertyOp40
 70
     1
102
RTVSPropertyOp41
 70
     1
102
RTVSPropertyOp42
 70
     1
102
RTVSPropertyOp43
 70
     1
102
RTVSPropertyOp44
 70
     1
102
RTVSPropertyOp45
 70
     1
102
RTVSPropertyOp46
 70
     1
102
RTVSPropertyOp47
 70
     1
102
RTVSPropertyOp48
 70
     1
102
RTVSPropertyOp49
 70
     1
102
RTVSPropertyOp50
 70
     1
102
RTVSPropertyOp51
 70
     0
102
RTVSPropertyOp52
 70
     0
102
RTVSPropertyOp53
 70
     1
102
RTVSPropertyOp54
 70
     1
102
RTVSPropertyOp55
 70
     1
102
RTVSPropertyOp56
 70
     1
102
RTVSPropertyOp57
 70
     1
102
RTVSPropertyOp58
 70
     1
102
RTVSPropertyOp59
 70
     1
102
RTVSPropertyOp60
 70
     1
102
RTVSPropertyOp61
 70
     1
102
RTVSPropertyOp62
 70
     1
  0
XRECORD
  5
16856
102
{ACAD_REACTORS
330
16855
102
}
330
16855
100
AcDbXrecord
280
     1
102
RTVSPost2010Prop28
280
     0
102
RTVSPost2010PropOp28
 70
     0
102
RTVSPost2010Prop29
280
     1
102
RTVSPost2010PropOp29
 70
     0
102
RTVSPost2010Prop30
280
     1
102
RTVSPost2010PropOp30
 70
     0
102
RTVSPost2010Prop31
280
     0
102
RTVSPost2010PropOp31
 70
     0
102
RTVSPost2010Prop32
280
     0
102
RTVSPost2010PropOp32
 70
     0
102
RTVSPost2010Prop33
280
     0
102
RTVSPost2010PropOp33
 70
     0
102
RTVSPost2010Prop34
280
     0
102
RTVSPost2010PropOp34
 70
     0
102
RTVSPost2010Prop35
280
     0
102
RTVSPost2010PropOp35
 70
     0
102
RTVSPost2010Prop36
280
     0
102
RTVSPost2010PropOp36
 70
     0
102
RTVSPost2010Prop37
 90
       50
102
RTVSPost2010PropOp37
 70
     0
102
RTVSPost2010Prop38
140
0.0
102
RTVSPost2010PropOp38
 70
     0
102
RTVSPost2010Prop39
140
1.0
102
RTVSPost2010PropOp39
 70
     0
102
RTVSPost2010Prop40
 90
        0
102
RTVSPost2010PropOp40
 70
     0
102
RTVSPost2010Prop41ColorIndex
 90
       18
102
RTVSPost2010Prop41ColorRGB
 90
        0
102
RTVSPost2010PropOp41
 70
     0
102
RTVSPost2010Prop42
 90
       50
102
RTVSPost2010PropOp42
 70
     0
102
RTVSPost2010Prop43
 90
        3
102
RTVSPost2010PropOp43
 70
     0
102
RTVSPost2010Prop44ColorIndex
 90
        5
102
RTVSPost2010Prop44ColorRGB
 90
      255
102
RTVSPost2010PropOp44
 70
     0
102
RTVSPost2010Prop45
280
     0
102
RTVSPost2010PropOp45
 70
     0
102
RTVSPost2010Prop46
 90
       50
102
RTVSPost2010PropOp46
 70
     0
102
RTVSPost2010Prop47
 90
       50
102
RTVSPost2010PropOp47
 70
     0
102
RTVSPost2010Prop48
 90
       50
102
RTVSPost2010PropOp48
 70
     0
102
RTVSPost2010Prop49
280
     0
102
RTVSPost2010PropOp49
 70
     0
102
RTVSPost2010Prop50
 90
       50
102
RTVSPost2010PropOp50
 70
     0
102
RTVSPost2010Prop51ColorIndex
 90
      256
102
RTVSPost2010Prop51ColorRGB
 90
-16777216
102
RTVSPost2010PropOp51
 70
     0
102
RTVSPost2010Prop52
140
1.0
102
RTVSPost2010PropOp52
 70
     0
102
RTVSPost2010Prop53
 90
        2
102
RTVSPost2010PropOp53
 70
     0
102
RTVSPost2010Prop54
  1
strokes_ogs.tif
102
RTVSPost2010PropOp54
 70
     0
102
RTVSPost2010Prop55
280
     0
102
RTVSPost2010PropOp55
 70
     0
102
RTVSPost2010Prop56
140
1.0
102
RTVSPost2010PropOp56
 70
     0
102
RTVSPost2010Prop57
140
1.0
102
RTVSPost2010PropOp57
 70
     0
102
RTVSPropertyOp0
 70
     0
102
RTVSPropertyOp1
 70
     0
102
RTVSPropertyOp2
 70
     0
102
RTVSPropertyOp3
 70
     0
102
RTVSPropertyOp4
 70
     0
102
RTVSPropertyOp5
 70
     0
102
RTVSPropertyOp6
 70
     0
102
RTVSPropertyOp7
 70
     0
102
RTVSPropertyOp8
 70
     0
102
RTVSPropertyOp9
 70
     0
102
RTVSPropertyOp10
 70
     0
102
RTVSPropertyOp11
 70
     0
102
RTVSPropertyOp12
 70
     0
102
RTVSPropertyOp13
 70
     0
102
RTVSPropertyOp14
 70
     2
102
RTVSPropertyOp15
 70
     0
102
RTVSPropertyOp16
 70
     0
102
RTVSPropertyOp17
 70
     0
102
RTVSPropertyOp18
 70
     0
102
RTVSPropertyOp19
 70
     0
102
RTVSPropertyOp20
 70
     0
102
RTVSPropertyOp21
 70
     0
102
RTVSPropertyOp22
 70
     0
102
RTVSPropertyOp23
 70
     0
102
RTVSPropertyOp24
 70
     0
102
RTVSPropertyOp25
 70
     0
102
RTVSPropertyOp26
 70
     0
102
RTVSPropertyOp27
 70
     0
102
RTVSPropertyOp28
 70
     0
102
RTVSPropertyOp29
 70
     0
102
RTVSPropertyOp30
 70
     0
102
RTVSPropertyOp31
 70
     0
102
RTVSPropertyOp32
 70
     0
102
RTVSPropertyOp33
 70
     0
102
RTVSPropertyOp34
 70
     0
102
RTVSPropertyOp35
 70
     0
102
RTVSPropertyOp36
 70
     0
102
RTVSPropertyOp37
 70
     0
102
RTVSPropertyOp38
 70
     0
102
RTVSPropertyOp39
 70
     0
102
RTVSPropertyOp40
 70
     0
102
RTVSPropertyOp41
 70
     0
102
RTVSPropertyOp42
 70
     0
102
RTVSPropertyOp43
 70
     0
102
RTVSPropertyOp44
 70
     0
102
RTVSPropertyOp45
 70
     0
102
RTVSPropertyOp46
 70
     0
102
RTVSPropertyOp47
 70
     0
102
RTVSPropertyOp48
 70
     0
102
RTVSPropertyOp49
 70
     0
102
RTVSPropertyOp50
 70
     0
102
RTVSPropertyOp51
 70
     0
102
RTVSPropertyOp52
 70
     0
102
RTVSPropertyOp53
 70
     0
102
RTVSPropertyOp54
 70
     0
102
RTVSPropertyOp55
 70
     0
102
RTVSPropertyOp56
 70
     0
102
RTVSPropertyOp57
 70
     0
102
RTVSPropertyOp58
 70
     1
102
RTVSPropertyOp59
 70
     1
102
RTVSPropertyOp60
 70
     1
102
RTVSPropertyOp61
 70
     1
102
RTVSPropertyOp62
 70
     1
  0
XRECORD
  5
16844
102
{ACAD_REACTORS
330
16843
102
}
330
16843
100
AcDbXrecord
280
     1
102
RTVSPost2010Prop28
280
     0
102
RTVSPost2010PropOp28
 70
     1
102
RTVSPost2010Prop29
280
     1
102
RTVSPost2010PropOp29
 70
     1
102
RTVSPost2010Prop30
280
     1
102
RTVSPost2010PropOp30
 70
     1
102
RTVSPost2010Prop31
280
     0
102
RTVSPost2010PropOp31
 70
     1
102
RTVSPost2010Prop32
280
     0
102
RTVSPost2010PropOp32
 70
     1
102
RTVSPost2010Prop33
280
     0
102
RTVSPost2010PropOp33
 70
     1
102
RTVSPost2010Prop34
280
     0
102
RTVSPost2010PropOp34
 70
     1
102
RTVSPost2010Prop35
280
     0
102
RTVSPost2010PropOp35
 70
     1
102
RTVSPost2010Prop36
280
     0
102
RTVSPost2010PropOp36
 70
     1
102
RTVSPost2010Prop37
 90
       50
102
RTVSPost2010PropOp37
 70
     1
102
RTVSPost2010Prop38
140
0.0
102
RTVSPost2010PropOp38
 70
     1
102
RTVSPost2010Prop39
140
1.0
102
RTVSPost2010PropOp39
 70
     1
102
RTVSPost2010Prop40
 90
        0
102
RTVSPost2010PropOp40
 70
     1
102
RTVSPost2010Prop41ColorIndex
 90
       18
102
RTVSPost2010Prop41ColorRGB
 90
        0
102
RTVSPost2010PropOp41
 70
     1
102
RTVSPost2010Prop42
 90
       50
102
RTVSPost2010PropOp42
 70
     1
102
RTVSPost2010Prop43
 90
        3
102
RTVSPost2010PropOp43
 70
     1
102
RTVSPost2010Prop44ColorIndex
 90
        5
102
RTVSPost2010Prop44ColorRGB
 90
      255
102
RTVSPost2010PropOp44
 70
     1
102
RTVSPost2010Prop45
280
     0
102
RTVSPost2010PropOp45
 70
     1
102
RTVSPost2010Prop46
 90
       50
102
RTVSPost2010PropOp46
 70
     1
102
RTVSPost2010Prop47
 90
       50
102
RTVSPost2010PropOp47
 70
     1
102
RTVSPost2010Prop48
 90
       50
102
RTVSPost2010PropOp48
 70
     1
102
RTVSPost2010Prop49
280
     0
102
RTVSPost2010PropOp49
 70
     1
102
RTVSPost2010Prop50
 90
       50
102
RTVSPost2010PropOp50
 70
     1
102
RTVSPost2010Prop51ColorIndex
 90
      256
102
RTVSPost2010Prop51ColorRGB
 90
-16777216
102
RTVSPost2010PropOp51
 70
     0
102
RTVSPost2010Prop52
140
1.0
102
RTVSPost2010PropOp52
 70
     0
102
RTVSPost2010Prop53
 90
        2
102
RTVSPost2010PropOp53
 70
     1
102
RTVSPost2010Prop54
  1
strokes_ogs.tif
102
RTVSPost2010PropOp54
 70
     1
102
RTVSPost2010Prop55
280
     0
102
RTVSPost2010PropOp55
 70
     1
102
RTVSPost2010Prop56
140
1.0
102
RTVSPost2010PropOp56
 70
     1
102
RTVSPost2010Prop57
140
1.0
102
RTVSPost2010PropOp57
 70
     1
102
RTVSPropertyOp0
 70
     1
102
RTVSPropertyOp1
 70
     1
102
RTVSPropertyOp2
 70
     1
102
RTVSPropertyOp3
 70
     1
102
RTVSPropertyOp4
 70
     1
102
RTVSPropertyOp5
 70
     1
102
RTVSPropertyOp6
 70
     1
102
RTVSPropertyOp7
 70
     1
102
RTVSPropertyOp8
 70
     1
102
RTVSPropertyOp9
 70
     1
102
RTVSPropertyOp10
 70
     1
102
RTVSPropertyOp11
 70
     1
102
RTVSPropertyOp12
 70
     1
102
RTVSPropertyOp13
 70
     1
102
RTVSPropertyOp14
 70
     1
102
RTVSPropertyOp15
 70
     1
102
RTVSPropertyOp16
 70
     1
102
RTVSPropertyOp17
 70
     1
102
RTVSPropertyOp18
 70
     1
102
RTVSPropertyOp19
 70
     1
102
RTVSPropertyOp20
 70
     1
102
RTVSPropertyOp21
 70
     1
102
RTVSPropertyOp22
 70
     1
102
RTVSPropertyOp23
 70
     1
102
RTVSPropertyOp24
 70
     1
102
RTVSPropertyOp25
 70
     1
102
RTVSPropertyOp26
 70
     1
102
RTVSPropertyOp27
 70
     1
102
RTVSPropertyOp28
 70
     1
102
RTVSPropertyOp29
 70
     1
102
RTVSPropertyOp30
 70
     1
102
RTVSPropertyOp31
 70
     1
102
RTVSPropertyOp32
 70
     1
102
RTVSPropertyOp33
 70
     1
102
RTVSPropertyOp34
 70
     1
102
RTVSPropertyOp35
 70
     1
102
RTVSPropertyOp36
 70
     1
102
RTVSPropertyOp37
 70
     1
102
RTVSPropertyOp38
 70
     1
102
RTVSPropertyOp39
 70
     1
102
RTVSPropertyOp40
 70
     1
102
RTVSPropertyOp41
 70
     1
102
RTVSPropertyOp42
 70
     1
102
RTVSPropertyOp43
 70
     1
102
RTVSPropertyOp44
 70
     1
102
RTVSPropertyOp45
 70
     1
102
RTVSPropertyOp46
 70
     1
102
RTVSPropertyOp47
 70
     1
102
RTVSPropertyOp48
 70
     1
102
RTVSPropertyOp49
 70
     1
102
RTVSPropertyOp50
 70
     1
102
RTVSPropertyOp51
 70
     0
102
RTVSPropertyOp52
 70
     0
102
RTVSPropertyOp53
 70
     1
102
RTVSPropertyOp54
 70
     1
102
RTVSPropertyOp55
 70
     1
102
RTVSPropertyOp56
 70
     1
102
RTVSPropertyOp57
 70
     1
102
RTVSPropertyOp58
 70
     1
102
RTVSPropertyOp59
 70
     1
102
RTVSPropertyOp60
 70
     1
102
RTVSPropertyOp61
 70
     1
102
RTVSPropertyOp62
 70
     1
  0
XRECORD
  5
16828
102
{ACAD_REACTORS
330
16827
102
}
330
16827
100
AcDbXrecord
280
     1
102
RTVSPost2010Prop28
280
     0
102
RTVSPost2010PropOp28
 70
     1
102
RTVSPost2010Prop29
280
     1
102
RTVSPost2010PropOp29
 70
     1
102
RTVSPost2010Prop30
280
     1
102
RTVSPost2010PropOp30
 70
     1
102
RTVSPost2010Prop31
280
     0
102
RTVSPost2010PropOp31
 70
     1
102
RTVSPost2010Prop32
280
     0
102
RTVSPost2010PropOp32
 70
     1
102
RTVSPost2010Prop33
280
     0
102
RTVSPost2010PropOp33
 70
     1
102
RTVSPost2010Prop34
280
     0
102
RTVSPost2010PropOp34
 70
     1
102
RTVSPost2010Prop35
280
     0
102
RTVSPost2010PropOp35
 70
     1
102
RTVSPost2010Prop36
280
     0
102
RTVSPost2010PropOp36
 70
     1
102
RTVSPost2010Prop37
 90
       50
102
RTVSPost2010PropOp37
 70
     1
102
RTVSPost2010Prop38
140
0.0
102
RTVSPost2010PropOp38
 70
     1
102
RTVSPost2010Prop39
140
1.0
102
RTVSPost2010PropOp39
 70
     1
102
RTVSPost2010Prop40
 90
        0
102
RTVSPost2010PropOp40
 70
     1
102
RTVSPost2010Prop41ColorIndex
 90
       18
102
RTVSPost2010Prop41ColorRGB
 90
        0
102
RTVSPost2010PropOp41
 70
     1
102
RTVSPost2010Prop42
 90
       50
102
RTVSPost2010PropOp42
 70
     1
102
RTVSPost2010Prop43
 90
        3
102
RTVSPost2010PropOp43
 70
     1
102
RTVSPost2010Prop44ColorIndex
 90
        5
102
RTVSPost2010Prop44ColorRGB
 90
      255
102
RTVSPost2010PropOp44
 70
     1
102
RTVSPost2010Prop45
280
     0
102
RTVSPost2010PropOp45
 70
     1
102
RTVSPost2010Prop46
 90
       50
102
RTVSPost2010PropOp46
 70
     1
102
RTVSPost2010Prop47
 90
       50
102
RTVSPost2010PropOp47
 70
     1
102
RTVSPost2010Prop48
 90
       50
102
RTVSPost2010PropOp48
 70
     1
102
RTVSPost2010Prop49
280
     0
102
RTVSPost2010PropOp49
 70
     1
102
RTVSPost2010Prop50
 90
       50
102
RTVSPost2010PropOp50
 70
     1
102
RTVSPost2010Prop51ColorIndex
 90
      256
102
RTVSPost2010Prop51ColorRGB
 90
-16777216
102
RTVSPost2010PropOp51
 70
     0
102
RTVSPost2010Prop52
140
1.0
102
RTVSPost2010PropOp52
 70
     0
102
RTVSPost2010Prop53
 90
        2
102
RTVSPost2010PropOp53
 70
     1
102
RTVSPost2010Prop54
  1
strokes_ogs.tif
102
RTVSPost2010PropOp54
 70
     1
102
RTVSPost2010Prop55
280
     0
102
RTVSPost2010PropOp55
 70
     1
102
RTVSPost2010Prop56
140
1.0
102
RTVSPost2010PropOp56
 70
     1
102
RTVSPost2010Prop57
140
1.0
102
RTVSPost2010PropOp57
 70
     1
102
RTVSPropertyOp0
 70
     1
102
RTVSPropertyOp1
 70
     1
102
RTVSPropertyOp2
 70
     1
102
RTVSPropertyOp3
 70
     1
102
RTVSPropertyOp4
 70
     1
102
RTVSPropertyOp5
 70
     1
102
RTVSPropertyOp6
 70
     1
102
RTVSPropertyOp7
 70
     1
102
RTVSPropertyOp8
 70
     1
102
RTVSPropertyOp9
 70
     1
102
RTVSPropertyOp10
 70
     1
102
RTVSPropertyOp11
 70
     1
102
RTVSPropertyOp12
 70
     1
102
RTVSPropertyOp13
 70
     1
102
RTVSPropertyOp14
 70
     1
102
RTVSPropertyOp15
 70
     1
102
RTVSPropertyOp16
 70
     1
102
RTVSPropertyOp17
 70
     1
102
RTVSPropertyOp18
 70
     1
102
RTVSPropertyOp19
 70
     1
102
RTVSPropertyOp20
 70
     1
102
RTVSPropertyOp21
 70
     1
102
RTVSPropertyOp22
 70
     1
102
RTVSPropertyOp23
 70
     1
102
RTVSPropertyOp24
 70
     1
102
RTVSPropertyOp25
 70
     1
102
RTVSPropertyOp26
 70
     1
102
RTVSPropertyOp27
 70
     1
102
RTVSPropertyOp28
 70
     1
102
RTVSPropertyOp29
 70
     1
102
RTVSPropertyOp30
 70
     1
102
RTVSPropertyOp31
 70
     1
102
RTVSPropertyOp32
 70
     1
102
RTVSPropertyOp33
 70
     1
102
RTVSPropertyOp34
 70
     1
102
RTVSPropertyOp35
 70
     1
102
RTVSPropertyOp36
 70
     1
102
RTVSPropertyOp37
 70
     1
102
RTVSPropertyOp38
 70
     1
102
RTVSPropertyOp39
 70
     1
102
RTVSPropertyOp40
 70
     1
102
RTVSPropertyOp41
 70
     1
102
RTVSPropertyOp42
 70
     1
102
RTVSPropertyOp43
 70
     1
102
RTVSPropertyOp44
 70
     1
102
RTVSPropertyOp45
 70
     1
102
RTVSPropertyOp46
 70
     1
102
RTVSPropertyOp47
 70
     1
102
RTVSPropertyOp48
 70
     1
102
RTVSPropertyOp49
 70
     1
102
RTVSPropertyOp50
 70
     1
102
RTVSPropertyOp51
 70
     0
102
RTVSPropertyOp52
 70
     0
102
RTVSPropertyOp53
 70
     1
102
RTVSPropertyOp54
 70
     1
102
RTVSPropertyOp55
 70
     1
102
RTVSPropertyOp56
 70
     1
102
RTVSPropertyOp57
 70
     1
102
RTVSPropertyOp58
 70
     1
102
RTVSPropertyOp59
 70
     1
102
RTVSPropertyOp60
 70
     1
102
RTVSPropertyOp61
 70
     1
102
RTVSPropertyOp62
 70
     1
  0
XRECORD
  5
1682A
102
{ACAD_REACTORS
330
16829
102
}
330
16829
100
AcDbXrecord
280
     1
102
RTVSPost2010Prop28
280
     0
102
RTVSPost2010PropOp28
 70
     1
102
RTVSPost2010Prop29
280
     1
102
RTVSPost2010PropOp29
 70
     1
102
RTVSPost2010Prop30
280
     1
102
RTVSPost2010PropOp30
 70
     1
102
RTVSPost2010Prop31
280
     0
102
RTVSPost2010PropOp31
 70
     1
102
RTVSPost2010Prop32
280
     0
102
RTVSPost2010PropOp32
 70
     1
102
RTVSPost2010Prop33
280
     0
102
RTVSPost2010PropOp33
 70
     1
102
RTVSPost2010Prop34
280
     0
102
RTVSPost2010PropOp34
 70
     1
102
RTVSPost2010Prop35
280
     0
102
RTVSPost2010PropOp35
 70
     1
102
RTVSPost2010Prop36
280
     0
102
RTVSPost2010PropOp36
 70
     1
102
RTVSPost2010Prop37
 90
       50
102
RTVSPost2010PropOp37
 70
     1
102
RTVSPost2010Prop38
140
0.0
102
RTVSPost2010PropOp38
 70
     1
102
RTVSPost2010Prop39
140
1.0
102
RTVSPost2010PropOp39
 70
     1
102
RTVSPost2010Prop40
 90
        0
102
RTVSPost2010PropOp40
 70
     1
102
RTVSPost2010Prop41ColorIndex
 90
       18
102
RTVSPost2010Prop41ColorRGB
 90
        0
102
RTVSPost2010PropOp41
 70
     1
102
RTVSPost2010Prop42
 90
       50
102
RTVSPost2010PropOp42
 70
     1
102
RTVSPost2010Prop43
 90
        3
102
RTVSPost2010PropOp43
 70
     1
102
RTVSPost2010Prop44ColorIndex
 90
        5
102
RTVSPost2010Prop44ColorRGB
 90
      255
102
RTVSPost2010PropOp44
 70
     1
102
RTVSPost2010Prop45
280
     0
102
RTVSPost2010PropOp45
 70
     1
102
RTVSPost2010Prop46
 90
       50
102
RTVSPost2010PropOp46
 70
     1
102
RTVSPost2010Prop47
 90
       50
102
RTVSPost2010PropOp47
 70
     1
102
RTVSPost2010Prop48
 90
       50
102
RTVSPost2010PropOp48
 70
     1
102
RTVSPost2010Prop49
280
     0
102
RTVSPost2010PropOp49
 70
     1
102
RTVSPost2010Prop50
 90
       50
102
RTVSPost2010PropOp50
 70
     1
102
RTVSPost2010Prop51ColorIndex
 90
      256
102
RTVSPost2010Prop51ColorRGB
 90
-16777216
102
RTVSPost2010PropOp51
 70
     0
102
RTVSPost2010Prop52
140
1.0
102
RTVSPost2010PropOp52
 70
     0
102
RTVSPost2010Prop53
 90
        2
102
RTVSPost2010PropOp53
 70
     1
102
RTVSPost2010Prop54
  1
strokes_ogs.tif
102
RTVSPost2010PropOp54
 70
     1
102
RTVSPost2010Prop55
280
     0
102
RTVSPost2010PropOp55
 70
     1
102
RTVSPost2010Prop56
140
1.0
102
RTVSPost2010PropOp56
 70
     1
102
RTVSPost2010Prop57
140
1.0
102
RTVSPost2010PropOp57
 70
     1
102
RTVSPropertyOp0
 70
     1
102
RTVSPropertyOp1
 70
     1
102
RTVSPropertyOp2
 70
     1
102
RTVSPropertyOp3
 70
     1
102
RTVSPropertyOp4
 70
     1
102
RTVSPropertyOp5
 70
     1
102
RTVSPropertyOp6
 70
     1
102
RTVSPropertyOp7
 70
     1
102
RTVSPropertyOp8
 70
     1
102
RTVSPropertyOp9
 70
     1
102
RTVSPropertyOp10
 70
     1
102
RTVSPropertyOp11
 70
     1
102
RTVSPropertyOp12
 70
     1
102
RTVSPropertyOp13
 70
     1
102
RTVSPropertyOp14
 70
     1
102
RTVSPropertyOp15
 70
     1
102
RTVSPropertyOp16
 70
     1
102
RTVSPropertyOp17
 70
     1
102
RTVSPropertyOp18
 70
     1
102
RTVSPropertyOp19
 70
     1
102
RTVSPropertyOp20
 70
     1
102
RTVSPropertyOp21
 70
     1
102
RTVSPropertyOp22
 70
     1
102
RTVSPropertyOp23
 70
     1
102
RTVSPropertyOp24
 70
     1
102
RTVSPropertyOp25
 70
     1
102
RTVSPropertyOp26
 70
     1
102
RTVSPropertyOp27
 70
     1
102
RTVSPropertyOp28
 70
     1
102
RTVSPropertyOp29
 70
     1
102
RTVSPropertyOp30
 70
     1
102
RTVSPropertyOp31
 70
     1
102
RTVSPropertyOp32
 70
     1
102
RTVSPropertyOp33
 70
     1
102
RTVSPropertyOp34
 70
     1
102
RTVSPropertyOp35
 70
     1
102
RTVSPropertyOp36
 70
     1
102
RTVSPropertyOp37
 70
     1
102
RTVSPropertyOp38
 70
     1
102
RTVSPropertyOp39
 70
     1
102
RTVSPropertyOp40
 70
     1
102
RTVSPropertyOp41
 70
     1
102
RTVSPropertyOp42
 70
     1
102
RTVSPropertyOp43
 70
     1
102
RTVSPropertyOp44
 70
     1
102
RTVSPropertyOp45
 70
     1
102
RTVSPropertyOp46
 70
     1
102
RTVSPropertyOp47
 70
     1
102
RTVSPropertyOp48
 70
     1
102
RTVSPropertyOp49
 70
     1
102
RTVSPropertyOp50
 70
     1
102
RTVSPropertyOp51
 70
     0
102
RTVSPropertyOp52
 70
     0
102
RTVSPropertyOp53
 70
     1
102
RTVSPropertyOp54
 70
     1
102
RTVSPropertyOp55
 70
     1
102
RTVSPropertyOp56
 70
     1
102
RTVSPropertyOp57
 70
     1
102
RTVSPropertyOp58
 70
     1
102
RTVSPropertyOp59
 70
     1
102
RTVSPropertyOp60
 70
     1
102
RTVSPropertyOp61
 70
     1
102
RTVSPropertyOp62
 70
     1
  0
XRECORD
  5
1682C
102
{ACAD_REACTORS
330
1682B
102
}
330
1682B
100
AcDbXrecord
280
     1
102
RTVSPost2010Prop28
280
     0
102
RTVSPost2010PropOp28
 70
     1
102
RTVSPost2010Prop29
280
     1
102
RTVSPost2010PropOp29
 70
     1
102
RTVSPost2010Prop30
280
     1
102
RTVSPost2010PropOp30
 70
     1
102
RTVSPost2010Prop31
280
     0
102
RTVSPost2010PropOp31
 70
     1
102
RTVSPost2010Prop32
280
     0
102
RTVSPost2010PropOp32
 70
     1
102
RTVSPost2010Prop33
280
     0
102
RTVSPost2010PropOp33
 70
     1
102
RTVSPost2010Prop34
280
     0
102
RTVSPost2010PropOp34
 70
     1
102
RTVSPost2010Prop35
280
     0
102
RTVSPost2010PropOp35
 70
     1
102
RTVSPost2010Prop36
280
     0
102
RTVSPost2010PropOp36
 70
     1
102
RTVSPost2010Prop37
 90
       50
102
RTVSPost2010PropOp37
 70
     1
102
RTVSPost2010Prop38
140
0.0
102
RTVSPost2010PropOp38
 70
     1
102
RTVSPost2010Prop39
140
1.0
102
RTVSPost2010PropOp39
 70
     1
102
RTVSPost2010Prop40
 90
        0
102
RTVSPost2010PropOp40
 70
     1
102
RTVSPost2010Prop41ColorIndex
 90
       18
102
RTVSPost2010Prop41ColorRGB
 90
        0
102
RTVSPost2010PropOp41
 70
     1
102
RTVSPost2010Prop42
 90
       50
102
RTVSPost2010PropOp42
 70
     1
102
RTVSPost2010Prop43
 90
        3
102
RTVSPost2010PropOp43
 70
     1
102
RTVSPost2010Prop44ColorIndex
 90
        5
102
RTVSPost2010Prop44ColorRGB
 90
      255
102
RTVSPost2010PropOp44
 70
     1
102
RTVSPost2010Prop45
280
     0
102
RTVSPost2010PropOp45
 70
     1
102
RTVSPost2010Prop46
 90
       50
102
RTVSPost2010PropOp46
 70
     1
102
RTVSPost2010Prop47
 90
       50
102
RTVSPost2010PropOp47
 70
     1
102
RTVSPost2010Prop48
 90
       50
102
RTVSPost2010PropOp48
 70
     1
102
RTVSPost2010Prop49
280
     0
102
RTVSPost2010PropOp49
 70
     1
102
RTVSPost2010Prop50
 90
       50
102
RTVSPost2010PropOp50
 70
     1
102
RTVSPost2010Prop51ColorIndex
 90
      256
102
RTVSPost2010Prop51ColorRGB
 90
-16777216
102
RTVSPost2010PropOp51
 70
     0
102
RTVSPost2010Prop52
140
1.0
102
RTVSPost2010PropOp52
 70
     0
102
RTVSPost2010Prop53
 90
        2
102
RTVSPost2010PropOp53
 70
     1
102
RTVSPost2010Prop54
  1
strokes_ogs.tif
102
RTVSPost2010PropOp54
 70
     1
102
RTVSPost2010Prop55
280
     0
102
RTVSPost2010PropOp55
 70
     1
102
RTVSPost2010Prop56
140
1.0
102
RTVSPost2010PropOp56
 70
     1
102
RTVSPost2010Prop57
140
1.0
102
RTVSPost2010PropOp57
 70
     1
102
RTVSPropertyOp0
 70
     1
102
RTVSPropertyOp1
 70
     1
102
RTVSPropertyOp2
 70
     1
102
RTVSPropertyOp3
 70
     1
102
RTVSPropertyOp4
 70
     1
102
RTVSPropertyOp5
 70
     1
102
RTVSPropertyOp6
 70
     1
102
RTVSPropertyOp7
 70
     1
102
RTVSPropertyOp8
 70
     1
102
RTVSPropertyOp9
 70
     1
102
RTVSPropertyOp10
 70
     1
102
RTVSPropertyOp11
 70
     1
102
RTVSPropertyOp12
 70
     1
102
RTVSPropertyOp13
 70
     1
102
RTVSPropertyOp14
 70
     1
102
RTVSPropertyOp15
 70
     1
102
RTVSPropertyOp16
 70
     1
102
RTVSPropertyOp17
 70
     1
102
RTVSPropertyOp18
 70
     1
102
RTVSPropertyOp19
 70
     1
102
RTVSPropertyOp20
 70
     1
102
RTVSPropertyOp21
 70
     1
102
RTVSPropertyOp22
 70
     1
102
RTVSPropertyOp23
 70
     1
102
RTVSPropertyOp24
 70
     1
102
RTVSPropertyOp25
 70
     1
102
RTVSPropertyOp26
 70
     1
102
RTVSPropertyOp27
 70
     1
102
RTVSPropertyOp28
 70
     1
102
RTVSPropertyOp29
 70
     1
102
RTVSPropertyOp30
 70
     1
102
RTVSPropertyOp31
 70
     1
102
RTVSPropertyOp32
 70
     1
102
RTVSPropertyOp33
 70
     1
102
RTVSPropertyOp34
 70
     1
102
RTVSPropertyOp35
 70
     1
102
RTVSPropertyOp36
 70
     1
102
RTVSPropertyOp37
 70
     1
102
RTVSPropertyOp38
 70
     1
102
RTVSPropertyOp39
 70
     1
102
RTVSPropertyOp40
 70
     1
102
RTVSPropertyOp41
 70
     1
102
RTVSPropertyOp42
 70
     1
102
RTVSPropertyOp43
 70
     1
102
RTVSPropertyOp44
 70
     1
102
RTVSPropertyOp45
 70
     1
102
RTVSPropertyOp46
 70
     1
102
RTVSPropertyOp47
 70
     1
102
RTVSPropertyOp48
 70
     1
102
RTVSPropertyOp49
 70
     1
102
RTVSPropertyOp50
 70
     1
102
RTVSPropertyOp51
 70
     0
102
RTVSPropertyOp52
 70
     0
102
RTVSPropertyOp53
 70
     1
102
RTVSPropertyOp54
 70
     1
102
RTVSPropertyOp55
 70
     1
102
RTVSPropertyOp56
 70
     1
102
RTVSPropertyOp57
 70
     1
102
RTVSPropertyOp58
 70
     1
102
RTVSPropertyOp59
 70
     1
102
RTVSPropertyOp60
 70
     1
102
RTVSPropertyOp61
 70
     1
102
RTVSPropertyOp62
 70
     1
  0
XRECORD
  5
1682E
102
{ACAD_REACTORS
330
1682D
102
}
330
1682D
100
AcDbXrecord
280
     1
102
RTVSPost2010Prop28
280
     0
102
RTVSPost2010PropOp28
 70
     1
102
RTVSPost2010Prop29
280
     1
102
RTVSPost2010PropOp29
 70
     1
102
RTVSPost2010Prop30
280
     1
102
RTVSPost2010PropOp30
 70
     1
102
RTVSPost2010Prop31
280
     0
102
RTVSPost2010PropOp31
 70
     1
102
RTVSPost2010Prop32
280
     0
102
RTVSPost2010PropOp32
 70
     1
102
RTVSPost2010Prop33
280
     0
102
RTVSPost2010PropOp33
 70
     1
102
RTVSPost2010Prop34
280
     0
102
RTVSPost2010PropOp34
 70
     1
102
RTVSPost2010Prop35
280
     0
102
RTVSPost2010PropOp35
 70
     1
102
RTVSPost2010Prop36
280
     0
102
RTVSPost2010PropOp36
 70
     1
102
RTVSPost2010Prop37
 90
       50
102
RTVSPost2010PropOp37
 70
     1
102
RTVSPost2010Prop38
140
0.0
102
RTVSPost2010PropOp38
 70
     1
102
RTVSPost2010Prop39
140
1.0
102
RTVSPost2010PropOp39
 70
     1
102
RTVSPost2010Prop40
 90
        0
102
RTVSPost2010PropOp40
 70
     1
102
RTVSPost2010Prop41ColorIndex
 90
       18
102
RTVSPost2010Prop41ColorRGB
 90
        0
102
RTVSPost2010PropOp41
 70
     1
102
RTVSPost2010Prop42
 90
       50
102
RTVSPost2010PropOp42
 70
     1
102
RTVSPost2010Prop43
 90
        3
102
RTVSPost2010PropOp43
 70
     1
102
RTVSPost2010Prop44ColorIndex
 90
        5
102
RTVSPost2010Prop44ColorRGB
 90
      255
102
RTVSPost2010PropOp44
 70
     1
102
RTVSPost2010Prop45
280
     0
102
RTVSPost2010PropOp45
 70
     1
102
RTVSPost2010Prop46
 90
       50
102
RTVSPost2010PropOp46
 70
     1
102
RTVSPost2010Prop47
 90
       50
102
RTVSPost2010PropOp47
 70
     1
102
RTVSPost2010Prop48
 90
       50
102
RTVSPost2010PropOp48
 70
     1
102
RTVSPost2010Prop49
280
     0
102
RTVSPost2010PropOp49
 70
     1
102
RTVSPost2010Prop50
 90
       50
102
RTVSPost2010PropOp50
 70
     1
102
RTVSPost2010Prop51ColorIndex
 90
      256
102
RTVSPost2010Prop51ColorRGB
 90
-16777216
102
RTVSPost2010PropOp51
 70
     0
102
RTVSPost2010Prop52
140
1.0
102
RTVSPost2010PropOp52
 70
     0
102
RTVSPost2010Prop53
 90
        2
102
RTVSPost2010PropOp53
 70
     1
102
RTVSPost2010Prop54
  1
strokes_ogs.tif
102
RTVSPost2010PropOp54
 70
     1
102
RTVSPost2010Prop55
280
     0
102
RTVSPost2010PropOp55
 70
     1
102
RTVSPost2010Prop56
140
1.0
102
RTVSPost2010PropOp56
 70
     1
102
RTVSPost2010Prop57
140
1.0
102
RTVSPost2010PropOp57
 70
     1
102
RTVSPropertyOp0
 70
     1
102
RTVSPropertyOp1
 70
     1
102
RTVSPropertyOp2
 70
     1
102
RTVSPropertyOp3
 70
     1
102
RTVSPropertyOp4
 70
     1
102
RTVSPropertyOp5
 70
     1
102
RTVSPropertyOp6
 70
     1
102
RTVSPropertyOp7
 70
     1
102
RTVSPropertyOp8
 70
     1
102
RTVSPropertyOp9
 70
     1
102
RTVSPropertyOp10
 70
     1
102
RTVSPropertyOp11
 70
     1
102
RTVSPropertyOp12
 70
     1
102
RTVSPropertyOp13
 70
     1
102
RTVSPropertyOp14
 70
     1
102
RTVSPropertyOp15
 70
     1
102
RTVSPropertyOp16
 70
     1
102
RTVSPropertyOp17
 70
     1
102
RTVSPropertyOp18
 70
     1
102
RTVSPropertyOp19
 70
     1
102
RTVSPropertyOp20
 70
     1
102
RTVSPropertyOp21
 70
     1
102
RTVSPropertyOp22
 70
     1
102
RTVSPropertyOp23
 70
     1
102
RTVSPropertyOp24
 70
     1
102
RTVSPropertyOp25
 70
     1
102
RTVSPropertyOp26
 70
     1
102
RTVSPropertyOp27
 70
     1
102
RTVSPropertyOp28
 70
     1
102
RTVSPropertyOp29
 70
     1
102
RTVSPropertyOp30
 70
     1
102
RTVSPropertyOp31
 70
     1
102
RTVSPropertyOp32
 70
     1
102
RTVSPropertyOp33
 70
     1
102
RTVSPropertyOp34
 70
     1
102
RTVSPropertyOp35
 70
     1
102
RTVSPropertyOp36
 70
     1
102
RTVSPropertyOp37
 70
     1
102
RTVSPropertyOp38
 70
     1
102
RTVSPropertyOp39
 70
     1
102
RTVSPropertyOp40
 70
     1
102
RTVSPropertyOp41
 70
     1
102
RTVSPropertyOp42
 70
     1
102
RTVSPropertyOp43
 70
     1
102
RTVSPropertyOp44
 70
     1
102
RTVSPropertyOp45
 70
     1
102
RTVSPropertyOp46
 70
     1
102
RTVSPropertyOp47
 70
     1
102
RTVSPropertyOp48
 70
     1
102
RTVSPropertyOp49
 70
     1
102
RTVSPropertyOp50
 70
     1
102
RTVSPropertyOp51
 70
     0
102
RTVSPropertyOp52
 70
     0
102
RTVSPropertyOp53
 70
     1
102
RTVSPropertyOp54
 70
     1
102
RTVSPropertyOp55
 70
     1
102
RTVSPropertyOp56
 70
     1
102
RTVSPropertyOp57
 70
     1
102
RTVSPropertyOp58
 70
     1
102
RTVSPropertyOp59
 70
     1
102
RTVSPropertyOp60
 70
     1
102
RTVSPropertyOp61
 70
     1
102
RTVSPropertyOp62
 70
     1
  0
XRECORD
  5
16836
102
{ACAD_REACTORS
330
16835
102
}
330
16835
100
AcDbXrecord
280
     1
102
RTVSPost2010Prop28
280
     0
102
RTVSPost2010PropOp28
 70
     1
102
RTVSPost2010Prop29
280
     1
102
RTVSPost2010PropOp29
 70
     1
102
RTVSPost2010Prop30
280
     1
102
RTVSPost2010PropOp30
 70
     1
102
RTVSPost2010Prop31
280
     0
102
RTVSPost2010PropOp31
 70
     1
102
RTVSPost2010Prop32
280
     0
102
RTVSPost2010PropOp32
 70
     1
102
RTVSPost2010Prop33
280
     0
102
RTVSPost2010PropOp33
 70
     1
102
RTVSPost2010Prop34
280
     0
102
RTVSPost2010PropOp34
 70
     1
102
RTVSPost2010Prop35
280
     0
102
RTVSPost2010PropOp35
 70
     1
102
RTVSPost2010Prop36
280
     0
102
RTVSPost2010PropOp36
 70
     1
102
RTVSPost2010Prop37
 90
       50
102
RTVSPost2010PropOp37
 70
     1
102
RTVSPost2010Prop38
140
0.0
102
RTVSPost2010PropOp38
 70
     1
102
RTVSPost2010Prop39
140
1.0
102
RTVSPost2010PropOp39
 70
     1
102
RTVSPost2010Prop40
 90
        0
102
RTVSPost2010PropOp40
 70
     1
102
RTVSPost2010Prop41ColorIndex
 90
       18
102
RTVSPost2010Prop41ColorRGB
 90
        0
102
RTVSPost2010PropOp41
 70
     1
102
RTVSPost2010Prop42
 90
       50
102
RTVSPost2010PropOp42
 70
     1
102
RTVSPost2010Prop43
 90
        3
102
RTVSPost2010PropOp43
 70
     1
102
RTVSPost2010Prop44ColorIndex
 90
        5
102
RTVSPost2010Prop44ColorRGB
 90
      255
102
RTVSPost2010PropOp44
 70
     1
102
RTVSPost2010Prop45
280
     0
102
RTVSPost2010PropOp45
 70
     1
102
RTVSPost2010Prop46
 90
       50
102
RTVSPost2010PropOp46
 70
     1
102
RTVSPost2010Prop47
 90
       50
102
RTVSPost2010PropOp47
 70
     1
102
RTVSPost2010Prop48
 90
       50
102
RTVSPost2010PropOp48
 70
     1
102
RTVSPost2010Prop49
280
     0
102
RTVSPost2010PropOp49
 70
     1
102
RTVSPost2010Prop50
 90
       50
102
RTVSPost2010PropOp50
 70
     1
102
RTVSPost2010Prop51ColorIndex
 90
      256
102
RTVSPost2010Prop51ColorRGB
 90
-16777216
102
RTVSPost2010PropOp51
 70
     0
102
RTVSPost2010Prop52
140
1.0
102
RTVSPost2010PropOp52
 70
     0
102
RTVSPost2010Prop53
 90
        2
102
RTVSPost2010PropOp53
 70
     1
102
RTVSPost2010Prop54
  1
strokes_ogs.tif
102
RTVSPost2010PropOp54
 70
     1
102
RTVSPost2010Prop55
280
     0
102
RTVSPost2010PropOp55
 70
     1
102
RTVSPost2010Prop56
140
1.0
102
RTVSPost2010PropOp56
 70
     1
102
RTVSPost2010Prop57
140
1.0
102
RTVSPost2010PropOp57
 70
     1
102
RTVSPropertyOp0
 70
     1
102
RTVSPropertyOp1
 70
     1
102
RTVSPropertyOp2
 70
     1
102
RTVSPropertyOp3
 70
     1
102
RTVSPropertyOp4
 70
     1
102
RTVSPropertyOp5
 70
     1
102
RTVSPropertyOp6
 70
     1
102
RTVSPropertyOp7
 70
     1
102
RTVSPropertyOp8
 70
     1
102
RTVSPropertyOp9
 70
     1
102
RTVSPropertyOp10
 70
     1
102
RTVSPropertyOp11
 70
     1
102
RTVSPropertyOp12
 70
     1
102
RTVSPropertyOp13
 70
     1
102
RTVSPropertyOp14
 70
     1
102
RTVSPropertyOp15
 70
     1
102
RTVSPropertyOp16
 70
     1
102
RTVSPropertyOp17
 70
     1
102
RTVSPropertyOp18
 70
     1
102
RTVSPropertyOp19
 70
     1
102
RTVSPropertyOp20
 70
     1
102
RTVSPropertyOp21
 70
     1
102
RTVSPropertyOp22
 70
     1
102
RTVSPropertyOp23
 70
     1
102
RTVSPropertyOp24
 70
     1
102
RTVSPropertyOp25
 70
     1
102
RTVSPropertyOp26
 70
     1
102
RTVSPropertyOp27
 70
     1
102
RTVSPropertyOp28
 70
     1
102
RTVSPropertyOp29
 70
     1
102
RTVSPropertyOp30
 70
     1
102
RTVSPropertyOp31
 70
     1
102
RTVSPropertyOp32
 70
     1
102
RTVSPropertyOp33
 70
     1
102
RTVSPropertyOp34
 70
     1
102
RTVSPropertyOp35
 70
     1
102
RTVSPropertyOp36
 70
     1
102
RTVSPropertyOp37
 70
     1
102
RTVSPropertyOp38
 70
     1
102
RTVSPropertyOp39
 70
     1
102
RTVSPropertyOp40
 70
     1
102
RTVSPropertyOp41
 70
     1
102
RTVSPropertyOp42
 70
     1
102
RTVSPropertyOp43
 70
     1
102
RTVSPropertyOp44
 70
     1
102
RTVSPropertyOp45
 70
     1
102
RTVSPropertyOp46
 70
     1
102
RTVSPropertyOp47
 70
     1
102
RTVSPropertyOp48
 70
     1
102
RTVSPropertyOp49
 70
     1
102
RTVSPropertyOp50
 70
     1
102
RTVSPropertyOp51
 70
     0
102
RTVSPropertyOp52
 70
     0
102
RTVSPropertyOp53
 70
     1
102
RTVSPropertyOp54
 70
     1
102
RTVSPropertyOp55
 70
     1
102
RTVSPropertyOp56
 70
     1
102
RTVSPropertyOp57
 70
     1
102
RTVSPropertyOp58
 70
     1
102
RTVSPropertyOp59
 70
     1
102
RTVSPropertyOp60
 70
     1
102
RTVSPropertyOp61
 70
     1
102
RTVSPropertyOp62
 70
     1
  0
XRECORD
  5
16852
102
{ACAD_REACTORS
330
16851
102
}
330
16851
100
AcDbXrecord
280
     1
102
RTVSPost2010Prop28
280
     0
102
RTVSPost2010PropOp28
 70
     0
102
RTVSPost2010Prop29
280
     1
102
RTVSPost2010PropOp29
 70
     0
102
RTVSPost2010Prop30
280
     1
102
RTVSPost2010PropOp30
 70
     0
102
RTVSPost2010Prop31
280
     0
102
RTVSPost2010PropOp31
 70
     0
102
RTVSPost2010Prop32
280
     0
102
RTVSPost2010PropOp32
 70
     0
102
RTVSPost2010Prop33
280
     0
102
RTVSPost2010PropOp33
 70
     0
102
RTVSPost2010Prop34
280
     0
102
RTVSPost2010PropOp34
 70
     0
102
RTVSPost2010Prop35
280
     0
102
RTVSPost2010PropOp35
 70
     0
102
RTVSPost2010Prop36
280
     0
102
RTVSPost2010PropOp36
 70
     0
102
RTVSPost2010Prop37
 90
       50
102
RTVSPost2010PropOp37
 70
     0
102
RTVSPost2010Prop38
140
0.0
102
RTVSPost2010PropOp38
 70
     0
102
RTVSPost2010Prop39
140
1.0
102
RTVSPost2010PropOp39
 70
     0
102
RTVSPost2010Prop40
 90
        0
102
RTVSPost2010PropOp40
 70
     0
102
RTVSPost2010Prop41ColorIndex
 90
       18
102
RTVSPost2010Prop41ColorRGB
 90
        0
102
RTVSPost2010PropOp41
 70
     0
102
RTVSPost2010Prop42
 90
       50
102
RTVSPost2010PropOp42
 70
     0
102
RTVSPost2010Prop43
 90
        3
102
RTVSPost2010PropOp43
 70
     0
102
RTVSPost2010Prop44ColorIndex
 90
        5
102
RTVSPost2010Prop44ColorRGB
 90
      255
102
RTVSPost2010PropOp44
 70
     0
102
RTVSPost2010Prop45
280
     0
102
RTVSPost2010PropOp45
 70
     0
102
RTVSPost2010Prop46
 90
       50
102
RTVSPost2010PropOp46
 70
     0
102
RTVSPost2010Prop47
 90
       50
102
RTVSPost2010PropOp47
 70
     0
102
RTVSPost2010Prop48
 90
       50
102
RTVSPost2010PropOp48
 70
     0
102
RTVSPost2010Prop49
280
     0
102
RTVSPost2010PropOp49
 70
     0
102
RTVSPost2010Prop50
 90
       50
102
RTVSPost2010PropOp50
 70
     0
102
RTVSPost2010Prop51ColorIndex
 90
      256
102
RTVSPost2010Prop51ColorRGB
 90
-16777216
102
RTVSPost2010PropOp51
 70
     0
102
RTVSPost2010Prop52
140
1.0
102
RTVSPost2010PropOp52
 70
     0
102
RTVSPost2010Prop53
 90
        2
102
RTVSPost2010PropOp53
 70
     0
102
RTVSPost2010Prop54
  1
strokes_ogs.tif
102
RTVSPost2010PropOp54
 70
     0
102
RTVSPost2010Prop55
280
     0
102
RTVSPost2010PropOp55
 70
     0
102
RTVSPost2010Prop56
140
1.0
102
RTVSPost2010PropOp56
 70
     0
102
RTVSPost2010Prop57
140
1.0
102
RTVSPost2010PropOp57
 70
     0
102
RTVSPropertyOp0
 70
     0
102
RTVSPropertyOp1
 70
     0
102
RTVSPropertyOp2
 70
     0
102
RTVSPropertyOp3
 70
     0
102
RTVSPropertyOp4
 70
     0
102
RTVSPropertyOp5
 70
     0
102
RTVSPropertyOp6
 70
     0
102
RTVSPropertyOp7
 70
     0
102
RTVSPropertyOp8
 70
     0
102
RTVSPropertyOp9
 70
     0
102
RTVSPropertyOp10
 70
     0
102
RTVSPropertyOp11
 70
     0
102
RTVSPropertyOp12
 70
     0
102
RTVSPropertyOp13
 70
     0
102
RTVSPropertyOp14
 70
     2
102
RTVSPropertyOp15
 70
     0
102
RTVSPropertyOp16
 70
     0
102
RTVSPropertyOp17
 70
     0
102
RTVSPropertyOp18
 70
     0
102
RTVSPropertyOp19
 70
     0
102
RTVSPropertyOp20
 70
     0
102
RTVSPropertyOp21
 70
     0
102
RTVSPropertyOp22
 70
     0
102
RTVSPropertyOp23
 70
     0
102
RTVSPropertyOp24
 70
     0
102
RTVSPropertyOp25
 70
     0
102
RTVSPropertyOp26
 70
     0
102
RTVSPropertyOp27
 70
     0
102
RTVSPropertyOp28
 70
     0
102
RTVSPropertyOp29
 70
     0
102
RTVSPropertyOp30
 70
     0
102
RTVSPropertyOp31
 70
     0
102
RTVSPropertyOp32
 70
     0
102
RTVSPropertyOp33
 70
     0
102
RTVSPropertyOp34
 70
     0
102
RTVSPropertyOp35
 70
     0
102
RTVSPropertyOp36
 70
     0
102
RTVSPropertyOp37
 70
     0
102
RTVSPropertyOp38
 70
     0
102
RTVSPropertyOp39
 70
     0
102
RTVSPropertyOp40
 70
     0
102
RTVSPropertyOp41
 70
     0
102
RTVSPropertyOp42
 70
     0
102
RTVSPropertyOp43
 70
     0
102
RTVSPropertyOp44
 70
     0
102
RTVSPropertyOp45
 70
     0
102
RTVSPropertyOp46
 70
     0
102
RTVSPropertyOp47
 70
     0
102
RTVSPropertyOp48
 70
     0
102
RTVSPropertyOp49
 70
     0
102
RTVSPropertyOp50
 70
     0
102
RTVSPropertyOp51
 70
     0
102
RTVSPropertyOp52
 70
     0
102
RTVSPropertyOp53
 70
     0
102
RTVSPropertyOp54
 70
     0
102
RTVSPropertyOp55
 70
     0
102
RTVSPropertyOp56
 70
     0
102
RTVSPropertyOp57
 70
     0
102
RTVSPropertyOp58
 70
     1
102
RTVSPropertyOp59
 70
     1
102
RTVSPropertyOp60
 70
     1
102
RTVSPropertyOp61
 70
     1
102
RTVSPropertyOp62
 70
     1
  0
XRECORD
  5
16842
102
{ACAD_REACTORS
330
16841
102
}
330
16841
100
AcDbXrecord
280
     1
102
RTVSPost2010Prop28
280
     0
102
RTVSPost2010PropOp28
 70
     1
102
RTVSPost2010Prop29
280
     1
102
RTVSPost2010PropOp29
 70
     1
102
RTVSPost2010Prop30
280
     1
102
RTVSPost2010PropOp30
 70
     1
102
RTVSPost2010Prop31
280
     0
102
RTVSPost2010PropOp31
 70
     1
102
RTVSPost2010Prop32
280
     0
102
RTVSPost2010PropOp32
 70
     1
102
RTVSPost2010Prop33
280
     0
102
RTVSPost2010PropOp33
 70
     1
102
RTVSPost2010Prop34
280
     0
102
RTVSPost2010PropOp34
 70
     1
102
RTVSPost2010Prop35
280
     0
102
RTVSPost2010PropOp35
 70
     1
102
RTVSPost2010Prop36
280
     0
102
RTVSPost2010PropOp36
 70
     1
102
RTVSPost2010Prop37
 90
       50
102
RTVSPost2010PropOp37
 70
     1
102
RTVSPost2010Prop38
140
0.0
102
RTVSPost2010PropOp38
 70
     1
102
RTVSPost2010Prop39
140
1.0
102
RTVSPost2010PropOp39
 70
     1
102
RTVSPost2010Prop40
 90
        0
102
RTVSPost2010PropOp40
 70
     1
102
RTVSPost2010Prop41ColorIndex
 90
       18
102
RTVSPost2010Prop41ColorRGB
 90
        0
102
RTVSPost2010PropOp41
 70
     1
102
RTVSPost2010Prop42
 90
       50
102
RTVSPost2010PropOp42
 70
     1
102
RTVSPost2010Prop43
 90
        3
102
RTVSPost2010PropOp43
 70
     1
102
RTVSPost2010Prop44ColorIndex
 90
        5
102
RTVSPost2010Prop44ColorRGB
 90
      255
102
RTVSPost2010PropOp44
 70
     1
102
RTVSPost2010Prop45
280
     0
102
RTVSPost2010PropOp45
 70
     1
102
RTVSPost2010Prop46
 90
       50
102
RTVSPost2010PropOp46
 70
     1
102
RTVSPost2010Prop47
 90
       50
102
RTVSPost2010PropOp47
 70
     1
102
RTVSPost2010Prop48
 90
       50
102
RTVSPost2010PropOp48
 70
     1
102
RTVSPost2010Prop49
280
     0
102
RTVSPost2010PropOp49
 70
     1
102
RTVSPost2010Prop50
 90
       50
102
RTVSPost2010PropOp50
 70
     1
102
RTVSPost2010Prop51ColorIndex
 90
      256
102
RTVSPost2010Prop51ColorRGB
 90
-16777216
102
RTVSPost2010PropOp51
 70
     0
102
RTVSPost2010Prop52
140
1.0
102
RTVSPost2010PropOp52
 70
     0
102
RTVSPost2010Prop53
 90
        2
102
RTVSPost2010PropOp53
 70
     1
102
RTVSPost2010Prop54
  1
strokes_ogs.tif
102
RTVSPost2010PropOp54
 70
     1
102
RTVSPost2010Prop55
280
     0
102
RTVSPost2010PropOp55
 70
     1
102
RTVSPost2010Prop56
140
1.0
102
RTVSPost2010PropOp56
 70
     1
102
RTVSPost2010Prop57
140
1.0
102
RTVSPost2010PropOp57
 70
     1
102
RTVSPropertyOp0
 70
     1
102
RTVSPropertyOp1
 70
     1
102
RTVSPropertyOp2
 70
     1
102
RTVSPropertyOp3
 70
     1
102
RTVSPropertyOp4
 70
     1
102
RTVSPropertyOp5
 70
     1
102
RTVSPropertyOp6
 70
     1
102
RTVSPropertyOp7
 70
     1
102
RTVSPropertyOp8
 70
     1
102
RTVSPropertyOp9
 70
     1
102
RTVSPropertyOp10
 70
     1
102
RTVSPropertyOp11
 70
     1
102
RTVSPropertyOp12
 70
     1
102
RTVSPropertyOp13
 70
     1
102
RTVSPropertyOp14
 70
     1
102
RTVSPropertyOp15
 70
     1
102
RTVSPropertyOp16
 70
     1
102
RTVSPropertyOp17
 70
     1
102
RTVSPropertyOp18
 70
     1
102
RTVSPropertyOp19
 70
     1
102
RTVSPropertyOp20
 70
     1
102
RTVSPropertyOp21
 70
     1
102
RTVSPropertyOp22
 70
     1
102
RTVSPropertyOp23
 70
     1
102
RTVSPropertyOp24
 70
     1
102
RTVSPropertyOp25
 70
     1
102
RTVSPropertyOp26
 70
     1
102
RTVSPropertyOp27
 70
     1
102
RTVSPropertyOp28
 70
     1
102
RTVSPropertyOp29
 70
     1
102
RTVSPropertyOp30
 70
     1
102
RTVSPropertyOp31
 70
     1
102
RTVSPropertyOp32
 70
     1
102
RTVSPropertyOp33
 70
     1
102
RTVSPropertyOp34
 70
     1
102
RTVSPropertyOp35
 70
     1
102
RTVSPropertyOp36
 70
     1
102
RTVSPropertyOp37
 70
     1
102
RTVSPropertyOp38
 70
     1
102
RTVSPropertyOp39
 70
     1
102
RTVSPropertyOp40
 70
     1
102
RTVSPropertyOp41
 70
     1
102
RTVSPropertyOp42
 70
     1
102
RTVSPropertyOp43
 70
     1
102
RTVSPropertyOp44
 70
     1
102
RTVSPropertyOp45
 70
     1
102
RTVSPropertyOp46
 70
     1
102
RTVSPropertyOp47
 70
     1
102
RTVSPropertyOp48
 70
     1
102
RTVSPropertyOp49
 70
     1
102
RTVSPropertyOp50
 70
     1
102
RTVSPropertyOp51
 70
     0
102
RTVSPropertyOp52
 70
     0
102
RTVSPropertyOp53
 70
     1
102
RTVSPropertyOp54
 70
     1
102
RTVSPropertyOp55
 70
     1
102
RTVSPropertyOp56
 70
     1
102
RTVSPropertyOp57
 70
     1
102
RTVSPropertyOp58
 70
     1
102
RTVSPropertyOp59
 70
     1
102
RTVSPropertyOp60
 70
     1
102
RTVSPropertyOp61
 70
     1
102
RTVSPropertyOp62
 70
     1
  0
XRECORD
  5
16854
102
{ACAD_REACTORS
330
16853
102
}
330
16853
100
AcDbXrecord
280
     1
102
RTVSPost2010Prop28
280
     0
102
RTVSPost2010PropOp28
 70
     0
102
RTVSPost2010Prop29
280
     1
102
RTVSPost2010PropOp29
 70
     0
102
RTVSPost2010Prop30
280
     1
102
RTVSPost2010PropOp30
 70
     0
102
RTVSPost2010Prop31
280
     0
102
RTVSPost2010PropOp31
 70
     0
102
RTVSPost2010Prop32
280
     0
102
RTVSPost2010PropOp32
 70
     0
102
RTVSPost2010Prop33
280
     0
102
RTVSPost2010PropOp33
 70
     0
102
RTVSPost2010Prop34
280
     0
102
RTVSPost2010PropOp34
 70
     0
102
RTVSPost2010Prop35
280
     0
102
RTVSPost2010PropOp35
 70
     0
102
RTVSPost2010Prop36
280
     0
102
RTVSPost2010PropOp36
 70
     0
102
RTVSPost2010Prop37
 90
       50
102
RTVSPost2010PropOp37
 70
     0
102
RTVSPost2010Prop38
140
0.0
102
RTVSPost2010PropOp38
 70
     0
102
RTVSPost2010Prop39
140
1.0
102
RTVSPost2010PropOp39
 70
     0
102
RTVSPost2010Prop40
 90
        0
102
RTVSPost2010PropOp40
 70
     0
102
RTVSPost2010Prop41ColorIndex
 90
       18
102
RTVSPost2010Prop41ColorRGB
 90
        0
102
RTVSPost2010PropOp41
 70
     0
102
RTVSPost2010Prop42
 90
       50
102
RTVSPost2010PropOp42
 70
     0
102
RTVSPost2010Prop43
 90
        3
102
RTVSPost2010PropOp43
 70
     0
102
RTVSPost2010Prop44ColorIndex
 90
        5
102
RTVSPost2010Prop44ColorRGB
 90
      255
102
RTVSPost2010PropOp44
 70
     0
102
RTVSPost2010Prop45
280
     0
102
RTVSPost2010PropOp45
 70
     0
102
RTVSPost2010Prop46
 90
       50
102
RTVSPost2010PropOp46
 70
     0
102
RTVSPost2010Prop47
 90
       50
102
RTVSPost2010PropOp47
 70
     0
102
RTVSPost2010Prop48
 90
       50
102
RTVSPost2010PropOp48
 70
     0
102
RTVSPost2010Prop49
280
     0
102
RTVSPost2010PropOp49
 70
     0
102
RTVSPost2010Prop50
 90
       50
102
RTVSPost2010PropOp50
 70
     0
102
RTVSPost2010Prop51ColorIndex
 90
      256
102
RTVSPost2010Prop51ColorRGB
 90
-16777216
102
RTVSPost2010PropOp51
 70
     0
102
RTVSPost2010Prop52
140
1.0
102
RTVSPost2010PropOp52
 70
     0
102
RTVSPost2010Prop53
 90
        2
102
RTVSPost2010PropOp53
 70
     0
102
RTVSPost2010Prop54
  1
strokes_ogs.tif
102
RTVSPost2010PropOp54
 70
     0
102
RTVSPost2010Prop55
280
     0
102
RTVSPost2010PropOp55
 70
     0
102
RTVSPost2010Prop56
140
1.0
102
RTVSPost2010PropOp56
 70
     0
102
RTVSPost2010Prop57
140
1.0
102
RTVSPost2010PropOp57
 70
     0
102
RTVSPropertyOp0
 70
     0
102
RTVSPropertyOp1
 70
     0
102
RTVSPropertyOp2
 70
     0
102
RTVSPropertyOp3
 70
     0
102
RTVSPropertyOp4
 70
     0
102
RTVSPropertyOp5
 70
     0
102
RTVSPropertyOp6
 70
     0
102
RTVSPropertyOp7
 70
     0
102
RTVSPropertyOp8
 70
     0
102
RTVSPropertyOp9
 70
     0
102
RTVSPropertyOp10
 70
     0
102
RTVSPropertyOp11
 70
     0
102
RTVSPropertyOp12
 70
     0
102
RTVSPropertyOp13
 70
     0
102
RTVSPropertyOp14
 70
     2
102
RTVSPropertyOp15
 70
     0
102
RTVSPropertyOp16
 70
     0
102
RTVSPropertyOp17
 70
     0
102
RTVSPropertyOp18
 70
     0
102
RTVSPropertyOp19
 70
     0
102
RTVSPropertyOp20
 70
     0
102
RTVSPropertyOp21
 70
     0
102
RTVSPropertyOp22
 70
     0
102
RTVSPropertyOp23
 70
     0
102
RTVSPropertyOp24
 70
     0
102
RTVSPropertyOp25
 70
     0
102
RTVSPropertyOp26
 70
     0
102
RTVSPropertyOp27
 70
     0
102
RTVSPropertyOp28
 70
     0
102
RTVSPropertyOp29
 70
     0
102
RTVSPropertyOp30
 70
     0
102
RTVSPropertyOp31
 70
     0
102
RTVSPropertyOp32
 70
     0
102
RTVSPropertyOp33
 70
     0
102
RTVSPropertyOp34
 70
     0
102
RTVSPropertyOp35
 70
     0
102
RTVSPropertyOp36
 70
     0
102
RTVSPropertyOp37
 70
     0
102
RTVSPropertyOp38
 70
     0
102
RTVSPropertyOp39
 70
     0
102
RTVSPropertyOp40
 70
     0
102
RTVSPropertyOp41
 70
     0
102
RTVSPropertyOp42
 70
     0
102
RTVSPropertyOp43
 70
     0
102
RTVSPropertyOp44
 70
     0
102
RTVSPropertyOp45
 70
     0
102
RTVSPropertyOp46
 70
     0
102
RTVSPropertyOp47
 70
     0
102
RTVSPropertyOp48
 70
     0
102
RTVSPropertyOp49
 70
     0
102
RTVSPropertyOp50
 70
     0
102
RTVSPropertyOp51
 70
     0
102
RTVSPropertyOp52
 70
     0
102
RTVSPropertyOp53
 70
     0
102
RTVSPropertyOp54
 70
     0
102
RTVSPropertyOp55
 70
     0
102
RTVSPropertyOp56
 70
     0
102
RTVSPropertyOp57
 70
     0
102
RTVSPropertyOp58
 70
     1
102
RTVSPropertyOp59
 70
     1
102
RTVSPropertyOp60
 70
     1
102
RTVSPropertyOp61
 70
     1
102
RTVSPropertyOp62
 70
     1
  0
XRECORD
  5
1683A
102
{ACAD_REACTORS
330
16839
102
}
330
16839
100
AcDbXrecord
280
     1
102
RTVSPost2010Prop28
280
     0
102
RTVSPost2010PropOp28
 70
     1
102
RTVSPost2010Prop29
280
     1
102
RTVSPost2010PropOp29
 70
     1
102
RTVSPost2010Prop30
280
     1
102
RTVSPost2010PropOp30
 70
     1
102
RTVSPost2010Prop31
280
     0
102
RTVSPost2010PropOp31
 70
     1
102
RTVSPost2010Prop32
280
     0
102
RTVSPost2010PropOp32
 70
     1
102
RTVSPost2010Prop33
280
     0
102
RTVSPost2010PropOp33
 70
     1
102
RTVSPost2010Prop34
280
     0
102
RTVSPost2010PropOp34
 70
     1
102
RTVSPost2010Prop35
280
     0
102
RTVSPost2010PropOp35
 70
     1
102
RTVSPost2010Prop36
280
     0
102
RTVSPost2010PropOp36
 70
     1
102
RTVSPost2010Prop37
 90
       50
102
RTVSPost2010PropOp37
 70
     1
102
RTVSPost2010Prop38
140
0.0
102
RTVSPost2010PropOp38
 70
     1
102
RTVSPost2010Prop39
140
1.0
102
RTVSPost2010PropOp39
 70
     1
102
RTVSPost2010Prop40
 90
        0
102
RTVSPost2010PropOp40
 70
     1
102
RTVSPost2010Prop41ColorIndex
 90
       18
102
RTVSPost2010Prop41ColorRGB
 90
        0
102
RTVSPost2010PropOp41
 70
     1
102
RTVSPost2010Prop42
 90
       50
102
RTVSPost2010PropOp42
 70
     1
102
RTVSPost2010Prop43
 90
        3
102
RTVSPost2010PropOp43
 70
     1
102
RTVSPost2010Prop44ColorIndex
 90
        5
102
RTVSPost2010Prop44ColorRGB
 90
      255
102
RTVSPost2010PropOp44
 70
     1
102
RTVSPost2010Prop45
280
     0
102
RTVSPost2010PropOp45
 70
     1
102
RTVSPost2010Prop46
 90
       50
102
RTVSPost2010PropOp46
 70
     1
102
RTVSPost2010Prop47
 90
       50
102
RTVSPost2010PropOp47
 70
     1
102
RTVSPost2010Prop48
 90
       50
102
RTVSPost2010PropOp48
 70
     1
102
RTVSPost2010Prop49
280
     0
102
RTVSPost2010PropOp49
 70
     1
102
RTVSPost2010Prop50
 90
       50
102
RTVSPost2010PropOp50
 70
     1
102
RTVSPost2010Prop51ColorIndex
 90
      256
102
RTVSPost2010Prop51ColorRGB
 90
-16777216
102
RTVSPost2010PropOp51
 70
     0
102
RTVSPost2010Prop52
140
1.0
102
RTVSPost2010PropOp52
 70
     0
102
RTVSPost2010Prop53
 90
        2
102
RTVSPost2010PropOp53
 70
     1
102
RTVSPost2010Prop54
  1
strokes_ogs.tif
102
RTVSPost2010PropOp54
 70
     1
102
RTVSPost2010Prop55
280
     0
102
RTVSPost2010PropOp55
 70
     1
102
RTVSPost2010Prop56
140
1.0
102
RTVSPost2010PropOp56
 70
     1
102
RTVSPost2010Prop57
140
1.0
102
RTVSPost2010PropOp57
 70
     1
102
RTVSPropertyOp0
 70
     1
102
RTVSPropertyOp1
 70
     1
102
RTVSPropertyOp2
 70
     1
102
RTVSPropertyOp3
 70
     1
102
RTVSPropertyOp4
 70
     1
102
RTVSPropertyOp5
 70
     1
102
RTVSPropertyOp6
 70
     1
102
RTVSPropertyOp7
 70
     1
102
RTVSPropertyOp8
 70
     1
102
RTVSPropertyOp9
 70
     1
102
RTVSPropertyOp10
 70
     1
102
RTVSPropertyOp11
 70
     1
102
RTVSPropertyOp12
 70
     1
102
RTVSPropertyOp13
 70
     1
102
RTVSPropertyOp14
 70
     1
102
RTVSPropertyOp15
 70
     1
102
RTVSPropertyOp16
 70
     1
102
RTVSPropertyOp17
 70
     1
102
RTVSPropertyOp18
 70
     1
102
RTVSPropertyOp19
 70
     1
102
RTVSPropertyOp20
 70
     1
102
RTVSPropertyOp21
 70
     1
102
RTVSPropertyOp22
 70
     1
102
RTVSPropertyOp23
 70
     1
102
RTVSPropertyOp24
 70
     1
102
RTVSPropertyOp25
 70
     1
102
RTVSPropertyOp26
 70
     1
102
RTVSPropertyOp27
 70
     1
102
RTVSPropertyOp28
 70
     1
102
RTVSPropertyOp29
 70
     1
102
RTVSPropertyOp30
 70
     1
102
RTVSPropertyOp31
 70
     1
102
RTVSPropertyOp32
 70
     1
102
RTVSPropertyOp33
 70
     1
102
RTVSPropertyOp34
 70
     1
102
RTVSPropertyOp35
 70
     1
102
RTVSPropertyOp36
 70
     1
102
RTVSPropertyOp37
 70
     1
102
RTVSPropertyOp38
 70
     1
102
RTVSPropertyOp39
 70
     1
102
RTVSPropertyOp40
 70
     1
102
RTVSPropertyOp41
 70
     1
102
RTVSPropertyOp42
 70
     1
102
RTVSPropertyOp43
 70
     1
102
RTVSPropertyOp44
 70
     1
102
RTVSPropertyOp45
 70
     1
102
RTVSPropertyOp46
 70
     1
102
RTVSPropertyOp47
 70
     1
102
RTVSPropertyOp48
 70
     1
102
RTVSPropertyOp49
 70
     1
102
RTVSPropertyOp50
 70
     1
102
RTVSPropertyOp51
 70
     0
102
RTVSPropertyOp52
 70
     0
102
RTVSPropertyOp53
 70
     1
102
RTVSPropertyOp54
 70
     1
102
RTVSPropertyOp55
 70
     1
102
RTVSPropertyOp56
 70
     1
102
RTVSPropertyOp57
 70
     1
102
RTVSPropertyOp58
 70
     1
102
RTVSPropertyOp59
 70
     1
102
RTVSPropertyOp60
 70
     1
102
RTVSPropertyOp61
 70
     1
102
RTVSPropertyOp62
 70
     1
  0
XRECORD
  5
16850
102
{ACAD_REACTORS
330
1684F
102
}
330
1684F
100
AcDbXrecord
280
     1
102
RTVSPost2010Prop28
280
     0
102
RTVSPost2010PropOp28
 70
     1
102
RTVSPost2010Prop29
280
     1
102
RTVSPost2010PropOp29
 70
     1
102
RTVSPost2010Prop30
280
     1
102
RTVSPost2010PropOp30
 70
     1
102
RTVSPost2010Prop31
280
     0
102
RTVSPost2010PropOp31
 70
     1
102
RTVSPost2010Prop32
280
     0
102
RTVSPost2010PropOp32
 70
     1
102
RTVSPost2010Prop33
280
     0
102
RTVSPost2010PropOp33
 70
     1
102
RTVSPost2010Prop34
280
     0
102
RTVSPost2010PropOp34
 70
     1
102
RTVSPost2010Prop35
280
     0
102
RTVSPost2010PropOp35
 70
     1
102
RTVSPost2010Prop36
280
     0
102
RTVSPost2010PropOp36
 70
     1
102
RTVSPost2010Prop37
 90
       50
102
RTVSPost2010PropOp37
 70
     1
102
RTVSPost2010Prop38
140
0.0
102
RTVSPost2010PropOp38
 70
     1
102
RTVSPost2010Prop39
140
1.0
102
RTVSPost2010PropOp39
 70
     1
102
RTVSPost2010Prop40
 90
        0
102
RTVSPost2010PropOp40
 70
     1
102
RTVSPost2010Prop41ColorIndex
 90
       18
102
RTVSPost2010Prop41ColorRGB
 90
        0
102
RTVSPost2010PropOp41
 70
     1
102
RTVSPost2010Prop42
 90
       50
102
RTVSPost2010PropOp42
 70
     1
102
RTVSPost2010Prop43
 90
        3
102
RTVSPost2010PropOp43
 70
     1
102
RTVSPost2010Prop44ColorIndex
 90
        5
102
RTVSPost2010Prop44ColorRGB
 90
      255
102
RTVSPost2010PropOp44
 70
     1
102
RTVSPost2010Prop45
280
     0
102
RTVSPost2010PropOp45
 70
     1
102
RTVSPost2010Prop46
 90
       50
102
RTVSPost2010PropOp46
 70
     1
102
RTVSPost2010Prop47
 90
       50
102
RTVSPost2010PropOp47
 70
     1
102
RTVSPost2010Prop48
 90
       50
102
RTVSPost2010PropOp48
 70
     1
102
RTVSPost2010Prop49
280
     0
102
RTVSPost2010PropOp49
 70
     1
102
RTVSPost2010Prop50
 90
       50
102
RTVSPost2010PropOp50
 70
     1
102
RTVSPost2010Prop51ColorIndex
 90
      256
102
RTVSPost2010Prop51ColorRGB
 90
-16777216
102
RTVSPost2010PropOp51
 70
     0
102
RTVSPost2010Prop52
140
1.0
102
RTVSPost2010PropOp52
 70
     0
102
RTVSPost2010Prop53
 90
        2
102
RTVSPost2010PropOp53
 70
     1
102
RTVSPost2010Prop54
  1
strokes_ogs.tif
102
RTVSPost2010PropOp54
 70
     1
102
RTVSPost2010Prop55
280
     0
102
RTVSPost2010PropOp55
 70
     1
102
RTVSPost2010Prop56
140
1.0
102
RTVSPost2010PropOp56
 70
     1
102
RTVSPost2010Prop57
140
1.0
102
RTVSPost2010PropOp57
 70
     1
102
RTVSPropertyOp0
 70
     1
102
RTVSPropertyOp1
 70
     1
102
RTVSPropertyOp2
 70
     1
102
RTVSPropertyOp3
 70
     1
102
RTVSPropertyOp4
 70
     1
102
RTVSPropertyOp5
 70
     1
102
RTVSPropertyOp6
 70
     1
102
RTVSPropertyOp7
 70
     1
102
RTVSPropertyOp8
 70
     1
102
RTVSPropertyOp9
 70
     1
102
RTVSPropertyOp10
 70
     1
102
RTVSPropertyOp11
 70
     1
102
RTVSPropertyOp12
 70
     1
102
RTVSPropertyOp13
 70
     1
102
RTVSPropertyOp14
 70
     1
102
RTVSPropertyOp15
 70
     1
102
RTVSPropertyOp16
 70
     1
102
RTVSPropertyOp17
 70
     1
102
RTVSPropertyOp18
 70
     1
102
RTVSPropertyOp19
 70
     1
102
RTVSPropertyOp20
 70
     1
102
RTVSPropertyOp21
 70
     1
102
RTVSPropertyOp22
 70
     1
102
RTVSPropertyOp23
 70
     1
102
RTVSPropertyOp24
 70
     1
102
RTVSPropertyOp25
 70
     1
102
RTVSPropertyOp26
 70
     1
102
RTVSPropertyOp27
 70
     1
102
RTVSPropertyOp28
 70
     1
102
RTVSPropertyOp29
 70
     1
102
RTVSPropertyOp30
 70
     1
102
RTVSPropertyOp31
 70
     1
102
RTVSPropertyOp32
 70
     1
102
RTVSPropertyOp33
 70
     1
102
RTVSPropertyOp34
 70
     1
102
RTVSPropertyOp35
 70
     1
102
RTVSPropertyOp36
 70
     1
102
RTVSPropertyOp37
 70
     1
102
RTVSPropertyOp38
 70
     1
102
RTVSPropertyOp39
 70
     1
102
RTVSPropertyOp40
 70
     1
102
RTVSPropertyOp41
 70
     1
102
RTVSPropertyOp42
 70
     1
102
RTVSPropertyOp43
 70
     1
102
RTVSPropertyOp44
 70
     1
102
RTVSPropertyOp45
 70
     1
102
RTVSPropertyOp46
 70
     1
102
RTVSPropertyOp47
 70
     1
102
RTVSPropertyOp48
 70
     1
102
RTVSPropertyOp49
 70
     1
102
RTVSPropertyOp50
 70
     1
102
RTVSPropertyOp51
 70
     0
102
RTVSPropertyOp52
 70
     0
102
RTVSPropertyOp53
 70
     1
102
RTVSPropertyOp54
 70
     1
102
RTVSPropertyOp55
 70
     1
102
RTVSPropertyOp56
 70
     1
102
RTVSPropertyOp57
 70
     1
102
RTVSPropertyOp58
 70
     1
102
RTVSPropertyOp59
 70
     1
102
RTVSPropertyOp60
 70
     1
102
RTVSPropertyOp61
 70
     1
102
RTVSPropertyOp62
 70
     1
  0
XRECORD
  5
1684E
102
{ACAD_REACTORS
330
1684D
102
}
330
1684D
100
AcDbXrecord
280
     1
102
RTVSPost2010Prop28
280
     0
102
RTVSPost2010PropOp28
 70
     1
102
RTVSPost2010Prop29
280
     1
102
RTVSPost2010PropOp29
 70
     1
102
RTVSPost2010Prop30
280
     1
102
RTVSPost2010PropOp30
 70
     1
102
RTVSPost2010Prop31
280
     0
102
RTVSPost2010PropOp31
 70
     1
102
RTVSPost2010Prop32
280
     0
102
RTVSPost2010PropOp32
 70
     1
102
RTVSPost2010Prop33
280
     0
102
RTVSPost2010PropOp33
 70
     1
102
RTVSPost2010Prop34
280
     0
102
RTVSPost2010PropOp34
 70
     1
102
RTVSPost2010Prop35
280
     0
102
RTVSPost2010PropOp35
 70
     1
102
RTVSPost2010Prop36
280
     0
102
RTVSPost2010PropOp36
 70
     1
102
RTVSPost2010Prop37
 90
       50
102
RTVSPost2010PropOp37
 70
     1
102
RTVSPost2010Prop38
140
0.0
102
RTVSPost2010PropOp38
 70
     1
102
RTVSPost2010Prop39
140
1.0
102
RTVSPost2010PropOp39
 70
     1
102
RTVSPost2010Prop40
 90
        0
102
RTVSPost2010PropOp40
 70
     1
102
RTVSPost2010Prop41ColorIndex
 90
       18
102
RTVSPost2010Prop41ColorRGB
 90
        0
102
RTVSPost2010PropOp41
 70
     1
102
RTVSPost2010Prop42
 90
       50
102
RTVSPost2010PropOp42
 70
     1
102
RTVSPost2010Prop43
 90
        3
102
RTVSPost2010PropOp43
 70
     1
102
RTVSPost2010Prop44ColorIndex
 90
        5
102
RTVSPost2010Prop44ColorRGB
 90
      255
102
RTVSPost2010PropOp44
 70
     1
102
RTVSPost2010Prop45
280
     0
102
RTVSPost2010PropOp45
 70
     1
102
RTVSPost2010Prop46
 90
       50
102
RTVSPost2010PropOp46
 70
     1
102
RTVSPost2010Prop47
 90
       50
102
RTVSPost2010PropOp47
 70
     1
102
RTVSPost2010Prop48
 90
       50
102
RTVSPost2010PropOp48
 70
     1
102
RTVSPost2010Prop49
280
     0
102
RTVSPost2010PropOp49
 70
     1
102
RTVSPost2010Prop50
 90
       50
102
RTVSPost2010PropOp50
 70
     1
102
RTVSPost2010Prop51ColorIndex
 90
      256
102
RTVSPost2010Prop51ColorRGB
 90
-16777216
102
RTVSPost2010PropOp51
 70
     0
102
RTVSPost2010Prop52
140
1.0
102
RTVSPost2010PropOp52
 70
     0
102
RTVSPost2010Prop53
 90
        2
102
RTVSPost2010PropOp53
 70
     1
102
RTVSPost2010Prop54
  1
strokes_ogs.tif
102
RTVSPost2010PropOp54
 70
     1
102
RTVSPost2010Prop55
280
     0
102
RTVSPost2010PropOp55
 70
     1
102
RTVSPost2010Prop56
140
1.0
102
RTVSPost2010PropOp56
 70
     1
102
RTVSPost2010Prop57
140
1.0
102
RTVSPost2010PropOp57
 70
     1
102
RTVSPropertyOp0
 70
     1
102
RTVSPropertyOp1
 70
     1
102
RTVSPropertyOp2
 70
     1
102
RTVSPropertyOp3
 70
     1
102
RTVSPropertyOp4
 70
     1
102
RTVSPropertyOp5
 70
     1
102
RTVSPropertyOp6
 70
     1
102
RTVSPropertyOp7
 70
     1
102
RTVSPropertyOp8
 70
     1
102
RTVSPropertyOp9
 70
     1
102
RTVSPropertyOp10
 70
     1
102
RTVSPropertyOp11
 70
     1
102
RTVSPropertyOp12
 70
     1
102
RTVSPropertyOp13
 70
     1
102
RTVSPropertyOp14
 70
     1
102
RTVSPropertyOp15
 70
     1
102
RTVSPropertyOp16
 70
     1
102
RTVSPropertyOp17
 70
     1
102
RTVSPropertyOp18
 70
     1
102
RTVSPropertyOp19
 70
     1
102
RTVSPropertyOp20
 70
     1
102
RTVSPropertyOp21
 70
     1
102
RTVSPropertyOp22
 70
     1
102
RTVSPropertyOp23
 70
     1
102
RTVSPropertyOp24
 70
     1
102
RTVSPropertyOp25
 70
     1
102
RTVSPropertyOp26
 70
     1
102
RTVSPropertyOp27
 70
     1
102
RTVSPropertyOp28
 70
     1
102
RTVSPropertyOp29
 70
     1
102
RTVSPropertyOp30
 70
     1
102
RTVSPropertyOp31
 70
     1
102
RTVSPropertyOp32
 70
     1
102
RTVSPropertyOp33
 70
     1
102
RTVSPropertyOp34
 70
     1
102
RTVSPropertyOp35
 70
     1
102
RTVSPropertyOp36
 70
     1
102
RTVSPropertyOp37
 70
     1
102
RTVSPropertyOp38
 70
     1
102
RTVSPropertyOp39
 70
     1
102
RTVSPropertyOp40
 70
     1
102
RTVSPropertyOp41
 70
     1
102
RTVSPropertyOp42
 70
     1
102
RTVSPropertyOp43
 70
     1
102
RTVSPropertyOp44
 70
     1
102
RTVSPropertyOp45
 70
     1
102
RTVSPropertyOp46
 70
     1
102
RTVSPropertyOp47
 70
     1
102
RTVSPropertyOp48
 70
     1
102
RTVSPropertyOp49
 70
     1
102
RTVSPropertyOp50
 70
     1
102
RTVSPropertyOp51
 70
     0
102
RTVSPropertyOp52
 70
     0
102
RTVSPropertyOp53
 70
     1
102
RTVSPropertyOp54
 70
     1
102
RTVSPropertyOp55
 70
     1
102
RTVSPropertyOp56
 70
     1
102
RTVSPropertyOp57
 70
     1
102
RTVSPropertyOp58
 70
     1
102
RTVSPropertyOp59
 70
     1
102
RTVSPropertyOp60
 70
     1
102
RTVSPropertyOp61
 70
     1
102
RTVSPropertyOp62
 70
     1
  0
XRECORD
  5
16848
102
{ACAD_REACTORS
330
16847
102
}
330
16847
100
AcDbXrecord
280
     1
102
RTVSPost2010Prop28
280
     0
102
RTVSPost2010PropOp28
 70
     1
102
RTVSPost2010Prop29
280
     1
102
RTVSPost2010PropOp29
 70
     1
102
RTVSPost2010Prop30
280
     1
102
RTVSPost2010PropOp30
 70
     1
102
RTVSPost2010Prop31
280
     0
102
RTVSPost2010PropOp31
 70
     1
102
RTVSPost2010Prop32
280
     0
102
RTVSPost2010PropOp32
 70
     1
102
RTVSPost2010Prop33
280
     0
102
RTVSPost2010PropOp33
 70
     1
102
RTVSPost2010Prop34
280
     0
102
RTVSPost2010PropOp34
 70
     1
102
RTVSPost2010Prop35
280
     0
102
RTVSPost2010PropOp35
 70
     1
102
RTVSPost2010Prop36
280
     0
102
RTVSPost2010PropOp36
 70
     1
102
RTVSPost2010Prop37
 90
       50
102
RTVSPost2010PropOp37
 70
     1
102
RTVSPost2010Prop38
140
0.0
102
RTVSPost2010PropOp38
 70
     1
102
RTVSPost2010Prop39
140
1.0
102
RTVSPost2010PropOp39
 70
     1
102
RTVSPost2010Prop40
 90
        0
102
RTVSPost2010PropOp40
 70
     1
102
RTVSPost2010Prop41ColorIndex
 90
       18
102
RTVSPost2010Prop41ColorRGB
 90
        0
102
RTVSPost2010PropOp41
 70
     1
102
RTVSPost2010Prop42
 90
       50
102
RTVSPost2010PropOp42
 70
     1
102
RTVSPost2010Prop43
 90
        3
102
RTVSPost2010PropOp43
 70
     1
102
RTVSPost2010Prop44ColorIndex
 90
        5
102
RTVSPost2010Prop44ColorRGB
 90
      255
102
RTVSPost2010PropOp44
 70
     1
102
RTVSPost2010Prop45
280
     0
102
RTVSPost2010PropOp45
 70
     1
102
RTVSPost2010Prop46
 90
       50
102
RTVSPost2010PropOp46
 70
     1
102
RTVSPost2010Prop47
 90
       50
102
RTVSPost2010PropOp47
 70
     1
102
RTVSPost2010Prop48
 90
       50
102
RTVSPost2010PropOp48
 70
     1
102
RTVSPost2010Prop49
280
     0
102
RTVSPost2010PropOp49
 70
     1
102
RTVSPost2010Prop50
 90
       50
102
RTVSPost2010PropOp50
 70
     1
102
RTVSPost2010Prop51ColorIndex
 90
      256
102
RTVSPost2010Prop51ColorRGB
 90
-16777216
102
RTVSPost2010PropOp51
 70
     0
102
RTVSPost2010Prop52
140
1.0
102
RTVSPost2010PropOp52
 70
     0
102
RTVSPost2010Prop53
 90
        2
102
RTVSPost2010PropOp53
 70
     1
102
RTVSPost2010Prop54
  1
strokes_ogs.tif
102
RTVSPost2010PropOp54
 70
     1
102
RTVSPost2010Prop55
280
     0
102
RTVSPost2010PropOp55
 70
     1
102
RTVSPost2010Prop56
140
1.0
102
RTVSPost2010PropOp56
 70
     1
102
RTVSPost2010Prop57
140
1.0
102
RTVSPost2010PropOp57
 70
     1
102
RTVSPropertyOp0
 70
     1
102
RTVSPropertyOp1
 70
     1
102
RTVSPropertyOp2
 70
     1
102
RTVSPropertyOp3
 70
     1
102
RTVSPropertyOp4
 70
     1
102
RTVSPropertyOp5
 70
     1
102
RTVSPropertyOp6
 70
     1
102
RTVSPropertyOp7
 70
     1
102
RTVSPropertyOp8
 70
     1
102
RTVSPropertyOp9
 70
     1
102
RTVSPropertyOp10
 70
     1
102
RTVSPropertyOp11
 70
     1
102
RTVSPropertyOp12
 70
     1
102
RTVSPropertyOp13
 70
     1
102
RTVSPropertyOp14
 70
     1
102
RTVSPropertyOp15
 70
     1
102
RTVSPropertyOp16
 70
     1
102
RTVSPropertyOp17
 70
     1
102
RTVSPropertyOp18
 70
     1
102
RTVSPropertyOp19
 70
     1
102
RTVSPropertyOp20
 70
     1
102
RTVSPropertyOp21
 70
     1
102
RTVSPropertyOp22
 70
     1
102
RTVSPropertyOp23
 70
     1
102
RTVSPropertyOp24
 70
     1
102
RTVSPropertyOp25
 70
     1
102
RTVSPropertyOp26
 70
     1
102
RTVSPropertyOp27
 70
     1
102
RTVSPropertyOp28
 70
     1
102
RTVSPropertyOp29
 70
     1
102
RTVSPropertyOp30
 70
     1
102
RTVSPropertyOp31
 70
     1
102
RTVSPropertyOp32
 70
     1
102
RTVSPropertyOp33
 70
     1
102
RTVSPropertyOp34
 70
     1
102
RTVSPropertyOp35
 70
     1
102
RTVSPropertyOp36
 70
     1
102
RTVSPropertyOp37
 70
     1
102
RTVSPropertyOp38
 70
     1
102
RTVSPropertyOp39
 70
     1
102
RTVSPropertyOp40
 70
     1
102
RTVSPropertyOp41
 70
     1
102
RTVSPropertyOp42
 70
     1
102
RTVSPropertyOp43
 70
     1
102
RTVSPropertyOp44
 70
     1
102
RTVSPropertyOp45
 70
     1
102
RTVSPropertyOp46
 70
     1
102
RTVSPropertyOp47
 70
     1
102
RTVSPropertyOp48
 70
     1
102
RTVSPropertyOp49
 70
     1
102
RTVSPropertyOp50
 70
     1
102
RTVSPropertyOp51
 70
     0
102
RTVSPropertyOp52
 70
     0
102
RTVSPropertyOp53
 70
     1
102
RTVSPropertyOp54
 70
     1
102
RTVSPropertyOp55
 70
     1
102
RTVSPropertyOp56
 70
     1
102
RTVSPropertyOp57
 70
     1
102
RTVSPropertyOp58
 70
     1
102
RTVSPropertyOp59
 70
     1
102
RTVSPropertyOp60
 70
     1
102
RTVSPropertyOp61
 70
     1
102
RTVSPropertyOp62
 70
     1
  0
XRECORD
  5
1684A
102
{ACAD_REACTORS
330
16849
102
}
330
16849
100
AcDbXrecord
280
     1
102
RTVSPost2010Prop28
280
     0
102
RTVSPost2010PropOp28
 70
     1
102
RTVSPost2010Prop29
280
     1
102
RTVSPost2010PropOp29
 70
     1
102
RTVSPost2010Prop30
280
     1
102
RTVSPost2010PropOp30
 70
     1
102
RTVSPost2010Prop31
280
     0
102
RTVSPost2010PropOp31
 70
     1
102
RTVSPost2010Prop32
280
     0
102
RTVSPost2010PropOp32
 70
     1
102
RTVSPost2010Prop33
280
     0
102
RTVSPost2010PropOp33
 70
     1
102
RTVSPost2010Prop34
280
     0
102
RTVSPost2010PropOp34
 70
     1
102
RTVSPost2010Prop35
280
     0
102
RTVSPost2010PropOp35
 70
     1
102
RTVSPost2010Prop36
280
     0
102
RTVSPost2010PropOp36
 70
     1
102
RTVSPost2010Prop37
 90
       50
102
RTVSPost2010PropOp37
 70
     1
102
RTVSPost2010Prop38
140
0.0
102
RTVSPost2010PropOp38
 70
     1
102
RTVSPost2010Prop39
140
1.0
102
RTVSPost2010PropOp39
 70
     1
102
RTVSPost2010Prop40
 90
        0
102
RTVSPost2010PropOp40
 70
     1
102
RTVSPost2010Prop41ColorIndex
 90
       18
102
RTVSPost2010Prop41ColorRGB
 90
        0
102
RTVSPost2010PropOp41
 70
     1
102
RTVSPost2010Prop42
 90
       50
102
RTVSPost2010PropOp42
 70
     1
102
RTVSPost2010Prop43
 90
        3
102
RTVSPost2010PropOp43
 70
     1
102
RTVSPost2010Prop44ColorIndex
 90
        5
102
RTVSPost2010Prop44ColorRGB
 90
      255
102
RTVSPost2010PropOp44
 70
     1
102
RTVSPost2010Prop45
280
     0
102
RTVSPost2010PropOp45
 70
     1
102
RTVSPost2010Prop46
 90
       50
102
RTVSPost2010PropOp46
 70
     1
102
RTVSPost2010Prop47
 90
       50
102
RTVSPost2010PropOp47
 70
     1
102
RTVSPost2010Prop48
 90
       50
102
RTVSPost2010PropOp48
 70
     1
102
RTVSPost2010Prop49
280
     0
102
RTVSPost2010PropOp49
 70
     1
102
RTVSPost2010Prop50
 90
       50
102
RTVSPost2010PropOp50
 70
     1
102
RTVSPost2010Prop51ColorIndex
 90
      256
102
RTVSPost2010Prop51ColorRGB
 90
-16777216
102
RTVSPost2010PropOp51
 70
     0
102
RTVSPost2010Prop52
140
1.0
102
RTVSPost2010PropOp52
 70
     0
102
RTVSPost2010Prop53
 90
        2
102
RTVSPost2010PropOp53
 70
     1
102
RTVSPost2010Prop54
  1
strokes_ogs.tif
102
RTVSPost2010PropOp54
 70
     1
102
RTVSPost2010Prop55
280
     0
102
RTVSPost2010PropOp55
 70
     1
102
RTVSPost2010Prop56
140
1.0
102
RTVSPost2010PropOp56
 70
     1
102
RTVSPost2010Prop57
140
1.0
102
RTVSPost2010PropOp57
 70
     1
102
RTVSPropertyOp0
 70
     1
102
RTVSPropertyOp1
 70
     1
102
RTVSPropertyOp2
 70
     1
102
RTVSPropertyOp3
 70
     1
102
RTVSPropertyOp4
 70
     1
102
RTVSPropertyOp5
 70
     1
102
RTVSPropertyOp6
 70
     1
102
RTVSPropertyOp7
 70
     1
102
RTVSPropertyOp8
 70
     1
102
RTVSPropertyOp9
 70
     1
102
RTVSPropertyOp10
 70
     1
102
RTVSPropertyOp11
 70
     1
102
RTVSPropertyOp12
 70
     1
102
RTVSPropertyOp13
 70
     1
102
RTVSPropertyOp14
 70
     1
102
RTVSPropertyOp15
 70
     1
102
RTVSPropertyOp16
 70
     1
102
RTVSPropertyOp17
 70
     1
102
RTVSPropertyOp18
 70
     1
102
RTVSPropertyOp19
 70
     1
102
RTVSPropertyOp20
 70
     1
102
RTVSPropertyOp21
 70
     1
102
RTVSPropertyOp22
 70
     1
102
RTVSPropertyOp23
 70
     1
102
RTVSPropertyOp24
 70
     1
102
RTVSPropertyOp25
 70
     1
102
RTVSPropertyOp26
 70
     1
102
RTVSPropertyOp27
 70
     1
102
RTVSPropertyOp28
 70
     1
102
RTVSPropertyOp29
 70
     1
102
RTVSPropertyOp30
 70
     1
102
RTVSPropertyOp31
 70
     1
102
RTVSPropertyOp32
 70
     1
102
RTVSPropertyOp33
 70
     1
102
RTVSPropertyOp34
 70
     1
102
RTVSPropertyOp35
 70
     1
102
RTVSPropertyOp36
 70
     1
102
RTVSPropertyOp37
 70
     1
102
RTVSPropertyOp38
 70
     1
102
RTVSPropertyOp39
 70
     1
102
RTVSPropertyOp40
 70
     1
102
RTVSPropertyOp41
 70
     1
102
RTVSPropertyOp42
 70
     1
102
RTVSPropertyOp43
 70
     1
102
RTVSPropertyOp44
 70
     1
102
RTVSPropertyOp45
 70
     1
102
RTVSPropertyOp46
 70
     1
102
RTVSPropertyOp47
 70
     1
102
RTVSPropertyOp48
 70
     1
102
RTVSPropertyOp49
 70
     1
102
RTVSPropertyOp50
 70
     1
102
RTVSPropertyOp51
 70
     0
102
RTVSPropertyOp52
 70
     0
102
RTVSPropertyOp53
 70
     1
102
RTVSPropertyOp54
 70
     1
102
RTVSPropertyOp55
 70
     1
102
RTVSPropertyOp56
 70
     1
102
RTVSPropertyOp57
 70
     1
102
RTVSPropertyOp58
 70
     1
102
RTVSPropertyOp59
 70
     1
102
RTVSPropertyOp60
 70
     1
102
RTVSPropertyOp61
 70
     1
102
RTVSPropertyOp62
 70
     1
  0
XRECORD
  5
16840
102
{ACAD_REACTORS
330
1683F
102
}
330
1683F
100
AcDbXrecord
280
     1
102
RTVSPost2010Prop28
280
     0
102
RTVSPost2010PropOp28
 70
     1
102
RTVSPost2010Prop29
280
     1
102
RTVSPost2010PropOp29
 70
     1
102
RTVSPost2010Prop30
280
     1
102
RTVSPost2010PropOp30
 70
     1
102
RTVSPost2010Prop31
280
     0
102
RTVSPost2010PropOp31
 70
     1
102
RTVSPost2010Prop32
280
     0
102
RTVSPost2010PropOp32
 70
     1
102
RTVSPost2010Prop33
280
     0
102
RTVSPost2010PropOp33
 70
     1
102
RTVSPost2010Prop34
280
     0
102
RTVSPost2010PropOp34
 70
     1
102
RTVSPost2010Prop35
280
     0
102
RTVSPost2010PropOp35
 70
     1
102
RTVSPost2010Prop36
280
     0
102
RTVSPost2010PropOp36
 70
     1
102
RTVSPost2010Prop37
 90
       50
102
RTVSPost2010PropOp37
 70
     1
102
RTVSPost2010Prop38
140
0.0
102
RTVSPost2010PropOp38
 70
     1
102
RTVSPost2010Prop39
140
1.0
102
RTVSPost2010PropOp39
 70
     1
102
RTVSPost2010Prop40
 90
        0
102
RTVSPost2010PropOp40
 70
     1
102
RTVSPost2010Prop41ColorIndex
 90
       18
102
RTVSPost2010Prop41ColorRGB
 90
        0
102
RTVSPost2010PropOp41
 70
     1
102
RTVSPost2010Prop42
 90
       50
102
RTVSPost2010PropOp42
 70
     1
102
RTVSPost2010Prop43
 90
        3
102
RTVSPost2010PropOp43
 70
     1
102
RTVSPost2010Prop44ColorIndex
 90
        5
102
RTVSPost2010Prop44ColorRGB
 90
      255
102
RTVSPost2010PropOp44
 70
     1
102
RTVSPost2010Prop45
280
     0
102
RTVSPost2010PropOp45
 70
     1
102
RTVSPost2010Prop46
 90
       50
102
RTVSPost2010PropOp46
 70
     1
102
RTVSPost2010Prop47
 90
       50
102
RTVSPost2010PropOp47
 70
     1
102
RTVSPost2010Prop48
 90
       50
102
RTVSPost2010PropOp48
 70
     1
102
RTVSPost2010Prop49
280
     0
102
RTVSPost2010PropOp49
 70
     1
102
RTVSPost2010Prop50
 90
       50
102
RTVSPost2010PropOp50
 70
     1
102
RTVSPost2010Prop51ColorIndex
 90
      256
102
RTVSPost2010Prop51ColorRGB
 90
-16777216
102
RTVSPost2010PropOp51
 70
     0
102
RTVSPost2010Prop52
140
1.0
102
RTVSPost2010PropOp52
 70
     0
102
RTVSPost2010Prop53
 90
        2
102
RTVSPost2010PropOp53
 70
     1
102
RTVSPost2010Prop54
  1
strokes_ogs.tif
102
RTVSPost2010PropOp54
 70
     1
102
RTVSPost2010Prop55
280
     0
102
RTVSPost2010PropOp55
 70
     1
102
RTVSPost2010Prop56
140
1.0
102
RTVSPost2010PropOp56
 70
     1
102
RTVSPost2010Prop57
140
1.0
102
RTVSPost2010PropOp57
 70
     1
102
RTVSPropertyOp0
 70
     1
102
RTVSPropertyOp1
 70
     1
102
RTVSPropertyOp2
 70
     1
102
RTVSPropertyOp3
 70
     1
102
RTVSPropertyOp4
 70
     1
102
RTVSPropertyOp5
 70
     1
102
RTVSPropertyOp6
 70
     1
102
RTVSPropertyOp7
 70
     1
102
RTVSPropertyOp8
 70
     1
102
RTVSPropertyOp9
 70
     1
102
RTVSPropertyOp10
 70
     1
102
RTVSPropertyOp11
 70
     1
102
RTVSPropertyOp12
 70
     1
102
RTVSPropertyOp13
 70
     1
102
RTVSPropertyOp14
 70
     1
102
RTVSPropertyOp15
 70
     1
102
RTVSPropertyOp16
 70
     1
102
RTVSPropertyOp17
 70
     1
102
RTVSPropertyOp18
 70
     1
102
RTVSPropertyOp19
 70
     1
102
RTVSPropertyOp20
 70
     1
102
RTVSPropertyOp21
 70
     1
102
RTVSPropertyOp22
 70
     1
102
RTVSPropertyOp23
 70
     1
102
RTVSPropertyOp24
 70
     1
102
RTVSPropertyOp25
 70
     1
102
RTVSPropertyOp26
 70
     1
102
RTVSPropertyOp27
 70
     1
102
RTVSPropertyOp28
 70
     1
102
RTVSPropertyOp29
 70
     1
102
RTVSPropertyOp30
 70
     1
102
RTVSPropertyOp31
 70
     1
102
RTVSPropertyOp32
 70
     1
102
RTVSPropertyOp33
 70
     1
102
RTVSPropertyOp34
 70
     1
102
RTVSPropertyOp35
 70
     1
102
RTVSPropertyOp36
 70
     1
102
RTVSPropertyOp37
 70
     1
102
RTVSPropertyOp38
 70
     1
102
RTVSPropertyOp39
 70
     1
102
RTVSPropertyOp40
 70
     1
102
RTVSPropertyOp41
 70
     1
102
RTVSPropertyOp42
 70
     1
102
RTVSPropertyOp43
 70
     1
102
RTVSPropertyOp44
 70
     1
102
RTVSPropertyOp45
 70
     1
102
RTVSPropertyOp46
 70
     1
102
RTVSPropertyOp47
 70
     1
102
RTVSPropertyOp48
 70
     1
102
RTVSPropertyOp49
 70
     1
102
RTVSPropertyOp50
 70
     1
102
RTVSPropertyOp51
 70
     0
102
RTVSPropertyOp52
 70
     0
102
RTVSPropertyOp53
 70
     1
102
RTVSPropertyOp54
 70
     1
102
RTVSPropertyOp55
 70
     1
102
RTVSPropertyOp56
 70
     1
102
RTVSPropertyOp57
 70
     1
102
RTVSPropertyOp58
 70
     1
102
RTVSPropertyOp59
 70
     1
102
RTVSPropertyOp60
 70
     1
102
RTVSPropertyOp61
 70
     1
102
RTVSPropertyOp62
 70
     1
  0
XRECORD
  5
16834
102
{ACAD_REACTORS
330
16833
102
}
330
16833
100
AcDbXrecord
280
     1
102
RTVSPost2010Prop28
280
     0
102
RTVSPost2010PropOp28
 70
     1
102
RTVSPost2010Prop29
280
     1
102
RTVSPost2010PropOp29
 70
     1
102
RTVSPost2010Prop30
280
     1
102
RTVSPost2010PropOp30
 70
     1
102
RTVSPost2010Prop31
280
     0
102
RTVSPost2010PropOp31
 70
     1
102
RTVSPost2010Prop32
280
     0
102
RTVSPost2010PropOp32
 70
     1
102
RTVSPost2010Prop33
280
     0
102
RTVSPost2010PropOp33
 70
     1
102
RTVSPost2010Prop34
280
     0
102
RTVSPost2010PropOp34
 70
     1
102
RTVSPost2010Prop35
280
     0
102
RTVSPost2010PropOp35
 70
     1
102
RTVSPost2010Prop36
280
     0
102
RTVSPost2010PropOp36
 70
     1
102
RTVSPost2010Prop37
 90
       50
102
RTVSPost2010PropOp37
 70
     1
102
RTVSPost2010Prop38
140
0.0
102
RTVSPost2010PropOp38
 70
     1
102
RTVSPost2010Prop39
140
1.0
102
RTVSPost2010PropOp39
 70
     1
102
RTVSPost2010Prop40
 90
        0
102
RTVSPost2010PropOp40
 70
     1
102
RTVSPost2010Prop41ColorIndex
 90
       18
102
RTVSPost2010Prop41ColorRGB
 90
        0
102
RTVSPost2010PropOp41
 70
     1
102
RTVSPost2010Prop42
 90
       50
102
RTVSPost2010PropOp42
 70
     1
102
RTVSPost2010Prop43
 90
        3
102
RTVSPost2010PropOp43
 70
     1
102
RTVSPost2010Prop44ColorIndex
 90
        5
102
RTVSPost2010Prop44ColorRGB
 90
      255
102
RTVSPost2010PropOp44
 70
     1
102
RTVSPost2010Prop45
280
     0
102
RTVSPost2010PropOp45
 70
     1
102
RTVSPost2010Prop46
 90
       50
102
RTVSPost2010PropOp46
 70
     1
102
RTVSPost2010Prop47
 90
       50
102
RTVSPost2010PropOp47
 70
     1
102
RTVSPost2010Prop48
 90
       50
102
RTVSPost2010PropOp48
 70
     1
102
RTVSPost2010Prop49
280
     0
102
RTVSPost2010PropOp49
 70
     1
102
RTVSPost2010Prop50
 90
       50
102
RTVSPost2010PropOp50
 70
     1
102
RTVSPost2010Prop51ColorIndex
 90
      256
102
RTVSPost2010Prop51ColorRGB
 90
-16777216
102
RTVSPost2010PropOp51
 70
     0
102
RTVSPost2010Prop52
140
1.0
102
RTVSPost2010PropOp52
 70
     0
102
RTVSPost2010Prop53
 90
        2
102
RTVSPost2010PropOp53
 70
     1
102
RTVSPost2010Prop54
  1
strokes_ogs.tif
102
RTVSPost2010PropOp54
 70
     1
102
RTVSPost2010Prop55
280
     0
102
RTVSPost2010PropOp55
 70
     1
102
RTVSPost2010Prop56
140
1.0
102
RTVSPost2010PropOp56
 70
     1
102
RTVSPost2010Prop57
140
1.0
102
RTVSPost2010PropOp57
 70
     1
102
RTVSPropertyOp0
 70
     1
102
RTVSPropertyOp1
 70
     1
102
RTVSPropertyOp2
 70
     1
102
RTVSPropertyOp3
 70
     1
102
RTVSPropertyOp4
 70
     1
102
RTVSPropertyOp5
 70
     1
102
RTVSPropertyOp6
 70
     1
102
RTVSPropertyOp7
 70
     1
102
RTVSPropertyOp8
 70
     1
102
RTVSPropertyOp9
 70
     1
102
RTVSPropertyOp10
 70
     1
102
RTVSPropertyOp11
 70
     1
102
RTVSPropertyOp12
 70
     1
102
RTVSPropertyOp13
 70
     1
102
RTVSPropertyOp14
 70
     1
102
RTVSPropertyOp15
 70
     1
102
RTVSPropertyOp16
 70
     1
102
RTVSPropertyOp17
 70
     1
102
RTVSPropertyOp18
 70
     1
102
RTVSPropertyOp19
 70
     1
102
RTVSPropertyOp20
 70
     1
102
RTVSPropertyOp21
 70
     1
102
RTVSPropertyOp22
 70
     1
102
RTVSPropertyOp23
 70
     1
102
RTVSPropertyOp24
 70
     1
102
RTVSPropertyOp25
 70
     1
102
RTVSPropertyOp26
 70
     1
102
RTVSPropertyOp27
 70
     1
102
RTVSPropertyOp28
 70
     1
102
RTVSPropertyOp29
 70
     1
102
RTVSPropertyOp30
 70
     1
102
RTVSPropertyOp31
 70
     1
102
RTVSPropertyOp32
 70
     1
102
RTVSPropertyOp33
 70
     1
102
RTVSPropertyOp34
 70
     1
102
RTVSPropertyOp35
 70
     1
102
RTVSPropertyOp36
 70
     1
102
RTVSPropertyOp37
 70
     1
102
RTVSPropertyOp38
 70
     1
102
RTVSPropertyOp39
 70
     1
102
RTVSPropertyOp40
 70
     1
102
RTVSPropertyOp41
 70
     1
102
RTVSPropertyOp42
 70
     1
102
RTVSPropertyOp43
 70
     1
102
RTVSPropertyOp44
 70
     1
102
RTVSPropertyOp45
 70
     1
102
RTVSPropertyOp46
 70
     1
102
RTVSPropertyOp47
 70
     1
102
RTVSPropertyOp48
 70
     1
102
RTVSPropertyOp49
 70
     1
102
RTVSPropertyOp50
 70
     1
102
RTVSPropertyOp51
 70
     0
102
RTVSPropertyOp52
 70
     0
102
RTVSPropertyOp53
 70
     1
102
RTVSPropertyOp54
 70
     1
102
RTVSPropertyOp55
 70
     1
102
RTVSPropertyOp56
 70
     1
102
RTVSPropertyOp57
 70
     1
102
RTVSPropertyOp58
 70
     1
102
RTVSPropertyOp59
 70
     1
102
RTVSPropertyOp60
 70
     1
102
RTVSPropertyOp61
 70
     1
102
RTVSPropertyOp62
 70
     1
  0
XRECORD
  5
1684C
102
{ACAD_REACTORS
330
1684B
102
}
330
1684B
100
AcDbXrecord
280
     1
102
RTVSPost2010Prop28
280
     0
102
RTVSPost2010PropOp28
 70
     1
102
RTVSPost2010Prop29
280
     1
102
RTVSPost2010PropOp29
 70
     1
102
RTVSPost2010Prop30
280
     1
102
RTVSPost2010PropOp30
 70
     1
102
RTVSPost2010Prop31
280
     0
102
RTVSPost2010PropOp31
 70
     1
102
RTVSPost2010Prop32
280
     0
102
RTVSPost2010PropOp32
 70
     1
102
RTVSPost2010Prop33
280
     0
102
RTVSPost2010PropOp33
 70
     1
102
RTVSPost2010Prop34
280
     0
102
RTVSPost2010PropOp34
 70
     1
102
RTVSPost2010Prop35
280
     0
102
RTVSPost2010PropOp35
 70
     1
102
RTVSPost2010Prop36
280
     0
102
RTVSPost2010PropOp36
 70
     1
102
RTVSPost2010Prop37
 90
       50
102
RTVSPost2010PropOp37
 70
     1
102
RTVSPost2010Prop38
140
0.0
102
RTVSPost2010PropOp38
 70
     1
102
RTVSPost2010Prop39
140
1.0
102
RTVSPost2010PropOp39
 70
     1
102
RTVSPost2010Prop40
 90
        0
102
RTVSPost2010PropOp40
 70
     1
102
RTVSPost2010Prop41ColorIndex
 90
       18
102
RTVSPost2010Prop41ColorRGB
 90
        0
102
RTVSPost2010PropOp41
 70
     1
102
RTVSPost2010Prop42
 90
       50
102
RTVSPost2010PropOp42
 70
     1
102
RTVSPost2010Prop43
 90
        3
102
RTVSPost2010PropOp43
 70
     1
102
RTVSPost2010Prop44ColorIndex
 90
        5
102
RTVSPost2010Prop44ColorRGB
 90
      255
102
RTVSPost2010PropOp44
 70
     1
102
RTVSPost2010Prop45
280
     0
102
RTVSPost2010PropOp45
 70
     1
102
RTVSPost2010Prop46
 90
       50
102
RTVSPost2010PropOp46
 70
     1
102
RTVSPost2010Prop47
 90
       50
102
RTVSPost2010PropOp47
 70
     1
102
RTVSPost2010Prop48
 90
       50
102
RTVSPost2010PropOp48
 70
     1
102
RTVSPost2010Prop49
280
     0
102
RTVSPost2010PropOp49
 70
     1
102
RTVSPost2010Prop50
 90
       50
102
RTVSPost2010PropOp50
 70
     1
102
RTVSPost2010Prop51ColorIndex
 90
      256
102
RTVSPost2010Prop51ColorRGB
 90
-16777216
102
RTVSPost2010PropOp51
 70
     0
102
RTVSPost2010Prop52
140
1.0
102
RTVSPost2010PropOp52
 70
     0
102
RTVSPost2010Prop53
 90
        2
102
RTVSPost2010PropOp53
 70
     1
102
RTVSPost2010Prop54
  1
strokes_ogs.tif
102
RTVSPost2010PropOp54
 70
     1
102
RTVSPost2010Prop55
280
     0
102
RTVSPost2010PropOp55
 70
     1
102
RTVSPost2010Prop56
140
1.0
102
RTVSPost2010PropOp56
 70
     1
102
RTVSPost2010Prop57
140
1.0
102
RTVSPost2010PropOp57
 70
     1
102
RTVSPropertyOp0
 70
     1
102
RTVSPropertyOp1
 70
     1
102
RTVSPropertyOp2
 70
     1
102
RTVSPropertyOp3
 70
     1
102
RTVSPropertyOp4
 70
     1
102
RTVSPropertyOp5
 70
     1
102
RTVSPropertyOp6
 70
     1
102
RTVSPropertyOp7
 70
     1
102
RTVSPropertyOp8
 70
     1
102
RTVSPropertyOp9
 70
     1
102
RTVSPropertyOp10
 70
     1
102
RTVSPropertyOp11
 70
     1
102
RTVSPropertyOp12
 70
     1
102
RTVSPropertyOp13
 70
     1
102
RTVSPropertyOp14
 70
     1
102
RTVSPropertyOp15
 70
     1
102
RTVSPropertyOp16
 70
     1
102
RTVSPropertyOp17
 70
     1
102
RTVSPropertyOp18
 70
     1
102
RTVSPropertyOp19
 70
     1
102
RTVSPropertyOp20
 70
     1
102
RTVSPropertyOp21
 70
     1
102
RTVSPropertyOp22
 70
     1
102
RTVSPropertyOp23
 70
     1
102
RTVSPropertyOp24
 70
     1
102
RTVSPropertyOp25
 70
     1
102
RTVSPropertyOp26
 70
     1
102
RTVSPropertyOp27
 70
     1
102
RTVSPropertyOp28
 70
     1
102
RTVSPropertyOp29
 70
     1
102
RTVSPropertyOp30
 70
     1
102
RTVSPropertyOp31
 70
     1
102
RTVSPropertyOp32
 70
     1
102
RTVSPropertyOp33
 70
     1
102
RTVSPropertyOp34
 70
     1
102
RTVSPropertyOp35
 70
     1
102
RTVSPropertyOp36
 70
     1
102
RTVSPropertyOp37
 70
     1
102
RTVSPropertyOp38
 70
     1
102
RTVSPropertyOp39
 70
     1
102
RTVSPropertyOp40
 70
     1
102
RTVSPropertyOp41
 70
     1
102
RTVSPropertyOp42
 70
     1
102
RTVSPropertyOp43
 70
     1
102
RTVSPropertyOp44
 70
     1
102
RTVSPropertyOp45
 70
     1
102
RTVSPropertyOp46
 70
     1
102
RTVSPropertyOp47
 70
     1
102
RTVSPropertyOp48
 70
     1
102
RTVSPropertyOp49
 70
     1
102
RTVSPropertyOp50
 70
     1
102
RTVSPropertyOp51
 70
     0
102
RTVSPropertyOp52
 70
     0
102
RTVSPropertyOp53
 70
     1
102
RTVSPropertyOp54
 70
     1
102
RTVSPropertyOp55
 70
     1
102
RTVSPropertyOp56
 70
     1
102
RTVSPropertyOp57
 70
     1
102
RTVSPropertyOp58
 70
     1
102
RTVSPropertyOp59
 70
     1
102
RTVSPropertyOp60
 70
     1
102
RTVSPropertyOp61
 70
     1
102
RTVSPropertyOp62
 70
     1
  0
ENDSEC
  0
EOF
