  0
SECTION
  2
HEADER
  9
$ACADVER
  1
AC1015
  9
$ACADMAINTVER
 70
    20
  9
$DWGCODEPAGE
  3
ANSI_932
  9
$INSBASE
 10
0.0
 20
0.0
 30
0.0
  9
$EXTMIN
 10
139.8427842704986
 20
-0.264306497767393
 30
-0.0000000000000053
  9
$EXTMAX
 10
16307.98708817691
 20
11409.90526204624
 30
0.0000000000000099
  9
$LIMMIN
 10
-25.79074261211281
 20
-125.8223078213959
  9
$LIMMAX
 10
16471.10331197129
 20
11496.44801950658
  9
$ORTHOMODE
 70
     0
  9
$REGENMODE
 70
     1
  9
$FILLMODE
 70
     1
  9
$QTEXTMODE
 70
     0
  9
$MIRRTEXT
 70
     1
  9
$LTSCALE
 40
20.0
  9
$ATTMODE
 70
     1
  9
$TEXTSIZE
 40
100.0
  9
$TRACEWID
 40
1.0
  9
$TEXTSTYLE
  7
STYLE3
  9
$CLAYER
  8
寸法
  9
$CELTYPE
  6
BYLAYER
  9
$CECOLOR
 62
   256
  9
$CELTSCALE
 40
50.0
  9
$DISPSILH
 70
     0
  9
$DIMSCALE
 40
40.0
  9
$DIMASZ
 40
2.5
  9
$DIMEXO
 40
0.5
  9
$DIMDLI
 40
7.0
  9
$DIMRND
 40
0.0
  9
$DIMDLE
 40
0.0
  9
$DIMEXE
 40
1.5
  9
$DIMTP
 40
0.0
  9
$DIMTM
 40
0.0
  9
$DIMTXT
 40
3.0
  9
$DIMCEN
 40
0.0
  9
$DIMTSZ
 40
0.0
  9
$DIMTOL
 70
     0
  9
$DIMLIM
 70
     0
  9
$DIMTIH
 70
     0
  9
$DIMTOH
 70
     0
  9
$DIMSE1
 70
     0
  9
$DIMSE2
 70
     0
  9
$DIMTAD
 70
     3
  9
$DIMZIN
 70
     8
  9
$DIMBLK
  1

  9
$DIMASO
 70
     1
  9
$DIMSHO
 70
     1
  9
$DIMPOST
  1

  9
$DIMAPOST
  1

  9
$DIMALT
 70
     0
  9
$DIMALTD
 70
     2
  9
$DIMALTF
 40
0.0394
  9
$DIMLFAC
 40
1.0
  9
$DIMTOFL
 70
     1
  9
$DIMTVP
 40
0.0
  9
$DIMTIX
 70
     1
  9
$DIMSOXD
 70
     0
  9
$DIMSAH
 70
     1
  9
$DIMBLK1
  1
DOTSMALL
  9
$DIMBLK2
  1
DOTSMALL
  9
$DIMSTYLE
  2
INABA_S40G
  9
$DIMCLRD
 70
     0
  9
$DIMCLRE
 70
     0
  9
$DIMCLRT
 70
     7
  9
$DIMTFAC
 40
1.0
  9
$DIMGAP
 40
1.0
  9
$DIMJUST
 70
     0
  9
$DIMSD1
 70
     0
  9
$DIMSD2
 70
     0
  9
$DIMTOLJ
 70
     1
  9
$DIMTZIN
 70
     0
  9
$DIMALTZ
 70
     0
  9
$DIMALTTZ
 70
     0
  9
$DIMUPT
 70
     0
  9
$DIMDEC
 70
     1
  9
$DIMTDEC
 70
     4
  9
$DIMALTU
 70
     2
  9
$DIMALTTD
 70
     2
  9
$DIMTXSTY
  7
STYLE1
  9
$DIMAUNIT
 70
     0
  9
$DIMADEC
 70
     0
  9
$DIMALTRND
 40
0.0
  9
$DIMAZIN
 70
     0
  9
$DIMDSEP
 70
    46
  9
$DIMATFIT
 70
     3
  9
$DIMFRAC
 70
     0
  9
$DIMLDRBLK
  1

  9
$DIMLUNIT
 70
     2
  9
$DIMLWD
 70
    -2
  9
$DIMLWE
 70
    -2
  9
$DIMTMOVE
 70
     0
  9
$LUNITS
 70
     2
  9
$LUPREC
 70
     1
  9
$SKETCHINC
 40
1.0
  9
$FILLETRAD
 40
5.0
  9
$AUNITS
 70
     0
  9
$AUPREC
 70
     0
  9
$MENU
  1
acad
  9
$ELEVATION
 40
0.0
  9
$PELEVATION
 40
0.0
  9
$THICKNESS
 40
0.0
  9
$LIMCHECK
 70
     0
  9
$CHAMFERA
 40
0.0
  9
$CHAMFERB
 40
0.0
  9
$CHAMFERC
 40
0.0
  9
$CHAMFERD
 40
0.0
  9
$SKPOLY
 70
     0
  9
$TDCREATE
 40
2452116.684896065
  9
$TDUCREATE
 40
2452116.309896065
  9
$TDUPDATE
 40
2457984.441315162
  9
$TDUUPDATE
 40
2457984.066315162
  9
$TDINDWG
 40
0.5303509259
  9
$TDUSRTIMER
 40
0.5303509259
  9
$USRTIMER
 70
     1
  9
$ANGBASE
 50
0.0
  9
$ANGDIR
 70
     0
  9
$PDMODE
 70
     3
  9
$PDSIZE
 40
2.0
  9
$PLINEWID
 40
0.0
  9
$SPLFRAME
 70
     0
  9
$SPLINETYPE
 70
     6
  9
$SPLINESEGS
 70
     8
  9
$HANDSEED
  5
17F7A
  9
$SURFTAB1
 70
     6
  9
$SURFTAB2
 70
     6
  9
$SURFTYPE
 70
     6
  9
$SURFU
 70
     6
  9
$SURFV
 70
     6
  9
$UCSBASE
  2

  9
$UCSNAME
  2

  9
$UCSORG
 10
0.0
 20
0.0
 30
0.0
  9
$UCSXDIR
 10
1.0
 20
0.0
 30
0.0
  9
$UCSYDIR
 10
0.0
 20
1.0
 30
0.0
  9
$UCSORTHOREF
  2

  9
$UCSORTHOVIEW
 70
     0
  9
$UCSORGTOP
 10
0.0
 20
0.0
 30
0.0
  9
$UCSORGBOTTOM
 10
0.0
 20
0.0
 30
0.0
  9
$UCSORGLEFT
 10
0.0
 20
0.0
 30
0.0
  9
$UCSORGRIGHT
 10
0.0
 20
0.0
 30
0.0
  9
$UCSORGFRONT
 10
0.0
 20
0.0
 30
0.0
  9
$UCSORGBACK
 10
0.0
 20
0.0
 30
0.0
  9
$PUCSBASE
  2

  9
$PUCSNAME
  2

  9
$PUCSORG
 10
0.0
 20
0.0
 30
0.0
  9
$PUCSXDIR
 10
1.0
 20
0.0
 30
0.0
  9
$PUCSYDIR
 10
0.0
 20
1.0
 30
0.0
  9
$PUCSORTHOREF
  2

  9
$PUCSORTHOVIEW
 70
     0
  9
$PUCSORGTOP
 10
0.0
 20
0.0
 30
0.0
  9
$PUCSORGBOTTOM
 10
0.0
 20
0.0
 30
0.0
  9
$PUCSORGLEFT
 10
0.0
 20
0.0
 30
0.0
  9
$PUCSORGRIGHT
 10
0.0
 20
0.0
 30
0.0
  9
$PUCSORGFRONT
 10
0.0
 20
0.0
 30
0.0
  9
$PUCSORGBACK
 10
0.0
 20
0.0
 30
0.0
  9
$USERI1
 70
     0
  9
$USERI2
 70
     0
  9
$USERI3
 70
     0
  9
$USERI4
 70
     0
  9
$USERI5
 70
     0
  9
$USERR1
 40
0.0
  9
$USERR2
 40
0.0
  9
$USERR3
 40
0.0
  9
$USERR4
 40
0.0
  9
$USERR5
 40
0.0
  9
$WORLDVIEW
 70
     1
  9
$SHADEDGE
 70
     3
  9
$SHADEDIF
 70
    70
  9
$TILEMODE
 70
     1
  9
$MAXACTVP
 70
    16
  9
$PINSBASE
 10
0.0
 20
0.0
 30
0.0
  9
$PLIMCHECK
 70
     0
  9
$PEXTMIN
 10
1.000000000000000E+20
 20
1.000000000000000E+20
 30
1.000000000000000E+20
  9
$PEXTMAX
 10
-1.000000000000000E+20
 20
-1.000000000000000E+20
 30
-1.000000000000000E+20
  9
$PLIMMIN
 10
0.0
 20
0.0
  9
$PLIMMAX
 10
420.0
 20
297.0
  9
$UNITMODE
 70
     0
  9
$VISRETAIN
 70
     0
  9
$PLINEGEN
 70
     0
  9
$PSLTSCALE
 70
     0
  9
$TREEDEPTH
 70
  3020
  9
$CMLSTYLE
  2
STANDARD
  9
$CMLJUST
 70
     0
  9
$CMLSCALE
 40
1.0
  9
$PROXYGRAPHICS
 70
     1
  9
$MEASUREMENT
 70
     1
  9
$CELWEIGHT
370
    -1
  9
$ENDCAPS
280
     0
  9
$JOINSTYLE
280
     0
  9
$LWDISPLAY
290
     0
  9
$INSUNITS
 70
     0
  9
$HYPERLINKBASE
  1

  9
$STYLESHEET
  1
inabass.ctb
  9
$XEDIT
290
     1
  9
$CEPSNTYPE
380
     0
  9
$PSTYLEMODE
290
     1
  9
$FINGERPRINTGUID
  2
{AE2ADF1E-CF9A-4974-B35A-E143B020C9F5}
  9
$VERSIONGUID
  2
{C4C708FE-781D-41A2-BD68-5C5FB9CE27BB}
  9
$EXTNAMES
290
     1
  9
$PSVPSCALE
 40
0.0
  9
$OLESTARTUP
290
     0
  0
ENDSEC
  0
SECTION
  2
CLASSES
  0
CLASS
  1
ACDBDICTIONARYWDFLT
  2
AcDbDictionaryWithDefault
  3
ObjectDBX Classes
 90
        0
280
     0
281
     0
  0
CLASS
  1
MATERIAL
  2
AcDbMaterial
  3
ObjectDBX Classes
 90
     1153
280
     0
281
     0
  0
CLASS
  1
VISUALSTYLE
  2
AcDbVisualStyle
  3
ObjectDBX Classes
 90
     4095
280
     0
281
     0
  0
CLASS
  1
TABLESTYLE
  2
AcDbTableStyle
  3
ObjectDBX Classes
 90
     4095
280
     0
281
     0
  0
CLASS
  1
SCALE
  2
AcDbScale
  3
ObjectDBX Classes
 90
     1153
280
     0
281
     0
  0
CLASS
  1
MLEADERSTYLE
  2
AcDbMLeaderStyle
  3
ACDB_MLEADERSTYLE_CLASS
 90
     4095
280
     0
281
     0
  0
CLASS
  1
ACDBSECTIONVIEWSTYLE
  2
AcDbSectionViewStyle
  3
ObjectDBX Classes
 90
     1025
280
     0
281
     0
  0
CLASS
  1
ACDBDETAILVIEWSTYLE
  2
AcDbDetailViewStyle
  3
ObjectDBX Classes
 90
     1025
280
     0
281
     0
  0
CLASS
  1
SORTENTSTABLE
  2
AcDbSortentsTable
  3
ObjectDBX Classes
 90
        0
280
     0
281
     0
  0
CLASS
  1
DICTIONARYVAR
  2
AcDbDictionaryVar
  3
ObjectDBX Classes
 90
        0
280
     0
281
     0
  0
CLASS
  1
CELLSTYLEMAP
  2
AcDbCellStyleMap
  3
ObjectDBX Classes
 90
     1152
280
     0
281
     0
  0
CLASS
  1
ACDBPLACEHOLDER
  2
AcDbPlaceHolder
  3
ObjectDBX Classes
 90
        0
280
     0
281
     0
  0
CLASS
  1
LAYOUT
  2
AcDbLayout
  3
ObjectDBX Classes
 90
        0
280
     0
281
     0
  0
ENDSEC
  0
SECTION
  2
TABLES
  0
TABLE
  2
VPORT
  5
746D
330
0
100
AcDbSymbolTable
 70
     1
  0
VPORT
  5
17C7A
330
746D
100
AcDbSymbolTableRecord
100
AcDbViewportTableRecord
  2
*Active
 70
     0
 10
0.0
 20
0.0
 11
1.0
 21
1.0
 12
8222.656284679592
 22
5685.312855842594
 13
0.0
 23
0.0
 14
10.0
 24
10.0
 15
10.0
 25
10.0
 16
0.0
 26
0.0
 36
1.0
 17
0.0
 27
0.0
 37
0.0
 40
11713.55108077679
 41
1.646596858638743
 42
50.0
 43
0.0
 44
0.0
 50
0.0
 51
0.0
 71
     0
 72
     0
 73
     1
 74
     0
 75
     0
 76
     0
 77
     0
 78
     0
281
     0
 65
     1
110
0.0
120
0.0
130
0.0
111
1.0
121
0.0
131
0.0
112
0.0
122
1.0
132
0.0
 79
     0
146
0.0
1001
ACAD_NAV_VCDISPLAY
1070
     3
  0
ENDTAB
  0
TABLE
  2
LTYPE
  5
746A
330
0
100
AcDbSymbolTable
 70
     4
  0
LTYPE
  5
7477
330
746A
100
AcDbSymbolTableRecord
100
AcDbLinetypeTableRecord
  2
BYBLOCK
 70
     0
  3

 72
    65
 73
     0
 40
0.0
  0
LTYPE
  5
7478
330
746A
100
AcDbSymbolTableRecord
100
AcDbLinetypeTableRecord
  2
BYLAYER
 70
     0
  3

 72
    65
 73
     0
 40
0.0
  0
LTYPE
  5
7479
330
746A
100
AcDbSymbolTableRecord
100
AcDbLinetypeTableRecord
  2
CONTINUOUS
 70
     0
  3
Solid line
 72
    65
 73
     0
 40
0.0
  0
LTYPE
  5
7816
330
746A
100
AcDbSymbolTableRecord
100
AcDbLinetypeTableRecord
  2
CENTER
 70
     0
  3
____ _ ____ _ ____ _ ____ _ ____ _ ____ _ ____ 
 72
    65
 73
     4
 40
2.0
 49
1.25
 74
     0
 49
-0.25
 74
     0
 49
0.25
 74
     0
 49
-0.25
 74
     0
  0
LTYPE
  5
781A
330
746A
100
AcDbSymbolTableRecord
100
AcDbLinetypeTableRecord
  2
HIDDEN
 70
     0
  3
__ __ __ __ __ __ __ __ __ __ __ __ __ __ __ __
 72
    65
 73
     2
 40
0.375
 49
0.25
 74
     0
 49
-0.125
 74
     0
  0
LTYPE
  5
781B
330
746A
100
AcDbSymbolTableRecord
100
AcDbLinetypeTableRecord
  2
PHANTOM
 70
     0
  3
______  __  __  ______  __  __  ______  __  __ 
 72
    65
 73
     6
 40
2.5
 49
1.25
 74
     0
 49
-0.25
 74
     0
 49
0.25
 74
     0
 49
-0.25
 74
     0
 49
0.25
 74
     0
 49
-0.25
 74
     0
  0
ENDTAB
  0
TABLE
  2
LAYER
  5
7467
102
{ACAD_XDICTIONARY
360
15EBF
102
}
330
0
100
AcDbSymbolTable
 70
    14
  0
LAYER
  5
7474
102
{ACAD_XDICTIONARY
360
17E7A
102
}
330
7467
100
AcDbSymbolTableRecord
100
AcDbLayerTableRecord
  2
0
 70
     0
 62
     7
  6
CONTINUOUS
370
    -3
390
15D41
  0
LAYER
  5
DEB2
102
{ACAD_XDICTIONARY
360
17E7C
102
}
330
7467
100
AcDbSymbolTableRecord
100
AcDbLayerTableRecord
  2
センター
 70
     0
 62
     3
  6
CENTER
370
    -3
390
15D41
  0
LAYER
  5
DEB3
102
{ACAD_XDICTIONARY
360
17E7E
102
}
330
7467
100
AcDbSymbolTableRecord
100
AcDbLayerTableRecord
  2
寸法
 70
     0
 62
     4
  6
CONTINUOUS
370
    -3
390
15D41
  0
LAYER
  5
DEB4
102
{ACAD_XDICTIONARY
360
17E80
102
}
330
7467
100
AcDbSymbolTableRecord
100
AcDbLayerTableRecord
  2
部品1
 70
     0
 62
     7
  6
CONTINUOUS
370
    -3
390
15D41
  0
LAYER
  5
DEB5
102
{ACAD_XDICTIONARY
360
17E82
102
}
330
7467
100
AcDbSymbolTableRecord
100
AcDbLayerTableRecord
  2
補助
 70
     0
 62
    -1
  6
CONTINUOUS
370
    -3
390
15D41
  0
LAYER
  5
DEB6
102
{ACAD_XDICTIONARY
360
17E84
102
}
330
7467
100
AcDbSymbolTableRecord
100
AcDbLayerTableRecord
  2
文字
 70
     0
 62
     7
  6
CONTINUOUS
370
    -3
390
15D41
  0
LAYER
  5
F255
330
7467
100
AcDbSymbolTableRecord
100
AcDbLayerTableRecord
  2
DEFPOINTS
 70
     0
 62
     7
  6
CONTINUOUS
290
     0
370
    -3
390
15D41
  0
LAYER
  5
10B54
102
{ACAD_XDICTIONARY
360
17E86
102
}
330
7467
100
AcDbSymbolTableRecord
100
AcDbLayerTableRecord
  2
仕様書枠
 70
     0
 62
   230
  6
CONTINUOUS
370
    -3
390
15D41
  0
LAYER
  5
11729
102
{ACAD_XDICTIONARY
360
17E88
102
}
330
7467
100
AcDbSymbolTableRecord
100
AcDbLayerTableRecord
  2
Ｇ．Ｌ
 70
     0
 62
    30
  6
CONTINUOUS
370
    -3
390
15D41
  0
LAYER
  5
1173F
102
{ACAD_XDICTIONARY
360
17E8A
102
}
330
7467
100
AcDbSymbolTableRecord
100
AcDbLayerTableRecord
  2
細線
 70
     0
 62
     5
  6
CONTINUOUS
370
    -3
390
15D41
  0
LAYER
  5
11740
102
{ACAD_XDICTIONARY
360
17E8C
102
}
330
7467
100
AcDbSymbolTableRecord
100
AcDbLayerTableRecord
  2
点線
 70
     0
 62
     2
  6
HIDDEN
370
    -3
390
15D41
  0
LAYER
  5
118A1
102
{ACAD_XDICTIONARY
360
17E8E
102
}
330
7467
100
AcDbSymbolTableRecord
100
AcDbLayerTableRecord
  2
想像線
 70
     0
 62
     6
  6
PHANTOM
370
    -3
390
15D41
  0
LAYER
  5
123C1
102
{ACAD_XDICTIONARY
360
17E90
102
}
330
7467
100
AcDbSymbolTableRecord
100
AcDbLayerTableRecord
  2
破線
 70
     0
 62
     2
  6
HIDDEN
370
    -3
390
15D41
  0
LAYER
  5
17EE7
102
{ACAD_XDICTIONARY
360
17EE8
102
}
330
7467
100
AcDbSymbolTableRecord
100
AcDbLayerTableRecord
  2
部品
 70
     0
 62
     7
  6
CONTINUOUS
370
    -3
390
15D41
  0
ENDTAB
  0
TABLE
  2
STYLE
  5
7468
330
0
100
AcDbSymbolTable
 70
     5
  0
STYLE
  5
7475
330
7468
100
AcDbSymbolTableRecord
100
AcDbTextStyleTableRecord
  2
STANDARD
 70
     0
 40
0.0
 41
1.0
 50
0.0
 71
     0
 42
4.0
  3
txt
  4
C:\AutoCAD LT\bigfont.shx
  0
STYLE
  5
F706
330
7468
100
AcDbSymbolTableRecord
100
AcDbTextStyleTableRecord
  2
STYLE1
 70
     0
 40
0.0
 41
1.0
 50
0.0
 71
     0
 42
4.0
  3
isocp.shx
  4
bigfont.shx
  0
STYLE
  5
103BF
330
7468
100
AcDbSymbolTableRecord
100
AcDbTextStyleTableRecord
  2
STYLE2
 70
     0
 40
0.0
 41
1.0
 50
0.0
 71
     0
 42
100.0
  3
MS PGothic.ttf
  4

1001
ACAD
1000
MS PGothic
1071
    32818
  0
STYLE
  5
10BAA
330
7468
100
AcDbSymbolTableRecord
100
AcDbTextStyleTableRecord
  2
STYLE3
 70
     0
 40
0.0
 41
1.0
 50
0.0
 71
     0
 42
100.0
  3
DFPGothic-EB.ttf
  4

1001
ACAD
1000
DFPGothic-EB
1071
    32818
  0
ENDTAB
  0
TABLE
  2
VIEW
  5
746B
330
0
100
AcDbSymbolTable
 70
     0
  0
ENDTAB
  0
TABLE
  2
UCS
  5
746C
330
0
100
AcDbSymbolTable
 70
     0
  0
ENDTAB
  0
TABLE
  2
APPID
  5
746E
330
0
100
AcDbSymbolTable
 70
    10
  0
APPID
  5
7476
330
746E
100
AcDbSymbolTableRecord
100
AcDbRegAppTableRecord
  2
ACAD
 70
     0
  0
APPID
  5
DEA9
330
746E
100
AcDbSymbolTableRecord
100
AcDbRegAppTableRecord
  2
CONTENTBLOCKICON
 70
     0
  0
APPID
  5
DEAA
330
746E
100
AcDbSymbolTableRecord
100
AcDbRegAppTableRecord
  2
CONTENTBLOCKDESCRIPTION
 70
     0
  0
APPID
  5
E71D
330
746E
100
AcDbSymbolTableRecord
100
AcDbRegAppTableRecord
  2
CONTENTTABDATA
 70
     0
  0
APPID
  5
E71E
330
746E
100
AcDbSymbolTableRecord
100
AcDbRegAppTableRecord
  2
CONTENTCURRENTTAB
 70
     0
  0
APPID
  5
F3BA
330
746E
100
AcDbSymbolTableRecord
100
AcDbRegAppTableRecord
  2
DRAWINGVARIABLESXDATA
 70
     0
  0
APPID
  5
17CD1
330
746E
100
AcDbSymbolTableRecord
100
AcDbRegAppTableRecord
  2
ACAD_NAV_VCDISPLAY
 70
     0
  0
APPID
  5
17E58
330
746E
100
AcDbSymbolTableRecord
100
AcDbRegAppTableRecord
  2
ACAD_EXEMPT_FROM_CAD_STANDARDS
 70
     0
  0
APPID
  5
17EC7
330
746E
100
AcDbSymbolTableRecord
100
AcDbRegAppTableRecord
  2
ACAD_PSEXT
 70
     0
  0
APPID
  5
17F75
330
746E
100
AcDbSymbolTableRecord
100
AcDbRegAppTableRecord
  2
ACAD_MLEADERVER
 70
     0
  0
ENDTAB
  0
TABLE
  2
DIMSTYLE
  5
746F
330
0
100
AcDbSymbolTable
 70
     4
100
AcDbDimStyleTable
 71
     1
340
F71F
  0
DIMSTYLE
105
7484
330
746F
100
AcDbSymbolTableRecord
100
AcDbDimStyleTableRecord
  2
JIS
 70
     0
 41
2.5
 42
1.0
 43
7.0
 44
1.0
 73
     0
 74
     0
 77
     1
 78
     8
140
2.5
141
0.0
143
0.0394
147
0.0
172
     1
174
     1
175
     1
340
7475
  0
DIMSTYLE
105
F71F
102
{ACAD_REACTORS
330
15673
330
1567B
330
1567C
330
1567D
330
15694
330
15695
330
15696
330
15697
330
15698
330
15699
330
1569A
330
1569B
330
1569C
330
156E2
330
156E9
330
1572B
330
15CD9
330
15CF1
330
15D24
330
15D31
330
1709E
330
1709D
330
1709C
330
170F0
330
179CE
330
179CF
330
179D0
330
179D1
330
179D2
330
179F0
330
1796F
330
17EF6
102
}
330
746F
100
AcDbSymbolTableRecord
100
AcDbDimStyleTableRecord
  2
INABA_S40G
 70
     0
 40
40.0
 41
2.5
 42
0.5
 43
7.0
 44
1.5
 73
     0
 74
     0
 77
     3
 78
     8
140
3.0
141
0.0
143
0.0394
147
1.0
172
     1
173
     1
174
     1
178
     7
271
     1
340
F706
341
F770
343
F770
344
F770
  0
DIMSTYLE
105
15EBE
102
{ACAD_REACTORS
330
179B9
102
}
330
746F
100
AcDbSymbolTableRecord
100
AcDbDimStyleTableRecord
  2
INABA_S40
 70
     0
 40
40.0
 41
2.5
 42
0.5
 43
7.0
 44
1.5
 73
     0
 74
     0
 77
     3
 78
     8
140
3.0
141
0.0
143
0.0394
147
1.0
172
     1
173
     1
174
     1
175
     1
178
     7
289
     0
340
7475
341
15E19
343
15E19
344
15E19
  0
ENDTAB
  0
TABLE
  2
BLOCK_RECORD
  5
7466
330
0
100
AcDbSymbolTable
 70
    40
  0
BLOCK_RECORD
  5
747D
330
7466
100
AcDbSymbolTableRecord
100
AcDbBlockTableRecord
  2
*MODEL_SPACE
340
15D46
  0
BLOCK_RECORD
  5
747A
330
7466
100
AcDbSymbolTableRecord
100
AcDbBlockTableRecord
  2
*PAPER_SPACE
340
15D47
  0
BLOCK_RECORD
  5
F770
330
7466
100
AcDbSymbolTableRecord
100
AcDbBlockTableRecord
  2
_DOTSMALL
340
0
102
{BLKREFS
331
17F0C
331
17F0D
331
17308
331
17309
331
17313
331
17314
331
1731C
331
1731D
331
17325
331
17326
331
1737C
331
1737D
331
17385
331
17386
331
1738E
331
1738F
331
17397
331
17398
331
173A0
331
173A1
331
173A9
331
173AA
331
173B2
331
173B3
331
173BB
331
173BC
331
173C4
331
173C5
331
173CF
331
173D0
331
173DA
331
173DB
331
173E3
331
173E4
331
173EE
331
173EF
331
173F9
331
173FA
331
17404
331
17405
331
1740D
331
1740E
331
17418
331
17419
331
17421
331
17422
331
1742A
331
1742B
331
17433
331
17434
331
17BD0
331
17BD1
331
17BDA
331
17BDB
331
17BE5
331
17BE6
331
17BEE
331
17BEF
331
17BF7
331
17BF8
331
17C01
331
17C02
331
17C1E
331
17C1F
102
}
  0
BLOCK_RECORD
  5
1589B
330
7466
100
AcDbSymbolTableRecord
100
AcDbBlockTableRecord
  2
*D1
340
0
  0
BLOCK_RECORD
  5
158B3
330
7466
100
AcDbSymbolTableRecord
100
AcDbBlockTableRecord
  2
*D2
340
0
  0
BLOCK_RECORD
  5
158BF
330
7466
100
AcDbSymbolTableRecord
100
AcDbBlockTableRecord
  2
*D3
340
0
  0
BLOCK_RECORD
  5
158CB
330
7466
100
AcDbSymbolTableRecord
100
AcDbBlockTableRecord
  2
*D4
340
0
  0
BLOCK_RECORD
  5
158D9
330
7466
100
AcDbSymbolTableRecord
100
AcDbBlockTableRecord
  2
*D5
340
0
  0
BLOCK_RECORD
  5
158E5
330
7466
100
AcDbSymbolTableRecord
100
AcDbBlockTableRecord
  2
*D6
340
0
  0
BLOCK_RECORD
  5
158F3
330
7466
100
AcDbSymbolTableRecord
100
AcDbBlockTableRecord
  2
*D7
340
0
  0
BLOCK_RECORD
  5
15901
330
7466
100
AcDbSymbolTableRecord
100
AcDbBlockTableRecord
  2
*D8
340
0
  0
BLOCK_RECORD
  5
1590F
330
7466
100
AcDbSymbolTableRecord
100
AcDbBlockTableRecord
  2
*D9
340
0
  0
BLOCK_RECORD
  5
1591B
330
7466
100
AcDbSymbolTableRecord
100
AcDbBlockTableRecord
  2
*D10
340
0
  0
BLOCK_RECORD
  5
15929
330
7466
100
AcDbSymbolTableRecord
100
AcDbBlockTableRecord
  2
*D11
340
0
  0
BLOCK_RECORD
  5
15937
330
7466
100
AcDbSymbolTableRecord
100
AcDbBlockTableRecord
  2
*D12
340
0
  0
BLOCK_RECORD
  5
15943
330
7466
100
AcDbSymbolTableRecord
100
AcDbBlockTableRecord
  2
*D13
340
0
  0
BLOCK_RECORD
  5
15973
330
7466
100
AcDbSymbolTableRecord
100
AcDbBlockTableRecord
  2
*D14
340
0
  0
BLOCK_RECORD
  5
1597F
330
7466
100
AcDbSymbolTableRecord
100
AcDbBlockTableRecord
  2
*D15
340
0
  0
BLOCK_RECORD
  5
1598B
330
7466
100
AcDbSymbolTableRecord
100
AcDbBlockTableRecord
  2
*D16
340
0
  0
BLOCK_RECORD
  5
15CDA
330
7466
100
AcDbSymbolTableRecord
100
AcDbBlockTableRecord
  2
*D17
340
0
  0
BLOCK_RECORD
  5
15CF2
330
7466
100
AcDbSymbolTableRecord
100
AcDbBlockTableRecord
  2
*D18
340
0
  0
BLOCK_RECORD
  5
15D25
330
7466
100
AcDbSymbolTableRecord
100
AcDbBlockTableRecord
  2
*D19
340
0
  0
BLOCK_RECORD
  5
15D32
330
7466
100
AcDbSymbolTableRecord
100
AcDbBlockTableRecord
  2
*D20
340
0
  0
BLOCK_RECORD
  5
15E19
330
7466
100
AcDbSymbolTableRecord
100
AcDbBlockTableRecord
  2
_OPEN
340
0
  0
BLOCK_RECORD
  5
15E1F
330
7466
100
AcDbSymbolTableRecord
100
AcDbBlockTableRecord
  2
_DOT
340
0
102
{BLKREFS
331
17C0A
331
17C0B
102
}
  0
BLOCK_RECORD
  5
170AD
330
7466
100
AcDbSymbolTableRecord
100
AcDbBlockTableRecord
  2
*D23
340
0
  0
BLOCK_RECORD
  5
170BB
330
7466
100
AcDbSymbolTableRecord
100
AcDbBlockTableRecord
  2
*D24
340
0
  0
BLOCK_RECORD
  5
170C7
330
7466
100
AcDbSymbolTableRecord
100
AcDbBlockTableRecord
  2
*D25
340
0
  0
BLOCK_RECORD
  5
170FB
330
7466
100
AcDbSymbolTableRecord
100
AcDbBlockTableRecord
  2
*D26
340
0
  0
BLOCK_RECORD
  5
17A93
330
7466
100
AcDbSymbolTableRecord
100
AcDbBlockTableRecord
  2
*D27
340
0
  0
BLOCK_RECORD
  5
17AE1
330
7466
100
AcDbSymbolTableRecord
100
AcDbBlockTableRecord
  2
*D29
340
0
  0
BLOCK_RECORD
  5
17AED
330
7466
100
AcDbSymbolTableRecord
100
AcDbBlockTableRecord
  2
*D30
340
0
  0
BLOCK_RECORD
  5
17AFA
330
7466
100
AcDbSymbolTableRecord
100
AcDbBlockTableRecord
  2
*D31
340
0
  0
BLOCK_RECORD
  5
17B06
330
7466
100
AcDbSymbolTableRecord
100
AcDbBlockTableRecord
  2
*D32
340
0
  0
BLOCK_RECORD
  5
17B12
330
7466
100
AcDbSymbolTableRecord
100
AcDbBlockTableRecord
  2
*D33
340
0
  0
BLOCK_RECORD
  5
17B20
330
7466
100
AcDbSymbolTableRecord
100
AcDbBlockTableRecord
  2
*D34
340
0
  0
BLOCK_RECORD
  5
17B2D
330
7466
100
AcDbSymbolTableRecord
100
AcDbBlockTableRecord
  2
*D35
340
0
  0
BLOCK_RECORD
  5
17C45
330
7466
100
AcDbSymbolTableRecord
100
AcDbBlockTableRecord
  2
A$C234373F2
340
0
  0
BLOCK_RECORD
  5
17EFD
330
7466
100
AcDbSymbolTableRecord
100
AcDbBlockTableRecord
  2
*D38
340
0
  0
ENDTAB
  0
ENDSEC
  0
SECTION
  2
BLOCKS
  0
BLOCK
  5
7489
330
747D
100
AcDbEntity
  8
0
100
AcDbBlockBegin
  2
*MODEL_SPACE
 70
     0
 10
0.0
 20
0.0
 30
0.0
  3
*MODEL_SPACE
  1

  0
ENDBLK
  5
748A
330
747D
100
AcDbEntity
  8
0
100
AcDbBlockEnd
  0
BLOCK
  5
7487
330
747A
100
AcDbEntity
 67
     1
  8
0
100
AcDbBlockBegin
  2
*PAPER_SPACE
 70
     0
 10
0.0
 20
0.0
 30
0.0
  3
*PAPER_SPACE
  1

  0
ENDBLK
  5
7488
330
747A
100
AcDbEntity
 67
     1
  8
0
100
AcDbBlockEnd
  0
BLOCK
  5
F771
330
F770
100
AcDbEntity
  8
0
 48
50.0
100
AcDbBlockBegin
  2
_DOTSMALL
 70
     0
 10
0.0
 20
0.0
 30
0.0
  3
_DOTSMALL
  1

  0
LWPOLYLINE
  5
F772
330
F770
100
AcDbEntity
  8
0
  6
ByBlock
 62
     0
 48
50.0
100
AcDbPolyline
 90
        2
 70
     1
 43
0.5
 10
-0.0625
 20
0.0
 42
1.0
 10
0.0625
 20
0.0
 42
1.0
  0
ENDBLK
  5
F776
330
F770
100
AcDbEntity
  8
0
 48
50.0
100
AcDbBlockEnd
  0
BLOCK
  5
15A49
330
1589B
100
AcDbEntity
  8
0
 48
50.0
100
AcDbBlockBegin
  2
*D1
 70
     1
 10
0.0
 20
0.0
 30
0.0
  3
*D1
  1

  0
LINE
  5
17430
330
1589B
100
AcDbEntity
  8
寸法
 62
     0
 48
50.0
370
    -2
100
AcDbLine
 10
6509.37556087636
 20
8340.766456979688
 30
0.0
 11
6509.37556087636
 21
7860.942789184609
 31
0.0
  0
LINE
  5
17431
330
1589B
100
AcDbEntity
  8
寸法
 62
     0
 48
50.0
370
    -2
100
AcDbLine
 10
7194.375560876356
 20
8340.76645697965
 30
0.0
 11
7194.375560876356
 21
7860.942789184609
 31
0.0
  0
LINE
  5
17432
330
1589B
100
AcDbEntity
  8
寸法
 62
     0
 48
50.0
370
    -2
100
AcDbLine
 10
6509.37556087636
 20
7920.942789184611
 30
0.0
 11
7194.375560876356
 21
7920.942789184611
 31
0.0
  0
INSERT
  5
17433
330
1589B
100
AcDbEntity
  8
寸法
 62
     0
 48
50.0
370
    -2
100
AcDbBlockReference
  2
_DOTSMALL
 10
6509.37556087636
 20
7920.942789184611
 30
0.0
 41
100.0
 42
100.0
 43
100.0
 50
180.0
  0
INSERT
  5
17434
330
1589B
100
AcDbEntity
  8
寸法
 62
     0
 48
50.0
370
    -2
100
AcDbBlockReference
  2
_DOTSMALL
 10
7194.375560876356
 20
7920.942789184611
 30
0.0
 41
100.0
 42
100.0
 43
100.0
  0
MTEXT
  5
17435
330
1589B
100
AcDbEntity
  8
寸法
 62
     7
 48
50.0
100
AcDbMText
 10
6851.875560876358
 20
8120.94278918461
 30
0.0
 40
120.0
 41
0.0
 71
     5
 72
     1
  1
\A1;有効開口部間口\P685
  7
STYLE1
 73
     1
 44
1.0
1001
ACAD
1000
MTEXTBEGIN
1070
    73
1070
     1
1070
    44
1040
1.0
1070
    74
1070
     0
1000
MTEXTEND
  0
POINT
  5
17436
330
1589B
100
AcDbEntity
  8
DEFPOINTS
 62
     0
 48
50.0
100
AcDbPoint
 10
6509.37556087636
 20
8360.766456979687
 30
0.0
  0
POINT
  5
17437
330
1589B
100
AcDbEntity
  8
DEFPOINTS
 62
     0
 48
50.0
100
AcDbPoint
 10
7194.375560876356
 20
8360.766456979652
 30
0.0
  0
POINT
  5
17438
330
1589B
100
AcDbEntity
  8
DEFPOINTS
 62
     0
 48
50.0
100
AcDbPoint
 10
7194.375560876356
 20
7920.942789184611
 30
0.0
  0
ENDBLK
  5
15A53
330
1589B
100
AcDbEntity
  8
0
 48
50.0
100
AcDbBlockEnd
  0
BLOCK
  5
15A5F
330
158B3
100
AcDbEntity
  8
0
 48
50.0
100
AcDbBlockBegin
  2
*D2
 70
     1
 10
0.0
 20
0.0
 30
0.0
  3
*D2
  1

  0
LINE
  5
17427
330
158B3
100
AcDbEntity
  8
寸法
 62
     0
 48
50.0
370
    -2
100
AcDbLine
 10
4814.375560876356
 20
8340.766456979613
 30
0.0
 11
4814.375560876356
 21
7313.664582119542
 31
0.0
  0
LINE
  5
17428
330
158B3
100
AcDbEntity
  8
寸法
 62
     0
 48
50.0
370
    -2
100
AcDbLine
 10
7274.37556087634
 20
8340.766456979746
 30
0.0
 11
7274.37556087634
 21
7313.664582119542
 31
0.0
  0
LINE
  5
17429
330
158B3
100
AcDbEntity
  8
寸法
 62
     0
 48
50.0
370
    -2
100
AcDbLine
 10
4814.375560876356
 20
7373.664582119542
 30
0.0
 11
7274.37556087634
 21
7373.664582119542
 31
0.0
  0
INSERT
  5
1742A
330
158B3
100
AcDbEntity
  8
寸法
 62
     0
 48
50.0
370
    -2
100
AcDbBlockReference
  2
_DOTSMALL
 10
4814.375560876356
 20
7373.664582119542
 30
0.0
 41
100.0
 42
100.0
 43
100.0
 50
180.0
  0
INSERT
  5
1742B
330
158B3
100
AcDbEntity
  8
寸法
 62
     0
 48
50.0
370
    -2
100
AcDbBlockReference
  2
_DOTSMALL
 10
7274.37556087634
 20
7373.664582119542
 30
0.0
 41
100.0
 42
100.0
 43
100.0
  0
MTEXT
  5
1742C
330
158B3
100
AcDbEntity
  8
寸法
 62
     7
 48
50.0
100
AcDbMText
 10
6044.375560876347
 20
7473.676393143164
 30
0.0
 40
120.0
 41
0.0
 71
     5
 72
     1
  1
\A1;2460
  7
STYLE1
 73
     1
 44
1.0
1001
ACAD
1000
MTEXTBEGIN
1070
    73
1070
     1
1070
    44
1040
1.0
1070
    74
1070
     0
1000
MTEXTEND
  0
POINT
  5
1742D
330
158B3
100
AcDbEntity
  8
DEFPOINTS
 62
     0
 48
50.0
100
AcDbPoint
 10
4814.375560876356
 20
8360.766456979614
 30
0.0
  0
POINT
  5
1742E
330
158B3
100
AcDbEntity
  8
DEFPOINTS
 62
     0
 48
50.0
100
AcDbPoint
 10
7274.37556087634
 20
8360.766456979744
 30
0.0
  0
POINT
  5
1742F
330
158B3
100
AcDbEntity
  8
DEFPOINTS
 62
     0
 48
50.0
100
AcDbPoint
 10
7274.37556087634
 20
7373.664582119542
 30
0.0
  0
ENDBLK
  5
15A69
330
158B3
100
AcDbEntity
  8
0
 48
50.0
100
AcDbBlockEnd
  0
BLOCK
  5
15A6A
330
158BF
100
AcDbEntity
  8
0
 48
50.0
100
AcDbBlockBegin
  2
*D3
 70
     1
 10
0.0
 20
0.0
 30
0.0
  3
*D3
  1

  0
LINE
  5
1741E
330
158BF
100
AcDbEntity
  8
寸法
 62
     0
 48
50.0
370
    -2
100
AcDbLine
 10
4869.375560876363
 20
9330.766456979723
 30
0.0
 11
4869.375560876363
 21
9586.574676604792
 31
0.0
  0
LINE
  5
1741F
330
158BF
100
AcDbEntity
  8
寸法
 62
     0
 48
50.0
370
    -2
100
AcDbLine
 10
5579.375560876362
 20
9330.76645697981
 30
0.0
 11
5579.375560876362
 21
9586.574676604792
 31
0.0
  0
LINE
  5
17420
330
158BF
100
AcDbEntity
  8
寸法
 62
     0
 48
50.0
370
    -2
100
AcDbLine
 10
4869.375560876363
 20
9526.574676604793
 30
0.0
 11
5579.375560876362
 21
9526.574676604793
 31
0.0
  0
INSERT
  5
17421
330
158BF
100
AcDbEntity
  8
寸法
 62
     0
 48
50.0
370
    -2
100
AcDbBlockReference
  2
_DOTSMALL
 10
4869.375560876363
 20
9526.574676604793
 30
0.0
 41
100.0
 42
100.0
 43
100.0
 50
180.0
  0
INSERT
  5
17422
330
158BF
100
AcDbEntity
  8
寸法
 62
     0
 48
50.0
370
    -2
100
AcDbBlockReference
  2
_DOTSMALL
 10
5579.375560876362
 20
9526.574676604793
 30
0.0
 41
100.0
 42
100.0
 43
100.0
  0
MTEXT
  5
17423
330
158BF
100
AcDbEntity
  8
寸法
 62
     7
 48
50.0
100
AcDbMText
 10
5224.625560876362
 20
9626.574676604793
 30
0.0
 40
120.0
 41
0.0
 71
     5
 72
     1
  1
\A1;710
  7
STYLE1
 73
     1
 44
1.0
1001
ACAD
1000
MTEXTBEGIN
1070
    73
1070
     1
1070
    44
1040
1.0
1070
    74
1070
     0
1000
MTEXTEND
  0
POINT
  5
17424
330
158BF
100
AcDbEntity
  8
DEFPOINTS
 62
     0
 48
50.0
100
AcDbPoint
 10
4869.375560876363
 20
9310.766456979724
 30
0.0
  0
POINT
  5
17425
330
158BF
100
AcDbEntity
  8
DEFPOINTS
 62
     0
 48
50.0
100
AcDbPoint
 10
5579.375560876362
 20
9310.766456979811
 30
0.0
  0
POINT
  5
17426
330
158BF
100
AcDbEntity
  8
DEFPOINTS
 62
     0
 48
50.0
100
AcDbPoint
 10
5579.375560876362
 20
9526.574676604793
 30
0.0
  0
ENDBLK
  5
15A74
330
158BF
100
AcDbEntity
  8
0
 48
50.0
100
AcDbBlockEnd
  0
BLOCK
  5
15A75
330
158CB
100
AcDbEntity
  8
0
 48
50.0
100
AcDbBlockBegin
  2
*D4
 70
     1
 10
0.0
 20
0.0
 30
0.0
  3
*D4
  1

  0
LINE
  5
17413
330
158CB
100
AcDbEntity
  8
寸法
 62
     0
 48
50.0
370
    -2
100
AcDbLine
 10
4814.375560876328
 20
9330.766456979693
 30
0.0
 11
4814.375560876328
 21
9586.574676604675
 31
0.0
  0
LINE
  5
17414
330
158CB
100
AcDbEntity
  8
寸法
 62
     0
 48
50.0
370
    -2
100
AcDbLine
 10
4869.375560876363
 20
9330.766456979693
 30
0.0
 11
4869.375560876363
 21
9586.574676604675
 31
0.0
  0
LINE
  5
17415
330
158CB
100
AcDbEntity
  8
寸法
 62
     0
 48
50.0
370
    -2
100
AcDbLine
 10
4869.375560876363
 20
9526.574676604676
 30
0.0
 11
4969.375560876364
 21
9526.574676604676
 31
0.0
  0
LINE
  5
17416
330
158CB
100
AcDbEntity
  8
寸法
 62
     0
 48
50.0
370
    -2
100
AcDbLine
 10
4814.375560876328
 20
9526.574676604676
 30
0.0
 11
4397.40499812785
 21
9526.574676604676
 31
0.0
  0
LINE
  5
17417
330
158CB
100
AcDbEntity
  8
寸法
 62
     0
 48
50.0
370
    -2
100
AcDbLine
 10
4869.375560876363
 20
9526.574676604676
 30
0.0
 11
4814.375560876328
 21
9526.574676604676
 31
0.0
  0
INSERT
  5
17418
330
158CB
100
AcDbEntity
  8
寸法
 62
     0
 48
50.0
370
    -2
100
AcDbBlockReference
  2
_DOTSMALL
 10
4869.375560876363
 20
9526.574676604676
 30
0.0
 41
100.0
 42
100.0
 43
100.0
 50
180.0
  0
INSERT
  5
17419
330
158CB
100
AcDbEntity
  8
寸法
 62
     0
 48
50.0
370
    -2
100
AcDbBlockReference
  2
_DOTSMALL
 10
4814.375560876328
 20
9526.574676604676
 30
0.0
 41
100.0
 42
100.0
 43
100.0
  0
MTEXT
  5
1741A
330
158CB
100
AcDbEntity
  8
寸法
 62
     7
 48
50.0
100
AcDbMText
 10
4505.890279502089
 20
9626.574676604676
 30
0.0
 40
120.0
 41
0.0
 71
     5
 72
     1
  1
\A1;55
  7
STYLE1
 73
     1
 44
1.0
1001
ACAD
1000
MTEXTBEGIN
1070
    73
1070
     1
1070
    44
1040
1.0
1070
    74
1070
     0
1000
MTEXTEND
  0
POINT
  5
1741B
330
158CB
100
AcDbEntity
  8
DEFPOINTS
 62
     0
 48
50.0
100
AcDbPoint
 10
4814.375560876328
 20
9310.766456979694
 30
0.0
  0
POINT
  5
1741C
330
158CB
100
AcDbEntity
  8
DEFPOINTS
 62
     0
 48
50.0
100
AcDbPoint
 10
4869.375560876363
 20
9310.766456979694
 30
0.0
  0
POINT
  5
1741D
330
158CB
100
AcDbEntity
  8
DEFPOINTS
 62
     0
 48
50.0
100
AcDbPoint
 10
4869.375560876363
 20
9526.574676604676
 30
0.0
  0
ENDBLK
  5
15A81
330
158CB
100
AcDbEntity
  8
0
 48
50.0
100
AcDbBlockEnd
  0
BLOCK
  5
15A82
330
158D9
100
AcDbEntity
  8
0
 48
50.0
100
AcDbBlockBegin
  2
*D5
 70
     1
 10
0.0
 20
0.0
 30
0.0
  3
*D5
  1

  0
LINE
  5
1740A
330
158D9
100
AcDbEntity
  8
寸法
 62
     0
 48
50.0
370
    -2
100
AcDbLine
 10
5689.375560876364
 20
9330.766456979723
 30
0.0
 11
5689.375560876364
 21
9586.574676604792
 31
0.0
  0
LINE
  5
1740B
330
158D9
100
AcDbEntity
  8
寸法
 62
     0
 48
50.0
370
    -2
100
AcDbLine
 10
6399.375560876362
 20
9330.76645697981
 30
0.0
 11
6399.375560876362
 21
9586.574676604792
 31
0.0
  0
LINE
  5
1740C
330
158D9
100
AcDbEntity
  8
寸法
 62
     0
 48
50.0
370
    -2
100
AcDbLine
 10
5689.375560876364
 20
9526.574676604793
 30
0.0
 11
6399.375560876362
 21
9526.574676604793
 31
0.0
  0
INSERT
  5
1740D
330
158D9
100
AcDbEntity
  8
寸法
 62
     0
 48
50.0
370
    -2
100
AcDbBlockReference
  2
_DOTSMALL
 10
5689.375560876364
 20
9526.574676604793
 30
0.0
 41
100.0
 42
100.0
 43
100.0
 50
180.0
  0
INSERT
  5
1740E
330
158D9
100
AcDbEntity
  8
寸法
 62
     0
 48
50.0
370
    -2
100
AcDbBlockReference
  2
_DOTSMALL
 10
6399.375560876362
 20
9526.574676604793
 30
0.0
 41
100.0
 42
100.0
 43
100.0
  0
MTEXT
  5
1740F
330
158D9
100
AcDbEntity
  8
寸法
 62
     7
 48
50.0
100
AcDbMText
 10
6044.625560876362
 20
9626.574676604793
 30
0.0
 40
120.0
 41
0.0
 71
     5
 72
     1
  1
\A1;710
  7
STYLE1
 73
     1
 44
1.0
1001
ACAD
1000
MTEXTBEGIN
1070
    73
1070
     1
1070
    44
1040
1.0
1070
    74
1070
     0
1000
MTEXTEND
  0
POINT
  5
17410
330
158D9
100
AcDbEntity
  8
DEFPOINTS
 62
     0
 48
50.0
100
AcDbPoint
 10
5689.375560876364
 20
9310.766456979724
 30
0.0
  0
POINT
  5
17411
330
158D9
100
AcDbEntity
  8
DEFPOINTS
 62
     0
 48
50.0
100
AcDbPoint
 10
6399.375560876362
 20
9310.766456979811
 30
0.0
  0
POINT
  5
17412
330
158D9
100
AcDbEntity
  8
DEFPOINTS
 62
     0
 48
50.0
100
AcDbPoint
 10
6399.375560876362
 20
9526.574676604793
 30
0.0
  0
ENDBLK
  5
15A8C
330
158D9
100
AcDbEntity
  8
0
 48
50.0
100
AcDbBlockEnd
  0
BLOCK
  5
15A8D
330
158E5
100
AcDbEntity
  8
0
 48
50.0
100
AcDbBlockBegin
  2
*D6
 70
     1
 10
0.0
 20
0.0
 30
0.0
  3
*D6
  1

  0
LINE
  5
173FF
330
158E5
100
AcDbEntity
  8
寸法
 62
     0
 48
50.0
370
    -2
100
AcDbLine
 10
7219.375560876364
 20
9330.766456979789
 30
0.0
 11
7219.375560876364
 21
9586.574676604771
 31
0.0
  0
LINE
  5
17400
330
158E5
100
AcDbEntity
  8
寸法
 62
     0
 48
50.0
370
    -2
100
AcDbLine
 10
7274.375560876364
 20
9330.766456979789
 30
0.0
 11
7274.375560876364
 21
9586.574676604771
 31
0.0
  0
LINE
  5
17401
330
158E5
100
AcDbEntity
  8
寸法
 62
     0
 48
50.0
370
    -2
100
AcDbLine
 10
7219.375560876364
 20
9526.574676604772
 30
0.0
 11
7119.375560876363
 21
9526.574676604772
 31
0.0
  0
LINE
  5
17402
330
158E5
100
AcDbEntity
  8
寸法
 62
     0
 48
50.0
370
    -2
100
AcDbLine
 10
7274.375560876364
 20
9526.574676604772
 30
0.0
 11
7691.346123624841
 21
9526.574676604772
 31
0.0
  0
LINE
  5
17403
330
158E5
100
AcDbEntity
  8
寸法
 62
     0
 48
50.0
370
    -2
100
AcDbLine
 10
7219.375560876364
 20
9526.574676604772
 30
0.0
 11
7274.375560876364
 21
9526.574676604772
 31
0.0
  0
INSERT
  5
17404
330
158E5
100
AcDbEntity
  8
寸法
 62
     0
 48
50.0
370
    -2
100
AcDbBlockReference
  2
_DOTSMALL
 10
7219.375560876364
 20
9526.574676604772
 30
0.0
 41
100.0
 42
100.0
 43
100.0
  0
INSERT
  5
17405
330
158E5
100
AcDbEntity
  8
寸法
 62
     0
 48
50.0
370
    -2
100
AcDbBlockReference
  2
_DOTSMALL
 10
7274.375560876364
 20
9526.574676604772
 30
0.0
 41
100.0
 42
100.0
 43
100.0
 50
180.0
  0
MTEXT
  5
17406
330
158E5
100
AcDbEntity
  8
寸法
 62
     7
 48
50.0
100
AcDbMText
 10
7582.860842250602
 20
9626.574676604771
 30
0.0
 40
120.0
 41
0.0
 71
     5
 72
     1
  1
\A1;55
  7
STYLE1
 73
     1
 44
1.0
1001
ACAD
1000
MTEXTBEGIN
1070
    73
1070
     1
1070
    44
1040
1.0
1070
    74
1070
     0
1000
MTEXTEND
  0
POINT
  5
17407
330
158E5
100
AcDbEntity
  8
DEFPOINTS
 62
     0
 48
50.0
100
AcDbPoint
 10
7219.375560876364
 20
9310.76645697979
 30
0.0
  0
POINT
  5
17408
330
158E5
100
AcDbEntity
  8
DEFPOINTS
 62
     0
 48
50.0
100
AcDbPoint
 10
7274.375560876364
 20
9310.76645697979
 30
0.0
  0
POINT
  5
17409
330
158E5
100
AcDbEntity
  8
DEFPOINTS
 62
     0
 48
50.0
100
AcDbPoint
 10
7274.375560876364
 20
9526.574676604772
 30
0.0
  0
ENDBLK
  5
15A99
330
158E5
100
AcDbEntity
  8
0
 48
50.0
100
AcDbBlockEnd
  0
BLOCK
  5
15A9A
330
158F3
100
AcDbEntity
  8
0
 48
50.0
100
AcDbBlockBegin
  2
*D7
 70
     1
 10
0.0
 20
0.0
 30
0.0
  3
*D7
  1

  0
LINE
  5
173F4
330
158F3
100
AcDbEntity
  8
寸法
 62
     0
 48
50.0
370
    -2
100
AcDbLine
 10
7294.375560876364
 20
9310.76645697979
 30
0.0
 11
7981.801906610775
 21
9310.76645697979
 31
0.0
  0
LINE
  5
173F5
330
158F3
100
AcDbEntity
  8
寸法
 62
     0
 48
50.0
370
    -2
100
AcDbLine
 10
7294.375560876364
 20
9255.76645697979
 30
0.0
 11
7981.801906610775
 21
9255.76645697979
 31
0.0
  0
LINE
  5
173F6
330
158F3
100
AcDbEntity
  8
寸法
 62
     0
 48
50.0
370
    -2
100
AcDbLine
 10
7921.801906610774
 20
9255.76645697979
 30
0.0
 11
7921.801906610774
 21
9155.766456979788
 31
0.0
  0
LINE
  5
173F7
330
158F3
100
AcDbEntity
  8
寸法
 62
     0
 48
50.0
370
    -2
100
AcDbLine
 10
7921.801906610774
 20
9310.76645697979
 30
0.0
 11
7921.801906610774
 21
9727.737019728266
 31
0.0
  0
LINE
  5
173F8
330
158F3
100
AcDbEntity
  8
寸法
 62
     0
 48
50.0
370
    -2
100
AcDbLine
 10
7921.801906610774
 20
9255.76645697979
 30
0.0
 11
7921.801906610774
 21
9310.76645697979
 31
0.0
  0
INSERT
  5
173F9
330
158F3
100
AcDbEntity
  8
寸法
 62
     0
 48
50.0
370
    -2
100
AcDbBlockReference
  2
_DOTSMALL
 10
7921.801906610774
 20
9255.76645697979
 30
0.0
 41
100.0
 42
100.0
 43
100.0
 50
90.0
  0
INSERT
  5
173FA
330
158F3
100
AcDbEntity
  8
寸法
 62
     0
 48
50.0
370
    -2
100
AcDbBlockReference
  2
_DOTSMALL
 10
7921.801906610774
 20
9310.76645697979
 30
0.0
 41
100.0
 42
100.0
 43
100.0
 50
270.0
  0
MTEXT
  5
173FB
330
158F3
100
AcDbEntity
  8
寸法
 62
     7
 48
50.0
100
AcDbMText
 10
7821.801906610774
 20
9619.25173835403
 30
0.0
 40
120.0
 41
0.0
 71
     5
 72
     1
  1
\A1;55
  7
STYLE1
 11
0.0000000000000001
 21
1.0
 31
0.0
 73
     1
 44
1.0
1001
ACAD
1000
MTEXTBEGIN
1070
    73
1070
     1
1070
    44
1040
1.0
1070
    74
1070
     0
1000
MTEXTEND
  0
POINT
  5
173FC
330
158F3
100
AcDbEntity
  8
DEFPOINTS
 62
     0
 48
50.0
100
AcDbPoint
 10
7274.375560876364
 20
9310.76645697979
 30
0.0
  0
POINT
  5
173FD
330
158F3
100
AcDbEntity
  8
DEFPOINTS
 62
     0
 48
50.0
100
AcDbPoint
 10
7274.375560876364
 20
9255.76645697979
 30
0.0
  0
POINT
  5
173FE
330
158F3
100
AcDbEntity
  8
DEFPOINTS
 62
     0
 48
50.0
100
AcDbPoint
 10
7921.801906610774
 20
9255.76645697979
 30
0.0
  0
ENDBLK
  5
15AA6
330
158F3
100
AcDbEntity
  8
0
 48
50.0
100
AcDbBlockEnd
  0
BLOCK
  5
15AA7
330
15901
100
AcDbEntity
  8
0
 48
50.0
100
AcDbBlockBegin
  2
*D8
 70
     1
 10
0.0
 20
0.0
 30
0.0
  3
*D8
  1

  0
LINE
  5
173E9
330
15901
100
AcDbEntity
  8
寸法
 62
     0
 48
50.0
370
    -2
100
AcDbLine
 10
6399.375560876362
 20
9330.76645697981
 30
0.0
 11
6399.375560876362
 21
9586.574676604792
 31
0.0
  0
LINE
  5
173EA
330
15901
100
AcDbEntity
  8
寸法
 62
     0
 48
50.0
370
    -2
100
AcDbLine
 10
6509.375560876366
 20
9330.766456979789
 30
0.0
 11
6509.375560876366
 21
9586.574676604792
 31
0.0
  0
LINE
  5
173EB
330
15901
100
AcDbEntity
  8
寸法
 62
     0
 48
50.0
370
    -2
100
AcDbLine
 10
6399.375560876362
 20
9526.574676604793
 30
0.0
 11
6299.375560876362
 21
9526.574676604793
 31
0.0
  0
LINE
  5
173EC
330
15901
100
AcDbEntity
  8
寸法
 62
     0
 48
50.0
370
    -2
100
AcDbLine
 10
6509.375560876366
 20
9526.574676604793
 30
0.0
 11
6609.375560876365
 21
9526.574676604793
 31
0.0
  0
LINE
  5
173ED
330
15901
100
AcDbEntity
  8
寸法
 62
     0
 48
50.0
370
    -2
100
AcDbLine
 10
6399.375560876362
 20
9526.574676604793
 30
0.0
 11
6509.375560876366
 21
9526.574676604793
 31
0.0
  0
INSERT
  5
173EE
330
15901
100
AcDbEntity
  8
寸法
 62
     0
 48
50.0
370
    -2
100
AcDbBlockReference
  2
_DOTSMALL
 10
6399.375560876362
 20
9526.574676604793
 30
0.0
 41
100.0
 42
100.0
 43
100.0
  0
INSERT
  5
173EF
330
15901
100
AcDbEntity
  8
寸法
 62
     0
 48
50.0
370
    -2
100
AcDbBlockReference
  2
_DOTSMALL
 10
6509.375560876366
 20
9526.574676604793
 30
0.0
 41
100.0
 42
100.0
 43
100.0
 50
180.0
  0
MTEXT
  5
173F0
330
15901
100
AcDbEntity
  8
寸法
 62
     7
 48
50.0
100
AcDbMText
 10
6454.375560876364
 20
9626.574676604793
 30
0.0
 40
120.0
 41
0.0
 71
     5
 72
     1
  1
\A1;110
  7
STYLE1
 73
     1
 44
1.0
1001
ACAD
1000
MTEXTBEGIN
1070
    73
1070
     1
1070
    44
1040
1.0
1070
    74
1070
     0
1000
MTEXTEND
  0
POINT
  5
173F1
330
15901
100
AcDbEntity
  8
DEFPOINTS
 62
     0
 48
50.0
100
AcDbPoint
 10
6399.375560876362
 20
9310.766456979811
 30
0.0
  0
POINT
  5
173F2
330
15901
100
AcDbEntity
  8
DEFPOINTS
 62
     0
 48
50.0
100
AcDbPoint
 10
6509.375560876366
 20
9310.76645697979
 30
0.0
  0
POINT
  5
173F3
330
15901
100
AcDbEntity
  8
DEFPOINTS
 62
     0
 48
50.0
100
AcDbPoint
 10
6509.375560876366
 20
9526.574676604793
 30
0.0
  0
ENDBLK
  5
15AB3
330
15901
100
AcDbEntity
  8
0
 48
50.0
100
AcDbBlockEnd
  0
BLOCK
  5
15AB4
330
1590F
100
AcDbEntity
  8
0
 48
50.0
100
AcDbBlockBegin
  2
*D9
 70
     1
 10
0.0
 20
0.0
 30
0.0
  3
*D9
  1

  0
LINE
  5
173E0
330
1590F
100
AcDbEntity
  8
寸法
 62
     0
 48
50.0
370
    -2
100
AcDbLine
 10
7219.375560876364
 20
9330.766456979803
 30
0.0
 11
7219.375560876364
 21
9586.574676604792
 31
0.0
  0
LINE
  5
173E1
330
1590F
100
AcDbEntity
  8
寸法
 62
     0
 48
50.0
370
    -2
100
AcDbLine
 10
6509.375560876366
 20
9330.766456979789
 30
0.0
 11
6509.375560876366
 21
9586.574676604792
 31
0.0
  0
LINE
  5
173E2
330
1590F
100
AcDbEntity
  8
寸法
 62
     0
 48
50.0
370
    -2
100
AcDbLine
 10
7219.375560876364
 20
9526.574676604793
 30
0.0
 11
6509.375560876366
 21
9526.574676604793
 31
0.0
  0
INSERT
  5
173E3
330
1590F
100
AcDbEntity
  8
寸法
 62
     0
 48
50.0
370
    -2
100
AcDbBlockReference
  2
_DOTSMALL
 10
7219.375560876364
 20
9526.574676604793
 30
0.0
 41
100.0
 42
100.0
 43
100.0
  0
INSERT
  5
173E4
330
1590F
100
AcDbEntity
  8
寸法
 62
     0
 48
50.0
370
    -2
100
AcDbBlockReference
  2
_DOTSMALL
 10
6509.375560876366
 20
9526.574676604793
 30
0.0
 41
100.0
 42
100.0
 43
100.0
 50
180.0
  0
MTEXT
  5
173E5
330
1590F
100
AcDbEntity
  8
寸法
 62
     7
 48
50.0
100
AcDbMText
 10
6864.375560876365
 20
9626.574676604793
 30
0.0
 40
120.0
 41
0.0
 71
     5
 72
     1
  1
\A1;710
  7
STYLE1
 73
     1
 44
1.0
1001
ACAD
1000
MTEXTBEGIN
1070
    73
1070
     1
1070
    44
1040
1.0
1070
    74
1070
     0
1000
MTEXTEND
  0
POINT
  5
173E6
330
1590F
100
AcDbEntity
  8
DEFPOINTS
 62
     0
 48
50.0
100
AcDbPoint
 10
7219.375560876364
 20
9310.766456979804
 30
0.0
  0
POINT
  5
173E7
330
1590F
100
AcDbEntity
  8
DEFPOINTS
 62
     0
 48
50.0
100
AcDbPoint
 10
6509.375560876366
 20
9310.76645697979
 30
0.0
  0
POINT
  5
173E8
330
1590F
100
AcDbEntity
  8
DEFPOINTS
 62
     0
 48
50.0
100
AcDbPoint
 10
6509.375560876366
 20
9526.574676604793
 30
0.0
  0
ENDBLK
  5
15ABE
330
1590F
100
AcDbEntity
  8
0
 48
50.0
100
AcDbBlockEnd
  0
BLOCK
  5
15ABF
330
1591B
100
AcDbEntity
  8
0
 48
50.0
100
AcDbBlockBegin
  2
*D10
 70
     1
 10
0.0
 20
0.0
 30
0.0
  3
*D10
  1

  0
LINE
  5
173D5
330
1591B
100
AcDbEntity
  8
寸法
 62
     0
 48
50.0
370
    -2
100
AcDbLine
 10
5579.375560876362
 20
9330.76645697981
 30
0.0
 11
5579.375560876362
 21
9586.574676604792
 31
0.0
  0
LINE
  5
173D6
330
1591B
100
AcDbEntity
  8
寸法
 62
     0
 48
50.0
370
    -2
100
AcDbLine
 10
5689.375560876366
 20
9330.766456979789
 30
0.0
 11
5689.375560876366
 21
9586.574676604792
 31
0.0
  0
LINE
  5
173D7
330
1591B
100
AcDbEntity
  8
寸法
 62
     0
 48
50.0
370
    -2
100
AcDbLine
 10
5579.375560876362
 20
9526.574676604793
 30
0.0
 11
5479.375560876363
 21
9526.574676604793
 31
0.0
  0
LINE
  5
173D8
330
1591B
100
AcDbEntity
  8
寸法
 62
     0
 48
50.0
370
    -2
100
AcDbLine
 10
5689.375560876366
 20
9526.574676604793
 30
0.0
 11
5789.375560876366
 21
9526.574676604793
 31
0.0
  0
LINE
  5
173D9
330
1591B
100
AcDbEntity
  8
寸法
 62
     0
 48
50.0
370
    -2
100
AcDbLine
 10
5579.375560876362
 20
9526.574676604793
 30
0.0
 11
5689.375560876366
 21
9526.574676604793
 31
0.0
  0
INSERT
  5
173DA
330
1591B
100
AcDbEntity
  8
寸法
 62
     0
 48
50.0
370
    -2
100
AcDbBlockReference
  2
_DOTSMALL
 10
5579.375560876362
 20
9526.574676604793
 30
0.0
 41
100.0
 42
100.0
 43
100.0
  0
INSERT
  5
173DB
330
1591B
100
AcDbEntity
  8
寸法
 62
     0
 48
50.0
370
    -2
100
AcDbBlockReference
  2
_DOTSMALL
 10
5689.375560876366
 20
9526.574676604793
 30
0.0
 41
100.0
 42
100.0
 43
100.0
 50
180.0
  0
MTEXT
  5
173DC
330
1591B
100
AcDbEntity
  8
寸法
 62
     7
 48
50.0
100
AcDbMText
 10
5634.375560876364
 20
9626.574676604793
 30
0.0
 40
120.0
 41
0.0
 71
     5
 72
     1
  1
\A1;110
  7
STYLE1
 73
     1
 44
1.0
1001
ACAD
1000
MTEXTBEGIN
1070
    73
1070
     1
1070
    44
1040
1.0
1070
    74
1070
     0
1000
MTEXTEND
  0
POINT
  5
173DD
330
1591B
100
AcDbEntity
  8
DEFPOINTS
 62
     0
 48
50.0
100
AcDbPoint
 10
5579.375560876362
 20
9310.766456979811
 30
0.0
  0
POINT
  5
173DE
330
1591B
100
AcDbEntity
  8
DEFPOINTS
 62
     0
 48
50.0
100
AcDbPoint
 10
5689.375560876366
 20
9310.76645697979
 30
0.0
  0
POINT
  5
173DF
330
1591B
100
AcDbEntity
  8
DEFPOINTS
 62
     0
 48
50.0
100
AcDbPoint
 10
5689.375560876366
 20
9526.574676604793
 30
0.0
  0
ENDBLK
  5
15ACB
330
1591B
100
AcDbEntity
  8
0
 48
50.0
100
AcDbBlockEnd
  0
BLOCK
  5
15ACC
330
15929
100
AcDbEntity
  8
0
 48
50.0
100
AcDbBlockBegin
  2
*D11
 70
     1
 10
0.0
 20
0.0
 30
0.0
  3
*D11
  1

  0
LINE
  5
173CA
330
15929
100
AcDbEntity
  8
寸法
 62
     0
 48
50.0
370
    -2
100
AcDbLine
 10
7294.375560876338
 20
8415.766456979774
 30
0.0
 11
7981.801906610749
 21
8415.766456979774
 31
0.0
  0
LINE
  5
173CB
330
15929
100
AcDbEntity
  8
寸法
 62
     0
 48
50.0
370
    -2
100
AcDbLine
 10
7294.375560876338
 20
8360.766456979774
 30
0.0
 11
7981.801906610749
 21
8360.766456979774
 31
0.0
  0
LINE
  5
173CC
330
15929
100
AcDbEntity
  8
寸法
 62
     0
 48
50.0
370
    -2
100
AcDbLine
 10
7921.801906610749
 20
8415.766456979774
 30
0.0
 11
7921.801906610749
 21
8515.766456979774
 31
0.0
  0
LINE
  5
173CD
330
15929
100
AcDbEntity
  8
寸法
 62
     0
 48
50.0
370
    -2
100
AcDbLine
 10
7921.801906610749
 20
8360.766456979774
 30
0.0
 11
7921.801906610749
 21
7874.419708700677
 31
0.0
  0
LINE
  5
173CE
330
15929
100
AcDbEntity
  8
寸法
 62
     0
 48
50.0
370
    -2
100
AcDbLine
 10
7921.801906610749
 20
8415.766456979774
 30
0.0
 11
7921.801906610749
 21
8360.766456979774
 31
0.0
  0
INSERT
  5
173CF
330
15929
100
AcDbEntity
  8
寸法
 62
     0
 48
50.0
370
    -2
100
AcDbBlockReference
  2
_DOTSMALL
 10
7921.801906610749
 20
8415.766456979774
 30
0.0
 41
100.0
 42
100.0
 43
100.0
 50
270.0
  0
INSERT
  5
173D0
330
15929
100
AcDbEntity
  8
寸法
 62
     0
 48
50.0
370
    -2
100
AcDbBlockReference
  2
_DOTSMALL
 10
7921.801906610749
 20
8360.766456979774
 30
0.0
 41
100.0
 42
100.0
 43
100.0
 50
90.0
  0
MTEXT
  5
173D1
330
15929
100
AcDbEntity
  8
寸法
 62
     7
 48
50.0
100
AcDbMText
 10
7821.801906610748
 20
7982.904990074915
 30
0.0
 40
120.0
 41
0.0
 71
     5
 72
     1
  1
\A1;55
  7
STYLE1
 11
0.0000000000000001
 21
1.0
 31
0.0
 73
     1
 44
1.0
1001
ACAD
1000
MTEXTBEGIN
1070
    73
1070
     1
1070
    44
1040
1.0
1070
    74
1070
     0
1000
MTEXTEND
  0
POINT
  5
173D2
330
15929
100
AcDbEntity
  8
DEFPOINTS
 62
     0
 48
50.0
100
AcDbPoint
 10
7274.37556087634
 20
8415.766456979774
 30
0.0
  0
POINT
  5
173D3
330
15929
100
AcDbEntity
  8
DEFPOINTS
 62
     0
 48
50.0
100
AcDbPoint
 10
7274.37556087634
 20
8360.766456979774
 30
0.0
  0
POINT
  5
173D4
330
15929
100
AcDbEntity
  8
DEFPOINTS
 62
     0
 48
50.0
100
AcDbPoint
 10
7921.801906610749
 20
8360.766456979774
 30
0.0
  0
ENDBLK
  5
15AD8
330
15929
100
AcDbEntity
  8
0
 48
50.0
100
AcDbBlockEnd
  0
BLOCK
  5
15AD9
330
15937
100
AcDbEntity
  8
0
 48
50.0
100
AcDbBlockBegin
  2
*D12
 70
     1
 10
0.0
 20
0.0
 30
0.0
  3
*D12
  1

  0
LINE
  5
173C1
330
15937
100
AcDbEntity
  8
寸法
 62
     0
 48
50.0
370
    -2
100
AcDbLine
 10
7294.375560876364
 20
9255.76645697979
 30
0.0
 11
7981.801906610775
 21
9255.76645697979
 31
0.0
  0
LINE
  5
173C2
330
15937
100
AcDbEntity
  8
寸法
 62
     0
 48
50.0
370
    -2
100
AcDbLine
 10
7294.375560876338
 20
8415.766456979774
 30
0.0
 11
7981.801906610775
 21
8415.766456979774
 31
0.0
  0
LINE
  5
173C3
330
15937
100
AcDbEntity
  8
寸法
 62
     0
 48
50.0
370
    -2
100
AcDbLine
 10
7921.801906610774
 20
9255.76645697979
 30
0.0
 11
7921.801906610774
 21
8415.766456979774
 31
0.0
  0
INSERT
  5
173C4
330
15937
100
AcDbEntity
  8
寸法
 62
     0
 48
50.0
370
    -2
100
AcDbBlockReference
  2
_DOTSMALL
 10
7921.801906610774
 20
9255.76645697979
 30
0.0
 41
100.0
 42
100.0
 43
100.0
 50
90.0
  0
INSERT
  5
173C5
330
15937
100
AcDbEntity
  8
寸法
 62
     0
 48
50.0
370
    -2
100
AcDbBlockReference
  2
_DOTSMALL
 10
7921.801906610774
 20
8415.766456979774
 30
0.0
 41
100.0
 42
100.0
 43
100.0
 50
270.0
  0
MTEXT
  5
173C6
330
15937
100
AcDbEntity
  8
寸法
 62
     7
 48
50.0
100
AcDbMText
 10
7821.790095587151
 20
8835.766456979783
 30
0.0
 40
120.0
 41
0.0
 71
     5
 72
     1
  1
\A1;2X420=840
  7
STYLE1
 11
0.0000000000000001
 21
1.0
 31
0.0
 73
     1
 44
1.0
1001
ACAD
1000
MTEXTBEGIN
1070
    73
1070
     1
1070
    44
1040
1.0
1070
    74
1070
     0
1000
MTEXTEND
  0
POINT
  5
173C7
330
15937
100
AcDbEntity
  8
DEFPOINTS
 62
     0
 48
50.0
100
AcDbPoint
 10
7274.375560876364
 20
9255.76645697979
 30
0.0
  0
POINT
  5
173C8
330
15937
100
AcDbEntity
  8
DEFPOINTS
 62
     0
 48
50.0
100
AcDbPoint
 10
7274.37556087634
 20
8415.766456979774
 30
0.0
  0
POINT
  5
173C9
330
15937
100
AcDbEntity
  8
DEFPOINTS
 62
     0
 48
50.0
100
AcDbPoint
 10
7921.801906610774
 20
8415.766456979774
 30
0.0
  0
ENDBLK
  5
15AE3
330
15937
100
AcDbEntity
  8
0
 48
50.0
100
AcDbBlockEnd
  0
BLOCK
  5
15AE4
330
15943
100
AcDbEntity
  8
0
 48
50.0
100
AcDbBlockBegin
  2
*D13
 70
     1
 10
0.0
 20
0.0
 30
0.0
  3
*D13
  1

  0
LINE
  5
173B8
330
15943
100
AcDbEntity
  8
寸法
 62
     0
 48
50.0
370
    -2
100
AcDbLine
 10
7294.375560876364
 20
9310.76645697979
 30
0.0
 11
8290.913437426452
 21
9310.76645697979
 31
0.0
  0
LINE
  5
173B9
330
15943
100
AcDbEntity
  8
寸法
 62
     0
 48
50.0
370
    -2
100
AcDbLine
 10
7294.375560876338
 20
8360.766456979774
 30
0.0
 11
8290.913437426452
 21
8360.766456979774
 31
0.0
  0
LINE
  5
173BA
330
15943
100
AcDbEntity
  8
寸法
 62
     0
 48
50.0
370
    -2
100
AcDbLine
 10
8230.913437426453
 20
9310.76645697979
 30
0.0
 11
8230.913437426453
 21
8360.766456979774
 31
0.0
  0
INSERT
  5
173BB
330
15943
100
AcDbEntity
  8
寸法
 62
     0
 48
50.0
370
    -2
100
AcDbBlockReference
  2
_DOTSMALL
 10
8230.913437426453
 20
9310.76645697979
 30
0.0
 41
100.0
 42
100.0
 43
100.0
 50
90.0
  0
INSERT
  5
173BC
330
15943
100
AcDbEntity
  8
寸法
 62
     0
 48
50.0
370
    -2
100
AcDbBlockReference
  2
_DOTSMALL
 10
8230.913437426453
 20
8360.766456979774
 30
0.0
 41
100.0
 42
100.0
 43
100.0
 50
270.0
  0
MTEXT
  5
173BD
330
15943
100
AcDbEntity
  8
寸法
 62
     7
 48
50.0
100
AcDbMText
 10
8130.913437426452
 20
8834.744175538693
 30
0.0
 40
120.0
 41
0.0
 71
     5
 72
     1
  1
\A1;950
  7
STYLE1
 11
0.0000000000000001
 21
1.0
 31
0.0
 73
     1
 44
1.0
1001
ACAD
1000
MTEXTBEGIN
1070
    73
1070
     1
1070
    44
1040
1.0
1070
    74
1070
     0
1000
MTEXTEND
  0
POINT
  5
173BE
330
15943
100
AcDbEntity
  8
DEFPOINTS
 62
     0
 48
50.0
100
AcDbPoint
 10
7274.375560876364
 20
9310.76645697979
 30
0.0
  0
POINT
  5
173BF
330
15943
100
AcDbEntity
  8
DEFPOINTS
 62
     0
 48
50.0
100
AcDbPoint
 10
7274.37556087634
 20
8360.766456979774
 30
0.0
  0
POINT
  5
173C0
330
15943
100
AcDbEntity
  8
DEFPOINTS
 62
     0
 48
50.0
100
AcDbPoint
 10
8230.913437426453
 20
8360.766456979774
 30
0.0
  0
ENDBLK
  5
15AEE
330
15943
100
AcDbEntity
  8
0
 48
50.0
100
AcDbBlockEnd
  0
BLOCK
  5
15B10
330
15973
100
AcDbEntity
  8
0
 48
50.0
100
AcDbBlockBegin
  2
*D14
 70
     1
 10
0.0
 20
0.0
 30
0.0
  3
*D14
  1

  0
LINE
  5
173AF
330
15973
100
AcDbEntity
  8
寸法
 62
     0
 48
50.0
370
    -2
100
AcDbLine
 10
6478.516577027673
 20
8811.266456979742
 30
0.0
 11
6409.105113036449
 21
8552.219346736759
 31
0.0
  0
LINE
  5
173B0
330
15973
100
AcDbEntity
  8
寸法
 62
     0
 48
50.0
370
    -2
100
AcDbLine
 10
7239.516577027686
 20
8811.266456979739
 30
0.0
 11
7170.105113036462
 21
8552.219346736759
 31
0.0
  0
LINE
  5
173B1
330
15973
100
AcDbEntity
  8
寸法
 62
     0
 48
50.0
370
    -2
100
AcDbLine
 10
6425.182064582317
 20
8612.219346736758
 30
0.0
 11
7186.18206458233
 21
8612.219346736758
 31
0.0
  0
INSERT
  5
173B2
330
15973
100
AcDbEntity
  8
寸法
 62
     0
 48
50.0
370
    -2
100
AcDbBlockReference
  2
_DOTSMALL
 10
6425.182064582317
 20
8612.219346736758
 30
0.0
 41
100.0
 42
100.0
 43
100.0
 50
180.0
  0
INSERT
  5
173B3
330
15973
100
AcDbEntity
  8
寸法
 62
     0
 48
50.0
370
    -2
100
AcDbBlockReference
  2
_DOTSMALL
 10
7186.18206458233
 20
8612.219346736758
 30
0.0
 41
100.0
 42
100.0
 43
100.0
  0
MTEXT
  5
173B4
330
15973
100
AcDbEntity
  8
寸法
 62
     7
 48
50.0
100
AcDbMText
 10
6863.222622994564
 20
8712.219346736757
 30
0.0
 40
120.0
 41
0.0
 71
     5
 72
     1
  1
\A1;761
  7
STYLE1
 73
     1
 44
1.0
1001
ACAD
1000
MTEXTBEGIN
1070
    73
1070
     1
1070
    44
1040
1.0
1070
    74
1070
     0
1000
MTEXTEND
  0
POINT
  5
173B5
330
15973
100
AcDbEntity
  8
DEFPOINTS
 62
     0
 48
50.0
100
AcDbPoint
 10
6483.875560876296
 20
8831.266456979742
 30
0.0
  0
POINT
  5
173B6
330
15973
100
AcDbEntity
  8
DEFPOINTS
 62
     0
 48
50.0
100
AcDbPoint
 10
7244.875560876308
 20
8831.266456979738
 30
0.0
  0
POINT
  5
173B7
330
15973
100
AcDbEntity
  8
DEFPOINTS
 62
     0
 48
50.0
100
AcDbPoint
 10
7186.18206458233
 20
8612.219346736758
 30
0.0
  0
ENDBLK
  5
15B1A
330
15973
100
AcDbEntity
  8
0
 48
50.0
100
AcDbBlockEnd
  0
BLOCK
  5
15B1B
330
1597F
100
AcDbEntity
  8
0
 48
50.0
100
AcDbBlockBegin
  2
*D15
 70
     1
 10
0.0
 20
0.0
 30
0.0
  3
*D15
  1

  0
LINE
  5
173A6
330
1597F
100
AcDbEntity
  8
寸法
 62
     0
 48
50.0
370
    -2
100
AcDbLine
 10
7264.875560876297
 20
9275.907473131111
 30
0.0
 11
7660.233286738321
 21
9169.971689764977
 31
0.0
  0
LINE
  5
173A7
330
1597F
100
AcDbEntity
  8
寸法
 62
     0
 48
50.0
370
    -2
100
AcDbLine
 10
7264.875560876297
 20
8825.907473131112
 30
0.0
 11
7660.233286738321
 21
8719.971689764978
 31
0.0
  0
LINE
  5
173A8
330
1597F
100
AcDbEntity
  8
寸法
 62
     0
 48
50.0
370
    -2
100
AcDbLine
 10
7600.233286738322
 20
9186.048641310845
 30
0.0
 11
7600.233286738322
 21
8736.048641310844
 31
0.0
  0
INSERT
  5
173A9
330
1597F
100
AcDbEntity
  8
寸法
 62
     0
 48
50.0
370
    -2
100
AcDbBlockReference
  2
_DOTSMALL
 10
7600.233286738322
 20
9186.048641310845
 30
0.0
 41
100.0
 42
100.0
 43
100.0
 50
90.0
  0
INSERT
  5
173AA
330
1597F
100
AcDbEntity
  8
寸法
 62
     0
 48
50.0
370
    -2
100
AcDbBlockReference
  2
_DOTSMALL
 10
7600.233286738322
 20
8736.048641310844
 30
0.0
 41
100.0
 42
100.0
 43
100.0
 50
270.0
  0
MTEXT
  5
173AB
330
1597F
100
AcDbEntity
  8
寸法
 62
     7
 48
50.0
100
AcDbMText
 10
7500.23328673832
 20
8961.048641310846
 30
0.0
 40
120.0
 41
0.0
 71
     5
 72
     1
  1
\A1;450
  7
STYLE1
 11
0.0000000000000001
 21
1.0
 31
0.0
 73
     1
 44
1.0
1001
ACAD
1000
MTEXTBEGIN
1070
    73
1070
     1
1070
    44
1040
1.0
1070
    74
1070
     0
1000
MTEXTEND
  0
POINT
  5
173AC
330
1597F
100
AcDbEntity
  8
DEFPOINTS
 62
     0
 48
50.0
100
AcDbPoint
 10
7244.875560876296
 20
9281.266456979734
 30
0.0
  0
POINT
  5
173AD
330
1597F
100
AcDbEntity
  8
DEFPOINTS
 62
     0
 48
50.0
100
AcDbPoint
 10
7244.875560876296
 20
8831.266456979735
 30
0.0
  0
POINT
  5
173AE
330
1597F
100
AcDbEntity
  8
DEFPOINTS
 62
     0
 48
50.0
100
AcDbPoint
 10
7600.233286738322
 20
8736.048641310844
 30
0.0
  0
ENDBLK
  5
15B25
330
1597F
100
AcDbEntity
  8
0
 48
50.0
100
AcDbBlockEnd
  0
BLOCK
  5
15B26
330
1598B
100
AcDbEntity
  8
0
 48
50.0
100
AcDbBlockBegin
  2
*D16
 70
     1
 10
0.0
 20
0.0
 30
0.0
  3
*D16
  1

  0
LINE
  5
1739D
330
1598B
100
AcDbEntity
  8
寸法
 62
     0
 48
50.0
370
    -2
100
AcDbLine
 10
4794.375560876339
 20
5391.07727689386
 30
0.0
 11
4436.271033268736
 21
5391.07727689386
 31
0.0
  0
LINE
  5
1739E
330
1598B
100
AcDbEntity
  8
寸法
 62
     0
 48
50.0
370
    -2
100
AcDbLine
 10
4794.375560876339
 20
3631.077276893865
 30
0.0
 11
4436.271033268736
 21
3631.077276893865
 31
0.0
  0
LINE
  5
1739F
330
1598B
100
AcDbEntity
  8
寸法
 62
     0
 48
50.0
370
    -2
100
AcDbLine
 10
4496.271033268736
 20
5391.07727689386
 30
0.0
 11
4496.271033268736
 21
3631.077276893865
 31
0.0
  0
INSERT
  5
173A0
330
1598B
100
AcDbEntity
  8
寸法
 62
     0
 48
50.0
370
    -2
100
AcDbBlockReference
  2
_DOTSMALL
 10
4496.271033268736
 20
5391.07727689386
 30
0.0
 41
100.0
 42
100.0
 43
100.0
 50
90.0
  0
INSERT
  5
173A1
330
1598B
100
AcDbEntity
  8
寸法
 62
     0
 48
50.0
370
    -2
100
AcDbBlockReference
  2
_DOTSMALL
 10
4496.271033268736
 20
3631.077276893865
 30
0.0
 41
100.0
 42
100.0
 43
100.0
 50
270.0
  0
MTEXT
  5
173A2
330
1598B
100
AcDbEntity
  8
寸法
 62
     7
 48
50.0
100
AcDbMText
 10
4396.271033268735
 20
4510.077276893862
 30
0.0
 40
120.0
 41
0.0
 71
     5
 72
     1
  1
\A1;有効開口部高サ1760
  7
STYLE1
 11
0.0000000000000001
 21
1.0
 31
0.0
 73
     1
 44
1.0
1001
ACAD
1000
MTEXTBEGIN
1070
    73
1070
     1
1070
    44
1040
1.0
1070
    74
1070
     0
1000
MTEXTEND
  0
POINT
  5
173A3
330
1598B
100
AcDbEntity
  8
DEFPOINTS
 62
     0
 48
50.0
100
AcDbPoint
 10
4814.37556087634
 20
5391.07727689386
 30
0.0
  0
POINT
  5
173A4
330
1598B
100
AcDbEntity
  8
DEFPOINTS
 62
     0
 48
50.0
100
AcDbPoint
 10
4814.37556087634
 20
3631.077276893865
 30
0.0
  0
POINT
  5
173A5
330
1598B
100
AcDbEntity
  8
DEFPOINTS
 62
     0
 48
50.0
100
AcDbPoint
 10
4496.271033268736
 20
3631.077276893865
 30
0.0
  0
ENDBLK
  5
15B30
330
1598B
100
AcDbEntity
  8
0
 48
50.0
100
AcDbBlockEnd
  0
BLOCK
  5
15CE6
330
15CDA
100
AcDbEntity
  8
0
 48
50.0
100
AcDbBlockBegin
  2
*D17
 70
     1
 10
0.0
 20
0.0
 30
0.0
  3
*D17
  1

  0
LINE
  5
17394
330
15CDA
100
AcDbEntity
  8
寸法
 62
     0
 48
50.0
370
    -2
100
AcDbLine
 10
5689.37556087636
 20
8340.766456979688
 30
0.0
 11
5689.37556087636
 21
7860.942789184609
 31
0.0
  0
LINE
  5
17395
330
15CDA
100
AcDbEntity
  8
寸法
 62
     0
 48
50.0
370
    -2
100
AcDbLine
 10
6374.375560876355
 20
8340.76645697965
 30
0.0
 11
6374.375560876355
 21
7860.942789184609
 31
0.0
  0
LINE
  5
17396
330
15CDA
100
AcDbEntity
  8
寸法
 62
     0
 48
50.0
370
    -2
100
AcDbLine
 10
5689.37556087636
 20
7920.942789184611
 30
0.0
 11
6374.375560876355
 21
7920.942789184611
 31
0.0
  0
INSERT
  5
17397
330
15CDA
100
AcDbEntity
  8
寸法
 62
     0
 48
50.0
370
    -2
100
AcDbBlockReference
  2
_DOTSMALL
 10
5689.37556087636
 20
7920.942789184611
 30
0.0
 41
100.0
 42
100.0
 43
100.0
 50
180.0
  0
INSERT
  5
17398
330
15CDA
100
AcDbEntity
  8
寸法
 62
     0
 48
50.0
370
    -2
100
AcDbBlockReference
  2
_DOTSMALL
 10
6374.375560876355
 20
7920.942789184611
 30
0.0
 41
100.0
 42
100.0
 43
100.0
  0
MTEXT
  5
17399
330
15CDA
100
AcDbEntity
  8
寸法
 62
     7
 48
50.0
100
AcDbMText
 10
6031.875560876359
 20
8020.94278918461
 30
0.0
 40
120.0
 41
0.0
 71
     5
 72
     1
  1
\A1;685
  7
STYLE1
 73
     1
 44
1.0
1001
ACAD
1000
MTEXTBEGIN
1070
    73
1070
     1
1070
    44
1040
1.0
1070
    74
1070
     0
1000
MTEXTEND
  0
POINT
  5
1739A
330
15CDA
100
AcDbEntity
  8
DEFPOINTS
 62
     0
 48
50.0
100
AcDbPoint
 10
5689.37556087636
 20
8360.766456979687
 30
0.0
  0
POINT
  5
1739B
330
15CDA
100
AcDbEntity
  8
DEFPOINTS
 62
     0
 48
50.0
100
AcDbPoint
 10
6374.375560876355
 20
8360.766456979652
 30
0.0
  0
POINT
  5
1739C
330
15CDA
100
AcDbEntity
  8
DEFPOINTS
 62
     0
 48
50.0
100
AcDbPoint
 10
6374.375560876355
 20
7920.942789184611
 30
0.0
  0
ENDBLK
  5
15CF0
330
15CDA
100
AcDbEntity
  8
0
 48
50.0
100
AcDbBlockEnd
  0
BLOCK
  5
15CF3
330
15CF2
100
AcDbEntity
  8
0
 48
50.0
100
AcDbBlockBegin
  2
*D18
 70
     1
 10
0.0
 20
0.0
 30
0.0
  3
*D18
  1

  0
LINE
  5
1738B
330
15CF2
100
AcDbEntity
  8
寸法
 62
     0
 48
50.0
370
    -2
100
AcDbLine
 10
4869.37556087636
 20
8340.766456979688
 30
0.0
 11
4869.37556087636
 21
7860.942789184609
 31
0.0
  0
LINE
  5
1738C
330
15CF2
100
AcDbEntity
  8
寸法
 62
     0
 48
50.0
370
    -2
100
AcDbLine
 10
5554.375560876356
 20
8340.76645697965
 30
0.0
 11
5554.375560876356
 21
7860.942789184609
 31
0.0
  0
LINE
  5
1738D
330
15CF2
100
AcDbEntity
  8
寸法
 62
     0
 48
50.0
370
    -2
100
AcDbLine
 10
4869.37556087636
 20
7920.942789184611
 30
0.0
 11
5554.375560876356
 21
7920.942789184611
 31
0.0
  0
INSERT
  5
1738E
330
15CF2
100
AcDbEntity
  8
寸法
 62
     0
 48
50.0
370
    -2
100
AcDbBlockReference
  2
_DOTSMALL
 10
4869.37556087636
 20
7920.942789184611
 30
0.0
 41
100.0
 42
100.0
 43
100.0
 50
180.0
  0
INSERT
  5
1738F
330
15CF2
100
AcDbEntity
  8
寸法
 62
     0
 48
50.0
370
    -2
100
AcDbBlockReference
  2
_DOTSMALL
 10
5554.375560876356
 20
7920.942789184611
 30
0.0
 41
100.0
 42
100.0
 43
100.0
  0
MTEXT
  5
17390
330
15CF2
100
AcDbEntity
  8
寸法
 62
     7
 48
50.0
100
AcDbMText
 10
5211.875560876358
 20
8020.94278918461
 30
0.0
 40
120.0
 41
0.0
 71
     5
 72
     1
  1
\A1;685
  7
STYLE1
 73
     1
 44
1.0
1001
ACAD
1000
MTEXTBEGIN
1070
    73
1070
     1
1070
    44
1040
1.0
1070
    74
1070
     0
1000
MTEXTEND
  0
POINT
  5
17391
330
15CF2
100
AcDbEntity
  8
DEFPOINTS
 62
     0
 48
50.0
100
AcDbPoint
 10
4869.37556087636
 20
8360.766456979687
 30
0.0
  0
POINT
  5
17392
330
15CF2
100
AcDbEntity
  8
DEFPOINTS
 62
     0
 48
50.0
100
AcDbPoint
 10
5554.375560876356
 20
8360.766456979652
 30
0.0
  0
POINT
  5
17393
330
15CF2
100
AcDbEntity
  8
DEFPOINTS
 62
     0
 48
50.0
100
AcDbPoint
 10
5554.375560876356
 20
7920.942789184611
 30
0.0
  0
ENDBLK
  5
15CFD
330
15CF2
100
AcDbEntity
  8
0
 48
50.0
100
AcDbBlockEnd
  0
BLOCK
  5
15D26
330
15D25
100
AcDbEntity
  8
0
 48
50.0
100
AcDbBlockBegin
  2
*D19
 70
     1
 10
0.0
 20
0.0
 30
0.0
  3
*D19
  1

  0
LINE
  5
17382
330
15D25
100
AcDbEntity
  8
寸法
 62
     0
 48
50.0
370
    -2
100
AcDbLine
 10
5658.516577027674
 20
8811.266456979742
 30
0.0
 11
5589.105113036449
 21
8552.219346736759
 31
0.0
  0
LINE
  5
17383
330
15D25
100
AcDbEntity
  8
寸法
 62
     0
 48
50.0
370
    -2
100
AcDbLine
 10
6419.516577027685
 20
8811.266456979739
 30
0.0
 11
6350.105113036462
 21
8552.219346736759
 31
0.0
  0
LINE
  5
17384
330
15D25
100
AcDbEntity
  8
寸法
 62
     0
 48
50.0
370
    -2
100
AcDbLine
 10
5605.182064582317
 20
8612.219346736758
 30
0.0
 11
6366.18206458233
 21
8612.219346736758
 31
0.0
  0
INSERT
  5
17385
330
15D25
100
AcDbEntity
  8
寸法
 62
     0
 48
50.0
370
    -2
100
AcDbBlockReference
  2
_DOTSMALL
 10
5605.182064582317
 20
8612.219346736758
 30
0.0
 41
100.0
 42
100.0
 43
100.0
 50
180.0
  0
INSERT
  5
17386
330
15D25
100
AcDbEntity
  8
寸法
 62
     0
 48
50.0
370
    -2
100
AcDbBlockReference
  2
_DOTSMALL
 10
6366.18206458233
 20
8612.219346736758
 30
0.0
 41
100.0
 42
100.0
 43
100.0
  0
MTEXT
  5
17387
330
15D25
100
AcDbEntity
  8
寸法
 62
     7
 48
50.0
100
AcDbMText
 10
6043.222622994565
 20
8712.219346736757
 30
0.0
 40
120.0
 41
0.0
 71
     5
 72
     1
  1
\A1;761
  7
STYLE1
 73
     1
 44
1.0
1001
ACAD
1000
MTEXTBEGIN
1070
    73
1070
     1
1070
    44
1040
1.0
1070
    74
1070
     0
1000
MTEXTEND
  0
POINT
  5
17388
330
15D25
100
AcDbEntity
  8
DEFPOINTS
 62
     0
 48
50.0
100
AcDbPoint
 10
5663.875560876295
 20
8831.266456979742
 30
0.0
  0
POINT
  5
17389
330
15D25
100
AcDbEntity
  8
DEFPOINTS
 62
     0
 48
50.0
100
AcDbPoint
 10
6424.875560876308
 20
8831.266456979738
 30
0.0
  0
POINT
  5
1738A
330
15D25
100
AcDbEntity
  8
DEFPOINTS
 62
     0
 48
50.0
100
AcDbPoint
 10
6366.18206458233
 20
8612.219346736758
 30
0.0
  0
ENDBLK
  5
15D30
330
15D25
100
AcDbEntity
  8
0
 48
50.0
100
AcDbBlockEnd
  0
BLOCK
  5
15D33
330
15D32
100
AcDbEntity
  8
0
 48
50.0
100
AcDbBlockBegin
  2
*D20
 70
     1
 10
0.0
 20
0.0
 30
0.0
  3
*D20
  1

  0
LINE
  5
17379
330
15D32
100
AcDbEntity
  8
寸法
 62
     0
 48
50.0
370
    -2
100
AcDbLine
 10
4838.516577027673
 20
8811.266456979742
 30
0.0
 11
4769.105113036449
 21
8552.219346736759
 31
0.0
  0
LINE
  5
1737A
330
15D32
100
AcDbEntity
  8
寸法
 62
     0
 48
50.0
370
    -2
100
AcDbLine
 10
5599.516577027685
 20
8811.266456979739
 30
0.0
 11
5530.105113036462
 21
8552.219346736759
 31
0.0
  0
LINE
  5
1737B
330
15D32
100
AcDbEntity
  8
寸法
 62
     0
 48
50.0
370
    -2
100
AcDbLine
 10
4785.182064582317
 20
8612.219346736758
 30
0.0
 11
5546.18206458233
 21
8612.219346736758
 31
0.0
  0
INSERT
  5
1737C
330
15D32
100
AcDbEntity
  8
寸法
 62
     0
 48
50.0
370
    -2
100
AcDbBlockReference
  2
_DOTSMALL
 10
4785.182064582317
 20
8612.219346736758
 30
0.0
 41
100.0
 42
100.0
 43
100.0
 50
180.0
  0
INSERT
  5
1737D
330
15D32
100
AcDbEntity
  8
寸法
 62
     0
 48
50.0
370
    -2
100
AcDbBlockReference
  2
_DOTSMALL
 10
5546.18206458233
 20
8612.219346736758
 30
0.0
 41
100.0
 42
100.0
 43
100.0
  0
MTEXT
  5
1737E
330
15D32
100
AcDbEntity
  8
寸法
 62
     7
 48
50.0
100
AcDbMText
 10
5223.222622994565
 20
8712.219346736757
 30
0.0
 40
120.0
 41
0.0
 71
     5
 72
     1
  1
\A1;761
  7
STYLE1
 73
     1
 44
1.0
1001
ACAD
1000
MTEXTBEGIN
1070
    73
1070
     1
1070
    44
1040
1.0
1070
    74
1070
     0
1000
MTEXTEND
  0
POINT
  5
1737F
330
15D32
100
AcDbEntity
  8
DEFPOINTS
 62
     0
 48
50.0
100
AcDbPoint
 10
4843.875560876296
 20
8831.266456979742
 30
0.0
  0
POINT
  5
17380
330
15D32
100
AcDbEntity
  8
DEFPOINTS
 62
     0
 48
50.0
100
AcDbPoint
 10
5604.875560876308
 20
8831.266456979738
 30
0.0
  0
POINT
  5
17381
330
15D32
100
AcDbEntity
  8
DEFPOINTS
 62
     0
 48
50.0
100
AcDbPoint
 10
5546.18206458233
 20
8612.219346736758
 30
0.0
  0
ENDBLK
  5
15D3D
330
15D32
100
AcDbEntity
  8
0
 48
50.0
100
AcDbBlockEnd
  0
BLOCK
  5
15E1A
330
15E19
100
AcDbEntity
  8
0
100
AcDbBlockBegin
  2
_OPEN
 70
     0
 10
0.0
 20
0.0
 30
0.0
  3
_OPEN
  1

  0
LINE
  5
15E1B
330
15E19
100
AcDbEntity
  8
0
  6
ByBlock
 62
     0
100
AcDbLine
 10
-1.0
 20
0.1666666666666666
 30
0.0
 11
0.0
 21
0.0
 31
0.0
  0
LINE
  5
15E1C
330
15E19
100
AcDbEntity
  8
0
  6
ByBlock
 62
     0
100
AcDbLine
 10
0.0
 20
0.0
 30
0.0
 11
-1.0
 21
-0.1666666666666666
 31
0.0
  0
LINE
  5
15E1D
330
15E19
100
AcDbEntity
  8
0
  6
ByBlock
 62
     0
100
AcDbLine
 10
0.0
 20
0.0
 30
0.0
 11
-1.0
 21
0.0
 31
0.0
  0
ENDBLK
  5
15E1E
330
15E19
100
AcDbEntity
  8
0
100
AcDbBlockEnd
  0
BLOCK
  5
15E20
330
15E1F
100
AcDbEntity
  8
0
 48
50.0
100
AcDbBlockBegin
  2
_DOT
 70
     0
 10
0.0
 20
0.0
 30
0.0
  3
_DOT
  1

  0
LWPOLYLINE
  5
15E21
330
15E1F
100
AcDbEntity
  8
0
  6
ByBlock
 62
     0
 48
50.0
100
AcDbPolyline
 90
        2
 70
     1
 43
0.5
 10
-0.25
 20
0.0
 42
1.0
 10
0.25
 20
0.0
 42
1.0
  0
LINE
  5
15E22
330
15E1F
100
AcDbEntity
  8
0
  6
ByBlock
 62
     0
 48
50.0
100
AcDbLine
 10
-0.5
 20
0.0
 30
0.0
 11
-1.0
 21
0.0
 31
0.0
  0
ENDBLK
  5
15E23
330
15E1F
100
AcDbEntity
  8
0
 48
50.0
100
AcDbBlockEnd
  0
BLOCK
  5
170B9
330
170AD
100
AcDbEntity
  8
0
 48
50.0
100
AcDbBlockBegin
  2
*D23
 70
     1
 10
0.0
 20
0.0
 30
0.0
  3
*D23
  1

  0
LINE
  5
1730E
330
170AD
100
AcDbEntity
  8
寸法
 62
     0
 48
50.0
370
    -2
100
AcDbLine
 10
4814.375560876339
 20
5664.577276893869
 30
0.0
 11
4814.375560876339
 21
5917.118862152106
 31
0.0
  0
LINE
  5
1730F
330
170AD
100
AcDbEntity
  8
寸法
 62
     0
 48
50.0
370
    -2
100
AcDbLine
 10
4764.375560876338
 20
5664.577276893867
 30
0.0
 11
4764.375560876338
 21
5917.118862152106
 31
0.0
  0
LINE
  5
17310
330
170AD
100
AcDbEntity
  8
寸法
 62
     0
 48
50.0
370
    -2
100
AcDbLine
 10
4814.375560876339
 20
5857.118862152105
 30
0.0
 11
4914.375560876338
 21
5857.118862152105
 31
0.0
  0
LINE
  5
17311
330
170AD
100
AcDbEntity
  8
寸法
 62
     0
 48
50.0
370
    -2
100
AcDbLine
 10
4764.375560876338
 20
5857.118862152105
 30
0.0
 11
4344.843035407603
 21
5857.118862152105
 31
0.0
  0
LINE
  5
17312
330
170AD
100
AcDbEntity
  8
寸法
 62
     0
 48
50.0
370
    -2
100
AcDbLine
 10
4814.375560876339
 20
5857.118862152105
 30
0.0
 11
4764.375560876338
 21
5857.118862152105
 31
0.0
  0
INSERT
  5
17313
330
170AD
100
AcDbEntity
  8
寸法
 62
     0
 48
50.0
370
    -2
100
AcDbBlockReference
  2
_DOTSMALL
 10
4814.375560876339
 20
5857.118862152105
 30
0.0
 41
100.0
 42
100.0
 43
100.0
 50
180.0
  0
INSERT
  5
17314
330
170AD
100
AcDbEntity
  8
寸法
 62
     0
 48
50.0
370
    -2
100
AcDbBlockReference
  2
_DOTSMALL
 10
4764.375560876338
 20
5857.118862152105
 30
0.0
 41
100.0
 42
100.0
 43
100.0
  0
MTEXT
  5
17315
330
170AD
100
AcDbEntity
  8
寸法
 62
     7
 48
50.0
100
AcDbMText
 10
4450.890279502091
 20
5957.118862152106
 30
0.0
 40
120.0
 41
0.0
 71
     5
 72
     1
  1
\A1;50
  7
STYLE1
 73
     1
 44
1.0
1001
ACAD
1000
MTEXTBEGIN
1070
    73
1070
     1
1070
    44
1040
1.0
1070
    74
1070
     0
1000
MTEXTEND
  0
POINT
  5
17316
330
170AD
100
AcDbEntity
  8
DEFPOINTS
 62
     0
 48
50.0
100
AcDbPoint
 10
4814.375560876339
 20
5644.577276893869
 30
0.0
  0
POINT
  5
17317
330
170AD
100
AcDbEntity
  8
DEFPOINTS
 62
     0
 48
50.0
100
AcDbPoint
 10
4764.375560876338
 20
5644.577276893866
 30
0.0
  0
POINT
  5
17318
330
170AD
100
AcDbEntity
  8
DEFPOINTS
 62
     0
 48
50.0
100
AcDbPoint
 10
4764.375560876338
 20
5857.118862152105
 30
0.0
  0
ENDBLK
  5
170BA
330
170AD
100
AcDbEntity
  8
0
 48
50.0
100
AcDbBlockEnd
  0
BLOCK
  5
170C5
330
170BB
100
AcDbEntity
  8
0
 48
50.0
100
AcDbBlockBegin
  2
*D24
 70
     1
 10
0.0
 20
0.0
 30
0.0
  3
*D24
  1

  0
LINE
  5
17319
330
170BB
100
AcDbEntity
  8
寸法
 62
     0
 48
50.0
370
    -2
100
AcDbLine
 10
7274.375560876342
 20
5664.577276893864
 30
0.0
 11
7274.375560876342
 21
5917.118862152106
 31
0.0
  0
LINE
  5
1731A
330
170BB
100
AcDbEntity
  8
寸法
 62
     0
 48
50.0
370
    -2
100
AcDbLine
 10
4814.375560876339
 20
5664.577276893869
 30
0.0
 11
4814.375560876339
 21
5917.118862152106
 31
0.0
  0
LINE
  5
1731B
330
170BB
100
AcDbEntity
  8
寸法
 62
     0
 48
50.0
370
    -2
100
AcDbLine
 10
7274.375560876342
 20
5857.118862152105
 30
0.0
 11
4814.375560876339
 21
5857.118862152105
 31
0.0
  0
INSERT
  5
1731C
330
170BB
100
AcDbEntity
  8
寸法
 62
     0
 48
50.0
370
    -2
100
AcDbBlockReference
  2
_DOTSMALL
 10
7274.375560876342
 20
5857.118862152105
 30
0.0
 41
100.0
 42
100.0
 43
100.0
  0
INSERT
  5
1731D
330
170BB
100
AcDbEntity
  8
寸法
 62
     0
 48
50.0
370
    -2
100
AcDbBlockReference
  2
_DOTSMALL
 10
4814.375560876339
 20
5857.118862152105
 30
0.0
 41
100.0
 42
100.0
 43
100.0
 50
180.0
  0
MTEXT
  5
1731E
330
170BB
100
AcDbEntity
  8
寸法
 62
     7
 48
50.0
100
AcDbMText
 10
6044.37556087634
 20
5957.130673175727
 30
0.0
 40
120.0
 41
0.0
 71
     5
 72
     1
  1
\A1;柱外寸法2460
  7
STYLE1
 73
     1
 44
1.0
1001
ACAD
1000
MTEXTBEGIN
1070
    73
1070
     1
1070
    44
1040
1.0
1070
    74
1070
     0
1000
MTEXTEND
  0
POINT
  5
1731F
330
170BB
100
AcDbEntity
  8
DEFPOINTS
 62
     0
 48
50.0
100
AcDbPoint
 10
7274.375560876342
 20
5644.577276893864
 30
0.0
  0
POINT
  5
17320
330
170BB
100
AcDbEntity
  8
DEFPOINTS
 62
     0
 48
50.0
100
AcDbPoint
 10
4814.375560876339
 20
5644.577276893869
 30
0.0
  0
POINT
  5
17321
330
170BB
100
AcDbEntity
  8
DEFPOINTS
 62
     0
 48
50.0
100
AcDbPoint
 10
4814.375560876339
 20
5857.118862152105
 30
0.0
  0
ENDBLK
  5
170C6
330
170BB
100
AcDbEntity
  8
0
 48
50.0
100
AcDbBlockEnd
  0
BLOCK
  5
170D1
330
170C7
100
AcDbEntity
  8
0
 48
50.0
100
AcDbBlockBegin
  2
*D25
 70
     1
 10
0.0
 20
0.0
 30
0.0
  3
*D25
  1

  0
LINE
  5
17322
330
170C7
100
AcDbEntity
  8
寸法
 62
     0
 48
50.0
370
    -2
100
AcDbLine
 10
4764.375560876338
 20
5664.577276893867
 30
0.0
 11
4764.375560876338
 21
6140.075840589954
 31
0.0
  0
LINE
  5
17323
330
170C7
100
AcDbEntity
  8
寸法
 62
     0
 48
50.0
370
    -2
100
AcDbLine
 10
7324.375560876342
 20
5664.577276893862
 30
0.0
 11
7324.375560876342
 21
6140.075840589954
 31
0.0
  0
LINE
  5
17324
330
170C7
100
AcDbEntity
  8
寸法
 62
     0
 48
50.0
370
    -2
100
AcDbLine
 10
4764.375560876338
 20
6080.075840589954
 30
0.0
 11
7324.375560876342
 21
6080.075840589954
 31
0.0
  0
INSERT
  5
17325
330
170C7
100
AcDbEntity
  8
寸法
 62
     0
 48
50.0
370
    -2
100
AcDbBlockReference
  2
_DOTSMALL
 10
4764.375560876338
 20
6080.075840589954
 30
0.0
 41
100.0
 42
100.0
 43
100.0
 50
180.0
  0
INSERT
  5
17326
330
170C7
100
AcDbEntity
  8
寸法
 62
     0
 48
50.0
370
    -2
100
AcDbBlockReference
  2
_DOTSMALL
 10
7324.375560876342
 20
6080.075840589954
 30
0.0
 41
100.0
 42
100.0
 43
100.0
  0
MTEXT
  5
17327
330
170C7
100
AcDbEntity
  8
寸法
 62
     7
 48
50.0
100
AcDbMText
 10
6044.37556087634
 20
6180.087651613575
 30
0.0
 40
120.0
 41
0.0
 71
     5
 72
     1
  1
\A1;2560
  7
STYLE1
 73
     1
 44
1.0
1001
ACAD
1000
MTEXTBEGIN
1070
    73
1070
     1
1070
    44
1040
1.0
1070
    74
1070
     0
1000
MTEXTEND
  0
POINT
  5
17328
330
170C7
100
AcDbEntity
  8
DEFPOINTS
 62
     0
 48
50.0
100
AcDbPoint
 10
4764.375560876338
 20
5644.577276893866
 30
0.0
  0
POINT
  5
17329
330
170C7
100
AcDbEntity
  8
DEFPOINTS
 62
     0
 48
50.0
100
AcDbPoint
 10
7324.375560876342
 20
5644.577276893862
 30
0.0
  0
POINT
  5
1732A
330
170C7
100
AcDbEntity
  8
DEFPOINTS
 62
     0
 48
50.0
100
AcDbPoint
 10
7324.375560876342
 20
6080.075840589954
 30
0.0
  0
ENDBLK
  5
170D2
330
170C7
100
AcDbEntity
  8
0
 48
50.0
100
AcDbBlockEnd
  0
BLOCK
  5
17107
330
170FB
100
AcDbEntity
  8
0
 48
50.0
100
AcDbBlockBegin
  2
*D26
 70
     1
 10
0.0
 20
0.0
 30
0.0
  3
*D26
  1

  0
LINE
  5
17303
330
170FB
100
AcDbEntity
  8
寸法
 62
     0
 48
50.0
370
    -2
100
AcDbLine
 10
7324.375560876342
 20
5664.577276893862
 30
0.0
 11
7324.375560876342
 21
5917.118862152103
 31
0.0
  0
LINE
  5
17304
330
170FB
100
AcDbEntity
  8
寸法
 62
     0
 48
50.0
370
    -2
100
AcDbLine
 10
7274.375560876342
 20
5664.577276893864
 30
0.0
 11
7274.375560876342
 21
5917.118862152103
 31
0.0
  0
LINE
  5
17305
330
170FB
100
AcDbEntity
  8
寸法
 62
     0
 48
50.0
370
    -2
100
AcDbLine
 10
7274.375560876342
 20
5857.118862152103
 30
0.0
 11
7174.375560876342
 21
5857.118862152103
 31
0.0
  0
LINE
  5
17306
330
170FB
100
AcDbEntity
  8
寸法
 62
     0
 48
50.0
370
    -2
100
AcDbLine
 10
7324.375560876342
 20
5857.118862152103
 30
0.0
 11
7743.908086345067
 21
5857.118862152103
 31
0.0
  0
LINE
  5
17307
330
170FB
100
AcDbEntity
  8
寸法
 62
     0
 48
50.0
370
    -2
100
AcDbLine
 10
7274.375560876342
 20
5857.118862152103
 30
0.0
 11
7324.375560876342
 21
5857.118862152103
 31
0.0
  0
INSERT
  5
17308
330
170FB
100
AcDbEntity
  8
寸法
 62
     0
 48
50.0
370
    -2
100
AcDbBlockReference
  2
_DOTSMALL
 10
7274.375560876342
 20
5857.118862152103
 30
0.0
 41
100.0
 42
100.0
 43
100.0
  0
INSERT
  5
17309
330
170FB
100
AcDbEntity
  8
寸法
 62
     0
 48
50.0
370
    -2
100
AcDbBlockReference
  2
_DOTSMALL
 10
7324.375560876342
 20
5857.118862152103
 30
0.0
 41
100.0
 42
100.0
 43
100.0
 50
180.0
  0
MTEXT
  5
1730A
330
170FB
100
AcDbEntity
  8
寸法
 62
     7
 48
50.0
100
AcDbMText
 10
7637.860842250579
 20
5957.118862152103
 30
0.0
 40
120.0
 41
0.0
 71
     5
 72
     1
  1
\A1;50
  7
STYLE1
 73
     1
 44
1.0
1001
ACAD
1000
MTEXTBEGIN
1070
    73
1070
     1
1070
    44
1040
1.0
1070
    74
1070
     0
1000
MTEXTEND
  0
POINT
  5
1730B
330
170FB
100
AcDbEntity
  8
DEFPOINTS
 62
     0
 48
50.0
100
AcDbPoint
 10
7324.375560876342
 20
5644.577276893862
 30
0.0
  0
POINT
  5
1730C
330
170FB
100
AcDbEntity
  8
DEFPOINTS
 62
     0
 48
50.0
100
AcDbPoint
 10
7274.375560876342
 20
5644.577276893864
 30
0.0
  0
POINT
  5
1730D
330
170FB
100
AcDbEntity
  8
DEFPOINTS
 62
     0
 48
50.0
100
AcDbPoint
 10
7274.375560876342
 20
5857.118862152103
 30
0.0
  0
ENDBLK
  5
17108
330
170FB
100
AcDbEntity
  8
0
 48
50.0
100
AcDbBlockEnd
  0
BLOCK
  5
17A9F
330
17A93
100
AcDbEntity
  8
0
 48
50.0
100
AcDbBlockBegin
  2
*D27
 70
     1
 10
0.0
 20
0.0
 30
0.0
  3
*D27
  1

  0
LINE
  5
17C19
330
17A93
100
AcDbEntity
  8
寸法
 62
     0
 48
50.0
370
    -2
100
AcDbLine
 10
9634.245103391943
 20
3619.577276893864
 30
0.0
 11
8999.284382744518
 21
3619.577276893865
 31
0.0
  0
LINE
  5
17C1A
330
17A93
100
AcDbEntity
  8
寸法
 62
     0
 48
50.0
370
    -2
100
AcDbLine
 10
9586.247473436721
 20
3569.577276893863
 30
0.0
 11
8999.284382744518
 21
3569.577276893863
 31
0.0
  0
LINE
  5
17C1B
330
17A93
100
AcDbEntity
  8
寸法
 62
     0
 48
50.0
370
    -2
100
AcDbLine
 10
9059.284382744518
 20
3619.577276893865
 30
0.0
 11
9059.284382744518
 21
3719.577276893865
 31
0.0
  0
LINE
  5
17C1C
330
17A93
100
AcDbEntity
  8
寸法
 62
     0
 48
50.0
370
    -2
100
AcDbLine
 10
9059.284382744518
 20
3569.577276893863
 30
0.0
 11
9059.284382744518
 21
3157.482788704883
 31
0.0
  0
LINE
  5
17C1D
330
17A93
100
AcDbEntity
  8
寸法
 62
     0
 48
50.0
370
    -2
100
AcDbLine
 10
9059.284382744518
 20
3619.577276893865
 30
0.0
 11
9059.284382744518
 21
3569.577276893863
 31
0.0
  0
INSERT
  5
17C1E
330
17A93
100
AcDbEntity
  8
寸法
 62
     0
 48
50.0
370
    -2
100
AcDbBlockReference
  2
_DOTSMALL
 10
9059.284382744518
 20
3619.577276893865
 30
0.0
 41
100.0
 42
100.0
 43
100.0
 50
270.0
  0
INSERT
  5
17C1F
330
17A93
100
AcDbEntity
  8
寸法
 62
     0
 48
50.0
370
    -2
100
AcDbBlockReference
  2
_DOTSMALL
 10
9059.284382744518
 20
3569.577276893863
 30
0.0
 41
100.0
 42
100.0
 43
100.0
 50
90.0
  0
MTEXT
  5
17C20
330
17A93
100
AcDbEntity
  8
寸法
 62
     7
 48
50.0
100
AcDbMText
 10
8959.284382744518
 20
3263.530032799372
 30
0.0
 40
120.0
 41
0.0
 71
     5
 72
     1
  1
\A1;50
  7
STYLE1
 11
0.0000000000000001
 21
1.0
 31
0.0
 73
     1
 44
1.0
1001
ACAD
1000
MTEXTBEGIN
1070
    73
1070
     1
1070
    44
1040
1.0
1070
    74
1070
     0
1000
MTEXTEND
  0
POINT
  5
17C21
330
17A93
100
AcDbEntity
  8
DEFPOINTS
 62
     0
 48
50.0
100
AcDbPoint
 10
9654.245103391943
 20
3619.577276893864
 30
0.0
  0
POINT
  5
17C22
330
17A93
100
AcDbEntity
  8
DEFPOINTS
 62
     0
 48
50.0
100
AcDbPoint
 10
9606.247473436722
 20
3569.577276893863
 30
0.0
  0
POINT
  5
17C23
330
17A93
100
AcDbEntity
  8
DEFPOINTS
 62
     0
 48
50.0
100
AcDbPoint
 10
9059.284382744518
 20
3569.577276893863
 30
0.0
  0
ENDBLK
  5
17AA0
330
17A93
100
AcDbEntity
  8
0
 48
50.0
100
AcDbBlockEnd
  0
BLOCK
  5
17AEB
330
17AE1
100
AcDbEntity
  8
0
 48
50.0
100
AcDbBlockBegin
  2
*D29
 70
     1
 10
0.0
 20
0.0
 30
0.0
  3
*D29
  1

  0
LINE
  5
17C07
330
17AE1
100
AcDbEntity
  8
寸法
 62
     0
 48
50.0
370
    -2
100
AcDbLine
 10
10631.24747343672
 20
3569.57727689386
 30
0.0
 11
11181.65601137055
 21
3569.57727689386
 31
0.0
  0
LINE
  5
17C08
330
17AE1
100
AcDbEntity
  8
寸法
 62
     0
 48
50.0
370
    -2
100
AcDbLine
 10
10711.24747343673
 20
5589.57727689386
 30
0.0
 11
11181.65601137055
 21
5589.57727689386
 31
0.0
  0
LINE
  5
17C09
330
17AE1
100
AcDbEntity
  8
寸法
 62
     0
 48
50.0
370
    -2
100
AcDbLine
 10
11141.65601137055
 20
3589.577276893861
 30
0.0
 11
11141.65601137055
 21
5569.57727689386
 31
0.0
  0
INSERT
  5
17C0A
330
17AE1
100
AcDbEntity
  8
寸法
 62
     0
 48
50.0
370
    -2
100
AcDbBlockReference
  2
_DOT
 10
11141.65601137055
 20
3569.57727689386
 30
0.0
 41
20.0
 42
20.0
 43
20.0
 50
270.0
  0
INSERT
  5
17C0B
330
17AE1
100
AcDbEntity
  8
寸法
 62
     0
 48
50.0
370
    -2
100
AcDbBlockReference
  2
_DOT
 10
11141.65601137055
 20
5589.57727689386
 30
0.0
 41
20.0
 42
20.0
 43
20.0
 50
90.0
  0
MTEXT
  5
17C0C
330
17AE1
100
AcDbEntity
  8
寸法
 62
     7
 48
50.0
100
AcDbMText
 10
11049.64420034693
 20
4521.501672958286
 30
0.0
 40
120.0
 41
0.0
 71
     5
 72
     1
  1
\A1;2020
  7
STYLE1
 11
0.0000000000000001
 21
1.0
 31
0.0
 73
     1
 44
1.0
1001
ACAD
1000
MTEXTBEGIN
1070
    73
1070
     1
1070
    44
1040
1.0
1070
    74
1070
     0
1000
MTEXTEND
  0
POINT
  5
17C0D
330
17AE1
100
AcDbEntity
  8
DEFPOINTS
 62
     0
 48
50.0
100
AcDbPoint
 10
10611.24747343672
 20
3569.57727689386
 30
0.0
  0
POINT
  5
17C0E
330
17AE1
100
AcDbEntity
  8
DEFPOINTS
 62
     0
 48
50.0
100
AcDbPoint
 10
10691.24747343673
 20
5589.57727689386
 30
0.0
  0
POINT
  5
17C0F
330
17AE1
100
AcDbEntity
  8
DEFPOINTS
 62
     0
 48
50.0
100
AcDbPoint
 10
11141.65601137055
 20
5589.57727689386
 30
0.0
  0
ENDBLK
  5
17AEC
330
17AE1
100
AcDbEntity
  8
0
 48
50.0
100
AcDbBlockEnd
  0
BLOCK
  5
17AF8
330
17AED
100
AcDbEntity
  8
0
 48
50.0
100
AcDbBlockBegin
  2
*D30
 70
     1
 10
0.0
 20
0.0
 30
0.0
  3
*D30
  1

  0
LINE
  5
17BFD
330
17AED
100
AcDbEntity
  8
寸法
 62
     0
 48
50.0
370
    -2
100
AcDbLine
 10
10611.24747343672
 20
5611.387956505514
 30
0.0
 11
10611.24747343672
 21
6103.234730473165
 31
0.0
  0
LINE
  5
17BFE
330
17AED
100
AcDbEntity
  8
寸法
 62
     0
 48
50.0
370
    -2
100
AcDbLine
 10
10691.24747343672
 20
5609.577276893862
 30
0.0
 11
10691.24747343672
 21
6103.234730473165
 31
0.0
  0
LINE
  5
17BFF
330
17AED
100
AcDbEntity
  8
寸法
 62
     0
 48
50.0
370
    -2
100
AcDbLine
 10
10611.24747343672
 20
6043.234730473165
 30
0.0
 11
10691.24747343672
 21
6043.234730473165
 31
0.0
  0
LINE
  5
17C00
330
17AED
100
AcDbEntity
  8
寸法
 62
     0
 48
50.0
370
    -2
100
AcDbLine
 10
10691.24747343672
 20
6043.234730473165
 30
0.0
 11
11003.3419616257
 21
6043.234730473165
 31
0.0
  0
INSERT
  5
17C01
330
17AED
100
AcDbEntity
  8
寸法
 62
     0
 48
50.0
370
    -2
100
AcDbBlockReference
  2
_DOTSMALL
 10
10611.24747343672
 20
6043.234730473165
 30
0.0
 41
100.0
 42
100.0
 43
100.0
 50
180.0
  0
INSERT
  5
17C02
330
17AED
100
AcDbEntity
  8
寸法
 62
     0
 48
50.0
370
    -2
100
AcDbBlockReference
  2
_DOTSMALL
 10
10691.24747343672
 20
6043.234730473165
 30
0.0
 41
100.0
 42
100.0
 43
100.0
  0
MTEXT
  5
17C03
330
17AED
100
AcDbEntity
  8
寸法
 62
     7
 48
50.0
100
AcDbMText
 10
10897.29471753121
 20
6143.234730473165
 30
0.0
 40
120.0
 41
0.0
 71
     5
 72
     1
  1
\A1;80
  7
STYLE1
 73
     1
 44
1.0
1001
ACAD
1000
MTEXTBEGIN
1070
    73
1070
     1
1070
    44
1040
1.0
1070
    74
1070
     0
1000
MTEXTEND
  0
POINT
  5
17C04
330
17AED
100
AcDbEntity
  8
DEFPOINTS
 62
     0
 48
50.0
100
AcDbPoint
 10
10611.24747343672
 20
5591.387956505514
 30
0.0
  0
POINT
  5
17C05
330
17AED
100
AcDbEntity
  8
DEFPOINTS
 62
     0
 48
50.0
100
AcDbPoint
 10
10691.24747343672
 20
5589.577276893862
 30
0.0
  0
POINT
  5
17C06
330
17AED
100
AcDbEntity
  8
DEFPOINTS
 62
     0
 48
50.0
100
AcDbPoint
 10
10691.24747343672
 20
6043.234730473165
 30
0.0
  0
ENDBLK
  5
17AF9
330
17AED
100
AcDbEntity
  8
0
 48
50.0
100
AcDbBlockEnd
  0
BLOCK
  5
17B04
330
17AFA
100
AcDbEntity
  8
0
 48
50.0
100
AcDbBlockBegin
  2
*D31
 70
     1
 10
0.0
 20
0.0
 30
0.0
  3
*D31
  1

  0
LINE
  5
17BF4
330
17AFA
100
AcDbEntity
  8
寸法
 62
     0
 48
50.0
370
    -2
100
AcDbLine
 10
10691.24747343672
 20
5609.577276893862
 30
0.0
 11
10691.24747343672
 21
6337.937939113255
 31
0.0
  0
LINE
  5
17BF5
330
17AFA
100
AcDbEntity
  8
寸法
 62
     0
 48
50.0
370
    -2
100
AcDbLine
 10
9601.247473436721
 20
5664.577276893866
 30
0.0
 11
9601.247473436721
 21
6337.937939113255
 31
0.0
  0
LINE
  5
17BF6
330
17AFA
100
AcDbEntity
  8
寸法
 62
     0
 48
50.0
370
    -2
100
AcDbLine
 10
10691.24747343672
 20
6277.937939113255
 30
0.0
 11
9601.247473436721
 21
6277.937939113255
 31
0.0
  0
INSERT
  5
17BF7
330
17AFA
100
AcDbEntity
  8
寸法
 62
     0
 48
50.0
370
    -2
100
AcDbBlockReference
  2
_DOTSMALL
 10
10691.24747343672
 20
6277.937939113255
 30
0.0
 41
100.0
 42
100.0
 43
100.0
  0
INSERT
  5
17BF8
330
17AFA
100
AcDbEntity
  8
寸法
 62
     0
 48
50.0
370
    -2
100
AcDbBlockReference
  2
_DOTSMALL
 10
9601.247473436721
 20
6277.937939113255
 30
0.0
 41
100.0
 42
100.0
 43
100.0
 50
180.0
  0
MTEXT
  5
17BF9
330
17AFA
100
AcDbEntity
  8
寸法
 62
     7
 48
50.0
100
AcDbMText
 10
10148.16443385108
 20
6377.937939113255
 30
0.0
 40
120.0
 41
0.0
 71
     5
 72
     1
  1
\A1;1090
  7
STYLE1
 73
     1
 44
1.0
1001
ACAD
1000
MTEXTBEGIN
1070
    73
1070
     1
1070
    44
1040
1.0
1070
    74
1070
     0
1000
MTEXTEND
  0
POINT
  5
17BFA
330
17AFA
100
AcDbEntity
  8
DEFPOINTS
 62
     0
 48
50.0
100
AcDbPoint
 10
10691.24747343672
 20
5589.577276893862
 30
0.0
  0
POINT
  5
17BFB
330
17AFA
100
AcDbEntity
  8
DEFPOINTS
 62
     0
 48
50.0
100
AcDbPoint
 10
9601.247473436721
 20
5644.577276893866
 30
0.0
  0
POINT
  5
17BFC
330
17AFA
100
AcDbEntity
  8
DEFPOINTS
 62
     0
 48
50.0
100
AcDbPoint
 10
9601.247473436721
 20
6277.937939113255
 30
0.0
  0
ENDBLK
  5
17B05
330
17AFA
100
AcDbEntity
  8
0
 48
50.0
100
AcDbBlockEnd
  0
BLOCK
  5
17B10
330
17B06
100
AcDbEntity
  8
0
 48
50.0
100
AcDbBlockBegin
  2
*D32
 70
     1
 10
0.0
 20
0.0
 30
0.0
  3
*D32
  1

  0
LINE
  5
17BEB
330
17B06
100
AcDbEntity
  8
寸法
 62
     0
 48
50.0
370
    -2
100
AcDbLine
 10
10611.24747343672
 20
5611.387956505514
 30
0.0
 11
10611.24747343672
 21
6103.234730473165
 31
0.0
  0
LINE
  5
17BEC
330
17B06
100
AcDbEntity
  8
寸法
 62
     0
 48
50.0
370
    -2
100
AcDbLine
 10
9661.247473436722
 20
5660.578895016837
 30
0.0
 11
9661.247473436722
 21
6103.234730473165
 31
0.0
  0
LINE
  5
17BED
330
17B06
100
AcDbEntity
  8
寸法
 62
     0
 48
50.0
370
    -2
100
AcDbLine
 10
10611.24747343672
 20
6043.234730473165
 30
0.0
 11
9661.247473436722
 21
6043.234730473165
 31
0.0
  0
INSERT
  5
17BEE
330
17B06
100
AcDbEntity
  8
寸法
 62
     0
 48
50.0
370
    -2
100
AcDbBlockReference
  2
_DOTSMALL
 10
10611.24747343672
 20
6043.234730473165
 30
0.0
 41
100.0
 42
100.0
 43
100.0
  0
INSERT
  5
17BEF
330
17B06
100
AcDbEntity
  8
寸法
 62
     0
 48
50.0
370
    -2
100
AcDbBlockReference
  2
_DOTSMALL
 10
9661.247473436722
 20
6043.234730473165
 30
0.0
 41
100.0
 42
100.0
 43
100.0
 50
180.0
  0
MTEXT
  5
17BF0
330
17B06
100
AcDbEntity
  8
寸法
 62
     7
 48
50.0
100
AcDbMText
 10
10157.95927566761
 20
6143.234730473165
 30
0.0
 40
120.0
 41
0.0
 71
     5
 72
     1
  1
\A1;柱外寸法950
  7
STYLE1
 73
     1
 44
1.0
1001
ACAD
1000
MTEXTBEGIN
1070
    73
1070
     1
1070
    44
1040
1.0
1070
    74
1070
     0
1000
MTEXTEND
  0
POINT
  5
17BF1
330
17B06
100
AcDbEntity
  8
DEFPOINTS
 62
     0
 48
50.0
100
AcDbPoint
 10
10611.24747343672
 20
5591.387956505514
 30
0.0
  0
POINT
  5
17BF2
330
17B06
100
AcDbEntity
  8
DEFPOINTS
 62
     0
 48
50.0
100
AcDbPoint
 10
9661.247473436722
 20
5640.578895016837
 30
0.0
  0
POINT
  5
17BF3
330
17B06
100
AcDbEntity
  8
DEFPOINTS
 62
     0
 48
50.0
100
AcDbPoint
 10
9661.247473436722
 20
6043.234730473165
 30
0.0
  0
ENDBLK
  5
17B11
330
17B06
100
AcDbEntity
  8
0
 48
50.0
100
AcDbBlockEnd
  0
BLOCK
  5
17B1E
330
17B12
100
AcDbEntity
  8
0
 48
50.0
100
AcDbBlockBegin
  2
*D33
 70
     1
 10
0.0
 20
0.0
 30
0.0
  3
*D33
  1

  0
LINE
  5
17BE0
330
17B12
100
AcDbEntity
  8
寸法
 62
     0
 48
50.0
370
    -2
100
AcDbLine
 10
9661.247473436722
 20
5660.578895016837
 30
0.0
 11
9661.247473436722
 21
6103.234730473165
 31
0.0
  0
LINE
  5
17BE1
330
17B12
100
AcDbEntity
  8
寸法
 62
     0
 48
50.0
370
    -2
100
AcDbLine
 10
9601.247473436721
 20
5664.577276893866
 30
0.0
 11
9601.247473436721
 21
6103.234730473165
 31
0.0
  0
LINE
  5
17BE2
330
17B12
100
AcDbEntity
  8
寸法
 62
     0
 48
50.0
370
    -2
100
AcDbLine
 10
9661.247473436722
 20
6043.234730473165
 30
0.0
 11
9761.247473436721
 21
6043.234730473165
 31
0.0
  0
LINE
  5
17BE3
330
17B12
100
AcDbEntity
  8
寸法
 62
     0
 48
50.0
370
    -2
100
AcDbLine
 10
9601.247473436721
 20
6043.234730473165
 30
0.0
 11
9181.971882885539
 21
6043.234730473165
 31
0.0
  0
LINE
  5
17BE4
330
17B12
100
AcDbEntity
  8
寸法
 62
     0
 48
50.0
370
    -2
100
AcDbLine
 10
9661.247473436722
 20
6043.234730473165
 30
0.0
 11
9601.247473436721
 21
6043.234730473165
 31
0.0
  0
INSERT
  5
17BE5
330
17B12
100
AcDbEntity
  8
寸法
 62
     0
 48
50.0
370
    -2
100
AcDbBlockReference
  2
_DOTSMALL
 10
9661.247473436722
 20
6043.234730473165
 30
0.0
 41
100.0
 42
100.0
 43
100.0
 50
180.0
  0
INSERT
  5
17BE6
330
17B12
100
AcDbEntity
  8
寸法
 62
     0
 48
50.0
370
    -2
100
AcDbBlockReference
  2
_DOTSMALL
 10
9601.247473436721
 20
6043.234730473165
 30
0.0
 41
100.0
 42
100.0
 43
100.0
  0
MTEXT
  5
17BE7
330
17B12
100
AcDbEntity
  8
寸法
 62
     7
 48
50.0
100
AcDbMText
 10
9291.60967816113
 20
6143.234730473165
 30
0.0
 40
120.0
 41
0.0
 71
     5
 72
     1
  1
\A1;60
  7
STYLE1
 73
     1
 44
1.0
1001
ACAD
1000
MTEXTBEGIN
1070
    73
1070
     1
1070
    44
1040
1.0
1070
    74
1070
     0
1000
MTEXTEND
  0
POINT
  5
17BE8
330
17B12
100
AcDbEntity
  8
DEFPOINTS
 62
     0
 48
50.0
100
AcDbPoint
 10
9661.247473436722
 20
5640.578895016837
 30
0.0
  0
POINT
  5
17BE9
330
17B12
100
AcDbEntity
  8
DEFPOINTS
 62
     0
 48
50.0
100
AcDbPoint
 10
9601.247473436721
 20
5644.577276893866
 30
0.0
  0
POINT
  5
17BEA
330
17B12
100
AcDbEntity
  8
DEFPOINTS
 62
     0
 48
50.0
100
AcDbPoint
 10
9601.247473436721
 20
6043.234730473165
 30
0.0
  0
ENDBLK
  5
17B1F
330
17B12
100
AcDbEntity
  8
0
 48
50.0
100
AcDbBlockEnd
  0
BLOCK
  5
17B2B
330
17B20
100
AcDbEntity
  8
0
 48
50.0
100
AcDbBlockBegin
  2
*D34
 70
     1
 10
0.0
 20
0.0
 30
0.0
  3
*D34
  1

  0
LINE
  5
17BD6
330
17B20
100
AcDbEntity
  8
寸法
 62
     0
 48
50.0
370
    -2
100
AcDbLine
 10
9600.651759727824
 20
5643.874983963523
 30
0.0
 11
8984.717320622552
 21
5661.589134237852
 31
0.0
  0
LINE
  5
17BD7
330
17B20
100
AcDbEntity
  8
寸法
 62
     0
 48
50.0
370
    -2
100
AcDbLine
 10
9596.598304171198
 20
5502.93326019781
 30
0.0
 11
8980.663865065926
 21
5520.647410472139
 31
0.0
  0
LINE
  5
17BD8
330
17B20
100
AcDbEntity
  8
寸法
 62
     0
 48
50.0
370
    -2
100
AcDbLine
 10
9040.639066668356
 20
5518.922535767192
 30
0.0
 11
9044.692522224982
 21
5659.864259532905
 31
0.0
  0
LINE
  5
17BD9
330
17B20
100
AcDbEntity
  8
寸法
 62
     0
 48
50.0
370
    -2
100
AcDbLine
 10
9044.692522224982
 20
5659.864259532905
 30
0.0
 11
9055.041770454668
 21
6019.715469147491
 31
0.0
  0
INSERT
  5
17BDA
330
17B20
100
AcDbEntity
  8
寸法
 62
     0
 48
50.0
370
    -2
100
AcDbBlockReference
  2
_DOTSMALL
 10
9040.639066668356
 20
5518.922535767192
 30
0.0
 41
100.0
 42
100.0
 43
100.0
 50
268.3526390256378
  0
INSERT
  5
17BDB
330
17B20
100
AcDbEntity
  8
寸法
 62
     0
 48
50.0
370
    -2
100
AcDbBlockReference
  2
_DOTSMALL
 10
9044.692522224982
 20
5659.864259532905
 30
0.0
 41
100.0
 42
100.0
 43
100.0
 50
88.35263902563776
  0
MTEXT
  5
17BDC
330
17B20
100
AcDbEntity
  8
寸法
 62
     7
 48
50.0
100
AcDbMText
 10
8951.345872589897
 20
5892.643990183803
 30
0.0
 40
120.0
 41
0.0
 71
     5
 72
     1
  1
\A1;141
  7
STYLE1
 11
0.0287479117491237
 21
0.9995866933738486
 31
0.0
 73
     1
 44
1.0
1001
ACAD
1000
MTEXTBEGIN
1070
    73
1070
     1
1070
    44
1040
1.0
1070
    74
1070
     0
1000
MTEXTEND
  0
POINT
  5
17BDD
330
17B20
100
AcDbEntity
  8
DEFPOINTS
 62
     0
 48
50.0
100
AcDbPoint
 10
9620.6434935953
 20
5643.300025728541
 30
0.0
  0
POINT
  5
17BDE
330
17B20
100
AcDbEntity
  8
DEFPOINTS
 62
     0
 48
50.0
100
AcDbPoint
 10
9616.590038038674
 20
5502.358301962827
 30
0.0
  0
POINT
  5
17BDF
330
17B20
100
AcDbEntity
  8
DEFPOINTS
 62
     0
 48
50.0
100
AcDbPoint
 10
9040.639066668356
 20
5518.922535767192
 30
0.0
  0
ENDBLK
  5
17B2C
330
17B20
100
AcDbEntity
  8
0
 48
50.0
100
AcDbBlockEnd
  0
BLOCK
  5
17B37
330
17B2D
100
AcDbEntity
  8
0
 48
50.0
100
AcDbBlockBegin
  2
*D35
 70
     1
 10
0.0
 20
0.0
 30
0.0
  3
*D35
  1

  0
LINE
  5
17BCD
330
17B2D
100
AcDbEntity
  8
寸法
 62
     0
 48
50.0
370
    -2
100
AcDbLine
 10
9641.24747343672
 20
3569.57727689386
 30
0.0
 11
8739.65359528143
 21
3569.577276893861
 31
0.0
  0
LINE
  5
17BCE
330
17B2D
100
AcDbEntity
  8
寸法
 62
     0
 48
50.0
370
    -2
100
AcDbLine
 10
9581.247473436723
 20
5644.577276893866
 30
0.0
 11
8739.653595281431
 21
5644.577276893866
 31
0.0
  0
LINE
  5
17BCF
330
17B2D
100
AcDbEntity
  8
寸法
 62
     0
 48
50.0
370
    -2
100
AcDbLine
 10
8799.65359528143
 20
3569.577276893861
 30
0.0
 11
8799.653595281432
 21
5644.577276893866
 31
0.0
  0
INSERT
  5
17BD0
330
17B2D
100
AcDbEntity
  8
寸法
 62
     0
 48
50.0
370
    -2
100
AcDbBlockReference
  2
_DOTSMALL
 10
8799.65359528143
 20
3569.577276893861
 30
0.0
 41
100.0
 42
100.0
 43
100.0
 50
270.0
  0
INSERT
  5
17BD1
330
17B2D
100
AcDbEntity
  8
寸法
 62
     0
 48
50.0
370
    -2
100
AcDbBlockReference
  2
_DOTSMALL
 10
8799.653595281432
 20
5644.577276893866
 30
0.0
 41
100.0
 42
100.0
 43
100.0
 50
90.0
  0
MTEXT
  5
17BD2
330
17B2D
100
AcDbEntity
  8
寸法
 62
     7
 48
50.0
100
AcDbMText
 10
8699.641784257808
 20
4597.155906173022
 30
0.0
 40
120.0
 41
0.0
 71
     5
 72
     1
  1
\A1;2075
  7
STYLE1
 11
0.0000000000000001
 21
1.0
 31
0.0
 73
     1
 44
1.0
1001
ACAD
1000
MTEXTBEGIN
1070
    73
1070
     1
1070
    44
1040
1.0
1070
    74
1070
     0
1000
MTEXTEND
  0
POINT
  5
17BD3
330
17B2D
100
AcDbEntity
  8
DEFPOINTS
 62
     0
 48
50.0
100
AcDbPoint
 10
9661.247473436722
 20
3569.57727689386
 30
0.0
  0
POINT
  5
17BD4
330
17B2D
100
AcDbEntity
  8
DEFPOINTS
 62
     0
 48
50.0
100
AcDbPoint
 10
9601.247473436725
 20
5644.577276893866
 30
0.0
  0
POINT
  5
17BD5
330
17B2D
100
AcDbEntity
  8
DEFPOINTS
 62
     0
 48
50.0
100
AcDbPoint
 10
8799.653595281432
 20
5644.577276893866
 30
0.0
  0
ENDBLK
  5
17B38
330
17B2D
100
AcDbEntity
  8
0
 48
50.0
100
AcDbBlockEnd
  0
BLOCK
  5
17C47
330
17C45
100
AcDbEntity
  8
0
 48
50.0
100
AcDbBlockBegin
  2
A$C234373F2
 70
     0
 10
0.0
 20
0.0
 30
0.0
  3
A$C234373F2
  1

  0
TEXT
  5
17C46
330
17C45
100
AcDbEntity
  8
文字
 62
     7
 48
50.0
100
AcDbText
 10
-1705.259705948188
 20
-361.7472729270812
 30
0.0
 40
100.0
  1
～一般型・多雪地型～
  7
STYLE2
100
AcDbText
  0
ENDBLK
  5
17C48
330
17C45
100
AcDbEntity
  8
0
 48
50.0
100
AcDbBlockEnd
  0
BLOCK
  5
17EFE
330
17EFD
100
AcDbEntity
  8
0
 48
50.0
100
AcDbBlockBegin
  2
*D38
 70
     1
 10
0.0
 20
0.0
 30
0.0
  3
*D38
  1

  0
LINE
  5
17F09
330
17EFD
100
AcDbEntity
  8
寸法
 62
     0
370
    -2
100
AcDbLine
 10
9641.24747343672
 20
5409.577276893862
 30
0.0
 11
8999.284382744519
 21
5409.577276893862
 31
0.0
  0
LINE
  5
17F0A
330
17EFD
100
AcDbEntity
  8
寸法
 62
     0
370
    -2
100
AcDbLine
 10
9634.245103391943
 20
3619.577276893864
 30
0.0
 11
8999.284382744518
 21
3619.577276893865
 31
0.0
  0
LINE
  5
17F0B
330
17EFD
100
AcDbEntity
  8
寸法
 62
     0
370
    -2
100
AcDbLine
 10
9059.28438274452
 20
5409.577276893862
 30
0.0
 11
9059.284382744518
 21
3619.577276893865
 31
0.0
  0
INSERT
  5
17F0C
330
17EFD
100
AcDbEntity
  8
寸法
 62
     0
370
    -2
100
AcDbBlockReference
  2
_DOTSMALL
 10
9059.28438274452
 20
5409.577276893862
 30
0.0
 41
100.0
 42
100.0
 43
100.0
 50
90.0
  0
INSERT
  5
17F0D
330
17EFD
100
AcDbEntity
  8
寸法
 62
     0
370
    -2
100
AcDbBlockReference
  2
_DOTSMALL
 10
9059.284382744518
 20
3619.577276893865
 30
0.0
 41
100.0
 42
100.0
 43
100.0
 50
270.0
  0
MTEXT
  5
17F0E
330
17EFD
100
AcDbEntity
  8
寸法
 62
     7
100
AcDbMText
 10
8959.284382744518
 20
4524.612288770249
 30
0.0
 40
120.0
 41
0.0
 71
     5
 72
     1
  1
\A1;1790
  7
STYLE1
 11
0.0000000000000001
 21
1.0
 31
0.0
 73
     1
 44
1.0
1001
ACAD
1000
MTEXTBEGIN
1070
    73
1070
     1
1070
    44
1040
1.0
1070
    74
1070
     0
1000
MTEXTEND
  0
POINT
  5
17F0F
330
17EFD
100
AcDbEntity
  8
DEFPOINTS
 62
     0
100
AcDbPoint
 10
9661.247473436722
 20
5409.577276893862
 30
0.0
  0
POINT
  5
17F10
330
17EFD
100
AcDbEntity
  8
DEFPOINTS
 62
     0
100
AcDbPoint
 10
9654.245103391943
 20
3619.577276893864
 30
0.0
  0
POINT
  5
17F11
330
17EFD
100
AcDbEntity
  8
DEFPOINTS
 62
     0
100
AcDbPoint
 10
9059.284382744518
 20
3619.577276893865
 30
0.0
  0
ENDBLK
  5
17EFF
330
17EFD
100
AcDbEntity
  8
0
 48
50.0
100
AcDbBlockEnd
  0
ENDSEC
  0
SECTION
  2
ENTITIES
  0
LINE
  5
10B56
330
747D
100
AcDbEntity
  8
補助
  6
PHANTOM
 62
   230
 48
50.0
100
AcDbLine
 10
140.0
 20
0.0
 30
0.0
 11
139.9999999999995
 21
11409.6
 31
0.0
  0
LINE
  5
10B57
330
747D
100
AcDbEntity
  8
補助
  6
PHANTOM
 62
   230
 48
50.0
100
AcDbLine
 10
139.9999999999995
 20
11409.6
 30
0.0
 11
16307.2
 21
11409.6
 31
0.0
  0
LINE
  5
10B59
330
747D
100
AcDbEntity
  8
仕様書枠
  6
Continuous
 48
50.0
100
AcDbLine
 10
13107.2
 20
1200.0
 30
0.0
 11
13107.2
 21
-0.0000000000000729
 31
0.0
  0
LINE
  5
10B5C
330
747D
100
AcDbEntity
  8
仕様書枠
 48
50.0
100
AcDbLine
 10
16307.2
 20
1200.0
 30
0.0
 11
16307.2
 21
-0.0000000000000909
 31
0.0
  0
LINE
  5
10B5D
330
747D
100
AcDbEntity
  8
仕様書枠
 48
50.0
100
AcDbLine
 10
140.0
 20
0.0
 30
0.0
 11
16307.2
 21
-0.0000000000000909
 31
0.0
  0
LINE
  5
10B5E
330
747D
100
AcDbEntity
  8
補助
  6
PHANTOM
 62
   230
 48
50.0
100
AcDbLine
 10
16307.2
 20
11409.6
 30
0.0
 11
16307.2
 21
1200.0
 31
0.0
  0
LINE
  5
10B6C
330
747D
100
AcDbEntity
  8
仕様書枠
 48
50.0
100
AcDbLine
 10
13107.2
 20
1200.0
 30
0.0
 11
16307.2
 21
1200.0
 31
0.0
  0
LINE
  5
10B6D
330
747D
100
AcDbEntity
  8
補助
  6
PHANTOM
 62
   230
 48
50.0
100
AcDbLine
 10
13107.2
 20
11409.6
 30
0.0
 11
13107.2
 21
4800.0
 31
0.0
  0
LINE
  5
10B6F
330
747D
100
AcDbEntity
  8
補助
  6
PHANTOM
 62
   230
 48
50.0
100
AcDbLine
 10
13107.2
 20
4800.0
 30
0.0
 11
16307.2
 21
4800.0
 31
0.0
  0
LINE
  5
10B72
330
747D
100
AcDbEntity
  8
文字
 62
     7
 48
50.0
100
AcDbLine
 10
13187.2
 20
400.0
 30
0.0
 11
16227.2
 21
400.0
 31
0.0
  0
TEXT
  5
10B73
330
747D
100
AcDbEntity
  8
文字
 62
     7
 48
50.0
100
AcDbText
 10
13162.9790565769
 20
895.0906074299405
 30
0.0
 40
200.0
  1
外 形 図
  7
STYLE2
100
AcDbText
  0
TEXT
  5
10B74
330
747D
100
AcDbEntity
  8
文字
 62
     7
 48
50.0
100
AcDbText
 10
13201.43669998441
 20
477.2740661031255
 30
0.0
 40
160.0
  1
機種名
  7
STYLE2
100
AcDbText
  0
TEXT
  5
10B75
330
747D
100
AcDbEntity
  8
文字
 62
     7
 48
50.0
100
AcDbText
 10
13209.4053442172
 20
228.5435242569016
 30
0.0
 40
100.0
  1
○有効開口寸法 ： 685\U+00D71760(mm)
  7
STYLE2
100
AcDbText
  0
TEXT
  5
10B76
330
747D
100
AcDbEntity
  8
文字
 62
     7
 48
50.0
100
AcDbText
 10
13209.4053442172
 20
76.09434707649343
 30
0.0
 40
100.0
  1
○床面積 ： 2.34㎡(0.71坪) 　
  7
STYLE2
100
AcDbText
  0
LINE
  5
10B7B
330
747D
100
AcDbEntity
  8
仕様書枠
 48
50.0
100
AcDbLine
 10
13107.2
 20
800.0
 30
0.0
 11
14251.2
 21
800.0
 31
0.0
  0
LINE
  5
10B88
330
747D
100
AcDbEntity
  8
仕様書枠
  6
Continuous
 48
50.0
100
AcDbLine
 10
14251.2
 20
1200.0
 30
0.0
 11
14251.2
 21
800.0
 31
0.0
  0
TEXT
  5
10EA8
330
747D
100
AcDbEntity
  8
文字
 62
     7
 48
50.0
100
AcDbText
 10
14251.2
 20
838.2527270729188
 30
0.0
 40
100.0
  1
～一般型・多雪地型・豪雪地型～
  7
STYLE2
100
AcDbText
  0
LINE
  5
13A41
330
747D
100
AcDbEntity
  8
Ｇ．Ｌ
100
AcDbLine
 10
3903.003154314116
 20
3469.57727689386
 30
0.0
 11
11483.32853394827
 21
3469.577276893861
 31
0.0
  0
TEXT
  5
13A63
330
747D
100
AcDbEntity
  8
部品1
100
AcDbText
 10
3922.481243684939
 20
3505.684180499763
 30
0.0
 40
125.0
  1
▽G.L
  7
STYLE2
100
AcDbText
  0
TEXT
  5
14E82
330
747D
100
AcDbEntity
  8
部品1
100
AcDbText
 10
5759.758227934426
 20
6830.294238961444
 30
0.0
 40
135.0
  1
平面図
  7
STYLE2
100
AcDbText
  0
LWPOLYLINE
  5
14E83
330
747D
100
AcDbEntity
  8
部品1
100
AcDbPolyline
 90
        4
 70
     1
 43
0.0
 10
5669.838618105388
 20
7023.18776817997
 10
5669.838618105388
 20
6783.295446634435
 10
6433.309284333829
 20
6783.295446634435
 10
6433.309284333829
 20
7023.18776817997
  0
LINE
  5
1566C
330
747D
100
AcDbEntity
  8
部品1
100
AcDbLine
 10
4842.375560876364
 20
9282.766456979695
 30
0.0
 11
5631.756263894986
 21
9282.766456979716
 31
0.0
  0
LINE
  5
1566D
330
747D
100
AcDbEntity
  8
細線
 48
50.0
100
AcDbLine
 10
5604.875567553992
 20
8831.266456979802
 30
0.0
 11
4843.875567553992
 21
9281.266456979754
 31
0.0
  0
LINE
  5
1566E
330
747D
100
AcDbEntity
  8
部品1
100
AcDbLine
 10
4843.875567553994
 20
8831.266456979752
 30
0.0
 11
5604.875567553992
 21
8831.266456979802
 31
0.0
  0
LINE
  5
1566F
330
747D
100
AcDbEntity
  8
細線
 48
50.0
100
AcDbLine
 10
5604.875567553993
 20
9281.266456979803
 30
0.0
 11
4843.875567553994
 21
8831.266456979752
 31
0.0
  0
LINE
  5
15670
330
747D
100
AcDbEntity
  8
部品1
100
AcDbLine
 10
4843.875567553992
 20
9281.266456979754
 30
0.0
 11
5604.875567553993
 21
9281.266456979803
 31
0.0
  0
LINE
  5
15671
330
747D
100
AcDbEntity
  8
部品1
100
AcDbLine
 10
5685.375560876357
 20
8360.76645697968
 30
0.0
 11
4814.375560876356
 21
8360.766456979652
 31
0.0
  0
LINE
  5
15672
330
747D
100
AcDbEntity
  8
部品1
 48
5.0
100
AcDbLine
 10
4857.375560876357
 20
8390.266456979615
 30
0.0
 11
5610.375560876359
 21
8390.266456979672
 31
0.0
  0
DIMENSION
  5
15673
330
747D
100
AcDbEntity
  8
寸法
 48
50.0
100
AcDbDimension
  2
*D1
 10
7194.375560876356
 20
7920.942789184611
 30
0.0
 11
6851.875560876358
 21
7920.942789184611
 31
0.0
 70
   160
  1
有効開口部間口\P<>
 71
     5
 42
684.9999999999954
  3
INABA_S40G
100
AcDbAlignedDimension
 13
6509.37556087636
 23
8360.766456979687
 33
0.0
 14
7194.375560876356
 24
8360.766456979652
 34
0.0
100
AcDbRotatedDimension
  0
LINE
  5
15674
330
747D
100
AcDbEntity
  8
部品1
100
AcDbLine
 10
5589.375560876356
 20
8386.766456979746
 30
0.0
 11
4859.375560876356
 21
8386.766456979716
 31
0.0
  0
LINE
  5
15675
330
747D
100
AcDbEntity
  8
破線
 48
10.0
100
AcDbLine
 10
5555.37556087635
 20
8515.76645697972
 30
0.0
 11
4894.375560876349
 21
8515.766456979703
 31
0.0
  0
LINE
  5
15676
330
747D
100
AcDbEntity
  8
部品1
100
AcDbLine
 10
5578.876131324522
 20
8492.265876159775
 30
0.0
 11
4870.876532302752
 21
8492.265374671253
 31
0.0
  0
ARC
  5
15678
330
747D
100
AcDbEntity
  8
想像線
 48
10.0
100
AcDbCircle
 10
5582.023510199197
 20
8362.461350355301
 30
0.0
 40
722.6499369155582
100
AcDbArc
 50
180.1343808685482
 51
270.5829222700354
  0
LINE
  5
15679
330
747D
100
AcDbEntity
  8
部品1
100
AcDbLine
 10
4814.375560876364
 20
9310.766456979694
 30
0.0
 11
7274.375560876364
 21
9310.76645697979
 31
0.0
  0
LINE
  5
1567A
330
747D
100
AcDbEntity
  8
部品1
100
AcDbLine
 10
7274.37556087634
 20
8360.766456979774
 30
0.0
 11
4814.375560876356
 21
8360.76645697968
 31
0.0
  0
DIMENSION
  5
1567B
330
747D
100
AcDbEntity
  8
寸法
100
AcDbDimension
  2
*D2
 10
7274.37556087634
 20
7373.664582119542
 30
0.0
 11
6044.375560876347
 21
7373.664582119542
 31
0.0
 70
   160
 71
     5
 42
2459.999999999982
  3
INABA_S40G
100
AcDbAlignedDimension
 13
4814.375560876356
 23
8360.766456979614
 33
0.0
 14
7274.37556087634
 24
8360.766456979744
 34
0.0
100
AcDbRotatedDimension
1001
ACAD
1000
DSTYLE
1002
{
1002
}
  0
DIMENSION
  5
1567C
330
747D
100
AcDbEntity
  8
寸法
100
AcDbDimension
  2
*D3
 10
5579.375560876362
 20
9526.574676604793
 30
0.0
 11
5224.625560876362
 21
9526.574676604793
 31
0.0
 70
   160
 71
     5
 42
709.9999999999981
  3
INABA_S40G
100
AcDbAlignedDimension
 13
4869.375560876363
 23
9310.766456979724
 33
0.0
 14
5579.375560876362
 24
9310.766456979811
 34
0.0
100
AcDbRotatedDimension
1001
ACAD
1000
DSTYLE
1002
{
1002
}
  0
DIMENSION
  5
1567D
330
747D
100
AcDbEntity
  8
寸法
100
AcDbDimension
  2
*D4
 10
4869.375560876363
 20
9526.574676604676
 30
0.0
 11
4505.890279502089
 21
9526.574676604676
 31
0.0
 70
   160
 71
     5
 42
55.00000000003637
  3
INABA_S40G
100
AcDbAlignedDimension
 13
4814.375560876328
 23
9310.766456979694
 33
0.0
 14
4869.375560876363
 24
9310.766456979694
 34
0.0
100
AcDbRotatedDimension
1001
ACAD
1000
DSTYLE
1002
{
1002
}
  0
LINE
  5
1567E
330
747D
100
AcDbEntity
  8
部品1
100
AcDbLine
 10
4842.375560876338
 20
8415.766456979644
 30
0.0
 11
4842.375560876364
 21
9282.766456979695
 31
0.0
  0
LINE
  5
1567F
330
747D
100
AcDbEntity
  8
部品1
100
AcDbLine
 10
4814.375560876328
 20
9310.766456979658
 30
0.0
 11
4814.375560876356
 21
8360.766456979652
 31
0.0
  0
LINE
  5
15680
330
747D
100
AcDbEntity
  8
破線
 48
10.0
100
AcDbLine
 10
4894.375625801065
 20
8831.266456979703
 30
0.0
 11
4894.375560876349
 21
8515.766456979703
 31
0.0
  0
LINE
  5
15681
330
747D
100
AcDbEntity
  8
部品1
 48
5.0
100
AcDbLine
 10
4870.876532301321
 20
8492.266456979789
 30
0.0
 11
4870.87603937001
 21
8831.266456979703
 31
0.0
  0
LINE
  5
15682
330
747D
100
AcDbEntity
  8
部品1
 48
2.83
100
AcDbLine
 10
4857.375560876357
 20
8390.266456979615
 30
0.0
 11
4857.375560876357
 21
8360.766456979614
 31
0.0
  0
LINE
  5
15685
330
747D
100
AcDbEntity
  8
部品1
100
AcDbLine
 10
4859.375560876356
 20
8386.766456979716
 30
0.0
 11
4859.375560876356
 21
8360.76645697968
 31
0.0
  0
LINE
  5
15686
330
747D
100
AcDbEntity
  8
部品1
 48
2.83
100
AcDbLine
 10
4857.375560876357
 20
8360.766456979614
 30
0.0
 11
4814.375560876356
 21
8360.766456979614
 31
0.0
  0
LINE
  5
15687
330
747D
100
AcDbEntity
  8
部品1
 48
2.83
100
AcDbLine
 10
4869.375560876356
 20
8415.766456979614
 30
0.0
 11
4869.37556087636
 21
8390.266456979615
 31
0.0
  0
LINE
  5
15688
330
747D
100
AcDbEntity
  8
部品1
100
AcDbLine
 10
4842.375560876355
 20
8415.766456979659
 30
0.0
 11
4814.375560876355
 21
8415.766456979659
 31
0.0
  0
LINE
  5
15689
330
747D
100
AcDbEntity
  8
部品1
100
AcDbLine
 10
4842.375560876338
 20
8415.766456979644
 30
0.0
 11
4814.375560876355
 21
8415.766456979644
 31
0.0
  0
LINE
  5
1568A
330
747D
100
AcDbEntity
  8
部品1
100
AcDbLine
 10
4842.375560876338
 20
8415.766456979614
 30
0.0
 11
4814.375560876355
 21
8415.766456979614
 31
0.0
  0
LINE
  5
1568B
330
747D
100
AcDbEntity
  8
部品1
 48
2.83
100
AcDbLine
 10
4814.375560876356
 20
8415.766456979614
 30
0.0
 11
4837.375560876356
 21
8415.766456979614
 31
0.0
  0
LINE
  5
1568C
330
747D
100
AcDbEntity
  8
部品1
 48
2.83
100
AcDbLine
 10
4846.375560876357
 20
8415.766456979614
 30
0.0
 11
4869.375560876356
 21
8415.766456979614
 31
0.0
  0
LINE
  5
1568D
330
747D
100
AcDbEntity
  8
部品1
 48
50.0
100
AcDbLine
 10
4870.876532302752
 20
8492.265374671253
 30
0.0
 11
4842.375560876338
 21
8463.246203738789
 31
0.0
  0
LINE
  5
1568E
330
747D
100
AcDbEntity
  8
部品1
 48
50.0
100
AcDbLine
 10
4843.875567553992
 20
9281.266456979754
 30
0.0
 11
4843.875567553994
 21
8831.266456979752
 31
0.0
  0
LINE
  5
1568F
330
747D
100
AcDbEntity
  8
部品1
100
AcDbLine
 10
4842.375560876338
 20
8835.766456979659
 30
0.0
 11
4814.375560876339
 21
8835.766456979659
 31
0.0
  0
LINE
  5
15690
330
747D
100
AcDbEntity
  8
部品1
100
AcDbLine
 10
4869.375560876363
 20
9310.766456979694
 30
0.0
 11
4869.375560876363
 21
9282.766456979695
 31
0.0
  0
LINE
  5
15691
330
747D
100
AcDbEntity
  8
部品1
100
AcDbLine
 10
4869.375560876328
 20
9310.766456979658
 30
0.0
 11
4869.375560876331
 21
9282.766456979658
 31
0.0
  0
LINE
  5
15692
330
747D
100
AcDbEntity
  8
部品1
100
AcDbLine
 10
4842.375560876331
 20
9255.766456979666
 30
0.0
 11
4814.375560876332
 21
9255.766456979666
 31
0.0
  0
LINE
  5
15693
330
747D
100
AcDbEntity
  8
部品1
 48
50.0
100
AcDbLine
 10
4843.875567553987
 20
9281.266456979702
 30
0.0
 11
4842.375560876364
 21
9282.766456979695
 31
0.0
  0
DIMENSION
  5
15694
330
747D
100
AcDbEntity
  8
寸法
100
AcDbDimension
  2
*D5
 10
6399.375560876362
 20
9526.574676604793
 30
0.0
 11
6044.625560876362
 21
9526.574676604793
 31
0.0
 70
   160
 71
     5
 42
709.999999999999
  3
INABA_S40G
100
AcDbAlignedDimension
 13
5689.375560876364
 23
9310.766456979724
 33
0.0
 14
6399.375560876362
 24
9310.766456979811
 34
0.0
100
AcDbRotatedDimension
1001
ACAD
1000
DSTYLE
1002
{
1002
}
  0
DIMENSION
  5
15695
330
747D
100
AcDbEntity
  8
寸法
100
AcDbDimension
  2
*D6
 10
7274.375560876364
 20
9526.574676604772
 30
0.0
 11
7582.860842250602
 21
9526.574676604772
 31
0.0
 70
   160
 71
     5
 42
55.0
  3
INABA_S40G
100
AcDbAlignedDimension
 13
7219.375560876364
 23
9310.76645697979
 33
0.0
 14
7274.375560876364
 24
9310.76645697979
 34
0.0
100
AcDbRotatedDimension
1001
ACAD
1000
DSTYLE
1002
{
1002
}
  0
DIMENSION
  5
15696
330
747D
100
AcDbEntity
  8
寸法
100
AcDbDimension
  2
*D7
 10
7921.801906610774
 20
9255.76645697979
 30
0.0
 11
7921.801906610774
 21
9619.25173835403
 31
0.0
 70
   160
 71
     5
 42
55.0
  3
INABA_S40G
100
AcDbAlignedDimension
 13
7274.375560876364
 23
9310.76645697979
 33
0.0
 14
7274.375560876364
 24
9255.76645697979
 34
0.0
 50
90.0
100
AcDbRotatedDimension
1001
ACAD
1000
DSTYLE
1002
{
1002
}
  0
DIMENSION
  5
15697
330
747D
100
AcDbEntity
  8
寸法
 48
50.0
100
AcDbDimension
  2
*D8
 10
6509.375560876366
 20
9526.574676604793
 30
0.0
 11
6454.375560876364
 21
9626.574676604793
 31
0.0
 70
    32
 71
     5
 42
110.0000000000036
  3
INABA_S40G
100
AcDbAlignedDimension
 13
6399.375560876362
 23
9310.766456979811
 33
0.0
 14
6509.375560876366
 24
9310.76645697979
 34
0.0
100
AcDbRotatedDimension
  0
DIMENSION
  5
15698
330
747D
100
AcDbEntity
  8
寸法
 48
50.0
100
AcDbDimension
  2
*D9
 10
6509.375560876366
 20
9526.574676604793
 30
0.0
 11
6864.375560876365
 21
9626.574676604793
 31
0.0
 70
    32
 71
     5
 42
709.9999999999981
  3
INABA_S40G
100
AcDbAlignedDimension
 13
7219.375560876364
 23
9310.766456979804
 33
0.0
 14
6509.375560876366
 24
9310.76645697979
 34
0.0
100
AcDbRotatedDimension
  0
DIMENSION
  5
15699
330
747D
100
AcDbEntity
  8
寸法
 48
50.0
100
AcDbDimension
  2
*D10
 10
5689.375560876366
 20
9526.574676604793
 30
0.0
 11
5634.375560876364
 21
9626.574676604793
 31
0.0
 70
    32
 71
     5
 42
110.0000000000036
  3
INABA_S40G
100
AcDbAlignedDimension
 13
5579.375560876362
 23
9310.766456979811
 33
0.0
 14
5689.375560876366
 24
9310.76645697979
 34
0.0
100
AcDbRotatedDimension
  0
DIMENSION
  5
1569A
330
747D
100
AcDbEntity
  8
寸法
100
AcDbDimension
  2
*D11
 10
7921.801906610749
 20
8360.766456979774
 30
0.0
 11
7921.801906610749
 21
7982.904990074915
 31
0.0
 70
   160
 71
     5
 42
55.0
  3
INABA_S40G
100
AcDbAlignedDimension
 13
7274.37556087634
 23
8415.766456979774
 33
0.0
 14
7274.37556087634
 24
8360.766456979774
 34
0.0
 50
90.0
100
AcDbRotatedDimension
1001
ACAD
1000
DSTYLE
1002
{
1002
}
  0
DIMENSION
  5
1569B
330
747D
100
AcDbEntity
  8
寸法
100
AcDbDimension
  2
*D12
 10
7921.801906610774
 20
8415.766456979774
 30
0.0
 11
7921.801906610774
 21
8835.766456979783
 31
0.0
 70
   160
  1
2X420=<>
 71
     5
 42
840.0000000000146
  3
INABA_S40G
100
AcDbAlignedDimension
 13
7274.375560876364
 23
9255.76645697979
 33
0.0
 14
7274.37556087634
 24
8415.766456979774
 34
0.0
 50
90.0
100
AcDbRotatedDimension
1001
ACAD
1000
DSTYLE
1002
{
1002
}
  0
DIMENSION
  5
1569C
330
747D
100
AcDbEntity
  8
寸法
100
AcDbDimension
  2
*D13
 10
8230.913437426453
 20
8360.766456979774
 30
0.0
 11
8230.913437426449
 21
8834.744175538693
 31
0.0
 70
   160
 71
     5
 42
950.0000000000145
  3
INABA_S40G
100
AcDbAlignedDimension
 13
7274.375560876364
 23
9310.76645697979
 33
0.0
 14
7274.37556087634
 24
8360.766456979774
 34
0.0
 50
90.0
100
AcDbRotatedDimension
1001
ACAD
1000
DSTYLE
1002
{
1002
}
  0
LINE
  5
1569E
330
747D
100
AcDbEntity
  8
想像線
 48
10.0
100
AcDbLine
 10
6409.375560876355
 20
8360.76645697973
 30
0.0
 11
6409.375560876355
 21
7639.848813323941
 31
0.0
  0
LINE
  5
1569F
330
747D
100
AcDbEntity
  8
想像線
 48
10.0
100
AcDbLine
 10
7229.375560876356
 20
8360.766456979742
 30
0.0
 11
7229.375560876356
 21
7639.848813323948
 31
0.0
  0
ARC
  5
156A0
330
747D
100
AcDbEntity
  8
想像線
 48
10.0
100
AcDbCircle
 10
7222.023510199199
 20
8362.461350355317
 30
0.0
 40
722.6499369155629
100
AcDbArc
 50
180.1343808685487
 51
270.5829222700353
  0
LINE
  5
156A1
330
747D
100
AcDbEntity
  8
想像線
 48
10.0
100
AcDbLine
 10
5589.375560876356
 20
8360.76645697973
 30
0.0
 11
5589.375560876356
 21
7639.848813323941
 31
0.0
  0
ARC
  5
156A3
330
747D
100
AcDbEntity
  8
想像線
 48
10.0
100
AcDbCircle
 10
6402.023510199197
 20
8362.461350355303
 30
0.0
 40
722.6499369155592
100
AcDbArc
 50
180.1343808685487
 51
270.5829222700353
  0
LINE
  5
156A6
330
747D
100
AcDbEntity
  8
部品1
 48
5.0
100
AcDbLine
 10
6422.375560876358
 20
8415.76645697973
 30
0.0
 11
6399.375560876357
 21
8415.76645697973
 31
0.0
  0
ARC
  5
156A7
330
747D
100
AcDbEntity
  8
細線
 48
0.2
100
AcDbCircle
 10
6401.438008705035
 20
8361.764086934952
 30
0.0
 40
4.049999999999999
100
AcDbArc
 50
194.2603506853988
 51
345.7396493146012
  0
LINE
  5
156A8
330
747D
100
AcDbEntity
  8
部品1
 48
0.2
100
AcDbLine
 10
6396.438008705035
 20
8353.764086934953
 30
0.0
 11
6401.438008705035
 21
8353.764086934953
 31
0.0
  0
LINE
  5
156A9
330
747D
100
AcDbEntity
  8
部品1
 48
50.0
100
AcDbLine
 10
6426.375560876343
 20
8464.26645697973
 30
0.0
 11
6398.875560876341
 21
8492.266456979738
 31
0.0
  0
LINE
  5
156AB
330
747D
100
AcDbEntity
  8
部品1
100
AcDbLine
 10
5663.875567553993
 20
9281.266456979754
 30
0.0
 11
6424.875567553994
 21
9281.266456979803
 31
0.0
  0
LINE
  5
156AC
330
747D
100
AcDbEntity
  8
部品1
100
AcDbLine
 10
5663.875567553994
 20
8831.266456979752
 30
0.0
 11
6424.875567553993
 21
8831.266456979802
 31
0.0
  0
LINE
  5
156AD
330
747D
100
AcDbEntity
  8
細線
 48
50.0
100
AcDbLine
 10
6424.875567553993
 20
8831.266456979802
 30
0.0
 11
5663.875567553993
 21
9281.266456979754
 31
0.0
  0
LINE
  5
156AE
330
747D
100
AcDbEntity
  8
細線
 48
50.0
100
AcDbLine
 10
6424.875567553994
 20
9281.266456979803
 30
0.0
 11
5663.875567553994
 21
8831.266456979752
 31
0.0
  0
LINE
  5
156AF
330
747D
100
AcDbEntity
  8
部品1
100
AcDbLine
 10
6409.375560876355
 20
8386.766456979783
 30
0.0
 11
5679.375560876357
 21
8386.766456979753
 31
0.0
  0
LINE
  5
156B0
330
747D
100
AcDbEntity
  8
部品1
100
AcDbLine
 10
5662.375560876311
 20
9282.766456979716
 30
0.0
 11
6451.756263894965
 21
9282.766456979738
 31
0.0
  0
LINE
  5
156B1
330
747D
100
AcDbEntity
  8
部品1
 48
5.0
100
AcDbLine
 10
5658.375560876359
 20
8390.266456979672
 30
0.0
 11
6430.375560876358
 21
8390.26645697973
 31
0.0
  0
LINE
  5
156B2
330
747D
100
AcDbEntity
  8
点線
 48
10.0
100
AcDbLine
 10
6375.37556087635
 20
8515.766456979738
 30
0.0
 11
6375.375552521798
 21
8831.266456979795
 31
0.0
  0
LINE
  5
156B3
330
747D
100
AcDbEntity
  8
部品1
 48
50.0
100
AcDbLine
 10
6398.875560876341
 20
8492.266456979738
 30
0.0
 11
6398.875560876318
 21
8831.266456979795
 31
0.0
  0
LINE
  5
156B4
330
747D
100
AcDbEntity
  8
点線
 48
10.0
100
AcDbLine
 10
5713.375560876349
 20
8515.766456979745
 30
0.0
 11
5713.375548445239
 21
8831.266456979742
 31
0.0
  0
LINE
  5
156B5
330
747D
100
AcDbEntity
  8
点線
 48
10.0
100
AcDbLine
 10
5555.37556087635
 20
8515.766456979738
 30
0.0
 11
5555.375552521798
 21
8831.266456979795
 31
0.0
  0
LINE
  5
156B6
330
747D
100
AcDbEntity
  8
部品1
 48
50.0
100
AcDbLine
 10
5662.375560876343
 20
8415.76645697973
 30
0.0
 11
5662.375560876288
 21
9310.766456979738
 31
0.0
  0
LINE
  5
156B7
330
747D
100
AcDbEntity
  8
部品1
 48
50.0
100
AcDbLine
 10
5606.375560876343
 20
8415.76645697973
 30
0.0
 11
5606.37556087629
 21
9282.766456979738
 31
0.0
  0
LINE
  5
156B8
330
747D
100
AcDbEntity
  8
部品1
 48
50.0
100
AcDbLine
 10
5578.875560876341
 20
8492.266456979738
 30
0.0
 11
5578.875560876317
 21
8831.266456979795
 31
0.0
  0
LINE
  5
156B9
330
747D
100
AcDbEntity
  8
部品1
 48
50.0
100
AcDbLine
 10
5689.875554532055
 20
8492.266457004401
 30
0.0
 11
5689.875557504919
 21
8831.266456979742
 31
0.0
  0
LINE
  5
156BA
330
747D
100
AcDbEntity
  8
部品1
 48
50.0
100
AcDbLine
 10
5634.375560876343
 20
8415.76645697973
 30
0.0
 11
5634.375560876343
 21
9255.766456979738
 31
0.0
  0
LINE
  5
156BB
330
747D
100
AcDbEntity
  8
破線
 48
10.0
100
AcDbLine
 10
6375.37556087635
 20
8515.766456979738
 30
0.0
 11
5713.375560876349
 21
8515.766456979724
 31
0.0
  0
LINE
  5
156BC
330
747D
100
AcDbEntity
  8
部品1
100
AcDbLine
 10
6398.875560876341
 20
8492.266456979738
 30
0.0
 11
5689.875067622459
 21
8492.265954782267
 31
0.0
  0
LINE
  5
156BD
330
747D
100
AcDbEntity
  8
部品1
100
AcDbLine
 10
5677.375560876358
 20
8390.266456979684
 30
0.0
 11
5677.375560876359
 21
8360.76645697973
 31
0.0
  0
LINE
  5
156BE
330
747D
100
AcDbEntity
  8
部品1
 48
5.0
100
AcDbLine
 10
5677.375560876359
 20
8390.26645697973
 30
0.0
 11
5677.375560876359
 21
8360.76645697973
 31
0.0
  0
LINE
  5
156BF
330
747D
100
AcDbEntity
  8
部品1
100
AcDbLine
 10
5591.375560876356
 20
8390.266456979677
 30
0.0
 11
5591.375560876354
 21
8360.766456979723
 31
0.0
  0
LINE
  5
156C0
330
747D
100
AcDbEntity
  8
部品1
 48
5.0
100
AcDbLine
 10
5591.375560876358
 20
8390.26645697973
 30
0.0
 11
5591.375560876358
 21
8360.76645697973
 31
0.0
  0
LINE
  5
156C1
330
747D
100
AcDbEntity
  8
部品1
100
AcDbLine
 10
5679.375560876357
 20
8386.766456979753
 30
0.0
 11
5679.375560876357
 21
8360.766456979716
 31
0.0
  0
LINE
  5
156C2
330
747D
100
AcDbEntity
  8
部品1
100
AcDbLine
 10
5589.375560876356
 20
8386.766456979783
 30
0.0
 11
5589.375560876356
 21
8360.766456979728
 31
0.0
  0
ARC
  5
156C3
330
747D
100
AcDbEntity
  8
部品1
 48
0.2
100
AcDbCircle
 10
5581.438008705035
 20
8361.764086934952
 30
0.0
 40
8.0
100
AcDbArc
 50
270.0
 51
352.8363522778074
  0
ARC
  5
156C4
330
747D
100
AcDbEntity
  8
部品1
 48
0.2
100
AcDbCircle
 10
5576.438008705035
 20
8361.764086934952
 30
0.0
 40
8.0
100
AcDbArc
 50
187.1636477221926
 51
269.9999999999992
  0
ARC
  5
156C5
330
747D
100
AcDbEntity
  8
細線
 48
0.2
100
AcDbCircle
 10
5581.438008705035
 20
8361.764086934952
 30
0.0
 40
4.049999999999999
100
AcDbArc
 50
194.2603506853988
 51
345.7396493146012
  0
LINE
  5
156C6
330
747D
100
AcDbEntity
  8
部品1
 48
0.2
100
AcDbLine
 10
5576.438008705035
 20
8353.764086934953
 30
0.0
 11
5581.438008705035
 21
8353.764086934953
 31
0.0
  0
LINE
  5
156C7
330
747D
100
AcDbEntity
  8
部品1
 48
5.0
100
AcDbLine
 10
5591.375560876358
 20
8360.76645697973
 30
0.0
 11
5677.375560876359
 21
8360.76645697973
 31
0.0
  0
LINE
  5
156C8
330
747D
100
AcDbEntity
  8
部品1
 48
5.0
100
AcDbLine
 10
5689.375560876358
 20
8415.76645697973
 30
0.0
 11
5689.37556087636
 21
8390.26645697973
 31
0.0
  0
LINE
  5
156C9
330
747D
100
AcDbEntity
  8
部品1
 48
5.0
100
AcDbLine
 10
5658.375560876359
 20
8415.76645697973
 30
0.0
 11
5658.375560876359
 21
8390.26645697973
 31
0.0
  0
LINE
  5
156CA
330
747D
100
AcDbEntity
  8
部品1
 48
5.0
100
AcDbLine
 10
5610.375560876359
 20
8415.76645697973
 30
0.0
 11
5610.375560876359
 21
8390.26645697973
 31
0.0
  0
LINE
  5
156CB
330
747D
100
AcDbEntity
  8
部品1
 48
5.0
100
AcDbLine
 10
5579.375560876359
 20
8415.76645697973
 30
0.0
 11
5579.37556087636
 21
8390.26645697973
 31
0.0
  0
LINE
  5
156CC
330
747D
100
AcDbEntity
  8
部品1
 48
5.0
100
AcDbLine
 10
5602.375560876359
 20
8415.76645697973
 30
0.0
 11
5579.375560876357
 21
8415.76645697973
 31
0.0
  0
LINE
  5
156CD
330
747D
100
AcDbEntity
  8
部品1
 48
50.0
100
AcDbLine
 10
5606.375560876343
 20
8464.26645697973
 30
0.0
 11
5578.875560876341
 21
8492.266456979738
 31
0.0
  0
LINE
  5
156CE
330
747D
100
AcDbEntity
  8
部品1
 48
5.0
100
AcDbLine
 10
5606.375560876343
 20
8415.76645697973
 30
0.0
 11
5662.375560876343
 21
8415.76645697973
 31
0.0
  0
LINE
  5
156CF
330
747D
100
AcDbEntity
  8
部品1
 48
5.0
100
AcDbLine
 10
5666.375560876359
 20
8415.76645697973
 30
0.0
 11
5689.375560876358
 21
8415.76645697973
 31
0.0
  0
LINE
  5
156D0
330
747D
100
AcDbEntity
  8
部品1
 48
50.0
100
AcDbLine
 10
5689.87556087634
 20
8492.266457004403
 30
0.0
 11
5662.375560876343
 21
8464.26645697973
 31
0.0
  0
ARC
  5
156D1
330
747D
100
AcDbEntity
  8
部品1
 48
0.2
100
AcDbCircle
 10
6396.438008705035
 20
8361.764086934952
 30
0.0
 40
8.0
100
AcDbArc
 50
187.1636477221926
 51
269.9999999999992
  0
LINE
  5
156D2
330
747D
100
AcDbEntity
  8
部品1
 48
5.0
100
AcDbLine
 10
6399.375560876358
 20
8415.76645697973
 30
0.0
 11
6399.37556087636
 21
8390.26645697973
 31
0.0
  0
LINE
  5
156D3
330
747D
100
AcDbEntity
  8
部品1
 48
50.0
100
AcDbLine
 10
5663.875567553993
 20
9281.266456979754
 30
0.0
 11
5663.875567553994
 21
8831.266456979752
 31
0.0
  0
LINE
  5
156D4
330
747D
100
AcDbEntity
  8
部品1
 48
50.0
100
AcDbLine
 10
5604.875567553993
 20
9281.266456979803
 30
0.0
 11
5604.875567553993
 21
8831.266456979802
 31
0.0
  0
LINE
  5
156D5
330
747D
100
AcDbEntity
  8
部品1
 48
5.0
100
AcDbLine
 10
5634.375560876343
 20
8835.766456979735
 30
0.0
 11
5606.375560876291
 21
8835.766456979738
 31
0.0
  0
LINE
  5
156D6
330
747D
100
AcDbEntity
  8
部品1
 48
50.0
100
AcDbLine
 10
5634.375560876334
 20
8835.766456979738
 30
0.0
 11
5662.375560876317
 21
8835.766456979742
 31
0.0
  0
LINE
  5
156D7
330
747D
100
AcDbEntity
  8
部品1
 48
50.0
100
AcDbLine
 10
5634.375560876334
 20
8873.766456979739
 30
0.0
 11
5662.375560876317
 21
8873.766456979742
 31
0.0
  0
LINE
  5
156D8
330
747D
100
AcDbEntity
  8
部品1
 48
5.0
100
AcDbLine
 10
5689.375560876366
 20
9310.766456979742
 30
0.0
 11
5689.37556087636
 21
9282.766456979745
 31
0.0
  0
LINE
  5
156D9
330
747D
100
AcDbEntity
  8
部品1
 48
50.0
100
AcDbLine
 10
5663.875560876295
 20
9281.211935459479
 30
0.0
 11
5662.37556087629
 21
9282.766456979738
 31
0.0
  0
LINE
  5
156DA
330
747D
100
AcDbEntity
  8
部品1
 48
50.0
100
AcDbLine
 10
5604.875567553994
 20
9281.211944319984
 30
0.0
 11
5606.37556087629
 21
9282.766456979738
 31
0.0
  0
LINE
  5
156DB
330
747D
100
AcDbEntity
  8
部品1
 48
5.0
100
AcDbLine
 10
5579.375560876361
 20
9282.766456979738
 30
0.0
 11
5579.375560876362
 21
9310.766456979738
 31
0.0
  0
LINE
  5
156DC
330
747D
100
AcDbEntity
  8
部品1
 48
5.0
100
AcDbLine
 10
5609.084835323537
 20
9310.766456979738
 30
0.0
 11
5631.756263894966
 21
9282.766456979738
 31
0.0
  0
LINE
  5
156DD
330
747D
100
AcDbEntity
  8
部品1
 48
5.0
100
AcDbLine
 10
5662.375560876292
 20
9255.766456979738
 30
0.0
 11
5606.375560876291
 21
9255.766456979738
 31
0.0
  0
LINE
  5
156DE
330
747D
100
AcDbEntity
  8
部品1
 48
5.0
100
AcDbLine
 10
6399.375560876361
 20
9282.766456979738
 30
0.0
 11
6399.375560876362
 21
9310.766456979738
 31
0.0
  0
LINE
  5
156DF
330
747D
100
AcDbEntity
  8
破線
 48
10.0
100
AcDbLine
 10
7194.375625801033
 20
8831.266456979738
 30
0.0
 11
7194.375560876345
 21
8515.766456979781
 31
0.0
  0
LINE
  5
156E0
330
747D
100
AcDbEntity
  8
部品1
100
AcDbLine
 10
7246.375560876365
 20
9282.766456979789
 30
0.0
 11
7246.375560876341
 21
8415.766456979774
 31
0.0
  0
LINE
  5
156E1
330
747D
100
AcDbEntity
  8
部品1
100
AcDbLine
 10
7274.375560876364
 20
9310.76645697979
 30
0.0
 11
7274.37556087634
 21
8360.766456979774
 31
0.0
  0
DIMENSION
  5
156E2
330
747D
100
AcDbEntity
  8
寸法
100
AcDbDimension
  2
*D14
 10
7186.18206458233
 20
8612.219346736758
 30
0.0
 11
6863.222622994564
 21
8612.219346736758
 31
0.0
 70
   160
 71
     5
 42
761.0000000000118
  3
INABA_S40G
100
AcDbAlignedDimension
 13
6483.875560876296
 23
8831.266456979742
 33
0.0
 14
7244.875560876308
 24
8831.266456979738
 34
0.0
100
AcDbRotatedDimension
1001
ACAD
1000
DSTYLE
1002
{
1002
}
  0
LINE
  5
156E3
330
747D
100
AcDbEntity
  8
点線
 48
10.0
100
AcDbLine
 10
6533.37556087635
 20
8515.766456979745
 30
0.0
 11
6533.375548445239
 21
8831.266456979742
 31
0.0
  0
LINE
  5
156E4
330
747D
100
AcDbEntity
  8
部品1
 48
50.0
100
AcDbLine
 10
6482.375560876343
 20
8415.76645697973
 30
0.0
 11
6482.375560876288
 21
9310.766456979738
 31
0.0
  0
LINE
  5
156E5
330
747D
100
AcDbEntity
  8
部品1
 48
50.0
100
AcDbLine
 10
6426.375560876343
 20
8415.76645697973
 30
0.0
 11
6426.375560876289
 21
9282.766456979738
 31
0.0
  0
LINE
  5
156E6
330
747D
100
AcDbEntity
  8
部品1
 48
5.0
100
AcDbLine
 10
7217.874589451408
 20
8492.266456979789
 30
0.0
 11
7217.875082382718
 21
8831.266456979735
 31
0.0
  0
LINE
  5
156E7
330
747D
100
AcDbEntity
  8
部品1
 48
50.0
100
AcDbLine
 10
6509.875554532055
 20
8492.266457004401
 30
0.0
 11
6509.875557504919
 21
8831.266456979742
 31
0.0
  0
LINE
  5
156E8
330
747D
100
AcDbEntity
  8
部品1
 48
50.0
100
AcDbLine
 10
6454.375560876343
 20
8415.76645697973
 30
0.0
 11
6454.375560876343
 21
9255.766456979738
 31
0.0
  0
DIMENSION
  5
156E9
330
747D
100
AcDbEntity
  8
寸法
100
AcDbDimension
  2
*D15
 10
7600.233286738322
 20
8736.048641310844
 30
0.0
 11
7500.23328673832
 21
8961.048641310846
 31
0.0
 70
    32
 71
     5
 42
450.0
  3
INABA_S40G
100
AcDbAlignedDimension
 13
7244.875560876296
 23
9281.266456979734
 33
0.0
 14
7244.875560876296
 24
8831.266456979735
 34
0.0
 50
90.0
100
AcDbRotatedDimension
1001
ACAD
1000
DSTYLE
1002
{
1002
}
  0
LINE
  5
156EA
330
747D
100
AcDbEntity
  8
部品1
100
AcDbLine
 10
7217.874589451547
 20
8492.266562692629
 30
0.0
 11
6509.875560876341
 21
8492.266457004403
 31
0.0
  0
LINE
  5
156EB
330
747D
100
AcDbEntity
  8
破線
 48
10.0
100
AcDbLine
 10
7194.375560876341
 20
8515.766456979781
 30
0.0
 11
6533.37556087635
 21
8515.766456979745
 31
0.0
  0
LINE
  5
156EC
330
747D
100
AcDbEntity
  8
部品1
100
AcDbLine
 10
7229.375560876356
 20
8386.766456979783
 30
0.0
 11
6499.375560876356
 21
8386.766456979724
 31
0.0
  0
LINE
  5
156ED
330
747D
100
AcDbEntity
  8
部品1
 48
5.0
100
AcDbLine
 10
7231.375560876337
 20
8390.26645697973
 30
0.0
 11
6478.375560876358
 21
8390.26645697973
 31
0.0
  0
LINE
  5
156EE
330
747D
100
AcDbEntity
  8
部品1
100
AcDbLine
 10
6497.375560876358
 20
8390.266456979684
 30
0.0
 11
6497.375560876358
 21
8360.76645697973
 31
0.0
  0
LINE
  5
156EF
330
747D
100
AcDbEntity
  8
部品1
 48
5.0
100
AcDbLine
 10
6497.375560876358
 20
8390.26645697973
 30
0.0
 11
6497.375560876358
 21
8360.76645697973
 31
0.0
  0
LINE
  5
156F0
330
747D
100
AcDbEntity
  8
部品1
100
AcDbLine
 10
6411.375560876355
 20
8390.266456979677
 30
0.0
 11
6411.375560876354
 21
8360.766456979723
 31
0.0
  0
LINE
  5
156F1
330
747D
100
AcDbEntity
  8
部品1
 48
5.0
100
AcDbLine
 10
6411.375560876358
 20
8390.26645697973
 30
0.0
 11
6411.375560876358
 21
8360.76645697973
 31
0.0
  0
LINE
  5
156F2
330
747D
100
AcDbEntity
  8
部品1
100
AcDbLine
 10
6499.375560876356
 20
8386.766456979724
 30
0.0
 11
6499.375560876355
 21
8360.76645697973
 31
0.0
  0
LINE
  5
156F3
330
747D
100
AcDbEntity
  8
部品1
100
AcDbLine
 10
6409.375560876355
 20
8386.766456979783
 30
0.0
 11
6409.375560876355
 21
8360.766456979728
 31
0.0
  0
ARC
  5
156F4
330
747D
100
AcDbEntity
  8
部品1
 48
0.2
100
AcDbCircle
 10
6401.438008705035
 20
8361.764086934952
 30
0.0
 40
8.0
100
AcDbArc
 50
270.0
 51
352.8363522778074
  0
LINE
  5
156F5
330
747D
100
AcDbEntity
  8
部品1
 48
5.0
100
AcDbLine
 10
6411.375560876358
 20
8360.76645697973
 30
0.0
 11
6497.375560876358
 21
8360.76645697973
 31
0.0
  0
LINE
  5
156F6
330
747D
100
AcDbEntity
  8
部品1
 48
5.0
100
AcDbLine
 10
6509.375560876359
 20
8415.76645697973
 30
0.0
 11
6509.37556087636
 21
8390.26645697973
 31
0.0
  0
LINE
  5
156F7
330
747D
100
AcDbEntity
  8
部品1
 48
5.0
100
AcDbLine
 10
6478.37556087636
 20
8415.76645697973
 30
0.0
 11
6478.375560876358
 21
8390.26645697973
 31
0.0
  0
LINE
  5
156F8
330
747D
100
AcDbEntity
  8
部品1
 48
5.0
100
AcDbLine
 10
6430.375560876358
 20
8415.76645697973
 30
0.0
 11
6430.375560876358
 21
8390.26645697973
 31
0.0
  0
LINE
  5
156F9
330
747D
100
AcDbEntity
  8
部品1
 48
5.0
100
AcDbLine
 10
6426.375560876343
 20
8415.76645697973
 30
0.0
 11
6482.375560876343
 21
8415.76645697973
 31
0.0
  0
LINE
  5
156FA
330
747D
100
AcDbEntity
  8
部品1
 48
5.0
100
AcDbLine
 10
6486.375560876358
 20
8415.76645697973
 30
0.0
 11
6509.375560876359
 21
8415.76645697973
 31
0.0
  0
LINE
  5
156FB
330
747D
100
AcDbEntity
  8
部品1
 48
50.0
100
AcDbLine
 10
6509.875560876341
 20
8492.266457004403
 30
0.0
 11
6482.375560876343
 21
8464.26645697973
 31
0.0
  0
LINE
  5
156FC
330
747D
100
AcDbEntity
  8
部品1
 48
2.83
100
AcDbLine
 10
7231.375560876337
 20
8390.266456979745
 30
0.0
 11
7231.375560876337
 21
8360.766456979744
 31
0.0
  0
LINE
  5
156FD
330
747D
100
AcDbEntity
  8
部品1
100
AcDbLine
 10
7229.375560876356
 20
8386.766456979783
 30
0.0
 11
7229.375560876357
 21
8360.766456979774
 31
0.0
  0
LINE
  5
156FE
330
747D
100
AcDbEntity
  8
部品1
 48
0.2
100
AcDbLine
 10
7216.438008705036
 20
8353.764086934971
 30
0.0
 11
7221.438008705035
 21
8353.764086934971
 31
0.0
  0
ARC
  5
156FF
330
747D
100
AcDbEntity
  8
部品1
 48
0.2
100
AcDbCircle
 10
7221.438008705035
 20
8361.764086934972
 30
0.0
 40
8.0
100
AcDbArc
 50
270.0
 51
352.8363522778074
  0
ARC
  5
15700
330
747D
100
AcDbEntity
  8
部品1
 48
0.2
100
AcDbCircle
 10
7216.438008705036
 20
8361.764086934972
 30
0.0
 40
8.0
100
AcDbArc
 50
187.1636477221926
 51
269.9999999999992
  0
ARC
  5
15701
330
747D
100
AcDbEntity
  8
細線
 48
0.2
100
AcDbCircle
 10
7221.438008705035
 20
8361.764086934972
 30
0.0
 40
4.049999999999999
100
AcDbArc
 50
194.2603506853988
 51
345.7396493146012
  0
LINE
  5
15702
330
747D
100
AcDbEntity
  8
部品1
100
AcDbLine
 10
7246.375560876372
 20
8415.766456979788
 30
0.0
 11
7274.375560876372
 21
8415.766456979788
 31
0.0
  0
LINE
  5
15703
330
747D
100
AcDbEntity
  8
部品1
100
AcDbLine
 10
7246.375560876341
 20
8415.766456979774
 30
0.0
 11
7274.37556087634
 21
8415.766456979774
 31
0.0
  0
LINE
  5
15704
330
747D
100
AcDbEntity
  8
部品1
 48
2.83
100
AcDbLine
 10
7242.375560876337
 20
8415.766456979746
 30
0.0
 11
7219.375560876338
 21
8415.766456979746
 31
0.0
  0
LINE
  5
15705
330
747D
100
AcDbEntity
  8
部品1
 48
2.83
100
AcDbLine
 10
7274.375560876338
 20
8415.766456979746
 30
0.0
 11
7251.375560876337
 21
8415.766456979746
 31
0.0
  0
LINE
  5
15706
330
747D
100
AcDbEntity
  8
部品1
 48
2.83
100
AcDbLine
 10
7219.375560876338
 20
8415.766456979746
 30
0.0
 11
7219.375560876338
 21
8390.266456979745
 31
0.0
  0
LINE
  5
15707
330
747D
100
AcDbEntity
  8
部品1
 48
50.0
100
AcDbLine
 10
7246.375560876341
 20
8463.247391787374
 30
0.0
 11
7217.874589451547
 21
8492.266562692629
 31
0.0
  0
LINE
  5
15708
330
747D
100
AcDbEntity
  8
部品1
100
AcDbLine
 10
6483.875560876296
 20
9281.266456979741
 30
0.0
 11
7244.875560876296
 21
9281.266456979734
 31
0.0
  0
LINE
  5
15709
330
747D
100
AcDbEntity
  8
細線
 48
50.0
100
AcDbLine
 10
7244.875560876296
 20
8831.266456979735
 30
0.0
 11
6483.875560876296
 21
9281.266456979738
 31
0.0
  0
LINE
  5
1570A
330
747D
100
AcDbEntity
  8
細線
 48
50.0
100
AcDbLine
 10
7244.875560876296
 20
9281.266456979734
 30
0.0
 11
6483.875560876295
 21
8831.266456979742
 31
0.0
  0
LINE
  5
1570B
330
747D
100
AcDbEntity
  8
部品1
100
AcDbLine
 10
6483.875560876295
 20
8831.266456979742
 30
0.0
 11
7244.875560876296
 21
8831.266456979735
 31
0.0
  0
LINE
  5
1570C
330
747D
100
AcDbEntity
  8
部品1
100
AcDbLine
 10
6482.375560876288
 20
9282.766456979741
 30
0.0
 11
7246.375560876365
 21
9282.766456979789
 31
0.0
  0
LINE
  5
1570D
330
747D
100
AcDbEntity
  8
部品1
 48
50.0
100
AcDbLine
 10
6424.875567553994
 20
9281.266456979803
 30
0.0
 11
6424.875567553994
 21
8831.266456979802
 31
0.0
  0
LINE
  5
1570E
330
747D
100
AcDbEntity
  8
部品1
 48
50.0
100
AcDbLine
 10
6483.875560876296
 20
9281.266456979738
 30
0.0
 11
6483.875560876296
 21
8831.266456979742
 31
0.0
  0
LINE
  5
1570F
330
747D
100
AcDbEntity
  8
部品1
 48
5.0
100
AcDbLine
 10
6454.375560876343
 20
8835.766456979735
 30
0.0
 11
6426.375560876291
 21
8835.766456979738
 31
0.0
  0
LINE
  5
15710
330
747D
100
AcDbEntity
  8
部品1
 48
50.0
100
AcDbLine
 10
6454.375560876335
 20
8835.766456979738
 30
0.0
 11
6482.375560876318
 21
8835.766456979742
 31
0.0
  0
LINE
  5
15711
330
747D
100
AcDbEntity
  8
部品1
 48
50.0
100
AcDbLine
 10
6454.375560876335
 20
8873.766456979739
 30
0.0
 11
6482.375560876318
 21
8873.766456979742
 31
0.0
  0
LINE
  5
15712
330
747D
100
AcDbEntity
  8
部品1
 48
5.0
100
AcDbLine
 10
6509.375560876366
 20
9310.766456979742
 30
0.0
 11
6509.37556087636
 21
9282.766456979745
 31
0.0
  0
LINE
  5
15713
330
747D
100
AcDbEntity
  8
部品1
 48
50.0
100
AcDbLine
 10
6483.875560876296
 20
9281.211935459479
 30
0.0
 11
6482.375560876289
 21
9282.766456979738
 31
0.0
  0
LINE
  5
15714
330
747D
100
AcDbEntity
  8
部品1
 48
50.0
100
AcDbLine
 10
6424.875567553994
 20
9281.211944319984
 30
0.0
 11
6426.375560876289
 21
9282.766456979738
 31
0.0
  0
LINE
  5
15715
330
747D
100
AcDbEntity
  8
部品1
 48
5.0
100
AcDbLine
 10
6429.084835323537
 20
9310.766456979738
 30
0.0
 11
6451.756263894965
 21
9282.766456979738
 31
0.0
  0
LINE
  5
15716
330
747D
100
AcDbEntity
  8
部品1
 48
5.0
100
AcDbLine
 10
6482.375560876291
 20
9255.766456979738
 30
0.0
 11
6426.375560876291
 21
9255.766456979738
 31
0.0
  0
LINE
  5
15717
330
747D
100
AcDbEntity
  8
部品1
100
AcDbLine
 10
7244.875560876296
 20
9281.266456979734
 30
0.0
 11
7244.875560876296
 21
8831.266456979735
 31
0.0
  0
LINE
  5
15718
330
747D
100
AcDbEntity
  8
部品1
100
AcDbLine
 10
7246.375560876365
 20
8835.766456979788
 30
0.0
 11
7274.375560876364
 21
8835.766456979788
 31
0.0
  0
LINE
  5
15719
330
747D
100
AcDbEntity
  8
部品1
100
AcDbLine
 10
7219.375560876364
 20
9310.766456979804
 30
0.0
 11
7219.375560876364
 21
9282.766456979803
 31
0.0
  0
LINE
  5
1571A
330
747D
100
AcDbEntity
  8
部品1
100
AcDbLine
 10
7219.375560876364
 20
9310.76645697979
 30
0.0
 11
7219.375560876364
 21
9282.766456979789
 31
0.0
  0
LINE
  5
1571B
330
747D
100
AcDbEntity
  8
部品1
100
AcDbLine
 10
7246.375560876365
 20
9255.76645697979
 30
0.0
 11
7274.375560876364
 21
9255.76645697979
 31
0.0
  0
LINE
  5
1571C
330
747D
100
AcDbEntity
  8
部品1
 48
50.0
100
AcDbLine
 10
7244.875554198689
 20
9281.266456979738
 30
0.0
 11
7246.375560876365
 21
9282.766456979789
 31
0.0
  0
LINE
  5
1571D
330
747D
100
AcDbEntity
  8
部品1
100
AcDbLine
 10
6411.37556087634
 20
5409.577276893861
 30
0.0
 11
6411.37556087634
 21
3612.577276893881
 31
0.0
  0
LINE
  5
1571E
330
747D
100
AcDbEntity
  8
部品1
100
AcDbLine
 10
6409.375560876338
 20
5407.07727689386
 30
0.0
 11
6409.37556087634
 21
3616.077276893881
 31
0.0
  0
LINE
  5
1571F
330
747D
100
AcDbEntity
  8
部品1
100
AcDbLine
 10
5679.375560876338
 20
5407.077276893859
 30
0.0
 11
5679.375560876338
 21
3616.077276893874
 31
0.0
  0
LINE
  5
15720
330
747D
100
AcDbEntity
  8
部品1
100
AcDbLine
 10
5677.375560876339
 20
5409.577276893861
 30
0.0
 11
5677.375560876339
 21
3612.577276893881
 31
0.0
  0
LINE
  5
15721
330
747D
100
AcDbEntity
  8
部品1
100
AcDbLine
 10
4859.37556087634
 20
5407.077276893862
 30
0.0
 11
4859.37556087634
 21
3616.077276893867
 31
0.0
  0
LINE
  5
15722
330
747D
100
AcDbEntity
  8
部品1
100
AcDbLine
 10
7231.37556087634
 20
5409.577276893861
 30
0.0
 11
7231.37556087634
 21
3612.577276893881
 31
0.0
  0
LINE
  5
15723
330
747D
100
AcDbEntity
  8
部品1
100
AcDbLine
 10
4814.375560876339
 20
5503.577276893864
 30
0.0
 11
4814.37556087634
 21
3469.57727689386
 31
0.0
  0
LINE
  5
15724
330
747D
100
AcDbEntity
  8
部品1
100
AcDbLine
 10
7274.37556087634
 20
5503.577276893862
 30
0.0
 11
7274.37556087634
 21
3469.57727689386
 31
0.0
  0
LINE
  5
15725
330
747D
100
AcDbEntity
  8
部品1
100
AcDbLine
 10
7229.375560876339
 20
5407.07727689386
 30
0.0
 11
7229.375560876341
 21
3616.077276893881
 31
0.0
  0
LINE
  5
15726
330
747D
100
AcDbEntity
  8
部品1
100
AcDbLine
 10
6499.375560876339
 20
5407.07727689386
 30
0.0
 11
6499.375560876341
 21
3616.077276893874
 31
0.0
  0
LINE
  5
15727
330
747D
100
AcDbEntity
  8
部品1
100
AcDbLine
 10
6497.375560876339
 20
5409.577276893861
 30
0.0
 11
6497.375560876339
 21
3612.577276893881
 31
0.0
  0
LINE
  5
15728
330
747D
100
AcDbEntity
  8
部品1
100
AcDbLine
 10
5591.37556087634
 20
5409.577276893861
 30
0.0
 11
5591.37556087634
 21
3612.577276893881
 31
0.0
  0
LINE
  5
15729
330
747D
100
AcDbEntity
  8
部品1
100
AcDbLine
 10
5589.375560876338
 20
5407.07727689386
 30
0.0
 11
5589.375560876341
 21
3616.077276893872
 31
0.0
  0
LINE
  5
1572A
330
747D
100
AcDbEntity
  8
部品1
100
AcDbLine
 10
4857.37556087634
 20
5409.577276893861
 30
0.0
 11
4857.37556087634
 21
3612.577276893881
 31
0.0
  0
DIMENSION
  5
1572B
330
747D
100
AcDbEntity
  8
寸法
100
AcDbDimension
  2
*D16
 10
4496.271033268736
 20
3631.077276893865
 30
0.0
 11
4496.271033268736
 21
4510.077276893862
 31
0.0
 70
   160
  1
有効開口部高サ<>
 71
     5
 42
1759.999999999996
  3
INABA_S40G
100
AcDbAlignedDimension
 13
4814.37556087634
 23
5391.07727689386
 33
0.0
 14
4814.37556087634
 24
3631.077276893865
 34
0.0
 50
90.0
100
AcDbRotatedDimension
1001
ACAD
1000
DSTYLE
1002
{
1070
   288
1070
     1
1002
}
  0
LINE
  5
1572D
330
747D
100
AcDbEntity
  8
部品1
100
AcDbLine
 10
5679.375560876338
 20
3616.077276893874
 30
0.0
 11
6389.313113047659
 21
3616.077276893881
 31
0.0
  0
LINE
  5
1572E
330
747D
100
AcDbEntity
  8
部品1
100
AcDbLine
 10
4814.37556087634
 20
3612.577276893864
 30
0.0
 11
7274.37556087634
 21
3612.577276893881
 31
0.0
  0
LINE
  5
1572F
330
747D
100
AcDbEntity
  8
部品1
100
AcDbLine
 10
4814.37556087634
 20
3569.57727689386
 30
0.0
 11
7274.37556087634
 21
3569.57727689386
 31
0.0
  0
LINE
  5
15732
330
747D
100
AcDbEntity
  8
部品1
100
AcDbLine
 10
4859.375560876339
 20
3616.077276893867
 30
0.0
 11
5569.313113047659
 21
3616.077276893872
 31
0.0
  0
LINE
  5
15734
330
747D
100
AcDbEntity
  8
細線
 48
0.2
100
AcDbLine
 10
5589.313113047658
 20
3620.327276893879
 30
0.0
 11
5569.313113047659
 21
3620.327276893879
 31
0.0
  0
LINE
  5
15735
330
747D
100
AcDbEntity
  8
部品1
 48
0.2
100
AcDbLine
 10
5589.313113047658
 20
3622.827276893879
 30
0.0
 11
5569.313113047658
 21
3622.827276893879
 31
0.0
  0
ARC
  5
15736
330
747D
100
AcDbEntity
  8
細線
 48
0.2
100
AcDbCircle
 10
5586.313113047657
 20
3615.856767062631
 30
0.0
 40
1.0
100
AcDbArc
 50
286.6015495990217
 51
0.0
  0
LINE
  5
15737
330
747D
100
AcDbEntity
  8
細線
 48
0.2
100
AcDbLine
 10
5589.313113047658
 20
3615.827276893879
 30
0.0
 11
5569.313113047659
 21
3615.827276893879
 31
0.0
  0
LINE
  5
15738
330
747D
100
AcDbEntity
  8
細線
 48
0.2
100
AcDbLine
 10
5589.313113047658
 20
3618.327276893879
 30
0.0
 11
5569.313113047659
 21
3618.327276893881
 31
0.0
  0
ARC
  5
15739
330
747D
100
AcDbEntity
  8
細線
 48
0.2
100
AcDbCircle
 10
5576.313113047658
 20
3615.856767062631
 30
0.0
 40
1.0
100
AcDbArc
 50
179.9999999999984
 51
253.3984504009775
  0
ARC
  5
1573A
330
747D
100
AcDbEntity
  8
細線
 48
0.2
100
AcDbCircle
 10
5581.313113047658
 20
3632.627276893876
 30
0.0
 40
18.49999999999796
100
AcDbArc
 50
253.3984504009772
 51
286.6015495990217
  0
LINE
  5
1573B
330
747D
100
AcDbEntity
  8
細線
 48
0.2
100
AcDbLine
 10
5586.997104344166
 20
3615.127276893878
 30
0.0
 11
5575.629121751154
 21
3615.127276893878
 31
0.0
  0
LINE
  5
1573C
330
747D
100
AcDbEntity
  8
細線
 48
50.0
100
AcDbLine
 10
5569.313113047658
 20
3616.077276893881
 30
0.0
 11
5569.313113047658
 21
3615.827276893879
 31
0.0
  0
LINE
  5
1573D
330
747D
100
AcDbEntity
  8
部品1
100
AcDbLine
 10
5589.313113047658
 20
3616.077276893881
 30
0.0
 11
5589.37556087634
 21
3616.077276893881
 31
0.0
  0
LINE
  5
1573E
330
747D
100
AcDbEntity
  8
部品1
100
AcDbLine
 10
5589.313113047658
 20
3616.077276893872
 30
0.0
 11
5589.37556087634
 21
3616.077276893872
 31
0.0
  0
LINE
  5
1573F
330
747D
100
AcDbEntity
  8
細線
 48
0.1
100
AcDbLine
 10
5589.313113047658
 20
3615.827276893879
 30
0.0
 11
5589.313113047658
 21
3622.827276893879
 31
0.0
  0
LINE
  5
15740
330
747D
100
AcDbEntity
  8
細線
 48
50.0
100
AcDbLine
 10
5577.450355853354
 20
3618.327276893881
 30
0.0
 11
5577.450355853355
 21
3620.327276893879
 31
0.0
  0
LINE
  5
15741
330
747D
100
AcDbEntity
  8
細線
 48
50.0
100
AcDbLine
 10
5585.300765899319
 20
3618.327276893881
 30
0.0
 11
5585.300765899319
 21
3620.327276893879
 31
0.0
  0
LINE
  5
15742
330
747D
100
AcDbEntity
  8
部品1
 48
50.0
100
AcDbLine
 10
5569.313113047658
 20
3622.827276893879
 30
0.0
 11
5569.313113047658
 21
3616.077276893881
 31
0.0
  0
LINE
  5
15745
330
747D
100
AcDbEntity
  8
部品1
100
AcDbLine
 10
6499.375560876339
 20
3616.077276893874
 30
0.0
 11
7209.313113047659
 21
3616.077276893881
 31
0.0
  0
LINE
  5
15746
330
747D
100
AcDbEntity
  8
部品1
 48
0.2
100
AcDbLine
 10
6409.313113047658
 20
3622.827276893879
 30
0.0
 11
6389.313113047657
 21
3622.827276893879
 31
0.0
  0
LINE
  5
15747
330
747D
100
AcDbEntity
  8
細線
 48
0.2
100
AcDbLine
 10
6409.313113047658
 20
3620.327276893879
 30
0.0
 11
6389.313113047659
 21
3620.327276893879
 31
0.0
  0
LINE
  5
15748
330
747D
100
AcDbEntity
  8
部品1
100
AcDbLine
 10
6409.313113047659
 20
3616.077276893883
 30
0.0
 11
6409.37556087634
 21
3616.077276893883
 31
0.0
  0
LINE
  5
15749
330
747D
100
AcDbEntity
  8
部品1
100
AcDbLine
 10
6409.313113047659
 20
3616.077276893881
 30
0.0
 11
6409.37556087634
 21
3616.077276893881
 31
0.0
  0
LINE
  5
1574A
330
747D
100
AcDbEntity
  8
細線
 48
50.0
100
AcDbLine
 10
6389.313113047657
 20
3616.077276893881
 30
0.0
 11
6389.313113047657
 21
3615.827276893879
 31
0.0
  0
LINE
  5
1574B
330
747D
100
AcDbEntity
  8
細線
 48
0.2
100
AcDbLine
 10
6406.997104344165
 20
3615.127276893878
 30
0.0
 11
6395.629121751153
 21
3615.127276893878
 31
0.0
  0
ARC
  5
1574C
330
747D
100
AcDbEntity
  8
細線
 48
0.2
100
AcDbCircle
 10
6401.313113047658
 20
3632.627276893876
 30
0.0
 40
18.49999999999796
100
AcDbArc
 50
253.3984504009772
 51
286.6015495990217
  0
ARC
  5
1574D
330
747D
100
AcDbEntity
  8
細線
 48
0.2
100
AcDbCircle
 10
6396.313113047657
 20
3615.856767062631
 30
0.0
 40
1.0
100
AcDbArc
 50
179.9999999999984
 51
253.3984504009775
  0
LINE
  5
1574E
330
747D
100
AcDbEntity
  8
細線
 48
0.2
100
AcDbLine
 10
6409.313113047658
 20
3618.327276893879
 30
0.0
 11
6389.313113047659
 21
3618.327276893881
 31
0.0
  0
LINE
  5
1574F
330
747D
100
AcDbEntity
  8
細線
 48
0.2
100
AcDbLine
 10
6409.313113047658
 20
3615.827276893879
 30
0.0
 11
6389.313113047659
 21
3615.827276893879
 31
0.0
  0
ARC
  5
15750
330
747D
100
AcDbEntity
  8
細線
 48
0.2
100
AcDbCircle
 10
6406.313113047658
 20
3615.856767062631
 30
0.0
 40
1.0
100
AcDbArc
 50
286.6015495990217
 51
0.0
  0
LINE
  5
15751
330
747D
100
AcDbEntity
  8
部品1
100
AcDbLine
 10
6409.313113047659
 20
3616.077276893881
 30
0.0
 11
6409.375560876338
 21
3616.077276893881
 31
0.0
  0
LINE
  5
15752
330
747D
100
AcDbEntity
  8
部品1
 48
50.0
100
AcDbLine
 10
6389.313113047657
 20
3622.827276893879
 30
0.0
 11
6389.313113047657
 21
3616.077276893881
 31
0.0
  0
LINE
  5
15753
330
747D
100
AcDbEntity
  8
細線
 48
50.0
100
AcDbLine
 10
6405.300765899318
 20
3618.327276893881
 30
0.0
 11
6405.300765899318
 21
3620.327276893879
 31
0.0
  0
LINE
  5
15754
330
747D
100
AcDbEntity
  8
細線
 48
50.0
100
AcDbLine
 10
6397.450355853354
 20
3618.327276893881
 30
0.0
 11
6397.450355853355
 21
3620.327276893879
 31
0.0
  0
LINE
  5
15755
330
747D
100
AcDbEntity
  8
細線
 48
0.1
100
AcDbLine
 10
6409.313113047658
 20
3615.827276893879
 30
0.0
 11
6409.313113047658
 21
3622.827276893879
 31
0.0
  0
LINE
  5
15759
330
747D
100
AcDbEntity
  8
部品1
 48
0.2
100
AcDbLine
 10
7229.313113047658
 20
3622.827276893879
 30
0.0
 11
7209.313113047658
 21
3622.827276893879
 31
0.0
  0
LINE
  5
1575A
330
747D
100
AcDbEntity
  8
細線
 48
0.2
100
AcDbLine
 10
7229.313113047658
 20
3620.327276893879
 30
0.0
 11
7209.313113047659
 21
3620.327276893879
 31
0.0
  0
LINE
  5
1575B
330
747D
100
AcDbEntity
  8
部品1
100
AcDbLine
 10
7229.313113047658
 20
3616.077276893883
 30
0.0
 11
7229.375560876339
 21
3616.077276893883
 31
0.0
  0
LINE
  5
1575C
330
747D
100
AcDbEntity
  8
部品1
100
AcDbLine
 10
7229.313113047658
 20
3616.077276893881
 30
0.0
 11
7229.375560876339
 21
3616.077276893881
 31
0.0
  0
LINE
  5
1575D
330
747D
100
AcDbEntity
  8
細線
 48
50.0
100
AcDbLine
 10
7209.313113047658
 20
3616.077276893881
 30
0.0
 11
7209.313113047658
 21
3615.827276893879
 31
0.0
  0
LINE
  5
1575E
330
747D
100
AcDbEntity
  8
細線
 48
0.2
100
AcDbLine
 10
7226.997104344166
 20
3615.127276893878
 30
0.0
 11
7215.629121751153
 21
3615.127276893878
 31
0.0
  0
ARC
  5
1575F
330
747D
100
AcDbEntity
  8
細線
 48
0.2
100
AcDbCircle
 10
7221.313113047658
 20
3632.627276893876
 30
0.0
 40
18.49999999999796
100
AcDbArc
 50
253.3984504009772
 51
286.6015495990217
  0
ARC
  5
15760
330
747D
100
AcDbEntity
  8
細線
 48
0.2
100
AcDbCircle
 10
7216.313113047657
 20
3615.856767062631
 30
0.0
 40
1.0
100
AcDbArc
 50
179.9999999999984
 51
253.3984504009775
  0
LINE
  5
15761
330
747D
100
AcDbEntity
  8
細線
 48
0.2
100
AcDbLine
 10
7229.313113047658
 20
3618.327276893879
 30
0.0
 11
7209.313113047659
 21
3618.327276893881
 31
0.0
  0
LINE
  5
15762
330
747D
100
AcDbEntity
  8
細線
 48
0.2
100
AcDbLine
 10
7229.313113047658
 20
3615.827276893879
 30
0.0
 11
7209.313113047659
 21
3615.827276893879
 31
0.0
  0
ARC
  5
15763
330
747D
100
AcDbEntity
  8
細線
 48
0.2
100
AcDbCircle
 10
7226.313113047658
 20
3615.856767062631
 30
0.0
 40
1.0
100
AcDbArc
 50
286.6015495990217
 51
0.0
  0
LINE
  5
15764
330
747D
100
AcDbEntity
  8
部品1
100
AcDbLine
 10
7229.313113047658
 20
3616.077276893881
 30
0.0
 11
7229.375560876339
 21
3616.077276893881
 31
0.0
  0
LINE
  5
15765
330
747D
100
AcDbEntity
  8
部品1
 48
50.0
100
AcDbLine
 10
7209.313113047658
 20
3622.827276893879
 30
0.0
 11
7209.313113047658
 21
3616.077276893881
 31
0.0
  0
LINE
  5
15766
330
747D
100
AcDbEntity
  8
細線
 48
50.0
100
AcDbLine
 10
7225.300765899318
 20
3618.327276893881
 30
0.0
 11
7225.300765899318
 21
3620.327276893879
 31
0.0
  0
LINE
  5
15767
330
747D
100
AcDbEntity
  8
細線
 48
50.0
100
AcDbLine
 10
7217.450355853355
 20
3618.327276893881
 30
0.0
 11
7217.450355853356
 21
3620.327276893879
 31
0.0
  0
LINE
  5
15768
330
747D
100
AcDbEntity
  8
細線
 48
0.1
100
AcDbLine
 10
7229.313113047658
 20
3615.827276893879
 30
0.0
 11
7229.313113047658
 21
3622.827276893879
 31
0.0
  0
LINE
  5
157E0
330
747D
100
AcDbEntity
  8
部品1
100
AcDbLine
 10
5679.375560876338
 20
5407.077276893859
 30
0.0
 11
6389.313113047657
 21
5407.07727689386
 31
0.0
  0
LINE
  5
157E9
330
747D
100
AcDbEntity
  8
部品1
100
AcDbLine
 10
4814.37556087634
 20
5409.577276893861
 30
0.0
 11
7274.37556087634
 21
5409.577276893861
 31
0.0
  0
LINE
  5
157EE
330
747D
100
AcDbEntity
  8
部品1
100
AcDbLine
 10
4859.375560876339
 20
5407.077276893862
 30
0.0
 11
5569.313113047659
 21
5407.077276893862
 31
0.0
  0
LINE
  5
15808
330
747D
100
AcDbEntity
  8
細線
 48
0.2
100
AcDbLine
 10
5586.997104344166
 20
5408.027276893863
 30
0.0
 11
5575.629121751154
 21
5408.027276893863
 31
0.0
  0
ARC
  5
15809
330
747D
100
AcDbEntity
  8
細線
 48
0.2
100
AcDbCircle
 10
5581.313113047658
 20
5390.527276893865
 30
0.0
 40
18.49999999999796
100
AcDbArc
 50
73.39845040097829
 51
106.6015495990228
  0
ARC
  5
1580A
330
747D
100
AcDbEntity
  8
細線
 48
0.2
100
AcDbCircle
 10
5586.313113047657
 20
5407.29778672511
 30
0.0
 40
1.0
100
AcDbArc
 50
0.0
 51
73.39845040097829
  0
ARC
  5
1580B
330
747D
100
AcDbEntity
  8
細線
 48
0.2
100
AcDbCircle
 10
5576.313113047658
 20
5407.29778672511
 30
0.0
 40
1.0
100
AcDbArc
 50
106.6015495990225
 51
180.0000000000016
  0
LINE
  5
1580C
330
747D
100
AcDbEntity
  8
細線
 48
0.2
100
AcDbLine
 10
5589.313113047658
 20
5404.827276893862
 30
0.0
 11
5569.313113047659
 21
5404.827276893862
 31
0.0
  0
LINE
  5
1580D
330
747D
100
AcDbEntity
  8
細線
 48
0.2
100
AcDbLine
 10
5589.313113047658
 20
5407.327276893862
 30
0.0
 11
5569.313113047659
 21
5407.327276893862
 31
0.0
  0
LINE
  5
1580E
330
747D
100
AcDbEntity
  8
部品1
100
AcDbLine
 10
5589.313113047658
 20
5407.077276893862
 30
0.0
 11
5589.37556087634
 21
5407.07727689386
 31
0.0
  0
LINE
  5
1580F
330
747D
100
AcDbEntity
  8
細線
 48
50.0
100
AcDbLine
 10
5569.313113047658
 20
5407.077276893862
 30
0.0
 11
5569.313113047658
 21
5407.327276893862
 31
0.0
  0
LINE
  5
15810
330
747D
100
AcDbEntity
  8
部品1
 48
0.2
100
AcDbLine
 10
5589.313113047658
 20
5400.327276893862
 30
0.0
 11
5569.313113047658
 21
5400.327276893862
 31
0.0
  0
LINE
  5
15811
330
747D
100
AcDbEntity
  8
細線
 48
0.2
100
AcDbLine
 10
5589.313113047658
 20
5402.827276893862
 30
0.0
 11
5569.313113047659
 21
5402.827276893862
 31
0.0
  0
LINE
  5
15812
330
747D
100
AcDbEntity
  8
細線
 48
50.0
100
AcDbLine
 10
5585.300765899319
 20
5404.827276893862
 30
0.0
 11
5585.300765899319
 21
5402.827276893862
 31
0.0
  0
LINE
  5
15813
330
747D
100
AcDbEntity
  8
細線
 48
50.0
100
AcDbLine
 10
5577.450355853354
 20
5404.827276893862
 30
0.0
 11
5577.450355853355
 21
5402.827276893862
 31
0.0
  0
LINE
  5
15814
330
747D
100
AcDbEntity
  8
細線
 48
0.1
100
AcDbLine
 10
5589.313113047658
 20
5407.327276893862
 30
0.0
 11
5589.313113047658
 21
5400.327276893862
 31
0.0
  0
LINE
  5
15815
330
747D
100
AcDbEntity
  8
部品1
 48
50.0
100
AcDbLine
 10
5569.313113047658
 20
5400.327276893862
 30
0.0
 11
5569.313113047658
 21
5407.077276893862
 31
0.0
  0
LINE
  5
1581A
330
747D
100
AcDbEntity
  8
部品1
100
AcDbLine
 10
6499.375560876339
 20
5407.07727689386
 30
0.0
 11
7209.313113047658
 21
5407.07727689386
 31
0.0
  0
ARC
  5
1581B
330
747D
100
AcDbEntity
  8
細線
 48
0.2
100
AcDbCircle
 10
6406.313113047658
 20
5407.29778672511
 30
0.0
 40
1.0
100
AcDbArc
 50
0.0
 51
73.39845040097829
  0
LINE
  5
1581C
330
747D
100
AcDbEntity
  8
細線
 48
0.2
100
AcDbLine
 10
6409.313113047658
 20
5407.327276893862
 30
0.0
 11
6389.313113047659
 21
5407.327276893862
 31
0.0
  0
LINE
  5
1581D
330
747D
100
AcDbEntity
  8
細線
 48
0.2
100
AcDbLine
 10
6409.313113047658
 20
5404.827276893862
 30
0.0
 11
6389.313113047659
 21
5404.827276893862
 31
0.0
  0
ARC
  5
1581E
330
747D
100
AcDbEntity
  8
細線
 48
0.2
100
AcDbCircle
 10
6396.313113047657
 20
5407.29778672511
 30
0.0
 40
1.0
100
AcDbArc
 50
106.6015495990225
 51
180.0000000000016
  0
ARC
  5
1581F
330
747D
100
AcDbEntity
  8
細線
 48
0.2
100
AcDbCircle
 10
6401.313113047658
 20
5390.527276893865
 30
0.0
 40
18.49999999999796
100
AcDbArc
 50
73.39845040097829
 51
106.6015495990228
  0
LINE
  5
15820
330
747D
100
AcDbEntity
  8
細線
 48
0.2
100
AcDbLine
 10
6406.997104344165
 20
5408.027276893863
 30
0.0
 11
6395.629121751153
 21
5408.027276893863
 31
0.0
  0
LINE
  5
15821
330
747D
100
AcDbEntity
  8
細線
 48
50.0
100
AcDbLine
 10
6389.313113047657
 20
5407.077276893862
 30
0.0
 11
6389.313113047657
 21
5407.327276893862
 31
0.0
  0
LINE
  5
15822
330
747D
100
AcDbEntity
  8
部品1
100
AcDbLine
 10
6409.313113047659
 20
5407.077276893862
 30
0.0
 11
6409.37556087634
 21
5407.07727689386
 31
0.0
  0
LINE
  5
15823
330
747D
100
AcDbEntity
  8
部品1
100
AcDbLine
 10
6409.313113047659
 20
5407.077276893859
 30
0.0
 11
6409.37556087634
 21
5407.07727689386
 31
0.0
  0
LINE
  5
15824
330
747D
100
AcDbEntity
  8
細線
 48
0.2
100
AcDbLine
 10
6409.313113047658
 20
5402.827276893862
 30
0.0
 11
6389.313113047659
 21
5402.827276893862
 31
0.0
  0
LINE
  5
15825
330
747D
100
AcDbEntity
  8
部品1
 48
0.2
100
AcDbLine
 10
6409.313113047658
 20
5400.327276893862
 30
0.0
 11
6389.313113047657
 21
5400.327276893862
 31
0.0
  0
LINE
  5
15826
330
747D
100
AcDbEntity
  8
細線
 48
0.1
100
AcDbLine
 10
6409.313113047658
 20
5407.327276893862
 30
0.0
 11
6409.313113047658
 21
5400.327276893862
 31
0.0
  0
LINE
  5
15827
330
747D
100
AcDbEntity
  8
細線
 48
50.0
100
AcDbLine
 10
6397.450355853354
 20
5404.827276893862
 30
0.0
 11
6397.450355853355
 21
5402.827276893862
 31
0.0
  0
LINE
  5
15828
330
747D
100
AcDbEntity
  8
細線
 48
50.0
100
AcDbLine
 10
6405.300765899318
 20
5404.827276893862
 30
0.0
 11
6405.300765899318
 21
5402.827276893862
 31
0.0
  0
LINE
  5
15829
330
747D
100
AcDbEntity
  8
部品1
 48
50.0
100
AcDbLine
 10
6389.313113047657
 20
5400.327276893862
 30
0.0
 11
6389.313113047657
 21
5407.077276893862
 31
0.0
  0
ARC
  5
15844
330
747D
100
AcDbEntity
  8
細線
 48
0.2
100
AcDbCircle
 10
7226.313113047658
 20
5407.29778672511
 30
0.0
 40
1.0
100
AcDbArc
 50
0.0
 51
73.39845040097829
  0
LINE
  5
15845
330
747D
100
AcDbEntity
  8
細線
 48
0.2
100
AcDbLine
 10
7229.313113047658
 20
5407.327276893862
 30
0.0
 11
7209.313113047659
 21
5407.327276893862
 31
0.0
  0
LINE
  5
15846
330
747D
100
AcDbEntity
  8
細線
 48
0.2
100
AcDbLine
 10
7229.313113047658
 20
5404.827276893862
 30
0.0
 11
7209.313113047659
 21
5404.827276893862
 31
0.0
  0
ARC
  5
15847
330
747D
100
AcDbEntity
  8
細線
 48
0.2
100
AcDbCircle
 10
7216.313113047657
 20
5407.29778672511
 30
0.0
 40
1.0
100
AcDbArc
 50
106.6015495990225
 51
180.0000000000016
  0
ARC
  5
15848
330
747D
100
AcDbEntity
  8
細線
 48
0.2
100
AcDbCircle
 10
7221.313113047658
 20
5390.527276893865
 30
0.0
 40
18.49999999999796
100
AcDbArc
 50
73.39845040097829
 51
106.6015495990228
  0
LINE
  5
15849
330
747D
100
AcDbEntity
  8
細線
 48
0.2
100
AcDbLine
 10
7226.997104344166
 20
5408.027276893863
 30
0.0
 11
7215.629121751153
 21
5408.027276893863
 31
0.0
  0
LINE
  5
1584A
330
747D
100
AcDbEntity
  8
細線
 48
50.0
100
AcDbLine
 10
7209.313113047658
 20
5407.077276893862
 30
0.0
 11
7209.313113047658
 21
5407.327276893862
 31
0.0
  0
LINE
  5
1584B
330
747D
100
AcDbEntity
  8
部品1
100
AcDbLine
 10
7229.313113047658
 20
5407.077276893862
 30
0.0
 11
7229.375560876339
 21
5407.07727689386
 31
0.0
  0
LINE
  5
1584C
330
747D
100
AcDbEntity
  8
部品1
100
AcDbLine
 10
7229.313113047658
 20
5407.077276893859
 30
0.0
 11
7229.375560876339
 21
5407.07727689386
 31
0.0
  0
LINE
  5
1584D
330
747D
100
AcDbEntity
  8
細線
 48
0.2
100
AcDbLine
 10
7229.313113047658
 20
5402.827276893862
 30
0.0
 11
7209.313113047659
 21
5402.827276893862
 31
0.0
  0
LINE
  5
1584E
330
747D
100
AcDbEntity
  8
部品1
 48
0.2
100
AcDbLine
 10
7229.313113047658
 20
5400.327276893862
 30
0.0
 11
7209.313113047658
 21
5400.327276893862
 31
0.0
  0
LINE
  5
1584F
330
747D
100
AcDbEntity
  8
細線
 48
0.1
100
AcDbLine
 10
7229.313113047658
 20
5407.327276893862
 30
0.0
 11
7229.313113047658
 21
5400.327276893862
 31
0.0
  0
LINE
  5
15850
330
747D
100
AcDbEntity
  8
細線
 48
50.0
100
AcDbLine
 10
7217.450355853355
 20
5404.827276893862
 30
0.0
 11
7217.450355853356
 21
5402.827276893862
 31
0.0
  0
LINE
  5
15851
330
747D
100
AcDbEntity
  8
細線
 48
50.0
100
AcDbLine
 10
7225.300765899318
 20
5404.827276893862
 30
0.0
 11
7225.300765899318
 21
5402.827276893862
 31
0.0
  0
LINE
  5
15852
330
747D
100
AcDbEntity
  8
部品1
 48
50.0
100
AcDbLine
 10
7209.313113047658
 20
5400.327276893862
 30
0.0
 11
7209.313113047658
 21
5407.077276893862
 31
0.0
  0
LINE
  5
15BFB
330
747D
100
AcDbEntity
  8
細線
 48
50.0
100
AcDbLine
 10
5193.375560876357
 20
8386.766456979753
 30
0.0
 11
5193.375560876357
 21
8360.766456979716
 31
0.0
  0
LINE
  5
15BFC
330
747D
100
AcDbEntity
  8
細線
 48
50.0
100
AcDbLine
 10
5153.375560876357
 20
8386.766456979753
 30
0.0
 11
5153.375560876357
 21
8360.766456979716
 31
0.0
  0
LINE
  5
15BFD
330
747D
100
AcDbEntity
  8
細線
 48
50.0
100
AcDbLine
 10
5396.375560876357
 20
8386.766456979966
 30
0.0
 11
5396.375560876357
 21
8360.766456979929
 31
0.0
  0
LINE
  5
15BFE
330
747D
100
AcDbEntity
  8
細線
 48
50.0
100
AcDbLine
 10
5436.375560876356
 20
8386.766456979966
 30
0.0
 11
5436.375560876356
 21
8360.766456979929
 31
0.0
  0
LINE
  5
15C00
330
747D
100
AcDbEntity
  8
細線
 48
50.0
100
AcDbLine
 10
5973.375560876356
 20
8386.766456979753
 30
0.0
 11
5973.375560876356
 21
8360.766456979716
 31
0.0
  0
LINE
  5
15C01
330
747D
100
AcDbEntity
  8
細線
 48
50.0
100
AcDbLine
 10
6013.375560876357
 20
8386.766456979753
 30
0.0
 11
6013.375560876357
 21
8360.766456979716
 31
0.0
  0
LINE
  5
15C02
330
747D
100
AcDbEntity
  8
細線
 48
50.0
100
AcDbLine
 10
6256.375560876357
 20
8386.766456979966
 30
0.0
 11
6256.375560876357
 21
8360.766456979929
 31
0.0
  0
LINE
  5
15C03
330
747D
100
AcDbEntity
  8
細線
 48
50.0
100
AcDbLine
 10
6216.375560876357
 20
8386.766456979966
 30
0.0
 11
6216.375560876357
 21
8360.766456979929
 31
0.0
  0
LINE
  5
15C11
330
747D
100
AcDbEntity
  8
細線
 48
50.0
100
AcDbLine
 10
6793.375560876356
 20
8386.766456979753
 30
0.0
 11
6793.375560876356
 21
8360.766456979716
 31
0.0
  0
LINE
  5
15C12
330
747D
100
AcDbEntity
  8
細線
 48
50.0
100
AcDbLine
 10
6833.375560876357
 20
8386.766456979753
 30
0.0
 11
6833.375560876357
 21
8360.766456979716
 31
0.0
  0
LINE
  5
15C13
330
747D
100
AcDbEntity
  8
細線
 48
50.0
100
AcDbLine
 10
7076.375560876357
 20
8386.766456979966
 30
0.0
 11
7076.375560876357
 21
8360.766456979929
 31
0.0
  0
LINE
  5
15C14
330
747D
100
AcDbEntity
  8
細線
 48
50.0
100
AcDbLine
 10
7036.375560876357
 20
8386.766456979966
 30
0.0
 11
7036.375560876357
 21
8360.766456979929
 31
0.0
  0
LINE
  5
15C21
330
747D
100
AcDbEntity
  8
細線
 48
50.0
100
AcDbLine
 10
5254.375560876329
 20
9289.266456979728
 30
0.0
 11
5254.375560876327
 21
9310.766456979729
 31
0.0
  0
LINE
  5
15C22
330
747D
100
AcDbEntity
  8
細線
 48
50.0
100
AcDbLine
 10
5194.37556087633
 20
9289.266456979722
 30
0.0
 11
5194.375560876327
 21
9310.766456979722
 31
0.0
  0
LINE
  5
15C23
330
747D
100
AcDbEntity
  8
細線
 48
50.0
100
AcDbLine
 10
5254.375560876329
 20
9289.266456979728
 30
0.0
 11
5194.375560876329
 21
9289.266456979722
 31
0.0
  0
LINE
  5
15C24
330
747D
100
AcDbEntity
  8
細線
 48
50.0
100
AcDbLine
 10
6014.375560876329
 20
9289.266456979806
 30
0.0
 11
6014.375560876327
 21
9310.766456979804
 31
0.0
  0
LINE
  5
15C25
330
747D
100
AcDbEntity
  8
細線
 48
50.0
100
AcDbLine
 10
6074.37556087633
 20
9289.266456979808
 30
0.0
 11
6074.375560876326
 21
9310.766456979809
 31
0.0
  0
LINE
  5
15C26
330
747D
100
AcDbEntity
  8
細線
 48
50.0
100
AcDbLine
 10
6074.37556087633
 20
9289.266456979808
 30
0.0
 11
6014.375560876328
 21
9289.266456979804
 31
0.0
  0
LINE
  5
15C29
330
747D
100
AcDbEntity
  8
細線
 48
50.0
100
AcDbLine
 10
6834.37556087633
 20
9289.266456979806
 30
0.0
 11
6834.375560876328
 21
9310.766456979804
 31
0.0
  0
LINE
  5
15C2A
330
747D
100
AcDbEntity
  8
細線
 48
50.0
100
AcDbLine
 10
6894.37556087633
 20
9289.266456979808
 30
0.0
 11
6894.375560876326
 21
9310.766456979809
 31
0.0
  0
LINE
  5
15C2B
330
747D
100
AcDbEntity
  8
細線
 48
50.0
100
AcDbLine
 10
6894.37556087633
 20
9289.266456979808
 30
0.0
 11
6834.375560876329
 21
9289.266456979804
 31
0.0
  0
DIMENSION
  5
15CD9
330
747D
100
AcDbEntity
  8
寸法
 48
50.0
100
AcDbDimension
  2
*D17
 10
6374.375560876355
 20
7920.942789184611
 30
0.0
 11
6031.875560876359
 21
7920.942789184611
 31
0.0
 70
   160
 71
     5
 42
684.9999999999954
  3
INABA_S40G
100
AcDbAlignedDimension
 13
5689.37556087636
 23
8360.766456979687
 33
0.0
 14
6374.375560876355
 24
8360.766456979652
 34
0.0
100
AcDbRotatedDimension
  0
DIMENSION
  5
15CF1
330
747D
100
AcDbEntity
  8
寸法
 48
50.0
100
AcDbDimension
  2
*D18
 10
5554.375560876356
 20
7920.942789184611
 30
0.0
 11
5211.875560876358
 21
7920.942789184611
 31
0.0
 70
   160
 71
     5
 42
684.9999999999954
  3
INABA_S40G
100
AcDbAlignedDimension
 13
4869.37556087636
 23
8360.766456979687
 33
0.0
 14
5554.375560876356
 24
8360.766456979652
 34
0.0
100
AcDbRotatedDimension
  0
DIMENSION
  5
15D24
330
747D
100
AcDbEntity
  8
寸法
100
AcDbDimension
  2
*D19
 10
6366.18206458233
 20
8612.219346736758
 30
0.0
 11
6043.222622994565
 21
8612.219346736758
 31
0.0
 70
   160
 71
     5
 42
761.0000000000118
  3
INABA_S40G
100
AcDbAlignedDimension
 13
5663.875560876295
 23
8831.266456979742
 33
0.0
 14
6424.875560876308
 24
8831.266456979738
 34
0.0
100
AcDbRotatedDimension
1001
ACAD
1000
DSTYLE
1002
{
1002
}
  0
DIMENSION
  5
15D31
330
747D
100
AcDbEntity
  8
寸法
100
AcDbDimension
  2
*D20
 10
5546.18206458233
 20
8612.219346736758
 30
0.0
 11
5223.222622994565
 21
8612.219346736758
 31
0.0
 70
   160
 71
     5
 42
761.0000000000118
  3
INABA_S40G
100
AcDbAlignedDimension
 13
4843.875560876296
 23
8831.266456979742
 33
0.0
 14
5604.875560876308
 24
8831.266456979738
 34
0.0
100
AcDbRotatedDimension
1001
ACAD
1000
DSTYLE
1002
{
1002
}
  0
TEXT
  5
160B7
330
747D
100
AcDbEntity
  8
文字
 62
     7
 48
50.0
100
AcDbText
 10
13583.11819016569
 20
9910.01374588373
 30
0.0
 40
100.0
  1
梁中央
 41
0.9
  7
STYLE1
100
AcDbText
  0
TEXT
  5
160B8
330
747D
100
AcDbEntity
  8
文字
 62
     7
 48
50.0
100
AcDbText
 10
15022.63965474516
 20
9910.01374588373
 30
0.0
 40
100.0
  1
F12,Y10       0.7+1.0
  7
STYLE1
100
AcDbText
  0
TEXT
  5
160B9
330
747D
100
AcDbEntity
  8
文字
 62
     7
 48
50.0
100
AcDbText
 10
13583.11819016568
 20
9060.013745883729
 30
0.0
 40
100.0
  1
アンカープレート
  7
STYLE1
100
AcDbText
  0
TEXT
  5
160BA
330
747D
100
AcDbEntity
  8
文字
 62
     7
 48
50.0
100
AcDbText
 10
15022.63965474514
 20
9060.013745883722
 30
0.0
 40
100.0
  1
F12            2.3
  7
STYLE1
100
AcDbText
  0
LINE
  5
160BB
330
747D
100
AcDbEntity
  8
仕様書枠
 48
50.0
100
AcDbLine
 10
16307.19999999999
 20
10049.6
 30
0.0
 11
13127.19999999999
 21
10049.6
 31
0.0
  0
LINE
  5
160BC
330
747D
100
AcDbEntity
  8
仕様書枠
 48
50.0
100
AcDbLine
 10
16307.19999999999
 20
11409.6
 30
0.0
 11
13127.2
 21
11409.6
 31
0.0
  0
LINE
  5
160BD
330
747D
100
AcDbEntity
  8
仕様書枠
 48
50.0
100
AcDbLine
 10
16307.19999999999
 20
8349.600000000007
 30
0.0
 11
16307.2
 21
11409.6
 31
0.0
  0
LINE
  5
160BE
330
747D
100
AcDbEntity
  8
仕様書枠
 48
50.0
100
AcDbLine
 10
14785.2
 20
11409.59999999999
 30
0.0
 11
14785.19999999999
 21
8859.6
 31
0.0
  0
LINE
  5
160BF
330
747D
100
AcDbEntity
  8
仕様書枠
 48
50.0
100
AcDbLine
 10
13490.2
 20
11409.6
 30
0.0
 11
13490.20000000001
 21
8859.6
 31
0.0
  0
LINE
  5
160C0
330
747D
100
AcDbEntity
  8
仕様書枠
 48
50.0
100
AcDbLine
 10
16307.19999999999
 20
11239.6
 30
0.0
 11
13127.2
 21
11239.6
 31
0.0
  0
LINE
  5
160C1
330
747D
100
AcDbEntity
  8
仕様書枠
 48
50.0
100
AcDbLine
 10
16307.19999999999
 20
10899.6
 30
0.0
 11
13127.2
 21
10899.6
 31
0.0
  0
LINE
  5
160C2
330
747D
100
AcDbEntity
  8
仕様書枠
 48
50.0
100
AcDbLine
 10
16307.19999999999
 20
11069.6
 30
0.0
 11
13127.2
 21
11069.6
 31
0.0
  0
LINE
  5
160C3
330
747D
100
AcDbEntity
  8
仕様書枠
 48
50.0
100
AcDbLine
 10
16307.19999999999
 20
10559.6
 30
0.0
 11
13127.19999999999
 21
10559.6
 31
0.0
  0
LINE
  5
160C4
330
747D
100
AcDbEntity
  8
仕様書枠
 48
50.0
100
AcDbLine
 10
16307.19999999999
 20
10389.6
 30
0.0
 11
13127.19999999999
 21
10389.6
 31
0.0
  0
LINE
  5
160C5
330
747D
100
AcDbEntity
  8
仕様書枠
 48
50.0
100
AcDbLine
 10
16307.19999999999
 20
10729.6
 30
0.0
 11
13127.19999999999
 21
10729.6
 31
0.0
  0
TEXT
  5
160C6
330
747D
100
AcDbEntity
  8
文字
 62
     7
 48
50.0
100
AcDbText
 10
13197.42518560407
 20
11270.01374588373
 30
0.0
 40
100.0
  1
品番
  7
STYLE1
100
AcDbText
  0
TEXT
  5
160C7
330
747D
100
AcDbEntity
  8
文字
 62
     7
 48
50.0
100
AcDbText
 10
13271.19032244792
 20
11100.01374588373
 30
0.0
 40
100.0
  1
1
  7
STYLE1
100
AcDbText
  0
TEXT
  5
160C8
330
747D
100
AcDbEntity
  8
文字
 62
     7
 48
50.0
100
AcDbText
 10
13271.19032244792
 20
10930.01374588373
 30
0.0
 40
100.0
  1
2
  7
STYLE1
100
AcDbText
  0
TEXT
  5
160C9
330
747D
100
AcDbEntity
  8
文字
 62
     7
 48
50.0
100
AcDbText
 10
13271.19032244792
 20
10590.01374588373
 30
0.0
 40
100.0
  1
4
  7
STYLE1
100
AcDbText
  0
TEXT
  5
160CA
330
747D
100
AcDbEntity
  8
文字
 62
     7
 48
50.0
100
AcDbText
 10
13271.19032244792
 20
10760.01374588373
 30
0.0
 40
100.0
  1
3
  7
STYLE1
100
AcDbText
  0
TEXT
  5
160CB
330
747D
100
AcDbEntity
  8
文字
 62
     7
 48
50.0
100
AcDbText
 10
13732.03840939434
 20
11270.01374588373
 30
0.0
 40
100.0
  1
部　　品　　名
  7
STYLE1
100
AcDbText
  0
TEXT
  5
160CC
330
747D
100
AcDbEntity
  8
文字
 62
     7
 48
50.0
100
AcDbText
 10
14859.79774614482
 20
11270.01374588373
 30
0.0
 40
100.0
  1
材料（材質）　　単位mm
  7
STYLE1
100
AcDbText
  0
TEXT
  5
160CD
330
747D
100
AcDbEntity
  8
文字
 62
     7
 48
50.0
100
AcDbText
 10
13583.11819016569
 20
11100.01374588373
 30
0.0
 40
100.0
  1
土台枠
  7
STYLE1
100
AcDbText
  0
TEXT
  5
160CE
330
747D
100
AcDbEntity
  8
文字
 62
     7
 48
50.0
100
AcDbText
 10
13583.1181901657
 20
10930.01374588373
 30
0.0
 40
100.0
  1
柱
  7
STYLE1
100
AcDbText
  0
TEXT
  5
160CF
330
747D
100
AcDbEntity
  8
文字
 62
     7
 48
50.0
100
AcDbText
 10
13583.11819016569
 20
10590.01374588373
 30
0.0
 40
100.0
  1
鴨居
  7
STYLE1
100
AcDbText
  0
TEXT
  5
160D0
330
747D
100
AcDbEntity
  8
文字
 62
     7
 48
50.0
100
AcDbText
 10
13583.11819016569
 20
10420.01374588373
 30
0.0
 40
100.0
  1
桁後
  7
STYLE1
100
AcDbText
  0
TEXT
  5
160D1
330
747D
100
AcDbEntity
  8
文字
 62
     7
 48
50.0
100
AcDbText
 10
13271.19032244792
 20
10420.01374588373
 30
0.0
 40
100.0
  1
5
  7
STYLE1
100
AcDbText
  0
TEXT
  5
160D2
330
747D
100
AcDbEntity
  8
文字
 62
     7
 48
50.0
100
AcDbText
 10
13583.11819016569
 20
10250.01374588373
 30
0.0
 40
100.0
  1
妻板左右
  7
STYLE1
100
AcDbText
  0
TEXT
  5
160D3
330
747D
100
AcDbEntity
  8
文字
 62
     7
 48
50.0
100
AcDbText
 10
13248.77747366447
 20
9570.013745883729
 30
0.0
 40
100.0
  1
10
  7
STYLE1
100
AcDbText
  0
TEXT
  5
160D4
330
747D
100
AcDbEntity
  8
文字
 62
     7
 48
50.0
100
AcDbText
 10
13583.11819016568
 20
9570.013745883729
 30
0.0
 40
100.0
  1
壁パネル
  7
STYLE1
100
AcDbText
  0
TEXT
  5
160D5
330
747D
100
AcDbEntity
  8
文字
 62
     7
 48
50.0
100
AcDbText
 10
13583.11819016569
 20
9740.013745883729
 30
0.0
 40
100.0
  1
屋根パネル
  7
STYLE1
100
AcDbText
  0
TEXT
  5
160D6
330
747D
100
AcDbEntity
  8
文字
 62
     7
 48
50.0
100
AcDbText
 10
13583.11819016569
 20
10080.01374588373
 30
0.0
 40
100.0
  1
鼻隠シ前後
  7
STYLE1
100
AcDbText
  0
TEXT
  5
160D7
330
747D
100
AcDbEntity
  8
文字
 62
     7
 48
50.0
100
AcDbText
 10
13271.19032244792
 20
9910.01374588373
 30
0.0
 40
100.0
  1
8
  7
STYLE1
100
AcDbText
  0
TEXT
  5
160D8
330
747D
100
AcDbEntity
  8
文字
 62
     7
 48
50.0
100
AcDbText
 10
13271.19032244792
 20
9740.013745883729
 30
0.0
 40
100.0
  1
9
  7
STYLE1
100
AcDbText
  0
TEXT
  5
160D9
330
747D
100
AcDbEntity
  8
文字
 62
     7
 48
50.0
100
AcDbText
 10
13271.19032244792
 20
10080.01374588373
 30
0.0
 40
100.0
  1
7
  7
STYLE1
100
AcDbText
  0
TEXT
  5
160DA
330
747D
100
AcDbEntity
  8
文字
 62
     7
 48
50.0
100
AcDbText
 10
13271.19032244792
 20
10250.01374588373
 30
0.0
 40
100.0
  1
6
  7
STYLE1
100
AcDbText
  0
LINE
  5
160DB
330
747D
100
AcDbEntity
  8
仕様書枠
 48
50.0
100
AcDbLine
 10
16307.19999999999
 20
9709.600000000001
 30
0.0
 11
13127.19999999999
 21
9709.600000000001
 31
0.0
  0
LINE
  5
160DC
330
747D
100
AcDbEntity
  8
仕様書枠
 48
50.0
100
AcDbLine
 10
16307.19999999999
 20
9369.600000000001
 30
0.0
 11
13127.19999999999
 21
9369.600000000001
 31
0.0
  0
LINE
  5
160DD
330
747D
100
AcDbEntity
  8
仕様書枠
 48
50.0
100
AcDbLine
 10
16307.19999999999
 20
9539.6
 30
0.0
 11
13127.19999999999
 21
9539.6
 31
0.0
  0
LINE
  5
160DE
330
747D
100
AcDbEntity
  8
仕様書枠
 48
50.0
100
AcDbLine
 10
16307.19999999999
 20
10219.6
 30
0.0
 11
13127.2
 21
10219.6
 31
0.0
  0
LINE
  5
160DF
330
747D
100
AcDbEntity
  8
仕様書枠
 48
50.0
100
AcDbLine
 10
16307.19999999999
 20
9879.600000000001
 30
0.0
 11
13127.19999999999
 21
9879.600000000001
 31
0.0
  0
TEXT
  5
160E0
330
747D
100
AcDbEntity
  8
文字
 62
     7
 48
50.0
100
AcDbText
 10
13248.77747366447
 20
9400.013745883729
 30
0.0
 40
100.0
  1
11
  7
STYLE1
100
AcDbText
  0
LINE
  5
160E1
330
747D
100
AcDbEntity
  8
仕様書枠
 48
50.0
100
AcDbLine
 10
16307.19999999999
 20
9199.600000000001
 30
0.0
 11
13127.19999999999
 21
9199.600000000001
 31
0.0
  0
LINE
  5
160E2
330
747D
100
AcDbEntity
  8
仕様書枠
 48
50.0
100
AcDbLine
 10
16307.19999999999
 20
8519.600000000004
 30
0.0
 11
13127.19999999999
 21
8519.600000000009
 31
0.0
  0
TEXT
  5
160E3
330
747D
100
AcDbEntity
  8
文字
 62
     7
 48
50.0
100
AcDbText
 10
13248.77747366447
 20
9060.013745883729
 30
0.0
 40
100.0
  1
13
  7
STYLE1
100
AcDbText
  0
TEXT
  5
160E4
330
747D
100
AcDbEntity
  8
文字
 62
     7
 48
50.0
100
AcDbText
 10
13248.77747366447
 20
9230.013745883729
 30
0.0
 40
100.0
  1
12
  7
STYLE1
100
AcDbText
  0
TEXT
  5
160E5
330
747D
100
AcDbEntity
  8
文字
 62
     7
 48
50.0
100
AcDbText
 10
15022.63965474517
 20
11100.01374588372
 30
0.0
 40
100.0
  1
F12            1.2
  7
STYLE1
100
AcDbText
  0
TEXT
  5
160E6
330
747D
100
AcDbEntity
  8
文字
 62
     7
 48
50.0
100
AcDbText
 10
15022.63965474518
 20
10930.01374588372
 30
0.0
 40
100.0
  1
F12            1.0
  7
STYLE1
100
AcDbText
  0
TEXT
  5
160E7
330
747D
100
AcDbEntity
  8
文字
 62
     7
 48
50.0
100
AcDbText
 10
15022.63965474517
 20
10590.01374588372
 30
0.0
 40
100.0
  1
Y10            1.0
  7
STYLE1
100
AcDbText
  0
TEXT
  5
160E8
330
747D
100
AcDbEntity
  8
文字
 62
     7
 48
50.0
100
AcDbText
 10
15022.63965474516
 20
10420.01374588372
 30
0.0
 40
100.0
  1
Y10            1.0
  7
STYLE1
100
AcDbText
  0
TEXT
  5
160E9
330
747D
100
AcDbEntity
  8
文字
 62
     7
 48
50.0
100
AcDbText
 10
15022.63965474517
 20
10250.01374588372
 30
0.0
 40
100.0
  1
Y10            0.7
  7
STYLE1
100
AcDbText
  0
TEXT
  5
160EA
330
747D
100
AcDbEntity
  8
文字
 62
     7
 48
50.0
100
AcDbText
 10
15022.63965474516
 20
10080.01374588372
 30
0.0
 40
100.0
  1
Y10            0.7
  7
STYLE1
100
AcDbText
  0
TEXT
  5
160EB
330
747D
100
AcDbEntity
  8
文字
 62
     7
 48
50.0
100
AcDbText
 10
15022.63965474517
 20
9740.013745883725
 30
0.0
 40
100.0
  1
Y10            0.5
  7
STYLE1
100
AcDbText
  0
TEXT
  5
160EC
330
747D
100
AcDbEntity
  8
文字
 62
     7
 48
50.0
100
AcDbText
 10
15022.63965474515
 20
9570.013745883725
 30
0.0
 40
100.0
  1
F12            0.6
  7
STYLE1
100
AcDbText
  0
LINE
  5
160ED
330
747D
100
AcDbEntity
  8
仕様書枠
 48
50.0
100
AcDbLine
 10
16307.19999999998
 20
8349.600000000007
 30
0.0
 11
13127.19999999999
 21
8349.600000000007
 31
0.0
  0
TEXT
  5
160EE
330
747D
100
AcDbEntity
  8
文字
 62
     7
 48
50.0
100
AcDbText
 10
13229.83081656554
 20
8550.013745883733
 30
0.0
 40
100.0
  1
F12→溶融亜鉛めっき鋼板(JIS G 3302)
  7
STYLE1
100
AcDbText
  0
TEXT
  5
160EF
330
747D
100
AcDbEntity
  8
文字
 62
     7
 48
50.0
100
AcDbText
 10
13229.83081656554
 20
8380.013745883733
 30
0.0
 40
100.0
  1
Y10→溶融亜鉛-5％アルミニウム合金めっき鋼板(JIS G 3317)
 41
0.9
  7
STYLE1
100
AcDbText
  0
LINE
  5
160F0
330
747D
100
AcDbEntity
  8
仕様書枠
 48
50.0
100
AcDbLine
 10
13127.2
 20
11409.6
 30
0.0
 11
13127.19999999999
 21
8349.600000000007
 31
0.0
  0
LINE
  5
160F1
330
747D
100
AcDbEntity
  8
仕様書枠
 48
50.0
100
AcDbLine
 10
16307.19999999999
 20
8689.600000000003
 30
0.0
 11
13127.19999999999
 21
8689.600000000007
 31
0.0
  0
TEXT
  5
160F2
330
747D
100
AcDbEntity
  8
文字
 62
     7
 48
50.0
100
AcDbText
 10
13583.1181901657
 20
10760.01374588373
 30
0.0
 40
100.0
  1
床パネル
 41
0.9
  7
STYLE1
100
AcDbText
  0
TEXT
  5
160F3
330
747D
100
AcDbEntity
  8
文字
 62
     7
 48
50.0
100
AcDbText
 10
15022.63965474517
 20
10760.01374588372
 30
0.0
 40
100.0
  1
F12            1.0
  7
STYLE1
100
AcDbText
  0
TEXT
  5
160F4
330
747D
100
AcDbEntity
  8
文字
 62
     7
 48
50.0
100
AcDbText
 10
15022.63965474515
 20
9400.013745883725
 30
0.0
 40
100.0
  1
F12            0.8
  7
STYLE1
100
AcDbText
  0
TEXT
  5
160F5
330
747D
100
AcDbEntity
  8
文字
 62
     7
 48
50.0
100
AcDbText
 10
13583.11819016568
 20
9400.013745883729
 30
0.0
 40
100.0
  1
扉
  7
STYLE1
100
AcDbText
  0
TEXT
  5
160F6
330
747D
100
AcDbEntity
  8
文字
 62
     7
 48
50.0
100
AcDbText
 10
15022.63965474515
 20
9230.013745883729
 30
0.0
 40
100.0
  1
F12            0.6
  7
STYLE1
100
AcDbText
  0
TEXT
  5
160F7
330
747D
100
AcDbEntity
  8
文字
 62
     7
 48
50.0
100
AcDbText
 10
13583.11819016568
 20
9230.013745883733
 30
0.0
 40
100.0
  1
棚板
  7
STYLE1
100
AcDbText
  0
TEXT
  5
16102
330
747D
100
AcDbEntity
  8
文字
 62
     7
 48
50.0
100
AcDbText
 10
14271.39351435261
 20
483.8967129911411
 30
0.0
 40
160.0
  1
ＮＸＤ－０８Ｌ－３
  7
STYLE2
100
AcDbText
  0
TEXT
  5
16A3C
330
747D
100
AcDbEntity
  8
部品1
100
AcDbText
 10
5753.165631500074
 20
2673.607166858619
 30
0.0
 40
135.0
  1
正面図
  7
STYLE2
100
AcDbText
  0
LWPOLYLINE
  5
16A3D
330
747D
100
AcDbEntity
  8
部品1
100
AcDbPolyline
 90
        4
 70
     1
 43
0.0
 10
5662.640227762121
 20
2866.500696077143
 10
5662.640227762121
 20
2626.60837453161
 10
6426.11089399056
 20
2626.60837453161
 10
6426.11089399056
 20
2866.500696077143
  0
DIMENSION
  5
1709C
330
747D
100
AcDbEntity
  8
寸法
 48
50.0
100
AcDbDimension
  2
*D25
 10
7324.375560876342
 20
6080.075840589954
 30
0.0
 11
6044.37556087634
 21
6080.075840589954
 31
0.0
 70
   160
 71
     5
 42
2560.000000000004
  3
INABA_S40G
100
AcDbAlignedDimension
 13
4764.375560876338
 23
5644.577276893866
 33
0.0
 14
7324.375560876342
 24
5644.577276893862
 34
0.0
100
AcDbRotatedDimension
  0
DIMENSION
  5
1709D
330
747D
100
AcDbEntity
  8
寸法
 48
50.0
100
AcDbDimension
  2
*D24
 10
4814.375560876339
 20
5857.118862152105
 30
0.0
 11
6044.37556087634
 21
5857.118862152105
 31
0.0
 70
   160
  1
柱外寸法<>
 71
     5
 42
2460.000000000004
  3
INABA_S40G
100
AcDbAlignedDimension
 13
7274.375560876342
 23
5644.577276893864
 33
0.0
 14
4814.375560876339
 24
5644.577276893869
 34
0.0
100
AcDbRotatedDimension
  0
DIMENSION
  5
1709E
330
747D
100
AcDbEntity
  8
寸法
 48
50.0
100
AcDbDimension
  2
*D23
 10
4764.375560876338
 20
5857.118862152105
 30
0.0
 11
4450.890279502091
 21
5857.118862152105
 31
0.0
 70
   160
 71
     5
 42
50.0
  3
INABA_S40G
100
AcDbAlignedDimension
 13
4814.375560876339
 23
5644.577276893869
 33
0.0
 14
4764.375560876338
 24
5644.577276893866
 34
0.0
100
AcDbRotatedDimension
1001
ACAD
1000
DSTYLE
1002
{
1002
}
  0
LINE
  5
1709F
330
747D
100
AcDbEntity
  8
細線
 48
50.0
100
AcDbLine
 10
4797.375560876338
 20
5644.577276893866
 30
0.0
 11
4797.375560876338
 21
5503.577276893864
 31
0.0
  0
ARC
  5
170A0
330
747D
100
AcDbEntity
  8
部品1
100
AcDbCircle
 10
4771.783981982768
 20
5637.577276893866
 30
0.0
 40
7.0
100
AcDbArc
 50
90.0
 51
183.2473427903377
  0
ARC
  5
170A1
330
747D
100
AcDbEntity
  8
部品1
100
AcDbCircle
 10
4784.999305443801
 20
5510.577276893868
 30
0.0
 40
7.0
100
AcDbArc
 50
183.2473427903377
 51
270.0
  0
ARC
  5
170A2
330
747D
100
AcDbEntity
  8
部品1
 48
50.0
100
AcDbCircle
 10
4766.627495233126
 20
5617.244276055553
 30
0.0
 40
0.7
100
AcDbArc
 50
183.2473427903897
 51
262.3418727926349
  0
ARC
  5
170A3
330
747D
100
AcDbEntity
  8
部品1
 48
50.0
100
AcDbCircle
 10
4774.863525757966
 20
5525.044276055549
 30
0.0
 40
0.7
100
AcDbArc
 50
183.2473427902856
 51
262.3418727926349
  0
ARC
  5
170A4
330
747D
100
AcDbEntity
  8
部品1
 48
50.0
100
AcDbCircle
 10
4774.370456649405
 20
5521.377276893865
 30
0.0
 40
3.0
100
AcDbArc
 50
3.247342790337682
 51
82.3418727926348
  0
ARC
  5
170A5
330
747D
100
AcDbEntity
  8
部品1
 48
50.0
100
AcDbCircle
 10
4766.134426124561
 20
5613.577276893866
 30
0.0
 40
3.0
100
AcDbArc
 50
3.247342790337682
 51
82.3418727926348
  0
LINE
  5
170A6
330
747D
100
AcDbEntity
  8
部品1
100
AcDbLine
 10
4769.129609020747
 20
5613.747216348969
 30
0.0
 11
4774.164649748858
 21
5525.004623516026
 31
0.0
  0
LINE
  5
170A7
330
747D
100
AcDbEntity
  8
部品1
100
AcDbLine
 10
4777.365639545594
 20
5521.547216348968
 30
0.0
 11
4778.010545352702
 21
5510.180751498626
 31
0.0
  0
LINE
  5
170A8
330
747D
100
AcDbEntity
  8
部品1
100
AcDbLine
 10
4764.795221891669
 20
5637.180751498625
 30
0.0
 11
4765.928619224018
 21
5617.204623516027
 31
0.0
  0
LINE
  5
170A9
330
747D
100
AcDbEntity
  8
部品1
 48
50.0
100
AcDbLine
 10
7316.967139769909
 20
5644.577276893862
 30
0.0
 11
4771.783981982768
 21
5644.577276893862
 31
0.0
  0
LINE
  5
170AA
330
747D
100
AcDbEntity
  8
細線
 48
50.0
100
AcDbLine
 10
7322.216909863695
 20
5616.55051945756
 30
0.0
 11
4766.534211886752
 21
5616.550519457862
 31
0.0
  0
LINE
  5
170AB
330
747D
100
AcDbEntity
  8
細線
 48
50.0
100
AcDbLine
 10
7313.980879338884
 20
5524.350519457561
 30
0.0
 11
4774.770242411585
 21
5524.350519457861
 31
0.0
  0
LINE
  5
170AC
330
747D
100
AcDbEntity
  8
部品1
 48
50.0
100
AcDbLine
 10
7303.751816308874
 20
5503.577276893862
 30
0.0
 11
4784.999305443801
 21
5503.577276893864
 31
0.0
  0
DIMENSION
  5
170F0
330
747D
100
AcDbEntity
  8
寸法
 48
50.0
100
AcDbDimension
  2
*D26
 10
7274.375560876342
 20
5857.118862152103
 30
0.0
 11
7637.860842250579
 21
5857.118862152103
 31
0.0
 70
   160
 71
     5
 42
50.0
  3
INABA_S40G
100
AcDbAlignedDimension
 13
7324.375560876342
 23
5644.577276893862
 33
0.0
 14
7274.375560876342
 24
5644.577276893864
 34
0.0
100
AcDbRotatedDimension
  0
LINE
  5
170F1
330
747D
100
AcDbEntity
  8
部品1
100
AcDbLine
 10
7323.955899861008
 20
5637.180751498623
 30
0.0
 11
7322.822502528663
 21
5617.204623516023
 31
0.0
  0
LINE
  5
170F2
330
747D
100
AcDbEntity
  8
細線
 48
50.0
100
AcDbLine
 10
7291.375560876343
 20
5644.577276893862
 30
0.0
 11
7291.375560876343
 21
5503.577276893862
 31
0.0
  0
LINE
  5
170F3
330
747D
100
AcDbEntity
  8
部品1
100
AcDbLine
 10
7311.385482207086
 20
5521.547216348965
 30
0.0
 11
7310.740576399973
 21
5510.180751498625
 31
0.0
  0
LINE
  5
170F4
330
747D
100
AcDbEntity
  8
部品1
100
AcDbLine
 10
7319.621512731931
 20
5613.747216348965
 30
0.0
 11
7314.586472003819
 21
5525.004623516022
 31
0.0
  0
ARC
  5
170F5
330
747D
100
AcDbEntity
  8
部品1
 48
50.0
100
AcDbCircle
 10
7322.616695628116
 20
5613.577276893864
 30
0.0
 40
3.0
100
AcDbArc
 50
97.65812720736519
 51
176.7526572096623
  0
ARC
  5
170F6
330
747D
100
AcDbEntity
  8
部品1
 48
50.0
100
AcDbCircle
 10
7314.380665103271
 20
5521.377276893861
 30
0.0
 40
3.0
100
AcDbArc
 50
97.65812720736519
 51
176.7526572096623
  0
ARC
  5
170F7
330
747D
100
AcDbEntity
  8
部品1
 48
50.0
100
AcDbCircle
 10
7313.887595994711
 20
5525.044276055545
 30
0.0
 40
0.7
100
AcDbArc
 50
277.6581272073652
 51
356.7526572097143
  0
ARC
  5
170F8
330
747D
100
AcDbEntity
  8
部品1
 48
50.0
100
AcDbCircle
 10
7322.123626519554
 20
5617.24427605555
 30
0.0
 40
0.7
100
AcDbArc
 50
277.6581272073652
 51
356.7526572096103
  0
ARC
  5
170F9
330
747D
100
AcDbEntity
  8
部品1
100
AcDbCircle
 10
7303.751816308874
 20
5510.577276893864
 30
0.0
 40
7.0
100
AcDbArc
 50
270.0
 51
356.7526572096623
  0
ARC
  5
170FA
330
747D
100
AcDbEntity
  8
部品1
100
AcDbCircle
 10
7316.967139769909
 20
5637.577276893862
 30
0.0
 40
7.0
100
AcDbArc
 50
356.7526572096623
 51
90.0
  0
ARC
  5
1718B
330
747D
100
AcDbEntity
  8
部品1
 48
0.01
100
AcDbCircle
 10
5312.375560876346
 20
5442.077276893859
 30
0.0
 40
2.0
100
AcDbArc
 50
270.0
 51
0.0
  0
ARC
  5
1718C
330
747D
100
AcDbEntity
  8
部品1
 48
0.01
100
AcDbCircle
 10
5312.375560876346
 20
5473.577276893859
 30
0.0
 40
2.0
100
AcDbArc
 50
0.0
 51
90.0
  0
ARC
  5
1718D
330
747D
100
AcDbEntity
  8
部品1
 48
0.01
100
AcDbCircle
 10
5136.375560876346
 20
5442.077276893859
 30
0.0
 40
2.0
100
AcDbArc
 50
180.0
 51
270.0
  0
ARC
  5
1718E
330
747D
100
AcDbEntity
  8
部品1
 48
0.01
100
AcDbCircle
 10
5136.375560876346
 20
5473.577276893859
 30
0.0
 40
2.0
100
AcDbArc
 50
90.0
 51
180.0
  0
LINE
  5
1718F
330
747D
100
AcDbEntity
  8
細線
100
AcDbLine
 10
5224.375560876346
 20
5446.077276893859
 30
0.0
 11
5298.375560876346
 21
5446.077276893859
 31
0.0
  0
LINE
  5
17190
330
747D
100
AcDbEntity
  8
細線
100
AcDbLine
 10
5224.375560876346
 20
5469.077276893859
 30
0.0
 11
5150.375560876346
 21
5469.077276893859
 31
0.0
  0
LINE
  5
17191
330
747D
100
AcDbEntity
  8
細線
100
AcDbLine
 10
5150.375560876346
 20
5446.077276893859
 30
0.0
 11
5224.375560876346
 21
5446.077276893859
 31
0.0
  0
LINE
  5
17192
330
747D
100
AcDbEntity
  8
細線
100
AcDbLine
 10
5298.375560876346
 20
5469.077276893859
 30
0.0
 11
5224.375560876346
 21
5469.077276893859
 31
0.0
  0
LINE
  5
17193
330
747D
100
AcDbEntity
  8
細線
100
AcDbLine
 10
5298.375560876346
 20
5446.077276893859
 30
0.0
 11
5298.375560876346
 21
5469.077276893859
 31
0.0
  0
LINE
  5
17194
330
747D
100
AcDbEntity
  8
細線
100
AcDbLine
 10
5150.375560876346
 20
5469.077276893859
 30
0.0
 11
5150.375560876346
 21
5446.077276893859
 31
0.0
  0
LINE
  5
17195
330
747D
100
AcDbEntity
  8
部品1
 48
0.01
100
AcDbLine
 10
5314.375560876346
 20
5442.077276893859
 30
0.0
 11
5314.375560876346
 21
5473.577276893859
 31
0.0
  0
LINE
  5
17196
330
747D
100
AcDbEntity
  8
部品1
 48
0.01
100
AcDbLine
 10
5136.375560876346
 20
5440.077276893859
 30
0.0
 11
5312.375560876346
 21
5440.077276893859
 31
0.0
  0
LINE
  5
17197
330
747D
100
AcDbEntity
  8
部品1
 48
0.01
100
AcDbLine
 10
5134.375560876346
 20
5473.577276893859
 30
0.0
 11
5134.375560876346
 21
5442.077276893859
 31
0.0
  0
LINE
  5
17198
330
747D
100
AcDbEntity
  8
部品1
 48
0.01
100
AcDbLine
 10
5312.375560876346
 20
5475.577276893858
 30
0.0
 11
5136.375560876346
 21
5475.577276893858
 31
0.0
  0
LINE
  5
17199
330
747D
100
AcDbEntity
  8
細線
100
AcDbLine
 10
5150.375560876346
 20
5463.077276893859
 30
0.0
 11
5224.375560876346
 21
5463.077276893859
 31
0.0
  0
LINE
  5
1719A
330
747D
100
AcDbEntity
  8
細線
100
AcDbLine
 10
5150.375560876346
 20
5457.077276893858
 30
0.0
 11
5224.375560876346
 21
5457.077276893858
 31
0.0
  0
LINE
  5
1719B
330
747D
100
AcDbEntity
  8
細線
100
AcDbLine
 10
5150.375560876346
 20
5451.077276893858
 30
0.0
 11
5224.375560876346
 21
5451.077276893858
 31
0.0
  0
LINE
  5
1719C
330
747D
100
AcDbEntity
  8
細線
100
AcDbLine
 10
5150.375560876346
 20
5463.077276893859
 30
0.0
 11
5219.375560876346
 21
5463.077276893859
 31
0.0
  0
LINE
  5
1719D
330
747D
100
AcDbEntity
  8
細線
100
AcDbLine
 10
5298.375560876346
 20
5463.077276893859
 30
0.0
 11
5224.375560876346
 21
5463.077276893859
 31
0.0
  0
LINE
  5
1719E
330
747D
100
AcDbEntity
  8
細線
100
AcDbLine
 10
5298.375560876346
 20
5451.077276893858
 30
0.0
 11
5224.375560876346
 21
5451.077276893858
 31
0.0
  0
LINE
  5
1719F
330
747D
100
AcDbEntity
  8
細線
100
AcDbLine
 10
5298.375560876346
 20
5457.077276893858
 30
0.0
 11
5224.375560876346
 21
5457.077276893858
 31
0.0
  0
LINE
  5
171A0
330
747D
100
AcDbEntity
  8
細線
100
AcDbLine
 10
5224.375560876346
 20
5469.077276893859
 30
0.0
 11
5224.375560876346
 21
5446.077276893859
 31
0.0
  0
LINE
  5
171A1
330
747D
100
AcDbEntity
  8
細線
100
AcDbLine
 10
6044.375560876345
 20
5469.077276893859
 30
0.0
 11
6044.375560876345
 21
5446.077276893859
 31
0.0
  0
LINE
  5
171A2
330
747D
100
AcDbEntity
  8
細線
100
AcDbLine
 10
6118.375560876344
 20
5457.077276893858
 30
0.0
 11
6044.375560876345
 21
5457.077276893858
 31
0.0
  0
LINE
  5
171A3
330
747D
100
AcDbEntity
  8
細線
100
AcDbLine
 10
6118.375560876344
 20
5451.077276893858
 30
0.0
 11
6044.375560876345
 21
5451.077276893858
 31
0.0
  0
LINE
  5
171A4
330
747D
100
AcDbEntity
  8
細線
100
AcDbLine
 10
6118.375560876344
 20
5463.077276893859
 30
0.0
 11
6044.375560876345
 21
5463.077276893859
 31
0.0
  0
LINE
  5
171A5
330
747D
100
AcDbEntity
  8
細線
100
AcDbLine
 10
5970.375560876345
 20
5463.077276893859
 30
0.0
 11
6039.375560876345
 21
5463.077276893859
 31
0.0
  0
LINE
  5
171A6
330
747D
100
AcDbEntity
  8
細線
100
AcDbLine
 10
5970.375560876345
 20
5451.077276893858
 30
0.0
 11
6044.375560876345
 21
5451.077276893858
 31
0.0
  0
LINE
  5
171A7
330
747D
100
AcDbEntity
  8
細線
100
AcDbLine
 10
5970.375560876345
 20
5457.077276893858
 30
0.0
 11
6044.375560876345
 21
5457.077276893858
 31
0.0
  0
LINE
  5
171A8
330
747D
100
AcDbEntity
  8
細線
100
AcDbLine
 10
5970.375560876345
 20
5463.077276893859
 30
0.0
 11
6044.375560876345
 21
5463.077276893859
 31
0.0
  0
LINE
  5
171A9
330
747D
100
AcDbEntity
  8
部品1
 48
0.01
100
AcDbLine
 10
6132.375560876345
 20
5475.577276893858
 30
0.0
 11
5956.375560876345
 21
5475.577276893858
 31
0.0
  0
LINE
  5
171AA
330
747D
100
AcDbEntity
  8
部品1
 48
0.01
100
AcDbLine
 10
5954.375560876345
 20
5473.577276893859
 30
0.0
 11
5954.375560876345
 21
5442.077276893859
 31
0.0
  0
LINE
  5
171AB
330
747D
100
AcDbEntity
  8
部品1
 48
0.01
100
AcDbLine
 10
5956.375560876345
 20
5440.077276893859
 30
0.0
 11
6132.375560876345
 21
5440.077276893859
 31
0.0
  0
LINE
  5
171AC
330
747D
100
AcDbEntity
  8
部品1
 48
0.01
100
AcDbLine
 10
6134.375560876345
 20
5442.077276893859
 30
0.0
 11
6134.375560876345
 21
5473.577276893859
 31
0.0
  0
LINE
  5
171AD
330
747D
100
AcDbEntity
  8
細線
100
AcDbLine
 10
5970.375560876345
 20
5469.077276893859
 30
0.0
 11
5970.375560876345
 21
5446.077276893859
 31
0.0
  0
LINE
  5
171AE
330
747D
100
AcDbEntity
  8
細線
100
AcDbLine
 10
6118.375560876344
 20
5446.077276893859
 30
0.0
 11
6118.375560876344
 21
5469.077276893859
 31
0.0
  0
LINE
  5
171AF
330
747D
100
AcDbEntity
  8
細線
100
AcDbLine
 10
6118.375560876344
 20
5469.077276893859
 30
0.0
 11
6044.375560876345
 21
5469.077276893859
 31
0.0
  0
LINE
  5
171B0
330
747D
100
AcDbEntity
  8
細線
100
AcDbLine
 10
5970.375560876345
 20
5446.077276893859
 30
0.0
 11
6044.375560876345
 21
5446.077276893859
 31
0.0
  0
LINE
  5
171B1
330
747D
100
AcDbEntity
  8
細線
100
AcDbLine
 10
6044.375560876345
 20
5469.077276893859
 30
0.0
 11
5970.375560876345
 21
5469.077276893859
 31
0.0
  0
LINE
  5
171B2
330
747D
100
AcDbEntity
  8
細線
100
AcDbLine
 10
6044.375560876345
 20
5446.077276893859
 30
0.0
 11
6118.375560876344
 21
5446.077276893859
 31
0.0
  0
ARC
  5
171B3
330
747D
100
AcDbEntity
  8
部品1
 48
0.01
100
AcDbCircle
 10
5956.375560876345
 20
5473.577276893859
 30
0.0
 40
2.0
100
AcDbArc
 50
90.0
 51
180.0
  0
ARC
  5
171B4
330
747D
100
AcDbEntity
  8
部品1
 48
0.01
100
AcDbCircle
 10
5956.375560876345
 20
5442.077276893859
 30
0.0
 40
2.0
100
AcDbArc
 50
180.0
 51
270.0
  0
ARC
  5
171B5
330
747D
100
AcDbEntity
  8
部品1
 48
0.01
100
AcDbCircle
 10
6132.375560876345
 20
5473.577276893859
 30
0.0
 40
2.0
100
AcDbArc
 50
0.0
 51
90.0
  0
ARC
  5
171B6
330
747D
100
AcDbEntity
  8
部品1
 48
0.01
100
AcDbCircle
 10
6132.375560876345
 20
5442.077276893859
 30
0.0
 40
2.0
100
AcDbArc
 50
270.0
 51
0.0
  0
ARC
  5
171B7
330
747D
100
AcDbEntity
  8
部品1
 48
0.01
100
AcDbCircle
 10
6952.375560876348
 20
5442.077276893859
 30
0.0
 40
2.0
100
AcDbArc
 50
270.0
 51
0.0
  0
ARC
  5
171B8
330
747D
100
AcDbEntity
  8
部品1
 48
0.01
100
AcDbCircle
 10
6952.375560876348
 20
5473.577276893859
 30
0.0
 40
2.0
100
AcDbArc
 50
0.0
 51
90.0
  0
ARC
  5
171B9
330
747D
100
AcDbEntity
  8
部品1
 48
0.01
100
AcDbCircle
 10
6776.375560876347
 20
5442.077276893859
 30
0.0
 40
2.0
100
AcDbArc
 50
180.0
 51
270.0
  0
ARC
  5
171BA
330
747D
100
AcDbEntity
  8
部品1
 48
0.01
100
AcDbCircle
 10
6776.375560876347
 20
5473.577276893859
 30
0.0
 40
2.0
100
AcDbArc
 50
90.0
 51
180.0
  0
LINE
  5
171BB
330
747D
100
AcDbEntity
  8
細線
100
AcDbLine
 10
6864.375560876348
 20
5446.077276893859
 30
0.0
 11
6938.375560876348
 21
5446.077276893859
 31
0.0
  0
LINE
  5
171BC
330
747D
100
AcDbEntity
  8
細線
100
AcDbLine
 10
6864.375560876348
 20
5469.077276893859
 30
0.0
 11
6790.375560876348
 21
5469.077276893859
 31
0.0
  0
LINE
  5
171BD
330
747D
100
AcDbEntity
  8
細線
100
AcDbLine
 10
6790.375560876348
 20
5446.077276893859
 30
0.0
 11
6864.375560876348
 21
5446.077276893859
 31
0.0
  0
LINE
  5
171BE
330
747D
100
AcDbEntity
  8
細線
100
AcDbLine
 10
6938.375560876348
 20
5469.077276893859
 30
0.0
 11
6864.375560876348
 21
5469.077276893859
 31
0.0
  0
LINE
  5
171BF
330
747D
100
AcDbEntity
  8
細線
100
AcDbLine
 10
6938.375560876348
 20
5446.077276893859
 30
0.0
 11
6938.375560876348
 21
5469.077276893859
 31
0.0
  0
LINE
  5
171C0
330
747D
100
AcDbEntity
  8
細線
100
AcDbLine
 10
6790.375560876348
 20
5469.077276893859
 30
0.0
 11
6790.375560876348
 21
5446.077276893859
 31
0.0
  0
LINE
  5
171C1
330
747D
100
AcDbEntity
  8
部品1
 48
0.01
100
AcDbLine
 10
6954.375560876347
 20
5442.077276893859
 30
0.0
 11
6954.375560876347
 21
5473.577276893859
 31
0.0
  0
LINE
  5
171C2
330
747D
100
AcDbEntity
  8
部品1
 48
0.01
100
AcDbLine
 10
6776.375560876347
 20
5440.077276893859
 30
0.0
 11
6952.375560876348
 21
5440.077276893859
 31
0.0
  0
LINE
  5
171C3
330
747D
100
AcDbEntity
  8
部品1
 48
0.01
100
AcDbLine
 10
6774.375560876348
 20
5473.577276893859
 30
0.0
 11
6774.375560876348
 21
5442.077276893859
 31
0.0
  0
LINE
  5
171C4
330
747D
100
AcDbEntity
  8
部品1
 48
0.01
100
AcDbLine
 10
6952.375560876348
 20
5475.577276893858
 30
0.0
 11
6776.375560876347
 21
5475.577276893858
 31
0.0
  0
LINE
  5
171C5
330
747D
100
AcDbEntity
  8
細線
100
AcDbLine
 10
6790.375560876348
 20
5463.077276893859
 30
0.0
 11
6864.375560876348
 21
5463.077276893859
 31
0.0
  0
LINE
  5
171C6
330
747D
100
AcDbEntity
  8
細線
100
AcDbLine
 10
6790.375560876348
 20
5457.077276893858
 30
0.0
 11
6864.375560876348
 21
5457.077276893858
 31
0.0
  0
LINE
  5
171C7
330
747D
100
AcDbEntity
  8
細線
100
AcDbLine
 10
6790.375560876348
 20
5451.077276893858
 30
0.0
 11
6864.375560876348
 21
5451.077276893858
 31
0.0
  0
LINE
  5
171C8
330
747D
100
AcDbEntity
  8
細線
100
AcDbLine
 10
6790.375560876348
 20
5463.077276893859
 30
0.0
 11
6859.375560876348
 21
5463.077276893859
 31
0.0
  0
LINE
  5
171C9
330
747D
100
AcDbEntity
  8
細線
100
AcDbLine
 10
6938.375560876348
 20
5463.077276893859
 30
0.0
 11
6864.375560876348
 21
5463.077276893859
 31
0.0
  0
LINE
  5
171CA
330
747D
100
AcDbEntity
  8
細線
100
AcDbLine
 10
6938.375560876348
 20
5451.077276893858
 30
0.0
 11
6864.375560876348
 21
5451.077276893858
 31
0.0
  0
LINE
  5
171CB
330
747D
100
AcDbEntity
  8
細線
100
AcDbLine
 10
6938.375560876348
 20
5457.077276893858
 30
0.0
 11
6864.375560876348
 21
5457.077276893858
 31
0.0
  0
LINE
  5
171CC
330
747D
100
AcDbEntity
  8
細線
100
AcDbLine
 10
6864.375560876348
 20
5469.077276893859
 30
0.0
 11
6864.375560876348
 21
5446.077276893859
 31
0.0
  0
MTEXT
  5
175A5
330
747D
100
AcDbEntity
  8
寸法
 62
     7
 48
50.0
100
AcDbMText
 10
6059.655365164633
 20
8900.880204517013
 30
0.0
 40
96.0
 41
0.0
 71
     5
 72
     1
  1
棚 2段
  7
STYLE1
 73
     1
 44
1.0
1001
ACAD
1000
MTEXTBEGIN
1070
    73
1070
     1
1070
    44
1040
1.0
1070
    74
1070
     0
1000
MTEXTEND
  0
MTEXT
  5
175A6
330
747D
100
AcDbEntity
  8
寸法
 62
     7
 48
50.0
100
AcDbMText
 10
5239.655371842331
 20
8900.880204517028
 30
0.0
 40
96.0
 41
0.0
 71
     5
 72
     1
  1
棚 2段
  7
STYLE1
 73
     1
 44
1.0
1001
ACAD
1000
MTEXTBEGIN
1070
    73
1070
     1
1070
    44
1040
1.0
1070
    74
1070
     0
1000
MTEXTEND
  0
MTEXT
  5
17780
330
747D
100
AcDbEntity
  8
寸法
 62
     7
 48
50.0
100
AcDbMText
 10
6879.655358486935
 20
8900.880204516973
 30
0.0
 40
96.0
 41
0.0
 71
     5
 72
     1
  1
棚 2段
  7
STYLE1
 73
     1
 44
1.0
1001
ACAD
1000
MTEXTBEGIN
1070
    73
1070
     1
1070
    44
1040
1.0
1070
    74
1070
     0
1000
MTEXTEND
  0
DIMENSION
  5
1796F
330
747D
100
AcDbEntity
  8
寸法
100
AcDbDimension
  2
*D27
 10
9059.284382744518
 20
3569.577276893863
 30
0.0
 11
9059.284382744518
 21
3263.530032799372
 31
0.0
 70
   160
 71
     5
 42
50.00000000000182
  3
INABA_S40G
100
AcDbAlignedDimension
 13
9654.245103391943
 23
3619.577276893864
 33
0.0
 14
9606.247473436722
 24
3569.577276893863
 34
0.0
 50
90.0
100
AcDbRotatedDimension
1001
ACAD
1000
DSTYLE
1002
{
1070
   174
1070
     0
1070
   272
1070
     1
1070
   288
1070
     0
1070
   341
1005
0
1002
}
  0
DIMENSION
  5
179B9
330
747D
100
AcDbEntity
  8
寸法
 48
50.0
100
AcDbDimension
  2
*D29
 10
11141.65601137055
 20
5589.57727689386
 30
0.0
 11
11141.65601137055
 21
4521.501672958286
 31
0.0
 70
   160
 71
     5
 42
2020.000000000001
  3
INABA_S40
100
AcDbAlignedDimension
 13
10611.24747343672
 23
3569.57727689386
 33
0.0
 14
10691.24747343673
 24
5589.57727689386
 34
0.0
 50
90.0
100
AcDbRotatedDimension
1001
ACAD
1000
DSTYLE
1002
{
1070
    41
1040
0.5
1070
    44
1040
1.0
1070
   147
1040
0.8
1070
   271
1070
     2
1070
   272
1070
     2
1070
   289
1070
     3
1070
   340
1005
F706
1070
   343
1005
15E1F
1070
   344
1005
15E1F
1002
}
  0
LINE
  5
179BA
330
747D
100
AcDbEntity
  8
部品1
100
AcDbLine
 10
10611.24747343672
 20
5465.363037099148
 30
0.0
 11
10611.24747343672
 21
3469.57727689386
 31
0.0
  0
LINE
  5
179BB
330
747D
100
AcDbEntity
  8
部品1
100
AcDbLine
 10
9661.247473436722
 20
5500.697314378673
 30
0.0
 11
9661.247473436722
 21
3469.57727689386
 31
0.0
  0
LINE
  5
179BC
330
747D
100
AcDbEntity
  8
部品1
100
AcDbLine
 10
10556.24747343672
 20
5409.577276893861
 30
0.0
 11
10556.24747343672
 21
3619.57727689386
 31
0.0
  0
LINE
  5
179BD
330
747D
100
AcDbEntity
  8
部品1
100
AcDbLine
 10
9716.247473436721
 20
5409.577276893861
 30
0.0
 11
9716.247473436721
 21
3619.57727689386
 31
0.0
  0
LINE
  5
179BE
330
747D
100
AcDbEntity
  8
部品1
100
AcDbLine
 10
10136.24747343672
 20
5409.577276893861
 30
0.0
 11
10136.24747343672
 21
3619.57727689386
 31
0.0
  0
LINE
  5
179BF
330
747D
100
AcDbEntity
  8
部品1
100
AcDbLine
 10
9661.247473436722
 20
3619.57727689386
 30
0.0
 11
10611.24747343672
 21
3619.57727689386
 31
0.0
  0
LINE
  5
179C0
330
747D
100
AcDbEntity
  8
部品1
100
AcDbLine
 10
9661.247473436722
 20
3569.57727689386
 30
0.0
 11
10611.24747343672
 21
3569.57727689386
 31
0.0
  0
LINE
  5
179C1
330
747D
100
AcDbEntity
  8
部品1
100
AcDbLine
 10
9661.24747343672
 20
5409.577276893861
 30
0.0
 11
10611.24747343672
 21
5409.577276893861
 31
0.0
  0
LINE
  5
179C2
330
747D
100
AcDbEntity
  8
細線
 48
50.0
100
AcDbLine
 10
10478.74747343672
 20
5409.577276893861
 30
0.0
 11
10478.74747343672
 21
3619.57727689386
 31
0.0
  0
LINE
  5
179C3
330
747D
100
AcDbEntity
  8
細線
 48
50.0
100
AcDbLine
 10
10493.74747343672
 20
5409.577276893861
 30
0.0
 11
10493.74747343672
 21
3619.57727689386
 31
0.0
  0
LINE
  5
179C4
330
747D
100
AcDbEntity
  8
細線
 48
50.0
100
AcDbLine
 10
10353.74747343672
 20
5409.577276893861
 30
0.0
 11
10353.74747343672
 21
3619.57727689386
 31
0.0
  0
LINE
  5
179C5
330
747D
100
AcDbEntity
  8
細線
 48
50.0
100
AcDbLine
 10
10338.74747343672
 20
5409.577276893861
 30
0.0
 11
10338.74747343672
 21
3619.57727689386
 31
0.0
  0
LINE
  5
179C6
330
747D
100
AcDbEntity
  8
細線
 48
50.0
100
AcDbLine
 10
10198.74747343672
 20
5409.577276893861
 30
0.0
 11
10198.74747343672
 21
3619.57727689386
 31
0.0
  0
LINE
  5
179C7
330
747D
100
AcDbEntity
  8
細線
 48
50.0
100
AcDbLine
 10
10213.74747343672
 20
5409.577276893861
 30
0.0
 11
10213.74747343672
 21
3619.57727689386
 31
0.0
  0
LINE
  5
179C8
330
747D
100
AcDbEntity
  8
細線
 48
50.0
100
AcDbLine
 10
10058.74747343672
 20
5409.577276893861
 30
0.0
 11
10058.74747343672
 21
3619.57727689386
 31
0.0
  0
LINE
  5
179C9
330
747D
100
AcDbEntity
  8
細線
 48
50.0
100
AcDbLine
 10
10073.74747343672
 20
5409.577276893861
 30
0.0
 11
10073.74747343672
 21
3619.57727689386
 31
0.0
  0
LINE
  5
179CA
330
747D
100
AcDbEntity
  8
細線
 48
50.0
100
AcDbLine
 10
9933.747473436724
 20
5409.577276893861
 30
0.0
 11
9933.747473436724
 21
3619.57727689386
 31
0.0
  0
LINE
  5
179CB
330
747D
100
AcDbEntity
  8
細線
 48
50.0
100
AcDbLine
 10
9918.747473436724
 20
5409.577276893861
 30
0.0
 11
9918.747473436724
 21
3619.57727689386
 31
0.0
  0
LINE
  5
179CC
330
747D
100
AcDbEntity
  8
細線
 48
50.0
100
AcDbLine
 10
9778.747473436725
 20
5409.577276893861
 30
0.0
 11
9778.747473436725
 21
3619.57727689386
 31
0.0
  0
LINE
  5
179CD
330
747D
100
AcDbEntity
  8
細線
 48
50.0
100
AcDbLine
 10
9793.747473436724
 20
5409.577276893861
 30
0.0
 11
9793.747473436724
 21
3619.57727689386
 31
0.0
  0
DIMENSION
  5
179CE
330
747D
100
AcDbEntity
  8
寸法
 48
50.0
100
AcDbDimension
  2
*D30
 10
10691.24747343672
 20
6043.234730473165
 30
0.0
 11
10897.29471753121
 21
6043.234730473165
 31
0.0
 70
   160
 71
     5
 42
80.0
  3
INABA_S40G
100
AcDbAlignedDimension
 13
10611.24747343672
 23
5591.387956505514
 33
0.0
 14
10691.24747343672
 24
5589.577276893862
 34
0.0
100
AcDbRotatedDimension
1001
ACAD
1000
DSTYLE
1002
{
1070
   174
1070
     0
1070
   272
1070
     1
1070
   288
1070
     0
1070
   341
1005
0
1002
}
  0
DIMENSION
  5
179CF
330
747D
100
AcDbEntity
  8
寸法
 48
50.0
100
AcDbDimension
  2
*D31
 10
9601.247473436721
 20
6277.937939113255
 30
0.0
 11
10148.16443385108
 21
6277.937939113255
 31
0.0
 70
   160
 71
     5
 42
1090.0
  3
INABA_S40G
100
AcDbAlignedDimension
 13
10691.24747343672
 23
5589.577276893862
 33
0.0
 14
9601.247473436721
 24
5644.577276893866
 34
0.0
100
AcDbRotatedDimension
1001
ACAD
1000
DSTYLE
1002
{
1070
   174
1070
     0
1070
   272
1070
     1
1070
   288
1070
     0
1070
   341
1005
0
1002
}
  0
DIMENSION
  5
179D0
330
747D
100
AcDbEntity
  8
寸法
 48
50.0
100
AcDbDimension
  2
*D32
 10
9661.247473436722
 20
6043.234730473165
 30
0.0
 11
10157.95927566761
 21
6043.234730473165
 31
0.0
 70
   160
  1
柱外寸法<>
 71
     5
 42
950.0
  3
INABA_S40G
100
AcDbAlignedDimension
 13
10611.24747343672
 23
5591.387956505514
 33
0.0
 14
9661.247473436722
 24
5640.578895016837
 34
0.0
100
AcDbRotatedDimension
1001
ACAD
1000
DSTYLE
1002
{
1070
   174
1070
     0
1070
   272
1070
     1
1070
   288
1070
     0
1070
   341
1005
0
1002
}
  0
DIMENSION
  5
179D1
330
747D
100
AcDbEntity
  8
寸法
 48
50.0
100
AcDbDimension
  2
*D33
 10
9601.247473436721
 20
6043.234730473165
 30
0.0
 11
9291.60967816113
 21
6043.234730473165
 31
0.0
 70
   160
 71
     5
 42
60.0
  3
INABA_S40G
100
AcDbAlignedDimension
 13
9661.247473436722
 23
5640.578895016837
 33
0.0
 14
9601.247473436721
 24
5644.577276893866
 34
0.0
100
AcDbRotatedDimension
1001
ACAD
1000
DSTYLE
1002
{
1070
   174
1070
     0
1070
   272
1070
     1
1070
   288
1070
     0
1070
   341
1005
0
1002
}
  0
DIMENSION
  5
179D2
330
747D
100
AcDbEntity
  8
寸法
 48
50.0
100
AcDbDimension
  2
*D34
 10
9040.639066668356
 20
5518.922535767192
 30
0.0
 11
9051.304541927279
 21
5889.769199008892
 31
0.0
 70
   161
 71
     5
 42
141.0000000000009
  3
INABA_S40G
100
AcDbAlignedDimension
 13
9620.6434935953
 23
5643.300025728541
 33
0.0
 14
9616.590038038674
 24
5502.358301962828
 34
0.0
1001
ACAD
1000
DSTYLE
1002
{
1070
   174
1070
     0
1070
   272
1070
     1
1070
   288
1070
     0
1070
   341
1005
0
1002
}
  0
LINE
  5
179D3
330
747D
100
AcDbEntity
  8
部品1
 48
50.0
100
AcDbLine
 10
9996.247473436721
 20
5775.44541599514
 30
0.0
 11
10296.24747343672
 21
5759.245415995142
 31
0.0
  0
TEXT
  5
179D4
330
747D
100
AcDbEntity
  8
部品1
 48
50.0
100
AcDbText
 10
10473.34032072458
 20
5673.828179929291
 30
0.0
 40
120.0
  1
104
 50
90.0
  7
STYLE1
100
AcDbText
  0
LINE
  5
179D5
330
747D
100
AcDbEntity
  8
部品1
 48
50.0
100
AcDbLine
 10
10296.24747343672
 20
5775.44541599514
 30
0.0
 11
10296.24747343672
 21
5759.245415995142
 31
0.0
  0
LINE
  5
179D6
330
747D
100
AcDbEntity
  8
部品1
 48
50.0
100
AcDbLine
 10
9996.247473436721
 20
5775.44541599514
 30
0.0
 11
10296.24747343672
 21
5775.44541599514
 31
0.0
  0
ARC
  5
179D7
330
747D
100
AcDbEntity
  8
部品1
100
AcDbCircle
 10
10676.87500925065
 20
5483.601034159654
 30
0.0
 40
0.7
100
AcDbArc
 50
275.0921697642079
 51
354.1866997667034
  0
ARC
  5
179D8
330
747D
100
AcDbEntity
  8
部品1
100
AcDbCircle
 10
10687.73435499998
 20
5560.644288977577
 30
0.0
 40
0.7
100
AcDbArc
 50
275.0921697642079
 51
354.1866997665479
  0
ARC
  5
179D9
330
747D
100
AcDbEntity
  8
部品1
100
AcDbCircle
 10
10688.06276024258
 20
5556.958892120487
 30
0.0
 40
3.0
100
AcDbArc
 50
95.09216976442012
 51
174.1866997665479
  0
ARC
  5
179DA
330
747D
100
AcDbEntity
  8
部品1
100
AcDbCircle
 10
10677.20341449325
 20
5479.915637302564
 30
0.0
 40
3.0
100
AcDbArc
 50
95.09216976420788
 51
174.1866997665479
  0
ARC
  5
179DB
330
747D
100
AcDbEntity
  8
部品1
 48
50.0
100
AcDbCircle
 10
10666.17527921815
 20
5470.32489269868
 30
0.0
 40
7.0
100
AcDbArc
 50
267.8377559871574
 51
354.1866997665479
  0
ARC
  5
179DC
330
747D
100
AcDbEntity
  8
部品1
 48
50.0
100
AcDbCircle
 10
10683.49737568266
 20
5581.227439840853
 30
0.0
 40
7.0
100
AcDbArc
 50
354.1866997665479
 51
87.03587545304044
  0
LINE
  5
179DD
330
747D
100
AcDbEntity
  8
部品1
 48
50.0
100
AcDbLine
 10
10674.21884282264
 20
5480.219499019465
 30
0.0
 11
10673.1392797829
 21
5469.615882025906
 31
0.0
  0
LINE
  5
179DE
330
747D
100
AcDbEntity
  8
部品1
 48
50.0
100
AcDbLine
 10
10685.07818857197
 20
5557.262753837391
 30
0.0
 11
10677.57140930713
 21
5483.530133092378
 31
0.0
  0
LINE
  5
179DF
330
747D
100
AcDbEntity
  8
部品1
 48
50.0
100
AcDbLine
 10
10690.46137624742
 20
5580.51842916808
 30
0.0
 11
10688.43075505645
 21
5560.573387910299
 31
0.0
  0
ARC
  5
179E0
330
747D
100
AcDbEntity
  8
部品1
100
AcDbCircle
 10
9607.284565308084
 20
5523.391435852765
 30
0.0
 40
0.7
100
AcDbArc
 50
181.0932240292114
 51
260.1877540314845
  0
ARC
  5
179E1
330
747D
100
AcDbEntity
  8
部品1
100
AcDbCircle
 10
9602.511891710477
 20
5616.257214052884
 30
0.0
 40
0.7
100
AcDbArc
 50
181.0932240292114
 51
260.1877540314845
  0
ARC
  5
179E2
330
747D
100
AcDbEntity
  8
部品1
100
AcDbCircle
 10
9601.881337307455
 20
5612.611339515486
 30
0.0
 40
3.0
100
AcDbArc
 50
1.093224029263536
 51
80.18775403148449
  0
ARC
  5
179E3
330
747D
100
AcDbEntity
  8
部品1
100
AcDbCircle
 10
9606.65401090506
 20
5519.745561315367
 30
0.0
 40
3.0
100
AcDbArc
 50
1.093224029263536
 51
80.18775403148449
  0
ARC
  5
179E4
330
747D
100
AcDbEntity
  8
部品1
 48
50.0
100
AcDbCircle
 10
9616.854143280264
 20
5509.353317932886
 30
0.0
 40
7.0
100
AcDbArc
 50
181.0932240292635
 51
267.8377559871574
  0
ARC
  5
179E5
330
747D
100
AcDbEntity
  8
部品1
 48
50.0
100
AcDbCircle
 10
9608.430485178168
 20
5636.304377465982
 30
0.0
 40
7.0
100
AcDbArc
 50
87.03587545304044
 51
181.0932240292635
  0
LINE
  5
179E6
330
747D
100
AcDbEntity
  8
部品1
 48
50.0
100
AcDbLine
 10
9609.653464831492
 20
5519.802798918551
 30
0.0
 11
9609.855417451925
 21
5509.219763525457
 31
0.0
  0
LINE
  5
179E7
330
747D
100
AcDbEntity
  8
細線
 48
50.0
100
AcDbLine
 10
9607.047371774822
 20
5522.73284703736
 30
0.0
 11
10677.05103620545
 21
5482.923528062865
 31
0.0
  0
LINE
  5
179E8
330
747D
100
AcDbEntity
  8
細線
 48
50.0
100
AcDbLine
 10
9602.286896537535
 20
5615.594358735223
 30
0.0
 11
10687.9228812827
 21
5559.970154094395
 31
0.0
  0
LINE
  5
179E9
330
747D
100
AcDbEntity
  8
部品1
 48
50.0
100
AcDbLine
 10
9604.880791233886
 20
5612.668577118669
 30
0.0
 11
9606.584692725249
 21
5523.378080412023
 31
0.0
  0
LINE
  5
179EA
330
747D
100
AcDbEntity
  8
部品1
 48
50.0
100
AcDbLine
 10
9601.431759349829
 20
5636.170823058553
 30
0.0
 11
9601.81201912764
 21
5616.243858612143
 31
0.0
  0
LINE
  5
179EB
330
747D
100
AcDbEntity
  8
細線
 48
50.0
100
AcDbLine
 10
10658.24747343672
 20
5589.544255929157
 30
0.0
 11
10653.49979054872
 21
5463.798483438413
 31
0.0
  0
LINE
  5
179EC
330
747D
100
AcDbEntity
  8
細線
 48
50.0
100
AcDbLine
 10
9634.247473436722
 20
5641.976953269266
 30
0.0
 11
9628.958371881211
 21
5501.891320641911
 31
0.0
  0
LINE
  5
179ED
330
747D
100
AcDbEntity
  8
部品1
100
AcDbLine
 10
9616.590038038674
 20
5502.358301962828
 30
0.0
 11
10665.91117397656
 21
5463.329876728623
 31
0.0
  0
LINE
  5
179EE
330
747D
100
AcDbEntity
  8
部品1
100
AcDbLine
 10
9608.792459793683
 20
5643.295012228128
 30
0.0
 11
10683.85935029818
 21
5588.218074603001
 31
0.0
  0
TEXT
  5
179EF
330
747D
100
AcDbEntity
  8
部品1
 48
50.0
100
AcDbText
 10
9984.515308660448
 20
5811.329438147573
 30
0.0
 40
120.0
  1
1000
  7
STYLE1
100
AcDbText
  0
DIMENSION
  5
179F0
330
747D
100
AcDbEntity
  8
寸法
100
AcDbDimension
  2
*D35
 10
8799.653595281432
 20
5644.577276893866
 30
0.0
 11
8799.65359528143
 21
4597.155906173022
 31
0.0
 70
   160
 71
     5
 42
2075.000000000005
  3
INABA_S40G
100
AcDbAlignedDimension
 13
9661.247473436722
 23
3569.57727689386
 33
0.0
 14
9601.247473436725
 24
5644.577276893866
 34
0.0
 50
90.0
100
AcDbRotatedDimension
1001
ACAD
1000
DSTYLE
1002
{
1070
   174
1070
     0
1070
   272
1070
     1
1070
   288
1070
     0
1070
   341
1005
0
1002
}
  0
TEXT
  5
17A85
330
747D
100
AcDbEntity
  8
部品1
100
AcDbText
 10
9843.95824174611
 20
2673.607166858619
 30
0.0
 40
135.0
  1
側面図
  7
STYLE2
100
AcDbText
  0
LWPOLYLINE
  5
17A86
330
747D
100
AcDbEntity
  8
部品1
100
AcDbPolyline
 90
        4
 70
     1
 43
0.0
 10
9754.512140322503
 20
2866.500696077143
 10
9754.512140322503
 20
2626.60837453161
 10
10517.98280655094
 20
2626.60837453161
 10
10517.98280655094
 20
2866.500696077143
  0
TEXT
  5
17C51
330
747D
100
AcDbEntity
  8
文字
 62
     7
 48
50.0
100
AcDbText
 10
13583.11819016568
 20
8890.013745883727
 30
0.0
 40
100.0
  1
※豪雪補強
  7
STYLE1
100
AcDbText
  0
TEXT
  5
17C52
330
747D
100
AcDbEntity
  8
文字
 62
     7
 48
50.0
100
AcDbText
 10
13229.83081656553
 20
8720.013745883727
 30
0.0
 40
100.0
  1
※豪雪補強は豪雪地型のみ取付
 41
0.9
  7
STYLE1
100
AcDbText
  0
TEXT
  5
17C53
330
747D
100
AcDbEntity
  8
文字
 62
     7
 48
50.0
100
AcDbText
 10
13248.77747366447
 20
8890.013745883729
 30
0.0
 40
100.0
  1
14
  7
STYLE1
100
AcDbText
  0
TEXT
  5
17C54
330
747D
100
AcDbEntity
  8
文字
 62
     7
 48
50.0
100
AcDbText
 10
15022.63965474514
 20
8890.013745883722
 30
0.0
 40
100.0
  1
F12            1.0
  7
STYLE1
100
AcDbText
  0
LINE
  5
17C55
330
747D
100
AcDbEntity
  8
仕様書枠
 48
50.0
100
AcDbLine
 10
16307.19999999999
 20
9029.6
 30
0.0
 11
13127.19999999999
 21
9029.6
 31
0.0
  0
LINE
  5
17C56
330
747D
100
AcDbEntity
  8
仕様書枠
 48
50.0
100
AcDbLine
 10
16307.19999999999
 20
8859.6
 30
0.0
 11
13127.19999999999
 21
8859.6
 31
0.0
  0
LWPOLYLINE
  5
17D16
330
747D
100
AcDbEntity
  8
細線
  6
Continuous
370
    15
100
AcDbPolyline
 90
        3
 70
   128
 43
0.0
 10
6549.7887874808
 20
4487.090808578736
 10
6549.860372659175
 20
4487.066549488313
 10
6549.875571843593
 20
4487.063867279298
  0
ARC
  5
17D17
330
747D
100
AcDbEntity
  8
細線
  6
Continuous
370
    15
100
AcDbCircle
 10
6546.375559977902
 20
4480.07723430119
 30
0.0
 40
7.799999999999959
100
AcDbArc
 50
64.04961909222373
 51
115.6437752580401
  0
LWPOLYLINE
  5
17D18
330
747D
100
AcDbEntity
  8
細線
  6
Continuous
370
    15
100
AcDbPolyline
 90
        3
 70
   128
 43
0.0
 10
6542.875572558848
 20
4487.079424091584
 10
6542.928203460185
 20
4487.085086532838
 10
6542.99990784785
 20
4487.108928390748
  0
SPLINE
  5
17D19
330
747D
100
AcDbEntity
  8
細線
  6
Continuous
370
    15
100
AcDbSpline
210
0.0
220
0.0
230
1.0
 70
     8
 71
     3
 72
     9
 73
     5
 74
     0
 42
0.000000001
 43
0.0000000001
 40
0.0
 40
0.0
 40
0.0
 40
0.0
 40
0.7237658969060897
 40
1.0
 40
1.0
 40
1.0
 40
1.0
 10
6528.280481215922
 20
4514.389020630128
 30
0.0
 10
6528.476222712844
 20
4514.617702072339
 30
0.0
 10
6528.74667134515
 20
4514.933662582754
 30
0.0
 10
6528.784203590861
 20
4515.492677016633
 30
0.0
 10
6528.79457127711
 20
4515.647095867402
 30
0.0
  0
SPLINE
  5
17D1A
330
747D
100
AcDbEntity
  8
細線
  6
Continuous
370
    15
100
AcDbSpline
210
0.0
220
0.0
230
1.0
 70
     8
 71
     3
 72
     9
 73
     5
 74
     0
 42
0.000000001
 43
0.0000000001
 40
0.0
 40
0.0
 40
0.0
 40
0.0
 40
0.1817420378681831
 40
1.0
 40
1.0
 40
1.0
 40
1.0
 10
6528.789355870692
 20
4596.615654655701
 30
0.0
 10
6528.78236020619
 20
4596.710169122116
 30
0.0
 10
6528.743867931138
 20
4597.230216478956
 30
0.0
 10
6528.489015910752
 20
4597.524570627602
 30
0.0
 10
6528.280481215922
 20
4597.765428253419
 30
0.0
  0
LINE
  5
17D1B
330
747D
100
AcDbEntity
  8
細線
  6
Continuous
370
    15
100
AcDbLine
 10
6553.963765021769
 20
4592.32757730127
 30
0.0
 11
6553.963765021769
 21
4519.826871582276
 31
0.0
  0
LINE
  5
17D1C
330
747D
100
AcDbEntity
  8
細線
  6
Continuous
370
    15
100
AcDbLine
 10
6548.525914069621
 20
4514.389020630128
 30
0.0
 11
6528.280481215922
 21
4514.389020630128
 31
0.0
  0
ELLIPSE
  5
17D1D
330
747D
100
AcDbEntity
  8
細線
  6
Continuous
370
    15
100
AcDbEllipse
 10
6523.475559977938
 20
4515.538156831664
 30
0.0
 11
5.399999999999976
 21
0.0
 31
0.0
210
0.0
220
0.0
230
1.0
 40
0.4663076581550023
 41
5.04728513882407
 42
5.809296398627029
  0
LINE
  5
17D1E
330
747D
100
AcDbEntity
  8
細線
  6
Continuous
370
    15
100
AcDbLine
 10
6525.250389691798
 20
4513.159972854859
 30
0.0
 11
6523.475571986644
 21
4513.159972854859
 31
0.0
  0
LINE
  5
17D1F
330
747D
100
AcDbEntity
  8
細線
  6
Continuous
370
    15
100
AcDbLine
 10
6523.475571986644
 20
4598.994476028687
 30
0.0
 11
6525.250389691798
 21
4598.994476028687
 31
0.0
  0
ELLIPSE
  5
17D20
330
747D
100
AcDbEntity
  8
細線
  6
Continuous
370
    15
100
AcDbEllipse
 10
6523.475559977938
 20
4596.616311770701
 30
0.0
 11
5.399999999999976
 21
0.0
 31
0.0
210
0.0
220
0.0
230
1.0
 40
0.4663076581550023
 41
0.4738889085525403
 42
1.235900168355494
  0
LINE
  5
17D21
330
747D
100
AcDbEntity
  8
細線
  6
Continuous
370
    15
100
AcDbLine
 10
6528.280481215922
 20
4597.765428253419
 30
0.0
 11
6548.525914069621
 21
4597.765428253419
 31
0.0
  0
ELLIPSE
  5
17D22
330
747D
100
AcDbEntity
  8
細線
  6
Continuous
370
    15
100
AcDbEllipse
 10
6523.475559977938
 20
4595.684347070417
 30
0.0
 11
0.0
 21
-3.310133756887523
 31
0.0
210
0.0
220
0.0
230
1.0
 40
0.9063077870366367
 41
3.141592653589783
 42
4.712388980384702
  0
ELLIPSE
  5
17D23
330
747D
100
AcDbEntity
  8
細線
  6
Continuous
370
    15
100
AcDbEllipse
 10
6523.475559977938
 20
4516.470121531964
 30
0.0
 11
0.0
 21
-3.310133756887466
 31
0.0
210
0.0
220
0.0
230
1.0
 40
0.9063077870366523
 41
4.712388980384702
 42
6.283185307179586
  0
ARC
  5
17D24
330
747D
100
AcDbEntity
  8
細線
  6
Continuous
370
    15
100
AcDbCircle
 10
6546.375559977902
 20
4480.07723430119
 30
0.0
 40
7.499999999999996
100
AcDbArc
 50
120.3006176375393
 51
59.69938236246067
  0
SPLINE
  5
17D25
330
747D
100
AcDbEntity
  8
細線
  6
Continuous
370
    15
100
AcDbSpline
210
0.0
220
0.0
230
1.0
 70
    24
 71
     3
 72
     9
 73
     5
 74
     0
 42
0.000000001
 43
0.0000000001
 40
0.0
 40
0.0
 40
0.0
 40
0.0
 40
0.8663703693180105
 40
1.0
 40
1.0
 40
1.0
 40
1.0
 10
6542.875572558848
 20
4486.886603065736
 30
0.0
 10
6542.875572558848
 20
4486.834231505547
 30
0.0
 10
6542.875572558848
 20
4486.773782115733
 30
0.0
 10
6542.875572558848
 20
4486.717934267725
 30
0.0
 10
6542.875572558848
 20
4486.710471340424
 30
0.0
  0
LINE
  5
17D26
330
747D
100
AcDbEntity
  8
細線
  6
Continuous
370
    15
100
AcDbLine
 10
6542.875572558848
 20
4486.710471340424
 30
0.0
 11
6542.591526624171
 21
4486.552638241059
 31
0.0
  0
LINE
  5
17D27
330
747D
100
AcDbEntity
  8
細線
  6
Continuous
370
    15
100
AcDbLine
 10
6550.159587975947
 20
4486.552638241059
 30
0.0
 11
6549.875571843593
 21
4486.710471340424
 31
0.0
  0
SPLINE
  5
17D28
330
747D
100
AcDbEntity
  8
細線
  6
Continuous
370
    15
100
AcDbSpline
210
0.0
220
0.0
230
1.0
 70
    24
 71
     3
 72
     9
 73
     5
 74
     0
 42
0.000000001
 43
0.0000000001
 40
0.0
 40
0.0
 40
0.0
 40
0.0
 40
0.8651188723649402
 40
1.0
 40
1.0
 40
1.0
 40
1.0
 10
6549.875571843593
 20
4486.710471340424
 30
0.0
 10
6549.875571843593
 20
4486.760558657855
 30
0.0
 10
6549.875571843593
 20
4486.818455114668
 30
0.0
 10
6549.875571843593
 20
4486.878503651385
 30
0.0
 10
6549.875571843593
 20
4486.886603065736
 30
0.0
  0
ARC
  5
17D29
330
747D
100
AcDbEntity
  8
細線
  6
Continuous
370
    15
100
AcDbCircle
 10
6546.375559977902
 20
4480.07723430119
 30
0.0
 40
9.499999999999973
100
AcDbArc
 50
69.15570700480905
 51
110.8442929951909
  0
LINE
  5
17D2A
330
747D
100
AcDbEntity
  8
細線
  6
Continuous
370
    15
100
AcDbLine
 10
6549.875571843593
 20
4486.886603065736
 30
0.0
 11
6549.875571843593
 21
4488.781911560304
 31
0.0
  0
LINE
  5
17D2B
330
747D
100
AcDbEntity
  8
細線
  6
Continuous
370
    15
100
AcDbLine
 10
6542.875572558848
 20
4488.781911560304
 30
0.0
 11
6542.875572558848
 21
4486.886603065736
 31
0.0
  0
LINE
  5
17D2C
330
747D
100
AcDbEntity
  8
細線
  6
Continuous
370
    15
100
AcDbLine
 10
6549.875571843593
 20
4488.781911560304
 30
0.0
 11
6549.875571843593
 21
4488.908988662965
 31
0.0
  0
LINE
  5
17D2D
330
747D
100
AcDbEntity
  8
細線
  6
Continuous
370
    15
100
AcDbLine
 10
6549.875571843593
 20
4488.908988662965
 30
0.0
 11
6549.755945321528
 21
4488.955480285889
 31
0.0
  0
LINE
  5
17D2E
330
747D
100
AcDbEntity
  8
細線
  6
Continuous
370
    15
100
AcDbLine
 10
6542.99516927859
 20
4488.955480285889
 30
0.0
 11
6542.875572558848
 21
4488.908988662965
 31
0.0
  0
LINE
  5
17D2F
330
747D
100
AcDbEntity
  8
細線
  6
Continuous
370
    15
100
AcDbLine
 10
6542.875572558848
 20
4488.908988662965
 30
0.0
 11
6542.875572558848
 21
4488.781911560304
 31
0.0
  0
ARC
  5
17D30
330
747D
100
AcDbEntity
  8
細線
  6
Continuous
370
    15
100
AcDbCircle
 10
6563.375559977902
 20
4620.077234301191
 30
0.0
 40
6.0
100
AcDbArc
 50
0.0
 51
90.0
  0
LINE
  5
17D31
330
747D
100
AcDbEntity
  8
細線
  6
Continuous
370
    15
100
AcDbLine
 10
6569.375559207408
 20
4620.077234932191
 30
0.0
 11
6569.375559207408
 21
4452.077252098328
 31
0.0
  0
LINE
  5
17D32
330
747D
100
AcDbEntity
  8
細線
  6
Continuous
370
    15
100
AcDbLine
 10
6511.375560876338
 20
4452.077252098328
 30
0.0
 11
6511.375560876338
 21
4620.077234932191
 31
0.0
  0
LINE
  5
17D33
330
747D
100
AcDbEntity
  8
細線
  6
Continuous
370
    15
100
AcDbLine
 10
6517.375573035685
 20
4626.077276893861
 30
0.0
 11
6563.37554704806
 21
4626.077276893861
 31
0.0
  0
ARC
  5
17D34
330
747D
100
AcDbEntity
  8
細線
  6
Continuous
370
    15
100
AcDbCircle
 10
6563.375559977902
 20
4452.07723430119
 30
0.0
 40
6.0
100
AcDbArc
 50
270.0
 51
0.0
  0
ARC
  5
17D35
330
747D
100
AcDbEntity
  8
細線
  6
Continuous
370
    15
100
AcDbCircle
 10
6517.375559977903
 20
4620.077234301191
 30
0.0
 40
6.0
100
AcDbArc
 50
90.0
 51
180.0
  0
LINE
  5
17D36
330
747D
100
AcDbEntity
  8
細線
  6
Continuous
370
    15
100
AcDbLine
 10
6563.37554704806
 20
4446.077210136659
 30
0.0
 11
6517.375573035685
 21
4446.077210136659
 31
0.0
  0
ARC
  5
17D37
330
747D
100
AcDbEntity
  8
細線
  6
Continuous
370
    15
100
AcDbCircle
 10
6517.375559977903
 20
4452.07723430119
 30
0.0
 40
6.0
100
AcDbArc
 50
180.0
 51
270.0
  0
LINE
  5
17D38
330
747D
100
AcDbEntity
  8
細線
  6
Continuous
370
    15
100
AcDbLine
 10
6552.471860763041
 20
4490.309459396607
 30
0.0
 11
6552.471860763041
 21
4486.294073292024
 31
0.0
  0
ARC
  5
17D39
330
747D
100
AcDbEntity
  8
細線
  6
Continuous
370
    15
100
AcDbCircle
 10
6546.375559977902
 20
4480.07723430119
 30
0.0
 40
8.707106781186586
100
AcDbArc
 50
134.4391355081549
 51
45.56086449184513
  0
LINE
  5
17D3A
330
747D
100
AcDbEntity
  8
細線
  6
Continuous
370
    15
100
AcDbLine
 10
6540.279283639399
 20
4486.294073292024
 30
0.0
 11
6540.279283639399
 21
4490.309459396607
 31
0.0
  0
SPLINE
  5
17D3B
330
747D
100
AcDbEntity
  8
細線
  6
Continuous
370
    15
100
AcDbSpline
210
0.0
220
0.0
230
1.0
 70
     8
 71
     3
 72
    11
 73
     7
 74
     0
 42
0.000000001
 43
0.0000000001
 40
0.0
 40
0.0
 40
0.0
 40
0.0
 40
0.0781314889249488
 40
0.3601777463886433
 40
0.6812698848259567
 40
1.0
 40
1.0
 40
1.0
 40
1.0
 10
6540.469333049266
 20
4490.633589454896
 30
0.0
 10
6540.460470618571
 20
4490.628401339387
 30
0.0
 10
6540.419615767844
 20
4490.60448468587
 30
0.0
 10
6540.350870624279
 20
4490.545174358017
 30
0.0
 10
6540.288829112956
 20
4490.436309052032
 30
0.0
 10
6540.282457623404
 20
4490.351638422608
 30
0.0
 10
6540.279283639399
 20
4490.309459396607
 30
0.0
  0
ARC
  5
17D3C
330
747D
100
AcDbEntity
  8
細線
  6
Continuous
370
    15
100
AcDbCircle
 10
6546.375559977902
 20
4480.07723430119
 30
0.0
 40
12.09629120178367
100
AcDbArc
 50
60.77315626978887
 51
119.2268437302111
  0
SPLINE
  5
17D3D
330
747D
100
AcDbEntity
  8
細線
  6
Continuous
370
    15
100
AcDbSpline
210
0.0
220
0.0
230
1.0
 70
     8
 71
     3
 72
    11
 73
     7
 74
     0
 42
0.000000001
 43
0.0000000001
 40
0.0
 40
0.0
 40
0.0
 40
0.0
 40
0.0779029322309155
 40
0.3600683505069131
 40
0.6812326600027312
 40
1.0
 40
1.0
 40
1.0
 40
1.0
 10
6552.471860763041
 20
4490.309459396607
 30
0.0
 10
6552.471658489877
 20
4490.319696322344
 30
0.0
 10
6552.470723580808
 20
4490.367011524226
 30
0.0
 10
6552.452526571149
 20
4490.455948280401
 30
0.0
 10
6552.387869542063
 20
4490.563312759737
 30
0.0
 10
6552.317075692764
 20
4490.610222459173
 30
0.0
 10
6552.281811353175
 20
4490.633589454896
 30
0.0
  0
LINE
  5
17D3E
330
747D
100
AcDbEntity
  8
細線
  6
Continuous
370
    15
100
AcDbLine
 10
6523.408104297129
 20
4605.077249237305
 30
0.0
 11
6554.275556203333
 21
4605.077249237305
 31
0.0
  0
LINE
  5
17D3F
330
747D
100
AcDbEntity
  8
細線
  6
Continuous
370
    15
100
AcDbLine
 10
6518.40810429713
 20
4512.077259250886
 30
0.0
 11
6518.40810429713
 21
4600.077249237305
 31
0.0
  0
ARC
  5
17D40
330
747D
100
AcDbEntity
  8
細線
  6
Continuous
370
    15
100
AcDbCircle
 10
6523.408104297129
 20
4600.077249237305
 30
0.0
 40
5.0
100
AcDbArc
 50
90.0
 51
180.0
  0
LINE
  5
17D41
330
747D
100
AcDbEntity
  8
細線
  6
Continuous
370
    15
100
AcDbLine
 10
6520.475551005809
 20
4595.684347070417
 30
0.0
 11
6520.475551005809
 21
4516.470121531964
 31
0.0
  0
LINE
  5
17D42
330
747D
100
AcDbEntity
  8
細線
  6
Continuous
370
    15
100
AcDbLine
 10
6561.275556203334
 20
4598.077249237305
 30
0.0
 11
6561.275556203334
 21
4514.077259250885
 31
0.0
  0
ARC
  5
17D43
330
747D
100
AcDbEntity
  8
細線
  6
Continuous
370
    15
100
AcDbCircle
 10
6554.275556203333
 20
4514.077259250885
 30
0.0
 40
7.0
100
AcDbArc
 50
270.0
 51
0.0
  0
ARC
  5
17D44
330
747D
100
AcDbEntity
  8
細線
  6
Continuous
370
    15
100
AcDbCircle
 10
6554.275556203333
 20
4598.077249237305
 30
0.0
 40
7.0
100
AcDbArc
 50
0.0
 51
90.0
  0
LINE
  5
17D45
330
747D
100
AcDbEntity
  8
細線
  6
Continuous
370
    15
100
AcDbLine
 10
6554.275556203333
 20
4507.077259250886
 30
0.0
 11
6523.408104297129
 21
4507.077259250886
 31
0.0
  0
ARC
  5
17D46
330
747D
100
AcDbEntity
  8
細線
  6
Continuous
370
    15
100
AcDbCircle
 10
6523.408104297129
 20
4512.077259250886
 30
0.0
 40
5.0
100
AcDbArc
 50
180.0
 51
270.0
  0
ARC
  5
17D47
330
747D
100
AcDbEntity
  8
細線
  6
Continuous
370
    15
100
AcDbCircle
 10
6547.195162892814
 20
4521.157622759083
 30
0.0
 40
6.898178997000096
100
AcDbArc
 50
281.1228560456502
 51
348.8771439544009
  0
ARC
  5
17D48
330
747D
100
AcDbEntity
  8
細線
  6
Continuous
370
    15
100
AcDbCircle
 10
6547.19521491917
 20
4590.996878150834
 30
0.0
 40
6.89811791144148
100
AcDbArc
 50
11.12251539540163
 51
78.87748460464951
  0
LINE
  5
17D49
330
747D
100
AcDbEntity
  8
細線
  6
Continuous
370
    15
100
AcDbLine
 10
6536.473348256556
 20
4517.647095867402
 30
0.0
 11
6536.473348256556
 21
4594.615654655701
 31
0.0
  0
ARC
  5
17D4A
330
747D
100
AcDbEntity
  8
細線
  6
Continuous
370
    15
100
AcDbCircle
 10
6534.473348256556
 20
4594.615654655701
 30
0.0
 40
2.0
100
AcDbArc
 50
0.0
 51
90.0
  0
ARC
  5
17D4B
330
747D
100
AcDbEntity
  8
細線
  6
Continuous
370
    15
100
AcDbCircle
 10
6534.473337335285
 20
4517.631390663385
 30
0.0
 40
2.0
100
AcDbArc
 50
262.8149626715364
 51
0.0
  0
LWPOLYLINE
  5
17D4C
330
747D
100
AcDbEntity
  8
細線
 48
50.0
100
AcDbPolyline
 90
        4
 70
     1
 43
0.0
 10
6547.637655850856
 20
4475.248855777985
 10
6545.113488551585
 20
4475.248855777985
 10
6545.113488551585
 20
4484.905642696626
 10
6547.637655850856
 20
4484.905642696626
  0
LINE
  5
17D4D
330
747D
100
AcDbEntity
  8
細線
  6
Continuous
370
    15
100
AcDbLine
 10
6534.473348256556
 20
4515.647095867402
 30
0.0
 11
6528.79457127711
 21
4515.647095867403
 31
0.0
  0
LINE
  5
17D4E
330
747D
100
AcDbEntity
  8
細線
  6
Continuous
370
    15
100
AcDbLine
 10
6523.203357573954
 20
4516.647095867401
 30
0.0
 11
6523.203357573954
 21
4595.615654655701
 31
0.0
  0
ARC
  5
17D4F
330
747D
100
AcDbEntity
  8
細線
  6
Continuous
370
    15
100
AcDbCircle
 10
6524.203357573954
 20
4595.615654655701
 30
0.0
 40
1.0
100
AcDbArc
 50
90.0
 51
180.0
  0
LINE
  5
17D50
330
747D
100
AcDbEntity
  8
細線
  6
Continuous
370
    15
100
AcDbLine
 10
6528.789355870692
 20
4596.615654655701
 30
0.0
 11
6524.203357573954
 21
4596.615654655701
 31
0.0
  0
LINE
  5
17D51
330
747D
100
AcDbEntity
  8
細線
  6
Continuous
370
    15
100
AcDbLine
 10
6528.79457127711
 20
4515.647095867402
 30
0.0
 11
6524.203357573954
 21
4515.647095867402
 31
0.0
  0
ARC
  5
17D52
330
747D
100
AcDbEntity
  8
細線
  6
Continuous
370
    15
100
AcDbCircle
 10
6524.203357573954
 20
4516.647095867401
 30
0.0
 40
1.0
100
AcDbArc
 50
180.0
 51
270.0
  0
LINE
  5
17D53
330
747D
100
AcDbEntity
  8
細線
  6
Continuous
370
    15
100
AcDbLine
 10
6534.473348256556
 20
4596.615654655701
 30
0.0
 11
6528.673879045671
 21
4596.615654655701
 31
0.0
  0
LWPOLYLINE
  5
17D98
330
747D
100
AcDbEntity
  8
細線
  6
Continuous
370
    15
100
AcDbPolyline
 90
        3
 70
   128
 43
0.0
 10
5729.788787480799
 20
4487.090808578733
 10
5729.860372659175
 20
4487.06654948831
 10
5729.875571843592
 20
4487.063867279295
  0
ARC
  5
17D99
330
747D
100
AcDbEntity
  8
細線
  6
Continuous
370
    15
100
AcDbCircle
 10
5726.375559977903
 20
4480.077234301188
 30
0.0
 40
7.799999999999959
100
AcDbArc
 50
64.04961909222373
 51
115.6437752580401
  0
LWPOLYLINE
  5
17D9A
330
747D
100
AcDbEntity
  8
細線
  6
Continuous
370
    15
100
AcDbPolyline
 90
        3
 70
   128
 43
0.0
 10
5722.875572558848
 20
4487.079424091581
 10
5722.928203460185
 20
4487.085086532835
 10
5722.999907847849
 20
4487.108928390745
  0
SPLINE
  5
17D9B
330
747D
100
AcDbEntity
  8
細線
  6
Continuous
370
    15
100
AcDbSpline
210
0.0
220
0.0
230
1.0
 70
     8
 71
     3
 72
     9
 73
     5
 74
     0
 42
0.000000001
 43
0.0000000001
 40
0.0
 40
0.0
 40
0.0
 40
0.0
 40
0.7237658969060897
 40
1.0
 40
1.0
 40
1.0
 40
1.0
 10
5708.280481215922
 20
4514.389020630125
 30
0.0
 10
5708.476222712844
 20
4514.617702072337
 30
0.0
 10
5708.746671345149
 20
4514.933662582753
 30
0.0
 10
5708.784203590861
 20
4515.492677016631
 30
0.0
 10
5708.79457127711
 20
4515.647095867399
 30
0.0
  0
SPLINE
  5
17D9C
330
747D
100
AcDbEntity
  8
細線
  6
Continuous
370
    15
100
AcDbSpline
210
0.0
220
0.0
230
1.0
 70
     8
 71
     3
 72
     9
 73
     5
 74
     0
 42
0.000000001
 43
0.0000000001
 40
0.0
 40
0.0
 40
0.0
 40
0.0
 40
0.1817420378681831
 40
1.0
 40
1.0
 40
1.0
 40
1.0
 10
5708.789355870692
 20
4596.615654655699
 30
0.0
 10
5708.78236020619
 20
4596.710169122114
 30
0.0
 10
5708.743867931137
 20
4597.230216478954
 30
0.0
 10
5708.489015910751
 20
4597.5245706276
 30
0.0
 10
5708.280481215922
 20
4597.765428253416
 30
0.0
  0
LINE
  5
17D9D
330
747D
100
AcDbEntity
  8
細線
  6
Continuous
370
    15
100
AcDbLine
 10
5733.963765021769
 20
4592.327577301268
 30
0.0
 11
5733.963765021769
 21
4519.826871582274
 31
0.0
  0
LINE
  5
17D9E
330
747D
100
AcDbEntity
  8
細線
  6
Continuous
370
    15
100
AcDbLine
 10
5728.525914069621
 20
4514.389020630125
 30
0.0
 11
5708.280481215922
 21
4514.389020630125
 31
0.0
  0
ELLIPSE
  5
17D9F
330
747D
100
AcDbEntity
  8
細線
  6
Continuous
370
    15
100
AcDbEllipse
 10
5703.475559977937
 20
4515.538156831662
 30
0.0
 11
5.399999999999976
 21
0.0
 31
0.0
210
0.0
220
0.0
230
1.0
 40
0.4663076581550023
 41
5.04728513882407
 42
5.809296398627029
  0
LINE
  5
17DA0
330
747D
100
AcDbEntity
  8
細線
  6
Continuous
370
    15
100
AcDbLine
 10
5705.250389691798
 20
4513.159972854857
 30
0.0
 11
5703.475571986643
 21
4513.159972854857
 31
0.0
  0
LINE
  5
17DA1
330
747D
100
AcDbEntity
  8
細線
  6
Continuous
370
    15
100
AcDbLine
 10
5703.475571986643
 20
4598.994476028685
 30
0.0
 11
5705.250389691798
 21
4598.994476028685
 31
0.0
  0
ELLIPSE
  5
17DA2
330
747D
100
AcDbEntity
  8
細線
  6
Continuous
370
    15
100
AcDbEllipse
 10
5703.475559977937
 20
4596.6163117707
 30
0.0
 11
5.399999999999976
 21
0.0
 31
0.0
210
0.0
220
0.0
230
1.0
 40
0.4663076581550023
 41
0.4738889085525403
 42
1.235900168355494
  0
LINE
  5
17DA3
330
747D
100
AcDbEntity
  8
細線
  6
Continuous
370
    15
100
AcDbLine
 10
5708.280481215922
 20
4597.765428253416
 30
0.0
 11
5728.525914069621
 21
4597.765428253416
 31
0.0
  0
ELLIPSE
  5
17DA4
330
747D
100
AcDbEntity
  8
細線
  6
Continuous
370
    15
100
AcDbEllipse
 10
5703.475559977937
 20
4595.684347070415
 30
0.0
 11
0.0
 21
-3.310133756887523
 31
0.0
210
0.0
220
0.0
230
1.0
 40
0.9063077870366367
 41
3.141592653589783
 42
4.712388980384702
  0
ELLIPSE
  5
17DA5
330
747D
100
AcDbEntity
  8
細線
  6
Continuous
370
    15
100
AcDbEllipse
 10
5703.475559977937
 20
4516.470121531962
 30
0.0
 11
0.0
 21
-3.310133756887466
 31
0.0
210
0.0
220
0.0
230
1.0
 40
0.9063077870366523
 41
4.712388980384702
 42
6.283185307179586
  0
ARC
  5
17DA6
330
747D
100
AcDbEntity
  8
細線
  6
Continuous
370
    15
100
AcDbCircle
 10
5726.375559977903
 20
4480.077234301188
 30
0.0
 40
7.499999999999996
100
AcDbArc
 50
120.3006176375393
 51
59.69938236246067
  0
SPLINE
  5
17DA7
330
747D
100
AcDbEntity
  8
細線
  6
Continuous
370
    15
100
AcDbSpline
210
0.0
220
0.0
230
1.0
 70
    24
 71
     3
 72
     9
 73
     5
 74
     0
 42
0.000000001
 43
0.0000000001
 40
0.0
 40
0.0
 40
0.0
 40
0.0
 40
0.8663703693180105
 40
1.0
 40
1.0
 40
1.0
 40
1.0
 10
5722.875572558848
 20
4486.886603065733
 30
0.0
 10
5722.875572558848
 20
4486.834231505545
 30
0.0
 10
5722.875572558848
 20
4486.773782115732
 30
0.0
 10
5722.875572558848
 20
4486.717934267722
 30
0.0
 10
5722.875572558848
 20
4486.710471340422
 30
0.0
  0
LINE
  5
17DA8
330
747D
100
AcDbEntity
  8
細線
  6
Continuous
370
    15
100
AcDbLine
 10
5722.875572558848
 20
4486.710471340422
 30
0.0
 11
5722.591526624171
 21
4486.552638241056
 31
0.0
  0
LINE
  5
17DA9
330
747D
100
AcDbEntity
  8
細線
  6
Continuous
370
    15
100
AcDbLine
 10
5730.159587975947
 20
4486.552638241056
 30
0.0
 11
5729.875571843592
 21
4486.710471340422
 31
0.0
  0
SPLINE
  5
17DAA
330
747D
100
AcDbEntity
  8
細線
  6
Continuous
370
    15
100
AcDbSpline
210
0.0
220
0.0
230
1.0
 70
    24
 71
     3
 72
     9
 73
     5
 74
     0
 42
0.000000001
 43
0.0000000001
 40
0.0
 40
0.0
 40
0.0
 40
0.0
 40
0.8651188723649402
 40
1.0
 40
1.0
 40
1.0
 40
1.0
 10
5729.875571843592
 20
4486.710471340422
 30
0.0
 10
5729.875571843592
 20
4486.760558657854
 30
0.0
 10
5729.875571843592
 20
4486.818455114666
 30
0.0
 10
5729.875571843592
 20
4486.878503651383
 30
0.0
 10
5729.875571843592
 20
4486.886603065733
 30
0.0
  0
ARC
  5
17DAB
330
747D
100
AcDbEntity
  8
細線
  6
Continuous
370
    15
100
AcDbCircle
 10
5726.375559977903
 20
4480.077234301188
 30
0.0
 40
9.499999999999973
100
AcDbArc
 50
69.15570700480905
 51
110.8442929951909
  0
LINE
  5
17DAC
330
747D
100
AcDbEntity
  8
細線
  6
Continuous
370
    15
100
AcDbLine
 10
5729.875571843592
 20
4486.886603065733
 30
0.0
 11
5729.875571843592
 21
4488.781911560301
 31
0.0
  0
LINE
  5
17DAD
330
747D
100
AcDbEntity
  8
細線
  6
Continuous
370
    15
100
AcDbLine
 10
5722.875572558848
 20
4488.781911560301
 30
0.0
 11
5722.875572558848
 21
4486.886603065733
 31
0.0
  0
LINE
  5
17DAE
330
747D
100
AcDbEntity
  8
細線
  6
Continuous
370
    15
100
AcDbLine
 10
5729.875571843592
 20
4488.781911560301
 30
0.0
 11
5729.875571843592
 21
4488.908988662962
 31
0.0
  0
LINE
  5
17DAF
330
747D
100
AcDbEntity
  8
細線
  6
Continuous
370
    15
100
AcDbLine
 10
5729.875571843592
 20
4488.908988662962
 30
0.0
 11
5729.755945321528
 21
4488.955480285887
 31
0.0
  0
LINE
  5
17DB0
330
747D
100
AcDbEntity
  8
細線
  6
Continuous
370
    15
100
AcDbLine
 10
5722.99516927859
 20
4488.955480285887
 30
0.0
 11
5722.875572558848
 21
4488.908988662962
 31
0.0
  0
LINE
  5
17DB1
330
747D
100
AcDbEntity
  8
細線
  6
Continuous
370
    15
100
AcDbLine
 10
5722.875572558848
 20
4488.908988662962
 30
0.0
 11
5722.875572558848
 21
4488.781911560301
 31
0.0
  0
ARC
  5
17DB2
330
747D
100
AcDbEntity
  8
細線
  6
Continuous
370
    15
100
AcDbCircle
 10
5743.375559977902
 20
4620.077234301188
 30
0.0
 40
6.0
100
AcDbArc
 50
0.0
 51
90.0
  0
LINE
  5
17DB3
330
747D
100
AcDbEntity
  8
細線
  6
Continuous
370
    15
100
AcDbLine
 10
5749.375559207408
 20
4620.077234932188
 30
0.0
 11
5749.375559207408
 21
4452.077252098326
 31
0.0
  0
LINE
  5
17DB4
330
747D
100
AcDbEntity
  8
細線
  6
Continuous
370
    15
100
AcDbLine
 10
5691.375560876338
 20
4452.077252098326
 30
0.0
 11
5691.375560876338
 21
4620.077234932188
 31
0.0
  0
LINE
  5
17DB5
330
747D
100
AcDbEntity
  8
細線
  6
Continuous
370
    15
100
AcDbLine
 10
5697.375573035685
 20
4626.077276893858
 30
0.0
 11
5743.37554704806
 21
4626.077276893858
 31
0.0
  0
ARC
  5
17DB6
330
747D
100
AcDbEntity
  8
細線
  6
Continuous
370
    15
100
AcDbCircle
 10
5743.375559977902
 20
4452.077234301188
 30
0.0
 40
6.0
100
AcDbArc
 50
270.0
 51
0.0
  0
ARC
  5
17DB7
330
747D
100
AcDbEntity
  8
細線
  6
Continuous
370
    15
100
AcDbCircle
 10
5697.375559977903
 20
4620.077234301188
 30
0.0
 40
6.0
100
AcDbArc
 50
90.0
 51
180.0
  0
LINE
  5
17DB8
330
747D
100
AcDbEntity
  8
細線
  6
Continuous
370
    15
100
AcDbLine
 10
5743.37554704806
 20
4446.077210136656
 30
0.0
 11
5697.375573035685
 21
4446.077210136656
 31
0.0
  0
ARC
  5
17DB9
330
747D
100
AcDbEntity
  8
細線
  6
Continuous
370
    15
100
AcDbCircle
 10
5697.375559977903
 20
4452.077234301188
 30
0.0
 40
6.0
100
AcDbArc
 50
180.0
 51
270.0
  0
LINE
  5
17DBA
330
747D
100
AcDbEntity
  8
細線
  6
Continuous
370
    15
100
AcDbLine
 10
5732.471860763041
 20
4490.309459396605
 30
0.0
 11
5732.471860763041
 21
4486.294073292021
 31
0.0
  0
ARC
  5
17DBB
330
747D
100
AcDbEntity
  8
細線
  6
Continuous
370
    15
100
AcDbCircle
 10
5726.375559977903
 20
4480.077234301188
 30
0.0
 40
8.707106781186586
100
AcDbArc
 50
134.4391355081549
 51
45.56086449184513
  0
LINE
  5
17DBC
330
747D
100
AcDbEntity
  8
細線
  6
Continuous
370
    15
100
AcDbLine
 10
5720.279283639399
 20
4486.294073292021
 30
0.0
 11
5720.279283639399
 21
4490.309459396605
 31
0.0
  0
SPLINE
  5
17DBD
330
747D
100
AcDbEntity
  8
細線
  6
Continuous
370
    15
100
AcDbSpline
210
0.0
220
0.0
230
1.0
 70
     8
 71
     3
 72
    11
 73
     7
 74
     0
 42
0.000000001
 43
0.0000000001
 40
0.0
 40
0.0
 40
0.0
 40
0.0
 40
0.0781314889249488
 40
0.3601777463886433
 40
0.6812698848259567
 40
1.0
 40
1.0
 40
1.0
 40
1.0
 10
5720.469333049265
 20
4490.633589454893
 30
0.0
 10
5720.46047061857
 20
4490.628401339384
 30
0.0
 10
5720.419615767845
 20
4490.604484685867
 30
0.0
 10
5720.350870624279
 20
4490.545174358016
 30
0.0
 10
5720.288829112956
 20
4490.436309052031
 30
0.0
 10
5720.282457623405
 20
4490.351638422605
 30
0.0
 10
5720.279283639399
 20
4490.309459396605
 30
0.0
  0
ARC
  5
17DBE
330
747D
100
AcDbEntity
  8
細線
  6
Continuous
370
    15
100
AcDbCircle
 10
5726.375559977903
 20
4480.077234301188
 30
0.0
 40
12.09629120178367
100
AcDbArc
 50
60.77315626978887
 51
119.2268437302111
  0
SPLINE
  5
17DBF
330
747D
100
AcDbEntity
  8
細線
  6
Continuous
370
    15
100
AcDbSpline
210
0.0
220
0.0
230
1.0
 70
     8
 71
     3
 72
    11
 73
     7
 74
     0
 42
0.000000001
 43
0.0000000001
 40
0.0
 40
0.0
 40
0.0
 40
0.0
 40
0.0779029322309155
 40
0.3600683505069131
 40
0.6812326600027312
 40
1.0
 40
1.0
 40
1.0
 40
1.0
 10
5732.471860763041
 20
4490.309459396605
 30
0.0
 10
5732.471658489878
 20
4490.319696322341
 30
0.0
 10
5732.470723580808
 20
4490.367011524224
 30
0.0
 10
5732.452526571148
 20
4490.455948280399
 30
0.0
 10
5732.387869542064
 20
4490.563312759735
 30
0.0
 10
5732.317075692764
 20
4490.61022245917
 30
0.0
 10
5732.281811353175
 20
4490.633589454893
 30
0.0
  0
LINE
  5
17DC0
330
747D
100
AcDbEntity
  8
細線
  6
Continuous
370
    15
100
AcDbLine
 10
5703.408104297129
 20
4605.077249237303
 30
0.0
 11
5734.275556203334
 21
4605.077249237303
 31
0.0
  0
LINE
  5
17DC1
330
747D
100
AcDbEntity
  8
細線
  6
Continuous
370
    15
100
AcDbLine
 10
5698.408104297129
 20
4512.077259250883
 30
0.0
 11
5698.408104297129
 21
4600.077249237304
 31
0.0
  0
ARC
  5
17DC2
330
747D
100
AcDbEntity
  8
細線
  6
Continuous
370
    15
100
AcDbCircle
 10
5703.408104297129
 20
4600.077249237304
 30
0.0
 40
5.0
100
AcDbArc
 50
90.0
 51
180.0
  0
LINE
  5
17DC3
330
747D
100
AcDbEntity
  8
細線
  6
Continuous
370
    15
100
AcDbLine
 10
5700.475551005808
 20
4595.684347070415
 30
0.0
 11
5700.475551005808
 21
4516.470121531962
 31
0.0
  0
LINE
  5
17DC4
330
747D
100
AcDbEntity
  8
細線
  6
Continuous
370
    15
100
AcDbLine
 10
5741.275556203333
 20
4598.077249237303
 30
0.0
 11
5741.275556203333
 21
4514.077259250884
 31
0.0
  0
ARC
  5
17DC5
330
747D
100
AcDbEntity
  8
細線
  6
Continuous
370
    15
100
AcDbCircle
 10
5734.275556203334
 20
4514.077259250884
 30
0.0
 40
7.0
100
AcDbArc
 50
270.0
 51
0.0
  0
ARC
  5
17DC6
330
747D
100
AcDbEntity
  8
細線
  6
Continuous
370
    15
100
AcDbCircle
 10
5734.275556203334
 20
4598.077249237303
 30
0.0
 40
7.0
100
AcDbArc
 50
0.0
 51
90.0
  0
LINE
  5
17DC7
330
747D
100
AcDbEntity
  8
細線
  6
Continuous
370
    15
100
AcDbLine
 10
5734.275556203334
 20
4507.077259250883
 30
0.0
 11
5703.408104297129
 21
4507.077259250883
 31
0.0
  0
ARC
  5
17DC8
330
747D
100
AcDbEntity
  8
細線
  6
Continuous
370
    15
100
AcDbCircle
 10
5703.408104297129
 20
4512.077259250883
 30
0.0
 40
5.0
100
AcDbArc
 50
180.0
 51
270.0
  0
ARC
  5
17DC9
330
747D
100
AcDbEntity
  8
細線
  6
Continuous
370
    15
100
AcDbCircle
 10
5727.195162892813
 20
4521.157622759081
 30
0.0
 40
6.898178997000096
100
AcDbArc
 50
281.1228560456502
 51
348.8771439544009
  0
ARC
  5
17DCA
330
747D
100
AcDbEntity
  8
細線
  6
Continuous
370
    15
100
AcDbCircle
 10
5727.19521491917
 20
4590.996878150832
 30
0.0
 40
6.89811791144148
100
AcDbArc
 50
11.12251539540163
 51
78.87748460464951
  0
LINE
  5
17DCB
330
747D
100
AcDbEntity
  8
細線
  6
Continuous
370
    15
100
AcDbLine
 10
5716.473348256556
 20
4517.6470958674
 30
0.0
 11
5716.473348256556
 21
4594.6156546557
 31
0.0
  0
ARC
  5
17DCC
330
747D
100
AcDbEntity
  8
細線
  6
Continuous
370
    15
100
AcDbCircle
 10
5714.473348256556
 20
4594.6156546557
 30
0.0
 40
2.0
100
AcDbArc
 50
0.0
 51
90.0
  0
ARC
  5
17DCD
330
747D
100
AcDbEntity
  8
細線
  6
Continuous
370
    15
100
AcDbCircle
 10
5714.473337335285
 20
4517.631390663384
 30
0.0
 40
2.0
100
AcDbArc
 50
262.8149626715364
 51
0.0
  0
LWPOLYLINE
  5
17DCE
330
747D
100
AcDbEntity
  8
細線
 48
50.0
100
AcDbPolyline
 90
        4
 70
     1
 43
0.0
 10
5727.637655850855
 20
4475.248855777983
 10
5725.113488551585
 20
4475.248855777983
 10
5725.113488551585
 20
4484.905642696623
 10
5727.637655850855
 20
4484.905642696623
  0
LINE
  5
17DCF
330
747D
100
AcDbEntity
  8
細線
  6
Continuous
370
    15
100
AcDbLine
 10
5714.473348256556
 20
4515.647095867399
 30
0.0
 11
5708.79457127711
 21
4515.647095867402
 31
0.0
  0
LINE
  5
17DD0
330
747D
100
AcDbEntity
  8
細線
  6
Continuous
370
    15
100
AcDbLine
 10
5703.203357573954
 20
4516.6470958674
 30
0.0
 11
5703.203357573954
 21
4595.615654655699
 31
0.0
  0
ARC
  5
17DD1
330
747D
100
AcDbEntity
  8
細線
  6
Continuous
370
    15
100
AcDbCircle
 10
5704.203357573955
 20
4595.615654655699
 30
0.0
 40
1.0
100
AcDbArc
 50
90.0
 51
180.0
  0
LINE
  5
17DD2
330
747D
100
AcDbEntity
  8
細線
  6
Continuous
370
    15
100
AcDbLine
 10
5708.789355870692
 20
4596.615654655699
 30
0.0
 11
5704.203357573955
 21
4596.615654655699
 31
0.0
  0
LINE
  5
17DD3
330
747D
100
AcDbEntity
  8
細線
  6
Continuous
370
    15
100
AcDbLine
 10
5708.79457127711
 20
4515.647095867399
 30
0.0
 11
5704.203357573955
 21
4515.647095867399
 31
0.0
  0
ARC
  5
17DD4
330
747D
100
AcDbEntity
  8
細線
  6
Continuous
370
    15
100
AcDbCircle
 10
5704.203357573955
 20
4516.6470958674
 30
0.0
 40
1.0
100
AcDbArc
 50
180.0
 51
270.0
  0
LINE
  5
17DD5
330
747D
100
AcDbEntity
  8
細線
  6
Continuous
370
    15
100
AcDbLine
 10
5714.473348256556
 20
4596.615654655699
 30
0.0
 11
5708.673879045671
 21
4596.615654655699
 31
0.0
  0
LWPOLYLINE
  5
17E1A
330
747D
100
AcDbEntity
  8
細線
  6
Continuous
370
    15
100
AcDbPolyline
 90
        3
 70
   128
 43
0.0
 10
4909.7887874808
 20
4487.090808578733
 10
4909.860372659175
 20
4487.06654948831
 10
4909.875571843593
 20
4487.063867279295
  0
ARC
  5
17E1B
330
747D
100
AcDbEntity
  8
細線
  6
Continuous
370
    15
100
AcDbCircle
 10
4906.375559977903
 20
4480.077234301188
 30
0.0
 40
7.799999999999959
100
AcDbArc
 50
64.04961909222373
 51
115.6437752580401
  0
LWPOLYLINE
  5
17E1C
330
747D
100
AcDbEntity
  8
細線
  6
Continuous
370
    15
100
AcDbPolyline
 90
        3
 70
   128
 43
0.0
 10
4902.875572558849
 20
4487.079424091581
 10
4902.928203460185
 20
4487.085086532835
 10
4902.99990784785
 20
4487.108928390745
  0
SPLINE
  5
17E1D
330
747D
100
AcDbEntity
  8
細線
  6
Continuous
370
    15
100
AcDbSpline
210
0.0
220
0.0
230
1.0
 70
     8
 71
     3
 72
     9
 73
     5
 74
     0
 42
0.000000001
 43
0.0000000001
 40
0.0
 40
0.0
 40
0.0
 40
0.0
 40
0.7237658969060897
 40
1.0
 40
1.0
 40
1.0
 40
1.0
 10
4888.280481215923
 20
4514.389020630125
 30
0.0
 10
4888.476222712845
 20
4514.617702072337
 30
0.0
 10
4888.74667134515
 20
4514.933662582753
 30
0.0
 10
4888.784203590862
 20
4515.492677016631
 30
0.0
 10
4888.79457127711
 20
4515.647095867399
 30
0.0
  0
SPLINE
  5
17E1E
330
747D
100
AcDbEntity
  8
細線
  6
Continuous
370
    15
100
AcDbSpline
210
0.0
220
0.0
230
1.0
 70
     8
 71
     3
 72
     9
 73
     5
 74
     0
 42
0.000000001
 43
0.0000000001
 40
0.0
 40
0.0
 40
0.0
 40
0.0
 40
0.1817420378681831
 40
1.0
 40
1.0
 40
1.0
 40
1.0
 10
4888.789355870692
 20
4596.615654655699
 30
0.0
 10
4888.782360206191
 20
4596.710169122114
 30
0.0
 10
4888.743867931138
 20
4597.230216478954
 30
0.0
 10
4888.489015910753
 20
4597.5245706276
 30
0.0
 10
4888.280481215923
 20
4597.765428253416
 30
0.0
  0
LINE
  5
17E1F
330
747D
100
AcDbEntity
  8
細線
  6
Continuous
370
    15
100
AcDbLine
 10
4913.96376502177
 20
4592.327577301268
 30
0.0
 11
4913.96376502177
 21
4519.826871582274
 31
0.0
  0
LINE
  5
17E20
330
747D
100
AcDbEntity
  8
細線
  6
Continuous
370
    15
100
AcDbLine
 10
4908.525914069621
 20
4514.389020630125
 30
0.0
 11
4888.280481215923
 21
4514.389020630125
 31
0.0
  0
ELLIPSE
  5
17E21
330
747D
100
AcDbEntity
  8
細線
  6
Continuous
370
    15
100
AcDbEllipse
 10
4883.475559977938
 20
4515.538156831662
 30
0.0
 11
5.399999999999976
 21
0.0
 31
0.0
210
0.0
220
0.0
230
1.0
 40
0.4663076581550023
 41
5.04728513882407
 42
5.809296398627029
  0
LINE
  5
17E22
330
747D
100
AcDbEntity
  8
細線
  6
Continuous
370
    15
100
AcDbLine
 10
4885.250389691798
 20
4513.159972854857
 30
0.0
 11
4883.475571986644
 21
4513.159972854857
 31
0.0
  0
LINE
  5
17E23
330
747D
100
AcDbEntity
  8
細線
  6
Continuous
370
    15
100
AcDbLine
 10
4883.475571986644
 20
4598.994476028685
 30
0.0
 11
4885.250389691798
 21
4598.994476028685
 31
0.0
  0
ELLIPSE
  5
17E24
330
747D
100
AcDbEntity
  8
細線
  6
Continuous
370
    15
100
AcDbEllipse
 10
4883.475559977938
 20
4596.6163117707
 30
0.0
 11
5.399999999999976
 21
0.0
 31
0.0
210
0.0
220
0.0
230
1.0
 40
0.4663076581550023
 41
0.4738889085525403
 42
1.235900168355494
  0
LINE
  5
17E25
330
747D
100
AcDbEntity
  8
細線
  6
Continuous
370
    15
100
AcDbLine
 10
4888.280481215923
 20
4597.765428253416
 30
0.0
 11
4908.525914069621
 21
4597.765428253416
 31
0.0
  0
ELLIPSE
  5
17E26
330
747D
100
AcDbEntity
  8
細線
  6
Continuous
370
    15
100
AcDbEllipse
 10
4883.475559977938
 20
4595.684347070415
 30
0.0
 11
0.0
 21
-3.310133756887523
 31
0.0
210
0.0
220
0.0
230
1.0
 40
0.9063077870366367
 41
3.141592653589783
 42
4.712388980384702
  0
ELLIPSE
  5
17E27
330
747D
100
AcDbEntity
  8
細線
  6
Continuous
370
    15
100
AcDbEllipse
 10
4883.475559977938
 20
4516.470121531962
 30
0.0
 11
0.0
 21
-3.310133756887466
 31
0.0
210
0.0
220
0.0
230
1.0
 40
0.9063077870366523
 41
4.712388980384702
 42
6.283185307179586
  0
ARC
  5
17E28
330
747D
100
AcDbEntity
  8
細線
  6
Continuous
370
    15
100
AcDbCircle
 10
4906.375559977903
 20
4480.077234301188
 30
0.0
 40
7.499999999999996
100
AcDbArc
 50
120.3006176375393
 51
59.69938236246067
  0
SPLINE
  5
17E29
330
747D
100
AcDbEntity
  8
細線
  6
Continuous
370
    15
100
AcDbSpline
210
0.0
220
0.0
230
1.0
 70
    24
 71
     3
 72
     9
 73
     5
 74
     0
 42
0.000000001
 43
0.0000000001
 40
0.0
 40
0.0
 40
0.0
 40
0.0
 40
0.8663703693180105
 40
1.0
 40
1.0
 40
1.0
 40
1.0
 10
4902.875572558849
 20
4486.886603065733
 30
0.0
 10
4902.875572558849
 20
4486.834231505545
 30
0.0
 10
4902.875572558849
 20
4486.773782115732
 30
0.0
 10
4902.875572558849
 20
4486.717934267722
 30
0.0
 10
4902.875572558849
 20
4486.710471340422
 30
0.0
  0
LINE
  5
17E2A
330
747D
100
AcDbEntity
  8
細線
  6
Continuous
370
    15
100
AcDbLine
 10
4902.875572558849
 20
4486.710471340422
 30
0.0
 11
4902.591526624171
 21
4486.552638241056
 31
0.0
  0
LINE
  5
17E2B
330
747D
100
AcDbEntity
  8
細線
  6
Continuous
370
    15
100
AcDbLine
 10
4910.159587975948
 20
4486.552638241056
 30
0.0
 11
4909.875571843593
 21
4486.710471340422
 31
0.0
  0
SPLINE
  5
17E2C
330
747D
100
AcDbEntity
  8
細線
  6
Continuous
370
    15
100
AcDbSpline
210
0.0
220
0.0
230
1.0
 70
    24
 71
     3
 72
     9
 73
     5
 74
     0
 42
0.000000001
 43
0.0000000001
 40
0.0
 40
0.0
 40
0.0
 40
0.0
 40
0.8651188723649402
 40
1.0
 40
1.0
 40
1.0
 40
1.0
 10
4909.875571843593
 20
4486.710471340422
 30
0.0
 10
4909.875571843593
 20
4486.760558657854
 30
0.0
 10
4909.875571843593
 20
4486.818455114666
 30
0.0
 10
4909.875571843593
 20
4486.878503651383
 30
0.0
 10
4909.875571843593
 20
4486.886603065733
 30
0.0
  0
ARC
  5
17E2D
330
747D
100
AcDbEntity
  8
細線
  6
Continuous
370
    15
100
AcDbCircle
 10
4906.375559977903
 20
4480.077234301188
 30
0.0
 40
9.499999999999973
100
AcDbArc
 50
69.15570700480905
 51
110.8442929951909
  0
LINE
  5
17E2E
330
747D
100
AcDbEntity
  8
細線
  6
Continuous
370
    15
100
AcDbLine
 10
4909.875571843593
 20
4486.886603065733
 30
0.0
 11
4909.875571843593
 21
4488.781911560301
 31
0.0
  0
LINE
  5
17E2F
330
747D
100
AcDbEntity
  8
細線
  6
Continuous
370
    15
100
AcDbLine
 10
4902.875572558849
 20
4488.781911560301
 30
0.0
 11
4902.875572558849
 21
4486.886603065733
 31
0.0
  0
LINE
  5
17E30
330
747D
100
AcDbEntity
  8
細線
  6
Continuous
370
    15
100
AcDbLine
 10
4909.875571843593
 20
4488.781911560301
 30
0.0
 11
4909.875571843593
 21
4488.908988662962
 31
0.0
  0
LINE
  5
17E31
330
747D
100
AcDbEntity
  8
細線
  6
Continuous
370
    15
100
AcDbLine
 10
4909.875571843593
 20
4488.908988662962
 30
0.0
 11
4909.755945321529
 21
4488.955480285887
 31
0.0
  0
LINE
  5
17E32
330
747D
100
AcDbEntity
  8
細線
  6
Continuous
370
    15
100
AcDbLine
 10
4902.99516927859
 20
4488.955480285887
 30
0.0
 11
4902.875572558849
 21
4488.908988662962
 31
0.0
  0
LINE
  5
17E33
330
747D
100
AcDbEntity
  8
細線
  6
Continuous
370
    15
100
AcDbLine
 10
4902.875572558849
 20
4488.908988662962
 30
0.0
 11
4902.875572558849
 21
4488.781911560301
 31
0.0
  0
ARC
  5
17E34
330
747D
100
AcDbEntity
  8
細線
  6
Continuous
370
    15
100
AcDbCircle
 10
4923.375559977904
 20
4620.077234301188
 30
0.0
 40
6.0
100
AcDbArc
 50
0.0
 51
90.0
  0
LINE
  5
17E35
330
747D
100
AcDbEntity
  8
細線
  6
Continuous
370
    15
100
AcDbLine
 10
4929.375559207408
 20
4620.077234932188
 30
0.0
 11
4929.375559207408
 21
4452.077252098326
 31
0.0
  0
LINE
  5
17E36
330
747D
100
AcDbEntity
  8
細線
  6
Continuous
370
    15
100
AcDbLine
 10
4871.375560876338
 20
4452.077252098326
 30
0.0
 11
4871.375560876338
 21
4620.077234932188
 31
0.0
  0
LINE
  5
17E37
330
747D
100
AcDbEntity
  8
細線
  6
Continuous
370
    15
100
AcDbLine
 10
4877.375573035686
 20
4626.077276893858
 30
0.0
 11
4923.375547048061
 21
4626.077276893858
 31
0.0
  0
ARC
  5
17E38
330
747D
100
AcDbEntity
  8
細線
  6
Continuous
370
    15
100
AcDbCircle
 10
4923.375559977904
 20
4452.077234301188
 30
0.0
 40
6.0
100
AcDbArc
 50
270.0
 51
0.0
  0
ARC
  5
17E39
330
747D
100
AcDbEntity
  8
細線
  6
Continuous
370
    15
100
AcDbCircle
 10
4877.375559977903
 20
4620.077234301188
 30
0.0
 40
6.0
100
AcDbArc
 50
90.0
 51
180.0
  0
LINE
  5
17E3A
330
747D
100
AcDbEntity
  8
細線
  6
Continuous
370
    15
100
AcDbLine
 10
4923.375547048061
 20
4446.077210136656
 30
0.0
 11
4877.375573035686
 21
4446.077210136656
 31
0.0
  0
ARC
  5
17E3B
330
747D
100
AcDbEntity
  8
細線
  6
Continuous
370
    15
100
AcDbCircle
 10
4877.375559977903
 20
4452.077234301188
 30
0.0
 40
6.0
100
AcDbArc
 50
180.0
 51
270.0
  0
LINE
  5
17E3C
330
747D
100
AcDbEntity
  8
細線
  6
Continuous
370
    15
100
AcDbLine
 10
4912.471860763042
 20
4490.309459396605
 30
0.0
 11
4912.471860763042
 21
4486.294073292021
 31
0.0
  0
ARC
  5
17E3D
330
747D
100
AcDbEntity
  8
細線
  6
Continuous
370
    15
100
AcDbCircle
 10
4906.375559977903
 20
4480.077234301188
 30
0.0
 40
8.707106781186586
100
AcDbArc
 50
134.4391355081549
 51
45.56086449184513
  0
LINE
  5
17E3E
330
747D
100
AcDbEntity
  8
細線
  6
Continuous
370
    15
100
AcDbLine
 10
4900.2792836394
 20
4486.294073292021
 30
0.0
 11
4900.2792836394
 21
4490.309459396605
 31
0.0
  0
SPLINE
  5
17E3F
330
747D
100
AcDbEntity
  8
細線
  6
Continuous
370
    15
100
AcDbSpline
210
0.0
220
0.0
230
1.0
 70
     8
 71
     3
 72
    11
 73
     7
 74
     0
 42
0.000000001
 43
0.0000000001
 40
0.0
 40
0.0
 40
0.0
 40
0.0
 40
0.0781314889249488
 40
0.3601777463886433
 40
0.6812698848259567
 40
1.0
 40
1.0
 40
1.0
 40
1.0
 10
4900.469333049266
 20
4490.633589454893
 30
0.0
 10
4900.460470618571
 20
4490.628401339384
 30
0.0
 10
4900.419615767845
 20
4490.604484685867
 30
0.0
 10
4900.350870624279
 20
4490.545174358016
 30
0.0
 10
4900.288829112956
 20
4490.436309052031
 30
0.0
 10
4900.282457623405
 20
4490.351638422605
 30
0.0
 10
4900.2792836394
 20
4490.309459396605
 30
0.0
  0
ARC
  5
17E40
330
747D
100
AcDbEntity
  8
細線
  6
Continuous
370
    15
100
AcDbCircle
 10
4906.375559977903
 20
4480.077234301188
 30
0.0
 40
12.09629120178367
100
AcDbArc
 50
60.77315626978887
 51
119.2268437302111
  0
SPLINE
  5
17E41
330
747D
100
AcDbEntity
  8
細線
  6
Continuous
370
    15
100
AcDbSpline
210
0.0
220
0.0
230
1.0
 70
     8
 71
     3
 72
    11
 73
     7
 74
     0
 42
0.000000001
 43
0.0000000001
 40
0.0
 40
0.0
 40
0.0
 40
0.0
 40
0.0779029322309155
 40
0.3600683505069131
 40
0.6812326600027312
 40
1.0
 40
1.0
 40
1.0
 40
1.0
 10
4912.471860763042
 20
4490.309459396605
 30
0.0
 10
4912.471658489877
 20
4490.319696322341
 30
0.0
 10
4912.47072358081
 20
4490.367011524224
 30
0.0
 10
4912.452526571149
 20
4490.455948280399
 30
0.0
 10
4912.387869542064
 20
4490.563312759735
 30
0.0
 10
4912.317075692765
 20
4490.61022245917
 30
0.0
 10
4912.281811353175
 20
4490.633589454893
 30
0.0
  0
LINE
  5
17E42
330
747D
100
AcDbEntity
  8
細線
  6
Continuous
370
    15
100
AcDbLine
 10
4883.408104297131
 20
4605.077249237303
 30
0.0
 11
4914.275556203334
 21
4605.077249237303
 31
0.0
  0
LINE
  5
17E43
330
747D
100
AcDbEntity
  8
細線
  6
Continuous
370
    15
100
AcDbLine
 10
4878.40810429713
 20
4512.077259250883
 30
0.0
 11
4878.40810429713
 21
4600.077249237304
 31
0.0
  0
ARC
  5
17E44
330
747D
100
AcDbEntity
  8
細線
  6
Continuous
370
    15
100
AcDbCircle
 10
4883.408104297131
 20
4600.077249237304
 30
0.0
 40
5.0
100
AcDbArc
 50
90.0
 51
180.0
  0
LINE
  5
17E45
330
747D
100
AcDbEntity
  8
細線
  6
Continuous
370
    15
100
AcDbLine
 10
4880.475551005809
 20
4595.684347070415
 30
0.0
 11
4880.475551005809
 21
4516.470121531962
 31
0.0
  0
LINE
  5
17E46
330
747D
100
AcDbEntity
  8
細線
  6
Continuous
370
    15
100
AcDbLine
 10
4921.275556203334
 20
4598.077249237303
 30
0.0
 11
4921.275556203334
 21
4514.077259250884
 31
0.0
  0
ARC
  5
17E47
330
747D
100
AcDbEntity
  8
細線
  6
Continuous
370
    15
100
AcDbCircle
 10
4914.275556203334
 20
4514.077259250884
 30
0.0
 40
7.0
100
AcDbArc
 50
270.0
 51
0.0
  0
ARC
  5
17E48
330
747D
100
AcDbEntity
  8
細線
  6
Continuous
370
    15
100
AcDbCircle
 10
4914.275556203334
 20
4598.077249237303
 30
0.0
 40
7.0
100
AcDbArc
 50
0.0
 51
90.0
  0
LINE
  5
17E49
330
747D
100
AcDbEntity
  8
細線
  6
Continuous
370
    15
100
AcDbLine
 10
4914.275556203334
 20
4507.077259250883
 30
0.0
 11
4883.408104297131
 21
4507.077259250883
 31
0.0
  0
ARC
  5
17E4A
330
747D
100
AcDbEntity
  8
細線
  6
Continuous
370
    15
100
AcDbCircle
 10
4883.408104297131
 20
4512.077259250883
 30
0.0
 40
5.0
100
AcDbArc
 50
180.0
 51
270.0
  0
ARC
  5
17E4B
330
747D
100
AcDbEntity
  8
細線
  6
Continuous
370
    15
100
AcDbCircle
 10
4907.195162892815
 20
4521.157622759081
 30
0.0
 40
6.898178997000096
100
AcDbArc
 50
281.1228560456502
 51
348.8771439544009
  0
ARC
  5
17E4C
330
747D
100
AcDbEntity
  8
細線
  6
Continuous
370
    15
100
AcDbCircle
 10
4907.195214919171
 20
4590.996878150832
 30
0.0
 40
6.89811791144148
100
AcDbArc
 50
11.12251539540163
 51
78.87748460464951
  0
LINE
  5
17E4D
330
747D
100
AcDbEntity
  8
細線
  6
Continuous
370
    15
100
AcDbLine
 10
4896.473348256557
 20
4517.6470958674
 30
0.0
 11
4896.473348256557
 21
4594.6156546557
 31
0.0
  0
ARC
  5
17E4E
330
747D
100
AcDbEntity
  8
細線
  6
Continuous
370
    15
100
AcDbCircle
 10
4894.473348256557
 20
4594.6156546557
 30
0.0
 40
2.0
100
AcDbArc
 50
0.0
 51
90.0
  0
ARC
  5
17E4F
330
747D
100
AcDbEntity
  8
細線
  6
Continuous
370
    15
100
AcDbCircle
 10
4894.473337335287
 20
4517.631390663384
 30
0.0
 40
2.0
100
AcDbArc
 50
262.8149626715364
 51
0.0
  0
LWPOLYLINE
  5
17E50
330
747D
100
AcDbEntity
  8
細線
 48
50.0
100
AcDbPolyline
 90
        4
 70
     1
 43
0.0
 10
4907.637655850856
 20
4475.248855777983
 10
4905.113488551585
 20
4475.248855777983
 10
4905.113488551585
 20
4484.905642696623
 10
4907.637655850856
 20
4484.905642696623
  0
LINE
  5
17E51
330
747D
100
AcDbEntity
  8
細線
  6
Continuous
370
    15
100
AcDbLine
 10
4894.473348256557
 20
4515.647095867399
 30
0.0
 11
4888.79457127711
 21
4515.647095867402
 31
0.0
  0
LINE
  5
17E52
330
747D
100
AcDbEntity
  8
細線
  6
Continuous
370
    15
100
AcDbLine
 10
4883.203357573955
 20
4516.6470958674
 30
0.0
 11
4883.203357573955
 21
4595.615654655699
 31
0.0
  0
ARC
  5
17E53
330
747D
100
AcDbEntity
  8
細線
  6
Continuous
370
    15
100
AcDbCircle
 10
4884.203357573955
 20
4595.615654655699
 30
0.0
 40
1.0
100
AcDbArc
 50
90.0
 51
180.0
  0
LINE
  5
17E54
330
747D
100
AcDbEntity
  8
細線
  6
Continuous
370
    15
100
AcDbLine
 10
4888.789355870692
 20
4596.615654655699
 30
0.0
 11
4884.203357573955
 21
4596.615654655699
 31
0.0
  0
LINE
  5
17E55
330
747D
100
AcDbEntity
  8
細線
  6
Continuous
370
    15
100
AcDbLine
 10
4888.79457127711
 20
4515.647095867399
 30
0.0
 11
4884.203357573955
 21
4515.647095867399
 31
0.0
  0
ARC
  5
17E56
330
747D
100
AcDbEntity
  8
細線
  6
Continuous
370
    15
100
AcDbCircle
 10
4884.203357573955
 20
4516.6470958674
 30
0.0
 40
1.0
100
AcDbArc
 50
180.0
 51
270.0
  0
LINE
  5
17E57
330
747D
100
AcDbEntity
  8
細線
  6
Continuous
370
    15
100
AcDbLine
 10
4894.473348256557
 20
4596.615654655699
 30
0.0
 11
4888.673879045671
 21
4596.615654655699
 31
0.0
  0
TEXT
  5
17E61
330
747D
100
AcDbEntity
  8
文字
 62
     7
 48
50.0
100
AcDbText
 10
15047.13957933145
 20
1031.557706291228
 30
0.0
 40
100.0
  1
     <縮尺> S=1/40
  7
STYLE2
100
AcDbText
  0
LINE
  5
17E69
330
747D
100
AcDbEntity
  8
細線
 48
50.0
100
AcDbLine
 10
4950.875560876357
 20
8386.766456979696
 30
0.0
 11
4950.875560876357
 21
8360.766456979648
 31
0.0
  0
LINE
  5
17E71
330
747D
100
AcDbEntity
  8
細線
 48
50.0
100
AcDbLine
 10
5770.875560876357
 20
8386.766456979728
 30
0.0
 11
5770.875560876357
 21
8360.766456979682
 31
0.0
  0
LINE
  5
17E79
330
747D
100
AcDbEntity
  8
細線
 48
50.0
100
AcDbLine
 10
6590.875560876355
 20
8386.766456979541
 30
0.0
 11
6590.875560876355
 21
8360.766456979495
 31
0.0
  0
DIMENSION
  5
17EF6
330
747D
100
AcDbEntity
  8
寸法
100
AcDbDimension
  2
*D38
 10
9059.284382744518
 20
3619.577276893865
 30
0.0
 11
9059.284382744518
 21
4524.612288770249
 31
0.0
 70
   160
 71
     5
 42
1789.999999999997
  3
INABA_S40G
100
AcDbAlignedDimension
 13
9661.247473436722
 23
5409.577276893862
 33
0.0
 14
9654.245103391943
 24
3619.577276893864
 34
0.0
 50
90.0
100
AcDbRotatedDimension
1001
ACAD
1000
DSTYLE
1002
{
1070
   288
1070
     1
1002
}
  0
LINE
  5
17EF7
330
747D
100
AcDbEntity
  8
部品1
 48
50.0
100
AcDbLine
 10
9654.245103391943
 20
5400.577388343608
 30
0.0
 11
9661.247473436722
 21
5400.577388343608
 31
0.0
  0
LINE
  5
17EF8
330
747D
100
AcDbEntity
  8
部品1
 48
0.2
100
AcDbLine
 10
9654.245103391943
 20
5409.477388343607
 30
0.0
 11
9654.245103391943
 21
5400.577388343608
 31
0.0
  0
LINE
  5
17EF9
330
747D
100
AcDbEntity
  8
部品1
 48
50.0
100
AcDbLine
 10
9654.245103391943
 20
3613.677388343599
 30
0.0
 11
9661.247473436722
 21
3613.677388343599
 31
0.0
  0
LINE
  5
17EFA
330
747D
100
AcDbEntity
  8
部品1
 48
0.2
100
AcDbLine
 10
9654.245103391943
 20
3622.577388343599
 30
0.0
 11
9654.245103391943
 21
3613.6773883436
 31
0.0
  0
LINE
  5
17EFB
330
747D
100
AcDbEntity
  8
部品1
 48
50.0
100
AcDbLine
 10
9654.245103391943
 20
3622.577388343599
 30
0.0
 11
9661.247473436722
 21
3622.577388343599
 31
0.0
  0
LINE
  5
17EFC
330
747D
100
AcDbEntity
  8
部品
 48
50.0
100
AcDbLine
 10
9654.245103391943
 20
5409.477388343607
 30
0.0
 11
9661.247473436722
 21
5409.477388343607
 31
0.0
  0
ENDSEC
  0
SECTION
  2
OBJECTS
  0
DICTIONARY
  5
7471
330
0
100
AcDbDictionary
281
     1
  3
ACAD_CIP_PREVIOUS_PRODUCT_INFO
350
17CCF
  3
ACAD_COLOR
350
15D43
  3
ACAD_DETAILVIEWSTYLE
350
17CC5
  3
ACAD_GROUP
350
7472
  3
ACAD_LAYOUT
350
15D44
  3
ACAD_MATERIAL
350
15D42
  3
ACAD_MLEADERSTYLE
350
17CC1
  3
ACAD_MLINESTYLE
350
7473
  3
ACAD_PLOTSETTINGS
350
15D45
  3
ACAD_PLOTSTYLENAME
350
15D40
  3
ACAD_SCALELIST
350
17CAF
  3
ACAD_SECTIONVIEWSTYLE
350
17CC3
  3
ACAD_TABLESTYLE
350
17CAD
  3
ACAD_VISUALSTYLE
350
17C94
  3
ACDB_RECOMPOSE_DATA
350
17F33
  3
AcDbVariableDictionary
350
17E97
  3
AcDsDecomposeData
350
17F3A
  3
CONTENTDICTIONARY
350
E71C
  3
DRAWINGVARIABLESDICT
350
F3B9
  3
DWGPROPS
350
17F34
  0
DICTIONARY
  5
15EBF
330
7467
100
AcDbDictionary
280
     1
281
     1
  3
ACAD_LAYERSTATES
360
15EC0
  0
DICTIONARY
  5
17E7A
330
7474
100
AcDbDictionary
280
     1
281
     1
  3
ADSK_XREC_LAYER_RECONCILED
360
17E7B
  0
DICTIONARY
  5
17E7C
330
DEB2
100
AcDbDictionary
280
     1
281
     1
  3
ADSK_XREC_LAYER_RECONCILED
360
17E7D
  0
DICTIONARY
  5
17E7E
330
DEB3
100
AcDbDictionary
280
     1
281
     1
  3
ADSK_XREC_LAYER_RECONCILED
360
17E7F
  0
DICTIONARY
  5
17E80
330
DEB4
100
AcDbDictionary
280
     1
281
     1
  3
ADSK_XREC_LAYER_RECONCILED
360
17E81
  0
DICTIONARY
  5
17E82
330
DEB5
100
AcDbDictionary
280
     1
281
     1
  3
ADSK_XREC_LAYER_RECONCILED
360
17E83
  0
DICTIONARY
  5
17E84
330
DEB6
100
AcDbDictionary
280
     1
281
     1
  3
ADSK_XREC_LAYER_RECONCILED
360
17E85
  0
DICTIONARY
  5
17E86
330
10B54
100
AcDbDictionary
280
     1
281
     1
  3
ADSK_XREC_LAYER_RECONCILED
360
17E87
  0
DICTIONARY
  5
17E88
330
11729
100
AcDbDictionary
280
     1
281
     1
  3
ADSK_XREC_LAYER_RECONCILED
360
17E89
  0
DICTIONARY
  5
17E8A
330
1173F
100
AcDbDictionary
280
     1
281
     1
  3
ADSK_XREC_LAYER_RECONCILED
360
17E8B
  0
DICTIONARY
  5
17E8C
330
11740
100
AcDbDictionary
280
     1
281
     1
  3
ADSK_XREC_LAYER_RECONCILED
360
17E8D
  0
DICTIONARY
  5
17E8E
330
118A1
100
AcDbDictionary
280
     1
281
     1
  3
ADSK_XREC_LAYER_RECONCILED
360
17E8F
  0
DICTIONARY
  5
17E90
330
123C1
100
AcDbDictionary
280
     1
281
     1
  3
ADSK_XREC_LAYER_RECONCILED
360
17E91
  0
DICTIONARY
  5
17EE8
330
17EE7
100
AcDbDictionary
280
     1
281
     1
  0
XRECORD
  5
17CCF
102
{ACAD_REACTORS
330
7471
102
}
330
7471
100
AcDbXrecord
280
     1
300
ACDLT
300
2014
300
ACDLT_F_S
  0
DICTIONARY
  5
15D43
102
{ACAD_REACTORS
330
7471
102
}
330
7471
100
AcDbDictionary
281
     1
  0
DICTIONARY
  5
17CC5
102
{ACAD_REACTORS
330
7471
102
}
330
7471
100
AcDbDictionary
281
     1
  3
Metric50
350
17CC6
  0
DICTIONARY
  5
7472
102
{ACAD_REACTORS
330
7471
102
}
330
7471
100
AcDbDictionary
281
     1
  0
DICTIONARY
  5
15D44
102
{ACAD_REACTORS
330
7471
102
}
330
7471
100
AcDbDictionary
281
     1
  3
Model
350
15D46
  3
レイアウト1
350
15D47
  0
DICTIONARY
  5
15D42
102
{ACAD_REACTORS
330
7471
102
}
330
7471
100
AcDbDictionary
281
     1
  3
ByBlock
350
17C84
  3
ByLayer
350
17C7C
  3
Global
350
17C8C
  0
DICTIONARY
  5
17CC1
102
{ACAD_REACTORS
330
7471
102
}
330
7471
100
AcDbDictionary
281
     1
  3
Standard
350
17CC2
  0
DICTIONARY
  5
7473
102
{ACAD_REACTORS
330
7471
102
}
330
7471
100
AcDbDictionary
281
     1
  3
STANDARD
350
7480
  0
DICTIONARY
  5
15D45
102
{ACAD_REACTORS
330
7471
102
}
330
7471
100
AcDbDictionary
281
     1
  0
ACDBDICTIONARYWDFLT
  5
15D40
102
{ACAD_REACTORS
330
7471
102
}
330
7471
100
AcDbDictionary
281
     1
  3
Normal
350
15D41
100
AcDbDictionaryWithDefault
340
15D41
  0
DICTIONARY
  5
17CAF
102
{ACAD_REACTORS
330
7471
102
}
330
7471
100
AcDbDictionary
281
     1
  3
A0
350
17CB0
  3
A1
350
17CB1
  3
A2
350
17CB2
  3
A3
350
17CB3
  3
A4
350
17CB4
  3
A5
350
17CB5
  3
A6
350
17CB6
  3
A7
350
17CB7
  3
A8
350
17CB8
  3
A9
350
17CB9
  3
B0
350
17CBA
  3
B1
350
17CBB
  3
B2
350
17CBC
  3
B3
350
17CBD
  3
B4
350
17CBE
  3
B5
350
17CBF
  3
B6
350
17CC0
  0
DICTIONARY
  5
17CC3
102
{ACAD_REACTORS
330
7471
102
}
330
7471
100
AcDbDictionary
281
     1
  3
Metric50
350
17CC4
  0
DICTIONARY
  5
17CAD
102
{ACAD_REACTORS
330
7471
102
}
330
7471
100
AcDbDictionary
281
     1
  3
Standard
350
17CAE
  0
DICTIONARY
  5
17C94
102
{ACAD_REACTORS
330
7471
102
}
330
7471
100
AcDbDictionary
281
     1
  3
2dWireframe
350
17C9A
  3
Basic
350
17C99
  3
Brighten
350
17CA0
  3
ColorChange
350
17CA4
  3
Conceptual
350
17C9D
  3
Dim
350
17C9F
  3
EdgeColorOff
350
17CAC
  3
Facepattern
350
17CA3
  3
Flat
350
17C95
  3
FlatWithEdges
350
17C96
  3
Gouraud
350
17C97
  3
GouraudWithEdges
350
17C98
  3
Hidden
350
17C9C
  3
JitterOff
350
17CAA
  3
Linepattern
350
17CA2
  3
OverhangOff
350
17CAB
  3
Realistic
350
17C9E
  3
Shaded
350
17CA9
  3
Shaded with edges
350
17CA8
  3
Shades of Gray
350
17CA5
  3
Sketchy
350
17CA6
  3
Thicken
350
17CA1
  3
Wireframe
350
17C9B
  3
X-Ray
350
17CA7
  0
XRECORD
  5
17F33
102
{ACAD_REACTORS
330
7471
102
}
330
7471
100
AcDbXrecord
280
     1
 90
        1
330
179B9
330
17CAE
  0
DICTIONARY
  5
17E97
102
{ACAD_REACTORS
330
7471
102
}
330
7471
100
AcDbDictionary
281
     1
  3
CANNOSCALE
350
17E9D
  3
CMLEADERSTYLE
350
17E99
  3
CTABLESTYLE
350
17E98
  3
CVIEWDETAILSTYLE
350
17E9A
  3
CVIEWSECTIONSTYLE
350
17E9B
  3
DIMASSOC
350
17F30
  3
INDEXCTL
350
17F2E
  3
LAYEREVAL
350
17E9F
  3
LAYERNOTIFY
350
17EA0
  3
LIGHTINGUNITS
350
17E9E
  3
MSLTSCALE
350
17E9C
  3
SORTENTS
350
17F2D
  3
XCLIPFRAME
350
17F2F
  0
DICTIONARY
  5
17F3A
102
{ACAD_REACTORS
330
7471
102
}
330
7471
100
AcDbDictionary
281
     1
  3
AcDsRecords
350
17F3C
  3
AcDsSchemas
350
17F3B
1001
ACAD
1070
     2
  0
DICTIONARY
  5
E71C
102
{ACAD_REACTORS
330
7471
102
}
330
7471
100
AcDbDictionary
281
     1
  0
DICTIONARY
  5
F3B9
102
{ACAD_REACTORS
330
7471
102
}
330
7471
100
AcDbDictionary
281
     1
1001
DRAWINGVARIABLESXDATA
1000
POLARMODE
1000
1
  0
XRECORD
  5
17F34
102
{ACAD_REACTORS
330
7471
102
}
330
7471
100
AcDbXrecord
280
     1
  1
DWGPROPS COOKIE
  2

  3

  4

  6

  7

  8
TSUJIKAWA
  9

300
=
301
=
302
=
303
=
304
=
305
=
306
=
307
=
308
=
309
=
 40
0.5303496643518519
 41
2452116.684896065
 42
2457984.441315162
  1

 90
        0
  0
DICTIONARY
  5
15EC0
102
{ACAD_REACTORS
330
15EBF
102
}
330
15EBF
100
AcDbDictionary
281
     1
  0
XRECORD
  5
17E7B
102
{ACAD_REACTORS
330
17E7A
102
}
330
17E7A
100
AcDbXrecord
280
     1
290
     1
  0
XRECORD
  5
17E7D
102
{ACAD_REACTORS
330
17E7C
102
}
330
17E7C
100
AcDbXrecord
280
     1
290
     1
  0
XRECORD
  5
17E7F
102
{ACAD_REACTORS
330
17E7E
102
}
330
17E7E
100
AcDbXrecord
280
     1
290
     1
  0
XRECORD
  5
17E81
102
{ACAD_REACTORS
330
17E80
102
}
330
17E80
100
AcDbXrecord
280
     1
290
     1
  0
XRECORD
  5
17E83
102
{ACAD_REACTORS
330
17E82
102
}
330
17E82
100
AcDbXrecord
280
     1
290
     1
  0
XRECORD
  5
17E85
102
{ACAD_REACTORS
330
17E84
102
}
330
17E84
100
AcDbXrecord
280
     1
290
     1
  0
XRECORD
  5
17E87
102
{ACAD_REACTORS
330
17E86
102
}
330
17E86
100
AcDbXrecord
280
     1
290
     1
  0
XRECORD
  5
17E89
102
{ACAD_REACTORS
330
17E88
102
}
330
17E88
100
AcDbXrecord
280
     1
290
     1
  0
XRECORD
  5
17E8B
102
{ACAD_REACTORS
330
17E8A
102
}
330
17E8A
100
AcDbXrecord
280
     1
290
     1
  0
XRECORD
  5
17E8D
102
{ACAD_REACTORS
330
17E8C
102
}
330
17E8C
100
AcDbXrecord
280
     1
290
     1
  0
XRECORD
  5
17E8F
102
{ACAD_REACTORS
330
17E8E
102
}
330
17E8E
100
AcDbXrecord
280
     1
290
     1
  0
XRECORD
  5
17E91
102
{ACAD_REACTORS
330
17E90
102
}
330
17E90
100
AcDbXrecord
280
     1
290
     1
  0
ACDBDETAILVIEWSTYLE
  5
17CC6
102
{ACAD_XDICTIONARY
360
17E94
102
}
102
{ACAD_REACTORS
330
17CC5
102
}
330
17CC5
100
AcDbModelDocViewStyle
 70
     0
  3
Metric50
290
     0
100
AcDbDetailViewStyle
 70
     0
 71
     0
 90
        3
 71
     1
340
7475
 40
5.0
340
0
 40
5.0
300

 40
0.0
280
     1
 71
     2
340
7479
 90
       25
 71
     3
340
7475
 40
5.0
 90
        0
 40
15.0
 90
        1
300
%<\AcVar ViewDetailId>% (%<\AcVar ViewScale \f "%sn">%)
 71
     4
340
7479
 90
       25
340
7479
 90
       25
280
     0
  0
LAYOUT
  5
15D46
102
{ACAD_XDICTIONARY
360
17F3D
102
}
102
{ACAD_REACTORS
330
15D44
102
}
330
15D44
100
AcDbPlotSettings
  1

  2
CubePDF
  4
A3
  6

 40
3.174999952316284
 41
3.174999952316284
 42
3.17498779296875
 43
3.17498779296875
 44
420.1583251953125
 45
297.0318298339844
 46
0.6042196843820023
 47
0.0
 48
424.6042489999999
 49
264.156711
140
1777.606053
141
968.930615
142
1.0
143
39.98278751715608
 70
  3764
 72
     1
 73
     0
 74
     2
  7
inabass.ctb
 75
     0
147
0.0250107624329823
148
25.79074261211281
149
125.8223078213959
100
AcDbLayout
  1
Model
 70
     1
 71
     0
 10
0.0
 20
0.0
 11
12.0
 21
9.0
 12
0.0
 22
0.0
 32
0.0
 14
0.0
 24
0.0
 34
0.0
 15
0.0
 25
0.0
 35
0.0
146
0.0
 13
0.0
 23
0.0
 33
0.0
 16
1.0
 26
0.0
 36
0.0
 17
0.0
 27
1.0
 37
0.0
 76
     0
330
747D
331
17C7A
1001
ACAD_PSEXT
1000
CubePDF
1000
CubePDF
1000
CubePDF:
1000
CubePDF
1070
     0
  0
LAYOUT
  5
15D47
102
{ACAD_XDICTIONARY
360
17F3F
102
}
102
{ACAD_REACTORS
330
15D44
102
}
330
15D44
100
AcDbPlotSettings
  1

  2
Microsoft Office Document Image Writer
  4

  6

 40
0.0
 41
0.0
 42
0.0
 43
0.0
 44
0.0
 45
0.0
 46
0.0
 47
0.0
 48
0.0
 49
0.0
140
0.0
141
0.0
142
1.0
143
1.0
 70
   688
 72
     0
 73
     0
 74
     5
  7

 75
    16
147
1.0
148
0.0
149
0.0
100
AcDbLayout
  1
レイアウト1
 70
     0
 71
     1
 10
0.0
 20
0.0
 11
420.0
 21
297.0
 12
0.0
 22
0.0
 32
0.0
 14
1.000000000000000E+20
 24
1.000000000000000E+20
 34
1.000000000000000E+20
 15
-1.000000000000000E+20
 25
-1.000000000000000E+20
 35
-1.000000000000000E+20
146
0.0
 13
0.0
 23
0.0
 33
0.0
 16
1.0
 26
0.0
 36
0.0
 17
0.0
 27
1.0
 37
0.0
 76
     0
330
747A
  0
MATERIAL
  5
17C84
102
{ACAD_XDICTIONARY
360
17C85
102
}
102
{ACAD_REACTORS
330
15D42
102
}
330
15D42
100
AcDbMaterial
  1
ByBlock
 72
     0
 43
0.0208333333333333
 43
0.0
 43
0.0
 43
0.0
 43
0.0
 43
0.0208333333333333
 43
0.0
 43
0.0
 43
0.0
 43
0.0
 43
1.0
 43
0.0
 43
0.0
 43
0.0
 43
0.0
 43
1.0
 77
     0
 47
0.0208333333333333
 47
0.0
 47
0.0
 47
0.0
 47
0.0
 47
0.0208333333333333
 47
0.0
 47
0.0
 47
0.0
 47
0.0
 47
1.0
 47
0.0
 47
0.0
 47
0.0
 47
0.0
 47
1.0
171
     0
 49
0.0208333333333333
 49
0.0
 49
0.0
 49
0.0
 49
0.0
 49
0.0208333333333333
 49
0.0
 49
0.0
 49
0.0
 49
0.0
 49
1.0
 49
0.0
 49
0.0
 49
0.0
 49
0.0
 49
1.0
175
     0
142
0.0208333333333333
142
0.0
142
0.0
142
0.0
142
0.0
142
0.0208333333333333
142
0.0
142
0.0
142
0.0
142
0.0
142
1.0
142
0.0
142
0.0
142
0.0
142
0.0
142
1.0
179
     0
144
0.0208333333333333
144
0.0
144
0.0
144
0.0
144
0.0
144
0.0208333333333333
144
0.0
144
0.0
144
0.0
144
0.0
144
1.0
144
0.0
144
0.0
144
0.0
144
0.0
144
1.0
147
0.0208333333333333
147
0.0
147
0.0
147
0.0
147
0.0
147
0.0208333333333333
147
0.0
147
0.0
147
0.0
147
0.0
147
1.0
147
0.0
147
0.0
147
0.0
147
0.0
147
1.0
  0
MATERIAL
  5
17C7C
102
{ACAD_XDICTIONARY
360
17C7D
102
}
102
{ACAD_REACTORS
330
15D42
102
}
330
15D42
100
AcDbMaterial
  1
ByLayer
 72
     0
 43
0.0208333333333333
 43
0.0
 43
0.0
 43
0.0
 43
0.0
 43
0.0208333333333333
 43
0.0
 43
0.0
 43
0.0
 43
0.0
 43
1.0
 43
0.0
 43
0.0
 43
0.0
 43
0.0
 43
1.0
 77
     0
 47
0.0208333333333333
 47
0.0
 47
0.0
 47
0.0
 47
0.0
 47
0.0208333333333333
 47
0.0
 47
0.0
 47
0.0
 47
0.0
 47
1.0
 47
0.0
 47
0.0
 47
0.0
 47
0.0
 47
1.0
171
     0
 49
0.0208333333333333
 49
0.0
 49
0.0
 49
0.0
 49
0.0
 49
0.0208333333333333
 49
0.0
 49
0.0
 49
0.0
 49
0.0
 49
1.0
 49
0.0
 49
0.0
 49
0.0
 49
0.0
 49
1.0
175
     0
142
0.0208333333333333
142
0.0
142
0.0
142
0.0
142
0.0
142
0.0208333333333333
142
0.0
142
0.0
142
0.0
142
0.0
142
1.0
142
0.0
142
0.0
142
0.0
142
0.0
142
1.0
179
     0
144
0.0208333333333333
144
0.0
144
0.0
144
0.0
144
0.0
144
0.0208333333333333
144
0.0
144
0.0
144
0.0
144
0.0
144
1.0
144
0.0
144
0.0
144
0.0
144
0.0
144
1.0
147
0.0208333333333333
147
0.0
147
0.0
147
0.0
147
0.0
147
0.0208333333333333
147
0.0
147
0.0
147
0.0
147
0.0
147
1.0
147
0.0
147
0.0
147
0.0
147
0.0
147
1.0
  0
MATERIAL
  5
17C8C
102
{ACAD_XDICTIONARY
360
17C8D
102
}
102
{ACAD_REACTORS
330
15D42
102
}
330
15D42
100
AcDbMaterial
  1
Global
 72
     0
 43
0.0208333333333333
 43
0.0
 43
0.0
 43
0.0
 43
0.0
 43
0.0208333333333333
 43
0.0
 43
0.0
 43
0.0
 43
0.0
 43
1.0
 43
0.0
 43
0.0
 43
0.0
 43
0.0
 43
1.0
 77
     0
 47
0.0208333333333333
 47
0.0
 47
0.0
 47
0.0
 47
0.0
 47
0.0208333333333333
 47
0.0
 47
0.0
 47
0.0
 47
0.0
 47
1.0
 47
0.0
 47
0.0
 47
0.0
 47
0.0
 47
1.0
171
     0
 49
0.0208333333333333
 49
0.0
 49
0.0
 49
0.0
 49
0.0
 49
0.0208333333333333
 49
0.0
 49
0.0
 49
0.0
 49
0.0
 49
1.0
 49
0.0
 49
0.0
 49
0.0
 49
0.0
 49
1.0
175
     0
142
0.0208333333333333
142
0.0
142
0.0
142
0.0
142
0.0
142
0.0208333333333333
142
0.0
142
0.0
142
0.0
142
0.0
142
1.0
142
0.0
142
0.0
142
0.0
142
0.0
142
1.0
179
     0
144
0.0208333333333333
144
0.0
144
0.0
144
0.0
144
0.0
144
0.0208333333333333
144
0.0
144
0.0
144
0.0
144
0.0
144
1.0
144
0.0
144
0.0
144
0.0
144
0.0
144
1.0
147
0.0208333333333333
147
0.0
147
0.0
147
0.0
147
0.0
147
0.0208333333333333
147
0.0
147
0.0
147
0.0
147
0.0
147
1.0
147
0.0
147
0.0
147
0.0
147
0.0
147
1.0
  0
MLEADERSTYLE
  5
17CC2
102
{ACAD_XDICTIONARY
360
17F76
102
}
102
{ACAD_REACTORS
330
17CC1
102
}
330
17CC1
100
AcDbMLeaderStyle
170
     2
171
     1
172
     0
 90
        2
 40
0.0
 41
0.0
173
     1
 91
-1056964608
340
7477
 92
       -2
290
     1
 42
2.0
291
     1
 43
0.36
  3
Standard
 44
4.0
300

342
7475
174
     1
178
     6
175
     1
176
     0
 93
-1056964608
 45
4.0
292
     0
297
     0
 46
4.0
 94
-1056964608
 47
1.0
 49
1.0
140
1.0
293
     1
141
0.0
294
     1
177
     0
142
1.0
295
     0
296
     0
143
0.125
1001
ACAD_MLEADERVER
1070
     2
  0
MLINESTYLE
  5
7480
102
{ACAD_REACTORS
330
7473
102
}
330
7473
100
AcDbMlineStyle
  2
STANDARD
 70
     0
  3

 62
     0
 51
90.0
 52
90.0
 71
     2
 49
0.5
 62
   256
  6
BYLAYER
 49
-0.5
 62
   256
  6
BYLAYER
  0
ACDBPLACEHOLDER
  5
15D41
102
{ACAD_REACTORS
330
15D40
102
}
330
15D40
  0
SCALE
  5
17CB0
102
{ACAD_REACTORS
330
17CAF
102
}
330
17CAF
100
AcDbScale
 70
     0
300
1:1
140
1.0
141
1.0
290
     1
  0
SCALE
  5
17CB1
102
{ACAD_REACTORS
330
17CAF
102
}
330
17CAF
100
AcDbScale
 70
     0
300
1:2
140
1.0
141
2.0
290
     0
  0
SCALE
  5
17CB2
102
{ACAD_REACTORS
330
17CAF
102
}
330
17CAF
100
AcDbScale
 70
     0
300
1:4
140
1.0
141
4.0
290
     0
  0
SCALE
  5
17CB3
102
{ACAD_REACTORS
330
17CAF
102
}
330
17CAF
100
AcDbScale
 70
     0
300
1:5
140
1.0
141
5.0
290
     0
  0
SCALE
  5
17CB4
102
{ACAD_REACTORS
330
17CAF
102
}
330
17CAF
100
AcDbScale
 70
     0
300
1:8
140
1.0
141
8.0
290
     0
  0
SCALE
  5
17CB5
102
{ACAD_REACTORS
330
17CAF
102
}
330
17CAF
100
AcDbScale
 70
     0
300
1:10
140
1.0
141
10.0
290
     0
  0
SCALE
  5
17CB6
102
{ACAD_REACTORS
330
17CAF
102
}
330
17CAF
100
AcDbScale
 70
     0
300
1:16
140
1.0
141
16.0
290
     0
  0
SCALE
  5
17CB7
102
{ACAD_REACTORS
330
17CAF
102
}
330
17CAF
100
AcDbScale
 70
     0
300
1:20
140
1.0
141
20.0
290
     0
  0
SCALE
  5
17CB8
102
{ACAD_REACTORS
330
17CAF
102
}
330
17CAF
100
AcDbScale
 70
     0
300
1:30
140
1.0
141
30.0
290
     0
  0
SCALE
  5
17CB9
102
{ACAD_REACTORS
330
17CAF
102
}
330
17CAF
100
AcDbScale
 70
     0
300
1:40
140
1.0
141
40.0
290
     0
  0
SCALE
  5
17CBA
102
{ACAD_REACTORS
330
17CAF
102
}
330
17CAF
100
AcDbScale
 70
     0
300
1:50
140
1.0
141
50.0
290
     0
  0
SCALE
  5
17CBB
102
{ACAD_REACTORS
330
17CAF
102
}
330
17CAF
100
AcDbScale
 70
     0
300
1:100
140
1.0
141
100.0
290
     0
  0
SCALE
  5
17CBC
102
{ACAD_REACTORS
330
17CAF
102
}
330
17CAF
100
AcDbScale
 70
     0
300
2:1
140
2.0
141
1.0
290
     0
  0
SCALE
  5
17CBD
102
{ACAD_REACTORS
330
17CAF
102
}
330
17CAF
100
AcDbScale
 70
     0
300
4:1
140
4.0
141
1.0
290
     0
  0
SCALE
  5
17CBE
102
{ACAD_REACTORS
330
17CAF
102
}
330
17CAF
100
AcDbScale
 70
     0
300
8:1
140
8.0
141
1.0
290
     0
  0
SCALE
  5
17CBF
102
{ACAD_REACTORS
330
17CAF
102
}
330
17CAF
100
AcDbScale
 70
     0
300
10:1
140
10.0
141
1.0
290
     0
  0
SCALE
  5
17CC0
102
{ACAD_REACTORS
330
17CAF
102
}
330
17CAF
100
AcDbScale
 70
     0
300
100:1
140
100.0
141
1.0
290
     0
  0
ACDBSECTIONVIEWSTYLE
  5
17CC4
102
{ACAD_XDICTIONARY
360
17E92
102
}
102
{ACAD_REACTORS
330
17CC3
102
}
330
17CC3
100
AcDbModelDocViewStyle
 70
     0
  3
Metric50
290
     0
100
AcDbSectionViewStyle
 70
     0
 71
     0
 90
      102
 71
     1
340
7475
 40
5.0
340
0
340
0
 40
5.0
300
I, O, Q, S, X, Z
 40
10.0
 90
        0
 40
2.5
 90
        0
 71
     2
340
7479
 90
       25
340
7479
 90
       50
 40
5.0
 40
2.5
 40
5.0
 71
     3
340
7475
 40
5.0
 90
        0
 40
15.0
 90
        1
300
%<\AcVar ViewSectionStartId>%-%<\AcVar ViewSectionEndId>% (%<\AcVar ViewScale \f "%sn">%)
 71
     4
300
ANSI31
 40
1.0
 90
        0
290
     0
290
     0
 90
        6
 40
0.0
 40
1.570796326794896
 40
0.2617993877991494
 40
1.308996938995747
 40
-0.2617993877991494
 40
1.832595714594046
  0
TABLESTYLE
  5
17CAE
102
{ACAD_XDICTIONARY
360
17F31
102
}
102
{ACAD_REACTORS
330
17CAD
102
}
330
17CAD
100
AcDbTableStyle
  3
Standard
 70
     0
 71
     0
 40
1.5
 41
1.5
280
     0
281
     0
  7
STANDARD
140
4.5
170
     2
 62
     0
 63
     7
283
     0
274
    -2
284
     1
 64
     0
275
    -2
285
     1
 65
     0
276
    -2
286
     1
 66
     0
277
    -2
287
     1
 67
     0
278
    -2
288
     1
 68
     0
279
    -2
289
     1
 69
     0
  7
STANDARD
140
6.0
170
     5
 62
     0
 63
     7
283
     0
274
    -2
284
     1
 64
     0
275
    -2
285
     1
 65
     0
276
    -2
286
     1
 66
     0
277
    -2
287
     1
 67
     0
278
    -2
288
     1
 68
     0
279
    -2
289
     1
 69
     0
  7
STANDARD
140
4.5
170
     5
 62
     0
 63
     7
283
     0
274
    -2
284
     1
 64
     0
275
    -2
285
     1
 65
     0
276
    -2
286
     1
 66
     0
277
    -2
287
     1
 67
     0
278
    -2
288
     1
 68
     0
279
    -2
289
     1
 69
     0
  0
VISUALSTYLE
  5
17C9A
102
{ACAD_XDICTIONARY
360
17F4E
102
}
102
{ACAD_REACTORS
330
17C94
102
}
330
17C94
100
AcDbVisualStyle
  2
2dWireframe
 70
     4
 71
     0
 72
     2
 73
     0
 90
        0
 40
-0.6
 41
-30.0
 62
     5
 63
     7
 74
     1
 91
        4
 64
     7
 65
   257
 75
     1
175
     1
 42
1.0
 92
        0
 66
   257
 43
1.0
 76
     1
 77
     6
 78
     2
 67
     7
 79
     5
170
     0
171
     0
290
     0
174
     0
 93
        1
 44
0.0
173
     0
291
     0
 45
0.0
1001
ACAD
1000
AcDbSavedByObjectVersion
1070
     0
  0
VISUALSTYLE
  5
17C99
102
{ACAD_XDICTIONARY
360
17F4C
102
}
102
{ACAD_REACTORS
330
17C94
102
}
330
17C94
100
AcDbVisualStyle
  2
Basic
 70
     7
 71
     1
 72
     0
 73
     1
 90
        0
 40
-0.6
 41
-30.0
 62
     5
 63
     7
 74
     0
 91
        4
 64
     7
 65
   257
 75
     1
175
     1
 42
1.0
 92
        8
 66
     7
 43
1.0
 76
     1
 77
     6
 78
     2
 67
     7
 79
     5
170
     0
171
     0
290
     0
174
     0
 93
        1
 44
0.0
173
     0
291
     1
 45
0.0
1001
ACAD
1000
AcDbSavedByObjectVersion
1070
     0
  0
VISUALSTYLE
  5
17CA0
102
{ACAD_XDICTIONARY
360
17F5A
102
}
102
{ACAD_REACTORS
330
17C94
102
}
330
17C94
100
AcDbVisualStyle
  2
Brighten
 70
    12
 71
     2
 72
     2
 73
     0
 90
        0
 40
-0.6
 41
-30.0
 62
     5
 63
     7
 74
     1
 91
        4
 64
     7
 65
   257
 75
     1
175
     1
 42
1.0
 92
        8
 66
     7
 43
1.0
 76
     1
 77
     6
 78
     2
 67
     7
 79
     5
170
     0
171
     0
290
     0
174
     0
 93
        1
 44
50.0
173
     0
291
     1
 45
0.0
1001
ACAD
1000
AcDbSavedByObjectVersion
1070
     0
  0
VISUALSTYLE
  5
17CA4
102
{ACAD_XDICTIONARY
360
17F62
102
}
102
{ACAD_REACTORS
330
17C94
102
}
330
17C94
100
AcDbVisualStyle
  2
ColorChange
 70
    16
 71
     2
 72
     2
 73
     3
 90
        0
 40
-0.6
 41
-30.0
 62
     5
 63
     8
 74
     1
 91
        4
 64
     7
 65
   257
 75
     1
175
     1
 42
1.0
 92
        8
 66
     8
 43
1.0
 76
     1
 77
     6
 78
     2
 67
     7
 79
     5
170
     0
171
     0
290
     0
174
     0
 93
        1
 44
0.0
173
     0
291
     1
 45
0.0
1001
ACAD
1000
AcDbSavedByObjectVersion
1070
     0
  0
VISUALSTYLE
  5
17C9D
102
{ACAD_XDICTIONARY
360
17F54
102
}
102
{ACAD_REACTORS
330
17C94
102
}
330
17C94
100
AcDbVisualStyle
  2
Conceptual
 70
     9
 71
     3
 72
     2
 73
     0
 90
        0
 40
-0.6
 41
-30.0
 62
     5
 63
     7
 74
     2
 91
        2
 64
     7
 65
   257
 75
     1
175
     1
 42
179.0
 92
        8
 66
     7
 43
1.0
 76
     1
 77
     6
 78
     2
 67
     7
 79
     3
170
     0
171
     0
290
     0
174
     0
 93
        1
 44
0.0
173
     0
291
     0
 45
0.0
1001
ACAD
1000
AcDbSavedByObjectVersion
1070
     0
  0
VISUALSTYLE
  5
17C9F
102
{ACAD_XDICTIONARY
360
17F58
102
}
102
{ACAD_REACTORS
330
17C94
102
}
330
17C94
100
AcDbVisualStyle
  2
Dim
 70
    11
 71
     2
 72
     2
 73
     0
 90
        0
 40
-0.6
 41
-30.0
 62
     5
 63
     7
 74
     1
 91
        4
 64
     7
 65
   257
 75
     1
175
     1
 42
1.0
 92
        8
 66
     7
 43
1.0
 76
     1
 77
     6
 78
     2
 67
     7
 79
     5
170
     0
171
     0
290
     0
174
     0
 93
        1
 44
-50.0
173
     0
291
     1
 45
0.0
1001
ACAD
1000
AcDbSavedByObjectVersion
1070
     0
  0
VISUALSTYLE
  5
17CAC
102
{ACAD_XDICTIONARY
360
17F72
102
}
102
{ACAD_REACTORS
330
17C94
102
}
330
17C94
100
AcDbVisualStyle
  2
EdgeColorOff
 70
    22
 71
     2
 72
     2
 73
     0
 90
        0
 40
-0.6
 41
-30.0
 62
     5
 63
     7
 74
     1
 91
        4
 64
     7
 65
   257
 75
     1
175
     1
 42
1.0
 92
        8
 66
     7
 43
1.0
 76
     1
 77
     6
 78
     2
 67
     7
 79
     5
170
     0
171
     0
290
     0
174
     0
 93
        1
 44
0.0
173
     0
291
     1
 45
0.0
1001
ACAD
1000
AcDbSavedByObjectVersion
1070
     0
  0
VISUALSTYLE
  5
17CA3
102
{ACAD_XDICTIONARY
360
17F60
102
}
102
{ACAD_REACTORS
330
17C94
102
}
330
17C94
100
AcDbVisualStyle
  2
Facepattern
 70
    15
 71
     2
 72
     2
 73
     0
 90
        0
 40
-0.6
 41
-30.0
 62
     5
 63
     7
 74
     1
 91
        4
 64
     7
 65
   257
 75
     1
175
     1
 42
1.0
 92
        8
 66
     7
 43
1.0
 76
     1
 77
     6
 78
     2
 67
     7
 79
     5
170
     0
171
     0
290
     0
174
     0
 93
        1
 44
0.0
173
     0
291
     1
 45
0.0
1001
ACAD
1000
AcDbSavedByObjectVersion
1070
     0
  0
VISUALSTYLE
  5
17C95
102
{ACAD_XDICTIONARY
360
17F44
102
}
102
{ACAD_REACTORS
330
17C94
102
}
330
17C94
100
AcDbVisualStyle
  2
Flat
 70
     0
 71
     2
 72
     1
 73
     1
 90
        2
 40
-0.6
 41
30.0
 62
     5
 63
     7
 74
     0
 91
        0
 64
     7
 65
   257
 75
     1
175
     1
 42
1.0
 92
        8
 66
     7
 43
1.0
 76
     1
 77
     6
 78
     2
 67
     7
 79
     5
170
     0
171
     0
290
     0
174
     0
 93
       13
 44
0.0
173
     0
291
     1
 45
0.0
1001
ACAD
1000
AcDbSavedByObjectVersion
1070
     0
  0
VISUALSTYLE
  5
17C96
102
{ACAD_XDICTIONARY
360
17F46
102
}
102
{ACAD_REACTORS
330
17C94
102
}
330
17C94
100
AcDbVisualStyle
  2
FlatWithEdges
 70
     1
 71
     2
 72
     1
 73
     1
 90
        2
 40
-0.6
 41
30.0
 62
     5
 63
     7
 74
     1
 91
        0
 64
     7
 65
   257
 75
     1
175
     1
 42
1.0
 92
        0
 66
   257
 43
1.0
 76
     1
 77
     6
 78
     2
 67
     7
 79
     5
170
     0
171
     0
290
     0
174
     0
 93
       13
 44
0.0
173
     0
291
     1
 45
0.0
1001
ACAD
1000
AcDbSavedByObjectVersion
1070
     0
  0
VISUALSTYLE
  5
17C97
102
{ACAD_XDICTIONARY
360
17F48
102
}
102
{ACAD_REACTORS
330
17C94
102
}
330
17C94
100
AcDbVisualStyle
  2
Gouraud
 70
     2
 71
     2
 72
     2
 73
     1
 90
        2
 40
-0.6
 41
30.0
 62
     5
 63
     7
 74
     0
 91
        0
 64
     7
 65
   257
 75
     1
175
     1
 42
1.0
 92
        0
 66
     7
 43
1.0
 76
     1
 77
     6
 78
     2
 67
     7
 79
     5
170
     0
171
     0
290
     0
174
     0
 93
       13
 44
0.0
173
     0
291
     1
 45
0.0
1001
ACAD
1000
AcDbSavedByObjectVersion
1070
     0
  0
VISUALSTYLE
  5
17C98
102
{ACAD_XDICTIONARY
360
17F4A
102
}
102
{ACAD_REACTORS
330
17C94
102
}
330
17C94
100
AcDbVisualStyle
  2
GouraudWithEdges
 70
     3
 71
     2
 72
     2
 73
     1
 90
        2
 40
-0.6
 41
30.0
 62
     5
 63
     7
 74
     1
 91
        0
 64
     7
 65
   257
 75
     1
175
     1
 42
1.0
 92
        0
 66
   257
 43
1.0
 76
     1
 77
     6
 78
     2
 67
     7
 79
     5
170
     0
171
     0
290
     0
174
     0
 93
       13
 44
0.0
173
     0
291
     1
 45
0.0
1001
ACAD
1000
AcDbSavedByObjectVersion
1070
     0
  0
VISUALSTYLE
  5
17C9C
102
{ACAD_XDICTIONARY
360
17F52
102
}
102
{ACAD_REACTORS
330
17C94
102
}
330
17C94
100
AcDbVisualStyle
  2
Hidden
 70
     6
 71
     1
 72
     2
 73
     2
 90
        0
 40
-0.6
 41
-30.0
 62
     5
 63
     7
 74
     2
 91
        2
 64
     7
 65
   257
 75
     2
175
     1
 42
40.0
 92
        0
 66
   257
 43
1.0
 76
     1
 77
     6
 78
     2
 67
     7
 79
     3
170
     0
171
     0
290
     0
174
     0
 93
        1
 44
0.0
173
     0
291
     0
 45
0.0
1001
ACAD
1000
AcDbSavedByObjectVersion
1070
     0
  0
VISUALSTYLE
  5
17CAA
102
{ACAD_XDICTIONARY
360
17F6E
102
}
102
{ACAD_REACTORS
330
17C94
102
}
330
17C94
100
AcDbVisualStyle
  2
JitterOff
 70
    20
 71
     2
 72
     2
 73
     0
 90
        0
 40
-0.6
 41
-30.0
 62
     5
 63
     7
 74
     1
 91
        4
 64
     7
 65
   257
 75
     1
175
     1
 42
1.0
 92
       10
 66
     7
 43
1.0
 76
     1
 77
     6
 78
     2
 67
     7
 79
     5
170
     0
171
     0
290
     0
174
     0
 93
        1
 44
0.0
173
     0
291
     1
 45
0.0
1001
ACAD
1000
AcDbSavedByObjectVersion
1070
     0
  0
VISUALSTYLE
  5
17CA2
102
{ACAD_XDICTIONARY
360
17F5E
102
}
102
{ACAD_REACTORS
330
17C94
102
}
330
17C94
100
AcDbVisualStyle
  2
Linepattern
 70
    14
 71
     2
 72
     2
 73
     0
 90
        0
 40
-0.6
 41
-30.0
 62
     5
 63
     7
 74
     1
 91
        4
 64
     7
 65
   257
 75
     7
175
     7
 42
1.0
 92
        8
 66
     7
 43
1.0
 76
     1
 77
     6
 78
     2
 67
     7
 79
     5
170
     0
171
     0
290
     0
174
     0
 93
        1
 44
0.0
173
     0
291
     1
 45
0.0
1001
ACAD
1000
AcDbSavedByObjectVersion
1070
     0
  0
VISUALSTYLE
  5
17CAB
102
{ACAD_XDICTIONARY
360
17F70
102
}
102
{ACAD_REACTORS
330
17C94
102
}
330
17C94
100
AcDbVisualStyle
  2
OverhangOff
 70
    21
 71
     2
 72
     2
 73
     0
 90
        0
 40
-0.6
 41
-30.0
 62
     5
 63
     7
 74
     1
 91
        4
 64
     7
 65
   257
 75
     1
175
     1
 42
1.0
 92
        9
 66
     7
 43
1.0
 76
     1
 77
     6
 78
     2
 67
     7
 79
     5
170
     0
171
     0
290
     0
174
     0
 93
        1
 44
0.0
173
     0
291
     1
 45
0.0
1001
ACAD
1000
AcDbSavedByObjectVersion
1070
     0
  0
VISUALSTYLE
  5
17C9E
102
{ACAD_XDICTIONARY
360
17F56
102
}
102
{ACAD_REACTORS
330
17C94
102
}
330
17C94
100
AcDbVisualStyle
  2
Realistic
 70
     8
 71
     2
 72
     3
 73
     0
 90
        2
 40
-0.6
 41
30.0
 62
     5
 63
     7
 74
     0
 91
        0
 64
     7
 65
   257
 75
     1
175
     1
 42
1.0
 92
        8
 66
   257
 43
1.0
 76
     1
 77
     6
 78
     2
 67
     7
 79
     3
170
     0
171
     0
290
     0
174
     0
 93
       13
 44
0.0
173
     0
291
     0
 45
0.0
1001
ACAD
1000
AcDbSavedByObjectVersion
1070
     0
  0
VISUALSTYLE
  5
17CA9
102
{ACAD_XDICTIONARY
360
17F6C
102
}
102
{ACAD_REACTORS
330
17C94
102
}
330
17C94
100
AcDbVisualStyle
  2
Shaded
 70
    27
 71
     2
 72
     2
 73
     1
 90
        2
 40
-0.6
 41
30.0
 62
     5
 63
     7
 74
     0
 91
        4
 64
     7
 65
   257
 75
     1
175
     1
 42
1.0
 92
        8
 66
   257
 43
1.0
 76
     1
 77
     6
 78
     2
 67
     8
 79
     3
170
     0
171
     0
290
     0
174
     0
 93
        5
 44
0.0
173
     0
291
     0
 45
0.0
1001
ACAD
1000
AcDbSavedByObjectVersion
1070
     0
  0
VISUALSTYLE
  5
17CA8
102
{ACAD_XDICTIONARY
360
17F6A
102
}
102
{ACAD_REACTORS
330
17C94
102
}
330
17C94
100
AcDbVisualStyle
  2
Shaded with edges
 70
    26
 71
     2
 72
     2
 73
     1
 90
        2
 40
-0.6
 41
30.0
 62
     5
 63
     7
 74
     1
 91
       10
 64
     7
 65
   257
 75
     2
175
     1
 42
1.0
 92
        8
 66
   257
 43
1.0
 76
     1
 77
     6
 78
     2
 67
     7
 79
     3
170
     0
171
     0
290
     0
174
     0
 93
        5
 44
0.0
173
     0
291
     0
 45
0.0
1001
ACAD
1000
AcDbSavedByObjectVersion
1070
     0
  0
VISUALSTYLE
  5
17CA5
102
{ACAD_XDICTIONARY
360
17F64
102
}
102
{ACAD_REACTORS
330
17C94
102
}
330
17C94
100
AcDbVisualStyle
  2
Shades of Gray
 70
    23
 71
     2
 72
     2
 73
     3
 90
        0
 40
-0.6
 41
-30.0
 62
     5
 63
     7
 74
     2
 91
        2
 64
     7
 65
     7
 75
     1
175
     1
 42
40.0
 92
        8
 66
     7
 43
1.0
 76
     1
 77
     6
 78
     2
 67
     7
 79
     3
170
     0
171
     0
290
     0
174
     0
 93
        1
 44
0.0
173
     0
291
     0
 45
0.0
1001
ACAD
1000
AcDbSavedByObjectVersion
1070
     0
  0
VISUALSTYLE
  5
17CA6
102
{ACAD_XDICTIONARY
360
17F66
102
}
102
{ACAD_REACTORS
330
17C94
102
}
330
17C94
100
AcDbVisualStyle
  2
Sketchy
 70
    24
 71
     1
 72
     2
 73
     2
 90
        0
 40
-0.6
 41
-30.0
 62
     5
 63
     7
 74
     2
 91
        2
 64
     7
 65
     7
 75
     1
175
     1
 42
40.0
 92
       11
 66
     7
 43
1.0
 76
     1
 77
     6
 78
     2
 67
     7
 79
     6
170
     0
171
     0
290
     0
174
     0
 93
        1
 44
0.0
173
     0
291
     0
 45
0.0
1001
ACAD
1000
AcDbSavedByObjectVersion
1070
     0
  0
VISUALSTYLE
  5
17CA1
102
{ACAD_XDICTIONARY
360
17F5C
102
}
102
{ACAD_REACTORS
330
17C94
102
}
330
17C94
100
AcDbVisualStyle
  2
Thicken
 70
    13
 71
     2
 72
     2
 73
     0
 90
        0
 40
-0.6
 41
-30.0
 62
     5
 63
     7
 74
     1
 91
        4
 64
     7
 65
   257
 75
     1
175
     1
 42
1.0
 92
       12
 66
     7
 43
1.0
 76
     1
 77
     6
 78
     2
 67
     7
 79
     5
170
     0
171
     0
290
     0
174
     0
 93
        1
 44
0.0
173
     0
291
     1
 45
0.0
1001
ACAD
1000
AcDbSavedByObjectVersion
1070
     0
  0
VISUALSTYLE
  5
17C9B
102
{ACAD_XDICTIONARY
360
17F50
102
}
102
{ACAD_REACTORS
330
17C94
102
}
330
17C94
100
AcDbVisualStyle
  2
Wireframe
 70
     5
 71
     0
 72
     2
 73
     0
 90
        0
 40
-0.6
 41
-30.0
 62
     5
 63
     7
 74
     1
 91
        4
 64
     7
 65
   257
 75
     1
175
     1
 42
1.0
 92
        0
 66
   257
 43
1.0
 76
     1
 77
     6
 78
     2
 67
     7
 79
     3
170
     0
171
     0
290
     0
174
     0
 93
        1
 44
0.0
173
     0
291
     0
 45
0.0
1001
ACAD
1000
AcDbSavedByObjectVersion
1070
     0
  0
VISUALSTYLE
  5
17CA7
102
{ACAD_XDICTIONARY
360
17F68
102
}
102
{ACAD_REACTORS
330
17C94
102
}
330
17C94
100
AcDbVisualStyle
  2
X-Ray
 70
    25
 71
     2
 72
     2
 73
     1
 90
        1
 40
0.5
 41
-30.0
 62
     5
 63
     7
 74
     1
 91
        0
 64
     7
 65
   257
 75
     1
175
     1
 42
1.0
 92
        8
 66
     7
 43
1.0
 76
     1
 77
     6
 78
     2
 67
     7
 79
     3
170
     0
171
     0
290
     0
174
     0
 93
       13
 44
0.0
173
     0
291
     0
 45
0.0
1001
ACAD
1000
AcDbSavedByObjectVersion
1070
     0
  0
DICTIONARYVAR
  5
17E9D
102
{ACAD_REACTORS
330
17E97
102
}
330
17E97
100
DictionaryVariables
280
     0
  1
1:1
  0
DICTIONARYVAR
  5
17E99
102
{ACAD_REACTORS
330
17E97
102
}
330
17E97
100
DictionaryVariables
280
     0
  1
STANDARD
  0
DICTIONARYVAR
  5
17E98
102
{ACAD_REACTORS
330
17E97
102
}
330
17E97
100
DictionaryVariables
280
     0
  1
STANDARD
  0
DICTIONARYVAR
  5
17E9A
102
{ACAD_REACTORS
330
17E97
102
}
330
17E97
100
DictionaryVariables
280
     0
  1
Metric50
  0
DICTIONARYVAR
  5
17E9B
102
{ACAD_REACTORS
330
17E97
102
}
330
17E97
100
DictionaryVariables
280
     0
  1
Metric50
  0
DICTIONARYVAR
  5
17F30
102
{ACAD_REACTORS
330
17E97
102
}
330
17E97
100
DictionaryVariables
280
     0
  1
1
  0
DICTIONARYVAR
  5
17F2E
102
{ACAD_REACTORS
330
17E97
102
}
330
17E97
100
DictionaryVariables
280
     0
  1
0
  0
DICTIONARYVAR
  5
17E9F
102
{ACAD_REACTORS
330
17E97
102
}
330
17E97
100
DictionaryVariables
280
     0
  1
1
  0
DICTIONARYVAR
  5
17EA0
102
{ACAD_REACTORS
330
17E97
102
}
330
17E97
100
DictionaryVariables
280
     0
  1
15
  0
DICTIONARYVAR
  5
17E9E
102
{ACAD_REACTORS
330
17E97
102
}
330
17E97
100
DictionaryVariables
280
     0
  1
0
  0
DICTIONARYVAR
  5
17E9C
102
{ACAD_REACTORS
330
17E97
102
}
330
17E97
100
DictionaryVariables
280
     0
  1
0
  0
DICTIONARYVAR
  5
17F2D
102
{ACAD_REACTORS
330
17E97
102
}
330
17E97
100
DictionaryVariables
280
     0
  1
127
  0
DICTIONARYVAR
  5
17F2F
102
{ACAD_REACTORS
330
17E97
102
}
330
17E97
100
DictionaryVariables
280
     0
  1
0
  0
DICTIONARY
  5
17F3C
102
{ACAD_REACTORS
330
17F3A
102
}
330
17F3A
100
AcDbDictionary
281
     1
  0
DICTIONARY
  5
17F3B
102
{ACAD_REACTORS
330
17F3A
102
}
330
17F3A
100
AcDbDictionary
281
     1
  3
2130017704
350
17F35
  3
2130017712
350
17F36
  3
2130017720
350
17F37
  3
2130017728
350
17F38
  3
2130017736
350
17F39
  0
DICTIONARY
  5
17E94
330
17CC6
100
AcDbDictionary
280
     1
281
     1
  3
ACAD_XREC_ROUNDTRIP
360
17F79
  0
DICTIONARY
  5
17F3D
330
15D46
100
AcDbDictionary
280
     1
281
     1
  3
ACAD_XREC_ROUNDTRIP
360
17F3E
  0
DICTIONARY
  5
17F3F
330
15D47
100
AcDbDictionary
280
     1
281
     1
  3
ACAD_XREC_ROUNDTRIP
360
17F40
  0
DICTIONARY
  5
17C85
330
17C84
100
AcDbDictionary
280
     1
281
     1
  3
ACAD_XREC_ROUNDTRIP
360
17F42
  3
BUMPTILE
360
17C87
  3
DIFFUSETILE
360
17C86
  3
OPACITYTILE
360
17C8A
  3
REFLECTIONTILE
360
17C89
  3
REFRACTIONTILE
360
17C8B
  3
SPECULARTILE
360
17C88
  0
DICTIONARY
  5
17C7D
330
17C7C
100
AcDbDictionary
280
     1
281
     1
  3
ACAD_XREC_ROUNDTRIP
360
17F41
  3
BUMPTILE
360
17C7F
  3
DIFFUSETILE
360
17C7E
  3
OPACITYTILE
360
17C82
  3
REFLECTIONTILE
360
17C81
  3
REFRACTIONTILE
360
17C83
  3
SPECULARTILE
360
17C80
  0
DICTIONARY
  5
17C8D
330
17C8C
100
AcDbDictionary
280
     1
281
     1
  3
ACAD_XREC_ROUNDTRIP
360
17F43
  3
BUMPTILE
360
17C8F
  3
DIFFUSETILE
360
17C8E
  3
OPACITYTILE
360
17C92
  3
REFLECTIONTILE
360
17C91
  3
REFRACTIONTILE
360
17C93
  3
SPECULARTILE
360
17C90
  0
DICTIONARY
  5
17F76
330
17CC2
100
AcDbDictionary
280
     1
281
     1
  3
ACAD_XREC_ROUNDTRIP
360
17F77
  0
DICTIONARY
  5
17E92
330
17CC4
100
AcDbDictionary
280
     1
281
     1
  3
ACAD_XREC_ROUNDTRIP
360
17F78
  0
DICTIONARY
  5
17F31
330
17CAE
100
AcDbDictionary
280
     1
281
     1
  3
ACAD_ROUNDTRIP_2008_TABLESTYLE_CELLSTYLEMAP
360
17F32
  3
ACAD_XREC_ROUNDTRIP
360
17F74
  0
DICTIONARY
  5
17F4E
330
17C9A
100
AcDbDictionary
280
     1
281
     1
  3
ACAD_XREC_ROUNDTRIP
360
17F4F
  0
DICTIONARY
  5
17F4C
330
17C99
100
AcDbDictionary
280
     1
281
     1
  3
ACAD_XREC_ROUNDTRIP
360
17F4D
  0
DICTIONARY
  5
17F5A
330
17CA0
100
AcDbDictionary
280
     1
281
     1
  3
ACAD_XREC_ROUNDTRIP
360
17F5B
  0
DICTIONARY
  5
17F62
330
17CA4
100
AcDbDictionary
280
     1
281
     1
  3
ACAD_XREC_ROUNDTRIP
360
17F63
  0
DICTIONARY
  5
17F54
330
17C9D
100
AcDbDictionary
280
     1
281
     1
  3
ACAD_XREC_ROUNDTRIP
360
17F55
  0
DICTIONARY
  5
17F58
330
17C9F
100
AcDbDictionary
280
     1
281
     1
  3
ACAD_XREC_ROUNDTRIP
360
17F59
  0
DICTIONARY
  5
17F72
330
17CAC
100
AcDbDictionary
280
     1
281
     1
  3
ACAD_XREC_ROUNDTRIP
360
17F73
  0
DICTIONARY
  5
17F60
330
17CA3
100
AcDbDictionary
280
     1
281
     1
  3
ACAD_XREC_ROUNDTRIP
360
17F61
  0
DICTIONARY
  5
17F44
330
17C95
100
AcDbDictionary
280
     1
281
     1
  3
ACAD_XREC_ROUNDTRIP
360
17F45
  0
DICTIONARY
  5
17F46
330
17C96
100
AcDbDictionary
280
     1
281
     1
  3
ACAD_XREC_ROUNDTRIP
360
17F47
  0
DICTIONARY
  5
17F48
330
17C97
100
AcDbDictionary
280
     1
281
     1
  3
ACAD_XREC_ROUNDTRIP
360
17F49
  0
DICTIONARY
  5
17F4A
330
17C98
100
AcDbDictionary
280
     1
281
     1
  3
ACAD_XREC_ROUNDTRIP
360
17F4B
  0
DICTIONARY
  5
17F52
330
17C9C
100
AcDbDictionary
280
     1
281
     1
  3
ACAD_XREC_ROUNDTRIP
360
17F53
  0
DICTIONARY
  5
17F6E
330
17CAA
100
AcDbDictionary
280
     1
281
     1
  3
ACAD_XREC_ROUNDTRIP
360
17F6F
  0
DICTIONARY
  5
17F5E
330
17CA2
100
AcDbDictionary
280
     1
281
     1
  3
ACAD_XREC_ROUNDTRIP
360
17F5F
  0
DICTIONARY
  5
17F70
330
17CAB
100
AcDbDictionary
280
     1
281
     1
  3
ACAD_XREC_ROUNDTRIP
360
17F71
  0
DICTIONARY
  5
17F56
330
17C9E
100
AcDbDictionary
280
     1
281
     1
  3
ACAD_XREC_ROUNDTRIP
360
17F57
  0
DICTIONARY
  5
17F6C
330
17CA9
100
AcDbDictionary
280
     1
281
     1
  3
ACAD_XREC_ROUNDTRIP
360
17F6D
  0
DICTIONARY
  5
17F6A
330
17CA8
100
AcDbDictionary
280
     1
281
     1
  3
ACAD_XREC_ROUNDTRIP
360
17F6B
  0
DICTIONARY
  5
17F64
330
17CA5
100
AcDbDictionary
280
     1
281
     1
  3
ACAD_XREC_ROUNDTRIP
360
17F65
  0
DICTIONARY
  5
17F66
330
17CA6
100
AcDbDictionary
280
     1
281
     1
  3
ACAD_XREC_ROUNDTRIP
360
17F67
  0
DICTIONARY
  5
17F5C
330
17CA1
100
AcDbDictionary
280
     1
281
     1
  3
ACAD_XREC_ROUNDTRIP
360
17F5D
  0
DICTIONARY
  5
17F50
330
17C9B
100
AcDbDictionary
280
     1
281
     1
  3
ACAD_XREC_ROUNDTRIP
360
17F51
  0
DICTIONARY
  5
17F68
330
17CA7
100
AcDbDictionary
280
     1
281
     1
  3
ACAD_XREC_ROUNDTRIP
360
17F69
  0
XRECORD
  5
17F35
102
{ACAD_REACTORS
330
17F3B
102
}
330
17F3B
100
AcDbXrecord
280
     1
  1
AcDb_Thumbnail_Schema
102
{ATTRRECORD
341
17F36
  2
AcDbDs::TreatedAsObjectData
280
     1
291
     1
102
ATTRRECORD}
102
{ATTRRECORD
341
17F37
  2
AcDbDs::Legacy
280
     1
291
     1
102
ATTRRECORD}
  2
AcDbDs::ID
280
    10
 91
        8
102
{ATTRRECORD
341
17F38
  2
AcDs:Indexable
280
     1
291
     1
102
ATTRRECORD}
102
{ATTRRECORD
341
17F39
  2
AcDbDs::HandleAttribute
280
     7
282
     1
102
ATTRRECORD}
  2
Thumbnail_Data
280
    15
 91
        0
  0
XRECORD
  5
17F36
102
{ACAD_REACTORS
330
17F3B
102
}
330
17F3B
100
AcDbXrecord
280
     1
  1
AcDbDs::TreatedAsObjectDataSchema
  2
AcDbDs::TreatedAsObjectData
280
     1
 91
        0
  0
XRECORD
  5
17F37
102
{ACAD_REACTORS
330
17F3B
102
}
330
17F3B
100
AcDbXrecord
280
     1
  1
AcDbDs::LegacySchema
  2
AcDbDs::Legacy
280
     1
 91
        0
  0
XRECORD
  5
17F38
102
{ACAD_REACTORS
330
17F3B
102
}
330
17F3B
100
AcDbXrecord
280
     1
  1
AcDbDs::IndexedPropertySchema
  2
AcDs:Indexable
280
     1
 91
        0
  0
XRECORD
  5
17F39
102
{ACAD_REACTORS
330
17F3B
102
}
330
17F3B
100
AcDbXrecord
280
     1
  1
AcDbDs::HandleAttributeSchema
  2
AcDbDs::HandleAttribute
280
     7
 91
        1
284
     1
  0
XRECORD
  5
17F79
102
{ACAD_REACTORS
330
17E94
102
}
330
17E94
100
AcDbXrecord
280
     1
102
DISPLAYNAME
  1
Metric50
102
FLAGS
 90
        0
  0
XRECORD
  5
17F3E
102
{ACAD_REACTORS
330
17F3D
102
}
330
17F3D
100
AcDbXrecord
280
     1
102
SHADEPLOT
 70
     1
102
SHADEPLOTRESLEVEL
 70
     2
102
SHADEPLOTCUSTOMDPI
 70
   300
  0
XRECORD
  5
17F40
102
{ACAD_REACTORS
330
17F3F
102
}
330
17F3F
100
AcDbXrecord
280
     1
102
SHADEPLOT
 70
     0
102
SHADEPLOTRESLEVEL
 70
     2
102
SHADEPLOTCUSTOMDPI
 70
   300
  0
XRECORD
  5
17F42
102
{ACAD_REACTORS
330
17C85
102
}
330
17C85
100
AcDbXrecord
280
     1
102
MATERIAL
148
0.0
149
0.0
149
0.0
 93
        0
 94
      127
282
     0
 72
     0
 77
     0
171
     0
175
     0
179
     0
273
     0
  0
XRECORD
  5
17C87
102
{ACAD_REACTORS
330
17C85
102
}
330
17C85
100
AcDbXrecord
280
     1
270
     1
271
     1
  0
XRECORD
  5
17C86
102
{ACAD_REACTORS
330
17C85
102
}
330
17C85
100
AcDbXrecord
280
     1
270
     1
271
     1
  0
XRECORD
  5
17C8A
102
{ACAD_REACTORS
330
17C85
102
}
330
17C85
100
AcDbXrecord
280
     1
270
     1
271
     1
  0
XRECORD
  5
17C89
102
{ACAD_REACTORS
330
17C85
102
}
330
17C85
100
AcDbXrecord
280
     1
270
     1
271
     1
  0
XRECORD
  5
17C8B
102
{ACAD_REACTORS
330
17C85
102
}
330
17C85
100
AcDbXrecord
280
     1
270
     1
271
     1
  0
XRECORD
  5
17C88
102
{ACAD_REACTORS
330
17C85
102
}
330
17C85
100
AcDbXrecord
280
     1
270
     1
271
     1
  0
XRECORD
  5
17F41
102
{ACAD_REACTORS
330
17C7D
102
}
330
17C7D
100
AcDbXrecord
280
     1
102
MATERIAL
148
0.0
149
0.0
149
0.0
 93
        0
 94
      127
282
     0
 72
     0
 77
     0
171
     0
175
     0
179
     0
273
     0
  0
XRECORD
  5
17C7F
102
{ACAD_REACTORS
330
17C7D
102
}
330
17C7D
100
AcDbXrecord
280
     1
270
     1
271
     1
  0
XRECORD
  5
17C7E
102
{ACAD_REACTORS
330
17C7D
102
}
330
17C7D
100
AcDbXrecord
280
     1
270
     1
271
     1
  0
XRECORD
  5
17C82
102
{ACAD_REACTORS
330
17C7D
102
}
330
17C7D
100
AcDbXrecord
280
     1
270
     1
271
     1
  0
XRECORD
  5
17C81
102
{ACAD_REACTORS
330
17C7D
102
}
330
17C7D
100
AcDbXrecord
280
     1
270
     1
271
     1
  0
XRECORD
  5
17C83
102
{ACAD_REACTORS
330
17C7D
102
}
330
17C7D
100
AcDbXrecord
280
     1
270
     1
271
     1
  0
XRECORD
  5
17C80
102
{ACAD_REACTORS
330
17C7D
102
}
330
17C7D
100
AcDbXrecord
280
     1
270
     1
271
     1
  0
XRECORD
  5
17F43
102
{ACAD_REACTORS
330
17C8D
102
}
330
17C8D
100
AcDbXrecord
280
     1
102
MATERIAL
148
0.0
149
0.0
149
0.0
 93
        0
 94
      127
282
     0
 72
     0
 77
     0
171
     0
175
     0
179
     0
273
     0
  0
XRECORD
  5
17C8F
102
{ACAD_REACTORS
330
17C8D
102
}
330
17C8D
100
AcDbXrecord
280
     1
270
     1
271
     1
  0
XRECORD
  5
17C8E
102
{ACAD_REACTORS
330
17C8D
102
}
330
17C8D
100
AcDbXrecord
280
     1
270
     1
271
     1
  0
XRECORD
  5
17C92
102
{ACAD_REACTORS
330
17C8D
102
}
330
17C8D
100
AcDbXrecord
280
     1
270
     1
271
     1
  0
XRECORD
  5
17C91
102
{ACAD_REACTORS
330
17C8D
102
}
330
17C8D
100
AcDbXrecord
280
     1
270
     1
271
     1
  0
XRECORD
  5
17C93
102
{ACAD_REACTORS
330
17C8D
102
}
330
17C8D
100
AcDbXrecord
280
     1
270
     1
271
     1
  0
XRECORD
  5
17C90
102
{ACAD_REACTORS
330
17C8D
102
}
330
17C8D
100
AcDbXrecord
280
     1
270
     1
271
     1
  0
XRECORD
  5
17F77
102
{ACAD_REACTORS
330
17F76
102
}
330
17F76
100
AcDbXrecord
280
     1
102
ACAD_ROUNDTRIP_2012_MLEADER_STYLE
298
     1
  0
XRECORD
  5
17F78
102
{ACAD_REACTORS
330
17E92
102
}
330
17E92
100
AcDbXrecord
280
     1
102
DISPLAYNAME
  1
Metric50
102
FLAGS
 90
        0
  0
CELLSTYLEMAP
  5
17F32
102
{ACAD_REACTORS
330
17F31
102
}
330
17F31
100
AcDbCellStyleMap
 90
        3
300
CELLSTYLE
  1
TABLEFORMAT_BEGIN
 90
        5
170
     1
 91
        0
 92
    32768
 62
   257
 93
        1
300
CONTENTFORMAT
  1
CONTENTFORMAT_BEGIN
 90
        0
 91
        0
 92
      512
 93
        0
300

 40
0.0
140
1.0
 94
        5
 62
     0
340
7475
144
6.0
309
CONTENTFORMAT_END
171
     1
301
MARGIN
  1
CELLMARGIN_BEGIN
 40
1.5
 40
1.5
 40
1.5
 40
1.5
 40
4.5
 40
4.5
309
CELLMARGIN_END
 94
        6
 95
        1
302
GRIDFORMAT
  1
GRIDFORMAT_BEGIN
 90
        0
 91
        1
 62
     0
 92
       -2
340
0
 93
        0
 40
1.125
309
GRIDFORMAT_END
 95
        2
302
GRIDFORMAT
  1
GRIDFORMAT_BEGIN
 90
        0
 91
        1
 62
     0
 92
       -2
340
0
 93
        0
 40
1.125
309
GRIDFORMAT_END
 95
        4
302
GRIDFORMAT
  1
GRIDFORMAT_BEGIN
 90
        0
 91
        1
 62
     0
 92
       -2
340
0
 93
        0
 40
1.125
309
GRIDFORMAT_END
 95
        8
302
GRIDFORMAT
  1
GRIDFORMAT_BEGIN
 90
        0
 91
        1
 62
     0
 92
       -2
340
0
 93
        0
 40
1.125
309
GRIDFORMAT_END
 95
       16
302
GRIDFORMAT
  1
GRIDFORMAT_BEGIN
 90
        0
 91
        1
 62
     0
 92
       -2
340
0
 93
        0
 40
1.125
309
GRIDFORMAT_END
 95
       32
302
GRIDFORMAT
  1
GRIDFORMAT_BEGIN
 90
        0
 91
        1
 62
     0
 92
       -2
340
0
 93
        0
 40
1.125
309
GRIDFORMAT_END
309
TABLEFORMAT_END
  1
CELLSTYLE_BEGIN
 90
        1
 91
        1
300
_TITLE
309
CELLSTYLE_END
300
CELLSTYLE
  1
TABLEFORMAT_BEGIN
 90
        5
170
     1
 91
        0
 92
        0
 62
   257
 93
        1
300
CONTENTFORMAT
  1
CONTENTFORMAT_BEGIN
 90
        0
 91
        0
 92
      512
 93
        0
300

 40
0.0
140
1.0
 94
        5
 62
     0
340
7475
144
4.5
309
CONTENTFORMAT_END
171
     1
301
MARGIN
  1
CELLMARGIN_BEGIN
 40
1.5
 40
1.5
 40
1.5
 40
1.5
 40
4.5
 40
4.5
309
CELLMARGIN_END
 94
        6
 95
        1
302
GRIDFORMAT
  1
GRIDFORMAT_BEGIN
 90
        0
 91
        1
 62
     0
 92
       -2
340
0
 93
        0
 40
1.125
309
GRIDFORMAT_END
 95
        2
302
GRIDFORMAT
  1
GRIDFORMAT_BEGIN
 90
        0
 91
        1
 62
     0
 92
       -2
340
0
 93
        0
 40
1.125
309
GRIDFORMAT_END
 95
        4
302
GRIDFORMAT
  1
GRIDFORMAT_BEGIN
 90
        0
 91
        1
 62
     0
 92
       -2
340
0
 93
        0
 40
1.125
309
GRIDFORMAT_END
 95
        8
302
GRIDFORMAT
  1
GRIDFORMAT_BEGIN
 90
        0
 91
        1
 62
     0
 92
       -2
340
0
 93
        0
 40
1.125
309
GRIDFORMAT_END
 95
       16
302
GRIDFORMAT
  1
GRIDFORMAT_BEGIN
 90
        0
 91
        1
 62
     0
 92
       -2
340
0
 93
        0
 40
1.125
309
GRIDFORMAT_END
 95
       32
302
GRIDFORMAT
  1
GRIDFORMAT_BEGIN
 90
        0
 91
        1
 62
     0
 92
       -2
340
0
 93
        0
 40
1.125
309
GRIDFORMAT_END
309
TABLEFORMAT_END
  1
CELLSTYLE_BEGIN
 90
        2
 91
        1
300
_HEADER
309
CELLSTYLE_END
300
CELLSTYLE
  1
TABLEFORMAT_BEGIN
 90
        5
170
     1
 91
        0
 92
        0
 62
   257
 93
        1
300
CONTENTFORMAT
  1
CONTENTFORMAT_BEGIN
 90
        0
 91
        0
 92
      512
 93
        0
300

 40
0.0
140
1.0
 94
        2
 62
     0
340
7475
144
4.5
309
CONTENTFORMAT_END
171
     1
301
MARGIN
  1
CELLMARGIN_BEGIN
 40
1.5
 40
1.5
 40
1.5
 40
1.5
 40
4.5
 40
4.5
309
CELLMARGIN_END
 94
        6
 95
        1
302
GRIDFORMAT
  1
GRIDFORMAT_BEGIN
 90
        0
 91
        1
 62
     0
 92
       -2
340
0
 93
        0
 40
1.125
309
GRIDFORMAT_END
 95
        2
302
GRIDFORMAT
  1
GRIDFORMAT_BEGIN
 90
        0
 91
        1
 62
     0
 92
       -2
340
0
 93
        0
 40
1.125
309
GRIDFORMAT_END
 95
        4
302
GRIDFORMAT
  1
GRIDFORMAT_BEGIN
 90
        0
 91
        1
 62
     0
 92
       -2
340
0
 93
        0
 40
1.125
309
GRIDFORMAT_END
 95
        8
302
GRIDFORMAT
  1
GRIDFORMAT_BEGIN
 90
        0
 91
        1
 62
     0
 92
       -2
340
0
 93
        0
 40
1.125
309
GRIDFORMAT_END
 95
       16
302
GRIDFORMAT
  1
GRIDFORMAT_BEGIN
 90
        0
 91
        1
 62
     0
 92
       -2
340
0
 93
        0
 40
1.125
309
GRIDFORMAT_END
 95
       32
302
GRIDFORMAT
  1
GRIDFORMAT_BEGIN
 90
        0
 91
        1
 62
     0
 92
       -2
340
0
 93
        0
 40
1.125
309
GRIDFORMAT_END
309
TABLEFORMAT_END
  1
CELLSTYLE_BEGIN
 90
        3
 91
        2
300
_DATA
309
CELLSTYLE_END
  0
XRECORD
  5
17F74
102
{ACAD_REACTORS
330
17F31
102
}
330
17F31
100
AcDbXrecord
280
     1
102
ACAD_ROUNDTRIP_PRE2007_TABLESTYLE
 90
      512
 91
        0
  1

 92
      512
 93
        0
  2

 94
      512
 95
        0
  3

  0
XRECORD
  5
17F4F
102
{ACAD_REACTORS
330
17F4E
102
}
330
17F4E
100
AcDbXrecord
280
     1
102
RTVSPost2010Prop28
280
     1
102
RTVSPost2010PropOp28
 70
     1
102
RTVSPost2010Prop29
280
     1
102
RTVSPost2010PropOp29
 70
     1
102
RTVSPost2010Prop30
280
     0
102
RTVSPost2010PropOp30
 70
     1
102
RTVSPost2010Prop31
280
     0
102
RTVSPost2010PropOp31
 70
     1
102
RTVSPost2010Prop32
280
     0
102
RTVSPost2010PropOp32
 70
     1
102
RTVSPost2010Prop33
280
     0
102
RTVSPost2010PropOp33
 70
     1
102
RTVSPost2010Prop34
280
     0
102
RTVSPost2010PropOp34
 70
     1
102
RTVSPost2010Prop35
280
     0
102
RTVSPost2010PropOp35
 70
     1
102
RTVSPost2010Prop36
280
     0
102
RTVSPost2010PropOp36
 70
     1
102
RTVSPost2010Prop37
 90
       50
102
RTVSPost2010PropOp37
 70
     1
102
RTVSPost2010Prop38
140
0.0
102
RTVSPost2010PropOp38
 70
     1
102
RTVSPost2010Prop39
140
1.0
102
RTVSPost2010PropOp39
 70
     1
102
RTVSPost2010Prop40
 90
        0
102
RTVSPost2010PropOp40
 70
     1
102
RTVSPost2010Prop41ColorIndex
 90
       18
102
RTVSPost2010Prop41ColorRGB
 90
        0
102
RTVSPost2010PropOp41
 70
     1
102
RTVSPost2010Prop42
 90
       50
102
RTVSPost2010PropOp42
 70
     1
102
RTVSPost2010Prop43
 90
        3
102
RTVSPost2010PropOp43
 70
     1
102
RTVSPost2010Prop44ColorIndex
 90
        5
102
RTVSPost2010Prop44ColorRGB
 90
      255
102
RTVSPost2010PropOp44
 70
     1
102
RTVSPost2010Prop45
280
     0
102
RTVSPost2010PropOp45
 70
     1
102
RTVSPost2010Prop46
 90
       50
102
RTVSPost2010PropOp46
 70
     1
102
RTVSPost2010Prop47
 90
       50
102
RTVSPost2010PropOp47
 70
     1
102
RTVSPost2010Prop48
 90
       50
102
RTVSPost2010PropOp48
 70
     1
102
RTVSPost2010Prop49
280
     0
102
RTVSPost2010PropOp49
 70
     1
102
RTVSPost2010Prop50
 90
       50
102
RTVSPost2010PropOp50
 70
     1
102
RTVSPost2010Prop51ColorIndex
 90
      256
102
RTVSPost2010Prop51ColorRGB
 90
-16777216
102
RTVSPost2010PropOp51
 70
     0
102
RTVSPost2010Prop52
140
1.0
102
RTVSPost2010PropOp52
 70
     0
102
RTVSPost2010Prop53
 90
        2
102
RTVSPost2010PropOp53
 70
     1
102
RTVSPost2010Prop54
  1
strokes_ogs.tif
102
RTVSPost2010PropOp54
 70
     1
102
RTVSPost2010Prop55
280
     0
102
RTVSPost2010PropOp55
 70
     1
102
RTVSPost2010Prop56
140
1.0
102
RTVSPost2010PropOp56
 70
     1
102
RTVSPost2010Prop57
140
1.0
102
RTVSPost2010PropOp57
 70
     1
102
RTVSPropertyOp0
 70
     1
102
RTVSPropertyOp1
 70
     1
102
RTVSPropertyOp2
 70
     1
102
RTVSPropertyOp3
 70
     1
102
RTVSPropertyOp4
 70
     1
102
RTVSPropertyOp5
 70
     1
102
RTVSPropertyOp6
 70
     1
102
RTVSPropertyOp7
 70
     1
102
RTVSPropertyOp8
 70
     1
102
RTVSPropertyOp9
 70
     1
102
RTVSPropertyOp10
 70
     1
102
RTVSPropertyOp11
 70
     1
102
RTVSPropertyOp12
 70
     1
102
RTVSPropertyOp13
 70
     1
102
RTVSPropertyOp14
 70
     1
102
RTVSPropertyOp15
 70
     1
102
RTVSPropertyOp16
 70
     1
102
RTVSPropertyOp17
 70
     1
102
RTVSPropertyOp18
 70
     1
102
RTVSPropertyOp19
 70
     1
102
RTVSPropertyOp20
 70
     1
102
RTVSPropertyOp21
 70
     1
102
RTVSPropertyOp22
 70
     1
102
RTVSPropertyOp23
 70
     1
102
RTVSPropertyOp24
 70
     1
102
RTVSPropertyOp25
 70
     1
102
RTVSPropertyOp26
 70
     1
102
RTVSPropertyOp27
 70
     1
102
RTVSPropertyOp28
 70
     1
102
RTVSPropertyOp29
 70
     1
102
RTVSPropertyOp30
 70
     1
102
RTVSPropertyOp31
 70
     1
102
RTVSPropertyOp32
 70
     1
102
RTVSPropertyOp33
 70
     1
102
RTVSPropertyOp34
 70
     1
102
RTVSPropertyOp35
 70
     1
102
RTVSPropertyOp36
 70
     1
102
RTVSPropertyOp37
 70
     1
102
RTVSPropertyOp38
 70
     1
102
RTVSPropertyOp39
 70
     1
102
RTVSPropertyOp40
 70
     1
102
RTVSPropertyOp41
 70
     1
102
RTVSPropertyOp42
 70
     1
102
RTVSPropertyOp43
 70
     1
102
RTVSPropertyOp44
 70
     1
102
RTVSPropertyOp45
 70
     1
102
RTVSPropertyOp46
 70
     1
102
RTVSPropertyOp47
 70
     1
102
RTVSPropertyOp48
 70
     1
102
RTVSPropertyOp49
 70
     1
102
RTVSPropertyOp50
 70
     1
102
RTVSPropertyOp51
 70
     0
102
RTVSPropertyOp52
 70
     0
102
RTVSPropertyOp53
 70
     1
102
RTVSPropertyOp54
 70
     1
102
RTVSPropertyOp55
 70
     1
102
RTVSPropertyOp56
 70
     1
102
RTVSPropertyOp57
 70
     1
102
RTVSPropertyOp58
 70
     1
102
RTVSPropertyOp59
 70
     1
102
RTVSPropertyOp60
 70
     1
102
RTVSPropertyOp61
 70
     1
102
RTVSPropertyOp62
 70
     1
  0
XRECORD
  5
17F4D
102
{ACAD_REACTORS
330
17F4C
102
}
330
17F4C
100
AcDbXrecord
280
     1
102
RTVSPost2010Prop28
280
     0
102
RTVSPost2010PropOp28
 70
     1
102
RTVSPost2010Prop29
280
     1
102
RTVSPost2010PropOp29
 70
     1
102
RTVSPost2010Prop30
280
     1
102
RTVSPost2010PropOp30
 70
     1
102
RTVSPost2010Prop31
280
     0
102
RTVSPost2010PropOp31
 70
     1
102
RTVSPost2010Prop32
280
     0
102
RTVSPost2010PropOp32
 70
     1
102
RTVSPost2010Prop33
280
     0
102
RTVSPost2010PropOp33
 70
     1
102
RTVSPost2010Prop34
280
     0
102
RTVSPost2010PropOp34
 70
     1
102
RTVSPost2010Prop35
280
     0
102
RTVSPost2010PropOp35
 70
     1
102
RTVSPost2010Prop36
280
     0
102
RTVSPost2010PropOp36
 70
     1
102
RTVSPost2010Prop37
 90
       50
102
RTVSPost2010PropOp37
 70
     1
102
RTVSPost2010Prop38
140
0.0
102
RTVSPost2010PropOp38
 70
     1
102
RTVSPost2010Prop39
140
1.0
102
RTVSPost2010PropOp39
 70
     1
102
RTVSPost2010Prop40
 90
        0
102
RTVSPost2010PropOp40
 70
     1
102
RTVSPost2010Prop41ColorIndex
 90
       18
102
RTVSPost2010Prop41ColorRGB
 90
        0
102
RTVSPost2010PropOp41
 70
     1
102
RTVSPost2010Prop42
 90
       50
102
RTVSPost2010PropOp42
 70
     1
102
RTVSPost2010Prop43
 90
        3
102
RTVSPost2010PropOp43
 70
     1
102
RTVSPost2010Prop44ColorIndex
 90
        5
102
RTVSPost2010Prop44ColorRGB
 90
      255
102
RTVSPost2010PropOp44
 70
     1
102
RTVSPost2010Prop45
280
     0
102
RTVSPost2010PropOp45
 70
     1
102
RTVSPost2010Prop46
 90
       50
102
RTVSPost2010PropOp46
 70
     1
102
RTVSPost2010Prop47
 90
       50
102
RTVSPost2010PropOp47
 70
     1
102
RTVSPost2010Prop48
 90
       50
102
RTVSPost2010PropOp48
 70
     1
102
RTVSPost2010Prop49
280
     0
102
RTVSPost2010PropOp49
 70
     1
102
RTVSPost2010Prop50
 90
       50
102
RTVSPost2010PropOp50
 70
     1
102
RTVSPost2010Prop51ColorIndex
 90
      256
102
RTVSPost2010Prop51ColorRGB
 90
-16777216
102
RTVSPost2010PropOp51
 70
     0
102
RTVSPost2010Prop52
140
1.0
102
RTVSPost2010PropOp52
 70
     0
102
RTVSPost2010Prop53
 90
        2
102
RTVSPost2010PropOp53
 70
     1
102
RTVSPost2010Prop54
  1
strokes_ogs.tif
102
RTVSPost2010PropOp54
 70
     1
102
RTVSPost2010Prop55
280
     0
102
RTVSPost2010PropOp55
 70
     1
102
RTVSPost2010Prop56
140
1.0
102
RTVSPost2010PropOp56
 70
     1
102
RTVSPost2010Prop57
140
1.0
102
RTVSPost2010PropOp57
 70
     1
102
RTVSPropertyOp0
 70
     1
102
RTVSPropertyOp1
 70
     1
102
RTVSPropertyOp2
 70
     1
102
RTVSPropertyOp3
 70
     1
102
RTVSPropertyOp4
 70
     1
102
RTVSPropertyOp5
 70
     1
102
RTVSPropertyOp6
 70
     1
102
RTVSPropertyOp7
 70
     1
102
RTVSPropertyOp8
 70
     1
102
RTVSPropertyOp9
 70
     1
102
RTVSPropertyOp10
 70
     1
102
RTVSPropertyOp11
 70
     1
102
RTVSPropertyOp12
 70
     1
102
RTVSPropertyOp13
 70
     1
102
RTVSPropertyOp14
 70
     1
102
RTVSPropertyOp15
 70
     1
102
RTVSPropertyOp16
 70
     1
102
RTVSPropertyOp17
 70
     1
102
RTVSPropertyOp18
 70
     1
102
RTVSPropertyOp19
 70
     1
102
RTVSPropertyOp20
 70
     1
102
RTVSPropertyOp21
 70
     1
102
RTVSPropertyOp22
 70
     1
102
RTVSPropertyOp23
 70
     1
102
RTVSPropertyOp24
 70
     1
102
RTVSPropertyOp25
 70
     1
102
RTVSPropertyOp26
 70
     1
102
RTVSPropertyOp27
 70
     1
102
RTVSPropertyOp28
 70
     1
102
RTVSPropertyOp29
 70
     1
102
RTVSPropertyOp30
 70
     1
102
RTVSPropertyOp31
 70
     1
102
RTVSPropertyOp32
 70
     1
102
RTVSPropertyOp33
 70
     1
102
RTVSPropertyOp34
 70
     1
102
RTVSPropertyOp35
 70
     1
102
RTVSPropertyOp36
 70
     1
102
RTVSPropertyOp37
 70
     1
102
RTVSPropertyOp38
 70
     1
102
RTVSPropertyOp39
 70
     1
102
RTVSPropertyOp40
 70
     1
102
RTVSPropertyOp41
 70
     1
102
RTVSPropertyOp42
 70
     1
102
RTVSPropertyOp43
 70
     1
102
RTVSPropertyOp44
 70
     1
102
RTVSPropertyOp45
 70
     1
102
RTVSPropertyOp46
 70
     1
102
RTVSPropertyOp47
 70
     1
102
RTVSPropertyOp48
 70
     1
102
RTVSPropertyOp49
 70
     1
102
RTVSPropertyOp50
 70
     1
102
RTVSPropertyOp51
 70
     0
102
RTVSPropertyOp52
 70
     0
102
RTVSPropertyOp53
 70
     1
102
RTVSPropertyOp54
 70
     1
102
RTVSPropertyOp55
 70
     1
102
RTVSPropertyOp56
 70
     1
102
RTVSPropertyOp57
 70
     1
102
RTVSPropertyOp58
 70
     1
102
RTVSPropertyOp59
 70
     1
102
RTVSPropertyOp60
 70
     1
102
RTVSPropertyOp61
 70
     1
102
RTVSPropertyOp62
 70
     1
  0
XRECORD
  5
17F5B
102
{ACAD_REACTORS
330
17F5A
102
}
330
17F5A
100
AcDbXrecord
280
     1
102
RTVSPost2010Prop28
280
     0
102
RTVSPost2010PropOp28
 70
     1
102
RTVSPost2010Prop29
280
     1
102
RTVSPost2010PropOp29
 70
     1
102
RTVSPost2010Prop30
280
     1
102
RTVSPost2010PropOp30
 70
     1
102
RTVSPost2010Prop31
280
     0
102
RTVSPost2010PropOp31
 70
     1
102
RTVSPost2010Prop32
280
     0
102
RTVSPost2010PropOp32
 70
     1
102
RTVSPost2010Prop33
280
     0
102
RTVSPost2010PropOp33
 70
     1
102
RTVSPost2010Prop34
280
     0
102
RTVSPost2010PropOp34
 70
     1
102
RTVSPost2010Prop35
280
     0
102
RTVSPost2010PropOp35
 70
     1
102
RTVSPost2010Prop36
280
     0
102
RTVSPost2010PropOp36
 70
     1
102
RTVSPost2010Prop37
 90
       50
102
RTVSPost2010PropOp37
 70
     1
102
RTVSPost2010Prop38
140
0.0
102
RTVSPost2010PropOp38
 70
     1
102
RTVSPost2010Prop39
140
1.0
102
RTVSPost2010PropOp39
 70
     1
102
RTVSPost2010Prop40
 90
        0
102
RTVSPost2010PropOp40
 70
     1
102
RTVSPost2010Prop41ColorIndex
 90
       18
102
RTVSPost2010Prop41ColorRGB
 90
        0
102
RTVSPost2010PropOp41
 70
     1
102
RTVSPost2010Prop42
 90
       50
102
RTVSPost2010PropOp42
 70
     1
102
RTVSPost2010Prop43
 90
        3
102
RTVSPost2010PropOp43
 70
     1
102
RTVSPost2010Prop44ColorIndex
 90
        5
102
RTVSPost2010Prop44ColorRGB
 90
      255
102
RTVSPost2010PropOp44
 70
     1
102
RTVSPost2010Prop45
280
     0
102
RTVSPost2010PropOp45
 70
     1
102
RTVSPost2010Prop46
 90
       50
102
RTVSPost2010PropOp46
 70
     1
102
RTVSPost2010Prop47
 90
       50
102
RTVSPost2010PropOp47
 70
     1
102
RTVSPost2010Prop48
 90
       50
102
RTVSPost2010PropOp48
 70
     1
102
RTVSPost2010Prop49
280
     0
102
RTVSPost2010PropOp49
 70
     1
102
RTVSPost2010Prop50
 90
       50
102
RTVSPost2010PropOp50
 70
     1
102
RTVSPost2010Prop51ColorIndex
 90
      256
102
RTVSPost2010Prop51ColorRGB
 90
-16777216
102
RTVSPost2010PropOp51
 70
     0
102
RTVSPost2010Prop52
140
1.0
102
RTVSPost2010PropOp52
 70
     0
102
RTVSPost2010Prop53
 90
        2
102
RTVSPost2010PropOp53
 70
     1
102
RTVSPost2010Prop54
  1
strokes_ogs.tif
102
RTVSPost2010PropOp54
 70
     1
102
RTVSPost2010Prop55
280
     0
102
RTVSPost2010PropOp55
 70
     1
102
RTVSPost2010Prop56
140
1.0
102
RTVSPost2010PropOp56
 70
     1
102
RTVSPost2010Prop57
140
1.0
102
RTVSPost2010PropOp57
 70
     1
102
RTVSPropertyOp0
 70
     1
102
RTVSPropertyOp1
 70
     1
102
RTVSPropertyOp2
 70
     1
102
RTVSPropertyOp3
 70
     1
102
RTVSPropertyOp4
 70
     1
102
RTVSPropertyOp5
 70
     1
102
RTVSPropertyOp6
 70
     1
102
RTVSPropertyOp7
 70
     1
102
RTVSPropertyOp8
 70
     1
102
RTVSPropertyOp9
 70
     1
102
RTVSPropertyOp10
 70
     1
102
RTVSPropertyOp11
 70
     1
102
RTVSPropertyOp12
 70
     1
102
RTVSPropertyOp13
 70
     1
102
RTVSPropertyOp14
 70
     1
102
RTVSPropertyOp15
 70
     1
102
RTVSPropertyOp16
 70
     1
102
RTVSPropertyOp17
 70
     1
102
RTVSPropertyOp18
 70
     1
102
RTVSPropertyOp19
 70
     1
102
RTVSPropertyOp20
 70
     1
102
RTVSPropertyOp21
 70
     1
102
RTVSPropertyOp22
 70
     1
102
RTVSPropertyOp23
 70
     1
102
RTVSPropertyOp24
 70
     1
102
RTVSPropertyOp25
 70
     1
102
RTVSPropertyOp26
 70
     1
102
RTVSPropertyOp27
 70
     1
102
RTVSPropertyOp28
 70
     1
102
RTVSPropertyOp29
 70
     1
102
RTVSPropertyOp30
 70
     1
102
RTVSPropertyOp31
 70
     1
102
RTVSPropertyOp32
 70
     1
102
RTVSPropertyOp33
 70
     1
102
RTVSPropertyOp34
 70
     1
102
RTVSPropertyOp35
 70
     1
102
RTVSPropertyOp36
 70
     1
102
RTVSPropertyOp37
 70
     1
102
RTVSPropertyOp38
 70
     1
102
RTVSPropertyOp39
 70
     1
102
RTVSPropertyOp40
 70
     1
102
RTVSPropertyOp41
 70
     1
102
RTVSPropertyOp42
 70
     1
102
RTVSPropertyOp43
 70
     1
102
RTVSPropertyOp44
 70
     1
102
RTVSPropertyOp45
 70
     1
102
RTVSPropertyOp46
 70
     1
102
RTVSPropertyOp47
 70
     1
102
RTVSPropertyOp48
 70
     1
102
RTVSPropertyOp49
 70
     1
102
RTVSPropertyOp50
 70
     1
102
RTVSPropertyOp51
 70
     0
102
RTVSPropertyOp52
 70
     0
102
RTVSPropertyOp53
 70
     1
102
RTVSPropertyOp54
 70
     1
102
RTVSPropertyOp55
 70
     1
102
RTVSPropertyOp56
 70
     1
102
RTVSPropertyOp57
 70
     1
102
RTVSPropertyOp58
 70
     1
102
RTVSPropertyOp59
 70
     1
102
RTVSPropertyOp60
 70
     1
102
RTVSPropertyOp61
 70
     1
102
RTVSPropertyOp62
 70
     1
  0
XRECORD
  5
17F63
102
{ACAD_REACTORS
330
17F62
102
}
330
17F62
100
AcDbXrecord
280
     1
102
RTVSPost2010Prop28
280
     0
102
RTVSPost2010PropOp28
 70
     1
102
RTVSPost2010Prop29
280
     1
102
RTVSPost2010PropOp29
 70
     1
102
RTVSPost2010Prop30
280
     1
102
RTVSPost2010PropOp30
 70
     1
102
RTVSPost2010Prop31
280
     0
102
RTVSPost2010PropOp31
 70
     1
102
RTVSPost2010Prop32
280
     0
102
RTVSPost2010PropOp32
 70
     1
102
RTVSPost2010Prop33
280
     0
102
RTVSPost2010PropOp33
 70
     1
102
RTVSPost2010Prop34
280
     0
102
RTVSPost2010PropOp34
 70
     1
102
RTVSPost2010Prop35
280
     0
102
RTVSPost2010PropOp35
 70
     1
102
RTVSPost2010Prop36
280
     0
102
RTVSPost2010PropOp36
 70
     1
102
RTVSPost2010Prop37
 90
       50
102
RTVSPost2010PropOp37
 70
     1
102
RTVSPost2010Prop38
140
0.0
102
RTVSPost2010PropOp38
 70
     1
102
RTVSPost2010Prop39
140
1.0
102
RTVSPost2010PropOp39
 70
     1
102
RTVSPost2010Prop40
 90
        0
102
RTVSPost2010PropOp40
 70
     1
102
RTVSPost2010Prop41ColorIndex
 90
       18
102
RTVSPost2010Prop41ColorRGB
 90
        0
102
RTVSPost2010PropOp41
 70
     1
102
RTVSPost2010Prop42
 90
       50
102
RTVSPost2010PropOp42
 70
     1
102
RTVSPost2010Prop43
 90
        3
102
RTVSPost2010PropOp43
 70
     1
102
RTVSPost2010Prop44ColorIndex
 90
        5
102
RTVSPost2010Prop44ColorRGB
 90
      255
102
RTVSPost2010PropOp44
 70
     1
102
RTVSPost2010Prop45
280
     0
102
RTVSPost2010PropOp45
 70
     1
102
RTVSPost2010Prop46
 90
       50
102
RTVSPost2010PropOp46
 70
     1
102
RTVSPost2010Prop47
 90
       50
102
RTVSPost2010PropOp47
 70
     1
102
RTVSPost2010Prop48
 90
       50
102
RTVSPost2010PropOp48
 70
     1
102
RTVSPost2010Prop49
280
     0
102
RTVSPost2010PropOp49
 70
     1
102
RTVSPost2010Prop50
 90
       50
102
RTVSPost2010PropOp50
 70
     1
102
RTVSPost2010Prop51ColorIndex
 90
      256
102
RTVSPost2010Prop51ColorRGB
 90
-16777216
102
RTVSPost2010PropOp51
 70
     0
102
RTVSPost2010Prop52
140
1.0
102
RTVSPost2010PropOp52
 70
     0
102
RTVSPost2010Prop53
 90
        2
102
RTVSPost2010PropOp53
 70
     1
102
RTVSPost2010Prop54
  1
strokes_ogs.tif
102
RTVSPost2010PropOp54
 70
     1
102
RTVSPost2010Prop55
280
     0
102
RTVSPost2010PropOp55
 70
     1
102
RTVSPost2010Prop56
140
1.0
102
RTVSPost2010PropOp56
 70
     1
102
RTVSPost2010Prop57
140
1.0
102
RTVSPost2010PropOp57
 70
     1
102
RTVSPropertyOp0
 70
     1
102
RTVSPropertyOp1
 70
     1
102
RTVSPropertyOp2
 70
     1
102
RTVSPropertyOp3
 70
     1
102
RTVSPropertyOp4
 70
     1
102
RTVSPropertyOp5
 70
     1
102
RTVSPropertyOp6
 70
     1
102
RTVSPropertyOp7
 70
     1
102
RTVSPropertyOp8
 70
     1
102
RTVSPropertyOp9
 70
     1
102
RTVSPropertyOp10
 70
     1
102
RTVSPropertyOp11
 70
     1
102
RTVSPropertyOp12
 70
     1
102
RTVSPropertyOp13
 70
     1
102
RTVSPropertyOp14
 70
     1
102
RTVSPropertyOp15
 70
     1
102
RTVSPropertyOp16
 70
     1
102
RTVSPropertyOp17
 70
     1
102
RTVSPropertyOp18
 70
     1
102
RTVSPropertyOp19
 70
     1
102
RTVSPropertyOp20
 70
     1
102
RTVSPropertyOp21
 70
     1
102
RTVSPropertyOp22
 70
     1
102
RTVSPropertyOp23
 70
     1
102
RTVSPropertyOp24
 70
     1
102
RTVSPropertyOp25
 70
     1
102
RTVSPropertyOp26
 70
     1
102
RTVSPropertyOp27
 70
     1
102
RTVSPropertyOp28
 70
     1
102
RTVSPropertyOp29
 70
     1
102
RTVSPropertyOp30
 70
     1
102
RTVSPropertyOp31
 70
     1
102
RTVSPropertyOp32
 70
     1
102
RTVSPropertyOp33
 70
     1
102
RTVSPropertyOp34
 70
     1
102
RTVSPropertyOp35
 70
     1
102
RTVSPropertyOp36
 70
     1
102
RTVSPropertyOp37
 70
     1
102
RTVSPropertyOp38
 70
     1
102
RTVSPropertyOp39
 70
     1
102
RTVSPropertyOp40
 70
     1
102
RTVSPropertyOp41
 70
     1
102
RTVSPropertyOp42
 70
     1
102
RTVSPropertyOp43
 70
     1
102
RTVSPropertyOp44
 70
     1
102
RTVSPropertyOp45
 70
     1
102
RTVSPropertyOp46
 70
     1
102
RTVSPropertyOp47
 70
     1
102
RTVSPropertyOp48
 70
     1
102
RTVSPropertyOp49
 70
     1
102
RTVSPropertyOp50
 70
     1
102
RTVSPropertyOp51
 70
     0
102
RTVSPropertyOp52
 70
     0
102
RTVSPropertyOp53
 70
     1
102
RTVSPropertyOp54
 70
     1
102
RTVSPropertyOp55
 70
     1
102
RTVSPropertyOp56
 70
     1
102
RTVSPropertyOp57
 70
     1
102
RTVSPropertyOp58
 70
     1
102
RTVSPropertyOp59
 70
     1
102
RTVSPropertyOp60
 70
     1
102
RTVSPropertyOp61
 70
     1
102
RTVSPropertyOp62
 70
     1
  0
XRECORD
  5
17F55
102
{ACAD_REACTORS
330
17F54
102
}
330
17F54
100
AcDbXrecord
280
     1
102
RTVSPost2010Prop28
280
     0
102
RTVSPost2010PropOp28
 70
     1
102
RTVSPost2010Prop29
280
     1
102
RTVSPost2010PropOp29
 70
     1
102
RTVSPost2010Prop30
280
     1
102
RTVSPost2010PropOp30
 70
     1
102
RTVSPost2010Prop31
280
     0
102
RTVSPost2010PropOp31
 70
     1
102
RTVSPost2010Prop32
280
     0
102
RTVSPost2010PropOp32
 70
     1
102
RTVSPost2010Prop33
280
     0
102
RTVSPost2010PropOp33
 70
     1
102
RTVSPost2010Prop34
280
     0
102
RTVSPost2010PropOp34
 70
     1
102
RTVSPost2010Prop35
280
     0
102
RTVSPost2010PropOp35
 70
     1
102
RTVSPost2010Prop36
280
     0
102
RTVSPost2010PropOp36
 70
     1
102
RTVSPost2010Prop37
 90
       50
102
RTVSPost2010PropOp37
 70
     1
102
RTVSPost2010Prop38
140
0.0
102
RTVSPost2010PropOp38
 70
     1
102
RTVSPost2010Prop39
140
1.0
102
RTVSPost2010PropOp39
 70
     1
102
RTVSPost2010Prop40
 90
        0
102
RTVSPost2010PropOp40
 70
     1
102
RTVSPost2010Prop41ColorIndex
 90
       18
102
RTVSPost2010Prop41ColorRGB
 90
        0
102
RTVSPost2010PropOp41
 70
     1
102
RTVSPost2010Prop42
 90
       50
102
RTVSPost2010PropOp42
 70
     1
102
RTVSPost2010Prop43
 90
        3
102
RTVSPost2010PropOp43
 70
     1
102
RTVSPost2010Prop44ColorIndex
 90
        5
102
RTVSPost2010Prop44ColorRGB
 90
      255
102
RTVSPost2010PropOp44
 70
     1
102
RTVSPost2010Prop45
280
     0
102
RTVSPost2010PropOp45
 70
     1
102
RTVSPost2010Prop46
 90
       50
102
RTVSPost2010PropOp46
 70
     1
102
RTVSPost2010Prop47
 90
       50
102
RTVSPost2010PropOp47
 70
     1
102
RTVSPost2010Prop48
 90
       50
102
RTVSPost2010PropOp48
 70
     1
102
RTVSPost2010Prop49
280
     0
102
RTVSPost2010PropOp49
 70
     1
102
RTVSPost2010Prop50
 90
       50
102
RTVSPost2010PropOp50
 70
     1
102
RTVSPost2010Prop51ColorIndex
 90
      256
102
RTVSPost2010Prop51ColorRGB
 90
-16777216
102
RTVSPost2010PropOp51
 70
     0
102
RTVSPost2010Prop52
140
1.0
102
RTVSPost2010PropOp52
 70
     0
102
RTVSPost2010Prop53
 90
        2
102
RTVSPost2010PropOp53
 70
     1
102
RTVSPost2010Prop54
  1
strokes_ogs.tif
102
RTVSPost2010PropOp54
 70
     1
102
RTVSPost2010Prop55
280
     0
102
RTVSPost2010PropOp55
 70
     1
102
RTVSPost2010Prop56
140
1.0
102
RTVSPost2010PropOp56
 70
     1
102
RTVSPost2010Prop57
140
1.0
102
RTVSPost2010PropOp57
 70
     1
102
RTVSPropertyOp0
 70
     1
102
RTVSPropertyOp1
 70
     1
102
RTVSPropertyOp2
 70
     1
102
RTVSPropertyOp3
 70
     1
102
RTVSPropertyOp4
 70
     1
102
RTVSPropertyOp5
 70
     1
102
RTVSPropertyOp6
 70
     1
102
RTVSPropertyOp7
 70
     1
102
RTVSPropertyOp8
 70
     1
102
RTVSPropertyOp9
 70
     1
102
RTVSPropertyOp10
 70
     1
102
RTVSPropertyOp11
 70
     1
102
RTVSPropertyOp12
 70
     1
102
RTVSPropertyOp13
 70
     1
102
RTVSPropertyOp14
 70
     1
102
RTVSPropertyOp15
 70
     1
102
RTVSPropertyOp16
 70
     1
102
RTVSPropertyOp17
 70
     1
102
RTVSPropertyOp18
 70
     1
102
RTVSPropertyOp19
 70
     1
102
RTVSPropertyOp20
 70
     1
102
RTVSPropertyOp21
 70
     1
102
RTVSPropertyOp22
 70
     1
102
RTVSPropertyOp23
 70
     1
102
RTVSPropertyOp24
 70
     1
102
RTVSPropertyOp25
 70
     1
102
RTVSPropertyOp26
 70
     1
102
RTVSPropertyOp27
 70
     1
102
RTVSPropertyOp28
 70
     1
102
RTVSPropertyOp29
 70
     1
102
RTVSPropertyOp30
 70
     1
102
RTVSPropertyOp31
 70
     1
102
RTVSPropertyOp32
 70
     1
102
RTVSPropertyOp33
 70
     1
102
RTVSPropertyOp34
 70
     1
102
RTVSPropertyOp35
 70
     1
102
RTVSPropertyOp36
 70
     1
102
RTVSPropertyOp37
 70
     1
102
RTVSPropertyOp38
 70
     1
102
RTVSPropertyOp39
 70
     1
102
RTVSPropertyOp40
 70
     1
102
RTVSPropertyOp41
 70
     1
102
RTVSPropertyOp42
 70
     1
102
RTVSPropertyOp43
 70
     1
102
RTVSPropertyOp44
 70
     1
102
RTVSPropertyOp45
 70
     1
102
RTVSPropertyOp46
 70
     1
102
RTVSPropertyOp47
 70
     1
102
RTVSPropertyOp48
 70
     1
102
RTVSPropertyOp49
 70
     1
102
RTVSPropertyOp50
 70
     1
102
RTVSPropertyOp51
 70
     0
102
RTVSPropertyOp52
 70
     0
102
RTVSPropertyOp53
 70
     1
102
RTVSPropertyOp54
 70
     1
102
RTVSPropertyOp55
 70
     1
102
RTVSPropertyOp56
 70
     1
102
RTVSPropertyOp57
 70
     1
102
RTVSPropertyOp58
 70
     1
102
RTVSPropertyOp59
 70
     1
102
RTVSPropertyOp60
 70
     1
102
RTVSPropertyOp61
 70
     1
102
RTVSPropertyOp62
 70
     1
  0
XRECORD
  5
17F59
102
{ACAD_REACTORS
330
17F58
102
}
330
17F58
100
AcDbXrecord
280
     1
102
RTVSPost2010Prop28
280
     0
102
RTVSPost2010PropOp28
 70
     1
102
RTVSPost2010Prop29
280
     1
102
RTVSPost2010PropOp29
 70
     1
102
RTVSPost2010Prop30
280
     1
102
RTVSPost2010PropOp30
 70
     1
102
RTVSPost2010Prop31
280
     0
102
RTVSPost2010PropOp31
 70
     1
102
RTVSPost2010Prop32
280
     0
102
RTVSPost2010PropOp32
 70
     1
102
RTVSPost2010Prop33
280
     0
102
RTVSPost2010PropOp33
 70
     1
102
RTVSPost2010Prop34
280
     0
102
RTVSPost2010PropOp34
 70
     1
102
RTVSPost2010Prop35
280
     0
102
RTVSPost2010PropOp35
 70
     1
102
RTVSPost2010Prop36
280
     0
102
RTVSPost2010PropOp36
 70
     1
102
RTVSPost2010Prop37
 90
       50
102
RTVSPost2010PropOp37
 70
     1
102
RTVSPost2010Prop38
140
0.0
102
RTVSPost2010PropOp38
 70
     1
102
RTVSPost2010Prop39
140
1.0
102
RTVSPost2010PropOp39
 70
     1
102
RTVSPost2010Prop40
 90
        0
102
RTVSPost2010PropOp40
 70
     1
102
RTVSPost2010Prop41ColorIndex
 90
       18
102
RTVSPost2010Prop41ColorRGB
 90
        0
102
RTVSPost2010PropOp41
 70
     1
102
RTVSPost2010Prop42
 90
       50
102
RTVSPost2010PropOp42
 70
     1
102
RTVSPost2010Prop43
 90
        3
102
RTVSPost2010PropOp43
 70
     1
102
RTVSPost2010Prop44ColorIndex
 90
        5
102
RTVSPost2010Prop44ColorRGB
 90
      255
102
RTVSPost2010PropOp44
 70
     1
102
RTVSPost2010Prop45
280
     0
102
RTVSPost2010PropOp45
 70
     1
102
RTVSPost2010Prop46
 90
       50
102
RTVSPost2010PropOp46
 70
     1
102
RTVSPost2010Prop47
 90
       50
102
RTVSPost2010PropOp47
 70
     1
102
RTVSPost2010Prop48
 90
       50
102
RTVSPost2010PropOp48
 70
     1
102
RTVSPost2010Prop49
280
     0
102
RTVSPost2010PropOp49
 70
     1
102
RTVSPost2010Prop50
 90
       50
102
RTVSPost2010PropOp50
 70
     1
102
RTVSPost2010Prop51ColorIndex
 90
      256
102
RTVSPost2010Prop51ColorRGB
 90
-16777216
102
RTVSPost2010PropOp51
 70
     0
102
RTVSPost2010Prop52
140
1.0
102
RTVSPost2010PropOp52
 70
     0
102
RTVSPost2010Prop53
 90
        2
102
RTVSPost2010PropOp53
 70
     1
102
RTVSPost2010Prop54
  1
strokes_ogs.tif
102
RTVSPost2010PropOp54
 70
     1
102
RTVSPost2010Prop55
280
     0
102
RTVSPost2010PropOp55
 70
     1
102
RTVSPost2010Prop56
140
1.0
102
RTVSPost2010PropOp56
 70
     1
102
RTVSPost2010Prop57
140
1.0
102
RTVSPost2010PropOp57
 70
     1
102
RTVSPropertyOp0
 70
     1
102
RTVSPropertyOp1
 70
     1
102
RTVSPropertyOp2
 70
     1
102
RTVSPropertyOp3
 70
     1
102
RTVSPropertyOp4
 70
     1
102
RTVSPropertyOp5
 70
     1
102
RTVSPropertyOp6
 70
     1
102
RTVSPropertyOp7
 70
     1
102
RTVSPropertyOp8
 70
     1
102
RTVSPropertyOp9
 70
     1
102
RTVSPropertyOp10
 70
     1
102
RTVSPropertyOp11
 70
     1
102
RTVSPropertyOp12
 70
     1
102
RTVSPropertyOp13
 70
     1
102
RTVSPropertyOp14
 70
     1
102
RTVSPropertyOp15
 70
     1
102
RTVSPropertyOp16
 70
     1
102
RTVSPropertyOp17
 70
     1
102
RTVSPropertyOp18
 70
     1
102
RTVSPropertyOp19
 70
     1
102
RTVSPropertyOp20
 70
     1
102
RTVSPropertyOp21
 70
     1
102
RTVSPropertyOp22
 70
     1
102
RTVSPropertyOp23
 70
     1
102
RTVSPropertyOp24
 70
     1
102
RTVSPropertyOp25
 70
     1
102
RTVSPropertyOp26
 70
     1
102
RTVSPropertyOp27
 70
     1
102
RTVSPropertyOp28
 70
     1
102
RTVSPropertyOp29
 70
     1
102
RTVSPropertyOp30
 70
     1
102
RTVSPropertyOp31
 70
     1
102
RTVSPropertyOp32
 70
     1
102
RTVSPropertyOp33
 70
     1
102
RTVSPropertyOp34
 70
     1
102
RTVSPropertyOp35
 70
     1
102
RTVSPropertyOp36
 70
     1
102
RTVSPropertyOp37
 70
     1
102
RTVSPropertyOp38
 70
     1
102
RTVSPropertyOp39
 70
     1
102
RTVSPropertyOp40
 70
     1
102
RTVSPropertyOp41
 70
     1
102
RTVSPropertyOp42
 70
     1
102
RTVSPropertyOp43
 70
     1
102
RTVSPropertyOp44
 70
     1
102
RTVSPropertyOp45
 70
     1
102
RTVSPropertyOp46
 70
     1
102
RTVSPropertyOp47
 70
     1
102
RTVSPropertyOp48
 70
     1
102
RTVSPropertyOp49
 70
     1
102
RTVSPropertyOp50
 70
     1
102
RTVSPropertyOp51
 70
     0
102
RTVSPropertyOp52
 70
     0
102
RTVSPropertyOp53
 70
     1
102
RTVSPropertyOp54
 70
     1
102
RTVSPropertyOp55
 70
     1
102
RTVSPropertyOp56
 70
     1
102
RTVSPropertyOp57
 70
     1
102
RTVSPropertyOp58
 70
     1
102
RTVSPropertyOp59
 70
     1
102
RTVSPropertyOp60
 70
     1
102
RTVSPropertyOp61
 70
     1
102
RTVSPropertyOp62
 70
     1
  0
XRECORD
  5
17F73
102
{ACAD_REACTORS
330
17F72
102
}
330
17F72
100
AcDbXrecord
280
     1
102
RTVSPost2010Prop28
280
     0
102
RTVSPost2010PropOp28
 70
     0
102
RTVSPost2010Prop29
280
     1
102
RTVSPost2010PropOp29
 70
     0
102
RTVSPost2010Prop30
280
     1
102
RTVSPost2010PropOp30
 70
     0
102
RTVSPost2010Prop31
280
     0
102
RTVSPost2010PropOp31
 70
     0
102
RTVSPost2010Prop32
280
     0
102
RTVSPost2010PropOp32
 70
     0
102
RTVSPost2010Prop33
280
     0
102
RTVSPost2010PropOp33
 70
     0
102
RTVSPost2010Prop34
280
     0
102
RTVSPost2010PropOp34
 70
     0
102
RTVSPost2010Prop35
280
     0
102
RTVSPost2010PropOp35
 70
     0
102
RTVSPost2010Prop36
280
     0
102
RTVSPost2010PropOp36
 70
     0
102
RTVSPost2010Prop37
 90
       50
102
RTVSPost2010PropOp37
 70
     0
102
RTVSPost2010Prop38
140
0.0
102
RTVSPost2010PropOp38
 70
     0
102
RTVSPost2010Prop39
140
1.0
102
RTVSPost2010PropOp39
 70
     0
102
RTVSPost2010Prop40
 90
        0
102
RTVSPost2010PropOp40
 70
     0
102
RTVSPost2010Prop41ColorIndex
 90
       18
102
RTVSPost2010Prop41ColorRGB
 90
        0
102
RTVSPost2010PropOp41
 70
     0
102
RTVSPost2010Prop42
 90
       50
102
RTVSPost2010PropOp42
 70
     0
102
RTVSPost2010Prop43
 90
        3
102
RTVSPost2010PropOp43
 70
     0
102
RTVSPost2010Prop44ColorIndex
 90
        5
102
RTVSPost2010Prop44ColorRGB
 90
      255
102
RTVSPost2010PropOp44
 70
     0
102
RTVSPost2010Prop45
280
     0
102
RTVSPost2010PropOp45
 70
     0
102
RTVSPost2010Prop46
 90
       50
102
RTVSPost2010PropOp46
 70
     0
102
RTVSPost2010Prop47
 90
       50
102
RTVSPost2010PropOp47
 70
     0
102
RTVSPost2010Prop48
 90
       50
102
RTVSPost2010PropOp48
 70
     0
102
RTVSPost2010Prop49
280
     0
102
RTVSPost2010PropOp49
 70
     0
102
RTVSPost2010Prop50
 90
       50
102
RTVSPost2010PropOp50
 70
     0
102
RTVSPost2010Prop51ColorIndex
 90
      256
102
RTVSPost2010Prop51ColorRGB
 90
-16777216
102
RTVSPost2010PropOp51
 70
     0
102
RTVSPost2010Prop52
140
1.0
102
RTVSPost2010PropOp52
 70
     0
102
RTVSPost2010Prop53
 90
        2
102
RTVSPost2010PropOp53
 70
     0
102
RTVSPost2010Prop54
  1
strokes_ogs.tif
102
RTVSPost2010PropOp54
 70
     0
102
RTVSPost2010Prop55
280
     0
102
RTVSPost2010PropOp55
 70
     0
102
RTVSPost2010Prop56
140
1.0
102
RTVSPost2010PropOp56
 70
     0
102
RTVSPost2010Prop57
140
1.0
102
RTVSPost2010PropOp57
 70
     0
102
RTVSPropertyOp0
 70
     0
102
RTVSPropertyOp1
 70
     0
102
RTVSPropertyOp2
 70
     0
102
RTVSPropertyOp3
 70
     0
102
RTVSPropertyOp4
 70
     0
102
RTVSPropertyOp5
 70
     0
102
RTVSPropertyOp6
 70
     0
102
RTVSPropertyOp7
 70
     0
102
RTVSPropertyOp8
 70
     0
102
RTVSPropertyOp9
 70
     0
102
RTVSPropertyOp10
 70
     0
102
RTVSPropertyOp11
 70
     0
102
RTVSPropertyOp12
 70
     0
102
RTVSPropertyOp13
 70
     0
102
RTVSPropertyOp14
 70
     2
102
RTVSPropertyOp15
 70
     0
102
RTVSPropertyOp16
 70
     0
102
RTVSPropertyOp17
 70
     0
102
RTVSPropertyOp18
 70
     0
102
RTVSPropertyOp19
 70
     0
102
RTVSPropertyOp20
 70
     0
102
RTVSPropertyOp21
 70
     0
102
RTVSPropertyOp22
 70
     0
102
RTVSPropertyOp23
 70
     0
102
RTVSPropertyOp24
 70
     0
102
RTVSPropertyOp25
 70
     0
102
RTVSPropertyOp26
 70
     0
102
RTVSPropertyOp27
 70
     0
102
RTVSPropertyOp28
 70
     0
102
RTVSPropertyOp29
 70
     0
102
RTVSPropertyOp30
 70
     0
102
RTVSPropertyOp31
 70
     0
102
RTVSPropertyOp32
 70
     0
102
RTVSPropertyOp33
 70
     0
102
RTVSPropertyOp34
 70
     0
102
RTVSPropertyOp35
 70
     0
102
RTVSPropertyOp36
 70
     0
102
RTVSPropertyOp37
 70
     0
102
RTVSPropertyOp38
 70
     0
102
RTVSPropertyOp39
 70
     0
102
RTVSPropertyOp40
 70
     0
102
RTVSPropertyOp41
 70
     0
102
RTVSPropertyOp42
 70
     0
102
RTVSPropertyOp43
 70
     0
102
RTVSPropertyOp44
 70
     0
102
RTVSPropertyOp45
 70
     0
102
RTVSPropertyOp46
 70
     0
102
RTVSPropertyOp47
 70
     0
102
RTVSPropertyOp48
 70
     0
102
RTVSPropertyOp49
 70
     0
102
RTVSPropertyOp50
 70
     0
102
RTVSPropertyOp51
 70
     0
102
RTVSPropertyOp52
 70
     0
102
RTVSPropertyOp53
 70
     0
102
RTVSPropertyOp54
 70
     0
102
RTVSPropertyOp55
 70
     0
102
RTVSPropertyOp56
 70
     0
102
RTVSPropertyOp57
 70
     0
102
RTVSPropertyOp58
 70
     1
102
RTVSPropertyOp59
 70
     1
102
RTVSPropertyOp60
 70
     1
102
RTVSPropertyOp61
 70
     1
102
RTVSPropertyOp62
 70
     1
  0
XRECORD
  5
17F61
102
{ACAD_REACTORS
330
17F60
102
}
330
17F60
100
AcDbXrecord
280
     1
102
RTVSPost2010Prop28
280
     0
102
RTVSPost2010PropOp28
 70
     1
102
RTVSPost2010Prop29
280
     1
102
RTVSPost2010PropOp29
 70
     1
102
RTVSPost2010Prop30
280
     1
102
RTVSPost2010PropOp30
 70
     1
102
RTVSPost2010Prop31
280
     0
102
RTVSPost2010PropOp31
 70
     1
102
RTVSPost2010Prop32
280
     0
102
RTVSPost2010PropOp32
 70
     1
102
RTVSPost2010Prop33
280
     0
102
RTVSPost2010PropOp33
 70
     1
102
RTVSPost2010Prop34
280
     0
102
RTVSPost2010PropOp34
 70
     1
102
RTVSPost2010Prop35
280
     0
102
RTVSPost2010PropOp35
 70
     1
102
RTVSPost2010Prop36
280
     0
102
RTVSPost2010PropOp36
 70
     1
102
RTVSPost2010Prop37
 90
       50
102
RTVSPost2010PropOp37
 70
     1
102
RTVSPost2010Prop38
140
0.0
102
RTVSPost2010PropOp38
 70
     1
102
RTVSPost2010Prop39
140
1.0
102
RTVSPost2010PropOp39
 70
     1
102
RTVSPost2010Prop40
 90
        0
102
RTVSPost2010PropOp40
 70
     1
102
RTVSPost2010Prop41ColorIndex
 90
       18
102
RTVSPost2010Prop41ColorRGB
 90
        0
102
RTVSPost2010PropOp41
 70
     1
102
RTVSPost2010Prop42
 90
       50
102
RTVSPost2010PropOp42
 70
     1
102
RTVSPost2010Prop43
 90
        3
102
RTVSPost2010PropOp43
 70
     1
102
RTVSPost2010Prop44ColorIndex
 90
        5
102
RTVSPost2010Prop44ColorRGB
 90
      255
102
RTVSPost2010PropOp44
 70
     1
102
RTVSPost2010Prop45
280
     0
102
RTVSPost2010PropOp45
 70
     1
102
RTVSPost2010Prop46
 90
       50
102
RTVSPost2010PropOp46
 70
     1
102
RTVSPost2010Prop47
 90
       50
102
RTVSPost2010PropOp47
 70
     1
102
RTVSPost2010Prop48
 90
       50
102
RTVSPost2010PropOp48
 70
     1
102
RTVSPost2010Prop49
280
     0
102
RTVSPost2010PropOp49
 70
     1
102
RTVSPost2010Prop50
 90
       50
102
RTVSPost2010PropOp50
 70
     1
102
RTVSPost2010Prop51ColorIndex
 90
      256
102
RTVSPost2010Prop51ColorRGB
 90
-16777216
102
RTVSPost2010PropOp51
 70
     0
102
RTVSPost2010Prop52
140
1.0
102
RTVSPost2010PropOp52
 70
     0
102
RTVSPost2010Prop53
 90
        2
102
RTVSPost2010PropOp53
 70
     1
102
RTVSPost2010Prop54
  1
strokes_ogs.tif
102
RTVSPost2010PropOp54
 70
     1
102
RTVSPost2010Prop55
280
     0
102
RTVSPost2010PropOp55
 70
     1
102
RTVSPost2010Prop56
140
1.0
102
RTVSPost2010PropOp56
 70
     1
102
RTVSPost2010Prop57
140
1.0
102
RTVSPost2010PropOp57
 70
     1
102
RTVSPropertyOp0
 70
     1
102
RTVSPropertyOp1
 70
     1
102
RTVSPropertyOp2
 70
     1
102
RTVSPropertyOp3
 70
     1
102
RTVSPropertyOp4
 70
     1
102
RTVSPropertyOp5
 70
     1
102
RTVSPropertyOp6
 70
     1
102
RTVSPropertyOp7
 70
     1
102
RTVSPropertyOp8
 70
     1
102
RTVSPropertyOp9
 70
     1
102
RTVSPropertyOp10
 70
     1
102
RTVSPropertyOp11
 70
     1
102
RTVSPropertyOp12
 70
     1
102
RTVSPropertyOp13
 70
     1
102
RTVSPropertyOp14
 70
     1
102
RTVSPropertyOp15
 70
     1
102
RTVSPropertyOp16
 70
     1
102
RTVSPropertyOp17
 70
     1
102
RTVSPropertyOp18
 70
     1
102
RTVSPropertyOp19
 70
     1
102
RTVSPropertyOp20
 70
     1
102
RTVSPropertyOp21
 70
     1
102
RTVSPropertyOp22
 70
     1
102
RTVSPropertyOp23
 70
     1
102
RTVSPropertyOp24
 70
     1
102
RTVSPropertyOp25
 70
     1
102
RTVSPropertyOp26
 70
     1
102
RTVSPropertyOp27
 70
     1
102
RTVSPropertyOp28
 70
     1
102
RTVSPropertyOp29
 70
     1
102
RTVSPropertyOp30
 70
     1
102
RTVSPropertyOp31
 70
     1
102
RTVSPropertyOp32
 70
     1
102
RTVSPropertyOp33
 70
     1
102
RTVSPropertyOp34
 70
     1
102
RTVSPropertyOp35
 70
     1
102
RTVSPropertyOp36
 70
     1
102
RTVSPropertyOp37
 70
     1
102
RTVSPropertyOp38
 70
     1
102
RTVSPropertyOp39
 70
     1
102
RTVSPropertyOp40
 70
     1
102
RTVSPropertyOp41
 70
     1
102
RTVSPropertyOp42
 70
     1
102
RTVSPropertyOp43
 70
     1
102
RTVSPropertyOp44
 70
     1
102
RTVSPropertyOp45
 70
     1
102
RTVSPropertyOp46
 70
     1
102
RTVSPropertyOp47
 70
     1
102
RTVSPropertyOp48
 70
     1
102
RTVSPropertyOp49
 70
     1
102
RTVSPropertyOp50
 70
     1
102
RTVSPropertyOp51
 70
     0
102
RTVSPropertyOp52
 70
     0
102
RTVSPropertyOp53
 70
     1
102
RTVSPropertyOp54
 70
     1
102
RTVSPropertyOp55
 70
     1
102
RTVSPropertyOp56
 70
     1
102
RTVSPropertyOp57
 70
     1
102
RTVSPropertyOp58
 70
     1
102
RTVSPropertyOp59
 70
     1
102
RTVSPropertyOp60
 70
     1
102
RTVSPropertyOp61
 70
     1
102
RTVSPropertyOp62
 70
     1
  0
XRECORD
  5
17F45
102
{ACAD_REACTORS
330
17F44
102
}
330
17F44
100
AcDbXrecord
280
     1
102
RTVSPost2010Prop28
280
     0
102
RTVSPost2010PropOp28
 70
     1
102
RTVSPost2010Prop29
280
     1
102
RTVSPost2010PropOp29
 70
     1
102
RTVSPost2010Prop30
280
     1
102
RTVSPost2010PropOp30
 70
     1
102
RTVSPost2010Prop31
280
     0
102
RTVSPost2010PropOp31
 70
     1
102
RTVSPost2010Prop32
280
     0
102
RTVSPost2010PropOp32
 70
     1
102
RTVSPost2010Prop33
280
     0
102
RTVSPost2010PropOp33
 70
     1
102
RTVSPost2010Prop34
280
     0
102
RTVSPost2010PropOp34
 70
     1
102
RTVSPost2010Prop35
280
     0
102
RTVSPost2010PropOp35
 70
     1
102
RTVSPost2010Prop36
280
     0
102
RTVSPost2010PropOp36
 70
     1
102
RTVSPost2010Prop37
 90
       50
102
RTVSPost2010PropOp37
 70
     1
102
RTVSPost2010Prop38
140
0.0
102
RTVSPost2010PropOp38
 70
     1
102
RTVSPost2010Prop39
140
1.0
102
RTVSPost2010PropOp39
 70
     1
102
RTVSPost2010Prop40
 90
        0
102
RTVSPost2010PropOp40
 70
     1
102
RTVSPost2010Prop41ColorIndex
 90
       18
102
RTVSPost2010Prop41ColorRGB
 90
        0
102
RTVSPost2010PropOp41
 70
     1
102
RTVSPost2010Prop42
 90
       50
102
RTVSPost2010PropOp42
 70
     1
102
RTVSPost2010Prop43
 90
        3
102
RTVSPost2010PropOp43
 70
     1
102
RTVSPost2010Prop44ColorIndex
 90
        5
102
RTVSPost2010Prop44ColorRGB
 90
      255
102
RTVSPost2010PropOp44
 70
     1
102
RTVSPost2010Prop45
280
     0
102
RTVSPost2010PropOp45
 70
     1
102
RTVSPost2010Prop46
 90
       50
102
RTVSPost2010PropOp46
 70
     1
102
RTVSPost2010Prop47
 90
       50
102
RTVSPost2010PropOp47
 70
     1
102
RTVSPost2010Prop48
 90
       50
102
RTVSPost2010PropOp48
 70
     1
102
RTVSPost2010Prop49
280
     0
102
RTVSPost2010PropOp49
 70
     1
102
RTVSPost2010Prop50
 90
       50
102
RTVSPost2010PropOp50
 70
     1
102
RTVSPost2010Prop51ColorIndex
 90
      256
102
RTVSPost2010Prop51ColorRGB
 90
-16777216
102
RTVSPost2010PropOp51
 70
     0
102
RTVSPost2010Prop52
140
1.0
102
RTVSPost2010PropOp52
 70
     0
102
RTVSPost2010Prop53
 90
        2
102
RTVSPost2010PropOp53
 70
     1
102
RTVSPost2010Prop54
  1
strokes_ogs.tif
102
RTVSPost2010PropOp54
 70
     1
102
RTVSPost2010Prop55
280
     0
102
RTVSPost2010PropOp55
 70
     1
102
RTVSPost2010Prop56
140
1.0
102
RTVSPost2010PropOp56
 70
     1
102
RTVSPost2010Prop57
140
1.0
102
RTVSPost2010PropOp57
 70
     1
102
RTVSPropertyOp0
 70
     1
102
RTVSPropertyOp1
 70
     1
102
RTVSPropertyOp2
 70
     1
102
RTVSPropertyOp3
 70
     1
102
RTVSPropertyOp4
 70
     1
102
RTVSPropertyOp5
 70
     1
102
RTVSPropertyOp6
 70
     1
102
RTVSPropertyOp7
 70
     1
102
RTVSPropertyOp8
 70
     1
102
RTVSPropertyOp9
 70
     1
102
RTVSPropertyOp10
 70
     1
102
RTVSPropertyOp11
 70
     1
102
RTVSPropertyOp12
 70
     1
102
RTVSPropertyOp13
 70
     1
102
RTVSPropertyOp14
 70
     1
102
RTVSPropertyOp15
 70
     1
102
RTVSPropertyOp16
 70
     1
102
RTVSPropertyOp17
 70
     1
102
RTVSPropertyOp18
 70
     1
102
RTVSPropertyOp19
 70
     1
102
RTVSPropertyOp20
 70
     1
102
RTVSPropertyOp21
 70
     1
102
RTVSPropertyOp22
 70
     1
102
RTVSPropertyOp23
 70
     1
102
RTVSPropertyOp24
 70
     1
102
RTVSPropertyOp25
 70
     1
102
RTVSPropertyOp26
 70
     1
102
RTVSPropertyOp27
 70
     1
102
RTVSPropertyOp28
 70
     1
102
RTVSPropertyOp29
 70
     1
102
RTVSPropertyOp30
 70
     1
102
RTVSPropertyOp31
 70
     1
102
RTVSPropertyOp32
 70
     1
102
RTVSPropertyOp33
 70
     1
102
RTVSPropertyOp34
 70
     1
102
RTVSPropertyOp35
 70
     1
102
RTVSPropertyOp36
 70
     1
102
RTVSPropertyOp37
 70
     1
102
RTVSPropertyOp38
 70
     1
102
RTVSPropertyOp39
 70
     1
102
RTVSPropertyOp40
 70
     1
102
RTVSPropertyOp41
 70
     1
102
RTVSPropertyOp42
 70
     1
102
RTVSPropertyOp43
 70
     1
102
RTVSPropertyOp44
 70
     1
102
RTVSPropertyOp45
 70
     1
102
RTVSPropertyOp46
 70
     1
102
RTVSPropertyOp47
 70
     1
102
RTVSPropertyOp48
 70
     1
102
RTVSPropertyOp49
 70
     1
102
RTVSPropertyOp50
 70
     1
102
RTVSPropertyOp51
 70
     0
102
RTVSPropertyOp52
 70
     0
102
RTVSPropertyOp53
 70
     1
102
RTVSPropertyOp54
 70
     1
102
RTVSPropertyOp55
 70
     1
102
RTVSPropertyOp56
 70
     1
102
RTVSPropertyOp57
 70
     1
102
RTVSPropertyOp58
 70
     1
102
RTVSPropertyOp59
 70
     1
102
RTVSPropertyOp60
 70
     1
102
RTVSPropertyOp61
 70
     1
102
RTVSPropertyOp62
 70
     1
  0
XRECORD
  5
17F47
102
{ACAD_REACTORS
330
17F46
102
}
330
17F46
100
AcDbXrecord
280
     1
102
RTVSPost2010Prop28
280
     0
102
RTVSPost2010PropOp28
 70
     1
102
RTVSPost2010Prop29
280
     1
102
RTVSPost2010PropOp29
 70
     1
102
RTVSPost2010Prop30
280
     1
102
RTVSPost2010PropOp30
 70
     1
102
RTVSPost2010Prop31
280
     0
102
RTVSPost2010PropOp31
 70
     1
102
RTVSPost2010Prop32
280
     0
102
RTVSPost2010PropOp32
 70
     1
102
RTVSPost2010Prop33
280
     0
102
RTVSPost2010PropOp33
 70
     1
102
RTVSPost2010Prop34
280
     0
102
RTVSPost2010PropOp34
 70
     1
102
RTVSPost2010Prop35
280
     0
102
RTVSPost2010PropOp35
 70
     1
102
RTVSPost2010Prop36
280
     0
102
RTVSPost2010PropOp36
 70
     1
102
RTVSPost2010Prop37
 90
       50
102
RTVSPost2010PropOp37
 70
     1
102
RTVSPost2010Prop38
140
0.0
102
RTVSPost2010PropOp38
 70
     1
102
RTVSPost2010Prop39
140
1.0
102
RTVSPost2010PropOp39
 70
     1
102
RTVSPost2010Prop40
 90
        0
102
RTVSPost2010PropOp40
 70
     1
102
RTVSPost2010Prop41ColorIndex
 90
       18
102
RTVSPost2010Prop41ColorRGB
 90
        0
102
RTVSPost2010PropOp41
 70
     1
102
RTVSPost2010Prop42
 90
       50
102
RTVSPost2010PropOp42
 70
     1
102
RTVSPost2010Prop43
 90
        3
102
RTVSPost2010PropOp43
 70
     1
102
RTVSPost2010Prop44ColorIndex
 90
        5
102
RTVSPost2010Prop44ColorRGB
 90
      255
102
RTVSPost2010PropOp44
 70
     1
102
RTVSPost2010Prop45
280
     0
102
RTVSPost2010PropOp45
 70
     1
102
RTVSPost2010Prop46
 90
       50
102
RTVSPost2010PropOp46
 70
     1
102
RTVSPost2010Prop47
 90
       50
102
RTVSPost2010PropOp47
 70
     1
102
RTVSPost2010Prop48
 90
       50
102
RTVSPost2010PropOp48
 70
     1
102
RTVSPost2010Prop49
280
     0
102
RTVSPost2010PropOp49
 70
     1
102
RTVSPost2010Prop50
 90
       50
102
RTVSPost2010PropOp50
 70
     1
102
RTVSPost2010Prop51ColorIndex
 90
      256
102
RTVSPost2010Prop51ColorRGB
 90
-16777216
102
RTVSPost2010PropOp51
 70
     0
102
RTVSPost2010Prop52
140
1.0
102
RTVSPost2010PropOp52
 70
     0
102
RTVSPost2010Prop53
 90
        2
102
RTVSPost2010PropOp53
 70
     1
102
RTVSPost2010Prop54
  1
strokes_ogs.tif
102
RTVSPost2010PropOp54
 70
     1
102
RTVSPost2010Prop55
280
     0
102
RTVSPost2010PropOp55
 70
     1
102
RTVSPost2010Prop56
140
1.0
102
RTVSPost2010PropOp56
 70
     1
102
RTVSPost2010Prop57
140
1.0
102
RTVSPost2010PropOp57
 70
     1
102
RTVSPropertyOp0
 70
     1
102
RTVSPropertyOp1
 70
     1
102
RTVSPropertyOp2
 70
     1
102
RTVSPropertyOp3
 70
     1
102
RTVSPropertyOp4
 70
     1
102
RTVSPropertyOp5
 70
     1
102
RTVSPropertyOp6
 70
     1
102
RTVSPropertyOp7
 70
     1
102
RTVSPropertyOp8
 70
     1
102
RTVSPropertyOp9
 70
     1
102
RTVSPropertyOp10
 70
     1
102
RTVSPropertyOp11
 70
     1
102
RTVSPropertyOp12
 70
     1
102
RTVSPropertyOp13
 70
     1
102
RTVSPropertyOp14
 70
     1
102
RTVSPropertyOp15
 70
     1
102
RTVSPropertyOp16
 70
     1
102
RTVSPropertyOp17
 70
     1
102
RTVSPropertyOp18
 70
     1
102
RTVSPropertyOp19
 70
     1
102
RTVSPropertyOp20
 70
     1
102
RTVSPropertyOp21
 70
     1
102
RTVSPropertyOp22
 70
     1
102
RTVSPropertyOp23
 70
     1
102
RTVSPropertyOp24
 70
     1
102
RTVSPropertyOp25
 70
     1
102
RTVSPropertyOp26
 70
     1
102
RTVSPropertyOp27
 70
     1
102
RTVSPropertyOp28
 70
     1
102
RTVSPropertyOp29
 70
     1
102
RTVSPropertyOp30
 70
     1
102
RTVSPropertyOp31
 70
     1
102
RTVSPropertyOp32
 70
     1
102
RTVSPropertyOp33
 70
     1
102
RTVSPropertyOp34
 70
     1
102
RTVSPropertyOp35
 70
     1
102
RTVSPropertyOp36
 70
     1
102
RTVSPropertyOp37
 70
     1
102
RTVSPropertyOp38
 70
     1
102
RTVSPropertyOp39
 70
     1
102
RTVSPropertyOp40
 70
     1
102
RTVSPropertyOp41
 70
     1
102
RTVSPropertyOp42
 70
     1
102
RTVSPropertyOp43
 70
     1
102
RTVSPropertyOp44
 70
     1
102
RTVSPropertyOp45
 70
     1
102
RTVSPropertyOp46
 70
     1
102
RTVSPropertyOp47
 70
     1
102
RTVSPropertyOp48
 70
     1
102
RTVSPropertyOp49
 70
     1
102
RTVSPropertyOp50
 70
     1
102
RTVSPropertyOp51
 70
     0
102
RTVSPropertyOp52
 70
     0
102
RTVSPropertyOp53
 70
     1
102
RTVSPropertyOp54
 70
     1
102
RTVSPropertyOp55
 70
     1
102
RTVSPropertyOp56
 70
     1
102
RTVSPropertyOp57
 70
     1
102
RTVSPropertyOp58
 70
     1
102
RTVSPropertyOp59
 70
     1
102
RTVSPropertyOp60
 70
     1
102
RTVSPropertyOp61
 70
     1
102
RTVSPropertyOp62
 70
     1
  0
XRECORD
  5
17F49
102
{ACAD_REACTORS
330
17F48
102
}
330
17F48
100
AcDbXrecord
280
     1
102
RTVSPost2010Prop28
280
     0
102
RTVSPost2010PropOp28
 70
     1
102
RTVSPost2010Prop29
280
     1
102
RTVSPost2010PropOp29
 70
     1
102
RTVSPost2010Prop30
280
     1
102
RTVSPost2010PropOp30
 70
     1
102
RTVSPost2010Prop31
280
     0
102
RTVSPost2010PropOp31
 70
     1
102
RTVSPost2010Prop32
280
     0
102
RTVSPost2010PropOp32
 70
     1
102
RTVSPost2010Prop33
280
     0
102
RTVSPost2010PropOp33
 70
     1
102
RTVSPost2010Prop34
280
     0
102
RTVSPost2010PropOp34
 70
     1
102
RTVSPost2010Prop35
280
     0
102
RTVSPost2010PropOp35
 70
     1
102
RTVSPost2010Prop36
280
     0
102
RTVSPost2010PropOp36
 70
     1
102
RTVSPost2010Prop37
 90
       50
102
RTVSPost2010PropOp37
 70
     1
102
RTVSPost2010Prop38
140
0.0
102
RTVSPost2010PropOp38
 70
     1
102
RTVSPost2010Prop39
140
1.0
102
RTVSPost2010PropOp39
 70
     1
102
RTVSPost2010Prop40
 90
        0
102
RTVSPost2010PropOp40
 70
     1
102
RTVSPost2010Prop41ColorIndex
 90
       18
102
RTVSPost2010Prop41ColorRGB
 90
        0
102
RTVSPost2010PropOp41
 70
     1
102
RTVSPost2010Prop42
 90
       50
102
RTVSPost2010PropOp42
 70
     1
102
RTVSPost2010Prop43
 90
        3
102
RTVSPost2010PropOp43
 70
     1
102
RTVSPost2010Prop44ColorIndex
 90
        5
102
RTVSPost2010Prop44ColorRGB
 90
      255
102
RTVSPost2010PropOp44
 70
     1
102
RTVSPost2010Prop45
280
     0
102
RTVSPost2010PropOp45
 70
     1
102
RTVSPost2010Prop46
 90
       50
102
RTVSPost2010PropOp46
 70
     1
102
RTVSPost2010Prop47
 90
       50
102
RTVSPost2010PropOp47
 70
     1
102
RTVSPost2010Prop48
 90
       50
102
RTVSPost2010PropOp48
 70
     1
102
RTVSPost2010Prop49
280
     0
102
RTVSPost2010PropOp49
 70
     1
102
RTVSPost2010Prop50
 90
       50
102
RTVSPost2010PropOp50
 70
     1
102
RTVSPost2010Prop51ColorIndex
 90
      256
102
RTVSPost2010Prop51ColorRGB
 90
-16777216
102
RTVSPost2010PropOp51
 70
     0
102
RTVSPost2010Prop52
140
1.0
102
RTVSPost2010PropOp52
 70
     0
102
RTVSPost2010Prop53
 90
        2
102
RTVSPost2010PropOp53
 70
     1
102
RTVSPost2010Prop54
  1
strokes_ogs.tif
102
RTVSPost2010PropOp54
 70
     1
102
RTVSPost2010Prop55
280
     0
102
RTVSPost2010PropOp55
 70
     1
102
RTVSPost2010Prop56
140
1.0
102
RTVSPost2010PropOp56
 70
     1
102
RTVSPost2010Prop57
140
1.0
102
RTVSPost2010PropOp57
 70
     1
102
RTVSPropertyOp0
 70
     1
102
RTVSPropertyOp1
 70
     1
102
RTVSPropertyOp2
 70
     1
102
RTVSPropertyOp3
 70
     1
102
RTVSPropertyOp4
 70
     1
102
RTVSPropertyOp5
 70
     1
102
RTVSPropertyOp6
 70
     1
102
RTVSPropertyOp7
 70
     1
102
RTVSPropertyOp8
 70
     1
102
RTVSPropertyOp9
 70
     1
102
RTVSPropertyOp10
 70
     1
102
RTVSPropertyOp11
 70
     1
102
RTVSPropertyOp12
 70
     1
102
RTVSPropertyOp13
 70
     1
102
RTVSPropertyOp14
 70
     1
102
RTVSPropertyOp15
 70
     1
102
RTVSPropertyOp16
 70
     1
102
RTVSPropertyOp17
 70
     1
102
RTVSPropertyOp18
 70
     1
102
RTVSPropertyOp19
 70
     1
102
RTVSPropertyOp20
 70
     1
102
RTVSPropertyOp21
 70
     1
102
RTVSPropertyOp22
 70
     1
102
RTVSPropertyOp23
 70
     1
102
RTVSPropertyOp24
 70
     1
102
RTVSPropertyOp25
 70
     1
102
RTVSPropertyOp26
 70
     1
102
RTVSPropertyOp27
 70
     1
102
RTVSPropertyOp28
 70
     1
102
RTVSPropertyOp29
 70
     1
102
RTVSPropertyOp30
 70
     1
102
RTVSPropertyOp31
 70
     1
102
RTVSPropertyOp32
 70
     1
102
RTVSPropertyOp33
 70
     1
102
RTVSPropertyOp34
 70
     1
102
RTVSPropertyOp35
 70
     1
102
RTVSPropertyOp36
 70
     1
102
RTVSPropertyOp37
 70
     1
102
RTVSPropertyOp38
 70
     1
102
RTVSPropertyOp39
 70
     1
102
RTVSPropertyOp40
 70
     1
102
RTVSPropertyOp41
 70
     1
102
RTVSPropertyOp42
 70
     1
102
RTVSPropertyOp43
 70
     1
102
RTVSPropertyOp44
 70
     1
102
RTVSPropertyOp45
 70
     1
102
RTVSPropertyOp46
 70
     1
102
RTVSPropertyOp47
 70
     1
102
RTVSPropertyOp48
 70
     1
102
RTVSPropertyOp49
 70
     1
102
RTVSPropertyOp50
 70
     1
102
RTVSPropertyOp51
 70
     0
102
RTVSPropertyOp52
 70
     0
102
RTVSPropertyOp53
 70
     1
102
RTVSPropertyOp54
 70
     1
102
RTVSPropertyOp55
 70
     1
102
RTVSPropertyOp56
 70
     1
102
RTVSPropertyOp57
 70
     1
102
RTVSPropertyOp58
 70
     1
102
RTVSPropertyOp59
 70
     1
102
RTVSPropertyOp60
 70
     1
102
RTVSPropertyOp61
 70
     1
102
RTVSPropertyOp62
 70
     1
  0
XRECORD
  5
17F4B
102
{ACAD_REACTORS
330
17F4A
102
}
330
17F4A
100
AcDbXrecord
280
     1
102
RTVSPost2010Prop28
280
     0
102
RTVSPost2010PropOp28
 70
     1
102
RTVSPost2010Prop29
280
     1
102
RTVSPost2010PropOp29
 70
     1
102
RTVSPost2010Prop30
280
     1
102
RTVSPost2010PropOp30
 70
     1
102
RTVSPost2010Prop31
280
     0
102
RTVSPost2010PropOp31
 70
     1
102
RTVSPost2010Prop32
280
     0
102
RTVSPost2010PropOp32
 70
     1
102
RTVSPost2010Prop33
280
     0
102
RTVSPost2010PropOp33
 70
     1
102
RTVSPost2010Prop34
280
     0
102
RTVSPost2010PropOp34
 70
     1
102
RTVSPost2010Prop35
280
     0
102
RTVSPost2010PropOp35
 70
     1
102
RTVSPost2010Prop36
280
     0
102
RTVSPost2010PropOp36
 70
     1
102
RTVSPost2010Prop37
 90
       50
102
RTVSPost2010PropOp37
 70
     1
102
RTVSPost2010Prop38
140
0.0
102
RTVSPost2010PropOp38
 70
     1
102
RTVSPost2010Prop39
140
1.0
102
RTVSPost2010PropOp39
 70
     1
102
RTVSPost2010Prop40
 90
        0
102
RTVSPost2010PropOp40
 70
     1
102
RTVSPost2010Prop41ColorIndex
 90
       18
102
RTVSPost2010Prop41ColorRGB
 90
        0
102
RTVSPost2010PropOp41
 70
     1
102
RTVSPost2010Prop42
 90
       50
102
RTVSPost2010PropOp42
 70
     1
102
RTVSPost2010Prop43
 90
        3
102
RTVSPost2010PropOp43
 70
     1
102
RTVSPost2010Prop44ColorIndex
 90
        5
102
RTVSPost2010Prop44ColorRGB
 90
      255
102
RTVSPost2010PropOp44
 70
     1
102
RTVSPost2010Prop45
280
     0
102
RTVSPost2010PropOp45
 70
     1
102
RTVSPost2010Prop46
 90
       50
102
RTVSPost2010PropOp46
 70
     1
102
RTVSPost2010Prop47
 90
       50
102
RTVSPost2010PropOp47
 70
     1
102
RTVSPost2010Prop48
 90
       50
102
RTVSPost2010PropOp48
 70
     1
102
RTVSPost2010Prop49
280
     0
102
RTVSPost2010PropOp49
 70
     1
102
RTVSPost2010Prop50
 90
       50
102
RTVSPost2010PropOp50
 70
     1
102
RTVSPost2010Prop51ColorIndex
 90
      256
102
RTVSPost2010Prop51ColorRGB
 90
-16777216
102
RTVSPost2010PropOp51
 70
     0
102
RTVSPost2010Prop52
140
1.0
102
RTVSPost2010PropOp52
 70
     0
102
RTVSPost2010Prop53
 90
        2
102
RTVSPost2010PropOp53
 70
     1
102
RTVSPost2010Prop54
  1
strokes_ogs.tif
102
RTVSPost2010PropOp54
 70
     1
102
RTVSPost2010Prop55
280
     0
102
RTVSPost2010PropOp55
 70
     1
102
RTVSPost2010Prop56
140
1.0
102
RTVSPost2010PropOp56
 70
     1
102
RTVSPost2010Prop57
140
1.0
102
RTVSPost2010PropOp57
 70
     1
102
RTVSPropertyOp0
 70
     1
102
RTVSPropertyOp1
 70
     1
102
RTVSPropertyOp2
 70
     1
102
RTVSPropertyOp3
 70
     1
102
RTVSPropertyOp4
 70
     1
102
RTVSPropertyOp5
 70
     1
102
RTVSPropertyOp6
 70
     1
102
RTVSPropertyOp7
 70
     1
102
RTVSPropertyOp8
 70
     1
102
RTVSPropertyOp9
 70
     1
102
RTVSPropertyOp10
 70
     1
102
RTVSPropertyOp11
 70
     1
102
RTVSPropertyOp12
 70
     1
102
RTVSPropertyOp13
 70
     1
102
RTVSPropertyOp14
 70
     1
102
RTVSPropertyOp15
 70
     1
102
RTVSPropertyOp16
 70
     1
102
RTVSPropertyOp17
 70
     1
102
RTVSPropertyOp18
 70
     1
102
RTVSPropertyOp19
 70
     1
102
RTVSPropertyOp20
 70
     1
102
RTVSPropertyOp21
 70
     1
102
RTVSPropertyOp22
 70
     1
102
RTVSPropertyOp23
 70
     1
102
RTVSPropertyOp24
 70
     1
102
RTVSPropertyOp25
 70
     1
102
RTVSPropertyOp26
 70
     1
102
RTVSPropertyOp27
 70
     1
102
RTVSPropertyOp28
 70
     1
102
RTVSPropertyOp29
 70
     1
102
RTVSPropertyOp30
 70
     1
102
RTVSPropertyOp31
 70
     1
102
RTVSPropertyOp32
 70
     1
102
RTVSPropertyOp33
 70
     1
102
RTVSPropertyOp34
 70
     1
102
RTVSPropertyOp35
 70
     1
102
RTVSPropertyOp36
 70
     1
102
RTVSPropertyOp37
 70
     1
102
RTVSPropertyOp38
 70
     1
102
RTVSPropertyOp39
 70
     1
102
RTVSPropertyOp40
 70
     1
102
RTVSPropertyOp41
 70
     1
102
RTVSPropertyOp42
 70
     1
102
RTVSPropertyOp43
 70
     1
102
RTVSPropertyOp44
 70
     1
102
RTVSPropertyOp45
 70
     1
102
RTVSPropertyOp46
 70
     1
102
RTVSPropertyOp47
 70
     1
102
RTVSPropertyOp48
 70
     1
102
RTVSPropertyOp49
 70
     1
102
RTVSPropertyOp50
 70
     1
102
RTVSPropertyOp51
 70
     0
102
RTVSPropertyOp52
 70
     0
102
RTVSPropertyOp53
 70
     1
102
RTVSPropertyOp54
 70
     1
102
RTVSPropertyOp55
 70
     1
102
RTVSPropertyOp56
 70
     1
102
RTVSPropertyOp57
 70
     1
102
RTVSPropertyOp58
 70
     1
102
RTVSPropertyOp59
 70
     1
102
RTVSPropertyOp60
 70
     1
102
RTVSPropertyOp61
 70
     1
102
RTVSPropertyOp62
 70
     1
  0
XRECORD
  5
17F53
102
{ACAD_REACTORS
330
17F52
102
}
330
17F52
100
AcDbXrecord
280
     1
102
RTVSPost2010Prop28
280
     0
102
RTVSPost2010PropOp28
 70
     1
102
RTVSPost2010Prop29
280
     1
102
RTVSPost2010PropOp29
 70
     1
102
RTVSPost2010Prop30
280
     1
102
RTVSPost2010PropOp30
 70
     1
102
RTVSPost2010Prop31
280
     0
102
RTVSPost2010PropOp31
 70
     1
102
RTVSPost2010Prop32
280
     0
102
RTVSPost2010PropOp32
 70
     1
102
RTVSPost2010Prop33
280
     0
102
RTVSPost2010PropOp33
 70
     1
102
RTVSPost2010Prop34
280
     0
102
RTVSPost2010PropOp34
 70
     1
102
RTVSPost2010Prop35
280
     0
102
RTVSPost2010PropOp35
 70
     1
102
RTVSPost2010Prop36
280
     0
102
RTVSPost2010PropOp36
 70
     1
102
RTVSPost2010Prop37
 90
       50
102
RTVSPost2010PropOp37
 70
     1
102
RTVSPost2010Prop38
140
0.0
102
RTVSPost2010PropOp38
 70
     1
102
RTVSPost2010Prop39
140
1.0
102
RTVSPost2010PropOp39
 70
     1
102
RTVSPost2010Prop40
 90
        0
102
RTVSPost2010PropOp40
 70
     1
102
RTVSPost2010Prop41ColorIndex
 90
       18
102
RTVSPost2010Prop41ColorRGB
 90
        0
102
RTVSPost2010PropOp41
 70
     1
102
RTVSPost2010Prop42
 90
       50
102
RTVSPost2010PropOp42
 70
     1
102
RTVSPost2010Prop43
 90
        3
102
RTVSPost2010PropOp43
 70
     1
102
RTVSPost2010Prop44ColorIndex
 90
        5
102
RTVSPost2010Prop44ColorRGB
 90
      255
102
RTVSPost2010PropOp44
 70
     1
102
RTVSPost2010Prop45
280
     0
102
RTVSPost2010PropOp45
 70
     1
102
RTVSPost2010Prop46
 90
       50
102
RTVSPost2010PropOp46
 70
     1
102
RTVSPost2010Prop47
 90
       50
102
RTVSPost2010PropOp47
 70
     1
102
RTVSPost2010Prop48
 90
       50
102
RTVSPost2010PropOp48
 70
     1
102
RTVSPost2010Prop49
280
     0
102
RTVSPost2010PropOp49
 70
     1
102
RTVSPost2010Prop50
 90
       50
102
RTVSPost2010PropOp50
 70
     1
102
RTVSPost2010Prop51ColorIndex
 90
      256
102
RTVSPost2010Prop51ColorRGB
 90
-16777216
102
RTVSPost2010PropOp51
 70
     0
102
RTVSPost2010Prop52
140
1.0
102
RTVSPost2010PropOp52
 70
     0
102
RTVSPost2010Prop53
 90
        2
102
RTVSPost2010PropOp53
 70
     1
102
RTVSPost2010Prop54
  1
strokes_ogs.tif
102
RTVSPost2010PropOp54
 70
     1
102
RTVSPost2010Prop55
280
     0
102
RTVSPost2010PropOp55
 70
     1
102
RTVSPost2010Prop56
140
1.0
102
RTVSPost2010PropOp56
 70
     1
102
RTVSPost2010Prop57
140
1.0
102
RTVSPost2010PropOp57
 70
     1
102
RTVSPropertyOp0
 70
     1
102
RTVSPropertyOp1
 70
     1
102
RTVSPropertyOp2
 70
     1
102
RTVSPropertyOp3
 70
     1
102
RTVSPropertyOp4
 70
     1
102
RTVSPropertyOp5
 70
     1
102
RTVSPropertyOp6
 70
     1
102
RTVSPropertyOp7
 70
     1
102
RTVSPropertyOp8
 70
     1
102
RTVSPropertyOp9
 70
     1
102
RTVSPropertyOp10
 70
     1
102
RTVSPropertyOp11
 70
     1
102
RTVSPropertyOp12
 70
     1
102
RTVSPropertyOp13
 70
     1
102
RTVSPropertyOp14
 70
     1
102
RTVSPropertyOp15
 70
     1
102
RTVSPropertyOp16
 70
     1
102
RTVSPropertyOp17
 70
     1
102
RTVSPropertyOp18
 70
     1
102
RTVSPropertyOp19
 70
     1
102
RTVSPropertyOp20
 70
     1
102
RTVSPropertyOp21
 70
     1
102
RTVSPropertyOp22
 70
     1
102
RTVSPropertyOp23
 70
     1
102
RTVSPropertyOp24
 70
     1
102
RTVSPropertyOp25
 70
     1
102
RTVSPropertyOp26
 70
     1
102
RTVSPropertyOp27
 70
     1
102
RTVSPropertyOp28
 70
     1
102
RTVSPropertyOp29
 70
     1
102
RTVSPropertyOp30
 70
     1
102
RTVSPropertyOp31
 70
     1
102
RTVSPropertyOp32
 70
     1
102
RTVSPropertyOp33
 70
     1
102
RTVSPropertyOp34
 70
     1
102
RTVSPropertyOp35
 70
     1
102
RTVSPropertyOp36
 70
     1
102
RTVSPropertyOp37
 70
     1
102
RTVSPropertyOp38
 70
     1
102
RTVSPropertyOp39
 70
     1
102
RTVSPropertyOp40
 70
     1
102
RTVSPropertyOp41
 70
     1
102
RTVSPropertyOp42
 70
     1
102
RTVSPropertyOp43
 70
     1
102
RTVSPropertyOp44
 70
     1
102
RTVSPropertyOp45
 70
     1
102
RTVSPropertyOp46
 70
     1
102
RTVSPropertyOp47
 70
     1
102
RTVSPropertyOp48
 70
     1
102
RTVSPropertyOp49
 70
     1
102
RTVSPropertyOp50
 70
     1
102
RTVSPropertyOp51
 70
     0
102
RTVSPropertyOp52
 70
     0
102
RTVSPropertyOp53
 70
     1
102
RTVSPropertyOp54
 70
     1
102
RTVSPropertyOp55
 70
     1
102
RTVSPropertyOp56
 70
     1
102
RTVSPropertyOp57
 70
     1
102
RTVSPropertyOp58
 70
     1
102
RTVSPropertyOp59
 70
     1
102
RTVSPropertyOp60
 70
     1
102
RTVSPropertyOp61
 70
     1
102
RTVSPropertyOp62
 70
     1
  0
XRECORD
  5
17F6F
102
{ACAD_REACTORS
330
17F6E
102
}
330
17F6E
100
AcDbXrecord
280
     1
102
RTVSPost2010Prop28
280
     0
102
RTVSPost2010PropOp28
 70
     0
102
RTVSPost2010Prop29
280
     1
102
RTVSPost2010PropOp29
 70
     0
102
RTVSPost2010Prop30
280
     1
102
RTVSPost2010PropOp30
 70
     0
102
RTVSPost2010Prop31
280
     0
102
RTVSPost2010PropOp31
 70
     0
102
RTVSPost2010Prop32
280
     0
102
RTVSPost2010PropOp32
 70
     0
102
RTVSPost2010Prop33
280
     0
102
RTVSPost2010PropOp33
 70
     0
102
RTVSPost2010Prop34
280
     0
102
RTVSPost2010PropOp34
 70
     0
102
RTVSPost2010Prop35
280
     0
102
RTVSPost2010PropOp35
 70
     0
102
RTVSPost2010Prop36
280
     0
102
RTVSPost2010PropOp36
 70
     0
102
RTVSPost2010Prop37
 90
       50
102
RTVSPost2010PropOp37
 70
     0
102
RTVSPost2010Prop38
140
0.0
102
RTVSPost2010PropOp38
 70
     0
102
RTVSPost2010Prop39
140
1.0
102
RTVSPost2010PropOp39
 70
     0
102
RTVSPost2010Prop40
 90
        0
102
RTVSPost2010PropOp40
 70
     0
102
RTVSPost2010Prop41ColorIndex
 90
       18
102
RTVSPost2010Prop41ColorRGB
 90
        0
102
RTVSPost2010PropOp41
 70
     0
102
RTVSPost2010Prop42
 90
       50
102
RTVSPost2010PropOp42
 70
     0
102
RTVSPost2010Prop43
 90
        3
102
RTVSPost2010PropOp43
 70
     0
102
RTVSPost2010Prop44ColorIndex
 90
        5
102
RTVSPost2010Prop44ColorRGB
 90
      255
102
RTVSPost2010PropOp44
 70
     0
102
RTVSPost2010Prop45
280
     0
102
RTVSPost2010PropOp45
 70
     0
102
RTVSPost2010Prop46
 90
       50
102
RTVSPost2010PropOp46
 70
     0
102
RTVSPost2010Prop47
 90
       50
102
RTVSPost2010PropOp47
 70
     0
102
RTVSPost2010Prop48
 90
       50
102
RTVSPost2010PropOp48
 70
     0
102
RTVSPost2010Prop49
280
     0
102
RTVSPost2010PropOp49
 70
     0
102
RTVSPost2010Prop50
 90
       50
102
RTVSPost2010PropOp50
 70
     0
102
RTVSPost2010Prop51ColorIndex
 90
      256
102
RTVSPost2010Prop51ColorRGB
 90
-16777216
102
RTVSPost2010PropOp51
 70
     0
102
RTVSPost2010Prop52
140
1.0
102
RTVSPost2010PropOp52
 70
     0
102
RTVSPost2010Prop53
 90
        2
102
RTVSPost2010PropOp53
 70
     0
102
RTVSPost2010Prop54
  1
strokes_ogs.tif
102
RTVSPost2010PropOp54
 70
     0
102
RTVSPost2010Prop55
280
     0
102
RTVSPost2010PropOp55
 70
     0
102
RTVSPost2010Prop56
140
1.0
102
RTVSPost2010PropOp56
 70
     0
102
RTVSPost2010Prop57
140
1.0
102
RTVSPost2010PropOp57
 70
     0
102
RTVSPropertyOp0
 70
     0
102
RTVSPropertyOp1
 70
     0
102
RTVSPropertyOp2
 70
     0
102
RTVSPropertyOp3
 70
     0
102
RTVSPropertyOp4
 70
     0
102
RTVSPropertyOp5
 70
     0
102
RTVSPropertyOp6
 70
     0
102
RTVSPropertyOp7
 70
     0
102
RTVSPropertyOp8
 70
     0
102
RTVSPropertyOp9
 70
     0
102
RTVSPropertyOp10
 70
     0
102
RTVSPropertyOp11
 70
     0
102
RTVSPropertyOp12
 70
     0
102
RTVSPropertyOp13
 70
     0
102
RTVSPropertyOp14
 70
     2
102
RTVSPropertyOp15
 70
     0
102
RTVSPropertyOp16
 70
     0
102
RTVSPropertyOp17
 70
     0
102
RTVSPropertyOp18
 70
     0
102
RTVSPropertyOp19
 70
     0
102
RTVSPropertyOp20
 70
     0
102
RTVSPropertyOp21
 70
     0
102
RTVSPropertyOp22
 70
     0
102
RTVSPropertyOp23
 70
     0
102
RTVSPropertyOp24
 70
     0
102
RTVSPropertyOp25
 70
     0
102
RTVSPropertyOp26
 70
     0
102
RTVSPropertyOp27
 70
     0
102
RTVSPropertyOp28
 70
     0
102
RTVSPropertyOp29
 70
     0
102
RTVSPropertyOp30
 70
     0
102
RTVSPropertyOp31
 70
     0
102
RTVSPropertyOp32
 70
     0
102
RTVSPropertyOp33
 70
     0
102
RTVSPropertyOp34
 70
     0
102
RTVSPropertyOp35
 70
     0
102
RTVSPropertyOp36
 70
     0
102
RTVSPropertyOp37
 70
     0
102
RTVSPropertyOp38
 70
     0
102
RTVSPropertyOp39
 70
     0
102
RTVSPropertyOp40
 70
     0
102
RTVSPropertyOp41
 70
     0
102
RTVSPropertyOp42
 70
     0
102
RTVSPropertyOp43
 70
     0
102
RTVSPropertyOp44
 70
     0
102
RTVSPropertyOp45
 70
     0
102
RTVSPropertyOp46
 70
     0
102
RTVSPropertyOp47
 70
     0
102
RTVSPropertyOp48
 70
     0
102
RTVSPropertyOp49
 70
     0
102
RTVSPropertyOp50
 70
     0
102
RTVSPropertyOp51
 70
     0
102
RTVSPropertyOp52
 70
     0
102
RTVSPropertyOp53
 70
     0
102
RTVSPropertyOp54
 70
     0
102
RTVSPropertyOp55
 70
     0
102
RTVSPropertyOp56
 70
     0
102
RTVSPropertyOp57
 70
     0
102
RTVSPropertyOp58
 70
     1
102
RTVSPropertyOp59
 70
     1
102
RTVSPropertyOp60
 70
     1
102
RTVSPropertyOp61
 70
     1
102
RTVSPropertyOp62
 70
     1
  0
XRECORD
  5
17F5F
102
{ACAD_REACTORS
330
17F5E
102
}
330
17F5E
100
AcDbXrecord
280
     1
102
RTVSPost2010Prop28
280
     0
102
RTVSPost2010PropOp28
 70
     1
102
RTVSPost2010Prop29
280
     1
102
RTVSPost2010PropOp29
 70
     1
102
RTVSPost2010Prop30
280
     1
102
RTVSPost2010PropOp30
 70
     1
102
RTVSPost2010Prop31
280
     0
102
RTVSPost2010PropOp31
 70
     1
102
RTVSPost2010Prop32
280
     0
102
RTVSPost2010PropOp32
 70
     1
102
RTVSPost2010Prop33
280
     0
102
RTVSPost2010PropOp33
 70
     1
102
RTVSPost2010Prop34
280
     0
102
RTVSPost2010PropOp34
 70
     1
102
RTVSPost2010Prop35
280
     0
102
RTVSPost2010PropOp35
 70
     1
102
RTVSPost2010Prop36
280
     0
102
RTVSPost2010PropOp36
 70
     1
102
RTVSPost2010Prop37
 90
       50
102
RTVSPost2010PropOp37
 70
     1
102
RTVSPost2010Prop38
140
0.0
102
RTVSPost2010PropOp38
 70
     1
102
RTVSPost2010Prop39
140
1.0
102
RTVSPost2010PropOp39
 70
     1
102
RTVSPost2010Prop40
 90
        0
102
RTVSPost2010PropOp40
 70
     1
102
RTVSPost2010Prop41ColorIndex
 90
       18
102
RTVSPost2010Prop41ColorRGB
 90
        0
102
RTVSPost2010PropOp41
 70
     1
102
RTVSPost2010Prop42
 90
       50
102
RTVSPost2010PropOp42
 70
     1
102
RTVSPost2010Prop43
 90
        3
102
RTVSPost2010PropOp43
 70
     1
102
RTVSPost2010Prop44ColorIndex
 90
        5
102
RTVSPost2010Prop44ColorRGB
 90
      255
102
RTVSPost2010PropOp44
 70
     1
102
RTVSPost2010Prop45
280
     0
102
RTVSPost2010PropOp45
 70
     1
102
RTVSPost2010Prop46
 90
       50
102
RTVSPost2010PropOp46
 70
     1
102
RTVSPost2010Prop47
 90
       50
102
RTVSPost2010PropOp47
 70
     1
102
RTVSPost2010Prop48
 90
       50
102
RTVSPost2010PropOp48
 70
     1
102
RTVSPost2010Prop49
280
     0
102
RTVSPost2010PropOp49
 70
     1
102
RTVSPost2010Prop50
 90
       50
102
RTVSPost2010PropOp50
 70
     1
102
RTVSPost2010Prop51ColorIndex
 90
      256
102
RTVSPost2010Prop51ColorRGB
 90
-16777216
102
RTVSPost2010PropOp51
 70
     0
102
RTVSPost2010Prop52
140
1.0
102
RTVSPost2010PropOp52
 70
     0
102
RTVSPost2010Prop53
 90
        2
102
RTVSPost2010PropOp53
 70
     1
102
RTVSPost2010Prop54
  1
strokes_ogs.tif
102
RTVSPost2010PropOp54
 70
     1
102
RTVSPost2010Prop55
280
     0
102
RTVSPost2010PropOp55
 70
     1
102
RTVSPost2010Prop56
140
1.0
102
RTVSPost2010PropOp56
 70
     1
102
RTVSPost2010Prop57
140
1.0
102
RTVSPost2010PropOp57
 70
     1
102
RTVSPropertyOp0
 70
     1
102
RTVSPropertyOp1
 70
     1
102
RTVSPropertyOp2
 70
     1
102
RTVSPropertyOp3
 70
     1
102
RTVSPropertyOp4
 70
     1
102
RTVSPropertyOp5
 70
     1
102
RTVSPropertyOp6
 70
     1
102
RTVSPropertyOp7
 70
     1
102
RTVSPropertyOp8
 70
     1
102
RTVSPropertyOp9
 70
     1
102
RTVSPropertyOp10
 70
     1
102
RTVSPropertyOp11
 70
     1
102
RTVSPropertyOp12
 70
     1
102
RTVSPropertyOp13
 70
     1
102
RTVSPropertyOp14
 70
     1
102
RTVSPropertyOp15
 70
     1
102
RTVSPropertyOp16
 70
     1
102
RTVSPropertyOp17
 70
     1
102
RTVSPropertyOp18
 70
     1
102
RTVSPropertyOp19
 70
     1
102
RTVSPropertyOp20
 70
     1
102
RTVSPropertyOp21
 70
     1
102
RTVSPropertyOp22
 70
     1
102
RTVSPropertyOp23
 70
     1
102
RTVSPropertyOp24
 70
     1
102
RTVSPropertyOp25
 70
     1
102
RTVSPropertyOp26
 70
     1
102
RTVSPropertyOp27
 70
     1
102
RTVSPropertyOp28
 70
     1
102
RTVSPropertyOp29
 70
     1
102
RTVSPropertyOp30
 70
     1
102
RTVSPropertyOp31
 70
     1
102
RTVSPropertyOp32
 70
     1
102
RTVSPropertyOp33
 70
     1
102
RTVSPropertyOp34
 70
     1
102
RTVSPropertyOp35
 70
     1
102
RTVSPropertyOp36
 70
     1
102
RTVSPropertyOp37
 70
     1
102
RTVSPropertyOp38
 70
     1
102
RTVSPropertyOp39
 70
     1
102
RTVSPropertyOp40
 70
     1
102
RTVSPropertyOp41
 70
     1
102
RTVSPropertyOp42
 70
     1
102
RTVSPropertyOp43
 70
     1
102
RTVSPropertyOp44
 70
     1
102
RTVSPropertyOp45
 70
     1
102
RTVSPropertyOp46
 70
     1
102
RTVSPropertyOp47
 70
     1
102
RTVSPropertyOp48
 70
     1
102
RTVSPropertyOp49
 70
     1
102
RTVSPropertyOp50
 70
     1
102
RTVSPropertyOp51
 70
     0
102
RTVSPropertyOp52
 70
     0
102
RTVSPropertyOp53
 70
     1
102
RTVSPropertyOp54
 70
     1
102
RTVSPropertyOp55
 70
     1
102
RTVSPropertyOp56
 70
     1
102
RTVSPropertyOp57
 70
     1
102
RTVSPropertyOp58
 70
     1
102
RTVSPropertyOp59
 70
     1
102
RTVSPropertyOp60
 70
     1
102
RTVSPropertyOp61
 70
     1
102
RTVSPropertyOp62
 70
     1
  0
XRECORD
  5
17F71
102
{ACAD_REACTORS
330
17F70
102
}
330
17F70
100
AcDbXrecord
280
     1
102
RTVSPost2010Prop28
280
     0
102
RTVSPost2010PropOp28
 70
     0
102
RTVSPost2010Prop29
280
     1
102
RTVSPost2010PropOp29
 70
     0
102
RTVSPost2010Prop30
280
     1
102
RTVSPost2010PropOp30
 70
     0
102
RTVSPost2010Prop31
280
     0
102
RTVSPost2010PropOp31
 70
     0
102
RTVSPost2010Prop32
280
     0
102
RTVSPost2010PropOp32
 70
     0
102
RTVSPost2010Prop33
280
     0
102
RTVSPost2010PropOp33
 70
     0
102
RTVSPost2010Prop34
280
     0
102
RTVSPost2010PropOp34
 70
     0
102
RTVSPost2010Prop35
280
     0
102
RTVSPost2010PropOp35
 70
     0
102
RTVSPost2010Prop36
280
     0
102
RTVSPost2010PropOp36
 70
     0
102
RTVSPost2010Prop37
 90
       50
102
RTVSPost2010PropOp37
 70
     0
102
RTVSPost2010Prop38
140
0.0
102
RTVSPost2010PropOp38
 70
     0
102
RTVSPost2010Prop39
140
1.0
102
RTVSPost2010PropOp39
 70
     0
102
RTVSPost2010Prop40
 90
        0
102
RTVSPost2010PropOp40
 70
     0
102
RTVSPost2010Prop41ColorIndex
 90
       18
102
RTVSPost2010Prop41ColorRGB
 90
        0
102
RTVSPost2010PropOp41
 70
     0
102
RTVSPost2010Prop42
 90
       50
102
RTVSPost2010PropOp42
 70
     0
102
RTVSPost2010Prop43
 90
        3
102
RTVSPost2010PropOp43
 70
     0
102
RTVSPost2010Prop44ColorIndex
 90
        5
102
RTVSPost2010Prop44ColorRGB
 90
      255
102
RTVSPost2010PropOp44
 70
     0
102
RTVSPost2010Prop45
280
     0
102
RTVSPost2010PropOp45
 70
     0
102
RTVSPost2010Prop46
 90
       50
102
RTVSPost2010PropOp46
 70
     0
102
RTVSPost2010Prop47
 90
       50
102
RTVSPost2010PropOp47
 70
     0
102
RTVSPost2010Prop48
 90
       50
102
RTVSPost2010PropOp48
 70
     0
102
RTVSPost2010Prop49
280
     0
102
RTVSPost2010PropOp49
 70
     0
102
RTVSPost2010Prop50
 90
       50
102
RTVSPost2010PropOp50
 70
     0
102
RTVSPost2010Prop51ColorIndex
 90
      256
102
RTVSPost2010Prop51ColorRGB
 90
-16777216
102
RTVSPost2010PropOp51
 70
     0
102
RTVSPost2010Prop52
140
1.0
102
RTVSPost2010PropOp52
 70
     0
102
RTVSPost2010Prop53
 90
        2
102
RTVSPost2010PropOp53
 70
     0
102
RTVSPost2010Prop54
  1
strokes_ogs.tif
102
RTVSPost2010PropOp54
 70
     0
102
RTVSPost2010Prop55
280
     0
102
RTVSPost2010PropOp55
 70
     0
102
RTVSPost2010Prop56
140
1.0
102
RTVSPost2010PropOp56
 70
     0
102
RTVSPost2010Prop57
140
1.0
102
RTVSPost2010PropOp57
 70
     0
102
RTVSPropertyOp0
 70
     0
102
RTVSPropertyOp1
 70
     0
102
RTVSPropertyOp2
 70
     0
102
RTVSPropertyOp3
 70
     0
102
RTVSPropertyOp4
 70
     0
102
RTVSPropertyOp5
 70
     0
102
RTVSPropertyOp6
 70
     0
102
RTVSPropertyOp7
 70
     0
102
RTVSPropertyOp8
 70
     0
102
RTVSPropertyOp9
 70
     0
102
RTVSPropertyOp10
 70
     0
102
RTVSPropertyOp11
 70
     0
102
RTVSPropertyOp12
 70
     0
102
RTVSPropertyOp13
 70
     0
102
RTVSPropertyOp14
 70
     2
102
RTVSPropertyOp15
 70
     0
102
RTVSPropertyOp16
 70
     0
102
RTVSPropertyOp17
 70
     0
102
RTVSPropertyOp18
 70
     0
102
RTVSPropertyOp19
 70
     0
102
RTVSPropertyOp20
 70
     0
102
RTVSPropertyOp21
 70
     0
102
RTVSPropertyOp22
 70
     0
102
RTVSPropertyOp23
 70
     0
102
RTVSPropertyOp24
 70
     0
102
RTVSPropertyOp25
 70
     0
102
RTVSPropertyOp26
 70
     0
102
RTVSPropertyOp27
 70
     0
102
RTVSPropertyOp28
 70
     0
102
RTVSPropertyOp29
 70
     0
102
RTVSPropertyOp30
 70
     0
102
RTVSPropertyOp31
 70
     0
102
RTVSPropertyOp32
 70
     0
102
RTVSPropertyOp33
 70
     0
102
RTVSPropertyOp34
 70
     0
102
RTVSPropertyOp35
 70
     0
102
RTVSPropertyOp36
 70
     0
102
RTVSPropertyOp37
 70
     0
102
RTVSPropertyOp38
 70
     0
102
RTVSPropertyOp39
 70
     0
102
RTVSPropertyOp40
 70
     0
102
RTVSPropertyOp41
 70
     0
102
RTVSPropertyOp42
 70
     0
102
RTVSPropertyOp43
 70
     0
102
RTVSPropertyOp44
 70
     0
102
RTVSPropertyOp45
 70
     0
102
RTVSPropertyOp46
 70
     0
102
RTVSPropertyOp47
 70
     0
102
RTVSPropertyOp48
 70
     0
102
RTVSPropertyOp49
 70
     0
102
RTVSPropertyOp50
 70
     0
102
RTVSPropertyOp51
 70
     0
102
RTVSPropertyOp52
 70
     0
102
RTVSPropertyOp53
 70
     0
102
RTVSPropertyOp54
 70
     0
102
RTVSPropertyOp55
 70
     0
102
RTVSPropertyOp56
 70
     0
102
RTVSPropertyOp57
 70
     0
102
RTVSPropertyOp58
 70
     1
102
RTVSPropertyOp59
 70
     1
102
RTVSPropertyOp60
 70
     1
102
RTVSPropertyOp61
 70
     1
102
RTVSPropertyOp62
 70
     1
  0
XRECORD
  5
17F57
102
{ACAD_REACTORS
330
17F56
102
}
330
17F56
100
AcDbXrecord
280
     1
102
RTVSPost2010Prop28
280
     0
102
RTVSPost2010PropOp28
 70
     1
102
RTVSPost2010Prop29
280
     1
102
RTVSPost2010PropOp29
 70
     1
102
RTVSPost2010Prop30
280
     1
102
RTVSPost2010PropOp30
 70
     1
102
RTVSPost2010Prop31
280
     0
102
RTVSPost2010PropOp31
 70
     1
102
RTVSPost2010Prop32
280
     0
102
RTVSPost2010PropOp32
 70
     1
102
RTVSPost2010Prop33
280
     0
102
RTVSPost2010PropOp33
 70
     1
102
RTVSPost2010Prop34
280
     0
102
RTVSPost2010PropOp34
 70
     1
102
RTVSPost2010Prop35
280
     0
102
RTVSPost2010PropOp35
 70
     1
102
RTVSPost2010Prop36
280
     0
102
RTVSPost2010PropOp36
 70
     1
102
RTVSPost2010Prop37
 90
       50
102
RTVSPost2010PropOp37
 70
     1
102
RTVSPost2010Prop38
140
0.0
102
RTVSPost2010PropOp38
 70
     1
102
RTVSPost2010Prop39
140
1.0
102
RTVSPost2010PropOp39
 70
     1
102
RTVSPost2010Prop40
 90
        0
102
RTVSPost2010PropOp40
 70
     1
102
RTVSPost2010Prop41ColorIndex
 90
       18
102
RTVSPost2010Prop41ColorRGB
 90
        0
102
RTVSPost2010PropOp41
 70
     1
102
RTVSPost2010Prop42
 90
       50
102
RTVSPost2010PropOp42
 70
     1
102
RTVSPost2010Prop43
 90
        3
102
RTVSPost2010PropOp43
 70
     1
102
RTVSPost2010Prop44ColorIndex
 90
        5
102
RTVSPost2010Prop44ColorRGB
 90
      255
102
RTVSPost2010PropOp44
 70
     1
102
RTVSPost2010Prop45
280
     0
102
RTVSPost2010PropOp45
 70
     1
102
RTVSPost2010Prop46
 90
       50
102
RTVSPost2010PropOp46
 70
     1
102
RTVSPost2010Prop47
 90
       50
102
RTVSPost2010PropOp47
 70
     1
102
RTVSPost2010Prop48
 90
       50
102
RTVSPost2010PropOp48
 70
     1
102
RTVSPost2010Prop49
280
     0
102
RTVSPost2010PropOp49
 70
     1
102
RTVSPost2010Prop50
 90
       50
102
RTVSPost2010PropOp50
 70
     1
102
RTVSPost2010Prop51ColorIndex
 90
      256
102
RTVSPost2010Prop51ColorRGB
 90
-16777216
102
RTVSPost2010PropOp51
 70
     0
102
RTVSPost2010Prop52
140
1.0
102
RTVSPost2010PropOp52
 70
     0
102
RTVSPost2010Prop53
 90
        2
102
RTVSPost2010PropOp53
 70
     1
102
RTVSPost2010Prop54
  1
strokes_ogs.tif
102
RTVSPost2010PropOp54
 70
     1
102
RTVSPost2010Prop55
280
     0
102
RTVSPost2010PropOp55
 70
     1
102
RTVSPost2010Prop56
140
1.0
102
RTVSPost2010PropOp56
 70
     1
102
RTVSPost2010Prop57
140
1.0
102
RTVSPost2010PropOp57
 70
     1
102
RTVSPropertyOp0
 70
     1
102
RTVSPropertyOp1
 70
     1
102
RTVSPropertyOp2
 70
     1
102
RTVSPropertyOp3
 70
     1
102
RTVSPropertyOp4
 70
     1
102
RTVSPropertyOp5
 70
     1
102
RTVSPropertyOp6
 70
     1
102
RTVSPropertyOp7
 70
     1
102
RTVSPropertyOp8
 70
     1
102
RTVSPropertyOp9
 70
     1
102
RTVSPropertyOp10
 70
     1
102
RTVSPropertyOp11
 70
     1
102
RTVSPropertyOp12
 70
     1
102
RTVSPropertyOp13
 70
     1
102
RTVSPropertyOp14
 70
     1
102
RTVSPropertyOp15
 70
     1
102
RTVSPropertyOp16
 70
     1
102
RTVSPropertyOp17
 70
     1
102
RTVSPropertyOp18
 70
     1
102
RTVSPropertyOp19
 70
     1
102
RTVSPropertyOp20
 70
     1
102
RTVSPropertyOp21
 70
     1
102
RTVSPropertyOp22
 70
     1
102
RTVSPropertyOp23
 70
     1
102
RTVSPropertyOp24
 70
     1
102
RTVSPropertyOp25
 70
     1
102
RTVSPropertyOp26
 70
     1
102
RTVSPropertyOp27
 70
     1
102
RTVSPropertyOp28
 70
     1
102
RTVSPropertyOp29
 70
     1
102
RTVSPropertyOp30
 70
     1
102
RTVSPropertyOp31
 70
     1
102
RTVSPropertyOp32
 70
     1
102
RTVSPropertyOp33
 70
     1
102
RTVSPropertyOp34
 70
     1
102
RTVSPropertyOp35
 70
     1
102
RTVSPropertyOp36
 70
     1
102
RTVSPropertyOp37
 70
     1
102
RTVSPropertyOp38
 70
     1
102
RTVSPropertyOp39
 70
     1
102
RTVSPropertyOp40
 70
     1
102
RTVSPropertyOp41
 70
     1
102
RTVSPropertyOp42
 70
     1
102
RTVSPropertyOp43
 70
     1
102
RTVSPropertyOp44
 70
     1
102
RTVSPropertyOp45
 70
     1
102
RTVSPropertyOp46
 70
     1
102
RTVSPropertyOp47
 70
     1
102
RTVSPropertyOp48
 70
     1
102
RTVSPropertyOp49
 70
     1
102
RTVSPropertyOp50
 70
     1
102
RTVSPropertyOp51
 70
     0
102
RTVSPropertyOp52
 70
     0
102
RTVSPropertyOp53
 70
     1
102
RTVSPropertyOp54
 70
     1
102
RTVSPropertyOp55
 70
     1
102
RTVSPropertyOp56
 70
     1
102
RTVSPropertyOp57
 70
     1
102
RTVSPropertyOp58
 70
     1
102
RTVSPropertyOp59
 70
     1
102
RTVSPropertyOp60
 70
     1
102
RTVSPropertyOp61
 70
     1
102
RTVSPropertyOp62
 70
     1
  0
XRECORD
  5
17F6D
102
{ACAD_REACTORS
330
17F6C
102
}
330
17F6C
100
AcDbXrecord
280
     1
102
RTVSPost2010Prop28
280
     0
102
RTVSPost2010PropOp28
 70
     1
102
RTVSPost2010Prop29
280
     1
102
RTVSPost2010PropOp29
 70
     1
102
RTVSPost2010Prop30
280
     1
102
RTVSPost2010PropOp30
 70
     1
102
RTVSPost2010Prop31
280
     0
102
RTVSPost2010PropOp31
 70
     1
102
RTVSPost2010Prop32
280
     0
102
RTVSPost2010PropOp32
 70
     1
102
RTVSPost2010Prop33
280
     0
102
RTVSPost2010PropOp33
 70
     1
102
RTVSPost2010Prop34
280
     0
102
RTVSPost2010PropOp34
 70
     1
102
RTVSPost2010Prop35
280
     0
102
RTVSPost2010PropOp35
 70
     1
102
RTVSPost2010Prop36
280
     0
102
RTVSPost2010PropOp36
 70
     1
102
RTVSPost2010Prop37
 90
       50
102
RTVSPost2010PropOp37
 70
     1
102
RTVSPost2010Prop38
140
0.0
102
RTVSPost2010PropOp38
 70
     1
102
RTVSPost2010Prop39
140
1.0
102
RTVSPost2010PropOp39
 70
     1
102
RTVSPost2010Prop40
 90
        0
102
RTVSPost2010PropOp40
 70
     1
102
RTVSPost2010Prop41ColorIndex
 90
       18
102
RTVSPost2010Prop41ColorRGB
 90
        0
102
RTVSPost2010PropOp41
 70
     1
102
RTVSPost2010Prop42
 90
       50
102
RTVSPost2010PropOp42
 70
     1
102
RTVSPost2010Prop43
 90
        3
102
RTVSPost2010PropOp43
 70
     1
102
RTVSPost2010Prop44ColorIndex
 90
        5
102
RTVSPost2010Prop44ColorRGB
 90
      255
102
RTVSPost2010PropOp44
 70
     1
102
RTVSPost2010Prop45
280
     0
102
RTVSPost2010PropOp45
 70
     1
102
RTVSPost2010Prop46
 90
       50
102
RTVSPost2010PropOp46
 70
     1
102
RTVSPost2010Prop47
 90
       50
102
RTVSPost2010PropOp47
 70
     1
102
RTVSPost2010Prop48
 90
       50
102
RTVSPost2010PropOp48
 70
     1
102
RTVSPost2010Prop49
280
     0
102
RTVSPost2010PropOp49
 70
     1
102
RTVSPost2010Prop50
 90
       50
102
RTVSPost2010PropOp50
 70
     1
102
RTVSPost2010Prop51ColorIndex
 90
      256
102
RTVSPost2010Prop51ColorRGB
 90
-16777216
102
RTVSPost2010PropOp51
 70
     0
102
RTVSPost2010Prop52
140
1.0
102
RTVSPost2010PropOp52
 70
     0
102
RTVSPost2010Prop53
 90
        2
102
RTVSPost2010PropOp53
 70
     1
102
RTVSPost2010Prop54
  1
strokes_ogs.tif
102
RTVSPost2010PropOp54
 70
     1
102
RTVSPost2010Prop55
280
     0
102
RTVSPost2010PropOp55
 70
     1
102
RTVSPost2010Prop56
140
1.0
102
RTVSPost2010PropOp56
 70
     1
102
RTVSPost2010Prop57
140
1.0
102
RTVSPost2010PropOp57
 70
     1
102
RTVSPropertyOp0
 70
     1
102
RTVSPropertyOp1
 70
     1
102
RTVSPropertyOp2
 70
     1
102
RTVSPropertyOp3
 70
     1
102
RTVSPropertyOp4
 70
     1
102
RTVSPropertyOp5
 70
     1
102
RTVSPropertyOp6
 70
     1
102
RTVSPropertyOp7
 70
     1
102
RTVSPropertyOp8
 70
     1
102
RTVSPropertyOp9
 70
     1
102
RTVSPropertyOp10
 70
     1
102
RTVSPropertyOp11
 70
     1
102
RTVSPropertyOp12
 70
     1
102
RTVSPropertyOp13
 70
     1
102
RTVSPropertyOp14
 70
     1
102
RTVSPropertyOp15
 70
     1
102
RTVSPropertyOp16
 70
     1
102
RTVSPropertyOp17
 70
     1
102
RTVSPropertyOp18
 70
     1
102
RTVSPropertyOp19
 70
     1
102
RTVSPropertyOp20
 70
     1
102
RTVSPropertyOp21
 70
     1
102
RTVSPropertyOp22
 70
     1
102
RTVSPropertyOp23
 70
     1
102
RTVSPropertyOp24
 70
     1
102
RTVSPropertyOp25
 70
     1
102
RTVSPropertyOp26
 70
     1
102
RTVSPropertyOp27
 70
     1
102
RTVSPropertyOp28
 70
     1
102
RTVSPropertyOp29
 70
     1
102
RTVSPropertyOp30
 70
     1
102
RTVSPropertyOp31
 70
     1
102
RTVSPropertyOp32
 70
     1
102
RTVSPropertyOp33
 70
     1
102
RTVSPropertyOp34
 70
     1
102
RTVSPropertyOp35
 70
     1
102
RTVSPropertyOp36
 70
     1
102
RTVSPropertyOp37
 70
     1
102
RTVSPropertyOp38
 70
     1
102
RTVSPropertyOp39
 70
     1
102
RTVSPropertyOp40
 70
     1
102
RTVSPropertyOp41
 70
     1
102
RTVSPropertyOp42
 70
     1
102
RTVSPropertyOp43
 70
     1
102
RTVSPropertyOp44
 70
     1
102
RTVSPropertyOp45
 70
     1
102
RTVSPropertyOp46
 70
     1
102
RTVSPropertyOp47
 70
     1
102
RTVSPropertyOp48
 70
     1
102
RTVSPropertyOp49
 70
     1
102
RTVSPropertyOp50
 70
     1
102
RTVSPropertyOp51
 70
     0
102
RTVSPropertyOp52
 70
     0
102
RTVSPropertyOp53
 70
     1
102
RTVSPropertyOp54
 70
     1
102
RTVSPropertyOp55
 70
     1
102
RTVSPropertyOp56
 70
     1
102
RTVSPropertyOp57
 70
     1
102
RTVSPropertyOp58
 70
     1
102
RTVSPropertyOp59
 70
     1
102
RTVSPropertyOp60
 70
     1
102
RTVSPropertyOp61
 70
     1
102
RTVSPropertyOp62
 70
     1
  0
XRECORD
  5
17F6B
102
{ACAD_REACTORS
330
17F6A
102
}
330
17F6A
100
AcDbXrecord
280
     1
102
RTVSPost2010Prop28
280
     0
102
RTVSPost2010PropOp28
 70
     1
102
RTVSPost2010Prop29
280
     1
102
RTVSPost2010PropOp29
 70
     1
102
RTVSPost2010Prop30
280
     1
102
RTVSPost2010PropOp30
 70
     1
102
RTVSPost2010Prop31
280
     0
102
RTVSPost2010PropOp31
 70
     1
102
RTVSPost2010Prop32
280
     0
102
RTVSPost2010PropOp32
 70
     1
102
RTVSPost2010Prop33
280
     0
102
RTVSPost2010PropOp33
 70
     1
102
RTVSPost2010Prop34
280
     0
102
RTVSPost2010PropOp34
 70
     1
102
RTVSPost2010Prop35
280
     0
102
RTVSPost2010PropOp35
 70
     1
102
RTVSPost2010Prop36
280
     0
102
RTVSPost2010PropOp36
 70
     1
102
RTVSPost2010Prop37
 90
       50
102
RTVSPost2010PropOp37
 70
     1
102
RTVSPost2010Prop38
140
0.0
102
RTVSPost2010PropOp38
 70
     1
102
RTVSPost2010Prop39
140
1.0
102
RTVSPost2010PropOp39
 70
     1
102
RTVSPost2010Prop40
 90
        0
102
RTVSPost2010PropOp40
 70
     1
102
RTVSPost2010Prop41ColorIndex
 90
       18
102
RTVSPost2010Prop41ColorRGB
 90
        0
102
RTVSPost2010PropOp41
 70
     1
102
RTVSPost2010Prop42
 90
       50
102
RTVSPost2010PropOp42
 70
     1
102
RTVSPost2010Prop43
 90
        3
102
RTVSPost2010PropOp43
 70
     1
102
RTVSPost2010Prop44ColorIndex
 90
        5
102
RTVSPost2010Prop44ColorRGB
 90
      255
102
RTVSPost2010PropOp44
 70
     1
102
RTVSPost2010Prop45
280
     0
102
RTVSPost2010PropOp45
 70
     1
102
RTVSPost2010Prop46
 90
       50
102
RTVSPost2010PropOp46
 70
     1
102
RTVSPost2010Prop47
 90
       50
102
RTVSPost2010PropOp47
 70
     1
102
RTVSPost2010Prop48
 90
       50
102
RTVSPost2010PropOp48
 70
     1
102
RTVSPost2010Prop49
280
     0
102
RTVSPost2010PropOp49
 70
     1
102
RTVSPost2010Prop50
 90
       50
102
RTVSPost2010PropOp50
 70
     1
102
RTVSPost2010Prop51ColorIndex
 90
      256
102
RTVSPost2010Prop51ColorRGB
 90
-16777216
102
RTVSPost2010PropOp51
 70
     0
102
RTVSPost2010Prop52
140
1.0
102
RTVSPost2010PropOp52
 70
     0
102
RTVSPost2010Prop53
 90
        2
102
RTVSPost2010PropOp53
 70
     1
102
RTVSPost2010Prop54
  1
strokes_ogs.tif
102
RTVSPost2010PropOp54
 70
     1
102
RTVSPost2010Prop55
280
     0
102
RTVSPost2010PropOp55
 70
     1
102
RTVSPost2010Prop56
140
1.0
102
RTVSPost2010PropOp56
 70
     1
102
RTVSPost2010Prop57
140
1.0
102
RTVSPost2010PropOp57
 70
     1
102
RTVSPropertyOp0
 70
     1
102
RTVSPropertyOp1
 70
     1
102
RTVSPropertyOp2
 70
     1
102
RTVSPropertyOp3
 70
     1
102
RTVSPropertyOp4
 70
     1
102
RTVSPropertyOp5
 70
     1
102
RTVSPropertyOp6
 70
     1
102
RTVSPropertyOp7
 70
     1
102
RTVSPropertyOp8
 70
     1
102
RTVSPropertyOp9
 70
     1
102
RTVSPropertyOp10
 70
     1
102
RTVSPropertyOp11
 70
     1
102
RTVSPropertyOp12
 70
     1
102
RTVSPropertyOp13
 70
     1
102
RTVSPropertyOp14
 70
     1
102
RTVSPropertyOp15
 70
     1
102
RTVSPropertyOp16
 70
     1
102
RTVSPropertyOp17
 70
     1
102
RTVSPropertyOp18
 70
     1
102
RTVSPropertyOp19
 70
     1
102
RTVSPropertyOp20
 70
     1
102
RTVSPropertyOp21
 70
     1
102
RTVSPropertyOp22
 70
     1
102
RTVSPropertyOp23
 70
     1
102
RTVSPropertyOp24
 70
     1
102
RTVSPropertyOp25
 70
     1
102
RTVSPropertyOp26
 70
     1
102
RTVSPropertyOp27
 70
     1
102
RTVSPropertyOp28
 70
     1
102
RTVSPropertyOp29
 70
     1
102
RTVSPropertyOp30
 70
     1
102
RTVSPropertyOp31
 70
     1
102
RTVSPropertyOp32
 70
     1
102
RTVSPropertyOp33
 70
     1
102
RTVSPropertyOp34
 70
     1
102
RTVSPropertyOp35
 70
     1
102
RTVSPropertyOp36
 70
     1
102
RTVSPropertyOp37
 70
     1
102
RTVSPropertyOp38
 70
     1
102
RTVSPropertyOp39
 70
     1
102
RTVSPropertyOp40
 70
     1
102
RTVSPropertyOp41
 70
     1
102
RTVSPropertyOp42
 70
     1
102
RTVSPropertyOp43
 70
     1
102
RTVSPropertyOp44
 70
     1
102
RTVSPropertyOp45
 70
     1
102
RTVSPropertyOp46
 70
     1
102
RTVSPropertyOp47
 70
     1
102
RTVSPropertyOp48
 70
     1
102
RTVSPropertyOp49
 70
     1
102
RTVSPropertyOp50
 70
     1
102
RTVSPropertyOp51
 70
     0
102
RTVSPropertyOp52
 70
     0
102
RTVSPropertyOp53
 70
     1
102
RTVSPropertyOp54
 70
     1
102
RTVSPropertyOp55
 70
     1
102
RTVSPropertyOp56
 70
     1
102
RTVSPropertyOp57
 70
     1
102
RTVSPropertyOp58
 70
     1
102
RTVSPropertyOp59
 70
     1
102
RTVSPropertyOp60
 70
     1
102
RTVSPropertyOp61
 70
     1
102
RTVSPropertyOp62
 70
     1
  0
XRECORD
  5
17F65
102
{ACAD_REACTORS
330
17F64
102
}
330
17F64
100
AcDbXrecord
280
     1
102
RTVSPost2010Prop28
280
     0
102
RTVSPost2010PropOp28
 70
     1
102
RTVSPost2010Prop29
280
     1
102
RTVSPost2010PropOp29
 70
     1
102
RTVSPost2010Prop30
280
     1
102
RTVSPost2010PropOp30
 70
     1
102
RTVSPost2010Prop31
280
     0
102
RTVSPost2010PropOp31
 70
     1
102
RTVSPost2010Prop32
280
     0
102
RTVSPost2010PropOp32
 70
     1
102
RTVSPost2010Prop33
280
     0
102
RTVSPost2010PropOp33
 70
     1
102
RTVSPost2010Prop34
280
     0
102
RTVSPost2010PropOp34
 70
     1
102
RTVSPost2010Prop35
280
     0
102
RTVSPost2010PropOp35
 70
     1
102
RTVSPost2010Prop36
280
     0
102
RTVSPost2010PropOp36
 70
     1
102
RTVSPost2010Prop37
 90
       50
102
RTVSPost2010PropOp37
 70
     1
102
RTVSPost2010Prop38
140
0.0
102
RTVSPost2010PropOp38
 70
     1
102
RTVSPost2010Prop39
140
1.0
102
RTVSPost2010PropOp39
 70
     1
102
RTVSPost2010Prop40
 90
        0
102
RTVSPost2010PropOp40
 70
     1
102
RTVSPost2010Prop41ColorIndex
 90
       18
102
RTVSPost2010Prop41ColorRGB
 90
        0
102
RTVSPost2010PropOp41
 70
     1
102
RTVSPost2010Prop42
 90
       50
102
RTVSPost2010PropOp42
 70
     1
102
RTVSPost2010Prop43
 90
        3
102
RTVSPost2010PropOp43
 70
     1
102
RTVSPost2010Prop44ColorIndex
 90
        5
102
RTVSPost2010Prop44ColorRGB
 90
      255
102
RTVSPost2010PropOp44
 70
     1
102
RTVSPost2010Prop45
280
     0
102
RTVSPost2010PropOp45
 70
     1
102
RTVSPost2010Prop46
 90
       50
102
RTVSPost2010PropOp46
 70
     1
102
RTVSPost2010Prop47
 90
       50
102
RTVSPost2010PropOp47
 70
     1
102
RTVSPost2010Prop48
 90
       50
102
RTVSPost2010PropOp48
 70
     1
102
RTVSPost2010Prop49
280
     0
102
RTVSPost2010PropOp49
 70
     1
102
RTVSPost2010Prop50
 90
       50
102
RTVSPost2010PropOp50
 70
     1
102
RTVSPost2010Prop51ColorIndex
 90
      256
102
RTVSPost2010Prop51ColorRGB
 90
-16777216
102
RTVSPost2010PropOp51
 70
     0
102
RTVSPost2010Prop52
140
1.0
102
RTVSPost2010PropOp52
 70
     0
102
RTVSPost2010Prop53
 90
        2
102
RTVSPost2010PropOp53
 70
     1
102
RTVSPost2010Prop54
  1
strokes_ogs.tif
102
RTVSPost2010PropOp54
 70
     1
102
RTVSPost2010Prop55
280
     0
102
RTVSPost2010PropOp55
 70
     1
102
RTVSPost2010Prop56
140
1.0
102
RTVSPost2010PropOp56
 70
     1
102
RTVSPost2010Prop57
140
1.0
102
RTVSPost2010PropOp57
 70
     1
102
RTVSPropertyOp0
 70
     1
102
RTVSPropertyOp1
 70
     1
102
RTVSPropertyOp2
 70
     1
102
RTVSPropertyOp3
 70
     1
102
RTVSPropertyOp4
 70
     1
102
RTVSPropertyOp5
 70
     1
102
RTVSPropertyOp6
 70
     1
102
RTVSPropertyOp7
 70
     1
102
RTVSPropertyOp8
 70
     1
102
RTVSPropertyOp9
 70
     1
102
RTVSPropertyOp10
 70
     1
102
RTVSPropertyOp11
 70
     1
102
RTVSPropertyOp12
 70
     1
102
RTVSPropertyOp13
 70
     1
102
RTVSPropertyOp14
 70
     1
102
RTVSPropertyOp15
 70
     1
102
RTVSPropertyOp16
 70
     1
102
RTVSPropertyOp17
 70
     1
102
RTVSPropertyOp18
 70
     1
102
RTVSPropertyOp19
 70
     1
102
RTVSPropertyOp20
 70
     1
102
RTVSPropertyOp21
 70
     1
102
RTVSPropertyOp22
 70
     1
102
RTVSPropertyOp23
 70
     1
102
RTVSPropertyOp24
 70
     1
102
RTVSPropertyOp25
 70
     1
102
RTVSPropertyOp26
 70
     1
102
RTVSPropertyOp27
 70
     1
102
RTVSPropertyOp28
 70
     1
102
RTVSPropertyOp29
 70
     1
102
RTVSPropertyOp30
 70
     1
102
RTVSPropertyOp31
 70
     1
102
RTVSPropertyOp32
 70
     1
102
RTVSPropertyOp33
 70
     1
102
RTVSPropertyOp34
 70
     1
102
RTVSPropertyOp35
 70
     1
102
RTVSPropertyOp36
 70
     1
102
RTVSPropertyOp37
 70
     1
102
RTVSPropertyOp38
 70
     1
102
RTVSPropertyOp39
 70
     1
102
RTVSPropertyOp40
 70
     1
102
RTVSPropertyOp41
 70
     1
102
RTVSPropertyOp42
 70
     1
102
RTVSPropertyOp43
 70
     1
102
RTVSPropertyOp44
 70
     1
102
RTVSPropertyOp45
 70
     1
102
RTVSPropertyOp46
 70
     1
102
RTVSPropertyOp47
 70
     1
102
RTVSPropertyOp48
 70
     1
102
RTVSPropertyOp49
 70
     1
102
RTVSPropertyOp50
 70
     1
102
RTVSPropertyOp51
 70
     0
102
RTVSPropertyOp52
 70
     0
102
RTVSPropertyOp53
 70
     1
102
RTVSPropertyOp54
 70
     1
102
RTVSPropertyOp55
 70
     1
102
RTVSPropertyOp56
 70
     1
102
RTVSPropertyOp57
 70
     1
102
RTVSPropertyOp58
 70
     1
102
RTVSPropertyOp59
 70
     1
102
RTVSPropertyOp60
 70
     1
102
RTVSPropertyOp61
 70
     1
102
RTVSPropertyOp62
 70
     1
  0
XRECORD
  5
17F67
102
{ACAD_REACTORS
330
17F66
102
}
330
17F66
100
AcDbXrecord
280
     1
102
RTVSPost2010Prop28
280
     0
102
RTVSPost2010PropOp28
 70
     1
102
RTVSPost2010Prop29
280
     1
102
RTVSPost2010PropOp29
 70
     1
102
RTVSPost2010Prop30
280
     1
102
RTVSPost2010PropOp30
 70
     1
102
RTVSPost2010Prop31
280
     0
102
RTVSPost2010PropOp31
 70
     1
102
RTVSPost2010Prop32
280
     0
102
RTVSPost2010PropOp32
 70
     1
102
RTVSPost2010Prop33
280
     0
102
RTVSPost2010PropOp33
 70
     1
102
RTVSPost2010Prop34
280
     0
102
RTVSPost2010PropOp34
 70
     1
102
RTVSPost2010Prop35
280
     0
102
RTVSPost2010PropOp35
 70
     1
102
RTVSPost2010Prop36
280
     0
102
RTVSPost2010PropOp36
 70
     1
102
RTVSPost2010Prop37
 90
       50
102
RTVSPost2010PropOp37
 70
     1
102
RTVSPost2010Prop38
140
0.0
102
RTVSPost2010PropOp38
 70
     1
102
RTVSPost2010Prop39
140
1.0
102
RTVSPost2010PropOp39
 70
     1
102
RTVSPost2010Prop40
 90
        0
102
RTVSPost2010PropOp40
 70
     1
102
RTVSPost2010Prop41ColorIndex
 90
       18
102
RTVSPost2010Prop41ColorRGB
 90
        0
102
RTVSPost2010PropOp41
 70
     1
102
RTVSPost2010Prop42
 90
       50
102
RTVSPost2010PropOp42
 70
     1
102
RTVSPost2010Prop43
 90
        3
102
RTVSPost2010PropOp43
 70
     1
102
RTVSPost2010Prop44ColorIndex
 90
        5
102
RTVSPost2010Prop44ColorRGB
 90
      255
102
RTVSPost2010PropOp44
 70
     1
102
RTVSPost2010Prop45
280
     0
102
RTVSPost2010PropOp45
 70
     1
102
RTVSPost2010Prop46
 90
       50
102
RTVSPost2010PropOp46
 70
     1
102
RTVSPost2010Prop47
 90
       50
102
RTVSPost2010PropOp47
 70
     1
102
RTVSPost2010Prop48
 90
       50
102
RTVSPost2010PropOp48
 70
     1
102
RTVSPost2010Prop49
280
     0
102
RTVSPost2010PropOp49
 70
     1
102
RTVSPost2010Prop50
 90
       50
102
RTVSPost2010PropOp50
 70
     1
102
RTVSPost2010Prop51ColorIndex
 90
      256
102
RTVSPost2010Prop51ColorRGB
 90
-16777216
102
RTVSPost2010PropOp51
 70
     0
102
RTVSPost2010Prop52
140
1.0
102
RTVSPost2010PropOp52
 70
     0
102
RTVSPost2010Prop53
 90
        2
102
RTVSPost2010PropOp53
 70
     1
102
RTVSPost2010Prop54
  1
strokes_ogs.tif
102
RTVSPost2010PropOp54
 70
     1
102
RTVSPost2010Prop55
280
     0
102
RTVSPost2010PropOp55
 70
     1
102
RTVSPost2010Prop56
140
1.0
102
RTVSPost2010PropOp56
 70
     1
102
RTVSPost2010Prop57
140
1.0
102
RTVSPost2010PropOp57
 70
     1
102
RTVSPropertyOp0
 70
     1
102
RTVSPropertyOp1
 70
     1
102
RTVSPropertyOp2
 70
     1
102
RTVSPropertyOp3
 70
     1
102
RTVSPropertyOp4
 70
     1
102
RTVSPropertyOp5
 70
     1
102
RTVSPropertyOp6
 70
     1
102
RTVSPropertyOp7
 70
     1
102
RTVSPropertyOp8
 70
     1
102
RTVSPropertyOp9
 70
     1
102
RTVSPropertyOp10
 70
     1
102
RTVSPropertyOp11
 70
     1
102
RTVSPropertyOp12
 70
     1
102
RTVSPropertyOp13
 70
     1
102
RTVSPropertyOp14
 70
     1
102
RTVSPropertyOp15
 70
     1
102
RTVSPropertyOp16
 70
     1
102
RTVSPropertyOp17
 70
     1
102
RTVSPropertyOp18
 70
     1
102
RTVSPropertyOp19
 70
     1
102
RTVSPropertyOp20
 70
     1
102
RTVSPropertyOp21
 70
     1
102
RTVSPropertyOp22
 70
     1
102
RTVSPropertyOp23
 70
     1
102
RTVSPropertyOp24
 70
     1
102
RTVSPropertyOp25
 70
     1
102
RTVSPropertyOp26
 70
     1
102
RTVSPropertyOp27
 70
     1
102
RTVSPropertyOp28
 70
     1
102
RTVSPropertyOp29
 70
     1
102
RTVSPropertyOp30
 70
     1
102
RTVSPropertyOp31
 70
     1
102
RTVSPropertyOp32
 70
     1
102
RTVSPropertyOp33
 70
     1
102
RTVSPropertyOp34
 70
     1
102
RTVSPropertyOp35
 70
     1
102
RTVSPropertyOp36
 70
     1
102
RTVSPropertyOp37
 70
     1
102
RTVSPropertyOp38
 70
     1
102
RTVSPropertyOp39
 70
     1
102
RTVSPropertyOp40
 70
     1
102
RTVSPropertyOp41
 70
     1
102
RTVSPropertyOp42
 70
     1
102
RTVSPropertyOp43
 70
     1
102
RTVSPropertyOp44
 70
     1
102
RTVSPropertyOp45
 70
     1
102
RTVSPropertyOp46
 70
     1
102
RTVSPropertyOp47
 70
     1
102
RTVSPropertyOp48
 70
     1
102
RTVSPropertyOp49
 70
     1
102
RTVSPropertyOp50
 70
     1
102
RTVSPropertyOp51
 70
     0
102
RTVSPropertyOp52
 70
     0
102
RTVSPropertyOp53
 70
     1
102
RTVSPropertyOp54
 70
     1
102
RTVSPropertyOp55
 70
     1
102
RTVSPropertyOp56
 70
     1
102
RTVSPropertyOp57
 70
     1
102
RTVSPropertyOp58
 70
     1
102
RTVSPropertyOp59
 70
     1
102
RTVSPropertyOp60
 70
     1
102
RTVSPropertyOp61
 70
     1
102
RTVSPropertyOp62
 70
     1
  0
XRECORD
  5
17F5D
102
{ACAD_REACTORS
330
17F5C
102
}
330
17F5C
100
AcDbXrecord
280
     1
102
RTVSPost2010Prop28
280
     0
102
RTVSPost2010PropOp28
 70
     1
102
RTVSPost2010Prop29
280
     1
102
RTVSPost2010PropOp29
 70
     1
102
RTVSPost2010Prop30
280
     1
102
RTVSPost2010PropOp30
 70
     1
102
RTVSPost2010Prop31
280
     0
102
RTVSPost2010PropOp31
 70
     1
102
RTVSPost2010Prop32
280
     0
102
RTVSPost2010PropOp32
 70
     1
102
RTVSPost2010Prop33
280
     0
102
RTVSPost2010PropOp33
 70
     1
102
RTVSPost2010Prop34
280
     0
102
RTVSPost2010PropOp34
 70
     1
102
RTVSPost2010Prop35
280
     0
102
RTVSPost2010PropOp35
 70
     1
102
RTVSPost2010Prop36
280
     0
102
RTVSPost2010PropOp36
 70
     1
102
RTVSPost2010Prop37
 90
       50
102
RTVSPost2010PropOp37
 70
     1
102
RTVSPost2010Prop38
140
0.0
102
RTVSPost2010PropOp38
 70
     1
102
RTVSPost2010Prop39
140
1.0
102
RTVSPost2010PropOp39
 70
     1
102
RTVSPost2010Prop40
 90
        0
102
RTVSPost2010PropOp40
 70
     1
102
RTVSPost2010Prop41ColorIndex
 90
       18
102
RTVSPost2010Prop41ColorRGB
 90
        0
102
RTVSPost2010PropOp41
 70
     1
102
RTVSPost2010Prop42
 90
       50
102
RTVSPost2010PropOp42
 70
     1
102
RTVSPost2010Prop43
 90
        3
102
RTVSPost2010PropOp43
 70
     1
102
RTVSPost2010Prop44ColorIndex
 90
        5
102
RTVSPost2010Prop44ColorRGB
 90
      255
102
RTVSPost2010PropOp44
 70
     1
102
RTVSPost2010Prop45
280
     0
102
RTVSPost2010PropOp45
 70
     1
102
RTVSPost2010Prop46
 90
       50
102
RTVSPost2010PropOp46
 70
     1
102
RTVSPost2010Prop47
 90
       50
102
RTVSPost2010PropOp47
 70
     1
102
RTVSPost2010Prop48
 90
       50
102
RTVSPost2010PropOp48
 70
     1
102
RTVSPost2010Prop49
280
     0
102
RTVSPost2010PropOp49
 70
     1
102
RTVSPost2010Prop50
 90
       50
102
RTVSPost2010PropOp50
 70
     1
102
RTVSPost2010Prop51ColorIndex
 90
      256
102
RTVSPost2010Prop51ColorRGB
 90
-16777216
102
RTVSPost2010PropOp51
 70
     0
102
RTVSPost2010Prop52
140
1.0
102
RTVSPost2010PropOp52
 70
     0
102
RTVSPost2010Prop53
 90
        2
102
RTVSPost2010PropOp53
 70
     1
102
RTVSPost2010Prop54
  1
strokes_ogs.tif
102
RTVSPost2010PropOp54
 70
     1
102
RTVSPost2010Prop55
280
     0
102
RTVSPost2010PropOp55
 70
     1
102
RTVSPost2010Prop56
140
1.0
102
RTVSPost2010PropOp56
 70
     1
102
RTVSPost2010Prop57
140
1.0
102
RTVSPost2010PropOp57
 70
     1
102
RTVSPropertyOp0
 70
     1
102
RTVSPropertyOp1
 70
     1
102
RTVSPropertyOp2
 70
     1
102
RTVSPropertyOp3
 70
     1
102
RTVSPropertyOp4
 70
     1
102
RTVSPropertyOp5
 70
     1
102
RTVSPropertyOp6
 70
     1
102
RTVSPropertyOp7
 70
     1
102
RTVSPropertyOp8
 70
     1
102
RTVSPropertyOp9
 70
     1
102
RTVSPropertyOp10
 70
     1
102
RTVSPropertyOp11
 70
     1
102
RTVSPropertyOp12
 70
     1
102
RTVSPropertyOp13
 70
     1
102
RTVSPropertyOp14
 70
     1
102
RTVSPropertyOp15
 70
     1
102
RTVSPropertyOp16
 70
     1
102
RTVSPropertyOp17
 70
     1
102
RTVSPropertyOp18
 70
     1
102
RTVSPropertyOp19
 70
     1
102
RTVSPropertyOp20
 70
     1
102
RTVSPropertyOp21
 70
     1
102
RTVSPropertyOp22
 70
     1
102
RTVSPropertyOp23
 70
     1
102
RTVSPropertyOp24
 70
     1
102
RTVSPropertyOp25
 70
     1
102
RTVSPropertyOp26
 70
     1
102
RTVSPropertyOp27
 70
     1
102
RTVSPropertyOp28
 70
     1
102
RTVSPropertyOp29
 70
     1
102
RTVSPropertyOp30
 70
     1
102
RTVSPropertyOp31
 70
     1
102
RTVSPropertyOp32
 70
     1
102
RTVSPropertyOp33
 70
     1
102
RTVSPropertyOp34
 70
     1
102
RTVSPropertyOp35
 70
     1
102
RTVSPropertyOp36
 70
     1
102
RTVSPropertyOp37
 70
     1
102
RTVSPropertyOp38
 70
     1
102
RTVSPropertyOp39
 70
     1
102
RTVSPropertyOp40
 70
     1
102
RTVSPropertyOp41
 70
     1
102
RTVSPropertyOp42
 70
     1
102
RTVSPropertyOp43
 70
     1
102
RTVSPropertyOp44
 70
     1
102
RTVSPropertyOp45
 70
     1
102
RTVSPropertyOp46
 70
     1
102
RTVSPropertyOp47
 70
     1
102
RTVSPropertyOp48
 70
     1
102
RTVSPropertyOp49
 70
     1
102
RTVSPropertyOp50
 70
     1
102
RTVSPropertyOp51
 70
     0
102
RTVSPropertyOp52
 70
     0
102
RTVSPropertyOp53
 70
     1
102
RTVSPropertyOp54
 70
     1
102
RTVSPropertyOp55
 70
     1
102
RTVSPropertyOp56
 70
     1
102
RTVSPropertyOp57
 70
     1
102
RTVSPropertyOp58
 70
     1
102
RTVSPropertyOp59
 70
     1
102
RTVSPropertyOp60
 70
     1
102
RTVSPropertyOp61
 70
     1
102
RTVSPropertyOp62
 70
     1
  0
XRECORD
  5
17F51
102
{ACAD_REACTORS
330
17F50
102
}
330
17F50
100
AcDbXrecord
280
     1
102
RTVSPost2010Prop28
280
     0
102
RTVSPost2010PropOp28
 70
     1
102
RTVSPost2010Prop29
280
     1
102
RTVSPost2010PropOp29
 70
     1
102
RTVSPost2010Prop30
280
     1
102
RTVSPost2010PropOp30
 70
     1
102
RTVSPost2010Prop31
280
     0
102
RTVSPost2010PropOp31
 70
     1
102
RTVSPost2010Prop32
280
     0
102
RTVSPost2010PropOp32
 70
     1
102
RTVSPost2010Prop33
280
     0
102
RTVSPost2010PropOp33
 70
     1
102
RTVSPost2010Prop34
280
     0
102
RTVSPost2010PropOp34
 70
     1
102
RTVSPost2010Prop35
280
     0
102
RTVSPost2010PropOp35
 70
     1
102
RTVSPost2010Prop36
280
     0
102
RTVSPost2010PropOp36
 70
     1
102
RTVSPost2010Prop37
 90
       50
102
RTVSPost2010PropOp37
 70
     1
102
RTVSPost2010Prop38
140
0.0
102
RTVSPost2010PropOp38
 70
     1
102
RTVSPost2010Prop39
140
1.0
102
RTVSPost2010PropOp39
 70
     1
102
RTVSPost2010Prop40
 90
        0
102
RTVSPost2010PropOp40
 70
     1
102
RTVSPost2010Prop41ColorIndex
 90
       18
102
RTVSPost2010Prop41ColorRGB
 90
        0
102
RTVSPost2010PropOp41
 70
     1
102
RTVSPost2010Prop42
 90
       50
102
RTVSPost2010PropOp42
 70
     1
102
RTVSPost2010Prop43
 90
        3
102
RTVSPost2010PropOp43
 70
     1
102
RTVSPost2010Prop44ColorIndex
 90
        5
102
RTVSPost2010Prop44ColorRGB
 90
      255
102
RTVSPost2010PropOp44
 70
     1
102
RTVSPost2010Prop45
280
     0
102
RTVSPost2010PropOp45
 70
     1
102
RTVSPost2010Prop46
 90
       50
102
RTVSPost2010PropOp46
 70
     1
102
RTVSPost2010Prop47
 90
       50
102
RTVSPost2010PropOp47
 70
     1
102
RTVSPost2010Prop48
 90
       50
102
RTVSPost2010PropOp48
 70
     1
102
RTVSPost2010Prop49
280
     0
102
RTVSPost2010PropOp49
 70
     1
102
RTVSPost2010Prop50
 90
       50
102
RTVSPost2010PropOp50
 70
     1
102
RTVSPost2010Prop51ColorIndex
 90
      256
102
RTVSPost2010Prop51ColorRGB
 90
-16777216
102
RTVSPost2010PropOp51
 70
     0
102
RTVSPost2010Prop52
140
1.0
102
RTVSPost2010PropOp52
 70
     0
102
RTVSPost2010Prop53
 90
        2
102
RTVSPost2010PropOp53
 70
     1
102
RTVSPost2010Prop54
  1
strokes_ogs.tif
102
RTVSPost2010PropOp54
 70
     1
102
RTVSPost2010Prop55
280
     0
102
RTVSPost2010PropOp55
 70
     1
102
RTVSPost2010Prop56
140
1.0
102
RTVSPost2010PropOp56
 70
     1
102
RTVSPost2010Prop57
140
1.0
102
RTVSPost2010PropOp57
 70
     1
102
RTVSPropertyOp0
 70
     1
102
RTVSPropertyOp1
 70
     1
102
RTVSPropertyOp2
 70
     1
102
RTVSPropertyOp3
 70
     1
102
RTVSPropertyOp4
 70
     1
102
RTVSPropertyOp5
 70
     1
102
RTVSPropertyOp6
 70
     1
102
RTVSPropertyOp7
 70
     1
102
RTVSPropertyOp8
 70
     1
102
RTVSPropertyOp9
 70
     1
102
RTVSPropertyOp10
 70
     1
102
RTVSPropertyOp11
 70
     1
102
RTVSPropertyOp12
 70
     1
102
RTVSPropertyOp13
 70
     1
102
RTVSPropertyOp14
 70
     1
102
RTVSPropertyOp15
 70
     1
102
RTVSPropertyOp16
 70
     1
102
RTVSPropertyOp17
 70
     1
102
RTVSPropertyOp18
 70
     1
102
RTVSPropertyOp19
 70
     1
102
RTVSPropertyOp20
 70
     1
102
RTVSPropertyOp21
 70
     1
102
RTVSPropertyOp22
 70
     1
102
RTVSPropertyOp23
 70
     1
102
RTVSPropertyOp24
 70
     1
102
RTVSPropertyOp25
 70
     1
102
RTVSPropertyOp26
 70
     1
102
RTVSPropertyOp27
 70
     1
102
RTVSPropertyOp28
 70
     1
102
RTVSPropertyOp29
 70
     1
102
RTVSPropertyOp30
 70
     1
102
RTVSPropertyOp31
 70
     1
102
RTVSPropertyOp32
 70
     1
102
RTVSPropertyOp33
 70
     1
102
RTVSPropertyOp34
 70
     1
102
RTVSPropertyOp35
 70
     1
102
RTVSPropertyOp36
 70
     1
102
RTVSPropertyOp37
 70
     1
102
RTVSPropertyOp38
 70
     1
102
RTVSPropertyOp39
 70
     1
102
RTVSPropertyOp40
 70
     1
102
RTVSPropertyOp41
 70
     1
102
RTVSPropertyOp42
 70
     1
102
RTVSPropertyOp43
 70
     1
102
RTVSPropertyOp44
 70
     1
102
RTVSPropertyOp45
 70
     1
102
RTVSPropertyOp46
 70
     1
102
RTVSPropertyOp47
 70
     1
102
RTVSPropertyOp48
 70
     1
102
RTVSPropertyOp49
 70
     1
102
RTVSPropertyOp50
 70
     1
102
RTVSPropertyOp51
 70
     0
102
RTVSPropertyOp52
 70
     0
102
RTVSPropertyOp53
 70
     1
102
RTVSPropertyOp54
 70
     1
102
RTVSPropertyOp55
 70
     1
102
RTVSPropertyOp56
 70
     1
102
RTVSPropertyOp57
 70
     1
102
RTVSPropertyOp58
 70
     1
102
RTVSPropertyOp59
 70
     1
102
RTVSPropertyOp60
 70
     1
102
RTVSPropertyOp61
 70
     1
102
RTVSPropertyOp62
 70
     1
  0
XRECORD
  5
17F69
102
{ACAD_REACTORS
330
17F68
102
}
330
17F68
100
AcDbXrecord
280
     1
102
RTVSPost2010Prop28
280
     0
102
RTVSPost2010PropOp28
 70
     1
102
RTVSPost2010Prop29
280
     1
102
RTVSPost2010PropOp29
 70
     1
102
RTVSPost2010Prop30
280
     1
102
RTVSPost2010PropOp30
 70
     1
102
RTVSPost2010Prop31
280
     0
102
RTVSPost2010PropOp31
 70
     1
102
RTVSPost2010Prop32
280
     0
102
RTVSPost2010PropOp32
 70
     1
102
RTVSPost2010Prop33
280
     0
102
RTVSPost2010PropOp33
 70
     1
102
RTVSPost2010Prop34
280
     0
102
RTVSPost2010PropOp34
 70
     1
102
RTVSPost2010Prop35
280
     0
102
RTVSPost2010PropOp35
 70
     1
102
RTVSPost2010Prop36
280
     0
102
RTVSPost2010PropOp36
 70
     1
102
RTVSPost2010Prop37
 90
       50
102
RTVSPost2010PropOp37
 70
     1
102
RTVSPost2010Prop38
140
0.0
102
RTVSPost2010PropOp38
 70
     1
102
RTVSPost2010Prop39
140
1.0
102
RTVSPost2010PropOp39
 70
     1
102
RTVSPost2010Prop40
 90
        0
102
RTVSPost2010PropOp40
 70
     1
102
RTVSPost2010Prop41ColorIndex
 90
       18
102
RTVSPost2010Prop41ColorRGB
 90
        0
102
RTVSPost2010PropOp41
 70
     1
102
RTVSPost2010Prop42
 90
       50
102
RTVSPost2010PropOp42
 70
     1
102
RTVSPost2010Prop43
 90
        3
102
RTVSPost2010PropOp43
 70
     1
102
RTVSPost2010Prop44ColorIndex
 90
        5
102
RTVSPost2010Prop44ColorRGB
 90
      255
102
RTVSPost2010PropOp44
 70
     1
102
RTVSPost2010Prop45
280
     0
102
RTVSPost2010PropOp45
 70
     1
102
RTVSPost2010Prop46
 90
       50
102
RTVSPost2010PropOp46
 70
     1
102
RTVSPost2010Prop47
 90
       50
102
RTVSPost2010PropOp47
 70
     1
102
RTVSPost2010Prop48
 90
       50
102
RTVSPost2010PropOp48
 70
     1
102
RTVSPost2010Prop49
280
     0
102
RTVSPost2010PropOp49
 70
     1
102
RTVSPost2010Prop50
 90
       50
102
RTVSPost2010PropOp50
 70
     1
102
RTVSPost2010Prop51ColorIndex
 90
      256
102
RTVSPost2010Prop51ColorRGB
 90
-16777216
102
RTVSPost2010PropOp51
 70
     0
102
RTVSPost2010Prop52
140
1.0
102
RTVSPost2010PropOp52
 70
     0
102
RTVSPost2010Prop53
 90
        2
102
RTVSPost2010PropOp53
 70
     1
102
RTVSPost2010Prop54
  1
strokes_ogs.tif
102
RTVSPost2010PropOp54
 70
     1
102
RTVSPost2010Prop55
280
     0
102
RTVSPost2010PropOp55
 70
     1
102
RTVSPost2010Prop56
140
1.0
102
RTVSPost2010PropOp56
 70
     1
102
RTVSPost2010Prop57
140
1.0
102
RTVSPost2010PropOp57
 70
     1
102
RTVSPropertyOp0
 70
     1
102
RTVSPropertyOp1
 70
     1
102
RTVSPropertyOp2
 70
     1
102
RTVSPropertyOp3
 70
     1
102
RTVSPropertyOp4
 70
     1
102
RTVSPropertyOp5
 70
     1
102
RTVSPropertyOp6
 70
     1
102
RTVSPropertyOp7
 70
     1
102
RTVSPropertyOp8
 70
     1
102
RTVSPropertyOp9
 70
     1
102
RTVSPropertyOp10
 70
     1
102
RTVSPropertyOp11
 70
     1
102
RTVSPropertyOp12
 70
     1
102
RTVSPropertyOp13
 70
     1
102
RTVSPropertyOp14
 70
     1
102
RTVSPropertyOp15
 70
     1
102
RTVSPropertyOp16
 70
     1
102
RTVSPropertyOp17
 70
     1
102
RTVSPropertyOp18
 70
     1
102
RTVSPropertyOp19
 70
     1
102
RTVSPropertyOp20
 70
     1
102
RTVSPropertyOp21
 70
     1
102
RTVSPropertyOp22
 70
     1
102
RTVSPropertyOp23
 70
     1
102
RTVSPropertyOp24
 70
     1
102
RTVSPropertyOp25
 70
     1
102
RTVSPropertyOp26
 70
     1
102
RTVSPropertyOp27
 70
     1
102
RTVSPropertyOp28
 70
     1
102
RTVSPropertyOp29
 70
     1
102
RTVSPropertyOp30
 70
     1
102
RTVSPropertyOp31
 70
     1
102
RTVSPropertyOp32
 70
     1
102
RTVSPropertyOp33
 70
     1
102
RTVSPropertyOp34
 70
     1
102
RTVSPropertyOp35
 70
     1
102
RTVSPropertyOp36
 70
     1
102
RTVSPropertyOp37
 70
     1
102
RTVSPropertyOp38
 70
     1
102
RTVSPropertyOp39
 70
     1
102
RTVSPropertyOp40
 70
     1
102
RTVSPropertyOp41
 70
     1
102
RTVSPropertyOp42
 70
     1
102
RTVSPropertyOp43
 70
     1
102
RTVSPropertyOp44
 70
     1
102
RTVSPropertyOp45
 70
     1
102
RTVSPropertyOp46
 70
     1
102
RTVSPropertyOp47
 70
     1
102
RTVSPropertyOp48
 70
     1
102
RTVSPropertyOp49
 70
     1
102
RTVSPropertyOp50
 70
     1
102
RTVSPropertyOp51
 70
     0
102
RTVSPropertyOp52
 70
     0
102
RTVSPropertyOp53
 70
     1
102
RTVSPropertyOp54
 70
     1
102
RTVSPropertyOp55
 70
     1
102
RTVSPropertyOp56
 70
     1
102
RTVSPropertyOp57
 70
     1
102
RTVSPropertyOp58
 70
     1
102
RTVSPropertyOp59
 70
     1
102
RTVSPropertyOp60
 70
     1
102
RTVSPropertyOp61
 70
     1
102
RTVSPropertyOp62
 70
     1
  0
ENDSEC
  0
EOF
