  0
SECTION
  2
HEADER
  9
$ACADVER
  1
AC1015
  9
$ACADMAINTVER
 70
    20
  9
$DWGCODEPAGE
  3
ANSI_932
  9
$INSBASE
 10
0.0
 20
0.0
 30
0.0
  9
$EXTMIN
 10
139.9999999999995
 20
-0.0000000000000909
 30
0.0
  9
$EXTMAX
 10
16307.2
 20
11409.6
 30
0.0
  9
$LIMMIN
 10
-25.79074261211281
 20
-125.8223078213959
  9
$LIMMAX
 10
16471.10331197129
 20
11496.44801950658
  9
$ORTHOMODE
 70
     0
  9
$REGENMODE
 70
     1
  9
$FILLMODE
 70
     1
  9
$QTEXTMODE
 70
     0
  9
$MIRRTEXT
 70
     1
  9
$LTSCALE
 40
20.0
  9
$ATTMODE
 70
     1
  9
$TEXTSIZE
 40
100.0
  9
$TRACEWID
 40
1.0
  9
$TEXTSTYLE
  7
STYLE3
  9
$CLAYER
  8
寸法
  9
$CELTYPE
  6
BYLAYER
  9
$CECOLOR
 62
   256
  9
$CELTSCALE
 40
50.0
  9
$DISPSILH
 70
     0
  9
$DIMSCALE
 40
40.0
  9
$DIMASZ
 40
2.5
  9
$DIMEXO
 40
0.5
  9
$DIMDLI
 40
7.0
  9
$DIMRND
 40
0.0
  9
$DIMDLE
 40
0.0
  9
$DIMEXE
 40
1.5
  9
$DIMTP
 40
0.0
  9
$DIMTM
 40
0.0
  9
$DIMTXT
 40
3.0
  9
$DIMCEN
 40
0.0
  9
$DIMTSZ
 40
0.0
  9
$DIMTOL
 70
     0
  9
$DIMLIM
 70
     0
  9
$DIMTIH
 70
     0
  9
$DIMTOH
 70
     0
  9
$DIMSE1
 70
     0
  9
$DIMSE2
 70
     0
  9
$DIMTAD
 70
     3
  9
$DIMZIN
 70
     8
  9
$DIMBLK
  1

  9
$DIMASO
 70
     1
  9
$DIMSHO
 70
     1
  9
$DIMPOST
  1

  9
$DIMAPOST
  1

  9
$DIMALT
 70
     0
  9
$DIMALTD
 70
     2
  9
$DIMALTF
 40
0.0394
  9
$DIMLFAC
 40
1.0
  9
$DIMTOFL
 70
     1
  9
$DIMTVP
 40
0.0
  9
$DIMTIX
 70
     1
  9
$DIMSOXD
 70
     0
  9
$DIMSAH
 70
     1
  9
$DIMBLK1
  1
DOTSMALL
  9
$DIMBLK2
  1
DOTSMALL
  9
$DIMSTYLE
  2
INABA_S40G
  9
$DIMCLRD
 70
     0
  9
$DIMCLRE
 70
     0
  9
$DIMCLRT
 70
     7
  9
$DIMTFAC
 40
1.0
  9
$DIMGAP
 40
1.0
  9
$DIMJUST
 70
     0
  9
$DIMSD1
 70
     0
  9
$DIMSD2
 70
     0
  9
$DIMTOLJ
 70
     1
  9
$DIMTZIN
 70
     0
  9
$DIMALTZ
 70
     0
  9
$DIMALTTZ
 70
     0
  9
$DIMUPT
 70
     0
  9
$DIMDEC
 70
     1
  9
$DIMTDEC
 70
     4
  9
$DIMALTU
 70
     2
  9
$DIMALTTD
 70
     2
  9
$DIMTXSTY
  7
STYLE1
  9
$DIMAUNIT
 70
     0
  9
$DIMADEC
 70
     0
  9
$DIMALTRND
 40
0.0
  9
$DIMAZIN
 70
     0
  9
$DIMDSEP
 70
    46
  9
$DIMATFIT
 70
     3
  9
$DIMFRAC
 70
     0
  9
$DIMLDRBLK
  1

  9
$DIMLUNIT
 70
     2
  9
$DIMLWD
 70
    -2
  9
$DIMLWE
 70
    -2
  9
$DIMTMOVE
 70
     0
  9
$LUNITS
 70
     2
  9
$LUPREC
 70
     1
  9
$SKETCHINC
 40
1.0
  9
$FILLETRAD
 40
5.0
  9
$AUNITS
 70
     0
  9
$AUPREC
 70
     0
  9
$MENU
  1
acad
  9
$ELEVATION
 40
0.0
  9
$PELEVATION
 40
0.0
  9
$THICKNESS
 40
0.0
  9
$LIMCHECK
 70
     0
  9
$CHAMFERA
 40
0.0
  9
$CHAMFERB
 40
0.0
  9
$CHAMFERC
 40
0.0
  9
$CHAMFERD
 40
0.0
  9
$SKPOLY
 70
     0
  9
$TDCREATE
 40
2452116.684896065
  9
$TDUCREATE
 40
2452116.309896065
  9
$TDUPDATE
 40
2458822.669403357
  9
$TDUUPDATE
 40
2458822.294403357
  9
$TDINDWG
 40
0.6609707870
  9
$TDUSRTIMER
 40
0.6609707870
  9
$USRTIMER
 70
     1
  9
$ANGBASE
 50
0.0
  9
$ANGDIR
 70
     0
  9
$PDMODE
 70
     3
  9
$PDSIZE
 40
2.0
  9
$PLINEWID
 40
0.0
  9
$SPLFRAME
 70
     0
  9
$SPLINETYPE
 70
     6
  9
$SPLINESEGS
 70
     8
  9
$HANDSEED
  5
17B6F
  9
$SURFTAB1
 70
     6
  9
$SURFTAB2
 70
     6
  9
$SURFTYPE
 70
     6
  9
$SURFU
 70
     6
  9
$SURFV
 70
     6
  9
$UCSBASE
  2

  9
$UCSNAME
  2

  9
$UCSORG
 10
0.0
 20
0.0
 30
0.0
  9
$UCSXDIR
 10
1.0
 20
0.0
 30
0.0
  9
$UCSYDIR
 10
0.0
 20
1.0
 30
0.0
  9
$UCSORTHOREF
  2

  9
$UCSORTHOVIEW
 70
     0
  9
$UCSORGTOP
 10
0.0
 20
0.0
 30
0.0
  9
$UCSORGBOTTOM
 10
0.0
 20
0.0
 30
0.0
  9
$UCSORGLEFT
 10
0.0
 20
0.0
 30
0.0
  9
$UCSORGRIGHT
 10
0.0
 20
0.0
 30
0.0
  9
$UCSORGFRONT
 10
0.0
 20
0.0
 30
0.0
  9
$UCSORGBACK
 10
0.0
 20
0.0
 30
0.0
  9
$PUCSBASE
  2

  9
$PUCSNAME
  2

  9
$PUCSORG
 10
0.0
 20
0.0
 30
0.0
  9
$PUCSXDIR
 10
1.0
 20
0.0
 30
0.0
  9
$PUCSYDIR
 10
0.0
 20
1.0
 30
0.0
  9
$PUCSORTHOREF
  2

  9
$PUCSORTHOVIEW
 70
     0
  9
$PUCSORGTOP
 10
0.0
 20
0.0
 30
0.0
  9
$PUCSORGBOTTOM
 10
0.0
 20
0.0
 30
0.0
  9
$PUCSORGLEFT
 10
0.0
 20
0.0
 30
0.0
  9
$PUCSORGRIGHT
 10
0.0
 20
0.0
 30
0.0
  9
$PUCSORGFRONT
 10
0.0
 20
0.0
 30
0.0
  9
$PUCSORGBACK
 10
0.0
 20
0.0
 30
0.0
  9
$USERI1
 70
     0
  9
$USERI2
 70
     0
  9
$USERI3
 70
     0
  9
$USERI4
 70
     0
  9
$USERI5
 70
     0
  9
$USERR1
 40
0.0
  9
$USERR2
 40
0.0
  9
$USERR3
 40
0.0
  9
$USERR4
 40
0.0
  9
$USERR5
 40
0.0
  9
$WORLDVIEW
 70
     1
  9
$SHADEDGE
 70
     3
  9
$SHADEDIF
 70
    70
  9
$TILEMODE
 70
     1
  9
$MAXACTVP
 70
    16
  9
$PINSBASE
 10
0.0
 20
0.0
 30
0.0
  9
$PLIMCHECK
 70
     0
  9
$PEXTMIN
 10
1.000000000000000E+20
 20
1.000000000000000E+20
 30
1.000000000000000E+20
  9
$PEXTMAX
 10
-1.000000000000000E+20
 20
-1.000000000000000E+20
 30
-1.000000000000000E+20
  9
$PLIMMIN
 10
0.0
 20
0.0
  9
$PLIMMAX
 10
420.0
 20
297.0
  9
$UNITMODE
 70
     0
  9
$VISRETAIN
 70
     0
  9
$PLINEGEN
 70
     0
  9
$PSLTSCALE
 70
     0
  9
$TREEDEPTH
 70
  3020
  9
$CMLSTYLE
  2
STANDARD
  9
$CMLJUST
 70
     0
  9
$CMLSCALE
 40
1.0
  9
$PROXYGRAPHICS
 70
     1
  9
$MEASUREMENT
 70
     1
  9
$CELWEIGHT
370
    -1
  9
$ENDCAPS
280
     0
  9
$JOINSTYLE
280
     0
  9
$LWDISPLAY
290
     0
  9
$INSUNITS
 70
     0
  9
$HYPERLINKBASE
  1

  9
$STYLESHEET
  1
inabass.ctb
  9
$XEDIT
290
     1
  9
$CEPSNTYPE
380
     0
  9
$PSTYLEMODE
290
     1
  9
$FINGERPRINTGUID
  2
{9F3B1010-CED9-4988-A37B-3D87A326296A}
  9
$VERSIONGUID
  2
{345A3BEE-575B-4C23-BA6B-0CC09FB20E91}
  9
$EXTNAMES
290
     1
  9
$PSVPSCALE
 40
0.0
  9
$OLESTARTUP
290
     0
  0
ENDSEC
  0
SECTION
  2
CLASSES
  0
CLASS
  1
ACDBDICTIONARYWDFLT
  2
AcDbDictionaryWithDefault
  3
ObjectDBX Classes
 90
        0
280
     0
281
     0
  0
CLASS
  1
MATERIAL
  2
AcDbMaterial
  3
ObjectDBX Classes
 90
     1153
280
     0
281
     0
  0
CLASS
  1
VISUALSTYLE
  2
AcDbVisualStyle
  3
ObjectDBX Classes
 90
     4095
280
     0
281
     0
  0
CLASS
  1
TABLESTYLE
  2
AcDbTableStyle
  3
ObjectDBX Classes
 90
     4095
280
     0
281
     0
  0
CLASS
  1
SCALE
  2
AcDbScale
  3
ObjectDBX Classes
 90
     1153
280
     0
281
     0
  0
CLASS
  1
MLEADERSTYLE
  2
AcDbMLeaderStyle
  3
ACDB_MLEADERSTYLE_CLASS
 90
     4095
280
     0
281
     0
  0
CLASS
  1
ACDBSECTIONVIEWSTYLE
  2
AcDbSectionViewStyle
  3
ObjectDBX Classes
 90
     1025
280
     0
281
     0
  0
CLASS
  1
ACDBDETAILVIEWSTYLE
  2
AcDbDetailViewStyle
  3
ObjectDBX Classes
 90
     1025
280
     0
281
     0
  0
CLASS
  1
SORTENTSTABLE
  2
AcDbSortentsTable
  3
ObjectDBX Classes
 90
        0
280
     0
281
     0
  0
CLASS
  1
DICTIONARYVAR
  2
AcDbDictionaryVar
  3
ObjectDBX Classes
 90
        0
280
     0
281
     0
  0
CLASS
  1
CELLSTYLEMAP
  2
AcDbCellStyleMap
  3
ObjectDBX Classes
 90
     1152
280
     0
281
     0
  0
CLASS
  1
ACDBPLACEHOLDER
  2
AcDbPlaceHolder
  3
ObjectDBX Classes
 90
        0
280
     0
281
     0
  0
CLASS
  1
LAYOUT
  2
AcDbLayout
  3
ObjectDBX Classes
 90
        0
280
     0
281
     0
  0
ENDSEC
  0
SECTION
  2
TABLES
  0
TABLE
  2
VPORT
  5
746D
330
0
100
AcDbSymbolTable
 70
     1
  0
VPORT
  5
165EB
330
746D
100
AcDbSymbolTableRecord
100
AcDbViewportTableRecord
  2
*Active
 70
     0
 10
0.0
 20
0.0
 11
1.0
 21
1.0
 12
8223.914936223705
 22
5704.820477774237
 13
0.0
 23
0.0
 14
10.0
 24
10.0
 15
10.0
 25
10.0
 16
0.0
 26
0.0
 36
1.0
 17
0.0
 27
0.0
 37
0.0
 40
11501.56926899217
 41
1.523364485981308
 42
50.0
 43
0.0
 44
0.0
 50
0.0
 51
0.0
 71
     0
 72
     0
 73
     1
 74
     0
 75
     0
 76
     0
 77
     0
 78
     0
281
     0
 65
     1
110
0.0
120
0.0
130
0.0
111
1.0
121
0.0
131
0.0
112
0.0
122
1.0
132
0.0
 79
     0
146
0.0
1001
ACAD_NAV_VCDISPLAY
1070
     3
  0
ENDTAB
  0
TABLE
  2
LTYPE
  5
746A
330
0
100
AcDbSymbolTable
 70
     3
  0
LTYPE
  5
7477
330
746A
100
AcDbSymbolTableRecord
100
AcDbLinetypeTableRecord
  2
BYBLOCK
 70
     0
  3

 72
    65
 73
     0
 40
0.0
  0
LTYPE
  5
7478
330
746A
100
AcDbSymbolTableRecord
100
AcDbLinetypeTableRecord
  2
BYLAYER
 70
     0
  3

 72
    65
 73
     0
 40
0.0
  0
LTYPE
  5
7479
330
746A
100
AcDbSymbolTableRecord
100
AcDbLinetypeTableRecord
  2
CONTINUOUS
 70
     0
  3
Solid line
 72
    65
 73
     0
 40
0.0
  0
LTYPE
  5
781A
330
746A
100
AcDbSymbolTableRecord
100
AcDbLinetypeTableRecord
  2
HIDDEN
 70
     0
  3
__ __ __ __ __ __ __ __ __ __ __ __ __ __ __ __
 72
    65
 73
     2
 40
0.375
 49
0.25
 74
     0
 49
-0.125
 74
     0
  0
LTYPE
  5
781B
330
746A
100
AcDbSymbolTableRecord
100
AcDbLinetypeTableRecord
  2
PHANTOM
 70
     0
  3
______  __  __  ______  __  __  ______  __  __ 
 72
    65
 73
     6
 40
2.5
 49
1.25
 74
     0
 49
-0.25
 74
     0
 49
0.25
 74
     0
 49
-0.25
 74
     0
 49
0.25
 74
     0
 49
-0.25
 74
     0
  0
ENDTAB
  0
TABLE
  2
LAYER
  5
7467
102
{ACAD_XDICTIONARY
360
14BE0
102
}
330
0
100
AcDbSymbolTable
 70
    12
  0
LAYER
  5
7474
102
{ACAD_XDICTIONARY
360
16710
102
}
330
7467
100
AcDbSymbolTableRecord
100
AcDbLayerTableRecord
  2
0
 70
     0
 62
     7
  6
CONTINUOUS
370
    -3
390
14A2F
  0
LAYER
  5
DEB3
102
{ACAD_XDICTIONARY
360
16714
102
}
330
7467
100
AcDbSymbolTableRecord
100
AcDbLayerTableRecord
  2
寸法
 70
     0
 62
     4
  6
CONTINUOUS
370
    -3
390
14A2F
  0
LAYER
  5
DEB4
102
{ACAD_XDICTIONARY
360
16716
102
}
330
7467
100
AcDbSymbolTableRecord
100
AcDbLayerTableRecord
  2
部品1
 70
     0
 62
     7
  6
CONTINUOUS
370
    -3
390
14A2F
  0
LAYER
  5
DEB5
102
{ACAD_XDICTIONARY
360
16718
102
}
330
7467
100
AcDbSymbolTableRecord
100
AcDbLayerTableRecord
  2
補助
 70
     0
 62
    -1
  6
CONTINUOUS
370
    -3
390
14A2F
  0
LAYER
  5
DEB6
102
{ACAD_XDICTIONARY
360
1671A
102
}
330
7467
100
AcDbSymbolTableRecord
100
AcDbLayerTableRecord
  2
文字
 70
     0
 62
     7
  6
CONTINUOUS
370
    -3
390
14A2F
  0
LAYER
  5
F255
330
7467
100
AcDbSymbolTableRecord
100
AcDbLayerTableRecord
  2
DEFPOINTS
 70
     0
 62
     7
  6
CONTINUOUS
290
     0
370
    -3
390
14A2F
  0
LAYER
  5
10B54
102
{ACAD_XDICTIONARY
360
1671C
102
}
330
7467
100
AcDbSymbolTableRecord
100
AcDbLayerTableRecord
  2
仕様書枠
 70
     0
 62
   230
  6
CONTINUOUS
370
    -3
390
14A2F
  0
LAYER
  5
11729
102
{ACAD_XDICTIONARY
360
1671E
102
}
330
7467
100
AcDbSymbolTableRecord
100
AcDbLayerTableRecord
  2
Ｇ．Ｌ
 70
     0
 62
    30
  6
CONTINUOUS
370
    -3
390
14A2F
  0
LAYER
  5
1173F
102
{ACAD_XDICTIONARY
360
16720
102
}
330
7467
100
AcDbSymbolTableRecord
100
AcDbLayerTableRecord
  2
細線
 70
     0
 62
     5
  6
CONTINUOUS
370
    -3
390
14A2F
  0
LAYER
  5
118A1
102
{ACAD_XDICTIONARY
360
16722
102
}
330
7467
100
AcDbSymbolTableRecord
100
AcDbLayerTableRecord
  2
想像線
 70
     0
 62
     6
  6
PHANTOM
370
    -3
390
14A2F
  0
LAYER
  5
123C1
102
{ACAD_XDICTIONARY
360
16724
102
}
330
7467
100
AcDbSymbolTableRecord
100
AcDbLayerTableRecord
  2
破線
 70
     0
 62
     2
  6
HIDDEN
370
    -3
390
14A2F
  0
LAYER
  5
168F9
102
{ACAD_XDICTIONARY
360
168FA
102
}
330
7467
100
AcDbSymbolTableRecord
100
AcDbLayerTableRecord
  2
部品
 70
     0
 62
     7
  6
CONTINUOUS
370
    -3
390
14A2F
  0
ENDTAB
  0
TABLE
  2
STYLE
  5
7468
330
0
100
AcDbSymbolTable
 70
     4
  0
STYLE
  5
7475
330
7468
100
AcDbSymbolTableRecord
100
AcDbTextStyleTableRecord
  2
STANDARD
 70
     0
 40
0.0
 41
1.0
 50
0.0
 71
     0
 42
4.0
  3
txt
  4
C:\AutoCAD LT\bigfont.shx
  0
STYLE
  5
F706
330
7468
100
AcDbSymbolTableRecord
100
AcDbTextStyleTableRecord
  2
STYLE1
 70
     0
 40
0.0
 41
1.0
 50
0.0
 71
     0
 42
4.0
  3
isocp.shx
  4
bigfont.shx
  0
STYLE
  5
103BF
330
7468
100
AcDbSymbolTableRecord
100
AcDbTextStyleTableRecord
  2
STYLE2
 70
     0
 40
0.0
 41
1.0
 50
0.0
 71
     0
 42
100.0
  3

  4

1001
ACAD
1000
MS PGothic
1071
    32818
  0
STYLE
  5
10BAA
330
7468
100
AcDbSymbolTableRecord
100
AcDbTextStyleTableRecord
  2
STYLE3
 70
     0
 40
0.0
 41
1.0
 50
0.0
 71
     0
 42
100.0
  3

  4

1001
ACAD
1000
DFPGothic-EB
1071
    32818
  0
ENDTAB
  0
TABLE
  2
VIEW
  5
746B
330
0
100
AcDbSymbolTable
 70
     0
  0
ENDTAB
  0
TABLE
  2
UCS
  5
746C
330
0
100
AcDbSymbolTable
 70
     0
  0
ENDTAB
  0
TABLE
  2
APPID
  5
746E
330
0
100
AcDbSymbolTable
 70
    13
  0
APPID
  5
7476
330
746E
100
AcDbSymbolTableRecord
100
AcDbRegAppTableRecord
  2
ACAD
 70
     0
  0
APPID
  5
DEA9
330
746E
100
AcDbSymbolTableRecord
100
AcDbRegAppTableRecord
  2
CONTENTBLOCKICON
 70
     0
  0
APPID
  5
DEAA
330
746E
100
AcDbSymbolTableRecord
100
AcDbRegAppTableRecord
  2
CONTENTBLOCKDESCRIPTION
 70
     0
  0
APPID
  5
E71D
330
746E
100
AcDbSymbolTableRecord
100
AcDbRegAppTableRecord
  2
CONTENTTABDATA
 70
     0
  0
APPID
  5
E71E
330
746E
100
AcDbSymbolTableRecord
100
AcDbRegAppTableRecord
  2
CONTENTCURRENTTAB
 70
     0
  0
APPID
  5
F3BA
330
746E
100
AcDbSymbolTableRecord
100
AcDbRegAppTableRecord
  2
DRAWINGVARIABLESXDATA
 70
     0
  0
APPID
  5
1664A
330
746E
100
AcDbSymbolTableRecord
100
AcDbRegAppTableRecord
  2
ACAD_NAV_VCDISPLAY
 70
     0
  0
APPID
  5
1664B
330
746E
100
AcDbSymbolTableRecord
100
AcDbRegAppTableRecord
  2
ACAD_DSTYLE_DIMJAG
 70
     0
  0
APPID
  5
1664C
330
746E
100
AcDbSymbolTableRecord
100
AcDbRegAppTableRecord
  2
ACAD_DSTYLE_DIMTALN
 70
     0
  0
APPID
  5
1664D
330
746E
100
AcDbSymbolTableRecord
100
AcDbRegAppTableRecord
  2
ACAD_PSEXT
 70
     0
  0
APPID
  5
1670E
330
746E
100
AcDbSymbolTableRecord
100
AcDbRegAppTableRecord
  2
ACAD_EXEMPT_FROM_CAD_STANDARDS
 70
     0
  0
APPID
  5
16A24
330
746E
100
AcDbSymbolTableRecord
100
AcDbRegAppTableRecord
  2
AcadAnnoMonitorAlertIconDisabled
 70
     0
  0
APPID
  5
17B6A
330
746E
100
AcDbSymbolTableRecord
100
AcDbRegAppTableRecord
  2
ACAD_MLEADERVER
 70
     0
  0
ENDTAB
  0
TABLE
  2
DIMSTYLE
  5
746F
330
0
100
AcDbSymbolTable
 70
     2
100
AcDbDimStyleTable
 71
     1
340
F71F
  0
DIMSTYLE
105
F71F
102
{ACAD_REACTORS
330
13ACA
330
13B15
330
13B17
330
13B23
330
13B3C
330
13B9A
330
13BA6
330
13BA9
330
13BAE
330
13EA2
330
13EBD
330
14548
330
14562
330
149B4
330
149D6
330
14A1F
330
14F41
330
14F5F
330
14F60
330
14F61
330
14F62
330
14F63
330
15980
330
1597F
330
15981
330
159D3
330
16552
330
16553
102
}
330
746F
100
AcDbSymbolTableRecord
100
AcDbDimStyleTableRecord
  2
INABA_S40G
 70
     0
 40
40.0
 41
2.5
 42
0.5
 43
7.0
 44
1.5
 73
     0
 74
     0
 77
     3
 78
     8
140
3.0
141
0.0
143
0.0394
147
1.0
172
     1
173
     1
174
     1
178
     7
271
     1
340
F706
341
F770
343
F770
344
F770
  0
DIMSTYLE
105
14BDF
102
{ACAD_REACTORS
330
15008
102
}
330
746F
100
AcDbSymbolTableRecord
100
AcDbDimStyleTableRecord
  2
INABA_S40
 70
     0
 40
40.0
 41
2.5
 42
0.5
 43
7.0
 44
1.5
 73
     0
 74
     0
 77
     3
 78
     8
140
3.0
141
0.0
143
0.0394
147
1.0
172
     1
173
     1
174
     1
175
     1
178
     7
289
     0
340
7475
341
14A3D
343
14A3D
344
14A3D
  0
ENDTAB
  0
TABLE
  2
BLOCK_RECORD
  5
7466
330
0
100
AcDbSymbolTable
 70
    32
  0
BLOCK_RECORD
  5
747D
102
{ACAD_XDICTIONARY
360
16643
102
}
330
7466
100
AcDbSymbolTableRecord
100
AcDbBlockTableRecord
  2
*MODEL_SPACE
340
14A34
  0
BLOCK_RECORD
  5
747A
330
7466
100
AcDbSymbolTableRecord
100
AcDbBlockTableRecord
  2
*PAPER_SPACE
340
14A35
  0
BLOCK_RECORD
  5
F770
330
7466
100
AcDbSymbolTableRecord
100
AcDbBlockTableRecord
  2
_DOTSMALL
340
0
102
{BLKREFS
331
15D30
331
15D43
331
15D44
331
15D60
331
15D61
331
15DAE
331
15DAF
331
16581
331
16582
331
16998
331
16999
331
169E2
331
169E3
331
169EB
331
169EC
331
169F4
331
169F5
331
169FF
331
16A00
331
16A0A
331
16A0B
331
16A15
331
16A16
331
16A1E
331
16A1F
331
16A3C
331
16A3D
331
16A45
331
16A46
331
173DA
331
173DB
331
15C52
331
15C53
331
15C5D
331
15C5E
331
15C66
331
15C67
331
15C6F
331
15C70
331
15CB3
331
15CB4
331
15CBD
331
15CBE
331
15CD8
331
15CD9
331
15CE1
331
15CE2
331
15D2F
331
16926
331
16927
331
16986
331
16987
331
176D6
331
176D7
331
17B08
331
17B09
102
}
  0
BLOCK_RECORD
  5
13C12
330
7466
100
AcDbSymbolTableRecord
100
AcDbBlockTableRecord
  2
*D1
340
0
  0
BLOCK_RECORD
  5
13C5D
330
7466
100
AcDbSymbolTableRecord
100
AcDbBlockTableRecord
  2
*D2
340
0
  0
BLOCK_RECORD
  5
13C69
330
7466
100
AcDbSymbolTableRecord
100
AcDbBlockTableRecord
  2
*D3
340
0
  0
BLOCK_RECORD
  5
13C83
330
7466
100
AcDbSymbolTableRecord
100
AcDbBlockTableRecord
  2
*D4
340
0
  0
BLOCK_RECORD
  5
13CCF
330
7466
100
AcDbSymbolTableRecord
100
AcDbBlockTableRecord
  2
*D5
340
0
  0
BLOCK_RECORD
  5
13CDD
330
7466
100
AcDbSymbolTableRecord
100
AcDbBlockTableRecord
  2
*D6
340
0
  0
BLOCK_RECORD
  5
13CF8
330
7466
100
AcDbSymbolTableRecord
100
AcDbBlockTableRecord
  2
*D7
340
0
  0
BLOCK_RECORD
  5
13D10
330
7466
100
AcDbSymbolTableRecord
100
AcDbBlockTableRecord
  2
*D8
340
0
  0
BLOCK_RECORD
  5
13D1C
330
7466
100
AcDbSymbolTableRecord
100
AcDbBlockTableRecord
  2
*D9
340
0
  0
BLOCK_RECORD
  5
13EC4
330
7466
100
AcDbSymbolTableRecord
100
AcDbBlockTableRecord
  2
*D10
340
0
  0
BLOCK_RECORD
  5
13EDC
330
7466
100
AcDbSymbolTableRecord
100
AcDbBlockTableRecord
  2
*D11
340
0
  0
BLOCK_RECORD
  5
1453A
330
7466
100
AcDbSymbolTableRecord
100
AcDbBlockTableRecord
  2
*D12
340
0
  0
BLOCK_RECORD
  5
14556
330
7466
100
AcDbSymbolTableRecord
100
AcDbBlockTableRecord
  2
*D13
340
0
  0
BLOCK_RECORD
  5
149B5
330
7466
100
AcDbSymbolTableRecord
100
AcDbBlockTableRecord
  2
*D14
340
0
  0
BLOCK_RECORD
  5
149D7
330
7466
100
AcDbSymbolTableRecord
100
AcDbBlockTableRecord
  2
*D15
340
0
  0
BLOCK_RECORD
  5
14A20
330
7466
100
AcDbSymbolTableRecord
100
AcDbBlockTableRecord
  2
*D16
340
0
  0
BLOCK_RECORD
  5
14A3D
330
7466
100
AcDbSymbolTableRecord
100
AcDbBlockTableRecord
  2
_OPEN
340
0
  0
BLOCK_RECORD
  5
14A43
330
7466
100
AcDbSymbolTableRecord
100
AcDbBlockTableRecord
  2
_DOT
340
0
102
{BLKREFS
331
173E3
331
173E4
102
}
  0
BLOCK_RECORD
  5
15218
330
7466
100
AcDbSymbolTableRecord
100
AcDbBlockTableRecord
  2
*D19
340
0
  0
BLOCK_RECORD
  5
15224
330
7466
100
AcDbSymbolTableRecord
100
AcDbBlockTableRecord
  2
*D20
340
0
  0
BLOCK_RECORD
  5
15231
330
7466
100
AcDbSymbolTableRecord
100
AcDbBlockTableRecord
  2
*D21
340
0
  0
BLOCK_RECORD
  5
1523F
330
7466
100
AcDbSymbolTableRecord
100
AcDbBlockTableRecord
  2
*D22
340
0
  0
BLOCK_RECORD
  5
1524B
330
7466
100
AcDbSymbolTableRecord
100
AcDbBlockTableRecord
  2
*D23
340
0
  0
BLOCK_RECORD
  5
15257
330
7466
100
AcDbSymbolTableRecord
100
AcDbBlockTableRecord
  2
*D24
340
0
  0
BLOCK_RECORD
  5
152B0
330
7466
100
AcDbSymbolTableRecord
100
AcDbBlockTableRecord
  2
*D25
340
0
  0
BLOCK_RECORD
  5
15990
330
7466
100
AcDbSymbolTableRecord
100
AcDbBlockTableRecord
  2
*D26
340
0
  0
BLOCK_RECORD
  5
1599C
330
7466
100
AcDbSymbolTableRecord
100
AcDbBlockTableRecord
  2
*D27
340
0
  0
BLOCK_RECORD
  5
159A8
330
7466
100
AcDbSymbolTableRecord
100
AcDbBlockTableRecord
  2
*D28
340
0
  0
BLOCK_RECORD
  5
159DE
330
7466
100
AcDbSymbolTableRecord
100
AcDbBlockTableRecord
  2
*D29
340
0
  0
BLOCK_RECORD
  5
16559
330
7466
100
AcDbSymbolTableRecord
100
AcDbBlockTableRecord
  2
*D30
340
0
  0
BLOCK_RECORD
  5
16565
330
7466
100
AcDbSymbolTableRecord
100
AcDbBlockTableRecord
  2
*D31
340
0
  0
ENDTAB
  0
ENDSEC
  0
SECTION
  2
BLOCKS
  0
BLOCK
  5
7489
330
747D
100
AcDbEntity
  8
0
100
AcDbBlockBegin
  2
*MODEL_SPACE
 70
     0
 10
0.0
 20
0.0
 30
0.0
  3
*MODEL_SPACE
  1

  0
ENDBLK
  5
748A
330
747D
100
AcDbEntity
  8
0
100
AcDbBlockEnd
  0
BLOCK
  5
7487
330
747A
100
AcDbEntity
 67
     1
  8
0
100
AcDbBlockBegin
  2
*PAPER_SPACE
 70
     0
 10
0.0
 20
0.0
 30
0.0
  3
*PAPER_SPACE
  1

  0
ENDBLK
  5
7488
330
747A
100
AcDbEntity
 67
     1
  8
0
100
AcDbBlockEnd
  0
BLOCK
  5
F771
330
F770
100
AcDbEntity
  8
0
 48
50.0
100
AcDbBlockBegin
  2
_DOTSMALL
 70
     0
 10
0.0
 20
0.0
 30
0.0
  3
_DOTSMALL
  1

  0
LWPOLYLINE
  5
F772
330
F770
100
AcDbEntity
  8
0
  6
ByBlock
 62
     0
 48
50.0
100
AcDbPolyline
 90
        2
 70
     1
 43
0.5
 10
-0.0625
 20
0.0
 42
1.0
 10
0.0625
 20
0.0
 42
1.0
  0
ENDBLK
  5
F776
330
F770
100
AcDbEntity
  8
0
 48
50.0
100
AcDbBlockEnd
  0
BLOCK
  5
1488F
330
13C12
100
AcDbEntity
  8
0
 48
50.0
100
AcDbBlockBegin
  2
*D1
 70
     1
 10
0.0
 20
0.0
 30
0.0
  3
*D1
  1

  0
LINE
  5
15D5D
330
13C12
100
AcDbEntity
  8
寸法
 62
     0
 48
50.0
370
    -2
100
AcDbLine
 10
5509.295015675678
 20
5391.07727689386
 30
0.0
 11
5151.190488068075
 21
5391.07727689386
 31
0.0
  0
LINE
  5
15D5E
330
13C12
100
AcDbEntity
  8
寸法
 62
     0
 48
50.0
370
    -2
100
AcDbLine
 10
5509.295015675678
 20
3631.077276893865
 30
0.0
 11
5151.190488068075
 21
3631.077276893865
 31
0.0
  0
LINE
  5
15D5F
330
13C12
100
AcDbEntity
  8
寸法
 62
     0
 48
50.0
370
    -2
100
AcDbLine
 10
5211.190488068075
 20
5391.07727689386
 30
0.0
 11
5211.190488068075
 21
3631.077276893865
 31
0.0
  0
INSERT
  5
15D60
330
13C12
100
AcDbEntity
  8
寸法
 62
     0
 48
50.0
370
    -2
100
AcDbBlockReference
  2
_DOTSMALL
 10
5211.190488068075
 20
5391.07727689386
 30
0.0
 41
100.0
 42
100.0
 43
100.0
 50
90.0
  0
INSERT
  5
15D61
330
13C12
100
AcDbEntity
  8
寸法
 62
     0
 48
50.0
370
    -2
100
AcDbBlockReference
  2
_DOTSMALL
 10
5211.190488068075
 20
3631.077276893865
 30
0.0
 41
100.0
 42
100.0
 43
100.0
 50
270.0
  0
MTEXT
  5
15D62
330
13C12
100
AcDbEntity
  8
寸法
 62
     7
 48
50.0
100
AcDbMText
 10
5111.190488068074
 20
4510.077276893862
 30
0.0
 40
120.0
 41
0.0
 71
     5
 72
     1
  1
\A1;有効開口部高サ1760
  7
STYLE1
 11
0.0000000000000001
 21
1.0
 31
0.0
 73
     1
 44
1.0
1001
ACAD
1000
MTEXTBEGIN
1070
    73
1070
     1
1070
    44
1040
1.0
1070
    74
1070
     0
1000
MTEXTEND
  0
POINT
  5
15D63
330
13C12
100
AcDbEntity
  8
DEFPOINTS
 62
     0
 48
50.0
100
AcDbPoint
 10
5529.295015675678
 20
5391.07727689386
 30
0.0
  0
POINT
  5
15D64
330
13C12
100
AcDbEntity
  8
DEFPOINTS
 62
     0
 48
50.0
100
AcDbPoint
 10
5529.295015675678
 20
3631.077276893865
 30
0.0
  0
POINT
  5
15D65
330
13C12
100
AcDbEntity
  8
DEFPOINTS
 62
     0
 48
50.0
100
AcDbPoint
 10
5211.190488068075
 20
3631.077276893865
 30
0.0
  0
ENDBLK
  5
14899
330
13C12
100
AcDbEntity
  8
0
 48
50.0
100
AcDbBlockEnd
  0
BLOCK
  5
14695
330
13C5D
100
AcDbEntity
  8
0
 48
50.0
100
AcDbBlockBegin
  2
*D2
 70
     1
 10
0.0
 20
0.0
 30
0.0
  3
*D2
  1

  0
LINE
  5
169F1
330
13C5D
100
AcDbEntity
  8
寸法
 62
     0
370
    -2
100
AcDbLine
 10
5584.295015675684
 20
9196.365915108435
 30
0.0
 11
5584.295015675684
 21
9680.309563122449
 31
0.0
  0
LINE
  5
169F2
330
13C5D
100
AcDbEntity
  8
寸法
 62
     0
370
    -2
100
AcDbLine
 10
6294.295015675683
 20
9196.365915108554
 30
0.0
 11
6294.295015675683
 21
9680.309563122449
 31
0.0
  0
LINE
  5
169F3
330
13C5D
100
AcDbEntity
  8
寸法
 62
     0
370
    -2
100
AcDbLine
 10
5584.295015675684
 20
9620.309563122448
 30
0.0
 11
6294.295015675683
 21
9620.309563122448
 31
0.0
  0
INSERT
  5
169F4
330
13C5D
100
AcDbEntity
  8
寸法
 62
     0
370
    -2
100
AcDbBlockReference
  2
_DOTSMALL
 10
5584.295015675684
 20
9620.309563122448
 30
0.0
 41
100.0
 42
100.0
 43
100.0
 50
180.0
  0
INSERT
  5
169F5
330
13C5D
100
AcDbEntity
  8
寸法
 62
     0
370
    -2
100
AcDbBlockReference
  2
_DOTSMALL
 10
6294.295015675683
 20
9620.309563122448
 30
0.0
 41
100.0
 42
100.0
 43
100.0
  0
MTEXT
  5
169F6
330
13C5D
100
AcDbEntity
  8
寸法
 62
     7
100
AcDbMText
 10
5939.545015675683
 20
9720.309563122448
 30
0.0
 40
120.0
 41
0.0
 71
     5
 72
     1
  1
\A1;710
  7
STYLE1
 73
     1
 44
1.0
1001
ACAD
1000
MTEXTBEGIN
1070
    73
1070
     1
1070
    44
1040
1.0
1070
    74
1070
     0
1000
MTEXTEND
  0
POINT
  5
169F7
330
13C5D
100
AcDbEntity
  8
DEFPOINTS
 62
     0
100
AcDbPoint
 10
5584.295015675684
 20
9176.365915108434
 30
0.0
  0
POINT
  5
169F8
330
13C5D
100
AcDbEntity
  8
DEFPOINTS
 62
     0
100
AcDbPoint
 10
6294.295015675683
 20
9176.365915108554
 30
0.0
  0
POINT
  5
169F9
330
13C5D
100
AcDbEntity
  8
DEFPOINTS
 62
     0
100
AcDbPoint
 10
6294.295015675683
 20
9620.309563122448
 30
0.0
  0
ENDBLK
  5
1469F
330
13C5D
100
AcDbEntity
  8
0
 48
50.0
100
AcDbBlockEnd
  0
BLOCK
  5
13DD4
330
13C69
100
AcDbEntity
  8
0
 48
50.0
100
AcDbBlockBegin
  2
*D3
 70
     1
 10
0.0
 20
0.0
 30
0.0
  3
*D3
  1

  0
LINE
  5
169FA
330
13C69
100
AcDbEntity
  8
寸法
 62
     0
370
    -2
100
AcDbLine
 10
7114.295015675685
 20
9196.365915108527
 30
0.0
 11
7114.295015675685
 21
9680.309563122428
 31
0.0
  0
LINE
  5
169FB
330
13C69
100
AcDbEntity
  8
寸法
 62
     0
370
    -2
100
AcDbLine
 10
7169.295015675685
 20
9196.365915108527
 30
0.0
 11
7169.295015675685
 21
9680.309563122428
 31
0.0
  0
LINE
  5
169FC
330
13C69
100
AcDbEntity
  8
寸法
 62
     0
370
    -2
100
AcDbLine
 10
7114.295015675685
 20
9620.309563122425
 30
0.0
 11
7014.295015675685
 21
9620.309563122425
 31
0.0
  0
LINE
  5
169FD
330
13C69
100
AcDbEntity
  8
寸法
 62
     0
370
    -2
100
AcDbLine
 10
7169.295015675685
 20
9620.309563122425
 30
0.0
 11
7586.265578424162
 21
9620.309563122425
 31
0.0
  0
LINE
  5
169FE
330
13C69
100
AcDbEntity
  8
寸法
 62
     0
370
    -2
100
AcDbLine
 10
7114.295015675685
 20
9620.309563122425
 30
0.0
 11
7169.295015675685
 21
9620.309563122425
 31
0.0
  0
INSERT
  5
169FF
330
13C69
100
AcDbEntity
  8
寸法
 62
     0
370
    -2
100
AcDbBlockReference
  2
_DOTSMALL
 10
7114.295015675685
 20
9620.309563122425
 30
0.0
 41
100.0
 42
100.0
 43
100.0
  0
INSERT
  5
16A00
330
13C69
100
AcDbEntity
  8
寸法
 62
     0
370
    -2
100
AcDbBlockReference
  2
_DOTSMALL
 10
7169.295015675685
 20
9620.309563122425
 30
0.0
 41
100.0
 42
100.0
 43
100.0
 50
180.0
  0
MTEXT
  5
16A01
330
13C69
100
AcDbEntity
  8
寸法
 62
     7
100
AcDbMText
 10
7477.780297049924
 20
9720.309563122427
 30
0.0
 40
120.0
 41
0.0
 71
     5
 72
     1
  1
\A1;55
  7
STYLE1
 73
     1
 44
1.0
1001
ACAD
1000
MTEXTBEGIN
1070
    73
1070
     1
1070
    44
1040
1.0
1070
    74
1070
     0
1000
MTEXTEND
  0
POINT
  5
16A02
330
13C69
100
AcDbEntity
  8
DEFPOINTS
 62
     0
100
AcDbPoint
 10
7114.295015675685
 20
9176.365915108529
 30
0.0
  0
POINT
  5
16A03
330
13C69
100
AcDbEntity
  8
DEFPOINTS
 62
     0
100
AcDbPoint
 10
7169.295015675685
 20
9176.365915108529
 30
0.0
  0
POINT
  5
16A04
330
13C69
100
AcDbEntity
  8
DEFPOINTS
 62
     0
100
AcDbPoint
 10
7169.295015675685
 20
9620.309563122425
 30
0.0
  0
ENDBLK
  5
13DE0
330
13C69
100
AcDbEntity
  8
0
 48
50.0
100
AcDbBlockEnd
  0
BLOCK
  5
1477E
330
13C83
100
AcDbEntity
  8
0
 48
50.0
100
AcDbBlockBegin
  2
*D4
 70
     1
 10
0.0
 20
0.0
 30
0.0
  3
*D4
  1

  0
LINE
  5
15D40
330
13C83
100
AcDbEntity
  8
寸法
 62
     0
 48
50.0
370
    -2
100
AcDbLine
 10
5529.295015675678
 20
8336.365915108354
 30
0.0
 11
5529.295015675678
 21
7309.264040248283
 31
0.0
  0
LINE
  5
15D41
330
13C83
100
AcDbEntity
  8
寸法
 62
     0
 48
50.0
370
    -2
100
AcDbLine
 10
7169.295015675659
 20
8336.365915108485
 30
0.0
 11
7169.295015675659
 21
7309.264040248283
 31
0.0
  0
LINE
  5
15D42
330
13C83
100
AcDbEntity
  8
寸法
 62
     0
 48
50.0
370
    -2
100
AcDbLine
 10
5529.295015675678
 20
7369.264040248284
 30
0.0
 11
7169.295015675659
 21
7369.264040248284
 31
0.0
  0
INSERT
  5
15D43
330
13C83
100
AcDbEntity
  8
寸法
 62
     0
 48
50.0
370
    -2
100
AcDbBlockReference
  2
_DOTSMALL
 10
5529.295015675678
 20
7369.264040248284
 30
0.0
 41
100.0
 42
100.0
 43
100.0
 50
180.0
  0
INSERT
  5
15D44
330
13C83
100
AcDbEntity
  8
寸法
 62
     0
 48
50.0
370
    -2
100
AcDbBlockReference
  2
_DOTSMALL
 10
7169.295015675659
 20
7369.264040248284
 30
0.0
 41
100.0
 42
100.0
 43
100.0
  0
MTEXT
  5
15D45
330
13C83
100
AcDbEntity
  8
寸法
 62
     7
 48
50.0
100
AcDbMText
 10
6341.046557518661
 20
7469.264040248283
 30
0.0
 40
120.0
 41
0.0
 71
     5
 72
     1
  1
\A1;1640
  7
STYLE1
 73
     1
 44
1.0
1001
ACAD
1000
MTEXTBEGIN
1070
    73
1070
     1
1070
    44
1040
1.0
1070
    74
1070
     0
1000
MTEXTEND
  0
POINT
  5
15D46
330
13C83
100
AcDbEntity
  8
DEFPOINTS
 62
     0
 48
50.0
100
AcDbPoint
 10
5529.295015675678
 20
8356.365915108353
 30
0.0
  0
POINT
  5
15D47
330
13C83
100
AcDbEntity
  8
DEFPOINTS
 62
     0
 48
50.0
100
AcDbPoint
 10
7169.295015675659
 20
8356.365915108485
 30
0.0
  0
POINT
  5
15D48
330
13C83
100
AcDbEntity
  8
DEFPOINTS
 62
     0
 48
50.0
100
AcDbPoint
 10
7169.295015675659
 20
7369.264040248284
 30
0.0
  0
ENDBLK
  5
14788
330
13C83
100
AcDbEntity
  8
0
 48
50.0
100
AcDbBlockEnd
  0
BLOCK
  5
13E32
330
13CCF
100
AcDbEntity
  8
0
 48
50.0
100
AcDbBlockBegin
  2
*D5
 70
     1
 10
0.0
 20
0.0
 30
0.0
  3
*D5
  1

  0
LINE
  5
16A05
330
13CCF
100
AcDbEntity
  8
寸法
 62
     0
370
    -2
100
AcDbLine
 10
5529.29501567565
 20
9196.365915108435
 30
0.0
 11
5529.29501567565
 21
9680.309563122332
 31
0.0
  0
LINE
  5
16A06
330
13CCF
100
AcDbEntity
  8
寸法
 62
     0
370
    -2
100
AcDbLine
 10
5584.295015675684
 20
9196.365915108435
 30
0.0
 11
5584.295015675684
 21
9680.309563122332
 31
0.0
  0
LINE
  5
16A07
330
13CCF
100
AcDbEntity
  8
寸法
 62
     0
370
    -2
100
AcDbLine
 10
5584.295015675684
 20
9620.309563122333
 30
0.0
 11
5684.295015675684
 21
9620.309563122333
 31
0.0
  0
LINE
  5
16A08
330
13CCF
100
AcDbEntity
  8
寸法
 62
     0
370
    -2
100
AcDbLine
 10
5529.29501567565
 20
9620.309563122333
 30
0.0
 11
5112.324452927172
 21
9620.309563122333
 31
0.0
  0
LINE
  5
16A09
330
13CCF
100
AcDbEntity
  8
寸法
 62
     0
370
    -2
100
AcDbLine
 10
5584.295015675684
 20
9620.309563122333
 30
0.0
 11
5529.29501567565
 21
9620.309563122333
 31
0.0
  0
INSERT
  5
16A0A
330
13CCF
100
AcDbEntity
  8
寸法
 62
     0
370
    -2
100
AcDbBlockReference
  2
_DOTSMALL
 10
5584.295015675684
 20
9620.309563122333
 30
0.0
 41
100.0
 42
100.0
 43
100.0
 50
180.0
  0
INSERT
  5
16A0B
330
13CCF
100
AcDbEntity
  8
寸法
 62
     0
370
    -2
100
AcDbBlockReference
  2
_DOTSMALL
 10
5529.29501567565
 20
9620.309563122333
 30
0.0
 41
100.0
 42
100.0
 43
100.0
  0
MTEXT
  5
16A0C
330
13CCF
100
AcDbEntity
  8
寸法
 62
     7
100
AcDbMText
 10
5220.809734301411
 20
9720.309563122333
 30
0.0
 40
120.0
 41
0.0
 71
     5
 72
     1
  1
\A1;55
  7
STYLE1
 73
     1
 44
1.0
1001
ACAD
1000
MTEXTBEGIN
1070
    73
1070
     1
1070
    44
1040
1.0
1070
    74
1070
     0
1000
MTEXTEND
  0
POINT
  5
16A0D
330
13CCF
100
AcDbEntity
  8
DEFPOINTS
 62
     0
100
AcDbPoint
 10
5529.29501567565
 20
9176.365915108434
 30
0.0
  0
POINT
  5
16A0E
330
13CCF
100
AcDbEntity
  8
DEFPOINTS
 62
     0
100
AcDbPoint
 10
5584.295015675684
 20
9176.365915108434
 30
0.0
  0
POINT
  5
16A0F
330
13CCF
100
AcDbEntity
  8
DEFPOINTS
 62
     0
100
AcDbPoint
 10
5584.295015675684
 20
9620.309563122333
 30
0.0
  0
ENDBLK
  5
13E3E
330
13CCF
100
AcDbEntity
  8
0
 48
50.0
100
AcDbBlockEnd
  0
BLOCK
  5
13E3F
330
13CDD
100
AcDbEntity
  8
0
 48
50.0
100
AcDbBlockBegin
  2
*D6
 70
     1
 10
0.0
 20
0.0
 30
0.0
  3
*D6
  1

  0
LINE
  5
15D2A
330
13CDD
100
AcDbEntity
  8
寸法
 62
     0
 48
50.0
370
    -2
100
AcDbLine
 10
7189.29501567566
 20
8411.365915108515
 30
0.0
 11
7876.721361410069
 21
8411.365915108515
 31
0.0
  0
LINE
  5
15D2B
330
13CDD
100
AcDbEntity
  8
寸法
 62
     0
 48
50.0
370
    -2
100
AcDbLine
 10
7189.29501567566
 20
8356.365915108517
 30
0.0
 11
7876.721361410069
 21
8356.365915108517
 31
0.0
  0
LINE
  5
15D2C
330
13CDD
100
AcDbEntity
  8
寸法
 62
     0
 48
50.0
370
    -2
100
AcDbLine
 10
7816.721361410071
 20
8411.365915108515
 30
0.0
 11
7816.721361410071
 21
8511.365915108514
 31
0.0
  0
LINE
  5
15D2D
330
13CDD
100
AcDbEntity
  8
寸法
 62
     0
 48
50.0
370
    -2
100
AcDbLine
 10
7816.721361410071
 20
8356.365915108517
 30
0.0
 11
7816.721361410071
 21
7870.019166829418
 31
0.0
  0
LINE
  5
15D2E
330
13CDD
100
AcDbEntity
  8
寸法
 62
     0
 48
50.0
370
    -2
100
AcDbLine
 10
7816.721361410071
 20
8411.365915108515
 30
0.0
 11
7816.721361410071
 21
8356.365915108517
 31
0.0
  0
INSERT
  5
15D2F
330
13CDD
100
AcDbEntity
  8
寸法
 62
     0
 48
50.0
370
    -2
100
AcDbBlockReference
  2
_DOTSMALL
 10
7816.721361410071
 20
8411.365915108515
 30
0.0
 41
100.0
 42
100.0
 43
100.0
 50
270.0
  0
INSERT
  5
15D30
330
13CDD
100
AcDbEntity
  8
寸法
 62
     0
 48
50.0
370
    -2
100
AcDbBlockReference
  2
_DOTSMALL
 10
7816.721361410071
 20
8356.365915108517
 30
0.0
 41
100.0
 42
100.0
 43
100.0
 50
90.0
  0
MTEXT
  5
15D31
330
13CDD
100
AcDbEntity
  8
寸法
 62
     7
 48
50.0
100
AcDbMText
 10
7716.721361410069
 20
7978.504448203658
 30
0.0
 40
120.0
 41
0.0
 71
     5
 72
     1
  1
\A1;55
  7
STYLE1
 11
0.0000000000000001
 21
1.0
 31
0.0
 73
     1
 44
1.0
1001
ACAD
1000
MTEXTBEGIN
1070
    73
1070
     1
1070
    44
1040
1.0
1070
    74
1070
     0
1000
MTEXTEND
  0
POINT
  5
15D32
330
13CDD
100
AcDbEntity
  8
DEFPOINTS
 62
     0
 48
50.0
100
AcDbPoint
 10
7169.295015675659
 20
8411.365915108515
 30
0.0
  0
POINT
  5
15D33
330
13CDD
100
AcDbEntity
  8
DEFPOINTS
 62
     0
 48
50.0
100
AcDbPoint
 10
7169.295015675659
 20
8356.365915108517
 30
0.0
  0
POINT
  5
15D34
330
13CDD
100
AcDbEntity
  8
DEFPOINTS
 62
     0
 48
50.0
100
AcDbPoint
 10
7816.721361410071
 20
8356.365915108517
 30
0.0
  0
ENDBLK
  5
13E4B
330
13CDD
100
AcDbEntity
  8
0
 48
50.0
100
AcDbBlockEnd
  0
BLOCK
  5
13E58
330
13CF8
100
AcDbEntity
  8
0
 48
50.0
100
AcDbBlockBegin
  2
*D7
 70
     1
 10
0.0
 20
0.0
 30
0.0
  3
*D7
  1

  0
LINE
  5
16A39
330
13CF8
100
AcDbEntity
  8
寸法
 62
     0
370
    -2
100
AcDbLine
 10
7189.295015675686
 20
9121.365915108532
 30
0.0
 11
7876.721361410097
 21
9121.365915108532
 31
0.0
  0
LINE
  5
16A3A
330
13CF8
100
AcDbEntity
  8
寸法
 62
     0
370
    -2
100
AcDbLine
 10
7189.29501567566
 20
8411.365915108515
 30
0.0
 11
7876.721361410097
 21
8411.365915108515
 31
0.0
  0
LINE
  5
16A3B
330
13CF8
100
AcDbEntity
  8
寸法
 62
     0
370
    -2
100
AcDbLine
 10
7816.721361410097
 20
9121.365915108532
 30
0.0
 11
7816.721361410097
 21
8411.365915108515
 31
0.0
  0
INSERT
  5
16A3C
330
13CF8
100
AcDbEntity
  8
寸法
 62
     0
370
    -2
100
AcDbBlockReference
  2
_DOTSMALL
 10
7816.721361410097
 20
9121.365915108532
 30
0.0
 41
100.0
 42
100.0
 43
100.0
 50
90.0
  0
INSERT
  5
16A3D
330
13CF8
100
AcDbEntity
  8
寸法
 62
     0
370
    -2
100
AcDbBlockReference
  2
_DOTSMALL
 10
7816.721361410097
 20
8411.365915108515
 30
0.0
 41
100.0
 42
100.0
 43
100.0
 50
270.0
  0
MTEXT
  5
16A3E
330
13CF8
100
AcDbEntity
  8
寸法
 62
     7
100
AcDbMText
 10
7716.721361410096
 20
8766.365915108522
 30
0.0
 40
120.0
 41
0.0
 71
     5
 72
     1
  1
\A1;710
  7
STYLE1
 11
0.0000000000000001
 21
1.0
 31
0.0
 73
     1
 44
1.0
1001
ACAD
1000
MTEXTBEGIN
1070
    73
1070
     1
1070
    44
1040
1.0
1070
    74
1070
     0
1000
MTEXTEND
  0
POINT
  5
16A3F
330
13CF8
100
AcDbEntity
  8
DEFPOINTS
 62
     0
100
AcDbPoint
 10
7169.295015675685
 20
9121.365915108532
 30
0.0
  0
POINT
  5
16A40
330
13CF8
100
AcDbEntity
  8
DEFPOINTS
 62
     0
100
AcDbPoint
 10
7169.295015675659
 20
8411.365915108515
 30
0.0
  0
POINT
  5
16A41
330
13CF8
100
AcDbEntity
  8
DEFPOINTS
 62
     0
100
AcDbPoint
 10
7816.721361410097
 20
8411.365915108515
 30
0.0
  0
ENDBLK
  5
13E62
330
13CF8
100
AcDbEntity
  8
0
 48
50.0
100
AcDbBlockEnd
  0
BLOCK
  5
13E6E
330
13D10
100
AcDbEntity
  8
0
 48
50.0
100
AcDbBlockBegin
  2
*D8
 70
     1
 10
0.0
 20
0.0
 30
0.0
  3
*D8
  1

  0
LINE
  5
16A42
330
13D10
100
AcDbEntity
  8
寸法
 62
     0
370
    -2
100
AcDbLine
 10
7189.295015675686
 20
9176.365915108529
 30
0.0
 11
8185.832892225773
 21
9176.365915108529
 31
0.0
  0
LINE
  5
16A43
330
13D10
100
AcDbEntity
  8
寸法
 62
     0
370
    -2
100
AcDbLine
 10
7189.29501567566
 20
8356.365915108517
 30
0.0
 11
8185.832892225773
 21
8356.365915108517
 31
0.0
  0
LINE
  5
16A44
330
13D10
100
AcDbEntity
  8
寸法
 62
     0
370
    -2
100
AcDbLine
 10
8125.832892225773
 20
9176.365915108529
 30
0.0
 11
8125.832892225773
 21
8356.365915108517
 31
0.0
  0
INSERT
  5
16A45
330
13D10
100
AcDbEntity
  8
寸法
 62
     0
370
    -2
100
AcDbBlockReference
  2
_DOTSMALL
 10
8125.832892225773
 20
9176.365915108529
 30
0.0
 41
100.0
 42
100.0
 43
100.0
 50
90.0
  0
INSERT
  5
16A46
330
13D10
100
AcDbEntity
  8
寸法
 62
     0
370
    -2
100
AcDbBlockReference
  2
_DOTSMALL
 10
8125.832892225773
 20
8356.365915108517
 30
0.0
 41
100.0
 42
100.0
 43
100.0
 50
270.0
  0
MTEXT
  5
16A47
330
13D10
100
AcDbEntity
  8
寸法
 62
     7
100
AcDbMText
 10
8025.821081202151
 20
8766.365915108522
 30
0.0
 40
120.0
 41
0.0
 71
     5
 72
     1
  1
\A1;820
  7
STYLE1
 11
0.0000000000000001
 21
1.0
 31
0.0
 73
     1
 44
1.0
1001
ACAD
1000
MTEXTBEGIN
1070
    73
1070
     1
1070
    44
1040
1.0
1070
    74
1070
     0
1000
MTEXTEND
  0
POINT
  5
16A48
330
13D10
100
AcDbEntity
  8
DEFPOINTS
 62
     0
100
AcDbPoint
 10
7169.295015675685
 20
9176.365915108529
 30
0.0
  0
POINT
  5
16A49
330
13D10
100
AcDbEntity
  8
DEFPOINTS
 62
     0
100
AcDbPoint
 10
7169.295015675659
 20
8356.365915108517
 30
0.0
  0
POINT
  5
16A4A
330
13D10
100
AcDbEntity
  8
DEFPOINTS
 62
     0
100
AcDbPoint
 10
8125.832892225773
 20
8356.365915108517
 30
0.0
  0
ENDBLK
  5
13E78
330
13D10
100
AcDbEntity
  8
0
 48
50.0
100
AcDbBlockEnd
  0
BLOCK
  5
13E79
330
13D1C
100
AcDbEntity
  8
0
 48
50.0
100
AcDbBlockBegin
  2
*D9
 70
     1
 10
0.0
 20
0.0
 30
0.0
  3
*D9
  1

  0
LINE
  5
16981
330
13D1C
100
AcDbEntity
  8
寸法
 62
     0
370
    -2
100
AcDbLine
 10
7189.295015675686
 20
9176.365915108529
 30
0.0
 11
7876.721361410095
 21
9176.365915108529
 31
0.0
  0
LINE
  5
16982
330
13D1C
100
AcDbEntity
  8
寸法
 62
     0
370
    -2
100
AcDbLine
 10
7189.295015675686
 20
9121.365915108532
 30
0.0
 11
7876.721361410095
 21
9121.365915108532
 31
0.0
  0
LINE
  5
16983
330
13D1C
100
AcDbEntity
  8
寸法
 62
     0
370
    -2
100
AcDbLine
 10
7816.721361410095
 20
9121.365915108532
 30
0.0
 11
7816.721361410095
 21
9021.365915108532
 31
0.0
  0
LINE
  5
16984
330
13D1C
100
AcDbEntity
  8
寸法
 62
     0
370
    -2
100
AcDbLine
 10
7816.721361410095
 20
9176.365915108529
 30
0.0
 11
7816.721361410095
 21
9593.336477857006
 31
0.0
  0
LINE
  5
16985
330
13D1C
100
AcDbEntity
  8
寸法
 62
     0
370
    -2
100
AcDbLine
 10
7816.721361410095
 20
9121.365915108532
 30
0.0
 11
7816.721361410095
 21
9176.365915108529
 31
0.0
  0
INSERT
  5
16986
330
13D1C
100
AcDbEntity
  8
寸法
 62
     0
370
    -2
100
AcDbBlockReference
  2
_DOTSMALL
 10
7816.721361410095
 20
9121.365915108532
 30
0.0
 41
100.0
 42
100.0
 43
100.0
 50
90.0
  0
INSERT
  5
16987
330
13D1C
100
AcDbEntity
  8
寸法
 62
     0
370
    -2
100
AcDbBlockReference
  2
_DOTSMALL
 10
7816.721361410095
 20
9176.365915108529
 30
0.0
 41
100.0
 42
100.0
 43
100.0
 50
270.0
  0
MTEXT
  5
16988
330
13D1C
100
AcDbEntity
  8
寸法
 62
     7
100
AcDbMText
 10
7716.721361410094
 20
9484.85119648277
 30
0.0
 40
120.0
 41
0.0
 71
     5
 72
     1
  1
\A1;55
  7
STYLE1
 11
0.0000000000000001
 21
1.0
 31
0.0
 73
     1
 44
1.0
1001
ACAD
1000
MTEXTBEGIN
1070
    73
1070
     1
1070
    44
1040
1.0
1070
    74
1070
     0
1000
MTEXTEND
  0
POINT
  5
16989
330
13D1C
100
AcDbEntity
  8
DEFPOINTS
 62
     0
100
AcDbPoint
 10
7169.295015675685
 20
9176.365915108529
 30
0.0
  0
POINT
  5
1698A
330
13D1C
100
AcDbEntity
  8
DEFPOINTS
 62
     0
100
AcDbPoint
 10
7169.295015675685
 20
9121.365915108532
 30
0.0
  0
POINT
  5
1698B
330
13D1C
100
AcDbEntity
  8
DEFPOINTS
 62
     0
100
AcDbPoint
 10
7816.721361410095
 20
9121.365915108532
 30
0.0
  0
ENDBLK
  5
13E85
330
13D1C
100
AcDbEntity
  8
0
 48
50.0
100
AcDbBlockEnd
  0
BLOCK
  5
140CC
330
13EC4
100
AcDbEntity
  8
0
 48
50.0
100
AcDbBlockBegin
  2
*D10
 70
     1
 10
0.0
 20
0.0
 30
0.0
  3
*D10
  1

  0
LINE
  5
169DF
330
13EC4
100
AcDbEntity
  8
寸法
 62
     0
370
    -2
100
AcDbLine
 10
6384.153999524239
 20
9166.865915108484
 30
0.0
 11
6460.602106566733
 21
9452.174134733532
 31
0.0
  0
LINE
  5
169E0
330
13EC4
100
AcDbEntity
  8
寸法
 62
     0
370
    -2
100
AcDbLine
 10
7145.153999524251
 20
9166.865915108479
 30
0.0
 11
7221.602106566746
 21
9452.174134733532
 31
0.0
  0
LINE
  5
169E1
330
13EC4
100
AcDbEntity
  8
寸法
 62
     0
370
    -2
100
AcDbLine
 10
6444.525155020866
 20
9392.174134733533
 30
0.0
 11
7205.525155020879
 21
9392.174134733533
 31
0.0
  0
INSERT
  5
169E2
330
13EC4
100
AcDbEntity
  8
寸法
 62
     0
370
    -2
100
AcDbBlockReference
  2
_DOTSMALL
 10
6444.525155020866
 20
9392.174134733533
 30
0.0
 41
100.0
 42
100.0
 43
100.0
 50
180.0
  0
INSERT
  5
169E3
330
13EC4
100
AcDbEntity
  8
寸法
 62
     0
370
    -2
100
AcDbBlockReference
  2
_DOTSMALL
 10
7205.525155020879
 20
9392.174134733533
 30
0.0
 41
100.0
 42
100.0
 43
100.0
  0
MTEXT
  5
169E4
330
13EC4
100
AcDbEntity
  8
寸法
 62
     7
100
AcDbMText
 10
6825.025155020873
 20
9492.174134733533
 30
0.0
 40
120.0
 41
0.0
 71
     5
 72
     1
  1
\A1;761
  7
STYLE1
 73
     1
 44
1.0
1001
ACAD
1000
MTEXTBEGIN
1070
    73
1070
     1
1070
    44
1040
1.0
1070
    74
1070
     0
1000
MTEXTEND
  0
POINT
  5
169E5
330
13EC4
100
AcDbEntity
  8
DEFPOINTS
 62
     0
100
AcDbPoint
 10
6378.795015675617
 20
9146.865915108483
 30
0.0
  0
POINT
  5
169E6
330
13EC4
100
AcDbEntity
  8
DEFPOINTS
 62
     0
100
AcDbPoint
 10
7139.79501567563
 20
9146.865915108479
 30
0.0
  0
POINT
  5
169E7
330
13EC4
100
AcDbEntity
  8
DEFPOINTS
 62
     0
100
AcDbPoint
 10
7205.525155020879
 20
9392.174134733533
 30
0.0
  0
ENDBLK
  5
140D6
330
13EC4
100
AcDbEntity
  8
0
 48
50.0
100
AcDbBlockEnd
  0
BLOCK
  5
13EDD
330
13EDC
100
AcDbEntity
  8
0
 48
50.0
100
AcDbBlockBegin
  2
*D11
 70
     1
 10
0.0
 20
0.0
 30
0.0
  3
*D11
  1

  0
LINE
  5
16995
330
13EDC
100
AcDbEntity
  8
寸法
 62
     0
370
    -2
100
AcDbLine
 10
7159.795015675618
 20
9141.506931259852
 30
0.0
 11
7555.152741537643
 21
9035.571147893719
 31
0.0
  0
LINE
  5
16996
330
13EDC
100
AcDbEntity
  8
寸法
 62
     0
370
    -2
100
AcDbLine
 10
7159.795015675618
 20
8691.506931259853
 30
0.0
 11
7555.152741537643
 21
8585.57114789372
 31
0.0
  0
LINE
  5
16997
330
13EDC
100
AcDbEntity
  8
寸法
 62
     0
370
    -2
100
AcDbLine
 10
7495.152741537641
 20
9051.648099439587
 30
0.0
 11
7495.152741537641
 21
8601.648099439586
 31
0.0
  0
INSERT
  5
16998
330
13EDC
100
AcDbEntity
  8
寸法
 62
     0
370
    -2
100
AcDbBlockReference
  2
_DOTSMALL
 10
7495.152741537641
 20
9051.648099439587
 30
0.0
 41
100.0
 42
100.0
 43
100.0
 50
90.0
  0
INSERT
  5
16999
330
13EDC
100
AcDbEntity
  8
寸法
 62
     0
370
    -2
100
AcDbBlockReference
  2
_DOTSMALL
 10
7495.152741537641
 20
8601.648099439586
 30
0.0
 41
100.0
 42
100.0
 43
100.0
 50
270.0
  0
MTEXT
  5
1699A
330
13EDC
100
AcDbEntity
  8
寸法
 62
     7
100
AcDbMText
 10
7395.152741537642
 20
8826.648099439587
 30
0.0
 40
120.0
 41
0.0
 71
     5
 72
     1
  1
\A1;450
  7
STYLE1
 11
0.0000000000000001
 21
1.0
 31
0.0
 73
     1
 44
1.0
1001
ACAD
1000
MTEXTBEGIN
1070
    73
1070
     1
1070
    44
1040
1.0
1070
    74
1070
     0
1000
MTEXTEND
  0
POINT
  5
1699B
330
13EDC
100
AcDbEntity
  8
DEFPOINTS
 62
     0
100
AcDbPoint
 10
7139.795015675618
 20
9146.865915108476
 30
0.0
  0
POINT
  5
1699C
330
13EDC
100
AcDbEntity
  8
DEFPOINTS
 62
     0
100
AcDbPoint
 10
7139.795015675618
 20
8696.865915108476
 30
0.0
  0
POINT
  5
1699D
330
13EDC
100
AcDbEntity
  8
DEFPOINTS
 62
     0
100
AcDbPoint
 10
7495.152741537641
 20
8601.648099439586
 30
0.0
  0
ENDBLK
  5
13EE7
330
13EDC
100
AcDbEntity
  8
0
 48
50.0
100
AcDbBlockEnd
  0
BLOCK
  5
146AB
330
1453A
100
AcDbEntity
  8
0
 48
50.0
100
AcDbBlockBegin
  2
*D12
 70
     1
 10
0.0
 20
0.0
 30
0.0
  3
*D12
  1

  0
LINE
  5
16A10
330
1453A
100
AcDbEntity
  8
寸法
 62
     0
 48
50.0
370
    -2
100
AcDbLine
 10
6294.295015675683
 20
9196.365915108554
 30
0.0
 11
6294.295015675683
 21
9680.309563122449
 31
0.0
  0
LINE
  5
16A11
330
1453A
100
AcDbEntity
  8
寸法
 62
     0
 48
50.0
370
    -2
100
AcDbLine
 10
6404.295015675687
 20
9196.365915108533
 30
0.0
 11
6404.295015675687
 21
9680.309563122449
 31
0.0
  0
LINE
  5
16A12
330
1453A
100
AcDbEntity
  8
寸法
 62
     0
 48
50.0
370
    -2
100
AcDbLine
 10
6294.295015675683
 20
9620.309563122448
 30
0.0
 11
6194.295015675684
 21
9620.309563122448
 31
0.0
  0
LINE
  5
16A13
330
1453A
100
AcDbEntity
  8
寸法
 62
     0
 48
50.0
370
    -2
100
AcDbLine
 10
6404.295015675687
 20
9620.309563122448
 30
0.0
 11
6504.295015675687
 21
9620.309563122448
 31
0.0
  0
LINE
  5
16A14
330
1453A
100
AcDbEntity
  8
寸法
 62
     0
 48
50.0
370
    -2
100
AcDbLine
 10
6294.295015675683
 20
9620.309563122448
 30
0.0
 11
6404.295015675687
 21
9620.309563122448
 31
0.0
  0
INSERT
  5
16A15
330
1453A
100
AcDbEntity
  8
寸法
 62
     0
 48
50.0
370
    -2
100
AcDbBlockReference
  2
_DOTSMALL
 10
6294.295015675683
 20
9620.309563122448
 30
0.0
 41
100.0
 42
100.0
 43
100.0
  0
INSERT
  5
16A16
330
1453A
100
AcDbEntity
  8
寸法
 62
     0
 48
50.0
370
    -2
100
AcDbBlockReference
  2
_DOTSMALL
 10
6404.295015675687
 20
9620.309563122448
 30
0.0
 41
100.0
 42
100.0
 43
100.0
 50
180.0
  0
MTEXT
  5
16A17
330
1453A
100
AcDbEntity
  8
寸法
 62
     7
 48
50.0
100
AcDbMText
 10
6349.295015675686
 20
9720.309563122448
 30
0.0
 40
120.0
 41
0.0
 71
     5
 72
     1
  1
\A1;110
  7
STYLE1
 73
     1
 44
1.0
1001
ACAD
1000
MTEXTBEGIN
1070
    73
1070
     1
1070
    44
1040
1.0
1070
    74
1070
     0
1000
MTEXTEND
  0
POINT
  5
16A18
330
1453A
100
AcDbEntity
  8
DEFPOINTS
 62
     0
 48
50.0
100
AcDbPoint
 10
6294.295015675683
 20
9176.365915108554
 30
0.0
  0
POINT
  5
16A19
330
1453A
100
AcDbEntity
  8
DEFPOINTS
 62
     0
 48
50.0
100
AcDbPoint
 10
6404.295015675687
 20
9176.365915108531
 30
0.0
  0
POINT
  5
16A1A
330
1453A
100
AcDbEntity
  8
DEFPOINTS
 62
     0
 48
50.0
100
AcDbPoint
 10
6404.295015675687
 20
9620.309563122448
 30
0.0
  0
ENDBLK
  5
146B7
330
1453A
100
AcDbEntity
  8
0
 48
50.0
100
AcDbBlockEnd
  0
BLOCK
  5
146A0
330
14556
100
AcDbEntity
  8
0
 48
50.0
100
AcDbBlockBegin
  2
*D13
 70
     1
 10
0.0
 20
0.0
 30
0.0
  3
*D13
  1

  0
LINE
  5
16A1B
330
14556
100
AcDbEntity
  8
寸法
 62
     0
 48
50.0
370
    -2
100
AcDbLine
 10
7114.295015675685
 20
9196.365915108547
 30
0.0
 11
7114.295015675685
 21
9680.309563122449
 31
0.0
  0
LINE
  5
16A1C
330
14556
100
AcDbEntity
  8
寸法
 62
     0
 48
50.0
370
    -2
100
AcDbLine
 10
6404.295015675687
 20
9196.365915108533
 30
0.0
 11
6404.295015675687
 21
9680.309563122449
 31
0.0
  0
LINE
  5
16A1D
330
14556
100
AcDbEntity
  8
寸法
 62
     0
 48
50.0
370
    -2
100
AcDbLine
 10
7114.295015675685
 20
9620.309563122448
 30
0.0
 11
6404.295015675687
 21
9620.309563122448
 31
0.0
  0
INSERT
  5
16A1E
330
14556
100
AcDbEntity
  8
寸法
 62
     0
 48
50.0
370
    -2
100
AcDbBlockReference
  2
_DOTSMALL
 10
7114.295015675685
 20
9620.309563122448
 30
0.0
 41
100.0
 42
100.0
 43
100.0
  0
INSERT
  5
16A1F
330
14556
100
AcDbEntity
  8
寸法
 62
     0
 48
50.0
370
    -2
100
AcDbBlockReference
  2
_DOTSMALL
 10
6404.295015675687
 20
9620.309563122448
 30
0.0
 41
100.0
 42
100.0
 43
100.0
 50
180.0
  0
MTEXT
  5
16A20
330
14556
100
AcDbEntity
  8
寸法
 62
     7
 48
50.0
100
AcDbMText
 10
6759.295015675686
 20
9720.309563122448
 30
0.0
 40
120.0
 41
0.0
 71
     5
 72
     1
  1
\A1;710
  7
STYLE1
 73
     1
 44
1.0
1001
ACAD
1000
MTEXTBEGIN
1070
    73
1070
     1
1070
    44
1040
1.0
1070
    74
1070
     0
1000
MTEXTEND
  0
POINT
  5
16A21
330
14556
100
AcDbEntity
  8
DEFPOINTS
 62
     0
 48
50.0
100
AcDbPoint
 10
7114.295015675685
 20
9176.365915108545
 30
0.0
  0
POINT
  5
16A22
330
14556
100
AcDbEntity
  8
DEFPOINTS
 62
     0
 48
50.0
100
AcDbPoint
 10
6404.295015675687
 20
9176.365915108531
 30
0.0
  0
POINT
  5
16A23
330
14556
100
AcDbEntity
  8
DEFPOINTS
 62
     0
 48
50.0
100
AcDbPoint
 10
6404.295015675687
 20
9620.309563122448
 30
0.0
  0
ENDBLK
  5
146AA
330
14556
100
AcDbEntity
  8
0
 48
50.0
100
AcDbBlockEnd
  0
BLOCK
  5
149B6
330
149B5
100
AcDbEntity
  8
0
 48
50.0
100
AcDbBlockBegin
  2
*D14
 70
     1
 10
0.0
 20
0.0
 30
0.0
  3
*D14
  1

  0
LINE
  5
15CDE
330
149B5
100
AcDbEntity
  8
寸法
 62
     0
 48
50.0
370
    -2
100
AcDbLine
 10
6404.295015675682
 20
8336.365915108427
 30
0.0
 11
6404.295015675682
 21
7856.542247313349
 31
0.0
  0
LINE
  5
15CDF
330
149B5
100
AcDbEntity
  8
寸法
 62
     0
 48
50.0
370
    -2
100
AcDbLine
 10
7089.295015675677
 20
8336.365915108391
 30
0.0
 11
7089.295015675677
 21
7856.542247313349
 31
0.0
  0
LINE
  5
15CE0
330
149B5
100
AcDbEntity
  8
寸法
 62
     0
 48
50.0
370
    -2
100
AcDbLine
 10
6404.295015675682
 20
7916.542247313349
 30
0.0
 11
7089.295015675677
 21
7916.542247313349
 31
0.0
  0
INSERT
  5
15CE1
330
149B5
100
AcDbEntity
  8
寸法
 62
     0
 48
50.0
370
    -2
100
AcDbBlockReference
  2
_DOTSMALL
 10
6404.295015675682
 20
7916.542247313349
 30
0.0
 41
100.0
 42
100.0
 43
100.0
 50
180.0
  0
INSERT
  5
15CE2
330
149B5
100
AcDbEntity
  8
寸法
 62
     0
 48
50.0
370
    -2
100
AcDbBlockReference
  2
_DOTSMALL
 10
7089.295015675677
 20
7916.542247313349
 30
0.0
 41
100.0
 42
100.0
 43
100.0
  0
MTEXT
  5
15CE3
330
149B5
100
AcDbEntity
  8
寸法
 62
     7
 48
50.0
100
AcDbMText
 10
6746.795015675679
 20
8116.542247313349
 30
0.0
 40
120.0
 41
0.0
 71
     5
 72
     1
  1
\A1;有効開口部間口\P685
  7
STYLE1
 73
     1
 44
1.0
1001
ACAD
1000
MTEXTBEGIN
1070
    73
1070
     1
1070
    44
1040
1.0
1070
    74
1070
     0
1000
MTEXTEND
  0
POINT
  5
15CE4
330
149B5
100
AcDbEntity
  8
DEFPOINTS
 62
     0
 48
50.0
100
AcDbPoint
 10
6404.295015675682
 20
8356.365915108426
 30
0.0
  0
POINT
  5
15CE5
330
149B5
100
AcDbEntity
  8
DEFPOINTS
 62
     0
 48
50.0
100
AcDbPoint
 10
7089.295015675677
 20
8356.365915108391
 30
0.0
  0
POINT
  5
15CE6
330
149B5
100
AcDbEntity
  8
DEFPOINTS
 62
     0
 48
50.0
100
AcDbPoint
 10
7089.295015675677
 20
7916.542247313349
 30
0.0
  0
ENDBLK
  5
149C0
330
149B5
100
AcDbEntity
  8
0
 48
50.0
100
AcDbBlockEnd
  0
BLOCK
  5
149E3
330
149D7
100
AcDbEntity
  8
0
 48
50.0
100
AcDbBlockBegin
  2
*D15
 70
     1
 10
0.0
 20
0.0
 30
0.0
  3
*D15
  1

  0
LINE
  5
15CD5
330
149D7
100
AcDbEntity
  8
寸法
 62
     0
 48
50.0
370
    -2
100
AcDbLine
 10
5584.295015675682
 20
8336.365915108427
 30
0.0
 11
5584.295015675682
 21
7856.542247313349
 31
0.0
  0
LINE
  5
15CD6
330
149D7
100
AcDbEntity
  8
寸法
 62
     0
 48
50.0
370
    -2
100
AcDbLine
 10
6269.295015675677
 20
8336.365915108391
 30
0.0
 11
6269.295015675677
 21
7856.542247313349
 31
0.0
  0
LINE
  5
15CD7
330
149D7
100
AcDbEntity
  8
寸法
 62
     0
 48
50.0
370
    -2
100
AcDbLine
 10
5584.295015675682
 20
7916.542247313349
 30
0.0
 11
6269.295015675677
 21
7916.542247313349
 31
0.0
  0
INSERT
  5
15CD8
330
149D7
100
AcDbEntity
  8
寸法
 62
     0
 48
50.0
370
    -2
100
AcDbBlockReference
  2
_DOTSMALL
 10
5584.295015675682
 20
7916.542247313349
 30
0.0
 41
100.0
 42
100.0
 43
100.0
 50
180.0
  0
INSERT
  5
15CD9
330
149D7
100
AcDbEntity
  8
寸法
 62
     0
 48
50.0
370
    -2
100
AcDbBlockReference
  2
_DOTSMALL
 10
6269.295015675677
 20
7916.542247313349
 30
0.0
 41
100.0
 42
100.0
 43
100.0
  0
MTEXT
  5
15CDA
330
149D7
100
AcDbEntity
  8
寸法
 62
     7
 48
50.0
100
AcDbMText
 10
5926.795015675679
 20
8016.542247313349
 30
0.0
 40
120.0
 41
0.0
 71
     5
 72
     1
  1
\A1;685
  7
STYLE1
 73
     1
 44
1.0
1001
ACAD
1000
MTEXTBEGIN
1070
    73
1070
     1
1070
    44
1040
1.0
1070
    74
1070
     0
1000
MTEXTEND
  0
POINT
  5
15CDB
330
149D7
100
AcDbEntity
  8
DEFPOINTS
 62
     0
 48
50.0
100
AcDbPoint
 10
5584.295015675682
 20
8356.365915108426
 30
0.0
  0
POINT
  5
15CDC
330
149D7
100
AcDbEntity
  8
DEFPOINTS
 62
     0
 48
50.0
100
AcDbPoint
 10
6269.295015675677
 20
8356.365915108391
 30
0.0
  0
POINT
  5
15CDD
330
149D7
100
AcDbEntity
  8
DEFPOINTS
 62
     0
 48
50.0
100
AcDbPoint
 10
6269.295015675677
 20
7916.542247313349
 30
0.0
  0
ENDBLK
  5
149ED
330
149D7
100
AcDbEntity
  8
0
 48
50.0
100
AcDbBlockEnd
  0
BLOCK
  5
14A21
330
14A20
100
AcDbEntity
  8
0
 48
50.0
100
AcDbBlockBegin
  2
*D16
 70
     1
 10
0.0
 20
0.0
 30
0.0
  3
*D16
  1

  0
LINE
  5
169E8
330
14A20
100
AcDbEntity
  8
寸法
 62
     0
370
    -2
100
AcDbLine
 10
5564.15399952424
 20
9166.865915108484
 30
0.0
 11
5640.602106566702
 21
9452.174134733416
 31
0.0
  0
LINE
  5
169E9
330
14A20
100
AcDbEntity
  8
寸法
 62
     0
370
    -2
100
AcDbLine
 10
6325.153999524251
 20
9166.865915108479
 30
0.0
 11
6401.602106566715
 21
9452.174134733416
 31
0.0
  0
LINE
  5
169EA
330
14A20
100
AcDbEntity
  8
寸法
 62
     0
370
    -2
100
AcDbLine
 10
5624.525155020834
 20
9392.174134733416
 30
0.0
 11
6385.525155020848
 21
9392.174134733416
 31
0.0
  0
INSERT
  5
169EB
330
14A20
100
AcDbEntity
  8
寸法
 62
     0
370
    -2
100
AcDbBlockReference
  2
_DOTSMALL
 10
5624.525155020834
 20
9392.174134733416
 30
0.0
 41
100.0
 42
100.0
 43
100.0
 50
180.0
  0
INSERT
  5
169EC
330
14A20
100
AcDbEntity
  8
寸法
 62
     0
370
    -2
100
AcDbBlockReference
  2
_DOTSMALL
 10
6385.525155020848
 20
9392.174134733416
 30
0.0
 41
100.0
 42
100.0
 43
100.0
  0
MTEXT
  5
169ED
330
14A20
100
AcDbEntity
  8
寸法
 62
     7
100
AcDbMText
 10
6005.025155020842
 20
9492.174134733415
 30
0.0
 40
120.0
 41
0.0
 71
     5
 72
     1
  1
\A1;761
  7
STYLE1
 73
     1
 44
1.0
1001
ACAD
1000
MTEXTBEGIN
1070
    73
1070
     1
1070
    44
1040
1.0
1070
    74
1070
     0
1000
MTEXTEND
  0
POINT
  5
169EE
330
14A20
100
AcDbEntity
  8
DEFPOINTS
 62
     0
100
AcDbPoint
 10
5558.795015675617
 20
9146.865915108483
 30
0.0
  0
POINT
  5
169EF
330
14A20
100
AcDbEntity
  8
DEFPOINTS
 62
     0
100
AcDbPoint
 10
6319.795015675629
 20
9146.865915108479
 30
0.0
  0
POINT
  5
169F0
330
14A20
100
AcDbEntity
  8
DEFPOINTS
 62
     0
100
AcDbPoint
 10
6385.525155020848
 20
9392.174134733416
 30
0.0
  0
ENDBLK
  5
14A2B
330
14A20
100
AcDbEntity
  8
0
 48
50.0
100
AcDbBlockEnd
  0
BLOCK
  5
14A3E
330
14A3D
100
AcDbEntity
  8
0
100
AcDbBlockBegin
  2
_OPEN
 70
     0
 10
0.0
 20
0.0
 30
0.0
  3
_OPEN
  1

  0
LINE
  5
14A3F
330
14A3D
100
AcDbEntity
  8
0
  6
ByBlock
 62
     0
100
AcDbLine
 10
-1.0
 20
0.1666666666666666
 30
0.0
 11
0.0
 21
0.0
 31
0.0
  0
LINE
  5
14A40
330
14A3D
100
AcDbEntity
  8
0
  6
ByBlock
 62
     0
100
AcDbLine
 10
0.0
 20
0.0
 30
0.0
 11
-1.0
 21
-0.1666666666666666
 31
0.0
  0
LINE
  5
14A41
330
14A3D
100
AcDbEntity
  8
0
  6
ByBlock
 62
     0
100
AcDbLine
 10
0.0
 20
0.0
 30
0.0
 11
-1.0
 21
0.0
 31
0.0
  0
ENDBLK
  5
14A42
330
14A3D
100
AcDbEntity
  8
0
100
AcDbBlockEnd
  0
BLOCK
  5
14A44
330
14A43
100
AcDbEntity
  8
0
 48
50.0
100
AcDbBlockBegin
  2
_DOT
 70
     0
 10
0.0
 20
0.0
 30
0.0
  3
_DOT
  1

  0
LWPOLYLINE
  5
14A45
330
14A43
100
AcDbEntity
  8
0
  6
ByBlock
 62
     0
 48
50.0
100
AcDbPolyline
 90
        2
 70
     1
 43
0.5
 10
-0.25
 20
0.0
 42
1.0
 10
0.25
 20
0.0
 42
1.0
  0
LINE
  5
14A46
330
14A43
100
AcDbEntity
  8
0
  6
ByBlock
 62
     0
 48
50.0
100
AcDbLine
 10
-0.5
 20
0.0
 30
0.0
 11
-1.0
 21
0.0
 31
0.0
  0
ENDBLK
  5
14A47
330
14A43
100
AcDbEntity
  8
0
 48
50.0
100
AcDbBlockEnd
  0
BLOCK
  5
15222
330
15218
100
AcDbEntity
  8
0
 48
50.0
100
AcDbBlockBegin
  2
*D19
 70
     1
 10
0.0
 20
0.0
 30
0.0
  3
*D19
  1

  0
LINE
  5
15DAB
330
15218
100
AcDbEntity
  8
寸法
 62
     0
 48
50.0
370
    -2
100
AcDbLine
 10
9536.16692823606
 20
3569.577276893861
 30
0.0
 11
8634.573050080769
 21
3569.577276893862
 31
0.0
  0
LINE
  5
15DAC
330
15218
100
AcDbEntity
  8
寸法
 62
     0
 48
50.0
370
    -2
100
AcDbLine
 10
9476.166928236061
 20
5644.577276893866
 30
0.0
 11
8634.573050080772
 21
5644.577276893866
 31
0.0
  0
LINE
  5
15DAD
330
15218
100
AcDbEntity
  8
寸法
 62
     0
 48
50.0
370
    -2
100
AcDbLine
 10
8694.573050080769
 20
3569.577276893862
 30
0.0
 11
8694.573050080771
 21
5644.577276893866
 31
0.0
  0
INSERT
  5
15DAE
330
15218
100
AcDbEntity
  8
寸法
 62
     0
 48
50.0
370
    -2
100
AcDbBlockReference
  2
_DOTSMALL
 10
8694.573050080769
 20
3569.577276893862
 30
0.0
 41
100.0
 42
100.0
 43
100.0
 50
270.0
  0
INSERT
  5
15DAF
330
15218
100
AcDbEntity
  8
寸法
 62
     0
 48
50.0
370
    -2
100
AcDbBlockReference
  2
_DOTSMALL
 10
8694.573050080771
 20
5644.577276893866
 30
0.0
 41
100.0
 42
100.0
 43
100.0
 50
90.0
  0
MTEXT
  5
15DB0
330
15218
100
AcDbEntity
  8
寸法
 62
     7
 48
50.0
100
AcDbMText
 10
8594.561239057147
 20
4597.155906173022
 30
0.0
 40
120.0
 41
0.0
 71
     5
 72
     1
  1
\A1;2075
  7
STYLE1
 11
0.0000000000000001
 21
1.0
 31
0.0
 73
     1
 44
1.0
1001
ACAD
1000
MTEXTBEGIN
1070
    73
1070
     1
1070
    44
1040
1.0
1070
    74
1070
     0
1000
MTEXTEND
  0
POINT
  5
15DB1
330
15218
100
AcDbEntity
  8
DEFPOINTS
 62
     0
 48
50.0
100
AcDbPoint
 10
9556.166928236059
 20
3569.577276893861
 30
0.0
  0
POINT
  5
15DB2
330
15218
100
AcDbEntity
  8
DEFPOINTS
 62
     0
 48
50.0
100
AcDbPoint
 10
9496.166928236062
 20
5644.577276893866
 30
0.0
  0
POINT
  5
15DB3
330
15218
100
AcDbEntity
  8
DEFPOINTS
 62
     0
 48
50.0
100
AcDbPoint
 10
8694.573050080771
 20
5644.577276893866
 30
0.0
  0
ENDBLK
  5
15223
330
15218
100
AcDbEntity
  8
0
 48
50.0
100
AcDbBlockEnd
  0
BLOCK
  5
1522F
330
15224
100
AcDbEntity
  8
0
 48
50.0
100
AcDbBlockBegin
  2
*D20
 70
     1
 10
0.0
 20
0.0
 30
0.0
  3
*D20
  1

  0
LINE
  5
15CB9
330
15224
100
AcDbEntity
  8
寸法
 62
     0
 48
50.0
370
    -2
100
AcDbLine
 10
9495.571214527158
 20
5643.874983963521
 30
0.0
 11
8879.636775421893
 21
5661.589134237843
 31
0.0
  0
LINE
  5
15CBA
330
15224
100
AcDbEntity
  8
寸法
 62
     0
 48
50.0
370
    -2
100
AcDbLine
 10
9491.517758970532
 20
5502.93326019781
 30
0.0
 11
8875.583319865269
 21
5520.64741047213
 31
0.0
  0
LINE
  5
15CBB
330
15224
100
AcDbEntity
  8
寸法
 62
     0
 48
50.0
370
    -2
100
AcDbLine
 10
8935.558521467703
 20
5518.922535767183
 30
0.0
 11
8939.611977024325
 21
5659.864259532895
 31
0.0
  0
LINE
  5
15CBC
330
15224
100
AcDbEntity
  8
寸法
 62
     0
 48
50.0
370
    -2
100
AcDbLine
 10
8939.611977024325
 20
5659.864259532895
 30
0.0
 11
8949.961225254005
 21
6019.715469147481
 31
0.0
  0
INSERT
  5
15CBD
330
15224
100
AcDbEntity
  8
寸法
 62
     0
 48
50.0
370
    -2
100
AcDbBlockReference
  2
_DOTSMALL
 10
8935.558521467703
 20
5518.922535767183
 30
0.0
 41
100.0
 42
100.0
 43
100.0
 50
268.3526390256385
  0
INSERT
  5
15CBE
330
15224
100
AcDbEntity
  8
寸法
 62
     0
 48
50.0
370
    -2
100
AcDbBlockReference
  2
_DOTSMALL
 10
8939.611977024325
 20
5659.864259532895
 30
0.0
 41
100.0
 42
100.0
 43
100.0
 50
88.35263902563855
  0
MTEXT
  5
15CBF
330
15224
100
AcDbEntity
  8
寸法
 62
     7
 48
50.0
100
AcDbMText
 10
8846.265327389238
 20
5892.643990183795
 30
0.0
 40
120.0
 41
0.0
 71
     5
 72
     1
  1
\A1;141
  7
STYLE1
 11
0.0287479117491103
 21
0.999586693373849
 31
0.0
 73
     1
 44
1.0
1001
ACAD
1000
MTEXTBEGIN
1070
    73
1070
     1
1070
    44
1040
1.0
1070
    74
1070
     0
1000
MTEXTEND
  0
POINT
  5
15CC0
330
15224
100
AcDbEntity
  8
DEFPOINTS
 62
     0
 48
50.0
100
AcDbPoint
 10
9515.562948394636
 20
5643.300025728539
 30
0.0
  0
POINT
  5
15CC1
330
15224
100
AcDbEntity
  8
DEFPOINTS
 62
     0
 48
50.0
100
AcDbPoint
 10
9511.50949283801
 20
5502.358301962827
 30
0.0
  0
POINT
  5
15CC2
330
15224
100
AcDbEntity
  8
DEFPOINTS
 62
     0
 48
50.0
100
AcDbPoint
 10
8935.558521467703
 20
5518.922535767183
 30
0.0
  0
ENDBLK
  5
15230
330
15224
100
AcDbEntity
  8
0
 48
50.0
100
AcDbBlockEnd
  0
BLOCK
  5
1523D
330
15231
100
AcDbEntity
  8
0
 48
50.0
100
AcDbBlockBegin
  2
*D21
 70
     1
 10
0.0
 20
0.0
 30
0.0
  3
*D21
  1

  0
LINE
  5
15CAE
330
15231
100
AcDbEntity
  8
寸法
 62
     0
 48
50.0
370
    -2
100
AcDbLine
 10
9556.166928236059
 20
5660.578895016837
 30
0.0
 11
9556.166928236059
 21
6103.234730473165
 31
0.0
  0
LINE
  5
15CAF
330
15231
100
AcDbEntity
  8
寸法
 62
     0
 48
50.0
370
    -2
100
AcDbLine
 10
9496.166928236061
 20
5664.577276893866
 30
0.0
 11
9496.166928236061
 21
6103.234730473165
 31
0.0
  0
LINE
  5
15CB0
330
15231
100
AcDbEntity
  8
寸法
 62
     0
 48
50.0
370
    -2
100
AcDbLine
 10
9556.166928236059
 20
6043.234730473165
 30
0.0
 11
9656.166928236061
 21
6043.234730473165
 31
0.0
  0
LINE
  5
15CB1
330
15231
100
AcDbEntity
  8
寸法
 62
     0
 48
50.0
370
    -2
100
AcDbLine
 10
9496.166928236061
 20
6043.234730473165
 30
0.0
 11
9076.89133768488
 21
6043.234730473165
 31
0.0
  0
LINE
  5
15CB2
330
15231
100
AcDbEntity
  8
寸法
 62
     0
 48
50.0
370
    -2
100
AcDbLine
 10
9556.166928236059
 20
6043.234730473165
 30
0.0
 11
9496.166928236061
 21
6043.234730473165
 31
0.0
  0
INSERT
  5
15CB3
330
15231
100
AcDbEntity
  8
寸法
 62
     0
 48
50.0
370
    -2
100
AcDbBlockReference
  2
_DOTSMALL
 10
9556.166928236059
 20
6043.234730473165
 30
0.0
 41
100.0
 42
100.0
 43
100.0
 50
180.0
  0
INSERT
  5
15CB4
330
15231
100
AcDbEntity
  8
寸法
 62
     0
 48
50.0
370
    -2
100
AcDbBlockReference
  2
_DOTSMALL
 10
9496.166928236061
 20
6043.234730473165
 30
0.0
 41
100.0
 42
100.0
 43
100.0
  0
MTEXT
  5
15CB5
330
15231
100
AcDbEntity
  8
寸法
 62
     7
 48
50.0
100
AcDbMText
 10
9186.529132960471
 20
6143.234730473165
 30
0.0
 40
120.0
 41
0.0
 71
     5
 72
     1
  1
\A1;60
  7
STYLE1
 73
     1
 44
1.0
1001
ACAD
1000
MTEXTBEGIN
1070
    73
1070
     1
1070
    44
1040
1.0
1070
    74
1070
     0
1000
MTEXTEND
  0
POINT
  5
15CB6
330
15231
100
AcDbEntity
  8
DEFPOINTS
 62
     0
 48
50.0
100
AcDbPoint
 10
9556.166928236059
 20
5640.578895016837
 30
0.0
  0
POINT
  5
15CB7
330
15231
100
AcDbEntity
  8
DEFPOINTS
 62
     0
 48
50.0
100
AcDbPoint
 10
9496.166928236061
 20
5644.577276893866
 30
0.0
  0
POINT
  5
15CB8
330
15231
100
AcDbEntity
  8
DEFPOINTS
 62
     0
 48
50.0
100
AcDbPoint
 10
9496.166928236061
 20
6043.234730473165
 30
0.0
  0
ENDBLK
  5
1523E
330
15231
100
AcDbEntity
  8
0
 48
50.0
100
AcDbBlockEnd
  0
BLOCK
  5
15249
330
1523F
100
AcDbEntity
  8
0
 48
50.0
100
AcDbBlockBegin
  2
*D22
 70
     1
 10
0.0
 20
0.0
 30
0.0
  3
*D22
  1

  0
LINE
  5
17B05
330
1523F
100
AcDbEntity
  8
寸法
 62
     0
 48
50.0
370
    -2
100
AcDbLine
 10
10376.16692823606
 20
5611.387956505514
 30
0.0
 11
10376.16692823606
 21
6103.234730473165
 31
0.0
  0
LINE
  5
17B06
330
1523F
100
AcDbEntity
  8
寸法
 62
     0
 48
50.0
370
    -2
100
AcDbLine
 10
9556.166928236059
 20
5660.578895016837
 30
0.0
 11
9556.166928236059
 21
6103.234730473165
 31
0.0
  0
LINE
  5
17B07
330
1523F
100
AcDbEntity
  8
寸法
 62
     0
 48
50.0
370
    -2
100
AcDbLine
 10
10376.16692823606
 20
6043.234730473165
 30
0.0
 11
9556.166928236059
 21
6043.234730473165
 31
0.0
  0
INSERT
  5
17B08
330
1523F
100
AcDbEntity
  8
寸法
 62
     0
 48
50.0
370
    -2
100
AcDbBlockReference
  2
_DOTSMALL
 10
10376.16692823606
 20
6043.234730473165
 30
0.0
 41
100.0
 42
100.0
 43
100.0
  0
INSERT
  5
17B09
330
1523F
100
AcDbEntity
  8
寸法
 62
     0
 48
50.0
370
    -2
100
AcDbBlockReference
  2
_DOTSMALL
 10
9556.166928236059
 20
6043.234730473165
 30
0.0
 41
100.0
 42
100.0
 43
100.0
 50
180.0
  0
MTEXT
  5
17B0A
330
1523F
100
AcDbEntity
  8
寸法
 62
     7
 48
50.0
100
AcDbMText
 10
9966.166928236061
 20
6143.246541496786
 30
0.0
 40
120.0
 41
0.0
 71
     5
 72
     1
  1
\A1;柱外寸法820
  7
STYLE1
 73
     1
 44
1.0
1001
ACAD
1000
MTEXTBEGIN
1070
    73
1070
     1
1070
    44
1040
1.0
1070
    74
1070
     0
1000
MTEXTEND
  0
POINT
  5
17B0B
330
1523F
100
AcDbEntity
  8
DEFPOINTS
 62
     0
 48
50.0
100
AcDbPoint
 10
10376.16692823606
 20
5591.387956505514
 30
0.0
  0
POINT
  5
17B0C
330
1523F
100
AcDbEntity
  8
DEFPOINTS
 62
     0
 48
50.0
100
AcDbPoint
 10
9556.166928236059
 20
5640.578895016837
 30
0.0
  0
POINT
  5
17B0D
330
1523F
100
AcDbEntity
  8
DEFPOINTS
 62
     0
 48
50.0
100
AcDbPoint
 10
9556.166928236059
 20
6043.234730473165
 30
0.0
  0
ENDBLK
  5
1524A
330
1523F
100
AcDbEntity
  8
0
 48
50.0
100
AcDbBlockEnd
  0
BLOCK
  5
15255
330
1524B
100
AcDbEntity
  8
0
 48
50.0
100
AcDbBlockBegin
  2
*D23
 70
     1
 10
0.0
 20
0.0
 30
0.0
  3
*D23
  1

  0
LINE
  5
176D3
330
1524B
100
AcDbEntity
  8
寸法
 62
     0
370
    -2
100
AcDbLine
 10
10456.16692823606
 20
5609.577276893862
 30
0.0
 11
10456.16692823606
 21
6337.937939113255
 31
0.0
  0
LINE
  5
176D4
330
1524B
100
AcDbEntity
  8
寸法
 62
     0
370
    -2
100
AcDbLine
 10
9496.166928236061
 20
5664.577276893866
 30
0.0
 11
9496.166928236061
 21
6337.937939113255
 31
0.0
  0
LINE
  5
176D5
330
1524B
100
AcDbEntity
  8
寸法
 62
     0
370
    -2
100
AcDbLine
 10
10456.16692823606
 20
6277.937939113255
 30
0.0
 11
9496.166928236061
 21
6277.937939113255
 31
0.0
  0
INSERT
  5
176D6
330
1524B
100
AcDbEntity
  8
寸法
 62
     0
370
    -2
100
AcDbBlockReference
  2
_DOTSMALL
 10
10456.16692823606
 20
6277.937939113255
 30
0.0
 41
100.0
 42
100.0
 43
100.0
  0
INSERT
  5
176D7
330
1524B
100
AcDbEntity
  8
寸法
 62
     0
370
    -2
100
AcDbBlockReference
  2
_DOTSMALL
 10
9496.166928236061
 20
6277.937939113255
 30
0.0
 41
100.0
 42
100.0
 43
100.0
 50
180.0
  0
MTEXT
  5
176D8
330
1524B
100
AcDbEntity
  8
寸法
 62
     7
100
AcDbMText
 10
9976.166928236061
 20
6377.937939113255
 30
0.0
 40
120.0
 41
0.0
 71
     5
 72
     1
  1
\A1;960
  7
STYLE1
 73
     1
 44
1.0
1001
ACAD
1000
MTEXTBEGIN
1070
    73
1070
     1
1070
    44
1040
1.0
1070
    74
1070
     0
1000
MTEXTEND
  0
POINT
  5
176D9
330
1524B
100
AcDbEntity
  8
DEFPOINTS
 62
     0
100
AcDbPoint
 10
10456.16692823606
 20
5589.577276893862
 30
0.0
  0
POINT
  5
176DA
330
1524B
100
AcDbEntity
  8
DEFPOINTS
 62
     0
100
AcDbPoint
 10
9496.166928236061
 20
5644.577276893866
 30
0.0
  0
POINT
  5
176DB
330
1524B
100
AcDbEntity
  8
DEFPOINTS
 62
     0
100
AcDbPoint
 10
9496.166928236061
 20
6277.937939113255
 30
0.0
  0
ENDBLK
  5
15256
330
1524B
100
AcDbEntity
  8
0
 48
50.0
100
AcDbBlockEnd
  0
BLOCK
  5
15262
330
15257
100
AcDbEntity
  8
0
 48
50.0
100
AcDbBlockBegin
  2
*D24
 70
     1
 10
0.0
 20
0.0
 30
0.0
  3
*D24
  1

  0
LINE
  5
173D6
330
15257
100
AcDbEntity
  8
寸法
 62
     0
 48
50.0
370
    -2
100
AcDbLine
 10
10376.16692823606
 20
5611.387956505514
 30
0.0
 11
10376.16692823606
 21
6103.234730473165
 31
0.0
  0
LINE
  5
173D7
330
15257
100
AcDbEntity
  8
寸法
 62
     0
 48
50.0
370
    -2
100
AcDbLine
 10
10456.16692823606
 20
5609.577276893862
 30
0.0
 11
10456.16692823606
 21
6103.234730473165
 31
0.0
  0
LINE
  5
173D8
330
15257
100
AcDbEntity
  8
寸法
 62
     0
 48
50.0
370
    -2
100
AcDbLine
 10
10376.16692823606
 20
6043.234730473165
 30
0.0
 11
10456.16692823606
 21
6043.234730473165
 31
0.0
  0
LINE
  5
173D9
330
15257
100
AcDbEntity
  8
寸法
 62
     0
 48
50.0
370
    -2
100
AcDbLine
 10
10456.16692823606
 20
6043.234730473165
 30
0.0
 11
10768.26141642504
 21
6043.234730473165
 31
0.0
  0
INSERT
  5
173DA
330
15257
100
AcDbEntity
  8
寸法
 62
     0
 48
50.0
370
    -2
100
AcDbBlockReference
  2
_DOTSMALL
 10
10376.16692823606
 20
6043.234730473165
 30
0.0
 41
100.0
 42
100.0
 43
100.0
 50
180.0
  0
INSERT
  5
173DB
330
15257
100
AcDbEntity
  8
寸法
 62
     0
 48
50.0
370
    -2
100
AcDbBlockReference
  2
_DOTSMALL
 10
10456.16692823606
 20
6043.234730473165
 30
0.0
 41
100.0
 42
100.0
 43
100.0
  0
MTEXT
  5
173DC
330
15257
100
AcDbEntity
  8
寸法
 62
     7
 48
50.0
100
AcDbMText
 10
10662.21417233055
 20
6143.234730473165
 30
0.0
 40
120.0
 41
0.0
 71
     5
 72
     1
  1
\A1;80
  7
STYLE1
 73
     1
 44
1.0
1001
ACAD
1000
MTEXTBEGIN
1070
    73
1070
     1
1070
    44
1040
1.0
1070
    74
1070
     0
1000
MTEXTEND
  0
POINT
  5
173DD
330
15257
100
AcDbEntity
  8
DEFPOINTS
 62
     0
 48
50.0
100
AcDbPoint
 10
10376.16692823606
 20
5591.387956505514
 30
0.0
  0
POINT
  5
173DE
330
15257
100
AcDbEntity
  8
DEFPOINTS
 62
     0
 48
50.0
100
AcDbPoint
 10
10456.16692823606
 20
5589.577276893862
 30
0.0
  0
POINT
  5
173DF
330
15257
100
AcDbEntity
  8
DEFPOINTS
 62
     0
 48
50.0
100
AcDbPoint
 10
10456.16692823606
 20
6043.234730473165
 30
0.0
  0
ENDBLK
  5
15263
330
15257
100
AcDbEntity
  8
0
 48
50.0
100
AcDbBlockEnd
  0
BLOCK
  5
152BA
330
152B0
100
AcDbEntity
  8
0
 48
50.0
100
AcDbBlockBegin
  2
*D25
 70
     1
 10
0.0
 20
0.0
 30
0.0
  3
*D25
  1

  0
LINE
  5
173E0
330
152B0
100
AcDbEntity
  8
寸法
 62
     0
 48
50.0
370
    -2
100
AcDbLine
 10
10396.16692823606
 20
3569.577276893861
 30
0.0
 11
10946.57546616989
 21
3569.577276893861
 31
0.0
  0
LINE
  5
173E1
330
152B0
100
AcDbEntity
  8
寸法
 62
     0
 48
50.0
370
    -2
100
AcDbLine
 10
10476.16692823607
 20
5589.57727689386
 30
0.0
 11
10946.57546616989
 21
5589.57727689386
 31
0.0
  0
LINE
  5
173E2
330
152B0
100
AcDbEntity
  8
寸法
 62
     0
 48
50.0
370
    -2
100
AcDbLine
 10
10906.57546616989
 20
3589.577276893861
 30
0.0
 11
10906.57546616989
 21
5569.57727689386
 31
0.0
  0
INSERT
  5
173E3
330
152B0
100
AcDbEntity
  8
寸法
 62
     0
 48
50.0
370
    -2
100
AcDbBlockReference
  2
_DOT
 10
10906.57546616989
 20
3569.577276893861
 30
0.0
 41
20.0
 42
20.0
 43
20.0
 50
270.0
  0
INSERT
  5
173E4
330
152B0
100
AcDbEntity
  8
寸法
 62
     0
 48
50.0
370
    -2
100
AcDbBlockReference
  2
_DOT
 10
10906.57546616989
 20
5589.57727689386
 30
0.0
 41
20.0
 42
20.0
 43
20.0
 50
90.0
  0
MTEXT
  5
173E5
330
152B0
100
AcDbEntity
  8
寸法
 62
     7
 48
50.0
100
AcDbMText
 10
10814.56365514626
 20
4521.501672958286
 30
0.0
 40
120.0
 41
0.0
 71
     5
 72
     1
  1
\A1;2020
  7
STYLE1
 11
0.0000000000000001
 21
1.0
 31
0.0
 73
     1
 44
1.0
1001
ACAD
1000
MTEXTBEGIN
1070
    73
1070
     1
1070
    44
1040
1.0
1070
    74
1070
     0
1000
MTEXTEND
  0
POINT
  5
173E6
330
152B0
100
AcDbEntity
  8
DEFPOINTS
 62
     0
 48
50.0
100
AcDbPoint
 10
10376.16692823606
 20
3569.577276893861
 30
0.0
  0
POINT
  5
173E7
330
152B0
100
AcDbEntity
  8
DEFPOINTS
 62
     0
 48
50.0
100
AcDbPoint
 10
10456.16692823607
 20
5589.57727689386
 30
0.0
  0
POINT
  5
173E8
330
152B0
100
AcDbEntity
  8
DEFPOINTS
 62
     0
 48
50.0
100
AcDbPoint
 10
10906.57546616989
 20
5589.57727689386
 30
0.0
  0
ENDBLK
  5
152BB
330
152B0
100
AcDbEntity
  8
0
 48
50.0
100
AcDbBlockEnd
  0
BLOCK
  5
1599A
330
15990
100
AcDbEntity
  8
0
 48
50.0
100
AcDbBlockBegin
  2
*D26
 70
     1
 10
0.0
 20
0.0
 30
0.0
  3
*D26
  1

  0
LINE
  5
15C63
330
15990
100
AcDbEntity
  8
寸法
 62
     0
 48
50.0
370
    -2
100
AcDbLine
 10
7169.295015675682
 20
5664.577276893864
 30
0.0
 11
7169.295015675682
 21
5917.118862152106
 31
0.0
  0
LINE
  5
15C64
330
15990
100
AcDbEntity
  8
寸法
 62
     0
 48
50.0
370
    -2
100
AcDbLine
 10
5529.295015675678
 20
5664.577276893869
 30
0.0
 11
5529.295015675678
 21
5917.118862152106
 31
0.0
  0
LINE
  5
15C65
330
15990
100
AcDbEntity
  8
寸法
 62
     0
 48
50.0
370
    -2
100
AcDbLine
 10
7169.295015675682
 20
5857.118862152105
 30
0.0
 11
5529.295015675678
 21
5857.118862152105
 31
0.0
  0
INSERT
  5
15C66
330
15990
100
AcDbEntity
  8
寸法
 62
     0
 48
50.0
370
    -2
100
AcDbBlockReference
  2
_DOTSMALL
 10
7169.295015675682
 20
5857.118862152105
 30
0.0
 41
100.0
 42
100.0
 43
100.0
  0
INSERT
  5
15C67
330
15990
100
AcDbEntity
  8
寸法
 62
     0
 48
50.0
370
    -2
100
AcDbBlockReference
  2
_DOTSMALL
 10
5529.295015675678
 20
5857.118862152105
 30
0.0
 41
100.0
 42
100.0
 43
100.0
 50
180.0
  0
MTEXT
  5
15C68
330
15990
100
AcDbEntity
  8
寸法
 62
     7
 48
50.0
100
AcDbMText
 10
6365.668421079783
 20
5957.118862152106
 30
0.0
 40
120.0
 41
0.0
 71
     5
 72
     1
  1
\A1;柱外寸法1640
  7
STYLE1
 73
     1
 44
1.0
1001
ACAD
1000
MTEXTBEGIN
1070
    73
1070
     1
1070
    44
1040
1.0
1070
    74
1070
     0
1000
MTEXTEND
  0
POINT
  5
15C69
330
15990
100
AcDbEntity
  8
DEFPOINTS
 62
     0
 48
50.0
100
AcDbPoint
 10
7169.295015675682
 20
5644.577276893864
 30
0.0
  0
POINT
  5
15C6A
330
15990
100
AcDbEntity
  8
DEFPOINTS
 62
     0
 48
50.0
100
AcDbPoint
 10
5529.295015675678
 20
5644.577276893869
 30
0.0
  0
POINT
  5
15C6B
330
15990
100
AcDbEntity
  8
DEFPOINTS
 62
     0
 48
50.0
100
AcDbPoint
 10
5529.295015675678
 20
5857.118862152105
 30
0.0
  0
ENDBLK
  5
1599B
330
15990
100
AcDbEntity
  8
0
 48
50.0
100
AcDbBlockEnd
  0
BLOCK
  5
159A6
330
1599C
100
AcDbEntity
  8
0
 48
50.0
100
AcDbBlockBegin
  2
*D27
 70
     1
 10
0.0
 20
0.0
 30
0.0
  3
*D27
  1

  0
LINE
  5
15C6C
330
1599C
100
AcDbEntity
  8
寸法
 62
     0
 48
50.0
370
    -2
100
AcDbLine
 10
5479.295015675678
 20
5664.577276893867
 30
0.0
 11
5479.295015675678
 21
6140.075840589954
 31
0.0
  0
LINE
  5
15C6D
330
1599C
100
AcDbEntity
  8
寸法
 62
     0
 48
50.0
370
    -2
100
AcDbLine
 10
7219.295015675682
 20
5664.577276893862
 30
0.0
 11
7219.295015675682
 21
6140.075840589954
 31
0.0
  0
LINE
  5
15C6E
330
1599C
100
AcDbEntity
  8
寸法
 62
     0
 48
50.0
370
    -2
100
AcDbLine
 10
5479.295015675678
 20
6080.075840589954
 30
0.0
 11
7219.295015675682
 21
6080.075840589954
 31
0.0
  0
INSERT
  5
15C6F
330
1599C
100
AcDbEntity
  8
寸法
 62
     0
 48
50.0
370
    -2
100
AcDbBlockReference
  2
_DOTSMALL
 10
5479.295015675678
 20
6080.075840589954
 30
0.0
 41
100.0
 42
100.0
 43
100.0
 50
180.0
  0
INSERT
  5
15C70
330
1599C
100
AcDbEntity
  8
寸法
 62
     0
 48
50.0
370
    -2
100
AcDbBlockReference
  2
_DOTSMALL
 10
7219.295015675682
 20
6080.075840589954
 30
0.0
 41
100.0
 42
100.0
 43
100.0
  0
MTEXT
  5
15C71
330
1599C
100
AcDbEntity
  8
寸法
 62
     7
 48
50.0
100
AcDbMText
 10
6331.393491511874
 20
6180.075840589954
 30
0.0
 40
120.0
 41
0.0
 71
     5
 72
     1
  1
\A1;1740
  7
STYLE1
 73
     1
 44
1.0
1001
ACAD
1000
MTEXTBEGIN
1070
    73
1070
     1
1070
    44
1040
1.0
1070
    74
1070
     0
1000
MTEXTEND
  0
POINT
  5
15C72
330
1599C
100
AcDbEntity
  8
DEFPOINTS
 62
     0
 48
50.0
100
AcDbPoint
 10
5479.295015675678
 20
5644.577276893866
 30
0.0
  0
POINT
  5
15C73
330
1599C
100
AcDbEntity
  8
DEFPOINTS
 62
     0
 48
50.0
100
AcDbPoint
 10
7219.295015675682
 20
5644.577276893862
 30
0.0
  0
POINT
  5
15C74
330
1599C
100
AcDbEntity
  8
DEFPOINTS
 62
     0
 48
50.0
100
AcDbPoint
 10
7219.295015675682
 20
6080.075840589954
 30
0.0
  0
ENDBLK
  5
159A7
330
1599C
100
AcDbEntity
  8
0
 48
50.0
100
AcDbBlockEnd
  0
BLOCK
  5
159B4
330
159A8
100
AcDbEntity
  8
0
 48
50.0
100
AcDbBlockBegin
  2
*D28
 70
     1
 10
0.0
 20
0.0
 30
0.0
  3
*D28
  1

  0
LINE
  5
15C58
330
159A8
100
AcDbEntity
  8
寸法
 62
     0
 48
50.0
370
    -2
100
AcDbLine
 10
5529.295015675678
 20
5664.577276893869
 30
0.0
 11
5529.295015675678
 21
5917.118862152106
 31
0.0
  0
LINE
  5
15C59
330
159A8
100
AcDbEntity
  8
寸法
 62
     0
 48
50.0
370
    -2
100
AcDbLine
 10
5479.295015675678
 20
5664.577276893867
 30
0.0
 11
5479.295015675678
 21
5917.118862152106
 31
0.0
  0
LINE
  5
15C5A
330
159A8
100
AcDbEntity
  8
寸法
 62
     0
 48
50.0
370
    -2
100
AcDbLine
 10
5529.295015675678
 20
5857.118862152105
 30
0.0
 11
5629.295015675678
 21
5857.118862152105
 31
0.0
  0
LINE
  5
15C5B
330
159A8
100
AcDbEntity
  8
寸法
 62
     0
 48
50.0
370
    -2
100
AcDbLine
 10
5479.295015675678
 20
5857.118862152105
 30
0.0
 11
5059.762490206942
 21
5857.118862152105
 31
0.0
  0
LINE
  5
15C5C
330
159A8
100
AcDbEntity
  8
寸法
 62
     0
 48
50.0
370
    -2
100
AcDbLine
 10
5529.295015675678
 20
5857.118862152105
 30
0.0
 11
5479.295015675678
 21
5857.118862152105
 31
0.0
  0
INSERT
  5
15C5D
330
159A8
100
AcDbEntity
  8
寸法
 62
     0
 48
50.0
370
    -2
100
AcDbBlockReference
  2
_DOTSMALL
 10
5529.295015675678
 20
5857.118862152105
 30
0.0
 41
100.0
 42
100.0
 43
100.0
 50
180.0
  0
INSERT
  5
15C5E
330
159A8
100
AcDbEntity
  8
寸法
 62
     0
 48
50.0
370
    -2
100
AcDbBlockReference
  2
_DOTSMALL
 10
5479.295015675678
 20
5857.118862152105
 30
0.0
 41
100.0
 42
100.0
 43
100.0
  0
MTEXT
  5
15C5F
330
159A8
100
AcDbEntity
  8
寸法
 62
     7
 48
50.0
100
AcDbMText
 10
5165.80973430143
 20
5957.118862152106
 30
0.0
 40
120.0
 41
0.0
 71
     5
 72
     1
  1
\A1;50
  7
STYLE1
 73
     1
 44
1.0
1001
ACAD
1000
MTEXTBEGIN
1070
    73
1070
     1
1070
    44
1040
1.0
1070
    74
1070
     0
1000
MTEXTEND
  0
POINT
  5
15C60
330
159A8
100
AcDbEntity
  8
DEFPOINTS
 62
     0
 48
50.0
100
AcDbPoint
 10
5529.295015675678
 20
5644.577276893869
 30
0.0
  0
POINT
  5
15C61
330
159A8
100
AcDbEntity
  8
DEFPOINTS
 62
     0
 48
50.0
100
AcDbPoint
 10
5479.295015675678
 20
5644.577276893866
 30
0.0
  0
POINT
  5
15C62
330
159A8
100
AcDbEntity
  8
DEFPOINTS
 62
     0
 48
50.0
100
AcDbPoint
 10
5479.295015675678
 20
5857.118862152105
 30
0.0
  0
ENDBLK
  5
159B5
330
159A8
100
AcDbEntity
  8
0
 48
50.0
100
AcDbBlockEnd
  0
BLOCK
  5
159EA
330
159DE
100
AcDbEntity
  8
0
 48
50.0
100
AcDbBlockBegin
  2
*D29
 70
     1
 10
0.0
 20
0.0
 30
0.0
  3
*D29
  1

  0
LINE
  5
15C4D
330
159DE
100
AcDbEntity
  8
寸法
 62
     0
 48
50.0
370
    -2
100
AcDbLine
 10
7219.295015675682
 20
5664.577276893862
 30
0.0
 11
7219.295015675682
 21
5917.118862152103
 31
0.0
  0
LINE
  5
15C4E
330
159DE
100
AcDbEntity
  8
寸法
 62
     0
 48
50.0
370
    -2
100
AcDbLine
 10
7169.295015675682
 20
5664.577276893864
 30
0.0
 11
7169.295015675682
 21
5917.118862152103
 31
0.0
  0
LINE
  5
15C4F
330
159DE
100
AcDbEntity
  8
寸法
 62
     0
 48
50.0
370
    -2
100
AcDbLine
 10
7169.295015675682
 20
5857.118862152103
 30
0.0
 11
7069.295015675682
 21
5857.118862152103
 31
0.0
  0
LINE
  5
15C50
330
159DE
100
AcDbEntity
  8
寸法
 62
     0
 48
50.0
370
    -2
100
AcDbLine
 10
7219.295015675682
 20
5857.118862152103
 30
0.0
 11
7638.827541144405
 21
5857.118862152103
 31
0.0
  0
LINE
  5
15C51
330
159DE
100
AcDbEntity
  8
寸法
 62
     0
 48
50.0
370
    -2
100
AcDbLine
 10
7169.295015675682
 20
5857.118862152103
 30
0.0
 11
7219.295015675682
 21
5857.118862152103
 31
0.0
  0
INSERT
  5
15C52
330
159DE
100
AcDbEntity
  8
寸法
 62
     0
 48
50.0
370
    -2
100
AcDbBlockReference
  2
_DOTSMALL
 10
7169.295015675682
 20
5857.118862152103
 30
0.0
 41
100.0
 42
100.0
 43
100.0
  0
INSERT
  5
15C53
330
159DE
100
AcDbEntity
  8
寸法
 62
     0
 48
50.0
370
    -2
100
AcDbBlockReference
  2
_DOTSMALL
 10
7219.295015675682
 20
5857.118862152103
 30
0.0
 41
100.0
 42
100.0
 43
100.0
 50
180.0
  0
MTEXT
  5
15C54
330
159DE
100
AcDbEntity
  8
寸法
 62
     7
 48
50.0
100
AcDbMText
 10
7532.780297049917
 20
5957.118862152103
 30
0.0
 40
120.0
 41
0.0
 71
     5
 72
     1
  1
\A1;50
  7
STYLE1
 73
     1
 44
1.0
1001
ACAD
1000
MTEXTBEGIN
1070
    73
1070
     1
1070
    44
1040
1.0
1070
    74
1070
     0
1000
MTEXTEND
  0
POINT
  5
15C55
330
159DE
100
AcDbEntity
  8
DEFPOINTS
 62
     0
 48
50.0
100
AcDbPoint
 10
7219.295015675682
 20
5644.577276893862
 30
0.0
  0
POINT
  5
15C56
330
159DE
100
AcDbEntity
  8
DEFPOINTS
 62
     0
 48
50.0
100
AcDbPoint
 10
7169.295015675682
 20
5644.577276893864
 30
0.0
  0
POINT
  5
15C57
330
159DE
100
AcDbEntity
  8
DEFPOINTS
 62
     0
 48
50.0
100
AcDbPoint
 10
7169.295015675682
 20
5857.118862152103
 30
0.0
  0
ENDBLK
  5
159EB
330
159DE
100
AcDbEntity
  8
0
 48
50.0
100
AcDbBlockEnd
  0
BLOCK
  5
16563
330
16559
100
AcDbEntity
  8
0
 48
50.0
100
AcDbBlockBegin
  2
*D30
 70
     1
 10
0.0
 20
0.0
 30
0.0
  3
*D30
  1

  0
LINE
  5
16923
330
16559
100
AcDbEntity
  8
寸法
 62
     0
370
    -2
100
AcDbLine
 10
9536.16692823606
 20
5409.577276893862
 30
0.0
 11
8894.203837543859
 21
5409.577276893862
 31
0.0
  0
LINE
  5
16924
330
16559
100
AcDbEntity
  8
寸法
 62
     0
370
    -2
100
AcDbLine
 10
9529.164558191281
 20
3619.577276893864
 30
0.0
 11
8894.203837543857
 21
3619.577276893865
 31
0.0
  0
LINE
  5
16925
330
16559
100
AcDbEntity
  8
寸法
 62
     0
370
    -2
100
AcDbLine
 10
8954.203837543859
 20
5409.577276893862
 30
0.0
 11
8954.203837543856
 21
3619.577276893865
 31
0.0
  0
INSERT
  5
16926
330
16559
100
AcDbEntity
  8
寸法
 62
     0
370
    -2
100
AcDbBlockReference
  2
_DOTSMALL
 10
8954.203837543859
 20
5409.577276893862
 30
0.0
 41
100.0
 42
100.0
 43
100.0
 50
90.0
  0
INSERT
  5
16927
330
16559
100
AcDbEntity
  8
寸法
 62
     0
370
    -2
100
AcDbBlockReference
  2
_DOTSMALL
 10
8954.203837543856
 20
3619.577276893865
 30
0.0
 41
100.0
 42
100.0
 43
100.0
 50
270.0
  0
MTEXT
  5
16928
330
16559
100
AcDbEntity
  8
寸法
 62
     7
100
AcDbMText
 10
8854.203837543856
 20
4524.612288770249
 30
0.0
 40
120.0
 41
0.0
 71
     5
 72
     1
  1
\A1;1790
  7
STYLE1
 11
0.0000000000000001
 21
1.0
 31
0.0
 73
     1
 44
1.0
1001
ACAD
1000
MTEXTBEGIN
1070
    73
1070
     1
1070
    44
1040
1.0
1070
    74
1070
     0
1000
MTEXTEND
  0
POINT
  5
16929
330
16559
100
AcDbEntity
  8
DEFPOINTS
 62
     0
100
AcDbPoint
 10
9556.166928236059
 20
5409.577276893862
 30
0.0
  0
POINT
  5
1692A
330
16559
100
AcDbEntity
  8
DEFPOINTS
 62
     0
100
AcDbPoint
 10
9549.164558191282
 20
3619.577276893864
 30
0.0
  0
POINT
  5
1692B
330
16559
100
AcDbEntity
  8
DEFPOINTS
 62
     0
100
AcDbPoint
 10
8954.203837543856
 20
3619.577276893865
 30
0.0
  0
ENDBLK
  5
16564
330
16559
100
AcDbEntity
  8
0
 48
50.0
100
AcDbBlockEnd
  0
BLOCK
  5
16571
330
16565
100
AcDbEntity
  8
0
 48
50.0
100
AcDbBlockBegin
  2
*D31
 70
     1
 10
0.0
 20
0.0
 30
0.0
  3
*D31
  1

  0
LINE
  5
1657C
330
16565
100
AcDbEntity
  8
寸法
 62
     0
 48
50.0
370
    -2
100
AcDbLine
 10
9529.164558191281
 20
3619.577276893864
 30
0.0
 11
8894.203837543857
 21
3619.577276893865
 31
0.0
  0
LINE
  5
1657D
330
16565
100
AcDbEntity
  8
寸法
 62
     0
 48
50.0
370
    -2
100
AcDbLine
 10
9481.16692823606
 20
3569.577276893863
 30
0.0
 11
8894.203837543857
 21
3569.577276893863
 31
0.0
  0
LINE
  5
1657E
330
16565
100
AcDbEntity
  8
寸法
 62
     0
 48
50.0
370
    -2
100
AcDbLine
 10
8954.203837543856
 20
3619.577276893865
 30
0.0
 11
8954.203837543856
 21
3719.577276893865
 31
0.0
  0
LINE
  5
1657F
330
16565
100
AcDbEntity
  8
寸法
 62
     0
 48
50.0
370
    -2
100
AcDbLine
 10
8954.203837543856
 20
3569.577276893863
 30
0.0
 11
8954.203837543856
 21
3157.482788704883
 31
0.0
  0
LINE
  5
16580
330
16565
100
AcDbEntity
  8
寸法
 62
     0
 48
50.0
370
    -2
100
AcDbLine
 10
8954.203837543856
 20
3619.577276893865
 30
0.0
 11
8954.203837543856
 21
3569.577276893863
 31
0.0
  0
INSERT
  5
16581
330
16565
100
AcDbEntity
  8
寸法
 62
     0
 48
50.0
370
    -2
100
AcDbBlockReference
  2
_DOTSMALL
 10
8954.203837543856
 20
3619.577276893865
 30
0.0
 41
100.0
 42
100.0
 43
100.0
 50
270.0
  0
INSERT
  5
16582
330
16565
100
AcDbEntity
  8
寸法
 62
     0
 48
50.0
370
    -2
100
AcDbBlockReference
  2
_DOTSMALL
 10
8954.203837543856
 20
3569.577276893863
 30
0.0
 41
100.0
 42
100.0
 43
100.0
 50
90.0
  0
MTEXT
  5
16583
330
16565
100
AcDbEntity
  8
寸法
 62
     7
 48
50.0
100
AcDbMText
 10
8854.203837543856
 20
3263.530032799372
 30
0.0
 40
120.0
 41
0.0
 71
     5
 72
     1
  1
\A1;50
  7
STYLE1
 11
0.0000000000000001
 21
1.0
 31
0.0
 73
     1
 44
1.0
1001
ACAD
1000
MTEXTBEGIN
1070
    73
1070
     1
1070
    44
1040
1.0
1070
    74
1070
     0
1000
MTEXTEND
  0
POINT
  5
16584
330
16565
100
AcDbEntity
  8
DEFPOINTS
 62
     0
 48
50.0
100
AcDbPoint
 10
9549.164558191282
 20
3619.577276893864
 30
0.0
  0
POINT
  5
16585
330
16565
100
AcDbEntity
  8
DEFPOINTS
 62
     0
 48
50.0
100
AcDbPoint
 10
9501.16692823606
 20
3569.577276893863
 30
0.0
  0
POINT
  5
16586
330
16565
100
AcDbEntity
  8
DEFPOINTS
 62
     0
 48
50.0
100
AcDbPoint
 10
8954.203837543856
 20
3569.577276893863
 30
0.0
  0
ENDBLK
  5
16572
330
16565
100
AcDbEntity
  8
0
 48
50.0
100
AcDbBlockEnd
  0
ENDSEC
  0
SECTION
  2
ENTITIES
  0
LINE
  5
10B56
330
747D
100
AcDbEntity
  8
補助
  6
PHANTOM
 62
   230
 48
50.0
100
AcDbLine
 10
140.0
 20
0.0
 30
0.0
 11
139.9999999999995
 21
11409.6
 31
0.0
  0
LINE
  5
10B57
330
747D
100
AcDbEntity
  8
補助
  6
PHANTOM
 62
   230
 48
50.0
100
AcDbLine
 10
139.9999999999995
 20
11409.6
 30
0.0
 11
16307.2
 21
11409.6
 31
0.0
  0
LINE
  5
10B59
330
747D
100
AcDbEntity
  8
仕様書枠
  6
Continuous
 48
50.0
100
AcDbLine
 10
13107.2
 20
1200.0
 30
0.0
 11
13107.2
 21
-0.0000000000000729
 31
0.0
  0
LINE
  5
10B5C
330
747D
100
AcDbEntity
  8
仕様書枠
 48
50.0
100
AcDbLine
 10
16307.2
 20
1200.0
 30
0.0
 11
16307.2
 21
-0.0000000000000909
 31
0.0
  0
LINE
  5
10B5D
330
747D
100
AcDbEntity
  8
仕様書枠
 48
50.0
100
AcDbLine
 10
140.0
 20
0.0
 30
0.0
 11
16307.2
 21
-0.0000000000000909
 31
0.0
  0
LINE
  5
10B5E
330
747D
100
AcDbEntity
  8
補助
  6
PHANTOM
 62
   230
 48
50.0
100
AcDbLine
 10
16307.2
 20
11409.6
 30
0.0
 11
16307.2
 21
1200.0
 31
0.0
  0
LINE
  5
10B6C
330
747D
100
AcDbEntity
  8
仕様書枠
 48
50.0
100
AcDbLine
 10
13107.2
 20
1200.0
 30
0.0
 11
16307.2
 21
1200.0
 31
0.0
  0
LINE
  5
10B6D
330
747D
100
AcDbEntity
  8
補助
  6
PHANTOM
 62
   230
 48
50.0
100
AcDbLine
 10
13107.2
 20
11409.6
 30
0.0
 11
13107.2
 21
4800.0
 31
0.0
  0
LINE
  5
10B6F
330
747D
100
AcDbEntity
  8
補助
  6
PHANTOM
 62
   230
 48
50.0
100
AcDbLine
 10
13107.2
 20
4800.0
 30
0.0
 11
16307.2
 21
4800.0
 31
0.0
  0
LINE
  5
10B72
330
747D
100
AcDbEntity
  8
文字
 62
     7
 48
50.0
100
AcDbLine
 10
13187.2
 20
400.0
 30
0.0
 11
16227.2
 21
400.0
 31
0.0
  0
TEXT
  5
10B73
330
747D
100
AcDbEntity
  8
文字
 62
     7
 48
50.0
100
AcDbText
 10
13162.9790565769
 20
895.0906074299405
 30
0.0
 40
200.0
  1
外 形 図
  7
STYLE2
100
AcDbText
  0
TEXT
  5
10B74
330
747D
100
AcDbEntity
  8
文字
 62
     7
 48
50.0
100
AcDbText
 10
13201.43669998441
 20
477.2740661031255
 30
0.0
 40
160.0
  1
機種名
  7
STYLE2
100
AcDbText
  0
TEXT
  5
10B75
330
747D
100
AcDbEntity
  8
文字
 62
     7
 48
50.0
100
AcDbText
 10
13209.4053442172
 20
228.5435242569016
 30
0.0
 40
100.0
  1
○有効開口寸法 ： 685\U+00D71760(mm)
  7
STYLE2
100
AcDbText
  0
TEXT
  5
10B76
330
747D
100
AcDbEntity
  8
文字
 62
     7
 48
50.0
100
AcDbText
 10
13209.4053442172
 20
76.09434707649343
 30
0.0
 40
100.0
  1
○床面積 ： 1.34㎡(0.41坪) 　
  7
STYLE2
100
AcDbText
  0
TEXT
  5
10B79
330
747D
100
AcDbEntity
  8
文字
 62
     7
 48
50.0
100
AcDbText
 10
15047.13957933145
 20
1031.557706291228
 30
0.0
 40
100.0
  1
     <縮尺> S=1/40
  7
STYLE2
100
AcDbText
  0
LINE
  5
10B7B
330
747D
100
AcDbEntity
  8
仕様書枠
 48
50.0
100
AcDbLine
 10
13107.2
 20
800.0
 30
0.0
 11
14251.2
 21
800.0
 31
0.0
  0
LINE
  5
10B88
330
747D
100
AcDbEntity
  8
仕様書枠
  6
Continuous
 48
50.0
100
AcDbLine
 10
14251.2
 20
1200.0
 30
0.0
 11
14251.2
 21
800.0
 31
0.0
  0
TEXT
  5
10EA8
330
747D
100
AcDbEntity
  8
文字
 62
     7
 48
50.0
100
AcDbText
 10
14251.2
 20
838.2527270729188
 30
0.0
 40
100.0
  1
～一般型・多雪地型・豪雪地型～
  7
STYLE2
100
AcDbText
  0
LINE
  5
13A41
330
747D
100
AcDbEntity
  8
Ｇ．Ｌ
100
AcDbLine
 10
4191.75935683804
 20
3469.57727689386
 30
0.0
 11
11159.8444124174
 21
3469.57727689386
 31
0.0
  0
LINE
  5
13A4F
330
747D
100
AcDbEntity
  8
部品1
100
AcDbLine
 10
5529.295015675678
 20
3612.577276893864
 30
0.0
 11
7169.295015675678
 21
3612.577276893881
 31
0.0
  0
LINE
  5
13A54
330
747D
100
AcDbEntity
  8
部品1
100
AcDbLine
 10
5529.295015675678
 20
5409.577276893861
 30
0.0
 11
7169.295015675678
 21
5409.577276893861
 31
0.0
  0
LINE
  5
13A55
330
747D
100
AcDbEntity
  8
部品1
100
AcDbLine
 10
5529.295015675678
 20
3569.57727689386
 30
0.0
 11
7169.295015675678
 21
3569.57727689386
 31
0.0
  0
LINE
  5
13A5E
330
747D
100
AcDbEntity
  8
部品1
100
AcDbLine
 10
5574.295015675677
 20
5407.077276893864
 30
0.0
 11
5574.295015675676
 21
3616.077276893867
 31
0.0
  0
LINE
  5
13A5F
330
747D
100
AcDbEntity
  8
部品1
100
AcDbLine
 10
7126.295015675679
 20
5409.577276893861
 30
0.0
 11
7126.295015675679
 21
3612.577276893881
 31
0.0
  0
LINE
  5
13A60
330
747D
100
AcDbEntity
  8
部品1
100
AcDbLine
 10
5529.295015675677
 20
5503.577276893864
 30
0.0
 11
5529.295015675678
 21
3469.57727689386
 31
0.0
  0
TEXT
  5
13A63
330
747D
100
AcDbEntity
  8
部品1
100
AcDbText
 10
4460.506502376018
 20
3505.684180499763
 30
0.0
 40
125.0
  1
▽G.L
  7
STYLE2
100
AcDbText
  0
LWPOLYLINE
  5
13A6B
330
747D
100
AcDbEntity
  8
部品1
100
AcDbPolyline
 90
        4
 70
     1
 43
0.0
 10
5959.311224404441
 20
2866.500696077142
 10
5959.311224404441
 20
2626.60837453161
 10
6722.78189063288
 20
2626.60837453161
 10
6722.78189063288
 20
2866.500696077142
  0
TEXT
  5
13A6C
330
747D
100
AcDbEntity
  8
部品1
100
AcDbText
 10
6049.836628142397
 20
2673.607166858619
 30
0.0
 40
135.0
  1
正面図
  7
STYLE2
100
AcDbText
  0
LINE
  5
13AB6
330
747D
100
AcDbEntity
  8
部品1
100
AcDbLine
 10
7169.295015675676
 20
5503.577276893864
 30
0.0
 11
7169.295015675678
 21
3469.57727689386
 31
0.0
  0
DIMENSION
  5
13ACA
330
747D
100
AcDbEntity
  8
寸法
100
AcDbDimension
  2
*D1
 10
5211.190488068075
 20
3631.077276893865
 30
0.0
 11
5211.190488068074
 21
4510.077276893862
 31
0.0
 70
   160
  1
有効開口部高サ<>
 71
     5
 42
1759.999999999995
  3
INABA_S40G
100
AcDbAlignedDimension
 13
5529.295015675678
 23
5391.07727689386
 33
0.0
 14
5529.295015675678
 24
3631.077276893865
 34
0.0
 50
90.0
100
AcDbRotatedDimension
1001
ACAD
1000
DSTYLE
1002
{
1070
   288
1070
     1
1002
}
  0
LWPOLYLINE
  5
13AD7
330
747D
100
AcDbEntity
  8
部品1
100
AcDbPolyline
 90
        4
 70
     1
 43
0.0
 10
9649.431595121839
 20
2866.500696077142
 10
9649.431595121839
 20
2626.60837453161
 10
10412.90226135028
 20
2626.60837453161
 10
10412.90226135028
 20
2866.500696077142
  0
TEXT
  5
13AD8
330
747D
100
AcDbEntity
  8
部品1
100
AcDbText
 10
9738.877696545447
 20
2673.607166858619
 30
0.0
 40
135.0
  1
側面図
  7
STYLE2
100
AcDbText
  0
DIMENSION
  5
13B15
330
747D
100
AcDbEntity
  8
寸法
100
AcDbDimension
  2
*D2
 10
6294.295015675683
 20
9620.309563122448
 30
0.0
 11
5939.545015675683
 21
9620.309563122448
 31
0.0
 70
   160
 71
     5
 42
709.999999999999
  3
INABA_S40G
100
AcDbAlignedDimension
 13
5584.295015675684
 23
9176.365915108434
 33
0.0
 14
6294.295015675683
 24
9176.365915108554
 34
0.0
100
AcDbRotatedDimension
1001
ACAD
1000
DSTYLE
1002
{
1002
}
  0
LINE
  5
13B16
330
747D
100
AcDbEntity
  8
部品1
100
AcDbLine
 10
5529.295015675685
 20
9176.365915108434
 30
0.0
 11
7169.295015675685
 21
9176.365915108529
 31
0.0
  0
DIMENSION
  5
13B17
330
747D
100
AcDbEntity
  8
寸法
100
AcDbDimension
  2
*D3
 10
7169.295015675685
 20
9620.309563122425
 30
0.0
 11
7477.780297049924
 21
9620.309563122425
 31
0.0
 70
   160
 71
     5
 42
55.0
  3
INABA_S40G
100
AcDbAlignedDimension
 13
7114.295015675685
 23
9176.365915108529
 33
0.0
 14
7169.295015675685
 24
9176.365915108529
 34
0.0
100
AcDbRotatedDimension
1001
ACAD
1000
DSTYLE
1002
{
1002
}
  0
LINE
  5
13B18
330
747D
100
AcDbEntity
  8
部品1
100
AcDbLine
 10
5557.295015675684
 20
9148.365915108433
 30
0.0
 11
6346.675718694286
 21
9148.365915108481
 31
0.0
  0
LINE
  5
13B20
330
747D
100
AcDbEntity
  8
部品1
100
AcDbLine
 10
7169.295015675659
 20
8356.365915108517
 30
0.0
 11
5529.295015675678
 21
8356.365915108424
 31
0.0
  0
LINE
  5
13B22
330
747D
100
AcDbEntity
  8
部品1
100
AcDbLine
 10
7112.794044250868
 20
8487.866020821368
 30
0.0
 11
6404.795015675661
 21
8487.865915133143
 31
0.0
  0
DIMENSION
  5
13B23
330
747D
100
AcDbEntity
  8
寸法
100
AcDbDimension
  2
*D4
 10
7169.295015675659
 20
7369.264040248284
 30
0.0
 11
6341.046557518661
 21
7369.264040248284
 31
0.0
 70
   160
 71
     5
 42
1639.999999999982
  3
INABA_S40G
100
AcDbAlignedDimension
 13
5529.295015675678
 23
8356.365915108353
 33
0.0
 14
7169.295015675659
 24
8356.365915108485
 34
0.0
100
AcDbRotatedDimension
1001
ACAD
1000
DSTYLE
1002
{
1002
}
  0
TEXT
  5
13B2F
330
747D
100
AcDbEntity
  8
部品1
100
AcDbText
 10
6049.23083423348
 20
6825.893697090123
 30
0.0
 40
135.0
  1
平面図
  7
STYLE2
100
AcDbText
  0
LWPOLYLINE
  5
13B30
330
747D
100
AcDbEntity
  8
部品1
100
AcDbPolyline
 90
        4
 70
     1
 43
0.0
 10
5959.311224404441
 20
7018.787226308646
 10
5959.311224404441
 20
6778.894904763113
 10
6722.78189063288
 20
6778.894904763113
 10
6722.78189063288
 20
7018.787226308646
  0
DIMENSION
  5
13B3C
330
747D
100
AcDbEntity
  8
寸法
100
AcDbDimension
  2
*D5
 10
5584.295015675684
 20
9620.309563122333
 30
0.0
 11
5220.809734301411
 21
9620.309563122333
 31
0.0
 70
   160
 71
     5
 42
55.00000000003456
  3
INABA_S40G
100
AcDbAlignedDimension
 13
5529.29501567565
 23
9176.365915108434
 33
0.0
 14
5584.295015675684
 24
9176.365915108434
 34
0.0
100
AcDbRotatedDimension
1001
ACAD
1000
DSTYLE
1002
{
1002
}
  0
LINE
  5
13B3E
330
747D
100
AcDbEntity
  8
部品1
100
AcDbLine
 10
5557.295015675659
 20
8411.365915108387
 30
0.0
 11
5557.295015675669
 21
8670.365915108524
 31
0.0
  0
LINE
  5
13B3F
330
747D
100
AcDbEntity
  8
部品1
100
AcDbLine
 10
5529.29501567565
 20
9176.365915108402
 30
0.0
 11
5529.295015675678
 21
8356.365915108391
 31
0.0
  0
LINE
  5
13B47
330
747D
100
AcDbEntity
  8
部品1
100
AcDbLine
 10
5529.295015675676
 20
8411.365915108353
 30
0.0
 11
5529.295015675678
 21
8356.365915108353
 31
0.0
  0
LINE
  5
13B48
330
747D
100
AcDbEntity
  8
部品1
100
AcDbLine
 10
5557.295015675676
 20
8411.365915108401
 30
0.0
 11
5529.295015675676
 21
8411.365915108401
 31
0.0
  0
LINE
  5
13B49
330
747D
100
AcDbEntity
  8
部品1
100
AcDbLine
 10
5557.295015675659
 20
8411.365915108387
 30
0.0
 11
5529.295015675676
 21
8411.365915108387
 31
0.0
  0
LINE
  5
13B4A
330
747D
100
AcDbEntity
  8
部品1
100
AcDbLine
 10
5557.295015675659
 20
8411.365915108353
 30
0.0
 11
5529.295015675676
 21
8411.365915108353
 31
0.0
  0
LINE
  5
13B4B
330
747D
100
AcDbEntity
  8
部品1
100
AcDbLine
 10
5580.295015675678
 20
8356.365915108391
 30
0.0
 11
5529.295015675678
 21
8356.365915108391
 31
0.0
  0
LINE
  5
13B4E
330
747D
100
AcDbEntity
  8
部品1
100
AcDbLine
 10
5557.295015675652
 20
9121.365915108404
 30
0.0
 11
5529.295015675652
 21
9121.365915108404
 31
0.0
  0
LINE
  5
13B4F
330
747D
100
AcDbEntity
  8
部品1
100
AcDbLine
 10
5584.295015675684
 20
9176.365915108434
 30
0.0
 11
5584.295015675684
 21
9148.365915108433
 31
0.0
  0
LINE
  5
13B50
330
747D
100
AcDbEntity
  8
部品1
100
AcDbLine
 10
5584.29501567565
 20
9176.365915108402
 30
0.0
 11
5584.295015675651
 21
9148.365915108401
 31
0.0
  0
LINE
  5
13B59
330
747D
100
AcDbEntity
  8
破線
 48
10.0
100
AcDbLine
 10
5609.295080600386
 20
8696.865915108444
 30
0.0
 11
5609.295015675671
 21
8511.365915108443
 31
0.0
  0
LINE
  5
13B74
330
747D
100
AcDbEntity
  8
破線
 48
10.0
100
AcDbLine
 10
7089.295080600352
 20
8696.865915108478
 30
0.0
 11
7089.295015675666
 21
8511.365915108525
 31
0.0
  0
LINE
  5
13B77
330
747D
100
AcDbEntity
  8
破線
 48
10.0
100
AcDbLine
 10
7089.295015675663
 20
8511.365915108525
 30
0.0
 11
6428.295015675671
 21
8511.365915108489
 31
0.0
  0
LINE
  5
13B98
330
747D
100
AcDbEntity
  8
部品1
100
AcDbLine
 10
7114.295015675685
 20
9176.365915108545
 30
0.0
 11
7114.295015675685
 21
9148.365915108547
 31
0.0
  0
LINE
  5
13B99
330
747D
100
AcDbEntity
  8
部品1
100
AcDbLine
 10
7114.295015675685
 20
9176.365915108529
 30
0.0
 11
7114.295015675685
 21
9148.365915108529
 31
0.0
  0
DIMENSION
  5
13B9A
330
747D
100
AcDbEntity
  8
寸法
100
AcDbDimension
  2
*D6
 10
7816.721361410071
 20
8356.365915108517
 30
0.0
 11
7816.721361410069
 21
7978.504448203658
 31
0.0
 70
   160
 71
     5
 42
54.99999999999636
  3
INABA_S40G
100
AcDbAlignedDimension
 13
7169.295015675659
 23
8411.365915108515
 33
0.0
 14
7169.295015675659
 24
8356.365915108517
 34
0.0
 50
90.0
100
AcDbRotatedDimension
1001
ACAD
1000
DSTYLE
1002
{
1002
}
  0
LINE
  5
13BA5
330
747D
100
AcDbEntity
  8
部品1
100
AcDbLine
 10
7141.295015675685
 20
9148.365915108529
 30
0.0
 11
7141.295015675672
 21
8695.365915108522
 31
0.0
  0
DIMENSION
  5
13BA6
330
747D
100
AcDbEntity
  8
寸法
100
AcDbDimension
  2
*D7
 10
7816.721361410097
 20
8411.365915108515
 30
0.0
 11
7816.721361410095
 21
8766.365915108522
 31
0.0
 70
   160
 71
     5
 42
710.0000000000181
  3
INABA_S40G
100
AcDbAlignedDimension
 13
7169.295015675685
 23
9121.365915108532
 33
0.0
 14
7169.295015675659
 24
8411.365915108515
 34
0.0
 50
90.0
100
AcDbRotatedDimension
  0
LINE
  5
13BA8
330
747D
100
AcDbEntity
  8
部品1
100
AcDbLine
 10
7169.295015675685
 20
9176.365915108529
 30
0.0
 11
7169.295015675659
 21
8356.365915108517
 31
0.0
  0
DIMENSION
  5
13BA9
330
747D
100
AcDbEntity
  8
寸法
100
AcDbDimension
  2
*D8
 10
8125.832892225773
 20
8356.365915108517
 30
0.0
 11
8125.832892225773
 21
8766.365915108522
 31
0.0
 70
   160
 71
     5
 42
820.0000000000109
  3
INABA_S40G
100
AcDbAlignedDimension
 13
7169.295015675685
 23
9176.365915108529
 33
0.0
 14
7169.295015675659
 24
8356.365915108517
 34
0.0
 50
90.0
100
AcDbRotatedDimension
  0
LINE
  5
13BAA
330
747D
100
AcDbEntity
  8
部品1
100
AcDbLine
 10
7141.295015675692
 20
8411.365915108532
 30
0.0
 11
7169.295015675692
 21
8411.365915108532
 31
0.0
  0
LINE
  5
13BAB
330
747D
100
AcDbEntity
  8
部品1
100
AcDbLine
 10
7141.295015675662
 20
8411.365915108515
 30
0.0
 11
7169.295015675659
 21
8411.365915108515
 31
0.0
  0
DIMENSION
  5
13BAE
330
747D
100
AcDbEntity
  8
寸法
100
AcDbDimension
  2
*D9
 10
7816.721361410095
 20
9121.365915108532
 30
0.0
 11
7816.721361410094
 21
9484.85119648277
 31
0.0
 70
   160
 71
     5
 42
54.99999999999636
  3
INABA_S40G
100
AcDbAlignedDimension
 13
7169.295015675685
 23
9176.365915108529
 33
0.0
 14
7169.295015675685
 24
9121.365915108532
 34
0.0
 50
90.0
100
AcDbRotatedDimension
1001
ACAD
1000
DSTYLE
1002
{
1002
}
  0
LINE
  5
13BAF
330
747D
100
AcDbEntity
  8
部品1
100
AcDbLine
 10
7141.295015675685
 20
9121.365915108532
 30
0.0
 11
7169.295015675685
 21
9121.365915108532
 31
0.0
  0
LINE
  5
13E9E
330
747D
100
AcDbEntity
  8
部品1
100
AcDbLine
 10
6378.795015675617
 20
9146.865915108483
 30
0.0
 11
7139.795015675618
 21
9146.865915108476
 31
0.0
  0
LINE
  5
13E9F
330
747D
100
AcDbEntity
  8
細線
 48
50.0
100
AcDbLine
 10
7139.795015675618
 20
8696.865915108476
 30
0.0
 11
6378.795015675617
 21
9146.865915108479
 31
0.0
  0
LINE
  5
13EA0
330
747D
100
AcDbEntity
  8
細線
 48
50.0
100
AcDbLine
 10
7139.795015675618
 20
9146.865915108476
 30
0.0
 11
6378.795015675616
 21
8696.865915108483
 31
0.0
  0
LINE
  5
13EA1
330
747D
100
AcDbEntity
  8
部品1
100
AcDbLine
 10
6378.795015675616
 20
8696.865915108483
 30
0.0
 11
7139.795015675618
 21
8696.865915108476
 31
0.0
  0
DIMENSION
  5
13EA2
330
747D
100
AcDbEntity
  8
寸法
100
AcDbDimension
  2
*D10
 10
7205.525155020879
 20
9392.174134733533
 30
0.0
 11
6825.025155020873
 21
9392.174134733533
 31
0.0
 70
   160
 71
     5
 42
761.0000000000118
  3
INABA_S40G
100
AcDbAlignedDimension
 13
6378.795015675617
 23
9146.865915108483
 33
0.0
 14
7139.79501567563
 24
9146.865915108479
 34
0.0
100
AcDbRotatedDimension
  0
LINE
  5
13EA5
330
747D
100
AcDbEntity
  8
部品1
100
AcDbLine
 10
5558.795022353313
 20
9146.86591510844
 30
0.0
 11
6319.795022353314
 21
9146.865915108547
 31
0.0
  0
LINE
  5
13EA6
330
747D
100
AcDbEntity
  8
部品1
100
AcDbLine
 10
5558.795022353315
 20
8696.865915108437
 30
0.0
 11
6319.795022353313
 21
8696.865915108544
 31
0.0
  0
LINE
  5
13EA7
330
747D
100
AcDbEntity
  8
細線
 48
50.0
100
AcDbLine
 10
6319.795022353313
 20
8696.865915108544
 30
0.0
 11
5558.795022353313
 21
9146.86591510844
 31
0.0
  0
LINE
  5
13EA8
330
747D
100
AcDbEntity
  8
細線
 48
50.0
100
AcDbLine
 10
6319.795022353314
 20
9146.865915108543
 30
0.0
 11
5558.795022353314
 21
8696.865915108437
 31
0.0
  0
LINE
  5
13EA9
330
747D
100
AcDbEntity
  8
部品1
 48
50.0
100
AcDbLine
 10
5558.795022353313
 20
9146.865915108433
 30
0.0
 11
5558.795022353314
 21
8696.865915108437
 31
0.0
  0
LINE
  5
13EB4
330
747D
100
AcDbEntity
  8
部品1
 48
50.0
100
AcDbLine
 10
6319.795022353314
 20
9146.865915108543
 30
0.0
 11
6319.795022353314
 21
8696.865915108544
 31
0.0
  0
LINE
  5
13EB5
330
747D
100
AcDbEntity
  8
部品1
 48
50.0
100
AcDbLine
 10
6378.795015675617
 20
9146.865915108479
 30
0.0
 11
6378.795015675617
 21
8696.865915108483
 31
0.0
  0
DIMENSION
  5
13EBD
330
747D
100
AcDbEntity
  8
寸法
100
AcDbDimension
  2
*D11
 10
7495.152741537641
 20
8601.648099439586
 30
0.0
 11
7395.152741537642
 21
8826.648099439587
 31
0.0
 70
    32
 71
     5
 42
450.0
  3
INABA_S40G
100
AcDbAlignedDimension
 13
7139.795015675618
 23
9146.865915108476
 33
0.0
 14
7139.795015675618
 24
8696.865915108476
 34
0.0
 50
90.0
100
AcDbRotatedDimension
1001
ACAD
1000
DSTYLE
1002
{
1002
}
  0
LINE
  5
13EBE
330
747D
100
AcDbEntity
  8
部品1
100
AcDbLine
 10
7139.795015675618
 20
9146.865915108476
 30
0.0
 11
7139.795015675618
 21
8696.865915108476
 31
0.0
  0
LINE
  5
13F15
330
747D
100
AcDbEntity
  8
部品1
100
AcDbLine
 10
7124.295015675677
 20
5407.07727689386
 30
0.0
 11
7124.295015675679
 21
3616.077276893883
 31
0.0
  0
LINE
  5
13F16
330
747D
100
AcDbEntity
  8
部品1
100
AcDbLine
 10
6394.295015675677
 20
5407.077276893857
 30
0.0
 11
6394.295015675678
 21
3616.077276893875
 31
0.0
  0
LINE
  5
13F17
330
747D
100
AcDbEntity
  8
部品1
100
AcDbLine
 10
6392.295015675678
 20
5409.577276893861
 30
0.0
 11
6392.295015675678
 21
3612.577276893881
 31
0.0
  0
LINE
  5
13F18
330
747D
100
AcDbEntity
  8
部品1
100
AcDbLine
 10
6306.295015675678
 20
5409.577276893861
 30
0.0
 11
6306.295015675678
 21
3612.577276893881
 31
0.0
  0
LINE
  5
13F19
330
747D
100
AcDbEntity
  8
部品1
100
AcDbLine
 10
6304.295015675676
 20
5407.07727689386
 30
0.0
 11
6304.29501567568
 21
3616.077276893881
 31
0.0
  0
LINE
  5
13F1A
330
747D
100
AcDbEntity
  8
部品1
100
AcDbLine
 10
5572.295015675678
 20
5409.577276893861
 30
0.0
 11
5572.295015675678
 21
3612.577276893881
 31
0.0
  0
LINE
  5
13FFF
330
747D
100
AcDbEntity
  8
部品1
100
AcDbLine
 10
5574.295015675677
 20
3616.077276893867
 30
0.0
 11
6284.232567846997
 21
3616.077276893872
 31
0.0
  0
LINE
  5
14000
330
747D
100
AcDbEntity
  8
部品1
100
AcDbLine
 10
6394.295015675678
 20
3616.077276893875
 30
0.0
 11
7104.232567846996
 21
3616.077276893881
 31
0.0
  0
LINE
  5
14001
330
747D
100
AcDbEntity
  8
部品1
100
AcDbLine
 10
5574.295015675677
 20
5407.077276893864
 30
0.0
 11
6284.232567846997
 21
5407.077276893862
 31
0.0
  0
LINE
  5
14002
330
747D
100
AcDbEntity
  8
部品1
100
AcDbLine
 10
6394.295015675677
 20
5407.077276893857
 30
0.0
 11
7104.232567846996
 21
5407.07727689386
 31
0.0
  0
LINE
  5
14026
330
747D
100
AcDbEntity
  8
破線
 48
10.0
100
AcDbLine
 10
6428.295015675671
 20
8511.365915108489
 30
0.0
 11
6428.295003244561
 21
8696.865915108483
 31
0.0
  0
LINE
  5
14027
330
747D
100
AcDbEntity
  8
破線
 48
10.0
100
AcDbLine
 10
6270.295015675671
 20
8511.365915108479
 30
0.0
 11
6270.295007321119
 21
8696.865915108537
 31
0.0
  0
LINE
  5
14028
330
747D
100
AcDbEntity
  8
破線
 48
10.0
100
AcDbLine
 10
6270.295015675671
 20
8511.365915108482
 30
0.0
 11
5609.295015675671
 21
8511.365915108443
 31
0.0
  0
LINE
  5
1402D
330
747D
100
AcDbEntity
  8
部品1
100
AcDbLine
 10
7124.295015675677
 20
8382.365915108525
 30
0.0
 11
6394.295015675677
 21
8382.365915108463
 31
0.0
  0
LINE
  5
1409C
330
747D
100
AcDbEntity
  8
部品1
 48
2.83
100
AcDbLine
 10
7137.295015675658
 20
8411.365915108488
 30
0.0
 11
7114.295015675658
 21
8411.365915108484
 31
0.0
  0
LINE
  5
1409F
330
747D
100
AcDbEntity
  8
部品1
 48
2.83
100
AcDbLine
 10
7169.295015675659
 20
8411.365915108484
 30
0.0
 11
7146.295015675659
 21
8411.365915108488
 31
0.0
  0
LINE
  5
140A0
330
747D
100
AcDbEntity
  8
部品1
 48
2.83
100
AcDbLine
 10
7114.29501567566
 20
8411.365915108484
 30
0.0
 11
7114.295015675658
 21
8385.865915108487
 31
0.0
  0
LINE
  5
140A1
330
747D
100
AcDbEntity
  8
部品1
 48
2.83
100
AcDbLine
 10
7126.295015675658
 20
8385.865915108487
 30
0.0
 11
7126.295015675658
 21
8356.365915108487
 31
0.0
  0
LINE
  5
140A3
330
747D
100
AcDbEntity
  8
部品1
 48
2.83
100
AcDbLine
 10
5561.295015675678
 20
8411.365915108355
 30
0.0
 11
5584.295015675678
 21
8411.365915108353
 31
0.0
  0
LINE
  5
140A5
330
747D
100
AcDbEntity
  8
部品1
 48
2.83
100
AcDbLine
 10
5572.295015675678
 20
8356.365915108355
 30
0.0
 11
5529.295015675678
 21
8356.365915108353
 31
0.0
  0
LINE
  5
140A6
330
747D
100
AcDbEntity
  8
部品1
 48
2.83
100
AcDbLine
 10
5529.295015675678
 20
8411.365915108353
 30
0.0
 11
5552.295015675679
 21
8411.365915108355
 31
0.0
  0
LINE
  5
140A7
330
747D
100
AcDbEntity
  8
部品1
 48
2.83
100
AcDbLine
 10
5584.295015675678
 20
8411.365915108353
 30
0.0
 11
5584.295015675681
 21
8385.865915108356
 31
0.0
  0
LINE
  5
140A8
330
747D
100
AcDbEntity
  8
部品1
 48
2.83
100
AcDbLine
 10
5572.295015675678
 20
8385.865915108356
 30
0.0
 11
5572.295015675678
 21
8356.365915108355
 31
0.0
  0
LINE
  5
140A9
330
747D
100
AcDbEntity
  8
部品1
 48
2.83
100
AcDbLine
 10
5529.295015675678
 20
8356.365915108353
 30
0.0
 11
5529.295015675678
 21
8411.365915108353
 31
0.0
  0
LINE
  5
140AA
330
747D
100
AcDbEntity
  8
部品1
 48
50.0
100
AcDbLine
 10
6377.295015675664
 20
8411.365915108472
 30
0.0
 11
6377.295015675645
 21
8670.365915108524
 31
0.0
  0
LINE
  5
140AB
330
747D
100
AcDbEntity
  8
部品1
 48
50.0
100
AcDbLine
 10
6321.295015675664
 20
8411.365915108472
 30
0.0
 11
6321.295015675647
 21
8670.365915108524
 31
0.0
  0
LINE
  5
140D8
330
747D
100
AcDbEntity
  8
部品1
100
AcDbLine
 10
6304.295015675677
 20
8382.365915108525
 30
0.0
 11
6304.295015675677
 21
8356.365915108469
 31
0.0
  0
LINE
  5
140D9
330
747D
100
AcDbEntity
  8
部品1
100
AcDbLine
 10
6306.295015675677
 20
8385.865915108418
 30
0.0
 11
6306.295015675676
 21
8356.365915108467
 31
0.0
  0
LINE
  5
140DA
330
747D
100
AcDbEntity
  8
部品1
100
AcDbLine
 10
6392.295015675679
 20
8385.865915108425
 30
0.0
 11
6392.29501567568
 21
8356.365915108472
 31
0.0
  0
LINE
  5
140DB
330
747D
100
AcDbEntity
  8
部品1
100
AcDbLine
 10
6394.295015675677
 20
8382.365915108463
 30
0.0
 11
6394.295015675676
 21
8356.365915108474
 31
0.0
  0
LINE
  5
140DC
330
747D
100
AcDbEntity
  8
部品1
100
AcDbLine
 10
7124.295015675677
 20
8382.365915108525
 30
0.0
 11
7124.295015675677
 21
8356.365915108517
 31
0.0
  0
LINE
  5
140E0
330
747D
100
AcDbEntity
  8
部品1
100
AcDbLine
 10
5574.295015675677
 20
8382.365915108461
 30
0.0
 11
5574.295015675677
 21
8356.365915108424
 31
0.0
  0
LINE
  5
140EC
330
747D
100
AcDbEntity
  8
部品1
 48
5.0
100
AcDbLine
 10
6392.29501567568
 20
8385.865915108473
 30
0.0
 11
6392.29501567568
 21
8356.365915108472
 31
0.0
  0
LINE
  5
140EF
330
747D
100
AcDbEntity
  8
部品1
 48
5.0
100
AcDbLine
 10
6306.295015675679
 20
8385.865915108473
 30
0.0
 11
6306.295015675679
 21
8356.365915108472
 31
0.0
  0
LINE
  5
14111
330
747D
100
AcDbEntity
  8
部品1
 48
5.0
100
AcDbLine
 10
6306.295015675679
 20
8356.365915108472
 30
0.0
 11
6392.29501567568
 21
8356.365915108472
 31
0.0
  0
LINE
  5
1411A
330
747D
100
AcDbEntity
  8
部品1
 48
5.0
100
AcDbLine
 10
6404.29501567568
 20
8411.365915108472
 30
0.0
 11
6404.29501567568
 21
8385.865915108473
 31
0.0
  0
LINE
  5
14127
330
747D
100
AcDbEntity
  8
部品1
 48
5.0
100
AcDbLine
 10
6373.29501567568
 20
8411.365915108472
 30
0.0
 11
6373.29501567568
 21
8385.865915108473
 31
0.0
  0
LINE
  5
14130
330
747D
100
AcDbEntity
  8
部品1
 48
5.0
100
AcDbLine
 10
6325.295015675679
 20
8411.365915108472
 30
0.0
 11
6325.295015675679
 21
8385.865915108473
 31
0.0
  0
LINE
  5
14139
330
747D
100
AcDbEntity
  8
部品1
 48
5.0
100
AcDbLine
 10
6294.29501567568
 20
8411.365915108474
 30
0.0
 11
6294.295015675681
 21
8385.865915108473
 31
0.0
  0
LINE
  5
1413B
330
747D
100
AcDbEntity
  8
部品1
 48
5.0
100
AcDbLine
 10
5572.295015675678
 20
8385.865915108356
 30
0.0
 11
6325.295015675679
 21
8385.865915108473
 31
0.0
  0
LINE
  5
14151
330
747D
100
AcDbEntity
  8
部品1
 48
5.0
100
AcDbLine
 10
6317.295015675679
 20
8411.365915108472
 30
0.0
 11
6294.295015675678
 21
8411.365915108472
 31
0.0
  0
LINE
  5
14156
330
747D
100
AcDbEntity
  8
部品1
 48
5.0
100
AcDbLine
 10
6321.295015675664
 20
8411.365915108472
 30
0.0
 11
6377.295015675664
 21
8411.365915108472
 31
0.0
  0
LINE
  5
1415B
330
747D
100
AcDbEntity
  8
部品1
 48
5.0
100
AcDbLine
 10
6381.29501567568
 20
8411.365915108472
 30
0.0
 11
6404.29501567568
 21
8411.365915108472
 31
0.0
  0
LINE
  5
1415F
330
747D
100
AcDbEntity
  8
部品1
 48
5.0
100
AcDbLine
 10
7126.295015675658
 20
8385.865915108473
 30
0.0
 11
6373.29501567568
 21
8385.865915108473
 31
0.0
  0
LINE
  5
14186
330
747D
100
AcDbEntity
  8
部品1
100
AcDbLine
 10
6304.295015675677
 20
8382.365915108525
 30
0.0
 11
5574.295015675677
 21
8382.365915108461
 31
0.0
  0
ARC
  5
142A6
330
747D
100
AcDbEntity
  8
部品1
 48
0.2
100
AcDbCircle
 10
6296.357463504357
 20
8357.363545063693
 30
0.0
 40
8.0
100
AcDbArc
 50
270.0
 51
352.8363522778074
  0
ARC
  5
142AA
330
747D
100
AcDbEntity
  8
部品1
 48
0.2
100
AcDbCircle
 10
6291.357463504356
 20
8357.363545063693
 30
0.0
 40
8.0
100
AcDbArc
 50
187.1636477221926
 51
269.9999999999992
  0
ARC
  5
142AB
330
747D
100
AcDbEntity
  8
細線
 48
0.2
100
AcDbCircle
 10
6296.357463504357
 20
8357.363545063693
 30
0.0
 40
4.049999999999999
100
AcDbArc
 50
194.2603506853988
 51
345.7396493146012
  0
LINE
  5
142AD
330
747D
100
AcDbEntity
  8
部品1
 48
0.2
100
AcDbLine
 10
6291.357463504356
 20
8349.363545063692
 30
0.0
 11
6296.357463504357
 21
8349.363545063692
 31
0.0
  0
LINE
  5
142D9
330
747D
100
AcDbEntity
  8
部品1
 48
0.2
100
AcDbLine
 10
7111.357463504358
 20
8349.363545063713
 30
0.0
 11
7116.357463504357
 21
8349.363545063713
 31
0.0
  0
ARC
  5
142DA
330
747D
100
AcDbEntity
  8
部品1
 48
0.2
100
AcDbCircle
 10
7116.357463504357
 20
8357.363545063712
 30
0.0
 40
8.0
100
AcDbArc
 50
270.0
 51
352.8363522778074
  0
ARC
  5
142DB
330
747D
100
AcDbEntity
  8
部品1
 48
0.2
100
AcDbCircle
 10
7111.357463504358
 20
8357.363545063712
 30
0.0
 40
8.0
100
AcDbArc
 50
187.1636477221926
 51
269.9999999999992
  0
ARC
  5
142DC
330
747D
100
AcDbEntity
  8
細線
 48
0.2
100
AcDbCircle
 10
7116.357463504357
 20
8357.363545063712
 30
0.0
 40
4.049999999999999
100
AcDbArc
 50
194.2603506853988
 51
345.7396493146012
  0
LINE
  5
142DF
330
747D
100
AcDbEntity
  8
細線
 48
50.0
100
AcDbLine
 10
6300.220220698657
 20
5404.827276893862
 30
0.0
 11
6300.220220698657
 21
5402.827276893862
 31
0.0
  0
LINE
  5
142E0
330
747D
100
AcDbEntity
  8
細線
 48
50.0
100
AcDbLine
 10
6292.369810652693
 20
5404.827276893862
 30
0.0
 11
6292.369810652694
 21
5402.827276893862
 31
0.0
  0
LINE
  5
142E1
330
747D
100
AcDbEntity
  8
細線
 48
0.2
100
AcDbLine
 10
6301.916559143504
 20
5408.027276893863
 30
0.0
 11
6290.548576550492
 21
5408.027276893863
 31
0.0
  0
ARC
  5
142E2
330
747D
100
AcDbEntity
  8
細線
 48
0.2
100
AcDbCircle
 10
6296.232567846995
 20
5390.527276893865
 30
0.0
 40
18.49999999999796
100
AcDbArc
 50
73.39845040097829
 51
106.6015495990228
  0
LINE
  5
142E5
330
747D
100
AcDbEntity
  8
細線
 48
0.1
100
AcDbLine
 10
6304.232567846996
 20
5407.327276893862
 30
0.0
 11
6304.232567846996
 21
5400.327276893862
 31
0.0
  0
ARC
  5
142E7
330
747D
100
AcDbEntity
  8
細線
 48
0.2
100
AcDbCircle
 10
6301.232567846996
 20
5407.29778672511
 30
0.0
 40
1.0
100
AcDbArc
 50
0.0
 51
73.39845040097829
  0
ARC
  5
142E9
330
747D
100
AcDbEntity
  8
細線
 48
0.2
100
AcDbCircle
 10
6291.232567846996
 20
5407.29778672511
 30
0.0
 40
1.0
100
AcDbArc
 50
106.6015495990225
 51
180.0000000000016
  0
LINE
  5
142EC
330
747D
100
AcDbEntity
  8
部品1
 48
0.2
100
AcDbLine
 10
6304.232567846996
 20
5400.327276893862
 30
0.0
 11
6284.232567846996
 21
5400.327276893862
 31
0.0
  0
LINE
  5
142ED
330
747D
100
AcDbEntity
  8
細線
 48
0.2
100
AcDbLine
 10
6304.232567846996
 20
5404.827276893862
 30
0.0
 11
6284.232567846997
 21
5404.827276893862
 31
0.0
  0
LINE
  5
142EE
330
747D
100
AcDbEntity
  8
細線
 48
0.2
100
AcDbLine
 10
6304.232567846996
 20
5402.827276893862
 30
0.0
 11
6284.232567846997
 21
5402.827276893862
 31
0.0
  0
LINE
  5
142EF
330
747D
100
AcDbEntity
  8
細線
 48
0.2
100
AcDbLine
 10
6304.232567846996
 20
5407.327276893862
 30
0.0
 11
6284.232567846997
 21
5407.327276893862
 31
0.0
  0
LINE
  5
14328
330
747D
100
AcDbEntity
  8
部品1
 48
50.0
100
AcDbLine
 10
6284.232567846996
 20
5400.327276893862
 30
0.0
 11
6284.232567846996
 21
5407.077276893862
 31
0.0
  0
LINE
  5
14329
330
747D
100
AcDbEntity
  8
部品1
100
AcDbLine
 10
6304.232567846997
 20
5407.077276893862
 30
0.0
 11
6304.295015675678
 21
5407.07727689386
 31
0.0
  0
LINE
  5
1432A
330
747D
100
AcDbEntity
  8
細線
 48
50.0
100
AcDbLine
 10
6284.232567846996
 20
5407.077276893862
 30
0.0
 11
6284.232567846996
 21
5407.327276893862
 31
0.0
  0
ARC
  5
1432B
330
747D
100
AcDbEntity
  8
細線
 48
0.2
100
AcDbCircle
 10
7121.232567846996
 20
5407.29778672511
 30
0.0
 40
1.0
100
AcDbArc
 50
0.0
 51
73.39845040097829
  0
LINE
  5
1432C
330
747D
100
AcDbEntity
  8
細線
 48
0.1
100
AcDbLine
 10
7124.232567846997
 20
5407.327276893862
 30
0.0
 11
7124.232567846997
 21
5400.327276893862
 31
0.0
  0
LINE
  5
1432D
330
747D
100
AcDbEntity
  8
細線
 48
50.0
100
AcDbLine
 10
7112.369810652693
 20
5404.827276893862
 30
0.0
 11
7112.369810652693
 21
5402.827276893862
 31
0.0
  0
LINE
  5
1432E
330
747D
100
AcDbEntity
  8
細線
 48
50.0
100
AcDbLine
 10
7120.220220698657
 20
5404.827276893862
 30
0.0
 11
7120.220220698657
 21
5402.827276893862
 31
0.0
  0
LINE
  5
1432F
330
747D
100
AcDbEntity
  8
細線
 48
0.2
100
AcDbLine
 10
7124.232567846997
 20
5407.327276893862
 30
0.0
 11
7104.232567846996
 21
5407.327276893862
 31
0.0
  0
LINE
  5
14330
330
747D
100
AcDbEntity
  8
細線
 48
0.2
100
AcDbLine
 10
7124.232567846997
 20
5402.827276893862
 30
0.0
 11
7104.232567846996
 21
5402.827276893862
 31
0.0
  0
LINE
  5
14331
330
747D
100
AcDbEntity
  8
細線
 48
0.2
100
AcDbLine
 10
7124.232567846997
 20
5404.827276893862
 30
0.0
 11
7104.232567846996
 21
5404.827276893862
 31
0.0
  0
ARC
  5
14332
330
747D
100
AcDbEntity
  8
細線
 48
0.2
100
AcDbCircle
 10
7111.232567846996
 20
5407.29778672511
 30
0.0
 40
1.0
100
AcDbArc
 50
106.6015495990225
 51
180.0000000000016
  0
ARC
  5
14333
330
747D
100
AcDbEntity
  8
細線
 48
0.2
100
AcDbCircle
 10
7116.232567846997
 20
5390.527276893865
 30
0.0
 40
18.49999999999796
100
AcDbArc
 50
73.39845040097829
 51
106.6015495990228
  0
LINE
  5
14334
330
747D
100
AcDbEntity
  8
細線
 48
0.2
100
AcDbLine
 10
7121.916559143504
 20
5408.027276893863
 30
0.0
 11
7110.548576550492
 21
5408.027276893863
 31
0.0
  0
LINE
  5
14335
330
747D
100
AcDbEntity
  8
細線
 48
50.0
100
AcDbLine
 10
7104.232567846996
 20
5407.077276893862
 30
0.0
 11
7104.232567846996
 21
5407.327276893862
 31
0.0
  0
LINE
  5
14336
330
747D
100
AcDbEntity
  8
部品1
 48
50.0
100
AcDbLine
 10
7104.232567846996
 20
5400.327276893862
 30
0.0
 11
7104.232567846996
 21
5407.077276893862
 31
0.0
  0
LINE
  5
14337
330
747D
100
AcDbEntity
  8
部品1
100
AcDbLine
 10
7124.232567846997
 20
5407.077276893862
 30
0.0
 11
7124.295015675677
 21
5407.07727689386
 31
0.0
  0
LINE
  5
14338
330
747D
100
AcDbEntity
  8
部品1
 48
0.2
100
AcDbLine
 10
7124.232567846997
 20
5400.327276893862
 30
0.0
 11
7104.232567846996
 21
5400.327276893862
 31
0.0
  0
LINE
  5
14339
330
747D
100
AcDbEntity
  8
部品1
100
AcDbLine
 10
7124.232567846997
 20
5407.077276893859
 30
0.0
 11
7124.295015675677
 21
5407.07727689386
 31
0.0
  0
ARC
  5
1433A
330
747D
100
AcDbEntity
  8
細線
 48
0.2
100
AcDbCircle
 10
6301.232567846996
 20
3615.856767062631
 30
0.0
 40
1.0
100
AcDbArc
 50
286.6015495990217
 51
0.0
  0
LINE
  5
1433B
330
747D
100
AcDbEntity
  8
細線
 48
0.1
100
AcDbLine
 10
6304.232567846996
 20
3615.827276893879
 30
0.0
 11
6304.232567846996
 21
3622.827276893879
 31
0.0
  0
LINE
  5
1433C
330
747D
100
AcDbEntity
  8
細線
 48
50.0
100
AcDbLine
 10
6292.369810652693
 20
3618.327276893881
 30
0.0
 11
6292.369810652694
 21
3620.327276893879
 31
0.0
  0
LINE
  5
1433D
330
747D
100
AcDbEntity
  8
細線
 48
50.0
100
AcDbLine
 10
6300.220220698657
 20
3618.327276893881
 30
0.0
 11
6300.220220698657
 21
3620.327276893879
 31
0.0
  0
LINE
  5
1433E
330
747D
100
AcDbEntity
  8
細線
 48
0.2
100
AcDbLine
 10
6304.232567846996
 20
3615.827276893879
 30
0.0
 11
6284.232567846997
 21
3615.827276893879
 31
0.0
  0
LINE
  5
1433F
330
747D
100
AcDbEntity
  8
細線
 48
0.2
100
AcDbLine
 10
6304.232567846996
 20
3620.327276893879
 30
0.0
 11
6284.232567846997
 21
3620.327276893879
 31
0.0
  0
LINE
  5
14340
330
747D
100
AcDbEntity
  8
細線
 48
0.2
100
AcDbLine
 10
6304.232567846996
 20
3618.327276893879
 30
0.0
 11
6284.232567846997
 21
3618.327276893881
 31
0.0
  0
ARC
  5
14341
330
747D
100
AcDbEntity
  8
細線
 48
0.2
100
AcDbCircle
 10
6291.232567846996
 20
3615.856767062631
 30
0.0
 40
1.0
100
AcDbArc
 50
179.9999999999984
 51
253.3984504009775
  0
ARC
  5
14342
330
747D
100
AcDbEntity
  8
細線
 48
0.2
100
AcDbCircle
 10
6296.232567846995
 20
3632.627276893876
 30
0.0
 40
18.49999999999796
100
AcDbArc
 50
253.3984504009772
 51
286.6015495990217
  0
LINE
  5
14343
330
747D
100
AcDbEntity
  8
細線
 48
0.2
100
AcDbLine
 10
6301.916559143504
 20
3615.127276893878
 30
0.0
 11
6290.548576550492
 21
3615.127276893878
 31
0.0
  0
LINE
  5
14344
330
747D
100
AcDbEntity
  8
細線
 48
50.0
100
AcDbLine
 10
6284.232567846996
 20
3616.077276893881
 30
0.0
 11
6284.232567846996
 21
3615.827276893879
 31
0.0
  0
LINE
  5
14345
330
747D
100
AcDbEntity
  8
部品1
 48
50.0
100
AcDbLine
 10
6284.232567846996
 20
3622.827276893879
 30
0.0
 11
6284.232567846996
 21
3616.077276893881
 31
0.0
  0
LINE
  5
14346
330
747D
100
AcDbEntity
  8
部品1
100
AcDbLine
 10
6304.232567846997
 20
3616.077276893881
 30
0.0
 11
6304.295015675678
 21
3616.077276893881
 31
0.0
  0
LINE
  5
14347
330
747D
100
AcDbEntity
  8
部品1
 48
0.2
100
AcDbLine
 10
6304.232567846996
 20
3622.827276893879
 30
0.0
 11
6284.232567846996
 21
3622.827276893879
 31
0.0
  0
LINE
  5
14348
330
747D
100
AcDbEntity
  8
部品1
100
AcDbLine
 10
7124.232567846997
 20
3616.077276893883
 30
0.0
 11
7124.295015675677
 21
3616.077276893883
 31
0.0
  0
LINE
  5
14349
330
747D
100
AcDbEntity
  8
部品1
 48
0.2
100
AcDbLine
 10
7124.232567846997
 20
3622.827276893879
 30
0.0
 11
7104.232567846996
 21
3622.827276893879
 31
0.0
  0
LINE
  5
1434A
330
747D
100
AcDbEntity
  8
部品1
100
AcDbLine
 10
7124.232567846997
 20
3616.077276893881
 30
0.0
 11
7124.295015675677
 21
3616.077276893881
 31
0.0
  0
LINE
  5
1434B
330
747D
100
AcDbEntity
  8
部品1
 48
50.0
100
AcDbLine
 10
7104.232567846996
 20
3622.827276893879
 30
0.0
 11
7104.232567846996
 21
3616.077276893881
 31
0.0
  0
LINE
  5
1434C
330
747D
100
AcDbEntity
  8
細線
 48
50.0
100
AcDbLine
 10
7104.232567846996
 20
3616.077276893881
 30
0.0
 11
7104.232567846996
 21
3615.827276893879
 31
0.0
  0
LINE
  5
1434D
330
747D
100
AcDbEntity
  8
細線
 48
0.2
100
AcDbLine
 10
7121.916559143504
 20
3615.127276893878
 30
0.0
 11
7110.548576550492
 21
3615.127276893878
 31
0.0
  0
ARC
  5
1434E
330
747D
100
AcDbEntity
  8
細線
 48
0.2
100
AcDbCircle
 10
7116.232567846997
 20
3632.627276893876
 30
0.0
 40
18.49999999999796
100
AcDbArc
 50
253.3984504009772
 51
286.6015495990217
  0
ARC
  5
1434F
330
747D
100
AcDbEntity
  8
細線
 48
0.2
100
AcDbCircle
 10
7111.232567846996
 20
3615.856767062631
 30
0.0
 40
1.0
100
AcDbArc
 50
179.9999999999984
 51
253.3984504009775
  0
LINE
  5
14350
330
747D
100
AcDbEntity
  8
細線
 48
0.2
100
AcDbLine
 10
7124.232567846997
 20
3618.327276893879
 30
0.0
 11
7104.232567846996
 21
3618.327276893881
 31
0.0
  0
LINE
  5
14351
330
747D
100
AcDbEntity
  8
細線
 48
0.2
100
AcDbLine
 10
7124.232567846997
 20
3620.327276893879
 30
0.0
 11
7104.232567846996
 21
3620.327276893879
 31
0.0
  0
LINE
  5
14352
330
747D
100
AcDbEntity
  8
細線
 48
0.2
100
AcDbLine
 10
7124.232567846997
 20
3615.827276893879
 30
0.0
 11
7104.232567846996
 21
3615.827276893879
 31
0.0
  0
LINE
  5
14353
330
747D
100
AcDbEntity
  8
細線
 48
50.0
100
AcDbLine
 10
7120.220220698657
 20
3618.327276893881
 30
0.0
 11
7120.220220698657
 21
3620.327276893879
 31
0.0
  0
LINE
  5
14354
330
747D
100
AcDbEntity
  8
細線
 48
50.0
100
AcDbLine
 10
7112.369810652693
 20
3618.327276893881
 30
0.0
 11
7112.369810652693
 21
3620.327276893879
 31
0.0
  0
LINE
  5
14355
330
747D
100
AcDbEntity
  8
細線
 48
0.1
100
AcDbLine
 10
7124.232567846997
 20
3615.827276893879
 30
0.0
 11
7124.232567846997
 21
3622.827276893879
 31
0.0
  0
ARC
  5
14356
330
747D
100
AcDbEntity
  8
細線
 48
0.2
100
AcDbCircle
 10
7121.232567846996
 20
3615.856767062631
 30
0.0
 40
1.0
100
AcDbArc
 50
286.6015495990217
 51
0.0
  0
LINE
  5
14357
330
747D
100
AcDbEntity
  8
部品1
100
AcDbLine
 10
6304.232567846997
 20
3616.077276893872
 30
0.0
 11
6304.295015675678
 21
3616.077276893872
 31
0.0
  0
LINE
  5
14358
330
747D
100
AcDbEntity
  8
部品1
100
AcDbLine
 10
7124.232567846997
 20
3616.077276893881
 30
0.0
 11
7124.295015675677
 21
3616.077276893881
 31
0.0
  0
LINE
  5
1439F
330
747D
100
AcDbEntity
  8
部品1
 48
5.0
100
AcDbLine
 10
7112.79404425073
 20
8487.86591510853
 30
0.0
 11
7112.794474681179
 21
8670.365915108524
 31
0.0
  0
LINE
  5
143A0
330
747D
100
AcDbEntity
  8
部品1
 48
5.0
100
AcDbLine
 10
5585.795987100642
 20
8487.86591510853
 30
0.0
 11
5585.79555667019
 21
8670.365915108524
 31
0.0
  0
LINE
  5
143A2
330
747D
100
AcDbEntity
  8
部品1
 48
50.0
100
AcDbLine
 10
6404.795015675661
 20
8487.865915133143
 30
0.0
 11
6377.295015675664
 21
8459.865915108471
 31
0.0
  0
LINE
  5
143A3
330
747D
100
AcDbEntity
  8
部品1
 48
50.0
100
AcDbLine
 10
6321.295015675664
 20
8459.865915108471
 30
0.0
 11
6293.795015675662
 21
8487.865915108482
 31
0.0
  0
LINE
  5
143A4
330
747D
100
AcDbEntity
  8
部品1
100
AcDbLine
 10
6293.795015675662
 20
8487.865915108482
 30
0.0
 11
5585.795987102073
 21
8487.864832799994
 31
0.0
  0
LINE
  5
14407
330
747D
100
AcDbEntity
  8
部品1
 48
50.0
100
AcDbLine
 10
6293.795015675662
 20
8487.865915108482
 30
0.0
 11
6293.795015675641
 21
8670.365915108524
 31
0.0
  0
LINE
  5
14408
330
747D
100
AcDbEntity
  8
部品1
 48
50.0
100
AcDbLine
 10
6404.795009331377
 20
8487.865915133141
 30
0.0
 11
6404.795011927298
 21
8670.365915108524
 31
0.0
  0
LINE
  5
14409
330
747D
100
AcDbEntity
  8
部品1
 48
50.0
100
AcDbLine
 10
7141.295015675662
 20
8458.846849916119
 30
0.0
 11
7112.794044250868
 21
8487.866020821368
 31
0.0
  0
LINE
  5
1440A
330
747D
100
AcDbEntity
  8
部品1
 48
50.0
100
AcDbLine
 10
5585.795987102073
 20
8487.864832799994
 30
0.0
 11
5557.29501567566
 21
8458.845661867529
 31
0.0
  0
LINE
  5
1440B
330
747D
100
AcDbEntity
  8
部品1
 48
50.0
100
AcDbLine
 10
7139.79500899801
 20
9146.865915108477
 30
0.0
 11
7141.295015675685
 21
9148.365915108529
 31
0.0
  0
LINE
  5
1440C
330
747D
100
AcDbEntity
  8
部品1
 48
50.0
100
AcDbLine
 10
6378.795015675617
 20
9146.811393588221
 30
0.0
 11
6377.295015675611
 21
9148.365915108481
 31
0.0
  0
LINE
  5
1440D
330
747D
100
AcDbEntity
  8
部品1
 48
50.0
100
AcDbLine
 10
6319.795022353315
 20
9146.811402448726
 30
0.0
 11
6321.295015675611
 21
9148.365915108479
 31
0.0
  0
LINE
  5
1440E
330
747D
100
AcDbEntity
  8
部品1
 48
50.0
100
AcDbLine
 10
5558.795022353308
 20
9146.86591510844
 30
0.0
 11
5557.295015675684
 21
9148.365915108433
 31
0.0
  0
LINE
  5
144C7
330
747D
100
AcDbEntity
  8
部品1
 48
5.0
100
AcDbLine
 10
6404.295015675687
 20
9176.365915108483
 30
0.0
 11
6404.295015675682
 21
9148.365915108485
 31
0.0
  0
LINE
  5
144D0
330
747D
100
AcDbEntity
  8
部品1
 48
5.0
100
AcDbLine
 10
6294.295015675682
 20
9148.365915108477
 30
0.0
 11
6294.295015675683
 21
9176.365915108478
 31
0.0
  0
LINE
  5
144D2
330
747D
100
AcDbEntity
  8
部品1
 48
5.0
100
AcDbLine
 10
6324.004290122858
 20
9176.365915108478
 30
0.0
 11
6346.675718694287
 21
9148.365915108481
 31
0.0
  0
LINE
  5
144D8
330
747D
100
AcDbEntity
  8
部品1
 48
5.0
100
AcDbLine
 10
6377.295015675612
 20
9121.365915108482
 30
0.0
 11
6321.295015675612
 21
9121.365915108482
 31
0.0
  0
LINE
  5
144E9
330
747D
100
AcDbEntity
  8
部品1
 48
50.0
100
AcDbLine
 10
6349.295015675664
 20
8411.365915108472
 30
0.0
 11
6349.295015675664
 21
9121.365915108482
 31
0.0
  0
LINE
  5
144EA
330
747D
100
AcDbEntity
  8
部品1
100
AcDbLine
 10
6377.295015675609
 20
9148.365915108483
 30
0.0
 11
7141.295015675685
 21
9148.365915108529
 31
0.0
  0
DIMENSION
  5
14548
330
747D
100
AcDbEntity
  8
寸法
 48
50.0
100
AcDbDimension
  2
*D12
 10
6404.295015675687
 20
9620.309563122448
 30
0.0
 11
6349.295015675686
 21
9720.309563122448
 31
0.0
 70
    32
 71
     5
 42
110.0000000000036
  3
INABA_S40G
100
AcDbAlignedDimension
 13
6294.295015675683
 23
9176.365915108554
 33
0.0
 14
6404.295015675687
 24
9176.365915108531
 34
0.0
100
AcDbRotatedDimension
  0
DIMENSION
  5
14562
330
747D
100
AcDbEntity
  8
寸法
 48
50.0
100
AcDbDimension
  2
*D13
 10
6404.295015675687
 20
9620.309563122448
 30
0.0
 11
6759.295015675686
 21
9720.309563122448
 31
0.0
 70
    32
 71
     5
 42
709.9999999999981
  3
INABA_S40G
100
AcDbAlignedDimension
 13
7114.295015675685
 23
9176.365915108545
 33
0.0
 14
6404.295015675687
 24
9176.365915108531
 34
0.0
100
AcDbRotatedDimension
  0
ARC
  5
1475B
330
747D
100
AcDbEntity
  8
想像線
 48
10.0
100
AcDbCircle
 10
6296.942964998518
 20
8358.060808484042
 30
0.0
 40
722.6499369155593
100
AcDbArc
 50
180.1343808685509
 51
270.5829222700353
  0
LINE
  5
1475C
330
747D
100
AcDbEntity
  8
想像線
 48
10.0
100
AcDbLine
 10
6304.295015675677
 20
8356.365915108472
 30
0.0
 11
6304.295015675677
 21
7635.448271452681
 31
0.0
  0
LINE
  5
14760
330
747D
100
AcDbEntity
  8
想像線
 48
10.0
100
AcDbLine
 10
7124.295015675677
 20
8356.365915108483
 30
0.0
 11
7124.295015675677
 21
7635.448271452691
 31
0.0
  0
ARC
  5
14761
330
747D
100
AcDbEntity
  8
想像線
 48
10.0
100
AcDbCircle
 10
7116.942964998519
 20
8358.06080848406
 30
0.0
 40
722.6499369155619
100
AcDbArc
 50
180.1343808685487
 51
270.5829222700353
  0
LINE
  5
148D5
330
747D
100
AcDbEntity
  8
細線
 48
50.0
100
AcDbLine
 10
5969.295015675687
 20
9154.865915108464
 30
0.0
 11
5909.295015675684
 21
9154.865915108459
 31
0.0
  0
LINE
  5
148D6
330
747D
100
AcDbEntity
  8
細線
 48
50.0
100
AcDbLine
 10
5909.295015675686
 20
9154.865915108461
 30
0.0
 11
5909.295015675684
 21
9176.36591510846
 31
0.0
  0
LINE
  5
148D7
330
747D
100
AcDbEntity
  8
細線
 48
50.0
100
AcDbLine
 10
5969.295015675687
 20
9154.865915108464
 30
0.0
 11
5969.295015675683
 21
9176.365915108467
 31
0.0
  0
LINE
  5
148D8
330
747D
100
AcDbEntity
  8
細線
 48
50.0
100
AcDbLine
 10
6789.295015675687
 20
9154.865915108544
 30
0.0
 11
6729.295015675686
 21
9154.865915108542
 31
0.0
  0
LINE
  5
148D9
330
747D
100
AcDbEntity
  8
細線
 48
50.0
100
AcDbLine
 10
6789.295015675687
 20
9154.865915108544
 30
0.0
 11
6789.295015675683
 21
9176.365915108545
 31
0.0
  0
LINE
  5
148DA
330
747D
100
AcDbEntity
  8
細線
 48
50.0
100
AcDbLine
 10
6729.295015675686
 20
9154.865915108542
 30
0.0
 11
6729.295015675683
 21
9176.365915108542
 31
0.0
  0
LINE
  5
14933
330
747D
100
AcDbEntity
  8
細線
 48
50.0
100
AcDbLine
 10
5665.795015675678
 20
8382.365915108437
 30
0.0
 11
5665.795015675678
 21
8356.365915108391
 31
0.0
  0
LINE
  5
14934
330
747D
100
AcDbEntity
  8
細線
 48
50.0
100
AcDbLine
 10
5868.295015675678
 20
8382.365915108428
 30
0.0
 11
5868.295015675678
 21
8356.365915108391
 31
0.0
  0
LINE
  5
14935
330
747D
100
AcDbEntity
  8
細線
 48
50.0
100
AcDbLine
 10
5908.295015675678
 20
8382.365915108428
 30
0.0
 11
5908.295015675678
 21
8356.365915108391
 31
0.0
  0
LINE
  5
14936
330
747D
100
AcDbEntity
  8
細線
 48
50.0
100
AcDbLine
 10
6151.295015675678
 20
8382.365915108641
 30
0.0
 11
6151.295015675678
 21
8356.365915108602
 31
0.0
  0
LINE
  5
14937
330
747D
100
AcDbEntity
  8
細線
 48
50.0
100
AcDbLine
 10
6111.295015675678
 20
8382.365915108641
 30
0.0
 11
6111.295015675678
 21
8356.365915108602
 31
0.0
  0
LINE
  5
14938
330
747D
100
AcDbEntity
  8
細線
 48
50.0
100
AcDbLine
 10
6485.795015675678
 20
8382.365915108437
 30
0.0
 11
6485.795015675678
 21
8356.365915108391
 31
0.0
  0
LINE
  5
14939
330
747D
100
AcDbEntity
  8
細線
 48
50.0
100
AcDbLine
 10
6728.295015675678
 20
8382.365915108428
 30
0.0
 11
6728.295015675678
 21
8356.365915108391
 31
0.0
  0
LINE
  5
1493A
330
747D
100
AcDbEntity
  8
細線
 48
50.0
100
AcDbLine
 10
6688.295015675677
 20
8382.365915108428
 30
0.0
 11
6688.295015675677
 21
8356.365915108391
 31
0.0
  0
LINE
  5
1493B
330
747D
100
AcDbEntity
  8
細線
 48
50.0
100
AcDbLine
 10
6931.295015675678
 20
8382.365915108641
 30
0.0
 11
6931.295015675678
 21
8356.365915108602
 31
0.0
  0
LINE
  5
1493C
330
747D
100
AcDbEntity
  8
細線
 48
50.0
100
AcDbLine
 10
6971.295015675678
 20
8382.365915108641
 30
0.0
 11
6971.295015675678
 21
8356.365915108602
 31
0.0
  0
DIMENSION
  5
149B4
330
747D
100
AcDbEntity
  8
寸法
 48
50.0
100
AcDbDimension
  2
*D14
 10
7089.295015675677
 20
7916.542247313349
 30
0.0
 11
6746.795015675679
 21
7916.542247313349
 31
0.0
 70
   160
  1
有効開口部間口\P<>
 71
     5
 42
684.9999999999954
  3
INABA_S40G
100
AcDbAlignedDimension
 13
6404.295015675682
 23
8356.365915108426
 33
0.0
 14
7089.295015675677
 24
8356.365915108391
 34
0.0
100
AcDbRotatedDimension
  0
DIMENSION
  5
149D6
330
747D
100
AcDbEntity
  8
寸法
 48
50.0
100
AcDbDimension
  2
*D15
 10
6269.295015675677
 20
7916.542247313349
 30
0.0
 11
5926.795015675679
 21
7916.542247313349
 31
0.0
 70
   160
 71
     5
 42
684.9999999999954
  3
INABA_S40G
100
AcDbAlignedDimension
 13
5584.295015675682
 23
8356.365915108426
 33
0.0
 14
6269.295015675677
 24
8356.365915108391
 34
0.0
100
AcDbRotatedDimension
  0
DIMENSION
  5
14A1F
330
747D
100
AcDbEntity
  8
寸法
100
AcDbDimension
  2
*D16
 10
6385.525155020848
 20
9392.174134733416
 30
0.0
 11
6005.025155020842
 21
9392.174134733416
 31
0.0
 70
   160
 71
     5
 42
761.0000000000118
  3
INABA_S40G
100
AcDbAlignedDimension
 13
5558.795015675617
 23
9146.865915108483
 33
0.0
 14
6319.795015675629
 24
9146.865915108479
 34
0.0
100
AcDbRotatedDimension
  0
DIMENSION
  5
14F41
330
747D
100
AcDbEntity
  8
寸法
100
AcDbDimension
  2
*D19
 10
8694.573050080771
 20
5644.577276893866
 30
0.0
 11
8694.573050080769
 21
4597.155906173022
 31
0.0
 70
   160
 71
     5
 42
2075.000000000005
  3
INABA_S40G
100
AcDbAlignedDimension
 13
9556.166928236059
 23
3569.577276893861
 33
0.0
 14
9496.166928236062
 24
5644.577276893866
 34
0.0
 50
90.0
100
AcDbRotatedDimension
1001
ACAD
1000
DSTYLE
1002
{
1070
   174
1070
     0
1070
   272
1070
     1
1070
   288
1070
     0
1070
   341
1005
0
1002
}
  0
TEXT
  5
14F42
330
747D
100
AcDbEntity
  8
部品1
 48
50.0
100
AcDbText
 10
9782.946298335986
 20
5811.329438147573
 30
0.0
 40
120.0
  1
1000
  7
STYLE1
100
AcDbText
  0
LINE
  5
14F45
330
747D
100
AcDbEntity
  8
細線
 48
50.0
100
AcDbLine
 10
9529.16692823606
 20
5642.449924321716
 30
0.0
 11
9523.012586230446
 21
5502.306764936766
 31
0.0
  0
LINE
  5
14F46
330
747D
100
AcDbEntity
  8
細線
 48
50.0
100
AcDbLine
 10
10423.16692823606
 20
5588.608017169895
 30
0.0
 11
10417.6517255599
 21
5463.018973372737
 31
0.0
  0
LINE
  5
14F5B
330
747D
100
AcDbEntity
  8
部品1
 48
50.0
100
AcDbLine
 10
9794.678463112257
 20
5775.44541599514
 30
0.0
 11
10094.67846311226
 21
5775.44541599514
 31
0.0
  0
LINE
  5
14F5C
330
747D
100
AcDbEntity
  8
部品1
 48
50.0
100
AcDbLine
 10
10094.67846311226
 20
5775.44541599514
 30
0.0
 11
10094.67846311226
 21
5759.245415995142
 31
0.0
  0
TEXT
  5
14F5D
330
747D
100
AcDbEntity
  8
部品1
 48
50.0
100
AcDbText
 10
10244.89047750873
 20
5673.828179929291
 30
0.0
 40
120.0
  1
120
 50
90.0
  7
STYLE1
100
AcDbText
  0
LINE
  5
14F5E
330
747D
100
AcDbEntity
  8
部品1
 48
50.0
100
AcDbLine
 10
9794.678463112257
 20
5775.44541599514
 30
0.0
 11
10094.67846311226
 21
5759.245415995142
 31
0.0
  0
DIMENSION
  5
14F5F
330
747D
100
AcDbEntity
  8
寸法
 48
50.0
100
AcDbDimension
  2
*D20
 10
8935.558521467703
 20
5518.922535767183
 30
0.0
 11
8946.223996726621
 21
5889.769199008884
 31
0.0
 70
   161
 71
     5
 42
141.0
  3
INABA_S40G
100
AcDbAlignedDimension
 13
9515.562948394638
 23
5643.300025728541
 33
0.0
 14
9511.509492838014
 24
5502.358301962828
 34
0.0
1001
ACAD
1000
DSTYLE
1002
{
1070
   174
1070
     0
1070
   272
1070
     1
1070
   288
1070
     0
1070
   341
1005
0
1002
}
  0
DIMENSION
  5
14F60
330
747D
100
AcDbEntity
  8
寸法
 48
50.0
100
AcDbDimension
  2
*D21
 10
9496.166928236061
 20
6043.234730473165
 30
0.0
 11
9186.529132960471
 21
6043.234730473165
 31
0.0
 70
   160
 71
     5
 42
60.0
  3
INABA_S40G
100
AcDbAlignedDimension
 13
9556.166928236059
 23
5640.578895016837
 33
0.0
 14
9496.166928236061
 24
5644.577276893866
 34
0.0
100
AcDbRotatedDimension
1001
ACAD
1000
DSTYLE
1002
{
1070
   174
1070
     0
1070
   272
1070
     1
1070
   288
1070
     0
1070
   341
1005
0
1002
}
  0
DIMENSION
  5
14F61
330
747D
100
AcDbEntity
  8
寸法
 48
50.0
100
AcDbDimension
  2
*D22
 10
9556.166928236059
 20
6043.234730473165
 30
0.0
 11
9966.166928236061
 21
6043.234730473165
 31
0.0
 70
   160
  1
柱外寸法<>
 71
     5
 42
820.0
  3
INABA_S40G
100
AcDbAlignedDimension
 13
10376.16692823606
 23
5591.387956505514
 33
0.0
 14
9556.166928236059
 24
5640.578895016837
 34
0.0
100
AcDbRotatedDimension
1001
ACAD
1000
DSTYLE
1002
{
1070
   174
1070
     0
1070
   272
1070
     1
1070
   341
1005
0
1002
}
  0
DIMENSION
  5
14F62
330
747D
100
AcDbEntity
  8
寸法
100
AcDbDimension
  2
*D23
 10
9496.166928236061
 20
6277.937939113255
 30
0.0
 11
9976.166928236061
 21
6277.937939113255
 31
0.0
 70
   160
 71
     5
 42
960.0
  3
INABA_S40G
100
AcDbAlignedDimension
 13
10456.16692823606
 23
5589.577276893862
 33
0.0
 14
9496.166928236061
 24
5644.577276893866
 34
0.0
100
AcDbRotatedDimension
1001
ACAD
1000
DSTYLE
1002
{
1070
   174
1070
     0
1070
   272
1070
     1
1070
   341
1005
0
1002
}
  0
DIMENSION
  5
14F63
330
747D
100
AcDbEntity
  8
寸法
 48
50.0
100
AcDbDimension
  2
*D24
 10
10456.16692823606
 20
6043.234730473165
 30
0.0
 11
10662.21417233055
 21
6043.234730473165
 31
0.0
 70
   160
 71
     5
 42
80.0
  3
INABA_S40G
100
AcDbAlignedDimension
 13
10376.16692823606
 23
5591.387956505514
 33
0.0
 14
10456.16692823606
 24
5589.577276893862
 34
0.0
100
AcDbRotatedDimension
1001
ACAD
1000
DSTYLE
1002
{
1070
   174
1070
     0
1070
   272
1070
     1
1070
   288
1070
     0
1070
   341
1005
0
1002
}
  0
LINE
  5
14F64
330
747D
100
AcDbEntity
  8
細線
 48
50.0
100
AcDbLine
 10
9691.166928236057
 20
5409.577276893861
 30
0.0
 11
9691.166928236057
 21
3619.57727689386
 31
0.0
  0
LINE
  5
14F65
330
747D
100
AcDbEntity
  8
細線
 48
50.0
100
AcDbLine
 10
9676.166928236057
 20
5409.577276893861
 30
0.0
 11
9676.166928236058
 21
3619.57727689386
 31
0.0
  0
LINE
  5
14F66
330
747D
100
AcDbEntity
  8
細線
 48
50.0
100
AcDbLine
 10
9821.166928236056
 20
5409.577276893861
 30
0.0
 11
9821.16692823606
 21
3619.57727689386
 31
0.0
  0
LINE
  5
14F67
330
747D
100
AcDbEntity
  8
細線
 48
50.0
100
AcDbLine
 10
9836.166928236057
 20
5409.577276893861
 30
0.0
 11
9836.166928236059
 21
3619.57727689386
 31
0.0
  0
LINE
  5
14F6C
330
747D
100
AcDbEntity
  8
細線
 48
50.0
100
AcDbLine
 10
10096.16692823605
 20
5409.577276893861
 30
0.0
 11
10096.16692823606
 21
3619.57727689386
 31
0.0
  0
LINE
  5
14F6D
330
747D
100
AcDbEntity
  8
細線
 48
50.0
100
AcDbLine
 10
10111.16692823605
 20
5409.577276893861
 30
0.0
 11
10111.16692823606
 21
3619.57727689386
 31
0.0
  0
LINE
  5
14F6E
330
747D
100
AcDbEntity
  8
細線
 48
50.0
100
AcDbLine
 10
10256.16692823605
 20
5409.577276893861
 30
0.0
 11
10256.16692823606
 21
3619.57727689386
 31
0.0
  0
LINE
  5
14F6F
330
747D
100
AcDbEntity
  8
細線
 48
50.0
100
AcDbLine
 10
10241.16692823605
 20
5409.577276893861
 30
0.0
 11
10241.16692823606
 21
3619.57727689386
 31
0.0
  0
TEXT
  5
14F8A
330
747D
100
AcDbEntity
  8
文字
 62
     7
 48
50.0
100
AcDbText
 10
14271.39351435261
 20
483.8967129911411
 30
0.0
 40
160.0
  1
ＮＸＤ－０７Ｌ－２
  7
STYLE2
100
AcDbText
  0
LINE
  5
14FD1
330
747D
100
AcDbEntity
  8
部品1
100
AcDbLine
 10
9556.166928236059
 20
5409.577276893861
 30
0.0
 11
10376.16692823606
 21
5409.577276893861
 31
0.0
  0
LINE
  5
14FDC
330
747D
100
AcDbEntity
  8
部品1
100
AcDbLine
 10
9556.166928236059
 20
3569.57727689386
 30
0.0
 11
10376.16692823606
 21
3569.57727689386
 31
0.0
  0
LINE
  5
14FDD
330
747D
100
AcDbEntity
  8
部品1
100
AcDbLine
 10
9556.166928236059
 20
3619.57727689386
 30
0.0
 11
10376.16692823606
 21
3619.57727689386
 31
0.0
  0
LINE
  5
14FDF
330
747D
100
AcDbEntity
  8
部品1
100
AcDbLine
 10
9611.166928236059
 20
5409.577276893861
 30
0.0
 11
9611.166928236059
 21
3619.57727689386
 31
0.0
  0
LINE
  5
14FE1
330
747D
100
AcDbEntity
  8
部品1
100
AcDbLine
 10
10321.16692823606
 20
5409.577276893861
 30
0.0
 11
10321.16692823606
 21
3619.57727689386
 31
0.0
  0
LINE
  5
14FFD
330
747D
100
AcDbEntity
  8
部品1
100
AcDbLine
 10
9556.166928236059
 20
5500.697314378673
 30
0.0
 11
9556.166928236059
 21
3469.57727689386
 31
0.0
  0
LINE
  5
15002
330
747D
100
AcDbEntity
  8
部品1
100
AcDbLine
 10
10376.16692823606
 20
5465.363037099148
 30
0.0
 11
10376.16692823606
 21
3469.57727689386
 31
0.0
  0
DIMENSION
  5
15008
330
747D
100
AcDbEntity
  8
寸法
 48
50.0
100
AcDbDimension
  2
*D25
 10
10906.57546616989
 20
5589.57727689386
 30
0.0
 11
10906.57546616989
 21
4521.501672958286
 31
0.0
 70
   160
 71
     5
 42
2020.0
  3
INABA_S40
100
AcDbAlignedDimension
 13
10376.16692823606
 23
3569.577276893861
 33
0.0
 14
10456.16692823607
 24
5589.57727689386
 34
0.0
 50
90.0
100
AcDbRotatedDimension
1001
ACAD
1000
DSTYLE
1002
{
1070
    41
1040
0.5
1070
    44
1040
1.0
1070
   147
1040
0.8
1070
   271
1070
     2
1070
   272
1070
     2
1070
   289
1070
     3
1070
   340
1005
F706
1070
   343
1005
14A43
1070
   344
1005
14A43
1002
}
  0
TEXT
  5
15491
330
747D
100
AcDbEntity
  8
文字
 62
     7
 48
50.0
100
AcDbText
 10
13583.11819016568
 20
9230.013745883733
 30
0.0
 40
100.0
  1
棚板
  7
STYLE1
100
AcDbText
  0
TEXT
  5
15492
330
747D
100
AcDbEntity
  8
文字
 62
     7
 48
50.0
100
AcDbText
 10
15022.63965474515
 20
9230.013745883729
 30
0.0
 40
100.0
  1
F12            0.6
  7
STYLE1
100
AcDbText
  0
TEXT
  5
15493
330
747D
100
AcDbEntity
  8
文字
 62
     7
 48
50.0
100
AcDbText
 10
13583.11819016568
 20
9400.013745883731
 30
0.0
 40
100.0
  1
扉
  7
STYLE1
100
AcDbText
  0
TEXT
  5
15494
330
747D
100
AcDbEntity
  8
文字
 62
     7
 48
50.0
100
AcDbText
 10
15022.63965474515
 20
9400.013745883727
 30
0.0
 40
100.0
  1
F12            0.8
  7
STYLE1
100
AcDbText
  0
TEXT
  5
15497
330
747D
100
AcDbEntity
  8
文字
 62
     7
 48
50.0
100
AcDbText
 10
15022.63965474517
 20
10760.01374588372
 30
0.0
 40
100.0
  1
F12            1.0
  7
STYLE1
100
AcDbText
  0
TEXT
  5
1549B
330
747D
100
AcDbEntity
  8
文字
 62
     7
 48
50.0
100
AcDbText
 10
13583.1181901657
 20
10760.01374588373
 30
0.0
 40
100.0
  1
床パネル
 41
0.9
  7
STYLE1
100
AcDbText
  0
LINE
  5
1549C
330
747D
100
AcDbEntity
  8
仕様書枠
 48
50.0
100
AcDbLine
 10
16307.19999999999
 20
9029.600000000002
 30
0.0
 11
13127.19999999999
 21
9029.600000000003
 31
0.0
  0
LINE
  5
1549D
330
747D
100
AcDbEntity
  8
仕様書枠
 48
50.0
100
AcDbLine
 10
13127.2
 20
11409.6
 30
0.0
 11
13127.19999999999
 21
8349.600000000009
 31
0.0
  0
TEXT
  5
1549E
330
747D
100
AcDbEntity
  8
文字
 62
     7
 48
50.0
100
AcDbText
 10
13229.83081656554
 20
8380.013745883735
 30
0.0
 40
100.0
  1
Y10→溶融亜鉛-5％アルミニウム合金めっき鋼板(JIS G 3317)
 41
0.9
  7
STYLE1
100
AcDbText
  0
TEXT
  5
1549F
330
747D
100
AcDbEntity
  8
文字
 62
     7
 48
50.0
100
AcDbText
 10
13229.83081656554
 20
8550.013745883735
 30
0.0
 40
100.0
  1
F12→溶融亜鉛めっき鋼板(JIS G 3302)
  7
STYLE1
100
AcDbText
  0
LINE
  5
154A1
330
747D
100
AcDbEntity
  8
仕様書枠
 48
50.0
100
AcDbLine
 10
16307.19999999998
 20
8689.600000000003
 30
0.0
 11
13127.19999999999
 21
8689.600000000005
 31
0.0
  0
TEXT
  5
154A2
330
747D
100
AcDbEntity
  8
文字
 62
     7
 48
50.0
100
AcDbText
 10
15022.63965474515
 20
9570.013745883727
 30
0.0
 40
100.0
  1
F12            0.6
  7
STYLE1
100
AcDbText
  0
TEXT
  5
154A3
330
747D
100
AcDbEntity
  8
文字
 62
     7
 48
50.0
100
AcDbText
 10
15022.63965474517
 20
9740.013745883729
 30
0.0
 40
100.0
  1
Y10            0.5
  7
STYLE1
100
AcDbText
  0
TEXT
  5
154A4
330
747D
100
AcDbEntity
  8
文字
 62
     7
 48
50.0
100
AcDbText
 10
15022.63965474516
 20
10080.01374588372
 30
0.0
 40
100.0
  1
Y10            0.7
  7
STYLE1
100
AcDbText
  0
TEXT
  5
154A5
330
747D
100
AcDbEntity
  8
文字
 62
     7
 48
50.0
100
AcDbText
 10
15022.63965474517
 20
10250.01374588373
 30
0.0
 40
100.0
  1
Y10            0.7
  7
STYLE1
100
AcDbText
  0
TEXT
  5
154A6
330
747D
100
AcDbEntity
  8
文字
 62
     7
 48
50.0
100
AcDbText
 10
15022.63965474516
 20
10420.01374588372
 30
0.0
 40
100.0
  1
Y10            1.0
  7
STYLE1
100
AcDbText
  0
TEXT
  5
154A7
330
747D
100
AcDbEntity
  8
文字
 62
     7
 48
50.0
100
AcDbText
 10
15022.63965474517
 20
10590.01374588373
 30
0.0
 40
100.0
  1
Y10            1.0
  7
STYLE1
100
AcDbText
  0
TEXT
  5
154A8
330
747D
100
AcDbEntity
  8
文字
 62
     7
 48
50.0
100
AcDbText
 10
15022.63965474518
 20
10930.01374588372
 30
0.0
 40
100.0
  1
F12            1.0
  7
STYLE1
100
AcDbText
  0
TEXT
  5
154A9
330
747D
100
AcDbEntity
  8
文字
 62
     7
 48
50.0
100
AcDbText
 10
15022.63965474517
 20
11100.01374588373
 30
0.0
 40
100.0
  1
F12            1.2
  7
STYLE1
100
AcDbText
  0
TEXT
  5
154AA
330
747D
100
AcDbEntity
  8
文字
 62
     7
 48
50.0
100
AcDbText
 10
13248.77747366447
 20
9230.013745883731
 30
0.0
 40
100.0
  1
12
  7
STYLE1
100
AcDbText
  0
TEXT
  5
154AB
330
747D
100
AcDbEntity
  8
文字
 62
     7
 48
50.0
100
AcDbText
 10
13248.77747366447
 20
9060.013745883731
 30
0.0
 40
100.0
  1
13
  7
STYLE1
100
AcDbText
  0
LINE
  5
154AC
330
747D
100
AcDbEntity
  8
仕様書枠
 48
50.0
100
AcDbLine
 10
16307.19999999999
 20
8859.600000000002
 30
0.0
 11
13127.19999999999
 21
8859.600000000005
 31
0.0
  0
LINE
  5
154AD
330
747D
100
AcDbEntity
  8
仕様書枠
 48
50.0
100
AcDbLine
 10
16307.19999999999
 20
9199.600000000001
 30
0.0
 11
13127.19999999999
 21
9199.600000000001
 31
0.0
  0
TEXT
  5
154AE
330
747D
100
AcDbEntity
  8
文字
 62
     7
 48
50.0
100
AcDbText
 10
13248.77747366447
 20
9400.013745883729
 30
0.0
 40
100.0
  1
11
  7
STYLE1
100
AcDbText
  0
LINE
  5
154AF
330
747D
100
AcDbEntity
  8
仕様書枠
 48
50.0
100
AcDbLine
 10
16307.19999999999
 20
9879.600000000001
 30
0.0
 11
13127.19999999999
 21
9879.600000000003
 31
0.0
  0
LINE
  5
154B0
330
747D
100
AcDbEntity
  8
仕様書枠
 48
50.0
100
AcDbLine
 10
16307.19999999999
 20
10219.6
 30
0.0
 11
13127.2
 21
10219.6
 31
0.0
  0
LINE
  5
154B1
330
747D
100
AcDbEntity
  8
仕様書枠
 48
50.0
100
AcDbLine
 10
16307.19999999999
 20
9539.6
 30
0.0
 11
13127.19999999999
 21
9539.600000000003
 31
0.0
  0
LINE
  5
154B2
330
747D
100
AcDbEntity
  8
仕様書枠
 48
50.0
100
AcDbLine
 10
16307.19999999999
 20
9369.600000000001
 30
0.0
 11
13127.19999999999
 21
9369.600000000003
 31
0.0
  0
LINE
  5
154B3
330
747D
100
AcDbEntity
  8
仕様書枠
 48
50.0
100
AcDbLine
 10
16307.19999999999
 20
9709.600000000001
 30
0.0
 11
13127.19999999999
 21
9709.600000000001
 31
0.0
  0
TEXT
  5
154B4
330
747D
100
AcDbEntity
  8
文字
 62
     7
 48
50.0
100
AcDbText
 10
13271.19032244792
 20
10250.01374588373
 30
0.0
 40
100.0
  1
6
  7
STYLE1
100
AcDbText
  0
TEXT
  5
154B5
330
747D
100
AcDbEntity
  8
文字
 62
     7
 48
50.0
100
AcDbText
 10
13271.19032244792
 20
10080.01374588373
 30
0.0
 40
100.0
  1
7
  7
STYLE1
100
AcDbText
  0
TEXT
  5
154B6
330
747D
100
AcDbEntity
  8
文字
 62
     7
 48
50.0
100
AcDbText
 10
13271.19032244792
 20
9740.013745883731
 30
0.0
 40
100.0
  1
9
  7
STYLE1
100
AcDbText
  0
TEXT
  5
154B7
330
747D
100
AcDbEntity
  8
文字
 62
     7
 48
50.0
100
AcDbText
 10
13271.19032244792
 20
9910.01374588373
 30
0.0
 40
100.0
  1
8
  7
STYLE1
100
AcDbText
  0
TEXT
  5
154B8
330
747D
100
AcDbEntity
  8
文字
 62
     7
 48
50.0
100
AcDbText
 10
13583.11819016569
 20
10080.01374588373
 30
0.0
 40
100.0
  1
鼻隠シ前後
  7
STYLE1
100
AcDbText
  0
TEXT
  5
154B9
330
747D
100
AcDbEntity
  8
文字
 62
     7
 48
50.0
100
AcDbText
 10
13583.11819016569
 20
9740.013745883729
 30
0.0
 40
100.0
  1
屋根パネル
  7
STYLE1
100
AcDbText
  0
TEXT
  5
154BA
330
747D
100
AcDbEntity
  8
文字
 62
     7
 48
50.0
100
AcDbText
 10
13583.11819016568
 20
9570.013745883731
 30
0.0
 40
100.0
  1
壁パネル
  7
STYLE1
100
AcDbText
  0
TEXT
  5
154BB
330
747D
100
AcDbEntity
  8
文字
 62
     7
 48
50.0
100
AcDbText
 10
13248.77747366447
 20
9570.013745883729
 30
0.0
 40
100.0
  1
10
  7
STYLE1
100
AcDbText
  0
TEXT
  5
154BC
330
747D
100
AcDbEntity
  8
文字
 62
     7
 48
50.0
100
AcDbText
 10
13583.11819016569
 20
10250.01374588373
 30
0.0
 40
100.0
  1
妻板左右
  7
STYLE1
100
AcDbText
  0
TEXT
  5
154BD
330
747D
100
AcDbEntity
  8
文字
 62
     7
 48
50.0
100
AcDbText
 10
13271.19032244792
 20
10420.01374588373
 30
0.0
 40
100.0
  1
5
  7
STYLE1
100
AcDbText
  0
TEXT
  5
154BE
330
747D
100
AcDbEntity
  8
文字
 62
     7
 48
50.0
100
AcDbText
 10
13583.11819016569
 20
10420.01374588373
 30
0.0
 40
100.0
  1
桁後
  7
STYLE1
100
AcDbText
  0
TEXT
  5
154BF
330
747D
100
AcDbEntity
  8
文字
 62
     7
 48
50.0
100
AcDbText
 10
13583.11819016569
 20
10590.01374588373
 30
0.0
 40
100.0
  1
鴨居
  7
STYLE1
100
AcDbText
  0
TEXT
  5
154C0
330
747D
100
AcDbEntity
  8
文字
 62
     7
 48
50.0
100
AcDbText
 10
13583.1181901657
 20
10930.01374588373
 30
0.0
 40
100.0
  1
柱
  7
STYLE1
100
AcDbText
  0
TEXT
  5
154C1
330
747D
100
AcDbEntity
  8
文字
 62
     7
 48
50.0
100
AcDbText
 10
13583.11819016569
 20
11100.01374588373
 30
0.0
 40
100.0
  1
土台枠
  7
STYLE1
100
AcDbText
  0
TEXT
  5
154C2
330
747D
100
AcDbEntity
  8
文字
 62
     7
 48
50.0
100
AcDbText
 10
14859.79774614482
 20
11270.01374588373
 30
0.0
 40
100.0
  1
材料（材質）　　単位mm
  7
STYLE1
100
AcDbText
  0
TEXT
  5
154C3
330
747D
100
AcDbEntity
  8
文字
 62
     7
 48
50.0
100
AcDbText
 10
13732.03840939434
 20
11270.01374588373
 30
0.0
 40
100.0
  1
部　　品　　名
  7
STYLE1
100
AcDbText
  0
TEXT
  5
154C4
330
747D
100
AcDbEntity
  8
文字
 62
     7
 48
50.0
100
AcDbText
 10
13271.19032244792
 20
10760.01374588373
 30
0.0
 40
100.0
  1
3
  7
STYLE1
100
AcDbText
  0
TEXT
  5
154C5
330
747D
100
AcDbEntity
  8
文字
 62
     7
 48
50.0
100
AcDbText
 10
13271.19032244792
 20
10590.01374588373
 30
0.0
 40
100.0
  1
4
  7
STYLE1
100
AcDbText
  0
TEXT
  5
154C6
330
747D
100
AcDbEntity
  8
文字
 62
     7
 48
50.0
100
AcDbText
 10
13271.19032244792
 20
10930.01374588373
 30
0.0
 40
100.0
  1
2
  7
STYLE1
100
AcDbText
  0
TEXT
  5
154C7
330
747D
100
AcDbEntity
  8
文字
 62
     7
 48
50.0
100
AcDbText
 10
13271.19032244792
 20
11100.01374588373
 30
0.0
 40
100.0
  1
1
  7
STYLE1
100
AcDbText
  0
TEXT
  5
154C8
330
747D
100
AcDbEntity
  8
文字
 62
     7
 48
50.0
100
AcDbText
 10
13197.42518560407
 20
11270.01374588373
 30
0.0
 40
100.0
  1
品番
  7
STYLE1
100
AcDbText
  0
LINE
  5
154C9
330
747D
100
AcDbEntity
  8
仕様書枠
 48
50.0
100
AcDbLine
 10
16307.19999999999
 20
10729.6
 30
0.0
 11
13127.19999999999
 21
10729.6
 31
0.0
  0
LINE
  5
154CA
330
747D
100
AcDbEntity
  8
仕様書枠
 48
50.0
100
AcDbLine
 10
16307.19999999999
 20
10389.6
 30
0.0
 11
13127.19999999999
 21
10389.6
 31
0.0
  0
LINE
  5
154CB
330
747D
100
AcDbEntity
  8
仕様書枠
 48
50.0
100
AcDbLine
 10
16307.19999999999
 20
10559.6
 30
0.0
 11
13127.19999999999
 21
10559.6
 31
0.0
  0
LINE
  5
154CC
330
747D
100
AcDbEntity
  8
仕様書枠
 48
50.0
100
AcDbLine
 10
16307.19999999999
 20
11069.6
 30
0.0
 11
13127.2
 21
11069.6
 31
0.0
  0
LINE
  5
154CD
330
747D
100
AcDbEntity
  8
仕様書枠
 48
50.0
100
AcDbLine
 10
16307.19999999999
 20
10899.6
 30
0.0
 11
13127.2
 21
10899.6
 31
0.0
  0
LINE
  5
154CE
330
747D
100
AcDbEntity
  8
仕様書枠
 48
50.0
100
AcDbLine
 10
16307.19999999999
 20
11239.6
 30
0.0
 11
13127.2
 21
11239.6
 31
0.0
  0
LINE
  5
154CF
330
747D
100
AcDbEntity
  8
仕様書枠
 48
50.0
100
AcDbLine
 10
13490.2
 20
11409.6
 30
0.0
 11
13490.20000000001
 21
8859.600000000002
 31
0.0
  0
LINE
  5
154D0
330
747D
100
AcDbEntity
  8
仕様書枠
 48
50.0
100
AcDbLine
 10
14785.2
 20
11409.6
 30
0.0
 11
14785.19999999999
 21
8859.600000000005
 31
0.0
  0
LINE
  5
154D1
330
747D
100
AcDbEntity
  8
仕様書枠
 48
50.0
100
AcDbLine
 10
16307.19999999999
 20
8349.600000000007
 30
0.0
 11
16307.2
 21
11409.6
 31
0.0
  0
LINE
  5
154D2
330
747D
100
AcDbEntity
  8
仕様書枠
 48
50.0
100
AcDbLine
 10
16307.19999999999
 20
11409.6
 30
0.0
 11
13127.2
 21
11409.6
 31
0.0
  0
LINE
  5
154D3
330
747D
100
AcDbEntity
  8
仕様書枠
 48
50.0
100
AcDbLine
 10
16307.19999999999
 20
10049.6
 30
0.0
 11
13127.19999999999
 21
10049.6
 31
0.0
  0
TEXT
  5
154D4
330
747D
100
AcDbEntity
  8
文字
 62
     7
 48
50.0
100
AcDbText
 10
15022.63965474514
 20
9060.013745883724
 30
0.0
 40
100.0
  1
F12            2.3
  7
STYLE1
100
AcDbText
  0
TEXT
  5
154D5
330
747D
100
AcDbEntity
  8
文字
 62
     7
 48
50.0
100
AcDbText
 10
13583.11819016568
 20
9060.013745883729
 30
0.0
 40
100.0
  1
アンカープレート
  7
STYLE1
100
AcDbText
  0
TEXT
  5
15581
330
747D
100
AcDbEntity
  8
文字
 62
     7
 48
50.0
100
AcDbText
 10
15022.63965474516
 20
9910.01374588373
 30
0.0
 40
100.0
  1
F12,Y10       0.7+1.0
  7
STYLE1
100
AcDbText
  0
TEXT
  5
15582
330
747D
100
AcDbEntity
  8
文字
 62
     7
 48
50.0
100
AcDbText
 10
13583.11819016569
 20
9910.01374588373
 30
0.0
 40
100.0
  1
梁中央
 41
0.9
  7
STYLE1
100
AcDbText
  0
DIMENSION
  5
1597F
330
747D
100
AcDbEntity
  8
寸法
 48
50.0
100
AcDbDimension
  2
*D27
 10
7219.295015675682
 20
6080.075840589954
 30
0.0
 11
6331.393491511874
 21
6080.075840589954
 31
0.0
 70
   160
 71
     5
 42
1740.000000000003
  3
INABA_S40G
100
AcDbAlignedDimension
 13
5479.295015675678
 23
5644.577276893866
 33
0.0
 14
7219.295015675682
 24
5644.577276893862
 34
0.0
100
AcDbRotatedDimension
  0
DIMENSION
  5
15980
330
747D
100
AcDbEntity
  8
寸法
 48
50.0
100
AcDbDimension
  2
*D26
 10
5529.295015675678
 20
5857.118862152105
 30
0.0
 11
6365.668421079783
 21
5857.118862152105
 31
0.0
 70
   160
  1
柱外寸法<>
 71
     5
 42
1640.000000000004
  3
INABA_S40G
100
AcDbAlignedDimension
 13
7169.295015675682
 23
5644.577276893864
 33
0.0
 14
5529.295015675678
 24
5644.577276893869
 34
0.0
100
AcDbRotatedDimension
  0
DIMENSION
  5
15981
330
747D
100
AcDbEntity
  8
寸法
 48
50.0
100
AcDbDimension
  2
*D28
 10
5479.295015675678
 20
5857.118862152105
 30
0.0
 11
5165.80973430143
 21
5857.118862152105
 31
0.0
 70
   160
 71
     5
 42
50.0
  3
INABA_S40G
100
AcDbAlignedDimension
 13
5529.295015675678
 23
5644.577276893869
 33
0.0
 14
5479.295015675678
 24
5644.577276893866
 34
0.0
100
AcDbRotatedDimension
1001
ACAD
1000
DSTYLE
1002
{
1002
}
  0
LINE
  5
15982
330
747D
100
AcDbEntity
  8
細線
 48
50.0
100
AcDbLine
 10
5512.295015675678
 20
5644.577276893866
 30
0.0
 11
5512.295015675678
 21
5503.577276893864
 31
0.0
  0
ARC
  5
15983
330
747D
100
AcDbEntity
  8
部品1
100
AcDbCircle
 10
5486.703436782107
 20
5637.577276893865
 30
0.0
 40
7.0
100
AcDbArc
 50
90.0
 51
183.247342790341
  0
ARC
  5
15984
330
747D
100
AcDbEntity
  8
部品1
100
AcDbCircle
 10
5499.918760243141
 20
5510.577276893868
 30
0.0
 40
7.0
100
AcDbArc
 50
183.247342790341
 51
270.0
  0
ARC
  5
15985
330
747D
100
AcDbEntity
  8
部品1
 48
50.0
100
AcDbCircle
 10
5481.546950032465
 20
5617.244276055552
 30
0.0
 40
0.7
100
AcDbArc
 50
183.2473427903929
 51
262.3418727926361
  0
ARC
  5
15986
330
747D
100
AcDbEntity
  8
部品1
 48
50.0
100
AcDbCircle
 10
5489.782980557305
 20
5525.044276055548
 30
0.0
 40
0.7
100
AcDbArc
 50
183.2473427902889
 51
262.3418727926361
  0
ARC
  5
15987
330
747D
100
AcDbEntity
  8
部品1
 48
50.0
100
AcDbCircle
 10
5489.289911448745
 20
5521.377276893865
 30
0.0
 40
3.0
100
AcDbArc
 50
3.247342790340932
 51
82.34187279263609
  0
ARC
  5
15988
330
747D
100
AcDbEntity
  8
部品1
 48
50.0
100
AcDbCircle
 10
5481.053880923901
 20
5613.577276893867
 30
0.0
 40
3.0
100
AcDbArc
 50
3.247342790340932
 51
82.34187279263609
  0
LINE
  5
15989
330
747D
100
AcDbEntity
  8
部品1
100
AcDbLine
 10
5484.049063820086
 20
5613.747216348969
 30
0.0
 11
5489.084104548197
 21
5525.004623516025
 31
0.0
  0
LINE
  5
1598A
330
747D
100
AcDbEntity
  8
部品1
100
AcDbLine
 10
5492.285094344934
 20
5521.547216348968
 30
0.0
 11
5492.930000152043
 21
5510.180751498626
 31
0.0
  0
LINE
  5
1598B
330
747D
100
AcDbEntity
  8
部品1
100
AcDbLine
 10
5479.714676691008
 20
5637.180751498625
 30
0.0
 11
5480.848074023357
 21
5617.204623516026
 31
0.0
  0
LINE
  5
1598C
330
747D
100
AcDbEntity
  8
部品1
 48
50.0
100
AcDbLine
 10
7211.886594569249
 20
5644.577276893862
 30
0.0
 11
5486.703436782107
 21
5644.577276893862
 31
0.0
  0
LINE
  5
1598D
330
747D
100
AcDbEntity
  8
細線
 48
50.0
100
AcDbLine
 10
7217.13636466376
 20
5616.550519457656
 30
0.0
 11
5481.453666686092
 21
5616.550519457862
 31
0.0
  0
LINE
  5
1598E
330
747D
100
AcDbEntity
  8
細線
 48
50.0
100
AcDbLine
 10
7208.900334138942
 20
5524.350519457658
 30
0.0
 11
5489.689697210924
 21
5524.35051945786
 31
0.0
  0
LINE
  5
1598F
330
747D
100
AcDbEntity
  8
部品1
 48
50.0
100
AcDbLine
 10
7198.671271108215
 20
5503.577276893864
 30
0.0
 11
5499.918760243141
 21
5503.577276893864
 31
0.0
  0
DIMENSION
  5
159D3
330
747D
100
AcDbEntity
  8
寸法
 48
50.0
100
AcDbDimension
  2
*D29
 10
7169.295015675682
 20
5857.118862152103
 30
0.0
 11
7532.780297049917
 21
5857.118862152103
 31
0.0
 70
   160
 71
     5
 42
50.0
  3
INABA_S40G
100
AcDbAlignedDimension
 13
7219.295015675682
 23
5644.577276893862
 33
0.0
 14
7169.295015675682
 24
5644.577276893864
 34
0.0
100
AcDbRotatedDimension
  0
LINE
  5
159D4
330
747D
100
AcDbEntity
  8
部品1
100
AcDbLine
 10
7218.875354660347
 20
5637.180751498623
 30
0.0
 11
7217.741957328001
 21
5617.204623516023
 31
0.0
  0
LINE
  5
159D5
330
747D
100
AcDbEntity
  8
細線
 48
50.0
100
AcDbLine
 10
7186.295015675681
 20
5644.577276893862
 30
0.0
 11
7186.295015675681
 21
5503.577276893862
 31
0.0
  0
LINE
  5
159D6
330
747D
100
AcDbEntity
  8
部品1
100
AcDbLine
 10
7206.304937006426
 20
5521.547216348965
 30
0.0
 11
7205.660031199314
 21
5510.180751498625
 31
0.0
  0
LINE
  5
159D7
330
747D
100
AcDbEntity
  8
部品1
100
AcDbLine
 10
7214.540967531269
 20
5613.747216348965
 30
0.0
 11
7209.505926803159
 21
5525.004623516022
 31
0.0
  0
ARC
  5
159D8
330
747D
100
AcDbEntity
  8
部品1
 48
50.0
100
AcDbCircle
 10
7217.536150427455
 20
5613.577276893864
 30
0.0
 40
3.0
100
AcDbArc
 50
97.6581272073639
 51
176.752657209659
  0
ARC
  5
159D9
330
747D
100
AcDbEntity
  8
部品1
 48
50.0
100
AcDbCircle
 10
7209.300119902612
 20
5521.377276893861
 30
0.0
 40
3.0
100
AcDbArc
 50
97.6581272073639
 51
176.752657209659
  0
ARC
  5
159DA
330
747D
100
AcDbEntity
  8
部品1
 48
50.0
100
AcDbCircle
 10
7208.80705079405
 20
5525.044276055545
 30
0.0
 40
0.7
100
AcDbArc
 50
277.6581272073639
 51
356.7526572097111
  0
ARC
  5
159DB
330
747D
100
AcDbEntity
  8
部品1
 48
50.0
100
AcDbCircle
 10
7217.043081318895
 20
5617.24427605555
 30
0.0
 40
0.7
100
AcDbArc
 50
277.6581272073639
 51
356.752657209607
  0
ARC
  5
159DC
330
747D
100
AcDbEntity
  8
部品1
100
AcDbCircle
 10
7198.671271108215
 20
5510.577276893864
 30
0.0
 40
7.0
100
AcDbArc
 50
270.0
 51
356.752657209659
  0
ARC
  5
159DD
330
747D
100
AcDbEntity
  8
部品1
100
AcDbCircle
 10
7211.886594569249
 20
5637.577276893862
 30
0.0
 40
7.0
100
AcDbArc
 50
356.752657209659
 51
90.0
  0
MTEXT
  5
15B3D
330
747D
100
AcDbEntity
  8
寸法
 62
     7
 48
50.0
100
AcDbMText
 10
5954.574819963953
 20
8766.479662645728
 30
0.0
 40
96.0
 41
0.0
 71
     5
 72
     1
  1
棚 2段
  7
STYLE1
 73
     1
 44
1.0
1001
ACAD
1000
MTEXTBEGIN
1070
    73
1070
     1
1070
    44
1040
1.0
1070
    74
1070
     0
1000
MTEXTEND
  0
MTEXT
  5
15B3E
330
747D
100
AcDbEntity
  8
寸法
 62
     7
 48
50.0
100
AcDbMText
 10
6774.574813286256
 20
8766.479662645716
 30
0.0
 40
96.0
 41
0.0
 71
     5
 72
     1
  1
棚 2段
  7
STYLE1
 73
     1
 44
1.0
1001
ACAD
1000
MTEXTBEGIN
1070
    73
1070
     1
1070
    44
1040
1.0
1070
    74
1070
     0
1000
MTEXTEND
  0
ARC
  5
16340
330
747D
100
AcDbEntity
  8
部品1
 48
0.01
100
AcDbCircle
 10
6027.295015675683
 20
5442.077276893859
 30
0.0
 40
2.0
100
AcDbArc
 50
270.0
 51
0.0
  0
ARC
  5
16341
330
747D
100
AcDbEntity
  8
部品1
 48
0.01
100
AcDbCircle
 10
6027.295015675685
 20
5473.577276893859
 30
0.0
 40
2.0
100
AcDbArc
 50
0.0
 51
90.0
  0
ARC
  5
16342
330
747D
100
AcDbEntity
  8
部品1
 48
0.01
100
AcDbCircle
 10
5851.295015675685
 20
5442.077276893859
 30
0.0
 40
2.0
100
AcDbArc
 50
180.0
 51
270.0
  0
ARC
  5
16343
330
747D
100
AcDbEntity
  8
部品1
 48
0.01
100
AcDbCircle
 10
5851.295015675685
 20
5473.577276893859
 30
0.0
 40
2.0
100
AcDbArc
 50
90.0
 51
180.0
  0
LINE
  5
16344
330
747D
100
AcDbEntity
  8
細線
100
AcDbLine
 10
5939.295015675683
 20
5446.077276893859
 30
0.0
 11
6013.295015675685
 21
5446.077276893859
 31
0.0
  0
LINE
  5
16345
330
747D
100
AcDbEntity
  8
細線
100
AcDbLine
 10
5939.295015675686
 20
5469.077276893859
 30
0.0
 11
5865.295015675685
 21
5469.077276893859
 31
0.0
  0
LINE
  5
16346
330
747D
100
AcDbEntity
  8
細線
100
AcDbLine
 10
5865.295015675685
 20
5446.077276893859
 30
0.0
 11
5939.295015675686
 21
5446.077276893859
 31
0.0
  0
LINE
  5
16347
330
747D
100
AcDbEntity
  8
細線
100
AcDbLine
 10
6013.295015675685
 20
5469.077276893859
 30
0.0
 11
5939.295015675686
 21
5469.077276893859
 31
0.0
  0
LINE
  5
16348
330
747D
100
AcDbEntity
  8
細線
100
AcDbLine
 10
6013.295015675685
 20
5446.077276893859
 30
0.0
 11
6013.295015675685
 21
5469.077276893859
 31
0.0
  0
LINE
  5
16349
330
747D
100
AcDbEntity
  8
細線
100
AcDbLine
 10
5865.295015675685
 20
5469.077276893859
 30
0.0
 11
5865.295015675685
 21
5446.077276893859
 31
0.0
  0
LINE
  5
1634A
330
747D
100
AcDbEntity
  8
部品1
 48
0.01
100
AcDbLine
 10
6029.295015675683
 20
5442.077276893859
 30
0.0
 11
6029.295015675685
 21
5473.577276893859
 31
0.0
  0
LINE
  5
1634B
330
747D
100
AcDbEntity
  8
部品1
 48
0.01
100
AcDbLine
 10
5851.295015675685
 20
5440.077276893859
 30
0.0
 11
6027.295015675683
 21
5440.077276893859
 31
0.0
  0
LINE
  5
1634C
330
747D
100
AcDbEntity
  8
部品1
 48
0.01
100
AcDbLine
 10
5849.295015675686
 20
5473.577276893859
 30
0.0
 11
5849.295015675686
 21
5442.077276893859
 31
0.0
  0
LINE
  5
1634D
330
747D
100
AcDbEntity
  8
部品1
 48
0.01
100
AcDbLine
 10
6027.295015675685
 20
5475.577276893858
 30
0.0
 11
5851.295015675685
 21
5475.577276893858
 31
0.0
  0
LINE
  5
1634E
330
747D
100
AcDbEntity
  8
細線
100
AcDbLine
 10
5865.295015675685
 20
5463.077276893859
 30
0.0
 11
5939.295015675686
 21
5463.077276893859
 31
0.0
  0
LINE
  5
1634F
330
747D
100
AcDbEntity
  8
細線
100
AcDbLine
 10
5865.295015675685
 20
5457.077276893858
 30
0.0
 11
5939.295015675686
 21
5457.077276893858
 31
0.0
  0
LINE
  5
16350
330
747D
100
AcDbEntity
  8
細線
100
AcDbLine
 10
5865.295015675684
 20
5451.077276893858
 30
0.0
 11
5939.295015675686
 21
5451.077276893858
 31
0.0
  0
LINE
  5
16351
330
747D
100
AcDbEntity
  8
細線
100
AcDbLine
 10
5865.295015675685
 20
5463.077276893859
 30
0.0
 11
5934.295015675685
 21
5463.077276893859
 31
0.0
  0
LINE
  5
16352
330
747D
100
AcDbEntity
  8
細線
100
AcDbLine
 10
6013.295015675684
 20
5463.077276893859
 30
0.0
 11
5939.295015675686
 21
5463.077276893859
 31
0.0
  0
LINE
  5
16353
330
747D
100
AcDbEntity
  8
細線
100
AcDbLine
 10
6013.295015675684
 20
5451.077276893858
 30
0.0
 11
5939.295015675686
 21
5451.077276893858
 31
0.0
  0
LINE
  5
16354
330
747D
100
AcDbEntity
  8
細線
100
AcDbLine
 10
6013.295015675684
 20
5457.077276893858
 30
0.0
 11
5939.295015675686
 21
5457.077276893858
 31
0.0
  0
LINE
  5
16355
330
747D
100
AcDbEntity
  8
細線
100
AcDbLine
 10
5939.295015675686
 20
5469.077276893859
 30
0.0
 11
5939.295015675683
 21
5446.077276893859
 31
0.0
  0
LINE
  5
16356
330
747D
100
AcDbEntity
  8
細線
100
AcDbLine
 10
6759.295015675689
 20
5469.077276893859
 30
0.0
 11
6759.295015675686
 21
5446.077276893859
 31
0.0
  0
LINE
  5
16357
330
747D
100
AcDbEntity
  8
細線
100
AcDbLine
 10
6833.295015675687
 20
5457.077276893858
 30
0.0
 11
6759.295015675689
 21
5457.077276893858
 31
0.0
  0
LINE
  5
16358
330
747D
100
AcDbEntity
  8
細線
100
AcDbLine
 10
6833.295015675687
 20
5451.077276893858
 30
0.0
 11
6759.295015675689
 21
5451.077276893858
 31
0.0
  0
LINE
  5
16359
330
747D
100
AcDbEntity
  8
細線
100
AcDbLine
 10
6833.295015675687
 20
5463.077276893859
 30
0.0
 11
6759.295015675689
 21
5463.077276893859
 31
0.0
  0
LINE
  5
1635A
330
747D
100
AcDbEntity
  8
細線
100
AcDbLine
 10
6685.295015675688
 20
5463.077276893859
 30
0.0
 11
6754.295015675687
 21
5463.077276893859
 31
0.0
  0
LINE
  5
1635B
330
747D
100
AcDbEntity
  8
細線
100
AcDbLine
 10
6685.295015675686
 20
5451.077276893858
 30
0.0
 11
6759.295015675689
 21
5451.077276893858
 31
0.0
  0
LINE
  5
1635C
330
747D
100
AcDbEntity
  8
細線
100
AcDbLine
 10
6685.295015675688
 20
5457.077276893858
 30
0.0
 11
6759.295015675689
 21
5457.077276893858
 31
0.0
  0
LINE
  5
1635D
330
747D
100
AcDbEntity
  8
細線
100
AcDbLine
 10
6685.295015675688
 20
5463.077276893859
 30
0.0
 11
6759.295015675689
 21
5463.077276893859
 31
0.0
  0
LINE
  5
1635E
330
747D
100
AcDbEntity
  8
部品1
 48
0.01
100
AcDbLine
 10
6847.295015675688
 20
5475.577276893858
 30
0.0
 11
6671.295015675688
 21
5475.577276893858
 31
0.0
  0
LINE
  5
1635F
330
747D
100
AcDbEntity
  8
部品1
 48
0.01
100
AcDbLine
 10
6669.295015675688
 20
5473.577276893859
 30
0.0
 11
6669.295015675688
 21
5442.077276893859
 31
0.0
  0
LINE
  5
16360
330
747D
100
AcDbEntity
  8
部品1
 48
0.01
100
AcDbLine
 10
6671.295015675688
 20
5440.077276893859
 30
0.0
 11
6847.295015675687
 21
5440.077276893859
 31
0.0
  0
LINE
  5
16361
330
747D
100
AcDbEntity
  8
部品1
 48
0.01
100
AcDbLine
 10
6849.295015675686
 20
5442.077276893859
 30
0.0
 11
6849.295015675687
 21
5473.577276893859
 31
0.0
  0
LINE
  5
16362
330
747D
100
AcDbEntity
  8
細線
100
AcDbLine
 10
6685.295015675688
 20
5469.077276893859
 30
0.0
 11
6685.295015675688
 21
5446.077276893859
 31
0.0
  0
LINE
  5
16363
330
747D
100
AcDbEntity
  8
細線
100
AcDbLine
 10
6833.295015675687
 20
5446.077276893859
 30
0.0
 11
6833.295015675687
 21
5469.077276893859
 31
0.0
  0
LINE
  5
16364
330
747D
100
AcDbEntity
  8
細線
100
AcDbLine
 10
6833.295015675687
 20
5469.077276893859
 30
0.0
 11
6759.295015675689
 21
5469.077276893859
 31
0.0
  0
LINE
  5
16365
330
747D
100
AcDbEntity
  8
細線
100
AcDbLine
 10
6685.295015675688
 20
5446.077276893859
 30
0.0
 11
6759.295015675689
 21
5446.077276893859
 31
0.0
  0
LINE
  5
16366
330
747D
100
AcDbEntity
  8
細線
100
AcDbLine
 10
6759.295015675689
 20
5469.077276893859
 30
0.0
 11
6685.295015675688
 21
5469.077276893859
 31
0.0
  0
LINE
  5
16367
330
747D
100
AcDbEntity
  8
細線
100
AcDbLine
 10
6759.295015675686
 20
5446.077276893859
 30
0.0
 11
6833.295015675687
 21
5446.077276893859
 31
0.0
  0
ARC
  5
16368
330
747D
100
AcDbEntity
  8
部品1
 48
0.01
100
AcDbCircle
 10
6671.295015675688
 20
5473.577276893859
 30
0.0
 40
2.0
100
AcDbArc
 50
90.0
 51
180.0
  0
ARC
  5
16369
330
747D
100
AcDbEntity
  8
部品1
 48
0.01
100
AcDbCircle
 10
6671.295015675688
 20
5442.077276893859
 30
0.0
 40
2.0
100
AcDbArc
 50
180.0
 51
270.0
  0
ARC
  5
1636A
330
747D
100
AcDbEntity
  8
部品1
 48
0.01
100
AcDbCircle
 10
6847.295015675688
 20
5473.577276893859
 30
0.0
 40
2.0
100
AcDbArc
 50
0.0
 51
90.0
  0
ARC
  5
1636B
330
747D
100
AcDbEntity
  8
部品1
 48
0.01
100
AcDbCircle
 10
6847.295015675687
 20
5442.077276893859
 30
0.0
 40
2.0
100
AcDbArc
 50
270.0
 51
0.0
  0
DIMENSION
  5
16552
330
747D
100
AcDbEntity
  8
寸法
100
AcDbDimension
  2
*D30
 10
8954.203837543856
 20
3619.577276893865
 30
0.0
 11
8954.203837543856
 21
4524.612288770249
 31
0.0
 70
   160
 71
     5
 42
1789.999999999997
  3
INABA_S40G
100
AcDbAlignedDimension
 13
9556.166928236059
 23
5409.577276893862
 33
0.0
 14
9549.164558191282
 24
3619.577276893864
 34
0.0
 50
90.0
100
AcDbRotatedDimension
1001
ACAD
1000
DSTYLE
1002
{
1070
   288
1070
     1
1002
}
  0
DIMENSION
  5
16553
330
747D
100
AcDbEntity
  8
寸法
100
AcDbDimension
  2
*D31
 10
8954.203837543856
 20
3569.577276893863
 30
0.0
 11
8954.203837543856
 21
3263.530032799372
 31
0.0
 70
   160
 71
     5
 42
50.00000000000182
  3
INABA_S40G
100
AcDbAlignedDimension
 13
9549.164558191282
 23
3619.577276893864
 33
0.0
 14
9501.16692823606
 24
3569.577276893863
 34
0.0
 50
90.0
100
AcDbRotatedDimension
1001
ACAD
1000
DSTYLE
1002
{
1070
   174
1070
     0
1070
   272
1070
     1
1070
   288
1070
     0
1070
   341
1005
0
1002
}
  0
TEXT
  5
165B5
330
747D
100
AcDbEntity
  8
文字
 62
     7
 48
50.0
100
AcDbText
 10
13229.83081656553
 20
8720.013745883731
 30
0.0
 40
100.0
  1
※豪雪補強は豪雪地型のみ取付
 41
0.9
  7
STYLE1
100
AcDbText
  0
TEXT
  5
165B6
330
747D
100
AcDbEntity
  8
文字
 62
     7
 48
50.0
100
AcDbText
 10
13248.77747366447
 20
8890.013745883733
 30
0.0
 40
100.0
  1
14
  7
STYLE1
100
AcDbText
  0
TEXT
  5
165B7
330
747D
100
AcDbEntity
  8
文字
 62
     7
 48
50.0
100
AcDbText
 10
13583.11819016568
 20
8890.013745883731
 30
0.0
 40
100.0
  1
※豪雪補強
  7
STYLE1
100
AcDbText
  0
TEXT
  5
165B8
330
747D
100
AcDbEntity
  8
文字
 62
     7
 48
50.0
100
AcDbText
 10
15022.63965474514
 20
8890.013745883726
 30
0.0
 40
100.0
  1
F12            1.0
  7
STYLE1
100
AcDbText
  0
LINE
  5
165B9
330
747D
100
AcDbEntity
  8
仕様書枠
 48
50.0
100
AcDbLine
 10
16307.19999999998
 20
8519.600000000005
 30
0.0
 11
13127.19999999999
 21
8519.600000000009
 31
0.0
  0
LINE
  5
165BA
330
747D
100
AcDbEntity
  8
仕様書枠
 48
50.0
100
AcDbLine
 10
16307.19999999998
 20
8349.600000000007
 30
0.0
 11
13127.19999999999
 21
8349.600000000009
 31
0.0
  0
LWPOLYLINE
  5
16692
330
747D
100
AcDbEntity
  8
細線
  6
Continuous
370
    15
100
AcDbPolyline
 90
        3
 70
   128
 43
0.0
 10
5624.708242280139
 20
4487.09080857874
 10
5624.779827458514
 20
4487.066549488316
 10
5624.795026642932
 20
4487.063867279301
  0
ARC
  5
16693
330
747D
100
AcDbEntity
  8
細線
  6
Continuous
370
    15
100
AcDbCircle
 10
5621.295014777242
 20
4480.077234301194
 30
0.0
 40
7.799999999999959
100
AcDbArc
 50
64.04961909222389
 51
115.6437752580401
  0
LWPOLYLINE
  5
16694
330
747D
100
AcDbEntity
  8
細線
  6
Continuous
370
    15
100
AcDbPolyline
 90
        3
 70
   128
 43
0.0
 10
5617.795027358187
 20
4487.079424091588
 10
5617.847658259524
 20
4487.085086532841
 10
5617.919362647189
 20
4487.108928390751
  0
SPLINE
  5
16695
330
747D
100
AcDbEntity
  8
細線
  6
Continuous
370
    15
100
AcDbSpline
210
0.0
220
0.0
230
1.0
 70
     8
 71
     3
 72
     9
 73
     5
 74
     0
 42
0.000000001
 43
0.0000000001
 40
0.0
 40
0.0
 40
0.0
 40
0.0
 40
0.7237658969060897
 40
1.0
 40
1.0
 40
1.0
 40
1.0
 10
5603.199936015261
 20
4514.389020630131
 30
0.0
 10
5603.395677512184
 20
4514.617702072342
 30
0.0
 10
5603.666126144489
 20
4514.933662582758
 30
0.0
 10
5603.7036583902
 20
4515.492677016637
 30
0.0
 10
5603.714026076449
 20
4515.647095867405
 30
0.0
  0
SPLINE
  5
16696
330
747D
100
AcDbEntity
  8
細線
  6
Continuous
370
    15
100
AcDbSpline
210
0.0
220
0.0
230
1.0
 70
     8
 71
     3
 72
     9
 73
     5
 74
     0
 42
0.000000001
 43
0.0000000001
 40
0.0
 40
0.0
 40
0.0
 40
0.0
 40
0.1817420378681831
 40
1.0
 40
1.0
 40
1.0
 40
1.0
 10
5603.708810670031
 20
4596.615654655705
 30
0.0
 10
5603.701815005529
 20
4596.710169122119
 30
0.0
 10
5603.663322730477
 20
4597.230216478959
 30
0.0
 10
5603.408470710091
 20
4597.524570627605
 30
0.0
 10
5603.199936015261
 20
4597.765428253422
 30
0.0
  0
LINE
  5
16697
330
747D
100
AcDbEntity
  8
細線
  6
Continuous
370
    15
100
AcDbLine
 10
5628.883219821108
 20
4592.327577301274
 30
0.0
 11
5628.883219821108
 21
4519.82687158228
 31
0.0
  0
LINE
  5
16698
330
747D
100
AcDbEntity
  8
細線
  6
Continuous
370
    15
100
AcDbLine
 10
5623.44536886896
 20
4514.389020630131
 30
0.0
 11
5603.199936015261
 21
4514.389020630131
 31
0.0
  0
ELLIPSE
  5
16699
330
747D
100
AcDbEntity
  8
細線
  6
Continuous
370
    15
100
AcDbEllipse
 10
5598.395014777277
 20
4515.538156831667
 30
0.0
 11
5.399999999999976
 21
0.0
 31
0.0
210
0.0
220
0.0
230
1.0
 40
0.4663076581550023
 41
5.04728513882407
 42
5.809296398627029
  0
LINE
  5
1669A
330
747D
100
AcDbEntity
  8
細線
  6
Continuous
370
    15
100
AcDbLine
 10
5600.169844491137
 20
4513.159972854863
 30
0.0
 11
5598.395026785983
 21
4513.159972854863
 31
0.0
  0
LINE
  5
1669B
330
747D
100
AcDbEntity
  8
細線
  6
Continuous
370
    15
100
AcDbLine
 10
5598.395026785983
 20
4598.994476028691
 30
0.0
 11
5600.169844491137
 21
4598.994476028691
 31
0.0
  0
ELLIPSE
  5
1669C
330
747D
100
AcDbEntity
  8
細線
  6
Continuous
370
    15
100
AcDbEllipse
 10
5598.395014777277
 20
4596.616311770705
 30
0.0
 11
5.399999999999976
 21
0.0
 31
0.0
210
0.0
220
0.0
230
1.0
 40
0.4663076581550023
 41
0.4738889085525403
 42
1.235900168355494
  0
LINE
  5
1669D
330
747D
100
AcDbEntity
  8
細線
  6
Continuous
370
    15
100
AcDbLine
 10
5603.199936015261
 20
4597.765428253422
 30
0.0
 11
5623.44536886896
 21
4597.765428253422
 31
0.0
  0
ELLIPSE
  5
1669E
330
747D
100
AcDbEntity
  8
細線
  6
Continuous
370
    15
100
AcDbEllipse
 10
5598.395014777277
 20
4595.68434707042
 30
0.0
 11
0.0
 21
-3.310133756887523
 31
0.0
210
0.0
220
0.0
230
1.0
 40
0.9063077870366367
 41
3.141592653589783
 42
4.712388980384702
  0
ELLIPSE
  5
1669F
330
747D
100
AcDbEntity
  8
細線
  6
Continuous
370
    15
100
AcDbEllipse
 10
5598.395014777277
 20
4516.470121531967
 30
0.0
 11
0.0
 21
-3.310133756887466
 31
0.0
210
0.0
220
0.0
230
1.0
 40
0.9063077870366523
 41
4.712388980384702
 42
6.283185307179586
  0
ARC
  5
166A0
330
747D
100
AcDbEntity
  8
細線
  6
Continuous
370
    15
100
AcDbCircle
 10
5621.295014777242
 20
4480.077234301194
 30
0.0
 40
7.499999999999996
100
AcDbArc
 50
120.3006176375393
 51
59.6993823624607
  0
SPLINE
  5
166A1
330
747D
100
AcDbEntity
  8
細線
  6
Continuous
370
    15
100
AcDbSpline
210
0.0
220
0.0
230
1.0
 70
    24
 71
     3
 72
     9
 73
     5
 74
     0
 42
0.000000001
 43
0.0000000001
 40
0.0
 40
0.0
 40
0.0
 40
0.0
 40
0.8663703693180105
 40
1.0
 40
1.0
 40
1.0
 40
1.0
 10
5617.795027358187
 20
4486.886603065739
 30
0.0
 10
5617.795027358187
 20
4486.83423150555
 30
0.0
 10
5617.795027358187
 20
4486.773782115736
 30
0.0
 10
5617.795027358187
 20
4486.717934267728
 30
0.0
 10
5617.795027358187
 20
4486.710471340428
 30
0.0
  0
LINE
  5
166A2
330
747D
100
AcDbEntity
  8
細線
  6
Continuous
370
    15
100
AcDbLine
 10
5617.795027358187
 20
4486.710471340428
 30
0.0
 11
5617.51098142351
 21
4486.552638241063
 31
0.0
  0
LINE
  5
166A3
330
747D
100
AcDbEntity
  8
細線
  6
Continuous
370
    15
100
AcDbLine
 10
5625.079042775286
 20
4486.552638241063
 30
0.0
 11
5624.795026642932
 21
4486.710471340428
 31
0.0
  0
SPLINE
  5
166A4
330
747D
100
AcDbEntity
  8
細線
  6
Continuous
370
    15
100
AcDbSpline
210
0.0
220
0.0
230
1.0
 70
    24
 71
     3
 72
     9
 73
     5
 74
     0
 42
0.000000001
 43
0.0000000001
 40
0.0
 40
0.0
 40
0.0
 40
0.0
 40
0.8651188723649402
 40
1.0
 40
1.0
 40
1.0
 40
1.0
 10
5624.795026642932
 20
4486.710471340428
 30
0.0
 10
5624.795026642932
 20
4486.760558657858
 30
0.0
 10
5624.795026642932
 20
4486.818455114671
 30
0.0
 10
5624.795026642932
 20
4486.878503651388
 30
0.0
 10
5624.795026642932
 20
4486.886603065739
 30
0.0
  0
ARC
  5
166A5
330
747D
100
AcDbEntity
  8
細線
  6
Continuous
370
    15
100
AcDbCircle
 10
5621.295014777242
 20
4480.077234301194
 30
0.0
 40
9.499999999999973
100
AcDbArc
 50
69.15570700480919
 51
110.8442929951908
  0
LINE
  5
166A6
330
747D
100
AcDbEntity
  8
細線
  6
Continuous
370
    15
100
AcDbLine
 10
5624.795026642932
 20
4486.886603065739
 30
0.0
 11
5624.795026642932
 21
4488.781911560307
 31
0.0
  0
LINE
  5
166A7
330
747D
100
AcDbEntity
  8
細線
  6
Continuous
370
    15
100
AcDbLine
 10
5617.795027358187
 20
4488.781911560307
 30
0.0
 11
5617.795027358187
 21
4486.886603065739
 31
0.0
  0
LINE
  5
166A8
330
747D
100
AcDbEntity
  8
細線
  6
Continuous
370
    15
100
AcDbLine
 10
5624.795026642932
 20
4488.781911560307
 30
0.0
 11
5624.795026642932
 21
4488.908988662968
 31
0.0
  0
LINE
  5
166A9
330
747D
100
AcDbEntity
  8
細線
  6
Continuous
370
    15
100
AcDbLine
 10
5624.795026642932
 20
4488.908988662968
 30
0.0
 11
5624.675400120867
 21
4488.955480285893
 31
0.0
  0
LINE
  5
166AA
330
747D
100
AcDbEntity
  8
細線
  6
Continuous
370
    15
100
AcDbLine
 10
5617.914624077929
 20
4488.955480285893
 30
0.0
 11
5617.795027358187
 21
4488.908988662968
 31
0.0
  0
LINE
  5
166AB
330
747D
100
AcDbEntity
  8
細線
  6
Continuous
370
    15
100
AcDbLine
 10
5617.795027358187
 20
4488.908988662968
 30
0.0
 11
5617.795027358187
 21
4488.781911560307
 31
0.0
  0
ARC
  5
166AC
330
747D
100
AcDbEntity
  8
細線
  6
Continuous
370
    15
100
AcDbCircle
 10
5638.295014777241
 20
4620.077234301194
 30
0.0
 40
6.0
100
AcDbArc
 50
0.0
 51
90.0
  0
LINE
  5
166AD
330
747D
100
AcDbEntity
  8
細線
  6
Continuous
370
    15
100
AcDbLine
 10
5644.295014006747
 20
4620.077234932194
 30
0.0
 11
5644.295014006747
 21
4452.077252098332
 31
0.0
  0
LINE
  5
166AE
330
747D
100
AcDbEntity
  8
細線
  6
Continuous
370
    15
100
AcDbLine
 10
5586.295015675677
 20
4452.077252098332
 30
0.0
 11
5586.295015675677
 21
4620.077234932194
 31
0.0
  0
LINE
  5
166AF
330
747D
100
AcDbEntity
  8
細線
  6
Continuous
370
    15
100
AcDbLine
 10
5592.295027835024
 20
4626.077276893864
 30
0.0
 11
5638.295001847399
 21
4626.077276893864
 31
0.0
  0
ARC
  5
166B0
330
747D
100
AcDbEntity
  8
細線
  6
Continuous
370
    15
100
AcDbCircle
 10
5638.295014777241
 20
4452.077234301194
 30
0.0
 40
6.0
100
AcDbArc
 50
270.0
 51
0.0
  0
ARC
  5
166B1
330
747D
100
AcDbEntity
  8
細線
  6
Continuous
370
    15
100
AcDbCircle
 10
5592.295014777242
 20
4620.077234301194
 30
0.0
 40
6.0
100
AcDbArc
 50
90.0
 51
180.0
  0
LINE
  5
166B2
330
747D
100
AcDbEntity
  8
細線
  6
Continuous
370
    15
100
AcDbLine
 10
5638.295001847399
 20
4446.077210136662
 30
0.0
 11
5592.295027835024
 21
4446.077210136662
 31
0.0
  0
ARC
  5
166B3
330
747D
100
AcDbEntity
  8
細線
  6
Continuous
370
    15
100
AcDbCircle
 10
5592.295014777242
 20
4452.077234301194
 30
0.0
 40
6.0
100
AcDbArc
 50
180.0
 51
270.0
  0
LINE
  5
166B4
330
747D
100
AcDbEntity
  8
細線
  6
Continuous
370
    15
100
AcDbLine
 10
5627.39131556238
 20
4490.309459396611
 30
0.0
 11
5627.39131556238
 21
4486.294073292027
 31
0.0
  0
ARC
  5
166B5
330
747D
100
AcDbEntity
  8
細線
  6
Continuous
370
    15
100
AcDbCircle
 10
5621.295014777242
 20
4480.077234301194
 30
0.0
 40
8.707106781186586
100
AcDbArc
 50
134.4391355081549
 51
45.56086449184507
  0
LINE
  5
166B6
330
747D
100
AcDbEntity
  8
細線
  6
Continuous
370
    15
100
AcDbLine
 10
5615.198738438738
 20
4486.294073292027
 30
0.0
 11
5615.198738438738
 21
4490.309459396611
 31
0.0
  0
SPLINE
  5
166B7
330
747D
100
AcDbEntity
  8
細線
  6
Continuous
370
    15
100
AcDbSpline
210
0.0
220
0.0
230
1.0
 70
     8
 71
     3
 72
    11
 73
     7
 74
     0
 42
0.000000001
 43
0.0000000001
 40
0.0
 40
0.0
 40
0.0
 40
0.0
 40
0.0781314889249488
 40
0.3601777463886433
 40
0.6812698848259567
 40
1.0
 40
1.0
 40
1.0
 40
1.0
 10
5615.388787848605
 20
4490.633589454899
 30
0.0
 10
5615.379925417909
 20
4490.628401339391
 30
0.0
 10
5615.339070567184
 20
4490.604484685873
 30
0.0
 10
5615.270325423618
 20
4490.545174358021
 30
0.0
 10
5615.208283912295
 20
4490.436309052036
 30
0.0
 10
5615.201912422744
 20
4490.351638422612
 30
0.0
 10
5615.198738438738
 20
4490.309459396611
 30
0.0
  0
ARC
  5
166B8
330
747D
100
AcDbEntity
  8
細線
  6
Continuous
370
    15
100
AcDbCircle
 10
5621.295014777242
 20
4480.077234301194
 30
0.0
 40
12.09629120178367
100
AcDbArc
 50
60.77315626978884
 51
119.2268437302111
  0
SPLINE
  5
166B9
330
747D
100
AcDbEntity
  8
細線
  6
Continuous
370
    15
100
AcDbSpline
210
0.0
220
0.0
230
1.0
 70
     8
 71
     3
 72
    11
 73
     7
 74
     0
 42
0.000000001
 43
0.0000000001
 40
0.0
 40
0.0
 40
0.0
 40
0.0
 40
0.0779029322309155
 40
0.3600683505069131
 40
0.6812326600027312
 40
1.0
 40
1.0
 40
1.0
 40
1.0
 10
5627.39131556238
 20
4490.309459396611
 30
0.0
 10
5627.391113289217
 20
4490.319696322347
 30
0.0
 10
5627.390178380148
 20
4490.367011524229
 30
0.0
 10
5627.371981370487
 20
4490.455948280405
 30
0.0
 10
5627.307324341403
 20
4490.563312759741
 30
0.0
 10
5627.236530492103
 20
4490.610222459176
 30
0.0
 10
5627.201266152514
 20
4490.633589454899
 30
0.0
  0
LINE
  5
166BA
330
747D
100
AcDbEntity
  8
細線
  6
Continuous
370
    15
100
AcDbLine
 10
5598.327559096468
 20
4605.077249237309
 30
0.0
 11
5629.195011002673
 21
4605.077249237309
 31
0.0
  0
LINE
  5
166BB
330
747D
100
AcDbEntity
  8
細線
  6
Continuous
370
    15
100
AcDbLine
 10
5593.327559096469
 20
4512.077259250889
 30
0.0
 11
5593.327559096469
 21
4600.077249237308
 31
0.0
  0
ARC
  5
166BC
330
747D
100
AcDbEntity
  8
細線
  6
Continuous
370
    15
100
AcDbCircle
 10
5598.327559096468
 20
4600.077249237308
 30
0.0
 40
5.0
100
AcDbArc
 50
90.0
 51
180.0
  0
LINE
  5
166BD
330
747D
100
AcDbEntity
  8
細線
  6
Continuous
370
    15
100
AcDbLine
 10
5595.395005805148
 20
4595.68434707042
 30
0.0
 11
5595.395005805148
 21
4516.470121531967
 31
0.0
  0
LINE
  5
166BE
330
747D
100
AcDbEntity
  8
細線
  6
Continuous
370
    15
100
AcDbLine
 10
5636.195011002673
 20
4598.077249237308
 30
0.0
 11
5636.195011002673
 21
4514.077259250889
 31
0.0
  0
ARC
  5
166BF
330
747D
100
AcDbEntity
  8
細線
  6
Continuous
370
    15
100
AcDbCircle
 10
5629.195011002673
 20
4514.077259250889
 30
0.0
 40
7.0
100
AcDbArc
 50
270.0
 51
0.0
  0
ARC
  5
166C0
330
747D
100
AcDbEntity
  8
細線
  6
Continuous
370
    15
100
AcDbCircle
 10
5629.195011002673
 20
4598.077249237308
 30
0.0
 40
7.0
100
AcDbArc
 50
0.0
 51
90.0
  0
LINE
  5
166C1
330
747D
100
AcDbEntity
  8
細線
  6
Continuous
370
    15
100
AcDbLine
 10
5629.195011002673
 20
4507.077259250889
 30
0.0
 11
5598.327559096468
 21
4507.077259250889
 31
0.0
  0
ARC
  5
166C2
330
747D
100
AcDbEntity
  8
細線
  6
Continuous
370
    15
100
AcDbCircle
 10
5598.327559096468
 20
4512.077259250889
 30
0.0
 40
5.0
100
AcDbArc
 50
180.0
 51
270.0
  0
ARC
  5
166C3
330
747D
100
AcDbEntity
  8
細線
  6
Continuous
370
    15
100
AcDbCircle
 10
5622.114617692153
 20
4521.157622759086
 30
0.0
 40
6.898178997000096
100
AcDbArc
 50
281.1228560456503
 51
348.8771439544009
  0
ARC
  5
166C4
330
747D
100
AcDbEntity
  8
細線
  6
Continuous
370
    15
100
AcDbCircle
 10
5622.114669718509
 20
4590.996878150837
 30
0.0
 40
6.89811791144148
100
AcDbArc
 50
11.12251539540166
 51
78.87748460464962
  0
LINE
  5
166C5
330
747D
100
AcDbEntity
  8
細線
  6
Continuous
370
    15
100
AcDbLine
 10
5611.392803055895
 20
4517.647095867405
 30
0.0
 11
5611.392803055895
 21
4594.615654655704
 31
0.0
  0
ARC
  5
166C6
330
747D
100
AcDbEntity
  8
細線
  6
Continuous
370
    15
100
AcDbCircle
 10
5609.392803055896
 20
4594.615654655704
 30
0.0
 40
2.0
100
AcDbArc
 50
0.0
 51
90.0
  0
ARC
  5
166C7
330
747D
100
AcDbEntity
  8
細線
  6
Continuous
370
    15
100
AcDbCircle
 10
5609.392792134625
 20
4517.631390663389
 30
0.0
 40
2.0
100
AcDbArc
 50
262.8149626715362
 51
0.0
  0
LWPOLYLINE
  5
166C8
330
747D
100
AcDbEntity
  8
細線
 48
50.0
100
AcDbPolyline
 90
        4
 70
     1
 43
0.0
 10
5622.557110650195
 20
4475.248855777989
 10
5620.032943350924
 20
4475.248855777989
 10
5620.032943350924
 20
4484.905642696629
 10
5622.557110650195
 20
4484.905642696629
  0
LINE
  5
166C9
330
747D
100
AcDbEntity
  8
細線
  6
Continuous
370
    15
100
AcDbLine
 10
5609.392803055896
 20
4515.647095867405
 30
0.0
 11
5603.714026076449
 21
4515.647095867406
 31
0.0
  0
LINE
  5
166CA
330
747D
100
AcDbEntity
  8
細線
  6
Continuous
370
    15
100
AcDbLine
 10
5598.122812373294
 20
4516.647095867405
 30
0.0
 11
5598.122812373294
 21
4595.615654655705
 31
0.0
  0
ARC
  5
166CB
330
747D
100
AcDbEntity
  8
細線
  6
Continuous
370
    15
100
AcDbCircle
 10
5599.122812373294
 20
4595.615654655705
 30
0.0
 40
1.0
100
AcDbArc
 50
90.0
 51
180.0
  0
LINE
  5
166CC
330
747D
100
AcDbEntity
  8
細線
  6
Continuous
370
    15
100
AcDbLine
 10
5603.708810670031
 20
4596.615654655705
 30
0.0
 11
5599.122812373294
 21
4596.615654655705
 31
0.0
  0
LINE
  5
166CD
330
747D
100
AcDbEntity
  8
細線
  6
Continuous
370
    15
100
AcDbLine
 10
5603.714026076449
 20
4515.647095867405
 30
0.0
 11
5599.122812373294
 21
4515.647095867405
 31
0.0
  0
ARC
  5
166CE
330
747D
100
AcDbEntity
  8
細線
  6
Continuous
370
    15
100
AcDbCircle
 10
5599.122812373294
 20
4516.647095867405
 30
0.0
 40
1.0
100
AcDbArc
 50
180.0
 51
270.0
  0
LINE
  5
166CF
330
747D
100
AcDbEntity
  8
細線
  6
Continuous
370
    15
100
AcDbLine
 10
5609.392803055896
 20
4596.615654655705
 30
0.0
 11
5603.593333845009
 21
4596.615654655705
 31
0.0
  0
LWPOLYLINE
  5
166D0
330
747D
100
AcDbEntity
  8
細線
  6
Continuous
370
    15
100
AcDbPolyline
 90
        3
 70
   128
 43
0.0
 10
6444.708242280137
 20
4487.090808578733
 10
6444.779827458512
 20
4487.066549488309
 10
6444.79502664293
 20
4487.063867279294
  0
ARC
  5
166D1
330
747D
100
AcDbEntity
  8
細線
  6
Continuous
370
    15
100
AcDbCircle
 10
6441.29501477724
 20
4480.077234301186
 30
0.0
 40
7.799999999999959
100
AcDbArc
 50
64.04961909222172
 51
115.6437752580408
  0
LWPOLYLINE
  5
166D2
330
747D
100
AcDbEntity
  8
細線
  6
Continuous
370
    15
100
AcDbPolyline
 90
        3
 70
   128
 43
0.0
 10
6437.795027358186
 20
4487.079424091581
 10
6437.847658259522
 20
4487.085086532834
 10
6437.919362647187
 20
4487.108928390744
  0
SPLINE
  5
166D3
330
747D
100
AcDbEntity
  8
細線
  6
Continuous
370
    15
100
AcDbSpline
210
0.0
220
0.0
230
1.0
 70
     8
 71
     3
 72
     9
 73
     5
 74
     0
 42
0.000000001
 43
0.0000000001
 40
0.0
 40
0.0
 40
0.0
 40
0.0
 40
0.7237658969060897
 40
1.0
 40
1.0
 40
1.0
 40
1.0
 10
6423.19993601526
 20
4514.389020630124
 30
0.0
 10
6423.395677512182
 20
4514.617702072335
 30
0.0
 10
6423.666126144488
 20
4514.933662582751
 30
0.0
 10
6423.703658390199
 20
4515.492677016629
 30
0.0
 10
6423.714026076448
 20
4515.647095867398
 30
0.0
  0
SPLINE
  5
166D4
330
747D
100
AcDbEntity
  8
細線
  6
Continuous
370
    15
100
AcDbSpline
210
0.0
220
0.0
230
1.0
 70
     8
 71
     3
 72
     9
 73
     5
 74
     0
 42
0.000000001
 43
0.0000000001
 40
0.0
 40
0.0
 40
0.0
 40
0.0
 40
0.1817420378681831
 40
1.0
 40
1.0
 40
1.0
 40
1.0
 10
6423.70881067003
 20
4596.615654655698
 30
0.0
 10
6423.701815005528
 20
4596.710169122112
 30
0.0
 10
6423.663322730475
 20
4597.230216478952
 30
0.0
 10
6423.40847071009
 20
4597.524570627598
 30
0.0
 10
6423.19993601526
 20
4597.765428253415
 30
0.0
  0
LINE
  5
166D5
330
747D
100
AcDbEntity
  8
細線
  6
Continuous
370
    15
100
AcDbLine
 10
6448.883219821107
 20
4592.327577301267
 30
0.0
 11
6448.883219821107
 21
4519.826871582273
 31
0.0
  0
LINE
  5
166D6
330
747D
100
AcDbEntity
  8
細線
  6
Continuous
370
    15
100
AcDbLine
 10
6443.445368868959
 20
4514.389020630124
 30
0.0
 11
6423.19993601526
 21
4514.389020630124
 31
0.0
  0
ELLIPSE
  5
166D7
330
747D
100
AcDbEntity
  8
細線
  6
Continuous
370
    15
100
AcDbEllipse
 10
6418.395014777276
 20
4515.53815683166
 30
0.0
 11
5.399999999999976
 21
0.0
 31
0.0
210
0.0
220
0.0
230
1.0
 40
0.4663076581550023
 41
5.04728513882407
 42
5.809296398627029
  0
LINE
  5
166D8
330
747D
100
AcDbEntity
  8
細線
  6
Continuous
370
    15
100
AcDbLine
 10
6420.169844491136
 20
4513.159972854856
 30
0.0
 11
6418.395026785981
 21
4513.159972854856
 31
0.0
  0
LINE
  5
166D9
330
747D
100
AcDbEntity
  8
細線
  6
Continuous
370
    15
100
AcDbLine
 10
6418.395026785981
 20
4598.994476028684
 30
0.0
 11
6420.169844491136
 21
4598.994476028684
 31
0.0
  0
ELLIPSE
  5
166DA
330
747D
100
AcDbEntity
  8
細線
  6
Continuous
370
    15
100
AcDbEllipse
 10
6418.395014777276
 20
4596.616311770698
 30
0.0
 11
5.399999999999976
 21
0.0
 31
0.0
210
0.0
220
0.0
230
1.0
 40
0.4663076581550023
 41
0.4738889085525403
 42
1.235900168355494
  0
LINE
  5
166DB
330
747D
100
AcDbEntity
  8
細線
  6
Continuous
370
    15
100
AcDbLine
 10
6423.19993601526
 20
4597.765428253415
 30
0.0
 11
6443.445368868959
 21
4597.765428253415
 31
0.0
  0
ELLIPSE
  5
166DC
330
747D
100
AcDbEntity
  8
細線
  6
Continuous
370
    15
100
AcDbEllipse
 10
6418.395014777276
 20
4595.684347070413
 30
0.0
 11
0.0
 21
-3.310133756887523
 31
0.0
210
0.0
220
0.0
230
1.0
 40
0.9063077870366367
 41
3.141592653589783
 42
4.712388980384702
  0
ELLIPSE
  5
166DD
330
747D
100
AcDbEntity
  8
細線
  6
Continuous
370
    15
100
AcDbEllipse
 10
6418.395014777276
 20
4516.47012153196
 30
0.0
 11
0.0
 21
-3.310133756887466
 31
0.0
210
0.0
220
0.0
230
1.0
 40
0.9063077870366523
 41
4.712388980384702
 42
6.283185307179586
  0
ARC
  5
166DE
330
747D
100
AcDbEntity
  8
細線
  6
Continuous
370
    15
100
AcDbCircle
 10
6441.29501477724
 20
4480.077234301186
 30
0.0
 40
7.499999999999996
100
AcDbArc
 50
120.3006176375389
 51
59.69938236246107
  0
SPLINE
  5
166DF
330
747D
100
AcDbEntity
  8
細線
  6
Continuous
370
    15
100
AcDbSpline
210
0.0
220
0.0
230
1.0
 70
    24
 71
     3
 72
     9
 73
     5
 74
     0
 42
0.000000001
 43
0.0000000001
 40
0.0
 40
0.0
 40
0.0
 40
0.0
 40
0.8663703693180105
 40
1.0
 40
1.0
 40
1.0
 40
1.0
 10
6437.795027358186
 20
4486.886603065732
 30
0.0
 10
6437.795027358186
 20
4486.834231505543
 30
0.0
 10
6437.795027358186
 20
4486.773782115729
 30
0.0
 10
6437.795027358186
 20
4486.717934267721
 30
0.0
 10
6437.795027358186
 20
4486.710471340421
 30
0.0
  0
LINE
  5
166E0
330
747D
100
AcDbEntity
  8
細線
  6
Continuous
370
    15
100
AcDbLine
 10
6437.795027358186
 20
4486.710471340421
 30
0.0
 11
6437.510981423509
 21
4486.552638241056
 31
0.0
  0
LINE
  5
166E1
330
747D
100
AcDbEntity
  8
細線
  6
Continuous
370
    15
100
AcDbLine
 10
6445.079042775285
 20
4486.552638241056
 30
0.0
 11
6444.79502664293
 21
4486.710471340421
 31
0.0
  0
SPLINE
  5
166E2
330
747D
100
AcDbEntity
  8
細線
  6
Continuous
370
    15
100
AcDbSpline
210
0.0
220
0.0
230
1.0
 70
    24
 71
     3
 72
     9
 73
     5
 74
     0
 42
0.000000001
 43
0.0000000001
 40
0.0
 40
0.0
 40
0.0
 40
0.0
 40
0.8651188723649402
 40
1.0
 40
1.0
 40
1.0
 40
1.0
 10
6444.79502664293
 20
4486.710471340421
 30
0.0
 10
6444.79502664293
 20
4486.760558657851
 30
0.0
 10
6444.79502664293
 20
4486.818455114664
 30
0.0
 10
6444.79502664293
 20
4486.878503651381
 30
0.0
 10
6444.79502664293
 20
4486.886603065732
 30
0.0
  0
ARC
  5
166E3
330
747D
100
AcDbEntity
  8
細線
  6
Continuous
370
    15
100
AcDbCircle
 10
6441.29501477724
 20
4480.077234301186
 30
0.0
 40
9.499999999999973
100
AcDbArc
 50
69.15570700481149
 51
110.8442929951885
  0
LINE
  5
166E4
330
747D
100
AcDbEntity
  8
細線
  6
Continuous
370
    15
100
AcDbLine
 10
6444.79502664293
 20
4486.886603065732
 30
0.0
 11
6444.79502664293
 21
4488.7819115603
 31
0.0
  0
LINE
  5
166E5
330
747D
100
AcDbEntity
  8
細線
  6
Continuous
370
    15
100
AcDbLine
 10
6437.795027358186
 20
4488.7819115603
 30
0.0
 11
6437.795027358186
 21
4486.886603065732
 31
0.0
  0
LINE
  5
166E6
330
747D
100
AcDbEntity
  8
細線
  6
Continuous
370
    15
100
AcDbLine
 10
6444.79502664293
 20
4488.7819115603
 30
0.0
 11
6444.79502664293
 21
4488.908988662961
 31
0.0
  0
LINE
  5
166E7
330
747D
100
AcDbEntity
  8
細線
  6
Continuous
370
    15
100
AcDbLine
 10
6444.79502664293
 20
4488.908988662961
 30
0.0
 11
6444.675400120866
 21
4488.955480285886
 31
0.0
  0
LINE
  5
166E8
330
747D
100
AcDbEntity
  8
細線
  6
Continuous
370
    15
100
AcDbLine
 10
6437.914624077928
 20
4488.955480285886
 30
0.0
 11
6437.795027358186
 21
4488.908988662961
 31
0.0
  0
LINE
  5
166E9
330
747D
100
AcDbEntity
  8
細線
  6
Continuous
370
    15
100
AcDbLine
 10
6437.795027358186
 20
4488.908988662961
 30
0.0
 11
6437.795027358186
 21
4488.7819115603
 31
0.0
  0
ARC
  5
166EA
330
747D
100
AcDbEntity
  8
細線
  6
Continuous
370
    15
100
AcDbCircle
 10
6458.295014777241
 20
4620.077234301187
 30
0.0
 40
6.0
100
AcDbArc
 50
0.0
 51
90.0
  0
LINE
  5
166EB
330
747D
100
AcDbEntity
  8
細線
  6
Continuous
370
    15
100
AcDbLine
 10
6464.295014006745
 20
4620.077234932187
 30
0.0
 11
6464.295014006745
 21
4452.077252098325
 31
0.0
  0
LINE
  5
166EC
330
747D
100
AcDbEntity
  8
細線
  6
Continuous
370
    15
100
AcDbLine
 10
6406.295015675675
 20
4452.077252098325
 30
0.0
 11
6406.295015675675
 21
4620.077234932187
 31
0.0
  0
LINE
  5
166ED
330
747D
100
AcDbEntity
  8
細線
  6
Continuous
370
    15
100
AcDbLine
 10
6412.295027835023
 20
4626.077276893857
 30
0.0
 11
6458.295001847398
 21
4626.077276893857
 31
0.0
  0
ARC
  5
166EE
330
747D
100
AcDbEntity
  8
細線
  6
Continuous
370
    15
100
AcDbCircle
 10
6458.295014777241
 20
4452.077234301187
 30
0.0
 40
6.0
100
AcDbArc
 50
270.0
 51
0.0
  0
ARC
  5
166EF
330
747D
100
AcDbEntity
  8
細線
  6
Continuous
370
    15
100
AcDbCircle
 10
6412.295014777241
 20
4620.077234301187
 30
0.0
 40
6.0
100
AcDbArc
 50
90.0
 51
180.0
  0
LINE
  5
166F0
330
747D
100
AcDbEntity
  8
細線
  6
Continuous
370
    15
100
AcDbLine
 10
6458.295001847398
 20
4446.077210136655
 30
0.0
 11
6412.295027835023
 21
4446.077210136655
 31
0.0
  0
ARC
  5
166F1
330
747D
100
AcDbEntity
  8
細線
  6
Continuous
370
    15
100
AcDbCircle
 10
6412.295014777241
 20
4452.077234301187
 30
0.0
 40
6.0
100
AcDbArc
 50
180.0
 51
270.0
  0
LINE
  5
166F2
330
747D
100
AcDbEntity
  8
細線
  6
Continuous
370
    15
100
AcDbLine
 10
6447.391315562379
 20
4490.309459396604
 30
0.0
 11
6447.391315562379
 21
4486.29407329202
 31
0.0
  0
ARC
  5
166F3
330
747D
100
AcDbEntity
  8
細線
  6
Continuous
370
    15
100
AcDbCircle
 10
6441.29501477724
 20
4480.077234301186
 30
0.0
 40
8.707106781186586
100
AcDbArc
 50
134.4391355081538
 51
45.56086449184618
  0
LINE
  5
166F4
330
747D
100
AcDbEntity
  8
細線
  6
Continuous
370
    15
100
AcDbLine
 10
6435.198738438737
 20
4486.29407329202
 30
0.0
 11
6435.198738438737
 21
4490.309459396604
 31
0.0
  0
SPLINE
  5
166F5
330
747D
100
AcDbEntity
  8
細線
  6
Continuous
370
    15
100
AcDbSpline
210
0.0
220
0.0
230
1.0
 70
     8
 71
     3
 72
    11
 73
     7
 74
     0
 42
0.000000001
 43
0.0000000001
 40
0.0
 40
0.0
 40
0.0
 40
0.0
 40
0.0781314889249488
 40
0.3601777463886433
 40
0.6812698848259567
 40
1.0
 40
1.0
 40
1.0
 40
1.0
 10
6435.388787848603
 20
4490.633589454892
 30
0.0
 10
6435.379925417908
 20
4490.628401339384
 30
0.0
 10
6435.339070567183
 20
4490.604484685865
 30
0.0
 10
6435.270325423616
 20
4490.545174358014
 30
0.0
 10
6435.208283912294
 20
4490.436309052029
 30
0.0
 10
6435.201912422742
 20
4490.351638422604
 30
0.0
 10
6435.198738438737
 20
4490.309459396604
 30
0.0
  0
ARC
  5
166F6
330
747D
100
AcDbEntity
  8
細線
  6
Continuous
370
    15
100
AcDbCircle
 10
6441.29501477724
 20
4480.077234301186
 30
0.0
 40
12.09629120178367
100
AcDbArc
 50
60.77315626978954
 51
119.2268437302104
  0
SPLINE
  5
166F7
330
747D
100
AcDbEntity
  8
細線
  6
Continuous
370
    15
100
AcDbSpline
210
0.0
220
0.0
230
1.0
 70
     8
 71
     3
 72
    11
 73
     7
 74
     0
 42
0.000000001
 43
0.0000000001
 40
0.0
 40
0.0
 40
0.0
 40
0.0
 40
0.0779029322309155
 40
0.3600683505069131
 40
0.6812326600027312
 40
1.0
 40
1.0
 40
1.0
 40
1.0
 10
6447.391315562379
 20
4490.309459396604
 30
0.0
 10
6447.391113289215
 20
4490.31969632234
 30
0.0
 10
6447.390178380146
 20
4490.367011524222
 30
0.0
 10
6447.371981370486
 20
4490.455948280398
 30
0.0
 10
6447.307324341402
 20
4490.563312759734
 30
0.0
 10
6447.236530492102
 20
4490.610222459168
 30
0.0
 10
6447.201266152513
 20
4490.633589454892
 30
0.0
  0
LINE
  5
166F8
330
747D
100
AcDbEntity
  8
細線
  6
Continuous
370
    15
100
AcDbLine
 10
6418.327559096468
 20
4605.077249237302
 30
0.0
 11
6449.195011002672
 21
4605.077249237302
 31
0.0
  0
LINE
  5
166F9
330
747D
100
AcDbEntity
  8
細線
  6
Continuous
370
    15
100
AcDbLine
 10
6413.327559096467
 20
4512.077259250882
 30
0.0
 11
6413.327559096467
 21
4600.077249237301
 31
0.0
  0
ARC
  5
166FA
330
747D
100
AcDbEntity
  8
細線
  6
Continuous
370
    15
100
AcDbCircle
 10
6418.327559096468
 20
4600.077249237301
 30
0.0
 40
5.0
100
AcDbArc
 50
90.0
 51
180.0
  0
LINE
  5
166FB
330
747D
100
AcDbEntity
  8
細線
  6
Continuous
370
    15
100
AcDbLine
 10
6415.395005805146
 20
4595.684347070413
 30
0.0
 11
6415.395005805146
 21
4516.47012153196
 31
0.0
  0
LINE
  5
166FC
330
747D
100
AcDbEntity
  8
細線
  6
Continuous
370
    15
100
AcDbLine
 10
6456.195011002671
 20
4598.077249237301
 30
0.0
 11
6456.195011002671
 21
4514.077259250881
 31
0.0
  0
ARC
  5
166FD
330
747D
100
AcDbEntity
  8
細線
  6
Continuous
370
    15
100
AcDbCircle
 10
6449.195011002672
 20
4514.077259250881
 30
0.0
 40
7.0
100
AcDbArc
 50
270.0
 51
0.0
  0
ARC
  5
166FE
330
747D
100
AcDbEntity
  8
細線
  6
Continuous
370
    15
100
AcDbCircle
 10
6449.195011002672
 20
4598.077249237301
 30
0.0
 40
7.0
100
AcDbArc
 50
0.0
 51
90.0
  0
LINE
  5
166FF
330
747D
100
AcDbEntity
  8
細線
  6
Continuous
370
    15
100
AcDbLine
 10
6449.195011002672
 20
4507.077259250882
 30
0.0
 11
6418.327559096468
 21
4507.077259250882
 31
0.0
  0
ARC
  5
16700
330
747D
100
AcDbEntity
  8
細線
  6
Continuous
370
    15
100
AcDbCircle
 10
6418.327559096468
 20
4512.077259250882
 30
0.0
 40
5.0
100
AcDbArc
 50
180.0
 51
270.0
  0
ARC
  5
16701
330
747D
100
AcDbEntity
  8
細線
  6
Continuous
370
    15
100
AcDbCircle
 10
6442.114617692152
 20
4521.157622759079
 30
0.0
 40
6.898178997000096
100
AcDbArc
 50
281.1228560456511
 51
348.877143954401
  0
ARC
  5
16702
330
747D
100
AcDbEntity
  8
細線
  6
Continuous
370
    15
100
AcDbCircle
 10
6442.11466971851
 20
4590.99687815083
 30
0.0
 40
6.89811791144148
100
AcDbArc
 50
11.12251539540216
 51
78.87748460464803
  0
LINE
  5
16703
330
747D
100
AcDbEntity
  8
細線
  6
Continuous
370
    15
100
AcDbLine
 10
6431.392803055894
 20
4517.647095867398
 30
0.0
 11
6431.392803055894
 21
4594.615654655697
 31
0.0
  0
ARC
  5
16704
330
747D
100
AcDbEntity
  8
細線
  6
Continuous
370
    15
100
AcDbCircle
 10
6429.392803055894
 20
4594.615654655697
 30
0.0
 40
2.0
100
AcDbArc
 50
0.0
 51
90.0
  0
ARC
  5
16705
330
747D
100
AcDbEntity
  8
細線
  6
Continuous
370
    15
100
AcDbCircle
 10
6429.392792134624
 20
4517.631390663382
 30
0.0
 40
2.0
100
AcDbArc
 50
262.814962671533
 51
0.0
  0
LWPOLYLINE
  5
16706
330
747D
100
AcDbEntity
  8
細線
 48
50.0
100
AcDbPolyline
 90
        4
 70
     1
 43
0.0
 10
6442.557110650193
 20
4475.248855777982
 10
6440.032943350923
 20
4475.248855777982
 10
6440.032943350923
 20
4484.905642696622
 10
6442.557110650193
 20
4484.905642696622
  0
LINE
  5
16707
330
747D
100
AcDbEntity
  8
細線
  6
Continuous
370
    15
100
AcDbLine
 10
6429.392803055894
 20
4515.647095867398
 30
0.0
 11
6423.714026076448
 21
4515.647095867399
 31
0.0
  0
LINE
  5
16708
330
747D
100
AcDbEntity
  8
細線
  6
Continuous
370
    15
100
AcDbLine
 10
6418.122812373292
 20
4516.647095867398
 30
0.0
 11
6418.122812373292
 21
4595.615654655698
 31
0.0
  0
ARC
  5
16709
330
747D
100
AcDbEntity
  8
細線
  6
Continuous
370
    15
100
AcDbCircle
 10
6419.122812373292
 20
4595.615654655698
 30
0.0
 40
1.0
100
AcDbArc
 50
90.0
 51
180.0
  0
LINE
  5
1670A
330
747D
100
AcDbEntity
  8
細線
  6
Continuous
370
    15
100
AcDbLine
 10
6423.70881067003
 20
4596.615654655698
 30
0.0
 11
6419.122812373292
 21
4596.615654655698
 31
0.0
  0
LINE
  5
1670B
330
747D
100
AcDbEntity
  8
細線
  6
Continuous
370
    15
100
AcDbLine
 10
6423.714026076448
 20
4515.647095867398
 30
0.0
 11
6419.122812373292
 21
4515.647095867398
 31
0.0
  0
ARC
  5
1670C
330
747D
100
AcDbEntity
  8
細線
  6
Continuous
370
    15
100
AcDbCircle
 10
6419.122812373292
 20
4516.647095867398
 30
0.0
 40
1.0
100
AcDbArc
 50
180.0
 51
270.0
  0
LINE
  5
1670D
330
747D
100
AcDbEntity
  8
細線
  6
Continuous
370
    15
100
AcDbLine
 10
6429.392803055894
 20
4596.615654655698
 30
0.0
 11
6423.593333845008
 21
4596.615654655698
 31
0.0
  0
LINE
  5
16911
330
747D
100
AcDbEntity
  8
部品1
 48
50.0
100
AcDbLine
 10
9549.164558191282
 20
5400.577388343608
 30
0.0
 11
9556.166928236059
 21
5400.577388343608
 31
0.0
  0
LINE
  5
16912
330
747D
100
AcDbEntity
  8
部品1
 48
0.2
100
AcDbLine
 10
9549.164558191282
 20
5409.477388343607
 30
0.0
 11
9549.164558191282
 21
5400.577388343608
 31
0.0
  0
LINE
  5
16913
330
747D
100
AcDbEntity
  8
部品1
 48
50.0
100
AcDbLine
 10
9549.164558191282
 20
3613.677388343599
 30
0.0
 11
9556.166928236059
 21
3613.677388343599
 31
0.0
  0
LINE
  5
16914
330
747D
100
AcDbEntity
  8
部品1
 48
0.2
100
AcDbLine
 10
9549.164558191282
 20
3622.577388343599
 30
0.0
 11
9549.164558191282
 21
3613.6773883436
 31
0.0
  0
LINE
  5
16915
330
747D
100
AcDbEntity
  8
部品1
 48
50.0
100
AcDbLine
 10
9549.164558191282
 20
3622.577388343599
 30
0.0
 11
9556.166928236059
 21
3622.577388343599
 31
0.0
  0
LINE
  5
16916
330
747D
100
AcDbEntity
  8
部品
 48
50.0
100
AcDbLine
 10
9549.164558191282
 20
5409.477388343607
 30
0.0
 11
9556.166928236059
 21
5409.477388343607
 31
0.0
  0
LINE
  5
17546
330
747D
100
AcDbEntity
  8
部品1
100
AcDbLine
 10
10451.69185062527
 20
5586.890079560507
 30
0.0
 11
9514.764834220455
 21
5643.317302631313
 31
0.0
  0
LINE
  5
1754A
330
747D
100
AcDbEntity
  8
部品1
100
AcDbLine
 10
10431.19862986083
 20
5462.424065404691
 30
0.0
 11
9509.508959383532
 21
5502.899772389265
 31
0.0
  0
LINE
  5
1754E
330
747D
100
AcDbEntity
  8
細線
 48
50.0
100
AcDbLine
 10
10440.48763396053
 20
5482.035417464089
 30
0.0
 11
9502.04145716313
 21
5523.24698106247
 31
0.0
  0
LINE
  5
1754F
330
747D
100
AcDbEntity
  8
細線
 48
50.0
100
AcDbLine
 10
10450.70737389287
 20
5558.898636332068
 30
0.0
 11
9496.505093134528
 21
5616.366276829436
 31
0.0
  0
ARC
  5
175C5
330
747D
100
AcDbEntity
  8
部品1
100
AcDbCircle
 10
9502.838033291951
 20
5636.422261196954
 30
0.0
 40
7.002015571702992
100
AcDbArc
 50
89.49780439648792
 51
180.7707619041583
  0
LINE
  5
175D0
330
747D
100
AcDbEntity
  8
部品1
100
AcDbLine
 10
9514.764834220439
 20
5643.317302631311
 30
0.0
 11
9502.899404939951
 21
5643.424007806707
 31
0.0
  0
ARC
  5
175D7
330
747D
100
AcDbEntity
  8
部品1
100
AcDbCircle
 10
9497.276735261916
 20
5617.285280870364
 30
0.0
 40
1.20000000000001
100
AcDbArc
 50
180.7206484956234
 51
259.8151784988922
  0
ARC
  5
175D8
330
747D
100
AcDbEntity
  8
部品1
100
AcDbCircle
 10
9496.62248643918
 20
5613.643583672909
 30
0.0
 40
2.500000000000026
100
AcDbArc
 50
0.7206484956234505
 51
79.81517849889222
  0
ARC
  5
175E3
330
747D
100
AcDbEntity
  8
部品1
100
AcDbCircle
 10
9501.441213114516
 20
5524.726214934054
 30
0.0
 40
1.200000000000009
100
AcDbArc
 50
180.7206484956234
 51
259.8151784988922
  0
ARC
  5
175E4
330
747D
100
AcDbEntity
  8
部品1
100
AcDbCircle
 10
9500.786964291782
 20
5521.084517736599
 30
0.0
 40
2.499999999999998
100
AcDbArc
 50
0.7206484956234505
 51
79.81517849889222
  0
LINE
  5
175E7
330
747D
100
AcDbEntity
  8
部品1
100
AcDbLine
 10
9499.122288693964
 20
5613.67502706634
 30
0.0
 11
9500.24130803222
 21
5524.711122105206
 31
0.0
  0
LINE
  5
17600
330
747D
100
AcDbEntity
  8
部品1
100
AcDbLine
 10
9495.837010543658
 20
5636.336249343758
 30
0.0
 11
9496.076830179623
 21
5617.270188041516
 31
0.0
  0
ARC
  5
17611
330
747D
100
AcDbEntity
  8
部品1
100
AcDbCircle
 10
9510.923845744073
 20
5510.26510310735
 30
0.0
 40
7.499999999999996
100
AcDbArc
 50
180.7206484956234
 51
259.1259014036733
  0
LINE
  5
17629
330
747D
100
AcDbEntity
  8
部品1
100
AcDbLine
 10
9503.286766546562
 20
5521.115961130031
 30
0.0
 11
9503.424438979729
 21
5510.170772927054
 31
0.0
  0
LINE
  5
1762F
330
747D
100
AcDbEntity
  8
部品1
100
AcDbLine
 10
10455.7398732147
 20
5579.407241860163
 30
0.0
 11
10455.74029037718
 21
5579.411138144191
 31
0.0
  0
ARC
  5
17630
330
747D
100
AcDbEntity
  8
部品1
100
AcDbCircle
 10
10452.60653125688
 20
5561.413947624604
 30
0.0
 40
1.199999999999996
100
AcDbArc
 50
274.7942774440446
 51
353.8888074473534
  0
ARC
  5
17634
330
747D
100
AcDbEntity
  8
部品1
100
AcDbCircle
 10
10448.28291162614
 20
5580.209575470227
 30
0.0
 40
7.50000000000075
100
AcDbArc
 50
353.8888074473534
 51
62.96561108388582
  0
LINE
  5
17635
330
747D
100
AcDbEntity
  8
部品1
100
AcDbLine
 10
10453.79995043053
 20
5561.288425921072
 30
0.0
 11
10455.7398732147
 21
5579.407241860163
 31
0.0
  0
ARC
  5
17638
330
747D
100
AcDbEntity
  8
部品1
100
AcDbCircle
 10
10452.91577102517
 20
5557.726893140914
 30
0.0
 40
2.500000000000008
100
AcDbArc
 50
94.79427744404466
 51
173.8888074473534
  0
ARC
  5
176A8
330
747D
100
AcDbEntity
  8
部品1
100
AcDbCircle
 10
10430.43655221537
 20
5469.885247459989
 30
0.0
 40
7.499999999999999
100
AcDbArc
 50
275.83190929691
 51
353.8888074473534
  0
LINE
  5
176A9
330
747D
100
AcDbEntity
  8
部品1
100
AcDbLine
 10
10437.8939309664
 20
5469.086810133953
 30
0.0
 11
10439.0666158915
 21
5480.03964933234
 31
0.0
  0
ARC
  5
176AA
330
747D
100
AcDbEntity
  8
部品1
100
AcDbCircle
 10
10441.55240880851
 20
5479.773503556994
 30
0.0
 40
2.500000000000009
100
AcDbArc
 50
94.79427744404466
 51
173.8888074473534
  0
ARC
  5
176AB
330
747D
100
AcDbEntity
  8
部品1
100
AcDbCircle
 10
10441.24316904021
 20
5483.460558040685
 30
0.0
 40
1.199999999999998
100
AcDbArc
 50
274.7942774440446
 51
353.8888074473534
  0
LINE
  5
176B3
330
747D
100
AcDbEntity
  8
部品1
100
AcDbLine
 10
10442.43634964038
 20
5483.33280806852
 30
0.0
 11
10448.10698942903
 21
5536.296399931907
 31
0.0
  0
LINE
  5
176BB
330
747D
100
AcDbEntity
  8
部品1
100
AcDbLine
 10
10448.12146889017
 20
5536.431637629688
 30
0.0
 11
10450.42997810816
 21
5557.993038916259
 31
0.0
  0
LINE
  5
178C0
330
747D
100
AcDbEntity
  8
細線
 48
50.0
100
AcDbLine
 10
7147.795015675697
 20
8736.365915108533
 30
0.0
 11
7147.795015675694
 21
8796.365915108534
 31
0.0
  0
LINE
  5
178C1
330
747D
100
AcDbEntity
  8
細線
 48
50.0
100
AcDbLine
 10
7147.795015675697
 20
8736.365915108533
 30
0.0
 11
7169.295015675699
 21
8736.365915108535
 31
0.0
  0
LINE
  5
178C2
330
747D
100
AcDbEntity
  8
細線
 48
50.0
100
AcDbLine
 10
7147.795015675696
 20
8796.365915108534
 30
0.0
 11
7169.295015675695
 21
8796.365915108536
 31
0.0
  0
LINE
  5
178E1
330
747D
100
AcDbEntity
  8
細線
 48
50.0
100
AcDbLine
 10
5550.79501567564
 20
8736.365915108533
 30
0.0
 11
5550.795015675643
 21
8796.365915108534
 31
0.0
  0
LINE
  5
178E2
330
747D
100
AcDbEntity
  8
細線
 48
50.0
100
AcDbLine
 10
5550.79501567564
 20
8736.365915108533
 30
0.0
 11
5529.295015675637
 21
8736.365915108535
 31
0.0
  0
LINE
  5
178E3
330
747D
100
AcDbEntity
  8
細線
 48
50.0
100
AcDbLine
 10
5550.795015675642
 20
8796.365915108534
 30
0.0
 11
5529.295015675643
 21
8796.365915108536
 31
0.0
  0
LINE
  5
178F3
102
{ACAD_REACTORS
330
17AB4
102
}
330
747D
100
AcDbEntity
  8
部品1
 48
50.0
100
AcDbLine
 10
5533.295015675668
 20
8698.865915108523
 30
0.0
 11
5533.295015675668
 21
8704.865915108523
 31
0.0
  0
LINE
  5
178F4
102
{ACAD_REACTORS
330
17AB4
102
}
330
747D
100
AcDbEntity
  8
部品1
 48
50.0
100
AcDbLine
 10
5533.295015675668
 20
8704.865915108523
 30
0.0
 11
5557.295015675668
 21
8704.865915108523
 31
0.0
  0
LINE
  5
178F5
102
{ACAD_REACTORS
330
17AB4
102
}
330
747D
100
AcDbEntity
  8
部品1
 48
50.0
100
AcDbLine
 10
5557.295015675668
 20
8704.865915108523
 30
0.0
 11
5557.295015675668
 21
8695.365915108522
 31
0.0
  0
LINE
  5
178F6
102
{ACAD_REACTORS
330
17AB4
102
}
330
747D
100
AcDbEntity
  8
部品1
 48
50.0
100
AcDbLine
 10
5557.295015675668
 20
8695.365915108522
 30
0.0
 11
5587.295015675667
 21
8695.365915108522
 31
0.0
  0
LINE
  5
178F7
102
{ACAD_REACTORS
330
17AB4
102
}
330
747D
100
AcDbEntity
  8
部品1
 48
50.0
100
AcDbLine
 10
5587.295015675667
 20
8695.365915108522
 30
0.0
 11
5587.295015675667
 21
8670.365915108524
 31
0.0
  0
LINE
  5
178F8
102
{ACAD_REACTORS
330
17AB4
102
}
330
747D
100
AcDbEntity
  8
部品1
 48
50.0
100
AcDbLine
 10
5587.295015675667
 20
8670.365915108524
 30
0.0
 11
5557.295015675668
 21
8670.365915108524
 31
0.0
  0
LINE
  5
178F9
102
{ACAD_REACTORS
330
17AB4
102
}
330
747D
100
AcDbEntity
  8
部品1
 48
50.0
100
AcDbLine
 10
5557.295015675668
 20
8670.365915108524
 30
0.0
 11
5557.295015675668
 21
8660.865915108523
 31
0.0
  0
LINE
  5
178FA
102
{ACAD_REACTORS
330
17AB4
102
}
330
747D
100
AcDbEntity
  8
部品1
 48
50.0
100
AcDbLine
 10
5557.295015675668
 20
8660.865915108523
 30
0.0
 11
5533.295015675668
 21
8660.865915108523
 31
0.0
  0
LINE
  5
178FB
102
{ACAD_REACTORS
330
17AB4
102
}
330
747D
100
AcDbEntity
  8
部品1
 48
50.0
100
AcDbLine
 10
5533.295015675668
 20
8660.865915108523
 30
0.0
 11
5533.295015675668
 21
8666.865915108523
 31
0.0
  0
LINE
  5
17AB5
102
{ACAD_REACTORS
330
17ABE
102
}
330
747D
100
AcDbEntity
  8
部品1
 48
50.0
100
AcDbLine
 10
6345.295015675699
 20
8698.865915108523
 30
0.0
 11
6345.295015675699
 21
8704.865915108523
 31
0.0
  0
LINE
  5
17AB6
102
{ACAD_REACTORS
330
17ABE
102
}
330
747D
100
AcDbEntity
  8
部品1
 48
50.0
100
AcDbLine
 10
6345.295015675699
 20
8704.865915108523
 30
0.0
 11
6321.295015675699
 21
8704.865915108523
 31
0.0
  0
LINE
  5
17AB7
102
{ACAD_REACTORS
330
17ABE
102
}
330
747D
100
AcDbEntity
  8
部品1
 48
50.0
100
AcDbLine
 10
6321.295015675699
 20
8704.865915108523
 30
0.0
 11
6321.295015675699
 21
8695.365915108522
 31
0.0
  0
LINE
  5
17AB8
102
{ACAD_REACTORS
330
17ABE
102
}
330
747D
100
AcDbEntity
  8
部品1
 48
50.0
100
AcDbLine
 10
6321.295015675699
 20
8695.365915108522
 30
0.0
 11
6291.295015675699
 21
8695.365915108522
 31
0.0
  0
LINE
  5
17AB9
102
{ACAD_REACTORS
330
17ABE
102
}
330
747D
100
AcDbEntity
  8
部品1
 48
50.0
100
AcDbLine
 10
6291.295015675699
 20
8695.365915108522
 30
0.0
 11
6291.295015675699
 21
8670.365915108524
 31
0.0
  0
LINE
  5
17ABA
102
{ACAD_REACTORS
330
17ABE
102
}
330
747D
100
AcDbEntity
  8
部品1
 48
50.0
100
AcDbLine
 10
6291.295015675699
 20
8670.365915108524
 30
0.0
 11
6321.295015675699
 21
8670.365915108524
 31
0.0
  0
LINE
  5
17ABB
102
{ACAD_REACTORS
330
17ABE
102
}
330
747D
100
AcDbEntity
  8
部品1
 48
50.0
100
AcDbLine
 10
6321.295015675699
 20
8670.365915108524
 30
0.0
 11
6321.295015675699
 21
8660.865915108523
 31
0.0
  0
LINE
  5
17ABC
102
{ACAD_REACTORS
330
17ABE
102
}
330
747D
100
AcDbEntity
  8
部品1
 48
50.0
100
AcDbLine
 10
6321.295015675699
 20
8660.865915108523
 30
0.0
 11
6345.295015675699
 21
8660.865915108523
 31
0.0
  0
LINE
  5
17ABD
102
{ACAD_REACTORS
330
17ABE
102
}
330
747D
100
AcDbEntity
  8
部品1
 48
50.0
100
AcDbLine
 10
6345.295015675699
 20
8660.865915108523
 30
0.0
 11
6345.295015675699
 21
8666.865915108523
 31
0.0
  0
LINE
  5
17ABF
102
{ACAD_REACTORS
330
17AD2
102
}
330
747D
100
AcDbEntity
  8
部品1
 48
50.0
100
AcDbLine
 10
6353.295015675668
 20
8698.865915108523
 30
0.0
 11
6353.295015675668
 21
8704.865915108523
 31
0.0
  0
LINE
  5
17AC0
102
{ACAD_REACTORS
330
17AD2
102
}
330
747D
100
AcDbEntity
  8
部品1
 48
50.0
100
AcDbLine
 10
6353.295015675668
 20
8704.865915108523
 30
0.0
 11
6377.295015675668
 21
8704.865915108523
 31
0.0
  0
LINE
  5
17AC1
102
{ACAD_REACTORS
330
17AD2
102
}
330
747D
100
AcDbEntity
  8
部品1
 48
50.0
100
AcDbLine
 10
6377.295015675668
 20
8704.865915108523
 30
0.0
 11
6377.295015675668
 21
8695.365915108522
 31
0.0
  0
LINE
  5
17AC2
102
{ACAD_REACTORS
330
17AD2
102
}
330
747D
100
AcDbEntity
  8
部品1
 48
50.0
100
AcDbLine
 10
6377.295015675668
 20
8695.365915108522
 30
0.0
 11
6407.295015675668
 21
8695.365915108522
 31
0.0
  0
LINE
  5
17AC3
102
{ACAD_REACTORS
330
17AD2
102
}
330
747D
100
AcDbEntity
  8
部品1
 48
50.0
100
AcDbLine
 10
6407.295015675668
 20
8695.365915108522
 30
0.0
 11
6407.295015675668
 21
8670.365915108524
 31
0.0
  0
LINE
  5
17AC4
102
{ACAD_REACTORS
330
17AD2
102
}
330
747D
100
AcDbEntity
  8
部品1
 48
50.0
100
AcDbLine
 10
6407.295015675668
 20
8670.365915108524
 30
0.0
 11
6377.295015675668
 21
8670.365915108524
 31
0.0
  0
LINE
  5
17AC5
102
{ACAD_REACTORS
330
17AD2
102
}
330
747D
100
AcDbEntity
  8
部品1
 48
50.0
100
AcDbLine
 10
6377.295015675668
 20
8670.365915108524
 30
0.0
 11
6377.295015675668
 21
8660.865915108523
 31
0.0
  0
LINE
  5
17AC6
102
{ACAD_REACTORS
330
17AD2
102
}
330
747D
100
AcDbEntity
  8
部品1
 48
50.0
100
AcDbLine
 10
6377.295015675668
 20
8660.865915108523
 30
0.0
 11
6353.295015675668
 21
8660.865915108523
 31
0.0
  0
LINE
  5
17AC7
102
{ACAD_REACTORS
330
17AD2
102
}
330
747D
100
AcDbEntity
  8
部品1
 48
50.0
100
AcDbLine
 10
6353.295015675668
 20
8660.865915108523
 30
0.0
 11
6353.295015675668
 21
8666.865915108523
 31
0.0
  0
LINE
  5
17AC8
102
{ACAD_REACTORS
330
17AD1
102
}
330
747D
100
AcDbEntity
  8
部品1
 48
50.0
100
AcDbLine
 10
7165.295015675699
 20
8698.865915108523
 30
0.0
 11
7165.295015675699
 21
8704.865915108523
 31
0.0
  0
LINE
  5
17AC9
102
{ACAD_REACTORS
330
17AD1
102
}
330
747D
100
AcDbEntity
  8
部品1
 48
50.0
100
AcDbLine
 10
7165.295015675699
 20
8704.865915108523
 30
0.0
 11
7141.295015675699
 21
8704.865915108523
 31
0.0
  0
LINE
  5
17ACA
102
{ACAD_REACTORS
330
17AD1
102
}
330
747D
100
AcDbEntity
  8
部品1
 48
50.0
100
AcDbLine
 10
7141.295015675699
 20
8704.865915108523
 30
0.0
 11
7141.295015675699
 21
8695.365915108522
 31
0.0
  0
LINE
  5
17ACB
102
{ACAD_REACTORS
330
17AD1
102
}
330
747D
100
AcDbEntity
  8
部品1
 48
50.0
100
AcDbLine
 10
7141.295015675699
 20
8695.365915108522
 30
0.0
 11
7111.295015675699
 21
8695.365915108522
 31
0.0
  0
LINE
  5
17ACC
102
{ACAD_REACTORS
330
17AD1
102
}
330
747D
100
AcDbEntity
  8
部品1
 48
50.0
100
AcDbLine
 10
7111.295015675699
 20
8695.365915108522
 30
0.0
 11
7111.295015675699
 21
8670.365915108524
 31
0.0
  0
LINE
  5
17ACD
102
{ACAD_REACTORS
330
17AD1
102
}
330
747D
100
AcDbEntity
  8
部品1
 48
50.0
100
AcDbLine
 10
7111.295015675699
 20
8670.365915108524
 30
0.0
 11
7141.295015675699
 21
8670.365915108524
 31
0.0
  0
LINE
  5
17ACE
102
{ACAD_REACTORS
330
17AD1
102
}
330
747D
100
AcDbEntity
  8
部品1
 48
50.0
100
AcDbLine
 10
7141.295015675699
 20
8670.365915108524
 30
0.0
 11
7141.295015675699
 21
8660.865915108523
 31
0.0
  0
LINE
  5
17ACF
102
{ACAD_REACTORS
330
17AD1
102
}
330
747D
100
AcDbEntity
  8
部品1
 48
50.0
100
AcDbLine
 10
7141.295015675699
 20
8660.865915108523
 30
0.0
 11
7165.295015675699
 21
8660.865915108523
 31
0.0
  0
LINE
  5
17AD0
102
{ACAD_REACTORS
330
17AD1
102
}
330
747D
100
AcDbEntity
  8
部品1
 48
50.0
100
AcDbLine
 10
7165.295015675699
 20
8660.865915108523
 30
0.0
 11
7165.295015675699
 21
8666.865915108523
 31
0.0
  0
LINE
  5
17AD3
330
747D
100
AcDbEntity
  8
部品1
 48
5.0
100
AcDbLine
 10
5585.795497707113
 20
8695.365915108522
 30
0.0
 11
5585.795494169331
 21
8696.865915108444
 31
0.0
  0
LINE
  5
17AD4
330
747D
100
AcDbEntity
  8
部品1
100
AcDbLine
 10
5557.295015675669
 20
8695.365915108522
 30
0.0
 11
5557.295015675684
 21
9148.365915108433
 31
0.0
  0
LINE
  5
17AD5
330
747D
100
AcDbEntity
  8
部品1
 48
50.0
100
AcDbLine
 10
6321.295015675644
 20
8695.365915108522
 30
0.0
 11
6321.295015675611
 21
9148.365915108481
 31
0.0
  0
LINE
  5
17AD6
330
747D
100
AcDbEntity
  8
部品1
 48
50.0
100
AcDbLine
 10
6293.795015675638
 20
8695.365915108522
 30
0.0
 11
6293.795015675638
 21
8696.865915108537
 31
0.0
  0
LINE
  5
17AD7
330
747D
100
AcDbEntity
  8
部品1
 48
50.0
100
AcDbLine
 10
6404.795012282905
 20
8695.365915108522
 30
0.0
 11
6404.79501230424
 21
8696.865915108483
 31
0.0
  0
LINE
  5
17AD8
330
747D
100
AcDbEntity
  8
部品1
 48
50.0
100
AcDbLine
 10
6377.295015675644
 20
8695.365915108522
 30
0.0
 11
6377.295015675609
 21
9176.365915108481
 31
0.0
  0
LINE
  5
17AD9
330
747D
100
AcDbEntity
  8
部品1
100
AcDbLine
 10
7141.29501567567
 20
8670.365915108524
 30
0.0
 11
7141.295015675662
 21
8411.365915108515
 31
0.0
  0
LINE
  5
17ADA
330
747D
100
AcDbEntity
  8
部品1
 48
5.0
100
AcDbLine
 10
7112.794533644255
 20
8695.365915108522
 30
0.0
 11
7112.79453718204
 21
8696.865915108476
 31
0.0
  0
LINE
  5
17AF0
330
747D
100
AcDbEntity
  8
細線
 48
50.0
100
AcDbLine
 10
6327.795015675668
 20
8736.365915108533
 30
0.0
 11
6327.795015675665
 21
8796.365915108534
 31
0.0
  0
LINE
  5
17AF1
330
747D
100
AcDbEntity
  8
細線
 48
50.0
100
AcDbLine
 10
6327.795015675668
 20
8736.365915108533
 30
0.0
 11
6349.29501567567
 21
8736.365915108535
 31
0.0
  0
LINE
  5
17AF2
330
747D
100
AcDbEntity
  8
細線
 48
50.0
100
AcDbLine
 10
6327.795015675666
 20
8796.365915108534
 30
0.0
 11
6349.295015675664
 21
8796.365915108536
 31
0.0
  0
ENDSEC
  0
SECTION
  2
OBJECTS
  0
DICTIONARY
  5
7471
330
0
100
AcDbDictionary
281
     1
  3
ACAD_CIP_PREVIOUS_PRODUCT_INFO
350
16640
  3
ACAD_COLOR
350
14A31
  3
ACAD_DETAILVIEWSTYLE
350
16636
  3
ACAD_GROUP
350
7472
  3
ACAD_LAYOUT
350
14A32
  3
ACAD_MATERIAL
350
14A30
  3
ACAD_MLEADERSTYLE
350
16632
  3
ACAD_MLINESTYLE
350
7473
  3
ACAD_PLOTSETTINGS
350
14A33
  3
ACAD_PLOTSTYLENAME
350
14A2E
  3
ACAD_SCALELIST
350
16620
  3
ACAD_SECTIONVIEWSTYLE
350
16634
  3
ACAD_TABLESTYLE
350
1661E
  3
ACAD_VISUALSTYLE
350
16605
  3
ACDB_RECOMPOSE_DATA
350
17B26
  3
AcDbVariableDictionary
350
16745
  3
AcDsDecomposeData
350
17B2D
  3
CONTENTDICTIONARY
350
E71C
  3
DRAWINGVARIABLESDICT
350
F3B9
  3
DWGPROPS
350
17B27
  0
DICTIONARY
  5
14BE0
330
7467
100
AcDbDictionary
280
     1
281
     1
  3
ACAD_LAYERSTATES
360
14BE1
  0
DICTIONARY
  5
16710
330
7474
100
AcDbDictionary
280
     1
281
     1
  3
ADSK_XREC_LAYER_RECONCILED
360
16711
  0
DICTIONARY
  5
16714
330
DEB3
100
AcDbDictionary
280
     1
281
     1
  3
ADSK_XREC_LAYER_RECONCILED
360
16715
  0
DICTIONARY
  5
16716
330
DEB4
100
AcDbDictionary
280
     1
281
     1
  3
ADSK_XREC_LAYER_RECONCILED
360
16717
  0
DICTIONARY
  5
16718
330
DEB5
100
AcDbDictionary
280
     1
281
     1
  3
ADSK_XREC_LAYER_RECONCILED
360
16719
  0
DICTIONARY
  5
1671A
330
DEB6
100
AcDbDictionary
280
     1
281
     1
  3
ADSK_XREC_LAYER_RECONCILED
360
1671B
  0
DICTIONARY
  5
1671C
330
10B54
100
AcDbDictionary
280
     1
281
     1
  3
ADSK_XREC_LAYER_RECONCILED
360
1671D
  0
DICTIONARY
  5
1671E
330
11729
100
AcDbDictionary
280
     1
281
     1
  3
ADSK_XREC_LAYER_RECONCILED
360
1671F
  0
DICTIONARY
  5
16720
330
1173F
100
AcDbDictionary
280
     1
281
     1
  3
ADSK_XREC_LAYER_RECONCILED
360
16721
  0
DICTIONARY
  5
16722
330
118A1
100
AcDbDictionary
280
     1
281
     1
  3
ADSK_XREC_LAYER_RECONCILED
360
16723
  0
DICTIONARY
  5
16724
330
123C1
100
AcDbDictionary
280
     1
281
     1
  3
ADSK_XREC_LAYER_RECONCILED
360
16725
  0
DICTIONARY
  5
168FA
330
168F9
100
AcDbDictionary
280
     1
281
     1
  0
DICTIONARY
  5
16643
330
747D
100
AcDbDictionary
280
     1
281
     1
  3
ACAD_SORTENTS
360
16644
  0
XRECORD
  5
16640
102
{ACAD_REACTORS
330
7471
102
}
330
7471
100
AcDbXrecord
280
     1
300
ACDLT
300
2014
300
ACDLT_F_S
  0
DICTIONARY
  5
14A31
102
{ACAD_REACTORS
330
7471
102
}
330
7471
100
AcDbDictionary
281
     1
  0
DICTIONARY
  5
16636
102
{ACAD_REACTORS
330
7471
102
}
330
7471
100
AcDbDictionary
281
     1
  3
Metric50
350
16637
  0
DICTIONARY
  5
7472
102
{ACAD_REACTORS
330
7471
102
}
330
7471
100
AcDbDictionary
281
     1
  3
*A1
350
17AB4
  3
*A2
350
17ABE
  3
*A3
350
17AD1
  3
*A4
350
17AD2
  0
DICTIONARY
  5
14A32
102
{ACAD_REACTORS
330
7471
102
}
330
7471
100
AcDbDictionary
281
     1
  3
Model
350
14A34
  3
レイアウト1
350
14A35
  0
DICTIONARY
  5
14A30
102
{ACAD_REACTORS
330
7471
102
}
330
7471
100
AcDbDictionary
281
     1
  3
ByBlock
350
165F5
  3
ByLayer
350
165ED
  3
Global
350
165FD
  0
DICTIONARY
  5
16632
102
{ACAD_REACTORS
330
7471
102
}
330
7471
100
AcDbDictionary
281
     1
  3
Standard
350
16633
  0
DICTIONARY
  5
7473
102
{ACAD_REACTORS
330
7471
102
}
330
7471
100
AcDbDictionary
281
     1
  3
STANDARD
350
7480
  0
DICTIONARY
  5
14A33
102
{ACAD_REACTORS
330
7471
102
}
330
7471
100
AcDbDictionary
281
     1
  0
ACDBDICTIONARYWDFLT
  5
14A2E
102
{ACAD_REACTORS
330
7471
102
}
330
7471
100
AcDbDictionary
281
     1
  3
Normal
350
14A2F
100
AcDbDictionaryWithDefault
340
14A2F
  0
DICTIONARY
  5
16620
102
{ACAD_REACTORS
330
7471
102
}
330
7471
100
AcDbDictionary
281
     1
  3
A0
350
16621
  3
A1
350
16622
  3
A2
350
16623
  3
A3
350
16624
  3
A4
350
16625
  3
A5
350
16626
  3
A6
350
16627
  3
A7
350
16628
  3
A8
350
16629
  3
A9
350
1662A
  3
B0
350
1662B
  3
B1
350
1662C
  3
B2
350
1662D
  3
B3
350
1662E
  3
B4
350
1662F
  3
B5
350
16630
  3
B6
350
16631
  0
DICTIONARY
  5
16634
102
{ACAD_REACTORS
330
7471
102
}
330
7471
100
AcDbDictionary
281
     1
  3
Metric50
350
16635
  0
DICTIONARY
  5
1661E
102
{ACAD_REACTORS
330
7471
102
}
330
7471
100
AcDbDictionary
281
     1
  3
Standard
350
1661F
  0
DICTIONARY
  5
16605
102
{ACAD_REACTORS
330
7471
102
}
330
7471
100
AcDbDictionary
281
     1
  3
2dWireframe
350
1660B
  3
Basic
350
1660A
  3
Brighten
350
16611
  3
ColorChange
350
16615
  3
Conceptual
350
1660E
  3
Dim
350
16610
  3
EdgeColorOff
350
1661D
  3
Facepattern
350
16614
  3
Flat
350
16606
  3
FlatWithEdges
350
16607
  3
Gouraud
350
16608
  3
GouraudWithEdges
350
16609
  3
Hidden
350
1660D
  3
JitterOff
350
1661B
  3
Linepattern
350
16613
  3
OverhangOff
350
1661C
  3
Realistic
350
1660F
  3
Shaded
350
1661A
  3
Shaded with edges
350
16619
  3
Shades of Gray
350
16616
  3
Sketchy
350
16617
  3
Thicken
350
16612
  3
Wireframe
350
1660C
  3
X-Ray
350
16618
  0
XRECORD
  5
17B26
102
{ACAD_REACTORS
330
7471
102
}
330
7471
100
AcDbXrecord
280
     1
 90
        1
330
15008
330
1661F
  0
DICTIONARY
  5
16745
102
{ACAD_REACTORS
330
7471
102
}
330
7471
100
AcDbDictionary
281
     1
  3
CANNOSCALE
350
1674B
  3
CMLEADERSTYLE
350
16747
  3
CTABLESTYLE
350
16746
  3
CVIEWDETAILSTYLE
350
16748
  3
CVIEWSECTIONSTYLE
350
16749
  3
DIMASSOC
350
17B23
  3
INDEXCTL
350
17B21
  3
LAYEREVAL
350
1674D
  3
LAYERNOTIFY
350
1674E
  3
LIGHTINGUNITS
350
1674C
  3
MSLTSCALE
350
1674A
  3
SORTENTS
350
17B20
  3
XCLIPFRAME
350
17B22
  0
DICTIONARY
  5
17B2D
102
{ACAD_REACTORS
330
7471
102
}
330
7471
100
AcDbDictionary
281
     1
  3
AcDsRecords
350
17B2F
  3
AcDsSchemas
350
17B2E
1001
ACAD
1070
     2
  0
DICTIONARY
  5
E71C
102
{ACAD_REACTORS
330
7471
102
}
330
7471
100
AcDbDictionary
281
     1
  0
DICTIONARY
  5
F3B9
102
{ACAD_REACTORS
330
7471
102
}
330
7471
100
AcDbDictionary
281
     1
1001
DRAWINGVARIABLESXDATA
1000
POLARMODE
1000
1
  0
XRECORD
  5
17B27
102
{ACAD_REACTORS
330
7471
102
}
330
7471
100
AcDbXrecord
280
     1
  1
DWGPROPS COOKIE
  2

  3

  4

  6

  7

  8
watanabe.rikuto
  9

300
=
301
=
302
=
303
=
304
=
305
=
306
=
307
=
308
=
309
=
 40
0.6609690740740742
 41
2452116.684896065
 42
2458822.669403357
  1

 90
        0
  0
DICTIONARY
  5
14BE1
102
{ACAD_REACTORS
330
14BE0
102
}
330
14BE0
100
AcDbDictionary
281
     1
  0
XRECORD
  5
16711
102
{ACAD_REACTORS
330
16710
102
}
330
16710
100
AcDbXrecord
280
     1
290
     1
  0
XRECORD
  5
16715
102
{ACAD_REACTORS
330
16714
102
}
330
16714
100
AcDbXrecord
280
     1
290
     1
  0
XRECORD
  5
16717
102
{ACAD_REACTORS
330
16716
102
}
330
16716
100
AcDbXrecord
280
     1
290
     1
  0
XRECORD
  5
16719
102
{ACAD_REACTORS
330
16718
102
}
330
16718
100
AcDbXrecord
280
     1
290
     1
  0
XRECORD
  5
1671B
102
{ACAD_REACTORS
330
1671A
102
}
330
1671A
100
AcDbXrecord
280
     1
290
     1
  0
XRECORD
  5
1671D
102
{ACAD_REACTORS
330
1671C
102
}
330
1671C
100
AcDbXrecord
280
     1
290
     1
  0
XRECORD
  5
1671F
102
{ACAD_REACTORS
330
1671E
102
}
330
1671E
100
AcDbXrecord
280
     1
290
     1
  0
XRECORD
  5
16721
102
{ACAD_REACTORS
330
16720
102
}
330
16720
100
AcDbXrecord
280
     1
290
     1
  0
XRECORD
  5
16723
102
{ACAD_REACTORS
330
16722
102
}
330
16722
100
AcDbXrecord
280
     1
290
     1
  0
XRECORD
  5
16725
102
{ACAD_REACTORS
330
16724
102
}
330
16724
100
AcDbXrecord
280
     1
290
     1
  0
SORTENTSTABLE
  5
16644
102
{ACAD_REACTORS
330
16643
102
}
330
16643
100
AcDbSortentsTable
330
747D
331
16369
  5
16645
331
1434E
  5
14356
331
142DF
  5
142ED
331
13AB6
  5
13ACA
331
1434A
  5
14352
331
142DB
  5
142E9
331
13B98
  5
13B9A
331
17634
  5
176B9
331
14346
  5
1434E
331
166E4
  5
166EC
331
166A5
  5
166AD
331
17630
  5
176B1
331
14342
  5
1434A
331
142AB
  5
142E1
331
166E0
  5
166E8
331
166A1
  5
166A9
331
166DC
  5
166E4
331
1669D
  5
166A5
331
166D8
  5
166E0
331
16699
  5
166A1
331
140A6
  5
140D8
331
14934
  5
14F41
331
14761
  5
14938
331
14A1F
  5
14F62
331
154A7
  5
154B3
331
154A3
  5
154AF
331
14FFD
  5
1549F
331
14F46
  5
14F66
331
148D8
  5
1493C
331
17AC7
  5
17ACF
331
1549F
  5
154AC
331
14F42
  5
14F64
331
10B6F
  5
10B6F
331
17AC3
  5
17ACB
331
1549B
  5
154A8
331
17ABF
  5
17AC7
331
14FE1
  5
1549E
331
17ABB
  5
17AC4
331
16365
  5
16557
331
154D3
  5
15986
331
16361
  5
16553
331
13B74
  5
13B98
331
1635D
  5
16369
331
1440D
  5
146C3
331
1433E
  5
14346
331
16359
  5
16365
331
14409
  5
14548
331
1433A
  5
14342
331
14336
  5
1433E
331
166D4
  5
166DC
331
16695
  5
1669D
331
1670B
  5
16916
331
14332
  5
1433A
331
140EC
  5
14151
331
16916
  5
175E1
331
166D0
  5
166D8
331
16707
  5
16912
331
16912
  5
175CD
331
166CC
  5
166D4
331
16703
  5
1670B
331
17600
  5
176A6
331
166C8
  5
166D0
331
14026
  5
140A0
331
15497
  5
154A7
331
15493
  5
154A5
331
14FDD
  5
1549C
331
144EA
  5
148DA
331
17AB7
  5
17AC0
331
10B57
  5
10B57
331
154CF
  5
15982
331
14FD1
  5
15497
331
154CB
  5
15582
331
178FB
  5
17ABC
331
15B3D
  5
1634A
331
154C7
  5
154D3
331
176A8
  5
178C0
331
16355
  5
16361
331
154C3
  5
154CF
331
16351
  5
1635D
331
13A5E
  5
13A5E
331
1634D
  5
16359
331
13B50
  5
13B74
331
16349
  5
16355
331
13B15
  5
13B16
331
1432E
  5
14336
331
1415F
  5
142DB
331
13B48
  5
13B4A
331
1432A
  5
14332
331
166FF
  5
16707
331
175E4
  5
17633
331
1415B
  5
142DA
331
140E0
  5
1413B
331
142EE
  5
1432E
331
166C4
  5
166CC
331
166FB
  5
16703
331
140DC
  5
14139
331
166C0
  5
166C8
331
166F7
  5
166FF
331
175D8
  5
1762E
331
140D8
  5
14111
331
166F3
  5
166FB
331
166BC
  5
166C4
331
166B8
  5
166C0
331
14002
  5
1409F
331
178F7
  5
17AB8
331
154BE
  5
154CA
331
178F3
  5
178FB
331
154BA
  5
154C6
331
14F6D
  5
15491
331
178E3
  5
178FA
331
17ADA
  5
1440B
331
1598E
  5
159DD
331
16345
  5
16351
331
1598A
  5
159D9
331
16341
  5
1634D
331
13BAF
  5
13EA0
331
13BAB
  5
13E9E
331
1413B
  5
142AB
331
175D0
  5
17626
331
14355
  5
143A4
331
166B4
  5
166BC
331
144D8
  5
148D8
331
142E2
  5
14328
331
14351
  5
1439F
331
166EF
  5
166F7
331
166B0
  5
166B8
331
166EB
  5
166F3
331
166AC
  5
166B4
331
166A8
  5
166B0
331
13F1A
  5
14002
331
13F16
  5
13F1A
331
13EA7
  5
13EB4
331
140A9
  5
140DB
331
154B6
  5
154C2
331
1493B
  5
14F4A
331
154B2
  5
154BE
331
14F65
  5
14FDF
331
17AD6
  5
144D8
331
154AE
  5
154BA
331
15008
  5
154A2
331
14F61
  5
14FD1
331
154AA
  5
154B6
331
14F5D
  5
14F69
331
13A41
  5
13A41
331
159DD
  5
16349
331
15986
  5
159D5
331
17ACE
  5
17AD8
331
10B76
  5
10B76
331
159D9
  5
16345
331
15982
  5
1598E
331
17ACA
  5
17AD4
331
10B72
  5
10B72
331
159D5
  5
16341
331
165B7
  5
16696
331
13B3C
  5
13B3E
331
16368
  5
16642
331
1434D
  5
14355
331
14127
  5
14186
331
13B30
  5
13B3C
331
144D0
  5
148D6
331
14349
  5
14351
331
142DA
  5
142E7
331
166E7
  5
166EF
331
1762F
  5
176A9
331
14345
  5
1434D
331
166E3
  5
166EB
331
166A4
  5
166AC
331
14341
  5
14349
331
142AA
  5
142E0
331
166DF
  5
166E7
331
166A0
  5
166A8
331
166DB
  5
166E3
331
1669C
  5
166A4
331
16698
  5
166A0
331
140A5
  5
140AB
331
13E9F
  5
13EA2
331
140A1
  5
140A9
331
14937
  5
14F44
331
14933
  5
14A1F
331
14760
  5
14937
331
154A6
  5
154B2
331
1475C
  5
14936
331
154A2
  5
154AE
331
14F45
  5
14F65
331
17AC6
  5
17ACE
331
1549E
  5
154AB
331
14F41
  5
14F63
331
17AC2
  5
17ACA
331
17ABA
  5
17AC3
331
10B5E
  5
10B5E
331
15582
  5
1598A
331
176BB
  5
178E3
331
16364
  5
16556
331
13B77
  5
13B99
331
154D2
  5
15985
331
16360
  5
16552
331
1635C
  5
16368
331
16358
  5
16364
331
1440C
  5
146C2
331
1433D
  5
14345
331
142A6
  5
142DF
331
13B20
  5
13B22
331
14408
  5
144E9
331
14339
  5
14341
331
166D7
  5
166DF
331
14335
  5
1433D
331
14186
  5
142DC
331
140EF
  5
14156
331
166D3
  5
166DB
331
16694
  5
1669C
331
1670A
  5
16915
331
14331
  5
14339
331
16915
  5
175E0
331
166CF
  5
166D7
331
16706
  5
16911
331
16911
  5
1754F
331
166CB
  5
166D3
331
16702
  5
1670A
331
1402D
  5
140A5
331
148D7
  5
1493B
331
13EBE
  5
13F17
331
144E9
  5
148D9
331
15492
  5
154A4
331
17AB6
  5
17ABF
331
14FDC
  5
1549B
331
176B3
  5
178E2
331
10B56
  5
10B56
331
154CE
  5
15981
331
178FA
  5
17ABB
331
154CA
  5
15581
331
176AB
  5
178E1
331
154C6
  5
154D2
331
154C2
  5
154CE
331
16354
  5
16360
331
16350
  5
1635C
331
13B18
  5
13B20
331
13B4F
  5
13B59
331
1634C
  5
16358
331
13B4B
  5
13B4F
331
13A55
  5
13A55
331
143A4
  5
144D0
331
175E7
  5
17636
331
1432D
  5
14335
331
16348
  5
16354
331
143A0
  5
1440C
331
175E3
  5
17632
331
14329
  5
14331
331
166C7
  5
166CF
331
166FE
  5
16706
331
142ED
  5
1432D
331
14156
  5
142D9
331
166C3
  5
166CB
331
166FA
  5
16702
331
142E9
  5
1432B
331
140DB
  5
14130
331
166F6
  5
166FE
331
166BF
  5
166C7
331
166F2
  5
166FA
331
166BB
  5
166C3
331
149D6
  5
14F61
331
14001
  5
1409C
331
178F6
  5
17AB7
331
154BD
  5
154C9
331
154B9
  5
154C5
331
14F6C
  5
15008
331
178E2
  5
178F9
331
17AD9
  5
13BA9
331
1598D
  5
159DC
331
15989
  5
159D8
331
16344
  5
16350
331
16340
  5
1634C
331
13B47
  5
13B49
331
13AD8
  5
13B15
331
13BAE
  5
13E9F
331
13BAA
  5
13BAF
331
175D7
  5
1762D
331
14358
  5
14409
331
166B7
  5
166BF
331
142E5
  5
14329
331
14354
  5
143A3
331
166B3
  5
166BB
331
142E1
  5
142EF
331
14350
  5
14358
331
166EE
  5
166F6
331
166AF
  5
166B7
331
166EA
  5
166F2
331
166AB
  5
166B3
331
13F19
  5
14001
331
13F15
  5
13F19
331
13EA6
  5
13EA9
331
140A8
  5
140DA
331
13EA2
  5
13EA7
331
1493A
  5
14F49
331
154B5
  5
154C1
331
154B1
  5
154BD
331
17AD5
  5
140EF
331
14F64
  5
14FDE
331
154AD
  5
154B9
331
178C2
  5
178F7
331
14F60
  5
14F8A
331
154A9
  5
154B5
331
17ACD
  5
17AD7
331
159DC
  5
16348
331
15985
  5
159D4
331
10B79
  5
10B79
331
14F5C
  5
14F68
331
17AC9
  5
17AD3
331
159D8
  5
16344
331
15981
  5
1598D
331
10B75
  5
10B75
331
159D4
  5
16340
331
13BA6
  5
13BAA
331
13B3F
  5
13B48
331
16553
  5
16693
331
165BA
  5
16699
331
165B6
  5
16695
331
1636B
  5
16647
331
13B9A
  5
13BA6
331
1754F
  5
175FD
331
1434C
  5
14354
331
14348
  5
14350
331
142D9
  5
142E5
331
144C7
  5
148D5
331
166E6
  5
166EE
331
166A7
  5
166AF
331
14344
  5
1434C
331
142AD
  5
142E2
331
166E2
  5
166EA
331
166A3
  5
166AB
331
14340
  5
14348
331
1411A
  5
1415F
331
166DE
  5
166E6
331
1669F
  5
166A7
331
166DA
  5
166E2
331
1669B
  5
166A3
331
13E9E
  5
13EA1
331
14936
  5
14F43
331
140A0
  5
140A8
331
1409C
  5
140A6
331
148DA
  5
149D6
331
1475B
  5
14935
331
154A5
  5
154B1
331
14548
  5
14933
331
17AC5
  5
17ACD
331
154A1
  5
154AD
331
17AC1
  5
17AC9
331
10B6D
  5
10B6D
331
1549D
  5
154AA
331
17ABD
  5
17AC6
331
17AB9
  5
17AC2
331
15581
  5
15989
331
10B5D
  5
10B5D
331
154D5
  5
15988
331
10B59
  5
10B59
331
16367
  5
165BA
331
154D1
  5
15984
331
13B2F
  5
13B30
331
16363
  5
16555
331
13A6C
  5
13AB6
331
1635F
  5
1636B
331
1635B
  5
16367
331
13B23
  5
13B2F
331
1440B
  5
1456D
331
1433C
  5
14344
331
13A60
  5
13A63
331
14338
  5
14340
331
14407
  5
144D2
331
166D6
  5
166DE
331
16697
  5
1669F
331
1670D
  5
17547
331
14334
  5
1433C
331
166D2
  5
166DA
331
16693
  5
1669B
331
16709
  5
16914
331
14330
  5
14338
331
16914
  5
175D5
331
166CE
  5
166D6
331
16705
  5
1670D
331
166CA
  5
166D2
331
16701
  5
16709
331
14028
  5
140A3
331
148D6
  5
1493A
331
13EBD
  5
13F16
331
14FDF
  5
1549D
331
17AB5
  5
17ABD
331
15491
  5
154A3
331
154CD
  5
15980
331
178F9
  5
17ABA
331
176AA
  5
178C2
331
154C9
  5
154D5
331
10EA8
  5
10EA8
331
16357
  5
16363
331
154C5
  5
154D1
331
16353
  5
1635F
331
154C1
  5
154CD
331
1634F
  5
1635B
331
1634B
  5
16357
331
13B17
  5
13B18
331
13B4E
  5
13B50
331
13B4A
  5
13B4D
331
143A3
  5
144C7
331
1432C
  5
14334
331
13A54
  5
13A54
331
14328
  5
14330
331
1439F
  5
1440A
331
166C6
  5
166CE
331
166FD
  5
16705
331
142EC
  5
1432C
331
166C2
  5
166CA
331
166F9
  5
16701
331
14151
  5
142AD
331
140DA
  5
14127
331
166F5
  5
166FD
331
166BE
  5
166C6
331
166F1
  5
166F9
331
166BA
  5
166C2
331
14000
  5
14028
331
13EB5
  5
13F15
331
178F5
  5
17AB6
331
154BC
  5
154C8
331
14F6F
  5
15493
331
13A4F
  5
13A4F
331
154B8
  5
154C4
331
178E1
  5
178F8
331
17AD8
  5
140E0
331
10B88
  5
10B88
331
16347
  5
16353
331
1598C
  5
159DB
331
16343
  5
1634F
331
15988
  5
159D7
331
13AD7
  5
13AD8
331
13BA9
  5
13BAD
331
14139
  5
142AA
331
14357
  5
14408
331
166B6
  5
166BE
331
14353
  5
143A2
331
166B2
  5
166BA
331
142E0
  5
142EE
331
166ED
  5
166F5
331
166AE
  5
166B6
331
166E9
  5
166F1
331
166AA
  5
166B2
331
13F18
  5
14000
331
13EA9
  5
13EBD
331
140AB
  5
140EC
331
13EA5
  5
13EA8
331
13EA1
  5
13EA6
331
154B4
  5
154C0
331
14F67
  5
14FFD
331
14939
  5
14F46
331
154B0
  5
154BC
331
17AD4
  5
13B47
331
14F63
  5
14FDD
331
154AC
  5
154B8
331
178C1
  5
178F6
331
17AD0
  5
17ADA
331
14F5F
  5
14F6B
331
154A8
  5
154B4
331
15002
  5
154A1
331
17ACC
  5
17AD6
331
14F5B
  5
14F67
331
159DB
  5
16347
331
15984
  5
159D3
331
17AC8
  5
17AD0
331
10B74
  5
10B74
331
159D7
  5
16343
331
15980
  5
1598C
331
159D3
  5
15B3E
331
16552
  5
16692
331
165B9
  5
16698
331
13BA5
  5
13BA8
331
13B3E
  5
13B3F
331
165B5
  5
16694
331
1434F
  5
14357
331
1636A
  5
16646
331
144D2
  5
148D7
331
1434B
  5
14353
331
142DC
  5
142EC
331
13B99
  5
13BA5
331
1754E
  5
178F4
331
17635
  5
176BC
331
14347
  5
1434F
331
166E5
  5
166ED
331
166A6
  5
166AE
331
1754A
  5
178F3
331
14343
  5
1434B
331
166E1
  5
166E9
331
166A2
  5
166AA
331
17546
  5
175E4
331
166DD
  5
166E5
331
1669E
  5
166A6
331
17629
  5
176A8
331
166D9
  5
166E1
331
1669A
  5
166A2
331
140A7
  5
140D9
331
140A3
  5
140AA
331
1409F
  5
140A7
331
14935
  5
14F42
331
154A4
  5
154B0
331
148D9
  5
149B4
331
17AC4
  5
17ACC
331
17AC0
  5
17AC8
331
10B6C
  5
10B6C
331
1549C
  5
154A9
331
17ABC
  5
17AC5
331
17AB8
  5
17AC1
331
10B5C
  5
10B5C
331
16366
  5
165B9
331
154D4
  5
15987
331
16362
  5
16554
331
154D0
  5
15983
331
1635E
  5
1636A
331
13A6B
  5
13A6C
331
1440E
  5
1475B
331
1433F
  5
14347
331
1635A
  5
16366
331
13B59
  5
13B77
331
1440A
  5
14562
331
1433B
  5
14343
331
13A63
  5
13A6B
331
13B22
  5
13B23
331
14337
  5
1433F
331
14111
  5
1415B
331
166D5
  5
166DD
331
16696
  5
1669E
331
1670C
  5
17546
331
17611
  5
176A7
331
14333
  5
1433B
331
166D1
  5
166D9
331
16692
  5
1669A
331
16708
  5
16913
331
16913
  5
175D4
331
166CD
  5
166D5
331
16704
  5
1670C
331
166C9
  5
166D1
331
16700
  5
16708
331
14027
  5
140A1
331
148D5
  5
14939
331
15494
  5
154A6
331
154CC
  5
1597F
331
178F8
  5
17AB9
331
176A9
  5
178C1
331
15B3E
  5
1634B
331
154C8
  5
154D4
331
16356
  5
16362
331
154C4
  5
154D0
331
16352
  5
1635E
331
13A5F
  5
13A60
331
154C0
  5
154CC
331
1634E
  5
1635A
331
1634A
  5
16356
331
1432F
  5
14337
331
13B16
  5
13B17
331
143A2
  5
1440E
331
1432B
  5
14333
331
13B49
  5
13B4B
331
142EF
  5
1432F
331
166C5
  5
166CD
331
166FC
  5
16704
331
166C1
  5
166C9
331
166F8
  5
16700
331
140D9
  5
1411A
331
166F4
  5
166FC
331
166BD
  5
166C5
331
166F0
  5
166F8
331
166B9
  5
166C1
331
13FFF
  5
14026
331
13EB4
  5
13EBE
331
154BF
  5
154CB
331
178F4
  5
17AB5
331
14F8A
  5
15494
331
154BB
  5
154C7
331
14F6E
  5
15492
331
1598F
  5
15B3D
331
16346
  5
16352
331
1598B
  5
159DA
331
16342
  5
1634E
331
13BA8
  5
13BAB
331
142E7
  5
1432A
331
14356
  5
14407
331
166B5
  5
166BD
331
14352
  5
143A0
331
166B1
  5
166B9
331
175C5
  5
1760E
331
14130
  5
142A6
331
166EC
  5
166F4
331
166AD
  5
166B5
331
17638
  5
176BD
331
166E8
  5
166F0
331
166A9
  5
166B1
331
13EA8
  5
13EB5
331
13F17
  5
13FFF
331
149B4
  5
14F60
331
140AA
  5
140DC
331
13EA0
  5
13EA5
331
154B7
  5
154C3
331
1493C
  5
14F5F
331
14938
  5
14F45
331
154B3
  5
154BF
331
17AD7
  5
144EA
331
14F66
  5
14FE1
331
14562
  5
14934
331
154AF
  5
154BB
331
14F62
  5
14FDC
331
17AD3
  5
1440D
331
154AB
  5
154B7
331
14F5E
  5
14F6A
331
17ACF
  5
17AD9
331
10B7B
  5
10B7B
331
15987
  5
159D6
331
178C0
  5
178F5
331
159DA
  5
16346
331
15983
  5
1598F
331
17ACB
  5
17AD5
331
10B73
  5
10B73
331
159D6
  5
16342
331
1597F
  5
1598B
331
165B8
  5
16697
331
13ACA
  5
13AD7
  0
ACDBDETAILVIEWSTYLE
  5
16637
102
{ACAD_XDICTIONARY
360
16742
102
}
102
{ACAD_REACTORS
330
16636
102
}
330
16636
100
AcDbModelDocViewStyle
 70
     0
  3
Metric50
290
     0
100
AcDbDetailViewStyle
 70
     0
 71
     0
 90
        3
 71
     1
340
7475
 40
5.0
340
0
 40
5.0
300

 40
0.0
280
     1
 71
     2
340
7479
 90
       25
 71
     3
340
7475
 40
5.0
 90
        0
 40
15.0
 90
        1
300
%<\AcVar ViewDetailId>% (%<\AcVar ViewScale \f "%sn">%)
 71
     4
340
7479
 90
       25
340
7479
 90
       25
280
     0
  0
GROUP
  5
17AB4
102
{ACAD_REACTORS
330
7472
102
}
330
7472
100
AcDbGroup
300

 70
     1
 71
     1
340
178F7
340
178FB
340
178FA
340
178F9
340
178F8
340
178F6
340
178F5
340
178F4
340
178F3
  0
GROUP
  5
17ABE
102
{ACAD_REACTORS
330
7472
102
}
330
7472
100
AcDbGroup
300

 70
     1
 71
     1
340
17AB9
340
17ABD
340
17ABC
340
17ABB
340
17ABA
340
17AB8
340
17AB7
340
17AB6
340
17AB5
  0
GROUP
  5
17AD1
102
{ACAD_REACTORS
330
7472
102
}
330
7472
100
AcDbGroup
300

 70
     1
 71
     1
340
17ACC
340
17AD0
340
17ACF
340
17ACE
340
17ACD
340
17ACB
340
17ACA
340
17AC9
340
17AC8
  0
GROUP
  5
17AD2
102
{ACAD_REACTORS
330
7472
102
}
330
7472
100
AcDbGroup
300

 70
     1
 71
     1
340
17AC3
340
17AC7
340
17AC6
340
17AC5
340
17AC4
340
17AC2
340
17AC1
340
17AC0
340
17ABF
  0
LAYOUT
  5
14A34
102
{ACAD_XDICTIONARY
360
17B32
102
}
102
{ACAD_REACTORS
330
14A32
102
}
330
14A32
100
AcDbPlotSettings
  1

  2
DocuCentre-V C5576
  4
A3
  6

 40
4.900083065032958
 41
4.857729434967041
 42
4.900054931640625
 43
4.90008544921875
 44
297.0106506347656
 45
419.9889831542968
 46
0.0
 47
1.279273977464214
 48
424.6042489999999
 49
264.156711
140
1777.606053
141
968.930615
142
1.0
143
40.46603385292153
 70
  3764
 72
     1
 73
     1
 74
     2
  7
inabass.ctb
 75
     0
147
0.0247120833149751
148
25.79074261211281
149
125.8223078213959
100
AcDbLayout
  1
Model
 70
     1
 71
     0
 10
0.0
 20
0.0
 11
12.0
 21
9.0
 12
0.0
 22
0.0
 32
0.0
 14
0.0
 24
0.0
 34
0.0
 15
0.0
 25
0.0
 35
0.0
146
0.0
 13
0.0
 23
0.0
 33
0.0
 16
1.0
 26
0.0
 36
0.0
 17
0.0
 27
1.0
 37
0.0
 76
     0
330
747D
331
165EB
1001
ACAD_PSEXT
1000
DocuCentre-V C5576
1000
FX DocuCentre-V C5576
1000
128.1.2.106
1000

1070
     0
  0
LAYOUT
  5
14A35
102
{ACAD_XDICTIONARY
360
17B34
102
}
102
{ACAD_REACTORS
330
14A32
102
}
330
14A32
100
AcDbPlotSettings
  1

  2
Microsoft Office Document Image Writer
  4

  6

 40
0.0
 41
0.0
 42
0.0
 43
0.0
 44
0.0
 45
0.0
 46
0.0
 47
0.0
 48
0.0
 49
0.0
140
0.0
141
0.0
142
1.0
143
1.0
 70
   688
 72
     0
 73
     0
 74
     5
  7

 75
    16
147
1.0
148
0.0
149
0.0
100
AcDbLayout
  1
レイアウト1
 70
     0
 71
     1
 10
0.0
 20
0.0
 11
420.0
 21
297.0
 12
0.0
 22
0.0
 32
0.0
 14
1.000000000000000E+20
 24
1.000000000000000E+20
 34
1.000000000000000E+20
 15
-1.000000000000000E+20
 25
-1.000000000000000E+20
 35
-1.000000000000000E+20
146
0.0
 13
0.0
 23
0.0
 33
0.0
 16
1.0
 26
0.0
 36
0.0
 17
0.0
 27
1.0
 37
0.0
 76
     0
330
747A
  0
MATERIAL
  5
165F5
102
{ACAD_XDICTIONARY
360
165F6
102
}
102
{ACAD_REACTORS
330
14A30
102
}
330
14A30
100
AcDbMaterial
  1
ByBlock
 72
     0
 43
0.0208333333333333
 43
0.0
 43
0.0
 43
0.0
 43
0.0
 43
0.0208333333333333
 43
0.0
 43
0.0
 43
0.0
 43
0.0
 43
1.0
 43
0.0
 43
0.0
 43
0.0
 43
0.0
 43
1.0
 77
     0
 47
0.0208333333333333
 47
0.0
 47
0.0
 47
0.0
 47
0.0
 47
0.0208333333333333
 47
0.0
 47
0.0
 47
0.0
 47
0.0
 47
1.0
 47
0.0
 47
0.0
 47
0.0
 47
0.0
 47
1.0
171
     0
 49
0.0208333333333333
 49
0.0
 49
0.0
 49
0.0
 49
0.0
 49
0.0208333333333333
 49
0.0
 49
0.0
 49
0.0
 49
0.0
 49
1.0
 49
0.0
 49
0.0
 49
0.0
 49
0.0
 49
1.0
175
     0
142
0.0208333333333333
142
0.0
142
0.0
142
0.0
142
0.0
142
0.0208333333333333
142
0.0
142
0.0
142
0.0
142
0.0
142
1.0
142
0.0
142
0.0
142
0.0
142
0.0
142
1.0
179
     0
144
0.0208333333333333
144
0.0
144
0.0
144
0.0
144
0.0
144
0.0208333333333333
144
0.0
144
0.0
144
0.0
144
0.0
144
1.0
144
0.0
144
0.0
144
0.0
144
0.0
144
1.0
147
0.0208333333333333
147
0.0
147
0.0
147
0.0
147
0.0
147
0.0208333333333333
147
0.0
147
0.0
147
0.0
147
0.0
147
1.0
147
0.0
147
0.0
147
0.0
147
0.0
147
1.0
  0
MATERIAL
  5
165ED
102
{ACAD_XDICTIONARY
360
165EE
102
}
102
{ACAD_REACTORS
330
14A30
102
}
330
14A30
100
AcDbMaterial
  1
ByLayer
 72
     0
 43
0.0208333333333333
 43
0.0
 43
0.0
 43
0.0
 43
0.0
 43
0.0208333333333333
 43
0.0
 43
0.0
 43
0.0
 43
0.0
 43
1.0
 43
0.0
 43
0.0
 43
0.0
 43
0.0
 43
1.0
 77
     0
 47
0.0208333333333333
 47
0.0
 47
0.0
 47
0.0
 47
0.0
 47
0.0208333333333333
 47
0.0
 47
0.0
 47
0.0
 47
0.0
 47
1.0
 47
0.0
 47
0.0
 47
0.0
 47
0.0
 47
1.0
171
     0
 49
0.0208333333333333
 49
0.0
 49
0.0
 49
0.0
 49
0.0
 49
0.0208333333333333
 49
0.0
 49
0.0
 49
0.0
 49
0.0
 49
1.0
 49
0.0
 49
0.0
 49
0.0
 49
0.0
 49
1.0
175
     0
142
0.0208333333333333
142
0.0
142
0.0
142
0.0
142
0.0
142
0.0208333333333333
142
0.0
142
0.0
142
0.0
142
0.0
142
1.0
142
0.0
142
0.0
142
0.0
142
0.0
142
1.0
179
     0
144
0.0208333333333333
144
0.0
144
0.0
144
0.0
144
0.0
144
0.0208333333333333
144
0.0
144
0.0
144
0.0
144
0.0
144
1.0
144
0.0
144
0.0
144
0.0
144
0.0
144
1.0
147
0.0208333333333333
147
0.0
147
0.0
147
0.0
147
0.0
147
0.0208333333333333
147
0.0
147
0.0
147
0.0
147
0.0
147
1.0
147
0.0
147
0.0
147
0.0
147
0.0
147
1.0
  0
MATERIAL
  5
165FD
102
{ACAD_XDICTIONARY
360
165FE
102
}
102
{ACAD_REACTORS
330
14A30
102
}
330
14A30
100
AcDbMaterial
  1
Global
 72
     0
 43
0.0208333333333333
 43
0.0
 43
0.0
 43
0.0
 43
0.0
 43
0.0208333333333333
 43
0.0
 43
0.0
 43
0.0
 43
0.0
 43
1.0
 43
0.0
 43
0.0
 43
0.0
 43
0.0
 43
1.0
 77
     0
 47
0.0208333333333333
 47
0.0
 47
0.0
 47
0.0
 47
0.0
 47
0.0208333333333333
 47
0.0
 47
0.0
 47
0.0
 47
0.0
 47
1.0
 47
0.0
 47
0.0
 47
0.0
 47
0.0
 47
1.0
171
     0
 49
0.0208333333333333
 49
0.0
 49
0.0
 49
0.0
 49
0.0
 49
0.0208333333333333
 49
0.0
 49
0.0
 49
0.0
 49
0.0
 49
1.0
 49
0.0
 49
0.0
 49
0.0
 49
0.0
 49
1.0
175
     0
142
0.0208333333333333
142
0.0
142
0.0
142
0.0
142
0.0
142
0.0208333333333333
142
0.0
142
0.0
142
0.0
142
0.0
142
1.0
142
0.0
142
0.0
142
0.0
142
0.0
142
1.0
179
     0
144
0.0208333333333333
144
0.0
144
0.0
144
0.0
144
0.0
144
0.0208333333333333
144
0.0
144
0.0
144
0.0
144
0.0
144
1.0
144
0.0
144
0.0
144
0.0
144
0.0
144
1.0
147
0.0208333333333333
147
0.0
147
0.0
147
0.0
147
0.0
147
0.0208333333333333
147
0.0
147
0.0
147
0.0
147
0.0
147
1.0
147
0.0
147
0.0
147
0.0
147
0.0
147
1.0
  0
MLEADERSTYLE
  5
16633
102
{ACAD_XDICTIONARY
360
17B6B
102
}
102
{ACAD_REACTORS
330
16632
102
}
330
16632
100
AcDbMLeaderStyle
170
     2
171
     1
172
     0
 90
        2
 40
0.0
 41
0.0
173
     1
 91
-1056964608
340
7477
 92
       -2
290
     1
 42
2.0
291
     1
 43
0.36
  3
Standard
 44
4.0
300

342
7475
174
     1
178
     6
175
     1
176
     0
 93
-1056964608
 45
4.0
292
     0
297
     0
 46
4.0
 94
-1056964608
 47
1.0
 49
1.0
140
1.0
293
     1
141
0.0
294
     1
177
     0
142
1.0
295
     0
296
     0
143
0.125
1001
ACAD_MLEADERVER
1070
     2
  0
MLINESTYLE
  5
7480
102
{ACAD_REACTORS
330
7473
102
}
330
7473
100
AcDbMlineStyle
  2
STANDARD
 70
     0
  3

 62
     0
 51
90.0
 52
90.0
 71
     2
 49
0.5
 62
   256
  6
BYLAYER
 49
-0.5
 62
   256
  6
BYLAYER
  0
ACDBPLACEHOLDER
  5
14A2F
102
{ACAD_REACTORS
330
14A2E
102
}
330
14A2E
  0
SCALE
  5
16621
102
{ACAD_REACTORS
330
16620
102
}
330
16620
100
AcDbScale
 70
     0
300
1:1
140
1.0
141
1.0
290
     1
  0
SCALE
  5
16622
102
{ACAD_REACTORS
330
16620
102
}
330
16620
100
AcDbScale
 70
     0
300
1:2
140
1.0
141
2.0
290
     0
  0
SCALE
  5
16623
102
{ACAD_REACTORS
330
16620
102
}
330
16620
100
AcDbScale
 70
     0
300
1:4
140
1.0
141
4.0
290
     0
  0
SCALE
  5
16624
102
{ACAD_REACTORS
330
16620
102
}
330
16620
100
AcDbScale
 70
     0
300
1:5
140
1.0
141
5.0
290
     0
  0
SCALE
  5
16625
102
{ACAD_REACTORS
330
16620
102
}
330
16620
100
AcDbScale
 70
     0
300
1:8
140
1.0
141
8.0
290
     0
  0
SCALE
  5
16626
102
{ACAD_REACTORS
330
16620
102
}
330
16620
100
AcDbScale
 70
     0
300
1:10
140
1.0
141
10.0
290
     0
  0
SCALE
  5
16627
102
{ACAD_REACTORS
330
16620
102
}
330
16620
100
AcDbScale
 70
     0
300
1:16
140
1.0
141
16.0
290
     0
  0
SCALE
  5
16628
102
{ACAD_REACTORS
330
16620
102
}
330
16620
100
AcDbScale
 70
     0
300
1:20
140
1.0
141
20.0
290
     0
  0
SCALE
  5
16629
102
{ACAD_REACTORS
330
16620
102
}
330
16620
100
AcDbScale
 70
     0
300
1:30
140
1.0
141
30.0
290
     0
  0
SCALE
  5
1662A
102
{ACAD_REACTORS
330
16620
102
}
330
16620
100
AcDbScale
 70
     0
300
1:40
140
1.0
141
40.0
290
     0
  0
SCALE
  5
1662B
102
{ACAD_REACTORS
330
16620
102
}
330
16620
100
AcDbScale
 70
     0
300
1:50
140
1.0
141
50.0
290
     0
  0
SCALE
  5
1662C
102
{ACAD_REACTORS
330
16620
102
}
330
16620
100
AcDbScale
 70
     0
300
1:100
140
1.0
141
100.0
290
     0
  0
SCALE
  5
1662D
102
{ACAD_REACTORS
330
16620
102
}
330
16620
100
AcDbScale
 70
     0
300
2:1
140
2.0
141
1.0
290
     0
  0
SCALE
  5
1662E
102
{ACAD_REACTORS
330
16620
102
}
330
16620
100
AcDbScale
 70
     0
300
4:1
140
4.0
141
1.0
290
     0
  0
SCALE
  5
1662F
102
{ACAD_REACTORS
330
16620
102
}
330
16620
100
AcDbScale
 70
     0
300
8:1
140
8.0
141
1.0
290
     0
  0
SCALE
  5
16630
102
{ACAD_REACTORS
330
16620
102
}
330
16620
100
AcDbScale
 70
     0
300
10:1
140
10.0
141
1.0
290
     0
  0
SCALE
  5
16631
102
{ACAD_REACTORS
330
16620
102
}
330
16620
100
AcDbScale
 70
     0
300
100:1
140
100.0
141
1.0
290
     0
  0
ACDBSECTIONVIEWSTYLE
  5
16635
102
{ACAD_XDICTIONARY
360
16740
102
}
102
{ACAD_REACTORS
330
16634
102
}
330
16634
100
AcDbModelDocViewStyle
 70
     0
  3
Metric50
290
     0
100
AcDbSectionViewStyle
 70
     0
 71
     0
 90
      102
 71
     1
340
7475
 40
5.0
340
0
340
0
 40
5.0
300
I, O, Q, S, X, Z
 40
10.0
 90
        0
 40
2.5
 90
        0
 71
     2
340
7479
 90
       25
340
7479
 90
       50
 40
5.0
 40
2.5
 40
5.0
 71
     3
340
7475
 40
5.0
 90
        0
 40
15.0
 90
        1
300
%<\AcVar ViewSectionStartId>%-%<\AcVar ViewSectionEndId>% (%<\AcVar ViewScale \f "%sn">%)
 71
     4
300
ANSI31
 40
1.0
 90
        0
290
     0
290
     0
 90
        6
 40
0.0
 40
1.570796326794896
 40
0.2617993877991494
 40
1.308996938995747
 40
-0.2617993877991494
 40
1.832595714594046
  0
TABLESTYLE
  5
1661F
102
{ACAD_XDICTIONARY
360
17B24
102
}
102
{ACAD_REACTORS
330
1661E
102
}
330
1661E
100
AcDbTableStyle
  3
Standard
 70
     0
 71
     0
 40
1.5
 41
1.5
280
     0
281
     0
  7
STANDARD
140
4.5
170
     2
 62
     0
 63
     7
283
     0
274
    -2
284
     1
 64
     0
275
    -2
285
     1
 65
     0
276
    -2
286
     1
 66
     0
277
    -2
287
     1
 67
     0
278
    -2
288
     1
 68
     0
279
    -2
289
     1
 69
     0
  7
STANDARD
140
6.0
170
     5
 62
     0
 63
     7
283
     0
274
    -2
284
     1
 64
     0
275
    -2
285
     1
 65
     0
276
    -2
286
     1
 66
     0
277
    -2
287
     1
 67
     0
278
    -2
288
     1
 68
     0
279
    -2
289
     1
 69
     0
  7
STANDARD
140
4.5
170
     5
 62
     0
 63
     7
283
     0
274
    -2
284
     1
 64
     0
275
    -2
285
     1
 65
     0
276
    -2
286
     1
 66
     0
277
    -2
287
     1
 67
     0
278
    -2
288
     1
 68
     0
279
    -2
289
     1
 69
     0
  0
VISUALSTYLE
  5
1660B
102
{ACAD_XDICTIONARY
360
17B43
102
}
102
{ACAD_REACTORS
330
16605
102
}
330
16605
100
AcDbVisualStyle
  2
2dWireframe
 70
     4
 71
     0
 72
     2
 73
     0
 90
        0
 40
-0.6
 41
-30.0
 62
     5
 63
     7
 74
     1
 91
        4
 64
     7
 65
   257
 75
     1
175
     1
 42
1.0
 92
        0
 66
   257
 43
1.0
 76
     1
 77
     6
 78
     2
 67
     7
 79
     5
170
     0
171
     0
290
     0
174
     0
 93
        1
 44
0.0
173
     0
291
     0
 45
0.0
1001
ACAD
1000
AcDbSavedByObjectVersion
1070
     0
  0
VISUALSTYLE
  5
1660A
102
{ACAD_XDICTIONARY
360
17B41
102
}
102
{ACAD_REACTORS
330
16605
102
}
330
16605
100
AcDbVisualStyle
  2
Basic
 70
     7
 71
     1
 72
     0
 73
     1
 90
        0
 40
-0.6
 41
-30.0
 62
     5
 63
     7
 74
     0
 91
        4
 64
     7
 65
   257
 75
     1
175
     1
 42
1.0
 92
        8
 66
     7
 43
1.0
 76
     1
 77
     6
 78
     2
 67
     7
 79
     5
170
     0
171
     0
290
     0
174
     0
 93
        1
 44
0.0
173
     0
291
     1
 45
0.0
1001
ACAD
1000
AcDbSavedByObjectVersion
1070
     0
  0
VISUALSTYLE
  5
16611
102
{ACAD_XDICTIONARY
360
17B4F
102
}
102
{ACAD_REACTORS
330
16605
102
}
330
16605
100
AcDbVisualStyle
  2
Brighten
 70
    12
 71
     2
 72
     2
 73
     0
 90
        0
 40
-0.6
 41
-30.0
 62
     5
 63
     7
 74
     1
 91
        4
 64
     7
 65
   257
 75
     1
175
     1
 42
1.0
 92
        8
 66
     7
 43
1.0
 76
     1
 77
     6
 78
     2
 67
     7
 79
     5
170
     0
171
     0
290
     0
174
     0
 93
        1
 44
50.0
173
     0
291
     1
 45
0.0
1001
ACAD
1000
AcDbSavedByObjectVersion
1070
     0
  0
VISUALSTYLE
  5
16615
102
{ACAD_XDICTIONARY
360
17B57
102
}
102
{ACAD_REACTORS
330
16605
102
}
330
16605
100
AcDbVisualStyle
  2
ColorChange
 70
    16
 71
     2
 72
     2
 73
     3
 90
        0
 40
-0.6
 41
-30.0
 62
     5
 63
     8
 74
     1
 91
        4
 64
     7
 65
   257
 75
     1
175
     1
 42
1.0
 92
        8
 66
     8
 43
1.0
 76
     1
 77
     6
 78
     2
 67
     7
 79
     5
170
     0
171
     0
290
     0
174
     0
 93
        1
 44
0.0
173
     0
291
     1
 45
0.0
1001
ACAD
1000
AcDbSavedByObjectVersion
1070
     0
  0
VISUALSTYLE
  5
1660E
102
{ACAD_XDICTIONARY
360
17B49
102
}
102
{ACAD_REACTORS
330
16605
102
}
330
16605
100
AcDbVisualStyle
  2
Conceptual
 70
     9
 71
     3
 72
     2
 73
     0
 90
        0
 40
-0.6
 41
-30.0
 62
     5
 63
     7
 74
     2
 91
        2
 64
     7
 65
   257
 75
     1
175
     1
 42
179.0
 92
        8
 66
     7
 43
1.0
 76
     1
 77
     6
 78
     2
 67
     7
 79
     3
170
     0
171
     0
290
     0
174
     0
 93
        1
 44
0.0
173
     0
291
     0
 45
0.0
1001
ACAD
1000
AcDbSavedByObjectVersion
1070
     0
  0
VISUALSTYLE
  5
16610
102
{ACAD_XDICTIONARY
360
17B4D
102
}
102
{ACAD_REACTORS
330
16605
102
}
330
16605
100
AcDbVisualStyle
  2
Dim
 70
    11
 71
     2
 72
     2
 73
     0
 90
        0
 40
-0.6
 41
-30.0
 62
     5
 63
     7
 74
     1
 91
        4
 64
     7
 65
   257
 75
     1
175
     1
 42
1.0
 92
        8
 66
     7
 43
1.0
 76
     1
 77
     6
 78
     2
 67
     7
 79
     5
170
     0
171
     0
290
     0
174
     0
 93
        1
 44
-50.0
173
     0
291
     1
 45
0.0
1001
ACAD
1000
AcDbSavedByObjectVersion
1070
     0
  0
VISUALSTYLE
  5
1661D
102
{ACAD_XDICTIONARY
360
17B67
102
}
102
{ACAD_REACTORS
330
16605
102
}
330
16605
100
AcDbVisualStyle
  2
EdgeColorOff
 70
    22
 71
     2
 72
     2
 73
     0
 90
        0
 40
-0.6
 41
-30.0
 62
     5
 63
     7
 74
     1
 91
        4
 64
     7
 65
   257
 75
     1
175
     1
 42
1.0
 92
        8
 66
     7
 43
1.0
 76
     1
 77
     6
 78
     2
 67
     7
 79
     5
170
     0
171
     0
290
     0
174
     0
 93
        1
 44
0.0
173
     0
291
     1
 45
0.0
1001
ACAD
1000
AcDbSavedByObjectVersion
1070
     0
  0
VISUALSTYLE
  5
16614
102
{ACAD_XDICTIONARY
360
17B55
102
}
102
{ACAD_REACTORS
330
16605
102
}
330
16605
100
AcDbVisualStyle
  2
Facepattern
 70
    15
 71
     2
 72
     2
 73
     0
 90
        0
 40
-0.6
 41
-30.0
 62
     5
 63
     7
 74
     1
 91
        4
 64
     7
 65
   257
 75
     1
175
     1
 42
1.0
 92
        8
 66
     7
 43
1.0
 76
     1
 77
     6
 78
     2
 67
     7
 79
     5
170
     0
171
     0
290
     0
174
     0
 93
        1
 44
0.0
173
     0
291
     1
 45
0.0
1001
ACAD
1000
AcDbSavedByObjectVersion
1070
     0
  0
VISUALSTYLE
  5
16606
102
{ACAD_XDICTIONARY
360
17B39
102
}
102
{ACAD_REACTORS
330
16605
102
}
330
16605
100
AcDbVisualStyle
  2
Flat
 70
     0
 71
     2
 72
     1
 73
     1
 90
        2
 40
-0.6
 41
30.0
 62
     5
 63
     7
 74
     0
 91
        0
 64
     7
 65
   257
 75
     1
175
     1
 42
1.0
 92
        8
 66
     7
 43
1.0
 76
     1
 77
     6
 78
     2
 67
     7
 79
     5
170
     0
171
     0
290
     0
174
     0
 93
       13
 44
0.0
173
     0
291
     1
 45
0.0
1001
ACAD
1000
AcDbSavedByObjectVersion
1070
     0
  0
VISUALSTYLE
  5
16607
102
{ACAD_XDICTIONARY
360
17B3B
102
}
102
{ACAD_REACTORS
330
16605
102
}
330
16605
100
AcDbVisualStyle
  2
FlatWithEdges
 70
     1
 71
     2
 72
     1
 73
     1
 90
        2
 40
-0.6
 41
30.0
 62
     5
 63
     7
 74
     1
 91
        0
 64
     7
 65
   257
 75
     1
175
     1
 42
1.0
 92
        0
 66
   257
 43
1.0
 76
     1
 77
     6
 78
     2
 67
     7
 79
     5
170
     0
171
     0
290
     0
174
     0
 93
       13
 44
0.0
173
     0
291
     1
 45
0.0
1001
ACAD
1000
AcDbSavedByObjectVersion
1070
     0
  0
VISUALSTYLE
  5
16608
102
{ACAD_XDICTIONARY
360
17B3D
102
}
102
{ACAD_REACTORS
330
16605
102
}
330
16605
100
AcDbVisualStyle
  2
Gouraud
 70
     2
 71
     2
 72
     2
 73
     1
 90
        2
 40
-0.6
 41
30.0
 62
     5
 63
     7
 74
     0
 91
        0
 64
     7
 65
   257
 75
     1
175
     1
 42
1.0
 92
        0
 66
     7
 43
1.0
 76
     1
 77
     6
 78
     2
 67
     7
 79
     5
170
     0
171
     0
290
     0
174
     0
 93
       13
 44
0.0
173
     0
291
     1
 45
0.0
1001
ACAD
1000
AcDbSavedByObjectVersion
1070
     0
  0
VISUALSTYLE
  5
16609
102
{ACAD_XDICTIONARY
360
17B3F
102
}
102
{ACAD_REACTORS
330
16605
102
}
330
16605
100
AcDbVisualStyle
  2
GouraudWithEdges
 70
     3
 71
     2
 72
     2
 73
     1
 90
        2
 40
-0.6
 41
30.0
 62
     5
 63
     7
 74
     1
 91
        0
 64
     7
 65
   257
 75
     1
175
     1
 42
1.0
 92
        0
 66
   257
 43
1.0
 76
     1
 77
     6
 78
     2
 67
     7
 79
     5
170
     0
171
     0
290
     0
174
     0
 93
       13
 44
0.0
173
     0
291
     1
 45
0.0
1001
ACAD
1000
AcDbSavedByObjectVersion
1070
     0
  0
VISUALSTYLE
  5
1660D
102
{ACAD_XDICTIONARY
360
17B47
102
}
102
{ACAD_REACTORS
330
16605
102
}
330
16605
100
AcDbVisualStyle
  2
Hidden
 70
     6
 71
     1
 72
     2
 73
     2
 90
        0
 40
-0.6
 41
-30.0
 62
     5
 63
     7
 74
     2
 91
        2
 64
     7
 65
   257
 75
     2
175
     1
 42
40.0
 92
        0
 66
   257
 43
1.0
 76
     1
 77
     6
 78
     2
 67
     7
 79
     3
170
     0
171
     0
290
     0
174
     0
 93
        1
 44
0.0
173
     0
291
     0
 45
0.0
1001
ACAD
1000
AcDbSavedByObjectVersion
1070
     0
  0
VISUALSTYLE
  5
1661B
102
{ACAD_XDICTIONARY
360
17B63
102
}
102
{ACAD_REACTORS
330
16605
102
}
330
16605
100
AcDbVisualStyle
  2
JitterOff
 70
    20
 71
     2
 72
     2
 73
     0
 90
        0
 40
-0.6
 41
-30.0
 62
     5
 63
     7
 74
     1
 91
        4
 64
     7
 65
   257
 75
     1
175
     1
 42
1.0
 92
       10
 66
     7
 43
1.0
 76
     1
 77
     6
 78
     2
 67
     7
 79
     5
170
     0
171
     0
290
     0
174
     0
 93
        1
 44
0.0
173
     0
291
     1
 45
0.0
1001
ACAD
1000
AcDbSavedByObjectVersion
1070
     0
  0
VISUALSTYLE
  5
16613
102
{ACAD_XDICTIONARY
360
17B53
102
}
102
{ACAD_REACTORS
330
16605
102
}
330
16605
100
AcDbVisualStyle
  2
Linepattern
 70
    14
 71
     2
 72
     2
 73
     0
 90
        0
 40
-0.6
 41
-30.0
 62
     5
 63
     7
 74
     1
 91
        4
 64
     7
 65
   257
 75
     7
175
     7
 42
1.0
 92
        8
 66
     7
 43
1.0
 76
     1
 77
     6
 78
     2
 67
     7
 79
     5
170
     0
171
     0
290
     0
174
     0
 93
        1
 44
0.0
173
     0
291
     1
 45
0.0
1001
ACAD
1000
AcDbSavedByObjectVersion
1070
     0
  0
VISUALSTYLE
  5
1661C
102
{ACAD_XDICTIONARY
360
17B65
102
}
102
{ACAD_REACTORS
330
16605
102
}
330
16605
100
AcDbVisualStyle
  2
OverhangOff
 70
    21
 71
     2
 72
     2
 73
     0
 90
        0
 40
-0.6
 41
-30.0
 62
     5
 63
     7
 74
     1
 91
        4
 64
     7
 65
   257
 75
     1
175
     1
 42
1.0
 92
        9
 66
     7
 43
1.0
 76
     1
 77
     6
 78
     2
 67
     7
 79
     5
170
     0
171
     0
290
     0
174
     0
 93
        1
 44
0.0
173
     0
291
     1
 45
0.0
1001
ACAD
1000
AcDbSavedByObjectVersion
1070
     0
  0
VISUALSTYLE
  5
1660F
102
{ACAD_XDICTIONARY
360
17B4B
102
}
102
{ACAD_REACTORS
330
16605
102
}
330
16605
100
AcDbVisualStyle
  2
Realistic
 70
     8
 71
     2
 72
     3
 73
     0
 90
        2
 40
-0.6
 41
30.0
 62
     5
 63
     7
 74
     0
 91
        0
 64
     7
 65
   257
 75
     1
175
     1
 42
1.0
 92
        8
 66
   257
 43
1.0
 76
     1
 77
     6
 78
     2
 67
     7
 79
     3
170
     0
171
     0
290
     0
174
     0
 93
       13
 44
0.0
173
     0
291
     0
 45
0.0
1001
ACAD
1000
AcDbSavedByObjectVersion
1070
     0
  0
VISUALSTYLE
  5
1661A
102
{ACAD_XDICTIONARY
360
17B61
102
}
102
{ACAD_REACTORS
330
16605
102
}
330
16605
100
AcDbVisualStyle
  2
Shaded
 70
    27
 71
     2
 72
     2
 73
     1
 90
        2
 40
-0.6
 41
30.0
 62
     5
 63
     7
 74
     0
 91
        4
 64
     7
 65
   257
 75
     1
175
     1
 42
1.0
 92
        8
 66
   257
 43
1.0
 76
     1
 77
     6
 78
     2
 67
     8
 79
     3
170
     0
171
     0
290
     0
174
     0
 93
        5
 44
0.0
173
     0
291
     0
 45
0.0
1001
ACAD
1000
AcDbSavedByObjectVersion
1070
     0
  0
VISUALSTYLE
  5
16619
102
{ACAD_XDICTIONARY
360
17B5F
102
}
102
{ACAD_REACTORS
330
16605
102
}
330
16605
100
AcDbVisualStyle
  2
Shaded with edges
 70
    26
 71
     2
 72
     2
 73
     1
 90
        2
 40
-0.6
 41
30.0
 62
     5
 63
     7
 74
     1
 91
       10
 64
     7
 65
   257
 75
     2
175
     1
 42
1.0
 92
        8
 66
   257
 43
1.0
 76
     1
 77
     6
 78
     2
 67
     7
 79
     3
170
     0
171
     0
290
     0
174
     0
 93
        5
 44
0.0
173
     0
291
     0
 45
0.0
1001
ACAD
1000
AcDbSavedByObjectVersion
1070
     0
  0
VISUALSTYLE
  5
16616
102
{ACAD_XDICTIONARY
360
17B59
102
}
102
{ACAD_REACTORS
330
16605
102
}
330
16605
100
AcDbVisualStyle
  2
Shades of Gray
 70
    23
 71
     2
 72
     2
 73
     3
 90
        0
 40
-0.6
 41
-30.0
 62
     5
 63
     7
 74
     2
 91
        2
 64
     7
 65
     7
 75
     1
175
     1
 42
40.0
 92
        8
 66
     7
 43
1.0
 76
     1
 77
     6
 78
     2
 67
     7
 79
     3
170
     0
171
     0
290
     0
174
     0
 93
        1
 44
0.0
173
     0
291
     0
 45
0.0
1001
ACAD
1000
AcDbSavedByObjectVersion
1070
     0
  0
VISUALSTYLE
  5
16617
102
{ACAD_XDICTIONARY
360
17B5B
102
}
102
{ACAD_REACTORS
330
16605
102
}
330
16605
100
AcDbVisualStyle
  2
Sketchy
 70
    24
 71
     1
 72
     2
 73
     2
 90
        0
 40
-0.6
 41
-30.0
 62
     5
 63
     7
 74
     2
 91
        2
 64
     7
 65
     7
 75
     1
175
     1
 42
40.0
 92
       11
 66
     7
 43
1.0
 76
     1
 77
     6
 78
     2
 67
     7
 79
     6
170
     0
171
     0
290
     0
174
     0
 93
        1
 44
0.0
173
     0
291
     0
 45
0.0
1001
ACAD
1000
AcDbSavedByObjectVersion
1070
     0
  0
VISUALSTYLE
  5
16612
102
{ACAD_XDICTIONARY
360
17B51
102
}
102
{ACAD_REACTORS
330
16605
102
}
330
16605
100
AcDbVisualStyle
  2
Thicken
 70
    13
 71
     2
 72
     2
 73
     0
 90
        0
 40
-0.6
 41
-30.0
 62
     5
 63
     7
 74
     1
 91
        4
 64
     7
 65
   257
 75
     1
175
     1
 42
1.0
 92
       12
 66
     7
 43
1.0
 76
     1
 77
     6
 78
     2
 67
     7
 79
     5
170
     0
171
     0
290
     0
174
     0
 93
        1
 44
0.0
173
     0
291
     1
 45
0.0
1001
ACAD
1000
AcDbSavedByObjectVersion
1070
     0
  0
VISUALSTYLE
  5
1660C
102
{ACAD_XDICTIONARY
360
17B45
102
}
102
{ACAD_REACTORS
330
16605
102
}
330
16605
100
AcDbVisualStyle
  2
Wireframe
 70
     5
 71
     0
 72
     2
 73
     0
 90
        0
 40
-0.6
 41
-30.0
 62
     5
 63
     7
 74
     1
 91
        4
 64
     7
 65
   257
 75
     1
175
     1
 42
1.0
 92
        0
 66
   257
 43
1.0
 76
     1
 77
     6
 78
     2
 67
     7
 79
     3
170
     0
171
     0
290
     0
174
     0
 93
        1
 44
0.0
173
     0
291
     0
 45
0.0
1001
ACAD
1000
AcDbSavedByObjectVersion
1070
     0
  0
VISUALSTYLE
  5
16618
102
{ACAD_XDICTIONARY
360
17B5D
102
}
102
{ACAD_REACTORS
330
16605
102
}
330
16605
100
AcDbVisualStyle
  2
X-Ray
 70
    25
 71
     2
 72
     2
 73
     1
 90
        1
 40
0.5
 41
-30.0
 62
     5
 63
     7
 74
     1
 91
        0
 64
     7
 65
   257
 75
     1
175
     1
 42
1.0
 92
        8
 66
     7
 43
1.0
 76
     1
 77
     6
 78
     2
 67
     7
 79
     3
170
     0
171
     0
290
     0
174
     0
 93
       13
 44
0.0
173
     0
291
     0
 45
0.0
1001
ACAD
1000
AcDbSavedByObjectVersion
1070
     0
  0
DICTIONARYVAR
  5
1674B
102
{ACAD_REACTORS
330
16745
102
}
330
16745
100
DictionaryVariables
280
     0
  1
1:1
  0
DICTIONARYVAR
  5
16747
102
{ACAD_REACTORS
330
16745
102
}
330
16745
100
DictionaryVariables
280
     0
  1
STANDARD
  0
DICTIONARYVAR
  5
16746
102
{ACAD_REACTORS
330
16745
102
}
330
16745
100
DictionaryVariables
280
     0
  1
STANDARD
  0
DICTIONARYVAR
  5
16748
102
{ACAD_REACTORS
330
16745
102
}
330
16745
100
DictionaryVariables
280
     0
  1
Metric50
  0
DICTIONARYVAR
  5
16749
102
{ACAD_REACTORS
330
16745
102
}
330
16745
100
DictionaryVariables
280
     0
  1
Metric50
  0
DICTIONARYVAR
  5
17B23
102
{ACAD_REACTORS
330
16745
102
}
330
16745
100
DictionaryVariables
280
     0
  1
1
  0
DICTIONARYVAR
  5
17B21
102
{ACAD_REACTORS
330
16745
102
}
330
16745
100
DictionaryVariables
280
     0
  1
0
  0
DICTIONARYVAR
  5
1674D
102
{ACAD_REACTORS
330
16745
102
}
330
16745
100
DictionaryVariables
280
     0
  1
1
  0
DICTIONARYVAR
  5
1674E
102
{ACAD_REACTORS
330
16745
102
}
330
16745
100
DictionaryVariables
280
     0
  1
15
  0
DICTIONARYVAR
  5
1674C
102
{ACAD_REACTORS
330
16745
102
}
330
16745
100
DictionaryVariables
280
     0
  1
0
  0
DICTIONARYVAR
  5
1674A
102
{ACAD_REACTORS
330
16745
102
}
330
16745
100
DictionaryVariables
280
     0
  1
0
  0
DICTIONARYVAR
  5
17B20
102
{ACAD_REACTORS
330
16745
102
}
330
16745
100
DictionaryVariables
280
     0
  1
127
  0
DICTIONARYVAR
  5
17B22
102
{ACAD_REACTORS
330
16745
102
}
330
16745
100
DictionaryVariables
280
     0
  1
0
  0
DICTIONARY
  5
17B2F
102
{ACAD_REACTORS
330
17B2D
102
}
330
17B2D
100
AcDbDictionary
281
     1
  0
DICTIONARY
  5
17B2E
102
{ACAD_REACTORS
330
17B2D
102
}
330
17B2D
100
AcDbDictionary
281
     1
  3
140687498361728
350
17B28
  3
140687498361744
350
17B29
  3
140687498361760
350
17B2A
  3
140687498361776
350
17B2B
  3
140687498361792
350
17B2C
  0
DICTIONARY
  5
16742
330
16637
100
AcDbDictionary
280
     1
281
     1
  3
ACAD_XREC_ROUNDTRIP
360
17B6E
  0
DICTIONARY
  5
17B32
330
14A34
100
AcDbDictionary
280
     1
281
     1
  3
ACAD_XREC_ROUNDTRIP
360
17B33
  0
DICTIONARY
  5
17B34
330
14A35
100
AcDbDictionary
280
     1
281
     1
  3
ACAD_XREC_ROUNDTRIP
360
17B35
  0
DICTIONARY
  5
165F6
330
165F5
100
AcDbDictionary
280
     1
281
     1
  3
ACAD_XREC_ROUNDTRIP
360
17B37
  3
BUMPTILE
360
165F8
  3
DIFFUSETILE
360
165F7
  3
OPACITYTILE
360
165FB
  3
REFLECTIONTILE
360
165FA
  3
REFRACTIONTILE
360
165FC
  3
SPECULARTILE
360
165F9
  0
DICTIONARY
  5
165EE
330
165ED
100
AcDbDictionary
280
     1
281
     1
  3
ACAD_XREC_ROUNDTRIP
360
17B36
  3
BUMPTILE
360
165F0
  3
DIFFUSETILE
360
165EF
  3
OPACITYTILE
360
165F3
  3
REFLECTIONTILE
360
165F2
  3
REFRACTIONTILE
360
165F4
  3
SPECULARTILE
360
165F1
  0
DICTIONARY
  5
165FE
330
165FD
100
AcDbDictionary
280
     1
281
     1
  3
ACAD_XREC_ROUNDTRIP
360
17B38
  3
BUMPTILE
360
16600
  3
DIFFUSETILE
360
165FF
  3
OPACITYTILE
360
16603
  3
REFLECTIONTILE
360
16602
  3
REFRACTIONTILE
360
16604
  3
SPECULARTILE
360
16601
  0
DICTIONARY
  5
17B6B
330
16633
100
AcDbDictionary
280
     1
281
     1
  3
ACAD_XREC_ROUNDTRIP
360
17B6C
  0
DICTIONARY
  5
16740
330
16635
100
AcDbDictionary
280
     1
281
     1
  3
ACAD_XREC_ROUNDTRIP
360
17B6D
  0
DICTIONARY
  5
17B24
330
1661F
100
AcDbDictionary
280
     1
281
     1
  3
ACAD_ROUNDTRIP_2008_TABLESTYLE_CELLSTYLEMAP
360
17B25
  3
ACAD_XREC_ROUNDTRIP
360
17B69
  0
DICTIONARY
  5
17B43
330
1660B
100
AcDbDictionary
280
     1
281
     1
  3
ACAD_XREC_ROUNDTRIP
360
17B44
  0
DICTIONARY
  5
17B41
330
1660A
100
AcDbDictionary
280
     1
281
     1
  3
ACAD_XREC_ROUNDTRIP
360
17B42
  0
DICTIONARY
  5
17B4F
330
16611
100
AcDbDictionary
280
     1
281
     1
  3
ACAD_XREC_ROUNDTRIP
360
17B50
  0
DICTIONARY
  5
17B57
330
16615
100
AcDbDictionary
280
     1
281
     1
  3
ACAD_XREC_ROUNDTRIP
360
17B58
  0
DICTIONARY
  5
17B49
330
1660E
100
AcDbDictionary
280
     1
281
     1
  3
ACAD_XREC_ROUNDTRIP
360
17B4A
  0
DICTIONARY
  5
17B4D
330
16610
100
AcDbDictionary
280
     1
281
     1
  3
ACAD_XREC_ROUNDTRIP
360
17B4E
  0
DICTIONARY
  5
17B67
330
1661D
100
AcDbDictionary
280
     1
281
     1
  3
ACAD_XREC_ROUNDTRIP
360
17B68
  0
DICTIONARY
  5
17B55
330
16614
100
AcDbDictionary
280
     1
281
     1
  3
ACAD_XREC_ROUNDTRIP
360
17B56
  0
DICTIONARY
  5
17B39
330
16606
100
AcDbDictionary
280
     1
281
     1
  3
ACAD_XREC_ROUNDTRIP
360
17B3A
  0
DICTIONARY
  5
17B3B
330
16607
100
AcDbDictionary
280
     1
281
     1
  3
ACAD_XREC_ROUNDTRIP
360
17B3C
  0
DICTIONARY
  5
17B3D
330
16608
100
AcDbDictionary
280
     1
281
     1
  3
ACAD_XREC_ROUNDTRIP
360
17B3E
  0
DICTIONARY
  5
17B3F
330
16609
100
AcDbDictionary
280
     1
281
     1
  3
ACAD_XREC_ROUNDTRIP
360
17B40
  0
DICTIONARY
  5
17B47
330
1660D
100
AcDbDictionary
280
     1
281
     1
  3
ACAD_XREC_ROUNDTRIP
360
17B48
  0
DICTIONARY
  5
17B63
330
1661B
100
AcDbDictionary
280
     1
281
     1
  3
ACAD_XREC_ROUNDTRIP
360
17B64
  0
DICTIONARY
  5
17B53
330
16613
100
AcDbDictionary
280
     1
281
     1
  3
ACAD_XREC_ROUNDTRIP
360
17B54
  0
DICTIONARY
  5
17B65
330
1661C
100
AcDbDictionary
280
     1
281
     1
  3
ACAD_XREC_ROUNDTRIP
360
17B66
  0
DICTIONARY
  5
17B4B
330
1660F
100
AcDbDictionary
280
     1
281
     1
  3
ACAD_XREC_ROUNDTRIP
360
17B4C
  0
DICTIONARY
  5
17B61
330
1661A
100
AcDbDictionary
280
     1
281
     1
  3
ACAD_XREC_ROUNDTRIP
360
17B62
  0
DICTIONARY
  5
17B5F
330
16619
100
AcDbDictionary
280
     1
281
     1
  3
ACAD_XREC_ROUNDTRIP
360
17B60
  0
DICTIONARY
  5
17B59
330
16616
100
AcDbDictionary
280
     1
281
     1
  3
ACAD_XREC_ROUNDTRIP
360
17B5A
  0
DICTIONARY
  5
17B5B
330
16617
100
AcDbDictionary
280
     1
281
     1
  3
ACAD_XREC_ROUNDTRIP
360
17B5C
  0
DICTIONARY
  5
17B51
330
16612
100
AcDbDictionary
280
     1
281
     1
  3
ACAD_XREC_ROUNDTRIP
360
17B52
  0
DICTIONARY
  5
17B45
330
1660C
100
AcDbDictionary
280
     1
281
     1
  3
ACAD_XREC_ROUNDTRIP
360
17B46
  0
DICTIONARY
  5
17B5D
330
16618
100
AcDbDictionary
280
     1
281
     1
  3
ACAD_XREC_ROUNDTRIP
360
17B5E
  0
XRECORD
  5
17B28
102
{ACAD_REACTORS
330
17B2E
102
}
330
17B2E
100
AcDbXrecord
280
     1
  1
AcDb_Thumbnail_Schema
102
{ATTRRECORD
341
17B29
  2
AcDbDs::TreatedAsObjectData
280
     1
291
     1
102
ATTRRECORD}
102
{ATTRRECORD
341
17B2A
  2
AcDbDs::Legacy
280
     1
291
     1
102
ATTRRECORD}
  2
AcDbDs::ID
280
    10
 91
        8
102
{ATTRRECORD
341
17B2B
  2
AcDs:Indexable
280
     1
291
     1
102
ATTRRECORD}
102
{ATTRRECORD
341
17B2C
  2
AcDbDs::HandleAttribute
280
     7
282
     1
102
ATTRRECORD}
  2
Thumbnail_Data
280
    15
 91
        0
  0
XRECORD
  5
17B29
102
{ACAD_REACTORS
330
17B2E
102
}
330
17B2E
100
AcDbXrecord
280
     1
  1
AcDbDs::TreatedAsObjectDataSchema
  2
AcDbDs::TreatedAsObjectData
280
     1
 91
        0
  0
XRECORD
  5
17B2A
102
{ACAD_REACTORS
330
17B2E
102
}
330
17B2E
100
AcDbXrecord
280
     1
  1
AcDbDs::LegacySchema
  2
AcDbDs::Legacy
280
     1
 91
        0
  0
XRECORD
  5
17B2B
102
{ACAD_REACTORS
330
17B2E
102
}
330
17B2E
100
AcDbXrecord
280
     1
  1
AcDbDs::IndexedPropertySchema
  2
AcDs:Indexable
280
     1
 91
        0
  0
XRECORD
  5
17B2C
102
{ACAD_REACTORS
330
17B2E
102
}
330
17B2E
100
AcDbXrecord
280
     1
  1
AcDbDs::HandleAttributeSchema
  2
AcDbDs::HandleAttribute
280
     7
 91
        1
284
     1
  0
XRECORD
  5
17B6E
102
{ACAD_REACTORS
330
16742
102
}
330
16742
100
AcDbXrecord
280
     1
102
DISPLAYNAME
  1
Metric50
102
FLAGS
 90
        0
  0
XRECORD
  5
17B33
102
{ACAD_REACTORS
330
17B32
102
}
330
17B32
100
AcDbXrecord
280
     1
102
SHADEPLOT
 70
     1
102
SHADEPLOTRESLEVEL
 70
     2
102
SHADEPLOTCUSTOMDPI
 70
   300
  0
XRECORD
  5
17B35
102
{ACAD_REACTORS
330
17B34
102
}
330
17B34
100
AcDbXrecord
280
     1
102
SHADEPLOT
 70
     0
102
SHADEPLOTRESLEVEL
 70
     2
102
SHADEPLOTCUSTOMDPI
 70
   300
  0
XRECORD
  5
17B37
102
{ACAD_REACTORS
330
165F6
102
}
330
165F6
100
AcDbXrecord
280
     1
102
MATERIAL
148
0.0
149
0.0
149
0.0
 93
        0
 94
      127
282
     0
 72
     0
 77
     0
171
     0
175
     0
179
     0
273
     0
  0
XRECORD
  5
165F8
102
{ACAD_REACTORS
330
165F6
102
}
330
165F6
100
AcDbXrecord
280
     1
270
     1
271
     1
  0
XRECORD
  5
165F7
102
{ACAD_REACTORS
330
165F6
102
}
330
165F6
100
AcDbXrecord
280
     1
270
     1
271
     1
  0
XRECORD
  5
165FB
102
{ACAD_REACTORS
330
165F6
102
}
330
165F6
100
AcDbXrecord
280
     1
270
     1
271
     1
  0
XRECORD
  5
165FA
102
{ACAD_REACTORS
330
165F6
102
}
330
165F6
100
AcDbXrecord
280
     1
270
     1
271
     1
  0
XRECORD
  5
165FC
102
{ACAD_REACTORS
330
165F6
102
}
330
165F6
100
AcDbXrecord
280
     1
270
     1
271
     1
  0
XRECORD
  5
165F9
102
{ACAD_REACTORS
330
165F6
102
}
330
165F6
100
AcDbXrecord
280
     1
270
     1
271
     1
  0
XRECORD
  5
17B36
102
{ACAD_REACTORS
330
165EE
102
}
330
165EE
100
AcDbXrecord
280
     1
102
MATERIAL
148
0.0
149
0.0
149
0.0
 93
        0
 94
      127
282
     0
 72
     0
 77
     0
171
     0
175
     0
179
     0
273
     0
  0
XRECORD
  5
165F0
102
{ACAD_REACTORS
330
165EE
102
}
330
165EE
100
AcDbXrecord
280
     1
270
     1
271
     1
  0
XRECORD
  5
165EF
102
{ACAD_REACTORS
330
165EE
102
}
330
165EE
100
AcDbXrecord
280
     1
270
     1
271
     1
  0
XRECORD
  5
165F3
102
{ACAD_REACTORS
330
165EE
102
}
330
165EE
100
AcDbXrecord
280
     1
270
     1
271
     1
  0
XRECORD
  5
165F2
102
{ACAD_REACTORS
330
165EE
102
}
330
165EE
100
AcDbXrecord
280
     1
270
     1
271
     1
  0
XRECORD
  5
165F4
102
{ACAD_REACTORS
330
165EE
102
}
330
165EE
100
AcDbXrecord
280
     1
270
     1
271
     1
  0
XRECORD
  5
165F1
102
{ACAD_REACTORS
330
165EE
102
}
330
165EE
100
AcDbXrecord
280
     1
270
     1
271
     1
  0
XRECORD
  5
17B38
102
{ACAD_REACTORS
330
165FE
102
}
330
165FE
100
AcDbXrecord
280
     1
102
MATERIAL
148
0.0
149
0.0
149
0.0
 93
        0
 94
      127
282
     0
 72
     0
 77
     0
171
     0
175
     0
179
     0
273
     0
  0
XRECORD
  5
16600
102
{ACAD_REACTORS
330
165FE
102
}
330
165FE
100
AcDbXrecord
280
     1
270
     1
271
     1
  0
XRECORD
  5
165FF
102
{ACAD_REACTORS
330
165FE
102
}
330
165FE
100
AcDbXrecord
280
     1
270
     1
271
     1
  0
XRECORD
  5
16603
102
{ACAD_REACTORS
330
165FE
102
}
330
165FE
100
AcDbXrecord
280
     1
270
     1
271
     1
  0
XRECORD
  5
16602
102
{ACAD_REACTORS
330
165FE
102
}
330
165FE
100
AcDbXrecord
280
     1
270
     1
271
     1
  0
XRECORD
  5
16604
102
{ACAD_REACTORS
330
165FE
102
}
330
165FE
100
AcDbXrecord
280
     1
270
     1
271
     1
  0
XRECORD
  5
16601
102
{ACAD_REACTORS
330
165FE
102
}
330
165FE
100
AcDbXrecord
280
     1
270
     1
271
     1
  0
XRECORD
  5
17B6C
102
{ACAD_REACTORS
330
17B6B
102
}
330
17B6B
100
AcDbXrecord
280
     1
102
ACAD_ROUNDTRIP_2012_MLEADER_STYLE
298
     1
  0
XRECORD
  5
17B6D
102
{ACAD_REACTORS
330
16740
102
}
330
16740
100
AcDbXrecord
280
     1
102
DISPLAYNAME
  1
Metric50
102
FLAGS
 90
        0
  0
CELLSTYLEMAP
  5
17B25
102
{ACAD_REACTORS
330
17B24
102
}
330
17B24
100
AcDbCellStyleMap
 90
        3
300
CELLSTYLE
  1
TABLEFORMAT_BEGIN
 90
        5
170
     1
 91
        0
 92
    32768
 62
   257
 93
        1
300
CONTENTFORMAT
  1
CONTENTFORMAT_BEGIN
 90
        0
 91
        0
 92
      512
 93
        0
300

 40
0.0
140
1.0
 94
        5
 62
     0
340
7475
144
6.0
309
CONTENTFORMAT_END
171
     1
301
MARGIN
  1
CELLMARGIN_BEGIN
 40
1.5
 40
1.5
 40
1.5
 40
1.5
 40
4.5
 40
4.5
309
CELLMARGIN_END
 94
        6
 95
        1
302
GRIDFORMAT
  1
GRIDFORMAT_BEGIN
 90
        0
 91
        1
 62
     0
 92
       -2
340
0
 93
        0
 40
1.125
309
GRIDFORMAT_END
 95
        2
302
GRIDFORMAT
  1
GRIDFORMAT_BEGIN
 90
        0
 91
        1
 62
     0
 92
       -2
340
0
 93
        0
 40
1.125
309
GRIDFORMAT_END
 95
        4
302
GRIDFORMAT
  1
GRIDFORMAT_BEGIN
 90
        0
 91
        1
 62
     0
 92
       -2
340
0
 93
        0
 40
1.125
309
GRIDFORMAT_END
 95
        8
302
GRIDFORMAT
  1
GRIDFORMAT_BEGIN
 90
        0
 91
        1
 62
     0
 92
       -2
340
0
 93
        0
 40
1.125
309
GRIDFORMAT_END
 95
       16
302
GRIDFORMAT
  1
GRIDFORMAT_BEGIN
 90
        0
 91
        1
 62
     0
 92
       -2
340
0
 93
        0
 40
1.125
309
GRIDFORMAT_END
 95
       32
302
GRIDFORMAT
  1
GRIDFORMAT_BEGIN
 90
        0
 91
        1
 62
     0
 92
       -2
340
0
 93
        0
 40
1.125
309
GRIDFORMAT_END
309
TABLEFORMAT_END
  1
CELLSTYLE_BEGIN
 90
        1
 91
        1
300
_TITLE
309
CELLSTYLE_END
300
CELLSTYLE
  1
TABLEFORMAT_BEGIN
 90
        5
170
     1
 91
        0
 92
        0
 62
   257
 93
        1
300
CONTENTFORMAT
  1
CONTENTFORMAT_BEGIN
 90
        0
 91
        0
 92
      512
 93
        0
300

 40
0.0
140
1.0
 94
        5
 62
     0
340
7475
144
4.5
309
CONTENTFORMAT_END
171
     1
301
MARGIN
  1
CELLMARGIN_BEGIN
 40
1.5
 40
1.5
 40
1.5
 40
1.5
 40
4.5
 40
4.5
309
CELLMARGIN_END
 94
        6
 95
        1
302
GRIDFORMAT
  1
GRIDFORMAT_BEGIN
 90
        0
 91
        1
 62
     0
 92
       -2
340
0
 93
        0
 40
1.125
309
GRIDFORMAT_END
 95
        2
302
GRIDFORMAT
  1
GRIDFORMAT_BEGIN
 90
        0
 91
        1
 62
     0
 92
       -2
340
0
 93
        0
 40
1.125
309
GRIDFORMAT_END
 95
        4
302
GRIDFORMAT
  1
GRIDFORMAT_BEGIN
 90
        0
 91
        1
 62
     0
 92
       -2
340
0
 93
        0
 40
1.125
309
GRIDFORMAT_END
 95
        8
302
GRIDFORMAT
  1
GRIDFORMAT_BEGIN
 90
        0
 91
        1
 62
     0
 92
       -2
340
0
 93
        0
 40
1.125
309
GRIDFORMAT_END
 95
       16
302
GRIDFORMAT
  1
GRIDFORMAT_BEGIN
 90
        0
 91
        1
 62
     0
 92
       -2
340
0
 93
        0
 40
1.125
309
GRIDFORMAT_END
 95
       32
302
GRIDFORMAT
  1
GRIDFORMAT_BEGIN
 90
        0
 91
        1
 62
     0
 92
       -2
340
0
 93
        0
 40
1.125
309
GRIDFORMAT_END
309
TABLEFORMAT_END
  1
CELLSTYLE_BEGIN
 90
        2
 91
        1
300
_HEADER
309
CELLSTYLE_END
300
CELLSTYLE
  1
TABLEFORMAT_BEGIN
 90
        5
170
     1
 91
        0
 92
        0
 62
   257
 93
        1
300
CONTENTFORMAT
  1
CONTENTFORMAT_BEGIN
 90
        0
 91
        0
 92
      512
 93
        0
300

 40
0.0
140
1.0
 94
        2
 62
     0
340
7475
144
4.5
309
CONTENTFORMAT_END
171
     1
301
MARGIN
  1
CELLMARGIN_BEGIN
 40
1.5
 40
1.5
 40
1.5
 40
1.5
 40
4.5
 40
4.5
309
CELLMARGIN_END
 94
        6
 95
        1
302
GRIDFORMAT
  1
GRIDFORMAT_BEGIN
 90
        0
 91
        1
 62
     0
 92
       -2
340
0
 93
        0
 40
1.125
309
GRIDFORMAT_END
 95
        2
302
GRIDFORMAT
  1
GRIDFORMAT_BEGIN
 90
        0
 91
        1
 62
     0
 92
       -2
340
0
 93
        0
 40
1.125
309
GRIDFORMAT_END
 95
        4
302
GRIDFORMAT
  1
GRIDFORMAT_BEGIN
 90
        0
 91
        1
 62
     0
 92
       -2
340
0
 93
        0
 40
1.125
309
GRIDFORMAT_END
 95
        8
302
GRIDFORMAT
  1
GRIDFORMAT_BEGIN
 90
        0
 91
        1
 62
     0
 92
       -2
340
0
 93
        0
 40
1.125
309
GRIDFORMAT_END
 95
       16
302
GRIDFORMAT
  1
GRIDFORMAT_BEGIN
 90
        0
 91
        1
 62
     0
 92
       -2
340
0
 93
        0
 40
1.125
309
GRIDFORMAT_END
 95
       32
302
GRIDFORMAT
  1
GRIDFORMAT_BEGIN
 90
        0
 91
        1
 62
     0
 92
       -2
340
0
 93
        0
 40
1.125
309
GRIDFORMAT_END
309
TABLEFORMAT_END
  1
CELLSTYLE_BEGIN
 90
        3
 91
        2
300
_DATA
309
CELLSTYLE_END
  0
XRECORD
  5
17B69
102
{ACAD_REACTORS
330
17B24
102
}
330
17B24
100
AcDbXrecord
280
     1
102
ACAD_ROUNDTRIP_PRE2007_TABLESTYLE
 90
      512
 91
        0
  1

 92
      512
 93
        0
  2

 94
      512
 95
        0
  3

  0
XRECORD
  5
17B44
102
{ACAD_REACTORS
330
17B43
102
}
330
17B43
100
AcDbXrecord
280
     1
102
RTVSPost2010Prop28
280
     1
102
RTVSPost2010PropOp28
 70
     1
102
RTVSPost2010Prop29
280
     1
102
RTVSPost2010PropOp29
 70
     1
102
RTVSPost2010Prop30
280
     0
102
RTVSPost2010PropOp30
 70
     1
102
RTVSPost2010Prop31
280
     0
102
RTVSPost2010PropOp31
 70
     1
102
RTVSPost2010Prop32
280
     0
102
RTVSPost2010PropOp32
 70
     1
102
RTVSPost2010Prop33
280
     0
102
RTVSPost2010PropOp33
 70
     1
102
RTVSPost2010Prop34
280
     0
102
RTVSPost2010PropOp34
 70
     1
102
RTVSPost2010Prop35
280
     0
102
RTVSPost2010PropOp35
 70
     1
102
RTVSPost2010Prop36
280
     0
102
RTVSPost2010PropOp36
 70
     1
102
RTVSPost2010Prop37
 90
       50
102
RTVSPost2010PropOp37
 70
     1
102
RTVSPost2010Prop38
140
0.0
102
RTVSPost2010PropOp38
 70
     1
102
RTVSPost2010Prop39
140
1.0
102
RTVSPost2010PropOp39
 70
     1
102
RTVSPost2010Prop40
 90
        0
102
RTVSPost2010PropOp40
 70
     1
102
RTVSPost2010Prop41ColorIndex
 90
       18
102
RTVSPost2010Prop41ColorRGB
 90
        0
102
RTVSPost2010PropOp41
 70
     1
102
RTVSPost2010Prop42
 90
       50
102
RTVSPost2010PropOp42
 70
     1
102
RTVSPost2010Prop43
 90
        3
102
RTVSPost2010PropOp43
 70
     1
102
RTVSPost2010Prop44ColorIndex
 90
        5
102
RTVSPost2010Prop44ColorRGB
 90
      255
102
RTVSPost2010PropOp44
 70
     1
102
RTVSPost2010Prop45
280
     0
102
RTVSPost2010PropOp45
 70
     1
102
RTVSPost2010Prop46
 90
       50
102
RTVSPost2010PropOp46
 70
     1
102
RTVSPost2010Prop47
 90
       50
102
RTVSPost2010PropOp47
 70
     1
102
RTVSPost2010Prop48
 90
       50
102
RTVSPost2010PropOp48
 70
     1
102
RTVSPost2010Prop49
280
     0
102
RTVSPost2010PropOp49
 70
     1
102
RTVSPost2010Prop50
 90
       50
102
RTVSPost2010PropOp50
 70
     1
102
RTVSPost2010Prop51ColorIndex
 90
      256
102
RTVSPost2010Prop51ColorRGB
 90
-16777216
102
RTVSPost2010PropOp51
 70
     0
102
RTVSPost2010Prop52
140
1.0
102
RTVSPost2010PropOp52
 70
     0
102
RTVSPost2010Prop53
 90
        2
102
RTVSPost2010PropOp53
 70
     1
102
RTVSPost2010Prop54
  1
strokes_ogs.tif
102
RTVSPost2010PropOp54
 70
     1
102
RTVSPost2010Prop55
280
     0
102
RTVSPost2010PropOp55
 70
     1
102
RTVSPost2010Prop56
140
1.0
102
RTVSPost2010PropOp56
 70
     1
102
RTVSPost2010Prop57
140
1.0
102
RTVSPost2010PropOp57
 70
     1
102
RTVSPropertyOp0
 70
     1
102
RTVSPropertyOp1
 70
     1
102
RTVSPropertyOp2
 70
     1
102
RTVSPropertyOp3
 70
     1
102
RTVSPropertyOp4
 70
     1
102
RTVSPropertyOp5
 70
     1
102
RTVSPropertyOp6
 70
     1
102
RTVSPropertyOp7
 70
     1
102
RTVSPropertyOp8
 70
     1
102
RTVSPropertyOp9
 70
     1
102
RTVSPropertyOp10
 70
     1
102
RTVSPropertyOp11
 70
     1
102
RTVSPropertyOp12
 70
     1
102
RTVSPropertyOp13
 70
     1
102
RTVSPropertyOp14
 70
     1
102
RTVSPropertyOp15
 70
     1
102
RTVSPropertyOp16
 70
     1
102
RTVSPropertyOp17
 70
     1
102
RTVSPropertyOp18
 70
     1
102
RTVSPropertyOp19
 70
     1
102
RTVSPropertyOp20
 70
     1
102
RTVSPropertyOp21
 70
     1
102
RTVSPropertyOp22
 70
     1
102
RTVSPropertyOp23
 70
     1
102
RTVSPropertyOp24
 70
     1
102
RTVSPropertyOp25
 70
     1
102
RTVSPropertyOp26
 70
     1
102
RTVSPropertyOp27
 70
     1
102
RTVSPropertyOp28
 70
     1
102
RTVSPropertyOp29
 70
     1
102
RTVSPropertyOp30
 70
     1
102
RTVSPropertyOp31
 70
     1
102
RTVSPropertyOp32
 70
     1
102
RTVSPropertyOp33
 70
     1
102
RTVSPropertyOp34
 70
     1
102
RTVSPropertyOp35
 70
     1
102
RTVSPropertyOp36
 70
     1
102
RTVSPropertyOp37
 70
     1
102
RTVSPropertyOp38
 70
     1
102
RTVSPropertyOp39
 70
     1
102
RTVSPropertyOp40
 70
     1
102
RTVSPropertyOp41
 70
     1
102
RTVSPropertyOp42
 70
     1
102
RTVSPropertyOp43
 70
     1
102
RTVSPropertyOp44
 70
     1
102
RTVSPropertyOp45
 70
     1
102
RTVSPropertyOp46
 70
     1
102
RTVSPropertyOp47
 70
     1
102
RTVSPropertyOp48
 70
     1
102
RTVSPropertyOp49
 70
     1
102
RTVSPropertyOp50
 70
     1
102
RTVSPropertyOp51
 70
     0
102
RTVSPropertyOp52
 70
     0
102
RTVSPropertyOp53
 70
     1
102
RTVSPropertyOp54
 70
     1
102
RTVSPropertyOp55
 70
     1
102
RTVSPropertyOp56
 70
     1
102
RTVSPropertyOp57
 70
     1
102
RTVSPropertyOp58
 70
     1
102
RTVSPropertyOp59
 70
     1
102
RTVSPropertyOp60
 70
     1
102
RTVSPropertyOp61
 70
     1
102
RTVSPropertyOp62
 70
     1
  0
XRECORD
  5
17B42
102
{ACAD_REACTORS
330
17B41
102
}
330
17B41
100
AcDbXrecord
280
     1
102
RTVSPost2010Prop28
280
     0
102
RTVSPost2010PropOp28
 70
     1
102
RTVSPost2010Prop29
280
     1
102
RTVSPost2010PropOp29
 70
     1
102
RTVSPost2010Prop30
280
     1
102
RTVSPost2010PropOp30
 70
     1
102
RTVSPost2010Prop31
280
     0
102
RTVSPost2010PropOp31
 70
     1
102
RTVSPost2010Prop32
280
     0
102
RTVSPost2010PropOp32
 70
     1
102
RTVSPost2010Prop33
280
     0
102
RTVSPost2010PropOp33
 70
     1
102
RTVSPost2010Prop34
280
     0
102
RTVSPost2010PropOp34
 70
     1
102
RTVSPost2010Prop35
280
     0
102
RTVSPost2010PropOp35
 70
     1
102
RTVSPost2010Prop36
280
     0
102
RTVSPost2010PropOp36
 70
     1
102
RTVSPost2010Prop37
 90
       50
102
RTVSPost2010PropOp37
 70
     1
102
RTVSPost2010Prop38
140
0.0
102
RTVSPost2010PropOp38
 70
     1
102
RTVSPost2010Prop39
140
1.0
102
RTVSPost2010PropOp39
 70
     1
102
RTVSPost2010Prop40
 90
        0
102
RTVSPost2010PropOp40
 70
     1
102
RTVSPost2010Prop41ColorIndex
 90
       18
102
RTVSPost2010Prop41ColorRGB
 90
        0
102
RTVSPost2010PropOp41
 70
     1
102
RTVSPost2010Prop42
 90
       50
102
RTVSPost2010PropOp42
 70
     1
102
RTVSPost2010Prop43
 90
        3
102
RTVSPost2010PropOp43
 70
     1
102
RTVSPost2010Prop44ColorIndex
 90
        5
102
RTVSPost2010Prop44ColorRGB
 90
      255
102
RTVSPost2010PropOp44
 70
     1
102
RTVSPost2010Prop45
280
     0
102
RTVSPost2010PropOp45
 70
     1
102
RTVSPost2010Prop46
 90
       50
102
RTVSPost2010PropOp46
 70
     1
102
RTVSPost2010Prop47
 90
       50
102
RTVSPost2010PropOp47
 70
     1
102
RTVSPost2010Prop48
 90
       50
102
RTVSPost2010PropOp48
 70
     1
102
RTVSPost2010Prop49
280
     0
102
RTVSPost2010PropOp49
 70
     1
102
RTVSPost2010Prop50
 90
       50
102
RTVSPost2010PropOp50
 70
     1
102
RTVSPost2010Prop51ColorIndex
 90
      256
102
RTVSPost2010Prop51ColorRGB
 90
-16777216
102
RTVSPost2010PropOp51
 70
     0
102
RTVSPost2010Prop52
140
1.0
102
RTVSPost2010PropOp52
 70
     0
102
RTVSPost2010Prop53
 90
        2
102
RTVSPost2010PropOp53
 70
     1
102
RTVSPost2010Prop54
  1
strokes_ogs.tif
102
RTVSPost2010PropOp54
 70
     1
102
RTVSPost2010Prop55
280
     0
102
RTVSPost2010PropOp55
 70
     1
102
RTVSPost2010Prop56
140
1.0
102
RTVSPost2010PropOp56
 70
     1
102
RTVSPost2010Prop57
140
1.0
102
RTVSPost2010PropOp57
 70
     1
102
RTVSPropertyOp0
 70
     1
102
RTVSPropertyOp1
 70
     1
102
RTVSPropertyOp2
 70
     1
102
RTVSPropertyOp3
 70
     1
102
RTVSPropertyOp4
 70
     1
102
RTVSPropertyOp5
 70
     1
102
RTVSPropertyOp6
 70
     1
102
RTVSPropertyOp7
 70
     1
102
RTVSPropertyOp8
 70
     1
102
RTVSPropertyOp9
 70
     1
102
RTVSPropertyOp10
 70
     1
102
RTVSPropertyOp11
 70
     1
102
RTVSPropertyOp12
 70
     1
102
RTVSPropertyOp13
 70
     1
102
RTVSPropertyOp14
 70
     1
102
RTVSPropertyOp15
 70
     1
102
RTVSPropertyOp16
 70
     1
102
RTVSPropertyOp17
 70
     1
102
RTVSPropertyOp18
 70
     1
102
RTVSPropertyOp19
 70
     1
102
RTVSPropertyOp20
 70
     1
102
RTVSPropertyOp21
 70
     1
102
RTVSPropertyOp22
 70
     1
102
RTVSPropertyOp23
 70
     1
102
RTVSPropertyOp24
 70
     1
102
RTVSPropertyOp25
 70
     1
102
RTVSPropertyOp26
 70
     1
102
RTVSPropertyOp27
 70
     1
102
RTVSPropertyOp28
 70
     1
102
RTVSPropertyOp29
 70
     1
102
RTVSPropertyOp30
 70
     1
102
RTVSPropertyOp31
 70
     1
102
RTVSPropertyOp32
 70
     1
102
RTVSPropertyOp33
 70
     1
102
RTVSPropertyOp34
 70
     1
102
RTVSPropertyOp35
 70
     1
102
RTVSPropertyOp36
 70
     1
102
RTVSPropertyOp37
 70
     1
102
RTVSPropertyOp38
 70
     1
102
RTVSPropertyOp39
 70
     1
102
RTVSPropertyOp40
 70
     1
102
RTVSPropertyOp41
 70
     1
102
RTVSPropertyOp42
 70
     1
102
RTVSPropertyOp43
 70
     1
102
RTVSPropertyOp44
 70
     1
102
RTVSPropertyOp45
 70
     1
102
RTVSPropertyOp46
 70
     1
102
RTVSPropertyOp47
 70
     1
102
RTVSPropertyOp48
 70
     1
102
RTVSPropertyOp49
 70
     1
102
RTVSPropertyOp50
 70
     1
102
RTVSPropertyOp51
 70
     0
102
RTVSPropertyOp52
 70
     0
102
RTVSPropertyOp53
 70
     1
102
RTVSPropertyOp54
 70
     1
102
RTVSPropertyOp55
 70
     1
102
RTVSPropertyOp56
 70
     1
102
RTVSPropertyOp57
 70
     1
102
RTVSPropertyOp58
 70
     1
102
RTVSPropertyOp59
 70
     1
102
RTVSPropertyOp60
 70
     1
102
RTVSPropertyOp61
 70
     1
102
RTVSPropertyOp62
 70
     1
  0
XRECORD
  5
17B50
102
{ACAD_REACTORS
330
17B4F
102
}
330
17B4F
100
AcDbXrecord
280
     1
102
RTVSPost2010Prop28
280
     0
102
RTVSPost2010PropOp28
 70
     1
102
RTVSPost2010Prop29
280
     1
102
RTVSPost2010PropOp29
 70
     1
102
RTVSPost2010Prop30
280
     1
102
RTVSPost2010PropOp30
 70
     1
102
RTVSPost2010Prop31
280
     0
102
RTVSPost2010PropOp31
 70
     1
102
RTVSPost2010Prop32
280
     0
102
RTVSPost2010PropOp32
 70
     1
102
RTVSPost2010Prop33
280
     0
102
RTVSPost2010PropOp33
 70
     1
102
RTVSPost2010Prop34
280
     0
102
RTVSPost2010PropOp34
 70
     1
102
RTVSPost2010Prop35
280
     0
102
RTVSPost2010PropOp35
 70
     1
102
RTVSPost2010Prop36
280
     0
102
RTVSPost2010PropOp36
 70
     1
102
RTVSPost2010Prop37
 90
       50
102
RTVSPost2010PropOp37
 70
     1
102
RTVSPost2010Prop38
140
0.0
102
RTVSPost2010PropOp38
 70
     1
102
RTVSPost2010Prop39
140
1.0
102
RTVSPost2010PropOp39
 70
     1
102
RTVSPost2010Prop40
 90
        0
102
RTVSPost2010PropOp40
 70
     1
102
RTVSPost2010Prop41ColorIndex
 90
       18
102
RTVSPost2010Prop41ColorRGB
 90
        0
102
RTVSPost2010PropOp41
 70
     1
102
RTVSPost2010Prop42
 90
       50
102
RTVSPost2010PropOp42
 70
     1
102
RTVSPost2010Prop43
 90
        3
102
RTVSPost2010PropOp43
 70
     1
102
RTVSPost2010Prop44ColorIndex
 90
        5
102
RTVSPost2010Prop44ColorRGB
 90
      255
102
RTVSPost2010PropOp44
 70
     1
102
RTVSPost2010Prop45
280
     0
102
RTVSPost2010PropOp45
 70
     1
102
RTVSPost2010Prop46
 90
       50
102
RTVSPost2010PropOp46
 70
     1
102
RTVSPost2010Prop47
 90
       50
102
RTVSPost2010PropOp47
 70
     1
102
RTVSPost2010Prop48
 90
       50
102
RTVSPost2010PropOp48
 70
     1
102
RTVSPost2010Prop49
280
     0
102
RTVSPost2010PropOp49
 70
     1
102
RTVSPost2010Prop50
 90
       50
102
RTVSPost2010PropOp50
 70
     1
102
RTVSPost2010Prop51ColorIndex
 90
      256
102
RTVSPost2010Prop51ColorRGB
 90
-16777216
102
RTVSPost2010PropOp51
 70
     0
102
RTVSPost2010Prop52
140
1.0
102
RTVSPost2010PropOp52
 70
     0
102
RTVSPost2010Prop53
 90
        2
102
RTVSPost2010PropOp53
 70
     1
102
RTVSPost2010Prop54
  1
strokes_ogs.tif
102
RTVSPost2010PropOp54
 70
     1
102
RTVSPost2010Prop55
280
     0
102
RTVSPost2010PropOp55
 70
     1
102
RTVSPost2010Prop56
140
1.0
102
RTVSPost2010PropOp56
 70
     1
102
RTVSPost2010Prop57
140
1.0
102
RTVSPost2010PropOp57
 70
     1
102
RTVSPropertyOp0
 70
     1
102
RTVSPropertyOp1
 70
     1
102
RTVSPropertyOp2
 70
     1
102
RTVSPropertyOp3
 70
     1
102
RTVSPropertyOp4
 70
     1
102
RTVSPropertyOp5
 70
     1
102
RTVSPropertyOp6
 70
     1
102
RTVSPropertyOp7
 70
     1
102
RTVSPropertyOp8
 70
     1
102
RTVSPropertyOp9
 70
     1
102
RTVSPropertyOp10
 70
     1
102
RTVSPropertyOp11
 70
     1
102
RTVSPropertyOp12
 70
     1
102
RTVSPropertyOp13
 70
     1
102
RTVSPropertyOp14
 70
     1
102
RTVSPropertyOp15
 70
     1
102
RTVSPropertyOp16
 70
     1
102
RTVSPropertyOp17
 70
     1
102
RTVSPropertyOp18
 70
     1
102
RTVSPropertyOp19
 70
     1
102
RTVSPropertyOp20
 70
     1
102
RTVSPropertyOp21
 70
     1
102
RTVSPropertyOp22
 70
     1
102
RTVSPropertyOp23
 70
     1
102
RTVSPropertyOp24
 70
     1
102
RTVSPropertyOp25
 70
     1
102
RTVSPropertyOp26
 70
     1
102
RTVSPropertyOp27
 70
     1
102
RTVSPropertyOp28
 70
     1
102
RTVSPropertyOp29
 70
     1
102
RTVSPropertyOp30
 70
     1
102
RTVSPropertyOp31
 70
     1
102
RTVSPropertyOp32
 70
     1
102
RTVSPropertyOp33
 70
     1
102
RTVSPropertyOp34
 70
     1
102
RTVSPropertyOp35
 70
     1
102
RTVSPropertyOp36
 70
     1
102
RTVSPropertyOp37
 70
     1
102
RTVSPropertyOp38
 70
     1
102
RTVSPropertyOp39
 70
     1
102
RTVSPropertyOp40
 70
     1
102
RTVSPropertyOp41
 70
     1
102
RTVSPropertyOp42
 70
     1
102
RTVSPropertyOp43
 70
     1
102
RTVSPropertyOp44
 70
     1
102
RTVSPropertyOp45
 70
     1
102
RTVSPropertyOp46
 70
     1
102
RTVSPropertyOp47
 70
     1
102
RTVSPropertyOp48
 70
     1
102
RTVSPropertyOp49
 70
     1
102
RTVSPropertyOp50
 70
     1
102
RTVSPropertyOp51
 70
     0
102
RTVSPropertyOp52
 70
     0
102
RTVSPropertyOp53
 70
     1
102
RTVSPropertyOp54
 70
     1
102
RTVSPropertyOp55
 70
     1
102
RTVSPropertyOp56
 70
     1
102
RTVSPropertyOp57
 70
     1
102
RTVSPropertyOp58
 70
     1
102
RTVSPropertyOp59
 70
     1
102
RTVSPropertyOp60
 70
     1
102
RTVSPropertyOp61
 70
     1
102
RTVSPropertyOp62
 70
     1
  0
XRECORD
  5
17B58
102
{ACAD_REACTORS
330
17B57
102
}
330
17B57
100
AcDbXrecord
280
     1
102
RTVSPost2010Prop28
280
     0
102
RTVSPost2010PropOp28
 70
     1
102
RTVSPost2010Prop29
280
     1
102
RTVSPost2010PropOp29
 70
     1
102
RTVSPost2010Prop30
280
     1
102
RTVSPost2010PropOp30
 70
     1
102
RTVSPost2010Prop31
280
     0
102
RTVSPost2010PropOp31
 70
     1
102
RTVSPost2010Prop32
280
     0
102
RTVSPost2010PropOp32
 70
     1
102
RTVSPost2010Prop33
280
     0
102
RTVSPost2010PropOp33
 70
     1
102
RTVSPost2010Prop34
280
     0
102
RTVSPost2010PropOp34
 70
     1
102
RTVSPost2010Prop35
280
     0
102
RTVSPost2010PropOp35
 70
     1
102
RTVSPost2010Prop36
280
     0
102
RTVSPost2010PropOp36
 70
     1
102
RTVSPost2010Prop37
 90
       50
102
RTVSPost2010PropOp37
 70
     1
102
RTVSPost2010Prop38
140
0.0
102
RTVSPost2010PropOp38
 70
     1
102
RTVSPost2010Prop39
140
1.0
102
RTVSPost2010PropOp39
 70
     1
102
RTVSPost2010Prop40
 90
        0
102
RTVSPost2010PropOp40
 70
     1
102
RTVSPost2010Prop41ColorIndex
 90
       18
102
RTVSPost2010Prop41ColorRGB
 90
        0
102
RTVSPost2010PropOp41
 70
     1
102
RTVSPost2010Prop42
 90
       50
102
RTVSPost2010PropOp42
 70
     1
102
RTVSPost2010Prop43
 90
        3
102
RTVSPost2010PropOp43
 70
     1
102
RTVSPost2010Prop44ColorIndex
 90
        5
102
RTVSPost2010Prop44ColorRGB
 90
      255
102
RTVSPost2010PropOp44
 70
     1
102
RTVSPost2010Prop45
280
     0
102
RTVSPost2010PropOp45
 70
     1
102
RTVSPost2010Prop46
 90
       50
102
RTVSPost2010PropOp46
 70
     1
102
RTVSPost2010Prop47
 90
       50
102
RTVSPost2010PropOp47
 70
     1
102
RTVSPost2010Prop48
 90
       50
102
RTVSPost2010PropOp48
 70
     1
102
RTVSPost2010Prop49
280
     0
102
RTVSPost2010PropOp49
 70
     1
102
RTVSPost2010Prop50
 90
       50
102
RTVSPost2010PropOp50
 70
     1
102
RTVSPost2010Prop51ColorIndex
 90
      256
102
RTVSPost2010Prop51ColorRGB
 90
-16777216
102
RTVSPost2010PropOp51
 70
     0
102
RTVSPost2010Prop52
140
1.0
102
RTVSPost2010PropOp52
 70
     0
102
RTVSPost2010Prop53
 90
        2
102
RTVSPost2010PropOp53
 70
     1
102
RTVSPost2010Prop54
  1
strokes_ogs.tif
102
RTVSPost2010PropOp54
 70
     1
102
RTVSPost2010Prop55
280
     0
102
RTVSPost2010PropOp55
 70
     1
102
RTVSPost2010Prop56
140
1.0
102
RTVSPost2010PropOp56
 70
     1
102
RTVSPost2010Prop57
140
1.0
102
RTVSPost2010PropOp57
 70
     1
102
RTVSPropertyOp0
 70
     1
102
RTVSPropertyOp1
 70
     1
102
RTVSPropertyOp2
 70
     1
102
RTVSPropertyOp3
 70
     1
102
RTVSPropertyOp4
 70
     1
102
RTVSPropertyOp5
 70
     1
102
RTVSPropertyOp6
 70
     1
102
RTVSPropertyOp7
 70
     1
102
RTVSPropertyOp8
 70
     1
102
RTVSPropertyOp9
 70
     1
102
RTVSPropertyOp10
 70
     1
102
RTVSPropertyOp11
 70
     1
102
RTVSPropertyOp12
 70
     1
102
RTVSPropertyOp13
 70
     1
102
RTVSPropertyOp14
 70
     1
102
RTVSPropertyOp15
 70
     1
102
RTVSPropertyOp16
 70
     1
102
RTVSPropertyOp17
 70
     1
102
RTVSPropertyOp18
 70
     1
102
RTVSPropertyOp19
 70
     1
102
RTVSPropertyOp20
 70
     1
102
RTVSPropertyOp21
 70
     1
102
RTVSPropertyOp22
 70
     1
102
RTVSPropertyOp23
 70
     1
102
RTVSPropertyOp24
 70
     1
102
RTVSPropertyOp25
 70
     1
102
RTVSPropertyOp26
 70
     1
102
RTVSPropertyOp27
 70
     1
102
RTVSPropertyOp28
 70
     1
102
RTVSPropertyOp29
 70
     1
102
RTVSPropertyOp30
 70
     1
102
RTVSPropertyOp31
 70
     1
102
RTVSPropertyOp32
 70
     1
102
RTVSPropertyOp33
 70
     1
102
RTVSPropertyOp34
 70
     1
102
RTVSPropertyOp35
 70
     1
102
RTVSPropertyOp36
 70
     1
102
RTVSPropertyOp37
 70
     1
102
RTVSPropertyOp38
 70
     1
102
RTVSPropertyOp39
 70
     1
102
RTVSPropertyOp40
 70
     1
102
RTVSPropertyOp41
 70
     1
102
RTVSPropertyOp42
 70
     1
102
RTVSPropertyOp43
 70
     1
102
RTVSPropertyOp44
 70
     1
102
RTVSPropertyOp45
 70
     1
102
RTVSPropertyOp46
 70
     1
102
RTVSPropertyOp47
 70
     1
102
RTVSPropertyOp48
 70
     1
102
RTVSPropertyOp49
 70
     1
102
RTVSPropertyOp50
 70
     1
102
RTVSPropertyOp51
 70
     0
102
RTVSPropertyOp52
 70
     0
102
RTVSPropertyOp53
 70
     1
102
RTVSPropertyOp54
 70
     1
102
RTVSPropertyOp55
 70
     1
102
RTVSPropertyOp56
 70
     1
102
RTVSPropertyOp57
 70
     1
102
RTVSPropertyOp58
 70
     1
102
RTVSPropertyOp59
 70
     1
102
RTVSPropertyOp60
 70
     1
102
RTVSPropertyOp61
 70
     1
102
RTVSPropertyOp62
 70
     1
  0
XRECORD
  5
17B4A
102
{ACAD_REACTORS
330
17B49
102
}
330
17B49
100
AcDbXrecord
280
     1
102
RTVSPost2010Prop28
280
     0
102
RTVSPost2010PropOp28
 70
     1
102
RTVSPost2010Prop29
280
     1
102
RTVSPost2010PropOp29
 70
     1
102
RTVSPost2010Prop30
280
     1
102
RTVSPost2010PropOp30
 70
     1
102
RTVSPost2010Prop31
280
     0
102
RTVSPost2010PropOp31
 70
     1
102
RTVSPost2010Prop32
280
     0
102
RTVSPost2010PropOp32
 70
     1
102
RTVSPost2010Prop33
280
     0
102
RTVSPost2010PropOp33
 70
     1
102
RTVSPost2010Prop34
280
     0
102
RTVSPost2010PropOp34
 70
     1
102
RTVSPost2010Prop35
280
     0
102
RTVSPost2010PropOp35
 70
     1
102
RTVSPost2010Prop36
280
     0
102
RTVSPost2010PropOp36
 70
     1
102
RTVSPost2010Prop37
 90
       50
102
RTVSPost2010PropOp37
 70
     1
102
RTVSPost2010Prop38
140
0.0
102
RTVSPost2010PropOp38
 70
     1
102
RTVSPost2010Prop39
140
1.0
102
RTVSPost2010PropOp39
 70
     1
102
RTVSPost2010Prop40
 90
        0
102
RTVSPost2010PropOp40
 70
     1
102
RTVSPost2010Prop41ColorIndex
 90
       18
102
RTVSPost2010Prop41ColorRGB
 90
        0
102
RTVSPost2010PropOp41
 70
     1
102
RTVSPost2010Prop42
 90
       50
102
RTVSPost2010PropOp42
 70
     1
102
RTVSPost2010Prop43
 90
        3
102
RTVSPost2010PropOp43
 70
     1
102
RTVSPost2010Prop44ColorIndex
 90
        5
102
RTVSPost2010Prop44ColorRGB
 90
      255
102
RTVSPost2010PropOp44
 70
     1
102
RTVSPost2010Prop45
280
     0
102
RTVSPost2010PropOp45
 70
     1
102
RTVSPost2010Prop46
 90
       50
102
RTVSPost2010PropOp46
 70
     1
102
RTVSPost2010Prop47
 90
       50
102
RTVSPost2010PropOp47
 70
     1
102
RTVSPost2010Prop48
 90
       50
102
RTVSPost2010PropOp48
 70
     1
102
RTVSPost2010Prop49
280
     0
102
RTVSPost2010PropOp49
 70
     1
102
RTVSPost2010Prop50
 90
       50
102
RTVSPost2010PropOp50
 70
     1
102
RTVSPost2010Prop51ColorIndex
 90
      256
102
RTVSPost2010Prop51ColorRGB
 90
-16777216
102
RTVSPost2010PropOp51
 70
     0
102
RTVSPost2010Prop52
140
1.0
102
RTVSPost2010PropOp52
 70
     0
102
RTVSPost2010Prop53
 90
        2
102
RTVSPost2010PropOp53
 70
     1
102
RTVSPost2010Prop54
  1
strokes_ogs.tif
102
RTVSPost2010PropOp54
 70
     1
102
RTVSPost2010Prop55
280
     0
102
RTVSPost2010PropOp55
 70
     1
102
RTVSPost2010Prop56
140
1.0
102
RTVSPost2010PropOp56
 70
     1
102
RTVSPost2010Prop57
140
1.0
102
RTVSPost2010PropOp57
 70
     1
102
RTVSPropertyOp0
 70
     1
102
RTVSPropertyOp1
 70
     1
102
RTVSPropertyOp2
 70
     1
102
RTVSPropertyOp3
 70
     1
102
RTVSPropertyOp4
 70
     1
102
RTVSPropertyOp5
 70
     1
102
RTVSPropertyOp6
 70
     1
102
RTVSPropertyOp7
 70
     1
102
RTVSPropertyOp8
 70
     1
102
RTVSPropertyOp9
 70
     1
102
RTVSPropertyOp10
 70
     1
102
RTVSPropertyOp11
 70
     1
102
RTVSPropertyOp12
 70
     1
102
RTVSPropertyOp13
 70
     1
102
RTVSPropertyOp14
 70
     1
102
RTVSPropertyOp15
 70
     1
102
RTVSPropertyOp16
 70
     1
102
RTVSPropertyOp17
 70
     1
102
RTVSPropertyOp18
 70
     1
102
RTVSPropertyOp19
 70
     1
102
RTVSPropertyOp20
 70
     1
102
RTVSPropertyOp21
 70
     1
102
RTVSPropertyOp22
 70
     1
102
RTVSPropertyOp23
 70
     1
102
RTVSPropertyOp24
 70
     1
102
RTVSPropertyOp25
 70
     1
102
RTVSPropertyOp26
 70
     1
102
RTVSPropertyOp27
 70
     1
102
RTVSPropertyOp28
 70
     1
102
RTVSPropertyOp29
 70
     1
102
RTVSPropertyOp30
 70
     1
102
RTVSPropertyOp31
 70
     1
102
RTVSPropertyOp32
 70
     1
102
RTVSPropertyOp33
 70
     1
102
RTVSPropertyOp34
 70
     1
102
RTVSPropertyOp35
 70
     1
102
RTVSPropertyOp36
 70
     1
102
RTVSPropertyOp37
 70
     1
102
RTVSPropertyOp38
 70
     1
102
RTVSPropertyOp39
 70
     1
102
RTVSPropertyOp40
 70
     1
102
RTVSPropertyOp41
 70
     1
102
RTVSPropertyOp42
 70
     1
102
RTVSPropertyOp43
 70
     1
102
RTVSPropertyOp44
 70
     1
102
RTVSPropertyOp45
 70
     1
102
RTVSPropertyOp46
 70
     1
102
RTVSPropertyOp47
 70
     1
102
RTVSPropertyOp48
 70
     1
102
RTVSPropertyOp49
 70
     1
102
RTVSPropertyOp50
 70
     1
102
RTVSPropertyOp51
 70
     0
102
RTVSPropertyOp52
 70
     0
102
RTVSPropertyOp53
 70
     1
102
RTVSPropertyOp54
 70
     1
102
RTVSPropertyOp55
 70
     1
102
RTVSPropertyOp56
 70
     1
102
RTVSPropertyOp57
 70
     1
102
RTVSPropertyOp58
 70
     1
102
RTVSPropertyOp59
 70
     1
102
RTVSPropertyOp60
 70
     1
102
RTVSPropertyOp61
 70
     1
102
RTVSPropertyOp62
 70
     1
  0
XRECORD
  5
17B4E
102
{ACAD_REACTORS
330
17B4D
102
}
330
17B4D
100
AcDbXrecord
280
     1
102
RTVSPost2010Prop28
280
     0
102
RTVSPost2010PropOp28
 70
     1
102
RTVSPost2010Prop29
280
     1
102
RTVSPost2010PropOp29
 70
     1
102
RTVSPost2010Prop30
280
     1
102
RTVSPost2010PropOp30
 70
     1
102
RTVSPost2010Prop31
280
     0
102
RTVSPost2010PropOp31
 70
     1
102
RTVSPost2010Prop32
280
     0
102
RTVSPost2010PropOp32
 70
     1
102
RTVSPost2010Prop33
280
     0
102
RTVSPost2010PropOp33
 70
     1
102
RTVSPost2010Prop34
280
     0
102
RTVSPost2010PropOp34
 70
     1
102
RTVSPost2010Prop35
280
     0
102
RTVSPost2010PropOp35
 70
     1
102
RTVSPost2010Prop36
280
     0
102
RTVSPost2010PropOp36
 70
     1
102
RTVSPost2010Prop37
 90
       50
102
RTVSPost2010PropOp37
 70
     1
102
RTVSPost2010Prop38
140
0.0
102
RTVSPost2010PropOp38
 70
     1
102
RTVSPost2010Prop39
140
1.0
102
RTVSPost2010PropOp39
 70
     1
102
RTVSPost2010Prop40
 90
        0
102
RTVSPost2010PropOp40
 70
     1
102
RTVSPost2010Prop41ColorIndex
 90
       18
102
RTVSPost2010Prop41ColorRGB
 90
        0
102
RTVSPost2010PropOp41
 70
     1
102
RTVSPost2010Prop42
 90
       50
102
RTVSPost2010PropOp42
 70
     1
102
RTVSPost2010Prop43
 90
        3
102
RTVSPost2010PropOp43
 70
     1
102
RTVSPost2010Prop44ColorIndex
 90
        5
102
RTVSPost2010Prop44ColorRGB
 90
      255
102
RTVSPost2010PropOp44
 70
     1
102
RTVSPost2010Prop45
280
     0
102
RTVSPost2010PropOp45
 70
     1
102
RTVSPost2010Prop46
 90
       50
102
RTVSPost2010PropOp46
 70
     1
102
RTVSPost2010Prop47
 90
       50
102
RTVSPost2010PropOp47
 70
     1
102
RTVSPost2010Prop48
 90
       50
102
RTVSPost2010PropOp48
 70
     1
102
RTVSPost2010Prop49
280
     0
102
RTVSPost2010PropOp49
 70
     1
102
RTVSPost2010Prop50
 90
       50
102
RTVSPost2010PropOp50
 70
     1
102
RTVSPost2010Prop51ColorIndex
 90
      256
102
RTVSPost2010Prop51ColorRGB
 90
-16777216
102
RTVSPost2010PropOp51
 70
     0
102
RTVSPost2010Prop52
140
1.0
102
RTVSPost2010PropOp52
 70
     0
102
RTVSPost2010Prop53
 90
        2
102
RTVSPost2010PropOp53
 70
     1
102
RTVSPost2010Prop54
  1
strokes_ogs.tif
102
RTVSPost2010PropOp54
 70
     1
102
RTVSPost2010Prop55
280
     0
102
RTVSPost2010PropOp55
 70
     1
102
RTVSPost2010Prop56
140
1.0
102
RTVSPost2010PropOp56
 70
     1
102
RTVSPost2010Prop57
140
1.0
102
RTVSPost2010PropOp57
 70
     1
102
RTVSPropertyOp0
 70
     1
102
RTVSPropertyOp1
 70
     1
102
RTVSPropertyOp2
 70
     1
102
RTVSPropertyOp3
 70
     1
102
RTVSPropertyOp4
 70
     1
102
RTVSPropertyOp5
 70
     1
102
RTVSPropertyOp6
 70
     1
102
RTVSPropertyOp7
 70
     1
102
RTVSPropertyOp8
 70
     1
102
RTVSPropertyOp9
 70
     1
102
RTVSPropertyOp10
 70
     1
102
RTVSPropertyOp11
 70
     1
102
RTVSPropertyOp12
 70
     1
102
RTVSPropertyOp13
 70
     1
102
RTVSPropertyOp14
 70
     1
102
RTVSPropertyOp15
 70
     1
102
RTVSPropertyOp16
 70
     1
102
RTVSPropertyOp17
 70
     1
102
RTVSPropertyOp18
 70
     1
102
RTVSPropertyOp19
 70
     1
102
RTVSPropertyOp20
 70
     1
102
RTVSPropertyOp21
 70
     1
102
RTVSPropertyOp22
 70
     1
102
RTVSPropertyOp23
 70
     1
102
RTVSPropertyOp24
 70
     1
102
RTVSPropertyOp25
 70
     1
102
RTVSPropertyOp26
 70
     1
102
RTVSPropertyOp27
 70
     1
102
RTVSPropertyOp28
 70
     1
102
RTVSPropertyOp29
 70
     1
102
RTVSPropertyOp30
 70
     1
102
RTVSPropertyOp31
 70
     1
102
RTVSPropertyOp32
 70
     1
102
RTVSPropertyOp33
 70
     1
102
RTVSPropertyOp34
 70
     1
102
RTVSPropertyOp35
 70
     1
102
RTVSPropertyOp36
 70
     1
102
RTVSPropertyOp37
 70
     1
102
RTVSPropertyOp38
 70
     1
102
RTVSPropertyOp39
 70
     1
102
RTVSPropertyOp40
 70
     1
102
RTVSPropertyOp41
 70
     1
102
RTVSPropertyOp42
 70
     1
102
RTVSPropertyOp43
 70
     1
102
RTVSPropertyOp44
 70
     1
102
RTVSPropertyOp45
 70
     1
102
RTVSPropertyOp46
 70
     1
102
RTVSPropertyOp47
 70
     1
102
RTVSPropertyOp48
 70
     1
102
RTVSPropertyOp49
 70
     1
102
RTVSPropertyOp50
 70
     1
102
RTVSPropertyOp51
 70
     0
102
RTVSPropertyOp52
 70
     0
102
RTVSPropertyOp53
 70
     1
102
RTVSPropertyOp54
 70
     1
102
RTVSPropertyOp55
 70
     1
102
RTVSPropertyOp56
 70
     1
102
RTVSPropertyOp57
 70
     1
102
RTVSPropertyOp58
 70
     1
102
RTVSPropertyOp59
 70
     1
102
RTVSPropertyOp60
 70
     1
102
RTVSPropertyOp61
 70
     1
102
RTVSPropertyOp62
 70
     1
  0
XRECORD
  5
17B68
102
{ACAD_REACTORS
330
17B67
102
}
330
17B67
100
AcDbXrecord
280
     1
102
RTVSPost2010Prop28
280
     0
102
RTVSPost2010PropOp28
 70
     0
102
RTVSPost2010Prop29
280
     1
102
RTVSPost2010PropOp29
 70
     0
102
RTVSPost2010Prop30
280
     1
102
RTVSPost2010PropOp30
 70
     0
102
RTVSPost2010Prop31
280
     0
102
RTVSPost2010PropOp31
 70
     0
102
RTVSPost2010Prop32
280
     0
102
RTVSPost2010PropOp32
 70
     0
102
RTVSPost2010Prop33
280
     0
102
RTVSPost2010PropOp33
 70
     0
102
RTVSPost2010Prop34
280
     0
102
RTVSPost2010PropOp34
 70
     0
102
RTVSPost2010Prop35
280
     0
102
RTVSPost2010PropOp35
 70
     0
102
RTVSPost2010Prop36
280
     0
102
RTVSPost2010PropOp36
 70
     0
102
RTVSPost2010Prop37
 90
       50
102
RTVSPost2010PropOp37
 70
     0
102
RTVSPost2010Prop38
140
0.0
102
RTVSPost2010PropOp38
 70
     0
102
RTVSPost2010Prop39
140
1.0
102
RTVSPost2010PropOp39
 70
     0
102
RTVSPost2010Prop40
 90
        0
102
RTVSPost2010PropOp40
 70
     0
102
RTVSPost2010Prop41ColorIndex
 90
       18
102
RTVSPost2010Prop41ColorRGB
 90
        0
102
RTVSPost2010PropOp41
 70
     0
102
RTVSPost2010Prop42
 90
       50
102
RTVSPost2010PropOp42
 70
     0
102
RTVSPost2010Prop43
 90
        3
102
RTVSPost2010PropOp43
 70
     0
102
RTVSPost2010Prop44ColorIndex
 90
        5
102
RTVSPost2010Prop44ColorRGB
 90
      255
102
RTVSPost2010PropOp44
 70
     0
102
RTVSPost2010Prop45
280
     0
102
RTVSPost2010PropOp45
 70
     0
102
RTVSPost2010Prop46
 90
       50
102
RTVSPost2010PropOp46
 70
     0
102
RTVSPost2010Prop47
 90
       50
102
RTVSPost2010PropOp47
 70
     0
102
RTVSPost2010Prop48
 90
       50
102
RTVSPost2010PropOp48
 70
     0
102
RTVSPost2010Prop49
280
     0
102
RTVSPost2010PropOp49
 70
     0
102
RTVSPost2010Prop50
 90
       50
102
RTVSPost2010PropOp50
 70
     0
102
RTVSPost2010Prop51ColorIndex
 90
      256
102
RTVSPost2010Prop51ColorRGB
 90
-16777216
102
RTVSPost2010PropOp51
 70
     0
102
RTVSPost2010Prop52
140
1.0
102
RTVSPost2010PropOp52
 70
     0
102
RTVSPost2010Prop53
 90
        2
102
RTVSPost2010PropOp53
 70
     0
102
RTVSPost2010Prop54
  1
strokes_ogs.tif
102
RTVSPost2010PropOp54
 70
     0
102
RTVSPost2010Prop55
280
     0
102
RTVSPost2010PropOp55
 70
     0
102
RTVSPost2010Prop56
140
1.0
102
RTVSPost2010PropOp56
 70
     0
102
RTVSPost2010Prop57
140
1.0
102
RTVSPost2010PropOp57
 70
     0
102
RTVSPropertyOp0
 70
     0
102
RTVSPropertyOp1
 70
     0
102
RTVSPropertyOp2
 70
     0
102
RTVSPropertyOp3
 70
     0
102
RTVSPropertyOp4
 70
     0
102
RTVSPropertyOp5
 70
     0
102
RTVSPropertyOp6
 70
     0
102
RTVSPropertyOp7
 70
     0
102
RTVSPropertyOp8
 70
     0
102
RTVSPropertyOp9
 70
     0
102
RTVSPropertyOp10
 70
     0
102
RTVSPropertyOp11
 70
     0
102
RTVSPropertyOp12
 70
     0
102
RTVSPropertyOp13
 70
     0
102
RTVSPropertyOp14
 70
     2
102
RTVSPropertyOp15
 70
     0
102
RTVSPropertyOp16
 70
     0
102
RTVSPropertyOp17
 70
     0
102
RTVSPropertyOp18
 70
     0
102
RTVSPropertyOp19
 70
     0
102
RTVSPropertyOp20
 70
     0
102
RTVSPropertyOp21
 70
     0
102
RTVSPropertyOp22
 70
     0
102
RTVSPropertyOp23
 70
     0
102
RTVSPropertyOp24
 70
     0
102
RTVSPropertyOp25
 70
     0
102
RTVSPropertyOp26
 70
     0
102
RTVSPropertyOp27
 70
     0
102
RTVSPropertyOp28
 70
     0
102
RTVSPropertyOp29
 70
     0
102
RTVSPropertyOp30
 70
     0
102
RTVSPropertyOp31
 70
     0
102
RTVSPropertyOp32
 70
     0
102
RTVSPropertyOp33
 70
     0
102
RTVSPropertyOp34
 70
     0
102
RTVSPropertyOp35
 70
     0
102
RTVSPropertyOp36
 70
     0
102
RTVSPropertyOp37
 70
     0
102
RTVSPropertyOp38
 70
     0
102
RTVSPropertyOp39
 70
     0
102
RTVSPropertyOp40
 70
     0
102
RTVSPropertyOp41
 70
     0
102
RTVSPropertyOp42
 70
     0
102
RTVSPropertyOp43
 70
     0
102
RTVSPropertyOp44
 70
     0
102
RTVSPropertyOp45
 70
     0
102
RTVSPropertyOp46
 70
     0
102
RTVSPropertyOp47
 70
     0
102
RTVSPropertyOp48
 70
     0
102
RTVSPropertyOp49
 70
     0
102
RTVSPropertyOp50
 70
     0
102
RTVSPropertyOp51
 70
     0
102
RTVSPropertyOp52
 70
     0
102
RTVSPropertyOp53
 70
     0
102
RTVSPropertyOp54
 70
     0
102
RTVSPropertyOp55
 70
     0
102
RTVSPropertyOp56
 70
     0
102
RTVSPropertyOp57
 70
     0
102
RTVSPropertyOp58
 70
     1
102
RTVSPropertyOp59
 70
     1
102
RTVSPropertyOp60
 70
     1
102
RTVSPropertyOp61
 70
     1
102
RTVSPropertyOp62
 70
     1
  0
XRECORD
  5
17B56
102
{ACAD_REACTORS
330
17B55
102
}
330
17B55
100
AcDbXrecord
280
     1
102
RTVSPost2010Prop28
280
     0
102
RTVSPost2010PropOp28
 70
     1
102
RTVSPost2010Prop29
280
     1
102
RTVSPost2010PropOp29
 70
     1
102
RTVSPost2010Prop30
280
     1
102
RTVSPost2010PropOp30
 70
     1
102
RTVSPost2010Prop31
280
     0
102
RTVSPost2010PropOp31
 70
     1
102
RTVSPost2010Prop32
280
     0
102
RTVSPost2010PropOp32
 70
     1
102
RTVSPost2010Prop33
280
     0
102
RTVSPost2010PropOp33
 70
     1
102
RTVSPost2010Prop34
280
     0
102
RTVSPost2010PropOp34
 70
     1
102
RTVSPost2010Prop35
280
     0
102
RTVSPost2010PropOp35
 70
     1
102
RTVSPost2010Prop36
280
     0
102
RTVSPost2010PropOp36
 70
     1
102
RTVSPost2010Prop37
 90
       50
102
RTVSPost2010PropOp37
 70
     1
102
RTVSPost2010Prop38
140
0.0
102
RTVSPost2010PropOp38
 70
     1
102
RTVSPost2010Prop39
140
1.0
102
RTVSPost2010PropOp39
 70
     1
102
RTVSPost2010Prop40
 90
        0
102
RTVSPost2010PropOp40
 70
     1
102
RTVSPost2010Prop41ColorIndex
 90
       18
102
RTVSPost2010Prop41ColorRGB
 90
        0
102
RTVSPost2010PropOp41
 70
     1
102
RTVSPost2010Prop42
 90
       50
102
RTVSPost2010PropOp42
 70
     1
102
RTVSPost2010Prop43
 90
        3
102
RTVSPost2010PropOp43
 70
     1
102
RTVSPost2010Prop44ColorIndex
 90
        5
102
RTVSPost2010Prop44ColorRGB
 90
      255
102
RTVSPost2010PropOp44
 70
     1
102
RTVSPost2010Prop45
280
     0
102
RTVSPost2010PropOp45
 70
     1
102
RTVSPost2010Prop46
 90
       50
102
RTVSPost2010PropOp46
 70
     1
102
RTVSPost2010Prop47
 90
       50
102
RTVSPost2010PropOp47
 70
     1
102
RTVSPost2010Prop48
 90
       50
102
RTVSPost2010PropOp48
 70
     1
102
RTVSPost2010Prop49
280
     0
102
RTVSPost2010PropOp49
 70
     1
102
RTVSPost2010Prop50
 90
       50
102
RTVSPost2010PropOp50
 70
     1
102
RTVSPost2010Prop51ColorIndex
 90
      256
102
RTVSPost2010Prop51ColorRGB
 90
-16777216
102
RTVSPost2010PropOp51
 70
     0
102
RTVSPost2010Prop52
140
1.0
102
RTVSPost2010PropOp52
 70
     0
102
RTVSPost2010Prop53
 90
        2
102
RTVSPost2010PropOp53
 70
     1
102
RTVSPost2010Prop54
  1
strokes_ogs.tif
102
RTVSPost2010PropOp54
 70
     1
102
RTVSPost2010Prop55
280
     0
102
RTVSPost2010PropOp55
 70
     1
102
RTVSPost2010Prop56
140
1.0
102
RTVSPost2010PropOp56
 70
     1
102
RTVSPost2010Prop57
140
1.0
102
RTVSPost2010PropOp57
 70
     1
102
RTVSPropertyOp0
 70
     1
102
RTVSPropertyOp1
 70
     1
102
RTVSPropertyOp2
 70
     1
102
RTVSPropertyOp3
 70
     1
102
RTVSPropertyOp4
 70
     1
102
RTVSPropertyOp5
 70
     1
102
RTVSPropertyOp6
 70
     1
102
RTVSPropertyOp7
 70
     1
102
RTVSPropertyOp8
 70
     1
102
RTVSPropertyOp9
 70
     1
102
RTVSPropertyOp10
 70
     1
102
RTVSPropertyOp11
 70
     1
102
RTVSPropertyOp12
 70
     1
102
RTVSPropertyOp13
 70
     1
102
RTVSPropertyOp14
 70
     1
102
RTVSPropertyOp15
 70
     1
102
RTVSPropertyOp16
 70
     1
102
RTVSPropertyOp17
 70
     1
102
RTVSPropertyOp18
 70
     1
102
RTVSPropertyOp19
 70
     1
102
RTVSPropertyOp20
 70
     1
102
RTVSPropertyOp21
 70
     1
102
RTVSPropertyOp22
 70
     1
102
RTVSPropertyOp23
 70
     1
102
RTVSPropertyOp24
 70
     1
102
RTVSPropertyOp25
 70
     1
102
RTVSPropertyOp26
 70
     1
102
RTVSPropertyOp27
 70
     1
102
RTVSPropertyOp28
 70
     1
102
RTVSPropertyOp29
 70
     1
102
RTVSPropertyOp30
 70
     1
102
RTVSPropertyOp31
 70
     1
102
RTVSPropertyOp32
 70
     1
102
RTVSPropertyOp33
 70
     1
102
RTVSPropertyOp34
 70
     1
102
RTVSPropertyOp35
 70
     1
102
RTVSPropertyOp36
 70
     1
102
RTVSPropertyOp37
 70
     1
102
RTVSPropertyOp38
 70
     1
102
RTVSPropertyOp39
 70
     1
102
RTVSPropertyOp40
 70
     1
102
RTVSPropertyOp41
 70
     1
102
RTVSPropertyOp42
 70
     1
102
RTVSPropertyOp43
 70
     1
102
RTVSPropertyOp44
 70
     1
102
RTVSPropertyOp45
 70
     1
102
RTVSPropertyOp46
 70
     1
102
RTVSPropertyOp47
 70
     1
102
RTVSPropertyOp48
 70
     1
102
RTVSPropertyOp49
 70
     1
102
RTVSPropertyOp50
 70
     1
102
RTVSPropertyOp51
 70
     0
102
RTVSPropertyOp52
 70
     0
102
RTVSPropertyOp53
 70
     1
102
RTVSPropertyOp54
 70
     1
102
RTVSPropertyOp55
 70
     1
102
RTVSPropertyOp56
 70
     1
102
RTVSPropertyOp57
 70
     1
102
RTVSPropertyOp58
 70
     1
102
RTVSPropertyOp59
 70
     1
102
RTVSPropertyOp60
 70
     1
102
RTVSPropertyOp61
 70
     1
102
RTVSPropertyOp62
 70
     1
  0
XRECORD
  5
17B3A
102
{ACAD_REACTORS
330
17B39
102
}
330
17B39
100
AcDbXrecord
280
     1
102
RTVSPost2010Prop28
280
     0
102
RTVSPost2010PropOp28
 70
     1
102
RTVSPost2010Prop29
280
     1
102
RTVSPost2010PropOp29
 70
     1
102
RTVSPost2010Prop30
280
     1
102
RTVSPost2010PropOp30
 70
     1
102
RTVSPost2010Prop31
280
     0
102
RTVSPost2010PropOp31
 70
     1
102
RTVSPost2010Prop32
280
     0
102
RTVSPost2010PropOp32
 70
     1
102
RTVSPost2010Prop33
280
     0
102
RTVSPost2010PropOp33
 70
     1
102
RTVSPost2010Prop34
280
     0
102
RTVSPost2010PropOp34
 70
     1
102
RTVSPost2010Prop35
280
     0
102
RTVSPost2010PropOp35
 70
     1
102
RTVSPost2010Prop36
280
     0
102
RTVSPost2010PropOp36
 70
     1
102
RTVSPost2010Prop37
 90
       50
102
RTVSPost2010PropOp37
 70
     1
102
RTVSPost2010Prop38
140
0.0
102
RTVSPost2010PropOp38
 70
     1
102
RTVSPost2010Prop39
140
1.0
102
RTVSPost2010PropOp39
 70
     1
102
RTVSPost2010Prop40
 90
        0
102
RTVSPost2010PropOp40
 70
     1
102
RTVSPost2010Prop41ColorIndex
 90
       18
102
RTVSPost2010Prop41ColorRGB
 90
        0
102
RTVSPost2010PropOp41
 70
     1
102
RTVSPost2010Prop42
 90
       50
102
RTVSPost2010PropOp42
 70
     1
102
RTVSPost2010Prop43
 90
        3
102
RTVSPost2010PropOp43
 70
     1
102
RTVSPost2010Prop44ColorIndex
 90
        5
102
RTVSPost2010Prop44ColorRGB
 90
      255
102
RTVSPost2010PropOp44
 70
     1
102
RTVSPost2010Prop45
280
     0
102
RTVSPost2010PropOp45
 70
     1
102
RTVSPost2010Prop46
 90
       50
102
RTVSPost2010PropOp46
 70
     1
102
RTVSPost2010Prop47
 90
       50
102
RTVSPost2010PropOp47
 70
     1
102
RTVSPost2010Prop48
 90
       50
102
RTVSPost2010PropOp48
 70
     1
102
RTVSPost2010Prop49
280
     0
102
RTVSPost2010PropOp49
 70
     1
102
RTVSPost2010Prop50
 90
       50
102
RTVSPost2010PropOp50
 70
     1
102
RTVSPost2010Prop51ColorIndex
 90
      256
102
RTVSPost2010Prop51ColorRGB
 90
-16777216
102
RTVSPost2010PropOp51
 70
     0
102
RTVSPost2010Prop52
140
1.0
102
RTVSPost2010PropOp52
 70
     0
102
RTVSPost2010Prop53
 90
        2
102
RTVSPost2010PropOp53
 70
     1
102
RTVSPost2010Prop54
  1
strokes_ogs.tif
102
RTVSPost2010PropOp54
 70
     1
102
RTVSPost2010Prop55
280
     0
102
RTVSPost2010PropOp55
 70
     1
102
RTVSPost2010Prop56
140
1.0
102
RTVSPost2010PropOp56
 70
     1
102
RTVSPost2010Prop57
140
1.0
102
RTVSPost2010PropOp57
 70
     1
102
RTVSPropertyOp0
 70
     1
102
RTVSPropertyOp1
 70
     1
102
RTVSPropertyOp2
 70
     1
102
RTVSPropertyOp3
 70
     1
102
RTVSPropertyOp4
 70
     1
102
RTVSPropertyOp5
 70
     1
102
RTVSPropertyOp6
 70
     1
102
RTVSPropertyOp7
 70
     1
102
RTVSPropertyOp8
 70
     1
102
RTVSPropertyOp9
 70
     1
102
RTVSPropertyOp10
 70
     1
102
RTVSPropertyOp11
 70
     1
102
RTVSPropertyOp12
 70
     1
102
RTVSPropertyOp13
 70
     1
102
RTVSPropertyOp14
 70
     1
102
RTVSPropertyOp15
 70
     1
102
RTVSPropertyOp16
 70
     1
102
RTVSPropertyOp17
 70
     1
102
RTVSPropertyOp18
 70
     1
102
RTVSPropertyOp19
 70
     1
102
RTVSPropertyOp20
 70
     1
102
RTVSPropertyOp21
 70
     1
102
RTVSPropertyOp22
 70
     1
102
RTVSPropertyOp23
 70
     1
102
RTVSPropertyOp24
 70
     1
102
RTVSPropertyOp25
 70
     1
102
RTVSPropertyOp26
 70
     1
102
RTVSPropertyOp27
 70
     1
102
RTVSPropertyOp28
 70
     1
102
RTVSPropertyOp29
 70
     1
102
RTVSPropertyOp30
 70
     1
102
RTVSPropertyOp31
 70
     1
102
RTVSPropertyOp32
 70
     1
102
RTVSPropertyOp33
 70
     1
102
RTVSPropertyOp34
 70
     1
102
RTVSPropertyOp35
 70
     1
102
RTVSPropertyOp36
 70
     1
102
RTVSPropertyOp37
 70
     1
102
RTVSPropertyOp38
 70
     1
102
RTVSPropertyOp39
 70
     1
102
RTVSPropertyOp40
 70
     1
102
RTVSPropertyOp41
 70
     1
102
RTVSPropertyOp42
 70
     1
102
RTVSPropertyOp43
 70
     1
102
RTVSPropertyOp44
 70
     1
102
RTVSPropertyOp45
 70
     1
102
RTVSPropertyOp46
 70
     1
102
RTVSPropertyOp47
 70
     1
102
RTVSPropertyOp48
 70
     1
102
RTVSPropertyOp49
 70
     1
102
RTVSPropertyOp50
 70
     1
102
RTVSPropertyOp51
 70
     0
102
RTVSPropertyOp52
 70
     0
102
RTVSPropertyOp53
 70
     1
102
RTVSPropertyOp54
 70
     1
102
RTVSPropertyOp55
 70
     1
102
RTVSPropertyOp56
 70
     1
102
RTVSPropertyOp57
 70
     1
102
RTVSPropertyOp58
 70
     1
102
RTVSPropertyOp59
 70
     1
102
RTVSPropertyOp60
 70
     1
102
RTVSPropertyOp61
 70
     1
102
RTVSPropertyOp62
 70
     1
  0
XRECORD
  5
17B3C
102
{ACAD_REACTORS
330
17B3B
102
}
330
17B3B
100
AcDbXrecord
280
     1
102
RTVSPost2010Prop28
280
     0
102
RTVSPost2010PropOp28
 70
     1
102
RTVSPost2010Prop29
280
     1
102
RTVSPost2010PropOp29
 70
     1
102
RTVSPost2010Prop30
280
     1
102
RTVSPost2010PropOp30
 70
     1
102
RTVSPost2010Prop31
280
     0
102
RTVSPost2010PropOp31
 70
     1
102
RTVSPost2010Prop32
280
     0
102
RTVSPost2010PropOp32
 70
     1
102
RTVSPost2010Prop33
280
     0
102
RTVSPost2010PropOp33
 70
     1
102
RTVSPost2010Prop34
280
     0
102
RTVSPost2010PropOp34
 70
     1
102
RTVSPost2010Prop35
280
     0
102
RTVSPost2010PropOp35
 70
     1
102
RTVSPost2010Prop36
280
     0
102
RTVSPost2010PropOp36
 70
     1
102
RTVSPost2010Prop37
 90
       50
102
RTVSPost2010PropOp37
 70
     1
102
RTVSPost2010Prop38
140
0.0
102
RTVSPost2010PropOp38
 70
     1
102
RTVSPost2010Prop39
140
1.0
102
RTVSPost2010PropOp39
 70
     1
102
RTVSPost2010Prop40
 90
        0
102
RTVSPost2010PropOp40
 70
     1
102
RTVSPost2010Prop41ColorIndex
 90
       18
102
RTVSPost2010Prop41ColorRGB
 90
        0
102
RTVSPost2010PropOp41
 70
     1
102
RTVSPost2010Prop42
 90
       50
102
RTVSPost2010PropOp42
 70
     1
102
RTVSPost2010Prop43
 90
        3
102
RTVSPost2010PropOp43
 70
     1
102
RTVSPost2010Prop44ColorIndex
 90
        5
102
RTVSPost2010Prop44ColorRGB
 90
      255
102
RTVSPost2010PropOp44
 70
     1
102
RTVSPost2010Prop45
280
     0
102
RTVSPost2010PropOp45
 70
     1
102
RTVSPost2010Prop46
 90
       50
102
RTVSPost2010PropOp46
 70
     1
102
RTVSPost2010Prop47
 90
       50
102
RTVSPost2010PropOp47
 70
     1
102
RTVSPost2010Prop48
 90
       50
102
RTVSPost2010PropOp48
 70
     1
102
RTVSPost2010Prop49
280
     0
102
RTVSPost2010PropOp49
 70
     1
102
RTVSPost2010Prop50
 90
       50
102
RTVSPost2010PropOp50
 70
     1
102
RTVSPost2010Prop51ColorIndex
 90
      256
102
RTVSPost2010Prop51ColorRGB
 90
-16777216
102
RTVSPost2010PropOp51
 70
     0
102
RTVSPost2010Prop52
140
1.0
102
RTVSPost2010PropOp52
 70
     0
102
RTVSPost2010Prop53
 90
        2
102
RTVSPost2010PropOp53
 70
     1
102
RTVSPost2010Prop54
  1
strokes_ogs.tif
102
RTVSPost2010PropOp54
 70
     1
102
RTVSPost2010Prop55
280
     0
102
RTVSPost2010PropOp55
 70
     1
102
RTVSPost2010Prop56
140
1.0
102
RTVSPost2010PropOp56
 70
     1
102
RTVSPost2010Prop57
140
1.0
102
RTVSPost2010PropOp57
 70
     1
102
RTVSPropertyOp0
 70
     1
102
RTVSPropertyOp1
 70
     1
102
RTVSPropertyOp2
 70
     1
102
RTVSPropertyOp3
 70
     1
102
RTVSPropertyOp4
 70
     1
102
RTVSPropertyOp5
 70
     1
102
RTVSPropertyOp6
 70
     1
102
RTVSPropertyOp7
 70
     1
102
RTVSPropertyOp8
 70
     1
102
RTVSPropertyOp9
 70
     1
102
RTVSPropertyOp10
 70
     1
102
RTVSPropertyOp11
 70
     1
102
RTVSPropertyOp12
 70
     1
102
RTVSPropertyOp13
 70
     1
102
RTVSPropertyOp14
 70
     1
102
RTVSPropertyOp15
 70
     1
102
RTVSPropertyOp16
 70
     1
102
RTVSPropertyOp17
 70
     1
102
RTVSPropertyOp18
 70
     1
102
RTVSPropertyOp19
 70
     1
102
RTVSPropertyOp20
 70
     1
102
RTVSPropertyOp21
 70
     1
102
RTVSPropertyOp22
 70
     1
102
RTVSPropertyOp23
 70
     1
102
RTVSPropertyOp24
 70
     1
102
RTVSPropertyOp25
 70
     1
102
RTVSPropertyOp26
 70
     1
102
RTVSPropertyOp27
 70
     1
102
RTVSPropertyOp28
 70
     1
102
RTVSPropertyOp29
 70
     1
102
RTVSPropertyOp30
 70
     1
102
RTVSPropertyOp31
 70
     1
102
RTVSPropertyOp32
 70
     1
102
RTVSPropertyOp33
 70
     1
102
RTVSPropertyOp34
 70
     1
102
RTVSPropertyOp35
 70
     1
102
RTVSPropertyOp36
 70
     1
102
RTVSPropertyOp37
 70
     1
102
RTVSPropertyOp38
 70
     1
102
RTVSPropertyOp39
 70
     1
102
RTVSPropertyOp40
 70
     1
102
RTVSPropertyOp41
 70
     1
102
RTVSPropertyOp42
 70
     1
102
RTVSPropertyOp43
 70
     1
102
RTVSPropertyOp44
 70
     1
102
RTVSPropertyOp45
 70
     1
102
RTVSPropertyOp46
 70
     1
102
RTVSPropertyOp47
 70
     1
102
RTVSPropertyOp48
 70
     1
102
RTVSPropertyOp49
 70
     1
102
RTVSPropertyOp50
 70
     1
102
RTVSPropertyOp51
 70
     0
102
RTVSPropertyOp52
 70
     0
102
RTVSPropertyOp53
 70
     1
102
RTVSPropertyOp54
 70
     1
102
RTVSPropertyOp55
 70
     1
102
RTVSPropertyOp56
 70
     1
102
RTVSPropertyOp57
 70
     1
102
RTVSPropertyOp58
 70
     1
102
RTVSPropertyOp59
 70
     1
102
RTVSPropertyOp60
 70
     1
102
RTVSPropertyOp61
 70
     1
102
RTVSPropertyOp62
 70
     1
  0
XRECORD
  5
17B3E
102
{ACAD_REACTORS
330
17B3D
102
}
330
17B3D
100
AcDbXrecord
280
     1
102
RTVSPost2010Prop28
280
     0
102
RTVSPost2010PropOp28
 70
     1
102
RTVSPost2010Prop29
280
     1
102
RTVSPost2010PropOp29
 70
     1
102
RTVSPost2010Prop30
280
     1
102
RTVSPost2010PropOp30
 70
     1
102
RTVSPost2010Prop31
280
     0
102
RTVSPost2010PropOp31
 70
     1
102
RTVSPost2010Prop32
280
     0
102
RTVSPost2010PropOp32
 70
     1
102
RTVSPost2010Prop33
280
     0
102
RTVSPost2010PropOp33
 70
     1
102
RTVSPost2010Prop34
280
     0
102
RTVSPost2010PropOp34
 70
     1
102
RTVSPost2010Prop35
280
     0
102
RTVSPost2010PropOp35
 70
     1
102
RTVSPost2010Prop36
280
     0
102
RTVSPost2010PropOp36
 70
     1
102
RTVSPost2010Prop37
 90
       50
102
RTVSPost2010PropOp37
 70
     1
102
RTVSPost2010Prop38
140
0.0
102
RTVSPost2010PropOp38
 70
     1
102
RTVSPost2010Prop39
140
1.0
102
RTVSPost2010PropOp39
 70
     1
102
RTVSPost2010Prop40
 90
        0
102
RTVSPost2010PropOp40
 70
     1
102
RTVSPost2010Prop41ColorIndex
 90
       18
102
RTVSPost2010Prop41ColorRGB
 90
        0
102
RTVSPost2010PropOp41
 70
     1
102
RTVSPost2010Prop42
 90
       50
102
RTVSPost2010PropOp42
 70
     1
102
RTVSPost2010Prop43
 90
        3
102
RTVSPost2010PropOp43
 70
     1
102
RTVSPost2010Prop44ColorIndex
 90
        5
102
RTVSPost2010Prop44ColorRGB
 90
      255
102
RTVSPost2010PropOp44
 70
     1
102
RTVSPost2010Prop45
280
     0
102
RTVSPost2010PropOp45
 70
     1
102
RTVSPost2010Prop46
 90
       50
102
RTVSPost2010PropOp46
 70
     1
102
RTVSPost2010Prop47
 90
       50
102
RTVSPost2010PropOp47
 70
     1
102
RTVSPost2010Prop48
 90
       50
102
RTVSPost2010PropOp48
 70
     1
102
RTVSPost2010Prop49
280
     0
102
RTVSPost2010PropOp49
 70
     1
102
RTVSPost2010Prop50
 90
       50
102
RTVSPost2010PropOp50
 70
     1
102
RTVSPost2010Prop51ColorIndex
 90
      256
102
RTVSPost2010Prop51ColorRGB
 90
-16777216
102
RTVSPost2010PropOp51
 70
     0
102
RTVSPost2010Prop52
140
1.0
102
RTVSPost2010PropOp52
 70
     0
102
RTVSPost2010Prop53
 90
        2
102
RTVSPost2010PropOp53
 70
     1
102
RTVSPost2010Prop54
  1
strokes_ogs.tif
102
RTVSPost2010PropOp54
 70
     1
102
RTVSPost2010Prop55
280
     0
102
RTVSPost2010PropOp55
 70
     1
102
RTVSPost2010Prop56
140
1.0
102
RTVSPost2010PropOp56
 70
     1
102
RTVSPost2010Prop57
140
1.0
102
RTVSPost2010PropOp57
 70
     1
102
RTVSPropertyOp0
 70
     1
102
RTVSPropertyOp1
 70
     1
102
RTVSPropertyOp2
 70
     1
102
RTVSPropertyOp3
 70
     1
102
RTVSPropertyOp4
 70
     1
102
RTVSPropertyOp5
 70
     1
102
RTVSPropertyOp6
 70
     1
102
RTVSPropertyOp7
 70
     1
102
RTVSPropertyOp8
 70
     1
102
RTVSPropertyOp9
 70
     1
102
RTVSPropertyOp10
 70
     1
102
RTVSPropertyOp11
 70
     1
102
RTVSPropertyOp12
 70
     1
102
RTVSPropertyOp13
 70
     1
102
RTVSPropertyOp14
 70
     1
102
RTVSPropertyOp15
 70
     1
102
RTVSPropertyOp16
 70
     1
102
RTVSPropertyOp17
 70
     1
102
RTVSPropertyOp18
 70
     1
102
RTVSPropertyOp19
 70
     1
102
RTVSPropertyOp20
 70
     1
102
RTVSPropertyOp21
 70
     1
102
RTVSPropertyOp22
 70
     1
102
RTVSPropertyOp23
 70
     1
102
RTVSPropertyOp24
 70
     1
102
RTVSPropertyOp25
 70
     1
102
RTVSPropertyOp26
 70
     1
102
RTVSPropertyOp27
 70
     1
102
RTVSPropertyOp28
 70
     1
102
RTVSPropertyOp29
 70
     1
102
RTVSPropertyOp30
 70
     1
102
RTVSPropertyOp31
 70
     1
102
RTVSPropertyOp32
 70
     1
102
RTVSPropertyOp33
 70
     1
102
RTVSPropertyOp34
 70
     1
102
RTVSPropertyOp35
 70
     1
102
RTVSPropertyOp36
 70
     1
102
RTVSPropertyOp37
 70
     1
102
RTVSPropertyOp38
 70
     1
102
RTVSPropertyOp39
 70
     1
102
RTVSPropertyOp40
 70
     1
102
RTVSPropertyOp41
 70
     1
102
RTVSPropertyOp42
 70
     1
102
RTVSPropertyOp43
 70
     1
102
RTVSPropertyOp44
 70
     1
102
RTVSPropertyOp45
 70
     1
102
RTVSPropertyOp46
 70
     1
102
RTVSPropertyOp47
 70
     1
102
RTVSPropertyOp48
 70
     1
102
RTVSPropertyOp49
 70
     1
102
RTVSPropertyOp50
 70
     1
102
RTVSPropertyOp51
 70
     0
102
RTVSPropertyOp52
 70
     0
102
RTVSPropertyOp53
 70
     1
102
RTVSPropertyOp54
 70
     1
102
RTVSPropertyOp55
 70
     1
102
RTVSPropertyOp56
 70
     1
102
RTVSPropertyOp57
 70
     1
102
RTVSPropertyOp58
 70
     1
102
RTVSPropertyOp59
 70
     1
102
RTVSPropertyOp60
 70
     1
102
RTVSPropertyOp61
 70
     1
102
RTVSPropertyOp62
 70
     1
  0
XRECORD
  5
17B40
102
{ACAD_REACTORS
330
17B3F
102
}
330
17B3F
100
AcDbXrecord
280
     1
102
RTVSPost2010Prop28
280
     0
102
RTVSPost2010PropOp28
 70
     1
102
RTVSPost2010Prop29
280
     1
102
RTVSPost2010PropOp29
 70
     1
102
RTVSPost2010Prop30
280
     1
102
RTVSPost2010PropOp30
 70
     1
102
RTVSPost2010Prop31
280
     0
102
RTVSPost2010PropOp31
 70
     1
102
RTVSPost2010Prop32
280
     0
102
RTVSPost2010PropOp32
 70
     1
102
RTVSPost2010Prop33
280
     0
102
RTVSPost2010PropOp33
 70
     1
102
RTVSPost2010Prop34
280
     0
102
RTVSPost2010PropOp34
 70
     1
102
RTVSPost2010Prop35
280
     0
102
RTVSPost2010PropOp35
 70
     1
102
RTVSPost2010Prop36
280
     0
102
RTVSPost2010PropOp36
 70
     1
102
RTVSPost2010Prop37
 90
       50
102
RTVSPost2010PropOp37
 70
     1
102
RTVSPost2010Prop38
140
0.0
102
RTVSPost2010PropOp38
 70
     1
102
RTVSPost2010Prop39
140
1.0
102
RTVSPost2010PropOp39
 70
     1
102
RTVSPost2010Prop40
 90
        0
102
RTVSPost2010PropOp40
 70
     1
102
RTVSPost2010Prop41ColorIndex
 90
       18
102
RTVSPost2010Prop41ColorRGB
 90
        0
102
RTVSPost2010PropOp41
 70
     1
102
RTVSPost2010Prop42
 90
       50
102
RTVSPost2010PropOp42
 70
     1
102
RTVSPost2010Prop43
 90
        3
102
RTVSPost2010PropOp43
 70
     1
102
RTVSPost2010Prop44ColorIndex
 90
        5
102
RTVSPost2010Prop44ColorRGB
 90
      255
102
RTVSPost2010PropOp44
 70
     1
102
RTVSPost2010Prop45
280
     0
102
RTVSPost2010PropOp45
 70
     1
102
RTVSPost2010Prop46
 90
       50
102
RTVSPost2010PropOp46
 70
     1
102
RTVSPost2010Prop47
 90
       50
102
RTVSPost2010PropOp47
 70
     1
102
RTVSPost2010Prop48
 90
       50
102
RTVSPost2010PropOp48
 70
     1
102
RTVSPost2010Prop49
280
     0
102
RTVSPost2010PropOp49
 70
     1
102
RTVSPost2010Prop50
 90
       50
102
RTVSPost2010PropOp50
 70
     1
102
RTVSPost2010Prop51ColorIndex
 90
      256
102
RTVSPost2010Prop51ColorRGB
 90
-16777216
102
RTVSPost2010PropOp51
 70
     0
102
RTVSPost2010Prop52
140
1.0
102
RTVSPost2010PropOp52
 70
     0
102
RTVSPost2010Prop53
 90
        2
102
RTVSPost2010PropOp53
 70
     1
102
RTVSPost2010Prop54
  1
strokes_ogs.tif
102
RTVSPost2010PropOp54
 70
     1
102
RTVSPost2010Prop55
280
     0
102
RTVSPost2010PropOp55
 70
     1
102
RTVSPost2010Prop56
140
1.0
102
RTVSPost2010PropOp56
 70
     1
102
RTVSPost2010Prop57
140
1.0
102
RTVSPost2010PropOp57
 70
     1
102
RTVSPropertyOp0
 70
     1
102
RTVSPropertyOp1
 70
     1
102
RTVSPropertyOp2
 70
     1
102
RTVSPropertyOp3
 70
     1
102
RTVSPropertyOp4
 70
     1
102
RTVSPropertyOp5
 70
     1
102
RTVSPropertyOp6
 70
     1
102
RTVSPropertyOp7
 70
     1
102
RTVSPropertyOp8
 70
     1
102
RTVSPropertyOp9
 70
     1
102
RTVSPropertyOp10
 70
     1
102
RTVSPropertyOp11
 70
     1
102
RTVSPropertyOp12
 70
     1
102
RTVSPropertyOp13
 70
     1
102
RTVSPropertyOp14
 70
     1
102
RTVSPropertyOp15
 70
     1
102
RTVSPropertyOp16
 70
     1
102
RTVSPropertyOp17
 70
     1
102
RTVSPropertyOp18
 70
     1
102
RTVSPropertyOp19
 70
     1
102
RTVSPropertyOp20
 70
     1
102
RTVSPropertyOp21
 70
     1
102
RTVSPropertyOp22
 70
     1
102
RTVSPropertyOp23
 70
     1
102
RTVSPropertyOp24
 70
     1
102
RTVSPropertyOp25
 70
     1
102
RTVSPropertyOp26
 70
     1
102
RTVSPropertyOp27
 70
     1
102
RTVSPropertyOp28
 70
     1
102
RTVSPropertyOp29
 70
     1
102
RTVSPropertyOp30
 70
     1
102
RTVSPropertyOp31
 70
     1
102
RTVSPropertyOp32
 70
     1
102
RTVSPropertyOp33
 70
     1
102
RTVSPropertyOp34
 70
     1
102
RTVSPropertyOp35
 70
     1
102
RTVSPropertyOp36
 70
     1
102
RTVSPropertyOp37
 70
     1
102
RTVSPropertyOp38
 70
     1
102
RTVSPropertyOp39
 70
     1
102
RTVSPropertyOp40
 70
     1
102
RTVSPropertyOp41
 70
     1
102
RTVSPropertyOp42
 70
     1
102
RTVSPropertyOp43
 70
     1
102
RTVSPropertyOp44
 70
     1
102
RTVSPropertyOp45
 70
     1
102
RTVSPropertyOp46
 70
     1
102
RTVSPropertyOp47
 70
     1
102
RTVSPropertyOp48
 70
     1
102
RTVSPropertyOp49
 70
     1
102
RTVSPropertyOp50
 70
     1
102
RTVSPropertyOp51
 70
     0
102
RTVSPropertyOp52
 70
     0
102
RTVSPropertyOp53
 70
     1
102
RTVSPropertyOp54
 70
     1
102
RTVSPropertyOp55
 70
     1
102
RTVSPropertyOp56
 70
     1
102
RTVSPropertyOp57
 70
     1
102
RTVSPropertyOp58
 70
     1
102
RTVSPropertyOp59
 70
     1
102
RTVSPropertyOp60
 70
     1
102
RTVSPropertyOp61
 70
     1
102
RTVSPropertyOp62
 70
     1
  0
XRECORD
  5
17B48
102
{ACAD_REACTORS
330
17B47
102
}
330
17B47
100
AcDbXrecord
280
     1
102
RTVSPost2010Prop28
280
     0
102
RTVSPost2010PropOp28
 70
     1
102
RTVSPost2010Prop29
280
     1
102
RTVSPost2010PropOp29
 70
     1
102
RTVSPost2010Prop30
280
     1
102
RTVSPost2010PropOp30
 70
     1
102
RTVSPost2010Prop31
280
     0
102
RTVSPost2010PropOp31
 70
     1
102
RTVSPost2010Prop32
280
     0
102
RTVSPost2010PropOp32
 70
     1
102
RTVSPost2010Prop33
280
     0
102
RTVSPost2010PropOp33
 70
     1
102
RTVSPost2010Prop34
280
     0
102
RTVSPost2010PropOp34
 70
     1
102
RTVSPost2010Prop35
280
     0
102
RTVSPost2010PropOp35
 70
     1
102
RTVSPost2010Prop36
280
     0
102
RTVSPost2010PropOp36
 70
     1
102
RTVSPost2010Prop37
 90
       50
102
RTVSPost2010PropOp37
 70
     1
102
RTVSPost2010Prop38
140
0.0
102
RTVSPost2010PropOp38
 70
     1
102
RTVSPost2010Prop39
140
1.0
102
RTVSPost2010PropOp39
 70
     1
102
RTVSPost2010Prop40
 90
        0
102
RTVSPost2010PropOp40
 70
     1
102
RTVSPost2010Prop41ColorIndex
 90
       18
102
RTVSPost2010Prop41ColorRGB
 90
        0
102
RTVSPost2010PropOp41
 70
     1
102
RTVSPost2010Prop42
 90
       50
102
RTVSPost2010PropOp42
 70
     1
102
RTVSPost2010Prop43
 90
        3
102
RTVSPost2010PropOp43
 70
     1
102
RTVSPost2010Prop44ColorIndex
 90
        5
102
RTVSPost2010Prop44ColorRGB
 90
      255
102
RTVSPost2010PropOp44
 70
     1
102
RTVSPost2010Prop45
280
     0
102
RTVSPost2010PropOp45
 70
     1
102
RTVSPost2010Prop46
 90
       50
102
RTVSPost2010PropOp46
 70
     1
102
RTVSPost2010Prop47
 90
       50
102
RTVSPost2010PropOp47
 70
     1
102
RTVSPost2010Prop48
 90
       50
102
RTVSPost2010PropOp48
 70
     1
102
RTVSPost2010Prop49
280
     0
102
RTVSPost2010PropOp49
 70
     1
102
RTVSPost2010Prop50
 90
       50
102
RTVSPost2010PropOp50
 70
     1
102
RTVSPost2010Prop51ColorIndex
 90
      256
102
RTVSPost2010Prop51ColorRGB
 90
-16777216
102
RTVSPost2010PropOp51
 70
     0
102
RTVSPost2010Prop52
140
1.0
102
RTVSPost2010PropOp52
 70
     0
102
RTVSPost2010Prop53
 90
        2
102
RTVSPost2010PropOp53
 70
     1
102
RTVSPost2010Prop54
  1
strokes_ogs.tif
102
RTVSPost2010PropOp54
 70
     1
102
RTVSPost2010Prop55
280
     0
102
RTVSPost2010PropOp55
 70
     1
102
RTVSPost2010Prop56
140
1.0
102
RTVSPost2010PropOp56
 70
     1
102
RTVSPost2010Prop57
140
1.0
102
RTVSPost2010PropOp57
 70
     1
102
RTVSPropertyOp0
 70
     1
102
RTVSPropertyOp1
 70
     1
102
RTVSPropertyOp2
 70
     1
102
RTVSPropertyOp3
 70
     1
102
RTVSPropertyOp4
 70
     1
102
RTVSPropertyOp5
 70
     1
102
RTVSPropertyOp6
 70
     1
102
RTVSPropertyOp7
 70
     1
102
RTVSPropertyOp8
 70
     1
102
RTVSPropertyOp9
 70
     1
102
RTVSPropertyOp10
 70
     1
102
RTVSPropertyOp11
 70
     1
102
RTVSPropertyOp12
 70
     1
102
RTVSPropertyOp13
 70
     1
102
RTVSPropertyOp14
 70
     1
102
RTVSPropertyOp15
 70
     1
102
RTVSPropertyOp16
 70
     1
102
RTVSPropertyOp17
 70
     1
102
RTVSPropertyOp18
 70
     1
102
RTVSPropertyOp19
 70
     1
102
RTVSPropertyOp20
 70
     1
102
RTVSPropertyOp21
 70
     1
102
RTVSPropertyOp22
 70
     1
102
RTVSPropertyOp23
 70
     1
102
RTVSPropertyOp24
 70
     1
102
RTVSPropertyOp25
 70
     1
102
RTVSPropertyOp26
 70
     1
102
RTVSPropertyOp27
 70
     1
102
RTVSPropertyOp28
 70
     1
102
RTVSPropertyOp29
 70
     1
102
RTVSPropertyOp30
 70
     1
102
RTVSPropertyOp31
 70
     1
102
RTVSPropertyOp32
 70
     1
102
RTVSPropertyOp33
 70
     1
102
RTVSPropertyOp34
 70
     1
102
RTVSPropertyOp35
 70
     1
102
RTVSPropertyOp36
 70
     1
102
RTVSPropertyOp37
 70
     1
102
RTVSPropertyOp38
 70
     1
102
RTVSPropertyOp39
 70
     1
102
RTVSPropertyOp40
 70
     1
102
RTVSPropertyOp41
 70
     1
102
RTVSPropertyOp42
 70
     1
102
RTVSPropertyOp43
 70
     1
102
RTVSPropertyOp44
 70
     1
102
RTVSPropertyOp45
 70
     1
102
RTVSPropertyOp46
 70
     1
102
RTVSPropertyOp47
 70
     1
102
RTVSPropertyOp48
 70
     1
102
RTVSPropertyOp49
 70
     1
102
RTVSPropertyOp50
 70
     1
102
RTVSPropertyOp51
 70
     0
102
RTVSPropertyOp52
 70
     0
102
RTVSPropertyOp53
 70
     1
102
RTVSPropertyOp54
 70
     1
102
RTVSPropertyOp55
 70
     1
102
RTVSPropertyOp56
 70
     1
102
RTVSPropertyOp57
 70
     1
102
RTVSPropertyOp58
 70
     1
102
RTVSPropertyOp59
 70
     1
102
RTVSPropertyOp60
 70
     1
102
RTVSPropertyOp61
 70
     1
102
RTVSPropertyOp62
 70
     1
  0
XRECORD
  5
17B64
102
{ACAD_REACTORS
330
17B63
102
}
330
17B63
100
AcDbXrecord
280
     1
102
RTVSPost2010Prop28
280
     0
102
RTVSPost2010PropOp28
 70
     0
102
RTVSPost2010Prop29
280
     1
102
RTVSPost2010PropOp29
 70
     0
102
RTVSPost2010Prop30
280
     1
102
RTVSPost2010PropOp30
 70
     0
102
RTVSPost2010Prop31
280
     0
102
RTVSPost2010PropOp31
 70
     0
102
RTVSPost2010Prop32
280
     0
102
RTVSPost2010PropOp32
 70
     0
102
RTVSPost2010Prop33
280
     0
102
RTVSPost2010PropOp33
 70
     0
102
RTVSPost2010Prop34
280
     0
102
RTVSPost2010PropOp34
 70
     0
102
RTVSPost2010Prop35
280
     0
102
RTVSPost2010PropOp35
 70
     0
102
RTVSPost2010Prop36
280
     0
102
RTVSPost2010PropOp36
 70
     0
102
RTVSPost2010Prop37
 90
       50
102
RTVSPost2010PropOp37
 70
     0
102
RTVSPost2010Prop38
140
0.0
102
RTVSPost2010PropOp38
 70
     0
102
RTVSPost2010Prop39
140
1.0
102
RTVSPost2010PropOp39
 70
     0
102
RTVSPost2010Prop40
 90
        0
102
RTVSPost2010PropOp40
 70
     0
102
RTVSPost2010Prop41ColorIndex
 90
       18
102
RTVSPost2010Prop41ColorRGB
 90
        0
102
RTVSPost2010PropOp41
 70
     0
102
RTVSPost2010Prop42
 90
       50
102
RTVSPost2010PropOp42
 70
     0
102
RTVSPost2010Prop43
 90
        3
102
RTVSPost2010PropOp43
 70
     0
102
RTVSPost2010Prop44ColorIndex
 90
        5
102
RTVSPost2010Prop44ColorRGB
 90
      255
102
RTVSPost2010PropOp44
 70
     0
102
RTVSPost2010Prop45
280
     0
102
RTVSPost2010PropOp45
 70
     0
102
RTVSPost2010Prop46
 90
       50
102
RTVSPost2010PropOp46
 70
     0
102
RTVSPost2010Prop47
 90
       50
102
RTVSPost2010PropOp47
 70
     0
102
RTVSPost2010Prop48
 90
       50
102
RTVSPost2010PropOp48
 70
     0
102
RTVSPost2010Prop49
280
     0
102
RTVSPost2010PropOp49
 70
     0
102
RTVSPost2010Prop50
 90
       50
102
RTVSPost2010PropOp50
 70
     0
102
RTVSPost2010Prop51ColorIndex
 90
      256
102
RTVSPost2010Prop51ColorRGB
 90
-16777216
102
RTVSPost2010PropOp51
 70
     0
102
RTVSPost2010Prop52
140
1.0
102
RTVSPost2010PropOp52
 70
     0
102
RTVSPost2010Prop53
 90
        2
102
RTVSPost2010PropOp53
 70
     0
102
RTVSPost2010Prop54
  1
strokes_ogs.tif
102
RTVSPost2010PropOp54
 70
     0
102
RTVSPost2010Prop55
280
     0
102
RTVSPost2010PropOp55
 70
     0
102
RTVSPost2010Prop56
140
1.0
102
RTVSPost2010PropOp56
 70
     0
102
RTVSPost2010Prop57
140
1.0
102
RTVSPost2010PropOp57
 70
     0
102
RTVSPropertyOp0
 70
     0
102
RTVSPropertyOp1
 70
     0
102
RTVSPropertyOp2
 70
     0
102
RTVSPropertyOp3
 70
     0
102
RTVSPropertyOp4
 70
     0
102
RTVSPropertyOp5
 70
     0
102
RTVSPropertyOp6
 70
     0
102
RTVSPropertyOp7
 70
     0
102
RTVSPropertyOp8
 70
     0
102
RTVSPropertyOp9
 70
     0
102
RTVSPropertyOp10
 70
     0
102
RTVSPropertyOp11
 70
     0
102
RTVSPropertyOp12
 70
     0
102
RTVSPropertyOp13
 70
     0
102
RTVSPropertyOp14
 70
     2
102
RTVSPropertyOp15
 70
     0
102
RTVSPropertyOp16
 70
     0
102
RTVSPropertyOp17
 70
     0
102
RTVSPropertyOp18
 70
     0
102
RTVSPropertyOp19
 70
     0
102
RTVSPropertyOp20
 70
     0
102
RTVSPropertyOp21
 70
     0
102
RTVSPropertyOp22
 70
     0
102
RTVSPropertyOp23
 70
     0
102
RTVSPropertyOp24
 70
     0
102
RTVSPropertyOp25
 70
     0
102
RTVSPropertyOp26
 70
     0
102
RTVSPropertyOp27
 70
     0
102
RTVSPropertyOp28
 70
     0
102
RTVSPropertyOp29
 70
     0
102
RTVSPropertyOp30
 70
     0
102
RTVSPropertyOp31
 70
     0
102
RTVSPropertyOp32
 70
     0
102
RTVSPropertyOp33
 70
     0
102
RTVSPropertyOp34
 70
     0
102
RTVSPropertyOp35
 70
     0
102
RTVSPropertyOp36
 70
     0
102
RTVSPropertyOp37
 70
     0
102
RTVSPropertyOp38
 70
     0
102
RTVSPropertyOp39
 70
     0
102
RTVSPropertyOp40
 70
     0
102
RTVSPropertyOp41
 70
     0
102
RTVSPropertyOp42
 70
     0
102
RTVSPropertyOp43
 70
     0
102
RTVSPropertyOp44
 70
     0
102
RTVSPropertyOp45
 70
     0
102
RTVSPropertyOp46
 70
     0
102
RTVSPropertyOp47
 70
     0
102
RTVSPropertyOp48
 70
     0
102
RTVSPropertyOp49
 70
     0
102
RTVSPropertyOp50
 70
     0
102
RTVSPropertyOp51
 70
     0
102
RTVSPropertyOp52
 70
     0
102
RTVSPropertyOp53
 70
     0
102
RTVSPropertyOp54
 70
     0
102
RTVSPropertyOp55
 70
     0
102
RTVSPropertyOp56
 70
     0
102
RTVSPropertyOp57
 70
     0
102
RTVSPropertyOp58
 70
     1
102
RTVSPropertyOp59
 70
     1
102
RTVSPropertyOp60
 70
     1
102
RTVSPropertyOp61
 70
     1
102
RTVSPropertyOp62
 70
     1
  0
XRECORD
  5
17B54
102
{ACAD_REACTORS
330
17B53
102
}
330
17B53
100
AcDbXrecord
280
     1
102
RTVSPost2010Prop28
280
     0
102
RTVSPost2010PropOp28
 70
     1
102
RTVSPost2010Prop29
280
     1
102
RTVSPost2010PropOp29
 70
     1
102
RTVSPost2010Prop30
280
     1
102
RTVSPost2010PropOp30
 70
     1
102
RTVSPost2010Prop31
280
     0
102
RTVSPost2010PropOp31
 70
     1
102
RTVSPost2010Prop32
280
     0
102
RTVSPost2010PropOp32
 70
     1
102
RTVSPost2010Prop33
280
     0
102
RTVSPost2010PropOp33
 70
     1
102
RTVSPost2010Prop34
280
     0
102
RTVSPost2010PropOp34
 70
     1
102
RTVSPost2010Prop35
280
     0
102
RTVSPost2010PropOp35
 70
     1
102
RTVSPost2010Prop36
280
     0
102
RTVSPost2010PropOp36
 70
     1
102
RTVSPost2010Prop37
 90
       50
102
RTVSPost2010PropOp37
 70
     1
102
RTVSPost2010Prop38
140
0.0
102
RTVSPost2010PropOp38
 70
     1
102
RTVSPost2010Prop39
140
1.0
102
RTVSPost2010PropOp39
 70
     1
102
RTVSPost2010Prop40
 90
        0
102
RTVSPost2010PropOp40
 70
     1
102
RTVSPost2010Prop41ColorIndex
 90
       18
102
RTVSPost2010Prop41ColorRGB
 90
        0
102
RTVSPost2010PropOp41
 70
     1
102
RTVSPost2010Prop42
 90
       50
102
RTVSPost2010PropOp42
 70
     1
102
RTVSPost2010Prop43
 90
        3
102
RTVSPost2010PropOp43
 70
     1
102
RTVSPost2010Prop44ColorIndex
 90
        5
102
RTVSPost2010Prop44ColorRGB
 90
      255
102
RTVSPost2010PropOp44
 70
     1
102
RTVSPost2010Prop45
280
     0
102
RTVSPost2010PropOp45
 70
     1
102
RTVSPost2010Prop46
 90
       50
102
RTVSPost2010PropOp46
 70
     1
102
RTVSPost2010Prop47
 90
       50
102
RTVSPost2010PropOp47
 70
     1
102
RTVSPost2010Prop48
 90
       50
102
RTVSPost2010PropOp48
 70
     1
102
RTVSPost2010Prop49
280
     0
102
RTVSPost2010PropOp49
 70
     1
102
RTVSPost2010Prop50
 90
       50
102
RTVSPost2010PropOp50
 70
     1
102
RTVSPost2010Prop51ColorIndex
 90
      256
102
RTVSPost2010Prop51ColorRGB
 90
-16777216
102
RTVSPost2010PropOp51
 70
     0
102
RTVSPost2010Prop52
140
1.0
102
RTVSPost2010PropOp52
 70
     0
102
RTVSPost2010Prop53
 90
        2
102
RTVSPost2010PropOp53
 70
     1
102
RTVSPost2010Prop54
  1
strokes_ogs.tif
102
RTVSPost2010PropOp54
 70
     1
102
RTVSPost2010Prop55
280
     0
102
RTVSPost2010PropOp55
 70
     1
102
RTVSPost2010Prop56
140
1.0
102
RTVSPost2010PropOp56
 70
     1
102
RTVSPost2010Prop57
140
1.0
102
RTVSPost2010PropOp57
 70
     1
102
RTVSPropertyOp0
 70
     1
102
RTVSPropertyOp1
 70
     1
102
RTVSPropertyOp2
 70
     1
102
RTVSPropertyOp3
 70
     1
102
RTVSPropertyOp4
 70
     1
102
RTVSPropertyOp5
 70
     1
102
RTVSPropertyOp6
 70
     1
102
RTVSPropertyOp7
 70
     1
102
RTVSPropertyOp8
 70
     1
102
RTVSPropertyOp9
 70
     1
102
RTVSPropertyOp10
 70
     1
102
RTVSPropertyOp11
 70
     1
102
RTVSPropertyOp12
 70
     1
102
RTVSPropertyOp13
 70
     1
102
RTVSPropertyOp14
 70
     1
102
RTVSPropertyOp15
 70
     1
102
RTVSPropertyOp16
 70
     1
102
RTVSPropertyOp17
 70
     1
102
RTVSPropertyOp18
 70
     1
102
RTVSPropertyOp19
 70
     1
102
RTVSPropertyOp20
 70
     1
102
RTVSPropertyOp21
 70
     1
102
RTVSPropertyOp22
 70
     1
102
RTVSPropertyOp23
 70
     1
102
RTVSPropertyOp24
 70
     1
102
RTVSPropertyOp25
 70
     1
102
RTVSPropertyOp26
 70
     1
102
RTVSPropertyOp27
 70
     1
102
RTVSPropertyOp28
 70
     1
102
RTVSPropertyOp29
 70
     1
102
RTVSPropertyOp30
 70
     1
102
RTVSPropertyOp31
 70
     1
102
RTVSPropertyOp32
 70
     1
102
RTVSPropertyOp33
 70
     1
102
RTVSPropertyOp34
 70
     1
102
RTVSPropertyOp35
 70
     1
102
RTVSPropertyOp36
 70
     1
102
RTVSPropertyOp37
 70
     1
102
RTVSPropertyOp38
 70
     1
102
RTVSPropertyOp39
 70
     1
102
RTVSPropertyOp40
 70
     1
102
RTVSPropertyOp41
 70
     1
102
RTVSPropertyOp42
 70
     1
102
RTVSPropertyOp43
 70
     1
102
RTVSPropertyOp44
 70
     1
102
RTVSPropertyOp45
 70
     1
102
RTVSPropertyOp46
 70
     1
102
RTVSPropertyOp47
 70
     1
102
RTVSPropertyOp48
 70
     1
102
RTVSPropertyOp49
 70
     1
102
RTVSPropertyOp50
 70
     1
102
RTVSPropertyOp51
 70
     0
102
RTVSPropertyOp52
 70
     0
102
RTVSPropertyOp53
 70
     1
102
RTVSPropertyOp54
 70
     1
102
RTVSPropertyOp55
 70
     1
102
RTVSPropertyOp56
 70
     1
102
RTVSPropertyOp57
 70
     1
102
RTVSPropertyOp58
 70
     1
102
RTVSPropertyOp59
 70
     1
102
RTVSPropertyOp60
 70
     1
102
RTVSPropertyOp61
 70
     1
102
RTVSPropertyOp62
 70
     1
  0
XRECORD
  5
17B66
102
{ACAD_REACTORS
330
17B65
102
}
330
17B65
100
AcDbXrecord
280
     1
102
RTVSPost2010Prop28
280
     0
102
RTVSPost2010PropOp28
 70
     0
102
RTVSPost2010Prop29
280
     1
102
RTVSPost2010PropOp29
 70
     0
102
RTVSPost2010Prop30
280
     1
102
RTVSPost2010PropOp30
 70
     0
102
RTVSPost2010Prop31
280
     0
102
RTVSPost2010PropOp31
 70
     0
102
RTVSPost2010Prop32
280
     0
102
RTVSPost2010PropOp32
 70
     0
102
RTVSPost2010Prop33
280
     0
102
RTVSPost2010PropOp33
 70
     0
102
RTVSPost2010Prop34
280
     0
102
RTVSPost2010PropOp34
 70
     0
102
RTVSPost2010Prop35
280
     0
102
RTVSPost2010PropOp35
 70
     0
102
RTVSPost2010Prop36
280
     0
102
RTVSPost2010PropOp36
 70
     0
102
RTVSPost2010Prop37
 90
       50
102
RTVSPost2010PropOp37
 70
     0
102
RTVSPost2010Prop38
140
0.0
102
RTVSPost2010PropOp38
 70
     0
102
RTVSPost2010Prop39
140
1.0
102
RTVSPost2010PropOp39
 70
     0
102
RTVSPost2010Prop40
 90
        0
102
RTVSPost2010PropOp40
 70
     0
102
RTVSPost2010Prop41ColorIndex
 90
       18
102
RTVSPost2010Prop41ColorRGB
 90
        0
102
RTVSPost2010PropOp41
 70
     0
102
RTVSPost2010Prop42
 90
       50
102
RTVSPost2010PropOp42
 70
     0
102
RTVSPost2010Prop43
 90
        3
102
RTVSPost2010PropOp43
 70
     0
102
RTVSPost2010Prop44ColorIndex
 90
        5
102
RTVSPost2010Prop44ColorRGB
 90
      255
102
RTVSPost2010PropOp44
 70
     0
102
RTVSPost2010Prop45
280
     0
102
RTVSPost2010PropOp45
 70
     0
102
RTVSPost2010Prop46
 90
       50
102
RTVSPost2010PropOp46
 70
     0
102
RTVSPost2010Prop47
 90
       50
102
RTVSPost2010PropOp47
 70
     0
102
RTVSPost2010Prop48
 90
       50
102
RTVSPost2010PropOp48
 70
     0
102
RTVSPost2010Prop49
280
     0
102
RTVSPost2010PropOp49
 70
     0
102
RTVSPost2010Prop50
 90
       50
102
RTVSPost2010PropOp50
 70
     0
102
RTVSPost2010Prop51ColorIndex
 90
      256
102
RTVSPost2010Prop51ColorRGB
 90
-16777216
102
RTVSPost2010PropOp51
 70
     0
102
RTVSPost2010Prop52
140
1.0
102
RTVSPost2010PropOp52
 70
     0
102
RTVSPost2010Prop53
 90
        2
102
RTVSPost2010PropOp53
 70
     0
102
RTVSPost2010Prop54
  1
strokes_ogs.tif
102
RTVSPost2010PropOp54
 70
     0
102
RTVSPost2010Prop55
280
     0
102
RTVSPost2010PropOp55
 70
     0
102
RTVSPost2010Prop56
140
1.0
102
RTVSPost2010PropOp56
 70
     0
102
RTVSPost2010Prop57
140
1.0
102
RTVSPost2010PropOp57
 70
     0
102
RTVSPropertyOp0
 70
     0
102
RTVSPropertyOp1
 70
     0
102
RTVSPropertyOp2
 70
     0
102
RTVSPropertyOp3
 70
     0
102
RTVSPropertyOp4
 70
     0
102
RTVSPropertyOp5
 70
     0
102
RTVSPropertyOp6
 70
     0
102
RTVSPropertyOp7
 70
     0
102
RTVSPropertyOp8
 70
     0
102
RTVSPropertyOp9
 70
     0
102
RTVSPropertyOp10
 70
     0
102
RTVSPropertyOp11
 70
     0
102
RTVSPropertyOp12
 70
     0
102
RTVSPropertyOp13
 70
     0
102
RTVSPropertyOp14
 70
     2
102
RTVSPropertyOp15
 70
     0
102
RTVSPropertyOp16
 70
     0
102
RTVSPropertyOp17
 70
     0
102
RTVSPropertyOp18
 70
     0
102
RTVSPropertyOp19
 70
     0
102
RTVSPropertyOp20
 70
     0
102
RTVSPropertyOp21
 70
     0
102
RTVSPropertyOp22
 70
     0
102
RTVSPropertyOp23
 70
     0
102
RTVSPropertyOp24
 70
     0
102
RTVSPropertyOp25
 70
     0
102
RTVSPropertyOp26
 70
     0
102
RTVSPropertyOp27
 70
     0
102
RTVSPropertyOp28
 70
     0
102
RTVSPropertyOp29
 70
     0
102
RTVSPropertyOp30
 70
     0
102
RTVSPropertyOp31
 70
     0
102
RTVSPropertyOp32
 70
     0
102
RTVSPropertyOp33
 70
     0
102
RTVSPropertyOp34
 70
     0
102
RTVSPropertyOp35
 70
     0
102
RTVSPropertyOp36
 70
     0
102
RTVSPropertyOp37
 70
     0
102
RTVSPropertyOp38
 70
     0
102
RTVSPropertyOp39
 70
     0
102
RTVSPropertyOp40
 70
     0
102
RTVSPropertyOp41
 70
     0
102
RTVSPropertyOp42
 70
     0
102
RTVSPropertyOp43
 70
     0
102
RTVSPropertyOp44
 70
     0
102
RTVSPropertyOp45
 70
     0
102
RTVSPropertyOp46
 70
     0
102
RTVSPropertyOp47
 70
     0
102
RTVSPropertyOp48
 70
     0
102
RTVSPropertyOp49
 70
     0
102
RTVSPropertyOp50
 70
     0
102
RTVSPropertyOp51
 70
     0
102
RTVSPropertyOp52
 70
     0
102
RTVSPropertyOp53
 70
     0
102
RTVSPropertyOp54
 70
     0
102
RTVSPropertyOp55
 70
     0
102
RTVSPropertyOp56
 70
     0
102
RTVSPropertyOp57
 70
     0
102
RTVSPropertyOp58
 70
     1
102
RTVSPropertyOp59
 70
     1
102
RTVSPropertyOp60
 70
     1
102
RTVSPropertyOp61
 70
     1
102
RTVSPropertyOp62
 70
     1
  0
XRECORD
  5
17B4C
102
{ACAD_REACTORS
330
17B4B
102
}
330
17B4B
100
AcDbXrecord
280
     1
102
RTVSPost2010Prop28
280
     0
102
RTVSPost2010PropOp28
 70
     1
102
RTVSPost2010Prop29
280
     1
102
RTVSPost2010PropOp29
 70
     1
102
RTVSPost2010Prop30
280
     1
102
RTVSPost2010PropOp30
 70
     1
102
RTVSPost2010Prop31
280
     0
102
RTVSPost2010PropOp31
 70
     1
102
RTVSPost2010Prop32
280
     0
102
RTVSPost2010PropOp32
 70
     1
102
RTVSPost2010Prop33
280
     0
102
RTVSPost2010PropOp33
 70
     1
102
RTVSPost2010Prop34
280
     0
102
RTVSPost2010PropOp34
 70
     1
102
RTVSPost2010Prop35
280
     0
102
RTVSPost2010PropOp35
 70
     1
102
RTVSPost2010Prop36
280
     0
102
RTVSPost2010PropOp36
 70
     1
102
RTVSPost2010Prop37
 90
       50
102
RTVSPost2010PropOp37
 70
     1
102
RTVSPost2010Prop38
140
0.0
102
RTVSPost2010PropOp38
 70
     1
102
RTVSPost2010Prop39
140
1.0
102
RTVSPost2010PropOp39
 70
     1
102
RTVSPost2010Prop40
 90
        0
102
RTVSPost2010PropOp40
 70
     1
102
RTVSPost2010Prop41ColorIndex
 90
       18
102
RTVSPost2010Prop41ColorRGB
 90
        0
102
RTVSPost2010PropOp41
 70
     1
102
RTVSPost2010Prop42
 90
       50
102
RTVSPost2010PropOp42
 70
     1
102
RTVSPost2010Prop43
 90
        3
102
RTVSPost2010PropOp43
 70
     1
102
RTVSPost2010Prop44ColorIndex
 90
        5
102
RTVSPost2010Prop44ColorRGB
 90
      255
102
RTVSPost2010PropOp44
 70
     1
102
RTVSPost2010Prop45
280
     0
102
RTVSPost2010PropOp45
 70
     1
102
RTVSPost2010Prop46
 90
       50
102
RTVSPost2010PropOp46
 70
     1
102
RTVSPost2010Prop47
 90
       50
102
RTVSPost2010PropOp47
 70
     1
102
RTVSPost2010Prop48
 90
       50
102
RTVSPost2010PropOp48
 70
     1
102
RTVSPost2010Prop49
280
     0
102
RTVSPost2010PropOp49
 70
     1
102
RTVSPost2010Prop50
 90
       50
102
RTVSPost2010PropOp50
 70
     1
102
RTVSPost2010Prop51ColorIndex
 90
      256
102
RTVSPost2010Prop51ColorRGB
 90
-16777216
102
RTVSPost2010PropOp51
 70
     0
102
RTVSPost2010Prop52
140
1.0
102
RTVSPost2010PropOp52
 70
     0
102
RTVSPost2010Prop53
 90
        2
102
RTVSPost2010PropOp53
 70
     1
102
RTVSPost2010Prop54
  1
strokes_ogs.tif
102
RTVSPost2010PropOp54
 70
     1
102
RTVSPost2010Prop55
280
     0
102
RTVSPost2010PropOp55
 70
     1
102
RTVSPost2010Prop56
140
1.0
102
RTVSPost2010PropOp56
 70
     1
102
RTVSPost2010Prop57
140
1.0
102
RTVSPost2010PropOp57
 70
     1
102
RTVSPropertyOp0
 70
     1
102
RTVSPropertyOp1
 70
     1
102
RTVSPropertyOp2
 70
     1
102
RTVSPropertyOp3
 70
     1
102
RTVSPropertyOp4
 70
     1
102
RTVSPropertyOp5
 70
     1
102
RTVSPropertyOp6
 70
     1
102
RTVSPropertyOp7
 70
     1
102
RTVSPropertyOp8
 70
     1
102
RTVSPropertyOp9
 70
     1
102
RTVSPropertyOp10
 70
     1
102
RTVSPropertyOp11
 70
     1
102
RTVSPropertyOp12
 70
     1
102
RTVSPropertyOp13
 70
     1
102
RTVSPropertyOp14
 70
     1
102
RTVSPropertyOp15
 70
     1
102
RTVSPropertyOp16
 70
     1
102
RTVSPropertyOp17
 70
     1
102
RTVSPropertyOp18
 70
     1
102
RTVSPropertyOp19
 70
     1
102
RTVSPropertyOp20
 70
     1
102
RTVSPropertyOp21
 70
     1
102
RTVSPropertyOp22
 70
     1
102
RTVSPropertyOp23
 70
     1
102
RTVSPropertyOp24
 70
     1
102
RTVSPropertyOp25
 70
     1
102
RTVSPropertyOp26
 70
     1
102
RTVSPropertyOp27
 70
     1
102
RTVSPropertyOp28
 70
     1
102
RTVSPropertyOp29
 70
     1
102
RTVSPropertyOp30
 70
     1
102
RTVSPropertyOp31
 70
     1
102
RTVSPropertyOp32
 70
     1
102
RTVSPropertyOp33
 70
     1
102
RTVSPropertyOp34
 70
     1
102
RTVSPropertyOp35
 70
     1
102
RTVSPropertyOp36
 70
     1
102
RTVSPropertyOp37
 70
     1
102
RTVSPropertyOp38
 70
     1
102
RTVSPropertyOp39
 70
     1
102
RTVSPropertyOp40
 70
     1
102
RTVSPropertyOp41
 70
     1
102
RTVSPropertyOp42
 70
     1
102
RTVSPropertyOp43
 70
     1
102
RTVSPropertyOp44
 70
     1
102
RTVSPropertyOp45
 70
     1
102
RTVSPropertyOp46
 70
     1
102
RTVSPropertyOp47
 70
     1
102
RTVSPropertyOp48
 70
     1
102
RTVSPropertyOp49
 70
     1
102
RTVSPropertyOp50
 70
     1
102
RTVSPropertyOp51
 70
     0
102
RTVSPropertyOp52
 70
     0
102
RTVSPropertyOp53
 70
     1
102
RTVSPropertyOp54
 70
     1
102
RTVSPropertyOp55
 70
     1
102
RTVSPropertyOp56
 70
     1
102
RTVSPropertyOp57
 70
     1
102
RTVSPropertyOp58
 70
     1
102
RTVSPropertyOp59
 70
     1
102
RTVSPropertyOp60
 70
     1
102
RTVSPropertyOp61
 70
     1
102
RTVSPropertyOp62
 70
     1
  0
XRECORD
  5
17B62
102
{ACAD_REACTORS
330
17B61
102
}
330
17B61
100
AcDbXrecord
280
     1
102
RTVSPost2010Prop28
280
     0
102
RTVSPost2010PropOp28
 70
     1
102
RTVSPost2010Prop29
280
     1
102
RTVSPost2010PropOp29
 70
     1
102
RTVSPost2010Prop30
280
     1
102
RTVSPost2010PropOp30
 70
     1
102
RTVSPost2010Prop31
280
     0
102
RTVSPost2010PropOp31
 70
     1
102
RTVSPost2010Prop32
280
     0
102
RTVSPost2010PropOp32
 70
     1
102
RTVSPost2010Prop33
280
     0
102
RTVSPost2010PropOp33
 70
     1
102
RTVSPost2010Prop34
280
     0
102
RTVSPost2010PropOp34
 70
     1
102
RTVSPost2010Prop35
280
     0
102
RTVSPost2010PropOp35
 70
     1
102
RTVSPost2010Prop36
280
     0
102
RTVSPost2010PropOp36
 70
     1
102
RTVSPost2010Prop37
 90
       50
102
RTVSPost2010PropOp37
 70
     1
102
RTVSPost2010Prop38
140
0.0
102
RTVSPost2010PropOp38
 70
     1
102
RTVSPost2010Prop39
140
1.0
102
RTVSPost2010PropOp39
 70
     1
102
RTVSPost2010Prop40
 90
        0
102
RTVSPost2010PropOp40
 70
     1
102
RTVSPost2010Prop41ColorIndex
 90
       18
102
RTVSPost2010Prop41ColorRGB
 90
        0
102
RTVSPost2010PropOp41
 70
     1
102
RTVSPost2010Prop42
 90
       50
102
RTVSPost2010PropOp42
 70
     1
102
RTVSPost2010Prop43
 90
        3
102
RTVSPost2010PropOp43
 70
     1
102
RTVSPost2010Prop44ColorIndex
 90
        5
102
RTVSPost2010Prop44ColorRGB
 90
      255
102
RTVSPost2010PropOp44
 70
     1
102
RTVSPost2010Prop45
280
     0
102
RTVSPost2010PropOp45
 70
     1
102
RTVSPost2010Prop46
 90
       50
102
RTVSPost2010PropOp46
 70
     1
102
RTVSPost2010Prop47
 90
       50
102
RTVSPost2010PropOp47
 70
     1
102
RTVSPost2010Prop48
 90
       50
102
RTVSPost2010PropOp48
 70
     1
102
RTVSPost2010Prop49
280
     0
102
RTVSPost2010PropOp49
 70
     1
102
RTVSPost2010Prop50
 90
       50
102
RTVSPost2010PropOp50
 70
     1
102
RTVSPost2010Prop51ColorIndex
 90
      256
102
RTVSPost2010Prop51ColorRGB
 90
-16777216
102
RTVSPost2010PropOp51
 70
     0
102
RTVSPost2010Prop52
140
1.0
102
RTVSPost2010PropOp52
 70
     0
102
RTVSPost2010Prop53
 90
        2
102
RTVSPost2010PropOp53
 70
     1
102
RTVSPost2010Prop54
  1
strokes_ogs.tif
102
RTVSPost2010PropOp54
 70
     1
102
RTVSPost2010Prop55
280
     0
102
RTVSPost2010PropOp55
 70
     1
102
RTVSPost2010Prop56
140
1.0
102
RTVSPost2010PropOp56
 70
     1
102
RTVSPost2010Prop57
140
1.0
102
RTVSPost2010PropOp57
 70
     1
102
RTVSPropertyOp0
 70
     1
102
RTVSPropertyOp1
 70
     1
102
RTVSPropertyOp2
 70
     1
102
RTVSPropertyOp3
 70
     1
102
RTVSPropertyOp4
 70
     1
102
RTVSPropertyOp5
 70
     1
102
RTVSPropertyOp6
 70
     1
102
RTVSPropertyOp7
 70
     1
102
RTVSPropertyOp8
 70
     1
102
RTVSPropertyOp9
 70
     1
102
RTVSPropertyOp10
 70
     1
102
RTVSPropertyOp11
 70
     1
102
RTVSPropertyOp12
 70
     1
102
RTVSPropertyOp13
 70
     1
102
RTVSPropertyOp14
 70
     1
102
RTVSPropertyOp15
 70
     1
102
RTVSPropertyOp16
 70
     1
102
RTVSPropertyOp17
 70
     1
102
RTVSPropertyOp18
 70
     1
102
RTVSPropertyOp19
 70
     1
102
RTVSPropertyOp20
 70
     1
102
RTVSPropertyOp21
 70
     1
102
RTVSPropertyOp22
 70
     1
102
RTVSPropertyOp23
 70
     1
102
RTVSPropertyOp24
 70
     1
102
RTVSPropertyOp25
 70
     1
102
RTVSPropertyOp26
 70
     1
102
RTVSPropertyOp27
 70
     1
102
RTVSPropertyOp28
 70
     1
102
RTVSPropertyOp29
 70
     1
102
RTVSPropertyOp30
 70
     1
102
RTVSPropertyOp31
 70
     1
102
RTVSPropertyOp32
 70
     1
102
RTVSPropertyOp33
 70
     1
102
RTVSPropertyOp34
 70
     1
102
RTVSPropertyOp35
 70
     1
102
RTVSPropertyOp36
 70
     1
102
RTVSPropertyOp37
 70
     1
102
RTVSPropertyOp38
 70
     1
102
RTVSPropertyOp39
 70
     1
102
RTVSPropertyOp40
 70
     1
102
RTVSPropertyOp41
 70
     1
102
RTVSPropertyOp42
 70
     1
102
RTVSPropertyOp43
 70
     1
102
RTVSPropertyOp44
 70
     1
102
RTVSPropertyOp45
 70
     1
102
RTVSPropertyOp46
 70
     1
102
RTVSPropertyOp47
 70
     1
102
RTVSPropertyOp48
 70
     1
102
RTVSPropertyOp49
 70
     1
102
RTVSPropertyOp50
 70
     1
102
RTVSPropertyOp51
 70
     0
102
RTVSPropertyOp52
 70
     0
102
RTVSPropertyOp53
 70
     1
102
RTVSPropertyOp54
 70
     1
102
RTVSPropertyOp55
 70
     1
102
RTVSPropertyOp56
 70
     1
102
RTVSPropertyOp57
 70
     1
102
RTVSPropertyOp58
 70
     1
102
RTVSPropertyOp59
 70
     1
102
RTVSPropertyOp60
 70
     1
102
RTVSPropertyOp61
 70
     1
102
RTVSPropertyOp62
 70
     1
  0
XRECORD
  5
17B60
102
{ACAD_REACTORS
330
17B5F
102
}
330
17B5F
100
AcDbXrecord
280
     1
102
RTVSPost2010Prop28
280
     0
102
RTVSPost2010PropOp28
 70
     1
102
RTVSPost2010Prop29
280
     1
102
RTVSPost2010PropOp29
 70
     1
102
RTVSPost2010Prop30
280
     1
102
RTVSPost2010PropOp30
 70
     1
102
RTVSPost2010Prop31
280
     0
102
RTVSPost2010PropOp31
 70
     1
102
RTVSPost2010Prop32
280
     0
102
RTVSPost2010PropOp32
 70
     1
102
RTVSPost2010Prop33
280
     0
102
RTVSPost2010PropOp33
 70
     1
102
RTVSPost2010Prop34
280
     0
102
RTVSPost2010PropOp34
 70
     1
102
RTVSPost2010Prop35
280
     0
102
RTVSPost2010PropOp35
 70
     1
102
RTVSPost2010Prop36
280
     0
102
RTVSPost2010PropOp36
 70
     1
102
RTVSPost2010Prop37
 90
       50
102
RTVSPost2010PropOp37
 70
     1
102
RTVSPost2010Prop38
140
0.0
102
RTVSPost2010PropOp38
 70
     1
102
RTVSPost2010Prop39
140
1.0
102
RTVSPost2010PropOp39
 70
     1
102
RTVSPost2010Prop40
 90
        0
102
RTVSPost2010PropOp40
 70
     1
102
RTVSPost2010Prop41ColorIndex
 90
       18
102
RTVSPost2010Prop41ColorRGB
 90
        0
102
RTVSPost2010PropOp41
 70
     1
102
RTVSPost2010Prop42
 90
       50
102
RTVSPost2010PropOp42
 70
     1
102
RTVSPost2010Prop43
 90
        3
102
RTVSPost2010PropOp43
 70
     1
102
RTVSPost2010Prop44ColorIndex
 90
        5
102
RTVSPost2010Prop44ColorRGB
 90
      255
102
RTVSPost2010PropOp44
 70
     1
102
RTVSPost2010Prop45
280
     0
102
RTVSPost2010PropOp45
 70
     1
102
RTVSPost2010Prop46
 90
       50
102
RTVSPost2010PropOp46
 70
     1
102
RTVSPost2010Prop47
 90
       50
102
RTVSPost2010PropOp47
 70
     1
102
RTVSPost2010Prop48
 90
       50
102
RTVSPost2010PropOp48
 70
     1
102
RTVSPost2010Prop49
280
     0
102
RTVSPost2010PropOp49
 70
     1
102
RTVSPost2010Prop50
 90
       50
102
RTVSPost2010PropOp50
 70
     1
102
RTVSPost2010Prop51ColorIndex
 90
      256
102
RTVSPost2010Prop51ColorRGB
 90
-16777216
102
RTVSPost2010PropOp51
 70
     0
102
RTVSPost2010Prop52
140
1.0
102
RTVSPost2010PropOp52
 70
     0
102
RTVSPost2010Prop53
 90
        2
102
RTVSPost2010PropOp53
 70
     1
102
RTVSPost2010Prop54
  1
strokes_ogs.tif
102
RTVSPost2010PropOp54
 70
     1
102
RTVSPost2010Prop55
280
     0
102
RTVSPost2010PropOp55
 70
     1
102
RTVSPost2010Prop56
140
1.0
102
RTVSPost2010PropOp56
 70
     1
102
RTVSPost2010Prop57
140
1.0
102
RTVSPost2010PropOp57
 70
     1
102
RTVSPropertyOp0
 70
     1
102
RTVSPropertyOp1
 70
     1
102
RTVSPropertyOp2
 70
     1
102
RTVSPropertyOp3
 70
     1
102
RTVSPropertyOp4
 70
     1
102
RTVSPropertyOp5
 70
     1
102
RTVSPropertyOp6
 70
     1
102
RTVSPropertyOp7
 70
     1
102
RTVSPropertyOp8
 70
     1
102
RTVSPropertyOp9
 70
     1
102
RTVSPropertyOp10
 70
     1
102
RTVSPropertyOp11
 70
     1
102
RTVSPropertyOp12
 70
     1
102
RTVSPropertyOp13
 70
     1
102
RTVSPropertyOp14
 70
     1
102
RTVSPropertyOp15
 70
     1
102
RTVSPropertyOp16
 70
     1
102
RTVSPropertyOp17
 70
     1
102
RTVSPropertyOp18
 70
     1
102
RTVSPropertyOp19
 70
     1
102
RTVSPropertyOp20
 70
     1
102
RTVSPropertyOp21
 70
     1
102
RTVSPropertyOp22
 70
     1
102
RTVSPropertyOp23
 70
     1
102
RTVSPropertyOp24
 70
     1
102
RTVSPropertyOp25
 70
     1
102
RTVSPropertyOp26
 70
     1
102
RTVSPropertyOp27
 70
     1
102
RTVSPropertyOp28
 70
     1
102
RTVSPropertyOp29
 70
     1
102
RTVSPropertyOp30
 70
     1
102
RTVSPropertyOp31
 70
     1
102
RTVSPropertyOp32
 70
     1
102
RTVSPropertyOp33
 70
     1
102
RTVSPropertyOp34
 70
     1
102
RTVSPropertyOp35
 70
     1
102
RTVSPropertyOp36
 70
     1
102
RTVSPropertyOp37
 70
     1
102
RTVSPropertyOp38
 70
     1
102
RTVSPropertyOp39
 70
     1
102
RTVSPropertyOp40
 70
     1
102
RTVSPropertyOp41
 70
     1
102
RTVSPropertyOp42
 70
     1
102
RTVSPropertyOp43
 70
     1
102
RTVSPropertyOp44
 70
     1
102
RTVSPropertyOp45
 70
     1
102
RTVSPropertyOp46
 70
     1
102
RTVSPropertyOp47
 70
     1
102
RTVSPropertyOp48
 70
     1
102
RTVSPropertyOp49
 70
     1
102
RTVSPropertyOp50
 70
     1
102
RTVSPropertyOp51
 70
     0
102
RTVSPropertyOp52
 70
     0
102
RTVSPropertyOp53
 70
     1
102
RTVSPropertyOp54
 70
     1
102
RTVSPropertyOp55
 70
     1
102
RTVSPropertyOp56
 70
     1
102
RTVSPropertyOp57
 70
     1
102
RTVSPropertyOp58
 70
     1
102
RTVSPropertyOp59
 70
     1
102
RTVSPropertyOp60
 70
     1
102
RTVSPropertyOp61
 70
     1
102
RTVSPropertyOp62
 70
     1
  0
XRECORD
  5
17B5A
102
{ACAD_REACTORS
330
17B59
102
}
330
17B59
100
AcDbXrecord
280
     1
102
RTVSPost2010Prop28
280
     0
102
RTVSPost2010PropOp28
 70
     1
102
RTVSPost2010Prop29
280
     1
102
RTVSPost2010PropOp29
 70
     1
102
RTVSPost2010Prop30
280
     1
102
RTVSPost2010PropOp30
 70
     1
102
RTVSPost2010Prop31
280
     0
102
RTVSPost2010PropOp31
 70
     1
102
RTVSPost2010Prop32
280
     0
102
RTVSPost2010PropOp32
 70
     1
102
RTVSPost2010Prop33
280
     0
102
RTVSPost2010PropOp33
 70
     1
102
RTVSPost2010Prop34
280
     0
102
RTVSPost2010PropOp34
 70
     1
102
RTVSPost2010Prop35
280
     0
102
RTVSPost2010PropOp35
 70
     1
102
RTVSPost2010Prop36
280
     0
102
RTVSPost2010PropOp36
 70
     1
102
RTVSPost2010Prop37
 90
       50
102
RTVSPost2010PropOp37
 70
     1
102
RTVSPost2010Prop38
140
0.0
102
RTVSPost2010PropOp38
 70
     1
102
RTVSPost2010Prop39
140
1.0
102
RTVSPost2010PropOp39
 70
     1
102
RTVSPost2010Prop40
 90
        0
102
RTVSPost2010PropOp40
 70
     1
102
RTVSPost2010Prop41ColorIndex
 90
       18
102
RTVSPost2010Prop41ColorRGB
 90
        0
102
RTVSPost2010PropOp41
 70
     1
102
RTVSPost2010Prop42
 90
       50
102
RTVSPost2010PropOp42
 70
     1
102
RTVSPost2010Prop43
 90
        3
102
RTVSPost2010PropOp43
 70
     1
102
RTVSPost2010Prop44ColorIndex
 90
        5
102
RTVSPost2010Prop44ColorRGB
 90
      255
102
RTVSPost2010PropOp44
 70
     1
102
RTVSPost2010Prop45
280
     0
102
RTVSPost2010PropOp45
 70
     1
102
RTVSPost2010Prop46
 90
       50
102
RTVSPost2010PropOp46
 70
     1
102
RTVSPost2010Prop47
 90
       50
102
RTVSPost2010PropOp47
 70
     1
102
RTVSPost2010Prop48
 90
       50
102
RTVSPost2010PropOp48
 70
     1
102
RTVSPost2010Prop49
280
     0
102
RTVSPost2010PropOp49
 70
     1
102
RTVSPost2010Prop50
 90
       50
102
RTVSPost2010PropOp50
 70
     1
102
RTVSPost2010Prop51ColorIndex
 90
      256
102
RTVSPost2010Prop51ColorRGB
 90
-16777216
102
RTVSPost2010PropOp51
 70
     0
102
RTVSPost2010Prop52
140
1.0
102
RTVSPost2010PropOp52
 70
     0
102
RTVSPost2010Prop53
 90
        2
102
RTVSPost2010PropOp53
 70
     1
102
RTVSPost2010Prop54
  1
strokes_ogs.tif
102
RTVSPost2010PropOp54
 70
     1
102
RTVSPost2010Prop55
280
     0
102
RTVSPost2010PropOp55
 70
     1
102
RTVSPost2010Prop56
140
1.0
102
RTVSPost2010PropOp56
 70
     1
102
RTVSPost2010Prop57
140
1.0
102
RTVSPost2010PropOp57
 70
     1
102
RTVSPropertyOp0
 70
     1
102
RTVSPropertyOp1
 70
     1
102
RTVSPropertyOp2
 70
     1
102
RTVSPropertyOp3
 70
     1
102
RTVSPropertyOp4
 70
     1
102
RTVSPropertyOp5
 70
     1
102
RTVSPropertyOp6
 70
     1
102
RTVSPropertyOp7
 70
     1
102
RTVSPropertyOp8
 70
     1
102
RTVSPropertyOp9
 70
     1
102
RTVSPropertyOp10
 70
     1
102
RTVSPropertyOp11
 70
     1
102
RTVSPropertyOp12
 70
     1
102
RTVSPropertyOp13
 70
     1
102
RTVSPropertyOp14
 70
     1
102
RTVSPropertyOp15
 70
     1
102
RTVSPropertyOp16
 70
     1
102
RTVSPropertyOp17
 70
     1
102
RTVSPropertyOp18
 70
     1
102
RTVSPropertyOp19
 70
     1
102
RTVSPropertyOp20
 70
     1
102
RTVSPropertyOp21
 70
     1
102
RTVSPropertyOp22
 70
     1
102
RTVSPropertyOp23
 70
     1
102
RTVSPropertyOp24
 70
     1
102
RTVSPropertyOp25
 70
     1
102
RTVSPropertyOp26
 70
     1
102
RTVSPropertyOp27
 70
     1
102
RTVSPropertyOp28
 70
     1
102
RTVSPropertyOp29
 70
     1
102
RTVSPropertyOp30
 70
     1
102
RTVSPropertyOp31
 70
     1
102
RTVSPropertyOp32
 70
     1
102
RTVSPropertyOp33
 70
     1
102
RTVSPropertyOp34
 70
     1
102
RTVSPropertyOp35
 70
     1
102
RTVSPropertyOp36
 70
     1
102
RTVSPropertyOp37
 70
     1
102
RTVSPropertyOp38
 70
     1
102
RTVSPropertyOp39
 70
     1
102
RTVSPropertyOp40
 70
     1
102
RTVSPropertyOp41
 70
     1
102
RTVSPropertyOp42
 70
     1
102
RTVSPropertyOp43
 70
     1
102
RTVSPropertyOp44
 70
     1
102
RTVSPropertyOp45
 70
     1
102
RTVSPropertyOp46
 70
     1
102
RTVSPropertyOp47
 70
     1
102
RTVSPropertyOp48
 70
     1
102
RTVSPropertyOp49
 70
     1
102
RTVSPropertyOp50
 70
     1
102
RTVSPropertyOp51
 70
     0
102
RTVSPropertyOp52
 70
     0
102
RTVSPropertyOp53
 70
     1
102
RTVSPropertyOp54
 70
     1
102
RTVSPropertyOp55
 70
     1
102
RTVSPropertyOp56
 70
     1
102
RTVSPropertyOp57
 70
     1
102
RTVSPropertyOp58
 70
     1
102
RTVSPropertyOp59
 70
     1
102
RTVSPropertyOp60
 70
     1
102
RTVSPropertyOp61
 70
     1
102
RTVSPropertyOp62
 70
     1
  0
XRECORD
  5
17B5C
102
{ACAD_REACTORS
330
17B5B
102
}
330
17B5B
100
AcDbXrecord
280
     1
102
RTVSPost2010Prop28
280
     0
102
RTVSPost2010PropOp28
 70
     1
102
RTVSPost2010Prop29
280
     1
102
RTVSPost2010PropOp29
 70
     1
102
RTVSPost2010Prop30
280
     1
102
RTVSPost2010PropOp30
 70
     1
102
RTVSPost2010Prop31
280
     0
102
RTVSPost2010PropOp31
 70
     1
102
RTVSPost2010Prop32
280
     0
102
RTVSPost2010PropOp32
 70
     1
102
RTVSPost2010Prop33
280
     0
102
RTVSPost2010PropOp33
 70
     1
102
RTVSPost2010Prop34
280
     0
102
RTVSPost2010PropOp34
 70
     1
102
RTVSPost2010Prop35
280
     0
102
RTVSPost2010PropOp35
 70
     1
102
RTVSPost2010Prop36
280
     0
102
RTVSPost2010PropOp36
 70
     1
102
RTVSPost2010Prop37
 90
       50
102
RTVSPost2010PropOp37
 70
     1
102
RTVSPost2010Prop38
140
0.0
102
RTVSPost2010PropOp38
 70
     1
102
RTVSPost2010Prop39
140
1.0
102
RTVSPost2010PropOp39
 70
     1
102
RTVSPost2010Prop40
 90
        0
102
RTVSPost2010PropOp40
 70
     1
102
RTVSPost2010Prop41ColorIndex
 90
       18
102
RTVSPost2010Prop41ColorRGB
 90
        0
102
RTVSPost2010PropOp41
 70
     1
102
RTVSPost2010Prop42
 90
       50
102
RTVSPost2010PropOp42
 70
     1
102
RTVSPost2010Prop43
 90
        3
102
RTVSPost2010PropOp43
 70
     1
102
RTVSPost2010Prop44ColorIndex
 90
        5
102
RTVSPost2010Prop44ColorRGB
 90
      255
102
RTVSPost2010PropOp44
 70
     1
102
RTVSPost2010Prop45
280
     0
102
RTVSPost2010PropOp45
 70
     1
102
RTVSPost2010Prop46
 90
       50
102
RTVSPost2010PropOp46
 70
     1
102
RTVSPost2010Prop47
 90
       50
102
RTVSPost2010PropOp47
 70
     1
102
RTVSPost2010Prop48
 90
       50
102
RTVSPost2010PropOp48
 70
     1
102
RTVSPost2010Prop49
280
     0
102
RTVSPost2010PropOp49
 70
     1
102
RTVSPost2010Prop50
 90
       50
102
RTVSPost2010PropOp50
 70
     1
102
RTVSPost2010Prop51ColorIndex
 90
      256
102
RTVSPost2010Prop51ColorRGB
 90
-16777216
102
RTVSPost2010PropOp51
 70
     0
102
RTVSPost2010Prop52
140
1.0
102
RTVSPost2010PropOp52
 70
     0
102
RTVSPost2010Prop53
 90
        2
102
RTVSPost2010PropOp53
 70
     1
102
RTVSPost2010Prop54
  1
strokes_ogs.tif
102
RTVSPost2010PropOp54
 70
     1
102
RTVSPost2010Prop55
280
     0
102
RTVSPost2010PropOp55
 70
     1
102
RTVSPost2010Prop56
140
1.0
102
RTVSPost2010PropOp56
 70
     1
102
RTVSPost2010Prop57
140
1.0
102
RTVSPost2010PropOp57
 70
     1
102
RTVSPropertyOp0
 70
     1
102
RTVSPropertyOp1
 70
     1
102
RTVSPropertyOp2
 70
     1
102
RTVSPropertyOp3
 70
     1
102
RTVSPropertyOp4
 70
     1
102
RTVSPropertyOp5
 70
     1
102
RTVSPropertyOp6
 70
     1
102
RTVSPropertyOp7
 70
     1
102
RTVSPropertyOp8
 70
     1
102
RTVSPropertyOp9
 70
     1
102
RTVSPropertyOp10
 70
     1
102
RTVSPropertyOp11
 70
     1
102
RTVSPropertyOp12
 70
     1
102
RTVSPropertyOp13
 70
     1
102
RTVSPropertyOp14
 70
     1
102
RTVSPropertyOp15
 70
     1
102
RTVSPropertyOp16
 70
     1
102
RTVSPropertyOp17
 70
     1
102
RTVSPropertyOp18
 70
     1
102
RTVSPropertyOp19
 70
     1
102
RTVSPropertyOp20
 70
     1
102
RTVSPropertyOp21
 70
     1
102
RTVSPropertyOp22
 70
     1
102
RTVSPropertyOp23
 70
     1
102
RTVSPropertyOp24
 70
     1
102
RTVSPropertyOp25
 70
     1
102
RTVSPropertyOp26
 70
     1
102
RTVSPropertyOp27
 70
     1
102
RTVSPropertyOp28
 70
     1
102
RTVSPropertyOp29
 70
     1
102
RTVSPropertyOp30
 70
     1
102
RTVSPropertyOp31
 70
     1
102
RTVSPropertyOp32
 70
     1
102
RTVSPropertyOp33
 70
     1
102
RTVSPropertyOp34
 70
     1
102
RTVSPropertyOp35
 70
     1
102
RTVSPropertyOp36
 70
     1
102
RTVSPropertyOp37
 70
     1
102
RTVSPropertyOp38
 70
     1
102
RTVSPropertyOp39
 70
     1
102
RTVSPropertyOp40
 70
     1
102
RTVSPropertyOp41
 70
     1
102
RTVSPropertyOp42
 70
     1
102
RTVSPropertyOp43
 70
     1
102
RTVSPropertyOp44
 70
     1
102
RTVSPropertyOp45
 70
     1
102
RTVSPropertyOp46
 70
     1
102
RTVSPropertyOp47
 70
     1
102
RTVSPropertyOp48
 70
     1
102
RTVSPropertyOp49
 70
     1
102
RTVSPropertyOp50
 70
     1
102
RTVSPropertyOp51
 70
     0
102
RTVSPropertyOp52
 70
     0
102
RTVSPropertyOp53
 70
     1
102
RTVSPropertyOp54
 70
     1
102
RTVSPropertyOp55
 70
     1
102
RTVSPropertyOp56
 70
     1
102
RTVSPropertyOp57
 70
     1
102
RTVSPropertyOp58
 70
     1
102
RTVSPropertyOp59
 70
     1
102
RTVSPropertyOp60
 70
     1
102
RTVSPropertyOp61
 70
     1
102
RTVSPropertyOp62
 70
     1
  0
XRECORD
  5
17B52
102
{ACAD_REACTORS
330
17B51
102
}
330
17B51
100
AcDbXrecord
280
     1
102
RTVSPost2010Prop28
280
     0
102
RTVSPost2010PropOp28
 70
     1
102
RTVSPost2010Prop29
280
     1
102
RTVSPost2010PropOp29
 70
     1
102
RTVSPost2010Prop30
280
     1
102
RTVSPost2010PropOp30
 70
     1
102
RTVSPost2010Prop31
280
     0
102
RTVSPost2010PropOp31
 70
     1
102
RTVSPost2010Prop32
280
     0
102
RTVSPost2010PropOp32
 70
     1
102
RTVSPost2010Prop33
280
     0
102
RTVSPost2010PropOp33
 70
     1
102
RTVSPost2010Prop34
280
     0
102
RTVSPost2010PropOp34
 70
     1
102
RTVSPost2010Prop35
280
     0
102
RTVSPost2010PropOp35
 70
     1
102
RTVSPost2010Prop36
280
     0
102
RTVSPost2010PropOp36
 70
     1
102
RTVSPost2010Prop37
 90
       50
102
RTVSPost2010PropOp37
 70
     1
102
RTVSPost2010Prop38
140
0.0
102
RTVSPost2010PropOp38
 70
     1
102
RTVSPost2010Prop39
140
1.0
102
RTVSPost2010PropOp39
 70
     1
102
RTVSPost2010Prop40
 90
        0
102
RTVSPost2010PropOp40
 70
     1
102
RTVSPost2010Prop41ColorIndex
 90
       18
102
RTVSPost2010Prop41ColorRGB
 90
        0
102
RTVSPost2010PropOp41
 70
     1
102
RTVSPost2010Prop42
 90
       50
102
RTVSPost2010PropOp42
 70
     1
102
RTVSPost2010Prop43
 90
        3
102
RTVSPost2010PropOp43
 70
     1
102
RTVSPost2010Prop44ColorIndex
 90
        5
102
RTVSPost2010Prop44ColorRGB
 90
      255
102
RTVSPost2010PropOp44
 70
     1
102
RTVSPost2010Prop45
280
     0
102
RTVSPost2010PropOp45
 70
     1
102
RTVSPost2010Prop46
 90
       50
102
RTVSPost2010PropOp46
 70
     1
102
RTVSPost2010Prop47
 90
       50
102
RTVSPost2010PropOp47
 70
     1
102
RTVSPost2010Prop48
 90
       50
102
RTVSPost2010PropOp48
 70
     1
102
RTVSPost2010Prop49
280
     0
102
RTVSPost2010PropOp49
 70
     1
102
RTVSPost2010Prop50
 90
       50
102
RTVSPost2010PropOp50
 70
     1
102
RTVSPost2010Prop51ColorIndex
 90
      256
102
RTVSPost2010Prop51ColorRGB
 90
-16777216
102
RTVSPost2010PropOp51
 70
     0
102
RTVSPost2010Prop52
140
1.0
102
RTVSPost2010PropOp52
 70
     0
102
RTVSPost2010Prop53
 90
        2
102
RTVSPost2010PropOp53
 70
     1
102
RTVSPost2010Prop54
  1
strokes_ogs.tif
102
RTVSPost2010PropOp54
 70
     1
102
RTVSPost2010Prop55
280
     0
102
RTVSPost2010PropOp55
 70
     1
102
RTVSPost2010Prop56
140
1.0
102
RTVSPost2010PropOp56
 70
     1
102
RTVSPost2010Prop57
140
1.0
102
RTVSPost2010PropOp57
 70
     1
102
RTVSPropertyOp0
 70
     1
102
RTVSPropertyOp1
 70
     1
102
RTVSPropertyOp2
 70
     1
102
RTVSPropertyOp3
 70
     1
102
RTVSPropertyOp4
 70
     1
102
RTVSPropertyOp5
 70
     1
102
RTVSPropertyOp6
 70
     1
102
RTVSPropertyOp7
 70
     1
102
RTVSPropertyOp8
 70
     1
102
RTVSPropertyOp9
 70
     1
102
RTVSPropertyOp10
 70
     1
102
RTVSPropertyOp11
 70
     1
102
RTVSPropertyOp12
 70
     1
102
RTVSPropertyOp13
 70
     1
102
RTVSPropertyOp14
 70
     1
102
RTVSPropertyOp15
 70
     1
102
RTVSPropertyOp16
 70
     1
102
RTVSPropertyOp17
 70
     1
102
RTVSPropertyOp18
 70
     1
102
RTVSPropertyOp19
 70
     1
102
RTVSPropertyOp20
 70
     1
102
RTVSPropertyOp21
 70
     1
102
RTVSPropertyOp22
 70
     1
102
RTVSPropertyOp23
 70
     1
102
RTVSPropertyOp24
 70
     1
102
RTVSPropertyOp25
 70
     1
102
RTVSPropertyOp26
 70
     1
102
RTVSPropertyOp27
 70
     1
102
RTVSPropertyOp28
 70
     1
102
RTVSPropertyOp29
 70
     1
102
RTVSPropertyOp30
 70
     1
102
RTVSPropertyOp31
 70
     1
102
RTVSPropertyOp32
 70
     1
102
RTVSPropertyOp33
 70
     1
102
RTVSPropertyOp34
 70
     1
102
RTVSPropertyOp35
 70
     1
102
RTVSPropertyOp36
 70
     1
102
RTVSPropertyOp37
 70
     1
102
RTVSPropertyOp38
 70
     1
102
RTVSPropertyOp39
 70
     1
102
RTVSPropertyOp40
 70
     1
102
RTVSPropertyOp41
 70
     1
102
RTVSPropertyOp42
 70
     1
102
RTVSPropertyOp43
 70
     1
102
RTVSPropertyOp44
 70
     1
102
RTVSPropertyOp45
 70
     1
102
RTVSPropertyOp46
 70
     1
102
RTVSPropertyOp47
 70
     1
102
RTVSPropertyOp48
 70
     1
102
RTVSPropertyOp49
 70
     1
102
RTVSPropertyOp50
 70
     1
102
RTVSPropertyOp51
 70
     0
102
RTVSPropertyOp52
 70
     0
102
RTVSPropertyOp53
 70
     1
102
RTVSPropertyOp54
 70
     1
102
RTVSPropertyOp55
 70
     1
102
RTVSPropertyOp56
 70
     1
102
RTVSPropertyOp57
 70
     1
102
RTVSPropertyOp58
 70
     1
102
RTVSPropertyOp59
 70
     1
102
RTVSPropertyOp60
 70
     1
102
RTVSPropertyOp61
 70
     1
102
RTVSPropertyOp62
 70
     1
  0
XRECORD
  5
17B46
102
{ACAD_REACTORS
330
17B45
102
}
330
17B45
100
AcDbXrecord
280
     1
102
RTVSPost2010Prop28
280
     0
102
RTVSPost2010PropOp28
 70
     1
102
RTVSPost2010Prop29
280
     1
102
RTVSPost2010PropOp29
 70
     1
102
RTVSPost2010Prop30
280
     1
102
RTVSPost2010PropOp30
 70
     1
102
RTVSPost2010Prop31
280
     0
102
RTVSPost2010PropOp31
 70
     1
102
RTVSPost2010Prop32
280
     0
102
RTVSPost2010PropOp32
 70
     1
102
RTVSPost2010Prop33
280
     0
102
RTVSPost2010PropOp33
 70
     1
102
RTVSPost2010Prop34
280
     0
102
RTVSPost2010PropOp34
 70
     1
102
RTVSPost2010Prop35
280
     0
102
RTVSPost2010PropOp35
 70
     1
102
RTVSPost2010Prop36
280
     0
102
RTVSPost2010PropOp36
 70
     1
102
RTVSPost2010Prop37
 90
       50
102
RTVSPost2010PropOp37
 70
     1
102
RTVSPost2010Prop38
140
0.0
102
RTVSPost2010PropOp38
 70
     1
102
RTVSPost2010Prop39
140
1.0
102
RTVSPost2010PropOp39
 70
     1
102
RTVSPost2010Prop40
 90
        0
102
RTVSPost2010PropOp40
 70
     1
102
RTVSPost2010Prop41ColorIndex
 90
       18
102
RTVSPost2010Prop41ColorRGB
 90
        0
102
RTVSPost2010PropOp41
 70
     1
102
RTVSPost2010Prop42
 90
       50
102
RTVSPost2010PropOp42
 70
     1
102
RTVSPost2010Prop43
 90
        3
102
RTVSPost2010PropOp43
 70
     1
102
RTVSPost2010Prop44ColorIndex
 90
        5
102
RTVSPost2010Prop44ColorRGB
 90
      255
102
RTVSPost2010PropOp44
 70
     1
102
RTVSPost2010Prop45
280
     0
102
RTVSPost2010PropOp45
 70
     1
102
RTVSPost2010Prop46
 90
       50
102
RTVSPost2010PropOp46
 70
     1
102
RTVSPost2010Prop47
 90
       50
102
RTVSPost2010PropOp47
 70
     1
102
RTVSPost2010Prop48
 90
       50
102
RTVSPost2010PropOp48
 70
     1
102
RTVSPost2010Prop49
280
     0
102
RTVSPost2010PropOp49
 70
     1
102
RTVSPost2010Prop50
 90
       50
102
RTVSPost2010PropOp50
 70
     1
102
RTVSPost2010Prop51ColorIndex
 90
      256
102
RTVSPost2010Prop51ColorRGB
 90
-16777216
102
RTVSPost2010PropOp51
 70
     0
102
RTVSPost2010Prop52
140
1.0
102
RTVSPost2010PropOp52
 70
     0
102
RTVSPost2010Prop53
 90
        2
102
RTVSPost2010PropOp53
 70
     1
102
RTVSPost2010Prop54
  1
strokes_ogs.tif
102
RTVSPost2010PropOp54
 70
     1
102
RTVSPost2010Prop55
280
     0
102
RTVSPost2010PropOp55
 70
     1
102
RTVSPost2010Prop56
140
1.0
102
RTVSPost2010PropOp56
 70
     1
102
RTVSPost2010Prop57
140
1.0
102
RTVSPost2010PropOp57
 70
     1
102
RTVSPropertyOp0
 70
     1
102
RTVSPropertyOp1
 70
     1
102
RTVSPropertyOp2
 70
     1
102
RTVSPropertyOp3
 70
     1
102
RTVSPropertyOp4
 70
     1
102
RTVSPropertyOp5
 70
     1
102
RTVSPropertyOp6
 70
     1
102
RTVSPropertyOp7
 70
     1
102
RTVSPropertyOp8
 70
     1
102
RTVSPropertyOp9
 70
     1
102
RTVSPropertyOp10
 70
     1
102
RTVSPropertyOp11
 70
     1
102
RTVSPropertyOp12
 70
     1
102
RTVSPropertyOp13
 70
     1
102
RTVSPropertyOp14
 70
     1
102
RTVSPropertyOp15
 70
     1
102
RTVSPropertyOp16
 70
     1
102
RTVSPropertyOp17
 70
     1
102
RTVSPropertyOp18
 70
     1
102
RTVSPropertyOp19
 70
     1
102
RTVSPropertyOp20
 70
     1
102
RTVSPropertyOp21
 70
     1
102
RTVSPropertyOp22
 70
     1
102
RTVSPropertyOp23
 70
     1
102
RTVSPropertyOp24
 70
     1
102
RTVSPropertyOp25
 70
     1
102
RTVSPropertyOp26
 70
     1
102
RTVSPropertyOp27
 70
     1
102
RTVSPropertyOp28
 70
     1
102
RTVSPropertyOp29
 70
     1
102
RTVSPropertyOp30
 70
     1
102
RTVSPropertyOp31
 70
     1
102
RTVSPropertyOp32
 70
     1
102
RTVSPropertyOp33
 70
     1
102
RTVSPropertyOp34
 70
     1
102
RTVSPropertyOp35
 70
     1
102
RTVSPropertyOp36
 70
     1
102
RTVSPropertyOp37
 70
     1
102
RTVSPropertyOp38
 70
     1
102
RTVSPropertyOp39
 70
     1
102
RTVSPropertyOp40
 70
     1
102
RTVSPropertyOp41
 70
     1
102
RTVSPropertyOp42
 70
     1
102
RTVSPropertyOp43
 70
     1
102
RTVSPropertyOp44
 70
     1
102
RTVSPropertyOp45
 70
     1
102
RTVSPropertyOp46
 70
     1
102
RTVSPropertyOp47
 70
     1
102
RTVSPropertyOp48
 70
     1
102
RTVSPropertyOp49
 70
     1
102
RTVSPropertyOp50
 70
     1
102
RTVSPropertyOp51
 70
     0
102
RTVSPropertyOp52
 70
     0
102
RTVSPropertyOp53
 70
     1
102
RTVSPropertyOp54
 70
     1
102
RTVSPropertyOp55
 70
     1
102
RTVSPropertyOp56
 70
     1
102
RTVSPropertyOp57
 70
     1
102
RTVSPropertyOp58
 70
     1
102
RTVSPropertyOp59
 70
     1
102
RTVSPropertyOp60
 70
     1
102
RTVSPropertyOp61
 70
     1
102
RTVSPropertyOp62
 70
     1
  0
XRECORD
  5
17B5E
102
{ACAD_REACTORS
330
17B5D
102
}
330
17B5D
100
AcDbXrecord
280
     1
102
RTVSPost2010Prop28
280
     0
102
RTVSPost2010PropOp28
 70
     1
102
RTVSPost2010Prop29
280
     1
102
RTVSPost2010PropOp29
 70
     1
102
RTVSPost2010Prop30
280
     1
102
RTVSPost2010PropOp30
 70
     1
102
RTVSPost2010Prop31
280
     0
102
RTVSPost2010PropOp31
 70
     1
102
RTVSPost2010Prop32
280
     0
102
RTVSPost2010PropOp32
 70
     1
102
RTVSPost2010Prop33
280
     0
102
RTVSPost2010PropOp33
 70
     1
102
RTVSPost2010Prop34
280
     0
102
RTVSPost2010PropOp34
 70
     1
102
RTVSPost2010Prop35
280
     0
102
RTVSPost2010PropOp35
 70
     1
102
RTVSPost2010Prop36
280
     0
102
RTVSPost2010PropOp36
 70
     1
102
RTVSPost2010Prop37
 90
       50
102
RTVSPost2010PropOp37
 70
     1
102
RTVSPost2010Prop38
140
0.0
102
RTVSPost2010PropOp38
 70
     1
102
RTVSPost2010Prop39
140
1.0
102
RTVSPost2010PropOp39
 70
     1
102
RTVSPost2010Prop40
 90
        0
102
RTVSPost2010PropOp40
 70
     1
102
RTVSPost2010Prop41ColorIndex
 90
       18
102
RTVSPost2010Prop41ColorRGB
 90
        0
102
RTVSPost2010PropOp41
 70
     1
102
RTVSPost2010Prop42
 90
       50
102
RTVSPost2010PropOp42
 70
     1
102
RTVSPost2010Prop43
 90
        3
102
RTVSPost2010PropOp43
 70
     1
102
RTVSPost2010Prop44ColorIndex
 90
        5
102
RTVSPost2010Prop44ColorRGB
 90
      255
102
RTVSPost2010PropOp44
 70
     1
102
RTVSPost2010Prop45
280
     0
102
RTVSPost2010PropOp45
 70
     1
102
RTVSPost2010Prop46
 90
       50
102
RTVSPost2010PropOp46
 70
     1
102
RTVSPost2010Prop47
 90
       50
102
RTVSPost2010PropOp47
 70
     1
102
RTVSPost2010Prop48
 90
       50
102
RTVSPost2010PropOp48
 70
     1
102
RTVSPost2010Prop49
280
     0
102
RTVSPost2010PropOp49
 70
     1
102
RTVSPost2010Prop50
 90
       50
102
RTVSPost2010PropOp50
 70
     1
102
RTVSPost2010Prop51ColorIndex
 90
      256
102
RTVSPost2010Prop51ColorRGB
 90
-16777216
102
RTVSPost2010PropOp51
 70
     0
102
RTVSPost2010Prop52
140
1.0
102
RTVSPost2010PropOp52
 70
     0
102
RTVSPost2010Prop53
 90
        2
102
RTVSPost2010PropOp53
 70
     1
102
RTVSPost2010Prop54
  1
strokes_ogs.tif
102
RTVSPost2010PropOp54
 70
     1
102
RTVSPost2010Prop55
280
     0
102
RTVSPost2010PropOp55
 70
     1
102
RTVSPost2010Prop56
140
1.0
102
RTVSPost2010PropOp56
 70
     1
102
RTVSPost2010Prop57
140
1.0
102
RTVSPost2010PropOp57
 70
     1
102
RTVSPropertyOp0
 70
     1
102
RTVSPropertyOp1
 70
     1
102
RTVSPropertyOp2
 70
     1
102
RTVSPropertyOp3
 70
     1
102
RTVSPropertyOp4
 70
     1
102
RTVSPropertyOp5
 70
     1
102
RTVSPropertyOp6
 70
     1
102
RTVSPropertyOp7
 70
     1
102
RTVSPropertyOp8
 70
     1
102
RTVSPropertyOp9
 70
     1
102
RTVSPropertyOp10
 70
     1
102
RTVSPropertyOp11
 70
     1
102
RTVSPropertyOp12
 70
     1
102
RTVSPropertyOp13
 70
     1
102
RTVSPropertyOp14
 70
     1
102
RTVSPropertyOp15
 70
     1
102
RTVSPropertyOp16
 70
     1
102
RTVSPropertyOp17
 70
     1
102
RTVSPropertyOp18
 70
     1
102
RTVSPropertyOp19
 70
     1
102
RTVSPropertyOp20
 70
     1
102
RTVSPropertyOp21
 70
     1
102
RTVSPropertyOp22
 70
     1
102
RTVSPropertyOp23
 70
     1
102
RTVSPropertyOp24
 70
     1
102
RTVSPropertyOp25
 70
     1
102
RTVSPropertyOp26
 70
     1
102
RTVSPropertyOp27
 70
     1
102
RTVSPropertyOp28
 70
     1
102
RTVSPropertyOp29
 70
     1
102
RTVSPropertyOp30
 70
     1
102
RTVSPropertyOp31
 70
     1
102
RTVSPropertyOp32
 70
     1
102
RTVSPropertyOp33
 70
     1
102
RTVSPropertyOp34
 70
     1
102
RTVSPropertyOp35
 70
     1
102
RTVSPropertyOp36
 70
     1
102
RTVSPropertyOp37
 70
     1
102
RTVSPropertyOp38
 70
     1
102
RTVSPropertyOp39
 70
     1
102
RTVSPropertyOp40
 70
     1
102
RTVSPropertyOp41
 70
     1
102
RTVSPropertyOp42
 70
     1
102
RTVSPropertyOp43
 70
     1
102
RTVSPropertyOp44
 70
     1
102
RTVSPropertyOp45
 70
     1
102
RTVSPropertyOp46
 70
     1
102
RTVSPropertyOp47
 70
     1
102
RTVSPropertyOp48
 70
     1
102
RTVSPropertyOp49
 70
     1
102
RTVSPropertyOp50
 70
     1
102
RTVSPropertyOp51
 70
     0
102
RTVSPropertyOp52
 70
     0
102
RTVSPropertyOp53
 70
     1
102
RTVSPropertyOp54
 70
     1
102
RTVSPropertyOp55
 70
     1
102
RTVSPropertyOp56
 70
     1
102
RTVSPropertyOp57
 70
     1
102
RTVSPropertyOp58
 70
     1
102
RTVSPropertyOp59
 70
     1
102
RTVSPropertyOp60
 70
     1
102
RTVSPropertyOp61
 70
     1
102
RTVSPropertyOp62
 70
     1
  0
ENDSEC
  0
EOF
