  0
SECTION
  2
HEADER
  9
$ACADVER
  1
AC1015
  9
$ACADMAINTVER
 70
    20
  9
$DWGCODEPAGE
  3
ANSI_932
  9
$INSBASE
 10
0.0
 20
0.0
 30
0.0
  9
$EXTMIN
 10
139.9999999999995
 20
-0.0000000000000909
 30
0.0
  9
$EXTMAX
 10
16307.2
 20
11409.6
 30
0.0
  9
$LIMMIN
 10
0.0
 20
0.0
  9
$LIMMAX
 10
16800.0
 20
11880.0
  9
$ORTHOMODE
 70
     0
  9
$REGENMODE
 70
     1
  9
$FILLMODE
 70
     1
  9
$QTEXTMODE
 70
     0
  9
$MIRRTEXT
 70
     1
  9
$LTSCALE
 40
20.0
  9
$ATTMODE
 70
     1
  9
$TEXTSIZE
 40
120.0
  9
$TRACEWID
 40
1.0
  9
$TEXTSTYLE
  7
STYLE1
  9
$CLAYER
  8
部品1
  9
$CELTYPE
  6
BYLAYER
  9
$CECOLOR
 62
   256
  9
$CELTSCALE
 40
50.0
  9
$DISPSILH
 70
     0
  9
$DIMSCALE
 40
40.0
  9
$DIMASZ
 40
2.5
  9
$DIMEXO
 40
0.5
  9
$DIMDLI
 40
7.0
  9
$DIMRND
 40
0.0
  9
$DIMDLE
 40
0.0
  9
$DIMEXE
 40
1.5
  9
$DIMTP
 40
0.0
  9
$DIMTM
 40
0.0
  9
$DIMTXT
 40
3.0
  9
$DIMCEN
 40
0.0
  9
$DIMTSZ
 40
0.0
  9
$DIMTOL
 70
     0
  9
$DIMLIM
 70
     0
  9
$DIMTIH
 70
     0
  9
$DIMTOH
 70
     0
  9
$DIMSE1
 70
     0
  9
$DIMSE2
 70
     0
  9
$DIMTAD
 70
     3
  9
$DIMZIN
 70
     8
  9
$DIMBLK
  1

  9
$DIMASO
 70
     1
  9
$DIMSHO
 70
     1
  9
$DIMPOST
  1

  9
$DIMAPOST
  1

  9
$DIMALT
 70
     0
  9
$DIMALTD
 70
     2
  9
$DIMALTF
 40
0.0394
  9
$DIMLFAC
 40
1.0
  9
$DIMTOFL
 70
     1
  9
$DIMTVP
 40
0.0
  9
$DIMTIX
 70
     1
  9
$DIMSOXD
 70
     0
  9
$DIMSAH
 70
     1
  9
$DIMBLK1
  1
DOTSMALL
  9
$DIMBLK2
  1
DOTSMALL
  9
$DIMSTYLE
  2
INABA_S40G
  9
$DIMCLRD
 70
     0
  9
$DIMCLRE
 70
     0
  9
$DIMCLRT
 70
     7
  9
$DIMTFAC
 40
1.0
  9
$DIMGAP
 40
1.0
  9
$DIMJUST
 70
     0
  9
$DIMSD1
 70
     0
  9
$DIMSD2
 70
     0
  9
$DIMTOLJ
 70
     1
  9
$DIMTZIN
 70
     0
  9
$DIMALTZ
 70
     0
  9
$DIMALTTZ
 70
     0
  9
$DIMUPT
 70
     1
  9
$DIMDEC
 70
     1
  9
$DIMTDEC
 70
     4
  9
$DIMALTU
 70
     2
  9
$DIMALTTD
 70
     2
  9
$DIMTXSTY
  7
STYLE1
  9
$DIMAUNIT
 70
     0
  9
$DIMADEC
 70
     0
  9
$DIMALTRND
 40
0.0
  9
$DIMAZIN
 70
     0
  9
$DIMDSEP
 70
    46
  9
$DIMATFIT
 70
     3
  9
$DIMFRAC
 70
     0
  9
$DIMLDRBLK
  1

  9
$DIMLUNIT
 70
     2
  9
$DIMLWD
 70
    -2
  9
$DIMLWE
 70
    -2
  9
$DIMTMOVE
 70
     0
  9
$LUNITS
 70
     2
  9
$LUPREC
 70
     1
  9
$SKETCHINC
 40
1.0
  9
$FILLETRAD
 40
3.0
  9
$AUNITS
 70
     0
  9
$AUPREC
 70
     0
  9
$MENU
  1
acad
  9
$ELEVATION
 40
0.0
  9
$PELEVATION
 40
0.0
  9
$THICKNESS
 40
0.0
  9
$LIMCHECK
 70
     0
  9
$CHAMFERA
 40
0.0
  9
$CHAMFERB
 40
0.0
  9
$CHAMFERC
 40
0.0
  9
$CHAMFERD
 40
0.0
  9
$SKPOLY
 70
     0
  9
$TDCREATE
 40
2451368.612993866
  9
$TDUCREATE
 40
2451368.237993866
  9
$TDUPDATE
 40
2455575.688273102
  9
$TDUUPDATE
 40
2455575.313273102
  9
$TDINDWG
 40
0.5581981944
  9
$TDUSRTIMER
 40
0.5581981944
  9
$USRTIMER
 70
     1
  9
$ANGBASE
 50
0.0
  9
$ANGDIR
 70
     0
  9
$PDMODE
 70
     3
  9
$PDSIZE
 40
2.0
  9
$PLINEWID
 40
0.0
  9
$SPLFRAME
 70
     0
  9
$SPLINETYPE
 70
     6
  9
$SPLINESEGS
 70
     8
  9
$HANDSEED
  5
19CC3
  9
$SURFTAB1
 70
     6
  9
$SURFTAB2
 70
     6
  9
$SURFTYPE
 70
     6
  9
$SURFU
 70
     6
  9
$SURFV
 70
     6
  9
$UCSBASE
  2

  9
$UCSNAME
  2

  9
$UCSORG
 10
0.0
 20
0.0
 30
0.0
  9
$UCSXDIR
 10
1.0
 20
0.0
 30
0.0
  9
$UCSYDIR
 10
0.0
 20
1.0
 30
0.0
  9
$UCSORTHOREF
  2

  9
$UCSORTHOVIEW
 70
     0
  9
$UCSORGTOP
 10
0.0
 20
0.0
 30
0.0
  9
$UCSORGBOTTOM
 10
0.0
 20
0.0
 30
0.0
  9
$UCSORGLEFT
 10
0.0
 20
0.0
 30
0.0
  9
$UCSORGRIGHT
 10
0.0
 20
0.0
 30
0.0
  9
$UCSORGFRONT
 10
0.0
 20
0.0
 30
0.0
  9
$UCSORGBACK
 10
0.0
 20
0.0
 30
0.0
  9
$PUCSBASE
  2

  9
$PUCSNAME
  2

  9
$PUCSORG
 10
0.0
 20
0.0
 30
0.0
  9
$PUCSXDIR
 10
1.0
 20
0.0
 30
0.0
  9
$PUCSYDIR
 10
0.0
 20
1.0
 30
0.0
  9
$PUCSORTHOREF
  2

  9
$PUCSORTHOVIEW
 70
     0
  9
$PUCSORGTOP
 10
0.0
 20
0.0
 30
0.0
  9
$PUCSORGBOTTOM
 10
0.0
 20
0.0
 30
0.0
  9
$PUCSORGLEFT
 10
0.0
 20
0.0
 30
0.0
  9
$PUCSORGRIGHT
 10
0.0
 20
0.0
 30
0.0
  9
$PUCSORGFRONT
 10
0.0
 20
0.0
 30
0.0
  9
$PUCSORGBACK
 10
0.0
 20
0.0
 30
0.0
  9
$USERI1
 70
     0
  9
$USERI2
 70
     0
  9
$USERI3
 70
     0
  9
$USERI4
 70
     0
  9
$USERI5
 70
     0
  9
$USERR1
 40
0.0
  9
$USERR2
 40
0.0
  9
$USERR3
 40
0.0
  9
$USERR4
 40
0.0
  9
$USERR5
 40
0.0
  9
$WORLDVIEW
 70
     1
  9
$SHADEDGE
 70
     3
  9
$SHADEDIF
 70
    70
  9
$TILEMODE
 70
     1
  9
$MAXACTVP
 70
    16
  9
$PINSBASE
 10
0.0
 20
0.0
 30
0.0
  9
$PLIMCHECK
 70
     0
  9
$PEXTMIN
 10
1.000000000000000E+20
 20
1.000000000000000E+20
 30
1.000000000000000E+20
  9
$PEXTMAX
 10
-1.000000000000000E+20
 20
-1.000000000000000E+20
 30
-1.000000000000000E+20
  9
$PLIMMIN
 10
0.0
 20
0.0
  9
$PLIMMAX
 10
420.0
 20
297.0
  9
$UNITMODE
 70
     0
  9
$VISRETAIN
 70
     0
  9
$PLINEGEN
 70
     0
  9
$PSLTSCALE
 70
     0
  9
$TREEDEPTH
 70
  3020
  9
$CMLSTYLE
  2
STANDARD
  9
$CMLJUST
 70
     0
  9
$CMLSCALE
 40
1.0
  9
$PROXYGRAPHICS
 70
     1
  9
$MEASUREMENT
 70
     1
  9
$CELWEIGHT
370
    -1
  9
$ENDCAPS
280
     0
  9
$JOINSTYLE
280
     0
  9
$LWDISPLAY
290
     0
  9
$INSUNITS
 70
     0
  9
$HYPERLINKBASE
  1

  9
$STYLESHEET
  1

  9
$XEDIT
290
     1
  9
$CEPSNTYPE
380
     0
  9
$PSTYLEMODE
290
     1
  9
$FINGERPRINTGUID
  2
{4FBAA4AB-90B9-46D7-8C51-BA59E8E645FB}
  9
$VERSIONGUID
  2
{6CDC1D8F-1912-4766-96D7-00E117C09276}
  9
$EXTNAMES
290
     1
  9
$PSVPSCALE
 40
0.0
  9
$OLESTARTUP
290
     0
  0
ENDSEC
  0
SECTION
  2
CLASSES
  0
CLASS
  1
ACDBDICTIONARYWDFLT
  2
AcDbDictionaryWithDefault
  3
ObjectDBX Classes
 90
        0
280
     0
281
     0
  0
CLASS
  1
DICTIONARYVAR
  2
AcDbDictionaryVar
  3
ObjectDBX Classes
 90
        0
280
     0
281
     0
  0
CLASS
  1
ACDBPLACEHOLDER
  2
AcDbPlaceHolder
  3
ObjectDBX Classes
 90
        0
280
     0
281
     0
  0
CLASS
  1
LAYOUT
  2
AcDbLayout
  3
ObjectDBX Classes
 90
        0
280
     0
281
     0
  0
ENDSEC
  0
SECTION
  2
TABLES
  0
TABLE
  2
VPORT
  5
746D
330
0
100
AcDbSymbolTable
 70
     2
  0
VPORT
  5
19CBB
330
746D
100
AcDbSymbolTableRecord
100
AcDbViewportTableRecord
  2
*Active
 70
     0
 10
0.0
 20
0.0
 11
1.0
 21
1.0
 12
8223.739589679098
 22
6349.158542383221
 13
0.0
 23
0.0
 14
10.0
 24
10.0
 15
10.0
 25
10.0
 16
0.0
 26
0.0
 36
1.0
 17
0.0
 27
0.0
 37
0.0
 40
12806.69793605154
 41
1.525925925925925
 42
50.0
 43
0.0
 44
0.0
 50
0.0
 51
0.0
 71
     0
 72
     0
 73
     1
 74
     0
 75
     0
 76
     0
 77
     0
 78
     0
281
     0
 65
     1
110
0.0
120
0.0
130
0.0
111
1.0
121
0.0
131
0.0
112
0.0
122
1.0
132
0.0
 79
     0
146
0.0
  0
ENDTAB
  0
TABLE
  2
LTYPE
  5
746A
330
0
100
AcDbSymbolTable
 70
     4
  0
LTYPE
  5
7477
330
746A
100
AcDbSymbolTableRecord
100
AcDbLinetypeTableRecord
  2
BYBLOCK
 70
     0
  3

 72
    65
 73
     0
 40
0.0
  0
LTYPE
  5
7478
330
746A
100
AcDbSymbolTableRecord
100
AcDbLinetypeTableRecord
  2
BYLAYER
 70
     0
  3

 72
    65
 73
     0
 40
0.0
  0
LTYPE
  5
7479
330
746A
100
AcDbSymbolTableRecord
100
AcDbLinetypeTableRecord
  2
CONTINUOUS
 70
     0
  3
Solid line
 72
    65
 73
     0
 40
0.0
  0
LTYPE
  5
7816
330
746A
100
AcDbSymbolTableRecord
100
AcDbLinetypeTableRecord
  2
CENTER
 70
     0
  3
____ _ ____ _ ____ _ ____ _ ____ _ ____ _ ____ 
 72
    65
 73
     4
 40
2.0
 49
1.25
 74
     0
 49
-0.25
 74
     0
 49
0.25
 74
     0
 49
-0.25
 74
     0
  0
LTYPE
  5
781A
330
746A
100
AcDbSymbolTableRecord
100
AcDbLinetypeTableRecord
  2
HIDDEN
 70
     0
  3
__ __ __ __ __ __ __ __ __ __ __ __ __ __ __ __
 72
    65
 73
     2
 40
0.375
 49
0.25
 74
     0
 49
-0.125
 74
     0
  0
LTYPE
  5
781B
330
746A
100
AcDbSymbolTableRecord
100
AcDbLinetypeTableRecord
  2
PHANTOM
 70
     0
  3
______  __  __  ______  __  __  ______  __  __ 
 72
    65
 73
     6
 40
2.5
 49
1.25
 74
     0
 49
-0.25
 74
     0
 49
0.25
 74
     0
 49
-0.25
 74
     0
 49
0.25
 74
     0
 49
-0.25
 74
     0
  0
ENDTAB
  0
TABLE
  2
LAYER
  5
7467
102
{ACAD_XDICTIONARY
360
181DB
102
}
330
0
100
AcDbSymbolTable
 70
    12
  0
LAYER
  5
7474
330
7467
100
AcDbSymbolTableRecord
100
AcDbLayerTableRecord
  2
0
 70
     0
 62
     7
  6
CONTINUOUS
370
    -3
390
18005
  0
LAYER
  5
DEB2
330
7467
100
AcDbSymbolTableRecord
100
AcDbLayerTableRecord
  2
センター
 70
     0
 62
     3
  6
CENTER
370
    -3
390
18005
  0
LAYER
  5
DEB3
330
7467
100
AcDbSymbolTableRecord
100
AcDbLayerTableRecord
  2
寸法
 70
     0
 62
     4
  6
CONTINUOUS
370
    -3
390
18005
  0
LAYER
  5
DEB4
330
7467
100
AcDbSymbolTableRecord
100
AcDbLayerTableRecord
  2
部品1
 70
     0
 62
     7
  6
CONTINUOUS
370
    -3
390
18005
  0
LAYER
  5
DEB5
330
7467
100
AcDbSymbolTableRecord
100
AcDbLayerTableRecord
  2
補助
 70
     0
 62
    -1
  6
CONTINUOUS
370
    -3
390
18005
  0
LAYER
  5
DEB6
330
7467
100
AcDbSymbolTableRecord
100
AcDbLayerTableRecord
  2
文字
 70
     0
 62
     7
  6
CONTINUOUS
370
    -3
390
18005
  0
LAYER
  5
F255
330
7467
100
AcDbSymbolTableRecord
100
AcDbLayerTableRecord
  2
DEFPOINTS
 70
     0
 62
     7
  6
CONTINUOUS
290
     0
370
    -3
390
18005
  0
LAYER
  5
10B54
330
7467
100
AcDbSymbolTableRecord
100
AcDbLayerTableRecord
  2
仕様書枠
 70
     0
 62
   230
  6
CONTINUOUS
370
    -3
390
18005
  0
LAYER
  5
11729
330
7467
100
AcDbSymbolTableRecord
100
AcDbLayerTableRecord
  2
Ｇ．Ｌ
 70
     0
 62
    30
  6
CONTINUOUS
370
    -3
390
18005
  0
LAYER
  5
1173F
330
7467
100
AcDbSymbolTableRecord
100
AcDbLayerTableRecord
  2
細線
 70
     0
 62
     5
  6
CONTINUOUS
370
    -3
390
18005
  0
LAYER
  5
12CC4
330
7467
100
AcDbSymbolTableRecord
100
AcDbLayerTableRecord
  2
想像線
 70
     0
 62
     6
  6
PHANTOM
370
    -3
390
18005
  0
LAYER
  5
142E2
330
7467
100
AcDbSymbolTableRecord
100
AcDbLayerTableRecord
  2
破線
 70
     0
 62
     2
  6
HIDDEN
370
    -3
390
18005
  0
ENDTAB
  0
TABLE
  2
STYLE
  5
7468
330
0
100
AcDbSymbolTable
 70
     5
  0
STYLE
  5
7475
330
7468
100
AcDbSymbolTableRecord
100
AcDbTextStyleTableRecord
  2
STANDARD
 70
     0
 40
0.0
 41
1.0
 50
0.0
 71
     0
 42
4.0
  3
txt
  4
C:\AutoCAD LT\bigfont.shx
  0
STYLE
  5
763C
330
7468
100
AcDbSymbolTableRecord
100
AcDbTextStyleTableRecord
  2
MSMINCHO
 70
     0
 40
0.0
 41
1.0
 50
0.0
 71
     0
 42
1.199999999999999
  3
C:\AutoCAD LT\msminch2.TTF
  4

  0
STYLE
  5
F706
330
7468
100
AcDbSymbolTableRecord
100
AcDbTextStyleTableRecord
  2
STYLE1
 70
     0
 40
0.0
 41
1.0
 50
0.0
 71
     0
 42
120.0
  3
isocp.shx
  4
bigfont.shx
  0
STYLE
  5
103BF
330
7468
100
AcDbSymbolTableRecord
100
AcDbTextStyleTableRecord
  2
STYLE2
 70
     0
 40
0.0
 41
1.0
 50
0.0
 71
     0
 42
100.0
  3
MS PGothic.ttf
  4

1001
ACAD
1000
MS PGothic
1071
    32818
  0
STYLE
  5
10BAA
330
7468
100
AcDbSymbolTableRecord
100
AcDbTextStyleTableRecord
  2
STYLE3
 70
     0
 40
0.0
 41
1.0
 50
0.0
 71
     0
 42
100.0
  3

  4

1001
ACAD
1000
DFPGothic-EB
1071
    32818
  0
ENDTAB
  0
TABLE
  2
VIEW
  5
746B
330
0
100
AcDbSymbolTable
 70
     0
  0
ENDTAB
  0
TABLE
  2
UCS
  5
746C
330
0
100
AcDbSymbolTable
 70
     0
  0
ENDTAB
  0
TABLE
  2
APPID
  5
746E
330
0
100
AcDbSymbolTable
 70
     6
  0
APPID
  5
7476
330
746E
100
AcDbSymbolTableRecord
100
AcDbRegAppTableRecord
  2
ACAD
 70
     0
  0
APPID
  5
DEA9
330
746E
100
AcDbSymbolTableRecord
100
AcDbRegAppTableRecord
  2
CONTENTBLOCKICON
 70
     0
  0
APPID
  5
DEAA
330
746E
100
AcDbSymbolTableRecord
100
AcDbRegAppTableRecord
  2
CONTENTBLOCKDESCRIPTION
 70
     0
  0
APPID
  5
E71D
330
746E
100
AcDbSymbolTableRecord
100
AcDbRegAppTableRecord
  2
CONTENTTABDATA
 70
     0
  0
APPID
  5
E71E
330
746E
100
AcDbSymbolTableRecord
100
AcDbRegAppTableRecord
  2
CONTENTCURRENTTAB
 70
     0
  0
APPID
  5
F3BA
330
746E
100
AcDbSymbolTableRecord
100
AcDbRegAppTableRecord
  2
DRAWINGVARIABLESXDATA
 70
     0
  0
ENDTAB
  0
TABLE
  2
DIMSTYLE
  5
746F
330
0
100
AcDbSymbolTable
 70
     4
100
AcDbDimStyleTable
 71
     0
  0
DIMSTYLE
105
7484
330
746F
100
AcDbSymbolTableRecord
100
AcDbDimStyleTableRecord
  2
JIS
 70
     0
 41
2.5
 42
1.0
 43
7.0
 44
1.0
 73
     0
 74
     0
 77
     1
 78
     8
140
2.5
141
0.0
143
0.0394
147
0.0
172
     1
174
     1
175
     1
340
7475
  0
DIMSTYLE
105
F236
330
746F
100
AcDbSymbolTableRecord
100
AcDbDimStyleTableRecord
  2
INABA_S40
 70
     0
 40
40.0
 41
2.5
 42
0.5
 43
7.0
 44
1.5
 73
     0
 74
     0
 77
     3
 78
     8
140
3.0
141
0.0
143
0.0394
147
1.0
172
     1
173
     1
174
     1
175
     1
178
     7
289
     0
340
7475
341
DEAC
343
DEAC
344
DEAC
  0
DIMSTYLE
105
F71F
102
{ACAD_REACTORS
330
1540B
330
15633
330
15727
330
15735
330
1603B
330
1603C
330
17387
330
1739E
330
173AA
330
173AD
330
14521
330
14526
330
1452E
330
14530
330
14531
330
14532
330
14587
330
173AB
330
173AC
330
188F0
330
188F1
330
188F2
330
18901
330
191A4
330
191B3
330
191C1
330
191C2
330
191C3
330
191C4
330
191C8
330
191C9
330
191CA
330
191CB
330
1988B
330
19969
330
1988C
102
}
330
746F
100
AcDbSymbolTableRecord
100
AcDbDimStyleTableRecord
  2
INABA_S40G
 70
     0
 40
40.0
 41
2.5
 42
0.5
 43
7.0
 44
1.5
 73
     0
 74
     0
 77
     3
 78
     8
140
3.0
141
0.0
143
0.0394
147
1.0
172
     1
173
     1
174
     1
178
     7
271
     1
288
     1
340
F706
341
F770
343
F770
344
F770
  0
DIMSTYLE
105
19B9F
330
746F
100
AcDbSymbolTableRecord
100
AcDbDimStyleTableRecord
  2
INABA_S20G
 70
     0
 40
20.0
 41
2.5
 42
0.5
 43
7.0
 44
1.5
 73
     0
 74
     0
 77
     3
 78
     8
140
3.0
141
0.0
143
0.0394
147
1.0
172
     1
173
     1
174
     1
178
     7
271
     1
340
F706
341
F770
343
F770
344
F770
  0
ENDTAB
  0
TABLE
  2
BLOCK_RECORD
  5
7466
330
0
100
AcDbSymbolTable
 70
    38
  0
BLOCK_RECORD
  5
747D
330
7466
100
AcDbSymbolTableRecord
100
AcDbBlockTableRecord
  2
*MODEL_SPACE
340
1800A
  0
BLOCK_RECORD
  5
747A
330
7466
100
AcDbSymbolTableRecord
100
AcDbBlockTableRecord
  2
*PAPER_SPACE
340
1800B
  0
BLOCK_RECORD
  5
DEAC
330
7466
100
AcDbSymbolTableRecord
100
AcDbBlockTableRecord
  2
_OPEN
340
0
  0
BLOCK_RECORD
  5
F770
330
7466
100
AcDbSymbolTableRecord
100
AcDbBlockTableRecord
  2
_DOTSMALL
340
0
102
{BLKREFS
331
1580D
331
1580E
331
15818
331
15819
331
19A1D
331
19A1E
331
19A26
331
19A27
331
19A2F
331
19A30
331
19A3A
331
19A3B
331
19A43
331
19A44
331
19A4C
331
19A4D
331
19A57
331
19A58
331
19A60
331
19A61
331
19A6A
331
19A6B
331
19A74
331
19A75
331
19A7F
331
19A80
331
19A8A
331
19A8B
331
19A93
331
19A94
331
19A9C
331
19A9D
331
19AA5
331
19AA6
331
19AAE
331
19AAF
331
19AB7
331
19AB8
331
19AC0
331
19AC1
331
19AC8
331
19AC9
331
19AD0
331
19AD1
331
19AD8
331
19AD9
331
19AE0
331
19AE1
331
19AE9
331
19AEA
331
19AF2
331
19AF3
331
19AFB
331
19AFC
331
19B04
331
19B05
331
19B0D
331
19B0E
331
19B16
331
19B17
331
19B2A
331
19B2B
331
19B33
331
19B34
331
19B3C
331
19B3D
331
19B47
331
19B48
331
19B52
331
19B53
331
19B66
331
19B67
331
19B7E
331
19B7F
331
19B90
331
19B91
102
}
  0
BLOCK_RECORD
  5
1458A
330
7466
100
AcDbSymbolTableRecord
100
AcDbBlockTableRecord
  2
*D2
340
0
  0
BLOCK_RECORD
  5
14598
330
7466
100
AcDbSymbolTableRecord
100
AcDbBlockTableRecord
  2
*D3
340
0
  0
BLOCK_RECORD
  5
145A4
330
7466
100
AcDbSymbolTableRecord
100
AcDbBlockTableRecord
  2
*D4
340
0
  0
BLOCK_RECORD
  5
145BE
330
7466
100
AcDbSymbolTableRecord
100
AcDbBlockTableRecord
  2
*D5
340
0
  0
BLOCK_RECORD
  5
145CC
330
7466
100
AcDbSymbolTableRecord
100
AcDbBlockTableRecord
  2
*D6
340
0
  0
BLOCK_RECORD
  5
145D8
330
7466
100
AcDbSymbolTableRecord
100
AcDbBlockTableRecord
  2
*D7
340
0
  0
BLOCK_RECORD
  5
14608
330
7466
100
AcDbSymbolTableRecord
100
AcDbBlockTableRecord
  2
*D8
340
0
  0
BLOCK_RECORD
  5
153FF
330
7466
100
AcDbSymbolTableRecord
100
AcDbBlockTableRecord
  2
*D9
340
0
  0
BLOCK_RECORD
  5
15640
330
7466
100
AcDbSymbolTableRecord
100
AcDbBlockTableRecord
  2
*D10
340
0
  0
BLOCK_RECORD
  5
1571B
330
7466
100
AcDbSymbolTableRecord
100
AcDbBlockTableRecord
  2
*D11
340
0
  0
BLOCK_RECORD
  5
15728
330
7466
100
AcDbSymbolTableRecord
100
AcDbBlockTableRecord
  2
*D12
340
0
  0
BLOCK_RECORD
  5
1603D
330
7466
100
AcDbSymbolTableRecord
100
AcDbBlockTableRecord
  2
*D13
340
0
  0
BLOCK_RECORD
  5
16049
330
7466
100
AcDbSymbolTableRecord
100
AcDbBlockTableRecord
  2
*D14
340
0
  0
BLOCK_RECORD
  5
1737A
330
7466
100
AcDbSymbolTableRecord
100
AcDbBlockTableRecord
  2
*D15
340
0
  0
BLOCK_RECORD
  5
17393
330
7466
100
AcDbSymbolTableRecord
100
AcDbBlockTableRecord
  2
*D16
340
0
  0
BLOCK_RECORD
  5
1739F
330
7466
100
AcDbSymbolTableRecord
100
AcDbBlockTableRecord
  2
*D17
340
0
  0
BLOCK_RECORD
  5
173AE
330
7466
100
AcDbSymbolTableRecord
100
AcDbBlockTableRecord
  2
*D18
340
0
  0
BLOCK_RECORD
  5
173BA
330
7466
100
AcDbSymbolTableRecord
100
AcDbBlockTableRecord
  2
*D19
340
0
  0
BLOCK_RECORD
  5
173C5
330
7466
100
AcDbSymbolTableRecord
100
AcDbBlockTableRecord
  2
*D20
340
0
  0
BLOCK_RECORD
  5
18B65
330
7466
100
AcDbSymbolTableRecord
100
AcDbBlockTableRecord
  2
*D21
340
0
  0
BLOCK_RECORD
  5
18B71
330
7466
100
AcDbSymbolTableRecord
100
AcDbBlockTableRecord
  2
*D22
340
0
  0
BLOCK_RECORD
  5
18B7D
330
7466
100
AcDbSymbolTableRecord
100
AcDbBlockTableRecord
  2
*D23
340
0
  0
BLOCK_RECORD
  5
18B8B
330
7466
100
AcDbSymbolTableRecord
100
AcDbBlockTableRecord
  2
*D24
340
0
  0
BLOCK_RECORD
  5
1936C
330
7466
100
AcDbSymbolTableRecord
100
AcDbBlockTableRecord
  2
*D25
340
0
  0
BLOCK_RECORD
  5
19379
330
7466
100
AcDbSymbolTableRecord
100
AcDbBlockTableRecord
  2
*D26
340
0
  0
BLOCK_RECORD
  5
19386
330
7466
100
AcDbSymbolTableRecord
100
AcDbBlockTableRecord
  2
*D27
340
0
  0
BLOCK_RECORD
  5
19392
330
7466
100
AcDbSymbolTableRecord
100
AcDbBlockTableRecord
  2
*D28
340
0
  0
BLOCK_RECORD
  5
193A0
330
7466
100
AcDbSymbolTableRecord
100
AcDbBlockTableRecord
  2
*D29
340
0
  0
BLOCK_RECORD
  5
193AC
330
7466
100
AcDbSymbolTableRecord
100
AcDbBlockTableRecord
  2
*D30
340
0
  0
BLOCK_RECORD
  5
193B8
330
7466
100
AcDbSymbolTableRecord
100
AcDbBlockTableRecord
  2
*D31
340
0
  0
BLOCK_RECORD
  5
193C6
330
7466
100
AcDbSymbolTableRecord
100
AcDbBlockTableRecord
  2
*D32
340
0
  0
BLOCK_RECORD
  5
193D2
330
7466
100
AcDbSymbolTableRecord
100
AcDbBlockTableRecord
  2
*D33
340
0
  0
BLOCK_RECORD
  5
193DE
330
7466
100
AcDbSymbolTableRecord
100
AcDbBlockTableRecord
  2
*D34
340
0
  0
BLOCK_RECORD
  5
19975
330
7466
100
AcDbSymbolTableRecord
100
AcDbBlockTableRecord
  2
*D35
340
0
  0
BLOCK_RECORD
  5
19981
330
7466
100
AcDbSymbolTableRecord
100
AcDbBlockTableRecord
  2
*D36
340
0
  0
BLOCK_RECORD
  5
1998D
330
7466
100
AcDbSymbolTableRecord
100
AcDbBlockTableRecord
  2
*D37
340
0
  0
ENDTAB
  0
ENDSEC
  0
SECTION
  2
BLOCKS
  0
BLOCK
  5
7489
330
747D
100
AcDbEntity
  8
0
100
AcDbBlockBegin
  2
*MODEL_SPACE
 70
     0
 10
0.0
 20
0.0
 30
0.0
  3
*MODEL_SPACE
  1

  0
ENDBLK
  5
748A
330
747D
100
AcDbEntity
  8
0
100
AcDbBlockEnd
  0
BLOCK
  5
7487
330
747A
100
AcDbEntity
 67
     1
  8
0
100
AcDbBlockBegin
  2
*PAPER_SPACE
 70
     0
 10
0.0
 20
0.0
 30
0.0
  3
*PAPER_SPACE
  1

  0
ENDBLK
  5
7488
330
747A
100
AcDbEntity
 67
     1
  8
0
100
AcDbBlockEnd
  0
BLOCK
  5
DEAD
330
DEAC
100
AcDbEntity
  8
0
100
AcDbBlockBegin
  2
_OPEN
 70
     0
 10
0.0
 20
0.0
 30
0.0
  3
_OPEN
  1

  0
LINE
  5
DEAE
330
DEAC
100
AcDbEntity
  8
0
  6
ByBlock
 62
     0
100
AcDbLine
 10
-1.0
 20
0.1666666666666666
 30
0.0
 11
0.0
 21
0.0
 31
0.0
  0
LINE
  5
DEAF
330
DEAC
100
AcDbEntity
  8
0
  6
ByBlock
 62
     0
100
AcDbLine
 10
0.0
 20
0.0
 30
0.0
 11
-1.0
 21
-0.1666666666666666
 31
0.0
  0
LINE
  5
DEB0
330
DEAC
100
AcDbEntity
  8
0
  6
ByBlock
 62
     0
100
AcDbLine
 10
0.0
 20
0.0
 30
0.0
 11
-1.0
 21
0.0
 31
0.0
  0
ENDBLK
  5
DEB1
330
DEAC
100
AcDbEntity
  8
0
100
AcDbBlockEnd
  0
BLOCK
  5
F771
330
F770
100
AcDbEntity
  8
0
 48
50.0
100
AcDbBlockBegin
  2
_DOTSMALL
 70
     0
 10
0.0
 20
0.0
 30
0.0
  3
_DOTSMALL
  1

  0
LWPOLYLINE
  5
F772
330
F770
100
AcDbEntity
  8
0
  6
ByBlock
 62
     0
 48
50.0
100
AcDbPolyline
 90
        2
 70
     1
 43
0.5
 10
-0.0625
 20
0.0
 42
1.0
 10
0.0625
 20
0.0
 42
1.0
  0
ENDBLK
  5
F776
330
F770
100
AcDbEntity
  8
0
 48
50.0
100
AcDbBlockEnd
  0
BLOCK
  5
15424
330
1458A
100
AcDbEntity
  8
0
 48
50.0
100
AcDbBlockBegin
  2
*D2
 70
     1
 10
0.0
 20
0.0
 30
0.0
  3
*D2
  1

  0
LINE
  5
19B61
330
1458A
100
AcDbEntity
  8
寸法
 62
     0
 48
50.0
370
    -2
100
AcDbLine
 10
3910.476719621544
 20
9610.806258213168
 30
0.0
 11
3910.476719621544
 21
10086.28460815954
 31
0.0
  0
LINE
  5
19B62
330
1458A
100
AcDbEntity
  8
寸法
 62
     0
 48
50.0
370
    -2
100
AcDbLine
 10
3965.476719621578
 20
9610.806258213168
 30
0.0
 11
3965.476719621578
 21
10086.28460815954
 31
0.0
  0
LINE
  5
19B63
330
1458A
100
AcDbEntity
  8
寸法
 62
     0
 48
50.0
370
    -2
100
AcDbLine
 10
3965.476719621578
 20
10026.28460815954
 30
0.0
 11
4065.476719621577
 21
10026.28460815954
 31
0.0
  0
LINE
  5
19B64
330
1458A
100
AcDbEntity
  8
寸法
 62
     0
 48
50.0
370
    -2
100
AcDbLine
 10
3910.476719621544
 20
10026.28460815954
 30
0.0
 11
3493.506156873066
 21
10026.28460815954
 31
0.0
  0
LINE
  5
19B65
330
1458A
100
AcDbEntity
  8
寸法
 62
     0
 48
50.0
370
    -2
100
AcDbLine
 10
3965.476719621578
 20
10026.28460815954
 30
0.0
 11
3910.476719621544
 21
10026.28460815954
 31
0.0
  0
INSERT
  5
19B66
330
1458A
100
AcDbEntity
  8
寸法
 62
     0
 48
50.0
370
    -2
100
AcDbBlockReference
  2
_DOTSMALL
 10
3965.476719621578
 20
10026.28460815954
 30
0.0
 41
100.0
 42
100.0
 43
100.0
 50
180.0
  0
INSERT
  5
19B67
330
1458A
100
AcDbEntity
  8
寸法
 62
     0
 48
50.0
370
    -2
100
AcDbBlockReference
  2
_DOTSMALL
 10
3910.476719621544
 20
10026.28460815954
 30
0.0
 41
100.0
 42
100.0
 43
100.0
  0
MTEXT
  5
19B68
330
1458A
100
AcDbEntity
  8
寸法
 62
     7
 48
50.0
100
AcDbMText
 10
3601.991438247305
 20
10126.28460815954
 30
0.0
 40
120.0
 41
0.0
 71
     5
 72
     1
  1
\A1;55
  7
STYLE1
 73
     1
 44
1.0
1001
ACAD
1000
MTEXTBEGIN
1070
    73
1070
     1
1070
    44
1040
1.0
1070
    74
1070
     0
1000
MTEXTEND
  0
POINT
  5
19B69
330
1458A
100
AcDbEntity
  8
DEFPOINTS
 62
     0
 48
50.0
100
AcDbPoint
 10
3910.476719621544
 20
9590.806258213168
 30
0.0
  0
POINT
  5
19B6A
330
1458A
100
AcDbEntity
  8
DEFPOINTS
 62
     0
 48
50.0
100
AcDbPoint
 10
3965.476719621578
 20
9590.806258213168
 30
0.0
  0
POINT
  5
19B6B
330
1458A
100
AcDbEntity
  8
DEFPOINTS
 62
     0
 48
50.0
100
AcDbPoint
 10
3965.476719621578
 20
10026.28460815954
 30
0.0
  0
ENDBLK
  5
15430
330
1458A
100
AcDbEntity
  8
0
 48
50.0
100
AcDbBlockEnd
  0
BLOCK
  5
17F05
330
14598
100
AcDbEntity
  8
0
 48
50.0
100
AcDbBlockBegin
  2
*D3
 70
     1
 10
0.0
 20
0.0
 30
0.0
  3
*D3
  1

  0
LINE
  5
19B8D
330
14598
100
AcDbEntity
  8
寸法
 62
     0
 48
50.0
370
    -2
100
AcDbLine
 10
8520.47671962158
 20
9590.806258213296
 30
0.0
 11
9496.134510227321
 21
9590.806258213296
 31
0.0
  0
LINE
  5
19B8E
330
14598
100
AcDbEntity
  8
寸法
 62
     0
 48
50.0
370
    -2
100
AcDbLine
 10
8520.476719621553
 20
6960.806258213286
 30
0.0
 11
9496.134510227321
 21
6960.806258213286
 31
0.0
  0
LINE
  5
19B8F
330
14598
100
AcDbEntity
  8
寸法
 62
     0
 48
50.0
370
    -2
100
AcDbLine
 10
9436.13451022732
 20
9590.806258213296
 30
0.0
 11
9436.13451022732
 21
6960.806258213286
 31
0.0
  0
INSERT
  5
19B90
330
14598
100
AcDbEntity
  8
寸法
 62
     0
 48
50.0
370
    -2
100
AcDbBlockReference
  2
_DOTSMALL
 10
9436.13451022732
 20
9590.806258213296
 30
0.0
 41
100.0
 42
100.0
 43
100.0
 50
90.0
  0
INSERT
  5
19B91
330
14598
100
AcDbEntity
  8
寸法
 62
     0
 48
50.0
370
    -2
100
AcDbBlockReference
  2
_DOTSMALL
 10
9436.13451022732
 20
6960.806258213286
 30
0.0
 41
100.0
 42
100.0
 43
100.0
 50
270.0
  0
MTEXT
  5
19B92
330
14598
100
AcDbEntity
  8
寸法
 62
     7
 48
50.0
100
AcDbMText
 10
9336.122699203697
 20
8274.689558603903
 30
0.0
 40
120.0
 41
0.0
 71
     5
 72
     1
  1
\A1;2630
  7
STYLE1
 11
0.0000000000000001
 21
1.0
 31
0.0
 73
     1
 44
1.0
1001
ACAD
1000
MTEXTBEGIN
1070
    73
1070
     1
1070
    44
1040
1.0
1070
    74
1070
     0
1000
MTEXTEND
  0
POINT
  5
19B93
330
14598
100
AcDbEntity
  8
DEFPOINTS
 62
     0
 48
50.0
100
AcDbPoint
 10
8500.476719621579
 20
9590.806258213296
 30
0.0
  0
POINT
  5
19B94
330
14598
100
AcDbEntity
  8
DEFPOINTS
 62
     0
 48
50.0
100
AcDbPoint
 10
8500.476719621554
 20
6960.806258213286
 30
0.0
  0
POINT
  5
19B95
330
14598
100
AcDbEntity
  8
DEFPOINTS
 62
     0
 48
50.0
100
AcDbPoint
 10
9436.13451022732
 20
6960.806258213286
 30
0.0
  0
ENDBLK
  5
17F0F
330
14598
100
AcDbEntity
  8
0
 48
50.0
100
AcDbBlockEnd
  0
BLOCK
  5
1492F
330
145A4
100
AcDbEntity
  8
0
 48
50.0
100
AcDbBlockBegin
  2
*D4
 70
     1
 10
0.0
 20
0.0
 30
0.0
  3
*D4
  1

  0
LINE
  5
19B4D
330
145A4
100
AcDbEntity
  8
寸法
 62
     0
 48
50.0
370
    -2
100
AcDbLine
 10
8520.47671962158
 20
9590.806258213296
 30
0.0
 11
9207.90306535599
 21
9590.806258213296
 31
0.0
  0
LINE
  5
19B4E
330
145A4
100
AcDbEntity
  8
寸法
 62
     0
 48
50.0
370
    -2
100
AcDbLine
 10
8520.47671962158
 20
9535.806258213298
 30
0.0
 11
9207.90306535599
 21
9535.806258213298
 31
0.0
  0
LINE
  5
19B4F
330
145A4
100
AcDbEntity
  8
寸法
 62
     0
 48
50.0
370
    -2
100
AcDbLine
 10
9147.903065355992
 20
9535.806258213298
 30
0.0
 11
9147.903065355992
 21
9435.806258213299
 31
0.0
  0
LINE
  5
19B50
330
145A4
100
AcDbEntity
  8
寸法
 62
     0
 48
50.0
370
    -2
100
AcDbLine
 10
9147.903065355992
 20
9590.806258213296
 30
0.0
 11
9147.903065355992
 21
10007.77682096177
 31
0.0
  0
LINE
  5
19B51
330
145A4
100
AcDbEntity
  8
寸法
 62
     0
 48
50.0
370
    -2
100
AcDbLine
 10
9147.903065355992
 20
9535.806258213298
 30
0.0
 11
9147.903065355992
 21
9590.806258213296
 31
0.0
  0
INSERT
  5
19B52
330
145A4
100
AcDbEntity
  8
寸法
 62
     0
 48
50.0
370
    -2
100
AcDbBlockReference
  2
_DOTSMALL
 10
9147.903065355992
 20
9535.806258213298
 30
0.0
 41
100.0
 42
100.0
 43
100.0
 50
90.0
  0
INSERT
  5
19B53
330
145A4
100
AcDbEntity
  8
寸法
 62
     0
 48
50.0
370
    -2
100
AcDbBlockReference
  2
_DOTSMALL
 10
9147.903065355992
 20
9590.806258213296
 30
0.0
 41
100.0
 42
100.0
 43
100.0
 50
270.0
  0
MTEXT
  5
19B54
330
145A4
100
AcDbEntity
  8
寸法
 62
     7
 48
50.0
100
AcDbMText
 10
9047.903065355988
 20
9899.291539587537
 30
0.0
 40
120.0
 41
0.0
 71
     5
 72
     1
  1
\A1;55
  7
STYLE1
 11
0.0000000000000001
 21
1.0
 31
0.0
 73
     1
 44
1.0
1001
ACAD
1000
MTEXTBEGIN
1070
    73
1070
     1
1070
    44
1040
1.0
1070
    74
1070
     0
1000
MTEXTEND
  0
POINT
  5
19B55
330
145A4
100
AcDbEntity
  8
DEFPOINTS
 62
     0
 48
50.0
100
AcDbPoint
 10
8500.476719621579
 20
9590.806258213296
 30
0.0
  0
POINT
  5
19B56
330
145A4
100
AcDbEntity
  8
DEFPOINTS
 62
     0
 48
50.0
100
AcDbPoint
 10
8500.476719621579
 20
9535.806258213298
 30
0.0
  0
POINT
  5
19B57
330
145A4
100
AcDbEntity
  8
DEFPOINTS
 62
     0
 48
50.0
100
AcDbPoint
 10
9147.903065355992
 20
9535.806258213298
 30
0.0
  0
ENDBLK
  5
1493B
330
145A4
100
AcDbEntity
  8
0
 48
50.0
100
AcDbBlockEnd
  0
BLOCK
  5
1496A
330
145BE
100
AcDbEntity
  8
0
 48
50.0
100
AcDbBlockBegin
  2
*D5
 70
     1
 10
0.0
 20
0.0
 30
0.0
  3
*D5
  1

  0
LINE
  5
19B42
330
145BE
100
AcDbEntity
  8
寸法
 62
     0
 48
50.0
370
    -2
100
AcDbLine
 10
8520.476719621553
 20
7015.806258213283
 30
0.0
 11
9207.903065355965
 21
7015.806258213283
 31
0.0
  0
LINE
  5
19B43
330
145BE
100
AcDbEntity
  8
寸法
 62
     0
 48
50.0
370
    -2
100
AcDbLine
 10
8520.476719621553
 20
6960.806258213286
 30
0.0
 11
9207.903065355965
 21
6960.806258213286
 31
0.0
  0
LINE
  5
19B44
330
145BE
100
AcDbEntity
  8
寸法
 62
     0
 48
50.0
370
    -2
100
AcDbLine
 10
9147.903065355967
 20
7015.806258213283
 30
0.0
 11
9147.903065355967
 21
7115.806258213282
 31
0.0
  0
LINE
  5
19B45
330
145BE
100
AcDbEntity
  8
寸法
 62
     0
 48
50.0
370
    -2
100
AcDbLine
 10
9147.903065355967
 20
6960.806258213286
 30
0.0
 11
9147.903065355967
 21
6474.459509934185
 31
0.0
  0
LINE
  5
19B46
330
145BE
100
AcDbEntity
  8
寸法
 62
     0
 48
50.0
370
    -2
100
AcDbLine
 10
9147.903065355967
 20
7015.806258213283
 30
0.0
 11
9147.903065355967
 21
6960.806258213286
 31
0.0
  0
INSERT
  5
19B47
330
145BE
100
AcDbEntity
  8
寸法
 62
     0
 48
50.0
370
    -2
100
AcDbBlockReference
  2
_DOTSMALL
 10
9147.903065355967
 20
7015.806258213283
 30
0.0
 41
100.0
 42
100.0
 43
100.0
 50
270.0
  0
INSERT
  5
19B48
330
145BE
100
AcDbEntity
  8
寸法
 62
     0
 48
50.0
370
    -2
100
AcDbBlockReference
  2
_DOTSMALL
 10
9147.903065355967
 20
6960.806258213286
 30
0.0
 41
100.0
 42
100.0
 43
100.0
 50
90.0
  0
MTEXT
  5
19B49
330
145BE
100
AcDbEntity
  8
寸法
 62
     7
 48
50.0
100
AcDbMText
 10
9047.903065355965
 20
6582.944791308425
 30
0.0
 40
120.0
 41
0.0
 71
     5
 72
     1
  1
\A1;55
  7
STYLE1
 11
0.0000000000000001
 21
1.0
 31
0.0
 73
     1
 44
1.0
1001
ACAD
1000
MTEXTBEGIN
1070
    73
1070
     1
1070
    44
1040
1.0
1070
    74
1070
     0
1000
MTEXTEND
  0
POINT
  5
19B4A
330
145BE
100
AcDbEntity
  8
DEFPOINTS
 62
     0
 48
50.0
100
AcDbPoint
 10
8500.476719621554
 20
7015.806258213283
 30
0.0
  0
POINT
  5
19B4B
330
145BE
100
AcDbEntity
  8
DEFPOINTS
 62
     0
 48
50.0
100
AcDbPoint
 10
8500.476719621554
 20
6960.806258213286
 30
0.0
  0
POINT
  5
19B4C
330
145BE
100
AcDbEntity
  8
DEFPOINTS
 62
     0
 48
50.0
100
AcDbPoint
 10
9147.903065355967
 20
6960.806258213286
 30
0.0
  0
ENDBLK
  5
14976
330
145BE
100
AcDbEntity
  8
0
 48
50.0
100
AcDbBlockEnd
  0
BLOCK
  5
17F10
330
145CC
100
AcDbEntity
  8
0
 48
50.0
100
AcDbBlockBegin
  2
*D6
 70
     1
 10
0.0
 20
0.0
 30
0.0
  3
*D6
  1

  0
LINE
  5
19B39
330
145CC
100
AcDbEntity
  8
寸法
 62
     0
 48
50.0
370
    -2
100
AcDbLine
 10
8520.47671962158
 20
9535.806258213298
 30
0.0
 11
9207.90306535599
 21
9535.806258213298
 31
0.0
  0
LINE
  5
19B3A
330
145CC
100
AcDbEntity
  8
寸法
 62
     0
 48
50.0
370
    -2
100
AcDbLine
 10
8520.476719621553
 20
7015.806258213283
 30
0.0
 11
9207.90306535599
 21
7015.806258213283
 31
0.0
  0
LINE
  5
19B3B
330
145CC
100
AcDbEntity
  8
寸法
 62
     0
 48
50.0
370
    -2
100
AcDbLine
 10
9147.903065355992
 20
9535.806258213298
 30
0.0
 11
9147.903065355992
 21
7015.806258213283
 31
0.0
  0
INSERT
  5
19B3C
330
145CC
100
AcDbEntity
  8
寸法
 62
     0
 48
50.0
370
    -2
100
AcDbBlockReference
  2
_DOTSMALL
 10
9147.903065355992
 20
9535.806258213298
 30
0.0
 41
100.0
 42
100.0
 43
100.0
 50
90.0
  0
INSERT
  5
19B3D
330
145CC
100
AcDbEntity
  8
寸法
 62
     0
 48
50.0
370
    -2
100
AcDbBlockReference
  2
_DOTSMALL
 10
9147.903065355992
 20
7015.806258213283
 30
0.0
 41
100.0
 42
100.0
 43
100.0
 50
270.0
  0
MTEXT
  5
19B3E
330
145CC
100
AcDbEntity
  8
寸法
 62
     7
 48
50.0
100
AcDbMText
 10
9047.891254332368
 20
8275.806258213291
 30
0.0
 40
120.0
 41
0.0
 71
     5
 72
     1
  1
\A1;6X420=2520
  7
STYLE1
 11
0.0000000000000001
 21
1.0
 31
0.0
 73
     1
 44
1.0
1001
ACAD
1000
MTEXTBEGIN
1070
    73
1070
     1
1070
    44
1040
1.0
1070
    74
1070
     0
1000
MTEXTEND
  0
POINT
  5
19B3F
330
145CC
100
AcDbEntity
  8
DEFPOINTS
 62
     0
 48
50.0
100
AcDbPoint
 10
8500.476719621579
 20
9535.806258213298
 30
0.0
  0
POINT
  5
19B40
330
145CC
100
AcDbEntity
  8
DEFPOINTS
 62
     0
 48
50.0
100
AcDbPoint
 10
8500.476719621554
 20
7015.806258213283
 30
0.0
  0
POINT
  5
19B41
330
145CC
100
AcDbEntity
  8
DEFPOINTS
 62
     0
 48
50.0
100
AcDbPoint
 10
9147.903065355992
 20
7015.806258213283
 30
0.0
  0
ENDBLK
  5
17F1A
330
145CC
100
AcDbEntity
  8
0
 48
50.0
100
AcDbBlockEnd
  0
BLOCK
  5
17453
330
145D8
100
AcDbEntity
  8
0
 48
50.0
100
AcDbBlockBegin
  2
*D7
 70
     1
 10
0.0
 20
0.0
 30
0.0
  3
*D7
  1

  0
LINE
  5
19B30
330
145D8
100
AcDbEntity
  8
寸法
 62
     0
 48
50.0
370
    -2
100
AcDbLine
 10
6970.476719621571
 20
6940.806258213122
 30
0.0
 11
6970.476719621571
 21
6136.670288859598
 31
0.0
  0
LINE
  5
19B31
330
145D8
100
AcDbEntity
  8
寸法
 62
     0
 48
50.0
370
    -2
100
AcDbLine
 10
8500.476719621554
 20
6940.806258213251
 30
0.0
 11
8500.476719621554
 21
6136.670288859598
 31
0.0
  0
LINE
  5
19B32
330
145D8
100
AcDbEntity
  8
寸法
 62
     0
 48
50.0
370
    -2
100
AcDbLine
 10
6970.476719621571
 20
6196.670288859597
 30
0.0
 11
8500.476719621554
 21
6196.670288859597
 31
0.0
  0
INSERT
  5
19B33
330
145D8
100
AcDbEntity
  8
寸法
 62
     0
 48
50.0
370
    -2
100
AcDbBlockReference
  2
_DOTSMALL
 10
6970.476719621571
 20
6196.670288859597
 30
0.0
 41
100.0
 42
100.0
 43
100.0
 50
180.0
  0
INSERT
  5
19B34
330
145D8
100
AcDbEntity
  8
寸法
 62
     0
 48
50.0
370
    -2
100
AcDbBlockReference
  2
_DOTSMALL
 10
8500.476719621554
 20
6196.670288859597
 30
0.0
 41
100.0
 42
100.0
 43
100.0
  0
MTEXT
  5
19B35
330
145D8
100
AcDbEntity
  8
寸法
 62
     7
 48
50.0
100
AcDbMText
 10
7735.476719621563
 20
6296.670288859598
 30
0.0
 40
120.0
 41
0.0
 71
     5
 72
     1
  1
\A1;1530
  7
STYLE1
 73
     1
 44
1.0
1001
ACAD
1000
MTEXTBEGIN
1070
    73
1070
     1
1070
    44
1040
1.0
1070
    74
1070
     0
1000
MTEXTEND
  0
POINT
  5
19B36
330
145D8
100
AcDbEntity
  8
DEFPOINTS
 62
     0
 48
50.0
100
AcDbPoint
 10
6970.476719621571
 20
6960.806258213122
 30
0.0
  0
POINT
  5
19B37
330
145D8
100
AcDbEntity
  8
DEFPOINTS
 62
     0
 48
50.0
100
AcDbPoint
 10
8500.476719621554
 20
6960.806258213252
 30
0.0
  0
POINT
  5
19B38
330
145D8
100
AcDbEntity
  8
DEFPOINTS
 62
     0
 48
50.0
100
AcDbPoint
 10
8500.476719621554
 20
6196.670288859597
 30
0.0
  0
ENDBLK
  5
1745D
330
145D8
100
AcDbEntity
  8
0
 48
50.0
100
AcDbBlockEnd
  0
BLOCK
  5
15417
330
14608
100
AcDbEntity
  8
0
 48
50.0
100
AcDbBlockBegin
  2
*D8
 70
     1
 10
0.0
 20
0.0
 30
0.0
  3
*D8
  1

  0
LINE
  5
19B25
330
14608
100
AcDbEntity
  8
寸法
 62
     0
 48
50.0
370
    -2
100
AcDbLine
 10
8445.476719621579
 20
9610.806258213296
 30
0.0
 11
8445.476719621579
 21
10086.28460815967
 31
0.0
  0
LINE
  5
19B26
330
14608
100
AcDbEntity
  8
寸法
 62
     0
 48
50.0
370
    -2
100
AcDbLine
 10
8500.476719621579
 20
9610.806258213296
 30
0.0
 11
8500.476719621579
 21
10086.28460815967
 31
0.0
  0
LINE
  5
19B27
330
14608
100
AcDbEntity
  8
寸法
 62
     0
 48
50.0
370
    -2
100
AcDbLine
 10
8445.476719621579
 20
10026.28460815967
 30
0.0
 11
8345.476719621579
 21
10026.28460815967
 31
0.0
  0
LINE
  5
19B28
330
14608
100
AcDbEntity
  8
寸法
 62
     0
 48
50.0
370
    -2
100
AcDbLine
 10
8500.476719621579
 20
10026.28460815967
 30
0.0
 11
8917.447282370057
 21
10026.28460815967
 31
0.0
  0
LINE
  5
19B29
330
14608
100
AcDbEntity
  8
寸法
 62
     0
 48
50.0
370
    -2
100
AcDbLine
 10
8445.476719621579
 20
10026.28460815967
 30
0.0
 11
8500.476719621579
 21
10026.28460815967
 31
0.0
  0
INSERT
  5
19B2A
330
14608
100
AcDbEntity
  8
寸法
 62
     0
 48
50.0
370
    -2
100
AcDbBlockReference
  2
_DOTSMALL
 10
8445.476719621579
 20
10026.28460815967
 30
0.0
 41
100.0
 42
100.0
 43
100.0
  0
INSERT
  5
19B2B
330
14608
100
AcDbEntity
  8
寸法
 62
     0
 48
50.0
370
    -2
100
AcDbBlockReference
  2
_DOTSMALL
 10
8500.476719621579
 20
10026.28460815967
 30
0.0
 41
100.0
 42
100.0
 43
100.0
 50
180.0
  0
MTEXT
  5
19B2C
330
14608
100
AcDbEntity
  8
寸法
 62
     7
 48
50.0
100
AcDbMText
 10
8808.962000995817
 20
10126.28460815967
 30
0.0
 40
120.0
 41
0.0
 71
     5
 72
     1
  1
\A1;55
  7
STYLE1
 73
     1
 44
1.0
1001
ACAD
1000
MTEXTBEGIN
1070
    73
1070
     1
1070
    44
1040
1.0
1070
    74
1070
     0
1000
MTEXTEND
  0
POINT
  5
19B2D
330
14608
100
AcDbEntity
  8
DEFPOINTS
 62
     0
 48
50.0
100
AcDbPoint
 10
8445.476719621579
 20
9590.806258213296
 30
0.0
  0
POINT
  5
19B2E
330
14608
100
AcDbEntity
  8
DEFPOINTS
 62
     0
 48
50.0
100
AcDbPoint
 10
8500.476719621579
 20
9590.806258213296
 30
0.0
  0
POINT
  5
19B2F
330
14608
100
AcDbEntity
  8
DEFPOINTS
 62
     0
 48
50.0
100
AcDbPoint
 10
8500.476719621579
 20
10026.28460815967
 30
0.0
  0
ENDBLK
  5
15423
330
14608
100
AcDbEntity
  8
0
 48
50.0
100
AcDbBlockEnd
  0
BLOCK
  5
15447
330
153FF
100
AcDbEntity
  8
0
 48
50.0
100
AcDbBlockBegin
  2
*D9
 70
     1
 10
0.0
 20
0.0
 30
0.0
  3
*D9
  1

  0
LINE
  5
19B7B
330
153FF
100
AcDbEntity
  8
寸法
 62
     0
 48
50.0
370
    -2
100
AcDbLine
 10
8462.117735772952
 20
9578.306258213316
 30
0.0
 11
8379.963396259412
 21
9884.910427340107
 31
0.0
  0
LINE
  5
19B7C
330
153FF
100
AcDbEntity
  8
寸法
 62
     0
 48
50.0
370
    -2
100
AcDbLine
 10
8012.117735772953
 20
9578.306258213315
 30
0.0
 11
7929.963396259414
 21
9884.910427340107
 31
0.0
  0
LINE
  5
19B7D
330
153FF
100
AcDbEntity
  8
寸法
 62
     0
 48
50.0
370
    -2
100
AcDbLine
 10
8396.04034780528
 20
9824.910427340107
 30
0.0
 11
7946.040347805283
 21
9824.910427340107
 31
0.0
  0
INSERT
  5
19B7E
330
153FF
100
AcDbEntity
  8
寸法
 62
     0
 48
50.0
370
    -2
100
AcDbBlockReference
  2
_DOTSMALL
 10
8396.04034780528
 20
9824.910427340107
 30
0.0
 41
100.0
 42
100.0
 43
100.0
  0
INSERT
  5
19B7F
330
153FF
100
AcDbEntity
  8
寸法
 62
     0
 48
50.0
370
    -2
100
AcDbBlockReference
  2
_DOTSMALL
 10
7946.040347805283
 20
9824.910427340107
 30
0.0
 41
100.0
 42
100.0
 43
100.0
 50
180.0
  0
MTEXT
  5
19B80
330
153FF
100
AcDbEntity
  8
寸法
 62
     7
 48
50.0
100
AcDbMText
 10
8161.521543113304
 20
9924.910427340106
 30
0.0
 40
120.0
 41
0.0
 71
     5
 72
     1
  1
\A1;450
  7
STYLE1
 73
     1
 44
1.0
1001
ACAD
1000
MTEXTBEGIN
1070
    73
1070
     1
1070
    44
1040
1.0
1070
    74
1070
     0
1000
MTEXTEND
  0
POINT
  5
19B81
330
153FF
100
AcDbEntity
  8
DEFPOINTS
 62
     0
 48
50.0
100
AcDbPoint
 10
8467.476719621574
 20
9558.306258213317
 30
0.0
  0
POINT
  5
19B82
330
153FF
100
AcDbEntity
  8
DEFPOINTS
 62
     0
 48
50.0
100
AcDbPoint
 10
8017.476719621576
 20
9558.306258213315
 30
0.0
  0
POINT
  5
19B83
330
153FF
100
AcDbEntity
  8
DEFPOINTS
 62
     0
 48
50.0
100
AcDbPoint
 10
7946.040347805283
 20
9824.910427340107
 30
0.0
  0
ENDBLK
  5
15451
330
153FF
100
AcDbEntity
  8
0
 48
50.0
100
AcDbBlockEnd
  0
BLOCK
  5
1734E
330
15640
100
AcDbEntity
  8
0
 48
50.0
100
AcDbBlockBegin
  2
*D10
 70
     1
 10
0.0
 20
0.0
 30
0.0
  3
*D10
  1

  0
LINE
  5
19B13
330
15640
100
AcDbEntity
  8
寸法
 62
     0
 48
50.0
370
    -2
100
AcDbLine
 10
5440.476719621571
 20
6940.806258213122
 30
0.0
 11
5440.476719621571
 21
6136.670288859598
 31
0.0
  0
LINE
  5
19B14
330
15640
100
AcDbEntity
  8
寸法
 62
     0
 48
50.0
370
    -2
100
AcDbLine
 10
6970.476719621554
 20
6940.806258213251
 30
0.0
 11
6970.476719621554
 21
6136.670288859598
 31
0.0
  0
LINE
  5
19B15
330
15640
100
AcDbEntity
  8
寸法
 62
     0
 48
50.0
370
    -2
100
AcDbLine
 10
5440.476719621571
 20
6196.670288859597
 30
0.0
 11
6970.476719621554
 21
6196.670288859597
 31
0.0
  0
INSERT
  5
19B16
330
15640
100
AcDbEntity
  8
寸法
 62
     0
 48
50.0
370
    -2
100
AcDbBlockReference
  2
_DOTSMALL
 10
5440.476719621571
 20
6196.670288859597
 30
0.0
 41
100.0
 42
100.0
 43
100.0
 50
180.0
  0
INSERT
  5
19B17
330
15640
100
AcDbEntity
  8
寸法
 62
     0
 48
50.0
370
    -2
100
AcDbBlockReference
  2
_DOTSMALL
 10
6970.476719621554
 20
6196.670288859597
 30
0.0
 41
100.0
 42
100.0
 43
100.0
  0
MTEXT
  5
19B18
330
15640
100
AcDbEntity
  8
寸法
 62
     7
 48
50.0
100
AcDbMText
 10
6125.476719621563
 20
6296.670288859598
 30
0.0
 40
120.0
 41
0.0
 71
     5
 72
     1
  1
\A1;1530
  7
STYLE1
 73
     1
 44
1.0
1001
ACAD
1000
MTEXTBEGIN
1070
    73
1070
     1
1070
    44
1040
1.0
1070
    74
1070
     0
1000
MTEXTEND
  0
POINT
  5
19B19
330
15640
100
AcDbEntity
  8
DEFPOINTS
 62
     0
 48
50.0
100
AcDbPoint
 10
5440.476719621571
 20
6960.806258213122
 30
0.0
  0
POINT
  5
19B1A
330
15640
100
AcDbEntity
  8
DEFPOINTS
 62
     0
 48
50.0
100
AcDbPoint
 10
6970.476719621554
 20
6960.806258213252
 30
0.0
  0
POINT
  5
19B1B
330
15640
100
AcDbEntity
  8
DEFPOINTS
 62
     0
 48
50.0
100
AcDbPoint
 10
6970.476719621554
 20
6196.670288859597
 30
0.0
  0
ENDBLK
  5
17358
330
15640
100
AcDbEntity
  8
0
 48
50.0
100
AcDbBlockEnd
  0
BLOCK
  5
1571C
330
1571B
100
AcDbEntity
  8
0
 48
50.0
100
AcDbBlockBegin
  2
*D11
 70
     1
 10
0.0
 20
0.0
 30
0.0
  3
*D11
  1

  0
LINE
  5
19B0A
330
1571B
100
AcDbEntity
  8
寸法
 62
     0
 48
50.0
370
    -2
100
AcDbLine
 10
7025.476719621578
 20
9610.806258213168
 30
0.0
 11
7025.476719621578
 21
10086.28460815969
 31
0.0
  0
LINE
  5
19B0B
330
1571B
100
AcDbEntity
  8
寸法
 62
     0
 48
50.0
370
    -2
100
AcDbLine
 10
6915.476719621579
 20
9610.806258213168
 30
0.0
 11
6915.476719621579
 21
10086.28460815969
 31
0.0
  0
LINE
  5
19B0C
330
1571B
100
AcDbEntity
  8
寸法
 62
     0
 48
50.0
370
    -2
100
AcDbLine
 10
7025.476719621578
 20
10026.28460815969
 30
0.0
 11
6915.476719621579
 21
10026.28460815969
 31
0.0
  0
INSERT
  5
19B0D
330
1571B
100
AcDbEntity
  8
寸法
 62
     0
 48
50.0
370
    -2
100
AcDbBlockReference
  2
_DOTSMALL
 10
7025.476719621578
 20
10026.28460815969
 30
0.0
 41
100.0
 42
100.0
 43
100.0
  0
INSERT
  5
19B0E
330
1571B
100
AcDbEntity
  8
寸法
 62
     0
 48
50.0
370
    -2
100
AcDbBlockReference
  2
_DOTSMALL
 10
6915.476719621579
 20
10026.28460815969
 30
0.0
 41
100.0
 42
100.0
 43
100.0
 50
180.0
  0
MTEXT
  5
19B0F
330
1571B
100
AcDbEntity
  8
寸法
 62
     7
 48
50.0
100
AcDbMText
 10
6970.476719621578
 20
10126.28460815969
 30
0.0
 40
120.0
 41
0.0
 71
     5
 72
     1
  1
\A1;110
  7
STYLE1
 73
     1
 44
1.0
1001
ACAD
1000
MTEXTBEGIN
1070
    73
1070
     1
1070
    44
1040
1.0
1070
    74
1070
     0
1000
MTEXTEND
  0
POINT
  5
19B10
330
1571B
100
AcDbEntity
  8
DEFPOINTS
 62
     0
 48
50.0
100
AcDbPoint
 10
7025.476719621578
 20
9590.806258213168
 30
0.0
  0
POINT
  5
19B11
330
1571B
100
AcDbEntity
  8
DEFPOINTS
 62
     0
 48
50.0
100
AcDbPoint
 10
6915.476719621579
 20
9590.806258213168
 30
0.0
  0
POINT
  5
19B12
330
1571B
100
AcDbEntity
  8
DEFPOINTS
 62
     0
 48
50.0
100
AcDbPoint
 10
6915.476719621579
 20
10026.28460815969
 30
0.0
  0
ENDBLK
  5
15726
330
1571B
100
AcDbEntity
  8
0
 48
50.0
100
AcDbBlockEnd
  0
BLOCK
  5
15741
330
15728
100
AcDbEntity
  8
0
 48
50.0
100
AcDbBlockBegin
  2
*D12
 70
     1
 10
0.0
 20
0.0
 30
0.0
  3
*D12
  1

  0
LINE
  5
19B01
330
15728
100
AcDbEntity
  8
寸法
 62
     0
 48
50.0
370
    -2
100
AcDbLine
 10
5495.476719621578
 20
9610.806258213212
 30
0.0
 11
5495.476719621578
 21
10086.28460815969
 31
0.0
  0
LINE
  5
19B02
330
15728
100
AcDbEntity
  8
寸法
 62
     0
 48
50.0
370
    -2
100
AcDbLine
 10
5385.476719621578
 20
9610.806258213296
 30
0.0
 11
5385.476719621578
 21
10086.28460815969
 31
0.0
  0
LINE
  5
19B03
330
15728
100
AcDbEntity
  8
寸法
 62
     0
 48
50.0
370
    -2
100
AcDbLine
 10
5495.476719621578
 20
10026.28460815969
 30
0.0
 11
5385.476719621578
 21
10026.28460815969
 31
0.0
  0
INSERT
  5
19B04
330
15728
100
AcDbEntity
  8
寸法
 62
     0
 48
50.0
370
    -2
100
AcDbBlockReference
  2
_DOTSMALL
 10
5495.476719621578
 20
10026.28460815969
 30
0.0
 41
100.0
 42
100.0
 43
100.0
  0
INSERT
  5
19B05
330
15728
100
AcDbEntity
  8
寸法
 62
     0
 48
50.0
370
    -2
100
AcDbBlockReference
  2
_DOTSMALL
 10
5385.476719621578
 20
10026.28460815969
 30
0.0
 41
100.0
 42
100.0
 43
100.0
 50
180.0
  0
MTEXT
  5
19B06
330
15728
100
AcDbEntity
  8
寸法
 62
     7
 48
50.0
100
AcDbMText
 10
5440.476719621578
 20
10126.28460815969
 30
0.0
 40
120.0
 41
0.0
 71
     5
 72
     1
  1
\A1;110
  7
STYLE1
 73
     1
 44
1.0
1001
ACAD
1000
MTEXTBEGIN
1070
    73
1070
     1
1070
    44
1040
1.0
1070
    74
1070
     0
1000
MTEXTEND
  0
POINT
  5
19B07
330
15728
100
AcDbEntity
  8
DEFPOINTS
 62
     0
 48
50.0
100
AcDbPoint
 10
5495.476719621578
 20
9590.806258213211
 30
0.0
  0
POINT
  5
19B08
330
15728
100
AcDbEntity
  8
DEFPOINTS
 62
     0
 48
50.0
100
AcDbPoint
 10
5385.476719621578
 20
9590.806258213296
 30
0.0
  0
POINT
  5
19B09
330
15728
100
AcDbEntity
  8
DEFPOINTS
 62
     0
 48
50.0
100
AcDbPoint
 10
5385.476719621578
 20
10026.28460815969
 30
0.0
  0
ENDBLK
  5
1574B
330
15728
100
AcDbEntity
  8
0
 48
50.0
100
AcDbBlockEnd
  0
BLOCK
  5
16AD3
330
1603D
100
AcDbEntity
  8
0
 48
50.0
100
AcDbBlockBegin
  2
*D13
 70
     1
 10
0.0
 20
0.0
 30
0.0
  3
*D13
  1

  0
LINE
  5
19AF8
330
1603D
100
AcDbEntity
  8
寸法
 62
     0
 48
50.0
370
    -2
100
AcDbLine
 10
8487.476719621581
 20
9556.697274364724
 30
0.0
 11
8942.659927022278
 21
9434.731301533499
 31
0.0
  0
LINE
  5
19AF9
330
1603D
100
AcDbEntity
  8
寸法
 62
     0
 48
50.0
370
    -2
100
AcDbLine
 10
8487.476719621792
 20
8283.697274364721
 30
0.0
 11
8942.659927022278
 21
8161.731301533551
 31
0.0
  0
LINE
  5
19AFA
330
1603D
100
AcDbEntity
  8
寸法
 62
     0
 48
50.0
370
    -2
100
AcDbLine
 10
8882.659927022279
 20
9450.808253079365
 30
0.0
 11
8882.659927022279
 21
8177.808253079417
 31
0.0
  0
INSERT
  5
19AFB
330
1603D
100
AcDbEntity
  8
寸法
 62
     0
 48
50.0
370
    -2
100
AcDbBlockReference
  2
_DOTSMALL
 10
8882.659927022279
 20
9450.808253079365
 30
0.0
 41
100.0
 42
100.0
 43
100.0
 50
90.0
  0
INSERT
  5
19AFC
330
1603D
100
AcDbEntity
  8
寸法
 62
     0
 48
50.0
370
    -2
100
AcDbBlockReference
  2
_DOTSMALL
 10
8882.659927022279
 20
8177.808253079417
 30
0.0
 41
100.0
 42
100.0
 43
100.0
 50
270.0
  0
MTEXT
  5
19AFD
330
1603D
100
AcDbEntity
  8
寸法
 62
     7
 48
50.0
100
AcDbMText
 10
8782.648115998654
 20
8814.30825307939
 30
0.0
 40
120.0
 41
0.0
 71
     5
 72
     1
  1
\A1;1273
  7
STYLE1
 11
0.0000000000000001
 21
1.0
 31
0.0
 73
     1
 44
1.0
1001
ACAD
1000
MTEXTBEGIN
1070
    73
1070
     1
1070
    44
1040
1.0
1070
    74
1070
     0
1000
MTEXTEND
  0
POINT
  5
19AFE
330
1603D
100
AcDbEntity
  8
DEFPOINTS
 62
     0
 48
50.0
100
AcDbPoint
 10
8467.476719621579
 20
9562.056258213345
 30
0.0
  0
POINT
  5
19AFF
330
1603D
100
AcDbEntity
  8
DEFPOINTS
 62
     0
 48
50.0
100
AcDbPoint
 10
8467.476719621791
 20
8289.056258213342
 30
0.0
  0
POINT
  5
19B00
330
1603D
100
AcDbEntity
  8
DEFPOINTS
 62
     0
 48
50.0
100
AcDbPoint
 10
8882.659927022279
 20
8177.808253079417
 30
0.0
  0
ENDBLK
  5
16ADD
330
1603D
100
AcDbEntity
  8
0
 48
50.0
100
AcDbBlockEnd
  0
BLOCK
  5
17EEF
330
16049
100
AcDbEntity
  8
0
 48
50.0
100
AcDbBlockBegin
  2
*D14
 70
     1
 10
0.0
 20
0.0
 30
0.0
  3
*D14
  1

  0
LINE
  5
19AEF
330
16049
100
AcDbEntity
  8
寸法
 62
     0
 48
50.0
370
    -2
100
AcDbLine
 10
8487.476719621575
 20
8248.947274364713
 30
0.0
 11
8942.659927022278
 21
8126.981301533486
 31
0.0
  0
LINE
  5
19AF0
330
16049
100
AcDbEntity
  8
寸法
 62
     0
 48
50.0
370
    -2
100
AcDbLine
 10
8487.476719621792
 20
7032.947274364708
 30
0.0
 11
8942.659927022278
 21
6910.981301533539
 31
0.0
  0
LINE
  5
19AF1
330
16049
100
AcDbEntity
  8
寸法
 62
     0
 48
50.0
370
    -2
100
AcDbLine
 10
8882.659927022279
 20
8143.058253079354
 30
0.0
 11
8882.659927022279
 21
6927.058253079407
 31
0.0
  0
INSERT
  5
19AF2
330
16049
100
AcDbEntity
  8
寸法
 62
     0
 48
50.0
370
    -2
100
AcDbBlockReference
  2
_DOTSMALL
 10
8882.659927022279
 20
8143.058253079354
 30
0.0
 41
100.0
 42
100.0
 43
100.0
 50
90.0
  0
INSERT
  5
19AF3
330
16049
100
AcDbEntity
  8
寸法
 62
     0
 48
50.0
370
    -2
100
AcDbBlockReference
  2
_DOTSMALL
 10
8882.659927022279
 20
6927.058253079407
 30
0.0
 41
100.0
 42
100.0
 43
100.0
 50
270.0
  0
MTEXT
  5
19AF4
330
16049
100
AcDbEntity
  8
寸法
 62
     7
 48
50.0
100
AcDbMText
 10
8782.648115998654
 20
7535.05825307938
 30
0.0
 40
120.0
 41
0.0
 71
     5
 72
     1
  1
\A1;1216
  7
STYLE1
 11
0.0000000000000001
 21
1.0
 31
0.0
 73
     1
 44
1.0
1001
ACAD
1000
MTEXTBEGIN
1070
    73
1070
     1
1070
    44
1040
1.0
1070
    74
1070
     0
1000
MTEXTEND
  0
POINT
  5
19AF5
330
16049
100
AcDbEntity
  8
DEFPOINTS
 62
     0
 48
50.0
100
AcDbPoint
 10
8467.476719621577
 20
8254.306258213336
 30
0.0
  0
POINT
  5
19AF6
330
16049
100
AcDbEntity
  8
DEFPOINTS
 62
     0
 48
50.0
100
AcDbPoint
 10
8467.476719621791
 20
7038.306258213332
 30
0.0
  0
POINT
  5
19AF7
330
16049
100
AcDbEntity
  8
DEFPOINTS
 62
     0
 48
50.0
100
AcDbPoint
 10
8882.659927022279
 20
6927.058253079407
 30
0.0
  0
ENDBLK
  5
17EF9
330
16049
100
AcDbEntity
  8
0
 48
50.0
100
AcDbBlockEnd
  0
BLOCK
  5
17388
330
1737A
100
AcDbEntity
  8
0
 48
50.0
100
AcDbBlockBegin
  2
*D15
 70
     1
 10
0.0
 20
0.0
 30
0.0
  3
*D15
  1

  0
LINE
  5
19AE6
330
1737A
100
AcDbEntity
  8
寸法
 62
     0
 48
50.0
370
    -2
100
AcDbLine
 10
6915.476719621579
 20
9610.806258213168
 30
0.0
 11
6915.476719621579
 21
10086.28460815969
 31
0.0
  0
LINE
  5
19AE7
330
1737A
100
AcDbEntity
  8
寸法
 62
     0
 48
50.0
370
    -2
100
AcDbLine
 10
6495.476719621578
 20
9610.806258213244
 30
0.0
 11
6495.476719621578
 21
10086.28460815969
 31
0.0
  0
LINE
  5
19AE8
330
1737A
100
AcDbEntity
  8
寸法
 62
     0
 48
50.0
370
    -2
100
AcDbLine
 10
6915.476719621579
 20
10026.28460815969
 30
0.0
 11
6495.476719621578
 21
10026.28460815969
 31
0.0
  0
INSERT
  5
19AE9
330
1737A
100
AcDbEntity
  8
寸法
 62
     0
 48
50.0
370
    -2
100
AcDbBlockReference
  2
_DOTSMALL
 10
6915.476719621579
 20
10026.28460815969
 30
0.0
 41
100.0
 42
100.0
 43
100.0
  0
INSERT
  5
19AEA
330
1737A
100
AcDbEntity
  8
寸法
 62
     0
 48
50.0
370
    -2
100
AcDbBlockReference
  2
_DOTSMALL
 10
6495.476719621578
 20
10026.28460815969
 30
0.0
 41
100.0
 42
100.0
 43
100.0
 50
180.0
  0
MTEXT
  5
19AEB
330
1737A
100
AcDbEntity
  8
寸法
 62
     7
 48
50.0
100
AcDbMText
 10
6667.162200367369
 20
10126.29641918331
 30
0.0
 40
120.0
 41
0.0
 71
     5
 72
     1
  1
\A1;420
  7
STYLE1
 73
     1
 44
1.0
1001
ACAD
1000
MTEXTBEGIN
1070
    73
1070
     1
1070
    44
1040
1.0
1070
    74
1070
     0
1000
MTEXTEND
  0
POINT
  5
19AEC
330
1737A
100
AcDbEntity
  8
DEFPOINTS
 62
     0
 48
50.0
100
AcDbPoint
 10
6915.476719621579
 20
9590.806258213168
 30
0.0
  0
POINT
  5
19AED
330
1737A
100
AcDbEntity
  8
DEFPOINTS
 62
     0
 48
50.0
100
AcDbPoint
 10
6495.476719621578
 20
9590.806258213243
 30
0.0
  0
POINT
  5
19AEE
330
1737A
100
AcDbEntity
  8
DEFPOINTS
 62
     0
 48
50.0
100
AcDbPoint
 10
6495.476719621578
 20
10026.28460815969
 30
0.0
  0
ENDBLK
  5
17392
330
1737A
100
AcDbEntity
  8
0
 48
50.0
100
AcDbBlockEnd
  0
BLOCK
  5
17394
330
17393
100
AcDbEntity
  8
0
 48
50.0
100
AcDbBlockBegin
  2
*D16
 70
     1
 10
0.0
 20
0.0
 30
0.0
  3
*D16
  1

  0
LINE
  5
19ADE
330
17393
100
AcDbEntity
  8
寸法
 62
     0
 48
50.0
370
    -2
100
AcDbLine
 10
5915.47671962158
 20
9610.806258213226
 30
0.0
 11
5915.47671962158
 21
10086.28460815969
 31
0.0
  0
LINE
  5
19ADF
330
17393
100
AcDbEntity
  8
寸法
 62
     0
 48
50.0
370
    -2
100
AcDbLine
 10
6495.476719621578
 20
10026.28460815969
 30
0.0
 11
5915.47671962158
 21
10026.28460815969
 31
0.0
  0
INSERT
  5
19AE0
330
17393
100
AcDbEntity
  8
寸法
 62
     0
 48
50.0
370
    -2
100
AcDbBlockReference
  2
_DOTSMALL
 10
6495.476719621578
 20
10026.28460815969
 30
0.0
 41
100.0
 42
100.0
 43
100.0
  0
INSERT
  5
19AE1
330
17393
100
AcDbEntity
  8
寸法
 62
     0
 48
50.0
370
    -2
100
AcDbBlockReference
  2
_DOTSMALL
 10
5915.47671962158
 20
10026.28460815969
 30
0.0
 41
100.0
 42
100.0
 43
100.0
 50
180.0
  0
MTEXT
  5
19AE2
330
17393
100
AcDbEntity
  8
寸法
 62
     7
 48
50.0
100
AcDbMText
 10
6205.476719621579
 20
10126.28460815969
 30
0.0
 40
120.0
 41
0.0
 71
     5
 72
     1
  1
\A1;580
  7
STYLE1
 73
     1
 44
1.0
1001
ACAD
1000
MTEXTBEGIN
1070
    73
1070
     1
1070
    44
1040
1.0
1070
    74
1070
     0
1000
MTEXTEND
  0
POINT
  5
19AE3
330
17393
100
AcDbEntity
  8
DEFPOINTS
 62
     0
 48
50.0
100
AcDbPoint
 10
6495.476719621578
 20
9590.806258213243
 30
0.0
  0
POINT
  5
19AE4
330
17393
100
AcDbEntity
  8
DEFPOINTS
 62
     0
 48
50.0
100
AcDbPoint
 10
5915.47671962158
 20
9590.806258213225
 30
0.0
  0
POINT
  5
19AE5
330
17393
100
AcDbEntity
  8
DEFPOINTS
 62
     0
 48
50.0
100
AcDbPoint
 10
5915.47671962158
 20
10026.28460815969
 30
0.0
  0
ENDBLK
  5
1739D
330
17393
100
AcDbEntity
  8
0
 48
50.0
100
AcDbBlockEnd
  0
BLOCK
  5
173A0
330
1739F
100
AcDbEntity
  8
0
 48
50.0
100
AcDbBlockBegin
  2
*D17
 70
     1
 10
0.0
 20
0.0
 30
0.0
  3
*D17
  1

  0
LINE
  5
19AD6
330
1739F
100
AcDbEntity
  8
寸法
 62
     0
 48
50.0
370
    -2
100
AcDbLine
 10
5495.476719621578
 20
9610.806258213202
 30
0.0
 11
5495.476719621578
 21
10086.28460815969
 31
0.0
  0
LINE
  5
19AD7
330
1739F
100
AcDbEntity
  8
寸法
 62
     0
 48
50.0
370
    -2
100
AcDbLine
 10
5915.47671962158
 20
10026.28460815969
 30
0.0
 11
5495.476719621578
 21
10026.28460815969
 31
0.0
  0
INSERT
  5
19AD8
330
1739F
100
AcDbEntity
  8
寸法
 62
     0
 48
50.0
370
    -2
100
AcDbBlockReference
  2
_DOTSMALL
 10
5915.47671962158
 20
10026.28460815969
 30
0.0
 41
100.0
 42
100.0
 43
100.0
  0
INSERT
  5
19AD9
330
1739F
100
AcDbEntity
  8
寸法
 62
     0
 48
50.0
370
    -2
100
AcDbBlockReference
  2
_DOTSMALL
 10
5495.476719621578
 20
10026.28460815969
 30
0.0
 41
100.0
 42
100.0
 43
100.0
 50
180.0
  0
MTEXT
  5
19ADA
330
1739F
100
AcDbEntity
  8
寸法
 62
     7
 48
50.0
100
AcDbMText
 10
5705.476719621578
 20
10126.29641918331
 30
0.0
 40
120.0
 41
0.0
 71
     5
 72
     1
  1
\A1;420
  7
STYLE1
 73
     1
 44
1.0
1001
ACAD
1000
MTEXTBEGIN
1070
    73
1070
     1
1070
    44
1040
1.0
1070
    74
1070
     0
1000
MTEXTEND
  0
POINT
  5
19ADB
330
1739F
100
AcDbEntity
  8
DEFPOINTS
 62
     0
 48
50.0
100
AcDbPoint
 10
5915.47671962158
 20
9590.806258213225
 30
0.0
  0
POINT
  5
19ADC
330
1739F
100
AcDbEntity
  8
DEFPOINTS
 62
     0
 48
50.0
100
AcDbPoint
 10
5495.476719621578
 20
9590.8062582132
 30
0.0
  0
POINT
  5
19ADD
330
1739F
100
AcDbEntity
  8
DEFPOINTS
 62
     0
 48
50.0
100
AcDbPoint
 10
5495.476719621578
 20
10026.28460815969
 30
0.0
  0
ENDBLK
  5
173A9
330
1739F
100
AcDbEntity
  8
0
 48
50.0
100
AcDbBlockEnd
  0
BLOCK
  5
173AF
330
173AE
100
AcDbEntity
  8
0
 48
50.0
100
AcDbBlockBegin
  2
*D18
 70
     1
 10
0.0
 20
0.0
 30
0.0
  3
*D18
  1

  0
LINE
  5
19ABD
330
173AE
100
AcDbEntity
  8
寸法
 62
     0
 48
50.0
370
    -2
100
AcDbLine
 10
8445.476719621579
 20
9610.806258213168
 30
0.0
 11
8445.476719621579
 21
10086.28460815969
 31
0.0
  0
LINE
  5
19ABE
330
173AE
100
AcDbEntity
  8
寸法
 62
     0
 48
50.0
370
    -2
100
AcDbLine
 10
8025.476719621579
 20
9610.806258213244
 30
0.0
 11
8025.476719621579
 21
10086.28460815969
 31
0.0
  0
LINE
  5
19ABF
330
173AE
100
AcDbEntity
  8
寸法
 62
     0
 48
50.0
370
    -2
100
AcDbLine
 10
8445.476719621579
 20
10026.28460815969
 30
0.0
 11
8025.476719621579
 21
10026.28460815969
 31
0.0
  0
INSERT
  5
19AC0
330
173AE
100
AcDbEntity
  8
寸法
 62
     0
 48
50.0
370
    -2
100
AcDbBlockReference
  2
_DOTSMALL
 10
8445.476719621579
 20
10026.28460815969
 30
0.0
 41
100.0
 42
100.0
 43
100.0
  0
INSERT
  5
19AC1
330
173AE
100
AcDbEntity
  8
寸法
 62
     0
 48
50.0
370
    -2
100
AcDbBlockReference
  2
_DOTSMALL
 10
8025.476719621579
 20
10026.28460815969
 30
0.0
 41
100.0
 42
100.0
 43
100.0
 50
180.0
  0
MTEXT
  5
19AC2
330
173AE
100
AcDbEntity
  8
寸法
 62
     7
 48
50.0
100
AcDbMText
 10
8197.162200367369
 20
10126.29641918331
 30
0.0
 40
120.0
 41
0.0
 71
     5
 72
     1
  1
\A1;420
  7
STYLE1
 73
     1
 44
1.0
1001
ACAD
1000
MTEXTBEGIN
1070
    73
1070
     1
1070
    44
1040
1.0
1070
    74
1070
     0
1000
MTEXTEND
  0
POINT
  5
19AC3
330
173AE
100
AcDbEntity
  8
DEFPOINTS
 62
     0
 48
50.0
100
AcDbPoint
 10
8445.476719621579
 20
9590.806258213168
 30
0.0
  0
POINT
  5
19AC4
330
173AE
100
AcDbEntity
  8
DEFPOINTS
 62
     0
 48
50.0
100
AcDbPoint
 10
8025.476719621579
 20
9590.806258213243
 30
0.0
  0
POINT
  5
19AC5
330
173AE
100
AcDbEntity
  8
DEFPOINTS
 62
     0
 48
50.0
100
AcDbPoint
 10
8025.476719621579
 20
10026.28460815969
 30
0.0
  0
ENDBLK
  5
173B9
330
173AE
100
AcDbEntity
  8
0
 48
50.0
100
AcDbBlockEnd
  0
BLOCK
  5
173BB
330
173BA
100
AcDbEntity
  8
0
 48
50.0
100
AcDbBlockBegin
  2
*D19
 70
     1
 10
0.0
 20
0.0
 30
0.0
  3
*D19
  1

  0
LINE
  5
19AC6
330
173BA
100
AcDbEntity
  8
寸法
 62
     0
 48
50.0
370
    -2
100
AcDbLine
 10
7445.47671962158
 20
9610.806258213226
 30
0.0
 11
7445.47671962158
 21
10086.28460815969
 31
0.0
  0
LINE
  5
19AC7
330
173BA
100
AcDbEntity
  8
寸法
 62
     0
 48
50.0
370
    -2
100
AcDbLine
 10
8025.476719621579
 20
10026.28460815969
 30
0.0
 11
7445.47671962158
 21
10026.28460815969
 31
0.0
  0
INSERT
  5
19AC8
330
173BA
100
AcDbEntity
  8
寸法
 62
     0
 48
50.0
370
    -2
100
AcDbBlockReference
  2
_DOTSMALL
 10
8025.476719621579
 20
10026.28460815969
 30
0.0
 41
100.0
 42
100.0
 43
100.0
  0
INSERT
  5
19AC9
330
173BA
100
AcDbEntity
  8
寸法
 62
     0
 48
50.0
370
    -2
100
AcDbBlockReference
  2
_DOTSMALL
 10
7445.47671962158
 20
10026.28460815969
 30
0.0
 41
100.0
 42
100.0
 43
100.0
 50
180.0
  0
MTEXT
  5
19ACA
330
173BA
100
AcDbEntity
  8
寸法
 62
     7
 48
50.0
100
AcDbMText
 10
7735.476719621579
 20
10126.28460815969
 30
0.0
 40
120.0
 41
0.0
 71
     5
 72
     1
  1
\A1;580
  7
STYLE1
 73
     1
 44
1.0
1001
ACAD
1000
MTEXTBEGIN
1070
    73
1070
     1
1070
    44
1040
1.0
1070
    74
1070
     0
1000
MTEXTEND
  0
POINT
  5
19ACB
330
173BA
100
AcDbEntity
  8
DEFPOINTS
 62
     0
 48
50.0
100
AcDbPoint
 10
8025.476719621579
 20
9590.806258213243
 30
0.0
  0
POINT
  5
19ACC
330
173BA
100
AcDbEntity
  8
DEFPOINTS
 62
     0
 48
50.0
100
AcDbPoint
 10
7445.47671962158
 20
9590.806258213225
 30
0.0
  0
POINT
  5
19ACD
330
173BA
100
AcDbEntity
  8
DEFPOINTS
 62
     0
 48
50.0
100
AcDbPoint
 10
7445.47671962158
 20
10026.28460815969
 30
0.0
  0
ENDBLK
  5
173C4
330
173BA
100
AcDbEntity
  8
0
 48
50.0
100
AcDbBlockEnd
  0
BLOCK
  5
173C6
330
173C5
100
AcDbEntity
  8
0
 48
50.0
100
AcDbBlockBegin
  2
*D20
 70
     1
 10
0.0
 20
0.0
 30
0.0
  3
*D20
  1

  0
LINE
  5
19ACE
330
173C5
100
AcDbEntity
  8
寸法
 62
     0
 48
50.0
370
    -2
100
AcDbLine
 10
7025.476719621578
 20
9610.806258213202
 30
0.0
 11
7025.476719621578
 21
10086.28460815969
 31
0.0
  0
LINE
  5
19ACF
330
173C5
100
AcDbEntity
  8
寸法
 62
     0
 48
50.0
370
    -2
100
AcDbLine
 10
7445.47671962158
 20
10026.28460815969
 30
0.0
 11
7025.476719621578
 21
10026.28460815969
 31
0.0
  0
INSERT
  5
19AD0
330
173C5
100
AcDbEntity
  8
寸法
 62
     0
 48
50.0
370
    -2
100
AcDbBlockReference
  2
_DOTSMALL
 10
7445.47671962158
 20
10026.28460815969
 30
0.0
 41
100.0
 42
100.0
 43
100.0
  0
INSERT
  5
19AD1
330
173C5
100
AcDbEntity
  8
寸法
 62
     0
 48
50.0
370
    -2
100
AcDbBlockReference
  2
_DOTSMALL
 10
7025.476719621578
 20
10026.28460815969
 30
0.0
 41
100.0
 42
100.0
 43
100.0
 50
180.0
  0
MTEXT
  5
19AD2
330
173C5
100
AcDbEntity
  8
寸法
 62
     7
 48
50.0
100
AcDbMText
 10
7235.476719621577
 20
10126.29641918331
 30
0.0
 40
120.0
 41
0.0
 71
     5
 72
     1
  1
\A1;420
  7
STYLE1
 73
     1
 44
1.0
1001
ACAD
1000
MTEXTBEGIN
1070
    73
1070
     1
1070
    44
1040
1.0
1070
    74
1070
     0
1000
MTEXTEND
  0
POINT
  5
19AD3
330
173C5
100
AcDbEntity
  8
DEFPOINTS
 62
     0
 48
50.0
100
AcDbPoint
 10
7445.47671962158
 20
9590.806258213225
 30
0.0
  0
POINT
  5
19AD4
330
173C5
100
AcDbEntity
  8
DEFPOINTS
 62
     0
 48
50.0
100
AcDbPoint
 10
7025.476719621578
 20
9590.8062582132
 30
0.0
  0
POINT
  5
19AD5
330
173C5
100
AcDbEntity
  8
DEFPOINTS
 62
     0
 48
50.0
100
AcDbPoint
 10
7025.476719621578
 20
10026.28460815969
 30
0.0
  0
ENDBLK
  5
173CF
330
173C5
100
AcDbEntity
  8
0
 48
50.0
100
AcDbBlockEnd
  0
BLOCK
  5
18B6F
330
18B65
100
AcDbEntity
  8
0
 48
50.0
100
AcDbBlockBegin
  2
*D21
 70
     1
 10
0.0
 20
0.0
 30
0.0
  3
*D21
  1

  0
LINE
  5
19A99
330
18B65
100
AcDbEntity
  8
寸法
 62
     0
 48
50.0
370
    -2
100
AcDbLine
 10
8500.476719621584
 20
4552.991108379628
 30
0.0
 11
8500.476719621584
 21
4805.532693637871
 31
0.0
  0
LINE
  5
19A9A
330
18B65
100
AcDbEntity
  8
寸法
 62
     0
 48
50.0
370
    -2
100
AcDbLine
 10
3910.47671962158
 20
4552.991108379634
 30
0.0
 11
3910.47671962158
 21
4805.532693637871
 31
0.0
  0
LINE
  5
19A9B
330
18B65
100
AcDbEntity
  8
寸法
 62
     0
 48
50.0
370
    -2
100
AcDbLine
 10
8500.476719621584
 20
4745.532693637872
 30
0.0
 11
3910.47671962158
 21
4745.532693637872
 31
0.0
  0
INSERT
  5
19A9C
330
18B65
100
AcDbEntity
  8
寸法
 62
     0
 48
50.0
370
    -2
100
AcDbBlockReference
  2
_DOTSMALL
 10
8500.476719621584
 20
4745.532693637872
 30
0.0
 41
100.0
 42
100.0
 43
100.0
  0
INSERT
  5
19A9D
330
18B65
100
AcDbEntity
  8
寸法
 62
     0
 48
50.0
370
    -2
100
AcDbBlockReference
  2
_DOTSMALL
 10
3910.47671962158
 20
4745.532693637872
 30
0.0
 41
100.0
 42
100.0
 43
100.0
 50
180.0
  0
MTEXT
  5
19A9E
330
18B65
100
AcDbEntity
  8
寸法
 62
     7
 48
50.0
100
AcDbMText
 10
6157.616927541845
 20
4845.532693637871
 30
0.0
 40
120.0
 41
0.0
 71
     5
 72
     1
  1
\A1;柱外寸法 N x 1530
  7
STYLE1
 73
     1
 44
1.0
1001
ACAD
1000
MTEXTBEGIN
1070
    73
1070
     1
1070
    44
1040
1.0
1070
    74
1070
     0
1000
MTEXTEND
  0
POINT
  5
19A9F
330
18B65
100
AcDbEntity
  8
DEFPOINTS
 62
     0
 48
50.0
100
AcDbPoint
 10
8500.476719621584
 20
4532.991108379628
 30
0.0
  0
POINT
  5
19AA0
330
18B65
100
AcDbEntity
  8
DEFPOINTS
 62
     0
 48
50.0
100
AcDbPoint
 10
3910.47671962158
 20
4532.991108379634
 30
0.0
  0
POINT
  5
19AA1
330
18B65
100
AcDbEntity
  8
DEFPOINTS
 62
     0
 48
50.0
100
AcDbPoint
 10
3910.47671962158
 20
4745.532693637872
 30
0.0
  0
ENDBLK
  5
18B70
330
18B65
100
AcDbEntity
  8
0
 48
50.0
100
AcDbBlockEnd
  0
BLOCK
  5
18B7B
330
18B71
100
AcDbEntity
  8
0
 48
50.0
100
AcDbBlockBegin
  2
*D22
 70
     1
 10
0.0
 20
0.0
 30
0.0
  3
*D22
  1

  0
LINE
  5
19A90
330
18B71
100
AcDbEntity
  8
寸法
 62
     0
 48
50.0
370
    -2
100
AcDbLine
 10
3860.47671962158
 20
4552.991108379631
 30
0.0
 11
3860.47671962158
 21
5028.489672075721
 31
0.0
  0
LINE
  5
19A91
330
18B71
100
AcDbEntity
  8
寸法
 62
     0
 48
50.0
370
    -2
100
AcDbLine
 10
8550.476719621583
 20
4552.991108379627
 30
0.0
 11
8550.476719621583
 21
5028.489672075721
 31
0.0
  0
LINE
  5
19A92
330
18B71
100
AcDbEntity
  8
寸法
 62
     0
 48
50.0
370
    -2
100
AcDbLine
 10
3860.47671962158
 20
4968.489672075721
 30
0.0
 11
8550.476719621583
 21
4968.489672075721
 31
0.0
  0
INSERT
  5
19A93
330
18B71
100
AcDbEntity
  8
寸法
 62
     0
 48
50.0
370
    -2
100
AcDbBlockReference
  2
_DOTSMALL
 10
3860.47671962158
 20
4968.489672075721
 30
0.0
 41
100.0
 42
100.0
 43
100.0
 50
180.0
  0
INSERT
  5
19A94
330
18B71
100
AcDbEntity
  8
寸法
 62
     0
 48
50.0
370
    -2
100
AcDbBlockReference
  2
_DOTSMALL
 10
8550.476719621583
 20
4968.489672075721
 30
0.0
 41
100.0
 42
100.0
 43
100.0
  0
MTEXT
  5
19A95
330
18B71
100
AcDbEntity
  8
寸法
 62
     7
 48
50.0
100
AcDbMText
 10
6157.616927541845
 20
5068.48967207572
 30
0.0
 40
120.0
 41
0.0
 71
     5
 72
     1
  1
\A1;N x 1530 +100
  7
STYLE1
 73
     1
 44
1.0
1001
ACAD
1000
MTEXTBEGIN
1070
    73
1070
     1
1070
    44
1040
1.0
1070
    74
1070
     0
1000
MTEXTEND
  0
POINT
  5
19A96
330
18B71
100
AcDbEntity
  8
DEFPOINTS
 62
     0
 48
50.0
100
AcDbPoint
 10
3860.47671962158
 20
4532.991108379632
 30
0.0
  0
POINT
  5
19A97
330
18B71
100
AcDbEntity
  8
DEFPOINTS
 62
     0
 48
50.0
100
AcDbPoint
 10
8550.476719621583
 20
4532.991108379627
 30
0.0
  0
POINT
  5
19A98
330
18B71
100
AcDbEntity
  8
DEFPOINTS
 62
     0
 48
50.0
100
AcDbPoint
 10
8550.476719621583
 20
4968.489672075721
 30
0.0
  0
ENDBLK
  5
18B7C
330
18B71
100
AcDbEntity
  8
0
 48
50.0
100
AcDbBlockEnd
  0
BLOCK
  5
18B89
330
18B7D
100
AcDbEntity
  8
0
 48
50.0
100
AcDbBlockBegin
  2
*D23
 70
     1
 10
0.0
 20
0.0
 30
0.0
  3
*D23
  1

  0
LINE
  5
19A85
330
18B7D
100
AcDbEntity
  8
寸法
 62
     0
 48
50.0
370
    -2
100
AcDbLine
 10
3910.47671962158
 20
4552.991108379634
 30
0.0
 11
3910.47671962158
 21
4805.532693637871
 31
0.0
  0
LINE
  5
19A86
330
18B7D
100
AcDbEntity
  8
寸法
 62
     0
 48
50.0
370
    -2
100
AcDbLine
 10
3860.47671962158
 20
4552.991108379631
 30
0.0
 11
3860.47671962158
 21
4805.532693637871
 31
0.0
  0
LINE
  5
19A87
330
18B7D
100
AcDbEntity
  8
寸法
 62
     0
 48
50.0
370
    -2
100
AcDbLine
 10
3910.47671962158
 20
4745.532693637872
 30
0.0
 11
4010.476719621579
 21
4745.532693637872
 31
0.0
  0
LINE
  5
19A88
330
18B7D
100
AcDbEntity
  8
寸法
 62
     0
 48
50.0
370
    -2
100
AcDbLine
 10
3860.47671962158
 20
4745.532693637872
 30
0.0
 11
3440.944194152844
 21
4745.532693637872
 31
0.0
  0
LINE
  5
19A89
330
18B7D
100
AcDbEntity
  8
寸法
 62
     0
 48
50.0
370
    -2
100
AcDbLine
 10
3910.47671962158
 20
4745.532693637872
 30
0.0
 11
3860.47671962158
 21
4745.532693637872
 31
0.0
  0
INSERT
  5
19A8A
330
18B7D
100
AcDbEntity
  8
寸法
 62
     0
 48
50.0
370
    -2
100
AcDbBlockReference
  2
_DOTSMALL
 10
3910.47671962158
 20
4745.532693637872
 30
0.0
 41
100.0
 42
100.0
 43
100.0
 50
180.0
  0
INSERT
  5
19A8B
330
18B7D
100
AcDbEntity
  8
寸法
 62
     0
 48
50.0
370
    -2
100
AcDbBlockReference
  2
_DOTSMALL
 10
3860.47671962158
 20
4745.532693637872
 30
0.0
 41
100.0
 42
100.0
 43
100.0
  0
MTEXT
  5
19A8C
330
18B7D
100
AcDbEntity
  8
寸法
 62
     7
 48
50.0
100
AcDbMText
 10
3546.991438247333
 20
4845.532693637871
 30
0.0
 40
120.0
 41
0.0
 71
     5
 72
     1
  1
\A1;50
  7
STYLE1
 73
     1
 44
1.0
1001
ACAD
1000
MTEXTBEGIN
1070
    73
1070
     1
1070
    44
1040
1.0
1070
    74
1070
     0
1000
MTEXTEND
  0
POINT
  5
19A8D
330
18B7D
100
AcDbEntity
  8
DEFPOINTS
 62
     0
 48
50.0
100
AcDbPoint
 10
3910.47671962158
 20
4532.991108379634
 30
0.0
  0
POINT
  5
19A8E
330
18B7D
100
AcDbEntity
  8
DEFPOINTS
 62
     0
 48
50.0
100
AcDbPoint
 10
3860.47671962158
 20
4532.991108379632
 30
0.0
  0
POINT
  5
19A8F
330
18B7D
100
AcDbEntity
  8
DEFPOINTS
 62
     0
 48
50.0
100
AcDbPoint
 10
3860.47671962158
 20
4745.532693637872
 30
0.0
  0
ENDBLK
  5
18B8A
330
18B7D
100
AcDbEntity
  8
0
 48
50.0
100
AcDbBlockEnd
  0
BLOCK
  5
18B97
330
18B8B
100
AcDbEntity
  8
0
 48
50.0
100
AcDbBlockBegin
  2
*D24
 70
     1
 10
0.0
 20
0.0
 30
0.0
  3
*D24
  1

  0
LINE
  5
19A7A
330
18B8B
100
AcDbEntity
  8
寸法
 62
     0
 48
50.0
370
    -2
100
AcDbLine
 10
8550.476719621583
 20
4552.991108379627
 30
0.0
 11
8550.476719621583
 21
4805.532693637868
 31
0.0
  0
LINE
  5
19A7B
330
18B8B
100
AcDbEntity
  8
寸法
 62
     0
 48
50.0
370
    -2
100
AcDbLine
 10
8500.476719621584
 20
4552.991108379628
 30
0.0
 11
8500.476719621584
 21
4805.532693637868
 31
0.0
  0
LINE
  5
19A7C
330
18B8B
100
AcDbEntity
  8
寸法
 62
     0
 48
50.0
370
    -2
100
AcDbLine
 10
8500.476719621584
 20
4745.532693637868
 30
0.0
 11
8400.476719621584
 21
4745.532693637868
 31
0.0
  0
LINE
  5
19A7D
330
18B8B
100
AcDbEntity
  8
寸法
 62
     0
 48
50.0
370
    -2
100
AcDbLine
 10
8550.476719621583
 20
4745.532693637868
 30
0.0
 11
8970.009245090308
 21
4745.532693637868
 31
0.0
  0
LINE
  5
19A7E
330
18B8B
100
AcDbEntity
  8
寸法
 62
     0
 48
50.0
370
    -2
100
AcDbLine
 10
8500.476719621584
 20
4745.532693637868
 30
0.0
 11
8550.476719621583
 21
4745.532693637868
 31
0.0
  0
INSERT
  5
19A7F
330
18B8B
100
AcDbEntity
  8
寸法
 62
     0
 48
50.0
370
    -2
100
AcDbBlockReference
  2
_DOTSMALL
 10
8500.476719621584
 20
4745.532693637868
 30
0.0
 41
100.0
 42
100.0
 43
100.0
  0
INSERT
  5
19A80
330
18B8B
100
AcDbEntity
  8
寸法
 62
     0
 48
50.0
370
    -2
100
AcDbBlockReference
  2
_DOTSMALL
 10
8550.476719621583
 20
4745.532693637868
 30
0.0
 41
100.0
 42
100.0
 43
100.0
 50
180.0
  0
MTEXT
  5
19A81
330
18B8B
100
AcDbEntity
  8
寸法
 62
     7
 48
50.0
100
AcDbMText
 10
8863.962000995819
 20
4845.532693637868
 30
0.0
 40
120.0
 41
0.0
 71
     5
 72
     1
  1
\A1;50
  7
STYLE1
 73
     1
 44
1.0
1001
ACAD
1000
MTEXTBEGIN
1070
    73
1070
     1
1070
    44
1040
1.0
1070
    74
1070
     0
1000
MTEXTEND
  0
POINT
  5
19A82
330
18B8B
100
AcDbEntity
  8
DEFPOINTS
 62
     0
 48
50.0
100
AcDbPoint
 10
8550.476719621583
 20
4532.991108379627
 30
0.0
  0
POINT
  5
19A83
330
18B8B
100
AcDbEntity
  8
DEFPOINTS
 62
     0
 48
50.0
100
AcDbPoint
 10
8500.476719621584
 20
4532.991108379628
 30
0.0
  0
POINT
  5
19A84
330
18B8B
100
AcDbEntity
  8
DEFPOINTS
 62
     0
 48
50.0
100
AcDbPoint
 10
8500.476719621584
 20
4745.532693637868
 30
0.0
  0
ENDBLK
  5
18B98
330
18B8B
100
AcDbEntity
  8
0
 48
50.0
100
AcDbBlockEnd
  0
BLOCK
  5
19377
330
1936C
100
AcDbEntity
  8
0
 48
50.0
100
AcDbBlockBegin
  2
*D25
 70
     1
 10
0.0
 20
0.0
 30
0.0
  3
*D25
  1

  0
LINE
  5
19A70
330
1936C
100
AcDbEntity
  8
寸法
 62
     0
 48
50.0
370
    -2
100
AcDbLine
 10
10375.67838772016
 20
4532.288815449287
 30
0.0
 11
9759.743948614882
 21
4550.002965723616
 31
0.0
  0
LINE
  5
19A71
330
1936C
100
AcDbEntity
  8
寸法
 62
     0
 48
50.0
370
    -2
100
AcDbLine
 10
10371.62493216353
 20
4391.347091683575
 30
0.0
 11
9755.690493058258
 21
4409.061241957903
 31
0.0
  0
LINE
  5
19A72
330
1936C
100
AcDbEntity
  8
寸法
 62
     0
 48
50.0
370
    -2
100
AcDbLine
 10
9815.665694660687
 20
4407.336367252956
 30
0.0
 11
9819.719150217315
 21
4548.278091018669
 31
0.0
  0
LINE
  5
19A73
330
1936C
100
AcDbEntity
  8
寸法
 62
     0
 48
50.0
370
    -2
100
AcDbLine
 10
9819.719150217315
 20
4548.278091018669
 30
0.0
 11
9830.068398447
 21
4908.129300633255
 31
0.0
  0
INSERT
  5
19A74
330
1936C
100
AcDbEntity
  8
寸法
 62
     0
 48
50.0
370
    -2
100
AcDbBlockReference
  2
_DOTSMALL
 10
9815.665694660687
 20
4407.336367252956
 30
0.0
 41
100.0
 42
100.0
 43
100.0
 50
268.3526390256378
  0
INSERT
  5
19A75
330
1936C
100
AcDbEntity
  8
寸法
 62
     0
 48
50.0
370
    -2
100
AcDbBlockReference
  2
_DOTSMALL
 10
9819.719150217315
 20
4548.278091018669
 30
0.0
 41
100.0
 42
100.0
 43
100.0
 50
88.35263902563776
  0
MTEXT
  5
19A76
330
1936C
100
AcDbEntity
  8
寸法
 62
     7
 48
50.0
100
AcDbMText
 10
9726.372500582229
 20
4781.057821669567
 30
0.0
 40
120.0
 41
0.0
 71
     5
 72
     1
  1
\A1;141
  7
STYLE1
 11
0.0287479117491237
 21
0.9995866933738488
 31
0.0
 73
     1
 44
1.0
1001
ACAD
1000
MTEXTBEGIN
1070
    73
1070
     1
1070
    44
1040
1.0
1070
    74
1070
     0
1000
MTEXTEND
  0
POINT
  5
19A77
330
1936C
100
AcDbEntity
  8
DEFPOINTS
 62
     0
 48
50.0
100
AcDbPoint
 10
10395.67012158764
 20
4531.713857214305
 30
0.0
  0
POINT
  5
19A78
330
1936C
100
AcDbEntity
  8
DEFPOINTS
 62
     0
 48
50.0
100
AcDbPoint
 10
10391.61666603101
 20
4390.772133448591
 30
0.0
  0
POINT
  5
19A79
330
1936C
100
AcDbEntity
  8
DEFPOINTS
 62
     0
 48
50.0
100
AcDbPoint
 10
9815.665694660687
 20
4407.336367252956
 30
0.0
  0
ENDBLK
  5
19378
330
1936C
100
AcDbEntity
  8
0
 48
50.0
100
AcDbBlockEnd
  0
BLOCK
  5
19384
330
19379
100
AcDbEntity
  8
0
 48
50.0
100
AcDbBlockBegin
  2
*D26
 70
     1
 10
0.0
 20
0.0
 30
0.0
  3
*D26
  1

  0
LINE
  5
19A66
330
19379
100
AcDbEntity
  8
寸法
 62
     0
 48
50.0
370
    -2
100
AcDbLine
 10
13066.27410142906
 20
4499.801787991279
 30
0.0
 11
13066.27410142906
 21
4991.648561958929
 31
0.0
  0
LINE
  5
19A67
330
19379
100
AcDbEntity
  8
寸法
 62
     0
 48
50.0
370
    -2
100
AcDbLine
 10
13146.27410142906
 20
4497.991108379626
 30
0.0
 11
13146.27410142906
 21
4991.648561958929
 31
0.0
  0
LINE
  5
19A68
330
19379
100
AcDbEntity
  8
寸法
 62
     0
 48
50.0
370
    -2
100
AcDbLine
 10
13066.27410142906
 20
4931.64856195893
 30
0.0
 11
13146.27410142906
 21
4931.64856195893
 31
0.0
  0
LINE
  5
19A69
330
19379
100
AcDbEntity
  8
寸法
 62
     0
 48
50.0
370
    -2
100
AcDbLine
 10
13146.27410142906
 20
4931.64856195893
 30
0.0
 11
13458.36858961804
 21
4931.64856195893
 31
0.0
  0
INSERT
  5
19A6A
330
19379
100
AcDbEntity
  8
寸法
 62
     0
 48
50.0
370
    -2
100
AcDbBlockReference
  2
_DOTSMALL
 10
13066.27410142906
 20
4931.64856195893
 30
0.0
 41
100.0
 42
100.0
 43
100.0
 50
180.0
  0
INSERT
  5
19A6B
330
19379
100
AcDbEntity
  8
寸法
 62
     0
 48
50.0
370
    -2
100
AcDbBlockReference
  2
_DOTSMALL
 10
13146.27410142906
 20
4931.64856195893
 30
0.0
 41
100.0
 42
100.0
 43
100.0
  0
MTEXT
  5
19A6C
330
19379
100
AcDbEntity
  8
寸法
 62
     7
 48
50.0
100
AcDbMText
 10
13352.32134552355
 20
5031.648561958929
 30
0.0
 40
120.0
 41
0.0
 71
     5
 72
     1
  1
\A1;80
  7
STYLE1
 73
     1
 44
1.0
1001
ACAD
1000
MTEXTBEGIN
1070
    73
1070
     1
1070
    44
1040
1.0
1070
    74
1070
     0
1000
MTEXTEND
  0
POINT
  5
19A6D
330
19379
100
AcDbEntity
  8
DEFPOINTS
 62
     0
 48
50.0
100
AcDbPoint
 10
13066.27410142906
 20
4479.801787991278
 30
0.0
  0
POINT
  5
19A6E
330
19379
100
AcDbEntity
  8
DEFPOINTS
 62
     0
 48
50.0
100
AcDbPoint
 10
13146.27410142906
 20
4477.991108379627
 30
0.0
  0
POINT
  5
19A6F
330
19379
100
AcDbEntity
  8
DEFPOINTS
 62
     0
 48
50.0
100
AcDbPoint
 10
13146.27410142906
 20
4931.64856195893
 30
0.0
  0
ENDBLK
  5
19385
330
19379
100
AcDbEntity
  8
0
 48
50.0
100
AcDbBlockEnd
  0
BLOCK
  5
19390
330
19386
100
AcDbEntity
  8
0
 48
50.0
100
AcDbBlockBegin
  2
*D27
 70
     1
 10
0.0
 20
0.0
 30
0.0
  3
*D27
  1

  0
LINE
  5
19A5D
330
19386
100
AcDbEntity
  8
寸法
 62
     0
 48
50.0
370
    -2
100
AcDbLine
 10
13146.27410142906
 20
4497.991108379626
 30
0.0
 11
13146.27410142906
 21
5211.859248690547
 31
0.0
  0
LINE
  5
19A5E
330
19386
100
AcDbEntity
  8
寸法
 62
     0
 48
50.0
370
    -2
100
AcDbLine
 10
10376.27410142906
 20
4552.991108379628
 30
0.0
 11
10376.27410142906
 21
5211.859248690547
 31
0.0
  0
LINE
  5
19A5F
330
19386
100
AcDbEntity
  8
寸法
 62
     0
 48
50.0
370
    -2
100
AcDbLine
 10
13146.27410142906
 20
5151.859248690548
 30
0.0
 11
10376.27410142906
 21
5151.859248690548
 31
0.0
  0
INSERT
  5
19A60
330
19386
100
AcDbEntity
  8
寸法
 62
     0
 48
50.0
370
    -2
100
AcDbBlockReference
  2
_DOTSMALL
 10
13146.27410142906
 20
5151.859248690548
 30
0.0
 41
100.0
 42
100.0
 43
100.0
  0
INSERT
  5
19A61
330
19386
100
AcDbEntity
  8
寸法
 62
     0
 48
50.0
370
    -2
100
AcDbBlockReference
  2
_DOTSMALL
 10
10376.27410142906
 20
5151.859248690548
 30
0.0
 41
100.0
 42
100.0
 43
100.0
 50
180.0
  0
MTEXT
  5
19A62
330
19386
100
AcDbEntity
  8
寸法
 62
     7
 48
50.0
100
AcDbMText
 10
11779.63302631644
 20
5251.871059714169
 30
0.0
 40
120.0
 41
0.0
 71
     5
 72
     1
  1
\A1;2770
  7
STYLE1
 73
     1
 44
1.0
1001
ACAD
1000
MTEXTBEGIN
1070
    73
1070
     1
1070
    44
1040
1.0
1070
    74
1070
     0
1000
MTEXTEND
  0
POINT
  5
19A63
330
19386
100
AcDbEntity
  8
DEFPOINTS
 62
     0
 48
50.0
100
AcDbPoint
 10
13146.27410142906
 20
4477.991108379627
 30
0.0
  0
POINT
  5
19A64
330
19386
100
AcDbEntity
  8
DEFPOINTS
 62
     0
 48
50.0
100
AcDbPoint
 10
10376.27410142906
 20
4532.991108379628
 30
0.0
  0
POINT
  5
19A65
330
19386
100
AcDbEntity
  8
DEFPOINTS
 62
     0
 48
50.0
100
AcDbPoint
 10
10376.27410142906
 20
5151.859248690548
 30
0.0
  0
ENDBLK
  5
19391
330
19386
100
AcDbEntity
  8
0
 48
50.0
100
AcDbBlockEnd
  0
BLOCK
  5
1939E
330
19392
100
AcDbEntity
  8
0
 48
50.0
100
AcDbBlockBegin
  2
*D28
 70
     1
 10
0.0
 20
0.0
 30
0.0
  3
*D28
  1

  0
LINE
  5
19A52
330
19392
100
AcDbEntity
  8
寸法
 62
     0
 48
50.0
370
    -2
100
AcDbLine
 10
10436.27410142906
 20
4548.992726502602
 30
0.0
 11
10436.27410142906
 21
4991.648561958929
 31
0.0
  0
LINE
  5
19A53
330
19392
100
AcDbEntity
  8
寸法
 62
     0
 48
50.0
370
    -2
100
AcDbLine
 10
10376.27410142906
 20
4552.991108379628
 30
0.0
 11
10376.27410142906
 21
4991.648561958929
 31
0.0
  0
LINE
  5
19A54
330
19392
100
AcDbEntity
  8
寸法
 62
     0
 48
50.0
370
    -2
100
AcDbLine
 10
10436.27410142906
 20
4931.64856195893
 30
0.0
 11
10536.27410142906
 21
4931.64856195893
 31
0.0
  0
LINE
  5
19A55
330
19392
100
AcDbEntity
  8
寸法
 62
     0
 48
50.0
370
    -2
100
AcDbLine
 10
10376.27410142906
 20
4931.64856195893
 30
0.0
 11
9956.998510877882
 21
4931.64856195893
 31
0.0
  0
LINE
  5
19A56
330
19392
100
AcDbEntity
  8
寸法
 62
     0
 48
50.0
370
    -2
100
AcDbLine
 10
10436.27410142906
 20
4931.64856195893
 30
0.0
 11
10376.27410142906
 21
4931.64856195893
 31
0.0
  0
INSERT
  5
19A57
330
19392
100
AcDbEntity
  8
寸法
 62
     0
 48
50.0
370
    -2
100
AcDbBlockReference
  2
_DOTSMALL
 10
10436.27410142906
 20
4931.64856195893
 30
0.0
 41
100.0
 42
100.0
 43
100.0
 50
180.0
  0
INSERT
  5
19A58
330
19392
100
AcDbEntity
  8
寸法
 62
     0
 48
50.0
370
    -2
100
AcDbBlockReference
  2
_DOTSMALL
 10
10376.27410142906
 20
4931.64856195893
 30
0.0
 41
100.0
 42
100.0
 43
100.0
  0
MTEXT
  5
19A59
330
19392
100
AcDbEntity
  8
寸法
 62
     7
 48
50.0
100
AcDbMText
 10
10066.63630615347
 20
5031.648561958929
 30
0.0
 40
120.0
 41
0.0
 71
     5
 72
     1
  1
\A1;60
  7
STYLE1
 73
     1
 44
1.0
1001
ACAD
1000
MTEXTBEGIN
1070
    73
1070
     1
1070
    44
1040
1.0
1070
    74
1070
     0
1000
MTEXTEND
  0
POINT
  5
19A5A
330
19392
100
AcDbEntity
  8
DEFPOINTS
 62
     0
 48
50.0
100
AcDbPoint
 10
10436.27410142906
 20
4528.992726502601
 30
0.0
  0
POINT
  5
19A5B
330
19392
100
AcDbEntity
  8
DEFPOINTS
 62
     0
 48
50.0
100
AcDbPoint
 10
10376.27410142906
 20
4532.991108379628
 30
0.0
  0
POINT
  5
19A5C
330
19392
100
AcDbEntity
  8
DEFPOINTS
 62
     0
 48
50.0
100
AcDbPoint
 10
10376.27410142906
 20
4931.64856195893
 30
0.0
  0
ENDBLK
  5
1939F
330
19392
100
AcDbEntity
  8
0
 48
50.0
100
AcDbBlockEnd
  0
BLOCK
  5
193AA
330
193A0
100
AcDbEntity
  8
0
 48
50.0
100
AcDbBlockBegin
  2
*D29
 70
     1
 10
0.0
 20
0.0
 30
0.0
  3
*D29
  1

  0
LINE
  5
19A49
330
193A0
100
AcDbEntity
  8
寸法
 62
     0
 48
50.0
370
    -2
100
AcDbLine
 10
13066.27410142906
 20
4499.801787991279
 30
0.0
 11
13066.27410142906
 21
4991.648561958929
 31
0.0
  0
LINE
  5
19A4A
330
193A0
100
AcDbEntity
  8
寸法
 62
     0
 48
50.0
370
    -2
100
AcDbLine
 10
10436.27410142906
 20
4548.992726502602
 30
0.0
 11
10436.27410142906
 21
4991.648561958929
 31
0.0
  0
LINE
  5
19A4B
330
193A0
100
AcDbEntity
  8
寸法
 62
     0
 48
50.0
370
    -2
100
AcDbLine
 10
13066.27410142906
 20
4931.64856195893
 30
0.0
 11
10436.27410142906
 21
4931.64856195893
 31
0.0
  0
INSERT
  5
19A4C
330
193A0
100
AcDbEntity
  8
寸法
 62
     0
 48
50.0
370
    -2
100
AcDbBlockReference
  2
_DOTSMALL
 10
13066.27410142906
 20
4931.64856195893
 30
0.0
 41
100.0
 42
100.0
 43
100.0
  0
INSERT
  5
19A4D
330
193A0
100
AcDbEntity
  8
寸法
 62
     0
 48
50.0
370
    -2
100
AcDbBlockReference
  2
_DOTSMALL
 10
10436.27410142906
 20
4931.64856195893
 30
0.0
 41
100.0
 42
100.0
 43
100.0
 50
180.0
  0
MTEXT
  5
19A4E
330
193A0
100
AcDbEntity
  8
寸法
 62
     7
 48
50.0
100
AcDbMText
 10
11791.04429245825
 20
5031.660372982551
 30
0.0
 40
120.0
 41
0.0
 71
     5
 72
     1
  1
\A1;柱外寸法2630
  7
STYLE1
 73
     1
 44
1.0
1001
ACAD
1000
MTEXTBEGIN
1070
    73
1070
     1
1070
    44
1040
1.0
1070
    74
1070
     0
1000
MTEXTEND
  0
POINT
  5
19A4F
330
193A0
100
AcDbEntity
  8
DEFPOINTS
 62
     0
 48
50.0
100
AcDbPoint
 10
13066.27410142906
 20
4479.801787991278
 30
0.0
  0
POINT
  5
19A50
330
193A0
100
AcDbEntity
  8
DEFPOINTS
 62
     0
 48
50.0
100
AcDbPoint
 10
10436.27410142906
 20
4528.992726502601
 30
0.0
  0
POINT
  5
19A51
330
193A0
100
AcDbEntity
  8
DEFPOINTS
 62
     0
 48
50.0
100
AcDbPoint
 10
10436.27410142906
 20
4931.64856195893
 30
0.0
  0
ENDBLK
  5
193AB
330
193A0
100
AcDbEntity
  8
0
 48
50.0
100
AcDbBlockEnd
  0
BLOCK
  5
193B6
330
193AC
100
AcDbEntity
  8
0
 48
50.0
100
AcDbBlockBegin
  2
*D30
 70
     1
 10
0.0
 20
0.0
 30
0.0
  3
*D30
  1

  0
LINE
  5
19A40
330
193AC
100
AcDbEntity
  8
寸法
 62
     0
 48
50.0
370
    -2
100
AcDbLine
 10
13086.27410142906
 20
2457.991108379625
 30
0.0
 11
13831.20125940119
 21
2457.991108379625
 31
0.0
  0
LINE
  5
19A41
330
193AC
100
AcDbEntity
  8
寸法
 62
     0
 48
50.0
370
    -2
100
AcDbLine
 10
13166.27410142906
 20
4477.991108379627
 30
0.0
 11
13831.20125940119
 21
4477.991108379627
 31
0.0
  0
LINE
  5
19A42
330
193AC
100
AcDbEntity
  8
寸法
 62
     0
 48
50.0
370
    -2
100
AcDbLine
 10
13771.20125940119
 20
2457.991108379625
 30
0.0
 11
13771.20125940119
 21
4477.991108379627
 31
0.0
  0
INSERT
  5
19A43
330
193AC
100
AcDbEntity
  8
寸法
 62
     0
 48
50.0
370
    -2
100
AcDbBlockReference
  2
_DOTSMALL
 10
13771.20125940119
 20
2457.991108379625
 30
0.0
 41
100.0
 42
100.0
 43
100.0
 50
270.0
  0
INSERT
  5
19A44
330
193AC
100
AcDbEntity
  8
寸法
 62
     0
 48
50.0
370
    -2
100
AcDbBlockReference
  2
_DOTSMALL
 10
13771.20125940119
 20
4477.991108379627
 30
0.0
 41
100.0
 42
100.0
 43
100.0
 50
90.0
  0
MTEXT
  5
19A45
330
193AC
100
AcDbEntity
  8
寸法
 62
     7
 48
50.0
100
AcDbMText
 10
13671.18944837757
 20
3467.991108379628
 30
0.0
 40
120.0
 41
0.0
 71
     5
 72
     1
  1
\A1;2020
  7
STYLE1
 11
0.0000000000000001
 21
1.0
 31
0.0
 73
     1
 44
1.0
1001
ACAD
1000
MTEXTBEGIN
1070
    73
1070
     1
1070
    44
1040
1.0
1070
    74
1070
     0
1000
MTEXTEND
  0
POINT
  5
19A46
330
193AC
100
AcDbEntity
  8
DEFPOINTS
 62
     0
 48
50.0
100
AcDbPoint
 10
13066.27410142906
 20
2457.991108379625
 30
0.0
  0
POINT
  5
19A47
330
193AC
100
AcDbEntity
  8
DEFPOINTS
 62
     0
 48
50.0
100
AcDbPoint
 10
13146.27410142906
 20
4477.991108379627
 30
0.0
  0
POINT
  5
19A48
330
193AC
100
AcDbEntity
  8
DEFPOINTS
 62
     0
 48
50.0
100
AcDbPoint
 10
13771.20125940119
 20
4477.991108379627
 30
0.0
  0
ENDBLK
  5
193B7
330
193AC
100
AcDbEntity
  8
0
 48
50.0
100
AcDbBlockEnd
  0
BLOCK
  5
193C4
330
193B8
100
AcDbEntity
  8
0
 48
50.0
100
AcDbBlockBegin
  2
*D31
 70
     1
 10
0.0
 20
0.0
 30
0.0
  3
*D31
  1

  0
LINE
  5
19A35
330
193B8
100
AcDbEntity
  8
寸法
 62
     0
 48
50.0
370
    -2
100
AcDbLine
 10
10416.27410142906
 20
2507.991108379625
 30
0.0
 11
9532.523972245803
 21
2507.991108379625
 31
0.0
  0
LINE
  5
19A36
330
193B8
100
AcDbEntity
  8
寸法
 62
     0
 48
50.0
370
    -2
100
AcDbLine
 10
10361.27410142906
 20
2457.991108379625
 30
0.0
 11
9532.523972245803
 21
2457.991108379625
 31
0.0
  0
LINE
  5
19A37
330
193B8
100
AcDbEntity
  8
寸法
 62
     0
 48
50.0
370
    -2
100
AcDbLine
 10
9592.523972245803
 20
2507.991108379625
 30
0.0
 11
9592.523972245803
 21
2607.991108379625
 31
0.0
  0
LINE
  5
19A38
330
193B8
100
AcDbEntity
  8
寸法
 62
     0
 48
50.0
370
    -2
100
AcDbLine
 10
9592.523972245803
 20
2457.991108379625
 30
0.0
 11
9592.523972245803
 21
2045.896620190645
 31
0.0
  0
LINE
  5
19A39
330
193B8
100
AcDbEntity
  8
寸法
 62
     0
 48
50.0
370
    -2
100
AcDbLine
 10
9592.523972245803
 20
2507.991108379625
 30
0.0
 11
9592.523972245803
 21
2457.991108379625
 31
0.0
  0
INSERT
  5
19A3A
330
193B8
100
AcDbEntity
  8
寸法
 62
     0
 48
50.0
370
    -2
100
AcDbBlockReference
  2
_DOTSMALL
 10
9592.523972245803
 20
2507.991108379625
 30
0.0
 41
100.0
 42
100.0
 43
100.0
 50
270.0
  0
INSERT
  5
19A3B
330
193B8
100
AcDbEntity
  8
寸法
 62
     0
 48
50.0
370
    -2
100
AcDbBlockReference
  2
_DOTSMALL
 10
9592.523972245803
 20
2457.991108379625
 30
0.0
 41
100.0
 42
100.0
 43
100.0
 50
90.0
  0
MTEXT
  5
19A3C
330
193B8
100
AcDbEntity
  8
寸法
 62
     7
 48
50.0
100
AcDbMText
 10
9492.523972245804
 20
2151.943864285135
 30
0.0
 40
120.0
 41
0.0
 71
     5
 72
     1
  1
\A1;50
  7
STYLE1
 11
0.0000000000000001
 21
1.0
 31
0.0
 73
     1
 44
1.0
1001
ACAD
1000
MTEXTBEGIN
1070
    73
1070
     1
1070
    44
1040
1.0
1070
    74
1070
     0
1000
MTEXTEND
  0
POINT
  5
19A3D
330
193B8
100
AcDbEntity
  8
DEFPOINTS
 62
     0
 48
50.0
100
AcDbPoint
 10
10436.27410142906
 20
2507.991108379625
 30
0.0
  0
POINT
  5
19A3E
330
193B8
100
AcDbEntity
  8
DEFPOINTS
 62
     0
 48
50.0
100
AcDbPoint
 10
10381.27410142906
 20
2457.991108379625
 30
0.0
  0
POINT
  5
19A3F
330
193B8
100
AcDbEntity
  8
DEFPOINTS
 62
     0
 48
50.0
100
AcDbPoint
 10
9592.523972245803
 20
2457.991108379625
 30
0.0
  0
ENDBLK
  5
193C5
330
193B8
100
AcDbEntity
  8
0
 48
50.0
100
AcDbBlockEnd
  0
BLOCK
  5
193D0
330
193C6
100
AcDbEntity
  8
0
 48
50.0
100
AcDbBlockBegin
  2
*D32
 70
     1
 10
0.0
 20
0.0
 30
0.0
  3
*D32
  1

  0
LINE
  5
19A2C
330
193C6
100
AcDbEntity
  8
寸法
 62
     0
 48
50.0
370
    -2
100
AcDbLine
 10
10416.27410142906
 20
2457.991108379625
 30
0.0
 11
9232.5239722458
 21
2457.991108379625
 31
0.0
  0
LINE
  5
19A2D
330
193C6
100
AcDbEntity
  8
寸法
 62
     0
 48
50.0
370
    -2
100
AcDbLine
 10
10356.27410142906
 20
4532.991108379628
 30
0.0
 11
9232.523972245802
 21
4532.991108379629
 31
0.0
  0
LINE
  5
19A2E
330
193C6
100
AcDbEntity
  8
寸法
 62
     0
 48
50.0
370
    -2
100
AcDbLine
 10
9292.523972245801
 20
2457.991108379625
 30
0.0
 11
9292.523972245803
 21
4532.991108379629
 31
0.0
  0
INSERT
  5
19A2F
330
193C6
100
AcDbEntity
  8
寸法
 62
     0
 48
50.0
370
    -2
100
AcDbBlockReference
  2
_DOTSMALL
 10
9292.523972245801
 20
2457.991108379625
 30
0.0
 41
100.0
 42
100.0
 43
100.0
 50
270.0
  0
INSERT
  5
19A30
330
193C6
100
AcDbEntity
  8
寸法
 62
     0
 48
50.0
370
    -2
100
AcDbBlockReference
  2
_DOTSMALL
 10
9292.523972245803
 20
4532.991108379629
 30
0.0
 41
100.0
 42
100.0
 43
100.0
 50
90.0
  0
MTEXT
  5
19A31
330
193C6
100
AcDbEntity
  8
寸法
 62
     7
 48
50.0
100
AcDbMText
 10
9192.512161222179
 20
3495.491108379629
 30
0.0
 40
120.0
 41
0.0
 71
     5
 72
     1
  1
\A1;2075
  7
STYLE1
 11
0.0000000000000001
 21
1.0
 31
0.0
 73
     1
 44
1.0
1001
ACAD
1000
MTEXTBEGIN
1070
    73
1070
     1
1070
    44
1040
1.0
1070
    74
1070
     0
1000
MTEXTEND
  0
POINT
  5
19A32
330
193C6
100
AcDbEntity
  8
DEFPOINTS
 62
     0
 48
50.0
100
AcDbPoint
 10
10436.27410142906
 20
2457.991108379625
 30
0.0
  0
POINT
  5
19A33
330
193C6
100
AcDbEntity
  8
DEFPOINTS
 62
     0
 48
50.0
100
AcDbPoint
 10
10376.27410142906
 20
4532.991108379628
 30
0.0
  0
POINT
  5
19A34
330
193C6
100
AcDbEntity
  8
DEFPOINTS
 62
     0
 48
50.0
100
AcDbPoint
 10
9292.523972245803
 20
4532.991108379629
 30
0.0
  0
ENDBLK
  5
193D1
330
193C6
100
AcDbEntity
  8
0
 48
50.0
100
AcDbBlockEnd
  0
BLOCK
  5
193DC
330
193D2
100
AcDbEntity
  8
0
 48
50.0
100
AcDbBlockBegin
  2
*D33
 70
     1
 10
0.0
 20
0.0
 30
0.0
  3
*D33
  1

  0
LINE
  5
19A23
330
193D2
100
AcDbEntity
  8
寸法
 62
     0
 48
50.0
370
    -2
100
AcDbLine
 10
10416.27410142906
 20
4297.991108379625
 30
0.0
 11
9532.523972245805
 21
4297.991108379625
 31
0.0
  0
LINE
  5
19A24
330
193D2
100
AcDbEntity
  8
寸法
 62
     0
 48
50.0
370
    -2
100
AcDbLine
 10
10416.27410142906
 20
2507.991108379625
 30
0.0
 11
9532.523972245803
 21
2507.991108379625
 31
0.0
  0
LINE
  5
19A25
330
193D2
100
AcDbEntity
  8
寸法
 62
     0
 48
50.0
370
    -2
100
AcDbLine
 10
9592.523972245805
 20
4297.991108379625
 30
0.0
 11
9592.523972245803
 21
2507.991108379625
 31
0.0
  0
INSERT
  5
19A26
330
193D2
100
AcDbEntity
  8
寸法
 62
     0
 48
50.0
370
    -2
100
AcDbBlockReference
  2
_DOTSMALL
 10
9592.523972245805
 20
4297.991108379625
 30
0.0
 41
100.0
 42
100.0
 43
100.0
 50
90.0
  0
INSERT
  5
19A27
330
193D2
100
AcDbEntity
  8
寸法
 62
     0
 48
50.0
370
    -2
100
AcDbBlockReference
  2
_DOTSMALL
 10
9592.523972245803
 20
2507.991108379625
 30
0.0
 41
100.0
 42
100.0
 43
100.0
 50
270.0
  0
MTEXT
  5
19A28
330
193D2
100
AcDbEntity
  8
寸法
 62
     7
 48
50.0
100
AcDbMText
 10
9492.523972245804
 20
3402.991108379627
 30
0.0
 40
120.0
 41
0.0
 71
     5
 72
     1
  1
\A1;1790
  7
STYLE1
 11
0.0000000000000001
 21
1.0
 31
0.0
 73
     1
 44
1.0
1001
ACAD
1000
MTEXTBEGIN
1070
    73
1070
     1
1070
    44
1040
1.0
1070
    74
1070
     0
1000
MTEXTEND
  0
POINT
  5
19A29
330
193D2
100
AcDbEntity
  8
DEFPOINTS
 62
     0
 48
50.0
100
AcDbPoint
 10
10436.27410142906
 20
4297.991108379625
 30
0.0
  0
POINT
  5
19A2A
330
193D2
100
AcDbEntity
  8
DEFPOINTS
 62
     0
 48
50.0
100
AcDbPoint
 10
10436.27410142906
 20
2507.991108379625
 30
0.0
  0
POINT
  5
19A2B
330
193D2
100
AcDbEntity
  8
DEFPOINTS
 62
     0
 48
50.0
100
AcDbPoint
 10
9592.523972245803
 20
2507.991108379625
 30
0.0
  0
ENDBLK
  5
193DD
330
193D2
100
AcDbEntity
  8
0
 48
50.0
100
AcDbBlockEnd
  0
BLOCK
  5
193E8
330
193DE
100
AcDbEntity
  8
0
 48
50.0
100
AcDbBlockBegin
  2
*D34
 70
     1
 10
0.0
 20
0.0
 30
0.0
  3
*D34
  1

  0
LINE
  5
19A1A
330
193DE
100
AcDbEntity
  8
寸法
 62
     0
 48
50.0
370
    -2
100
AcDbLine
 10
10416.27410142906
 20
4289.991108379625
 30
0.0
 11
9831.365460031811
 21
4289.991108379626
 31
0.0
  0
LINE
  5
19A1B
330
193DE
100
AcDbEntity
  8
寸法
 62
     0
 48
50.0
370
    -2
100
AcDbLine
 10
10416.27410142906
 20
2519.991108379625
 30
0.0
 11
9831.365460031808
 21
2519.991108379625
 31
0.0
  0
LINE
  5
19A1C
330
193DE
100
AcDbEntity
  8
寸法
 62
     0
 48
50.0
370
    -2
100
AcDbLine
 10
9891.36546003181
 20
4289.991108379626
 30
0.0
 11
9891.365460031808
 21
2519.991108379625
 31
0.0
  0
INSERT
  5
19A1D
330
193DE
100
AcDbEntity
  8
寸法
 62
     0
 48
50.0
370
    -2
100
AcDbBlockReference
  2
_DOTSMALL
 10
9891.36546003181
 20
4289.991108379626
 30
0.0
 41
100.0
 42
100.0
 43
100.0
 50
90.0
  0
INSERT
  5
19A1E
330
193DE
100
AcDbEntity
  8
寸法
 62
     0
 48
50.0
370
    -2
100
AcDbBlockReference
  2
_DOTSMALL
 10
9891.365460031808
 20
2519.991108379625
 30
0.0
 41
100.0
 42
100.0
 43
100.0
 50
270.0
  0
MTEXT
  5
19A1F
330
193DE
100
AcDbEntity
  8
寸法
 62
     7
 48
50.0
100
AcDbMText
 10
9791.365460031808
 20
3404.991108379627
 30
0.0
 40
120.0
 41
0.0
 71
     5
 72
     1
  1
\A1;有効開口部高サ1770
  7
STYLE1
 11
0.0000000000000001
 21
1.0
 31
0.0
 73
     1
 44
1.0
1001
ACAD
1000
MTEXTBEGIN
1070
    73
1070
     1
1070
    44
1040
1.0
1070
    74
1070
     0
1000
MTEXTEND
  0
POINT
  5
19A20
330
193DE
100
AcDbEntity
  8
DEFPOINTS
 62
     0
 48
50.0
100
AcDbPoint
 10
10436.27410142906
 20
4289.991108379625
 30
0.0
  0
POINT
  5
19A21
330
193DE
100
AcDbEntity
  8
DEFPOINTS
 62
     0
 48
50.0
100
AcDbPoint
 10
10436.27410142906
 20
2519.991108379625
 30
0.0
  0
POINT
  5
19A22
330
193DE
100
AcDbEntity
  8
DEFPOINTS
 62
     0
 48
50.0
100
AcDbPoint
 10
9891.365460031808
 20
2519.991108379625
 30
0.0
  0
ENDBLK
  5
193E9
330
193DE
100
AcDbEntity
  8
0
 48
50.0
100
AcDbBlockEnd
  0
BLOCK
  5
1997F
330
19975
100
AcDbEntity
  8
0
 48
50.0
100
AcDbBlockBegin
  2
*D35
 70
     1
 10
0.0
 20
0.0
 30
0.0
  3
*D35
  1

  0
LINE
  5
19AB4
330
19975
100
AcDbEntity
  8
寸法
 62
     0
 48
50.0
370
    -2
100
AcDbLine
 10
7855.076719621571
 20
6940.806258213263
 30
0.0
 11
7855.076719621571
 21
6362.808914061055
 31
0.0
  0
LINE
  5
19AB5
330
19975
100
AcDbEntity
  8
寸法
 62
     0
 48
50.0
370
    -2
100
AcDbLine
 10
7030.476719621572
 20
6940.806258213155
 30
0.0
 11
7030.476719621572
 21
6362.808914061055
 31
0.0
  0
LINE
  5
19AB6
330
19975
100
AcDbEntity
  8
寸法
 62
     0
 48
50.0
370
    -2
100
AcDbLine
 10
7855.076719621571
 20
6422.808914061055
 30
0.0
 11
7030.476719621572
 21
6422.808914061055
 31
0.0
  0
INSERT
  5
19AB7
330
19975
100
AcDbEntity
  8
寸法
 62
     0
 48
50.0
370
    -2
100
AcDbBlockReference
  2
_DOTSMALL
 10
7855.076719621571
 20
6422.808914061055
 30
0.0
 41
100.0
 42
100.0
 43
100.0
  0
INSERT
  5
19AB8
330
19975
100
AcDbEntity
  8
寸法
 62
     0
 48
50.0
370
    -2
100
AcDbBlockReference
  2
_DOTSMALL
 10
7030.476719621572
 20
6422.808914061055
 30
0.0
 41
100.0
 42
100.0
 43
100.0
 50
180.0
  0
MTEXT
  5
19AB9
330
19975
100
AcDbEntity
  8
寸法
 62
     7
 48
50.0
100
AcDbMText
 10
7442.776719621573
 20
6622.820725084676
 30
0.0
 40
120.0
 41
0.0
 71
     5
 72
     1
  1
\A1;有効開口部間口\P824
  7
STYLE1
 73
     1
 44
1.0
1001
ACAD
1000
MTEXTBEGIN
1070
    73
1070
     1
1070
    44
1040
1.0
1070
    74
1070
     0
1000
MTEXTEND
  0
POINT
  5
19ABA
330
19975
100
AcDbEntity
  8
DEFPOINTS
 62
     0
 48
50.0
100
AcDbPoint
 10
7855.076719621571
 20
6960.806258213263
 30
0.0
  0
POINT
  5
19ABB
330
19975
100
AcDbEntity
  8
DEFPOINTS
 62
     0
 48
50.0
100
AcDbPoint
 10
7030.476719621572
 20
6960.806258213153
 30
0.0
  0
POINT
  5
19ABC
330
19975
100
AcDbEntity
  8
DEFPOINTS
 62
     0
 48
50.0
100
AcDbPoint
 10
7030.476719621572
 20
6422.808914061055
 30
0.0
  0
ENDBLK
  5
19980
330
19975
100
AcDbEntity
  8
0
 48
50.0
100
AcDbBlockEnd
  0
BLOCK
  5
1998B
330
19981
100
AcDbEntity
  8
0
 48
50.0
100
AcDbBlockBegin
  2
*D36
 70
     1
 10
0.0
 20
0.0
 30
0.0
  3
*D36
  1

  0
LINE
  5
19AA2
330
19981
100
AcDbEntity
  8
寸法
 62
     0
 48
50.0
370
    -2
100
AcDbLine
 10
4795.076719621572
 20
6940.806258213261
 30
0.0
 11
4795.076719621572
 21
6362.808914061051
 31
0.0
  0
LINE
  5
19AA3
330
19981
100
AcDbEntity
  8
寸法
 62
     0
 48
50.0
370
    -2
100
AcDbLine
 10
3970.476719621573
 20
6940.806258213152
 30
0.0
 11
3970.476719621573
 21
6362.808914061051
 31
0.0
  0
LINE
  5
19AA4
330
19981
100
AcDbEntity
  8
寸法
 62
     0
 48
50.0
370
    -2
100
AcDbLine
 10
4795.076719621572
 20
6422.808914061052
 30
0.0
 11
3970.476719621573
 21
6422.808914061052
 31
0.0
  0
INSERT
  5
19AA5
330
19981
100
AcDbEntity
  8
寸法
 62
     0
 48
50.0
370
    -2
100
AcDbBlockReference
  2
_DOTSMALL
 10
4795.076719621572
 20
6422.808914061052
 30
0.0
 41
100.0
 42
100.0
 43
100.0
  0
INSERT
  5
19AA6
330
19981
100
AcDbEntity
  8
寸法
 62
     0
 48
50.0
370
    -2
100
AcDbBlockReference
  2
_DOTSMALL
 10
3970.476719621573
 20
6422.808914061052
 30
0.0
 41
100.0
 42
100.0
 43
100.0
 50
180.0
  0
MTEXT
  5
19AA7
330
19981
100
AcDbEntity
  8
寸法
 62
     7
 48
50.0
100
AcDbMText
 10
4382.776719621571
 20
6622.820725084674
 30
0.0
 40
120.0
 41
0.0
 71
     5
 72
     1
  1
\A1;有効開口部間口\P824
  7
STYLE1
 73
     1
 44
1.0
1001
ACAD
1000
MTEXTBEGIN
1070
    73
1070
     1
1070
    44
1040
1.0
1070
    74
1070
     0
1000
MTEXTEND
  0
POINT
  5
19AA8
330
19981
100
AcDbEntity
  8
DEFPOINTS
 62
     0
 48
50.0
100
AcDbPoint
 10
4795.076719621572
 20
6960.80625821326
 30
0.0
  0
POINT
  5
19AA9
330
19981
100
AcDbEntity
  8
DEFPOINTS
 62
     0
 48
50.0
100
AcDbPoint
 10
3970.476719621573
 20
6960.806258213152
 30
0.0
  0
POINT
  5
19AAA
330
19981
100
AcDbEntity
  8
DEFPOINTS
 62
     0
 48
50.0
100
AcDbPoint
 10
3970.476719621573
 20
6422.808914061052
 30
0.0
  0
ENDBLK
  5
1998C
330
19981
100
AcDbEntity
  8
0
 48
50.0
100
AcDbBlockEnd
  0
BLOCK
  5
19997
330
1998D
100
AcDbEntity
  8
0
 48
50.0
100
AcDbBlockBegin
  2
*D37
 70
     1
 10
0.0
 20
0.0
 30
0.0
  3
*D37
  1

  0
LINE
  5
19AAB
330
1998D
100
AcDbEntity
  8
寸法
 62
     0
 48
50.0
370
    -2
100
AcDbLine
 10
6325.076719621571
 20
6940.806258213263
 30
0.0
 11
6325.076719621571
 21
6362.808914061055
 31
0.0
  0
LINE
  5
19AAC
330
1998D
100
AcDbEntity
  8
寸法
 62
     0
 48
50.0
370
    -2
100
AcDbLine
 10
5500.476719621572
 20
6940.806258213155
 30
0.0
 11
5500.476719621572
 21
6362.808914061055
 31
0.0
  0
LINE
  5
19AAD
330
1998D
100
AcDbEntity
  8
寸法
 62
     0
 48
50.0
370
    -2
100
AcDbLine
 10
6325.076719621571
 20
6422.808914061055
 30
0.0
 11
5500.476719621572
 21
6422.808914061055
 31
0.0
  0
INSERT
  5
19AAE
330
1998D
100
AcDbEntity
  8
寸法
 62
     0
 48
50.0
370
    -2
100
AcDbBlockReference
  2
_DOTSMALL
 10
6325.076719621571
 20
6422.808914061055
 30
0.0
 41
100.0
 42
100.0
 43
100.0
  0
INSERT
  5
19AAF
330
1998D
100
AcDbEntity
  8
寸法
 62
     0
 48
50.0
370
    -2
100
AcDbBlockReference
  2
_DOTSMALL
 10
5500.476719621572
 20
6422.808914061055
 30
0.0
 41
100.0
 42
100.0
 43
100.0
 50
180.0
  0
MTEXT
  5
19AB0
330
1998D
100
AcDbEntity
  8
寸法
 62
     7
 48
50.0
100
AcDbMText
 10
5912.776719621572
 20
6622.820725084676
 30
0.0
 40
120.0
 41
0.0
 71
     5
 72
     1
  1
\A1;有効開口部間口\P824
  7
STYLE1
 73
     1
 44
1.0
1001
ACAD
1000
MTEXTBEGIN
1070
    73
1070
     1
1070
    44
1040
1.0
1070
    74
1070
     0
1000
MTEXTEND
  0
POINT
  5
19AB1
330
1998D
100
AcDbEntity
  8
DEFPOINTS
 62
     0
 48
50.0
100
AcDbPoint
 10
6325.076719621571
 20
6960.806258213263
 30
0.0
  0
POINT
  5
19AB2
330
1998D
100
AcDbEntity
  8
DEFPOINTS
 62
     0
 48
50.0
100
AcDbPoint
 10
5500.476719621572
 20
6960.806258213153
 30
0.0
  0
POINT
  5
19AB3
330
1998D
100
AcDbEntity
  8
DEFPOINTS
 62
     0
 48
50.0
100
AcDbPoint
 10
5500.476719621572
 20
6422.808914061055
 30
0.0
  0
ENDBLK
  5
19998
330
1998D
100
AcDbEntity
  8
0
 48
50.0
100
AcDbBlockEnd
  0
ENDSEC
  0
SECTION
  2
ENTITIES
  0
MTEXT
  5
763F
330
747D
100
AcDbEntity
  8
0
100
AcDbMText
 10
302.846345836809
 20
280.1983726409901
 30
0.0
 40
3.5
 41
5.323721266742722
 71
     1
 72
     5
  1

  7
MSMINCHO
 73
     1
 44
1.0
1001
ACAD
1000
MTEXTBEGIN
1070
    73
1070
     1
1070
    44
1040
1.0
1070
    74
1070
     0
1000
MTEXTEND
  0
LINE
  5
10B57
330
747D
100
AcDbEntity
  8
補助
  6
PHANTOM
 62
   230
 48
50.0
100
AcDbLine
 10
139.9999999999995
 20
11409.6
 30
0.0
 11
16307.2
 21
11409.6
 31
0.0
  0
LINE
  5
10B59
330
747D
100
AcDbEntity
  8
仕様書枠
  6
Continuous
 48
50.0
100
AcDbLine
 10
13107.2
 20
1200.0
 30
0.0
 11
13107.2
 21
-0.0000000000000729
 31
0.0
  0
LINE
  5
10B5D
330
747D
100
AcDbEntity
  8
仕様書枠
 48
50.0
100
AcDbLine
 10
140.0
 20
0.0
 30
0.0
 11
16307.2
 21
-0.0000000000000909
 31
0.0
  0
LINE
  5
10B5E
330
747D
100
AcDbEntity
  8
補助
  6
PHANTOM
 62
   230
 48
50.0
100
AcDbLine
 10
16307.2
 20
11409.6
 30
0.0
 11
16307.2
 21
1200.0
 31
0.0
  0
LINE
  5
10B6C
330
747D
100
AcDbEntity
  8
仕様書枠
 48
50.0
100
AcDbLine
 10
13107.2
 20
1200.0
 30
0.0
 11
16307.2
 21
1200.0
 31
0.0
  0
LINE
  5
10B6D
330
747D
100
AcDbEntity
  8
補助
  6
PHANTOM
 62
   230
 48
50.0
100
AcDbLine
 10
13107.2
 20
11409.6
 30
0.0
 11
13107.2
 21
4800.0
 31
0.0
  0
LINE
  5
10B6F
330
747D
100
AcDbEntity
  8
補助
  6
PHANTOM
 62
   230
 48
50.0
100
AcDbLine
 10
13107.2
 20
4800.0
 30
0.0
 11
16307.2
 21
4800.0
 31
0.0
  0
LINE
  5
10B72
330
747D
100
AcDbEntity
  8
文字
 62
     7
 48
50.0
100
AcDbLine
 10
13187.2
 20
400.0
 30
0.0
 11
16227.2
 21
400.0
 31
0.0
  0
TEXT
  5
10B73
330
747D
100
AcDbEntity
  8
文字
 62
     7
 48
50.0
100
AcDbText
 10
13162.9790565769
 20
895.0906074299405
 30
0.0
 40
200.0
  1
外 形 図
  7
STYLE2
100
AcDbText
  0
TEXT
  5
10B74
330
747D
100
AcDbEntity
  8
文字
 62
     7
 48
50.0
100
AcDbText
 10
13201.43669998441
 20
477.2740661031255
 30
0.0
 40
160.0
  1
機種名
  7
STYLE2
100
AcDbText
  0
LINE
  5
10B7B
330
747D
100
AcDbEntity
  8
仕様書枠
 48
50.0
100
AcDbLine
 10
13107.2
 20
800.0
 30
0.0
 11
14251.2
 21
800.0
 31
0.0
  0
LINE
  5
10B88
330
747D
100
AcDbEntity
  8
仕様書枠
  6
Continuous
 48
50.0
100
AcDbLine
 10
14251.2
 20
1200.0
 30
0.0
 11
14251.2
 21
800.0
 31
0.0
  0
DIMENSION
  5
14521
330
747D
100
AcDbEntity
  8
寸法
100
AcDbDimension
  2
*D2
 10
3965.476719621578
 20
10026.28460815954
 30
0.0
 11
3601.991438247305
 21
10026.28460815954
 31
0.0
 70
   160
 71
     5
 42
55.00000000003456
  3
INABA_S40G
100
AcDbAlignedDimension
 13
3910.476719621544
 23
9590.806258213168
 33
0.0
 14
3965.476719621578
 24
9590.806258213168
 34
0.0
100
AcDbRotatedDimension
1001
ACAD
1000
DSTYLE
1002
{
1002
}
  0
LINE
  5
14523
330
747D
100
AcDbEntity
  8
部品1
100
AcDbLine
 10
3910.476719621544
 20
9590.806258213168
 30
0.0
 11
3910.476719621572
 21
6960.806258213157
 31
0.0
  0
LINE
  5
14524
330
747D
100
AcDbEntity
  8
部品1
100
AcDbLine
 10
8445.476719621579
 20
9590.806258213296
 30
0.0
 11
8445.476719621579
 21
9562.806258213296
 31
0.0
  0
LINE
  5
14525
330
747D
100
AcDbEntity
  8
部品1
100
AcDbLine
 10
8445.476719621579
 20
9590.806258213316
 30
0.0
 11
8445.476719621579
 21
9562.806258213315
 31
0.0
  0
DIMENSION
  5
14526
330
747D
100
AcDbEntity
  8
寸法
100
AcDbDimension
  2
*D3
 10
9436.13451022732
 20
6960.806258213286
 30
0.0
 11
9436.134510227319
 21
8274.689558603903
 31
0.0
 70
   160
 71
     5
 42
2630.00000000001
  3
INABA_S40G
100
AcDbAlignedDimension
 13
8500.476719621579
 23
9590.806258213296
 33
0.0
 14
8500.476719621554
 24
6960.806258213286
 34
0.0
 50
90.0
100
AcDbRotatedDimension
1001
ACAD
1000
DSTYLE
1002
{
1002
}
  0
LINE
  5
14527
330
747D
100
AcDbEntity
  8
部品1
100
AcDbLine
 10
8500.476719621579
 20
9590.806258213296
 30
0.0
 11
8500.476719621554
 21
6960.806258213286
 31
0.0
  0
LINE
  5
14529
330
747D
100
AcDbEntity
  8
部品1
100
AcDbLine
 10
8025.476719621577
 20
9590.806258213316
 30
0.0
 11
8025.476719621577
 21
9562.806258213315
 31
0.0
  0
LINE
  5
1452A
330
747D
100
AcDbEntity
  8
部品1
100
AcDbLine
 10
7445.476719621578
 20
9590.806258213316
 30
0.0
 11
7445.476719621578
 21
9562.806258213315
 31
0.0
  0
LINE
  5
1452B
330
747D
100
AcDbEntity
  8
部品1
100
AcDbLine
 10
7445.476719621578
 20
9590.806258213198
 30
0.0
 11
7445.476719621578
 21
9562.806258213198
 31
0.0
  0
LINE
  5
1452C
330
747D
100
AcDbEntity
  8
部品1
100
AcDbLine
 10
7445.476719621578
 20
9590.8062582132
 30
0.0
 11
7445.476719621578
 21
9562.8062582132
 31
0.0
  0
LINE
  5
1452D
330
747D
100
AcDbEntity
  8
部品1
100
AcDbLine
 10
3965.476719621578
 20
9590.8062582132
 30
0.0
 11
3965.476719621578
 21
9562.8062582132
 31
0.0
  0
DIMENSION
  5
1452E
330
747D
100
AcDbEntity
  8
寸法
100
AcDbDimension
  2
*D4
 10
9147.903065355992
 20
9535.806258213298
 30
0.0
 11
9147.903065355988
 21
9899.291539587537
 31
0.0
 70
   160
 71
     5
 42
54.99999999999636
  3
INABA_S40G
100
AcDbAlignedDimension
 13
8500.476719621579
 23
9590.806258213296
 33
0.0
 14
8500.476719621579
 24
9535.806258213298
 34
0.0
 50
90.0
100
AcDbRotatedDimension
1001
ACAD
1000
DSTYLE
1002
{
1002
}
  0
DIMENSION
  5
14530
330
747D
100
AcDbEntity
  8
寸法
100
AcDbDimension
  2
*D5
 10
9147.903065355967
 20
6960.806258213286
 30
0.0
 11
9147.903065355965
 21
6582.944791308425
 31
0.0
 70
   160
 71
     5
 42
54.99999999999636
  3
INABA_S40G
100
AcDbAlignedDimension
 13
8500.476719621554
 23
7015.806258213283
 33
0.0
 14
8500.476719621554
 24
6960.806258213286
 34
0.0
 50
90.0
100
AcDbRotatedDimension
1001
ACAD
1000
DSTYLE
1002
{
1002
}
  0
DIMENSION
  5
14531
330
747D
100
AcDbEntity
  8
寸法
100
AcDbDimension
  2
*D6
 10
9147.903065355992
 20
7015.806258213283
 30
0.0
 11
9147.903065355988
 21
8275.806258213291
 31
0.0
 70
   160
  1
6X420=<>
 71
     5
 42
2520.000000000016
  3
INABA_S40G
100
AcDbAlignedDimension
 13
8500.476719621579
 23
9535.806258213298
 33
0.0
 14
8500.476719621554
 24
7015.806258213283
 34
0.0
 50
90.0
100
AcDbRotatedDimension
1001
ACAD
1000
DSTYLE
1002
{
1002
}
  0
DIMENSION
  5
14532
330
747D
100
AcDbEntity
  8
寸法
100
AcDbDimension
  2
*D7
 10
8500.476719621554
 20
6196.670288859597
 30
0.0
 11
7735.476719621563
 21
6196.670288859597
 31
0.0
 70
   160
 71
     5
 42
1529.999999999982
  3
INABA_S40G
100
AcDbAlignedDimension
 13
6970.476719621571
 23
6960.806258213122
 33
0.0
 14
8500.476719621554
 24
6960.806258213252
 34
0.0
100
AcDbRotatedDimension
1001
ACAD
1000
DSTYLE
1002
{
1002
}
  0
TEXT
  5
14535
330
747D
100
AcDbEntity
  8
部品1
100
AcDbText
 10
5961.520788416114
 20
5713.735895697729
 30
0.0
 40
135.0
  1
平面図
  7
STYLE2
100
AcDbText
  0
LINE
  5
14538
330
747D
100
AcDbEntity
  8
部品1
100
AcDbLine
 10
8017.476719621781
 20
7062.806258213256
 30
0.0
 11
6998.476719621553
 21
7062.80625821319
 31
0.0
  0
LINE
  5
14542
330
747D
100
AcDbEntity
  8
部品1
100
AcDbLine
 10
8467.476719621579
 20
9562.056258213329
 30
0.0
 11
8467.476719621684
 21
8289.056258213525
 31
0.0
  0
LINE
  5
14543
330
747D
100
AcDbEntity
  8
部品1
100
AcDbLine
 10
3965.476719621578
 20
9562.806258213283
 30
0.0
 11
4485.345470599027
 21
9562.80625821329
 31
0.0
  0
LINE
  5
14544
330
747D
100
AcDbEntity
  8
部品1
100
AcDbLine
 10
8500.476719621554
 20
6960.806258213286
 30
0.0
 11
4974.611072759064
 21
6960.806258213065
 31
0.0
  0
LINE
  5
14546
330
747D
100
AcDbEntity
  8
部品1
100
AcDbLine
 10
3938.476719621553
 20
7015.806258213153
 30
0.0
 11
3938.476719621578
 21
9562.8062582132
 31
0.0
  0
LINE
  5
1454A
330
747D
100
AcDbEntity
  8
部品1
100
AcDbLine
 10
7021.476719621571
 20
6960.806258213157
 30
0.0
 11
6970.476719621571
 21
6960.806258213157
 31
0.0
  0
LINE
  5
1454D
330
747D
100
AcDbEntity
  8
部品1
100
AcDbLine
 10
3938.47671962157
 20
7015.806258213171
 30
0.0
 11
3910.47671962157
 21
7015.806258213171
 31
0.0
  0
LINE
  5
1454F
330
747D
100
AcDbEntity
  8
部品1
100
AcDbLine
 10
3970.476719621569
 20
7015.806258213119
 30
0.0
 11
3942.476719621569
 21
7015.806258213119
 31
0.0
  0
LINE
  5
14550
330
747D
100
AcDbEntity
  8
部品1
100
AcDbLine
 10
3961.476719621572
 20
6960.806258213121
 30
0.0
 11
3961.47671962157
 21
6967.806258213157
 31
0.0
  0
LINE
  5
14551
330
747D
100
AcDbEntity
  8
部品1
100
AcDbLine
 10
3970.47671962157
 20
6967.806258213156
 30
0.0
 11
3961.47671962157
 21
6967.806258213157
 31
0.0
  0
LINE
  5
14552
330
747D
100
AcDbEntity
  8
部品1
100
AcDbLine
 10
3970.47671962157
 20
6967.806258213156
 30
0.0
 11
3970.476719621569
 21
7015.806258213121
 31
0.0
  0
LINE
  5
14558
330
747D
100
AcDbEntity
  8
部品1
100
AcDbLine
 10
3938.476719621558
 20
7435.806258213169
 30
0.0
 11
3910.476719621558
 21
7435.806258213169
 31
0.0
  0
LINE
  5
1455D
330
747D
100
AcDbEntity
  8
部品1
100
AcDbLine
 10
3938.476719621578
 20
9562.806258213168
 30
0.0
 11
4485.345470599048
 21
9562.806258213173
 31
0.0
  0
LINE
  5
1455E
330
747D
100
AcDbEntity
  8
部品1
 48
50.0
100
AcDbLine
 10
8467.476719621572
 20
9562.056258213326
 30
0.0
 11
8017.476719621575
 21
9562.056258213324
 31
0.0
  0
LINE
  5
1455F
330
747D
100
AcDbEntity
  8
部品1
100
AcDbLine
 10
3938.476719621553
 20
8275.806258213171
 30
0.0
 11
3910.476719621552
 21
8275.806258213171
 31
0.0
  0
LINE
  5
14560
330
747D
100
AcDbEntity
  8
部品1
100
AcDbLine
 10
3938.476719621546
 20
9535.806258213172
 30
0.0
 11
3910.476719621545
 21
9535.806258213172
 31
0.0
  0
LINE
  5
14562
330
747D
100
AcDbEntity
  8
部品1
100
AcDbLine
 10
8472.47671962158
 20
9562.806258213296
 30
0.0
 11
8472.476719621566
 21
8288.306258213294
 31
0.0
  0
LINE
  5
1456A
330
747D
100
AcDbEntity
  8
部品1
100
AcDbLine
 10
8500.476719621554
 20
6960.806258213286
 30
0.0
 11
8449.476719621555
 21
6960.806258213286
 31
0.0
  0
LINE
  5
1456B
330
747D
100
AcDbEntity
  8
部品1
100
AcDbLine
 10
8500.476719621554
 20
7015.806258213283
 30
0.0
 11
8500.476719621554
 21
6960.806258213286
 31
0.0
  0
LINE
  5
1456C
330
747D
100
AcDbEntity
  8
部品1
100
AcDbLine
 10
8472.476719621555
 20
7015.806258213283
 30
0.0
 11
8500.476719621554
 21
7015.806258213283
 31
0.0
  0
LINE
  5
1456E
330
747D
100
AcDbEntity
  8
部品1
100
AcDbLine
 10
8440.476719621555
 20
7015.806258213283
 30
0.0
 11
8472.476719621555
 21
7015.806258213283
 31
0.0
  0
LINE
  5
14570
330
747D
100
AcDbEntity
  8
部品1
100
AcDbLine
 10
8449.476719621555
 20
6960.806258213285
 30
0.0
 11
8449.476719621555
 21
6967.806258213286
 31
0.0
  0
LINE
  5
14571
330
747D
100
AcDbEntity
  8
部品1
100
AcDbLine
 10
8449.476719621555
 20
6967.806258213286
 30
0.0
 11
8440.476719621555
 21
6967.806258213286
 31
0.0
  0
LINE
  5
14572
330
747D
100
AcDbEntity
  8
部品1
100
AcDbLine
 10
8440.476719621555
 20
6967.806258213286
 30
0.0
 11
8440.476719621555
 21
7015.806258213283
 31
0.0
  0
LINE
  5
14573
330
747D
100
AcDbEntity
  8
部品1
100
AcDbLine
 10
8472.476719621587
 20
7015.806258213299
 30
0.0
 11
8500.476719621586
 21
7015.806258213299
 31
0.0
  0
LINE
  5
14574
330
747D
100
AcDbEntity
  8
部品1
100
AcDbLine
 10
8472.476719621583
 20
7435.806258213299
 30
0.0
 11
8500.476719621584
 21
7435.806258213299
 31
0.0
  0
LINE
  5
14584
330
747D
100
AcDbEntity
  8
部品1
100
AcDbLine
 10
8467.476719621673
 20
7038.306258213314
 30
0.0
 11
8017.476719621674
 21
7038.306258213314
 31
0.0
  0
LINE
  5
14585
330
747D
100
AcDbEntity
  8
部品1
100
AcDbLine
 10
8472.47671962158
 20
8275.806258213298
 30
0.0
 11
8500.476719621579
 21
8275.806258213298
 31
0.0
  0
LINE
  5
14586
330
747D
100
AcDbEntity
  8
部品1
100
AcDbLine
 10
8472.47671962158
 20
9535.806258213298
 30
0.0
 11
8500.476719621579
 21
9535.806258213298
 31
0.0
  0
DIMENSION
  5
14587
330
747D
100
AcDbEntity
  8
寸法
100
AcDbDimension
  2
*D8
 10
8500.476719621579
 20
10026.28460815967
 30
0.0
 11
8808.962000995817
 21
10026.28460815967
 31
0.0
 70
   160
 71
     5
 42
55.0
  3
INABA_S40G
100
AcDbAlignedDimension
 13
8445.476719621579
 23
9590.806258213296
 33
0.0
 14
8500.476719621579
 24
9590.806258213296
 34
0.0
100
AcDbRotatedDimension
1001
ACAD
1000
DSTYLE
1002
{
1002
}
  0
LINE
  5
14588
330
747D
100
AcDbEntity
  8
部品1
100
AcDbLine
 10
3910.476719621578
 20
9590.806258213168
 30
0.0
 11
4480.408315139208
 21
9590.806258213186
 31
0.0
  0
LINE
  5
14C0C
330
747D
100
AcDbEntity
  8
部品1
100
AcDbLine
 10
8017.476719621777
 20
7091.306258213255
 30
0.0
 11
7026.976719621472
 21
7091.306258213193
 31
0.0
  0
LINE
  5
14C0E
330
747D
100
AcDbEntity
  8
破線
 48
10.0
100
AcDbLine
 10
8017.476719621773
 20
7114.80625821326
 30
0.0
 11
7050.476719621565
 21
7114.806258213191
 31
0.0
  0
LINE
  5
14C31
330
747D
100
AcDbEntity
  8
部品1
100
AcDbLine
 10
7026.976719621547
 20
9534.306258213318
 30
0.0
 11
7026.976719621568
 21
7091.306258213288
 31
0.0
  0
LINE
  5
14C32
330
747D
100
AcDbEntity
  8
破線
 48
10.0
100
AcDbLine
 10
7050.476719621546
 20
9510.806258213317
 30
0.0
 11
7050.476719621555
 21
8740.806258213162
 31
0.0
  0
LINE
  5
14C33
330
747D
100
AcDbEntity
  8
部品1
 48
50.0
100
AcDbLine
 10
7026.976719621568
 20
7091.306258213288
 30
0.0
 11
6998.47671962157
 21
7062.80625821329
 31
0.0
  0
LINE
  5
15381
330
747D
100
AcDbEntity
  8
破線
 48
10.0
100
AcDbLine
 10
8017.476719621583
 20
9510.806258213381
 30
0.0
 11
7050.476719621546
 21
9510.806258213317
 31
0.0
  0
LINE
  5
15382
330
747D
100
AcDbEntity
  8
部品1
100
AcDbLine
 10
7026.976719621547
 20
9534.306258213318
 30
0.0
 11
8017.476719621582
 21
9534.306258213316
 31
0.0
  0
LINE
  5
153C1
330
747D
100
AcDbEntity
  8
部品1
 48
50.0
100
AcDbLine
 10
7498.47671962158
 20
9534.306258213318
 30
0.0
 11
7498.476719621669
 21
7091.306258213222
 31
0.0
  0
DIMENSION
  5
1540B
330
747D
100
AcDbEntity
  8
寸法
 48
50.0
100
AcDbDimension
  2
*D9
 10
7946.040347805283
 20
9824.910427340107
 30
0.0
 11
8161.521543113304
 21
9824.910427340107
 31
0.0
 70
   160
 71
     5
 42
449.9999999999982
  3
INABA_S40G
100
AcDbAlignedDimension
 13
8467.476719621574
 23
9558.306258213317
 33
0.0
 14
8017.476719621576
 24
9558.306258213315
 34
0.0
100
AcDbRotatedDimension
  0
LINE
  5
154D6
330
747D
100
AcDbEntity
  8
仕様書枠
 48
50.0
100
AcDbLine
 10
16307.2
 20
1200.0
 30
0.0
 11
16307.2
 21
-0.0000000000000909
 31
0.0
  0
LINE
  5
15605
330
747D
100
AcDbEntity
  8
部品1
100
AcDbLine
 10
7021.476719621571
 20
6960.806258213124
 30
0.0
 11
7021.476719621571
 21
6967.80625821316
 31
0.0
  0
LINE
  5
15606
330
747D
100
AcDbEntity
  8
部品1
100
AcDbLine
 10
7030.476719621571
 20
6967.806258213157
 30
0.0
 11
7021.476719621571
 21
6967.80625821316
 31
0.0
  0
LINE
  5
15607
330
747D
100
AcDbEntity
  8
部品1
100
AcDbLine
 10
7030.476719621571
 20
6967.806258213157
 30
0.0
 11
7030.476719621567
 21
7015.806258213125
 31
0.0
  0
LINE
  5
15608
330
747D
100
AcDbEntity
  8
部品1
100
AcDbLine
 10
6910.47671962157
 20
6967.806258213157
 30
0.0
 11
6910.476719621567
 21
7015.806258213125
 31
0.0
  0
LINE
  5
15609
330
747D
100
AcDbEntity
  8
部品1
100
AcDbLine
 10
6919.476719621569
 20
6967.806258213153
 30
0.0
 11
6910.47671962157
 21
6967.806258213153
 31
0.0
  0
LINE
  5
1560A
330
747D
100
AcDbEntity
  8
部品1
100
AcDbLine
 10
6919.476719621572
 20
6960.806258213117
 30
0.0
 11
6919.476719621569
 21
6967.806258213153
 31
0.0
  0
LINE
  5
1560B
330
747D
100
AcDbEntity
  8
部品1
 48
50.0
100
AcDbLine
 10
6910.476719621567
 20
7015.806258213125
 30
0.0
 11
6933.476719621568
 21
7015.806258213125
 31
0.0
  0
LINE
  5
1560C
330
747D
100
AcDbEntity
  8
部品1
 48
50.0
100
AcDbLine
 10
7030.476719621567
 20
7015.806258213125
 30
0.0
 11
7007.476719621569
 21
7015.806258213125
 31
0.0
  0
LINE
  5
15611
330
747D
100
AcDbEntity
  8
部品1
 48
50.0
100
AcDbLine
 10
6998.476719621535
 20
7015.806258213122
 30
0.0
 11
6942.476719621537
 21
7015.806258213122
 31
0.0
  0
LINE
  5
15612
330
747D
100
AcDbEntity
  8
部品1
100
AcDbLine
 10
7025.476719621578
 20
9590.8062582132
 30
0.0
 11
7025.476719621578
 21
9562.8062582132
 31
0.0
  0
LINE
  5
15613
330
747D
100
AcDbEntity
  8
部品1
100
AcDbLine
 10
6998.476719621546
 20
9535.806258213172
 30
0.0
 11
6942.476719621545
 21
9535.806258213172
 31
0.0
  0
LINE
  5
15614
330
747D
100
AcDbEntity
  8
部品1
100
AcDbLine
 10
6915.476719621579
 20
9590.8062582132
 30
0.0
 11
6915.476719621579
 21
9562.8062582132
 31
0.0
  0
LINE
  5
15624
330
747D
100
AcDbEntity
  8
部品1
 48
50.0
100
AcDbLine
 10
6998.476719621546
 20
9535.806258213172
 30
0.0
 11
6998.476719621546
 21
9590.806258213255
 31
0.0
  0
LINE
  5
15625
330
747D
100
AcDbEntity
  8
部品1
 48
50.0
100
AcDbLine
 10
6942.476719621545
 20
9535.806258213172
 30
0.0
 11
6942.476719621545
 21
9562.806258213198
 31
0.0
  0
LINE
  5
15628
330
747D
100
AcDbEntity
  8
部品1
100
AcDbLine
 10
7025.476719621578
 20
9562.8062582132
 30
0.0
 11
7445.476719621578
 21
9562.806258213205
 31
0.0
  0
LINE
  5
15629
330
747D
100
AcDbEntity
  8
部品1
100
AcDbLine
 10
6998.476719621546
 20
9562.806258213305
 30
0.0
 11
8472.47671962158
 21
9562.806258213313
 31
0.0
  0
LINE
  5
1562A
330
747D
100
AcDbEntity
  8
部品1
 48
50.0
100
AcDbLine
 10
6942.476719621545
 20
9562.806258213198
 30
0.0
 11
6970.476719621544
 21
9562.806258213198
 31
0.0
  0
LINE
  5
1562B
330
747D
100
AcDbEntity
  8
部品1
 48
50.0
100
AcDbLine
 10
6970.476719621544
 20
9562.806258213198
 30
0.0
 11
6942.476719621545
 21
9590.806258213252
 31
0.0
  0
LINE
  5
1562C
330
747D
100
AcDbEntity
  8
部品1
100
AcDbLine
 10
6942.47671962151
 20
9562.806258213198
 30
0.0
 11
6942.476719621524
 21
8288.306258213294
 31
0.0
  0
LINE
  5
1562D
330
747D
100
AcDbEntity
  8
部品1
100
AcDbLine
 10
6970.476719621519
 20
7015.806258213185
 30
0.0
 11
6970.476719621544
 21
9535.806258213169
 31
0.0
  0
LINE
  5
1562E
330
747D
100
AcDbEntity
  8
部品1
100
AcDbLine
 10
6970.476719621522
 20
7435.806258213201
 30
0.0
 11
6942.476719621524
 21
7435.806258213201
 31
0.0
  0
LINE
  5
1562F
330
747D
100
AcDbEntity
  8
部品1
100
AcDbLine
 10
6970.476719621519
 20
8275.806258213201
 30
0.0
 11
6942.476719621518
 21
8275.806258213201
 31
0.0
  0
LINE
  5
15630
330
747D
100
AcDbEntity
  8
部品1
100
AcDbLine
 10
6998.47671962151
 20
9535.806258213172
 30
0.0
 11
6998.476719621537
 21
6960.806258213188
 31
0.0
  0
LINE
  5
15631
330
747D
100
AcDbEntity
  8
部品1
 48
50.0
100
AcDbLine
 10
6942.476719621545
 20
9562.806258213303
 30
0.0
 11
6942.476719621544
 21
9590.806258213252
 31
0.0
  0
DIMENSION
  5
15633
330
747D
100
AcDbEntity
  8
寸法
100
AcDbDimension
  2
*D10
 10
6970.476719621554
 20
6196.670288859597
 30
0.0
 11
6125.476719621563
 21
6196.670288859597
 31
0.0
 70
   160
 71
     5
 42
1529.999999999982
  3
INABA_S40G
100
AcDbAlignedDimension
 13
5440.476719621571
 23
6960.806258213122
 33
0.0
 14
6970.476719621554
 24
6960.806258213252
 34
0.0
100
AcDbRotatedDimension
1001
ACAD
1000
DSTYLE
1002
{
1002
}
  0
LINE
  5
15682
330
747D
100
AcDbEntity
  8
破線
 48
10.0
100
AcDbLine
 10
6487.476719621773
 20
7114.80625821326
 30
0.0
 11
5520.476719621566
 21
7114.806258213191
 31
0.0
  0
LINE
  5
15683
330
747D
100
AcDbEntity
  8
部品1
100
AcDbLine
 10
6487.476719621778
 20
7091.306258213255
 30
0.0
 11
5496.976719621472
 21
7091.306258213193
 31
0.0
  0
LINE
  5
15684
330
747D
100
AcDbEntity
  8
部品1
100
AcDbLine
 10
6487.47671962178
 20
7062.806258213256
 30
0.0
 11
5468.476719621552
 21
7062.80625821319
 31
0.0
  0
LINE
  5
15685
330
747D
100
AcDbEntity
  8
部品1
 48
50.0
100
AcDbLine
 10
5968.47671962158
 20
9534.306258213318
 30
0.0
 11
5968.476719621669
 21
7091.306258213222
 31
0.0
  0
LINE
  5
15686
330
747D
100
AcDbEntity
  8
破線
 48
10.0
100
AcDbLine
 10
5520.476719621546
 20
9510.806258213317
 30
0.0
 11
5520.476719621554
 21
8740.806258213162
 31
0.0
  0
LINE
  5
15687
330
747D
100
AcDbEntity
  8
部品1
100
AcDbLine
 10
5496.976719621547
 20
9534.306258213318
 30
0.0
 11
5496.976719621568
 21
7091.306258213288
 31
0.0
  0
LINE
  5
15688
330
747D
100
AcDbEntity
  8
部品1
 48
50.0
100
AcDbLine
 10
5496.976719621568
 20
7091.306258213288
 30
0.0
 11
5468.47671962157
 21
7062.80625821329
 31
0.0
  0
LINE
  5
15689
330
747D
100
AcDbEntity
  8
部品1
100
AcDbLine
 10
5496.976719621547
 20
9534.306258213318
 30
0.0
 11
6487.476719621581
 21
9534.306258213316
 31
0.0
  0
LINE
  5
1568A
330
747D
100
AcDbEntity
  8
破線
 48
10.0
100
AcDbLine
 10
6487.476719621584
 20
9510.806258213381
 30
0.0
 11
5520.476719621546
 21
9510.806258213317
 31
0.0
  0
LINE
  5
156C2
330
747D
100
AcDbEntity
  8
部品1
100
AcDbLine
 10
5407.476719621673
 20
7038.306258213314
 30
0.0
 11
4960.945731754115
 21
7038.306258213314
 31
0.0
  0
LINE
  5
156C5
330
747D
100
AcDbEntity
  8
破線
 48
10.0
100
AcDbLine
 10
4957.476719621773
 20
7114.80625821326
 30
0.0
 11
4947.456717729927
 21
7114.806258213261
 31
0.0
  0
LINE
  5
156C6
330
747D
100
AcDbEntity
  8
部品1
100
AcDbLine
 10
4957.476719621777
 20
7091.306258213255
 30
0.0
 11
4951.600401776574
 21
7091.306258213257
 31
0.0
  0
LINE
  5
156C7
330
747D
100
AcDbEntity
  8
部品1
100
AcDbLine
 10
4957.47671962178
 20
7062.806258213256
 30
0.0
 11
4956.625720726766
 21
7062.806258213256
 31
0.0
  0
LINE
  5
156C8
330
747D
100
AcDbEntity
  8
部品1
 48
50.0
100
AcDbLine
 10
4438.476719621579
 20
9534.306258213318
 30
0.0
 11
4438.476719621673
 21
7091.306258213219
 31
0.0
  0
LINE
  5
156C9
330
747D
100
AcDbEntity
  8
破線
 48
10.0
100
AcDbLine
 10
3990.476719621546
 20
9510.806258213317
 30
0.0
 11
3990.476719621554
 21
8740.806258213162
 31
0.0
  0
LINE
  5
156CA
330
747D
100
AcDbEntity
  8
部品1
100
AcDbLine
 10
3966.976719621547
 20
9534.306258213318
 30
0.0
 11
3966.976719621568
 21
7091.306258213288
 31
0.0
  0
LINE
  5
156CB
330
747D
100
AcDbEntity
  8
部品1
 48
50.0
100
AcDbLine
 10
3966.976719621568
 20
7091.306258213288
 30
0.0
 11
3938.47671962157
 21
7062.80625821329
 31
0.0
  0
LINE
  5
156CC
330
747D
100
AcDbEntity
  8
部品1
100
AcDbLine
 10
3966.976719621547
 20
9534.306258213318
 30
0.0
 11
4490.370789549214
 21
9534.306258213318
 31
0.0
  0
LINE
  5
156CD
330
747D
100
AcDbEntity
  8
破線
 48
10.0
100
AcDbLine
 10
4957.476719621585
 20
9510.806258213381
 30
0.0
 11
4524.977271952422
 21
9510.806258213364
 31
0.0
  0
LINE
  5
156DE
330
747D
100
AcDbEntity
  8
部品1
100
AcDbLine
 10
5440.476719621519
 20
7015.806258213185
 30
0.0
 11
5440.476719621543
 21
9535.806258213169
 31
0.0
  0
LINE
  5
156DF
330
747D
100
AcDbEntity
  8
部品1
100
AcDbLine
 10
5468.47671962151
 20
9535.806258213172
 30
0.0
 11
5468.476719621538
 21
6960.806258213188
 31
0.0
  0
LINE
  5
156E0
330
747D
100
AcDbEntity
  8
部品1
100
AcDbLine
 10
5412.476719621509
 20
9562.806258213198
 30
0.0
 11
5412.476719621523
 21
8288.306258213294
 31
0.0
  0
LINE
  5
156E1
330
747D
100
AcDbEntity
  8
部品1
 48
50.0
100
AcDbLine
 10
5468.476719621536
 20
7015.806258213122
 30
0.0
 11
5412.476719621537
 21
7015.806258213122
 31
0.0
  0
LINE
  5
156E2
330
747D
100
AcDbEntity
  8
部品1
 48
50.0
100
AcDbLine
 10
5500.476719621568
 20
7015.806258213125
 30
0.0
 11
5477.476719621568
 21
7015.806258213125
 31
0.0
  0
LINE
  5
156E3
330
747D
100
AcDbEntity
  8
部品1
 48
50.0
100
AcDbLine
 10
5380.476719621568
 20
7015.806258213125
 30
0.0
 11
5403.476719621568
 21
7015.806258213125
 31
0.0
  0
LINE
  5
156E4
330
747D
100
AcDbEntity
  8
部品1
100
AcDbLine
 10
5380.47671962157
 20
6967.806258213157
 30
0.0
 11
5380.476719621568
 21
7015.806258213125
 31
0.0
  0
LINE
  5
156E5
330
747D
100
AcDbEntity
  8
部品1
100
AcDbLine
 10
5500.47671962157
 20
6967.806258213157
 30
0.0
 11
5500.476719621568
 21
7015.806258213125
 31
0.0
  0
LINE
  5
156E6
330
747D
100
AcDbEntity
  8
部品1
100
AcDbLine
 10
5389.476719621569
 20
6967.806258213153
 30
0.0
 11
5380.47671962157
 21
6967.806258213153
 31
0.0
  0
LINE
  5
156E7
330
747D
100
AcDbEntity
  8
部品1
100
AcDbLine
 10
5389.476719621572
 20
6960.806258213117
 30
0.0
 11
5389.476719621569
 21
6967.806258213153
 31
0.0
  0
LINE
  5
156E8
330
747D
100
AcDbEntity
  8
部品1
100
AcDbLine
 10
5500.47671962157
 20
6967.806258213157
 30
0.0
 11
5491.476719621569
 21
6967.80625821316
 31
0.0
  0
LINE
  5
156E9
330
747D
100
AcDbEntity
  8
部品1
100
AcDbLine
 10
5491.476719621572
 20
6960.806258213124
 30
0.0
 11
5491.476719621569
 21
6967.80625821316
 31
0.0
  0
LINE
  5
156EA
330
747D
100
AcDbEntity
  8
部品1
100
AcDbLine
 10
5440.476719621523
 20
7435.806258213201
 30
0.0
 11
5412.476719621523
 21
7435.806258213201
 31
0.0
  0
LINE
  5
156EB
330
747D
100
AcDbEntity
  8
部品1
100
AcDbLine
 10
5440.476719621518
 20
8275.806258213201
 30
0.0
 11
5412.476719621518
 21
8275.806258213201
 31
0.0
  0
LINE
  5
156EC
330
747D
100
AcDbEntity
  8
部品1
 48
50.0
100
AcDbLine
 10
5440.476719621543
 20
9562.806258213198
 30
0.0
 11
5412.476719621545
 21
9590.806258213252
 31
0.0
  0
LINE
  5
156ED
330
747D
100
AcDbEntity
  8
部品1
 48
50.0
100
AcDbLine
 10
5412.476719621545
 20
9562.806258213198
 30
0.0
 11
5440.476719621543
 21
9562.806258213198
 31
0.0
  0
LINE
  5
156EE
330
747D
100
AcDbEntity
  8
部品1
100
AcDbLine
 10
5468.476719621545
 20
9535.806258213172
 30
0.0
 11
5412.476719621545
 21
9535.806258213172
 31
0.0
  0
LINE
  5
156EF
330
747D
100
AcDbEntity
  8
部品1
 48
50.0
100
AcDbLine
 10
5412.476719621545
 20
9562.806258213303
 30
0.0
 11
5412.476719621544
 21
9590.806258213252
 31
0.0
  0
LINE
  5
156F0
330
747D
100
AcDbEntity
  8
部品1
 48
50.0
100
AcDbLine
 10
5468.476719621545
 20
9535.806258213172
 30
0.0
 11
5468.476719621545
 21
9590.806258213255
 31
0.0
  0
LINE
  5
156F1
330
747D
100
AcDbEntity
  8
部品1
100
AcDbLine
 10
5385.476719621578
 20
9590.8062582132
 30
0.0
 11
5385.476719621578
 21
9562.8062582132
 31
0.0
  0
LINE
  5
156F2
330
747D
100
AcDbEntity
  8
部品1
100
AcDbLine
 10
5495.476719621578
 20
9590.8062582132
 30
0.0
 11
5495.476719621578
 21
9562.8062582132
 31
0.0
  0
LINE
  5
156F3
330
747D
100
AcDbEntity
  8
部品1
100
AcDbLine
 10
5468.476719621545
 20
9562.806258213294
 30
0.0
 11
6942.476719621545
 21
9562.806258213303
 31
0.0
  0
LINE
  5
156F4
330
747D
100
AcDbEntity
  8
部品1
100
AcDbLine
 10
5468.476719621545
 20
9562.80625821318
 30
0.0
 11
6915.476719621579
 21
9562.806258213198
 31
0.0
  0
DIMENSION
  5
15727
330
747D
100
AcDbEntity
  8
寸法
 48
50.0
100
AcDbDimension
  2
*D11
 10
6915.476719621579
 20
10026.28460815969
 30
0.0
 11
6970.476719621578
 21
10026.28460815969
 31
0.0
 70
   160
 71
     5
 42
110.0
  3
INABA_S40G
100
AcDbAlignedDimension
 13
7025.476719621578
 23
9590.806258213168
 33
0.0
 14
6915.476719621579
 24
9590.806258213168
 34
0.0
100
AcDbRotatedDimension
  0
DIMENSION
  5
15735
330
747D
100
AcDbEntity
  8
寸法
 48
50.0
100
AcDbDimension
  2
*D12
 10
5385.476719621578
 20
10026.28460815969
 30
0.0
 11
5440.476719621578
 21
10026.28460815969
 31
0.0
 70
   160
 71
     5
 42
109.9999999999991
  3
INABA_S40G
100
AcDbAlignedDimension
 13
5495.476719621578
 23
9590.806258213211
 33
0.0
 14
5385.476719621578
 24
9590.806258213296
 34
0.0
100
AcDbRotatedDimension
  0
LINE
  5
157F1
330
747D
100
AcDbEntity
  8
寸法
 48
50.0
100
AcDbLine
 10
4502.188704612424
 20
9640.046645863797
 30
0.0
 11
4705.979731280141
 21
8484.290301321982
 31
0.0
  0
LINE
  5
157F2
330
747D
100
AcDbEntity
  8
寸法
 48
50.0
100
AcDbLine
 10
4471.725906255862
 20
9640.046645863797
 30
0.0
 11
4680.43284668389
 21
8456.410768986259
 31
0.0
  0
LINE
  5
157F3
330
747D
100
AcDbEntity
  8
寸法
 48
50.0
100
AcDbLine
 10
4749.791152119086
 20
8235.823386826456
 30
0.0
 11
4983.293481642407
 21
6911.565870562455
 31
0.0
  0
LINE
  5
157F4
330
747D
100
AcDbEntity
  8
寸法
 48
50.0
100
AcDbLine
 10
4724.244267522834
 20
8207.943854490734
 30
0.0
 11
4952.830683285837
 21
6911.565870562455
 31
0.0
  0
LINE
  5
157F5
330
747D
100
AcDbEntity
  8
寸法
 48
50.0
100
AcDbLine
 10
4878.906856862193
 20
8439.04654309113
 30
0.0
 11
4437.16699283308
 21
8233.059861582008
 31
0.0
  0
LINE
  5
157F6
330
747D
100
AcDbEntity
  8
寸法
 48
50.0
100
AcDbLine
 10
4993.057005969896
 20
8459.174294230711
 30
0.0
 11
4551.317141940784
 21
8253.187612721589
 31
0.0
  0
LINE
  5
157F7
330
747D
100
AcDbEntity
  8
寸法
 48
50.0
100
AcDbLine
 10
4749.791152119086
 20
8235.823386826456
 30
0.0
 11
4551.317141940786
 21
8253.187612721589
 31
0.0
  0
LINE
  5
157F8
330
747D
100
AcDbEntity
  8
寸法
 48
50.0
100
AcDbLine
 10
4724.244267522834
 20
8207.943854490734
 30
0.0
 11
4437.16699283308
 21
8233.059861582008
 31
0.0
  0
LINE
  5
157F9
330
747D
100
AcDbEntity
  8
寸法
 48
50.0
100
AcDbLine
 10
4705.97973128014
 20
8484.290301321982
 30
0.0
 11
4993.057005969896
 21
8459.174294230711
 31
0.0
  0
LINE
  5
157FA
330
747D
100
AcDbEntity
  8
寸法
 48
50.0
100
AcDbLine
 10
4680.43284668389
 20
8456.410768986259
 30
0.0
 11
4878.906856862193
 21
8439.04654309113
 31
0.0
  0
LINE
  5
157FC
330
747D
100
AcDbEntity
  8
部品1
100
AcDbLine
 10
4944.148274402491
 20
6960.806258213063
 30
0.0
 11
3910.476719621572
 21
6960.806258213004
 31
0.0
  0
LINE
  5
15800
330
747D
100
AcDbEntity
  8
部品1
100
AcDbLine
 10
4926.162922370195
 20
7062.806258213251
 30
0.0
 11
3938.476719621553
 21
7062.80625821319
 31
0.0
  0
LINE
  5
15801
330
747D
100
AcDbEntity
  8
部品1
100
AcDbLine
 10
4921.137603420003
 20
7091.306258213255
 30
0.0
 11
3966.976719621473
 21
7091.306258213193
 31
0.0
  0
LINE
  5
15802
330
747D
100
AcDbEntity
  8
破線
 48
10.0
100
AcDbLine
 10
4916.993919373354
 20
7114.806258213255
 30
0.0
 11
3990.476719621565
 21
7114.806258213191
 31
0.0
  0
LINE
  5
15805
330
747D
100
AcDbEntity
  8
破線
 48
10.0
100
AcDbLine
 10
4494.514473595853
 20
9510.806258213369
 30
0.0
 11
3990.476719621546
 21
9510.806258213317
 31
0.0
  0
LINE
  5
15806
330
747D
100
AcDbEntity
  8
部品1
100
AcDbLine
 10
4520.83358790578
 20
9534.306258213318
 30
0.0
 11
4957.476719621581
 21
9534.306258213316
 31
0.0
  0
LINE
  5
15807
330
747D
100
AcDbEntity
  8
部品1
100
AcDbLine
 10
4515.808268955594
 20
9562.806258213294
 30
0.0
 11
5440.476719621448
 21
9562.806258213294
 31
0.0
  0
LINE
  5
15808
330
747D
100
AcDbEntity
  8
部品1
100
AcDbLine
 10
4510.871113495775
 20
9590.80625821319
 30
0.0
 11
8500.476719621579
 21
9590.806258213296
 31
0.0
  0
LINE
  5
1580A
330
747D
100
AcDbEntity
  8
寸法
  6
ByBlock
 48
50.0
100
AcDbLine
 10
3910.476719621572
 20
6940.806258213122
 30
0.0
 11
3910.476719621572
 21
6136.670288859598
 31
0.0
  0
LINE
  5
1580B
330
747D
100
AcDbEntity
  8
寸法
  6
ByBlock
 48
50.0
100
AcDbLine
 10
5440.476719621553
 20
6940.806258213251
 30
0.0
 11
5440.476719621553
 21
6136.670288859598
 31
0.0
  0
LINE
  5
1580C
330
747D
100
AcDbEntity
  8
寸法
  6
ByBlock
 48
50.0
100
AcDbLine
 10
3910.476719621572
 20
6196.670288859597
 30
0.0
 11
4256.700049019091
 21
6196.670288859597
 31
0.0
  0
INSERT
  5
1580D
330
747D
100
AcDbEntity
  8
寸法
  6
ByBlock
 48
50.0
100
AcDbBlockReference
  2
_DOTSMALL
 10
3910.476719621572
 20
6196.670288859597
 30
0.0
 41
100.0
 42
100.0
 43
100.0
 50
180.0
  0
INSERT
  5
1580E
330
747D
100
AcDbEntity
  8
寸法
  6
ByBlock
 48
50.0
100
AcDbBlockReference
  2
_DOTSMALL
 10
5440.476719621553
 20
6196.670288859597
 30
0.0
 41
100.0
 42
100.0
 43
100.0
  0
MTEXT
  5
1580F
330
747D
100
AcDbEntity
  8
部品1
  6
ByBlock
 48
50.0
100
AcDbMText
 10
4112.556550854905
 20
6296.670288859598
 30
0.0
 40
120.0
 41
0.0
 71
     5
 72
     1
  1
\A1;1530
  7
STYLE1
 73
     1
 44
1.0
1001
ACAD
1000
MTEXTBEGIN
1070
    73
1070
     1
1070
    44
1040
1.0
1070
    74
1070
     0
1000
MTEXTEND
  0
POINT
  5
15812
330
747D
100
AcDbEntity
  8
寸法
  6
ByBlock
 48
50.0
100
AcDbPoint
 10
5440.476719621553
 20
6196.670288859597
 30
0.0
  0
LINE
  5
15815
330
747D
100
AcDbEntity
  8
寸法
  6
ByBlock
 48
50.0
100
AcDbLine
 10
3965.476719621578
 20
9610.806258213168
 30
0.0
 11
3965.476719621578
 21
10086.28460815969
 31
0.0
  0
LINE
  5
15816
330
747D
100
AcDbEntity
  8
寸法
  6
ByBlock
 48
50.0
100
AcDbLine
 10
5385.476719621578
 20
9610.806258213296
 30
0.0
 11
5385.476719621578
 21
10086.28460815969
 31
0.0
  0
LINE
  5
15817
330
747D
100
AcDbEntity
  8
寸法
  6
ByBlock
 48
50.0
100
AcDbLine
 10
3965.476719621578
 20
10026.28460815969
 30
0.0
 11
4306.930209730606
 21
10026.28460815969
 31
0.0
  0
INSERT
  5
15818
330
747D
100
AcDbEntity
  8
寸法
  6
ByBlock
 48
50.0
100
AcDbBlockReference
  2
_DOTSMALL
 10
3965.476719621578
 20
10026.28460815969
 30
0.0
 41
100.0
 42
100.0
 43
100.0
 50
180.0
  0
INSERT
  5
15819
330
747D
100
AcDbEntity
  8
寸法
  6
ByBlock
 48
50.0
100
AcDbBlockReference
  2
_DOTSMALL
 10
5385.476719621578
 20
10026.28460815969
 30
0.0
 41
100.0
 42
100.0
 43
100.0
  0
MTEXT
  5
1581A
330
747D
100
AcDbEntity
  8
部品1
  6
ByBlock
 48
50.0
100
AcDbMText
 10
4153.396986127584
 20
10126.29641918331
 30
0.0
 40
120.0
 41
0.0
 71
     5
 72
     1
  1
\A1;1420
  7
STYLE1
 73
     1
 44
1.0
1001
ACAD
1000
MTEXTBEGIN
1070
    73
1070
     1
1070
    44
1040
1.0
1070
    74
1070
     0
1000
MTEXTEND
  0
POINT
  5
1581D
330
747D
100
AcDbEntity
  8
寸法
  6
ByBlock
 48
50.0
100
AcDbPoint
 10
5385.476719621578
 20
10026.28460815969
 30
0.0
  0
LINE
  5
1581E
330
747D
100
AcDbEntity
  8
寸法
  6
ByBlock
 48
50.0
100
AcDbLine
 10
5084.388857636499
 20
6196.670288859597
 30
0.0
 11
5440.476719621553
 21
6196.670288859597
 31
0.0
  0
LINE
  5
1581F
330
747D
100
AcDbEntity
  8
寸法
  6
ByBlock
 48
50.0
100
AcDbLine
 10
4934.419669480398
 20
10026.28460815969
 30
0.0
 11
5385.476719621578
 21
10026.28460815969
 31
0.0
  0
MTEXT
  5
1583A
330
747D
100
AcDbEntity
  8
部品1
  6
ByBlock
 48
50.0
100
AcDbMText
 10
5221.738523515946
 20
6296.670288859598
 30
0.0
 40
120.0
 41
0.0
 71
     5
 72
     1
  1
\A1;1530
  7
STYLE1
 73
     1
 44
1.0
1001
ACAD
1000
MTEXTBEGIN
1070
    73
1070
     1
1070
    44
1040
1.0
1070
    74
1070
     0
1000
MTEXTEND
  0
MTEXT
  5
1583B
330
747D
100
AcDbEntity
  8
部品1
  6
ByBlock
 48
50.0
100
AcDbMText
 10
5091.121199629969
 20
10126.29641918331
 30
0.0
 40
120.0
 41
0.0
 71
     5
 72
     1
  1
\A1;1420
  7
STYLE1
 73
     1
 44
1.0
1001
ACAD
1000
MTEXTBEGIN
1070
    73
1070
     1
1070
    44
1040
1.0
1070
    74
1070
     0
1000
MTEXTEND
  0
LINE
  5
15874
330
747D
100
AcDbEntity
  8
部品1
 48
50.0
100
AcDbLine
 10
5915.47671962158
 20
9562.806258213296
 30
0.0
 11
5915.47671962158
 21
9590.806258213225
 31
0.0
  0
LINE
  5
15875
330
747D
100
AcDbEntity
  8
部品1
 48
50.0
100
AcDbLine
 10
6495.476719621578
 20
9562.806258213296
 30
0.0
 11
6495.476719621578
 21
9590.806258213225
 31
0.0
  0
LINE
  5
15876
330
747D
100
AcDbEntity
  8
部品1
 48
50.0
100
AcDbLine
 10
4385.476719621578
 20
9562.806258213296
 30
0.0
 11
4385.476719621578
 21
9590.806258213225
 31
0.0
  0
LINE
  5
15877
330
747D
100
AcDbEntity
  8
部品1
 48
50.0
100
AcDbLine
 10
4965.476719621579
 20
9562.806258213296
 30
0.0
 11
4965.476719621579
 21
9590.806258213225
 31
0.0
  0
LINE
  5
16023
330
747D
100
AcDbEntity
  8
破線
 48
10.0
100
AcDbLine
 10
3990.476719621555
 20
8690.806258213163
 30
0.0
 11
3990.476719621561
 21
7935.806258213164
 31
0.0
  0
LINE
  5
16024
330
747D
100
AcDbEntity
  8
破線
 48
10.0
100
AcDbLine
 10
5520.476719621554
 20
8690.806258213163
 30
0.0
 11
5520.476719621559
 21
7935.806258213164
 31
0.0
  0
LINE
  5
1602A
330
747D
100
AcDbEntity
  8
部品1
100
AcDbLine
 10
8484.476719621554
 20
8301.806258213291
 30
0.0
 11
8472.476719621555
 21
8301.806258213291
 31
0.0
  0
LINE
  5
1602C
330
747D
100
AcDbEntity
  8
部品1
100
AcDbLine
 10
8484.476719621554
 20
8249.806258213292
 30
0.0
 11
8472.476719621555
 21
8249.806258213292
 31
0.0
  0
LINE
  5
1602D
330
747D
100
AcDbEntity
  8
部品1
100
AcDbLine
 10
8442.47671962155
 20
8288.306258213292
 30
0.0
 11
8442.476719621554
 21
8263.306258213292
 31
0.0
  0
LINE
  5
1602E
330
747D
100
AcDbEntity
  8
部品1
 48
50.0
100
AcDbLine
 10
8472.476719621559
 20
8263.306258213292
 30
0.0
 11
8020.476719621559
 21
8263.306258213292
 31
0.0
  0
LINE
  5
1602F
330
747D
100
AcDbEntity
  8
部品1
 48
50.0
100
AcDbLine
 10
8472.476719621562
 20
8288.306258213294
 30
0.0
 11
8020.476719621559
 21
8288.306258213292
 31
0.0
  0
LINE
  5
16030
330
747D
100
AcDbEntity
  8
細線
 48
50.0
100
AcDbLine
 10
8467.476719621783
 20
8289.056258213339
 30
0.0
 11
8017.476719621576
 21
9562.056258213326
 31
0.0
  0
LINE
  5
16031
330
747D
100
AcDbEntity
  8
部品1
100
AcDbLine
 10
8467.47671962167
 20
8289.056258213324
 30
0.0
 11
8017.476719621674
 21
8289.056258213324
 31
0.0
  0
LINE
  5
16032
330
747D
100
AcDbEntity
  8
部品1
 48
50.0
100
AcDbLine
 10
8467.476719621577
 20
8254.306258213317
 30
0.0
 11
8017.47671962158
 21
8254.306258213317
 31
0.0
  0
LINE
  5
16033
330
747D
100
AcDbEntity
  8
細線
 48
50.0
100
AcDbLine
 10
8017.476719621788
 20
7038.306258213328
 30
0.0
 11
8467.476719621579
 21
8254.306258213317
 31
0.0
  0
LINE
  5
16034
330
747D
100
AcDbEntity
  8
細線
 48
50.0
100
AcDbLine
 10
8017.476719621784
 20
8289.056258213339
 30
0.0
 11
8467.476719621579
 21
9562.056258213329
 31
0.0
  0
LINE
  5
16035
330
747D
100
AcDbEntity
  8
部品1
100
AcDbLine
 10
8017.476719621576
 20
9562.056258213324
 30
0.0
 11
8017.476719621784
 21
8289.056258213339
 31
0.0
  0
LINE
  5
16036
330
747D
100
AcDbEntity
  8
細線
 48
50.0
100
AcDbLine
 10
8467.476719621783
 20
7038.306258213328
 30
0.0
 11
8017.47671962158
 21
8254.306258213317
 31
0.0
  0
LINE
  5
16037
330
747D
100
AcDbEntity
  8
部品1
100
AcDbLine
 10
8017.47671962158
 20
8254.306258213313
 30
0.0
 11
8017.476719621788
 21
7038.306258213328
 31
0.0
  0
LINE
  5
16038
330
747D
100
AcDbEntity
  8
部品1
100
AcDbLine
 10
8020.476719621559
 20
8288.306258213292
 30
0.0
 11
8020.476719621559
 21
8263.306258213292
 31
0.0
  0
LINE
  5
16039
330
747D
100
AcDbEntity
  8
部品1
100
AcDbLine
 10
8472.476719621566
 20
8263.306258213292
 30
0.0
 11
8472.476719621555
 21
7015.806258213283
 31
0.0
  0
LINE
  5
1603A
330
747D
100
AcDbEntity
  8
部品1
100
AcDbLine
 10
8467.476719621691
 20
8254.306258213318
 30
0.0
 11
8467.476719621787
 21
7038.306258213328
 31
0.0
  0
DIMENSION
  5
1603B
330
747D
100
AcDbEntity
  8
寸法
 48
50.0
100
AcDbDimension
  2
*D13
 10
8882.659927022279
 20
8177.808253079417
 30
0.0
 11
8882.659927022276
 21
8814.30825307939
 31
0.0
 70
   160
 71
     5
 42
1273.000000000003
  3
INABA_S40G
100
AcDbAlignedDimension
 13
8467.476719621579
 23
9562.056258213345
 33
0.0
 14
8467.476719621791
 24
8289.056258213342
 34
0.0
 50
90.0
100
AcDbRotatedDimension
  0
DIMENSION
  5
1603C
330
747D
100
AcDbEntity
  8
寸法
 48
50.0
100
AcDbDimension
  2
*D14
 10
8882.659927022279
 20
6927.058253079407
 30
0.0
 11
8882.659927022276
 21
7535.05825307938
 31
0.0
 70
   160
 71
     5
 42
1216.000000000003
  3
INABA_S40G
100
AcDbAlignedDimension
 13
8467.476719621577
 23
8254.306258213336
 33
0.0
 14
8467.476719621791
 24
7038.306258213332
 34
0.0
 50
90.0
100
AcDbRotatedDimension
  0
LINE
  5
16077
330
747D
100
AcDbEntity
  8
細線
 48
50.0
100
AcDbLine
 10
6937.476719621783
 20
7038.306258213328
 30
0.0
 11
6487.47671962158
 21
8254.306258213317
 31
0.0
  0
LINE
  5
16078
330
747D
100
AcDbEntity
  8
細線
 48
50.0
100
AcDbLine
 10
6487.476719621783
 20
8289.056258213339
 30
0.0
 11
6937.47671962158
 21
9562.056258213329
 31
0.0
  0
LINE
  5
16079
330
747D
100
AcDbEntity
  8
細線
 48
50.0
100
AcDbLine
 10
6487.476719621787
 20
7038.306258213328
 30
0.0
 11
6937.47671962158
 21
8254.306258213317
 31
0.0
  0
LINE
  5
1607A
330
747D
100
AcDbEntity
  8
部品1
 48
50.0
100
AcDbLine
 10
6937.476719621575
 20
8254.306258213317
 30
0.0
 11
6487.47671962158
 21
8254.306258213317
 31
0.0
  0
LINE
  5
1607B
330
747D
100
AcDbEntity
  8
部品1
100
AcDbLine
 10
6937.47671962167
 20
8289.056258213324
 30
0.0
 11
6487.476719621675
 21
8289.056258213324
 31
0.0
  0
LINE
  5
1607C
330
747D
100
AcDbEntity
  8
細線
 48
50.0
100
AcDbLine
 10
6937.476719621783
 20
8289.056258213339
 30
0.0
 11
6487.476719621575
 21
9562.056258213326
 31
0.0
  0
LINE
  5
1607D
330
747D
100
AcDbEntity
  8
部品1
 48
50.0
100
AcDbLine
 10
6942.476719621561
 20
8288.306258213294
 30
0.0
 11
6490.476719621558
 21
8288.306258213292
 31
0.0
  0
LINE
  5
1607E
330
747D
100
AcDbEntity
  8
部品1
 48
50.0
100
AcDbLine
 10
6942.476719621558
 20
8263.306258213292
 30
0.0
 11
6490.476719621558
 21
8263.306258213292
 31
0.0
  0
LINE
  5
1607F
330
747D
100
AcDbEntity
  8
部品1
100
AcDbLine
 10
6487.476719621575
 20
9562.056258213324
 30
0.0
 11
6487.476719621783
 21
8289.056258213339
 31
0.0
  0
LINE
  5
16080
330
747D
100
AcDbEntity
  8
部品1
100
AcDbLine
 10
6487.47671962158
 20
8254.306258213313
 30
0.0
 11
6487.476719621787
 21
7038.306258213328
 31
0.0
  0
LINE
  5
16081
330
747D
100
AcDbEntity
  8
部品1
100
AcDbLine
 10
6490.476719621558
 20
8288.306258213292
 30
0.0
 11
6490.476719621558
 21
8263.306258213292
 31
0.0
  0
LINE
  5
16082
330
747D
100
AcDbEntity
  8
部品1
 48
50.0
100
AcDbLine
 10
6937.476719621573
 20
9562.056258213326
 30
0.0
 11
6487.476719621574
 21
9562.056258213324
 31
0.0
  0
LINE
  5
16083
330
747D
100
AcDbEntity
  8
部品1
100
AcDbLine
 10
6937.47671962158
 20
9562.056258213329
 30
0.0
 11
6937.476719621685
 21
8289.056258213525
 31
0.0
  0
LINE
  5
16084
330
747D
100
AcDbEntity
  8
部品1
100
AcDbLine
 10
6954.476719621554
 20
8301.806258213291
 30
0.0
 11
6942.476719621554
 21
8301.806258213291
 31
0.0
  0
LINE
  5
16086
330
747D
100
AcDbEntity
  8
部品1
100
AcDbLine
 10
6912.476719621551
 20
8288.306258213292
 30
0.0
 11
6912.476719621555
 21
8263.306258213292
 31
0.0
  0
LINE
  5
16087
330
747D
100
AcDbEntity
  8
部品1
100
AcDbLine
 10
6954.476719621554
 20
8249.806258213292
 30
0.0
 11
6942.476719621554
 21
8249.806258213292
 31
0.0
  0
LINE
  5
16089
330
747D
100
AcDbEntity
  8
部品1
100
AcDbLine
 10
6937.476719621691
 20
8254.306258213318
 30
0.0
 11
6937.476719621788
 21
7038.306258213328
 31
0.0
  0
LINE
  5
1608A
330
747D
100
AcDbEntity
  8
部品1
100
AcDbLine
 10
6937.476719621672
 20
7038.306258213314
 30
0.0
 11
6487.476719621675
 21
7038.306258213314
 31
0.0
  0
LINE
  5
1608B
330
747D
100
AcDbEntity
  8
部品1
100
AcDbLine
 10
5407.47671962158
 20
9562.056258213329
 30
0.0
 11
5407.476719621685
 21
8289.056258213525
 31
0.0
  0
LINE
  5
1608D
330
747D
100
AcDbEntity
  8
部品1
 48
50.0
100
AcDbLine
 10
5407.476719621572
 20
9562.056258213326
 30
0.0
 11
4957.476719621574
 21
9562.056258213324
 31
0.0
  0
LINE
  5
1608E
330
747D
100
AcDbEntity
  8
部品1
100
AcDbLine
 10
4957.476719621576
 20
9562.056258213324
 30
0.0
 11
4957.47671962178
 21
8462.287165931178
 31
0.0
  0
LINE
  5
16090
330
747D
100
AcDbEntity
  8
部品1
 48
50.0
100
AcDbLine
 10
5412.476719621558
 20
8263.306258213292
 30
0.0
 11
4960.476719621558
 21
8263.306258213292
 31
0.0
  0
LINE
  5
16091
330
747D
100
AcDbEntity
  8
部品1
 48
50.0
100
AcDbLine
 10
5412.476719621562
 20
8288.306258213294
 30
0.0
 11
4960.476719621558
 21
8288.306258213292
 31
0.0
  0
LINE
  5
16092
330
747D
100
AcDbEntity
  8
部品1
100
AcDbLine
 10
5407.476719621671
 20
8289.056258213324
 30
0.0
 11
4957.476719621674
 21
8289.056258213324
 31
0.0
  0
LINE
  5
16093
330
747D
100
AcDbEntity
  8
部品1
 48
50.0
100
AcDbLine
 10
5407.476719621576
 20
8254.306258213317
 30
0.0
 11
4957.47671962158
 21
8254.306258213317
 31
0.0
  0
LINE
  5
16094
330
747D
100
AcDbEntity
  8
部品1
100
AcDbLine
 10
4960.476719621558
 20
8288.306258213292
 30
0.0
 11
4960.476719621558
 21
8263.306258213292
 31
0.0
  0
LINE
  5
16095
330
747D
100
AcDbEntity
  8
部品1
100
AcDbLine
 10
4957.47671962158
 20
8254.306258213313
 30
0.0
 11
4957.476719621783
 21
7057.980003651434
 31
0.0
  0
LINE
  5
16098
330
747D
100
AcDbEntity
  8
部品1
100
AcDbLine
 10
5424.476719621555
 20
8301.806258213291
 30
0.0
 11
5412.476719621555
 21
8301.806258213291
 31
0.0
  0
LINE
  5
16099
330
747D
100
AcDbEntity
  8
部品1
100
AcDbLine
 10
5382.476719621551
 20
8288.306258213292
 30
0.0
 11
5382.476719621554
 21
8263.306258213292
 31
0.0
  0
LINE
  5
1609B
330
747D
100
AcDbEntity
  8
部品1
100
AcDbLine
 10
5424.476719621555
 20
8249.806258213292
 30
0.0
 11
5412.476719621555
 21
8249.806258213292
 31
0.0
  0
LINE
  5
1609C
330
747D
100
AcDbEntity
  8
部品1
100
AcDbLine
 10
5407.476719621691
 20
8254.306258213318
 30
0.0
 11
5407.476719621786
 21
7038.306258213328
 31
0.0
  0
LINE
  5
1609F
330
747D
100
AcDbEntity
  8
部品1
100
AcDbLine
 10
6942.476719621524
 20
8263.306258213292
 30
0.0
 11
6942.476719621537
 21
6960.806258213188
 31
0.0
  0
LINE
  5
160A0
330
747D
100
AcDbEntity
  8
部品1
100
AcDbLine
 10
5412.476719621523
 20
8263.306258213292
 30
0.0
 11
5412.476719621537
 21
6960.806258213188
 31
0.0
  0
LINE
  5
160A5
330
747D
100
AcDbEntity
  8
部品1
100
AcDbLine
 10
3938.476719621553
 20
8695.80625821317
 30
0.0
 11
3910.476719621552
 21
8695.80625821317
 31
0.0
  0
LINE
  5
160A6
330
747D
100
AcDbEntity
  8
部品1
100
AcDbLine
 10
5440.476719621518
 20
8695.806258213201
 30
0.0
 11
5412.476719621518
 21
8695.806258213201
 31
0.0
  0
LINE
  5
160A7
330
747D
100
AcDbEntity
  8
部品1
100
AcDbLine
 10
6970.476719621519
 20
8695.806258213201
 30
0.0
 11
6942.476719621518
 21
8695.806258213201
 31
0.0
  0
LINE
  5
160A8
330
747D
100
AcDbEntity
  8
部品1
100
AcDbLine
 10
8472.47671962158
 20
8695.8062582133
 30
0.0
 11
8500.476719621579
 21
8695.8062582133
 31
0.0
  0
LINE
  5
160AB
330
747D
100
AcDbEntity
  8
破線
 48
10.0
100
AcDbLine
 10
7050.476719621555
 20
8690.806258213163
 30
0.0
 11
7050.47671962156
 21
7935.806258213164
 31
0.0
  0
LINE
  5
16AEB
330
747D
100
AcDbEntity
  8
細線
 48
50.0
100
AcDbLine
 10
4957.476719621784
 20
8289.056258213339
 30
0.0
 11
5407.47671962158
 21
9562.056258213329
 31
0.0
  0
LINE
  5
16AEC
330
747D
100
AcDbEntity
  8
細線
 48
50.0
100
AcDbLine
 10
5407.476719621783
 20
8289.056258213339
 30
0.0
 11
4957.476719621576
 21
9562.056258213326
 31
0.0
  0
LINE
  5
16AED
330
747D
100
AcDbEntity
  8
部品1
100
AcDbLine
 10
8472.47671962158
 20
9115.806258213298
 30
0.0
 11
8500.476719621579
 21
9115.806258213298
 31
0.0
  0
LINE
  5
16AEE
330
747D
100
AcDbEntity
  8
部品1
100
AcDbLine
 10
6970.476719621519
 20
9115.806258213201
 30
0.0
 11
6942.476719621518
 21
9115.806258213201
 31
0.0
  0
LINE
  5
16AEF
330
747D
100
AcDbEntity
  8
部品1
100
AcDbLine
 10
5440.476719621518
 20
9115.806258213201
 30
0.0
 11
5412.476719621518
 21
9115.806258213201
 31
0.0
  0
LINE
  5
16AF0
330
747D
100
AcDbEntity
  8
部品1
100
AcDbLine
 10
3938.476719621553
 20
9115.80625821317
 30
0.0
 11
3910.476719621552
 21
9115.80625821317
 31
0.0
  0
DIMENSION
  5
17387
330
747D
100
AcDbEntity
  8
寸法
 48
50.0
100
AcDbDimension
  2
*D15
 10
6495.476719621578
 20
10026.28460815969
 30
0.0
 11
6667.162200367369
 21
10026.28460815969
 31
0.0
 70
   160
 71
     5
 42
419.9999999999991
  3
INABA_S40G
100
AcDbAlignedDimension
 13
6915.476719621579
 23
9590.806258213168
 33
0.0
 14
6495.476719621578
 24
9590.806258213243
 34
0.0
100
AcDbRotatedDimension
  0
DIMENSION
  5
1739E
330
747D
100
AcDbEntity
  8
寸法
 48
50.0
100
AcDbDimension
  2
*D16
 10
5915.47671962158
 20
10026.28460815969
 30
0.0
 11
6205.476719621579
 21
10126.28460815969
 31
0.0
 70
    32
 71
     5
 42
580.0
  3
INABA_S40G
100
AcDbAlignedDimension
 13
6495.476719621578
 23
9590.806258213243
 33
0.0
 14
5915.47671962158
 24
9590.806258213225
 34
0.0
100
AcDbRotatedDimension
1001
ACAD
1000
DSTYLE
1002
{
1070
    75
1070
     1
1070
   279
1070
     1
1002
}
  0
DIMENSION
  5
173AA
330
747D
100
AcDbEntity
  8
寸法
 48
50.0
100
AcDbDimension
  2
*D17
 10
5495.476719621578
 20
10026.28460815969
 30
0.0
 11
5705.476719621578
 21
10126.29641918331
 31
0.0
 70
    32
 71
     5
 42
420.0000000000009
  3
INABA_S40G
100
AcDbAlignedDimension
 13
5915.47671962158
 23
9590.806258213225
 33
0.0
 14
5495.476719621578
 24
9590.8062582132
 34
0.0
100
AcDbRotatedDimension
1001
ACAD
1000
DSTYLE
1002
{
1070
    75
1070
     1
1070
   279
1070
     1
1002
}
  0
DIMENSION
  5
173AB
330
747D
100
AcDbEntity
  8
寸法
 48
50.0
100
AcDbDimension
  2
*D20
 10
7025.476719621578
 20
10026.28460815969
 30
0.0
 11
7235.476719621577
 21
10126.29641918331
 31
0.0
 70
    32
 71
     5
 42
420.0000000000009
  3
INABA_S40G
100
AcDbAlignedDimension
 13
7445.47671962158
 23
9590.806258213225
 33
0.0
 14
7025.476719621578
 24
9590.8062582132
 34
0.0
100
AcDbRotatedDimension
1001
ACAD
1000
DSTYLE
1002
{
1070
    75
1070
     1
1070
   279
1070
     1
1002
}
  0
DIMENSION
  5
173AC
330
747D
100
AcDbEntity
  8
寸法
 48
50.0
100
AcDbDimension
  2
*D19
 10
7445.47671962158
 20
10026.28460815969
 30
0.0
 11
7735.476719621579
 21
10126.28460815969
 31
0.0
 70
    32
 71
     5
 42
580.0
  3
INABA_S40G
100
AcDbAlignedDimension
 13
8025.476719621579
 23
9590.806258213243
 33
0.0
 14
7445.47671962158
 24
9590.806258213225
 34
0.0
100
AcDbRotatedDimension
1001
ACAD
1000
DSTYLE
1002
{
1070
    75
1070
     1
1070
   279
1070
     1
1002
}
  0
DIMENSION
  5
173AD
330
747D
100
AcDbEntity
  8
寸法
 48
50.0
100
AcDbDimension
  2
*D18
 10
8025.476719621579
 20
10026.28460815969
 30
0.0
 11
8197.162200367369
 21
10026.28460815969
 31
0.0
 70
   160
 71
     5
 42
419.9999999999991
  3
INABA_S40G
100
AcDbAlignedDimension
 13
8445.476719621579
 23
9590.806258213168
 33
0.0
 14
8025.476719621579
 24
9590.806258213243
 34
0.0
100
AcDbRotatedDimension
  0
LINE
  5
17F1B
330
747D
100
AcDbEntity
  8
細線
 48
50.0
100
AcDbLine
 10
5407.476719621783
 20
7038.306258213328
 30
0.0
 11
4957.47671962158
 21
8254.306258213317
 31
0.0
  0
LINE
  5
17F1C
330
747D
100
AcDbEntity
  8
細線
 48
50.0
100
AcDbLine
 10
4959.82624323099
 20
7044.655193121754
 30
0.0
 11
5407.47671962158
 21
8254.306258213317
 31
0.0
  0
LINE
  5
17F1D
330
747D
100
AcDbEntity
  8
破線
 48
10.0
100
AcDbLine
 10
4957.476719621632
 20
7935.806258213237
 30
0.0
 11
4802.692266568278
 21
7935.806258213226
 31
0.0
  0
LINE
  5
17F1E
330
747D
100
AcDbEntity
  8
破線
 48
10.0
100
AcDbLine
 10
4957.47671962164
 20
7885.806258213233
 30
0.0
 11
4811.508615603703
 21
7885.806258213222
 31
0.0
  0
LINE
  5
17F1F
330
747D
100
AcDbEntity
  8
破線
 48
10.0
100
AcDbLine
 10
4957.476719621716
 20
8690.806258213237
 30
0.0
 11
4669.565396133389
 21
8690.806258213216
 31
0.0
  0
LINE
  5
17F20
330
747D
100
AcDbEntity
  8
破線
 48
10.0
100
AcDbLine
 10
4957.476719621708
 20
8740.806258213238
 30
0.0
 11
4660.749047097964
 21
8740.806258213217
 31
0.0
  0
LINE
  5
17F21
330
747D
100
AcDbEntity
  8
破線
 48
10.0
100
AcDbLine
 10
6487.476719621639
 20
7885.806258213233
 30
0.0
 11
5496.976719621592
 21
7885.806258213161
 31
0.0
  0
LINE
  5
17F22
330
747D
100
AcDbEntity
  8
破線
 48
10.0
100
AcDbLine
 10
6487.476719621631
 20
7935.806258213237
 30
0.0
 11
5496.976719621592
 21
7935.806258213161
 31
0.0
  0
LINE
  5
17F23
330
747D
100
AcDbEntity
  8
破線
 48
10.0
100
AcDbLine
 10
6487.476719621708
 20
8740.806258213238
 30
0.0
 11
5496.976719621592
 21
8740.80625821316
 31
0.0
  0
LINE
  5
17F24
330
747D
100
AcDbEntity
  8
破線
 48
10.0
100
AcDbLine
 10
6487.476719621716
 20
8690.806258213237
 30
0.0
 11
5496.976719621592
 21
8690.806258213161
 31
0.0
  0
LINE
  5
17F25
330
747D
100
AcDbEntity
  8
破線
 48
10.0
100
AcDbLine
 10
8017.476719621631
 20
7935.806258213237
 30
0.0
 11
7026.976719621592
 21
7935.806258213161
 31
0.0
  0
LINE
  5
17F26
330
747D
100
AcDbEntity
  8
破線
 48
10.0
100
AcDbLine
 10
8017.476719621638
 20
7885.806258213233
 30
0.0
 11
7026.976719621592
 21
7885.806258213161
 31
0.0
  0
LINE
  5
17F27
330
747D
100
AcDbEntity
  8
破線
 48
10.0
100
AcDbLine
 10
8017.476719621717
 20
8690.806258213237
 30
0.0
 11
7026.976719621592
 21
8690.806258213161
 31
0.0
  0
LINE
  5
17F28
330
747D
100
AcDbEntity
  8
破線
 48
10.0
100
AcDbLine
 10
8017.476719621708
 20
8740.806258213238
 30
0.0
 11
7026.976719621592
 21
8740.80625821316
 31
0.0
  0
LINE
  5
17F29
330
747D
100
AcDbEntity
  8
破線
 48
10.0
100
AcDbLine
 10
4630.286248741396
 20
8740.806258213211
 30
0.0
 11
3966.976719621591
 21
8740.80625821316
 31
0.0
  0
LINE
  5
17F2A
330
747D
100
AcDbEntity
  8
破線
 48
10.0
100
AcDbLine
 10
4639.102597776818
 20
8690.806258213212
 30
0.0
 11
3966.976719621593
 21
8690.806258213161
 31
0.0
  0
LINE
  5
17F2B
330
747D
100
AcDbEntity
  8
部品1
100
AcDbLine
 10
4957.476719621769
 20
8442.582934227234
 30
0.0
 11
4957.476719621784
 21
8289.056258213339
 31
0.0
  0
LINE
  5
17F2C
330
747D
100
AcDbEntity
  8
破線
 48
10.0
100
AcDbLine
 10
4772.229468211707
 20
7935.806258213225
 30
0.0
 11
3966.976719621591
 21
7935.806258213161
 31
0.0
  0
LINE
  5
17F2D
330
747D
100
AcDbEntity
  8
破線
 48
10.0
100
AcDbLine
 10
4781.045817247131
 20
7885.806258213219
 30
0.0
 11
3966.976719621593
 21
7885.806258213161
 31
0.0
  0
LINE
  5
17F2E
330
747D
100
AcDbEntity
  8
破線
 48
10.0
100
AcDbLine
 10
3990.47671962156
 20
7885.806258213162
 30
0.0
 11
3990.476719621567
 21
7114.806258213191
 31
0.0
  0
LINE
  5
17F30
330
747D
100
AcDbEntity
  8
破線
 48
10.0
100
AcDbLine
 10
7050.476719621562
 20
7885.806258213162
 30
0.0
 11
7050.476719621567
 21
7114.806258213191
 31
0.0
  0
LINE
  5
17F31
330
747D
100
AcDbEntity
  8
破線
 48
10.0
100
AcDbLine
 10
5520.47671962156
 20
7885.806258213162
 30
0.0
 11
5520.476719621566
 21
7114.806258213191
 31
0.0
  0
LINE
  5
17F33
330
747D
100
AcDbEntity
  8
部品1
100
AcDbLine
 10
3938.476719621553
 20
7855.80625821317
 30
0.0
 11
3910.476719621552
 21
7855.80625821317
 31
0.0
  0
LINE
  5
17F34
330
747D
100
AcDbEntity
  8
部品1
100
AcDbLine
 10
5440.476719621518
 20
7855.806258213201
 30
0.0
 11
5412.476719621518
 21
7855.806258213201
 31
0.0
  0
LINE
  5
17F35
330
747D
100
AcDbEntity
  8
部品1
100
AcDbLine
 10
6970.476719621519
 20
7855.806258213201
 30
0.0
 11
6942.476719621518
 21
7855.806258213201
 31
0.0
  0
LINE
  5
17F36
330
747D
100
AcDbEntity
  8
部品1
100
AcDbLine
 10
8472.47671962158
 20
7855.806258213299
 30
0.0
 11
8500.476719621579
 21
7855.806258213299
 31
0.0
  0
LINE
  5
17F5D
330
747D
100
AcDbEntity
  8
部品1
 48
50.0
100
AcDbLine
 10
7972.476719621579
 20
9534.306258213318
 30
0.0
 11
7972.476719621669
 21
7091.306258213222
 31
0.0
  0
LINE
  5
17F5E
330
747D
100
AcDbEntity
  8
部品1
 48
50.0
100
AcDbLine
 10
6442.47671962158
 20
9534.306258213318
 30
0.0
 11
6442.476719621669
 21
7091.306258213222
 31
0.0
  0
LINE
  5
17F5F
330
747D
100
AcDbEntity
  8
部品1
 48
50.0
100
AcDbLine
 10
4912.476719621579
 20
9534.306258213318
 30
0.0
 11
4912.476719621619
 21
8466.224155789859
 31
0.0
  0
LINE
  5
17F60
330
747D
100
AcDbEntity
  8
部品1
 48
50.0
100
AcDbLine
 10
4912.476719621622
 20
8421.599089610188
 30
0.0
 11
4912.476719621665
 21
7313.187685534889
 31
0.0
  0
LINE
  5
17F61
330
747D
100
AcDbEntity
  8
部品1
 48
50.0
100
AcDbLine
 10
4912.476719621671
 20
7140.424571040552
 30
0.0
 11
4912.476719621674
 21
7091.306258213219
 31
0.0
  0
TEXT
  5
17F89
330
747D
100
AcDbEntity
  8
文字
 62
     7
 48
50.0
100
AcDbText
 10
14639.78538849418
 20
879.3493344864453
 30
0.0
 40
100.0
  1
～一般型・多雪地型～
  7
STYLE2
100
AcDbText
  0
TEXT
  5
17F8A
330
747D
100
AcDbEntity
  8
文字
 62
     7
 48
50.0
100
AcDbText
 10
14524.131837222
 20
1031.557706291228
 30
0.0
 40
100.0
  1
NO.07      <縮尺> S=1/40
  7
STYLE2
100
AcDbText
  0
TEXT
  5
17F8B
330
747D
100
AcDbEntity
  8
文字
 62
     7
 48
50.0
100
AcDbText
 10
13209.4053442172
 20
76.09434707649348
 30
0.0
 40
100.0
  1
○床面積 ： N(連続数)×4.02㎡(1.22坪) 　
  7
STYLE2
100
AcDbText
  0
LINE
  5
17FD6
330
747D
100
AcDbEntity
  8
部品1
 48
50.0
100
AcDbLine
 10
3938.476719621578
 20
9562.806258213168
 30
0.0
 11
3966.976719621547
 21
9534.306258213318
 31
0.0
  0
LINE
  5
17FD7
330
747D
100
AcDbEntity
  8
部品1
 48
50.0
100
AcDbLine
 10
5468.476719621545
 20
9562.80625821318
 30
0.0
 11
5496.976719621547
 21
9534.306258213318
 31
0.0
  0
LINE
  5
17FD8
330
747D
100
AcDbEntity
  8
部品1
 48
50.0
100
AcDbLine
 10
6998.476719621546
 20
9562.806258213305
 30
0.0
 11
7026.976719621547
 21
9534.306258213318
 31
0.0
  0
LINE
  5
17FEC
330
747D
100
AcDbEntity
  8
部品1
100
AcDbLine
 10
5871.601178587077
 20
5906.629424916253
 30
0.0
 11
5871.601178587077
 21
5666.737103370721
 31
0.0
  0
LINE
  5
17FED
330
747D
100
AcDbEntity
  8
部品1
100
AcDbLine
 10
5871.601178587077
 20
5666.737103370721
 30
0.0
 11
6635.071844815517
 21
5666.737103370721
 31
0.0
  0
LINE
  5
17FEE
330
747D
100
AcDbEntity
  8
部品1
100
AcDbLine
 10
6635.071844815517
 20
5666.737103370721
 30
0.0
 11
6635.071844815517
 21
5906.629424916253
 31
0.0
  0
LINE
  5
17FEF
330
747D
100
AcDbEntity
  8
部品1
100
AcDbLine
 10
6635.071844815517
 20
5906.629424916253
 30
0.0
 11
5871.601178587077
 21
5906.629424916253
 31
0.0
  0
LINE
  5
186AF
330
747D
100
AcDbEntity
  8
細線
100
AcDbLine
 10
8125.476719621579
 20
4357.491108379625
 30
0.0
 11
8125.476719621579
 21
4334.491108379626
 31
0.0
  0
LINE
  5
186B0
330
747D
100
AcDbEntity
  8
細線
100
AcDbLine
 10
8051.476719621581
 20
4345.491108379625
 30
0.0
 11
8125.476719621579
 21
4345.491108379625
 31
0.0
  0
LINE
  5
186B1
330
747D
100
AcDbEntity
  8
細線
100
AcDbLine
 10
8051.476719621581
 20
4339.491108379625
 30
0.0
 11
8125.476719621579
 21
4339.491108379625
 31
0.0
  0
LINE
  5
186B2
330
747D
100
AcDbEntity
  8
細線
100
AcDbLine
 10
8051.476719621581
 20
4351.491108379625
 30
0.0
 11
8125.476719621579
 21
4351.491108379625
 31
0.0
  0
LINE
  5
186B3
330
747D
100
AcDbEntity
  8
細線
100
AcDbLine
 10
8199.47671962158
 20
4351.491108379625
 30
0.0
 11
8130.476719621581
 21
4351.491108379625
 31
0.0
  0
LINE
  5
186B4
330
747D
100
AcDbEntity
  8
細線
100
AcDbLine
 10
8199.47671962158
 20
4339.491108379625
 30
0.0
 11
8125.476719621579
 21
4339.491108379625
 31
0.0
  0
LINE
  5
186B5
330
747D
100
AcDbEntity
  8
細線
100
AcDbLine
 10
8199.47671962158
 20
4345.491108379625
 30
0.0
 11
8125.476719621579
 21
4345.491108379625
 31
0.0
  0
LINE
  5
186B6
330
747D
100
AcDbEntity
  8
細線
100
AcDbLine
 10
8199.47671962158
 20
4351.491108379625
 30
0.0
 11
8125.476719621579
 21
4351.491108379625
 31
0.0
  0
LINE
  5
186B7
330
747D
100
AcDbEntity
  8
部品1
 48
0.01
100
AcDbLine
 10
8037.476719621579
 20
4363.991108379624
 30
0.0
 11
8213.47671962158
 21
4363.991108379624
 31
0.0
  0
LINE
  5
186B8
330
747D
100
AcDbEntity
  8
部品1
 48
0.01
100
AcDbLine
 10
8215.47671962158
 20
4361.991108379625
 30
0.0
 11
8215.47671962158
 21
4330.491108379624
 31
0.0
  0
LINE
  5
186B9
330
747D
100
AcDbEntity
  8
部品1
 48
0.01
100
AcDbLine
 10
8213.47671962158
 20
4328.491108379625
 30
0.0
 11
8037.476719621579
 21
4328.491108379625
 31
0.0
  0
LINE
  5
186BA
330
747D
100
AcDbEntity
  8
部品1
 48
0.01
100
AcDbLine
 10
8035.476719621581
 20
4330.491108379624
 30
0.0
 11
8035.476719621581
 21
4361.991108379625
 31
0.0
  0
LINE
  5
186BB
330
747D
100
AcDbEntity
  8
細線
100
AcDbLine
 10
8199.47671962158
 20
4357.491108379625
 30
0.0
 11
8199.47671962158
 21
4334.491108379626
 31
0.0
  0
LINE
  5
186BC
330
747D
100
AcDbEntity
  8
細線
100
AcDbLine
 10
8051.476719621581
 20
4334.491108379626
 30
0.0
 11
8051.476719621581
 21
4357.491108379625
 31
0.0
  0
LINE
  5
186BD
330
747D
100
AcDbEntity
  8
細線
100
AcDbLine
 10
8051.476719621581
 20
4357.491108379625
 30
0.0
 11
8125.476719621579
 21
4357.491108379625
 31
0.0
  0
LINE
  5
186BE
330
747D
100
AcDbEntity
  8
細線
100
AcDbLine
 10
8199.47671962158
 20
4334.491108379626
 30
0.0
 11
8125.476719621579
 21
4334.491108379626
 31
0.0
  0
LINE
  5
186BF
330
747D
100
AcDbEntity
  8
細線
100
AcDbLine
 10
8125.476719621579
 20
4357.491108379625
 30
0.0
 11
8199.47671962158
 21
4357.491108379625
 31
0.0
  0
LINE
  5
186C0
330
747D
100
AcDbEntity
  8
細線
100
AcDbLine
 10
8125.476719621579
 20
4334.491108379626
 30
0.0
 11
8051.476719621581
 21
4334.491108379626
 31
0.0
  0
ARC
  5
186C1
330
747D
100
AcDbEntity
  8
部品1
 48
0.01
100
AcDbCircle
 10
8213.47671962158
 20
4361.991108379625
 30
0.0
 40
2.0
100
AcDbArc
 50
0.0
 51
90.0
  0
ARC
  5
186C2
330
747D
100
AcDbEntity
  8
部品1
 48
0.01
100
AcDbCircle
 10
8213.47671962158
 20
4330.491108379624
 30
0.0
 40
2.0
100
AcDbArc
 50
270.0
 51
0.0
  0
ARC
  5
186C3
330
747D
100
AcDbEntity
  8
部品1
 48
0.01
100
AcDbCircle
 10
8037.476719621579
 20
4361.991108379625
 30
0.0
 40
2.0
100
AcDbArc
 50
90.0
 51
180.0
  0
ARC
  5
186C4
330
747D
100
AcDbEntity
  8
部品1
 48
0.01
100
AcDbCircle
 10
8037.476719621579
 20
4330.491108379624
 30
0.0
 40
2.0
100
AcDbArc
 50
180.0
 51
270.0
  0
ARC
  5
186C5
330
747D
100
AcDbEntity
  8
部品1
 48
0.01
100
AcDbCircle
 10
7433.476719621579
 20
4330.491108379624
 30
0.0
 40
2.0
100
AcDbArc
 50
270.0
 51
0.0
  0
ARC
  5
186C6
330
747D
100
AcDbEntity
  8
部品1
 48
0.01
100
AcDbCircle
 10
7433.476719621579
 20
4361.991108379625
 30
0.0
 40
2.0
100
AcDbArc
 50
0.0
 51
90.0
  0
ARC
  5
186C7
330
747D
100
AcDbEntity
  8
部品1
 48
0.01
100
AcDbCircle
 10
7257.47671962158
 20
4330.491108379624
 30
0.0
 40
2.0
100
AcDbArc
 50
180.0
 51
270.0
  0
ARC
  5
186C8
330
747D
100
AcDbEntity
  8
部品1
 48
0.01
100
AcDbCircle
 10
7257.47671962158
 20
4361.991108379625
 30
0.0
 40
2.0
100
AcDbArc
 50
90.0
 51
180.0
  0
LINE
  5
186C9
330
747D
100
AcDbEntity
  8
細線
100
AcDbLine
 10
7345.476719621579
 20
4334.491108379626
 30
0.0
 11
7419.476719621581
 21
4334.491108379626
 31
0.0
  0
LINE
  5
186CA
330
747D
100
AcDbEntity
  8
細線
100
AcDbLine
 10
7345.476719621579
 20
4357.491108379625
 30
0.0
 11
7271.47671962158
 21
4357.491108379625
 31
0.0
  0
LINE
  5
186CB
330
747D
100
AcDbEntity
  8
細線
100
AcDbLine
 10
7271.47671962158
 20
4334.491108379626
 30
0.0
 11
7345.476719621579
 21
4334.491108379626
 31
0.0
  0
LINE
  5
186CC
330
747D
100
AcDbEntity
  8
細線
100
AcDbLine
 10
7419.476719621581
 20
4357.491108379625
 30
0.0
 11
7345.476719621579
 21
4357.491108379625
 31
0.0
  0
LINE
  5
186CD
330
747D
100
AcDbEntity
  8
細線
100
AcDbLine
 10
7419.476719621581
 20
4334.491108379626
 30
0.0
 11
7419.476719621581
 21
4357.491108379625
 31
0.0
  0
LINE
  5
186CE
330
747D
100
AcDbEntity
  8
細線
100
AcDbLine
 10
7271.47671962158
 20
4357.491108379625
 30
0.0
 11
7271.47671962158
 21
4334.491108379626
 31
0.0
  0
LINE
  5
186CF
330
747D
100
AcDbEntity
  8
部品1
 48
0.01
100
AcDbLine
 10
7435.47671962158
 20
4330.491108379624
 30
0.0
 11
7435.47671962158
 21
4361.991108379625
 31
0.0
  0
LINE
  5
186D0
330
747D
100
AcDbEntity
  8
部品1
 48
0.01
100
AcDbLine
 10
7257.47671962158
 20
4328.491108379625
 30
0.0
 11
7433.476719621579
 21
4328.491108379625
 31
0.0
  0
LINE
  5
186D1
330
747D
100
AcDbEntity
  8
部品1
 48
0.01
100
AcDbLine
 10
7255.47671962158
 20
4361.991108379625
 30
0.0
 11
7255.47671962158
 21
4330.491108379624
 31
0.0
  0
LINE
  5
186D2
330
747D
100
AcDbEntity
  8
部品1
 48
0.01
100
AcDbLine
 10
7433.476719621579
 20
4363.991108379624
 30
0.0
 11
7257.47671962158
 21
4363.991108379624
 31
0.0
  0
LINE
  5
186D3
330
747D
100
AcDbEntity
  8
細線
100
AcDbLine
 10
7271.47671962158
 20
4351.491108379625
 30
0.0
 11
7345.476719621579
 21
4351.491108379625
 31
0.0
  0
LINE
  5
186D4
330
747D
100
AcDbEntity
  8
細線
100
AcDbLine
 10
7271.47671962158
 20
4345.491108379625
 30
0.0
 11
7345.476719621579
 21
4345.491108379625
 31
0.0
  0
LINE
  5
186D5
330
747D
100
AcDbEntity
  8
細線
100
AcDbLine
 10
7271.47671962158
 20
4339.491108379625
 30
0.0
 11
7345.476719621579
 21
4339.491108379625
 31
0.0
  0
LINE
  5
186D6
330
747D
100
AcDbEntity
  8
細線
100
AcDbLine
 10
7271.47671962158
 20
4351.491108379625
 30
0.0
 11
7340.47671962158
 21
4351.491108379625
 31
0.0
  0
LINE
  5
186D7
330
747D
100
AcDbEntity
  8
細線
100
AcDbLine
 10
7419.476719621581
 20
4351.491108379623
 30
0.0
 11
7345.476719621579
 21
4351.491108379625
 31
0.0
  0
LINE
  5
186D8
330
747D
100
AcDbEntity
  8
細線
100
AcDbLine
 10
7419.476719621581
 20
4339.491108379623
 30
0.0
 11
7345.476719621579
 21
4339.491108379625
 31
0.0
  0
LINE
  5
186D9
330
747D
100
AcDbEntity
  8
細線
100
AcDbLine
 10
7419.476719621581
 20
4345.491108379625
 30
0.0
 11
7345.476719621579
 21
4345.491108379625
 31
0.0
  0
LINE
  5
186DA
330
747D
100
AcDbEntity
  8
細線
100
AcDbLine
 10
7345.476719621579
 20
4357.491108379625
 30
0.0
 11
7345.476719621579
 21
4334.491108379626
 31
0.0
  0
LINE
  5
186DB
330
747D
100
AcDbEntity
  8
細線
100
AcDbLine
 10
5815.47671962158
 20
4357.491108379625
 30
0.0
 11
5815.47671962158
 21
4334.491108379626
 31
0.0
  0
LINE
  5
186DC
330
747D
100
AcDbEntity
  8
細線
100
AcDbLine
 10
5889.47671962158
 20
4345.491108379625
 30
0.0
 11
5815.47671962158
 21
4345.491108379625
 31
0.0
  0
LINE
  5
186DD
330
747D
100
AcDbEntity
  8
細線
100
AcDbLine
 10
5889.47671962158
 20
4339.491108379623
 30
0.0
 11
5815.47671962158
 21
4339.491108379625
 31
0.0
  0
LINE
  5
186DE
330
747D
100
AcDbEntity
  8
細線
100
AcDbLine
 10
5889.47671962158
 20
4351.491108379623
 30
0.0
 11
5815.47671962158
 21
4351.491108379625
 31
0.0
  0
LINE
  5
186DF
330
747D
100
AcDbEntity
  8
細線
100
AcDbLine
 10
5741.47671962158
 20
4351.491108379625
 30
0.0
 11
5810.476719621579
 21
4351.491108379625
 31
0.0
  0
LINE
  5
186E0
330
747D
100
AcDbEntity
  8
細線
100
AcDbLine
 10
5741.47671962158
 20
4339.491108379625
 30
0.0
 11
5815.47671962158
 21
4339.491108379625
 31
0.0
  0
LINE
  5
186E1
330
747D
100
AcDbEntity
  8
細線
100
AcDbLine
 10
5741.47671962158
 20
4345.491108379625
 30
0.0
 11
5815.47671962158
 21
4345.491108379625
 31
0.0
  0
LINE
  5
186E2
330
747D
100
AcDbEntity
  8
細線
100
AcDbLine
 10
5741.47671962158
 20
4351.491108379625
 30
0.0
 11
5815.47671962158
 21
4351.491108379625
 31
0.0
  0
LINE
  5
186E3
330
747D
100
AcDbEntity
  8
部品1
 48
0.01
100
AcDbLine
 10
5903.476719621579
 20
4363.991108379624
 30
0.0
 11
5727.47671962158
 21
4363.991108379624
 31
0.0
  0
LINE
  5
186E4
330
747D
100
AcDbEntity
  8
部品1
 48
0.01
100
AcDbLine
 10
5725.47671962158
 20
4361.991108379625
 30
0.0
 11
5725.47671962158
 21
4330.491108379624
 31
0.0
  0
LINE
  5
186E5
330
747D
100
AcDbEntity
  8
部品1
 48
0.01
100
AcDbLine
 10
5727.47671962158
 20
4328.491108379625
 30
0.0
 11
5903.476719621579
 21
4328.491108379625
 31
0.0
  0
LINE
  5
186E6
330
747D
100
AcDbEntity
  8
部品1
 48
0.01
100
AcDbLine
 10
5905.47671962158
 20
4330.491108379624
 30
0.0
 11
5905.47671962158
 21
4361.991108379625
 31
0.0
  0
LINE
  5
186E7
330
747D
100
AcDbEntity
  8
細線
100
AcDbLine
 10
5741.47671962158
 20
4357.491108379625
 30
0.0
 11
5741.47671962158
 21
4334.491108379626
 31
0.0
  0
LINE
  5
186E8
330
747D
100
AcDbEntity
  8
細線
100
AcDbLine
 10
5889.47671962158
 20
4334.491108379626
 30
0.0
 11
5889.47671962158
 21
4357.491108379625
 31
0.0
  0
LINE
  5
186E9
330
747D
100
AcDbEntity
  8
細線
100
AcDbLine
 10
5889.47671962158
 20
4357.491108379625
 30
0.0
 11
5815.47671962158
 21
4357.491108379625
 31
0.0
  0
LINE
  5
186EA
330
747D
100
AcDbEntity
  8
細線
100
AcDbLine
 10
5741.47671962158
 20
4334.491108379626
 30
0.0
 11
5815.47671962158
 21
4334.491108379626
 31
0.0
  0
LINE
  5
186EB
330
747D
100
AcDbEntity
  8
細線
100
AcDbLine
 10
5815.47671962158
 20
4357.491108379625
 30
0.0
 11
5741.47671962158
 21
4357.491108379625
 31
0.0
  0
LINE
  5
186EC
330
747D
100
AcDbEntity
  8
細線
100
AcDbLine
 10
5815.47671962158
 20
4334.491108379626
 30
0.0
 11
5889.47671962158
 21
4334.491108379626
 31
0.0
  0
ARC
  5
186ED
330
747D
100
AcDbEntity
  8
部品1
 48
0.01
100
AcDbCircle
 10
5727.47671962158
 20
4361.991108379625
 30
0.0
 40
2.0
100
AcDbArc
 50
90.0
 51
180.0
  0
ARC
  5
186EE
330
747D
100
AcDbEntity
  8
部品1
 48
0.01
100
AcDbCircle
 10
5727.47671962158
 20
4330.491108379624
 30
0.0
 40
2.0
100
AcDbArc
 50
180.0
 51
270.0
  0
ARC
  5
186EF
330
747D
100
AcDbEntity
  8
部品1
 48
0.01
100
AcDbCircle
 10
5903.476719621579
 20
4361.991108379625
 30
0.0
 40
2.0
100
AcDbArc
 50
0.0
 51
90.0
  0
ARC
  5
186F0
330
747D
100
AcDbEntity
  8
部品1
 48
0.01
100
AcDbCircle
 10
5903.476719621579
 20
4330.491108379624
 30
0.0
 40
2.0
100
AcDbArc
 50
270.0
 51
0.0
  0
ARC
  5
186F1
330
747D
100
AcDbEntity
  8
部品1
 48
0.01
100
AcDbCircle
 10
6507.47671962158
 20
4330.491108379624
 30
0.0
 40
2.0
100
AcDbArc
 50
180.0
 51
270.0
  0
ARC
  5
186F2
330
747D
100
AcDbEntity
  8
部品1
 48
0.01
100
AcDbCircle
 10
6507.47671962158
 20
4361.991108379625
 30
0.0
 40
2.0
100
AcDbArc
 50
90.0
 51
180.0
  0
ARC
  5
186F3
330
747D
100
AcDbEntity
  8
部品1
 48
0.01
100
AcDbCircle
 10
6683.476719621579
 20
4330.491108379624
 30
0.0
 40
2.0
100
AcDbArc
 50
270.0
 51
0.0
  0
ARC
  5
186F4
330
747D
100
AcDbEntity
  8
部品1
 48
0.01
100
AcDbCircle
 10
6683.476719621579
 20
4361.991108379625
 30
0.0
 40
2.0
100
AcDbArc
 50
0.0
 51
90.0
  0
LINE
  5
186F5
330
747D
100
AcDbEntity
  8
細線
100
AcDbLine
 10
6595.476719621579
 20
4334.491108379626
 30
0.0
 11
6521.47671962158
 21
4334.491108379626
 31
0.0
  0
LINE
  5
186F6
330
747D
100
AcDbEntity
  8
細線
100
AcDbLine
 10
6595.476719621579
 20
4357.491108379625
 30
0.0
 11
6669.476719621579
 21
4357.491108379625
 31
0.0
  0
LINE
  5
186F7
330
747D
100
AcDbEntity
  8
細線
100
AcDbLine
 10
6669.476719621579
 20
4334.491108379626
 30
0.0
 11
6595.476719621579
 21
4334.491108379626
 31
0.0
  0
LINE
  5
186F8
330
747D
100
AcDbEntity
  8
細線
100
AcDbLine
 10
6521.47671962158
 20
4357.491108379625
 30
0.0
 11
6595.476719621579
 21
4357.491108379625
 31
0.0
  0
LINE
  5
186F9
330
747D
100
AcDbEntity
  8
細線
100
AcDbLine
 10
6521.47671962158
 20
4334.491108379626
 30
0.0
 11
6521.47671962158
 21
4357.491108379625
 31
0.0
  0
LINE
  5
186FA
330
747D
100
AcDbEntity
  8
細線
100
AcDbLine
 10
6669.476719621579
 20
4357.491108379625
 30
0.0
 11
6669.476719621579
 21
4334.491108379626
 31
0.0
  0
LINE
  5
186FB
330
747D
100
AcDbEntity
  8
部品1
 48
0.01
100
AcDbLine
 10
6505.47671962158
 20
4330.491108379624
 30
0.0
 11
6505.47671962158
 21
4361.991108379625
 31
0.0
  0
LINE
  5
186FC
330
747D
100
AcDbEntity
  8
部品1
 48
0.01
100
AcDbLine
 10
6683.476719621579
 20
4328.491108379625
 30
0.0
 11
6507.47671962158
 21
4328.491108379625
 31
0.0
  0
LINE
  5
186FD
330
747D
100
AcDbEntity
  8
部品1
 48
0.01
100
AcDbLine
 10
6685.47671962158
 20
4361.991108379625
 30
0.0
 11
6685.47671962158
 21
4330.491108379624
 31
0.0
  0
LINE
  5
186FE
330
747D
100
AcDbEntity
  8
部品1
 48
0.01
100
AcDbLine
 10
6507.47671962158
 20
4363.991108379624
 30
0.0
 11
6683.476719621579
 21
4363.991108379624
 31
0.0
  0
LINE
  5
186FF
330
747D
100
AcDbEntity
  8
細線
100
AcDbLine
 10
6669.476719621579
 20
4351.491108379625
 30
0.0
 11
6595.476719621579
 21
4351.491108379625
 31
0.0
  0
LINE
  5
18700
330
747D
100
AcDbEntity
  8
細線
100
AcDbLine
 10
6669.476719621579
 20
4345.491108379625
 30
0.0
 11
6595.476719621579
 21
4345.491108379625
 31
0.0
  0
LINE
  5
18701
330
747D
100
AcDbEntity
  8
細線
100
AcDbLine
 10
6669.476719621579
 20
4339.491108379625
 30
0.0
 11
6595.476719621579
 21
4339.491108379625
 31
0.0
  0
LINE
  5
18702
330
747D
100
AcDbEntity
  8
細線
100
AcDbLine
 10
6669.476719621579
 20
4351.491108379625
 30
0.0
 11
6600.476719621579
 21
4351.491108379625
 31
0.0
  0
LINE
  5
18703
330
747D
100
AcDbEntity
  8
細線
100
AcDbLine
 10
6521.47671962158
 20
4351.491108379625
 30
0.0
 11
6595.476719621579
 21
4351.491108379625
 31
0.0
  0
LINE
  5
18704
330
747D
100
AcDbEntity
  8
細線
100
AcDbLine
 10
6521.47671962158
 20
4339.491108379625
 30
0.0
 11
6595.476719621579
 21
4339.491108379625
 31
0.0
  0
LINE
  5
18705
330
747D
100
AcDbEntity
  8
細線
100
AcDbLine
 10
6521.47671962158
 20
4345.491108379625
 30
0.0
 11
6595.476719621579
 21
4345.491108379625
 31
0.0
  0
LINE
  5
18706
330
747D
100
AcDbEntity
  8
細線
100
AcDbLine
 10
6595.476719621579
 20
4357.491108379625
 30
0.0
 11
6595.476719621579
 21
4334.491108379626
 31
0.0
  0
ARC
  5
18707
330
747D
100
AcDbEntity
  8
部品1
 48
0.01
100
AcDbCircle
 10
4373.47671962158
 20
4330.491108379624
 30
0.0
 40
2.0
100
AcDbArc
 50
270.0
 51
0.0
  0
ARC
  5
18708
330
747D
100
AcDbEntity
  8
部品1
 48
0.01
100
AcDbCircle
 10
4373.47671962158
 20
4361.991108379625
 30
0.0
 40
2.0
100
AcDbArc
 50
0.0
 51
90.0
  0
ARC
  5
18709
330
747D
100
AcDbEntity
  8
部品1
 48
0.01
100
AcDbCircle
 10
4197.47671962158
 20
4330.491108379624
 30
0.0
 40
2.0
100
AcDbArc
 50
180.0
 51
270.0
  0
ARC
  5
1870A
330
747D
100
AcDbEntity
  8
部品1
 48
0.01
100
AcDbCircle
 10
4197.47671962158
 20
4361.991108379625
 30
0.0
 40
2.0
100
AcDbArc
 50
90.0
 51
180.0
  0
LINE
  5
1870B
330
747D
100
AcDbEntity
  8
細線
100
AcDbLine
 10
4285.47671962158
 20
4334.491108379626
 30
0.0
 11
4359.47671962158
 21
4334.491108379626
 31
0.0
  0
LINE
  5
1870C
330
747D
100
AcDbEntity
  8
細線
100
AcDbLine
 10
4285.47671962158
 20
4357.491108379625
 30
0.0
 11
4211.47671962158
 21
4357.491108379625
 31
0.0
  0
LINE
  5
1870D
330
747D
100
AcDbEntity
  8
細線
100
AcDbLine
 10
4211.47671962158
 20
4334.491108379626
 30
0.0
 11
4285.47671962158
 21
4334.491108379626
 31
0.0
  0
LINE
  5
1870E
330
747D
100
AcDbEntity
  8
細線
100
AcDbLine
 10
4359.47671962158
 20
4357.491108379625
 30
0.0
 11
4285.47671962158
 21
4357.491108379625
 31
0.0
  0
LINE
  5
1870F
330
747D
100
AcDbEntity
  8
細線
100
AcDbLine
 10
4359.47671962158
 20
4334.491108379626
 30
0.0
 11
4359.47671962158
 21
4357.491108379625
 31
0.0
  0
LINE
  5
18710
330
747D
100
AcDbEntity
  8
細線
100
AcDbLine
 10
4211.47671962158
 20
4357.491108379625
 30
0.0
 11
4211.47671962158
 21
4334.491108379626
 31
0.0
  0
LINE
  5
18711
330
747D
100
AcDbEntity
  8
部品1
 48
0.01
100
AcDbLine
 10
4375.47671962158
 20
4330.491108379624
 30
0.0
 11
4375.47671962158
 21
4361.991108379625
 31
0.0
  0
LINE
  5
18712
330
747D
100
AcDbEntity
  8
部品1
 48
0.01
100
AcDbLine
 10
4197.47671962158
 20
4328.491108379625
 30
0.0
 11
4373.47671962158
 21
4328.491108379625
 31
0.0
  0
LINE
  5
18713
330
747D
100
AcDbEntity
  8
部品1
 48
0.01
100
AcDbLine
 10
4195.47671962158
 20
4361.991108379625
 30
0.0
 11
4195.47671962158
 21
4330.491108379624
 31
0.0
  0
LINE
  5
18714
330
747D
100
AcDbEntity
  8
部品1
 48
0.01
100
AcDbLine
 10
4373.47671962158
 20
4363.991108379624
 30
0.0
 11
4197.47671962158
 21
4363.991108379624
 31
0.0
  0
LINE
  5
18715
330
747D
100
AcDbEntity
  8
細線
100
AcDbLine
 10
4211.47671962158
 20
4351.491108379625
 30
0.0
 11
4285.47671962158
 21
4351.491108379625
 31
0.0
  0
LINE
  5
18716
330
747D
100
AcDbEntity
  8
細線
100
AcDbLine
 10
4211.47671962158
 20
4345.491108379625
 30
0.0
 11
4285.47671962158
 21
4345.491108379625
 31
0.0
  0
LINE
  5
18717
330
747D
100
AcDbEntity
  8
細線
100
AcDbLine
 10
4211.47671962158
 20
4339.491108379625
 30
0.0
 11
4285.47671962158
 21
4339.491108379625
 31
0.0
  0
LINE
  5
18718
330
747D
100
AcDbEntity
  8
細線
100
AcDbLine
 10
4211.47671962158
 20
4351.491108379625
 30
0.0
 11
4280.47671962158
 21
4351.491108379625
 31
0.0
  0
LINE
  5
18719
330
747D
100
AcDbEntity
  8
細線
100
AcDbLine
 10
4359.47671962158
 20
4351.491108379623
 30
0.0
 11
4285.47671962158
 21
4351.491108379625
 31
0.0
  0
LINE
  5
1871A
330
747D
100
AcDbEntity
  8
細線
100
AcDbLine
 10
4359.47671962158
 20
4339.491108379623
 30
0.0
 11
4285.47671962158
 21
4339.491108379625
 31
0.0
  0
LINE
  5
1871B
330
747D
100
AcDbEntity
  8
細線
100
AcDbLine
 10
4359.47671962158
 20
4345.491108379625
 30
0.0
 11
4285.47671962158
 21
4345.491108379625
 31
0.0
  0
LINE
  5
1871C
330
747D
100
AcDbEntity
  8
細線
100
AcDbLine
 10
4285.47671962158
 20
4357.491108379625
 30
0.0
 11
4285.47671962158
 21
4334.491108379626
 31
0.0
  0
LINE
  5
1871D
330
747D
100
AcDbEntity
  8
細線
100
AcDbLine
 10
5065.476719621582
 20
4357.491108379625
 30
0.0
 11
5065.476719621582
 21
4334.491108379626
 31
0.0
  0
LINE
  5
1871E
330
747D
100
AcDbEntity
  8
細線
100
AcDbLine
 10
4991.476719621582
 20
4345.491108379625
 30
0.0
 11
5065.476719621582
 21
4345.491108379625
 31
0.0
  0
LINE
  5
1871F
330
747D
100
AcDbEntity
  8
細線
100
AcDbLine
 10
4991.476719621582
 20
4339.491108379625
 30
0.0
 11
5065.476719621582
 21
4339.491108379625
 31
0.0
  0
LINE
  5
18720
330
747D
100
AcDbEntity
  8
細線
100
AcDbLine
 10
4991.476719621582
 20
4351.491108379625
 30
0.0
 11
5065.476719621582
 21
4351.491108379625
 31
0.0
  0
LINE
  5
18721
330
747D
100
AcDbEntity
  8
細線
100
AcDbLine
 10
5139.476719621582
 20
4351.491108379625
 30
0.0
 11
5070.476719621582
 21
4351.491108379625
 31
0.0
  0
LINE
  5
18722
330
747D
100
AcDbEntity
  8
細線
100
AcDbLine
 10
5139.476719621582
 20
4339.491108379625
 30
0.0
 11
5065.476719621582
 21
4339.491108379625
 31
0.0
  0
LINE
  5
18723
330
747D
100
AcDbEntity
  8
細線
100
AcDbLine
 10
5139.476719621582
 20
4345.491108379625
 30
0.0
 11
5065.476719621582
 21
4345.491108379625
 31
0.0
  0
LINE
  5
18724
330
747D
100
AcDbEntity
  8
細線
100
AcDbLine
 10
5139.476719621582
 20
4351.491108379625
 30
0.0
 11
5065.476719621582
 21
4351.491108379625
 31
0.0
  0
LINE
  5
18725
330
747D
100
AcDbEntity
  8
部品1
 48
0.01
100
AcDbLine
 10
4977.476719621582
 20
4363.991108379624
 30
0.0
 11
5153.476719621582
 21
4363.991108379624
 31
0.0
  0
LINE
  5
18726
330
747D
100
AcDbEntity
  8
部品1
 48
0.01
100
AcDbLine
 10
5155.476719621582
 20
4361.991108379625
 30
0.0
 11
5155.476719621582
 21
4330.491108379624
 31
0.0
  0
LINE
  5
18727
330
747D
100
AcDbEntity
  8
部品1
 48
0.01
100
AcDbLine
 10
5153.476719621582
 20
4328.491108379625
 30
0.0
 11
4977.476719621582
 21
4328.491108379625
 31
0.0
  0
LINE
  5
18728
330
747D
100
AcDbEntity
  8
部品1
 48
0.01
100
AcDbLine
 10
4975.476719621582
 20
4330.491108379624
 30
0.0
 11
4975.476719621582
 21
4361.991108379625
 31
0.0
  0
LINE
  5
18729
330
747D
100
AcDbEntity
  8
細線
100
AcDbLine
 10
5139.476719621582
 20
4357.491108379625
 30
0.0
 11
5139.476719621582
 21
4334.491108379626
 31
0.0
  0
LINE
  5
1872A
330
747D
100
AcDbEntity
  8
細線
100
AcDbLine
 10
4991.476719621582
 20
4334.491108379626
 30
0.0
 11
4991.476719621582
 21
4357.491108379625
 31
0.0
  0
LINE
  5
1872B
330
747D
100
AcDbEntity
  8
細線
100
AcDbLine
 10
4991.476719621582
 20
4357.491108379625
 30
0.0
 11
5065.476719621582
 21
4357.491108379625
 31
0.0
  0
LINE
  5
1872C
330
747D
100
AcDbEntity
  8
細線
100
AcDbLine
 10
5139.476719621582
 20
4334.491108379626
 30
0.0
 11
5065.476719621582
 21
4334.491108379626
 31
0.0
  0
LINE
  5
1872D
330
747D
100
AcDbEntity
  8
細線
100
AcDbLine
 10
5065.476719621582
 20
4357.491108379625
 30
0.0
 11
5139.476719621582
 21
4357.491108379625
 31
0.0
  0
LINE
  5
1872E
330
747D
100
AcDbEntity
  8
細線
100
AcDbLine
 10
5065.476719621582
 20
4334.491108379626
 30
0.0
 11
4991.476719621582
 21
4334.491108379626
 31
0.0
  0
ARC
  5
1872F
330
747D
100
AcDbEntity
  8
部品1
 48
0.01
100
AcDbCircle
 10
5153.476719621582
 20
4361.991108379625
 30
0.0
 40
2.0
100
AcDbArc
 50
0.0
 51
90.0
  0
ARC
  5
18730
330
747D
100
AcDbEntity
  8
部品1
 48
0.01
100
AcDbCircle
 10
5153.476719621582
 20
4330.491108379624
 30
0.0
 40
2.0
100
AcDbArc
 50
270.0
 51
0.0
  0
ARC
  5
18731
330
747D
100
AcDbEntity
  8
部品1
 48
0.01
100
AcDbCircle
 10
4977.476719621582
 20
4361.991108379625
 30
0.0
 40
2.0
100
AcDbArc
 50
90.0
 51
180.0
  0
ARC
  5
18732
330
747D
100
AcDbEntity
  8
部品1
 48
0.01
100
AcDbCircle
 10
4977.476719621582
 20
4330.491108379624
 30
0.0
 40
2.0
100
AcDbArc
 50
180.0
 51
270.0
  0
LINE
  5
18873
330
747D
100
AcDbEntity
  8
Ｇ．Ｌ
100
AcDbLine
 10
3044.377071341343
 20
2357.991108379625
 30
0.0
 11
4898.99828287566
 21
2357.991108379625
 31
0.0
  0
LINE
  5
18874
330
747D
100
AcDbEntity
  8
部品1
100
AcDbLine
 10
3143.874082665443
 20
2487.89491894729
 30
0.0
 11
3293.874082665443
 21
2487.89491894729
 31
0.0
  0
LINE
  5
18875
330
747D
100
AcDbEntity
  8
部品1
100
AcDbLine
 10
3218.874082665443
 20
2357.991108379625
 30
0.0
 11
3143.874082665443
 21
2487.89491894729
 31
0.0
  0
TEXT
  5
18876
330
747D
100
AcDbEntity
  8
部品1
100
AcDbText
 10
3321.979024790217
 20
2394.098011985527
 30
0.0
 40
125.0
  1
G.L
  7
STYLE2
100
AcDbText
  0
LINE
  5
18877
330
747D
100
AcDbEntity
  8
部品1
100
AcDbLine
 10
3293.874082665443
 20
2487.89491894729
 30
0.0
 11
3218.874082665443
 21
2357.991108379625
 31
0.0
  0
LINE
  5
18878
330
747D
100
AcDbEntity
  8
部品1
100
AcDbLine
 10
3910.47671962158
 20
2457.991108379625
 30
0.0
 11
4881.365584804813
 21
2457.991108379623
 31
0.0
  0
LINE
  5
18879
330
747D
100
AcDbEntity
  8
部品1
100
AcDbLine
 10
3910.47671962158
 20
4297.991108379625
 30
0.0
 11
4556.923940301236
 21
4297.991108379625
 31
0.0
  0
LINE
  5
1887A
330
747D
100
AcDbEntity
  8
部品1
100
AcDbLine
 10
3910.47671962158
 20
4391.991108379628
 30
0.0
 11
3910.47671962158
 21
2357.991108379625
 31
0.0
  0
LINE
  5
1887B
330
747D
100
AcDbEntity
  8
部品1
100
AcDbLine
 10
8440.47671962158
 20
4297.991108379625
 30
0.0
 11
8440.47671962158
 21
2499.991108379645
 31
0.0
  0
LINE
  5
1887C
330
747D
100
AcDbEntity
  8
部品1
100
AcDbLine
 10
3970.47671962158
 20
4297.991108379625
 30
0.0
 11
3970.47671962158
 21
2499.991108379629
 31
0.0
  0
LINE
  5
1887D
330
747D
100
AcDbEntity
  8
部品1
100
AcDbLine
 10
8500.476719621579
 20
4391.991108379628
 30
0.0
 11
8500.476719621579
 21
2357.991108379625
 31
0.0
  0
TEXT
  5
1887E
330
747D
100
AcDbEntity
  8
部品1
100
AcDbText
 10
5866.406998165583
 20
1734.592756089454
 30
0.0
 40
135.0
  1
正面図
  7
STYLE2
100
AcDbText
  0
TEXT
  5
1887F
330
747D
100
AcDbEntity
  8
部品1
100
AcDbText
 10
11468.98486973845
 20
1734.59275608945
 30
0.0
 40
135.0
  1
側面図
  7
STYLE2
100
AcDbText
  0
LINE
  5
18880
330
747D
100
AcDbEntity
  8
部品1
100
AcDbLine
 10
3910.47671962158
 20
2499.991108379629
 30
0.0
 11
4873.959851615056
 21
2499.991108379631
 31
0.0
  0
LINE
  5
18881
330
747D
100
AcDbEntity
  8
部品1
100
AcDbLine
 10
7030.476719621581
 20
4297.991108379625
 30
0.0
 11
7030.476719621581
 21
2499.991108379629
 31
0.0
  0
LINE
  5
18882
330
747D
100
AcDbEntity
  8
部品1
100
AcDbLine
 10
5500.47671962158
 20
4297.991108379625
 30
0.0
 11
5500.47671962158
 21
2499.991108379629
 31
0.0
  0
LINE
  5
18883
330
747D
100
AcDbEntity
  8
部品1
100
AcDbLine
 10
6910.476719621581
 20
4297.991108379625
 30
0.0
 11
6910.476719621581
 21
2499.991108379629
 31
0.0
  0
LINE
  5
18884
330
747D
100
AcDbEntity
  8
部品1
100
AcDbLine
 10
5380.476719621579
 20
4297.991108379625
 30
0.0
 11
5380.476719621579
 21
2499.991108379629
 31
0.0
  0
LINE
  5
18885
330
747D
100
AcDbEntity
  8
細線
 48
50.0
100
AcDbLine
 10
5440.476719621578
 20
4297.991108379625
 30
0.0
 11
5440.47671962158
 21
4391.99110837963
 31
0.0
  0
LINE
  5
18886
330
747D
100
AcDbEntity
  8
細線
 48
50.0
100
AcDbLine
 10
5430.476719621577
 20
4391.991108379628
 30
0.0
 11
5430.476719621577
 21
4532.991108379623
 31
0.0
  0
LINE
  5
18887
330
747D
100
AcDbEntity
  8
細線
 48
50.0
100
AcDbLine
 10
6970.476719621578
 20
4297.991108379625
 30
0.0
 11
6970.476719621581
 21
4391.99110837963
 31
0.0
  0
LINE
  5
18888
330
747D
100
AcDbEntity
  8
細線
 48
50.0
100
AcDbLine
 10
6960.476719621578
 20
4391.991108379628
 30
0.0
 11
6960.476719621578
 21
4532.991108379618
 31
0.0
  0
LINE
  5
18889
330
747D
100
AcDbEntity
  8
寸法
 48
50.0
100
AcDbLine
 10
4504.473292971936
 20
4595.453511005471
 30
0.0
 11
4673.197695385403
 21
3638.569875072126
 31
0.0
  0
LINE
  5
1888A
330
747D
100
AcDbEntity
  8
寸法
 48
50.0
100
AcDbLine
 10
4534.936091328509
 20
4595.453511005471
 30
0.0
 11
4698.744579981654
 21
3666.449407407847
 31
0.0
  0
LINE
  5
1888B
330
747D
100
AcDbEntity
  8
寸法
 48
50.0
100
AcDbLine
 10
4698.744579981652
 20
3666.449407407848
 30
0.0
 11
4985.821854671409
 21
3641.333400316577
 31
0.0
  0
LINE
  5
1888C
330
747D
100
AcDbEntity
  8
寸法
 48
50.0
100
AcDbLine
 10
4985.821854671409
 20
3641.333400316577
 30
0.0
 11
4544.081990642295
 21
3435.346718807454
 31
0.0
  0
LINE
  5
1888D
330
747D
100
AcDbEntity
  8
寸法
 48
50.0
100
AcDbLine
 10
4673.197695385403
 20
3638.569875072126
 30
0.0
 11
4871.671705563704
 21
3621.205649176995
 31
0.0
  0
LINE
  5
1888E
330
747D
100
AcDbEntity
  8
寸法
 48
50.0
100
AcDbLine
 10
4871.671705563704
 20
3621.205649176995
 30
0.0
 11
4429.931841534588
 21
3415.218967667872
 31
0.0
  0
LINE
  5
1888F
330
747D
100
AcDbEntity
  8
寸法
 48
50.0
100
AcDbLine
 10
4742.556000820598
 20
3417.982492912323
 30
0.0
 11
4953.716731587381
 21
2220.430479497467
 31
0.0
  0
LINE
  5
18890
330
747D
100
AcDbEntity
  8
寸法
 48
50.0
100
AcDbLine
 10
4717.009116224345
 20
3390.1029605766
 30
0.0
 11
4429.931841534588
 21
3415.218967667872
 31
0.0
  0
LINE
  5
18891
330
747D
100
AcDbEntity
  8
寸法
 48
50.0
100
AcDbLine
 10
4742.556000820598
 20
3417.982492912323
 30
0.0
 11
4544.081990642295
 21
3435.346718807454
 31
0.0
  0
LINE
  5
18892
330
747D
100
AcDbEntity
  8
寸法
 48
50.0
100
AcDbLine
 10
4717.009116224345
 20
3390.1029605766
 30
0.0
 11
4923.25393323081
 21
2220.430479497467
 31
0.0
  0
LINE
  5
18893
330
747D
100
AcDbEntity
  8
Ｇ．Ｌ
100
AcDbLine
 10
4929.461081232232
 20
2357.991108379625
 30
0.0
 11
13631.26923147702
 21
2357.991108379625
 31
0.0
  0
LINE
  5
18894
330
747D
100
AcDbEntity
  8
部品1
100
AcDbLine
 10
4911.828383161386
 20
2457.991108379625
 30
0.0
 11
8500.476719621579
 21
2457.991108379625
 31
0.0
  0
LINE
  5
18895
330
747D
100
AcDbEntity
  8
部品1
100
AcDbLine
 10
4904.422649971629
 20
2499.991108379632
 30
0.0
 11
8500.476719621579
 21
2499.991108379645
 31
0.0
  0
LINE
  5
18896
330
747D
100
AcDbEntity
  8
部品1
100
AcDbLine
 10
4587.386738657811
 20
4297.991108379625
 30
0.0
 11
8500.476719621579
 21
4297.991108379625
 31
0.0
  0
LINE
  5
18897
330
747D
100
AcDbEntity
  8
部品1
100
AcDbLine
 10
6970.476719621579
 20
2499.99110837964
 30
0.0
 11
6970.476719621581
 21
2457.991108379625
 31
0.0
  0
LINE
  5
18898
330
747D
100
AcDbEntity
  8
部品1
100
AcDbLine
 10
5440.47671962158
 20
2499.99110837964
 30
0.0
 11
5440.476719621582
 21
2457.991108379625
 31
0.0
  0
TEXT
  5
18899
330
747D
100
AcDbEntity
  8
文字
 62
     7
 48
50.0
100
AcDbText
 10
13209.4053442172
 20
228.5435242569015
 30
0.0
 40
100.0
  1
○有効開口寸法 ： 824×1770(mm)
  7
STYLE2
100
AcDbText
  0
LINE
  5
1889A
330
747D
100
AcDbEntity
  8
部品1
100
AcDbLine
 10
5775.881594427627
 20
1927.486285307978
 30
0.0
 11
5775.881594427627
 21
1687.593963762445
 31
0.0
  0
LINE
  5
1889B
330
747D
100
AcDbEntity
  8
部品1
100
AcDbLine
 10
5775.881594427627
 20
1687.593963762445
 30
0.0
 11
6539.352260656068
 21
1687.593963762445
 31
0.0
  0
LINE
  5
1889C
330
747D
100
AcDbEntity
  8
部品1
100
AcDbLine
 10
6539.352260656068
 20
1687.593963762445
 30
0.0
 11
6539.352260656068
 21
1927.486285307978
 31
0.0
  0
LINE
  5
1889D
330
747D
100
AcDbEntity
  8
部品1
100
AcDbLine
 10
6539.352260656068
 20
1927.486285307978
 30
0.0
 11
5775.881594427627
 21
1927.486285307978
 31
0.0
  0
LINE
  5
1889E
330
747D
100
AcDbEntity
  8
部品1
100
AcDbLine
 10
11379.53876831484
 20
1927.486285307974
 30
0.0
 11
11379.53876831484
 21
1687.593963762441
 31
0.0
  0
LINE
  5
1889F
330
747D
100
AcDbEntity
  8
部品1
100
AcDbLine
 10
11379.53876831484
 20
1687.593963762441
 30
0.0
 11
12143.00943454328
 21
1687.593963762441
 31
0.0
  0
LINE
  5
188A0
330
747D
100
AcDbEntity
  8
部品1
100
AcDbLine
 10
12143.00943454328
 20
1687.593963762441
 30
0.0
 11
12143.00943454328
 21
1927.486285307974
 31
0.0
  0
LINE
  5
188A1
330
747D
100
AcDbEntity
  8
部品1
100
AcDbLine
 10
12143.00943454328
 20
1927.486285307974
 30
0.0
 11
11379.53876831484
 21
1927.486285307974
 31
0.0
  0
TEXT
  5
188A2
330
747D
100
AcDbEntity
  8
文字
 62
     7
 48
50.0
100
AcDbText
 10
15022.63965474517
 20
10930.01374588372
 30
0.0
 40
100.0
  1
F12            1.2
  7
STYLE1
100
AcDbText
  0
TEXT
  5
188A3
330
747D
100
AcDbEntity
  8
文字
 62
     7
 48
50.0
100
AcDbText
 10
13583.11819016569
 20
10930.01374588373
 30
0.0
 40
100.0
  1
根太
  7
STYLE1
100
AcDbText
  0
TEXT
  5
188A4
330
747D
100
AcDbEntity
  8
文字
 62
     7
 48
50.0
100
AcDbText
 10
13248.77747366449
 20
8550.013745883733
 30
0.0
 40
100.0
  1
16
  7
STYLE1
100
AcDbText
  0
LINE
  5
188A5
330
747D
100
AcDbEntity
  8
仕様書枠
 48
50.0
100
AcDbLine
 10
16307.19999999999
 20
8179.600000000004
 30
0.0
 11
13127.19999999999
 21
8179.600000000005
 31
0.0
  0
TEXT
  5
188A6
330
747D
100
AcDbEntity
  8
文字
 62
     7
 48
50.0
100
AcDbText
 10
15022.63965474517
 20
9570.013745883727
 30
0.0
 40
100.0
  1
F12            1.0
  7
STYLE1
100
AcDbText
  0
TEXT
  5
188A7
330
747D
100
AcDbEntity
  8
文字
 62
     7
 48
50.0
100
AcDbText
 10
13583.11819016569
 20
9570.013745883729
 30
0.0
 40
100.0
  1
母屋中
  7
STYLE1
100
AcDbText
  0
TEXT
  5
188A8
330
747D
100
AcDbEntity
  8
文字
 62
     7
 48
50.0
100
AcDbText
 10
13583.11819016568
 20
8720.013745883733
 30
0.0
 40
100.0
  1
棚板
  7
STYLE1
100
AcDbText
  0
TEXT
  5
188A9
330
747D
100
AcDbEntity
  8
文字
 62
     7
 48
50.0
100
AcDbText
 10
15022.63965474515
 20
8720.013745883729
 30
0.0
 40
100.0
  1
F12            0.6
  7
STYLE1
100
AcDbText
  0
TEXT
  5
188AA
330
747D
100
AcDbEntity
  8
文字
 62
     7
 48
50.0
100
AcDbText
 10
13583.11819016568
 20
8890.013745883731
 30
0.0
 40
100.0
  1
扉
  7
STYLE1
100
AcDbText
  0
TEXT
  5
188AB
330
747D
100
AcDbEntity
  8
文字
 62
     7
 48
50.0
100
AcDbText
 10
15022.63965474515
 20
8890.013745883727
 30
0.0
 40
100.0
  1
F12            0.8
  7
STYLE1
100
AcDbText
  0
TEXT
  5
188AC
330
747D
100
AcDbEntity
  8
文字
 62
     7
 48
50.0
100
AcDbText
 10
13583.11819016568
 20
9060.013745883731
 30
0.0
 40
100.0
  1
正面パネル
  7
STYLE1
100
AcDbText
  0
TEXT
  5
188AD
330
747D
100
AcDbEntity
  8
文字
 62
     7
 48
50.0
100
AcDbText
 10
15022.63965474515
 20
9060.013745883727
 30
0.0
 40
100.0
  1
F12            0.7
  7
STYLE1
100
AcDbText
  0
TEXT
  5
188AE
330
747D
100
AcDbEntity
  8
文字
 62
     7
 48
50.0
100
AcDbText
 10
14269.60464131317
 20
483.8967129911416
 30
0.0
 40
160.0
  1
ＮＸＮ－４１ＣＳＬ－Ｎ
  7
STYLE2
100
AcDbText
  0
TEXT
  5
188AF
330
747D
100
AcDbEntity
  8
文字
 62
     7
 48
50.0
100
AcDbText
 10
15022.63965474517
 20
10590.01374588372
 30
0.0
 40
100.0
  1
F12            1.0
  7
STYLE1
100
AcDbText
  0
TEXT
  5
188B0
330
747D
100
AcDbEntity
  8
文字
 62
     7
 48
50.0
100
AcDbText
 10
13248.77747366448
 20
8890.013745883731
 30
0.0
 40
100.0
  1
14
  7
STYLE1
100
AcDbText
  0
TEXT
  5
188B1
330
747D
100
AcDbEntity
  8
文字
 62
     7
 48
50.0
100
AcDbText
 10
13583.1181901657
 20
10590.01374588373
 30
0.0
 40
100.0
  1
床パネル
 41
0.9
  7
STYLE1
100
AcDbText
  0
LINE
  5
188B2
330
747D
100
AcDbEntity
  8
仕様書枠
 48
50.0
100
AcDbLine
 10
16307.19999999999
 20
8859.600000000002
 30
0.0
 11
13127.2
 21
8859.600000000005
 31
0.0
  0
LINE
  5
188B3
330
747D
100
AcDbEntity
  8
仕様書枠
 48
50.0
100
AcDbLine
 10
13127.2
 20
11409.6
 30
0.0
 11
13127.19999999999
 21
8179.600000000005
 31
0.0
  0
TEXT
  5
188B4
330
747D
100
AcDbEntity
  8
文字
 62
     7
 48
50.0
100
AcDbText
 10
13229.83081656553
 20
8210.013745883735
 30
0.0
 40
100.0
  1
Y10→溶融亜鉛-5％アルミニウム合金めっき鋼板(JIS G 3317)
 41
0.9
  7
STYLE1
100
AcDbText
  0
TEXT
  5
188B5
330
747D
100
AcDbEntity
  8
文字
 62
     7
 48
50.0
100
AcDbText
 10
13229.83081656553
 20
8380.013745883735
 30
0.0
 40
100.0
  1
F12→溶融亜鉛めっき鋼板(JIS G 3302)
  7
STYLE1
100
AcDbText
  0
LINE
  5
188B6
330
747D
100
AcDbEntity
  8
仕様書枠
 48
50.0
100
AcDbLine
 10
16307.19999999999
 20
8349.600000000004
 30
0.0
 11
13127.19999999999
 21
8349.600000000007
 31
0.0
  0
LINE
  5
188B7
330
747D
100
AcDbEntity
  8
仕様書枠
 48
50.0
100
AcDbLine
 10
16307.19999999999
 20
8519.600000000004
 30
0.0
 11
13127.19999999999
 21
8519.600000000005
 31
0.0
  0
TEXT
  5
188B8
330
747D
100
AcDbEntity
  8
文字
 62
     7
 48
50.0
100
AcDbText
 10
15022.63965474515
 20
9230.013745883727
 30
0.0
 40
100.0
  1
F12            0.6
  7
STYLE1
100
AcDbText
  0
TEXT
  5
188B9
330
747D
100
AcDbEntity
  8
文字
 62
     7
 48
50.0
100
AcDbText
 10
15022.63965474517
 20
9400.013745883727
 30
0.0
 40
100.0
  1
Y10            0.5
  7
STYLE1
100
AcDbText
  0
TEXT
  5
188BA
330
747D
100
AcDbEntity
  8
文字
 62
     7
 48
50.0
100
AcDbText
 10
15022.63965474517
 20
9910.013745883727
 30
0.0
 40
100.0
  1
Y10            0.7
  7
STYLE1
100
AcDbText
  0
TEXT
  5
188BB
330
747D
100
AcDbEntity
  8
文字
 62
     7
 48
50.0
100
AcDbText
 10
15022.63965474517
 20
10080.01374588372
 30
0.0
 40
100.0
  1
Y10            0.7
  7
STYLE1
100
AcDbText
  0
TEXT
  5
188BC
330
747D
100
AcDbEntity
  8
文字
 62
     7
 48
50.0
100
AcDbText
 10
15022.63965474517
 20
10250.01374588372
 30
0.0
 40
100.0
  1
Y10            1.0
  7
STYLE1
100
AcDbText
  0
TEXT
  5
188BD
330
747D
100
AcDbEntity
  8
文字
 62
     7
 48
50.0
100
AcDbText
 10
15022.63965474517
 20
10420.01374588372
 30
0.0
 40
100.0
  1
Y10            1.0
  7
STYLE1
100
AcDbText
  0
TEXT
  5
188BE
330
747D
100
AcDbEntity
  8
文字
 62
     7
 48
50.0
100
AcDbText
 10
15022.63965474518
 20
10760.01374588372
 30
0.0
 40
100.0
  1
F12            1.0
  7
STYLE1
100
AcDbText
  0
TEXT
  5
188BF
330
747D
100
AcDbEntity
  8
文字
 62
     7
 48
50.0
100
AcDbText
 10
15022.63965474517
 20
11100.01374588372
 30
0.0
 40
100.0
  1
F12            1.2
  7
STYLE1
100
AcDbText
  0
TEXT
  5
188C0
330
747D
100
AcDbEntity
  8
文字
 62
     7
 48
50.0
100
AcDbText
 10
13248.77747366448
 20
9230.013745883731
 30
0.0
 40
100.0
  1
12
  7
STYLE1
100
AcDbText
  0
TEXT
  5
188C1
330
747D
100
AcDbEntity
  8
文字
 62
     7
 48
50.0
100
AcDbText
 10
13248.77747366448
 20
9060.013745883731
 30
0.0
 40
100.0
  1
13
  7
STYLE1
100
AcDbText
  0
LINE
  5
188C2
330
747D
100
AcDbEntity
  8
仕様書枠
 48
50.0
100
AcDbLine
 10
16307.19999999999
 20
8689.600000000003
 30
0.0
 11
13127.2
 21
8689.600000000003
 31
0.0
  0
LINE
  5
188C3
330
747D
100
AcDbEntity
  8
仕様書枠
 48
50.0
100
AcDbLine
 10
16307.19999999999
 20
9029.6
 30
0.0
 11
13127.2
 21
9029.600000000002
 31
0.0
  0
TEXT
  5
188C4
330
747D
100
AcDbEntity
  8
文字
 62
     7
 48
50.0
100
AcDbText
 10
13248.77747366448
 20
9400.013745883729
 30
0.0
 40
100.0
  1
11
  7
STYLE1
100
AcDbText
  0
LINE
  5
188C5
330
747D
100
AcDbEntity
  8
仕様書枠
 48
50.0
100
AcDbLine
 10
16307.2
 20
9709.600000000001
 30
0.0
 11
13127.2
 21
9709.600000000001
 31
0.0
  0
LINE
  5
188C6
330
747D
100
AcDbEntity
  8
仕様書枠
 48
50.0
100
AcDbLine
 10
16307.2
 20
10219.6
 30
0.0
 11
13127.2
 21
10219.6
 31
0.0
  0
LINE
  5
188C7
330
747D
100
AcDbEntity
  8
仕様書枠
 48
50.0
100
AcDbLine
 10
16307.19999999999
 20
9369.600000000001
 30
0.0
 11
13127.2
 21
9369.600000000003
 31
0.0
  0
LINE
  5
188C8
330
747D
100
AcDbEntity
  8
仕様書枠
 48
50.0
100
AcDbLine
 10
16307.19999999999
 20
9199.600000000001
 30
0.0
 11
13127.2
 21
9199.600000000001
 31
0.0
  0
LINE
  5
188C9
330
747D
100
AcDbEntity
  8
仕様書枠
 48
50.0
100
AcDbLine
 10
16307.19999999999
 20
9539.6
 30
0.0
 11
13127.2
 21
9539.600000000003
 31
0.0
  0
TEXT
  5
188CA
330
747D
100
AcDbEntity
  8
文字
 62
     7
 48
50.0
100
AcDbText
 10
13271.19032244792
 20
10250.01374588373
 30
0.0
 40
100.0
  1
6
  7
STYLE1
100
AcDbText
  0
TEXT
  5
188CB
330
747D
100
AcDbEntity
  8
文字
 62
     7
 48
50.0
100
AcDbText
 10
13271.19032244792
 20
10080.01374588373
 30
0.0
 40
100.0
  1
7
  7
STYLE1
100
AcDbText
  0
TEXT
  5
188CC
330
747D
100
AcDbEntity
  8
文字
 62
     7
 48
50.0
100
AcDbText
 10
13271.19032244792
 20
9740.013745883731
 30
0.0
 40
100.0
  1
9
  7
STYLE1
100
AcDbText
  0
TEXT
  5
188CD
330
747D
100
AcDbEntity
  8
文字
 62
     7
 48
50.0
100
AcDbText
 10
13271.19032244792
 20
9910.01374588373
 30
0.0
 40
100.0
  1
8
  7
STYLE1
100
AcDbText
  0
TEXT
  5
188CE
330
747D
100
AcDbEntity
  8
文字
 62
     7
 48
50.0
100
AcDbText
 10
13583.1181901657
 20
9910.01374588373
 30
0.0
 40
100.0
  1
鼻隠シ前後
  7
STYLE1
100
AcDbText
  0
TEXT
  5
188CF
330
747D
100
AcDbEntity
  8
文字
 62
     7
 48
50.0
100
AcDbText
 10
13583.11819016569
 20
9400.013745883729
 30
0.0
 40
100.0
  1
屋根パネル
  7
STYLE1
100
AcDbText
  0
TEXT
  5
188D0
330
747D
100
AcDbEntity
  8
文字
 62
     7
 48
50.0
100
AcDbText
 10
13583.11819016568
 20
9230.013745883731
 30
0.0
 40
100.0
  1
壁パネル
  7
STYLE1
100
AcDbText
  0
TEXT
  5
188D1
330
747D
100
AcDbEntity
  8
文字
 62
     7
 48
50.0
100
AcDbText
 10
13248.77747366448
 20
9570.013745883729
 30
0.0
 40
100.0
  1
10
  7
STYLE1
100
AcDbText
  0
TEXT
  5
188D2
330
747D
100
AcDbEntity
  8
文字
 62
     7
 48
50.0
100
AcDbText
 10
13583.1181901657
 20
10080.01374588373
 30
0.0
 40
100.0
  1
妻板左右
  7
STYLE1
100
AcDbText
  0
TEXT
  5
188D3
330
747D
100
AcDbEntity
  8
文字
 62
     7
 48
50.0
100
AcDbText
 10
13271.19032244792
 20
10420.01374588373
 30
0.0
 40
100.0
  1
5
  7
STYLE1
100
AcDbText
  0
TEXT
  5
188D4
330
747D
100
AcDbEntity
  8
文字
 62
     7
 48
50.0
100
AcDbText
 10
13583.1181901657
 20
10250.01374588373
 30
0.0
 40
100.0
  1
桁後
  7
STYLE1
100
AcDbText
  0
TEXT
  5
188D5
330
747D
100
AcDbEntity
  8
文字
 62
     7
 48
50.0
100
AcDbText
 10
13583.1181901657
 20
10420.01374588373
 30
0.0
 40
100.0
  1
鴨居
  7
STYLE1
100
AcDbText
  0
TEXT
  5
188D6
330
747D
100
AcDbEntity
  8
文字
 62
     7
 48
50.0
100
AcDbText
 10
13583.1181901657
 20
10760.01374588373
 30
0.0
 40
100.0
  1
柱
  7
STYLE1
100
AcDbText
  0
TEXT
  5
188D7
330
747D
100
AcDbEntity
  8
文字
 62
     7
 48
50.0
100
AcDbText
 10
13583.11819016569
 20
11100.01374588373
 30
0.0
 40
100.0
  1
土台枠
  7
STYLE1
100
AcDbText
  0
TEXT
  5
188D8
330
747D
100
AcDbEntity
  8
文字
 62
     7
 48
50.0
100
AcDbText
 10
14859.79774614482
 20
11270.01374588373
 30
0.0
 40
100.0
  1
材料（材質）　　単位mm
  7
STYLE1
100
AcDbText
  0
TEXT
  5
188D9
330
747D
100
AcDbEntity
  8
文字
 62
     7
 48
50.0
100
AcDbText
 10
13732.03840939435
 20
11270.01374588373
 30
0.0
 40
100.0
  1
部　　品　　名
  7
STYLE1
100
AcDbText
  0
TEXT
  5
188DA
330
747D
100
AcDbEntity
  8
文字
 62
     7
 48
50.0
100
AcDbText
 10
13271.19032244792
 20
10760.01374588373
 30
0.0
 40
100.0
  1
3
  7
STYLE1
100
AcDbText
  0
TEXT
  5
188DB
330
747D
100
AcDbEntity
  8
文字
 62
     7
 48
50.0
100
AcDbText
 10
13271.19032244792
 20
10590.01374588373
 30
0.0
 40
100.0
  1
4
  7
STYLE1
100
AcDbText
  0
TEXT
  5
188DC
330
747D
100
AcDbEntity
  8
文字
 62
     7
 48
50.0
100
AcDbText
 10
13271.19032244792
 20
10930.01374588373
 30
0.0
 40
100.0
  1
2
  7
STYLE1
100
AcDbText
  0
TEXT
  5
188DD
330
747D
100
AcDbEntity
  8
文字
 62
     7
 48
50.0
100
AcDbText
 10
13271.19032244792
 20
11100.01374588373
 30
0.0
 40
100.0
  1
1
  7
STYLE1
100
AcDbText
  0
TEXT
  5
188DE
330
747D
100
AcDbEntity
  8
文字
 62
     7
 48
50.0
100
AcDbText
 10
13197.42518560407
 20
11270.01374588373
 30
0.0
 40
100.0
  1
品番
  7
STYLE1
100
AcDbText
  0
LINE
  5
188DF
330
747D
100
AcDbEntity
  8
仕様書枠
 48
50.0
100
AcDbLine
 10
16307.19999999999
 20
10729.6
 30
0.0
 11
13127.2
 21
10729.6
 31
0.0
  0
LINE
  5
188E0
330
747D
100
AcDbEntity
  8
仕様書枠
 48
50.0
100
AcDbLine
 10
16307.19999999999
 20
10389.6
 30
0.0
 11
13127.2
 21
10389.6
 31
0.0
  0
LINE
  5
188E1
330
747D
100
AcDbEntity
  8
仕様書枠
 48
50.0
100
AcDbLine
 10
16307.19999999999
 20
10559.6
 30
0.0
 11
13127.2
 21
10559.6
 31
0.0
  0
LINE
  5
188E2
330
747D
100
AcDbEntity
  8
仕様書枠
 48
50.0
100
AcDbLine
 10
16307.2
 20
11069.6
 30
0.0
 11
13127.2
 21
11069.6
 31
0.0
  0
LINE
  5
188E3
330
747D
100
AcDbEntity
  8
仕様書枠
 48
50.0
100
AcDbLine
 10
16307.2
 20
10899.6
 30
0.0
 11
13127.2
 21
10899.6
 31
0.0
  0
LINE
  5
188E4
330
747D
100
AcDbEntity
  8
仕様書枠
 48
50.0
100
AcDbLine
 10
16307.2
 20
11239.6
 30
0.0
 11
13127.2
 21
11239.6
 31
0.0
  0
LINE
  5
188E5
330
747D
100
AcDbEntity
  8
仕様書枠
 48
50.0
100
AcDbLine
 10
13490.2
 20
11409.6
 30
0.0
 11
13490.20000000001
 21
8519.600000000005
 31
0.0
  0
LINE
  5
188E6
330
747D
100
AcDbEntity
  8
仕様書枠
 48
50.0
100
AcDbLine
 10
14785.2
 20
11409.59999999999
 30
0.0
 11
14785.19999999999
 21
8519.600000000005
 31
0.0
  0
LINE
  5
188E7
330
747D
100
AcDbEntity
  8
仕様書枠
 48
50.0
100
AcDbLine
 10
16307.19999999999
 20
8179.600000000004
 30
0.0
 11
16307.2
 21
11409.6
 31
0.0
  0
LINE
  5
188E8
330
747D
100
AcDbEntity
  8
仕様書枠
 48
50.0
100
AcDbLine
 10
16307.2
 20
11409.6
 30
0.0
 11
13127.2
 21
11409.6
 31
0.0
  0
LINE
  5
188E9
330
747D
100
AcDbEntity
  8
仕様書枠
 48
50.0
100
AcDbLine
 10
16307.2
 20
9879.600000000001
 30
0.0
 11
13127.2
 21
9879.600000000003
 31
0.0
  0
TEXT
  5
188EA
330
747D
100
AcDbEntity
  8
文字
 62
     7
 48
50.0
100
AcDbText
 10
15022.63965474515
 20
8550.013745883722
 30
0.0
 40
100.0
  1
F12            2.3
  7
STYLE1
100
AcDbText
  0
TEXT
  5
188EB
330
747D
100
AcDbEntity
  8
文字
 62
     7
 48
50.0
100
AcDbText
 10
13583.11819016568
 20
8550.013745883729
 30
0.0
 40
100.0
  1
アンカープレート
  7
STYLE1
100
AcDbText
  0
LINE
  5
188EC
330
747D
100
AcDbEntity
  8
仕様書枠
 48
50.0
100
AcDbLine
 10
16307.2
 20
10049.6
 30
0.0
 11
13127.2
 21
10049.6
 31
0.0
  0
TEXT
  5
188ED
330
747D
100
AcDbEntity
  8
文字
 62
     7
 48
50.0
100
AcDbText
 10
13248.77747366448
 20
8720.013745883731
 30
0.0
 40
100.0
  1
15
  7
STYLE1
100
AcDbText
  0
TEXT
  5
188EE
330
747D
100
AcDbEntity
  8
文字
 62
     7
 48
50.0
100
AcDbText
 10
15022.63965474516
 20
9740.013745883731
 30
0.0
 40
100.0
  1
F12,Y10        1.0
  7
STYLE1
100
AcDbText
  0
TEXT
  5
188EF
330
747D
100
AcDbEntity
  8
文字
 62
     7
 48
50.0
100
AcDbText
 10
13583.11819016569
 20
9740.013745883731
 30
0.0
 40
100.0
  1
梁中
 41
0.9
  7
STYLE1
100
AcDbText
  0
DIMENSION
  5
188F0
330
747D
100
AcDbEntity
  8
寸法
 48
50.0
100
AcDbDimension
  2
*D21
 10
3910.47671962158
 20
4745.532693637872
 30
0.0
 11
6157.616927541845
 21
4745.532693637872
 31
0.0
 70
   160
  1
柱外寸法 N x 1530
 71
     5
 42
4590.000000000003
  3
INABA_S40G
100
AcDbAlignedDimension
 13
8500.476719621584
 23
4532.991108379628
 33
0.0
 14
3910.47671962158
 24
4532.991108379634
 34
0.0
100
AcDbRotatedDimension
  0
DIMENSION
  5
188F1
330
747D
100
AcDbEntity
  8
寸法
 48
50.0
100
AcDbDimension
  2
*D22
 10
8550.476719621583
 20
4968.489672075721
 30
0.0
 11
6157.616927541845
 21
4968.489672075721
 31
0.0
 70
   160
  1
N x 1530 +100
 71
     5
 42
4690.000000000003
  3
INABA_S40G
100
AcDbAlignedDimension
 13
3860.47671962158
 23
4532.991108379632
 33
0.0
 14
8550.476719621583
 24
4532.991108379627
 34
0.0
100
AcDbRotatedDimension
  0
DIMENSION
  5
188F2
330
747D
100
AcDbEntity
  8
寸法
 48
50.0
100
AcDbDimension
  2
*D23
 10
3860.47671962158
 20
4745.532693637872
 30
0.0
 11
3546.991438247333
 21
4745.532693637872
 31
0.0
 70
   160
 71
     5
 42
50.0
  3
INABA_S40G
100
AcDbAlignedDimension
 13
3910.47671962158
 23
4532.991108379634
 33
0.0
 14
3860.47671962158
 24
4532.991108379632
 34
0.0
100
AcDbRotatedDimension
1001
ACAD
1000
DSTYLE
1002
{
1002
}
  0
LINE
  5
188F3
330
747D
100
AcDbEntity
  8
部品1
100
AcDbLine
 10
3860.896380636911
 20
4525.594582984392
 30
0.0
 11
3862.029777969259
 21
4505.618455001793
 31
0.0
  0
LINE
  5
188F4
330
747D
100
AcDbEntity
  8
部品1
100
AcDbLine
 10
3873.466798290832
 20
4409.961047834735
 30
0.0
 11
3874.111704097948
 21
4398.594582984391
 31
0.0
  0
LINE
  5
188F5
330
747D
100
AcDbEntity
  8
部品1
100
AcDbLine
 10
3865.230767765988
 20
4502.161047834735
 30
0.0
 11
3870.265808494096
 21
4413.418455001792
 31
0.0
  0
ARC
  5
188F6
330
747D
100
AcDbEntity
  8
部品1
 48
50.0
100
AcDbCircle
 10
3862.235584869803
 20
4501.991108379632
 30
0.0
 40
3.0
100
AcDbArc
 50
3.247342790337682
 51
82.34187279284659
  0
ARC
  5
188F7
330
747D
100
AcDbEntity
  8
部品1
 48
50.0
100
AcDbCircle
 10
3870.471615394647
 20
4409.791108379631
 30
0.0
 40
3.0
100
AcDbArc
 50
3.247342790337682
 51
82.34187279284659
  0
ARC
  5
188F8
330
747D
100
AcDbEntity
  8
部品1
 48
50.0
100
AcDbCircle
 10
3870.964684503208
 20
4413.458107541315
 30
0.0
 40
0.7
100
AcDbArc
 50
183.2473427902856
 51
262.3418727924265
  0
ARC
  5
188F9
330
747D
100
AcDbEntity
  8
部品1
 48
50.0
100
AcDbCircle
 10
3862.728653978371
 20
4505.65810754132
 30
0.0
 40
0.7
100
AcDbArc
 50
183.2473427903897
 51
262.3418727924265
  0
ARC
  5
188FA
330
747D
100
AcDbEntity
  8
部品1
100
AcDbCircle
 10
3881.100464189044
 20
4398.991108379632
 30
0.0
 40
7.0
100
AcDbArc
 50
183.2473427903377
 51
270.0
  0
ARC
  5
188FB
330
747D
100
AcDbEntity
  8
部品1
100
AcDbCircle
 10
3867.885140728006
 20
4525.991108379632
 30
0.0
 40
7.0
100
AcDbArc
 50
90.0
 51
183.2473427903377
  0
LINE
  5
188FC
330
747D
100
AcDbEntity
  8
細線
 48
50.0
100
AcDbLine
 10
3893.47671962158
 20
4532.991108379632
 30
0.0
 11
3893.47671962158
 21
4391.991108379628
 31
0.0
  0
LINE
  5
188FD
330
747D
100
AcDbEntity
  8
部品1
 48
50.0
100
AcDbLine
 10
8529.852975054117
 20
4391.991108379628
 30
0.0
 11
4570.812002471213
 21
4391.991108379628
 31
0.0
  0
LINE
  5
188FE
330
747D
100
AcDbEntity
  8
細線
 48
50.0
100
AcDbLine
 10
8540.082038082209
 20
4412.764350943067
 30
0.0
 11
4567.149119330392
 21
4412.764350943543
 31
0.0
  0
LINE
  5
188FF
330
747D
100
AcDbEntity
  8
部品1
 48
50.0
100
AcDbLine
 10
8543.06829851515
 20
4532.991108379614
 30
0.0
 11
4545.949898191324
 21
4532.991108379625
 31
0.0
  0
LINE
  5
18900
330
747D
100
AcDbEntity
  8
細線
 48
50.0
100
AcDbLine
 10
8548.318068606965
 20
4504.964350943057
 30
0.0
 11
4550.891771709077
 21
4504.964350943544
 31
0.0
  0
DIMENSION
  5
18901
330
747D
100
AcDbEntity
  8
寸法
 48
50.0
100
AcDbDimension
  2
*D24
 10
8500.476719621584
 20
4745.532693637868
 30
0.0
 11
8863.962000995819
 21
4745.532693637868
 31
0.0
 70
   160
 71
     5
 42
50.0
  3
INABA_S40G
100
AcDbAlignedDimension
 13
8550.476719621583
 23
4532.991108379627
 33
0.0
 14
8500.476719621584
 24
4532.991108379628
 34
0.0
100
AcDbRotatedDimension
  0
LINE
  5
18902
330
747D
100
AcDbEntity
  8
部品1
100
AcDbLine
 10
8545.722671477172
 20
4502.16104783473
 30
0.0
 11
8540.68763074906
 21
4413.418455001787
 31
0.0
  0
ARC
  5
18903
330
747D
100
AcDbEntity
  8
部品1
100
AcDbCircle
 10
8543.06829851515
 20
4525.991108379627
 30
0.0
 40
7.0
100
AcDbArc
 50
356.7526572096623
 51
90.0
  0
LINE
  5
18904
330
747D
100
AcDbEntity
  8
細線
 48
50.0
100
AcDbLine
 10
8517.476719621583
 20
4532.991108379627
 30
0.0
 11
8517.476719621583
 21
4391.991108379627
 31
0.0
  0
LINE
  5
18905
330
747D
100
AcDbEntity
  8
部品1
100
AcDbLine
 10
8537.486640952328
 20
4409.961047834729
 30
0.0
 11
8536.841735145214
 21
4398.594582984389
 31
0.0
  0
ARC
  5
18906
330
747D
100
AcDbEntity
  8
部品1
 48
50.0
100
AcDbCircle
 10
8540.481823848514
 20
4409.791108379626
 30
0.0
 40
3.0
100
AcDbArc
 50
97.65812720715343
 51
176.7526572096623
  0
ARC
  5
18907
330
747D
100
AcDbEntity
  8
部品1
 48
50.0
100
AcDbCircle
 10
8539.988754739953
 20
4413.45810754131
 30
0.0
 40
0.7
100
AcDbArc
 50
277.6581272075735
 51
356.7526572097143
  0
ARC
  5
18908
330
747D
100
AcDbEntity
  8
部品1
100
AcDbCircle
 10
8529.852975054117
 20
4398.991108379628
 30
0.0
 40
7.0
100
AcDbArc
 50
270.0
 51
356.7526572096623
  0
LINE
  5
18909
330
747D
100
AcDbEntity
  8
部品1
100
AcDbLine
 10
8550.057058606249
 20
4525.594582984387
 30
0.0
 11
8548.923661273905
 21
4505.618455001788
 31
0.0
  0
ARC
  5
1890A
330
747D
100
AcDbEntity
  8
部品1
 48
50.0
100
AcDbCircle
 10
8548.717854373357
 20
4501.991108379629
 30
0.0
 40
3.0
100
AcDbArc
 50
97.65812720715343
 51
176.7526572096623
  0
ARC
  5
1890B
330
747D
100
AcDbEntity
  8
部品1
 48
50.0
100
AcDbCircle
 10
8548.224785264796
 20
4505.658107541314
 30
0.0
 40
0.7
100
AcDbArc
 50
277.6581272075735
 51
356.7526572096103
  0
LINE
  5
1890C
330
747D
100
AcDbEntity
  8
部品1
 48
50.0
100
AcDbLine
 10
4515.48709983475
 20
4532.991108379627
 30
0.0
 11
3867.885140728006
 21
4532.991108379628
 31
0.0
  0
LINE
  5
1890D
330
747D
100
AcDbEntity
  8
細線
 48
50.0
100
AcDbLine
 10
4520.428973352504
 20
4504.964350943548
 30
0.0
 11
3862.635370631997
 21
4504.964350943629
 31
0.0
  0
LINE
  5
1890E
330
747D
100
AcDbEntity
  8
細線
 48
50.0
100
AcDbLine
 10
4536.686320973818
 20
4412.764350943547
 30
0.0
 11
3870.871401156826
 21
4412.764350943628
 31
0.0
  0
LINE
  5
1890F
330
747D
100
AcDbEntity
  8
部品1
 48
50.0
100
AcDbLine
 10
4540.349204114642
 20
4391.991108379628
 30
0.0
 11
3881.100464189044
 21
4391.991108379628
 31
0.0
  0
LINE
  5
18910
330
747D
100
AcDbEntity
  8
部品1
100
AcDbLine
 10
4538.776719621576
 20
4289.991108379626
 30
0.0
 11
4538.776719621576
 21
3465.974167870782
 31
0.0
  0
LINE
  5
18911
330
747D
100
AcDbEntity
  8
細線
100
AcDbLine
 10
4438.776719621575
 20
4289.991108379626
 30
0.0
 11
4438.776719621575
 21
3419.343402055281
 31
0.0
  0
LINE
  5
18912
330
747D
100
AcDbEntity
  8
細線
100
AcDbLine
 10
4368.776719621575
 20
4289.991108379626
 30
0.0
 11
4368.776719621575
 21
2506.991108379633
 31
0.0
  0
LINE
  5
18913
330
747D
100
AcDbEntity
  8
細線
100
AcDbLine
 10
4298.776719621575
 20
4289.991108379626
 30
0.0
 11
4298.776719621575
 21
2506.991108379633
 31
0.0
  0
LINE
  5
18914
330
747D
100
AcDbEntity
  8
細線
100
AcDbLine
 10
4228.776719621575
 20
4289.991108379626
 30
0.0
 11
4228.776719621575
 21
2506.991108379631
 31
0.0
  0
LINE
  5
18915
330
747D
100
AcDbEntity
  8
部品1
100
AcDbLine
 10
4131.47671962158
 20
4289.991108379629
 30
0.0
 11
4131.47671962158
 21
2506.991108379631
 31
0.0
  0
LINE
  5
18916
330
747D
100
AcDbEntity
  8
部品1
100
AcDbLine
 10
4081.476719621579
 20
4289.991108379629
 30
0.0
 11
4081.476719621579
 21
2506.991108379631
 31
0.0
  0
LINE
  5
18917
330
747D
100
AcDbEntity
  8
細線
100
AcDbLine
 10
4123.47671962158
 20
4289.991108379629
 30
0.0
 11
4123.47671962158
 21
2506.991108379631
 31
0.0
  0
LINE
  5
18918
330
747D
100
AcDbEntity
  8
細線
100
AcDbLine
 10
4089.47671962158
 20
4289.991108379629
 30
0.0
 11
4089.47671962158
 21
2506.991108379631
 31
0.0
  0
LINE
  5
1891C
330
747D
100
AcDbEntity
  8
部品1
 48
50.0
100
AcDbLine
 10
4005.476719621579
 20
3463.491108379636
 30
0.0
 11
4058.476719621579
 21
3463.491108379636
 31
0.0
  0
LINE
  5
18936
330
747D
100
AcDbEntity
  8
細線
100
AcDbLine
 10
4626.926719621578
 20
4289.991108379626
 30
0.0
 11
4626.926719621578
 21
4073.748733191769
 31
0.0
  0
LINE
  5
18937
330
747D
100
AcDbEntity
  8
細線
100
AcDbLine
 10
4696.92671962158
 20
4289.991108379626
 30
0.0
 11
4696.92671962158
 21
3676.759005818531
 31
0.0
  0
LINE
  5
18938
330
747D
100
AcDbEntity
  8
細線
100
AcDbLine
 10
4766.92671962158
 20
4289.991108379626
 30
0.0
 11
4766.926719621578
 21
3660.484243134412
 31
0.0
  0
LINE
  5
18939
330
747D
100
AcDbEntity
  8
細線
100
AcDbLine
 10
4836.926719621581
 20
4289.991108379626
 30
0.0
 11
4836.926719621581
 21
3654.360036687598
 31
0.0
  0
LINE
  5
1893A
330
747D
100
AcDbEntity
  8
部品1
100
AcDbLine
 10
4966.076719621579
 20
4289.991108379626
 30
0.0
 11
4966.076719621579
 21
3643.060875793224
 31
0.0
  0
LINE
  5
1893B
330
747D
100
AcDbEntity
  8
細線
100
AcDbLine
 10
5266.776719621579
 20
4289.991108379629
 30
0.0
 11
5266.776719621579
 21
2514.491108379642
 31
0.0
  0
LINE
  5
1893C
330
747D
100
AcDbEntity
  8
細線
100
AcDbLine
 10
5196.776719621579
 20
4289.991108379629
 30
0.0
 11
5196.776719621579
 21
2514.491108379642
 31
0.0
  0
LINE
  5
1893D
330
747D
100
AcDbEntity
  8
細線
100
AcDbLine
 10
5126.776719621579
 20
4289.991108379629
 30
0.0
 11
5126.776719621579
 21
2514.491108379642
 31
0.0
  0
LINE
  5
1893E
330
747D
100
AcDbEntity
  8
細線
100
AcDbLine
 10
5056.776719621579
 20
4289.991108379629
 30
0.0
 11
5056.776719621579
 21
2514.491108379642
 31
0.0
  0
LINE
  5
1893F
330
747D
100
AcDbEntity
  8
部品1
100
AcDbLine
 10
4538.776719621576
 20
2514.491108379634
 30
0.0
 11
4871.403110394783
 21
2514.491108379638
 31
0.0
  0
LINE
  5
18940
330
747D
100
AcDbEntity
  8
部品1
100
AcDbLine
 10
3970.47671962158
 20
2506.991108379629
 30
0.0
 11
4538.776719621576
 21
2506.991108379634
 31
0.0
  0
LINE
  5
18941
330
747D
100
AcDbEntity
  8
細線
100
AcDbLine
 10
3970.47671962158
 20
4289.991108379629
 30
0.0
 11
4558.334556146906
 21
4289.991108379629
 31
0.0
  0
LINE
  5
18942
330
747D
100
AcDbEntity
  8
部品1
100
AcDbLine
 10
6068.776719621579
 20
4289.991108379626
 30
0.0
 11
6068.776719621579
 21
2506.991108379634
 31
0.0
  0
LINE
  5
18943
330
747D
100
AcDbEntity
  8
細線
100
AcDbLine
 10
5968.77671962158
 20
4289.991108379626
 30
0.0
 11
5968.77671962158
 21
2506.991108379633
 31
0.0
  0
LINE
  5
18944
330
747D
100
AcDbEntity
  8
細線
100
AcDbLine
 10
5898.776719621579
 20
4289.991108379626
 30
0.0
 11
5898.776719621579
 21
2506.991108379633
 31
0.0
  0
LINE
  5
18945
330
747D
100
AcDbEntity
  8
細線
100
AcDbLine
 10
5828.776719621579
 20
4289.991108379626
 30
0.0
 11
5828.776719621579
 21
2506.991108379633
 31
0.0
  0
LINE
  5
18946
330
747D
100
AcDbEntity
  8
細線
100
AcDbLine
 10
5758.776719621579
 20
4289.991108379626
 30
0.0
 11
5758.776719621579
 21
2506.991108379631
 31
0.0
  0
LINE
  5
18947
330
747D
100
AcDbEntity
  8
部品1
100
AcDbLine
 10
5661.47671962158
 20
4289.991108379629
 30
0.0
 11
5661.47671962158
 21
2506.991108379631
 31
0.0
  0
LINE
  5
18948
330
747D
100
AcDbEntity
  8
部品1
100
AcDbLine
 10
5611.47671962158
 20
4289.991108379629
 30
0.0
 11
5611.47671962158
 21
2506.991108379631
 31
0.0
  0
LINE
  5
18949
330
747D
100
AcDbEntity
  8
細線
100
AcDbLine
 10
5653.476719621579
 20
4289.991108379629
 30
0.0
 11
5653.476719621579
 21
2506.991108379631
 31
0.0
  0
LINE
  5
1894A
330
747D
100
AcDbEntity
  8
細線
100
AcDbLine
 10
5619.47671962158
 20
4289.991108379629
 30
0.0
 11
5619.47671962158
 21
2506.991108379631
 31
0.0
  0
LINE
  5
1894E
330
747D
100
AcDbEntity
  8
部品1
 48
50.0
100
AcDbLine
 10
5535.47671962158
 20
3463.491108379636
 30
0.0
 11
5588.47671962158
 21
3463.491108379636
 31
0.0
  0
LINE
  5
18968
330
747D
100
AcDbEntity
  8
細線
100
AcDbLine
 10
6156.92671962158
 20
4289.991108379626
 30
0.0
 11
6156.92671962158
 21
2514.491108379636
 31
0.0
  0
LINE
  5
18969
330
747D
100
AcDbEntity
  8
細線
100
AcDbLine
 10
6226.92671962158
 20
4289.991108379626
 30
0.0
 11
6226.92671962158
 21
2514.491108379636
 31
0.0
  0
LINE
  5
1896A
330
747D
100
AcDbEntity
  8
細線
100
AcDbLine
 10
6296.926719621581
 20
4289.991108379626
 30
0.0
 11
6296.926719621581
 21
2514.491108379636
 31
0.0
  0
LINE
  5
1896B
330
747D
100
AcDbEntity
  8
細線
100
AcDbLine
 10
6366.926719621581
 20
4289.991108379626
 30
0.0
 11
6366.926719621581
 21
2514.491108379636
 31
0.0
  0
LINE
  5
1896C
330
747D
100
AcDbEntity
  8
部品1
100
AcDbLine
 10
6496.076719621578
 20
4289.991108379626
 30
0.0
 11
6496.076719621578
 21
2514.491108379636
 31
0.0
  0
LINE
  5
1896D
330
747D
100
AcDbEntity
  8
細線
100
AcDbLine
 10
6796.776719621579
 20
4289.991108379629
 30
0.0
 11
6796.776719621579
 21
2514.491108379642
 31
0.0
  0
LINE
  5
1896E
330
747D
100
AcDbEntity
  8
細線
100
AcDbLine
 10
6726.776719621579
 20
4289.991108379629
 30
0.0
 11
6726.776719621579
 21
2514.491108379642
 31
0.0
  0
LINE
  5
1896F
330
747D
100
AcDbEntity
  8
細線
100
AcDbLine
 10
6656.776719621579
 20
4289.991108379629
 30
0.0
 11
6656.776719621579
 21
2514.491108379642
 31
0.0
  0
LINE
  5
18970
330
747D
100
AcDbEntity
  8
細線
100
AcDbLine
 10
6586.776719621579
 20
4289.991108379629
 30
0.0
 11
6586.776719621579
 21
2514.491108379642
 31
0.0
  0
LINE
  5
18971
330
747D
100
AcDbEntity
  8
部品1
100
AcDbLine
 10
5500.47671962158
 20
2506.991108379629
 30
0.0
 11
6068.776719621579
 21
2506.991108379634
 31
0.0
  0
LINE
  5
18972
330
747D
100
AcDbEntity
  8
部品1
100
AcDbLine
 10
6068.776719621579
 20
2514.491108379634
 30
0.0
 11
6910.476719621581
 21
2514.491108379643
 31
0.0
  0
LINE
  5
18973
330
747D
100
AcDbEntity
  8
細線
100
AcDbLine
 10
5500.47671962158
 20
4289.991108379629
 30
0.0
 11
6910.476719621581
 21
4289.991108379629
 31
0.0
  0
LINE
  5
18974
330
747D
100
AcDbEntity
  8
部品1
100
AcDbLine
 10
7598.77671962158
 20
4289.991108379626
 30
0.0
 11
7598.77671962158
 21
2506.991108379634
 31
0.0
  0
LINE
  5
18975
330
747D
100
AcDbEntity
  8
細線
100
AcDbLine
 10
7498.77671962158
 20
4289.991108379626
 30
0.0
 11
7498.77671962158
 21
2506.991108379633
 31
0.0
  0
LINE
  5
18976
330
747D
100
AcDbEntity
  8
細線
100
AcDbLine
 10
7428.77671962158
 20
4289.991108379626
 30
0.0
 11
7428.77671962158
 21
2506.991108379633
 31
0.0
  0
LINE
  5
18977
330
747D
100
AcDbEntity
  8
細線
100
AcDbLine
 10
7358.776719621579
 20
4289.991108379626
 30
0.0
 11
7358.776719621579
 21
2506.991108379633
 31
0.0
  0
LINE
  5
18978
330
747D
100
AcDbEntity
  8
細線
100
AcDbLine
 10
7288.776719621579
 20
4289.991108379626
 30
0.0
 11
7288.776719621579
 21
2506.991108379631
 31
0.0
  0
LINE
  5
18979
330
747D
100
AcDbEntity
  8
部品1
100
AcDbLine
 10
7191.47671962158
 20
4289.991108379629
 30
0.0
 11
7191.47671962158
 21
2506.991108379631
 31
0.0
  0
LINE
  5
1897A
330
747D
100
AcDbEntity
  8
部品1
100
AcDbLine
 10
7141.47671962158
 20
4289.991108379629
 30
0.0
 11
7141.47671962158
 21
2506.991108379631
 31
0.0
  0
LINE
  5
1897B
330
747D
100
AcDbEntity
  8
細線
100
AcDbLine
 10
7183.476719621579
 20
4289.991108379629
 30
0.0
 11
7183.476719621579
 21
2506.991108379631
 31
0.0
  0
LINE
  5
1897C
330
747D
100
AcDbEntity
  8
細線
100
AcDbLine
 10
7149.47671962158
 20
4289.991108379629
 30
0.0
 11
7149.47671962158
 21
2506.991108379631
 31
0.0
  0
LINE
  5
18980
330
747D
100
AcDbEntity
  8
部品1
 48
50.0
100
AcDbLine
 10
7065.47671962158
 20
3463.491108379636
 30
0.0
 11
7118.47671962158
 21
3463.491108379636
 31
0.0
  0
LINE
  5
1899A
330
747D
100
AcDbEntity
  8
細線
100
AcDbLine
 10
7686.92671962158
 20
4289.991108379626
 30
0.0
 11
7686.92671962158
 21
2514.491108379636
 31
0.0
  0
LINE
  5
1899B
330
747D
100
AcDbEntity
  8
細線
100
AcDbLine
 10
7756.92671962158
 20
4289.991108379626
 30
0.0
 11
7756.92671962158
 21
2514.491108379636
 31
0.0
  0
LINE
  5
1899C
330
747D
100
AcDbEntity
  8
細線
100
AcDbLine
 10
7826.926719621581
 20
4289.991108379626
 30
0.0
 11
7826.926719621581
 21
2514.491108379636
 31
0.0
  0
LINE
  5
1899D
330
747D
100
AcDbEntity
  8
細線
100
AcDbLine
 10
7896.926719621581
 20
4289.991108379626
 30
0.0
 11
7896.926719621581
 21
2514.491108379636
 31
0.0
  0
LINE
  5
1899E
330
747D
100
AcDbEntity
  8
部品1
100
AcDbLine
 10
8026.076719621578
 20
4289.991108379626
 30
0.0
 11
8026.076719621578
 21
2514.491108379636
 31
0.0
  0
LINE
  5
1899F
330
747D
100
AcDbEntity
  8
細線
100
AcDbLine
 10
8326.776719621578
 20
4289.991108379629
 30
0.0
 11
8326.776719621578
 21
2514.491108379642
 31
0.0
  0
LINE
  5
189A0
330
747D
100
AcDbEntity
  8
細線
100
AcDbLine
 10
8256.77671962158
 20
4289.991108379629
 30
0.0
 11
8256.77671962158
 21
2514.491108379642
 31
0.0
  0
LINE
  5
189A1
330
747D
100
AcDbEntity
  8
細線
100
AcDbLine
 10
8186.77671962158
 20
4289.991108379629
 30
0.0
 11
8186.77671962158
 21
2514.491108379642
 31
0.0
  0
LINE
  5
189A2
330
747D
100
AcDbEntity
  8
細線
100
AcDbLine
 10
8116.776719621579
 20
4289.991108379629
 30
0.0
 11
8116.776719621579
 21
2514.491108379642
 31
0.0
  0
LINE
  5
189A3
330
747D
100
AcDbEntity
  8
部品1
100
AcDbLine
 10
7598.77671962158
 20
2514.491108379634
 30
0.0
 11
8440.47671962158
 21
2514.491108379643
 31
0.0
  0
LINE
  5
189A4
330
747D
100
AcDbEntity
  8
部品1
100
AcDbLine
 10
7030.476719621581
 20
2506.991108379629
 30
0.0
 11
7598.77671962158
 21
2506.991108379634
 31
0.0
  0
LINE
  5
189A5
330
747D
100
AcDbEntity
  8
細線
100
AcDbLine
 10
7030.476719621581
 20
4289.991108379629
 30
0.0
 11
8440.47671962158
 21
4289.991108379629
 31
0.0
  0
LINE
  5
189A6
330
747D
100
AcDbEntity
  8
細線
100
AcDbLine
 10
4588.797354503478
 20
4289.991108379629
 30
0.0
 11
5380.476719621579
 21
4289.991108379629
 31
0.0
  0
LINE
  5
189A7
330
747D
100
AcDbEntity
  8
細線
100
AcDbLine
 10
4626.926719621581
 20
3900.98561869746
 30
0.0
 11
4626.926719621581
 21
3507.079187937146
 31
0.0
  0
LINE
  5
189A8
330
747D
100
AcDbEntity
  8
細線
100
AcDbLine
 10
4696.92671962158
 20
3636.493854454928
 30
0.0
 11
4696.926719621578
 21
3539.720724007995
 31
0.0
  0
LINE
  5
189A9
330
747D
100
AcDbEntity
  8
細線
100
AcDbLine
 10
4766.92671962158
 20
3630.369648008113
 30
0.0
 11
4766.926719621582
 21
3572.362260078844
 31
0.0
  0
LINE
  5
189AA
330
747D
100
AcDbEntity
  8
細線
100
AcDbLine
 10
4836.926719621579
 20
3624.245441561298
 30
0.0
 11
4836.926719621579
 21
3605.003796149693
 31
0.0
  0
LINE
  5
189AB
330
747D
100
AcDbEntity
  8
細線
100
AcDbLine
 10
4836.926719621579
 20
3571.902458580819
 30
0.0
 11
4836.926719621579
 21
2882.779551072057
 31
0.0
  0
LINE
  5
189AC
330
747D
100
AcDbEntity
  8
細線
100
AcDbLine
 10
4766.92671962158
 20
3539.26092250997
 30
0.0
 11
4766.92671962158
 21
3279.769278445294
 31
0.0
  0
LINE
  5
189AD
330
747D
100
AcDbEntity
  8
細線
100
AcDbLine
 10
4696.92671962158
 20
3506.619386439119
 30
0.0
 11
4696.92671962158
 21
3421.974537742073
 31
0.0
  0
LINE
  5
189AE
330
747D
100
AcDbEntity
  8
細線
100
AcDbLine
 10
4626.926719621581
 20
3473.97785036827
 30
0.0
 11
4626.926719621581
 21
3428.098744188889
 31
0.0
  0
LINE
  5
189AF
330
747D
100
AcDbEntity
  8
部品1
100
AcDbLine
 10
4538.776719621576
 20
3405.696274752398
 30
0.0
 11
4538.776719621576
 21
2506.991108379634
 31
0.0
  0
LINE
  5
189B0
330
747D
100
AcDbEntity
  8
細線
100
AcDbLine
 10
4626.926719621581
 20
3397.984149062588
 30
0.0
 11
4626.926719621578
 21
2514.491108379636
 31
0.0
  0
LINE
  5
189B1
330
747D
100
AcDbEntity
  8
細線
100
AcDbLine
 10
4696.92671962158
 20
3391.859942615774
 30
0.0
 11
4696.92671962158
 21
2514.491108379636
 31
0.0
  0
LINE
  5
189B2
330
747D
100
AcDbEntity
  8
細線
100
AcDbLine
 10
4766.92671962158
 20
3107.006163950983
 30
0.0
 11
4766.92671962158
 21
2514.491108379636
 31
0.0
  0
LINE
  5
189B3
330
747D
100
AcDbEntity
  8
細線
100
AcDbLine
 10
4438.776719621575
 20
3414.445141104992
 30
0.0
 11
4438.776719621575
 21
2506.991108379633
 31
0.0
  0
LINE
  5
189B4
330
747D
100
AcDbEntity
  8
細線
100
AcDbLine
 10
4836.926719621581
 20
2710.016436577742
 30
0.0
 11
4836.926719621581
 21
2514.491108379636
 31
0.0
  0
LINE
  5
189B5
330
747D
100
AcDbEntity
  8
部品1
100
AcDbLine
 10
4901.865908751355
 20
2514.491108379638
 30
0.0
 11
5380.476719621579
 21
2514.491108379643
 31
0.0
  0
LINE
  5
18DD3
330
747D
100
AcDbEntity
  8
補助
  6
PHANTOM
 62
   230
 48
50.0
100
AcDbLine
 10
140.0
 20
0.0
 30
0.0
 11
140.0
 21
11409.6
 31
0.0
  0
DIMENSION
  5
191A4
330
747D
100
AcDbEntity
  8
寸法
 48
50.0
100
AcDbDimension
  2
*D25
 10
9815.665694660687
 20
4407.336367252956
 30
0.0
 11
9826.331169919614
 21
4778.183030494655
 31
0.0
 70
   161
 71
     5
 42
141.0
  3
INABA_S40G
100
AcDbAlignedDimension
 13
10395.67012158764
 23
4531.713857214305
 33
0.0
 14
10391.61666603101
 24
4390.772133448591
 34
0.0
1001
ACAD
1000
DSTYLE
1002
{
1070
   174
1070
     0
1070
   272
1070
     1
1070
   288
1070
     0
1070
   341
1005
0
1002
}
  0
LINE
  5
191A5
330
747D
100
AcDbEntity
  8
細線
 48
50.0
100
AcDbLine
 10
12933.77410142907
 20
4297.991108379625
 30
0.0
 11
12933.77410142907
 21
2507.991108379625
 31
0.0
  0
LINE
  5
191A6
330
747D
100
AcDbEntity
  8
細線
 48
50.0
100
AcDbLine
 10
12948.77410142907
 20
4297.991108379625
 30
0.0
 11
12948.77410142907
 21
2507.991108379625
 31
0.0
  0
LINE
  5
191A7
330
747D
100
AcDbEntity
  8
細線
 48
50.0
100
AcDbLine
 10
12808.77410142907
 20
4297.991108379625
 30
0.0
 11
12808.77410142907
 21
2507.991108379625
 31
0.0
  0
LINE
  5
191A8
330
747D
100
AcDbEntity
  8
細線
 48
50.0
100
AcDbLine
 10
12793.77410142907
 20
4297.991108379625
 30
0.0
 11
12793.77410142907
 21
2507.991108379625
 31
0.0
  0
LINE
  5
191A9
330
747D
100
AcDbEntity
  8
細線
 48
50.0
100
AcDbLine
 10
12653.77410142907
 20
4297.991108379625
 30
0.0
 11
12653.77410142907
 21
2507.991108379625
 31
0.0
  0
LINE
  5
191AA
330
747D
100
AcDbEntity
  8
細線
 48
50.0
100
AcDbLine
 10
12668.77410142907
 20
4297.991108379625
 30
0.0
 11
12668.77410142907
 21
2507.991108379625
 31
0.0
  0
LINE
  5
191AB
330
747D
100
AcDbEntity
  8
部品1
100
AcDbLine
 10
11751.27410142906
 20
4297.991108379625
 30
0.0
 11
11751.27410142906
 21
2507.991108379625
 31
0.0
  0
LINE
  5
191AC
330
747D
100
AcDbEntity
  8
細線
 48
50.0
100
AcDbLine
 10
11408.77410142906
 20
4297.991108379625
 30
0.0
 11
11408.77410142906
 21
2507.991108379625
 31
0.0
  0
LINE
  5
191AD
330
747D
100
AcDbEntity
  8
細線
 48
50.0
100
AcDbLine
 10
11393.77410142906
 20
4297.991108379625
 30
0.0
 11
11393.77410142906
 21
2507.991108379625
 31
0.0
  0
LINE
  5
191AE
330
747D
100
AcDbEntity
  8
細線
 48
50.0
100
AcDbLine
 10
11533.77410142906
 20
4297.991108379625
 30
0.0
 11
11533.77410142906
 21
2507.991108379625
 31
0.0
  0
LINE
  5
191AF
330
747D
100
AcDbEntity
  8
細線
 48
50.0
100
AcDbLine
 10
11548.77410142906
 20
4297.991108379625
 30
0.0
 11
11548.77410142906
 21
2507.991108379625
 31
0.0
  0
LINE
  5
191B0
330
747D
100
AcDbEntity
  8
細線
 48
50.0
100
AcDbLine
 10
11688.77410142906
 20
4297.991108379625
 30
0.0
 11
11688.77410142906
 21
2507.991108379625
 31
0.0
  0
LINE
  5
191B1
330
747D
100
AcDbEntity
  8
細線
 48
50.0
100
AcDbLine
 10
11673.77410142906
 20
4297.991108379625
 30
0.0
 11
11673.77410142906
 21
2507.991108379625
 31
0.0
  0
LINE
  5
191B2
330
747D
100
AcDbEntity
  8
部品1
100
AcDbLine
 10
11331.27410142906
 20
4297.991108379625
 30
0.0
 11
11331.27410142906
 21
2507.991108379625
 31
0.0
  0
DIMENSION
  5
191B3
330
747D
100
AcDbEntity
  8
寸法
 48
50.0
100
AcDbDimension
  2
*D26
 10
13146.27410142906
 20
4931.64856195893
 30
0.0
 11
13352.32134552355
 21
4931.64856195893
 31
0.0
 70
   160
 71
     5
 42
80.0
  3
INABA_S40G
100
AcDbAlignedDimension
 13
13066.27410142906
 23
4479.801787991278
 33
0.0
 14
13146.27410142906
 24
4477.991108379627
 34
0.0
100
AcDbRotatedDimension
1001
ACAD
1000
DSTYLE
1002
{
1070
   174
1070
     0
1070
   272
1070
     1
1070
   288
1070
     0
1070
   341
1005
0
1002
}
  0
LINE
  5
191B4
330
747D
100
AcDbEntity
  8
細線
 48
50.0
100
AcDbLine
 10
10568.77410142906
 20
4297.991108379625
 30
0.0
 11
10568.77410142906
 21
2507.991108379625
 31
0.0
  0
LINE
  5
191B5
330
747D
100
AcDbEntity
  8
細線
 48
50.0
100
AcDbLine
 10
10553.77410142906
 20
4297.991108379625
 30
0.0
 11
10553.77410142906
 21
2507.991108379625
 31
0.0
  0
LINE
  5
191B6
330
747D
100
AcDbEntity
  8
細線
 48
50.0
100
AcDbLine
 10
10693.77410142906
 20
4297.991108379625
 30
0.0
 11
10693.77410142906
 21
2507.991108379625
 31
0.0
  0
LINE
  5
191B7
330
747D
100
AcDbEntity
  8
細線
 48
50.0
100
AcDbLine
 10
10708.77410142906
 20
4297.991108379625
 30
0.0
 11
10708.77410142906
 21
2507.991108379625
 31
0.0
  0
LINE
  5
191B8
330
747D
100
AcDbEntity
  8
細線
 48
50.0
100
AcDbLine
 10
10848.77410142906
 20
4297.991108379625
 30
0.0
 11
10848.77410142906
 21
2507.991108379625
 31
0.0
  0
LINE
  5
191B9
330
747D
100
AcDbEntity
  8
細線
 48
50.0
100
AcDbLine
 10
10833.77410142906
 20
4297.991108379625
 30
0.0
 11
10833.77410142906
 21
2507.991108379625
 31
0.0
  0
LINE
  5
191BA
330
747D
100
AcDbEntity
  8
細線
 48
50.0
100
AcDbLine
 10
11253.77410142906
 20
4297.991108379625
 30
0.0
 11
11253.77410142906
 21
2507.991108379625
 31
0.0
  0
LINE
  5
191BB
330
747D
100
AcDbEntity
  8
細線
 48
50.0
100
AcDbLine
 10
11268.77410142906
 20
4297.991108379625
 30
0.0
 11
11268.77410142906
 21
2507.991108379625
 31
0.0
  0
LINE
  5
191BC
330
747D
100
AcDbEntity
  8
細線
 48
50.0
100
AcDbLine
 10
11128.77410142906
 20
4297.991108379625
 30
0.0
 11
11128.77410142906
 21
2507.991108379625
 31
0.0
  0
LINE
  5
191BD
330
747D
100
AcDbEntity
  8
細線
 48
50.0
100
AcDbLine
 10
11113.77410142906
 20
4297.991108379625
 30
0.0
 11
11113.77410142906
 21
2507.991108379625
 31
0.0
  0
LINE
  5
191BE
330
747D
100
AcDbEntity
  8
細線
 48
50.0
100
AcDbLine
 10
10973.77410142906
 20
4297.991108379625
 30
0.0
 11
10973.77410142906
 21
2507.991108379625
 31
0.0
  0
LINE
  5
191BF
330
747D
100
AcDbEntity
  8
細線
 48
50.0
100
AcDbLine
 10
10988.77410142906
 20
4297.991108379625
 30
0.0
 11
10988.77410142906
 21
2507.991108379625
 31
0.0
  0
LINE
  5
191C0
330
747D
100
AcDbEntity
  8
部品1
100
AcDbLine
 10
10436.27410142906
 20
2457.991108379625
 30
0.0
 11
13066.27410142906
 21
2457.991108379625
 31
0.0
  0
DIMENSION
  5
191C1
330
747D
100
AcDbEntity
  8
寸法
 48
50.0
100
AcDbDimension
  2
*D27
 10
10376.27410142906
 20
5151.859248690548
 30
0.0
 11
11779.63302631644
 21
5151.859248690548
 31
0.0
 70
   160
 71
     5
 42
2770.0
  3
INABA_S40G
100
AcDbAlignedDimension
 13
13146.27410142906
 23
4477.991108379627
 33
0.0
 14
10376.27410142906
 24
4532.991108379628
 34
0.0
100
AcDbRotatedDimension
1001
ACAD
1000
DSTYLE
1002
{
1070
   174
1070
     0
1070
   272
1070
     1
1070
   288
1070
     0
1070
   341
1005
0
1002
}
  0
DIMENSION
  5
191C2
330
747D
100
AcDbEntity
  8
寸法
 48
50.0
100
AcDbDimension
  2
*D28
 10
10376.27410142906
 20
4931.64856195893
 30
0.0
 11
10066.63630615347
 21
4931.64856195893
 31
0.0
 70
   160
 71
     5
 42
60.0
  3
INABA_S40G
100
AcDbAlignedDimension
 13
10436.27410142906
 23
4528.992726502601
 33
0.0
 14
10376.27410142906
 24
4532.991108379628
 34
0.0
100
AcDbRotatedDimension
1001
ACAD
1000
DSTYLE
1002
{
1070
   174
1070
     0
1070
   272
1070
     1
1070
   288
1070
     0
1070
   341
1005
0
1002
}
  0
DIMENSION
  5
191C3
330
747D
100
AcDbEntity
  8
寸法
 48
50.0
100
AcDbDimension
  2
*D29
 10
10436.27410142906
 20
4931.64856195893
 30
0.0
 11
11791.04429245825
 21
4931.64856195893
 31
0.0
 70
   160
  1
柱外寸法<>
 71
     5
 42
2630.0
  3
INABA_S40G
100
AcDbAlignedDimension
 13
13066.27410142906
 23
4479.801787991278
 33
0.0
 14
10436.27410142906
 24
4528.992726502601
 34
0.0
100
AcDbRotatedDimension
1001
ACAD
1000
DSTYLE
1002
{
1070
   174
1070
     0
1070
   272
1070
     1
1070
   288
1070
     0
1070
   341
1005
0
1002
}
  0
DIMENSION
  5
191C4
330
747D
100
AcDbEntity
  8
寸法
100
AcDbDimension
  2
*D30
 10
13771.20125940119
 20
4477.991108379627
 30
0.0
 11
13671.18944837757
 21
3467.991108379628
 31
0.0
 70
    32
 71
     5
 42
2020.000000000001
  3
INABA_S40G
100
AcDbAlignedDimension
 13
13066.27410142906
 23
2457.991108379625
 33
0.0
 14
13146.27410142906
 24
4477.991108379627
 34
0.0
 50
90.0
100
AcDbRotatedDimension
1001
ACAD
1000
DSTYLE
1002
{
1070
   174
1070
     0
1070
   272
1070
     1
1070
   288
1070
     0
1070
   341
1005
0
1002
}
  0
LINE
  5
191C5
330
747D
100
AcDbEntity
  8
部品1
100
AcDbLine
 10
13011.27410142906
 20
4297.991108379625
 30
0.0
 11
13011.27410142906
 21
2507.991108379625
 31
0.0
  0
LINE
  5
191C6
330
747D
100
AcDbEntity
  8
部品1
100
AcDbLine
 10
13066.27410142906
 20
4352.525381767363
 30
0.0
 11
13066.27410142906
 21
2357.991108379625
 31
0.0
  0
LINE
  5
191C7
330
747D
100
AcDbEntity
  8
部品1
100
AcDbLine
 10
10911.27410142906
 20
4297.991108379625
 30
0.0
 11
10911.27410142906
 21
2507.991108379625
 31
0.0
  0
DIMENSION
  5
191C8
330
747D
100
AcDbEntity
  8
寸法
100
AcDbDimension
  2
*D31
 10
9592.523972245803
 20
2457.991108379625
 30
0.0
 11
9592.523972245803
 21
2151.943864285135
 31
0.0
 70
   160
 71
     5
 42
50.0
  3
INABA_S40G
100
AcDbAlignedDimension
 13
10436.27410142906
 23
2507.991108379625
 33
0.0
 14
10381.27410142906
 24
2457.991108379625
 34
0.0
 50
90.0
100
AcDbRotatedDimension
1001
ACAD
1000
DSTYLE
1002
{
1070
   174
1070
     0
1070
   272
1070
     1
1070
   288
1070
     0
1070
   341
1005
0
1002
}
  0
DIMENSION
  5
191C9
330
747D
100
AcDbEntity
  8
寸法
100
AcDbDimension
  2
*D32
 10
9292.523972245803
 20
4532.991108379629
 30
0.0
 11
9192.512161222179
 21
3495.491108379629
 31
0.0
 70
    32
 71
     5
 42
2075.000000000005
  3
INABA_S40G
100
AcDbAlignedDimension
 13
10436.27410142906
 23
2457.991108379625
 33
0.0
 14
10376.27410142906
 24
4532.991108379628
 34
0.0
 50
90.0
100
AcDbRotatedDimension
1001
ACAD
1000
DSTYLE
1002
{
1070
   174
1070
     0
1070
   272
1070
     1
1070
   288
1070
     0
1070
   341
1005
0
1002
}
  0
DIMENSION
  5
191CA
330
747D
100
AcDbEntity
  8
寸法
100
AcDbDimension
  2
*D33
 10
9592.523972245803
 20
2507.991108379625
 30
0.0
 11
9492.523972245804
 21
3402.991108379627
 31
0.0
 70
    32
 71
     5
 42
1790.000000000001
  3
INABA_S40G
100
AcDbAlignedDimension
 13
10436.27410142906
 23
4297.991108379625
 33
0.0
 14
10436.27410142906
 24
2507.991108379625
 34
0.0
 50
90.0
100
AcDbRotatedDimension
1001
ACAD
1000
DSTYLE
1002
{
1070
   174
1070
     0
1070
   272
1070
     1
1070
   288
1070
     0
1070
   341
1005
0
1002
}
  0
DIMENSION
  5
191CB
330
747D
100
AcDbEntity
  8
寸法
100
AcDbDimension
  2
*D34
 10
9891.365460031808
 20
2519.991108379625
 30
0.0
 11
9791.365460031808
 21
3404.991108379627
 31
0.0
 70
    32
  1
有効開口部高サ<>
 71
     5
 42
1770.000000000001
  3
INABA_S40G
100
AcDbAlignedDimension
 13
10436.27410142906
 23
4289.991108379625
 33
0.0
 14
10436.27410142906
 24
2519.991108379625
 34
0.0
 50
90.0
100
AcDbRotatedDimension
1001
ACAD
1000
DSTYLE
1002
{
1070
   174
1070
     0
1070
   272
1070
     1
1070
   288
1070
     0
1070
   341
1005
0
1002
}
  0
LINE
  5
191CC
330
747D
100
AcDbEntity
  8
部品1
100
AcDbLine
 10
10436.27410142906
 20
4389.849627821871
 30
0.0
 11
10436.27410142906
 21
2357.991108379625
 31
0.0
  0
LINE
  5
191CD
330
747D
100
AcDbEntity
  8
部品1
100
AcDbLine
 10
10491.27410142906
 20
4297.991108379625
 30
0.0
 11
10491.27410142906
 21
2507.991108379625
 31
0.0
  0
LINE
  5
191CE
330
747D
100
AcDbEntity
  8
部品1
100
AcDbLine
 10
10436.27410142906
 20
2507.991108379625
 30
0.0
 11
13066.27410142906
 21
2507.991108379625
 31
0.0
  0
LINE
  5
191CF
330
747D
100
AcDbEntity
  8
部品1
100
AcDbLine
 10
10436.27410142906
 20
4297.991108379625
 30
0.0
 11
13066.27410142906
 21
4297.991108379625
 31
0.0
  0
LINE
  5
191D0
330
747D
100
AcDbEntity
  8
部品1
100
AcDbLine
 10
12591.27410142906
 20
4297.991108379625
 30
0.0
 11
12591.27410142906
 21
2507.991108379625
 31
0.0
  0
LINE
  5
191D1
330
747D
100
AcDbEntity
  8
細線
 48
50.0
100
AcDbLine
 10
12093.77410142906
 20
4297.991108379625
 30
0.0
 11
12093.77410142906
 21
2507.991108379625
 31
0.0
  0
LINE
  5
191D2
330
747D
100
AcDbEntity
  8
細線
 48
50.0
100
AcDbLine
 10
12108.77410142906
 20
4297.991108379625
 30
0.0
 11
12108.77410142906
 21
2507.991108379625
 31
0.0
  0
LINE
  5
191D3
330
747D
100
AcDbEntity
  8
細線
 48
50.0
100
AcDbLine
 10
11968.77410142906
 20
4297.991108379625
 30
0.0
 11
11968.77410142906
 21
2507.991108379625
 31
0.0
  0
LINE
  5
191D4
330
747D
100
AcDbEntity
  8
細線
 48
50.0
100
AcDbLine
 10
11953.77410142906
 20
4297.991108379625
 30
0.0
 11
11953.77410142906
 21
2507.991108379625
 31
0.0
  0
LINE
  5
191D5
330
747D
100
AcDbEntity
  8
細線
 48
50.0
100
AcDbLine
 10
11813.77410142906
 20
4297.991108379625
 30
0.0
 11
11813.77410142906
 21
2507.991108379625
 31
0.0
  0
LINE
  5
191D6
330
747D
100
AcDbEntity
  8
細線
 48
50.0
100
AcDbLine
 10
11828.77410142906
 20
4297.991108379625
 30
0.0
 11
11828.77410142906
 21
2507.991108379625
 31
0.0
  0
TEXT
  5
191D7
330
747D
100
AcDbEntity
  8
部品1
 48
50.0
100
AcDbText
 10
12102.85510339015
 20
4555.26020131793
 30
0.0
 40
120.0
  1
37
 50
90.0
  7
STYLE1
100
AcDbText
  0
TEXT
  5
191D8
330
747D
100
AcDbEntity
  8
部品1
 48
50.0
100
AcDbText
 10
11625.22208072507
 20
4692.761459536213
 30
0.0
 40
120.0
  1
1000
  7
STYLE1
100
AcDbText
  0
LINE
  5
191D9
330
747D
100
AcDbEntity
  8
部品1
 48
50.0
100
AcDbLine
 10
11936.95424550134
 20
4656.87743738378
 30
0.0
 11
11936.95424550134
 21
4640.677437383781
 31
0.0
  0
LINE
  5
191DA
330
747D
100
AcDbEntity
  8
部品1
 48
50.0
100
AcDbLine
 10
11636.95424550134
 20
4656.87743738378
 30
0.0
 11
11936.95424550134
 21
4656.87743738378
 31
0.0
  0
LINE
  5
191DB
330
747D
100
AcDbEntity
  8
部品1
100
AcDbLine
 10
10383.81908778602
 20
4531.708843713892
 30
0.0
 11
13138.88597829053
 21
4476.631906088764
 31
0.0
  0
LINE
  5
191DC
330
747D
100
AcDbEntity
  8
部品1
100
AcDbLine
 10
10391.61666603101
 20
4390.772133448591
 30
0.0
 11
13120.93780196891
 21
4351.743708214386
 31
0.0
  0
LINE
  5
191DD
330
747D
100
AcDbEntity
  8
細線
 48
50.0
100
AcDbLine
 10
10409.27410142906
 20
4530.390784755029
 30
0.0
 11
10403.98499987355
 21
4390.305152127676
 31
0.0
  0
LINE
  5
191DE
330
747D
100
AcDbEntity
  8
細線
 48
50.0
100
AcDbLine
 10
13113.24338462275
 20
4477.144530859094
 30
0.0
 11
13108.52641854106
 21
4352.212314924178
 31
0.0
  0
LINE
  5
191DF
330
747D
100
AcDbEntity
  8
部品1
 48
50.0
100
AcDbLine
 10
10376.45838734217
 20
4524.584654544319
 30
0.0
 11
10376.83864711998
 21
4504.657690097905
 31
0.0
  0
LINE
  5
191E0
330
747D
100
AcDbEntity
  8
部品1
 48
50.0
100
AcDbLine
 10
10379.90741922622
 20
4501.082408604434
 30
0.0
 11
10381.61132071759
 21
4411.791911897785
 31
0.0
  0
LINE
  5
191E1
330
747D
100
AcDbEntity
  8
細線
 48
50.0
100
AcDbLine
 10
10377.31352452987
 20
4504.008190220985
 30
0.0
 11
13142.94950927505
 21
4448.383985580158
 31
0.0
  0
LINE
  5
191E2
330
747D
100
AcDbEntity
  8
細線
 48
50.0
100
AcDbLine
 10
10382.07399976716
 20
4411.146678523122
 30
0.0
 11
13132.0776641978
 21
4371.33735954863
 31
0.0
  0
LINE
  5
191E3
330
747D
100
AcDbEntity
  8
部品1
 48
50.0
100
AcDbLine
 10
10384.68009282383
 20
4408.216630404314
 30
0.0
 11
10384.88204544426
 21
4397.633595011222
 31
0.0
  0
ARC
  5
191E4
330
747D
100
AcDbEntity
  8
部品1
 48
50.0
100
AcDbCircle
 10
10383.45711317051
 20
4524.718208951744
 30
0.0
 40
7.0
100
AcDbArc
 50
87.03587545293636
 51
181.0932240293156
  0
ARC
  5
191E5
330
747D
100
AcDbEntity
  8
部品1
 48
50.0
100
AcDbCircle
 10
10391.8807712726
 20
4397.76714941865
 30
0.0
 40
7.0
100
AcDbArc
 50
181.0932240293156
 51
267.8377559870533
  0
ARC
  5
191E6
330
747D
100
AcDbEntity
  8
部品1
100
AcDbCircle
 10
10381.6806388974
 20
4408.159392801131
 30
0.0
 40
3.0
100
AcDbArc
 50
1.093224029315636
 51
80.18775403158718
  0
ARC
  5
191E7
330
747D
100
AcDbEntity
  8
部品1
100
AcDbCircle
 10
10376.90796529979
 20
4501.025171001251
 30
0.0
 40
3.0
100
AcDbArc
 50
1.093224029315636
 51
80.18775403158718
  0
ARC
  5
191E8
330
747D
100
AcDbEntity
  8
部品1
100
AcDbCircle
 10
10377.53851970282
 20
4504.671045538647
 30
0.0
 40
0.7
100
AcDbArc
 50
181.0932240292114
 51
260.1877540315872
  0
ARC
  5
191E9
330
747D
100
AcDbEntity
  8
部品1
100
AcDbCircle
 10
10382.31119330043
 20
4411.805267338528
 30
0.0
 40
0.7
100
AcDbArc
 50
181.0932240292635
 51
260.1877540315872
  0
LINE
  5
191EA
330
747D
100
AcDbEntity
  8
部品1
 48
50.0
100
AcDbLine
 10
13145.48800423976
 20
4468.932260653844
 30
0.0
 11
13143.45738304879
 21
4448.987219396063
 31
0.0
  0
LINE
  5
191EB
330
747D
100
AcDbEntity
  8
部品1
 48
50.0
100
AcDbLine
 10
13140.10481656431
 20
4445.676585323155
 30
0.0
 11
13132.59803729948
 21
4371.943964578142
 31
0.0
  0
LINE
  5
191EC
330
747D
100
AcDbEntity
  8
部品1
 48
50.0
100
AcDbLine
 10
13129.24547081499
 20
4368.63333050523
 30
0.0
 11
13128.16590777525
 21
4358.029713511672
 31
0.0
  0
ARC
  5
191ED
330
747D
100
AcDbEntity
  8
部品1
 48
50.0
100
AcDbCircle
 10
13138.52400367501
 20
4469.641271326618
 30
0.0
 40
7.0
100
AcDbArc
 50
354.1866997665013
 51
87.03587545293636
  0
ARC
  5
191EE
330
747D
100
AcDbEntity
  8
部品1
 48
50.0
100
AcDbCircle
 10
13121.20190721049
 20
4358.738724184446
 30
0.0
 40
7.0
100
AcDbArc
 50
267.8377559870533
 51
354.1866997665013
  0
ARC
  5
191EF
330
747D
100
AcDbEntity
  8
部品1
100
AcDbCircle
 10
13132.2300424856
 20
4368.329468788328
 30
0.0
 40
3.0
100
AcDbArc
 50
95.09216976420788
 51
174.1866997665013
  0
ARC
  5
191F0
330
747D
100
AcDbEntity
  8
部品1
100
AcDbCircle
 10
13143.08938823492
 20
4445.372723606251
 30
0.0
 40
3.0
100
AcDbArc
 50
95.0921697643163
 51
174.1866997665013
  0
ARC
  5
191F1
330
747D
100
AcDbEntity
  8
部品1
100
AcDbCircle
 10
13142.76098299232
 20
4449.058120463342
 30
0.0
 40
0.7
100
AcDbArc
 50
275.0921697642079
 51
354.1866997665013
  0
ARC
  5
191F2
330
747D
100
AcDbEntity
  8
部品1
100
AcDbCircle
 10
13131.901637243
 20
4372.014865645418
 30
0.0
 40
0.7
100
AcDbArc
 50
275.0921697642079
 51
354.1866997666569
  0
LINE
  5
191F3
330
747D
100
AcDbEntity
  8
部品1
100
AcDbLine
 10
11611.4992318583
 20
4658.195496342643
 30
0.0
 11
11936.95424550134
 21
4640.677437383781
 31
0.0
  0
LINE
  5
191F4
330
747D
100
AcDbEntity
  8
部品1
100
AcDbLine
 10
12171.27410142906
 20
4297.991108379626
 30
0.0
 11
12171.27410142906
 21
2507.991108379627
 31
0.0
  0
LINE
  5
191F5
330
747D
100
AcDbEntity
  8
細線
 48
50.0
100
AcDbLine
 10
12248.77410142906
 20
4297.991108379626
 30
0.0
 11
12248.77410142906
 21
2507.991108379627
 31
0.0
  0
LINE
  5
191F6
330
747D
100
AcDbEntity
  8
細線
 48
50.0
100
AcDbLine
 10
12233.77410142906
 20
4297.991108379626
 30
0.0
 11
12233.77410142906
 21
2507.991108379627
 31
0.0
  0
LINE
  5
191F7
330
747D
100
AcDbEntity
  8
細線
 48
50.0
100
AcDbLine
 10
12373.77410142906
 20
4297.991108379626
 30
0.0
 11
12373.77410142906
 21
2507.991108379627
 31
0.0
  0
LINE
  5
191F8
330
747D
100
AcDbEntity
  8
細線
 48
50.0
100
AcDbLine
 10
12388.77410142906
 20
4297.991108379626
 30
0.0
 11
12388.77410142906
 21
2507.991108379627
 31
0.0
  0
LINE
  5
191F9
330
747D
100
AcDbEntity
  8
細線
 48
50.0
100
AcDbLine
 10
12528.77410142906
 20
4297.991108379626
 30
0.0
 11
12528.77410142906
 21
2507.991108379627
 31
0.0
  0
LINE
  5
191FA
330
747D
100
AcDbEntity
  8
細線
 48
50.0
100
AcDbLine
 10
12513.77410142906
 20
4297.991108379626
 30
0.0
 11
12513.77410142906
 21
2507.991108379627
 31
0.0
  0
LINE
  5
19506
330
747D
100
AcDbEntity
  8
部品1
100
AcDbLine
 10
4966.076719621576
 20
3632.126092631536
 30
0.0
 11
4966.076719621579
 21
2514.491108379636
 31
0.0
  0
DIMENSION
  5
1988B
330
747D
100
AcDbEntity
  8
寸法
100
AcDbDimension
  2
*D35
 10
7030.476719621572
 20
6422.808914061055
 30
0.0
 11
7442.776719621573
 21
6422.808914061055
 31
0.0
 70
   160
  1
有効開口部間口\P824
 71
     5
 42
824.5999999999986
  3
INABA_S40G
100
AcDbAlignedDimension
 13
7855.076719621571
 23
6960.806258213263
 33
0.0
 14
7030.476719621572
 24
6960.806258213153
 34
0.0
100
AcDbRotatedDimension
1001
ACAD
1000
DSTYLE
1002
{
1002
}
  0
DIMENSION
  5
1988C
330
747D
100
AcDbEntity
  8
寸法
100
AcDbDimension
  2
*D37
 10
5500.476719621572
 20
6422.808914061055
 30
0.0
 11
5912.776719621572
 21
6422.808914061055
 31
0.0
 70
   160
  1
有効開口部間口\P824
 71
     5
 42
824.5999999999986
  3
INABA_S40G
100
AcDbAlignedDimension
 13
6325.076719621571
 23
6960.806258213263
 33
0.0
 14
5500.476719621572
 24
6960.806258213153
 34
0.0
100
AcDbRotatedDimension
1001
ACAD
1000
DSTYLE
1002
{
1002
}
  0
LINE
  5
1988D
330
747D
100
AcDbEntity
  8
寸法
 48
50.0
100
AcDbLine
 10
5817.23885697695
 20
6857.9118993414
 30
0.0
 11
5765.832849066846
 21
6857.9118993414
 31
0.0
  0
LINE
  5
1988E
330
747D
100
AcDbEntity
  8
寸法
 48
50.0
100
AcDbLine
 10
5765.832849066846
 20
6857.9118993414
 30
0.0
 11
5765.832849066846
 21
6889.222057993565
 31
0.0
  0
LINE
  5
1988F
330
747D
100
AcDbEntity
  8
寸法
 48
50.0
100
AcDbLine
 10
5765.832849066846
 20
6889.222057993565
 30
0.0
 11
5736.071517075423
 21
6889.222057993565
 31
0.0
  0
LINE
  5
19890
330
747D
100
AcDbEntity
  8
寸法
 48
50.0
100
AcDbLine
 10
5736.071517075423
 20
6889.222057993565
 30
0.0
 11
5791.535853021898
 21
6926.801508922179
 31
0.0
  0
LINE
  5
19891
330
747D
100
AcDbEntity
  8
寸法
 48
50.0
100
AcDbLine
 10
5847.000188968373
 20
6889.222057993565
 30
0.0
 11
5791.535853021898
 21
6926.801508922179
 31
0.0
  0
LINE
  5
19892
330
747D
100
AcDbEntity
  8
寸法
 48
50.0
100
AcDbLine
 10
5817.23885697695
 20
6889.222057993565
 30
0.0
 11
5847.000188968373
 21
6889.222057993565
 31
0.0
  0
LINE
  5
19893
330
747D
100
AcDbEntity
  8
寸法
 48
50.0
100
AcDbLine
 10
5817.23885697695
 20
6857.9118993414
 30
0.0
 11
5817.23885697695
 21
6889.222057993565
 31
0.0
  0
LINE
  5
19894
330
747D
100
AcDbEntity
  8
寸法
 48
50.0
100
AcDbLine
 10
5765.832849066846
 20
6857.9118993414
 30
0.0
 11
5817.23885697695
 21
6857.9118993414
 31
0.0
  0
LINE
  5
19895
330
747D
100
AcDbEntity
  8
寸法
 48
50.0
100
AcDbLine
 10
6145.720025850128
 20
6915.057490096223
 30
0.0
 11
6145.720025850128
 21
6861.393855514433
 31
0.0
  0
LINE
  5
19896
330
747D
100
AcDbEntity
  8
寸法
 48
50.0
100
AcDbLine
 10
6235.00424444555
 20
6891.133855826736
 30
0.0
 11
6145.720025850128
 21
6915.057490096223
 31
0.0
  0
LINE
  5
19897
330
747D
100
AcDbEntity
  8
寸法
 48
50.0
100
AcDbLine
 10
6015.852304269825
 20
6891.133855826736
 30
0.0
 11
6235.00424444555
 21
6891.133855826736
 31
0.0
  0
LINE
  5
19898
330
747D
100
AcDbEntity
  8
寸法
 48
50.0
100
AcDbLine
 10
7545.852304269826
 20
6891.133855826736
 30
0.0
 11
7765.004244445551
 21
6891.133855826736
 31
0.0
  0
LINE
  5
19899
330
747D
100
AcDbEntity
  8
寸法
 48
50.0
100
AcDbLine
 10
7765.004244445551
 20
6891.133855826736
 30
0.0
 11
7675.720025850129
 21
6915.057490096223
 31
0.0
  0
LINE
  5
1989A
330
747D
100
AcDbEntity
  8
寸法
 48
50.0
100
AcDbLine
 10
7675.720025850129
 20
6915.057490096223
 30
0.0
 11
7675.720025850129
 21
6861.393855514433
 31
0.0
  0
LINE
  5
1989B
330
747D
100
AcDbEntity
  8
寸法
 48
50.0
100
AcDbLine
 10
7295.832849066846
 20
6857.9118993414
 30
0.0
 11
7347.23885697695
 21
6857.9118993414
 31
0.0
  0
LINE
  5
1989C
330
747D
100
AcDbEntity
  8
寸法
 48
50.0
100
AcDbLine
 10
7347.23885697695
 20
6857.9118993414
 30
0.0
 11
7347.23885697695
 21
6889.222057993565
 31
0.0
  0
LINE
  5
1989D
330
747D
100
AcDbEntity
  8
寸法
 48
50.0
100
AcDbLine
 10
7347.23885697695
 20
6889.222057993565
 30
0.0
 11
7377.000188968374
 21
6889.222057993565
 31
0.0
  0
LINE
  5
1989E
330
747D
100
AcDbEntity
  8
寸法
 48
50.0
100
AcDbLine
 10
7377.000188968374
 20
6889.222057993565
 30
0.0
 11
7321.535853021898
 21
6926.801508922179
 31
0.0
  0
LINE
  5
1989F
330
747D
100
AcDbEntity
  8
寸法
 48
50.0
100
AcDbLine
 10
7266.071517075423
 20
6889.222057993565
 30
0.0
 11
7321.535853021898
 21
6926.801508922179
 31
0.0
  0
LINE
  5
198A0
330
747D
100
AcDbEntity
  8
寸法
 48
50.0
100
AcDbLine
 10
7295.832849066846
 20
6889.222057993565
 30
0.0
 11
7266.071517075423
 21
6889.222057993565
 31
0.0
  0
LINE
  5
198A1
330
747D
100
AcDbEntity
  8
寸法
 48
50.0
100
AcDbLine
 10
7295.832849066846
 20
6857.9118993414
 30
0.0
 11
7295.832849066846
 21
6889.222057993565
 31
0.0
  0
LINE
  5
198A2
330
747D
100
AcDbEntity
  8
寸法
 48
50.0
100
AcDbLine
 10
7347.23885697695
 20
6857.9118993414
 30
0.0
 11
7295.832849066846
 21
6857.9118993414
 31
0.0
  0
LINE
  5
198A3
330
747D
100
AcDbEntity
  8
細線
100
AcDbLine
 10
5656.976719621569
 20
6981.806258213229
 30
0.0
 11
5656.976719621569
 21
6963.806258213207
 31
0.0
  0
LINE
  5
198A4
330
747D
100
AcDbEntity
  8
細線
100
AcDbLine
 10
5615.976719621569
 20
6981.806258213224
 30
0.0
 11
5615.976719621569
 21
6963.806258213207
 31
0.0
  0
LINE
  5
198A5
330
747D
100
AcDbEntity
  8
細線
100
AcDbLine
 10
5656.976719621569
 20
6981.806258213229
 30
0.0
 11
5615.976719621569
 21
6981.806258213224
 31
0.0
  0
ARC
  5
198A6
330
747D
100
AcDbEntity
  8
部品1
100
AcDbCircle
 10
5618.520875498845
 20
6963.306258213228
 30
0.0
 40
1.0
100
AcDbArc
 50
270.0
 51
19.47122063442214
  0
LINE
  5
198A7
330
747D
100
AcDbEntity
  8
部品1
 48
0.01
100
AcDbLine
 10
5611.476719621562
 20
6963.806258213228
 30
0.0
 11
5611.476719621562
 21
6962.806258213229
 31
0.0
  0
LINE
  5
198A8
330
747D
100
AcDbEntity
  8
部品1
 48
0.01
100
AcDbLine
 10
5611.976719621562
 20
6962.306258213228
 30
0.0
 11
5618.520875498845
 21
6962.306258213228
 31
0.0
  0
ARC
  5
198A9
330
747D
100
AcDbEntity
  8
部品1
 48
0.01
100
AcDbCircle
 10
5611.976719621562
 20
6962.806258213229
 30
0.0
 40
0.5
100
AcDbArc
 50
180.0
 51
270.0
  0
ARC
  5
198AA
330
747D
100
AcDbEntity
  8
部品1
100
AcDbCircle
 10
5643.976719621562
 20
6972.306258213229
 30
0.0
 40
26.0
100
AcDbArc
 50
180.0
 51
199.4712206344221
  0
ARC
  5
198AB
330
747D
100
AcDbEntity
  8
部品1
 48
0.01
100
AcDbCircle
 10
5619.976719621561
 20
6977.306258213229
 30
0.0
 40
2.0
100
AcDbArc
 50
90.0
 51
180.0
  0
LINE
  5
198AC
330
747D
100
AcDbEntity
  8
部品1
100
AcDbLine
 10
5617.976719621561
 20
6972.306258213229
 30
0.0
 11
5617.976719621561
 21
6977.306258213229
 31
0.0
  0
ARC
  5
198AD
330
747D
100
AcDbEntity
  8
部品1
100
AcDbCircle
 10
5636.476719621562
 20
6988.106258213227
 30
0.0
 40
16.0
100
AcDbArc
 50
218.3930440191905
 51
254.0576313943215
  0
ARC
  5
198AE
330
747D
100
AcDbEntity
  8
部品1
100
AcDbCircle
 10
5621.585111246375
 20
6976.306258213227
 30
0.0
 40
3.0
100
AcDbArc
 50
38.39304401919052
 51
90.0
  0
LINE
  5
198AF
330
747D
100
AcDbEntity
  8
部品1
 48
0.01
100
AcDbLine
 10
5619.976719621561
 20
6979.306258213227
 30
0.0
 11
5621.585111246375
 21
6979.306258213227
 31
0.0
  0
ARC
  5
198B0
330
747D
100
AcDbEntity
  8
部品1
100
AcDbCircle
 10
5636.476719621562
 20
6988.106258213227
 30
0.0
 40
16.0
100
AcDbArc
 50
285.9423686056786
 51
321.6069559808095
  0
LINE
  5
198B1
330
747D
100
AcDbEntity
  8
部品1
100
AcDbLine
 10
5640.047433835833
 20
6972.606258213227
 30
0.0
 11
5632.90600540729
 21
6972.606258213227
 31
0.0
  0
ARC
  5
198B2
330
747D
100
AcDbEntity
  8
部品1
100
AcDbCircle
 10
5640.047433835833
 20
6975.606258213227
 30
0.0
 40
3.0
100
AcDbArc
 50
270.0
 51
285.9423686056786
  0
ARC
  5
198B3
330
747D
100
AcDbEntity
  8
部品1
100
AcDbCircle
 10
5632.90600540729
 20
6975.606258213227
 30
0.0
 40
3.0
100
AcDbArc
 50
254.0576313943215
 51
270.0
  0
LINE
  5
198B4
330
747D
100
AcDbEntity
  8
部品1
 48
0.01
100
AcDbLine
 10
5652.976719621562
 20
6979.306258213227
 30
0.0
 11
5651.368327996752
 21
6979.306258213227
 31
0.0
  0
ARC
  5
198B5
330
747D
100
AcDbEntity
  8
部品1
100
AcDbCircle
 10
5651.368327996752
 20
6976.306258213227
 30
0.0
 40
3.0
100
AcDbArc
 50
90.0
 51
141.6069559808095
  0
ARC
  5
198B6
330
747D
100
AcDbEntity
  8
部品1
 48
0.01
100
AcDbCircle
 10
5652.976719621562
 20
6977.306258213229
 30
0.0
 40
2.0
100
AcDbArc
 50
0.0
 51
90.0
  0
LINE
  5
198B7
330
747D
100
AcDbEntity
  8
部品1
100
AcDbLine
 10
5654.976719621561
 20
6972.306258213229
 30
0.0
 11
5654.976719621561
 21
6977.306258213229
 31
0.0
  0
ARC
  5
198B8
330
747D
100
AcDbEntity
  8
部品1
100
AcDbCircle
 10
5628.976719621562
 20
6972.306258213229
 30
0.0
 40
26.0
100
AcDbArc
 50
340.5287793655779
 51
0.0
  0
ARC
  5
198B9
330
747D
100
AcDbEntity
  8
部品1
100
AcDbCircle
 10
5654.432563744278
 20
6963.306258213228
 30
0.0
 40
1.0
100
AcDbArc
 50
160.5287793655778
 51
270.0
  0
LINE
  5
198BA
330
747D
100
AcDbEntity
  8
部品1
 48
0.01
100
AcDbLine
 10
5660.976719621562
 20
6962.306258213228
 30
0.0
 11
5654.364214191501
 21
6962.306258213228
 31
0.0
  0
LINE
  5
198BB
330
747D
100
AcDbEntity
  8
部品1
 48
0.01
100
AcDbLine
 10
5661.476719621561
 20
6963.806258213228
 30
0.0
 11
5661.476719621561
 21
6962.806258213229
 31
0.0
  0
LINE
  5
198BC
330
747D
100
AcDbEntity
  8
部品1
 48
0.01
100
AcDbLine
 10
5661.476719621561
 20
6963.806258213228
 30
0.0
 11
5661.476719621561
 21
6962.806258213229
 31
0.0
  0
ARC
  5
198BD
330
747D
100
AcDbEntity
  8
部品1
 48
0.01
100
AcDbCircle
 10
5660.976719621562
 20
6962.806258213229
 30
0.0
 40
0.5
100
AcDbArc
 50
270.0
 51
0.0
  0
LINE
  5
198BE
330
747D
100
AcDbEntity
  8
細線
100
AcDbLine
 10
6047.776719621543
 20
6993.806258213192
 30
0.0
 11
6047.776719621547
 21
6997.806258213191
 31
0.0
  0
LINE
  5
198BF
330
747D
100
AcDbEntity
  8
細線
100
AcDbLine
 10
6047.776719621543
 20
6993.806258213192
 30
0.0
 11
6027.776719621553
 21
6993.806258213192
 31
0.0
  0
LINE
  5
198C0
330
747D
100
AcDbEntity
  8
細線
100
AcDbLine
 10
6027.776719621553
 20
6993.806258213192
 30
0.0
 11
6027.776719621565
 21
7027.8062582132
 31
0.0
  0
LINE
  5
198C1
330
747D
100
AcDbEntity
  8
細線
100
AcDbLine
 10
6068.776719621561
 20
6963.806258213207
 30
0.0
 11
6068.776719621571
 21
6993.806258213206
 31
0.0
  0
LINE
  5
198C2
330
747D
100
AcDbEntity
  8
細線
100
AcDbLine
 10
6068.776719621568
 20
6993.806258213206
 30
0.0
 11
6053.776719621568
 21
6993.806258213202
 31
0.0
  0
LINE
  5
198C3
330
747D
100
AcDbEntity
  8
細線
100
AcDbLine
 10
6053.776719621565
 20
6986.806258213282
 30
0.0
 11
6053.776719621568
 21
6993.806258213202
 31
0.0
  0
LINE
  5
198C4
330
747D
100
AcDbEntity
  8
細線
100
AcDbLine
 10
6053.776719621546
 20
6997.806258213195
 30
0.0
 11
6047.776719621547
 21
6997.806258213199
 31
0.0
  0
LINE
  5
198C5
330
747D
100
AcDbEntity
  8
細線
100
AcDbLine
 10
6059.776719621572
 20
6997.106258213197
 30
0.0
 11
6059.776719621572
 21
6997.806258213195
 31
0.0
  0
ARC
  5
198C6
330
747D
100
AcDbEntity
  8
細線
100
AcDbCircle
 10
6057.776719621571
 20
6997.106258213195
 30
0.0
 40
2.0
100
AcDbArc
 50
270.0
 51
0.0
  0
LINE
  5
198C7
330
747D
100
AcDbEntity
  8
細線
100
AcDbLine
 10
6055.776719621572
 20
6995.106258213198
 30
0.0
 11
6057.776719621571
 21
6995.106258213198
 31
0.0
  0
LINE
  5
198C8
330
747D
100
AcDbEntity
  8
細線
100
AcDbLine
 10
6053.776719621572
 20
6997.106258213197
 30
0.0
 11
6053.776719621572
 21
6997.806258213195
 31
0.0
  0
ARC
  5
198C9
330
747D
100
AcDbEntity
  8
細線
100
AcDbCircle
 10
6055.776719621572
 20
6997.106258213195
 30
0.0
 40
2.0
100
AcDbArc
 50
180.0
 51
270.0
  0
LINE
  5
198CA
330
747D
100
AcDbEntity
  8
細線
100
AcDbLine
 10
6042.776719621561
 20
7020.806258213198
 30
0.0
 11
6042.776719621564
 21
7027.8062582132
 31
0.0
  0
LINE
  5
198CB
330
747D
100
AcDbEntity
  8
細線
100
AcDbLine
 10
6042.776719621564
 20
7027.8062582132
 30
0.0
 11
6027.776719621565
 21
7027.8062582132
 31
0.0
  0
LINE
  5
198CC
330
747D
100
AcDbEntity
  8
細線
100
AcDbLine
 10
6068.776719621568
 20
6963.806258213207
 30
0.0
 11
5968.776719621561
 21
6963.806258213192
 31
0.0
  0
LINE
  5
198CD
330
747D
100
AcDbEntity
  8
細線
100
AcDbLine
 10
5833.776719621496
 20
6963.806258213293
 30
0.0
 11
5841.276719621503
 21
6986.806258213213
 31
0.0
  0
LINE
  5
198CE
330
747D
100
AcDbEntity
  8
細線
100
AcDbLine
 10
5893.776719621495
 20
6963.806258213283
 30
0.0
 11
5886.276719621498
 21
6986.806258213213
 31
0.0
  0
LINE
  5
198CF
330
747D
100
AcDbEntity
  8
細線
100
AcDbLine
 10
5968.776719621565
 20
6963.806258213207
 30
0.0
 11
5966.445181330797
 21
6968.806258213191
 31
0.0
  0
LINE
  5
198D0
330
747D
100
AcDbEntity
  8
細線
100
AcDbLine
 10
5966.445181330801
 20
6968.806258213191
 30
0.0
 11
5901.108257912325
 21
6968.806258213181
 31
0.0
  0
LINE
  5
198D1
330
747D
100
AcDbEntity
  8
細線
100
AcDbLine
 10
5898.776719621572
 20
6963.806258213181
 30
0.0
 11
5828.776719621572
 21
6963.806258213174
 31
0.0
  0
LINE
  5
198D2
330
747D
100
AcDbEntity
  8
細線
100
AcDbLine
 10
5898.776719621572
 20
6963.806258213224
 30
0.0
 11
5901.10825791234
 21
6968.80625821321
 31
0.0
  0
LINE
  5
198D3
330
747D
100
AcDbEntity
  8
細線
100
AcDbLine
 10
5826.445181330797
 20
6968.806258213174
 30
0.0
 11
5761.108257912325
 21
6968.806258213162
 31
0.0
  0
LINE
  5
198D4
330
747D
100
AcDbEntity
  8
細線
100
AcDbLine
 10
5828.776719621565
 20
6963.806258213188
 30
0.0
 11
5826.445181330797
 21
6968.806258213174
 31
0.0
  0
LINE
  5
198D5
330
747D
100
AcDbEntity
  8
細線
100
AcDbLine
 10
5758.776719621568
 20
6963.806258213207
 30
0.0
 11
5761.108257912336
 21
6968.806258213191
 31
0.0
  0
ARC
  5
198D6
330
747D
100
AcDbEntity
  8
細線
100
AcDbCircle
 10
5863.776726121468
 20
6989.306258213185
 30
0.0
 40
6.0
100
AcDbArc
 50
204.624318352316
 51
335.375681647684
  0
LINE
  5
198D7
330
747D
100
AcDbEntity
  8
細線
100
AcDbLine
 10
6156.926719621566
 20
6997.806258213254
 30
0.0
 11
6059.776719621572
 21
6997.806258213195
 31
0.0
  0
LINE
  5
198D8
330
747D
100
AcDbEntity
  8
細線
100
AcDbLine
 10
6481.076719621561
 20
7020.80625821329
 30
0.0
 11
6042.776719621561
 21
7020.806258213294
 31
0.0
  0
LINE
  5
198D9
330
747D
100
AcDbEntity
  8
細線
 48
50.0
100
AcDbLine
 10
6910.476719621573
 20
6976.80625821329
 30
0.0
 11
6068.776719621564
 21
6976.806258213286
 31
0.0
  0
LINE
  5
198DA
330
747D
100
AcDbEntity
  8
細線
100
AcDbLine
 10
6053.776719621565
 20
6986.806258213282
 30
0.0
 11
5515.476719621569
 21
6986.806258213203
 31
0.0
  0
LINE
  5
198DB
330
747D
100
AcDbEntity
  8
細線
 48
50.0
100
AcDbLine
 10
6027.776719621561
 20
7010.806258213261
 30
0.0
 11
5500.476719621569
 21
7010.806258213174
 31
0.0
  0
LINE
  5
198DC
330
747D
100
AcDbEntity
  8
細線
100
AcDbLine
 10
5758.776719621586
 20
6963.806258213242
 30
0.0
 11
5491.46441297252
 21
6963.806258213202
 31
0.0
  0
LINE
  5
198DD
330
747D
100
AcDbEntity
  8
細線
100
AcDbLine
 10
5500.476719621569
 20
6967.806258213156
 30
0.0
 11
5500.476719621569
 21
6963.806258213207
 31
0.0
  0
LINE
  5
198DE
330
747D
100
AcDbEntity
  8
細線
100
AcDbLine
 10
5515.476719621569
 20
6993.806258213202
 30
0.0
 11
5515.476719621569
 21
6986.806258213203
 31
0.0
  0
LINE
  5
198DF
330
747D
100
AcDbEntity
  8
細線
100
AcDbLine
 10
5515.476719621569
 20
6993.806258213202
 30
0.0
 11
5500.476719621569
 21
6993.806258213202
 31
0.0
  0
LINE
  5
198E0
330
747D
100
AcDbEntity
  8
細線
100
AcDbLine
 10
6291.926719621588
 20
6997.806258213312
 30
0.0
 11
6284.426719621595
 21
7020.806258213243
 31
0.0
  0
LINE
  5
198E1
330
747D
100
AcDbEntity
  8
細線
100
AcDbLine
 10
6231.926719621588
 20
6997.806258213323
 30
0.0
 11
6239.426719621595
 21
7020.806258213243
 31
0.0
  0
LINE
  5
198E2
330
747D
100
AcDbEntity
  8
細線
100
AcDbLine
 10
6156.926719621562
 20
6997.806258213254
 30
0.0
 11
6159.25825791233
 21
7002.806258213239
 31
0.0
  0
LINE
  5
198E3
330
747D
100
AcDbEntity
  8
細線
100
AcDbLine
 10
6226.926719621559
 20
6997.806258213235
 30
0.0
 11
6224.595181330791
 21
7002.806258213221
 31
0.0
  0
LINE
  5
198E4
330
747D
100
AcDbEntity
  8
細線
100
AcDbLine
 10
6224.595181330791
 20
7002.806258213221
 30
0.0
 11
6159.25825791232
 21
7002.806258213209
 31
0.0
  0
LINE
  5
198E5
330
747D
100
AcDbEntity
  8
細線
100
AcDbLine
 10
6296.926719621563
 20
6997.806258213275
 30
0.0
 11
6299.25825791233
 21
7002.806258213261
 31
0.0
  0
LINE
  5
198E6
330
747D
100
AcDbEntity
  8
細線
100
AcDbLine
 10
6366.926719621559
 20
6997.806258213256
 30
0.0
 11
6364.595181330791
 21
7002.806258213242
 31
0.0
  0
LINE
  5
198E7
330
747D
100
AcDbEntity
  8
細線
100
AcDbLine
 10
6364.595181330791
 20
7002.806258213242
 30
0.0
 11
6299.258257912316
 21
7002.806258213232
 31
0.0
  0
LINE
  5
198E8
330
747D
100
AcDbEntity
  8
細線
100
AcDbLine
 10
6296.926719621559
 20
6997.806258213265
 30
0.0
 11
6226.926719621545
 21
6997.806258213265
 31
0.0
  0
ARC
  5
198E9
330
747D
100
AcDbEntity
  8
細線
100
AcDbCircle
 10
6261.926726121554
 20
7023.306258213239
 30
0.0
 40
6.0
100
AcDbArc
 50
204.624318352316
 51
335.375681647684
  0
LINE
  5
198EA
330
747D
100
AcDbEntity
  8
細線
100
AcDbLine
 10
6496.076719621564
 20
6997.806258213289
 30
0.0
 11
6366.926719621544
 21
6997.806258213289
 31
0.0
  0
LINE
  5
198EB
330
747D
100
AcDbEntity
  8
細線
100
AcDbLine
 10
6475.076719621568
 20
7025.80625821329
 30
0.0
 11
6475.076719621568
 21
7033.80625821329
 31
0.0
  0
LINE
  5
198EC
330
747D
100
AcDbEntity
  8
細線
100
AcDbLine
 10
6475.076719621568
 20
7025.80625821329
 30
0.0
 11
6455.076719621567
 21
7025.80625821329
 31
0.0
  0
LINE
  5
198ED
330
747D
100
AcDbEntity
  8
細線
100
AcDbLine
 10
6496.076719621564
 20
6997.806258213289
 30
0.0
 11
6496.076719621571
 21
7027.80625821329
 31
0.0
  0
LINE
  5
198EE
330
747D
100
AcDbEntity
  8
細線
100
AcDbLine
 10
6496.076719621564
 20
7027.80625821329
 30
0.0
 11
6481.076719621563
 21
7027.806258213286
 31
0.0
  0
LINE
  5
198EF
330
747D
100
AcDbEntity
  8
細線
100
AcDbLine
 10
6481.076719621561
 20
7020.806258213287
 30
0.0
 11
6481.076719621563
 21
7027.806258213286
 31
0.0
  0
LINE
  5
198F0
330
747D
100
AcDbEntity
  8
細線
100
AcDbLine
 10
6481.076719621568
 20
7033.80625821329
 30
0.0
 11
6475.076719621568
 21
7033.80625821329
 31
0.0
  0
ARC
  5
198F1
330
747D
100
AcDbEntity
  8
細線
100
AcDbCircle
 10
6483.076719621568
 20
7033.106258213289
 30
0.0
 40
2.0
100
AcDbArc
 50
180.0
 51
270.0
  0
LINE
  5
198F2
330
747D
100
AcDbEntity
  8
細線
100
AcDbLine
 10
6481.076719621568
 20
7033.106258213289
 30
0.0
 11
6481.076719621568
 21
7033.80625821329
 31
0.0
  0
LINE
  5
198F3
330
747D
100
AcDbEntity
  8
細線
100
AcDbLine
 10
6483.076719621568
 20
7031.106258213289
 30
0.0
 11
6485.076719621567
 21
7031.106258213289
 31
0.0
  0
ARC
  5
198F4
330
747D
100
AcDbEntity
  8
細線
100
AcDbCircle
 10
6485.076719621567
 20
7033.106258213289
 30
0.0
 40
2.0
100
AcDbArc
 50
270.0
 51
0.0
  0
LINE
  5
198F5
330
747D
100
AcDbEntity
  8
細線
100
AcDbLine
 10
6487.076719621568
 20
7033.106258213289
 30
0.0
 11
6487.076719621568
 21
7033.80625821329
 31
0.0
  0
LINE
  5
198F6
330
747D
100
AcDbEntity
  8
細線
100
AcDbLine
 10
6499.476719621565
 20
7035.512109276007
 30
0.0
 11
6487.476719621565
 21
7035.512109276007
 31
0.0
  0
LINE
  5
198F7
330
747D
100
AcDbEntity
  8
細線
100
AcDbLine
 10
6487.476719621787
 20
7061.806258213287
 30
0.0
 11
6455.076719621567
 21
7061.806258213287
 31
0.0
  0
LINE
  5
198F8
330
747D
100
AcDbEntity
  8
細線
100
AcDbLine
 10
6455.076719621567
 20
7025.80625821329
 30
0.0
 11
6455.076719621567
 21
7061.806258213287
 31
0.0
  0
LINE
  5
198F9
330
747D
100
AcDbEntity
  8
細線
100
AcDbLine
 10
6470.076719621568
 20
7057.306258213291
 30
0.0
 11
6470.076719621568
 21
7061.806258213287
 31
0.0
  0
LINE
  5
198FA
330
747D
100
AcDbEntity
  8
細線
100
AcDbLine
 10
6487.476719621565
 20
7035.512109276007
 30
0.0
 11
6487.476719621565
 21
7060.412109276009
 31
0.0
  0
LINE
  5
198FB
330
747D
100
AcDbEntity
  8
細線
100
AcDbLine
 10
6487.476719621565
 20
7060.412109276009
 30
0.0
 11
6456.290668204826
 21
7060.412109276009
 31
0.0
  0
LINE
  5
198FC
330
747D
100
AcDbEntity
  8
細線
 48
50.0
100
AcDbLine
 10
6910.476719621569
 20
7010.806258213293
 30
0.0
 11
6496.076719621567
 21
7010.806258213293
 31
0.0
  0
LINE
  5
198FD
330
747D
100
AcDbEntity
  8
細線
100
AcDbLine
 10
6594.276719621568
 20
7033.806258213279
 30
0.0
 11
6596.375104083269
 21
7038.306258213286
 31
0.0
  0
LINE
  5
198FE
330
747D
100
AcDbEntity
  8
細線
100
AcDbLine
 10
6594.276719621564
 20
7033.806258213286
 30
0.0
 11
6487.076719621568
 21
7033.80625821329
 31
0.0
  0
LINE
  5
198FF
330
747D
100
AcDbEntity
  8
細線
100
AcDbLine
 10
6734.276719621579
 20
7033.806258213267
 30
0.0
 11
6736.375104083283
 21
7038.306258213286
 31
0.0
  0
LINE
  5
19900
330
747D
100
AcDbEntity
  8
細線
100
AcDbLine
 10
6664.276719621561
 20
7033.80625821326
 30
0.0
 11
6662.178335159854
 21
7038.306258213286
 31
0.0
  0
LINE
  5
19901
330
747D
100
AcDbEntity
  8
細線
100
AcDbLine
 10
6734.276719621572
 20
7033.806258213257
 30
0.0
 11
6664.276719621561
 21
7033.80625821326
 31
0.0
  0
LINE
  5
19902
330
747D
100
AcDbEntity
  8
細線
100
AcDbLine
 10
6908.476719621572
 20
7033.806258213286
 30
0.0
 11
6804.276719621554
 21
7033.80625821329
 31
0.0
  0
LINE
  5
19903
330
747D
100
AcDbEntity
  8
細線
100
AcDbLine
 10
6804.276719621572
 20
7033.80625821325
 30
0.0
 11
6802.17833515986
 21
7038.306258213286
 31
0.0
  0
LINE
  5
19904
330
747D
100
AcDbEntity
  8
細線
100
AcDbLine
 10
6908.476719621572
 20
7015.806258213283
 30
0.0
 11
6908.476719621572
 21
7033.806258213282
 31
0.0
  0
LINE
  5
19905
330
747D
100
AcDbEntity
  8
細線
 48
50.0
100
AcDbLine
 10
6908.476719621572
 20
7015.806258213283
 30
0.0
 11
6910.476719621573
 21
7015.806258213283
 31
0.0
  0
LINE
  5
19906
330
747D
100
AcDbEntity
  8
細線
100
AcDbLine
 10
7583.776719621565
 20
6986.806258213308
 30
0.0
 11
7045.476719621568
 21
6986.806258213228
 31
0.0
  0
LINE
  5
19907
330
747D
100
AcDbEntity
  8
細線
 48
50.0
100
AcDbLine
 10
7557.776719621561
 20
7010.806258213285
 30
0.0
 11
7030.476719621569
 21
7010.806258213199
 31
0.0
  0
LINE
  5
19908
330
747D
100
AcDbEntity
  8
細線
100
AcDbLine
 10
7045.476719621568
 20
6993.806258213227
 30
0.0
 11
7030.476719621569
 21
6993.806258213227
 31
0.0
  0
LINE
  5
19909
330
747D
100
AcDbEntity
  8
細線
100
AcDbLine
 10
7045.476719621568
 20
6993.806258213227
 30
0.0
 11
7045.476719621568
 21
6986.806258213228
 31
0.0
  0
LINE
  5
1990A
330
747D
100
AcDbEntity
  8
細線
100
AcDbLine
 10
7288.776719621586
 20
6963.806258213264
 30
0.0
 11
7021.46441297252
 21
6963.806258213228
 31
0.0
  0
LINE
  5
1990B
330
747D
100
AcDbEntity
  8
細線
100
AcDbLine
 10
7030.476719621569
 20
6967.806258213177
 30
0.0
 11
7030.476719621569
 21
6963.806258213228
 31
0.0
  0
ARC
  5
1990C
330
747D
100
AcDbEntity
  8
部品1
 48
0.01
100
AcDbCircle
 10
7190.976719621561
 20
6962.80625821325
 30
0.0
 40
0.5
100
AcDbArc
 50
270.0
 51
0.0
  0
LINE
  5
1990D
330
747D
100
AcDbEntity
  8
部品1
 48
0.01
100
AcDbLine
 10
7191.476719621562
 20
6963.80625821325
 30
0.0
 11
7191.476719621562
 21
6962.80625821325
 31
0.0
  0
LINE
  5
1990E
330
747D
100
AcDbEntity
  8
部品1
 48
0.01
100
AcDbLine
 10
7191.476719621562
 20
6963.80625821325
 30
0.0
 11
7191.476719621562
 21
6962.80625821325
 31
0.0
  0
LINE
  5
1990F
330
747D
100
AcDbEntity
  8
部品1
 48
0.01
100
AcDbLine
 10
7190.976719621561
 20
6962.30625821325
 30
0.0
 11
7184.364214191501
 21
6962.30625821325
 31
0.0
  0
ARC
  5
19910
330
747D
100
AcDbEntity
  8
部品1
100
AcDbCircle
 10
7184.432563744278
 20
6963.30625821325
 30
0.0
 40
1.0
100
AcDbArc
 50
160.5287793655778
 51
270.0
  0
ARC
  5
19911
330
747D
100
AcDbEntity
  8
部品1
100
AcDbCircle
 10
7158.976719621562
 20
6972.30625821325
 30
0.0
 40
26.0
100
AcDbArc
 50
340.5287793655779
 51
0.0
  0
LINE
  5
19912
330
747D
100
AcDbEntity
  8
部品1
100
AcDbLine
 10
7184.976719621563
 20
6972.30625821325
 30
0.0
 11
7184.976719621563
 21
6977.30625821325
 31
0.0
  0
ARC
  5
19913
330
747D
100
AcDbEntity
  8
部品1
 48
0.01
100
AcDbCircle
 10
7182.976719621561
 20
6977.30625821325
 30
0.0
 40
2.0
100
AcDbArc
 50
0.0
 51
90.0
  0
LINE
  5
19914
330
747D
100
AcDbEntity
  8
細線
100
AcDbLine
 10
7186.976719621569
 20
6981.80625821325
 30
0.0
 11
7186.976719621569
 21
6963.806258213228
 31
0.0
  0
ARC
  5
19915
330
747D
100
AcDbEntity
  8
部品1
100
AcDbCircle
 10
7181.368327996752
 20
6976.30625821325
 30
0.0
 40
3.0
100
AcDbArc
 50
90.0
 51
141.6069559808095
  0
LINE
  5
19916
330
747D
100
AcDbEntity
  8
部品1
 48
0.01
100
AcDbLine
 10
7182.976719621561
 20
6979.306258213249
 30
0.0
 11
7181.368327996752
 21
6979.306258213249
 31
0.0
  0
ARC
  5
19917
330
747D
100
AcDbEntity
  8
部品1
100
AcDbCircle
 10
7162.906005407291
 20
6975.606258213253
 30
0.0
 40
3.0
100
AcDbArc
 50
254.0576313943215
 51
270.0
  0
ARC
  5
19918
330
747D
100
AcDbEntity
  8
部品1
100
AcDbCircle
 10
7170.047433835833
 20
6975.606258213253
 30
0.0
 40
3.0
100
AcDbArc
 50
270.0
 51
285.9423686056786
  0
LINE
  5
19919
330
747D
100
AcDbEntity
  8
部品1
100
AcDbLine
 10
7170.047433835833
 20
6972.606258213253
 30
0.0
 11
7162.906005407291
 21
6972.606258213253
 31
0.0
  0
ARC
  5
1991A
330
747D
100
AcDbEntity
  8
部品1
100
AcDbCircle
 10
7166.476719621562
 20
6988.106258213253
 30
0.0
 40
16.0
100
AcDbArc
 50
285.9423686056786
 51
321.6069559808095
  0
LINE
  5
1991B
330
747D
100
AcDbEntity
  8
部品1
 48
0.01
100
AcDbLine
 10
7149.976719621562
 20
6979.306258213249
 30
0.0
 11
7151.585111246375
 21
6979.306258213249
 31
0.0
  0
ARC
  5
1991C
330
747D
100
AcDbEntity
  8
部品1
100
AcDbCircle
 10
7151.585111246375
 20
6976.30625821325
 30
0.0
 40
3.0
100
AcDbArc
 50
38.39304401919052
 51
90.0
  0
ARC
  5
1991D
330
747D
100
AcDbEntity
  8
部品1
100
AcDbCircle
 10
7166.476719621562
 20
6988.106258213253
 30
0.0
 40
16.0
100
AcDbArc
 50
218.3930440191905
 51
254.0576313943215
  0
LINE
  5
1991E
330
747D
100
AcDbEntity
  8
部品1
100
AcDbLine
 10
7147.976719621562
 20
6972.30625821325
 30
0.0
 11
7147.976719621562
 21
6977.30625821325
 31
0.0
  0
ARC
  5
1991F
330
747D
100
AcDbEntity
  8
部品1
 48
0.01
100
AcDbCircle
 10
7149.976719621562
 20
6977.30625821325
 30
0.0
 40
2.0
100
AcDbArc
 50
90.0
 51
180.0
  0
ARC
  5
19920
330
747D
100
AcDbEntity
  8
部品1
100
AcDbCircle
 10
7173.976719621562
 20
6972.30625821325
 30
0.0
 40
26.0
100
AcDbArc
 50
180.0
 51
199.4712206344221
  0
ARC
  5
19921
330
747D
100
AcDbEntity
  8
部品1
 48
0.01
100
AcDbCircle
 10
7141.976719621561
 20
6962.80625821325
 30
0.0
 40
0.5
100
AcDbArc
 50
180.0
 51
270.0
  0
LINE
  5
19922
330
747D
100
AcDbEntity
  8
部品1
 48
0.01
100
AcDbLine
 10
7141.976719621561
 20
6962.30625821325
 30
0.0
 11
7148.520875498845
 21
6962.30625821325
 31
0.0
  0
LINE
  5
19923
330
747D
100
AcDbEntity
  8
部品1
 48
0.01
100
AcDbLine
 10
7141.476719621562
 20
6963.80625821325
 30
0.0
 11
7141.476719621562
 21
6962.80625821325
 31
0.0
  0
ARC
  5
19924
330
747D
100
AcDbEntity
  8
部品1
100
AcDbCircle
 10
7148.520875498845
 20
6963.30625821325
 30
0.0
 40
1.0
100
AcDbArc
 50
270.0
 51
19.47122063442214
  0
LINE
  5
19925
330
747D
100
AcDbEntity
  8
細線
100
AcDbLine
 10
7186.976719621569
 20
6981.80625821325
 30
0.0
 11
7145.976719621569
 21
6981.80625821325
 31
0.0
  0
LINE
  5
19926
330
747D
100
AcDbEntity
  8
細線
100
AcDbLine
 10
7145.976719621569
 20
6981.80625821325
 30
0.0
 11
7145.976719621569
 21
6963.806258213228
 31
0.0
  0
LINE
  5
19927
330
747D
100
AcDbEntity
  8
細線
100
AcDbLine
 10
7428.776719621573
 20
6963.80625821325
 30
0.0
 11
7431.108257912339
 21
6968.806258213236
 31
0.0
  0
LINE
  5
19928
330
747D
100
AcDbEntity
  8
細線
100
AcDbLine
 10
7496.4451813308
 20
6968.806258213217
 30
0.0
 11
7431.108257912325
 21
6968.806258213206
 31
0.0
  0
LINE
  5
19929
330
747D
100
AcDbEntity
  8
細線
100
AcDbLine
 10
7498.776719621564
 20
6963.806258213232
 30
0.0
 11
7496.445181330797
 21
6968.806258213217
 31
0.0
  0
LINE
  5
1992A
330
747D
100
AcDbEntity
  8
細線
100
AcDbLine
 10
7423.776719621496
 20
6963.806258213309
 30
0.0
 11
7416.276719621499
 21
6986.806258213235
 31
0.0
  0
LINE
  5
1992B
330
747D
100
AcDbEntity
  8
細線
100
AcDbLine
 10
7598.776719621568
 20
6963.806258213228
 30
0.0
 11
7498.776719621561
 21
6963.806258213214
 31
0.0
  0
LINE
  5
1992C
330
747D
100
AcDbEntity
  8
細線
100
AcDbLine
 10
7572.776719621565
 20
7027.806258213221
 30
0.0
 11
7557.776719621564
 21
7027.806258213221
 31
0.0
  0
LINE
  5
1992D
330
747D
100
AcDbEntity
  8
細線
100
AcDbLine
 10
7572.776719621561
 20
7020.806258213221
 30
0.0
 11
7572.776719621565
 21
7027.806258213221
 31
0.0
  0
ARC
  5
1992E
330
747D
100
AcDbEntity
  8
細線
100
AcDbCircle
 10
7585.776719621572
 20
6997.106258213221
 30
0.0
 40
2.0
100
AcDbArc
 50
180.0
 51
270.0
  0
LINE
  5
1992F
330
747D
100
AcDbEntity
  8
細線
100
AcDbLine
 10
7583.776719621572
 20
6997.106258213223
 30
0.0
 11
7583.776719621572
 21
6997.806258213221
 31
0.0
  0
LINE
  5
19930
330
747D
100
AcDbEntity
  8
細線
100
AcDbLine
 10
7585.776719621572
 20
6995.106258213223
 30
0.0
 11
7587.776719621571
 21
6995.106258213223
 31
0.0
  0
ARC
  5
19931
330
747D
100
AcDbEntity
  8
細線
100
AcDbCircle
 10
7587.776719621571
 20
6997.106258213221
 30
0.0
 40
2.0
100
AcDbArc
 50
270.0
 51
0.0
  0
LINE
  5
19932
330
747D
100
AcDbEntity
  8
細線
100
AcDbLine
 10
7589.776719621572
 20
6997.106258213223
 30
0.0
 11
7589.776719621572
 21
6997.806258213221
 31
0.0
  0
LINE
  5
19933
330
747D
100
AcDbEntity
  8
細線
100
AcDbLine
 10
7583.776719621546
 20
6997.806258213221
 30
0.0
 11
7577.776719621546
 21
6997.806258213221
 31
0.0
  0
LINE
  5
19934
330
747D
100
AcDbEntity
  8
細線
100
AcDbLine
 10
7583.776719621565
 20
6986.806258213308
 30
0.0
 11
7583.776719621567
 21
6993.806258213227
 31
0.0
  0
LINE
  5
19935
330
747D
100
AcDbEntity
  8
細線
100
AcDbLine
 10
7598.776719621568
 20
6993.806258213227
 30
0.0
 11
7583.776719621567
 21
6993.806258213227
 31
0.0
  0
LINE
  5
19936
330
747D
100
AcDbEntity
  8
細線
100
AcDbLine
 10
7598.776719621561
 20
6963.806258213228
 30
0.0
 11
7598.776719621572
 21
6993.806258213227
 31
0.0
  0
LINE
  5
19937
330
747D
100
AcDbEntity
  8
細線
100
AcDbLine
 10
7557.776719621553
 20
6993.806258213213
 30
0.0
 11
7557.776719621564
 21
7027.806258213221
 31
0.0
  0
LINE
  5
19938
330
747D
100
AcDbEntity
  8
細線
100
AcDbLine
 10
7577.776719621543
 20
6993.806258213213
 30
0.0
 11
7557.776719621553
 21
6993.806258213213
 31
0.0
  0
LINE
  5
19939
330
747D
100
AcDbEntity
  8
細線
100
AcDbLine
 10
7577.776719621543
 20
6993.806258213213
 30
0.0
 11
7577.776719621546
 21
6997.806258213214
 31
0.0
  0
ARC
  5
1993A
330
747D
100
AcDbEntity
  8
細線
100
AcDbCircle
 10
7393.776726121469
 20
6989.306258213206
 30
0.0
 40
6.0
100
AcDbArc
 50
204.624318352316
 51
335.375681647684
  0
LINE
  5
1993B
330
747D
100
AcDbEntity
  8
細線
100
AcDbLine
 10
7288.776719621568
 20
6963.806258213228
 30
0.0
 11
7291.108257912336
 21
6968.806258213213
 31
0.0
  0
LINE
  5
1993C
330
747D
100
AcDbEntity
  8
細線
100
AcDbLine
 10
7358.776719621565
 20
6963.806258213214
 30
0.0
 11
7356.445181330797
 21
6968.806258213199
 31
0.0
  0
LINE
  5
1993D
330
747D
100
AcDbEntity
  8
細線
100
AcDbLine
 10
7356.445181330797
 20
6968.806258213199
 30
0.0
 11
7291.108257912324
 21
6968.806258213184
 31
0.0
  0
LINE
  5
1993E
330
747D
100
AcDbEntity
  8
細線
100
AcDbLine
 10
7428.776719621573
 20
6963.806258213207
 30
0.0
 11
7358.776719621572
 21
6963.8062582132
 31
0.0
  0
LINE
  5
1993F
330
747D
100
AcDbEntity
  8
細線
100
AcDbLine
 10
7363.776719621495
 20
6963.806258213319
 30
0.0
 11
7371.276719621502
 21
6986.806258213235
 31
0.0
  0
LINE
  5
19940
330
747D
100
AcDbEntity
  8
細線
100
AcDbLine
 10
7686.926719621566
 20
6997.806258213279
 30
0.0
 11
7589.776719621572
 21
6997.806258213221
 31
0.0
  0
LINE
  5
19941
330
747D
100
AcDbEntity
  8
細線
 48
50.0
100
AcDbLine
 10
8440.476719621573
 20
6976.806258213315
 30
0.0
 11
7598.776719621564
 21
6976.806258213311
 31
0.0
  0
LINE
  5
19942
330
747D
100
AcDbEntity
  8
細線
100
AcDbLine
 10
8011.076719621561
 20
7020.806258213315
 30
0.0
 11
7572.776719621561
 21
7020.806258213315
 31
0.0
  0
ARC
  5
19943
330
747D
100
AcDbEntity
  8
細線
100
AcDbCircle
 10
7791.926726121554
 20
7023.306258213264
 30
0.0
 40
6.0
100
AcDbArc
 50
204.624318352316
 51
335.375681647684
  0
LINE
  5
19944
330
747D
100
AcDbEntity
  8
細線
100
AcDbLine
 10
7826.926719621559
 20
6997.806258213286
 30
0.0
 11
7756.926719621545
 21
6997.806258213286
 31
0.0
  0
LINE
  5
19945
330
747D
100
AcDbEntity
  8
細線
100
AcDbLine
 10
7826.926719621562
 20
6997.806258213301
 30
0.0
 11
7829.25825791233
 21
7002.806258213286
 31
0.0
  0
LINE
  5
19946
330
747D
100
AcDbEntity
  8
細線
100
AcDbLine
 10
7754.595181330791
 20
7002.806258213246
 30
0.0
 11
7689.258257912318
 21
7002.806258213235
 31
0.0
  0
LINE
  5
19947
330
747D
100
AcDbEntity
  8
細線
100
AcDbLine
 10
7756.926719621559
 20
6997.806258213261
 30
0.0
 11
7754.595181330791
 21
7002.806258213246
 31
0.0
  0
LINE
  5
19948
330
747D
100
AcDbEntity
  8
細線
100
AcDbLine
 10
7686.926719621563
 20
6997.806258213279
 30
0.0
 11
7689.25825791233
 21
7002.806258213265
 31
0.0
  0
LINE
  5
19949
330
747D
100
AcDbEntity
  8
細線
100
AcDbLine
 10
7761.926719621588
 20
6997.806258213344
 30
0.0
 11
7769.426719621595
 21
7020.806258213264
 31
0.0
  0
LINE
  5
1994A
330
747D
100
AcDbEntity
  8
細線
100
AcDbLine
 10
7821.926719621588
 20
6997.806258213337
 30
0.0
 11
7814.426719621595
 21
7020.806258213264
 31
0.0
  0
LINE
  5
1994B
330
747D
100
AcDbEntity
  8
細線
100
AcDbLine
 10
7894.595181330791
 20
7002.806258213265
 30
0.0
 11
7829.258257912316
 21
7002.806258213258
 31
0.0
  0
LINE
  5
1994C
330
747D
100
AcDbEntity
  8
細線
100
AcDbLine
 10
7896.926719621558
 20
6997.806258213279
 30
0.0
 11
7894.595181330791
 21
7002.806258213265
 31
0.0
  0
LINE
  5
1994D
330
747D
100
AcDbEntity
  8
細線
100
AcDbLine
 10
8026.076719621563
 20
6997.806258213315
 30
0.0
 11
7896.926719621544
 21
6997.806258213315
 31
0.0
  0
LINE
  5
1994E
330
747D
100
AcDbEntity
  8
細線
100
AcDbLine
 10
7985.076719621567
 20
7025.806258213314
 30
0.0
 11
7985.076719621567
 21
7061.806258213308
 31
0.0
  0
ARC
  5
1994F
330
747D
100
AcDbEntity
  8
細線
100
AcDbCircle
 10
8015.076719621568
 20
7033.106258213312
 30
0.0
 40
2.0
100
AcDbArc
 50
270.0
 51
0.0
  0
LINE
  5
19950
330
747D
100
AcDbEntity
  8
細線
100
AcDbLine
 10
8013.076719621567
 20
7031.10625821331
 30
0.0
 11
8015.076719621568
 21
7031.10625821331
 31
0.0
  0
ARC
  5
19951
330
747D
100
AcDbEntity
  8
細線
100
AcDbCircle
 10
8013.076719621567
 20
7033.106258213312
 30
0.0
 40
2.0
100
AcDbArc
 50
180.0
 51
270.0
  0
LINE
  5
19952
330
747D
100
AcDbEntity
  8
細線
100
AcDbLine
 10
8011.076719621561
 20
7020.806258213308
 30
0.0
 11
8011.076719621563
 21
7027.806258213307
 31
0.0
  0
LINE
  5
19953
330
747D
100
AcDbEntity
  8
細線
100
AcDbLine
 10
8026.076719621563
 20
7027.806258213316
 30
0.0
 11
8011.076719621563
 21
7027.806258213307
 31
0.0
  0
LINE
  5
19954
330
747D
100
AcDbEntity
  8
細線
100
AcDbLine
 10
8026.076719621563
 20
6997.806258213315
 30
0.0
 11
8026.07671962157
 21
7027.806258213316
 31
0.0
  0
LINE
  5
19955
330
747D
100
AcDbEntity
  8
細線
100
AcDbLine
 10
8005.076719621568
 20
7025.806258213314
 30
0.0
 11
7985.076719621567
 21
7025.806258213314
 31
0.0
  0
LINE
  5
19956
330
747D
100
AcDbEntity
  8
細線
100
AcDbLine
 10
8005.076719621568
 20
7025.806258213314
 30
0.0
 11
8005.076719621568
 21
7033.806258213314
 31
0.0
  0
LINE
  5
19957
330
747D
100
AcDbEntity
  8
細線
100
AcDbLine
 10
8017.476719621566
 20
7060.412109276033
 30
0.0
 11
7986.290668204827
 21
7060.412109276033
 31
0.0
  0
LINE
  5
19958
330
747D
100
AcDbEntity
  8
細線
100
AcDbLine
 10
8017.476719621566
 20
7035.512109276033
 30
0.0
 11
8017.476719621566
 21
7060.412109276033
 31
0.0
  0
LINE
  5
19959
330
747D
100
AcDbEntity
  8
細線
100
AcDbLine
 10
8000.076719621567
 20
7057.306258213315
 30
0.0
 11
8000.076719621567
 21
7061.806258213308
 31
0.0
  0
LINE
  5
1995A
330
747D
100
AcDbEntity
  8
細線
100
AcDbLine
 10
8017.476719621788
 20
7061.806258213308
 30
0.0
 11
7985.076719621567
 21
7061.806258213308
 31
0.0
  0
LINE
  5
1995B
330
747D
100
AcDbEntity
  8
細線
100
AcDbLine
 10
8029.476719621566
 20
7035.512109276033
 30
0.0
 11
8017.476719621566
 21
7035.512109276033
 31
0.0
  0
LINE
  5
1995C
330
747D
100
AcDbEntity
  8
細線
100
AcDbLine
 10
8017.076719621568
 20
7033.106258213312
 30
0.0
 11
8017.076719621568
 21
7033.806258213314
 31
0.0
  0
LINE
  5
1995D
330
747D
100
AcDbEntity
  8
細線
100
AcDbLine
 10
8011.076719621568
 20
7033.106258213312
 30
0.0
 11
8011.076719621568
 21
7033.806258213314
 31
0.0
  0
LINE
  5
1995E
330
747D
100
AcDbEntity
  8
細線
100
AcDbLine
 10
8011.076719621568
 20
7033.806258213314
 30
0.0
 11
8005.076719621568
 21
7033.806258213314
 31
0.0
  0
LINE
  5
1995F
330
747D
100
AcDbEntity
  8
細線
 48
50.0
100
AcDbLine
 10
8440.476719621569
 20
7010.806258213316
 30
0.0
 11
8026.076719621569
 21
7010.806258213316
 31
0.0
  0
LINE
  5
19960
330
747D
100
AcDbEntity
  8
細線
100
AcDbLine
 10
8124.276719621565
 20
7033.806258213312
 30
0.0
 11
8017.076719621568
 21
7033.806258213314
 31
0.0
  0
LINE
  5
19961
330
747D
100
AcDbEntity
  8
細線
100
AcDbLine
 10
8124.276719621567
 20
7033.8062582133
 30
0.0
 11
8126.375104083269
 21
7038.306258213312
 31
0.0
  0
LINE
  5
19962
330
747D
100
AcDbEntity
  8
細線
100
AcDbLine
 10
8264.276719621571
 20
7033.806258213282
 30
0.0
 11
8194.27671962156
 21
7033.806258213286
 31
0.0
  0
LINE
  5
19963
330
747D
100
AcDbEntity
  8
細線
100
AcDbLine
 10
8194.27671962156
 20
7033.806258213286
 30
0.0
 11
8192.178335159853
 21
7038.306258213312
 31
0.0
  0
LINE
  5
19964
330
747D
100
AcDbEntity
  8
細線
100
AcDbLine
 10
8264.276719621578
 20
7033.806258213293
 30
0.0
 11
8266.375104083284
 21
7038.306258213312
 31
0.0
  0
LINE
  5
19965
330
747D
100
AcDbEntity
  8
細線
100
AcDbLine
 10
8334.276719621572
 20
7033.806258213272
 30
0.0
 11
8332.178335159861
 21
7038.306258213312
 31
0.0
  0
LINE
  5
19966
330
747D
100
AcDbEntity
  8
細線
 48
50.0
100
AcDbLine
 10
8438.476719621574
 20
7015.806258213308
 30
0.0
 11
8440.476719621573
 21
7015.806258213308
 31
0.0
  0
LINE
  5
19967
330
747D
100
AcDbEntity
  8
細線
100
AcDbLine
 10
8438.476719621574
 20
7015.806258213308
 30
0.0
 11
8438.476719621574
 21
7033.806258213307
 31
0.0
  0
LINE
  5
19968
330
747D
100
AcDbEntity
  8
細線
100
AcDbLine
 10
8438.476719621574
 20
7033.806258213307
 30
0.0
 11
8334.276719621554
 21
7033.806258213314
 31
0.0
  0
DIMENSION
  5
19969
330
747D
100
AcDbEntity
  8
寸法
100
AcDbDimension
  2
*D36
 10
3970.476719621573
 20
6422.808914061052
 30
0.0
 11
4382.776719621571
 21
6422.808914061052
 31
0.0
 70
   160
  1
有効開口部間口\P824
 71
     5
 42
824.5999999999986
  3
INABA_S40G
100
AcDbAlignedDimension
 13
4795.076719621572
 23
6960.80625821326
 33
0.0
 14
3970.476719621573
 24
6960.806258213152
 34
0.0
100
AcDbRotatedDimension
1001
ACAD
1000
DSTYLE
1002
{
1002
}
  0
LINE
  5
1996A
330
747D
100
AcDbEntity
  8
寸法
 48
50.0
100
AcDbLine
 10
4485.852304269825
 20
6891.133855826733
 30
0.0
 11
4705.00424444555
 21
6891.133855826733
 31
0.0
  0
LINE
  5
1996B
330
747D
100
AcDbEntity
  8
寸法
 48
50.0
100
AcDbLine
 10
4705.00424444555
 20
6891.133855826733
 30
0.0
 11
4615.720025850129
 21
6915.057490096218
 31
0.0
  0
LINE
  5
1996C
330
747D
100
AcDbEntity
  8
寸法
 48
50.0
100
AcDbLine
 10
4615.720025850129
 20
6915.057490096218
 30
0.0
 11
4615.720025850129
 21
6861.393855514428
 31
0.0
  0
LINE
  5
1996D
330
747D
100
AcDbEntity
  8
寸法
 48
50.0
100
AcDbLine
 10
4235.832849066846
 20
6857.911899341395
 30
0.0
 11
4287.23885697695
 21
6857.911899341395
 31
0.0
  0
LINE
  5
1996E
330
747D
100
AcDbEntity
  8
寸法
 48
50.0
100
AcDbLine
 10
4287.23885697695
 20
6857.911899341395
 30
0.0
 11
4287.23885697695
 21
6889.222057993563
 31
0.0
  0
LINE
  5
1996F
330
747D
100
AcDbEntity
  8
寸法
 48
50.0
100
AcDbLine
 10
4287.23885697695
 20
6889.222057993563
 30
0.0
 11
4317.000188968374
 21
6889.222057993563
 31
0.0
  0
LINE
  5
19970
330
747D
100
AcDbEntity
  8
寸法
 48
50.0
100
AcDbLine
 10
4317.000188968374
 20
6889.222057993563
 30
0.0
 11
4261.535853021898
 21
6926.801508922174
 31
0.0
  0
LINE
  5
19971
330
747D
100
AcDbEntity
  8
寸法
 48
50.0
100
AcDbLine
 10
4206.071517075423
 20
6889.222057993563
 30
0.0
 11
4261.535853021898
 21
6926.801508922174
 31
0.0
  0
LINE
  5
19972
330
747D
100
AcDbEntity
  8
寸法
 48
50.0
100
AcDbLine
 10
4235.832849066846
 20
6889.222057993563
 30
0.0
 11
4206.071517075423
 21
6889.222057993563
 31
0.0
  0
LINE
  5
19973
330
747D
100
AcDbEntity
  8
寸法
 48
50.0
100
AcDbLine
 10
4235.832849066846
 20
6857.911899341395
 30
0.0
 11
4235.832849066846
 21
6889.222057993563
 31
0.0
  0
LINE
  5
19974
330
747D
100
AcDbEntity
  8
寸法
 48
50.0
100
AcDbLine
 10
4287.23885697695
 20
6857.911899341395
 30
0.0
 11
4235.832849066846
 21
6857.911899341395
 31
0.0
  0
LINE
  5
199B4
330
747D
100
AcDbEntity
  8
細線
100
AcDbLine
 10
4512.776719621564
 20
7027.806258213195
 30
0.0
 11
4497.776719621565
 21
7027.806258213195
 31
0.0
  0
LINE
  5
199B5
330
747D
100
AcDbEntity
  8
細線
100
AcDbLine
 10
4512.776719621561
 20
7020.806258213196
 30
0.0
 11
4512.776719621564
 21
7027.806258213195
 31
0.0
  0
ARC
  5
199B6
330
747D
100
AcDbEntity
  8
細線
100
AcDbCircle
 10
4525.776719621571
 20
6997.10625821319
 30
0.0
 40
2.0
100
AcDbArc
 50
180.0
 51
270.0
  0
LINE
  5
199B7
330
747D
100
AcDbEntity
  8
細線
100
AcDbLine
 10
4523.776719621571
 20
6997.106258213195
 30
0.0
 11
4523.776719621571
 21
6997.806258213191
 31
0.0
  0
LINE
  5
199B8
330
747D
100
AcDbEntity
  8
細線
100
AcDbLine
 10
4525.776719621571
 20
6995.106258213194
 30
0.0
 11
4527.776719621572
 21
6995.106258213194
 31
0.0
  0
ARC
  5
199B9
330
747D
100
AcDbEntity
  8
細線
100
AcDbCircle
 10
4527.776719621572
 20
6997.10625821319
 30
0.0
 40
2.0
100
AcDbArc
 50
270.0
 51
0.0
  0
LINE
  5
199BA
330
747D
100
AcDbEntity
  8
細線
100
AcDbLine
 10
4529.776719621572
 20
6997.106258213195
 30
0.0
 11
4529.776719621572
 21
6997.806258213191
 31
0.0
  0
LINE
  5
199BB
330
747D
100
AcDbEntity
  8
細線
100
AcDbLine
 10
4523.776719621547
 20
6997.806258213191
 30
0.0
 11
4517.776719621546
 21
6997.806258213195
 31
0.0
  0
LINE
  5
199BC
330
747D
100
AcDbEntity
  8
細線
100
AcDbLine
 10
4523.776719621564
 20
6986.806258213279
 30
0.0
 11
4523.776719621568
 21
6993.806258213199
 31
0.0
  0
LINE
  5
199BD
330
747D
100
AcDbEntity
  8
細線
100
AcDbLine
 10
4538.776719621568
 20
6993.806258213202
 30
0.0
 11
4523.776719621568
 21
6993.806258213199
 31
0.0
  0
LINE
  5
199BE
330
747D
100
AcDbEntity
  8
細線
100
AcDbLine
 10
4538.776719621561
 20
6963.806258213202
 30
0.0
 11
4538.776719621572
 21
6993.806258213202
 31
0.0
  0
LINE
  5
199BF
330
747D
100
AcDbEntity
  8
細線
100
AcDbLine
 10
4497.776719621554
 20
6993.806258213187
 30
0.0
 11
4497.776719621565
 21
7027.806258213195
 31
0.0
  0
LINE
  5
199C0
330
747D
100
AcDbEntity
  8
細線
100
AcDbLine
 10
4517.776719621543
 20
6993.806258213187
 30
0.0
 11
4497.776719621554
 21
6993.806258213187
 31
0.0
  0
LINE
  5
199C1
330
747D
100
AcDbEntity
  8
細線
100
AcDbLine
 10
4517.776719621543
 20
6993.806258213187
 30
0.0
 11
4517.776719621546
 21
6997.806258213188
 31
0.0
  0
ARC
  5
199C2
330
747D
100
AcDbEntity
  8
細線
100
AcDbCircle
 10
4333.776726121469
 20
6989.30625821318
 30
0.0
 40
6.0
100
AcDbArc
 50
204.624318352316
 51
335.375681647684
  0
LINE
  5
199C3
330
747D
100
AcDbEntity
  8
細線
100
AcDbLine
 10
4228.776719621568
 20
6963.806258213202
 30
0.0
 11
4231.108257912335
 21
6968.806258213188
 31
0.0
  0
LINE
  5
199C4
330
747D
100
AcDbEntity
  8
細線
100
AcDbLine
 10
4298.776719621565
 20
6963.806258213184
 30
0.0
 11
4296.445181330796
 21
6968.806258213169
 31
0.0
  0
LINE
  5
199C5
330
747D
100
AcDbEntity
  8
細線
100
AcDbLine
 10
4296.445181330796
 20
6968.806258213169
 30
0.0
 11
4231.108257912325
 21
6968.80625821316
 31
0.0
  0
LINE
  5
199C6
330
747D
100
AcDbEntity
  8
細線
100
AcDbLine
 10
4368.776719621571
 20
6963.806258213221
 30
0.0
 11
4371.108257912339
 21
6968.806258213206
 31
0.0
  0
LINE
  5
199C7
330
747D
100
AcDbEntity
  8
細線
100
AcDbLine
 10
4368.776719621571
 20
6963.806258213177
 30
0.0
 11
4298.776719621572
 21
6963.806258213169
 31
0.0
  0
LINE
  5
199C8
330
747D
100
AcDbEntity
  8
細線
100
AcDbLine
 10
4436.445181330801
 20
6968.806258213188
 30
0.0
 11
4371.108257912324
 21
6968.806258213177
 31
0.0
  0
LINE
  5
199C9
330
747D
100
AcDbEntity
  8
細線
100
AcDbLine
 10
4438.776719621564
 20
6963.806258213202
 30
0.0
 11
4436.445181330797
 21
6968.806258213188
 31
0.0
  0
LINE
  5
199CA
330
747D
100
AcDbEntity
  8
細線
100
AcDbLine
 10
4363.776719621495
 20
6963.806258213279
 30
0.0
 11
4356.276719621499
 21
6986.80625821321
 31
0.0
  0
LINE
  5
199CB
330
747D
100
AcDbEntity
  8
細線
100
AcDbLine
 10
4303.776719621495
 20
6963.80625821329
 30
0.0
 11
4311.276719621502
 21
6986.80625821321
 31
0.0
  0
LINE
  5
199CC
330
747D
100
AcDbEntity
  8
細線
100
AcDbLine
 10
4538.776719621568
 20
6963.806258213202
 30
0.0
 11
4438.776719621561
 21
6963.806258213188
 31
0.0
  0
LINE
  5
199CD
330
747D
100
AcDbEntity
  8
細線
 48
50.0
100
AcDbLine
 10
4497.776719621561
 20
7010.806258213257
 30
0.0
 11
3970.476719621569
 21
7010.806258213169
 31
0.0
  0
LINE
  5
199CE
330
747D
100
AcDbEntity
  8
細線
100
AcDbLine
 10
4523.776719621564
 20
6986.806258213279
 30
0.0
 11
3985.476719621569
 21
6986.806258213198
 31
0.0
  0
ARC
  5
199CF
330
747D
100
AcDbEntity
  8
部品1
 48
0.01
100
AcDbCircle
 10
4130.976719621561
 20
6962.806258213224
 30
0.0
 40
0.5
100
AcDbArc
 50
270.0
 51
0.0
  0
LINE
  5
199D0
330
747D
100
AcDbEntity
  8
部品1
 48
0.01
100
AcDbLine
 10
4131.476719621562
 20
6963.806258213224
 30
0.0
 11
4131.476719621562
 21
6962.806258213224
 31
0.0
  0
LINE
  5
199D1
330
747D
100
AcDbEntity
  8
部品1
 48
0.01
100
AcDbLine
 10
4131.476719621562
 20
6963.806258213224
 30
0.0
 11
4131.476719621562
 21
6962.806258213224
 31
0.0
  0
LINE
  5
199D2
330
747D
100
AcDbEntity
  8
部品1
 48
0.01
100
AcDbLine
 10
4130.976719621561
 20
6962.306258213224
 30
0.0
 11
4124.3642141915
 21
6962.306258213224
 31
0.0
  0
ARC
  5
199D3
330
747D
100
AcDbEntity
  8
部品1
100
AcDbCircle
 10
4124.432563744277
 20
6963.306258213224
 30
0.0
 40
1.0
100
AcDbArc
 50
160.5287793655778
 51
270.0
  0
ARC
  5
199D4
330
747D
100
AcDbEntity
  8
部品1
100
AcDbCircle
 10
4098.976719621561
 20
6972.306258213224
 30
0.0
 40
26.0
100
AcDbArc
 50
340.5287793655779
 51
0.0
  0
LINE
  5
199D5
330
747D
100
AcDbEntity
  8
部品1
100
AcDbLine
 10
4124.976719621561
 20
6972.306258213224
 30
0.0
 11
4124.976719621561
 21
6977.306258213224
 31
0.0
  0
ARC
  5
199D6
330
747D
100
AcDbEntity
  8
部品1
 48
0.01
100
AcDbCircle
 10
4122.976719621561
 20
6977.306258213224
 30
0.0
 40
2.0
100
AcDbArc
 50
0.0
 51
90.0
  0
ARC
  5
199D7
330
747D
100
AcDbEntity
  8
部品1
100
AcDbCircle
 10
4121.368327996751
 20
6976.306258213225
 30
0.0
 40
3.0
100
AcDbArc
 50
90.0
 51
141.6069559808095
  0
LINE
  5
199D8
330
747D
100
AcDbEntity
  8
部品1
 48
0.01
100
AcDbLine
 10
4122.976719621561
 20
6979.306258213225
 30
0.0
 11
4121.368327996751
 21
6979.306258213225
 31
0.0
  0
ARC
  5
199D9
330
747D
100
AcDbEntity
  8
部品1
100
AcDbCircle
 10
4102.90600540729
 20
6975.606258213223
 30
0.0
 40
3.0
100
AcDbArc
 50
254.0576313943215
 51
270.0
  0
ARC
  5
199DA
330
747D
100
AcDbEntity
  8
部品1
100
AcDbCircle
 10
4110.047433835832
 20
6975.606258213223
 30
0.0
 40
3.0
100
AcDbArc
 50
270.0
 51
285.9423686056786
  0
LINE
  5
199DB
330
747D
100
AcDbEntity
  8
部品1
100
AcDbLine
 10
4110.047433835832
 20
6972.606258213224
 30
0.0
 11
4102.90600540729
 21
6972.606258213224
 31
0.0
  0
ARC
  5
199DC
330
747D
100
AcDbEntity
  8
部品1
100
AcDbCircle
 10
4106.476719621562
 20
6988.106258213223
 30
0.0
 40
16.0
100
AcDbArc
 50
285.9423686056786
 51
321.6069559808095
  0
LINE
  5
199DD
330
747D
100
AcDbEntity
  8
部品1
 48
0.01
100
AcDbLine
 10
4089.976719621562
 20
6979.306258213225
 30
0.0
 11
4091.585111246375
 21
6979.306258213225
 31
0.0
  0
ARC
  5
199DE
330
747D
100
AcDbEntity
  8
部品1
100
AcDbCircle
 10
4091.585111246375
 20
6976.306258213225
 30
0.0
 40
3.0
100
AcDbArc
 50
38.39304401919052
 51
90.0
  0
ARC
  5
199DF
330
747D
100
AcDbEntity
  8
部品1
100
AcDbCircle
 10
4106.476719621562
 20
6988.106258213223
 30
0.0
 40
16.0
100
AcDbArc
 50
218.3930440191905
 51
254.0576313943215
  0
LINE
  5
199E0
330
747D
100
AcDbEntity
  8
部品1
100
AcDbLine
 10
4087.976719621561
 20
6972.306258213224
 30
0.0
 11
4087.976719621561
 21
6977.306258213224
 31
0.0
  0
ARC
  5
199E1
330
747D
100
AcDbEntity
  8
部品1
 48
0.01
100
AcDbCircle
 10
4089.976719621562
 20
6977.306258213224
 30
0.0
 40
2.0
100
AcDbArc
 50
90.0
 51
180.0
  0
ARC
  5
199E2
330
747D
100
AcDbEntity
  8
部品1
100
AcDbCircle
 10
4113.976719621561
 20
6972.306258213224
 30
0.0
 40
26.0
100
AcDbArc
 50
180.0
 51
199.4712206344221
  0
ARC
  5
199E3
330
747D
100
AcDbEntity
  8
部品1
 48
0.01
100
AcDbCircle
 10
4081.976719621561
 20
6962.806258213224
 30
0.0
 40
0.5
100
AcDbArc
 50
180.0
 51
270.0
  0
LINE
  5
199E4
330
747D
100
AcDbEntity
  8
部品1
 48
0.01
100
AcDbLine
 10
4081.976719621561
 20
6962.306258213224
 30
0.0
 11
4088.520875498845
 21
6962.306258213224
 31
0.0
  0
LINE
  5
199E5
330
747D
100
AcDbEntity
  8
部品1
 48
0.01
100
AcDbLine
 10
4081.476719621561
 20
6963.806258213224
 30
0.0
 11
4081.476719621561
 21
6962.806258213224
 31
0.0
  0
ARC
  5
199E6
330
747D
100
AcDbEntity
  8
部品1
100
AcDbCircle
 10
4088.520875498845
 20
6963.306258213224
 30
0.0
 40
1.0
100
AcDbArc
 50
270.0
 51
19.47122063442214
  0
LINE
  5
199E7
330
747D
100
AcDbEntity
  8
細線
100
AcDbLine
 10
4126.976719621569
 20
6981.806258213224
 30
0.0
 11
4085.976719621569
 21
6981.806258213222
 31
0.0
  0
LINE
  5
199E8
330
747D
100
AcDbEntity
  8
細線
100
AcDbLine
 10
4085.976719621569
 20
6981.806258213222
 30
0.0
 11
4085.976719621569
 21
6963.806258213202
 31
0.0
  0
LINE
  5
199E9
330
747D
100
AcDbEntity
  8
細線
100
AcDbLine
 10
4126.976719621569
 20
6981.806258213224
 30
0.0
 11
4126.976719621569
 21
6963.806258213202
 31
0.0
  0
LINE
  5
199EA
330
747D
100
AcDbEntity
  8
細線
100
AcDbLine
 10
4228.776719621587
 20
6963.806258213239
 30
0.0
 11
3961.46441297252
 21
6963.8062582132
 31
0.0
  0
LINE
  5
199EB
330
747D
100
AcDbEntity
  8
細線
100
AcDbLine
 10
3970.476719621569
 20
6967.806258213151
 30
0.0
 11
3970.476719621569
 21
6963.806258213202
 31
0.0
  0
LINE
  5
199EC
330
747D
100
AcDbEntity
  8
細線
100
AcDbLine
 10
3985.476719621569
 20
6993.806258213199
 30
0.0
 11
3970.476719621569
 21
6993.806258213199
 31
0.0
  0
LINE
  5
199ED
330
747D
100
AcDbEntity
  8
細線
100
AcDbLine
 10
3985.476719621569
 20
6993.806258213199
 30
0.0
 11
3985.476719621569
 21
6986.806258213198
 31
0.0
  0
LINE
  5
199EE
330
747D
100
AcDbEntity
  8
細線
100
AcDbLine
 10
4694.595181330791
 20
7002.806258213216
 30
0.0
 11
4629.258257912319
 21
7002.806258213206
 31
0.0
  0
LINE
  5
199EF
330
747D
100
AcDbEntity
  8
細線
100
AcDbLine
 10
4626.926719621562
 20
6997.806258213249
 30
0.0
 11
4629.258257912329
 21
7002.806258213235
 31
0.0
  0
LINE
  5
199F0
330
747D
100
AcDbEntity
  8
細線
 48
50.0
100
AcDbLine
 10
5380.476719621572
 20
6976.806258213286
 30
0.0
 11
4971.789841067686
 21
6976.806258213284
 31
0.0
  0
LINE
  5
199F1
330
747D
100
AcDbEntity
  8
細線
100
AcDbLine
 10
4933.568655559945
 20
7020.806258213288
 30
0.0
 11
4512.776719621561
 21
7020.80625821329
 31
0.0
  0
LINE
  5
199F2
330
747D
100
AcDbEntity
  8
細線
100
AcDbLine
 10
4626.926719621565
 20
6997.806258213249
 30
0.0
 11
4529.776719621572
 21
6997.806258213191
 31
0.0
  0
ARC
  5
199F3
330
747D
100
AcDbEntity
  8
細線
100
AcDbCircle
 10
4731.926726121553
 20
7023.306258213235
 30
0.0
 40
6.0
100
AcDbArc
 50
204.624318352316
 51
335.375681647684
  0
LINE
  5
199F4
330
747D
100
AcDbEntity
  8
細線
100
AcDbLine
 10
4766.926719621558
 20
6997.806258213261
 30
0.0
 11
4696.926719621544
 21
6997.806258213261
 31
0.0
  0
LINE
  5
199F5
330
747D
100
AcDbEntity
  8
細線
100
AcDbLine
 10
4834.595181330791
 20
7002.806258213239
 30
0.0
 11
4769.258257912315
 21
7002.806258213228
 31
0.0
  0
LINE
  5
199F6
330
747D
100
AcDbEntity
  8
細線
100
AcDbLine
 10
4836.926719621558
 20
6997.806258213254
 30
0.0
 11
4834.595181330791
 21
7002.806258213239
 31
0.0
  0
LINE
  5
199F7
330
747D
100
AcDbEntity
  8
細線
100
AcDbLine
 10
4766.926719621562
 20
6997.806258213272
 30
0.0
 11
4769.25825791233
 21
7002.806258213258
 31
0.0
  0
LINE
  5
199F8
330
747D
100
AcDbEntity
  8
細線
100
AcDbLine
 10
4696.926719621559
 20
6997.806258213232
 30
0.0
 11
4694.595181330791
 21
7002.806258213216
 31
0.0
  0
LINE
  5
199F9
330
747D
100
AcDbEntity
  8
細線
100
AcDbLine
 10
4701.926719621588
 20
6997.806258213319
 30
0.0
 11
4709.426719621595
 21
7020.806258213238
 31
0.0
  0
LINE
  5
199FA
330
747D
100
AcDbEntity
  8
細線
100
AcDbLine
 10
4761.926719621587
 20
6997.806258213308
 30
0.0
 11
4754.426719621595
 21
7020.806258213238
 31
0.0
  0
LINE
  5
199FB
330
747D
100
AcDbEntity
  8
細線
100
AcDbLine
 10
4937.624176116238
 20
6997.806258213286
 30
0.0
 11
4836.926719621544
 21
6997.806258213286
 31
0.0
  0
LINE
  5
199FC
330
747D
100
AcDbEntity
  8
細線
100
AcDbLine
 10
5064.276719621564
 20
7033.806258213282
 30
0.0
 11
4961.739203167303
 21
7033.806258213288
 31
0.0
  0
LINE
  5
199FD
330
747D
100
AcDbEntity
  8
細線
100
AcDbLine
 10
5064.276719621569
 20
7033.806258213274
 30
0.0
 11
5066.375104083268
 21
7038.306258213282
 31
0.0
  0
LINE
  5
199FE
330
747D
100
AcDbEntity
  8
細線
100
AcDbLine
 10
4957.476719621565
 20
7060.412109276005
 30
0.0
 11
4957.047873780235
 21
7060.412109276005
 31
0.0
  0
LINE
  5
199FF
330
747D
100
AcDbEntity
  8
細線
100
AcDbLine
 10
4957.476719621565
 20
7057.980003652646
 30
0.0
 11
4957.476719621565
 21
7060.412109276005
 31
0.0
  0
LINE
  5
19A01
330
747D
100
AcDbEntity
  8
細線
100
AcDbLine
 10
4925.076719621568
 20
7025.806258213286
 30
0.0
 11
4925.076719621568
 21
7061.806258213282
 31
0.0
  0
LINE
  5
19A02
330
747D
100
AcDbEntity
  8
細線
100
AcDbLine
 10
4957.476719621787
 20
7061.806258213282
 30
0.0
 11
4956.802047707467
 21
7061.806258213282
 31
0.0
  0
LINE
  5
19A03
330
747D
100
AcDbEntity
  8
細線
100
AcDbLine
 10
4969.476719621565
 20
7035.512109276004
 30
0.0
 11
4961.438415599875
 21
7035.512109276003
 31
0.0
  0
LINE
  5
19A0B
330
747D
100
AcDbEntity
  8
細線
100
AcDbLine
 10
4966.076719621564
 20
7027.806258213286
 30
0.0
 11
4962.797165051554
 21
7027.806258213285
 31
0.0
  0
LINE
  5
19A0C
330
747D
100
AcDbEntity
  8
細線
100
AcDbLine
 10
4966.076719621567
 20
7009.206980003927
 30
0.0
 11
4966.076719621572
 21
7027.806258213286
 31
0.0
  0
LINE
  5
19A0D
330
747D
100
AcDbEntity
  8
細線
100
AcDbLine
 10
4932.687020656402
 20
7025.806258213286
 30
0.0
 11
4925.076719621568
 21
7025.806258213286
 31
0.0
  0
LINE
  5
19A0F
330
747D
100
AcDbEntity
  8
細線
 48
50.0
100
AcDbLine
 10
5380.476719621569
 20
7010.80625821329
 30
0.0
 11
4966.076719621567
 21
7010.80625821329
 31
0.0
  0
LINE
  5
19A10
330
747D
100
AcDbEntity
  8
細線
100
AcDbLine
 10
5204.276719621572
 20
7033.806258213253
 30
0.0
 11
5134.276719621561
 21
7033.806258213257
 31
0.0
  0
LINE
  5
19A11
330
747D
100
AcDbEntity
  8
細線
100
AcDbLine
 10
5134.276719621561
 20
7033.806258213257
 30
0.0
 11
5132.178335159853
 21
7038.306258213282
 31
0.0
  0
LINE
  5
19A12
330
747D
100
AcDbEntity
  8
細線
100
AcDbLine
 10
5204.276719621579
 20
7033.806258213265
 30
0.0
 11
5206.375104083283
 21
7038.306258213282
 31
0.0
  0
LINE
  5
19A13
330
747D
100
AcDbEntity
  8
細線
 48
50.0
100
AcDbLine
 10
5378.476719621573
 20
7015.806258213278
 30
0.0
 11
5380.476719621572
 21
7015.806258213278
 31
0.0
  0
LINE
  5
19A14
330
747D
100
AcDbEntity
  8
細線
100
AcDbLine
 10
5378.476719621573
 20
7015.806258213278
 30
0.0
 11
5378.476719621573
 21
7033.806258213279
 31
0.0
  0
LINE
  5
19A15
330
747D
100
AcDbEntity
  8
細線
100
AcDbLine
 10
5274.276719621571
 20
7033.806258213246
 30
0.0
 11
5272.178335159861
 21
7038.306258213282
 31
0.0
  0
LINE
  5
19A16
330
747D
100
AcDbEntity
  8
細線
100
AcDbLine
 10
5378.476719621573
 20
7033.806258213282
 30
0.0
 11
5274.276719621553
 21
7033.806258213286
 31
0.0
  0
LINE
  5
19A17
330
747D
100
AcDbEntity
  8
細線
 48
50.0
100
AcDbLine
 10
4941.327042711117
 20
6976.806258213284
 30
0.0
 11
4538.776719621565
 21
6976.806258213283
 31
0.0
  0
LINE
  5
19A18
330
747D
100
AcDbEntity
  8
細線
100
AcDbLine
 10
4926.339249350897
 20
7061.806258213282
 30
0.0
 11
4925.076719621568
 21
7061.806258213282
 31
0.0
  0
LINE
  5
19A19
330
747D
100
AcDbEntity
  8
細線
100
AcDbLine
 10
4926.585075423664
 20
7060.412109276004
 30
0.0
 11
4926.290668204827
 21
7060.412109276005
 31
0.0
  0
MTEXT
  5
19B6C
330
747D
100
AcDbEntity
  8
寸法
 62
     7
 48
50.0
100
AcDbMText
 10
5020.694579359064
 20
8939.204746627664
 30
0.0
 40
96.0
 41
0.0
 71
     5
 72
     1
  1
棚 2段
  7
STYLE1
 11
0.0000000000000001
 21
1.0
 31
0.0
 73
     1
 44
1.0
1001
ACAD
1000
MTEXTBEGIN
1070
    73
1070
     1
1070
    44
1040
1.0
1070
    74
1070
     0
1000
MTEXTEND
  0
MTEXT
  5
19B6D
330
747D
100
AcDbEntity
  8
寸法
 62
     7
 48
50.0
100
AcDbMText
 10
5021.869341163668
 20
7663.129214081867
 30
0.0
 40
96.0
 41
0.0
 71
     5
 72
     1
  1
棚 2段
  7
STYLE1
 11
0.0000000000000001
 21
1.0
 31
0.0
 73
     1
 44
1.0
1001
ACAD
1000
MTEXTBEGIN
1070
    73
1070
     1
1070
    44
1040
1.0
1070
    74
1070
     0
1000
MTEXTEND
  0
MTEXT
  5
19B6E
330
747D
100
AcDbEntity
  8
寸法
 62
     7
 48
50.0
100
AcDbMText
 10
6550.694579359064
 20
8939.204746627664
 30
0.0
 40
96.0
 41
0.0
 71
     5
 72
     1
  1
棚 2段
  7
STYLE1
 11
0.0000000000000001
 21
1.0
 31
0.0
 73
     1
 44
1.0
1001
ACAD
1000
MTEXTBEGIN
1070
    73
1070
     1
1070
    44
1040
1.0
1070
    74
1070
     0
1000
MTEXTEND
  0
MTEXT
  5
19B6F
330
747D
100
AcDbEntity
  8
寸法
 62
     7
 48
50.0
100
AcDbMText
 10
6551.869341163669
 20
7663.129214081867
 30
0.0
 40
96.0
 41
0.0
 71
     5
 72
     1
  1
棚 2段
  7
STYLE1
 11
0.0000000000000001
 21
1.0
 31
0.0
 73
     1
 44
1.0
1001
ACAD
1000
MTEXTBEGIN
1070
    73
1070
     1
1070
    44
1040
1.0
1070
    74
1070
     0
1000
MTEXTEND
  0
MTEXT
  5
19B70
330
747D
100
AcDbEntity
  8
寸法
 62
     7
 48
50.0
100
AcDbMText
 10
8080.694579359063
 20
8939.204746627664
 30
0.0
 40
96.0
 41
0.0
 71
     5
 72
     1
  1
棚 2段
  7
STYLE1
 11
0.0000000000000001
 21
1.0
 31
0.0
 73
     1
 44
1.0
1001
ACAD
1000
MTEXTBEGIN
1070
    73
1070
     1
1070
    44
1040
1.0
1070
    74
1070
     0
1000
MTEXTEND
  0
MTEXT
  5
19B71
330
747D
100
AcDbEntity
  8
寸法
 62
     7
 48
50.0
100
AcDbMText
 10
8081.869341163667
 20
7663.129214081867
 30
0.0
 40
96.0
 41
0.0
 71
     5
 72
     1
  1
棚 2段
  7
STYLE1
 11
0.0000000000000001
 21
1.0
 31
0.0
 73
     1
 44
1.0
1001
ACAD
1000
MTEXTBEGIN
1070
    73
1070
     1
1070
    44
1040
1.0
1070
    74
1070
     0
1000
MTEXTEND
  0
LWPOLYLINE
  5
19BCF
330
747D
100
AcDbEntity
  8
部品1
 48
50.0
100
AcDbPolyline
 90
        4
 70
     1
 43
0.0
 10
4030.526719621579
 20
3378.241108379636
 10
4033.42671962158
 20
3378.241108379636
 10
4033.42671962158
 20
3387.741108379636
 10
4030.526719621579
 20
3387.741108379636
  0
CIRCLE
  5
19BD0
330
747D
100
AcDbEntity
  8
部品1
 48
50.0
100
AcDbCircle
 10
4031.97671962158
 20
3382.991108379636
 30
0.0
 40
9.0
  0
ARC
  5
19BD1
330
747D
100
AcDbEntity
  8
細線
 48
50.0
100
AcDbCircle
 10
4031.97671962158
 20
3382.991108379636
 30
0.0
 40
4.0
100
AcDbArc
 50
111.2538091853375
 51
248.7461908146625
  0
ARC
  5
19BD2
330
747D
100
AcDbEntity
  8
細線
 48
50.0
100
AcDbCircle
 10
4031.97671962158
 20
3382.991108379636
 30
0.0
 40
17.5
100
AcDbArc
 50
306.4837370612677
 51
233.5162629387323
  0
LINE
  5
19BD3
330
747D
100
AcDbEntity
  8
細線
 48
50.0
100
AcDbLine
 10
4041.976719621576
 20
3359.132147798753
 30
0.0
 11
4041.97671962158
 21
3368.116633598995
 31
0.0
  0
LINE
  5
19BD4
330
747D
100
AcDbEntity
  8
細線
 48
50.0
100
AcDbLine
 10
4021.976719621579
 20
3359.132147798755
 30
0.0
 11
4021.976719621579
 21
3368.116633598992
 31
0.0
  0
ARC
  5
19BD5
330
747D
100
AcDbEntity
  8
細線
 48
50.0
100
AcDbCircle
 10
4031.97671962158
 20
3382.991108379636
 30
0.0
 40
26.5
100
AcDbArc
 50
249.3326835063939
 51
290.6673164933835
  0
ARC
  5
19BD6
330
747D
100
AcDbEntity
  8
細線
 48
50.0
100
AcDbCircle
 10
4040.976719621572
 20
3359.132147798753
 30
0.0
 40
1.0
100
AcDbArc
 50
290.6673164936062
 51
359.9999999998958
  0
ARC
  5
19BD7
330
747D
100
AcDbEntity
  8
細線
 48
50.0
100
AcDbCircle
 10
4022.976719621579
 20
3359.132147798755
 30
0.0
 40
1.0
100
AcDbArc
 50
180.0
 51
249.3326835066164
  0
ARC
  5
19BD8
330
747D
100
AcDbEntity
  8
細線
 48
50.0
100
AcDbCircle
 10
4020.97671962158
 20
3368.116633598992
 30
0.0
 40
1.0
100
AcDbArc
 50
0.0
 51
53.51626293873231
  0
ARC
  5
19BD9
330
747D
100
AcDbEntity
  8
細線
 48
50.0
100
AcDbCircle
 10
4042.976719621584
 20
3368.116633598995
 30
0.0
 40
1.0
100
AcDbArc
 50
126.4837370614917
 51
180.0
  0
ARC
  5
19BDA
330
747D
100
AcDbEntity
  8
細線
 48
50.0
100
AcDbCircle
 10
4031.97671962158
 20
3382.991108379636
 30
0.0
 40
21.5
100
AcDbArc
 50
255.8014401250294
 51
284.1985598749706
  0
ARC
  5
19BDB
330
747D
100
AcDbEntity
  8
細線
 48
50.0
100
AcDbCircle
 10
4031.97671962158
 20
3382.991108379636
 30
0.0
 40
16.5
100
AcDbArc
 50
251.9694646069326
 51
288.0305353930674
  0
LINE
  5
19BDC
330
747D
100
AcDbEntity
  8
細線
 48
50.0
100
AcDbLine
 10
4037.476719621579
 20
3362.438736253829
 30
0.0
 11
4037.476719621579
 21
3367.016127941166
 31
0.0
  0
LINE
  5
19BDD
330
747D
100
AcDbEntity
  8
細線
 48
50.0
100
AcDbLine
 10
4026.476719621579
 20
3362.438736253829
 30
0.0
 11
4026.476719621579
 21
3367.016127941165
 31
0.0
  0
ARC
  5
19BDE
330
747D
100
AcDbEntity
  8
細線
 48
50.0
100
AcDbCircle
 10
4026.776719621582
 20
3367.016127941165
 30
0.0
 40
0.3
100
AcDbArc
 50
71.96946460693259
 51
180.0
  0
ARC
  5
19BDF
330
747D
100
AcDbEntity
  8
細線
 48
50.0
100
AcDbCircle
 10
4037.17671962158
 20
3367.016127941166
 30
0.0
 40
0.3
100
AcDbArc
 50
0.0
 51
108.0305353930674
  0
ARC
  5
19BE0
330
747D
100
AcDbEntity
  8
細線
 48
50.0
100
AcDbCircle
 10
4037.176719621577
 20
3362.438736253829
 30
0.0
 40
0.3
100
AcDbArc
 50
284.1985598747622
 51
0.0000000001042204
  0
ARC
  5
19BE1
330
747D
100
AcDbEntity
  8
細線
 48
50.0
100
AcDbCircle
 10
4026.776719621582
 20
3362.438736253829
 30
0.0
 40
0.3
100
AcDbArc
 50
180.0
 51
255.8014401248081
  0
CIRCLE
  5
19BE2
330
747D
100
AcDbEntity
  8
細線
 48
50.0
100
AcDbCircle
 10
4031.97671962158
 20
3382.991108379636
 30
0.0
 40
12.0
  0
ARC
  5
19BE3
330
747D
100
AcDbEntity
  8
部品1
 48
50.0
100
AcDbCircle
 10
4031.97671962158
 20
3432.991108379636
 30
0.0
 40
8.5
100
AcDbArc
 50
114.315739171091
 51
245.684260828909
  0
CIRCLE
  5
19BE4
330
747D
100
AcDbEntity
  8
細線
 48
50.0
100
AcDbCircle
 10
4031.97671962158
 20
3432.991108379636
 30
0.0
 40
4.5
  0
LWPOLYLINE
  5
19BE5
330
747D
100
AcDbEntity
  8
部品1
 48
50.0
100
AcDbPolyline
 90
        2
 70
     0
 43
0.0
 10
4028.476719621579
 20
3451.665957776619
 10
4028.476719621579
 20
3440.737075072051
  0
CIRCLE
  5
19BE6
330
747D
100
AcDbEntity
  8
部品1
 48
50.0
100
AcDbCircle
 10
4031.97671962158
 20
3432.991108379636
 30
0.0
 40
19.0
  0
LWPOLYLINE
  5
19BE7
330
747D
100
AcDbEntity
  8
部品1
 48
50.0
100
AcDbPolyline
 90
        2
 70
     0
 43
0.0
 10
4028.476719621579
 20
3425.245141687221
 10
4028.476719621579
 20
3414.316258982654
  0
LWPOLYLINE
  5
19BE8
330
747D
100
AcDbEntity
  8
部品1
 48
50.0
100
AcDbPolyline
 90
        2
 70
     0
 43
0.0
 10
4035.47671962158
 20
3440.737075072051
 10
4035.47671962158
 20
3451.665957776619
  0
ARC
  5
19BE9
330
747D
100
AcDbEntity
  8
部品1
 48
50.0
100
AcDbCircle
 10
4031.97671962158
 20
3432.991108379636
 30
0.0
 40
8.5
100
AcDbArc
 50
294.315739171091
 51
65.68426082890896
  0
LWPOLYLINE
  5
19BEA
330
747D
100
AcDbEntity
  8
部品1
 48
50.0
100
AcDbPolyline
 90
        2
 70
     0
 43
0.0
 10
4035.47671962158
 20
3414.316258982654
 10
4035.47671962158
 20
3425.245141687221
  0
ARC
  5
19BEB
330
747D
100
AcDbEntity
  8
細線
 48
50.0
100
AcDbCircle
 10
4031.97671962158
 20
3432.991108379636
 30
0.0
 40
16.5
100
AcDbArc
 50
332.0012352654316
 51
27.99876473456844
  0
ARC
  5
19BEC
330
747D
100
AcDbEntity
  8
細線
 48
50.0
100
AcDbCircle
 10
4031.97671962158
 20
3432.991108379636
 30
0.0
 40
14.0
100
AcDbArc
 50
326.4074436112843
 51
33.59255638871576
  0
LINE
  5
19BED
330
747D
100
AcDbEntity
  8
細線
 48
50.0
100
AcDbLine
 10
4017.407917337248
 20
3440.737075072051
 30
0.0
 11
4020.31481583189
 21
3440.737075072051
 31
0.0
  0
LINE
  5
19BEE
330
747D
100
AcDbEntity
  8
細線
 48
50.0
100
AcDbLine
 10
4017.407917337248
 20
3425.245141687221
 30
0.0
 11
4020.31481583189
 21
3425.245141687221
 31
0.0
  0
LINE
  5
19BEF
330
747D
100
AcDbEntity
  8
細線
 48
50.0
100
AcDbLine
 10
4043.638623411268
 20
3440.737075072051
 30
0.0
 11
4046.545521905914
 21
3440.737075072051
 31
0.0
  0
LINE
  5
19BF0
330
747D
100
AcDbEntity
  8
細線
 48
50.0
100
AcDbLine
 10
4043.638623411268
 20
3425.245141687221
 30
0.0
 11
4046.545521905914
 21
3425.245141687221
 31
0.0
  0
ARC
  5
19BF1
330
747D
100
AcDbEntity
  8
細線
 48
50.0
100
AcDbCircle
 10
4031.97671962158
 20
3432.991108379636
 30
0.0
 40
14.0
100
AcDbArc
 50
146.4074436112842
 51
213.5925563887158
  0
ARC
  5
19BF2
330
747D
100
AcDbEntity
  8
細線
 48
50.0
100
AcDbCircle
 10
4031.97671962158
 20
3432.991108379636
 30
0.0
 40
16.5
100
AcDbArc
 50
152.0012352654315
 51
207.9987647345685
  0
ARC
  5
19BF3
330
747D
100
AcDbEntity
  8
部品1
 48
50.0
100
AcDbCircle
 10
4005.476719621579
 20
3458.491108379636
 30
0.0
 40
5.0
100
AcDbArc
 50
90.0
 51
180.0
  0
ARC
  5
19BF4
330
747D
100
AcDbEntity
  8
部品1
 48
50.0
100
AcDbCircle
 10
4005.476719621579
 20
3347.491108379636
 30
0.0
 40
5.0
100
AcDbArc
 50
180.0
 51
270.0
  0
ARC
  5
19BF5
330
747D
100
AcDbEntity
  8
部品1
 48
50.0
100
AcDbCircle
 10
4058.476719621579
 20
3347.491108379636
 30
0.0
 40
5.0
100
AcDbArc
 50
270.0
 51
0.0
  0
ARC
  5
19BF6
330
747D
100
AcDbEntity
  8
部品1
 48
50.0
100
AcDbCircle
 10
4058.476719621579
 20
3458.491108379636
 30
0.0
 40
5.0
100
AcDbArc
 50
0.0
 51
90.0
  0
LINE
  5
19BF7
330
747D
100
AcDbEntity
  8
部品1
 48
50.0
100
AcDbLine
 10
4000.47671962158
 20
3347.491108379636
 30
0.0
 11
4000.47671962158
 21
3458.491108379636
 31
0.0
  0
LINE
  5
19BF8
330
747D
100
AcDbEntity
  8
部品1
 48
50.0
100
AcDbLine
 10
4058.476719621579
 20
3342.491108379636
 30
0.0
 11
4005.476719621579
 21
3342.491108379636
 31
0.0
  0
LINE
  5
19BF9
330
747D
100
AcDbEntity
  8
部品1
 48
50.0
100
AcDbLine
 10
4063.476719621579
 20
3458.491108379636
 30
0.0
 11
4063.476719621579
 21
3347.491108379636
 31
0.0
  0
LWPOLYLINE
  5
19C29
330
747D
100
AcDbEntity
  8
部品1
 48
50.0
100
AcDbPolyline
 90
        4
 70
     1
 43
0.0
 10
5560.526719621579
 20
3378.241108379636
 10
5563.426719621581
 20
3378.241108379636
 10
5563.426719621581
 20
3387.741108379636
 10
5560.526719621579
 20
3387.741108379636
  0
CIRCLE
  5
19C2A
330
747D
100
AcDbEntity
  8
部品1
 48
50.0
100
AcDbCircle
 10
5561.976719621579
 20
3382.991108379636
 30
0.0
 40
9.0
  0
ARC
  5
19C2B
330
747D
100
AcDbEntity
  8
細線
 48
50.0
100
AcDbCircle
 10
5561.976719621579
 20
3382.991108379636
 30
0.0
 40
4.0
100
AcDbArc
 50
111.2538091853132
 51
248.7461908146868
  0
ARC
  5
19C2C
330
747D
100
AcDbEntity
  8
細線
 48
50.0
100
AcDbCircle
 10
5561.976719621579
 20
3382.991108379636
 30
0.0
 40
17.5
100
AcDbArc
 50
306.4837370612677
 51
233.5162629387323
  0
LINE
  5
19C2D
330
747D
100
AcDbEntity
  8
細線
 48
50.0
100
AcDbLine
 10
5571.976719621576
 20
3359.132147798753
 30
0.0
 11
5571.97671962158
 21
3368.116633598995
 31
0.0
  0
LINE
  5
19C2E
330
747D
100
AcDbEntity
  8
細線
 48
50.0
100
AcDbLine
 10
5551.97671962158
 20
3359.132147798755
 30
0.0
 11
5551.97671962158
 21
3368.116633598992
 31
0.0
  0
ARC
  5
19C2F
330
747D
100
AcDbEntity
  8
細線
 48
50.0
100
AcDbCircle
 10
5561.976719621579
 20
3382.991108379636
 30
0.0
 40
26.5
100
AcDbArc
 50
249.3326835063939
 51
290.6673164933835
  0
ARC
  5
19C30
330
747D
100
AcDbEntity
  8
細線
 48
50.0
100
AcDbCircle
 10
5570.976719621572
 20
3359.132147798753
 30
0.0
 40
1.0
100
AcDbArc
 50
290.6673164936062
 51
359.9999999998958
  0
ARC
  5
19C31
330
747D
100
AcDbEntity
  8
細線
 48
50.0
100
AcDbCircle
 10
5552.97671962158
 20
3359.132147798755
 30
0.0
 40
1.0
100
AcDbArc
 50
180.0
 51
249.3326835066164
  0
ARC
  5
19C32
330
747D
100
AcDbEntity
  8
細線
 48
50.0
100
AcDbCircle
 10
5550.97671962158
 20
3368.116633598992
 30
0.0
 40
1.0
100
AcDbArc
 50
0.0
 51
53.51626293873231
  0
ARC
  5
19C33
330
747D
100
AcDbEntity
  8
細線
 48
50.0
100
AcDbCircle
 10
5572.976719621584
 20
3368.116633598995
 30
0.0
 40
1.0
100
AcDbArc
 50
126.4837370615127
 51
180.0
  0
ARC
  5
19C34
330
747D
100
AcDbEntity
  8
細線
 48
50.0
100
AcDbCircle
 10
5561.976719621579
 20
3382.991108379636
 30
0.0
 40
21.5
100
AcDbArc
 50
255.8014401250294
 51
284.1985598749706
  0
ARC
  5
19C35
330
747D
100
AcDbEntity
  8
細線
 48
50.0
100
AcDbCircle
 10
5561.976719621579
 20
3382.991108379636
 30
0.0
 40
16.5
100
AcDbArc
 50
251.9694646069326
 51
288.0305353930674
  0
LINE
  5
19C36
330
747D
100
AcDbEntity
  8
細線
 48
50.0
100
AcDbLine
 10
5567.47671962158
 20
3362.438736253829
 30
0.0
 11
5567.47671962158
 21
3367.016127941166
 31
0.0
  0
LINE
  5
19C37
330
747D
100
AcDbEntity
  8
細線
 48
50.0
100
AcDbLine
 10
5556.47671962158
 20
3362.438736253829
 30
0.0
 11
5556.47671962158
 21
3367.016127941165
 31
0.0
  0
ARC
  5
19C38
330
747D
100
AcDbEntity
  8
細線
 48
50.0
100
AcDbCircle
 10
5556.776719621582
 20
3367.016127941165
 30
0.0
 40
0.3
100
AcDbArc
 50
71.96946460693259
 51
180.0
  0
ARC
  5
19C39
330
747D
100
AcDbEntity
  8
細線
 48
50.0
100
AcDbCircle
 10
5567.17671962158
 20
3367.016127941166
 30
0.0
 40
0.3
100
AcDbArc
 50
0.0
 51
108.0305353930674
  0
ARC
  5
19C3A
330
747D
100
AcDbEntity
  8
細線
 48
50.0
100
AcDbCircle
 10
5567.176719621577
 20
3362.438736253829
 30
0.0
 40
0.3
100
AcDbArc
 50
284.1985598747622
 51
0.0000000001042204
  0
ARC
  5
19C3B
330
747D
100
AcDbEntity
  8
細線
 48
50.0
100
AcDbCircle
 10
5556.776719621582
 20
3362.438736253829
 30
0.0
 40
0.3
100
AcDbArc
 50
180.0
 51
255.8014401248081
  0
CIRCLE
  5
19C3C
330
747D
100
AcDbEntity
  8
細線
 48
50.0
100
AcDbCircle
 10
5561.976719621579
 20
3382.991108379636
 30
0.0
 40
12.0
  0
ARC
  5
19C3D
330
747D
100
AcDbEntity
  8
部品1
 48
50.0
100
AcDbCircle
 10
5561.976719621579
 20
3432.991108379636
 30
0.0
 40
8.5
100
AcDbArc
 50
114.315739171091
 51
245.684260828909
  0
CIRCLE
  5
19C3E
330
747D
100
AcDbEntity
  8
細線
 48
50.0
100
AcDbCircle
 10
5561.976719621579
 20
3432.991108379636
 30
0.0
 40
4.5
  0
LWPOLYLINE
  5
19C3F
330
747D
100
AcDbEntity
  8
部品1
 48
50.0
100
AcDbPolyline
 90
        2
 70
     0
 43
0.0
 10
5558.47671962158
 20
3451.665957776619
 10
5558.47671962158
 20
3440.737075072051
  0
CIRCLE
  5
19C40
330
747D
100
AcDbEntity
  8
部品1
 48
50.0
100
AcDbCircle
 10
5561.976719621579
 20
3432.991108379636
 30
0.0
 40
19.0
  0
LWPOLYLINE
  5
19C41
330
747D
100
AcDbEntity
  8
部品1
 48
50.0
100
AcDbPolyline
 90
        2
 70
     0
 43
0.0
 10
5558.47671962158
 20
3425.245141687221
 10
5558.47671962158
 20
3414.316258982654
  0
LWPOLYLINE
  5
19C42
330
747D
100
AcDbEntity
  8
部品1
 48
50.0
100
AcDbPolyline
 90
        2
 70
     0
 43
0.0
 10
5565.47671962158
 20
3440.737075072051
 10
5565.47671962158
 20
3451.665957776619
  0
ARC
  5
19C43
330
747D
100
AcDbEntity
  8
部品1
 48
50.0
100
AcDbCircle
 10
5561.976719621579
 20
3432.991108379636
 30
0.0
 40
8.5
100
AcDbArc
 50
294.315739171091
 51
65.68426082890896
  0
LWPOLYLINE
  5
19C44
330
747D
100
AcDbEntity
  8
部品1
 48
50.0
100
AcDbPolyline
 90
        2
 70
     0
 43
0.0
 10
5565.47671962158
 20
3414.316258982654
 10
5565.47671962158
 20
3425.245141687221
  0
ARC
  5
19C45
330
747D
100
AcDbEntity
  8
細線
 48
50.0
100
AcDbCircle
 10
5561.976719621579
 20
3432.991108379636
 30
0.0
 40
16.5
100
AcDbArc
 50
332.0012352654438
 51
27.99876473455621
  0
ARC
  5
19C46
330
747D
100
AcDbEntity
  8
細線
 48
50.0
100
AcDbCircle
 10
5561.976719621579
 20
3432.991108379636
 30
0.0
 40
14.0
100
AcDbArc
 50
326.4074436112986
 51
33.59255638870134
  0
LINE
  5
19C47
330
747D
100
AcDbEntity
  8
細線
 48
50.0
100
AcDbLine
 10
5547.407917337249
 20
3440.737075072051
 30
0.0
 11
5550.314815831891
 21
3440.737075072051
 31
0.0
  0
LINE
  5
19C48
330
747D
100
AcDbEntity
  8
細線
 48
50.0
100
AcDbLine
 10
5547.407917337249
 20
3425.245141687221
 30
0.0
 11
5550.314815831891
 21
3425.245141687221
 31
0.0
  0
LINE
  5
19C49
330
747D
100
AcDbEntity
  8
細線
 48
50.0
100
AcDbLine
 10
5573.638623411269
 20
3440.737075072051
 30
0.0
 11
5576.545521905915
 21
3440.737075072051
 31
0.0
  0
LINE
  5
19C4A
330
747D
100
AcDbEntity
  8
細線
 48
50.0
100
AcDbLine
 10
5573.638623411269
 20
3425.245141687221
 30
0.0
 11
5576.545521905915
 21
3425.245141687221
 31
0.0
  0
ARC
  5
19C4B
330
747D
100
AcDbEntity
  8
細線
 48
50.0
100
AcDbCircle
 10
5561.976719621579
 20
3432.991108379636
 30
0.0
 40
14.0
100
AcDbArc
 50
146.4074436112986
 51
213.5925563887013
  0
ARC
  5
19C4C
330
747D
100
AcDbEntity
  8
細線
 48
50.0
100
AcDbCircle
 10
5561.976719621579
 20
3432.991108379636
 30
0.0
 40
16.5
100
AcDbArc
 50
152.0012352654438
 51
207.9987647345562
  0
ARC
  5
19C4D
330
747D
100
AcDbEntity
  8
部品1
 48
50.0
100
AcDbCircle
 10
5535.47671962158
 20
3458.491108379636
 30
0.0
 40
5.0
100
AcDbArc
 50
90.0
 51
180.0
  0
ARC
  5
19C4E
330
747D
100
AcDbEntity
  8
部品1
 48
50.0
100
AcDbCircle
 10
5535.47671962158
 20
3347.491108379636
 30
0.0
 40
5.0
100
AcDbArc
 50
180.0
 51
270.0
  0
ARC
  5
19C4F
330
747D
100
AcDbEntity
  8
部品1
 48
50.0
100
AcDbCircle
 10
5588.47671962158
 20
3347.491108379636
 30
0.0
 40
5.0
100
AcDbArc
 50
270.0
 51
0.0
  0
ARC
  5
19C50
330
747D
100
AcDbEntity
  8
部品1
 48
50.0
100
AcDbCircle
 10
5588.47671962158
 20
3458.491108379636
 30
0.0
 40
5.0
100
AcDbArc
 50
0.0
 51
90.0
  0
LINE
  5
19C51
330
747D
100
AcDbEntity
  8
部品1
 48
50.0
100
AcDbLine
 10
5530.47671962158
 20
3347.491108379636
 30
0.0
 11
5530.47671962158
 21
3458.491108379636
 31
0.0
  0
LINE
  5
19C52
330
747D
100
AcDbEntity
  8
部品1
 48
50.0
100
AcDbLine
 10
5588.47671962158
 20
3342.491108379636
 30
0.0
 11
5535.47671962158
 21
3342.491108379636
 31
0.0
  0
LINE
  5
19C53
330
747D
100
AcDbEntity
  8
部品1
 48
50.0
100
AcDbLine
 10
5593.47671962158
 20
3458.491108379636
 30
0.0
 11
5593.47671962158
 21
3347.491108379636
 31
0.0
  0
LWPOLYLINE
  5
19C83
330
747D
100
AcDbEntity
  8
部品1
 48
50.0
100
AcDbPolyline
 90
        4
 70
     1
 43
0.0
 10
7090.526719621578
 20
3378.241108379636
 10
7093.426719621581
 20
3378.241108379636
 10
7093.426719621581
 20
3387.741108379636
 10
7090.526719621578
 20
3387.741108379636
  0
CIRCLE
  5
19C84
330
747D
100
AcDbEntity
  8
部品1
 48
50.0
100
AcDbCircle
 10
7091.97671962158
 20
3382.991108379636
 30
0.0
 40
9.0
  0
ARC
  5
19C85
330
747D
100
AcDbEntity
  8
細線
 48
50.0
100
AcDbCircle
 10
7091.97671962158
 20
3382.991108379636
 30
0.0
 40
4.0
100
AcDbArc
 50
111.2538091853132
 51
248.7461908146868
  0
ARC
  5
19C86
330
747D
100
AcDbEntity
  8
細線
 48
50.0
100
AcDbCircle
 10
7091.97671962158
 20
3382.991108379636
 30
0.0
 40
17.5
100
AcDbArc
 50
306.4837370612677
 51
233.5162629387323
  0
LINE
  5
19C87
330
747D
100
AcDbEntity
  8
細線
 48
50.0
100
AcDbLine
 10
7101.976719621577
 20
3359.132147798753
 30
0.0
 11
7101.976719621579
 21
3368.116633598995
 31
0.0
  0
LINE
  5
19C88
330
747D
100
AcDbEntity
  8
細線
 48
50.0
100
AcDbLine
 10
7081.976719621581
 20
3359.132147798755
 30
0.0
 11
7081.976719621581
 21
3368.116633598992
 31
0.0
  0
ARC
  5
19C89
330
747D
100
AcDbEntity
  8
細線
 48
50.0
100
AcDbCircle
 10
7091.97671962158
 20
3382.991108379636
 30
0.0
 40
26.5
100
AcDbArc
 50
249.3326835063939
 51
290.6673164933835
  0
ARC
  5
19C8A
330
747D
100
AcDbEntity
  8
細線
 48
50.0
100
AcDbCircle
 10
7100.976719621574
 20
3359.132147798753
 30
0.0
 40
1.0
100
AcDbArc
 50
290.6673164936062
 51
359.9999999998958
  0
ARC
  5
19C8B
330
747D
100
AcDbEntity
  8
細線
 48
50.0
100
AcDbCircle
 10
7082.97671962158
 20
3359.132147798755
 30
0.0
 40
1.0
100
AcDbArc
 50
180.0
 51
249.3326835066164
  0
ARC
  5
19C8C
330
747D
100
AcDbEntity
  8
細線
 48
50.0
100
AcDbCircle
 10
7080.97671962158
 20
3368.116633598992
 30
0.0
 40
1.0
100
AcDbArc
 50
0.0
 51
53.51626293873231
  0
ARC
  5
19C8D
330
747D
100
AcDbEntity
  8
細線
 48
50.0
100
AcDbCircle
 10
7102.976719621584
 20
3368.116633598995
 30
0.0
 40
1.0
100
AcDbArc
 50
126.4837370615127
 51
180.0
  0
ARC
  5
19C8E
330
747D
100
AcDbEntity
  8
細線
 48
50.0
100
AcDbCircle
 10
7091.97671962158
 20
3382.991108379636
 30
0.0
 40
21.5
100
AcDbArc
 50
255.8014401250294
 51
284.1985598749706
  0
ARC
  5
19C8F
330
747D
100
AcDbEntity
  8
細線
 48
50.0
100
AcDbCircle
 10
7091.97671962158
 20
3382.991108379636
 30
0.0
 40
16.5
100
AcDbArc
 50
251.9694646069326
 51
288.0305353930674
  0
LINE
  5
19C90
330
747D
100
AcDbEntity
  8
細線
 48
50.0
100
AcDbLine
 10
7097.476719621579
 20
3362.438736253829
 30
0.0
 11
7097.476719621579
 21
3367.016127941166
 31
0.0
  0
LINE
  5
19C91
330
747D
100
AcDbEntity
  8
細線
 48
50.0
100
AcDbLine
 10
7086.476719621579
 20
3362.438736253829
 30
0.0
 11
7086.476719621579
 21
3367.016127941165
 31
0.0
  0
ARC
  5
19C92
330
747D
100
AcDbEntity
  8
細線
 48
50.0
100
AcDbCircle
 10
7086.776719621582
 20
3367.016127941165
 30
0.0
 40
0.3
100
AcDbArc
 50
71.96946460693259
 51
180.0
  0
ARC
  5
19C93
330
747D
100
AcDbEntity
  8
細線
 48
50.0
100
AcDbCircle
 10
7097.176719621581
 20
3367.016127941166
 30
0.0
 40
0.3
100
AcDbArc
 50
0.0
 51
108.0305353930674
  0
ARC
  5
19C94
330
747D
100
AcDbEntity
  8
細線
 48
50.0
100
AcDbCircle
 10
7097.176719621576
 20
3362.438736253829
 30
0.0
 40
0.3
100
AcDbArc
 50
284.1985598747622
 51
0.0000000001042204
  0
ARC
  5
19C95
330
747D
100
AcDbEntity
  8
細線
 48
50.0
100
AcDbCircle
 10
7086.776719621582
 20
3362.438736253829
 30
0.0
 40
0.3
100
AcDbArc
 50
180.0
 51
255.8014401248081
  0
CIRCLE
  5
19C96
330
747D
100
AcDbEntity
  8
細線
 48
50.0
100
AcDbCircle
 10
7091.97671962158
 20
3382.991108379636
 30
0.0
 40
12.0
  0
ARC
  5
19C97
330
747D
100
AcDbEntity
  8
部品1
 48
50.0
100
AcDbCircle
 10
7091.97671962158
 20
3432.991108379636
 30
0.0
 40
8.5
100
AcDbArc
 50
114.315739171091
 51
245.684260828909
  0
CIRCLE
  5
19C98
330
747D
100
AcDbEntity
  8
細線
 48
50.0
100
AcDbCircle
 10
7091.97671962158
 20
3432.991108379636
 30
0.0
 40
4.5
  0
LWPOLYLINE
  5
19C99
330
747D
100
AcDbEntity
  8
部品1
 48
50.0
100
AcDbPolyline
 90
        2
 70
     0
 43
0.0
 10
7088.47671962158
 20
3451.665957776619
 10
7088.47671962158
 20
3440.737075072051
  0
CIRCLE
  5
19C9A
330
747D
100
AcDbEntity
  8
部品1
 48
50.0
100
AcDbCircle
 10
7091.97671962158
 20
3432.991108379636
 30
0.0
 40
19.0
  0
LWPOLYLINE
  5
19C9B
330
747D
100
AcDbEntity
  8
部品1
 48
50.0
100
AcDbPolyline
 90
        2
 70
     0
 43
0.0
 10
7088.47671962158
 20
3425.245141687221
 10
7088.47671962158
 20
3414.316258982654
  0
LWPOLYLINE
  5
19C9C
330
747D
100
AcDbEntity
  8
部品1
 48
50.0
100
AcDbPolyline
 90
        2
 70
     0
 43
0.0
 10
7095.476719621579
 20
3440.737075072051
 10
7095.476719621579
 20
3451.665957776619
  0
ARC
  5
19C9D
330
747D
100
AcDbEntity
  8
部品1
 48
50.0
100
AcDbCircle
 10
7091.97671962158
 20
3432.991108379636
 30
0.0
 40
8.5
100
AcDbArc
 50
294.315739171091
 51
65.68426082890896
  0
LWPOLYLINE
  5
19C9E
330
747D
100
AcDbEntity
  8
部品1
 48
50.0
100
AcDbPolyline
 90
        2
 70
     0
 43
0.0
 10
7095.476719621579
 20
3414.316258982654
 10
7095.476719621579
 20
3425.245141687221
  0
ARC
  5
19C9F
330
747D
100
AcDbEntity
  8
細線
 48
50.0
100
AcDbCircle
 10
7091.97671962158
 20
3432.991108379636
 30
0.0
 40
16.5
100
AcDbArc
 50
332.0012352654438
 51
27.99876473455621
  0
ARC
  5
19CA0
330
747D
100
AcDbEntity
  8
細線
 48
50.0
100
AcDbCircle
 10
7091.97671962158
 20
3432.991108379636
 30
0.0
 40
14.0
100
AcDbArc
 50
326.4074436112986
 51
33.59255638870134
  0
LINE
  5
19CA1
330
747D
100
AcDbEntity
  8
細線
 48
50.0
100
AcDbLine
 10
7077.407917337248
 20
3440.737075072051
 30
0.0
 11
7080.31481583189
 21
3440.737075072051
 31
0.0
  0
LINE
  5
19CA2
330
747D
100
AcDbEntity
  8
細線
 48
50.0
100
AcDbLine
 10
7077.407917337248
 20
3425.245141687221
 30
0.0
 11
7080.31481583189
 21
3425.245141687221
 31
0.0
  0
LINE
  5
19CA3
330
747D
100
AcDbEntity
  8
細線
 48
50.0
100
AcDbLine
 10
7103.638623411268
 20
3440.737075072051
 30
0.0
 11
7106.545521905914
 21
3440.737075072051
 31
0.0
  0
LINE
  5
19CA4
330
747D
100
AcDbEntity
  8
細線
 48
50.0
100
AcDbLine
 10
7103.638623411268
 20
3425.245141687221
 30
0.0
 11
7106.545521905914
 21
3425.245141687221
 31
0.0
  0
ARC
  5
19CA5
330
747D
100
AcDbEntity
  8
細線
 48
50.0
100
AcDbCircle
 10
7091.97671962158
 20
3432.991108379636
 30
0.0
 40
14.0
100
AcDbArc
 50
146.4074436112986
 51
213.5925563887013
  0
ARC
  5
19CA6
330
747D
100
AcDbEntity
  8
細線
 48
50.0
100
AcDbCircle
 10
7091.97671962158
 20
3432.991108379636
 30
0.0
 40
16.5
100
AcDbArc
 50
152.0012352654438
 51
207.9987647345562
  0
ARC
  5
19CA7
330
747D
100
AcDbEntity
  8
部品1
 48
50.0
100
AcDbCircle
 10
7065.47671962158
 20
3458.491108379636
 30
0.0
 40
5.0
100
AcDbArc
 50
90.0
 51
180.0
  0
ARC
  5
19CA8
330
747D
100
AcDbEntity
  8
部品1
 48
50.0
100
AcDbCircle
 10
7065.47671962158
 20
3347.491108379636
 30
0.0
 40
5.0
100
AcDbArc
 50
180.0
 51
270.0
  0
ARC
  5
19CA9
330
747D
100
AcDbEntity
  8
部品1
 48
50.0
100
AcDbCircle
 10
7118.47671962158
 20
3347.491108379636
 30
0.0
 40
5.0
100
AcDbArc
 50
270.0
 51
0.0
  0
ARC
  5
19CAA
330
747D
100
AcDbEntity
  8
部品1
 48
50.0
100
AcDbCircle
 10
7118.47671962158
 20
3458.491108379636
 30
0.0
 40
5.0
100
AcDbArc
 50
0.0
 51
90.0
  0
LINE
  5
19CAB
330
747D
100
AcDbEntity
  8
部品1
 48
50.0
100
AcDbLine
 10
7060.47671962158
 20
3347.491108379636
 30
0.0
 11
7060.47671962158
 21
3458.491108379636
 31
0.0
  0
LINE
  5
19CAC
330
747D
100
AcDbEntity
  8
部品1
 48
50.0
100
AcDbLine
 10
7118.47671962158
 20
3342.491108379636
 30
0.0
 11
7065.47671962158
 21
3342.491108379636
 31
0.0
  0
LINE
  5
19CAD
330
747D
100
AcDbEntity
  8
部品1
 48
50.0
100
AcDbLine
 10
7123.47671962158
 20
3458.491108379636
 30
0.0
 11
7123.47671962158
 21
3347.491108379636
 31
0.0
  0
ENDSEC
  0
SECTION
  2
OBJECTS
  0
DICTIONARY
  5
7471
330
0
100
AcDbDictionary
281
     1
  3
ACAD_COLOR
350
18007
  3
ACAD_GROUP
350
7472
  3
ACAD_LAYOUT
350
18008
  3
ACAD_MATERIAL
350
18006
  3
ACAD_MLINESTYLE
350
7473
  3
ACAD_PLOTSETTINGS
350
18009
  3
ACAD_PLOTSTYLENAME
350
18004
  3
ACDBHEADERROUNDTRIPXREC
350
19CBC
  3
AcDbVariableDictionary
350
19CB8
  3
CONTENTDICTIONARY
350
E71C
  3
DRAWINGVARIABLESDICT
350
F3B9
  0
DICTIONARY
  5
181DB
330
7467
100
AcDbDictionary
280
     1
281
     1
  3
ACAD_LAYERSTATES
360
181DC
  0
DICTIONARY
  5
18007
102
{ACAD_REACTORS
330
7471
102
}
330
7471
100
AcDbDictionary
281
     1
  0
DICTIONARY
  5
7472
102
{ACAD_REACTORS
330
7471
102
}
330
7471
100
AcDbDictionary
281
     1
  0
DICTIONARY
  5
18008
102
{ACAD_REACTORS
330
7471
102
}
330
7471
100
AcDbDictionary
281
     1
  3
Model
350
1800A
  3
レイアウト1
350
1800B
  0
DICTIONARY
  5
18006
102
{ACAD_REACTORS
330
7471
102
}
330
7471
100
AcDbDictionary
281
     1
  0
DICTIONARY
  5
7473
102
{ACAD_REACTORS
330
7471
102
}
330
7471
100
AcDbDictionary
281
     1
  3
STANDARD
350
7480
  0
DICTIONARY
  5
18009
102
{ACAD_REACTORS
330
7471
102
}
330
7471
100
AcDbDictionary
281
     1
  0
ACDBDICTIONARYWDFLT
  5
18004
102
{ACAD_REACTORS
330
7471
102
}
330
7471
100
AcDbDictionary
281
     1
  3
Normal
350
18005
100
AcDbDictionaryWithDefault
340
18005
  0
DICTIONARY
  5
19CBC
102
{ACAD_REACTORS
330
7471
102
}
330
7471
100
AcDbDictionary
281
     1
  3
COLORDICT
350
19CBE
  3
MATERIALDICT
350
19CBD
  0
DICTIONARY
  5
19CB8
102
{ACAD_REACTORS
330
7471
102
}
330
7471
100
AcDbDictionary
281
     1
  3
DIMASSOC
350
19CB9
  3
PROJECTNAME
350
19CBA
  0
DICTIONARY
  5
E71C
102
{ACAD_REACTORS
330
7471
102
}
330
7471
100
AcDbDictionary
281
     1
  0
DICTIONARY
  5
F3B9
102
{ACAD_REACTORS
330
7471
102
}
330
7471
100
AcDbDictionary
281
     1
1001
DRAWINGVARIABLESXDATA
1000
POLARMODE
1000
1
  0
DICTIONARY
  5
181DC
102
{ACAD_REACTORS
330
181DB
102
}
330
181DB
100
AcDbDictionary
281
     1
  0
LAYOUT
  5
1800A
102
{ACAD_XDICTIONARY
360
19CBF
102
}
102
{ACAD_REACTORS
330
18008
102
}
330
18008
100
AcDbPlotSettings
  1

  2
EPSON LP-7000C
  4

  6

 40
0.0
 41
0.0
 42
0.0
 43
0.0
 44
0.0
 45
0.0
 46
0.0
 47
0.0
 48
0.0
 49
0.0
140
0.0
141
0.0
142
1.0
143
1.0
 70
  1712
 72
     0
 73
     0
 74
     0
  7

 75
     0
147
1.0
148
0.0
149
0.0
100
AcDbLayout
  1
Model
 70
     1
 71
     0
 10
0.0
 20
0.0
 11
12.0
 21
9.0
 12
0.0
 22
0.0
 32
0.0
 14
0.0
 24
0.0
 34
0.0
 15
0.0
 25
0.0
 35
0.0
146
0.0
 13
0.0
 23
0.0
 33
0.0
 16
1.0
 26
0.0
 36
0.0
 17
0.0
 27
1.0
 37
0.0
 76
     0
330
747D
  0
LAYOUT
  5
1800B
102
{ACAD_XDICTIONARY
360
19CC1
102
}
102
{ACAD_REACTORS
330
18008
102
}
330
18008
100
AcDbPlotSettings
  1

  2
EPSON LP-7000C
  4

  6

 40
0.0
 41
0.0
 42
0.0
 43
0.0
 44
0.0
 45
0.0
 46
0.0
 47
0.0
 48
0.0
 49
0.0
140
0.0
141
0.0
142
1.0
143
1.0
 70
   688
 72
     0
 73
     0
 74
     5
  7

 75
    16
147
1.0
148
0.0
149
0.0
100
AcDbLayout
  1
レイアウト1
 70
     0
 71
     1
 10
0.0
 20
0.0
 11
420.0
 21
297.0
 12
0.0
 22
0.0
 32
0.0
 14
1.000000000000000E+20
 24
1.000000000000000E+20
 34
1.000000000000000E+20
 15
-1.000000000000000E+20
 25
-1.000000000000000E+20
 35
-1.000000000000000E+20
146
0.0
 13
0.0
 23
0.0
 33
0.0
 16
1.0
 26
0.0
 36
0.0
 17
0.0
 27
1.0
 37
0.0
 76
     0
330
747A
  0
MLINESTYLE
  5
7480
102
{ACAD_REACTORS
330
7473
102
}
330
7473
100
AcDbMlineStyle
  2
STANDARD
 70
     0
  3

 62
     0
 51
90.0
 52
90.0
 71
     2
 49
0.5
 62
   256
  6
BYLAYER
 49
-0.5
 62
   256
  6
BYLAYER
  0
ACDBPLACEHOLDER
  5
18005
102
{ACAD_REACTORS
330
18004
102
}
330
18004
  0
XRECORD
  5
19CBE
102
{ACAD_REACTORS
330
19CBC
102
}
330
19CBC
100
AcDbXrecord
280
     1
340
18007
  0
XRECORD
  5
19CBD
102
{ACAD_REACTORS
330
19CBC
102
}
330
19CBC
100
AcDbXrecord
280
     1
340
18006
  0
DICTIONARYVAR
  5
19CB9
102
{ACAD_REACTORS
330
19CB8
102
}
330
19CB8
100
DictionaryVariables
280
     0
  1
1
  0
DICTIONARYVAR
  5
19CBA
102
{ACAD_REACTORS
330
19CB8
102
}
330
19CB8
100
DictionaryVariables
280
     0
  1

  0
DICTIONARY
  5
19CBF
330
1800A
100
AcDbDictionary
280
     1
281
     1
  3
ACAD_XREC_ROUNDTRIP
360
19CC0
  0
DICTIONARY
  5
19CC1
330
1800B
100
AcDbDictionary
280
     1
281
     1
  3
ACAD_XREC_ROUNDTRIP
360
19CC2
  0
XRECORD
  5
19CC0
102
{ACAD_REACTORS
330
19CBF
102
}
330
19CBF
100
AcDbXrecord
280
     1
102
SHADEPLOT
 70
     0
102
SHADEPLOTRESLEVEL
 70
     2
102
SHADEPLOTCUSTOMDPI
 70
   300
  0
XRECORD
  5
19CC2
102
{ACAD_REACTORS
330
19CC1
102
}
330
19CC1
100
AcDbXrecord
280
     1
102
SHADEPLOT
 70
     0
102
SHADEPLOTRESLEVEL
 70
     2
102
SHADEPLOTCUSTOMDPI
 70
   300
  0
ENDSEC
  0
EOF
