  0
SECTION
  2
HEADER
  9
$ACADVER
  1
AC1015
  9
$ACADMAINTVER
 70
    20
  9
$DWGCODEPAGE
  3
ANSI_932
  9
$INSBASE
 10
0.0
 20
0.0
 30
0.0
  9
$EXTMIN
 10
139.9999999999995
 20
-0.0000000000000909
 30
0.0
  9
$EXTMAX
 10
16307.2
 20
11409.6
 30
0.0
  9
$LIMMIN
 10
0.0
 20
0.0
  9
$LIMMAX
 10
16800.0
 20
11880.0
  9
$ORTHOMODE
 70
     0
  9
$REGENMODE
 70
     1
  9
$FILLMODE
 70
     1
  9
$QTEXTMODE
 70
     0
  9
$MIRRTEXT
 70
     1
  9
$LTSCALE
 40
20.0
  9
$ATTMODE
 70
     1
  9
$TEXTSIZE
 40
120.0
  9
$TRACEWID
 40
1.0
  9
$TEXTSTYLE
  7
STYLE1
  9
$CLAYER
  8
部品1
  9
$CELTYPE
  6
BYLAYER
  9
$CECOLOR
 62
   256
  9
$CELTSCALE
 40
50.0
  9
$DISPSILH
 70
     0
  9
$DIMSCALE
 40
40.0
  9
$DIMASZ
 40
2.5
  9
$DIMEXO
 40
0.5
  9
$DIMDLI
 40
7.0
  9
$DIMRND
 40
0.0
  9
$DIMDLE
 40
0.0
  9
$DIMEXE
 40
1.5
  9
$DIMTP
 40
0.0
  9
$DIMTM
 40
0.0
  9
$DIMTXT
 40
3.0
  9
$DIMCEN
 40
0.0
  9
$DIMTSZ
 40
0.0
  9
$DIMTOL
 70
     0
  9
$DIMLIM
 70
     0
  9
$DIMTIH
 70
     0
  9
$DIMTOH
 70
     0
  9
$DIMSE1
 70
     0
  9
$DIMSE2
 70
     0
  9
$DIMTAD
 70
     3
  9
$DIMZIN
 70
     8
  9
$DIMBLK
  1

  9
$DIMASO
 70
     1
  9
$DIMSHO
 70
     1
  9
$DIMPOST
  1

  9
$DIMAPOST
  1

  9
$DIMALT
 70
     0
  9
$DIMALTD
 70
     2
  9
$DIMALTF
 40
0.0394
  9
$DIMLFAC
 40
1.0
  9
$DIMTOFL
 70
     1
  9
$DIMTVP
 40
0.0
  9
$DIMTIX
 70
     1
  9
$DIMSOXD
 70
     0
  9
$DIMSAH
 70
     1
  9
$DIMBLK1
  1
DOTSMALL
  9
$DIMBLK2
  1
DOTSMALL
  9
$DIMSTYLE
  2
INABA_S40G
  9
$DIMCLRD
 70
     0
  9
$DIMCLRE
 70
     0
  9
$DIMCLRT
 70
     7
  9
$DIMTFAC
 40
1.0
  9
$DIMGAP
 40
1.0
  9
$DIMJUST
 70
     0
  9
$DIMSD1
 70
     0
  9
$DIMSD2
 70
     0
  9
$DIMTOLJ
 70
     1
  9
$DIMTZIN
 70
     0
  9
$DIMALTZ
 70
     0
  9
$DIMALTTZ
 70
     0
  9
$DIMUPT
 70
     1
  9
$DIMDEC
 70
     1
  9
$DIMTDEC
 70
     4
  9
$DIMALTU
 70
     2
  9
$DIMALTTD
 70
     2
  9
$DIMTXSTY
  7
STYLE1
  9
$DIMAUNIT
 70
     0
  9
$DIMADEC
 70
     0
  9
$DIMALTRND
 40
0.0
  9
$DIMAZIN
 70
     0
  9
$DIMDSEP
 70
    46
  9
$DIMATFIT
 70
     3
  9
$DIMFRAC
 70
     0
  9
$DIMLDRBLK
  1

  9
$DIMLUNIT
 70
     2
  9
$DIMLWD
 70
    -2
  9
$DIMLWE
 70
    -2
  9
$DIMTMOVE
 70
     0
  9
$LUNITS
 70
     2
  9
$LUPREC
 70
     1
  9
$SKETCHINC
 40
1.0
  9
$FILLETRAD
 40
3.0
  9
$AUNITS
 70
     0
  9
$AUPREC
 70
     0
  9
$MENU
  1
acad
  9
$ELEVATION
 40
0.0
  9
$PELEVATION
 40
0.0
  9
$THICKNESS
 40
0.0
  9
$LIMCHECK
 70
     0
  9
$CHAMFERA
 40
0.0
  9
$CHAMFERB
 40
0.0
  9
$CHAMFERC
 40
0.0
  9
$CHAMFERD
 40
0.0
  9
$SKPOLY
 70
     0
  9
$TDCREATE
 40
2451368.612993866
  9
$TDUCREATE
 40
2451368.237993866
  9
$TDUPDATE
 40
2455575.688150857
  9
$TDUUPDATE
 40
2455575.313150857
  9
$TDINDWG
 40
0.5445933681
  9
$TDUSRTIMER
 40
0.5445933681
  9
$USRTIMER
 70
     1
  9
$ANGBASE
 50
0.0
  9
$ANGDIR
 70
     0
  9
$PDMODE
 70
     3
  9
$PDSIZE
 40
2.0
  9
$PLINEWID
 40
0.0
  9
$SPLFRAME
 70
     0
  9
$SPLINETYPE
 70
     6
  9
$SPLINESEGS
 70
     8
  9
$HANDSEED
  5
19578
  9
$SURFTAB1
 70
     6
  9
$SURFTAB2
 70
     6
  9
$SURFTYPE
 70
     6
  9
$SURFU
 70
     6
  9
$SURFV
 70
     6
  9
$UCSBASE
  2

  9
$UCSNAME
  2

  9
$UCSORG
 10
0.0
 20
0.0
 30
0.0
  9
$UCSXDIR
 10
1.0
 20
0.0
 30
0.0
  9
$UCSYDIR
 10
0.0
 20
1.0
 30
0.0
  9
$UCSORTHOREF
  2

  9
$UCSORTHOVIEW
 70
     0
  9
$UCSORGTOP
 10
0.0
 20
0.0
 30
0.0
  9
$UCSORGBOTTOM
 10
0.0
 20
0.0
 30
0.0
  9
$UCSORGLEFT
 10
0.0
 20
0.0
 30
0.0
  9
$UCSORGRIGHT
 10
0.0
 20
0.0
 30
0.0
  9
$UCSORGFRONT
 10
0.0
 20
0.0
 30
0.0
  9
$UCSORGBACK
 10
0.0
 20
0.0
 30
0.0
  9
$PUCSBASE
  2

  9
$PUCSNAME
  2

  9
$PUCSORG
 10
0.0
 20
0.0
 30
0.0
  9
$PUCSXDIR
 10
1.0
 20
0.0
 30
0.0
  9
$PUCSYDIR
 10
0.0
 20
1.0
 30
0.0
  9
$PUCSORTHOREF
  2

  9
$PUCSORTHOVIEW
 70
     0
  9
$PUCSORGTOP
 10
0.0
 20
0.0
 30
0.0
  9
$PUCSORGBOTTOM
 10
0.0
 20
0.0
 30
0.0
  9
$PUCSORGLEFT
 10
0.0
 20
0.0
 30
0.0
  9
$PUCSORGRIGHT
 10
0.0
 20
0.0
 30
0.0
  9
$PUCSORGFRONT
 10
0.0
 20
0.0
 30
0.0
  9
$PUCSORGBACK
 10
0.0
 20
0.0
 30
0.0
  9
$USERI1
 70
     0
  9
$USERI2
 70
     0
  9
$USERI3
 70
     0
  9
$USERI4
 70
     0
  9
$USERI5
 70
     0
  9
$USERR1
 40
0.0
  9
$USERR2
 40
0.0
  9
$USERR3
 40
0.0
  9
$USERR4
 40
0.0
  9
$USERR5
 40
0.0
  9
$WORLDVIEW
 70
     1
  9
$SHADEDGE
 70
     3
  9
$SHADEDIF
 70
    70
  9
$TILEMODE
 70
     1
  9
$MAXACTVP
 70
    16
  9
$PINSBASE
 10
0.0
 20
0.0
 30
0.0
  9
$PLIMCHECK
 70
     0
  9
$PEXTMIN
 10
1.000000000000000E+20
 20
1.000000000000000E+20
 30
1.000000000000000E+20
  9
$PEXTMAX
 10
-1.000000000000000E+20
 20
-1.000000000000000E+20
 30
-1.000000000000000E+20
  9
$PLIMMIN
 10
0.0
 20
0.0
  9
$PLIMMAX
 10
420.0
 20
297.0
  9
$UNITMODE
 70
     0
  9
$VISRETAIN
 70
     0
  9
$PLINEGEN
 70
     0
  9
$PSLTSCALE
 70
     0
  9
$TREEDEPTH
 70
  3020
  9
$CMLSTYLE
  2
STANDARD
  9
$CMLJUST
 70
     0
  9
$CMLSCALE
 40
1.0
  9
$PROXYGRAPHICS
 70
     1
  9
$MEASUREMENT
 70
     1
  9
$CELWEIGHT
370
    -1
  9
$ENDCAPS
280
     0
  9
$JOINSTYLE
280
     0
  9
$LWDISPLAY
290
     0
  9
$INSUNITS
 70
     0
  9
$HYPERLINKBASE
  1

  9
$STYLESHEET
  1

  9
$XEDIT
290
     1
  9
$CEPSNTYPE
380
     0
  9
$PSTYLEMODE
290
     1
  9
$FINGERPRINTGUID
  2
{2E528383-2B4B-49CE-9196-5177F034452B}
  9
$VERSIONGUID
  2
{97FEB6D8-91C7-450C-BA3B-C0089AF4BEDF}
  9
$EXTNAMES
290
     1
  9
$PSVPSCALE
 40
0.0
  9
$OLESTARTUP
290
     0
  0
ENDSEC
  0
SECTION
  2
CLASSES
  0
CLASS
  1
ACDBDICTIONARYWDFLT
  2
AcDbDictionaryWithDefault
  3
ObjectDBX Classes
 90
        0
280
     0
281
     0
  0
CLASS
  1
DICTIONARYVAR
  2
AcDbDictionaryVar
  3
ObjectDBX Classes
 90
        0
280
     0
281
     0
  0
CLASS
  1
ACDBPLACEHOLDER
  2
AcDbPlaceHolder
  3
ObjectDBX Classes
 90
        0
280
     0
281
     0
  0
CLASS
  1
LAYOUT
  2
AcDbLayout
  3
ObjectDBX Classes
 90
        0
280
     0
281
     0
  0
ENDSEC
  0
SECTION
  2
TABLES
  0
TABLE
  2
VPORT
  5
746D
330
0
100
AcDbSymbolTable
 70
     2
  0
VPORT
  5
19570
330
746D
100
AcDbSymbolTableRecord
100
AcDbViewportTableRecord
  2
*Active
 70
     0
 10
0.0
 20
0.0
 11
1.0
 21
1.0
 12
8223.365204445475
 22
6348.703162895247
 13
0.0
 23
0.0
 14
10.0
 24
10.0
 15
10.0
 25
10.0
 16
0.0
 26
0.0
 36
1.0
 17
0.0
 27
0.0
 37
0.0
 40
12805.60689082044
 41
1.525925925925925
 42
50.0
 43
0.0
 44
0.0
 50
0.0
 51
0.0
 71
     0
 72
     0
 73
     1
 74
     0
 75
     0
 76
     0
 77
     0
 78
     0
281
     0
 65
     1
110
0.0
120
0.0
130
0.0
111
1.0
121
0.0
131
0.0
112
0.0
122
1.0
132
0.0
 79
     0
146
0.0
  0
ENDTAB
  0
TABLE
  2
LTYPE
  5
746A
330
0
100
AcDbSymbolTable
 70
     4
  0
LTYPE
  5
7477
330
746A
100
AcDbSymbolTableRecord
100
AcDbLinetypeTableRecord
  2
BYBLOCK
 70
     0
  3

 72
    65
 73
     0
 40
0.0
  0
LTYPE
  5
7478
330
746A
100
AcDbSymbolTableRecord
100
AcDbLinetypeTableRecord
  2
BYLAYER
 70
     0
  3

 72
    65
 73
     0
 40
0.0
  0
LTYPE
  5
7479
330
746A
100
AcDbSymbolTableRecord
100
AcDbLinetypeTableRecord
  2
CONTINUOUS
 70
     0
  3
Solid line
 72
    65
 73
     0
 40
0.0
  0
LTYPE
  5
7816
330
746A
100
AcDbSymbolTableRecord
100
AcDbLinetypeTableRecord
  2
CENTER
 70
     0
  3
____ _ ____ _ ____ _ ____ _ ____ _ ____ _ ____ 
 72
    65
 73
     4
 40
2.0
 49
1.25
 74
     0
 49
-0.25
 74
     0
 49
0.25
 74
     0
 49
-0.25
 74
     0
  0
LTYPE
  5
781A
330
746A
100
AcDbSymbolTableRecord
100
AcDbLinetypeTableRecord
  2
HIDDEN
 70
     0
  3
__ __ __ __ __ __ __ __ __ __ __ __ __ __ __ __
 72
    65
 73
     2
 40
0.375
 49
0.25
 74
     0
 49
-0.125
 74
     0
  0
LTYPE
  5
781B
330
746A
100
AcDbSymbolTableRecord
100
AcDbLinetypeTableRecord
  2
PHANTOM
 70
     0
  3
______  __  __  ______  __  __  ______  __  __ 
 72
    65
 73
     6
 40
2.5
 49
1.25
 74
     0
 49
-0.25
 74
     0
 49
0.25
 74
     0
 49
-0.25
 74
     0
 49
0.25
 74
     0
 49
-0.25
 74
     0
  0
ENDTAB
  0
TABLE
  2
LAYER
  5
7467
102
{ACAD_XDICTIONARY
360
16DD6
102
}
330
0
100
AcDbSymbolTable
 70
    12
  0
LAYER
  5
7474
330
7467
100
AcDbSymbolTableRecord
100
AcDbLayerTableRecord
  2
0
 70
     0
 62
     7
  6
CONTINUOUS
370
    -3
390
16C2C
  0
LAYER
  5
DEB2
330
7467
100
AcDbSymbolTableRecord
100
AcDbLayerTableRecord
  2
センター
 70
     0
 62
     3
  6
CENTER
370
    -3
390
16C2C
  0
LAYER
  5
DEB3
330
7467
100
AcDbSymbolTableRecord
100
AcDbLayerTableRecord
  2
寸法
 70
     0
 62
     4
  6
CONTINUOUS
370
    -3
390
16C2C
  0
LAYER
  5
DEB4
330
7467
100
AcDbSymbolTableRecord
100
AcDbLayerTableRecord
  2
部品1
 70
     0
 62
     7
  6
CONTINUOUS
370
    -3
390
16C2C
  0
LAYER
  5
DEB5
330
7467
100
AcDbSymbolTableRecord
100
AcDbLayerTableRecord
  2
補助
 70
     0
 62
    -1
  6
CONTINUOUS
370
    -3
390
16C2C
  0
LAYER
  5
DEB6
330
7467
100
AcDbSymbolTableRecord
100
AcDbLayerTableRecord
  2
文字
 70
     0
 62
     7
  6
CONTINUOUS
370
    -3
390
16C2C
  0
LAYER
  5
F255
330
7467
100
AcDbSymbolTableRecord
100
AcDbLayerTableRecord
  2
DEFPOINTS
 70
     0
 62
     7
  6
CONTINUOUS
290
     0
370
    -3
390
16C2C
  0
LAYER
  5
10B54
330
7467
100
AcDbSymbolTableRecord
100
AcDbLayerTableRecord
  2
仕様書枠
 70
     0
 62
   230
  6
CONTINUOUS
370
    -3
390
16C2C
  0
LAYER
  5
11729
330
7467
100
AcDbSymbolTableRecord
100
AcDbLayerTableRecord
  2
Ｇ．Ｌ
 70
     0
 62
    30
  6
CONTINUOUS
370
    -3
390
16C2C
  0
LAYER
  5
1173F
330
7467
100
AcDbSymbolTableRecord
100
AcDbLayerTableRecord
  2
細線
 70
     0
 62
     5
  6
CONTINUOUS
370
    -3
390
16C2C
  0
LAYER
  5
12CC4
330
7467
100
AcDbSymbolTableRecord
100
AcDbLayerTableRecord
  2
想像線
 70
     0
 62
     6
  6
PHANTOM
370
    -3
390
16C2C
  0
LAYER
  5
142E2
330
7467
100
AcDbSymbolTableRecord
100
AcDbLayerTableRecord
  2
破線
 70
     0
 62
     2
  6
HIDDEN
370
    -3
390
16C2C
  0
ENDTAB
  0
TABLE
  2
STYLE
  5
7468
330
0
100
AcDbSymbolTable
 70
     5
  0
STYLE
  5
7475
330
7468
100
AcDbSymbolTableRecord
100
AcDbTextStyleTableRecord
  2
STANDARD
 70
     0
 40
0.0
 41
1.0
 50
0.0
 71
     0
 42
4.0
  3
txt
  4
C:\AutoCAD LT\bigfont.shx
  0
STYLE
  5
763C
330
7468
100
AcDbSymbolTableRecord
100
AcDbTextStyleTableRecord
  2
MSMINCHO
 70
     0
 40
0.0
 41
1.0
 50
0.0
 71
     0
 42
1.199999999999999
  3
C:\AutoCAD LT\msminch2.TTF
  4

  0
STYLE
  5
F706
330
7468
100
AcDbSymbolTableRecord
100
AcDbTextStyleTableRecord
  2
STYLE1
 70
     0
 40
0.0
 41
1.0
 50
0.0
 71
     0
 42
120.0
  3
isocp.shx
  4
bigfont.shx
  0
STYLE
  5
103BF
330
7468
100
AcDbSymbolTableRecord
100
AcDbTextStyleTableRecord
  2
STYLE2
 70
     0
 40
0.0
 41
1.0
 50
0.0
 71
     0
 42
100.0
  3
MS PGothic.ttf
  4

1001
ACAD
1000
MS PGothic
1071
    32818
  0
STYLE
  5
10BAA
330
7468
100
AcDbSymbolTableRecord
100
AcDbTextStyleTableRecord
  2
STYLE3
 70
     0
 40
0.0
 41
1.0
 50
0.0
 71
     0
 42
100.0
  3

  4

1001
ACAD
1000
DFPGothic-EB
1071
    32818
  0
ENDTAB
  0
TABLE
  2
VIEW
  5
746B
330
0
100
AcDbSymbolTable
 70
     0
  0
ENDTAB
  0
TABLE
  2
UCS
  5
746C
330
0
100
AcDbSymbolTable
 70
     0
  0
ENDTAB
  0
TABLE
  2
APPID
  5
746E
330
0
100
AcDbSymbolTable
 70
     6
  0
APPID
  5
7476
330
746E
100
AcDbSymbolTableRecord
100
AcDbRegAppTableRecord
  2
ACAD
 70
     0
  0
APPID
  5
DEA9
330
746E
100
AcDbSymbolTableRecord
100
AcDbRegAppTableRecord
  2
CONTENTBLOCKICON
 70
     0
  0
APPID
  5
DEAA
330
746E
100
AcDbSymbolTableRecord
100
AcDbRegAppTableRecord
  2
CONTENTBLOCKDESCRIPTION
 70
     0
  0
APPID
  5
E71D
330
746E
100
AcDbSymbolTableRecord
100
AcDbRegAppTableRecord
  2
CONTENTTABDATA
 70
     0
  0
APPID
  5
E71E
330
746E
100
AcDbSymbolTableRecord
100
AcDbRegAppTableRecord
  2
CONTENTCURRENTTAB
 70
     0
  0
APPID
  5
F3BA
330
746E
100
AcDbSymbolTableRecord
100
AcDbRegAppTableRecord
  2
DRAWINGVARIABLESXDATA
 70
     0
  0
ENDTAB
  0
TABLE
  2
DIMSTYLE
  5
746F
330
0
100
AcDbSymbolTable
 70
     4
100
AcDbDimStyleTable
 71
     0
  0
DIMSTYLE
105
7484
330
746F
100
AcDbSymbolTableRecord
100
AcDbDimStyleTableRecord
  2
JIS
 70
     0
 41
2.5
 42
1.0
 43
7.0
 44
1.0
 73
     0
 74
     0
 77
     1
 78
     8
140
2.5
141
0.0
143
0.0394
147
0.0
172
     1
174
     1
175
     1
340
7475
  0
DIMSTYLE
105
F236
330
746F
100
AcDbSymbolTableRecord
100
AcDbDimStyleTableRecord
  2
INABA_S40
 70
     0
 40
40.0
 41
2.5
 42
0.5
 43
7.0
 44
1.5
 73
     0
 74
     0
 77
     3
 78
     8
140
3.0
141
0.0
143
0.0394
147
1.0
172
     1
173
     1
174
     1
175
     1
178
     7
289
     0
340
7475
341
DEAC
343
DEAC
344
DEAC
  0
DIMSTYLE
105
F71F
102
{ACAD_REACTORS
330
17447
330
17448
330
17449
330
1744E
330
17E2B
330
17E2C
330
17E2D
330
17E2F
330
17E33
330
17E36
330
17E37
330
17E38
330
17E61
330
17E70
330
19093
330
19105
330
1913C
330
1913D
330
1917A
330
1917B
330
1919F
330
191A9
330
191C2
330
191CB
330
191CD
330
191EC
330
191ED
330
191EE
330
191EF
330
191F6
330
191FA
330
1902C
102
}
330
746F
100
AcDbSymbolTableRecord
100
AcDbDimStyleTableRecord
  2
INABA_S40G
 70
     0
 40
40.0
 41
2.5
 42
0.5
 43
7.0
 44
1.5
 73
     0
 74
     0
 77
     3
 78
     8
140
3.0
141
0.0
143
0.0394
147
1.0
172
     1
173
     1
174
     1
178
     7
271
     1
288
     1
340
F706
341
F770
343
F770
344
F770
  0
DIMSTYLE
105
19454
330
746F
100
AcDbSymbolTableRecord
100
AcDbDimStyleTableRecord
  2
INABA_S20G
 70
     0
 40
20.0
 41
2.5
 42
0.5
 43
7.0
 44
1.5
 73
     0
 74
     0
 77
     3
 78
     8
140
3.0
141
0.0
143
0.0394
147
1.0
172
     1
173
     1
174
     1
178
     7
271
     1
340
F706
341
F770
343
F770
344
F770
  0
ENDTAB
  0
TABLE
  2
BLOCK_RECORD
  5
7466
330
0
100
AcDbSymbolTable
 70
    34
  0
BLOCK_RECORD
  5
747D
330
7466
100
AcDbSymbolTableRecord
100
AcDbBlockTableRecord
  2
*MODEL_SPACE
340
16C31
  0
BLOCK_RECORD
  5
747A
330
7466
100
AcDbSymbolTableRecord
100
AcDbBlockTableRecord
  2
*PAPER_SPACE
340
16C32
  0
BLOCK_RECORD
  5
DEAC
330
7466
100
AcDbSymbolTableRecord
100
AcDbBlockTableRecord
  2
_OPEN
340
0
  0
BLOCK_RECORD
  5
F770
330
7466
100
AcDbSymbolTableRecord
100
AcDbBlockTableRecord
  2
_DOTSMALL
340
0
102
{BLKREFS
331
18428
331
18429
331
18432
331
18433
331
1843B
331
1843C
331
18446
331
18447
331
1844F
331
18450
331
18458
331
18459
331
18463
331
18464
331
1846C
331
1846D
331
18475
331
18476
331
1847E
331
1847F
331
18489
331
1848A
331
18492
331
18493
331
1849B
331
1849C
331
184A6
331
184A7
331
1915B
331
1915C
331
19162
331
19163
331
1938B
331
1938C
331
19394
331
19395
331
1939F
331
193A0
331
193AA
331
193AB
331
193B3
331
193B4
331
193BC
331
193BD
331
193C7
331
193C8
331
193D0
331
193D1
331
193E2
331
193E3
331
193EB
331
193EC
331
193F4
331
193F5
331
193FD
331
193FE
331
19418
331
19419
331
19421
331
19422
331
1942A
331
1942B
331
19433
331
19434
331
1943C
331
1943D
331
19445
331
19446
102
}
  0
BLOCK_RECORD
  5
1772E
330
7466
100
AcDbSymbolTableRecord
100
AcDbBlockTableRecord
  2
*D2
340
0
  0
BLOCK_RECORD
  5
1773C
330
7466
100
AcDbSymbolTableRecord
100
AcDbBlockTableRecord
  2
*D3
340
0
  0
BLOCK_RECORD
  5
17748
330
7466
100
AcDbSymbolTableRecord
100
AcDbBlockTableRecord
  2
*D4
340
0
  0
BLOCK_RECORD
  5
17754
330
7466
100
AcDbSymbolTableRecord
100
AcDbBlockTableRecord
  2
*D5
340
0
  0
BLOCK_RECORD
  5
17F0B
330
7466
100
AcDbSymbolTableRecord
100
AcDbBlockTableRecord
  2
*D6
340
0
  0
BLOCK_RECORD
  5
17F17
330
7466
100
AcDbSymbolTableRecord
100
AcDbBlockTableRecord
  2
*D7
340
0
  0
BLOCK_RECORD
  5
17F23
330
7466
100
AcDbSymbolTableRecord
100
AcDbBlockTableRecord
  2
*D8
340
0
  0
BLOCK_RECORD
  5
17F3C
330
7466
100
AcDbSymbolTableRecord
100
AcDbBlockTableRecord
  2
*D9
340
0
  0
BLOCK_RECORD
  5
17F4A
330
7466
100
AcDbSymbolTableRecord
100
AcDbBlockTableRecord
  2
*D10
340
0
  0
BLOCK_RECORD
  5
17F56
330
7466
100
AcDbSymbolTableRecord
100
AcDbBlockTableRecord
  2
*D11
340
0
  0
BLOCK_RECORD
  5
17F62
330
7466
100
AcDbSymbolTableRecord
100
AcDbBlockTableRecord
  2
*D12
340
0
  0
BLOCK_RECORD
  5
17F70
330
7466
100
AcDbSymbolTableRecord
100
AcDbBlockTableRecord
  2
*D13
340
0
  0
BLOCK_RECORD
  5
17F7C
330
7466
100
AcDbSymbolTableRecord
100
AcDbBlockTableRecord
  2
*D14
340
0
  0
BLOCK_RECORD
  5
17F89
330
7466
100
AcDbSymbolTableRecord
100
AcDbBlockTableRecord
  2
*D15
340
0
  0
BLOCK_RECORD
  5
191FB
330
7466
100
AcDbSymbolTableRecord
100
AcDbBlockTableRecord
  2
*D16
340
0
  0
BLOCK_RECORD
  5
19207
330
7466
100
AcDbSymbolTableRecord
100
AcDbBlockTableRecord
  2
*D17
340
0
  0
BLOCK_RECORD
  5
19213
330
7466
100
AcDbSymbolTableRecord
100
AcDbBlockTableRecord
  2
*D18
340
0
  0
BLOCK_RECORD
  5
1921F
330
7466
100
AcDbSymbolTableRecord
100
AcDbBlockTableRecord
  2
*D19
340
0
  0
BLOCK_RECORD
  5
1922B
330
7466
100
AcDbSymbolTableRecord
100
AcDbBlockTableRecord
  2
*D20
340
0
  0
BLOCK_RECORD
  5
19237
330
7466
100
AcDbSymbolTableRecord
100
AcDbBlockTableRecord
  2
*D21
340
0
  0
BLOCK_RECORD
  5
19243
330
7466
100
AcDbSymbolTableRecord
100
AcDbBlockTableRecord
  2
*D22
340
0
  0
BLOCK_RECORD
  5
1924F
330
7466
100
AcDbSymbolTableRecord
100
AcDbBlockTableRecord
  2
*D23
340
0
  0
BLOCK_RECORD
  5
1925B
330
7466
100
AcDbSymbolTableRecord
100
AcDbBlockTableRecord
  2
*D24
340
0
  0
BLOCK_RECORD
  5
19267
330
7466
100
AcDbSymbolTableRecord
100
AcDbBlockTableRecord
  2
*D25
340
0
  0
BLOCK_RECORD
  5
19273
330
7466
100
AcDbSymbolTableRecord
100
AcDbBlockTableRecord
  2
*D26
340
0
  0
BLOCK_RECORD
  5
19281
330
7466
100
AcDbSymbolTableRecord
100
AcDbBlockTableRecord
  2
*D27
340
0
  0
BLOCK_RECORD
  5
1928D
330
7466
100
AcDbSymbolTableRecord
100
AcDbBlockTableRecord
  2
*D28
340
0
  0
BLOCK_RECORD
  5
19299
330
7466
100
AcDbSymbolTableRecord
100
AcDbBlockTableRecord
  2
*D29
340
0
  0
BLOCK_RECORD
  5
192A7
330
7466
100
AcDbSymbolTableRecord
100
AcDbBlockTableRecord
  2
*D30
340
0
  0
BLOCK_RECORD
  5
192B5
330
7466
100
AcDbSymbolTableRecord
100
AcDbBlockTableRecord
  2
*D31
340
0
  0
BLOCK_RECORD
  5
192C1
330
7466
100
AcDbSymbolTableRecord
100
AcDbBlockTableRecord
  2
*D32
340
0
  0
BLOCK_RECORD
  5
192CF
330
7466
100
AcDbSymbolTableRecord
100
AcDbBlockTableRecord
  2
*D33
340
0
  0
ENDTAB
  0
ENDSEC
  0
SECTION
  2
BLOCKS
  0
BLOCK
  5
7489
330
747D
100
AcDbEntity
  8
0
100
AcDbBlockBegin
  2
*MODEL_SPACE
 70
     0
 10
0.0
 20
0.0
 30
0.0
  3
*MODEL_SPACE
  1

  0
ENDBLK
  5
748A
330
747D
100
AcDbEntity
  8
0
100
AcDbBlockEnd
  0
BLOCK
  5
7487
330
747A
100
AcDbEntity
 67
     1
  8
0
100
AcDbBlockBegin
  2
*PAPER_SPACE
 70
     0
 10
0.0
 20
0.0
 30
0.0
  3
*PAPER_SPACE
  1

  0
ENDBLK
  5
7488
330
747A
100
AcDbEntity
 67
     1
  8
0
100
AcDbBlockEnd
  0
BLOCK
  5
DEAD
330
DEAC
100
AcDbEntity
  8
0
100
AcDbBlockBegin
  2
_OPEN
 70
     0
 10
0.0
 20
0.0
 30
0.0
  3
_OPEN
  1

  0
LINE
  5
DEAE
330
DEAC
100
AcDbEntity
  8
0
  6
ByBlock
 62
     0
100
AcDbLine
 10
-1.0
 20
0.1666666666666666
 30
0.0
 11
0.0
 21
0.0
 31
0.0
  0
LINE
  5
DEAF
330
DEAC
100
AcDbEntity
  8
0
  6
ByBlock
 62
     0
100
AcDbLine
 10
0.0
 20
0.0
 30
0.0
 11
-1.0
 21
-0.1666666666666666
 31
0.0
  0
LINE
  5
DEB0
330
DEAC
100
AcDbEntity
  8
0
  6
ByBlock
 62
     0
100
AcDbLine
 10
0.0
 20
0.0
 30
0.0
 11
-1.0
 21
0.0
 31
0.0
  0
ENDBLK
  5
DEB1
330
DEAC
100
AcDbEntity
  8
0
100
AcDbBlockEnd
  0
BLOCK
  5
F771
330
F770
100
AcDbEntity
  8
0
 48
50.0
100
AcDbBlockBegin
  2
_DOTSMALL
 70
     0
 10
0.0
 20
0.0
 30
0.0
  3
_DOTSMALL
  1

  0
LWPOLYLINE
  5
F772
330
F770
100
AcDbEntity
  8
0
  6
ByBlock
 62
     0
 48
50.0
100
AcDbPolyline
 90
        2
 70
     1
 43
0.5
 10
-0.0625
 20
0.0
 42
1.0
 10
0.0625
 20
0.0
 42
1.0
  0
ENDBLK
  5
F776
330
F770
100
AcDbEntity
  8
0
 48
50.0
100
AcDbBlockEnd
  0
BLOCK
  5
1773A
330
1772E
100
AcDbEntity
  8
0
 48
50.0
100
AcDbBlockBegin
  2
*D2
 70
     1
 10
0.0
 20
0.0
 30
0.0
  3
*D2
  1

  0
LINE
  5
184A1
330
1772E
100
AcDbEntity
  8
寸法
 62
     0
 48
50.0
370
    -2
100
AcDbLine
 10
4341.902964380291
 20
4987.185649128416
 30
0.0
 11
4341.902964380291
 21
5239.727234386652
 31
0.0
  0
LINE
  5
184A2
330
1772E
100
AcDbEntity
  8
寸法
 62
     0
 48
50.0
370
    -2
100
AcDbLine
 10
4291.902964380291
 20
4987.185649128413
 30
0.0
 11
4291.902964380291
 21
5239.727234386652
 31
0.0
  0
LINE
  5
184A3
330
1772E
100
AcDbEntity
  8
寸法
 62
     0
 48
50.0
370
    -2
100
AcDbLine
 10
4341.902964380291
 20
5179.727234386652
 30
0.0
 11
4441.902964380291
 21
5179.727234386652
 31
0.0
  0
LINE
  5
184A4
330
1772E
100
AcDbEntity
  8
寸法
 62
     0
 48
50.0
370
    -2
100
AcDbLine
 10
4291.902964380291
 20
5179.727234386652
 30
0.0
 11
3872.370438911556
 21
5179.727234386652
 31
0.0
  0
LINE
  5
184A5
330
1772E
100
AcDbEntity
  8
寸法
 62
     0
 48
50.0
370
    -2
100
AcDbLine
 10
4341.902964380291
 20
5179.727234386652
 30
0.0
 11
4291.902964380291
 21
5179.727234386652
 31
0.0
  0
INSERT
  5
184A6
330
1772E
100
AcDbEntity
  8
寸法
 62
     0
 48
50.0
370
    -2
100
AcDbBlockReference
  2
_DOTSMALL
 10
4341.902964380291
 20
5179.727234386652
 30
0.0
 41
100.0
 42
100.0
 43
100.0
 50
180.0
  0
INSERT
  5
184A7
330
1772E
100
AcDbEntity
  8
寸法
 62
     0
 48
50.0
370
    -2
100
AcDbBlockReference
  2
_DOTSMALL
 10
4291.902964380291
 20
5179.727234386652
 30
0.0
 41
100.0
 42
100.0
 43
100.0
  0
MTEXT
  5
184A8
330
1772E
100
AcDbEntity
  8
寸法
 62
     7
 48
50.0
100
AcDbMText
 10
3978.417683006045
 20
5279.727234386652
 30
0.0
 40
120.0
 41
0.0
 71
     5
 72
     1
  1
\A1;50
  7
STYLE1
 73
     1
 44
1.0
1001
ACAD
1000
MTEXTBEGIN
1070
    73
1070
     1
1070
    44
1040
1.0
1070
    74
1070
     0
1000
MTEXTEND
  0
POINT
  5
184A9
330
1772E
100
AcDbEntity
  8
DEFPOINTS
 62
     0
 48
50.0
100
AcDbPoint
 10
4341.902964380291
 20
4967.185649128415
 30
0.0
  0
POINT
  5
184AA
330
1772E
100
AcDbEntity
  8
DEFPOINTS
 62
     0
 48
50.0
100
AcDbPoint
 10
4291.902964380291
 20
4967.185649128413
 30
0.0
  0
POINT
  5
184AB
330
1772E
100
AcDbEntity
  8
DEFPOINTS
 62
     0
 48
50.0
100
AcDbPoint
 10
4291.902964380291
 20
5179.727234386652
 30
0.0
  0
ENDBLK
  5
1773B
330
1772E
100
AcDbEntity
  8
0
 48
50.0
100
AcDbBlockEnd
  0
BLOCK
  5
17746
330
1773C
100
AcDbEntity
  8
0
 48
50.0
100
AcDbBlockBegin
  2
*D3
 70
     1
 10
0.0
 20
0.0
 30
0.0
  3
*D3
  1

  0
LINE
  5
18498
330
1773C
100
AcDbEntity
  8
寸法
 62
     0
 48
50.0
370
    -2
100
AcDbLine
 10
4291.902964380291
 20
4987.185649128413
 30
0.0
 11
4291.902964380291
 21
5462.684212824502
 31
0.0
  0
LINE
  5
18499
330
1773C
100
AcDbEntity
  8
寸法
 62
     0
 48
50.0
370
    -2
100
AcDbLine
 10
8501.902964380297
 20
4987.185649128408
 30
0.0
 11
8501.902964380297
 21
5462.684212824502
 31
0.0
  0
LINE
  5
1849A
330
1773C
100
AcDbEntity
  8
寸法
 62
     0
 48
50.0
370
    -2
100
AcDbLine
 10
4291.902964380291
 20
5402.684212824501
 30
0.0
 11
8501.902964380297
 21
5402.684212824501
 31
0.0
  0
INSERT
  5
1849B
330
1773C
100
AcDbEntity
  8
寸法
 62
     0
 48
50.0
370
    -2
100
AcDbBlockReference
  2
_DOTSMALL
 10
4291.902964380291
 20
5402.684212824501
 30
0.0
 41
100.0
 42
100.0
 43
100.0
 50
180.0
  0
INSERT
  5
1849C
330
1773C
100
AcDbEntity
  8
寸法
 62
     0
 48
50.0
370
    -2
100
AcDbBlockReference
  2
_DOTSMALL
 10
8501.902964380297
 20
5402.684212824501
 30
0.0
 41
100.0
 42
100.0
 43
100.0
  0
MTEXT
  5
1849D
330
1773C
100
AcDbEntity
  8
寸法
 62
     7
 48
50.0
100
AcDbMText
 10
6396.902964380295
 20
5502.684212824501
 30
0.0
 40
120.0
 41
0.0
 71
     5
 72
     1
  1
\A1;N x 1370 +100
  7
STYLE1
 73
     1
 44
1.0
1001
ACAD
1000
MTEXTBEGIN
1070
    73
1070
     1
1070
    44
1040
1.0
1070
    74
1070
     0
1000
MTEXTEND
  0
POINT
  5
1849E
330
1773C
100
AcDbEntity
  8
DEFPOINTS
 62
     0
 48
50.0
100
AcDbPoint
 10
4291.902964380291
 20
4967.185649128413
 30
0.0
  0
POINT
  5
1849F
330
1773C
100
AcDbEntity
  8
DEFPOINTS
 62
     0
 48
50.0
100
AcDbPoint
 10
8501.902964380297
 20
4967.185649128408
 30
0.0
  0
POINT
  5
184A0
330
1773C
100
AcDbEntity
  8
DEFPOINTS
 62
     0
 48
50.0
100
AcDbPoint
 10
8501.902964380297
 20
5402.684212824501
 30
0.0
  0
ENDBLK
  5
17747
330
1773C
100
AcDbEntity
  8
0
 48
50.0
100
AcDbBlockEnd
  0
BLOCK
  5
17752
330
17748
100
AcDbEntity
  8
0
 48
50.0
100
AcDbBlockBegin
  2
*D4
 70
     1
 10
0.0
 20
0.0
 30
0.0
  3
*D4
  1

  0
LINE
  5
1848F
330
17748
100
AcDbEntity
  8
寸法
 62
     0
 48
50.0
370
    -2
100
AcDbLine
 10
8451.902964380296
 20
4987.185649128409
 30
0.0
 11
8451.902964380296
 21
5239.727234386652
 31
0.0
  0
LINE
  5
18490
330
17748
100
AcDbEntity
  8
寸法
 62
     0
 48
50.0
370
    -2
100
AcDbLine
 10
4341.902964380291
 20
4987.185649128416
 30
0.0
 11
4341.902964380291
 21
5239.727234386652
 31
0.0
  0
LINE
  5
18491
330
17748
100
AcDbEntity
  8
寸法
 62
     0
 48
50.0
370
    -2
100
AcDbLine
 10
8451.902964380296
 20
5179.727234386652
 30
0.0
 11
4341.902964380291
 21
5179.727234386652
 31
0.0
  0
INSERT
  5
18492
330
17748
100
AcDbEntity
  8
寸法
 62
     0
 48
50.0
370
    -2
100
AcDbBlockReference
  2
_DOTSMALL
 10
8451.902964380296
 20
5179.727234386652
 30
0.0
 41
100.0
 42
100.0
 43
100.0
  0
INSERT
  5
18493
330
17748
100
AcDbEntity
  8
寸法
 62
     0
 48
50.0
370
    -2
100
AcDbBlockReference
  2
_DOTSMALL
 10
4341.902964380291
 20
5179.727234386652
 30
0.0
 41
100.0
 42
100.0
 43
100.0
 50
180.0
  0
MTEXT
  5
18494
330
17748
100
AcDbEntity
  8
寸法
 62
     7
 48
50.0
100
AcDbMText
 10
6396.902964380295
 20
5279.727234386652
 30
0.0
 40
120.0
 41
0.0
 71
     5
 72
     1
  1
\A1;柱外寸法 N x 1370
  7
STYLE1
 73
     1
 44
1.0
1001
ACAD
1000
MTEXTBEGIN
1070
    73
1070
     1
1070
    44
1040
1.0
1070
    74
1070
     0
1000
MTEXTEND
  0
POINT
  5
18495
330
17748
100
AcDbEntity
  8
DEFPOINTS
 62
     0
 48
50.0
100
AcDbPoint
 10
8451.902964380296
 20
4967.18564912841
 30
0.0
  0
POINT
  5
18496
330
17748
100
AcDbEntity
  8
DEFPOINTS
 62
     0
 48
50.0
100
AcDbPoint
 10
4341.902964380291
 20
4967.185649128415
 30
0.0
  0
POINT
  5
18497
330
17748
100
AcDbEntity
  8
DEFPOINTS
 62
     0
 48
50.0
100
AcDbPoint
 10
4341.902964380291
 20
5179.727234386652
 30
0.0
  0
ENDBLK
  5
17753
330
17748
100
AcDbEntity
  8
0
 48
50.0
100
AcDbBlockEnd
  0
BLOCK
  5
17760
330
17754
100
AcDbEntity
  8
0
 48
50.0
100
AcDbBlockBegin
  2
*D5
 70
     1
 10
0.0
 20
0.0
 30
0.0
  3
*D5
  1

  0
LINE
  5
18484
330
17754
100
AcDbEntity
  8
寸法
 62
     0
 48
50.0
370
    -2
100
AcDbLine
 10
8501.902964380297
 20
4987.185649128408
 30
0.0
 11
8501.902964380297
 21
5239.727234386649
 31
0.0
  0
LINE
  5
18485
330
17754
100
AcDbEntity
  8
寸法
 62
     0
 48
50.0
370
    -2
100
AcDbLine
 10
8451.902964380296
 20
4987.185649128409
 30
0.0
 11
8451.902964380296
 21
5239.727234386649
 31
0.0
  0
LINE
  5
18486
330
17754
100
AcDbEntity
  8
寸法
 62
     0
 48
50.0
370
    -2
100
AcDbLine
 10
8451.902964380296
 20
5179.727234386649
 30
0.0
 11
8351.902964380297
 21
5179.727234386649
 31
0.0
  0
LINE
  5
18487
330
17754
100
AcDbEntity
  8
寸法
 62
     0
 48
50.0
370
    -2
100
AcDbLine
 10
8501.902964380297
 20
5179.727234386649
 30
0.0
 11
8921.43548984902
 21
5179.727234386649
 31
0.0
  0
LINE
  5
18488
330
17754
100
AcDbEntity
  8
寸法
 62
     0
 48
50.0
370
    -2
100
AcDbLine
 10
8451.902964380296
 20
5179.727234386649
 30
0.0
 11
8501.902964380297
 21
5179.727234386649
 31
0.0
  0
INSERT
  5
18489
330
17754
100
AcDbEntity
  8
寸法
 62
     0
 48
50.0
370
    -2
100
AcDbBlockReference
  2
_DOTSMALL
 10
8451.902964380296
 20
5179.727234386649
 30
0.0
 41
100.0
 42
100.0
 43
100.0
  0
INSERT
  5
1848A
330
17754
100
AcDbEntity
  8
寸法
 62
     0
 48
50.0
370
    -2
100
AcDbBlockReference
  2
_DOTSMALL
 10
8501.902964380297
 20
5179.727234386649
 30
0.0
 41
100.0
 42
100.0
 43
100.0
 50
180.0
  0
MTEXT
  5
1848B
330
17754
100
AcDbEntity
  8
寸法
 62
     7
 48
50.0
100
AcDbMText
 10
8815.388245754533
 20
5279.727234386649
 30
0.0
 40
120.0
 41
0.0
 71
     5
 72
     1
  1
\A1;50
  7
STYLE1
 73
     1
 44
1.0
1001
ACAD
1000
MTEXTBEGIN
1070
    73
1070
     1
1070
    44
1040
1.0
1070
    74
1070
     0
1000
MTEXTEND
  0
POINT
  5
1848C
330
17754
100
AcDbEntity
  8
DEFPOINTS
 62
     0
 48
50.0
100
AcDbPoint
 10
8501.902964380297
 20
4967.185649128408
 30
0.0
  0
POINT
  5
1848D
330
17754
100
AcDbEntity
  8
DEFPOINTS
 62
     0
 48
50.0
100
AcDbPoint
 10
8451.902964380296
 20
4967.18564912841
 30
0.0
  0
POINT
  5
1848E
330
17754
100
AcDbEntity
  8
DEFPOINTS
 62
     0
 48
50.0
100
AcDbPoint
 10
8451.902964380296
 20
5179.727234386649
 30
0.0
  0
ENDBLK
  5
17761
330
17754
100
AcDbEntity
  8
0
 48
50.0
100
AcDbBlockEnd
  0
BLOCK
  5
17F15
330
17F0B
100
AcDbEntity
  8
0
 48
50.0
100
AcDbBlockBegin
  2
*D6
 70
     1
 10
0.0
 20
0.0
 30
0.0
  3
*D6
  1

  0
LINE
  5
1847B
330
17F0B
100
AcDbEntity
  8
寸法
 62
     0
 48
50.0
370
    -2
100
AcDbLine
 10
10367.70034618777
 20
4724.185649128406
 30
0.0
 11
9782.791704790524
 21
4724.185649128407
 31
0.0
  0
LINE
  5
1847C
330
17F0B
100
AcDbEntity
  8
寸法
 62
     0
 48
50.0
370
    -2
100
AcDbLine
 10
10367.70034618777
 20
2954.185649128406
 30
0.0
 11
9782.791704790522
 21
2954.185649128406
 31
0.0
  0
LINE
  5
1847D
330
17F0B
100
AcDbEntity
  8
寸法
 62
     0
 48
50.0
370
    -2
100
AcDbLine
 10
9842.791704790522
 20
4724.185649128407
 30
0.0
 11
9842.791704790521
 21
2954.185649128406
 31
0.0
  0
INSERT
  5
1847E
330
17F0B
100
AcDbEntity
  8
寸法
 62
     0
 48
50.0
370
    -2
100
AcDbBlockReference
  2
_DOTSMALL
 10
9842.791704790522
 20
4724.185649128407
 30
0.0
 41
100.0
 42
100.0
 43
100.0
 50
90.0
  0
INSERT
  5
1847F
330
17F0B
100
AcDbEntity
  8
寸法
 62
     0
 48
50.0
370
    -2
100
AcDbBlockReference
  2
_DOTSMALL
 10
9842.791704790521
 20
2954.185649128406
 30
0.0
 41
100.0
 42
100.0
 43
100.0
 50
270.0
  0
MTEXT
  5
18480
330
17F0B
100
AcDbEntity
  8
寸法
 62
     7
 48
50.0
100
AcDbMText
 10
9742.791704790521
 20
3839.185649128409
 30
0.0
 40
120.0
 41
0.0
 71
     5
 72
     1
  1
\A1;有効開口部高サ1770
  7
STYLE1
 11
0.0000000000000001
 21
1.0
 31
0.0
 73
     1
 44
1.0
1001
ACAD
1000
MTEXTBEGIN
1070
    73
1070
     1
1070
    44
1040
1.0
1070
    74
1070
     0
1000
MTEXTEND
  0
POINT
  5
18481
330
17F0B
100
AcDbEntity
  8
DEFPOINTS
 62
     0
 48
50.0
100
AcDbPoint
 10
10387.70034618777
 20
4724.185649128406
 30
0.0
  0
POINT
  5
18482
330
17F0B
100
AcDbEntity
  8
DEFPOINTS
 62
     0
 48
50.0
100
AcDbPoint
 10
10387.70034618777
 20
2954.185649128406
 30
0.0
  0
POINT
  5
18483
330
17F0B
100
AcDbEntity
  8
DEFPOINTS
 62
     0
 48
50.0
100
AcDbPoint
 10
9842.791704790521
 20
2954.185649128406
 30
0.0
  0
ENDBLK
  5
17F16
330
17F0B
100
AcDbEntity
  8
0
 48
50.0
100
AcDbBlockEnd
  0
BLOCK
  5
17F21
330
17F17
100
AcDbEntity
  8
0
 48
50.0
100
AcDbBlockBegin
  2
*D7
 70
     1
 10
0.0
 20
0.0
 30
0.0
  3
*D7
  1

  0
LINE
  5
18472
330
17F17
100
AcDbEntity
  8
寸法
 62
     0
 48
50.0
370
    -2
100
AcDbLine
 10
10367.70034618777
 20
4732.185649128406
 30
0.0
 11
9483.950217004517
 21
4732.185649128407
 31
0.0
  0
LINE
  5
18473
330
17F17
100
AcDbEntity
  8
寸法
 62
     0
 48
50.0
370
    -2
100
AcDbLine
 10
10367.70034618777
 20
2942.185649128406
 30
0.0
 11
9483.950217004517
 21
2942.185649128406
 31
0.0
  0
LINE
  5
18474
330
17F17
100
AcDbEntity
  8
寸法
 62
     0
 48
50.0
370
    -2
100
AcDbLine
 10
9543.950217004519
 20
4732.185649128407
 30
0.0
 11
9543.950217004516
 21
2942.185649128406
 31
0.0
  0
INSERT
  5
18475
330
17F17
100
AcDbEntity
  8
寸法
 62
     0
 48
50.0
370
    -2
100
AcDbBlockReference
  2
_DOTSMALL
 10
9543.950217004519
 20
4732.185649128407
 30
0.0
 41
100.0
 42
100.0
 43
100.0
 50
90.0
  0
INSERT
  5
18476
330
17F17
100
AcDbEntity
  8
寸法
 62
     0
 48
50.0
370
    -2
100
AcDbBlockReference
  2
_DOTSMALL
 10
9543.950217004516
 20
2942.185649128406
 30
0.0
 41
100.0
 42
100.0
 43
100.0
 50
270.0
  0
MTEXT
  5
18477
330
17F17
100
AcDbEntity
  8
寸法
 62
     7
 48
50.0
100
AcDbMText
 10
9443.950217004516
 20
3837.185649128409
 30
0.0
 40
120.0
 41
0.0
 71
     5
 72
     1
  1
\A1;1790
  7
STYLE1
 11
0.0000000000000001
 21
1.0
 31
0.0
 73
     1
 44
1.0
1001
ACAD
1000
MTEXTBEGIN
1070
    73
1070
     1
1070
    44
1040
1.0
1070
    74
1070
     0
1000
MTEXTEND
  0
POINT
  5
18478
330
17F17
100
AcDbEntity
  8
DEFPOINTS
 62
     0
 48
50.0
100
AcDbPoint
 10
10387.70034618777
 20
4732.185649128406
 30
0.0
  0
POINT
  5
18479
330
17F17
100
AcDbEntity
  8
DEFPOINTS
 62
     0
 48
50.0
100
AcDbPoint
 10
10387.70034618777
 20
2942.185649128406
 30
0.0
  0
POINT
  5
1847A
330
17F17
100
AcDbEntity
  8
DEFPOINTS
 62
     0
 48
50.0
100
AcDbPoint
 10
9543.950217004516
 20
2942.185649128406
 30
0.0
  0
ENDBLK
  5
17F22
330
17F17
100
AcDbEntity
  8
0
 48
50.0
100
AcDbBlockEnd
  0
BLOCK
  5
17F2D
330
17F23
100
AcDbEntity
  8
0
 48
50.0
100
AcDbBlockBegin
  2
*D8
 70
     1
 10
0.0
 20
0.0
 30
0.0
  3
*D8
  1

  0
LINE
  5
18469
330
17F23
100
AcDbEntity
  8
寸法
 62
     0
 48
50.0
370
    -2
100
AcDbLine
 10
10367.70034618777
 20
2892.185649128406
 30
0.0
 11
9183.950217004515
 21
2892.185649128407
 31
0.0
  0
LINE
  5
1846A
330
17F23
100
AcDbEntity
  8
寸法
 62
     0
 48
50.0
370
    -2
100
AcDbLine
 10
10307.70034618777
 20
4967.185649128411
 30
0.0
 11
9183.950217004516
 21
4967.185649128412
 31
0.0
  0
LINE
  5
1846B
330
17F23
100
AcDbEntity
  8
寸法
 62
     0
 48
50.0
370
    -2
100
AcDbLine
 10
9243.950217004515
 20
2892.185649128406
 30
0.0
 11
9243.950217004515
 21
4967.185649128412
 31
0.0
  0
INSERT
  5
1846C
330
17F23
100
AcDbEntity
  8
寸法
 62
     0
 48
50.0
370
    -2
100
AcDbBlockReference
  2
_DOTSMALL
 10
9243.950217004515
 20
2892.185649128406
 30
0.0
 41
100.0
 42
100.0
 43
100.0
 50
270.0
  0
INSERT
  5
1846D
330
17F23
100
AcDbEntity
  8
寸法
 62
     0
 48
50.0
370
    -2
100
AcDbBlockReference
  2
_DOTSMALL
 10
9243.950217004515
 20
4967.185649128412
 30
0.0
 41
100.0
 42
100.0
 43
100.0
 50
90.0
  0
MTEXT
  5
1846E
330
17F23
100
AcDbEntity
  8
寸法
 62
     7
 48
50.0
100
AcDbMText
 10
9143.938405980893
 20
3929.685649128411
 30
0.0
 40
120.0
 41
0.0
 71
     5
 72
     1
  1
\A1;2075
  7
STYLE1
 11
0.0000000000000001
 21
1.0
 31
0.0
 73
     1
 44
1.0
1001
ACAD
1000
MTEXTBEGIN
1070
    73
1070
     1
1070
    44
1040
1.0
1070
    74
1070
     0
1000
MTEXTEND
  0
POINT
  5
1846F
330
17F23
100
AcDbEntity
  8
DEFPOINTS
 62
     0
 48
50.0
100
AcDbPoint
 10
10387.70034618777
 20
2892.185649128406
 30
0.0
  0
POINT
  5
18470
330
17F23
100
AcDbEntity
  8
DEFPOINTS
 62
     0
 48
50.0
100
AcDbPoint
 10
10327.70034618777
 20
4967.185649128411
 30
0.0
  0
POINT
  5
18471
330
17F23
100
AcDbEntity
  8
DEFPOINTS
 62
     0
 48
50.0
100
AcDbPoint
 10
9243.950217004515
 20
4967.185649128412
 30
0.0
  0
ENDBLK
  5
17F2E
330
17F23
100
AcDbEntity
  8
0
 48
50.0
100
AcDbBlockEnd
  0
BLOCK
  5
17F48
330
17F3C
100
AcDbEntity
  8
0
 48
50.0
100
AcDbBlockBegin
  2
*D9
 70
     1
 10
0.0
 20
0.0
 30
0.0
  3
*D9
  1

  0
LINE
  5
1845E
330
17F3C
100
AcDbEntity
  8
寸法
 62
     0
 48
50.0
370
    -2
100
AcDbLine
 10
10367.70034618777
 20
2942.185649128406
 30
0.0
 11
9483.950217004517
 21
2942.185649128406
 31
0.0
  0
LINE
  5
1845F
330
17F3C
100
AcDbEntity
  8
寸法
 62
     0
 48
50.0
370
    -2
100
AcDbLine
 10
10312.70034618777
 20
2892.185649128406
 30
0.0
 11
9483.950217004517
 21
2892.185649128406
 31
0.0
  0
LINE
  5
18460
330
17F3C
100
AcDbEntity
  8
寸法
 62
     0
 48
50.0
370
    -2
100
AcDbLine
 10
9543.950217004516
 20
2942.185649128406
 30
0.0
 11
9543.950217004516
 21
3042.185649128406
 31
0.0
  0
LINE
  5
18461
330
17F3C
100
AcDbEntity
  8
寸法
 62
     0
 48
50.0
370
    -2
100
AcDbLine
 10
9543.950217004516
 20
2892.185649128406
 30
0.0
 11
9543.950217004516
 21
2480.091160939428
 31
0.0
  0
LINE
  5
18462
330
17F3C
100
AcDbEntity
  8
寸法
 62
     0
 48
50.0
370
    -2
100
AcDbLine
 10
9543.950217004516
 20
2942.185649128406
 30
0.0
 11
9543.950217004516
 21
2892.185649128406
 31
0.0
  0
INSERT
  5
18463
330
17F3C
100
AcDbEntity
  8
寸法
 62
     0
 48
50.0
370
    -2
100
AcDbBlockReference
  2
_DOTSMALL
 10
9543.950217004516
 20
2942.185649128406
 30
0.0
 41
100.0
 42
100.0
 43
100.0
 50
270.0
  0
INSERT
  5
18464
330
17F3C
100
AcDbEntity
  8
寸法
 62
     0
 48
50.0
370
    -2
100
AcDbBlockReference
  2
_DOTSMALL
 10
9543.950217004516
 20
2892.185649128406
 30
0.0
 41
100.0
 42
100.0
 43
100.0
 50
90.0
  0
MTEXT
  5
18465
330
17F3C
100
AcDbEntity
  8
寸法
 62
     7
 48
50.0
100
AcDbMText
 10
9443.950217004516
 20
2586.138405033918
 30
0.0
 40
120.0
 41
0.0
 71
     5
 72
     1
  1
\A1;50
  7
STYLE1
 11
0.0000000000000001
 21
1.0
 31
0.0
 73
     1
 44
1.0
1001
ACAD
1000
MTEXTBEGIN
1070
    73
1070
     1
1070
    44
1040
1.0
1070
    74
1070
     0
1000
MTEXTEND
  0
POINT
  5
18466
330
17F3C
100
AcDbEntity
  8
DEFPOINTS
 62
     0
 48
50.0
100
AcDbPoint
 10
10387.70034618777
 20
2942.185649128406
 30
0.0
  0
POINT
  5
18467
330
17F3C
100
AcDbEntity
  8
DEFPOINTS
 62
     0
 48
50.0
100
AcDbPoint
 10
10332.70034618777
 20
2892.185649128406
 30
0.0
  0
POINT
  5
18468
330
17F3C
100
AcDbEntity
  8
DEFPOINTS
 62
     0
 48
50.0
100
AcDbPoint
 10
9543.950217004516
 20
2892.185649128406
 30
0.0
  0
ENDBLK
  5
17F49
330
17F3C
100
AcDbEntity
  8
0
 48
50.0
100
AcDbBlockEnd
  0
BLOCK
  5
17F54
330
17F4A
100
AcDbEntity
  8
0
 48
50.0
100
AcDbBlockBegin
  2
*D10
 70
     1
 10
0.0
 20
0.0
 30
0.0
  3
*D10
  1

  0
LINE
  5
18455
330
17F4A
100
AcDbEntity
  8
寸法
 62
     0
 48
50.0
370
    -2
100
AcDbLine
 10
12617.70034618778
 20
2892.185649128406
 30
0.0
 11
13217.80697012936
 21
2892.185649128406
 31
0.0
  0
LINE
  5
18456
330
17F4A
100
AcDbEntity
  8
寸法
 62
     0
 48
50.0
370
    -2
100
AcDbLine
 10
12697.70034618777
 20
4912.185649128407
 30
0.0
 11
13217.80697012936
 21
4912.185649128407
 31
0.0
  0
LINE
  5
18457
330
17F4A
100
AcDbEntity
  8
寸法
 62
     0
 48
50.0
370
    -2
100
AcDbLine
 10
13157.80697012936
 20
2892.185649128406
 30
0.0
 11
13157.80697012936
 21
4912.185649128407
 31
0.0
  0
INSERT
  5
18458
330
17F4A
100
AcDbEntity
  8
寸法
 62
     0
 48
50.0
370
    -2
100
AcDbBlockReference
  2
_DOTSMALL
 10
13157.80697012936
 20
2892.185649128406
 30
0.0
 41
100.0
 42
100.0
 43
100.0
 50
270.0
  0
INSERT
  5
18459
330
17F4A
100
AcDbEntity
  8
寸法
 62
     0
 48
50.0
370
    -2
100
AcDbBlockReference
  2
_DOTSMALL
 10
13157.80697012936
 20
4912.185649128407
 30
0.0
 41
100.0
 42
100.0
 43
100.0
 50
90.0
  0
MTEXT
  5
1845A
330
17F4A
100
AcDbEntity
  8
寸法
 62
     7
 48
50.0
100
AcDbMText
 10
13057.79515910574
 20
3914.238330375343
 30
0.0
 40
120.0
 41
0.0
 71
     5
 72
     1
  1
\A1;2020
  7
STYLE1
 11
0.0000000000000001
 21
1.0
 31
0.0
 73
     1
 44
1.0
1001
ACAD
1000
MTEXTBEGIN
1070
    73
1070
     1
1070
    44
1040
1.0
1070
    74
1070
     0
1000
MTEXTEND
  0
POINT
  5
1845B
330
17F4A
100
AcDbEntity
  8
DEFPOINTS
 62
     0
 48
50.0
100
AcDbPoint
 10
12597.70034618778
 20
2892.185649128406
 30
0.0
  0
POINT
  5
1845C
330
17F4A
100
AcDbEntity
  8
DEFPOINTS
 62
     0
 48
50.0
100
AcDbPoint
 10
12677.70034618777
 20
4912.185649128407
 30
0.0
  0
POINT
  5
1845D
330
17F4A
100
AcDbEntity
  8
DEFPOINTS
 62
     0
 48
50.0
100
AcDbPoint
 10
13157.80697012936
 20
4912.185649128407
 30
0.0
  0
ENDBLK
  5
17F55
330
17F4A
100
AcDbEntity
  8
0
 48
50.0
100
AcDbBlockEnd
  0
BLOCK
  5
17F60
330
17F56
100
AcDbEntity
  8
0
 48
50.0
100
AcDbBlockBegin
  2
*D11
 70
     1
 10
0.0
 20
0.0
 30
0.0
  3
*D11
  1

  0
LINE
  5
1844C
330
17F56
100
AcDbEntity
  8
寸法
 62
     0
 48
50.0
370
    -2
100
AcDbLine
 10
12597.70034618777
 20
4933.99632874006
 30
0.0
 11
12597.70034618777
 21
5425.843102707711
 31
0.0
  0
LINE
  5
1844D
330
17F56
100
AcDbEntity
  8
寸法
 62
     0
 48
50.0
370
    -2
100
AcDbLine
 10
10387.70034618777
 20
4983.187267251383
 30
0.0
 11
10387.70034618777
 21
5425.843102707711
 31
0.0
  0
LINE
  5
1844E
330
17F56
100
AcDbEntity
  8
寸法
 62
     0
 48
50.0
370
    -2
100
AcDbLine
 10
12597.70034618777
 20
5365.84310270771
 30
0.0
 11
10387.70034618777
 21
5365.84310270771
 31
0.0
  0
INSERT
  5
1844F
330
17F56
100
AcDbEntity
  8
寸法
 62
     0
 48
50.0
370
    -2
100
AcDbBlockReference
  2
_DOTSMALL
 10
12597.70034618777
 20
5365.84310270771
 30
0.0
 41
100.0
 42
100.0
 43
100.0
  0
INSERT
  5
18450
330
17F56
100
AcDbEntity
  8
寸法
 62
     0
 48
50.0
370
    -2
100
AcDbBlockReference
  2
_DOTSMALL
 10
10387.70034618777
 20
5365.84310270771
 30
0.0
 41
100.0
 42
100.0
 43
100.0
 50
180.0
  0
MTEXT
  5
18451
330
17F56
100
AcDbEntity
  8
寸法
 62
     7
 48
50.0
100
AcDbMText
 10
11482.34508325829
 20
5465.854913731332
 30
0.0
 40
120.0
 41
0.0
 71
     5
 72
     1
  1
\A1;柱外寸法2210
  7
STYLE1
 73
     1
 44
1.0
1001
ACAD
1000
MTEXTBEGIN
1070
    73
1070
     1
1070
    44
1040
1.0
1070
    74
1070
     0
1000
MTEXTEND
  0
POINT
  5
18452
330
17F56
100
AcDbEntity
  8
DEFPOINTS
 62
     0
 48
50.0
100
AcDbPoint
 10
12597.70034618777
 20
4913.99632874006
 30
0.0
  0
POINT
  5
18453
330
17F56
100
AcDbEntity
  8
DEFPOINTS
 62
     0
 48
50.0
100
AcDbPoint
 10
10387.70034618777
 20
4963.187267251383
 30
0.0
  0
POINT
  5
18454
330
17F56
100
AcDbEntity
  8
DEFPOINTS
 62
     0
 48
50.0
100
AcDbPoint
 10
10387.70034618777
 20
5365.84310270771
 30
0.0
  0
ENDBLK
  5
17F61
330
17F56
100
AcDbEntity
  8
0
 48
50.0
100
AcDbBlockEnd
  0
BLOCK
  5
17F6E
330
17F62
100
AcDbEntity
  8
0
 48
50.0
100
AcDbBlockBegin
  2
*D12
 70
     1
 10
0.0
 20
0.0
 30
0.0
  3
*D12
  1

  0
LINE
  5
18441
330
17F62
100
AcDbEntity
  8
寸法
 62
     0
 48
50.0
370
    -2
100
AcDbLine
 10
10387.70034618777
 20
4983.187267251383
 30
0.0
 11
10387.70034618777
 21
5425.843102707711
 31
0.0
  0
LINE
  5
18442
330
17F62
100
AcDbEntity
  8
寸法
 62
     0
 48
50.0
370
    -2
100
AcDbLine
 10
10327.70034618777
 20
4987.18564912841
 30
0.0
 11
10327.70034618777
 21
5425.843102707711
 31
0.0
  0
LINE
  5
18443
330
17F62
100
AcDbEntity
  8
寸法
 62
     0
 48
50.0
370
    -2
100
AcDbLine
 10
10387.70034618777
 20
5365.84310270771
 30
0.0
 11
10487.70034618777
 21
5365.84310270771
 31
0.0
  0
LINE
  5
18444
330
17F62
100
AcDbEntity
  8
寸法
 62
     0
 48
50.0
370
    -2
100
AcDbLine
 10
10327.70034618777
 20
5365.84310270771
 30
0.0
 11
9908.424755636595
 21
5365.84310270771
 31
0.0
  0
LINE
  5
18445
330
17F62
100
AcDbEntity
  8
寸法
 62
     0
 48
50.0
370
    -2
100
AcDbLine
 10
10387.70034618777
 20
5365.84310270771
 30
0.0
 11
10327.70034618777
 21
5365.84310270771
 31
0.0
  0
INSERT
  5
18446
330
17F62
100
AcDbEntity
  8
寸法
 62
     0
 48
50.0
370
    -2
100
AcDbBlockReference
  2
_DOTSMALL
 10
10387.70034618777
 20
5365.84310270771
 30
0.0
 41
100.0
 42
100.0
 43
100.0
 50
180.0
  0
INSERT
  5
18447
330
17F62
100
AcDbEntity
  8
寸法
 62
     0
 48
50.0
370
    -2
100
AcDbBlockReference
  2
_DOTSMALL
 10
10327.70034618777
 20
5365.84310270771
 30
0.0
 41
100.0
 42
100.0
 43
100.0
  0
MTEXT
  5
18448
330
17F62
100
AcDbEntity
  8
寸法
 62
     7
 48
50.0
100
AcDbMText
 10
10018.06255091218
 20
5465.843102707711
 30
0.0
 40
120.0
 41
0.0
 71
     5
 72
     1
  1
\A1;60
  7
STYLE1
 73
     1
 44
1.0
1001
ACAD
1000
MTEXTBEGIN
1070
    73
1070
     1
1070
    44
1040
1.0
1070
    74
1070
     0
1000
MTEXTEND
  0
POINT
  5
18449
330
17F62
100
AcDbEntity
  8
DEFPOINTS
 62
     0
 48
50.0
100
AcDbPoint
 10
10387.70034618777
 20
4963.187267251383
 30
0.0
  0
POINT
  5
1844A
330
17F62
100
AcDbEntity
  8
DEFPOINTS
 62
     0
 48
50.0
100
AcDbPoint
 10
10327.70034618777
 20
4967.185649128411
 30
0.0
  0
POINT
  5
1844B
330
17F62
100
AcDbEntity
  8
DEFPOINTS
 62
     0
 48
50.0
100
AcDbPoint
 10
10327.70034618777
 20
5365.84310270771
 30
0.0
  0
ENDBLK
  5
17F6F
330
17F62
100
AcDbEntity
  8
0
 48
50.0
100
AcDbBlockEnd
  0
BLOCK
  5
17F7A
330
17F70
100
AcDbEntity
  8
0
 48
50.0
100
AcDbBlockBegin
  2
*D13
 70
     1
 10
0.0
 20
0.0
 30
0.0
  3
*D13
  1

  0
LINE
  5
18438
330
17F70
100
AcDbEntity
  8
寸法
 62
     0
 48
50.0
370
    -2
100
AcDbLine
 10
12677.70034618777
 20
4932.185649128407
 30
0.0
 11
12677.70034618777
 21
5645.044936382002
 31
0.0
  0
LINE
  5
18439
330
17F70
100
AcDbEntity
  8
寸法
 62
     0
 48
50.0
370
    -2
100
AcDbLine
 10
10327.70034618777
 20
4987.18564912841
 30
0.0
 11
10327.70034618777
 21
5645.044936382002
 31
0.0
  0
LINE
  5
1843A
330
17F70
100
AcDbEntity
  8
寸法
 62
     0
 48
50.0
370
    -2
100
AcDbLine
 10
12677.70034618777
 20
5585.044936382002
 30
0.0
 11
10327.70034618777
 21
5585.044936382002
 31
0.0
  0
INSERT
  5
1843B
330
17F70
100
AcDbEntity
  8
寸法
 62
     0
 48
50.0
370
    -2
100
AcDbBlockReference
  2
_DOTSMALL
 10
12677.70034618777
 20
5585.044936382002
 30
0.0
 41
100.0
 42
100.0
 43
100.0
  0
INSERT
  5
1843C
330
17F70
100
AcDbEntity
  8
寸法
 62
     0
 48
50.0
370
    -2
100
AcDbBlockReference
  2
_DOTSMALL
 10
10327.70034618777
 20
5585.044936382002
 30
0.0
 41
100.0
 42
100.0
 43
100.0
 50
180.0
  0
MTEXT
  5
1843D
330
17F70
100
AcDbEntity
  8
寸法
 62
     7
 48
50.0
100
AcDbMText
 10
11562.04420028024
 20
5685.056747405623
 30
0.0
 40
120.0
 41
0.0
 71
     5
 72
     1
  1
\A1;2350
  7
STYLE1
 73
     1
 44
1.0
1001
ACAD
1000
MTEXTBEGIN
1070
    73
1070
     1
1070
    44
1040
1.0
1070
    74
1070
     0
1000
MTEXTEND
  0
POINT
  5
1843E
330
17F70
100
AcDbEntity
  8
DEFPOINTS
 62
     0
 48
50.0
100
AcDbPoint
 10
12677.70034618777
 20
4912.185649128407
 30
0.0
  0
POINT
  5
1843F
330
17F70
100
AcDbEntity
  8
DEFPOINTS
 62
     0
 48
50.0
100
AcDbPoint
 10
10327.70034618777
 20
4967.185649128411
 30
0.0
  0
POINT
  5
18440
330
17F70
100
AcDbEntity
  8
DEFPOINTS
 62
     0
 48
50.0
100
AcDbPoint
 10
10327.70034618777
 20
5585.044936382002
 30
0.0
  0
ENDBLK
  5
17F7B
330
17F70
100
AcDbEntity
  8
0
 48
50.0
100
AcDbBlockEnd
  0
BLOCK
  5
17F87
330
17F7C
100
AcDbEntity
  8
0
 48
50.0
100
AcDbBlockBegin
  2
*D14
 70
     1
 10
0.0
 20
0.0
 30
0.0
  3
*D14
  1

  0
LINE
  5
1842E
330
17F7C
100
AcDbEntity
  8
寸法
 62
     0
 48
50.0
370
    -2
100
AcDbLine
 10
12597.70034618777
 20
4933.99632874006
 30
0.0
 11
12597.70034618777
 21
5425.843102707711
 31
0.0
  0
LINE
  5
1842F
330
17F7C
100
AcDbEntity
  8
寸法
 62
     0
 48
50.0
370
    -2
100
AcDbLine
 10
12677.70034618777
 20
4932.185649128407
 30
0.0
 11
12677.70034618777
 21
5425.843102707711
 31
0.0
  0
LINE
  5
18430
330
17F7C
100
AcDbEntity
  8
寸法
 62
     0
 48
50.0
370
    -2
100
AcDbLine
 10
12597.70034618777
 20
5365.84310270771
 30
0.0
 11
12677.70034618777
 21
5365.84310270771
 31
0.0
  0
LINE
  5
18431
330
17F7C
100
AcDbEntity
  8
寸法
 62
     0
 48
50.0
370
    -2
100
AcDbLine
 10
12677.70034618777
 20
5365.84310270771
 30
0.0
 11
12989.79483437675
 21
5365.84310270771
 31
0.0
  0
INSERT
  5
18432
330
17F7C
100
AcDbEntity
  8
寸法
 62
     0
 48
50.0
370
    -2
100
AcDbBlockReference
  2
_DOTSMALL
 10
12597.70034618777
 20
5365.84310270771
 30
0.0
 41
100.0
 42
100.0
 43
100.0
 50
180.0
  0
INSERT
  5
18433
330
17F7C
100
AcDbEntity
  8
寸法
 62
     0
 48
50.0
370
    -2
100
AcDbBlockReference
  2
_DOTSMALL
 10
12677.70034618777
 20
5365.84310270771
 30
0.0
 41
100.0
 42
100.0
 43
100.0
  0
MTEXT
  5
18434
330
17F7C
100
AcDbEntity
  8
寸法
 62
     7
 48
50.0
100
AcDbMText
 10
12883.74759028226
 20
5465.843102707711
 30
0.0
 40
120.0
 41
0.0
 71
     5
 72
     1
  1
\A1;80
  7
STYLE1
 73
     1
 44
1.0
1001
ACAD
1000
MTEXTBEGIN
1070
    73
1070
     1
1070
    44
1040
1.0
1070
    74
1070
     0
1000
MTEXTEND
  0
POINT
  5
18435
330
17F7C
100
AcDbEntity
  8
DEFPOINTS
 62
     0
 48
50.0
100
AcDbPoint
 10
12597.70034618777
 20
4913.99632874006
 30
0.0
  0
POINT
  5
18436
330
17F7C
100
AcDbEntity
  8
DEFPOINTS
 62
     0
 48
50.0
100
AcDbPoint
 10
12677.70034618777
 20
4912.185649128407
 30
0.0
  0
POINT
  5
18437
330
17F7C
100
AcDbEntity
  8
DEFPOINTS
 62
     0
 48
50.0
100
AcDbPoint
 10
12677.70034618777
 20
5365.84310270771
 30
0.0
  0
ENDBLK
  5
17F88
330
17F7C
100
AcDbEntity
  8
0
 48
50.0
100
AcDbBlockEnd
  0
BLOCK
  5
17F94
330
17F89
100
AcDbEntity
  8
0
 48
50.0
100
AcDbBlockBegin
  2
*D15
 70
     1
 10
0.0
 20
0.0
 30
0.0
  3
*D15
  1

  0
LINE
  5
18424
330
17F89
100
AcDbEntity
  8
寸法
 62
     0
 48
50.0
370
    -2
100
AcDbLine
 10
10327.10463247887
 20
4966.483356198069
 30
0.0
 11
9711.170193373604
 21
4984.197506472398
 31
0.0
  0
LINE
  5
18425
330
17F89
100
AcDbEntity
  8
寸法
 62
     0
 48
50.0
370
    -2
100
AcDbLine
 10
10323.05117692225
 20
4825.541632432355
 30
0.0
 11
9707.116737816978
 21
4843.255782706684
 31
0.0
  0
LINE
  5
18426
330
17F89
100
AcDbEntity
  8
寸法
 62
     0
 48
50.0
370
    -2
100
AcDbLine
 10
9767.091939419408
 20
4841.530908001737
 30
0.0
 11
9771.145394976034
 21
4982.472631767451
 31
0.0
  0
LINE
  5
18427
330
17F89
100
AcDbEntity
  8
寸法
 62
     0
 48
50.0
370
    -2
100
AcDbLine
 10
9771.145394976034
 20
4982.472631767451
 30
0.0
 11
9781.494643205721
 21
5342.323841382036
 31
0.0
  0
INSERT
  5
18428
330
17F89
100
AcDbEntity
  8
寸法
 62
     0
 48
50.0
370
    -2
100
AcDbBlockReference
  2
_DOTSMALL
 10
9767.091939419408
 20
4841.530908001737
 30
0.0
 41
100.0
 42
100.0
 43
100.0
 50
268.3526390256378
  0
INSERT
  5
18429
330
17F89
100
AcDbEntity
  8
寸法
 62
     0
 48
50.0
370
    -2
100
AcDbBlockReference
  2
_DOTSMALL
 10
9771.145394976034
 20
4982.472631767451
 30
0.0
 41
100.0
 42
100.0
 43
100.0
 50
88.35263902563776
  0
MTEXT
  5
1842A
330
17F89
100
AcDbEntity
  8
寸法
 62
     7
 48
50.0
100
AcDbMText
 10
9677.798745340949
 20
5215.252362418349
 30
0.0
 40
120.0
 41
0.0
 71
     5
 72
     1
  1
\A1;141
  7
STYLE1
 11
0.0287479117491237
 21
0.9995866933738488
 31
0.0
 73
     1
 44
1.0
1001
ACAD
1000
MTEXTBEGIN
1070
    73
1070
     1
1070
    44
1040
1.0
1070
    74
1070
     0
1000
MTEXTEND
  0
POINT
  5
1842B
330
17F89
100
AcDbEntity
  8
DEFPOINTS
 62
     0
 48
50.0
100
AcDbPoint
 10
10347.09636634635
 20
4965.908397963087
 30
0.0
  0
POINT
  5
1842C
330
17F89
100
AcDbEntity
  8
DEFPOINTS
 62
     0
 48
50.0
100
AcDbPoint
 10
10343.04291078972
 20
4824.966674197373
 30
0.0
  0
POINT
  5
1842D
330
17F89
100
AcDbEntity
  8
DEFPOINTS
 62
     0
 48
50.0
100
AcDbPoint
 10
9767.091939419408
 20
4841.530908001737
 30
0.0
  0
ENDBLK
  5
17F95
330
17F89
100
AcDbEntity
  8
0
 48
50.0
100
AcDbBlockEnd
  0
BLOCK
  5
19205
330
191FB
100
AcDbEntity
  8
0
 48
50.0
100
AcDbBlockBegin
  2
*D16
 70
     1
 10
0.0
 20
0.0
 30
0.0
  3
*D16
  1

  0
LINE
  5
1941E
330
191FB
100
AcDbEntity
  8
寸法
 62
     0
 48
50.0
370
    -2
100
AcDbLine
 10
6457.902964380291
 20
7317.222912203196
 30
0.0
 11
6457.902964380291
 21
6750.053747242718
 31
0.0
  0
LINE
  5
1941F
330
191FB
100
AcDbEntity
  8
寸法
 62
     0
 48
50.0
370
    -2
100
AcDbLine
 10
5771.902964380291
 20
7317.222912203121
 30
0.0
 11
5771.902964380291
 21
6750.053747242718
 31
0.0
  0
LINE
  5
19420
330
191FB
100
AcDbEntity
  8
寸法
 62
     0
 48
50.0
370
    -2
100
AcDbLine
 10
6457.902964380291
 20
6810.053747242719
 30
0.0
 11
5771.902964380291
 21
6810.053747242719
 31
0.0
  0
INSERT
  5
19421
330
191FB
100
AcDbEntity
  8
寸法
 62
     0
 48
50.0
370
    -2
100
AcDbBlockReference
  2
_DOTSMALL
 10
6457.902964380291
 20
6810.053747242719
 30
0.0
 41
100.0
 42
100.0
 43
100.0
  0
INSERT
  5
19422
330
191FB
100
AcDbEntity
  8
寸法
 62
     0
 48
50.0
370
    -2
100
AcDbBlockReference
  2
_DOTSMALL
 10
5771.902964380291
 20
6810.053747242719
 30
0.0
 41
100.0
 42
100.0
 43
100.0
 50
180.0
  0
MTEXT
  5
19423
330
191FB
100
AcDbEntity
  8
寸法
 62
     7
 48
50.0
100
AcDbMText
 10
6114.902964380291
 20
7010.053747242719
 30
0.0
 40
120.0
 41
0.0
 71
     5
 72
     1
  1
\A1;有効開口部間口\P686
  7
STYLE1
 73
     1
 44
1.0
1001
ACAD
1000
MTEXTBEGIN
1070
    73
1070
     1
1070
    44
1040
1.0
1070
    74
1070
     0
1000
MTEXTEND
  0
POINT
  5
19424
330
191FB
100
AcDbEntity
  8
DEFPOINTS
 62
     0
 48
50.0
100
AcDbPoint
 10
6457.902964380291
 20
7337.222912203195
 30
0.0
  0
POINT
  5
19425
330
191FB
100
AcDbEntity
  8
DEFPOINTS
 62
     0
 48
50.0
100
AcDbPoint
 10
5771.902964380291
 20
7337.222912203121
 30
0.0
  0
POINT
  5
19426
330
191FB
100
AcDbEntity
  8
DEFPOINTS
 62
     0
 48
50.0
100
AcDbPoint
 10
5771.902964380291
 20
6810.053747242719
 30
0.0
  0
ENDBLK
  5
19206
330
191FB
100
AcDbEntity
  8
0
 48
50.0
100
AcDbBlockEnd
  0
BLOCK
  5
19211
330
19207
100
AcDbEntity
  8
0
 48
50.0
100
AcDbBlockBegin
  2
*D17
 70
     1
 10
0.0
 20
0.0
 30
0.0
  3
*D17
  1

  0
LINE
  5
19415
330
19207
100
AcDbEntity
  8
寸法
 62
     0
 48
50.0
370
    -2
100
AcDbLine
 10
7827.902964380292
 20
7317.222912203196
 30
0.0
 11
7827.902964380292
 21
6750.053747242718
 31
0.0
  0
LINE
  5
19416
330
19207
100
AcDbEntity
  8
寸法
 62
     0
 48
50.0
370
    -2
100
AcDbLine
 10
7141.902964380292
 20
7317.222912203121
 30
0.0
 11
7141.902964380292
 21
6750.053747242718
 31
0.0
  0
LINE
  5
19417
330
19207
100
AcDbEntity
  8
寸法
 62
     0
 48
50.0
370
    -2
100
AcDbLine
 10
7827.902964380292
 20
6810.053747242719
 30
0.0
 11
7141.902964380292
 21
6810.053747242719
 31
0.0
  0
INSERT
  5
19418
330
19207
100
AcDbEntity
  8
寸法
 62
     0
 48
50.0
370
    -2
100
AcDbBlockReference
  2
_DOTSMALL
 10
7827.902964380292
 20
6810.053747242719
 30
0.0
 41
100.0
 42
100.0
 43
100.0
  0
INSERT
  5
19419
330
19207
100
AcDbEntity
  8
寸法
 62
     0
 48
50.0
370
    -2
100
AcDbBlockReference
  2
_DOTSMALL
 10
7141.902964380292
 20
6810.053747242719
 30
0.0
 41
100.0
 42
100.0
 43
100.0
 50
180.0
  0
MTEXT
  5
1941A
330
19207
100
AcDbEntity
  8
寸法
 62
     7
 48
50.0
100
AcDbMText
 10
7484.902964380292
 20
7010.053747242719
 30
0.0
 40
120.0
 41
0.0
 71
     5
 72
     1
  1
\A1;有効開口部間口\P686
  7
STYLE1
 73
     1
 44
1.0
1001
ACAD
1000
MTEXTBEGIN
1070
    73
1070
     1
1070
    44
1040
1.0
1070
    74
1070
     0
1000
MTEXTEND
  0
POINT
  5
1941B
330
19207
100
AcDbEntity
  8
DEFPOINTS
 62
     0
 48
50.0
100
AcDbPoint
 10
7827.902964380292
 20
7337.222912203195
 30
0.0
  0
POINT
  5
1941C
330
19207
100
AcDbEntity
  8
DEFPOINTS
 62
     0
 48
50.0
100
AcDbPoint
 10
7141.902964380292
 20
7337.222912203121
 30
0.0
  0
POINT
  5
1941D
330
19207
100
AcDbEntity
  8
DEFPOINTS
 62
     0
 48
50.0
100
AcDbPoint
 10
7141.902964380292
 20
6810.053747242719
 30
0.0
  0
ENDBLK
  5
19212
330
19207
100
AcDbEntity
  8
0
 48
50.0
100
AcDbBlockEnd
  0
BLOCK
  5
1921D
330
19213
100
AcDbEntity
  8
0
 48
50.0
100
AcDbBlockBegin
  2
*D18
 70
     1
 10
0.0
 20
0.0
 30
0.0
  3
*D18
  1

  0
LINE
  5
19442
330
19213
100
AcDbEntity
  8
寸法
 62
     0
 48
50.0
370
    -2
100
AcDbLine
 10
8438.902964380295
 20
8205.363928354676
 30
0.0
 11
8894.086171780996
 21
8083.397955523448
 31
0.0
  0
LINE
  5
19443
330
19213
100
AcDbEntity
  8
寸法
 62
     0
 48
50.0
370
    -2
100
AcDbLine
 10
8438.90296438051
 20
7409.363928354672
 30
0.0
 11
8894.086171780996
 21
7287.397955523501
 31
0.0
  0
LINE
  5
19444
330
19213
100
AcDbEntity
  8
寸法
 62
     0
 48
50.0
370
    -2
100
AcDbLine
 10
8834.086171780997
 20
8099.474907069314
 30
0.0
 11
8834.086171780997
 21
7303.474907069369
 31
0.0
  0
INSERT
  5
19445
330
19213
100
AcDbEntity
  8
寸法
 62
     0
 48
50.0
370
    -2
100
AcDbBlockReference
  2
_DOTSMALL
 10
8834.086171780997
 20
8099.474907069314
 30
0.0
 41
100.0
 42
100.0
 43
100.0
 50
90.0
  0
INSERT
  5
19446
330
19213
100
AcDbEntity
  8
寸法
 62
     0
 48
50.0
370
    -2
100
AcDbBlockReference
  2
_DOTSMALL
 10
8834.086171780997
 20
7303.474907069369
 30
0.0
 41
100.0
 42
100.0
 43
100.0
 50
270.0
  0
MTEXT
  5
19447
330
19213
100
AcDbEntity
  8
寸法
 62
     7
 48
50.0
100
AcDbMText
 10
8734.086171780994
 20
7720.129620007395
 30
0.0
 40
120.0
 41
0.0
 71
     5
 72
     1
  1
\A1;796
  7
STYLE1
 11
0.0000000000000001
 21
1.0
 31
0.0
 73
     1
 44
1.0
1001
ACAD
1000
MTEXTBEGIN
1070
    73
1070
     1
1070
    44
1040
1.0
1070
    74
1070
     0
1000
MTEXTEND
  0
POINT
  5
19448
330
19213
100
AcDbEntity
  8
DEFPOINTS
 62
     0
 48
50.0
100
AcDbPoint
 10
8418.902964380295
 20
8210.7229122033
 30
0.0
  0
POINT
  5
19449
330
19213
100
AcDbEntity
  8
DEFPOINTS
 62
     0
 48
50.0
100
AcDbPoint
 10
8418.90296438051
 20
7414.722912203295
 30
0.0
  0
POINT
  5
1944A
330
19213
100
AcDbEntity
  8
DEFPOINTS
 62
     0
 48
50.0
100
AcDbPoint
 10
8834.086171780997
 20
7303.474907069369
 30
0.0
  0
ENDBLK
  5
1921E
330
19213
100
AcDbEntity
  8
0
 48
50.0
100
AcDbBlockEnd
  0
BLOCK
  5
19229
330
1921F
100
AcDbEntity
  8
0
 48
50.0
100
AcDbBlockBegin
  2
*D19
 70
     1
 10
0.0
 20
0.0
 30
0.0
  3
*D19
  1

  0
LINE
  5
19439
330
1921F
100
AcDbEntity
  8
寸法
 62
     0
 48
50.0
370
    -2
100
AcDbLine
 10
8438.902964380298
 20
9513.113928354687
 30
0.0
 11
8894.086171780996
 21
9391.147955523463
 31
0.0
  0
LINE
  5
1943A
330
1921F
100
AcDbEntity
  8
寸法
 62
     0
 48
50.0
370
    -2
100
AcDbLine
 10
8438.90296438051
 20
8240.113928354684
 30
0.0
 11
8894.086171780996
 21
8118.147955523516
 31
0.0
  0
LINE
  5
1943B
330
1921F
100
AcDbEntity
  8
寸法
 62
     0
 48
50.0
370
    -2
100
AcDbLine
 10
8834.086171780997
 20
9407.224907069331
 30
0.0
 11
8834.086171780997
 21
8134.224907069382
 31
0.0
  0
INSERT
  5
1943C
330
1921F
100
AcDbEntity
  8
寸法
 62
     0
 48
50.0
370
    -2
100
AcDbBlockReference
  2
_DOTSMALL
 10
8834.086171780997
 20
9407.224907069331
 30
0.0
 41
100.0
 42
100.0
 43
100.0
 50
90.0
  0
INSERT
  5
1943D
330
1921F
100
AcDbEntity
  8
寸法
 62
     0
 48
50.0
370
    -2
100
AcDbBlockReference
  2
_DOTSMALL
 10
8834.086171780997
 20
8134.224907069382
 30
0.0
 41
100.0
 42
100.0
 43
100.0
 50
270.0
  0
MTEXT
  5
1943E
330
1921F
100
AcDbEntity
  8
寸法
 62
     7
 48
50.0
100
AcDbMText
 10
8734.074360757373
 20
8770.724907069356
 30
0.0
 40
120.0
 41
0.0
 71
     5
 72
     1
  1
\A1;1273
  7
STYLE1
 11
0.0000000000000001
 21
1.0
 31
0.0
 73
     1
 44
1.0
1001
ACAD
1000
MTEXTBEGIN
1070
    73
1070
     1
1070
    44
1040
1.0
1070
    74
1070
     0
1000
MTEXTEND
  0
POINT
  5
1943F
330
1921F
100
AcDbEntity
  8
DEFPOINTS
 62
     0
 48
50.0
100
AcDbPoint
 10
8418.902964380299
 20
9518.472912203309
 30
0.0
  0
POINT
  5
19440
330
1921F
100
AcDbEntity
  8
DEFPOINTS
 62
     0
 48
50.0
100
AcDbPoint
 10
8418.90296438051
 20
8245.472912203306
 30
0.0
  0
POINT
  5
19441
330
1921F
100
AcDbEntity
  8
DEFPOINTS
 62
     0
 48
50.0
100
AcDbPoint
 10
8834.086171780997
 20
8134.224907069382
 30
0.0
  0
ENDBLK
  5
1922A
330
1921F
100
AcDbEntity
  8
0
 48
50.0
100
AcDbBlockEnd
  0
BLOCK
  5
19235
330
1922B
100
AcDbEntity
  8
0
 48
50.0
100
AcDbBlockBegin
  2
*D20
 70
     1
 10
0.0
 20
0.0
 30
0.0
  3
*D20
  1

  0
LINE
  5
193FA
330
1922B
100
AcDbEntity
  8
寸法
 62
     0
 48
50.0
370
    -2
100
AcDbLine
 10
5766.902964380297
 20
9567.222912203176
 30
0.0
 11
5766.902964380297
 21
10042.70126214965
 31
0.0
  0
LINE
  5
193FB
330
1922B
100
AcDbEntity
  8
寸法
 62
     0
 48
50.0
370
    -2
100
AcDbLine
 10
5656.902964380299
 20
9567.222912203259
 30
0.0
 11
5656.902964380299
 21
10042.70126214965
 31
0.0
  0
LINE
  5
193FC
330
1922B
100
AcDbEntity
  8
寸法
 62
     0
 48
50.0
370
    -2
100
AcDbLine
 10
5766.902964380297
 20
9982.701262149655
 30
0.0
 11
5656.902964380299
 21
9982.701262149655
 31
0.0
  0
INSERT
  5
193FD
330
1922B
100
AcDbEntity
  8
寸法
 62
     0
 48
50.0
370
    -2
100
AcDbBlockReference
  2
_DOTSMALL
 10
5766.902964380297
 20
9982.701262149655
 30
0.0
 41
100.0
 42
100.0
 43
100.0
  0
INSERT
  5
193FE
330
1922B
100
AcDbEntity
  8
寸法
 62
     0
 48
50.0
370
    -2
100
AcDbBlockReference
  2
_DOTSMALL
 10
5656.902964380299
 20
9982.701262149655
 30
0.0
 41
100.0
 42
100.0
 43
100.0
 50
180.0
  0
MTEXT
  5
193FF
330
1922B
100
AcDbEntity
  8
寸法
 62
     7
 48
50.0
100
AcDbMText
 10
5711.902964380298
 20
10082.70126214965
 30
0.0
 40
120.0
 41
0.0
 71
     5
 72
     1
  1
\A1;110
  7
STYLE1
 73
     1
 44
1.0
1001
ACAD
1000
MTEXTBEGIN
1070
    73
1070
     1
1070
    44
1040
1.0
1070
    74
1070
     0
1000
MTEXTEND
  0
POINT
  5
19400
330
1922B
100
AcDbEntity
  8
DEFPOINTS
 62
     0
 48
50.0
100
AcDbPoint
 10
5766.902964380297
 20
9547.222912203174
 30
0.0
  0
POINT
  5
19401
330
1922B
100
AcDbEntity
  8
DEFPOINTS
 62
     0
 48
50.0
100
AcDbPoint
 10
5656.902964380299
 20
9547.222912203258
 30
0.0
  0
POINT
  5
19402
330
1922B
100
AcDbEntity
  8
DEFPOINTS
 62
     0
 48
50.0
100
AcDbPoint
 10
5656.902964380299
 20
9982.701262149655
 30
0.0
  0
ENDBLK
  5
19236
330
1922B
100
AcDbEntity
  8
0
 48
50.0
100
AcDbBlockEnd
  0
BLOCK
  5
19241
330
19237
100
AcDbEntity
  8
0
 48
50.0
100
AcDbBlockBegin
  2
*D21
 70
     1
 10
0.0
 20
0.0
 30
0.0
  3
*D21
  1

  0
LINE
  5
193F1
330
19237
100
AcDbEntity
  8
寸法
 62
     0
 48
50.0
370
    -2
100
AcDbLine
 10
7136.902964380296
 20
9567.222912203131
 30
0.0
 11
7136.902964380296
 21
10042.70126214965
 31
0.0
  0
LINE
  5
193F2
330
19237
100
AcDbEntity
  8
寸法
 62
     0
 48
50.0
370
    -2
100
AcDbLine
 10
7026.902964380297
 20
9567.222912203131
 30
0.0
 11
7026.902964380297
 21
10042.70126214965
 31
0.0
  0
LINE
  5
193F3
330
19237
100
AcDbEntity
  8
寸法
 62
     0
 48
50.0
370
    -2
100
AcDbLine
 10
7136.902964380296
 20
9982.701262149655
 30
0.0
 11
7026.902964380297
 21
9982.701262149655
 31
0.0
  0
INSERT
  5
193F4
330
19237
100
AcDbEntity
  8
寸法
 62
     0
 48
50.0
370
    -2
100
AcDbBlockReference
  2
_DOTSMALL
 10
7136.902964380296
 20
9982.701262149655
 30
0.0
 41
100.0
 42
100.0
 43
100.0
  0
INSERT
  5
193F5
330
19237
100
AcDbEntity
  8
寸法
 62
     0
 48
50.0
370
    -2
100
AcDbBlockReference
  2
_DOTSMALL
 10
7026.902964380297
 20
9982.701262149655
 30
0.0
 41
100.0
 42
100.0
 43
100.0
 50
180.0
  0
MTEXT
  5
193F6
330
19237
100
AcDbEntity
  8
寸法
 62
     7
 48
50.0
100
AcDbMText
 10
7081.902964380297
 20
10082.70126214965
 30
0.0
 40
120.0
 41
0.0
 71
     5
 72
     1
  1
\A1;110
  7
STYLE1
 73
     1
 44
1.0
1001
ACAD
1000
MTEXTBEGIN
1070
    73
1070
     1
1070
    44
1040
1.0
1070
    74
1070
     0
1000
MTEXTEND
  0
POINT
  5
193F7
330
19237
100
AcDbEntity
  8
DEFPOINTS
 62
     0
 48
50.0
100
AcDbPoint
 10
7136.902964380296
 20
9547.22291220313
 30
0.0
  0
POINT
  5
193F8
330
19237
100
AcDbEntity
  8
DEFPOINTS
 62
     0
 48
50.0
100
AcDbPoint
 10
7026.902964380297
 20
9547.22291220313
 30
0.0
  0
POINT
  5
193F9
330
19237
100
AcDbEntity
  8
DEFPOINTS
 62
     0
 48
50.0
100
AcDbPoint
 10
7026.902964380297
 20
9982.701262149655
 30
0.0
  0
ENDBLK
  5
19242
330
19237
100
AcDbEntity
  8
0
 48
50.0
100
AcDbBlockEnd
  0
BLOCK
  5
1924D
330
19243
100
AcDbEntity
  8
0
 48
50.0
100
AcDbBlockBegin
  2
*D22
 70
     1
 10
0.0
 20
0.0
 30
0.0
  3
*D22
  1

  0
LINE
  5
193E8
330
19243
100
AcDbEntity
  8
寸法
 62
     0
 48
50.0
370
    -2
100
AcDbLine
 10
5766.902964380297
 20
9567.222912203131
 30
0.0
 11
5766.902964380297
 21
10042.70126214965
 31
0.0
  0
LINE
  5
193E9
330
19243
100
AcDbEntity
  8
寸法
 62
     0
 48
50.0
370
    -2
100
AcDbLine
 10
7026.902964380299
 20
9567.222912203259
 30
0.0
 11
7026.902964380299
 21
10042.70126214965
 31
0.0
  0
LINE
  5
193EA
330
19243
100
AcDbEntity
  8
寸法
 62
     0
 48
50.0
370
    -2
100
AcDbLine
 10
5766.902964380297
 20
9982.701262149655
 30
0.0
 11
7026.902964380299
 21
9982.701262149655
 31
0.0
  0
INSERT
  5
193EB
330
19243
100
AcDbEntity
  8
寸法
 62
     0
 48
50.0
370
    -2
100
AcDbBlockReference
  2
_DOTSMALL
 10
5766.902964380297
 20
9982.701262149655
 30
0.0
 41
100.0
 42
100.0
 43
100.0
 50
180.0
  0
INSERT
  5
193EC
330
19243
100
AcDbEntity
  8
寸法
 62
     0
 48
50.0
370
    -2
100
AcDbBlockReference
  2
_DOTSMALL
 10
7026.902964380299
 20
9982.701262149655
 30
0.0
 41
100.0
 42
100.0
 43
100.0
  0
MTEXT
  5
193ED
330
19243
100
AcDbEntity
  8
寸法
 62
     7
 48
50.0
100
AcDbMText
 10
6396.902964380296
 20
10082.71307317327
 30
0.0
 40
120.0
 41
0.0
 71
     5
 72
     1
  1
\A1;3X420=1260
  7
STYLE1
 73
     1
 44
1.0
1001
ACAD
1000
MTEXTBEGIN
1070
    73
1070
     1
1070
    44
1040
1.0
1070
    74
1070
     0
1000
MTEXTEND
  0
POINT
  5
193EE
330
19243
100
AcDbEntity
  8
DEFPOINTS
 62
     0
 48
50.0
100
AcDbPoint
 10
5766.902964380297
 20
9547.22291220313
 30
0.0
  0
POINT
  5
193EF
330
19243
100
AcDbEntity
  8
DEFPOINTS
 62
     0
 48
50.0
100
AcDbPoint
 10
7026.902964380299
 20
9547.222912203258
 30
0.0
  0
POINT
  5
193F0
330
19243
100
AcDbEntity
  8
DEFPOINTS
 62
     0
 48
50.0
100
AcDbPoint
 10
7026.902964380299
 20
9982.701262149655
 30
0.0
  0
ENDBLK
  5
1924E
330
19243
100
AcDbEntity
  8
0
 48
50.0
100
AcDbBlockEnd
  0
BLOCK
  5
19259
330
1924F
100
AcDbEntity
  8
0
 48
50.0
100
AcDbBlockBegin
  2
*D23
 70
     1
 10
0.0
 20
0.0
 30
0.0
  3
*D23
  1

  0
LINE
  5
193DF
330
1924F
100
AcDbEntity
  8
寸法
 62
     0
 48
50.0
370
    -2
100
AcDbLine
 10
5711.902964380292
 20
7317.222912203085
 30
0.0
 11
5711.902964380292
 21
6513.086942849558
 31
0.0
  0
LINE
  5
193E0
330
1924F
100
AcDbEntity
  8
寸法
 62
     0
 48
50.0
370
    -2
100
AcDbLine
 10
7081.902964380275
 20
7317.222912203213
 30
0.0
 11
7081.902964380275
 21
6513.086942849558
 31
0.0
  0
LINE
  5
193E1
330
1924F
100
AcDbEntity
  8
寸法
 62
     0
 48
50.0
370
    -2
100
AcDbLine
 10
5711.902964380292
 20
6573.086942849558
 30
0.0
 11
7081.902964380275
 21
6573.086942849558
 31
0.0
  0
INSERT
  5
193E2
330
1924F
100
AcDbEntity
  8
寸法
 62
     0
 48
50.0
370
    -2
100
AcDbBlockReference
  2
_DOTSMALL
 10
5711.902964380292
 20
6573.086942849558
 30
0.0
 41
100.0
 42
100.0
 43
100.0
 50
180.0
  0
INSERT
  5
193E3
330
1924F
100
AcDbEntity
  8
寸法
 62
     0
 48
50.0
370
    -2
100
AcDbBlockReference
  2
_DOTSMALL
 10
7081.902964380275
 20
6573.086942849558
 30
0.0
 41
100.0
 42
100.0
 43
100.0
  0
MTEXT
  5
193E4
330
1924F
100
AcDbEntity
  8
寸法
 62
     7
 48
50.0
100
AcDbMText
 10
6396.902964380281
 20
6673.086942849558
 30
0.0
 40
120.0
 41
0.0
 71
     5
 72
     1
  1
\A1;1370
  7
STYLE1
 73
     1
 44
1.0
1001
ACAD
1000
MTEXTBEGIN
1070
    73
1070
     1
1070
    44
1040
1.0
1070
    74
1070
     0
1000
MTEXTEND
  0
POINT
  5
193E5
330
1924F
100
AcDbEntity
  8
DEFPOINTS
 62
     0
 48
50.0
100
AcDbPoint
 10
5711.902964380292
 20
7337.222912203085
 30
0.0
  0
POINT
  5
193E6
330
1924F
100
AcDbEntity
  8
DEFPOINTS
 62
     0
 48
50.0
100
AcDbPoint
 10
7081.902964380275
 20
7337.222912203213
 30
0.0
  0
POINT
  5
193E7
330
1924F
100
AcDbEntity
  8
DEFPOINTS
 62
     0
 48
50.0
100
AcDbPoint
 10
7081.902964380275
 20
6573.086942849558
 30
0.0
  0
ENDBLK
  5
1925A
330
1924F
100
AcDbEntity
  8
0
 48
50.0
100
AcDbBlockEnd
  0
BLOCK
  5
19265
330
1925B
100
AcDbEntity
  8
0
 48
50.0
100
AcDbBlockBegin
  2
*D24
 70
     1
 10
0.0
 20
0.0
 30
0.0
  3
*D24
  1

  0
LINE
  5
19430
330
1925B
100
AcDbEntity
  8
寸法
 62
     0
 48
50.0
370
    -2
100
AcDbLine
 10
8413.54398053167
 20
9534.722912203276
 30
0.0
 11
8327.774694503579
 21
9854.818245389004
 31
0.0
  0
LINE
  5
19431
330
1925B
100
AcDbEntity
  8
寸法
 62
     0
 48
50.0
370
    -2
100
AcDbLine
 10
7963.543980531674
 20
9534.722912203276
 30
0.0
 11
7877.774694503583
 21
9854.818245389004
 31
0.0
  0
LINE
  5
19432
330
1925B
100
AcDbEntity
  8
寸法
 62
     0
 48
50.0
370
    -2
100
AcDbLine
 10
8343.851646049449
 20
9794.818245389004
 30
0.0
 11
7893.851646049451
 21
9794.818245389004
 31
0.0
  0
INSERT
  5
19433
330
1925B
100
AcDbEntity
  8
寸法
 62
     0
 48
50.0
370
    -2
100
AcDbBlockReference
  2
_DOTSMALL
 10
8343.851646049449
 20
9794.818245389004
 30
0.0
 41
100.0
 42
100.0
 43
100.0
  0
INSERT
  5
19434
330
1925B
100
AcDbEntity
  8
寸法
 62
     0
 48
50.0
370
    -2
100
AcDbBlockReference
  2
_DOTSMALL
 10
7893.851646049451
 20
9794.818245389004
 30
0.0
 41
100.0
 42
100.0
 43
100.0
 50
180.0
  0
MTEXT
  5
19435
330
1925B
100
AcDbEntity
  8
寸法
 62
     7
 48
50.0
100
AcDbMText
 10
8097.338756772309
 20
9894.818245389004
 30
0.0
 40
120.0
 41
0.0
 71
     5
 72
     1
  1
\A1;450
  7
STYLE1
 73
     1
 44
1.0
1001
ACAD
1000
MTEXTBEGIN
1070
    73
1070
     1
1070
    44
1040
1.0
1070
    74
1070
     0
1000
MTEXTEND
  0
POINT
  5
19436
330
1925B
100
AcDbEntity
  8
DEFPOINTS
 62
     0
 48
50.0
100
AcDbPoint
 10
8418.902964380293
 20
9514.722912203277
 30
0.0
  0
POINT
  5
19437
330
1925B
100
AcDbEntity
  8
DEFPOINTS
 62
     0
 48
50.0
100
AcDbPoint
 10
7968.902964380297
 20
9514.722912203277
 30
0.0
  0
POINT
  5
19438
330
1925B
100
AcDbEntity
  8
DEFPOINTS
 62
     0
 48
50.0
100
AcDbPoint
 10
7893.851646049451
 20
9794.818245389004
 30
0.0
  0
ENDBLK
  5
19266
330
1925B
100
AcDbEntity
  8
0
 48
50.0
100
AcDbBlockEnd
  0
BLOCK
  5
19271
330
19267
100
AcDbEntity
  8
0
 48
50.0
100
AcDbBlockBegin
  2
*D25
 70
     1
 10
0.0
 20
0.0
 30
0.0
  3
*D25
  1

  0
LINE
  5
193CD
330
19267
100
AcDbEntity
  8
寸法
 62
     0
 48
50.0
370
    -2
100
AcDbLine
 10
7136.902964380296
 20
9567.222912203131
 30
0.0
 11
7136.902964380296
 21
10042.70126214965
 31
0.0
  0
LINE
  5
193CE
330
19267
100
AcDbEntity
  8
寸法
 62
     0
 48
50.0
370
    -2
100
AcDbLine
 10
8396.902964380299
 20
9567.222912203259
 30
0.0
 11
8396.902964380299
 21
10042.70126214965
 31
0.0
  0
LINE
  5
193CF
330
19267
100
AcDbEntity
  8
寸法
 62
     0
 48
50.0
370
    -2
100
AcDbLine
 10
7136.902964380296
 20
9982.701262149655
 30
0.0
 11
8396.902964380299
 21
9982.701262149655
 31
0.0
  0
INSERT
  5
193D0
330
19267
100
AcDbEntity
  8
寸法
 62
     0
 48
50.0
370
    -2
100
AcDbBlockReference
  2
_DOTSMALL
 10
7136.902964380296
 20
9982.701262149655
 30
0.0
 41
100.0
 42
100.0
 43
100.0
 50
180.0
  0
INSERT
  5
193D1
330
19267
100
AcDbEntity
  8
寸法
 62
     0
 48
50.0
370
    -2
100
AcDbBlockReference
  2
_DOTSMALL
 10
8396.902964380299
 20
9982.701262149655
 30
0.0
 41
100.0
 42
100.0
 43
100.0
  0
MTEXT
  5
193D2
330
19267
100
AcDbEntity
  8
寸法
 62
     7
 48
50.0
100
AcDbMText
 10
7766.902964380296
 20
10082.71307317327
 30
0.0
 40
120.0
 41
0.0
 71
     5
 72
     1
  1
\A1;3X420=1260
  7
STYLE1
 73
     1
 44
1.0
1001
ACAD
1000
MTEXTBEGIN
1070
    73
1070
     1
1070
    44
1040
1.0
1070
    74
1070
     0
1000
MTEXTEND
  0
POINT
  5
193D3
330
19267
100
AcDbEntity
  8
DEFPOINTS
 62
     0
 48
50.0
100
AcDbPoint
 10
7136.902964380296
 20
9547.22291220313
 30
0.0
  0
POINT
  5
193D4
330
19267
100
AcDbEntity
  8
DEFPOINTS
 62
     0
 48
50.0
100
AcDbPoint
 10
8396.902964380299
 20
9547.222912203258
 30
0.0
  0
POINT
  5
193D5
330
19267
100
AcDbEntity
  8
DEFPOINTS
 62
     0
 48
50.0
100
AcDbPoint
 10
8396.902964380299
 20
9982.701262149655
 30
0.0
  0
ENDBLK
  5
19272
330
19267
100
AcDbEntity
  8
0
 48
50.0
100
AcDbBlockEnd
  0
BLOCK
  5
1927F
330
19273
100
AcDbEntity
  8
0
 48
50.0
100
AcDbBlockBegin
  2
*D26
 70
     1
 10
0.0
 20
0.0
 30
0.0
  3
*D26
  1

  0
LINE
  5
193C2
330
19273
100
AcDbEntity
  8
寸法
 62
     0
 48
50.0
370
    -2
100
AcDbLine
 10
8396.902964380299
 20
9567.222912203259
 30
0.0
 11
8396.902964380299
 21
10042.70126214963
 31
0.0
  0
LINE
  5
193C3
330
19273
100
AcDbEntity
  8
寸法
 62
     0
 48
50.0
370
    -2
100
AcDbLine
 10
8451.902964380296
 20
9567.222912203259
 30
0.0
 11
8451.902964380296
 21
10042.70126214963
 31
0.0
  0
LINE
  5
193C4
330
19273
100
AcDbEntity
  8
寸法
 62
     0
 48
50.0
370
    -2
100
AcDbLine
 10
8396.902964380299
 20
9982.701262149632
 30
0.0
 11
8296.902964380299
 21
9982.701262149632
 31
0.0
  0
LINE
  5
193C5
330
19273
100
AcDbEntity
  8
寸法
 62
     0
 48
50.0
370
    -2
100
AcDbLine
 10
8451.902964380296
 20
9982.701262149632
 30
0.0
 11
8868.873527128775
 21
9982.701262149632
 31
0.0
  0
LINE
  5
193C6
330
19273
100
AcDbEntity
  8
寸法
 62
     0
 48
50.0
370
    -2
100
AcDbLine
 10
8396.902964380299
 20
9982.701262149632
 30
0.0
 11
8451.902964380296
 21
9982.701262149632
 31
0.0
  0
INSERT
  5
193C7
330
19273
100
AcDbEntity
  8
寸法
 62
     0
 48
50.0
370
    -2
100
AcDbBlockReference
  2
_DOTSMALL
 10
8396.902964380299
 20
9982.701262149632
 30
0.0
 41
100.0
 42
100.0
 43
100.0
  0
INSERT
  5
193C8
330
19273
100
AcDbEntity
  8
寸法
 62
     0
 48
50.0
370
    -2
100
AcDbBlockReference
  2
_DOTSMALL
 10
8451.902964380296
 20
9982.701262149632
 30
0.0
 41
100.0
 42
100.0
 43
100.0
 50
180.0
  0
MTEXT
  5
193C9
330
19273
100
AcDbEntity
  8
寸法
 62
     7
 48
50.0
100
AcDbMText
 10
8760.388245754537
 20
10082.70126214963
 30
0.0
 40
120.0
 41
0.0
 71
     5
 72
     1
  1
\A1;55
  7
STYLE1
 73
     1
 44
1.0
1001
ACAD
1000
MTEXTBEGIN
1070
    73
1070
     1
1070
    44
1040
1.0
1070
    74
1070
     0
1000
MTEXTEND
  0
POINT
  5
193CA
330
19273
100
AcDbEntity
  8
DEFPOINTS
 62
     0
 48
50.0
100
AcDbPoint
 10
8396.902964380299
 20
9547.222912203258
 30
0.0
  0
POINT
  5
193CB
330
19273
100
AcDbEntity
  8
DEFPOINTS
 62
     0
 48
50.0
100
AcDbPoint
 10
8451.902964380296
 20
9547.222912203258
 30
0.0
  0
POINT
  5
193CC
330
19273
100
AcDbEntity
  8
DEFPOINTS
 62
     0
 48
50.0
100
AcDbPoint
 10
8451.902964380296
 20
9982.701262149632
 30
0.0
  0
ENDBLK
  5
19280
330
19273
100
AcDbEntity
  8
0
 48
50.0
100
AcDbBlockEnd
  0
BLOCK
  5
1928B
330
19281
100
AcDbEntity
  8
0
 48
50.0
100
AcDbBlockBegin
  2
*D27
 70
     1
 10
0.0
 20
0.0
 30
0.0
  3
*D27
  1

  0
LINE
  5
193B9
330
19281
100
AcDbEntity
  8
寸法
 62
     0
 48
50.0
370
    -2
100
AcDbLine
 10
7081.902964380292
 20
7317.222912203085
 30
0.0
 11
7081.902964380292
 21
6513.086942849558
 31
0.0
  0
LINE
  5
193BA
330
19281
100
AcDbEntity
  8
寸法
 62
     0
 48
50.0
370
    -2
100
AcDbLine
 10
8451.902964380273
 20
7317.222912203213
 30
0.0
 11
8451.902964380273
 21
6513.086942849558
 31
0.0
  0
LINE
  5
193BB
330
19281
100
AcDbEntity
  8
寸法
 62
     0
 48
50.0
370
    -2
100
AcDbLine
 10
7081.902964380292
 20
6573.086942849558
 30
0.0
 11
8451.902964380273
 21
6573.086942849558
 31
0.0
  0
INSERT
  5
193BC
330
19281
100
AcDbEntity
  8
寸法
 62
     0
 48
50.0
370
    -2
100
AcDbBlockReference
  2
_DOTSMALL
 10
7081.902964380292
 20
6573.086942849558
 30
0.0
 41
100.0
 42
100.0
 43
100.0
 50
180.0
  0
INSERT
  5
193BD
330
19281
100
AcDbEntity
  8
寸法
 62
     0
 48
50.0
370
    -2
100
AcDbBlockReference
  2
_DOTSMALL
 10
8451.902964380273
 20
6573.086942849558
 30
0.0
 41
100.0
 42
100.0
 43
100.0
  0
MTEXT
  5
193BE
330
19281
100
AcDbEntity
  8
寸法
 62
     7
 48
50.0
100
AcDbMText
 10
7766.902964380282
 20
6673.086942849558
 30
0.0
 40
120.0
 41
0.0
 71
     5
 72
     1
  1
\A1;1370
  7
STYLE1
 73
     1
 44
1.0
1001
ACAD
1000
MTEXTBEGIN
1070
    73
1070
     1
1070
    44
1040
1.0
1070
    74
1070
     0
1000
MTEXTEND
  0
POINT
  5
193BF
330
19281
100
AcDbEntity
  8
DEFPOINTS
 62
     0
 48
50.0
100
AcDbPoint
 10
7081.902964380292
 20
7337.222912203085
 30
0.0
  0
POINT
  5
193C0
330
19281
100
AcDbEntity
  8
DEFPOINTS
 62
     0
 48
50.0
100
AcDbPoint
 10
8451.902964380273
 20
7337.222912203213
 30
0.0
  0
POINT
  5
193C1
330
19281
100
AcDbEntity
  8
DEFPOINTS
 62
     0
 48
50.0
100
AcDbPoint
 10
8451.902964380273
 20
6573.086942849558
 30
0.0
  0
ENDBLK
  5
1928C
330
19281
100
AcDbEntity
  8
0
 48
50.0
100
AcDbBlockEnd
  0
BLOCK
  5
19297
330
1928D
100
AcDbEntity
  8
0
 48
50.0
100
AcDbBlockBegin
  2
*D28
 70
     1
 10
0.0
 20
0.0
 30
0.0
  3
*D28
  1

  0
LINE
  5
193B0
330
1928D
100
AcDbEntity
  8
寸法
 62
     0
 48
50.0
370
    -2
100
AcDbLine
 10
8471.902964380296
 20
9492.222912203262
 30
0.0
 11
9159.32931011471
 21
9492.222912203262
 31
0.0
  0
LINE
  5
193B1
330
1928D
100
AcDbEntity
  8
寸法
 62
     0
 48
50.0
370
    -2
100
AcDbLine
 10
8471.902964380273
 20
7392.222912203244
 30
0.0
 11
9159.32931011471
 21
7392.222912203244
 31
0.0
  0
LINE
  5
193B2
330
1928D
100
AcDbEntity
  8
寸法
 62
     0
 48
50.0
370
    -2
100
AcDbLine
 10
9099.329310114709
 20
9492.222912203262
 30
0.0
 11
9099.329310114709
 21
7392.222912203244
 31
0.0
  0
INSERT
  5
193B3
330
1928D
100
AcDbEntity
  8
寸法
 62
     0
 48
50.0
370
    -2
100
AcDbBlockReference
  2
_DOTSMALL
 10
9099.329310114709
 20
9492.222912203262
 30
0.0
 41
100.0
 42
100.0
 43
100.0
 50
90.0
  0
INSERT
  5
193B4
330
1928D
100
AcDbEntity
  8
寸法
 62
     0
 48
50.0
370
    -2
100
AcDbBlockReference
  2
_DOTSMALL
 10
9099.329310114709
 20
7392.222912203244
 30
0.0
 41
100.0
 42
100.0
 43
100.0
 50
270.0
  0
MTEXT
  5
193B5
330
1928D
100
AcDbEntity
  8
寸法
 62
     7
 48
50.0
100
AcDbMText
 10
8999.317499091088
 20
8442.222912203254
 30
0.0
 40
120.0
 41
0.0
 71
     5
 72
     1
  1
\A1;5X420=2100
  7
STYLE1
 11
0.0000000000000001
 21
1.0
 31
0.0
 73
     1
 44
1.0
1001
ACAD
1000
MTEXTBEGIN
1070
    73
1070
     1
1070
    44
1040
1.0
1070
    74
1070
     0
1000
MTEXTEND
  0
POINT
  5
193B6
330
1928D
100
AcDbEntity
  8
DEFPOINTS
 62
     0
 48
50.0
100
AcDbPoint
 10
8451.902964380296
 20
9492.222912203262
 30
0.0
  0
POINT
  5
193B7
330
1928D
100
AcDbEntity
  8
DEFPOINTS
 62
     0
 48
50.0
100
AcDbPoint
 10
8451.902964380273
 20
7392.222912203244
 30
0.0
  0
POINT
  5
193B8
330
1928D
100
AcDbEntity
  8
DEFPOINTS
 62
     0
 48
50.0
100
AcDbPoint
 10
9099.329310114709
 20
7392.222912203244
 30
0.0
  0
ENDBLK
  5
19298
330
1928D
100
AcDbEntity
  8
0
 48
50.0
100
AcDbBlockEnd
  0
BLOCK
  5
192A5
330
19299
100
AcDbEntity
  8
0
 48
50.0
100
AcDbBlockBegin
  2
*D29
 70
     1
 10
0.0
 20
0.0
 30
0.0
  3
*D29
  1

  0
LINE
  5
193A5
330
19299
100
AcDbEntity
  8
寸法
 62
     0
 48
50.0
370
    -2
100
AcDbLine
 10
8471.902964380273
 20
7392.222912203244
 30
0.0
 11
9159.329310114683
 21
7392.222912203244
 31
0.0
  0
LINE
  5
193A6
330
19299
100
AcDbEntity
  8
寸法
 62
     0
 48
50.0
370
    -2
100
AcDbLine
 10
8471.902964380273
 20
7337.222912203249
 30
0.0
 11
9159.329310114683
 21
7337.222912203249
 31
0.0
  0
LINE
  5
193A7
330
19299
100
AcDbEntity
  8
寸法
 62
     0
 48
50.0
370
    -2
100
AcDbLine
 10
9099.329310114685
 20
7392.222912203244
 30
0.0
 11
9099.329310114685
 21
7492.222912203245
 31
0.0
  0
LINE
  5
193A8
330
19299
100
AcDbEntity
  8
寸法
 62
     0
 48
50.0
370
    -2
100
AcDbLine
 10
9099.329310114685
 20
7337.222912203249
 30
0.0
 11
9099.329310114685
 21
6850.876163924148
 31
0.0
  0
LINE
  5
193A9
330
19299
100
AcDbEntity
  8
寸法
 62
     0
 48
50.0
370
    -2
100
AcDbLine
 10
9099.329310114685
 20
7392.222912203244
 30
0.0
 11
9099.329310114685
 21
7337.222912203249
 31
0.0
  0
INSERT
  5
193AA
330
19299
100
AcDbEntity
  8
寸法
 62
     0
 48
50.0
370
    -2
100
AcDbBlockReference
  2
_DOTSMALL
 10
9099.329310114685
 20
7392.222912203244
 30
0.0
 41
100.0
 42
100.0
 43
100.0
 50
270.0
  0
INSERT
  5
193AB
330
19299
100
AcDbEntity
  8
寸法
 62
     0
 48
50.0
370
    -2
100
AcDbBlockReference
  2
_DOTSMALL
 10
9099.329310114685
 20
7337.222912203249
 30
0.0
 41
100.0
 42
100.0
 43
100.0
 50
90.0
  0
MTEXT
  5
193AC
330
19299
100
AcDbEntity
  8
寸法
 62
     7
 48
50.0
100
AcDbMText
 10
8999.329310114683
 20
6959.361445298388
 30
0.0
 40
120.0
 41
0.0
 71
     5
 72
     1
  1
\A1;55
  7
STYLE1
 11
0.0000000000000001
 21
1.0
 31
0.0
 73
     1
 44
1.0
1001
ACAD
1000
MTEXTBEGIN
1070
    73
1070
     1
1070
    44
1040
1.0
1070
    74
1070
     0
1000
MTEXTEND
  0
POINT
  5
193AD
330
19299
100
AcDbEntity
  8
DEFPOINTS
 62
     0
 48
50.0
100
AcDbPoint
 10
8451.902964380273
 20
7392.222912203244
 30
0.0
  0
POINT
  5
193AE
330
19299
100
AcDbEntity
  8
DEFPOINTS
 62
     0
 48
50.0
100
AcDbPoint
 10
8451.902964380273
 20
7337.222912203249
 30
0.0
  0
POINT
  5
193AF
330
19299
100
AcDbEntity
  8
DEFPOINTS
 62
     0
 48
50.0
100
AcDbPoint
 10
9099.329310114685
 20
7337.222912203249
 30
0.0
  0
ENDBLK
  5
192A6
330
19299
100
AcDbEntity
  8
0
 48
50.0
100
AcDbBlockEnd
  0
BLOCK
  5
192B3
330
192A7
100
AcDbEntity
  8
0
 48
50.0
100
AcDbBlockBegin
  2
*D30
 70
     1
 10
0.0
 20
0.0
 30
0.0
  3
*D30
  1

  0
LINE
  5
1939A
330
192A7
100
AcDbEntity
  8
寸法
 62
     0
 48
50.0
370
    -2
100
AcDbLine
 10
8471.902964380296
 20
9547.222912203258
 30
0.0
 11
9159.32931011471
 21
9547.222912203258
 31
0.0
  0
LINE
  5
1939B
330
192A7
100
AcDbEntity
  8
寸法
 62
     0
 48
50.0
370
    -2
100
AcDbLine
 10
8471.902964380296
 20
9492.222912203262
 30
0.0
 11
9159.32931011471
 21
9492.222912203262
 31
0.0
  0
LINE
  5
1939C
330
192A7
100
AcDbEntity
  8
寸法
 62
     0
 48
50.0
370
    -2
100
AcDbLine
 10
9099.329310114709
 20
9492.222912203262
 30
0.0
 11
9099.329310114709
 21
9392.222912203262
 31
0.0
  0
LINE
  5
1939D
330
192A7
100
AcDbEntity
  8
寸法
 62
     0
 48
50.0
370
    -2
100
AcDbLine
 10
9099.329310114709
 20
9547.222912203258
 30
0.0
 11
9099.329310114709
 21
9964.19347495174
 31
0.0
  0
LINE
  5
1939E
330
192A7
100
AcDbEntity
  8
寸法
 62
     0
 48
50.0
370
    -2
100
AcDbLine
 10
9099.329310114709
 20
9492.222912203262
 30
0.0
 11
9099.329310114709
 21
9547.222912203258
 31
0.0
  0
INSERT
  5
1939F
330
192A7
100
AcDbEntity
  8
寸法
 62
     0
 48
50.0
370
    -2
100
AcDbBlockReference
  2
_DOTSMALL
 10
9099.329310114709
 20
9492.222912203262
 30
0.0
 41
100.0
 42
100.0
 43
100.0
 50
90.0
  0
INSERT
  5
193A0
330
192A7
100
AcDbEntity
  8
寸法
 62
     0
 48
50.0
370
    -2
100
AcDbBlockReference
  2
_DOTSMALL
 10
9099.329310114709
 20
9547.222912203258
 30
0.0
 41
100.0
 42
100.0
 43
100.0
 50
270.0
  0
MTEXT
  5
193A1
330
192A7
100
AcDbEntity
  8
寸法
 62
     7
 48
50.0
100
AcDbMText
 10
8999.329310114708
 20
9855.708193577504
 30
0.0
 40
120.0
 41
0.0
 71
     5
 72
     1
  1
\A1;55
  7
STYLE1
 11
0.0000000000000001
 21
1.0
 31
0.0
 73
     1
 44
1.0
1001
ACAD
1000
MTEXTBEGIN
1070
    73
1070
     1
1070
    44
1040
1.0
1070
    74
1070
     0
1000
MTEXTEND
  0
POINT
  5
193A2
330
192A7
100
AcDbEntity
  8
DEFPOINTS
 62
     0
 48
50.0
100
AcDbPoint
 10
8451.902964380296
 20
9547.222912203258
 30
0.0
  0
POINT
  5
193A3
330
192A7
100
AcDbEntity
  8
DEFPOINTS
 62
     0
 48
50.0
100
AcDbPoint
 10
8451.902964380296
 20
9492.222912203262
 30
0.0
  0
POINT
  5
193A4
330
192A7
100
AcDbEntity
  8
DEFPOINTS
 62
     0
 48
50.0
100
AcDbPoint
 10
9099.329310114709
 20
9492.222912203262
 30
0.0
  0
ENDBLK
  5
192B4
330
192A7
100
AcDbEntity
  8
0
 48
50.0
100
AcDbBlockEnd
  0
BLOCK
  5
192BF
330
192B5
100
AcDbEntity
  8
0
 48
50.0
100
AcDbBlockBegin
  2
*D31
 70
     1
 10
0.0
 20
0.0
 30
0.0
  3
*D31
  1

  0
LINE
  5
19391
330
192B5
100
AcDbEntity
  8
寸法
 62
     0
 48
50.0
370
    -2
100
AcDbLine
 10
8471.902964380296
 20
9547.222912203258
 30
0.0
 11
9524.436251854345
 21
9547.222912203258
 31
0.0
  0
LINE
  5
19392
330
192B5
100
AcDbEntity
  8
寸法
 62
     0
 48
50.0
370
    -2
100
AcDbLine
 10
8471.902964380273
 20
7337.222912203249
 30
0.0
 11
9524.436251854345
 21
7337.222912203249
 31
0.0
  0
LINE
  5
19393
330
192B5
100
AcDbEntity
  8
寸法
 62
     0
 48
50.0
370
    -2
100
AcDbLine
 10
9464.436251854344
 20
9547.222912203258
 30
0.0
 11
9464.436251854344
 21
7337.222912203249
 31
0.0
  0
INSERT
  5
19394
330
192B5
100
AcDbEntity
  8
寸法
 62
     0
 48
50.0
370
    -2
100
AcDbBlockReference
  2
_DOTSMALL
 10
9464.436251854344
 20
9547.222912203258
 30
0.0
 41
100.0
 42
100.0
 43
100.0
 50
90.0
  0
INSERT
  5
19395
330
192B5
100
AcDbEntity
  8
寸法
 62
     0
 48
50.0
370
    -2
100
AcDbBlockReference
  2
_DOTSMALL
 10
9464.436251854344
 20
7337.222912203249
 30
0.0
 41
100.0
 42
100.0
 43
100.0
 50
270.0
  0
MTEXT
  5
19396
330
192B5
100
AcDbEntity
  8
寸法
 62
     7
 48
50.0
100
AcDbMText
 10
9364.42444083072
 20
8442.222912203254
 30
0.0
 40
120.0
 41
0.0
 71
     5
 72
     1
  1
\A1;2210
  7
STYLE1
 11
0.0000000000000001
 21
1.0
 31
0.0
 73
     1
 44
1.0
1001
ACAD
1000
MTEXTBEGIN
1070
    73
1070
     1
1070
    44
1040
1.0
1070
    74
1070
     0
1000
MTEXTEND
  0
POINT
  5
19397
330
192B5
100
AcDbEntity
  8
DEFPOINTS
 62
     0
 48
50.0
100
AcDbPoint
 10
8451.902964380296
 20
9547.222912203258
 30
0.0
  0
POINT
  5
19398
330
192B5
100
AcDbEntity
  8
DEFPOINTS
 62
     0
 48
50.0
100
AcDbPoint
 10
8451.902964380273
 20
7337.222912203249
 30
0.0
  0
POINT
  5
19399
330
192B5
100
AcDbEntity
  8
DEFPOINTS
 62
     0
 48
50.0
100
AcDbPoint
 10
9464.436251854344
 20
7337.222912203249
 30
0.0
  0
ENDBLK
  5
192C0
330
192B5
100
AcDbEntity
  8
0
 48
50.0
100
AcDbBlockEnd
  0
BLOCK
  5
192CD
330
192C1
100
AcDbEntity
  8
0
 48
50.0
100
AcDbBlockBegin
  2
*D32
 70
     1
 10
0.0
 20
0.0
 30
0.0
  3
*D32
  1

  0
LINE
  5
19386
330
192C1
100
AcDbEntity
  8
寸法
 62
     0
 48
50.0
370
    -2
100
AcDbLine
 10
4341.902964380262
 20
9567.222912203131
 30
0.0
 11
4341.902964380262
 21
10042.7012621495
 31
0.0
  0
LINE
  5
19387
330
192C1
100
AcDbEntity
  8
寸法
 62
     0
 48
50.0
370
    -2
100
AcDbLine
 10
4396.902964380297
 20
9567.222912203131
 30
0.0
 11
4396.902964380297
 21
10042.7012621495
 31
0.0
  0
LINE
  5
19388
330
192C1
100
AcDbEntity
  8
寸法
 62
     0
 48
50.0
370
    -2
100
AcDbLine
 10
4396.902964380297
 20
9982.701262149506
 30
0.0
 11
4496.902964380296
 21
9982.701262149506
 31
0.0
  0
LINE
  5
19389
330
192C1
100
AcDbEntity
  8
寸法
 62
     0
 48
50.0
370
    -2
100
AcDbLine
 10
4341.902964380262
 20
9982.701262149506
 30
0.0
 11
3924.932401631785
 21
9982.701262149506
 31
0.0
  0
LINE
  5
1938A
330
192C1
100
AcDbEntity
  8
寸法
 62
     0
 48
50.0
370
    -2
100
AcDbLine
 10
4396.902964380297
 20
9982.701262149506
 30
0.0
 11
4341.902964380262
 21
9982.701262149506
 31
0.0
  0
INSERT
  5
1938B
330
192C1
100
AcDbEntity
  8
寸法
 62
     0
 48
50.0
370
    -2
100
AcDbBlockReference
  2
_DOTSMALL
 10
4396.902964380297
 20
9982.701262149506
 30
0.0
 41
100.0
 42
100.0
 43
100.0
 50
180.0
  0
INSERT
  5
1938C
330
192C1
100
AcDbEntity
  8
寸法
 62
     0
 48
50.0
370
    -2
100
AcDbBlockReference
  2
_DOTSMALL
 10
4341.902964380262
 20
9982.701262149506
 30
0.0
 41
100.0
 42
100.0
 43
100.0
  0
MTEXT
  5
1938D
330
192C1
100
AcDbEntity
  8
寸法
 62
     7
 48
50.0
100
AcDbMText
 10
4033.417683006024
 20
10082.7012621495
 30
0.0
 40
120.0
 41
0.0
 71
     5
 72
     1
  1
\A1;55
  7
STYLE1
 73
     1
 44
1.0
1001
ACAD
1000
MTEXTBEGIN
1070
    73
1070
     1
1070
    44
1040
1.0
1070
    74
1070
     0
1000
MTEXTEND
  0
POINT
  5
1938E
330
192C1
100
AcDbEntity
  8
DEFPOINTS
 62
     0
 48
50.0
100
AcDbPoint
 10
4341.902964380262
 20
9547.22291220313
 30
0.0
  0
POINT
  5
1938F
330
192C1
100
AcDbEntity
  8
DEFPOINTS
 62
     0
 48
50.0
100
AcDbPoint
 10
4396.902964380297
 20
9547.22291220313
 30
0.0
  0
POINT
  5
19390
330
192C1
100
AcDbEntity
  8
DEFPOINTS
 62
     0
 48
50.0
100
AcDbPoint
 10
4396.902964380297
 20
9982.701262149506
 30
0.0
  0
ENDBLK
  5
192CE
330
192C1
100
AcDbEntity
  8
0
 48
50.0
100
AcDbBlockEnd
  0
BLOCK
  5
192D9
330
192CF
100
AcDbEntity
  8
0
 48
50.0
100
AcDbBlockBegin
  2
*D33
 70
     1
 10
0.0
 20
0.0
 30
0.0
  3
*D33
  1

  0
LINE
  5
19427
330
192CF
100
AcDbEntity
  8
寸法
 62
     0
 48
50.0
370
    -2
100
AcDbLine
 10
5087.90296438029
 20
7317.222912203195
 30
0.0
 11
5087.90296438029
 21
6750.053747242716
 31
0.0
  0
LINE
  5
19428
330
192CF
100
AcDbEntity
  8
寸法
 62
     0
 48
50.0
370
    -2
100
AcDbLine
 10
4401.902964380291
 20
7317.222912203118
 30
0.0
 11
4401.902964380291
 21
6750.053747242716
 31
0.0
  0
LINE
  5
19429
330
192CF
100
AcDbEntity
  8
寸法
 62
     0
 48
50.0
370
    -2
100
AcDbLine
 10
5087.90296438029
 20
6810.053747242716
 30
0.0
 11
4401.902964380291
 21
6810.053747242716
 31
0.0
  0
INSERT
  5
1942A
330
192CF
100
AcDbEntity
  8
寸法
 62
     0
 48
50.0
370
    -2
100
AcDbBlockReference
  2
_DOTSMALL
 10
5087.90296438029
 20
6810.053747242716
 30
0.0
 41
100.0
 42
100.0
 43
100.0
  0
INSERT
  5
1942B
330
192CF
100
AcDbEntity
  8
寸法
 62
     0
 48
50.0
370
    -2
100
AcDbBlockReference
  2
_DOTSMALL
 10
4401.902964380291
 20
6810.053747242716
 30
0.0
 41
100.0
 42
100.0
 43
100.0
 50
180.0
  0
MTEXT
  5
1942C
330
192CF
100
AcDbEntity
  8
寸法
 62
     7
 48
50.0
100
AcDbMText
 10
4744.902964380291
 20
7010.053747242716
 30
0.0
 40
120.0
 41
0.0
 71
     5
 72
     1
  1
\A1;有効開口部間口\P686
  7
STYLE1
 73
     1
 44
1.0
1001
ACAD
1000
MTEXTBEGIN
1070
    73
1070
     1
1070
    44
1040
1.0
1070
    74
1070
     0
1000
MTEXTEND
  0
POINT
  5
1942D
330
192CF
100
AcDbEntity
  8
DEFPOINTS
 62
     0
 48
50.0
100
AcDbPoint
 10
5087.90296438029
 20
7337.222912203195
 30
0.0
  0
POINT
  5
1942E
330
192CF
100
AcDbEntity
  8
DEFPOINTS
 62
     0
 48
50.0
100
AcDbPoint
 10
4401.902964380291
 20
7337.222912203117
 30
0.0
  0
POINT
  5
1942F
330
192CF
100
AcDbEntity
  8
DEFPOINTS
 62
     0
 48
50.0
100
AcDbPoint
 10
4401.902964380291
 20
6810.053747242716
 30
0.0
  0
ENDBLK
  5
192DA
330
192CF
100
AcDbEntity
  8
0
 48
50.0
100
AcDbBlockEnd
  0
ENDSEC
  0
SECTION
  2
ENTITIES
  0
MTEXT
  5
763F
330
747D
100
AcDbEntity
  8
0
100
AcDbMText
 10
302.846345836809
 20
280.1983726409901
 30
0.0
 40
3.5
 41
5.323721266742722
 71
     1
 72
     5
  1

  7
MSMINCHO
 73
     1
 44
1.0
1001
ACAD
1000
MTEXTBEGIN
1070
    73
1070
     1
1070
    44
1040
1.0
1070
    74
1070
     0
1000
MTEXTEND
  0
LINE
  5
10B57
330
747D
100
AcDbEntity
  8
補助
  6
PHANTOM
 62
   230
 48
50.0
100
AcDbLine
 10
139.9999999999995
 20
11409.6
 30
0.0
 11
16307.2
 21
11409.6
 31
0.0
  0
LINE
  5
10B59
330
747D
100
AcDbEntity
  8
仕様書枠
  6
Continuous
 48
50.0
100
AcDbLine
 10
13107.2
 20
1200.0
 30
0.0
 11
13107.2
 21
-0.0000000000000729
 31
0.0
  0
LINE
  5
10B5D
330
747D
100
AcDbEntity
  8
仕様書枠
 48
50.0
100
AcDbLine
 10
140.0
 20
0.0
 30
0.0
 11
16307.2
 21
-0.0000000000000909
 31
0.0
  0
LINE
  5
10B5E
330
747D
100
AcDbEntity
  8
補助
  6
PHANTOM
 62
   230
 48
50.0
100
AcDbLine
 10
16307.2
 20
11409.6
 30
0.0
 11
16307.2
 21
1200.0
 31
0.0
  0
LINE
  5
10B6C
330
747D
100
AcDbEntity
  8
仕様書枠
 48
50.0
100
AcDbLine
 10
13107.2
 20
1200.0
 30
0.0
 11
16307.2
 21
1200.0
 31
0.0
  0
LINE
  5
10B6D
330
747D
100
AcDbEntity
  8
補助
  6
PHANTOM
 62
   230
 48
50.0
100
AcDbLine
 10
13107.2
 20
11409.6
 30
0.0
 11
13107.2
 21
4800.0
 31
0.0
  0
LINE
  5
10B6F
330
747D
100
AcDbEntity
  8
補助
  6
PHANTOM
 62
   230
 48
50.0
100
AcDbLine
 10
13107.2
 20
4800.0
 30
0.0
 11
16307.2
 21
4800.0
 31
0.0
  0
LINE
  5
10B72
330
747D
100
AcDbEntity
  8
文字
 62
     7
 48
50.0
100
AcDbLine
 10
13187.2
 20
400.0
 30
0.0
 11
16227.2
 21
400.0
 31
0.0
  0
TEXT
  5
10B73
330
747D
100
AcDbEntity
  8
文字
 62
     7
 48
50.0
100
AcDbText
 10
13162.9790565769
 20
895.0906074299405
 30
0.0
 40
200.0
  1
外 形 図
  7
STYLE2
100
AcDbText
  0
TEXT
  5
10B74
330
747D
100
AcDbEntity
  8
文字
 62
     7
 48
50.0
100
AcDbText
 10
13201.43669998441
 20
477.2740661031255
 30
0.0
 40
160.0
  1
機種名
  7
STYLE2
100
AcDbText
  0
LINE
  5
10B7B
330
747D
100
AcDbEntity
  8
仕様書枠
 48
50.0
100
AcDbLine
 10
13107.2
 20
800.0
 30
0.0
 11
14251.2
 21
800.0
 31
0.0
  0
LINE
  5
10B88
330
747D
100
AcDbEntity
  8
仕様書枠
  6
Continuous
 48
50.0
100
AcDbLine
 10
14251.2
 20
1200.0
 30
0.0
 11
14251.2
 21
800.0
 31
0.0
  0
LINE
  5
154D6
330
747D
100
AcDbEntity
  8
仕様書枠
 48
50.0
100
AcDbLine
 10
16307.2
 20
1200.0
 30
0.0
 11
16307.2
 21
-0.0000000000000909
 31
0.0
  0
TEXT
  5
16B83
330
747D
100
AcDbEntity
  8
文字
 62
     7
 48
50.0
100
AcDbText
 10
14524.131837222
 20
1031.557706291228
 30
0.0
 40
100.0
  1
NO.03      <縮尺> S=1/40
  7
STYLE2
100
AcDbText
  0
TEXT
  5
16B84
330
747D
100
AcDbEntity
  8
文字
 62
     7
 48
50.0
100
AcDbText
 10
14639.78538849418
 20
879.3493344864453
 30
0.0
 40
100.0
  1
～一般型・多雪地型～
  7
STYLE2
100
AcDbText
  0
TEXT
  5
16B86
330
747D
100
AcDbEntity
  8
文字
 62
     7
 48
50.0
100
AcDbText
 10
13209.4053442172
 20
76.09434707649348
 30
0.0
 40
100.0
  1
○床面積 ： N(連続数)×3.03㎡(0.92坪) 　
  7
STYLE2
100
AcDbText
  0
TEXT
  5
17234
330
747D
100
AcDbEntity
  8
文字
 62
     7
 48
50.0
100
AcDbText
 10
15022.63965474516
 20
10930.01374588372
 30
0.0
 40
100.0
  1
F12            1.2
  7
STYLE1
100
AcDbText
  0
TEXT
  5
17235
330
747D
100
AcDbEntity
  8
文字
 62
     7
 48
50.0
100
AcDbText
 10
13583.11819016569
 20
10930.01374588372
 30
0.0
 40
100.0
  1
根太
  7
STYLE1
100
AcDbText
  0
TEXT
  5
17236
330
747D
100
AcDbEntity
  8
文字
 62
     7
 48
50.0
100
AcDbText
 10
13248.77747366448
 20
8550.013745883731
 30
0.0
 40
100.0
  1
16
  7
STYLE1
100
AcDbText
  0
LINE
  5
17237
330
747D
100
AcDbEntity
  8
仕様書枠
 48
50.0
100
AcDbLine
 10
16307.19999999998
 20
8179.600000000002
 30
0.0
 11
13127.19999999999
 21
8179.600000000004
 31
0.0
  0
TEXT
  5
173C8
330
747D
100
AcDbEntity
  8
部品1
100
AcDbText
 10
6057.833242924309
 20
2101.239202182542
 30
0.0
 40
135.0
  1
正面図
  7
STYLE2
100
AcDbText
  0
TEXT
  5
173C9
330
747D
100
AcDbEntity
  8
部品1
100
AcDbText
 10
11210.41111449716
 20
2101.239202182541
 30
0.0
 40
135.0
  1
側面図
  7
STYLE2
100
AcDbText
  0
LINE
  5
173CA
330
747D
100
AcDbEntity
  8
Ｇ．Ｌ
100
AcDbLine
 10
5271.348683056053
 20
2792.185649128406
 30
0.0
 11
13270.5268234103
 21
2792.185649128406
 31
0.0
  0
TEXT
  5
173CB
330
747D
100
AcDbEntity
  8
文字
 62
     7
 48
50.0
100
AcDbText
 10
13209.4053442172
 20
228.5435242569015
 30
0.0
 40
100.0
  1
○有効開口寸法 ： 686×1770(mm)
  7
STYLE2
100
AcDbText
  0
LINE
  5
173CC
330
747D
100
AcDbEntity
  8
部品1
100
AcDbLine
 10
4929.274340481629
 20
4732.185649128406
 30
0.0
 11
8451.902964380293
 21
4732.185649128406
 31
0.0
  0
LINE
  5
173CD
330
747D
100
AcDbEntity
  8
部品1
100
AcDbLine
 10
5246.310251795449
 20
2934.185649128414
 30
0.0
 11
8451.902964380293
 21
2934.185649128426
 31
0.0
  0
LINE
  5
173CE
330
747D
100
AcDbEntity
  8
部品1
100
AcDbLine
 10
5253.715984985205
 20
2892.185649128406
 30
0.0
 11
8451.902964380293
 21
2892.185649128406
 31
0.0
  0
LINE
  5
173CF
330
747D
100
AcDbEntity
  8
寸法
 48
50.0
100
AcDbLine
 10
4876.82369315233
 20
5029.648051754253
 30
0.0
 11
5040.632181805473
 21
4100.643948156629
 31
0.0
  0
LINE
  5
173D0
330
747D
100
AcDbEntity
  8
寸法
 48
50.0
100
AcDbLine
 10
4846.360894795757
 20
5029.648051754253
 30
0.0
 11
5015.085297209224
 21
4072.764415820906
 31
0.0
  0
LINE
  5
173D1
330
747D
100
AcDbEntity
  8
細線
 48
50.0
100
AcDbLine
 10
7071.902964380291
 20
4826.185649128406
 30
0.0
 11
7071.902964380291
 21
4967.18564912841
 31
0.0
  0
LINE
  5
173D2
330
747D
100
AcDbEntity
  8
細線
 48
50.0
100
AcDbLine
 10
5701.902964380291
 20
4826.18564912841
 30
0.0
 11
5701.902964380291
 21
4967.18564912841
 31
0.0
  0
LINE
  5
173D3
330
747D
100
AcDbEntity
  8
寸法
 48
50.0
100
AcDbLine
 10
5058.896718048165
 20
3824.297501325381
 30
0.0
 11
5265.141535054628
 21
2654.625020246249
 31
0.0
  0
LINE
  5
173D4
330
747D
100
AcDbEntity
  8
寸法
 48
50.0
100
AcDbLine
 10
5084.443602644415
 20
3852.177033661103
 30
0.0
 11
5295.604333411201
 21
2654.625020246249
 31
0.0
  0
LINE
  5
173D5
330
747D
100
AcDbEntity
  8
部品1
100
AcDbLine
 10
5651.902964380291
 20
4732.185649128406
 30
0.0
 11
5651.902964380291
 21
2934.18564912841
 31
0.0
  0
LINE
  5
173D6
330
747D
100
AcDbEntity
  8
部品1
100
AcDbLine
 10
4401.902964380291
 20
4732.185649128406
 30
0.0
 11
4401.902964380291
 21
2934.18564912841
 31
0.0
  0
LINE
  5
173D7
330
747D
100
AcDbEntity
  8
部品1
100
AcDbLine
 10
4341.902964380291
 20
4826.18564912841
 30
0.0
 11
4341.902964380291
 21
2792.185649128406
 31
0.0
  0
LINE
  5
173D8
330
747D
100
AcDbEntity
  8
部品1
100
AcDbLine
 10
4341.902964380291
 20
2934.18564912841
 30
0.0
 11
5215.847453438879
 21
2934.185649128412
 31
0.0
  0
LINE
  5
173D9
330
747D
100
AcDbEntity
  8
部品1
100
AcDbLine
 10
4341.902964380291
 20
2892.185649128406
 30
0.0
 11
5223.253186628635
 21
2892.185649128406
 31
0.0
  0
LINE
  5
173DA
330
747D
100
AcDbEntity
  8
Ｇ．Ｌ
100
AcDbLine
 10
3475.803316100055
 20
2792.185649128406
 30
0.0
 11
5240.885884699483
 21
2792.185649128406
 31
0.0
  0
TEXT
  5
173DB
330
747D
100
AcDbEntity
  8
部品1
100
AcDbText
 10
3753.405269548928
 20
2828.292552734308
 30
0.0
 40
125.0
  1
G.L
  7
STYLE2
100
AcDbText
  0
LINE
  5
173DC
330
747D
100
AcDbEntity
  8
部品1
100
AcDbLine
 10
3725.300327424155
 20
2922.089459696071
 30
0.0
 11
3650.300327424155
 21
2792.185649128406
 31
0.0
  0
LINE
  5
173DD
330
747D
100
AcDbEntity
  8
部品1
100
AcDbLine
 10
3650.300327424155
 20
2792.185649128406
 30
0.0
 11
3575.300327424155
 21
2922.089459696071
 31
0.0
  0
LINE
  5
173DE
330
747D
100
AcDbEntity
  8
部品1
100
AcDbLine
 10
3575.300327424155
 20
2922.089459696071
 30
0.0
 11
3725.300327424155
 21
2922.089459696071
 31
0.0
  0
LINE
  5
173DF
330
747D
100
AcDbEntity
  8
部品1
100
AcDbLine
 10
5711.902964380292
 20
2934.185649128421
 30
0.0
 11
5711.902964380292
 21
2892.185649128406
 31
0.0
  0
LINE
  5
173E0
330
747D
100
AcDbEntity
  8
部品1
100
AcDbLine
 10
4341.902964380291
 20
4732.185649128406
 30
0.0
 11
4898.811542125057
 21
4732.185649128406
 31
0.0
  0
LINE
  5
173E1
330
747D
100
AcDbEntity
  8
寸法
 48
50.0
100
AcDbLine
 10
5213.559307387523
 20
4055.400189925776
 30
0.0
 11
4771.819443358412
 21
3849.413508416653
 31
0.0
  0
LINE
  5
173E2
330
747D
100
AcDbEntity
  8
寸法
 48
50.0
100
AcDbLine
 10
5327.709456495226
 20
4075.527941065358
 30
0.0
 11
4885.969592466115
 21
3869.541259556235
 31
0.0
  0
LINE
  5
173E3
330
747D
100
AcDbEntity
  8
寸法
 48
50.0
100
AcDbLine
 10
5084.443602644415
 20
3852.177033661103
 30
0.0
 11
4885.969592466119
 21
3869.541259556235
 31
0.0
  0
LINE
  5
173E4
330
747D
100
AcDbEntity
  8
寸法
 48
50.0
100
AcDbLine
 10
5058.896718048165
 20
3824.297501325381
 30
0.0
 11
4771.819443358412
 21
3849.413508416653
 31
0.0
  0
LINE
  5
173E5
330
747D
100
AcDbEntity
  8
寸法
 48
50.0
100
AcDbLine
 10
5015.085297209224
 20
4072.764415820906
 30
0.0
 11
5213.559307387523
 21
4055.400189925776
 31
0.0
  0
LINE
  5
173E6
330
747D
100
AcDbEntity
  8
寸法
 48
50.0
100
AcDbLine
 10
5040.632181805469
 20
4100.643948156629
 30
0.0
 11
5327.709456495226
 21
4075.527941065358
 31
0.0
  0
LINE
  5
173E7
330
747D
100
AcDbEntity
  8
細線
 48
50.0
100
AcDbLine
 10
5711.902964380292
 20
4732.185649128406
 30
0.0
 11
5711.902964380292
 21
4826.18564912841
 31
0.0
  0
LINE
  5
173E8
330
747D
100
AcDbEntity
  8
部品1
100
AcDbLine
 10
7021.902964380294
 20
4732.185649128406
 30
0.0
 11
7021.902964380294
 21
2934.18564912841
 31
0.0
  0
LINE
  5
173E9
330
747D
100
AcDbEntity
  8
部品1
100
AcDbLine
 10
5771.902964380291
 20
4732.185649128406
 30
0.0
 11
5771.902964380291
 21
2934.18564912841
 31
0.0
  0
LINE
  5
173EA
330
747D
100
AcDbEntity
  8
部品1
100
AcDbLine
 10
7141.902964380292
 20
4732.185649128406
 30
0.0
 11
7141.902964380292
 21
2934.18564912841
 31
0.0
  0
LINE
  5
173EB
330
747D
100
AcDbEntity
  8
部品1
100
AcDbLine
 10
7081.902964380294
 20
2934.185649128421
 30
0.0
 11
7081.902964380294
 21
2892.185649128406
 31
0.0
  0
LINE
  5
173EC
330
747D
100
AcDbEntity
  8
細線
 48
50.0
100
AcDbLine
 10
7081.902964380292
 20
4732.185649128406
 30
0.0
 11
7081.902964380295
 21
4826.185649128406
 31
0.0
  0
LINE
  5
173ED
330
747D
100
AcDbEntity
  8
部品1
100
AcDbLine
 10
8451.902964380293
 20
4826.185649128403
 30
0.0
 11
8451.902964380293
 21
2792.185649128406
 31
0.0
  0
LINE
  5
173EE
330
747D
100
AcDbEntity
  8
部品1
100
AcDbLine
 10
8391.902964380292
 20
4732.185649128406
 30
0.0
 11
8391.902964380292
 21
2934.185649128426
 31
0.0
  0
LINE
  5
173EF
330
747D
100
AcDbEntity
  8
部品1
100
AcDbLine
 10
5967.307839186353
 20
2294.132731401065
 30
0.0
 11
5967.307839186353
 21
2054.240409855533
 31
0.0
  0
LINE
  5
173F0
330
747D
100
AcDbEntity
  8
部品1
100
AcDbLine
 10
5967.307839186353
 20
2054.240409855533
 30
0.0
 11
6730.778505414794
 21
2054.240409855533
 31
0.0
  0
LINE
  5
173F1
330
747D
100
AcDbEntity
  8
部品1
100
AcDbLine
 10
6730.778505414794
 20
2054.240409855533
 30
0.0
 11
6730.778505414794
 21
2294.132731401065
 31
0.0
  0
LINE
  5
173F2
330
747D
100
AcDbEntity
  8
部品1
100
AcDbLine
 10
6730.778505414794
 20
2294.132731401065
 30
0.0
 11
5967.307839186353
 21
2294.132731401065
 31
0.0
  0
LINE
  5
173F3
330
747D
100
AcDbEntity
  8
部品1
100
AcDbLine
 10
11120.96501307356
 20
2294.132731401064
 30
0.0
 11
11120.96501307356
 21
2054.240409855532
 31
0.0
  0
LINE
  5
173F4
330
747D
100
AcDbEntity
  8
部品1
100
AcDbLine
 10
11120.96501307356
 20
2054.240409855532
 30
0.0
 11
11884.43567930199
 21
2054.240409855532
 31
0.0
  0
LINE
  5
173F5
330
747D
100
AcDbEntity
  8
部品1
100
AcDbLine
 10
11884.43567930199
 20
2054.240409855532
 30
0.0
 11
11884.43567930199
 21
2294.132731401064
 31
0.0
  0
LINE
  5
173F6
330
747D
100
AcDbEntity
  8
部品1
100
AcDbLine
 10
11884.43567930199
 20
2294.132731401064
 30
0.0
 11
11120.96501307356
 21
2294.132731401064
 31
0.0
  0
TEXT
  5
173F7
330
747D
100
AcDbEntity
  8
文字
 62
     7
 48
50.0
100
AcDbText
 10
15022.63965474516
 20
9570.013745883725
 30
0.0
 40
100.0
  1
F12            1.0
  7
STYLE1
100
AcDbText
  0
TEXT
  5
173F8
330
747D
100
AcDbEntity
  8
文字
 62
     7
 48
50.0
100
AcDbText
 10
13583.11819016569
 20
9570.013745883727
 30
0.0
 40
100.0
  1
母屋中
  7
STYLE1
100
AcDbText
  0
TEXT
  5
173F9
330
747D
100
AcDbEntity
  8
文字
 62
     7
 48
50.0
100
AcDbText
 10
13583.11819016568
 20
8720.013745883731
 30
0.0
 40
100.0
  1
棚板
  7
STYLE1
100
AcDbText
  0
TEXT
  5
173FA
330
747D
100
AcDbEntity
  8
文字
 62
     7
 48
50.0
100
AcDbText
 10
15022.63965474515
 20
8720.013745883727
 30
0.0
 40
100.0
  1
F12            0.6
  7
STYLE1
100
AcDbText
  0
TEXT
  5
173FB
330
747D
100
AcDbEntity
  8
文字
 62
     7
 48
50.0
100
AcDbText
 10
13583.11819016568
 20
8890.013745883729
 30
0.0
 40
100.0
  1
扉
  7
STYLE1
100
AcDbText
  0
TEXT
  5
173FC
330
747D
100
AcDbEntity
  8
文字
 62
     7
 48
50.0
100
AcDbText
 10
15022.63965474515
 20
8890.013745883726
 30
0.0
 40
100.0
  1
F12            0.8
  7
STYLE1
100
AcDbText
  0
TEXT
  5
173FD
330
747D
100
AcDbEntity
  8
文字
 62
     7
 48
50.0
100
AcDbText
 10
13583.11819016567
 20
9060.013745883729
 30
0.0
 40
100.0
  1
正面パネル
  7
STYLE1
100
AcDbText
  0
TEXT
  5
173FE
330
747D
100
AcDbEntity
  8
文字
 62
     7
 48
50.0
100
AcDbText
 10
15022.63965474514
 20
9060.013745883725
 30
0.0
 40
100.0
  1
F12            0.7
  7
STYLE1
100
AcDbText
  0
TEXT
  5
173FF
330
747D
100
AcDbEntity
  8
文字
 62
     7
 48
50.0
100
AcDbText
 10
14269.60464131317
 20
483.8967129911416
 30
0.0
 40
160.0
  1
ＮＸＮ－３０ＣＳＬ－Ｎ
  7
STYLE2
100
AcDbText
  0
TEXT
  5
17400
330
747D
100
AcDbEntity
  8
文字
 62
     7
 48
50.0
100
AcDbText
 10
15022.63965474516
 20
10590.01374588372
 30
0.0
 40
100.0
  1
F12            1.0
  7
STYLE1
100
AcDbText
  0
TEXT
  5
17401
330
747D
100
AcDbEntity
  8
文字
 62
     7
 48
50.0
100
AcDbText
 10
13248.77747366447
 20
8890.013745883729
 30
0.0
 40
100.0
  1
14
  7
STYLE1
100
AcDbText
  0
TEXT
  5
17402
330
747D
100
AcDbEntity
  8
文字
 62
     7
 48
50.0
100
AcDbText
 10
13583.11819016569
 20
10590.01374588373
 30
0.0
 40
100.0
  1
床パネル
 41
0.9
  7
STYLE1
100
AcDbText
  0
LINE
  5
17403
330
747D
100
AcDbEntity
  8
仕様書枠
 48
50.0
100
AcDbLine
 10
16307.19999999999
 20
8859.6
 30
0.0
 11
13127.19999999999
 21
8859.600000000002
 31
0.0
  0
LINE
  5
17404
330
747D
100
AcDbEntity
  8
仕様書枠
 48
50.0
100
AcDbLine
 10
13127.2
 20
11409.6
 30
0.0
 11
13127.19999999999
 21
8179.600000000004
 31
0.0
  0
TEXT
  5
17405
330
747D
100
AcDbEntity
  8
文字
 62
     7
 48
50.0
100
AcDbText
 10
13229.83081656553
 20
8210.013745883733
 30
0.0
 40
100.0
  1
Y10→溶融亜鉛-5％アルミニウム合金めっき鋼板(JIS G 3317)
 41
0.9
  7
STYLE1
100
AcDbText
  0
TEXT
  5
17406
330
747D
100
AcDbEntity
  8
文字
 62
     7
 48
50.0
100
AcDbText
 10
13229.83081656553
 20
8380.013745883733
 30
0.0
 40
100.0
  1
F12→溶融亜鉛めっき鋼板(JIS G 3302)
  7
STYLE1
100
AcDbText
  0
LINE
  5
17407
330
747D
100
AcDbEntity
  8
仕様書枠
 48
50.0
100
AcDbLine
 10
16307.19999999998
 20
8349.600000000002
 30
0.0
 11
13127.19999999999
 21
8349.600000000004
 31
0.0
  0
LINE
  5
17408
330
747D
100
AcDbEntity
  8
仕様書枠
 48
50.0
100
AcDbLine
 10
16307.19999999998
 20
8519.600000000002
 30
0.0
 11
13127.19999999999
 21
8519.600000000004
 31
0.0
  0
TEXT
  5
17409
330
747D
100
AcDbEntity
  8
文字
 62
     7
 48
50.0
100
AcDbText
 10
15022.63965474515
 20
9230.013745883725
 30
0.0
 40
100.0
  1
F12            0.6
  7
STYLE1
100
AcDbText
  0
TEXT
  5
1740A
330
747D
100
AcDbEntity
  8
文字
 62
     7
 48
50.0
100
AcDbText
 10
15022.63965474517
 20
9400.013745883725
 30
0.0
 40
100.0
  1
Y10            0.5
  7
STYLE1
100
AcDbText
  0
TEXT
  5
1740B
330
747D
100
AcDbEntity
  8
文字
 62
     7
 48
50.0
100
AcDbText
 10
15022.63965474516
 20
9910.013745883725
 30
0.0
 40
100.0
  1
Y10            0.7
  7
STYLE1
100
AcDbText
  0
TEXT
  5
1740C
330
747D
100
AcDbEntity
  8
文字
 62
     7
 48
50.0
100
AcDbText
 10
15022.63965474516
 20
10080.01374588372
 30
0.0
 40
100.0
  1
Y10            0.7
  7
STYLE1
100
AcDbText
  0
TEXT
  5
1740D
330
747D
100
AcDbEntity
  8
文字
 62
     7
 48
50.0
100
AcDbText
 10
15022.63965474516
 20
10250.01374588372
 30
0.0
 40
100.0
  1
Y10            1.0
  7
STYLE1
100
AcDbText
  0
TEXT
  5
1740E
330
747D
100
AcDbEntity
  8
文字
 62
     7
 48
50.0
100
AcDbText
 10
15022.63965474516
 20
10420.01374588372
 30
0.0
 40
100.0
  1
Y10            1.0
  7
STYLE1
100
AcDbText
  0
TEXT
  5
1740F
330
747D
100
AcDbEntity
  8
文字
 62
     7
 48
50.0
100
AcDbText
 10
15022.63965474517
 20
10760.01374588372
 30
0.0
 40
100.0
  1
F12            1.0
  7
STYLE1
100
AcDbText
  0
TEXT
  5
17410
330
747D
100
AcDbEntity
  8
文字
 62
     7
 48
50.0
100
AcDbText
 10
15022.63965474517
 20
11100.01374588372
 30
0.0
 40
100.0
  1
F12            1.2
  7
STYLE1
100
AcDbText
  0
TEXT
  5
17411
330
747D
100
AcDbEntity
  8
文字
 62
     7
 48
50.0
100
AcDbText
 10
13248.77747366447
 20
9230.013745883729
 30
0.0
 40
100.0
  1
12
  7
STYLE1
100
AcDbText
  0
TEXT
  5
17412
330
747D
100
AcDbEntity
  8
文字
 62
     7
 48
50.0
100
AcDbText
 10
13248.77747366447
 20
9060.013745883729
 30
0.0
 40
100.0
  1
13
  7
STYLE1
100
AcDbText
  0
LINE
  5
17413
330
747D
100
AcDbEntity
  8
仕様書枠
 48
50.0
100
AcDbLine
 10
16307.19999999999
 20
8689.6
 30
0.0
 11
13127.19999999999
 21
8689.600000000003
 31
0.0
  0
LINE
  5
17414
330
747D
100
AcDbEntity
  8
仕様書枠
 48
50.0
100
AcDbLine
 10
16307.19999999999
 20
9029.6
 30
0.0
 11
13127.19999999999
 21
9029.6
 31
0.0
  0
TEXT
  5
17415
330
747D
100
AcDbEntity
  8
文字
 62
     7
 48
50.0
100
AcDbText
 10
13248.77747366447
 20
9400.013745883727
 30
0.0
 40
100.0
  1
11
  7
STYLE1
100
AcDbText
  0
LINE
  5
17416
330
747D
100
AcDbEntity
  8
仕様書枠
 48
50.0
100
AcDbLine
 10
16307.19999999999
 20
9709.6
 30
0.0
 11
13127.19999999999
 21
9709.600000000001
 31
0.0
  0
LINE
  5
17417
330
747D
100
AcDbEntity
  8
仕様書枠
 48
50.0
100
AcDbLine
 10
16307.19999999999
 20
10219.6
 30
0.0
 11
13127.2
 21
10219.6
 31
0.0
  0
LINE
  5
17418
330
747D
100
AcDbEntity
  8
仕様書枠
 48
50.0
100
AcDbLine
 10
16307.19999999999
 20
9369.599999999998
 30
0.0
 11
13127.19999999999
 21
9369.600000000001
 31
0.0
  0
LINE
  5
17419
330
747D
100
AcDbEntity
  8
仕様書枠
 48
50.0
100
AcDbLine
 10
16307.19999999999
 20
9199.599999999998
 30
0.0
 11
13127.19999999999
 21
9199.600000000001
 31
0.0
  0
LINE
  5
1741A
330
747D
100
AcDbEntity
  8
仕様書枠
 48
50.0
100
AcDbLine
 10
16307.19999999999
 20
9539.599999999998
 30
0.0
 11
13127.19999999999
 21
9539.6
 31
0.0
  0
TEXT
  5
1741B
330
747D
100
AcDbEntity
  8
文字
 62
     7
 48
50.0
100
AcDbText
 10
13271.19032244792
 20
10250.01374588373
 30
0.0
 40
100.0
  1
6
  7
STYLE1
100
AcDbText
  0
TEXT
  5
1741C
330
747D
100
AcDbEntity
  8
文字
 62
     7
 48
50.0
100
AcDbText
 10
13271.19032244792
 20
10080.01374588373
 30
0.0
 40
100.0
  1
7
  7
STYLE1
100
AcDbText
  0
TEXT
  5
1741D
330
747D
100
AcDbEntity
  8
文字
 62
     7
 48
50.0
100
AcDbText
 10
13271.19032244792
 20
9740.013745883729
 30
0.0
 40
100.0
  1
9
  7
STYLE1
100
AcDbText
  0
TEXT
  5
1741E
330
747D
100
AcDbEntity
  8
文字
 62
     7
 48
50.0
100
AcDbText
 10
13271.19032244792
 20
9910.01374588373
 30
0.0
 40
100.0
  1
8
  7
STYLE1
100
AcDbText
  0
TEXT
  5
1741F
330
747D
100
AcDbEntity
  8
文字
 62
     7
 48
50.0
100
AcDbText
 10
13583.11819016569
 20
9910.013745883727
 30
0.0
 40
100.0
  1
鼻隠シ前後
  7
STYLE1
100
AcDbText
  0
TEXT
  5
17420
330
747D
100
AcDbEntity
  8
文字
 62
     7
 48
50.0
100
AcDbText
 10
13583.11819016569
 20
9400.013745883727
 30
0.0
 40
100.0
  1
屋根パネル
  7
STYLE1
100
AcDbText
  0
TEXT
  5
17421
330
747D
100
AcDbEntity
  8
文字
 62
     7
 48
50.0
100
AcDbText
 10
13583.11819016568
 20
9230.013745883729
 30
0.0
 40
100.0
  1
壁パネル
  7
STYLE1
100
AcDbText
  0
TEXT
  5
17422
330
747D
100
AcDbEntity
  8
文字
 62
     7
 48
50.0
100
AcDbText
 10
13248.77747366447
 20
9570.013745883727
 30
0.0
 40
100.0
  1
10
  7
STYLE1
100
AcDbText
  0
TEXT
  5
17423
330
747D
100
AcDbEntity
  8
文字
 62
     7
 48
50.0
100
AcDbText
 10
13583.11819016569
 20
10080.01374588372
 30
0.0
 40
100.0
  1
妻板左右
  7
STYLE1
100
AcDbText
  0
TEXT
  5
17424
330
747D
100
AcDbEntity
  8
文字
 62
     7
 48
50.0
100
AcDbText
 10
13271.19032244792
 20
10420.01374588372
 30
0.0
 40
100.0
  1
5
  7
STYLE1
100
AcDbText
  0
TEXT
  5
17425
330
747D
100
AcDbEntity
  8
文字
 62
     7
 48
50.0
100
AcDbText
 10
13583.11819016569
 20
10250.01374588373
 30
0.0
 40
100.0
  1
桁後
  7
STYLE1
100
AcDbText
  0
TEXT
  5
17426
330
747D
100
AcDbEntity
  8
文字
 62
     7
 48
50.0
100
AcDbText
 10
13583.11819016569
 20
10420.01374588372
 30
0.0
 40
100.0
  1
鴨居
  7
STYLE1
100
AcDbText
  0
TEXT
  5
17427
330
747D
100
AcDbEntity
  8
文字
 62
     7
 48
50.0
100
AcDbText
 10
13583.11819016569
 20
10760.01374588372
 30
0.0
 40
100.0
  1
柱
  7
STYLE1
100
AcDbText
  0
TEXT
  5
17428
330
747D
100
AcDbEntity
  8
文字
 62
     7
 48
50.0
100
AcDbText
 10
13583.11819016569
 20
11100.01374588373
 30
0.0
 40
100.0
  1
土台枠
  7
STYLE1
100
AcDbText
  0
TEXT
  5
17429
330
747D
100
AcDbEntity
  8
文字
 62
     7
 48
50.0
100
AcDbText
 10
14859.79774614482
 20
11270.01374588372
 30
0.0
 40
100.0
  1
材料（材質）　　単位mm
  7
STYLE1
100
AcDbText
  0
TEXT
  5
1742A
330
747D
100
AcDbEntity
  8
文字
 62
     7
 48
50.0
100
AcDbText
 10
13732.03840939434
 20
11270.01374588372
 30
0.0
 40
100.0
  1
部　　品　　名
  7
STYLE1
100
AcDbText
  0
TEXT
  5
1742B
330
747D
100
AcDbEntity
  8
文字
 62
     7
 48
50.0
100
AcDbText
 10
13271.19032244792
 20
10760.01374588373
 30
0.0
 40
100.0
  1
3
  7
STYLE1
100
AcDbText
  0
TEXT
  5
1742C
330
747D
100
AcDbEntity
  8
文字
 62
     7
 48
50.0
100
AcDbText
 10
13271.19032244792
 20
10590.01374588373
 30
0.0
 40
100.0
  1
4
  7
STYLE1
100
AcDbText
  0
TEXT
  5
1742D
330
747D
100
AcDbEntity
  8
文字
 62
     7
 48
50.0
100
AcDbText
 10
13271.19032244792
 20
10930.01374588373
 30
0.0
 40
100.0
  1
2
  7
STYLE1
100
AcDbText
  0
TEXT
  5
1742E
330
747D
100
AcDbEntity
  8
文字
 62
     7
 48
50.0
100
AcDbText
 10
13271.19032244792
 20
11100.01374588373
 30
0.0
 40
100.0
  1
1
  7
STYLE1
100
AcDbText
  0
TEXT
  5
1742F
330
747D
100
AcDbEntity
  8
文字
 62
     7
 48
50.0
100
AcDbText
 10
13197.42518560407
 20
11270.01374588372
 30
0.0
 40
100.0
  1
品番
  7
STYLE1
100
AcDbText
  0
LINE
  5
17430
330
747D
100
AcDbEntity
  8
仕様書枠
 48
50.0
100
AcDbLine
 10
16307.19999999999
 20
10729.6
 30
0.0
 11
13127.19999999999
 21
10729.6
 31
0.0
  0
LINE
  5
17431
330
747D
100
AcDbEntity
  8
仕様書枠
 48
50.0
100
AcDbLine
 10
16307.19999999999
 20
10389.6
 30
0.0
 11
13127.19999999999
 21
10389.6
 31
0.0
  0
LINE
  5
17432
330
747D
100
AcDbEntity
  8
仕様書枠
 48
50.0
100
AcDbLine
 10
16307.19999999999
 20
10559.6
 30
0.0
 11
13127.19999999999
 21
10559.6
 31
0.0
  0
LINE
  5
17433
330
747D
100
AcDbEntity
  8
仕様書枠
 48
50.0
100
AcDbLine
 10
16307.19999999999
 20
11069.6
 30
0.0
 11
13127.2
 21
11069.6
 31
0.0
  0
LINE
  5
17434
330
747D
100
AcDbEntity
  8
仕様書枠
 48
50.0
100
AcDbLine
 10
16307.19999999999
 20
10899.6
 30
0.0
 11
13127.2
 21
10899.6
 31
0.0
  0
LINE
  5
17435
330
747D
100
AcDbEntity
  8
仕様書枠
 48
50.0
100
AcDbLine
 10
16307.19999999999
 20
11239.6
 30
0.0
 11
13127.2
 21
11239.6
 31
0.0
  0
LINE
  5
17436
330
747D
100
AcDbEntity
  8
仕様書枠
 48
50.0
100
AcDbLine
 10
13490.2
 20
11409.6
 30
0.0
 11
13490.20000000001
 21
8519.600000000004
 31
0.0
  0
LINE
  5
17437
330
747D
100
AcDbEntity
  8
仕様書枠
 48
50.0
100
AcDbLine
 10
14785.2
 20
11409.59999999999
 30
0.0
 11
14785.19999999999
 21
8519.600000000004
 31
0.0
  0
LINE
  5
17438
330
747D
100
AcDbEntity
  8
仕様書枠
 48
50.0
100
AcDbLine
 10
16307.19999999999
 20
8179.600000000002
 30
0.0
 11
16307.2
 21
11409.6
 31
0.0
  0
LINE
  5
17439
330
747D
100
AcDbEntity
  8
仕様書枠
 48
50.0
100
AcDbLine
 10
16307.19999999999
 20
11409.6
 30
0.0
 11
13127.2
 21
11409.6
 31
0.0
  0
LINE
  5
1743A
330
747D
100
AcDbEntity
  8
仕様書枠
 48
50.0
100
AcDbLine
 10
16307.19999999999
 20
9879.599999999999
 30
0.0
 11
13127.19999999999
 21
9879.600000000001
 31
0.0
  0
TEXT
  5
1743B
330
747D
100
AcDbEntity
  8
文字
 62
     7
 48
50.0
100
AcDbText
 10
15022.63965474514
 20
8550.013745883722
 30
0.0
 40
100.0
  1
F12            2.3
  7
STYLE1
100
AcDbText
  0
TEXT
  5
1743C
330
747D
100
AcDbEntity
  8
文字
 62
     7
 48
50.0
100
AcDbText
 10
13583.11819016568
 20
8550.013745883727
 30
0.0
 40
100.0
  1
アンカープレート
  7
STYLE1
100
AcDbText
  0
LINE
  5
1743D
330
747D
100
AcDbEntity
  8
細線
 48
50.0
100
AcDbLine
 10
4324.902964380291
 20
4967.185649128413
 30
0.0
 11
4324.902964380291
 21
4826.18564912841
 31
0.0
  0
ARC
  5
1743E
330
747D
100
AcDbEntity
  8
部品1
100
AcDbCircle
 10
4299.311385486716
 20
4960.185649128414
 30
0.0
 40
7.0
100
AcDbArc
 50
90.0
 51
183.2473427903377
  0
ARC
  5
1743F
330
747D
100
AcDbEntity
  8
部品1
100
AcDbCircle
 10
4312.526708947754
 20
4833.185649128413
 30
0.0
 40
7.0
100
AcDbArc
 50
183.2473427903377
 51
270.0
  0
ARC
  5
17440
330
747D
100
AcDbEntity
  8
部品1
 48
50.0
100
AcDbCircle
 10
4294.154898737082
 20
4939.8526482901
 30
0.0
 40
0.7
100
AcDbArc
 50
183.2473427903897
 51
262.3418727924256
  0
ARC
  5
17441
330
747D
100
AcDbEntity
  8
部品1
 48
50.0
100
AcDbCircle
 10
4302.390929261919
 20
4847.652648290097
 30
0.0
 40
0.7
100
AcDbArc
 50
183.2473427902922
 51
262.3418727924256
  0
ARC
  5
17442
330
747D
100
AcDbEntity
  8
部品1
 48
50.0
100
AcDbCircle
 10
4301.897860153358
 20
4843.985649128413
 30
0.0
 40
3.0
100
AcDbArc
 50
3.247342790337682
 51
82.34187279284659
  0
ARC
  5
17443
330
747D
100
AcDbEntity
  8
部品1
 48
50.0
100
AcDbCircle
 10
4293.661829628514
 20
4936.185649128414
 30
0.0
 40
3.0
100
AcDbArc
 50
3.247342790337682
 51
82.34187279284659
  0
LINE
  5
17444
330
747D
100
AcDbEntity
  8
部品1
100
AcDbLine
 10
4296.6570125247
 20
4936.355588583516
 30
0.0
 11
4301.692053252807
 21
4847.612995750574
 31
0.0
  0
LINE
  5
17445
330
747D
100
AcDbEntity
  8
部品1
100
AcDbLine
 10
4304.893043049544
 20
4844.155588583515
 30
0.0
 11
4305.537948856659
 21
4832.789123733173
 31
0.0
  0
LINE
  5
17446
330
747D
100
AcDbEntity
  8
部品1
100
AcDbLine
 10
4292.322625395621
 20
4959.789123733172
 30
0.0
 11
4293.456022727971
 21
4939.812995750575
 31
0.0
  0
DIMENSION
  5
17447
330
747D
100
AcDbEntity
  8
寸法
 48
50.0
100
AcDbDimension
  2
*D2
 10
4291.902964380291
 20
5179.727234386652
 30
0.0
 11
3978.417683006045
 21
5179.727234386652
 31
0.0
 70
   160
 71
     5
 42
50.0
  3
INABA_S40G
100
AcDbAlignedDimension
 13
4341.902964380291
 23
4967.185649128415
 33
0.0
 14
4291.902964380291
 24
4967.185649128413
 34
0.0
100
AcDbRotatedDimension
1001
ACAD
1000
DSTYLE
1002
{
1002
}
  0
DIMENSION
  5
17448
330
747D
100
AcDbEntity
  8
寸法
 48
50.0
100
AcDbDimension
  2
*D3
 10
8501.902964380297
 20
5402.684212824501
 30
0.0
 11
6396.902964380295
 21
5402.684212824501
 31
0.0
 70
   160
  1
N x 1370 +100
 71
     5
 42
4210.000000000006
  3
INABA_S40G
100
AcDbAlignedDimension
 13
4291.902964380291
 23
4967.185649128413
 33
0.0
 14
8501.902964380297
 24
4967.185649128408
 34
0.0
100
AcDbRotatedDimension
  0
DIMENSION
  5
17449
330
747D
100
AcDbEntity
  8
寸法
 48
50.0
100
AcDbDimension
  2
*D4
 10
4341.902964380291
 20
5179.727234386652
 30
0.0
 11
6396.902964380295
 21
5179.727234386652
 31
0.0
 70
   160
  1
柱外寸法 N x 1370
 71
     5
 42
4110.000000000005
  3
INABA_S40G
100
AcDbAlignedDimension
 13
8451.902964380296
 23
4967.18564912841
 33
0.0
 14
4341.902964380291
 24
4967.185649128415
 34
0.0
100
AcDbRotatedDimension
  0
LINE
  5
1744A
330
747D
100
AcDbEntity
  8
部品1
 48
50.0
100
AcDbLine
 10
8494.494543273864
 20
4967.18564912841
 30
0.0
 11
4887.837500015141
 21
4967.18564912841
 31
0.0
  0
LINE
  5
1744B
330
747D
100
AcDbEntity
  8
細線
 48
50.0
100
AcDbLine
 10
8499.74431336861
 20
4939.158891691909
 30
0.0
 11
4892.779373532894
 21
4939.158891692338
 31
0.0
  0
LINE
  5
1744C
330
747D
100
AcDbEntity
  8
細線
 48
50.0
100
AcDbLine
 10
8491.508282843835
 20
4846.958891691913
 30
0.0
 11
4909.036721154212
 21
4846.958891692335
 31
0.0
  0
LINE
  5
1744D
330
747D
100
AcDbEntity
  8
部品1
 48
50.0
100
AcDbLine
 10
8481.279219812831
 20
4826.185649128403
 30
0.0
 11
4912.699604295032
 21
4826.18564912841
 31
0.0
  0
DIMENSION
  5
1744E
330
747D
100
AcDbEntity
  8
寸法
 48
50.0
100
AcDbDimension
  2
*D5
 10
8451.902964380296
 20
5179.727234386649
 30
0.0
 11
8815.388245754533
 21
5179.727234386649
 31
0.0
 70
   160
 71
     5
 42
50.0
  3
INABA_S40G
100
AcDbAlignedDimension
 13
8501.902964380297
 23
4967.185649128408
 33
0.0
 14
8451.902964380296
 24
4967.18564912841
 34
0.0
100
AcDbRotatedDimension
  0
ARC
  5
1744F
330
747D
100
AcDbEntity
  8
部品1
 48
50.0
100
AcDbCircle
 10
8499.65103002351
 20
4939.852648290095
 30
0.0
 40
0.7
100
AcDbArc
 50
277.6581272075743
 51
356.7526572096103
  0
ARC
  5
17450
330
747D
100
AcDbEntity
  8
部品1
 48
50.0
100
AcDbCircle
 10
8500.14409913207
 20
4936.18564912841
 30
0.0
 40
3.0
100
AcDbArc
 50
97.65812720715343
 51
176.7526572096623
  0
LINE
  5
17451
330
747D
100
AcDbEntity
  8
部品1
100
AcDbLine
 10
8501.483303364963
 20
4959.789123733169
 30
0.0
 11
8500.349906032617
 21
4939.812995750568
 31
0.0
  0
ARC
  5
17452
330
747D
100
AcDbEntity
  8
部品1
100
AcDbCircle
 10
8481.279219812831
 20
4833.185649128409
 30
0.0
 40
7.0
100
AcDbArc
 50
270.0
 51
356.7526572096623
  0
ARC
  5
17453
330
747D
100
AcDbEntity
  8
部品1
 48
50.0
100
AcDbCircle
 10
8491.414999498665
 20
4847.652648290091
 30
0.0
 40
0.7
100
AcDbArc
 50
277.6581272075743
 51
356.7526572097079
  0
ARC
  5
17454
330
747D
100
AcDbEntity
  8
部品1
 48
50.0
100
AcDbCircle
 10
8491.908068607227
 20
4843.985649128407
 30
0.0
 40
3.0
100
AcDbArc
 50
97.65812720715343
 51
176.7526572096623
  0
LINE
  5
17455
330
747D
100
AcDbEntity
  8
部品1
100
AcDbLine
 10
8488.912885711041
 20
4844.155588583511
 30
0.0
 11
8488.267979903929
 21
4832.789123733171
 31
0.0
  0
LINE
  5
17456
330
747D
100
AcDbEntity
  8
細線
 48
50.0
100
AcDbLine
 10
8468.902964380296
 20
4967.185649128408
 30
0.0
 11
8468.902964380296
 21
4826.185649128408
 31
0.0
  0
ARC
  5
17457
330
747D
100
AcDbEntity
  8
部品1
100
AcDbCircle
 10
8494.494543273864
 20
4960.185649128408
 30
0.0
 40
7.0
100
AcDbArc
 50
356.7526572096623
 51
90.0
  0
LINE
  5
17458
330
747D
100
AcDbEntity
  8
部品1
100
AcDbLine
 10
8497.148916235884
 20
4936.355588583511
 30
0.0
 11
8492.113875507774
 21
4847.612995750568
 31
0.0
  0
LINE
  5
17459
330
747D
100
AcDbEntity
  8
細線
 48
50.0
100
AcDbLine
 10
4862.316575176321
 20
4939.15889169234
 30
0.0
 11
4294.061615390709
 21
4939.158891692409
 31
0.0
  0
LINE
  5
1745A
330
747D
100
AcDbEntity
  8
部品1
 48
50.0
100
AcDbLine
 10
4857.374701658567
 20
4967.185649128408
 30
0.0
 11
4299.311385486716
 21
4967.18564912841
 31
0.0
  0
LINE
  5
1745B
330
747D
100
AcDbEntity
  8
細線
 48
50.0
100
AcDbLine
 10
4878.573922797639
 20
4846.958891692339
 30
0.0
 11
4302.297645915538
 21
4846.958891692409
 31
0.0
  0
LINE
  5
1745C
330
747D
100
AcDbEntity
  8
部品1
 48
50.0
100
AcDbLine
 10
4882.236805938463
 20
4826.18564912841
 30
0.0
 11
4312.526708947754
 21
4826.18564912841
 31
0.0
  0
LINE
  5
1745D
330
747D
100
AcDbEntity
  8
部品1
100
AcDbLine
 10
4852.902964380295
 20
4724.185649128406
 30
0.0
 11
4852.902964380295
 21
3887.22337521933
 31
0.0
  0
LINE
  5
1745E
330
747D
100
AcDbEntity
  8
部品1
100
AcDbLine
 10
4562.902964380291
 20
4724.185649128409
 30
0.0
 11
4562.902964380294
 21
2941.185649128412
 31
0.0
  0
LINE
  5
1745F
330
747D
100
AcDbEntity
  8
部品1
100
AcDbLine
 10
4512.902964380291
 20
4724.185649128409
 30
0.0
 11
4512.902964380295
 21
2941.185649128412
 31
0.0
  0
LINE
  5
17460
330
747D
100
AcDbEntity
  8
細線
100
AcDbLine
 10
4554.902964380292
 20
4724.185649128409
 30
0.0
 11
4554.902964380295
 21
2941.185649128412
 31
0.0
  0
LINE
  5
17461
330
747D
100
AcDbEntity
  8
細線
100
AcDbLine
 10
4520.902964380291
 20
4724.185649128409
 30
0.0
 11
4520.902964380295
 21
2941.185649128412
 31
0.0
  0
LINE
  5
17462
330
747D
100
AcDbEntity
  8
細線
100
AcDbLine
 10
5548.902964380292
 20
4724.185649128409
 30
0.0
 11
5548.902964380292
 21
2948.685649128428
 31
0.0
  0
LINE
  5
17463
330
747D
100
AcDbEntity
  8
細線
100
AcDbLine
 10
5478.902964380291
 20
4724.185649128409
 30
0.0
 11
5478.902964380291
 21
2948.685649128428
 31
0.0
  0
LINE
  5
17464
330
747D
100
AcDbEntity
  8
細線
100
AcDbLine
 10
5408.902964380292
 20
4724.185649128409
 30
0.0
 11
5408.902964380292
 21
2948.685649128428
 31
0.0
  0
LINE
  5
17465
330
747D
100
AcDbEntity
  8
細線
100
AcDbLine
 10
5338.902964380292
 20
4724.185649128409
 30
0.0
 11
5338.902964380292
 21
2948.685649128428
 31
0.0
  0
LINE
  5
17469
330
747D
100
AcDbEntity
  8
部品1
 48
50.0
100
AcDbLine
 10
4436.902964380291
 20
3897.685649128418
 30
0.0
 11
4489.902964380291
 21
3897.685649128418
 31
0.0
  0
LINE
  5
17483
330
747D
100
AcDbEntity
  8
細線
100
AcDbLine
 10
4752.902964380295
 20
4724.185649128406
 30
0.0
 11
4752.902964380295
 21
2941.185649128414
 31
0.0
  0
LINE
  5
17484
330
747D
100
AcDbEntity
  8
細線
100
AcDbLine
 10
4682.902964380295
 20
4724.185649128406
 30
0.0
 11
4682.902964380295
 21
2941.185649128414
 31
0.0
  0
LINE
  5
17485
330
747D
100
AcDbEntity
  8
部品1
100
AcDbLine
 10
5258.902964380292
 20
4724.185649128409
 30
0.0
 11
5258.902964380292
 21
4081.547729102401
 31
0.0
  0
LINE
  5
17486
330
747D
100
AcDbEntity
  8
細線
100
AcDbLine
 10
5140.402964380291
 20
4724.185649128413
 30
0.0
 11
5140.402964380295
 21
4091.915135730222
 31
0.0
  0
LINE
  5
17487
330
747D
100
AcDbEntity
  8
細線
100
AcDbLine
 10
5070.402964380292
 20
4724.185649128413
 30
0.0
 11
5070.402964380292
 21
4098.039342177037
 31
0.0
  0
LINE
  5
17488
330
747D
100
AcDbEntity
  8
細線
100
AcDbLine
 10
5000.402964380292
 20
4724.185649128413
 30
0.0
 11
5000.402964380292
 21
4328.795177557497
 31
0.0
  0
LINE
  5
17489
330
747D
100
AcDbEntity
  8
細線
100
AcDbLine
 10
4930.402964380295
 20
4553.021790436426
 30
0.0
 11
4930.402964380295
 21
3923.362218726342
 31
0.0
  0
LINE
  5
1748A
330
747D
100
AcDbEntity
  8
細線
100
AcDbLine
 10
4401.902964380291
 20
4724.185649128409
 30
0.0
 11
4900.222157970727
 21
4724.185649128409
 31
0.0
  0
LINE
  5
1748B
330
747D
100
AcDbEntity
  8
部品1
100
AcDbLine
 10
4852.902964380291
 20
2948.685649128419
 30
0.0
 11
5213.290712218602
 21
2948.685649128423
 31
0.0
  0
LINE
  5
1748C
330
747D
100
AcDbEntity
  8
部品1
100
AcDbLine
 10
4401.902964380291
 20
2941.18564912841
 30
0.0
 11
4852.902964380295
 21
2941.185649128414
 31
0.0
  0
LINE
  5
1748D
330
747D
100
AcDbEntity
  8
細線
100
AcDbLine
 10
4716.902964380291
 20
4791.685649128406
 30
0.0
 11
4716.902964380291
 21
4768.685649128406
 31
0.0
  0
LINE
  5
1748E
330
747D
100
AcDbEntity
  8
細線
100
AcDbLine
 10
4790.902964380292
 20
4779.685649128405
 30
0.0
 11
4716.902964380291
 21
4779.685649128405
 31
0.0
  0
LINE
  5
1748F
330
747D
100
AcDbEntity
  8
細線
100
AcDbLine
 10
4790.902964380292
 20
4773.685649128406
 30
0.0
 11
4716.902964380291
 21
4773.685649128406
 31
0.0
  0
LINE
  5
17490
330
747D
100
AcDbEntity
  8
細線
100
AcDbLine
 10
4790.902964380292
 20
4785.685649128406
 30
0.0
 11
4716.902964380291
 21
4785.685649128406
 31
0.0
  0
LINE
  5
17491
330
747D
100
AcDbEntity
  8
細線
100
AcDbLine
 10
4642.902964380291
 20
4785.685649128406
 30
0.0
 11
4711.902964380292
 21
4785.685649128406
 31
0.0
  0
LINE
  5
17492
330
747D
100
AcDbEntity
  8
細線
100
AcDbLine
 10
4642.902964380291
 20
4773.685649128406
 30
0.0
 11
4716.902964380291
 21
4773.685649128406
 31
0.0
  0
LINE
  5
17493
330
747D
100
AcDbEntity
  8
細線
100
AcDbLine
 10
4642.902964380291
 20
4779.685649128405
 30
0.0
 11
4716.902964380291
 21
4779.685649128405
 31
0.0
  0
LINE
  5
17494
330
747D
100
AcDbEntity
  8
細線
100
AcDbLine
 10
4642.902964380291
 20
4785.685649128406
 30
0.0
 11
4716.902964380291
 21
4785.685649128406
 31
0.0
  0
LINE
  5
17495
330
747D
100
AcDbEntity
  8
部品1
 48
0.01
100
AcDbLine
 10
4804.902964380292
 20
4798.185649128406
 30
0.0
 11
4628.902964380291
 21
4798.185649128406
 31
0.0
  0
LINE
  5
17496
330
747D
100
AcDbEntity
  8
部品1
 48
0.01
100
AcDbLine
 10
4626.902964380291
 20
4796.185649128406
 30
0.0
 11
4626.902964380291
 21
4764.685649128406
 31
0.0
  0
LINE
  5
17497
330
747D
100
AcDbEntity
  8
部品1
 48
0.01
100
AcDbLine
 10
4628.902964380291
 20
4762.685649128406
 30
0.0
 11
4804.902964380292
 21
4762.685649128406
 31
0.0
  0
LINE
  5
17498
330
747D
100
AcDbEntity
  8
部品1
 48
0.01
100
AcDbLine
 10
4806.902964380292
 20
4764.685649128406
 30
0.0
 11
4806.902964380292
 21
4796.185649128406
 31
0.0
  0
LINE
  5
17499
330
747D
100
AcDbEntity
  8
細線
100
AcDbLine
 10
4642.902964380291
 20
4791.685649128406
 30
0.0
 11
4642.902964380291
 21
4768.685649128406
 31
0.0
  0
LINE
  5
1749A
330
747D
100
AcDbEntity
  8
細線
100
AcDbLine
 10
4790.902964380292
 20
4768.685649128406
 30
0.0
 11
4790.902964380292
 21
4791.685649128406
 31
0.0
  0
LINE
  5
1749B
330
747D
100
AcDbEntity
  8
細線
100
AcDbLine
 10
4790.902964380292
 20
4791.685649128406
 30
0.0
 11
4716.902964380291
 21
4791.685649128406
 31
0.0
  0
LINE
  5
1749C
330
747D
100
AcDbEntity
  8
細線
100
AcDbLine
 10
4642.902964380291
 20
4768.685649128406
 30
0.0
 11
4716.902964380291
 21
4768.685649128406
 31
0.0
  0
LINE
  5
1749D
330
747D
100
AcDbEntity
  8
細線
100
AcDbLine
 10
4716.902964380291
 20
4791.685649128406
 30
0.0
 11
4642.902964380291
 21
4791.685649128406
 31
0.0
  0
LINE
  5
1749E
330
747D
100
AcDbEntity
  8
細線
100
AcDbLine
 10
4716.902964380291
 20
4768.685649128406
 30
0.0
 11
4790.902964380292
 21
4768.685649128406
 31
0.0
  0
ARC
  5
1749F
330
747D
100
AcDbEntity
  8
部品1
 48
0.01
100
AcDbCircle
 10
4628.902964380291
 20
4796.185649128406
 30
0.0
 40
2.0
100
AcDbArc
 50
90.0
 51
180.0
  0
ARC
  5
174A0
330
747D
100
AcDbEntity
  8
部品1
 48
0.01
100
AcDbCircle
 10
4628.902964380291
 20
4764.685649128406
 30
0.0
 40
2.0
100
AcDbArc
 50
180.0
 51
270.0
  0
ARC
  5
174A1
330
747D
100
AcDbEntity
  8
部品1
 48
0.01
100
AcDbCircle
 10
4804.902964380292
 20
4796.185649128406
 30
0.0
 40
2.0
100
AcDbArc
 50
0.0
 51
90.0
  0
ARC
  5
174A2
330
747D
100
AcDbEntity
  8
部品1
 48
0.01
100
AcDbCircle
 10
4804.902964380292
 20
4764.685649128406
 30
0.0
 40
2.0
100
AcDbArc
 50
270.0
 51
0.0
  0
ARC
  5
174A3
330
747D
100
AcDbEntity
  8
部品1
 48
0.01
100
AcDbCircle
 10
5248.902964380292
 20
4764.685649128406
 30
0.0
 40
2.0
100
AcDbArc
 50
180.0
 51
270.0
  0
ARC
  5
174A4
330
747D
100
AcDbEntity
  8
部品1
 48
0.01
100
AcDbCircle
 10
5248.902964380292
 20
4796.185649128406
 30
0.0
 40
2.0
100
AcDbArc
 50
90.0
 51
180.0
  0
ARC
  5
174A5
330
747D
100
AcDbEntity
  8
部品1
 48
0.01
100
AcDbCircle
 10
5424.902964380291
 20
4764.685649128406
 30
0.0
 40
2.0
100
AcDbArc
 50
270.0
 51
0.0
  0
ARC
  5
174A6
330
747D
100
AcDbEntity
  8
部品1
 48
0.01
100
AcDbCircle
 10
5424.902964380291
 20
4796.185649128406
 30
0.0
 40
2.0
100
AcDbArc
 50
0.0
 51
90.0
  0
LINE
  5
174A7
330
747D
100
AcDbEntity
  8
細線
100
AcDbLine
 10
5336.902964380292
 20
4768.685649128406
 30
0.0
 11
5262.902964380291
 21
4768.685649128406
 31
0.0
  0
LINE
  5
174A8
330
747D
100
AcDbEntity
  8
細線
100
AcDbLine
 10
5336.902964380292
 20
4791.685649128406
 30
0.0
 11
5410.902964380291
 21
4791.685649128406
 31
0.0
  0
LINE
  5
174A9
330
747D
100
AcDbEntity
  8
細線
100
AcDbLine
 10
5410.902964380291
 20
4768.685649128406
 30
0.0
 11
5336.902964380292
 21
4768.685649128406
 31
0.0
  0
LINE
  5
174AA
330
747D
100
AcDbEntity
  8
細線
100
AcDbLine
 10
5262.902964380291
 20
4791.685649128406
 30
0.0
 11
5336.902964380292
 21
4791.685649128406
 31
0.0
  0
LINE
  5
174AB
330
747D
100
AcDbEntity
  8
細線
100
AcDbLine
 10
5262.902964380291
 20
4768.685649128406
 30
0.0
 11
5262.902964380291
 21
4791.685649128406
 31
0.0
  0
LINE
  5
174AC
330
747D
100
AcDbEntity
  8
細線
100
AcDbLine
 10
5410.902964380291
 20
4791.685649128406
 30
0.0
 11
5410.902964380291
 21
4768.685649128406
 31
0.0
  0
LINE
  5
174AD
330
747D
100
AcDbEntity
  8
部品1
 48
0.01
100
AcDbLine
 10
5246.902964380291
 20
4764.685649128406
 30
0.0
 11
5246.902964380291
 21
4796.185649128406
 31
0.0
  0
LINE
  5
174AE
330
747D
100
AcDbEntity
  8
部品1
 48
0.01
100
AcDbLine
 10
5424.902964380291
 20
4762.685649128406
 30
0.0
 11
5248.902964380292
 21
4762.685649128406
 31
0.0
  0
LINE
  5
174AF
330
747D
100
AcDbEntity
  8
部品1
 48
0.01
100
AcDbLine
 10
5426.902964380292
 20
4796.185649128406
 30
0.0
 11
5426.902964380292
 21
4764.685649128406
 31
0.0
  0
LINE
  5
174B0
330
747D
100
AcDbEntity
  8
部品1
 48
0.01
100
AcDbLine
 10
5248.902964380292
 20
4798.185649128406
 30
0.0
 11
5424.902964380291
 21
4798.185649128406
 31
0.0
  0
LINE
  5
174B1
330
747D
100
AcDbEntity
  8
細線
100
AcDbLine
 10
5410.902964380291
 20
4785.685649128406
 30
0.0
 11
5336.902964380292
 21
4785.685649128406
 31
0.0
  0
LINE
  5
174B2
330
747D
100
AcDbEntity
  8
細線
100
AcDbLine
 10
5410.902964380291
 20
4779.685649128405
 30
0.0
 11
5336.902964380292
 21
4779.685649128405
 31
0.0
  0
LINE
  5
174B3
330
747D
100
AcDbEntity
  8
細線
100
AcDbLine
 10
5410.902964380291
 20
4773.685649128406
 30
0.0
 11
5336.902964380292
 21
4773.685649128406
 31
0.0
  0
LINE
  5
174B4
330
747D
100
AcDbEntity
  8
細線
100
AcDbLine
 10
5410.902964380291
 20
4785.685649128406
 30
0.0
 11
5341.902964380292
 21
4785.685649128406
 31
0.0
  0
LINE
  5
174B5
330
747D
100
AcDbEntity
  8
細線
100
AcDbLine
 10
5262.902964380291
 20
4785.685649128406
 30
0.0
 11
5336.902964380292
 21
4785.685649128406
 31
0.0
  0
LINE
  5
174B6
330
747D
100
AcDbEntity
  8
細線
100
AcDbLine
 10
5262.902964380291
 20
4773.685649128406
 30
0.0
 11
5336.902964380292
 21
4773.685649128406
 31
0.0
  0
LINE
  5
174B7
330
747D
100
AcDbEntity
  8
細線
100
AcDbLine
 10
5262.902964380291
 20
4779.685649128405
 30
0.0
 11
5336.902964380292
 21
4779.685649128405
 31
0.0
  0
LINE
  5
174B8
330
747D
100
AcDbEntity
  8
細線
100
AcDbLine
 10
5336.902964380292
 20
4791.685649128406
 30
0.0
 11
5336.902964380292
 21
4768.685649128406
 31
0.0
  0
LINE
  5
174B9
330
747D
100
AcDbEntity
  8
部品1
100
AcDbLine
 10
6222.902964380295
 20
4724.185649128406
 30
0.0
 11
6222.902964380295
 21
2941.185649128414
 31
0.0
  0
LINE
  5
174BA
330
747D
100
AcDbEntity
  8
部品1
100
AcDbLine
 10
5932.902964380292
 20
4724.185649128409
 30
0.0
 11
5932.902964380295
 21
2941.185649128412
 31
0.0
  0
LINE
  5
174BB
330
747D
100
AcDbEntity
  8
部品1
100
AcDbLine
 10
5882.902964380292
 20
4724.185649128409
 30
0.0
 11
5882.902964380296
 21
2941.185649128412
 31
0.0
  0
LINE
  5
174BC
330
747D
100
AcDbEntity
  8
細線
100
AcDbLine
 10
5924.902964380291
 20
4724.185649128409
 30
0.0
 11
5924.902964380295
 21
2941.185649128412
 31
0.0
  0
LINE
  5
174BD
330
747D
100
AcDbEntity
  8
細線
100
AcDbLine
 10
5890.902964380291
 20
4724.185649128409
 30
0.0
 11
5890.902964380295
 21
2941.185649128412
 31
0.0
  0
LINE
  5
174BE
330
747D
100
AcDbEntity
  8
細線
100
AcDbLine
 10
6918.902964380293
 20
4724.185649128409
 30
0.0
 11
6918.902964380293
 21
2948.685649128428
 31
0.0
  0
LINE
  5
174BF
330
747D
100
AcDbEntity
  8
細線
100
AcDbLine
 10
6848.902964380293
 20
4724.185649128409
 30
0.0
 11
6848.902964380293
 21
2948.685649128428
 31
0.0
  0
LINE
  5
174C0
330
747D
100
AcDbEntity
  8
細線
100
AcDbLine
 10
6778.902964380293
 20
4724.185649128409
 30
0.0
 11
6778.902964380293
 21
2948.685649128428
 31
0.0
  0
LINE
  5
174C1
330
747D
100
AcDbEntity
  8
細線
100
AcDbLine
 10
6708.902964380293
 20
4724.185649128409
 30
0.0
 11
6708.902964380293
 21
2948.685649128428
 31
0.0
  0
LINE
  5
174C5
330
747D
100
AcDbEntity
  8
部品1
 48
50.0
100
AcDbLine
 10
5806.902964380292
 20
3897.685649128418
 30
0.0
 11
5859.902964380292
 21
3897.685649128418
 31
0.0
  0
LINE
  5
174DF
330
747D
100
AcDbEntity
  8
細線
100
AcDbLine
 10
6122.902964380295
 20
4724.185649128406
 30
0.0
 11
6122.902964380295
 21
2941.185649128414
 31
0.0
  0
LINE
  5
174E0
330
747D
100
AcDbEntity
  8
細線
100
AcDbLine
 10
6052.902964380295
 20
4724.185649128406
 30
0.0
 11
6052.902964380295
 21
2941.185649128414
 31
0.0
  0
LINE
  5
174E1
330
747D
100
AcDbEntity
  8
部品1
100
AcDbLine
 10
6628.902964380293
 20
4724.185649128409
 30
0.0
 11
6628.902964380293
 21
2948.685649128428
 31
0.0
  0
LINE
  5
174E2
330
747D
100
AcDbEntity
  8
細線
100
AcDbLine
 10
6510.402964380293
 20
4724.185649128413
 30
0.0
 11
6510.402964380293
 21
2948.685649128428
 31
0.0
  0
LINE
  5
174E3
330
747D
100
AcDbEntity
  8
細線
100
AcDbLine
 10
6440.402964380293
 20
4724.185649128413
 30
0.0
 11
6440.402964380293
 21
2948.685649128428
 31
0.0
  0
LINE
  5
174E4
330
747D
100
AcDbEntity
  8
細線
100
AcDbLine
 10
6370.402964380293
 20
4724.185649128413
 30
0.0
 11
6370.402964380293
 21
2948.685649128428
 31
0.0
  0
LINE
  5
174E5
330
747D
100
AcDbEntity
  8
細線
100
AcDbLine
 10
6300.402964380292
 20
4724.185649128413
 30
0.0
 11
6300.402964380292
 21
2948.685649128428
 31
0.0
  0
LINE
  5
174E6
330
747D
100
AcDbEntity
  8
部品1
100
AcDbLine
 10
6222.902964380292
 20
2948.685649128419
 30
0.0
 11
7021.902964380294
 21
2948.685649128427
 31
0.0
  0
LINE
  5
174E7
330
747D
100
AcDbEntity
  8
部品1
100
AcDbLine
 10
5771.902964380291
 20
2941.18564912841
 30
0.0
 11
6222.902964380295
 21
2941.185649128414
 31
0.0
  0
LINE
  5
174E8
330
747D
100
AcDbEntity
  8
細線
100
AcDbLine
 10
5771.902964380291
 20
4724.185649128409
 30
0.0
 11
7021.902964380294
 21
4724.185649128406
 31
0.0
  0
LINE
  5
174E9
330
747D
100
AcDbEntity
  8
部品1
100
AcDbLine
 10
7592.902964380295
 20
4724.185649128406
 30
0.0
 11
7592.902964380295
 21
2941.185649128414
 31
0.0
  0
LINE
  5
174EA
330
747D
100
AcDbEntity
  8
部品1
100
AcDbLine
 10
7302.902964380293
 20
4724.185649128409
 30
0.0
 11
7302.902964380296
 21
2941.185649128412
 31
0.0
  0
LINE
  5
174EB
330
747D
100
AcDbEntity
  8
部品1
100
AcDbLine
 10
7252.902964380293
 20
4724.185649128409
 30
0.0
 11
7252.902964380296
 21
2941.185649128412
 31
0.0
  0
LINE
  5
174EC
330
747D
100
AcDbEntity
  8
細線
100
AcDbLine
 10
7294.902964380293
 20
4724.185649128409
 30
0.0
 11
7294.902964380296
 21
2941.185649128412
 31
0.0
  0
LINE
  5
174ED
330
747D
100
AcDbEntity
  8
細線
100
AcDbLine
 10
7260.902964380294
 20
4724.185649128409
 30
0.0
 11
7260.902964380296
 21
2941.185649128412
 31
0.0
  0
LINE
  5
174EE
330
747D
100
AcDbEntity
  8
細線
100
AcDbLine
 10
8288.902964380293
 20
4724.185649128409
 30
0.0
 11
8288.902964380293
 21
2948.685649128428
 31
0.0
  0
LINE
  5
174EF
330
747D
100
AcDbEntity
  8
細線
100
AcDbLine
 10
8218.902964380294
 20
4724.185649128409
 30
0.0
 11
8218.902964380294
 21
2948.685649128428
 31
0.0
  0
LINE
  5
174F0
330
747D
100
AcDbEntity
  8
細線
100
AcDbLine
 10
8148.902964380294
 20
4724.185649128409
 30
0.0
 11
8148.902964380294
 21
2948.685649128428
 31
0.0
  0
LINE
  5
174F1
330
747D
100
AcDbEntity
  8
細線
100
AcDbLine
 10
8078.902964380294
 20
4724.185649128409
 30
0.0
 11
8078.902964380294
 21
2948.685649128428
 31
0.0
  0
LINE
  5
174F5
330
747D
100
AcDbEntity
  8
部品1
 48
50.0
100
AcDbLine
 10
7176.902964380293
 20
3897.685649128418
 30
0.0
 11
7229.902964380293
 21
3897.685649128418
 31
0.0
  0
LINE
  5
1750F
330
747D
100
AcDbEntity
  8
細線
100
AcDbLine
 10
7492.902964380295
 20
4724.185649128406
 30
0.0
 11
7492.902964380295
 21
2941.185649128414
 31
0.0
  0
LINE
  5
17510
330
747D
100
AcDbEntity
  8
細線
100
AcDbLine
 10
7422.902964380295
 20
4724.185649128406
 30
0.0
 11
7422.902964380295
 21
2941.185649128414
 31
0.0
  0
LINE
  5
17511
330
747D
100
AcDbEntity
  8
部品1
100
AcDbLine
 10
7998.902964380294
 20
4724.185649128409
 30
0.0
 11
7998.902964380294
 21
2948.685649128428
 31
0.0
  0
LINE
  5
17512
330
747D
100
AcDbEntity
  8
細線
100
AcDbLine
 10
7880.402964380293
 20
4724.185649128413
 30
0.0
 11
7880.402964380293
 21
2948.685649128428
 31
0.0
  0
LINE
  5
17513
330
747D
100
AcDbEntity
  8
細線
100
AcDbLine
 10
7810.402964380293
 20
4724.185649128413
 30
0.0
 11
7810.402964380293
 21
2948.685649128428
 31
0.0
  0
LINE
  5
17514
330
747D
100
AcDbEntity
  8
細線
100
AcDbLine
 10
7740.402964380293
 20
4724.185649128413
 30
0.0
 11
7740.402964380293
 21
2948.685649128428
 31
0.0
  0
LINE
  5
17515
330
747D
100
AcDbEntity
  8
細線
100
AcDbLine
 10
7670.402964380294
 20
4724.185649128413
 30
0.0
 11
7670.402964380294
 21
2948.685649128428
 31
0.0
  0
LINE
  5
17516
330
747D
100
AcDbEntity
  8
部品1
100
AcDbLine
 10
7141.902964380292
 20
2941.18564912841
 30
0.0
 11
7592.902964380295
 21
2941.185649128414
 31
0.0
  0
LINE
  5
17517
330
747D
100
AcDbEntity
  8
部品1
100
AcDbLine
 10
7592.902964380293
 20
2948.685649128419
 30
0.0
 11
8391.902964380292
 21
2948.685649128427
 31
0.0
  0
LINE
  5
17518
330
747D
100
AcDbEntity
  8
細線
100
AcDbLine
 10
7141.902964380292
 20
4724.185649128409
 30
0.0
 11
8391.902964380292
 21
4724.185649128406
 31
0.0
  0
LINE
  5
17519
330
747D
100
AcDbEntity
  8
細線
100
AcDbLine
 10
7456.902964380294
 20
4791.685649128406
 30
0.0
 11
7456.902964380294
 21
4768.685649128406
 31
0.0
  0
LINE
  5
1751A
330
747D
100
AcDbEntity
  8
細線
100
AcDbLine
 10
7530.902964380293
 20
4779.685649128405
 30
0.0
 11
7456.902964380294
 21
4779.685649128405
 31
0.0
  0
LINE
  5
1751B
330
747D
100
AcDbEntity
  8
細線
100
AcDbLine
 10
7530.902964380293
 20
4773.685649128406
 30
0.0
 11
7456.902964380294
 21
4773.685649128406
 31
0.0
  0
LINE
  5
1751C
330
747D
100
AcDbEntity
  8
細線
100
AcDbLine
 10
7530.902964380293
 20
4785.685649128406
 30
0.0
 11
7456.902964380294
 21
4785.685649128406
 31
0.0
  0
LINE
  5
1751D
330
747D
100
AcDbEntity
  8
細線
100
AcDbLine
 10
7382.902964380294
 20
4785.685649128406
 30
0.0
 11
7451.902964380294
 21
4785.685649128406
 31
0.0
  0
LINE
  5
1751E
330
747D
100
AcDbEntity
  8
細線
100
AcDbLine
 10
7382.902964380294
 20
4773.685649128406
 30
0.0
 11
7456.902964380294
 21
4773.685649128406
 31
0.0
  0
LINE
  5
1751F
330
747D
100
AcDbEntity
  8
細線
100
AcDbLine
 10
7382.902964380294
 20
4779.685649128405
 30
0.0
 11
7456.902964380294
 21
4779.685649128405
 31
0.0
  0
LINE
  5
17520
330
747D
100
AcDbEntity
  8
細線
100
AcDbLine
 10
7382.902964380294
 20
4785.685649128406
 30
0.0
 11
7456.902964380294
 21
4785.685649128406
 31
0.0
  0
LINE
  5
17521
330
747D
100
AcDbEntity
  8
部品1
 48
0.01
100
AcDbLine
 10
7544.902964380293
 20
4798.185649128406
 30
0.0
 11
7368.902964380294
 21
4798.185649128406
 31
0.0
  0
LINE
  5
17522
330
747D
100
AcDbEntity
  8
部品1
 48
0.01
100
AcDbLine
 10
7366.902964380293
 20
4796.185649128406
 30
0.0
 11
7366.902964380293
 21
4764.685649128406
 31
0.0
  0
LINE
  5
17523
330
747D
100
AcDbEntity
  8
部品1
 48
0.01
100
AcDbLine
 10
7368.902964380294
 20
4762.685649128406
 30
0.0
 11
7544.902964380293
 21
4762.685649128406
 31
0.0
  0
LINE
  5
17524
330
747D
100
AcDbEntity
  8
部品1
 48
0.01
100
AcDbLine
 10
7546.902964380294
 20
4764.685649128406
 30
0.0
 11
7546.902964380294
 21
4796.185649128406
 31
0.0
  0
LINE
  5
17525
330
747D
100
AcDbEntity
  8
細線
100
AcDbLine
 10
7382.902964380294
 20
4791.685649128406
 30
0.0
 11
7382.902964380294
 21
4768.685649128406
 31
0.0
  0
LINE
  5
17526
330
747D
100
AcDbEntity
  8
細線
100
AcDbLine
 10
7530.902964380293
 20
4768.685649128406
 30
0.0
 11
7530.902964380293
 21
4791.685649128406
 31
0.0
  0
LINE
  5
17527
330
747D
100
AcDbEntity
  8
細線
100
AcDbLine
 10
7530.902964380293
 20
4791.685649128406
 30
0.0
 11
7456.902964380294
 21
4791.685649128406
 31
0.0
  0
LINE
  5
17528
330
747D
100
AcDbEntity
  8
細線
100
AcDbLine
 10
7382.902964380294
 20
4768.685649128406
 30
0.0
 11
7456.902964380294
 21
4768.685649128406
 31
0.0
  0
LINE
  5
17529
330
747D
100
AcDbEntity
  8
細線
100
AcDbLine
 10
7456.902964380294
 20
4791.685649128406
 30
0.0
 11
7382.902964380294
 21
4791.685649128406
 31
0.0
  0
LINE
  5
1752A
330
747D
100
AcDbEntity
  8
細線
100
AcDbLine
 10
7456.902964380294
 20
4768.685649128406
 30
0.0
 11
7530.902964380293
 21
4768.685649128406
 31
0.0
  0
ARC
  5
1752B
330
747D
100
AcDbEntity
  8
部品1
 48
0.01
100
AcDbCircle
 10
7368.902964380294
 20
4796.185649128406
 30
0.0
 40
2.0
100
AcDbArc
 50
90.0
 51
180.0
  0
ARC
  5
1752C
330
747D
100
AcDbEntity
  8
部品1
 48
0.01
100
AcDbCircle
 10
7368.902964380294
 20
4764.685649128406
 30
0.0
 40
2.0
100
AcDbArc
 50
180.0
 51
270.0
  0
ARC
  5
1752D
330
747D
100
AcDbEntity
  8
部品1
 48
0.01
100
AcDbCircle
 10
7544.902964380293
 20
4796.185649128406
 30
0.0
 40
2.0
100
AcDbArc
 50
0.0
 51
90.0
  0
ARC
  5
1752E
330
747D
100
AcDbEntity
  8
部品1
 48
0.01
100
AcDbCircle
 10
7544.902964380293
 20
4764.685649128406
 30
0.0
 40
2.0
100
AcDbArc
 50
270.0
 51
0.0
  0
ARC
  5
1752F
330
747D
100
AcDbEntity
  8
部品1
 48
0.01
100
AcDbCircle
 10
7988.902964380293
 20
4764.685649128406
 30
0.0
 40
2.0
100
AcDbArc
 50
180.0
 51
270.0
  0
ARC
  5
17530
330
747D
100
AcDbEntity
  8
部品1
 48
0.01
100
AcDbCircle
 10
7988.902964380293
 20
4796.185649128406
 30
0.0
 40
2.0
100
AcDbArc
 50
90.0
 51
180.0
  0
ARC
  5
17531
330
747D
100
AcDbEntity
  8
部品1
 48
0.01
100
AcDbCircle
 10
8164.902964380294
 20
4764.685649128406
 30
0.0
 40
2.0
100
AcDbArc
 50
270.0
 51
0.0
  0
ARC
  5
17532
330
747D
100
AcDbEntity
  8
部品1
 48
0.01
100
AcDbCircle
 10
8164.902964380294
 20
4796.185649128406
 30
0.0
 40
2.0
100
AcDbArc
 50
0.0
 51
90.0
  0
LINE
  5
17533
330
747D
100
AcDbEntity
  8
細線
100
AcDbLine
 10
8076.902964380293
 20
4768.685649128406
 30
0.0
 11
8002.902964380293
 21
4768.685649128406
 31
0.0
  0
LINE
  5
17534
330
747D
100
AcDbEntity
  8
細線
100
AcDbLine
 10
8076.902964380293
 20
4791.685649128406
 30
0.0
 11
8150.902964380293
 21
4791.685649128406
 31
0.0
  0
LINE
  5
17535
330
747D
100
AcDbEntity
  8
細線
100
AcDbLine
 10
8150.902964380293
 20
4768.685649128406
 30
0.0
 11
8076.902964380293
 21
4768.685649128406
 31
0.0
  0
LINE
  5
17536
330
747D
100
AcDbEntity
  8
細線
100
AcDbLine
 10
8002.902964380293
 20
4791.685649128406
 30
0.0
 11
8076.902964380293
 21
4791.685649128406
 31
0.0
  0
LINE
  5
17537
330
747D
100
AcDbEntity
  8
細線
100
AcDbLine
 10
8002.902964380293
 20
4768.685649128406
 30
0.0
 11
8002.902964380293
 21
4791.685649128406
 31
0.0
  0
LINE
  5
17538
330
747D
100
AcDbEntity
  8
細線
100
AcDbLine
 10
8150.902964380293
 20
4791.685649128406
 30
0.0
 11
8150.902964380293
 21
4768.685649128406
 31
0.0
  0
LINE
  5
17539
330
747D
100
AcDbEntity
  8
部品1
 48
0.01
100
AcDbLine
 10
7986.902964380293
 20
4764.685649128406
 30
0.0
 11
7986.902964380293
 21
4796.185649128406
 31
0.0
  0
LINE
  5
1753A
330
747D
100
AcDbEntity
  8
部品1
 48
0.01
100
AcDbLine
 10
8164.902964380294
 20
4762.685649128406
 30
0.0
 11
7988.902964380293
 21
4762.685649128406
 31
0.0
  0
LINE
  5
1753B
330
747D
100
AcDbEntity
  8
部品1
 48
0.01
100
AcDbLine
 10
8166.902964380293
 20
4796.185649128406
 30
0.0
 11
8166.902964380293
 21
4764.685649128406
 31
0.0
  0
LINE
  5
1753C
330
747D
100
AcDbEntity
  8
部品1
 48
0.01
100
AcDbLine
 10
7988.902964380293
 20
4798.185649128406
 30
0.0
 11
8164.902964380294
 21
4798.185649128406
 31
0.0
  0
LINE
  5
1753D
330
747D
100
AcDbEntity
  8
細線
100
AcDbLine
 10
8150.902964380293
 20
4785.685649128406
 30
0.0
 11
8076.902964380293
 21
4785.685649128406
 31
0.0
  0
LINE
  5
1753E
330
747D
100
AcDbEntity
  8
細線
100
AcDbLine
 10
8150.902964380293
 20
4779.685649128405
 30
0.0
 11
8076.902964380293
 21
4779.685649128405
 31
0.0
  0
LINE
  5
1753F
330
747D
100
AcDbEntity
  8
細線
100
AcDbLine
 10
8150.902964380293
 20
4773.685649128406
 30
0.0
 11
8076.902964380293
 21
4773.685649128406
 31
0.0
  0
LINE
  5
17540
330
747D
100
AcDbEntity
  8
細線
100
AcDbLine
 10
8150.902964380293
 20
4785.685649128406
 30
0.0
 11
8081.902964380294
 21
4785.685649128406
 31
0.0
  0
LINE
  5
17541
330
747D
100
AcDbEntity
  8
細線
100
AcDbLine
 10
8002.902964380293
 20
4785.685649128406
 30
0.0
 11
8076.902964380293
 21
4785.685649128406
 31
0.0
  0
LINE
  5
17542
330
747D
100
AcDbEntity
  8
細線
100
AcDbLine
 10
8002.902964380293
 20
4773.685649128406
 30
0.0
 11
8076.902964380293
 21
4773.685649128406
 31
0.0
  0
LINE
  5
17543
330
747D
100
AcDbEntity
  8
細線
100
AcDbLine
 10
8002.902964380293
 20
4779.685649128405
 30
0.0
 11
8076.902964380293
 21
4779.685649128405
 31
0.0
  0
LINE
  5
17544
330
747D
100
AcDbEntity
  8
細線
100
AcDbLine
 10
8076.902964380293
 20
4791.685649128406
 30
0.0
 11
8076.902964380293
 21
4768.685649128406
 31
0.0
  0
LINE
  5
17545
330
747D
100
AcDbEntity
  8
細線
100
AcDbLine
 10
6706.902964380294
 20
4791.685649128406
 30
0.0
 11
6706.902964380294
 21
4768.685649128406
 31
0.0
  0
LINE
  5
17546
330
747D
100
AcDbEntity
  8
細線
100
AcDbLine
 10
6632.902964380294
 20
4779.685649128405
 30
0.0
 11
6706.902964380294
 21
4779.685649128405
 31
0.0
  0
LINE
  5
17547
330
747D
100
AcDbEntity
  8
細線
100
AcDbLine
 10
6632.902964380294
 20
4773.685649128406
 30
0.0
 11
6706.902964380294
 21
4773.685649128406
 31
0.0
  0
LINE
  5
17548
330
747D
100
AcDbEntity
  8
細線
100
AcDbLine
 10
6632.902964380294
 20
4785.685649128406
 30
0.0
 11
6706.902964380294
 21
4785.685649128406
 31
0.0
  0
LINE
  5
17549
330
747D
100
AcDbEntity
  8
細線
100
AcDbLine
 10
6780.902964380293
 20
4785.685649128406
 30
0.0
 11
6711.902964380293
 21
4785.685649128406
 31
0.0
  0
LINE
  5
1754A
330
747D
100
AcDbEntity
  8
細線
100
AcDbLine
 10
6780.902964380293
 20
4773.685649128406
 30
0.0
 11
6706.902964380294
 21
4773.685649128406
 31
0.0
  0
LINE
  5
1754B
330
747D
100
AcDbEntity
  8
細線
100
AcDbLine
 10
6780.902964380293
 20
4779.685649128405
 30
0.0
 11
6706.902964380294
 21
4779.685649128405
 31
0.0
  0
LINE
  5
1754C
330
747D
100
AcDbEntity
  8
細線
100
AcDbLine
 10
6780.902964380293
 20
4785.685649128406
 30
0.0
 11
6706.902964380294
 21
4785.685649128406
 31
0.0
  0
LINE
  5
1754D
330
747D
100
AcDbEntity
  8
部品1
 48
0.01
100
AcDbLine
 10
6618.902964380294
 20
4798.185649128406
 30
0.0
 11
6794.902964380293
 21
4798.185649128406
 31
0.0
  0
LINE
  5
1754E
330
747D
100
AcDbEntity
  8
部品1
 48
0.01
100
AcDbLine
 10
6796.902964380294
 20
4796.185649128406
 30
0.0
 11
6796.902964380294
 21
4764.685649128406
 31
0.0
  0
LINE
  5
1754F
330
747D
100
AcDbEntity
  8
部品1
 48
0.01
100
AcDbLine
 10
6794.902964380293
 20
4762.685649128406
 30
0.0
 11
6618.902964380294
 21
4762.685649128406
 31
0.0
  0
LINE
  5
17550
330
747D
100
AcDbEntity
  8
部品1
 48
0.01
100
AcDbLine
 10
6616.902964380293
 20
4764.685649128406
 30
0.0
 11
6616.902964380293
 21
4796.185649128406
 31
0.0
  0
LINE
  5
17551
330
747D
100
AcDbEntity
  8
細線
100
AcDbLine
 10
6780.902964380293
 20
4791.685649128406
 30
0.0
 11
6780.902964380293
 21
4768.685649128406
 31
0.0
  0
LINE
  5
17552
330
747D
100
AcDbEntity
  8
細線
100
AcDbLine
 10
6632.902964380294
 20
4768.685649128406
 30
0.0
 11
6632.902964380294
 21
4791.685649128406
 31
0.0
  0
LINE
  5
17553
330
747D
100
AcDbEntity
  8
細線
100
AcDbLine
 10
6632.902964380294
 20
4791.685649128406
 30
0.0
 11
6706.902964380294
 21
4791.685649128406
 31
0.0
  0
LINE
  5
17554
330
747D
100
AcDbEntity
  8
細線
100
AcDbLine
 10
6780.902964380293
 20
4768.685649128406
 30
0.0
 11
6706.902964380294
 21
4768.685649128406
 31
0.0
  0
LINE
  5
17555
330
747D
100
AcDbEntity
  8
細線
100
AcDbLine
 10
6706.902964380294
 20
4791.685649128406
 30
0.0
 11
6780.902964380293
 21
4791.685649128406
 31
0.0
  0
LINE
  5
17556
330
747D
100
AcDbEntity
  8
細線
100
AcDbLine
 10
6706.902964380294
 20
4768.685649128406
 30
0.0
 11
6632.902964380294
 21
4768.685649128406
 31
0.0
  0
ARC
  5
17557
330
747D
100
AcDbEntity
  8
部品1
 48
0.01
100
AcDbCircle
 10
6794.902964380293
 20
4796.185649128406
 30
0.0
 40
2.0
100
AcDbArc
 50
0.0
 51
90.0
  0
ARC
  5
17558
330
747D
100
AcDbEntity
  8
部品1
 48
0.01
100
AcDbCircle
 10
6794.902964380293
 20
4764.685649128406
 30
0.0
 40
2.0
100
AcDbArc
 50
270.0
 51
0.0
  0
ARC
  5
17559
330
747D
100
AcDbEntity
  8
部品1
 48
0.01
100
AcDbCircle
 10
6618.902964380294
 20
4796.185649128406
 30
0.0
 40
2.0
100
AcDbArc
 50
90.0
 51
180.0
  0
ARC
  5
1755A
330
747D
100
AcDbEntity
  8
部品1
 48
0.01
100
AcDbCircle
 10
6618.902964380294
 20
4764.685649128406
 30
0.0
 40
2.0
100
AcDbArc
 50
180.0
 51
270.0
  0
ARC
  5
1755B
330
747D
100
AcDbEntity
  8
部品1
 48
0.01
100
AcDbCircle
 10
6174.902964380291
 20
4764.685649128406
 30
0.0
 40
2.0
100
AcDbArc
 50
270.0
 51
0.0
  0
ARC
  5
1755C
330
747D
100
AcDbEntity
  8
部品1
 48
0.01
100
AcDbCircle
 10
6174.902964380291
 20
4796.185649128406
 30
0.0
 40
2.0
100
AcDbArc
 50
0.0
 51
90.0
  0
ARC
  5
1755D
330
747D
100
AcDbEntity
  8
部品1
 48
0.01
100
AcDbCircle
 10
5998.902964380292
 20
4764.685649128406
 30
0.0
 40
2.0
100
AcDbArc
 50
180.0
 51
270.0
  0
ARC
  5
1755E
330
747D
100
AcDbEntity
  8
部品1
 48
0.01
100
AcDbCircle
 10
5998.902964380292
 20
4796.185649128406
 30
0.0
 40
2.0
100
AcDbArc
 50
90.0
 51
180.0
  0
LINE
  5
1755F
330
747D
100
AcDbEntity
  8
細線
100
AcDbLine
 10
6086.902964380292
 20
4768.685649128406
 30
0.0
 11
6160.902964380291
 21
4768.685649128406
 31
0.0
  0
LINE
  5
17560
330
747D
100
AcDbEntity
  8
細線
100
AcDbLine
 10
6086.902964380292
 20
4791.685649128406
 30
0.0
 11
6012.902964380291
 21
4791.685649128406
 31
0.0
  0
LINE
  5
17561
330
747D
100
AcDbEntity
  8
細線
100
AcDbLine
 10
6012.902964380291
 20
4768.685649128406
 30
0.0
 11
6086.902964380292
 21
4768.685649128406
 31
0.0
  0
LINE
  5
17562
330
747D
100
AcDbEntity
  8
細線
100
AcDbLine
 10
6160.902964380291
 20
4791.685649128406
 30
0.0
 11
6086.902964380292
 21
4791.685649128406
 31
0.0
  0
LINE
  5
17563
330
747D
100
AcDbEntity
  8
細線
100
AcDbLine
 10
6160.902964380291
 20
4768.685649128406
 30
0.0
 11
6160.902964380291
 21
4791.685649128406
 31
0.0
  0
LINE
  5
17564
330
747D
100
AcDbEntity
  8
細線
100
AcDbLine
 10
6012.902964380291
 20
4791.685649128406
 30
0.0
 11
6012.902964380291
 21
4768.685649128406
 31
0.0
  0
LINE
  5
17565
330
747D
100
AcDbEntity
  8
部品1
 48
0.01
100
AcDbLine
 10
6176.902964380292
 20
4764.685649128406
 30
0.0
 11
6176.902964380292
 21
4796.185649128406
 31
0.0
  0
LINE
  5
17566
330
747D
100
AcDbEntity
  8
部品1
 48
0.01
100
AcDbLine
 10
5998.902964380292
 20
4762.685649128406
 30
0.0
 11
6174.902964380291
 21
4762.685649128406
 31
0.0
  0
LINE
  5
17567
330
747D
100
AcDbEntity
  8
部品1
 48
0.01
100
AcDbLine
 10
5996.902964380291
 20
4796.185649128406
 30
0.0
 11
5996.902964380291
 21
4764.685649128406
 31
0.0
  0
LINE
  5
17568
330
747D
100
AcDbEntity
  8
部品1
 48
0.01
100
AcDbLine
 10
6174.902964380291
 20
4798.185649128406
 30
0.0
 11
5998.902964380292
 21
4798.185649128406
 31
0.0
  0
LINE
  5
17569
330
747D
100
AcDbEntity
  8
細線
100
AcDbLine
 10
6012.902964380291
 20
4785.685649128406
 30
0.0
 11
6086.902964380292
 21
4785.685649128406
 31
0.0
  0
LINE
  5
1756A
330
747D
100
AcDbEntity
  8
細線
100
AcDbLine
 10
6012.902964380291
 20
4779.685649128405
 30
0.0
 11
6086.902964380292
 21
4779.685649128405
 31
0.0
  0
LINE
  5
1756B
330
747D
100
AcDbEntity
  8
細線
100
AcDbLine
 10
6012.902964380291
 20
4773.685649128406
 30
0.0
 11
6086.902964380292
 21
4773.685649128406
 31
0.0
  0
LINE
  5
1756C
330
747D
100
AcDbEntity
  8
細線
100
AcDbLine
 10
6012.902964380291
 20
4785.685649128406
 30
0.0
 11
6081.902964380291
 21
4785.685649128406
 31
0.0
  0
LINE
  5
1756D
330
747D
100
AcDbEntity
  8
細線
100
AcDbLine
 10
6160.902964380291
 20
4785.685649128406
 30
0.0
 11
6086.902964380292
 21
4785.685649128406
 31
0.0
  0
LINE
  5
1756E
330
747D
100
AcDbEntity
  8
細線
100
AcDbLine
 10
6160.902964380291
 20
4773.685649128406
 30
0.0
 11
6086.902964380292
 21
4773.685649128406
 31
0.0
  0
LINE
  5
1756F
330
747D
100
AcDbEntity
  8
細線
100
AcDbLine
 10
6160.902964380291
 20
4779.685649128405
 30
0.0
 11
6086.902964380292
 21
4779.685649128405
 31
0.0
  0
LINE
  5
17570
330
747D
100
AcDbEntity
  8
細線
100
AcDbLine
 10
6086.902964380292
 20
4791.685649128406
 30
0.0
 11
6086.902964380292
 21
4768.685649128406
 31
0.0
  0
LINE
  5
17571
330
747D
100
AcDbEntity
  8
部品1
100
AcDbLine
 10
5243.753510575172
 20
2948.685649128423
 30
0.0
 11
5651.902964380291
 21
2948.685649128427
 31
0.0
  0
LINE
  5
17572
330
747D
100
AcDbEntity
  8
細線
100
AcDbLine
 10
5140.402964380291
 20
3362.052608316705
 30
0.0
 11
5140.402964380291
 21
2948.685649128428
 31
0.0
  0
LINE
  5
17573
330
747D
100
AcDbEntity
  8
細線
100
AcDbLine
 10
5070.402964380292
 20
3759.04233568995
 30
0.0
 11
5070.402964380292
 21
2948.685649128428
 31
0.0
  0
LINE
  5
17574
330
747D
100
AcDbEntity
  8
細線
100
AcDbLine
 10
5000.402964380292
 20
3829.415041658398
 30
0.0
 11
5000.402964380292
 21
2948.685649128428
 31
0.0
  0
LINE
  5
17575
330
747D
100
AcDbEntity
  8
細線
100
AcDbLine
 10
4930.402964380295
 20
3835.539248105213
 30
0.0
 11
4930.402964380292
 21
2948.685649128428
 31
0.0
  0
LINE
  5
17576
330
747D
100
AcDbEntity
  8
細線
100
AcDbLine
 10
4930.402964380295
 20
3890.260881157466
 30
0.0
 11
4930.402964380295
 21
3865.653843231513
 31
0.0
  0
LINE
  5
17577
330
747D
100
AcDbEntity
  8
部品1
100
AcDbLine
 10
4852.902964380291
 20
3842.319619528471
 30
0.0
 11
4852.902964380295
 21
2941.185649128414
 31
0.0
  0
LINE
  5
17578
330
747D
100
AcDbEntity
  8
細線
100
AcDbLine
 10
5000.402964380292
 20
3922.902417228315
 30
0.0
 11
5000.402964380292
 21
3859.529636784698
 31
0.0
  0
LINE
  5
17579
330
747D
100
AcDbEntity
  8
細線
100
AcDbLine
 10
5070.402964380292
 20
3955.543953299164
 30
0.0
 11
5070.402964380292
 21
3853.405430337882
 31
0.0
  0
LINE
  5
1757A
330
747D
100
AcDbEntity
  8
細線
100
AcDbLine
 10
5140.402964380291
 20
3988.185489370016
 30
0.0
 11
5140.402964380291
 21
3534.815722811011
 31
0.0
  0
LINE
  5
1757B
330
747D
100
AcDbEntity
  8
部品1
100
AcDbLine
 10
5258.902964380292
 20
4043.442946861382
 30
0.0
 11
5258.902964380292
 21
2948.685649128428
 31
0.0
  0
LINE
  5
1757C
330
747D
100
AcDbEntity
  8
細線
100
AcDbLine
 10
5140.402964380295
 20
4061.800540603923
 30
0.0
 11
5140.402964380295
 21
4021.286826938891
 31
0.0
  0
LINE
  5
1757D
330
747D
100
AcDbEntity
  8
細線
100
AcDbLine
 10
5070.402964380292
 20
4067.924747050739
 30
0.0
 11
5070.402964380292
 21
3988.645290868041
 31
0.0
  0
LINE
  5
1757E
330
747D
100
AcDbEntity
  8
細線
100
AcDbLine
 10
5000.402964380292
 20
4156.032063063188
 30
0.0
 11
5000.402964380292
 21
3956.003754797191
 31
0.0
  0
LINE
  5
1757F
330
747D
100
AcDbEntity
  8
細線
100
AcDbLine
 10
4930.684956327297
 20
4724.185649128408
 30
0.0
 11
5651.902964380291
 21
4724.185649128406
 31
0.0
  0
LINE
  5
17580
330
747D
100
AcDbEntity
  8
仕様書枠
 48
50.0
100
AcDbLine
 10
16307.19999999999
 20
10049.6
 30
0.0
 11
13127.2
 21
10049.6
 31
0.0
  0
TEXT
  5
17581
330
747D
100
AcDbEntity
  8
文字
 62
     7
 48
50.0
100
AcDbText
 10
13248.77747366448
 20
8720.013745883729
 30
0.0
 40
100.0
  1
15
  7
STYLE1
100
AcDbText
  0
TEXT
  5
17582
330
747D
100
AcDbEntity
  8
文字
 62
     7
 48
50.0
100
AcDbText
 10
15022.63965474516
 20
9740.013745883729
 30
0.0
 40
100.0
  1
F12,Y10        1.0
  7
STYLE1
100
AcDbText
  0
TEXT
  5
17583
330
747D
100
AcDbEntity
  8
文字
 62
     7
 48
50.0
100
AcDbText
 10
13583.11819016569
 20
9740.013745883729
 30
0.0
 40
100.0
  1
梁中
 41
0.9
  7
STYLE1
100
AcDbText
  0
LINE
  5
17950
330
747D
100
AcDbEntity
  8
補助
  6
PHANTOM
 62
   230
 48
50.0
100
AcDbLine
 10
140.0
 20
0.0
 30
0.0
 11
139.9999999999995
 21
11409.6
 31
0.0
  0
LINE
  5
17E00
330
747D
100
AcDbEntity
  8
部品1
100
AcDbLine
 10
11317.24533254474
 20
5098.936131428379
 30
0.0
 11
11642.70034618777
 21
5081.418072469517
 31
0.0
  0
ARC
  5
17E03
330
747D
100
AcDbEntity
  8
部品1
100
AcDbCircle
 10
12663.32788200172
 20
4806.209406394199
 30
0.0
 40
0.7
100
AcDbArc
 50
275.0921697642079
 51
354.1866997666516
  0
ARC
  5
17E04
330
747D
100
AcDbEntity
  8
部品1
100
AcDbCircle
 10
12674.18722775103
 20
4883.252661212122
 30
0.0
 40
0.7
100
AcDbArc
 50
275.0921697642079
 51
354.1866997664961
  0
ARC
  5
17E05
330
747D
100
AcDbEntity
  8
部品1
100
AcDbCircle
 10
12674.51563299364
 20
4879.567264355032
 30
0.0
 40
3.0
100
AcDbArc
 50
95.0921697643163
 51
174.186699766496
  0
ARC
  5
17E06
330
747D
100
AcDbEntity
  8
部品1
100
AcDbCircle
 10
12663.65628724431
 20
4802.524009537108
 30
0.0
 40
3.0
100
AcDbArc
 50
95.09216976420788
 51
174.186699766496
  0
ARC
  5
17E07
330
747D
100
AcDbEntity
  8
部品1
 48
50.0
100
AcDbCircle
 10
12652.62815196921
 20
4792.933264933227
 30
0.0
 40
7.0
100
AcDbArc
 50
267.8377559870533
 51
354.1866997664961
  0
ARC
  5
17E08
330
747D
100
AcDbEntity
  8
部品1
 48
50.0
100
AcDbCircle
 10
12669.95024843372
 20
4903.835812075399
 30
0.0
 40
7.0
100
AcDbArc
 50
354.1866997664961
 51
87.03587545293636
  0
LINE
  5
17E09
330
747D
100
AcDbEntity
  8
部品1
 48
50.0
100
AcDbLine
 10
12660.6717155737
 20
4802.827871254011
 30
0.0
 11
12659.59215253396
 21
4792.224254260452
 31
0.0
  0
LINE
  5
17E0A
330
747D
100
AcDbEntity
  8
部品1
 48
50.0
100
AcDbLine
 10
12671.53106132303
 20
4879.871126071936
 30
0.0
 11
12664.02428205819
 21
4806.138505326924
 31
0.0
  0
LINE
  5
17E0B
330
747D
100
AcDbEntity
  8
部品1
 48
50.0
100
AcDbLine
 10
12676.91424899848
 20
4903.126801402624
 30
0.0
 11
12674.88362780751
 21
4883.181760144845
 31
0.0
  0
ARC
  5
17E0C
330
747D
100
AcDbEntity
  8
部品1
100
AcDbCircle
 10
10333.73743805914
 20
4845.99980808731
 30
0.0
 40
0.7
100
AcDbArc
 50
181.0932240292635
 51
260.1877540315872
  0
ARC
  5
17E0D
330
747D
100
AcDbEntity
  8
部品1
100
AcDbCircle
 10
10328.96476446153
 20
4938.865586287429
 30
0.0
 40
0.7
100
AcDbArc
 50
181.0932240292114
 51
260.1877540315872
  0
ARC
  5
17E0E
330
747D
100
AcDbEntity
  8
部品1
100
AcDbCircle
 10
10328.33421005851
 20
4935.219711750032
 30
0.0
 40
3.0
100
AcDbArc
 50
1.093224029315636
 51
80.18775403158718
  0
ARC
  5
17E0F
330
747D
100
AcDbEntity
  8
部品1
100
AcDbCircle
 10
10333.10688365612
 20
4842.353933549913
 30
0.0
 40
3.0
100
AcDbArc
 50
1.093224029315636
 51
80.18775403158718
  0
ARC
  5
17E10
330
747D
100
AcDbEntity
  8
部品1
 48
50.0
100
AcDbCircle
 10
10343.30701603132
 20
4831.961690167432
 30
0.0
 40
7.0
100
AcDbArc
 50
181.0932240293156
 51
267.8377559870533
  0
ARC
  5
17E11
330
747D
100
AcDbEntity
  8
部品1
 48
50.0
100
AcDbCircle
 10
10334.88335792922
 20
4958.912749700527
 30
0.0
 40
7.0
100
AcDbArc
 50
87.03587545293636
 51
181.0932240293156
  0
LINE
  5
17E12
330
747D
100
AcDbEntity
  8
部品1
 48
50.0
100
AcDbLine
 10
10336.10633758254
 20
4842.411171153096
 30
0.0
 11
10336.30829020298
 21
4831.828135760003
 31
0.0
  0
LINE
  5
17E13
330
747D
100
AcDbEntity
  8
細線
 48
50.0
100
AcDbLine
 10
10333.50024452587
 20
4845.341219271904
 30
0.0
 11
12663.50390895651
 21
4805.531900297411
 31
0.0
  0
LINE
  5
17E14
330
747D
100
AcDbEntity
  8
細線
 48
50.0
100
AcDbLine
 10
10328.73976928859
 20
4938.202730969767
 30
0.0
 11
12674.37575403376
 21
4882.57852632894
 31
0.0
  0
LINE
  5
17E15
330
747D
100
AcDbEntity
  8
部品1
 48
50.0
100
AcDbLine
 10
10331.33366398494
 20
4935.276949353215
 30
0.0
 11
10333.0375654763
 21
4845.986452646568
 31
0.0
  0
LINE
  5
17E16
330
747D
100
AcDbEntity
  8
部品1
 48
50.0
100
AcDbLine
 10
10327.88463210088
 20
4958.779195293099
 30
0.0
 11
10328.26489187869
 21
4938.852230846688
 31
0.0
  0
LINE
  5
17E17
330
747D
100
AcDbEntity
  8
細線
 48
50.0
100
AcDbLine
 10
12644.70034618778
 20
4912.152628163703
 30
0.0
 11
12639.95266329978
 21
4786.406855672958
 31
0.0
  0
LINE
  5
17E18
330
747D
100
AcDbEntity
  8
細線
 48
50.0
100
AcDbLine
 10
10360.70034618777
 20
4964.585325503811
 30
0.0
 11
10355.41124463227
 21
4824.499692876457
 31
0.0
  0
LINE
  5
17E19
330
747D
100
AcDbEntity
  8
部品1
100
AcDbLine
 10
10343.04291078973
 20
4824.966674197373
 30
0.0
 11
12652.36404672762
 21
4785.938248963168
 31
0.0
  0
LINE
  5
17E1A
330
747D
100
AcDbEntity
  8
部品1
100
AcDbLine
 10
10335.24533254474
 20
4965.903384462673
 30
0.0
 11
12670.31222304924
 21
4910.826446837546
 31
0.0
  0
LINE
  5
17E1B
330
747D
100
AcDbEntity
  8
部品1
 48
50.0
100
AcDbLine
 10
11342.70034618777
 20
5097.618072469517
 30
0.0
 11
11642.70034618777
 21
5097.618072469517
 31
0.0
  0
LINE
  5
17E1C
330
747D
100
AcDbEntity
  8
部品1
 48
50.0
100
AcDbLine
 10
11642.70034618777
 20
5097.618072469517
 30
0.0
 11
11642.70034618777
 21
5081.418072469517
 31
0.0
  0
TEXT
  5
17E1D
330
747D
100
AcDbEntity
  8
部品1
 48
50.0
100
AcDbText
 10
11330.9681814115
 20
5133.50209462195
 30
0.0
 40
120.0
  1
1000
  7
STYLE1
100
AcDbText
  0
TEXT
  5
17E1E
330
747D
100
AcDbEntity
  8
部品1
 48
50.0
100
AcDbText
 10
11808.60120407659
 20
4996.000836403667
 30
0.0
 40
120.0
  1
44
 50
90.0
  7
STYLE1
100
AcDbText
  0
LINE
  5
17E1F
330
747D
100
AcDbEntity
  8
細線
 48
50.0
100
AcDbLine
 10
11780.20034618778
 20
4732.185649128406
 30
0.0
 11
11780.20034618778
 21
2942.185649128406
 31
0.0
  0
LINE
  5
17E20
330
747D
100
AcDbEntity
  8
細線
 48
50.0
100
AcDbLine
 10
11765.20034618778
 20
4732.185649128406
 30
0.0
 11
11765.20034618778
 21
2942.185649128406
 31
0.0
  0
LINE
  5
17E21
330
747D
100
AcDbEntity
  8
細線
 48
50.0
100
AcDbLine
 10
11905.20034618778
 20
4732.185649128406
 30
0.0
 11
11905.20034618778
 21
2942.185649128406
 31
0.0
  0
LINE
  5
17E22
330
747D
100
AcDbEntity
  8
細線
 48
50.0
100
AcDbLine
 10
11920.20034618778
 20
4732.185649128406
 30
0.0
 11
11920.20034618778
 21
2942.185649128406
 31
0.0
  0
LINE
  5
17E23
330
747D
100
AcDbEntity
  8
細線
 48
50.0
100
AcDbLine
 10
12060.20034618778
 20
4732.185649128406
 30
0.0
 11
12060.20034618778
 21
2942.185649128406
 31
0.0
  0
LINE
  5
17E24
330
747D
100
AcDbEntity
  8
細線
 48
50.0
100
AcDbLine
 10
12045.20034618778
 20
4732.185649128406
 30
0.0
 11
12045.20034618778
 21
2942.185649128406
 31
0.0
  0
LINE
  5
17E25
330
747D
100
AcDbEntity
  8
部品1
100
AcDbLine
 10
12122.70034618777
 20
4732.185649128406
 30
0.0
 11
12122.70034618777
 21
2942.185649128406
 31
0.0
  0
LINE
  5
17E26
330
747D
100
AcDbEntity
  8
部品1
100
AcDbLine
 10
10387.70034618777
 20
4732.185649128406
 30
0.0
 11
12597.70034618778
 21
4732.185649128406
 31
0.0
  0
LINE
  5
17E27
330
747D
100
AcDbEntity
  8
部品1
100
AcDbLine
 10
10387.70034618777
 20
2942.185649128406
 30
0.0
 11
12597.70034618778
 21
2942.185649128407
 31
0.0
  0
LINE
  5
17E29
330
747D
100
AcDbEntity
  8
部品1
100
AcDbLine
 10
10442.70034618777
 20
4732.185649128406
 30
0.0
 11
10442.70034618777
 21
2942.185649128406
 31
0.0
  0
LINE
  5
17E2A
330
747D
100
AcDbEntity
  8
部品1
100
AcDbLine
 10
10387.70034618777
 20
4824.044168570654
 30
0.0
 11
10387.70034618777
 21
2792.185649128406
 31
0.0
  0
DIMENSION
  5
17E2B
330
747D
100
AcDbEntity
  8
寸法
100
AcDbDimension
  2
*D6
 10
9842.791704790521
 20
2954.185649128406
 30
0.0
 11
9742.791704790521
 21
3839.185649128409
 31
0.0
 70
    32
  1
有効開口部高サ<>
 71
     5
 42
1770.0
  3
INABA_S40G
100
AcDbAlignedDimension
 13
10387.70034618777
 23
4724.185649128406
 33
0.0
 14
10387.70034618777
 24
2954.185649128406
 34
0.0
 50
90.0
100
AcDbRotatedDimension
1001
ACAD
1000
DSTYLE
1002
{
1070
   174
1070
     0
1070
   272
1070
     1
1070
   288
1070
     0
1070
   341
1005
0
1002
}
  0
DIMENSION
  5
17E2C
330
747D
100
AcDbEntity
  8
寸法
100
AcDbDimension
  2
*D7
 10
9543.950217004516
 20
2942.185649128406
 30
0.0
 11
9443.950217004516
 21
3837.185649128409
 31
0.0
 70
    32
 71
     5
 42
1790.0
  3
INABA_S40G
100
AcDbAlignedDimension
 13
10387.70034618777
 23
4732.185649128406
 33
0.0
 14
10387.70034618777
 24
2942.185649128406
 34
0.0
 50
90.0
100
AcDbRotatedDimension
1001
ACAD
1000
DSTYLE
1002
{
1070
   174
1070
     0
1070
   272
1070
     1
1070
   288
1070
     0
1070
   341
1005
0
1002
}
  0
DIMENSION
  5
17E2D
330
747D
100
AcDbEntity
  8
寸法
100
AcDbDimension
  2
*D8
 10
9243.950217004515
 20
4967.185649128412
 30
0.0
 11
9143.938405980893
 21
3929.685649128411
 31
0.0
 70
    32
 71
     5
 42
2075.000000000005
  3
INABA_S40G
100
AcDbAlignedDimension
 13
10387.70034618777
 23
2892.185649128406
 33
0.0
 14
10327.70034618777
 24
4967.185649128411
 34
0.0
 50
90.0
100
AcDbRotatedDimension
1001
ACAD
1000
DSTYLE
1002
{
1070
   174
1070
     0
1070
   272
1070
     1
1070
   288
1070
     0
1070
   341
1005
0
1002
}
  0
DIMENSION
  5
17E2F
330
747D
100
AcDbEntity
  8
寸法
100
AcDbDimension
  2
*D9
 10
9543.950217004516
 20
2892.185649128406
 30
0.0
 11
9543.950217004516
 21
2586.138405033918
 31
0.0
 70
   160
 71
     5
 42
50.0
  3
INABA_S40G
100
AcDbAlignedDimension
 13
10387.70034618777
 23
2942.185649128406
 33
0.0
 14
10332.70034618777
 24
2892.185649128406
 34
0.0
 50
90.0
100
AcDbRotatedDimension
1001
ACAD
1000
DSTYLE
1002
{
1070
   174
1070
     0
1070
   272
1070
     1
1070
   288
1070
     0
1070
   341
1005
0
1002
}
  0
LINE
  5
17E30
330
747D
100
AcDbEntity
  8
部品1
100
AcDbLine
 10
10862.70034618777
 20
4732.185649128406
 30
0.0
 11
10862.70034618777
 21
2942.185649128406
 31
0.0
  0
LINE
  5
17E31
330
747D
100
AcDbEntity
  8
部品1
100
AcDbLine
 10
12597.70034618777
 20
4786.862086759628
 30
0.0
 11
12597.70034618778
 21
2792.185649128406
 31
0.0
  0
LINE
  5
17E32
330
747D
100
AcDbEntity
  8
部品1
100
AcDbLine
 10
12542.70034618778
 20
4732.185649128406
 30
0.0
 11
12542.70034618778
 21
2942.185649128406
 31
0.0
  0
DIMENSION
  5
17E33
330
747D
100
AcDbEntity
  8
寸法
100
AcDbDimension
  2
*D10
 10
13157.80697012936
 20
4912.185649128407
 30
0.0
 11
13157.80697012936
 21
3914.238330375343
 31
0.0
 70
   160
 71
     5
 42
2020.000000000001
  3
INABA_S40G
100
AcDbAlignedDimension
 13
12597.70034618778
 23
2892.185649128406
 33
0.0
 14
12677.70034618777
 24
4912.185649128407
 34
0.0
 50
90.0
100
AcDbRotatedDimension
1001
ACAD
1000
DSTYLE
1002
{
1070
   174
1070
     0
1070
   272
1070
     1
1070
   288
1070
     0
1070
   341
1005
0
1002
}
  0
DIMENSION
  5
17E36
330
747D
100
AcDbEntity
  8
寸法
 48
50.0
100
AcDbDimension
  2
*D11
 10
10387.70034618777
 20
5365.84310270771
 30
0.0
 11
11482.34508325829
 21
5365.84310270771
 31
0.0
 70
   160
  1
柱外寸法<>
 71
     5
 42
2210.0
  3
INABA_S40G
100
AcDbAlignedDimension
 13
12597.70034618777
 23
4913.99632874006
 33
0.0
 14
10387.70034618777
 24
4963.187267251383
 34
0.0
100
AcDbRotatedDimension
1001
ACAD
1000
DSTYLE
1002
{
1070
   174
1070
     0
1070
   272
1070
     1
1070
   288
1070
     0
1070
   341
1005
0
1002
}
  0
DIMENSION
  5
17E37
330
747D
100
AcDbEntity
  8
寸法
 48
50.0
100
AcDbDimension
  2
*D12
 10
10327.70034618777
 20
5365.84310270771
 30
0.0
 11
10018.06255091218
 21
5365.84310270771
 31
0.0
 70
   160
 71
     5
 42
60.0
  3
INABA_S40G
100
AcDbAlignedDimension
 13
10387.70034618777
 23
4963.187267251383
 33
0.0
 14
10327.70034618777
 24
4967.185649128411
 34
0.0
100
AcDbRotatedDimension
1001
ACAD
1000
DSTYLE
1002
{
1070
   174
1070
     0
1070
   272
1070
     1
1070
   288
1070
     0
1070
   341
1005
0
1002
}
  0
DIMENSION
  5
17E38
330
747D
100
AcDbEntity
  8
寸法
 48
50.0
100
AcDbDimension
  2
*D13
 10
10327.70034618777
 20
5585.044936382002
 30
0.0
 11
11562.04420028024
 21
5585.044936382002
 31
0.0
 70
   160
 71
     5
 42
2350.0
  3
INABA_S40G
100
AcDbAlignedDimension
 13
12677.70034618777
 23
4912.185649128407
 33
0.0
 14
10327.70034618777
 24
4967.185649128411
 34
0.0
100
AcDbRotatedDimension
1001
ACAD
1000
DSTYLE
1002
{
1070
   174
1070
     0
1070
   272
1070
     1
1070
   288
1070
     0
1070
   341
1005
0
1002
}
  0
LINE
  5
17E52
330
747D
100
AcDbEntity
  8
部品1
100
AcDbLine
 10
10387.70034618777
 20
2892.185649128406
 30
0.0
 11
12597.70034618778
 21
2892.185649128406
 31
0.0
  0
LINE
  5
17E55
330
747D
100
AcDbEntity
  8
細線
 48
50.0
100
AcDbLine
 10
10940.20034618777
 20
4732.185649128406
 30
0.0
 11
10940.20034618777
 21
2942.185649128406
 31
0.0
  0
LINE
  5
17E56
330
747D
100
AcDbEntity
  8
細線
 48
50.0
100
AcDbLine
 10
10925.20034618777
 20
4732.185649128406
 30
0.0
 11
10925.20034618777
 21
2942.185649128406
 31
0.0
  0
LINE
  5
17E57
330
747D
100
AcDbEntity
  8
細線
 48
50.0
100
AcDbLine
 10
11065.20034618777
 20
4732.185649128406
 30
0.0
 11
11065.20034618777
 21
2942.185649128406
 31
0.0
  0
LINE
  5
17E58
330
747D
100
AcDbEntity
  8
細線
 48
50.0
100
AcDbLine
 10
11080.20034618777
 20
4732.185649128406
 30
0.0
 11
11080.20034618777
 21
2942.185649128406
 31
0.0
  0
LINE
  5
17E59
330
747D
100
AcDbEntity
  8
細線
 48
50.0
100
AcDbLine
 10
11220.20034618777
 20
4732.185649128406
 30
0.0
 11
11220.20034618777
 21
2942.185649128406
 31
0.0
  0
LINE
  5
17E5A
330
747D
100
AcDbEntity
  8
細線
 48
50.0
100
AcDbLine
 10
11205.20034618777
 20
4732.185649128406
 30
0.0
 11
11205.20034618777
 21
2942.185649128406
 31
0.0
  0
LINE
  5
17E5B
330
747D
100
AcDbEntity
  8
細線
 48
50.0
100
AcDbLine
 10
10785.20034618777
 20
4732.185649128406
 30
0.0
 11
10785.20034618777
 21
2942.185649128406
 31
0.0
  0
LINE
  5
17E5C
330
747D
100
AcDbEntity
  8
細線
 48
50.0
100
AcDbLine
 10
10800.20034618777
 20
4732.185649128406
 30
0.0
 11
10800.20034618777
 21
2942.185649128406
 31
0.0
  0
LINE
  5
17E5D
330
747D
100
AcDbEntity
  8
細線
 48
50.0
100
AcDbLine
 10
10660.20034618777
 20
4732.185649128406
 30
0.0
 11
10660.20034618777
 21
2942.185649128406
 31
0.0
  0
LINE
  5
17E5E
330
747D
100
AcDbEntity
  8
細線
 48
50.0
100
AcDbLine
 10
10645.20034618777
 20
4732.185649128406
 30
0.0
 11
10645.20034618777
 21
2942.185649128406
 31
0.0
  0
LINE
  5
17E5F
330
747D
100
AcDbEntity
  8
細線
 48
50.0
100
AcDbLine
 10
10505.20034618777
 20
4732.185649128406
 30
0.0
 11
10505.20034618777
 21
2942.185649128406
 31
0.0
  0
LINE
  5
17E60
330
747D
100
AcDbEntity
  8
細線
 48
50.0
100
AcDbLine
 10
10520.20034618777
 20
4732.185649128406
 30
0.0
 11
10520.20034618777
 21
2942.185649128406
 31
0.0
  0
DIMENSION
  5
17E61
330
747D
100
AcDbEntity
  8
寸法
 48
50.0
100
AcDbDimension
  2
*D14
 10
12677.70034618777
 20
5365.84310270771
 30
0.0
 11
12883.74759028226
 21
5365.84310270771
 31
0.0
 70
   160
 71
     5
 42
80.0
  3
INABA_S40G
100
AcDbAlignedDimension
 13
12597.70034618777
 23
4913.99632874006
 33
0.0
 14
12677.70034618777
 24
4912.185649128407
 34
0.0
100
AcDbRotatedDimension
1001
ACAD
1000
DSTYLE
1002
{
1070
   174
1070
     0
1070
   272
1070
     1
1070
   288
1070
     0
1070
   341
1005
0
1002
}
  0
LINE
  5
17E62
330
747D
100
AcDbEntity
  8
部品1
100
AcDbLine
 10
11282.70034618777
 20
4732.185649128406
 30
0.0
 11
11282.70034618777
 21
2942.185649128406
 31
0.0
  0
LINE
  5
17E63
330
747D
100
AcDbEntity
  8
細線
 48
50.0
100
AcDbLine
 10
11625.20034618778
 20
4732.185649128406
 30
0.0
 11
11625.20034618778
 21
2942.185649128406
 31
0.0
  0
LINE
  5
17E64
330
747D
100
AcDbEntity
  8
細線
 48
50.0
100
AcDbLine
 10
11640.20034618778
 20
4732.185649128406
 30
0.0
 11
11640.20034618778
 21
2942.185649128406
 31
0.0
  0
LINE
  5
17E65
330
747D
100
AcDbEntity
  8
細線
 48
50.0
100
AcDbLine
 10
11500.20034618778
 20
4732.185649128406
 30
0.0
 11
11500.20034618778
 21
2942.185649128406
 31
0.0
  0
LINE
  5
17E66
330
747D
100
AcDbEntity
  8
細線
 48
50.0
100
AcDbLine
 10
11485.20034618778
 20
4732.185649128406
 30
0.0
 11
11485.20034618778
 21
2942.185649128406
 31
0.0
  0
LINE
  5
17E67
330
747D
100
AcDbEntity
  8
細線
 48
50.0
100
AcDbLine
 10
11345.20034618778
 20
4732.185649128406
 30
0.0
 11
11345.20034618778
 21
2942.185649128406
 31
0.0
  0
LINE
  5
17E68
330
747D
100
AcDbEntity
  8
細線
 48
50.0
100
AcDbLine
 10
11360.20034618778
 20
4732.185649128406
 30
0.0
 11
11360.20034618778
 21
2942.185649128406
 31
0.0
  0
LINE
  5
17E69
330
747D
100
AcDbEntity
  8
部品1
100
AcDbLine
 10
11702.70034618777
 20
4732.185649128406
 30
0.0
 11
11702.70034618777
 21
2942.185649128406
 31
0.0
  0
LINE
  5
17E6A
330
747D
100
AcDbEntity
  8
細線
 48
50.0
100
AcDbLine
 10
12200.20034618778
 20
4732.185649128406
 30
0.0
 11
12200.20034618778
 21
2942.185649128406
 31
0.0
  0
LINE
  5
17E6B
330
747D
100
AcDbEntity
  8
細線
 48
50.0
100
AcDbLine
 10
12185.20034618778
 20
4732.185649128406
 30
0.0
 11
12185.20034618778
 21
2942.185649128406
 31
0.0
  0
LINE
  5
17E6C
330
747D
100
AcDbEntity
  8
細線
 48
50.0
100
AcDbLine
 10
12325.20034618778
 20
4732.185649128406
 30
0.0
 11
12325.20034618778
 21
2942.185649128406
 31
0.0
  0
LINE
  5
17E6D
330
747D
100
AcDbEntity
  8
細線
 48
50.0
100
AcDbLine
 10
12340.20034618778
 20
4732.185649128406
 30
0.0
 11
12340.20034618778
 21
2942.185649128406
 31
0.0
  0
LINE
  5
17E6E
330
747D
100
AcDbEntity
  8
細線
 48
50.0
100
AcDbLine
 10
12480.20034618778
 20
4732.185649128406
 30
0.0
 11
12480.20034618778
 21
2942.185649128406
 31
0.0
  0
LINE
  5
17E6F
330
747D
100
AcDbEntity
  8
細線
 48
50.0
100
AcDbLine
 10
12465.20034618778
 20
4732.185649128406
 30
0.0
 11
12465.20034618778
 21
2942.185649128406
 31
0.0
  0
DIMENSION
  5
17E70
330
747D
100
AcDbEntity
  8
寸法
 48
50.0
100
AcDbDimension
  2
*D15
 10
9767.091939419408
 20
4841.530908001737
 30
0.0
 11
9777.757414678333
 21
5212.377571243437
 31
0.0
 70
   161
 71
     5
 42
141.0000000000009
  3
INABA_S40G
100
AcDbAlignedDimension
 13
10347.09636634635
 23
4965.908397963086
 33
0.0
 14
10343.04291078973
 24
4824.966674197373
 34
0.0
1001
ACAD
1000
DSTYLE
1002
{
1070
   174
1070
     0
1070
   272
1070
     1
1070
   288
1070
     0
1070
   341
1005
0
1002
}
  0
LINE
  5
18FAC
330
747D
100
AcDbEntity
  8
破線
 48
10.0
100
AcDbLine
 10
4951.084048098472
 20
8837.222912203241
 30
0.0
 11
4398.402964380299
 21
8837.222912203197
 31
0.0
  0
LINE
  5
18FAD
330
747D
100
AcDbEntity
  8
破線
 48
10.0
100
AcDbLine
 10
4959.900397133894
 20
8787.22291220324
 30
0.0
 11
4398.402964380299
 21
8787.222912203196
 31
0.0
  0
LINE
  5
18FAE
330
747D
100
AcDbEntity
  8
破線
 48
10.0
100
AcDbLine
 10
5068.341490269601
 20
8172.222912203251
 30
0.0
 11
4398.402964380337
 21
8172.222912203196
 31
0.0
  0
LINE
  5
18FAF
330
747D
100
AcDbEntity
  8
破線
 48
10.0
100
AcDbLine
 10
5077.157839305024
 20
8122.22291220325
 30
0.0
 11
4398.402964380338
 21
8122.222912203197
 31
0.0
  0
LINE
  5
18FB0
330
747D
100
AcDbEntity
  8
破線
 48
10.0
100
AcDbLine
 10
4421.902964380279
 20
8122.222912203199
 30
0.0
 11
4421.902964380285
 21
7491.222912203155
 31
0.0
  0
LINE
  5
18FB1
330
747D
100
AcDbEntity
  8
破線
 48
10.0
100
AcDbLine
 10
7161.902964380278
 20
8122.222912203227
 30
0.0
 11
7161.902964380285
 21
7491.222912203155
 31
0.0
  0
LINE
  5
18FB2
330
747D
100
AcDbEntity
  8
破線
 48
10.0
100
AcDbLine
 10
5791.90296438028
 20
8122.222912203213
 30
0.0
 11
5791.902964380286
 21
7491.222912203155
 31
0.0
  0
LINE
  5
18FB3
330
747D
100
AcDbEntity
  8
破線
 48
10.0
100
AcDbLine
 10
7968.902964380339
 20
8172.22291220329
 30
0.0
 11
7138.40296438031
 21
8172.222912203224
 31
0.0
  0
LINE
  5
18FB4
330
747D
100
AcDbEntity
  8
破線
 48
10.0
100
AcDbLine
 10
7968.902964380339
 20
8122.222912203289
 30
0.0
 11
7138.40296438031
 21
8122.222912203227
 31
0.0
  0
LINE
  5
18FB5
330
747D
100
AcDbEntity
  8
破線
 48
10.0
100
AcDbLine
 10
7968.902964380299
 20
8787.222912203292
 30
0.0
 11
7138.402964380275
 21
8787.222912203226
 31
0.0
  0
LINE
  5
18FB6
330
747D
100
AcDbEntity
  8
破線
 48
10.0
100
AcDbLine
 10
7968.902964380299
 20
8837.222912203287
 30
0.0
 11
7138.402964380275
 21
8837.222912203221
 31
0.0
  0
LINE
  5
18FB7
330
747D
100
AcDbEntity
  8
破線
 48
10.0
100
AcDbLine
 10
6598.902964380325
 20
8837.222912203277
 30
0.0
 11
5768.402964380297
 21
8837.222912203211
 31
0.0
  0
LINE
  5
18FB8
330
747D
100
AcDbEntity
  8
破線
 48
10.0
100
AcDbLine
 10
6598.902964380325
 20
8787.222912203276
 30
0.0
 11
5768.402964380299
 21
8787.22291220321
 31
0.0
  0
LINE
  5
18FB9
330
747D
100
AcDbEntity
  8
破線
 48
10.0
100
AcDbLine
 10
6598.902964380364
 20
8122.222912203275
 30
0.0
 11
5768.402964380336
 21
8122.222912203213
 31
0.0
  0
LINE
  5
18FBA
330
747D
100
AcDbEntity
  8
破線
 48
10.0
100
AcDbLine
 10
6598.902964380364
 20
8172.222912203274
 30
0.0
 11
5768.402964380336
 21
8172.222912203212
 31
0.0
  0
LINE
  5
18FBB
330
747D
100
AcDbEntity
  8
破線
 48
10.0
100
AcDbLine
 10
5228.902964380364
 20
8172.22291220326
 30
0.0
 11
5098.804288626173
 21
8172.222912203251
 31
0.0
  0
LINE
  5
18FBC
330
747D
100
AcDbEntity
  8
破線
 48
10.0
100
AcDbLine
 10
5228.902964380364
 20
8122.222912203262
 30
0.0
 11
5107.620637661595
 21
8122.22291220325
 31
0.0
  0
LINE
  5
18FBD
330
747D
100
AcDbEntity
  8
破線
 48
10.0
100
AcDbLine
 10
5228.902964380326
 20
8787.222912203262
 30
0.0
 11
4990.363195490466
 21
8787.222912203244
 31
0.0
  0
LINE
  5
18FBE
330
747D
100
AcDbEntity
  8
破線
 48
10.0
100
AcDbLine
 10
5228.902964380326
 20
8837.222912203262
 30
0.0
 11
4981.546846455044
 21
8837.222912203243
 31
0.0
  0
MTEXT
  5
18FBF
330
747D
100
AcDbEntity
  8
寸法
 62
     7
 48
50.0
100
AcDbMText
 10
8030.798694141948
 20
8893.282699593706
 30
0.0
 40
96.0
 41
0.0
 71
     5
 72
     1
  1
棚 2段
  7
STYLE1
 11
0.0000000000000001
 21
1.0
 31
0.0
 73
     1
 44
1.0
1001
ACAD
1000
MTEXTBEGIN
1070
    73
1070
     1
1070
    44
1040
1.0
1070
    74
1070
     0
1000
MTEXTEND
  0
MTEXT
  5
18FC0
330
747D
100
AcDbEntity
  8
寸法
 62
     7
 48
50.0
100
AcDbMText
 10
8030.798694141948
 20
7824.032699593693
 30
0.0
 40
96.0
 41
0.0
 71
     5
 72
     1
  1
棚 2段
  7
STYLE1
 11
0.0000000000000001
 21
1.0
 31
0.0
 73
     1
 44
1.0
1001
ACAD
1000
MTEXTBEGIN
1070
    73
1070
     1
1070
    44
1040
1.0
1070
    74
1070
     0
1000
MTEXTEND
  0
MTEXT
  5
18FC1
330
747D
100
AcDbEntity
  8
寸法
 62
     7
 48
50.0
100
AcDbMText
 10
6660.798694141949
 20
7824.032699593693
 30
0.0
 40
96.0
 41
0.0
 71
     5
 72
     1
  1
棚 2段
  7
STYLE1
 11
0.0000000000000001
 21
1.0
 31
0.0
 73
     1
 44
1.0
1001
ACAD
1000
MTEXTBEGIN
1070
    73
1070
     1
1070
    44
1040
1.0
1070
    74
1070
     0
1000
MTEXTEND
  0
MTEXT
  5
18FC2
330
747D
100
AcDbEntity
  8
寸法
 62
     7
 48
50.0
100
AcDbMText
 10
6660.798694141947
 20
8893.282699593706
 30
0.0
 40
96.0
 41
0.0
 71
     5
 72
     1
  1
棚 2段
  7
STYLE1
 11
0.0000000000000001
 21
1.0
 31
0.0
 73
     1
 44
1.0
1001
ACAD
1000
MTEXTBEGIN
1070
    73
1070
     1
1070
    44
1040
1.0
1070
    74
1070
     0
1000
MTEXTEND
  0
MTEXT
  5
18FC3
330
747D
100
AcDbEntity
  8
寸法
 62
     7
 48
50.0
100
AcDbMText
 10
5292.12082411778
 20
7826.371400617613
 30
0.0
 40
96.0
 41
0.0
 71
     5
 72
     1
  1
棚 2段
  7
STYLE1
 11
0.0000000000000001
 21
1.0
 31
0.0
 73
     1
 44
1.0
1001
ACAD
1000
MTEXTBEGIN
1070
    73
1070
     1
1070
    44
1040
1.0
1070
    74
1070
     0
1000
MTEXTEND
  0
MTEXT
  5
18FC4
330
747D
100
AcDbEntity
  8
寸法
 62
     7
 48
50.0
100
AcDbMText
 10
5292.12082411778
 20
8895.621400617626
 30
0.0
 40
96.0
 41
0.0
 71
     5
 72
     1
  1
棚 2段
  7
STYLE1
 11
0.0000000000000001
 21
1.0
 31
0.0
 73
     1
 44
1.0
1001
ACAD
1000
MTEXTBEGIN
1070
    73
1070
     1
1070
    44
1040
1.0
1070
    74
1070
     0
1000
MTEXTEND
  0
LINE
  5
18FC5
330
747D
100
AcDbEntity
  8
細線
 48
50.0
100
AcDbLine
 10
5649.902964380239
 20
7392.222912203189
 30
0.0
 11
5651.902964380241
 21
7392.222912203189
 31
0.0
  0
LINE
  5
18FC6
330
747D
100
AcDbEntity
  8
細線
100
AcDbLine
 10
5649.902964380239
 20
7392.222912203189
 30
0.0
 11
5649.902964380239
 21
7410.222912203188
 31
0.0
  0
LINE
  5
18FC7
330
747D
100
AcDbEntity
  8
細線
100
AcDbLine
 10
5556.402964380296
 20
7410.222912203213
 30
0.0
 11
5554.304579918602
 21
7414.72291220321
 31
0.0
  0
LINE
  5
18FC8
330
747D
100
AcDbEntity
  8
細線
100
AcDbLine
 10
5649.902964380239
 20
7410.22291220319
 30
0.0
 11
5556.402964380306
 21
7410.222912203195
 31
0.0
  0
LINE
  5
18FC9
330
747D
100
AcDbEntity
  8
細線
100
AcDbLine
 10
5486.402964380299
 20
7410.22291220322
 30
0.0
 11
5416.402964380288
 21
7410.22291220322
 31
0.0
  0
LINE
  5
18FCA
330
747D
100
AcDbEntity
  8
細線
100
AcDbLine
 10
5416.402964380288
 20
7410.22291220322
 30
0.0
 11
5414.304579918598
 21
7414.72291220321
 31
0.0
  0
LINE
  5
18FCB
330
747D
100
AcDbEntity
  8
細線
100
AcDbLine
 10
5486.402964380307
 20
7410.222912203231
 30
0.0
 11
5488.734502671072
 21
7415.222912203216
 31
0.0
  0
LINE
  5
18FCC
330
747D
100
AcDbEntity
  8
細線
 48
50.0
100
AcDbLine
 10
5651.902964380241
 20
7387.222912203196
 30
0.0
 11
5258.902964380299
 21
7387.222912203196
 31
0.0
  0
LINE
  5
18FCD
330
747D
100
AcDbEntity
  8
細線
 48
50.0
100
AcDbLine
 10
5651.902964380241
 20
7353.222912203192
 30
0.0
 11
5243.21608582642
 21
7353.222912203192
 31
0.0
  0
LINE
  5
18FCE
330
747D
100
AcDbEntity
  8
細線
100
AcDbLine
 10
5258.902964380295
 20
7374.222912203248
 30
0.0
 11
5258.902964380302
 21
7404.222912203249
 31
0.0
  0
LINE
  5
18FCF
330
747D
100
AcDbEntity
  8
細線
100
AcDbLine
 10
5258.902964380295
 20
7374.222912203248
 30
0.0
 11
5239.513219231531
 21
7374.222912203248
 31
0.0
  0
LINE
  5
18FD0
330
747D
100
AcDbEntity
  8
細線
100
AcDbLine
 10
5249.902964380295
 20
7409.52291220325
 30
0.0
 11
5249.902964380295
 21
7410.222912203245
 31
0.0
  0
ARC
  5
18FD1
330
747D
100
AcDbEntity
  8
細線
100
AcDbCircle
 10
5247.902964380295
 20
7409.522912203247
 30
0.0
 40
2.0
100
AcDbArc
 50
270.0
 51
0.0
  0
LINE
  5
18FD2
330
747D
100
AcDbEntity
  8
細線
100
AcDbLine
 10
5245.902964380295
 20
7407.522912203249
 30
0.0
 11
5247.902964380295
 21
7407.522912203249
 31
0.0
  0
LINE
  5
18FD3
330
747D
100
AcDbEntity
  8
細線
100
AcDbLine
 10
5243.902964380295
 20
7409.52291220325
 30
0.0
 11
5243.902964380295
 21
7410.222912203245
 31
0.0
  0
ARC
  5
18FD4
330
747D
100
AcDbEntity
  8
細線
100
AcDbCircle
 10
5245.902964380295
 20
7409.522912203247
 30
0.0
 40
2.0
100
AcDbArc
 50
180.0
 51
270.0
  0
LINE
  5
18FD5
330
747D
100
AcDbEntity
  8
細線
100
AcDbLine
 10
5346.402964380299
 20
7410.222912203245
 30
0.0
 11
5249.902964380295
 21
7410.222912203245
 31
0.0
  0
LINE
  5
18FD6
330
747D
100
AcDbEntity
  8
細線
100
AcDbLine
 10
5346.402964380295
 20
7410.222912203238
 30
0.0
 11
5348.501348841978
 21
7414.72291220321
 31
0.0
  0
LINE
  5
18FD7
330
747D
100
AcDbEntity
  8
細線
100
AcDbLine
 10
5243.902964380295
 20
7410.222912203245
 30
0.0
 11
5237.902964380295
 21
7410.222912203245
 31
0.0
  0
LINE
  5
18FD8
330
747D
100
AcDbEntity
  8
細線
100
AcDbLine
 10
5243.902964380288
 20
7397.222912203246
 30
0.0
 11
5243.90296438029
 21
7404.222912203245
 31
0.0
  0
LINE
  5
18FD9
330
747D
100
AcDbEntity
  8
細線
100
AcDbLine
 10
5258.902964380295
 20
7404.222912203249
 30
0.0
 11
5243.90296438029
 21
7404.222912203245
 31
0.0
  0
LINE
  5
18FDA
330
747D
100
AcDbEntity
  8
細線
100
AcDbLine
 10
5237.902964380295
 20
7402.222912203249
 30
0.0
 11
5234.576063771694
 21
7402.222912203246
 31
0.0
  0
LINE
  5
18FDB
330
747D
100
AcDbEntity
  8
細線
100
AcDbLine
 10
5237.902964380295
 20
7402.222912203249
 30
0.0
 11
5237.902964380295
 21
7410.222912203245
 31
0.0
  0
LINE
  5
18FDC
330
747D
100
AcDbEntity
  8
細線
100
AcDbLine
 10
5243.902964380288
 20
7397.222912203274
 30
0.0
 11
5235.45769867523
 21
7397.222912203275
 31
0.0
  0
LINE
  5
18FDD
330
747D
100
AcDbEntity
  8
細線
100
AcDbLine
 10
5209.050420874956
 20
7374.222912203251
 30
0.0
 11
5140.402964380291
 21
7374.222912203248
 31
0.0
  0
LINE
  5
18FDE
330
747D
100
AcDbEntity
  8
細線
100
AcDbLine
 10
5140.402964380284
 20
7374.222912203264
 30
0.0
 11
5138.071426089514
 21
7379.222912203248
 31
0.0
  0
LINE
  5
18FDF
330
747D
100
AcDbEntity
  8
細線
100
AcDbLine
 10
5138.071426089514
 20
7379.222912203248
 30
0.0
 11
5072.734502671044
 21
7379.222912203239
 31
0.0
  0
LINE
  5
18FE0
330
747D
100
AcDbEntity
  8
細線
100
AcDbLine
 10
4416.902964380289
 20
7370.222912203167
 30
0.0
 11
4401.902964380291
 21
7370.222912203167
 31
0.0
  0
LINE
  5
18FE1
330
747D
100
AcDbEntity
  8
細線
100
AcDbLine
 10
4416.902964380289
 20
7370.222912203167
 30
0.0
 11
4416.902964380289
 21
7363.222912203166
 31
0.0
  0
LINE
  5
18FE2
330
747D
100
AcDbEntity
  8
細線
100
AcDbLine
 10
4401.902964380291
 20
7344.222912203118
 30
0.0
 11
4401.902964380291
 21
7340.222912203166
 31
0.0
  0
LINE
  5
18FE3
330
747D
100
AcDbEntity
  8
細線
100
AcDbLine
 10
4682.902964380289
 20
7340.222912203206
 30
0.0
 11
4392.890657731238
 21
7340.222912203166
 31
0.0
  0
LINE
  5
18FE4
330
747D
100
AcDbEntity
  8
細線
100
AcDbLine
 10
5204.994900318657
 20
7397.222912203275
 30
0.0
 11
4826.902964380289
 21
7397.222912203308
 31
0.0
  0
LINE
  5
18FE5
330
747D
100
AcDbEntity
  8
細線
 48
50.0
100
AcDbLine
 10
5212.753287469845
 20
7353.222912203192
 30
0.0
 11
4852.902964380297
 21
7353.222912203197
 31
0.0
  0
LINE
  5
18FE6
330
747D
100
AcDbEntity
  8
細線
100
AcDbLine
 10
4837.902964380296
 20
7363.222912203227
 30
0.0
 11
4416.902964380289
 21
7363.222912203166
 31
0.0
  0
LINE
  5
18FE7
330
747D
100
AcDbEntity
  8
細線
 48
50.0
100
AcDbLine
 10
4811.902964380288
 20
7387.222912203201
 30
0.0
 11
4401.902964380288
 21
7387.222912203135
 31
0.0
  0
LINE
  5
18FE8
330
747D
100
AcDbEntity
  8
細線
100
AcDbLine
 10
5070.402964380273
 20
7374.222912203248
 30
0.0
 11
5000.402964380279
 21
7374.222912203248
 31
0.0
  0
LINE
  5
18FE9
330
747D
100
AcDbEntity
  8
細線
100
AcDbLine
 10
5070.40296438029
 20
7374.222912203281
 30
0.0
 11
5072.734502671059
 21
7379.222912203267
 31
0.0
  0
LINE
  5
18FEA
330
747D
100
AcDbEntity
  8
細線
100
AcDbLine
 10
5065.402964380308
 20
7374.222912203324
 30
0.0
 11
5057.902964380317
 21
7397.222912203253
 31
0.0
  0
LINE
  5
18FEB
330
747D
100
AcDbEntity
  8
細線
100
AcDbLine
 10
4826.902964380289
 20
7404.222912203161
 30
0.0
 11
4811.902964380291
 21
7404.222912203159
 31
0.0
  0
ARC
  5
18FEC
330
747D
100
AcDbEntity
  8
細線
100
AcDbCircle
 10
5035.402970880275
 20
7399.722912203251
 30
0.0
 40
6.0
100
AcDbArc
 50
204.6243183522997
 51
335.3756816477003
  0
LINE
  5
18FED
330
747D
100
AcDbEntity
  8
細線
100
AcDbLine
 10
4609.447627040661
 20
7340.222912203346
 30
0.0
 11
4616.947627040668
 21
7363.222912203267
 31
0.0
  0
LINE
  5
18FEE
330
747D
100
AcDbEntity
  8
細線
100
AcDbLine
 10
4669.447627040662
 20
7340.222912203337
 30
0.0
 11
4661.947627040665
 21
7363.222912203267
 31
0.0
  0
ARC
  5
18FEF
330
747D
100
AcDbEntity
  8
細線
100
AcDbCircle
 10
4639.447633540633
 20
7365.722912203238
 30
0.0
 40
6.0
100
AcDbArc
 50
204.6243183522997
 51
335.3756816477003
  0
LINE
  5
18FF0
330
747D
100
AcDbEntity
  8
細線
100
AcDbLine
 10
4826.902964380289
 20
7397.222912203156
 30
0.0
 11
4826.902964380289
 21
7404.222912203161
 31
0.0
  0
ARC
  5
18FF1
330
747D
100
AcDbEntity
  8
細線
100
AcDbCircle
 10
4839.902964380297
 20
7373.522912203156
 30
0.0
 40
2.0
100
AcDbArc
 50
180.0
 51
270.0
  0
LINE
  5
18FF2
330
747D
100
AcDbEntity
  8
細線
100
AcDbLine
 10
4837.902964380298
 20
7373.522912203156
 30
0.0
 11
4837.902964380298
 21
7374.222912203157
 31
0.0
  0
LINE
  5
18FF3
330
747D
100
AcDbEntity
  8
細線
100
AcDbLine
 10
4839.902964380297
 20
7371.522912203156
 30
0.0
 11
4841.902964380299
 21
7371.522912203156
 31
0.0
  0
ARC
  5
18FF4
330
747D
100
AcDbEntity
  8
細線
100
AcDbCircle
 10
4841.902964380299
 20
7373.522912203156
 30
0.0
 40
2.0
100
AcDbArc
 50
270.0
 51
0.0
  0
LINE
  5
18FF5
330
747D
100
AcDbEntity
  8
細線
100
AcDbLine
 10
4843.902964380299
 20
7373.522912203156
 30
0.0
 11
4843.902964380299
 21
7374.222912203157
 31
0.0
  0
LINE
  5
18FF6
330
747D
100
AcDbEntity
  8
細線
100
AcDbLine
 10
4837.902964380275
 20
7374.222912203157
 30
0.0
 11
4831.902964380274
 21
7374.222912203157
 31
0.0
  0
LINE
  5
18FF7
330
747D
100
AcDbEntity
  8
細線
100
AcDbLine
 10
4837.902964380296
 20
7363.222912203162
 30
0.0
 11
4837.902964380296
 21
7370.222912203161
 31
0.0
  0
LINE
  5
18FF8
330
747D
100
AcDbEntity
  8
細線
100
AcDbLine
 10
4852.902964380298
 20
7370.222912203167
 30
0.0
 11
4837.902964380296
 21
7370.222912203161
 31
0.0
  0
LINE
  5
18FF9
330
747D
100
AcDbEntity
  8
細線
100
AcDbLine
 10
4852.902964380291
 20
7340.222912203166
 30
0.0
 11
4852.902964380298
 21
7370.222912203167
 31
0.0
  0
LINE
  5
18FFA
330
747D
100
AcDbEntity
  8
細線
100
AcDbLine
 10
4811.902964380285
 20
7370.222912203151
 30
0.0
 11
4811.902964380295
 21
7404.222912203159
 31
0.0
  0
LINE
  5
18FFB
330
747D
100
AcDbEntity
  8
細線
100
AcDbLine
 10
4831.902964380274
 20
7370.222912203151
 30
0.0
 11
4811.902964380285
 21
7370.222912203151
 31
0.0
  0
LINE
  5
18FFC
330
747D
100
AcDbEntity
  8
細線
100
AcDbLine
 10
4831.902964380274
 20
7370.222912203151
 30
0.0
 11
4831.902964380274
 21
7374.222912203155
 31
0.0
  0
LINE
  5
18FFD
330
747D
100
AcDbEntity
  8
細線
100
AcDbLine
 10
4930.402964380286
 20
7374.222912203252
 30
0.0
 11
4843.902964380302
 21
7374.222912203252
 31
0.0
  0
LINE
  5
18FFE
330
747D
100
AcDbEntity
  8
細線
100
AcDbLine
 10
4998.071426089516
 20
7379.222912203227
 30
0.0
 11
4932.73450267104
 21
7379.222912203218
 31
0.0
  0
LINE
  5
18FFF
330
747D
100
AcDbEntity
  8
細線
100
AcDbLine
 10
5000.402964380285
 20
7374.222912203241
 30
0.0
 11
4998.071426089516
 21
7379.222912203227
 31
0.0
  0
LINE
  5
19000
330
747D
100
AcDbEntity
  8
細線
100
AcDbLine
 10
4930.402964380288
 20
7374.22291220326
 30
0.0
 11
4932.734502671055
 21
7379.222912203245
 31
0.0
  0
ARC
  5
19001
330
747D
100
AcDbEntity
  8
部品1
 48
0.01
100
AcDbCircle
 10
4562.402964380281
 20
7339.222912203189
 30
0.0
 40
0.5
100
AcDbArc
 50
270.0
 51
0.0
  0
LINE
  5
19002
330
747D
100
AcDbEntity
  8
部品1
 48
0.01
100
AcDbLine
 10
4562.902964380284
 20
7340.222912203188
 30
0.0
 11
4562.902964380284
 21
7339.222912203189
 31
0.0
  0
LINE
  5
19003
330
747D
100
AcDbEntity
  8
部品1
 48
0.01
100
AcDbLine
 10
4562.902964380284
 20
7340.222912203188
 30
0.0
 11
4562.902964380284
 21
7339.222912203189
 31
0.0
  0
LINE
  5
19004
330
747D
100
AcDbEntity
  8
部品1
 48
0.01
100
AcDbLine
 10
4562.402964380281
 20
7338.722912203188
 30
0.0
 11
4555.790458950223
 21
7338.722912203188
 31
0.0
  0
ARC
  5
19005
330
747D
100
AcDbEntity
  8
部品1
100
AcDbCircle
 10
4555.858808503002
 20
7339.722912203187
 30
0.0
 40
1.0
100
AcDbArc
 50
160.5287793655287
 51
270.0
  0
ARC
  5
19006
330
747D
100
AcDbEntity
  8
部品1
100
AcDbCircle
 10
4530.402964380284
 20
7348.722912203188
 30
0.0
 40
26.0
100
AcDbArc
 50
340.5287793655287
 51
0.0
  0
LINE
  5
19007
330
747D
100
AcDbEntity
  8
部品1
100
AcDbLine
 10
4556.402964380284
 20
7348.722912203188
 30
0.0
 11
4556.402964380284
 21
7353.722912203187
 31
0.0
  0
ARC
  5
19008
330
747D
100
AcDbEntity
  8
部品1
 48
0.01
100
AcDbCircle
 10
4554.402964380284
 20
7353.722912203187
 30
0.0
 40
2.0
100
AcDbArc
 50
0.0
 51
90.0
  0
ARC
  5
19009
330
747D
100
AcDbEntity
  8
部品1
100
AcDbCircle
 10
4552.794572755473
 20
7352.722912203188
 30
0.0
 40
3.0
100
AcDbArc
 50
90.0
 51
141.6069559808605
  0
LINE
  5
1900A
330
747D
100
AcDbEntity
  8
部品1
 48
0.01
100
AcDbLine
 10
4554.402964380284
 20
7355.722912203188
 30
0.0
 11
4552.794572755473
 21
7355.722912203188
 31
0.0
  0
ARC
  5
1900B
330
747D
100
AcDbEntity
  8
部品1
100
AcDbCircle
 10
4534.332250166012
 20
7352.022912203189
 30
0.0
 40
3.0
100
AcDbArc
 50
254.0576313943215
 51
270.0
  0
ARC
  5
1900C
330
747D
100
AcDbEntity
  8
部品1
100
AcDbCircle
 10
4541.473678594555
 20
7352.022912203189
 30
0.0
 40
3.0
100
AcDbArc
 50
270.0
 51
285.9423686056786
  0
LINE
  5
1900D
330
747D
100
AcDbEntity
  8
部品1
100
AcDbLine
 10
4541.473678594555
 20
7349.022912203189
 30
0.0
 11
4534.332250166012
 21
7349.022912203189
 31
0.0
  0
ARC
  5
1900E
330
747D
100
AcDbEntity
  8
部品1
100
AcDbCircle
 10
4537.902964380284
 20
7364.522912203189
 30
0.0
 40
16.0
100
AcDbArc
 50
285.9423686056786
 51
321.6069559808606
  0
LINE
  5
1900F
330
747D
100
AcDbEntity
  8
部品1
 48
0.01
100
AcDbLine
 10
4521.402964380285
 20
7355.722912203188
 30
0.0
 11
4523.011356005096
 21
7355.722912203188
 31
0.0
  0
ARC
  5
19010
330
747D
100
AcDbEntity
  8
部品1
100
AcDbCircle
 10
4523.011356005096
 20
7352.722912203188
 30
0.0
 40
3.0
100
AcDbArc
 50
38.39304401913947
 51
90.0
  0
ARC
  5
19011
330
747D
100
AcDbEntity
  8
部品1
100
AcDbCircle
 10
4537.902964380284
 20
7364.522912203189
 30
0.0
 40
16.0
100
AcDbArc
 50
218.3930440191395
 51
254.0576313943215
  0
LINE
  5
19012
330
747D
100
AcDbEntity
  8
部品1
100
AcDbLine
 10
4519.402964380284
 20
7348.722912203188
 30
0.0
 11
4519.402964380284
 21
7353.722912203187
 31
0.0
  0
ARC
  5
19013
330
747D
100
AcDbEntity
  8
部品1
 48
0.01
100
AcDbCircle
 10
4521.402964380285
 20
7353.722912203187
 30
0.0
 40
2.0
100
AcDbArc
 50
90.0
 51
180.0
  0
ARC
  5
19014
330
747D
100
AcDbEntity
  8
部品1
100
AcDbCircle
 10
4545.402964380284
 20
7348.722912203188
 30
0.0
 40
26.0
100
AcDbArc
 50
180.0
 51
199.4712206344713
  0
ARC
  5
19015
330
747D
100
AcDbEntity
  8
部品1
 48
0.01
100
AcDbCircle
 10
4513.402964380284
 20
7339.222912203189
 30
0.0
 40
0.5
100
AcDbArc
 50
180.0
 51
270.0
  0
LINE
  5
19016
330
747D
100
AcDbEntity
  8
部品1
 48
0.01
100
AcDbLine
 10
4513.402964380284
 20
7338.722912203188
 30
0.0
 11
4519.947120257565
 21
7338.722912203188
 31
0.0
  0
LINE
  5
19017
330
747D
100
AcDbEntity
  8
部品1
 48
0.01
100
AcDbLine
 10
4512.902964380284
 20
7340.222912203188
 30
0.0
 11
4512.902964380284
 21
7339.222912203189
 31
0.0
  0
ARC
  5
19018
330
747D
100
AcDbEntity
  8
部品1
100
AcDbCircle
 10
4519.947120257565
 20
7339.722912203187
 30
0.0
 40
1.0
100
AcDbArc
 50
270.0
 51
19.47122063447127
  0
LINE
  5
19019
330
747D
100
AcDbEntity
  8
細線
100
AcDbLine
 10
4558.402964380291
 20
7358.222912203189
 30
0.0
 11
4517.40296438029
 21
7358.222912203185
 31
0.0
  0
LINE
  5
1901A
330
747D
100
AcDbEntity
  8
細線
100
AcDbLine
 10
4517.40296438029
 20
7358.222912203185
 30
0.0
 11
4517.40296438029
 21
7340.222912203166
 31
0.0
  0
LINE
  5
1901B
330
747D
100
AcDbEntity
  8
細線
100
AcDbLine
 10
4558.402964380291
 20
7358.222912203189
 30
0.0
 11
4558.402964380291
 21
7340.222912203166
 31
0.0
  0
LINE
  5
1901C
330
747D
100
AcDbEntity
  8
細線
100
AcDbLine
 10
4682.902964380289
 20
7340.222912203213
 30
0.0
 11
4685.234502671059
 21
7345.222912203197
 31
0.0
  0
LINE
  5
1901D
330
747D
100
AcDbEntity
  8
細線
100
AcDbLine
 10
4752.902964380284
 20
7340.222912203192
 30
0.0
 11
4750.571426089514
 21
7345.222912203178
 31
0.0
  0
LINE
  5
1901E
330
747D
100
AcDbEntity
  8
細線
100
AcDbLine
 10
4750.571426089514
 20
7345.222912203178
 30
0.0
 11
4685.234502671043
 21
7345.222912203166
 31
0.0
  0
LINE
  5
1901F
330
747D
100
AcDbEntity
  8
細線
100
AcDbLine
 10
5005.402964380309
 20
7374.222912203338
 30
0.0
 11
5012.902964380317
 21
7397.222912203253
 31
0.0
  0
LINE
  5
19020
330
747D
100
AcDbEntity
  8
寸法
 48
50.0
100
AcDbLine
 10
4625.841749783624
 20
7234.328553331365
 30
0.0
 11
4574.435741873522
 21
7234.328553331365
 31
0.0
  0
LINE
  5
19021
330
747D
100
AcDbEntity
  8
寸法
 48
50.0
100
AcDbLine
 10
4574.435741873522
 20
7234.328553331365
 30
0.0
 11
4574.435741873522
 21
7265.638711983529
 31
0.0
  0
LINE
  5
19022
330
747D
100
AcDbEntity
  8
寸法
 48
50.0
100
AcDbLine
 10
4574.435741873522
 20
7265.638711983529
 30
0.0
 11
4544.674409882098
 21
7265.638711983529
 31
0.0
  0
LINE
  5
19023
330
747D
100
AcDbEntity
  8
寸法
 48
50.0
100
AcDbLine
 10
4544.674409882098
 20
7265.638711983529
 30
0.0
 11
4600.138745828573
 21
7303.218162912142
 31
0.0
  0
LINE
  5
19024
330
747D
100
AcDbEntity
  8
寸法
 48
50.0
100
AcDbLine
 10
4655.603081775049
 20
7265.638711983529
 30
0.0
 11
4600.138745828578
 21
7303.218162912142
 31
0.0
  0
LINE
  5
19025
330
747D
100
AcDbEntity
  8
寸法
 48
50.0
100
AcDbLine
 10
4625.841749783624
 20
7265.638711983529
 30
0.0
 11
4655.603081775049
 21
7265.638711983529
 31
0.0
  0
LINE
  5
19026
330
747D
100
AcDbEntity
  8
寸法
 48
50.0
100
AcDbLine
 10
4625.841749783624
 20
7234.328553331365
 30
0.0
 11
4625.841749783624
 21
7265.638711983529
 31
0.0
  0
LINE
  5
19027
330
747D
100
AcDbEntity
  8
寸法
 48
50.0
100
AcDbLine
 10
4574.435741873522
 20
7234.328553331365
 30
0.0
 11
4625.841749783624
 21
7234.328553331365
 31
0.0
  0
LINE
  5
19028
330
747D
100
AcDbEntity
  8
寸法
 48
50.0
100
AcDbLine
 10
4905.007284060483
 20
7291.474144086189
 30
0.0
 11
4905.007284060483
 21
7237.810509504396
 31
0.0
  0
LINE
  5
19029
330
747D
100
AcDbEntity
  8
寸法
 48
50.0
100
AcDbLine
 10
4994.291502655904
 20
7267.5505098167
 30
0.0
 11
4905.007284060483
 21
7291.474144086189
 31
0.0
  0
LINE
  5
1902A
330
747D
100
AcDbEntity
  8
寸法
 48
50.0
100
AcDbLine
 10
4775.139562480179
 20
7267.5505098167
 30
0.0
 11
4994.291502655904
 21
7267.5505098167
 31
0.0
  0
LINE
  5
1902B
330
747D
100
AcDbEntity
  8
細線
100
AcDbLine
 10
4852.902964380291
 20
7340.222912203166
 30
0.0
 11
4752.902964380284
 21
7340.222912203152
 31
0.0
  0
DIMENSION
  5
1902C
330
747D
100
AcDbEntity
  8
寸法
100
AcDbDimension
  2
*D33
 10
4401.902964380291
 20
6810.053747242716
 30
0.0
 11
4744.902964380291
 21
6810.053747242716
 31
0.0
 70
   160
  1
有効開口部間口\P<>
 71
     5
 42
685.9999999999991
  3
INABA_S40G
100
AcDbAlignedDimension
 13
5087.90296438029
 23
7337.222912203195
 33
0.0
 14
4401.902964380291
 24
7337.222912203117
 34
0.0
100
AcDbRotatedDimension
1001
ACAD
1000
DSTYLE
1002
{
1002
}
  0
LINE
  5
1902D
330
747D
100
AcDbEntity
  8
細線
100
AcDbLine
 10
6926.402964380298
 20
7410.222912203216
 30
0.0
 11
6924.304579918604
 21
7414.722912203214
 31
0.0
  0
LINE
  5
1902E
330
747D
100
AcDbEntity
  8
細線
 48
50.0
100
AcDbLine
 10
7019.902964380242
 20
7392.222912203192
 30
0.0
 11
7021.90296438024
 21
7392.222912203192
 31
0.0
  0
LINE
  5
1902F
330
747D
100
AcDbEntity
  8
細線
100
AcDbLine
 10
7019.902964380242
 20
7392.222912203192
 30
0.0
 11
7019.902964380242
 21
7410.222912203193
 31
0.0
  0
LINE
  5
19030
330
747D
100
AcDbEntity
  8
細線
100
AcDbLine
 10
7019.902964380242
 20
7410.222912203195
 30
0.0
 11
6926.402964380305
 21
7410.222912203199
 31
0.0
  0
LINE
  5
19031
330
747D
100
AcDbEntity
  8
細線
100
AcDbLine
 10
6856.402964380298
 20
7410.222912203223
 30
0.0
 11
6786.402964380288
 21
7410.222912203223
 31
0.0
  0
LINE
  5
19032
330
747D
100
AcDbEntity
  8
細線
100
AcDbLine
 10
6786.402964380288
 20
7410.222912203223
 30
0.0
 11
6784.3045799186
 21
7414.722912203214
 31
0.0
  0
LINE
  5
19033
330
747D
100
AcDbEntity
  8
細線
100
AcDbLine
 10
6856.402964380307
 20
7410.222912203234
 30
0.0
 11
6858.734502671073
 21
7415.222912203219
 31
0.0
  0
LINE
  5
19034
330
747D
100
AcDbEntity
  8
細線
100
AcDbLine
 10
6716.402964380299
 20
7410.222912203245
 30
0.0
 11
6619.902964380296
 21
7410.222912203252
 31
0.0
  0
LINE
  5
19035
330
747D
100
AcDbEntity
  8
細線
100
AcDbLine
 10
6716.402964380295
 20
7410.22291220324
 30
0.0
 11
6718.501348841977
 21
7414.722912203214
 31
0.0
  0
LINE
  5
19036
330
747D
100
AcDbEntity
  8
細線
 48
50.0
100
AcDbLine
 10
7021.90296438024
 20
7387.222912203199
 30
0.0
 11
6628.902964380299
 21
7387.222912203199
 31
0.0
  0
LINE
  5
19037
330
747D
100
AcDbEntity
  8
細線
100
AcDbLine
 10
6619.902964380296
 20
7409.522912203252
 30
0.0
 11
6619.902964380296
 21
7410.222912203252
 31
0.0
  0
ARC
  5
19038
330
747D
100
AcDbEntity
  8
細線
100
AcDbCircle
 10
6617.902964380295
 20
7409.522912203252
 30
0.0
 40
2.0
100
AcDbArc
 50
270.0
 51
0.0
  0
LINE
  5
19039
330
747D
100
AcDbEntity
  8
細線
100
AcDbLine
 10
6615.902964380296
 20
7407.522912203254
 30
0.0
 11
6617.902964380295
 21
7407.522912203254
 31
0.0
  0
LINE
  5
1903A
330
747D
100
AcDbEntity
  8
細線
100
AcDbLine
 10
6613.902964380296
 20
7409.522912203252
 30
0.0
 11
6613.902964380296
 21
7410.222912203252
 31
0.0
  0
ARC
  5
1903B
330
747D
100
AcDbEntity
  8
細線
100
AcDbCircle
 10
6615.902964380296
 20
7409.522912203252
 30
0.0
 40
2.0
100
AcDbArc
 50
180.0
 51
270.0
  0
LINE
  5
1903C
330
747D
100
AcDbEntity
  8
細線
100
AcDbLine
 10
6613.902964380296
 20
7410.222912203252
 30
0.0
 11
6607.902964380295
 21
7410.222912203252
 31
0.0
  0
LINE
  5
1903D
330
747D
100
AcDbEntity
  8
細線
100
AcDbLine
 10
6613.902964380288
 20
7397.222912203249
 30
0.0
 11
6613.902964380291
 21
7404.222912203249
 31
0.0
  0
LINE
  5
1903E
330
747D
100
AcDbEntity
  8
細線
100
AcDbLine
 10
6628.902964380294
 20
7404.222912203252
 30
0.0
 11
6613.902964380291
 21
7404.222912203249
 31
0.0
  0
LINE
  5
1903F
330
747D
100
AcDbEntity
  8
細線
100
AcDbLine
 10
6628.902964380294
 20
7374.222912203252
 30
0.0
 11
6628.902964380303
 21
7404.222912203252
 31
0.0
  0
LINE
  5
19040
330
747D
100
AcDbEntity
  8
細線
100
AcDbLine
 10
6587.902964380297
 20
7402.222912203253
 30
0.0
 11
6587.902964380297
 21
7438.222912203248
 31
0.0
  0
LINE
  5
19041
330
747D
100
AcDbEntity
  8
細線
100
AcDbLine
 10
6607.902964380295
 20
7402.222912203253
 30
0.0
 11
6587.902964380297
 21
7402.222912203253
 31
0.0
  0
LINE
  5
19042
330
747D
100
AcDbEntity
  8
細線
100
AcDbLine
 10
6607.902964380295
 20
7402.222912203253
 30
0.0
 11
6607.902964380295
 21
7410.222912203252
 31
0.0
  0
LINE
  5
19043
330
747D
100
AcDbEntity
  8
細線
100
AcDbLine
 10
6598.902964380481
 20
7438.222912203196
 30
0.0
 11
6587.902964380297
 21
7438.222912203196
 31
0.0
  0
LINE
  5
19044
330
747D
100
AcDbEntity
  8
細線
100
AcDbLine
 10
6628.902964380294
 20
7374.222912203252
 30
0.0
 11
6510.402964380292
 21
7374.222912203252
 31
0.0
  0
LINE
  5
19045
330
747D
100
AcDbEntity
  8
細線
100
AcDbLine
 10
6510.402964380284
 20
7374.222912203267
 30
0.0
 11
6508.071426089516
 21
7379.222912203252
 31
0.0
  0
LINE
  5
19046
330
747D
100
AcDbEntity
  8
細線
100
AcDbLine
 10
6508.071426089516
 20
7379.222912203252
 30
0.0
 11
6442.734502671044
 21
7379.222912203241
 31
0.0
  0
LINE
  5
19047
330
747D
100
AcDbEntity
  8
細線
100
AcDbLine
 10
5771.902964380291
 20
7344.222912203121
 30
0.0
 11
5771.902964380291
 21
7340.222912203168
 31
0.0
  0
LINE
  5
19048
330
747D
100
AcDbEntity
  8
細線
100
AcDbLine
 10
6052.902964380291
 20
7340.222912203213
 30
0.0
 11
5762.890657731238
 21
7340.222912203168
 31
0.0
  0
LINE
  5
19049
330
747D
100
AcDbEntity
  8
細線
100
AcDbLine
 10
5786.902964380292
 20
7370.222912203169
 30
0.0
 11
5771.902964380291
 21
7370.222912203169
 31
0.0
  0
LINE
  5
1904A
330
747D
100
AcDbEntity
  8
細線
100
AcDbLine
 10
5786.902964380292
 20
7370.222912203169
 30
0.0
 11
5786.902964380292
 21
7363.22291220317
 31
0.0
  0
LINE
  5
1904B
330
747D
100
AcDbEntity
  8
細線
 48
50.0
100
AcDbLine
 10
7021.90296438024
 20
7353.222912203197
 30
0.0
 11
6222.902964380295
 21
7353.222912203197
 31
0.0
  0
LINE
  5
1904C
330
747D
100
AcDbEntity
  8
細線
100
AcDbLine
 10
6613.902964380288
 20
7397.222912203277
 30
0.0
 11
6196.902964380292
 21
7397.222912203313
 31
0.0
  0
LINE
  5
1904D
330
747D
100
AcDbEntity
  8
細線
100
AcDbLine
 10
6207.902964380295
 20
7363.222912203231
 30
0.0
 11
5786.902964380292
 21
7363.22291220317
 31
0.0
  0
LINE
  5
1904E
330
747D
100
AcDbEntity
  8
細線
 48
50.0
100
AcDbLine
 10
6181.902964380288
 20
7387.222912203206
 30
0.0
 11
5771.902964380288
 21
7387.222912203139
 31
0.0
  0
LINE
  5
1904F
330
747D
100
AcDbEntity
  8
細線
100
AcDbLine
 10
6440.402964380275
 20
7374.222912203252
 30
0.0
 11
6370.402964380282
 21
7374.222912203252
 31
0.0
  0
LINE
  5
19050
330
747D
100
AcDbEntity
  8
細線
100
AcDbLine
 10
6440.402964380291
 20
7374.222912203285
 30
0.0
 11
6442.73450267106
 21
7379.222912203271
 31
0.0
  0
LINE
  5
19051
330
747D
100
AcDbEntity
  8
細線
100
AcDbLine
 10
6435.402964380307
 20
7374.222912203329
 30
0.0
 11
6427.902964380317
 21
7397.222912203256
 31
0.0
  0
LINE
  5
19052
330
747D
100
AcDbEntity
  8
寸法
 48
50.0
100
AcDbLine
 10
6145.139562480179
 20
7267.550509816704
 30
0.0
 11
6364.291502655904
 21
7267.550509816704
 31
0.0
  0
LINE
  5
19053
330
747D
100
AcDbEntity
  8
寸法
 48
50.0
100
AcDbLine
 10
6364.291502655904
 20
7267.550509816704
 30
0.0
 11
6275.007284060483
 21
7291.474144086191
 31
0.0
  0
LINE
  5
19054
330
747D
100
AcDbEntity
  8
寸法
 48
50.0
100
AcDbLine
 10
6275.007284060483
 20
7291.474144086191
 30
0.0
 11
6275.007284060483
 21
7237.8105095044
 31
0.0
  0
LINE
  5
19055
330
747D
100
AcDbEntity
  8
寸法
 48
50.0
100
AcDbLine
 10
5944.435741873522
 20
7234.328553331367
 30
0.0
 11
5995.841749783626
 21
7234.328553331367
 31
0.0
  0
LINE
  5
19056
330
747D
100
AcDbEntity
  8
寸法
 48
50.0
100
AcDbLine
 10
5995.841749783626
 20
7234.328553331367
 30
0.0
 11
5995.841749783626
 21
7265.638711983534
 31
0.0
  0
LINE
  5
19057
330
747D
100
AcDbEntity
  8
寸法
 48
50.0
100
AcDbLine
 10
5995.841749783626
 20
7265.638711983534
 30
0.0
 11
6025.60308177505
 21
7265.638711983534
 31
0.0
  0
LINE
  5
19058
330
747D
100
AcDbEntity
  8
寸法
 48
50.0
100
AcDbLine
 10
6025.60308177505
 20
7265.638711983534
 30
0.0
 11
5970.138745828577
 21
7303.218162912145
 31
0.0
  0
LINE
  5
19059
330
747D
100
AcDbEntity
  8
寸法
 48
50.0
100
AcDbLine
 10
5914.674409882098
 20
7265.638711983534
 30
0.0
 11
5970.138745828573
 21
7303.218162912145
 31
0.0
  0
LINE
  5
1905A
330
747D
100
AcDbEntity
  8
寸法
 48
50.0
100
AcDbLine
 10
5944.435741873522
 20
7265.638711983534
 30
0.0
 11
5914.674409882098
 21
7265.638711983534
 31
0.0
  0
LINE
  5
1905B
330
747D
100
AcDbEntity
  8
寸法
 48
50.0
100
AcDbLine
 10
5944.435741873522
 20
7234.328553331367
 30
0.0
 11
5944.435741873522
 21
7265.638711983534
 31
0.0
  0
LINE
  5
1905C
330
747D
100
AcDbEntity
  8
寸法
 48
50.0
100
AcDbLine
 10
5995.841749783626
 20
7234.328553331367
 30
0.0
 11
5944.435741873522
 21
7234.328553331367
 31
0.0
  0
ARC
  5
1905D
330
747D
100
AcDbEntity
  8
細線
100
AcDbCircle
 10
6405.402970880276
 20
7399.722912203256
 30
0.0
 40
6.0
100
AcDbArc
 50
204.6243183522997
 51
335.3756816477003
  0
LINE
  5
1905E
330
747D
100
AcDbEntity
  8
細線
100
AcDbLine
 10
6370.402964380284
 20
7374.222912203245
 30
0.0
 11
6368.071426089518
 21
7379.222912203231
 31
0.0
  0
LINE
  5
1905F
330
747D
100
AcDbEntity
  8
細線
100
AcDbLine
 10
6300.402964380285
 20
7374.222912203264
 30
0.0
 11
6302.734502671055
 21
7379.222912203248
 31
0.0
  0
LINE
  5
19060
330
747D
100
AcDbEntity
  8
細線
100
AcDbLine
 10
6375.40296438031
 20
7374.22291220334
 30
0.0
 11
6382.902964380317
 21
7397.222912203256
 31
0.0
  0
LINE
  5
19061
330
747D
100
AcDbEntity
  8
細線
100
AcDbLine
 10
6300.402964380285
 20
7374.222912203257
 30
0.0
 11
6213.902964380302
 21
7374.222912203257
 31
0.0
  0
LINE
  5
19062
330
747D
100
AcDbEntity
  8
細線
100
AcDbLine
 10
6368.071426089518
 20
7379.222912203231
 30
0.0
 11
6302.734502671041
 21
7379.22291220322
 31
0.0
  0
LINE
  5
19063
330
747D
100
AcDbEntity
  8
細線
100
AcDbLine
 10
6196.902964380292
 20
7404.222912203166
 30
0.0
 11
6181.902964380292
 21
7404.222912203161
 31
0.0
  0
LINE
  5
19064
330
747D
100
AcDbEntity
  8
細線
100
AcDbLine
 10
6196.902964380292
 20
7397.222912203162
 30
0.0
 11
6196.902964380292
 21
7404.222912203166
 31
0.0
  0
ARC
  5
19065
330
747D
100
AcDbEntity
  8
細線
100
AcDbCircle
 10
6209.902964380298
 20
7373.522912203161
 30
0.0
 40
2.0
100
AcDbArc
 50
180.0
 51
270.0
  0
LINE
  5
19066
330
747D
100
AcDbEntity
  8
細線
100
AcDbLine
 10
6207.902964380298
 20
7373.522912203161
 30
0.0
 11
6207.902964380298
 21
7374.222912203162
 31
0.0
  0
LINE
  5
19067
330
747D
100
AcDbEntity
  8
細線
100
AcDbLine
 10
6209.902964380298
 20
7371.522912203161
 30
0.0
 11
6211.902964380296
 21
7371.522912203161
 31
0.0
  0
ARC
  5
19068
330
747D
100
AcDbEntity
  8
細線
100
AcDbCircle
 10
6211.902964380296
 20
7373.522912203161
 30
0.0
 40
2.0
100
AcDbArc
 50
270.0
 51
0.0
  0
LINE
  5
19069
330
747D
100
AcDbEntity
  8
細線
100
AcDbLine
 10
6213.902964380299
 20
7373.522912203161
 30
0.0
 11
6213.902964380299
 21
7374.222912203162
 31
0.0
  0
LINE
  5
1906A
330
747D
100
AcDbEntity
  8
細線
100
AcDbLine
 10
6207.902964380274
 20
7374.222912203162
 30
0.0
 11
6201.902964380274
 21
7374.222912203162
 31
0.0
  0
LINE
  5
1906B
330
747D
100
AcDbEntity
  8
細線
100
AcDbLine
 10
6207.902964380295
 20
7363.222912203166
 30
0.0
 11
6207.902964380295
 21
7370.222912203167
 31
0.0
  0
LINE
  5
1906C
330
747D
100
AcDbEntity
  8
細線
100
AcDbLine
 10
6222.902964380296
 20
7370.222912203169
 30
0.0
 11
6207.902964380295
 21
7370.222912203167
 31
0.0
  0
LINE
  5
1906D
330
747D
100
AcDbEntity
  8
細線
100
AcDbLine
 10
6222.902964380292
 20
7340.222912203168
 30
0.0
 11
6222.902964380296
 21
7370.222912203169
 31
0.0
  0
LINE
  5
1906E
330
747D
100
AcDbEntity
  8
細線
100
AcDbLine
 10
6181.902964380286
 20
7370.222912203153
 30
0.0
 11
6181.902964380295
 21
7404.222912203161
 31
0.0
  0
LINE
  5
1906F
330
747D
100
AcDbEntity
  8
細線
100
AcDbLine
 10
6201.902964380274
 20
7370.222912203153
 30
0.0
 11
6181.902964380286
 21
7370.222912203153
 31
0.0
  0
LINE
  5
19070
330
747D
100
AcDbEntity
  8
細線
100
AcDbLine
 10
6201.902964380274
 20
7370.222912203153
 30
0.0
 11
6201.902964380274
 21
7374.222912203157
 31
0.0
  0
LINE
  5
19071
330
747D
100
AcDbEntity
  8
細線
100
AcDbLine
 10
6222.902964380292
 20
7340.222912203168
 30
0.0
 11
6122.902964380285
 21
7340.222912203156
 31
0.0
  0
LINE
  5
19072
330
747D
100
AcDbEntity
  8
細線
100
AcDbLine
 10
5979.447627040661
 20
7340.22291220335
 30
0.0
 11
5986.947627040668
 21
7363.222912203271
 31
0.0
  0
LINE
  5
19073
330
747D
100
AcDbEntity
  8
細線
100
AcDbLine
 10
6039.447627040662
 20
7340.222912203339
 30
0.0
 11
6031.947627040665
 21
7363.222912203271
 31
0.0
  0
ARC
  5
19074
330
747D
100
AcDbEntity
  8
細線
100
AcDbCircle
 10
6009.447633540635
 20
7365.722912203242
 30
0.0
 40
6.0
100
AcDbArc
 50
204.6243183522997
 51
335.3756816477003
  0
LINE
  5
19075
330
747D
100
AcDbEntity
  8
細線
100
AcDbLine
 10
6052.902964380291
 20
7340.222912203214
 30
0.0
 11
6055.234502671062
 21
7345.222912203199
 31
0.0
  0
LINE
  5
19076
330
747D
100
AcDbEntity
  8
細線
100
AcDbLine
 10
6122.902964380285
 20
7340.222912203195
 30
0.0
 11
6120.571426089518
 21
7345.222912203182
 31
0.0
  0
LINE
  5
19077
330
747D
100
AcDbEntity
  8
細線
100
AcDbLine
 10
6120.571426089518
 20
7345.222912203182
 30
0.0
 11
6055.234502671044
 21
7345.222912203171
 31
0.0
  0
ARC
  5
19078
330
747D
100
AcDbEntity
  8
部品1
 48
0.01
100
AcDbCircle
 10
5932.402964380284
 20
7339.222912203192
 30
0.0
 40
0.5
100
AcDbArc
 50
270.0
 51
0.0
  0
LINE
  5
19079
330
747D
100
AcDbEntity
  8
部品1
 48
0.01
100
AcDbLine
 10
5932.902964380284
 20
7340.222912203192
 30
0.0
 11
5932.902964380284
 21
7339.222912203192
 31
0.0
  0
LINE
  5
1907A
330
747D
100
AcDbEntity
  8
部品1
 48
0.01
100
AcDbLine
 10
5932.902964380284
 20
7340.222912203192
 30
0.0
 11
5932.902964380284
 21
7339.222912203192
 31
0.0
  0
LINE
  5
1907B
330
747D
100
AcDbEntity
  8
部品1
 48
0.01
100
AcDbLine
 10
5932.402964380284
 20
7338.722912203192
 30
0.0
 11
5925.790458950223
 21
7338.72291220319
 31
0.0
  0
ARC
  5
1907C
330
747D
100
AcDbEntity
  8
部品1
100
AcDbCircle
 10
5925.858808503003
 20
7339.72291220319
 30
0.0
 40
1.0
100
AcDbArc
 50
160.5287793655287
 51
270.0
  0
ARC
  5
1907D
330
747D
100
AcDbEntity
  8
部品1
100
AcDbCircle
 10
5900.402964380284
 20
7348.722912203189
 30
0.0
 40
26.0
100
AcDbArc
 50
340.5287793655287
 51
0.0
  0
LINE
  5
1907E
330
747D
100
AcDbEntity
  8
部品1
100
AcDbLine
 10
5926.402964380284
 20
7348.722912203189
 30
0.0
 11
5926.402964380284
 21
7353.72291220319
 31
0.0
  0
ARC
  5
1907F
330
747D
100
AcDbEntity
  8
部品1
 48
0.01
100
AcDbCircle
 10
5924.402964380284
 20
7353.72291220319
 30
0.0
 40
2.0
100
AcDbArc
 50
0.0
 51
90.0
  0
ARC
  5
19080
330
747D
100
AcDbEntity
  8
部品1
100
AcDbCircle
 10
5922.794572755474
 20
7352.72291220319
 30
0.0
 40
3.0
100
AcDbArc
 50
90.0
 51
141.6069559808605
  0
LINE
  5
19081
330
747D
100
AcDbEntity
  8
部品1
 48
0.01
100
AcDbLine
 10
5924.402964380284
 20
7355.72291220319
 30
0.0
 11
5922.794572755474
 21
7355.72291220319
 31
0.0
  0
ARC
  5
19082
330
747D
100
AcDbEntity
  8
部品1
100
AcDbCircle
 10
5904.332250166012
 20
7352.022912203193
 30
0.0
 40
3.0
100
AcDbArc
 50
254.0576313943215
 51
270.0
  0
ARC
  5
19083
330
747D
100
AcDbEntity
  8
部品1
100
AcDbCircle
 10
5911.473678594555
 20
7352.022912203193
 30
0.0
 40
3.0
100
AcDbArc
 50
270.0
 51
285.9423686056786
  0
LINE
  5
19084
330
747D
100
AcDbEntity
  8
部品1
100
AcDbLine
 10
5911.473678594555
 20
7349.022912203193
 30
0.0
 11
5904.332250166012
 21
7349.022912203193
 31
0.0
  0
ARC
  5
19085
330
747D
100
AcDbEntity
  8
部品1
100
AcDbCircle
 10
5907.902964380286
 20
7364.522912203193
 30
0.0
 40
16.0
100
AcDbArc
 50
285.9423686056786
 51
321.6069559808606
  0
LINE
  5
19086
330
747D
100
AcDbEntity
  8
部品1
 48
0.01
100
AcDbLine
 10
5891.402964380285
 20
7355.72291220319
 30
0.0
 11
5893.011356005098
 21
7355.72291220319
 31
0.0
  0
ARC
  5
19087
330
747D
100
AcDbEntity
  8
部品1
100
AcDbCircle
 10
5893.011356005098
 20
7352.72291220319
 30
0.0
 40
3.0
100
AcDbArc
 50
38.39304401913947
 51
90.0
  0
ARC
  5
19088
330
747D
100
AcDbEntity
  8
部品1
100
AcDbCircle
 10
5907.902964380286
 20
7364.522912203193
 30
0.0
 40
16.0
100
AcDbArc
 50
218.3930440191395
 51
254.0576313943215
  0
LINE
  5
19089
330
747D
100
AcDbEntity
  8
部品1
100
AcDbLine
 10
5889.402964380284
 20
7348.722912203189
 30
0.0
 11
5889.402964380284
 21
7353.72291220319
 31
0.0
  0
ARC
  5
1908A
330
747D
100
AcDbEntity
  8
部品1
 48
0.01
100
AcDbCircle
 10
5891.402964380285
 20
7353.72291220319
 30
0.0
 40
2.0
100
AcDbArc
 50
90.0
 51
180.0
  0
ARC
  5
1908B
330
747D
100
AcDbEntity
  8
部品1
100
AcDbCircle
 10
5915.402964380284
 20
7348.722912203189
 30
0.0
 40
26.0
100
AcDbArc
 50
180.0
 51
199.4712206344713
  0
ARC
  5
1908C
330
747D
100
AcDbEntity
  8
部品1
 48
0.01
100
AcDbCircle
 10
5883.402964380284
 20
7339.222912203192
 30
0.0
 40
0.5
100
AcDbArc
 50
180.0
 51
270.0
  0
LINE
  5
1908D
330
747D
100
AcDbEntity
  8
部品1
 48
0.01
100
AcDbLine
 10
5883.402964380284
 20
7338.722912203192
 30
0.0
 11
5889.947120257568
 21
7338.72291220319
 31
0.0
  0
LINE
  5
1908E
330
747D
100
AcDbEntity
  8
部品1
 48
0.01
100
AcDbLine
 10
5882.902964380284
 20
7340.222912203192
 30
0.0
 11
5882.902964380284
 21
7339.222912203192
 31
0.0
  0
ARC
  5
1908F
330
747D
100
AcDbEntity
  8
部品1
100
AcDbCircle
 10
5889.947120257568
 20
7339.72291220319
 30
0.0
 40
1.0
100
AcDbArc
 50
270.0
 51
19.47122063447127
  0
LINE
  5
19090
330
747D
100
AcDbEntity
  8
細線
100
AcDbLine
 10
5928.402964380292
 20
7358.222912203195
 30
0.0
 11
5887.402964380291
 21
7358.222912203188
 31
0.0
  0
LINE
  5
19091
330
747D
100
AcDbEntity
  8
細線
100
AcDbLine
 10
5887.402964380291
 20
7358.222912203188
 30
0.0
 11
5887.402964380291
 21
7340.222912203168
 31
0.0
  0
LINE
  5
19092
330
747D
100
AcDbEntity
  8
細線
100
AcDbLine
 10
5928.402964380292
 20
7358.222912203195
 30
0.0
 11
5928.402964380292
 21
7340.222912203168
 31
0.0
  0
DIMENSION
  5
19093
330
747D
100
AcDbEntity
  8
寸法
100
AcDbDimension
  2
*D16
 10
5771.902964380291
 20
6810.053747242719
 30
0.0
 11
6114.902964380291
 21
6810.053747242719
 31
0.0
 70
   160
  1
有効開口部間口\P<>
 71
     5
 42
686.0
  3
INABA_S40G
100
AcDbAlignedDimension
 13
6457.902964380291
 23
7337.222912203195
 33
0.0
 14
5771.902964380291
 24
7337.222912203121
 34
0.0
100
AcDbRotatedDimension
1001
ACAD
1000
DSTYLE
1002
{
1002
}
  0
LINE
  5
19094
330
747D
100
AcDbEntity
  8
細線
100
AcDbLine
 10
8296.402964380298
 20
7410.222912203216
 30
0.0
 11
8294.304579918602
 21
7414.722912203214
 31
0.0
  0
LINE
  5
19095
330
747D
100
AcDbEntity
  8
細線
 48
50.0
100
AcDbLine
 10
8389.90296438024
 20
7392.222912203192
 30
0.0
 11
8391.902964380241
 21
7392.222912203192
 31
0.0
  0
LINE
  5
19096
330
747D
100
AcDbEntity
  8
細線
100
AcDbLine
 10
8389.90296438024
 20
7392.222912203192
 30
0.0
 11
8389.90296438024
 21
7410.222912203193
 31
0.0
  0
LINE
  5
19097
330
747D
100
AcDbEntity
  8
細線
100
AcDbLine
 10
8389.90296438024
 20
7410.222912203195
 30
0.0
 11
8296.402964380305
 21
7410.222912203199
 31
0.0
  0
LINE
  5
19098
330
747D
100
AcDbEntity
  8
細線
100
AcDbLine
 10
8226.402964380296
 20
7410.222912203223
 30
0.0
 11
8156.402964380289
 21
7410.222912203223
 31
0.0
  0
LINE
  5
19099
330
747D
100
AcDbEntity
  8
細線
100
AcDbLine
 10
8226.402964380303
 20
7410.222912203234
 30
0.0
 11
8228.734502671073
 21
7415.222912203219
 31
0.0
  0
LINE
  5
1909A
330
747D
100
AcDbEntity
  8
細線
100
AcDbLine
 10
8156.402964380289
 20
7410.222912203223
 30
0.0
 11
8154.3045799186
 21
7414.722912203214
 31
0.0
  0
LINE
  5
1909B
330
747D
100
AcDbEntity
  8
細線
 48
50.0
100
AcDbLine
 10
8391.902964380241
 20
7387.222912203199
 30
0.0
 11
7998.902964380296
 21
7387.222912203199
 31
0.0
  0
LINE
  5
1909C
330
747D
100
AcDbEntity
  8
細線
100
AcDbLine
 10
8086.402964380296
 20
7410.22291220324
 30
0.0
 11
8088.501348841978
 21
7414.722912203214
 31
0.0
  0
LINE
  5
1909D
330
747D
100
AcDbEntity
  8
細線
100
AcDbLine
 10
8086.402964380296
 20
7410.222912203245
 30
0.0
 11
7989.902964380295
 21
7410.222912203252
 31
0.0
  0
LINE
  5
1909E
330
747D
100
AcDbEntity
  8
細線
100
AcDbLine
 10
7989.902964380295
 20
7409.522912203252
 30
0.0
 11
7989.902964380295
 21
7410.222912203252
 31
0.0
  0
ARC
  5
1909F
330
747D
100
AcDbEntity
  8
細線
100
AcDbCircle
 10
7987.902964380295
 20
7409.522912203252
 30
0.0
 40
2.0
100
AcDbArc
 50
270.0
 51
0.0
  0
LINE
  5
190A0
330
747D
100
AcDbEntity
  8
細線
100
AcDbLine
 10
7985.902964380295
 20
7407.522912203254
 30
0.0
 11
7987.902964380295
 21
7407.522912203254
 31
0.0
  0
LINE
  5
190A1
330
747D
100
AcDbEntity
  8
細線
100
AcDbLine
 10
7983.902964380296
 20
7409.522912203252
 30
0.0
 11
7983.902964380296
 21
7410.222912203252
 31
0.0
  0
ARC
  5
190A2
330
747D
100
AcDbEntity
  8
細線
100
AcDbCircle
 10
7985.902964380295
 20
7409.522912203252
 30
0.0
 40
2.0
100
AcDbArc
 50
180.0
 51
270.0
  0
LINE
  5
190A3
330
747D
100
AcDbEntity
  8
細線
100
AcDbLine
 10
7983.902964380296
 20
7410.222912203252
 30
0.0
 11
7977.902964380295
 21
7410.222912203252
 31
0.0
  0
LINE
  5
190A4
330
747D
100
AcDbEntity
  8
細線
100
AcDbLine
 10
7983.902964380288
 20
7397.222912203249
 30
0.0
 11
7983.902964380293
 21
7404.222912203249
 31
0.0
  0
LINE
  5
190A5
330
747D
100
AcDbEntity
  8
細線
100
AcDbLine
 10
7998.902964380296
 20
7404.222912203252
 30
0.0
 11
7983.902964380293
 21
7404.222912203249
 31
0.0
  0
LINE
  5
190A6
330
747D
100
AcDbEntity
  8
細線
100
AcDbLine
 10
7998.902964380296
 20
7374.222912203252
 30
0.0
 11
7998.902964380303
 21
7404.222912203252
 31
0.0
  0
LINE
  5
190A7
330
747D
100
AcDbEntity
  8
細線
100
AcDbLine
 10
7957.902964380297
 20
7402.222912203253
 30
0.0
 11
7957.902964380297
 21
7438.222912203248
 31
0.0
  0
LINE
  5
190A8
330
747D
100
AcDbEntity
  8
細線
100
AcDbLine
 10
7977.902964380295
 20
7402.222912203253
 30
0.0
 11
7957.902964380297
 21
7402.222912203253
 31
0.0
  0
LINE
  5
190A9
330
747D
100
AcDbEntity
  8
細線
100
AcDbLine
 10
7977.902964380295
 20
7402.222912203253
 30
0.0
 11
7977.902964380295
 21
7410.222912203252
 31
0.0
  0
LINE
  5
190AA
330
747D
100
AcDbEntity
  8
細線
100
AcDbLine
 10
7968.90296438048
 20
7438.222912203196
 30
0.0
 11
7957.902964380297
 21
7438.222912203196
 31
0.0
  0
LINE
  5
190AB
330
747D
100
AcDbEntity
  8
細線
100
AcDbLine
 10
7998.902964380296
 20
7374.222912203252
 30
0.0
 11
7880.402964380292
 21
7374.222912203252
 31
0.0
  0
LINE
  5
190AC
330
747D
100
AcDbEntity
  8
細線
100
AcDbLine
 10
7880.402964380285
 20
7374.222912203267
 30
0.0
 11
7878.071426089518
 21
7379.222912203252
 31
0.0
  0
LINE
  5
190AD
330
747D
100
AcDbEntity
  8
細線
100
AcDbLine
 10
7878.071426089518
 20
7379.222912203252
 30
0.0
 11
7812.734502671045
 21
7379.222912203241
 31
0.0
  0
ARC
  5
190AE
330
747D
100
AcDbEntity
  8
細線
100
AcDbCircle
 10
7775.402970880276
 20
7399.722912203256
 30
0.0
 40
6.0
100
AcDbArc
 50
204.6243183522997
 51
335.3756816477003
  0
LINE
  5
190AF
330
747D
100
AcDbEntity
  8
細線
100
AcDbLine
 10
7810.402964380275
 20
7374.222912203252
 30
0.0
 11
7740.402964380281
 21
7374.222912203252
 31
0.0
  0
LINE
  5
190B0
330
747D
100
AcDbEntity
  8
細線
100
AcDbLine
 10
7810.402964380293
 20
7374.222912203285
 30
0.0
 11
7812.734502671059
 21
7379.222912203271
 31
0.0
  0
LINE
  5
190B1
330
747D
100
AcDbEntity
  8
細線
100
AcDbLine
 10
7805.40296438031
 20
7374.222912203329
 30
0.0
 11
7797.902964380317
 21
7397.222912203256
 31
0.0
  0
LINE
  5
190B2
330
747D
100
AcDbEntity
  8
細線
100
AcDbLine
 10
7141.902964380292
 20
7344.222912203121
 30
0.0
 11
7141.902964380292
 21
7340.222912203168
 31
0.0
  0
LINE
  5
190B3
330
747D
100
AcDbEntity
  8
細線
100
AcDbLine
 10
7156.902964380292
 20
7370.222912203169
 30
0.0
 11
7141.902964380292
 21
7370.222912203169
 31
0.0
  0
LINE
  5
190B4
330
747D
100
AcDbEntity
  8
細線
100
AcDbLine
 10
7156.902964380292
 20
7370.222912203169
 30
0.0
 11
7156.902964380292
 21
7363.22291220317
 31
0.0
  0
LINE
  5
190B5
330
747D
100
AcDbEntity
  8
細線
100
AcDbLine
 10
7422.902964380293
 20
7340.222912203213
 30
0.0
 11
7132.890657731239
 21
7340.222912203168
 31
0.0
  0
LINE
  5
190B6
330
747D
100
AcDbEntity
  8
部品1
 48
0.01
100
AcDbLine
 10
7261.402964380284
 20
7355.72291220319
 30
0.0
 11
7263.011356005098
 21
7355.72291220319
 31
0.0
  0
ARC
  5
190B7
330
747D
100
AcDbEntity
  8
部品1
100
AcDbCircle
 10
7263.011356005098
 20
7352.72291220319
 30
0.0
 40
3.0
100
AcDbArc
 50
38.39304401913947
 51
90.0
  0
ARC
  5
190B8
330
747D
100
AcDbEntity
  8
部品1
100
AcDbCircle
 10
7277.902964380285
 20
7364.522912203193
 30
0.0
 40
16.0
100
AcDbArc
 50
218.3930440191395
 51
254.0576313943215
  0
LINE
  5
190B9
330
747D
100
AcDbEntity
  8
部品1
100
AcDbLine
 10
7259.402964380284
 20
7348.722912203189
 30
0.0
 11
7259.402964380284
 21
7353.72291220319
 31
0.0
  0
ARC
  5
190BA
330
747D
100
AcDbEntity
  8
部品1
 48
0.01
100
AcDbCircle
 10
7261.402964380284
 20
7353.72291220319
 30
0.0
 40
2.0
100
AcDbArc
 50
90.0
 51
180.0
  0
ARC
  5
190BB
330
747D
100
AcDbEntity
  8
部品1
100
AcDbCircle
 10
7285.402964380285
 20
7348.722912203189
 30
0.0
 40
26.0
100
AcDbArc
 50
180.0
 51
199.4712206344713
  0
ARC
  5
190BC
330
747D
100
AcDbEntity
  8
部品1
 48
0.01
100
AcDbCircle
 10
7253.402964380284
 20
7339.222912203192
 30
0.0
 40
0.5
100
AcDbArc
 50
180.0
 51
270.0
  0
LINE
  5
190BD
330
747D
100
AcDbEntity
  8
部品1
 48
0.01
100
AcDbLine
 10
7253.402964380284
 20
7338.722912203192
 30
0.0
 11
7259.947120257568
 21
7338.72291220319
 31
0.0
  0
LINE
  5
190BE
330
747D
100
AcDbEntity
  8
部品1
 48
0.01
100
AcDbLine
 10
7252.902964380284
 20
7340.222912203192
 30
0.0
 11
7252.902964380284
 21
7339.222912203192
 31
0.0
  0
ARC
  5
190BF
330
747D
100
AcDbEntity
  8
部品1
100
AcDbCircle
 10
7259.947120257568
 20
7339.72291220319
 30
0.0
 40
1.0
100
AcDbArc
 50
270.0
 51
19.47122063447127
  0
LINE
  5
190C0
330
747D
100
AcDbEntity
  8
細線
100
AcDbLine
 10
7298.402964380293
 20
7358.222912203195
 30
0.0
 11
7257.402964380293
 21
7358.222912203188
 31
0.0
  0
LINE
  5
190C1
330
747D
100
AcDbEntity
  8
細線
100
AcDbLine
 10
7257.402964380293
 20
7358.222912203188
 30
0.0
 11
7257.402964380293
 21
7340.222912203168
 31
0.0
  0
LINE
  5
190C2
330
747D
100
AcDbEntity
  8
細線
 48
50.0
100
AcDbLine
 10
8391.902964380241
 20
7353.222912203197
 30
0.0
 11
7592.902964380295
 21
7353.222912203197
 31
0.0
  0
LINE
  5
190C3
330
747D
100
AcDbEntity
  8
細線
100
AcDbLine
 10
7983.902964380288
 20
7397.222912203277
 30
0.0
 11
7566.902964380293
 21
7397.222912203313
 31
0.0
  0
LINE
  5
190C4
330
747D
100
AcDbEntity
  8
細線
100
AcDbLine
 10
7577.902964380292
 20
7363.222912203231
 30
0.0
 11
7156.902964380292
 21
7363.22291220317
 31
0.0
  0
LINE
  5
190C5
330
747D
100
AcDbEntity
  8
細線
 48
50.0
100
AcDbLine
 10
7551.902964380288
 20
7387.222912203206
 30
0.0
 11
7141.902964380285
 21
7387.222912203139
 31
0.0
  0
LINE
  5
190C6
330
747D
100
AcDbEntity
  8
寸法
 48
50.0
100
AcDbLine
 10
7365.841749783626
 20
7234.328553331367
 30
0.0
 11
7314.435741873523
 21
7234.328553331367
 31
0.0
  0
LINE
  5
190C7
330
747D
100
AcDbEntity
  8
寸法
 48
50.0
100
AcDbLine
 10
7314.435741873523
 20
7234.328553331367
 30
0.0
 11
7314.435741873523
 21
7265.638711983534
 31
0.0
  0
LINE
  5
190C8
330
747D
100
AcDbEntity
  8
寸法
 48
50.0
100
AcDbLine
 10
7314.435741873523
 20
7265.638711983534
 30
0.0
 11
7284.674409882099
 21
7265.638711983534
 31
0.0
  0
LINE
  5
190C9
330
747D
100
AcDbEntity
  8
寸法
 48
50.0
100
AcDbLine
 10
7284.674409882099
 20
7265.638711983534
 30
0.0
 11
7340.138745828574
 21
7303.218162912145
 31
0.0
  0
LINE
  5
190CA
330
747D
100
AcDbEntity
  8
寸法
 48
50.0
100
AcDbLine
 10
7395.60308177505
 20
7265.638711983534
 30
0.0
 11
7340.138745828577
 21
7303.218162912145
 31
0.0
  0
LINE
  5
190CB
330
747D
100
AcDbEntity
  8
寸法
 48
50.0
100
AcDbLine
 10
7365.841749783626
 20
7265.638711983534
 30
0.0
 11
7395.60308177505
 21
7265.638711983534
 31
0.0
  0
LINE
  5
190CC
330
747D
100
AcDbEntity
  8
寸法
 48
50.0
100
AcDbLine
 10
7365.841749783626
 20
7234.328553331367
 30
0.0
 11
7365.841749783626
 21
7265.638711983534
 31
0.0
  0
LINE
  5
190CD
330
747D
100
AcDbEntity
  8
寸法
 48
50.0
100
AcDbLine
 10
7314.435741873523
 20
7234.328553331367
 30
0.0
 11
7365.841749783626
 21
7234.328553331367
 31
0.0
  0
LINE
  5
190CE
330
747D
100
AcDbEntity
  8
寸法
 48
50.0
100
AcDbLine
 10
7645.007284060482
 20
7291.474144086191
 30
0.0
 11
7645.007284060482
 21
7237.8105095044
 31
0.0
  0
LINE
  5
190CF
330
747D
100
AcDbEntity
  8
寸法
 48
50.0
100
AcDbLine
 10
7734.291502655906
 20
7267.550509816704
 30
0.0
 11
7645.007284060482
 21
7291.474144086191
 31
0.0
  0
LINE
  5
190D0
330
747D
100
AcDbEntity
  8
寸法
 48
50.0
100
AcDbLine
 10
7515.139562480179
 20
7267.550509816704
 30
0.0
 11
7734.291502655906
 21
7267.550509816704
 31
0.0
  0
LINE
  5
190D1
330
747D
100
AcDbEntity
  8
細線
100
AcDbLine
 10
7566.902964380293
 20
7404.222912203166
 30
0.0
 11
7551.902964380291
 21
7404.222912203161
 31
0.0
  0
LINE
  5
190D2
330
747D
100
AcDbEntity
  8
細線
100
AcDbLine
 10
7349.44762704066
 20
7340.22291220335
 30
0.0
 11
7356.947627040668
 21
7363.222912203271
 31
0.0
  0
LINE
  5
190D3
330
747D
100
AcDbEntity
  8
細線
100
AcDbLine
 10
7409.447627040662
 20
7340.222912203339
 30
0.0
 11
7401.947627040662
 21
7363.222912203271
 31
0.0
  0
ARC
  5
190D4
330
747D
100
AcDbEntity
  8
細線
100
AcDbCircle
 10
7379.447633540635
 20
7365.722912203242
 30
0.0
 40
6.0
100
AcDbArc
 50
204.6243183522997
 51
335.3756816477003
  0
LINE
  5
190D5
330
747D
100
AcDbEntity
  8
細線
100
AcDbLine
 10
7566.902964380293
 20
7397.222912203162
 30
0.0
 11
7566.902964380293
 21
7404.222912203166
 31
0.0
  0
ARC
  5
190D6
330
747D
100
AcDbEntity
  8
細線
100
AcDbCircle
 10
7579.902964380299
 20
7373.522912203161
 30
0.0
 40
2.0
100
AcDbArc
 50
180.0
 51
270.0
  0
LINE
  5
190D7
330
747D
100
AcDbEntity
  8
細線
100
AcDbLine
 10
7577.902964380299
 20
7373.522912203161
 30
0.0
 11
7577.902964380299
 21
7374.222912203162
 31
0.0
  0
LINE
  5
190D8
330
747D
100
AcDbEntity
  8
細線
100
AcDbLine
 10
7579.902964380299
 20
7371.522912203161
 30
0.0
 11
7581.902964380299
 21
7371.522912203161
 31
0.0
  0
ARC
  5
190D9
330
747D
100
AcDbEntity
  8
細線
100
AcDbCircle
 10
7581.902964380299
 20
7373.522912203161
 30
0.0
 40
2.0
100
AcDbArc
 50
270.0
 51
0.0
  0
LINE
  5
190DA
330
747D
100
AcDbEntity
  8
細線
100
AcDbLine
 10
7583.902964380299
 20
7373.522912203161
 30
0.0
 11
7583.902964380299
 21
7374.222912203162
 31
0.0
  0
LINE
  5
190DB
330
747D
100
AcDbEntity
  8
細線
100
AcDbLine
 10
7577.902964380273
 20
7374.222912203162
 30
0.0
 11
7571.902964380273
 21
7374.222912203162
 31
0.0
  0
LINE
  5
190DC
330
747D
100
AcDbEntity
  8
細線
100
AcDbLine
 10
7577.902964380292
 20
7363.222912203166
 30
0.0
 11
7577.902964380292
 21
7370.222912203167
 31
0.0
  0
LINE
  5
190DD
330
747D
100
AcDbEntity
  8
細線
100
AcDbLine
 10
7592.902964380299
 20
7370.222912203169
 30
0.0
 11
7577.902964380292
 21
7370.222912203167
 31
0.0
  0
LINE
  5
190DE
330
747D
100
AcDbEntity
  8
細線
100
AcDbLine
 10
7592.902964380292
 20
7340.222912203168
 30
0.0
 11
7592.902964380299
 21
7370.222912203169
 31
0.0
  0
LINE
  5
190DF
330
747D
100
AcDbEntity
  8
細線
100
AcDbLine
 10
7551.902964380284
 20
7370.222912203153
 30
0.0
 11
7551.902964380295
 21
7404.222912203161
 31
0.0
  0
LINE
  5
190E0
330
747D
100
AcDbEntity
  8
細線
100
AcDbLine
 10
7571.902964380273
 20
7370.222912203153
 30
0.0
 11
7551.902964380284
 21
7370.222912203153
 31
0.0
  0
LINE
  5
190E1
330
747D
100
AcDbEntity
  8
細線
100
AcDbLine
 10
7571.902964380273
 20
7370.222912203153
 30
0.0
 11
7571.902964380273
 21
7374.222912203157
 31
0.0
  0
LINE
  5
190E2
330
747D
100
AcDbEntity
  8
細線
100
AcDbLine
 10
7670.402964380286
 20
7374.222912203257
 30
0.0
 11
7583.902964380303
 21
7374.222912203257
 31
0.0
  0
LINE
  5
190E3
330
747D
100
AcDbEntity
  8
細線
100
AcDbLine
 10
7738.071426089518
 20
7379.222912203231
 30
0.0
 11
7672.734502671042
 21
7379.22291220322
 31
0.0
  0
LINE
  5
190E4
330
747D
100
AcDbEntity
  8
細線
100
AcDbLine
 10
7740.402964380286
 20
7374.222912203245
 30
0.0
 11
7738.071426089518
 21
7379.222912203231
 31
0.0
  0
LINE
  5
190E5
330
747D
100
AcDbEntity
  8
細線
100
AcDbLine
 10
7670.402964380288
 20
7374.222912203264
 30
0.0
 11
7672.734502671055
 21
7379.222912203248
 31
0.0
  0
ARC
  5
190E6
330
747D
100
AcDbEntity
  8
部品1
 48
0.01
100
AcDbCircle
 10
7302.402964380284
 20
7339.222912203192
 30
0.0
 40
0.5
100
AcDbArc
 50
270.0
 51
0.0
  0
LINE
  5
190E7
330
747D
100
AcDbEntity
  8
部品1
 48
0.01
100
AcDbLine
 10
7302.902964380286
 20
7340.222912203192
 30
0.0
 11
7302.902964380286
 21
7339.222912203192
 31
0.0
  0
LINE
  5
190E8
330
747D
100
AcDbEntity
  8
部品1
 48
0.01
100
AcDbLine
 10
7302.902964380286
 20
7340.222912203192
 30
0.0
 11
7302.902964380286
 21
7339.222912203192
 31
0.0
  0
LINE
  5
190E9
330
747D
100
AcDbEntity
  8
部品1
 48
0.01
100
AcDbLine
 10
7302.402964380284
 20
7338.722912203192
 30
0.0
 11
7295.790458950225
 21
7338.72291220319
 31
0.0
  0
ARC
  5
190EA
330
747D
100
AcDbEntity
  8
部品1
100
AcDbCircle
 10
7295.858808502998
 20
7339.72291220319
 30
0.0
 40
1.0
100
AcDbArc
 50
160.5287793655287
 51
270.0
  0
ARC
  5
190EB
330
747D
100
AcDbEntity
  8
部品1
100
AcDbCircle
 10
7270.402964380284
 20
7348.722912203189
 30
0.0
 40
26.0
100
AcDbArc
 50
340.5287793655287
 51
0.0
  0
LINE
  5
190EC
330
747D
100
AcDbEntity
  8
部品1
100
AcDbLine
 10
7296.402964380284
 20
7348.722912203189
 30
0.0
 11
7296.402964380284
 21
7353.72291220319
 31
0.0
  0
ARC
  5
190ED
330
747D
100
AcDbEntity
  8
部品1
 48
0.01
100
AcDbCircle
 10
7294.402964380285
 20
7353.72291220319
 30
0.0
 40
2.0
100
AcDbArc
 50
0.0
 51
90.0
  0
ARC
  5
190EE
330
747D
100
AcDbEntity
  8
部品1
100
AcDbCircle
 10
7292.794572755474
 20
7352.72291220319
 30
0.0
 40
3.0
100
AcDbArc
 50
90.0
 51
141.6069559808605
  0
LINE
  5
190EF
330
747D
100
AcDbEntity
  8
部品1
 48
0.01
100
AcDbLine
 10
7294.402964380285
 20
7355.72291220319
 30
0.0
 11
7292.794572755474
 21
7355.72291220319
 31
0.0
  0
ARC
  5
190F0
330
747D
100
AcDbEntity
  8
部品1
100
AcDbCircle
 10
7274.332250166011
 20
7352.022912203193
 30
0.0
 40
3.0
100
AcDbArc
 50
254.0576313943215
 51
270.0
  0
ARC
  5
190F1
330
747D
100
AcDbEntity
  8
部品1
100
AcDbCircle
 10
7281.473678594555
 20
7352.022912203193
 30
0.0
 40
3.0
100
AcDbArc
 50
270.0
 51
285.9423686056786
  0
LINE
  5
190F2
330
747D
100
AcDbEntity
  8
部品1
100
AcDbLine
 10
7281.473678594555
 20
7349.022912203193
 30
0.0
 11
7274.332250166011
 21
7349.022912203193
 31
0.0
  0
ARC
  5
190F3
330
747D
100
AcDbEntity
  8
部品1
100
AcDbCircle
 10
7277.902964380285
 20
7364.522912203193
 30
0.0
 40
16.0
100
AcDbArc
 50
285.9423686056786
 51
321.6069559808606
  0
LINE
  5
190F4
330
747D
100
AcDbEntity
  8
細線
100
AcDbLine
 10
7298.402964380293
 20
7358.222912203195
 30
0.0
 11
7298.402964380293
 21
7340.222912203168
 31
0.0
  0
LINE
  5
190F5
330
747D
100
AcDbEntity
  8
細線
100
AcDbLine
 10
7422.902964380293
 20
7340.222912203214
 30
0.0
 11
7425.234502671059
 21
7345.222912203199
 31
0.0
  0
LINE
  5
190F6
330
747D
100
AcDbEntity
  8
細線
100
AcDbLine
 10
7492.902964380284
 20
7340.222912203195
 30
0.0
 11
7490.571426089518
 21
7345.222912203182
 31
0.0
  0
LINE
  5
190F7
330
747D
100
AcDbEntity
  8
細線
100
AcDbLine
 10
7490.571426089518
 20
7345.222912203182
 30
0.0
 11
7425.234502671044
 21
7345.222912203171
 31
0.0
  0
LINE
  5
190F8
330
747D
100
AcDbEntity
  8
細線
100
AcDbLine
 10
7745.40296438031
 20
7374.22291220334
 30
0.0
 11
7752.902964380317
 21
7397.222912203256
 31
0.0
  0
LINE
  5
190F9
330
747D
100
AcDbEntity
  8
寸法
 48
50.0
100
AcDbLine
 10
7365.841749783626
 20
7234.328553331367
 30
0.0
 11
7314.435741873523
 21
7234.328553331367
 31
0.0
  0
LINE
  5
190FA
330
747D
100
AcDbEntity
  8
寸法
 48
50.0
100
AcDbLine
 10
7314.435741873523
 20
7234.328553331367
 30
0.0
 11
7314.435741873523
 21
7265.638711983534
 31
0.0
  0
LINE
  5
190FB
330
747D
100
AcDbEntity
  8
寸法
 48
50.0
100
AcDbLine
 10
7314.435741873523
 20
7265.638711983534
 30
0.0
 11
7284.674409882099
 21
7265.638711983534
 31
0.0
  0
LINE
  5
190FC
330
747D
100
AcDbEntity
  8
寸法
 48
50.0
100
AcDbLine
 10
7284.674409882099
 20
7265.638711983534
 30
0.0
 11
7340.138745828574
 21
7303.218162912145
 31
0.0
  0
LINE
  5
190FD
330
747D
100
AcDbEntity
  8
寸法
 48
50.0
100
AcDbLine
 10
7395.60308177505
 20
7265.638711983534
 30
0.0
 11
7340.138745828577
 21
7303.218162912145
 31
0.0
  0
LINE
  5
190FE
330
747D
100
AcDbEntity
  8
寸法
 48
50.0
100
AcDbLine
 10
7365.841749783626
 20
7265.638711983534
 30
0.0
 11
7395.60308177505
 21
7265.638711983534
 31
0.0
  0
LINE
  5
190FF
330
747D
100
AcDbEntity
  8
寸法
 48
50.0
100
AcDbLine
 10
7365.841749783626
 20
7234.328553331367
 30
0.0
 11
7365.841749783626
 21
7265.638711983534
 31
0.0
  0
LINE
  5
19100
330
747D
100
AcDbEntity
  8
寸法
 48
50.0
100
AcDbLine
 10
7314.435741873523
 20
7234.328553331367
 30
0.0
 11
7365.841749783626
 21
7234.328553331367
 31
0.0
  0
LINE
  5
19101
330
747D
100
AcDbEntity
  8
寸法
 48
50.0
100
AcDbLine
 10
7645.007284060482
 20
7291.474144086191
 30
0.0
 11
7645.007284060482
 21
7237.8105095044
 31
0.0
  0
LINE
  5
19102
330
747D
100
AcDbEntity
  8
寸法
 48
50.0
100
AcDbLine
 10
7734.291502655906
 20
7267.550509816704
 30
0.0
 11
7645.007284060482
 21
7291.474144086191
 31
0.0
  0
LINE
  5
19103
330
747D
100
AcDbEntity
  8
寸法
 48
50.0
100
AcDbLine
 10
7515.139562480179
 20
7267.550509816704
 30
0.0
 11
7734.291502655906
 21
7267.550509816704
 31
0.0
  0
LINE
  5
19104
330
747D
100
AcDbEntity
  8
細線
100
AcDbLine
 10
7592.902964380292
 20
7340.222912203168
 30
0.0
 11
7492.902964380284
 21
7340.222912203156
 31
0.0
  0
DIMENSION
  5
19105
330
747D
100
AcDbEntity
  8
寸法
100
AcDbDimension
  2
*D17
 10
7141.902964380292
 20
6810.053747242719
 30
0.0
 11
7484.902964380292
 21
6810.053747242719
 31
0.0
 70
   160
  1
有効開口部間口\P<>
 71
     5
 42
686.0
  3
INABA_S40G
100
AcDbAlignedDimension
 13
7827.902964380292
 23
7337.222912203195
 33
0.0
 14
7141.902964380292
 24
7337.222912203121
 34
0.0
100
AcDbRotatedDimension
1001
ACAD
1000
DSTYLE
1002
{
1002
}
  0
LINE
  5
19106
330
747D
100
AcDbEntity
  8
部品1
100
AcDbLine
 10
6778.638297494501
 20
6357.097534834225
 30
0.0
 11
6015.167631266061
 21
6357.097534834225
 31
0.0
  0
LINE
  5
19107
330
747D
100
AcDbEntity
  8
部品1
100
AcDbLine
 10
6778.638297494501
 20
6117.205213288693
 30
0.0
 11
6778.638297494501
 21
6357.097534834225
 31
0.0
  0
LINE
  5
19108
330
747D
100
AcDbEntity
  8
部品1
100
AcDbLine
 10
6015.167631266061
 20
6117.205213288693
 30
0.0
 11
6778.638297494501
 21
6117.205213288693
 31
0.0
  0
LINE
  5
19109
330
747D
100
AcDbEntity
  8
部品1
100
AcDbLine
 10
6015.167631266061
 20
6357.097534834225
 30
0.0
 11
6015.167631266061
 21
6117.205213288693
 31
0.0
  0
LINE
  5
1910A
330
747D
100
AcDbEntity
  8
部品1
 48
50.0
100
AcDbLine
 10
7109.902964380264
 20
9519.222912203266
 30
0.0
 11
7138.402964380268
 21
9490.722912203279
 31
0.0
  0
LINE
  5
1910B
330
747D
100
AcDbEntity
  8
部品1
 48
50.0
100
AcDbLine
 10
5739.902964380264
 20
9519.222912203142
 30
0.0
 11
5768.402964380264
 21
9490.722912203279
 31
0.0
  0
LINE
  5
1910C
330
747D
100
AcDbEntity
  8
部品1
 48
50.0
100
AcDbLine
 10
4369.902964380297
 20
9519.222912203131
 30
0.0
 11
4398.402964380266
 21
9490.722912203279
 31
0.0
  0
LINE
  5
1910D
330
747D
100
AcDbEntity
  8
部品1
100
AcDbLine
 10
4369.902964380269
 20
9072.22291220313
 30
0.0
 11
4341.902964380272
 21
9072.22291220313
 31
0.0
  0
LINE
  5
1910E
330
747D
100
AcDbEntity
  8
部品1
100
AcDbLine
 10
5711.902964380238
 20
9072.222912203161
 30
0.0
 11
5683.902964380237
 21
9072.222912203161
 31
0.0
  0
LINE
  5
1910F
330
747D
100
AcDbEntity
  8
部品1
100
AcDbLine
 10
7081.90296438024
 20
9072.222912203161
 30
0.0
 11
7053.902964380238
 21
9072.222912203161
 31
0.0
  0
LINE
  5
19110
330
747D
100
AcDbEntity
  8
部品1
100
AcDbLine
 10
8423.902964380296
 20
9072.222912203264
 30
0.0
 11
8451.902964380296
 21
9072.222912203264
 31
0.0
  0
LINE
  5
19111
330
747D
100
AcDbEntity
  8
細線
 48
50.0
100
AcDbLine
 10
5678.902964380502
 20
8245.472912203302
 30
0.0
 11
5228.902964380296
 21
9518.472912203288
 31
0.0
  0
LINE
  5
19112
330
747D
100
AcDbEntity
  8
細線
 48
50.0
100
AcDbLine
 10
5228.902964380504
 20
8245.472912203302
 30
0.0
 11
5678.902964380299
 21
9518.472912203291
 31
0.0
  0
LINE
  5
19113
330
747D
100
AcDbEntity
  8
破線
 48
10.0
100
AcDbLine
 10
7161.902964380271
 20
8787.222912203226
 30
0.0
 11
7161.90296438028
 21
8172.222912203228
 31
0.0
  0
LINE
  5
19114
330
747D
100
AcDbEntity
  8
部品1
100
AcDbLine
 10
8423.902964380296
 20
8652.222912203262
 30
0.0
 11
8451.902964380296
 21
8652.222912203262
 31
0.0
  0
LINE
  5
19115
330
747D
100
AcDbEntity
  8
部品1
100
AcDbLine
 10
7081.90296438024
 20
8652.222912203164
 30
0.0
 11
7053.902964380238
 21
8652.222912203164
 31
0.0
  0
LINE
  5
19116
330
747D
100
AcDbEntity
  8
部品1
100
AcDbLine
 10
5711.902964380238
 20
8652.222912203164
 30
0.0
 11
5683.902964380237
 21
8652.222912203164
 31
0.0
  0
LINE
  5
19117
330
747D
100
AcDbEntity
  8
部品1
100
AcDbLine
 10
4369.902964380269
 20
8652.222912203127
 30
0.0
 11
4341.902964380272
 21
8652.222912203127
 31
0.0
  0
LINE
  5
19118
330
747D
100
AcDbEntity
  8
部品1
100
AcDbLine
 10
5228.902964380473
 20
8591.73283771401
 30
0.0
 11
5228.902964380504
 21
8245.472912203302
 31
0.0
  0
LINE
  5
19119
330
747D
100
AcDbEntity
  8
部品1
100
AcDbLine
 10
5683.902964380243
 20
8219.722912203256
 30
0.0
 11
5683.902964380256
 21
7337.22291220315
 31
0.0
  0
LINE
  5
1911A
330
747D
100
AcDbEntity
  8
部品1
100
AcDbLine
 10
7053.902964380242
 20
8219.722912203256
 30
0.0
 11
7053.902964380256
 21
7337.22291220315
 31
0.0
  0
LINE
  5
1911B
330
747D
100
AcDbEntity
  8
細線
 48
50.0
100
AcDbLine
 10
5231.547224332173
 20
7419.400314251131
 30
0.0
 11
5678.902964380299
 21
8210.72291220328
 31
0.0
  0
LINE
  5
1911C
330
747D
100
AcDbEntity
  8
部品1
100
AcDbLine
 10
5678.90296438041
 20
8210.72291220328
 30
0.0
 11
5678.902964380507
 21
7414.72291220329
 31
0.0
  0
LINE
  5
1911D
330
747D
100
AcDbEntity
  8
部品1
100
AcDbLine
 10
5695.902964380273
 20
8203.222912203255
 30
0.0
 11
5683.902964380275
 21
8203.222912203255
 31
0.0
  0
LINE
  5
1911E
330
747D
100
AcDbEntity
  8
部品1
100
AcDbLine
 10
5653.902964380271
 20
8244.722912203256
 30
0.0
 11
5653.902964380274
 21
8219.722912203256
 31
0.0
  0
LINE
  5
1911F
330
747D
100
AcDbEntity
  8
部品1
100
AcDbLine
 10
5695.902964380273
 20
8261.222912203255
 30
0.0
 11
5683.902964380275
 21
8261.222912203255
 31
0.0
  0
LINE
  5
19120
330
747D
100
AcDbEntity
  8
細線
 48
50.0
100
AcDbLine
 10
5678.902964380502
 20
7414.72291220329
 30
0.0
 11
5228.902964380299
 21
8210.722912203276
 31
0.0
  0
LINE
  5
19121
330
747D
100
AcDbEntity
  8
部品1
100
AcDbLine
 10
5228.902964380299
 20
8210.722912203276
 30
0.0
 11
5228.902964380502
 21
7434.396657641395
 31
0.0
  0
LINE
  5
19122
330
747D
100
AcDbEntity
  8
部品1
100
AcDbLine
 10
5231.902964380277
 20
8244.722912203256
 30
0.0
 11
5231.902964380277
 21
8219.722912203256
 31
0.0
  0
LINE
  5
19123
330
747D
100
AcDbEntity
  8
部品1
 48
50.0
100
AcDbLine
 10
5678.902964380295
 20
8210.72291220328
 30
0.0
 11
5228.902964380299
 21
8210.722912203276
 31
0.0
  0
LINE
  5
19124
330
747D
100
AcDbEntity
  8
部品1
100
AcDbLine
 10
5678.902964380388
 20
8245.472912203288
 30
0.0
 11
5228.902964380393
 21
8245.472912203288
 31
0.0
  0
LINE
  5
19125
330
747D
100
AcDbEntity
  8
部品1
 48
50.0
100
AcDbLine
 10
5683.902964380282
 20
8244.722912203256
 30
0.0
 11
5231.902964380277
 21
8244.722912203256
 31
0.0
  0
LINE
  5
19126
330
747D
100
AcDbEntity
  8
部品1
 48
50.0
100
AcDbLine
 10
5683.902964380276
 20
8219.722912203256
 30
0.0
 11
5231.902964380277
 21
8219.722912203256
 31
0.0
  0
LINE
  5
19127
330
747D
100
AcDbEntity
  8
部品1
100
AcDbLine
 10
5228.902964380296
 20
9518.472912203288
 30
0.0
 11
5228.902964380459
 21
8631.943408417155
 31
0.0
  0
LINE
  5
19128
330
747D
100
AcDbEntity
  8
部品1
 48
50.0
100
AcDbLine
 10
5678.902964380291
 20
9518.472912203288
 30
0.0
 11
5228.902964380293
 21
9518.472912203288
 31
0.0
  0
LINE
  5
19129
330
747D
100
AcDbEntity
  8
部品1
100
AcDbLine
 10
5678.902964380299
 20
9518.472912203291
 30
0.0
 11
5678.902964380403
 21
8245.472912203487
 31
0.0
  0
LINE
  5
1912A
330
747D
100
AcDbEntity
  8
部品1
100
AcDbLine
 10
7048.902964380393
 20
7414.722912203277
 30
0.0
 11
6598.902964380393
 21
7414.722912203277
 31
0.0
  0
LINE
  5
1912B
330
747D
100
AcDbEntity
  8
部品1
100
AcDbLine
 10
7048.902964380407
 20
8210.72291220328
 30
0.0
 11
7048.902964380507
 21
7414.72291220329
 31
0.0
  0
LINE
  5
1912C
330
747D
100
AcDbEntity
  8
部品1
100
AcDbLine
 10
7065.902964380274
 20
8206.222912203255
 30
0.0
 11
7053.902964380275
 21
8206.222912203255
 31
0.0
  0
LINE
  5
1912D
330
747D
100
AcDbEntity
  8
部品1
100
AcDbLine
 10
7023.902964380271
 20
8244.722912203256
 30
0.0
 11
7023.902964380273
 21
8219.722912203256
 31
0.0
  0
LINE
  5
1912E
330
747D
100
AcDbEntity
  8
部品1
100
AcDbLine
 10
7065.902964380274
 20
8258.222912203256
 30
0.0
 11
7053.902964380275
 21
8258.222912203256
 31
0.0
  0
LINE
  5
1912F
330
747D
100
AcDbEntity
  8
部品1
100
AcDbLine
 10
7048.902964380296
 20
9518.472912203291
 30
0.0
 11
7048.902964380404
 21
8245.472912203487
 31
0.0
  0
LINE
  5
19130
330
747D
100
AcDbEntity
  8
部品1
 48
50.0
100
AcDbLine
 10
7048.902964380292
 20
9518.472912203288
 30
0.0
 11
6598.902964380293
 21
9518.472912203288
 31
0.0
  0
LINE
  5
19131
330
747D
100
AcDbEntity
  8
部品1
100
AcDbLine
 10
6601.902964380278
 20
8244.722912203256
 30
0.0
 11
6601.902964380278
 21
8219.722912203256
 31
0.0
  0
LINE
  5
19132
330
747D
100
AcDbEntity
  8
部品1
100
AcDbLine
 10
6598.902964380299
 20
8210.722912203276
 30
0.0
 11
6598.902964380506
 21
7414.72291220329
 31
0.0
  0
LINE
  5
19133
330
747D
100
AcDbEntity
  8
部品1
100
AcDbLine
 10
6598.902964380295
 20
9518.472912203288
 30
0.0
 11
6598.902964380503
 21
8245.472912203302
 31
0.0
  0
LINE
  5
19134
330
747D
100
AcDbEntity
  8
部品1
 48
50.0
100
AcDbLine
 10
7053.902964380277
 20
8219.722912203256
 30
0.0
 11
6601.902964380278
 21
8219.722912203256
 31
0.0
  0
LINE
  5
19135
330
747D
100
AcDbEntity
  8
部品1
 48
50.0
100
AcDbLine
 10
7053.902964380282
 20
8244.722912203256
 30
0.0
 11
6601.902964380278
 21
8244.722912203256
 31
0.0
  0
LINE
  5
19136
330
747D
100
AcDbEntity
  8
細線
 48
50.0
100
AcDbLine
 10
7048.902964380502
 20
8245.472912203302
 30
0.0
 11
6598.902964380295
 21
9518.472912203288
 31
0.0
  0
LINE
  5
19137
330
747D
100
AcDbEntity
  8
部品1
100
AcDbLine
 10
7048.902964380388
 20
8245.472912203288
 30
0.0
 11
6598.902964380393
 21
8245.472912203288
 31
0.0
  0
LINE
  5
19138
330
747D
100
AcDbEntity
  8
部品1
 48
50.0
100
AcDbLine
 10
7048.902964380295
 20
8210.72291220328
 30
0.0
 11
6598.902964380299
 21
8210.722912203276
 31
0.0
  0
LINE
  5
19139
330
747D
100
AcDbEntity
  8
細線
 48
50.0
100
AcDbLine
 10
6598.902964380506
 20
7414.72291220329
 30
0.0
 11
7048.902964380296
 21
8210.72291220328
 31
0.0
  0
LINE
  5
1913A
330
747D
100
AcDbEntity
  8
細線
 48
50.0
100
AcDbLine
 10
6598.902964380503
 20
8245.472912203302
 30
0.0
 11
7048.902964380296
 21
9518.472912203291
 31
0.0
  0
LINE
  5
1913B
330
747D
100
AcDbEntity
  8
細線
 48
50.0
100
AcDbLine
 10
7048.902964380502
 20
7414.72291220329
 30
0.0
 11
6598.902964380299
 21
8210.722912203276
 31
0.0
  0
DIMENSION
  5
1913C
330
747D
100
AcDbEntity
  8
寸法
 48
50.0
100
AcDbDimension
  2
*D18
 10
8834.086171780997
 20
7303.474907069369
 30
0.0
 11
8834.086171780993
 21
7720.129620007395
 31
0.0
 70
   160
 71
     5
 42
796.0000000000036
  3
INABA_S40G
100
AcDbAlignedDimension
 13
8418.902964380295
 23
8210.7229122033
 33
0.0
 14
8418.90296438051
 24
7414.722912203295
 34
0.0
 50
90.0
100
AcDbRotatedDimension
  0
DIMENSION
  5
1913D
330
747D
100
AcDbEntity
  8
寸法
 48
50.0
100
AcDbDimension
  2
*D19
 10
8834.086171780997
 20
8134.224907069382
 30
0.0
 11
8834.086171780993
 21
8770.724907069356
 31
0.0
 70
   160
 71
     5
 42
1273.000000000003
  3
INABA_S40G
100
AcDbAlignedDimension
 13
8418.902964380299
 23
9518.472912203309
 33
0.0
 14
8418.90296438051
 24
8245.472912203306
 34
0.0
 50
90.0
100
AcDbRotatedDimension
  0
LINE
  5
1913E
330
747D
100
AcDbEntity
  8
部品1
100
AcDbLine
 10
8418.902964380407
 20
8210.72291220328
 30
0.0
 11
8418.902964380508
 21
7414.72291220329
 31
0.0
  0
LINE
  5
1913F
330
747D
100
AcDbEntity
  8
部品1
100
AcDbLine
 10
8423.902964380287
 20
8219.722912203256
 30
0.0
 11
8423.902964380273
 21
7392.222912203244
 31
0.0
  0
LINE
  5
19140
330
747D
100
AcDbEntity
  8
部品1
100
AcDbLine
 10
7971.902964380278
 20
8244.722912203256
 30
0.0
 11
7971.902964380278
 21
8219.722912203256
 31
0.0
  0
LINE
  5
19141
330
747D
100
AcDbEntity
  8
部品1
100
AcDbLine
 10
7968.902964380298
 20
8210.722912203276
 30
0.0
 11
7968.902964380506
 21
7414.72291220329
 31
0.0
  0
LINE
  5
19142
330
747D
100
AcDbEntity
  8
細線
 48
50.0
100
AcDbLine
 10
8418.902964380503
 20
7414.72291220329
 30
0.0
 11
7968.902964380298
 21
8210.722912203276
 31
0.0
  0
LINE
  5
19143
330
747D
100
AcDbEntity
  8
部品1
100
AcDbLine
 10
7968.902964380297
 20
9518.472912203288
 30
0.0
 11
7968.902964380503
 21
8245.472912203302
 31
0.0
  0
LINE
  5
19144
330
747D
100
AcDbEntity
  8
細線
 48
50.0
100
AcDbLine
 10
7968.902964380503
 20
8245.472912203302
 30
0.0
 11
8418.902964380299
 21
9518.472912203291
 31
0.0
  0
LINE
  5
19145
330
747D
100
AcDbEntity
  8
細線
 48
50.0
100
AcDbLine
 10
7968.902964380506
 20
7414.72291220329
 30
0.0
 11
8418.902964380299
 21
8210.72291220328
 31
0.0
  0
LINE
  5
19146
330
747D
100
AcDbEntity
  8
部品1
 48
50.0
100
AcDbLine
 10
8418.902964380295
 20
8210.72291220328
 30
0.0
 11
7968.902964380298
 21
8210.722912203276
 31
0.0
  0
LINE
  5
19147
330
747D
100
AcDbEntity
  8
部品1
100
AcDbLine
 10
8418.902964380389
 20
8245.472912203288
 30
0.0
 11
7968.902964380394
 21
8245.472912203288
 31
0.0
  0
LINE
  5
19148
330
747D
100
AcDbEntity
  8
細線
 48
50.0
100
AcDbLine
 10
8418.902964380503
 20
8245.472912203302
 30
0.0
 11
7968.902964380297
 21
9518.472912203288
 31
0.0
  0
LINE
  5
19149
330
747D
100
AcDbEntity
  8
部品1
 48
50.0
100
AcDbLine
 10
8423.90296438028
 20
8244.722912203256
 30
0.0
 11
7971.902964380278
 21
8244.722912203256
 31
0.0
  0
LINE
  5
1914A
330
747D
100
AcDbEntity
  8
部品1
 48
50.0
100
AcDbLine
 10
8423.902964380276
 20
8219.722912203256
 30
0.0
 11
7971.902964380278
 21
8219.722912203256
 31
0.0
  0
LINE
  5
1914B
330
747D
100
AcDbEntity
  8
部品1
100
AcDbLine
 10
8393.90296438027
 20
8244.722912203256
 30
0.0
 11
8393.902964380274
 21
8219.722912203256
 31
0.0
  0
LINE
  5
1914C
330
747D
100
AcDbEntity
  8
部品1
100
AcDbLine
 10
8435.902964380273
 20
8206.222912203255
 30
0.0
 11
8423.902964380273
 21
8206.222912203255
 31
0.0
  0
LINE
  5
1914D
330
747D
100
AcDbEntity
  8
部品1
100
AcDbLine
 10
8435.902964380273
 20
8258.222912203256
 30
0.0
 11
8423.902964380273
 21
8258.222912203256
 31
0.0
  0
LINE
  5
1914E
330
747D
100
AcDbEntity
  8
部品1
 48
50.0
100
AcDbLine
 10
4816.902964380347
 20
8393.240230824387
 30
0.0
 11
4816.902964380388
 21
7467.722912203185
 31
0.0
  0
LINE
  5
1914F
330
747D
100
AcDbEntity
  8
破線
 48
10.0
100
AcDbLine
 10
5791.902964380271
 20
8787.222912203215
 30
0.0
 11
5791.902964380278
 21
8172.222912203215
 31
0.0
  0
LINE
  5
19150
330
747D
100
AcDbEntity
  8
破線
 48
10.0
100
AcDbLine
 10
4421.90296438027
 20
8787.222912203196
 30
0.0
 11
4421.902964380279
 21
8172.222912203201
 31
0.0
  0
LINE
  5
19151
330
747D
100
AcDbEntity
  8
部品1
 48
50.0
100
AcDbLine
 10
5236.902964380298
 20
9519.222912203259
 30
0.0
 11
5236.902964380298
 21
9547.222912203189
 31
0.0
  0
LINE
  5
19152
330
747D
100
AcDbEntity
  8
部品1
 48
50.0
100
AcDbLine
 10
4816.902964380298
 20
9519.222912203259
 30
0.0
 11
4816.902964380298
 21
9547.222912203189
 31
0.0
  0
LINE
  5
19153
330
747D
100
AcDbEntity
  8
部品1
 48
50.0
100
AcDbLine
 10
6606.902964380296
 20
9519.222912203259
 30
0.0
 11
6606.902964380296
 21
9547.222912203189
 31
0.0
  0
LINE
  5
19154
330
747D
100
AcDbEntity
  8
部品1
 48
50.0
100
AcDbLine
 10
6186.902964380297
 20
9519.222912203259
 30
0.0
 11
6186.902964380297
 21
9547.222912203189
 31
0.0
  0
MTEXT
  5
19155
330
747D
100
AcDbEntity
  8
部品1
  6
ByBlock
 48
50.0
100
AcDbMText
 10
5362.547444388688
 20
10082.71307317327
 30
0.0
 40
120.0
 41
0.0
 71
     5
 72
     1
  1
\A1;1260
  7
STYLE1
 73
     1
 44
1.0
1001
ACAD
1000
MTEXTBEGIN
1070
    73
1070
     1
1070
    44
1040
1.0
1070
    74
1070
     0
1000
MTEXTEND
  0
MTEXT
  5
19156
330
747D
100
AcDbEntity
  8
部品1
  6
ByBlock
 48
50.0
100
AcDbMText
 10
5493.164768274665
 20
6673.086942849559
 30
0.0
 40
120.0
 41
0.0
 71
     5
 72
     1
  1
\A1;1370
  7
STYLE1
 73
     1
 44
1.0
1001
ACAD
1000
MTEXTBEGIN
1070
    73
1070
     1
1070
    44
1040
1.0
1070
    74
1070
     0
1000
MTEXTEND
  0
LINE
  5
19157
330
747D
100
AcDbEntity
  8
寸法
  6
ByBlock
 48
50.0
100
AcDbLine
 10
5205.845914239116
 20
9982.701262149655
 30
0.0
 11
5656.902964380299
 21
9982.701262149655
 31
0.0
  0
LINE
  5
19158
330
747D
100
AcDbEntity
  8
寸法
  6
ByBlock
 48
50.0
100
AcDbLine
 10
5355.815102395218
 20
6573.086942849558
 30
0.0
 11
5711.902964380273
 21
6573.086942849558
 31
0.0
  0
POINT
  5
19159
330
747D
100
AcDbEntity
  8
寸法
  6
ByBlock
 48
50.0
100
AcDbPoint
 10
5656.902964380299
 20
9982.701262149655
 30
0.0
  0
MTEXT
  5
1915A
330
747D
100
AcDbEntity
  8
部品1
  6
ByBlock
 48
50.0
100
AcDbMText
 10
4584.823230886303
 20
10082.71307317327
 30
0.0
 40
120.0
 41
0.0
 71
     5
 72
     1
  1
\A1;1260
  7
STYLE1
 73
     1
 44
1.0
1001
ACAD
1000
MTEXTBEGIN
1070
    73
1070
     1
1070
    44
1040
1.0
1070
    74
1070
     0
1000
MTEXTEND
  0
INSERT
  5
1915B
330
747D
100
AcDbEntity
  8
寸法
  6
ByBlock
 48
50.0
100
AcDbBlockReference
  2
_DOTSMALL
 10
5656.902964380299
 20
9982.701262149655
 30
0.0
 41
100.0
 42
100.0
 43
100.0
  0
INSERT
  5
1915C
330
747D
100
AcDbEntity
  8
寸法
  6
ByBlock
 48
50.0
100
AcDbBlockReference
  2
_DOTSMALL
 10
4396.902964380297
 20
9982.701262149655
 30
0.0
 41
100.0
 42
100.0
 43
100.0
 50
180.0
  0
LINE
  5
1915D
330
747D
100
AcDbEntity
  8
寸法
  6
ByBlock
 48
50.0
100
AcDbLine
 10
4396.902964380297
 20
9982.701262149655
 30
0.0
 11
4738.356454489325
 21
9982.701262149655
 31
0.0
  0
LINE
  5
1915E
330
747D
100
AcDbEntity
  8
寸法
  6
ByBlock
 48
50.0
100
AcDbLine
 10
5656.902964380299
 20
9567.222912203254
 30
0.0
 11
5656.902964380299
 21
10042.70126214964
 31
0.0
  0
LINE
  5
1915F
330
747D
100
AcDbEntity
  8
寸法
  6
ByBlock
 48
50.0
100
AcDbLine
 10
4396.902964380297
 20
9567.222912203131
 30
0.0
 11
4396.902964380297
 21
10042.70126214964
 31
0.0
  0
POINT
  5
19160
330
747D
100
AcDbEntity
  8
寸法
  6
ByBlock
 48
50.0
100
AcDbPoint
 10
5711.902964380273
 20
6573.086942849558
 30
0.0
  0
MTEXT
  5
19161
330
747D
100
AcDbEntity
  8
部品1
  6
ByBlock
 48
50.0
100
AcDbMText
 10
4543.982795613623
 20
6673.086942849559
 30
0.0
 40
120.0
 41
0.0
 71
     5
 72
     1
  1
\A1;1370
  7
STYLE1
 73
     1
 44
1.0
1001
ACAD
1000
MTEXTBEGIN
1070
    73
1070
     1
1070
    44
1040
1.0
1070
    74
1070
     0
1000
MTEXTEND
  0
INSERT
  5
19162
330
747D
100
AcDbEntity
  8
寸法
  6
ByBlock
 48
50.0
100
AcDbBlockReference
  2
_DOTSMALL
 10
5711.902964380273
 20
6573.086942849558
 30
0.0
 41
100.0
 42
100.0
 43
100.0
  0
INSERT
  5
19163
330
747D
100
AcDbEntity
  8
寸法
  6
ByBlock
 48
50.0
100
AcDbBlockReference
  2
_DOTSMALL
 10
4341.902964380288
 20
6573.086942849558
 30
0.0
 41
100.0
 42
100.0
 43
100.0
 50
180.0
  0
LINE
  5
19164
330
747D
100
AcDbEntity
  8
寸法
  6
ByBlock
 48
50.0
100
AcDbLine
 10
4341.902964380288
 20
6573.086942849558
 30
0.0
 11
4688.12629377781
 21
6573.086942849558
 31
0.0
  0
LINE
  5
19165
330
747D
100
AcDbEntity
  8
寸法
  6
ByBlock
 48
50.0
100
AcDbLine
 10
5711.902964380273
 20
7317.222912203213
 30
0.0
 11
5711.902964380273
 21
6513.086942849561
 31
0.0
  0
LINE
  5
19166
330
747D
100
AcDbEntity
  8
寸法
  6
ByBlock
 48
50.0
100
AcDbLine
 10
4341.902964380288
 20
7317.222912203085
 30
0.0
 11
4341.902964380288
 21
6513.086942849561
 31
0.0
  0
LINE
  5
19167
330
747D
100
AcDbEntity
  8
部品1
100
AcDbLine
 10
4935.349177509446
 20
9519.222912203135
 30
0.0
 11
5711.902964380279
 21
9519.222912203142
 31
0.0
  0
LINE
  5
19168
330
747D
100
AcDbEntity
  8
部品1
100
AcDbLine
 10
4856.354690152048
 20
9547.22291220315
 30
0.0
 11
8451.902964380296
 21
9547.222912203258
 31
0.0
  0
LINE
  5
19169
330
747D
100
AcDbEntity
  8
部品1
100
AcDbLine
 10
4861.291845611869
 20
9519.222912203256
 30
0.0
 11
5711.902964380167
 21
9519.222912203256
 31
0.0
  0
LINE
  5
1916A
330
747D
100
AcDbEntity
  8
部品1
100
AcDbLine
 10
4866.317164562055
 20
9490.722912203272
 30
0.0
 11
5228.902964380299
 21
9490.722912203272
 31
0.0
  0
LINE
  5
1916B
330
747D
100
AcDbEntity
  8
破線
 48
10.0
100
AcDbLine
 10
4839.998050252129
 20
9467.222912203316
 30
0.0
 11
4421.902964380264
 21
9467.222912203281
 31
0.0
  0
LINE
  5
1916C
330
747D
100
AcDbEntity
  8
破線
 48
10.0
100
AcDbLine
 10
5188.420164132074
 20
7491.222912203217
 30
0.0
 11
4421.902964380284
 21
7491.222912203155
 31
0.0
  0
LINE
  5
1916D
330
747D
100
AcDbEntity
  8
部品1
100
AcDbLine
 10
5192.563848178721
 20
7467.722912203218
 30
0.0
 11
4398.402964380191
 21
7467.722912203154
 31
0.0
  0
LINE
  5
1916E
330
747D
100
AcDbEntity
  8
部品1
100
AcDbLine
 10
5197.589167128914
 20
7439.222912203215
 30
0.0
 11
4369.902964380269
 21
7439.222912203151
 31
0.0
  0
LINE
  5
1916F
330
747D
100
AcDbEntity
  8
部品1
100
AcDbLine
 10
5215.57451916121
 20
7337.222912203028
 30
0.0
 11
4341.902964380288
 21
7337.222912202967
 31
0.0
  0
LINE
  5
19170
330
747D
100
AcDbEntity
  8
寸法
 48
50.0
100
AcDbLine
 10
4988.887757391387
 20
8622.82742297622
 30
0.0
 11
5187.361767569689
 21
8605.463197081096
 31
0.0
  0
LINE
  5
19171
330
747D
100
AcDbEntity
  8
寸法
 48
50.0
100
AcDbLine
 10
5014.434641987636
 20
8650.706955311948
 30
0.0
 11
5301.511916677393
 21
8625.590948220677
 31
0.0
  0
LINE
  5
19172
330
747D
100
AcDbEntity
  8
寸法
 48
50.0
100
AcDbLine
 10
5032.69917823033
 20
8374.360508480698
 30
0.0
 11
4745.621903540573
 21
8399.476515571972
 31
0.0
  0
LINE
  5
19173
330
747D
100
AcDbEntity
  8
寸法
 48
50.0
100
AcDbLine
 10
5058.24606282658
 20
8402.240040816421
 30
0.0
 11
4859.772052648282
 21
8419.604266711555
 31
0.0
  0
LINE
  5
19174
330
747D
100
AcDbEntity
  8
寸法
 48
50.0
100
AcDbLine
 10
5301.511916677393
 20
8625.590948220677
 30
0.0
 11
4859.772052648281
 21
8419.604266711555
 31
0.0
  0
LINE
  5
19175
330
747D
100
AcDbEntity
  8
寸法
 48
50.0
100
AcDbLine
 10
5187.361767569689
 20
8605.463197081096
 30
0.0
 11
4745.621903540573
 21
8399.476515571972
 31
0.0
  0
LINE
  5
19176
330
747D
100
AcDbEntity
  8
寸法
 48
50.0
100
AcDbLine
 10
5032.69917823033
 20
8374.360508480698
 30
0.0
 11
5224.256928044556
 21
7287.982524552416
 31
0.0
  0
LINE
  5
19177
330
747D
100
AcDbEntity
  8
寸法
 48
50.0
100
AcDbLine
 10
5058.24606282658
 20
8402.240040816421
 30
0.0
 11
5254.719726401127
 21
7287.982524552417
 31
0.0
  0
LINE
  5
19178
330
747D
100
AcDbEntity
  8
寸法
 48
50.0
100
AcDbLine
 10
4817.209482912136
 20
9596.463299853752
 30
0.0
 11
4988.887757391387
 21
8622.82742297622
 31
0.0
  0
LINE
  5
19179
330
747D
100
AcDbEntity
  8
寸法
 48
50.0
100
AcDbLine
 10
4847.672281268703
 20
9596.463299853752
 30
0.0
 11
5014.434641987636
 21
8650.706955311948
 31
0.0
  0
DIMENSION
  5
1917A
330
747D
100
AcDbEntity
  8
寸法
 48
50.0
100
AcDbDimension
  2
*D20
 10
5656.902964380299
 20
9982.701262149655
 30
0.0
 11
5711.902964380298
 21
9982.701262149655
 31
0.0
 70
   160
 71
     5
 42
109.9999999999982
  3
INABA_S40G
100
AcDbAlignedDimension
 13
5766.902964380297
 23
9547.222912203174
 33
0.0
 14
5656.902964380299
 24
9547.222912203258
 34
0.0
100
AcDbRotatedDimension
  0
DIMENSION
  5
1917B
330
747D
100
AcDbEntity
  8
寸法
 48
50.0
100
AcDbDimension
  2
*D21
 10
7026.902964380297
 20
9982.701262149655
 30
0.0
 11
7081.902964380297
 21
9982.701262149655
 31
0.0
 70
   160
 71
     5
 42
109.9999999999991
  3
INABA_S40G
100
AcDbAlignedDimension
 13
7136.902964380296
 23
9547.22291220313
 33
0.0
 14
7026.902964380297
 24
9547.22291220313
 34
0.0
100
AcDbRotatedDimension
  0
LINE
  5
1917C
330
747D
100
AcDbEntity
  8
部品1
100
AcDbLine
 10
5739.902964380264
 20
9519.222912203142
 30
0.0
 11
7026.902964380297
 21
9519.22291220316
 31
0.0
  0
LINE
  5
1917D
330
747D
100
AcDbEntity
  8
部品1
100
AcDbLine
 10
5739.902964380264
 20
9519.222912203256
 30
0.0
 11
7053.902964380265
 21
9519.222912203266
 31
0.0
  0
LINE
  5
1917E
330
747D
100
AcDbEntity
  8
部品1
100
AcDbLine
 10
5766.902964380297
 20
9547.22291220316
 30
0.0
 11
5766.902964380297
 21
9519.22291220316
 31
0.0
  0
LINE
  5
1917F
330
747D
100
AcDbEntity
  8
部品1
100
AcDbLine
 10
5656.902964380297
 20
9547.22291220316
 30
0.0
 11
5656.902964380297
 21
9519.22291220316
 31
0.0
  0
LINE
  5
19180
330
747D
100
AcDbEntity
  8
部品1
 48
50.0
100
AcDbLine
 10
5739.902964380264
 20
9492.222912203136
 30
0.0
 11
5739.902964380264
 21
9547.222912203219
 31
0.0
  0
LINE
  5
19181
330
747D
100
AcDbEntity
  8
部品1
 48
50.0
100
AcDbLine
 10
5683.902964380264
 20
9519.222912203266
 30
0.0
 11
5683.902964380264
 21
9547.222912203215
 31
0.0
  0
LINE
  5
19182
330
747D
100
AcDbEntity
  8
部品1
100
AcDbLine
 10
5739.902964380264
 20
9492.222912203136
 30
0.0
 11
5683.902964380264
 21
9492.222912203136
 31
0.0
  0
LINE
  5
19183
330
747D
100
AcDbEntity
  8
部品1
 48
50.0
100
AcDbLine
 10
5683.902964380264
 20
9519.22291220316
 30
0.0
 11
5711.902964380263
 21
9519.22291220316
 31
0.0
  0
LINE
  5
19184
330
747D
100
AcDbEntity
  8
部品1
 48
50.0
100
AcDbLine
 10
5711.902964380263
 20
9519.22291220316
 30
0.0
 11
5683.902964380264
 21
9547.222912203215
 31
0.0
  0
LINE
  5
19185
330
747D
100
AcDbEntity
  8
部品1
100
AcDbLine
 10
5711.902964380238
 20
8232.222912203164
 30
0.0
 11
5683.902964380237
 21
8232.222912203164
 31
0.0
  0
LINE
  5
19186
330
747D
100
AcDbEntity
  8
部品1
100
AcDbLine
 10
5711.902964380241
 20
7812.222912203163
 30
0.0
 11
5683.902964380243
 21
7812.222912203163
 31
0.0
  0
LINE
  5
19187
330
747D
100
AcDbEntity
  8
部品1
100
AcDbLine
 10
5762.902964380289
 20
7337.222912203085
 30
0.0
 11
5762.902964380289
 21
7344.222912203121
 31
0.0
  0
LINE
  5
19188
330
747D
100
AcDbEntity
  8
部品1
100
AcDbLine
 10
5771.902964380289
 20
7344.222912203121
 30
0.0
 11
5762.902964380289
 21
7344.222912203121
 31
0.0
  0
LINE
  5
19189
330
747D
100
AcDbEntity
  8
部品1
100
AcDbLine
 10
5660.902964380291
 20
7337.222912203078
 30
0.0
 11
5660.902964380289
 21
7344.222912203114
 31
0.0
  0
LINE
  5
1918A
330
747D
100
AcDbEntity
  8
部品1
100
AcDbLine
 10
5660.902964380289
 20
7344.222912203114
 30
0.0
 11
5651.902964380289
 21
7344.222912203116
 31
0.0
  0
LINE
  5
1918B
330
747D
100
AcDbEntity
  8
部品1
100
AcDbLine
 10
5771.902964380289
 20
7344.222912203121
 30
0.0
 11
5771.902964380286
 21
7392.222912203085
 31
0.0
  0
LINE
  5
1918C
330
747D
100
AcDbEntity
  8
部品1
100
AcDbLine
 10
5651.902964380289
 20
7344.222912203121
 30
0.0
 11
5651.902964380286
 21
7392.222912203085
 31
0.0
  0
LINE
  5
1918D
330
747D
100
AcDbEntity
  8
部品1
 48
50.0
100
AcDbLine
 10
5651.902964380286
 20
7392.222912203085
 30
0.0
 11
5674.902964380287
 21
7392.222912203085
 31
0.0
  0
LINE
  5
1918E
330
747D
100
AcDbEntity
  8
部品1
 48
50.0
100
AcDbLine
 10
5771.902964380286
 20
7392.222912203085
 30
0.0
 11
5748.902964380286
 21
7392.222912203085
 31
0.0
  0
LINE
  5
1918F
330
747D
100
AcDbEntity
  8
部品1
 48
50.0
100
AcDbLine
 10
5739.902964380253
 20
7392.222912203085
 30
0.0
 11
5683.902964380253
 21
7392.222912203085
 31
0.0
  0
LINE
  5
19190
330
747D
100
AcDbEntity
  8
部品1
100
AcDbLine
 10
5683.902964380229
 20
9519.22291220316
 30
0.0
 11
5683.902964380243
 21
8244.722912203256
 31
0.0
  0
LINE
  5
19191
330
747D
100
AcDbEntity
  8
部品1
100
AcDbLine
 10
5739.902964380228
 20
9492.222912203136
 30
0.0
 11
5739.902964380256
 21
7337.22291220315
 31
0.0
  0
LINE
  5
19192
330
747D
100
AcDbEntity
  8
部品1
100
AcDbLine
 10
5711.902964380238
 20
7392.222912203145
 30
0.0
 11
5711.902964380263
 21
9492.222912203136
 31
0.0
  0
LINE
  5
19193
330
747D
100
AcDbEntity
  8
破線
 48
10.0
100
AcDbLine
 10
5228.902964380304
 20
9467.222912203345
 30
0.0
 11
4870.460848608695
 21
9467.222912203324
 31
0.0
  0
LINE
  5
19194
330
747D
100
AcDbEntity
  8
部品1
100
AcDbLine
 10
4398.402964380266
 20
9490.722912203279
 30
0.0
 11
4835.854366205488
 21
9490.722912203272
 31
0.0
  0
LINE
  5
19195
330
747D
100
AcDbEntity
  8
部品1
 48
50.0
100
AcDbLine
 10
4398.402964380284
 20
7467.72291220325
 30
0.0
 11
4369.902964380288
 21
7439.222912203253
 31
0.0
  0
LINE
  5
19196
330
747D
100
AcDbEntity
  8
部品1
100
AcDbLine
 10
4398.402964380266
 20
9490.722912203279
 30
0.0
 11
4398.402964380284
 21
7467.72291220325
 31
0.0
  0
LINE
  5
19197
330
747D
100
AcDbEntity
  8
破線
 48
10.0
100
AcDbLine
 10
4421.902964380264
 20
9467.222912203281
 30
0.0
 11
4421.902964380272
 21
8837.2229122032
 31
0.0
  0
LINE
  5
19198
330
747D
100
AcDbEntity
  8
部品1
 48
50.0
100
AcDbLine
 10
4816.902964380298
 20
9490.722912203279
 30
0.0
 11
4816.902964380347
 21
8432.715420122967
 31
0.0
  0
LINE
  5
19199
330
747D
100
AcDbEntity
  8
部品1
100
AcDbLine
 10
5228.9029643805
 20
7439.222912203217
 30
0.0
 11
5228.051965485486
 21
7439.222912203217
 31
0.0
  0
LINE
  5
1919A
330
747D
100
AcDbEntity
  8
部品1
100
AcDbLine
 10
5228.902964380497
 20
7467.722912203218
 30
0.0
 11
5223.026646535293
 21
7467.72291220322
 31
0.0
  0
LINE
  5
1919B
330
747D
100
AcDbEntity
  8
破線
 48
10.0
100
AcDbLine
 10
5228.902964380489
 20
7491.222912203221
 30
0.0
 11
5218.882962488646
 21
7491.222912203223
 31
0.0
  0
LINE
  5
1919C
330
747D
100
AcDbEntity
  8
部品1
100
AcDbLine
 10
5678.902964380391
 20
7414.722912203277
 30
0.0
 11
5232.371976512833
 21
7414.722912203277
 31
0.0
  0
LINE
  5
1919D
330
747D
100
AcDbEntity
  8
細線
100
AcDbLine
 10
5228.902964380276
 20
7438.222912203245
 30
0.0
 11
5228.902964380276
 21
7434.396657642686
 31
0.0
  0
LINE
  5
1919E
330
747D
100
AcDbEntity
  8
細線
100
AcDbLine
 10
5228.902964380276
 20
7438.222912203248
 30
0.0
 11
5228.228292466188
 21
7438.222912203248
 31
0.0
  0
DIMENSION
  5
1919F
330
747D
100
AcDbEntity
  8
寸法
100
AcDbDimension
  2
*D22
 10
7026.902964380299
 20
9982.701262149655
 30
0.0
 11
6396.902964380296
 21
9982.701262149655
 31
0.0
 70
   160
  1
3X420=<>
 71
     5
 42
1260.000000000002
  3
INABA_S40G
100
AcDbAlignedDimension
 13
5766.902964380297
 23
9547.22291220313
 33
0.0
 14
7026.902964380299
 24
9547.222912203258
 34
0.0
100
AcDbRotatedDimension
1001
ACAD
1000
DSTYLE
1002
{
1002
}
  0
LINE
  5
191A0
330
747D
100
AcDbEntity
  8
破線
 48
10.0
100
AcDbLine
 10
6598.902964380304
 20
9467.222912203345
 30
0.0
 11
5791.902964380264
 21
9467.222912203281
 31
0.0
  0
LINE
  5
191A1
330
747D
100
AcDbEntity
  8
部品1
100
AcDbLine
 10
5768.402964380264
 20
9490.722912203279
 30
0.0
 11
6598.902964380299
 21
9490.722912203272
 31
0.0
  0
LINE
  5
191A2
330
747D
100
AcDbEntity
  8
部品1
 48
50.0
100
AcDbLine
 10
5768.402964380285
 20
7467.72291220325
 30
0.0
 11
5739.902964380289
 21
7439.222912203253
 31
0.0
  0
LINE
  5
191A3
330
747D
100
AcDbEntity
  8
部品1
100
AcDbLine
 10
5768.402964380264
 20
9490.722912203279
 30
0.0
 11
5768.402964380285
 21
7467.72291220325
 31
0.0
  0
LINE
  5
191A4
330
747D
100
AcDbEntity
  8
破線
 48
10.0
100
AcDbLine
 10
5791.902964380264
 20
9467.222912203281
 30
0.0
 11
5791.902964380271
 21
8837.222912203211
 31
0.0
  0
LINE
  5
191A5
330
747D
100
AcDbEntity
  8
部品1
 48
50.0
100
AcDbLine
 10
6186.902964380299
 20
9490.722912203279
 30
0.0
 11
6186.902964380389
 21
7467.722912203185
 31
0.0
  0
LINE
  5
191A6
330
747D
100
AcDbEntity
  8
部品1
100
AcDbLine
 10
6598.902964380499
 20
7439.222912203217
 30
0.0
 11
5739.902964380271
 21
7439.222912203151
 31
0.0
  0
LINE
  5
191A7
330
747D
100
AcDbEntity
  8
部品1
100
AcDbLine
 10
6598.902964380497
 20
7467.722912203218
 30
0.0
 11
5768.402964380191
 21
7467.722912203154
 31
0.0
  0
LINE
  5
191A8
330
747D
100
AcDbEntity
  8
破線
 48
10.0
100
AcDbLine
 10
6598.902964380491
 20
7491.222912203221
 30
0.0
 11
5791.902964380284
 21
7491.222912203155
 31
0.0
  0
DIMENSION
  5
191A9
330
747D
100
AcDbEntity
  8
寸法
100
AcDbDimension
  2
*D23
 10
7081.902964380275
 20
6573.086942849558
 30
0.0
 11
6396.902964380281
 21
6573.086942849558
 31
0.0
 70
   160
 71
     5
 42
1369.999999999983
  3
INABA_S40G
100
AcDbAlignedDimension
 13
5711.902964380292
 23
7337.222912203085
 33
0.0
 14
7081.902964380275
 24
7337.222912203213
 34
0.0
100
AcDbRotatedDimension
1001
ACAD
1000
DSTYLE
1002
{
1002
}
  0
LINE
  5
191AA
330
747D
100
AcDbEntity
  8
部品1
 48
50.0
100
AcDbLine
 10
7053.902964380265
 20
9519.222912203266
 30
0.0
 11
7053.902964380265
 21
9547.222912203215
 31
0.0
  0
LINE
  5
191AB
330
747D
100
AcDbEntity
  8
部品1
100
AcDbLine
 10
7109.902964380231
 20
9492.222912203136
 30
0.0
 11
7109.902964380253
 21
7337.22291220315
 31
0.0
  0
LINE
  5
191AC
330
747D
100
AcDbEntity
  8
部品1
100
AcDbLine
 10
7081.90296438024
 20
8232.222912203164
 30
0.0
 11
7053.902964380238
 21
8232.222912203164
 31
0.0
  0
LINE
  5
191AD
330
747D
100
AcDbEntity
  8
部品1
100
AcDbLine
 10
7081.902964380242
 20
7812.222912203163
 30
0.0
 11
7053.902964380242
 21
7812.222912203163
 31
0.0
  0
LINE
  5
191AE
330
747D
100
AcDbEntity
  8
部品1
100
AcDbLine
 10
7081.90296438024
 20
7392.222912203145
 30
0.0
 11
7081.902964380264
 21
9492.222912203136
 31
0.0
  0
LINE
  5
191AF
330
747D
100
AcDbEntity
  8
部品1
100
AcDbLine
 10
7053.902964380229
 20
9519.22291220316
 30
0.0
 11
7053.902964380244
 21
8244.722912203256
 31
0.0
  0
LINE
  5
191B0
330
747D
100
AcDbEntity
  8
部品1
 48
50.0
100
AcDbLine
 10
7081.902964380264
 20
9519.22291220316
 30
0.0
 11
7053.902964380265
 21
9547.222912203215
 31
0.0
  0
LINE
  5
191B1
330
747D
100
AcDbEntity
  8
部品1
 48
50.0
100
AcDbLine
 10
7053.902964380265
 20
9519.22291220316
 30
0.0
 11
7081.902964380264
 21
9519.22291220316
 31
0.0
  0
LINE
  5
191B2
330
747D
100
AcDbEntity
  8
部品1
100
AcDbLine
 10
7109.902964380264
 20
9519.222912203266
 30
0.0
 11
8423.902964380296
 21
9519.222912203277
 31
0.0
  0
LINE
  5
191B3
330
747D
100
AcDbEntity
  8
部品1
100
AcDbLine
 10
7136.902964380296
 20
9519.22291220316
 30
0.0
 11
7556.902964380298
 21
9519.222912203167
 31
0.0
  0
LINE
  5
191B4
330
747D
100
AcDbEntity
  8
部品1
 48
50.0
100
AcDbLine
 10
7053.902964380265
 20
9492.222912203136
 30
0.0
 11
7053.902964380265
 21
9519.22291220316
 31
0.0
  0
LINE
  5
191B5
330
747D
100
AcDbEntity
  8
部品1
 48
50.0
100
AcDbLine
 10
7109.902964380264
 20
9492.222912203136
 30
0.0
 11
7109.902964380264
 21
9547.222912203219
 31
0.0
  0
LINE
  5
191B6
330
747D
100
AcDbEntity
  8
部品1
100
AcDbLine
 10
7026.902964380297
 20
9547.22291220316
 30
0.0
 11
7026.902964380297
 21
9519.22291220316
 31
0.0
  0
LINE
  5
191B7
330
747D
100
AcDbEntity
  8
部品1
100
AcDbLine
 10
7109.902964380264
 20
9492.222912203136
 30
0.0
 11
7053.902964380265
 21
9492.222912203136
 31
0.0
  0
LINE
  5
191B8
330
747D
100
AcDbEntity
  8
部品1
100
AcDbLine
 10
7136.902964380296
 20
9547.22291220316
 30
0.0
 11
7136.902964380296
 21
9519.22291220316
 31
0.0
  0
LINE
  5
191B9
330
747D
100
AcDbEntity
  8
部品1
 48
50.0
100
AcDbLine
 10
7109.902964380253
 20
7392.222912203085
 30
0.0
 11
7053.902964380253
 21
7392.222912203085
 31
0.0
  0
LINE
  5
191BA
330
747D
100
AcDbEntity
  8
部品1
 48
50.0
100
AcDbLine
 10
7141.902964380285
 20
7392.222912203085
 30
0.0
 11
7118.902964380288
 21
7392.222912203085
 31
0.0
  0
LINE
  5
191BB
330
747D
100
AcDbEntity
  8
部品1
 48
50.0
100
AcDbLine
 10
7021.902964380285
 20
7392.222912203085
 30
0.0
 11
7044.902964380288
 21
7392.222912203085
 31
0.0
  0
LINE
  5
191BC
330
747D
100
AcDbEntity
  8
部品1
100
AcDbLine
 10
7030.902964380288
 20
7337.222912203078
 30
0.0
 11
7030.902964380288
 21
7344.222912203114
 31
0.0
  0
LINE
  5
191BD
330
747D
100
AcDbEntity
  8
部品1
100
AcDbLine
 10
7030.902964380288
 20
7344.222912203114
 30
0.0
 11
7021.902964380288
 21
7344.222912203116
 31
0.0
  0
LINE
  5
191BE
330
747D
100
AcDbEntity
  8
部品1
100
AcDbLine
 10
7021.902964380288
 20
7344.222912203121
 30
0.0
 11
7021.902964380285
 21
7392.222912203085
 31
0.0
  0
LINE
  5
191BF
330
747D
100
AcDbEntity
  8
部品1
100
AcDbLine
 10
7141.902964380289
 20
7344.222912203121
 30
0.0
 11
7141.902964380285
 21
7392.222912203085
 31
0.0
  0
LINE
  5
191C0
330
747D
100
AcDbEntity
  8
部品1
100
AcDbLine
 10
7141.902964380289
 20
7344.222912203121
 30
0.0
 11
7132.902964380289
 21
7344.222912203121
 31
0.0
  0
LINE
  5
191C1
330
747D
100
AcDbEntity
  8
部品1
100
AcDbLine
 10
7132.902964380291
 20
7337.222912203085
 30
0.0
 11
7132.902964380289
 21
7344.222912203121
 31
0.0
  0
DIMENSION
  5
191C2
330
747D
100
AcDbEntity
  8
寸法
 48
50.0
100
AcDbDimension
  2
*D24
 10
7893.851646049451
 20
9794.818245389004
 30
0.0
 11
8097.338756772309
 21
9794.818245389004
 31
0.0
 70
   160
 71
     5
 42
449.9999999999972
  3
INABA_S40G
100
AcDbAlignedDimension
 13
8418.902964380293
 23
9514.722912203277
 33
0.0
 14
7968.902964380297
 24
9514.722912203277
 34
0.0
100
AcDbRotatedDimension
  0
LINE
  5
191C3
330
747D
100
AcDbEntity
  8
部品1
 48
50.0
100
AcDbLine
 10
7556.902964380299
 20
9490.722912203279
 30
0.0
 11
7556.902964380388
 21
7467.722912203185
 31
0.0
  0
LINE
  5
191C4
330
747D
100
AcDbEntity
  8
部品1
100
AcDbLine
 10
7138.402964380268
 20
9490.722912203279
 30
0.0
 11
7968.902964380299
 21
9490.722912203272
 31
0.0
  0
LINE
  5
191C5
330
747D
100
AcDbEntity
  8
破線
 48
10.0
100
AcDbLine
 10
7968.902964380304
 20
9467.222912203345
 30
0.0
 11
7161.902964380264
 21
9467.222912203281
 31
0.0
  0
LINE
  5
191C6
330
747D
100
AcDbEntity
  8
部品1
 48
50.0
100
AcDbLine
 10
7138.402964380286
 20
7467.72291220325
 30
0.0
 11
7109.902964380288
 21
7439.222912203253
 31
0.0
  0
LINE
  5
191C7
330
747D
100
AcDbEntity
  8
破線
 48
10.0
100
AcDbLine
 10
7161.902964380264
 20
9467.222912203281
 30
0.0
 11
7161.902964380273
 21
8837.222912203221
 31
0.0
  0
LINE
  5
191C8
330
747D
100
AcDbEntity
  8
部品1
100
AcDbLine
 10
7138.402964380268
 20
9490.722912203279
 30
0.0
 11
7138.402964380286
 21
7467.72291220325
 31
0.0
  0
LINE
  5
191C9
330
747D
100
AcDbEntity
  8
破線
 48
10.0
100
AcDbLine
 10
7968.902964380493
 20
7491.222912203221
 30
0.0
 11
7161.902964380281
 21
7491.222912203155
 31
0.0
  0
LINE
  5
191CA
330
747D
100
AcDbEntity
  8
部品1
100
AcDbLine
 10
7968.902964380496
 20
7467.722912203218
 30
0.0
 11
7138.402964380192
 21
7467.722912203154
 31
0.0
  0
DIMENSION
  5
191CB
330
747D
100
AcDbEntity
  8
寸法
100
AcDbDimension
  2
*D25
 10
8396.902964380299
 20
9982.701262149655
 30
0.0
 11
7766.902964380296
 21
9982.701262149655
 31
0.0
 70
   160
  1
3X420=<>
 71
     5
 42
1260.000000000003
  3
INABA_S40G
100
AcDbAlignedDimension
 13
7136.902964380296
 23
9547.22291220313
 33
0.0
 14
8396.902964380299
 24
9547.222912203258
 34
0.0
100
AcDbRotatedDimension
1001
ACAD
1000
DSTYLE
1002
{
1002
}
  0
LINE
  5
191CC
330
747D
100
AcDbEntity
  8
部品1
100
AcDbLine
 10
4341.902964380295
 20
9547.22291220313
 30
0.0
 11
4825.891891795482
 21
9547.222912203146
 31
0.0
  0
DIMENSION
  5
191CD
330
747D
100
AcDbEntity
  8
寸法
100
AcDbDimension
  2
*D26
 10
8451.902964380296
 20
9982.701262149632
 30
0.0
 11
8760.388245754537
 21
9982.701262149632
 31
0.0
 70
   160
 71
     5
 42
54.99999999999818
  3
INABA_S40G
100
AcDbAlignedDimension
 13
8396.902964380299
 23
9547.222912203258
 33
0.0
 14
8451.902964380296
 24
9547.222912203258
 34
0.0
100
AcDbRotatedDimension
1001
ACAD
1000
DSTYLE
1002
{
1002
}
  0
LINE
  5
191CE
330
747D
100
AcDbEntity
  8
部品1
100
AcDbLine
 10
8423.902964380296
 20
9492.222912203262
 30
0.0
 11
8451.902964380296
 21
9492.222912203262
 31
0.0
  0
LINE
  5
191CF
330
747D
100
AcDbEntity
  8
部品1
100
AcDbLine
 10
8423.902964380296
 20
8232.222912203262
 30
0.0
 11
8451.902964380296
 21
8232.222912203262
 31
0.0
  0
LINE
  5
191D0
330
747D
100
AcDbEntity
  8
部品1
100
AcDbLine
 10
8418.902964380391
 20
7414.722912203277
 30
0.0
 11
7968.902964380394
 21
7414.722912203277
 31
0.0
  0
LINE
  5
191D1
330
747D
100
AcDbEntity
  8
部品1
100
AcDbLine
 10
8423.902964380305
 20
7812.222912203262
 30
0.0
 11
8451.902964380302
 21
7812.222912203262
 31
0.0
  0
LINE
  5
191D2
330
747D
100
AcDbEntity
  8
部品1
100
AcDbLine
 10
8423.902964380308
 20
7392.222912203263
 30
0.0
 11
8451.902964380307
 21
7392.222912203263
 31
0.0
  0
LINE
  5
191D3
330
747D
100
AcDbEntity
  8
部品1
100
AcDbLine
 10
8391.902964380273
 20
7344.222912203249
 30
0.0
 11
8391.902964380273
 21
7392.222912203244
 31
0.0
  0
LINE
  5
191D4
330
747D
100
AcDbEntity
  8
部品1
100
AcDbLine
 10
8400.902964380273
 20
7344.222912203249
 30
0.0
 11
8391.902964380273
 21
7344.222912203249
 31
0.0
  0
LINE
  5
191D5
330
747D
100
AcDbEntity
  8
部品1
100
AcDbLine
 10
8400.902964380273
 20
7337.222912203246
 30
0.0
 11
8400.902964380273
 21
7344.222912203249
 31
0.0
  0
LINE
  5
191D6
330
747D
100
AcDbEntity
  8
部品1
100
AcDbLine
 10
8391.902964380273
 20
7392.222912203244
 30
0.0
 11
8423.902964380273
 21
7392.222912203244
 31
0.0
  0
LINE
  5
191D7
330
747D
100
AcDbEntity
  8
部品1
100
AcDbLine
 10
8423.902964380273
 20
7392.222912203244
 30
0.0
 11
8451.902964380273
 21
7392.222912203244
 31
0.0
  0
LINE
  5
191D8
330
747D
100
AcDbEntity
  8
部品1
100
AcDbLine
 10
8451.902964380273
 20
7392.222912203244
 30
0.0
 11
8451.902964380273
 21
7337.222912203249
 31
0.0
  0
LINE
  5
191D9
330
747D
100
AcDbEntity
  8
部品1
100
AcDbLine
 10
8451.902964380273
 20
7337.222912203249
 30
0.0
 11
8400.902964380273
 21
7337.222912203249
 31
0.0
  0
LINE
  5
191DA
330
747D
100
AcDbEntity
  8
部品1
100
AcDbLine
 10
8423.902964380296
 20
9519.222912203259
 30
0.0
 11
8423.902964380287
 21
8244.722912203256
 31
0.0
  0
LINE
  5
191DB
330
747D
100
AcDbEntity
  8
部品1
100
AcDbLine
 10
4369.902964380263
 20
9492.222912203136
 30
0.0
 11
4341.902964380262
 21
9492.222912203136
 31
0.0
  0
LINE
  5
191DC
330
747D
100
AcDbEntity
  8
部品1
100
AcDbLine
 10
4369.902964380269
 20
8232.222912203134
 30
0.0
 11
4341.902964380272
 21
8232.222912203134
 31
0.0
  0
LINE
  5
191DD
330
747D
100
AcDbEntity
  8
部品1
 48
50.0
100
AcDbLine
 10
8418.902964380292
 20
9518.472912203288
 30
0.0
 11
7968.902964380292
 21
9518.472912203288
 31
0.0
  0
LINE
  5
191DE
330
747D
100
AcDbEntity
  8
部品1
100
AcDbLine
 10
4369.902964380297
 20
9519.222912203131
 30
0.0
 11
4830.829047255322
 21
9519.222912203131
 31
0.0
  0
LINE
  5
191DF
330
747D
100
AcDbEntity
  8
部品1
100
AcDbLine
 10
4369.902964380276
 20
7812.222912203132
 30
0.0
 11
4341.902964380277
 21
7812.222912203132
 31
0.0
  0
LINE
  5
191E0
330
747D
100
AcDbEntity
  8
部品1
100
AcDbLine
 10
4401.902964380288
 20
7344.222912203118
 30
0.0
 11
4401.902964380286
 21
7392.222912203083
 31
0.0
  0
LINE
  5
191E1
330
747D
100
AcDbEntity
  8
部品1
100
AcDbLine
 10
4401.902964380288
 20
7344.222912203118
 30
0.0
 11
4392.902964380288
 21
7344.222912203119
 31
0.0
  0
LINE
  5
191E2
330
747D
100
AcDbEntity
  8
部品1
100
AcDbLine
 10
4392.902964380288
 20
7337.222912203085
 30
0.0
 11
4392.902964380288
 21
7344.222912203119
 31
0.0
  0
LINE
  5
191E3
330
747D
100
AcDbEntity
  8
部品1
100
AcDbLine
 10
4401.902964380286
 20
7392.222912203081
 30
0.0
 11
4373.902964380287
 21
7392.222912203081
 31
0.0
  0
LINE
  5
191E4
330
747D
100
AcDbEntity
  8
部品1
100
AcDbLine
 10
4369.902964380288
 20
7392.222912203132
 30
0.0
 11
4341.902964380288
 21
7392.222912203132
 31
0.0
  0
LINE
  5
191E5
330
747D
100
AcDbEntity
  8
部品1
100
AcDbLine
 10
7132.902964380291
 20
7337.22291220312
 30
0.0
 11
7081.902964380292
 21
7337.22291220312
 31
0.0
  0
LINE
  5
191E6
330
747D
100
AcDbEntity
  8
部品1
100
AcDbLine
 10
4369.902964380272
 20
7392.222912203116
 30
0.0
 11
4369.902964380297
 21
9519.22291220316
 31
0.0
  0
LINE
  5
191E7
330
747D
100
AcDbEntity
  8
部品1
100
AcDbLine
 10
8451.902964380273
 20
7337.222912203249
 30
0.0
 11
5246.037317517782
 21
7337.222912203028
 31
0.0
  0
LINE
  5
191E8
330
747D
100
AcDbEntity
  8
部品1
100
AcDbLine
 10
4396.902964380297
 20
9519.222912203247
 30
0.0
 11
4830.829047255301
 21
9519.222912203247
 31
0.0
  0
LINE
  5
191E9
330
747D
100
AcDbEntity
  8
部品1
100
AcDbLine
 10
8418.902964380299
 20
9518.472912203291
 30
0.0
 11
8418.902964380405
 21
8245.472912203487
 31
0.0
  0
LINE
  5
191EA
330
747D
100
AcDbEntity
  8
部品1
100
AcDbLine
 10
7968.9029643805
 20
7439.222912203217
 30
0.0
 11
7109.902964380271
 21
7439.222912203151
 31
0.0
  0
TEXT
  5
191EB
330
747D
100
AcDbEntity
  8
部品1
100
AcDbText
 10
6105.0872410951
 20
6164.204005615702
 30
0.0
 40
135.0
  1
平面図
  7
STYLE2
100
AcDbText
  0
DIMENSION
  5
191EC
330
747D
100
AcDbEntity
  8
寸法
100
AcDbDimension
  2
*D27
 10
8451.902964380273
 20
6573.086942849558
 30
0.0
 11
7766.902964380282
 21
6573.086942849558
 31
0.0
 70
   160
 71
     5
 42
1369.999999999982
  3
INABA_S40G
100
AcDbAlignedDimension
 13
7081.902964380292
 23
7337.222912203085
 33
0.0
 14
8451.902964380273
 24
7337.222912203213
 34
0.0
100
AcDbRotatedDimension
1001
ACAD
1000
DSTYLE
1002
{
1002
}
  0
DIMENSION
  5
191ED
330
747D
100
AcDbEntity
  8
寸法
100
AcDbDimension
  2
*D28
 10
9099.329310114709
 20
7392.222912203244
 30
0.0
 11
9099.329310114709
 21
8442.222912203254
 31
0.0
 70
   160
  1
5X420=<>
 71
     5
 42
2100.000000000017
  3
INABA_S40G
100
AcDbAlignedDimension
 13
8451.902964380296
 23
9492.222912203262
 33
0.0
 14
8451.902964380273
 24
7392.222912203244
 34
0.0
 50
90.0
100
AcDbRotatedDimension
1001
ACAD
1000
DSTYLE
1002
{
1002
}
  0
DIMENSION
  5
191EE
330
747D
100
AcDbEntity
  8
寸法
100
AcDbDimension
  2
*D29
 10
9099.329310114685
 20
7337.222912203249
 30
0.0
 11
9099.329310114683
 21
6959.361445298388
 31
0.0
 70
   160
 71
     5
 42
54.99999999999545
  3
INABA_S40G
100
AcDbAlignedDimension
 13
8451.902964380273
 23
7392.222912203244
 33
0.0
 14
8451.902964380273
 24
7337.222912203249
 34
0.0
 50
90.0
100
AcDbRotatedDimension
1001
ACAD
1000
DSTYLE
1002
{
1002
}
  0
DIMENSION
  5
191EF
330
747D
100
AcDbEntity
  8
寸法
100
AcDbDimension
  2
*D30
 10
9099.329310114709
 20
9492.222912203262
 30
0.0
 11
9099.329310114709
 21
9855.708193577504
 31
0.0
 70
   160
 71
     5
 42
54.99999999999636
  3
INABA_S40G
100
AcDbAlignedDimension
 13
8451.902964380296
 23
9547.222912203258
 33
0.0
 14
8451.902964380296
 24
9492.222912203262
 34
0.0
 50
90.0
100
AcDbRotatedDimension
1001
ACAD
1000
DSTYLE
1002
{
1002
}
  0
LINE
  5
191F0
330
747D
100
AcDbEntity
  8
部品1
100
AcDbLine
 10
4396.902964380297
 20
9547.22291220316
 30
0.0
 11
4396.902964380297
 21
9519.22291220316
 31
0.0
  0
LINE
  5
191F1
330
747D
100
AcDbEntity
  8
部品1
100
AcDbLine
 10
7556.902964380298
 20
9547.22291220316
 30
0.0
 11
7556.902964380298
 21
9519.22291220316
 31
0.0
  0
LINE
  5
191F2
330
747D
100
AcDbEntity
  8
部品1
100
AcDbLine
 10
7556.902964380298
 20
9547.22291220316
 30
0.0
 11
7556.902964380298
 21
9519.22291220316
 31
0.0
  0
LINE
  5
191F3
330
747D
100
AcDbEntity
  8
部品1
100
AcDbLine
 10
7556.902964380298
 20
9547.222912203277
 30
0.0
 11
7556.902964380298
 21
9519.222912203277
 31
0.0
  0
LINE
  5
191F4
330
747D
100
AcDbEntity
  8
部品1
100
AcDbLine
 10
7976.902964380297
 20
9547.222912203277
 30
0.0
 11
7976.902964380297
 21
9519.222912203277
 31
0.0
  0
LINE
  5
191F5
330
747D
100
AcDbEntity
  8
部品1
100
AcDbLine
 10
8451.902964380296
 20
9547.222912203258
 30
0.0
 11
8451.902964380273
 21
7337.222912203249
 31
0.0
  0
DIMENSION
  5
191F6
330
747D
100
AcDbEntity
  8
寸法
100
AcDbDimension
  2
*D31
 10
9464.436251854344
 20
7337.222912203249
 30
0.0
 11
9464.436251854342
 21
8442.222912203254
 31
0.0
 70
   160
 71
     5
 42
2210.000000000009
  3
INABA_S40G
100
AcDbAlignedDimension
 13
8451.902964380296
 23
9547.222912203258
 33
0.0
 14
8451.902964380273
 24
7337.222912203249
 34
0.0
 50
90.0
100
AcDbRotatedDimension
1001
ACAD
1000
DSTYLE
1002
{
1002
}
  0
LINE
  5
191F7
330
747D
100
AcDbEntity
  8
部品1
100
AcDbLine
 10
8396.902964380299
 20
9547.222912203277
 30
0.0
 11
8396.902964380299
 21
9519.222912203277
 31
0.0
  0
LINE
  5
191F8
330
747D
100
AcDbEntity
  8
部品1
100
AcDbLine
 10
8396.902964380299
 20
9547.222912203258
 30
0.0
 11
8396.902964380299
 21
9519.222912203259
 31
0.0
  0
LINE
  5
191F9
330
747D
100
AcDbEntity
  8
部品1
100
AcDbLine
 10
4341.902964380262
 20
9547.22291220313
 30
0.0
 11
4341.902964380288
 21
7337.22291220312
 31
0.0
  0
DIMENSION
  5
191FA
330
747D
100
AcDbEntity
  8
寸法
100
AcDbDimension
  2
*D32
 10
4396.902964380297
 20
9982.701262149506
 30
0.0
 11
4033.417683006024
 21
9982.701262149506
 31
0.0
 70
   160
 71
     5
 42
55.00000000003365
  3
INABA_S40G
100
AcDbAlignedDimension
 13
4341.902964380262
 23
9547.22291220313
 33
0.0
 14
4396.902964380297
 24
9547.22291220313
 34
0.0
100
AcDbRotatedDimension
1001
ACAD
1000
DSTYLE
1002
{
1002
}
  0
LWPOLYLINE
  5
19484
330
747D
100
AcDbEntity
  8
部品1
 48
50.0
100
AcDbPolyline
 90
        4
 70
     1
 43
0.0
 10
4461.95296438029
 20
3812.435649128417
 10
4464.852964380292
 20
3812.435649128417
 10
4464.852964380292
 20
3821.935649128418
 10
4461.95296438029
 20
3821.935649128418
  0
CIRCLE
  5
19485
330
747D
100
AcDbEntity
  8
部品1
 48
50.0
100
AcDbCircle
 10
4463.402964380292
 20
3817.185649128417
 30
0.0
 40
9.0
  0
ARC
  5
19486
330
747D
100
AcDbEntity
  8
細線
 48
50.0
100
AcDbCircle
 10
4463.402964380292
 20
3817.185649128417
 30
0.0
 40
4.0
100
AcDbArc
 50
111.2538091853132
 51
248.7461908146868
  0
ARC
  5
19487
330
747D
100
AcDbEntity
  8
細線
 48
50.0
100
AcDbCircle
 10
4463.402964380292
 20
3817.185649128417
 30
0.0
 40
17.5
100
AcDbArc
 50
306.4837370612677
 51
233.5162629387323
  0
LINE
  5
19488
330
747D
100
AcDbEntity
  8
細線
 48
50.0
100
AcDbLine
 10
4473.402964380287
 20
3793.326688547534
 30
0.0
 11
4473.402964380291
 21
3802.311174347776
 31
0.0
  0
LINE
  5
19489
330
747D
100
AcDbEntity
  8
細線
 48
50.0
100
AcDbLine
 10
4453.402964380291
 20
3793.326688547536
 30
0.0
 11
4453.402964380291
 21
3802.311174347772
 31
0.0
  0
ARC
  5
1948A
330
747D
100
AcDbEntity
  8
細線
 48
50.0
100
AcDbCircle
 10
4463.402964380292
 20
3817.185649128417
 30
0.0
 40
26.5
100
AcDbArc
 50
249.3326835063939
 51
290.6673164933835
  0
ARC
  5
1948B
330
747D
100
AcDbEntity
  8
細線
 48
50.0
100
AcDbCircle
 10
4472.402964380284
 20
3793.326688547534
 30
0.0
 40
1.0
100
AcDbArc
 50
290.6673164936062
 51
359.9999999998958
  0
ARC
  5
1948C
330
747D
100
AcDbEntity
  8
細線
 48
50.0
100
AcDbCircle
 10
4454.402964380292
 20
3793.326688547536
 30
0.0
 40
1.0
100
AcDbArc
 50
180.0
 51
249.3326835066164
  0
ARC
  5
1948D
330
747D
100
AcDbEntity
  8
細線
 48
50.0
100
AcDbCircle
 10
4452.402964380291
 20
3802.311174347772
 30
0.0
 40
1.0
100
AcDbArc
 50
0.0
 51
53.51626293873231
  0
ARC
  5
1948E
330
747D
100
AcDbEntity
  8
細線
 48
50.0
100
AcDbCircle
 10
4474.402964380295
 20
3802.311174347776
 30
0.0
 40
1.0
100
AcDbArc
 50
126.4837370615127
 51
180.0
  0
ARC
  5
1948F
330
747D
100
AcDbEntity
  8
細線
 48
50.0
100
AcDbCircle
 10
4463.402964380292
 20
3817.185649128417
 30
0.0
 40
21.5
100
AcDbArc
 50
255.8014401250294
 51
284.1985598749706
  0
ARC
  5
19490
330
747D
100
AcDbEntity
  8
細線
 48
50.0
100
AcDbCircle
 10
4463.402964380292
 20
3817.185649128417
 30
0.0
 40
16.5
100
AcDbArc
 50
251.9694646069326
 51
288.0305353930674
  0
LINE
  5
19491
330
747D
100
AcDbEntity
  8
細線
 48
50.0
100
AcDbLine
 10
4468.902964380291
 20
3796.63327700261
 30
0.0
 11
4468.902964380291
 21
3801.210668689947
 31
0.0
  0
LINE
  5
19492
330
747D
100
AcDbEntity
  8
細線
 48
50.0
100
AcDbLine
 10
4457.902964380291
 20
3796.63327700261
 30
0.0
 11
4457.902964380291
 21
3801.210668689945
 31
0.0
  0
ARC
  5
19493
330
747D
100
AcDbEntity
  8
細線
 48
50.0
100
AcDbCircle
 10
4458.202964380294
 20
3801.210668689945
 30
0.0
 40
0.3
100
AcDbArc
 50
71.96946460693259
 51
180.0
  0
ARC
  5
19494
330
747D
100
AcDbEntity
  8
細線
 48
50.0
100
AcDbCircle
 10
4468.602964380292
 20
3801.210668689947
 30
0.0
 40
0.3
100
AcDbArc
 50
0.0
 51
108.0305353930674
  0
ARC
  5
19495
330
747D
100
AcDbEntity
  8
細線
 48
50.0
100
AcDbCircle
 10
4468.602964380289
 20
3796.63327700261
 30
0.0
 40
0.3
100
AcDbArc
 50
284.1985598747622
 51
0.0000000001042204
  0
ARC
  5
19496
330
747D
100
AcDbEntity
  8
細線
 48
50.0
100
AcDbCircle
 10
4458.202964380294
 20
3796.63327700261
 30
0.0
 40
0.3
100
AcDbArc
 50
180.0
 51
255.8014401248081
  0
CIRCLE
  5
19497
330
747D
100
AcDbEntity
  8
細線
 48
50.0
100
AcDbCircle
 10
4463.402964380292
 20
3817.185649128417
 30
0.0
 40
12.0
  0
ARC
  5
19498
330
747D
100
AcDbEntity
  8
部品1
 48
50.0
100
AcDbCircle
 10
4463.402964380292
 20
3867.185649128418
 30
0.0
 40
8.5
100
AcDbArc
 50
114.315739171091
 51
245.684260828909
  0
CIRCLE
  5
19499
330
747D
100
AcDbEntity
  8
細線
 48
50.0
100
AcDbCircle
 10
4463.402964380292
 20
3867.185649128418
 30
0.0
 40
4.5
  0
LWPOLYLINE
  5
1949A
330
747D
100
AcDbEntity
  8
部品1
 48
50.0
100
AcDbPolyline
 90
        2
 70
     0
 43
0.0
 10
4459.902964380291
 20
3885.8604985254
 10
4459.902964380291
 20
3874.931615820833
  0
CIRCLE
  5
1949B
330
747D
100
AcDbEntity
  8
部品1
 48
50.0
100
AcDbCircle
 10
4463.402964380292
 20
3867.185649128418
 30
0.0
 40
19.0
  0
LWPOLYLINE
  5
1949C
330
747D
100
AcDbEntity
  8
部品1
 48
50.0
100
AcDbPolyline
 90
        2
 70
     0
 43
0.0
 10
4459.902964380291
 20
3859.439682436002
 10
4459.902964380291
 20
3848.510799731434
  0
LWPOLYLINE
  5
1949D
330
747D
100
AcDbEntity
  8
部品1
 48
50.0
100
AcDbPolyline
 90
        2
 70
     0
 43
0.0
 10
4466.902964380291
 20
3874.931615820833
 10
4466.902964380291
 20
3885.8604985254
  0
ARC
  5
1949E
330
747D
100
AcDbEntity
  8
部品1
 48
50.0
100
AcDbCircle
 10
4463.402964380292
 20
3867.185649128418
 30
0.0
 40
8.5
100
AcDbArc
 50
294.315739171091
 51
65.68426082890896
  0
LWPOLYLINE
  5
1949F
330
747D
100
AcDbEntity
  8
部品1
 48
50.0
100
AcDbPolyline
 90
        2
 70
     0
 43
0.0
 10
4466.902964380291
 20
3848.510799731434
 10
4466.902964380291
 20
3859.439682436002
  0
ARC
  5
194A0
330
747D
100
AcDbEntity
  8
細線
 48
50.0
100
AcDbCircle
 10
4463.402964380292
 20
3867.185649128418
 30
0.0
 40
16.5
100
AcDbArc
 50
332.0012352654438
 51
27.99876473455621
  0
ARC
  5
194A1
330
747D
100
AcDbEntity
  8
細線
 48
50.0
100
AcDbCircle
 10
4463.402964380292
 20
3867.185649128418
 30
0.0
 40
14.0
100
AcDbArc
 50
326.4074436112986
 51
33.59255638870134
  0
LINE
  5
194A2
330
747D
100
AcDbEntity
  8
細線
 48
50.0
100
AcDbLine
 10
4448.83416209596
 20
3874.931615820833
 30
0.0
 11
4451.741060590602
 21
3874.931615820833
 31
0.0
  0
LINE
  5
194A3
330
747D
100
AcDbEntity
  8
細線
 48
50.0
100
AcDbLine
 10
4448.83416209596
 20
3859.439682436002
 30
0.0
 11
4451.741060590602
 21
3859.439682436002
 31
0.0
  0
LINE
  5
194A4
330
747D
100
AcDbEntity
  8
細線
 48
50.0
100
AcDbLine
 10
4475.06486816998
 20
3874.931615820833
 30
0.0
 11
4477.971766664626
 21
3874.931615820833
 31
0.0
  0
LINE
  5
194A5
330
747D
100
AcDbEntity
  8
細線
 48
50.0
100
AcDbLine
 10
4475.06486816998
 20
3859.439682436002
 30
0.0
 11
4477.971766664626
 21
3859.439682436002
 31
0.0
  0
ARC
  5
194A6
330
747D
100
AcDbEntity
  8
細線
 48
50.0
100
AcDbCircle
 10
4463.402964380292
 20
3867.185649128418
 30
0.0
 40
14.0
100
AcDbArc
 50
146.4074436112986
 51
213.5925563887013
  0
ARC
  5
194A7
330
747D
100
AcDbEntity
  8
細線
 48
50.0
100
AcDbCircle
 10
4463.402964380292
 20
3867.185649128418
 30
0.0
 40
16.5
100
AcDbArc
 50
152.0012352654438
 51
207.9987647345562
  0
ARC
  5
194A8
330
747D
100
AcDbEntity
  8
部品1
 48
50.0
100
AcDbCircle
 10
4436.902964380291
 20
3892.685649128417
 30
0.0
 40
5.0
100
AcDbArc
 50
90.0
 51
180.0
  0
ARC
  5
194A9
330
747D
100
AcDbEntity
  8
部品1
 48
50.0
100
AcDbCircle
 10
4436.902964380291
 20
3781.685649128417
 30
0.0
 40
5.0
100
AcDbArc
 50
180.0
 51
270.0
  0
ARC
  5
194AA
330
747D
100
AcDbEntity
  8
部品1
 48
50.0
100
AcDbCircle
 10
4489.902964380291
 20
3781.685649128417
 30
0.0
 40
5.0
100
AcDbArc
 50
270.0
 51
0.0
  0
ARC
  5
194AB
330
747D
100
AcDbEntity
  8
部品1
 48
50.0
100
AcDbCircle
 10
4489.902964380291
 20
3892.685649128417
 30
0.0
 40
5.0
100
AcDbArc
 50
0.0
 51
90.0
  0
LINE
  5
194AC
330
747D
100
AcDbEntity
  8
部品1
 48
50.0
100
AcDbLine
 10
4431.902964380291
 20
3781.685649128417
 30
0.0
 11
4431.902964380291
 21
3892.685649128417
 31
0.0
  0
LINE
  5
194AD
330
747D
100
AcDbEntity
  8
部品1
 48
50.0
100
AcDbLine
 10
4489.902964380291
 20
3776.685649128417
 30
0.0
 11
4436.902964380291
 21
3776.685649128417
 31
0.0
  0
LINE
  5
194AE
330
747D
100
AcDbEntity
  8
部品1
 48
50.0
100
AcDbLine
 10
4494.902964380291
 20
3892.685649128417
 30
0.0
 11
4494.902964380291
 21
3781.685649128417
 31
0.0
  0
LWPOLYLINE
  5
194DE
330
747D
100
AcDbEntity
  8
部品1
 48
50.0
100
AcDbPolyline
 90
        4
 70
     1
 43
0.0
 10
5831.952964380291
 20
3812.435649128417
 10
5834.852964380292
 20
3812.435649128417
 10
5834.852964380292
 20
3821.935649128418
 10
5831.952964380291
 20
3821.935649128418
  0
CIRCLE
  5
194DF
330
747D
100
AcDbEntity
  8
部品1
 48
50.0
100
AcDbCircle
 10
5833.402964380291
 20
3817.185649128417
 30
0.0
 40
9.0
  0
ARC
  5
194E0
330
747D
100
AcDbEntity
  8
細線
 48
50.0
100
AcDbCircle
 10
5833.402964380291
 20
3817.185649128417
 30
0.0
 40
4.0
100
AcDbArc
 50
111.2538091853132
 51
248.7461908146868
  0
ARC
  5
194E1
330
747D
100
AcDbEntity
  8
細線
 48
50.0
100
AcDbCircle
 10
5833.402964380291
 20
3817.185649128417
 30
0.0
 40
17.5
100
AcDbArc
 50
306.4837370612677
 51
233.5162629387323
  0
LINE
  5
194E2
330
747D
100
AcDbEntity
  8
細線
 48
50.0
100
AcDbLine
 10
5843.402964380288
 20
3793.326688547534
 30
0.0
 11
5843.402964380292
 21
3802.311174347776
 31
0.0
  0
LINE
  5
194E3
330
747D
100
AcDbEntity
  8
細線
 48
50.0
100
AcDbLine
 10
5823.402964380291
 20
3793.326688547536
 30
0.0
 11
5823.402964380291
 21
3802.311174347772
 31
0.0
  0
ARC
  5
194E4
330
747D
100
AcDbEntity
  8
細線
 48
50.0
100
AcDbCircle
 10
5833.402964380291
 20
3817.185649128417
 30
0.0
 40
26.5
100
AcDbArc
 50
249.3326835063939
 51
290.6673164933835
  0
ARC
  5
194E5
330
747D
100
AcDbEntity
  8
細線
 48
50.0
100
AcDbCircle
 10
5842.402964380283
 20
3793.326688547534
 30
0.0
 40
1.0
100
AcDbArc
 50
290.6673164936062
 51
359.9999999998958
  0
ARC
  5
194E6
330
747D
100
AcDbEntity
  8
細線
 48
50.0
100
AcDbCircle
 10
5824.402964380292
 20
3793.326688547536
 30
0.0
 40
1.0
100
AcDbArc
 50
180.0
 51
249.3326835066164
  0
ARC
  5
194E7
330
747D
100
AcDbEntity
  8
細線
 48
50.0
100
AcDbCircle
 10
5822.402964380291
 20
3802.311174347772
 30
0.0
 40
1.0
100
AcDbArc
 50
0.0
 51
53.51626293873231
  0
ARC
  5
194E8
330
747D
100
AcDbEntity
  8
細線
 48
50.0
100
AcDbCircle
 10
5844.402964380295
 20
3802.311174347776
 30
0.0
 40
1.0
100
AcDbArc
 50
126.4837370615127
 51
180.0
  0
ARC
  5
194E9
330
747D
100
AcDbEntity
  8
細線
 48
50.0
100
AcDbCircle
 10
5833.402964380291
 20
3817.185649128417
 30
0.0
 40
21.5
100
AcDbArc
 50
255.8014401250294
 51
284.1985598749706
  0
ARC
  5
194EA
330
747D
100
AcDbEntity
  8
細線
 48
50.0
100
AcDbCircle
 10
5833.402964380291
 20
3817.185649128417
 30
0.0
 40
16.5
100
AcDbArc
 50
251.9694646069326
 51
288.0305353930674
  0
LINE
  5
194EB
330
747D
100
AcDbEntity
  8
細線
 48
50.0
100
AcDbLine
 10
5838.902964380292
 20
3796.63327700261
 30
0.0
 11
5838.902964380292
 21
3801.210668689947
 31
0.0
  0
LINE
  5
194EC
330
747D
100
AcDbEntity
  8
細線
 48
50.0
100
AcDbLine
 10
5827.902964380291
 20
3796.63327700261
 30
0.0
 11
5827.902964380291
 21
3801.210668689945
 31
0.0
  0
ARC
  5
194ED
330
747D
100
AcDbEntity
  8
細線
 48
50.0
100
AcDbCircle
 10
5828.202964380294
 20
3801.210668689945
 30
0.0
 40
0.3
100
AcDbArc
 50
71.96946460693259
 51
180.0
  0
ARC
  5
194EE
330
747D
100
AcDbEntity
  8
細線
 48
50.0
100
AcDbCircle
 10
5838.602964380292
 20
3801.210668689947
 30
0.0
 40
0.3
100
AcDbArc
 50
0.0
 51
108.0305353930674
  0
ARC
  5
194EF
330
747D
100
AcDbEntity
  8
細線
 48
50.0
100
AcDbCircle
 10
5838.602964380289
 20
3796.63327700261
 30
0.0
 40
0.3
100
AcDbArc
 50
284.1985598747622
 51
0.0000000001042204
  0
ARC
  5
194F0
330
747D
100
AcDbEntity
  8
細線
 48
50.0
100
AcDbCircle
 10
5828.202964380294
 20
3796.63327700261
 30
0.0
 40
0.3
100
AcDbArc
 50
180.0
 51
255.8014401248081
  0
CIRCLE
  5
194F1
330
747D
100
AcDbEntity
  8
細線
 48
50.0
100
AcDbCircle
 10
5833.402964380291
 20
3817.185649128417
 30
0.0
 40
12.0
  0
ARC
  5
194F2
330
747D
100
AcDbEntity
  8
部品1
 48
50.0
100
AcDbCircle
 10
5833.402964380291
 20
3867.185649128418
 30
0.0
 40
8.5
100
AcDbArc
 50
114.315739171091
 51
245.684260828909
  0
CIRCLE
  5
194F3
330
747D
100
AcDbEntity
  8
細線
 48
50.0
100
AcDbCircle
 10
5833.402964380291
 20
3867.185649128418
 30
0.0
 40
4.5
  0
LWPOLYLINE
  5
194F4
330
747D
100
AcDbEntity
  8
部品1
 48
50.0
100
AcDbPolyline
 90
        2
 70
     0
 43
0.0
 10
5829.902964380291
 20
3885.8604985254
 10
5829.902964380291
 20
3874.931615820833
  0
CIRCLE
  5
194F5
330
747D
100
AcDbEntity
  8
部品1
 48
50.0
100
AcDbCircle
 10
5833.402964380291
 20
3867.185649128418
 30
0.0
 40
19.0
  0
LWPOLYLINE
  5
194F6
330
747D
100
AcDbEntity
  8
部品1
 48
50.0
100
AcDbPolyline
 90
        2
 70
     0
 43
0.0
 10
5829.902964380291
 20
3859.439682436002
 10
5829.902964380291
 20
3848.510799731434
  0
LWPOLYLINE
  5
194F7
330
747D
100
AcDbEntity
  8
部品1
 48
50.0
100
AcDbPolyline
 90
        2
 70
     0
 43
0.0
 10
5836.902964380292
 20
3874.931615820833
 10
5836.902964380292
 20
3885.8604985254
  0
ARC
  5
194F8
330
747D
100
AcDbEntity
  8
部品1
 48
50.0
100
AcDbCircle
 10
5833.402964380291
 20
3867.185649128418
 30
0.0
 40
8.5
100
AcDbArc
 50
294.315739171091
 51
65.68426082890896
  0
LWPOLYLINE
  5
194F9
330
747D
100
AcDbEntity
  8
部品1
 48
50.0
100
AcDbPolyline
 90
        2
 70
     0
 43
0.0
 10
5836.902964380292
 20
3848.510799731434
 10
5836.902964380292
 20
3859.439682436002
  0
ARC
  5
194FA
330
747D
100
AcDbEntity
  8
細線
 48
50.0
100
AcDbCircle
 10
5833.402964380291
 20
3867.185649128418
 30
0.0
 40
16.5
100
AcDbArc
 50
332.0012352654438
 51
27.99876473455621
  0
ARC
  5
194FB
330
747D
100
AcDbEntity
  8
細線
 48
50.0
100
AcDbCircle
 10
5833.402964380291
 20
3867.185649128418
 30
0.0
 40
14.0
100
AcDbArc
 50
326.4074436112986
 51
33.59255638870134
  0
LINE
  5
194FC
330
747D
100
AcDbEntity
  8
細線
 48
50.0
100
AcDbLine
 10
5818.83416209596
 20
3874.931615820833
 30
0.0
 11
5821.741060590603
 21
3874.931615820833
 31
0.0
  0
LINE
  5
194FD
330
747D
100
AcDbEntity
  8
細線
 48
50.0
100
AcDbLine
 10
5818.83416209596
 20
3859.439682436002
 30
0.0
 11
5821.741060590603
 21
3859.439682436002
 31
0.0
  0
LINE
  5
194FE
330
747D
100
AcDbEntity
  8
細線
 48
50.0
100
AcDbLine
 10
5845.064868169981
 20
3874.931615820833
 30
0.0
 11
5847.971766664627
 21
3874.931615820833
 31
0.0
  0
LINE
  5
194FF
330
747D
100
AcDbEntity
  8
細線
 48
50.0
100
AcDbLine
 10
5845.064868169981
 20
3859.439682436002
 30
0.0
 11
5847.971766664627
 21
3859.439682436002
 31
0.0
  0
ARC
  5
19500
330
747D
100
AcDbEntity
  8
細線
 48
50.0
100
AcDbCircle
 10
5833.402964380291
 20
3867.185649128418
 30
0.0
 40
14.0
100
AcDbArc
 50
146.4074436112986
 51
213.5925563887013
  0
ARC
  5
19501
330
747D
100
AcDbEntity
  8
細線
 48
50.0
100
AcDbCircle
 10
5833.402964380291
 20
3867.185649128418
 30
0.0
 40
16.5
100
AcDbArc
 50
152.0012352654438
 51
207.9987647345562
  0
ARC
  5
19502
330
747D
100
AcDbEntity
  8
部品1
 48
50.0
100
AcDbCircle
 10
5806.902964380292
 20
3892.685649128417
 30
0.0
 40
5.0
100
AcDbArc
 50
90.0
 51
180.0
  0
ARC
  5
19503
330
747D
100
AcDbEntity
  8
部品1
 48
50.0
100
AcDbCircle
 10
5806.902964380292
 20
3781.685649128417
 30
0.0
 40
5.0
100
AcDbArc
 50
180.0
 51
270.0
  0
ARC
  5
19504
330
747D
100
AcDbEntity
  8
部品1
 48
50.0
100
AcDbCircle
 10
5859.902964380292
 20
3781.685649128417
 30
0.0
 40
5.0
100
AcDbArc
 50
270.0
 51
0.0
  0
ARC
  5
19505
330
747D
100
AcDbEntity
  8
部品1
 48
50.0
100
AcDbCircle
 10
5859.902964380292
 20
3892.685649128417
 30
0.0
 40
5.0
100
AcDbArc
 50
0.0
 51
90.0
  0
LINE
  5
19506
330
747D
100
AcDbEntity
  8
部品1
 48
50.0
100
AcDbLine
 10
5801.902964380292
 20
3781.685649128417
 30
0.0
 11
5801.902964380292
 21
3892.685649128417
 31
0.0
  0
LINE
  5
19507
330
747D
100
AcDbEntity
  8
部品1
 48
50.0
100
AcDbLine
 10
5859.902964380292
 20
3776.685649128417
 30
0.0
 11
5806.902964380292
 21
3776.685649128417
 31
0.0
  0
LINE
  5
19508
330
747D
100
AcDbEntity
  8
部品1
 48
50.0
100
AcDbLine
 10
5864.902964380291
 20
3892.685649128417
 30
0.0
 11
5864.902964380291
 21
3781.685649128417
 31
0.0
  0
LWPOLYLINE
  5
19538
330
747D
100
AcDbEntity
  8
部品1
 48
50.0
100
AcDbPolyline
 90
        4
 70
     1
 43
0.0
 10
7201.952964380293
 20
3812.435649128417
 10
7204.852964380293
 20
3812.435649128417
 10
7204.852964380293
 20
3821.935649128418
 10
7201.952964380293
 20
3821.935649128418
  0
CIRCLE
  5
19539
330
747D
100
AcDbEntity
  8
部品1
 48
50.0
100
AcDbCircle
 10
7203.402964380294
 20
3817.185649128417
 30
0.0
 40
9.0
  0
ARC
  5
1953A
330
747D
100
AcDbEntity
  8
細線
 48
50.0
100
AcDbCircle
 10
7203.402964380294
 20
3817.185649128417
 30
0.0
 40
4.0
100
AcDbArc
 50
111.2538091853132
 51
248.7461908146868
  0
ARC
  5
1953B
330
747D
100
AcDbEntity
  8
細線
 48
50.0
100
AcDbCircle
 10
7203.402964380294
 20
3817.185649128417
 30
0.0
 40
17.5
100
AcDbArc
 50
306.4837370612677
 51
233.5162629387323
  0
LINE
  5
1953C
330
747D
100
AcDbEntity
  8
細線
 48
50.0
100
AcDbLine
 10
7213.40296438029
 20
3793.326688547534
 30
0.0
 11
7213.402964380293
 21
3802.311174347776
 31
0.0
  0
LINE
  5
1953D
330
747D
100
AcDbEntity
  8
細線
 48
50.0
100
AcDbLine
 10
7193.402964380293
 20
3793.326688547536
 30
0.0
 11
7193.402964380293
 21
3802.311174347772
 31
0.0
  0
ARC
  5
1953E
330
747D
100
AcDbEntity
  8
細線
 48
50.0
100
AcDbCircle
 10
7203.402964380294
 20
3817.185649128417
 30
0.0
 40
26.5
100
AcDbArc
 50
249.3326835063939
 51
290.6673164933835
  0
ARC
  5
1953F
330
747D
100
AcDbEntity
  8
細線
 48
50.0
100
AcDbCircle
 10
7212.402964380285
 20
3793.326688547534
 30
0.0
 40
1.0
100
AcDbArc
 50
290.6673164936062
 51
359.9999999998958
  0
ARC
  5
19540
330
747D
100
AcDbEntity
  8
細線
 48
50.0
100
AcDbCircle
 10
7194.402964380294
 20
3793.326688547536
 30
0.0
 40
1.0
100
AcDbArc
 50
180.0
 51
249.3326835066164
  0
ARC
  5
19541
330
747D
100
AcDbEntity
  8
細線
 48
50.0
100
AcDbCircle
 10
7192.402964380294
 20
3802.311174347772
 30
0.0
 40
1.0
100
AcDbArc
 50
0.0
 51
53.51626293873231
  0
ARC
  5
19542
330
747D
100
AcDbEntity
  8
細線
 48
50.0
100
AcDbCircle
 10
7214.402964380297
 20
3802.311174347776
 30
0.0
 40
1.0
100
AcDbArc
 50
126.4837370615127
 51
180.0
  0
ARC
  5
19543
330
747D
100
AcDbEntity
  8
細線
 48
50.0
100
AcDbCircle
 10
7203.402964380294
 20
3817.185649128417
 30
0.0
 40
21.5
100
AcDbArc
 50
255.8014401250294
 51
284.1985598749706
  0
ARC
  5
19544
330
747D
100
AcDbEntity
  8
細線
 48
50.0
100
AcDbCircle
 10
7203.402964380294
 20
3817.185649128417
 30
0.0
 40
16.5
100
AcDbArc
 50
251.9694646069326
 51
288.0305353930674
  0
LINE
  5
19545
330
747D
100
AcDbEntity
  8
細線
 48
50.0
100
AcDbLine
 10
7208.902964380293
 20
3796.63327700261
 30
0.0
 11
7208.902964380293
 21
3801.210668689947
 31
0.0
  0
LINE
  5
19546
330
747D
100
AcDbEntity
  8
細線
 48
50.0
100
AcDbLine
 10
7197.902964380293
 20
3796.63327700261
 30
0.0
 11
7197.902964380293
 21
3801.210668689945
 31
0.0
  0
ARC
  5
19547
330
747D
100
AcDbEntity
  8
細線
 48
50.0
100
AcDbCircle
 10
7198.202964380296
 20
3801.210668689945
 30
0.0
 40
0.3
100
AcDbArc
 50
71.96946460693259
 51
180.0
  0
ARC
  5
19548
330
747D
100
AcDbEntity
  8
細線
 48
50.0
100
AcDbCircle
 10
7208.602964380294
 20
3801.210668689947
 30
0.0
 40
0.3
100
AcDbArc
 50
0.0
 51
108.0305353930674
  0
ARC
  5
19549
330
747D
100
AcDbEntity
  8
細線
 48
50.0
100
AcDbCircle
 10
7208.60296438029
 20
3796.63327700261
 30
0.0
 40
0.3
100
AcDbArc
 50
284.1985598747622
 51
0.0000000001042204
  0
ARC
  5
1954A
330
747D
100
AcDbEntity
  8
細線
 48
50.0
100
AcDbCircle
 10
7198.202964380296
 20
3796.63327700261
 30
0.0
 40
0.3
100
AcDbArc
 50
180.0
 51
255.8014401248081
  0
CIRCLE
  5
1954B
330
747D
100
AcDbEntity
  8
細線
 48
50.0
100
AcDbCircle
 10
7203.402964380294
 20
3817.185649128417
 30
0.0
 40
12.0
  0
ARC
  5
1954C
330
747D
100
AcDbEntity
  8
部品1
 48
50.0
100
AcDbCircle
 10
7203.402964380294
 20
3867.185649128418
 30
0.0
 40
8.5
100
AcDbArc
 50
114.315739171091
 51
245.684260828909
  0
CIRCLE
  5
1954D
330
747D
100
AcDbEntity
  8
細線
 48
50.0
100
AcDbCircle
 10
7203.402964380294
 20
3867.185649128418
 30
0.0
 40
4.5
  0
LWPOLYLINE
  5
1954E
330
747D
100
AcDbEntity
  8
部品1
 48
50.0
100
AcDbPolyline
 90
        2
 70
     0
 43
0.0
 10
7199.902964380292
 20
3885.8604985254
 10
7199.902964380292
 20
3874.931615820833
  0
CIRCLE
  5
1954F
330
747D
100
AcDbEntity
  8
部品1
 48
50.0
100
AcDbCircle
 10
7203.402964380294
 20
3867.185649128418
 30
0.0
 40
19.0
  0
LWPOLYLINE
  5
19550
330
747D
100
AcDbEntity
  8
部品1
 48
50.0
100
AcDbPolyline
 90
        2
 70
     0
 43
0.0
 10
7199.902964380292
 20
3859.439682436002
 10
7199.902964380292
 20
3848.510799731434
  0
LWPOLYLINE
  5
19551
330
747D
100
AcDbEntity
  8
部品1
 48
50.0
100
AcDbPolyline
 90
        2
 70
     0
 43
0.0
 10
7206.902964380294
 20
3874.931615820833
 10
7206.902964380294
 20
3885.8604985254
  0
ARC
  5
19552
330
747D
100
AcDbEntity
  8
部品1
 48
50.0
100
AcDbCircle
 10
7203.402964380294
 20
3867.185649128418
 30
0.0
 40
8.5
100
AcDbArc
 50
294.315739171091
 51
65.68426082890896
  0
LWPOLYLINE
  5
19553
330
747D
100
AcDbEntity
  8
部品1
 48
50.0
100
AcDbPolyline
 90
        2
 70
     0
 43
0.0
 10
7206.902964380294
 20
3848.510799731434
 10
7206.902964380294
 20
3859.439682436002
  0
ARC
  5
19554
330
747D
100
AcDbEntity
  8
細線
 48
50.0
100
AcDbCircle
 10
7203.402964380294
 20
3867.185649128418
 30
0.0
 40
16.5
100
AcDbArc
 50
332.0012352654438
 51
27.99876473455621
  0
ARC
  5
19555
330
747D
100
AcDbEntity
  8
細線
 48
50.0
100
AcDbCircle
 10
7203.402964380294
 20
3867.185649128418
 30
0.0
 40
14.0
100
AcDbArc
 50
326.4074436112986
 51
33.59255638870134
  0
LINE
  5
19556
330
747D
100
AcDbEntity
  8
細線
 48
50.0
100
AcDbLine
 10
7188.834162095962
 20
3874.931615820833
 30
0.0
 11
7191.741060590604
 21
3874.931615820833
 31
0.0
  0
LINE
  5
19557
330
747D
100
AcDbEntity
  8
細線
 48
50.0
100
AcDbLine
 10
7188.834162095962
 20
3859.439682436002
 30
0.0
 11
7191.741060590604
 21
3859.439682436002
 31
0.0
  0
LINE
  5
19558
330
747D
100
AcDbEntity
  8
細線
 48
50.0
100
AcDbLine
 10
7215.064868169982
 20
3874.931615820833
 30
0.0
 11
7217.971766664629
 21
3874.931615820833
 31
0.0
  0
LINE
  5
19559
330
747D
100
AcDbEntity
  8
細線
 48
50.0
100
AcDbLine
 10
7215.064868169982
 20
3859.439682436002
 30
0.0
 11
7217.971766664629
 21
3859.439682436002
 31
0.0
  0
ARC
  5
1955A
330
747D
100
AcDbEntity
  8
細線
 48
50.0
100
AcDbCircle
 10
7203.402964380294
 20
3867.185649128418
 30
0.0
 40
14.0
100
AcDbArc
 50
146.4074436112986
 51
213.5925563887013
  0
ARC
  5
1955B
330
747D
100
AcDbEntity
  8
細線
 48
50.0
100
AcDbCircle
 10
7203.402964380294
 20
3867.185649128418
 30
0.0
 40
16.5
100
AcDbArc
 50
152.0012352654438
 51
207.9987647345562
  0
ARC
  5
1955C
330
747D
100
AcDbEntity
  8
部品1
 48
50.0
100
AcDbCircle
 10
7176.902964380293
 20
3892.685649128417
 30
0.0
 40
5.0
100
AcDbArc
 50
90.0
 51
180.0
  0
ARC
  5
1955D
330
747D
100
AcDbEntity
  8
部品1
 48
50.0
100
AcDbCircle
 10
7176.902964380293
 20
3781.685649128417
 30
0.0
 40
5.0
100
AcDbArc
 50
180.0
 51
270.0
  0
ARC
  5
1955E
330
747D
100
AcDbEntity
  8
部品1
 48
50.0
100
AcDbCircle
 10
7229.902964380293
 20
3781.685649128417
 30
0.0
 40
5.0
100
AcDbArc
 50
270.0
 51
0.0
  0
ARC
  5
1955F
330
747D
100
AcDbEntity
  8
部品1
 48
50.0
100
AcDbCircle
 10
7229.902964380293
 20
3892.685649128417
 30
0.0
 40
5.0
100
AcDbArc
 50
0.0
 51
90.0
  0
LINE
  5
19560
330
747D
100
AcDbEntity
  8
部品1
 48
50.0
100
AcDbLine
 10
7171.902964380294
 20
3781.685649128417
 30
0.0
 11
7171.902964380294
 21
3892.685649128417
 31
0.0
  0
LINE
  5
19561
330
747D
100
AcDbEntity
  8
部品1
 48
50.0
100
AcDbLine
 10
7229.902964380293
 20
3776.685649128417
 30
0.0
 11
7176.902964380293
 21
3776.685649128417
 31
0.0
  0
LINE
  5
19562
330
747D
100
AcDbEntity
  8
部品1
 48
50.0
100
AcDbLine
 10
7234.902964380293
 20
3892.685649128417
 30
0.0
 11
7234.902964380293
 21
3781.685649128417
 31
0.0
  0
ENDSEC
  0
SECTION
  2
OBJECTS
  0
DICTIONARY
  5
7471
330
0
100
AcDbDictionary
281
     1
  3
ACAD_COLOR
350
16C2E
  3
ACAD_GROUP
350
7472
  3
ACAD_LAYOUT
350
16C2F
  3
ACAD_MATERIAL
350
16C2D
  3
ACAD_MLINESTYLE
350
7473
  3
ACAD_PLOTSETTINGS
350
16C30
  3
ACAD_PLOTSTYLENAME
350
16C2B
  3
ACDBHEADERROUNDTRIPXREC
350
19571
  3
AcDbVariableDictionary
350
1956D
  3
CONTENTDICTIONARY
350
E71C
  3
DRAWINGVARIABLESDICT
350
F3B9
  0
DICTIONARY
  5
16DD6
330
7467
100
AcDbDictionary
280
     1
281
     1
  3
ACAD_LAYERSTATES
360
16DD7
  0
DICTIONARY
  5
16C2E
102
{ACAD_REACTORS
330
7471
102
}
330
7471
100
AcDbDictionary
281
     1
  0
DICTIONARY
  5
7472
102
{ACAD_REACTORS
330
7471
102
}
330
7471
100
AcDbDictionary
281
     1
  3
*A1
350
18BC3
  3
*A2
350
18BC4
  0
DICTIONARY
  5
16C2F
102
{ACAD_REACTORS
330
7471
102
}
330
7471
100
AcDbDictionary
281
     1
  3
Model
350
16C31
  3
レイアウト1
350
16C32
  0
DICTIONARY
  5
16C2D
102
{ACAD_REACTORS
330
7471
102
}
330
7471
100
AcDbDictionary
281
     1
  0
DICTIONARY
  5
7473
102
{ACAD_REACTORS
330
7471
102
}
330
7471
100
AcDbDictionary
281
     1
  3
STANDARD
350
7480
  0
DICTIONARY
  5
16C30
102
{ACAD_REACTORS
330
7471
102
}
330
7471
100
AcDbDictionary
281
     1
  0
ACDBDICTIONARYWDFLT
  5
16C2B
102
{ACAD_REACTORS
330
7471
102
}
330
7471
100
AcDbDictionary
281
     1
  3
Normal
350
16C2C
100
AcDbDictionaryWithDefault
340
16C2C
  0
DICTIONARY
  5
19571
102
{ACAD_REACTORS
330
7471
102
}
330
7471
100
AcDbDictionary
281
     1
  3
COLORDICT
350
19573
  3
MATERIALDICT
350
19572
  0
DICTIONARY
  5
1956D
102
{ACAD_REACTORS
330
7471
102
}
330
7471
100
AcDbDictionary
281
     1
  3
DIMASSOC
350
1956E
  3
PROJECTNAME
350
1956F
  0
DICTIONARY
  5
E71C
102
{ACAD_REACTORS
330
7471
102
}
330
7471
100
AcDbDictionary
281
     1
  0
DICTIONARY
  5
F3B9
102
{ACAD_REACTORS
330
7471
102
}
330
7471
100
AcDbDictionary
281
     1
1001
DRAWINGVARIABLESXDATA
1000
POLARMODE
1000
1
  0
DICTIONARY
  5
16DD7
102
{ACAD_REACTORS
330
16DD6
102
}
330
16DD6
100
AcDbDictionary
281
     1
  0
GROUP
  5
18BC3
102
{ACAD_REACTORS
330
7472
102
}
330
7472
100
AcDbGroup
300

 70
     1
 71
     1
  0
GROUP
  5
18BC4
102
{ACAD_REACTORS
330
7472
102
}
330
7472
100
AcDbGroup
300

 70
     1
 71
     1
  0
LAYOUT
  5
16C31
102
{ACAD_XDICTIONARY
360
19574
102
}
102
{ACAD_REACTORS
330
16C2F
102
}
330
16C2F
100
AcDbPlotSettings
  1

  2
EPSON LP-7000C
  4

  6

 40
0.0
 41
0.0
 42
0.0
 43
0.0
 44
0.0
 45
0.0
 46
0.0
 47
0.0
 48
0.0
 49
0.0
140
0.0
141
0.0
142
1.0
143
1.0
 70
  1712
 72
     0
 73
     0
 74
     0
  7

 75
     0
147
1.0
148
0.0
149
0.0
100
AcDbLayout
  1
Model
 70
     1
 71
     0
 10
0.0
 20
0.0
 11
12.0
 21
9.0
 12
0.0
 22
0.0
 32
0.0
 14
0.0
 24
0.0
 34
0.0
 15
0.0
 25
0.0
 35
0.0
146
0.0
 13
0.0
 23
0.0
 33
0.0
 16
1.0
 26
0.0
 36
0.0
 17
0.0
 27
1.0
 37
0.0
 76
     0
330
747D
  0
LAYOUT
  5
16C32
102
{ACAD_XDICTIONARY
360
19576
102
}
102
{ACAD_REACTORS
330
16C2F
102
}
330
16C2F
100
AcDbPlotSettings
  1

  2
EPSON LP-7000C
  4

  6

 40
0.0
 41
0.0
 42
0.0
 43
0.0
 44
0.0
 45
0.0
 46
0.0
 47
0.0
 48
0.0
 49
0.0
140
0.0
141
0.0
142
1.0
143
1.0
 70
   688
 72
     0
 73
     0
 74
     5
  7

 75
    16
147
1.0
148
0.0
149
0.0
100
AcDbLayout
  1
レイアウト1
 70
     0
 71
     1
 10
0.0
 20
0.0
 11
420.0
 21
297.0
 12
0.0
 22
0.0
 32
0.0
 14
1.000000000000000E+20
 24
1.000000000000000E+20
 34
1.000000000000000E+20
 15
-1.000000000000000E+20
 25
-1.000000000000000E+20
 35
-1.000000000000000E+20
146
0.0
 13
0.0
 23
0.0
 33
0.0
 16
1.0
 26
0.0
 36
0.0
 17
0.0
 27
1.0
 37
0.0
 76
     0
330
747A
  0
MLINESTYLE
  5
7480
102
{ACAD_REACTORS
330
7473
102
}
330
7473
100
AcDbMlineStyle
  2
STANDARD
 70
     0
  3

 62
     0
 51
90.0
 52
90.0
 71
     2
 49
0.5
 62
   256
  6
BYLAYER
 49
-0.5
 62
   256
  6
BYLAYER
  0
ACDBPLACEHOLDER
  5
16C2C
102
{ACAD_REACTORS
330
16C2B
102
}
330
16C2B
  0
XRECORD
  5
19573
102
{ACAD_REACTORS
330
19571
102
}
330
19571
100
AcDbXrecord
280
     1
340
16C2E
  0
XRECORD
  5
19572
102
{ACAD_REACTORS
330
19571
102
}
330
19571
100
AcDbXrecord
280
     1
340
16C2D
  0
DICTIONARYVAR
  5
1956E
102
{ACAD_REACTORS
330
1956D
102
}
330
1956D
100
DictionaryVariables
280
     0
  1
1
  0
DICTIONARYVAR
  5
1956F
102
{ACAD_REACTORS
330
1956D
102
}
330
1956D
100
DictionaryVariables
280
     0
  1

  0
DICTIONARY
  5
19574
330
16C31
100
AcDbDictionary
280
     1
281
     1
  3
ACAD_XREC_ROUNDTRIP
360
19575
  0
DICTIONARY
  5
19576
330
16C32
100
AcDbDictionary
280
     1
281
     1
  3
ACAD_XREC_ROUNDTRIP
360
19577
  0
XRECORD
  5
19575
102
{ACAD_REACTORS
330
19574
102
}
330
19574
100
AcDbXrecord
280
     1
102
SHADEPLOT
 70
     0
102
SHADEPLOTRESLEVEL
 70
     2
102
SHADEPLOTCUSTOMDPI
 70
   300
  0
XRECORD
  5
19577
102
{ACAD_REACTORS
330
19576
102
}
330
19576
100
AcDbXrecord
280
     1
102
SHADEPLOT
 70
     0
102
SHADEPLOTRESLEVEL
 70
     2
102
SHADEPLOTCUSTOMDPI
 70
   300
  0
ENDSEC
  0
EOF
