  0
SECTION
  2
HEADER
  9
$ACADVER
  1
AC1015
  9
$ACADMAINTVER
 70
    20
  9
$DWGCODEPAGE
  3
ANSI_932
  9
$INSBASE
 10
0.0
 20
0.0
 30
0.0
  9
$EXTMIN
 10
139.9999999999995
 20
-0.0000000000000909
 30
0.0
  9
$EXTMAX
 10
16307.2
 20
11409.6
 30
0.0
  9
$LIMMIN
 10
0.0
 20
0.0
  9
$LIMMAX
 10
16800.0
 20
11880.0
  9
$ORTHOMODE
 70
     0
  9
$REGENMODE
 70
     1
  9
$FILLMODE
 70
     1
  9
$QTEXTMODE
 70
     0
  9
$MIRRTEXT
 70
     1
  9
$LTSCALE
 40
20.0
  9
$ATTMODE
 70
     1
  9
$TEXTSIZE
 40
120.0
  9
$TRACEWID
 40
1.0
  9
$TEXTSTYLE
  7
STYLE1
  9
$CLAYER
  8
部品1
  9
$CELTYPE
  6
BYLAYER
  9
$CECOLOR
 62
   256
  9
$CELTSCALE
 40
50.0
  9
$DISPSILH
 70
     0
  9
$DIMSCALE
 40
40.0
  9
$DIMASZ
 40
2.5
  9
$DIMEXO
 40
0.5
  9
$DIMDLI
 40
7.0
  9
$DIMRND
 40
0.0
  9
$DIMDLE
 40
0.0
  9
$DIMEXE
 40
1.5
  9
$DIMTP
 40
0.0
  9
$DIMTM
 40
0.0
  9
$DIMTXT
 40
3.0
  9
$DIMCEN
 40
0.0
  9
$DIMTSZ
 40
0.0
  9
$DIMTOL
 70
     0
  9
$DIMLIM
 70
     0
  9
$DIMTIH
 70
     0
  9
$DIMTOH
 70
     0
  9
$DIMSE1
 70
     0
  9
$DIMSE2
 70
     0
  9
$DIMTAD
 70
     3
  9
$DIMZIN
 70
     8
  9
$DIMBLK
  1

  9
$DIMASO
 70
     1
  9
$DIMSHO
 70
     1
  9
$DIMPOST
  1

  9
$DIMAPOST
  1

  9
$DIMALT
 70
     0
  9
$DIMALTD
 70
     2
  9
$DIMALTF
 40
0.0394
  9
$DIMLFAC
 40
1.0
  9
$DIMTOFL
 70
     1
  9
$DIMTVP
 40
0.0
  9
$DIMTIX
 70
     1
  9
$DIMSOXD
 70
     0
  9
$DIMSAH
 70
     1
  9
$DIMBLK1
  1
DOTSMALL
  9
$DIMBLK2
  1
DOTSMALL
  9
$DIMSTYLE
  2
INABA_S40G
  9
$DIMCLRD
 70
     0
  9
$DIMCLRE
 70
     0
  9
$DIMCLRT
 70
     7
  9
$DIMTFAC
 40
1.0
  9
$DIMGAP
 40
1.0
  9
$DIMJUST
 70
     0
  9
$DIMSD1
 70
     0
  9
$DIMSD2
 70
     0
  9
$DIMTOLJ
 70
     1
  9
$DIMTZIN
 70
     0
  9
$DIMALTZ
 70
     0
  9
$DIMALTTZ
 70
     0
  9
$DIMUPT
 70
     1
  9
$DIMDEC
 70
     1
  9
$DIMTDEC
 70
     4
  9
$DIMALTU
 70
     2
  9
$DIMALTTD
 70
     2
  9
$DIMTXSTY
  7
STYLE1
  9
$DIMAUNIT
 70
     0
  9
$DIMADEC
 70
     0
  9
$DIMALTRND
 40
0.0
  9
$DIMAZIN
 70
     0
  9
$DIMDSEP
 70
    46
  9
$DIMATFIT
 70
     3
  9
$DIMFRAC
 70
     0
  9
$DIMLDRBLK
  1

  9
$DIMLUNIT
 70
     2
  9
$DIMLWD
 70
    -2
  9
$DIMLWE
 70
    -2
  9
$DIMTMOVE
 70
     0
  9
$LUNITS
 70
     2
  9
$LUPREC
 70
     1
  9
$SKETCHINC
 40
1.0
  9
$FILLETRAD
 40
3.0
  9
$AUNITS
 70
     0
  9
$AUPREC
 70
     0
  9
$MENU
  1
acad
  9
$ELEVATION
 40
0.0
  9
$PELEVATION
 40
0.0
  9
$THICKNESS
 40
0.0
  9
$LIMCHECK
 70
     0
  9
$CHAMFERA
 40
0.0
  9
$CHAMFERB
 40
0.0
  9
$CHAMFERC
 40
0.0
  9
$CHAMFERD
 40
0.0
  9
$SKPOLY
 70
     0
  9
$TDCREATE
 40
2451368.612993866
  9
$TDUCREATE
 40
2451368.237993866
  9
$TDUPDATE
 40
2455575.688120116
  9
$TDUUPDATE
 40
2455575.313120116
  9
$TDINDWG
 40
0.5266836458
  9
$TDUSRTIMER
 40
0.5266836458
  9
$USRTIMER
 70
     1
  9
$ANGBASE
 50
0.0
  9
$ANGDIR
 70
     0
  9
$PDMODE
 70
     3
  9
$PDSIZE
 40
2.0
  9
$PLINEWID
 40
0.0
  9
$SPLFRAME
 70
     0
  9
$SPLINETYPE
 70
     6
  9
$SPLINESEGS
 70
     8
  9
$HANDSEED
  5
17BA3
  9
$SURFTAB1
 70
     6
  9
$SURFTAB2
 70
     6
  9
$SURFTYPE
 70
     6
  9
$SURFU
 70
     6
  9
$SURFV
 70
     6
  9
$UCSBASE
  2

  9
$UCSNAME
  2

  9
$UCSORG
 10
0.0
 20
0.0
 30
0.0
  9
$UCSXDIR
 10
1.0
 20
0.0
 30
0.0
  9
$UCSYDIR
 10
0.0
 20
1.0
 30
0.0
  9
$UCSORTHOREF
  2

  9
$UCSORTHOVIEW
 70
     0
  9
$UCSORGTOP
 10
0.0
 20
0.0
 30
0.0
  9
$UCSORGBOTTOM
 10
0.0
 20
0.0
 30
0.0
  9
$UCSORGLEFT
 10
0.0
 20
0.0
 30
0.0
  9
$UCSORGRIGHT
 10
0.0
 20
0.0
 30
0.0
  9
$UCSORGFRONT
 10
0.0
 20
0.0
 30
0.0
  9
$UCSORGBACK
 10
0.0
 20
0.0
 30
0.0
  9
$PUCSBASE
  2

  9
$PUCSNAME
  2

  9
$PUCSORG
 10
0.0
 20
0.0
 30
0.0
  9
$PUCSXDIR
 10
1.0
 20
0.0
 30
0.0
  9
$PUCSYDIR
 10
0.0
 20
1.0
 30
0.0
  9
$PUCSORTHOREF
  2

  9
$PUCSORTHOVIEW
 70
     0
  9
$PUCSORGTOP
 10
0.0
 20
0.0
 30
0.0
  9
$PUCSORGBOTTOM
 10
0.0
 20
0.0
 30
0.0
  9
$PUCSORGLEFT
 10
0.0
 20
0.0
 30
0.0
  9
$PUCSORGRIGHT
 10
0.0
 20
0.0
 30
0.0
  9
$PUCSORGFRONT
 10
0.0
 20
0.0
 30
0.0
  9
$PUCSORGBACK
 10
0.0
 20
0.0
 30
0.0
  9
$USERI1
 70
     0
  9
$USERI2
 70
     0
  9
$USERI3
 70
     0
  9
$USERI4
 70
     0
  9
$USERI5
 70
     0
  9
$USERR1
 40
0.0
  9
$USERR2
 40
0.0
  9
$USERR3
 40
0.0
  9
$USERR4
 40
0.0
  9
$USERR5
 40
0.0
  9
$WORLDVIEW
 70
     1
  9
$SHADEDGE
 70
     3
  9
$SHADEDIF
 70
    70
  9
$TILEMODE
 70
     1
  9
$MAXACTVP
 70
    16
  9
$PINSBASE
 10
0.0
 20
0.0
 30
0.0
  9
$PLIMCHECK
 70
     0
  9
$PEXTMIN
 10
1.000000000000000E+20
 20
1.000000000000000E+20
 30
1.000000000000000E+20
  9
$PEXTMAX
 10
-1.000000000000000E+20
 20
-1.000000000000000E+20
 30
-1.000000000000000E+20
  9
$PLIMMIN
 10
0.0
 20
0.0
  9
$PLIMMAX
 10
420.0
 20
297.0
  9
$UNITMODE
 70
     0
  9
$VISRETAIN
 70
     0
  9
$PLINEGEN
 70
     0
  9
$PSLTSCALE
 70
     0
  9
$TREEDEPTH
 70
  3020
  9
$CMLSTYLE
  2
STANDARD
  9
$CMLJUST
 70
     0
  9
$CMLSCALE
 40
1.0
  9
$PROXYGRAPHICS
 70
     1
  9
$MEASUREMENT
 70
     1
  9
$CELWEIGHT
370
    -1
  9
$ENDCAPS
280
     0
  9
$JOINSTYLE
280
     0
  9
$LWDISPLAY
290
     0
  9
$INSUNITS
 70
     0
  9
$HYPERLINKBASE
  1

  9
$STYLESHEET
  1
inaba.ctb
  9
$XEDIT
290
     1
  9
$CEPSNTYPE
380
     0
  9
$PSTYLEMODE
290
     1
  9
$FINGERPRINTGUID
  2
{72F69685-365F-43D5-AE0B-259D91CAC93A}
  9
$VERSIONGUID
  2
{CE7FFF0B-E2FB-41B0-83FB-44E16A0ABD8A}
  9
$EXTNAMES
290
     1
  9
$PSVPSCALE
 40
0.0
  9
$OLESTARTUP
290
     0
  0
ENDSEC
  0
SECTION
  2
CLASSES
  0
CLASS
  1
ACDBDICTIONARYWDFLT
  2
AcDbDictionaryWithDefault
  3
ObjectDBX Classes
 90
        0
280
     0
281
     0
  0
CLASS
  1
DICTIONARYVAR
  2
AcDbDictionaryVar
  3
ObjectDBX Classes
 90
        0
280
     0
281
     0
  0
CLASS
  1
ACDBPLACEHOLDER
  2
AcDbPlaceHolder
  3
ObjectDBX Classes
 90
        0
280
     0
281
     0
  0
CLASS
  1
LAYOUT
  2
AcDbLayout
  3
ObjectDBX Classes
 90
        0
280
     0
281
     0
  0
ENDSEC
  0
SECTION
  2
TABLES
  0
TABLE
  2
VPORT
  5
746D
330
0
100
AcDbSymbolTable
 70
     2
  0
VPORT
  5
17B9B
330
746D
100
AcDbSymbolTableRecord
100
AcDbViewportTableRecord
  2
*Active
 70
     0
 10
0.0
 20
0.0
 11
1.0
 21
1.0
 12
8223.761025238502
 22
6348.525918076607
 13
0.0
 23
0.0
 14
10.0
 24
10.0
 15
10.0
 25
10.0
 16
0.0
 26
0.0
 36
1.0
 17
0.0
 27
0.0
 37
0.0
 40
12806.01723355523
 41
1.525925925925925
 42
50.0
 43
0.0
 44
0.0
 50
0.0
 51
0.0
 71
     0
 72
     0
 73
     1
 74
     0
 75
     0
 76
     0
 77
     0
 78
     0
281
     0
 65
     1
110
0.0
120
0.0
130
0.0
111
1.0
121
0.0
131
0.0
112
0.0
122
1.0
132
0.0
 79
     0
146
0.0
  0
ENDTAB
  0
TABLE
  2
LTYPE
  5
746A
330
0
100
AcDbSymbolTable
 70
     4
  0
LTYPE
  5
7477
330
746A
100
AcDbSymbolTableRecord
100
AcDbLinetypeTableRecord
  2
BYBLOCK
 70
     0
  3

 72
    65
 73
     0
 40
0.0
  0
LTYPE
  5
7478
330
746A
100
AcDbSymbolTableRecord
100
AcDbLinetypeTableRecord
  2
BYLAYER
 70
     0
  3

 72
    65
 73
     0
 40
0.0
  0
LTYPE
  5
7479
330
746A
100
AcDbSymbolTableRecord
100
AcDbLinetypeTableRecord
  2
CONTINUOUS
 70
     0
  3
Solid line
 72
    65
 73
     0
 40
0.0
  0
LTYPE
  5
7816
330
746A
100
AcDbSymbolTableRecord
100
AcDbLinetypeTableRecord
  2
CENTER
 70
     0
  3
____ _ ____ _ ____ _ ____ _ ____ _ ____ _ ____ 
 72
    65
 73
     4
 40
2.0
 49
1.25
 74
     0
 49
-0.25
 74
     0
 49
0.25
 74
     0
 49
-0.25
 74
     0
  0
LTYPE
  5
781A
330
746A
100
AcDbSymbolTableRecord
100
AcDbLinetypeTableRecord
  2
HIDDEN
 70
     0
  3
__ __ __ __ __ __ __ __ __ __ __ __ __ __ __ __
 72
    65
 73
     2
 40
0.375
 49
0.25
 74
     0
 49
-0.125
 74
     0
  0
LTYPE
  5
781B
330
746A
100
AcDbSymbolTableRecord
100
AcDbLinetypeTableRecord
  2
PHANTOM
 70
     0
  3
______  __  __  ______  __  __  ______  __  __ 
 72
    65
 73
     6
 40
2.5
 49
1.25
 74
     0
 49
-0.25
 74
     0
 49
0.25
 74
     0
 49
-0.25
 74
     0
 49
0.25
 74
     0
 49
-0.25
 74
     0
  0
ENDTAB
  0
TABLE
  2
LAYER
  5
7467
102
{ACAD_XDICTIONARY
360
1637A
102
}
330
0
100
AcDbSymbolTable
 70
    12
  0
LAYER
  5
7474
330
7467
100
AcDbSymbolTableRecord
100
AcDbLayerTableRecord
  2
0
 70
     0
 62
     7
  6
CONTINUOUS
370
    -3
390
161DC
  0
LAYER
  5
DEB2
330
7467
100
AcDbSymbolTableRecord
100
AcDbLayerTableRecord
  2
センター
 70
     0
 62
     3
  6
CENTER
370
    -3
390
161DC
  0
LAYER
  5
DEB3
330
7467
100
AcDbSymbolTableRecord
100
AcDbLayerTableRecord
  2
寸法
 70
     0
 62
     4
  6
CONTINUOUS
370
    -3
390
161DC
  0
LAYER
  5
DEB4
330
7467
100
AcDbSymbolTableRecord
100
AcDbLayerTableRecord
  2
部品1
 70
     0
 62
     7
  6
CONTINUOUS
370
    -3
390
161DC
  0
LAYER
  5
DEB5
330
7467
100
AcDbSymbolTableRecord
100
AcDbLayerTableRecord
  2
補助
 70
     0
 62
    -1
  6
CONTINUOUS
370
    -3
390
161DC
  0
LAYER
  5
DEB6
330
7467
100
AcDbSymbolTableRecord
100
AcDbLayerTableRecord
  2
文字
 70
     0
 62
     7
  6
CONTINUOUS
370
    -3
390
161DC
  0
LAYER
  5
F255
330
7467
100
AcDbSymbolTableRecord
100
AcDbLayerTableRecord
  2
DEFPOINTS
 70
     0
 62
     7
  6
CONTINUOUS
290
     0
370
    -3
390
161DC
  0
LAYER
  5
10B54
330
7467
100
AcDbSymbolTableRecord
100
AcDbLayerTableRecord
  2
仕様書枠
 70
     0
 62
   230
  6
CONTINUOUS
370
    -3
390
161DC
  0
LAYER
  5
11729
330
7467
100
AcDbSymbolTableRecord
100
AcDbLayerTableRecord
  2
Ｇ．Ｌ
 70
     0
 62
    30
  6
CONTINUOUS
370
    -3
390
161DC
  0
LAYER
  5
1173F
330
7467
100
AcDbSymbolTableRecord
100
AcDbLayerTableRecord
  2
細線
 70
     0
 62
     5
  6
CONTINUOUS
370
    -3
390
161DC
  0
LAYER
  5
12CC4
330
7467
100
AcDbSymbolTableRecord
100
AcDbLayerTableRecord
  2
想像線
 70
     0
 62
     6
  6
PHANTOM
370
    -3
390
161DC
  0
LAYER
  5
142E2
330
7467
100
AcDbSymbolTableRecord
100
AcDbLayerTableRecord
  2
破線
 70
     0
 62
     2
  6
HIDDEN
370
    -3
390
161DC
  0
ENDTAB
  0
TABLE
  2
STYLE
  5
7468
330
0
100
AcDbSymbolTable
 70
     5
  0
STYLE
  5
7475
330
7468
100
AcDbSymbolTableRecord
100
AcDbTextStyleTableRecord
  2
STANDARD
 70
     0
 40
0.0
 41
1.0
 50
0.0
 71
     0
 42
4.0
  3
txt
  4
C:\AutoCAD LT\bigfont.shx
  0
STYLE
  5
763C
330
7468
100
AcDbSymbolTableRecord
100
AcDbTextStyleTableRecord
  2
MSMINCHO
 70
     0
 40
0.0
 41
1.0
 50
0.0
 71
     0
 42
1.199999999999999
  3
C:\AutoCAD LT\msminch2.TTF
  4

  0
STYLE
  5
F706
330
7468
100
AcDbSymbolTableRecord
100
AcDbTextStyleTableRecord
  2
STYLE1
 70
     0
 40
0.0
 41
1.0
 50
0.0
 71
     0
 42
120.0
  3
isocp.shx
  4
bigfont.shx
  0
STYLE
  5
103BF
330
7468
100
AcDbSymbolTableRecord
100
AcDbTextStyleTableRecord
  2
STYLE2
 70
     0
 40
0.0
 41
1.0
 50
0.0
 71
     0
 42
100.0
  3
MS PGothic.ttf
  4

1001
ACAD
1000
MS PGothic
1071
    32818
  0
STYLE
  5
10BAA
330
7468
100
AcDbSymbolTableRecord
100
AcDbTextStyleTableRecord
  2
STYLE3
 70
     0
 40
0.0
 41
1.0
 50
0.0
 71
     0
 42
100.0
  3

  4

1001
ACAD
1000
DFPGothic-EB
1071
    32818
  0
ENDTAB
  0
TABLE
  2
VIEW
  5
746B
330
0
100
AcDbSymbolTable
 70
     0
  0
ENDTAB
  0
TABLE
  2
UCS
  5
746C
330
0
100
AcDbSymbolTable
 70
     0
  0
ENDTAB
  0
TABLE
  2
APPID
  5
746E
330
0
100
AcDbSymbolTable
 70
     6
  0
APPID
  5
7476
330
746E
100
AcDbSymbolTableRecord
100
AcDbRegAppTableRecord
  2
ACAD
 70
     0
  0
APPID
  5
DEA9
330
746E
100
AcDbSymbolTableRecord
100
AcDbRegAppTableRecord
  2
CONTENTBLOCKICON
 70
     0
  0
APPID
  5
DEAA
330
746E
100
AcDbSymbolTableRecord
100
AcDbRegAppTableRecord
  2
CONTENTBLOCKDESCRIPTION
 70
     0
  0
APPID
  5
E71D
330
746E
100
AcDbSymbolTableRecord
100
AcDbRegAppTableRecord
  2
CONTENTTABDATA
 70
     0
  0
APPID
  5
E71E
330
746E
100
AcDbSymbolTableRecord
100
AcDbRegAppTableRecord
  2
CONTENTCURRENTTAB
 70
     0
  0
APPID
  5
F3BA
330
746E
100
AcDbSymbolTableRecord
100
AcDbRegAppTableRecord
  2
DRAWINGVARIABLESXDATA
 70
     0
  0
ENDTAB
  0
TABLE
  2
DIMSTYLE
  5
746F
330
0
100
AcDbSymbolTable
 70
     4
100
AcDbDimStyleTable
 71
     0
  0
DIMSTYLE
105
7484
330
746F
100
AcDbSymbolTableRecord
100
AcDbDimStyleTableRecord
  2
JIS
 70
     0
 41
2.5
 42
1.0
 43
7.0
 44
1.0
 73
     0
 74
     0
 77
     1
 78
     8
140
2.5
141
0.0
143
0.0394
147
0.0
172
     1
174
     1
175
     1
340
7475
  0
DIMSTYLE
105
F236
330
746F
100
AcDbSymbolTableRecord
100
AcDbDimStyleTableRecord
  2
INABA_S40
 70
     0
 40
40.0
 41
2.5
 42
0.5
 43
7.0
 44
1.5
 73
     0
 74
     0
 77
     3
 78
     8
140
3.0
141
0.0
143
0.0394
147
1.0
172
     1
173
     1
174
     1
175
     1
178
     7
289
     0
340
7475
341
DEAC
343
DEAC
344
DEAC
  0
DIMSTYLE
105
F71F
102
{ACAD_REACTORS
330
1540B
330
15633
330
1568E
330
15727
330
15735
330
1603B
330
1603C
330
14521
330
14526
330
1452E
330
14530
330
14531
330
14532
330
14587
330
14589
330
168DF
330
168E4
330
168E5
330
168E6
330
16FB2
330
17024
330
1708C
330
17334
330
17335
330
17336
330
17338
330
1733C
330
1733F
330
17340
330
17341
330
17382
330
17397
102
}
330
746F
100
AcDbSymbolTableRecord
100
AcDbDimStyleTableRecord
  2
INABA_S40G
 70
     0
 40
40.0
 41
2.5
 42
0.5
 43
7.0
 44
1.5
 73
     0
 74
     0
 77
     3
 78
     8
140
3.0
141
0.0
143
0.0394
147
1.0
172
     1
173
     1
174
     1
178
     7
271
     1
288
     1
340
F706
341
F770
343
F770
344
F770
  0
DIMSTYLE
105
17A7F
330
746F
100
AcDbSymbolTableRecord
100
AcDbDimStyleTableRecord
  2
INABA_S20G
 70
     0
 40
20.0
 41
2.5
 42
0.5
 43
7.0
 44
1.5
 73
     0
 74
     0
 77
     3
 78
     8
140
3.0
141
0.0
143
0.0394
147
1.0
172
     1
173
     1
174
     1
178
     7
271
     1
340
F706
341
F770
343
F770
344
F770
  0
ENDTAB
  0
TABLE
  2
BLOCK_RECORD
  5
7466
330
0
100
AcDbSymbolTable
 70
    35
  0
BLOCK_RECORD
  5
747D
330
7466
100
AcDbSymbolTableRecord
100
AcDbBlockTableRecord
  2
*MODEL_SPACE
340
161E1
  0
BLOCK_RECORD
  5
747A
330
7466
100
AcDbSymbolTableRecord
100
AcDbBlockTableRecord
  2
*PAPER_SPACE
340
161E2
  0
BLOCK_RECORD
  5
DEAC
330
7466
100
AcDbSymbolTableRecord
100
AcDbBlockTableRecord
  2
_OPEN
340
0
  0
BLOCK_RECORD
  5
F770
330
7466
100
AcDbSymbolTableRecord
100
AcDbBlockTableRecord
  2
_DOTSMALL
340
0
102
{BLKREFS
331
1580D
331
1580E
331
15818
331
15819
331
17923
331
17924
331
1792C
331
1792D
331
17935
331
17936
331
1793E
331
1793F
331
17947
331
17948
331
17950
331
17951
331
17959
331
1795A
331
17962
331
17963
331
1796B
331
1796C
331
17974
331
17975
331
1797D
331
1797E
331
17988
331
17989
331
17991
331
17992
331
1799A
331
1799B
331
179A5
331
179A6
331
179B0
331
179B1
331
179B9
331
179BA
331
179C4
331
179C5
331
179DD
331
179DE
331
179E7
331
179E8
331
179F0
331
179F1
331
179FB
331
179FC
331
17A04
331
17A05
331
17A0D
331
17A0E
331
17A18
331
17A19
331
17A21
331
17A22
331
17A2A
331
17A2B
331
17A33
331
17A34
331
17A3E
331
17A3F
331
17A47
331
17A48
331
17A50
331
17A51
331
17A5B
331
17A5C
102
}
  0
BLOCK_RECORD
  5
1458A
330
7466
100
AcDbSymbolTableRecord
100
AcDbBlockTableRecord
  2
*D2
340
0
  0
BLOCK_RECORD
  5
14598
330
7466
100
AcDbSymbolTableRecord
100
AcDbBlockTableRecord
  2
*D3
340
0
  0
BLOCK_RECORD
  5
145A4
330
7466
100
AcDbSymbolTableRecord
100
AcDbBlockTableRecord
  2
*D4
340
0
  0
BLOCK_RECORD
  5
145BE
330
7466
100
AcDbSymbolTableRecord
100
AcDbBlockTableRecord
  2
*D5
340
0
  0
BLOCK_RECORD
  5
145CC
330
7466
100
AcDbSymbolTableRecord
100
AcDbBlockTableRecord
  2
*D6
340
0
  0
BLOCK_RECORD
  5
145D8
330
7466
100
AcDbSymbolTableRecord
100
AcDbBlockTableRecord
  2
*D7
340
0
  0
BLOCK_RECORD
  5
14608
330
7466
100
AcDbSymbolTableRecord
100
AcDbBlockTableRecord
  2
*D8
340
0
  0
BLOCK_RECORD
  5
14616
330
7466
100
AcDbSymbolTableRecord
100
AcDbBlockTableRecord
  2
*D9
340
0
  0
BLOCK_RECORD
  5
153FF
330
7466
100
AcDbSymbolTableRecord
100
AcDbBlockTableRecord
  2
*D10
340
0
  0
BLOCK_RECORD
  5
15640
330
7466
100
AcDbSymbolTableRecord
100
AcDbBlockTableRecord
  2
*D11
340
0
  0
BLOCK_RECORD
  5
1568F
330
7466
100
AcDbSymbolTableRecord
100
AcDbBlockTableRecord
  2
*D12
340
0
  0
BLOCK_RECORD
  5
1571B
330
7466
100
AcDbSymbolTableRecord
100
AcDbBlockTableRecord
  2
*D13
340
0
  0
BLOCK_RECORD
  5
15728
330
7466
100
AcDbSymbolTableRecord
100
AcDbBlockTableRecord
  2
*D14
340
0
  0
BLOCK_RECORD
  5
1603D
330
7466
100
AcDbSymbolTableRecord
100
AcDbBlockTableRecord
  2
*D15
340
0
  0
BLOCK_RECORD
  5
16049
330
7466
100
AcDbSymbolTableRecord
100
AcDbBlockTableRecord
  2
*D16
340
0
  0
BLOCK_RECORD
  5
16BD4
330
7466
100
AcDbSymbolTableRecord
100
AcDbBlockTableRecord
  2
*D17
340
0
  0
BLOCK_RECORD
  5
16BE2
330
7466
100
AcDbSymbolTableRecord
100
AcDbBlockTableRecord
  2
*D18
340
0
  0
BLOCK_RECORD
  5
16BEE
330
7466
100
AcDbSymbolTableRecord
100
AcDbBlockTableRecord
  2
*D19
340
0
  0
BLOCK_RECORD
  5
16BFA
330
7466
100
AcDbSymbolTableRecord
100
AcDbBlockTableRecord
  2
*D20
340
0
  0
BLOCK_RECORD
  5
170F3
330
7466
100
AcDbSymbolTableRecord
100
AcDbBlockTableRecord
  2
*D21
340
0
  0
BLOCK_RECORD
  5
170FF
330
7466
100
AcDbSymbolTableRecord
100
AcDbBlockTableRecord
  2
*D22
340
0
  0
BLOCK_RECORD
  5
1710B
330
7466
100
AcDbSymbolTableRecord
100
AcDbBlockTableRecord
  2
*D23
340
0
  0
BLOCK_RECORD
  5
17433
330
7466
100
AcDbSymbolTableRecord
100
AcDbBlockTableRecord
  2
*D24
340
0
  0
BLOCK_RECORD
  5
1743F
330
7466
100
AcDbSymbolTableRecord
100
AcDbBlockTableRecord
  2
*D25
340
0
  0
BLOCK_RECORD
  5
1744B
330
7466
100
AcDbSymbolTableRecord
100
AcDbBlockTableRecord
  2
*D26
340
0
  0
BLOCK_RECORD
  5
17464
330
7466
100
AcDbSymbolTableRecord
100
AcDbBlockTableRecord
  2
*D27
340
0
  0
BLOCK_RECORD
  5
17472
330
7466
100
AcDbSymbolTableRecord
100
AcDbBlockTableRecord
  2
*D28
340
0
  0
BLOCK_RECORD
  5
1747E
330
7466
100
AcDbSymbolTableRecord
100
AcDbBlockTableRecord
  2
*D29
340
0
  0
BLOCK_RECORD
  5
1748A
330
7466
100
AcDbSymbolTableRecord
100
AcDbBlockTableRecord
  2
*D30
340
0
  0
BLOCK_RECORD
  5
17498
330
7466
100
AcDbSymbolTableRecord
100
AcDbBlockTableRecord
  2
*D31
340
0
  0
BLOCK_RECORD
  5
174A4
330
7466
100
AcDbSymbolTableRecord
100
AcDbBlockTableRecord
  2
*D32
340
0
  0
BLOCK_RECORD
  5
174B1
330
7466
100
AcDbSymbolTableRecord
100
AcDbBlockTableRecord
  2
*D33
340
0
  0
BLOCK_RECORD
  5
17A74
330
7466
100
AcDbSymbolTableRecord
100
AcDbBlockTableRecord
  2
A$C3FB90008
340
0
  0
ENDTAB
  0
ENDSEC
  0
SECTION
  2
BLOCKS
  0
BLOCK
  5
7489
330
747D
100
AcDbEntity
  8
0
100
AcDbBlockBegin
  2
*MODEL_SPACE
 70
     0
 10
0.0
 20
0.0
 30
0.0
  3
*MODEL_SPACE
  1

  0
ENDBLK
  5
748A
330
747D
100
AcDbEntity
  8
0
100
AcDbBlockEnd
  0
BLOCK
  5
7487
330
747A
100
AcDbEntity
 67
     1
  8
0
100
AcDbBlockBegin
  2
*PAPER_SPACE
 70
     0
 10
0.0
 20
0.0
 30
0.0
  3
*PAPER_SPACE
  1

  0
ENDBLK
  5
7488
330
747A
100
AcDbEntity
 67
     1
  8
0
100
AcDbBlockEnd
  0
BLOCK
  5
DEAD
330
DEAC
100
AcDbEntity
  8
0
100
AcDbBlockBegin
  2
_OPEN
 70
     0
 10
0.0
 20
0.0
 30
0.0
  3
_OPEN
  1

  0
LINE
  5
DEAE
330
DEAC
100
AcDbEntity
  8
0
  6
ByBlock
 62
     0
100
AcDbLine
 10
-1.0
 20
0.1666666666666666
 30
0.0
 11
0.0
 21
0.0
 31
0.0
  0
LINE
  5
DEAF
330
DEAC
100
AcDbEntity
  8
0
  6
ByBlock
 62
     0
100
AcDbLine
 10
0.0
 20
0.0
 30
0.0
 11
-1.0
 21
-0.1666666666666666
 31
0.0
  0
LINE
  5
DEB0
330
DEAC
100
AcDbEntity
  8
0
  6
ByBlock
 62
     0
100
AcDbLine
 10
0.0
 20
0.0
 30
0.0
 11
-1.0
 21
0.0
 31
0.0
  0
ENDBLK
  5
DEB1
330
DEAC
100
AcDbEntity
  8
0
100
AcDbBlockEnd
  0
BLOCK
  5
F771
330
F770
100
AcDbEntity
  8
0
 48
50.0
100
AcDbBlockBegin
  2
_DOTSMALL
 70
     0
 10
0.0
 20
0.0
 30
0.0
  3
_DOTSMALL
  1

  0
LWPOLYLINE
  5
F772
330
F770
100
AcDbEntity
  8
0
  6
ByBlock
 62
     0
 48
50.0
100
AcDbPolyline
 90
        2
 70
     1
 43
0.5
 10
-0.0625
 20
0.0
 42
1.0
 10
0.0625
 20
0.0
 42
1.0
  0
ENDBLK
  5
F776
330
F770
100
AcDbEntity
  8
0
 48
50.0
100
AcDbBlockEnd
  0
BLOCK
  5
15424
330
1458A
100
AcDbEntity
  8
0
 48
50.0
100
AcDbBlockBegin
  2
*D2
 70
     1
 10
0.0
 20
0.0
 30
0.0
  3
*D2
  1

  0
LINE
  5
179BF
330
1458A
100
AcDbEntity
  8
寸法
 62
     0
 48
50.0
370
    -2
100
AcDbLine
 10
4573.097197605075
 20
9407.060989460042
 30
0.0
 11
4573.097197605075
 21
9882.539339406417
 31
0.0
  0
LINE
  5
179C0
330
1458A
100
AcDbEntity
  8
寸法
 62
     0
 48
50.0
370
    -2
100
AcDbLine
 10
4628.09719760511
 20
9407.060989460042
 30
0.0
 11
4628.09719760511
 21
9882.539339406417
 31
0.0
  0
LINE
  5
179C1
330
1458A
100
AcDbEntity
  8
寸法
 62
     0
 48
50.0
370
    -2
100
AcDbLine
 10
4628.09719760511
 20
9822.539339406416
 30
0.0
 11
4728.09719760511
 21
9822.539339406416
 31
0.0
  0
LINE
  5
179C2
330
1458A
100
AcDbEntity
  8
寸法
 62
     0
 48
50.0
370
    -2
100
AcDbLine
 10
4573.097197605075
 20
9822.539339406416
 30
0.0
 11
4156.126634856597
 21
9822.539339406416
 31
0.0
  0
LINE
  5
179C3
330
1458A
100
AcDbEntity
  8
寸法
 62
     0
 48
50.0
370
    -2
100
AcDbLine
 10
4628.09719760511
 20
9822.539339406416
 30
0.0
 11
4573.097197605075
 21
9822.539339406416
 31
0.0
  0
INSERT
  5
179C4
330
1458A
100
AcDbEntity
  8
寸法
 62
     0
 48
50.0
370
    -2
100
AcDbBlockReference
  2
_DOTSMALL
 10
4628.09719760511
 20
9822.539339406416
 30
0.0
 41
100.0
 42
100.0
 43
100.0
 50
180.0
  0
INSERT
  5
179C5
330
1458A
100
AcDbEntity
  8
寸法
 62
     0
 48
50.0
370
    -2
100
AcDbBlockReference
  2
_DOTSMALL
 10
4573.097197605075
 20
9822.539339406416
 30
0.0
 41
100.0
 42
100.0
 43
100.0
  0
MTEXT
  5
179C6
330
1458A
100
AcDbEntity
  8
寸法
 62
     7
 48
50.0
100
AcDbMText
 10
4264.611916230836
 20
9922.539339406416
 30
0.0
 40
120.0
 41
0.0
 71
     5
 72
     1
  1
\A1;55
  7
STYLE1
 73
     1
 44
1.0
1001
ACAD
1000
MTEXTBEGIN
1070
    73
1070
     1
1070
    44
1040
1.0
1070
    74
1070
     0
1000
MTEXTEND
  0
POINT
  5
179C7
330
1458A
100
AcDbEntity
  8
DEFPOINTS
 62
     0
 48
50.0
100
AcDbPoint
 10
4573.097197605075
 20
9387.060989460042
 30
0.0
  0
POINT
  5
179C8
330
1458A
100
AcDbEntity
  8
DEFPOINTS
 62
     0
 48
50.0
100
AcDbPoint
 10
4628.09719760511
 20
9387.060989460042
 30
0.0
  0
POINT
  5
179C9
330
1458A
100
AcDbEntity
  8
DEFPOINTS
 62
     0
 48
50.0
100
AcDbPoint
 10
4628.09719760511
 20
9822.539339406416
 30
0.0
  0
ENDBLK
  5
15430
330
1458A
100
AcDbEntity
  8
0
 48
50.0
100
AcDbBlockEnd
  0
BLOCK
  5
16061
330
14598
100
AcDbEntity
  8
0
 48
50.0
100
AcDbBlockBegin
  2
*D3
 70
     1
 10
0.0
 20
0.0
 30
0.0
  3
*D3
  1

  0
LINE
  5
179B6
330
14598
100
AcDbEntity
  8
寸法
 62
     0
 48
50.0
370
    -2
100
AcDbLine
 10
8703.097197605112
 20
9387.06098946017
 30
0.0
 11
9676.888502760903
 21
9387.06098946017
 31
0.0
  0
LINE
  5
179B7
330
14598
100
AcDbEntity
  8
寸法
 62
     0
 48
50.0
370
    -2
100
AcDbLine
 10
8703.097197605087
 20
7597.06098946016
 30
0.0
 11
9676.888502760903
 21
7597.06098946016
 31
0.0
  0
LINE
  5
179B8
330
14598
100
AcDbEntity
  8
寸法
 62
     0
 48
50.0
370
    -2
100
AcDbLine
 10
9616.8885027609
 20
9387.06098946017
 30
0.0
 11
9616.8885027609
 21
7597.06098946016
 31
0.0
  0
INSERT
  5
179B9
330
14598
100
AcDbEntity
  8
寸法
 62
     0
 48
50.0
370
    -2
100
AcDbBlockReference
  2
_DOTSMALL
 10
9616.8885027609
 20
9387.06098946017
 30
0.0
 41
100.0
 42
100.0
 43
100.0
 50
90.0
  0
INSERT
  5
179BA
330
14598
100
AcDbEntity
  8
寸法
 62
     0
 48
50.0
370
    -2
100
AcDbBlockReference
  2
_DOTSMALL
 10
9616.8885027609
 20
7597.06098946016
 30
0.0
 41
100.0
 42
100.0
 43
100.0
 50
270.0
  0
MTEXT
  5
179BB
330
14598
100
AcDbEntity
  8
寸法
 62
     7
 48
50.0
100
AcDbMText
 10
9516.888502760899
 20
8482.2900752643
 30
0.0
 40
120.0
 41
0.0
 71
     5
 72
     1
  1
\A1;1790
  7
STYLE1
 11
0.0000000000000001
 21
1.0
 31
0.0
 73
     1
 44
1.0
1001
ACAD
1000
MTEXTBEGIN
1070
    73
1070
     1
1070
    44
1040
1.0
1070
    74
1070
     0
1000
MTEXTEND
  0
POINT
  5
179BC
330
14598
100
AcDbEntity
  8
DEFPOINTS
 62
     0
 48
50.0
100
AcDbPoint
 10
8683.097197605112
 20
9387.06098946017
 30
0.0
  0
POINT
  5
179BD
330
14598
100
AcDbEntity
  8
DEFPOINTS
 62
     0
 48
50.0
100
AcDbPoint
 10
8683.097197605086
 20
7597.06098946016
 30
0.0
  0
POINT
  5
179BE
330
14598
100
AcDbEntity
  8
DEFPOINTS
 62
     0
 48
50.0
100
AcDbPoint
 10
9616.8885027609
 20
7597.06098946016
 30
0.0
  0
ENDBLK
  5
1606B
330
14598
100
AcDbEntity
  8
0
 48
50.0
100
AcDbBlockEnd
  0
BLOCK
  5
1492F
330
145A4
100
AcDbEntity
  8
0
 48
50.0
100
AcDbBlockBegin
  2
*D4
 70
     1
 10
0.0
 20
0.0
 30
0.0
  3
*D4
  1

  0
LINE
  5
179AB
330
145A4
100
AcDbEntity
  8
寸法
 62
     0
 48
50.0
370
    -2
100
AcDbLine
 10
8703.097197605112
 20
9387.06098946017
 30
0.0
 11
9390.523543339524
 21
9387.06098946017
 31
0.0
  0
LINE
  5
179AC
330
145A4
100
AcDbEntity
  8
寸法
 62
     0
 48
50.0
370
    -2
100
AcDbLine
 10
8703.097197605112
 20
9332.060989460172
 30
0.0
 11
9390.523543339524
 21
9332.060989460172
 31
0.0
  0
LINE
  5
179AD
330
145A4
100
AcDbEntity
  8
寸法
 62
     0
 48
50.0
370
    -2
100
AcDbLine
 10
9330.523543339522
 20
9332.060989460172
 30
0.0
 11
9330.523543339522
 21
9232.060989460173
 31
0.0
  0
LINE
  5
179AE
330
145A4
100
AcDbEntity
  8
寸法
 62
     0
 48
50.0
370
    -2
100
AcDbLine
 10
9330.523543339522
 20
9387.06098946017
 30
0.0
 11
9330.523543339522
 21
9804.031552208646
 31
0.0
  0
LINE
  5
179AF
330
145A4
100
AcDbEntity
  8
寸法
 62
     0
 48
50.0
370
    -2
100
AcDbLine
 10
9330.523543339522
 20
9332.060989460172
 30
0.0
 11
9330.523543339522
 21
9387.06098946017
 31
0.0
  0
INSERT
  5
179B0
330
145A4
100
AcDbEntity
  8
寸法
 62
     0
 48
50.0
370
    -2
100
AcDbBlockReference
  2
_DOTSMALL
 10
9330.523543339522
 20
9332.060989460172
 30
0.0
 41
100.0
 42
100.0
 43
100.0
 50
90.0
  0
INSERT
  5
179B1
330
145A4
100
AcDbEntity
  8
寸法
 62
     0
 48
50.0
370
    -2
100
AcDbBlockReference
  2
_DOTSMALL
 10
9330.523543339522
 20
9387.06098946017
 30
0.0
 41
100.0
 42
100.0
 43
100.0
 50
270.0
  0
MTEXT
  5
179B2
330
145A4
100
AcDbEntity
  8
寸法
 62
     7
 48
50.0
100
AcDbMText
 10
9230.52354333952
 20
9695.546270834411
 30
0.0
 40
120.0
 41
0.0
 71
     5
 72
     1
  1
\A1;55
  7
STYLE1
 11
0.0000000000000001
 21
1.0
 31
0.0
 73
     1
 44
1.0
1001
ACAD
1000
MTEXTBEGIN
1070
    73
1070
     1
1070
    44
1040
1.0
1070
    74
1070
     0
1000
MTEXTEND
  0
POINT
  5
179B3
330
145A4
100
AcDbEntity
  8
DEFPOINTS
 62
     0
 48
50.0
100
AcDbPoint
 10
8683.097197605112
 20
9387.06098946017
 30
0.0
  0
POINT
  5
179B4
330
145A4
100
AcDbEntity
  8
DEFPOINTS
 62
     0
 48
50.0
100
AcDbPoint
 10
8683.097197605112
 20
9332.060989460172
 30
0.0
  0
POINT
  5
179B5
330
145A4
100
AcDbEntity
  8
DEFPOINTS
 62
     0
 48
50.0
100
AcDbPoint
 10
9330.523543339522
 20
9332.060989460172
 30
0.0
  0
ENDBLK
  5
1493B
330
145A4
100
AcDbEntity
  8
0
 48
50.0
100
AcDbBlockEnd
  0
BLOCK
  5
1496A
330
145BE
100
AcDbEntity
  8
0
 48
50.0
100
AcDbBlockBegin
  2
*D5
 70
     1
 10
0.0
 20
0.0
 30
0.0
  3
*D5
  1

  0
LINE
  5
179A0
330
145BE
100
AcDbEntity
  8
寸法
 62
     0
 48
50.0
370
    -2
100
AcDbLine
 10
8703.097197605087
 20
7652.060989460157
 30
0.0
 11
9390.523543339497
 21
7652.060989460157
 31
0.0
  0
LINE
  5
179A1
330
145BE
100
AcDbEntity
  8
寸法
 62
     0
 48
50.0
370
    -2
100
AcDbLine
 10
8703.097197605087
 20
7597.06098946016
 30
0.0
 11
9390.523543339497
 21
7597.06098946016
 31
0.0
  0
LINE
  5
179A2
330
145BE
100
AcDbEntity
  8
寸法
 62
     0
 48
50.0
370
    -2
100
AcDbLine
 10
9330.523543339497
 20
7652.060989460157
 30
0.0
 11
9330.523543339497
 21
7752.060989460156
 31
0.0
  0
LINE
  5
179A3
330
145BE
100
AcDbEntity
  8
寸法
 62
     0
 48
50.0
370
    -2
100
AcDbLine
 10
9330.523543339497
 20
7597.06098946016
 30
0.0
 11
9330.523543339497
 21
7110.71424118106
 31
0.0
  0
LINE
  5
179A4
330
145BE
100
AcDbEntity
  8
寸法
 62
     0
 48
50.0
370
    -2
100
AcDbLine
 10
9330.523543339497
 20
7652.060989460157
 30
0.0
 11
9330.523543339497
 21
7597.06098946016
 31
0.0
  0
INSERT
  5
179A5
330
145BE
100
AcDbEntity
  8
寸法
 62
     0
 48
50.0
370
    -2
100
AcDbBlockReference
  2
_DOTSMALL
 10
9330.523543339497
 20
7652.060989460157
 30
0.0
 41
100.0
 42
100.0
 43
100.0
 50
270.0
  0
INSERT
  5
179A6
330
145BE
100
AcDbEntity
  8
寸法
 62
     0
 48
50.0
370
    -2
100
AcDbBlockReference
  2
_DOTSMALL
 10
9330.523543339497
 20
7597.06098946016
 30
0.0
 41
100.0
 42
100.0
 43
100.0
 50
90.0
  0
MTEXT
  5
179A7
330
145BE
100
AcDbEntity
  8
寸法
 62
     7
 48
50.0
100
AcDbMText
 10
9230.523543339495
 20
7219.199522555299
 30
0.0
 40
120.0
 41
0.0
 71
     5
 72
     1
  1
\A1;55
  7
STYLE1
 11
0.0000000000000001
 21
1.0
 31
0.0
 73
     1
 44
1.0
1001
ACAD
1000
MTEXTBEGIN
1070
    73
1070
     1
1070
    44
1040
1.0
1070
    74
1070
     0
1000
MTEXTEND
  0
POINT
  5
179A8
330
145BE
100
AcDbEntity
  8
DEFPOINTS
 62
     0
 48
50.0
100
AcDbPoint
 10
8683.097197605086
 20
7652.060989460157
 30
0.0
  0
POINT
  5
179A9
330
145BE
100
AcDbEntity
  8
DEFPOINTS
 62
     0
 48
50.0
100
AcDbPoint
 10
8683.097197605086
 20
7597.06098946016
 30
0.0
  0
POINT
  5
179AA
330
145BE
100
AcDbEntity
  8
DEFPOINTS
 62
     0
 48
50.0
100
AcDbPoint
 10
9330.523543339497
 20
7597.06098946016
 30
0.0
  0
ENDBLK
  5
14976
330
145BE
100
AcDbEntity
  8
0
 48
50.0
100
AcDbBlockEnd
  0
BLOCK
  5
1606C
330
145CC
100
AcDbEntity
  8
0
 48
50.0
100
AcDbBlockBegin
  2
*D6
 70
     1
 10
0.0
 20
0.0
 30
0.0
  3
*D6
  1

  0
LINE
  5
17997
330
145CC
100
AcDbEntity
  8
寸法
 62
     0
 48
50.0
370
    -2
100
AcDbLine
 10
8703.097197605112
 20
9332.060989460172
 30
0.0
 11
9390.523543339524
 21
9332.060989460172
 31
0.0
  0
LINE
  5
17998
330
145CC
100
AcDbEntity
  8
寸法
 62
     0
 48
50.0
370
    -2
100
AcDbLine
 10
8703.097197605087
 20
7652.060989460157
 30
0.0
 11
9390.523543339524
 21
7652.060989460157
 31
0.0
  0
LINE
  5
17999
330
145CC
100
AcDbEntity
  8
寸法
 62
     0
 48
50.0
370
    -2
100
AcDbLine
 10
9330.523543339522
 20
9332.060989460172
 30
0.0
 11
9330.523543339522
 21
7652.060989460157
 31
0.0
  0
INSERT
  5
1799A
330
145CC
100
AcDbEntity
  8
寸法
 62
     0
 48
50.0
370
    -2
100
AcDbBlockReference
  2
_DOTSMALL
 10
9330.523543339522
 20
9332.060989460172
 30
0.0
 41
100.0
 42
100.0
 43
100.0
 50
90.0
  0
INSERT
  5
1799B
330
145CC
100
AcDbEntity
  8
寸法
 62
     0
 48
50.0
370
    -2
100
AcDbBlockReference
  2
_DOTSMALL
 10
9330.523543339522
 20
7652.060989460157
 30
0.0
 41
100.0
 42
100.0
 43
100.0
 50
270.0
  0
MTEXT
  5
1799C
330
145CC
100
AcDbEntity
  8
寸法
 62
     7
 48
50.0
100
AcDbMText
 10
9230.5117323159
 20
8492.060989460165
 30
0.0
 40
120.0
 41
0.0
 71
     5
 72
     1
  1
\A1;4X420=1680
  7
STYLE1
 11
0.0000000000000001
 21
1.0
 31
0.0
 73
     1
 44
1.0
1001
ACAD
1000
MTEXTBEGIN
1070
    73
1070
     1
1070
    44
1040
1.0
1070
    74
1070
     0
1000
MTEXTEND
  0
POINT
  5
1799D
330
145CC
100
AcDbEntity
  8
DEFPOINTS
 62
     0
 48
50.0
100
AcDbPoint
 10
8683.097197605112
 20
9332.060989460172
 30
0.0
  0
POINT
  5
1799E
330
145CC
100
AcDbEntity
  8
DEFPOINTS
 62
     0
 48
50.0
100
AcDbPoint
 10
8683.097197605086
 20
7652.060989460157
 30
0.0
  0
POINT
  5
1799F
330
145CC
100
AcDbEntity
  8
DEFPOINTS
 62
     0
 48
50.0
100
AcDbPoint
 10
9330.523543339522
 20
7652.060989460157
 30
0.0
  0
ENDBLK
  5
16076
330
145CC
100
AcDbEntity
  8
0
 48
50.0
100
AcDbBlockEnd
  0
BLOCK
  5
15353
330
145D8
100
AcDbEntity
  8
0
 48
50.0
100
AcDbBlockBegin
  2
*D7
 70
     1
 10
0.0
 20
0.0
 30
0.0
  3
*D7
  1

  0
LINE
  5
1798E
330
145D8
100
AcDbEntity
  8
寸法
 62
     0
 48
50.0
370
    -2
100
AcDbLine
 10
7313.097197605102
 20
7577.060989459997
 30
0.0
 11
7313.097197605102
 21
6772.925020106471
 31
0.0
  0
LINE
  5
1798F
330
145D8
100
AcDbEntity
  8
寸法
 62
     0
 48
50.0
370
    -2
100
AcDbLine
 10
8683.097197605086
 20
7577.060989460126
 30
0.0
 11
8683.097197605086
 21
6772.925020106471
 31
0.0
  0
LINE
  5
17990
330
145D8
100
AcDbEntity
  8
寸法
 62
     0
 48
50.0
370
    -2
100
AcDbLine
 10
7313.097197605102
 20
6832.925020106471
 30
0.0
 11
8683.097197605086
 21
6832.925020106471
 31
0.0
  0
INSERT
  5
17991
330
145D8
100
AcDbEntity
  8
寸法
 62
     0
 48
50.0
370
    -2
100
AcDbBlockReference
  2
_DOTSMALL
 10
7313.097197605102
 20
6832.925020106471
 30
0.0
 41
100.0
 42
100.0
 43
100.0
 50
180.0
  0
INSERT
  5
17992
330
145D8
100
AcDbEntity
  8
寸法
 62
     0
 48
50.0
370
    -2
100
AcDbBlockReference
  2
_DOTSMALL
 10
8683.097197605086
 20
6832.925020106471
 30
0.0
 41
100.0
 42
100.0
 43
100.0
  0
MTEXT
  5
17993
330
145D8
100
AcDbEntity
  8
寸法
 62
     7
 48
50.0
100
AcDbMText
 10
7998.097197605094
 20
6932.925020106471
 30
0.0
 40
120.0
 41
0.0
 71
     5
 72
     1
  1
\A1;1370
  7
STYLE1
 73
     1
 44
1.0
1001
ACAD
1000
MTEXTBEGIN
1070
    73
1070
     1
1070
    44
1040
1.0
1070
    74
1070
     0
1000
MTEXTEND
  0
POINT
  5
17994
330
145D8
100
AcDbEntity
  8
DEFPOINTS
 62
     0
 48
50.0
100
AcDbPoint
 10
7313.097197605102
 20
7597.060989459997
 30
0.0
  0
POINT
  5
17995
330
145D8
100
AcDbEntity
  8
DEFPOINTS
 62
     0
 48
50.0
100
AcDbPoint
 10
8683.097197605086
 20
7597.060989460125
 30
0.0
  0
POINT
  5
17996
330
145D8
100
AcDbEntity
  8
DEFPOINTS
 62
     0
 48
50.0
100
AcDbPoint
 10
8683.097197605086
 20
6832.925020106471
 30
0.0
  0
ENDBLK
  5
1535D
330
145D8
100
AcDbEntity
  8
0
 48
50.0
100
AcDbBlockEnd
  0
BLOCK
  5
15417
330
14608
100
AcDbEntity
  8
0
 48
50.0
100
AcDbBlockBegin
  2
*D8
 70
     1
 10
0.0
 20
0.0
 30
0.0
  3
*D8
  1

  0
LINE
  5
17983
330
14608
100
AcDbEntity
  8
寸法
 62
     0
 48
50.0
370
    -2
100
AcDbLine
 10
8628.097197605113
 20
9407.06098946017
 30
0.0
 11
8628.097197605113
 21
9882.539339406546
 31
0.0
  0
LINE
  5
17984
330
14608
100
AcDbEntity
  8
寸法
 62
     0
 48
50.0
370
    -2
100
AcDbLine
 10
8683.097197605112
 20
9407.06098946017
 30
0.0
 11
8683.097197605112
 21
9882.539339406546
 31
0.0
  0
LINE
  5
17985
330
14608
100
AcDbEntity
  8
寸法
 62
     0
 48
50.0
370
    -2
100
AcDbLine
 10
8628.097197605113
 20
9822.539339406546
 30
0.0
 11
8528.097197605111
 21
9822.539339406546
 31
0.0
  0
LINE
  5
17986
330
14608
100
AcDbEntity
  8
寸法
 62
     0
 48
50.0
370
    -2
100
AcDbLine
 10
8683.097197605112
 20
9822.539339406546
 30
0.0
 11
9100.067760353587
 21
9822.539339406546
 31
0.0
  0
LINE
  5
17987
330
14608
100
AcDbEntity
  8
寸法
 62
     0
 48
50.0
370
    -2
100
AcDbLine
 10
8628.097197605113
 20
9822.539339406546
 30
0.0
 11
8683.097197605112
 21
9822.539339406546
 31
0.0
  0
INSERT
  5
17988
330
14608
100
AcDbEntity
  8
寸法
 62
     0
 48
50.0
370
    -2
100
AcDbBlockReference
  2
_DOTSMALL
 10
8628.097197605113
 20
9822.539339406546
 30
0.0
 41
100.0
 42
100.0
 43
100.0
  0
INSERT
  5
17989
330
14608
100
AcDbEntity
  8
寸法
 62
     0
 48
50.0
370
    -2
100
AcDbBlockReference
  2
_DOTSMALL
 10
8683.097197605112
 20
9822.539339406546
 30
0.0
 41
100.0
 42
100.0
 43
100.0
 50
180.0
  0
MTEXT
  5
1798A
330
14608
100
AcDbEntity
  8
寸法
 62
     7
 48
50.0
100
AcDbMText
 10
8991.582478979351
 20
9922.539339406545
 30
0.0
 40
120.0
 41
0.0
 71
     5
 72
     1
  1
\A1;55
  7
STYLE1
 73
     1
 44
1.0
1001
ACAD
1000
MTEXTBEGIN
1070
    73
1070
     1
1070
    44
1040
1.0
1070
    74
1070
     0
1000
MTEXTEND
  0
POINT
  5
1798B
330
14608
100
AcDbEntity
  8
DEFPOINTS
 62
     0
 48
50.0
100
AcDbPoint
 10
8628.097197605113
 20
9387.06098946017
 30
0.0
  0
POINT
  5
1798C
330
14608
100
AcDbEntity
  8
DEFPOINTS
 62
     0
 48
50.0
100
AcDbPoint
 10
8683.097197605112
 20
9387.06098946017
 30
0.0
  0
POINT
  5
1798D
330
14608
100
AcDbEntity
  8
DEFPOINTS
 62
     0
 48
50.0
100
AcDbPoint
 10
8683.097197605112
 20
9822.539339406546
 30
0.0
  0
ENDBLK
  5
15423
330
14608
100
AcDbEntity
  8
0
 48
50.0
100
AcDbBlockEnd
  0
BLOCK
  5
155FA
330
14616
100
AcDbEntity
  8
0
 48
50.0
100
AcDbBlockBegin
  2
*D9
 70
     1
 10
0.0
 20
0.0
 30
0.0
  3
*D9
  1

  0
LINE
  5
1797A
330
14616
100
AcDbEntity
  8
寸法
 62
     0
 48
50.0
370
    -2
100
AcDbLine
 10
7368.097197605109
 20
9407.060989460042
 30
0.0
 11
7368.097197605109
 21
9882.539339406566
 31
0.0
  0
LINE
  5
1797B
330
14616
100
AcDbEntity
  8
寸法
 62
     0
 48
50.0
370
    -2
100
AcDbLine
 10
8628.097197605113
 20
9407.06098946017
 30
0.0
 11
8628.097197605113
 21
9882.539339406566
 31
0.0
  0
LINE
  5
1797C
330
14616
100
AcDbEntity
  8
寸法
 62
     0
 48
50.0
370
    -2
100
AcDbLine
 10
7368.097197605109
 20
9822.539339406565
 30
0.0
 11
8628.097197605113
 21
9822.539339406565
 31
0.0
  0
INSERT
  5
1797D
330
14616
100
AcDbEntity
  8
寸法
 62
     0
 48
50.0
370
    -2
100
AcDbBlockReference
  2
_DOTSMALL
 10
7368.097197605109
 20
9822.539339406565
 30
0.0
 41
100.0
 42
100.0
 43
100.0
 50
180.0
  0
INSERT
  5
1797E
330
14616
100
AcDbEntity
  8
寸法
 62
     0
 48
50.0
370
    -2
100
AcDbBlockReference
  2
_DOTSMALL
 10
8628.097197605113
 20
9822.539339406565
 30
0.0
 41
100.0
 42
100.0
 43
100.0
  0
MTEXT
  5
1797F
330
14616
100
AcDbEntity
  8
寸法
 62
     7
 48
50.0
100
AcDbMText
 10
7998.097197605109
 20
9922.551150430187
 30
0.0
 40
120.0
 41
0.0
 71
     5
 72
     1
  1
\A1;3X420=1260
  7
STYLE1
 73
     1
 44
1.0
1001
ACAD
1000
MTEXTBEGIN
1070
    73
1070
     1
1070
    44
1040
1.0
1070
    74
1070
     0
1000
MTEXTEND
  0
POINT
  5
17980
330
14616
100
AcDbEntity
  8
DEFPOINTS
 62
     0
 48
50.0
100
AcDbPoint
 10
7368.097197605109
 20
9387.060989460042
 30
0.0
  0
POINT
  5
17981
330
14616
100
AcDbEntity
  8
DEFPOINTS
 62
     0
 48
50.0
100
AcDbPoint
 10
8628.097197605113
 20
9387.06098946017
 30
0.0
  0
POINT
  5
17982
330
14616
100
AcDbEntity
  8
DEFPOINTS
 62
     0
 48
50.0
100
AcDbPoint
 10
8628.097197605113
 20
9822.539339406565
 30
0.0
  0
ENDBLK
  5
15604
330
14616
100
AcDbEntity
  8
0
 48
50.0
100
AcDbBlockEnd
  0
BLOCK
  5
15447
330
153FF
100
AcDbEntity
  8
0
 48
50.0
100
AcDbBlockBegin
  2
*D10
 70
     1
 10
0.0
 20
0.0
 30
0.0
  3
*D10
  1

  0
LINE
  5
17971
330
153FF
100
AcDbEntity
  8
寸法
 62
     0
 48
50.0
370
    -2
100
AcDbLine
 10
8644.738213756484
 20
9374.56098946019
 30
0.0
 11
8558.968927728399
 21
9694.656322645915
 31
0.0
  0
LINE
  5
17972
330
153FF
100
AcDbEntity
  8
寸法
 62
     0
 48
50.0
370
    -2
100
AcDbLine
 10
8194.738213756485
 20
9374.56098946019
 30
0.0
 11
8108.968927728399
 21
9694.656322645915
 31
0.0
  0
LINE
  5
17973
330
153FF
100
AcDbEntity
  8
寸法
 62
     0
 48
50.0
370
    -2
100
AcDbLine
 10
8575.045879274265
 20
9634.656322645916
 30
0.0
 11
8125.045879274265
 21
9634.656322645916
 31
0.0
  0
INSERT
  5
17974
330
153FF
100
AcDbEntity
  8
寸法
 62
     0
 48
50.0
370
    -2
100
AcDbBlockReference
  2
_DOTSMALL
 10
8575.045879274265
 20
9634.656322645916
 30
0.0
 41
100.0
 42
100.0
 43
100.0
  0
INSERT
  5
17975
330
153FF
100
AcDbEntity
  8
寸法
 62
     0
 48
50.0
370
    -2
100
AcDbBlockReference
  2
_DOTSMALL
 10
8125.045879274265
 20
9634.656322645916
 30
0.0
 41
100.0
 42
100.0
 43
100.0
 50
180.0
  0
MTEXT
  5
17976
330
153FF
100
AcDbEntity
  8
寸法
 62
     7
 48
50.0
100
AcDbMText
 10
8328.532989997119
 20
9734.656322645916
 30
0.0
 40
120.0
 41
0.0
 71
     5
 72
     1
  1
\A1;450
  7
STYLE1
 73
     1
 44
1.0
1001
ACAD
1000
MTEXTBEGIN
1070
    73
1070
     1
1070
    44
1040
1.0
1070
    74
1070
     0
1000
MTEXTEND
  0
POINT
  5
17977
330
153FF
100
AcDbEntity
  8
DEFPOINTS
 62
     0
 48
50.0
100
AcDbPoint
 10
8650.097197605106
 20
9354.560989460191
 30
0.0
  0
POINT
  5
17978
330
153FF
100
AcDbEntity
  8
DEFPOINTS
 62
     0
 48
50.0
100
AcDbPoint
 10
8200.097197605108
 20
9354.560989460189
 30
0.0
  0
POINT
  5
17979
330
153FF
100
AcDbEntity
  8
DEFPOINTS
 62
     0
 48
50.0
100
AcDbPoint
 10
8125.045879274265
 20
9634.656322645916
 30
0.0
  0
ENDBLK
  5
15451
330
153FF
100
AcDbEntity
  8
0
 48
50.0
100
AcDbBlockEnd
  0
BLOCK
  5
15641
330
15640
100
AcDbEntity
  8
0
 48
50.0
100
AcDbBlockBegin
  2
*D11
 70
     1
 10
0.0
 20
0.0
 30
0.0
  3
*D11
  1

  0
LINE
  5
17968
330
15640
100
AcDbEntity
  8
寸法
 62
     0
 48
50.0
370
    -2
100
AcDbLine
 10
5943.097197605103
 20
7577.060989459997
 30
0.0
 11
5943.097197605103
 21
6772.925020106471
 31
0.0
  0
LINE
  5
17969
330
15640
100
AcDbEntity
  8
寸法
 62
     0
 48
50.0
370
    -2
100
AcDbLine
 10
7313.097197605086
 20
7577.060989460126
 30
0.0
 11
7313.097197605086
 21
6772.925020106471
 31
0.0
  0
LINE
  5
1796A
330
15640
100
AcDbEntity
  8
寸法
 62
     0
 48
50.0
370
    -2
100
AcDbLine
 10
5943.097197605103
 20
6832.925020106471
 30
0.0
 11
7313.097197605086
 21
6832.925020106471
 31
0.0
  0
INSERT
  5
1796B
330
15640
100
AcDbEntity
  8
寸法
 62
     0
 48
50.0
370
    -2
100
AcDbBlockReference
  2
_DOTSMALL
 10
5943.097197605103
 20
6832.925020106471
 30
0.0
 41
100.0
 42
100.0
 43
100.0
 50
180.0
  0
INSERT
  5
1796C
330
15640
100
AcDbEntity
  8
寸法
 62
     0
 48
50.0
370
    -2
100
AcDbBlockReference
  2
_DOTSMALL
 10
7313.097197605086
 20
6832.925020106471
 30
0.0
 41
100.0
 42
100.0
 43
100.0
  0
MTEXT
  5
1796D
330
15640
100
AcDbEntity
  8
寸法
 62
     7
 48
50.0
100
AcDbMText
 10
6628.097197605095
 20
6932.925020106471
 30
0.0
 40
120.0
 41
0.0
 71
     5
 72
     1
  1
\A1;1370
  7
STYLE1
 73
     1
 44
1.0
1001
ACAD
1000
MTEXTBEGIN
1070
    73
1070
     1
1070
    44
1040
1.0
1070
    74
1070
     0
1000
MTEXTEND
  0
POINT
  5
1796E
330
15640
100
AcDbEntity
  8
DEFPOINTS
 62
     0
 48
50.0
100
AcDbPoint
 10
5943.097197605103
 20
7597.060989459997
 30
0.0
  0
POINT
  5
1796F
330
15640
100
AcDbEntity
  8
DEFPOINTS
 62
     0
 48
50.0
100
AcDbPoint
 10
7313.097197605086
 20
7597.060989460125
 30
0.0
  0
POINT
  5
17970
330
15640
100
AcDbEntity
  8
DEFPOINTS
 62
     0
 48
50.0
100
AcDbPoint
 10
7313.097197605086
 20
6832.925020106471
 30
0.0
  0
ENDBLK
  5
1564B
330
15640
100
AcDbEntity
  8
0
 48
50.0
100
AcDbBlockEnd
  0
BLOCK
  5
15690
330
1568F
100
AcDbEntity
  8
0
 48
50.0
100
AcDbBlockBegin
  2
*D12
 70
     1
 10
0.0
 20
0.0
 30
0.0
  3
*D12
  1

  0
LINE
  5
1795F
330
1568F
100
AcDbEntity
  8
寸法
 62
     0
 48
50.0
370
    -2
100
AcDbLine
 10
5998.097197605109
 20
9407.060989460042
 30
0.0
 11
5998.097197605109
 21
9882.539339406566
 31
0.0
  0
LINE
  5
17960
330
1568F
100
AcDbEntity
  8
寸法
 62
     0
 48
50.0
370
    -2
100
AcDbLine
 10
7258.09719760511
 20
9407.06098946017
 30
0.0
 11
7258.09719760511
 21
9882.539339406566
 31
0.0
  0
LINE
  5
17961
330
1568F
100
AcDbEntity
  8
寸法
 62
     0
 48
50.0
370
    -2
100
AcDbLine
 10
5998.097197605109
 20
9822.539339406565
 30
0.0
 11
7258.09719760511
 21
9822.539339406565
 31
0.0
  0
INSERT
  5
17962
330
1568F
100
AcDbEntity
  8
寸法
 62
     0
 48
50.0
370
    -2
100
AcDbBlockReference
  2
_DOTSMALL
 10
5998.097197605109
 20
9822.539339406565
 30
0.0
 41
100.0
 42
100.0
 43
100.0
 50
180.0
  0
INSERT
  5
17963
330
1568F
100
AcDbEntity
  8
寸法
 62
     0
 48
50.0
370
    -2
100
AcDbBlockReference
  2
_DOTSMALL
 10
7258.09719760511
 20
9822.539339406565
 30
0.0
 41
100.0
 42
100.0
 43
100.0
  0
MTEXT
  5
17964
330
1568F
100
AcDbEntity
  8
寸法
 62
     7
 48
50.0
100
AcDbMText
 10
6628.097197605109
 20
9922.551150430187
 30
0.0
 40
120.0
 41
0.0
 71
     5
 72
     1
  1
\A1;3X420=1260
  7
STYLE1
 73
     1
 44
1.0
1001
ACAD
1000
MTEXTBEGIN
1070
    73
1070
     1
1070
    44
1040
1.0
1070
    74
1070
     0
1000
MTEXTEND
  0
POINT
  5
17965
330
1568F
100
AcDbEntity
  8
DEFPOINTS
 62
     0
 48
50.0
100
AcDbPoint
 10
5998.097197605109
 20
9387.060989460042
 30
0.0
  0
POINT
  5
17966
330
1568F
100
AcDbEntity
  8
DEFPOINTS
 62
     0
 48
50.0
100
AcDbPoint
 10
7258.09719760511
 20
9387.06098946017
 30
0.0
  0
POINT
  5
17967
330
1568F
100
AcDbEntity
  8
DEFPOINTS
 62
     0
 48
50.0
100
AcDbPoint
 10
7258.09719760511
 20
9822.539339406565
 30
0.0
  0
ENDBLK
  5
1569A
330
1568F
100
AcDbEntity
  8
0
 48
50.0
100
AcDbBlockEnd
  0
BLOCK
  5
1571C
330
1571B
100
AcDbEntity
  8
0
 48
50.0
100
AcDbBlockBegin
  2
*D13
 70
     1
 10
0.0
 20
0.0
 30
0.0
  3
*D13
  1

  0
LINE
  5
17956
330
1571B
100
AcDbEntity
  8
寸法
 62
     0
 48
50.0
370
    -2
100
AcDbLine
 10
7368.097197605109
 20
9407.060989460042
 30
0.0
 11
7368.097197605109
 21
9882.539339406566
 31
0.0
  0
LINE
  5
17957
330
1571B
100
AcDbEntity
  8
寸法
 62
     0
 48
50.0
370
    -2
100
AcDbLine
 10
7258.09719760511
 20
9407.060989460042
 30
0.0
 11
7258.09719760511
 21
9882.539339406566
 31
0.0
  0
LINE
  5
17958
330
1571B
100
AcDbEntity
  8
寸法
 62
     0
 48
50.0
370
    -2
100
AcDbLine
 10
7368.097197605109
 20
9822.539339406565
 30
0.0
 11
7258.09719760511
 21
9822.539339406565
 31
0.0
  0
INSERT
  5
17959
330
1571B
100
AcDbEntity
  8
寸法
 62
     0
 48
50.0
370
    -2
100
AcDbBlockReference
  2
_DOTSMALL
 10
7368.097197605109
 20
9822.539339406565
 30
0.0
 41
100.0
 42
100.0
 43
100.0
  0
INSERT
  5
1795A
330
1571B
100
AcDbEntity
  8
寸法
 62
     0
 48
50.0
370
    -2
100
AcDbBlockReference
  2
_DOTSMALL
 10
7258.09719760511
 20
9822.539339406565
 30
0.0
 41
100.0
 42
100.0
 43
100.0
 50
180.0
  0
MTEXT
  5
1795B
330
1571B
100
AcDbEntity
  8
寸法
 62
     7
 48
50.0
100
AcDbMText
 10
7313.09719760511
 20
9922.539339406565
 30
0.0
 40
120.0
 41
0.0
 71
     5
 72
     1
  1
\A1;110
  7
STYLE1
 73
     1
 44
1.0
1001
ACAD
1000
MTEXTBEGIN
1070
    73
1070
     1
1070
    44
1040
1.0
1070
    74
1070
     0
1000
MTEXTEND
  0
POINT
  5
1795C
330
1571B
100
AcDbEntity
  8
DEFPOINTS
 62
     0
 48
50.0
100
AcDbPoint
 10
7368.097197605109
 20
9387.060989460042
 30
0.0
  0
POINT
  5
1795D
330
1571B
100
AcDbEntity
  8
DEFPOINTS
 62
     0
 48
50.0
100
AcDbPoint
 10
7258.09719760511
 20
9387.060989460042
 30
0.0
  0
POINT
  5
1795E
330
1571B
100
AcDbEntity
  8
DEFPOINTS
 62
     0
 48
50.0
100
AcDbPoint
 10
7258.09719760511
 20
9822.539339406565
 30
0.0
  0
ENDBLK
  5
15726
330
1571B
100
AcDbEntity
  8
0
 48
50.0
100
AcDbBlockEnd
  0
BLOCK
  5
15741
330
15728
100
AcDbEntity
  8
0
 48
50.0
100
AcDbBlockBegin
  2
*D14
 70
     1
 10
0.0
 20
0.0
 30
0.0
  3
*D14
  1

  0
LINE
  5
1794D
330
15728
100
AcDbEntity
  8
寸法
 62
     0
 48
50.0
370
    -2
100
AcDbLine
 10
5998.097197605109
 20
9407.060989460086
 30
0.0
 11
5998.097197605109
 21
9882.539339406566
 31
0.0
  0
LINE
  5
1794E
330
15728
100
AcDbEntity
  8
寸法
 62
     0
 48
50.0
370
    -2
100
AcDbLine
 10
5888.097197605111
 20
9407.06098946017
 30
0.0
 11
5888.097197605111
 21
9882.539339406566
 31
0.0
  0
LINE
  5
1794F
330
15728
100
AcDbEntity
  8
寸法
 62
     0
 48
50.0
370
    -2
100
AcDbLine
 10
5998.097197605109
 20
9822.539339406565
 30
0.0
 11
5888.097197605111
 21
9822.539339406565
 31
0.0
  0
INSERT
  5
17950
330
15728
100
AcDbEntity
  8
寸法
 62
     0
 48
50.0
370
    -2
100
AcDbBlockReference
  2
_DOTSMALL
 10
5998.097197605109
 20
9822.539339406565
 30
0.0
 41
100.0
 42
100.0
 43
100.0
  0
INSERT
  5
17951
330
15728
100
AcDbEntity
  8
寸法
 62
     0
 48
50.0
370
    -2
100
AcDbBlockReference
  2
_DOTSMALL
 10
5888.097197605111
 20
9822.539339406565
 30
0.0
 41
100.0
 42
100.0
 43
100.0
 50
180.0
  0
MTEXT
  5
17952
330
15728
100
AcDbEntity
  8
寸法
 62
     7
 48
50.0
100
AcDbMText
 10
5943.097197605109
 20
9922.539339406565
 30
0.0
 40
120.0
 41
0.0
 71
     5
 72
     1
  1
\A1;110
  7
STYLE1
 73
     1
 44
1.0
1001
ACAD
1000
MTEXTBEGIN
1070
    73
1070
     1
1070
    44
1040
1.0
1070
    74
1070
     0
1000
MTEXTEND
  0
POINT
  5
17953
330
15728
100
AcDbEntity
  8
DEFPOINTS
 62
     0
 48
50.0
100
AcDbPoint
 10
5998.097197605109
 20
9387.060989460087
 30
0.0
  0
POINT
  5
17954
330
15728
100
AcDbEntity
  8
DEFPOINTS
 62
     0
 48
50.0
100
AcDbPoint
 10
5888.097197605111
 20
9387.06098946017
 30
0.0
  0
POINT
  5
17955
330
15728
100
AcDbEntity
  8
DEFPOINTS
 62
     0
 48
50.0
100
AcDbPoint
 10
5888.097197605111
 20
9822.539339406565
 30
0.0
  0
ENDBLK
  5
1574B
330
15728
100
AcDbEntity
  8
0
 48
50.0
100
AcDbBlockEnd
  0
BLOCK
  5
1603E
330
1603D
100
AcDbEntity
  8
0
 48
50.0
100
AcDbBlockBegin
  2
*D15
 70
     1
 10
0.0
 20
0.0
 30
0.0
  3
*D15
  1

  0
LINE
  5
17944
330
1603D
100
AcDbEntity
  8
寸法
 62
     0
 48
50.0
370
    -2
100
AcDbLine
 10
8670.097197605112
 20
9352.952005611598
 30
0.0
 11
9125.280405005808
 21
9230.986032780373
 31
0.0
  0
LINE
  5
17945
330
1603D
100
AcDbEntity
  8
寸法
 62
     0
 48
50.0
370
    -2
100
AcDbLine
 10
8670.097197605322
 20
8499.952005611595
 30
0.0
 11
9125.280405005808
 21
8377.986032780425
 31
0.0
  0
LINE
  5
17946
330
1603D
100
AcDbEntity
  8
寸法
 62
     0
 48
50.0
370
    -2
100
AcDbLine
 10
9065.280405005809
 20
9247.062984326239
 30
0.0
 11
9065.280405005809
 21
8394.062984326293
 31
0.0
  0
INSERT
  5
17947
330
1603D
100
AcDbEntity
  8
寸法
 62
     0
 48
50.0
370
    -2
100
AcDbBlockReference
  2
_DOTSMALL
 10
9065.280405005809
 20
9247.062984326239
 30
0.0
 41
100.0
 42
100.0
 43
100.0
 50
90.0
  0
INSERT
  5
17948
330
1603D
100
AcDbEntity
  8
寸法
 62
     0
 48
50.0
370
    -2
100
AcDbBlockReference
  2
_DOTSMALL
 10
9065.280405005809
 20
8394.062984326293
 30
0.0
 41
100.0
 42
100.0
 43
100.0
 50
270.0
  0
MTEXT
  5
17949
330
1603D
100
AcDbEntity
  8
寸法
 62
     7
 48
50.0
100
AcDbMText
 10
8965.280405005808
 20
8825.717697264318
 30
0.0
 40
120.0
 41
0.0
 71
     5
 72
     1
  1
\A1;853
  7
STYLE1
 11
0.0000000000000001
 21
1.0
 31
0.0
 73
     1
 44
1.0
1001
ACAD
1000
MTEXTBEGIN
1070
    73
1070
     1
1070
    44
1040
1.0
1070
    74
1070
     0
1000
MTEXTEND
  0
POINT
  5
1794A
330
1603D
100
AcDbEntity
  8
DEFPOINTS
 62
     0
 48
50.0
100
AcDbPoint
 10
8650.097197605111
 20
9358.310989460219
 30
0.0
  0
POINT
  5
1794B
330
1603D
100
AcDbEntity
  8
DEFPOINTS
 62
     0
 48
50.0
100
AcDbPoint
 10
8650.097197605322
 20
8505.310989460218
 30
0.0
  0
POINT
  5
1794C
330
1603D
100
AcDbEntity
  8
DEFPOINTS
 62
     0
 48
50.0
100
AcDbPoint
 10
9065.280405005809
 20
8394.062984326293
 30
0.0
  0
ENDBLK
  5
16048
330
1603D
100
AcDbEntity
  8
0
 48
50.0
100
AcDbBlockEnd
  0
BLOCK
  5
1604A
330
16049
100
AcDbEntity
  8
0
 48
50.0
100
AcDbBlockBegin
  2
*D16
 70
     1
 10
0.0
 20
0.0
 30
0.0
  3
*D16
  1

  0
LINE
  5
1793B
330
16049
100
AcDbEntity
  8
寸法
 62
     0
 48
50.0
370
    -2
100
AcDbLine
 10
8670.097197605107
 20
8465.202005611587
 30
0.0
 11
9125.280405005808
 21
8343.23603278036
 31
0.0
  0
LINE
  5
1793C
330
16049
100
AcDbEntity
  8
寸法
 62
     0
 48
50.0
370
    -2
100
AcDbLine
 10
8670.097197605322
 20
7669.202005611584
 30
0.0
 11
9125.280405005808
 21
7547.236032780414
 31
0.0
  0
LINE
  5
1793D
330
16049
100
AcDbEntity
  8
寸法
 62
     0
 48
50.0
370
    -2
100
AcDbLine
 10
9065.280405005809
 20
8359.312984326228
 30
0.0
 11
9065.280405005809
 21
7563.312984326282
 31
0.0
  0
INSERT
  5
1793E
330
16049
100
AcDbEntity
  8
寸法
 62
     0
 48
50.0
370
    -2
100
AcDbBlockReference
  2
_DOTSMALL
 10
9065.280405005809
 20
8359.312984326228
 30
0.0
 41
100.0
 42
100.0
 43
100.0
 50
90.0
  0
INSERT
  5
1793F
330
16049
100
AcDbEntity
  8
寸法
 62
     0
 48
50.0
370
    -2
100
AcDbBlockReference
  2
_DOTSMALL
 10
9065.280405005809
 20
7563.312984326282
 30
0.0
 41
100.0
 42
100.0
 43
100.0
 50
270.0
  0
MTEXT
  5
17940
330
16049
100
AcDbEntity
  8
寸法
 62
     7
 48
50.0
100
AcDbMText
 10
8965.280405005808
 20
7979.967697264306
 30
0.0
 40
120.0
 41
0.0
 71
     5
 72
     1
  1
\A1;796
  7
STYLE1
 11
0.0000000000000001
 21
1.0
 31
0.0
 73
     1
 44
1.0
1001
ACAD
1000
MTEXTBEGIN
1070
    73
1070
     1
1070
    44
1040
1.0
1070
    74
1070
     0
1000
MTEXTEND
  0
POINT
  5
17941
330
16049
100
AcDbEntity
  8
DEFPOINTS
 62
     0
 48
50.0
100
AcDbPoint
 10
8650.097197605107
 20
8470.560989460208
 30
0.0
  0
POINT
  5
17942
330
16049
100
AcDbEntity
  8
DEFPOINTS
 62
     0
 48
50.0
100
AcDbPoint
 10
8650.097197605322
 20
7674.560989460205
 30
0.0
  0
POINT
  5
17943
330
16049
100
AcDbEntity
  8
DEFPOINTS
 62
     0
 48
50.0
100
AcDbPoint
 10
9065.280405005809
 20
7563.312984326282
 30
0.0
  0
ENDBLK
  5
16054
330
16049
100
AcDbEntity
  8
0
 48
50.0
100
AcDbBlockEnd
  0
BLOCK
  5
16BE0
330
16BD4
100
AcDbEntity
  8
0
 48
50.0
100
AcDbBlockBegin
  2
*D17
 70
     1
 10
0.0
 20
0.0
 30
0.0
  3
*D17
  1

  0
LINE
  5
17A56
330
16BD4
100
AcDbEntity
  8
寸法
 62
     0
 48
50.0
370
    -2
100
AcDbLine
 10
8733.097197605111
 20
5220.08100186485
 30
0.0
 11
8733.097197605111
 21
5472.62258712309
 31
0.0
  0
LINE
  5
17A57
330
16BD4
100
AcDbEntity
  8
寸法
 62
     0
 48
50.0
370
    -2
100
AcDbLine
 10
8683.097197605112
 20
5220.081001864851
 30
0.0
 11
8683.097197605112
 21
5472.62258712309
 31
0.0
  0
LINE
  5
17A58
330
16BD4
100
AcDbEntity
  8
寸法
 62
     0
 48
50.0
370
    -2
100
AcDbLine
 10
8683.097197605112
 20
5412.622587123091
 30
0.0
 11
8583.097197605111
 21
5412.622587123091
 31
0.0
  0
LINE
  5
17A59
330
16BD4
100
AcDbEntity
  8
寸法
 62
     0
 48
50.0
370
    -2
100
AcDbLine
 10
8733.097197605111
 20
5412.622587123091
 30
0.0
 11
9152.629723073834
 21
5412.622587123091
 31
0.0
  0
LINE
  5
17A5A
330
16BD4
100
AcDbEntity
  8
寸法
 62
     0
 48
50.0
370
    -2
100
AcDbLine
 10
8683.097197605112
 20
5412.622587123091
 30
0.0
 11
8733.097197605111
 21
5412.622587123091
 31
0.0
  0
INSERT
  5
17A5B
330
16BD4
100
AcDbEntity
  8
寸法
 62
     0
 48
50.0
370
    -2
100
AcDbBlockReference
  2
_DOTSMALL
 10
8683.097197605112
 20
5412.622587123091
 30
0.0
 41
100.0
 42
100.0
 43
100.0
  0
INSERT
  5
17A5C
330
16BD4
100
AcDbEntity
  8
寸法
 62
     0
 48
50.0
370
    -2
100
AcDbBlockReference
  2
_DOTSMALL
 10
8733.097197605111
 20
5412.622587123091
 30
0.0
 41
100.0
 42
100.0
 43
100.0
 50
180.0
  0
MTEXT
  5
17A5D
330
16BD4
100
AcDbEntity
  8
寸法
 62
     7
 48
50.0
100
AcDbMText
 10
9046.582478979347
 20
5512.62258712309
 30
0.0
 40
120.0
 41
0.0
 71
     5
 72
     1
  1
\A1;50
  7
STYLE1
 73
     1
 44
1.0
1001
ACAD
1000
MTEXTBEGIN
1070
    73
1070
     1
1070
    44
1040
1.0
1070
    74
1070
     0
1000
MTEXTEND
  0
POINT
  5
17A5E
330
16BD4
100
AcDbEntity
  8
DEFPOINTS
 62
     0
 48
50.0
100
AcDbPoint
 10
8733.097197605111
 20
5200.08100186485
 30
0.0
  0
POINT
  5
17A5F
330
16BD4
100
AcDbEntity
  8
DEFPOINTS
 62
     0
 48
50.0
100
AcDbPoint
 10
8683.097197605112
 20
5200.081001864852
 30
0.0
  0
POINT
  5
17A60
330
16BD4
100
AcDbEntity
  8
DEFPOINTS
 62
     0
 48
50.0
100
AcDbPoint
 10
8683.097197605112
 20
5412.622587123091
 30
0.0
  0
ENDBLK
  5
16BE1
330
16BD4
100
AcDbEntity
  8
0
 48
50.0
100
AcDbBlockEnd
  0
BLOCK
  5
16BEC
330
16BE2
100
AcDbEntity
  8
0
 48
50.0
100
AcDbBlockBegin
  2
*D18
 70
     1
 10
0.0
 20
0.0
 30
0.0
  3
*D18
  1

  0
LINE
  5
17A4D
330
16BE2
100
AcDbEntity
  8
寸法
 62
     0
 48
50.0
370
    -2
100
AcDbLine
 10
8683.097197605112
 20
5220.081001864851
 30
0.0
 11
8683.097197605112
 21
5472.622587123094
 31
0.0
  0
LINE
  5
17A4E
330
16BE2
100
AcDbEntity
  8
寸法
 62
     0
 48
50.0
370
    -2
100
AcDbLine
 10
4573.097197605106
 20
5220.081001864858
 30
0.0
 11
4573.097197605106
 21
5472.622587123094
 31
0.0
  0
LINE
  5
17A4F
330
16BE2
100
AcDbEntity
  8
寸法
 62
     0
 48
50.0
370
    -2
100
AcDbLine
 10
8683.097197605112
 20
5412.622587123094
 30
0.0
 11
4573.097197605106
 21
5412.622587123094
 31
0.0
  0
INSERT
  5
17A50
330
16BE2
100
AcDbEntity
  8
寸法
 62
     0
 48
50.0
370
    -2
100
AcDbBlockReference
  2
_DOTSMALL
 10
8683.097197605112
 20
5412.622587123094
 30
0.0
 41
100.0
 42
100.0
 43
100.0
  0
INSERT
  5
17A51
330
16BE2
100
AcDbEntity
  8
寸法
 62
     0
 48
50.0
370
    -2
100
AcDbBlockReference
  2
_DOTSMALL
 10
4573.097197605106
 20
5412.622587123094
 30
0.0
 41
100.0
 42
100.0
 43
100.0
 50
180.0
  0
MTEXT
  5
17A52
330
16BE2
100
AcDbEntity
  8
寸法
 62
     7
 48
50.0
100
AcDbMText
 10
6628.097197605109
 20
5512.622587123094
 30
0.0
 40
120.0
 41
0.0
 71
     5
 72
     1
  1
\A1;柱外寸法 N x 1370
  7
STYLE1
 73
     1
 44
1.0
1001
ACAD
1000
MTEXTBEGIN
1070
    73
1070
     1
1070
    44
1040
1.0
1070
    74
1070
     0
1000
MTEXTEND
  0
POINT
  5
17A53
330
16BE2
100
AcDbEntity
  8
DEFPOINTS
 62
     0
 48
50.0
100
AcDbPoint
 10
8683.097197605112
 20
5200.081001864852
 30
0.0
  0
POINT
  5
17A54
330
16BE2
100
AcDbEntity
  8
DEFPOINTS
 62
     0
 48
50.0
100
AcDbPoint
 10
4573.097197605106
 20
5200.081001864857
 30
0.0
  0
POINT
  5
17A55
330
16BE2
100
AcDbEntity
  8
DEFPOINTS
 62
     0
 48
50.0
100
AcDbPoint
 10
4573.097197605106
 20
5412.622587123094
 30
0.0
  0
ENDBLK
  5
16BED
330
16BE2
100
AcDbEntity
  8
0
 48
50.0
100
AcDbBlockEnd
  0
BLOCK
  5
16BF8
330
16BEE
100
AcDbEntity
  8
0
 48
50.0
100
AcDbBlockBegin
  2
*D19
 70
     1
 10
0.0
 20
0.0
 30
0.0
  3
*D19
  1

  0
LINE
  5
17A44
330
16BEE
100
AcDbEntity
  8
寸法
 62
     0
 48
50.0
370
    -2
100
AcDbLine
 10
4523.097197605106
 20
5220.081001864855
 30
0.0
 11
4523.097197605106
 21
5695.579565560944
 31
0.0
  0
LINE
  5
17A45
330
16BEE
100
AcDbEntity
  8
寸法
 62
     0
 48
50.0
370
    -2
100
AcDbLine
 10
8733.097197605111
 20
5220.08100186485
 30
0.0
 11
8733.097197605111
 21
5695.579565560944
 31
0.0
  0
LINE
  5
17A46
330
16BEE
100
AcDbEntity
  8
寸法
 62
     0
 48
50.0
370
    -2
100
AcDbLine
 10
4523.097197605106
 20
5635.579565560943
 30
0.0
 11
8733.097197605111
 21
5635.579565560943
 31
0.0
  0
INSERT
  5
17A47
330
16BEE
100
AcDbEntity
  8
寸法
 62
     0
 48
50.0
370
    -2
100
AcDbBlockReference
  2
_DOTSMALL
 10
4523.097197605106
 20
5635.579565560943
 30
0.0
 41
100.0
 42
100.0
 43
100.0
 50
180.0
  0
INSERT
  5
17A48
330
16BEE
100
AcDbEntity
  8
寸法
 62
     0
 48
50.0
370
    -2
100
AcDbBlockReference
  2
_DOTSMALL
 10
8733.097197605111
 20
5635.579565560943
 30
0.0
 41
100.0
 42
100.0
 43
100.0
  0
MTEXT
  5
17A49
330
16BEE
100
AcDbEntity
  8
寸法
 62
     7
 48
50.0
100
AcDbMText
 10
6628.097197605109
 20
5735.579565560943
 30
0.0
 40
120.0
 41
0.0
 71
     5
 72
     1
  1
\A1;N x 1370 +100
  7
STYLE1
 73
     1
 44
1.0
1001
ACAD
1000
MTEXTBEGIN
1070
    73
1070
     1
1070
    44
1040
1.0
1070
    74
1070
     0
1000
MTEXTEND
  0
POINT
  5
17A4A
330
16BEE
100
AcDbEntity
  8
DEFPOINTS
 62
     0
 48
50.0
100
AcDbPoint
 10
4523.097197605106
 20
5200.081001864855
 30
0.0
  0
POINT
  5
17A4B
330
16BEE
100
AcDbEntity
  8
DEFPOINTS
 62
     0
 48
50.0
100
AcDbPoint
 10
8733.097197605111
 20
5200.08100186485
 30
0.0
  0
POINT
  5
17A4C
330
16BEE
100
AcDbEntity
  8
DEFPOINTS
 62
     0
 48
50.0
100
AcDbPoint
 10
8733.097197605111
 20
5635.579565560943
 30
0.0
  0
ENDBLK
  5
16BF9
330
16BEE
100
AcDbEntity
  8
0
 48
50.0
100
AcDbBlockEnd
  0
BLOCK
  5
16C06
330
16BFA
100
AcDbEntity
  8
0
 48
50.0
100
AcDbBlockBegin
  2
*D20
 70
     1
 10
0.0
 20
0.0
 30
0.0
  3
*D20
  1

  0
LINE
  5
17A39
330
16BFA
100
AcDbEntity
  8
寸法
 62
     0
 48
50.0
370
    -2
100
AcDbLine
 10
4573.097197605106
 20
5220.081001864858
 30
0.0
 11
4573.097197605106
 21
5472.622587123094
 31
0.0
  0
LINE
  5
17A3A
330
16BFA
100
AcDbEntity
  8
寸法
 62
     0
 48
50.0
370
    -2
100
AcDbLine
 10
4523.097197605106
 20
5220.081001864855
 30
0.0
 11
4523.097197605106
 21
5472.622587123094
 31
0.0
  0
LINE
  5
17A3B
330
16BFA
100
AcDbEntity
  8
寸法
 62
     0
 48
50.0
370
    -2
100
AcDbLine
 10
4573.097197605106
 20
5412.622587123094
 30
0.0
 11
4673.097197605105
 21
5412.622587123094
 31
0.0
  0
LINE
  5
17A3C
330
16BFA
100
AcDbEntity
  8
寸法
 62
     0
 48
50.0
370
    -2
100
AcDbLine
 10
4523.097197605106
 20
5412.622587123094
 30
0.0
 11
4103.56467213637
 21
5412.622587123094
 31
0.0
  0
LINE
  5
17A3D
330
16BFA
100
AcDbEntity
  8
寸法
 62
     0
 48
50.0
370
    -2
100
AcDbLine
 10
4573.097197605106
 20
5412.622587123094
 30
0.0
 11
4523.097197605106
 21
5412.622587123094
 31
0.0
  0
INSERT
  5
17A3E
330
16BFA
100
AcDbEntity
  8
寸法
 62
     0
 48
50.0
370
    -2
100
AcDbBlockReference
  2
_DOTSMALL
 10
4573.097197605106
 20
5412.622587123094
 30
0.0
 41
100.0
 42
100.0
 43
100.0
 50
180.0
  0
INSERT
  5
17A3F
330
16BFA
100
AcDbEntity
  8
寸法
 62
     0
 48
50.0
370
    -2
100
AcDbBlockReference
  2
_DOTSMALL
 10
4523.097197605106
 20
5412.622587123094
 30
0.0
 41
100.0
 42
100.0
 43
100.0
  0
MTEXT
  5
17A40
330
16BFA
100
AcDbEntity
  8
寸法
 62
     7
 48
50.0
100
AcDbMText
 10
4209.611916230858
 20
5512.622587123094
 30
0.0
 40
120.0
 41
0.0
 71
     5
 72
     1
  1
\A1;50
  7
STYLE1
 73
     1
 44
1.0
1001
ACAD
1000
MTEXTBEGIN
1070
    73
1070
     1
1070
    44
1040
1.0
1070
    74
1070
     0
1000
MTEXTEND
  0
POINT
  5
17A41
330
16BFA
100
AcDbEntity
  8
DEFPOINTS
 62
     0
 48
50.0
100
AcDbPoint
 10
4573.097197605106
 20
5200.081001864857
 30
0.0
  0
POINT
  5
17A42
330
16BFA
100
AcDbEntity
  8
DEFPOINTS
 62
     0
 48
50.0
100
AcDbPoint
 10
4523.097197605106
 20
5200.081001864855
 30
0.0
  0
POINT
  5
17A43
330
16BFA
100
AcDbEntity
  8
DEFPOINTS
 62
     0
 48
50.0
100
AcDbPoint
 10
4523.097197605106
 20
5412.622587123094
 30
0.0
  0
ENDBLK
  5
16C07
330
16BFA
100
AcDbEntity
  8
0
 48
50.0
100
AcDbBlockEnd
  0
BLOCK
  5
170FD
330
170F3
100
AcDbEntity
  8
0
 48
50.0
100
AcDbBlockBegin
  2
*D21
 70
     1
 10
0.0
 20
0.0
 30
0.0
  3
*D21
  1

  0
LINE
  5
17932
330
170F3
100
AcDbEntity
  8
寸法
 62
     0
 48
50.0
370
    -2
100
AcDbLine
 10
8059.097197605103
 20
7577.060989460107
 30
0.0
 11
8059.097197605103
 21
7009.891824499631
 31
0.0
  0
LINE
  5
17933
330
170F3
100
AcDbEntity
  8
寸法
 62
     0
 48
50.0
370
    -2
100
AcDbLine
 10
7373.097197605104
 20
7577.060989460033
 30
0.0
 11
7373.097197605104
 21
7009.891824499631
 31
0.0
  0
LINE
  5
17934
330
170F3
100
AcDbEntity
  8
寸法
 62
     0
 48
50.0
370
    -2
100
AcDbLine
 10
8059.097197605103
 20
7069.891824499631
 30
0.0
 11
7373.097197605104
 21
7069.891824499631
 31
0.0
  0
INSERT
  5
17935
330
170F3
100
AcDbEntity
  8
寸法
 62
     0
 48
50.0
370
    -2
100
AcDbBlockReference
  2
_DOTSMALL
 10
8059.097197605103
 20
7069.891824499631
 30
0.0
 41
100.0
 42
100.0
 43
100.0
  0
INSERT
  5
17936
330
170F3
100
AcDbEntity
  8
寸法
 62
     0
 48
50.0
370
    -2
100
AcDbBlockReference
  2
_DOTSMALL
 10
7373.097197605104
 20
7069.891824499631
 30
0.0
 41
100.0
 42
100.0
 43
100.0
 50
180.0
  0
MTEXT
  5
17937
330
170F3
100
AcDbEntity
  8
寸法
 62
     7
 48
50.0
100
AcDbMText
 10
7716.097197605105
 20
7269.89182449963
 30
0.0
 40
120.0
 41
0.0
 71
     5
 72
     1
  1
\A1;有効開口部間口\P686
  7
STYLE1
 73
     1
 44
1.0
1001
ACAD
1000
MTEXTBEGIN
1070
    73
1070
     1
1070
    44
1040
1.0
1070
    74
1070
     0
1000
MTEXTEND
  0
POINT
  5
17938
330
170F3
100
AcDbEntity
  8
DEFPOINTS
 62
     0
 48
50.0
100
AcDbPoint
 10
8059.097197605103
 20
7597.060989460108
 30
0.0
  0
POINT
  5
17939
330
170F3
100
AcDbEntity
  8
DEFPOINTS
 62
     0
 48
50.0
100
AcDbPoint
 10
7373.097197605104
 20
7597.060989460032
 30
0.0
  0
POINT
  5
1793A
330
170F3
100
AcDbEntity
  8
DEFPOINTS
 62
     0
 48
50.0
100
AcDbPoint
 10
7373.097197605104
 20
7069.891824499631
 30
0.0
  0
ENDBLK
  5
170FE
330
170F3
100
AcDbEntity
  8
0
 48
50.0
100
AcDbBlockEnd
  0
BLOCK
  5
17109
330
170FF
100
AcDbEntity
  8
0
 48
50.0
100
AcDbBlockBegin
  2
*D22
 70
     1
 10
0.0
 20
0.0
 30
0.0
  3
*D22
  1

  0
LINE
  5
17929
330
170FF
100
AcDbEntity
  8
寸法
 62
     0
 48
50.0
370
    -2
100
AcDbLine
 10
6689.097197605105
 20
7577.060989460107
 30
0.0
 11
6689.097197605105
 21
7009.891824499631
 31
0.0
  0
LINE
  5
1792A
330
170FF
100
AcDbEntity
  8
寸法
 62
     0
 48
50.0
370
    -2
100
AcDbLine
 10
6003.097197605104
 20
7577.060989460033
 30
0.0
 11
6003.097197605104
 21
7009.891824499631
 31
0.0
  0
LINE
  5
1792B
330
170FF
100
AcDbEntity
  8
寸法
 62
     0
 48
50.0
370
    -2
100
AcDbLine
 10
6689.097197605105
 20
7069.891824499631
 30
0.0
 11
6003.097197605104
 21
7069.891824499631
 31
0.0
  0
INSERT
  5
1792C
330
170FF
100
AcDbEntity
  8
寸法
 62
     0
 48
50.0
370
    -2
100
AcDbBlockReference
  2
_DOTSMALL
 10
6689.097197605105
 20
7069.891824499631
 30
0.0
 41
100.0
 42
100.0
 43
100.0
  0
INSERT
  5
1792D
330
170FF
100
AcDbEntity
  8
寸法
 62
     0
 48
50.0
370
    -2
100
AcDbBlockReference
  2
_DOTSMALL
 10
6003.097197605104
 20
7069.891824499631
 30
0.0
 41
100.0
 42
100.0
 43
100.0
 50
180.0
  0
MTEXT
  5
1792E
330
170FF
100
AcDbEntity
  8
寸法
 62
     7
 48
50.0
100
AcDbMText
 10
6346.097197605104
 20
7269.89182449963
 30
0.0
 40
120.0
 41
0.0
 71
     5
 72
     1
  1
\A1;有効開口部間口\P686
  7
STYLE1
 73
     1
 44
1.0
1001
ACAD
1000
MTEXTBEGIN
1070
    73
1070
     1
1070
    44
1040
1.0
1070
    74
1070
     0
1000
MTEXTEND
  0
POINT
  5
1792F
330
170FF
100
AcDbEntity
  8
DEFPOINTS
 62
     0
 48
50.0
100
AcDbPoint
 10
6689.097197605105
 20
7597.060989460108
 30
0.0
  0
POINT
  5
17930
330
170FF
100
AcDbEntity
  8
DEFPOINTS
 62
     0
 48
50.0
100
AcDbPoint
 10
6003.097197605104
 20
7597.060989460032
 30
0.0
  0
POINT
  5
17931
330
170FF
100
AcDbEntity
  8
DEFPOINTS
 62
     0
 48
50.0
100
AcDbPoint
 10
6003.097197605104
 20
7069.891824499631
 30
0.0
  0
ENDBLK
  5
1710A
330
170FF
100
AcDbEntity
  8
0
 48
50.0
100
AcDbBlockEnd
  0
BLOCK
  5
17115
330
1710B
100
AcDbEntity
  8
0
 48
50.0
100
AcDbBlockBegin
  2
*D23
 70
     1
 10
0.0
 20
0.0
 30
0.0
  3
*D23
  1

  0
LINE
  5
17920
330
1710B
100
AcDbEntity
  8
寸法
 62
     0
 48
50.0
370
    -2
100
AcDbLine
 10
5319.097197605104
 20
7577.060989460105
 30
0.0
 11
5319.097197605104
 21
7009.891824499629
 31
0.0
  0
LINE
  5
17921
330
1710B
100
AcDbEntity
  8
寸法
 62
     0
 48
50.0
370
    -2
100
AcDbLine
 10
4633.097197605104
 20
7577.060989460029
 30
0.0
 11
4633.097197605104
 21
7009.891824499629
 31
0.0
  0
LINE
  5
17922
330
1710B
100
AcDbEntity
  8
寸法
 62
     0
 48
50.0
370
    -2
100
AcDbLine
 10
5319.097197605104
 20
7069.891824499627
 30
0.0
 11
4633.097197605104
 21
7069.891824499627
 31
0.0
  0
INSERT
  5
17923
330
1710B
100
AcDbEntity
  8
寸法
 62
     0
 48
50.0
370
    -2
100
AcDbBlockReference
  2
_DOTSMALL
 10
5319.097197605104
 20
7069.891824499627
 30
0.0
 41
100.0
 42
100.0
 43
100.0
  0
INSERT
  5
17924
330
1710B
100
AcDbEntity
  8
寸法
 62
     0
 48
50.0
370
    -2
100
AcDbBlockReference
  2
_DOTSMALL
 10
4633.097197605104
 20
7069.891824499627
 30
0.0
 41
100.0
 42
100.0
 43
100.0
 50
180.0
  0
MTEXT
  5
17925
330
1710B
100
AcDbEntity
  8
寸法
 62
     7
 48
50.0
100
AcDbMText
 10
4976.097197605104
 20
7269.891824499628
 30
0.0
 40
120.0
 41
0.0
 71
     5
 72
     1
  1
\A1;有効開口部間口\P686
  7
STYLE1
 73
     1
 44
1.0
1001
ACAD
1000
MTEXTBEGIN
1070
    73
1070
     1
1070
    44
1040
1.0
1070
    74
1070
     0
1000
MTEXTEND
  0
POINT
  5
17926
330
1710B
100
AcDbEntity
  8
DEFPOINTS
 62
     0
 48
50.0
100
AcDbPoint
 10
5319.097197605104
 20
7597.060989460105
 30
0.0
  0
POINT
  5
17927
330
1710B
100
AcDbEntity
  8
DEFPOINTS
 62
     0
 48
50.0
100
AcDbPoint
 10
4633.097197605104
 20
7597.06098946003
 30
0.0
  0
POINT
  5
17928
330
1710B
100
AcDbEntity
  8
DEFPOINTS
 62
     0
 48
50.0
100
AcDbPoint
 10
4633.097197605104
 20
7069.891824499627
 30
0.0
  0
ENDBLK
  5
17116
330
1710B
100
AcDbEntity
  8
0
 48
50.0
100
AcDbBlockEnd
  0
BLOCK
  5
1743D
330
17433
100
AcDbEntity
  8
0
 48
50.0
100
AcDbBlockBegin
  2
*D24
 70
     1
 10
0.0
 20
0.0
 30
0.0
  3
*D24
  1

  0
LINE
  5
17A30
330
17433
100
AcDbEntity
  8
寸法
 62
     0
 48
50.0
370
    -2
100
AcDbLine
 10
10598.89457941259
 20
4957.081001864848
 30
0.0
 11
10013.98593801533
 21
4957.08100186485
 31
0.0
  0
LINE
  5
17A31
330
17433
100
AcDbEntity
  8
寸法
 62
     0
 48
50.0
370
    -2
100
AcDbLine
 10
10598.89457941259
 20
3187.081001864848
 30
0.0
 11
10013.98593801533
 21
3187.081001864848
 31
0.0
  0
LINE
  5
17A32
330
17433
100
AcDbEntity
  8
寸法
 62
     0
 48
50.0
370
    -2
100
AcDbLine
 10
10073.98593801533
 20
4957.08100186485
 30
0.0
 11
10073.98593801533
 21
3187.081001864848
 31
0.0
  0
INSERT
  5
17A33
330
17433
100
AcDbEntity
  8
寸法
 62
     0
 48
50.0
370
    -2
100
AcDbBlockReference
  2
_DOTSMALL
 10
10073.98593801533
 20
4957.08100186485
 30
0.0
 41
100.0
 42
100.0
 43
100.0
 50
90.0
  0
INSERT
  5
17A34
330
17433
100
AcDbEntity
  8
寸法
 62
     0
 48
50.0
370
    -2
100
AcDbBlockReference
  2
_DOTSMALL
 10
10073.98593801533
 20
3187.081001864848
 30
0.0
 41
100.0
 42
100.0
 43
100.0
 50
270.0
  0
MTEXT
  5
17A35
330
17433
100
AcDbEntity
  8
寸法
 62
     7
 48
50.0
100
AcDbMText
 10
9973.985938015337
 20
4072.081001864851
 30
0.0
 40
120.0
 41
0.0
 71
     5
 72
     1
  1
\A1;有効開口部高サ1770
  7
STYLE1
 11
0.0000000000000001
 21
1.0
 31
0.0
 73
     1
 44
1.0
1001
ACAD
1000
MTEXTBEGIN
1070
    73
1070
     1
1070
    44
1040
1.0
1070
    74
1070
     0
1000
MTEXTEND
  0
POINT
  5
17A36
330
17433
100
AcDbEntity
  8
DEFPOINTS
 62
     0
 48
50.0
100
AcDbPoint
 10
10618.89457941259
 20
4957.081001864848
 30
0.0
  0
POINT
  5
17A37
330
17433
100
AcDbEntity
  8
DEFPOINTS
 62
     0
 48
50.0
100
AcDbPoint
 10
10618.89457941259
 20
3187.081001864848
 30
0.0
  0
POINT
  5
17A38
330
17433
100
AcDbEntity
  8
DEFPOINTS
 62
     0
 48
50.0
100
AcDbPoint
 10
10073.98593801533
 20
3187.081001864848
 30
0.0
  0
ENDBLK
  5
1743E
330
17433
100
AcDbEntity
  8
0
 48
50.0
100
AcDbBlockEnd
  0
BLOCK
  5
17449
330
1743F
100
AcDbEntity
  8
0
 48
50.0
100
AcDbBlockBegin
  2
*D25
 70
     1
 10
0.0
 20
0.0
 30
0.0
  3
*D25
  1

  0
LINE
  5
17A27
330
1743F
100
AcDbEntity
  8
寸法
 62
     0
 48
50.0
370
    -2
100
AcDbLine
 10
10598.89457941259
 20
4965.081001864849
 30
0.0
 11
9715.144450229333
 21
4965.081001864849
 31
0.0
  0
LINE
  5
17A28
330
1743F
100
AcDbEntity
  8
寸法
 62
     0
 48
50.0
370
    -2
100
AcDbLine
 10
10598.89457941259
 20
3175.081001864848
 30
0.0
 11
9715.144450229331
 21
3175.081001864848
 31
0.0
  0
LINE
  5
17A29
330
1743F
100
AcDbEntity
  8
寸法
 62
     0
 48
50.0
370
    -2
100
AcDbLine
 10
9775.144450229333
 20
4965.081001864849
 30
0.0
 11
9775.144450229332
 21
3175.081001864848
 31
0.0
  0
INSERT
  5
17A2A
330
1743F
100
AcDbEntity
  8
寸法
 62
     0
 48
50.0
370
    -2
100
AcDbBlockReference
  2
_DOTSMALL
 10
9775.144450229333
 20
4965.081001864849
 30
0.0
 41
100.0
 42
100.0
 43
100.0
 50
90.0
  0
INSERT
  5
17A2B
330
1743F
100
AcDbEntity
  8
寸法
 62
     0
 48
50.0
370
    -2
100
AcDbBlockReference
  2
_DOTSMALL
 10
9775.144450229332
 20
3175.081001864848
 30
0.0
 41
100.0
 42
100.0
 43
100.0
 50
270.0
  0
MTEXT
  5
17A2C
330
1743F
100
AcDbEntity
  8
寸法
 62
     7
 48
50.0
100
AcDbMText
 10
9675.144450229332
 20
4070.08100186485
 30
0.0
 40
120.0
 41
0.0
 71
     5
 72
     1
  1
\A1;1790
  7
STYLE1
 11
0.0000000000000001
 21
1.0
 31
0.0
 73
     1
 44
1.0
1001
ACAD
1000
MTEXTBEGIN
1070
    73
1070
     1
1070
    44
1040
1.0
1070
    74
1070
     0
1000
MTEXTEND
  0
POINT
  5
17A2D
330
1743F
100
AcDbEntity
  8
DEFPOINTS
 62
     0
 48
50.0
100
AcDbPoint
 10
10618.89457941259
 20
4965.081001864849
 30
0.0
  0
POINT
  5
17A2E
330
1743F
100
AcDbEntity
  8
DEFPOINTS
 62
     0
 48
50.0
100
AcDbPoint
 10
10618.89457941259
 20
3175.081001864848
 30
0.0
  0
POINT
  5
17A2F
330
1743F
100
AcDbEntity
  8
DEFPOINTS
 62
     0
 48
50.0
100
AcDbPoint
 10
9775.144450229332
 20
3175.081001864848
 30
0.0
  0
ENDBLK
  5
1744A
330
1743F
100
AcDbEntity
  8
0
 48
50.0
100
AcDbBlockEnd
  0
BLOCK
  5
17455
330
1744B
100
AcDbEntity
  8
0
 48
50.0
100
AcDbBlockBegin
  2
*D26
 70
     1
 10
0.0
 20
0.0
 30
0.0
  3
*D26
  1

  0
LINE
  5
17A1E
330
1744B
100
AcDbEntity
  8
寸法
 62
     0
 48
50.0
370
    -2
100
AcDbLine
 10
10598.89457941259
 20
3125.081001864848
 30
0.0
 11
9415.144450229329
 21
3125.081001864848
 31
0.0
  0
LINE
  5
17A1F
330
1744B
100
AcDbEntity
  8
寸法
 62
     0
 48
50.0
370
    -2
100
AcDbLine
 10
10538.89457941259
 20
5200.081001864853
 30
0.0
 11
9415.14445022933
 21
5200.081001864854
 31
0.0
  0
LINE
  5
17A20
330
1744B
100
AcDbEntity
  8
寸法
 62
     0
 48
50.0
370
    -2
100
AcDbLine
 10
9475.144450229329
 20
3125.081001864848
 30
0.0
 11
9475.144450229331
 21
5200.081001864854
 31
0.0
  0
INSERT
  5
17A21
330
1744B
100
AcDbEntity
  8
寸法
 62
     0
 48
50.0
370
    -2
100
AcDbBlockReference
  2
_DOTSMALL
 10
9475.144450229329
 20
3125.081001864848
 30
0.0
 41
100.0
 42
100.0
 43
100.0
 50
270.0
  0
INSERT
  5
17A22
330
1744B
100
AcDbEntity
  8
寸法
 62
     0
 48
50.0
370
    -2
100
AcDbBlockReference
  2
_DOTSMALL
 10
9475.144450229331
 20
5200.081001864854
 30
0.0
 41
100.0
 42
100.0
 43
100.0
 50
90.0
  0
MTEXT
  5
17A23
330
1744B
100
AcDbEntity
  8
寸法
 62
     7
 48
50.0
100
AcDbMText
 10
9375.132639205707
 20
4162.581001864851
 30
0.0
 40
120.0
 41
0.0
 71
     5
 72
     1
  1
\A1;2075
  7
STYLE1
 11
0.0000000000000001
 21
1.0
 31
0.0
 73
     1
 44
1.0
1001
ACAD
1000
MTEXTBEGIN
1070
    73
1070
     1
1070
    44
1040
1.0
1070
    74
1070
     0
1000
MTEXTEND
  0
POINT
  5
17A24
330
1744B
100
AcDbEntity
  8
DEFPOINTS
 62
     0
 48
50.0
100
AcDbPoint
 10
10618.89457941259
 20
3125.081001864848
 30
0.0
  0
POINT
  5
17A25
330
1744B
100
AcDbEntity
  8
DEFPOINTS
 62
     0
 48
50.0
100
AcDbPoint
 10
10558.89457941259
 20
5200.081001864853
 30
0.0
  0
POINT
  5
17A26
330
1744B
100
AcDbEntity
  8
DEFPOINTS
 62
     0
 48
50.0
100
AcDbPoint
 10
9475.144450229331
 20
5200.081001864854
 30
0.0
  0
ENDBLK
  5
17456
330
1744B
100
AcDbEntity
  8
0
 48
50.0
100
AcDbBlockEnd
  0
BLOCK
  5
17470
330
17464
100
AcDbEntity
  8
0
 48
50.0
100
AcDbBlockBegin
  2
*D27
 70
     1
 10
0.0
 20
0.0
 30
0.0
  3
*D27
  1

  0
LINE
  5
17A13
330
17464
100
AcDbEntity
  8
寸法
 62
     0
 48
50.0
370
    -2
100
AcDbLine
 10
10598.89457941259
 20
3175.081001864848
 30
0.0
 11
9715.144450229331
 21
3175.081001864848
 31
0.0
  0
LINE
  5
17A14
330
17464
100
AcDbEntity
  8
寸法
 62
     0
 48
50.0
370
    -2
100
AcDbLine
 10
10543.89457941259
 20
3125.081001864848
 30
0.0
 11
9715.144450229331
 21
3125.081001864848
 31
0.0
  0
LINE
  5
17A15
330
17464
100
AcDbEntity
  8
寸法
 62
     0
 48
50.0
370
    -2
100
AcDbLine
 10
9775.144450229332
 20
3175.081001864848
 30
0.0
 11
9775.144450229332
 21
3275.081001864848
 31
0.0
  0
LINE
  5
17A16
330
17464
100
AcDbEntity
  8
寸法
 62
     0
 48
50.0
370
    -2
100
AcDbLine
 10
9775.144450229332
 20
3125.081001864848
 30
0.0
 11
9775.144450229332
 21
2712.986513675869
 31
0.0
  0
LINE
  5
17A17
330
17464
100
AcDbEntity
  8
寸法
 62
     0
 48
50.0
370
    -2
100
AcDbLine
 10
9775.144450229332
 20
3175.081001864848
 30
0.0
 11
9775.144450229332
 21
3125.081001864848
 31
0.0
  0
INSERT
  5
17A18
330
17464
100
AcDbEntity
  8
寸法
 62
     0
 48
50.0
370
    -2
100
AcDbBlockReference
  2
_DOTSMALL
 10
9775.144450229332
 20
3175.081001864848
 30
0.0
 41
100.0
 42
100.0
 43
100.0
 50
270.0
  0
INSERT
  5
17A19
330
17464
100
AcDbEntity
  8
寸法
 62
     0
 48
50.0
370
    -2
100
AcDbBlockReference
  2
_DOTSMALL
 10
9775.144450229332
 20
3125.081001864848
 30
0.0
 41
100.0
 42
100.0
 43
100.0
 50
90.0
  0
MTEXT
  5
17A1A
330
17464
100
AcDbEntity
  8
寸法
 62
     7
 48
50.0
100
AcDbMText
 10
9675.144450229332
 20
2819.033757770359
 30
0.0
 40
120.0
 41
0.0
 71
     5
 72
     1
  1
\A1;50
  7
STYLE1
 11
0.0000000000000001
 21
1.0
 31
0.0
 73
     1
 44
1.0
1001
ACAD
1000
MTEXTBEGIN
1070
    73
1070
     1
1070
    44
1040
1.0
1070
    74
1070
     0
1000
MTEXTEND
  0
POINT
  5
17A1B
330
17464
100
AcDbEntity
  8
DEFPOINTS
 62
     0
 48
50.0
100
AcDbPoint
 10
10618.89457941259
 20
3175.081001864848
 30
0.0
  0
POINT
  5
17A1C
330
17464
100
AcDbEntity
  8
DEFPOINTS
 62
     0
 48
50.0
100
AcDbPoint
 10
10563.89457941259
 20
3125.081001864848
 30
0.0
  0
POINT
  5
17A1D
330
17464
100
AcDbEntity
  8
DEFPOINTS
 62
     0
 48
50.0
100
AcDbPoint
 10
9775.144450229332
 20
3125.081001864848
 30
0.0
  0
ENDBLK
  5
17471
330
17464
100
AcDbEntity
  8
0
 48
50.0
100
AcDbBlockEnd
  0
BLOCK
  5
1747C
330
17472
100
AcDbEntity
  8
0
 48
50.0
100
AcDbBlockBegin
  2
*D28
 70
     1
 10
0.0
 20
0.0
 30
0.0
  3
*D28
  1

  0
LINE
  5
17A0A
330
17472
100
AcDbEntity
  8
寸法
 62
     0
 48
50.0
370
    -2
100
AcDbLine
 10
12428.89457941259
 20
3125.081001864848
 30
0.0
 11
13054.48984796978
 21
3125.081001864848
 31
0.0
  0
LINE
  5
17A0B
330
17472
100
AcDbEntity
  8
寸法
 62
     0
 48
50.0
370
    -2
100
AcDbLine
 10
12508.89457941259
 20
5145.081001864848
 30
0.0
 11
13054.48984796979
 21
5145.081001864848
 31
0.0
  0
LINE
  5
17A0C
330
17472
100
AcDbEntity
  8
寸法
 62
     0
 48
50.0
370
    -2
100
AcDbLine
 10
12994.48984796978
 20
3125.081001864848
 30
0.0
 11
12994.48984796979
 21
5145.081001864848
 31
0.0
  0
INSERT
  5
17A0D
330
17472
100
AcDbEntity
  8
寸法
 62
     0
 48
50.0
370
    -2
100
AcDbBlockReference
  2
_DOTSMALL
 10
12994.48984796978
 20
3125.081001864848
 30
0.0
 41
100.0
 42
100.0
 43
100.0
 50
270.0
  0
INSERT
  5
17A0E
330
17472
100
AcDbEntity
  8
寸法
 62
     0
 48
50.0
370
    -2
100
AcDbBlockReference
  2
_DOTSMALL
 10
12994.48984796979
 20
5145.081001864848
 30
0.0
 41
100.0
 42
100.0
 43
100.0
 50
90.0
  0
MTEXT
  5
17A0F
330
17472
100
AcDbEntity
  8
寸法
 62
     7
 48
50.0
100
AcDbMText
 10
12894.47803694616
 20
4136.075669189263
 30
0.0
 40
120.0
 41
0.0
 71
     5
 72
     1
  1
\A1;2020
  7
STYLE1
 11
0.0000000000000001
 21
1.0
 31
0.0
 73
     1
 44
1.0
1001
ACAD
1000
MTEXTBEGIN
1070
    73
1070
     1
1070
    44
1040
1.0
1070
    74
1070
     0
1000
MTEXTEND
  0
POINT
  5
17A10
330
17472
100
AcDbEntity
  8
DEFPOINTS
 62
     0
 48
50.0
100
AcDbPoint
 10
12408.89457941259
 20
3125.081001864848
 30
0.0
  0
POINT
  5
17A11
330
17472
100
AcDbEntity
  8
DEFPOINTS
 62
     0
 48
50.0
100
AcDbPoint
 10
12488.89457941259
 20
5145.081001864848
 30
0.0
  0
POINT
  5
17A12
330
17472
100
AcDbEntity
  8
DEFPOINTS
 62
     0
 48
50.0
100
AcDbPoint
 10
12994.48984796979
 20
5145.081001864848
 30
0.0
  0
ENDBLK
  5
1747D
330
17472
100
AcDbEntity
  8
0
 48
50.0
100
AcDbBlockEnd
  0
BLOCK
  5
17488
330
1747E
100
AcDbEntity
  8
0
 48
50.0
100
AcDbBlockBegin
  2
*D29
 70
     1
 10
0.0
 20
0.0
 30
0.0
  3
*D29
  1

  0
LINE
  5
17A01
330
1747E
100
AcDbEntity
  8
寸法
 62
     0
 48
50.0
370
    -2
100
AcDbLine
 10
12408.89457941259
 20
5166.891681476502
 30
0.0
 11
12408.89457941259
 21
5659.174171204321
 31
0.0
  0
LINE
  5
17A02
330
1747E
100
AcDbEntity
  8
寸法
 62
     0
 48
50.0
370
    -2
100
AcDbLine
 10
10618.89457941259
 20
5216.082619987825
 30
0.0
 11
10618.89457941259
 21
5659.174171204321
 31
0.0
  0
LINE
  5
17A03
330
1747E
100
AcDbEntity
  8
寸法
 62
     0
 48
50.0
370
    -2
100
AcDbLine
 10
12408.89457941259
 20
5599.174171204321
 30
0.0
 11
10618.89457941259
 21
5599.174171204321
 31
0.0
  0
INSERT
  5
17A04
330
1747E
100
AcDbEntity
  8
寸法
 62
     0
 48
50.0
370
    -2
100
AcDbBlockReference
  2
_DOTSMALL
 10
12408.89457941259
 20
5599.174171204321
 30
0.0
 41
100.0
 42
100.0
 43
100.0
  0
INSERT
  5
17A05
330
1747E
100
AcDbEntity
  8
寸法
 62
     0
 48
50.0
370
    -2
100
AcDbBlockReference
  2
_DOTSMALL
 10
10618.89457941259
 20
5599.174171204321
 30
0.0
 41
100.0
 42
100.0
 43
100.0
 50
180.0
  0
MTEXT
  5
17A06
330
1747E
100
AcDbEntity
  8
寸法
 62
     7
 48
50.0
100
AcDbMText
 10
11528.49022808907
 20
5699.174171204322
 30
0.0
 40
120.0
 41
0.0
 71
     5
 72
     1
  1
\A1;柱外寸法1790
  7
STYLE1
 73
     1
 44
1.0
1001
ACAD
1000
MTEXTBEGIN
1070
    73
1070
     1
1070
    44
1040
1.0
1070
    74
1070
     0
1000
MTEXTEND
  0
POINT
  5
17A07
330
1747E
100
AcDbEntity
  8
DEFPOINTS
 62
     0
 48
50.0
100
AcDbPoint
 10
12408.89457941259
 20
5146.891681476502
 30
0.0
  0
POINT
  5
17A08
330
1747E
100
AcDbEntity
  8
DEFPOINTS
 62
     0
 48
50.0
100
AcDbPoint
 10
10618.89457941259
 20
5196.082619987825
 30
0.0
  0
POINT
  5
17A09
330
1747E
100
AcDbEntity
  8
DEFPOINTS
 62
     0
 48
50.0
100
AcDbPoint
 10
10618.89457941259
 20
5599.174171204321
 30
0.0
  0
ENDBLK
  5
17489
330
1747E
100
AcDbEntity
  8
0
 48
50.0
100
AcDbBlockEnd
  0
BLOCK
  5
17496
330
1748A
100
AcDbEntity
  8
0
 48
50.0
100
AcDbBlockBegin
  2
*D30
 70
     1
 10
0.0
 20
0.0
 30
0.0
  3
*D30
  1

  0
LINE
  5
179F6
330
1748A
100
AcDbEntity
  8
寸法
 62
     0
 48
50.0
370
    -2
100
AcDbLine
 10
10618.89457941259
 20
5216.082619987825
 30
0.0
 11
10618.89457941259
 21
5658.738455444153
 31
0.0
  0
LINE
  5
179F7
330
1748A
100
AcDbEntity
  8
寸法
 62
     0
 48
50.0
370
    -2
100
AcDbLine
 10
10558.89457941259
 20
5220.081001864852
 30
0.0
 11
10558.89457941259
 21
5658.738455444153
 31
0.0
  0
LINE
  5
179F8
330
1748A
100
AcDbEntity
  8
寸法
 62
     0
 48
50.0
370
    -2
100
AcDbLine
 10
10618.89457941259
 20
5598.738455444152
 30
0.0
 11
10718.89457941259
 21
5598.738455444152
 31
0.0
  0
LINE
  5
179F9
330
1748A
100
AcDbEntity
  8
寸法
 62
     0
 48
50.0
370
    -2
100
AcDbLine
 10
10558.89457941259
 20
5598.738455444152
 30
0.0
 11
10139.61898886141
 21
5598.738455444152
 31
0.0
  0
LINE
  5
179FA
330
1748A
100
AcDbEntity
  8
寸法
 62
     0
 48
50.0
370
    -2
100
AcDbLine
 10
10618.89457941259
 20
5598.738455444152
 30
0.0
 11
10558.89457941259
 21
5598.738455444152
 31
0.0
  0
INSERT
  5
179FB
330
1748A
100
AcDbEntity
  8
寸法
 62
     0
 48
50.0
370
    -2
100
AcDbBlockReference
  2
_DOTSMALL
 10
10618.89457941259
 20
5598.738455444152
 30
0.0
 41
100.0
 42
100.0
 43
100.0
 50
180.0
  0
INSERT
  5
179FC
330
1748A
100
AcDbEntity
  8
寸法
 62
     0
 48
50.0
370
    -2
100
AcDbBlockReference
  2
_DOTSMALL
 10
10558.89457941259
 20
5598.738455444152
 30
0.0
 41
100.0
 42
100.0
 43
100.0
  0
MTEXT
  5
179FD
330
1748A
100
AcDbEntity
  8
寸法
 62
     7
 48
50.0
100
AcDbMText
 10
10249.256784137
 20
5698.738455444153
 30
0.0
 40
120.0
 41
0.0
 71
     5
 72
     1
  1
\A1;60
  7
STYLE1
 73
     1
 44
1.0
1001
ACAD
1000
MTEXTBEGIN
1070
    73
1070
     1
1070
    44
1040
1.0
1070
    74
1070
     0
1000
MTEXTEND
  0
POINT
  5
179FE
330
1748A
100
AcDbEntity
  8
DEFPOINTS
 62
     0
 48
50.0
100
AcDbPoint
 10
10618.89457941259
 20
5196.082619987825
 30
0.0
  0
POINT
  5
179FF
330
1748A
100
AcDbEntity
  8
DEFPOINTS
 62
     0
 48
50.0
100
AcDbPoint
 10
10558.89457941259
 20
5200.081001864853
 30
0.0
  0
POINT
  5
17A00
330
1748A
100
AcDbEntity
  8
DEFPOINTS
 62
     0
 48
50.0
100
AcDbPoint
 10
10558.89457941259
 20
5598.738455444152
 30
0.0
  0
ENDBLK
  5
17497
330
1748A
100
AcDbEntity
  8
0
 48
50.0
100
AcDbBlockEnd
  0
BLOCK
  5
174A2
330
17498
100
AcDbEntity
  8
0
 48
50.0
100
AcDbBlockBegin
  2
*D31
 70
     1
 10
0.0
 20
0.0
 30
0.0
  3
*D31
  1

  0
LINE
  5
179ED
330
17498
100
AcDbEntity
  8
寸法
 62
     0
 48
50.0
370
    -2
100
AcDbLine
 10
12488.89457941259
 20
5165.081001864849
 30
0.0
 11
12488.89457941259
 21
5875.700270822767
 31
0.0
  0
LINE
  5
179EE
330
17498
100
AcDbEntity
  8
寸法
 62
     0
 48
50.0
370
    -2
100
AcDbLine
 10
10558.89457941259
 20
5220.081001864852
 30
0.0
 11
10558.89457941259
 21
5875.700270822767
 31
0.0
  0
LINE
  5
179EF
330
17498
100
AcDbEntity
  8
寸法
 62
     0
 48
50.0
370
    -2
100
AcDbLine
 10
12488.89457941259
 20
5815.700270822766
 30
0.0
 11
10558.89457941259
 21
5815.700270822766
 31
0.0
  0
INSERT
  5
179F0
330
17498
100
AcDbEntity
  8
寸法
 62
     0
 48
50.0
370
    -2
100
AcDbBlockReference
  2
_DOTSMALL
 10
12488.89457941259
 20
5815.700270822766
 30
0.0
 41
100.0
 42
100.0
 43
100.0
  0
INSERT
  5
179F1
330
17498
100
AcDbEntity
  8
寸法
 62
     0
 48
50.0
370
    -2
100
AcDbBlockReference
  2
_DOTSMALL
 10
10558.89457941259
 20
5815.700270822766
 30
0.0
 41
100.0
 42
100.0
 43
100.0
 50
180.0
  0
MTEXT
  5
179F2
330
17498
100
AcDbEntity
  8
寸法
 62
     7
 48
50.0
100
AcDbMText
 10
11464.70033066356
 20
5915.700270822767
 30
0.0
 40
120.0
 41
0.0
 71
     5
 72
     1
  1
\A1;1930
  7
STYLE1
 73
     1
 44
1.0
1001
ACAD
1000
MTEXTBEGIN
1070
    73
1070
     1
1070
    44
1040
1.0
1070
    74
1070
     0
1000
MTEXTEND
  0
POINT
  5
179F3
330
17498
100
AcDbEntity
  8
DEFPOINTS
 62
     0
 48
50.0
100
AcDbPoint
 10
12488.89457941259
 20
5145.081001864848
 30
0.0
  0
POINT
  5
179F4
330
17498
100
AcDbEntity
  8
DEFPOINTS
 62
     0
 48
50.0
100
AcDbPoint
 10
10558.89457941259
 20
5200.081001864853
 30
0.0
  0
POINT
  5
179F5
330
17498
100
AcDbEntity
  8
DEFPOINTS
 62
     0
 48
50.0
100
AcDbPoint
 10
10558.89457941259
 20
5815.700270822766
 30
0.0
  0
ENDBLK
  5
174A3
330
17498
100
AcDbEntity
  8
0
 48
50.0
100
AcDbBlockEnd
  0
BLOCK
  5
174AF
330
174A4
100
AcDbEntity
  8
0
 48
50.0
100
AcDbBlockBegin
  2
*D32
 70
     1
 10
0.0
 20
0.0
 30
0.0
  3
*D32
  1

  0
LINE
  5
179E3
330
174A4
100
AcDbEntity
  8
寸法
 62
     0
 48
50.0
370
    -2
100
AcDbLine
 10
12408.89457941259
 20
5166.891681476502
 30
0.0
 11
12408.89457941259
 21
5658.738455444153
 31
0.0
  0
LINE
  5
179E4
330
174A4
100
AcDbEntity
  8
寸法
 62
     0
 48
50.0
370
    -2
100
AcDbLine
 10
12488.89457941259
 20
5165.081001864849
 30
0.0
 11
12488.89457941259
 21
5658.738455444153
 31
0.0
  0
LINE
  5
179E5
330
174A4
100
AcDbEntity
  8
寸法
 62
     0
 48
50.0
370
    -2
100
AcDbLine
 10
12408.89457941259
 20
5598.738455444152
 30
0.0
 11
12488.89457941259
 21
5598.738455444152
 31
0.0
  0
LINE
  5
179E6
330
174A4
100
AcDbEntity
  8
寸法
 62
     0
 48
50.0
370
    -2
100
AcDbLine
 10
12488.89457941259
 20
5598.738455444152
 30
0.0
 11
12800.98906760157
 21
5598.738455444152
 31
0.0
  0
INSERT
  5
179E7
330
174A4
100
AcDbEntity
  8
寸法
 62
     0
 48
50.0
370
    -2
100
AcDbBlockReference
  2
_DOTSMALL
 10
12408.89457941259
 20
5598.738455444152
 30
0.0
 41
100.0
 42
100.0
 43
100.0
 50
180.0
  0
INSERT
  5
179E8
330
174A4
100
AcDbEntity
  8
寸法
 62
     0
 48
50.0
370
    -2
100
AcDbBlockReference
  2
_DOTSMALL
 10
12488.89457941259
 20
5598.738455444152
 30
0.0
 41
100.0
 42
100.0
 43
100.0
  0
MTEXT
  5
179E9
330
174A4
100
AcDbEntity
  8
寸法
 62
     7
 48
50.0
100
AcDbMText
 10
12694.94182350708
 20
5698.738455444153
 30
0.0
 40
120.0
 41
0.0
 71
     5
 72
     1
  1
\A1;80
  7
STYLE1
 73
     1
 44
1.0
1001
ACAD
1000
MTEXTBEGIN
1070
    73
1070
     1
1070
    44
1040
1.0
1070
    74
1070
     0
1000
MTEXTEND
  0
POINT
  5
179EA
330
174A4
100
AcDbEntity
  8
DEFPOINTS
 62
     0
 48
50.0
100
AcDbPoint
 10
12408.89457941259
 20
5146.891681476502
 30
0.0
  0
POINT
  5
179EB
330
174A4
100
AcDbEntity
  8
DEFPOINTS
 62
     0
 48
50.0
100
AcDbPoint
 10
12488.89457941259
 20
5145.081001864848
 30
0.0
  0
POINT
  5
179EC
330
174A4
100
AcDbEntity
  8
DEFPOINTS
 62
     0
 48
50.0
100
AcDbPoint
 10
12488.89457941259
 20
5598.738455444152
 30
0.0
  0
ENDBLK
  5
174B0
330
174A4
100
AcDbEntity
  8
0
 48
50.0
100
AcDbBlockEnd
  0
BLOCK
  5
174BC
330
174B1
100
AcDbEntity
  8
0
 48
50.0
100
AcDbBlockBegin
  2
*D33
 70
     1
 10
0.0
 20
0.0
 30
0.0
  3
*D33
  1

  0
LINE
  5
179D9
330
174B1
100
AcDbEntity
  8
寸法
 62
     0
 48
50.0
370
    -2
100
AcDbLine
 10
10558.29886570369
 20
5199.37870893451
 30
0.0
 11
9942.364426598421
 21
5217.092859208839
 31
0.0
  0
LINE
  5
179DA
330
174B1
100
AcDbEntity
  8
寸法
 62
     0
 48
50.0
370
    -2
100
AcDbLine
 10
10554.24541014706
 20
5058.436985168797
 30
0.0
 11
9938.310971041794
 21
5076.151135443126
 31
0.0
  0
LINE
  5
179DB
330
174B1
100
AcDbEntity
  8
寸法
 62
     0
 48
50.0
370
    -2
100
AcDbLine
 10
9998.286172644226
 20
5074.426260738179
 30
0.0
 11
10002.33962820085
 21
5215.367984503892
 31
0.0
  0
LINE
  5
179DC
330
174B1
100
AcDbEntity
  8
寸法
 62
     0
 48
50.0
370
    -2
100
AcDbLine
 10
10002.33962820085
 20
5215.367984503892
 30
0.0
 11
10012.68887643053
 21
5575.219194118478
 31
0.0
  0
INSERT
  5
179DD
330
174B1
100
AcDbEntity
  8
寸法
 62
     0
 48
50.0
370
    -2
100
AcDbBlockReference
  2
_DOTSMALL
 10
9998.286172644226
 20
5074.426260738179
 30
0.0
 41
100.0
 42
100.0
 43
100.0
 50
268.3526390256378
  0
INSERT
  5
179DE
330
174B1
100
AcDbEntity
  8
寸法
 62
     0
 48
50.0
370
    -2
100
AcDbBlockReference
  2
_DOTSMALL
 10
10002.33962820085
 20
5215.367984503892
 30
0.0
 41
100.0
 42
100.0
 43
100.0
 50
88.35263902563776
  0
MTEXT
  5
179DF
330
174B1
100
AcDbEntity
  8
寸法
 62
     7
 48
50.0
100
AcDbMText
 10
9908.992978565763
 20
5448.147715154791
 30
0.0
 40
120.0
 41
0.0
 71
     5
 72
     1
  1
\A1;141
  7
STYLE1
 11
0.0287479117491237
 21
0.9995866933738488
 31
0.0
 73
     1
 44
1.0
1001
ACAD
1000
MTEXTBEGIN
1070
    73
1070
     1
1070
    44
1040
1.0
1070
    74
1070
     0
1000
MTEXTEND
  0
POINT
  5
179E0
330
174B1
100
AcDbEntity
  8
DEFPOINTS
 62
     0
 48
50.0
100
AcDbPoint
 10
10578.29059957117
 20
5198.803750699527
 30
0.0
  0
POINT
  5
179E1
330
174B1
100
AcDbEntity
  8
DEFPOINTS
 62
     0
 48
50.0
100
AcDbPoint
 10
10574.23714401454
 20
5057.862026933815
 30
0.0
  0
POINT
  5
179E2
330
174B1
100
AcDbEntity
  8
DEFPOINTS
 62
     0
 48
50.0
100
AcDbPoint
 10
9998.286172644226
 20
5074.426260738179
 30
0.0
  0
ENDBLK
  5
174BD
330
174B1
100
AcDbEntity
  8
0
 48
50.0
100
AcDbBlockEnd
  0
BLOCK
  5
17A7D
330
17A74
100
AcDbEntity
  8
0
 48
50.0
100
AcDbBlockBegin
  2
A$C3FB90008
 70
     0
 10
0.0
 20
0.0
 30
0.0
  3
A$C3FB90008
  1

  0
LINE
  5
17A75
330
17A74
100
AcDbEntity
  8
破線
 48
10.0
100
AcDbLine
 10
479.2238850178819
 20
-802.5000000001201
 30
0.0
 11
-23.49999999999091
 21
-802.5000000001583
 31
0.0
  0
LINE
  5
17A76
330
17A74
100
AcDbEntity
  8
破線
 48
10.0
100
AcDbLine
 10
586.449231043387
 20
-752.5000000001091
 30
0.0
 11
-23.49999999999091
 21
-752.5000000001583
 31
0.0
  0
LINE
  5
17A77
330
17A74
100
AcDbEntity
  8
破線
 48
10.0
100
AcDbLine
 10
807.0000000000382
 20
-752.5000000000946
 30
0.0
 11
657.4352785379696
 21
-752.5000000001055
 31
0.0
  0
LINE
  5
17A78
330
17A74
100
AcDbEntity
  8
破線
 48
10.0
100
AcDbLine
 10
807.0000000000382
 20
-802.5000000000945
 30
0.0
 11
550.2099325124691
 21
-802.5000000001146
 31
0.0
  0
LINE
  5
17A79
330
17A74
100
AcDbEntity
  8
破線
 48
10.0
100
AcDbLine
 10
2177.000000000038
 20
-802.5000000000945
 30
0.0
 11
1346.500000000009
 21
-802.5000000001583
 31
0.0
  0
LINE
  5
17A7A
330
17A74
100
AcDbEntity
  8
破線
 48
10.0
100
AcDbLine
 10
2177.000000000038
 20
-752.5000000000946
 30
0.0
 11
1346.500000000009
 21
-752.5000000001583
 31
0.0
  0
LINE
  5
17A7B
330
17A74
100
AcDbEntity
  8
破線
 48
10.0
100
AcDbLine
 10
3547.000000000038
 20
-752.5000000000946
 30
0.0
 11
2716.500000000009
 21
-752.5000000001583
 31
0.0
  0
LINE
  5
17A7C
330
17A74
100
AcDbEntity
  8
破線
 48
10.0
100
AcDbLine
 10
3547.000000000038
 20
-802.5000000000945
 30
0.0
 11
2716.500000000009
 21
-802.5000000001583
 31
0.0
  0
ENDBLK
  5
17A7E
330
17A74
100
AcDbEntity
  8
0
 48
50.0
100
AcDbBlockEnd
  0
ENDSEC
  0
SECTION
  2
ENTITIES
  0
MTEXT
  5
763F
330
747D
100
AcDbEntity
  8
0
100
AcDbMText
 10
302.846345836809
 20
280.1983726409901
 30
0.0
 40
3.5
 41
5.323721266742722
 71
     1
 72
     5
  1

  7
MSMINCHO
 73
     1
 44
1.0
1001
ACAD
1000
MTEXTBEGIN
1070
    73
1070
     1
1070
    44
1040
1.0
1070
    74
1070
     0
1000
MTEXTEND
  0
LINE
  5
10B57
330
747D
100
AcDbEntity
  8
補助
  6
PHANTOM
 62
   230
 48
50.0
100
AcDbLine
 10
139.9999999999995
 20
11409.6
 30
0.0
 11
16307.2
 21
11409.6
 31
0.0
  0
LINE
  5
10B59
330
747D
100
AcDbEntity
  8
仕様書枠
  6
Continuous
 48
50.0
100
AcDbLine
 10
13107.2
 20
1200.0
 30
0.0
 11
13107.2
 21
-0.0000000000000729
 31
0.0
  0
LINE
  5
10B5D
330
747D
100
AcDbEntity
  8
仕様書枠
 48
50.0
100
AcDbLine
 10
140.0
 20
0.0
 30
0.0
 11
16307.2
 21
-0.0000000000000909
 31
0.0
  0
LINE
  5
10B5E
330
747D
100
AcDbEntity
  8
補助
  6
PHANTOM
 62
   230
 48
50.0
100
AcDbLine
 10
16307.2
 20
11409.6
 30
0.0
 11
16307.2
 21
1200.0
 31
0.0
  0
LINE
  5
10B6C
330
747D
100
AcDbEntity
  8
仕様書枠
 48
50.0
100
AcDbLine
 10
13107.2
 20
1200.0
 30
0.0
 11
16307.2
 21
1200.0
 31
0.0
  0
LINE
  5
10B6D
330
747D
100
AcDbEntity
  8
補助
  6
PHANTOM
 62
   230
 48
50.0
100
AcDbLine
 10
13107.2
 20
11409.6
 30
0.0
 11
13107.2
 21
4800.0
 31
0.0
  0
LINE
  5
10B6F
330
747D
100
AcDbEntity
  8
補助
  6
PHANTOM
 62
   230
 48
50.0
100
AcDbLine
 10
13107.2
 20
4800.0
 30
0.0
 11
16307.2
 21
4800.0
 31
0.0
  0
LINE
  5
10B72
330
747D
100
AcDbEntity
  8
文字
 62
     7
 48
50.0
100
AcDbLine
 10
13187.2
 20
400.0
 30
0.0
 11
16227.2
 21
400.0
 31
0.0
  0
TEXT
  5
10B73
330
747D
100
AcDbEntity
  8
文字
 62
     7
 48
50.0
100
AcDbText
 10
13162.9790565769
 20
895.0906074299405
 30
0.0
 40
200.0
  1
外 形 図
  7
STYLE2
100
AcDbText
  0
TEXT
  5
10B74
330
747D
100
AcDbEntity
  8
文字
 62
     7
 48
50.0
100
AcDbText
 10
13201.43669998441
 20
477.2740661031255
 30
0.0
 40
160.0
  1
機種名
  7
STYLE2
100
AcDbText
  0
LINE
  5
10B7B
330
747D
100
AcDbEntity
  8
仕様書枠
 48
50.0
100
AcDbLine
 10
13107.2
 20
800.0
 30
0.0
 11
14251.2
 21
800.0
 31
0.0
  0
LINE
  5
10B88
330
747D
100
AcDbEntity
  8
仕様書枠
  6
Continuous
 48
50.0
100
AcDbLine
 10
14251.2
 20
1200.0
 30
0.0
 11
14251.2
 21
800.0
 31
0.0
  0
DIMENSION
  5
14521
330
747D
100
AcDbEntity
  8
寸法
100
AcDbDimension
  2
*D2
 10
4628.09719760511
 20
9822.539339406416
 30
0.0
 11
4264.611916230836
 21
9822.539339406416
 31
0.0
 70
   160
 71
     5
 42
55.00000000003456
  3
INABA_S40G
100
AcDbAlignedDimension
 13
4573.097197605075
 23
9387.060989460042
 33
0.0
 14
4628.09719760511
 24
9387.060989460042
 34
0.0
100
AcDbRotatedDimension
1001
ACAD
1000
DSTYLE
1002
{
1002
}
  0
LINE
  5
14523
330
747D
100
AcDbEntity
  8
部品1
100
AcDbLine
 10
4573.097197605075
 20
9387.060989460042
 30
0.0
 11
4573.097197605103
 21
7597.060989460032
 31
0.0
  0
LINE
  5
14524
330
747D
100
AcDbEntity
  8
部品1
100
AcDbLine
 10
8628.097197605113
 20
9387.06098946017
 30
0.0
 11
8628.097197605113
 21
9359.06098946017
 31
0.0
  0
LINE
  5
14525
330
747D
100
AcDbEntity
  8
部品1
100
AcDbLine
 10
8628.097197605113
 20
9387.06098946019
 30
0.0
 11
8628.097197605113
 21
9359.060989460189
 31
0.0
  0
DIMENSION
  5
14526
330
747D
100
AcDbEntity
  8
寸法
100
AcDbDimension
  2
*D3
 10
9616.8885027609
 20
7597.06098946016
 30
0.0
 11
9616.8885027609
 21
8482.2900752643
 31
0.0
 70
   160
 71
     5
 42
1790.000000000009
  3
INABA_S40G
100
AcDbAlignedDimension
 13
8683.097197605112
 23
9387.06098946017
 33
0.0
 14
8683.097197605086
 24
7597.06098946016
 34
0.0
 50
90.0
100
AcDbRotatedDimension
1001
ACAD
1000
DSTYLE
1002
{
1002
}
  0
LINE
  5
14527
330
747D
100
AcDbEntity
  8
部品1
100
AcDbLine
 10
8683.097197605112
 20
9387.06098946017
 30
0.0
 11
8683.097197605086
 21
7597.06098946016
 31
0.0
  0
LINE
  5
14529
330
747D
100
AcDbEntity
  8
部品1
100
AcDbLine
 10
8208.097197605111
 20
9387.06098946019
 30
0.0
 11
8208.097197605111
 21
9359.060989460189
 31
0.0
  0
LINE
  5
1452A
330
747D
100
AcDbEntity
  8
部品1
100
AcDbLine
 10
7788.09719760511
 20
9387.06098946019
 30
0.0
 11
7788.09719760511
 21
9359.060989460189
 31
0.0
  0
LINE
  5
1452B
330
747D
100
AcDbEntity
  8
部品1
100
AcDbLine
 10
7788.09719760511
 20
9387.060989460072
 30
0.0
 11
7788.09719760511
 21
9359.060989460074
 31
0.0
  0
LINE
  5
1452C
330
747D
100
AcDbEntity
  8
部品1
100
AcDbLine
 10
7788.09719760511
 20
9387.060989460074
 30
0.0
 11
7788.09719760511
 21
9359.060989460074
 31
0.0
  0
LINE
  5
1452D
330
747D
100
AcDbEntity
  8
部品1
100
AcDbLine
 10
4628.09719760511
 20
9387.060989460074
 30
0.0
 11
4628.09719760511
 21
9359.060989460074
 31
0.0
  0
DIMENSION
  5
1452E
330
747D
100
AcDbEntity
  8
寸法
100
AcDbDimension
  2
*D4
 10
9330.523543339522
 20
9332.060989460172
 30
0.0
 11
9330.523543339522
 21
9695.546270834411
 31
0.0
 70
   160
 71
     5
 42
54.99999999999636
  3
INABA_S40G
100
AcDbAlignedDimension
 13
8683.097197605112
 23
9387.06098946017
 33
0.0
 14
8683.097197605112
 24
9332.060989460172
 34
0.0
 50
90.0
100
AcDbRotatedDimension
1001
ACAD
1000
DSTYLE
1002
{
1002
}
  0
DIMENSION
  5
14530
330
747D
100
AcDbEntity
  8
寸法
100
AcDbDimension
  2
*D5
 10
9330.523543339497
 20
7597.06098946016
 30
0.0
 11
9330.523543339495
 21
7219.199522555299
 31
0.0
 70
   160
 71
     5
 42
54.99999999999636
  3
INABA_S40G
100
AcDbAlignedDimension
 13
8683.097197605086
 23
7652.060989460157
 33
0.0
 14
8683.097197605086
 24
7597.06098946016
 34
0.0
 50
90.0
100
AcDbRotatedDimension
1001
ACAD
1000
DSTYLE
1002
{
1002
}
  0
DIMENSION
  5
14531
330
747D
100
AcDbEntity
  8
寸法
100
AcDbDimension
  2
*D6
 10
9330.523543339522
 20
7652.060989460157
 30
0.0
 11
9330.523543339522
 21
8492.060989460165
 31
0.0
 70
   160
  1
4X420=<>
 71
     5
 42
1680.000000000016
  3
INABA_S40G
100
AcDbAlignedDimension
 13
8683.097197605112
 23
9332.060989460172
 33
0.0
 14
8683.097197605086
 24
7652.060989460157
 34
0.0
 50
90.0
100
AcDbRotatedDimension
1001
ACAD
1000
DSTYLE
1002
{
1002
}
  0
DIMENSION
  5
14532
330
747D
100
AcDbEntity
  8
寸法
100
AcDbDimension
  2
*D7
 10
8683.097197605086
 20
6832.925020106471
 30
0.0
 11
7998.097197605094
 21
6832.925020106471
 31
0.0
 70
   160
 71
     5
 42
1369.999999999983
  3
INABA_S40G
100
AcDbAlignedDimension
 13
7313.097197605102
 23
7597.060989459997
 33
0.0
 14
8683.097197605086
 24
7597.060989460125
 34
0.0
100
AcDbRotatedDimension
1001
ACAD
1000
DSTYLE
1002
{
1002
}
  0
TEXT
  5
14535
330
747D
100
AcDbEntity
  8
部品1
100
AcDbText
 10
6336.281474319912
 20
6350.063574516514
 30
0.0
 40
135.0
  1
平面図
  7
STYLE2
100
AcDbText
  0
LINE
  5
14538
330
747D
100
AcDbEntity
  8
部品1
100
AcDbLine
 10
8200.097197605312
 20
7699.060989460129
 30
0.0
 11
7341.097197605084
 21
7699.060989460064
 31
0.0
  0
LINE
  5
14542
330
747D
100
AcDbEntity
  8
部品1
100
AcDbLine
 10
8650.097197605111
 20
9358.310989460202
 30
0.0
 11
8650.097197605218
 21
8505.310989460399
 31
0.0
  0
LINE
  5
14543
330
747D
100
AcDbEntity
  8
部品1
100
AcDbLine
 10
4628.09719760511
 20
9359.060989460159
 30
0.0
 11
5136.080612377667
 21
9359.060989460159
 31
0.0
  0
LINE
  5
14544
330
747D
100
AcDbEntity
  8
部品1
100
AcDbLine
 10
8683.097197605086
 20
7597.06098946016
 30
0.0
 11
5477.231550742595
 21
7597.060989459939
 31
0.0
  0
LINE
  5
14546
330
747D
100
AcDbEntity
  8
部品1
100
AcDbLine
 10
4601.097197605085
 20
7652.060989460027
 30
0.0
 11
4601.097197605109
 21
9359.060989460074
 31
0.0
  0
LINE
  5
1454A
330
747D
100
AcDbEntity
  8
部品1
100
AcDbLine
 10
7364.097197605103
 20
7597.060989460032
 30
0.0
 11
7313.097197605102
 21
7597.060989460032
 31
0.0
  0
LINE
  5
1454D
330
747D
100
AcDbEntity
  8
部品1
100
AcDbLine
 10
4601.097197605102
 20
7652.060989460044
 30
0.0
 11
4573.097197605101
 21
7652.060989460044
 31
0.0
  0
LINE
  5
1454F
330
747D
100
AcDbEntity
  8
部品1
100
AcDbLine
 10
4633.097197605099
 20
7652.060989459993
 30
0.0
 11
4605.0971976051
 21
7652.060989459993
 31
0.0
  0
LINE
  5
14550
330
747D
100
AcDbEntity
  8
部品1
100
AcDbLine
 10
4624.097197605103
 20
7597.060989459994
 30
0.0
 11
4624.097197605101
 21
7604.06098946003
 31
0.0
  0
LINE
  5
14551
330
747D
100
AcDbEntity
  8
部品1
100
AcDbLine
 10
4633.097197605102
 20
7604.060989460029
 30
0.0
 11
4624.097197605101
 21
7604.06098946003
 31
0.0
  0
LINE
  5
14552
330
747D
100
AcDbEntity
  8
部品1
100
AcDbLine
 10
4633.097197605102
 20
7604.060989460029
 30
0.0
 11
4633.097197605099
 21
7652.060989459994
 31
0.0
  0
LINE
  5
14558
330
747D
100
AcDbEntity
  8
部品1
100
AcDbLine
 10
4601.097197605089
 20
8072.060989460045
 30
0.0
 11
4573.097197605089
 21
8072.060989460045
 31
0.0
  0
LINE
  5
1455D
330
747D
100
AcDbEntity
  8
部品1
100
AcDbLine
 10
4601.097197605109
 20
9359.060989460042
 30
0.0
 11
5136.080612377688
 21
9359.060989460047
 31
0.0
  0
LINE
  5
1455E
330
747D
100
AcDbEntity
  8
部品1
 48
50.0
100
AcDbLine
 10
8650.097197605104
 20
9358.3109894602
 30
0.0
 11
8200.097197605106
 21
9358.310989460198
 31
0.0
  0
LINE
  5
1455F
330
747D
100
AcDbEntity
  8
部品1
100
AcDbLine
 10
4601.097197605084
 20
8492.060989460044
 30
0.0
 11
4573.097197605084
 21
8492.060989460044
 31
0.0
  0
LINE
  5
14560
330
747D
100
AcDbEntity
  8
部品1
100
AcDbLine
 10
4601.097197605077
 20
9332.060989460044
 30
0.0
 11
4573.097197605076
 21
9332.060989460044
 31
0.0
  0
LINE
  5
14562
330
747D
100
AcDbEntity
  8
部品1
100
AcDbLine
 10
8655.097197605112
 20
9359.06098946017
 30
0.0
 11
8655.097197605099
 21
8504.560989460168
 31
0.0
  0
LINE
  5
1456A
330
747D
100
AcDbEntity
  8
部品1
100
AcDbLine
 10
8683.097197605086
 20
7597.06098946016
 30
0.0
 11
8632.097197605085
 21
7597.06098946016
 31
0.0
  0
LINE
  5
1456B
330
747D
100
AcDbEntity
  8
部品1
100
AcDbLine
 10
8683.097197605086
 20
7652.060989460157
 30
0.0
 11
8683.097197605086
 21
7597.06098946016
 31
0.0
  0
LINE
  5
1456C
330
747D
100
AcDbEntity
  8
部品1
100
AcDbLine
 10
8655.097197605085
 20
7652.060989460157
 30
0.0
 11
8683.097197605086
 21
7652.060989460157
 31
0.0
  0
LINE
  5
1456E
330
747D
100
AcDbEntity
  8
部品1
100
AcDbLine
 10
8623.097197605087
 20
7652.060989460157
 30
0.0
 11
8655.097197605085
 21
7652.060989460157
 31
0.0
  0
LINE
  5
14570
330
747D
100
AcDbEntity
  8
部品1
100
AcDbLine
 10
8632.097197605085
 20
7597.060989460158
 30
0.0
 11
8632.097197605085
 21
7604.06098946016
 31
0.0
  0
LINE
  5
14571
330
747D
100
AcDbEntity
  8
部品1
100
AcDbLine
 10
8632.097197605085
 20
7604.06098946016
 30
0.0
 11
8623.097197605087
 21
7604.06098946016
 31
0.0
  0
LINE
  5
14572
330
747D
100
AcDbEntity
  8
部品1
100
AcDbLine
 10
8623.097197605087
 20
7604.06098946016
 30
0.0
 11
8623.097197605087
 21
7652.060989460157
 31
0.0
  0
LINE
  5
14573
330
747D
100
AcDbEntity
  8
部品1
100
AcDbLine
 10
8655.097197605119
 20
7652.060989460173
 30
0.0
 11
8683.097197605119
 21
7652.060989460173
 31
0.0
  0
LINE
  5
14574
330
747D
100
AcDbEntity
  8
部品1
100
AcDbLine
 10
8655.097197605115
 20
8072.060989460174
 30
0.0
 11
8683.097197605114
 21
8072.060989460174
 31
0.0
  0
LINE
  5
14584
330
747D
100
AcDbEntity
  8
部品1
100
AcDbLine
 10
8650.097197605203
 20
7674.560989460188
 30
0.0
 11
8200.097197605206
 21
7674.560989460188
 31
0.0
  0
LINE
  5
14585
330
747D
100
AcDbEntity
  8
部品1
100
AcDbLine
 10
8655.097197605112
 20
8492.060989460172
 30
0.0
 11
8683.097197605112
 21
8492.060989460172
 31
0.0
  0
LINE
  5
14586
330
747D
100
AcDbEntity
  8
部品1
100
AcDbLine
 10
8655.097197605112
 20
9332.060989460172
 30
0.0
 11
8683.097197605112
 21
9332.060989460172
 31
0.0
  0
DIMENSION
  5
14587
330
747D
100
AcDbEntity
  8
寸法
100
AcDbDimension
  2
*D8
 10
8683.097197605112
 20
9822.539339406546
 30
0.0
 11
8991.582478979351
 21
9822.539339406546
 31
0.0
 70
   160
 71
     5
 42
55.0
  3
INABA_S40G
100
AcDbAlignedDimension
 13
8628.097197605113
 23
9387.06098946017
 33
0.0
 14
8683.097197605112
 24
9387.06098946017
 34
0.0
100
AcDbRotatedDimension
1001
ACAD
1000
DSTYLE
1002
{
1002
}
  0
LINE
  5
14588
330
747D
100
AcDbEntity
  8
部品1
100
AcDbLine
 10
4573.097197605109
 20
9387.060989460042
 30
0.0
 11
5131.143456917848
 21
9387.06098946006
 31
0.0
  0
DIMENSION
  5
14589
330
747D
100
AcDbEntity
  8
寸法
100
AcDbDimension
  2
*D9
 10
8628.097197605113
 20
9822.539339406565
 30
0.0
 11
7998.097197605109
 21
9822.539339406565
 31
0.0
 70
   160
  1
3X420=<>
 71
     5
 42
1260.000000000002
  3
INABA_S40G
100
AcDbAlignedDimension
 13
7368.097197605109
 23
9387.060989460042
 33
0.0
 14
8628.097197605113
 24
9387.06098946017
 34
0.0
100
AcDbRotatedDimension
1001
ACAD
1000
DSTYLE
1002
{
1002
}
  0
LINE
  5
14C0C
330
747D
100
AcDbEntity
  8
部品1
100
AcDbLine
 10
8200.097197605307
 20
7727.56098946013
 30
0.0
 11
7369.597197605004
 21
7727.560989460066
 31
0.0
  0
LINE
  5
14C0E
330
747D
100
AcDbEntity
  8
破線
 48
10.0
100
AcDbLine
 10
8200.097197605304
 20
7751.060989460133
 30
0.0
 11
7393.097197605097
 21
7751.060989460066
 31
0.0
  0
LINE
  5
14C31
330
747D
100
AcDbEntity
  8
部品1
100
AcDbLine
 10
7369.597197605078
 20
9330.560989460192
 30
0.0
 11
7369.5971976051
 21
7727.560989460162
 31
0.0
  0
LINE
  5
14C32
330
747D
100
AcDbEntity
  8
破線
 48
10.0
100
AcDbLine
 10
7393.097197605078
 20
9307.060989460191
 30
0.0
 11
7393.097197605088
 21
8554.560989460034
 31
0.0
  0
LINE
  5
14C33
330
747D
100
AcDbEntity
  8
部品1
 48
50.0
100
AcDbLine
 10
7369.5971976051
 20
7727.560989460163
 30
0.0
 11
7341.097197605101
 21
7699.060989460164
 31
0.0
  0
LINE
  5
15381
330
747D
100
AcDbEntity
  8
破線
 48
10.0
100
AcDbLine
 10
8200.097197605115
 20
9307.060989460255
 30
0.0
 11
7393.097197605078
 21
9307.060989460191
 31
0.0
  0
LINE
  5
15382
330
747D
100
AcDbEntity
  8
部品1
100
AcDbLine
 10
7369.597197605078
 20
9330.560989460192
 30
0.0
 11
8200.097197605112
 21
9330.56098946019
 31
0.0
  0
LINE
  5
153C1
330
747D
100
AcDbEntity
  8
部品1
 48
50.0
100
AcDbLine
 10
7788.097197605111
 20
9330.560989460192
 30
0.0
 11
7788.097197605201
 21
7727.560989460098
 31
0.0
  0
DIMENSION
  5
1540B
330
747D
100
AcDbEntity
  8
寸法
 48
50.0
100
AcDbDimension
  2
*D10
 10
8125.045879274265
 20
9634.656322645916
 30
0.0
 11
8328.532989997119
 21
9634.656322645916
 31
0.0
 70
   160
 71
     5
 42
449.9999999999982
  3
INABA_S40G
100
AcDbAlignedDimension
 13
8650.097197605106
 23
9354.560989460191
 33
0.0
 14
8200.097197605108
 24
9354.560989460189
 34
0.0
100
AcDbRotatedDimension
  0
LINE
  5
154D6
330
747D
100
AcDbEntity
  8
仕様書枠
 48
50.0
100
AcDbLine
 10
16307.2
 20
1200.0
 30
0.0
 11
16307.2
 21
-0.0000000000000909
 31
0.0
  0
LINE
  5
15605
330
747D
100
AcDbEntity
  8
部品1
100
AcDbLine
 10
7364.097197605103
 20
7597.060989459997
 30
0.0
 11
7364.097197605102
 21
7604.060989460034
 31
0.0
  0
LINE
  5
15606
330
747D
100
AcDbEntity
  8
部品1
100
AcDbLine
 10
7373.097197605101
 20
7604.060989460032
 30
0.0
 11
7364.097197605102
 21
7604.060989460034
 31
0.0
  0
LINE
  5
15607
330
747D
100
AcDbEntity
  8
部品1
100
AcDbLine
 10
7373.097197605101
 20
7604.060989460032
 30
0.0
 11
7373.097197605099
 21
7652.060989459997
 31
0.0
  0
LINE
  5
15608
330
747D
100
AcDbEntity
  8
部品1
100
AcDbLine
 10
7253.097197605102
 20
7604.060989460032
 30
0.0
 11
7253.097197605099
 21
7652.060989459997
 31
0.0
  0
LINE
  5
15609
330
747D
100
AcDbEntity
  8
部品1
100
AcDbLine
 10
7262.0971976051
 20
7604.060989460027
 30
0.0
 11
7253.097197605102
 21
7604.060989460028
 31
0.0
  0
LINE
  5
1560A
330
747D
100
AcDbEntity
  8
部品1
100
AcDbLine
 10
7262.097197605104
 20
7597.06098945999
 30
0.0
 11
7262.0971976051
 21
7604.060989460027
 31
0.0
  0
LINE
  5
1560B
330
747D
100
AcDbEntity
  8
部品1
 48
50.0
100
AcDbLine
 10
7253.097197605099
 20
7652.060989459997
 30
0.0
 11
7276.0971976051
 21
7652.060989459997
 31
0.0
  0
LINE
  5
1560C
330
747D
100
AcDbEntity
  8
部品1
 48
50.0
100
AcDbLine
 10
7373.097197605099
 20
7652.060989459997
 30
0.0
 11
7350.097197605099
 21
7652.060989459997
 31
0.0
  0
LINE
  5
15611
330
747D
100
AcDbEntity
  8
部品1
 48
50.0
100
AcDbLine
 10
7341.097197605067
 20
7652.060989459997
 30
0.0
 11
7285.097197605067
 21
7652.060989459997
 31
0.0
  0
LINE
  5
15612
330
747D
100
AcDbEntity
  8
部品1
100
AcDbLine
 10
7368.097197605109
 20
9387.060989460074
 30
0.0
 11
7368.097197605109
 21
9359.060989460074
 31
0.0
  0
LINE
  5
15613
330
747D
100
AcDbEntity
  8
部品1
100
AcDbLine
 10
7341.097197605077
 20
9332.060989460044
 30
0.0
 11
7285.097197605077
 21
9332.060989460044
 31
0.0
  0
LINE
  5
15614
330
747D
100
AcDbEntity
  8
部品1
100
AcDbLine
 10
7258.09719760511
 20
9387.060989460074
 30
0.0
 11
7258.09719760511
 21
9359.060989460074
 31
0.0
  0
LINE
  5
15624
330
747D
100
AcDbEntity
  8
部品1
 48
50.0
100
AcDbLine
 10
7341.097197605077
 20
9332.060989460044
 30
0.0
 11
7341.097197605077
 21
9387.060989460129
 31
0.0
  0
LINE
  5
15625
330
747D
100
AcDbEntity
  8
部品1
 48
50.0
100
AcDbLine
 10
7285.097197605077
 20
9332.060989460044
 30
0.0
 11
7285.097197605077
 21
9359.060989460072
 31
0.0
  0
LINE
  5
15628
330
747D
100
AcDbEntity
  8
部品1
100
AcDbLine
 10
7368.097197605109
 20
9359.060989460074
 30
0.0
 11
7788.09719760511
 21
9359.060989460079
 31
0.0
  0
LINE
  5
15629
330
747D
100
AcDbEntity
  8
部品1
100
AcDbLine
 10
7341.097197605077
 20
9359.060989460179
 30
0.0
 11
8655.097197605112
 21
9359.060989460187
 31
0.0
  0
LINE
  5
1562A
330
747D
100
AcDbEntity
  8
部品1
 48
50.0
100
AcDbLine
 10
7285.097197605077
 20
9359.060989460072
 30
0.0
 11
7313.097197605076
 21
9359.060989460074
 31
0.0
  0
LINE
  5
1562B
330
747D
100
AcDbEntity
  8
部品1
 48
50.0
100
AcDbLine
 10
7313.097197605076
 20
9359.060989460072
 30
0.0
 11
7285.097197605077
 21
9387.060989460126
 31
0.0
  0
LINE
  5
1562C
330
747D
100
AcDbEntity
  8
部品1
100
AcDbLine
 10
7285.097197605042
 20
9359.060989460072
 30
0.0
 11
7285.097197605056
 21
8504.560989460168
 31
0.0
  0
LINE
  5
1562D
330
747D
100
AcDbEntity
  8
部品1
100
AcDbLine
 10
7313.09719760505
 20
7652.060989460058
 30
0.0
 11
7313.097197605076
 21
9332.060989460044
 31
0.0
  0
LINE
  5
1562E
330
747D
100
AcDbEntity
  8
部品1
100
AcDbLine
 10
7313.097197605054
 20
8072.060989460075
 30
0.0
 11
7285.097197605056
 21
8072.060989460075
 31
0.0
  0
LINE
  5
1562F
330
747D
100
AcDbEntity
  8
部品1
100
AcDbLine
 10
7313.09719760505
 20
8492.060989460075
 30
0.0
 11
7285.09719760505
 21
8492.060989460075
 31
0.0
  0
LINE
  5
15630
330
747D
100
AcDbEntity
  8
部品1
100
AcDbLine
 10
7341.097197605042
 20
9332.060989460044
 30
0.0
 11
7341.097197605069
 21
7597.060989460063
 31
0.0
  0
LINE
  5
15631
330
747D
100
AcDbEntity
  8
部品1
 48
50.0
100
AcDbLine
 10
7285.097197605077
 20
9359.060989460177
 30
0.0
 11
7285.097197605075
 21
9387.060989460126
 31
0.0
  0
DIMENSION
  5
15633
330
747D
100
AcDbEntity
  8
寸法
100
AcDbDimension
  2
*D11
 10
7313.097197605086
 20
6832.925020106471
 30
0.0
 11
6628.097197605095
 21
6832.925020106471
 31
0.0
 70
   160
 71
     5
 42
1369.999999999982
  3
INABA_S40G
100
AcDbAlignedDimension
 13
5943.097197605103
 23
7597.060989459997
 33
0.0
 14
7313.097197605086
 24
7597.060989460125
 34
0.0
100
AcDbRotatedDimension
1001
ACAD
1000
DSTYLE
1002
{
1002
}
  0
LINE
  5
15682
330
747D
100
AcDbEntity
  8
破線
 48
10.0
100
AcDbLine
 10
6830.097197605304
 20
7751.060989460133
 30
0.0
 11
6023.097197605096
 21
7751.060989460066
 31
0.0
  0
LINE
  5
15683
330
747D
100
AcDbEntity
  8
部品1
100
AcDbLine
 10
6830.097197605309
 20
7727.56098946013
 30
0.0
 11
5999.597197605004
 21
7727.560989460066
 31
0.0
  0
LINE
  5
15684
330
747D
100
AcDbEntity
  8
部品1
100
AcDbLine
 10
6830.097197605311
 20
7699.060989460129
 30
0.0
 11
5971.097197605084
 21
7699.060989460064
 31
0.0
  0
LINE
  5
15685
330
747D
100
AcDbEntity
  8
部品1
 48
50.0
100
AcDbLine
 10
6418.097197605111
 20
9330.560989460192
 30
0.0
 11
6418.097197605201
 21
7727.560989460098
 31
0.0
  0
LINE
  5
15686
330
747D
100
AcDbEntity
  8
破線
 48
10.0
100
AcDbLine
 10
6023.097197605078
 20
9307.060989460191
 30
0.0
 11
6023.097197605088
 21
8554.560989460034
 31
0.0
  0
LINE
  5
15687
330
747D
100
AcDbEntity
  8
部品1
100
AcDbLine
 10
5999.597197605079
 20
9330.560989460192
 30
0.0
 11
5999.597197605099
 21
7727.560989460162
 31
0.0
  0
LINE
  5
15688
330
747D
100
AcDbEntity
  8
部品1
 48
50.0
100
AcDbLine
 10
5999.597197605099
 20
7727.560989460163
 30
0.0
 11
5971.097197605101
 21
7699.060989460164
 31
0.0
  0
LINE
  5
15689
330
747D
100
AcDbEntity
  8
部品1
100
AcDbLine
 10
5999.597197605079
 20
9330.560989460192
 30
0.0
 11
6830.097197605113
 21
9330.56098946019
 31
0.0
  0
LINE
  5
1568A
330
747D
100
AcDbEntity
  8
破線
 48
10.0
100
AcDbLine
 10
6830.097197605116
 20
9307.060989460255
 30
0.0
 11
6023.097197605078
 21
9307.060989460191
 31
0.0
  0
DIMENSION
  5
1568E
330
747D
100
AcDbEntity
  8
寸法
100
AcDbDimension
  2
*D12
 10
7258.09719760511
 20
9822.539339406565
 30
0.0
 11
6628.097197605109
 21
9822.539339406565
 31
0.0
 70
   160
  1
3X420=<>
 71
     5
 42
1260.000000000001
  3
INABA_S40G
100
AcDbAlignedDimension
 13
5998.097197605109
 23
9387.060989460042
 33
0.0
 14
7258.09719760511
 24
9387.06098946017
 34
0.0
100
AcDbRotatedDimension
1001
ACAD
1000
DSTYLE
1002
{
1002
}
  0
LINE
  5
156BC
330
747D
100
AcDbEntity
  8
細線
100
AcDbLine
 10
5460.097197605087
 20
7698.060989460159
 30
0.0
 11
5459.422525691002
 21
7698.060989460159
 31
0.0
  0
LINE
  5
156BD
330
747D
100
AcDbEntity
  8
細線
100
AcDbLine
 10
5460.097197605088
 20
7698.060989460159
 30
0.0
 11
5460.097197605088
 21
7694.234734899598
 31
0.0
  0
LINE
  5
156C2
330
747D
100
AcDbEntity
  8
部品1
100
AcDbLine
 10
5910.097197605204
 20
7674.560989460188
 30
0.0
 11
5463.566209737646
 21
7674.560989460188
 31
0.0
  0
LINE
  5
156C5
330
747D
100
AcDbEntity
  8
破線
 48
10.0
100
AcDbLine
 10
5460.097197605304
 20
7751.060989460133
 30
0.0
 11
5450.077195713459
 21
7751.060989460134
 31
0.0
  0
LINE
  5
156C6
330
747D
100
AcDbEntity
  8
部品1
100
AcDbLine
 10
5460.097197605309
 20
7727.56098946013
 30
0.0
 11
5454.220879760106
 21
7727.560989460132
 31
0.0
  0
LINE
  5
156C7
330
747D
100
AcDbEntity
  8
部品1
100
AcDbLine
 10
5460.097197605312
 20
7699.060989460129
 30
0.0
 11
5459.246198710298
 21
7699.060989460129
 31
0.0
  0
LINE
  5
156C8
330
747D
100
AcDbEntity
  8
部品1
 48
50.0
100
AcDbLine
 10
5048.097197605112
 20
9330.560989460192
 30
0.0
 11
5048.09719760516
 21
8465.286746876705
 31
0.0
  0
LINE
  5
156C9
330
747D
100
AcDbEntity
  8
破線
 48
10.0
100
AcDbLine
 10
4653.097197605077
 20
9307.060989460191
 30
0.0
 11
4653.097197605085
 21
8554.560989460034
 31
0.0
  0
LINE
  5
156CA
330
747D
100
AcDbEntity
  8
部品1
100
AcDbLine
 10
4629.597197605078
 20
9330.560989460192
 30
0.0
 11
4629.597197605099
 21
7727.560989460162
 31
0.0
  0
LINE
  5
156CB
330
747D
100
AcDbEntity
  8
部品1
 48
50.0
100
AcDbLine
 10
4629.597197605099
 20
7727.560989460163
 30
0.0
 11
4601.097197605102
 21
7699.060989460164
 31
0.0
  0
LINE
  5
156CC
330
747D
100
AcDbEntity
  8
部品1
100
AcDbLine
 10
4629.597197605078
 20
9330.560989460192
 30
0.0
 11
5141.105931327854
 21
9330.56098946019
 31
0.0
  0
LINE
  5
156CD
330
747D
100
AcDbEntity
  8
破線
 48
10.0
100
AcDbLine
 10
5460.097197605116
 20
9307.060989460255
 30
0.0
 11
5175.712413731066
 21
9307.060989460238
 31
0.0
  0
LINE
  5
156DE
330
747D
100
AcDbEntity
  8
部品1
100
AcDbLine
 10
5943.097197605051
 20
7652.060989460058
 30
0.0
 11
5943.097197605075
 21
9332.060989460044
 31
0.0
  0
LINE
  5
156DF
330
747D
100
AcDbEntity
  8
部品1
100
AcDbLine
 10
5971.097197605042
 20
9332.060989460044
 30
0.0
 11
5971.097197605068
 21
7597.060989460063
 31
0.0
  0
LINE
  5
156E0
330
747D
100
AcDbEntity
  8
部品1
100
AcDbLine
 10
5915.097197605041
 20
9359.060989460072
 30
0.0
 11
5915.097197605055
 21
8504.560989460168
 31
0.0
  0
LINE
  5
156E1
330
747D
100
AcDbEntity
  8
部品1
 48
50.0
100
AcDbLine
 10
5971.097197605068
 20
7652.060989459997
 30
0.0
 11
5915.097197605067
 21
7652.060989459997
 31
0.0
  0
LINE
  5
156E2
330
747D
100
AcDbEntity
  8
部品1
 48
50.0
100
AcDbLine
 10
6003.0971976051
 20
7652.060989459997
 30
0.0
 11
5980.0971976051
 21
7652.060989459997
 31
0.0
  0
LINE
  5
156E3
330
747D
100
AcDbEntity
  8
部品1
 48
50.0
100
AcDbLine
 10
5883.097197605099
 20
7652.060989459997
 30
0.0
 11
5906.0971976051
 21
7652.060989459997
 31
0.0
  0
LINE
  5
156E4
330
747D
100
AcDbEntity
  8
部品1
100
AcDbLine
 10
5883.097197605102
 20
7604.060989460032
 30
0.0
 11
5883.097197605099
 21
7652.060989459997
 31
0.0
  0
LINE
  5
156E5
330
747D
100
AcDbEntity
  8
部品1
100
AcDbLine
 10
6003.097197605101
 20
7604.060989460032
 30
0.0
 11
6003.0971976051
 21
7652.060989459997
 31
0.0
  0
LINE
  5
156E6
330
747D
100
AcDbEntity
  8
部品1
100
AcDbLine
 10
5892.097197605101
 20
7604.060989460027
 30
0.0
 11
5883.097197605102
 21
7604.060989460028
 31
0.0
  0
LINE
  5
156E7
330
747D
100
AcDbEntity
  8
部品1
100
AcDbLine
 10
5892.097197605103
 20
7597.06098945999
 30
0.0
 11
5892.097197605101
 21
7604.060989460027
 31
0.0
  0
LINE
  5
156E8
330
747D
100
AcDbEntity
  8
部品1
100
AcDbLine
 10
6003.097197605101
 20
7604.060989460032
 30
0.0
 11
5994.097197605102
 21
7604.060989460034
 31
0.0
  0
LINE
  5
156E9
330
747D
100
AcDbEntity
  8
部品1
100
AcDbLine
 10
5994.097197605103
 20
7597.060989459997
 30
0.0
 11
5994.097197605102
 21
7604.060989460034
 31
0.0
  0
LINE
  5
156EA
330
747D
100
AcDbEntity
  8
部品1
100
AcDbLine
 10
5943.097197605055
 20
8072.060989460075
 30
0.0
 11
5915.097197605055
 21
8072.060989460075
 31
0.0
  0
LINE
  5
156EB
330
747D
100
AcDbEntity
  8
部品1
100
AcDbLine
 10
5943.09719760505
 20
8492.060989460075
 30
0.0
 11
5915.097197605049
 21
8492.060989460075
 31
0.0
  0
LINE
  5
156EC
330
747D
100
AcDbEntity
  8
部品1
 48
50.0
100
AcDbLine
 10
5943.097197605075
 20
9359.060989460072
 30
0.0
 11
5915.097197605077
 21
9387.060989460126
 31
0.0
  0
LINE
  5
156ED
330
747D
100
AcDbEntity
  8
部品1
 48
50.0
100
AcDbLine
 10
5915.097197605077
 20
9359.060989460072
 30
0.0
 11
5943.097197605075
 21
9359.060989460074
 31
0.0
  0
LINE
  5
156EE
330
747D
100
AcDbEntity
  8
部品1
100
AcDbLine
 10
5971.097197605077
 20
9332.060989460044
 30
0.0
 11
5915.097197605077
 21
9332.060989460044
 31
0.0
  0
LINE
  5
156EF
330
747D
100
AcDbEntity
  8
部品1
 48
50.0
100
AcDbLine
 10
5915.097197605077
 20
9359.060989460177
 30
0.0
 11
5915.097197605076
 21
9387.060989460126
 31
0.0
  0
LINE
  5
156F0
330
747D
100
AcDbEntity
  8
部品1
 48
50.0
100
AcDbLine
 10
5971.097197605077
 20
9332.060989460044
 30
0.0
 11
5971.097197605077
 21
9387.060989460129
 31
0.0
  0
LINE
  5
156F1
330
747D
100
AcDbEntity
  8
部品1
100
AcDbLine
 10
5888.09719760511
 20
9387.060989460074
 30
0.0
 11
5888.09719760511
 21
9359.060989460074
 31
0.0
  0
LINE
  5
156F2
330
747D
100
AcDbEntity
  8
部品1
100
AcDbLine
 10
5998.097197605109
 20
9387.060989460074
 30
0.0
 11
5998.097197605109
 21
9359.060989460074
 31
0.0
  0
LINE
  5
156F3
330
747D
100
AcDbEntity
  8
部品1
100
AcDbLine
 10
5971.097197605077
 20
9359.060989460168
 30
0.0
 11
7285.097197605077
 21
9359.060989460177
 31
0.0
  0
LINE
  5
156F4
330
747D
100
AcDbEntity
  8
部品1
100
AcDbLine
 10
5971.097197605077
 20
9359.060989460054
 30
0.0
 11
7258.09719760511
 21
9359.060989460072
 31
0.0
  0
DIMENSION
  5
15727
330
747D
100
AcDbEntity
  8
寸法
 48
50.0
100
AcDbDimension
  2
*D13
 10
7258.09719760511
 20
9822.539339406565
 30
0.0
 11
7313.09719760511
 21
9822.539339406565
 31
0.0
 70
   160
 71
     5
 42
110.0
  3
INABA_S40G
100
AcDbAlignedDimension
 13
7368.097197605109
 23
9387.060989460042
 33
0.0
 14
7258.09719760511
 24
9387.060989460042
 34
0.0
100
AcDbRotatedDimension
  0
DIMENSION
  5
15735
330
747D
100
AcDbEntity
  8
寸法
 48
50.0
100
AcDbDimension
  2
*D14
 10
5888.097197605111
 20
9822.539339406565
 30
0.0
 11
5943.097197605109
 21
9822.539339406565
 31
0.0
 70
   160
 71
     5
 42
109.9999999999991
  3
INABA_S40G
100
AcDbAlignedDimension
 13
5998.097197605109
 23
9387.060989460087
 33
0.0
 14
5888.097197605111
 24
9387.06098946017
 34
0.0
100
AcDbRotatedDimension
  0
LINE
  5
157F1
330
747D
100
AcDbEntity
  8
寸法
 48
50.0
100
AcDbLine
 10
5152.923846391071
 20
9436.301377110671
 30
0.0
 11
5282.657541161228
 21
8700.545032568859
 31
0.0
  0
LINE
  5
157F2
330
747D
100
AcDbEntity
  8
寸法
 48
50.0
100
AcDbLine
 10
5122.461048034502
 20
9436.301377110671
 30
0.0
 11
5257.110656564977
 21
8672.66550023314
 31
0.0
  0
LINE
  5
157F3
330
747D
100
AcDbEntity
  8
寸法
 48
50.0
100
AcDbLine
 10
5326.468962000172
 20
8452.078118073336
 30
0.0
 11
5485.91395962594
 21
7547.820601809331
 31
0.0
  0
LINE
  5
157F4
330
747D
100
AcDbEntity
  8
寸法
 48
50.0
100
AcDbLine
 10
5300.922077403921
 20
8424.198585737613
 30
0.0
 11
5455.451161269369
 21
7547.820601809327
 31
0.0
  0
LINE
  5
157F5
330
747D
100
AcDbEntity
  8
寸法
 48
50.0
100
AcDbLine
 10
5455.584666743279
 20
8655.301274338007
 30
0.0
 11
5013.844802714165
 21
8449.314592828885
 31
0.0
  0
LINE
  5
157F6
330
747D
100
AcDbEntity
  8
寸法
 48
50.0
100
AcDbLine
 10
5569.734815850983
 20
8675.429025477589
 30
0.0
 11
5127.994951821871
 21
8469.442343968466
 31
0.0
  0
LINE
  5
157F7
330
747D
100
AcDbEntity
  8
寸法
 48
50.0
100
AcDbLine
 10
5326.468962000172
 20
8452.078118073336
 30
0.0
 11
5127.994951821873
 21
8469.442343968466
 31
0.0
  0
LINE
  5
157F8
330
747D
100
AcDbEntity
  8
寸法
 48
50.0
100
AcDbLine
 10
5300.922077403921
 20
8424.198585737613
 30
0.0
 11
5013.844802714165
 21
8449.314592828885
 31
0.0
  0
LINE
  5
157F9
330
747D
100
AcDbEntity
  8
寸法
 48
50.0
100
AcDbLine
 10
5282.657541161227
 20
8700.545032568861
 30
0.0
 11
5569.734815850983
 21
8675.429025477589
 31
0.0
  0
LINE
  5
157FA
330
747D
100
AcDbEntity
  8
寸法
 48
50.0
100
AcDbLine
 10
5257.110656564977
 20
8672.66550023314
 30
0.0
 11
5455.584666743279
 21
8655.301274338007
 31
0.0
  0
LINE
  5
157FC
330
747D
100
AcDbEntity
  8
部品1
100
AcDbLine
 10
5446.768752386022
 20
7597.060989459937
 30
0.0
 11
4573.097197605103
 21
7597.060989459878
 31
0.0
  0
LINE
  5
15800
330
747D
100
AcDbEntity
  8
部品1
100
AcDbLine
 10
5428.783400353726
 20
7699.060989460126
 30
0.0
 11
4601.097197605084
 21
7699.060989460064
 31
0.0
  0
LINE
  5
15801
330
747D
100
AcDbEntity
  8
部品1
100
AcDbLine
 10
5423.758081403534
 20
7727.560989460129
 30
0.0
 11
4629.597197605003
 21
7727.560989460066
 31
0.0
  0
LINE
  5
15802
330
747D
100
AcDbEntity
  8
破線
 48
10.0
100
AcDbLine
 10
5419.614397356886
 20
7751.060989460128
 30
0.0
 11
4653.097197605097
 21
7751.060989460066
 31
0.0
  0
LINE
  5
15805
330
747D
100
AcDbEntity
  8
破線
 48
10.0
100
AcDbLine
 10
5145.249615374495
 20
9307.060989460236
 30
0.0
 11
4653.097197605077
 21
9307.060989460191
 31
0.0
  0
LINE
  5
15806
330
747D
100
AcDbEntity
  8
部品1
100
AcDbLine
 10
5171.568729684425
 20
9330.56098946019
 30
0.0
 11
5460.097197605112
 21
9330.56098946019
 31
0.0
  0
LINE
  5
15807
330
747D
100
AcDbEntity
  8
部品1
100
AcDbLine
 10
5166.543410734238
 20
9359.060989460163
 30
0.0
 11
5943.09719760498
 21
9359.060989460168
 31
0.0
  0
LINE
  5
15808
330
747D
100
AcDbEntity
  8
部品1
100
AcDbLine
 10
5161.60625527442
 20
9387.060989460062
 30
0.0
 11
8683.097197605112
 21
9387.06098946017
 31
0.0
  0
LINE
  5
15809
330
747D
100
AcDbEntity
  8
部品1
100
AcDbLine
 10
5166.543410734259
 20
9359.060989460047
 30
0.0
 11
5943.097197605091
 21
9359.060989460054
 31
0.0
  0
LINE
  5
1580A
330
747D
100
AcDbEntity
  8
寸法
  6
ByBlock
 48
50.0
100
AcDbLine
 10
4573.097197605103
 20
7577.060989459997
 30
0.0
 11
4573.097197605103
 21
6772.925020106471
 31
0.0
  0
LINE
  5
1580B
330
747D
100
AcDbEntity
  8
寸法
  6
ByBlock
 48
50.0
100
AcDbLine
 10
5943.097197605085
 20
7577.060989460126
 30
0.0
 11
5943.097197605085
 21
6772.925020106471
 31
0.0
  0
LINE
  5
1580C
330
747D
100
AcDbEntity
  8
寸法
  6
ByBlock
 48
50.0
100
AcDbLine
 10
4573.097197605103
 20
6832.925020106471
 30
0.0
 11
4919.320527002622
 21
6832.925020106471
 31
0.0
  0
INSERT
  5
1580D
330
747D
100
AcDbEntity
  8
寸法
  6
ByBlock
 48
50.0
100
AcDbBlockReference
  2
_DOTSMALL
 10
4573.097197605103
 20
6832.925020106471
 30
0.0
 41
100.0
 42
100.0
 43
100.0
 50
180.0
  0
INSERT
  5
1580E
330
747D
100
AcDbEntity
  8
寸法
  6
ByBlock
 48
50.0
100
AcDbBlockReference
  2
_DOTSMALL
 10
5943.097197605085
 20
6832.925020106471
 30
0.0
 41
100.0
 42
100.0
 43
100.0
  0
MTEXT
  5
1580F
330
747D
100
AcDbEntity
  8
部品1
  6
ByBlock
 48
50.0
100
AcDbMText
 10
4775.177028838437
 20
6932.925020106471
 30
0.0
 40
120.0
 41
0.0
 71
     5
 72
     1
  1
\A1;1370
  7
STYLE1
 73
     1
 44
1.0
1001
ACAD
1000
MTEXTBEGIN
1070
    73
1070
     1
1070
    44
1040
1.0
1070
    74
1070
     0
1000
MTEXTEND
  0
POINT
  5
15812
330
747D
100
AcDbEntity
  8
寸法
  6
ByBlock
 48
50.0
100
AcDbPoint
 10
5943.097197605085
 20
6832.925020106471
 30
0.0
  0
LINE
  5
15815
330
747D
100
AcDbEntity
  8
寸法
  6
ByBlock
 48
50.0
100
AcDbLine
 10
4628.09719760511
 20
9407.060989460042
 30
0.0
 11
4628.09719760511
 21
9882.539339406566
 31
0.0
  0
LINE
  5
15816
330
747D
100
AcDbEntity
  8
寸法
  6
ByBlock
 48
50.0
100
AcDbLine
 10
5888.097197605111
 20
9407.06098946017
 30
0.0
 11
5888.097197605111
 21
9882.539339406566
 31
0.0
  0
LINE
  5
15817
330
747D
100
AcDbEntity
  8
寸法
  6
ByBlock
 48
50.0
100
AcDbLine
 10
4628.09719760511
 20
9822.539339406565
 30
0.0
 11
4969.550687714138
 21
9822.539339406565
 31
0.0
  0
INSERT
  5
15818
330
747D
100
AcDbEntity
  8
寸法
  6
ByBlock
 48
50.0
100
AcDbBlockReference
  2
_DOTSMALL
 10
4628.09719760511
 20
9822.539339406565
 30
0.0
 41
100.0
 42
100.0
 43
100.0
 50
180.0
  0
INSERT
  5
15819
330
747D
100
AcDbEntity
  8
寸法
  6
ByBlock
 48
50.0
100
AcDbBlockReference
  2
_DOTSMALL
 10
5888.097197605111
 20
9822.539339406565
 30
0.0
 41
100.0
 42
100.0
 43
100.0
  0
MTEXT
  5
1581A
330
747D
100
AcDbEntity
  8
部品1
  6
ByBlock
 48
50.0
100
AcDbMText
 10
4816.017464111116
 20
9922.551150430187
 30
0.0
 40
120.0
 41
0.0
 71
     5
 72
     1
  1
\A1;1260
  7
STYLE1
 73
     1
 44
1.0
1001
ACAD
1000
MTEXTBEGIN
1070
    73
1070
     1
1070
    44
1040
1.0
1070
    74
1070
     0
1000
MTEXTEND
  0
POINT
  5
1581D
330
747D
100
AcDbEntity
  8
寸法
  6
ByBlock
 48
50.0
100
AcDbPoint
 10
5888.097197605111
 20
9822.539339406565
 30
0.0
  0
LINE
  5
1581E
330
747D
100
AcDbEntity
  8
寸法
  6
ByBlock
 48
50.0
100
AcDbLine
 10
5587.009335620031
 20
6832.925020106471
 30
0.0
 11
5943.097197605085
 21
6832.925020106471
 31
0.0
  0
LINE
  5
1581F
330
747D
100
AcDbEntity
  8
寸法
  6
ByBlock
 48
50.0
100
AcDbLine
 10
5437.040147463929
 20
9822.539339406565
 30
0.0
 11
5888.097197605111
 21
9822.539339406565
 31
0.0
  0
MTEXT
  5
1583A
330
747D
100
AcDbEntity
  8
部品1
  6
ByBlock
 48
50.0
100
AcDbMText
 10
5724.359001499478
 20
6932.925020106471
 30
0.0
 40
120.0
 41
0.0
 71
     5
 72
     1
  1
\A1;1370
  7
STYLE1
 73
     1
 44
1.0
1001
ACAD
1000
MTEXTBEGIN
1070
    73
1070
     1
1070
    44
1040
1.0
1070
    74
1070
     0
1000
MTEXTEND
  0
MTEXT
  5
1583B
330
747D
100
AcDbEntity
  8
部品1
  6
ByBlock
 48
50.0
100
AcDbMText
 10
5593.7416776135
 20
9922.551150430187
 30
0.0
 40
120.0
 41
0.0
 71
     5
 72
     1
  1
\A1;1260
  7
STYLE1
 73
     1
 44
1.0
1001
ACAD
1000
MTEXTBEGIN
1070
    73
1070
     1
1070
    44
1040
1.0
1070
    74
1070
     0
1000
MTEXTEND
  0
LINE
  5
15874
330
747D
100
AcDbEntity
  8
部品1
 48
50.0
100
AcDbLine
 10
6418.097197605111
 20
9359.06098946017
 30
0.0
 11
6418.097197605111
 21
9387.060989460101
 31
0.0
  0
LINE
  5
15875
330
747D
100
AcDbEntity
  8
部品1
 48
50.0
100
AcDbLine
 10
6838.09719760511
 20
9359.06098946017
 30
0.0
 11
6838.09719760511
 21
9387.060989460101
 31
0.0
  0
LINE
  5
15876
330
747D
100
AcDbEntity
  8
部品1
 48
50.0
100
AcDbLine
 10
5048.097197605111
 20
9359.06098946017
 30
0.0
 11
5048.097197605111
 21
9387.060989460101
 31
0.0
  0
LINE
  5
15877
330
747D
100
AcDbEntity
  8
部品1
 48
50.0
100
AcDbLine
 10
5468.097197605111
 20
9359.06098946017
 30
0.0
 11
5468.097197605111
 21
9387.060989460101
 31
0.0
  0
LINE
  5
1601F
330
747D
100
AcDbEntity
  8
破線
 48
10.0
100
AcDbLine
 10
5460.097197605116
 20
8504.560989460097
 30
0.0
 11
5203.307130117547
 21
8504.560989460077
 31
0.0
  0
LINE
  5
16020
330
747D
100
AcDbEntity
  8
破線
 48
10.0
100
AcDbLine
 10
5460.097197605116
 20
8554.560989460098
 30
0.0
 11
5310.532476143047
 21
8554.560989460085
 31
0.0
  0
LINE
  5
16021
330
747D
100
AcDbEntity
  8
破線
 48
10.0
100
AcDbLine
 10
6830.097197605116
 20
8554.560989460098
 30
0.0
 11
5999.597197605087
 21
8554.560989460034
 31
0.0
  0
LINE
  5
16022
330
747D
100
AcDbEntity
  8
破線
 48
10.0
100
AcDbLine
 10
6830.097197605116
 20
8504.560989460097
 30
0.0
 11
5999.597197605087
 21
8504.560989460033
 31
0.0
  0
LINE
  5
16023
330
747D
100
AcDbEntity
  8
破線
 48
10.0
100
AcDbLine
 10
4653.097197605085
 20
8504.560989460033
 30
0.0
 11
4653.097197605098
 21
7751.060989460066
 31
0.0
  0
LINE
  5
16024
330
747D
100
AcDbEntity
  8
破線
 48
10.0
100
AcDbLine
 10
6023.097197605088
 20
8504.560989460035
 30
0.0
 11
6023.097197605098
 21
7751.060989460066
 31
0.0
  0
LINE
  5
16025
330
747D
100
AcDbEntity
  8
破線
 48
10.0
100
AcDbLine
 10
5239.546428648464
 20
8554.560989460082
 30
0.0
 11
4629.597197605087
 21
8554.560989460034
 31
0.0
  0
LINE
  5
16026
330
747D
100
AcDbEntity
  8
破線
 48
10.0
100
AcDbLine
 10
5132.32108262296
 20
8504.560989460072
 30
0.0
 11
4629.597197605087
 21
8504.560989460033
 31
0.0
  0
LINE
  5
16027
330
747D
100
AcDbEntity
  8
部品1
 48
50.0
100
AcDbLine
 10
5048.09719760516
 20
8446.317896577308
 30
0.0
 11
5048.0971976052
 21
7727.560989460098
 31
0.0
  0
LINE
  5
1602A
330
747D
100
AcDbEntity
  8
部品1
100
AcDbLine
 10
8667.097197605086
 20
8518.060989460165
 30
0.0
 11
8655.097197605085
 21
8518.060989460165
 31
0.0
  0
LINE
  5
1602C
330
747D
100
AcDbEntity
  8
部品1
100
AcDbLine
 10
8667.097197605086
 20
8466.060989460165
 30
0.0
 11
8655.097197605085
 21
8466.060989460165
 31
0.0
  0
LINE
  5
1602D
330
747D
100
AcDbEntity
  8
部品1
100
AcDbLine
 10
8625.097197605082
 20
8504.560989460165
 30
0.0
 11
8625.097197605086
 21
8479.560989460166
 31
0.0
  0
LINE
  5
1602E
330
747D
100
AcDbEntity
  8
部品1
 48
50.0
100
AcDbLine
 10
8655.09719760509
 20
8479.560989460166
 30
0.0
 11
8203.097197605089
 21
8479.560989460166
 31
0.0
  0
LINE
  5
1602F
330
747D
100
AcDbEntity
  8
部品1
 48
50.0
100
AcDbLine
 10
8655.097197605092
 20
8504.560989460168
 30
0.0
 11
8203.097197605089
 21
8504.560989460165
 31
0.0
  0
LINE
  5
16030
330
747D
100
AcDbEntity
  8
細線
 48
50.0
100
AcDbLine
 10
8650.097197605315
 20
8505.310989460213
 30
0.0
 11
8200.097197605108
 21
9358.3109894602
 31
0.0
  0
LINE
  5
16031
330
747D
100
AcDbEntity
  8
部品1
100
AcDbLine
 10
8650.097197605203
 20
8505.310989460198
 30
0.0
 11
8200.097197605206
 21
8505.310989460198
 31
0.0
  0
LINE
  5
16032
330
747D
100
AcDbEntity
  8
部品1
 48
50.0
100
AcDbLine
 10
8650.097197605107
 20
8470.560989460192
 30
0.0
 11
8200.097197605112
 21
8470.560989460189
 31
0.0
  0
LINE
  5
16033
330
747D
100
AcDbEntity
  8
細線
 48
50.0
100
AcDbLine
 10
8200.09719760532
 20
7674.560989460203
 30
0.0
 11
8650.097197605111
 21
8470.560989460192
 31
0.0
  0
LINE
  5
16034
330
747D
100
AcDbEntity
  8
細線
 48
50.0
100
AcDbLine
 10
8200.097197605314
 20
8505.310989460213
 30
0.0
 11
8650.097197605111
 21
9358.310989460202
 31
0.0
  0
LINE
  5
16035
330
747D
100
AcDbEntity
  8
部品1
100
AcDbLine
 10
8200.097197605108
 20
9358.310989460198
 30
0.0
 11
8200.097197605314
 21
8505.310989460213
 31
0.0
  0
LINE
  5
16036
330
747D
100
AcDbEntity
  8
細線
 48
50.0
100
AcDbLine
 10
8650.097197605315
 20
7674.560989460203
 30
0.0
 11
8200.097197605112
 21
8470.560989460189
 31
0.0
  0
LINE
  5
16037
330
747D
100
AcDbEntity
  8
部品1
100
AcDbLine
 10
8200.097197605112
 20
8470.560989460187
 30
0.0
 11
8200.09719760532
 21
7674.560989460203
 31
0.0
  0
LINE
  5
16038
330
747D
100
AcDbEntity
  8
部品1
100
AcDbLine
 10
8203.097197605089
 20
8504.560989460165
 30
0.0
 11
8203.097197605089
 21
8479.560989460166
 31
0.0
  0
LINE
  5
16039
330
747D
100
AcDbEntity
  8
部品1
100
AcDbLine
 10
8655.097197605099
 20
8479.560989460166
 30
0.0
 11
8655.097197605085
 21
7652.060989460157
 31
0.0
  0
LINE
  5
1603A
330
747D
100
AcDbEntity
  8
部品1
100
AcDbLine
 10
8650.097197605223
 20
8470.560989460194
 30
0.0
 11
8650.097197605319
 21
7674.560989460203
 31
0.0
  0
DIMENSION
  5
1603B
330
747D
100
AcDbEntity
  8
寸法
 48
50.0
100
AcDbDimension
  2
*D15
 10
9065.280405005809
 20
8394.062984326293
 30
0.0
 11
9065.280405005808
 21
8825.717697264318
 31
0.0
 70
   160
 71
     5
 42
853.0000000000036
  3
INABA_S40G
100
AcDbAlignedDimension
 13
8650.097197605111
 23
9358.310989460219
 33
0.0
 14
8650.097197605322
 24
8505.310989460218
 34
0.0
 50
90.0
100
AcDbRotatedDimension
  0
DIMENSION
  5
1603C
330
747D
100
AcDbEntity
  8
寸法
 48
50.0
100
AcDbDimension
  2
*D16
 10
9065.280405005809
 20
7563.312984326282
 30
0.0
 11
9065.280405005808
 21
7979.967697264306
 31
0.0
 70
   160
 71
     5
 42
796.0000000000036
  3
INABA_S40G
100
AcDbAlignedDimension
 13
8650.097197605107
 23
8470.560989460208
 33
0.0
 14
8650.097197605322
 24
7674.560989460205
 34
0.0
 50
90.0
100
AcDbRotatedDimension
  0
LINE
  5
16077
330
747D
100
AcDbEntity
  8
細線
 48
50.0
100
AcDbLine
 10
7280.097197605314
 20
7674.560989460203
 30
0.0
 11
6830.097197605112
 21
8470.560989460189
 31
0.0
  0
LINE
  5
16078
330
747D
100
AcDbEntity
  8
細線
 48
50.0
100
AcDbLine
 10
6830.097197605315
 20
8505.310989460213
 30
0.0
 11
7280.097197605112
 21
9358.310989460202
 31
0.0
  0
LINE
  5
16079
330
747D
100
AcDbEntity
  8
細線
 48
50.0
100
AcDbLine
 10
6830.097197605319
 20
7674.560989460203
 30
0.0
 11
7280.097197605112
 21
8470.560989460192
 31
0.0
  0
LINE
  5
1607A
330
747D
100
AcDbEntity
  8
部品1
 48
50.0
100
AcDbLine
 10
7280.097197605107
 20
8470.560989460192
 30
0.0
 11
6830.097197605112
 21
8470.560989460189
 31
0.0
  0
LINE
  5
1607B
330
747D
100
AcDbEntity
  8
部品1
100
AcDbLine
 10
7280.097197605202
 20
8505.310989460198
 30
0.0
 11
6830.097197605207
 21
8505.310989460198
 31
0.0
  0
LINE
  5
1607C
330
747D
100
AcDbEntity
  8
細線
 48
50.0
100
AcDbLine
 10
7280.097197605314
 20
8505.310989460213
 30
0.0
 11
6830.097197605107
 21
9358.3109894602
 31
0.0
  0
LINE
  5
1607D
330
747D
100
AcDbEntity
  8
部品1
 48
50.0
100
AcDbLine
 10
7285.097197605093
 20
8504.560989460168
 30
0.0
 11
6833.09719760509
 21
8504.560989460165
 31
0.0
  0
LINE
  5
1607E
330
747D
100
AcDbEntity
  8
部品1
 48
50.0
100
AcDbLine
 10
7285.09719760509
 20
8479.560989460166
 30
0.0
 11
6833.09719760509
 21
8479.560989460166
 31
0.0
  0
LINE
  5
1607F
330
747D
100
AcDbEntity
  8
部品1
100
AcDbLine
 10
6830.097197605107
 20
9358.310989460198
 30
0.0
 11
6830.097197605315
 21
8505.310989460213
 31
0.0
  0
LINE
  5
16080
330
747D
100
AcDbEntity
  8
部品1
100
AcDbLine
 10
6830.097197605112
 20
8470.560989460187
 30
0.0
 11
6830.097197605319
 21
7674.560989460203
 31
0.0
  0
LINE
  5
16081
330
747D
100
AcDbEntity
  8
部品1
100
AcDbLine
 10
6833.09719760509
 20
8504.560989460165
 30
0.0
 11
6833.09719760509
 21
8479.560989460166
 31
0.0
  0
LINE
  5
16082
330
747D
100
AcDbEntity
  8
部品1
 48
50.0
100
AcDbLine
 10
7280.097197605105
 20
9358.3109894602
 30
0.0
 11
6830.097197605105
 21
9358.310989460198
 31
0.0
  0
LINE
  5
16083
330
747D
100
AcDbEntity
  8
部品1
100
AcDbLine
 10
7280.097197605112
 20
9358.310989460202
 30
0.0
 11
7280.097197605217
 21
8505.310989460399
 31
0.0
  0
LINE
  5
16084
330
747D
100
AcDbEntity
  8
部品1
100
AcDbLine
 10
7297.097197605086
 20
8518.060989460165
 30
0.0
 11
7285.097197605086
 21
8518.060989460165
 31
0.0
  0
LINE
  5
16086
330
747D
100
AcDbEntity
  8
部品1
100
AcDbLine
 10
7255.097197605083
 20
8504.560989460165
 30
0.0
 11
7255.097197605086
 21
8479.560989460166
 31
0.0
  0
LINE
  5
16087
330
747D
100
AcDbEntity
  8
部品1
100
AcDbLine
 10
7297.097197605086
 20
8466.060989460165
 30
0.0
 11
7285.097197605086
 21
8466.060989460165
 31
0.0
  0
LINE
  5
16089
330
747D
100
AcDbEntity
  8
部品1
100
AcDbLine
 10
7280.097197605222
 20
8470.560989460194
 30
0.0
 11
7280.097197605319
 21
7674.560989460203
 31
0.0
  0
LINE
  5
1608A
330
747D
100
AcDbEntity
  8
部品1
100
AcDbLine
 10
7280.097197605204
 20
7674.560989460188
 30
0.0
 11
6830.097197605207
 21
7674.560989460188
 31
0.0
  0
LINE
  5
1608B
330
747D
100
AcDbEntity
  8
部品1
100
AcDbLine
 10
5910.097197605111
 20
9358.310989460202
 30
0.0
 11
5910.097197605217
 21
8505.310989460399
 31
0.0
  0
LINE
  5
1608C
330
747D
100
AcDbEntity
  8
細線
 48
50.0
100
AcDbLine
 10
5460.097197605315
 20
8505.310989460213
 30
0.0
 11
5543.35299614376
 21
8663.126980912048
 31
0.0
  0
LINE
  5
1608D
330
747D
100
AcDbEntity
  8
部品1
 48
50.0
100
AcDbLine
 10
5910.097197605104
 20
9358.3109894602
 30
0.0
 11
5460.097197605106
 21
9358.310989460198
 31
0.0
  0
LINE
  5
1608E
330
747D
100
AcDbEntity
  8
部品1
100
AcDbLine
 10
5460.097197605108
 20
9358.310989460198
 30
0.0
 11
5460.097197605271
 21
8685.021074170071
 31
0.0
  0
LINE
  5
1608F
330
747D
100
AcDbEntity
  8
細線
 48
50.0
100
AcDbLine
 10
5910.097197605315
 20
8505.310989460213
 30
0.0
 11
5460.097197605108
 21
9358.3109894602
 31
0.0
  0
LINE
  5
16090
330
747D
100
AcDbEntity
  8
部品1
 48
50.0
100
AcDbLine
 10
5915.097197605089
 20
8479.560989460166
 30
0.0
 11
5463.097197605089
 21
8479.560989460166
 31
0.0
  0
LINE
  5
16091
330
747D
100
AcDbEntity
  8
部品1
 48
50.0
100
AcDbLine
 10
5915.097197605093
 20
8504.560989460168
 30
0.0
 11
5463.097197605089
 21
8504.560989460165
 31
0.0
  0
LINE
  5
16092
330
747D
100
AcDbEntity
  8
部品1
100
AcDbLine
 10
5910.097197605202
 20
8505.310989460198
 30
0.0
 11
5460.097197605206
 21
8505.310989460198
 31
0.0
  0
LINE
  5
16093
330
747D
100
AcDbEntity
  8
部品1
 48
50.0
100
AcDbLine
 10
5910.097197605107
 20
8470.560989460192
 30
0.0
 11
5460.097197605112
 21
8470.560989460189
 31
0.0
  0
LINE
  5
16094
330
747D
100
AcDbEntity
  8
部品1
100
AcDbLine
 10
5463.097197605089
 20
8504.560989460165
 30
0.0
 11
5463.097197605089
 21
8479.560989460166
 31
0.0
  0
LINE
  5
16095
330
747D
100
AcDbEntity
  8
部品1
100
AcDbLine
 10
5460.097197605112
 20
8470.560989460187
 30
0.0
 11
5460.097197605314
 21
7694.234734898308
 31
0.0
  0
LINE
  5
16096
330
747D
100
AcDbEntity
  8
細線
 48
50.0
100
AcDbLine
 10
5910.097197605315
 20
7674.560989460203
 30
0.0
 11
5460.097197605112
 21
8470.560989460189
 31
0.0
  0
LINE
  5
16098
330
747D
100
AcDbEntity
  8
部品1
100
AcDbLine
 10
5927.097197605085
 20
8518.060989460165
 30
0.0
 11
5915.097197605086
 21
8518.060989460165
 31
0.0
  0
LINE
  5
16099
330
747D
100
AcDbEntity
  8
部品1
100
AcDbLine
 10
5885.097197605082
 20
8504.560989460165
 30
0.0
 11
5885.097197605086
 21
8479.560989460166
 31
0.0
  0
LINE
  5
1609B
330
747D
100
AcDbEntity
  8
部品1
100
AcDbLine
 10
5927.097197605085
 20
8466.060989460165
 30
0.0
 11
5915.097197605086
 21
8466.060989460165
 31
0.0
  0
LINE
  5
1609C
330
747D
100
AcDbEntity
  8
部品1
100
AcDbLine
 10
5910.097197605222
 20
8470.560989460194
 30
0.0
 11
5910.097197605319
 21
7674.560989460203
 31
0.0
  0
LINE
  5
1609D
330
747D
100
AcDbEntity
  8
細線
 48
50.0
100
AcDbLine
 10
5462.741457556986
 20
7679.238391508042
 30
0.0
 11
5910.097197605111
 21
8470.560989460192
 31
0.0
  0
LINE
  5
1609F
330
747D
100
AcDbEntity
  8
部品1
100
AcDbLine
 10
7285.097197605056
 20
8479.560989460166
 30
0.0
 11
7285.097197605068
 21
7597.060989460063
 31
0.0
  0
LINE
  5
160A0
330
747D
100
AcDbEntity
  8
部品1
100
AcDbLine
 10
5915.097197605055
 20
8479.560989460166
 30
0.0
 11
5915.097197605069
 21
7597.060989460063
 31
0.0
  0
LINE
  5
160A1
330
747D
100
AcDbEntity
  8
部品1
100
AcDbLine
 10
5460.097197605286
 20
8624.304164467744
 30
0.0
 11
5460.097197605315
 21
8505.310989460213
 31
0.0
  0
LINE
  5
160A2
330
747D
100
AcDbEntity
  8
細線
 48
50.0
100
AcDbLine
 10
5550.720534685019
 20
8677.092559524707
 30
0.0
 11
5910.097197605111
 21
9358.310989460202
 31
0.0
  0
LINE
  5
160A5
330
747D
100
AcDbEntity
  8
部品1
100
AcDbLine
 10
4601.097197605084
 20
8912.060989460043
 30
0.0
 11
4573.097197605084
 21
8912.060989460043
 31
0.0
  0
LINE
  5
160A6
330
747D
100
AcDbEntity
  8
部品1
100
AcDbLine
 10
5943.09719760505
 20
8912.060989460075
 30
0.0
 11
5915.097197605049
 21
8912.060989460075
 31
0.0
  0
LINE
  5
160A7
330
747D
100
AcDbEntity
  8
部品1
100
AcDbLine
 10
7313.09719760505
 20
8912.060989460075
 30
0.0
 11
7285.09719760505
 21
8912.060989460075
 31
0.0
  0
LINE
  5
160A8
330
747D
100
AcDbEntity
  8
部品1
100
AcDbLine
 10
8655.097197605112
 20
8912.060989460172
 30
0.0
 11
8683.097197605112
 21
8912.060989460172
 31
0.0
  0
LINE
  5
160A9
330
747D
100
AcDbEntity
  8
破線
 48
10.0
100
AcDbLine
 10
8200.097197605115
 20
8504.560989460097
 30
0.0
 11
7369.597197605087
 21
8504.560989460033
 31
0.0
  0
LINE
  5
160AA
330
747D
100
AcDbEntity
  8
破線
 48
10.0
100
AcDbLine
 10
8200.097197605115
 20
8554.560989460098
 30
0.0
 11
7369.597197605087
 21
8554.560989460034
 31
0.0
  0
LINE
  5
160AB
330
747D
100
AcDbEntity
  8
破線
 48
10.0
100
AcDbLine
 10
7393.097197605088
 20
8504.560989460035
 30
0.0
 11
7393.097197605098
 21
7751.060989460066
 31
0.0
  0
TEXT
  5
1614C
330
747D
100
AcDbEntity
  8
文字
 62
     7
 48
50.0
100
AcDbText
 10
14524.131837222
 20
1031.557706291228
 30
0.0
 40
100.0
  1
NO.02      <縮尺> S=1/40
  7
STYLE2
100
AcDbText
  0
TEXT
  5
1614D
330
747D
100
AcDbEntity
  8
文字
 62
     7
 48
50.0
100
AcDbText
 10
14639.78538849418
 20
879.3493344864453
 30
0.0
 40
100.0
  1
～一般型・多雪地型～
  7
STYLE2
100
AcDbText
  0
TEXT
  5
1614E
330
747D
100
AcDbEntity
  8
文字
 62
     7
 48
50.0
100
AcDbText
 10
13209.4053442172
 20
76.09434707649348
 30
0.0
 40
100.0
  1
○床面積 ： N(連続数)×2.45㎡(0.74坪) 　
  7
STYLE2
100
AcDbText
  0
LINE
  5
1616C
330
747D
100
AcDbEntity
  8
部品1
 48
50.0
100
AcDbLine
 10
13943.28523252764
 20
9761.417650085267
 30
0.0
 11
13943.28523252764
 21
9761.417650085267
 31
0.0
  0
LINE
  5
1616D
330
747D
100
AcDbEntity
  8
部品1
 48
50.0
100
AcDbLine
 10
13943.28523252764
 20
9761.417650085267
 30
0.0
 11
13943.28523252764
 21
9761.417650085267
 31
0.0
  0
LINE
  5
161B7
330
747D
100
AcDbEntity
  8
部品1
 48
50.0
100
AcDbLine
 10
4601.097197605109
 20
9359.060989460074
 30
0.0
 11
4629.597197605078
 21
9330.560989460192
 31
0.0
  0
LINE
  5
161B9
330
747D
100
AcDbEntity
  8
部品1
 48
50.0
100
AcDbLine
 10
5971.097197605077
 20
9359.060989460054
 30
0.0
 11
5999.597197605079
 21
9330.560989460192
 31
0.0
  0
LINE
  5
161BA
330
747D
100
AcDbEntity
  8
部品1
 48
50.0
100
AcDbLine
 10
7341.097197605077
 20
9359.060989460179
 30
0.0
 11
7369.597197605078
 21
9330.560989460192
 31
0.0
  0
LINE
  5
161CD
330
747D
100
AcDbEntity
  8
部品1
100
AcDbLine
 10
6246.361864490875
 20
6542.957103735037
 30
0.0
 11
6246.361864490875
 21
6303.064782189505
 31
0.0
  0
LINE
  5
161CE
330
747D
100
AcDbEntity
  8
部品1
100
AcDbLine
 10
6246.361864490875
 20
6303.064782189505
 30
0.0
 11
7009.832530719314
 21
6303.064782189505
 31
0.0
  0
LINE
  5
161CF
330
747D
100
AcDbEntity
  8
部品1
100
AcDbLine
 10
7009.832530719314
 20
6303.064782189505
 30
0.0
 11
7009.832530719314
 21
6542.957103735037
 31
0.0
  0
LINE
  5
161D0
330
747D
100
AcDbEntity
  8
部品1
100
AcDbLine
 10
7009.832530719314
 20
6542.957103735037
 30
0.0
 11
6246.361864490875
 21
6542.957103735037
 31
0.0
  0
TEXT
  5
167AA
330
747D
100
AcDbEntity
  8
文字
 62
     7
 48
50.0
100
AcDbText
 10
13583.11819016569
 20
9740.013745883729
 30
0.0
 40
100.0
  1
梁中
 41
0.9
  7
STYLE1
100
AcDbText
  0
TEXT
  5
167AB
330
747D
100
AcDbEntity
  8
文字
 62
     7
 48
50.0
100
AcDbText
 10
15022.63965474516
 20
9740.013745883729
 30
0.0
 40
100.0
  1
F12,Y10        1.0
  7
STYLE1
100
AcDbText
  0
TEXT
  5
167AC
330
747D
100
AcDbEntity
  8
文字
 62
     7
 48
50.0
100
AcDbText
 10
13248.77747366448
 20
8720.013745883729
 30
0.0
 40
100.0
  1
15
  7
STYLE1
100
AcDbText
  0
LINE
  5
167AD
330
747D
100
AcDbEntity
  8
仕様書枠
 48
50.0
100
AcDbLine
 10
16307.19999999999
 20
10049.6
 30
0.0
 11
13127.2
 21
10049.6
 31
0.0
  0
LINE
  5
167AE
330
747D
100
AcDbEntity
  8
細線
100
AcDbLine
 10
5161.879189552112
 20
4957.08100186485
 30
0.0
 11
5883.097197605106
 21
4957.081001864848
 31
0.0
  0
LINE
  5
167AF
330
747D
100
AcDbEntity
  8
細線
100
AcDbLine
 10
5231.597197605106
 20
4388.92741579963
 30
0.0
 11
5231.597197605106
 21
4188.899107533632
 31
0.0
  0
LINE
  5
167B0
330
747D
100
AcDbEntity
  8
細線
100
AcDbLine
 10
5301.597197605106
 20
4300.820099787181
 30
0.0
 11
5301.597197605106
 21
4221.540643604482
 31
0.0
  0
LINE
  5
167B1
330
747D
100
AcDbEntity
  8
細線
100
AcDbLine
 10
5371.597197605109
 20
4294.695893340365
 30
0.0
 11
5371.597197605109
 21
4254.182179675333
 31
0.0
  0
LINE
  5
167B2
330
747D
100
AcDbEntity
  8
部品1
100
AcDbLine
 10
5490.097197605106
 20
4276.338299597824
 30
0.0
 11
5490.097197605106
 21
3181.58100186487
 31
0.0
  0
LINE
  5
167B3
330
747D
100
AcDbEntity
  8
細線
100
AcDbLine
 10
5371.597197605106
 20
4221.080842106458
 30
0.0
 11
5371.597197605106
 21
3767.711075547452
 31
0.0
  0
LINE
  5
167B4
330
747D
100
AcDbEntity
  8
細線
100
AcDbLine
 10
5301.597197605106
 20
4188.439306035606
 30
0.0
 11
5301.597197605106
 21
4086.300783074324
 31
0.0
  0
LINE
  5
167B5
330
747D
100
AcDbEntity
  8
細線
100
AcDbLine
 10
5231.597197605106
 20
4155.797769964756
 30
0.0
 11
5231.597197605106
 21
4092.424989521139
 31
0.0
  0
LINE
  5
167B6
330
747D
100
AcDbEntity
  8
部品1
100
AcDbLine
 10
5084.097197605106
 20
4075.214972264912
 30
0.0
 11
5084.097197605109
 21
3174.081001864855
 31
0.0
  0
LINE
  5
167B7
330
747D
100
AcDbEntity
  8
細線
100
AcDbLine
 10
5161.59719760511
 20
4123.156233893908
 30
0.0
 11
5161.59719760511
 21
4098.549195967954
 31
0.0
  0
LINE
  5
167B8
330
747D
100
AcDbEntity
  8
細線
100
AcDbLine
 10
5161.59719760511
 20
4068.434600841655
 30
0.0
 11
5161.597197605106
 21
3181.58100186487
 31
0.0
  0
LINE
  5
167B9
330
747D
100
AcDbEntity
  8
細線
100
AcDbLine
 10
5231.597197605106
 20
4062.31039439484
 30
0.0
 11
5231.597197605106
 21
3181.58100186487
 31
0.0
  0
LINE
  5
167BA
330
747D
100
AcDbEntity
  8
細線
100
AcDbLine
 10
5301.597197605106
 20
3991.937688426391
 30
0.0
 11
5301.597197605106
 21
3181.58100186487
 31
0.0
  0
LINE
  5
167BB
330
747D
100
AcDbEntity
  8
細線
100
AcDbLine
 10
5371.597197605106
 20
3594.947961053147
 30
0.0
 11
5371.597197605106
 21
3181.58100186487
 31
0.0
  0
LINE
  5
167BC
330
747D
100
AcDbEntity
  8
部品1
100
AcDbLine
 10
5474.947743799987
 20
3181.581001864865
 30
0.0
 11
5883.097197605106
 21
3181.581001864869
 31
0.0
  0
LINE
  5
167BD
330
747D
100
AcDbEntity
  8
細線
100
AcDbLine
 10
6318.097197605106
 20
5024.581001864849
 30
0.0
 11
6318.097197605106
 21
5001.581001864848
 31
0.0
  0
LINE
  5
167BE
330
747D
100
AcDbEntity
  8
細線
100
AcDbLine
 10
6392.097197605107
 20
5012.581001864848
 30
0.0
 11
6318.097197605106
 21
5012.581001864848
 31
0.0
  0
LINE
  5
167BF
330
747D
100
AcDbEntity
  8
細線
100
AcDbLine
 10
6392.097197605107
 20
5006.581001864848
 30
0.0
 11
6318.097197605106
 21
5006.581001864848
 31
0.0
  0
LINE
  5
167C0
330
747D
100
AcDbEntity
  8
細線
100
AcDbLine
 10
6392.097197605107
 20
5018.581001864848
 30
0.0
 11
6318.097197605106
 21
5018.581001864848
 31
0.0
  0
LINE
  5
167C1
330
747D
100
AcDbEntity
  8
細線
100
AcDbLine
 10
6244.097197605106
 20
5018.581001864848
 30
0.0
 11
6313.097197605106
 21
5018.581001864848
 31
0.0
  0
LINE
  5
167C2
330
747D
100
AcDbEntity
  8
細線
100
AcDbLine
 10
6244.097197605106
 20
5006.581001864848
 30
0.0
 11
6318.097197605106
 21
5006.581001864848
 31
0.0
  0
LINE
  5
167C3
330
747D
100
AcDbEntity
  8
細線
100
AcDbLine
 10
6244.097197605106
 20
5012.581001864848
 30
0.0
 11
6318.097197605106
 21
5012.581001864848
 31
0.0
  0
LINE
  5
167C4
330
747D
100
AcDbEntity
  8
細線
100
AcDbLine
 10
6244.097197605106
 20
5018.581001864848
 30
0.0
 11
6318.097197605106
 21
5018.581001864848
 31
0.0
  0
LINE
  5
167C5
330
747D
100
AcDbEntity
  8
部品1
 48
0.01
100
AcDbLine
 10
6406.097197605106
 20
5031.081001864848
 30
0.0
 11
6230.097197605106
 21
5031.081001864848
 31
0.0
  0
LINE
  5
167C6
330
747D
100
AcDbEntity
  8
部品1
 48
0.01
100
AcDbLine
 10
6228.097197605106
 20
5029.081001864848
 30
0.0
 11
6228.097197605106
 21
4997.581001864848
 31
0.0
  0
LINE
  5
167C7
330
747D
100
AcDbEntity
  8
部品1
 48
0.01
100
AcDbLine
 10
6230.097197605106
 20
4995.581001864849
 30
0.0
 11
6406.097197605106
 21
4995.581001864849
 31
0.0
  0
LINE
  5
167C8
330
747D
100
AcDbEntity
  8
部品1
 48
0.01
100
AcDbLine
 10
6408.097197605106
 20
4997.581001864848
 30
0.0
 11
6408.097197605106
 21
5029.081001864848
 31
0.0
  0
LINE
  5
167C9
330
747D
100
AcDbEntity
  8
細線
100
AcDbLine
 10
6244.097197605106
 20
5024.581001864849
 30
0.0
 11
6244.097197605106
 21
5001.581001864848
 31
0.0
  0
LINE
  5
167CA
330
747D
100
AcDbEntity
  8
細線
100
AcDbLine
 10
6392.097197605107
 20
5001.581001864848
 30
0.0
 11
6392.097197605107
 21
5024.581001864849
 31
0.0
  0
LINE
  5
167CB
330
747D
100
AcDbEntity
  8
細線
100
AcDbLine
 10
6392.097197605107
 20
5024.581001864849
 30
0.0
 11
6318.097197605106
 21
5024.581001864849
 31
0.0
  0
LINE
  5
167CC
330
747D
100
AcDbEntity
  8
細線
100
AcDbLine
 10
6244.097197605106
 20
5001.581001864848
 30
0.0
 11
6318.097197605106
 21
5001.581001864848
 31
0.0
  0
LINE
  5
167CD
330
747D
100
AcDbEntity
  8
細線
100
AcDbLine
 10
6318.097197605106
 20
5024.581001864849
 30
0.0
 11
6244.097197605106
 21
5024.581001864849
 31
0.0
  0
LINE
  5
167CE
330
747D
100
AcDbEntity
  8
細線
100
AcDbLine
 10
6318.097197605106
 20
5001.581001864848
 30
0.0
 11
6392.097197605107
 21
5001.581001864848
 31
0.0
  0
ARC
  5
167CF
330
747D
100
AcDbEntity
  8
部品1
 48
0.01
100
AcDbCircle
 10
6230.097197605106
 20
5029.081001864848
 30
0.0
 40
2.0
100
AcDbArc
 50
90.0
 51
180.0
  0
ARC
  5
167D0
330
747D
100
AcDbEntity
  8
部品1
 48
0.01
100
AcDbCircle
 10
6230.097197605106
 20
4997.581001864848
 30
0.0
 40
2.0
100
AcDbArc
 50
180.0
 51
270.0
  0
ARC
  5
167D1
330
747D
100
AcDbEntity
  8
部品1
 48
0.01
100
AcDbCircle
 10
6406.097197605106
 20
5029.081001864848
 30
0.0
 40
2.0
100
AcDbArc
 50
0.0
 51
90.0
  0
ARC
  5
167D2
330
747D
100
AcDbEntity
  8
部品1
 48
0.01
100
AcDbCircle
 10
6406.097197605106
 20
4997.581001864848
 30
0.0
 40
2.0
100
AcDbArc
 50
270.0
 51
0.0
  0
ARC
  5
167D3
330
747D
100
AcDbEntity
  8
部品1
 48
0.01
100
AcDbCircle
 10
6850.097197605108
 20
4997.581001864848
 30
0.0
 40
2.0
100
AcDbArc
 50
180.0
 51
270.0
  0
ARC
  5
167D4
330
747D
100
AcDbEntity
  8
部品1
 48
0.01
100
AcDbCircle
 10
6850.097197605108
 20
5029.081001864848
 30
0.0
 40
2.0
100
AcDbArc
 50
90.0
 51
180.0
  0
ARC
  5
167D5
330
747D
100
AcDbEntity
  8
部品1
 48
0.01
100
AcDbCircle
 10
7026.097197605108
 20
4997.581001864848
 30
0.0
 40
2.0
100
AcDbArc
 50
270.0
 51
0.0
  0
ARC
  5
167D6
330
747D
100
AcDbEntity
  8
部品1
 48
0.01
100
AcDbCircle
 10
7026.097197605108
 20
5029.081001864848
 30
0.0
 40
2.0
100
AcDbArc
 50
0.0
 51
90.0
  0
LINE
  5
167D7
330
747D
100
AcDbEntity
  8
細線
100
AcDbLine
 10
6938.097197605109
 20
5001.581001864848
 30
0.0
 11
6864.097197605108
 21
5001.581001864848
 31
0.0
  0
LINE
  5
167D8
330
747D
100
AcDbEntity
  8
細線
100
AcDbLine
 10
6938.097197605109
 20
5024.581001864849
 30
0.0
 11
7012.097197605108
 21
5024.581001864849
 31
0.0
  0
LINE
  5
167D9
330
747D
100
AcDbEntity
  8
細線
100
AcDbLine
 10
7012.097197605108
 20
5001.581001864848
 30
0.0
 11
6938.097197605109
 21
5001.581001864848
 31
0.0
  0
LINE
  5
167DA
330
747D
100
AcDbEntity
  8
細線
100
AcDbLine
 10
6864.097197605108
 20
5024.581001864849
 30
0.0
 11
6938.097197605109
 21
5024.581001864849
 31
0.0
  0
LINE
  5
167DB
330
747D
100
AcDbEntity
  8
細線
100
AcDbLine
 10
6864.097197605108
 20
5001.581001864848
 30
0.0
 11
6864.097197605108
 21
5024.581001864849
 31
0.0
  0
LINE
  5
167DC
330
747D
100
AcDbEntity
  8
細線
100
AcDbLine
 10
7012.097197605108
 20
5024.581001864849
 30
0.0
 11
7012.097197605108
 21
5001.581001864848
 31
0.0
  0
LINE
  5
167DD
330
747D
100
AcDbEntity
  8
部品1
 48
0.01
100
AcDbLine
 10
6848.097197605108
 20
4997.581001864848
 30
0.0
 11
6848.097197605108
 21
5029.081001864848
 31
0.0
  0
LINE
  5
167DE
330
747D
100
AcDbEntity
  8
部品1
 48
0.01
100
AcDbLine
 10
7026.097197605108
 20
4995.581001864849
 30
0.0
 11
6850.097197605108
 21
4995.581001864849
 31
0.0
  0
LINE
  5
167DF
330
747D
100
AcDbEntity
  8
部品1
 48
0.01
100
AcDbLine
 10
7028.097197605108
 20
5029.081001864848
 30
0.0
 11
7028.097197605108
 21
4997.581001864848
 31
0.0
  0
LINE
  5
167E0
330
747D
100
AcDbEntity
  8
部品1
 48
0.01
100
AcDbLine
 10
6850.097197605108
 20
5031.081001864848
 30
0.0
 11
7026.097197605108
 21
5031.081001864848
 31
0.0
  0
LINE
  5
167E1
330
747D
100
AcDbEntity
  8
細線
100
AcDbLine
 10
7012.097197605108
 20
5018.581001864848
 30
0.0
 11
6938.097197605109
 21
5018.581001864848
 31
0.0
  0
LINE
  5
167E2
330
747D
100
AcDbEntity
  8
細線
100
AcDbLine
 10
7012.097197605108
 20
5012.581001864848
 30
0.0
 11
6938.097197605109
 21
5012.581001864848
 31
0.0
  0
LINE
  5
167E3
330
747D
100
AcDbEntity
  8
細線
100
AcDbLine
 10
7012.097197605108
 20
5006.581001864848
 30
0.0
 11
6938.097197605109
 21
5006.581001864848
 31
0.0
  0
LINE
  5
167E4
330
747D
100
AcDbEntity
  8
細線
100
AcDbLine
 10
7012.097197605108
 20
5018.581001864848
 30
0.0
 11
6943.097197605109
 21
5018.581001864848
 31
0.0
  0
LINE
  5
167E5
330
747D
100
AcDbEntity
  8
細線
100
AcDbLine
 10
6864.097197605108
 20
5018.581001864848
 30
0.0
 11
6938.097197605109
 21
5018.581001864848
 31
0.0
  0
LINE
  5
167E6
330
747D
100
AcDbEntity
  8
細線
100
AcDbLine
 10
6864.097197605108
 20
5006.581001864848
 30
0.0
 11
6938.097197605109
 21
5006.581001864848
 31
0.0
  0
LINE
  5
167E7
330
747D
100
AcDbEntity
  8
細線
100
AcDbLine
 10
6864.097197605108
 20
5012.581001864848
 30
0.0
 11
6938.097197605109
 21
5012.581001864848
 31
0.0
  0
LINE
  5
167E8
330
747D
100
AcDbEntity
  8
細線
100
AcDbLine
 10
6938.097197605109
 20
5024.581001864849
 30
0.0
 11
6938.097197605109
 21
5001.581001864848
 31
0.0
  0
LINE
  5
167E9
330
747D
100
AcDbEntity
  8
細線
100
AcDbLine
 10
8308.097197605107
 20
5024.581001864849
 30
0.0
 11
8308.097197605107
 21
5001.581001864848
 31
0.0
  0
LINE
  5
167EA
330
747D
100
AcDbEntity
  8
細線
100
AcDbLine
 10
8234.097197605107
 20
5012.581001864848
 30
0.0
 11
8308.097197605107
 21
5012.581001864848
 31
0.0
  0
LINE
  5
167EB
330
747D
100
AcDbEntity
  8
細線
100
AcDbLine
 10
8234.097197605107
 20
5006.581001864848
 30
0.0
 11
8308.097197605107
 21
5006.581001864848
 31
0.0
  0
LINE
  5
167EC
330
747D
100
AcDbEntity
  8
細線
100
AcDbLine
 10
8234.097197605107
 20
5018.581001864848
 30
0.0
 11
8308.097197605107
 21
5018.581001864848
 31
0.0
  0
LINE
  5
167ED
330
747D
100
AcDbEntity
  8
細線
100
AcDbLine
 10
8382.097197605109
 20
5018.581001864848
 30
0.0
 11
8313.097197605108
 21
5018.581001864848
 31
0.0
  0
LINE
  5
167EE
330
747D
100
AcDbEntity
  8
細線
100
AcDbLine
 10
8382.097197605109
 20
5006.581001864848
 30
0.0
 11
8308.097197605107
 21
5006.581001864848
 31
0.0
  0
LINE
  5
167EF
330
747D
100
AcDbEntity
  8
細線
100
AcDbLine
 10
8382.097197605109
 20
5012.581001864848
 30
0.0
 11
8308.097197605107
 21
5012.581001864848
 31
0.0
  0
LINE
  5
167F0
330
747D
100
AcDbEntity
  8
細線
100
AcDbLine
 10
8382.097197605109
 20
5018.581001864848
 30
0.0
 11
8308.097197605107
 21
5018.581001864848
 31
0.0
  0
LINE
  5
167F1
330
747D
100
AcDbEntity
  8
部品1
 48
0.01
100
AcDbLine
 10
8220.097197605108
 20
5031.081001864848
 30
0.0
 11
8396.097197605108
 21
5031.081001864848
 31
0.0
  0
LINE
  5
167F2
330
747D
100
AcDbEntity
  8
部品1
 48
0.01
100
AcDbLine
 10
8398.097197605109
 20
5029.081001864848
 30
0.0
 11
8398.097197605109
 21
4997.581001864848
 31
0.0
  0
LINE
  5
167F3
330
747D
100
AcDbEntity
  8
部品1
 48
0.01
100
AcDbLine
 10
8396.097197605108
 20
4995.581001864849
 30
0.0
 11
8220.097197605108
 21
4995.581001864849
 31
0.0
  0
LINE
  5
167F4
330
747D
100
AcDbEntity
  8
部品1
 48
0.01
100
AcDbLine
 10
8218.097197605109
 20
4997.581001864848
 30
0.0
 11
8218.097197605109
 21
5029.081001864848
 31
0.0
  0
LINE
  5
167F5
330
747D
100
AcDbEntity
  8
細線
100
AcDbLine
 10
8382.097197605109
 20
5024.581001864849
 30
0.0
 11
8382.097197605109
 21
5001.581001864848
 31
0.0
  0
LINE
  5
167F6
330
747D
100
AcDbEntity
  8
細線
100
AcDbLine
 10
8234.097197605107
 20
5001.581001864848
 30
0.0
 11
8234.097197605107
 21
5024.581001864849
 31
0.0
  0
LINE
  5
167F7
330
747D
100
AcDbEntity
  8
細線
100
AcDbLine
 10
8234.097197605107
 20
5024.581001864849
 30
0.0
 11
8308.097197605107
 21
5024.581001864849
 31
0.0
  0
LINE
  5
167F8
330
747D
100
AcDbEntity
  8
細線
100
AcDbLine
 10
8382.097197605109
 20
5001.581001864848
 30
0.0
 11
8308.097197605107
 21
5001.581001864848
 31
0.0
  0
LINE
  5
167F9
330
747D
100
AcDbEntity
  8
細線
100
AcDbLine
 10
8308.097197605107
 20
5024.581001864849
 30
0.0
 11
8382.097197605109
 21
5024.581001864849
 31
0.0
  0
LINE
  5
167FA
330
747D
100
AcDbEntity
  8
細線
100
AcDbLine
 10
8308.097197605107
 20
5001.581001864848
 30
0.0
 11
8234.097197605107
 21
5001.581001864848
 31
0.0
  0
ARC
  5
167FB
330
747D
100
AcDbEntity
  8
部品1
 48
0.01
100
AcDbCircle
 10
8396.097197605108
 20
5029.081001864848
 30
0.0
 40
2.0
100
AcDbArc
 50
0.0
 51
90.0
  0
ARC
  5
167FC
330
747D
100
AcDbEntity
  8
部品1
 48
0.01
100
AcDbCircle
 10
8396.097197605108
 20
4997.581001864848
 30
0.0
 40
2.0
100
AcDbArc
 50
270.0
 51
0.0
  0
ARC
  5
167FD
330
747D
100
AcDbEntity
  8
部品1
 48
0.01
100
AcDbCircle
 10
8220.097197605108
 20
5029.081001864848
 30
0.0
 40
2.0
100
AcDbArc
 50
90.0
 51
180.0
  0
ARC
  5
167FE
330
747D
100
AcDbEntity
  8
部品1
 48
0.01
100
AcDbCircle
 10
8220.097197605108
 20
4997.581001864848
 30
0.0
 40
2.0
100
AcDbArc
 50
180.0
 51
270.0
  0
ARC
  5
167FF
330
747D
100
AcDbEntity
  8
部品1
 48
0.01
100
AcDbCircle
 10
7776.097197605108
 20
4997.581001864848
 30
0.0
 40
2.0
100
AcDbArc
 50
270.0
 51
0.0
  0
ARC
  5
16800
330
747D
100
AcDbEntity
  8
部品1
 48
0.01
100
AcDbCircle
 10
7776.097197605108
 20
5029.081001864848
 30
0.0
 40
2.0
100
AcDbArc
 50
0.0
 51
90.0
  0
ARC
  5
16801
330
747D
100
AcDbEntity
  8
部品1
 48
0.01
100
AcDbCircle
 10
7600.097197605108
 20
4997.581001864848
 30
0.0
 40
2.0
100
AcDbArc
 50
180.0
 51
270.0
  0
ARC
  5
16802
330
747D
100
AcDbEntity
  8
部品1
 48
0.01
100
AcDbCircle
 10
7600.097197605108
 20
5029.081001864848
 30
0.0
 40
2.0
100
AcDbArc
 50
90.0
 51
180.0
  0
LINE
  5
16803
330
747D
100
AcDbEntity
  8
細線
100
AcDbLine
 10
7688.097197605109
 20
5001.581001864848
 30
0.0
 11
7762.097197605108
 21
5001.581001864848
 31
0.0
  0
LINE
  5
16804
330
747D
100
AcDbEntity
  8
細線
100
AcDbLine
 10
7688.097197605109
 20
5024.581001864849
 30
0.0
 11
7614.097197605108
 21
5024.581001864849
 31
0.0
  0
LINE
  5
16805
330
747D
100
AcDbEntity
  8
細線
100
AcDbLine
 10
7614.097197605108
 20
5001.581001864848
 30
0.0
 11
7688.097197605109
 21
5001.581001864848
 31
0.0
  0
LINE
  5
16806
330
747D
100
AcDbEntity
  8
細線
100
AcDbLine
 10
7762.097197605108
 20
5024.581001864849
 30
0.0
 11
7688.097197605109
 21
5024.581001864849
 31
0.0
  0
LINE
  5
16807
330
747D
100
AcDbEntity
  8
細線
100
AcDbLine
 10
7762.097197605108
 20
5001.581001864848
 30
0.0
 11
7762.097197605108
 21
5024.581001864849
 31
0.0
  0
LINE
  5
16808
330
747D
100
AcDbEntity
  8
細線
100
AcDbLine
 10
7614.097197605108
 20
5024.581001864849
 30
0.0
 11
7614.097197605108
 21
5001.581001864848
 31
0.0
  0
LINE
  5
16809
330
747D
100
AcDbEntity
  8
部品1
 48
0.01
100
AcDbLine
 10
7778.097197605108
 20
4997.581001864848
 30
0.0
 11
7778.097197605108
 21
5029.081001864848
 31
0.0
  0
LINE
  5
1680A
330
747D
100
AcDbEntity
  8
部品1
 48
0.01
100
AcDbLine
 10
7600.097197605108
 20
4995.581001864849
 30
0.0
 11
7776.097197605108
 21
4995.581001864849
 31
0.0
  0
LINE
  5
1680B
330
747D
100
AcDbEntity
  8
部品1
 48
0.01
100
AcDbLine
 10
7598.097197605108
 20
5029.081001864848
 30
0.0
 11
7598.097197605108
 21
4997.581001864848
 31
0.0
  0
LINE
  5
1680C
330
747D
100
AcDbEntity
  8
部品1
 48
0.01
100
AcDbLine
 10
7776.097197605108
 20
5031.081001864848
 30
0.0
 11
7600.097197605108
 21
5031.081001864848
 31
0.0
  0
LINE
  5
1680D
330
747D
100
AcDbEntity
  8
細線
100
AcDbLine
 10
7614.097197605108
 20
5018.581001864848
 30
0.0
 11
7688.097197605109
 21
5018.581001864848
 31
0.0
  0
LINE
  5
1680E
330
747D
100
AcDbEntity
  8
細線
100
AcDbLine
 10
7614.097197605108
 20
5012.581001864848
 30
0.0
 11
7688.097197605109
 21
5012.581001864848
 31
0.0
  0
LINE
  5
1680F
330
747D
100
AcDbEntity
  8
細線
100
AcDbLine
 10
7614.097197605108
 20
5006.581001864848
 30
0.0
 11
7688.097197605109
 21
5006.581001864848
 31
0.0
  0
LINE
  5
16810
330
747D
100
AcDbEntity
  8
細線
100
AcDbLine
 10
7614.097197605108
 20
5018.581001864848
 30
0.0
 11
7683.097197605107
 21
5018.581001864848
 31
0.0
  0
LINE
  5
16811
330
747D
100
AcDbEntity
  8
細線
100
AcDbLine
 10
7762.097197605108
 20
5018.581001864848
 30
0.0
 11
7688.097197605109
 21
5018.581001864848
 31
0.0
  0
LINE
  5
16812
330
747D
100
AcDbEntity
  8
細線
100
AcDbLine
 10
7762.097197605108
 20
5006.581001864848
 30
0.0
 11
7688.097197605109
 21
5006.581001864848
 31
0.0
  0
LINE
  5
16813
330
747D
100
AcDbEntity
  8
細線
100
AcDbLine
 10
7762.097197605108
 20
5012.581001864848
 30
0.0
 11
7688.097197605109
 21
5012.581001864848
 31
0.0
  0
LINE
  5
16814
330
747D
100
AcDbEntity
  8
細線
100
AcDbLine
 10
7688.097197605109
 20
5024.581001864849
 30
0.0
 11
7688.097197605109
 21
5001.581001864848
 31
0.0
  0
LINE
  5
16815
330
747D
100
AcDbEntity
  8
細線
100
AcDbLine
 10
7373.097197605108
 20
4957.081001864851
 30
0.0
 11
8623.097197605108
 21
4957.081001864848
 31
0.0
  0
LINE
  5
16816
330
747D
100
AcDbEntity
  8
部品1
100
AcDbLine
 10
7824.097197605109
 20
3181.581001864861
 30
0.0
 11
8623.097197605108
 21
3181.581001864869
 31
0.0
  0
LINE
  5
16817
330
747D
100
AcDbEntity
  8
部品1
100
AcDbLine
 10
7373.097197605108
 20
3174.081001864852
 30
0.0
 11
7824.09719760511
 21
3174.081001864855
 31
0.0
  0
LINE
  5
16818
330
747D
100
AcDbEntity
  8
細線
100
AcDbLine
 10
7901.597197605108
 20
4957.081001864856
 30
0.0
 11
7901.597197605108
 21
3181.58100186487
 31
0.0
  0
LINE
  5
16819
330
747D
100
AcDbEntity
  8
細線
100
AcDbLine
 10
7971.597197605108
 20
4957.081001864856
 30
0.0
 11
7971.597197605108
 21
3181.58100186487
 31
0.0
  0
LINE
  5
1681A
330
747D
100
AcDbEntity
  8
細線
100
AcDbLine
 10
8041.597197605108
 20
4957.081001864856
 30
0.0
 11
8041.597197605108
 21
3181.58100186487
 31
0.0
  0
LINE
  5
1681B
330
747D
100
AcDbEntity
  8
細線
100
AcDbLine
 10
8111.597197605108
 20
4957.081001864856
 30
0.0
 11
8111.597197605108
 21
3181.58100186487
 31
0.0
  0
LINE
  5
1681C
330
747D
100
AcDbEntity
  8
部品1
100
AcDbLine
 10
8230.097197605108
 20
4957.081001864851
 30
0.0
 11
8230.097197605108
 21
3181.58100186487
 31
0.0
  0
LINE
  5
1681D
330
747D
100
AcDbEntity
  8
細線
100
AcDbLine
 10
7654.09719760511
 20
4957.081001864848
 30
0.0
 11
7654.09719760511
 21
3174.081001864855
 31
0.0
  0
LINE
  5
1681E
330
747D
100
AcDbEntity
  8
細線
100
AcDbLine
 10
7724.09719760511
 20
4957.081001864848
 30
0.0
 11
7724.09719760511
 21
3174.081001864855
 31
0.0
  0
LINE
  5
16838
330
747D
100
AcDbEntity
  8
部品1
 48
50.0
100
AcDbLine
 10
7408.097197605107
 20
4130.581001864859
 30
0.0
 11
7461.097197605107
 21
4130.581001864859
 31
0.0
  0
LINE
  5
1683C
330
747D
100
AcDbEntity
  8
細線
100
AcDbLine
 10
8310.097197605108
 20
4957.081001864851
 30
0.0
 11
8310.097197605108
 21
3181.58100186487
 31
0.0
  0
LINE
  5
1683D
330
747D
100
AcDbEntity
  8
細線
100
AcDbLine
 10
8380.097197605108
 20
4957.081001864851
 30
0.0
 11
8380.097197605108
 21
3181.58100186487
 31
0.0
  0
LINE
  5
1683E
330
747D
100
AcDbEntity
  8
細線
100
AcDbLine
 10
8450.097197605108
 20
4957.081001864851
 30
0.0
 11
8450.097197605108
 21
3181.58100186487
 31
0.0
  0
LINE
  5
1683F
330
747D
100
AcDbEntity
  8
細線
100
AcDbLine
 10
8520.097197605108
 20
4957.081001864851
 30
0.0
 11
8520.097197605108
 21
3181.58100186487
 31
0.0
  0
LINE
  5
16840
330
747D
100
AcDbEntity
  8
細線
100
AcDbLine
 10
7492.097197605108
 20
4957.081001864851
 30
0.0
 11
7492.097197605109
 21
3174.081001864854
 31
0.0
  0
LINE
  5
16841
330
747D
100
AcDbEntity
  8
細線
100
AcDbLine
 10
7526.097197605108
 20
4957.081001864851
 30
0.0
 11
7526.09719760511
 21
3174.081001864854
 31
0.0
  0
LINE
  5
16842
330
747D
100
AcDbEntity
  8
部品1
100
AcDbLine
 10
7484.097197605108
 20
4957.081001864851
 30
0.0
 11
7484.097197605109
 21
3174.081001864854
 31
0.0
  0
LINE
  5
16843
330
747D
100
AcDbEntity
  8
部品1
100
AcDbLine
 10
7534.097197605108
 20
4957.081001864851
 30
0.0
 11
7534.09719760511
 21
3174.081001864854
 31
0.0
  0
LINE
  5
16844
330
747D
100
AcDbEntity
  8
部品1
100
AcDbLine
 10
7824.09719760511
 20
4957.081001864848
 30
0.0
 11
7824.09719760511
 21
3174.081001864855
 31
0.0
  0
LINE
  5
16845
330
747D
100
AcDbEntity
  8
細線
100
AcDbLine
 10
6003.097197605106
 20
4957.081001864851
 30
0.0
 11
7253.097197605107
 21
4957.081001864848
 31
0.0
  0
LINE
  5
16846
330
747D
100
AcDbEntity
  8
部品1
100
AcDbLine
 10
6003.097197605106
 20
3174.081001864852
 30
0.0
 11
6454.09719760511
 21
3174.081001864855
 31
0.0
  0
LINE
  5
16847
330
747D
100
AcDbEntity
  8
部品1
100
AcDbLine
 10
6454.097197605105
 20
3181.581001864861
 30
0.0
 11
7253.097197605107
 21
3181.581001864869
 31
0.0
  0
LINE
  5
16848
330
747D
100
AcDbEntity
  8
細線
100
AcDbLine
 10
6531.597197605106
 20
4957.081001864856
 30
0.0
 11
6531.597197605106
 21
3181.58100186487
 31
0.0
  0
LINE
  5
16849
330
747D
100
AcDbEntity
  8
細線
100
AcDbLine
 10
6601.597197605108
 20
4957.081001864856
 30
0.0
 11
6601.597197605108
 21
3181.58100186487
 31
0.0
  0
LINE
  5
1684A
330
747D
100
AcDbEntity
  8
細線
100
AcDbLine
 10
6671.597197605108
 20
4957.081001864856
 30
0.0
 11
6671.597197605108
 21
3181.58100186487
 31
0.0
  0
LINE
  5
1684B
330
747D
100
AcDbEntity
  8
細線
100
AcDbLine
 10
6741.597197605108
 20
4957.081001864856
 30
0.0
 11
6741.597197605108
 21
3181.58100186487
 31
0.0
  0
LINE
  5
1684C
330
747D
100
AcDbEntity
  8
部品1
100
AcDbLine
 10
6860.097197605108
 20
4957.081001864851
 30
0.0
 11
6860.097197605108
 21
3181.58100186487
 31
0.0
  0
LINE
  5
1684D
330
747D
100
AcDbEntity
  8
細線
100
AcDbLine
 10
6284.09719760511
 20
4957.081001864848
 30
0.0
 11
6284.09719760511
 21
3174.081001864855
 31
0.0
  0
LINE
  5
1684E
330
747D
100
AcDbEntity
  8
細線
100
AcDbLine
 10
6354.09719760511
 20
4957.081001864848
 30
0.0
 11
6354.09719760511
 21
3174.081001864855
 31
0.0
  0
LINE
  5
16868
330
747D
100
AcDbEntity
  8
部品1
 48
50.0
100
AcDbLine
 10
6038.097197605106
 20
4130.581001864859
 30
0.0
 11
6091.097197605106
 21
4130.581001864859
 31
0.0
  0
LINE
  5
1686C
330
747D
100
AcDbEntity
  8
細線
100
AcDbLine
 10
6940.097197605108
 20
4957.081001864851
 30
0.0
 11
6940.097197605108
 21
3181.58100186487
 31
0.0
  0
LINE
  5
1686D
330
747D
100
AcDbEntity
  8
細線
100
AcDbLine
 10
7010.097197605109
 20
4957.081001864851
 30
0.0
 11
7010.097197605109
 21
3181.58100186487
 31
0.0
  0
LINE
  5
1686E
330
747D
100
AcDbEntity
  8
細線
100
AcDbLine
 10
7080.097197605107
 20
4957.081001864851
 30
0.0
 11
7080.097197605107
 21
3181.58100186487
 31
0.0
  0
LINE
  5
1686F
330
747D
100
AcDbEntity
  8
細線
100
AcDbLine
 10
7150.097197605107
 20
4957.081001864851
 30
0.0
 11
7150.097197605107
 21
3181.58100186487
 31
0.0
  0
LINE
  5
16870
330
747D
100
AcDbEntity
  8
細線
100
AcDbLine
 10
6122.097197605106
 20
4957.081001864851
 30
0.0
 11
6122.09719760511
 21
3174.081001864854
 31
0.0
  0
LINE
  5
16871
330
747D
100
AcDbEntity
  8
細線
100
AcDbLine
 10
6156.097197605106
 20
4957.081001864851
 30
0.0
 11
6156.097197605109
 21
3174.081001864854
 31
0.0
  0
LINE
  5
16872
330
747D
100
AcDbEntity
  8
部品1
100
AcDbLine
 10
6114.097197605106
 20
4957.081001864851
 30
0.0
 11
6114.09719760511
 21
3174.081001864854
 31
0.0
  0
LINE
  5
16873
330
747D
100
AcDbEntity
  8
部品1
100
AcDbLine
 10
6164.097197605106
 20
4957.081001864851
 30
0.0
 11
6164.097197605109
 21
3174.081001864854
 31
0.0
  0
LINE
  5
16874
330
747D
100
AcDbEntity
  8
部品1
100
AcDbLine
 10
6454.09719760511
 20
4957.081001864848
 30
0.0
 11
6454.09719760511
 21
3174.081001864855
 31
0.0
  0
LINE
  5
16875
330
747D
100
AcDbEntity
  8
細線
100
AcDbLine
 10
5568.097197605106
 20
5024.581001864849
 30
0.0
 11
5568.097197605106
 21
5001.581001864848
 31
0.0
  0
LINE
  5
16876
330
747D
100
AcDbEntity
  8
細線
100
AcDbLine
 10
5494.097197605106
 20
5012.581001864848
 30
0.0
 11
5568.097197605106
 21
5012.581001864848
 31
0.0
  0
LINE
  5
16877
330
747D
100
AcDbEntity
  8
細線
100
AcDbLine
 10
5494.097197605106
 20
5006.581001864848
 30
0.0
 11
5568.097197605106
 21
5006.581001864848
 31
0.0
  0
LINE
  5
16878
330
747D
100
AcDbEntity
  8
細線
100
AcDbLine
 10
5494.097197605106
 20
5018.581001864848
 30
0.0
 11
5568.097197605106
 21
5018.581001864848
 31
0.0
  0
LINE
  5
16879
330
747D
100
AcDbEntity
  8
細線
100
AcDbLine
 10
5642.097197605107
 20
5018.581001864848
 30
0.0
 11
5573.097197605106
 21
5018.581001864848
 31
0.0
  0
LINE
  5
1687A
330
747D
100
AcDbEntity
  8
細線
100
AcDbLine
 10
5642.097197605107
 20
5006.581001864848
 30
0.0
 11
5568.097197605106
 21
5006.581001864848
 31
0.0
  0
LINE
  5
1687B
330
747D
100
AcDbEntity
  8
細線
100
AcDbLine
 10
5642.097197605107
 20
5012.581001864848
 30
0.0
 11
5568.097197605106
 21
5012.581001864848
 31
0.0
  0
LINE
  5
1687C
330
747D
100
AcDbEntity
  8
細線
100
AcDbLine
 10
5642.097197605107
 20
5018.581001864848
 30
0.0
 11
5568.097197605106
 21
5018.581001864848
 31
0.0
  0
LINE
  5
1687D
330
747D
100
AcDbEntity
  8
部品1
 48
0.01
100
AcDbLine
 10
5480.097197605106
 20
5031.081001864848
 30
0.0
 11
5656.097197605106
 21
5031.081001864848
 31
0.0
  0
LINE
  5
1687E
330
747D
100
AcDbEntity
  8
部品1
 48
0.01
100
AcDbLine
 10
5658.097197605106
 20
5029.081001864848
 30
0.0
 11
5658.097197605106
 21
4997.581001864848
 31
0.0
  0
LINE
  5
1687F
330
747D
100
AcDbEntity
  8
部品1
 48
0.01
100
AcDbLine
 10
5656.097197605106
 20
4995.581001864849
 30
0.0
 11
5480.097197605106
 21
4995.581001864849
 31
0.0
  0
LINE
  5
16880
330
747D
100
AcDbEntity
  8
部品1
 48
0.01
100
AcDbLine
 10
5478.097197605106
 20
4997.581001864848
 30
0.0
 11
5478.097197605106
 21
5029.081001864848
 31
0.0
  0
LINE
  5
16881
330
747D
100
AcDbEntity
  8
細線
100
AcDbLine
 10
5642.097197605107
 20
5024.581001864849
 30
0.0
 11
5642.097197605107
 21
5001.581001864848
 31
0.0
  0
LINE
  5
16882
330
747D
100
AcDbEntity
  8
細線
100
AcDbLine
 10
5494.097197605106
 20
5001.581001864848
 30
0.0
 11
5494.097197605106
 21
5024.581001864849
 31
0.0
  0
LINE
  5
16883
330
747D
100
AcDbEntity
  8
細線
100
AcDbLine
 10
5494.097197605106
 20
5024.581001864849
 30
0.0
 11
5568.097197605106
 21
5024.581001864849
 31
0.0
  0
LINE
  5
16884
330
747D
100
AcDbEntity
  8
細線
100
AcDbLine
 10
5642.097197605107
 20
5001.581001864848
 30
0.0
 11
5568.097197605106
 21
5001.581001864848
 31
0.0
  0
LINE
  5
16885
330
747D
100
AcDbEntity
  8
細線
100
AcDbLine
 10
5568.097197605106
 20
5024.581001864849
 30
0.0
 11
5642.097197605107
 21
5024.581001864849
 31
0.0
  0
LINE
  5
16886
330
747D
100
AcDbEntity
  8
細線
100
AcDbLine
 10
5568.097197605106
 20
5001.581001864848
 30
0.0
 11
5494.097197605106
 21
5001.581001864848
 31
0.0
  0
ARC
  5
16887
330
747D
100
AcDbEntity
  8
部品1
 48
0.01
100
AcDbCircle
 10
5656.097197605106
 20
5029.081001864848
 30
0.0
 40
2.0
100
AcDbArc
 50
0.0
 51
90.0
  0
ARC
  5
16888
330
747D
100
AcDbEntity
  8
部品1
 48
0.01
100
AcDbCircle
 10
5656.097197605106
 20
4997.581001864848
 30
0.0
 40
2.0
100
AcDbArc
 50
270.0
 51
0.0
  0
ARC
  5
16889
330
747D
100
AcDbEntity
  8
部品1
 48
0.01
100
AcDbCircle
 10
5480.097197605106
 20
5029.081001864848
 30
0.0
 40
2.0
100
AcDbArc
 50
90.0
 51
180.0
  0
ARC
  5
1688A
330
747D
100
AcDbEntity
  8
部品1
 48
0.01
100
AcDbCircle
 10
5480.097197605106
 20
4997.581001864848
 30
0.0
 40
2.0
100
AcDbArc
 50
180.0
 51
270.0
  0
ARC
  5
1688B
330
747D
100
AcDbEntity
  8
部品1
 48
0.01
100
AcDbCircle
 10
5036.097197605106
 20
4997.581001864848
 30
0.0
 40
2.0
100
AcDbArc
 50
270.0
 51
0.0
  0
ARC
  5
1688C
330
747D
100
AcDbEntity
  8
部品1
 48
0.01
100
AcDbCircle
 10
5036.097197605106
 20
5029.081001864848
 30
0.0
 40
2.0
100
AcDbArc
 50
0.0
 51
90.0
  0
ARC
  5
1688D
330
747D
100
AcDbEntity
  8
部品1
 48
0.01
100
AcDbCircle
 10
4860.097197605107
 20
4997.581001864848
 30
0.0
 40
2.0
100
AcDbArc
 50
180.0
 51
270.0
  0
ARC
  5
1688E
330
747D
100
AcDbEntity
  8
部品1
 48
0.01
100
AcDbCircle
 10
4860.097197605107
 20
5029.081001864848
 30
0.0
 40
2.0
100
AcDbArc
 50
90.0
 51
180.0
  0
LINE
  5
1688F
330
747D
100
AcDbEntity
  8
細線
100
AcDbLine
 10
4948.097197605106
 20
5001.581001864848
 30
0.0
 11
5022.097197605106
 21
5001.581001864848
 31
0.0
  0
LINE
  5
16890
330
747D
100
AcDbEntity
  8
細線
100
AcDbLine
 10
4948.097197605106
 20
5024.581001864849
 30
0.0
 11
4874.097197605106
 21
5024.581001864849
 31
0.0
  0
LINE
  5
16891
330
747D
100
AcDbEntity
  8
細線
100
AcDbLine
 10
4874.097197605106
 20
5001.581001864848
 30
0.0
 11
4948.097197605106
 21
5001.581001864848
 31
0.0
  0
LINE
  5
16892
330
747D
100
AcDbEntity
  8
細線
100
AcDbLine
 10
5022.097197605106
 20
5024.581001864849
 30
0.0
 11
4948.097197605106
 21
5024.581001864849
 31
0.0
  0
LINE
  5
16893
330
747D
100
AcDbEntity
  8
細線
100
AcDbLine
 10
5022.097197605106
 20
5001.581001864848
 30
0.0
 11
5022.097197605106
 21
5024.581001864849
 31
0.0
  0
LINE
  5
16894
330
747D
100
AcDbEntity
  8
細線
100
AcDbLine
 10
4874.097197605106
 20
5024.581001864849
 30
0.0
 11
4874.097197605106
 21
5001.581001864848
 31
0.0
  0
LINE
  5
16895
330
747D
100
AcDbEntity
  8
部品1
 48
0.01
100
AcDbLine
 10
5038.097197605106
 20
4997.581001864848
 30
0.0
 11
5038.097197605106
 21
5029.081001864848
 31
0.0
  0
LINE
  5
16896
330
747D
100
AcDbEntity
  8
部品1
 48
0.01
100
AcDbLine
 10
4860.097197605107
 20
4995.581001864849
 30
0.0
 11
5036.097197605106
 21
4995.581001864849
 31
0.0
  0
LINE
  5
16897
330
747D
100
AcDbEntity
  8
部品1
 48
0.01
100
AcDbLine
 10
4858.097197605106
 20
5029.081001864848
 30
0.0
 11
4858.097197605106
 21
4997.581001864848
 31
0.0
  0
LINE
  5
16898
330
747D
100
AcDbEntity
  8
部品1
 48
0.01
100
AcDbLine
 10
5036.097197605106
 20
5031.081001864848
 30
0.0
 11
4860.097197605107
 21
5031.081001864848
 31
0.0
  0
LINE
  5
16899
330
747D
100
AcDbEntity
  8
細線
100
AcDbLine
 10
4874.097197605106
 20
5018.581001864848
 30
0.0
 11
4948.097197605106
 21
5018.581001864848
 31
0.0
  0
LINE
  5
1689A
330
747D
100
AcDbEntity
  8
細線
100
AcDbLine
 10
4874.097197605106
 20
5012.581001864848
 30
0.0
 11
4948.097197605106
 21
5012.581001864848
 31
0.0
  0
LINE
  5
1689B
330
747D
100
AcDbEntity
  8
細線
100
AcDbLine
 10
4874.097197605106
 20
5006.581001864848
 30
0.0
 11
4948.097197605106
 21
5006.581001864848
 31
0.0
  0
LINE
  5
1689C
330
747D
100
AcDbEntity
  8
細線
100
AcDbLine
 10
4874.097197605106
 20
5018.581001864848
 30
0.0
 11
4943.097197605106
 21
5018.581001864848
 31
0.0
  0
LINE
  5
1689D
330
747D
100
AcDbEntity
  8
細線
100
AcDbLine
 10
5022.097197605106
 20
5018.581001864848
 30
0.0
 11
4948.097197605106
 21
5018.581001864848
 31
0.0
  0
LINE
  5
1689E
330
747D
100
AcDbEntity
  8
細線
100
AcDbLine
 10
5022.097197605106
 20
5006.581001864848
 30
0.0
 11
4948.097197605106
 21
5006.581001864848
 31
0.0
  0
LINE
  5
1689F
330
747D
100
AcDbEntity
  8
細線
100
AcDbLine
 10
5022.097197605106
 20
5012.581001864848
 30
0.0
 11
4948.097197605106
 21
5012.581001864848
 31
0.0
  0
LINE
  5
168A0
330
747D
100
AcDbEntity
  8
細線
100
AcDbLine
 10
4948.097197605106
 20
5024.581001864849
 30
0.0
 11
4948.097197605106
 21
5001.581001864848
 31
0.0
  0
LINE
  5
168A1
330
747D
100
AcDbEntity
  8
部品1
100
AcDbLine
 10
4633.097197605105
 20
3174.081001864852
 30
0.0
 11
5084.097197605109
 21
3174.081001864855
 31
0.0
  0
LINE
  5
168A2
330
747D
100
AcDbEntity
  8
部品1
100
AcDbLine
 10
5084.097197605106
 20
3181.581001864861
 30
0.0
 11
5444.484945443416
 21
3181.581001864865
 31
0.0
  0
LINE
  5
168A3
330
747D
100
AcDbEntity
  8
細線
100
AcDbLine
 10
4633.097197605105
 20
4957.081001864851
 30
0.0
 11
5131.416391195542
 21
4957.081001864851
 31
0.0
  0
LINE
  5
168A4
330
747D
100
AcDbEntity
  8
細線
100
AcDbLine
 10
5161.59719760511
 20
4785.917143172868
 30
0.0
 11
5161.59719760511
 21
4156.257571462783
 31
0.0
  0
LINE
  5
168A5
330
747D
100
AcDbEntity
  8
細線
100
AcDbLine
 10
5231.597197605106
 20
4957.081001864856
 30
0.0
 11
5231.597197605106
 21
4561.690530293939
 31
0.0
  0
LINE
  5
168A6
330
747D
100
AcDbEntity
  8
細線
100
AcDbLine
 10
5301.597197605106
 20
4957.081001864856
 30
0.0
 11
5301.597197605106
 21
4330.934694913479
 31
0.0
  0
LINE
  5
168A7
330
747D
100
AcDbEntity
  8
細線
100
AcDbLine
 10
5371.597197605106
 20
4957.081001864856
 30
0.0
 11
5371.597197605109
 21
4324.810488466664
 31
0.0
  0
LINE
  5
168A8
330
747D
100
AcDbEntity
  8
部品1
100
AcDbLine
 10
5490.097197605106
 20
4957.081001864851
 30
0.0
 11
5490.097197605106
 21
4314.443081838843
 31
0.0
  0
LINE
  5
168A9
330
747D
100
AcDbEntity
  8
細線
100
AcDbLine
 10
4914.097197605109
 20
4957.081001864848
 30
0.0
 11
4914.097197605109
 21
3174.081001864855
 31
0.0
  0
LINE
  5
168AA
330
747D
100
AcDbEntity
  8
細線
100
AcDbLine
 10
4984.097197605109
 20
4957.081001864848
 30
0.0
 11
4984.097197605109
 21
3174.081001864855
 31
0.0
  0
LINE
  5
168C4
330
747D
100
AcDbEntity
  8
部品1
 48
50.0
100
AcDbLine
 10
4668.097197605105
 20
4130.581001864859
 30
0.0
 11
4721.097197605106
 21
4130.581001864859
 31
0.0
  0
LINE
  5
168C8
330
747D
100
AcDbEntity
  8
細線
100
AcDbLine
 10
5570.097197605106
 20
4957.081001864851
 30
0.0
 11
5570.097197605106
 21
3181.58100186487
 31
0.0
  0
LINE
  5
168C9
330
747D
100
AcDbEntity
  8
細線
100
AcDbLine
 10
5640.097197605106
 20
4957.081001864851
 30
0.0
 11
5640.097197605106
 21
3181.58100186487
 31
0.0
  0
LINE
  5
168CA
330
747D
100
AcDbEntity
  8
細線
100
AcDbLine
 10
5710.097197605106
 20
4957.081001864851
 30
0.0
 11
5710.097197605106
 21
3181.58100186487
 31
0.0
  0
LINE
  5
168CB
330
747D
100
AcDbEntity
  8
細線
100
AcDbLine
 10
5780.097197605106
 20
4957.081001864851
 30
0.0
 11
5780.097197605106
 21
3181.58100186487
 31
0.0
  0
LINE
  5
168CC
330
747D
100
AcDbEntity
  8
細線
100
AcDbLine
 10
4752.097197605105
 20
4957.081001864851
 30
0.0
 11
4752.097197605109
 21
3174.081001864854
 31
0.0
  0
LINE
  5
168CD
330
747D
100
AcDbEntity
  8
細線
100
AcDbLine
 10
4786.097197605106
 20
4957.081001864851
 30
0.0
 11
4786.097197605109
 21
3174.081001864854
 31
0.0
  0
LINE
  5
168CE
330
747D
100
AcDbEntity
  8
部品1
100
AcDbLine
 10
4744.097197605106
 20
4957.081001864851
 30
0.0
 11
4744.09719760511
 21
3174.081001864854
 31
0.0
  0
LINE
  5
168CF
330
747D
100
AcDbEntity
  8
部品1
100
AcDbLine
 10
4794.097197605106
 20
4957.081001864851
 30
0.0
 11
4794.097197605109
 21
3174.081001864854
 31
0.0
  0
LINE
  5
168D0
330
747D
100
AcDbEntity
  8
部品1
100
AcDbLine
 10
5084.097197605109
 20
4957.081001864848
 30
0.0
 11
5084.097197605109
 21
4120.118727955771
 31
0.0
  0
LINE
  5
168D1
330
747D
100
AcDbEntity
  8
部品1
 48
50.0
100
AcDbLine
 10
5113.431039163277
 20
5059.081001864852
 30
0.0
 11
4543.720942172568
 21
5059.081001864852
 31
0.0
  0
LINE
  5
168D2
330
747D
100
AcDbEntity
  8
細線
 48
50.0
100
AcDbLine
 10
5109.768156022454
 20
5079.854244428782
 30
0.0
 11
4533.491879140352
 21
5079.854244428851
 31
0.0
  0
LINE
  5
168D3
330
747D
100
AcDbEntity
  8
部品1
 48
50.0
100
AcDbLine
 10
5088.568934883382
 20
5200.08100186485
 30
0.0
 11
4530.505618711532
 21
5200.081001864852
 31
0.0
  0
LINE
  5
168D4
330
747D
100
AcDbEntity
  8
細線
 48
50.0
100
AcDbLine
 10
5093.510808401135
 20
5172.054244428782
 30
0.0
 11
4525.255848615523
 21
5172.054244428851
 31
0.0
  0
LINE
  5
168D5
330
747D
100
AcDbEntity
  8
部品1
100
AcDbLine
 10
8728.3431494607
 20
5169.250941319953
 30
0.0
 11
8723.308108732588
 21
5080.50834848701
 31
0.0
  0
ARC
  5
168D6
330
747D
100
AcDbEntity
  8
部品1
100
AcDbCircle
 10
8725.688776498678
 20
5193.08100186485
 30
0.0
 40
7.0
100
AcDbArc
 50
356.7526572096623
 51
90.0
  0
LINE
  5
168D7
330
747D
100
AcDbEntity
  8
細線
 48
50.0
100
AcDbLine
 10
8700.097197605112
 20
5200.08100186485
 30
0.0
 11
8700.097197605112
 21
5059.08100186485
 31
0.0
  0
LINE
  5
168D8
330
747D
100
AcDbEntity
  8
部品1
100
AcDbLine
 10
8720.107118935855
 20
5077.050941319953
 30
0.0
 11
8719.462213128743
 21
5065.684476469613
 31
0.0
  0
ARC
  5
168D9
330
747D
100
AcDbEntity
  8
部品1
 48
50.0
100
AcDbCircle
 10
8723.102301832041
 20
5076.881001864849
 30
0.0
 40
3.0
100
AcDbArc
 50
97.65812720715516
 51
176.7526572096623
  0
ARC
  5
168DA
330
747D
100
AcDbEntity
  8
部品1
 48
50.0
100
AcDbCircle
 10
8722.609232723481
 20
5080.548001026532
 30
0.0
 40
0.7
100
AcDbArc
 50
277.6581272075753
 51
356.7526572097143
  0
ARC
  5
168DB
330
747D
100
AcDbEntity
  8
部品1
100
AcDbCircle
 10
8712.473453037643
 20
5066.081001864851
 30
0.0
 40
7.0
100
AcDbArc
 50
270.0
 51
356.7526572096623
  0
LINE
  5
168DC
330
747D
100
AcDbEntity
  8
部品1
100
AcDbLine
 10
8732.677536589777
 20
5192.684476469611
 30
0.0
 11
8731.544139257433
 21
5172.70834848701
 31
0.0
  0
ARC
  5
168DD
330
747D
100
AcDbEntity
  8
部品1
 48
50.0
100
AcDbCircle
 10
8731.338332356886
 20
5169.081001864852
 30
0.0
 40
3.0
100
AcDbArc
 50
97.65812720715516
 51
176.7526572096623
  0
ARC
  5
168DE
330
747D
100
AcDbEntity
  8
部品1
 48
50.0
100
AcDbCircle
 10
8730.845263248324
 20
5172.748001026537
 30
0.0
 40
0.7
100
AcDbArc
 50
277.6581272075753
 51
356.7526572096103
  0
DIMENSION
  5
168DF
330
747D
100
AcDbEntity
  8
寸法
 48
50.0
100
AcDbDimension
  2
*D17
 10
8683.097197605112
 20
5412.622587123091
 30
0.0
 11
9046.582478979347
 21
5412.622587123091
 31
0.0
 70
   160
 71
     5
 42
50.0
  3
INABA_S40G
100
AcDbAlignedDimension
 13
8733.097197605111
 23
5200.08100186485
 33
0.0
 14
8683.097197605112
 24
5200.081001864852
 34
0.0
100
AcDbRotatedDimension
  0
LINE
  5
168E0
330
747D
100
AcDbEntity
  8
部品1
 48
50.0
100
AcDbLine
 10
8712.473453037643
 20
5059.081001864845
 30
0.0
 11
5143.893837519847
 21
5059.081001864852
 31
0.0
  0
LINE
  5
168E1
330
747D
100
AcDbEntity
  8
細線
 48
50.0
100
AcDbLine
 10
8722.702516068649
 20
5079.854244428355
 30
0.0
 11
5140.230954379028
 21
5079.854244428777
 31
0.0
  0
LINE
  5
168E2
330
747D
100
AcDbEntity
  8
細線
 48
50.0
100
AcDbLine
 10
8730.938546593426
 20
5172.054244428351
 30
0.0
 11
5123.973606757709
 21
5172.05424442878
 31
0.0
  0
LINE
  5
168E3
330
747D
100
AcDbEntity
  8
部品1
 48
50.0
100
AcDbLine
 10
8725.688776498678
 20
5200.081001864852
 30
0.0
 11
5119.031733239956
 21
5200.081001864852
 31
0.0
  0
DIMENSION
  5
168E4
330
747D
100
AcDbEntity
  8
寸法
 48
50.0
100
AcDbDimension
  2
*D18
 10
4573.097197605106
 20
5412.622587123094
 30
0.0
 11
6628.097197605109
 21
5412.622587123094
 31
0.0
 70
   160
  1
柱外寸法 N x 1370
 71
     5
 42
4110.000000000005
  3
INABA_S40G
100
AcDbAlignedDimension
 13
8683.097197605112
 23
5200.081001864852
 33
0.0
 14
4573.097197605106
 24
5200.081001864857
 34
0.0
100
AcDbRotatedDimension
  0
DIMENSION
  5
168E5
330
747D
100
AcDbEntity
  8
寸法
 48
50.0
100
AcDbDimension
  2
*D19
 10
8733.097197605111
 20
5635.579565560943
 30
0.0
 11
6628.097197605109
 21
5635.579565560943
 31
0.0
 70
   160
  1
N x 1370 +100
 71
     5
 42
4210.000000000006
  3
INABA_S40G
100
AcDbAlignedDimension
 13
4523.097197605106
 23
5200.081001864855
 33
0.0
 14
8733.097197605111
 24
5200.08100186485
 34
0.0
100
AcDbRotatedDimension
  0
DIMENSION
  5
168E6
330
747D
100
AcDbEntity
  8
寸法
 48
50.0
100
AcDbDimension
  2
*D20
 10
4523.097197605106
 20
5412.622587123094
 30
0.0
 11
4209.611916230858
 21
5412.622587123094
 31
0.0
 70
   160
 71
     5
 42
50.0
  3
INABA_S40G
100
AcDbAlignedDimension
 13
4573.097197605106
 23
5200.081001864857
 33
0.0
 14
4523.097197605106
 24
5200.081001864855
 34
0.0
100
AcDbRotatedDimension
1001
ACAD
1000
DSTYLE
1002
{
1002
}
  0
LINE
  5
168E7
330
747D
100
AcDbEntity
  8
部品1
100
AcDbLine
 10
4523.516858620436
 20
5192.684476469614
 30
0.0
 11
4524.650255952785
 21
5172.708348487017
 31
0.0
  0
LINE
  5
168E8
330
747D
100
AcDbEntity
  8
部品1
100
AcDbLine
 10
4536.087276274358
 20
5077.050941319958
 30
0.0
 11
4536.732182081474
 21
5065.684476469614
 31
0.0
  0
LINE
  5
168E9
330
747D
100
AcDbEntity
  8
部品1
100
AcDbLine
 10
4527.851245749515
 20
5169.250941319958
 30
0.0
 11
4532.886286477622
 21
5080.508348487016
 31
0.0
  0
ARC
  5
168EA
330
747D
100
AcDbEntity
  8
部品1
 48
50.0
100
AcDbCircle
 10
4524.856062853329
 20
5169.081001864856
 30
0.0
 40
3.0
100
AcDbArc
 50
3.247342790337682
 51
82.34187279284483
  0
ARC
  5
168EB
330
747D
100
AcDbEntity
  8
部品1
 48
50.0
100
AcDbCircle
 10
4533.092093378172
 20
5076.881001864855
 30
0.0
 40
3.0
100
AcDbArc
 50
3.247342790337682
 51
82.34187279284483
  0
ARC
  5
168EC
330
747D
100
AcDbEntity
  8
部品1
 48
50.0
100
AcDbCircle
 10
4533.585162486733
 20
5080.548001026539
 30
0.0
 40
0.7
100
AcDbArc
 50
183.2473427902856
 51
262.3418727924247
  0
ARC
  5
168ED
330
747D
100
AcDbEntity
  8
部品1
 48
50.0
100
AcDbCircle
 10
4525.349131961897
 20
5172.748001026542
 30
0.0
 40
0.7
100
AcDbArc
 50
183.2473427903897
 51
262.3418727924247
  0
ARC
  5
168EE
330
747D
100
AcDbEntity
  8
部品1
100
AcDbCircle
 10
4543.720942172568
 20
5066.081001864855
 30
0.0
 40
7.0
100
AcDbArc
 50
183.2473427903377
 51
270.0
  0
ARC
  5
168EF
330
747D
100
AcDbEntity
  8
部品1
100
AcDbCircle
 10
4530.505618711532
 20
5193.081001864856
 30
0.0
 40
7.0
100
AcDbArc
 50
90.0
 51
183.2473427903377
  0
LINE
  5
168F0
330
747D
100
AcDbEntity
  8
細線
 48
50.0
100
AcDbLine
 10
4556.097197605105
 20
5200.081001864855
 30
0.0
 11
4556.097197605105
 21
5059.081001864852
 31
0.0
  0
TEXT
  5
16A47
330
747D
100
AcDbEntity
  8
文字
 62
     7
 48
50.0
100
AcDbText
 10
13583.11819016568
 20
8550.013745883727
 30
0.0
 40
100.0
  1
アンカープレート
  7
STYLE1
100
AcDbText
  0
TEXT
  5
16A48
330
747D
100
AcDbEntity
  8
文字
 62
     7
 48
50.0
100
AcDbText
 10
15022.63965474514
 20
8550.013745883722
 30
0.0
 40
100.0
  1
F12            2.3
  7
STYLE1
100
AcDbText
  0
LINE
  5
16A49
330
747D
100
AcDbEntity
  8
仕様書枠
 48
50.0
100
AcDbLine
 10
16307.19999999999
 20
9879.599999999999
 30
0.0
 11
13127.19999999999
 21
9879.600000000001
 31
0.0
  0
LINE
  5
16A4A
330
747D
100
AcDbEntity
  8
仕様書枠
 48
50.0
100
AcDbLine
 10
16307.19999999999
 20
11409.6
 30
0.0
 11
13127.2
 21
11409.6
 31
0.0
  0
LINE
  5
16A4B
330
747D
100
AcDbEntity
  8
仕様書枠
 48
50.0
100
AcDbLine
 10
16307.19999999999
 20
8179.600000000002
 30
0.0
 11
16307.2
 21
11409.6
 31
0.0
  0
LINE
  5
16A4C
330
747D
100
AcDbEntity
  8
仕様書枠
 48
50.0
100
AcDbLine
 10
14785.2
 20
11409.59999999999
 30
0.0
 11
14785.19999999999
 21
8519.600000000004
 31
0.0
  0
LINE
  5
16A4D
330
747D
100
AcDbEntity
  8
仕様書枠
 48
50.0
100
AcDbLine
 10
13490.2
 20
11409.6
 30
0.0
 11
13490.20000000001
 21
8519.600000000004
 31
0.0
  0
LINE
  5
16A4E
330
747D
100
AcDbEntity
  8
仕様書枠
 48
50.0
100
AcDbLine
 10
16307.19999999999
 20
11239.6
 30
0.0
 11
13127.2
 21
11239.6
 31
0.0
  0
LINE
  5
16A4F
330
747D
100
AcDbEntity
  8
仕様書枠
 48
50.0
100
AcDbLine
 10
16307.19999999999
 20
10899.6
 30
0.0
 11
13127.2
 21
10899.6
 31
0.0
  0
LINE
  5
16A50
330
747D
100
AcDbEntity
  8
仕様書枠
 48
50.0
100
AcDbLine
 10
16307.19999999999
 20
11069.6
 30
0.0
 11
13127.2
 21
11069.6
 31
0.0
  0
LINE
  5
16A51
330
747D
100
AcDbEntity
  8
仕様書枠
 48
50.0
100
AcDbLine
 10
16307.19999999999
 20
10559.6
 30
0.0
 11
13127.19999999999
 21
10559.6
 31
0.0
  0
LINE
  5
16A52
330
747D
100
AcDbEntity
  8
仕様書枠
 48
50.0
100
AcDbLine
 10
16307.19999999999
 20
10389.6
 30
0.0
 11
13127.19999999999
 21
10389.6
 31
0.0
  0
LINE
  5
16A53
330
747D
100
AcDbEntity
  8
仕様書枠
 48
50.0
100
AcDbLine
 10
16307.19999999999
 20
10729.6
 30
0.0
 11
13127.19999999999
 21
10729.6
 31
0.0
  0
TEXT
  5
16A54
330
747D
100
AcDbEntity
  8
文字
 62
     7
 48
50.0
100
AcDbText
 10
13197.42518560407
 20
11270.01374588372
 30
0.0
 40
100.0
  1
品番
  7
STYLE1
100
AcDbText
  0
TEXT
  5
16A55
330
747D
100
AcDbEntity
  8
文字
 62
     7
 48
50.0
100
AcDbText
 10
13271.19032244792
 20
11100.01374588373
 30
0.0
 40
100.0
  1
1
  7
STYLE1
100
AcDbText
  0
TEXT
  5
16A56
330
747D
100
AcDbEntity
  8
文字
 62
     7
 48
50.0
100
AcDbText
 10
13271.19032244792
 20
10930.01374588373
 30
0.0
 40
100.0
  1
2
  7
STYLE1
100
AcDbText
  0
TEXT
  5
16A57
330
747D
100
AcDbEntity
  8
文字
 62
     7
 48
50.0
100
AcDbText
 10
13271.19032244792
 20
10590.01374588373
 30
0.0
 40
100.0
  1
4
  7
STYLE1
100
AcDbText
  0
TEXT
  5
16A58
330
747D
100
AcDbEntity
  8
文字
 62
     7
 48
50.0
100
AcDbText
 10
13271.19032244792
 20
10760.01374588373
 30
0.0
 40
100.0
  1
3
  7
STYLE1
100
AcDbText
  0
TEXT
  5
16A59
330
747D
100
AcDbEntity
  8
文字
 62
     7
 48
50.0
100
AcDbText
 10
13732.03840939434
 20
11270.01374588372
 30
0.0
 40
100.0
  1
部　　品　　名
  7
STYLE1
100
AcDbText
  0
TEXT
  5
16A5A
330
747D
100
AcDbEntity
  8
文字
 62
     7
 48
50.0
100
AcDbText
 10
14859.79774614482
 20
11270.01374588372
 30
0.0
 40
100.0
  1
材料（材質）　　単位mm
  7
STYLE1
100
AcDbText
  0
TEXT
  5
16A5B
330
747D
100
AcDbEntity
  8
文字
 62
     7
 48
50.0
100
AcDbText
 10
13583.11819016569
 20
11100.01374588373
 30
0.0
 40
100.0
  1
土台枠
  7
STYLE1
100
AcDbText
  0
TEXT
  5
16A5C
330
747D
100
AcDbEntity
  8
文字
 62
     7
 48
50.0
100
AcDbText
 10
13583.11819016569
 20
10760.01374588372
 30
0.0
 40
100.0
  1
柱
  7
STYLE1
100
AcDbText
  0
TEXT
  5
16A5D
330
747D
100
AcDbEntity
  8
文字
 62
     7
 48
50.0
100
AcDbText
 10
13583.11819016569
 20
10420.01374588372
 30
0.0
 40
100.0
  1
鴨居
  7
STYLE1
100
AcDbText
  0
TEXT
  5
16A5E
330
747D
100
AcDbEntity
  8
文字
 62
     7
 48
50.0
100
AcDbText
 10
13583.11819016569
 20
10250.01374588373
 30
0.0
 40
100.0
  1
桁後
  7
STYLE1
100
AcDbText
  0
TEXT
  5
16A5F
330
747D
100
AcDbEntity
  8
文字
 62
     7
 48
50.0
100
AcDbText
 10
13271.19032244792
 20
10420.01374588372
 30
0.0
 40
100.0
  1
5
  7
STYLE1
100
AcDbText
  0
TEXT
  5
16A60
330
747D
100
AcDbEntity
  8
文字
 62
     7
 48
50.0
100
AcDbText
 10
13583.11819016569
 20
10080.01374588372
 30
0.0
 40
100.0
  1
妻板左右
  7
STYLE1
100
AcDbText
  0
TEXT
  5
16A61
330
747D
100
AcDbEntity
  8
文字
 62
     7
 48
50.0
100
AcDbText
 10
13248.77747366447
 20
9570.013745883727
 30
0.0
 40
100.0
  1
10
  7
STYLE1
100
AcDbText
  0
TEXT
  5
16A62
330
747D
100
AcDbEntity
  8
文字
 62
     7
 48
50.0
100
AcDbText
 10
13583.11819016568
 20
9230.013745883729
 30
0.0
 40
100.0
  1
壁パネル
  7
STYLE1
100
AcDbText
  0
TEXT
  5
16A63
330
747D
100
AcDbEntity
  8
文字
 62
     7
 48
50.0
100
AcDbText
 10
13583.11819016569
 20
9400.013745883727
 30
0.0
 40
100.0
  1
屋根パネル
  7
STYLE1
100
AcDbText
  0
TEXT
  5
16A64
330
747D
100
AcDbEntity
  8
文字
 62
     7
 48
50.0
100
AcDbText
 10
13583.11819016569
 20
9910.013745883727
 30
0.0
 40
100.0
  1
鼻隠シ前後
  7
STYLE1
100
AcDbText
  0
TEXT
  5
16A65
330
747D
100
AcDbEntity
  8
文字
 62
     7
 48
50.0
100
AcDbText
 10
13271.19032244792
 20
9910.01374588373
 30
0.0
 40
100.0
  1
8
  7
STYLE1
100
AcDbText
  0
TEXT
  5
16A66
330
747D
100
AcDbEntity
  8
文字
 62
     7
 48
50.0
100
AcDbText
 10
13271.19032244792
 20
9740.013745883729
 30
0.0
 40
100.0
  1
9
  7
STYLE1
100
AcDbText
  0
TEXT
  5
16A67
330
747D
100
AcDbEntity
  8
文字
 62
     7
 48
50.0
100
AcDbText
 10
13271.19032244792
 20
10080.01374588373
 30
0.0
 40
100.0
  1
7
  7
STYLE1
100
AcDbText
  0
TEXT
  5
16A68
330
747D
100
AcDbEntity
  8
文字
 62
     7
 48
50.0
100
AcDbText
 10
13271.19032244792
 20
10250.01374588373
 30
0.0
 40
100.0
  1
6
  7
STYLE1
100
AcDbText
  0
LINE
  5
16A69
330
747D
100
AcDbEntity
  8
仕様書枠
 48
50.0
100
AcDbLine
 10
16307.19999999999
 20
9539.599999999998
 30
0.0
 11
13127.19999999999
 21
9539.6
 31
0.0
  0
LINE
  5
16A6A
330
747D
100
AcDbEntity
  8
仕様書枠
 48
50.0
100
AcDbLine
 10
16307.19999999999
 20
9199.599999999998
 30
0.0
 11
13127.19999999999
 21
9199.600000000001
 31
0.0
  0
LINE
  5
16A6B
330
747D
100
AcDbEntity
  8
仕様書枠
 48
50.0
100
AcDbLine
 10
16307.19999999999
 20
9369.599999999998
 30
0.0
 11
13127.19999999999
 21
9369.600000000001
 31
0.0
  0
LINE
  5
16A6C
330
747D
100
AcDbEntity
  8
仕様書枠
 48
50.0
100
AcDbLine
 10
16307.19999999999
 20
10219.6
 30
0.0
 11
13127.2
 21
10219.6
 31
0.0
  0
LINE
  5
16A6D
330
747D
100
AcDbEntity
  8
仕様書枠
 48
50.0
100
AcDbLine
 10
16307.19999999999
 20
9709.6
 30
0.0
 11
13127.19999999999
 21
9709.600000000001
 31
0.0
  0
TEXT
  5
16A6E
330
747D
100
AcDbEntity
  8
文字
 62
     7
 48
50.0
100
AcDbText
 10
13248.77747366447
 20
9400.013745883727
 30
0.0
 40
100.0
  1
11
  7
STYLE1
100
AcDbText
  0
LINE
  5
16A6F
330
747D
100
AcDbEntity
  8
仕様書枠
 48
50.0
100
AcDbLine
 10
16307.19999999999
 20
9029.6
 30
0.0
 11
13127.19999999999
 21
9029.6
 31
0.0
  0
LINE
  5
16A70
330
747D
100
AcDbEntity
  8
仕様書枠
 48
50.0
100
AcDbLine
 10
16307.19999999999
 20
8689.6
 30
0.0
 11
13127.19999999999
 21
8689.600000000003
 31
0.0
  0
TEXT
  5
16A71
330
747D
100
AcDbEntity
  8
文字
 62
     7
 48
50.0
100
AcDbText
 10
13248.77747366447
 20
9060.013745883729
 30
0.0
 40
100.0
  1
13
  7
STYLE1
100
AcDbText
  0
TEXT
  5
16A72
330
747D
100
AcDbEntity
  8
文字
 62
     7
 48
50.0
100
AcDbText
 10
13248.77747366447
 20
9230.013745883729
 30
0.0
 40
100.0
  1
12
  7
STYLE1
100
AcDbText
  0
TEXT
  5
16A73
330
747D
100
AcDbEntity
  8
文字
 62
     7
 48
50.0
100
AcDbText
 10
15022.63965474517
 20
11100.01374588372
 30
0.0
 40
100.0
  1
F12            1.2
  7
STYLE1
100
AcDbText
  0
TEXT
  5
16A74
330
747D
100
AcDbEntity
  8
文字
 62
     7
 48
50.0
100
AcDbText
 10
15022.63965474517
 20
10760.01374588372
 30
0.0
 40
100.0
  1
F12            1.0
  7
STYLE1
100
AcDbText
  0
TEXT
  5
16A75
330
747D
100
AcDbEntity
  8
文字
 62
     7
 48
50.0
100
AcDbText
 10
15022.63965474516
 20
10420.01374588372
 30
0.0
 40
100.0
  1
Y10            1.0
  7
STYLE1
100
AcDbText
  0
TEXT
  5
16A76
330
747D
100
AcDbEntity
  8
文字
 62
     7
 48
50.0
100
AcDbText
 10
15022.63965474516
 20
10250.01374588372
 30
0.0
 40
100.0
  1
Y10            1.0
  7
STYLE1
100
AcDbText
  0
TEXT
  5
16A77
330
747D
100
AcDbEntity
  8
文字
 62
     7
 48
50.0
100
AcDbText
 10
15022.63965474516
 20
10080.01374588372
 30
0.0
 40
100.0
  1
Y10            0.7
  7
STYLE1
100
AcDbText
  0
TEXT
  5
16A78
330
747D
100
AcDbEntity
  8
文字
 62
     7
 48
50.0
100
AcDbText
 10
15022.63965474516
 20
9910.013745883725
 30
0.0
 40
100.0
  1
Y10            0.7
  7
STYLE1
100
AcDbText
  0
TEXT
  5
16A79
330
747D
100
AcDbEntity
  8
文字
 62
     7
 48
50.0
100
AcDbText
 10
15022.63965474517
 20
9400.013745883725
 30
0.0
 40
100.0
  1
Y10            0.5
  7
STYLE1
100
AcDbText
  0
TEXT
  5
16A7A
330
747D
100
AcDbEntity
  8
文字
 62
     7
 48
50.0
100
AcDbText
 10
15022.63965474515
 20
9230.013745883725
 30
0.0
 40
100.0
  1
F12            0.6
  7
STYLE1
100
AcDbText
  0
LINE
  5
16A7B
330
747D
100
AcDbEntity
  8
仕様書枠
 48
50.0
100
AcDbLine
 10
16307.19999999998
 20
8519.600000000002
 30
0.0
 11
13127.19999999999
 21
8519.600000000004
 31
0.0
  0
LINE
  5
16A7C
330
747D
100
AcDbEntity
  8
仕様書枠
 48
50.0
100
AcDbLine
 10
16307.19999999998
 20
8349.600000000002
 30
0.0
 11
13127.19999999999
 21
8349.600000000004
 31
0.0
  0
TEXT
  5
16A7D
330
747D
100
AcDbEntity
  8
文字
 62
     7
 48
50.0
100
AcDbText
 10
13229.83081656553
 20
8380.013745883733
 30
0.0
 40
100.0
  1
F12→溶融亜鉛めっき鋼板(JIS G 3302)
  7
STYLE1
100
AcDbText
  0
TEXT
  5
16A7E
330
747D
100
AcDbEntity
  8
文字
 62
     7
 48
50.0
100
AcDbText
 10
13229.83081656553
 20
8210.013745883733
 30
0.0
 40
100.0
  1
Y10→溶融亜鉛-5％アルミニウム合金めっき鋼板(JIS G 3317)
 41
0.9
  7
STYLE1
100
AcDbText
  0
LINE
  5
16A7F
330
747D
100
AcDbEntity
  8
仕様書枠
 48
50.0
100
AcDbLine
 10
13127.2
 20
11409.6
 30
0.0
 11
13127.19999999999
 21
8179.600000000004
 31
0.0
  0
LINE
  5
16A80
330
747D
100
AcDbEntity
  8
仕様書枠
 48
50.0
100
AcDbLine
 10
16307.19999999999
 20
8859.6
 30
0.0
 11
13127.19999999999
 21
8859.600000000002
 31
0.0
  0
TEXT
  5
16A81
330
747D
100
AcDbEntity
  8
文字
 62
     7
 48
50.0
100
AcDbText
 10
13583.11819016569
 20
10590.01374588373
 30
0.0
 40
100.0
  1
床パネル
 41
0.9
  7
STYLE1
100
AcDbText
  0
TEXT
  5
16A82
330
747D
100
AcDbEntity
  8
文字
 62
     7
 48
50.0
100
AcDbText
 10
13248.77747366447
 20
8890.013745883729
 30
0.0
 40
100.0
  1
14
  7
STYLE1
100
AcDbText
  0
TEXT
  5
16A83
330
747D
100
AcDbEntity
  8
文字
 62
     7
 48
50.0
100
AcDbText
 10
15022.63965474516
 20
10590.01374588372
 30
0.0
 40
100.0
  1
F12            1.0
  7
STYLE1
100
AcDbText
  0
TEXT
  5
16A84
330
747D
100
AcDbEntity
  8
文字
 62
     7
 48
50.0
100
AcDbText
 10
14269.60464131317
 20
483.8967129911411
 30
0.0
 40
160.0
  1
ＮＸＮ－２５ＣＳＬ－Ｎ
  7
STYLE2
100
AcDbText
  0
TEXT
  5
16A85
330
747D
100
AcDbEntity
  8
文字
 62
     7
 48
50.0
100
AcDbText
 10
15022.63965474514
 20
9060.013745883725
 30
0.0
 40
100.0
  1
F12            0.7
  7
STYLE1
100
AcDbText
  0
TEXT
  5
16A86
330
747D
100
AcDbEntity
  8
文字
 62
     7
 48
50.0
100
AcDbText
 10
13583.11819016567
 20
9060.013745883729
 30
0.0
 40
100.0
  1
正面パネル
  7
STYLE1
100
AcDbText
  0
TEXT
  5
16A87
330
747D
100
AcDbEntity
  8
文字
 62
     7
 48
50.0
100
AcDbText
 10
15022.63965474515
 20
8890.013745883726
 30
0.0
 40
100.0
  1
F12            0.8
  7
STYLE1
100
AcDbText
  0
TEXT
  5
16A88
330
747D
100
AcDbEntity
  8
文字
 62
     7
 48
50.0
100
AcDbText
 10
13583.11819016568
 20
8890.013745883729
 30
0.0
 40
100.0
  1
扉
  7
STYLE1
100
AcDbText
  0
TEXT
  5
16A89
330
747D
100
AcDbEntity
  8
文字
 62
     7
 48
50.0
100
AcDbText
 10
15022.63965474515
 20
8720.013745883727
 30
0.0
 40
100.0
  1
F12            0.6
  7
STYLE1
100
AcDbText
  0
TEXT
  5
16A8A
330
747D
100
AcDbEntity
  8
文字
 62
     7
 48
50.0
100
AcDbText
 10
13583.11819016568
 20
8720.013745883731
 30
0.0
 40
100.0
  1
棚板
  7
STYLE1
100
AcDbText
  0
TEXT
  5
16ABD
330
747D
100
AcDbEntity
  8
文字
 62
     7
 48
50.0
100
AcDbText
 10
13583.11819016569
 20
9570.013745883727
 30
0.0
 40
100.0
  1
母屋中
  7
STYLE1
100
AcDbText
  0
TEXT
  5
16ABE
330
747D
100
AcDbEntity
  8
文字
 62
     7
 48
50.0
100
AcDbText
 10
15022.63965474516
 20
9570.013745883725
 30
0.0
 40
100.0
  1
F12            1.0
  7
STYLE1
100
AcDbText
  0
LINE
  5
16ABF
330
747D
100
AcDbEntity
  8
部品1
100
AcDbLine
 10
11905.62991252681
 20
2527.028084137507
 30
0.0
 11
11142.15924629837
 21
2527.028084137507
 31
0.0
  0
LINE
  5
16AC0
330
747D
100
AcDbEntity
  8
部品1
100
AcDbLine
 10
11905.62991252681
 20
2287.135762591975
 30
0.0
 11
11905.62991252681
 21
2527.028084137507
 31
0.0
  0
LINE
  5
16AC1
330
747D
100
AcDbEntity
  8
部品1
100
AcDbLine
 10
11142.15924629837
 20
2287.135762591975
 30
0.0
 11
11905.62991252681
 21
2287.135762591975
 31
0.0
  0
LINE
  5
16AC2
330
747D
100
AcDbEntity
  8
部品1
100
AcDbLine
 10
11142.15924629837
 20
2527.028084137507
 30
0.0
 11
11142.15924629837
 21
2287.135762591975
 31
0.0
  0
LINE
  5
16AC3
330
747D
100
AcDbEntity
  8
部品1
100
AcDbLine
 10
6961.972738639608
 20
2527.028084137507
 30
0.0
 11
6198.502072411168
 21
2527.028084137507
 31
0.0
  0
LINE
  5
16AC4
330
747D
100
AcDbEntity
  8
部品1
100
AcDbLine
 10
6961.972738639608
 20
2287.135762591975
 30
0.0
 11
6961.972738639608
 21
2527.028084137507
 31
0.0
  0
LINE
  5
16AC5
330
747D
100
AcDbEntity
  8
部品1
100
AcDbLine
 10
6198.502072411168
 20
2287.135762591975
 30
0.0
 11
6961.972738639608
 21
2287.135762591975
 31
0.0
  0
LINE
  5
16AC6
330
747D
100
AcDbEntity
  8
部品1
100
AcDbLine
 10
6198.502072411168
 20
2527.028084137507
 30
0.0
 11
6198.502072411168
 21
2287.135762591975
 31
0.0
  0
LINE
  5
16ADF
330
747D
100
AcDbEntity
  8
部品1
100
AcDbLine
 10
8623.097197605108
 20
4965.081001864849
 30
0.0
 11
8623.097197605108
 21
3167.081001864868
 31
0.0
  0
LINE
  5
16AE0
330
747D
100
AcDbEntity
  8
部品1
100
AcDbLine
 10
8683.097197605107
 20
5059.081001864845
 30
0.0
 11
8683.097197605107
 21
3025.081001864848
 31
0.0
  0
LINE
  5
16AE1
330
747D
100
AcDbEntity
  8
細線
 48
50.0
100
AcDbLine
 10
7313.097197605106
 20
4965.081001864849
 30
0.0
 11
7313.09719760511
 21
5059.081001864848
 31
0.0
  0
LINE
  5
16AE2
330
747D
100
AcDbEntity
  8
部品1
100
AcDbLine
 10
7313.097197605109
 20
3167.081001864863
 30
0.0
 11
7313.097197605109
 21
3125.081001864848
 31
0.0
  0
LINE
  5
16AE3
330
747D
100
AcDbEntity
  8
部品1
100
AcDbLine
 10
7373.097197605108
 20
4965.081001864849
 30
0.0
 11
7373.097197605108
 21
3167.081001864852
 31
0.0
  0
LINE
  5
16AE4
330
747D
100
AcDbEntity
  8
部品1
100
AcDbLine
 10
6003.097197605106
 20
4965.081001864849
 30
0.0
 11
6003.097197605106
 21
3167.081001864852
 31
0.0
  0
LINE
  5
16AE5
330
747D
100
AcDbEntity
  8
部品1
100
AcDbLine
 10
7253.097197605107
 20
4965.081001864849
 30
0.0
 11
7253.097197605107
 21
3167.081001864852
 31
0.0
  0
LINE
  5
16AE6
330
747D
100
AcDbEntity
  8
細線
 48
50.0
100
AcDbLine
 10
5943.097197605106
 20
4965.081001864849
 30
0.0
 11
5943.097197605106
 21
5059.081001864852
 31
0.0
  0
LINE
  5
16AE7
330
747D
100
AcDbEntity
  8
寸法
 48
50.0
100
AcDbLine
 10
5271.826415030284
 20
4333.539300893071
 30
0.0
 11
5558.90368972004
 21
4308.4232938018
 31
0.0
  0
LINE
  5
16AE8
330
747D
100
AcDbEntity
  8
寸法
 48
50.0
100
AcDbLine
 10
5246.279530434038
 20
4305.659768557348
 30
0.0
 11
5444.753540612337
 21
4288.295542662218
 31
0.0
  0
LINE
  5
16AE9
330
747D
100
AcDbEntity
  8
寸法
 48
50.0
100
AcDbLine
 10
5290.090951272979
 20
4057.192854061823
 30
0.0
 11
5003.013676583226
 21
4082.308861153094
 31
0.0
  0
LINE
  5
16AEA
330
747D
100
AcDbEntity
  8
寸法
 48
50.0
100
AcDbLine
 10
5315.637835869229
 20
4085.072386397545
 30
0.0
 11
5117.163825690933
 21
4102.436612292676
 31
0.0
  0
LINE
  5
16AEB
330
747D
100
AcDbEntity
  8
寸法
 48
50.0
100
AcDbLine
 10
5558.90368972004
 20
4308.4232938018
 30
0.0
 11
5117.16382569093
 21
4102.436612292676
 31
0.0
  0
LINE
  5
16AEC
330
747D
100
AcDbEntity
  8
寸法
 48
50.0
100
AcDbLine
 10
5444.753540612337
 20
4288.295542662218
 30
0.0
 11
5003.013676583226
 21
4082.308861153094
 31
0.0
  0
LINE
  5
16AED
330
747D
100
AcDbEntity
  8
部品1
100
AcDbLine
 10
4573.097197605106
 20
4965.081001864849
 30
0.0
 11
5130.005775349872
 21
4965.081001864849
 31
0.0
  0
LINE
  5
16AEE
330
747D
100
AcDbEntity
  8
部品1
100
AcDbLine
 10
5943.097197605106
 20
3167.081001864863
 30
0.0
 11
5943.097197605106
 21
3125.081001864848
 31
0.0
  0
LINE
  5
16AEF
330
747D
100
AcDbEntity
  8
部品1
100
AcDbLine
 10
3806.49456064897
 20
3154.984812432513
 30
0.0
 11
3956.49456064897
 21
3154.984812432513
 31
0.0
  0
LINE
  5
16AF0
330
747D
100
AcDbEntity
  8
部品1
100
AcDbLine
 10
3881.494560648969
 20
3025.081001864848
 30
0.0
 11
3806.49456064897
 21
3154.984812432513
 31
0.0
  0
LINE
  5
16AF1
330
747D
100
AcDbEntity
  8
部品1
100
AcDbLine
 10
3956.49456064897
 20
3154.984812432513
 30
0.0
 11
3881.494560648969
 21
3025.081001864848
 31
0.0
  0
TEXT
  5
16AF2
330
747D
100
AcDbEntity
  8
部品1
100
AcDbText
 10
3984.599502773743
 20
3061.18790547075
 30
0.0
 40
125.0
  1
G.L
  7
STYLE2
100
AcDbText
  0
LINE
  5
16AF3
330
747D
100
AcDbEntity
  8
Ｇ．Ｌ
100
AcDbLine
 10
3706.99754932487
 20
3025.081001864848
 30
0.0
 11
5472.080117924297
 21
3025.081001864848
 31
0.0
  0
LINE
  5
16AF4
330
747D
100
AcDbEntity
  8
部品1
100
AcDbLine
 10
4573.097197605106
 20
3125.081001864848
 30
0.0
 11
5454.44741985345
 21
3125.081001864848
 31
0.0
  0
LINE
  5
16AF5
330
747D
100
AcDbEntity
  8
部品1
100
AcDbLine
 10
4573.097197605106
 20
3167.081001864852
 30
0.0
 11
5447.041686663693
 21
3167.081001864854
 31
0.0
  0
LINE
  5
16AF6
330
747D
100
AcDbEntity
  8
部品1
100
AcDbLine
 10
4573.097197605106
 20
5059.081001864852
 30
0.0
 11
4573.097197605106
 21
3025.081001864848
 31
0.0
  0
LINE
  5
16AF7
330
747D
100
AcDbEntity
  8
部品1
100
AcDbLine
 10
4633.097197605105
 20
4965.081001864849
 30
0.0
 11
4633.097197605105
 21
3167.081001864852
 31
0.0
  0
LINE
  5
16AF8
330
747D
100
AcDbEntity
  8
部品1
100
AcDbLine
 10
5883.097197605106
 20
4965.081001864849
 30
0.0
 11
5883.097197605106
 21
3167.081001864852
 31
0.0
  0
LINE
  5
16AF9
330
747D
100
AcDbEntity
  8
寸法
 48
50.0
100
AcDbLine
 10
5315.637835869229
 20
4085.072386397545
 30
0.0
 11
5526.798566636017
 21
2887.520372982691
 31
0.0
  0
LINE
  5
16AFA
330
747D
100
AcDbEntity
  8
寸法
 48
50.0
100
AcDbLine
 10
5290.090951272979
 20
4057.192854061823
 30
0.0
 11
5496.335768279443
 21
2887.520372982691
 31
0.0
  0
LINE
  5
16AFB
330
747D
100
AcDbEntity
  8
細線
 48
50.0
100
AcDbLine
 10
5933.097197605106
 20
5059.081001864852
 30
0.0
 11
5933.097197605106
 21
5200.081001864852
 31
0.0
  0
LINE
  5
16AFC
330
747D
100
AcDbEntity
  8
細線
 48
50.0
100
AcDbLine
 10
7303.097197605106
 20
5059.081001864848
 30
0.0
 11
7303.097197605106
 21
5200.081001864852
 31
0.0
  0
LINE
  5
16AFD
330
747D
100
AcDbEntity
  8
寸法
 48
50.0
100
AcDbLine
 10
5077.555128020571
 20
5262.543404490695
 30
0.0
 11
5246.279530434038
 21
4305.659768557348
 31
0.0
  0
LINE
  5
16AFE
330
747D
100
AcDbEntity
  8
寸法
 48
50.0
100
AcDbLine
 10
5108.017926377144
 20
5262.543404490695
 30
0.0
 11
5271.826415030288
 21
4333.539300893071
 31
0.0
  0
LINE
  5
16AFF
330
747D
100
AcDbEntity
  8
部品1
100
AcDbLine
 10
5484.91021821002
 20
3125.081001864848
 30
0.0
 11
8683.097197605107
 21
3125.081001864848
 31
0.0
  0
LINE
  5
16B00
330
747D
100
AcDbEntity
  8
部品1
100
AcDbLine
 10
5477.504485020263
 20
3167.081001864856
 30
0.0
 11
8683.097197605107
 21
3167.081001864868
 31
0.0
  0
LINE
  5
16B01
330
747D
100
AcDbEntity
  8
部品1
100
AcDbLine
 10
5160.468573706445
 20
4965.081001864849
 30
0.0
 11
8683.097197605107
 21
4965.081001864849
 31
0.0
  0
TEXT
  5
16BC4
330
747D
100
AcDbEntity
  8
文字
 62
     7
 48
50.0
100
AcDbText
 10
13209.4053442172
 20
228.5435242569015
 30
0.0
 40
100.0
  1
○有効開口寸法 ： 686×1770(mm)
  7
STYLE2
100
AcDbText
  0
LINE
  5
16BC7
330
747D
100
AcDbEntity
  8
Ｇ．Ｌ
100
AcDbLine
 10
5502.542916280867
 20
3025.081001864848
 30
0.0
 11
13118.94808176533
 21
3025.081001864848
 31
0.0
  0
TEXT
  5
16BC9
330
747D
100
AcDbEntity
  8
部品1
100
AcDbText
 10
11231.60534772198
 20
2334.134554918984
 30
0.0
 40
135.0
  1
側面図
  7
STYLE2
100
AcDbText
  0
TEXT
  5
16BCA
330
747D
100
AcDbEntity
  8
部品1
100
AcDbText
 10
6289.027476149124
 20
2334.134554918984
 30
0.0
 40
135.0
  1
正面図
  7
STYLE2
100
AcDbText
  0
MTEXT
  5
16FAC
330
747D
100
AcDbEntity
  8
寸法
 62
     7
 48
50.0
100
AcDbMText
 10
5524.637187318429
 20
8088.548178898447
 30
0.0
 40
96.0
 41
0.0
 71
     5
 72
     1
  1
棚 2段
  7
STYLE1
 11
0.0000000000000001
 21
1.0
 31
0.0
 73
     1
 44
1.0
1001
ACAD
1000
MTEXTBEGIN
1070
    73
1070
     1
1070
    44
1040
1.0
1070
    74
1070
     0
1000
MTEXTEND
  0
MTEXT
  5
16FAD
330
747D
100
AcDbEntity
  8
寸法
 62
     7
 48
50.0
100
AcDbMText
 10
5523.315057342592
 20
8945.459477874535
 30
0.0
 40
96.0
 41
0.0
 71
     5
 72
     1
  1
棚 2段
  7
STYLE1
 11
0.0000000000000001
 21
1.0
 31
0.0
 73
     1
 44
1.0
1001
ACAD
1000
MTEXTBEGIN
1070
    73
1070
     1
1070
    44
1040
1.0
1070
    74
1070
     0
1000
MTEXTEND
  0
MTEXT
  5
16FAE
330
747D
100
AcDbEntity
  8
寸法
 62
     7
 48
50.0
100
AcDbMText
 10
6893.315057342592
 20
8945.459477874535
 30
0.0
 40
96.0
 41
0.0
 71
     5
 72
     1
  1
棚 2段
  7
STYLE1
 11
0.0000000000000001
 21
1.0
 31
0.0
 73
     1
 44
1.0
1001
ACAD
1000
MTEXTBEGIN
1070
    73
1070
     1
1070
    44
1040
1.0
1070
    74
1070
     0
1000
MTEXTEND
  0
MTEXT
  5
16FAF
330
747D
100
AcDbEntity
  8
寸法
 62
     7
 48
50.0
100
AcDbMText
 10
6894.637187318429
 20
8088.548178898447
 30
0.0
 40
96.0
 41
0.0
 71
     5
 72
     1
  1
棚 2段
  7
STYLE1
 11
0.0000000000000001
 21
1.0
 31
0.0
 73
     1
 44
1.0
1001
ACAD
1000
MTEXTBEGIN
1070
    73
1070
     1
1070
    44
1040
1.0
1070
    74
1070
     0
1000
MTEXTEND
  0
MTEXT
  5
16FB0
330
747D
100
AcDbEntity
  8
寸法
 62
     7
 48
50.0
100
AcDbMText
 10
8263.315057342593
 20
8945.459477874535
 30
0.0
 40
96.0
 41
0.0
 71
     5
 72
     1
  1
棚 2段
  7
STYLE1
 11
0.0000000000000001
 21
1.0
 31
0.0
 73
     1
 44
1.0
1001
ACAD
1000
MTEXTBEGIN
1070
    73
1070
     1
1070
    44
1040
1.0
1070
    74
1070
     0
1000
MTEXTEND
  0
MTEXT
  5
16FB1
330
747D
100
AcDbEntity
  8
寸法
 62
     7
 48
50.0
100
AcDbMText
 10
8264.637187318429
 20
8088.548178898447
 30
0.0
 40
96.0
 41
0.0
 71
     5
 72
     1
  1
棚 2段
  7
STYLE1
 11
0.0000000000000001
 21
1.0
 31
0.0
 73
     1
 44
1.0
1001
ACAD
1000
MTEXTBEGIN
1070
    73
1070
     1
1070
    44
1040
1.0
1070
    74
1070
     0
1000
MTEXTEND
  0
DIMENSION
  5
16FB2
330
747D
100
AcDbEntity
  8
寸法
100
AcDbDimension
  2
*D21
 10
7373.097197605104
 20
7069.891824499631
 30
0.0
 11
7716.097197605105
 21
7069.891824499631
 31
0.0
 70
   160
  1
有効開口部間口\P<>
 71
     5
 42
686.0
  3
INABA_S40G
100
AcDbAlignedDimension
 13
8059.097197605103
 23
7597.060989460108
 33
0.0
 14
7373.097197605104
 24
7597.060989460032
 34
0.0
100
AcDbRotatedDimension
1001
ACAD
1000
DSTYLE
1002
{
1002
}
  0
LINE
  5
16FB3
330
747D
100
AcDbEntity
  8
細線
100
AcDbLine
 10
7824.097197605104
 20
7600.06098946008
 30
0.0
 11
7724.097197605097
 21
7600.060989460067
 31
0.0
  0
LINE
  5
16FB4
330
747D
100
AcDbEntity
  8
寸法
 48
50.0
100
AcDbLine
 10
7746.333795704991
 20
7527.388587073616
 30
0.0
 11
7965.485735880716
 21
7527.388587073616
 31
0.0
  0
LINE
  5
16FB5
330
747D
100
AcDbEntity
  8
寸法
 48
50.0
100
AcDbLine
 10
7965.485735880716
 20
7527.388587073616
 30
0.0
 11
7876.201517285295
 21
7551.312221343103
 31
0.0
  0
LINE
  5
16FB6
330
747D
100
AcDbEntity
  8
寸法
 48
50.0
100
AcDbLine
 10
7876.201517285295
 20
7551.312221343103
 30
0.0
 11
7876.201517285295
 21
7497.648586761312
 31
0.0
  0
LINE
  5
16FB7
330
747D
100
AcDbEntity
  8
寸法
 48
50.0
100
AcDbLine
 10
7545.629975098335
 20
7494.166630588279
 30
0.0
 11
7597.035983008438
 21
7494.166630588279
 31
0.0
  0
LINE
  5
16FB8
330
747D
100
AcDbEntity
  8
寸法
 48
50.0
100
AcDbLine
 10
7597.035983008438
 20
7494.166630588279
 30
0.0
 11
7597.035983008438
 21
7525.476789240446
 31
0.0
  0
LINE
  5
16FB9
330
747D
100
AcDbEntity
  8
寸法
 48
50.0
100
AcDbLine
 10
7597.035983008438
 20
7525.476789240446
 30
0.0
 11
7626.797314999861
 21
7525.476789240446
 31
0.0
  0
LINE
  5
16FBA
330
747D
100
AcDbEntity
  8
寸法
 48
50.0
100
AcDbLine
 10
7626.797314999861
 20
7525.476789240446
 30
0.0
 11
7571.332979053391
 21
7563.056240169057
 31
0.0
  0
LINE
  5
16FBB
330
747D
100
AcDbEntity
  8
寸法
 48
50.0
100
AcDbLine
 10
7515.868643106911
 20
7525.476789240446
 30
0.0
 11
7571.332979053386
 21
7563.056240169057
 31
0.0
  0
LINE
  5
16FBC
330
747D
100
AcDbEntity
  8
寸法
 48
50.0
100
AcDbLine
 10
7545.629975098335
 20
7525.476789240446
 30
0.0
 11
7515.868643106911
 21
7525.476789240446
 31
0.0
  0
LINE
  5
16FBD
330
747D
100
AcDbEntity
  8
寸法
 48
50.0
100
AcDbLine
 10
7545.629975098335
 20
7494.166630588279
 30
0.0
 11
7545.629975098335
 21
7525.476789240446
 31
0.0
  0
LINE
  5
16FBE
330
747D
100
AcDbEntity
  8
寸法
 48
50.0
100
AcDbLine
 10
7597.035983008438
 20
7494.166630588279
 30
0.0
 11
7545.629975098335
 21
7494.166630588279
 31
0.0
  0
LINE
  5
16FBF
330
747D
100
AcDbEntity
  8
細線
100
AcDbLine
 10
8036.597197605123
 20
7634.060989460241
 30
0.0
 11
8029.09719760513
 21
7657.060989460167
 31
0.0
  0
LINE
  5
16FC0
330
747D
100
AcDbEntity
  8
細線
100
AcDbLine
 10
7976.597197605122
 20
7634.060989460251
 30
0.0
 11
7984.097197605129
 21
7657.060989460167
 31
0.0
  0
LINE
  5
16FC1
330
747D
100
AcDbEntity
  8
細線
100
AcDbLine
 10
7721.765659314328
 20
7605.060989460092
 30
0.0
 11
7656.428735895858
 21
7605.060989460082
 31
0.0
  0
LINE
  5
16FC2
330
747D
100
AcDbEntity
  8
細線
100
AcDbLine
 10
7724.097197605097
 20
7600.060989460108
 30
0.0
 11
7721.765659314328
 21
7605.060989460092
 31
0.0
  0
LINE
  5
16FC3
330
747D
100
AcDbEntity
  8
細線
100
AcDbLine
 10
7654.097197605103
 20
7600.060989460125
 30
0.0
 11
7656.428735895872
 21
7605.060989460111
 31
0.0
  0
LINE
  5
16FC4
330
747D
100
AcDbEntity
  8
細線
100
AcDbLine
 10
7529.597197605105
 20
7618.060989460106
 30
0.0
 11
7529.597197605105
 21
7600.06098946008
 31
0.0
  0
LINE
  5
16FC5
330
747D
100
AcDbEntity
  8
細線
100
AcDbLine
 10
7488.597197605104
 20
7618.060989460099
 30
0.0
 11
7488.597197605104
 21
7600.06098946008
 31
0.0
  0
LINE
  5
16FC6
330
747D
100
AcDbEntity
  8
細線
100
AcDbLine
 10
7529.597197605105
 20
7618.060989460106
 30
0.0
 11
7488.597197605104
 21
7618.060989460099
 31
0.0
  0
ARC
  5
16FC7
330
747D
100
AcDbEntity
  8
部品1
100
AcDbCircle
 10
7491.14135348238
 20
7599.560989460101
 30
0.0
 40
1.0
100
AcDbArc
 50
270.0
 51
19.47122063447127
  0
LINE
  5
16FC8
330
747D
100
AcDbEntity
  8
部品1
 48
0.01
100
AcDbLine
 10
7484.097197605096
 20
7600.060989460104
 30
0.0
 11
7484.097197605096
 21
7599.060989460103
 31
0.0
  0
LINE
  5
16FC9
330
747D
100
AcDbEntity
  8
部品1
 48
0.01
100
AcDbLine
 10
7484.597197605097
 20
7598.560989460104
 30
0.0
 11
7491.14135348238
 21
7598.560989460103
 31
0.0
  0
ARC
  5
16FCA
330
747D
100
AcDbEntity
  8
部品1
 48
0.01
100
AcDbCircle
 10
7484.597197605097
 20
7599.060989460103
 30
0.0
 40
0.5
100
AcDbArc
 50
180.0
 51
270.0
  0
ARC
  5
16FCB
330
747D
100
AcDbEntity
  8
部品1
100
AcDbCircle
 10
7516.597197605097
 20
7608.560989460102
 30
0.0
 40
26.0
100
AcDbArc
 50
180.0
 51
199.4712206344713
  0
ARC
  5
16FCC
330
747D
100
AcDbEntity
  8
部品1
 48
0.01
100
AcDbCircle
 10
7492.597197605097
 20
7613.560989460101
 30
0.0
 40
2.0
100
AcDbArc
 50
90.0
 51
180.0
  0
LINE
  5
16FCD
330
747D
100
AcDbEntity
  8
部品1
100
AcDbLine
 10
7490.597197605096
 20
7608.560989460102
 30
0.0
 11
7490.597197605096
 21
7613.560989460101
 31
0.0
  0
ARC
  5
16FCE
330
747D
100
AcDbEntity
  8
部品1
100
AcDbCircle
 10
7509.097197605097
 20
7624.360989460105
 30
0.0
 40
16.0
100
AcDbArc
 50
218.3930440191599
 51
254.0576313943215
  0
ARC
  5
16FCF
330
747D
100
AcDbEntity
  8
部品1
100
AcDbCircle
 10
7494.205589229911
 20
7612.560989460103
 30
0.0
 40
3.0
100
AcDbArc
 50
38.39304401915988
 51
90.0
  0
LINE
  5
16FD0
330
747D
100
AcDbEntity
  8
部品1
 48
0.01
100
AcDbLine
 10
7492.597197605097
 20
7615.560989460103
 30
0.0
 11
7494.205589229911
 21
7615.560989460103
 31
0.0
  0
ARC
  5
16FD1
330
747D
100
AcDbEntity
  8
部品1
100
AcDbCircle
 10
7509.097197605097
 20
7624.360989460105
 30
0.0
 40
16.0
100
AcDbArc
 50
285.9423686056786
 51
321.6069559808401
  0
LINE
  5
16FD2
330
747D
100
AcDbEntity
  8
部品1
100
AcDbLine
 10
7512.667911819367
 20
7608.860989460104
 30
0.0
 11
7505.526483390825
 21
7608.860989460104
 31
0.0
  0
ARC
  5
16FD3
330
747D
100
AcDbEntity
  8
部品1
100
AcDbCircle
 10
7512.667911819367
 20
7611.860989460105
 30
0.0
 40
3.0
100
AcDbArc
 50
270.0
 51
285.9423686056786
  0
ARC
  5
16FD4
330
747D
100
AcDbEntity
  8
部品1
100
AcDbCircle
 10
7505.526483390825
 20
7611.860989460105
 30
0.0
 40
3.0
100
AcDbArc
 50
254.0576313943215
 51
270.0
  0
LINE
  5
16FD5
330
747D
100
AcDbEntity
  8
部品1
 48
0.01
100
AcDbLine
 10
7525.597197605097
 20
7615.560989460103
 30
0.0
 11
7523.988805980287
 21
7615.560989460103
 31
0.0
  0
ARC
  5
16FD6
330
747D
100
AcDbEntity
  8
部品1
100
AcDbCircle
 10
7523.988805980287
 20
7612.560989460103
 30
0.0
 40
3.0
100
AcDbArc
 50
90.0
 51
141.6069559808401
  0
ARC
  5
16FD7
330
747D
100
AcDbEntity
  8
部品1
 48
0.01
100
AcDbCircle
 10
7525.597197605097
 20
7613.560989460101
 30
0.0
 40
2.0
100
AcDbArc
 50
0.0
 51
90.0
  0
LINE
  5
16FD8
330
747D
100
AcDbEntity
  8
部品1
100
AcDbLine
 10
7527.597197605096
 20
7608.560989460102
 30
0.0
 11
7527.597197605096
 21
7613.560989460101
 31
0.0
  0
ARC
  5
16FD9
330
747D
100
AcDbEntity
  8
部品1
100
AcDbCircle
 10
7501.597197605097
 20
7608.560989460102
 30
0.0
 40
26.0
100
AcDbArc
 50
340.5287793655287
 51
0.0
  0
ARC
  5
16FDA
330
747D
100
AcDbEntity
  8
部品1
100
AcDbCircle
 10
7527.053041727814
 20
7599.560989460101
 30
0.0
 40
1.0
100
AcDbArc
 50
160.5287793655287
 51
270.0
  0
LINE
  5
16FDB
330
747D
100
AcDbEntity
  8
部品1
 48
0.01
100
AcDbLine
 10
7533.597197605097
 20
7598.560989460104
 30
0.0
 11
7526.984692175036
 21
7598.560989460103
 31
0.0
  0
LINE
  5
16FDC
330
747D
100
AcDbEntity
  8
部品1
 48
0.01
100
AcDbLine
 10
7534.097197605096
 20
7600.060989460104
 30
0.0
 11
7534.097197605096
 21
7599.060989460103
 31
0.0
  0
LINE
  5
16FDD
330
747D
100
AcDbEntity
  8
部品1
 48
0.01
100
AcDbLine
 10
7534.097197605096
 20
7600.060989460104
 30
0.0
 11
7534.097197605096
 21
7599.060989460103
 31
0.0
  0
ARC
  5
16FDE
330
747D
100
AcDbEntity
  8
部品1
 48
0.01
100
AcDbCircle
 10
7533.597197605097
 20
7599.060989460103
 30
0.0
 40
0.5
100
AcDbArc
 50
270.0
 51
0.0
  0
LINE
  5
16FDF
330
747D
100
AcDbEntity
  8
細線
100
AcDbLine
 10
7901.5971976051
 20
7634.060989460175
 30
0.0
 11
7903.928735895869
 21
7639.060989460161
 31
0.0
  0
LINE
  5
16FE0
330
747D
100
AcDbEntity
  8
細線
100
AcDbLine
 10
7971.597197605096
 20
7634.060989460157
 30
0.0
 11
7969.26565931433
 21
7639.060989460142
 31
0.0
  0
LINE
  5
16FE1
330
747D
100
AcDbEntity
  8
細線
100
AcDbLine
 10
7969.26565931433
 20
7639.060989460142
 30
0.0
 11
7903.928735895853
 21
7639.060989460131
 31
0.0
  0
LINE
  5
16FE2
330
747D
100
AcDbEntity
  8
細線
100
AcDbLine
 10
8041.597197605105
 20
7634.060989460197
 30
0.0
 11
8043.928735895873
 21
7639.060989460182
 31
0.0
  0
LINE
  5
16FE3
330
747D
100
AcDbEntity
  8
細線
100
AcDbLine
 10
8041.597197605085
 20
7634.060989460164
 30
0.0
 11
7971.597197605094
 21
7634.060989460164
 31
0.0
  0
LINE
  5
16FE4
330
747D
100
AcDbEntity
  8
細線
100
AcDbLine
 10
7901.597197605098
 20
7634.060989460168
 30
0.0
 11
7815.097197605116
 21
7634.06098946017
 31
0.0
  0
LINE
  5
16FE5
330
747D
100
AcDbEntity
  8
細線
100
AcDbLine
 10
7803.097197605087
 20
7630.060989460066
 30
0.0
 11
7803.097197605087
 21
7634.060989460069
 31
0.0
  0
LINE
  5
16FE6
330
747D
100
AcDbEntity
  8
細線
100
AcDbLine
 10
7803.097197605087
 20
7630.060989460066
 30
0.0
 11
7783.097197605098
 21
7630.060989460066
 31
0.0
  0
LINE
  5
16FE7
330
747D
100
AcDbEntity
  8
細線
100
AcDbLine
 10
7783.097197605098
 20
7630.060989460066
 30
0.0
 11
7783.097197605107
 21
7664.060989460074
 31
0.0
  0
LINE
  5
16FE8
330
747D
100
AcDbEntity
  8
細線
100
AcDbLine
 10
7824.097197605104
 20
7600.06098946008
 30
0.0
 11
7824.097197605111
 21
7630.060989460081
 31
0.0
  0
LINE
  5
16FE9
330
747D
100
AcDbEntity
  8
細線
100
AcDbLine
 10
7824.097197605111
 20
7630.060989460081
 30
0.0
 11
7809.097197605108
 21
7630.060989460076
 31
0.0
  0
LINE
  5
16FEA
330
747D
100
AcDbEntity
  8
細線
100
AcDbLine
 10
7809.097197605108
 20
7623.060989460076
 30
0.0
 11
7809.097197605108
 21
7630.060989460076
 31
0.0
  0
LINE
  5
16FEB
330
747D
100
AcDbEntity
  8
細線
100
AcDbLine
 10
7809.097197605087
 20
7634.060989460073
 30
0.0
 11
7803.097197605087
 21
7634.060989460073
 31
0.0
  0
LINE
  5
16FEC
330
747D
100
AcDbEntity
  8
細線
100
AcDbLine
 10
7815.097197605111
 20
7633.360989460072
 30
0.0
 11
7815.097197605111
 21
7634.060989460073
 31
0.0
  0
ARC
  5
16FED
330
747D
100
AcDbEntity
  8
細線
100
AcDbCircle
 10
7813.097197605111
 20
7633.360989460072
 30
0.0
 40
2.0
100
AcDbArc
 50
270.0
 51
0.0
  0
LINE
  5
16FEE
330
747D
100
AcDbEntity
  8
細線
100
AcDbLine
 10
7811.097197605112
 20
7631.360989460073
 30
0.0
 11
7813.097197605111
 21
7631.360989460073
 31
0.0
  0
LINE
  5
16FEF
330
747D
100
AcDbEntity
  8
細線
100
AcDbLine
 10
7809.097197605112
 20
7633.360989460072
 30
0.0
 11
7809.097197605112
 21
7634.060989460073
 31
0.0
  0
ARC
  5
16FF0
330
747D
100
AcDbEntity
  8
細線
100
AcDbCircle
 10
7811.097197605112
 20
7633.360989460072
 30
0.0
 40
2.0
100
AcDbArc
 50
180.0
 51
270.0
  0
LINE
  5
16FF1
330
747D
100
AcDbEntity
  8
細線
100
AcDbLine
 10
7798.097197605104
 20
7657.060989460074
 30
0.0
 11
7798.097197605104
 21
7664.060989460077
 31
0.0
  0
ARC
  5
16FF2
330
747D
100
AcDbEntity
  8
細線
100
AcDbCircle
 10
7610.641866765447
 20
7625.560989460153
 30
0.0
 40
6.0
100
AcDbArc
 50
204.6243183522449
 51
335.375681647755
  0
LINE
  5
16FF3
330
747D
100
AcDbEntity
  8
細線
100
AcDbLine
 10
7640.641860265474
 20
7600.060989460252
 30
0.0
 11
7633.141860265478
 21
7623.060989460182
 31
0.0
  0
LINE
  5
16FF4
330
747D
100
AcDbEntity
  8
細線
100
AcDbLine
 10
7580.641860265474
 20
7600.060989460262
 30
0.0
 11
7588.141860265482
 21
7623.060989460182
 31
0.0
  0
ARC
  5
16FF5
330
747D
100
AcDbEntity
  8
細線
100
AcDbCircle
 10
8006.597204105089
 20
7659.560989460167
 30
0.0
 40
6.0
100
AcDbArc
 50
204.6243183522449
 51
335.375681647755
  0
LINE
  5
16FF6
330
747D
100
AcDbEntity
  8
細線
100
AcDbLine
 10
7798.097197605104
 20
7664.060989460077
 30
0.0
 11
7783.097197605105
 21
7664.060989460074
 31
0.0
  0
LINE
  5
16FF7
330
747D
100
AcDbEntity
  8
寸法
 48
50.0
100
AcDbLine
 10
7746.333795704991
 20
7527.388587073616
 30
0.0
 11
7965.485735880716
 21
7527.388587073616
 31
0.0
  0
LINE
  5
16FF8
330
747D
100
AcDbEntity
  8
寸法
 48
50.0
100
AcDbLine
 10
7965.485735880716
 20
7527.388587073616
 30
0.0
 11
7876.201517285295
 21
7551.312221343103
 31
0.0
  0
LINE
  5
16FF9
330
747D
100
AcDbEntity
  8
寸法
 48
50.0
100
AcDbLine
 10
7876.201517285295
 20
7551.312221343103
 30
0.0
 11
7876.201517285295
 21
7497.648586761312
 31
0.0
  0
LINE
  5
16FFA
330
747D
100
AcDbEntity
  8
寸法
 48
50.0
100
AcDbLine
 10
7545.629975098335
 20
7494.166630588279
 30
0.0
 11
7597.035983008438
 21
7494.166630588279
 31
0.0
  0
LINE
  5
16FFB
330
747D
100
AcDbEntity
  8
寸法
 48
50.0
100
AcDbLine
 10
7597.035983008438
 20
7494.166630588279
 30
0.0
 11
7597.035983008438
 21
7525.476789240446
 31
0.0
  0
LINE
  5
16FFC
330
747D
100
AcDbEntity
  8
寸法
 48
50.0
100
AcDbLine
 10
7597.035983008438
 20
7525.476789240446
 30
0.0
 11
7626.797314999861
 21
7525.476789240446
 31
0.0
  0
LINE
  5
16FFD
330
747D
100
AcDbEntity
  8
寸法
 48
50.0
100
AcDbLine
 10
7626.797314999861
 20
7525.476789240446
 30
0.0
 11
7571.332979053391
 21
7563.056240169057
 31
0.0
  0
LINE
  5
16FFE
330
747D
100
AcDbEntity
  8
寸法
 48
50.0
100
AcDbLine
 10
7515.868643106911
 20
7525.476789240446
 30
0.0
 11
7571.332979053386
 21
7563.056240169057
 31
0.0
  0
LINE
  5
16FFF
330
747D
100
AcDbEntity
  8
寸法
 48
50.0
100
AcDbLine
 10
7545.629975098335
 20
7525.476789240446
 30
0.0
 11
7515.868643106911
 21
7525.476789240446
 31
0.0
  0
LINE
  5
17000
330
747D
100
AcDbEntity
  8
寸法
 48
50.0
100
AcDbLine
 10
7545.629975098335
 20
7494.166630588279
 30
0.0
 11
7545.629975098335
 21
7525.476789240446
 31
0.0
  0
LINE
  5
17001
330
747D
100
AcDbEntity
  8
寸法
 48
50.0
100
AcDbLine
 10
7597.035983008438
 20
7494.166630588279
 30
0.0
 11
7545.629975098335
 21
7494.166630588279
 31
0.0
  0
LINE
  5
17002
330
747D
100
AcDbEntity
  8
細線
100
AcDbLine
 10
7654.097197605103
 20
7600.060989460122
 30
0.0
 11
7364.084890956052
 21
7600.06098946008
 31
0.0
  0
LINE
  5
17003
330
747D
100
AcDbEntity
  8
細線
 48
50.0
100
AcDbLine
 10
7783.0971976051
 20
7647.060989460117
 30
0.0
 11
7373.097197605101
 21
7647.06098946005
 31
0.0
  0
LINE
  5
17004
330
747D
100
AcDbEntity
  8
細線
100
AcDbLine
 10
7809.097197605108
 20
7623.060989460142
 30
0.0
 11
7388.097197605104
 21
7623.06098946008
 31
0.0
  0
LINE
  5
17005
330
747D
100
AcDbEntity
  8
細線
100
AcDbLine
 10
7373.097197605104
 20
7604.060989460034
 30
0.0
 11
7373.097197605104
 21
7600.06098946008
 31
0.0
  0
LINE
  5
17006
330
747D
100
AcDbEntity
  8
細線
100
AcDbLine
 10
7388.097197605104
 20
7630.060989460081
 30
0.0
 11
7388.097197605104
 21
7623.06098946008
 31
0.0
  0
LINE
  5
17007
330
747D
100
AcDbEntity
  8
細線
100
AcDbLine
 10
7388.097197605104
 20
7630.060989460081
 30
0.0
 11
7373.097197605104
 21
7630.060989460081
 31
0.0
  0
LINE
  5
17008
330
747D
100
AcDbEntity
  8
細線
100
AcDbLine
 10
8215.097197605102
 20
7657.06098946019
 30
0.0
 11
7798.097197605104
 21
7657.060989460224
 31
0.0
  0
LINE
  5
17009
330
747D
100
AcDbEntity
  8
細線
 48
50.0
100
AcDbLine
 10
8623.097197605053
 20
7613.060989460108
 30
0.0
 11
7824.097197605109
 21
7613.060989460109
 31
0.0
  0
LINE
  5
1700A
330
747D
100
AcDbEntity
  8
細線
100
AcDbLine
 10
8109.265659314329
 20
7639.060989460164
 30
0.0
 11
8043.928735895859
 21
7639.060989460152
 31
0.0
  0
LINE
  5
1700B
330
747D
100
AcDbEntity
  8
細線
100
AcDbLine
 10
8111.597197605098
 20
7634.060989460178
 30
0.0
 11
8109.265659314329
 21
7639.060989460164
 31
0.0
  0
LINE
  5
1700C
330
747D
100
AcDbEntity
  8
細線
100
AcDbLine
 10
8230.097197605108
 20
7634.060989460164
 30
0.0
 11
8111.597197605105
 21
7634.060989460164
 31
0.0
  0
LINE
  5
1700D
330
747D
100
AcDbEntity
  8
細線
100
AcDbLine
 10
8200.097197605293
 20
7698.060989460106
 30
0.0
 11
8189.097197605107
 21
7698.060989460106
 31
0.0
  0
LINE
  5
1700E
330
747D
100
AcDbEntity
  8
細線
100
AcDbLine
 10
8209.097197605109
 20
7662.060989460164
 30
0.0
 11
8209.097197605109
 21
7670.060989460164
 31
0.0
  0
LINE
  5
1700F
330
747D
100
AcDbEntity
  8
細線
100
AcDbLine
 10
8209.097197605109
 20
7662.060989460164
 30
0.0
 11
8189.097197605107
 21
7662.060989460164
 31
0.0
  0
LINE
  5
17010
330
747D
100
AcDbEntity
  8
細線
100
AcDbLine
 10
8189.097197605107
 20
7662.060989460164
 30
0.0
 11
8189.097197605107
 21
7698.060989460159
 31
0.0
  0
LINE
  5
17011
330
747D
100
AcDbEntity
  8
細線
100
AcDbLine
 10
8230.097197605108
 20
7634.060989460164
 30
0.0
 11
8230.097197605116
 21
7664.060989460164
 31
0.0
  0
LINE
  5
17012
330
747D
100
AcDbEntity
  8
細線
100
AcDbLine
 10
8230.097197605108
 20
7664.060989460164
 30
0.0
 11
8215.097197605103
 21
7664.060989460161
 31
0.0
  0
LINE
  5
17013
330
747D
100
AcDbEntity
  8
細線
100
AcDbLine
 10
8215.097197605102
 20
7657.06098946016
 30
0.0
 11
8215.097197605103
 21
7664.060989460161
 31
0.0
  0
LINE
  5
17014
330
747D
100
AcDbEntity
  8
細線
100
AcDbLine
 10
8215.097197605109
 20
7670.060989460164
 30
0.0
 11
8209.097197605109
 21
7670.060989460164
 31
0.0
  0
ARC
  5
17015
330
747D
100
AcDbEntity
  8
細線
100
AcDbCircle
 10
8217.097197605108
 20
7669.360989460163
 30
0.0
 40
2.0
100
AcDbArc
 50
180.0
 51
270.0
  0
LINE
  5
17016
330
747D
100
AcDbEntity
  8
細線
100
AcDbLine
 10
8215.097197605109
 20
7669.360989460165
 30
0.0
 11
8215.097197605109
 21
7670.060989460164
 31
0.0
  0
LINE
  5
17017
330
747D
100
AcDbEntity
  8
細線
100
AcDbLine
 10
8217.097197605108
 20
7667.360989460165
 30
0.0
 11
8219.097197605107
 21
7667.360989460165
 31
0.0
  0
ARC
  5
17018
330
747D
100
AcDbEntity
  8
細線
100
AcDbCircle
 10
8219.097197605107
 20
7669.360989460163
 30
0.0
 40
2.0
100
AcDbArc
 50
270.0
 51
0.0
  0
LINE
  5
17019
330
747D
100
AcDbEntity
  8
細線
100
AcDbLine
 10
8221.097197605109
 20
7669.360989460165
 30
0.0
 11
8221.097197605109
 21
7670.060989460164
 31
0.0
  0
LINE
  5
1701A
330
747D
100
AcDbEntity
  8
細線
 48
50.0
100
AcDbLine
 10
8623.097197605053
 20
7647.060989460111
 30
0.0
 11
8230.097197605111
 21
7647.060989460111
 31
0.0
  0
LINE
  5
1701B
330
747D
100
AcDbEntity
  8
細線
100
AcDbLine
 10
8317.597197605111
 20
7670.06098946016
 30
0.0
 11
8221.097197605109
 21
7670.060989460164
 31
0.0
  0
LINE
  5
1701C
330
747D
100
AcDbEntity
  8
細線
100
AcDbLine
 10
8317.597197605108
 20
7670.060989460153
 30
0.0
 11
8319.69558206679
 21
7674.560989460125
 31
0.0
  0
LINE
  5
1701D
330
747D
100
AcDbEntity
  8
細線
100
AcDbLine
 10
8387.597197605101
 20
7670.060989460136
 30
0.0
 11
8385.498813143412
 21
7674.560989460125
 31
0.0
  0
LINE
  5
1701E
330
747D
100
AcDbEntity
  8
細線
100
AcDbLine
 10
8457.597197605119
 20
7670.060989460146
 30
0.0
 11
8459.928735895886
 21
7675.060989460131
 31
0.0
  0
LINE
  5
1701F
330
747D
100
AcDbEntity
  8
細線
100
AcDbLine
 10
8457.597197605112
 20
7670.060989460136
 30
0.0
 11
8387.597197605101
 21
7670.060989460136
 31
0.0
  0
LINE
  5
17020
330
747D
100
AcDbEntity
  8
細線
100
AcDbLine
 10
8621.097197605052
 20
7670.060989460106
 30
0.0
 11
8527.597197605119
 21
7670.06098946011
 31
0.0
  0
LINE
  5
17021
330
747D
100
AcDbEntity
  8
細線
100
AcDbLine
 10
8621.097197605052
 20
7652.060989460103
 30
0.0
 11
8621.097197605052
 21
7670.060989460104
 31
0.0
  0
LINE
  5
17022
330
747D
100
AcDbEntity
  8
細線
 48
50.0
100
AcDbLine
 10
8621.097197605052
 20
7652.060989460103
 30
0.0
 11
8623.097197605053
 21
7652.060989460103
 31
0.0
  0
LINE
  5
17023
330
747D
100
AcDbEntity
  8
細線
100
AcDbLine
 10
8527.597197605111
 20
7670.060989460127
 30
0.0
 11
8525.498813143414
 21
7674.560989460125
 31
0.0
  0
DIMENSION
  5
17024
330
747D
100
AcDbEntity
  8
寸法
100
AcDbDimension
  2
*D22
 10
6003.097197605104
 20
7069.891824499631
 30
0.0
 11
6346.097197605104
 21
7069.891824499631
 31
0.0
 70
   160
  1
有効開口部間口\P<>
 71
     5
 42
686.0
  3
INABA_S40G
100
AcDbAlignedDimension
 13
6689.097197605105
 23
7597.060989460108
 33
0.0
 14
6003.097197605104
 24
7597.060989460032
 34
0.0
100
AcDbRotatedDimension
1001
ACAD
1000
DSTYLE
1002
{
1002
}
  0
LINE
  5
17025
330
747D
100
AcDbEntity
  8
細線
100
AcDbLine
 10
6159.597197605104
 20
7618.060989460106
 30
0.0
 11
6159.597197605104
 21
7600.06098946008
 31
0.0
  0
LINE
  5
17026
330
747D
100
AcDbEntity
  8
細線
100
AcDbLine
 10
6118.597197605105
 20
7618.060989460099
 30
0.0
 11
6118.597197605105
 21
7600.06098946008
 31
0.0
  0
LINE
  5
17027
330
747D
100
AcDbEntity
  8
細線
100
AcDbLine
 10
6159.597197605104
 20
7618.060989460106
 30
0.0
 11
6118.597197605105
 21
7618.060989460099
 31
0.0
  0
ARC
  5
17028
330
747D
100
AcDbEntity
  8
部品1
100
AcDbCircle
 10
6121.14135348238
 20
7599.560989460101
 30
0.0
 40
1.0
100
AcDbArc
 50
270.0
 51
19.47122063447127
  0
LINE
  5
17029
330
747D
100
AcDbEntity
  8
部品1
 48
0.01
100
AcDbLine
 10
6114.097197605097
 20
7600.060989460104
 30
0.0
 11
6114.097197605097
 21
7599.060989460103
 31
0.0
  0
LINE
  5
1702A
330
747D
100
AcDbEntity
  8
部品1
 48
0.01
100
AcDbLine
 10
6114.597197605097
 20
7598.560989460104
 30
0.0
 11
6121.14135348238
 21
7598.560989460103
 31
0.0
  0
ARC
  5
1702B
330
747D
100
AcDbEntity
  8
部品1
 48
0.01
100
AcDbCircle
 10
6114.597197605097
 20
7599.060989460103
 30
0.0
 40
0.5
100
AcDbArc
 50
180.0
 51
270.0
  0
ARC
  5
1702C
330
747D
100
AcDbEntity
  8
部品1
100
AcDbCircle
 10
6146.597197605097
 20
7608.560989460102
 30
0.0
 40
26.0
100
AcDbArc
 50
180.0
 51
199.4712206344713
  0
ARC
  5
1702D
330
747D
100
AcDbEntity
  8
部品1
 48
0.01
100
AcDbCircle
 10
6122.597197605097
 20
7613.560989460101
 30
0.0
 40
2.0
100
AcDbArc
 50
90.0
 51
180.0
  0
LINE
  5
1702E
330
747D
100
AcDbEntity
  8
部品1
100
AcDbLine
 10
6120.597197605096
 20
7608.560989460102
 30
0.0
 11
6120.597197605096
 21
7613.560989460101
 31
0.0
  0
ARC
  5
1702F
330
747D
100
AcDbEntity
  8
部品1
100
AcDbCircle
 10
6139.097197605097
 20
7624.360989460105
 30
0.0
 40
16.0
100
AcDbArc
 50
218.3930440191599
 51
254.0576313943215
  0
ARC
  5
17030
330
747D
100
AcDbEntity
  8
部品1
100
AcDbCircle
 10
6124.20558922991
 20
7612.560989460103
 30
0.0
 40
3.0
100
AcDbArc
 50
38.39304401915988
 51
90.0
  0
LINE
  5
17031
330
747D
100
AcDbEntity
  8
部品1
 48
0.01
100
AcDbLine
 10
6122.597197605097
 20
7615.560989460103
 30
0.0
 11
6124.20558922991
 21
7615.560989460103
 31
0.0
  0
ARC
  5
17032
330
747D
100
AcDbEntity
  8
部品1
100
AcDbCircle
 10
6139.097197605097
 20
7624.360989460105
 30
0.0
 40
16.0
100
AcDbArc
 50
285.9423686056786
 51
321.6069559808401
  0
LINE
  5
17033
330
747D
100
AcDbEntity
  8
部品1
100
AcDbLine
 10
6142.667911819368
 20
7608.860989460104
 30
0.0
 11
6135.526483390826
 21
7608.860989460104
 31
0.0
  0
ARC
  5
17034
330
747D
100
AcDbEntity
  8
部品1
100
AcDbCircle
 10
6142.667911819368
 20
7611.860989460105
 30
0.0
 40
3.0
100
AcDbArc
 50
270.0
 51
285.9423686056786
  0
ARC
  5
17035
330
747D
100
AcDbEntity
  8
部品1
100
AcDbCircle
 10
6135.526483390826
 20
7611.860989460105
 30
0.0
 40
3.0
100
AcDbArc
 50
254.0576313943215
 51
270.0
  0
LINE
  5
17036
330
747D
100
AcDbEntity
  8
部品1
 48
0.01
100
AcDbLine
 10
6155.597197605096
 20
7615.560989460103
 30
0.0
 11
6153.988805980286
 21
7615.560989460103
 31
0.0
  0
ARC
  5
17037
330
747D
100
AcDbEntity
  8
部品1
100
AcDbCircle
 10
6153.988805980286
 20
7612.560989460103
 30
0.0
 40
3.0
100
AcDbArc
 50
90.0
 51
141.6069559808401
  0
ARC
  5
17038
330
747D
100
AcDbEntity
  8
部品1
 48
0.01
100
AcDbCircle
 10
6155.597197605096
 20
7613.560989460101
 30
0.0
 40
2.0
100
AcDbArc
 50
0.0
 51
90.0
  0
LINE
  5
17039
330
747D
100
AcDbEntity
  8
部品1
100
AcDbLine
 10
6157.597197605097
 20
7608.560989460102
 30
0.0
 11
6157.597197605097
 21
7613.560989460101
 31
0.0
  0
ARC
  5
1703A
330
747D
100
AcDbEntity
  8
部品1
100
AcDbCircle
 10
6131.597197605096
 20
7608.560989460102
 30
0.0
 40
26.0
100
AcDbArc
 50
340.5287793655287
 51
0.0
  0
ARC
  5
1703B
330
747D
100
AcDbEntity
  8
部品1
100
AcDbCircle
 10
6157.053041727813
 20
7599.560989460101
 30
0.0
 40
1.0
100
AcDbArc
 50
160.5287793655287
 51
270.0
  0
LINE
  5
1703C
330
747D
100
AcDbEntity
  8
部品1
 48
0.01
100
AcDbLine
 10
6163.597197605096
 20
7598.560989460104
 30
0.0
 11
6156.984692175036
 21
7598.560989460103
 31
0.0
  0
LINE
  5
1703D
330
747D
100
AcDbEntity
  8
部品1
 48
0.01
100
AcDbLine
 10
6164.097197605097
 20
7600.060989460104
 30
0.0
 11
6164.097197605097
 21
7599.060989460103
 31
0.0
  0
LINE
  5
1703E
330
747D
100
AcDbEntity
  8
部品1
 48
0.01
100
AcDbLine
 10
6164.097197605097
 20
7600.060989460104
 30
0.0
 11
6164.097197605097
 21
7599.060989460103
 31
0.0
  0
ARC
  5
1703F
330
747D
100
AcDbEntity
  8
部品1
 48
0.01
100
AcDbCircle
 10
6163.597197605096
 20
7599.060989460103
 30
0.0
 40
0.5
100
AcDbArc
 50
270.0
 51
0.0
  0
LINE
  5
17040
330
747D
100
AcDbEntity
  8
細線
100
AcDbLine
 10
6351.765659314329
 20
7605.060989460092
 30
0.0
 11
6286.428735895857
 21
7605.060989460082
 31
0.0
  0
LINE
  5
17041
330
747D
100
AcDbEntity
  8
細線
100
AcDbLine
 10
6354.097197605097
 20
7600.060989460108
 30
0.0
 11
6351.765659314329
 21
7605.060989460092
 31
0.0
  0
LINE
  5
17042
330
747D
100
AcDbEntity
  8
細線
100
AcDbLine
 10
6284.097197605104
 20
7600.060989460125
 30
0.0
 11
6286.428735895872
 21
7605.060989460111
 31
0.0
  0
ARC
  5
17043
330
747D
100
AcDbEntity
  8
細線
100
AcDbCircle
 10
6240.641866765447
 20
7625.560989460153
 30
0.0
 40
6.0
100
AcDbArc
 50
204.6243183522449
 51
335.375681647755
  0
LINE
  5
17044
330
747D
100
AcDbEntity
  8
細線
100
AcDbLine
 10
6270.641860265474
 20
7600.060989460252
 30
0.0
 11
6263.141860265477
 21
7623.060989460182
 31
0.0
  0
LINE
  5
17045
330
747D
100
AcDbEntity
  8
細線
100
AcDbLine
 10
6210.641860265474
 20
7600.060989460262
 30
0.0
 11
6218.141860265482
 21
7623.060989460182
 31
0.0
  0
LINE
  5
17046
330
747D
100
AcDbEntity
  8
細線
100
AcDbLine
 10
6454.097197605104
 20
7600.06098946008
 30
0.0
 11
6354.097197605097
 21
7600.060989460067
 31
0.0
  0
LINE
  5
17047
330
747D
100
AcDbEntity
  8
細線
100
AcDbLine
 10
6433.097197605086
 20
7630.060989460066
 30
0.0
 11
6433.097197605086
 21
7634.060989460069
 31
0.0
  0
LINE
  5
17048
330
747D
100
AcDbEntity
  8
細線
100
AcDbLine
 10
6433.097197605086
 20
7630.060989460066
 30
0.0
 11
6413.097197605097
 21
7630.060989460066
 31
0.0
  0
LINE
  5
17049
330
747D
100
AcDbEntity
  8
細線
100
AcDbLine
 10
6413.097197605097
 20
7630.060989460066
 30
0.0
 11
6413.097197605108
 21
7664.060989460074
 31
0.0
  0
LINE
  5
1704A
330
747D
100
AcDbEntity
  8
細線
100
AcDbLine
 10
6454.097197605104
 20
7600.06098946008
 30
0.0
 11
6454.097197605111
 21
7630.060989460081
 31
0.0
  0
LINE
  5
1704B
330
747D
100
AcDbEntity
  8
細線
100
AcDbLine
 10
6454.097197605111
 20
7630.060989460081
 30
0.0
 11
6439.097197605107
 21
7630.060989460076
 31
0.0
  0
LINE
  5
1704C
330
747D
100
AcDbEntity
  8
細線
100
AcDbLine
 10
6439.097197605107
 20
7623.060989460076
 30
0.0
 11
6439.097197605107
 21
7630.060989460076
 31
0.0
  0
LINE
  5
1704D
330
747D
100
AcDbEntity
  8
細線
100
AcDbLine
 10
6439.097197605086
 20
7634.060989460073
 30
0.0
 11
6433.097197605086
 21
7634.060989460073
 31
0.0
  0
LINE
  5
1704E
330
747D
100
AcDbEntity
  8
細線
100
AcDbLine
 10
6445.097197605112
 20
7633.360989460072
 30
0.0
 11
6445.097197605112
 21
7634.060989460073
 31
0.0
  0
ARC
  5
1704F
330
747D
100
AcDbEntity
  8
細線
100
AcDbCircle
 10
6443.097197605111
 20
7633.360989460072
 30
0.0
 40
2.0
100
AcDbArc
 50
270.0
 51
0.0
  0
LINE
  5
17050
330
747D
100
AcDbEntity
  8
細線
100
AcDbLine
 10
6441.097197605111
 20
7631.360989460073
 30
0.0
 11
6443.097197605111
 21
7631.360989460073
 31
0.0
  0
LINE
  5
17051
330
747D
100
AcDbEntity
  8
細線
100
AcDbLine
 10
6439.097197605112
 20
7633.360989460072
 30
0.0
 11
6439.097197605112
 21
7634.060989460073
 31
0.0
  0
ARC
  5
17052
330
747D
100
AcDbEntity
  8
細線
100
AcDbCircle
 10
6441.097197605111
 20
7633.360989460072
 30
0.0
 40
2.0
100
AcDbArc
 50
180.0
 51
270.0
  0
LINE
  5
17053
330
747D
100
AcDbEntity
  8
細線
100
AcDbLine
 10
6428.097197605104
 20
7657.060989460074
 30
0.0
 11
6428.097197605104
 21
7664.060989460077
 31
0.0
  0
LINE
  5
17054
330
747D
100
AcDbEntity
  8
細線
100
AcDbLine
 10
6428.097197605104
 20
7664.060989460077
 30
0.0
 11
6413.097197605104
 21
7664.060989460074
 31
0.0
  0
LINE
  5
17055
330
747D
100
AcDbEntity
  8
細線
100
AcDbLine
 10
6599.26565931433
 20
7639.060989460142
 30
0.0
 11
6533.928735895854
 21
7639.060989460131
 31
0.0
  0
LINE
  5
17056
330
747D
100
AcDbEntity
  8
細線
100
AcDbLine
 10
6531.597197605098
 20
7634.060989460168
 30
0.0
 11
6445.097197605115
 21
7634.06098946017
 31
0.0
  0
LINE
  5
17057
330
747D
100
AcDbEntity
  8
細線
100
AcDbLine
 10
6606.597197605123
 20
7634.060989460251
 30
0.0
 11
6614.09719760513
 21
7657.060989460167
 31
0.0
  0
LINE
  5
17058
330
747D
100
AcDbEntity
  8
細線
100
AcDbLine
 10
6531.5971976051
 20
7634.060989460175
 30
0.0
 11
6533.928735895869
 21
7639.060989460161
 31
0.0
  0
LINE
  5
17059
330
747D
100
AcDbEntity
  8
細線
100
AcDbLine
 10
6601.597197605096
 20
7634.060989460157
 30
0.0
 11
6599.26565931433
 21
7639.060989460142
 31
0.0
  0
ARC
  5
1705A
330
747D
100
AcDbEntity
  8
細線
100
AcDbCircle
 10
6636.597204105088
 20
7659.560989460167
 30
0.0
 40
6.0
100
AcDbArc
 50
204.6243183522449
 51
335.375681647755
  0
LINE
  5
1705B
330
747D
100
AcDbEntity
  8
寸法
 48
50.0
100
AcDbLine
 10
6227.035983008438
 20
7494.166630588279
 30
0.0
 11
6175.629975098335
 21
7494.166630588279
 31
0.0
  0
LINE
  5
1705C
330
747D
100
AcDbEntity
  8
寸法
 48
50.0
100
AcDbLine
 10
6175.629975098335
 20
7494.166630588279
 30
0.0
 11
6175.629975098335
 21
7525.476789240446
 31
0.0
  0
LINE
  5
1705D
330
747D
100
AcDbEntity
  8
寸法
 48
50.0
100
AcDbLine
 10
6175.629975098335
 20
7525.476789240446
 30
0.0
 11
6145.868643106911
 21
7525.476789240446
 31
0.0
  0
LINE
  5
1705E
330
747D
100
AcDbEntity
  8
寸法
 48
50.0
100
AcDbLine
 10
6145.868643106911
 20
7525.476789240446
 30
0.0
 11
6201.332979053386
 21
7563.056240169057
 31
0.0
  0
LINE
  5
1705F
330
747D
100
AcDbEntity
  8
寸法
 48
50.0
100
AcDbLine
 10
6256.797314999861
 20
7525.476789240446
 30
0.0
 11
6201.33297905339
 21
7563.056240169057
 31
0.0
  0
LINE
  5
17060
330
747D
100
AcDbEntity
  8
寸法
 48
50.0
100
AcDbLine
 10
6227.035983008438
 20
7525.476789240446
 30
0.0
 11
6256.797314999861
 21
7525.476789240446
 31
0.0
  0
LINE
  5
17061
330
747D
100
AcDbEntity
  8
寸法
 48
50.0
100
AcDbLine
 10
6227.035983008438
 20
7494.166630588279
 30
0.0
 11
6227.035983008438
 21
7525.476789240446
 31
0.0
  0
LINE
  5
17062
330
747D
100
AcDbEntity
  8
寸法
 48
50.0
100
AcDbLine
 10
6175.629975098335
 20
7494.166630588279
 30
0.0
 11
6227.035983008438
 21
7494.166630588279
 31
0.0
  0
LINE
  5
17063
330
747D
100
AcDbEntity
  8
寸法
 48
50.0
100
AcDbLine
 10
6506.201517285295
 20
7551.312221343103
 30
0.0
 11
6506.201517285295
 21
7497.648586761312
 31
0.0
  0
LINE
  5
17064
330
747D
100
AcDbEntity
  8
寸法
 48
50.0
100
AcDbLine
 10
6595.485735880718
 20
7527.388587073616
 30
0.0
 11
6506.201517285295
 21
7551.312221343103
 31
0.0
  0
LINE
  5
17065
330
747D
100
AcDbEntity
  8
寸法
 48
50.0
100
AcDbLine
 10
6376.333795704992
 20
7527.388587073616
 30
0.0
 11
6595.485735880718
 21
7527.388587073616
 31
0.0
  0
LINE
  5
17066
330
747D
100
AcDbEntity
  8
細線
 48
50.0
100
AcDbLine
 10
6413.0971976051
 20
7647.060989460117
 30
0.0
 11
6003.0971976051
 21
7647.06098946005
 31
0.0
  0
LINE
  5
17067
330
747D
100
AcDbEntity
  8
細線
100
AcDbLine
 10
6439.097197605107
 20
7623.060989460142
 30
0.0
 11
6018.097197605104
 21
7623.06098946008
 31
0.0
  0
LINE
  5
17068
330
747D
100
AcDbEntity
  8
細線
100
AcDbLine
 10
6845.097197605101
 20
7657.06098946019
 30
0.0
 11
6428.097197605104
 21
7657.060989460224
 31
0.0
  0
LINE
  5
17069
330
747D
100
AcDbEntity
  8
細線
 48
50.0
100
AcDbLine
 10
7253.097197605054
 20
7613.060989460108
 30
0.0
 11
6454.097197605108
 21
7613.060989460109
 31
0.0
  0
LINE
  5
1706A
330
747D
100
AcDbEntity
  8
細線
100
AcDbLine
 10
6666.597197605122
 20
7634.060989460241
 30
0.0
 11
6659.097197605129
 21
7657.060989460167
 31
0.0
  0
LINE
  5
1706B
330
747D
100
AcDbEntity
  8
細線
100
AcDbLine
 10
6671.597197605104
 20
7634.060989460197
 30
0.0
 11
6673.928735895872
 21
7639.060989460182
 31
0.0
  0
LINE
  5
1706C
330
747D
100
AcDbEntity
  8
細線
100
AcDbLine
 10
6671.597197605087
 20
7634.060989460164
 30
0.0
 11
6601.597197605094
 21
7634.060989460164
 31
0.0
  0
LINE
  5
1706D
330
747D
100
AcDbEntity
  8
細線
100
AcDbLine
 10
6739.26565931433
 20
7639.060989460164
 30
0.0
 11
6673.928735895858
 21
7639.060989460152
 31
0.0
  0
LINE
  5
1706E
330
747D
100
AcDbEntity
  8
細線
100
AcDbLine
 10
6741.597197605097
 20
7634.060989460178
 30
0.0
 11
6739.26565931433
 21
7639.060989460164
 31
0.0
  0
LINE
  5
1706F
330
747D
100
AcDbEntity
  8
細線
100
AcDbLine
 10
6860.097197605108
 20
7634.060989460164
 30
0.0
 11
6741.597197605104
 21
7634.060989460164
 31
0.0
  0
LINE
  5
17070
330
747D
100
AcDbEntity
  8
細線
100
AcDbLine
 10
6830.097197605294
 20
7698.060989460106
 30
0.0
 11
6819.097197605107
 21
7698.060989460106
 31
0.0
  0
LINE
  5
17071
330
747D
100
AcDbEntity
  8
細線
100
AcDbLine
 10
6839.097197605108
 20
7662.060989460164
 30
0.0
 11
6839.097197605108
 21
7670.060989460164
 31
0.0
  0
LINE
  5
17072
330
747D
100
AcDbEntity
  8
細線
100
AcDbLine
 10
6839.097197605108
 20
7662.060989460164
 30
0.0
 11
6819.097197605107
 21
7662.060989460164
 31
0.0
  0
LINE
  5
17073
330
747D
100
AcDbEntity
  8
細線
100
AcDbLine
 10
6819.097197605107
 20
7662.060989460164
 30
0.0
 11
6819.097197605107
 21
7698.060989460159
 31
0.0
  0
LINE
  5
17074
330
747D
100
AcDbEntity
  8
細線
100
AcDbLine
 10
6860.097197605108
 20
7634.060989460164
 30
0.0
 11
6860.097197605115
 21
7664.060989460164
 31
0.0
  0
LINE
  5
17075
330
747D
100
AcDbEntity
  8
細線
100
AcDbLine
 10
6860.097197605108
 20
7664.060989460164
 30
0.0
 11
6845.097197605103
 21
7664.060989460161
 31
0.0
  0
LINE
  5
17076
330
747D
100
AcDbEntity
  8
細線
100
AcDbLine
 10
6845.097197605101
 20
7657.06098946016
 30
0.0
 11
6845.097197605103
 21
7664.060989460161
 31
0.0
  0
LINE
  5
17077
330
747D
100
AcDbEntity
  8
細線
100
AcDbLine
 10
6845.097197605108
 20
7670.060989460164
 30
0.0
 11
6839.097197605108
 21
7670.060989460164
 31
0.0
  0
LINE
  5
17078
330
747D
100
AcDbEntity
  8
細線
100
AcDbLine
 10
6947.597197605109
 20
7670.060989460153
 30
0.0
 11
6949.695582066791
 21
7674.560989460125
 31
0.0
  0
LINE
  5
17079
330
747D
100
AcDbEntity
  8
細線
100
AcDbLine
 10
6947.597197605111
 20
7670.06098946016
 30
0.0
 11
6851.097197605108
 21
7670.060989460164
 31
0.0
  0
ARC
  5
1707A
330
747D
100
AcDbEntity
  8
細線
100
AcDbCircle
 10
6847.097197605108
 20
7669.360989460163
 30
0.0
 40
2.0
100
AcDbArc
 50
180.0
 51
270.0
  0
LINE
  5
1707B
330
747D
100
AcDbEntity
  8
細線
100
AcDbLine
 10
6845.097197605108
 20
7669.360989460165
 30
0.0
 11
6845.097197605108
 21
7670.060989460164
 31
0.0
  0
LINE
  5
1707C
330
747D
100
AcDbEntity
  8
細線
100
AcDbLine
 10
6847.097197605108
 20
7667.360989460165
 30
0.0
 11
6849.097197605108
 21
7667.360989460165
 31
0.0
  0
ARC
  5
1707D
330
747D
100
AcDbEntity
  8
細線
100
AcDbCircle
 10
6849.097197605108
 20
7669.360989460163
 30
0.0
 40
2.0
100
AcDbArc
 50
270.0
 51
0.0
  0
LINE
  5
1707E
330
747D
100
AcDbEntity
  8
細線
100
AcDbLine
 10
6851.097197605108
 20
7669.360989460165
 30
0.0
 11
6851.097197605108
 21
7670.060989460164
 31
0.0
  0
LINE
  5
1707F
330
747D
100
AcDbEntity
  8
細線
 48
50.0
100
AcDbLine
 10
7253.097197605054
 20
7647.060989460111
 30
0.0
 11
6860.097197605111
 21
7647.060989460111
 31
0.0
  0
LINE
  5
17080
330
747D
100
AcDbEntity
  8
細線
100
AcDbLine
 10
7087.597197605119
 20
7670.060989460146
 30
0.0
 11
7089.928735895886
 21
7675.060989460131
 31
0.0
  0
LINE
  5
17081
330
747D
100
AcDbEntity
  8
細線
100
AcDbLine
 10
7017.5971976051
 20
7670.060989460136
 30
0.0
 11
7015.498813143411
 21
7674.560989460125
 31
0.0
  0
LINE
  5
17082
330
747D
100
AcDbEntity
  8
細線
100
AcDbLine
 10
7087.597197605112
 20
7670.060989460136
 30
0.0
 11
7017.5971976051
 21
7670.060989460136
 31
0.0
  0
LINE
  5
17083
330
747D
100
AcDbEntity
  8
細線
100
AcDbLine
 10
7251.097197605052
 20
7670.060989460106
 30
0.0
 11
7157.597197605119
 21
7670.06098946011
 31
0.0
  0
LINE
  5
17084
330
747D
100
AcDbEntity
  8
細線
100
AcDbLine
 10
7251.097197605052
 20
7652.060989460103
 30
0.0
 11
7251.097197605052
 21
7670.060989460104
 31
0.0
  0
LINE
  5
17085
330
747D
100
AcDbEntity
  8
細線
 48
50.0
100
AcDbLine
 10
7251.097197605052
 20
7652.060989460103
 30
0.0
 11
7253.097197605054
 21
7652.060989460103
 31
0.0
  0
LINE
  5
17086
330
747D
100
AcDbEntity
  8
細線
100
AcDbLine
 10
7157.597197605112
 20
7670.060989460127
 30
0.0
 11
7155.498813143414
 21
7674.560989460125
 31
0.0
  0
LINE
  5
17087
330
747D
100
AcDbEntity
  8
細線
100
AcDbLine
 10
6284.097197605104
 20
7600.060989460122
 30
0.0
 11
5994.084890956052
 21
7600.06098946008
 31
0.0
  0
LINE
  5
17088
330
747D
100
AcDbEntity
  8
細線
100
AcDbLine
 10
6003.097197605104
 20
7604.060989460034
 30
0.0
 11
6003.097197605104
 21
7600.06098946008
 31
0.0
  0
LINE
  5
17089
330
747D
100
AcDbEntity
  8
細線
100
AcDbLine
 10
6018.097197605104
 20
7630.060989460081
 30
0.0
 11
6018.097197605104
 21
7623.06098946008
 31
0.0
  0
LINE
  5
1708A
330
747D
100
AcDbEntity
  8
細線
100
AcDbLine
 10
6018.097197605104
 20
7630.060989460081
 30
0.0
 11
6003.097197605104
 21
7630.060989460081
 31
0.0
  0
LINE
  5
1708B
330
747D
100
AcDbEntity
  8
細線
 48
50.0
100
AcDbLine
 10
5883.097197605053
 20
7613.060989460104
 30
0.0
 11
5474.410319051233
 21
7613.060989460104
 31
0.0
  0
DIMENSION
  5
1708C
330
747D
100
AcDbEntity
  8
寸法
100
AcDbDimension
  2
*D23
 10
4633.097197605104
 20
7069.891824499627
 30
0.0
 11
4976.097197605104
 21
7069.891824499627
 31
0.0
 70
   160
  1
有効開口部間口\P<>
 71
     5
 42
686.0
  3
INABA_S40G
100
AcDbAlignedDimension
 13
5319.097197605104
 23
7597.060989460105
 33
0.0
 14
4633.097197605104
 24
7597.06098946003
 34
0.0
100
AcDbRotatedDimension
1001
ACAD
1000
DSTYLE
1002
{
1002
}
  0
LINE
  5
1708D
330
747D
100
AcDbEntity
  8
細線
100
AcDbLine
 10
5084.097197605104
 20
7600.060989460077
 30
0.0
 11
4984.097197605097
 21
7600.060989460065
 31
0.0
  0
LINE
  5
1708E
330
747D
100
AcDbEntity
  8
寸法
 48
50.0
100
AcDbLine
 10
5006.333795704992
 20
7527.388587073613
 30
0.0
 11
5225.485735880717
 21
7527.388587073613
 31
0.0
  0
LINE
  5
1708F
330
747D
100
AcDbEntity
  8
寸法
 48
50.0
100
AcDbLine
 10
5225.485735880717
 20
7527.388587073613
 30
0.0
 11
5136.201517285296
 21
7551.3122213431
 31
0.0
  0
LINE
  5
17090
330
747D
100
AcDbEntity
  8
寸法
 48
50.0
100
AcDbLine
 10
5136.201517285296
 20
7551.3122213431
 30
0.0
 11
5136.201517285296
 21
7497.648586761307
 31
0.0
  0
LINE
  5
17091
330
747D
100
AcDbEntity
  8
寸法
 48
50.0
100
AcDbLine
 10
4805.629975098334
 20
7494.166630588276
 30
0.0
 11
4857.035983008438
 21
7494.166630588276
 31
0.0
  0
LINE
  5
17092
330
747D
100
AcDbEntity
  8
寸法
 48
50.0
100
AcDbLine
 10
4857.035983008438
 20
7494.166630588276
 30
0.0
 11
4857.035983008438
 21
7525.476789240442
 31
0.0
  0
LINE
  5
17093
330
747D
100
AcDbEntity
  8
寸法
 48
50.0
100
AcDbLine
 10
4857.035983008438
 20
7525.476789240442
 30
0.0
 11
4886.797314999862
 21
7525.476789240442
 31
0.0
  0
LINE
  5
17094
330
747D
100
AcDbEntity
  8
寸法
 48
50.0
100
AcDbLine
 10
4886.797314999862
 20
7525.476789240442
 30
0.0
 11
4831.33297905339
 21
7563.056240169053
 31
0.0
  0
LINE
  5
17095
330
747D
100
AcDbEntity
  8
寸法
 48
50.0
100
AcDbLine
 10
4775.86864310691
 20
7525.476789240442
 30
0.0
 11
4831.332979053386
 21
7563.056240169053
 31
0.0
  0
LINE
  5
17096
330
747D
100
AcDbEntity
  8
寸法
 48
50.0
100
AcDbLine
 10
4805.629975098334
 20
7525.476789240442
 30
0.0
 11
4775.86864310691
 21
7525.476789240442
 31
0.0
  0
LINE
  5
17097
330
747D
100
AcDbEntity
  8
寸法
 48
50.0
100
AcDbLine
 10
4805.629975098334
 20
7494.166630588276
 30
0.0
 11
4805.629975098334
 21
7525.476789240442
 31
0.0
  0
LINE
  5
17098
330
747D
100
AcDbEntity
  8
寸法
 48
50.0
100
AcDbLine
 10
4857.035983008438
 20
7494.166630588276
 30
0.0
 11
4805.629975098334
 21
7494.166630588276
 31
0.0
  0
LINE
  5
17099
330
747D
100
AcDbEntity
  8
細線
100
AcDbLine
 10
5236.597197605123
 20
7634.060989460248
 30
0.0
 11
5244.097197605129
 21
7657.060989460164
 31
0.0
  0
LINE
  5
1709A
330
747D
100
AcDbEntity
  8
細線
100
AcDbLine
 10
4981.765659314329
 20
7605.060989460089
 30
0.0
 11
4916.428735895857
 21
7605.060989460078
 31
0.0
  0
LINE
  5
1709B
330
747D
100
AcDbEntity
  8
細線
100
AcDbLine
 10
4984.097197605097
 20
7600.060989460104
 30
0.0
 11
4981.765659314329
 21
7605.060989460089
 31
0.0
  0
LINE
  5
1709C
330
747D
100
AcDbEntity
  8
細線
100
AcDbLine
 10
4914.097197605104
 20
7600.060989460122
 30
0.0
 11
4916.428735895872
 21
7605.060989460108
 31
0.0
  0
LINE
  5
1709D
330
747D
100
AcDbEntity
  8
細線
100
AcDbLine
 10
4789.597197605104
 20
7618.060989460102
 30
0.0
 11
4789.597197605104
 21
7600.060989460077
 31
0.0
  0
LINE
  5
1709E
330
747D
100
AcDbEntity
  8
細線
100
AcDbLine
 10
4748.597197605104
 20
7618.060989460095
 30
0.0
 11
4748.597197605104
 21
7600.060989460077
 31
0.0
  0
LINE
  5
1709F
330
747D
100
AcDbEntity
  8
細線
100
AcDbLine
 10
4789.597197605104
 20
7618.060989460102
 30
0.0
 11
4748.597197605104
 21
7618.060989460095
 31
0.0
  0
ARC
  5
170A0
330
747D
100
AcDbEntity
  8
部品1
100
AcDbCircle
 10
4751.14135348238
 20
7599.560989460099
 30
0.0
 40
1.0
100
AcDbArc
 50
270.0
 51
19.47122063447127
  0
LINE
  5
170A1
330
747D
100
AcDbEntity
  8
部品1
 48
0.01
100
AcDbLine
 10
4744.097197605096
 20
7600.0609894601
 30
0.0
 11
4744.097197605096
 21
7599.060989460101
 31
0.0
  0
LINE
  5
170A2
330
747D
100
AcDbEntity
  8
部品1
 48
0.01
100
AcDbLine
 10
4744.597197605097
 20
7598.5609894601
 30
0.0
 11
4751.14135348238
 21
7598.560989460098
 31
0.0
  0
ARC
  5
170A3
330
747D
100
AcDbEntity
  8
部品1
 48
0.01
100
AcDbCircle
 10
4744.597197605097
 20
7599.060989460101
 30
0.0
 40
0.5
100
AcDbArc
 50
180.0
 51
270.0
  0
ARC
  5
170A4
330
747D
100
AcDbEntity
  8
部品1
100
AcDbCircle
 10
4776.597197605097
 20
7608.560989460099
 30
0.0
 40
26.0
100
AcDbArc
 50
180.0
 51
199.4712206344713
  0
ARC
  5
170A5
330
747D
100
AcDbEntity
  8
部品1
 48
0.01
100
AcDbCircle
 10
4752.597197605097
 20
7613.560989460099
 30
0.0
 40
2.0
100
AcDbArc
 50
90.0
 51
180.0
  0
LINE
  5
170A6
330
747D
100
AcDbEntity
  8
部品1
100
AcDbLine
 10
4750.597197605097
 20
7608.560989460099
 30
0.0
 11
4750.597197605097
 21
7613.560989460099
 31
0.0
  0
ARC
  5
170A7
330
747D
100
AcDbEntity
  8
部品1
100
AcDbCircle
 10
4769.097197605097
 20
7624.360989460102
 30
0.0
 40
16.0
100
AcDbArc
 50
218.3930440191599
 51
254.0576313943215
  0
ARC
  5
170A8
330
747D
100
AcDbEntity
  8
部品1
100
AcDbCircle
 10
4754.20558922991
 20
7612.560989460098
 30
0.0
 40
3.0
100
AcDbArc
 50
38.39304401915988
 51
90.0
  0
LINE
  5
170A9
330
747D
100
AcDbEntity
  8
部品1
 48
0.01
100
AcDbLine
 10
4752.597197605097
 20
7615.560989460099
 30
0.0
 11
4754.20558922991
 21
7615.560989460099
 31
0.0
  0
ARC
  5
170AA
330
747D
100
AcDbEntity
  8
部品1
100
AcDbCircle
 10
4769.097197605097
 20
7624.360989460102
 30
0.0
 40
16.0
100
AcDbArc
 50
285.9423686056786
 51
321.6069559808401
  0
LINE
  5
170AB
330
747D
100
AcDbEntity
  8
部品1
100
AcDbLine
 10
4772.667911819367
 20
7608.860989460102
 30
0.0
 11
4765.526483390826
 21
7608.860989460102
 31
0.0
  0
ARC
  5
170AC
330
747D
100
AcDbEntity
  8
部品1
100
AcDbCircle
 10
4772.667911819367
 20
7611.860989460102
 30
0.0
 40
3.0
100
AcDbArc
 50
270.0
 51
285.9423686056786
  0
ARC
  5
170AD
330
747D
100
AcDbEntity
  8
部品1
100
AcDbCircle
 10
4765.526483390826
 20
7611.860989460102
 30
0.0
 40
3.0
100
AcDbArc
 50
254.0576313943215
 51
270.0
  0
LINE
  5
170AE
330
747D
100
AcDbEntity
  8
部品1
 48
0.01
100
AcDbLine
 10
4785.597197605096
 20
7615.560989460099
 30
0.0
 11
4783.988805980287
 21
7615.560989460099
 31
0.0
  0
ARC
  5
170AF
330
747D
100
AcDbEntity
  8
部品1
100
AcDbCircle
 10
4783.988805980287
 20
7612.560989460098
 30
0.0
 40
3.0
100
AcDbArc
 50
90.0
 51
141.6069559808401
  0
ARC
  5
170B0
330
747D
100
AcDbEntity
  8
部品1
 48
0.01
100
AcDbCircle
 10
4785.597197605096
 20
7613.560989460099
 30
0.0
 40
2.0
100
AcDbArc
 50
0.0
 51
90.0
  0
LINE
  5
170B1
330
747D
100
AcDbEntity
  8
部品1
100
AcDbLine
 10
4787.597197605097
 20
7608.560989460099
 30
0.0
 11
4787.597197605097
 21
7613.560989460099
 31
0.0
  0
ARC
  5
170B2
330
747D
100
AcDbEntity
  8
部品1
100
AcDbCircle
 10
4761.597197605097
 20
7608.560989460099
 30
0.0
 40
26.0
100
AcDbArc
 50
340.5287793655287
 51
0.0
  0
ARC
  5
170B3
330
747D
100
AcDbEntity
  8
部品1
100
AcDbCircle
 10
4787.053041727813
 20
7599.560989460099
 30
0.0
 40
1.0
100
AcDbArc
 50
160.5287793655287
 51
270.0
  0
LINE
  5
170B4
330
747D
100
AcDbEntity
  8
部品1
 48
0.01
100
AcDbLine
 10
4793.597197605097
 20
7598.5609894601
 30
0.0
 11
4786.984692175035
 21
7598.560989460098
 31
0.0
  0
LINE
  5
170B5
330
747D
100
AcDbEntity
  8
部品1
 48
0.01
100
AcDbLine
 10
4794.097197605096
 20
7600.0609894601
 30
0.0
 11
4794.097197605096
 21
7599.060989460101
 31
0.0
  0
LINE
  5
170B6
330
747D
100
AcDbEntity
  8
部品1
 48
0.01
100
AcDbLine
 10
4794.097197605096
 20
7600.0609894601
 30
0.0
 11
4794.097197605096
 21
7599.060989460101
 31
0.0
  0
ARC
  5
170B7
330
747D
100
AcDbEntity
  8
部品1
 48
0.01
100
AcDbCircle
 10
4793.597197605097
 20
7599.060989460101
 30
0.0
 40
0.5
100
AcDbArc
 50
270.0
 51
0.0
  0
LINE
  5
170B8
330
747D
100
AcDbEntity
  8
細線
100
AcDbLine
 10
5161.5971976051
 20
7634.060989460171
 30
0.0
 11
5163.928735895868
 21
7639.060989460157
 31
0.0
  0
LINE
  5
170B9
330
747D
100
AcDbEntity
  8
細線
100
AcDbLine
 10
5231.597197605097
 20
7634.060989460152
 30
0.0
 11
5229.265659314329
 21
7639.060989460138
 31
0.0
  0
LINE
  5
170BA
330
747D
100
AcDbEntity
  8
細線
100
AcDbLine
 10
5229.265659314329
 20
7639.060989460138
 30
0.0
 11
5163.928735895854
 21
7639.060989460128
 31
0.0
  0
LINE
  5
170BB
330
747D
100
AcDbEntity
  8
細線
100
AcDbLine
 10
5161.597197605097
 20
7634.060989460164
 30
0.0
 11
5075.097197605115
 21
7634.060989460166
 31
0.0
  0
LINE
  5
170BC
330
747D
100
AcDbEntity
  8
細線
100
AcDbLine
 10
5063.097197605086
 20
7630.060989460062
 30
0.0
 11
5063.097197605086
 21
7634.060989460066
 31
0.0
  0
LINE
  5
170BD
330
747D
100
AcDbEntity
  8
細線
100
AcDbLine
 10
5063.097197605086
 20
7630.060989460062
 30
0.0
 11
5043.097197605097
 21
7630.060989460062
 31
0.0
  0
LINE
  5
170BE
330
747D
100
AcDbEntity
  8
細線
100
AcDbLine
 10
5043.097197605097
 20
7630.060989460062
 30
0.0
 11
5043.097197605107
 21
7664.060989460072
 31
0.0
  0
LINE
  5
170BF
330
747D
100
AcDbEntity
  8
細線
100
AcDbLine
 10
5084.097197605104
 20
7600.060989460077
 30
0.0
 11
5084.097197605111
 21
7630.060989460076
 31
0.0
  0
LINE
  5
170C0
330
747D
100
AcDbEntity
  8
細線
100
AcDbLine
 10
5084.097197605111
 20
7630.060989460076
 30
0.0
 11
5069.097197605108
 21
7630.060989460073
 31
0.0
  0
LINE
  5
170C1
330
747D
100
AcDbEntity
  8
細線
100
AcDbLine
 10
5069.097197605108
 20
7623.060989460073
 30
0.0
 11
5069.097197605108
 21
7630.060989460073
 31
0.0
  0
LINE
  5
170C2
330
747D
100
AcDbEntity
  8
細線
100
AcDbLine
 10
5069.097197605086
 20
7634.060989460069
 30
0.0
 11
5063.097197605086
 21
7634.060989460069
 31
0.0
  0
LINE
  5
170C3
330
747D
100
AcDbEntity
  8
細線
100
AcDbLine
 10
5075.097197605112
 20
7633.360989460069
 30
0.0
 11
5075.097197605112
 21
7634.060989460069
 31
0.0
  0
ARC
  5
170C4
330
747D
100
AcDbEntity
  8
細線
100
AcDbCircle
 10
5073.097197605111
 20
7633.360989460069
 30
0.0
 40
2.0
100
AcDbArc
 50
270.0
 51
0.0
  0
LINE
  5
170C5
330
747D
100
AcDbEntity
  8
細線
100
AcDbLine
 10
5071.097197605111
 20
7631.360989460069
 30
0.0
 11
5073.097197605111
 21
7631.360989460069
 31
0.0
  0
LINE
  5
170C6
330
747D
100
AcDbEntity
  8
細線
100
AcDbLine
 10
5069.097197605112
 20
7633.360989460069
 30
0.0
 11
5069.097197605112
 21
7634.060989460069
 31
0.0
  0
ARC
  5
170C7
330
747D
100
AcDbEntity
  8
細線
100
AcDbCircle
 10
5071.097197605111
 20
7633.360989460069
 30
0.0
 40
2.0
100
AcDbArc
 50
180.0
 51
270.0
  0
LINE
  5
170C8
330
747D
100
AcDbEntity
  8
細線
100
AcDbLine
 10
5058.097197605104
 20
7657.060989460069
 30
0.0
 11
5058.097197605104
 21
7664.060989460073
 31
0.0
  0
ARC
  5
170C9
330
747D
100
AcDbEntity
  8
細線
100
AcDbCircle
 10
4870.641866765447
 20
7625.560989460149
 30
0.0
 40
6.0
100
AcDbArc
 50
204.6243183522449
 51
335.375681647755
  0
LINE
  5
170CA
330
747D
100
AcDbEntity
  8
細線
100
AcDbLine
 10
4900.641860265474
 20
7600.060989460247
 30
0.0
 11
4893.141860265478
 21
7623.060989460178
 31
0.0
  0
LINE
  5
170CB
330
747D
100
AcDbEntity
  8
細線
100
AcDbLine
 10
4840.641860265474
 20
7600.060989460259
 30
0.0
 11
4848.141860265481
 21
7623.060989460178
 31
0.0
  0
ARC
  5
170CC
330
747D
100
AcDbEntity
  8
細線
100
AcDbCircle
 10
5266.597204105089
 20
7659.560989460164
 30
0.0
 40
6.0
100
AcDbArc
 50
204.6243183522449
 51
335.375681647755
  0
LINE
  5
170CD
330
747D
100
AcDbEntity
  8
細線
100
AcDbLine
 10
5058.097197605104
 20
7664.060989460073
 30
0.0
 11
5043.097197605104
 21
7664.060989460072
 31
0.0
  0
LINE
  5
170CE
330
747D
100
AcDbEntity
  8
細線
100
AcDbLine
 10
5296.597197605122
 20
7634.060989460237
 30
0.0
 11
5289.09719760513
 21
7657.060989460164
 31
0.0
  0
LINE
  5
170CF
330
747D
100
AcDbEntity
  8
細線
100
AcDbLine
 10
5301.597197605104
 20
7634.060989460192
 30
0.0
 11
5303.928735895872
 21
7639.060989460178
 31
0.0
  0
LINE
  5
170D0
330
747D
100
AcDbEntity
  8
細線
100
AcDbLine
 10
5301.597197605087
 20
7634.060989460159
 30
0.0
 11
5231.597197605093
 21
7634.060989460159
 31
0.0
  0
LINE
  5
170D1
330
747D
100
AcDbEntity
  8
細線
 48
50.0
100
AcDbLine
 10
5043.0971976051
 20
7647.060989460112
 30
0.0
 11
4633.0971976051
 21
7647.060989460046
 31
0.0
  0
LINE
  5
170D2
330
747D
100
AcDbEntity
  8
細線
100
AcDbLine
 10
5069.097197605108
 20
7623.060989460139
 30
0.0
 11
4648.097197605104
 21
7623.060989460076
 31
0.0
  0
LINE
  5
170D3
330
747D
100
AcDbEntity
  8
細線
 48
50.0
100
AcDbLine
 10
5443.947520694659
 20
7613.060989460104
 30
0.0
 11
5084.097197605108
 21
7613.060989460106
 31
0.0
  0
LINE
  5
170D4
330
747D
100
AcDbEntity
  8
細線
100
AcDbLine
 10
5436.189133543471
 20
7657.060989460187
 30
0.0
 11
5058.097197605104
 21
7657.060989460219
 31
0.0
  0
LINE
  5
170D5
330
747D
100
AcDbEntity
  8
細線
100
AcDbLine
 10
4914.097197605104
 20
7600.060989460118
 30
0.0
 11
4624.084890956051
 21
7600.060989460077
 31
0.0
  0
LINE
  5
170D6
330
747D
100
AcDbEntity
  8
細線
100
AcDbLine
 10
4633.097197605104
 20
7604.060989460029
 30
0.0
 11
4633.097197605104
 21
7600.060989460077
 31
0.0
  0
LINE
  5
170D7
330
747D
100
AcDbEntity
  8
細線
100
AcDbLine
 10
4648.097197605104
 20
7630.060989460076
 30
0.0
 11
4648.097197605104
 21
7623.060989460076
 31
0.0
  0
LINE
  5
170D8
330
747D
100
AcDbEntity
  8
細線
100
AcDbLine
 10
4648.097197605104
 20
7630.060989460076
 30
0.0
 11
4633.097197605104
 21
7630.060989460076
 31
0.0
  0
LINE
  5
170D9
330
747D
100
AcDbEntity
  8
細線
100
AcDbLine
 10
5369.265659314329
 20
7639.060989460161
 30
0.0
 11
5303.928735895858
 21
7639.060989460149
 31
0.0
  0
LINE
  5
170DA
330
747D
100
AcDbEntity
  8
細線
100
AcDbLine
 10
5371.597197605098
 20
7634.060989460175
 30
0.0
 11
5369.265659314329
 21
7639.060989460161
 31
0.0
  0
LINE
  5
170DB
330
747D
100
AcDbEntity
  8
細線
100
AcDbLine
 10
5440.24465409977
 20
7634.060989460163
 30
0.0
 11
5371.597197605105
 21
7634.060989460159
 31
0.0
  0
LINE
  5
170DC
330
747D
100
AcDbEntity
  8
細線
100
AcDbLine
 10
5475.097197605101
 20
7657.060989460186
 30
0.0
 11
5466.651931900043
 21
7657.060989460187
 31
0.0
  0
LINE
  5
170DD
330
747D
100
AcDbEntity
  8
細線
100
AcDbLine
 10
5469.097197605108
 20
7662.06098946016
 30
0.0
 11
5469.097197605108
 21
7670.06098946016
 31
0.0
  0
LINE
  5
170DE
330
747D
100
AcDbEntity
  8
細線
100
AcDbLine
 10
5469.097197605108
 20
7662.06098946016
 30
0.0
 11
5465.770296996506
 21
7662.060989460158
 31
0.0
  0
LINE
  5
170DF
330
747D
100
AcDbEntity
  8
細線
100
AcDbLine
 10
5490.097197605108
 20
7664.060989460161
 30
0.0
 11
5475.097197605104
 21
7664.060989460157
 31
0.0
  0
LINE
  5
170E0
330
747D
100
AcDbEntity
  8
細線
100
AcDbLine
 10
5475.097197605101
 20
7657.060989460157
 30
0.0
 11
5475.097197605104
 21
7664.060989460157
 31
0.0
  0
LINE
  5
170E1
330
747D
100
AcDbEntity
  8
細線
100
AcDbLine
 10
5475.097197605108
 20
7670.06098946016
 30
0.0
 11
5469.097197605108
 21
7670.06098946016
 31
0.0
  0
LINE
  5
170E2
330
747D
100
AcDbEntity
  8
細線
100
AcDbLine
 10
5577.597197605108
 20
7670.06098946015
 30
0.0
 11
5579.69558206679
 21
7674.560989460122
 31
0.0
  0
LINE
  5
170E3
330
747D
100
AcDbEntity
  8
細線
100
AcDbLine
 10
5577.597197605111
 20
7670.060989460157
 30
0.0
 11
5481.097197605108
 21
7670.06098946016
 31
0.0
  0
ARC
  5
170E4
330
747D
100
AcDbEntity
  8
細線
100
AcDbCircle
 10
5477.097197605107
 20
7669.360989460159
 30
0.0
 40
2.0
100
AcDbArc
 50
180.0
 51
270.0
  0
LINE
  5
170E5
330
747D
100
AcDbEntity
  8
細線
100
AcDbLine
 10
5475.097197605108
 20
7669.360989460162
 30
0.0
 11
5475.097197605108
 21
7670.06098946016
 31
0.0
  0
LINE
  5
170E6
330
747D
100
AcDbEntity
  8
細線
100
AcDbLine
 10
5477.097197605107
 20
7667.360989460161
 30
0.0
 11
5479.097197605108
 21
7667.360989460161
 31
0.0
  0
ARC
  5
170E7
330
747D
100
AcDbEntity
  8
細線
100
AcDbCircle
 10
5479.097197605108
 20
7669.360989460159
 30
0.0
 40
2.0
100
AcDbArc
 50
270.0
 51
0.0
  0
LINE
  5
170E8
330
747D
100
AcDbEntity
  8
細線
100
AcDbLine
 10
5481.097197605108
 20
7669.360989460162
 30
0.0
 11
5481.097197605108
 21
7670.06098946016
 31
0.0
  0
LINE
  5
170E9
330
747D
100
AcDbEntity
  8
細線
100
AcDbLine
 10
5490.097197605108
 20
7634.060989460159
 30
0.0
 11
5470.707452456343
 21
7634.060989460159
 31
0.0
  0
LINE
  5
170EA
330
747D
100
AcDbEntity
  8
細線
100
AcDbLine
 10
5490.097197605108
 20
7634.060989460159
 30
0.0
 11
5490.097197605115
 21
7664.060989460161
 31
0.0
  0
LINE
  5
170EB
330
747D
100
AcDbEntity
  8
細線
 48
50.0
100
AcDbLine
 10
5883.097197605053
 20
7647.060989460108
 30
0.0
 11
5490.097197605112
 21
7647.060989460108
 31
0.0
  0
LINE
  5
170EC
330
747D
100
AcDbEntity
  8
細線
100
AcDbLine
 10
5717.597197605119
 20
7670.060989460143
 30
0.0
 11
5719.928735895886
 21
7675.060989460128
 31
0.0
  0
LINE
  5
170ED
330
747D
100
AcDbEntity
  8
細線
100
AcDbLine
 10
5647.597197605101
 20
7670.060989460131
 30
0.0
 11
5645.498813143412
 21
7674.560989460122
 31
0.0
  0
LINE
  5
170EE
330
747D
100
AcDbEntity
  8
細線
100
AcDbLine
 10
5717.597197605112
 20
7670.060989460131
 30
0.0
 11
5647.597197605101
 21
7670.060989460131
 31
0.0
  0
LINE
  5
170EF
330
747D
100
AcDbEntity
  8
細線
100
AcDbLine
 10
5881.097197605053
 20
7670.060989460101
 30
0.0
 11
5787.597197605119
 21
7670.060989460106
 31
0.0
  0
LINE
  5
170F0
330
747D
100
AcDbEntity
  8
細線
100
AcDbLine
 10
5787.597197605112
 20
7670.060989460124
 30
0.0
 11
5785.498813143415
 21
7674.560989460122
 31
0.0
  0
LINE
  5
170F1
330
747D
100
AcDbEntity
  8
細線
100
AcDbLine
 10
5881.097197605053
 20
7652.060989460101
 30
0.0
 11
5881.097197605053
 21
7670.0609894601
 31
0.0
  0
LINE
  5
170F2
330
747D
100
AcDbEntity
  8
細線
 48
50.0
100
AcDbLine
 10
5881.097197605053
 20
7652.060989460101
 30
0.0
 11
5883.097197605053
 21
7652.060989460101
 31
0.0
  0
LINE
  5
1732F
330
747D
100
AcDbEntity
  8
部品1
100
AcDbLine
 10
10618.89457941259
 20
4965.081001864849
 30
0.0
 11
12408.89457941259
 21
4965.081001864849
 31
0.0
  0
LINE
  5
17330
330
747D
100
AcDbEntity
  8
部品1
100
AcDbLine
 10
10618.89457941259
 20
3175.081001864848
 30
0.0
 11
12408.89457941259
 21
3175.081001864848
 31
0.0
  0
LINE
  5
17332
330
747D
100
AcDbEntity
  8
部品1
100
AcDbLine
 10
10673.89457941259
 20
4965.081001864849
 30
0.0
 11
10673.89457941259
 21
3175.081001864848
 31
0.0
  0
LINE
  5
17333
330
747D
100
AcDbEntity
  8
部品1
100
AcDbLine
 10
10618.89457941259
 20
5056.939521307096
 30
0.0
 11
10618.89457941259
 21
3025.081001864848
 31
0.0
  0
DIMENSION
  5
17334
330
747D
100
AcDbEntity
  8
寸法
100
AcDbDimension
  2
*D24
 10
10073.98593801533
 20
3187.081001864848
 30
0.0
 11
9973.985938015337
 21
4072.081001864851
 31
0.0
 70
    32
  1
有効開口部高サ<>
 71
     5
 42
1770.0
  3
INABA_S40G
100
AcDbAlignedDimension
 13
10618.89457941259
 23
4957.081001864848
 33
0.0
 14
10618.89457941259
 24
3187.081001864848
 34
0.0
 50
90.0
100
AcDbRotatedDimension
1001
ACAD
1000
DSTYLE
1002
{
1070
   174
1070
     0
1070
   272
1070
     1
1070
   288
1070
     0
1070
   341
1005
0
1002
}
  0
DIMENSION
  5
17335
330
747D
100
AcDbEntity
  8
寸法
100
AcDbDimension
  2
*D25
 10
9775.144450229332
 20
3175.081001864848
 30
0.0
 11
9675.144450229332
 21
4070.08100186485
 31
0.0
 70
    32
 71
     5
 42
1790.0
  3
INABA_S40G
100
AcDbAlignedDimension
 13
10618.89457941259
 23
4965.081001864849
 33
0.0
 14
10618.89457941259
 24
3175.081001864848
 34
0.0
 50
90.0
100
AcDbRotatedDimension
1001
ACAD
1000
DSTYLE
1002
{
1070
   174
1070
     0
1070
   272
1070
     1
1070
   288
1070
     0
1070
   341
1005
0
1002
}
  0
DIMENSION
  5
17336
330
747D
100
AcDbEntity
  8
寸法
100
AcDbDimension
  2
*D26
 10
9475.144450229331
 20
5200.081001864854
 30
0.0
 11
9375.132639205707
 21
4162.581001864851
 31
0.0
 70
    32
 71
     5
 42
2075.000000000005
  3
INABA_S40G
100
AcDbAlignedDimension
 13
10618.89457941259
 23
3125.081001864848
 33
0.0
 14
10558.89457941259
 24
5200.081001864853
 34
0.0
 50
90.0
100
AcDbRotatedDimension
1001
ACAD
1000
DSTYLE
1002
{
1070
   174
1070
     0
1070
   272
1070
     1
1070
   288
1070
     0
1070
   341
1005
0
1002
}
  0
DIMENSION
  5
17338
330
747D
100
AcDbEntity
  8
寸法
100
AcDbDimension
  2
*D27
 10
9775.144450229332
 20
3125.081001864848
 30
0.0
 11
9775.144450229332
 21
2819.033757770359
 31
0.0
 70
   160
 71
     5
 42
50.0
  3
INABA_S40G
100
AcDbAlignedDimension
 13
10618.89457941259
 23
3175.081001864848
 33
0.0
 14
10563.89457941259
 24
3125.081001864848
 34
0.0
 50
90.0
100
AcDbRotatedDimension
1001
ACAD
1000
DSTYLE
1002
{
1070
   174
1070
     0
1070
   272
1070
     1
1070
   288
1070
     0
1070
   341
1005
0
1002
}
  0
LINE
  5
17339
330
747D
100
AcDbEntity
  8
部品1
100
AcDbLine
 10
11093.89457941259
 20
4965.081001864849
 30
0.0
 11
11093.89457941259
 21
3175.081001864848
 31
0.0
  0
LINE
  5
1733A
330
747D
100
AcDbEntity
  8
部品1
100
AcDbLine
 10
12408.89457941259
 20
5019.962810550854
 30
0.0
 11
12408.89457941259
 21
3025.081001864848
 31
0.0
  0
LINE
  5
1733B
330
747D
100
AcDbEntity
  8
部品1
100
AcDbLine
 10
12353.89457941259
 20
4965.081001864849
 30
0.0
 11
12353.89457941259
 21
3175.081001864848
 31
0.0
  0
DIMENSION
  5
1733C
330
747D
100
AcDbEntity
  8
寸法
100
AcDbDimension
  2
*D28
 10
12994.48984796979
 20
5145.081001864848
 30
0.0
 11
12994.48984796978
 21
4136.075669189263
 31
0.0
 70
   160
 71
     5
 42
2020.000000000001
  3
INABA_S40G
100
AcDbAlignedDimension
 13
12408.89457941259
 23
3125.081001864848
 33
0.0
 14
12488.89457941259
 24
5145.081001864848
 34
0.0
 50
90.0
100
AcDbRotatedDimension
1001
ACAD
1000
DSTYLE
1002
{
1070
   174
1070
     0
1070
   272
1070
     1
1070
   288
1070
     0
1070
   341
1005
0
1002
}
  0
DIMENSION
  5
1733F
330
747D
100
AcDbEntity
  8
寸法
 48
50.0
100
AcDbDimension
  2
*D29
 10
10618.89457941259
 20
5599.174171204321
 30
0.0
 11
11528.49022808907
 21
5599.174171204321
 31
0.0
 70
   160
  1
柱外寸法<>
 71
     5
 42
1790.0
  3
INABA_S40G
100
AcDbAlignedDimension
 13
12408.89457941259
 23
5146.891681476502
 33
0.0
 14
10618.89457941259
 24
5196.082619987825
 34
0.0
100
AcDbRotatedDimension
1001
ACAD
1000
DSTYLE
1002
{
1070
   174
1070
     0
1070
   272
1070
     1
1070
   288
1070
     0
1070
   341
1005
0
1002
}
  0
DIMENSION
  5
17340
330
747D
100
AcDbEntity
  8
寸法
 48
50.0
100
AcDbDimension
  2
*D30
 10
10558.89457941259
 20
5598.738455444152
 30
0.0
 11
10249.256784137
 21
5598.738455444152
 31
0.0
 70
   160
 71
     5
 42
60.0
  3
INABA_S40G
100
AcDbAlignedDimension
 13
10618.89457941259
 23
5196.082619987825
 33
0.0
 14
10558.89457941259
 24
5200.081001864853
 34
0.0
100
AcDbRotatedDimension
1001
ACAD
1000
DSTYLE
1002
{
1070
   174
1070
     0
1070
   272
1070
     1
1070
   288
1070
     0
1070
   341
1005
0
1002
}
  0
DIMENSION
  5
17341
330
747D
100
AcDbEntity
  8
寸法
 48
50.0
100
AcDbDimension
  2
*D31
 10
10558.89457941259
 20
5815.700270822766
 30
0.0
 11
11464.70033066356
 21
5815.700270822766
 31
0.0
 70
   160
 71
     5
 42
1930.0
  3
INABA_S40G
100
AcDbAlignedDimension
 13
12488.89457941259
 23
5145.081001864848
 33
0.0
 14
10558.89457941259
 24
5200.081001864853
 34
0.0
100
AcDbRotatedDimension
1001
ACAD
1000
DSTYLE
1002
{
1070
   174
1070
     0
1070
   272
1070
     1
1070
   288
1070
     0
1070
   341
1005
0
1002
}
  0
LINE
  5
1735B
330
747D
100
AcDbEntity
  8
部品1
100
AcDbLine
 10
10618.89457941259
 20
3125.081001864849
 30
0.0
 11
12408.89457941259
 21
3125.081001864848
 31
0.0
  0
LINE
  5
1735E
330
747D
100
AcDbEntity
  8
細線
 48
50.0
100
AcDbLine
 10
11171.39457941259
 20
4965.081001864849
 30
0.0
 11
11171.39457941259
 21
3175.081001864848
 31
0.0
  0
LINE
  5
1735F
330
747D
100
AcDbEntity
  8
細線
 48
50.0
100
AcDbLine
 10
11156.39457941259
 20
4965.081001864849
 30
0.0
 11
11156.39457941259
 21
3175.081001864848
 31
0.0
  0
LINE
  5
17360
330
747D
100
AcDbEntity
  8
細線
 48
50.0
100
AcDbLine
 10
11296.39457941259
 20
4965.081001864849
 30
0.0
 11
11296.39457941259
 21
3175.081001864848
 31
0.0
  0
LINE
  5
17361
330
747D
100
AcDbEntity
  8
細線
 48
50.0
100
AcDbLine
 10
11311.39457941259
 20
4965.081001864849
 30
0.0
 11
11311.39457941259
 21
3175.081001864848
 31
0.0
  0
LINE
  5
17362
330
747D
100
AcDbEntity
  8
細線
 48
50.0
100
AcDbLine
 10
11451.39457941259
 20
4965.081001864849
 30
0.0
 11
11451.39457941259
 21
3175.081001864848
 31
0.0
  0
LINE
  5
17363
330
747D
100
AcDbEntity
  8
細線
 48
50.0
100
AcDbLine
 10
11436.39457941259
 20
4965.081001864849
 30
0.0
 11
11436.39457941259
 21
3175.081001864848
 31
0.0
  0
LINE
  5
17364
330
747D
100
AcDbEntity
  8
細線
 48
50.0
100
AcDbLine
 10
11016.39457941259
 20
4965.081001864849
 30
0.0
 11
11016.39457941259
 21
3175.081001864848
 31
0.0
  0
LINE
  5
17365
330
747D
100
AcDbEntity
  8
細線
 48
50.0
100
AcDbLine
 10
11031.39457941259
 20
4965.081001864849
 30
0.0
 11
11031.39457941259
 21
3175.081001864848
 31
0.0
  0
LINE
  5
17366
330
747D
100
AcDbEntity
  8
細線
 48
50.0
100
AcDbLine
 10
10891.39457941259
 20
4965.081001864849
 30
0.0
 11
10891.39457941259
 21
3175.081001864848
 31
0.0
  0
LINE
  5
17367
330
747D
100
AcDbEntity
  8
細線
 48
50.0
100
AcDbLine
 10
10876.39457941259
 20
4965.081001864849
 30
0.0
 11
10876.39457941259
 21
3175.081001864848
 31
0.0
  0
LINE
  5
17368
330
747D
100
AcDbEntity
  8
細線
 48
50.0
100
AcDbLine
 10
10736.39457941259
 20
4965.081001864849
 30
0.0
 11
10736.39457941259
 21
3175.081001864848
 31
0.0
  0
LINE
  5
17369
330
747D
100
AcDbEntity
  8
細線
 48
50.0
100
AcDbLine
 10
10751.39457941259
 20
4965.081001864849
 30
0.0
 11
10751.39457941259
 21
3175.081001864848
 31
0.0
  0
LINE
  5
1736A
330
747D
100
AcDbEntity
  8
部品1
100
AcDbLine
 10
10566.43956576955
 20
5198.798737199116
 30
0.0
 11
12481.50645627405
 21
5143.721799573988
 31
0.0
  0
LINE
  5
1736B
330
747D
100
AcDbEntity
  8
部品1
100
AcDbLine
 10
10574.23714401454
 20
5057.862026933815
 30
0.0
 11
12463.55827995243
 21
5018.83360169961
 31
0.0
  0
LINE
  5
1736C
330
747D
100
AcDbEntity
  8
細線
 48
50.0
100
AcDbLine
 10
10591.89457941259
 20
5197.480678240253
 30
0.0
 11
10586.60547785708
 21
5057.395045612899
 31
0.0
  0
LINE
  5
1736D
330
747D
100
AcDbEntity
  8
細線
 48
50.0
100
AcDbLine
 10
12455.89457941259
 20
5145.047980900145
 30
0.0
 11
12451.14689652459
 21
5019.3022084094
 31
0.0
  0
LINE
  5
1736E
330
747D
100
AcDbEntity
  8
部品1
 48
50.0
100
AcDbLine
 10
10559.07886532569
 20
5191.674548029541
 30
0.0
 11
10559.45912510351
 21
5171.74758358313
 31
0.0
  0
LINE
  5
1736F
330
747D
100
AcDbEntity
  8
部品1
 48
50.0
100
AcDbLine
 10
10562.52789720975
 20
5168.172302089657
 30
0.0
 11
10564.23179870112
 21
5078.88180538301
 31
0.0
  0
LINE
  5
17370
330
747D
100
AcDbEntity
  8
細線
 48
50.0
100
AcDbLine
 10
10559.9340025134
 20
5171.098083706209
 30
0.0
 11
12485.56998725857
 21
5115.473879065382
 31
0.0
  0
LINE
  5
17371
330
747D
100
AcDbEntity
  8
細線
 48
50.0
100
AcDbLine
 10
10564.69447775069
 20
5078.236572008346
 30
0.0
 11
12474.69814218132
 21
5038.427253033853
 31
0.0
  0
LINE
  5
17372
330
747D
100
AcDbEntity
  8
部品1
 48
50.0
100
AcDbLine
 10
10567.30057080736
 20
5075.306523889538
 30
0.0
 11
10567.50252342779
 21
5064.723488496445
 31
0.0
  0
ARC
  5
17373
330
747D
100
AcDbEntity
  8
部品1
 48
50.0
100
AcDbCircle
 10
10566.07759115403
 20
5191.808102436969
 30
0.0
 40
7.0
100
AcDbArc
 50
87.03587545293501
 51
181.0932240292895
  0
ARC
  5
17374
330
747D
100
AcDbEntity
  8
部品1
 48
50.0
100
AcDbCircle
 10
10574.50124925613
 20
5064.857042903874
 30
0.0
 40
7.0
100
AcDbArc
 50
181.0932240292895
 51
267.8377559870533
  0
ARC
  5
17375
330
747D
100
AcDbEntity
  8
部品1
100
AcDbCircle
 10
10564.30111688093
 20
5075.249286286354
 30
0.0
 40
3.0
100
AcDbArc
 50
1.093224029289586
 51
80.18775403148449
  0
ARC
  5
17376
330
747D
100
AcDbEntity
  8
部品1
100
AcDbCircle
 10
10559.52844328332
 20
5168.115064486474
 30
0.0
 40
3.0
100
AcDbArc
 50
1.093224029289586
 51
80.18775403159162
  0
ARC
  5
17377
330
747D
100
AcDbEntity
  8
部品1
100
AcDbCircle
 10
10560.15899768635
 20
5171.760939023871
 30
0.0
 40
0.7
100
AcDbArc
 50
181.0932240292375
 51
260.1877540315916
  0
ARC
  5
17378
330
747D
100
AcDbEntity
  8
部品1
100
AcDbCircle
 10
10564.93167128395
 20
5078.895160823752
 30
0.0
 40
0.7
100
AcDbArc
 50
181.0932240292375
 51
260.1877540315916
  0
LINE
  5
17379
330
747D
100
AcDbEntity
  8
部品1
 48
50.0
100
AcDbLine
 10
12488.10848222329
 20
5136.022154139066
 30
0.0
 11
12486.07786103232
 21
5116.077112881287
 31
0.0
  0
LINE
  5
1737A
330
747D
100
AcDbEntity
  8
部品1
 48
50.0
100
AcDbLine
 10
12482.72529454784
 20
5112.766478808378
 30
0.0
 11
12475.218515283
 21
5039.033858063366
 31
0.0
  0
LINE
  5
1737B
330
747D
100
AcDbEntity
  8
部品1
 48
50.0
100
AcDbLine
 10
12471.86594879851
 20
5035.723223990453
 30
0.0
 11
12470.78638575877
 21
5025.119606996895
 31
0.0
  0
ARC
  5
1737C
330
747D
100
AcDbEntity
  8
部品1
 48
50.0
100
AcDbCircle
 10
12481.14448165853
 20
5136.731164811841
 30
0.0
 40
7.0
100
AcDbArc
 50
354.1866997665273
 51
87.03587545293501
  0
ARC
  5
1737D
330
747D
100
AcDbEntity
  8
部品1
 48
50.0
100
AcDbCircle
 10
12463.82238519402
 20
5025.828617669668
 30
0.0
 40
7.0
100
AcDbArc
 50
267.8377559870533
 51
354.1866997665273
  0
ARC
  5
1737E
330
747D
100
AcDbEntity
  8
部品1
100
AcDbCircle
 10
12474.85052046912
 20
5035.41936227355
 30
0.0
 40
3.0
100
AcDbArc
 50
95.0921697642102
 51
174.1866997665272
  0
ARC
  5
1737F
330
747D
100
AcDbEntity
  8
部品1
100
AcDbCircle
 10
12485.70986621845
 20
5112.462617091474
 30
0.0
 40
3.0
100
AcDbArc
 50
95.092169764314
 51
174.1866997665272
  0
ARC
  5
17380
330
747D
100
AcDbEntity
  8
部品1
100
AcDbCircle
 10
12485.38146097585
 20
5116.148013948563
 30
0.0
 40
0.7
100
AcDbArc
 50
275.0921697642102
 51
354.1866997665273
  0
ARC
  5
17381
330
747D
100
AcDbEntity
  8
部品1
100
AcDbCircle
 10
12474.52211522653
 20
5039.104759130641
 30
0.0
 40
0.7
100
AcDbArc
 50
275.0921697642102
 51
354.1866997666828
  0
DIMENSION
  5
17382
330
747D
100
AcDbEntity
  8
寸法
 48
50.0
100
AcDbDimension
  2
*D32
 10
12488.89457941259
 20
5598.738455444152
 30
0.0
 11
12694.94182350708
 21
5598.738455444152
 31
0.0
 70
   160
 71
     5
 42
80.0
  3
INABA_S40G
100
AcDbAlignedDimension
 13
12408.89457941259
 23
5146.891681476502
 33
0.0
 14
12488.89457941259
 24
5145.081001864848
 34
0.0
100
AcDbRotatedDimension
1001
ACAD
1000
DSTYLE
1002
{
1070
   174
1070
     0
1070
   272
1070
     1
1070
   288
1070
     0
1070
   341
1005
0
1002
}
  0
LINE
  5
17383
330
747D
100
AcDbEntity
  8
部品1
 48
50.0
100
AcDbLine
 10
11363.89457941259
 20
5330.949140966128
 30
0.0
 11
11663.89457941259
 21
5330.949140966128
 31
0.0
  0
LINE
  5
17384
330
747D
100
AcDbEntity
  8
部品1
 48
50.0
100
AcDbLine
 10
11663.89457941259
 20
5330.949140966128
 30
0.0
 11
11663.89457941259
 21
5314.749140966129
 31
0.0
  0
TEXT
  5
17385
330
747D
100
AcDbEntity
  8
部品1
 48
50.0
100
AcDbText
 10
11352.16241463631
 20
5366.833163118561
 30
0.0
 40
120.0
  1
1000
  7
STYLE1
100
AcDbText
  0
TEXT
  5
17386
330
747D
100
AcDbEntity
  8
部品1
 48
50.0
100
AcDbText
 10
11840.98742670045
 20
5229.331904900278
 30
0.0
 40
120.0
  1
54
 50
90.0
  7
STYLE1
100
AcDbText
  0
LINE
  5
17387
330
747D
100
AcDbEntity
  8
部品1
100
AcDbLine
 10
11513.89457941259
 20
4965.081001864849
 30
0.0
 11
11513.89457941259
 21
3175.081001864848
 31
0.0
  0
LINE
  5
17388
330
747D
100
AcDbEntity
  8
細線
 48
50.0
100
AcDbLine
 10
11856.39457941259
 20
4965.081001864849
 30
0.0
 11
11856.39457941259
 21
3175.081001864848
 31
0.0
  0
LINE
  5
17389
330
747D
100
AcDbEntity
  8
細線
 48
50.0
100
AcDbLine
 10
11871.39457941259
 20
4965.081001864849
 30
0.0
 11
11871.39457941259
 21
3175.081001864848
 31
0.0
  0
LINE
  5
1738A
330
747D
100
AcDbEntity
  8
細線
 48
50.0
100
AcDbLine
 10
11731.39457941259
 20
4965.081001864849
 30
0.0
 11
11731.39457941259
 21
3175.081001864848
 31
0.0
  0
LINE
  5
1738B
330
747D
100
AcDbEntity
  8
細線
 48
50.0
100
AcDbLine
 10
11716.39457941259
 20
4965.081001864849
 30
0.0
 11
11716.39457941259
 21
3175.081001864848
 31
0.0
  0
LINE
  5
1738C
330
747D
100
AcDbEntity
  8
細線
 48
50.0
100
AcDbLine
 10
11576.39457941259
 20
4965.081001864849
 30
0.0
 11
11576.39457941259
 21
3175.081001864848
 31
0.0
  0
LINE
  5
1738D
330
747D
100
AcDbEntity
  8
細線
 48
50.0
100
AcDbLine
 10
11591.39457941259
 20
4965.081001864849
 30
0.0
 11
11591.39457941259
 21
3175.081001864848
 31
0.0
  0
LINE
  5
1738E
330
747D
100
AcDbEntity
  8
部品1
100
AcDbLine
 10
11933.89457941259
 20
4965.081001864849
 30
0.0
 11
11933.89457941259
 21
3175.081001864848
 31
0.0
  0
LINE
  5
1738F
330
747D
100
AcDbEntity
  8
細線
 48
50.0
100
AcDbLine
 10
12011.39457941259
 20
4965.081001864849
 30
0.0
 11
12011.39457941259
 21
3175.081001864848
 31
0.0
  0
LINE
  5
17390
330
747D
100
AcDbEntity
  8
細線
 48
50.0
100
AcDbLine
 10
11996.39457941259
 20
4965.081001864849
 30
0.0
 11
11996.39457941259
 21
3175.081001864848
 31
0.0
  0
LINE
  5
17391
330
747D
100
AcDbEntity
  8
細線
 48
50.0
100
AcDbLine
 10
12136.39457941259
 20
4965.081001864849
 30
0.0
 11
12136.39457941259
 21
3175.081001864848
 31
0.0
  0
LINE
  5
17392
330
747D
100
AcDbEntity
  8
細線
 48
50.0
100
AcDbLine
 10
12151.39457941259
 20
4965.081001864849
 30
0.0
 11
12151.39457941259
 21
3175.081001864848
 31
0.0
  0
LINE
  5
17393
330
747D
100
AcDbEntity
  8
細線
 48
50.0
100
AcDbLine
 10
12291.3945794126
 20
4965.081001864849
 30
0.0
 11
12291.3945794126
 21
3175.081001864848
 31
0.0
  0
LINE
  5
17394
330
747D
100
AcDbEntity
  8
細線
 48
50.0
100
AcDbLine
 10
12276.39457941259
 20
4965.081001864849
 30
0.0
 11
12276.39457941259
 21
3175.081001864848
 31
0.0
  0
DIMENSION
  5
17397
330
747D
100
AcDbEntity
  8
寸法
 48
50.0
100
AcDbDimension
  2
*D33
 10
9998.286172644226
 20
5074.426260738179
 30
0.0
 11
10008.95164790315
 21
5445.272923979878
 31
0.0
 70
   161
 71
     5
 42
141.0
  3
INABA_S40G
100
AcDbAlignedDimension
 13
10578.29059957117
 23
5198.803750699529
 33
0.0
 14
10574.23714401454
 24
5057.862026933815
 34
0.0
1001
ACAD
1000
DSTYLE
1002
{
1070
   174
1070
     0
1070
   272
1070
     1
1070
   288
1070
     0
1070
   341
1005
0
1002
}
  0
LINE
  5
17398
330
747D
100
AcDbEntity
  8
部品1
 48
50.0
100
AcDbLine
 10
11363.89457941259
 20
5330.949140966128
 30
0.0
 11
11663.89457941259
 21
5314.749140966129
 31
0.0
  0
LINE
  5
17897
330
747D
100
AcDbEntity
  8
補助
  6
PHANTOM
 62
   230
 48
50.0
100
AcDbLine
 10
140.0
 20
0.0
 30
0.0
 11
139.9999999999995
 21
11409.6
 31
0.0
  0
LINE
  5
179CA
330
747D
100
AcDbEntity
  8
仕様書枠
 48
50.0
100
AcDbLine
 10
16307.19999999998
 20
8179.600000000002
 30
0.0
 11
13127.19999999999
 21
8179.600000000004
 31
0.0
  0
TEXT
  5
179CB
330
747D
100
AcDbEntity
  8
文字
 62
     7
 48
50.0
100
AcDbText
 10
13248.77747366448
 20
8550.013745883731
 30
0.0
 40
100.0
  1
16
  7
STYLE1
100
AcDbText
  0
TEXT
  5
179CC
330
747D
100
AcDbEntity
  8
文字
 62
     7
 48
50.0
100
AcDbText
 10
13583.11819016569
 20
10930.01374588372
 30
0.0
 40
100.0
  1
根太
  7
STYLE1
100
AcDbText
  0
TEXT
  5
179CD
330
747D
100
AcDbEntity
  8
文字
 62
     7
 48
50.0
100
AcDbText
 10
15022.63965474516
 20
10930.01374588372
 30
0.0
 40
100.0
  1
F12            1.2
  7
STYLE1
100
AcDbText
  0
LWPOLYLINE
  5
17AAF
330
747D
100
AcDbEntity
  8
部品1
 48
50.0
100
AcDbPolyline
 90
        4
 70
     1
 43
0.0
 10
4693.147197605105
 20
4045.331001864859
 10
4696.047197605106
 20
4045.331001864859
 10
4696.047197605106
 20
4054.831001864859
 10
4693.147197605105
 20
4054.831001864859
  0
CIRCLE
  5
17AB0
330
747D
100
AcDbEntity
  8
部品1
 48
50.0
100
AcDbCircle
 10
4694.597197605106
 20
4050.081001864859
 30
0.0
 40
9.0
  0
ARC
  5
17AB1
330
747D
100
AcDbEntity
  8
細線
 48
50.0
100
AcDbCircle
 10
4694.597197605106
 20
4050.081001864859
 30
0.0
 40
4.0
100
AcDbArc
 50
111.2538091853132
 51
248.7461908146868
  0
ARC
  5
17AB2
330
747D
100
AcDbEntity
  8
細線
 48
50.0
100
AcDbCircle
 10
4694.597197605106
 20
4050.081001864859
 30
0.0
 40
17.5
100
AcDbArc
 50
306.4837370612677
 51
233.5162629387323
  0
LINE
  5
17AB3
330
747D
100
AcDbEntity
  8
細線
 48
50.0
100
AcDbLine
 10
4704.597197605102
 20
4026.222041283975
 30
0.0
 11
4704.597197605106
 21
4035.206527084217
 31
0.0
  0
LINE
  5
17AB4
330
747D
100
AcDbEntity
  8
細線
 48
50.0
100
AcDbLine
 10
4684.597197605106
 20
4026.222041283978
 30
0.0
 11
4684.597197605106
 21
4035.206527084214
 31
0.0
  0
ARC
  5
17AB5
330
747D
100
AcDbEntity
  8
細線
 48
50.0
100
AcDbCircle
 10
4694.597197605106
 20
4050.081001864859
 30
0.0
 40
26.5
100
AcDbArc
 50
249.332683506403
 51
290.6673164933835
  0
ARC
  5
17AB6
330
747D
100
AcDbEntity
  8
細線
 48
50.0
100
AcDbCircle
 10
4703.597197605098
 20
4026.222041283975
 30
0.0
 40
1.0
100
AcDbArc
 50
290.667316493597
 51
359.9999999998958
  0
ARC
  5
17AB7
330
747D
100
AcDbEntity
  8
細線
 48
50.0
100
AcDbCircle
 10
4685.597197605106
 20
4026.222041283978
 30
0.0
 40
1.0
100
AcDbArc
 50
180.0
 51
249.3326835066164
  0
ARC
  5
17AB8
330
747D
100
AcDbEntity
  8
細線
 48
50.0
100
AcDbCircle
 10
4683.597197605106
 20
4035.206527084214
 30
0.0
 40
1.0
100
AcDbArc
 50
0.0
 51
53.51626293873231
  0
ARC
  5
17AB9
330
747D
100
AcDbEntity
  8
細線
 48
50.0
100
AcDbCircle
 10
4705.59719760511
 20
4035.206527084217
 30
0.0
 40
1.0
100
AcDbArc
 50
126.4837370615282
 51
180.0
  0
ARC
  5
17ABA
330
747D
100
AcDbEntity
  8
細線
 48
50.0
100
AcDbCircle
 10
4694.597197605106
 20
4050.081001864859
 30
0.0
 40
21.5
100
AcDbArc
 50
255.8014401250294
 51
284.1985598749706
  0
ARC
  5
17ABB
330
747D
100
AcDbEntity
  8
細線
 48
50.0
100
AcDbCircle
 10
4694.597197605106
 20
4050.081001864859
 30
0.0
 40
16.5
100
AcDbArc
 50
251.9694646069326
 51
288.0305353930674
  0
LINE
  5
17ABC
330
747D
100
AcDbEntity
  8
細線
 48
50.0
100
AcDbLine
 10
4700.097197605106
 20
4029.528629739052
 30
0.0
 11
4700.097197605106
 21
4034.106021426389
 31
0.0
  0
LINE
  5
17ABD
330
747D
100
AcDbEntity
  8
細線
 48
50.0
100
AcDbLine
 10
4689.097197605106
 20
4029.528629739052
 30
0.0
 11
4689.097197605106
 21
4034.106021426387
 31
0.0
  0
ARC
  5
17ABE
330
747D
100
AcDbEntity
  8
細線
 48
50.0
100
AcDbCircle
 10
4689.397197605109
 20
4034.106021426387
 30
0.0
 40
0.3
100
AcDbArc
 50
71.96946460693259
 51
180.0
  0
ARC
  5
17ABF
330
747D
100
AcDbEntity
  8
細線
 48
50.0
100
AcDbCircle
 10
4699.797197605106
 20
4034.106021426389
 30
0.0
 40
0.3
100
AcDbArc
 50
0.0
 51
108.0305353930674
  0
ARC
  5
17AC0
330
747D
100
AcDbEntity
  8
細線
 48
50.0
100
AcDbCircle
 10
4699.797197605103
 20
4029.528629739052
 30
0.0
 40
0.3
100
AcDbArc
 50
284.1985598747557
 51
0.0000000001042204
  0
ARC
  5
17AC1
330
747D
100
AcDbEntity
  8
細線
 48
50.0
100
AcDbCircle
 10
4689.397197605109
 20
4029.528629739052
 30
0.0
 40
0.3
100
AcDbArc
 50
180.0
 51
255.8014401248145
  0
CIRCLE
  5
17AC2
330
747D
100
AcDbEntity
  8
細線
 48
50.0
100
AcDbCircle
 10
4694.597197605106
 20
4050.081001864859
 30
0.0
 40
12.0
  0
ARC
  5
17AC3
330
747D
100
AcDbEntity
  8
部品1
 48
50.0
100
AcDbCircle
 10
4694.597197605106
 20
4100.081001864859
 30
0.0
 40
8.5
100
AcDbArc
 50
114.315739171091
 51
245.684260828909
  0
CIRCLE
  5
17AC4
330
747D
100
AcDbEntity
  8
細線
 48
50.0
100
AcDbCircle
 10
4694.597197605106
 20
4100.081001864859
 30
0.0
 40
4.5
  0
LWPOLYLINE
  5
17AC5
330
747D
100
AcDbEntity
  8
部品1
 48
50.0
100
AcDbPolyline
 90
        2
 70
     0
 43
0.0
 10
4691.097197605105
 20
4118.755851261841
 10
4691.097197605105
 20
4107.826968557274
  0
CIRCLE
  5
17AC6
330
747D
100
AcDbEntity
  8
部品1
 48
50.0
100
AcDbCircle
 10
4694.597197605106
 20
4100.081001864859
 30
0.0
 40
19.0
  0
LWPOLYLINE
  5
17AC7
330
747D
100
AcDbEntity
  8
部品1
 48
50.0
100
AcDbPolyline
 90
        2
 70
     0
 43
0.0
 10
4691.097197605105
 20
4092.335035172443
 10
4691.097197605105
 20
4081.406152467876
  0
LWPOLYLINE
  5
17AC8
330
747D
100
AcDbEntity
  8
部品1
 48
50.0
100
AcDbPolyline
 90
        2
 70
     0
 43
0.0
 10
4698.097197605106
 20
4107.826968557274
 10
4698.097197605106
 20
4118.755851261841
  0
ARC
  5
17AC9
330
747D
100
AcDbEntity
  8
部品1
 48
50.0
100
AcDbCircle
 10
4694.597197605106
 20
4100.081001864859
 30
0.0
 40
8.5
100
AcDbArc
 50
294.315739171091
 51
65.68426082890896
  0
LWPOLYLINE
  5
17ACA
330
747D
100
AcDbEntity
  8
部品1
 48
50.0
100
AcDbPolyline
 90
        2
 70
     0
 43
0.0
 10
4698.097197605106
 20
4081.406152467876
 10
4698.097197605106
 20
4092.335035172443
  0
ARC
  5
17ACB
330
747D
100
AcDbEntity
  8
細線
 48
50.0
100
AcDbCircle
 10
4694.597197605106
 20
4100.081001864859
 30
0.0
 40
16.5
100
AcDbArc
 50
332.0012352654438
 51
27.99876473455621
  0
ARC
  5
17ACC
330
747D
100
AcDbEntity
  8
細線
 48
50.0
100
AcDbCircle
 10
4694.597197605106
 20
4100.081001864859
 30
0.0
 40
14.0
100
AcDbArc
 50
326.407443611277
 51
33.59255638872305
  0
LINE
  5
17ACD
330
747D
100
AcDbEntity
  8
細線
 48
50.0
100
AcDbLine
 10
4680.028395320774
 20
4107.826968557274
 30
0.0
 11
4682.935293815417
 21
4107.826968557274
 31
0.0
  0
LINE
  5
17ACE
330
747D
100
AcDbEntity
  8
細線
 48
50.0
100
AcDbLine
 10
4680.028395320774
 20
4092.335035172443
 30
0.0
 11
4682.935293815417
 21
4092.335035172443
 31
0.0
  0
LINE
  5
17ACF
330
747D
100
AcDbEntity
  8
細線
 48
50.0
100
AcDbLine
 10
4706.259101394794
 20
4107.826968557274
 30
0.0
 11
4709.165999889441
 21
4107.826968557274
 31
0.0
  0
LINE
  5
17AD0
330
747D
100
AcDbEntity
  8
細線
 48
50.0
100
AcDbLine
 10
4706.259101394794
 20
4092.335035172443
 30
0.0
 11
4709.165999889441
 21
4092.335035172443
 31
0.0
  0
ARC
  5
17AD1
330
747D
100
AcDbEntity
  8
細線
 48
50.0
100
AcDbCircle
 10
4694.597197605106
 20
4100.081001864859
 30
0.0
 40
14.0
100
AcDbArc
 50
146.4074436112769
 51
213.592556388723
  0
ARC
  5
17AD2
330
747D
100
AcDbEntity
  8
細線
 48
50.0
100
AcDbCircle
 10
4694.597197605106
 20
4100.081001864859
 30
0.0
 40
16.5
100
AcDbArc
 50
152.0012352654438
 51
207.9987647345562
  0
ARC
  5
17AD3
330
747D
100
AcDbEntity
  8
部品1
 48
50.0
100
AcDbCircle
 10
4668.097197605105
 20
4125.581001864858
 30
0.0
 40
5.0
100
AcDbArc
 50
90.0
 51
180.0
  0
ARC
  5
17AD4
330
747D
100
AcDbEntity
  8
部品1
 48
50.0
100
AcDbCircle
 10
4668.097197605105
 20
4014.581001864859
 30
0.0
 40
5.0
100
AcDbArc
 50
180.0
 51
270.0
  0
ARC
  5
17AD5
330
747D
100
AcDbEntity
  8
部品1
 48
50.0
100
AcDbCircle
 10
4721.097197605106
 20
4014.581001864859
 30
0.0
 40
5.0
100
AcDbArc
 50
270.0
 51
0.0
  0
ARC
  5
17AD6
330
747D
100
AcDbEntity
  8
部品1
 48
50.0
100
AcDbCircle
 10
4721.097197605106
 20
4125.581001864858
 30
0.0
 40
5.0
100
AcDbArc
 50
0.0
 51
90.0
  0
LINE
  5
17AD7
330
747D
100
AcDbEntity
  8
部品1
 48
50.0
100
AcDbLine
 10
4663.097197605106
 20
4014.581001864859
 30
0.0
 11
4663.097197605106
 21
4125.581001864858
 31
0.0
  0
LINE
  5
17AD8
330
747D
100
AcDbEntity
  8
部品1
 48
50.0
100
AcDbLine
 10
4721.097197605106
 20
4009.581001864859
 30
0.0
 11
4668.097197605105
 21
4009.581001864859
 31
0.0
  0
LINE
  5
17AD9
330
747D
100
AcDbEntity
  8
部品1
 48
50.0
100
AcDbLine
 10
4726.097197605105
 20
4125.581001864858
 30
0.0
 11
4726.097197605105
 21
4014.581001864859
 31
0.0
  0
LWPOLYLINE
  5
17B09
330
747D
100
AcDbEntity
  8
部品1
 48
50.0
100
AcDbPolyline
 90
        4
 70
     1
 43
0.0
 10
6063.147197605105
 20
4045.331001864859
 10
6066.047197605107
 20
4045.331001864859
 10
6066.047197605107
 20
4054.831001864859
 10
6063.147197605105
 20
4054.831001864859
  0
CIRCLE
  5
17B0A
330
747D
100
AcDbEntity
  8
部品1
 48
50.0
100
AcDbCircle
 10
6064.597197605106
 20
4050.081001864859
 30
0.0
 40
9.0
  0
ARC
  5
17B0B
330
747D
100
AcDbEntity
  8
細線
 48
50.0
100
AcDbCircle
 10
6064.597197605106
 20
4050.081001864859
 30
0.0
 40
4.0
100
AcDbArc
 50
111.2538091853132
 51
248.7461908146868
  0
ARC
  5
17B0C
330
747D
100
AcDbEntity
  8
細線
 48
50.0
100
AcDbCircle
 10
6064.597197605106
 20
4050.081001864859
 30
0.0
 40
17.5
100
AcDbArc
 50
306.4837370612677
 51
233.5162629387323
  0
LINE
  5
17B0D
330
747D
100
AcDbEntity
  8
細線
 48
50.0
100
AcDbLine
 10
6074.597197605102
 20
4026.222041283975
 30
0.0
 11
6074.597197605106
 21
4035.206527084217
 31
0.0
  0
LINE
  5
17B0E
330
747D
100
AcDbEntity
  8
細線
 48
50.0
100
AcDbLine
 10
6054.597197605106
 20
4026.222041283978
 30
0.0
 11
6054.597197605106
 21
4035.206527084214
 31
0.0
  0
ARC
  5
17B0F
330
747D
100
AcDbEntity
  8
細線
 48
50.0
100
AcDbCircle
 10
6064.597197605106
 20
4050.081001864859
 30
0.0
 40
26.5
100
AcDbArc
 50
249.332683506403
 51
290.6673164933835
  0
ARC
  5
17B10
330
747D
100
AcDbEntity
  8
細線
 48
50.0
100
AcDbCircle
 10
6073.597197605099
 20
4026.222041283975
 30
0.0
 40
1.0
100
AcDbArc
 50
290.667316493597
 51
359.9999999998958
  0
ARC
  5
17B11
330
747D
100
AcDbEntity
  8
細線
 48
50.0
100
AcDbCircle
 10
6055.597197605106
 20
4026.222041283978
 30
0.0
 40
1.0
100
AcDbArc
 50
180.0
 51
249.3326835066164
  0
ARC
  5
17B12
330
747D
100
AcDbEntity
  8
細線
 48
50.0
100
AcDbCircle
 10
6053.597197605106
 20
4035.206527084214
 30
0.0
 40
1.0
100
AcDbArc
 50
0.0
 51
53.51626293873231
  0
ARC
  5
17B13
330
747D
100
AcDbEntity
  8
細線
 48
50.0
100
AcDbCircle
 10
6075.59719760511
 20
4035.206527084217
 30
0.0
 40
1.0
100
AcDbArc
 50
126.4837370615282
 51
180.0
  0
ARC
  5
17B14
330
747D
100
AcDbEntity
  8
細線
 48
50.0
100
AcDbCircle
 10
6064.597197605106
 20
4050.081001864859
 30
0.0
 40
21.5
100
AcDbArc
 50
255.8014401250294
 51
284.1985598749706
  0
ARC
  5
17B15
330
747D
100
AcDbEntity
  8
細線
 48
50.0
100
AcDbCircle
 10
6064.597197605106
 20
4050.081001864859
 30
0.0
 40
16.5
100
AcDbArc
 50
251.9694646069326
 51
288.0305353930674
  0
LINE
  5
17B16
330
747D
100
AcDbEntity
  8
細線
 48
50.0
100
AcDbLine
 10
6070.097197605106
 20
4029.528629739052
 30
0.0
 11
6070.097197605106
 21
4034.106021426389
 31
0.0
  0
LINE
  5
17B17
330
747D
100
AcDbEntity
  8
細線
 48
50.0
100
AcDbLine
 10
6059.097197605106
 20
4029.528629739052
 30
0.0
 11
6059.097197605106
 21
4034.106021426387
 31
0.0
  0
ARC
  5
17B18
330
747D
100
AcDbEntity
  8
細線
 48
50.0
100
AcDbCircle
 10
6059.397197605108
 20
4034.106021426387
 30
0.0
 40
0.3
100
AcDbArc
 50
71.96946460693259
 51
180.0
  0
ARC
  5
17B19
330
747D
100
AcDbEntity
  8
細線
 48
50.0
100
AcDbCircle
 10
6069.797197605106
 20
4034.106021426389
 30
0.0
 40
0.3
100
AcDbArc
 50
0.0
 51
108.0305353930674
  0
ARC
  5
17B1A
330
747D
100
AcDbEntity
  8
細線
 48
50.0
100
AcDbCircle
 10
6069.797197605103
 20
4029.528629739052
 30
0.0
 40
0.3
100
AcDbArc
 50
284.1985598747557
 51
0.0000000001042204
  0
ARC
  5
17B1B
330
747D
100
AcDbEntity
  8
細線
 48
50.0
100
AcDbCircle
 10
6059.397197605108
 20
4029.528629739052
 30
0.0
 40
0.3
100
AcDbArc
 50
180.0
 51
255.8014401248145
  0
CIRCLE
  5
17B1C
330
747D
100
AcDbEntity
  8
細線
 48
50.0
100
AcDbCircle
 10
6064.597197605106
 20
4050.081001864859
 30
0.0
 40
12.0
  0
ARC
  5
17B1D
330
747D
100
AcDbEntity
  8
部品1
 48
50.0
100
AcDbCircle
 10
6064.597197605106
 20
4100.081001864859
 30
0.0
 40
8.5
100
AcDbArc
 50
114.315739171091
 51
245.684260828909
  0
CIRCLE
  5
17B1E
330
747D
100
AcDbEntity
  8
細線
 48
50.0
100
AcDbCircle
 10
6064.597197605106
 20
4100.081001864859
 30
0.0
 40
4.5
  0
LWPOLYLINE
  5
17B1F
330
747D
100
AcDbEntity
  8
部品1
 48
50.0
100
AcDbPolyline
 90
        2
 70
     0
 43
0.0
 10
6061.097197605106
 20
4118.755851261841
 10
6061.097197605106
 20
4107.826968557274
  0
CIRCLE
  5
17B20
330
747D
100
AcDbEntity
  8
部品1
 48
50.0
100
AcDbCircle
 10
6064.597197605106
 20
4100.081001864859
 30
0.0
 40
19.0
  0
LWPOLYLINE
  5
17B21
330
747D
100
AcDbEntity
  8
部品1
 48
50.0
100
AcDbPolyline
 90
        2
 70
     0
 43
0.0
 10
6061.097197605106
 20
4092.335035172443
 10
6061.097197605106
 20
4081.406152467876
  0
LWPOLYLINE
  5
17B22
330
747D
100
AcDbEntity
  8
部品1
 48
50.0
100
AcDbPolyline
 90
        2
 70
     0
 43
0.0
 10
6068.097197605106
 20
4107.826968557274
 10
6068.097197605106
 20
4118.755851261841
  0
ARC
  5
17B23
330
747D
100
AcDbEntity
  8
部品1
 48
50.0
100
AcDbCircle
 10
6064.597197605106
 20
4100.081001864859
 30
0.0
 40
8.5
100
AcDbArc
 50
294.315739171091
 51
65.68426082890896
  0
LWPOLYLINE
  5
17B24
330
747D
100
AcDbEntity
  8
部品1
 48
50.0
100
AcDbPolyline
 90
        2
 70
     0
 43
0.0
 10
6068.097197605106
 20
4081.406152467876
 10
6068.097197605106
 20
4092.335035172443
  0
ARC
  5
17B25
330
747D
100
AcDbEntity
  8
細線
 48
50.0
100
AcDbCircle
 10
6064.597197605106
 20
4100.081001864859
 30
0.0
 40
16.5
100
AcDbArc
 50
332.0012352654438
 51
27.99876473455621
  0
ARC
  5
17B26
330
747D
100
AcDbEntity
  8
細線
 48
50.0
100
AcDbCircle
 10
6064.597197605106
 20
4100.081001864859
 30
0.0
 40
14.0
100
AcDbArc
 50
326.407443611277
 51
33.59255638872305
  0
LINE
  5
17B27
330
747D
100
AcDbEntity
  8
細線
 48
50.0
100
AcDbLine
 10
6050.028395320775
 20
4107.826968557274
 30
0.0
 11
6052.935293815417
 21
4107.826968557274
 31
0.0
  0
LINE
  5
17B28
330
747D
100
AcDbEntity
  8
細線
 48
50.0
100
AcDbLine
 10
6050.028395320775
 20
4092.335035172443
 30
0.0
 11
6052.935293815417
 21
4092.335035172443
 31
0.0
  0
LINE
  5
17B29
330
747D
100
AcDbEntity
  8
細線
 48
50.0
100
AcDbLine
 10
6076.259101394795
 20
4107.826968557274
 30
0.0
 11
6079.165999889441
 21
4107.826968557274
 31
0.0
  0
LINE
  5
17B2A
330
747D
100
AcDbEntity
  8
細線
 48
50.0
100
AcDbLine
 10
6076.259101394795
 20
4092.335035172443
 30
0.0
 11
6079.165999889441
 21
4092.335035172443
 31
0.0
  0
ARC
  5
17B2B
330
747D
100
AcDbEntity
  8
細線
 48
50.0
100
AcDbCircle
 10
6064.597197605106
 20
4100.081001864859
 30
0.0
 40
14.0
100
AcDbArc
 50
146.4074436112769
 51
213.592556388723
  0
ARC
  5
17B2C
330
747D
100
AcDbEntity
  8
細線
 48
50.0
100
AcDbCircle
 10
6064.597197605106
 20
4100.081001864859
 30
0.0
 40
16.5
100
AcDbArc
 50
152.0012352654438
 51
207.9987647345562
  0
ARC
  5
17B2D
330
747D
100
AcDbEntity
  8
部品1
 48
50.0
100
AcDbCircle
 10
6038.097197605106
 20
4125.581001864858
 30
0.0
 40
5.0
100
AcDbArc
 50
90.0
 51
180.0
  0
ARC
  5
17B2E
330
747D
100
AcDbEntity
  8
部品1
 48
50.0
100
AcDbCircle
 10
6038.097197605106
 20
4014.581001864859
 30
0.0
 40
5.0
100
AcDbArc
 50
180.0
 51
270.0
  0
ARC
  5
17B2F
330
747D
100
AcDbEntity
  8
部品1
 48
50.0
100
AcDbCircle
 10
6091.097197605106
 20
4014.581001864859
 30
0.0
 40
5.0
100
AcDbArc
 50
270.0
 51
0.0
  0
ARC
  5
17B30
330
747D
100
AcDbEntity
  8
部品1
 48
50.0
100
AcDbCircle
 10
6091.097197605106
 20
4125.581001864858
 30
0.0
 40
5.0
100
AcDbArc
 50
0.0
 51
90.0
  0
LINE
  5
17B31
330
747D
100
AcDbEntity
  8
部品1
 48
50.0
100
AcDbLine
 10
6033.097197605106
 20
4014.581001864859
 30
0.0
 11
6033.097197605106
 21
4125.581001864858
 31
0.0
  0
LINE
  5
17B32
330
747D
100
AcDbEntity
  8
部品1
 48
50.0
100
AcDbLine
 10
6091.097197605106
 20
4009.581001864859
 30
0.0
 11
6038.097197605106
 21
4009.581001864859
 31
0.0
  0
LINE
  5
17B33
330
747D
100
AcDbEntity
  8
部品1
 48
50.0
100
AcDbLine
 10
6096.097197605106
 20
4125.581001864858
 30
0.0
 11
6096.097197605106
 21
4014.581001864859
 31
0.0
  0
LWPOLYLINE
  5
17B63
330
747D
100
AcDbEntity
  8
部品1
 48
50.0
100
AcDbPolyline
 90
        4
 70
     1
 43
0.0
 10
7433.147197605108
 20
4045.331001864859
 10
7436.047197605109
 20
4045.331001864859
 10
7436.047197605109
 20
4054.831001864859
 10
7433.147197605108
 20
4054.831001864859
  0
CIRCLE
  5
17B64
330
747D
100
AcDbEntity
  8
部品1
 48
50.0
100
AcDbCircle
 10
7434.597197605107
 20
4050.081001864859
 30
0.0
 40
9.0
  0
ARC
  5
17B65
330
747D
100
AcDbEntity
  8
細線
 48
50.0
100
AcDbCircle
 10
7434.597197605107
 20
4050.081001864859
 30
0.0
 40
4.0
100
AcDbArc
 50
111.2538091853132
 51
248.7461908146868
  0
ARC
  5
17B66
330
747D
100
AcDbEntity
  8
細線
 48
50.0
100
AcDbCircle
 10
7434.597197605107
 20
4050.081001864859
 30
0.0
 40
17.5
100
AcDbArc
 50
306.4837370612677
 51
233.5162629387323
  0
LINE
  5
17B67
330
747D
100
AcDbEntity
  8
細線
 48
50.0
100
AcDbLine
 10
7444.597197605104
 20
4026.222041283975
 30
0.0
 11
7444.597197605109
 21
4035.206527084217
 31
0.0
  0
LINE
  5
17B68
330
747D
100
AcDbEntity
  8
細線
 48
50.0
100
AcDbLine
 10
7424.597197605108
 20
4026.222041283978
 30
0.0
 11
7424.597197605108
 21
4035.206527084214
 31
0.0
  0
ARC
  5
17B69
330
747D
100
AcDbEntity
  8
細線
 48
50.0
100
AcDbCircle
 10
7434.597197605107
 20
4050.081001864859
 30
0.0
 40
26.5
100
AcDbArc
 50
249.332683506403
 51
290.6673164933835
  0
ARC
  5
17B6A
330
747D
100
AcDbEntity
  8
細線
 48
50.0
100
AcDbCircle
 10
7443.5971976051
 20
4026.222041283975
 30
0.0
 40
1.0
100
AcDbArc
 50
290.667316493597
 51
359.9999999998958
  0
ARC
  5
17B6B
330
747D
100
AcDbEntity
  8
細線
 48
50.0
100
AcDbCircle
 10
7425.597197605108
 20
4026.222041283978
 30
0.0
 40
1.0
100
AcDbArc
 50
180.0
 51
249.3326835066164
  0
ARC
  5
17B6C
330
747D
100
AcDbEntity
  8
細線
 48
50.0
100
AcDbCircle
 10
7423.597197605108
 20
4035.206527084214
 30
0.0
 40
1.0
100
AcDbArc
 50
0.0
 51
53.51626293873231
  0
ARC
  5
17B6D
330
747D
100
AcDbEntity
  8
細線
 48
50.0
100
AcDbCircle
 10
7445.597197605112
 20
4035.206527084217
 30
0.0
 40
1.0
100
AcDbArc
 50
126.4837370615282
 51
180.0
  0
ARC
  5
17B6E
330
747D
100
AcDbEntity
  8
細線
 48
50.0
100
AcDbCircle
 10
7434.597197605107
 20
4050.081001864859
 30
0.0
 40
21.5
100
AcDbArc
 50
255.8014401250294
 51
284.1985598749706
  0
ARC
  5
17B6F
330
747D
100
AcDbEntity
  8
細線
 48
50.0
100
AcDbCircle
 10
7434.597197605107
 20
4050.081001864859
 30
0.0
 40
16.5
100
AcDbArc
 50
251.9694646069326
 51
288.0305353930674
  0
LINE
  5
17B70
330
747D
100
AcDbEntity
  8
細線
 48
50.0
100
AcDbLine
 10
7440.097197605108
 20
4029.528629739052
 30
0.0
 11
7440.097197605108
 21
4034.106021426389
 31
0.0
  0
LINE
  5
17B71
330
747D
100
AcDbEntity
  8
細線
 48
50.0
100
AcDbLine
 10
7429.097197605108
 20
4029.528629739052
 30
0.0
 11
7429.097197605108
 21
4034.106021426387
 31
0.0
  0
ARC
  5
17B72
330
747D
100
AcDbEntity
  8
細線
 48
50.0
100
AcDbCircle
 10
7429.397197605111
 20
4034.106021426387
 30
0.0
 40
0.3
100
AcDbArc
 50
71.96946460693259
 51
180.0
  0
ARC
  5
17B73
330
747D
100
AcDbEntity
  8
細線
 48
50.0
100
AcDbCircle
 10
7439.797197605108
 20
4034.106021426389
 30
0.0
 40
0.3
100
AcDbArc
 50
0.0
 51
108.0305353930674
  0
ARC
  5
17B74
330
747D
100
AcDbEntity
  8
細線
 48
50.0
100
AcDbCircle
 10
7439.797197605106
 20
4029.528629739052
 30
0.0
 40
0.3
100
AcDbArc
 50
284.1985598747557
 51
0.0000000001042204
  0
ARC
  5
17B75
330
747D
100
AcDbEntity
  8
細線
 48
50.0
100
AcDbCircle
 10
7429.397197605111
 20
4029.528629739052
 30
0.0
 40
0.3
100
AcDbArc
 50
180.0
 51
255.8014401248145
  0
CIRCLE
  5
17B76
330
747D
100
AcDbEntity
  8
細線
 48
50.0
100
AcDbCircle
 10
7434.597197605107
 20
4050.081001864859
 30
0.0
 40
12.0
  0
ARC
  5
17B77
330
747D
100
AcDbEntity
  8
部品1
 48
50.0
100
AcDbCircle
 10
7434.597197605107
 20
4100.081001864859
 30
0.0
 40
8.5
100
AcDbArc
 50
114.315739171091
 51
245.684260828909
  0
CIRCLE
  5
17B78
330
747D
100
AcDbEntity
  8
細線
 48
50.0
100
AcDbCircle
 10
7434.597197605107
 20
4100.081001864859
 30
0.0
 40
4.5
  0
LWPOLYLINE
  5
17B79
330
747D
100
AcDbEntity
  8
部品1
 48
50.0
100
AcDbPolyline
 90
        2
 70
     0
 43
0.0
 10
7431.097197605108
 20
4118.755851261841
 10
7431.097197605108
 20
4107.826968557274
  0
CIRCLE
  5
17B7A
330
747D
100
AcDbEntity
  8
部品1
 48
50.0
100
AcDbCircle
 10
7434.597197605107
 20
4100.081001864859
 30
0.0
 40
19.0
  0
LWPOLYLINE
  5
17B7B
330
747D
100
AcDbEntity
  8
部品1
 48
50.0
100
AcDbPolyline
 90
        2
 70
     0
 43
0.0
 10
7431.097197605108
 20
4092.335035172443
 10
7431.097197605108
 20
4081.406152467876
  0
LWPOLYLINE
  5
17B7C
330
747D
100
AcDbEntity
  8
部品1
 48
50.0
100
AcDbPolyline
 90
        2
 70
     0
 43
0.0
 10
7438.097197605109
 20
4107.826968557274
 10
7438.097197605109
 20
4118.755851261841
  0
ARC
  5
17B7D
330
747D
100
AcDbEntity
  8
部品1
 48
50.0
100
AcDbCircle
 10
7434.597197605107
 20
4100.081001864859
 30
0.0
 40
8.5
100
AcDbArc
 50
294.315739171091
 51
65.68426082890896
  0
LWPOLYLINE
  5
17B7E
330
747D
100
AcDbEntity
  8
部品1
 48
50.0
100
AcDbPolyline
 90
        2
 70
     0
 43
0.0
 10
7438.097197605109
 20
4081.406152467876
 10
7438.097197605109
 20
4092.335035172443
  0
ARC
  5
17B7F
330
747D
100
AcDbEntity
  8
細線
 48
50.0
100
AcDbCircle
 10
7434.597197605107
 20
4100.081001864859
 30
0.0
 40
16.5
100
AcDbArc
 50
332.0012352654438
 51
27.99876473455621
  0
ARC
  5
17B80
330
747D
100
AcDbEntity
  8
細線
 48
50.0
100
AcDbCircle
 10
7434.597197605107
 20
4100.081001864859
 30
0.0
 40
14.0
100
AcDbArc
 50
326.407443611277
 51
33.59255638872305
  0
LINE
  5
17B81
330
747D
100
AcDbEntity
  8
細線
 48
50.0
100
AcDbLine
 10
7420.028395320776
 20
4107.826968557274
 30
0.0
 11
7422.935293815419
 21
4107.826968557274
 31
0.0
  0
LINE
  5
17B82
330
747D
100
AcDbEntity
  8
細線
 48
50.0
100
AcDbLine
 10
7420.028395320776
 20
4092.335035172443
 30
0.0
 11
7422.935293815419
 21
4092.335035172443
 31
0.0
  0
LINE
  5
17B83
330
747D
100
AcDbEntity
  8
細線
 48
50.0
100
AcDbLine
 10
7446.259101394797
 20
4107.826968557274
 30
0.0
 11
7449.165999889443
 21
4107.826968557274
 31
0.0
  0
LINE
  5
17B84
330
747D
100
AcDbEntity
  8
細線
 48
50.0
100
AcDbLine
 10
7446.259101394797
 20
4092.335035172443
 30
0.0
 11
7449.165999889443
 21
4092.335035172443
 31
0.0
  0
ARC
  5
17B85
330
747D
100
AcDbEntity
  8
細線
 48
50.0
100
AcDbCircle
 10
7434.597197605107
 20
4100.081001864859
 30
0.0
 40
14.0
100
AcDbArc
 50
146.4074436112769
 51
213.592556388723
  0
ARC
  5
17B86
330
747D
100
AcDbEntity
  8
細線
 48
50.0
100
AcDbCircle
 10
7434.597197605107
 20
4100.081001864859
 30
0.0
 40
16.5
100
AcDbArc
 50
152.0012352654438
 51
207.9987647345562
  0
ARC
  5
17B87
330
747D
100
AcDbEntity
  8
部品1
 48
50.0
100
AcDbCircle
 10
7408.097197605107
 20
4125.581001864858
 30
0.0
 40
5.0
100
AcDbArc
 50
90.0
 51
180.0
  0
ARC
  5
17B88
330
747D
100
AcDbEntity
  8
部品1
 48
50.0
100
AcDbCircle
 10
7408.097197605107
 20
4014.581001864859
 30
0.0
 40
5.0
100
AcDbArc
 50
180.0
 51
270.0
  0
ARC
  5
17B89
330
747D
100
AcDbEntity
  8
部品1
 48
50.0
100
AcDbCircle
 10
7461.097197605107
 20
4014.581001864859
 30
0.0
 40
5.0
100
AcDbArc
 50
270.0
 51
0.0
  0
ARC
  5
17B8A
330
747D
100
AcDbEntity
  8
部品1
 48
50.0
100
AcDbCircle
 10
7461.097197605107
 20
4125.581001864858
 30
0.0
 40
5.0
100
AcDbArc
 50
0.0
 51
90.0
  0
LINE
  5
17B8B
330
747D
100
AcDbEntity
  8
部品1
 48
50.0
100
AcDbLine
 10
7403.097197605108
 20
4014.581001864859
 30
0.0
 11
7403.097197605108
 21
4125.581001864858
 31
0.0
  0
LINE
  5
17B8C
330
747D
100
AcDbEntity
  8
部品1
 48
50.0
100
AcDbLine
 10
7461.097197605107
 20
4009.581001864859
 30
0.0
 11
7408.097197605107
 21
4009.581001864859
 31
0.0
  0
LINE
  5
17B8D
330
747D
100
AcDbEntity
  8
部品1
 48
50.0
100
AcDbLine
 10
7466.097197605107
 20
4125.581001864858
 30
0.0
 11
7466.097197605107
 21
4014.581001864859
 31
0.0
  0
ENDSEC
  0
SECTION
  2
OBJECTS
  0
DICTIONARY
  5
7471
330
0
100
AcDbDictionary
281
     1
  3
ACAD_COLOR
350
161DE
  3
ACAD_GROUP
350
7472
  3
ACAD_LAYOUT
350
161DF
  3
ACAD_MATERIAL
350
161DD
  3
ACAD_MLINESTYLE
350
7473
  3
ACAD_PLOTSETTINGS
350
161E0
  3
ACAD_PLOTSTYLENAME
350
161DB
  3
ACDBHEADERROUNDTRIPXREC
350
17B9C
  3
AcDbVariableDictionary
350
17B98
  3
CONTENTDICTIONARY
350
E71C
  3
DRAWINGVARIABLESDICT
350
F3B9
  0
DICTIONARY
  5
1637A
330
7467
100
AcDbDictionary
280
     1
281
     1
  3
ACAD_LAYERSTATES
360
1637B
  0
DICTIONARY
  5
161DE
102
{ACAD_REACTORS
330
7471
102
}
330
7471
100
AcDbDictionary
281
     1
  0
DICTIONARY
  5
7472
102
{ACAD_REACTORS
330
7471
102
}
330
7471
100
AcDbDictionary
281
     1
  0
DICTIONARY
  5
161DF
102
{ACAD_REACTORS
330
7471
102
}
330
7471
100
AcDbDictionary
281
     1
  3
Model
350
161E1
  3
レイアウト1
350
161E2
  0
DICTIONARY
  5
161DD
102
{ACAD_REACTORS
330
7471
102
}
330
7471
100
AcDbDictionary
281
     1
  0
DICTIONARY
  5
7473
102
{ACAD_REACTORS
330
7471
102
}
330
7471
100
AcDbDictionary
281
     1
  3
STANDARD
350
7480
  0
DICTIONARY
  5
161E0
102
{ACAD_REACTORS
330
7471
102
}
330
7471
100
AcDbDictionary
281
     1
  0
ACDBDICTIONARYWDFLT
  5
161DB
102
{ACAD_REACTORS
330
7471
102
}
330
7471
100
AcDbDictionary
281
     1
  3
Normal
350
161DC
100
AcDbDictionaryWithDefault
340
161DC
  0
DICTIONARY
  5
17B9C
102
{ACAD_REACTORS
330
7471
102
}
330
7471
100
AcDbDictionary
281
     1
  3
COLORDICT
350
17B9E
  3
MATERIALDICT
350
17B9D
  0
DICTIONARY
  5
17B98
102
{ACAD_REACTORS
330
7471
102
}
330
7471
100
AcDbDictionary
281
     1
  3
DIMASSOC
350
17B99
  3
PROJECTNAME
350
17B9A
  0
DICTIONARY
  5
E71C
102
{ACAD_REACTORS
330
7471
102
}
330
7471
100
AcDbDictionary
281
     1
  0
DICTIONARY
  5
F3B9
102
{ACAD_REACTORS
330
7471
102
}
330
7471
100
AcDbDictionary
281
     1
1001
DRAWINGVARIABLESXDATA
1000
POLARMODE
1000
1
  0
DICTIONARY
  5
1637B
102
{ACAD_REACTORS
330
1637A
102
}
330
1637A
100
AcDbDictionary
281
     1
  0
LAYOUT
  5
161E1
102
{ACAD_XDICTIONARY
360
17B9F
102
}
102
{ACAD_REACTORS
330
161DF
102
}
330
161DF
100
AcDbPlotSettings
  1

  2
none_device
  4
Letter_(8.50_x_11.00_Inches)
  6

 40
6.349999904632568
 41
6.349999904632568
 42
6.350006103515625
 43
6.350006103515625
 44
215.8999938964844
 45
279.3999938964844
 46
0.0
 47
0.0
 48
0.0
 49
0.0
140
0.0
141
0.0
142
1.0
143
1.0
 70
 11952
 72
     1
 73
     1
 74
     0
  7

 75
     0
147
1.0
148
-62.77903674758182
149
538.7696769946778
100
AcDbLayout
  1
Model
 70
     1
 71
     0
 10
0.0
 20
0.0
 11
12.0
 21
9.0
 12
0.0
 22
0.0
 32
0.0
 14
0.0
 24
0.0
 34
0.0
 15
0.0
 25
0.0
 35
0.0
146
0.0
 13
0.0
 23
0.0
 33
0.0
 16
1.0
 26
0.0
 36
0.0
 17
0.0
 27
1.0
 37
0.0
 76
     0
330
747D
  0
LAYOUT
  5
161E2
102
{ACAD_XDICTIONARY
360
17BA1
102
}
102
{ACAD_REACTORS
330
161DF
102
}
330
161DF
100
AcDbPlotSettings
  1

  2
EPSON LP-7000C
  4

  6

 40
0.0
 41
0.0
 42
0.0
 43
0.0
 44
0.0
 45
0.0
 46
0.0
 47
0.0
 48
0.0
 49
0.0
140
0.0
141
0.0
142
1.0
143
1.0
 70
   688
 72
     0
 73
     0
 74
     5
  7
inaba.ctb
 75
    16
147
1.0
148
0.0
149
0.0
100
AcDbLayout
  1
レイアウト1
 70
     0
 71
     1
 10
0.0
 20
0.0
 11
420.0
 21
297.0
 12
0.0
 22
0.0
 32
0.0
 14
1.000000000000000E+20
 24
1.000000000000000E+20
 34
1.000000000000000E+20
 15
-1.000000000000000E+20
 25
-1.000000000000000E+20
 35
-1.000000000000000E+20
146
0.0
 13
0.0
 23
0.0
 33
0.0
 16
1.0
 26
0.0
 36
0.0
 17
0.0
 27
1.0
 37
0.0
 76
     0
330
747A
  0
MLINESTYLE
  5
7480
102
{ACAD_REACTORS
330
7473
102
}
330
7473
100
AcDbMlineStyle
  2
STANDARD
 70
     0
  3

 62
     0
 51
90.0
 52
90.0
 71
     2
 49
0.5
 62
   256
  6
BYLAYER
 49
-0.5
 62
   256
  6
BYLAYER
  0
ACDBPLACEHOLDER
  5
161DC
102
{ACAD_REACTORS
330
161DB
102
}
330
161DB
  0
XRECORD
  5
17B9E
102
{ACAD_REACTORS
330
17B9C
102
}
330
17B9C
100
AcDbXrecord
280
     1
340
161DE
  0
XRECORD
  5
17B9D
102
{ACAD_REACTORS
330
17B9C
102
}
330
17B9C
100
AcDbXrecord
280
     1
340
161DD
  0
DICTIONARYVAR
  5
17B99
102
{ACAD_REACTORS
330
17B98
102
}
330
17B98
100
DictionaryVariables
280
     0
  1
1
  0
DICTIONARYVAR
  5
17B9A
102
{ACAD_REACTORS
330
17B98
102
}
330
17B98
100
DictionaryVariables
280
     0
  1

  0
DICTIONARY
  5
17B9F
330
161E1
100
AcDbDictionary
280
     1
281
     1
  3
ACAD_XREC_ROUNDTRIP
360
17BA0
  0
DICTIONARY
  5
17BA1
330
161E2
100
AcDbDictionary
280
     1
281
     1
  3
ACAD_XREC_ROUNDTRIP
360
17BA2
  0
XRECORD
  5
17BA0
102
{ACAD_REACTORS
330
17B9F
102
}
330
17B9F
100
AcDbXrecord
280
     1
102
SHADEPLOT
 70
     0
102
SHADEPLOTRESLEVEL
 70
     2
102
SHADEPLOTCUSTOMDPI
 70
   300
  0
XRECORD
  5
17BA2
102
{ACAD_REACTORS
330
17BA1
102
}
330
17BA1
100
AcDbXrecord
280
     1
102
SHADEPLOT
 70
     0
102
SHADEPLOTRESLEVEL
 70
     2
102
SHADEPLOTCUSTOMDPI
 70
   300
  0
ENDSEC
  0
EOF
