  0
SECTION
  2
HEADER
  9
$ACADVER
  1
AC1015
  9
$ACADMAINTVER
 70
    20
  9
$DWGCODEPAGE
  3
ANSI_932
  9
$INSBASE
 10
0.0
 20
0.0
 30
0.0
  9
$EXTMIN
 10
139.9999999999995
 20
-0.0000000000000909
 30
0.0
  9
$EXTMAX
 10
16307.2
 20
11409.6
 30
0.0
  9
$LIMMIN
 10
0.0
 20
0.0
  9
$LIMMAX
 10
16800.0
 20
11880.0
  9
$ORTHOMODE
 70
     0
  9
$REGENMODE
 70
     1
  9
$FILLMODE
 70
     1
  9
$QTEXTMODE
 70
     0
  9
$MIRRTEXT
 70
     1
  9
$LTSCALE
 40
20.0
  9
$ATTMODE
 70
     1
  9
$TEXTSIZE
 40
4.0
  9
$TRACEWID
 40
1.0
  9
$TEXTSTYLE
  7
STYLE1
  9
$CLAYER
  8
細線
  9
$CELTYPE
  6
BYLAYER
  9
$CECOLOR
 62
   256
  9
$CELTSCALE
 40
50.0
  9
$DISPSILH
 70
     0
  9
$DIMSCALE
 40
40.0
  9
$DIMASZ
 40
2.5
  9
$DIMEXO
 40
0.5
  9
$DIMDLI
 40
7.0
  9
$DIMRND
 40
0.0
  9
$DIMDLE
 40
0.0
  9
$DIMEXE
 40
1.5
  9
$DIMTP
 40
0.0
  9
$DIMTM
 40
0.0
  9
$DIMTXT
 40
3.0
  9
$DIMCEN
 40
0.0
  9
$DIMTSZ
 40
0.0
  9
$DIMTOL
 70
     0
  9
$DIMLIM
 70
     0
  9
$DIMTIH
 70
     0
  9
$DIMTOH
 70
     0
  9
$DIMSE1
 70
     0
  9
$DIMSE2
 70
     0
  9
$DIMTAD
 70
     3
  9
$DIMZIN
 70
     8
  9
$DIMBLK
  1

  9
$DIMASO
 70
     1
  9
$DIMSHO
 70
     1
  9
$DIMPOST
  1

  9
$DIMAPOST
  1

  9
$DIMALT
 70
     0
  9
$DIMALTD
 70
     2
  9
$DIMALTF
 40
0.0394
  9
$DIMLFAC
 40
1.0
  9
$DIMTOFL
 70
     1
  9
$DIMTVP
 40
0.0
  9
$DIMTIX
 70
     1
  9
$DIMSOXD
 70
     0
  9
$DIMSAH
 70
     1
  9
$DIMBLK1
  1
DOTSMALL
  9
$DIMBLK2
  1
DOTSMALL
  9
$DIMSTYLE
  2
INABA_S40G
  9
$DIMCLRD
 70
     0
  9
$DIMCLRE
 70
     0
  9
$DIMCLRT
 70
     7
  9
$DIMTFAC
 40
1.0
  9
$DIMGAP
 40
1.0
  9
$DIMJUST
 70
     0
  9
$DIMSD1
 70
     0
  9
$DIMSD2
 70
     0
  9
$DIMTOLJ
 70
     1
  9
$DIMTZIN
 70
     0
  9
$DIMALTZ
 70
     0
  9
$DIMALTTZ
 70
     0
  9
$DIMUPT
 70
     0
  9
$DIMDEC
 70
     1
  9
$DIMTDEC
 70
     4
  9
$DIMALTU
 70
     2
  9
$DIMALTTD
 70
     2
  9
$DIMTXSTY
  7
STYLE1
  9
$DIMAUNIT
 70
     0
  9
$DIMADEC
 70
     0
  9
$DIMALTRND
 40
0.0
  9
$DIMAZIN
 70
     0
  9
$DIMDSEP
 70
    46
  9
$DIMATFIT
 70
     3
  9
$DIMFRAC
 70
     0
  9
$DIMLDRBLK
  1

  9
$DIMLUNIT
 70
     2
  9
$DIMLWD
 70
    -2
  9
$DIMLWE
 70
    -2
  9
$DIMTMOVE
 70
     0
  9
$LUNITS
 70
     2
  9
$LUPREC
 70
     1
  9
$SKETCHINC
 40
1.0
  9
$FILLETRAD
 40
3.0
  9
$AUNITS
 70
     0
  9
$AUPREC
 70
     0
  9
$MENU
  1
acad
  9
$ELEVATION
 40
0.0
  9
$PELEVATION
 40
0.0
  9
$THICKNESS
 40
0.0
  9
$LIMCHECK
 70
     0
  9
$CHAMFERA
 40
0.0
  9
$CHAMFERB
 40
0.0
  9
$CHAMFERC
 40
0.0
  9
$CHAMFERD
 40
0.0
  9
$SKPOLY
 70
     0
  9
$TDCREATE
 40
2451368.612993866
  9
$TDUCREATE
 40
2451368.237993866
  9
$TDUPDATE
 40
2455827.647817882
  9
$TDUUPDATE
 40
2455827.272817882
  9
$TDINDWG
 40
0.7971294444
  9
$TDUSRTIMER
 40
0.7971294444
  9
$USRTIMER
 70
     1
  9
$ANGBASE
 50
0.0
  9
$ANGDIR
 70
     0
  9
$PDMODE
 70
     3
  9
$PDSIZE
 40
2.0
  9
$PLINEWID
 40
0.0
  9
$SPLFRAME
 70
     0
  9
$SPLINETYPE
 70
     6
  9
$SPLINESEGS
 70
     8
  9
$HANDSEED
  5
23723
  9
$SURFTAB1
 70
     6
  9
$SURFTAB2
 70
     6
  9
$SURFTYPE
 70
     6
  9
$SURFU
 70
     6
  9
$SURFV
 70
     6
  9
$UCSBASE
  2

  9
$UCSNAME
  2

  9
$UCSORG
 10
0.0
 20
0.0
 30
0.0
  9
$UCSXDIR
 10
1.0
 20
0.0
 30
0.0
  9
$UCSYDIR
 10
0.0
 20
1.0
 30
0.0
  9
$UCSORTHOREF
  2

  9
$UCSORTHOVIEW
 70
     0
  9
$UCSORGTOP
 10
0.0
 20
0.0
 30
0.0
  9
$UCSORGBOTTOM
 10
0.0
 20
0.0
 30
0.0
  9
$UCSORGLEFT
 10
0.0
 20
0.0
 30
0.0
  9
$UCSORGRIGHT
 10
0.0
 20
0.0
 30
0.0
  9
$UCSORGFRONT
 10
0.0
 20
0.0
 30
0.0
  9
$UCSORGBACK
 10
0.0
 20
0.0
 30
0.0
  9
$PUCSBASE
  2

  9
$PUCSNAME
  2

  9
$PUCSORG
 10
0.0
 20
0.0
 30
0.0
  9
$PUCSXDIR
 10
1.0
 20
0.0
 30
0.0
  9
$PUCSYDIR
 10
0.0
 20
1.0
 30
0.0
  9
$PUCSORTHOREF
  2

  9
$PUCSORTHOVIEW
 70
     0
  9
$PUCSORGTOP
 10
0.0
 20
0.0
 30
0.0
  9
$PUCSORGBOTTOM
 10
0.0
 20
0.0
 30
0.0
  9
$PUCSORGLEFT
 10
0.0
 20
0.0
 30
0.0
  9
$PUCSORGRIGHT
 10
0.0
 20
0.0
 30
0.0
  9
$PUCSORGFRONT
 10
0.0
 20
0.0
 30
0.0
  9
$PUCSORGBACK
 10
0.0
 20
0.0
 30
0.0
  9
$USERI1
 70
     0
  9
$USERI2
 70
     0
  9
$USERI3
 70
     0
  9
$USERI4
 70
     0
  9
$USERI5
 70
     0
  9
$USERR1
 40
0.0
  9
$USERR2
 40
0.0
  9
$USERR3
 40
0.0
  9
$USERR4
 40
0.0
  9
$USERR5
 40
0.0
  9
$WORLDVIEW
 70
     1
  9
$SHADEDGE
 70
     3
  9
$SHADEDIF
 70
    70
  9
$TILEMODE
 70
     1
  9
$MAXACTVP
 70
    16
  9
$PINSBASE
 10
0.0
 20
0.0
 30
0.0
  9
$PLIMCHECK
 70
     0
  9
$PEXTMIN
 10
1.000000000000000E+20
 20
1.000000000000000E+20
 30
1.000000000000000E+20
  9
$PEXTMAX
 10
-1.000000000000000E+20
 20
-1.000000000000000E+20
 30
-1.000000000000000E+20
  9
$PLIMMIN
 10
0.0
 20
0.0
  9
$PLIMMAX
 10
420.0
 20
297.0
  9
$UNITMODE
 70
     0
  9
$VISRETAIN
 70
     0
  9
$PLINEGEN
 70
     0
  9
$PSLTSCALE
 70
     0
  9
$TREEDEPTH
 70
  3020
  9
$CMLSTYLE
  2
STANDARD
  9
$CMLJUST
 70
     0
  9
$CMLSCALE
 40
1.0
  9
$PROXYGRAPHICS
 70
     1
  9
$MEASUREMENT
 70
     1
  9
$CELWEIGHT
370
    -1
  9
$ENDCAPS
280
     0
  9
$JOINSTYLE
280
     0
  9
$LWDISPLAY
290
     0
  9
$INSUNITS
 70
     0
  9
$HYPERLINKBASE
  1

  9
$STYLESHEET
  1
ACA3.ctb
  9
$XEDIT
290
     1
  9
$CEPSNTYPE
380
     0
  9
$PSTYLEMODE
290
     1
  9
$FINGERPRINTGUID
  2
{5EAC461A-2277-4BF8-9AB0-99C43BB394F0}
  9
$VERSIONGUID
  2
{1C509CEB-305C-4975-AD49-D15BCD04DA4B}
  9
$EXTNAMES
290
     1
  9
$PSVPSCALE
 40
0.0
  9
$OLESTARTUP
290
     0
  0
ENDSEC
  0
SECTION
  2
CLASSES
  0
CLASS
  1
ACDBDICTIONARYWDFLT
  2
AcDbDictionaryWithDefault
  3
ObjectDBX Classes
 90
        0
280
     0
281
     0
  0
CLASS
  1
DICTIONARYVAR
  2
AcDbDictionaryVar
  3
ObjectDBX Classes
 90
        0
280
     0
281
     0
  0
CLASS
  1
ACDBPLACEHOLDER
  2
AcDbPlaceHolder
  3
ObjectDBX Classes
 90
        0
280
     0
281
     0
  0
CLASS
  1
LAYOUT
  2
AcDbLayout
  3
ObjectDBX Classes
 90
        0
280
     0
281
     0
  0
ENDSEC
  0
SECTION
  2
TABLES
  0
TABLE
  2
VPORT
  5
746D
330
0
100
AcDbSymbolTable
 70
     2
  0
VPORT
  5
2371B
330
746D
100
AcDbSymbolTableRecord
100
AcDbViewportTableRecord
  2
*Active
 70
     0
 10
0.0
 20
0.0
 11
1.0
 21
1.0
 12
8399.999999999998
 22
6549.946086030115
 13
0.0
 23
0.0
 14
10.0
 24
10.0
 15
10.0
 25
10.0
 16
0.0
 26
0.0
 36
1.0
 17
0.0
 27
0.0
 37
0.0
 40
13195.53355943939
 41
1.522222222222222
 42
50.0
 43
0.0
 44
0.0
 50
0.0
 51
0.0
 71
     0
 72
     0
 73
     1
 74
     0
 75
     0
 76
     0
 77
     0
 78
     0
281
     0
 65
     1
110
0.0
120
0.0
130
0.0
111
1.0
121
0.0
131
0.0
112
0.0
122
1.0
132
0.0
 79
     0
146
0.0
  0
ENDTAB
  0
TABLE
  2
LTYPE
  5
746A
330
0
100
AcDbSymbolTable
 70
     5
  0
LTYPE
  5
7477
330
746A
100
AcDbSymbolTableRecord
100
AcDbLinetypeTableRecord
  2
BYBLOCK
 70
     0
  3

 72
    65
 73
     0
 40
0.0
  0
LTYPE
  5
7478
330
746A
100
AcDbSymbolTableRecord
100
AcDbLinetypeTableRecord
  2
BYLAYER
 70
     0
  3

 72
    65
 73
     0
 40
0.0
  0
LTYPE
  5
7479
330
746A
100
AcDbSymbolTableRecord
100
AcDbLinetypeTableRecord
  2
CONTINUOUS
 70
     0
  3
Solid line
 72
    65
 73
     0
 40
0.0
  0
LTYPE
  5
7816
330
746A
100
AcDbSymbolTableRecord
100
AcDbLinetypeTableRecord
  2
CENTER
 70
     0
  3
____ _ ____ _ ____ _ ____ _ ____ _ ____ _ ____ 
 72
    65
 73
     4
 40
2.0
 49
1.25
 74
     0
 49
-0.25
 74
     0
 49
0.25
 74
     0
 49
-0.25
 74
     0
  0
LTYPE
  5
781A
330
746A
100
AcDbSymbolTableRecord
100
AcDbLinetypeTableRecord
  2
HIDDEN
 70
     0
  3
__ __ __ __ __ __ __ __ __ __ __ __ __ __ __ __
 72
    65
 73
     2
 40
0.375
 49
0.25
 74
     0
 49
-0.125
 74
     0
  0
LTYPE
  5
781B
330
746A
100
AcDbSymbolTableRecord
100
AcDbLinetypeTableRecord
  2
PHANTOM
 70
     0
  3
______  __  __  ______  __  __  ______  __  __ 
 72
    65
 73
     6
 40
2.5
 49
1.25
 74
     0
 49
-0.25
 74
     0
 49
0.25
 74
     0
 49
-0.25
 74
     0
 49
0.25
 74
     0
 49
-0.25
 74
     0
  0
LTYPE
  5
12CC3
330
746A
100
AcDbSymbolTableRecord
100
AcDbLinetypeTableRecord
  2
HIDDENX2
 70
     0
  3
Hidden (2x) ____ ____ ____ ____ ____ ____ ____
 72
    65
 73
     2
 40
19.05
 49
12.7
 74
     0
 49
-6.349999999999999
 74
     0
  0
ENDTAB
  0
TABLE
  2
LAYER
  5
7467
102
{ACAD_XDICTIONARY
360
1758F
102
}
330
0
100
AcDbSymbolTable
 70
    13
  0
LAYER
  5
7474
330
7467
100
AcDbSymbolTableRecord
100
AcDbLayerTableRecord
  2
0
 70
     0
 62
     7
  6
CONTINUOUS
370
    -3
390
173D0
  0
LAYER
  5
DEB2
330
7467
100
AcDbSymbolTableRecord
100
AcDbLayerTableRecord
  2
センター
 70
     0
 62
     3
  6
CENTER
370
    -3
390
173D0
  0
LAYER
  5
DEB3
330
7467
100
AcDbSymbolTableRecord
100
AcDbLayerTableRecord
  2
寸法
 70
     0
 62
     4
  6
CONTINUOUS
370
    -3
390
173D0
  0
LAYER
  5
DEB4
330
7467
100
AcDbSymbolTableRecord
100
AcDbLayerTableRecord
  2
部品1
 70
     0
 62
     7
  6
CONTINUOUS
370
    -3
390
173D0
  0
LAYER
  5
DEB5
330
7467
100
AcDbSymbolTableRecord
100
AcDbLayerTableRecord
  2
補助
 70
     0
 62
    -1
  6
CONTINUOUS
370
    -3
390
173D0
  0
LAYER
  5
DEB6
330
7467
100
AcDbSymbolTableRecord
100
AcDbLayerTableRecord
  2
文字
 70
     0
 62
     7
  6
CONTINUOUS
370
    -3
390
173D0
  0
LAYER
  5
F255
330
7467
100
AcDbSymbolTableRecord
100
AcDbLayerTableRecord
  2
DEFPOINTS
 70
     0
 62
     7
  6
CONTINUOUS
290
     0
370
    -3
390
173D0
  0
LAYER
  5
10B54
330
7467
100
AcDbSymbolTableRecord
100
AcDbLayerTableRecord
  2
仕様書枠
 70
     0
 62
   230
  6
CONTINUOUS
370
    -3
390
173D0
  0
LAYER
  5
11729
330
7467
100
AcDbSymbolTableRecord
100
AcDbLayerTableRecord
  2
Ｇ．Ｌ
 70
     0
 62
    30
  6
CONTINUOUS
370
    -3
390
173D0
  0
LAYER
  5
1173F
330
7467
100
AcDbSymbolTableRecord
100
AcDbLayerTableRecord
  2
細線
 70
     0
 62
     5
  6
CONTINUOUS
370
    -3
390
173D0
  0
LAYER
  5
12CC4
330
7467
100
AcDbSymbolTableRecord
100
AcDbLayerTableRecord
  2
想像線
 70
     0
 62
     6
  6
PHANTOM
370
    -3
390
173D0
  0
LAYER
  5
142E2
330
7467
100
AcDbSymbolTableRecord
100
AcDbLayerTableRecord
  2
破線
 70
     0
 62
     2
  6
HIDDEN
370
    -3
390
173D0
  0
LAYER
  5
1F7B1
330
7467
100
AcDbSymbolTableRecord
100
AcDbLayerTableRecord
  2
点線
 70
     0
 62
     2
  6
HIDDEN
370
    -3
390
173D0
  0
ENDTAB
  0
TABLE
  2
STYLE
  5
7468
330
0
100
AcDbSymbolTable
 70
     7
  0
STYLE
  5
7475
330
7468
100
AcDbSymbolTableRecord
100
AcDbTextStyleTableRecord
  2
STANDARD
 70
     0
 40
0.0
 41
1.0
 50
0.0
 71
     0
 42
4.0
  3
txt
  4
C:\AutoCAD LT\bigfont.shx
  0
STYLE
  5
763C
330
7468
100
AcDbSymbolTableRecord
100
AcDbTextStyleTableRecord
  2
MSMINCHO
 70
     0
 40
0.0
 41
1.0
 50
0.0
 71
     0
 42
1.199999999999999
  3
C:\AutoCAD LT\msminch2.TTF
  4

  0
STYLE
  5
F706
330
7468
100
AcDbSymbolTableRecord
100
AcDbTextStyleTableRecord
  2
STYLE1
 70
     0
 40
0.0
 41
1.0
 50
0.0
 71
     0
 42
4.0
  3
isocp.shx
  4
bigfont.shx
  0
STYLE
  5
103BF
330
7468
100
AcDbSymbolTableRecord
100
AcDbTextStyleTableRecord
  2
STYLE2
 70
     0
 40
0.0
 41
1.0
 50
0.0
 71
     0
 42
100.0
  3
MS PGothic.ttf
  4

1001
ACAD
1000
MS PGothic
1071
    32818
  0
STYLE
  5
10BAA
330
7468
100
AcDbSymbolTableRecord
100
AcDbTextStyleTableRecord
  2
STYLE3
 70
     0
 40
0.0
 41
1.0
 50
0.0
 71
     0
 42
100.0
  3

  4

1001
ACAD
1000
DFPGothic-EB
1071
    32818
  0
STYLE
  5
11A15
330
7468
100
AcDbSymbolTableRecord
100
AcDbTextStyleTableRecord
  2
MSGOTHIC
 70
     0
 40
0.0
 41
1.0
 50
0.0
 71
     0
 42
3.5
  3
msgothi2.ttf
  4

  0
STYLE
  5
13E96
330
7468
100
AcDbSymbolTableRecord
100
AcDbTextStyleTableRecord
  2
MSPゴシック
 70
     0
 40
0.0
 41
1.0
 50
0.0
 71
     0
 42
4.0
  3
MS PGothic.ttf
  4

1001
ACAD
1000
MS PGothic
1071
    32818
  0
ENDTAB
  0
TABLE
  2
VIEW
  5
746B
330
0
100
AcDbSymbolTable
 70
     0
  0
ENDTAB
  0
TABLE
  2
UCS
  5
746C
330
0
100
AcDbSymbolTable
 70
     0
  0
ENDTAB
  0
TABLE
  2
APPID
  5
746E
330
0
100
AcDbSymbolTable
 70
     6
  0
APPID
  5
7476
330
746E
100
AcDbSymbolTableRecord
100
AcDbRegAppTableRecord
  2
ACAD
 70
     0
  0
APPID
  5
DEA9
330
746E
100
AcDbSymbolTableRecord
100
AcDbRegAppTableRecord
  2
CONTENTBLOCKICON
 70
     0
  0
APPID
  5
DEAA
330
746E
100
AcDbSymbolTableRecord
100
AcDbRegAppTableRecord
  2
CONTENTBLOCKDESCRIPTION
 70
     0
  0
APPID
  5
E71D
330
746E
100
AcDbSymbolTableRecord
100
AcDbRegAppTableRecord
  2
CONTENTTABDATA
 70
     0
  0
APPID
  5
E71E
330
746E
100
AcDbSymbolTableRecord
100
AcDbRegAppTableRecord
  2
CONTENTCURRENTTAB
 70
     0
  0
APPID
  5
F3BA
330
746E
100
AcDbSymbolTableRecord
100
AcDbRegAppTableRecord
  2
DRAWINGVARIABLESXDATA
 70
     0
  0
ENDTAB
  0
TABLE
  2
DIMSTYLE
  5
746F
330
0
100
AcDbSymbolTable
 70
     6
100
AcDbDimStyleTable
 71
     1
340
F71F
  0
DIMSTYLE
105
7484
330
746F
100
AcDbSymbolTableRecord
100
AcDbDimStyleTableRecord
  2
JIS
 70
     0
 41
2.5
 42
1.0
 43
7.0
 44
1.0
 73
     0
 74
     0
 77
     1
 78
     8
140
2.5
141
0.0
143
0.0394
147
0.0
172
     1
174
     1
175
     1
340
7475
  0
DIMSTYLE
105
F236
330
746F
100
AcDbSymbolTableRecord
100
AcDbDimStyleTableRecord
  2
INABA_S40
 70
     0
 40
40.0
 41
2.5
 42
0.5
 43
7.0
 44
1.5
 73
     0
 74
     0
 77
     3
 78
     8
140
3.0
141
0.0
143
0.0394
147
1.0
172
     1
173
     1
174
     1
175
     1
178
     7
289
     0
340
7475
341
DEAC
343
DEAC
344
DEAC
  0
DIMSTYLE
105
F71F
102
{ACAD_REACTORS
330
202C8
330
2030F
330
20311
330
2031B
330
1FC6F
330
1FC4A
330
1FC2F
330
1FC2E
330
1FB37
330
1FB11
330
1FB0F
330
1FB0E
330
1FA26
330
1FA21
330
1FA1F
330
1FB10
330
1FB0C
330
1FA2F
330
1FC59
330
1FC40
330
1FC30
330
1FB76
330
21720
330
21742
330
2176E
330
21785
330
217D3
330
228AF
330
235F2
330
23652
330
23655
330
2365C
330
23664
330
23665
102
}
330
746F
100
AcDbSymbolTableRecord
100
AcDbDimStyleTableRecord
  2
INABA_S40G
 70
     0
 40
40.0
 41
2.5
 42
0.5
 43
7.0
 44
1.5
 73
     0
 74
     0
 77
     3
 78
     8
140
3.0
141
0.0
143
0.0394
147
1.0
172
     1
173
     1
174
     1
178
     7
271
     1
340
F706
341
F770
343
F770
344
F770
  0
DIMSTYLE
105
142E3
330
746F
100
AcDbSymbolTableRecord
100
AcDbDimStyleTableRecord
  2
INABA_S1
 70
     0
 40
0.0
 41
2.5
 42
0.5
 43
7.0
 44
1.5
 73
     0
 74
     0
 77
     3
 78
     8
140
3.0
141
0.0
143
0.0394
146
0.5
147
0.5
172
     1
173
     1
176
   256
177
   256
178
     7
271
     2
272
     2
284
     8
288
     1
340
7475
341
DEAC
343
DEAC
344
DEAC
  0
DIMSTYLE
105
14463
330
746F
100
AcDbSymbolTableRecord
100
AcDbDimStyleTableRecord
  2
INABA_S30G
 70
     0
 40
30.0
 41
2.5
 42
0.5
 43
7.0
 44
1.5
 73
     0
 74
     0
 77
     3
 78
     8
140
3.0
141
0.0
143
0.0394
147
1.0
172
     1
173
     1
174
     1
175
     1
178
     7
271
     1
340
F706
341
F770
343
F770
344
F770
  0
DIMSTYLE
105
1758E
330
746F
100
AcDbSymbolTableRecord
100
AcDbDimStyleTableRecord
  2
INABA_S50G
 70
     0
 41
125.0
 42
25.0
 43
7.0
 44
75.0
 73
     0
 74
     0
 77
     3
 78
     8
140
150.0
141
0.0
143
0.0394
147
25.0
172
     1
173
     1
174
     1
175
     1
178
     7
271
     1
340
F706
341
F770
343
F770
344
F770
  0
ENDTAB
  0
TABLE
  2
BLOCK_RECORD
  5
7466
330
0
100
AcDbSymbolTable
 70
    53
  0
BLOCK_RECORD
  5
747D
330
7466
100
AcDbSymbolTableRecord
100
AcDbBlockTableRecord
  2
*MODEL_SPACE
340
173D5
  0
BLOCK_RECORD
  5
747A
330
7466
100
AcDbSymbolTableRecord
100
AcDbBlockTableRecord
  2
*PAPER_SPACE
340
173D6
  0
BLOCK_RECORD
  5
DEAC
330
7466
100
AcDbSymbolTableRecord
100
AcDbBlockTableRecord
  2
_OPEN
340
0
  0
BLOCK_RECORD
  5
F770
330
7466
100
AcDbSymbolTableRecord
100
AcDbBlockTableRecord
  2
_DOTSMALL
340
0
102
{BLKREFS
331
18C65
331
18C66
331
18C59
331
18C5A
331
18C4D
331
18C4E
331
18C41
331
18C42
331
18C35
331
18C36
331
18C29
331
18C2A
331
18C1D
331
18C1E
331
18C0F
331
18C10
331
18C03
331
18C04
331
18BF5
331
18BF6
331
18BE7
331
18BE8
331
18BD9
331
18BDA
331
18BCD
331
18BCE
331
22A7C
331
22A7D
331
22A87
331
22A88
331
22A92
331
22A93
331
22A9D
331
22A9E
331
22AA7
331
22AA8
331
22ABB
331
22ABC
331
22AD6
331
22AD7
331
22ADF
331
22AE0
331
22AE9
331
22AEA
331
22AF2
331
22AF3
331
22AFB
331
22AFC
331
22B04
331
22B05
331
22B0E
331
22B0F
331
22B18
331
22B19
331
22B21
331
22B22
331
22B2B
331
22B2C
331
22B34
331
22B35
331
22B3D
331
22B3E
331
22B46
331
22B47
331
22F1D
331
22F1E
331
22F26
331
22F27
331
22F2F
331
22F30
331
22F38
331
22F39
331
22F41
331
22F42
331
22F53
331
22F54
331
22F5C
331
22F5D
331
22F65
331
22F66
331
22F7B
331
22F7C
331
22FAC
331
22FAD
331
236C9
331
236CA
331
236D2
331
236D3
331
236DB
331
236DC
331
236E9
331
236EA
331
236F1
331
236F2
331
23706
331
23707
102
}
  0
BLOCK_RECORD
  5
164B4
330
7466
100
AcDbSymbolTableRecord
100
AcDbBlockTableRecord
  2
_DOT
340
0
102
{BLKREFS
331
18C73
331
18C74
102
}
  0
BLOCK_RECORD
  5
18BC8
330
7466
100
AcDbSymbolTableRecord
100
AcDbBlockTableRecord
  2
*D3
340
0
  0
BLOCK_RECORD
  5
18BD4
330
7466
100
AcDbSymbolTableRecord
100
AcDbBlockTableRecord
  2
*D4
340
0
  0
BLOCK_RECORD
  5
18BE0
330
7466
100
AcDbSymbolTableRecord
100
AcDbBlockTableRecord
  2
*D5
340
0
  0
BLOCK_RECORD
  5
18BEE
330
7466
100
AcDbSymbolTableRecord
100
AcDbBlockTableRecord
  2
*D6
340
0
  0
BLOCK_RECORD
  5
18BFC
330
7466
100
AcDbSymbolTableRecord
100
AcDbBlockTableRecord
  2
*D7
340
0
  0
BLOCK_RECORD
  5
18C0A
330
7466
100
AcDbSymbolTableRecord
100
AcDbBlockTableRecord
  2
*D8
340
0
  0
BLOCK_RECORD
  5
18C16
330
7466
100
AcDbSymbolTableRecord
100
AcDbBlockTableRecord
  2
*D9
340
0
  0
BLOCK_RECORD
  5
18C24
330
7466
100
AcDbSymbolTableRecord
100
AcDbBlockTableRecord
  2
*D10
340
0
  0
BLOCK_RECORD
  5
18C30
330
7466
100
AcDbSymbolTableRecord
100
AcDbBlockTableRecord
  2
*D11
340
0
  0
BLOCK_RECORD
  5
18C3C
330
7466
100
AcDbSymbolTableRecord
100
AcDbBlockTableRecord
  2
*D12
340
0
  0
BLOCK_RECORD
  5
18C48
330
7466
100
AcDbSymbolTableRecord
100
AcDbBlockTableRecord
  2
*D13
340
0
  0
BLOCK_RECORD
  5
18C54
330
7466
100
AcDbSymbolTableRecord
100
AcDbBlockTableRecord
  2
*D14
340
0
  0
BLOCK_RECORD
  5
18C60
330
7466
100
AcDbSymbolTableRecord
100
AcDbBlockTableRecord
  2
*D15
340
0
  0
BLOCK_RECORD
  5
18C6C
330
7466
100
AcDbSymbolTableRecord
100
AcDbBlockTableRecord
  2
*D16
340
0
  0
BLOCK_RECORD
  5
18C7A
330
7466
100
AcDbSymbolTableRecord
100
AcDbBlockTableRecord
  2
A$C3B1A506B
340
0
  0
BLOCK_RECORD
  5
1C4CA
330
7466
100
AcDbSymbolTableRecord
100
AcDbBlockTableRecord
  2
_NONE
340
0
  0
BLOCK_RECORD
  5
1FC7E
330
7466
100
AcDbSymbolTableRecord
100
AcDbBlockTableRecord
  2
*D19
340
0
  0
BLOCK_RECORD
  5
1FC89
330
7466
100
AcDbSymbolTableRecord
100
AcDbBlockTableRecord
  2
*D20
340
0
  0
BLOCK_RECORD
  5
1FC94
330
7466
100
AcDbSymbolTableRecord
100
AcDbBlockTableRecord
  2
*D21
340
0
  0
BLOCK_RECORD
  5
1FC9F
330
7466
100
AcDbSymbolTableRecord
100
AcDbBlockTableRecord
  2
*D22
340
0
  0
BLOCK_RECORD
  5
1FCFB
330
7466
100
AcDbSymbolTableRecord
100
AcDbBlockTableRecord
  2
*D23
340
0
  0
BLOCK_RECORD
  5
1FD10
330
7466
100
AcDbSymbolTableRecord
100
AcDbBlockTableRecord
  2
*D24
340
0
  0
BLOCK_RECORD
  5
1FD1D
330
7466
100
AcDbSymbolTableRecord
100
AcDbBlockTableRecord
  2
*D25
340
0
  0
BLOCK_RECORD
  5
1FD2A
330
7466
100
AcDbSymbolTableRecord
100
AcDbBlockTableRecord
  2
*D26
340
0
  0
BLOCK_RECORD
  5
1FD36
330
7466
100
AcDbSymbolTableRecord
100
AcDbBlockTableRecord
  2
*D27
340
0
  0
BLOCK_RECORD
  5
1FD7F
330
7466
100
AcDbSymbolTableRecord
100
AcDbBlockTableRecord
  2
*D28
340
0
  0
BLOCK_RECORD
  5
1FD96
330
7466
100
AcDbSymbolTableRecord
100
AcDbBlockTableRecord
  2
*D29
340
0
  0
BLOCK_RECORD
  5
1FDE9
330
7466
100
AcDbSymbolTableRecord
100
AcDbBlockTableRecord
  2
*D30
340
0
  0
BLOCK_RECORD
  5
1FDF5
330
7466
100
AcDbSymbolTableRecord
100
AcDbBlockTableRecord
  2
*D31
340
0
  0
BLOCK_RECORD
  5
1FE00
330
7466
100
AcDbSymbolTableRecord
100
AcDbBlockTableRecord
  2
*D32
340
0
  0
BLOCK_RECORD
  5
1FE0B
330
7466
100
AcDbSymbolTableRecord
100
AcDbBlockTableRecord
  2
*D33
340
0
  0
BLOCK_RECORD
  5
1FE17
330
7466
100
AcDbSymbolTableRecord
100
AcDbBlockTableRecord
  2
*D34
340
0
  0
BLOCK_RECORD
  5
1FE24
330
7466
100
AcDbSymbolTableRecord
100
AcDbBlockTableRecord
  2
*D35
340
0
  0
BLOCK_RECORD
  5
1FE31
330
7466
100
AcDbSymbolTableRecord
100
AcDbBlockTableRecord
  2
*D36
340
0
  0
BLOCK_RECORD
  5
2033A
330
7466
100
AcDbSymbolTableRecord
100
AcDbBlockTableRecord
  2
*D37
340
0
  0
BLOCK_RECORD
  5
203C4
330
7466
100
AcDbSymbolTableRecord
100
AcDbBlockTableRecord
  2
*D38
340
0
  0
BLOCK_RECORD
  5
203DF
330
7466
100
AcDbSymbolTableRecord
100
AcDbBlockTableRecord
  2
*D39
340
0
  0
BLOCK_RECORD
  5
20407
330
7466
100
AcDbSymbolTableRecord
100
AcDbBlockTableRecord
  2
*D40
340
0
  0
BLOCK_RECORD
  5
21721
330
7466
100
AcDbSymbolTableRecord
100
AcDbBlockTableRecord
  2
*D41
340
0
  0
BLOCK_RECORD
  5
21743
330
7466
100
AcDbSymbolTableRecord
100
AcDbBlockTableRecord
  2
*D42
340
0
  0
BLOCK_RECORD
  5
2176F
330
7466
100
AcDbSymbolTableRecord
100
AcDbBlockTableRecord
  2
*D43
340
0
  0
BLOCK_RECORD
  5
21786
330
7466
100
AcDbSymbolTableRecord
100
AcDbBlockTableRecord
  2
*D44
340
0
  0
BLOCK_RECORD
  5
217D4
330
7466
100
AcDbSymbolTableRecord
100
AcDbBlockTableRecord
  2
*D45
340
0
  0
BLOCK_RECORD
  5
228B0
330
7466
100
AcDbSymbolTableRecord
100
AcDbBlockTableRecord
  2
*D46
340
0
  0
BLOCK_RECORD
  5
2366F
330
7466
100
AcDbSymbolTableRecord
100
AcDbBlockTableRecord
  2
*D47
340
0
  0
BLOCK_RECORD
  5
2367B
330
7466
100
AcDbSymbolTableRecord
100
AcDbBlockTableRecord
  2
*D48
340
0
  0
BLOCK_RECORD
  5
23687
330
7466
100
AcDbSymbolTableRecord
100
AcDbBlockTableRecord
  2
*D49
340
0
  0
BLOCK_RECORD
  5
23693
330
7466
100
AcDbSymbolTableRecord
100
AcDbBlockTableRecord
  2
*D50
340
0
  0
BLOCK_RECORD
  5
2369F
330
7466
100
AcDbSymbolTableRecord
100
AcDbBlockTableRecord
  2
*D51
340
0
  0
BLOCK_RECORD
  5
236B0
330
7466
100
AcDbSymbolTableRecord
100
AcDbBlockTableRecord
  2
*D52
340
0
  0
ENDTAB
  0
ENDSEC
  0
SECTION
  2
BLOCKS
  0
BLOCK
  5
7489
330
747D
100
AcDbEntity
  8
0
100
AcDbBlockBegin
  2
*MODEL_SPACE
 70
     0
 10
0.0
 20
0.0
 30
0.0
  3
*MODEL_SPACE
  1

  0
ENDBLK
  5
748A
330
747D
100
AcDbEntity
  8
0
100
AcDbBlockEnd
  0
BLOCK
  5
7487
330
747A
100
AcDbEntity
 67
     1
  8
0
100
AcDbBlockBegin
  2
*PAPER_SPACE
 70
     0
 10
0.0
 20
0.0
 30
0.0
  3
*PAPER_SPACE
  1

  0
ENDBLK
  5
7488
330
747A
100
AcDbEntity
 67
     1
  8
0
100
AcDbBlockEnd
  0
BLOCK
  5
DEAD
330
DEAC
100
AcDbEntity
  8
0
100
AcDbBlockBegin
  2
_OPEN
 70
     0
 10
0.0
 20
0.0
 30
0.0
  3
_OPEN
  1

  0
LINE
  5
DEAE
330
DEAC
100
AcDbEntity
  8
0
  6
ByBlock
 62
     0
100
AcDbLine
 10
-1.0
 20
0.1666666666666666
 30
0.0
 11
0.0
 21
0.0
 31
0.0
  0
LINE
  5
DEAF
330
DEAC
100
AcDbEntity
  8
0
  6
ByBlock
 62
     0
100
AcDbLine
 10
0.0
 20
0.0
 30
0.0
 11
-1.0
 21
-0.1666666666666666
 31
0.0
  0
LINE
  5
DEB0
330
DEAC
100
AcDbEntity
  8
0
  6
ByBlock
 62
     0
100
AcDbLine
 10
0.0
 20
0.0
 30
0.0
 11
-1.0
 21
0.0
 31
0.0
  0
ENDBLK
  5
DEB1
330
DEAC
100
AcDbEntity
  8
0
100
AcDbBlockEnd
  0
BLOCK
  5
F771
330
F770
100
AcDbEntity
  8
0
 48
50.0
100
AcDbBlockBegin
  2
_DOTSMALL
 70
     0
 10
0.0
 20
0.0
 30
0.0
  3
_DOTSMALL
  1

  0
LWPOLYLINE
  5
F772
330
F770
100
AcDbEntity
  8
0
  6
ByBlock
 62
     0
 48
50.0
100
AcDbPolyline
 90
        2
 70
     1
 43
0.5
 10
-0.0625
 20
0.0
 42
1.0
 10
0.0625
 20
0.0
 42
1.0
  0
ENDBLK
  5
F776
330
F770
100
AcDbEntity
  8
0
 48
50.0
100
AcDbBlockEnd
  0
BLOCK
  5
164BA
330
164B4
100
AcDbEntity
  8
0
 48
50.0
100
AcDbBlockBegin
  2
_DOT
 70
     0
 10
0.0
 20
0.0
 30
0.0
  3
_DOT
  1

  0
LWPOLYLINE
  5
164B5
330
164B4
100
AcDbEntity
  8
0
  6
ByBlock
 62
     0
 48
50.0
100
AcDbPolyline
 90
        2
 70
     1
 43
0.5
 10
-0.25
 20
0.0
 42
1.0
 10
0.25
 20
0.0
 42
1.0
  0
LINE
  5
164B9
330
164B4
100
AcDbEntity
  8
0
  6
ByBlock
 62
     0
 48
50.0
100
AcDbLine
 10
-0.5
 20
0.0
 30
0.0
 11
-1.0
 21
0.0
 31
0.0
  0
ENDBLK
  5
164BB
330
164B4
100
AcDbEntity
  8
0
 48
50.0
100
AcDbBlockEnd
  0
BLOCK
  5
18BC9
330
18BC8
100
AcDbEntity
  8
0
 48
50.0
100
AcDbBlockBegin
  2
*D3
 70
     1
 10
0.0
 20
0.0
 30
0.0
  3
*D3
  1

  0
LINE
  5
18BCA
330
18BC8
100
AcDbEntity
  8
寸法
 62
     0
 48
50.0
370
    -2
100
AcDbLine
 10
7649.896575106999
 20
9636.123139034717
 30
0.0
 11
8702.429862581047
 21
9636.123139034717
 31
0.0
  0
LINE
  5
18BCB
330
18BC8
100
AcDbEntity
  8
寸法
 62
     0
 48
50.0
370
    -2
100
AcDbLine
 10
7649.896575106973
 20
7846.123139034709
 30
0.0
 11
8702.429862581047
 21
7846.123139034709
 31
0.0
  0
LINE
  5
18BCC
330
18BC8
100
AcDbEntity
  8
寸法
 62
     0
 48
50.0
370
    -2
100
AcDbLine
 10
8642.429862581046
 20
9636.123139034717
 30
0.0
 11
8642.429862581046
 21
7846.123139034709
 31
0.0
  0
INSERT
  5
18BCD
330
18BC8
100
AcDbEntity
  8
寸法
 62
     0
 48
50.0
370
    -2
100
AcDbBlockReference
  2
_DOTSMALL
 10
8642.429862581046
 20
9636.123139034717
 30
0.0
 41
100.0
 42
100.0
 43
100.0
 50
90.0
  0
INSERT
  5
18BCE
330
18BC8
100
AcDbEntity
  8
寸法
 62
     0
 48
50.0
370
    -2
100
AcDbBlockReference
  2
_DOTSMALL
 10
8642.429862581046
 20
7846.123139034709
 30
0.0
 41
100.0
 42
100.0
 43
100.0
 50
270.0
  0
MTEXT
  5
18BCF
330
18BC8
100
AcDbEntity
  8
寸法
 62
     7
 48
50.0
100
AcDbMText
 10
8542.429862581045
 20
8741.123139034712
 30
0.0
 40
120.0
 41
0.0
 71
     5
 72
     1
  1
\A1;1790
  7
STYLE1
 11
0.0000000000000001
 21
1.0
 31
0.0
 73
     1
 44
1.0
1001
ACAD
1000
MTEXTBEGIN
1070
    73
1070
     1
1070
    44
1040
1.0
1070
    74
1070
     0
1000
MTEXTEND
  0
POINT
  5
18BD0
330
18BC8
100
AcDbEntity
  8
DEFPOINTS
 62
     0
 48
50.0
100
AcDbPoint
 10
7629.896575106998
 20
9636.123139034717
 30
0.0
  0
POINT
  5
18BD1
330
18BC8
100
AcDbEntity
  8
DEFPOINTS
 62
     0
 48
50.0
100
AcDbPoint
 10
7629.896575106974
 20
7846.123139034709
 30
0.0
  0
POINT
  5
18BD2
330
18BC8
100
AcDbEntity
  8
DEFPOINTS
 62
     0
 48
50.0
100
AcDbPoint
 10
8642.429862581046
 20
7846.123139034709
 30
0.0
  0
ENDBLK
  5
18BD3
330
18BC8
100
AcDbEntity
  8
0
 48
50.0
100
AcDbBlockEnd
  0
BLOCK
  5
18BD5
330
18BD4
100
AcDbEntity
  8
0
 48
50.0
100
AcDbBlockBegin
  2
*D4
 70
     1
 10
0.0
 20
0.0
 30
0.0
  3
*D4
  1

  0
LINE
  5
18BD6
330
18BD4
100
AcDbEntity
  8
寸法
 62
     0
 48
50.0
370
    -2
100
AcDbLine
 10
4214.896575106998
 20
9656.123139034622
 30
0.0
 11
4214.896575106998
 21
10211.93135865972
 31
0.0
  0
LINE
  5
18BD7
330
18BD4
100
AcDbEntity
  8
寸法
 62
     0
 48
50.0
370
    -2
100
AcDbLine
 10
7574.896575106999
 20
9656.123139034718
 30
0.0
 11
7574.896575106999
 21
10211.93135865972
 31
0.0
  0
LINE
  5
18BD8
330
18BD4
100
AcDbEntity
  8
寸法
 62
     0
 48
50.0
370
    -2
100
AcDbLine
 10
4214.896575106998
 20
10151.93135865972
 30
0.0
 11
7574.896575106999
 21
10151.93135865972
 31
0.0
  0
INSERT
  5
18BD9
330
18BD4
100
AcDbEntity
  8
寸法
 62
     0
 48
50.0
370
    -2
100
AcDbBlockReference
  2
_DOTSMALL
 10
4214.896575106998
 20
10151.93135865972
 30
0.0
 41
100.0
 42
100.0
 43
100.0
 50
180.0
  0
INSERT
  5
18BDA
330
18BD4
100
AcDbEntity
  8
寸法
 62
     0
 48
50.0
370
    -2
100
AcDbBlockReference
  2
_DOTSMALL
 10
7574.896575106999
 20
10151.93135865972
 30
0.0
 41
100.0
 42
100.0
 43
100.0
  0
MTEXT
  5
18BDB
330
18BD4
100
AcDbEntity
  8
寸法
 62
     7
 48
50.0
100
AcDbMText
 10
5894.896575106997
 20
10251.94316968334
 30
0.0
 40
120.0
 41
0.0
 71
     5
 72
     1
  1
\A1;8X420=3360
  7
STYLE1
 73
     1
 44
1.0
1001
ACAD
1000
MTEXTBEGIN
1070
    73
1070
     1
1070
    44
1040
1.0
1070
    74
1070
     0
1000
MTEXTEND
  0
POINT
  5
18BDC
330
18BD4
100
AcDbEntity
  8
DEFPOINTS
 62
     0
 48
50.0
100
AcDbPoint
 10
4214.896575106998
 20
9636.123139034623
 30
0.0
  0
POINT
  5
18BDD
330
18BD4
100
AcDbEntity
  8
DEFPOINTS
 62
     0
 48
50.0
100
AcDbPoint
 10
7574.896575106999
 20
9636.123139034717
 30
0.0
  0
POINT
  5
18BDE
330
18BD4
100
AcDbEntity
  8
DEFPOINTS
 62
     0
 48
50.0
100
AcDbPoint
 10
7574.896575106999
 20
10151.93135865972
 30
0.0
  0
ENDBLK
  5
18BDF
330
18BD4
100
AcDbEntity
  8
0
 48
50.0
100
AcDbBlockEnd
  0
BLOCK
  5
18BE1
330
18BE0
100
AcDbEntity
  8
0
 48
50.0
100
AcDbBlockBegin
  2
*D5
 70
     1
 10
0.0
 20
0.0
 30
0.0
  3
*D5
  1

  0
LINE
  5
18BE2
330
18BE0
100
AcDbEntity
  8
寸法
 62
     0
 48
50.0
370
    -2
100
AcDbLine
 10
7574.896575106999
 20
9656.123139034718
 30
0.0
 11
7574.896575106999
 21
10211.9313586597
 31
0.0
  0
LINE
  5
18BE3
330
18BE0
100
AcDbEntity
  8
寸法
 62
     0
 48
50.0
370
    -2
100
AcDbLine
 10
7629.896575106998
 20
9656.123139034718
 30
0.0
 11
7629.896575106998
 21
10211.9313586597
 31
0.0
  0
LINE
  5
18BE4
330
18BE0
100
AcDbEntity
  8
寸法
 62
     0
 48
50.0
370
    -2
100
AcDbLine
 10
7574.896575106999
 20
10151.9313586597
 30
0.0
 11
7474.896575106999
 21
10151.9313586597
 31
0.0
  0
LINE
  5
18BE5
330
18BE0
100
AcDbEntity
  8
寸法
 62
     0
 48
50.0
370
    -2
100
AcDbLine
 10
7629.896575106998
 20
10151.9313586597
 30
0.0
 11
8046.867137855477
 21
10151.9313586597
 31
0.0
  0
LINE
  5
18BE6
330
18BE0
100
AcDbEntity
  8
寸法
 62
     0
 48
50.0
370
    -2
100
AcDbLine
 10
7574.896575106999
 20
10151.9313586597
 30
0.0
 11
7629.896575106998
 21
10151.9313586597
 31
0.0
  0
INSERT
  5
18BE7
330
18BE0
100
AcDbEntity
  8
寸法
 62
     0
 48
50.0
370
    -2
100
AcDbBlockReference
  2
_DOTSMALL
 10
7574.896575106999
 20
10151.9313586597
 30
0.0
 41
100.0
 42
100.0
 43
100.0
  0
INSERT
  5
18BE8
330
18BE0
100
AcDbEntity
  8
寸法
 62
     0
 48
50.0
370
    -2
100
AcDbBlockReference
  2
_DOTSMALL
 10
7629.896575106998
 20
10151.9313586597
 30
0.0
 41
100.0
 42
100.0
 43
100.0
 50
180.0
  0
MTEXT
  5
18BE9
330
18BE0
100
AcDbEntity
  8
寸法
 62
     7
 48
50.0
100
AcDbMText
 10
7938.381856481237
 20
10251.9313586597
 30
0.0
 40
120.0
 41
0.0
 71
     5
 72
     1
  1
\A1;55
  7
STYLE1
 73
     1
 44
1.0
1001
ACAD
1000
MTEXTBEGIN
1070
    73
1070
     1
1070
    44
1040
1.0
1070
    74
1070
     0
1000
MTEXTEND
  0
POINT
  5
18BEA
330
18BE0
100
AcDbEntity
  8
DEFPOINTS
 62
     0
 48
50.0
100
AcDbPoint
 10
7574.896575106999
 20
9636.123139034717
 30
0.0
  0
POINT
  5
18BEB
330
18BE0
100
AcDbEntity
  8
DEFPOINTS
 62
     0
 48
50.0
100
AcDbPoint
 10
7629.896575106998
 20
9636.123139034717
 30
0.0
  0
POINT
  5
18BEC
330
18BE0
100
AcDbEntity
  8
DEFPOINTS
 62
     0
 48
50.0
100
AcDbPoint
 10
7629.896575106998
 20
10151.9313586597
 30
0.0
  0
ENDBLK
  5
18BED
330
18BE0
100
AcDbEntity
  8
0
 48
50.0
100
AcDbBlockEnd
  0
BLOCK
  5
18BEF
330
18BEE
100
AcDbEntity
  8
0
 48
50.0
100
AcDbBlockBegin
  2
*D6
 70
     1
 10
0.0
 20
0.0
 30
0.0
  3
*D6
  1

  0
LINE
  5
18BF0
330
18BEE
100
AcDbEntity
  8
寸法
 62
     0
 48
50.0
370
    -2
100
AcDbLine
 10
7649.896575106999
 20
9636.123139034717
 30
0.0
 11
8337.32292084141
 21
9636.123139034717
 31
0.0
  0
LINE
  5
18BF1
330
18BEE
100
AcDbEntity
  8
寸法
 62
     0
 48
50.0
370
    -2
100
AcDbLine
 10
7649.896575106999
 20
9581.123139034721
 30
0.0
 11
8337.32292084141
 21
9581.123139034721
 31
0.0
  0
LINE
  5
18BF2
330
18BEE
100
AcDbEntity
  8
寸法
 62
     0
 48
50.0
370
    -2
100
AcDbLine
 10
8277.322920841411
 20
9581.123139034721
 30
0.0
 11
8277.322920841411
 21
9481.123139034719
 31
0.0
  0
LINE
  5
18BF3
330
18BEE
100
AcDbEntity
  8
寸法
 62
     0
 48
50.0
370
    -2
100
AcDbLine
 10
8277.322920841411
 20
9636.123139034717
 30
0.0
 11
8277.322920841411
 21
10053.09370178319
 31
0.0
  0
LINE
  5
18BF4
330
18BEE
100
AcDbEntity
  8
寸法
 62
     0
 48
50.0
370
    -2
100
AcDbLine
 10
8277.322920841411
 20
9581.123139034721
 30
0.0
 11
8277.322920841411
 21
9636.123139034717
 31
0.0
  0
INSERT
  5
18BF5
330
18BEE
100
AcDbEntity
  8
寸法
 62
     0
 48
50.0
370
    -2
100
AcDbBlockReference
  2
_DOTSMALL
 10
8277.322920841411
 20
9581.123139034721
 30
0.0
 41
100.0
 42
100.0
 43
100.0
 50
90.0
  0
INSERT
  5
18BF6
330
18BEE
100
AcDbEntity
  8
寸法
 62
     0
 48
50.0
370
    -2
100
AcDbBlockReference
  2
_DOTSMALL
 10
8277.322920841411
 20
9636.123139034717
 30
0.0
 41
100.0
 42
100.0
 43
100.0
 50
270.0
  0
MTEXT
  5
18BF7
330
18BEE
100
AcDbEntity
  8
寸法
 62
     7
 48
50.0
100
AcDbMText
 10
8177.32292084141
 20
9944.608420408957
 30
0.0
 40
120.0
 41
0.0
 71
     5
 72
     1
  1
\A1;55
  7
STYLE1
 11
0.0000000000000001
 21
1.0
 31
0.0
 73
     1
 44
1.0
1001
ACAD
1000
MTEXTBEGIN
1070
    73
1070
     1
1070
    44
1040
1.0
1070
    74
1070
     0
1000
MTEXTEND
  0
POINT
  5
18BF8
330
18BEE
100
AcDbEntity
  8
DEFPOINTS
 62
     0
 48
50.0
100
AcDbPoint
 10
7629.896575106998
 20
9636.123139034717
 30
0.0
  0
POINT
  5
18BF9
330
18BEE
100
AcDbEntity
  8
DEFPOINTS
 62
     0
 48
50.0
100
AcDbPoint
 10
7629.896575106998
 20
9581.123139034721
 30
0.0
  0
POINT
  5
18BFA
330
18BEE
100
AcDbEntity
  8
DEFPOINTS
 62
     0
 48
50.0
100
AcDbPoint
 10
8277.322920841411
 20
9581.123139034721
 30
0.0
  0
ENDBLK
  5
18BFB
330
18BEE
100
AcDbEntity
  8
0
 48
50.0
100
AcDbBlockEnd
  0
BLOCK
  5
18BFD
330
18BFC
100
AcDbEntity
  8
0
 48
50.0
100
AcDbBlockBegin
  2
*D7
 70
     1
 10
0.0
 20
0.0
 30
0.0
  3
*D7
  1

  0
LINE
  5
18BFE
330
18BFC
100
AcDbEntity
  8
寸法
 62
     0
 48
50.0
370
    -2
100
AcDbLine
 10
4159.896575106963
 20
9656.123139034622
 30
0.0
 11
4159.896575106963
 21
10211.9313586596
 31
0.0
  0
LINE
  5
18BFF
330
18BFC
100
AcDbEntity
  8
寸法
 62
     0
 48
50.0
370
    -2
100
AcDbLine
 10
4214.896575106998
 20
9656.123139034622
 30
0.0
 11
4214.896575106998
 21
10211.9313586596
 31
0.0
  0
LINE
  5
18C00
330
18BFC
100
AcDbEntity
  8
寸法
 62
     0
 48
50.0
370
    -2
100
AcDbLine
 10
4214.896575106998
 20
10151.9313586596
 30
0.0
 11
4314.896575106998
 21
10151.9313586596
 31
0.0
  0
LINE
  5
18C01
330
18BFC
100
AcDbEntity
  8
寸法
 62
     0
 48
50.0
370
    -2
100
AcDbLine
 10
4159.896575106963
 20
10151.9313586596
 30
0.0
 11
3742.926012358486
 21
10151.9313586596
 31
0.0
  0
LINE
  5
18C02
330
18BFC
100
AcDbEntity
  8
寸法
 62
     0
 48
50.0
370
    -2
100
AcDbLine
 10
4214.896575106998
 20
10151.9313586596
 30
0.0
 11
4159.896575106963
 21
10151.9313586596
 31
0.0
  0
INSERT
  5
18C03
330
18BFC
100
AcDbEntity
  8
寸法
 62
     0
 48
50.0
370
    -2
100
AcDbBlockReference
  2
_DOTSMALL
 10
4214.896575106998
 20
10151.9313586596
 30
0.0
 41
100.0
 42
100.0
 43
100.0
 50
180.0
  0
INSERT
  5
18C04
330
18BFC
100
AcDbEntity
  8
寸法
 62
     0
 48
50.0
370
    -2
100
AcDbBlockReference
  2
_DOTSMALL
 10
4159.896575106963
 20
10151.9313586596
 30
0.0
 41
100.0
 42
100.0
 43
100.0
  0
MTEXT
  5
18C05
330
18BFC
100
AcDbEntity
  8
寸法
 62
     7
 48
50.0
100
AcDbMText
 10
3851.411293732725
 20
10251.9313586596
 30
0.0
 40
120.0
 41
0.0
 71
     5
 72
     1
  1
\A1;55
  7
STYLE1
 73
     1
 44
1.0
1001
ACAD
1000
MTEXTBEGIN
1070
    73
1070
     1
1070
    44
1040
1.0
1070
    74
1070
     0
1000
MTEXTEND
  0
POINT
  5
18C06
330
18BFC
100
AcDbEntity
  8
DEFPOINTS
 62
     0
 48
50.0
100
AcDbPoint
 10
4159.896575106963
 20
9636.123139034623
 30
0.0
  0
POINT
  5
18C07
330
18BFC
100
AcDbEntity
  8
DEFPOINTS
 62
     0
 48
50.0
100
AcDbPoint
 10
4214.896575106998
 20
9636.123139034623
 30
0.0
  0
POINT
  5
18C08
330
18BFC
100
AcDbEntity
  8
DEFPOINTS
 62
     0
 48
50.0
100
AcDbPoint
 10
4214.896575106998
 20
10151.9313586596
 30
0.0
  0
ENDBLK
  5
18C09
330
18BFC
100
AcDbEntity
  8
0
 48
50.0
100
AcDbBlockEnd
  0
BLOCK
  5
18C0B
330
18C0A
100
AcDbEntity
  8
0
 48
50.0
100
AcDbBlockBegin
  2
*D8
 70
     1
 10
0.0
 20
0.0
 30
0.0
  3
*D8
  1

  0
LINE
  5
18C0C
330
18C0A
100
AcDbEntity
  8
寸法
 62
     0
 48
50.0
370
    -2
100
AcDbLine
 10
4159.896575106992
 20
7826.123139034546
 30
0.0
 11
4159.896575106992
 21
6804.372203245664
 31
0.0
  0
LINE
  5
18C0D
330
18C0A
100
AcDbEntity
  8
寸法
 62
     0
 48
50.0
370
    -2
100
AcDbLine
 10
7629.896575106974
 20
7826.123139034674
 30
0.0
 11
7629.896575106974
 21
6804.372203245664
 31
0.0
  0
LINE
  5
18C0E
330
18C0A
100
AcDbEntity
  8
寸法
 62
     0
 48
50.0
370
    -2
100
AcDbLine
 10
4159.896575106992
 20
6864.372203245665
 30
0.0
 11
7629.896575106974
 21
6864.372203245665
 31
0.0
  0
INSERT
  5
18C0F
330
18C0A
100
AcDbEntity
  8
寸法
 62
     0
 48
50.0
370
    -2
100
AcDbBlockReference
  2
_DOTSMALL
 10
4159.896575106992
 20
6864.372203245665
 30
0.0
 41
100.0
 42
100.0
 43
100.0
 50
180.0
  0
INSERT
  5
18C10
330
18C0A
100
AcDbEntity
  8
寸法
 62
     0
 48
50.0
370
    -2
100
AcDbBlockReference
  2
_DOTSMALL
 10
7629.896575106974
 20
6864.372203245665
 30
0.0
 41
100.0
 42
100.0
 43
100.0
  0
MTEXT
  5
18C11
330
18C0A
100
AcDbEntity
  8
寸法
 62
     7
 48
50.0
100
AcDbMText
 10
5911.12376113973
 20
6964.372203245665
 30
0.0
 40
120.0
 41
0.0
 71
     5
 72
     1
  1
\A1;3470
  7
STYLE1
 73
     1
 44
1.0
1001
ACAD
1000
MTEXTBEGIN
1070
    73
1070
     1
1070
    44
1040
1.0
1070
    74
1070
     0
1000
MTEXTEND
  0
POINT
  5
18C12
330
18C0A
100
AcDbEntity
  8
DEFPOINTS
 62
     0
 48
50.0
100
AcDbPoint
 10
4159.896575106992
 20
7846.123139034546
 30
0.0
  0
POINT
  5
18C13
330
18C0A
100
AcDbEntity
  8
DEFPOINTS
 62
     0
 48
50.0
100
AcDbPoint
 10
7629.896575106974
 20
7846.123139034673
 30
0.0
  0
POINT
  5
18C14
330
18C0A
100
AcDbEntity
  8
DEFPOINTS
 62
     0
 48
50.0
100
AcDbPoint
 10
7629.896575106974
 20
6864.372203245665
 30
0.0
  0
ENDBLK
  5
18C15
330
18C0A
100
AcDbEntity
  8
0
 48
50.0
100
AcDbBlockEnd
  0
BLOCK
  5
18C17
330
18C16
100
AcDbEntity
  8
0
 48
50.0
100
AcDbBlockBegin
  2
*D9
 70
     1
 10
0.0
 20
0.0
 30
0.0
  3
*D9
  1

  0
LINE
  5
18C18
330
18C16
100
AcDbEntity
  8
寸法
 62
     0
 48
50.0
370
    -2
100
AcDbLine
 10
7649.896575106973
 20
7901.123139034706
 30
0.0
 11
8337.322920841385
 21
7901.123139034706
 31
0.0
  0
LINE
  5
18C19
330
18C16
100
AcDbEntity
  8
寸法
 62
     0
 48
50.0
370
    -2
100
AcDbLine
 10
7649.896575106973
 20
7846.123139034709
 30
0.0
 11
8337.322920841385
 21
7846.123139034709
 31
0.0
  0
LINE
  5
18C1A
330
18C16
100
AcDbEntity
  8
寸法
 62
     0
 48
50.0
370
    -2
100
AcDbLine
 10
8277.322920841385
 20
7901.123139034706
 30
0.0
 11
8277.322920841385
 21
8001.123139034707
 31
0.0
  0
LINE
  5
18C1B
330
18C16
100
AcDbEntity
  8
寸法
 62
     0
 48
50.0
370
    -2
100
AcDbLine
 10
8277.322920841385
 20
7846.123139034709
 30
0.0
 11
8277.322920841385
 21
7429.152576286229
 31
0.0
  0
LINE
  5
18C1C
330
18C16
100
AcDbEntity
  8
寸法
 62
     0
 48
50.0
370
    -2
100
AcDbLine
 10
8277.322920841385
 20
7901.123139034706
 30
0.0
 11
8277.322920841385
 21
7846.123139034709
 31
0.0
  0
INSERT
  5
18C1D
330
18C16
100
AcDbEntity
  8
寸法
 62
     0
 48
50.0
370
    -2
100
AcDbBlockReference
  2
_DOTSMALL
 10
8277.322920841385
 20
7901.123139034706
 30
0.0
 41
100.0
 42
100.0
 43
100.0
 50
270.0
  0
INSERT
  5
18C1E
330
18C16
100
AcDbEntity
  8
寸法
 62
     0
 48
50.0
370
    -2
100
AcDbBlockReference
  2
_DOTSMALL
 10
8277.322920841385
 20
7846.123139034709
 30
0.0
 41
100.0
 42
100.0
 43
100.0
 50
90.0
  0
MTEXT
  5
18C1F
330
18C16
100
AcDbEntity
  8
寸法
 62
     7
 48
50.0
100
AcDbMText
 10
8177.322920841383
 20
7537.637857660469
 30
0.0
 40
120.0
 41
0.0
 71
     5
 72
     1
  1
\A1;55
  7
STYLE1
 11
0.0000000000000001
 21
1.0
 31
0.0
 73
     1
 44
1.0
1001
ACAD
1000
MTEXTBEGIN
1070
    73
1070
     1
1070
    44
1040
1.0
1070
    74
1070
     0
1000
MTEXTEND
  0
POINT
  5
18C20
330
18C16
100
AcDbEntity
  8
DEFPOINTS
 62
     0
 48
50.0
100
AcDbPoint
 10
7629.896575106974
 20
7901.123139034706
 30
0.0
  0
POINT
  5
18C21
330
18C16
100
AcDbEntity
  8
DEFPOINTS
 62
     0
 48
50.0
100
AcDbPoint
 10
7629.896575106974
 20
7846.123139034709
 30
0.0
  0
POINT
  5
18C22
330
18C16
100
AcDbEntity
  8
DEFPOINTS
 62
     0
 48
50.0
100
AcDbPoint
 10
8277.322920841385
 20
7846.123139034709
 30
0.0
  0
ENDBLK
  5
18C23
330
18C16
100
AcDbEntity
  8
0
 48
50.0
100
AcDbBlockEnd
  0
BLOCK
  5
18C25
330
18C24
100
AcDbEntity
  8
0
 48
50.0
100
AcDbBlockBegin
  2
*D10
 70
     1
 10
0.0
 20
0.0
 30
0.0
  3
*D10
  1

  0
LINE
  5
18C26
330
18C24
100
AcDbEntity
  8
寸法
 62
     0
 48
50.0
370
    -2
100
AcDbLine
 10
6533.037591258376
 20
9136.123139034728
 30
0.0
 11
6465.083950562664
 21
8882.516699399049
 31
0.0
  0
LINE
  5
18C27
330
18C24
100
AcDbEntity
  8
寸法
 62
     0
 48
50.0
370
    -2
100
AcDbLine
 10
7596.037591258388
 20
9136.123139034721
 30
0.0
 11
7528.083950562677
 21
8882.516699399049
 31
0.0
  0
LINE
  5
18C28
330
18C24
100
AcDbEntity
  8
寸法
 62
     0
 48
50.0
370
    -2
100
AcDbLine
 10
6481.160902108531
 20
8942.51669939905
 30
0.0
 11
7544.160902108544
 21
8942.51669939905
 31
0.0
  0
INSERT
  5
18C29
330
18C24
100
AcDbEntity
  8
寸法
 62
     0
 48
50.0
370
    -2
100
AcDbBlockReference
  2
_DOTSMALL
 10
6481.160902108531
 20
8942.51669939905
 30
0.0
 41
100.0
 42
100.0
 43
100.0
 50
180.0
  0
INSERT
  5
18C2A
330
18C24
100
AcDbEntity
  8
寸法
 62
     0
 48
50.0
370
    -2
100
AcDbBlockReference
  2
_DOTSMALL
 10
7544.160902108544
 20
8942.51669939905
 30
0.0
 41
100.0
 42
100.0
 43
100.0
  0
MTEXT
  5
18C2B
330
18C24
100
AcDbEntity
  8
寸法
 62
     7
 48
50.0
100
AcDbMText
 10
7061.28653022935
 20
9042.516699399049
 30
0.0
 40
120.0
 41
0.0
 71
     5
 72
     1
  1
\A1;1063
  7
STYLE1
 73
     1
 44
1.0
1001
ACAD
1000
MTEXTBEGIN
1070
    73
1070
     1
1070
    44
1040
1.0
1070
    74
1070
     0
1000
MTEXTEND
  0
POINT
  5
18C2C
330
18C24
100
AcDbEntity
  8
DEFPOINTS
 62
     0
 48
50.0
100
AcDbPoint
 10
6538.396575106998
 20
9156.123139034727
 30
0.0
  0
POINT
  5
18C2D
330
18C24
100
AcDbEntity
  8
DEFPOINTS
 62
     0
 48
50.0
100
AcDbPoint
 10
7601.39657510701
 20
9156.12313903472
 30
0.0
  0
POINT
  5
18C2E
330
18C24
100
AcDbEntity
  8
DEFPOINTS
 62
     0
 48
50.0
100
AcDbPoint
 10
7544.160902108544
 20
8942.51669939905
 30
0.0
  0
ENDBLK
  5
18C2F
330
18C24
100
AcDbEntity
  8
0
 48
50.0
100
AcDbBlockEnd
  0
BLOCK
  5
18C31
330
18C30
100
AcDbEntity
  8
0
 48
50.0
100
AcDbBlockBegin
  2
*D11
 70
     1
 10
0.0
 20
0.0
 30
0.0
  3
*D11
  1

  0
LINE
  5
18C32
330
18C30
100
AcDbEntity
  8
寸法
 62
     0
 48
50.0
370
    -2
100
AcDbLine
 10
7621.396575106999
 20
9600.764155186094
 30
0.0
 11
8016.754300969024
 21
9494.828371819961
 31
0.0
  0
LINE
  5
18C33
330
18C30
100
AcDbEntity
  8
寸法
 62
     0
 48
50.0
370
    -2
100
AcDbLine
 10
7621.396575106999
 20
9150.764155186099
 30
0.0
 11
8016.754300969024
 21
9044.828371819964
 31
0.0
  0
LINE
  5
18C34
330
18C30
100
AcDbEntity
  8
寸法
 62
     0
 48
50.0
370
    -2
100
AcDbLine
 10
7956.754300969024
 20
9510.905323365827
 30
0.0
 11
7956.754300969024
 21
9060.90532336583
 31
0.0
  0
INSERT
  5
18C35
330
18C30
100
AcDbEntity
  8
寸法
 62
     0
 48
50.0
370
    -2
100
AcDbBlockReference
  2
_DOTSMALL
 10
7956.754300969024
 20
9510.905323365827
 30
0.0
 41
100.0
 42
100.0
 43
100.0
 50
90.0
  0
INSERT
  5
18C36
330
18C30
100
AcDbEntity
  8
寸法
 62
     0
 48
50.0
370
    -2
100
AcDbBlockReference
  2
_DOTSMALL
 10
7956.754300969024
 20
9060.90532336583
 30
0.0
 41
100.0
 42
100.0
 43
100.0
 50
270.0
  0
MTEXT
  5
18C37
330
18C30
100
AcDbEntity
  8
寸法
 62
     7
 48
50.0
100
AcDbMText
 10
7856.754300969022
 20
9285.905323365829
 30
0.0
 40
120.0
 41
0.0
 71
     5
 72
     1
  1
\A1;450
  7
STYLE1
 11
0.0000000000000001
 21
1.0
 31
0.0
 73
     1
 44
1.0
1001
ACAD
1000
MTEXTBEGIN
1070
    73
1070
     1
1070
    44
1040
1.0
1070
    74
1070
     0
1000
MTEXTEND
  0
POINT
  5
18C38
330
18C30
100
AcDbEntity
  8
DEFPOINTS
 62
     0
 48
50.0
100
AcDbPoint
 10
7601.396575106999
 20
9606.123139034718
 30
0.0
  0
POINT
  5
18C39
330
18C30
100
AcDbEntity
  8
DEFPOINTS
 62
     0
 48
50.0
100
AcDbPoint
 10
7601.396575106999
 20
9156.12313903472
 30
0.0
  0
POINT
  5
18C3A
330
18C30
100
AcDbEntity
  8
DEFPOINTS
 62
     0
 48
50.0
100
AcDbPoint
 10
7956.754300969024
 20
9060.90532336583
 30
0.0
  0
ENDBLK
  5
18C3B
330
18C30
100
AcDbEntity
  8
0
 48
50.0
100
AcDbBlockEnd
  0
BLOCK
  5
18C3D
330
18C3C
100
AcDbEntity
  8
0
 48
50.0
100
AcDbBlockBegin
  2
*D12
 70
     1
 10
0.0
 20
0.0
 30
0.0
  3
*D12
  1

  0
LINE
  5
18C3E
330
18C3C
100
AcDbEntity
  8
寸法
 62
     0
 48
50.0
370
    -2
100
AcDbLine
 10
7649.896575106999
 20
9581.123139034721
 30
0.0
 11
8337.32292084141
 21
9581.123139034721
 31
0.0
  0
LINE
  5
18C3F
330
18C3C
100
AcDbEntity
  8
寸法
 62
     0
 48
50.0
370
    -2
100
AcDbLine
 10
7649.896575106973
 20
7901.123139034706
 30
0.0
 11
8337.32292084141
 21
7901.123139034706
 31
0.0
  0
LINE
  5
18C40
330
18C3C
100
AcDbEntity
  8
寸法
 62
     0
 48
50.0
370
    -2
100
AcDbLine
 10
8277.322920841411
 20
9581.123139034721
 30
0.0
 11
8277.322920841411
 21
7901.123139034706
 31
0.0
  0
INSERT
  5
18C41
330
18C3C
100
AcDbEntity
  8
寸法
 62
     0
 48
50.0
370
    -2
100
AcDbBlockReference
  2
_DOTSMALL
 10
8277.322920841411
 20
9581.123139034721
 30
0.0
 41
100.0
 42
100.0
 43
100.0
 50
90.0
  0
INSERT
  5
18C42
330
18C3C
100
AcDbEntity
  8
寸法
 62
     0
 48
50.0
370
    -2
100
AcDbBlockReference
  2
_DOTSMALL
 10
8277.322920841411
 20
7901.123139034706
 30
0.0
 41
100.0
 42
100.0
 43
100.0
 50
270.0
  0
MTEXT
  5
18C43
330
18C3C
100
AcDbEntity
  8
寸法
 62
     7
 48
50.0
100
AcDbMText
 10
8177.311109817788
 20
8741.123139034712
 30
0.0
 40
120.0
 41
0.0
 71
     5
 72
     1
  1
\A1;4X420=1680
  7
STYLE1
 11
0.0000000000000001
 21
1.0
 31
0.0
 73
     1
 44
1.0
1001
ACAD
1000
MTEXTBEGIN
1070
    73
1070
     1
1070
    44
1040
1.0
1070
    74
1070
     0
1000
MTEXTEND
  0
POINT
  5
18C44
330
18C3C
100
AcDbEntity
  8
DEFPOINTS
 62
     0
 48
50.0
100
AcDbPoint
 10
7629.896575106998
 20
9581.123139034721
 30
0.0
  0
POINT
  5
18C45
330
18C3C
100
AcDbEntity
  8
DEFPOINTS
 62
     0
 48
50.0
100
AcDbPoint
 10
7629.896575106974
 20
7901.123139034706
 30
0.0
  0
POINT
  5
18C46
330
18C3C
100
AcDbEntity
  8
DEFPOINTS
 62
     0
 48
50.0
100
AcDbPoint
 10
8277.322920841411
 20
7901.123139034706
 30
0.0
  0
ENDBLK
  5
18C47
330
18C3C
100
AcDbEntity
  8
0
 48
50.0
100
AcDbBlockEnd
  0
BLOCK
  5
18C49
330
18C48
100
AcDbEntity
  8
0
 48
50.0
100
AcDbBlockBegin
  2
*D13
 70
     1
 10
0.0
 20
0.0
 30
0.0
  3
*D13
  1

  0
LINE
  5
18C4A
330
18C48
100
AcDbEntity
  8
寸法
 62
     0
 48
50.0
370
    -2
100
AcDbLine
 10
4183.037591258377
 20
9136.123139034619
 30
0.0
 11
4115.083950562663
 21
8882.516699398941
 31
0.0
  0
LINE
  5
18C4B
330
18C48
100
AcDbEntity
  8
寸法
 62
     0
 48
50.0
370
    -2
100
AcDbLine
 10
5246.037591258307
 20
9136.123139034671
 30
0.0
 11
5178.08395056258
 21
8882.516699398941
 31
0.0
  0
LINE
  5
18C4C
330
18C48
100
AcDbEntity
  8
寸法
 62
     0
 48
50.0
370
    -2
100
AcDbLine
 10
4131.160902108532
 20
8942.516699398941
 30
0.0
 11
5194.160902108448
 21
8942.516699398941
 31
0.0
  0
INSERT
  5
18C4D
330
18C48
100
AcDbEntity
  8
寸法
 62
     0
 48
50.0
370
    -2
100
AcDbBlockReference
  2
_DOTSMALL
 10
4131.160902108532
 20
8942.516699398941
 30
0.0
 41
100.0
 42
100.0
 43
100.0
 50
180.0
  0
INSERT
  5
18C4E
330
18C48
100
AcDbEntity
  8
寸法
 62
     0
 48
50.0
370
    -2
100
AcDbBlockReference
  2
_DOTSMALL
 10
5194.160902108448
 20
8942.516699398941
 30
0.0
 41
100.0
 42
100.0
 43
100.0
  0
MTEXT
  5
18C4F
330
18C48
100
AcDbEntity
  8
寸法
 62
     7
 48
50.0
100
AcDbMText
 10
4658.986452655306
 20
9042.516699398941
 30
0.0
 40
120.0
 41
0.0
 71
     5
 72
     1
  1
\A1;1063
  7
STYLE1
 73
     1
 44
1.0
1001
ACAD
1000
MTEXTBEGIN
1070
    73
1070
     1
1070
    44
1040
1.0
1070
    74
1070
     0
1000
MTEXTEND
  0
POINT
  5
18C50
330
18C48
100
AcDbEntity
  8
DEFPOINTS
 62
     0
 48
50.0
100
AcDbPoint
 10
4188.396575106999
 20
9156.123139034617
 30
0.0
  0
POINT
  5
18C51
330
18C48
100
AcDbEntity
  8
DEFPOINTS
 62
     0
 48
50.0
100
AcDbPoint
 10
5251.396575106929
 20
9156.123139034672
 30
0.0
  0
POINT
  5
18C52
330
18C48
100
AcDbEntity
  8
DEFPOINTS
 62
     0
 48
50.0
100
AcDbPoint
 10
5194.160902108448
 20
8942.516699398941
 30
0.0
  0
ENDBLK
  5
18C53
330
18C48
100
AcDbEntity
  8
0
 48
50.0
100
AcDbBlockEnd
  0
BLOCK
  5
18C55
330
18C54
100
AcDbEntity
  8
0
 48
50.0
100
AcDbBlockBegin
  2
*D14
 70
     1
 10
0.0
 20
0.0
 30
0.0
  3
*D14
  1

  0
LINE
  5
18C56
330
18C54
100
AcDbEntity
  8
寸法
 62
     0
 48
50.0
370
    -2
100
AcDbLine
 10
5274.037591258307
 20
9136.123139034669
 30
0.0
 11
5206.08395056258
 21
8882.516699398941
 31
0.0
  0
LINE
  5
18C57
330
18C54
100
AcDbEntity
  8
寸法
 62
     0
 48
50.0
370
    -2
100
AcDbLine
 10
6505.037591258377
 20
9136.123139034662
 30
0.0
 11
6437.083950562653
 21
8882.516699398941
 31
0.0
  0
LINE
  5
18C58
330
18C54
100
AcDbEntity
  8
寸法
 62
     0
 48
50.0
370
    -2
100
AcDbLine
 10
5222.160902108448
 20
8942.516699398941
 30
0.0
 11
6453.16090210852
 21
8942.516699398941
 31
0.0
  0
INSERT
  5
18C59
330
18C54
100
AcDbEntity
  8
寸法
 62
     0
 48
50.0
370
    -2
100
AcDbBlockReference
  2
_DOTSMALL
 10
5222.160902108448
 20
8942.516699398941
 30
0.0
 41
100.0
 42
100.0
 43
100.0
 50
180.0
  0
INSERT
  5
18C5A
330
18C54
100
AcDbEntity
  8
寸法
 62
     0
 48
50.0
370
    -2
100
AcDbBlockReference
  2
_DOTSMALL
 10
6453.16090210852
 20
8942.516699398941
 30
0.0
 41
100.0
 42
100.0
 43
100.0
  0
MTEXT
  5
18C5B
330
18C54
100
AcDbEntity
  8
寸法
 62
     7
 48
50.0
100
AcDbMText
 10
6081.244808320626
 20
9042.528510422561
 30
0.0
 40
120.0
 41
0.0
 71
     5
 72
     1
  1
\A1;1231
  7
STYLE1
 73
     1
 44
1.0
1001
ACAD
1000
MTEXTBEGIN
1070
    73
1070
     1
1070
    44
1040
1.0
1070
    74
1070
     0
1000
MTEXTEND
  0
POINT
  5
18C5C
330
18C54
100
AcDbEntity
  8
DEFPOINTS
 62
     0
 48
50.0
100
AcDbPoint
 10
5279.396575106929
 20
9156.123139034669
 30
0.0
  0
POINT
  5
18C5D
330
18C54
100
AcDbEntity
  8
DEFPOINTS
 62
     0
 48
50.0
100
AcDbPoint
 10
6510.396575106999
 20
9156.123139034662
 30
0.0
  0
POINT
  5
18C5E
330
18C54
100
AcDbEntity
  8
DEFPOINTS
 62
     0
 48
50.0
100
AcDbPoint
 10
6453.16090210852
 20
8942.516699398941
 30
0.0
  0
ENDBLK
  5
18C5F
330
18C54
100
AcDbEntity
  8
0
 48
50.0
100
AcDbBlockEnd
  0
BLOCK
  5
18C61
330
18C60
100
AcDbEntity
  8
0
 48
50.0
100
AcDbBlockBegin
  2
*D15
 70
     1
 10
0.0
 20
0.0
 30
0.0
  3
*D15
  1

  0
LINE
  5
18C62
330
18C60
100
AcDbEntity
  8
寸法
 62
     0
 48
50.0
370
    -2
100
AcDbLine
 10
5065.896575106966
 20
7749.123139034579
 30
0.0
 11
5065.896575106966
 21
7099.952920982538
 31
0.0
  0
LINE
  5
18C63
330
18C60
100
AcDbEntity
  8
寸法
 62
     0
 48
50.0
370
    -2
100
AcDbLine
 10
6331.896575106966
 20
7749.123139034579
 30
0.0
 11
6331.896575106966
 21
7099.952920982538
 31
0.0
  0
LINE
  5
18C64
330
18C60
100
AcDbEntity
  8
寸法
 62
     0
 48
50.0
370
    -2
100
AcDbLine
 10
5065.896575106966
 20
7159.952920982537
 30
0.0
 11
6331.896575106966
 21
7159.952920982537
 31
0.0
  0
INSERT
  5
18C65
330
18C60
100
AcDbEntity
  8
寸法
 62
     0
 48
50.0
370
    -2
100
AcDbBlockReference
  2
_DOTSMALL
 10
5065.896575106966
 20
7159.952920982537
 30
0.0
 41
100.0
 42
100.0
 43
100.0
 50
180.0
  0
INSERT
  5
18C66
330
18C60
100
AcDbEntity
  8
寸法
 62
     0
 48
50.0
370
    -2
100
AcDbBlockReference
  2
_DOTSMALL
 10
6331.896575106966
 20
7159.952920982537
 30
0.0
 41
100.0
 42
100.0
 43
100.0
  0
MTEXT
  5
18C67
330
18C60
100
AcDbEntity
  8
寸法
 62
     7
 48
50.0
100
AcDbMText
 10
5711.986008735934
 20
7359.964732006159
 30
0.0
 40
120.0
 41
0.0
 71
     5
 72
     1
  1
\A1;有効開口部間口\P1266
  7
STYLE1
 73
     1
 44
1.0
1001
ACAD
1000
MTEXTBEGIN
1070
    73
1070
     1
1070
    44
1040
1.0
1070
    74
1070
     0
1000
MTEXTEND
  0
POINT
  5
18C68
330
18C60
100
AcDbEntity
  8
DEFPOINTS
 62
     0
 48
50.0
100
AcDbPoint
 10
5065.896575106966
 20
7769.123139034579
 30
0.0
  0
POINT
  5
18C69
330
18C60
100
AcDbEntity
  8
DEFPOINTS
 62
     0
 48
50.0
100
AcDbPoint
 10
6331.896575106966
 20
7769.123139034579
 30
0.0
  0
POINT
  5
18C6A
330
18C60
100
AcDbEntity
  8
DEFPOINTS
 62
     0
 48
50.0
100
AcDbPoint
 10
6331.896575106966
 20
7159.952920982537
 30
0.0
  0
ENDBLK
  5
18C6B
330
18C60
100
AcDbEntity
  8
0
 48
50.0
100
AcDbBlockEnd
  0
BLOCK
  5
18C6D
330
18C6C
100
AcDbEntity
  8
0
 48
50.0
100
AcDbBlockBegin
  2
*D16
 70
     1
 10
0.0
 20
0.0
 30
0.0
  3
*D16
  1

  0
LINE
  5
18C6E
330
18C6C
100
AcDbEntity
  8
寸法
 62
     0
 48
50.0
370
    -2
100
AcDbLine
 10
7200.896575106966
 20
7846.123139034578
 30
0.0
 11
7457.192158500191
 21
7846.123139034578
 31
0.0
  0
LINE
  5
18C6F
330
18C6C
100
AcDbEntity
  8
寸法
 62
     0
 48
50.0
370
    -2
100
AcDbLine
 10
7199.896575106966
 20
7769.123139034579
 30
0.0
 11
7457.192158500191
 21
7769.123139034579
 31
0.0
  0
LINE
  5
18C70
330
18C6C
100
AcDbEntity
  8
寸法
 62
     0
 48
50.0
370
    -2
100
AcDbLine
 10
7417.192158500192
 20
7866.123139034579
 30
0.0
 11
7417.192158500192
 21
7886.123139034578
 31
0.0
  0
LINE
  5
18C71
330
18C6C
100
AcDbEntity
  8
寸法
 62
     0
 48
50.0
370
    -2
100
AcDbLine
 10
7417.192158500192
 20
7749.123139034579
 30
0.0
 11
7417.192158500192
 21
7533.123139034573
 31
0.0
  0
LINE
  5
18C72
330
18C6C
100
AcDbEntity
  8
寸法
 62
     0
 48
50.0
370
    -2
100
AcDbLine
 10
7417.192158500192
 20
7846.123139034578
 30
0.0
 11
7417.192158500192
 21
7769.123139034579
 31
0.0
  0
INSERT
  5
18C73
330
18C6C
100
AcDbEntity
  8
寸法
 62
     0
 48
50.0
370
    -2
100
AcDbBlockReference
  2
_DOT
 10
7417.192158500192
 20
7846.123139034578
 30
0.0
 41
20.0
 42
20.0
 43
20.0
 50
270.0
  0
INSERT
  5
18C74
330
18C6C
100
AcDbEntity
  8
寸法
 62
     0
 48
50.0
370
    -2
100
AcDbBlockReference
  2
_DOT
 10
7417.192158500192
 20
7769.123139034579
 30
0.0
 41
20.0
 42
20.0
 43
20.0
 50
90.0
  0
MTEXT
  5
18C75
330
18C6C
100
AcDbEntity
  8
寸法
 62
     7
 48
50.0
100
AcDbMText
 10
7325.192158500191
 20
7631.123139034575
 30
0.0
 40
120.0
 41
0.0
 71
     5
 72
     1
  1
\A1;77
  7
STYLE1
 11
0.0000000000000001
 21
1.0
 31
0.0
 73
     1
 44
1.0
1001
ACAD
1000
MTEXTBEGIN
1070
    73
1070
     1
1070
    44
1040
1.0
1070
    74
1070
     0
1000
MTEXTEND
  0
POINT
  5
18C76
330
18C6C
100
AcDbEntity
  8
DEFPOINTS
 62
     0
 48
50.0
100
AcDbPoint
 10
7180.896575106967
 20
7846.123139034578
 30
0.0
  0
POINT
  5
18C77
330
18C6C
100
AcDbEntity
  8
DEFPOINTS
 62
     0
 48
50.0
100
AcDbPoint
 10
7179.896575106965
 20
7769.123139034579
 30
0.0
  0
POINT
  5
18C78
330
18C6C
100
AcDbEntity
  8
DEFPOINTS
 62
     0
 48
50.0
100
AcDbPoint
 10
7417.192158500192
 20
7769.123139034579
 30
0.0
  0
ENDBLK
  5
18C79
330
18C6C
100
AcDbEntity
  8
0
 48
50.0
100
AcDbBlockEnd
  0
BLOCK
  5
18DA0
330
18C7A
100
AcDbEntity
  8
0
 48
50.0
100
AcDbBlockBegin
  2
A$C3B1A506B
 70
     0
 10
0.0
 20
0.0
 30
0.0
  3
A$C3B1A506B
  1

  0
MTEXT
  5
18C7B
330
18C7A
100
AcDbEntity
  8
寸法
 62
     7
 48
50.0
100
AcDbMText
 10
3342.250386887194
 20
2778.329429134012
 30
0.0
 40
96.0
 41
0.0
 71
     5
 72
     1
  1
棚 2段
  7
STYLE1
 73
     1
 44
1.0
1001
ACAD
1000
MTEXTBEGIN
1070
    73
1070
     1
1070
    44
1040
1.0
1070
    74
1070
     0
1000
MTEXTEND
  0
MTEXT
  5
18C7C
330
18C7A
100
AcDbEntity
  8
寸法
 62
     7
 48
50.0
100
AcDbMText
 10
2167.25038688716
 20
2778.329429133986
 30
0.0
 40
96.0
 41
0.0
 71
     5
 72
     1
  1
棚 2段
  7
STYLE1
 73
     1
 44
1.0
1001
ACAD
1000
MTEXTBEGIN
1070
    73
1070
     1
1070
    44
1040
1.0
1070
    74
1070
     0
1000
MTEXTEND
  0
MTEXT
  5
18C7D
330
18C7A
100
AcDbEntity
  8
寸法
 62
     7
 48
50.0
100
AcDbMText
 10
992.2503868871608
 20
2778.329429133935
 30
0.0
 40
96.0
 41
0.0
 71
     5
 72
     1
  1
棚 2段
  7
STYLE1
 73
     1
 44
1.0
1001
ACAD
1000
MTEXTBEGIN
1070
    73
1070
     1
1070
    44
1040
1.0
1070
    74
1070
     0
1000
MTEXTEND
  0
LINE
  5
18C7E
330
18C7A
100
AcDbEntity
  8
細線
 48
50.0
100
AcDbLine
 10
2771.970589276527
 20
1368.994384123192
 30
0.0
 11
3398.970589276523
 21
1368.994384123192
 31
0.0
  0
LINE
  5
18C7F
330
18C7A
100
AcDbEntity
  8
細線
 48
50.0
100
AcDbLine
 10
2117.970593930113
 20
1335.285615569113
 30
0.0
 11
3398.970589276523
 21
1335.285615569113
 31
0.0
  0
LINE
  5
18C80
330
18C7A
100
AcDbEntity
  8
細線
 48
50.0
100
AcDbLine
 10
2076.970593930115
 20
1364.690523565368
 30
0.0
 11
1322.970589276523
 21
1364.690523565367
 31
0.0
  0
LINE
  5
18C81
330
18C7A
100
AcDbEntity
  8
細線
100
AcDbLine
 10
3170.720579860066
 20
1388.494284088199
 30
0.0
 11
3173.052119381877
 21
1393.494286728162
 31
0.0
  0
LINE
  5
18C82
330
18C7A
100
AcDbEntity
  8
細線
100
AcDbLine
 10
3240.720589276525
 20
1388.494269174465
 30
0.0
 11
3238.389042800336
 21
1393.494286728144
 31
0.0
  0
LINE
  5
18C83
330
18C7A
100
AcDbEntity
  8
細線
100
AcDbLine
 10
3238.389042800336
 20
1393.494286728144
 30
0.0
 11
3173.052119381862
 21
1393.494286728133
 31
0.0
  0
LINE
  5
18C84
330
18C7A
100
AcDbEntity
  8
細線
100
AcDbLine
 10
3098.389042800336
 20
1393.494286728144
 30
0.0
 11
3033.052119381862
 21
1393.494286728133
 31
0.0
  0
LINE
  5
18C85
330
18C7A
100
AcDbEntity
  8
細線
100
AcDbLine
 10
3100.720589276523
 20
1388.494269174465
 30
0.0
 11
3098.389042800336
 21
1393.494286728144
 31
0.0
  0
LINE
  5
18C86
330
18C7A
100
AcDbEntity
  8
細線
100
AcDbLine
 10
3030.720579860066
 20
1388.494284088199
 30
0.0
 11
3033.052119381875
 21
1393.494286728162
 31
0.0
  0
LINE
  5
18C87
330
18C7A
100
AcDbEntity
  8
細線
100
AcDbLine
 10
2890.720589276525
 20
1388.494269174465
 30
0.0
 11
2893.052128798336
 21
1393.494271814428
 31
0.0
  0
LINE
  5
18C88
330
18C7A
100
AcDbEntity
  8
細線
100
AcDbLine
 10
2960.720598692984
 20
1388.494254260731
 30
0.0
 11
2958.389052216793
 21
1393.49427181441
 31
0.0
  0
LINE
  5
18C89
330
18C7A
100
AcDbEntity
  8
細線
100
AcDbLine
 10
2958.389052216795
 20
1393.49427181441
 30
0.0
 11
2893.052128798321
 21
1393.494271814399
 31
0.0
  0
LINE
  5
18C8A
330
18C7A
100
AcDbEntity
  8
細線
100
AcDbLine
 10
2667.139038146739
 20
1359.494298590735
 30
0.0
 11
2601.802114728263
 21
1359.494298590724
 31
0.0
  0
LINE
  5
18C8B
330
18C7A
100
AcDbEntity
  8
細線
100
AcDbLine
 10
2669.470584622926
 20
1354.494281037055
 30
0.0
 11
2667.139038146737
 21
1359.494298590735
 31
0.0
  0
LINE
  5
18C8C
330
18C7A
100
AcDbEntity
  8
細線
100
AcDbLine
 10
2599.470575206469
 20
1354.49429595079
 30
0.0
 11
2601.802114728278
 21
1359.494298590752
 31
0.0
  0
LINE
  5
18C8D
330
18C7A
100
AcDbEntity
  8
細線
 48
50.0
100
AcDbLine
 10
2440.853968524536
 20
1372.765132327548
 30
0.0
 11
2446.609486107205
 21
1354.494281037057
 31
0.0
  0
LINE
  5
18C8E
330
18C7A
100
AcDbEntity
  8
細線
 48
50.0
100
AcDbLine
 10
2429.925520044106
 20
1372.765132327546
 30
0.0
 11
2440.853968524536
 21
1372.765132327548
 31
0.0
  0
ARC
  5
18C8F
330
18C7A
100
AcDbEntity
  8
細線
 48
50.0
100
AcDbCircle
 10
2424.471163986787
 20
1374.265132327546
 30
0.0
 40
5.0
100
AcDbArc
 50
204.6243183520723
 51
335.3756816479278
  0
ARC
  5
18C90
330
18C7A
100
AcDbEntity
  8
細線
 48
50.0
100
AcDbCircle
 10
2429.925520044106
 20
1371.765132327546
 30
0.0
 40
1.0
100
AcDbArc
 50
90.0
 51
155.3756816479277
  0
ARC
  5
18C91
330
18C7A
100
AcDbEntity
  8
細線
 48
50.0
100
AcDbCircle
 10
2419.016807929469
 20
1371.765132327546
 30
0.0
 40
1.0
100
AcDbArc
 50
24.62431835207225
 51
90.0
  0
LINE
  5
18C92
330
18C7A
100
AcDbEntity
  8
細線
 48
50.0
100
AcDbLine
 10
2408.088359449037
 20
1372.765132327548
 30
0.0
 11
2419.016807929469
 21
1372.765132327546
 31
0.0
  0
LINE
  5
18C93
330
18C7A
100
AcDbEntity
  8
細線
 48
50.0
100
AcDbLine
 10
2402.33284186637
 20
1354.494281037054
 30
0.0
 11
2408.088359449037
 21
1372.765132327548
 31
0.0
  0
LINE
  5
18C94
330
18C7A
100
AcDbEntity
  8
細線
100
AcDbLine
 10
2458.070304175992
 20
1354.494278397076
 30
0.0
 11
2460.401843697802
 21
1359.494281037039
 31
0.0
  0
LINE
  5
18C95
330
18C7A
100
AcDbEntity
  8
細線
100
AcDbLine
 10
2528.070313592451
 20
1354.494263483342
 30
0.0
 11
2525.738767116262
 21
1359.494281037021
 31
0.0
  0
LINE
  5
18C96
330
18C7A
100
AcDbEntity
  8
細線
100
AcDbLine
 10
2525.738767116262
 20
1359.494281037021
 30
0.0
 11
2460.40184369779
 21
1359.49428103701
 31
0.0
  0
LINE
  5
18C97
330
18C7A
100
AcDbEntity
  8
細線
100
AcDbLine
 10
2387.139046332155
 20
1359.494281037021
 30
0.0
 11
2321.80212291368
 21
1359.49428103701
 31
0.0
  0
LINE
  5
18C98
330
18C7A
100
AcDbEntity
  8
細線
100
AcDbLine
 10
2389.470592808342
 20
1354.494263483342
 30
0.0
 11
2387.139046332153
 21
1359.494281037021
 31
0.0
  0
LINE
  5
18C99
330
18C7A
100
AcDbEntity
  8
細線
100
AcDbLine
 10
2319.470584622926
 20
1354.494281037054
 30
0.0
 11
2321.802122913694
 21
1359.494281037039
 31
0.0
  0
LINE
  5
18C9A
330
18C7A
100
AcDbEntity
  8
細線
100
AcDbLine
 10
2179.47061994182
 20
1354.494289224422
 30
0.0
 11
2181.802158232587
 21
1359.494289224407
 31
0.0
  0
LINE
  5
18C9B
330
18C7A
100
AcDbEntity
  8
細線
100
AcDbLine
 10
2249.470628127236
 20
1354.49427167071
 30
0.0
 11
2247.139081651047
 21
1359.494289224389
 31
0.0
  0
LINE
  5
18C9C
330
18C7A
100
AcDbEntity
  8
細線
100
AcDbLine
 10
2247.139081651047
 20
1359.494289224389
 30
0.0
 11
2181.802158232573
 21
1359.494289224378
 31
0.0
  0
LINE
  5
18C9D
330
18C7A
100
AcDbEntity
  8
細線
100
AcDbLine
 10
1807.970585744697
 20
1320.494460905133
 30
0.0
 11
1810.302124035464
 21
1325.494460905118
 31
0.0
  0
LINE
  5
18C9E
330
18C7A
100
AcDbEntity
  8
細線
100
AcDbLine
 10
1877.970593930113
 20
1320.494443351421
 30
0.0
 11
1875.639047453926
 21
1325.4944609051
 31
0.0
  0
LINE
  5
18C9F
330
18C7A
100
AcDbEntity
  8
細線
100
AcDbLine
 10
1875.639047453926
 20
1325.4944609051
 30
0.0
 11
1810.302124035452
 21
1325.494460905089
 31
0.0
  0
LINE
  5
18CA0
330
18C7A
100
AcDbEntity
  8
細線
100
AcDbLine
 10
2015.639047453926
 20
1325.4944609051
 30
0.0
 11
1950.302124035452
 21
1325.494460905089
 31
0.0
  0
LINE
  5
18CA1
330
18C7A
100
AcDbEntity
  8
細線
100
AcDbLine
 10
2017.970593930113
 20
1320.494443351421
 30
0.0
 11
2015.639047453924
 21
1325.4944609051
 31
0.0
  0
LINE
  5
18CA2
330
18C7A
100
AcDbEntity
  8
細線
100
AcDbLine
 10
1947.970585744697
 20
1320.494460905133
 30
0.0
 11
1950.302124035465
 21
1325.494460905118
 31
0.0
  0
LINE
  5
18CA3
330
18C7A
100
AcDbEntity
  8
細線
100
AcDbLine
 10
1735.639047453926
 20
1325.494460905098
 30
0.0
 11
1670.302124035454
 21
1325.494460905087
 31
0.0
  0
LINE
  5
18CA4
330
18C7A
100
AcDbEntity
  8
細線
100
AcDbLine
 10
1737.970593930113
 20
1320.494443351419
 30
0.0
 11
1735.639047453926
 21
1325.494460905098
 31
0.0
  0
LINE
  5
18CA5
330
18C7A
100
AcDbEntity
  8
細線
100
AcDbLine
 10
1667.970585744697
 20
1320.494460905131
 30
0.0
 11
1670.302124035465
 21
1325.494460905116
 31
0.0
  0
LINE
  5
18CA6
330
18C7A
100
AcDbEntity
  8
細線
100
AcDbLine
 10
1527.970593930113
 20
1320.494460905133
 30
0.0
 11
1530.302132220881
 21
1325.494460905118
 31
0.0
  0
LINE
  5
18CA7
330
18C7A
100
AcDbEntity
  8
細線
100
AcDbLine
 10
1597.970602115529
 20
1320.494443351421
 30
0.0
 11
1595.639055639342
 21
1325.4944609051
 31
0.0
  0
LINE
  5
18CA8
330
18C7A
100
AcDbEntity
  8
細線
100
AcDbLine
 10
1595.639055639342
 20
1325.4944609051
 30
0.0
 11
1530.302132220869
 21
1325.494460905089
 31
0.0
  0
ARC
  5
18CA9
330
18C7A
100
AcDbEntity
  8
部品1
 48
0.01
100
AcDbCircle
 10
1483.470482677778
 20
1319.493338720063
 30
0.0
 40
0.5
100
AcDbArc
 50
270.0
 51
0.0
  0
LINE
  5
18CAA
330
18C7A
100
AcDbEntity
  8
部品1
 48
0.01
100
AcDbLine
 10
1483.970482677778
 20
1320.493338720063
 30
0.0
 11
1483.970482677778
 21
1319.493338720063
 31
0.0
  0
LINE
  5
18CAB
330
18C7A
100
AcDbEntity
  8
部品1
 48
0.01
100
AcDbLine
 10
1483.970482677778
 20
1320.493338720063
 30
0.0
 11
1483.970482677778
 21
1319.493338720063
 31
0.0
  0
LINE
  5
18CAC
330
18C7A
100
AcDbEntity
  8
部品1
 48
0.01
100
AcDbLine
 10
1483.470482677778
 20
1318.993338720063
 30
0.0
 11
1476.857977247713
 21
1318.993338720062
 31
0.0
  0
ARC
  5
18CAD
330
18C7A
100
AcDbEntity
  8
部品1
100
AcDbCircle
 10
1476.926326800494
 20
1319.993338720062
 30
0.0
 40
1.0
100
AcDbArc
 50
160.5287793655865
 51
270.0
  0
ARC
  5
18CAE
330
18C7A
100
AcDbEntity
  8
部品1
100
AcDbCircle
 10
1451.470482677778
 20
1328.993338720062
 30
0.0
 40
26.0
100
AcDbArc
 50
340.5287793655865
 51
0.0
  0
LINE
  5
18CAF
330
18C7A
100
AcDbEntity
  8
部品1
100
AcDbLine
 10
1477.470482677778
 20
1328.993338720062
 30
0.0
 11
1477.470482677778
 21
1333.993338720061
 31
0.0
  0
ARC
  5
18CB0
330
18C7A
100
AcDbEntity
  8
部品1
 48
0.01
100
AcDbCircle
 10
1475.470482677778
 20
1333.993338720061
 30
0.0
 40
2.0
100
AcDbArc
 50
0.0
 51
90.0
  0
ARC
  5
18CB1
330
18C7A
100
AcDbEntity
  8
部品1
100
AcDbCircle
 10
1473.862091052968
 20
1332.993338720062
 30
0.0
 40
3.0
100
AcDbArc
 50
90.0
 51
141.6069559808035
  0
LINE
  5
18CB2
330
18C7A
100
AcDbEntity
  8
部品1
 48
0.01
100
AcDbLine
 10
1475.470482677778
 20
1335.993338720062
 30
0.0
 11
1473.862091052968
 21
1335.993338720062
 31
0.0
  0
ARC
  5
18CB3
330
18C7A
100
AcDbEntity
  8
部品1
100
AcDbCircle
 10
1455.399768463507
 20
1332.293338720065
 30
0.0
 40
3.0
100
AcDbArc
 50
254.0576313943215
 51
270.0
  0
ARC
  5
18CB4
330
18C7A
100
AcDbEntity
  8
部品1
100
AcDbCircle
 10
1462.541196892049
 20
1332.293338720065
 30
0.0
 40
3.0
100
AcDbArc
 50
270.0
 51
285.9423686056786
  0
LINE
  5
18CB5
330
18C7A
100
AcDbEntity
  8
部品1
100
AcDbLine
 10
1462.541196892049
 20
1329.293338720064
 30
0.0
 11
1455.399768463507
 21
1329.293338720064
 31
0.0
  0
ARC
  5
18CB6
330
18C7A
100
AcDbEntity
  8
部品1
100
AcDbCircle
 10
1458.970482677778
 20
1344.793338720065
 30
0.0
 40
16.0
100
AcDbArc
 50
285.9423686056786
 51
321.6069559808035
  0
LINE
  5
18CB7
330
18C7A
100
AcDbEntity
  8
部品1
 48
0.01
100
AcDbLine
 10
1442.470482677778
 20
1335.993338720062
 30
0.0
 11
1444.078874302588
 21
1335.993338720062
 31
0.0
  0
ARC
  5
18CB8
330
18C7A
100
AcDbEntity
  8
部品1
100
AcDbCircle
 10
1444.078874302588
 20
1332.993338720062
 30
0.0
 40
3.0
100
AcDbArc
 50
38.39304401919648
 51
90.0
  0
ARC
  5
18CB9
330
18C7A
100
AcDbEntity
  8
部品1
100
AcDbCircle
 10
1458.970482677778
 20
1344.793338720065
 30
0.0
 40
16.0
100
AcDbArc
 50
218.3930440191965
 51
254.0576313943215
  0
LINE
  5
18CBA
330
18C7A
100
AcDbEntity
  8
部品1
100
AcDbLine
 10
1440.470482677778
 20
1328.993338720062
 30
0.0
 11
1440.470482677778
 21
1333.993338720061
 31
0.0
  0
ARC
  5
18CBB
330
18C7A
100
AcDbEntity
  8
部品1
 48
0.01
100
AcDbCircle
 10
1442.470482677778
 20
1333.993338720061
 30
0.0
 40
2.0
100
AcDbArc
 50
90.0
 51
180.0
  0
ARC
  5
18CBC
330
18C7A
100
AcDbEntity
  8
部品1
100
AcDbCircle
 10
1466.470482677778
 20
1328.993338720062
 30
0.0
 40
26.0
100
AcDbArc
 50
180.0
 51
199.4712206344134
  0
ARC
  5
18CBD
330
18C7A
100
AcDbEntity
  8
部品1
 48
0.01
100
AcDbCircle
 10
1434.470482677778
 20
1319.493338720063
 30
0.0
 40
0.5
100
AcDbArc
 50
180.0
 51
270.0
  0
LINE
  5
18CBE
330
18C7A
100
AcDbEntity
  8
部品1
 48
0.01
100
AcDbLine
 10
1434.470482677778
 20
1318.993338720063
 30
0.0
 11
1441.014638555061
 21
1318.993338720062
 31
0.0
  0
LINE
  5
18CBF
330
18C7A
100
AcDbEntity
  8
部品1
 48
0.01
100
AcDbLine
 10
1433.970482677778
 20
1320.493338720063
 30
0.0
 11
1433.970482677778
 21
1319.493338720063
 31
0.0
  0
ARC
  5
18CC0
330
18C7A
100
AcDbEntity
  8
部品1
100
AcDbCircle
 10
1441.014638555061
 20
1319.993338720062
 30
0.0
 40
1.0
100
AcDbArc
 50
270.0
 51
19.47122063441346
  0
LINE
  5
18CC1
330
18C7A
100
AcDbEntity
  8
細線
100
AcDbLine
 10
1479.470482677785
 20
1338.493338720065
 30
0.0
 11
1438.470482677785
 21
1338.493338720058
 31
0.0
  0
LINE
  5
18CC2
330
18C7A
100
AcDbEntity
  8
細線
100
AcDbLine
 10
1438.470482677785
 20
1338.493338720058
 30
0.0
 11
1438.470482677785
 21
1320.49333872004
 31
0.0
  0
LINE
  5
18CC3
330
18C7A
100
AcDbEntity
  8
細線
100
AcDbLine
 10
1479.470482677785
 20
1338.493338720065
 30
0.0
 11
1479.470482677785
 21
1320.49333872004
 31
0.0
  0
LINE
  5
18CC4
330
18C7A
100
AcDbEntity
  8
細線
100
AcDbLine
 10
1322.970589276523
 20
1324.494269174465
 30
0.0
 11
1322.970589276523
 21
1320.494269174513
 31
0.0
  0
LINE
  5
18CC5
330
18C7A
100
AcDbEntity
  8
寸法
 48
50.0
100
AcDbLine
 10
1746.17359555837
 20
1170.531020743327
 30
0.0
 11
1694.767587648266
 21
1170.531020743327
 31
0.0
  0
LINE
  5
18CC6
330
18C7A
100
AcDbEntity
  8
寸法
 48
50.0
100
AcDbLine
 10
1694.767587648266
 20
1170.531020743327
 30
0.0
 11
1694.767587648266
 21
1201.841179395494
 31
0.0
  0
LINE
  5
18CC7
330
18C7A
100
AcDbEntity
  8
寸法
 48
50.0
100
AcDbLine
 10
1694.767587648266
 20
1201.841179395494
 30
0.0
 11
1665.006255656843
 21
1201.841179395494
 31
0.0
  0
LINE
  5
18CC8
330
18C7A
100
AcDbEntity
  8
寸法
 48
50.0
100
AcDbLine
 10
1665.006255656843
 20
1201.841179395494
 30
0.0
 11
1720.470591603318
 21
1239.420630324105
 31
0.0
  0
LINE
  5
18CC9
330
18C7A
100
AcDbEntity
  8
寸法
 48
50.0
100
AcDbLine
 10
1775.934927549793
 20
1201.841179395494
 30
0.0
 11
1720.470591603318
 21
1239.420630324105
 31
0.0
  0
LINE
  5
18CCA
330
18C7A
100
AcDbEntity
  8
寸法
 48
50.0
100
AcDbLine
 10
1746.17359555837
 20
1201.841179395494
 30
0.0
 11
1775.934927549793
 21
1201.841179395494
 31
0.0
  0
LINE
  5
18CCB
330
18C7A
100
AcDbEntity
  8
寸法
 48
50.0
100
AcDbLine
 10
1746.17359555837
 20
1170.531020743327
 30
0.0
 11
1746.17359555837
 21
1201.841179395494
 31
0.0
  0
LINE
  5
18CCC
330
18C7A
100
AcDbEntity
  8
寸法
 48
50.0
100
AcDbLine
 10
1694.767587648266
 20
1170.531020743327
 30
0.0
 11
1746.17359555837
 21
1170.531020743327
 31
0.0
  0
LINE
  5
18CCD
330
18C7A
100
AcDbEntity
  8
寸法
 48
50.0
100
AcDbLine
 10
2025.339129835225
 20
1227.676611498152
 30
0.0
 11
2025.339129835225
 21
1174.01297691636
 31
0.0
  0
LINE
  5
18CCE
330
18C7A
100
AcDbEntity
  8
寸法
 48
50.0
100
AcDbLine
 10
2114.623348430647
 20
1203.752977228664
 30
0.0
 11
2025.339129835225
 21
1227.676611498152
 31
0.0
  0
LINE
  5
18CCF
330
18C7A
100
AcDbEntity
  8
寸法
 48
50.0
100
AcDbLine
 10
1895.471408254923
 20
1203.752977228664
 30
0.0
 11
2114.623348430647
 21
1203.752977228664
 31
0.0
  0
DIMENSION
  5
18CD0
330
18C7A
100
AcDbEntity
  8
寸法
 48
50.0
100
AcDbDimension
  2
*D15
 10
2588.970589276523
 20
706.3240511224249
 30
0.0
 11
1969.060022905491
 21
706.3240511224249
 31
0.0
 12
-3742.925985830444
 22
-6453.628869860112
 32
0.0
 70
   128
  1
有効開口部間口\P<>
 71
     5
 42
1266.0
  3
INABA_S40G
100
AcDbAlignedDimension
 13
1322.970589276523
 23
1315.494269174465
 33
0.0
 14
2588.970589276523
 24
1315.494269174465
 34
0.0
100
AcDbRotatedDimension
1001
ACAD
1000
DSTYLE
1002
{
1070
   341
1005
0
1002
}
  0
LINE
  5
18CD1
330
18C7A
100
AcDbEntity
  8
部品1
100
AcDbLine
 10
3409.970589276524
 20
1392.494269174465
 30
0.0
 11
3437.970589276523
 21
1392.494269174465
 31
0.0
  0
DIMENSION
  5
18CD2
330
18C7A
100
AcDbEntity
  8
寸法
100
AcDbDimension
  2
*D16
 10
3674.266172669749
 20
1315.494269174465
 30
0.0
 11
3674.266172669748
 21
1177.494269174462
 31
0.0
 12
-3742.925985830444
 22
-6453.628869860112
 32
0.0
 70
   128
 71
     5
 42
77.0
  3
INABA_S40
100
AcDbAlignedDimension
 13
3437.970589276523
 23
1392.494269174465
 33
0.0
 14
3436.970589276523
 24
1315.494269174465
 34
0.0
 50
90.0
100
AcDbRotatedDimension
1001
ACAD
1000
DSTYLE
1002
{
1070
    41
1040
0.5
1070
    44
1040
1.0
1070
   147
1040
0.8
1070
   271
1070
     2
1070
   272
1070
     2
1070
   289
1070
     3
1070
   340
1005
F706
1070
   343
1005
164B4
1070
   344
1005
164B4
1002
}
  0
LINE
  5
18CD3
330
18C7A
100
AcDbEntity
  8
部品1
100
AcDbLine
 10
3437.970589276523
 20
1315.494269174465
 30
0.0
 11
3437.970589276523
 21
1392.494269174465
 31
0.0
  0
LINE
  5
18CD4
330
18C7A
100
AcDbEntity
  8
部品1
100
AcDbLine
 10
3398.970589276523
 20
1388.494269174465
 30
0.0
 11
3409.970589276524
 21
1388.494269174465
 31
0.0
  0
LINE
  5
18CD5
330
18C7A
100
AcDbEntity
  8
部品1
100
AcDbLine
 10
3407.970589276523
 20
1324.494269174465
 30
0.0
 11
3407.970589276523
 21
1315.494269174465
 31
0.0
  0
LINE
  5
18CD6
330
18C7A
100
AcDbEntity
  8
部品1
100
AcDbLine
 10
3398.970589276523
 20
1324.494269174465
 30
0.0
 11
3407.970589276523
 21
1324.494269174465
 31
0.0
  0
LINE
  5
18CD7
330
18C7A
100
AcDbEntity
  8
部品1
100
AcDbLine
 10
3398.970589276523
 20
1388.494269174465
 30
0.0
 11
3398.970589276523
 21
1324.494269174465
 31
0.0
  0
LINE
  5
18CD8
330
18C7A
100
AcDbEntity
  8
部品1
100
AcDbLine
 10
3409.970589276524
 20
1419.494269174465
 30
0.0
 11
3409.970589276524
 21
1388.494269174465
 31
0.0
  0
LINE
  5
18CD9
330
18C7A
100
AcDbEntity
  8
部品1
100
AcDbLine
 10
1322.970589276523
 20
1388.494269174465
 30
0.0
 11
1311.970589276523
 21
1388.494269174465
 31
0.0
  0
LINE
  5
18CDA
330
18C7A
100
AcDbEntity
  8
部品1
100
AcDbLine
 10
1283.970589276523
 20
1392.494269174465
 30
0.0
 11
1311.970589276523
 21
1392.494269174465
 31
0.0
  0
LINE
  5
18CDB
330
18C7A
100
AcDbEntity
  8
部品1
100
AcDbLine
 10
1313.970589276523
 20
1324.494269174465
 30
0.0
 11
1313.970589276523
 21
1315.494269174465
 31
0.0
  0
LINE
  5
18CDC
330
18C7A
100
AcDbEntity
  8
部品1
100
AcDbLine
 10
1322.970589276523
 20
1324.494269174465
 30
0.0
 11
1313.970589276523
 21
1324.494269174465
 31
0.0
  0
LINE
  5
18CDD
330
18C7A
100
AcDbEntity
  8
部品1
100
AcDbLine
 10
1313.970589276523
 20
1315.494269174465
 30
0.0
 11
1283.970589276523
 21
1315.494269174465
 31
0.0
  0
LINE
  5
18CDE
330
18C7A
100
AcDbEntity
  8
部品1
100
AcDbLine
 10
1283.970589276523
 20
1315.494269174465
 30
0.0
 11
1283.970589276523
 21
1392.494269174465
 31
0.0
  0
LINE
  5
18CDF
330
18C7A
100
AcDbEntity
  8
部品1
100
AcDbLine
 10
1322.970589276523
 20
1388.494269174465
 30
0.0
 11
1322.970589276523
 21
1324.494269174465
 31
0.0
  0
LINE
  5
18CE0
330
18C7A
100
AcDbEntity
  8
部品1
100
AcDbLine
 10
1311.970589276523
 20
1419.494269174462
 30
0.0
 11
1311.970589276523
 21
1388.494269174465
 31
0.0
  0
LINE
  5
18CE1
330
18C7A
100
AcDbEntity
  8
部品1
100
AcDbLine
 10
1311.970589276523
 20
1419.494269174462
 30
0.0
 11
3409.970589276524
 21
1419.494269174465
 31
0.0
  0
LINE
  5
18CE2
330
18C7A
100
AcDbEntity
  8
部品1
100
AcDbLine
 10
3407.970589276523
 20
1315.494269174465
 30
0.0
 11
3437.970589276523
 21
1315.494269174465
 31
0.0
  0
LINE
  5
18CE3
330
18C7A
100
AcDbEntity
  8
部品1
100
AcDbLine
 10
1313.970589276523
 20
1315.494269174465
 30
0.0
 11
3410.970589276523
 21
1315.494269174465
 31
0.0
  0
LINE
  5
18CE4
330
18C7A
100
AcDbEntity
  8
細線
  6
Continuous
 62
     5
100
AcDbLine
 10
2689.970589276527
 20
1354.494269174462
 30
0.0
 11
2689.970589276527
 21
1354.494269174462
 31
0.0
  0
LINE
  5
18CE5
330
18C7A
100
AcDbEntity
  8
細線
  6
Continuous
 62
     5
100
AcDbLine
 10
2682.470589276527
 20
1354.494269174462
 30
0.0
 11
2682.470589276527
 21
1354.494269174462
 31
0.0
  0
LINE
  5
18CE6
330
18C7A
100
AcDbEntity
  8
細線
  6
Continuous
 62
     5
100
AcDbLine
 10
2676.470589276527
 20
1354.494269174462
 30
0.0
 11
2676.470589276527
 21
1354.494269174462
 31
0.0
  0
LINE
  5
18CE7
330
18C7A
100
AcDbEntity
  8
細線
  6
Continuous
 62
     5
100
AcDbLine
 10
2743.970589276527
 20
1373.494269174462
 30
0.0
 11
2743.970589276527
 21
1373.494269174462
 31
0.0
  0
LINE
  5
18CE8
330
18C7A
100
AcDbEntity
  8
細線
 48
50.0
100
AcDbLine
 10
1336.970593930116
 20
1341.094443351418
 30
0.0
 11
1336.970593930113
 21
1349.490593759059
 31
0.0
  0
LINE
  5
18CE9
330
18C7A
100
AcDbEntity
  8
細線
 48
50.0
100
AcDbLine
 10
1336.970593930113
 20
1349.490593759059
 30
0.0
 11
1322.970589276523
 21
1349.490593759057
 31
0.0
  0
LINE
  5
18CEA
330
18C7A
100
AcDbEntity
  8
細線
 48
50.0
100
AcDbLine
 10
2087.970593930113
 20
1337.644443351419
 30
0.0
 11
2087.970593930113
 21
1342.494443351421
 31
0.0
  0
LINE
  5
18CEB
330
18C7A
100
AcDbEntity
  8
細線
 48
50.0
100
AcDbLine
 10
2087.970593930113
 20
1342.494443351421
 30
0.0
 11
2102.970593930113
 21
1342.494443351421
 31
0.0
  0
LINE
  5
18CEC
330
18C7A
100
AcDbEntity
  8
細線
 48
50.0
100
AcDbLine
 10
2102.970593930113
 20
1342.494443351421
 30
0.0
 11
2102.970593930115
 21
1349.494443351419
 31
0.0
  0
LINE
  5
18CED
330
18C7A
100
AcDbEntity
  8
細線
 48
50.0
100
AcDbLine
 10
2102.970593930115
 20
1349.494443351419
 30
0.0
 11
2117.970593930113
 21
1349.494443351419
 31
0.0
  0
LINE
  5
18CEE
330
18C7A
100
AcDbEntity
  8
細線
 48
50.0
100
AcDbLine
 10
2117.970593930113
 20
1349.494443351419
 30
0.0
 11
2117.970593930113
 21
1320.494443351421
 31
0.0
  0
LINE
  5
18CEF
330
18C7A
100
AcDbEntity
  8
細線
 48
50.0
100
AcDbLine
 10
1313.970589276523
 20
1320.491777694889
 30
0.0
 11
1527.970593930113
 21
1320.494460905133
 31
0.0
  0
LINE
  5
18CF0
330
18C7A
100
AcDbEntity
  8
細線
 48
50.0
100
AcDbLine
 10
2017.970593930113
 20
1320.494443351421
 30
0.0
 11
2117.970593930113
 21
1320.494443351421
 31
0.0
  0
LINE
  5
18CF1
330
18C7A
100
AcDbEntity
  8
細線
 48
50.0
100
AcDbLine
 10
1737.970593930113
 20
1320.494443351419
 30
0.0
 11
1807.970593930113
 21
1320.494443351423
 31
0.0
  0
LINE
  5
18CF2
330
18C7A
100
AcDbEntity
  8
細線
 48
50.0
100
AcDbLine
 10
1750.832558942642
 20
1320.494443351419
 30
0.0
 11
1756.588076525309
 21
1338.765294641913
 31
0.0
  0
LINE
  5
18CF3
330
18C7A
100
AcDbEntity
  8
細線
 48
50.0
100
AcDbLine
 10
1756.588076525309
 20
1338.765294641913
 30
0.0
 11
1767.516525005743
 21
1338.765294641911
 31
0.0
  0
ARC
  5
18CF4
330
18C7A
100
AcDbEntity
  8
細線
 48
50.0
100
AcDbCircle
 10
1767.516525005743
 20
1337.765294641911
 30
0.0
 40
1.0
100
AcDbArc
 50
24.62431835207225
 51
90.0
  0
ARC
  5
18CF5
330
18C7A
100
AcDbEntity
  8
細線
 48
50.0
100
AcDbCircle
 10
1778.425237120377
 20
1337.765294641911
 30
0.0
 40
1.0
100
AcDbArc
 50
90.0
 51
155.3756816479277
  0
ARC
  5
18CF6
330
18C7A
100
AcDbEntity
  8
細線
 48
50.0
100
AcDbCircle
 10
1772.970881063058
 20
1340.265294641911
 30
0.0
 40
5.0
100
AcDbArc
 50
204.6243183520723
 51
335.3756816479278
  0
LINE
  5
18CF7
330
18C7A
100
AcDbEntity
  8
細線
 48
50.0
100
AcDbLine
 10
1778.425237120377
 20
1338.765294641911
 30
0.0
 11
1789.35368560081
 21
1338.765294641913
 31
0.0
  0
LINE
  5
18CF8
330
18C7A
100
AcDbEntity
  8
細線
 48
50.0
100
AcDbLine
 10
1789.35368560081
 20
1338.765294641913
 30
0.0
 11
1795.109203183478
 21
1320.494443351423
 31
0.0
  0
LINE
  5
18CF9
330
18C7A
100
AcDbEntity
  8
細線
 48
50.0
100
AcDbLine
 10
2087.970593930113
 20
1341.094443351419
 30
0.0
 11
1336.970593930116
 21
1341.094443351418
 31
0.0
  0
LINE
  5
18CFA
330
18C7A
100
AcDbEntity
  8
細線
 48
50.0
100
AcDbLine
 10
1947.970593930113
 20
1320.494443351421
 30
0.0
 11
1877.970593930113
 21
1320.494443351421
 31
0.0
  0
LINE
  5
18CFB
330
18C7A
100
AcDbEntity
  8
細線
100
AcDbLine
 10
1667.970593930113
 20
1320.494443351421
 30
0.0
 11
1597.970602115529
 21
1320.494443351421
 31
0.0
  0
LINE
  5
18CFC
330
18C7A
100
AcDbEntity
  8
細線
 48
50.0
100
AcDbLine
 10
2741.970584622936
 20
1375.094487209288
 30
0.0
 11
2106.970593930113
 21
1375.094487209284
 31
0.0
  0
LINE
  5
18CFD
330
18C7A
100
AcDbEntity
  8
細線
 48
50.0
100
AcDbLine
 10
2106.970593930113
 20
1371.990637616925
 30
0.0
 11
2106.970593930113
 21
1376.490637616925
 31
0.0
  0
LINE
  5
18CFE
330
18C7A
100
AcDbEntity
  8
細線
 48
50.0
100
AcDbLine
 10
2106.970593930113
 20
1376.490637616925
 30
0.0
 11
2091.970593930113
 21
1376.490637616925
 31
0.0
  0
LINE
  5
18CFF
330
18C7A
100
AcDbEntity
  8
細線
 48
50.0
100
AcDbLine
 10
2091.970593930113
 20
1376.490637616925
 30
0.0
 11
2091.970593930113
 21
1383.490637616927
 31
0.0
  0
LINE
  5
18D00
330
18C7A
100
AcDbEntity
  8
細線
 48
50.0
100
AcDbLine
 10
2091.970593930113
 20
1383.490637616927
 30
0.0
 11
2076.970593930115
 21
1383.490637616924
 31
0.0
  0
LINE
  5
18D01
330
18C7A
100
AcDbEntity
  8
細線
 48
50.0
100
AcDbLine
 10
2076.970593930115
 20
1383.490637616924
 30
0.0
 11
2076.970593930115
 21
1345.890409513813
 31
0.0
  0
LINE
  5
18D02
330
18C7A
100
AcDbEntity
  8
細線
 48
50.0
100
AcDbLine
 10
2076.970593930115
 20
1345.890409513813
 30
0.0
 11
2096.970601231289
 21
1345.890451063353
 31
0.0
  0
LINE
  5
18D03
330
18C7A
100
AcDbEntity
  8
細線
 48
50.0
100
AcDbLine
 10
2096.970556362348
 20
1354.493912699161
 30
0.0
 11
2096.970601231289
 21
1345.890451063353
 31
0.0
  0
LINE
  5
18D04
330
18C7A
100
AcDbEntity
  8
細線
 48
50.0
100
AcDbLine
 10
2741.970584622936
 20
1371.644487209287
 30
0.0
 11
2741.970584622936
 21
1376.494487209284
 31
0.0
  0
LINE
  5
18D05
330
18C7A
100
AcDbEntity
  8
細線
 48
50.0
100
AcDbLine
 10
2741.970584622936
 20
1376.494487209284
 30
0.0
 11
2756.970584622934
 21
1376.494487209285
 31
0.0
  0
LINE
  5
18D06
330
18C7A
100
AcDbEntity
  8
細線
 48
50.0
100
AcDbLine
 10
2756.970584622934
 20
1376.494487209285
 30
0.0
 11
2756.970596256909
 21
1383.494487209331
 31
0.0
  0
LINE
  5
18D07
330
18C7A
100
AcDbEntity
  8
細線
 48
50.0
100
AcDbLine
 10
2756.970596256909
 20
1383.494487209331
 30
0.0
 11
2771.970594427439
 21
1383.494487209329
 31
0.0
  0
LINE
  5
18D08
330
18C7A
100
AcDbEntity
  8
細線
 48
50.0
100
AcDbLine
 10
2771.970594427439
 20
1383.494487209329
 30
0.0
 11
2771.970584125617
 21
1354.494281037055
 31
0.0
  0
LINE
  5
18D09
330
18C7A
100
AcDbEntity
  8
細線
 48
50.0
100
AcDbLine
 10
2458.070304175992
 20
1354.494278397076
 30
0.0
 11
2389.470863838818
 21
1354.494283787084
 31
0.0
  0
LINE
  5
18D0A
330
18C7A
100
AcDbEntity
  8
細線
 48
50.0
100
AcDbLine
 10
2096.970556362348
 20
1354.493912699161
 30
0.0
 11
2108.203245717057
 21
1354.494095652309
 31
0.0
  0
ARC
  5
18D0B
330
18C7A
100
AcDbEntity
  8
細線
 48
50.0
100
AcDbCircle
 10
2114.785538024393
 20
1353.294259565922
 30
0.0
 40
1.8
100
AcDbArc
 50
270.0006665777295
 51
345.000555481349
  0
LINE
  5
18D0C
330
18C7A
100
AcDbEntity
  8
細線
 48
50.0
100
AcDbLine
 10
2116.771971470473
 20
1353.753100023201
 30
0.0
 11
2116.524209028273
 21
1352.828402141094
 31
0.0
  0
LINE
  5
18D0D
330
18C7A
100
AcDbEntity
  8
細線
 48
50.0
100
AcDbLine
 10
2114.785558965548
 20
1351.494259566043
 30
0.0
 11
2111.155631546781
 21
1351.494217335563
 31
0.0
  0
ARC
  5
18D0E
330
18C7A
100
AcDbEntity
  8
細線
 48
50.0
100
AcDbCircle
 10
2111.155610605627
 20
1353.29421733544
 30
0.0
 40
1.8
100
AcDbArc
 50
195.0010443049965
 51
270.0006665777295
  0
LINE
  5
18D0F
330
18C7A
100
AcDbEntity
  8
細線
 48
50.0
100
AcDbLine
 10
2109.169183113368
 20
1353.752932303007
 30
0.0
 11
2109.416952609882
 21
1352.828311364425
 31
0.0
  0
ARC
  5
18D10
330
18C7A
100
AcDbEntity
  8
細線
 48
50.0
100
AcDbCircle
 10
2108.203262004622
 20
1353.494095652444
 30
0.0
 40
1.0
100
AcDbArc
 50
15.00104430499651
 51
90.00093320877969
  0
LINE
  5
18D11
330
18C7A
100
AcDbEntity
  8
細線
 48
50.0
100
AcDbLine
 10
2117.737892825577
 20
1354.494290342714
 30
0.0
 11
2118.679652976481
 21
1354.494296916564
 31
0.0
  0
ARC
  5
18D12
330
18C7A
100
AcDbEntity
  8
細線
 48
50.0
100
AcDbCircle
 10
2117.737899805961
 20
1353.49429034274
 30
0.0
 40
1.0
100
AcDbArc
 50
90.0003999466794
 51
165.000555481349
  0
LINE
  5
18D13
330
18C7A
100
AcDbEntity
  8
細線
 48
50.0
100
AcDbLine
 10
2669.470584622926
 20
1354.494281037055
 30
0.0
 11
2771.970584125617
 21
1354.494281037055
 31
0.0
  0
LINE
  5
18D14
330
18C7A
100
AcDbEntity
  8
細線
 48
50.0
100
AcDbLine
 10
2179.47061994182
 20
1354.494289224422
 30
0.0
 11
2118.370558714898
 21
1354.494296916564
 31
0.0
  0
LINE
  5
18D15
330
18C7A
100
AcDbEntity
  8
細線
 48
50.0
100
AcDbLine
 10
2599.470584622926
 20
1354.494281037057
 30
0.0
 11
2529.470584622926
 21
1354.494281037055
 31
0.0
  0
LINE
  5
18D16
330
18C7A
100
AcDbEntity
  8
細線
 48
50.0
100
AcDbLine
 10
2319.470584622926
 20
1354.494281037054
 30
0.0
 11
2249.470567335051
 21
1354.494281037057
 31
0.0
  0
ARC
  5
18D17
330
18C7A
100
AcDbEntity
  8
細線
 48
50.0
100
AcDbCircle
 10
2756.170589276533
 20
1387.694269174466
 30
0.0
 40
0.8
100
AcDbArc
 50
359.9997333689499
 51
89.99986668437072
  0
ARC
  5
18D18
330
18C7A
100
AcDbEntity
  8
細線
 48
50.0
100
AcDbCircle
 10
2763.770596101631
 20
1387.694280343081
 30
0.0
 40
0.8
100
AcDbArc
 50
90.00014387753465
 51
179.9997333689498
  0
LINE
  5
18D19
330
18C7A
100
AcDbEntity
  8
細線
 48
50.0
100
AcDbLine
 10
2756.170591137969
 20
1388.494269174465
 30
0.0
 11
2750.970589276525
 21
1388.494269174465
 31
0.0
  0
ARC
  5
18D1A
330
18C7A
100
AcDbEntity
  8
細線
 48
50.0
100
AcDbCircle
 10
2757.670589276524
 20
1386.194269174464
 30
0.0
 40
0.7
100
AcDbArc
 50
180.0
 51
270.0
  0
ARC
  5
18D1B
330
18C7A
100
AcDbEntity
  8
細線
 48
50.0
100
AcDbCircle
 10
2762.270589276524
 20
1386.194269174464
 30
0.0
 40
0.7
100
AcDbArc
 50
270.0
 51
0.0
  0
LINE
  5
18D1C
330
18C7A
100
AcDbEntity
  8
細線
 48
50.0
100
AcDbLine
 10
2762.970589276525
 20
1386.194269174464
 30
0.0
 11
2762.970596101639
 21
1387.694284065954
 31
0.0
  0
LINE
  5
18D1D
330
18C7A
100
AcDbEntity
  8
細線
 48
50.0
100
AcDbLine
 10
2757.670589276524
 20
1385.494269174465
 30
0.0
 11
2762.270589276524
 21
1385.494269174465
 31
0.0
  0
LINE
  5
18D1E
330
18C7A
100
AcDbEntity
  8
細線
 48
50.0
100
AcDbLine
 10
2756.970589276525
 20
1387.694269174466
 30
0.0
 11
2756.970589276525
 21
1386.194269174464
 31
0.0
  0
LINE
  5
18D1F
330
18C7A
100
AcDbEntity
  8
細線
 48
50.0
100
AcDbLine
 10
3382.570589276527
 20
1418.494269174465
 30
0.0
 11
2745.970589276525
 21
1418.494269174463
 31
0.0
  0
LINE
  5
18D20
330
18C7A
100
AcDbEntity
  8
細線
 48
50.0
100
AcDbLine
 10
3408.470589276525
 20
1413.494269174467
 30
0.0
 11
3392.570589276527
 21
1413.494269174465
 31
0.0
  0
LINE
  5
18D21
330
18C7A
100
AcDbEntity
  8
細線
 48
50.0
100
AcDbLine
 10
3392.570589276526
 20
1413.494269174465
 30
0.0
 11
3382.570589276527
 21
1418.494269174465
 31
0.0
  0
LINE
  5
18D22
330
18C7A
100
AcDbEntity
  8
細線
100
AcDbLine
 10
2993.470589276525
 20
1388.494269174465
 30
0.0
 11
2993.470589276525
 21
1417.794269174464
 31
0.0
  0
LINE
  5
18D23
330
18C7A
100
AcDbEntity
  8
細線
100
AcDbLine
 10
2993.470589276525
 20
1417.794269174464
 30
0.0
 11
3013.470589276525
 21
1417.794269174464
 31
0.0
  0
LINE
  5
18D24
330
18C7A
100
AcDbEntity
  8
細線
100
AcDbLine
 10
3013.470589276525
 20
1388.494269174465
 30
0.0
 11
3013.470589276525
 21
1417.794269174464
 31
0.0
  0
LINE
  5
18D25
330
18C7A
100
AcDbEntity
  8
細線
100
AcDbLine
 10
3170.720589276524
 20
1388.494269174465
 30
0.0
 11
3100.720589276523
 21
1388.494269174465
 31
0.0
  0
LINE
  5
18D26
330
18C7A
100
AcDbEntity
  8
細線
 48
50.0
100
AcDbLine
 10
2890.720589276525
 20
1388.494269174465
 30
0.0
 11
2763.766368849365
 21
1388.494269174465
 31
0.0
  0
LINE
  5
18D27
330
18C7A
100
AcDbEntity
  8
細線
100
AcDbLine
 10
3030.720589276525
 20
1388.494269174465
 30
0.0
 11
2960.720589276525
 21
1388.494269174465
 31
0.0
  0
LINE
  5
18D28
330
18C7A
100
AcDbEntity
  8
細線
 48
50.0
100
AcDbLine
 10
2750.970589276525
 20
1380.494269174465
 30
0.0
 11
2750.970589276525
 21
1388.494269174465
 31
0.0
  0
LINE
  5
18D29
330
18C7A
100
AcDbEntity
  8
細線
 48
50.0
100
AcDbLine
 10
2730.970589276524
 20
1380.494269174467
 30
0.0
 11
2750.970589276525
 21
1380.494269174465
 31
0.0
  0
LINE
  5
18D2A
330
18C7A
100
AcDbEntity
  8
細線
 48
50.0
100
AcDbLine
 10
2745.970589276525
 20
1418.494269174465
 30
0.0
 11
2745.970589276525
 21
1413.494269174465
 31
0.0
  0
LINE
  5
18D2B
330
18C7A
100
AcDbEntity
  8
細線
 48
50.0
100
AcDbLine
 10
2730.970589276525
 20
1418.494269174463
 30
0.0
 11
2745.970589276525
 21
1418.494269174465
 31
0.0
  0
LINE
  5
18D2C
330
18C7A
100
AcDbEntity
  8
細線
 48
50.0
100
AcDbLine
 10
2730.970589276524
 20
1380.494269174467
 30
0.0
 11
2730.970589276525
 21
1418.494269174463
 31
0.0
  0
LINE
  5
18D2D
330
18C7A
100
AcDbEntity
  8
細線
100
AcDbLine
 10
3398.970589276523
 20
1388.494269174465
 30
0.0
 11
3240.720589276525
 21
1388.494269174465
 31
0.0
  0
LINE
  5
18D2E
330
18C7A
100
AcDbEntity
  8
細線
 48
50.0
100
AcDbLine
 10
3408.470589276525
 20
1413.494269174467
 30
0.0
 11
3408.470589276524
 21
1388.494269174465
 31
0.0
  0
TEXT
  5
18D2F
330
18C7A
100
AcDbEntity
  8
部品1
100
AcDbText
 10
1860.154865991392
 20
46.99880823813145
 30
0.0
 40
135.0
  1
平面図
  7
STYLE2
100
AcDbText
  0
LWPOLYLINE
  5
18D30
330
18C7A
100
AcDbEntity
  8
部品1
100
AcDbPolyline
 90
        4
 70
     1
 43
0.0
 10
1770.23525616235
 20
239.8923374566548
 10
1770.23525616235
 20
0.0000159111223184
 10
2533.705922390791
 20
0.0000159111223184
 10
2533.705922390791
 20
239.8923374566548
  0
LINE
  5
18D31
330
18C7A
100
AcDbEntity
  8
部品1
100
AcDbLine
 10
1534.470589276487
 20
3154.494269174626
 30
0.0
 11
2769.470589276552
 21
3154.494269174626
 31
0.0
  0
LINE
  5
18D32
330
18C7A
100
AcDbEntity
  8
部品1
 48
50.0
100
AcDbLine
 10
1311.970589276523
 20
1420.494269174462
 30
0.0
 11
3411.970589276523
 21
1420.494269174465
 31
0.0
  0
LINE
  5
18D33
330
18C7A
100
AcDbEntity
  8
部品1
 48
50.0
100
AcDbLine
 10
471.9705892765232
 20
1392.494269174465
 30
0.0
 11
1311.970589276523
 21
1392.494269174465
 31
0.0
  0
DIMENSION
  5
18D34
330
18C7A
100
AcDbEntity
  8
寸法
100
AcDbDimension
  2
*D14
 10
2710.234916278077
 20
2488.887829538828
 30
0.0
 11
2338.318822490183
 21
2488.887829538828
 31
0.0
 12
-3742.925985830444
 22
-6453.628869860112
 32
0.0
 70
   128
 71
     5
 42
1231.00000000007
  3
INABA_S40G
100
AcDbAlignedDimension
 13
1536.470589276486
 23
2702.494269174557
 33
0.0
 14
2767.470589276556
 24
2702.494269174549
 34
0.0
100
AcDbRotatedDimension
1001
ACAD
1000
DSTYLE
1002
{
1002
}
  0
LINE
  5
18D35
330
18C7A
100
AcDbEntity
  8
部品1
100
AcDbLine
 10
1536.470589276487
 20
2702.494269174557
 30
0.0
 11
2767.470589276554
 21
2702.494269174615
 31
0.0
  0
LINE
  5
18D36
330
18C7A
100
AcDbEntity
  8
部品1
100
AcDbLine
 10
1536.470589276487
 20
3152.494269174557
 30
0.0
 11
2767.470589276556
 21
3152.494269174615
 31
0.0
  0
LINE
  5
18D37
330
18C7A
100
AcDbEntity
  8
細線
 48
50.0
100
AcDbLine
 10
1508.470589276487
 20
3152.494269174558
 30
0.0
 11
445.4705892765559
 21
2702.494269174509
 31
0.0
  0
LINE
  5
18D38
330
18C7A
100
AcDbEntity
  8
細線
 48
50.0
100
AcDbLine
 10
1508.470589276487
 20
2702.494269174558
 30
0.0
 11
445.4705892765542
 21
3152.494269174509
 31
0.0
  0
LINE
  5
18D39
330
18C7A
100
AcDbEntity
  8
部品1
100
AcDbLine
 10
1556.970589276487
 20
3172.494269174611
 30
0.0
 11
1556.970589276487
 21
3154.494269174611
 31
0.0
  0
LINE
  5
18D3A
330
18C7A
100
AcDbEntity
  8
部品1
100
AcDbLine
 10
1556.970589276487
 20
3172.494269174611
 30
0.0
 11
1550.970589276487
 21
3172.494269174611
 31
0.0
  0
LINE
  5
18D3B
330
18C7A
100
AcDbEntity
  8
部品1
100
AcDbLine
 10
1534.470589276487
 20
3146.494269174608
 30
0.0
 11
1509.470589276487
 21
3146.494269174611
 31
0.0
  0
LINE
  5
18D3C
330
18C7A
100
AcDbEntity
  8
部品1
100
AcDbLine
 10
1486.970589276487
 20
3172.494269174611
 30
0.0
 11
1486.970589276487
 21
3154.494269174611
 31
0.0
  0
LINE
  5
18D3D
330
18C7A
100
AcDbEntity
  8
部品1
100
AcDbLine
 10
1492.970589276487
 20
3172.494269174611
 30
0.0
 11
1486.970589276487
 21
3172.494269174611
 31
0.0
  0
LINE
  5
18D3E
330
18C7A
100
AcDbEntity
  8
部品1
100
AcDbLine
 10
1534.470589276487
 20
2702.494269174615
 30
0.0
 11
1509.470589276487
 21
2702.494269174615
 31
0.0
  0
LINE
  5
18D3F
330
18C7A
100
AcDbEntity
  8
部品1
 48
50.0
100
AcDbLine
 10
1536.470589276487
 20
3152.494269174611
 30
0.0
 11
1536.470589276487
 21
2702.494269174615
 31
0.0
  0
LINE
  5
18D40
330
18C7A
100
AcDbEntity
  8
部品1
 48
50.0
100
AcDbLine
 10
1508.470589276487
 20
3152.494269174607
 30
0.0
 11
1508.470589276487
 21
2702.494269174615
 31
0.0
  0
LINE
  5
18D41
330
18C7A
100
AcDbEntity
  8
部品1
 48
50.0
100
AcDbLine
 10
1534.470589276487
 20
3154.494269174618
 30
0.0
 11
1534.470589276487
 21
2702.494269174615
 31
0.0
  0
LINE
  5
18D42
330
18C7A
100
AcDbEntity
  8
部品1
 48
50.0
100
AcDbLine
 10
1509.470589276487
 20
3154.494269174615
 30
0.0
 11
1509.470589276487
 21
2702.494269174615
 31
0.0
  0
LINE
  5
18D43
330
18C7A
100
AcDbEntity
  8
部品1
100
AcDbLine
 10
3411.970589276556
 20
1392.494269174582
 30
0.0
 11
3411.970589276556
 21
1420.494269174596
 31
0.0
  0
LINE
  5
18D44
330
18C7A
100
AcDbEntity
  8
部品1
100
AcDbLine
 10
1311.970589276523
 20
1392.494269174596
 30
0.0
 11
1311.970589276523
 21
1420.494269174596
 31
0.0
  0
LINE
  5
18D45
330
18C7A
100
AcDbEntity
  8
部品1
100
AcDbLine
 10
891.9705892765232
 20
1392.494269174596
 30
0.0
 11
891.9705892765232
 21
1420.494269174596
 31
0.0
  0
LINE
  5
18D46
330
18C7A
100
AcDbEntity
  8
部品1
100
AcDbLine
 10
3411.97058927652
 20
3182.494269174477
 30
0.0
 11
3411.970589276523
 21
3154.494269174477
 31
0.0
  0
LINE
  5
18D47
330
18C7A
100
AcDbEntity
  8
部品1
100
AcDbLine
 10
2571.97058927652
 20
3182.494269174477
 30
0.0
 11
2571.970589276523
 21
3154.494269174477
 31
0.0
  0
LINE
  5
18D48
330
18C7A
100
AcDbEntity
  8
部品1
100
AcDbLine
 10
2991.97058927652
 20
3182.494269174477
 30
0.0
 11
2991.970589276523
 21
3154.494269174477
 31
0.0
  0
LINE
  5
18D49
330
18C7A
100
AcDbEntity
  8
部品1
100
AcDbLine
 10
2151.970589276519
 20
3182.494269174477
 30
0.0
 11
2151.970589276523
 21
3154.494269174477
 31
0.0
  0
LINE
  5
18D4A
330
18C7A
100
AcDbEntity
  8
部品1
100
AcDbLine
 10
1731.970589276519
 20
3182.494269174477
 30
0.0
 11
1731.970589276523
 21
3154.494269174477
 31
0.0
  0
LINE
  5
18D4B
330
18C7A
100
AcDbEntity
  8
部品1
100
AcDbLine
 10
1311.970589276519
 20
3182.494269174477
 30
0.0
 11
1311.970589276523
 21
3154.494269174477
 31
0.0
  0
LINE
  5
18D4C
330
18C7A
100
AcDbEntity
  8
部品1
100
AcDbLine
 10
891.9705892765195
 20
3182.494269174477
 30
0.0
 11
891.9705892765232
 21
3154.494269174477
 31
0.0
  0
LINE
  5
18D4D
330
18C7A
100
AcDbEntity
  8
部品1
100
AcDbLine
 10
471.9705892765232
 20
1392.494269174596
 30
0.0
 11
471.9705892765232
 21
1420.494269174596
 31
0.0
  0
LINE
  5
18D4E
330
18C7A
100
AcDbEntity
  8
部品1
100
AcDbLine
 10
444.9705892765305
 20
1420.494269174558
 30
0.0
 11
3858.970589276556
 21
1420.494269174596
 31
0.0
  0
LINE
  5
18D4F
330
18C7A
100
AcDbEntity
  8
部品1
100
AcDbLine
 10
3831.970589276556
 20
1392.494269174596
 30
0.0
 11
3831.970589276556
 21
1420.494269174596
 31
0.0
  0
LINE
  5
18D50
330
18C7A
100
AcDbEntity
  8
部品1
100
AcDbLine
 10
3858.970589276556
 20
1447.494269174593
 30
0.0
 11
3886.970589276556
 21
1447.494269174593
 31
0.0
  0
LINE
  5
18D51
330
18C7A
100
AcDbEntity
  8
部品1
100
AcDbLine
 10
3858.970589276556
 20
1867.494269174607
 30
0.0
 11
3886.970589276556
 21
1867.494269174607
 31
0.0
  0
LINE
  5
18D52
330
18C7A
100
AcDbEntity
  8
部品1
100
AcDbLine
 10
444.9705892765305
 20
1867.49426917448
 30
0.0
 11
416.9705892765305
 21
1867.49426917448
 31
0.0
  0
LINE
  5
18D53
330
18C7A
100
AcDbEntity
  8
部品1
100
AcDbLine
 10
3830.470589276541
 20
1867.49426917458
 30
0.0
 11
473.4705892765396
 21
1867.49426917448
 31
0.0
  0
LINE
  5
18D54
330
18C7A
100
AcDbEntity
  8
部品1
100
AcDbLine
 10
3830.470589276541
 20
2287.49426917458
 30
0.0
 11
473.4705892765396
 21
2287.49426917448
 31
0.0
  0
LINE
  5
18D55
330
18C7A
100
AcDbEntity
  8
部品1
100
AcDbLine
 10
444.9705892765305
 20
2287.49426917448
 30
0.0
 11
416.9705892765305
 21
2287.49426917448
 31
0.0
  0
LINE
  5
18D56
330
18C7A
100
AcDbEntity
  8
部品1
100
AcDbLine
 10
3858.970589276556
 20
2287.494269174608
 30
0.0
 11
3886.970589276556
 21
2287.494269174608
 31
0.0
  0
LINE
  5
18D57
330
18C7A
100
AcDbEntity
  8
部品1
 48
50.0
100
AcDbLine
 10
2151.970589276551
 20
2702.494269174586
 30
0.0
 11
2151.970589276581
 21
1448.994269174494
 31
0.0
  0
LINE
  5
18D58
330
18C7A
100
AcDbEntity
  8
破線
 48
10.0
100
AcDbLine
 10
2959.470589276535
 20
1472.494269174522
 30
0.0
 11
2176.970589276532
 21
1472.494269174505
 31
0.0
  0
LINE
  5
18D59
330
18C7A
100
AcDbEntity
  8
破線
 48
10.0
100
AcDbLine
 10
3009.47058927653
 20
1448.994269174509
 30
0.0
 11
3009.47058927653
 21
2702.494269174615
 31
0.0
  0
LINE
  5
18D5A
330
18C7A
100
AcDbEntity
  8
破線
 48
10.0
100
AcDbLine
 10
2959.470589276535
 20
1448.994269174505
 30
0.0
 11
2959.470589276531
 21
2702.494269174615
 31
0.0
  0
LINE
  5
18D5B
330
18C7A
100
AcDbEntity
  8
破線
 48
10.0
100
AcDbLine
 10
1344.47058927653
 20
1448.994269174509
 30
0.0
 11
1344.47058927653
 21
2702.494269174615
 31
0.0
  0
LINE
  5
18D5C
330
18C7A
100
AcDbEntity
  8
破線
 48
10.0
100
AcDbLine
 10
1294.470589276534
 20
1448.994269174505
 30
0.0
 11
1294.47058927653
 21
2702.494269174615
 31
0.0
  0
DIMENSION
  5
18D5D
330
18C7A
100
AcDbEntity
  8
寸法
100
AcDbDimension
  2
*D13
 10
1451.234916278005
 20
2488.887829538828
 30
0.0
 11
916.0604668248634
 21
2488.887829538828
 31
0.0
 12
-3742.925985830444
 22
-6453.628869860112
 32
0.0
 70
   128
 71
     5
 42
1062.99999999993
  3
INABA_S40G
100
AcDbAlignedDimension
 13
445.4705892765559
 23
2702.494269174505
 33
0.0
 14
1508.470589276486
 24
2702.494269174558
 34
0.0
100
AcDbRotatedDimension
1001
ACAD
1000
DSTYLE
1002
{
1002
}
  0
LINE
  5
18D5E
330
18C7A
100
AcDbEntity
  8
破線
 48
10.0
100
AcDbLine
 10
1294.470589276534
 20
1472.494269174469
 30
0.0
 11
496.9705892765414
 21
1472.494269174476
 31
0.0
  0
LINE
  5
18D5F
330
18C7A
100
AcDbEntity
  8
部品1
100
AcDbLine
 10
3831.970589276556
 20
3182.494269174604
 30
0.0
 11
3831.970589276556
 21
3154.494269174604
 31
0.0
  0
LINE
  5
18D60
330
18C7A
100
AcDbEntity
  8
部品1
100
AcDbLine
 10
3831.970589276556
 20
3182.494269174626
 30
0.0
 11
3831.970589276556
 21
3154.494269174626
 31
0.0
  0
LINE
  5
18D61
330
18C7A
100
AcDbEntity
  8
部品1
100
AcDbLine
 10
3858.970589276556
 20
3127.494269174607
 30
0.0
 11
3886.970589276556
 21
3127.494269174607
 31
0.0
  0
LINE
  5
18D62
330
18C7A
100
AcDbEntity
  8
部品1
100
AcDbLine
 10
3858.970589276556
 20
2707.494269174608
 30
0.0
 11
3886.970589276556
 21
2707.494269174608
 31
0.0
  0
LINE
  5
18D63
330
18C7A
100
AcDbEntity
  8
部品1
100
AcDbLine
 10
3858.470589276556
 20
3152.494269174604
 30
0.0
 11
3858.470589276556
 21
2702.494269174608
 31
0.0
  0
LINE
  5
18D64
330
18C7A
100
AcDbEntity
  8
部品1
100
AcDbLine
 10
3886.970589276533
 20
1447.494269174593
 30
0.0
 11
3886.970589276531
 21
1392.494269174596
 31
0.0
  0
LINE
  5
18D65
330
18C7A
100
AcDbEntity
  8
部品1
 48
50.0
100
AcDbLine
 10
3830.470589276556
 20
1448.994269174596
 30
0.0
 11
3858.970589276554
 21
1420.494269174596
 31
0.0
  0
LINE
  5
18D66
330
18C7A
100
AcDbEntity
  8
部品1
100
AcDbLine
 10
3886.970589276531
 20
1392.494269174596
 30
0.0
 11
3835.970589276531
 21
1392.494269174596
 31
0.0
  0
LINE
  5
18D67
330
18C7A
100
AcDbEntity
  8
部品1
100
AcDbLine
 10
3858.970589276533
 20
1447.494269174593
 30
0.0
 11
3886.970589276531
 21
1447.494269174593
 31
0.0
  0
LINE
  5
18D68
330
18C7A
100
AcDbEntity
  8
部品1
100
AcDbLine
 10
3886.970589276556
 20
3182.494269174604
 30
0.0
 11
3886.970589276531
 21
1392.494269174596
 31
0.0
  0
DIMENSION
  5
18D69
330
18C7A
100
AcDbEntity
  8
寸法
100
AcDbDimension
  2
*D12
 10
4534.396935010967
 20
1447.494269174593
 30
0.0
 11
4534.396935010965
 21
2287.4942691746
 31
0.0
 12
-3742.925985830444
 22
-6453.628869860112
 32
0.0
 70
   128
  1
4X420=<>
 71
     5
 42
1680.000000000014
  3
INABA_S40G
100
AcDbAlignedDimension
 13
3886.970589276556
 23
3127.494269174607
 33
0.0
 14
3886.970589276531
 24
1447.494269174593
 34
0.0
 50
90.0
100
AcDbRotatedDimension
1001
ACAD
1000
DSTYLE
1002
{
1002
}
  0
LINE
  5
18D6A
330
18C7A
100
AcDbEntity
  8
部品1
100
AcDbLine
 10
3858.970589276556
 20
3154.494269174604
 30
0.0
 11
3858.970589276534
 21
1420.494269174596
 31
0.0
  0
DIMENSION
  5
18D6B
330
18C7A
100
AcDbEntity
  8
寸法
100
AcDbDimension
  2
*D11
 10
4213.82831513858
 20
2607.276453505718
 30
0.0
 11
4113.828315138579
 21
2832.276453505718
 31
0.0
 12
-3742.925985830444
 22
-6453.628869860112
 32
0.0
 71
     5
 42
449.9999999999963
  3
INABA_S40G
100
AcDbAlignedDimension
 13
3858.470589276556
 23
3152.494269174604
 33
0.0
 14
3858.470589276556
 24
2702.494269174608
 34
0.0
 50
90.0
100
AcDbRotatedDimension
1001
ACAD
1000
DSTYLE
1002
{
1002
}
  0
LINE
  5
18D6C
330
18C7A
100
AcDbEntity
  8
部品1
100
AcDbLine
 10
3830.470589276547
 20
2702.494269174608
 30
0.0
 11
3830.470589276556
 21
1448.994269174596
 31
0.0
  0
LINE
  5
18D6D
330
18C7A
100
AcDbEntity
  8
破線
 48
10.0
100
AcDbLine
 10
3806.970589276549
 20
2702.494269174608
 30
0.0
 11
3806.970589276558
 21
1472.494269174593
 31
0.0
  0
LINE
  5
18D6E
330
18C7A
100
AcDbEntity
  8
部品1
100
AcDbLine
 10
2769.470589276556
 20
3146.494269174608
 30
0.0
 11
2794.470589276556
 21
3146.494269174611
 31
0.0
  0
LINE
  5
18D6F
330
18C7A
100
AcDbEntity
  8
部品1
100
AcDbLine
 10
2810.970589276556
 20
3172.494269174611
 30
0.0
 11
2816.970589276556
 21
3172.494269174611
 31
0.0
  0
LINE
  5
18D70
330
18C7A
100
AcDbEntity
  8
部品1
100
AcDbLine
 10
2816.970589276556
 20
3172.494269174611
 30
0.0
 11
2816.970589276556
 21
3154.494269174611
 31
0.0
  0
LINE
  5
18D71
330
18C7A
100
AcDbEntity
  8
部品1
100
AcDbLine
 10
2746.970589276556
 20
3172.494269174611
 30
0.0
 11
2752.970589276556
 21
3172.494269174611
 31
0.0
  0
LINE
  5
18D72
330
18C7A
100
AcDbEntity
  8
部品1
100
AcDbLine
 10
2746.970589276556
 20
3172.494269174611
 30
0.0
 11
2746.970589276556
 21
3154.494269174611
 31
0.0
  0
LINE
  5
18D73
330
18C7A
100
AcDbEntity
  8
部品1
100
AcDbLine
 10
2769.470589276556
 20
2702.494269174615
 30
0.0
 11
2794.470589276556
 21
2702.494269174615
 31
0.0
  0
LINE
  5
18D74
330
18C7A
100
AcDbEntity
  8
部品1
 48
50.0
100
AcDbLine
 10
2794.470589276556
 20
3154.494269174615
 30
0.0
 11
2794.470589276556
 21
2702.494269174615
 31
0.0
  0
LINE
  5
18D75
330
18C7A
100
AcDbEntity
  8
部品1
 48
50.0
100
AcDbLine
 10
2769.470589276554
 20
3154.494269174618
 30
0.0
 11
2769.470589276556
 21
2702.494269174615
 31
0.0
  0
LINE
  5
18D76
330
18C7A
100
AcDbEntity
  8
部品1
 48
50.0
100
AcDbLine
 10
2795.470589276556
 20
3152.494269174607
 30
0.0
 11
2795.470589276556
 21
2702.494269174615
 31
0.0
  0
LINE
  5
18D77
330
18C7A
100
AcDbEntity
  8
部品1
 48
50.0
100
AcDbLine
 10
2767.470589276556
 20
3152.494269174611
 30
0.0
 11
2767.470589276556
 21
2702.494269174615
 31
0.0
  0
LINE
  5
18D78
330
18C7A
100
AcDbEntity
  8
破線
 48
10.0
100
AcDbLine
 10
2176.97058927653
 20
1448.994269174509
 30
0.0
 11
2176.97058927653
 21
2702.494269174588
 31
0.0
  0
LINE
  5
18D79
330
18C7A
100
AcDbEntity
  8
破線
 48
10.0
100
AcDbLine
 10
2126.970589276534
 20
1448.994269174505
 30
0.0
 11
2126.970589276531
 21
2702.494269174586
 31
0.0
  0
LINE
  5
18D7A
330
18C7A
100
AcDbEntity
  8
部品1
100
AcDbLine
 10
2794.470589276556
 20
3154.494269174622
 30
0.0
 11
3858.970589276556
 21
3154.494269174604
 31
0.0
  0
LINE
  5
18D7B
330
18C7A
100
AcDbEntity
  8
細線
 48
50.0
100
AcDbLine
 10
3858.470589276556
 20
2702.494269174608
 30
0.0
 11
2795.470589276556
 21
3152.494269174607
 31
0.0
  0
LINE
  5
18D7C
330
18C7A
100
AcDbEntity
  8
部品1
100
AcDbLine
 10
2795.470589276555
 20
2702.494269174615
 30
0.0
 11
3858.470589276556
 21
2702.494269174608
 31
0.0
  0
LINE
  5
18D7D
330
18C7A
100
AcDbEntity
  8
部品1
100
AcDbLine
 10
2795.470589276556
 20
3152.494269174611
 30
0.0
 11
3858.470589276556
 21
3152.494269174604
 31
0.0
  0
LINE
  5
18D7E
330
18C7A
100
AcDbEntity
  8
細線
 48
50.0
100
AcDbLine
 10
3858.470589276556
 20
3152.494269174604
 30
0.0
 11
2795.470589276555
 21
2702.494269174615
 31
0.0
  0
DIMENSION
  5
18D7F
330
18C7A
100
AcDbEntity
  8
寸法
100
AcDbDimension
  2
*D10
 10
3801.234916278101
 20
2488.887829538937
 30
0.0
 11
3318.360544398907
 21
2488.887829538937
 31
0.0
 12
-3742.925985830444
 22
-6453.628869860112
 32
0.0
 70
   128
 71
     5
 42
1063.000000000012
  3
INABA_S40G
100
AcDbAlignedDimension
 13
2795.470589276555
 23
2702.494269174615
 33
0.0
 14
3858.470589276567
 24
2702.494269174608
 34
0.0
100
AcDbRotatedDimension
1001
ACAD
1000
DSTYLE
1002
{
1002
}
  0
LINE
  5
18D80
330
18C7A
100
AcDbEntity
  8
破線
 48
10.0
100
AcDbLine
 10
3806.970589276556
 20
1472.494269174594
 30
0.0
 11
3009.47058927653
 21
1472.494269174523
 31
0.0
  0
DIMENSION
  5
18D81
330
18C7A
100
AcDbEntity
  8
寸法
100
AcDbDimension
  2
*D9
 10
4534.396935010941
 20
1392.494269174596
 30
0.0
 11
4534.39693501094
 21
1084.008987800356
 31
0.0
 12
-3742.925985830444
 22
-6453.628869860112
 32
0.0
 70
   128
 71
     5
 42
54.99999999999636
  3
INABA_S40G
100
AcDbAlignedDimension
 13
3886.970589276531
 23
1447.494269174593
 33
0.0
 14
3886.970589276531
 24
1392.494269174596
 34
0.0
 50
90.0
100
AcDbRotatedDimension
1001
ACAD
1000
DSTYLE
1002
{
1002
}
  0
LINE
  5
18D82
330
18C7A
100
AcDbEntity
  8
部品1
100
AcDbLine
 10
471.9705892765196
 20
3182.494269174477
 30
0.0
 11
471.9705892765232
 21
3154.494269174477
 31
0.0
  0
LINE
  5
18D83
330
18C7A
100
AcDbEntity
  8
部品1
100
AcDbLine
 10
471.9705892765559
 20
3182.494269174509
 30
0.0
 11
471.9705892765559
 21
3154.494269174509
 31
0.0
  0
LINE
  5
18D84
330
18C7A
100
AcDbEntity
  8
部品1
100
AcDbLine
 10
444.9705892765232
 20
3127.49426917448
 30
0.0
 11
416.9705892765232
 21
3127.49426917448
 31
0.0
  0
LINE
  5
18D85
330
18C7A
100
AcDbEntity
  8
部品1
100
AcDbLine
 10
444.9705892765305
 20
2707.49426917448
 30
0.0
 11
416.9705892765305
 21
2707.49426917448
 31
0.0
  0
LINE
  5
18D86
330
18C7A
100
AcDbEntity
  8
部品1
 48
50.0
100
AcDbLine
 10
445.4705892765542
 20
3152.494269174506
 30
0.0
 11
445.4705892765559
 21
2702.494269174505
 31
0.0
  0
LINE
  5
18D87
330
18C7A
100
AcDbEntity
  8
部品1
 48
50.0
100
AcDbLine
 10
473.470589276545
 20
1448.994269174573
 30
0.0
 11
444.970589276545
 21
1420.494269174574
 31
0.0
  0
LINE
  5
18D88
330
18C7A
100
AcDbEntity
  8
部品1
100
AcDbLine
 10
471.9705892765232
 20
1392.494269174465
 30
0.0
 11
416.9705892765486
 21
1392.494269174465
 31
0.0
  0
LINE
  5
18D89
330
18C7A
100
AcDbEntity
  8
部品1
100
AcDbLine
 10
444.9705892765305
 20
1447.494269174429
 30
0.0
 11
416.9705892765469
 21
1447.494269174429
 31
0.0
  0
LINE
  5
18D8A
330
18C7A
100
AcDbEntity
  8
部品1
100
AcDbLine
 10
444.9705892765305
 20
1447.494269174465
 30
0.0
 11
416.9705892765469
 21
1447.494269174465
 31
0.0
  0
LINE
  5
18D8B
330
18C7A
100
AcDbEntity
  8
部品1
100
AcDbLine
 10
444.9705892765469
 20
1447.49426917448
 30
0.0
 11
416.9705892765469
 21
1447.49426917448
 31
0.0
  0
LINE
  5
18D8C
330
18C7A
100
AcDbEntity
  8
部品1
100
AcDbLine
 10
416.9705892765469
 20
1447.494269174429
 30
0.0
 11
416.9705892765486
 21
1392.494269174433
 31
0.0
  0
LINE
  5
18D8D
330
18C7A
100
AcDbEntity
  8
部品1
100
AcDbLine
 10
416.9705892765196
 20
3182.494269174477
 30
0.0
 11
416.9705892765486
 21
1392.494269174465
 31
0.0
  0
LINE
  5
18D8E
330
18C7A
100
AcDbEntity
  8
部品1
100
AcDbLine
 10
444.9705892765305
 20
1420.494269174556
 30
0.0
 11
444.9705892765559
 21
3154.494269174509
 31
0.0
  0
LINE
  5
18D8F
330
18C7A
100
AcDbEntity
  8
部品1
100
AcDbLine
 10
473.4705892765323
 20
2702.494269174608
 30
0.0
 11
473.470589276545
 21
1448.994269174571
 31
0.0
  0
LINE
  5
18D90
330
18C7A
100
AcDbEntity
  8
破線
 48
10.0
100
AcDbLine
 10
496.9705892765305
 20
2702.494269174608
 30
0.0
 11
496.9705892765451
 21
1472.494269174476
 31
0.0
  0
DIMENSION
  5
18D91
330
18C7A
100
AcDbEntity
  8
寸法
100
AcDbDimension
  2
*D8
 10
3886.970589276531
 20
410.7433333855515
 30
0.0
 11
2168.197775309287
 21
410.7433333855515
 31
0.0
 12
-3742.925985830444
 22
-6453.628869860112
 32
0.0
 70
   128
 71
     5
 42
3469.999999999982
  3
INABA_S40G
100
AcDbAlignedDimension
 13
416.9705892765486
 23
1392.494269174433
 33
0.0
 14
3886.970589276531
 24
1392.49426917456
 34
0.0
100
AcDbRotatedDimension
1001
ACAD
1000
DSTYLE
1002
{
1070
   341
1005
0
1002
}
  0
LINE
  5
18D92
330
18C7A
100
AcDbEntity
  8
部品1
100
AcDbLine
 10
444.9705892765559
 20
3154.494269174624
 30
0.0
 11
1509.470589276487
 21
3154.494269174626
 31
0.0
  0
LINE
  5
18D93
330
18C7A
100
AcDbEntity
  8
部品1
100
AcDbLine
 10
3886.970589276531
 20
1392.494269174596
 30
0.0
 11
3411.970589276556
 21
1392.494269174582
 31
0.0
  0
LINE
  5
18D94
330
18C7A
100
AcDbEntity
  8
部品1
100
AcDbLine
 10
416.9705892765559
 20
3182.494269174509
 30
0.0
 11
3886.970589276556
 21
3182.494269174604
 31
0.0
  0
LINE
  5
18D95
330
18C7A
100
AcDbEntity
  8
部品1
100
AcDbLine
 10
445.4705892765559
 20
2702.494269174509
 30
0.0
 11
1508.470589276487
 21
2702.494269174558
 31
0.0
  0
LINE
  5
18D96
330
18C7A
100
AcDbEntity
  8
細線
 48
50.0
100
AcDbLine
 10
2767.470589276556
 20
3152.494269174611
 30
0.0
 11
1536.470589276487
 21
2702.494269174558
 31
0.0
  0
LINE
  5
18D97
330
18C7A
100
AcDbEntity
  8
部品1
100
AcDbLine
 10
445.4705892765542
 20
3152.494269174509
 30
0.0
 11
1508.470589276485
 21
3152.494269174558
 31
0.0
  0
LINE
  5
18D98
330
18C7A
100
AcDbEntity
  8
細線
 48
50.0
100
AcDbLine
 10
2767.470589276554
 20
2702.494269174615
 30
0.0
 11
1536.470589276485
 21
3152.494269174558
 31
0.0
  0
LINE
  5
18D99
330
18C7A
100
AcDbEntity
  8
破線
 48
10.0
100
AcDbLine
 10
2126.970589276534
 20
1472.494269174502
 30
0.0
 11
1344.47058927653
 21
1472.494269174473
 31
0.0
  0
LINE
  5
18D9A
330
18C7A
100
AcDbEntity
  8
部品1
100
AcDbLine
 10
3830.470589276556
 20
1448.994269174596
 30
0.0
 11
473.4705892764487
 21
1448.994269174476
 31
0.0
  0
DIMENSION
  5
18D9B
330
18C7A
100
AcDbEntity
  8
寸法
100
AcDbDimension
  2
*D7
 10
471.970589276555
 20
3698.302488799491
 30
0.0
 11
108.4853079022819
 21
3698.302488799491
 31
0.0
 12
-3742.925985830444
 22
-6453.628869860112
 32
0.0
 70
   128
 71
     5
 42
55.00000000003456
  3
INABA_S40G
100
AcDbAlignedDimension
 13
416.9705892765205
 23
3182.494269174509
 33
0.0
 14
471.970589276555
 24
3182.494269174509
 34
0.0
100
AcDbRotatedDimension
1001
ACAD
1000
DSTYLE
1002
{
1002
}
  0
DIMENSION
  5
18D9C
330
18C7A
100
AcDbEntity
  8
寸法
100
AcDbDimension
  2
*D6
 10
4534.396935010967
 20
3127.494269174607
 30
0.0
 11
4534.396935010965
 21
3490.979550548844
 31
0.0
 12
-3742.925985830444
 22
-6453.628869860112
 32
0.0
 70
   128
 71
     5
 42
54.99999999999636
  3
INABA_S40G
100
AcDbAlignedDimension
 13
3886.970589276556
 23
3182.494269174604
 33
0.0
 14
3886.970589276556
 24
3127.494269174607
 34
0.0
 50
90.0
100
AcDbRotatedDimension
1001
ACAD
1000
DSTYLE
1002
{
1002
}
  0
DIMENSION
  5
18D9D
330
18C7A
100
AcDbEntity
  8
寸法
100
AcDbDimension
  2
*D5
 10
3886.970589276556
 20
3698.302488799589
 30
0.0
 11
4195.455870650794
 21
3698.302488799589
 31
0.0
 12
-3742.925985830444
 22
-6453.628869860112
 32
0.0
 70
   128
 71
     5
 42
55.0
  3
INABA_S40G
100
AcDbAlignedDimension
 13
3831.970589276556
 23
3182.494269174604
 33
0.0
 14
3886.970589276556
 24
3182.494269174604
 34
0.0
100
AcDbRotatedDimension
1001
ACAD
1000
DSTYLE
1002
{
1002
}
  0
DIMENSION
  5
18D9E
330
18C7A
100
AcDbEntity
  8
寸法
100
AcDbDimension
  2
*D4
 10
3831.970589276556
 20
3698.302488799607
 30
0.0
 11
2151.970589276555
 21
3698.302488799607
 31
0.0
 12
-3742.925985830444
 22
-6453.628869860112
 32
0.0
 70
   128
  1
8X420=<>
 71
     5
 42
3360.000000000001
  3
INABA_S40G
100
AcDbAlignedDimension
 13
471.970589276555
 23
3182.494269174509
 33
0.0
 14
3831.970589276556
 24
3182.494269174604
 34
0.0
100
AcDbRotatedDimension
1001
ACAD
1000
DSTYLE
1002
{
1002
}
  0
DIMENSION
  5
18D9F
330
18C7A
100
AcDbEntity
  8
寸法
100
AcDbDimension
  2
*D3
 10
4899.503876750603
 20
1392.494269174596
 30
0.0
 11
4899.503876750601
 21
2287.4942691746
 31
0.0
 12
-3742.925985830444
 22
-6453.628869860112
 32
0.0
 70
   128
 71
     5
 42
1790.000000000007
  3
INABA_S40G
100
AcDbAlignedDimension
 13
3886.970589276556
 23
3182.494269174604
 33
0.0
 14
3886.970589276531
 24
1392.494269174596
 34
0.0
 50
90.0
100
AcDbRotatedDimension
1001
ACAD
1000
DSTYLE
1002
{
1002
}
  0
ENDBLK
  5
18DA1
330
18C7A
100
AcDbEntity
  8
0
 48
50.0
100
AcDbBlockEnd
  0
BLOCK
  5
1C4CB
330
1C4CA
100
AcDbEntity
  8
0
 48
50.0
100
AcDbBlockBegin
  2
_NONE
 70
     0
 10
0.0
 20
0.0
 30
0.0
  3
_NONE
  1

  0
CIRCLE
  5
1C4CC
330
1C4CA
100
AcDbEntity
  8
0
  6
ByBlock
 62
     0
 48
50.0
100
AcDbCircle
 10
0.0
 20
0.0
 30
0.0
 40
0.25
  0
ENDBLK
  5
1C4CD
330
1C4CA
100
AcDbEntity
  8
0
 48
50.0
100
AcDbBlockEnd
  0
BLOCK
  5
1FC87
330
1FC7E
100
AcDbEntity
  8
0
 48
50.0
100
AcDbBlockBegin
  2
*D19
 70
     1
 10
0.0
 20
0.0
 30
0.0
  3
*D19
  1

  0
LINE
  5
22B43
330
1FC7E
100
AcDbEntity
  8
寸法
 62
     0
 48
50.0
370
    -2
100
AcDbLine
 10
9475.6
 20
8221.751839297878
 30
0.0
 11
9475.6
 21
9017.360655968124
 31
0.0
  0
LINE
  5
22B44
330
1FC7E
100
AcDbEntity
  8
寸法
 62
     0
 48
50.0
370
    -2
100
AcDbLine
 10
8105.6
 20
8221.751839297878
 30
0.0
 11
8105.6
 21
9017.360655968124
 31
0.0
  0
LINE
  5
22B45
330
1FC7E
100
AcDbEntity
  8
寸法
 62
     0
 48
50.0
370
    -2
100
AcDbLine
 10
9475.6
 20
8957.360655968125
 30
0.0
 11
8105.6
 21
8957.360655968125
 31
0.0
  0
INSERT
  5
22B46
330
1FC7E
100
AcDbEntity
  8
寸法
 62
     0
 48
50.0
370
    -2
100
AcDbBlockReference
  2
_DOTSMALL
 10
9475.6
 20
8957.360655968125
 30
0.0
 41
100.0
 42
100.0
 43
100.0
  0
INSERT
  5
22B47
330
1FC7E
100
AcDbEntity
  8
寸法
 62
     0
 48
50.0
370
    -2
100
AcDbBlockReference
  2
_DOTSMALL
 10
8105.6
 20
8957.360655968125
 30
0.0
 41
100.0
 42
100.0
 43
100.0
 50
180.0
  0
MTEXT
  5
22B48
330
1FC7E
100
AcDbEntity
  8
寸法
 62
     7
 48
50.0
100
AcDbMText
 10
8790.600000000001
 20
9057.360655968125
 30
0.0
 40
120.0
 41
0.0
 71
     5
 72
     1
  1
\A1;1370
  7
STYLE1
 73
     1
 44
1.0
1001
ACAD
1000
MTEXTBEGIN
1070
    73
1070
     1
1070
    44
1040
1.0
1070
    74
1070
     0
1000
MTEXTEND
  0
POINT
  5
22B49
330
1FC7E
100
AcDbEntity
  8
DEFPOINTS
 62
     0
 48
50.0
100
AcDbPoint
 10
9475.6
 20
8201.751839297878
 30
0.0
  0
POINT
  5
22B4A
330
1FC7E
100
AcDbEntity
  8
DEFPOINTS
 62
     0
 48
50.0
100
AcDbPoint
 10
8105.6
 20
8201.751839297878
 30
0.0
  0
POINT
  5
22B4B
330
1FC7E
100
AcDbEntity
  8
DEFPOINTS
 62
     0
 48
50.0
100
AcDbPoint
 10
8105.6
 20
8957.360655968125
 30
0.0
  0
ENDBLK
  5
1FC88
330
1FC7E
100
AcDbEntity
  8
0
 48
50.0
100
AcDbBlockEnd
  0
BLOCK
  5
1FC92
330
1FC89
100
AcDbEntity
  8
0
 48
50.0
100
AcDbBlockBegin
  2
*D20
 70
     1
 10
0.0
 20
0.0
 30
0.0
  3
*D20
  1

  0
LINE
  5
22B3A
330
1FC89
100
AcDbEntity
  8
寸法
 62
     0
 48
50.0
370
    -2
100
AcDbLine
 10
5478.6
 20
8294.751839297878
 30
0.0
 11
5478.6
 21
9492.972161356801
 31
0.0
  0
LINE
  5
22B3B
330
1FC89
100
AcDbEntity
  8
寸法
 62
     0
 48
50.0
370
    -2
100
AcDbLine
 10
10968.6
 20
8294.751839297878
 30
0.0
 11
10968.6
 21
9492.972161356801
 31
0.0
  0
LINE
  5
22B3C
330
1FC89
100
AcDbEntity
  8
寸法
 62
     0
 48
50.0
370
    -2
100
AcDbLine
 10
5478.6
 20
9432.972161356799
 30
0.0
 11
10968.6
 21
9432.972161356799
 31
0.0
  0
INSERT
  5
22B3D
330
1FC89
100
AcDbEntity
  8
寸法
 62
     0
 48
50.0
370
    -2
100
AcDbBlockReference
  2
_DOTSMALL
 10
5478.6
 20
9432.972161356799
 30
0.0
 41
100.0
 42
100.0
 43
100.0
 50
180.0
  0
INSERT
  5
22B3E
330
1FC89
100
AcDbEntity
  8
寸法
 62
     0
 48
50.0
370
    -2
100
AcDbBlockReference
  2
_DOTSMALL
 10
10968.6
 20
9432.972161356799
 30
0.0
 41
100.0
 42
100.0
 43
100.0
  0
MTEXT
  5
22B3F
330
1FC89
100
AcDbEntity
  8
寸法
 62
     7
 48
50.0
100
AcDbMText
 10
8223.600000000001
 20
9538.972161356801
 30
0.0
 40
120.0
 41
0.0
 71
     5
 72
     1
  1
\A1;N(連続数)x1370+10
  7
STYLE1
 73
     1
 44
1.0
1001
ACAD
1000
MTEXTBEGIN
1070
    73
1070
     1
1070
    44
1040
1.0
1070
    74
1070
     0
1000
MTEXTEND
  0
POINT
  5
22B40
330
1FC89
100
AcDbEntity
  8
DEFPOINTS
 62
     0
 48
50.0
100
AcDbPoint
 10
5478.6
 20
8274.751839297879
 30
0.0
  0
POINT
  5
22B41
330
1FC89
100
AcDbEntity
  8
DEFPOINTS
 62
     0
 48
50.0
100
AcDbPoint
 10
10968.6
 20
8274.751839297879
 30
0.0
  0
POINT
  5
22B42
330
1FC89
100
AcDbEntity
  8
DEFPOINTS
 62
     0
 48
50.0
100
AcDbPoint
 10
10968.6
 20
9432.972161356799
 30
0.0
  0
ENDBLK
  5
1FC93
330
1FC89
100
AcDbEntity
  8
0
 48
50.0
100
AcDbBlockEnd
  0
BLOCK
  5
1FC9D
330
1FC94
100
AcDbEntity
  8
0
 48
50.0
100
AcDbBlockBegin
  2
*D21
 70
     1
 10
0.0
 20
0.0
 30
0.0
  3
*D21
  1

  0
LINE
  5
22B31
330
1FC94
100
AcDbEntity
  8
寸法
 62
     0
 48
50.0
370
    -2
100
AcDbLine
 10
9593.600000000007
 20
8977.360655968125
 30
0.0
 11
9593.600000000007
 21
9261.018297391787
 31
0.0
  0
LINE
  5
22B32
330
1FC94
100
AcDbEntity
  8
寸法
 62
     0
 48
50.0
370
    -2
100
AcDbLine
 10
8223.600000000008
 20
8977.360655968125
 30
0.0
 11
8223.600000000008
 21
9261.018297391787
 31
0.0
  0
LINE
  5
22B33
330
1FC94
100
AcDbEntity
  8
寸法
 62
     0
 48
50.0
370
    -2
100
AcDbLine
 10
9593.600000000007
 20
9201.018297391788
 30
0.0
 11
8223.600000000008
 21
9201.018297391788
 31
0.0
  0
INSERT
  5
22B34
330
1FC94
100
AcDbEntity
  8
寸法
 62
     0
 48
50.0
370
    -2
100
AcDbBlockReference
  2
_DOTSMALL
 10
9593.600000000007
 20
9201.018297391788
 30
0.0
 41
100.0
 42
100.0
 43
100.0
  0
INSERT
  5
22B35
330
1FC94
100
AcDbEntity
  8
寸法
 62
     0
 48
50.0
370
    -2
100
AcDbBlockReference
  2
_DOTSMALL
 10
8223.600000000008
 20
9201.018297391788
 30
0.0
 41
100.0
 42
100.0
 43
100.0
 50
180.0
  0
MTEXT
  5
22B36
330
1FC94
100
AcDbEntity
  8
寸法
 62
     7
 48
50.0
100
AcDbMText
 10
8908.600000000008
 20
9301.018297391788
 30
0.0
 40
120.0
 41
0.0
 71
     5
 72
     1
  1
\A1;1370
  7
STYLE1
 73
     1
 44
1.0
1001
ACAD
1000
MTEXTBEGIN
1070
    73
1070
     1
1070
    44
1040
1.0
1070
    74
1070
     0
1000
MTEXTEND
  0
POINT
  5
22B37
330
1FC94
100
AcDbEntity
  8
DEFPOINTS
 62
     0
 48
50.0
100
AcDbPoint
 10
9593.600000000007
 20
8957.360655968125
 30
0.0
  0
POINT
  5
22B38
330
1FC94
100
AcDbEntity
  8
DEFPOINTS
 62
     0
 48
50.0
100
AcDbPoint
 10
8223.600000000008
 20
8957.360655968125
 30
0.0
  0
POINT
  5
22B39
330
1FC94
100
AcDbEntity
  8
DEFPOINTS
 62
     0
 48
50.0
100
AcDbPoint
 10
8223.600000000008
 20
9201.018297391788
 30
0.0
  0
ENDBLK
  5
1FC9E
330
1FC94
100
AcDbEntity
  8
0
 48
50.0
100
AcDbBlockEnd
  0
BLOCK
  5
1FCAA
330
1FC9F
100
AcDbEntity
  8
0
 48
50.0
100
AcDbBlockBegin
  2
*D22
 70
     1
 10
0.0
 20
0.0
 30
0.0
  3
*D22
  1

  0
LINE
  5
22B27
330
1FC9F
100
AcDbEntity
  8
寸法
 62
     0
 48
50.0
370
    -2
100
AcDbLine
 10
5531.600000000008
 20
5832.75183929788
 30
0.0
 11
4534.087353431281
 21
5832.75183929788
 31
0.0
  0
LINE
  5
22B28
330
1FC9F
100
AcDbEntity
  8
寸法
 62
     0
 48
50.0
370
    -2
100
AcDbLine
 10
5458.6
 20
5634.751839297879
 30
0.0
 11
4534.087353431281
 21
5634.751839297879
 31
0.0
  0
LINE
  5
22B29
330
1FC9F
100
AcDbEntity
  8
寸法
 62
     0
 48
50.0
370
    -2
100
AcDbLine
 10
4594.08735343128
 20
5832.75183929788
 30
0.0
 11
4594.08735343128
 21
5634.751839297879
 31
0.0
  0
LINE
  5
22B2A
330
1FC9F
100
AcDbEntity
  8
寸法
 62
     0
 48
50.0
370
    -2
100
AcDbLine
 10
4594.08735343128
 20
5634.751839297879
 30
0.0
 11
4594.08735343128
 21
5163.01123062563
 31
0.0
  0
INSERT
  5
22B2B
330
1FC9F
100
AcDbEntity
  8
寸法
 62
     0
 48
50.0
370
    -2
100
AcDbBlockReference
  2
_DOTSMALL
 10
4594.08735343128
 20
5832.75183929788
 30
0.0
 41
100.0
 42
100.0
 43
100.0
 50
90.0
  0
INSERT
  5
22B2C
330
1FC9F
100
AcDbEntity
  8
寸法
 62
     0
 48
50.0
370
    -2
100
AcDbBlockReference
  2
_DOTSMALL
 10
4594.08735343128
 20
5634.751839297879
 30
0.0
 41
100.0
 42
100.0
 43
100.0
 50
270.0
  0
MTEXT
  5
22B2D
330
1FC9F
100
AcDbEntity
  8
寸法
 62
     7
 48
50.0
100
AcDbMText
 10
4494.087353431279
 20
5299.220890455288
 30
0.0
 40
120.0
 41
0.0
 71
     5
 72
     1
  1
\A1;198
  7
STYLE1
 11
0.0000000000000001
 21
1.0
 31
0.0
 73
     1
 44
1.0
1001
ACAD
1000
MTEXTBEGIN
1070
    73
1070
     1
1070
    44
1040
1.0
1070
    74
1070
     0
1000
MTEXTEND
  0
POINT
  5
22B2E
330
1FC9F
100
AcDbEntity
  8
DEFPOINTS
 62
     0
 48
50.0
100
AcDbPoint
 10
5551.600000000007
 20
5832.75183929788
 30
0.0
  0
POINT
  5
22B2F
330
1FC9F
100
AcDbEntity
  8
DEFPOINTS
 62
     0
 48
50.0
100
AcDbPoint
 10
5478.6
 20
5634.751839297879
 30
0.0
  0
POINT
  5
22B30
330
1FC9F
100
AcDbEntity
  8
DEFPOINTS
 62
     0
 48
50.0
100
AcDbPoint
 10
4594.08735343128
 20
5634.751839297879
 30
0.0
  0
ENDBLK
  5
1FCAB
330
1FC9F
100
AcDbEntity
  8
0
 48
50.0
100
AcDbBlockEnd
  0
BLOCK
  5
1FD04
330
1FCFB
100
AcDbEntity
  8
0
 48
50.0
100
AcDbBlockBegin
  2
*D23
 70
     1
 10
0.0
 20
0.0
 30
0.0
  3
*D23
  1

  0
LINE
  5
22B1E
330
1FCFB
100
AcDbEntity
  8
寸法
 62
     0
 48
50.0
370
    -2
100
AcDbLine
 10
5458.6
 20
8274.751839297879
 30
0.0
 11
4282.144256711887
 21
8274.751839297879
 31
0.0
  0
LINE
  5
22B1F
330
1FCFB
100
AcDbEntity
  8
寸法
 62
     0
 48
50.0
370
    -2
100
AcDbLine
 10
5458.6
 20
5634.751839297879
 30
0.0
 11
4282.144256711886
 21
5634.751839297879
 31
0.0
  0
LINE
  5
22B20
330
1FCFB
100
AcDbEntity
  8
寸法
 62
     0
 48
50.0
370
    -2
100
AcDbLine
 10
4342.144256711886
 20
8274.751839297879
 30
0.0
 11
4342.144256711885
 21
5634.751839297879
 31
0.0
  0
INSERT
  5
22B21
330
1FCFB
100
AcDbEntity
  8
寸法
 62
     0
 48
50.0
370
    -2
100
AcDbBlockReference
  2
_DOTSMALL
 10
4342.144256711886
 20
8274.751839297879
 30
0.0
 41
100.0
 42
100.0
 43
100.0
 50
90.0
  0
INSERT
  5
22B22
330
1FCFB
100
AcDbEntity
  8
寸法
 62
     0
 48
50.0
370
    -2
100
AcDbBlockReference
  2
_DOTSMALL
 10
4342.144256711885
 20
5634.751839297879
 30
0.0
 41
100.0
 42
100.0
 43
100.0
 50
270.0
  0
MTEXT
  5
22B23
330
1FCFB
100
AcDbEntity
  8
寸法
 62
     7
 48
50.0
100
AcDbMText
 10
4242.132445688262
 20
6954.751839297879
 30
0.0
 40
120.0
 41
0.0
 71
     5
 72
     1
  1
\A1;2640
  7
STYLE1
 11
0.0000000000000001
 21
1.0
 31
0.0
 73
     1
 44
1.0
1001
ACAD
1000
MTEXTBEGIN
1070
    73
1070
     1
1070
    44
1040
1.0
1070
    74
1070
     0
1000
MTEXTEND
  0
POINT
  5
22B24
330
1FCFB
100
AcDbEntity
  8
DEFPOINTS
 62
     0
 48
50.0
100
AcDbPoint
 10
5478.6
 20
8274.751839297879
 30
0.0
  0
POINT
  5
22B25
330
1FCFB
100
AcDbEntity
  8
DEFPOINTS
 62
     0
 48
50.0
100
AcDbPoint
 10
5478.6
 20
5634.751839297879
 30
0.0
  0
POINT
  5
22B26
330
1FCFB
100
AcDbEntity
  8
DEFPOINTS
 62
     0
 48
50.0
100
AcDbPoint
 10
4342.144256711885
 20
5634.751839297879
 30
0.0
  0
ENDBLK
  5
1FD05
330
1FCFB
100
AcDbEntity
  8
0
 48
50.0
100
AcDbBlockEnd
  0
BLOCK
  5
1FD1B
330
1FD10
100
AcDbEntity
  8
0
 48
50.0
100
AcDbBlockBegin
  2
*D24
 70
     1
 10
0.0
 20
0.0
 30
0.0
  3
*D24
  1

  0
LINE
  5
22B14
330
1FD10
100
AcDbEntity
  8
寸法
 62
     0
 48
50.0
370
    -2
100
AcDbLine
 10
5458.6
 20
8274.751839297879
 30
0.0
 11
4534.087353431281
 21
8274.751839297879
 31
0.0
  0
LINE
  5
22B15
330
1FD10
100
AcDbEntity
  8
寸法
 62
     0
 48
50.0
370
    -2
100
AcDbLine
 10
5531.6
 20
8151.751839297878
 30
0.0
 11
4534.087353431281
 21
8151.751839297878
 31
0.0
  0
LINE
  5
22B16
330
1FD10
100
AcDbEntity
  8
寸法
 62
     0
 48
50.0
370
    -2
100
AcDbLine
 10
4594.08735343128
 20
8151.751839297878
 30
0.0
 11
4594.08735343128
 21
8274.751839297879
 31
0.0
  0
LINE
  5
22B17
330
1FD10
100
AcDbEntity
  8
寸法
 62
     0
 48
50.0
370
    -2
100
AcDbLine
 10
4594.08735343128
 20
8274.751839297879
 30
0.0
 11
4594.08735343128
 21
8686.343722389917
 31
0.0
  0
INSERT
  5
22B18
330
1FD10
100
AcDbEntity
  8
寸法
 62
     0
 48
50.0
370
    -2
100
AcDbBlockReference
  2
_DOTSMALL
 10
4594.08735343128
 20
8151.751839297878
 30
0.0
 41
100.0
 42
100.0
 43
100.0
 50
270.0
  0
INSERT
  5
22B19
330
1FD10
100
AcDbEntity
  8
寸法
 62
     0
 48
50.0
370
    -2
100
AcDbBlockReference
  2
_DOTSMALL
 10
4594.08735343128
 20
8274.751839297879
 30
0.0
 41
100.0
 42
100.0
 43
100.0
 50
90.0
  0
MTEXT
  5
22B1A
330
1FD10
100
AcDbEntity
  8
寸法
 62
     7
 48
50.0
100
AcDbMText
 10
4494.075542407657
 20
8547.85844101568
 30
0.0
 40
120.0
 41
0.0
 71
     5
 72
     1
  1
\A1;123
  7
STYLE1
 11
0.0000000000000001
 21
1.0
 31
0.0
 73
     1
 44
1.0
1001
ACAD
1000
MTEXTBEGIN
1070
    73
1070
     1
1070
    44
1040
1.0
1070
    74
1070
     0
1000
MTEXTEND
  0
POINT
  5
22B1B
330
1FD10
100
AcDbEntity
  8
DEFPOINTS
 62
     0
 48
50.0
100
AcDbPoint
 10
5478.6
 20
8274.751839297879
 30
0.0
  0
POINT
  5
22B1C
330
1FD10
100
AcDbEntity
  8
DEFPOINTS
 62
     0
 48
50.0
100
AcDbPoint
 10
5551.6
 20
8151.751839297878
 30
0.0
  0
POINT
  5
22B1D
330
1FD10
100
AcDbEntity
  8
DEFPOINTS
 62
     0
 48
50.0
100
AcDbPoint
 10
4594.08735343128
 20
8151.751839297878
 30
0.0
  0
ENDBLK
  5
1FD1C
330
1FD10
100
AcDbEntity
  8
0
 48
50.0
100
AcDbBlockEnd
  0
BLOCK
  5
1FD28
330
1FD1D
100
AcDbEntity
  8
0
 48
50.0
100
AcDbBlockBegin
  2
*D25
 70
     1
 10
0.0
 20
0.0
 30
0.0
  3
*D25
  1

  0
LINE
  5
22B0A
330
1FD1D
100
AcDbEntity
  8
寸法
 62
     0
 48
50.0
370
    -2
100
AcDbLine
 10
5601.600000000001
 20
8221.751839297878
 30
0.0
 11
5601.600000000001
 21
9017.360655968124
 31
0.0
  0
LINE
  5
22B0B
330
1FD1D
100
AcDbEntity
  8
寸法
 62
     0
 48
50.0
370
    -2
100
AcDbLine
 10
5478.6
 20
8294.751839297878
 30
0.0
 11
5478.6
 21
9017.360655968124
 31
0.0
  0
LINE
  5
22B0C
330
1FD1D
100
AcDbEntity
  8
寸法
 62
     0
 48
50.0
370
    -2
100
AcDbLine
 10
5601.600000000001
 20
8957.360655968125
 30
0.0
 11
5478.6
 21
8957.360655968125
 31
0.0
  0
LINE
  5
22B0D
330
1FD1D
100
AcDbEntity
  8
寸法
 62
     0
 48
50.0
370
    -2
100
AcDbLine
 10
5478.6
 20
8957.360655968125
 30
0.0
 11
5067.008116907963
 21
8957.360655968125
 31
0.0
  0
INSERT
  5
22B0E
330
1FD1D
100
AcDbEntity
  8
寸法
 62
     0
 48
50.0
370
    -2
100
AcDbBlockReference
  2
_DOTSMALL
 10
5601.600000000001
 20
8957.360655968125
 30
0.0
 41
100.0
 42
100.0
 43
100.0
  0
INSERT
  5
22B0F
330
1FD1D
100
AcDbEntity
  8
寸法
 62
     0
 48
50.0
370
    -2
100
AcDbBlockReference
  2
_DOTSMALL
 10
5478.6
 20
8957.360655968125
 30
0.0
 41
100.0
 42
100.0
 43
100.0
 50
180.0
  0
MTEXT
  5
22B10
330
1FD1D
100
AcDbEntity
  8
寸法
 62
     7
 48
50.0
100
AcDbMText
 10
5205.493398282202
 20
9057.372466991747
 30
0.0
 40
120.0
 41
0.0
 71
     5
 72
     1
  1
\A1;123
  7
STYLE1
 73
     1
 44
1.0
1001
ACAD
1000
MTEXTBEGIN
1070
    73
1070
     1
1070
    44
1040
1.0
1070
    74
1070
     0
1000
MTEXTEND
  0
POINT
  5
22B11
330
1FD1D
100
AcDbEntity
  8
DEFPOINTS
 62
     0
 48
50.0
100
AcDbPoint
 10
5601.600000000001
 20
8201.751839297878
 30
0.0
  0
POINT
  5
22B12
330
1FD1D
100
AcDbEntity
  8
DEFPOINTS
 62
     0
 48
50.0
100
AcDbPoint
 10
5478.6
 20
8274.751839297879
 30
0.0
  0
POINT
  5
22B13
330
1FD1D
100
AcDbEntity
  8
DEFPOINTS
 62
     0
 48
50.0
100
AcDbPoint
 10
5478.6
 20
8957.360655968125
 30
0.0
  0
ENDBLK
  5
1FD29
330
1FD1D
100
AcDbEntity
  8
0
 48
50.0
100
AcDbBlockEnd
  0
BLOCK
  5
1FD34
330
1FD2A
100
AcDbEntity
  8
0
 48
50.0
100
AcDbBlockBegin
  2
*D26
 70
     1
 10
0.0
 20
0.0
 30
0.0
  3
*D26
  1

  0
LINE
  5
22B01
330
1FD2A
100
AcDbEntity
  8
寸法
 62
     0
 48
50.0
370
    -2
100
AcDbLine
 10
5531.6
 20
8151.751839297878
 30
0.0
 11
4534.087353431284
 21
8151.751839297878
 31
0.0
  0
LINE
  5
22B02
330
1FD2A
100
AcDbEntity
  8
寸法
 62
     0
 48
50.0
370
    -2
100
AcDbLine
 10
5531.600000000008
 20
5832.75183929788
 30
0.0
 11
4534.087353431284
 21
5832.75183929788
 31
0.0
  0
LINE
  5
22B03
330
1FD2A
100
AcDbEntity
  8
寸法
 62
     0
 48
50.0
370
    -2
100
AcDbLine
 10
4594.087353431285
 20
8151.751839297878
 30
0.0
 11
4594.087353431284
 21
5832.75183929788
 31
0.0
  0
INSERT
  5
22B04
330
1FD2A
100
AcDbEntity
  8
寸法
 62
     0
 48
50.0
370
    -2
100
AcDbBlockReference
  2
_DOTSMALL
 10
4594.087353431285
 20
8151.751839297878
 30
0.0
 41
100.0
 42
100.0
 43
100.0
 50
90.0
  0
INSERT
  5
22B05
330
1FD2A
100
AcDbEntity
  8
寸法
 62
     0
 48
50.0
370
    -2
100
AcDbBlockReference
  2
_DOTSMALL
 10
4594.087353431284
 20
5832.75183929788
 30
0.0
 41
100.0
 42
100.0
 43
100.0
 50
270.0
  0
MTEXT
  5
22B06
330
1FD2A
100
AcDbEntity
  8
寸法
 62
     7
 48
50.0
100
AcDbMText
 10
4494.075542407661
 20
6992.25183929788
 30
0.0
 40
120.0
 41
0.0
 71
     5
 72
     1
  1
\A1;2319
  7
STYLE1
 11
0.0000000000000001
 21
1.0
 31
0.0
 73
     1
 44
1.0
1001
ACAD
1000
MTEXTBEGIN
1070
    73
1070
     1
1070
    44
1040
1.0
1070
    74
1070
     0
1000
MTEXTEND
  0
POINT
  5
22B07
330
1FD2A
100
AcDbEntity
  8
DEFPOINTS
 62
     0
 48
50.0
100
AcDbPoint
 10
5551.6
 20
8151.751839297878
 30
0.0
  0
POINT
  5
22B08
330
1FD2A
100
AcDbEntity
  8
DEFPOINTS
 62
     0
 48
50.0
100
AcDbPoint
 10
5551.600000000007
 20
5832.75183929788
 30
0.0
  0
POINT
  5
22B09
330
1FD2A
100
AcDbEntity
  8
DEFPOINTS
 62
     0
 48
50.0
100
AcDbPoint
 10
4594.087353431284
 20
5832.75183929788
 30
0.0
  0
ENDBLK
  5
1FD35
330
1FD2A
100
AcDbEntity
  8
0
 48
50.0
100
AcDbBlockEnd
  0
BLOCK
  5
1FD40
330
1FD36
100
AcDbEntity
  8
0
 48
50.0
100
AcDbBlockBegin
  2
*D27
 70
     1
 10
0.0
 20
0.0
 30
0.0
  3
*D27
  1

  0
LINE
  5
22AF8
330
1FD36
100
AcDbEntity
  8
寸法
 62
     0
 48
50.0
370
    -2
100
AcDbLine
 10
6853.600000000007
 20
8977.360655968125
 30
0.0
 11
6853.600000000007
 21
9261.018297391787
 31
0.0
  0
LINE
  5
22AF9
330
1FD36
100
AcDbEntity
  8
寸法
 62
     0
 48
50.0
370
    -2
100
AcDbLine
 10
5478.6
 20
8294.751839297878
 30
0.0
 11
5478.6
 21
9261.018297391787
 31
0.0
  0
LINE
  5
22AFA
330
1FD36
100
AcDbEntity
  8
寸法
 62
     0
 48
50.0
370
    -2
100
AcDbLine
 10
6853.600000000007
 20
9201.018297391788
 30
0.0
 11
5478.6
 21
9201.018297391788
 31
0.0
  0
INSERT
  5
22AFB
330
1FD36
100
AcDbEntity
  8
寸法
 62
     0
 48
50.0
370
    -2
100
AcDbBlockReference
  2
_DOTSMALL
 10
6853.600000000007
 20
9201.018297391788
 30
0.0
 41
100.0
 42
100.0
 43
100.0
  0
INSERT
  5
22AFC
330
1FD36
100
AcDbEntity
  8
寸法
 62
     0
 48
50.0
370
    -2
100
AcDbBlockReference
  2
_DOTSMALL
 10
5478.6
 20
9201.018297391788
 30
0.0
 41
100.0
 42
100.0
 43
100.0
 50
180.0
  0
MTEXT
  5
22AFD
330
1FD36
100
AcDbEntity
  8
寸法
 62
     7
 48
50.0
100
AcDbMText
 10
6166.100000000004
 20
9301.018297391788
 30
0.0
 40
120.0
 41
0.0
 71
     5
 72
     1
  1
\A1;1375
  7
STYLE1
 73
     1
 44
1.0
1001
ACAD
1000
MTEXTBEGIN
1070
    73
1070
     1
1070
    44
1040
1.0
1070
    74
1070
     0
1000
MTEXTEND
  0
POINT
  5
22AFE
330
1FD36
100
AcDbEntity
  8
DEFPOINTS
 62
     0
 48
50.0
100
AcDbPoint
 10
6853.600000000007
 20
8957.360655968125
 30
0.0
  0
POINT
  5
22AFF
330
1FD36
100
AcDbEntity
  8
DEFPOINTS
 62
     0
 48
50.0
100
AcDbPoint
 10
5478.6
 20
8274.751839297879
 30
0.0
  0
POINT
  5
22B00
330
1FD36
100
AcDbEntity
  8
DEFPOINTS
 62
     0
 48
50.0
100
AcDbPoint
 10
5478.6
 20
9201.018297391788
 30
0.0
  0
ENDBLK
  5
1FD41
330
1FD36
100
AcDbEntity
  8
0
 48
50.0
100
AcDbBlockEnd
  0
BLOCK
  5
1FD89
330
1FD7F
100
AcDbEntity
  8
0
 48
50.0
100
AcDbBlockBegin
  2
*D28
 70
     1
 10
0.0
 20
0.0
 30
0.0
  3
*D28
  1

  0
LINE
  5
22AEF
330
1FD7F
100
AcDbEntity
  8
寸法
 62
     0
 48
50.0
370
    -2
100
AcDbLine
 10
6735.600000000001
 20
8221.751839297878
 30
0.0
 11
6735.600000000001
 21
9017.360655968124
 31
0.0
  0
LINE
  5
22AF0
330
1FD7F
100
AcDbEntity
  8
寸法
 62
     0
 48
50.0
370
    -2
100
AcDbLine
 10
5601.600000000001
 20
8221.751839297878
 30
0.0
 11
5601.600000000001
 21
9017.360655968124
 31
0.0
  0
LINE
  5
22AF1
330
1FD7F
100
AcDbEntity
  8
寸法
 62
     0
 48
50.0
370
    -2
100
AcDbLine
 10
6735.600000000001
 20
8957.360655968125
 30
0.0
 11
5601.600000000001
 21
8957.360655968125
 31
0.0
  0
INSERT
  5
22AF2
330
1FD7F
100
AcDbEntity
  8
寸法
 62
     0
 48
50.0
370
    -2
100
AcDbBlockReference
  2
_DOTSMALL
 10
6735.600000000001
 20
8957.360655968125
 30
0.0
 41
100.0
 42
100.0
 43
100.0
  0
INSERT
  5
22AF3
330
1FD7F
100
AcDbEntity
  8
寸法
 62
     0
 48
50.0
370
    -2
100
AcDbBlockReference
  2
_DOTSMALL
 10
5601.600000000001
 20
8957.360655968125
 30
0.0
 41
100.0
 42
100.0
 43
100.0
 50
180.0
  0
MTEXT
  5
22AF4
330
1FD7F
100
AcDbEntity
  8
寸法
 62
     7
 48
50.0
100
AcDbMText
 10
6168.600000000001
 20
9057.360655968125
 30
0.0
 40
120.0
 41
0.0
 71
     5
 72
     1
  1
\A1;1134
  7
STYLE1
 73
     1
 44
1.0
1001
ACAD
1000
MTEXTBEGIN
1070
    73
1070
     1
1070
    44
1040
1.0
1070
    74
1070
     0
1000
MTEXTEND
  0
POINT
  5
22AF5
330
1FD7F
100
AcDbEntity
  8
DEFPOINTS
 62
     0
 48
50.0
100
AcDbPoint
 10
6735.600000000001
 20
8201.751839297878
 30
0.0
  0
POINT
  5
22AF6
330
1FD7F
100
AcDbEntity
  8
DEFPOINTS
 62
     0
 48
50.0
100
AcDbPoint
 10
5601.600000000001
 20
8201.751839297878
 30
0.0
  0
POINT
  5
22AF7
330
1FD7F
100
AcDbEntity
  8
DEFPOINTS
 62
     0
 48
50.0
100
AcDbPoint
 10
5601.600000000001
 20
8957.360655968125
 30
0.0
  0
ENDBLK
  5
1FD8A
330
1FD7F
100
AcDbEntity
  8
0
 48
50.0
100
AcDbBlockEnd
  0
BLOCK
  5
1FDA1
330
1FD96
100
AcDbEntity
  8
0
 48
50.0
100
AcDbBlockBegin
  2
*D29
 70
     1
 10
0.0
 20
0.0
 30
0.0
  3
*D29
  1

  0
LINE
  5
22AE5
330
1FD96
100
AcDbEntity
  8
寸法
 62
     0
 48
50.0
370
    -2
100
AcDbLine
 10
9110.851516111312
 20
5914.751839297895
 30
0.0
 11
9255.649102633087
 21
5914.751839297895
 31
0.0
  0
LINE
  5
22AE6
330
1FD96
100
AcDbEntity
  8
寸法
 62
     0
 48
50.0
370
    -2
100
AcDbLine
 10
9110.851516111312
 20
5634.751839297894
 30
0.0
 11
9255.649102633087
 21
5634.751839297894
 31
0.0
  0
LINE
  5
22AE7
330
1FD96
100
AcDbEntity
  8
寸法
 62
     0
 48
50.0
370
    -2
100
AcDbLine
 10
9195.649102633089
 20
5914.751839297895
 30
0.0
 11
9195.649102633089
 21
5634.751839297894
 31
0.0
  0
LINE
  5
22AE8
330
1FD96
100
AcDbEntity
  8
寸法
 62
     0
 48
50.0
370
    -2
100
AcDbLine
 10
9195.649102633089
 20
5634.751839297894
 30
0.0
 11
9195.649102633089
 21
5198.217390478994
 31
0.0
  0
INSERT
  5
22AE9
330
1FD96
100
AcDbEntity
  8
寸法
 62
     0
 48
50.0
370
    -2
100
AcDbBlockReference
  2
_DOTSMALL
 10
9195.649102633089
 20
5914.751839297895
 30
0.0
 41
100.0
 42
100.0
 43
100.0
 50
90.0
  0
INSERT
  5
22AEA
330
1FD96
100
AcDbEntity
  8
寸法
 62
     0
 48
50.0
370
    -2
100
AcDbBlockReference
  2
_DOTSMALL
 10
9195.649102633089
 20
5634.751839297894
 30
0.0
 41
100.0
 42
100.0
 43
100.0
 50
270.0
  0
MTEXT
  5
22AEB
330
1FD96
100
AcDbEntity
  8
寸法
 62
     7
 48
50.0
100
AcDbMText
 10
9095.637291609465
 20
5347.788256620727
 30
0.0
 40
120.0
 41
0.0
 71
     5
 72
     1
  1
\A1;280
  7
STYLE1
 11
0.0000000000000001
 21
1.0
 31
0.0
 73
     1
 44
1.0
1001
ACAD
1000
MTEXTBEGIN
1070
    73
1070
     1
1070
    44
1040
1.0
1070
    74
1070
     0
1000
MTEXTEND
  0
POINT
  5
22AEC
330
1FD96
100
AcDbEntity
  8
DEFPOINTS
 62
     0
 48
50.0
100
AcDbPoint
 10
9090.851516111312
 20
5914.751839297895
 30
0.0
  0
POINT
  5
22AED
330
1FD96
100
AcDbEntity
  8
DEFPOINTS
 62
     0
 48
50.0
100
AcDbPoint
 10
9090.851516111312
 20
5634.751839297894
 30
0.0
  0
POINT
  5
22AEE
330
1FD96
100
AcDbEntity
  8
DEFPOINTS
 62
     0
 48
50.0
100
AcDbPoint
 10
9195.649102633089
 20
5634.751839297894
 30
0.0
  0
ENDBLK
  5
1FDA2
330
1FD96
100
AcDbEntity
  8
0
 48
50.0
100
AcDbBlockEnd
  0
BLOCK
  5
1FDF3
330
1FDE9
100
AcDbEntity
  8
0
 48
50.0
100
AcDbBlockBegin
  2
*D30
 70
     1
 10
0.0
 20
0.0
 30
0.0
  3
*D30
  1

  0
LINE
  5
22ADC
330
1FDE9
100
AcDbEntity
  8
寸法
 62
     0
 48
50.0
370
    -2
100
AcDbLine
 10
10968.6
 20
8294.751839297878
 30
0.0
 11
10968.6
 21
9261.018297391787
 31
0.0
  0
LINE
  5
22ADD
330
1FDE9
100
AcDbEntity
  8
寸法
 62
     0
 48
50.0
370
    -2
100
AcDbLine
 10
9593.600000000007
 20
8977.360655968125
 30
0.0
 11
9593.600000000007
 21
9261.018297391787
 31
0.0
  0
LINE
  5
22ADE
330
1FDE9
100
AcDbEntity
  8
寸法
 62
     0
 48
50.0
370
    -2
100
AcDbLine
 10
10968.6
 20
9201.018297391788
 30
0.0
 11
9593.600000000007
 21
9201.018297391788
 31
0.0
  0
INSERT
  5
22ADF
330
1FDE9
100
AcDbEntity
  8
寸法
 62
     0
 48
50.0
370
    -2
100
AcDbBlockReference
  2
_DOTSMALL
 10
10968.6
 20
9201.018297391788
 30
0.0
 41
100.0
 42
100.0
 43
100.0
  0
INSERT
  5
22AE0
330
1FDE9
100
AcDbEntity
  8
寸法
 62
     0
 48
50.0
370
    -2
100
AcDbBlockReference
  2
_DOTSMALL
 10
9593.600000000007
 20
9201.018297391788
 30
0.0
 41
100.0
 42
100.0
 43
100.0
 50
180.0
  0
MTEXT
  5
22AE1
330
1FDE9
100
AcDbEntity
  8
寸法
 62
     7
 48
50.0
100
AcDbMText
 10
10346.02212135149
 20
9301.018297391788
 30
0.0
 40
120.0
 41
0.0
 71
     5
 72
     1
  1
\A1;1375
  7
STYLE1
 73
     1
 44
1.0
1001
ACAD
1000
MTEXTBEGIN
1070
    73
1070
     1
1070
    44
1040
1.0
1070
    74
1070
     0
1000
MTEXTEND
  0
POINT
  5
22AE2
330
1FDE9
100
AcDbEntity
  8
DEFPOINTS
 62
     0
 48
50.0
100
AcDbPoint
 10
10968.6
 20
8274.751839297879
 30
0.0
  0
POINT
  5
22AE3
330
1FDE9
100
AcDbEntity
  8
DEFPOINTS
 62
     0
 48
50.0
100
AcDbPoint
 10
9593.600000000007
 20
8957.360655968125
 30
0.0
  0
POINT
  5
22AE4
330
1FDE9
100
AcDbEntity
  8
DEFPOINTS
 62
     0
 48
50.0
100
AcDbPoint
 10
9593.600000000007
 20
9201.018297391788
 30
0.0
  0
ENDBLK
  5
1FDF4
330
1FDE9
100
AcDbEntity
  8
0
 48
50.0
100
AcDbBlockEnd
  0
BLOCK
  5
1FDFE
330
1FDF5
100
AcDbEntity
  8
0
 48
50.0
100
AcDbBlockBegin
  2
*D31
 70
     1
 10
0.0
 20
0.0
 30
0.0
  3
*D31
  1

  0
LINE
  5
22AD3
330
1FDF5
100
AcDbEntity
  8
寸法
 62
     0
 48
50.0
370
    -2
100
AcDbLine
 10
10845.6
 20
8221.751839297878
 30
0.0
 11
10845.6
 21
9017.360655968124
 31
0.0
  0
LINE
  5
22AD4
330
1FDF5
100
AcDbEntity
  8
寸法
 62
     0
 48
50.0
370
    -2
100
AcDbLine
 10
9475.6
 20
8221.751839297878
 30
0.0
 11
9475.6
 21
9017.360655968124
 31
0.0
  0
LINE
  5
22AD5
330
1FDF5
100
AcDbEntity
  8
寸法
 62
     0
 48
50.0
370
    -2
100
AcDbLine
 10
10845.6
 20
8957.360655968125
 30
0.0
 11
9475.6
 21
8957.360655968125
 31
0.0
  0
INSERT
  5
22AD6
330
1FDF5
100
AcDbEntity
  8
寸法
 62
     0
 48
50.0
370
    -2
100
AcDbBlockReference
  2
_DOTSMALL
 10
10845.6
 20
8957.360655968125
 30
0.0
 41
100.0
 42
100.0
 43
100.0
  0
INSERT
  5
22AD7
330
1FDF5
100
AcDbEntity
  8
寸法
 62
     0
 48
50.0
370
    -2
100
AcDbBlockReference
  2
_DOTSMALL
 10
9475.6
 20
8957.360655968125
 30
0.0
 41
100.0
 42
100.0
 43
100.0
 50
180.0
  0
MTEXT
  5
22AD8
330
1FDF5
100
AcDbEntity
  8
寸法
 62
     7
 48
50.0
100
AcDbMText
 10
10160.6
 20
9057.360655968125
 30
0.0
 40
120.0
 41
0.0
 71
     5
 72
     1
  1
\A1;1370
  7
STYLE1
 73
     1
 44
1.0
1001
ACAD
1000
MTEXTBEGIN
1070
    73
1070
     1
1070
    44
1040
1.0
1070
    74
1070
     0
1000
MTEXTEND
  0
POINT
  5
22AD9
330
1FDF5
100
AcDbEntity
  8
DEFPOINTS
 62
     0
 48
50.0
100
AcDbPoint
 10
10845.6
 20
8201.751839297878
 30
0.0
  0
POINT
  5
22ADA
330
1FDF5
100
AcDbEntity
  8
DEFPOINTS
 62
     0
 48
50.0
100
AcDbPoint
 10
9475.6
 20
8201.751839297878
 30
0.0
  0
POINT
  5
22ADB
330
1FDF5
100
AcDbEntity
  8
DEFPOINTS
 62
     0
 48
50.0
100
AcDbPoint
 10
9475.6
 20
8957.360655968125
 30
0.0
  0
ENDBLK
  5
1FDFF
330
1FDF5
100
AcDbEntity
  8
0
 48
50.0
100
AcDbBlockEnd
  0
BLOCK
  5
1FE09
330
1FE00
100
AcDbEntity
  8
0
 48
50.0
100
AcDbBlockBegin
  2
*D32
 70
     1
 10
0.0
 20
0.0
 30
0.0
  3
*D32
  1

  0
LINE
  5
22F23
330
1FE00
100
AcDbEntity
  8
寸法
 62
     0
 48
50.0
370
    -2
100
AcDbLine
 10
7658.600000000008
 20
7393.75183929789
 30
0.0
 11
7960.202738780326
 21
7393.75183929789
 31
0.0
  0
LINE
  5
22F24
330
1FE00
100
AcDbEntity
  8
寸法
 62
     0
 48
50.0
370
    -2
100
AcDbLine
 10
7658.599999999999
 20
8274.751839297879
 30
0.0
 11
7960.202738780326
 21
8274.751839297879
 31
0.0
  0
LINE
  5
22F25
330
1FE00
100
AcDbEntity
  8
寸法
 62
     0
 48
50.0
370
    -2
100
AcDbLine
 10
7900.202738780326
 20
7393.75183929789
 30
0.0
 11
7900.202738780326
 21
8274.751839297879
 31
0.0
  0
INSERT
  5
22F26
330
1FE00
100
AcDbEntity
  8
寸法
 62
     0
 48
50.0
370
    -2
100
AcDbBlockReference
  2
_DOTSMALL
 10
7900.202738780326
 20
7393.75183929789
 30
0.0
 41
100.0
 42
100.0
 43
100.0
 50
270.0
  0
INSERT
  5
22F27
330
1FE00
100
AcDbEntity
  8
寸法
 62
     0
 48
50.0
370
    -2
100
AcDbBlockReference
  2
_DOTSMALL
 10
7900.202738780326
 20
8274.751839297879
 30
0.0
 41
100.0
 42
100.0
 43
100.0
 50
90.0
  0
MTEXT
  5
22F28
330
1FE00
100
AcDbEntity
  8
寸法
 62
     7
 48
50.0
100
AcDbMText
 10
7800.202738780325
 20
7834.251839297884
 30
0.0
 40
120.0
 41
0.0
 71
     5
 72
     1
  1
\A1;881
  7
STYLE1
 11
0.0000000000000001
 21
1.0
 31
0.0
 73
     1
 44
1.0
1001
ACAD
1000
MTEXTBEGIN
1070
    73
1070
     1
1070
    44
1040
1.0
1070
    74
1070
     0
1000
MTEXTEND
  0
POINT
  5
22F29
330
1FE00
100
AcDbEntity
  8
DEFPOINTS
 62
     0
 48
50.0
100
AcDbPoint
 10
7638.600000000008
 20
7393.75183929789
 30
0.0
  0
POINT
  5
22F2A
330
1FE00
100
AcDbEntity
  8
DEFPOINTS
 62
     0
 48
50.0
100
AcDbPoint
 10
7638.600000000001
 20
8274.751839297879
 30
0.0
  0
POINT
  5
22F2B
330
1FE00
100
AcDbEntity
  8
DEFPOINTS
 62
     0
 48
50.0
100
AcDbPoint
 10
7900.202738780326
 20
8274.751839297879
 30
0.0
  0
ENDBLK
  5
1FE0A
330
1FE00
100
AcDbEntity
  8
0
 48
50.0
100
AcDbBlockEnd
  0
BLOCK
  5
1FE15
330
1FE0B
100
AcDbEntity
  8
0
 48
50.0
100
AcDbBlockBegin
  2
*D33
 70
     1
 10
0.0
 20
0.0
 30
0.0
  3
*D33
  1

  0
LINE
  5
22F62
330
1FE0B
100
AcDbEntity
  8
寸法
 62
     0
 48
50.0
370
    -2
100
AcDbLine
 10
7658.600000000017
 20
5634.751839297887
 30
0.0
 11
7960.202738780328
 21
5634.751839297887
 31
0.0
  0
LINE
  5
22F63
330
1FE0B
100
AcDbEntity
  8
寸法
 62
     0
 48
50.0
370
    -2
100
AcDbLine
 10
7658.600000000008
 20
6589.751839297889
 30
0.0
 11
7960.202738780329
 21
6589.751839297889
 31
0.0
  0
LINE
  5
22F64
330
1FE0B
100
AcDbEntity
  8
寸法
 62
     0
 48
50.0
370
    -2
100
AcDbLine
 10
7900.202738780328
 20
5634.751839297887
 30
0.0
 11
7900.202738780328
 21
6589.751839297889
 31
0.0
  0
INSERT
  5
22F65
330
1FE0B
100
AcDbEntity
  8
寸法
 62
     0
 48
50.0
370
    -2
100
AcDbBlockReference
  2
_DOTSMALL
 10
7900.202738780328
 20
5634.751839297887
 30
0.0
 41
100.0
 42
100.0
 43
100.0
 50
270.0
  0
INSERT
  5
22F66
330
1FE0B
100
AcDbEntity
  8
寸法
 62
     0
 48
50.0
370
    -2
100
AcDbBlockReference
  2
_DOTSMALL
 10
7900.202738780328
 20
6589.751839297889
 30
0.0
 41
100.0
 42
100.0
 43
100.0
 50
90.0
  0
MTEXT
  5
22F67
330
1FE0B
100
AcDbEntity
  8
寸法
 62
     7
 48
50.0
100
AcDbMText
 10
7800.202738780327
 20
6208.251839297884
 30
0.0
 40
120.0
 41
0.0
 71
     5
 72
     1
  1
\A1;955
  7
STYLE1
 11
0.0000000000000001
 21
1.0
 31
0.0
 73
     1
 44
1.0
1001
ACAD
1000
MTEXTBEGIN
1070
    73
1070
     1
1070
    44
1040
1.0
1070
    74
1070
     0
1000
MTEXTEND
  0
POINT
  5
22F68
330
1FE0B
100
AcDbEntity
  8
DEFPOINTS
 62
     0
 48
50.0
100
AcDbPoint
 10
7638.600000000017
 20
5634.751839297887
 30
0.0
  0
POINT
  5
22F69
330
1FE0B
100
AcDbEntity
  8
DEFPOINTS
 62
     0
 48
50.0
100
AcDbPoint
 10
7638.600000000008
 20
6589.751839297889
 30
0.0
  0
POINT
  5
22F6A
330
1FE0B
100
AcDbEntity
  8
DEFPOINTS
 62
     0
 48
50.0
100
AcDbPoint
 10
7900.202738780328
 20
6589.751839297889
 30
0.0
  0
ENDBLK
  5
1FE16
330
1FE0B
100
AcDbEntity
  8
0
 48
50.0
100
AcDbBlockEnd
  0
BLOCK
  5
1FE22
330
1FE17
100
AcDbEntity
  8
0
 48
50.0
100
AcDbBlockBegin
  2
*D34
 70
     1
 10
0.0
 20
0.0
 30
0.0
  3
*D34
  1

  0
LINE
  5
22AB7
330
1FE17
100
AcDbEntity
  8
寸法
 62
     0
 48
50.0
370
    -2
100
AcDbLine
 10
9283.779728401338
 20
8274.751839297879
 30
0.0
 11
9135.64910263309
 21
8274.751839297879
 31
0.0
  0
LINE
  5
22AB8
330
1FE17
100
AcDbEntity
  8
寸法
 62
     0
 48
50.0
370
    -2
100
AcDbLine
 10
9325.600000000006
 20
8074.751839297837
 30
0.0
 11
9135.64910263309
 21
8074.751839297837
 31
0.0
  0
LINE
  5
22AB9
330
1FE17
100
AcDbEntity
  8
寸法
 62
     0
 48
50.0
370
    -2
100
AcDbLine
 10
9195.649102633089
 20
8074.751839297837
 30
0.0
 11
9195.649102633089
 21
8274.751839297879
 31
0.0
  0
LINE
  5
22ABA
330
1FE17
100
AcDbEntity
  8
寸法
 62
     0
 48
50.0
370
    -2
100
AcDbLine
 10
9195.649102633089
 20
8274.751839297879
 30
0.0
 11
9195.649102633089
 21
8711.286288116774
 31
0.0
  0
INSERT
  5
22ABB
330
1FE17
100
AcDbEntity
  8
寸法
 62
     0
 48
50.0
370
    -2
100
AcDbBlockReference
  2
_DOTSMALL
 10
9195.649102633089
 20
8074.751839297837
 30
0.0
 41
100.0
 42
100.0
 43
100.0
 50
270.0
  0
INSERT
  5
22ABC
330
1FE17
100
AcDbEntity
  8
寸法
 62
     0
 48
50.0
370
    -2
100
AcDbBlockReference
  2
_DOTSMALL
 10
9195.649102633089
 20
8274.751839297879
 30
0.0
 41
100.0
 42
100.0
 43
100.0
 50
90.0
  0
MTEXT
  5
22ABD
330
1FE17
100
AcDbEntity
  8
寸法
 62
     7
 48
50.0
100
AcDbMText
 10
9095.637291609467
 20
8561.715421975044
 30
0.0
 40
120.0
 41
0.0
 71
     5
 72
     1
  1
\A1;200
  7
STYLE1
 11
0.0000000000000001
 21
1.0
 31
0.0
 73
     1
 44
1.0
1001
ACAD
1000
MTEXTBEGIN
1070
    73
1070
     1
1070
    44
1040
1.0
1070
    74
1070
     0
1000
MTEXTEND
  0
POINT
  5
22ABE
330
1FE17
100
AcDbEntity
  8
DEFPOINTS
 62
     0
 48
50.0
100
AcDbPoint
 10
9303.779728401337
 20
8274.751839297879
 30
0.0
  0
POINT
  5
22ABF
330
1FE17
100
AcDbEntity
  8
DEFPOINTS
 62
     0
 48
50.0
100
AcDbPoint
 10
9345.600000000008
 20
8074.751839297837
 30
0.0
  0
POINT
  5
22AC0
330
1FE17
100
AcDbEntity
  8
DEFPOINTS
 62
     0
 48
50.0
100
AcDbPoint
 10
9195.649102633089
 20
8074.751839297837
 30
0.0
  0
ENDBLK
  5
1FE23
330
1FE17
100
AcDbEntity
  8
0
 48
50.0
100
AcDbBlockEnd
  0
BLOCK
  5
1FE2F
330
1FE24
100
AcDbEntity
  8
0
 48
50.0
100
AcDbBlockBegin
  2
*D35
 70
     1
 10
0.0
 20
0.0
 30
0.0
  3
*D35
  1

  0
LINE
  5
22FA8
330
1FE24
100
AcDbEntity
  8
寸法
 62
     0
 48
50.0
370
    -2
100
AcDbLine
 10
10968.6
 20
7219.78273679203
 30
0.0
 11
10968.6
 21
7392.074069291648
 31
0.0
  0
LINE
  5
22FA9
330
1FE24
100
AcDbEntity
  8
寸法
 62
     0
 48
50.0
370
    -2
100
AcDbLine
 10
10848.6
 20
7219.78273679203
 30
0.0
 11
10848.6
 21
7392.074069291648
 31
0.0
  0
LINE
  5
22FAA
330
1FE24
100
AcDbEntity
  8
寸法
 62
     0
 48
50.0
370
    -2
100
AcDbLine
 10
10848.6
 20
7332.074069291649
 30
0.0
 11
10968.6
 21
7332.074069291649
 31
0.0
  0
LINE
  5
22FAB
330
1FE24
100
AcDbEntity
  8
寸法
 62
     0
 48
50.0
370
    -2
100
AcDbLine
 10
10968.6
 20
7332.074069291649
 30
0.0
 11
11374.7062992126
 21
7332.074069291649
 31
0.0
  0
INSERT
  5
22FAC
330
1FE24
100
AcDbEntity
  8
寸法
 62
     0
 48
50.0
370
    -2
100
AcDbBlockReference
  2
_DOTSMALL
 10
10848.6
 20
7332.074069291649
 30
0.0
 41
100.0
 42
100.0
 43
100.0
 50
180.0
  0
INSERT
  5
22FAD
330
1FE24
100
AcDbEntity
  8
寸法
 62
     0
 48
50.0
370
    -2
100
AcDbBlockReference
  2
_DOTSMALL
 10
10968.6
 20
7332.074069291649
 30
0.0
 41
100.0
 42
100.0
 43
100.0
  0
MTEXT
  5
22FAE
330
1FE24
100
AcDbEntity
  8
寸法
 62
     7
 48
50.0
100
AcDbMText
 10
11238.65905511811
 20
7432.08588031527
 30
0.0
 40
120.0
 41
0.0
 71
     5
 72
     1
  1
\A1;120
  7
STYLE1
 73
     1
 44
1.0
1001
ACAD
1000
MTEXTBEGIN
1070
    73
1070
     1
1070
    44
1040
1.0
1070
    74
1070
     0
1000
MTEXTEND
  0
POINT
  5
22FAF
330
1FE24
100
AcDbEntity
  8
DEFPOINTS
 62
     0
 48
50.0
100
AcDbPoint
 10
10968.6
 20
7199.782736792029
 30
0.0
  0
POINT
  5
22FB0
330
1FE24
100
AcDbEntity
  8
DEFPOINTS
 62
     0
 48
50.0
100
AcDbPoint
 10
10848.6
 20
7199.782736792029
 30
0.0
  0
POINT
  5
22FB1
330
1FE24
100
AcDbEntity
  8
DEFPOINTS
 62
     0
 48
50.0
100
AcDbPoint
 10
10848.6
 20
7332.074069291649
 30
0.0
  0
ENDBLK
  5
1FE30
330
1FE24
100
AcDbEntity
  8
0
 48
50.0
100
AcDbBlockEnd
  0
BLOCK
  5
1FE3C
330
1FE31
100
AcDbEntity
  8
0
 48
50.0
100
AcDbBlockBegin
  2
*D36
 70
     1
 10
0.0
 20
0.0
 30
0.0
  3
*D36
  1

  0
LINE
  5
22AA3
330
1FE31
100
AcDbEntity
  8
寸法
 62
     0
 48
50.0
370
    -2
100
AcDbLine
 10
10968.6
 20
8294.751839297878
 30
0.0
 11
10968.6
 21
9017.360655968124
 31
0.0
  0
LINE
  5
22AA4
330
1FE31
100
AcDbEntity
  8
寸法
 62
     0
 48
50.0
370
    -2
100
AcDbLine
 10
10845.6
 20
8221.751839297878
 30
0.0
 11
10845.6
 21
9017.360655968124
 31
0.0
  0
LINE
  5
22AA5
330
1FE31
100
AcDbEntity
  8
寸法
 62
     0
 48
50.0
370
    -2
100
AcDbLine
 10
10845.6
 20
8957.360655968125
 30
0.0
 11
10968.6
 21
8957.360655968125
 31
0.0
  0
LINE
  5
22AA6
330
1FE31
100
AcDbEntity
  8
寸法
 62
     0
 48
50.0
370
    -2
100
AcDbLine
 10
10968.6
 20
8957.360655968125
 30
0.0
 11
11380.19188309203
 21
8957.360655968125
 31
0.0
  0
INSERT
  5
22AA7
330
1FE31
100
AcDbEntity
  8
寸法
 62
     0
 48
50.0
370
    -2
100
AcDbBlockReference
  2
_DOTSMALL
 10
10845.6
 20
8957.360655968125
 30
0.0
 41
100.0
 42
100.0
 43
100.0
 50
180.0
  0
INSERT
  5
22AA8
330
1FE31
100
AcDbEntity
  8
寸法
 62
     0
 48
50.0
370
    -2
100
AcDbBlockReference
  2
_DOTSMALL
 10
10968.6
 20
8957.360655968125
 30
0.0
 41
100.0
 42
100.0
 43
100.0
  0
MTEXT
  5
22AA9
330
1FE31
100
AcDbEntity
  8
寸法
 62
     7
 48
50.0
100
AcDbMText
 10
11241.7066017178
 20
9057.372466991747
 30
0.0
 40
120.0
 41
0.0
 71
     5
 72
     1
  1
\A1;123
  7
STYLE1
 73
     1
 44
1.0
1001
ACAD
1000
MTEXTBEGIN
1070
    73
1070
     1
1070
    44
1040
1.0
1070
    74
1070
     0
1000
MTEXTEND
  0
POINT
  5
22AAA
330
1FE31
100
AcDbEntity
  8
DEFPOINTS
 62
     0
 48
50.0
100
AcDbPoint
 10
10968.6
 20
8274.751839297879
 30
0.0
  0
POINT
  5
22AAB
330
1FE31
100
AcDbEntity
  8
DEFPOINTS
 62
     0
 48
50.0
100
AcDbPoint
 10
10845.6
 20
8201.751839297878
 30
0.0
  0
POINT
  5
22AAC
330
1FE31
100
AcDbEntity
  8
DEFPOINTS
 62
     0
 48
50.0
100
AcDbPoint
 10
10845.6
 20
8957.360655968125
 30
0.0
  0
ENDBLK
  5
1FE3D
330
1FE31
100
AcDbEntity
  8
0
 48
50.0
100
AcDbBlockEnd
  0
BLOCK
  5
20346
330
2033A
100
AcDbEntity
  8
0
 48
50.0
100
AcDbBlockBegin
  2
*D37
 70
     1
 10
0.0
 20
0.0
 30
0.0
  3
*D37
  1

  0
LINE
  5
22A98
330
2033A
100
AcDbEntity
  8
寸法
 62
     0
 48
50.0
370
    -2
100
AcDbLine
 10
10968.6
 20
8294.751839297878
 30
0.0
 11
10968.6
 21
9492.972161356801
 31
0.0
  0
LINE
  5
22A99
330
2033A
100
AcDbEntity
  8
寸法
 62
     0
 48
50.0
370
    -2
100
AcDbLine
 10
11013.6
 20
8977.360655968125
 30
0.0
 11
11013.6
 21
9492.972161356801
 31
0.0
  0
LINE
  5
22A9A
330
2033A
100
AcDbEntity
  8
寸法
 62
     0
 48
50.0
370
    -2
100
AcDbLine
 10
10968.6
 20
9432.972161356799
 30
0.0
 11
10868.6
 21
9432.972161356799
 31
0.0
  0
LINE
  5
22A9B
330
2033A
100
AcDbEntity
  8
寸法
 62
     0
 48
50.0
370
    -2
100
AcDbLine
 10
11013.6
 20
9432.972161356799
 30
0.0
 11
11350.94924240492
 21
9432.972161356799
 31
0.0
  0
LINE
  5
22A9C
330
2033A
100
AcDbEntity
  8
寸法
 62
     0
 48
50.0
370
    -2
100
AcDbLine
 10
10968.6
 20
9432.972161356799
 30
0.0
 11
11013.6
 21
9432.972161356799
 31
0.0
  0
INSERT
  5
22A9D
330
2033A
100
AcDbEntity
  8
寸法
 62
     0
 48
50.0
370
    -2
100
AcDbBlockReference
  2
_DOTSMALL
 10
10968.6
 20
9432.972161356799
 30
0.0
 41
100.0
 42
100.0
 43
100.0
  0
INSERT
  5
22A9E
330
2033A
100
AcDbEntity
  8
寸法
 62
     0
 48
50.0
370
    -2
100
AcDbBlockReference
  2
_DOTSMALL
 10
11013.6
 20
9432.972161356799
 30
0.0
 41
100.0
 42
100.0
 43
100.0
 50
180.0
  0
MTEXT
  5
22A9F
330
2033A
100
AcDbEntity
  8
寸法
 62
     7
 48
50.0
100
AcDbMText
 10
11284.77462120246
 20
9532.9721613568
 30
0.0
 40
120.0
 41
0.0
 71
     5
 72
     1
  1
\A1;a
  7
STYLE1
 73
     1
 44
1.0
1001
ACAD
1000
MTEXTBEGIN
1070
    73
1070
     1
1070
    44
1040
1.0
1070
    74
1070
     0
1000
MTEXTEND
  0
POINT
  5
22AA0
330
2033A
100
AcDbEntity
  8
DEFPOINTS
 62
     0
 48
50.0
100
AcDbPoint
 10
10968.6
 20
8274.751839297879
 30
0.0
  0
POINT
  5
22AA1
330
2033A
100
AcDbEntity
  8
DEFPOINTS
 62
     0
 48
50.0
100
AcDbPoint
 10
11013.6
 20
8957.360655968125
 30
0.0
  0
POINT
  5
22AA2
330
2033A
100
AcDbEntity
  8
DEFPOINTS
 62
     0
 48
50.0
100
AcDbPoint
 10
11013.6
 20
9432.972161356799
 30
0.0
  0
ENDBLK
  5
20347
330
2033A
100
AcDbEntity
  8
0
 48
50.0
100
AcDbBlockEnd
  0
BLOCK
  5
203D0
330
203C4
100
AcDbEntity
  8
0
 48
50.0
100
AcDbBlockBegin
  2
*D38
 70
     1
 10
0.0
 20
0.0
 30
0.0
  3
*D38
  1

  0
LINE
  5
22A8D
330
203C4
100
AcDbEntity
  8
寸法
 62
     0
 48
50.0
370
    -2
100
AcDbLine
 10
4574.08735343128
 20
8349.751839297882
 30
0.0
 11
4282.144256711883
 21
8349.751839297882
 31
0.0
  0
LINE
  5
22A8E
330
203C4
100
AcDbEntity
  8
寸法
 62
     0
 48
50.0
370
    -2
100
AcDbLine
 10
5458.599999999998
 20
8274.751839297881
 30
0.0
 11
4282.144256711883
 21
8274.751839297881
 31
0.0
  0
LINE
  5
22A8F
330
203C4
100
AcDbEntity
  8
寸法
 62
     0
 48
50.0
370
    -2
100
AcDbLine
 10
4342.144256711883
 20
8349.751839297882
 30
0.0
 11
4342.144256711883
 21
8449.751839297881
 31
0.0
  0
LINE
  5
22A90
330
203C4
100
AcDbEntity
  8
寸法
 62
     0
 48
50.0
370
    -2
100
AcDbLine
 10
4342.144256711883
 20
8274.751839297881
 30
0.0
 11
4342.144256711883
 21
8174.751839297881
 31
0.0
  0
LINE
  5
22A91
330
203C4
100
AcDbEntity
  8
寸法
 62
     0
 48
50.0
370
    -2
100
AcDbLine
 10
4342.144256711883
 20
8349.751839297882
 30
0.0
 11
4342.144256711883
 21
8274.751839297881
 31
0.0
  0
INSERT
  5
22A92
330
203C4
100
AcDbEntity
  8
寸法
 62
     0
 48
50.0
370
    -2
100
AcDbBlockReference
  2
_DOTSMALL
 10
4342.144256711883
 20
8349.751839297882
 30
0.0
 41
100.0
 42
100.0
 43
100.0
 50
270.0
  0
INSERT
  5
22A93
330
203C4
100
AcDbEntity
  8
寸法
 62
     0
 48
50.0
370
    -2
100
AcDbBlockReference
  2
_DOTSMALL
 10
4342.144256711883
 20
8274.751839297881
 30
0.0
 41
100.0
 42
100.0
 43
100.0
 50
90.0
  0
MTEXT
  5
22A94
330
203C4
100
AcDbEntity
  8
寸法
 62
     7
 48
50.0
100
AcDbMText
 10
4242.144256711882
 20
8312.251839297882
 30
0.0
 40
120.0
 41
0.0
 71
     5
 72
     1
  1
\A1;c
  7
STYLE1
 11
0.0000000000000001
 21
1.0
 31
0.0
 73
     1
 44
1.0
1001
ACAD
1000
MTEXTBEGIN
1070
    73
1070
     1
1070
    44
1040
1.0
1070
    74
1070
     0
1000
MTEXTEND
  0
POINT
  5
22A95
330
203C4
100
AcDbEntity
  8
DEFPOINTS
 62
     0
 48
50.0
100
AcDbPoint
 10
4594.087353431279
 20
8349.751839297882
 30
0.0
  0
POINT
  5
22A96
330
203C4
100
AcDbEntity
  8
DEFPOINTS
 62
     0
 48
50.0
100
AcDbPoint
 10
5478.599999999999
 20
8274.751839297881
 30
0.0
  0
POINT
  5
22A97
330
203C4
100
AcDbEntity
  8
DEFPOINTS
 62
     0
 48
50.0
100
AcDbPoint
 10
4342.144256711883
 20
8274.751839297881
 30
0.0
  0
ENDBLK
  5
203D1
330
203C4
100
AcDbEntity
  8
0
 48
50.0
100
AcDbBlockEnd
  0
BLOCK
  5
203EB
330
203DF
100
AcDbEntity
  8
0
 48
50.0
100
AcDbBlockBegin
  2
*D39
 70
     1
 10
0.0
 20
0.0
 30
0.0
  3
*D39
  1

  0
LINE
  5
22A82
330
203DF
100
AcDbEntity
  8
寸法
 62
     0
 48
50.0
370
    -2
100
AcDbLine
 10
5433.600000000001
 20
8977.360655968125
 30
0.0
 11
5433.600000000001
 21
9492.972161356801
 31
0.0
  0
LINE
  5
22A83
330
203DF
100
AcDbEntity
  8
寸法
 62
     0
 48
50.0
370
    -2
100
AcDbLine
 10
5478.599999999999
 20
8294.75183929788
 30
0.0
 11
5478.599999999999
 21
9492.972161356801
 31
0.0
  0
LINE
  5
22A84
330
203DF
100
AcDbEntity
  8
寸法
 62
     0
 48
50.0
370
    -2
100
AcDbLine
 10
5478.599999999999
 20
9432.972161356799
 30
0.0
 11
5578.599999999998
 21
9432.972161356799
 31
0.0
  0
LINE
  5
22A85
330
203DF
100
AcDbEntity
  8
寸法
 62
     0
 48
50.0
370
    -2
100
AcDbLine
 10
5433.600000000001
 20
9432.972161356799
 30
0.0
 11
5096.250757595083
 21
9432.972161356799
 31
0.0
  0
LINE
  5
22A86
330
203DF
100
AcDbEntity
  8
寸法
 62
     0
 48
50.0
370
    -2
100
AcDbLine
 10
5478.599999999999
 20
9432.972161356799
 30
0.0
 11
5433.600000000001
 21
9432.972161356799
 31
0.0
  0
INSERT
  5
22A87
330
203DF
100
AcDbEntity
  8
寸法
 62
     0
 48
50.0
370
    -2
100
AcDbBlockReference
  2
_DOTSMALL
 10
5478.599999999999
 20
9432.972161356799
 30
0.0
 41
100.0
 42
100.0
 43
100.0
 50
180.0
  0
INSERT
  5
22A88
330
203DF
100
AcDbEntity
  8
寸法
 62
     0
 48
50.0
370
    -2
100
AcDbBlockReference
  2
_DOTSMALL
 10
5433.600000000001
 20
9432.972161356799
 30
0.0
 41
100.0
 42
100.0
 43
100.0
  0
MTEXT
  5
22A89
330
203DF
100
AcDbEntity
  8
寸法
 62
     7
 48
50.0
100
AcDbMText
 10
5162.425378797541
 20
9532.9721613568
 30
0.0
 40
120.0
 41
0.0
 71
     5
 72
     1
  1
\A1;a
  7
STYLE1
 73
     1
 44
1.0
1001
ACAD
1000
MTEXTBEGIN
1070
    73
1070
     1
1070
    44
1040
1.0
1070
    74
1070
     0
1000
MTEXTEND
  0
POINT
  5
22A8A
330
203DF
100
AcDbEntity
  8
DEFPOINTS
 62
     0
 48
50.0
100
AcDbPoint
 10
5433.600000000001
 20
8957.360655968125
 30
0.0
  0
POINT
  5
22A8B
330
203DF
100
AcDbEntity
  8
DEFPOINTS
 62
     0
 48
50.0
100
AcDbPoint
 10
5478.599999999999
 20
8274.751839297881
 30
0.0
  0
POINT
  5
22A8C
330
203DF
100
AcDbEntity
  8
DEFPOINTS
 62
     0
 48
50.0
100
AcDbPoint
 10
5478.599999999999
 20
9432.972161356799
 30
0.0
  0
ENDBLK
  5
203EC
330
203DF
100
AcDbEntity
  8
0
 48
50.0
100
AcDbBlockEnd
  0
BLOCK
  5
20413
330
20407
100
AcDbEntity
  8
0
 48
50.0
100
AcDbBlockBegin
  2
*D40
 70
     1
 10
0.0
 20
0.0
 30
0.0
  3
*D40
  1

  0
LINE
  5
22A77
330
20407
100
AcDbEntity
  8
寸法
 62
     0
 48
50.0
370
    -2
100
AcDbLine
 10
5458.6
 20
5634.751839297879
 30
0.0
 11
4282.144256711883
 21
5634.751839297879
 31
0.0
  0
LINE
  5
22A78
330
20407
100
AcDbEntity
  8
寸法
 62
     0
 48
50.0
370
    -2
100
AcDbLine
 10
4574.087353431281
 20
5579.75183929789
 30
0.0
 11
4282.144256711883
 21
5579.75183929789
 31
0.0
  0
LINE
  5
22A79
330
20407
100
AcDbEntity
  8
寸法
 62
     0
 48
50.0
370
    -2
100
AcDbLine
 10
4342.144256711883
 20
5634.751839297879
 30
0.0
 11
4342.144256711883
 21
5734.751839297879
 31
0.0
  0
LINE
  5
22A7A
330
20407
100
AcDbEntity
  8
寸法
 62
     0
 48
50.0
370
    -2
100
AcDbLine
 10
4342.144256711883
 20
5579.75183929789
 30
0.0
 11
4342.144256711883
 21
5479.75183929789
 31
0.0
  0
LINE
  5
22A7B
330
20407
100
AcDbEntity
  8
寸法
 62
     0
 48
50.0
370
    -2
100
AcDbLine
 10
4342.144256711883
 20
5634.751839297879
 30
0.0
 11
4342.144256711883
 21
5579.75183929789
 31
0.0
  0
INSERT
  5
22A7C
330
20407
100
AcDbEntity
  8
寸法
 62
     0
 48
50.0
370
    -2
100
AcDbBlockReference
  2
_DOTSMALL
 10
4342.144256711883
 20
5634.751839297879
 30
0.0
 41
100.0
 42
100.0
 43
100.0
 50
270.0
  0
INSERT
  5
22A7D
330
20407
100
AcDbEntity
  8
寸法
 62
     0
 48
50.0
370
    -2
100
AcDbBlockReference
  2
_DOTSMALL
 10
4342.144256711883
 20
5579.75183929789
 30
0.0
 41
100.0
 42
100.0
 43
100.0
 50
90.0
  0
MTEXT
  5
22A7E
330
20407
100
AcDbEntity
  8
寸法
 62
     7
 48
50.0
100
AcDbMText
 10
4242.144256711882
 20
5607.251839297886
 30
0.0
 40
120.0
 41
0.0
 71
     5
 72
     1
  1
\A1;b
  7
STYLE1
 11
0.0000000000000001
 21
1.0
 31
0.0
 73
     1
 44
1.0
1001
ACAD
1000
MTEXTBEGIN
1070
    73
1070
     1
1070
    44
1040
1.0
1070
    74
1070
     0
1000
MTEXTEND
  0
POINT
  5
22A7F
330
20407
100
AcDbEntity
  8
DEFPOINTS
 62
     0
 48
50.0
100
AcDbPoint
 10
5478.6
 20
5634.751839297879
 30
0.0
  0
POINT
  5
22A80
330
20407
100
AcDbEntity
  8
DEFPOINTS
 62
     0
 48
50.0
100
AcDbPoint
 10
4594.087353431281
 20
5579.75183929789
 30
0.0
  0
POINT
  5
22A81
330
20407
100
AcDbEntity
  8
DEFPOINTS
 62
     0
 48
50.0
100
AcDbPoint
 10
4342.144256711883
 20
5579.75183929789
 30
0.0
  0
ENDBLK
  5
20414
330
20407
100
AcDbEntity
  8
0
 48
50.0
100
AcDbBlockEnd
  0
BLOCK
  5
2172B
330
21721
100
AcDbEntity
  8
0
 48
50.0
100
AcDbBlockBegin
  2
*D41
 70
     1
 10
0.0
 20
0.0
 30
0.0
  3
*D41
  1

  0
LINE
  5
22F59
330
21721
100
AcDbEntity
  8
寸法
 62
     0
 48
50.0
370
    -2
100
AcDbLine
 10
5478.600000000001
 20
6442.865411084241
 30
0.0
 11
5478.600000000001
 21
6231.841805722019
 31
0.0
  0
LINE
  5
22F5A
330
21721
100
AcDbEntity
  8
寸法
 62
     0
 48
50.0
370
    -2
100
AcDbLine
 10
6168.600000000008
 20
6469.751839297891
 30
0.0
 11
6168.600000000008
 21
6231.841805722019
 31
0.0
  0
LINE
  5
22F5B
330
21721
100
AcDbEntity
  8
寸法
 62
     0
 48
50.0
370
    -2
100
AcDbLine
 10
5478.600000000001
 20
6291.84180572202
 30
0.0
 11
6168.600000000008
 21
6291.84180572202
 31
0.0
  0
INSERT
  5
22F5C
330
21721
100
AcDbEntity
  8
寸法
 62
     0
 48
50.0
370
    -2
100
AcDbBlockReference
  2
_DOTSMALL
 10
5478.600000000001
 20
6291.84180572202
 30
0.0
 41
100.0
 42
100.0
 43
100.0
 50
180.0
  0
INSERT
  5
22F5D
330
21721
100
AcDbEntity
  8
寸法
 62
     0
 48
50.0
370
    -2
100
AcDbBlockReference
  2
_DOTSMALL
 10
6168.600000000008
 20
6291.84180572202
 30
0.0
 41
100.0
 42
100.0
 43
100.0
  0
MTEXT
  5
22F5E
330
21721
100
AcDbEntity
  8
寸法
 62
     7
 48
50.0
100
AcDbMText
 10
5823.600000000005
 20
6391.84180572202
 30
0.0
 40
120.0
 41
0.0
 71
     5
 72
     1
  1
\A1;690
  7
STYLE1
 73
     1
 44
1.0
1001
ACAD
1000
MTEXTBEGIN
1070
    73
1070
     1
1070
    44
1040
1.0
1070
    74
1070
     0
1000
MTEXTEND
  0
POINT
  5
22F5F
330
21721
100
AcDbEntity
  8
DEFPOINTS
 62
     0
 48
50.0
100
AcDbPoint
 10
5478.600000000001
 20
6462.865411084242
 30
0.0
  0
POINT
  5
22F60
330
21721
100
AcDbEntity
  8
DEFPOINTS
 62
     0
 48
50.0
100
AcDbPoint
 10
6168.600000000008
 20
6489.751839297889
 30
0.0
  0
POINT
  5
22F61
330
21721
100
AcDbEntity
  8
DEFPOINTS
 62
     0
 48
50.0
100
AcDbPoint
 10
6168.600000000008
 20
6291.84180572202
 30
0.0
  0
ENDBLK
  5
2172C
330
21721
100
AcDbEntity
  8
0
 48
50.0
100
AcDbBlockEnd
  0
BLOCK
  5
2174D
330
21743
100
AcDbEntity
  8
0
 48
50.0
100
AcDbBlockBegin
  2
*D42
 70
     1
 10
0.0
 20
0.0
 30
0.0
  3
*D42
  1

  0
LINE
  5
22F50
330
21743
100
AcDbEntity
  8
寸法
 62
     0
 48
50.0
370
    -2
100
AcDbLine
 10
6168.600000000008
 20
6469.751839297891
 30
0.0
 11
6168.600000000008
 21
6231.841805722019
 31
0.0
  0
LINE
  5
22F51
330
21743
100
AcDbEntity
  8
寸法
 62
     0
 48
50.0
370
    -2
100
AcDbLine
 10
6853.600000000009
 20
6469.751839297891
 30
0.0
 11
6853.600000000009
 21
6231.841805722019
 31
0.0
  0
LINE
  5
22F52
330
21743
100
AcDbEntity
  8
寸法
 62
     0
 48
50.0
370
    -2
100
AcDbLine
 10
6168.600000000008
 20
6291.84180572202
 30
0.0
 11
6853.600000000009
 21
6291.84180572202
 31
0.0
  0
INSERT
  5
22F53
330
21743
100
AcDbEntity
  8
寸法
 62
     0
 48
50.0
370
    -2
100
AcDbBlockReference
  2
_DOTSMALL
 10
6168.600000000008
 20
6291.84180572202
 30
0.0
 41
100.0
 42
100.0
 43
100.0
 50
180.0
  0
INSERT
  5
22F54
330
21743
100
AcDbEntity
  8
寸法
 62
     0
 48
50.0
370
    -2
100
AcDbBlockReference
  2
_DOTSMALL
 10
6853.600000000009
 20
6291.84180572202
 30
0.0
 41
100.0
 42
100.0
 43
100.0
  0
MTEXT
  5
22F55
330
21743
100
AcDbEntity
  8
寸法
 62
     7
 48
50.0
100
AcDbMText
 10
6511.100000000009
 20
6391.84180572202
 30
0.0
 40
120.0
 41
0.0
 71
     5
 72
     1
  1
\A1;685
  7
STYLE1
 73
     1
 44
1.0
1001
ACAD
1000
MTEXTBEGIN
1070
    73
1070
     1
1070
    44
1040
1.0
1070
    74
1070
     0
1000
MTEXTEND
  0
POINT
  5
22F56
330
21743
100
AcDbEntity
  8
DEFPOINTS
 62
     0
 48
50.0
100
AcDbPoint
 10
6168.600000000008
 20
6489.751839297889
 30
0.0
  0
POINT
  5
22F57
330
21743
100
AcDbEntity
  8
DEFPOINTS
 62
     0
 48
50.0
100
AcDbPoint
 10
6853.600000000009
 20
6489.751839297889
 30
0.0
  0
POINT
  5
22F58
330
21743
100
AcDbEntity
  8
DEFPOINTS
 62
     0
 48
50.0
100
AcDbPoint
 10
6853.600000000009
 20
6291.84180572202
 30
0.0
  0
ENDBLK
  5
2174E
330
21743
100
AcDbEntity
  8
0
 48
50.0
100
AcDbBlockEnd
  0
BLOCK
  5
21779
330
2176F
100
AcDbEntity
  8
0
 48
50.0
100
AcDbBlockBegin
  2
*D43
 70
     1
 10
0.0
 20
0.0
 30
0.0
  3
*D43
  1

  0
LINE
  5
22F3E
330
2176F
100
AcDbEntity
  8
寸法
 62
     0
 48
50.0
370
    -2
100
AcDbLine
 10
10278.60000000001
 20
6469.751839297891
 30
0.0
 11
10278.60000000001
 21
6231.841805722019
 31
0.0
  0
LINE
  5
22F3F
330
2176F
100
AcDbEntity
  8
寸法
 62
     0
 48
50.0
370
    -2
100
AcDbLine
 10
10968.6
 20
6442.865411084241
 30
0.0
 11
10968.6
 21
6231.841805722019
 31
0.0
  0
LINE
  5
22F40
330
2176F
100
AcDbEntity
  8
寸法
 62
     0
 48
50.0
370
    -2
100
AcDbLine
 10
10278.60000000001
 20
6291.84180572202
 30
0.0
 11
10968.6
 21
6291.84180572202
 31
0.0
  0
INSERT
  5
22F41
330
2176F
100
AcDbEntity
  8
寸法
 62
     0
 48
50.0
370
    -2
100
AcDbBlockReference
  2
_DOTSMALL
 10
10278.60000000001
 20
6291.84180572202
 30
0.0
 41
100.0
 42
100.0
 43
100.0
 50
180.0
  0
INSERT
  5
22F42
330
2176F
100
AcDbEntity
  8
寸法
 62
     0
 48
50.0
370
    -2
100
AcDbBlockReference
  2
_DOTSMALL
 10
10968.6
 20
6291.84180572202
 30
0.0
 41
100.0
 42
100.0
 43
100.0
  0
MTEXT
  5
22F43
330
2176F
100
AcDbEntity
  8
寸法
 62
     7
 48
50.0
100
AcDbMText
 10
10611.16542468967
 20
6391.84180572202
 30
0.0
 40
120.0
 41
0.0
 71
     5
 72
     1
  1
\A1;690
  7
STYLE1
 73
     1
 44
1.0
1001
ACAD
1000
MTEXTBEGIN
1070
    73
1070
     1
1070
    44
1040
1.0
1070
    74
1070
     0
1000
MTEXTEND
  0
POINT
  5
22F44
330
2176F
100
AcDbEntity
  8
DEFPOINTS
 62
     0
 48
50.0
100
AcDbPoint
 10
10278.60000000001
 20
6489.751839297889
 30
0.0
  0
POINT
  5
22F45
330
2176F
100
AcDbEntity
  8
DEFPOINTS
 62
     0
 48
50.0
100
AcDbPoint
 10
10968.6
 20
6462.865411084242
 30
0.0
  0
POINT
  5
22F46
330
2176F
100
AcDbEntity
  8
DEFPOINTS
 62
     0
 48
50.0
100
AcDbPoint
 10
10968.6
 20
6291.84180572202
 30
0.0
  0
ENDBLK
  5
2177A
330
2176F
100
AcDbEntity
  8
0
 48
50.0
100
AcDbBlockEnd
  0
BLOCK
  5
21790
330
21786
100
AcDbEntity
  8
0
 48
50.0
100
AcDbBlockBegin
  2
*D44
 70
     1
 10
0.0
 20
0.0
 30
0.0
  3
*D44
  1

  0
LINE
  5
22F35
330
21786
100
AcDbEntity
  8
寸法
 62
     0
 48
50.0
370
    -2
100
AcDbLine
 10
9593.600000000009
 20
6469.751839297891
 30
0.0
 11
9593.600000000009
 21
6231.841805722019
 31
0.0
  0
LINE
  5
22F36
330
21786
100
AcDbEntity
  8
寸法
 62
     0
 48
50.0
370
    -2
100
AcDbLine
 10
10278.60000000001
 20
6469.751839297891
 30
0.0
 11
10278.60000000001
 21
6231.841805722019
 31
0.0
  0
LINE
  5
22F37
330
21786
100
AcDbEntity
  8
寸法
 62
     0
 48
50.0
370
    -2
100
AcDbLine
 10
9593.600000000009
 20
6291.84180572202
 30
0.0
 11
10278.60000000001
 21
6291.84180572202
 31
0.0
  0
INSERT
  5
22F38
330
21786
100
AcDbEntity
  8
寸法
 62
     0
 48
50.0
370
    -2
100
AcDbBlockReference
  2
_DOTSMALL
 10
9593.600000000009
 20
6291.84180572202
 30
0.0
 41
100.0
 42
100.0
 43
100.0
 50
180.0
  0
INSERT
  5
22F39
330
21786
100
AcDbEntity
  8
寸法
 62
     0
 48
50.0
370
    -2
100
AcDbBlockReference
  2
_DOTSMALL
 10
10278.60000000001
 20
6291.84180572202
 30
0.0
 41
100.0
 42
100.0
 43
100.0
  0
MTEXT
  5
22F3A
330
21786
100
AcDbEntity
  8
寸法
 62
     7
 48
50.0
100
AcDbMText
 10
9959.541719262226
 20
6391.84180572202
 30
0.0
 40
120.0
 41
0.0
 71
     5
 72
     1
  1
\A1;685
  7
STYLE1
 73
     1
 44
1.0
1001
ACAD
1000
MTEXTBEGIN
1070
    73
1070
     1
1070
    44
1040
1.0
1070
    74
1070
     0
1000
MTEXTEND
  0
POINT
  5
22F3B
330
21786
100
AcDbEntity
  8
DEFPOINTS
 62
     0
 48
50.0
100
AcDbPoint
 10
9593.600000000009
 20
6489.751839297889
 30
0.0
  0
POINT
  5
22F3C
330
21786
100
AcDbEntity
  8
DEFPOINTS
 62
     0
 48
50.0
100
AcDbPoint
 10
10278.60000000001
 20
6489.751839297889
 30
0.0
  0
POINT
  5
22F3D
330
21786
100
AcDbEntity
  8
DEFPOINTS
 62
     0
 48
50.0
100
AcDbPoint
 10
10278.60000000001
 20
6291.84180572202
 30
0.0
  0
ENDBLK
  5
21791
330
21786
100
AcDbEntity
  8
0
 48
50.0
100
AcDbBlockEnd
  0
BLOCK
  5
217DE
330
217D4
100
AcDbEntity
  8
0
 48
50.0
100
AcDbBlockBegin
  2
*D45
 70
     1
 10
0.0
 20
0.0
 30
0.0
  3
*D45
  1

  0
LINE
  5
22F2C
330
217D4
100
AcDbEntity
  8
寸法
 62
     0
 48
50.0
370
    -2
100
AcDbLine
 10
8908.60000000001
 20
6469.751839297891
 30
0.0
 11
8908.60000000001
 21
6231.841805722019
 31
0.0
  0
LINE
  5
22F2D
330
217D4
100
AcDbEntity
  8
寸法
 62
     0
 48
50.0
370
    -2
100
AcDbLine
 10
9593.600000000009
 20
6469.751839297891
 30
0.0
 11
9593.600000000009
 21
6231.841805722019
 31
0.0
  0
LINE
  5
22F2E
330
217D4
100
AcDbEntity
  8
寸法
 62
     0
 48
50.0
370
    -2
100
AcDbLine
 10
8908.60000000001
 20
6291.84180572202
 30
0.0
 11
9593.600000000009
 21
6291.84180572202
 31
0.0
  0
INSERT
  5
22F2F
330
217D4
100
AcDbEntity
  8
寸法
 62
     0
 48
50.0
370
    -2
100
AcDbBlockReference
  2
_DOTSMALL
 10
8908.60000000001
 20
6291.84180572202
 30
0.0
 41
100.0
 42
100.0
 43
100.0
 50
180.0
  0
INSERT
  5
22F30
330
217D4
100
AcDbEntity
  8
寸法
 62
     0
 48
50.0
370
    -2
100
AcDbBlockReference
  2
_DOTSMALL
 10
9593.600000000009
 20
6291.84180572202
 30
0.0
 41
100.0
 42
100.0
 43
100.0
  0
MTEXT
  5
22F31
330
217D4
100
AcDbEntity
  8
寸法
 62
     7
 48
50.0
100
AcDbMText
 10
9265.801595782686
 20
6391.84180572202
 30
0.0
 40
120.0
 41
0.0
 71
     5
 72
     1
  1
\A1;685
  7
STYLE1
 73
     1
 44
1.0
1001
ACAD
1000
MTEXTBEGIN
1070
    73
1070
     1
1070
    44
1040
1.0
1070
    74
1070
     0
1000
MTEXTEND
  0
POINT
  5
22F32
330
217D4
100
AcDbEntity
  8
DEFPOINTS
 62
     0
 48
50.0
100
AcDbPoint
 10
8908.60000000001
 20
6489.751839297889
 30
0.0
  0
POINT
  5
22F33
330
217D4
100
AcDbEntity
  8
DEFPOINTS
 62
     0
 48
50.0
100
AcDbPoint
 10
9593.600000000009
 20
6489.751839297889
 30
0.0
  0
POINT
  5
22F34
330
217D4
100
AcDbEntity
  8
DEFPOINTS
 62
     0
 48
50.0
100
AcDbPoint
 10
9593.600000000009
 20
6291.84180572202
 30
0.0
  0
ENDBLK
  5
217DF
330
217D4
100
AcDbEntity
  8
0
 48
50.0
100
AcDbBlockEnd
  0
BLOCK
  5
228BA
330
228B0
100
AcDbEntity
  8
0
 48
50.0
100
AcDbBlockBegin
  2
*D46
 70
     1
 10
0.0
 20
0.0
 30
0.0
  3
*D46
  1

  0
LINE
  5
22F1A
330
228B0
100
AcDbEntity
  8
寸法
 62
     0
 48
50.0
370
    -2
100
AcDbLine
 10
7658.600000000008
 20
7393.75183929789
 30
0.0
 11
7960.202738780329
 21
7393.75183929789
 31
0.0
  0
LINE
  5
22F1B
330
228B0
100
AcDbEntity
  8
寸法
 62
     0
 48
50.0
370
    -2
100
AcDbLine
 10
7658.600000000008
 20
6589.751839297889
 30
0.0
 11
7960.202738780329
 21
6589.751839297889
 31
0.0
  0
LINE
  5
22F1C
330
228B0
100
AcDbEntity
  8
寸法
 62
     0
 48
50.0
370
    -2
100
AcDbLine
 10
7900.202738780328
 20
7393.75183929789
 30
0.0
 11
7900.202738780328
 21
6589.751839297889
 31
0.0
  0
INSERT
  5
22F1D
330
228B0
100
AcDbEntity
  8
寸法
 62
     0
 48
50.0
370
    -2
100
AcDbBlockReference
  2
_DOTSMALL
 10
7900.202738780328
 20
7393.75183929789
 30
0.0
 41
100.0
 42
100.0
 43
100.0
 50
90.0
  0
INSERT
  5
22F1E
330
228B0
100
AcDbEntity
  8
寸法
 62
     0
 48
50.0
370
    -2
100
AcDbBlockReference
  2
_DOTSMALL
 10
7900.202738780328
 20
6589.751839297889
 30
0.0
 41
100.0
 42
100.0
 43
100.0
 50
270.0
  0
MTEXT
  5
22F1F
330
228B0
100
AcDbEntity
  8
寸法
 62
     7
 48
50.0
100
AcDbMText
 10
7800.202738780327
 20
6991.75183929789
 30
0.0
 40
120.0
 41
0.0
 71
     5
 72
     1
  1
\A1;804
  7
STYLE1
 11
0.0000000000000001
 21
1.0
 31
0.0
 73
     1
 44
1.0
1001
ACAD
1000
MTEXTBEGIN
1070
    73
1070
     1
1070
    44
1040
1.0
1070
    74
1070
     0
1000
MTEXTEND
  0
POINT
  5
22F20
330
228B0
100
AcDbEntity
  8
DEFPOINTS
 62
     0
 48
50.0
100
AcDbPoint
 10
7638.600000000008
 20
7393.75183929789
 30
0.0
  0
POINT
  5
22F21
330
228B0
100
AcDbEntity
  8
DEFPOINTS
 62
     0
 48
50.0
100
AcDbPoint
 10
7638.600000000008
 20
6589.751839297889
 30
0.0
  0
POINT
  5
22F22
330
228B0
100
AcDbEntity
  8
DEFPOINTS
 62
     0
 48
50.0
100
AcDbPoint
 10
7900.202738780328
 20
6589.751839297889
 30
0.0
  0
ENDBLK
  5
228BB
330
228B0
100
AcDbEntity
  8
0
 48
50.0
100
AcDbBlockEnd
  0
BLOCK
  5
23679
330
2366F
100
AcDbEntity
  8
0
 48
50.0
100
AcDbBlockBegin
  2
*D47
 70
     1
 10
0.0
 20
0.0
 30
0.0
  3
*D47
  1

  0
LINE
  5
23702
330
2366F
100
AcDbEntity
  8
寸法
 62
     0
 48
50.0
370
    -2
100
AcDbLine
 10
6416.605114105522
 20
1941.300011989648
 30
0.0
 11
6416.605114105522
 21
2301.300011989648
 31
0.0
  0
LINE
  5
23703
330
2366F
100
AcDbEntity
  8
寸法
 62
     0
 48
50.0
370
    -2
100
AcDbLine
 10
6224.605114105522
 20
1941.300011989648
 30
0.0
 11
6224.605114105522
 21
2301.300011989648
 31
0.0
  0
LINE
  5
23704
330
2366F
100
AcDbEntity
  8
寸法
 62
     0
 48
50.0
370
    -2
100
AcDbLine
 10
6416.605114105522
 20
2241.300011989649
 30
0.0
 11
6224.605114105522
 21
2241.300011989649
 31
0.0
  0
MTEXT
  5
23705
330
2366F
100
AcDbEntity
  8
寸法
 62
     7
 48
50.0
100
AcDbMText
 10
6331.831444450719
 20
2641.003252976895
 30
0.0
 40
120.0
 41
0.0
 71
     5
 72
     1
  1
\A1;120\P200\P280
  7
STYLE1
 73
     1
 44
1.0
1001
ACAD
1000
MTEXTBEGIN
1070
    73
1070
     1
1070
    44
1040
1.0
1070
    74
1070
     0
1000
MTEXTEND
  0
INSERT
  5
23706
330
2366F
100
AcDbEntity
  8
寸法
 62
     0
 48
50.0
370
    -2
100
AcDbBlockReference
  2
_DOTSMALL
 10
6416.605114105522
 20
2241.300011989649
 30
0.0
 41
100.0
 42
100.0
 43
100.0
  0
INSERT
  5
23707
330
2366F
100
AcDbEntity
  8
寸法
 62
     0
 48
50.0
370
    -2
100
AcDbBlockReference
  2
_DOTSMALL
 10
6224.605114105522
 20
2241.300011989649
 30
0.0
 41
100.0
 42
100.0
 43
100.0
 50
180.0
  0
POINT
  5
23708
330
2366F
100
AcDbEntity
  8
DEFPOINTS
 62
     0
 48
50.0
100
AcDbPoint
 10
6416.605114105522
 20
1921.300011989648
 30
0.0
  0
POINT
  5
23709
330
2366F
100
AcDbEntity
  8
DEFPOINTS
 62
     0
 48
50.0
100
AcDbPoint
 10
6224.605114105522
 20
1921.300011989648
 30
0.0
  0
POINT
  5
2370A
330
2366F
100
AcDbEntity
  8
DEFPOINTS
 62
     0
 48
50.0
100
AcDbPoint
 10
6224.605114105522
 20
2241.300011989649
 30
0.0
  0
ENDBLK
  5
2367A
330
2366F
100
AcDbEntity
  8
0
 48
50.0
100
AcDbBlockEnd
  0
BLOCK
  5
23685
330
2367B
100
AcDbEntity
  8
0
 48
50.0
100
AcDbBlockBegin
  2
*D48
 70
     1
 10
0.0
 20
0.0
 30
0.0
  3
*D48
  1

  0
LINE
  5
236C5
330
2367B
100
AcDbEntity
  8
寸法
 62
     0
 48
50.0
370
    -2
100
AcDbLine
 10
6096.605114105522
 20
989.3000119896482
 30
0.0
 11
6096.605114105522
 21
538.8703739844881
 31
0.0
  0
LINE
  5
236C6
330
2367B
100
AcDbEntity
  8
寸法
 62
     0
 48
50.0
370
    -2
100
AcDbLine
 10
6544.605114105522
 20
989.3000119896482
 30
0.0
 11
6544.605114105522
 21
538.8703739844881
 31
0.0
  0
LINE
  5
236C7
330
2367B
100
AcDbEntity
  8
寸法
 62
     0
 48
50.0
370
    -2
100
AcDbLine
 10
6096.605114105522
 20
598.8703739844882
 30
0.0
 11
6544.605114105522
 21
598.8703739844882
 31
0.0
  0
MTEXT
  5
236C8
330
2367B
100
AcDbEntity
  8
寸法
 62
     7
 48
50.0
100
AcDbMText
 10
6300.508355427298
 20
698.8703739844882
 30
0.0
 40
120.0
 41
0.0
 71
     5
 72
     1
  1
\A1;300
  7
STYLE1
 73
     1
 44
1.0
1001
ACAD
1000
MTEXTBEGIN
1070
    73
1070
     1
1070
    44
1040
1.0
1070
    74
1070
     0
1000
MTEXTEND
  0
INSERT
  5
236C9
330
2367B
100
AcDbEntity
  8
寸法
 62
     0
 48
50.0
370
    -2
100
AcDbBlockReference
  2
_DOTSMALL
 10
6096.605114105522
 20
598.8703739844882
 30
0.0
 41
100.0
 42
100.0
 43
100.0
 50
180.0
  0
INSERT
  5
236CA
330
2367B
100
AcDbEntity
  8
寸法
 62
     0
 48
50.0
370
    -2
100
AcDbBlockReference
  2
_DOTSMALL
 10
6544.605114105522
 20
598.8703739844882
 30
0.0
 41
100.0
 42
100.0
 43
100.0
  0
POINT
  5
236CB
330
2367B
100
AcDbEntity
  8
DEFPOINTS
 62
     0
 48
50.0
100
AcDbPoint
 10
6096.605114105522
 20
1009.300011989648
 30
0.0
  0
POINT
  5
236CC
330
2367B
100
AcDbEntity
  8
DEFPOINTS
 62
     0
 48
50.0
100
AcDbPoint
 10
6544.605114105522
 20
1009.300011989648
 30
0.0
  0
POINT
  5
236CD
330
2367B
100
AcDbEntity
  8
DEFPOINTS
 62
     0
 48
50.0
100
AcDbPoint
 10
6544.605114105522
 20
598.8703739844882
 30
0.0
  0
ENDBLK
  5
23686
330
2367B
100
AcDbEntity
  8
0
 48
50.0
100
AcDbBlockEnd
  0
BLOCK
  5
23691
330
23687
100
AcDbEntity
  8
0
 48
50.0
100
AcDbBlockBegin
  2
*D49
 70
     1
 10
0.0
 20
0.0
 30
0.0
  3
*D49
  1

  0
LINE
  5
236CE
330
23687
100
AcDbEntity
  8
寸法
 62
     0
 48
50.0
370
    -2
100
AcDbLine
 10
6204.605114105522
 20
1921.300011989648
 30
0.0
 11
5429.567875543781
 21
1921.300011989648
 31
0.0
  0
LINE
  5
236CF
330
23687
100
AcDbEntity
  8
寸法
 62
     0
 48
50.0
370
    -2
100
AcDbLine
 10
5996.605114105526
 20
1137.300011989648
 30
0.0
 11
5429.567875543781
 21
1137.300011989648
 31
0.0
  0
LINE
  5
236D0
330
23687
100
AcDbEntity
  8
寸法
 62
     0
 48
50.0
370
    -2
100
AcDbLine
 10
5489.567875543782
 20
1921.300011989648
 30
0.0
 11
5489.567875543782
 21
1137.300011989648
 31
0.0
  0
MTEXT
  5
236D1
330
23687
100
AcDbEntity
  8
寸法
 62
     7
 48
50.0
100
AcDbMText
 10
5389.567875543782
 20
1508.840161645649
 30
0.0
 40
120.0
 41
0.0
 71
     5
 72
     1
  1
\A1;540
  7
STYLE1
 11
0.0000000000000001
 21
1.0
 31
0.0
 73
     1
 44
1.0
1001
ACAD
1000
MTEXTBEGIN
1070
    73
1070
     1
1070
    44
1040
1.0
1070
    74
1070
     0
1000
MTEXTEND
  0
INSERT
  5
236D2
330
23687
100
AcDbEntity
  8
寸法
 62
     0
 48
50.0
370
    -2
100
AcDbBlockReference
  2
_DOTSMALL
 10
5489.567875543782
 20
1921.300011989648
 30
0.0
 41
100.0
 42
100.0
 43
100.0
 50
90.0
  0
INSERT
  5
236D3
330
23687
100
AcDbEntity
  8
寸法
 62
     0
 48
50.0
370
    -2
100
AcDbBlockReference
  2
_DOTSMALL
 10
5489.567875543782
 20
1137.300011989648
 30
0.0
 41
100.0
 42
100.0
 43
100.0
 50
270.0
  0
POINT
  5
236D4
330
23687
100
AcDbEntity
  8
DEFPOINTS
 62
     0
 48
50.0
100
AcDbPoint
 10
6224.605114105522
 20
1921.300011989648
 30
0.0
  0
POINT
  5
236D5
330
23687
100
AcDbEntity
  8
DEFPOINTS
 62
     0
 48
50.0
100
AcDbPoint
 10
6016.605114105527
 20
1137.300011989648
 30
0.0
  0
POINT
  5
236D6
330
23687
100
AcDbEntity
  8
DEFPOINTS
 62
     0
 48
50.0
100
AcDbPoint
 10
5489.567875543782
 20
1137.300011989648
 30
0.0
  0
ENDBLK
  5
23692
330
23687
100
AcDbEntity
  8
0
 48
50.0
100
AcDbBlockEnd
  0
BLOCK
  5
2369D
330
23693
100
AcDbEntity
  8
0
 48
50.0
100
AcDbBlockBegin
  2
*D50
 70
     1
 10
0.0
 20
0.0
 30
0.0
  3
*D50
  1

  0
LINE
  5
236D7
330
23693
100
AcDbEntity
  8
寸法
 62
     0
 48
50.0
370
    -2
100
AcDbLine
 10
6076.605114105522
 20
1377.300011989648
 30
0.0
 11
5894.184800373063
 21
1377.300011989648
 31
0.0
  0
LINE
  5
236D8
330
23693
100
AcDbEntity
  8
寸法
 62
     0
 48
50.0
370
    -2
100
AcDbLine
 10
5996.605114105526
 20
1137.300011989648
 30
0.0
 11
5894.184800373063
 21
1137.300011989648
 31
0.0
  0
LINE
  5
236D9
330
23693
100
AcDbEntity
  8
寸法
 62
     0
 48
50.0
370
    -2
100
AcDbLine
 10
5954.184800373063
 20
1377.300011989648
 30
0.0
 11
5954.184800373063
 21
1137.300011989648
 31
0.0
  0
MTEXT
  5
236DA
330
23693
100
AcDbEntity
  8
寸法
 62
     7
 48
50.0
100
AcDbMText
 10
5854.184800373062
 20
1257.300011989648
 30
0.0
 40
120.0
 41
0.0
 71
     5
 72
     1
  1
\A1;150
  7
STYLE1
 11
0.0000000000000001
 21
1.0
 31
0.0
 73
     1
 44
1.0
1001
ACAD
1000
MTEXTBEGIN
1070
    73
1070
     1
1070
    44
1040
1.0
1070
    74
1070
     0
1000
MTEXTEND
  0
INSERT
  5
236DB
330
23693
100
AcDbEntity
  8
寸法
 62
     0
 48
50.0
370
    -2
100
AcDbBlockReference
  2
_DOTSMALL
 10
5954.184800373063
 20
1377.300011989648
 30
0.0
 41
100.0
 42
100.0
 43
100.0
 50
90.0
  0
INSERT
  5
236DC
330
23693
100
AcDbEntity
  8
寸法
 62
     0
 48
50.0
370
    -2
100
AcDbBlockReference
  2
_DOTSMALL
 10
5954.184800373063
 20
1137.300011989648
 30
0.0
 41
100.0
 42
100.0
 43
100.0
 50
270.0
  0
POINT
  5
236DD
330
23693
100
AcDbEntity
  8
DEFPOINTS
 62
     0
 48
50.0
100
AcDbPoint
 10
6096.605114105522
 20
1377.300011989648
 30
0.0
  0
POINT
  5
236DE
330
23693
100
AcDbEntity
  8
DEFPOINTS
 62
     0
 48
50.0
100
AcDbPoint
 10
6016.605114105527
 20
1137.300011989648
 30
0.0
  0
POINT
  5
236DF
330
23693
100
AcDbEntity
  8
DEFPOINTS
 62
     0
 48
50.0
100
AcDbPoint
 10
5954.184800373063
 20
1137.300011989648
 30
0.0
  0
ENDBLK
  5
2369E
330
23693
100
AcDbEntity
  8
0
 48
50.0
100
AcDbBlockEnd
  0
BLOCK
  5
236AE
330
2369F
100
AcDbEntity
  8
0
 48
50.0
100
AcDbBlockBegin
  2
*D51
 70
     1
 10
0.0
 20
0.0
 30
0.0
  3
*D51
  1

  0
LINE
  5
236E0
330
2369F
100
AcDbEntity
  8
寸法
 62
     0
 48
50.0
370
    -2
100
AcDbLine
 10
8171.444427282716
 20
1974.060011989649
 30
0.0
 11
8900.513027051557
 21
1974.060011989649
 31
0.0
  0
LINE
  5
236E1
330
2369F
100
AcDbEntity
  8
寸法
 62
     0
 48
50.0
370
    -2
100
AcDbLine
 10
8358.644427282714
 20
1921.300011989648
 30
0.0
 11
8900.513027051557
 21
1921.300011989648
 31
0.0
  0
LINE
  5
236E2
330
2369F
100
AcDbEntity
  8
寸法
 62
     0
 48
50.0
370
    -2
100
AcDbLine
 10
8840.513027051558
 20
1974.060011989649
 30
0.0
 11
8840.513027051558
 21
2074.060011989649
 31
0.0
  0
LINE
  5
236E3
330
2369F
100
AcDbEntity
  8
寸法
 62
     0
 48
50.0
370
    -2
100
AcDbLine
 10
8840.513027051558
 20
1921.300011989648
 30
0.0
 11
8840.513027051558
 21
1821.300011989648
 31
0.0
  0
LINE
  5
236E4
330
2369F
100
AcDbEntity
  8
寸法
 62
     0
 48
50.0
370
    -2
100
AcDbLine
 10
8840.513027051558
 20
1947.680011989649
 30
0.0
 11
9116.567693170585
 21
1936.176054385435
 31
0.0
  0
LINE
  5
236E5
330
2369F
100
AcDbEntity
  8
寸法
 62
     0
 48
50.0
370
    -2
100
AcDbLine
 10
9116.567693170585
 20
1936.176054385435
 30
0.0
 11
9116.567693170585
 21
1404.158247542469
 31
0.0
  0
MTEXT
  5
236E6
330
2369F
100
AcDbEntity
  8
寸法
 62
     7
 48
50.0
100
AcDbMText
 10
9016.555882146965
 20
1670.167150963954
 30
0.0
 40
120.0
 41
0.0
 71
     5
 72
     1
  1
\A1;20～25
  7
STYLE1
 11
0.0000000000000001
 21
1.0
 31
0.0
 73
     1
 44
1.0
1001
ACAD
1000
MTEXTBEGIN
1070
    73
1070
     1
1070
    44
1040
1.0
1070
    74
1070
     0
1000
MTEXTEND
  0
LINE
  5
236E7
330
2369F
100
AcDbEntity
  8
寸法
 62
     0
 48
50.0
370
    -2
100
AcDbLine
 10
8840.513027051558
 20
1974.060011989649
 30
0.0
 11
8840.513027051558
 21
1921.300011989648
 31
0.0
  0
LINE
  5
236E8
330
2369F
100
AcDbEntity
  8
寸法
 62
     0
 48
50.0
370
    -2
100
AcDbLine
 10
8840.513027051558
 20
1974.060011989649
 30
0.0
 11
8840.513027051558
 21
1921.300011989648
 31
0.0
  0
INSERT
  5
236E9
330
2369F
100
AcDbEntity
  8
寸法
 62
     0
 48
50.0
370
    -2
100
AcDbBlockReference
  2
_DOTSMALL
 10
8840.513027051558
 20
1974.060011989649
 30
0.0
 41
100.0
 42
100.0
 43
100.0
 50
270.0
  0
INSERT
  5
236EA
330
2369F
100
AcDbEntity
  8
寸法
 62
     0
 48
50.0
370
    -2
100
AcDbBlockReference
  2
_DOTSMALL
 10
8840.513027051558
 20
1921.300011989648
 30
0.0
 41
100.0
 42
100.0
 43
100.0
 50
90.0
  0
POINT
  5
236EB
330
2369F
100
AcDbEntity
  8
DEFPOINTS
 62
     0
 48
50.0
100
AcDbPoint
 10
8151.444427282717
 20
1974.060011989649
 30
0.0
  0
POINT
  5
236EC
330
2369F
100
AcDbEntity
  8
DEFPOINTS
 62
     0
 48
50.0
100
AcDbPoint
 10
8338.644427282714
 20
1921.300011989648
 30
0.0
  0
POINT
  5
236ED
330
2369F
100
AcDbEntity
  8
DEFPOINTS
 62
     0
 48
50.0
100
AcDbPoint
 10
8840.513027051558
 20
1921.300011989648
 30
0.0
  0
ENDBLK
  5
236AF
330
2369F
100
AcDbEntity
  8
0
 48
50.0
100
AcDbBlockEnd
  0
BLOCK
  5
236BA
330
236B0
100
AcDbEntity
  8
0
 48
50.0
100
AcDbBlockBegin
  2
*D52
 70
     1
 10
0.0
 20
0.0
 30
0.0
  3
*D52
  1

  0
LINE
  5
236EE
330
236B0
100
AcDbEntity
  8
寸法
 62
     0
 48
50.0
370
    -2
100
AcDbLine
 10
8358.644427282714
 20
1921.300011989648
 30
0.0
 11
8900.513027051557
 21
1921.300011989648
 31
0.0
  0
LINE
  5
236EF
330
236B0
100
AcDbEntity
  8
寸法
 62
     0
 48
50.0
370
    -2
100
AcDbLine
 10
8358.644427282714
 20
1597.300011989647
 30
0.0
 11
8900.513027051557
 21
1597.300011989647
 31
0.0
  0
LINE
  5
236F0
330
236B0
100
AcDbEntity
  8
寸法
 62
     0
 48
50.0
370
    -2
100
AcDbLine
 10
8840.513027051558
 20
1921.300011989648
 30
0.0
 11
8840.513027051558
 21
1597.300011989647
 31
0.0
  0
INSERT
  5
236F1
330
236B0
100
AcDbEntity
  8
寸法
 62
     0
 48
50.0
370
    -2
100
AcDbBlockReference
  2
_DOTSMALL
 10
8840.513027051558
 20
1921.300011989648
 30
0.0
 41
100.0
 42
100.0
 43
100.0
 50
90.0
  0
INSERT
  5
236F2
330
236B0
100
AcDbEntity
  8
寸法
 62
     0
 48
50.0
370
    -2
100
AcDbBlockReference
  2
_DOTSMALL
 10
8840.513027051558
 20
1597.300011989647
 30
0.0
 41
100.0
 42
100.0
 43
100.0
 50
270.0
  0
MTEXT
  5
236F3
330
236B0
100
AcDbEntity
  8
寸法
 62
     7
 48
50.0
100
AcDbMText
 10
8740.513027051559
 20
1759.300011989649
 30
0.0
 40
120.0
 41
0.0
 71
     5
 72
     1
  1
\A1;180
  7
STYLE1
 11
0.0000000000000001
 21
1.0
 31
0.0
 73
     1
 44
1.0
1001
ACAD
1000
MTEXTBEGIN
1070
    73
1070
     1
1070
    44
1040
1.0
1070
    74
1070
     0
1000
MTEXTEND
  0
POINT
  5
236F4
330
236B0
100
AcDbEntity
  8
DEFPOINTS
 62
     0
 48
50.0
100
AcDbPoint
 10
8338.644427282714
 20
1921.300011989648
 30
0.0
  0
POINT
  5
236F5
330
236B0
100
AcDbEntity
  8
DEFPOINTS
 62
     0
 48
50.0
100
AcDbPoint
 10
8338.644427282714
 20
1597.300011989647
 30
0.0
  0
POINT
  5
236F6
330
236B0
100
AcDbEntity
  8
DEFPOINTS
 62
     0
 48
50.0
100
AcDbPoint
 10
8840.513027051558
 20
1597.300011989647
 30
0.0
  0
ENDBLK
  5
236BB
330
236B0
100
AcDbEntity
  8
0
 48
50.0
100
AcDbBlockEnd
  0
ENDSEC
  0
SECTION
  2
ENTITIES
  0
MTEXT
  5
763F
330
747D
100
AcDbEntity
  8
0
100
AcDbMText
 10
302.846345836809
 20
280.1983726409901
 30
0.0
 40
3.5
 41
5.323721266742722
 71
     1
 72
     5
  1

  7
MSMINCHO
 73
     1
 44
1.0
1001
ACAD
1000
MTEXTBEGIN
1070
    73
1070
     1
1070
    44
1040
1.0
1070
    74
1070
     0
1000
MTEXTEND
  0
LINE
  5
10B57
330
747D
100
AcDbEntity
  8
補助
  6
PHANTOM
 62
   230
 48
50.0
100
AcDbLine
 10
139.9999999999995
 20
11409.6
 30
0.0
 11
16307.2
 21
11409.6
 31
0.0
  0
LINE
  5
10B59
330
747D
100
AcDbEntity
  8
仕様書枠
  6
Continuous
 48
50.0
100
AcDbLine
 10
13107.2
 20
1200.0
 30
0.0
 11
13107.2
 21
-0.0000000000000729
 31
0.0
  0
LINE
  5
10B5D
330
747D
100
AcDbEntity
  8
仕様書枠
 48
50.0
100
AcDbLine
 10
140.0
 20
0.0
 30
0.0
 11
16307.2
 21
-0.0000000000000909
 31
0.0
  0
LINE
  5
10B5E
330
747D
100
AcDbEntity
  8
補助
  6
PHANTOM
 62
   230
 48
50.0
100
AcDbLine
 10
16307.2
 20
11409.6
 30
0.0
 11
16307.2
 21
1200.0
 31
0.0
  0
LINE
  5
10B6C
330
747D
100
AcDbEntity
  8
仕様書枠
 48
50.0
100
AcDbLine
 10
13107.2
 20
1200.0
 30
0.0
 11
16307.2
 21
1200.0
 31
0.0
  0
TEXT
  5
10B73
330
747D
100
AcDbEntity
  8
文字
 62
     7
 48
50.0
100
AcDbText
 10
13162.9790565769
 20
895.0906074299405
 30
0.0
 40
200.0
  1
基 礎 図
  7
STYLE2
100
AcDbText
  0
LINE
  5
10B7B
330
747D
100
AcDbEntity
  8
仕様書枠
 48
50.0
100
AcDbLine
 10
13107.2
 20
800.0
 30
0.0
 11
14251.2
 21
800.0
 31
0.0
  0
LINE
  5
10B88
330
747D
100
AcDbEntity
  8
仕様書枠
  6
Continuous
 48
50.0
100
AcDbLine
 10
14251.2
 20
1200.0
 30
0.0
 11
14251.2
 21
800.0
 31
0.0
  0
LINE
  5
16462
330
747D
100
AcDbEntity
  8
仕様書枠
 48
50.0
100
AcDbLine
 10
16307.2
 20
1200.0
 30
0.0
 11
16307.2
 21
-0.0000000000000909
 31
0.0
  0
LINE
  5
1903B
330
747D
100
AcDbEntity
  8
補助
  6
PHANTOM
 62
   230
 48
50.0
100
AcDbLine
 10
140.0
 20
0.0
 30
0.0
 11
139.9999999999995
 21
11409.6
 31
0.0
  0
TEXT
  5
1C7A1
330
747D
100
AcDbEntity
  8
文字
 62
     7
 48
50.0
100
AcDbText
 10
13188.16259899338
 20
79.80631269190417
 30
0.0
 40
80.0
  1
※布基礎には換気口を設けてください。
  7
STYLE2
100
AcDbText
  0
TEXT
  5
1C7E7
330
747D
100
AcDbEntity
  8
文字
 62
     7
 48
50.0
100
AcDbText
 10
13188.16259899338
 20
246.7109242801889
 30
0.0
 40
80.0
  1
※寒冷地等は地域の実情に合わせた基礎にして下さい。
  7
STYLE2
100
AcDbText
  0
TEXT
  5
1C7E8
330
747D
100
AcDbEntity
  8
文字
 62
     7
 48
50.0
100
AcDbText
 10
14478.98566430227
 20
499.5983841039506
 30
0.0
 40
160.0
  1
ＮＸＮ－３６ＣＳＬ
  7
STYLE2
100
AcDbText
  0
TEXT
  5
1C7E9
330
747D
100
AcDbEntity
  8
文字
 62
     7
 48
50.0
100
AcDbText
 10
14641.2525855784
 20
871.1744590657927
 30
0.0
 40
100.0
  1
～一般型・多雪地型～
  7
STYLE2
100
AcDbText
  0
TEXT
  5
1C7EC
330
747D
100
AcDbEntity
  8
文字
 62
     7
 48
50.0
100
AcDbText
 10
14524.131837222
 20
1031.557706291229
 30
0.0
 40
100.0
  1
      <縮尺> S=1/40
  7
STYLE2
100
AcDbText
  0
TEXT
  5
1C7ED
330
747D
100
AcDbEntity
  8
文字
 62
     7
 48
50.0
100
AcDbText
 10
13201.43669998441
 20
477.2740661031257
 30
0.0
 40
160.0
  1
機種名
  7
STYLE2
100
AcDbText
  0
LINE
  5
1C7EF
330
747D
100
AcDbEntity
  8
文字
 62
     7
 48
50.0
100
AcDbLine
 10
13187.2
 20
400.0
 30
0.0
 11
16227.2
 21
400.0
 31
0.0
  0
DIMENSION
  5
1FA1F
330
747D
100
AcDbEntity
  8
寸法
 48
50.0
100
AcDbDimension
  2
*D19
 10
8105.6
 20
8957.360655968125
 30
0.0
 11
8790.600000000001
 21
9057.360655968125
 31
0.0
 70
    32
 71
     5
 42
1370.0
  3
INABA_S40G
100
AcDbAlignedDimension
 13
9475.6
 23
8201.751839297878
 33
0.0
 14
8105.6
 24
8201.751839297878
 34
0.0
100
AcDbRotatedDimension
1001
ACAD
1000
DSTYLE
1002
{
1070
   341
1005
0
1002
}
  0
LINE
  5
1FA20
330
747D
100
AcDbEntity
  8
部品1
 48
50.0
100
AcDbLine
 10
10848.6
 20
8074.751839297881
 30
0.0
 11
5598.600000000001
 21
8074.751839297732
 31
0.0
  0
DIMENSION
  5
1FA21
330
747D
100
AcDbEntity
  8
寸法
 48
50.0
100
AcDbDimension
  2
*D20
 10
10968.6
 20
9432.972161356799
 30
0.0
 11
8223.600000000001
 21
9538.972161356801
 31
0.0
 70
    32
  1
N(連続数)x1370+10
 71
     5
 42
5490.0
  3
INABA_S40G
100
AcDbAlignedDimension
 13
5478.6
 23
8274.751839297879
 33
0.0
 14
10968.6
 24
8274.751839297879
 34
0.0
100
AcDbRotatedDimension
1001
ACAD
1000
DSTYLE
1002
{
1070
   341
1005
0
1002
}
  0
LINE
  5
1FA22
330
747D
100
AcDbEntity
  8
部品1
 48
50.0
100
AcDbLine
 10
10968.6
 20
8274.751839297879
 30
0.0
 11
5478.6
 21
8274.751839297882
 31
0.0
  0
LINE
  5
1FA23
330
747D
100
AcDbEntity
  8
部品1
 48
50.0
100
AcDbLine
 10
10848.6
 20
5914.751839297896
 30
0.0
 11
5598.600000000001
 21
5914.751839297883
 31
0.0
  0
LINE
  5
1FA25
330
747D
100
AcDbEntity
  8
部品1
 48
50.0
100
AcDbLine
 10
10968.6
 20
5634.751839297898
 30
0.0
 11
5478.6
 21
5634.75183929788
 31
0.0
  0
DIMENSION
  5
1FA26
330
747D
100
AcDbEntity
  8
寸法
 48
50.0
100
AcDbDimension
  2
*D21
 10
8223.600000000008
 20
9201.018297391788
 30
0.0
 11
8908.600000000008
 21
9301.018297391788
 31
0.0
 70
    32
 71
     5
 42
1370.0
  3
INABA_S40G
100
AcDbAlignedDimension
 13
9593.600000000007
 23
8957.360655968125
 33
0.0
 14
8223.600000000008
 24
8957.360655968125
 34
0.0
100
AcDbRotatedDimension
1001
ACAD
1000
DSTYLE
1002
{
1070
   341
1005
0
1002
}
  0
DIMENSION
  5
1FA2F
330
747D
100
AcDbEntity
  8
寸法
 48
50.0
100
AcDbDimension
  2
*D22
 10
4594.08735343128
 20
5634.751839297879
 30
0.0
 11
4594.087353431279
 21
5299.220890455288
 31
0.0
 70
   160
 71
     5
 42
198.0000000000018
  3
INABA_S40G
100
AcDbAlignedDimension
 13
5551.600000000007
 23
5832.75183929788
 33
0.0
 14
5478.6
 24
5634.751839297879
 34
0.0
 50
90.0
100
AcDbRotatedDimension
1001
ACAD
1000
DSTYLE
1002
{
1070
   341
1005
0
1002
}
  0
DIMENSION
  5
1FB0C
330
747D
100
AcDbEntity
  8
寸法
 48
50.0
100
AcDbDimension
  2
*D23
 10
4342.144256711885
 20
5634.751839297879
 30
0.0
 11
4342.144256711884
 21
6954.751839297879
 31
0.0
 70
   160
 71
     5
 42
2640.0
  3
INABA_S40G
100
AcDbAlignedDimension
 13
5478.6
 23
8274.751839297879
 33
0.0
 14
5478.6
 24
5634.751839297879
 34
0.0
 50
90.0
100
AcDbRotatedDimension
1001
ACAD
1000
DSTYLE
1002
{
1070
   341
1005
0
1002
}
  0
DIMENSION
  5
1FB0E
330
747D
100
AcDbEntity
  8
寸法
 48
50.0
100
AcDbDimension
  2
*D24
 10
4594.08735343128
 20
8151.751839297878
 30
0.0
 11
4594.087353431279
 21
8547.85844101568
 31
0.0
 70
   160
 71
     5
 42
123.0000000000009
  3
INABA_S40G
100
AcDbAlignedDimension
 13
5478.6
 23
8274.751839297879
 33
0.0
 14
5551.6
 24
8151.751839297878
 34
0.0
 50
90.0
100
AcDbRotatedDimension
1001
ACAD
1000
DSTYLE
1002
{
1070
   341
1005
0
1002
}
  0
DIMENSION
  5
1FB0F
330
747D
100
AcDbEntity
  8
寸法
 48
50.0
100
AcDbDimension
  2
*D25
 10
5478.6
 20
8957.360655968125
 30
0.0
 11
5205.493398282202
 21
8957.360655968125
 31
0.0
 70
   160
 71
     5
 42
123.0
  3
INABA_S40G
100
AcDbAlignedDimension
 13
5601.600000000001
 23
8201.751839297878
 33
0.0
 14
5478.6
 24
8274.751839297879
 34
0.0
100
AcDbRotatedDimension
1001
ACAD
1000
DSTYLE
1002
{
1070
   341
1005
0
1002
}
  0
DIMENSION
  5
1FB10
330
747D
100
AcDbEntity
  8
寸法
 48
50.0
100
AcDbDimension
  2
*D26
 10
4594.087353431284
 20
5832.75183929788
 30
0.0
 11
4594.087353431283
 21
6992.25183929788
 31
0.0
 70
   160
 71
     5
 42
2318.999999999997
  3
INABA_S40G
100
AcDbAlignedDimension
 13
5551.6
 23
8151.751839297878
 33
0.0
 14
5551.600000000007
 24
5832.75183929788
 34
0.0
 50
90.0
100
AcDbRotatedDimension
1001
ACAD
1000
DSTYLE
1002
{
1070
   341
1005
0
1002
}
  0
DIMENSION
  5
1FB11
330
747D
100
AcDbEntity
  8
寸法
 48
50.0
100
AcDbDimension
  2
*D27
 10
5478.6
 20
9201.018297391788
 30
0.0
 11
6166.100000000004
 21
9301.018297391788
 31
0.0
 70
    32
 71
     5
 42
1375.000000000007
  3
INABA_S40G
100
AcDbAlignedDimension
 13
6853.600000000007
 23
8957.360655968125
 33
0.0
 14
5478.6
 24
8274.751839297879
 34
0.0
100
AcDbRotatedDimension
1001
ACAD
1000
DSTYLE
1002
{
1070
   341
1005
0
1002
}
  0
LINE
  5
1FB14
330
747D
100
AcDbEntity
  8
寸法
 48
50.0
100
AcDbLine
 10
6735.600000000001
 20
8957.360655968125
 30
0.0
 11
7270.151108115732
 21
8957.360655968125
 31
0.0
  0
LINE
  5
1FB23
102
{ACAD_REACTORS
330
2331A
102
}
330
747D
100
AcDbEntity
  8
部品1
 48
50.0
100
AcDbLine
 10
5478.6
 20
5634.751839297879
 30
0.0
 11
5478.6
 21
8274.751839297879
 31
0.0
  0
DIMENSION
  5
1FB37
330
747D
100
AcDbEntity
  8
寸法
 48
50.0
100
AcDbDimension
  2
*D28
 10
5601.600000000001
 20
8957.360655968125
 30
0.0
 11
6168.600000000001
 21
9057.360655968125
 31
0.0
 70
    32
 71
     5
 42
1134.0
  3
INABA_S40G
100
AcDbAlignedDimension
 13
6735.600000000001
 23
8201.751839297878
 33
0.0
 14
5601.600000000001
 24
8201.751839297878
 34
0.0
100
AcDbRotatedDimension
1001
ACAD
1000
DSTYLE
1002
{
1070
   341
1005
0
1002
}
  0
LINE
  5
1FB5A
330
747D
100
AcDbEntity
  8
センター
 48
2.0
100
AcDbLine
 10
8055.600000000008
 20
5832.75183929788
 30
0.0
 11
8155.600000000008
 21
5832.75183929788
 31
0.0
  0
CIRCLE
  5
1FB5B
330
747D
100
AcDbEntity
  8
部品1
 48
50.0
100
AcDbCircle
 10
8105.600000000007
 20
5832.75183929788
 30
0.0
 40
35.0
  0
LINE
  5
1FB5C
330
747D
100
AcDbEntity
  8
センター
 48
2.0
100
AcDbLine
 10
8105.600000000007
 20
5882.751839297881
 30
0.0
 11
8105.600000000007
 21
5782.751839297881
 31
0.0
  0
LINE
  5
1FB67
330
747D
100
AcDbEntity
  8
寸法
 48
50.0
100
AcDbLine
 10
8105.6
 20
8957.360655968125
 30
0.0
 11
7616.10007504358
 21
8957.360655968125
 31
0.0
  0
LINE
  5
1FB6C
330
747D
100
AcDbEntity
  8
寸法
 48
50.0
100
AcDbLine
 10
6853.600000000007
 20
9201.018297391788
 30
0.0
 11
7388.151108115739
 21
9201.018297391788
 31
0.0
  0
CIRCLE
  5
1FB6D
330
747D
100
AcDbEntity
  8
部品1
 48
50.0
100
AcDbCircle
 10
8105.6
 20
8151.751839297878
 30
0.0
 40
35.0
  0
LINE
  5
1FB6E
330
747D
100
AcDbEntity
  8
センター
 48
2.0
100
AcDbLine
 10
8105.6
 20
8201.751839297878
 30
0.0
 11
8105.6
 21
8101.751839297879
 31
0.0
  0
LINE
  5
1FB6F
330
747D
100
AcDbEntity
  8
センター
 48
2.0
100
AcDbLine
 10
8055.600000000001
 20
8151.751839297878
 30
0.0
 11
8155.600000000001
 21
8151.751839297878
 31
0.0
  0
LINE
  5
1FB71
330
747D
100
AcDbEntity
  8
寸法
 48
50.0
100
AcDbLine
 10
8223.600000000008
 20
9201.018297391788
 30
0.0
 11
7734.100075043587
 21
9201.018297391788
 31
0.0
  0
DIMENSION
  5
1FB76
330
747D
100
AcDbEntity
  8
寸法
 48
50.0
100
AcDbDimension
  2
*D29
 10
9195.649102633089
 20
5634.751839297894
 30
0.0
 11
9195.649102633087
 21
5347.788256620727
 31
0.0
 70
   160
 71
     5
 42
280.0000000000018
  3
INABA_S40G
100
AcDbAlignedDimension
 13
9090.851516111312
 23
5914.751839297895
 33
0.0
 14
9090.851516111312
 24
5634.751839297894
 34
0.0
 50
90.0
100
AcDbRotatedDimension
1001
ACAD
1000
DSTYLE
1002
{
1070
   341
1005
0
1002
}
  0
DIMENSION
  5
1FC2E
330
747D
100
AcDbEntity
  8
寸法
 48
50.0
100
AcDbDimension
  2
*D30
 10
9593.600000000007
 20
9201.018297391788
 30
0.0
 11
10346.02212135149
 21
9201.018297391788
 31
0.0
 70
   160
 71
     5
 42
1374.999999999993
  3
INABA_S40G
100
AcDbAlignedDimension
 13
10968.6
 23
8274.751839297879
 33
0.0
 14
9593.600000000007
 24
8957.360655968125
 34
0.0
100
AcDbRotatedDimension
1001
ACAD
1000
DSTYLE
1002
{
1070
   341
1005
0
1002
}
  0
DIMENSION
  5
1FC2F
330
747D
100
AcDbEntity
  8
寸法
 48
50.0
100
AcDbDimension
  2
*D31
 10
9475.6
 20
8957.360655968125
 30
0.0
 11
10160.6
 21
9057.360655968125
 31
0.0
 70
    32
 71
     5
 42
1370.0
  3
INABA_S40G
100
AcDbAlignedDimension
 13
10845.6
 23
8201.751839297878
 33
0.0
 14
9475.6
 24
8201.751839297878
 34
0.0
100
AcDbRotatedDimension
1001
ACAD
1000
DSTYLE
1002
{
1070
   341
1005
0
1002
}
  0
DIMENSION
  5
1FC30
330
747D
100
AcDbEntity
  8
寸法
 48
50.0
100
AcDbDimension
  2
*D32
 10
7900.202738780326
 20
8274.751839297879
 30
0.0
 11
7800.202738780325
 21
7834.251839297884
 31
0.0
 70
    32
 71
     5
 42
880.9999999999881
  3
INABA_S40G
100
AcDbAlignedDimension
 13
7638.600000000008
 23
7393.75183929789
 33
0.0
 14
7638.600000000001
 24
8274.751839297879
 34
0.0
 50
90.0
100
AcDbRotatedDimension
1001
ACAD
1000
DSTYLE
1002
{
1070
   341
1005
0
1002
}
  0
LINE
  5
1FC33
330
747D
100
AcDbEntity
  8
細線
 48
50.0
100
AcDbLine
 10
8808.600000000017
 20
5844.045951143624
 30
0.0
 11
8879.305888154283
 21
5914.751839297892
 31
0.0
  0
LINE
  5
1FC34
330
747D
100
AcDbEntity
  8
細線
 48
50.0
100
AcDbLine
 10
8823.812291181008
 20
5634.751839297886
 30
0.0
 11
9008.60000000002
 21
5819.5395481169
 31
0.0
  0
LINE
  5
1FC35
330
747D
100
AcDbEntity
  8
細線
 48
50.0
100
AcDbLine
 10
8808.600000000017
 20
5664.44082872224
 30
0.0
 11
9008.600000000019
 21
5864.440828722244
 31
0.0
  0
LINE
  5
1FC36
330
747D
100
AcDbEntity
  8
細線
 48
50.0
100
AcDbLine
 10
8808.600000000017
 20
5709.342109327588
 30
0.0
 11
9008.60000000002
 21
5909.342109327591
 31
0.0
  0
LINE
  5
1FC37
330
747D
100
AcDbEntity
  8
細線
 48
50.0
100
AcDbLine
 10
8808.600000000017
 20
5754.243389932932
 30
0.0
 11
8969.108449364979
 21
5914.751839297892
 31
0.0
  0
LINE
  5
1FC38
330
747D
100
AcDbEntity
  8
細線
 48
50.0
100
AcDbLine
 10
8808.600000000017
 20
5799.144670538278
 30
0.0
 11
8924.207168759613
 21
5914.75183929789
 31
0.0
  0
LINE
  5
1FC39
330
747D
100
AcDbEntity
  8
部品1
 48
50.0
100
AcDbLine
 10
8808.600000000017
 20
5634.751839297894
 30
0.0
 11
8808.600000000023
 21
5914.751839297892
 31
0.0
  0
LINE
  5
1FC3A
330
747D
100
AcDbEntity
  8
細線
 48
50.0
100
AcDbLine
 10
8808.600000000017
 20
5888.94723174897
 30
0.0
 11
8834.404607548934
 21
5914.751839297892
 31
0.0
  0
LINE
  5
1FC3B
330
747D
100
AcDbEntity
  8
細線
 48
50.0
100
AcDbLine
 10
8913.614852391706
 20
5634.75183929789
 30
0.0
 11
9008.600000000019
 21
5729.736986906205
 31
0.0
  0
LINE
  5
1FC3C
330
747D
100
AcDbEntity
  8
細線
 48
50.0
100
AcDbLine
 10
8868.713571786356
 20
5634.751839297886
 30
0.0
 11
9008.600000000019
 21
5774.638267511551
 31
0.0
  0
LINE
  5
1FC3D
330
747D
100
AcDbEntity
  8
部品1
 48
50.0
100
AcDbLine
 10
9008.600000000017
 20
5634.751839297894
 30
0.0
 11
9008.60000000002
 21
5914.751839297892
 31
0.0
  0
LINE
  5
1FC3E
330
747D
100
AcDbEntity
  8
細線
 48
50.0
100
AcDbLine
 10
9003.417413602399
 20
5634.751839297894
 30
0.0
 11
9008.600000000019
 21
5639.934425695513
 31
0.0
  0
LINE
  5
1FC3F
330
747D
100
AcDbEntity
  8
細線
 48
50.0
100
AcDbLine
 10
8958.516132997051
 20
5634.751839297892
 30
0.0
 11
9008.600000000019
 21
5684.835706300858
 31
0.0
  0
DIMENSION
  5
1FC40
330
747D
100
AcDbEntity
  8
寸法
 48
50.0
100
AcDbDimension
  2
*D33
 10
7900.202738780328
 20
6589.751839297889
 30
0.0
 11
7900.202738780326
 21
6208.251839297884
 31
0.0
 70
   160
 71
     5
 42
955.0000000000027
  3
INABA_S40G
100
AcDbAlignedDimension
 13
7638.600000000017
 23
5634.751839297887
 33
0.0
 14
7638.600000000008
 24
6589.751839297889
 34
0.0
 50
90.0
100
AcDbRotatedDimension
1001
ACAD
1000
DSTYLE
1002
{
1070
   341
1005
0
1002
}
  0
CIRCLE
  5
1FC41
330
747D
100
AcDbEntity
  8
部品1
 48
50.0
100
AcDbCircle
 10
9475.600000000007
 20
5832.75183929788
 30
0.0
 40
35.0
  0
LINE
  5
1FC42
330
747D
100
AcDbEntity
  8
センター
 48
2.0
100
AcDbLine
 10
9425.600000000008
 20
5832.75183929788
 30
0.0
 11
9525.600000000007
 21
5832.75183929788
 31
0.0
  0
LINE
  5
1FC43
330
747D
100
AcDbEntity
  8
センター
 48
2.0
100
AcDbLine
 10
9475.600000000007
 20
5882.751839297881
 30
0.0
 11
9475.600000000007
 21
5782.751839297881
 31
0.0
  0
DIMENSION
  5
1FC4A
330
747D
100
AcDbEntity
  8
寸法
 48
50.0
100
AcDbDimension
  2
*D34
 10
9195.649102633089
 20
8074.751839297837
 30
0.0
 11
9195.649102633089
 21
8561.715421975044
 31
0.0
 70
   160
 71
     5
 42
200.00000000004
  3
INABA_S40G
100
AcDbAlignedDimension
 13
9303.779728401337
 23
8274.751839297879
 33
0.0
 14
9345.600000000008
 24
8074.751839297837
 34
0.0
 50
90.0
100
AcDbRotatedDimension
1001
ACAD
1000
DSTYLE
1002
{
1070
   341
1005
0
1002
}
  0
LINE
  5
1FC4B
330
747D
100
AcDbEntity
  8
細線
 48
50.0
100
AcDbLine
 10
8836.37899544195
 20
8074.751839297821
 30
0.0
 11
9008.599999999999
 21
8246.972843855868
 31
0.0
  0
LINE
  5
1FC4C
330
747D
100
AcDbEntity
  8
細線
 48
50.0
100
AcDbLine
 10
8808.6
 20
8091.874124461213
 30
0.0
 11
8991.477714836666
 21
8274.751839297879
 31
0.0
  0
LINE
  5
1FC4D
330
747D
100
AcDbEntity
  8
細線
 48
50.0
100
AcDbLine
 10
8808.6
 20
8136.775405066561
 30
0.0
 11
8946.576434231319
 21
8274.751839297879
 31
0.0
  0
LINE
  5
1FC4E
330
747D
100
AcDbEntity
  8
細線
 48
50.0
100
AcDbLine
 10
8808.6
 20
8181.676685671904
 30
0.0
 11
8901.675153625975
 21
8274.751839297879
 31
0.0
  0
LINE
  5
1FC4F
330
747D
100
AcDbEntity
  8
細線
 48
50.0
100
AcDbLine
 10
8808.6
 20
8226.577966277252
 30
0.0
 11
8856.773873020626
 21
8274.751839297879
 31
0.0
  0
LINE
  5
1FC50
330
747D
100
AcDbEntity
  8
部品1
 48
50.0
100
AcDbLine
 10
8808.6
 20
8074.751839297821
 30
0.0
 11
8808.6
 21
8274.751839297879
 31
0.0
  0
LINE
  5
1FC51
330
747D
100
AcDbEntity
  8
細線
 48
50.0
100
AcDbLine
 10
8808.6
 20
8271.479246882597
 30
0.0
 11
8811.872592415282
 21
8274.751839297879
 31
0.0
  0
LINE
  5
1FC52
330
747D
100
AcDbEntity
  8
細線
 48
50.0
100
AcDbLine
 10
8926.181556652643
 20
8074.751839297823
 30
0.0
 11
9008.599999999999
 21
8157.170282645177
 31
0.0
  0
LINE
  5
1FC53
330
747D
100
AcDbEntity
  8
細線
 48
50.0
100
AcDbLine
 10
8881.280276047297
 20
8074.751839297823
 30
0.0
 11
9008.599999999999
 21
8202.071563250523
 31
0.0
  0
LINE
  5
1FC54
330
747D
100
AcDbEntity
  8
部品1
 48
50.0
100
AcDbLine
 10
9008.599999999999
 20
8074.751839297828
 30
0.0
 11
9008.599999999999
 21
8274.751839297879
 31
0.0
  0
LINE
  5
1FC55
330
747D
100
AcDbEntity
  8
細線
 48
50.0
100
AcDbLine
 10
8971.082837257993
 20
8074.751839297828
 30
0.0
 11
9008.599999999999
 21
8112.269002039834
 31
0.0
  0
LINE
  5
1FC56
330
747D
100
AcDbEntity
  8
センター
 48
2.0
100
AcDbLine
 10
9475.6
 20
8201.751839297878
 30
0.0
 11
9475.6
 21
8101.751839297879
 31
0.0
  0
CIRCLE
  5
1FC57
330
747D
100
AcDbEntity
  8
部品1
 48
50.0
100
AcDbCircle
 10
9475.6
 20
8151.751839297878
 30
0.0
 40
35.0
  0
LINE
  5
1FC58
330
747D
100
AcDbEntity
  8
センター
 48
2.0
100
AcDbLine
 10
9425.600000000001
 20
8151.751839297878
 30
0.0
 11
9525.6
 21
8151.751839297878
 31
0.0
  0
DIMENSION
  5
1FC59
330
747D
100
AcDbEntity
  8
寸法
 48
50.0
100
AcDbDimension
  2
*D35
 10
10848.6
 20
7332.074069291649
 30
0.0
 11
11238.65905511811
 21
7332.074069291649
 31
0.0
 70
   160
 71
     5
 42
120.0
  3
INABA_S40G
100
AcDbAlignedDimension
 13
10968.6
 23
7199.782736792029
 33
0.0
 14
10848.6
 24
7199.782736792029
 34
0.0
100
AcDbRotatedDimension
1001
ACAD
1000
DSTYLE
1002
{
1070
   341
1005
0
1002
}
  0
LINE
  5
1FC5B
102
{ACAD_REACTORS
330
23397
102
}
330
747D
100
AcDbEntity
  8
部品1
 48
50.0
100
AcDbLine
 10
10968.6
 20
5634.751839297898
 30
0.0
 11
10968.6
 21
8274.751839297879
 31
0.0
  0
LINE
  5
1FC5C
102
{ACAD_REACTORS
330
23397
102
}
330
747D
100
AcDbEntity
  8
部品1
 48
50.0
100
AcDbLine
 10
11013.6
 20
7054.751839297887
 30
0.0
 11
10848.6
 21
7054.751839297885
 31
0.0
  0
LINE
  5
1FC5D
102
{ACAD_REACTORS
330
23397
102
}
330
747D
100
AcDbEntity
  8
部品1
 48
50.0
100
AcDbLine
 10
10968.6
 20
6854.751839297887
 30
0.0
 11
10848.6
 21
6854.751839297889
 31
0.0
  0
LINE
  5
1FC5F
330
747D
100
AcDbEntity
  8
細線
 48
50.0
100
AcDbLine
 10
10283.6148523917
 20
5634.75183929789
 30
0.0
 11
10378.60000000002
 21
5729.736986906205
 31
0.0
  0
LINE
  5
1FC60
330
747D
100
AcDbEntity
  8
細線
 48
50.0
100
AcDbLine
 10
10238.71357178635
 20
5634.751839297886
 30
0.0
 11
10378.60000000002
 21
5774.638267511551
 31
0.0
  0
LINE
  5
1FC61
330
747D
100
AcDbEntity
  8
細線
 48
50.0
100
AcDbLine
 10
10193.81229118101
 20
5634.751839297886
 30
0.0
 11
10378.60000000002
 21
5819.539548116897
 31
0.0
  0
LINE
  5
1FC62
330
747D
100
AcDbEntity
  8
細線
 48
50.0
100
AcDbLine
 10
10178.60000000001
 20
5664.44082872224
 30
0.0
 11
10378.60000000002
 21
5864.440828722242
 31
0.0
  0
LINE
  5
1FC63
330
747D
100
AcDbEntity
  8
細線
 48
50.0
100
AcDbLine
 10
10178.60000000002
 20
5709.342109327588
 30
0.0
 11
10378.60000000002
 21
5909.342109327589
 31
0.0
  0
LINE
  5
1FC64
330
747D
100
AcDbEntity
  8
部品1
 48
50.0
100
AcDbLine
 10
10378.60000000002
 20
5634.751839297894
 30
0.0
 11
10378.60000000002
 21
5914.751839297894
 31
0.0
  0
LINE
  5
1FC65
330
747D
100
AcDbEntity
  8
部品1
 48
50.0
100
AcDbLine
 10
10178.60000000001
 20
5634.751839297894
 30
0.0
 11
10178.60000000002
 21
5914.751839297894
 31
0.0
  0
LINE
  5
1FC66
330
747D
100
AcDbEntity
  8
細線
 48
50.0
100
AcDbLine
 10
10373.4174136024
 20
5634.751839297894
 30
0.0
 11
10378.60000000002
 21
5639.934425695513
 31
0.0
  0
LINE
  5
1FC67
330
747D
100
AcDbEntity
  8
細線
 48
50.0
100
AcDbLine
 10
10328.51613299705
 20
5634.751839297892
 30
0.0
 11
10378.60000000002
 21
5684.835706300858
 31
0.0
  0
LINE
  5
1FC68
330
747D
100
AcDbEntity
  8
細線
 48
50.0
100
AcDbLine
 10
10178.60000000001
 20
5754.243389932932
 30
0.0
 11
10339.10844936498
 21
5914.751839297894
 31
0.0
  0
LINE
  5
1FC69
330
747D
100
AcDbEntity
  8
細線
 48
50.0
100
AcDbLine
 10
10178.60000000001
 20
5799.144670538278
 30
0.0
 11
10294.20716875967
 21
5914.751839297894
 31
0.0
  0
LINE
  5
1FC6A
330
747D
100
AcDbEntity
  8
細線
 48
50.0
100
AcDbLine
 10
10178.60000000001
 20
5844.045951143624
 30
0.0
 11
10249.30588815429
 21
5914.751839297897
 31
0.0
  0
LINE
  5
1FC6B
330
747D
100
AcDbEntity
  8
細線
 48
50.0
100
AcDbLine
 10
10178.60000000001
 20
5888.94723174897
 30
0.0
 11
10204.40460754895
 21
5914.751839297895
 31
0.0
  0
LINE
  5
1FC6C
330
747D
100
AcDbEntity
  8
センター
 48
2.0
100
AcDbLine
 10
10795.6
 20
5832.75183929788
 30
0.0
 11
10895.6
 21
5832.75183929788
 31
0.0
  0
CIRCLE
  5
1FC6D
330
747D
100
AcDbEntity
  8
部品1
 48
50.0
100
AcDbCircle
 10
10845.60000000001
 20
5832.75183929788
 30
0.0
 40
35.0
  0
LINE
  5
1FC6E
330
747D
100
AcDbEntity
  8
センター
 48
2.0
100
AcDbLine
 10
10845.60000000001
 20
5882.751839297881
 30
0.0
 11
10845.60000000001
 21
5782.751839297881
 31
0.0
  0
DIMENSION
  5
1FC6F
330
747D
100
AcDbEntity
  8
寸法
 48
50.0
100
AcDbDimension
  2
*D36
 10
10845.6
 20
8957.360655968125
 30
0.0
 11
11241.7066017178
 21
8957.360655968125
 31
0.0
 70
   160
 71
     5
 42
123.0
  3
INABA_S40G
100
AcDbAlignedDimension
 13
10968.6
 23
8274.751839297879
 33
0.0
 14
10845.6
 24
8201.751839297878
 34
0.0
100
AcDbRotatedDimension
1001
ACAD
1000
DSTYLE
1002
{
1070
   341
1005
0
1002
}
  0
LINE
  5
1FC70
330
747D
100
AcDbEntity
  8
部品1
 48
50.0
100
AcDbLine
 10
10378.6
 20
8074.751839297864
 30
0.0
 11
10378.6
 21
8274.751839297879
 31
0.0
  0
LINE
  5
1FC71
330
747D
100
AcDbEntity
  8
細線
 48
50.0
100
AcDbLine
 10
10296.18155665269
 20
8074.751839297864
 30
0.0
 11
10378.6
 21
8157.170282645177
 31
0.0
  0
LINE
  5
1FC72
330
747D
100
AcDbEntity
  8
細線
 48
50.0
100
AcDbLine
 10
10251.28027604734
 20
8074.751839297864
 30
0.0
 11
10378.6
 21
8202.071563250523
 31
0.0
  0
LINE
  5
1FC73
330
747D
100
AcDbEntity
  8
細線
 48
50.0
100
AcDbLine
 10
10206.37899544199
 20
8074.75183929786
 30
0.0
 11
10378.6
 21
8246.972843855868
 31
0.0
  0
LINE
  5
1FC74
330
747D
100
AcDbEntity
  8
細線
 48
50.0
100
AcDbLine
 10
10178.6
 20
8091.874124461218
 30
0.0
 11
10361.47771483666
 21
8274.751839297879
 31
0.0
  0
LINE
  5
1FC75
330
747D
100
AcDbEntity
  8
細線
 48
50.0
100
AcDbLine
 10
10178.6
 20
8136.775405066561
 30
0.0
 11
10316.57643423132
 21
8274.751839297879
 31
0.0
  0
LINE
  5
1FC76
330
747D
100
AcDbEntity
  8
部品1
 48
50.0
100
AcDbLine
 10
10178.6
 20
8074.75183929786
 30
0.0
 11
10178.6
 21
8274.751839297879
 31
0.0
  0
LINE
  5
1FC77
330
747D
100
AcDbEntity
  8
細線
 48
50.0
100
AcDbLine
 10
10341.08283725803
 20
8074.75183929786
 30
0.0
 11
10378.6
 21
8112.269002039834
 31
0.0
  0
LINE
  5
1FC78
330
747D
100
AcDbEntity
  8
細線
 48
50.0
100
AcDbLine
 10
10178.6
 20
8181.676685671904
 30
0.0
 11
10271.67515362597
 21
8274.751839297879
 31
0.0
  0
LINE
  5
1FC79
330
747D
100
AcDbEntity
  8
細線
 48
50.0
100
AcDbLine
 10
10178.6
 20
8226.577966277252
 30
0.0
 11
10226.77387302062
 21
8274.751839297879
 31
0.0
  0
LINE
  5
1FC7A
330
747D
100
AcDbEntity
  8
細線
 48
50.0
100
AcDbLine
 10
10178.6
 20
8271.479246882597
 30
0.0
 11
10181.87259241528
 21
8274.751839297879
 31
0.0
  0
LINE
  5
1FC7B
330
747D
100
AcDbEntity
  8
センター
 48
2.0
100
AcDbLine
 10
10845.6
 20
8201.751839297878
 30
0.0
 11
10845.6
 21
8101.751839297879
 31
0.0
  0
CIRCLE
  5
1FC7C
330
747D
100
AcDbEntity
  8
部品1
 48
50.0
100
AcDbCircle
 10
10845.6
 20
8151.751839297878
 30
0.0
 40
35.0
  0
LINE
  5
1FC7D
330
747D
100
AcDbEntity
  8
センター
 48
2.0
100
AcDbLine
 10
10795.6
 20
8151.751839297878
 30
0.0
 11
10895.6
 21
8151.751839297878
 31
0.0
  0
LEADER
  5
202B8
330
747D
100
AcDbEntity
  8
寸法
 48
50.0
100
AcDbLeader
  3
INABA_S50G
 73
     0
 74
     0
 75
     1
 40
120.0
 41
149.591883092037
 76
     3
 10
8271.424765008516
 20
6521.349292865899
 30
0.0
 10
8397.269739003663
 20
6260.335379298066
 30
0.0
 10
8522.269739003663
 20
6260.335379298066
 30
0.0
340
202B9
213
49.59188309203728
223
0.0
233
0.0
1001
ACAD
1000
DSTYLE
1002
{
1070
   341
1005
0
1070
    40
1040
1.0
1070
   343
1005
0
1070
   344
1005
0
1002
}
  0
MTEXT
  5
202B9
102
{ACAD_REACTORS
330
202B8
102
}
330
747D
100
AcDbEntity
  8
部品1
 62
     7
 48
50.0
100
AcDbMText
 10
8647.269739003663
 20
6345.335379298067
 30
0.0
 40
120.0
 41
0.0
 71
     6
 72
     1
  1
CB
  7
STYLE1
 73
     1
 44
1.0
1001
ACAD
1000
MTEXTBEGIN
1070
    73
1070
     1
1070
    44
1040
1.0
1070
    74
1070
     0
1000
MTEXTEND
  0
LEADER
  5
202BB
330
747D
100
AcDbEntity
  8
寸法
 48
50.0
100
AcDbLeader
  3
INABA_S50G
 73
     0
 74
     0
 75
     1
 40
120.0
 41
994.3492424049171
 76
     3
 10
10845.68008575699
 20
8151.765562494093
 30
0.0
 10
11039.64450095955
 20
8681.0121926092
 30
0.0
 10
11164.64450095955
 20
8681.0121926092
 30
0.0
340
202BC
1001
ACAD
1000
DSTYLE
1002
{
1070
   341
1005
0
1070
    40
1040
1.0
1070
   343
1005
0
1070
   344
1005
0
1002
}
  0
MTEXT
  5
202BC
102
{ACAD_REACTORS
330
202BB
102
}
330
747D
100
AcDbEntity
  8
部品1
 62
     7
 48
50.0
100
AcDbMText
 10
12183.99374336447
 20
8766.012192609201
 30
0.0
 40
120.0
 41
0.0
 71
     6
 72
     1
  1
アンカーボルト
  7
STYLE1
 73
     1
 44
1.0
1001
ACAD
1000
MTEXTBEGIN
1070
    73
1070
     1
1070
    44
1040
1.0
1070
    74
1070
     0
1000
MTEXTEND
  0
LINE
  5
202BD
330
747D
100
AcDbEntity
  8
想像線
 48
10.0
100
AcDbLine
 10
11013.6
 20
8349.751839297878
 30
0.0
 11
7516.058182852262
 21
8349.751839297878
 31
0.0
  0
LINE
  5
202BE
330
747D
100
AcDbEntity
  8
想像線
 48
10.0
100
AcDbLine
 10
11013.6
 20
5579.751839297901
 30
0.0
 11
7027.632446289818
 21
5579.751839297894
 31
0.0
  0
LINE
  5
202BF
330
747D
100
AcDbEntity
  8
想像線
 48
10.0
100
AcDbLine
 10
5433.600000000001
 20
5579.75183929789
 30
0.0
 11
5433.600000000001
 21
8349.751839297882
 31
0.0
  0
LINE
  5
202C0
330
747D
100
AcDbEntity
  8
想像線
 48
10.0
100
AcDbLine
 10
11013.6
 20
5579.751839297901
 30
0.0
 11
11013.6
 21
8349.751839297878
 31
0.0
  0
DIMENSION
  5
202C8
330
747D
100
AcDbEntity
  8
寸法
 48
50.0
100
AcDbDimension
  2
*D37
 10
11013.6
 20
9432.972161356799
 30
0.0
 11
11284.77462120246
 21
9432.972161356799
 31
0.0
 70
   160
  1
a
 71
     5
 42
45.0
  3
INABA_S40G
100
AcDbAlignedDimension
 13
10968.6
 23
8274.751839297879
 33
0.0
 14
11013.6
 24
8957.360655968125
 34
0.0
100
AcDbRotatedDimension
1001
ACAD
1000
DSTYLE
1002
{
1070
   341
1005
0
1002
}
  0
TEXT
  5
202EB
330
747D
100
AcDbEntity
  8
寸法
 48
50.0
100
AcDbText
 10
8418.310648592354
 20
5666.41202665679
 30
0.0
 40
96.0
  1
扉面
  7
STYLE1
100
AcDbText
  0
LEADER
  5
202FA
330
747D
100
AcDbEntity
  8
寸法
 48
50.0
100
AcDbLeader
  3
INABA_S50G
 73
     0
 74
     0
 75
     1
 40
120.0
 41
672.0
 76
     3
 10
10297.05913284934
 20
5579.542111223121
 30
0.0
 10
10412.99914504139
 20
5320.652767759545
 30
0.0
 10
10537.99914504139
 20
5320.652767759545
 30
0.0
340
202FB
1001
ACAD
1000
DSTYLE
1002
{
1070
   341
1005
0
1070
    40
1040
1.0
1070
   343
1005
0
1070
   344
1005
0
1002
}
  0
MTEXT
  5
202FB
102
{ACAD_REACTORS
330
202FA
102
}
330
747D
100
AcDbEntity
  8
部品1
 62
     7
 48
50.0
100
AcDbMText
 10
11234.99914504139
 20
5405.652767759545
 30
0.0
 40
120.0
 41
0.0
 71
     6
 72
     1
  1
\A1;屋根の外寸
  7
STYLE1
 73
     1
 44
1.0
1001
ACAD
1000
MTEXTBEGIN
1070
    73
1070
     1
1070
    44
1040
1.0
1070
    74
1070
     0
1000
MTEXTEND
  0
TEXT
  5
202FC
330
747D
100
AcDbEntity
  8
部品1
 48
50.0
100
AcDbText
 10
10437.21194905278
 20
5226.342080826469
 30
0.0
 40
80.0
  1
※a,b,cは屋根の出幅です。
  7
STYLE1
100
AcDbText
  0
TEXT
  5
202FD
330
747D
100
AcDbEntity
  8
部品1
 48
50.0
100
AcDbText
 10
10595.79095780708
 20
5119.496859957716
 30
0.0
 40
80.0
  1
(a=45,b=55,c=75)
  7
STYLE1
100
AcDbText
  0
MTEXT
  5
202FE
102
{ACAD_REACTORS
330
202FF
102
}
330
747D
100
AcDbEntity
  8
部品1
 62
     7
 48
50.0
100
AcDbMText
 10
11995.46907400127
 20
6773.726541603193
 30
0.0
 40
120.0
 41
0.0
 71
     6
 72
     1
  1
\A1;床下換気口
  7
STYLE1
 73
     1
 44
1.0
1001
ACAD
1000
MTEXTBEGIN
1070
    73
1070
     1
1070
    44
1040
1.0
1070
    74
1070
     0
1000
MTEXTEND
  0
LEADER
  5
202FF
330
747D
100
AcDbEntity
  8
寸法
 48
50.0
100
AcDbLeader
  3
INABA_S50G
 73
     0
 74
     0
 75
     1
 40
120.0
 41
720.0000000000001
 76
     3
 10
10968.69549961499
 20
6949.740455171026
 30
0.0
 10
11125.46907400127
 20
6688.726541603194
 30
0.0
 10
11250.46907400127
 20
6688.726541603194
 30
0.0
340
202FE
1001
ACAD
1000
DSTYLE
1002
{
1070
   341
1005
0
1070
    40
1040
1.0
1070
   343
1005
0
1070
   344
1005
0
1002
}
  0
DIMENSION
  5
2030F
330
747D
100
AcDbEntity
  8
寸法
 48
50.0
100
AcDbDimension
  2
*D38
 10
4342.144256711883
 20
8274.751839297881
 30
0.0
 11
4242.144256711882
 21
8312.251839297882
 31
0.0
 70
    32
  1
c
 71
     5
 42
75.00000000000182
  3
INABA_S40G
100
AcDbAlignedDimension
 13
4594.087353431279
 23
8349.751839297882
 33
0.0
 14
5478.599999999999
 24
8274.751839297881
 34
0.0
 50
90.0
100
AcDbRotatedDimension
1001
ACAD
1000
DSTYLE
1002
{
1070
   341
1005
0
1002
}
  0
DIMENSION
  5
20311
330
747D
100
AcDbEntity
  8
寸法
 48
50.0
100
AcDbDimension
  2
*D39
 10
5478.599999999999
 20
9432.972161356799
 30
0.0
 11
5162.425378797541
 21
9432.972161356799
 31
0.0
 70
   160
  1
a
 71
     5
 42
44.99999999999727
  3
INABA_S40G
100
AcDbAlignedDimension
 13
5433.600000000001
 23
8957.360655968125
 33
0.0
 14
5478.599999999999
 24
8274.751839297881
 34
0.0
100
AcDbRotatedDimension
1001
ACAD
1000
DSTYLE
1002
{
1070
   341
1005
0
1002
}
  0
DIMENSION
  5
2031B
330
747D
100
AcDbEntity
  8
寸法
 48
50.0
100
AcDbDimension
  2
*D40
 10
4342.144256711883
 20
5579.75183929789
 30
0.0
 11
4242.144256711882
 21
5607.251839297886
 31
0.0
 70
    32
  1
b
 71
     5
 42
54.99999999998909
  3
INABA_S40G
100
AcDbAlignedDimension
 13
5478.6
 23
5634.751839297879
 33
0.0
 14
4594.087353431281
 24
5579.75183929789
 34
0.0
 50
90.0
100
AcDbRotatedDimension
1001
ACAD
1000
DSTYLE
1002
{
1070
   341
1005
0
1002
}
  0
LINE
  5
2073A
330
747D
100
AcDbEntity
  8
センター
 48
2.0
100
AcDbLine
 10
5651.600000000001
 20
8151.751839297878
 30
0.0
 11
5551.6
 21
8151.751839297878
 31
0.0
  0
CIRCLE
  5
2073B
330
747D
100
AcDbEntity
  8
部品1
 48
50.0
100
AcDbCircle
 10
5601.600000000001
 20
8151.751839297878
 30
0.0
 40
35.0
  0
LINE
  5
2073C
330
747D
100
AcDbEntity
  8
センター
 48
2.0
100
AcDbLine
 10
5601.600000000001
 20
8201.751839297878
 30
0.0
 11
5601.600000000001
 21
8101.751839297879
 31
0.0
  0
LINE
  5
20749
330
747D
100
AcDbEntity
  8
センター
 48
2.0
100
AcDbLine
 10
5601.599999999994
 20
5882.751839297881
 30
0.0
 11
5601.599999999994
 21
5782.751839297881
 31
0.0
  0
CIRCLE
  5
2074A
330
747D
100
AcDbEntity
  8
部品1
 48
50.0
100
AcDbCircle
 10
5601.599999999994
 20
5832.75183929788
 30
0.0
 40
35.0
  0
LINE
  5
2074B
330
747D
100
AcDbEntity
  8
センター
 48
2.0
100
AcDbLine
 10
5651.599999999993
 20
5832.75183929788
 30
0.0
 11
5551.599999999993
 21
5832.75183929788
 31
0.0
  0
LINE
  5
2075A
102
{ACAD_REACTORS
330
2331A
102
}
330
747D
100
AcDbEntity
  8
部品1
 48
50.0
100
AcDbLine
 10
5478.6
 20
6854.751839297887
 30
0.0
 11
5598.6
 21
6854.751839297889
 31
0.0
  0
LINE
  5
2075B
102
{ACAD_REACTORS
330
2331A
102
}
330
747D
100
AcDbEntity
  8
部品1
 48
50.0
100
AcDbLine
 10
5478.6
 20
7054.751839297887
 30
0.0
 11
5598.6
 21
7054.751839297889
 31
0.0
  0
LINE
  5
20A63
330
747D
100
AcDbEntity
  8
センター
 48
2.0
100
AcDbLine
 10
6685.6
 20
8151.751839297878
 30
0.0
 11
6785.600000000001
 21
8151.751839297878
 31
0.0
  0
LINE
  5
20A64
330
747D
100
AcDbEntity
  8
センター
 48
2.0
100
AcDbLine
 10
6735.600000000001
 20
8201.751839297878
 30
0.0
 11
6735.600000000001
 21
8101.751839297879
 31
0.0
  0
CIRCLE
  5
20A65
330
747D
100
AcDbEntity
  8
部品1
 48
50.0
100
AcDbCircle
 10
6735.600000000001
 20
8151.751839297878
 30
0.0
 40
35.0
  0
LINE
  5
20A66
330
747D
100
AcDbEntity
  8
センター
 48
2.0
100
AcDbLine
 10
6735.600000000008
 20
5882.751839297881
 30
0.0
 11
6735.600000000008
 21
5782.751839297881
 31
0.0
  0
CIRCLE
  5
20A67
330
747D
100
AcDbEntity
  8
部品1
 48
50.0
100
AcDbCircle
 10
6735.600000000008
 20
5832.75183929788
 30
0.0
 40
35.0
  0
LINE
  5
20A68
330
747D
100
AcDbEntity
  8
センター
 48
2.0
100
AcDbLine
 10
6685.600000000007
 20
5832.75183929788
 30
0.0
 11
6785.600000000008
 21
5832.75183929788
 31
0.0
  0
MTEXT
  5
20A84
330
747D
100
AcDbEntity
  8
寸法
 62
     7
 48
50.0
100
AcDbMText
 10
7073.083685065679
 20
9051.563101353968
 30
0.0
 40
120.0
 41
0.0
 71
     5
 72
     1
  1
\A1;1370
  7
STYLE1
 73
     1
 44
1.0
1001
ACAD
1000
MTEXTBEGIN
1070
    73
1070
     1
1070
    44
1040
1.0
1070
    74
1070
     0
1000
MTEXTEND
  0
MTEXT
  5
20A85
330
747D
100
AcDbEntity
  8
寸法
 62
     7
 48
50.0
100
AcDbMText
 10
7857.368100093373
 20
9051.563101353968
 30
0.0
 40
120.0
 41
0.0
 71
     5
 72
     1
  1
\A1;1370
  7
STYLE1
 73
     1
 44
1.0
1001
ACAD
1000
MTEXTBEGIN
1070
    73
1070
     1
1070
    44
1040
1.0
1070
    74
1070
     0
1000
MTEXTEND
  0
MTEXT
  5
20A86
330
747D
100
AcDbEntity
  8
寸法
 62
     7
 48
50.0
100
AcDbMText
 10
7943.344182203322
 20
9301.097030291522
 30
0.0
 40
120.0
 41
0.0
 71
     5
 72
     1
  1
\A1;1370
  7
STYLE1
 73
     1
 44
1.0
1001
ACAD
1000
MTEXTBEGIN
1070
    73
1070
     1
1070
    44
1040
1.0
1070
    74
1070
     0
1000
MTEXTEND
  0
MTEXT
  5
20A87
330
747D
100
AcDbEntity
  8
寸法
 62
     7
 48
50.0
100
AcDbMText
 10
7113.347392479322
 20
9301.097030291522
 30
0.0
 40
120.0
 41
0.0
 71
     5
 72
     1
  1
\A1;1370
  7
STYLE1
 73
     1
 44
1.0
1001
ACAD
1000
MTEXTBEGIN
1070
    73
1070
     1
1070
    44
1040
1.0
1070
    74
1070
     0
1000
MTEXTEND
  0
LINE
  5
20A88
330
747D
100
AcDbEntity
  8
細線
 48
50.0
100
AcDbLine
 10
7601.082837257992
 20
8074.751839297828
 30
0.0
 11
7638.600000000001
 21
8112.269002039834
 31
0.0
  0
LINE
  5
20A89
330
747D
100
AcDbEntity
  8
部品1
 48
50.0
100
AcDbLine
 10
7638.600000000001
 20
8074.751839297828
 30
0.0
 11
7638.600000000001
 21
8274.751839297879
 31
0.0
  0
LINE
  5
20A8A
330
747D
100
AcDbEntity
  8
細線
 48
50.0
100
AcDbLine
 10
7511.280276047298
 20
8074.751839297823
 30
0.0
 11
7638.600000000001
 21
8202.071563250523
 31
0.0
  0
LINE
  5
20A8B
330
747D
100
AcDbEntity
  8
細線
 48
50.0
100
AcDbLine
 10
7556.181556652643
 20
8074.751839297823
 30
0.0
 11
7638.600000000001
 21
8157.170282645177
 31
0.0
  0
LINE
  5
20A8C
330
747D
100
AcDbEntity
  8
細線
 48
50.0
100
AcDbLine
 10
7438.6
 20
8271.479246882597
 30
0.0
 11
7441.872592415281
 21
8274.751839297879
 31
0.0
  0
LINE
  5
20A8E
330
747D
100
AcDbEntity
  8
細線
 48
50.0
100
AcDbLine
 10
7438.6
 20
8226.577966277249
 30
0.0
 11
7486.773873020627
 21
8274.751839297881
 31
0.0
  0
LINE
  5
20A8F
330
747D
100
AcDbEntity
  8
細線
 48
50.0
100
AcDbLine
 10
7438.6
 20
8181.676685671904
 30
0.0
 11
7459.675353590728
 21
8202.75203926263
 31
0.0
  0
LINE
  5
20A90
330
747D
100
AcDbEntity
  8
細線
 48
50.0
100
AcDbLine
 10
7438.6
 20
8136.775405066558
 30
0.0
 11
7576.57643423132
 21
8274.751839297879
 31
0.0
  0
LINE
  5
20A91
330
747D
100
AcDbEntity
  8
細線
 48
50.0
100
AcDbLine
 10
7438.599999999998
 20
8091.874124461211
 30
0.0
 11
7621.477714836665
 21
8274.751839297879
 31
0.0
  0
LINE
  5
20A92
330
747D
100
AcDbEntity
  8
細線
 48
50.0
100
AcDbLine
 10
7466.378995441918
 20
8074.751839297787
 30
0.0
 11
7638.600000000001
 21
8246.972843855868
 31
0.0
  0
LINE
  5
20A93
330
747D
100
AcDbEntity
  8
細線
 48
50.0
100
AcDbLine
 10
7588.51613299705
 20
5634.751839297892
 30
0.0
 11
7638.600000000018
 21
5684.835706300858
 31
0.0
  0
LINE
  5
20A94
330
747D
100
AcDbEntity
  8
細線
 48
50.0
100
AcDbLine
 10
7633.417413602399
 20
5634.751839297894
 30
0.0
 11
7638.600000000018
 21
5639.934425695513
 31
0.0
  0
LINE
  5
20A95
330
747D
100
AcDbEntity
  8
部品1
 48
50.0
100
AcDbLine
 10
7638.600000000017
 20
5634.751839297894
 30
0.0
 11
7638.600000000021
 21
5914.751839297892
 31
0.0
  0
LINE
  5
20A96
330
747D
100
AcDbEntity
  8
細線
 48
50.0
100
AcDbLine
 10
7498.713571786355
 20
5634.751839297886
 30
0.0
 11
7638.600000000018
 21
5774.638267511551
 31
0.0
  0
LINE
  5
20A97
330
747D
100
AcDbEntity
  8
細線
 48
50.0
100
AcDbLine
 10
7543.614852391705
 20
5634.75183929789
 30
0.0
 11
7638.600000000018
 21
5729.736986906205
 31
0.0
  0
LINE
  5
20A98
330
747D
100
AcDbEntity
  8
細線
 48
50.0
100
AcDbLine
 10
7438.600000000016
 20
5888.94723174897
 30
0.0
 11
7464.404607548935
 21
5914.751839297892
 31
0.0
  0
LINE
  5
20A99
330
747D
100
AcDbEntity
  8
部品1
 48
50.0
100
AcDbLine
 10
7438.600000000016
 20
5634.751839297894
 30
0.0
 11
7438.600000000022
 21
5914.751839297892
 31
0.0
  0
LINE
  5
20A9A
330
747D
100
AcDbEntity
  8
細線
 48
50.0
100
AcDbLine
 10
7438.600000000016
 20
5799.144670538278
 30
0.0
 11
7554.207168759614
 21
5914.75183929789
 31
0.0
  0
LINE
  5
20A9B
330
747D
100
AcDbEntity
  8
細線
 48
50.0
100
AcDbLine
 10
7438.600000000016
 20
5754.243389932932
 30
0.0
 11
7599.10844936498
 21
5914.751839297892
 31
0.0
  0
LINE
  5
20A9C
330
747D
100
AcDbEntity
  8
細線
 48
50.0
100
AcDbLine
 10
7438.600000000018
 20
5709.342109327588
 30
0.0
 11
7638.600000000021
 21
5909.342109327591
 31
0.0
  0
LINE
  5
20A9D
330
747D
100
AcDbEntity
  8
細線
 48
50.0
100
AcDbLine
 10
7438.600000000018
 20
5664.44082872224
 30
0.0
 11
7638.600000000018
 21
5864.440828722244
 31
0.0
  0
LINE
  5
20A9E
330
747D
100
AcDbEntity
  8
細線
 48
50.0
100
AcDbLine
 10
7453.812291181008
 20
5634.751839297886
 30
0.0
 11
7638.600000000021
 21
5819.5395481169
 31
0.0
  0
LINE
  5
20A9F
330
747D
100
AcDbEntity
  8
細線
 48
50.0
100
AcDbLine
 10
7438.600000000016
 20
5844.045951143624
 30
0.0
 11
7509.305888154284
 21
5914.751839297892
 31
0.0
  0
LINE
  5
20AA1
330
747D
100
AcDbEntity
  8
細線
 48
50.0
100
AcDbLine
 10
6068.600000000017
 20
5844.045951143624
 30
0.0
 11
6139.305888154284
 21
5914.751839297892
 31
0.0
  0
LINE
  5
20AA2
330
747D
100
AcDbEntity
  8
細線
 48
50.0
100
AcDbLine
 10
6083.812291181008
 20
5634.751839297886
 30
0.0
 11
6268.60000000002
 21
5819.5395481169
 31
0.0
  0
LINE
  5
20AA3
330
747D
100
AcDbEntity
  8
細線
 48
50.0
100
AcDbLine
 10
6068.600000000018
 20
5664.44082872224
 30
0.0
 11
6268.600000000018
 21
5864.440828722244
 31
0.0
  0
LINE
  5
20AA4
330
747D
100
AcDbEntity
  8
細線
 48
50.0
100
AcDbLine
 10
6068.600000000018
 20
5709.342109327588
 30
0.0
 11
6268.60000000002
 21
5909.342109327591
 31
0.0
  0
LINE
  5
20AA5
330
747D
100
AcDbEntity
  8
細線
 48
50.0
100
AcDbLine
 10
6068.600000000017
 20
5754.243389932932
 30
0.0
 11
6229.108449364979
 21
5914.751839297892
 31
0.0
  0
LINE
  5
20AA6
330
747D
100
AcDbEntity
  8
細線
 48
50.0
100
AcDbLine
 10
6068.600000000017
 20
5799.144670538278
 30
0.0
 11
6184.207168759613
 21
5914.75183929789
 31
0.0
  0
LINE
  5
20AA7
330
747D
100
AcDbEntity
  8
部品1
 48
50.0
100
AcDbLine
 10
6068.600000000017
 20
5634.751839297894
 30
0.0
 11
6068.600000000022
 21
5914.751839297892
 31
0.0
  0
LINE
  5
20AA8
330
747D
100
AcDbEntity
  8
細線
 48
50.0
100
AcDbLine
 10
6068.600000000017
 20
5888.94723174897
 30
0.0
 11
6094.404607548935
 21
5914.751839297892
 31
0.0
  0
LINE
  5
20AA9
330
747D
100
AcDbEntity
  8
細線
 48
50.0
100
AcDbLine
 10
6173.614852391706
 20
5634.75183929789
 30
0.0
 11
6268.600000000018
 21
5729.736986906205
 31
0.0
  0
LINE
  5
20AAA
330
747D
100
AcDbEntity
  8
細線
 48
50.0
100
AcDbLine
 10
6128.713571786355
 20
5634.751839297886
 30
0.0
 11
6268.600000000018
 21
5774.638267511551
 31
0.0
  0
LINE
  5
20AAB
330
747D
100
AcDbEntity
  8
部品1
 48
50.0
100
AcDbLine
 10
6268.600000000017
 20
5634.751839297894
 30
0.0
 11
6268.60000000002
 21
5914.751839297892
 31
0.0
  0
LINE
  5
20AAC
330
747D
100
AcDbEntity
  8
細線
 48
50.0
100
AcDbLine
 10
6263.417413602399
 20
5634.751839297894
 30
0.0
 11
6268.600000000018
 21
5639.934425695513
 31
0.0
  0
LINE
  5
20AAD
330
747D
100
AcDbEntity
  8
細線
 48
50.0
100
AcDbLine
 10
6218.51613299705
 20
5634.751839297892
 30
0.0
 11
6268.600000000018
 21
5684.835706300858
 31
0.0
  0
LINE
  5
20AAE
330
747D
100
AcDbEntity
  8
細線
 48
50.0
100
AcDbLine
 10
6096.378995441949
 20
8074.751839297821
 30
0.0
 11
6268.600000000001
 21
8246.972843855868
 31
0.0
  0
LINE
  5
20AAF
330
747D
100
AcDbEntity
  8
細線
 48
50.0
100
AcDbLine
 10
6068.6
 20
8091.874124461213
 30
0.0
 11
6251.477714836664
 21
8274.751839297879
 31
0.0
  0
LINE
  5
20AB0
330
747D
100
AcDbEntity
  8
細線
 48
50.0
100
AcDbLine
 10
6068.6
 20
8136.775405066561
 30
0.0
 11
6206.576434231319
 21
8274.751839297879
 31
0.0
  0
LINE
  5
20AB1
330
747D
100
AcDbEntity
  8
細線
 48
50.0
100
AcDbLine
 10
6068.6
 20
8181.676685671904
 30
0.0
 11
6161.675153625974
 21
8274.751839297879
 31
0.0
  0
LINE
  5
20AB2
330
747D
100
AcDbEntity
  8
細線
 48
50.0
100
AcDbLine
 10
6068.6
 20
8226.577966277252
 30
0.0
 11
6116.773873020627
 21
8274.751839297879
 31
0.0
  0
LINE
  5
20AB3
330
747D
100
AcDbEntity
  8
部品1
 48
50.0
100
AcDbLine
 10
6068.6
 20
8074.751839297821
 30
0.0
 11
6068.6
 21
8274.751839297879
 31
0.0
  0
LINE
  5
20AB4
330
747D
100
AcDbEntity
  8
細線
 48
50.0
100
AcDbLine
 10
6068.6
 20
8271.479246882597
 30
0.0
 11
6071.872592415281
 21
8274.751839297879
 31
0.0
  0
LINE
  5
20AB5
330
747D
100
AcDbEntity
  8
細線
 48
50.0
100
AcDbLine
 10
6186.181556652644
 20
8074.751839297823
 30
0.0
 11
6268.600000000001
 21
8157.170282645177
 31
0.0
  0
LINE
  5
20AB6
330
747D
100
AcDbEntity
  8
細線
 48
50.0
100
AcDbLine
 10
6141.280276047297
 20
8074.751839297823
 30
0.0
 11
6268.600000000001
 21
8202.071563250523
 31
0.0
  0
LINE
  5
20AB7
330
747D
100
AcDbEntity
  8
部品1
 48
50.0
100
AcDbLine
 10
6268.600000000001
 20
8074.751839297828
 30
0.0
 11
6268.600000000001
 21
8274.751839297879
 31
0.0
  0
LINE
  5
20AB8
330
747D
100
AcDbEntity
  8
細線
 48
50.0
100
AcDbLine
 10
6231.082837257993
 20
8074.751839297828
 30
0.0
 11
6268.600000000001
 21
8112.269002039834
 31
0.0
  0
LINE
  5
20AB9
330
747D
100
AcDbEntity
  8
細線
 48
50.0
100
AcDbLine
 10
7438.599999999998
 20
8181.676685671902
 30
0.0
 11
7531.675153625974
 21
8274.751839297879
 31
0.0
  0
LINE
  5
20ABA
330
747D
100
AcDbEntity
  8
部品1
 48
50.0
100
AcDbLine
 10
7438.6
 20
8083.227769601526
 30
0.0
 11
7438.6
 21
8274.751839297881
 31
0.0
  0
LINE
  5
20BB5
330
747D
100
AcDbEntity
  8
想像線
 48
10.0
100
AcDbLine
 10
6997.16964793324
 20
5579.751839297893
 30
0.0
 11
5433.600000000001
 21
5579.75183929789
 31
0.0
  0
LINE
  5
20BB7
330
747D
100
AcDbEntity
  8
想像線
 48
10.0
100
AcDbLine
 10
7485.595384495693
 20
8349.751839297882
 30
0.0
 11
5433.600000000001
 21
8349.751839297882
 31
0.0
  0
LINE
  5
21707
330
747D
100
AcDbEntity
  8
部品1
 48
50.0
100
AcDbLine
 10
10378.60000000001
 20
6489.751839297889
 30
0.0
 11
10378.60000000001
 21
6689.75183929789
 31
0.0
  0
LINE
  5
21708
330
747D
100
AcDbEntity
  8
部品1
 48
50.0
100
AcDbLine
 10
10178.60000000001
 20
6489.751839297889
 30
0.0
 11
10178.60000000001
 21
6689.75183929789
 31
0.0
  0
LINE
  5
21709
330
747D
100
AcDbEntity
  8
センター
 48
2.0
100
AcDbLine
 10
10278.60000000001
 20
6639.75183929789
 30
0.0
 11
10278.60000000001
 21
6539.751839297889
 31
0.0
  0
LINE
  5
2170A
330
747D
100
AcDbEntity
  8
部品1
 48
50.0
100
AcDbLine
 10
10378.60000000001
 20
6489.751839297889
 30
0.0
 11
10178.60000000001
 21
6489.751839297889
 31
0.0
  0
LINE
  5
2170B
330
747D
100
AcDbEntity
  8
部品1
 48
50.0
100
AcDbLine
 10
10378.60000000001
 20
6689.75183929789
 30
0.0
 11
10178.60000000001
 21
6689.75183929789
 31
0.0
  0
LINE
  5
2170C
330
747D
100
AcDbEntity
  8
センター
 48
2.0
100
AcDbLine
 10
10228.60000000001
 20
6589.751839297889
 30
0.0
 11
10328.60000000001
 21
6589.751839297889
 31
0.0
  0
LINE
  5
2170D
330
747D
100
AcDbEntity
  8
センター
 48
2.0
100
AcDbLine
 10
8858.600000000009
 20
6589.751839297889
 30
0.0
 11
8958.600000000009
 21
6589.751839297889
 31
0.0
  0
LINE
  5
2170E
330
747D
100
AcDbEntity
  8
センター
 48
2.0
100
AcDbLine
 10
8908.60000000001
 20
6639.75183929789
 30
0.0
 11
8908.60000000001
 21
6539.751839297889
 31
0.0
  0
LINE
  5
2170F
330
747D
100
AcDbEntity
  8
部品1
 48
50.0
100
AcDbLine
 10
9008.60000000001
 20
6489.751839297889
 30
0.0
 11
9008.60000000001
 21
6689.75183929789
 31
0.0
  0
LINE
  5
21710
330
747D
100
AcDbEntity
  8
部品1
 48
50.0
100
AcDbLine
 10
8808.60000000001
 20
6489.751839297889
 30
0.0
 11
8808.60000000001
 21
6689.75183929789
 31
0.0
  0
LINE
  5
21711
330
747D
100
AcDbEntity
  8
部品1
 48
50.0
100
AcDbLine
 10
9008.60000000001
 20
6489.751839297889
 30
0.0
 11
8808.60000000001
 21
6489.751839297889
 31
0.0
  0
LINE
  5
21712
330
747D
100
AcDbEntity
  8
部品1
 48
50.0
100
AcDbLine
 10
9008.60000000001
 20
6689.75183929789
 30
0.0
 11
8808.60000000001
 21
6689.75183929789
 31
0.0
  0
LINE
  5
21714
330
747D
100
AcDbEntity
  8
部品1
 48
50.0
100
AcDbLine
 10
7638.600000000008
 20
6689.75183929789
 30
0.0
 11
7438.600000000008
 21
6689.75183929789
 31
0.0
  0
LINE
  5
21715
330
747D
100
AcDbEntity
  8
部品1
 48
50.0
100
AcDbLine
 10
7638.600000000008
 20
6489.751839297889
 30
0.0
 11
7438.600000000008
 21
6489.751839297889
 31
0.0
  0
LINE
  5
21717
330
747D
100
AcDbEntity
  8
部品1
 48
50.0
100
AcDbLine
 10
7638.600000000008
 20
6489.751839297889
 30
0.0
 11
7638.600000000008
 21
6689.75183929789
 31
0.0
  0
LINE
  5
21718
330
747D
100
AcDbEntity
  8
センター
 48
2.0
100
AcDbLine
 10
7538.600000000008
 20
6639.75183929789
 30
0.0
 11
7538.600000000008
 21
6539.751839297889
 31
0.0
  0
LINE
  5
21719
330
747D
100
AcDbEntity
  8
センター
 48
2.0
100
AcDbLine
 10
7488.600000000008
 20
6589.751839297889
 30
0.0
 11
7588.600000000008
 21
6589.751839297889
 31
0.0
  0
LINE
  5
2171A
330
747D
100
AcDbEntity
  8
センター
 48
2.0
100
AcDbLine
 10
6118.600000000008
 20
6589.751839297889
 30
0.0
 11
6218.600000000009
 21
6589.751839297889
 31
0.0
  0
LINE
  5
2171B
330
747D
100
AcDbEntity
  8
センター
 48
2.0
100
AcDbLine
 10
6168.600000000008
 20
6639.75183929789
 30
0.0
 11
6168.600000000008
 21
6539.751839297889
 31
0.0
  0
LINE
  5
2171C
330
747D
100
AcDbEntity
  8
部品1
 48
50.0
100
AcDbLine
 10
6268.600000000009
 20
6489.751839297889
 30
0.0
 11
6268.600000000009
 21
6689.75183929789
 31
0.0
  0
LINE
  5
2171D
330
747D
100
AcDbEntity
  8
部品1
 48
50.0
100
AcDbLine
 10
6068.600000000008
 20
6489.751839297889
 30
0.0
 11
6068.600000000008
 21
6689.75183929789
 31
0.0
  0
LINE
  5
2171E
330
747D
100
AcDbEntity
  8
部品1
 48
50.0
100
AcDbLine
 10
6268.600000000009
 20
6489.751839297889
 30
0.0
 11
6068.600000000008
 21
6489.751839297889
 31
0.0
  0
LINE
  5
2171F
330
747D
100
AcDbEntity
  8
部品1
 48
50.0
100
AcDbLine
 10
6268.600000000009
 20
6689.75183929789
 30
0.0
 11
6068.600000000008
 21
6689.75183929789
 31
0.0
  0
DIMENSION
  5
21720
330
747D
100
AcDbEntity
  8
寸法
 48
50.0
100
AcDbDimension
  2
*D41
 10
6168.600000000008
 20
6291.84180572202
 30
0.0
 11
5823.600000000005
 21
6291.84180572202
 31
0.0
 70
   160
 71
     5
 42
690.0000000000073
  3
INABA_S40G
100
AcDbAlignedDimension
 13
5478.600000000001
 23
6462.865411084242
 33
0.0
 14
6168.600000000008
 24
6489.751839297889
 34
0.0
100
AcDbRotatedDimension
1001
ACAD
1000
DSTYLE
1002
{
1070
   341
1005
0
1002
}
  0
DIMENSION
  5
21742
330
747D
100
AcDbEntity
  8
寸法
 48
50.0
100
AcDbDimension
  2
*D42
 10
6853.600000000009
 20
6291.84180572202
 30
0.0
 11
6511.100000000009
 21
6291.84180572202
 31
0.0
 70
   160
 71
     5
 42
685.0
  3
INABA_S40G
100
AcDbAlignedDimension
 13
6168.600000000008
 23
6489.751839297889
 33
0.0
 14
6853.600000000009
 24
6489.751839297889
 34
0.0
100
AcDbRotatedDimension
1001
ACAD
1000
DSTYLE
1002
{
1070
   341
1005
0
1002
}
  0
DIMENSION
  5
2176E
330
747D
100
AcDbEntity
  8
寸法
 48
50.0
100
AcDbDimension
  2
*D43
 10
10968.6
 20
6291.84180572202
 30
0.0
 11
10611.16542468967
 21
6291.84180572202
 31
0.0
 70
   160
 71
     5
 42
689.9999999999927
  3
INABA_S40G
100
AcDbAlignedDimension
 13
10278.60000000001
 23
6489.751839297889
 33
0.0
 14
10968.6
 24
6462.865411084242
 34
0.0
100
AcDbRotatedDimension
1001
ACAD
1000
DSTYLE
1002
{
1070
   341
1005
0
1002
}
  0
DIMENSION
  5
21785
330
747D
100
AcDbEntity
  8
寸法
 48
50.0
100
AcDbDimension
  2
*D44
 10
10278.60000000001
 20
6291.84180572202
 30
0.0
 11
9959.541719262226
 21
6291.84180572202
 31
0.0
 70
   160
 71
     5
 42
685.0
  3
INABA_S40G
100
AcDbAlignedDimension
 13
9593.600000000009
 23
6489.751839297889
 33
0.0
 14
10278.60000000001
 24
6489.751839297889
 34
0.0
100
AcDbRotatedDimension
1001
ACAD
1000
DSTYLE
1002
{
1070
   341
1005
0
1002
}
  0
DIMENSION
  5
217D3
330
747D
100
AcDbEntity
  8
寸法
 48
50.0
100
AcDbDimension
  2
*D45
 10
9593.600000000009
 20
6291.84180572202
 30
0.0
 11
9265.801595782686
 21
6291.84180572202
 31
0.0
 70
   160
 71
     5
 42
685.0
  3
INABA_S40G
100
AcDbAlignedDimension
 13
8908.60000000001
 23
6489.751839297889
 33
0.0
 14
9593.600000000009
 24
6489.751839297889
 34
0.0
100
AcDbRotatedDimension
1001
ACAD
1000
DSTYLE
1002
{
1070
   341
1005
0
1002
}
  0
LINE
  5
220FB
330
747D
100
AcDbEntity
  8
部品1
 48
50.0
100
AcDbLine
 10
7438.600000000012
 20
6489.751839297891
 30
0.0
 11
7438.600000000008
 21
6689.75183929789
 31
0.0
  0
LINE
  5
227F2
330
747D
100
AcDbEntity
  8
センター
 48
2.0
100
AcDbLine
 10
9543.60000000001
 20
6589.751839297889
 30
0.0
 11
9643.600000000009
 21
6589.751839297889
 31
0.0
  0
LINE
  5
227F3
330
747D
100
AcDbEntity
  8
部品1
 48
50.0
100
AcDbLine
 10
9693.60000000001
 20
6689.75183929789
 30
0.0
 11
9493.600000000009
 21
6689.75183929789
 31
0.0
  0
LINE
  5
227F4
330
747D
100
AcDbEntity
  8
部品1
 48
50.0
100
AcDbLine
 10
9693.60000000001
 20
6489.751839297889
 30
0.0
 11
9493.600000000009
 21
6489.751839297889
 31
0.0
  0
LINE
  5
227F5
330
747D
100
AcDbEntity
  8
センター
 48
2.0
100
AcDbLine
 10
9593.600000000009
 20
6639.75183929789
 30
0.0
 11
9593.600000000009
 21
6539.751839297889
 31
0.0
  0
LINE
  5
227F6
330
747D
100
AcDbEntity
  8
部品1
 48
50.0
100
AcDbLine
 10
9493.600000000009
 20
6489.751839297889
 30
0.0
 11
9493.600000000009
 21
6689.75183929789
 31
0.0
  0
LINE
  5
227F7
330
747D
100
AcDbEntity
  8
部品1
 48
50.0
100
AcDbLine
 10
9693.60000000001
 20
6489.751839297889
 30
0.0
 11
9693.60000000001
 21
6689.75183929789
 31
0.0
  0
LINE
  5
2280A
330
747D
100
AcDbEntity
  8
部品1
 48
50.0
100
AcDbLine
 10
6953.600000000008
 20
6689.75183929789
 30
0.0
 11
6753.600000000009
 21
6689.75183929789
 31
0.0
  0
LINE
  5
2280B
330
747D
100
AcDbEntity
  8
部品1
 48
50.0
100
AcDbLine
 10
6953.600000000008
 20
6489.751839297889
 30
0.0
 11
6753.600000000009
 21
6489.751839297889
 31
0.0
  0
LINE
  5
2280C
330
747D
100
AcDbEntity
  8
部品1
 48
50.0
100
AcDbLine
 10
6753.600000000009
 20
6489.751839297889
 30
0.0
 11
6753.600000000009
 21
6689.75183929789
 31
0.0
  0
LINE
  5
2280D
330
747D
100
AcDbEntity
  8
部品1
 48
50.0
100
AcDbLine
 10
6953.600000000008
 20
6489.751839297889
 30
0.0
 11
6953.600000000008
 21
6689.75183929789
 31
0.0
  0
LINE
  5
2280E
330
747D
100
AcDbEntity
  8
センター
 48
2.0
100
AcDbLine
 10
6853.600000000009
 20
6639.75183929789
 30
0.0
 11
6853.600000000009
 21
6539.751839297889
 31
0.0
  0
LINE
  5
2280F
330
747D
100
AcDbEntity
  8
センター
 48
2.0
100
AcDbLine
 10
6803.600000000009
 20
6589.751839297889
 30
0.0
 11
6903.600000000008
 21
6589.751839297889
 31
0.0
  0
LINE
  5
22822
330
747D
100
AcDbEntity
  8
部品1
 48
50.0
100
AcDbLine
 10
8323.600000000009
 20
6689.75183929789
 30
0.0
 11
8123.600000000008
 21
6689.75183929789
 31
0.0
  0
LINE
  5
22823
330
747D
100
AcDbEntity
  8
部品1
 48
50.0
100
AcDbLine
 10
8323.600000000009
 20
6489.751839297889
 30
0.0
 11
8123.600000000008
 21
6489.751839297889
 31
0.0
  0
LINE
  5
22824
330
747D
100
AcDbEntity
  8
部品1
 48
50.0
100
AcDbLine
 10
8123.600000000008
 20
6489.751839297889
 30
0.0
 11
8123.600000000008
 21
6689.75183929789
 31
0.0
  0
LINE
  5
22825
330
747D
100
AcDbEntity
  8
部品1
 48
50.0
100
AcDbLine
 10
8323.600000000009
 20
6489.751839297889
 30
0.0
 11
8323.600000000009
 21
6689.75183929789
 31
0.0
  0
LINE
  5
22826
330
747D
100
AcDbEntity
  8
センター
 48
2.0
100
AcDbLine
 10
8223.60000000001
 20
6639.75183929789
 30
0.0
 11
8223.60000000001
 21
6539.751839297889
 31
0.0
  0
LINE
  5
22827
330
747D
100
AcDbEntity
  8
センター
 48
2.0
100
AcDbLine
 10
8173.600000000009
 20
6589.751839297889
 30
0.0
 11
8273.600000000008
 21
6589.751839297889
 31
0.0
  0
LINE
  5
22828
330
747D
100
AcDbEntity
  8
部品1
 48
50.0
100
AcDbLine
 10
9693.60000000001
 20
7293.75183929789
 30
0.0
 11
9693.60000000001
 21
7493.75183929789
 31
0.0
  0
LINE
  5
22829
330
747D
100
AcDbEntity
  8
部品1
 48
50.0
100
AcDbLine
 10
9493.600000000009
 20
7293.75183929789
 30
0.0
 11
9493.600000000009
 21
7493.75183929789
 31
0.0
  0
LINE
  5
2282A
330
747D
100
AcDbEntity
  8
センター
 48
2.0
100
AcDbLine
 10
9593.600000000009
 20
7443.75183929789
 30
0.0
 11
9593.600000000009
 21
7343.75183929789
 31
0.0
  0
LINE
  5
2282B
330
747D
100
AcDbEntity
  8
部品1
 48
50.0
100
AcDbLine
 10
9693.60000000001
 20
7293.75183929789
 30
0.0
 11
9493.600000000009
 21
7293.75183929789
 31
0.0
  0
LINE
  5
2282C
330
747D
100
AcDbEntity
  8
部品1
 48
50.0
100
AcDbLine
 10
9693.60000000001
 20
7493.75183929789
 30
0.0
 11
9493.600000000009
 21
7493.75183929789
 31
0.0
  0
LINE
  5
2282D
330
747D
100
AcDbEntity
  8
センター
 48
2.0
100
AcDbLine
 10
9543.60000000001
 20
7393.75183929789
 30
0.0
 11
9643.600000000009
 21
7393.75183929789
 31
0.0
  0
LINE
  5
2282E
330
747D
100
AcDbEntity
  8
部品1
 48
50.0
100
AcDbLine
 10
9008.60000000001
 20
7493.75183929789
 30
0.0
 11
8808.60000000001
 21
7493.75183929789
 31
0.0
  0
LINE
  5
2282F
330
747D
100
AcDbEntity
  8
部品1
 48
50.0
100
AcDbLine
 10
9008.60000000001
 20
7293.75183929789
 30
0.0
 11
8808.60000000001
 21
7293.75183929789
 31
0.0
  0
LINE
  5
22830
330
747D
100
AcDbEntity
  8
部品1
 48
50.0
100
AcDbLine
 10
8808.60000000001
 20
7293.75183929789
 30
0.0
 11
8808.60000000001
 21
7493.75183929789
 31
0.0
  0
LINE
  5
22831
330
747D
100
AcDbEntity
  8
部品1
 48
50.0
100
AcDbLine
 10
9008.60000000001
 20
7293.75183929789
 30
0.0
 11
9008.60000000001
 21
7493.75183929789
 31
0.0
  0
LINE
  5
22832
330
747D
100
AcDbEntity
  8
センター
 48
2.0
100
AcDbLine
 10
8908.60000000001
 20
7443.75183929789
 30
0.0
 11
8908.60000000001
 21
7343.75183929789
 31
0.0
  0
LINE
  5
22833
330
747D
100
AcDbEntity
  8
センター
 48
2.0
100
AcDbLine
 10
8858.600000000009
 20
7393.75183929789
 30
0.0
 11
8958.600000000009
 21
7393.75183929789
 31
0.0
  0
LINE
  5
22834
330
747D
100
AcDbEntity
  8
センター
 48
2.0
100
AcDbLine
 10
10228.60000000001
 20
7393.75183929789
 30
0.0
 11
10328.60000000001
 21
7393.75183929789
 31
0.0
  0
LINE
  5
22835
330
747D
100
AcDbEntity
  8
部品1
 48
50.0
100
AcDbLine
 10
10378.60000000001
 20
7493.75183929789
 30
0.0
 11
10178.60000000001
 21
7493.75183929789
 31
0.0
  0
LINE
  5
22836
330
747D
100
AcDbEntity
  8
部品1
 48
50.0
100
AcDbLine
 10
10378.60000000001
 20
7293.75183929789
 30
0.0
 11
10178.60000000001
 21
7293.75183929789
 31
0.0
  0
LINE
  5
22837
330
747D
100
AcDbEntity
  8
センター
 48
2.0
100
AcDbLine
 10
10278.60000000001
 20
7443.75183929789
 30
0.0
 11
10278.60000000001
 21
7343.75183929789
 31
0.0
  0
LINE
  5
22838
330
747D
100
AcDbEntity
  8
部品1
 48
50.0
100
AcDbLine
 10
10178.60000000001
 20
7293.75183929789
 30
0.0
 11
10178.60000000001
 21
7493.75183929789
 31
0.0
  0
LINE
  5
22839
330
747D
100
AcDbEntity
  8
部品1
 48
50.0
100
AcDbLine
 10
10378.60000000001
 20
7293.75183929789
 30
0.0
 11
10378.60000000001
 21
7493.75183929789
 31
0.0
  0
LINE
  5
2283A
330
747D
100
AcDbEntity
  8
センター
 48
2.0
100
AcDbLine
 10
8173.600000000009
 20
7393.75183929789
 30
0.0
 11
8273.600000000008
 21
7393.75183929789
 31
0.0
  0
LINE
  5
2283B
330
747D
100
AcDbEntity
  8
センター
 48
2.0
100
AcDbLine
 10
8223.60000000001
 20
7443.75183929789
 30
0.0
 11
8223.60000000001
 21
7343.75183929789
 31
0.0
  0
LINE
  5
2283C
330
747D
100
AcDbEntity
  8
部品1
 48
50.0
100
AcDbLine
 10
8323.600000000009
 20
7293.75183929789
 30
0.0
 11
8323.600000000009
 21
7493.75183929789
 31
0.0
  0
LINE
  5
2283D
330
747D
100
AcDbEntity
  8
部品1
 48
50.0
100
AcDbLine
 10
8123.600000000008
 20
7293.75183929789
 30
0.0
 11
8123.600000000008
 21
7493.75183929789
 31
0.0
  0
LINE
  5
2283E
330
747D
100
AcDbEntity
  8
部品1
 48
50.0
100
AcDbLine
 10
8323.600000000009
 20
7293.75183929789
 30
0.0
 11
8123.600000000008
 21
7293.75183929789
 31
0.0
  0
LINE
  5
2283F
330
747D
100
AcDbEntity
  8
部品1
 48
50.0
100
AcDbLine
 10
8323.600000000009
 20
7493.75183929789
 30
0.0
 11
8123.600000000008
 21
7493.75183929789
 31
0.0
  0
LINE
  5
22841
330
747D
100
AcDbEntity
  8
センター
 48
2.0
100
AcDbLine
 10
7488.600000000008
 20
7393.75183929789
 30
0.0
 11
7588.600000000008
 21
7393.75183929789
 31
0.0
  0
LINE
  5
22842
330
747D
100
AcDbEntity
  8
センター
 48
2.0
100
AcDbLine
 10
7538.600000000008
 20
7443.75183929789
 30
0.0
 11
7538.600000000008
 21
7343.75183929789
 31
0.0
  0
LINE
  5
22843
330
747D
100
AcDbEntity
  8
部品1
 48
50.0
100
AcDbLine
 10
7638.600000000008
 20
7293.75183929789
 30
0.0
 11
7638.600000000008
 21
7493.75183929789
 31
0.0
  0
LINE
  5
22844
330
747D
100
AcDbEntity
  8
部品1
 48
50.0
100
AcDbLine
 10
7438.600000000008
 20
7293.75183929789
 30
0.0
 11
7438.600000000009
 21
7493.751839297892
 31
0.0
  0
LINE
  5
22845
330
747D
100
AcDbEntity
  8
部品1
 48
50.0
100
AcDbLine
 10
7638.600000000008
 20
7293.75183929789
 30
0.0
 11
7438.600000000008
 21
7293.75183929789
 31
0.0
  0
LINE
  5
22846
330
747D
100
AcDbEntity
  8
部品1
 48
50.0
100
AcDbLine
 10
7638.600000000008
 20
7493.75183929789
 30
0.0
 11
7438.600000000008
 21
7493.75183929789
 31
0.0
  0
LINE
  5
22847
330
747D
100
AcDbEntity
  8
センター
 48
2.0
100
AcDbLine
 10
6803.600000000009
 20
7393.75183929789
 30
0.0
 11
6903.600000000008
 21
7393.75183929789
 31
0.0
  0
LINE
  5
22848
330
747D
100
AcDbEntity
  8
センター
 48
2.0
100
AcDbLine
 10
6853.600000000009
 20
7443.75183929789
 30
0.0
 11
6853.600000000009
 21
7343.75183929789
 31
0.0
  0
LINE
  5
22849
330
747D
100
AcDbEntity
  8
部品1
 48
50.0
100
AcDbLine
 10
6953.600000000008
 20
7293.75183929789
 30
0.0
 11
6953.600000000008
 21
7493.75183929789
 31
0.0
  0
LINE
  5
2284A
330
747D
100
AcDbEntity
  8
部品1
 48
50.0
100
AcDbLine
 10
6753.600000000009
 20
7293.75183929789
 30
0.0
 11
6753.600000000009
 21
7493.75183929789
 31
0.0
  0
LINE
  5
2284B
330
747D
100
AcDbEntity
  8
部品1
 48
50.0
100
AcDbLine
 10
6953.600000000008
 20
7293.75183929789
 30
0.0
 11
6753.600000000009
 21
7293.75183929789
 31
0.0
  0
LINE
  5
2284C
330
747D
100
AcDbEntity
  8
部品1
 48
50.0
100
AcDbLine
 10
6953.600000000008
 20
7493.75183929789
 30
0.0
 11
6753.600000000009
 21
7493.75183929789
 31
0.0
  0
LINE
  5
2284D
330
747D
100
AcDbEntity
  8
部品1
 48
50.0
100
AcDbLine
 10
6268.600000000009
 20
7493.75183929789
 30
0.0
 11
6068.600000000008
 21
7493.75183929789
 31
0.0
  0
LINE
  5
2284E
330
747D
100
AcDbEntity
  8
部品1
 48
50.0
100
AcDbLine
 10
6268.600000000009
 20
7293.75183929789
 30
0.0
 11
6068.600000000008
 21
7293.75183929789
 31
0.0
  0
LINE
  5
2284F
330
747D
100
AcDbEntity
  8
部品1
 48
50.0
100
AcDbLine
 10
6068.600000000008
 20
7293.75183929789
 30
0.0
 11
6068.600000000008
 21
7493.75183929789
 31
0.0
  0
LINE
  5
22850
330
747D
100
AcDbEntity
  8
部品1
 48
50.0
100
AcDbLine
 10
6268.600000000009
 20
7293.75183929789
 30
0.0
 11
6268.600000000009
 21
7493.75183929789
 31
0.0
  0
LINE
  5
22851
330
747D
100
AcDbEntity
  8
センター
 48
2.0
100
AcDbLine
 10
6168.600000000008
 20
7443.75183929789
 30
0.0
 11
6168.600000000008
 21
7343.75183929789
 31
0.0
  0
LINE
  5
22852
330
747D
100
AcDbEntity
  8
センター
 48
2.0
100
AcDbLine
 10
6118.600000000008
 20
7393.75183929789
 30
0.0
 11
6218.600000000009
 21
7393.75183929789
 31
0.0
  0
DIMENSION
  5
228AF
330
747D
100
AcDbEntity
  8
寸法
 48
50.0
100
AcDbDimension
  2
*D46
 10
7900.202738780328
 20
6589.751839297889
 30
0.0
 11
7800.202738780327
 21
6991.75183929789
 31
0.0
 70
    32
 71
     5
 42
804.0
  3
INABA_S40G
100
AcDbAlignedDimension
 13
7638.600000000008
 23
7393.75183929789
 33
0.0
 14
7638.600000000008
 24
6589.751839297889
 34
0.0
 50
90.0
100
AcDbRotatedDimension
1001
ACAD
1000
DSTYLE
1002
{
1070
   341
1005
0
1002
}
  0
LINE
  5
22F77
330
747D
100
AcDbEntity
  8
寸法
 48
50.0
100
AcDbLine
 10
6853.600000000009
 20
6469.751839297891
 30
0.0
 11
6853.600000000009
 21
6231.841805722019
 31
0.0
  0
LINE
  5
22F78
330
747D
100
AcDbEntity
  8
寸法
 48
50.0
100
AcDbLine
 10
7538.600000000008
 20
6469.751839297891
 30
0.0
 11
7538.600000000008
 21
6231.841805722019
 31
0.0
  0
LINE
  5
22F79
330
747D
100
AcDbEntity
  8
寸法
 48
50.0
100
AcDbLine
 10
6853.600000000009
 20
6291.841805722018
 30
0.0
 11
7122.7303217056
 21
6291.84180572202
 31
0.0
  0
MTEXT
  5
22F7A
330
747D
100
AcDbEntity
  8
寸法
 62
     7
 48
50.0
100
AcDbMText
 10
7304.954854743876
 20
6399.309398815908
 30
0.0
 40
120.0
 41
0.0
 71
     5
 72
     1
  1
\A1;685
  7
STYLE1
 73
     1
 44
1.0
1001
ACAD
1000
MTEXTBEGIN
1070
    73
1070
     1
1070
    44
1040
1.0
1070
    74
1070
     0
1000
MTEXTEND
  0
INSERT
  5
22F7B
330
747D
100
AcDbEntity
  8
寸法
 48
50.0
100
AcDbBlockReference
  2
_DOTSMALL
 10
6853.600000000009
 20
6291.841805722018
 30
0.0
 41
100.0
 42
100.0
 43
100.0
 50
180.0
  0
INSERT
  5
22F7C
330
747D
100
AcDbEntity
  8
寸法
 48
50.0
100
AcDbBlockReference
  2
_DOTSMALL
 10
7538.600000000008
 20
6291.841805722018
 30
0.0
 41
100.0
 42
100.0
 43
100.0
  0
MTEXT
  5
22F7D
330
747D
100
AcDbEntity
  8
寸法
 62
     7
 48
50.0
100
AcDbMText
 10
7010.83209015397
 20
6399.309398815908
 30
0.0
 40
120.0
 41
0.0
 71
     5
 72
     1
  1
\A1;685
  7
STYLE1
 73
     1
 44
1.0
1001
ACAD
1000
MTEXTBEGIN
1070
    73
1070
     1
1070
    44
1040
1.0
1070
    74
1070
     0
1000
MTEXTEND
  0
LINE
  5
22F7E
330
747D
100
AcDbEntity
  8
寸法
 48
50.0
100
AcDbLine
 10
7153.193120062176
 20
6291.841805722021
 30
0.0
 11
7538.600000000008
 21
6291.841805722018
 31
0.0
  0
TEXT
  5
22F8F
330
747D
100
AcDbEntity
  8
文字
 62
     7
 48
50.0
100
AcDbText
 10
7492.855795682697
 20
4352.739996818098
 30
0.0
 40
200.0
  1
〈参 考 図〉
  7
STYLE2
100
AcDbText
  0
LINE
  5
22FA5
102
{ACAD_REACTORS
330
23397
102
}
330
747D
100
AcDbEntity
  8
部品1
 48
50.0
100
AcDbLine
 10
10848.6
 20
5914.751839297899
 30
0.0
 11
10848.6
 21
8074.751839297881
 31
0.0
  0
LINE
  5
22FA6
102
{ACAD_REACTORS
330
2331A
102
}
330
747D
100
AcDbEntity
  8
部品1
 48
50.0
100
AcDbLine
 10
5598.600000000001
 20
5914.751839297899
 30
0.0
 11
5598.600000000001
 21
8074.751839297881
 31
0.0
  0
HATCH
  5
2331A
330
747D
100
AcDbEntity
  8
細線
 48
50.0
100
AcDbHatch
 10
0.0
 20
0.0
 30
0.0
210
0.0
220
0.0
230
1.0
  2
LINE
 70
     0
 71
     1
 91
        1
 92
        7
 72
     0
 73
     1
 93
        4
 10
5598.6
 20
7054.751839297889
 10
5478.6
 20
7054.751839297885
 10
5478.6
 20
6854.751839297886
 10
5598.600000000001
 20
6854.751839297889
 97
        4
330
2075B
330
1FB23
330
2075A
330
22FA6
 75
     0
 76
     1
 52
45.0
 41
10.0
 77
     0
 78
     1
 53
45.0
 43
0.0
 44
0.0
 45
-22.45064030267288
 46
22.45064030267288
 79
     0
 47
7.36109925358934
 98
        1
 10
5558.932740136523
 20
6935.89782527295
  0
HATCH
  5
23397
330
747D
100
AcDbEntity
  8
細線
 48
50.0
100
AcDbHatch
 10
0.0
 20
0.0
 30
0.0
210
0.0
220
0.0
230
1.0
  2
LINE
 70
     0
 71
     1
 91
        1
 92
        7
 72
     0
 73
     1
 93
        4
 10
10968.6
 20
7054.751839297885
 10
10848.6
 20
7054.751839297885
 10
10848.6
 20
6854.751839297889
 10
10968.6
 20
6854.751839297887
 97
        4
330
1FC5C
330
22FA5
330
1FC5D
330
1FC5B
 75
     0
 76
     1
 52
45.0
 41
10.0
 77
     0
 78
     1
 53
45.0
 43
0.0
 44
0.0
 45
-22.45064030267288
 46
22.45064030267288
 79
     0
 47
7.36109925358934
 98
        1
 10
10920.67709778675
 20
6950.620000432616
  0
SPLINE
  5
233A8
330
747D
100
AcDbEntity
  8
細線
 48
50.0
100
AcDbSpline
210
0.0
220
0.0
230
1.0
 70
     8
 71
     3
 72
    10
 73
     6
 74
     4
 42
0.0000000001
 43
0.0000000001
 44
0.0000000001
 40
0.0
 40
0.0
 40
0.0
 40
0.0
 40
221.8151349015015
 40
452.7136639803716
 40
699.7573834631605
 40
699.7573834631605
 40
699.7573834631605
 40
699.7573834631605
 10
7330.351261914869
 20
7101.461512683738
 30
0.0
 10
7215.028738172619
 20
7088.104862196981
 30
0.0
 10
6979.661199857426
 20
7060.844602507983
 30
0.0
 10
7463.881314773941
 20
6907.06372554897
 30
0.0
 10
7209.11738526988
 20
6879.111092480663
 30
0.0
 10
7077.43237745954
 20
6864.662647164699
 30
0.0
 11
7330.351261914869
 21
7101.461512683738
 31
0.0
 11
7116.094294451716
 21
7044.051531279245
 31
0.0
 11
7316.058286330477
 21
6928.60226673981
 31
0.0
 11
7077.43237745954
 21
6864.662647164699
 31
0.0
  0
LINE
  5
233A9
330
747D
100
AcDbEntity
  8
細線
 48
50.0
100
AcDbLine
 10
7410.814250376072
 20
8514.87384291906
 30
0.0
 11
7030.872421354823
 21
5365.005842112921
 31
0.0
  0
MTEXT
  5
2353A
102
{ACAD_REACTORS
330
2353B
102
}
330
747D
100
AcDbEntity
  8
寸法
 62
     7
 48
50.0
100
AcDbMText
 10
10632.04297783504
 20
2178.446332670786
 30
0.0
 40
120.0
 41
0.8
 71
     4
 72
     1
  1
\A1;C.B
  7
STYLE1
 73
     1
 44
1.0
1001
ACAD
1000
MTEXTBEGIN
1070
    73
1070
     1
1070
    44
1040
1.0
1070
    74
1070
     0
1000
MTEXTEND
  0
LEADER
  5
2353B
330
747D
100
AcDbEntity
  8
寸法
 48
50.0
100
AcDbLeader
  3
INABA_S40G
 73
     0
 74
     0
 75
     1
 40
120.0
 41
185.591883092037
 76
     3
 10
10448.90477120139
 20
1921.300011989648
 30
0.0
 10
10492.04297783504
 20
2078.446332670786
 30
0.0
 10
10592.04297783504
 20
2078.446332670786
 30
0.0
1001
ACAD
1000
DSTYLE
1002
{
1070
   174
1070
     0
1070
   272
1070
     1
1070
   279
1070
     1
1070
   288
1070
     0
1070
   341
1005
0
1002
}
  0
LINE
  5
2353C
330
747D
100
AcDbEntity
  8
細線
 48
50.0
100
AcDbLine
 10
10594.5581847778
 20
1565.601096336297
 30
0.0
 11
10588.12740415946
 21
1589.601096336297
 31
0.0
  0
LINE
  5
2353D
330
747D
100
AcDbEntity
  8
細線
 48
50.0
100
AcDbLine
 10
10573.12224938331
 20
1485.601096336297
 30
0.0
 11
10579.55303000166
 21
1461.601096336297
 31
0.0
  0
LINE
  5
2353E
330
747D
100
AcDbEntity
  8
部品1
100
AcDbLine
 10
10638.18035958547
 20
1681.300011989648
 30
0.0
 11
10638.18035958547
 21
1461.601096336298
 31
0.0
  0
LINE
  5
2353F
330
747D
100
AcDbEntity
  8
細線
 48
50.0
100
AcDbLine
 10
10566.69146876496
 20
1461.601096336297
 30
0.0
 11
10600.98896539615
 21
1589.601096336295
 31
0.0
  0
LINE
  5
23540
330
747D
100
AcDbEntity
  8
細線
 48
50.0
100
AcDbLine
 10
10515.67013983056
 20
1565.601096336297
 30
0.0
 11
10509.23935921221
 21
1589.601096336297
 31
0.0
  0
LINE
  5
23541
330
747D
100
AcDbEntity
  8
細線
100
AcDbLine
 10
10391.2167540848
 20
1589.6010963363
 30
0.0
 11
10482.91566973815
 21
1681.300011989648
 31
0.0
  0
LINE
  5
23542
330
747D
100
AcDbEntity
  8
細線
 48
50.0
100
AcDbLine
 10
10436.7820948833
 20
1565.601096336298
 30
0.0
 11
10430.35131426496
 21
1589.601096336298
 31
0.0
  0
LINE
  5
23543
330
747D
100
AcDbEntity
  8
細線
100
AcDbLine
 10
10425.15787958176
 20
1589.6010963363
 30
0.0
 11
10516.8567952351
 21
1681.300011989648
 31
0.0
  0
LINE
  5
23544
330
747D
100
AcDbEntity
  8
細線
 48
50.0
100
AcDbLine
 10
10200.11796004157
 20
1565.601096336298
 30
0.0
 11
10193.68717942322
 21
1589.601096336298
 31
0.0
  0
LINE
  5
23545
330
747D
100
AcDbEntity
  8
細線
 48
50.0
100
AcDbLine
 10
10279.00600498882
 20
1565.601096336298
 30
0.0
 11
10272.57522437047
 21
1589.601096336298
 31
0.0
  0
LINE
  5
23546
330
747D
100
AcDbEntity
  8
細線
 48
50.0
100
AcDbLine
 10
10357.89404993606
 20
1565.601096336298
 30
0.0
 11
10351.46326931772
 21
1589.601096336298
 31
0.0
  0
LINE
  5
23547
330
747D
100
AcDbEntity
  8
細線
 48
50.0
100
AcDbLine
 10
10494.23420443607
 20
1485.601096336297
 30
0.0
 11
10500.66498505441
 21
1461.601096336297
 31
0.0
  0
LINE
  5
23548
330
747D
100
AcDbEntity
  8
細線
 48
50.0
100
AcDbLine
 10
10415.34615948882
 20
1485.601096336298
 30
0.0
 11
10421.77694010718
 21
1461.601096336298
 31
0.0
  0
LINE
  5
23549
330
747D
100
AcDbEntity
  8
細線
 48
50.0
100
AcDbLine
 10
10257.57006959433
 20
1485.601096336298
 30
0.0
 11
10264.00085021268
 21
1461.601096336298
 31
0.0
  0
LINE
  5
2354A
330
747D
100
AcDbEntity
  8
細線
 48
50.0
100
AcDbLine
 10
10336.45811454157
 20
1485.601096336298
 30
0.0
 11
10342.88889515992
 21
1461.601096336298
 31
0.0
  0
LINE
  5
2354B
330
747D
100
AcDbEntity
  8
細線
 48
50.0
100
AcDbLine
 10
10330.02733392322
 20
1461.601096336298
 30
0.0
 11
10364.32483055441
 21
1589.601096336297
 31
0.0
  0
LINE
  5
2354C
330
747D
100
AcDbEntity
  8
細線
 48
50.0
100
AcDbLine
 10
10251.13928897598
 20
1461.601096336297
 30
0.0
 11
10285.43678560716
 21
1589.601096336297
 31
0.0
  0
LINE
  5
2354D
330
747D
100
AcDbEntity
  8
細線
 48
50.0
100
AcDbLine
 10
10408.91537887047
 20
1461.601096336297
 30
0.0
 11
10443.21287550164
 21
1589.601096336298
 31
0.0
  0
LINE
  5
2354E
330
747D
100
AcDbEntity
  8
細線
100
AcDbLine
 10
10459.09900507871
 20
1589.6010963363
 30
0.0
 11
10550.79792073206
 21
1681.300011989648
 31
0.0
  0
LINE
  5
2354F
330
747D
100
AcDbEntity
  8
細線
 48
50.0
100
AcDbLine
 10
10487.80342381772
 20
1461.601096336295
 30
0.0
 11
10522.1009204489
 21
1589.601096336295
 31
0.0
  0
LINE
  5
23550
330
747D
100
AcDbEntity
  8
部品1
100
AcDbLine
 10
10518.18035958547
 20
1921.300011989648
 30
0.0
 11
10518.18035958547
 21
1681.300011989648
 31
0.0
  0
LINE
  5
23551
330
747D
100
AcDbEntity
  8
細線
100
AcDbLine
 10
10504.34269723789
 20
1681.30001198965
 30
0.0
 11
10264.34269723789
 21
1921.300011989648
 31
0.0
  0
LINE
  5
23552
330
747D
100
AcDbEntity
  8
細線
100
AcDbLine
 10
10453.43100899246
 20
1681.300011989648
 30
0.0
 11
10213.43100899246
 21
1921.300011989648
 31
0.0
  0
LINE
  5
23553
330
747D
100
AcDbEntity
  8
細線
100
AcDbLine
 10
10065.15787958176
 20
1589.601096336298
 30
0.0
 11
10156.8567952351
 21
1681.300011989648
 31
0.0
  0
LINE
  5
23554
330
747D
100
AcDbEntity
  8
細線
100
AcDbLine
 10
10031.2167540848
 20
1589.601096336298
 30
0.0
 11
10122.91566973815
 21
1681.300011989648
 31
0.0
  0
LINE
  5
23555
330
747D
100
AcDbEntity
  8
細線
 48
50.0
100
AcDbLine
 10
10042.34187014707
 20
1565.601096336298
 30
0.0
 11
10035.91108952872
 21
1589.601096336298
 31
0.0
  0
LINE
  5
23556
330
747D
100
AcDbEntity
  8
細線
 48
50.0
100
AcDbLine
 10
10121.22991509432
 20
1565.601096336298
 30
0.0
 11
10114.79913447598
 21
1589.601096336298
 31
0.0
  0
LINE
  5
23557
330
747D
100
AcDbEntity
  8
細線
 48
50.0
100
AcDbLine
 10
9963.453825199824
 20
1565.601096336298
 30
0.0
 11
9957.023044581475
 21
1589.601096336298
 31
0.0
  0
LINE
  5
23558
330
747D
100
AcDbEntity
  8
細線
 48
50.0
100
AcDbLine
 10
10178.68202464708
 20
1485.601096336298
 30
0.0
 11
10185.11280526543
 21
1461.601096336298
 31
0.0
  0
LINE
  5
23559
330
747D
100
AcDbEntity
  8
細線
 48
50.0
100
AcDbLine
 10
10099.79397969983
 20
1485.601096336298
 30
0.0
 11
10106.22476031818
 21
1461.601096336298
 31
0.0
  0
LINE
  5
2355A
330
747D
100
AcDbEntity
  8
細線
 48
50.0
100
AcDbLine
 10
9942.017889805335
 20
1485.601096336298
 30
0.0
 11
9948.448670423681
 21
1461.601096336298
 31
0.0
  0
LINE
  5
2355B
330
747D
100
AcDbEntity
  8
細線
 48
50.0
100
AcDbLine
 10
10020.90593475258
 20
1485.601096336298
 30
0.0
 11
10027.33671537093
 21
1461.601096336298
 31
0.0
  0
LINE
  5
2355C
330
747D
100
AcDbEntity
  8
部品1
100
AcDbLine
 10
9918.180359585473
 20
1461.601096336294
 30
0.0
 11
9918.180359585473
 21
1681.300011989648
 31
0.0
  0
LINE
  5
2355D
330
747D
100
AcDbEntity
  8
細線
 48
50.0
100
AcDbLine
 10
9935.587109186986
 20
1461.601096336298
 30
0.0
 11
9969.884605818171
 21
1589.601096336298
 31
0.0
  0
LINE
  5
2355E
330
747D
100
AcDbEntity
  8
細線
 48
50.0
100
AcDbLine
 10
10093.36319908148
 20
1461.601096336298
 30
0.0
 11
10127.66069571267
 21
1589.601096336298
 31
0.0
  0
LINE
  5
2355F
330
747D
100
AcDbEntity
  8
細線
 48
50.0
100
AcDbLine
 10
10014.47515413423
 20
1461.601096336297
 30
0.0
 11
10048.77265076541
 21
1589.601096336297
 31
0.0
  0
LINE
  5
23560
330
747D
100
AcDbEntity
  8
部品1
100
AcDbLine
 10
10038.18035958547
 20
1681.300011989648
 30
0.0
 11
10038.18035958547
 21
1921.300011989648
 31
0.0
  0
TEXT
  5
23561
330
747D
100
AcDbEntity
  8
部品1
 48
50.0
100
AcDbText
 10
9274.06227282697
 20
1414.500271352339
 30
0.0
 40
80.0
  1
ボルトの出
 50
90.0
  7
STYLE2
100
AcDbText
  0
LINE
  5
23562
330
747D
100
AcDbEntity
  8
細線
100
AcDbLine
 10
10181.90200501682
 20
1681.300011989648
 30
0.0
 11
10038.18035958547
 21
1825.021657421001
 31
0.0
  0
LWPOLYLINE
  5
23563
330
747D
100
AcDbEntity
  8
部品1
 48
50.0
100
AcDbPolyline
 90
        2
 70
     0
 43
12.0
 10
9653.569097485084
 20
1681.300011989648
 10
10854.66140061671
 20
1681.300011989648
  0
LINE
  5
23564
330
747D
100
AcDbEntity
  8
細線
100
AcDbLine
 10
10099.09900507871
 20
1589.601096336298
 30
0.0
 11
10190.79792073206
 21
1681.300011989648
 31
0.0
  0
LINE
  5
23565
330
747D
100
AcDbEntity
  8
部品1
100
AcDbLine
 10
9918.180359585473
 20
1589.601096336298
 30
0.0
 11
10638.18035958547
 21
1589.601096336301
 31
0.0
  0
LINE
  5
23566
330
747D
100
AcDbEntity
  8
部品1
100
AcDbLine
 10
9918.180359585473
 20
1461.601096336294
 30
0.0
 11
10638.18035958547
 21
1461.601096336298
 31
0.0
  0
LINE
  5
23567
330
747D
100
AcDbEntity
  8
細線
 48
50.0
100
AcDbLine
 10
10172.25124402873
 20
1461.601096336298
 30
0.0
 11
10206.54874065991
 21
1589.601096336297
 31
0.0
  0
LINE
  5
23568
330
747D
100
AcDbEntity
  8
部品1
100
AcDbLine
 10
10038.18035958547
 20
1921.300011989648
 30
0.0
 11
10518.18035958547
 21
1921.300011989648
 31
0.0
  0
LINE
  5
23569
330
747D
100
AcDbEntity
  8
細線
100
AcDbLine
 10
10232.81369326226
 20
1681.300011989648
 30
0.0
 11
10038.18035958547
 21
1875.933345666431
 31
0.0
  0
LINE
  5
2356A
330
747D
100
AcDbEntity
  8
部品1
100
AcDbLine
 10
11224.9218606825
 20
277.9646621818461
 30
0.0
 11
11224.92186068251
 21
3242.271631766493
 31
0.0
  0
TEXT
  5
2356B
330
747D
100
AcDbEntity
  8
部品1
100
AcDbText
 10
7846.816676474645
 20
3062.719699815065
 30
0.0
 40
120.0
  1
基礎詳細
  7
STYLE2
100
AcDbText
  0
LINE
  5
2356C
330
747D
100
AcDbEntity
  8
部品1
 48
50.0
100
AcDbLine
 10
8162.044427282715
 20
2320.175293098791
 30
0.0
 11
8178.044427282715
 21
2312.175293098791
 31
0.0
  0
LINE
  5
2356D
330
747D
100
AcDbEntity
  8
細線
 48
50.0
100
AcDbLine
 10
8130.044427282715
 20
2272.175293098791
 30
0.0
 11
8130.044427282715
 21
2304.175293098791
 31
0.0
  0
LINE
  5
2356E
330
747D
100
AcDbEntity
  8
部品1
 48
50.0
100
AcDbLine
 10
8178.044427282715
 20
2280.175293098791
 30
0.0
 11
8178.044427282715
 21
2312.175293098791
 31
0.0
  0
LINE
  5
2356F
330
747D
100
AcDbEntity
  8
細線
 48
50.0
100
AcDbLine
 10
8162.044427282715
 20
2272.175293098791
 30
0.0
 11
8162.044427282715
 21
2304.175293098791
 31
0.0
  0
LINE
  5
23570
330
747D
100
AcDbEntity
  8
部品1
 48
50.0
100
AcDbLine
 10
8162.044427282715
 20
2304.175293098791
 30
0.0
 11
8178.044427282715
 21
2312.175293098791
 31
0.0
  0
LINE
  5
23571
330
747D
100
AcDbEntity
  8
部品1
 48
50.0
100
AcDbLine
 10
8130.044427282715
 20
2304.175293098791
 30
0.0
 11
8162.044427282715
 21
2304.175293098791
 31
0.0
  0
LINE
  5
23572
330
747D
100
AcDbEntity
  8
部品1
 48
50.0
100
AcDbLine
 10
8162.044427282715
 20
2272.175293098791
 30
0.0
 11
8178.044427282715
 21
2280.175293098791
 31
0.0
  0
LINE
  5
23573
330
747D
100
AcDbEntity
  8
部品1
 48
50.0
100
AcDbLine
 10
8130.044427282715
 20
2272.175293098791
 30
0.0
 11
8162.044427282715
 21
2272.175293098791
 31
0.0
  0
ELLIPSE
  5
23574
330
747D
100
AcDbEntity
  8
細線
 48
50.0
100
AcDbEllipse
 10
8146.044427282715
 20
2312.175293098791
 30
0.0
 11
14.76670786606846
 21
0.0
 31
0.0
210
0.0
220
0.0
230
1.0
 40
0.2071254069489396
 41
0.0
 42
6.283185307179586
  0
LINE
  5
23575
330
747D
100
AcDbEntity
  8
部品1
 48
50.0
100
AcDbLine
 10
8130.044427282715
 20
2320.175293098791
 30
0.0
 11
8162.044427282715
 21
2320.175293098791
 31
0.0
  0
LINE
  5
23576
330
747D
100
AcDbEntity
  8
部品1
 48
50.0
100
AcDbLine
 10
8114.044427282715
 20
2280.175293098791
 30
0.0
 11
8114.044427282715
 21
2312.175293098791
 31
0.0
  0
LINE
  5
23577
330
747D
100
AcDbEntity
  8
部品1
 48
50.0
100
AcDbLine
 10
8114.044427282715
 20
2312.175293098791
 30
0.0
 11
8130.044427282715
 21
2320.175293098791
 31
0.0
  0
LINE
  5
23578
330
747D
100
AcDbEntity
  8
部品1
 48
50.0
100
AcDbLine
 10
8114.044427282715
 20
2280.175293098791
 30
0.0
 11
8130.044427282715
 21
2272.175293098791
 31
0.0
  0
LINE
  5
23579
330
747D
100
AcDbEntity
  8
部品1
 48
50.0
100
AcDbLine
 10
8114.044427282715
 20
2312.175293098791
 30
0.0
 11
8130.044427282715
 21
2304.175293098791
 31
0.0
  0
LINE
  5
2357A
330
747D
100
AcDbEntity
  8
部品1
 48
50.0
100
AcDbLine
 10
8186.044427282714
 20
2180.823300433921
 30
0.0
 11
8186.044427282714
 21
2190.423300433921
 31
0.0
  0
ELLIPSE
  5
2357B
330
747D
100
AcDbEntity
  8
部品1
 48
50.0
100
AcDbEllipse
 10
8146.044427282715
 20
2190.423300433921
 30
0.0
 11
18.4
 21
0.0
 31
0.0
210
0.0
220
0.0
230
1.0
 40
0.3478260869565217
 41
0.0
 42
6.283185307179586
  0
ARC
  5
2357C
330
747D
100
AcDbEntity
  8
部品1
100
AcDbCircle
 10
7984.944427282717
 20
2019.400011989649
 30
0.0
 40
2.7
100
AcDbArc
 50
90.0
 51
180.0
  0
LINE
  5
2357D
330
747D
100
AcDbEntity
  8
部品1
100
AcDbLine
 10
7987.644427282717
 20
2032.900011989649
 30
0.0
 11
8029.944427282718
 21
2032.900011989645
 31
0.0
  0
LINE
  5
2357E
330
747D
100
AcDbEntity
  8
部品1
100
AcDbLine
 10
7984.944427282717
 20
2022.100011989648
 30
0.0
 11
7984.944427282717
 21
2030.200011989648
 31
0.0
  0
LINE
  5
2357F
330
747D
100
AcDbEntity
  8
部品1
100
AcDbLine
 10
7984.944427282717
 20
2022.100011989648
 30
0.0
 11
7984.944427282717
 21
2022.100011989648
 31
0.0
  0
ARC
  5
23580
330
747D
100
AcDbEntity
  8
部品1
100
AcDbCircle
 10
7987.644427282717
 20
2030.200011989648
 30
0.0
 40
2.7
100
AcDbArc
 50
90.0
 51
180.0
  0
ARC
  5
23581
330
747D
100
AcDbEntity
  8
部品1
100
AcDbCircle
 10
8029.944427282718
 20
2030.200011989645
 30
0.0
 40
2.7
100
AcDbArc
 50
0.0
 51
90.0
  0
LINE
  5
23582
330
747D
100
AcDbEntity
  8
部品1
 48
50.0
100
AcDbLine
 10
8106.044427282716
 20
2190.423300433921
 30
0.0
 11
8106.044427282716
 21
2180.823300433921
 31
0.0
  0
ELLIPSE
  5
23583
330
747D
100
AcDbEntity
  8
部品1
 48
50.0
100
AcDbEllipse
 10
8146.044427282715
 20
2180.823300433921
 30
0.0
 11
40.0
 21
0.0
 31
0.0
210
0.0
220
0.0
230
1.0
 40
0.4
 41
3.141592653589793
 42
6.283185307179586
  0
ELLIPSE
  5
23584
330
747D
100
AcDbEntity
  8
部品1
 48
50.0
100
AcDbEllipse
 10
8146.044427282715
 20
2190.423300433921
 30
0.0
 11
40.0
 21
0.0
 31
0.0
210
0.0
220
0.0
230
1.0
 40
0.4
 41
0.0
 42
6.283185307179586
  0
LINE
  5
23585
330
747D
100
AcDbEntity
  8
部品1
100
AcDbLine
 10
8140.644427282717
 20
1974.060011989648
 30
0.0
 11
8151.444427282717
 21
1974.060011989648
 31
0.0
  0
LINE
  5
23586
330
747D
100
AcDbEntity
  8
部品1
100
AcDbLine
 10
8137.044427282715
 20
1970.460011989649
 30
0.0
 11
8155.044427282716
 21
1970.460011989649
 31
0.0
  0
LINE
  5
23587
330
747D
100
AcDbEntity
  8
細線
100
AcDbLine
 10
8140.644427282717
 20
1930.860011989648
 30
0.0
 11
8140.644427282717
 21
1974.060011989648
 31
0.0
  0
LINE
  5
23588
330
747D
100
AcDbEntity
  8
細線
100
AcDbLine
 10
8151.444427282717
 20
1930.860011989648
 30
0.0
 11
8151.444427282717
 21
1974.060011989648
 31
0.0
  0
LINE
  5
23589
330
747D
100
AcDbEntity
  8
部品1
100
AcDbLine
 10
8053.344427282715
 20
1988.160011989649
 30
0.0
 11
8053.344427282715
 21
1971.060011989649
 31
0.0
  0
LINE
  5
2358A
330
747D
100
AcDbEntity
  8
部品1
100
AcDbLine
 10
8086.904427282716
 20
1988.160011989649
 30
0.0
 11
8086.904427282712
 21
1933.560011989649
 31
0.0
  0
ARC
  5
2358B
330
747D
100
AcDbEntity
  8
部品1
100
AcDbCircle
 10
8072.244427282717
 20
1976.200011989648
 30
0.0
 40
2.7
100
AcDbArc
 50
0.0
 51
90.0
  0
LINE
  5
2358C
330
747D
100
AcDbEntity
  8
部品1
100
AcDbLine
 10
8032.644427282717
 20
1978.900011989648
 30
0.0
 11
8072.244427282717
 21
1978.900011989648
 31
0.0
  0
ARC
  5
2358D
330
747D
100
AcDbEntity
  8
部品1
100
AcDbCircle
 10
8072.244427282717
 20
1933.560011989649
 30
0.0
 40
2.7
100
AcDbArc
 50
270.0
 51
0.0
  0
ARC
  5
2358E
330
747D
100
AcDbEntity
  8
部品1
100
AcDbCircle
 10
8089.60442728271
 20
1933.560011989649
 30
0.0
 40
2.7
100
AcDbArc
 50
180.0
 51
270.0
  0
LINE
  5
2358F
330
747D
100
AcDbEntity
  8
部品1
100
AcDbLine
 10
8060.544427282716
 20
1930.860011989648
 30
0.0
 11
8072.244427282717
 21
1930.860011989648
 31
0.0
  0
LINE
  5
23590
330
747D
100
AcDbEntity
  8
部品1
100
AcDbLine
 10
8074.944427282717
 20
1976.200011989648
 30
0.0
 11
8074.944427282717
 21
1933.560011989649
 31
0.0
  0
ARC
  5
23591
330
747D
100
AcDbEntity
  8
部品1
100
AcDbCircle
 10
8084.204427282715
 20
1988.160011989649
 30
0.0
 40
2.7
100
AcDbArc
 50
0.0
 51
90.0
  0
ARC
  5
23592
330
747D
100
AcDbEntity
  8
部品1
100
AcDbCircle
 10
8056.044427282715
 20
1988.160011989649
 30
0.0
 40
2.7
100
AcDbArc
 50
90.0
 51
180.0
  0
LINE
  5
23593
330
747D
100
AcDbEntity
  8
部品1
100
AcDbLine
 10
8056.044427282715
 20
1990.860011989649
 30
0.0
 11
8084.204427282715
 21
1990.860011989649
 31
0.0
  0
LINE
  5
23594
330
747D
100
AcDbEntity
  8
部品1
100
AcDbLine
 10
8032.644427282717
 20
2030.200011989645
 30
0.0
 11
8032.644427282717
 21
1978.900011989648
 31
0.0
  0
LINE
  5
23595
330
747D
100
AcDbEntity
  8
部品1
100
AcDbLine
 10
7982.244427282715
 20
2011.300011989648
 30
0.0
 11
7982.244427282715
 21
2019.400011989649
 31
0.0
  0
LINE
  5
23596
330
747D
100
AcDbEntity
  8
部品1
100
AcDbLine
 10
8089.60442728271
 20
1930.860011989648
 30
0.0
 11
8290.94442728271
 21
1930.860011989648
 31
0.0
  0
LINE
  5
23597
330
747D
100
AcDbEntity
  8
部品1
100
AcDbLine
 10
7930.944427282716
 20
1933.560011989649
 30
0.0
 11
7930.944427282716
 21
1995.691915692356
 31
0.0
  0
LINE
  5
23598
330
747D
100
AcDbEntity
  8
部品1
100
AcDbLine
 10
7933.644427282718
 20
1930.860011989648
 30
0.0
 11
7945.344427282711
 21
1930.860011989648
 31
0.0
  0
LINE
  5
23599
330
747D
100
AcDbEntity
  8
細線
 48
50.0
100
AcDbLine
 10
7924.644427282718
 20
1909.080588289553
 30
0.0
 11
7936.863850982813
 21
1921.300011989648
 31
0.0
  0
ARC
  5
2359A
330
747D
100
AcDbEntity
  8
部品1
100
AcDbCircle
 10
7933.644427282718
 20
1933.560011989649
 30
0.0
 40
2.7
100
AcDbArc
 50
180.0
 51
270.0
  0
LINE
  5
2359B
330
747D
100
AcDbEntity
  8
部品1
100
AcDbLine
 10
7932.989581095117
 20
1998.311300442748
 30
0.0
 11
7941.744427282717
 21
2000.500011989648
 31
0.0
  0
ARC
  5
2359C
330
747D
100
AcDbEntity
  8
部品1
100
AcDbCircle
 10
7933.644427282718
 20
1995.691915692356
 30
0.0
 40
2.7
100
AcDbArc
 50
104.0362434679067
 51
180.0
  0
ARC
  5
2359D
330
747D
100
AcDbEntity
  8
部品1
100
AcDbCircle
 10
7944.444427282717
 20
2008.600011989649
 30
0.0
 40
2.7
100
AcDbArc
 50
90.0
 51
180.0
  0
LINE
  5
2359E
330
747D
100
AcDbEntity
  8
部品1
100
AcDbLine
 10
7941.744427282717
 20
2000.500011989648
 30
0.0
 11
7941.744427282717
 21
2008.600011989649
 31
0.0
  0
LINE
  5
2359F
330
747D
100
AcDbEntity
  8
部品1
 48
50.0
100
AcDbLine
 10
7924.644427282718
 20
1921.300011989648
 30
0.0
 11
8338.644427282718
 21
1921.300011989648
 31
0.0
  0
LINE
  5
235A0
330
747D
100
AcDbEntity
  8
細線
 48
50.0
100
AcDbLine
 10
7924.644427282718
 20
1855.199051563138
 30
0.0
 11
7990.745387709226
 21
1921.300011989648
 31
0.0
  0
LINE
  5
235A1
330
747D
100
AcDbEntity
  8
細線
 48
50.0
100
AcDbLine
 10
7924.644427282718
 20
1882.139819926346
 30
0.0
 11
7963.804619346021
 21
1921.300011989648
 31
0.0
  0
LINE
  5
235A2
330
747D
100
AcDbEntity
  8
部品1
100
AcDbLine
 10
7944.444427282717
 20
2011.300011989648
 30
0.0
 11
7982.244427282715
 21
2011.300011989648
 31
0.0
  0
LINE
  5
235A3
330
747D
100
AcDbEntity
  8
部品1
 48
50.0
100
AcDbLine
 10
8338.644427282714
 20
1377.300011989648
 30
0.0
 11
8466.644427282714
 21
1377.300011989648
 31
0.0
  0
LINE
  5
235A4
330
747D
100
AcDbEntity
  8
部品1
100
AcDbLine
 10
8155.044427282716
 20
1696.300011989648
 30
0.0
 11
8191.044427282715
 21
1696.300011989648
 31
0.0
  0
LINE
  5
235A5
330
747D
100
AcDbEntity
  8
部品1
100
AcDbLine
 10
8155.044427282716
 20
1678.300011989648
 30
0.0
 11
8191.044427282715
 21
1678.300011989648
 31
0.0
  0
ARC
  5
235A6
330
747D
100
AcDbEntity
  8
部品1
100
AcDbCircle
 10
8155.044427282716
 20
1696.300011989648
 30
0.0
 40
18.0
100
AcDbArc
 50
180.0
 51
270.0
  0
LINE
  5
235A7
330
747D
100
AcDbEntity
  8
部品1
100
AcDbLine
 10
8191.044427282715
 20
1678.300011989648
 30
0.0
 11
8191.044427282715
 21
1696.300011989648
 31
0.0
  0
LINE
  5
235A8
330
747D
100
AcDbEntity
  8
部品1
100
AcDbLine
 10
8209.044427282716
 20
1597.300011989646
 30
0.0
 11
8083.044427282713
 21
1597.300011989646
 31
0.0
  0
LINE
  5
235A9
330
747D
100
AcDbEntity
  8
細線
 48
50.0
100
AcDbLine
 10
8503.02225247505
 20
1113.300011989646
 30
0.0
 11
8496.591471856703
 21
1137.300011989646
 31
0.0
  0
LINE
  5
235AA
330
747D
100
AcDbEntity
  8
細線
 48
50.0
100
AcDbLine
 10
8424.134207527805
 20
1113.300011989646
 30
0.0
 11
8417.70342690946
 21
1137.300011989646
 31
0.0
  0
LINE
  5
235AB
330
747D
100
AcDbEntity
  8
細線
 48
50.0
100
AcDbLine
 10
8345.246162580549
 20
1113.300011989648
 30
0.0
 11
8338.815381962202
 21
1137.300011989648
 31
0.0
  0
LINE
  5
235AC
330
747D
100
AcDbEntity
  8
細線
 48
50.0
100
AcDbLine
 10
8481.58631708056
 20
1033.300011989646
 30
0.0
 11
8488.017097698911
 21
1009.300011989646
 31
0.0
  0
LINE
  5
235AD
330
747D
100
AcDbEntity
  8
細線
 48
50.0
100
AcDbLine
 10
8402.698272133315
 20
1033.300011989646
 30
0.0
 11
8409.129052751662
 21
1009.300011989646
 31
0.0
  0
LINE
  5
235AE
330
747D
100
AcDbEntity
  8
細線
 48
50.0
100
AcDbLine
 10
8323.810227186067
 20
1033.300011989648
 30
0.0
 11
8330.241007804422
 21
1009.300011989648
 31
0.0
  0
LINE
  5
235AF
330
747D
100
AcDbEntity
  8
細線
 48
50.0
100
AcDbLine
 10
8396.267491514967
 20
1009.300011989645
 30
0.0
 11
8430.56498814615
 21
1137.300011989645
 31
0.0
  0
LINE
  5
235B0
330
747D
100
AcDbEntity
  8
細線
 48
50.0
100
AcDbLine
 10
8317.379446567716
 20
1009.300011989646
 30
0.0
 11
8351.67694319889
 21
1137.300011989648
 31
0.0
  0
LINE
  5
235B1
330
747D
100
AcDbEntity
  8
細線
 48
50.0
100
AcDbLine
 10
8475.15553646221
 20
1009.300011989646
 30
0.0
 11
8509.453033093397
 21
1137.300011989645
 31
0.0
  0
LINE
  5
235B2
330
747D
100
AcDbEntity
  8
部品1
 48
50.0
100
AcDbLine
 10
8546.644427282718
 20
1137.300011989648
 30
0.0
 11
8546.644427282718
 21
1009.300011989648
 31
0.0
  0
LINE
  5
235B3
330
747D
100
AcDbEntity
  8
細線
 48
50.0
100
AcDbLine
 10
8266.358117633309
 20
1113.300011989648
 30
0.0
 11
8259.927337014964
 21
1137.300011989648
 31
0.0
  0
LINE
  5
235B4
330
747D
100
AcDbEntity
  8
細線
 48
50.0
100
AcDbLine
 10
8187.470072686066
 20
1113.300011989648
 30
0.0
 11
8181.039292067719
 21
1137.300011989648
 31
0.0
  0
LINE
  5
235B5
330
747D
100
AcDbEntity
  8
細線
 48
50.0
100
AcDbLine
 10
8029.693982791574
 20
1113.300011989648
 30
0.0
 11
8023.263202173223
 21
1137.300011989648
 31
0.0
  0
LINE
  5
235B6
330
747D
100
AcDbEntity
  8
細線
 48
50.0
100
AcDbLine
 10
8108.582027738819
 20
1113.300011989648
 30
0.0
 11
8102.151247120472
 21
1137.300011989648
 31
0.0
  0
LINE
  5
235B7
330
747D
100
AcDbEntity
  8
細線
 48
50.0
100
AcDbLine
 10
8166.034137291575
 20
1033.300011989648
 30
0.0
 11
8172.464917909922
 21
1009.300011989648
 31
0.0
  0
LINE
  5
235B8
330
747D
100
AcDbEntity
  8
細線
 48
50.0
100
AcDbLine
 10
8244.922182238822
 20
1033.300011989648
 30
0.0
 11
8251.352962857167
 21
1009.300011989648
 31
0.0
  0
LINE
  5
235B9
330
747D
100
AcDbEntity
  8
細線
 48
50.0
100
AcDbLine
 10
8008.258047397085
 20
1033.300011989648
 30
0.0
 11
8014.688828015431
 21
1009.300011989648
 31
0.0
  0
LINE
  5
235BA
330
747D
100
AcDbEntity
  8
細線
 48
50.0
100
AcDbLine
 10
8087.146092344331
 20
1033.300011989648
 30
0.0
 11
8093.576872962676
 21
1009.300011989648
 31
0.0
  0
LINE
  5
235BB
330
747D
100
AcDbEntity
  8
細線
 48
50.0
100
AcDbLine
 10
8238.491401620468
 20
1009.300011989648
 30
0.0
 11
8272.788898251652
 21
1137.300011989646
 31
0.0
  0
LINE
  5
235BC
330
747D
100
AcDbEntity
  8
細線
 48
50.0
100
AcDbLine
 10
8080.715311725978
 20
1009.300011989648
 30
0.0
 11
8115.012808357162
 21
1137.300011989646
 31
0.0
  0
LINE
  5
235BD
330
747D
100
AcDbEntity
  8
細線
 48
50.0
100
AcDbLine
 10
8001.827266778731
 20
1009.300011989648
 30
0.0
 11
8036.124763409913
 21
1137.300011989648
 31
0.0
  0
LINE
  5
235BE
330
747D
100
AcDbEntity
  8
細線
 48
50.0
100
AcDbLine
 10
8159.603356673226
 20
1009.300011989646
 30
0.0
 11
8193.900853304407
 21
1137.300011989646
 31
0.0
  0
LINE
  5
235BF
330
747D
100
AcDbEntity
  8
細線
 48
50.0
100
AcDbLine
 10
8284.376122237524
 20
1137.300011989648
 30
0.0
 11
8466.644427282714
 21
1319.568317034844
 31
0.0
  0
LINE
  5
235C0
330
747D
100
AcDbEntity
  8
部品1
 48
50.0
100
AcDbLine
 10
8466.644427282714
 20
1377.300011989648
 30
0.0
 11
8466.644427282714
 21
1137.300011989648
 31
0.0
  0
LINE
  5
235C1
330
747D
100
AcDbEntity
  8
細線
 48
50.0
100
AcDbLine
 10
8257.435353874319
 20
1137.300011989648
 30
0.0
 11
8466.644427282714
 21
1346.509085398041
 31
0.0
  0
LINE
  5
235C2
330
747D
100
AcDbEntity
  8
細線
 48
50.0
100
AcDbLine
 10
8230.494585511111
 20
1137.300011989648
 30
0.0
 11
8466.644427282714
 21
1373.449853761256
 31
0.0
  0
LINE
  5
235C3
330
747D
100
AcDbEntity
  8
細線
 48
50.0
100
AcDbLine
 10
8014.96843860545
 20
1137.300011989648
 30
0.0
 11
8338.644427282714
 21
1460.976000666914
 31
0.0
  0
LINE
  5
235C4
330
747D
100
AcDbEntity
  8
細線
 48
50.0
100
AcDbLine
 10
8068.849975331865
 20
1137.300011989648
 30
0.0
 11
8338.644427282714
 21
1407.094463940505
 31
0.0
  0
LINE
  5
235C5
330
747D
100
AcDbEntity
  8
細線
 48
50.0
100
AcDbLine
 10
8041.909206968659
 20
1137.300011989648
 30
0.0
 11
8338.644427282714
 21
1434.035232303701
 31
0.0
  0
LINE
  5
235C6
330
747D
100
AcDbEntity
  8
細線
 48
50.0
100
AcDbLine
 10
7796.644427282712
 20
1350.028294478234
 30
0.0
 11
7823.91614479413
 21
1377.300011989648
 31
0.0
  0
LINE
  5
235C7
330
747D
100
AcDbEntity
  8
部品1
 48
50.0
100
AcDbLine
 10
7796.644427282716
 20
1377.300011989648
 30
0.0
 11
7924.644427282718
 21
1377.300011989648
 31
0.0
  0
LINE
  5
235C8
330
747D
100
AcDbEntity
  8
細線
 48
50.0
100
AcDbLine
 10
7796.644427282712
 20
1323.087526115023
 30
0.0
 11
7850.856913157342
 21
1377.300011989648
 31
0.0
  0
LWPOLYLINE
  5
235C9
330
747D
100
AcDbEntity
  8
部品1
 48
50.0
100
AcDbPolyline
 90
        2
 70
     0
 43
8.0
 10
7510.504525449761
 20
1681.300011989649
 10
7924.644427282718
 20
1681.300011989649
  0
LINE
  5
235CA
330
747D
100
AcDbEntity
  8
細線
 48
50.0
100
AcDbLine
 10
7871.917892897069
 20
1113.300011989648
 30
0.0
 11
7865.487112278723
 21
1137.300011989648
 31
0.0
  0
LINE
  5
235CB
330
747D
100
AcDbEntity
  8
細線
 48
50.0
100
AcDbLine
 10
7950.805937844322
 20
1113.300011989648
 30
0.0
 11
7944.375157225976
 21
1137.300011989648
 31
0.0
  0
LINE
  5
235CC
330
747D
100
AcDbEntity
  8
細線
 48
50.0
100
AcDbLine
 10
7793.029847949817
 20
1113.300011989648
 30
0.0
 11
7786.599067331471
 21
1137.300011989648
 31
0.0
  0
LINE
  5
235CD
330
747D
100
AcDbEntity
  8
細線
 48
50.0
100
AcDbLine
 10
7716.644427282716
 20
1122.639932955428
 30
0.0
 11
7720.572583620913
 21
1137.300011989648
 31
0.0
  0
LINE
  5
235CE
330
747D
100
AcDbEntity
  8
細線
 48
50.0
100
AcDbLine
 10
7850.481957502579
 20
1033.300011989648
 30
0.0
 11
7856.912738120925
 21
1009.300011989648
 31
0.0
  0
LINE
  5
235CF
330
747D
100
AcDbEntity
  8
細線
 48
50.0
100
AcDbLine
 10
7929.370002449832
 20
1033.300011989648
 30
0.0
 11
7935.800783068178
 21
1009.300011989648
 31
0.0
  0
LINE
  5
235D0
330
747D
100
AcDbEntity
  8
細線
 48
50.0
100
AcDbLine
 10
7771.593912555328
 20
1033.300011989648
 30
0.0
 11
7778.024693173674
 21
1009.300011989648
 31
0.0
  0
LINE
  5
235D1
330
747D
100
AcDbEntity
  8
細線
 48
50.0
100
AcDbLine
 10
7922.939221831478
 20
1009.300011989646
 30
0.0
 11
7957.23671846266
 21
1137.300011989646
 31
0.0
  0
LINE
  5
235D2
330
747D
100
AcDbEntity
  8
細線
 48
50.0
100
AcDbLine
 10
7765.163131936974
 20
1009.300011989646
 30
0.0
 11
7799.46062856816
 21
1137.300011989646
 31
0.0
  0
LINE
  5
235D3
330
747D
100
AcDbEntity
  8
部品1
 48
50.0
100
AcDbLine
 10
7716.644427282719
 20
1009.300011989648
 30
0.0
 11
7716.644427282719
 21
1137.300011989648
 31
0.0
  0
LINE
  5
235D4
330
747D
100
AcDbEntity
  8
細線
 48
50.0
100
AcDbLine
 10
7844.051176884234
 20
1009.300011989648
 30
0.0
 11
7878.348673515414
 21
1137.300011989648
 31
0.0
  0
LINE
  5
235D5
330
747D
100
AcDbEntity
  8
部品1
 48
50.0
100
AcDbLine
 10
7796.644427282716
 20
1137.300011989648
 30
0.0
 11
7796.644427282716
 21
1377.300011989648
 31
0.0
  0
LINE
  5
235D6
330
747D
100
AcDbEntity
  8
細線
 48
50.0
100
AcDbLine
 10
7796.644427282712
 20
1296.146757751819
 30
0.0
 11
7877.797681520544
 21
1377.300011989648
 31
0.0
  0
LINE
  5
235D7
330
747D
100
AcDbEntity
  8
部品1
 48
50.0
100
AcDbLine
 10
8546.644427282718
 20
1009.300011989648
 30
0.0
 11
7716.644427282719
 21
1009.300011989648
 31
0.0
  0
LINE
  5
235D8
330
747D
100
AcDbEntity
  8
部品1
 48
50.0
100
AcDbLine
 10
8546.644427282718
 20
1137.300011989648
 30
0.0
 11
7716.644427282719
 21
1137.300011989648
 31
0.0
  0
LINE
  5
235D9
330
747D
100
AcDbEntity
  8
細線
 48
50.0
100
AcDbLine
 10
7799.44229169979
 20
1137.300011989648
 30
0.0
 11
8338.644427282714
 21
1676.502147572574
 31
0.0
  0
LINE
  5
235DA
330
747D
100
AcDbEntity
  8
細線
 48
50.0
100
AcDbLine
 10
7826.383060062998
 20
1137.300011989648
 30
0.0
 11
8338.644427282718
 21
1649.561379209362
 31
0.0
  0
LINE
  5
235DB
330
747D
100
AcDbEntity
  8
細線
 48
50.0
100
AcDbLine
 10
7853.323828426204
 20
1137.300011989648
 30
0.0
 11
8338.644427282714
 21
1622.620610846156
 31
0.0
  0
LINE
  5
235DC
330
747D
100
AcDbEntity
  8
細線
 48
50.0
100
AcDbLine
 10
7924.644427282718
 20
1478.028294478234
 30
0.0
 11
8083.044427282707
 21
1636.428294478229
 31
0.0
  0
LINE
  5
235DD
330
747D
100
AcDbEntity
  8
細線
 48
50.0
100
AcDbLine
 10
7924.644427282718
 20
1424.146757751819
 30
0.0
 11
8097.797681520551
 21
1597.300011989646
 31
0.0
  0
LINE
  5
235DE
330
747D
100
AcDbEntity
  8
細線
 48
50.0
100
AcDbLine
 10
7924.644427282718
 20
1451.087526115026
 30
0.0
 11
8083.044427282707
 21
1609.487526115015
 31
0.0
  0
LINE
  5
235DF
330
747D
100
AcDbEntity
  8
部品1
100
AcDbLine
 10
8083.044427282713
 20
1597.300011989648
 30
0.0
 11
8083.044427282715
 21
1921.300011989648
 31
0.0
  0
LINE
  5
235E0
330
747D
100
AcDbEntity
  8
部品1
100
AcDbLine
 10
8209.044427282716
 20
1597.300011989648
 30
0.0
 11
8209.044427282716
 21
1921.300011989648
 31
0.0
  0
LINE
  5
235E1
330
747D
100
AcDbEntity
  8
細線
 48
50.0
100
AcDbLine
 10
8209.044427282718
 20
1735.487526115019
 30
0.0
 11
8338.644427282714
 21
1865.087526115016
 31
0.0
  0
LINE
  5
235E2
330
747D
100
AcDbEntity
  8
細線
 48
50.0
100
AcDbLine
 10
8209.044427282718
 20
1708.546757751807
 30
0.0
 11
8338.644427282714
 21
1838.146757751798
 31
0.0
  0
LINE
  5
235E3
330
747D
100
AcDbEntity
  8
部品1
100
AcDbLine
 10
8137.044427282715
 20
1696.300011989648
 30
0.0
 11
8137.044427282711
 21
1970.460011989649
 31
0.0
  0
LINE
  5
235E4
330
747D
100
AcDbEntity
  8
部品1
100
AcDbLine
 10
8155.044427282716
 20
1696.300011989648
 30
0.0
 11
8155.044427282712
 21
1970.460011989649
 31
0.0
  0
TEXT
  5
235E5
330
747D
100
AcDbEntity
  8
部品1
 48
50.0
100
AcDbText
 10
7510.504525449761
 20
1692.539004272904
 30
0.0
 40
80.0
  1
▽G.L
  7
STYLE2
100
AcDbText
  0
LINE
  5
235E6
330
747D
100
AcDbEntity
  8
細線
 48
50.0
100
AcDbLine
 10
7924.644427282718
 20
1639.672904657478
 30
0.0
 11
8083.044427282713
 21
1798.072904657471
 31
0.0
  0
LINE
  5
235E7
330
747D
100
AcDbEntity
  8
細線
 48
50.0
100
AcDbLine
 10
7924.644427282718
 20
1666.613673020686
 30
0.0
 11
8083.044427282715
 21
1825.013673020684
 31
0.0
  0
LINE
  5
235E8
330
747D
100
AcDbEntity
  8
細線
 48
50.0
100
AcDbLine
 10
7924.644427282718
 20
1693.554441383894
 30
0.0
 11
8083.044427282715
 21
1851.954441383891
 31
0.0
  0
LINE
  5
235E9
330
747D
100
AcDbEntity
  8
部品1
 48
50.0
100
AcDbLine
 10
7924.644427282718
 20
1377.300011989648
 30
0.0
 11
7924.644427282718
 21
1921.300011989648
 31
0.0
  0
LINE
  5
235EA
330
747D
100
AcDbEntity
  8
部品1
100
AcDbLine
 10
8338.644427282714
 20
1377.300011989648
 30
0.0
 11
8338.644427282714
 21
1921.300011989648
 31
0.0
  0
LINE
  5
235EB
330
747D
100
AcDbEntity
  8
細線
 48
50.0
100
AcDbLine
 10
8209.044427282718
 20
1762.428294478237
 30
0.0
 11
8338.644427282714
 21
1892.028294478235
 31
0.0
  0
LINE
  5
235EC
330
747D
100
AcDbEntity
  8
細線
 48
50.0
100
AcDbLine
 10
6333.097536607994
 20
1802.046863886364
 30
0.0
 11
6416.605114105523
 21
1885.554441383894
 31
0.0
  0
LINE
  5
235ED
330
747D
100
AcDbEntity
  8
細線
 48
50.0
100
AcDbLine
 10
6344.15782137151
 20
1786.16638028667
 30
0.0
 11
6416.605114105523
 21
1858.613673020686
 31
0.0
  0
LINE
  5
235EE
330
747D
100
AcDbEntity
  8
細線
 48
50.0
100
AcDbLine
 10
6224.605114105523
 20
1909.080588289553
 30
0.0
 11
6236.824537805618
 21
1921.300011989648
 31
0.0
  0
LINE
  5
235EF
330
747D
100
AcDbEntity
  8
細線
 48
50.0
100
AcDbLine
 10
6224.605114105523
 20
1855.199051563138
 30
0.0
 11
6290.706074532032
 21
1921.300011989648
 31
0.0
  0
LINE
  5
235F0
330
747D
100
AcDbEntity
  8
細線
 48
50.0
100
AcDbLine
 10
6224.605114105523
 20
1882.139819926346
 30
0.0
 11
6263.765306168827
 21
1921.300011989648
 31
0.0
  0
LINE
  5
235F1
330
747D
100
AcDbEntity
  8
部品1
 48
50.0
100
AcDbLine
 10
6224.605114105523
 20
1921.300011989648
 30
0.0
 11
6416.605114105523
 21
1921.300011989648
 31
0.0
  0
DIMENSION
  5
235F2
330
747D
100
AcDbEntity
  8
寸法
 48
50.0
100
AcDbDimension
  2
*D47
 10
6224.605114105522
 20
2241.300011989649
 30
0.0
 11
6331.831444450719
 21
2340.967819906029
 31
0.0
 70
   160
  1
120\P200\P280
 71
     5
 42
192.0
  3
INABA_S40G
100
AcDbAlignedDimension
 13
6416.605114105522
 23
1921.300011989648
 33
0.0
 14
6224.605114105522
 24
1921.300011989648
 34
0.0
100
AcDbRotatedDimension
1001
ACAD
1000
DSTYLE
1002
{
1070
   174
1070
     0
1070
   272
1070
     1
1070
   279
1070
     1
1070
   288
1070
     0
1070
   341
1005
0
1002
}
  0
MTEXT
  5
235F3
102
{ACAD_REACTORS
330
23648
102
}
330
747D
100
AcDbEntity
  8
寸法
 62
     7
 48
50.0
100
AcDbMText
 10
6658.343569966773
 20
959.9509262574953
 30
0.0
 40
80.0
 41
0.8
 71
     4
 72
     1
  1
\A1;D10@300
  7
STYLE2
 73
     1
 44
1.0
1001
ACAD
1000
MTEXTBEGIN
1070
    73
1070
     1
1070
    44
1040
1.0
1070
    74
1070
     0
1000
MTEXTEND
  0
LINE
  5
235F4
330
747D
100
AcDbEntity
  8
細線
 48
50.0
100
AcDbLine
 10
6344.605114105529
 20
1571.087526115029
 30
0.0
 11
6416.605114105516
 21
1643.087526115024
 31
0.0
  0
LINE
  5
235F5
330
747D
100
AcDbEntity
  8
細線
 48
50.0
100
AcDbLine
 10
6344.605114105523
 20
1598.028294478234
 30
0.0
 11
6416.605114105523
 21
1670.028294478234
 31
0.0
  0
LINE
  5
235F6
330
747D
100
AcDbEntity
  8
細線
 48
50.0
100
AcDbLine
 10
6344.605114105529
 20
1328.62061084616
 30
0.0
 11
6416.605114105516
 21
1400.62061084616
 31
0.0
  0
LINE
  5
235F7
330
747D
100
AcDbEntity
  8
細線
 48
50.0
100
AcDbLine
 10
6344.605114105529
 20
1382.502147572578
 30
0.0
 11
6416.605114105516
 21
1454.502147572574
 31
0.0
  0
LINE
  5
235F8
330
747D
100
AcDbEntity
  8
細線
 48
50.0
100
AcDbLine
 10
6344.605114105529
 20
1355.561379209369
 30
0.0
 11
6416.605114105516
 21
1427.561379209364
 31
0.0
  0
LINE
  5
235F9
330
747D
100
AcDbEntity
  8
部品1
 48
50.0
100
AcDbLine
 10
6416.605114105523
 20
1377.300011989648
 30
0.0
 11
6544.605114105523
 21
1377.300011989648
 31
0.0
  0
LINE
  5
235FA
330
747D
100
AcDbEntity
  8
細線
 48
50.0
100
AcDbLine
 10
6344.605114105529
 20
1544.146757751819
 30
0.0
 11
6416.605114105516
 21
1616.146757751819
 31
0.0
  0
LINE
  5
235FB
330
747D
100
AcDbEntity
  8
部品1
 48
50.0
100
AcDbLine
 10
6312.605114105523
 20
1723.42722668677
 30
0.0
 11
6312.605114105523
 21
1781.554441383894
 31
0.0
  0
LINE
  5
235FC
330
747D
100
AcDbEntity
  8
細線
 48
50.0
100
AcDbLine
 10
6224.605114105523
 20
1693.554441383894
 30
0.0
 11
6296.605114105523
 21
1765.554441383894
 31
0.0
  0
LINE
  5
235FD
330
747D
100
AcDbEntity
  8
部品1
 48
50.0
100
AcDbLine
 10
6296.605114105523
 20
1723.427226686774
 30
0.0
 11
6296.605114105523
 21
1781.554441383894
 31
0.0
  0
LINE
  5
235FE
330
747D
100
AcDbEntity
  8
細線
 48
50.0
100
AcDbLine
 10
6224.605114105523
 20
1666.613673020686
 30
0.0
 11
6296.605114105523
 21
1738.613673020686
 31
0.0
  0
LINE
  5
235FF
330
747D
100
AcDbEntity
  8
細線
 48
50.0
100
AcDbLine
 10
6224.605114105523
 20
1639.672904657478
 30
0.0
 11
6308.359436134817
 21
1723.42722668677
 31
0.0
  0
LINE
  5
23600
330
747D
100
AcDbEntity
  8
部品1
 48
50.0
100
AcDbLine
 10
6312.605114105523
 20
1723.42722668677
 30
0.0
 11
6296.605114105523
 21
1723.427226686774
 31
0.0
  0
LINE
  5
23601
330
747D
100
AcDbEntity
  8
細線
 48
50.0
100
AcDbLine
 10
6096.605114105516
 20
1350.028294478234
 30
0.0
 11
6123.876831616937
 21
1377.300011989648
 31
0.0
  0
LINE
  5
23602
330
747D
100
AcDbEntity
  8
細線
 48
50.0
100
AcDbLine
 10
6096.605114105516
 20
1323.087526115023
 30
0.0
 11
6150.817599980148
 21
1377.300011989648
 31
0.0
  0
LINE
  5
23603
330
747D
100
AcDbEntity
  8
部品1
 48
50.0
100
AcDbLine
 10
6096.605114105523
 20
1377.300011989648
 30
0.0
 11
6224.605114105523
 21
1377.300011989648
 31
0.0
  0
LINE
  5
23604
330
747D
100
AcDbEntity
  8
細線
 48
50.0
100
AcDbLine
 10
6312.605114105523
 20
1754.613673020686
 30
0.0
 11
6328.605114105523
 21
1770.613673020686
 31
0.0
  0
LINE
  5
23605
330
747D
100
AcDbEntity
  8
細線
 48
50.0
100
AcDbLine
 10
6312.605114105523
 20
1727.672904657478
 30
0.0
 11
6328.605114105523
 21
1743.672904657478
 31
0.0
  0
LINE
  5
23606
330
747D
100
AcDbEntity
  8
細線
 48
50.0
100
AcDbLine
 10
6224.605114105523
 20
1424.146757751819
 30
0.0
 11
6328.605114105529
 21
1528.146757751819
 31
0.0
  0
LINE
  5
23607
330
747D
100
AcDbEntity
  8
細線
 48
50.0
100
AcDbLine
 10
6224.605114105523
 20
1478.028294478234
 30
0.0
 11
6328.605114105523
 21
1582.028294478234
 31
0.0
  0
LINE
  5
23608
330
747D
100
AcDbEntity
  8
細線
 48
50.0
100
AcDbLine
 10
6224.605114105523
 20
1451.087526115026
 30
0.0
 11
6328.605114105529
 21
1555.087526115029
 31
0.0
  0
LINE
  5
23609
330
747D
100
AcDbEntity
  8
細線
 48
50.0
100
AcDbLine
 10
6487.430759508871
 20
1113.300011989648
 30
0.0
 11
6480.999978890524
 21
1137.300011989648
 31
0.0
  0
LINE
  5
2360A
330
747D
100
AcDbEntity
  8
細線
 48
50.0
100
AcDbLine
 10
6530.455272333917
 20
1137.300011989648
 30
0.0
 11
6544.605114105523
 21
1151.449853761255
 31
0.0
  0
LINE
  5
2360B
330
747D
100
AcDbEntity
  8
細線
 48
50.0
100
AcDbLine
 10
6566.318804456118
 20
1113.300011989648
 30
0.0
 11
6559.88802383777
 21
1137.300011989648
 31
0.0
  0
LINE
  5
2360C
330
747D
100
AcDbEntity
  8
部品1
 48
50.0
100
AcDbLine
 10
6488.605114105523
 20
1249.300011989648
 30
0.0
 11
6488.605114105523
 21
1233.300011989648
 31
0.0
  0
LINE
  5
2360D
330
747D
100
AcDbEntity
  8
細線
 48
50.0
100
AcDbLine
 10
6368.81066215467
 20
1137.300011989648
 30
0.0
 11
6464.811549999807
 21
1233.300899834787
 31
0.0
  0
LINE
  5
2360E
330
747D
100
AcDbEntity
  8
細線
 48
50.0
100
AcDbLine
 10
6341.869893791467
 20
1137.300011989648
 30
0.0
 11
6437.869893791466
 21
1233.300011989648
 31
0.0
  0
LINE
  5
2360F
330
747D
100
AcDbEntity
  8
細線
 48
50.0
100
AcDbLine
 10
6408.542714561625
 20
1113.300011989648
 30
0.0
 11
6402.111933943278
 21
1137.300011989648
 31
0.0
  0
LINE
  5
23610
330
747D
100
AcDbEntity
  8
細線
 48
50.0
100
AcDbLine
 10
6329.65466961438
 20
1113.300011989648
 30
0.0
 11
6323.223888996032
 21
1137.300011989648
 31
0.0
  0
ARC
  5
23611
330
747D
100
AcDbEntity
  8
部品1
 48
50.0
100
AcDbCircle
 10
6320.605114105523
 20
1257.300011989648
 30
0.0
 40
24.0
100
AcDbArc
 50
340.5287793655134
 51
0.0
  0
CIRCLE
  5
23612
330
747D
100
AcDbEntity
  8
部品1
 48
50.0
100
AcDbCircle
 10
6448.605114105522
 20
1257.300011989648
 30
0.0
 40
8.0
  0
LINE
  5
23613
330
747D
100
AcDbEntity
  8
細線
 48
50.0
100
AcDbLine
 10
6480.81066215467
 20
1249.300011989648
 30
0.0
 11
6544.605114105523
 21
1313.094463940499
 31
0.0
  0
LINE
  5
23614
330
747D
100
AcDbEntity
  8
細線
 48
50.0
100
AcDbLine
 10
6617.340133390526
 20
1009.300011989646
 30
0.0
 11
6624.605114105523
 21
1036.413289134036
 31
0.0
  0
LINE
  5
23615
330
747D
100
AcDbEntity
  8
細線
 48
50.0
100
AcDbLine
 10
6623.770914008876
 20
1033.300011989648
 30
0.0
 11
6624.605114105523
 21
1030.186734845284
 31
0.0
  0
LINE
  5
23616
330
747D
100
AcDbEntity
  8
細線
 48
50.0
100
AcDbLine
 10
6544.882869061628
 20
1033.300011989648
 30
0.0
 11
6551.313649679975
 21
1009.300011989648
 31
0.0
  0
LINE
  5
23617
330
747D
100
AcDbEntity
  8
細線
 48
50.0
100
AcDbLine
 10
6387.106779167136
 20
1033.300011989648
 30
0.0
 11
6393.537559785482
 21
1009.300011989648
 31
0.0
  0
LINE
  5
23618
330
747D
100
AcDbEntity
  8
細線
 48
50.0
100
AcDbLine
 10
6465.994824114381
 20
1033.300011989648
 30
0.0
 11
6472.425604732729
 21
1009.300011989648
 31
0.0
  0
LINE
  5
23619
330
747D
100
AcDbEntity
  8
細線
 48
50.0
100
AcDbLine
 10
6459.564043496031
 20
1009.300011989646
 30
0.0
 11
6493.861540127216
 21
1137.300011989646
 31
0.0
  0
LINE
  5
2361A
330
747D
100
AcDbEntity
  8
細線
 48
50.0
100
AcDbLine
 10
6380.675998548782
 20
1009.300011989648
 30
0.0
 11
6414.973495179968
 21
1137.300011989646
 31
0.0
  0
LINE
  5
2361B
330
747D
100
AcDbEntity
  8
細線
 48
50.0
100
AcDbLine
 10
6538.452088443277
 20
1009.300011989648
 30
0.0
 11
6572.749585074461
 21
1137.300011989646
 31
0.0
  0
LINE
  5
2361C
330
747D
100
AcDbEntity
  8
部品1
 48
50.0
100
AcDbLine
 10
6624.605114105527
 20
1137.300011989648
 30
0.0
 11
6624.605114105527
 21
1009.300011989648
 31
0.0
  0
LINE
  5
2361D
330
747D
100
AcDbEntity
  8
部品1
 48
50.0
100
AcDbLine
 10
6312.605114105523
 20
1315.427226686771
 30
0.0
 11
6312.605114105523
 21
1257.300011989648
 31
0.0
  0
LINE
  5
2361E
330
747D
100
AcDbEntity
  8
細線
 48
50.0
100
AcDbLine
 10
6238.343746885806
 20
1249.300011989648
 30
0.0
 11
6296.605114105523
 21
1307.561379209366
 31
0.0
  0
LINE
  5
2361F
330
747D
100
AcDbEntity
  8
部品1
 48
50.0
100
AcDbLine
 10
6296.605114105523
 20
1315.427226686771
 30
0.0
 11
6296.605114105523
 21
1257.300011989648
 31
0.0
  0
LINE
  5
23620
330
747D
100
AcDbEntity
  8
細線
 48
50.0
100
AcDbLine
 10
6153.284515249012
 20
1137.300011989648
 30
0.0
 11
6249.284515249012
 21
1233.300011989648
 31
0.0
  0
LINE
  5
23621
330
747D
100
AcDbEntity
  8
細線
 48
50.0
100
AcDbLine
 10
6250.766624667127
 20
1113.300011989648
 30
0.0
 11
6244.335844048781
 21
1137.300011989648
 31
0.0
  0
LINE
  5
23622
330
747D
100
AcDbEntity
  8
細線
 48
50.0
100
AcDbLine
 10
6171.878579719874
 20
1113.300011989648
 30
0.0
 11
6165.447799101528
 21
1137.300011989648
 31
0.0
  0
ARC
  5
23623
330
747D
100
AcDbEntity
  8
部品1
 48
50.0
100
AcDbCircle
 10
6320.605114105523
 20
1257.300011989648
 30
0.0
 40
24.0
100
AcDbArc
 50
180.0
 51
199.4712206344866
  0
LINE
  5
23624
330
747D
100
AcDbEntity
  8
細線
 48
50.0
100
AcDbLine
 10
6265.284515249011
 20
1249.300011989648
 30
0.0
 11
6296.605114105523
 21
1280.620610846159
 31
0.0
  0
CIRCLE
  5
23625
330
747D
100
AcDbEntity
  8
部品1
 48
50.0
100
AcDbCircle
 10
6192.605114105523
 20
1257.300011989648
 30
0.0
 40
8.0
  0
LINE
  5
23626
330
747D
100
AcDbEntity
  8
部品1
 48
50.0
100
AcDbLine
 10
6312.605114105523
 20
1315.427226686771
 30
0.0
 11
6296.605114105523
 21
1315.427226686771
 31
0.0
  0
LINE
  5
23627
330
747D
100
AcDbEntity
  8
細線
 48
50.0
100
AcDbLine
 10
6016.605114105523
 20
1122.639932955428
 30
0.0
 11
6020.533270443719
 21
1137.300011989648
 31
0.0
  0
LINE
  5
23628
330
747D
100
AcDbEntity
  8
細線
 48
50.0
100
AcDbLine
 10
6092.990534772623
 20
1113.300011989648
 30
0.0
 11
6086.559754154276
 21
1137.300011989648
 31
0.0
  0
LINE
  5
23629
330
747D
100
AcDbEntity
  8
部品1
 48
50.0
100
AcDbLine
 10
6152.605114105523
 20
1249.300011989648
 30
0.0
 11
6152.605114105523
 21
1233.300011989648
 31
0.0
  0
LINE
  5
2362A
330
747D
100
AcDbEntity
  8
細線
 48
50.0
100
AcDbLine
 10
6099.402978522596
 20
1137.300011989648
 30
0.0
 11
6195.402978522595
 21
1233.300011989648
 31
0.0
  0
LINE
  5
2362B
330
747D
100
AcDbEntity
  8
細線
 48
50.0
100
AcDbLine
 10
6126.343746885806
 20
1137.300011989648
 30
0.0
 11
6222.343746885806
 21
1233.300011989648
 31
0.0
  0
LINE
  5
2362C
330
747D
100
AcDbEntity
  8
細線
 48
50.0
100
AcDbLine
 10
6229.330689272638
 20
1033.300011989648
 30
0.0
 11
6235.761469890984
 21
1009.300011989648
 31
0.0
  0
LINE
  5
2362D
330
747D
100
AcDbEntity
  8
細線
 48
50.0
100
AcDbLine
 10
6308.218734219891
 20
1033.300011989648
 30
0.0
 11
6314.649514838237
 21
1009.300011989648
 31
0.0
  0
LINE
  5
2362E
330
747D
100
AcDbEntity
  8
細線
 48
50.0
100
AcDbLine
 10
6071.554599378135
 20
1033.300011989648
 30
0.0
 11
6077.98537999648
 21
1009.300011989648
 31
0.0
  0
LINE
  5
2362F
330
747D
100
AcDbEntity
  8
細線
 48
50.0
100
AcDbLine
 10
6150.442644325385
 20
1033.300011989648
 30
0.0
 11
6156.873424943733
 21
1009.300011989648
 31
0.0
  0
LINE
  5
23630
330
747D
100
AcDbEntity
  8
部品1
 48
50.0
100
AcDbLine
 10
6016.605114105525
 20
1009.300011989648
 30
0.0
 11
6016.605114105525
 21
1137.300011989648
 31
0.0
  0
LINE
  5
23631
330
747D
100
AcDbEntity
  8
細線
 48
50.0
100
AcDbLine
 10
6065.123818759781
 20
1009.300011989646
 30
0.0
 11
6099.421315390964
 21
1137.300011989646
 31
0.0
  0
LINE
  5
23632
330
747D
100
AcDbEntity
  8
細線
 48
50.0
100
AcDbLine
 10
6222.899908654285
 20
1009.300011989646
 30
0.0
 11
6257.197405285467
 21
1137.300011989646
 31
0.0
  0
LINE
  5
23633
330
747D
100
AcDbEntity
  8
細線
 48
50.0
100
AcDbLine
 10
6144.011863707039
 20
1009.300011989648
 30
0.0
 11
6178.309360338221
 21
1137.300011989648
 31
0.0
  0
LINE
  5
23634
330
747D
100
AcDbEntity
  8
細線
 48
50.0
100
AcDbLine
 10
6314.929125428257
 20
1137.300011989648
 30
0.0
 11
6410.929125428257
 21
1233.300011989648
 31
0.0
  0
CIRCLE
  5
23635
330
747D
100
AcDbEntity
  8
部品1
 48
50.0
100
AcDbCircle
 10
6320.605114105523
 20
1257.300011989648
 30
0.0
 40
8.0
  0
LINE
  5
23636
330
747D
100
AcDbEntity
  8
部品1
 48
50.0
100
AcDbLine
 10
6624.605114105527
 20
1137.300011989648
 30
0.0
 11
6016.605114105525
 21
1137.300011989648
 31
0.0
  0
LINE
  5
23637
330
747D
100
AcDbEntity
  8
部品1
 48
50.0
100
AcDbLine
 10
6152.605114105523
 20
1249.300011989648
 30
0.0
 11
6488.605114105523
 21
1249.300011989648
 31
0.0
  0
LINE
  5
23638
330
747D
100
AcDbEntity
  8
部品1
 48
50.0
100
AcDbLine
 10
6152.605114105523
 20
1233.300011989648
 30
0.0
 11
6488.605114105523
 21
1233.300011989648
 31
0.0
  0
LINE
  5
23639
330
747D
100
AcDbEntity
  8
部品1
 48
50.0
100
AcDbLine
 10
6624.605114105527
 20
1009.300011989648
 30
0.0
 11
6016.605114105525
 21
1009.300011989648
 31
0.0
  0
LINE
  5
2363A
330
747D
100
AcDbEntity
  8
細線
 48
50.0
100
AcDbLine
 10
6301.787953601537
 20
1009.300011989648
 30
0.0
 11
6336.08545023272
 21
1137.300011989648
 31
0.0
  0
LINE
  5
2363B
330
747D
100
AcDbEntity
  8
細線
 48
50.0
100
AcDbLine
 10
6312.605114105523
 20
1296.620610846159
 30
0.0
 11
6328.605114105529
 21
1312.620610846159
 31
0.0
  0
LINE
  5
2363C
330
747D
100
AcDbEntity
  8
部品1
 48
50.0
100
AcDbLine
 10
6328.605114105529
 20
1257.300011989648
 30
0.0
 11
6328.605114105516
 21
1781.554441383894
 31
0.0
  0
LINE
  5
2363D
330
747D
100
AcDbEntity
  8
部品1
 48
50.0
100
AcDbLine
 10
6344.605114105529
 20
1257.300011989648
 30
0.0
 11
6344.605114105523
 21
1781.554441383894
 31
0.0
  0
LINE
  5
2363E
330
747D
100
AcDbEntity
  8
部品1
 48
50.0
100
AcDbLine
 10
6544.605114105523
 20
1377.300011989648
 30
0.0
 11
6544.605114105523
 21
1137.300011989648
 31
0.0
  0
LINE
  5
2363F
330
747D
100
AcDbEntity
  8
細線
 48
50.0
100
AcDbLine
 10
6426.929125428251
 20
1249.300011989648
 30
0.0
 11
6544.605114105523
 21
1366.976000666914
 31
0.0
  0
LINE
  5
23640
330
747D
100
AcDbEntity
  8
細線
 48
50.0
100
AcDbLine
 10
6453.869893791467
 20
1249.300011989648
 30
0.0
 11
6544.605114105523
 21
1340.035232303707
 31
0.0
  0
LINE
  5
23641
330
747D
100
AcDbEntity
  8
部品1
 48
50.0
100
AcDbLine
 10
6096.605114105523
 20
1137.300011989648
 30
0.0
 11
6096.605114105523
 21
1377.300011989648
 31
0.0
  0
LINE
  5
23642
330
747D
100
AcDbEntity
  8
細線
 48
50.0
100
AcDbLine
 10
6211.402978522595
 20
1249.300011989648
 30
0.0
 11
6328.605114105523
 21
1366.502147572574
 31
0.0
  0
LINE
  5
23643
330
747D
100
AcDbEntity
  8
細線
 48
50.0
100
AcDbLine
 10
6304.470961582927
 20
1315.427226686771
 30
0.0
 11
6328.605114105529
 21
1339.561379209369
 31
0.0
  0
LINE
  5
23644
330
747D
100
AcDbEntity
  8
細線
 48
50.0
100
AcDbLine
 10
6096.605114105516
 20
1296.146757751819
 30
0.0
 11
6177.758368343351
 21
1377.300011989648
 31
0.0
  0
LEADER
  5
23645
330
747D
100
AcDbEntity
  8
寸法
 48
50.0
100
AcDbLeader
  3
INABA_S40G
 71
     0
 73
     0
 74
     0
 75
     1
 40
100.0
 41
222.7272727272727
 76
     3
 10
6320.605114105522
 20
1781.554441383894
 30
0.0
 10
6379.491051132917
 20
1722.567573288576
 30
0.0
 10
6479.491051132917
 20
1722.567573288576
 30
0.0
1001
ACAD
1000
DSTYLE
1002
{
1070
   174
1070
     0
1070
   272
1070
     1
1070
   279
1070
     1
1070
   288
1070
     0
1070
   341
1005
0
1002
}
  0
LWPOLYLINE
  5
23646
330
747D
100
AcDbEntity
  8
部品1
 48
50.0
100
AcDbPolyline
 90
        2
 70
     0
 43
8.0
 10
6416.605114105522
 20
1681.300011989649
 10
6830.74501593848
 20
1681.300011989649
  0
MTEXT
  5
23647
102
{ACAD_REACTORS
330
23649
102
}
330
747D
100
AcDbEntity
  8
寸法
 62
     7
 48
50.0
100
AcDbMText
 10
6647.932773912207
 20
1221.902943046676
 30
0.0
 40
80.0
 41
0.8
 71
     4
 72
     1
  1
D10
  7
STYLE2
 73
     1
 44
1.0
1001
ACAD
1000
MTEXTBEGIN
1070
    73
1070
     1
1070
    44
1040
1.0
1070
    74
1070
     0
1000
MTEXTEND
  0
LEADER
  5
23648
330
747D
100
AcDbEntity
  8
寸法
 48
50.0
100
AcDbLeader
  3
INABA_S40G
 71
     0
 73
     0
 74
     0
 75
     1
 40
100.0
 41
540.3409090909091
 76
     3
 10
6394.550283118697
 20
1240.559481576123
 30
0.0
 10
6538.343569966773
 20
898.9286635812254
 30
0.0
 10
6638.343569966773
 20
898.9286635812254
 30
0.0
213
0.0
223
-1.022262676269383
233
0.0
1001
ACAD
1000
DSTYLE
1002
{
1070
   174
1070
     0
1070
   272
1070
     1
1070
   279
1070
     1
1070
   288
1070
     0
1070
   341
1005
0
1002
}
  0
LEADER
  5
23649
330
747D
100
AcDbEntity
  8
寸法
 48
50.0
100
AcDbLeader
  3
INABA_S40G
 71
     0
 73
     0
 74
     0
 75
     1
 40
100.0
 41
225.0
 76
     3
 10
6448.508066457666
 20
1257.300011989648
 30
0.0
 10
6527.932773912207
 20
1161.902943046676
 30
0.0
 10
6627.932773912206
 20
1161.902943046676
 30
0.0
1001
ACAD
1000
DSTYLE
1002
{
1070
   174
1070
     0
1070
   272
1070
     1
1070
   279
1070
     1
1070
   288
1070
     0
1070
   341
1005
0
1002
}
  0
MTEXT
  5
2364A
102
{ACAD_REACTORS
330
23645
102
}
330
747D
100
AcDbEntity
  8
寸法
 62
     7
 48
50.0
100
AcDbMText
 10
6499.491051132917
 20
1782.567573288576
 30
0.0
 40
80.0
 41
0.8
 71
     4
 72
     1
  1
D13
  7
STYLE2
 73
     1
 44
1.0
1001
ACAD
1000
MTEXTBEGIN
1070
    73
1070
     1
1070
    44
1040
1.0
1070
    74
1070
     0
1000
MTEXTEND
  0
LINE
  5
2364B
330
747D
100
AcDbEntity
  8
部品1
 48
50.0
100
AcDbLine
 10
6416.605114105523
 20
1921.300011989648
 30
0.0
 11
6416.605114105523
 21
1377.300011989648
 31
0.0
  0
LINE
  5
2364C
330
747D
100
AcDbEntity
  8
部品1
 48
50.0
100
AcDbLine
 10
6224.605114105523
 20
1377.300011989648
 30
0.0
 11
6224.605114105523
 21
1921.300011989648
 31
0.0
  0
CIRCLE
  5
2364D
330
747D
100
AcDbEntity
  8
部品1
 48
50.0
100
AcDbCircle
 10
6320.605114105523
 20
1781.554441383894
 30
0.0
 40
8.0
  0
ARC
  5
2364E
330
747D
100
AcDbEntity
  8
部品1
 48
50.0
100
AcDbCircle
 10
6320.605114105523
 20
1781.554441383894
 30
0.0
 40
24.0
100
AcDbArc
 50
0.0
 51
180.0
  0
LINE
  5
2364F
330
747D
100
AcDbEntity
  8
細線
 48
50.0
100
AcDbLine
 10
6344.605114105523
 20
1759.672904657479
 30
0.0
 11
6416.605114105523
 21
1831.672904657479
 31
0.0
  0
LEADER
  5
23650
330
747D
100
AcDbEntity
  8
寸法
 48
50.0
100
AcDbLeader
  3
INABA_S40G
 73
     0
 75
     1
 40
106.3636363636363
 41
903.5235024184547
 76
     3
 10
8056.044427282715
 20
1990.860011989649
 30
0.0
 10
7997.620354937779
 20
2349.919586705982
 30
0.0
 10
7897.620354937778
 20
2349.919586705982
 30
0.0
1001
ACAD
1000
DSTYLE
1002
{
1070
   174
1070
     0
1070
   272
1070
     1
1070
   279
1070
     1
1070
   288
1070
     0
1070
   341
1005
0
1002
}
  0
MTEXT
  5
23651
102
{ACAD_REACTORS
330
23650
102
}
330
747D
100
AcDbEntity
  8
寸法
 62
     7
 48
50.0
100
AcDbMText
 10
7857.620354937779
 20
2443.1014048878
 30
0.0
 40
80.0
 41
0.8
 71
     6
 72
     1
  1
アンカープレート {\fArial|b0|i0|c0|p32;L}
  7
STYLE2
 73
     1
 44
1.0
1001
ACAD
1000
MTEXTBEGIN
1070
    73
1070
     1
1070
    44
1040
1.0
1070
    74
1070
     0
1000
MTEXTEND
  0
DIMENSION
  5
23652
330
747D
100
AcDbEntity
  8
寸法
 48
50.0
100
AcDbDimension
  2
*D48
 10
6544.605114105522
 20
598.8703739844882
 30
0.0
 11
6300.508355427298
 21
598.8703739844882
 31
0.0
 70
   160
  1
300
 71
     5
 42
448.0
  3
INABA_S40G
100
AcDbAlignedDimension
 13
6096.605114105522
 23
1009.300011989648
 33
0.0
 14
6544.605114105522
 24
1009.300011989648
 34
0.0
100
AcDbRotatedDimension
1001
ACAD
1000
DSTYLE
1002
{
1070
   174
1070
     0
1070
   272
1070
     1
1070
   279
1070
     1
1070
   288
1070
     0
1070
   341
1005
0
1002
}
  0
MTEXT
  5
23653
102
{ACAD_REACTORS
330
2365B
102
}
330
747D
100
AcDbEntity
  8
寸法
 62
     7
 48
50.0
100
AcDbMText
 10
5925.670087910329
 20
1053.777318371212
 30
0.0
 40
80.0
 41
0.8
 71
     6
 72
     1
  1
D10
  7
STYLE2
 73
     1
 44
1.0
1001
ACAD
1000
MTEXTBEGIN
1070
    73
1070
     1
1070
    44
1040
1.0
1070
    74
1070
     0
1000
MTEXTEND
  0
MTEXT
  5
23654
102
{ACAD_REACTORS
330
2365A
102
}
330
747D
100
AcDbEntity
  8
寸法
 62
     7
 48
50.0
100
AcDbMText
 10
5953.792815467763
 20
873.4611658317685
 30
0.0
 40
80.0
 41
0.8
 71
     6
 72
     1
  1
D13
  7
STYLE2
 73
     1
 44
1.0
1001
ACAD
1000
MTEXTBEGIN
1070
    73
1070
     1
1070
    44
1040
1.0
1070
    74
1070
     0
1000
MTEXTEND
  0
DIMENSION
  5
23655
330
747D
100
AcDbEntity
  8
寸法
 48
50.0
100
AcDbDimension
  2
*D49
 10
5489.567875543782
 20
1137.300011989648
 30
0.0
 11
5489.567875543782
 21
1508.840161645649
 31
0.0
 70
   160
  1
540
 71
     5
 42
784.0
  3
INABA_S40G
100
AcDbAlignedDimension
 13
6224.605114105522
 23
1921.300011989648
 33
0.0
 14
6016.605114105527
 24
1137.300011989648
 34
0.0
 50
90.0
100
AcDbRotatedDimension
1001
ACAD
1000
DSTYLE
1002
{
1070
   174
1070
     0
1070
   272
1070
     1
1070
   279
1070
     1
1070
   288
1070
     0
1070
   341
1005
0
1002
}
  0
MTEXT
  5
23656
102
{ACAD_REACTORS
330
23657
102
}
330
747D
100
AcDbEntity
  8
寸法
 62
     7
 48
50.0
100
AcDbMText
 10
6004.506634622249
 20
2133.816231991691
 30
0.0
 40
80.0
 41
0.8
 71
     6
 72
     1
  1
\A1;金コテ押エ
  7
STYLE2
 73
     1
 44
1.0
1001
ACAD
1000
MTEXTBEGIN
1070
    73
1070
     1
1070
    44
1040
1.0
1070
    74
1070
     0
1000
MTEXTEND
  0
LEADER
  5
23657
330
747D
100
AcDbEntity
  8
寸法
 48
50.0
100
AcDbLeader
  3
INABA_S40G
 71
     0
 73
     0
 75
     1
 40
130.1136363636363
 41
651.1363636363636
 76
     3
 10
6304.605114105522
 20
1921.300011989648
 30
0.0
 10
6167.180533941506
 20
2061.770777446236
 30
0.0
 10
6067.180533941506
 20
2061.770777446236
 30
0.0
1001
ACAD
1000
DSTYLE
1002
{
1070
   174
1070
     0
1070
   272
1070
     1
1070
   279
1070
     1
1070
   288
1070
     0
1070
   341
1005
0
1002
}
  0
LEADER
  5
23658
330
747D
100
AcDbEntity
  8
寸法
 48
50.0
100
AcDbLeader
  3
INABA_S40G
 71
     0
 73
     0
 75
     1
 40
100.0
 41
540.3409090909091
 76
     3
 10
6328.605114105522
 20
1679.427226686771
 30
0.0
 10
6245.622877576824
 20
1457.956898145966
 30
0.0
 10
6145.622877576824
 20
1457.956898145966
 30
0.0
213
-9.732182305893367
223
-4.643716661138569
233
0.0
1001
ACAD
1000
DSTYLE
1002
{
1070
   174
1070
     0
1070
   272
1070
     1
1070
   279
1070
     1
1070
   288
1070
     0
1070
   341
1005
0
1002
}
  0
MTEXT
  5
23659
102
{ACAD_REACTORS
330
23658
102
}
330
747D
100
AcDbEntity
  8
寸法
 62
     7
 48
50.0
100
AcDbMText
 10
6135.355059882718
 20
1522.600614807105
 30
0.0
 40
80.0
 41
0.8
 71
     6
 72
     1
  1
\A1;D10@300
  7
STYLE2
 73
     1
 44
1.0
1001
ACAD
1000
MTEXTBEGIN
1070
    73
1070
     1
1070
    44
1040
1.0
1070
    74
1070
     0
1000
MTEXTEND
  0
LEADER
  5
2365A
330
747D
100
AcDbEntity
  8
寸法
 48
50.0
100
AcDbLeader
  3
INABA_S40G
 71
     0
 73
     0
 75
     1
 40
100.0
 41
222.7272727272727
 76
     3
 10
6320.605114105522
 20
1257.300011989648
 30
0.0
 10
6073.792815467763
 20
813.4611658317686
 30
0.0
 10
5973.792815467763
 20
813.4611658317686
 30
0.0
1001
ACAD
1000
DSTYLE
1002
{
1070
   174
1070
     0
1070
   272
1070
     1
1070
   279
1070
     1
1070
   288
1070
     0
1070
   341
1005
0
1002
}
  0
LEADER
  5
2365B
330
747D
100
AcDbEntity
  8
寸法
 48
50.0
100
AcDbLeader
  3
INABA_S40G
 71
     0
 73
     0
 75
     1
 40
100.0
 41
225.0
 76
     3
 10
6192.508066457666
 20
1257.300011989648
 30
0.0
 10
6045.670087910328
 20
993.7773183712121
 30
0.0
 10
5945.670087910328
 20
993.7773183712121
 30
0.0
1001
ACAD
1000
DSTYLE
1002
{
1070
   174
1070
     0
1070
   272
1070
     1
1070
   279
1070
     1
1070
   288
1070
     0
1070
   341
1005
0
1002
}
  0
DIMENSION
  5
2365C
330
747D
100
AcDbEntity
  8
寸法
 48
50.0
100
AcDbDimension
  2
*D50
 10
5954.184800373063
 20
1137.300011989648
 30
0.0
 11
5954.184800373063
 21
1257.300011989648
 31
0.0
 70
   160
  1
150
 71
     5
 42
240.0
  3
INABA_S40G
100
AcDbAlignedDimension
 13
6096.605114105522
 23
1377.300011989648
 33
0.0
 14
6016.605114105527
 24
1137.300011989648
 34
0.0
 50
90.0
100
AcDbRotatedDimension
1001
ACAD
1000
DSTYLE
1002
{
1070
   174
1070
     0
1070
   272
1070
     1
1070
   279
1070
     1
1070
   288
1070
     0
1070
   341
1005
0
1002
}
  0
TEXT
  5
2365D
330
747D
100
AcDbEntity
  8
部品1
 48
50.0
100
AcDbText
 10
5810.465212272566
 20
1692.539004272904
 30
0.0
 40
80.0
  1
▽G.L
  7
STYLE2
100
AcDbText
  0
LWPOLYLINE
  5
2365E
330
747D
100
AcDbEntity
  8
部品1
 48
50.0
100
AcDbPolyline
 90
        2
 70
     0
 43
8.0
 10
5810.465212272566
 20
1681.300011989649
 10
6224.605114105522
 20
1681.300011989649
  0
MTEXT
  5
2365F
102
{ACAD_REACTORS
330
23660
102
}
330
747D
100
AcDbEntity
  8
寸法
 62
     7
 48
50.0
100
AcDbMText
 10
7830.977348729419
 20
2803.785676795314
 30
0.0
 40
80.0
 41
0.8
 71
     6
 72
     1
  1
\A1;φ70スリーブ
  7
STYLE2
 73
     1
 44
1.0
1001
ACAD
1000
MTEXTBEGIN
1070
    73
1070
     1
1070
    44
1040
1.0
1070
    74
1070
     0
1000
MTEXTEND
  0
LEADER
  5
23660
330
747D
100
AcDbEntity
  8
寸法
 48
50.0
100
AcDbLeader
  3
INABA_S40G
 73
     0
 75
     1
 40
113.1818181818182
 41
608.6363636363635
 76
     3
 10
8114.781177420764
 20
1870.815685347927
 30
0.0
 10
7970.977348729419
 20
2707.194767704405
 30
0.0
 10
7870.977348729418
 20
2707.194767704405
 30
0.0
1001
ACAD
1000
DSTYLE
1002
{
1070
   174
1070
     0
1070
   272
1070
     1
1070
   279
1070
     1
1070
   288
1070
     0
1070
   341
1005
0
1002
}
  0
LINE
  5
23661
330
747D
100
AcDbEntity
  8
部品1
100
AcDbLine
 10
5153.93667529626
 20
3242.271631766493
 30
0.0
 11
5153.936675296261
 21
277.9646621818461
 31
0.0
  0
LEADER
  5
23662
330
747D
100
AcDbEntity
  8
寸法
 48
50.0
100
AcDbLeader
  3
INABA_S40G
 73
     0
 74
     0
 75
     1
 40
80.0
 41
435.0
 76
     3
 10
8155.044427282716
 20
1970.460011989649
 30
0.0
 10
8207.588889702035
 20
2105.683338142879
 30
0.0
 10
8307.588889702035
 20
2105.683338142879
 30
0.0
1001
ACAD
1000
DSTYLE
1002
{
1070
   174
1070
     0
1070
   272
1070
     1
1070
   279
1070
     1
1070
   288
1070
     0
1070
   341
1005
0
1002
}
  0
MTEXT
  5
23663
102
{ACAD_REACTORS
330
23662
102
}
330
747D
100
AcDbEntity
  8
部品1
 62
     7
 48
50.0
100
AcDbMText
 10
8347.588889702034
 20
2185.683338142878
 30
0.0
 40
80.0
 41
0.8
 71
     4
 72
     1
  1
M10X160
  7
STYLE2
 73
     1
 44
1.0
1001
ACAD
1000
MTEXTBEGIN
1070
    73
1070
     1
1070
    44
1040
1.0
1070
    74
1070
     0
1000
MTEXTEND
  0
DIMENSION
  5
23664
330
747D
100
AcDbEntity
  8
寸法
 48
50.0
100
AcDbDimension
  2
*D51
 10
8840.513027051558
 20
1921.300011989648
 30
0.0
 11
9116.567693170585
 21
1896.176054385437
 31
0.0
 70
   160
  1
20～25
 71
     5
 42
52.76000000000113
  3
INABA_S40G
100
AcDbAlignedDimension
 13
8151.444427282717
 23
1974.060011989649
 33
0.0
 14
8338.644427282714
 24
1921.300011989648
 34
0.0
 50
90.0
100
AcDbRotatedDimension
1001
ACAD
1000
DSTYLE
1002
{
1070
   174
1070
     0
1070
   272
1070
     1
1070
   279
1070
     1
1070
   288
1070
     0
1070
   341
1005
0
1002
}
  0
DIMENSION
  5
23665
330
747D
100
AcDbEntity
  8
寸法
 48
50.0
100
AcDbDimension
  2
*D52
 10
8840.513027051558
 20
1597.300011989647
 30
0.0
 11
8740.513027051559
 21
1759.300011989649
 31
0.0
 70
    32
  1
180
 71
     5
 42
324.0000000000009
  3
INABA_S40G
100
AcDbAlignedDimension
 13
8338.644427282714
 23
1921.300011989648
 33
0.0
 14
8338.644427282714
 24
1597.300011989647
 34
0.0
 50
90.0
100
AcDbRotatedDimension
1001
ACAD
1000
DSTYLE
1002
{
1070
   174
1070
     0
1070
   272
1070
     1
1070
   279
1070
     1
1070
   288
1070
     0
1070
   341
1005
0
1002
}
  0
TEXT
  5
23666
330
747D
100
AcDbEntity
  8
部品1
 48
50.0
100
AcDbText
 10
8342.998011567143
 20
2277.178692751848
 30
0.0
 40
80.0
  1
基礎ボルト(市販品)
  7
STYLE2
100
AcDbText
  0
LWPOLYLINE
  5
23667
330
747D
100
AcDbEntity
  8
部品1
 48
50.0
100
AcDbPolyline
 90
        2
 70
     0
 43
8.0
 10
8338.644427282714
 20
1681.300011989649
 10
8632.3468906821
 20
1681.300011989649
  0
MTEXT
  5
23668
102
{ACAD_REACTORS
330
23669
102
}
330
747D
100
AcDbEntity
  8
部品1
 62
     7
 48
50.0
100
AcDbMText
 10
8377.916017651555
 20
2621.795385076909
 30
0.0
 40
80.0
 41
0.8
 71
     4
 72
     1
  1
\A1;ワッシャー(市販品)
  7
STYLE2
 73
     1
 44
1.0
1001
ACAD
1000
MTEXTBEGIN
1070
    73
1070
     1
1070
    44
1040
1.0
1070
    74
1070
     0
1000
MTEXTEND
  0
LEADER
  5
23669
330
747D
100
AcDbEntity
  8
寸法
 48
50.0
100
AcDbLeader
  3
INABA_S40G
 73
     0
 74
     0
 75
     1
 40
102.2727272727273
 41
906.8181818181818
 76
     3
 10
8186.044427282714
 20
2190.423300433928
 30
0.0
 10
8237.916017651555
 20
2530.659021440545
 30
0.0
 10
8337.916017651554
 20
2530.659021440545
 30
0.0
1001
ACAD
1000
DSTYLE
1002
{
1070
   174
1070
     0
1070
   272
1070
     1
1070
   279
1070
     1
1070
   288
1070
     0
1070
   341
1005
0
1002
}
  0
MTEXT
  5
2366A
102
{ACAD_REACTORS
330
2366B
102
}
330
747D
100
AcDbEntity
  8
部品1
 62
     7
 48
50.0
100
AcDbMText
 10
8346.398398396072
 20
2806.764467841696
 30
0.0
 40
80.0
 41
0.8
 71
     4
 72
     1
  1
\A1;ナット(市販品)
  7
STYLE2
 73
     1
 44
1.0
1001
ACAD
1000
MTEXTBEGIN
1070
    73
1070
     1
1070
    44
1040
1.0
1070
    74
1070
     0
1000
MTEXTEND
  0
LEADER
  5
2366B
330
747D
100
AcDbEntity
  8
寸法
 48
50.0
100
AcDbLeader
  3
INABA_S40G
 73
     0
 74
     0
 75
     1
 40
102.2727272727273
 41
680.0000000000001
 76
     3
 10
8162.044427282715
 20
2320.175293098791
 30
0.0
 10
8206.398398396071
 20
2715.628104205332
 30
0.0
 10
8306.398398396071
 20
2715.628104205332
 30
0.0
1001
ACAD
1000
DSTYLE
1002
{
1070
   174
1070
     0
1070
   272
1070
     1
1070
   279
1070
     1
1070
   288
1070
     0
1070
   341
1005
0
1002
}
  0
LINE
  5
2366C
330
747D
100
AcDbEntity
  8
部品1
100
AcDbLine
 10
5153.936675296264
 20
277.9646621818461
 30
0.0
 11
11224.92186068251
 21
277.9646621818461
 31
0.0
  0
LINE
  5
2366D
330
747D
100
AcDbEntity
  8
部品1
100
AcDbLine
 10
11224.92186068251
 20
3002.271631766491
 30
0.0
 11
5153.936675296261
 21
3002.271631766492
 31
0.0
  0
LINE
  5
2366E
330
747D
100
AcDbEntity
  8
部品1
100
AcDbLine
 10
11224.92186068251
 20
3242.271631766493
 30
0.0
 11
5153.936675296257
 21
3242.271631766493
 31
0.0
  0
ENDSEC
  0
SECTION
  2
OBJECTS
  0
DICTIONARY
  5
7471
330
0
100
AcDbDictionary
281
     1
  3
ACAD_COLOR
350
173D2
  3
ACAD_GROUP
350
7472
  3
ACAD_LAYOUT
350
173D3
  3
ACAD_MATERIAL
350
173D1
  3
ACAD_MLINESTYLE
350
7473
  3
ACAD_PLOTSETTINGS
350
173D4
  3
ACAD_PLOTSTYLENAME
350
173CF
  3
ACDBHEADERROUNDTRIPXREC
350
2371C
  3
AcDbVariableDictionary
350
23718
  3
CONTENTDICTIONARY
350
E71C
  3
DRAWINGVARIABLESDICT
350
F3B9
  0
DICTIONARY
  5
1758F
330
7467
100
AcDbDictionary
280
     1
281
     1
  3
ACAD_LAYERSTATES
360
17590
  0
DICTIONARY
  5
173D2
102
{ACAD_REACTORS
330
7471
102
}
330
7471
100
AcDbDictionary
281
     1
  0
DICTIONARY
  5
7472
102
{ACAD_REACTORS
330
7471
102
}
330
7471
100
AcDbDictionary
281
     1
  3
*A1
350
1D2A9
  0
DICTIONARY
  5
173D3
102
{ACAD_REACTORS
330
7471
102
}
330
7471
100
AcDbDictionary
281
     1
  3
Model
350
173D5
  3
レイアウト1
350
173D6
  0
DICTIONARY
  5
173D1
102
{ACAD_REACTORS
330
7471
102
}
330
7471
100
AcDbDictionary
281
     1
  0
DICTIONARY
  5
7473
102
{ACAD_REACTORS
330
7471
102
}
330
7471
100
AcDbDictionary
281
     1
  3
STANDARD
350
7480
  0
DICTIONARY
  5
173D4
102
{ACAD_REACTORS
330
7471
102
}
330
7471
100
AcDbDictionary
281
     1
  0
ACDBDICTIONARYWDFLT
  5
173CF
102
{ACAD_REACTORS
330
7471
102
}
330
7471
100
AcDbDictionary
281
     1
  3
Normal
350
173D0
100
AcDbDictionaryWithDefault
340
173D0
  0
DICTIONARY
  5
2371C
102
{ACAD_REACTORS
330
7471
102
}
330
7471
100
AcDbDictionary
281
     1
  3
COLORDICT
350
2371E
  3
MATERIALDICT
350
2371D
  0
DICTIONARY
  5
23718
102
{ACAD_REACTORS
330
7471
102
}
330
7471
100
AcDbDictionary
281
     1
  3
DIMASSOC
350
23719
  3
PROJECTNAME
350
2371A
  0
DICTIONARY
  5
E71C
102
{ACAD_REACTORS
330
7471
102
}
330
7471
100
AcDbDictionary
281
     1
  0
DICTIONARY
  5
F3B9
102
{ACAD_REACTORS
330
7471
102
}
330
7471
100
AcDbDictionary
281
     1
1001
DRAWINGVARIABLESXDATA
1000
POLARMODE
1000
1
  0
DICTIONARY
  5
17590
102
{ACAD_REACTORS
330
1758F
102
}
330
1758F
100
AcDbDictionary
281
     1
  0
GROUP
  5
1D2A9
102
{ACAD_REACTORS
330
7472
102
}
330
7472
100
AcDbGroup
300

 70
     1
 71
     1
  0
LAYOUT
  5
173D5
102
{ACAD_XDICTIONARY
360
2371F
102
}
102
{ACAD_REACTORS
330
173D3
102
}
330
173D3
100
AcDbPlotSettings
  1

  2
クセロPDFよこ.pc3
  4
A3
  6

 40
3.174999952316284
 41
3.174999952316284
 42
3.17498779296875
 43
3.17498779296875
 44
419.9466552734374
 45
296.9259948730469
 46
0.0
 47
0.0
 48
0.0
 49
0.0
140
0.0
141
0.0
142
1.0
143
40.0
 70
 11952
 72
     1
 73
     0
 74
     2
  7
ACA3.ctb
 75
    24
147
0.025
148
0.0
149
0.0
100
AcDbLayout
  1
Model
 70
     1
 71
     0
 10
0.0
 20
0.0
 11
12.0
 21
9.0
 12
0.0
 22
0.0
 32
0.0
 14
0.0
 24
0.0
 34
0.0
 15
0.0
 25
0.0
 35
0.0
146
0.0
 13
0.0
 23
0.0
 33
0.0
 16
1.0
 26
0.0
 36
0.0
 17
0.0
 27
1.0
 37
0.0
 76
     0
330
747D
  0
LAYOUT
  5
173D6
102
{ACAD_XDICTIONARY
360
23721
102
}
102
{ACAD_REACTORS
330
173D3
102
}
330
173D3
100
AcDbPlotSettings
  1

  2
Microsoft Office Document Image Writer
  4

  6

 40
0.0
 41
0.0
 42
0.0
 43
0.0
 44
0.0
 45
0.0
 46
0.0
 47
0.0
 48
0.0
 49
0.0
140
0.0
141
0.0
142
1.0
143
1.0
 70
   688
 72
     0
 73
     0
 74
     5
  7
ACA3.ctb
 75
    16
147
1.0
148
0.0
149
0.0
100
AcDbLayout
  1
レイアウト1
 70
     0
 71
     1
 10
0.0
 20
0.0
 11
420.0
 21
297.0
 12
0.0
 22
0.0
 32
0.0
 14
1.000000000000000E+20
 24
1.000000000000000E+20
 34
1.000000000000000E+20
 15
-1.000000000000000E+20
 25
-1.000000000000000E+20
 35
-1.000000000000000E+20
146
0.0
 13
0.0
 23
0.0
 33
0.0
 16
1.0
 26
0.0
 36
0.0
 17
0.0
 27
1.0
 37
0.0
 76
     0
330
747A
  0
MLINESTYLE
  5
7480
102
{ACAD_REACTORS
330
7473
102
}
330
7473
100
AcDbMlineStyle
  2
STANDARD
 70
     0
  3

 62
     0
 51
90.0
 52
90.0
 71
     2
 49
0.5
 62
   256
  6
BYLAYER
 49
-0.5
 62
   256
  6
BYLAYER
  0
ACDBPLACEHOLDER
  5
173D0
102
{ACAD_REACTORS
330
173CF
102
}
330
173CF
  0
XRECORD
  5
2371E
102
{ACAD_REACTORS
330
2371C
102
}
330
2371C
100
AcDbXrecord
280
     1
340
173D2
  0
XRECORD
  5
2371D
102
{ACAD_REACTORS
330
2371C
102
}
330
2371C
100
AcDbXrecord
280
     1
340
173D1
  0
DICTIONARYVAR
  5
23719
102
{ACAD_REACTORS
330
23718
102
}
330
23718
100
DictionaryVariables
280
     0
  1
1
  0
DICTIONARYVAR
  5
2371A
102
{ACAD_REACTORS
330
23718
102
}
330
23718
100
DictionaryVariables
280
     0
  1

  0
DICTIONARY
  5
2371F
330
173D5
100
AcDbDictionary
280
     1
281
     1
  3
ACAD_XREC_ROUNDTRIP
360
23720
  0
DICTIONARY
  5
23721
330
173D6
100
AcDbDictionary
280
     1
281
     1
  3
ACAD_XREC_ROUNDTRIP
360
23722
  0
XRECORD
  5
23720
102
{ACAD_REACTORS
330
2371F
102
}
330
2371F
100
AcDbXrecord
280
     1
102
SHADEPLOT
 70
     0
102
SHADEPLOTRESLEVEL
 70
     2
102
SHADEPLOTCUSTOMDPI
 70
   150
  0
XRECORD
  5
23722
102
{ACAD_REACTORS
330
23721
102
}
330
23721
100
AcDbXrecord
280
     1
102
SHADEPLOT
 70
     0
102
SHADEPLOTRESLEVEL
 70
     2
102
SHADEPLOTCUSTOMDPI
 70
   300
  0
ENDSEC
  0
EOF
