  0
SECTION
  2
HEADER
  9
$ACADVER
  1
AC1015
  9
$ACADMAINTVER
 70
    20
  9
$DWGCODEPAGE
  3
ANSI_932
  9
$INSBASE
 10
0.0
 20
0.0
 30
0.0
  9
$EXTMIN
 10
139.9999999999995
 20
-0.0000000000000909
 30
0.0
  9
$EXTMAX
 10
16307.2
 20
11409.6
 30
0.0
  9
$LIMMIN
 10
0.0
 20
0.0
  9
$LIMMAX
 10
16800.0
 20
11880.0
  9
$ORTHOMODE
 70
     0
  9
$REGENMODE
 70
     1
  9
$FILLMODE
 70
     1
  9
$QTEXTMODE
 70
     0
  9
$MIRRTEXT
 70
     1
  9
$LTSCALE
 40
20.0
  9
$ATTMODE
 70
     1
  9
$TEXTSIZE
 40
4.0
  9
$TRACEWID
 40
1.0
  9
$TEXTSTYLE
  7
STYLE1
  9
$CLAYER
  8
細線
  9
$CELTYPE
  6
BYLAYER
  9
$CECOLOR
 62
   256
  9
$CELTSCALE
 40
50.0
  9
$DISPSILH
 70
     0
  9
$DIMSCALE
 40
40.0
  9
$DIMASZ
 40
2.5
  9
$DIMEXO
 40
0.5
  9
$DIMDLI
 40
7.0
  9
$DIMRND
 40
0.0
  9
$DIMDLE
 40
0.0
  9
$DIMEXE
 40
1.5
  9
$DIMTP
 40
0.0
  9
$DIMTM
 40
0.0
  9
$DIMTXT
 40
3.0
  9
$DIMCEN
 40
0.0
  9
$DIMTSZ
 40
0.0
  9
$DIMTOL
 70
     0
  9
$DIMLIM
 70
     0
  9
$DIMTIH
 70
     0
  9
$DIMTOH
 70
     0
  9
$DIMSE1
 70
     0
  9
$DIMSE2
 70
     0
  9
$DIMTAD
 70
     3
  9
$DIMZIN
 70
     8
  9
$DIMBLK
  1

  9
$DIMASO
 70
     1
  9
$DIMSHO
 70
     1
  9
$DIMPOST
  1

  9
$DIMAPOST
  1

  9
$DIMALT
 70
     0
  9
$DIMALTD
 70
     2
  9
$DIMALTF
 40
0.0394
  9
$DIMLFAC
 40
1.0
  9
$DIMTOFL
 70
     1
  9
$DIMTVP
 40
0.0
  9
$DIMTIX
 70
     1
  9
$DIMSOXD
 70
     0
  9
$DIMSAH
 70
     1
  9
$DIMBLK1
  1
DOTSMALL
  9
$DIMBLK2
  1
DOTSMALL
  9
$DIMSTYLE
  2
INABA_S40G
  9
$DIMCLRD
 70
     0
  9
$DIMCLRE
 70
     0
  9
$DIMCLRT
 70
     7
  9
$DIMTFAC
 40
1.0
  9
$DIMGAP
 40
1.0
  9
$DIMJUST
 70
     0
  9
$DIMSD1
 70
     0
  9
$DIMSD2
 70
     0
  9
$DIMTOLJ
 70
     1
  9
$DIMTZIN
 70
     0
  9
$DIMALTZ
 70
     0
  9
$DIMALTTZ
 70
     0
  9
$DIMUPT
 70
     0
  9
$DIMDEC
 70
     1
  9
$DIMTDEC
 70
     4
  9
$DIMALTU
 70
     2
  9
$DIMALTTD
 70
     2
  9
$DIMTXSTY
  7
STYLE1
  9
$DIMAUNIT
 70
     0
  9
$DIMADEC
 70
     0
  9
$DIMALTRND
 40
0.0
  9
$DIMAZIN
 70
     0
  9
$DIMDSEP
 70
    46
  9
$DIMATFIT
 70
     3
  9
$DIMFRAC
 70
     0
  9
$DIMLDRBLK
  1

  9
$DIMLUNIT
 70
     2
  9
$DIMLWD
 70
    -2
  9
$DIMLWE
 70
    -2
  9
$DIMTMOVE
 70
     0
  9
$LUNITS
 70
     2
  9
$LUPREC
 70
     1
  9
$SKETCHINC
 40
1.0
  9
$FILLETRAD
 40
3.0
  9
$AUNITS
 70
     0
  9
$AUPREC
 70
     0
  9
$MENU
  1
acad
  9
$ELEVATION
 40
0.0
  9
$PELEVATION
 40
0.0
  9
$THICKNESS
 40
0.0
  9
$LIMCHECK
 70
     0
  9
$CHAMFERA
 40
0.0
  9
$CHAMFERB
 40
0.0
  9
$CHAMFERC
 40
0.0
  9
$CHAMFERD
 40
0.0
  9
$SKPOLY
 70
     0
  9
$TDCREATE
 40
2451368.612993866
  9
$TDUCREATE
 40
2451368.237993866
  9
$TDUPDATE
 40
2455827.647786412
  9
$TDUUPDATE
 40
2455827.272786412
  9
$TDINDWG
 40
0.7583380324
  9
$TDUSRTIMER
 40
0.7583380324
  9
$USRTIMER
 70
     1
  9
$ANGBASE
 50
0.0
  9
$ANGDIR
 70
     0
  9
$PDMODE
 70
     3
  9
$PDSIZE
 40
2.0
  9
$PLINEWID
 40
0.0
  9
$SPLFRAME
 70
     0
  9
$SPLINETYPE
 70
     6
  9
$SPLINESEGS
 70
     8
  9
$HANDSEED
  5
240BA
  9
$SURFTAB1
 70
     6
  9
$SURFTAB2
 70
     6
  9
$SURFTYPE
 70
     6
  9
$SURFU
 70
     6
  9
$SURFV
 70
     6
  9
$UCSBASE
  2

  9
$UCSNAME
  2

  9
$UCSORG
 10
0.0
 20
0.0
 30
0.0
  9
$UCSXDIR
 10
1.0
 20
0.0
 30
0.0
  9
$UCSYDIR
 10
0.0
 20
1.0
 30
0.0
  9
$UCSORTHOREF
  2

  9
$UCSORTHOVIEW
 70
     0
  9
$UCSORGTOP
 10
0.0
 20
0.0
 30
0.0
  9
$UCSORGBOTTOM
 10
0.0
 20
0.0
 30
0.0
  9
$UCSORGLEFT
 10
0.0
 20
0.0
 30
0.0
  9
$UCSORGRIGHT
 10
0.0
 20
0.0
 30
0.0
  9
$UCSORGFRONT
 10
0.0
 20
0.0
 30
0.0
  9
$UCSORGBACK
 10
0.0
 20
0.0
 30
0.0
  9
$PUCSBASE
  2

  9
$PUCSNAME
  2

  9
$PUCSORG
 10
0.0
 20
0.0
 30
0.0
  9
$PUCSXDIR
 10
1.0
 20
0.0
 30
0.0
  9
$PUCSYDIR
 10
0.0
 20
1.0
 30
0.0
  9
$PUCSORTHOREF
  2

  9
$PUCSORTHOVIEW
 70
     0
  9
$PUCSORGTOP
 10
0.0
 20
0.0
 30
0.0
  9
$PUCSORGBOTTOM
 10
0.0
 20
0.0
 30
0.0
  9
$PUCSORGLEFT
 10
0.0
 20
0.0
 30
0.0
  9
$PUCSORGRIGHT
 10
0.0
 20
0.0
 30
0.0
  9
$PUCSORGFRONT
 10
0.0
 20
0.0
 30
0.0
  9
$PUCSORGBACK
 10
0.0
 20
0.0
 30
0.0
  9
$USERI1
 70
     0
  9
$USERI2
 70
     0
  9
$USERI3
 70
     0
  9
$USERI4
 70
     0
  9
$USERI5
 70
     0
  9
$USERR1
 40
0.0
  9
$USERR2
 40
0.0
  9
$USERR3
 40
0.0
  9
$USERR4
 40
0.0
  9
$USERR5
 40
0.0
  9
$WORLDVIEW
 70
     1
  9
$SHADEDGE
 70
     3
  9
$SHADEDIF
 70
    70
  9
$TILEMODE
 70
     1
  9
$MAXACTVP
 70
    16
  9
$PINSBASE
 10
0.0
 20
0.0
 30
0.0
  9
$PLIMCHECK
 70
     0
  9
$PEXTMIN
 10
1.000000000000000E+20
 20
1.000000000000000E+20
 30
1.000000000000000E+20
  9
$PEXTMAX
 10
-1.000000000000000E+20
 20
-1.000000000000000E+20
 30
-1.000000000000000E+20
  9
$PLIMMIN
 10
0.0
 20
0.0
  9
$PLIMMAX
 10
420.0
 20
297.0
  9
$UNITMODE
 70
     0
  9
$VISRETAIN
 70
     0
  9
$PLINEGEN
 70
     0
  9
$PSLTSCALE
 70
     0
  9
$TREEDEPTH
 70
  3020
  9
$CMLSTYLE
  2
STANDARD
  9
$CMLJUST
 70
     0
  9
$CMLSCALE
 40
1.0
  9
$PROXYGRAPHICS
 70
     1
  9
$MEASUREMENT
 70
     1
  9
$CELWEIGHT
370
    -1
  9
$ENDCAPS
280
     0
  9
$JOINSTYLE
280
     0
  9
$LWDISPLAY
290
     0
  9
$INSUNITS
 70
     0
  9
$HYPERLINKBASE
  1

  9
$STYLESHEET
  1
ACA3.ctb
  9
$XEDIT
290
     1
  9
$CEPSNTYPE
380
     0
  9
$PSTYLEMODE
290
     1
  9
$FINGERPRINTGUID
  2
{5EAC461A-2277-4BF8-9AB0-99C43BB394F0}
  9
$VERSIONGUID
  2
{CF15E2E9-62C0-428F-B10D-12DD923AB635}
  9
$EXTNAMES
290
     1
  9
$PSVPSCALE
 40
0.0
  9
$OLESTARTUP
290
     0
  0
ENDSEC
  0
SECTION
  2
CLASSES
  0
CLASS
  1
ACDBDICTIONARYWDFLT
  2
AcDbDictionaryWithDefault
  3
ObjectDBX Classes
 90
        0
280
     0
281
     0
  0
CLASS
  1
DICTIONARYVAR
  2
AcDbDictionaryVar
  3
ObjectDBX Classes
 90
        0
280
     0
281
     0
  0
CLASS
  1
ACDBPLACEHOLDER
  2
AcDbPlaceHolder
  3
ObjectDBX Classes
 90
        0
280
     0
281
     0
  0
CLASS
  1
LAYOUT
  2
AcDbLayout
  3
ObjectDBX Classes
 90
        0
280
     0
281
     0
  0
ENDSEC
  0
SECTION
  2
TABLES
  0
TABLE
  2
VPORT
  5
746D
330
0
100
AcDbSymbolTable
 70
     2
  0
VPORT
  5
240B2
330
746D
100
AcDbSymbolTableRecord
100
AcDbViewportTableRecord
  2
*Active
 70
     0
 10
0.0
 20
0.0
 11
1.0
 21
1.0
 12
8885.850509459423
 22
6290.65205024747
 13
0.0
 23
0.0
 14
10.0
 24
10.0
 15
10.0
 25
10.0
 16
0.0
 26
0.0
 36
1.0
 17
0.0
 27
0.0
 37
0.0
 40
12670.59564730199
 41
1.522222222222222
 42
50.0
 43
0.0
 44
0.0
 50
0.0
 51
0.0
 71
     0
 72
     0
 73
     1
 74
     0
 75
     0
 76
     0
 77
     0
 78
     0
281
     0
 65
     1
110
0.0
120
0.0
130
0.0
111
1.0
121
0.0
131
0.0
112
0.0
122
1.0
132
0.0
 79
     0
146
0.0
  0
ENDTAB
  0
TABLE
  2
LTYPE
  5
746A
330
0
100
AcDbSymbolTable
 70
     5
  0
LTYPE
  5
7477
330
746A
100
AcDbSymbolTableRecord
100
AcDbLinetypeTableRecord
  2
BYBLOCK
 70
     0
  3

 72
    65
 73
     0
 40
0.0
  0
LTYPE
  5
7478
330
746A
100
AcDbSymbolTableRecord
100
AcDbLinetypeTableRecord
  2
BYLAYER
 70
     0
  3

 72
    65
 73
     0
 40
0.0
  0
LTYPE
  5
7479
330
746A
100
AcDbSymbolTableRecord
100
AcDbLinetypeTableRecord
  2
CONTINUOUS
 70
     0
  3
Solid line
 72
    65
 73
     0
 40
0.0
  0
LTYPE
  5
7816
330
746A
100
AcDbSymbolTableRecord
100
AcDbLinetypeTableRecord
  2
CENTER
 70
     0
  3
____ _ ____ _ ____ _ ____ _ ____ _ ____ _ ____ 
 72
    65
 73
     4
 40
2.0
 49
1.25
 74
     0
 49
-0.25
 74
     0
 49
0.25
 74
     0
 49
-0.25
 74
     0
  0
LTYPE
  5
781A
330
746A
100
AcDbSymbolTableRecord
100
AcDbLinetypeTableRecord
  2
HIDDEN
 70
     0
  3
__ __ __ __ __ __ __ __ __ __ __ __ __ __ __ __
 72
    65
 73
     2
 40
0.375
 49
0.25
 74
     0
 49
-0.125
 74
     0
  0
LTYPE
  5
781B
330
746A
100
AcDbSymbolTableRecord
100
AcDbLinetypeTableRecord
  2
PHANTOM
 70
     0
  3
______  __  __  ______  __  __  ______  __  __ 
 72
    65
 73
     6
 40
2.5
 49
1.25
 74
     0
 49
-0.25
 74
     0
 49
0.25
 74
     0
 49
-0.25
 74
     0
 49
0.25
 74
     0
 49
-0.25
 74
     0
  0
LTYPE
  5
12CC3
330
746A
100
AcDbSymbolTableRecord
100
AcDbLinetypeTableRecord
  2
HIDDENX2
 70
     0
  3
Hidden (2x) ____ ____ ____ ____ ____ ____ ____
 72
    65
 73
     2
 40
19.05
 49
12.7
 74
     0
 49
-6.349999999999999
 74
     0
  0
ENDTAB
  0
TABLE
  2
LAYER
  5
7467
102
{ACAD_XDICTIONARY
360
1758F
102
}
330
0
100
AcDbSymbolTable
 70
    13
  0
LAYER
  5
7474
330
7467
100
AcDbSymbolTableRecord
100
AcDbLayerTableRecord
  2
0
 70
     0
 62
     7
  6
CONTINUOUS
370
    -3
390
173D0
  0
LAYER
  5
DEB2
330
7467
100
AcDbSymbolTableRecord
100
AcDbLayerTableRecord
  2
センター
 70
     0
 62
     3
  6
CENTER
370
    -3
390
173D0
  0
LAYER
  5
DEB3
330
7467
100
AcDbSymbolTableRecord
100
AcDbLayerTableRecord
  2
寸法
 70
     0
 62
     4
  6
CONTINUOUS
370
    -3
390
173D0
  0
LAYER
  5
DEB4
330
7467
100
AcDbSymbolTableRecord
100
AcDbLayerTableRecord
  2
部品1
 70
     0
 62
     7
  6
CONTINUOUS
370
    -3
390
173D0
  0
LAYER
  5
DEB5
330
7467
100
AcDbSymbolTableRecord
100
AcDbLayerTableRecord
  2
補助
 70
     0
 62
    -1
  6
CONTINUOUS
370
    -3
390
173D0
  0
LAYER
  5
DEB6
330
7467
100
AcDbSymbolTableRecord
100
AcDbLayerTableRecord
  2
文字
 70
     0
 62
     7
  6
CONTINUOUS
370
    -3
390
173D0
  0
LAYER
  5
F255
330
7467
100
AcDbSymbolTableRecord
100
AcDbLayerTableRecord
  2
DEFPOINTS
 70
     0
 62
     7
  6
CONTINUOUS
290
     0
370
    -3
390
173D0
  0
LAYER
  5
10B54
330
7467
100
AcDbSymbolTableRecord
100
AcDbLayerTableRecord
  2
仕様書枠
 70
     0
 62
   230
  6
CONTINUOUS
370
    -3
390
173D0
  0
LAYER
  5
11729
330
7467
100
AcDbSymbolTableRecord
100
AcDbLayerTableRecord
  2
Ｇ．Ｌ
 70
     0
 62
    30
  6
CONTINUOUS
370
    -3
390
173D0
  0
LAYER
  5
1173F
330
7467
100
AcDbSymbolTableRecord
100
AcDbLayerTableRecord
  2
細線
 70
     0
 62
     5
  6
CONTINUOUS
370
    -3
390
173D0
  0
LAYER
  5
12CC4
330
7467
100
AcDbSymbolTableRecord
100
AcDbLayerTableRecord
  2
想像線
 70
     0
 62
     6
  6
PHANTOM
370
    -3
390
173D0
  0
LAYER
  5
142E2
330
7467
100
AcDbSymbolTableRecord
100
AcDbLayerTableRecord
  2
破線
 70
     0
 62
     2
  6
HIDDEN
370
    -3
390
173D0
  0
LAYER
  5
1F7B1
330
7467
100
AcDbSymbolTableRecord
100
AcDbLayerTableRecord
  2
点線
 70
     0
 62
     2
  6
HIDDEN
370
    -3
390
173D0
  0
ENDTAB
  0
TABLE
  2
STYLE
  5
7468
330
0
100
AcDbSymbolTable
 70
     7
  0
STYLE
  5
7475
330
7468
100
AcDbSymbolTableRecord
100
AcDbTextStyleTableRecord
  2
STANDARD
 70
     0
 40
0.0
 41
1.0
 50
0.0
 71
     0
 42
4.0
  3
txt
  4
C:\AutoCAD LT\bigfont.shx
  0
STYLE
  5
763C
330
7468
100
AcDbSymbolTableRecord
100
AcDbTextStyleTableRecord
  2
MSMINCHO
 70
     0
 40
0.0
 41
1.0
 50
0.0
 71
     0
 42
1.199999999999999
  3
C:\AutoCAD LT\msminch2.TTF
  4

  0
STYLE
  5
F706
330
7468
100
AcDbSymbolTableRecord
100
AcDbTextStyleTableRecord
  2
STYLE1
 70
     0
 40
0.0
 41
1.0
 50
0.0
 71
     0
 42
4.0
  3
isocp.shx
  4
bigfont.shx
  0
STYLE
  5
103BF
330
7468
100
AcDbSymbolTableRecord
100
AcDbTextStyleTableRecord
  2
STYLE2
 70
     0
 40
0.0
 41
1.0
 50
0.0
 71
     0
 42
100.0
  3
MS PGothic.ttf
  4

1001
ACAD
1000
MS PGothic
1071
    32818
  0
STYLE
  5
10BAA
330
7468
100
AcDbSymbolTableRecord
100
AcDbTextStyleTableRecord
  2
STYLE3
 70
     0
 40
0.0
 41
1.0
 50
0.0
 71
     0
 42
100.0
  3

  4

1001
ACAD
1000
DFPGothic-EB
1071
    32818
  0
STYLE
  5
11A15
330
7468
100
AcDbSymbolTableRecord
100
AcDbTextStyleTableRecord
  2
MSGOTHIC
 70
     0
 40
0.0
 41
1.0
 50
0.0
 71
     0
 42
3.5
  3
msgothi2.ttf
  4

  0
STYLE
  5
13E96
330
7468
100
AcDbSymbolTableRecord
100
AcDbTextStyleTableRecord
  2
MSPゴシック
 70
     0
 40
0.0
 41
1.0
 50
0.0
 71
     0
 42
4.0
  3
MS PGothic.ttf
  4

1001
ACAD
1000
MS PGothic
1071
    32818
  0
ENDTAB
  0
TABLE
  2
VIEW
  5
746B
330
0
100
AcDbSymbolTable
 70
     0
  0
ENDTAB
  0
TABLE
  2
UCS
  5
746C
330
0
100
AcDbSymbolTable
 70
     0
  0
ENDTAB
  0
TABLE
  2
APPID
  5
746E
330
0
100
AcDbSymbolTable
 70
     6
  0
APPID
  5
7476
330
746E
100
AcDbSymbolTableRecord
100
AcDbRegAppTableRecord
  2
ACAD
 70
     0
  0
APPID
  5
DEA9
330
746E
100
AcDbSymbolTableRecord
100
AcDbRegAppTableRecord
  2
CONTENTBLOCKICON
 70
     0
  0
APPID
  5
DEAA
330
746E
100
AcDbSymbolTableRecord
100
AcDbRegAppTableRecord
  2
CONTENTBLOCKDESCRIPTION
 70
     0
  0
APPID
  5
E71D
330
746E
100
AcDbSymbolTableRecord
100
AcDbRegAppTableRecord
  2
CONTENTTABDATA
 70
     0
  0
APPID
  5
E71E
330
746E
100
AcDbSymbolTableRecord
100
AcDbRegAppTableRecord
  2
CONTENTCURRENTTAB
 70
     0
  0
APPID
  5
F3BA
330
746E
100
AcDbSymbolTableRecord
100
AcDbRegAppTableRecord
  2
DRAWINGVARIABLESXDATA
 70
     0
  0
ENDTAB
  0
TABLE
  2
DIMSTYLE
  5
746F
330
0
100
AcDbSymbolTable
 70
     6
100
AcDbDimStyleTable
 71
     1
340
F71F
  0
DIMSTYLE
105
7484
330
746F
100
AcDbSymbolTableRecord
100
AcDbDimStyleTableRecord
  2
JIS
 70
     0
 41
2.5
 42
1.0
 43
7.0
 44
1.0
 73
     0
 74
     0
 77
     1
 78
     8
140
2.5
141
0.0
143
0.0394
147
0.0
172
     1
174
     1
175
     1
340
7475
  0
DIMSTYLE
105
F236
330
746F
100
AcDbSymbolTableRecord
100
AcDbDimStyleTableRecord
  2
INABA_S40
 70
     0
 40
40.0
 41
2.5
 42
0.5
 43
7.0
 44
1.5
 73
     0
 74
     0
 77
     3
 78
     8
140
3.0
141
0.0
143
0.0394
147
1.0
172
     1
173
     1
174
     1
175
     1
178
     7
289
     0
340
7475
341
DEAC
343
DEAC
344
DEAC
  0
DIMSTYLE
105
F71F
102
{ACAD_REACTORS
330
202C8
330
2030F
330
20311
330
2031B
330
1FC6F
330
1FC4A
330
1FC2F
330
1FC2E
330
1FB37
330
1FB11
330
1FB0F
330
1FB0E
330
1FA26
330
1FA21
330
1FA1F
330
1FB10
330
1FB0C
330
1FA2F
330
1FC59
330
1FB76
330
227F9
330
227F8
330
22860
330
2286D
330
228AB
330
228CA
330
228D8
330
235D0
330
23EEF
330
23EF0
330
23EF8
330
23EFF
330
23F02
330
23F62
102
}
330
746F
100
AcDbSymbolTableRecord
100
AcDbDimStyleTableRecord
  2
INABA_S40G
 70
     0
 40
40.0
 41
2.5
 42
0.5
 43
7.0
 44
1.5
 73
     0
 74
     0
 77
     3
 78
     8
140
3.0
141
0.0
143
0.0394
147
1.0
172
     1
173
     1
174
     1
178
     7
271
     1
340
F706
341
F770
343
F770
344
F770
  0
DIMSTYLE
105
142E3
330
746F
100
AcDbSymbolTableRecord
100
AcDbDimStyleTableRecord
  2
INABA_S1
 70
     0
 40
0.0
 41
2.5
 42
0.5
 43
7.0
 44
1.5
 73
     0
 74
     0
 77
     3
 78
     8
140
3.0
141
0.0
143
0.0394
146
0.5
147
0.5
172
     1
173
     1
176
   256
177
   256
178
     7
271
     2
272
     2
284
     8
288
     1
340
7475
341
DEAC
343
DEAC
344
DEAC
  0
DIMSTYLE
105
14463
330
746F
100
AcDbSymbolTableRecord
100
AcDbDimStyleTableRecord
  2
INABA_S30G
 70
     0
 40
30.0
 41
2.5
 42
0.5
 43
7.0
 44
1.5
 73
     0
 74
     0
 77
     3
 78
     8
140
3.0
141
0.0
143
0.0394
147
1.0
172
     1
173
     1
174
     1
175
     1
178
     7
271
     1
340
F706
341
F770
343
F770
344
F770
  0
DIMSTYLE
105
1758E
330
746F
100
AcDbSymbolTableRecord
100
AcDbDimStyleTableRecord
  2
INABA_S50G
 70
     0
 41
125.0
 42
25.0
 43
7.0
 44
75.0
 73
     0
 74
     0
 77
     3
 78
     8
140
150.0
141
0.0
143
0.0394
147
25.0
172
     1
173
     1
174
     1
175
     1
178
     7
271
     1
340
F706
341
F770
343
F770
344
F770
  0
ENDTAB
  0
TABLE
  2
BLOCK_RECORD
  5
7466
330
0
100
AcDbSymbolTable
 70
    65
  0
BLOCK_RECORD
  5
747D
330
7466
100
AcDbSymbolTableRecord
100
AcDbBlockTableRecord
  2
*MODEL_SPACE
340
173D5
  0
BLOCK_RECORD
  5
747A
330
7466
100
AcDbSymbolTableRecord
100
AcDbBlockTableRecord
  2
*PAPER_SPACE
340
173D6
  0
BLOCK_RECORD
  5
DEAC
330
7466
100
AcDbSymbolTableRecord
100
AcDbBlockTableRecord
  2
_OPEN
340
0
  0
BLOCK_RECORD
  5
F770
330
7466
100
AcDbSymbolTableRecord
100
AcDbBlockTableRecord
  2
_DOTSMALL
340
0
102
{BLKREFS
331
18C65
331
18C66
331
18C59
331
18C5A
331
18C4D
331
18C4E
331
18C41
331
18C42
331
18C35
331
18C36
331
18C29
331
18C2A
331
18C1D
331
18C1E
331
18C0F
331
18C10
331
18C03
331
18C04
331
18BF5
331
18BF6
331
18BE7
331
18BE8
331
18BD9
331
18BDA
331
18BCD
331
18BCE
331
22A8A
331
22A8B
331
22AE5
331
22AE6
331
22B27
331
22B28
331
23486
331
23487
331
23491
331
23492
331
2349C
331
2349D
331
234A6
331
234A7
331
234B0
331
234B1
331
234B9
331
234BA
331
234C2
331
234C3
331
234CB
331
234CC
331
234D4
331
234D5
331
234E7
331
234E8
331
234F1
331
234F2
331
23503
331
23504
331
2350C
331
2350D
331
23515
331
23516
331
2352B
331
2352C
331
23534
331
23535
331
2353D
331
2353E
331
2354F
331
23550
331
23558
331
23559
331
23597
331
23598
331
235CA
331
235CB
331
235D5
331
235D6
331
235E0
331
235E1
331
235E9
331
235EA
331
23608
331
23609
331
236A2
331
236A3
331
23D15
331
23D16
331
23D1E
331
23D1F
331
23D27
331
23D28
331
23D35
331
23D36
331
23D3D
331
23D3E
331
23D47
331
23D48
331
23DA6
331
23DA7
331
23D9B
331
23D9C
331
23D8A
331
23D8B
331
23D7E
331
23D7F
331
23D72
331
23D73
331
23D66
331
23D67
331
2406B
331
2406C
331
2407A
331
2407B
331
24083
331
24084
331
2408C
331
2408D
331
24095
331
24096
331
2409E
331
2409F
102
}
  0
BLOCK_RECORD
  5
164B4
330
7466
100
AcDbSymbolTableRecord
100
AcDbBlockTableRecord
  2
_DOT
340
0
102
{BLKREFS
331
18C73
331
18C74
102
}
  0
BLOCK_RECORD
  5
18BC8
330
7466
100
AcDbSymbolTableRecord
100
AcDbBlockTableRecord
  2
*D3
340
0
  0
BLOCK_RECORD
  5
18BD4
330
7466
100
AcDbSymbolTableRecord
100
AcDbBlockTableRecord
  2
*D4
340
0
  0
BLOCK_RECORD
  5
18BE0
330
7466
100
AcDbSymbolTableRecord
100
AcDbBlockTableRecord
  2
*D5
340
0
  0
BLOCK_RECORD
  5
18BEE
330
7466
100
AcDbSymbolTableRecord
100
AcDbBlockTableRecord
  2
*D6
340
0
  0
BLOCK_RECORD
  5
18BFC
330
7466
100
AcDbSymbolTableRecord
100
AcDbBlockTableRecord
  2
*D7
340
0
  0
BLOCK_RECORD
  5
18C0A
330
7466
100
AcDbSymbolTableRecord
100
AcDbBlockTableRecord
  2
*D8
340
0
  0
BLOCK_RECORD
  5
18C16
330
7466
100
AcDbSymbolTableRecord
100
AcDbBlockTableRecord
  2
*D9
340
0
  0
BLOCK_RECORD
  5
18C24
330
7466
100
AcDbSymbolTableRecord
100
AcDbBlockTableRecord
  2
*D10
340
0
  0
BLOCK_RECORD
  5
18C30
330
7466
100
AcDbSymbolTableRecord
100
AcDbBlockTableRecord
  2
*D11
340
0
  0
BLOCK_RECORD
  5
18C3C
330
7466
100
AcDbSymbolTableRecord
100
AcDbBlockTableRecord
  2
*D12
340
0
  0
BLOCK_RECORD
  5
18C48
330
7466
100
AcDbSymbolTableRecord
100
AcDbBlockTableRecord
  2
*D13
340
0
  0
BLOCK_RECORD
  5
18C54
330
7466
100
AcDbSymbolTableRecord
100
AcDbBlockTableRecord
  2
*D14
340
0
  0
BLOCK_RECORD
  5
18C60
330
7466
100
AcDbSymbolTableRecord
100
AcDbBlockTableRecord
  2
*D15
340
0
  0
BLOCK_RECORD
  5
18C6C
330
7466
100
AcDbSymbolTableRecord
100
AcDbBlockTableRecord
  2
*D16
340
0
  0
BLOCK_RECORD
  5
18C7A
330
7466
100
AcDbSymbolTableRecord
100
AcDbBlockTableRecord
  2
A$C3B1A506B
340
0
  0
BLOCK_RECORD
  5
1C4CA
330
7466
100
AcDbSymbolTableRecord
100
AcDbBlockTableRecord
  2
_NONE
340
0
  0
BLOCK_RECORD
  5
1FC7E
330
7466
100
AcDbSymbolTableRecord
100
AcDbBlockTableRecord
  2
*D19
340
0
  0
BLOCK_RECORD
  5
1FC89
330
7466
100
AcDbSymbolTableRecord
100
AcDbBlockTableRecord
  2
*D20
340
0
  0
BLOCK_RECORD
  5
1FC94
330
7466
100
AcDbSymbolTableRecord
100
AcDbBlockTableRecord
  2
*D21
340
0
  0
BLOCK_RECORD
  5
1FC9F
330
7466
100
AcDbSymbolTableRecord
100
AcDbBlockTableRecord
  2
*D22
340
0
  0
BLOCK_RECORD
  5
1FCFB
330
7466
100
AcDbSymbolTableRecord
100
AcDbBlockTableRecord
  2
*D23
340
0
  0
BLOCK_RECORD
  5
1FD10
330
7466
100
AcDbSymbolTableRecord
100
AcDbBlockTableRecord
  2
*D24
340
0
  0
BLOCK_RECORD
  5
1FD1D
330
7466
100
AcDbSymbolTableRecord
100
AcDbBlockTableRecord
  2
*D25
340
0
  0
BLOCK_RECORD
  5
1FD2A
330
7466
100
AcDbSymbolTableRecord
100
AcDbBlockTableRecord
  2
*D26
340
0
  0
BLOCK_RECORD
  5
1FD36
330
7466
100
AcDbSymbolTableRecord
100
AcDbBlockTableRecord
  2
*D27
340
0
  0
BLOCK_RECORD
  5
1FD7F
330
7466
100
AcDbSymbolTableRecord
100
AcDbBlockTableRecord
  2
*D28
340
0
  0
BLOCK_RECORD
  5
1FD96
330
7466
100
AcDbSymbolTableRecord
100
AcDbBlockTableRecord
  2
*D29
340
0
  0
BLOCK_RECORD
  5
1FDE9
330
7466
100
AcDbSymbolTableRecord
100
AcDbBlockTableRecord
  2
*D30
340
0
  0
BLOCK_RECORD
  5
1FDF5
330
7466
100
AcDbSymbolTableRecord
100
AcDbBlockTableRecord
  2
*D31
340
0
  0
BLOCK_RECORD
  5
1FE17
330
7466
100
AcDbSymbolTableRecord
100
AcDbBlockTableRecord
  2
*D32
340
0
  0
BLOCK_RECORD
  5
1FE24
330
7466
100
AcDbSymbolTableRecord
100
AcDbBlockTableRecord
  2
*D33
340
0
  0
BLOCK_RECORD
  5
1FE31
330
7466
100
AcDbSymbolTableRecord
100
AcDbBlockTableRecord
  2
*D34
340
0
  0
BLOCK_RECORD
  5
2033A
330
7466
100
AcDbSymbolTableRecord
100
AcDbBlockTableRecord
  2
*D35
340
0
  0
BLOCK_RECORD
  5
203C4
330
7466
100
AcDbSymbolTableRecord
100
AcDbBlockTableRecord
  2
*D36
340
0
  0
BLOCK_RECORD
  5
203DF
330
7466
100
AcDbSymbolTableRecord
100
AcDbBlockTableRecord
  2
*D37
340
0
  0
BLOCK_RECORD
  5
20407
330
7466
100
AcDbSymbolTableRecord
100
AcDbBlockTableRecord
  2
*D38
340
0
  0
BLOCK_RECORD
  5
22824
330
7466
100
AcDbSymbolTableRecord
100
AcDbBlockTableRecord
  2
*D39
340
0
  0
BLOCK_RECORD
  5
22830
330
7466
100
AcDbSymbolTableRecord
100
AcDbBlockTableRecord
  2
*D40
340
0
  0
BLOCK_RECORD
  5
22861
330
7466
100
AcDbSymbolTableRecord
100
AcDbBlockTableRecord
  2
*D41
340
0
  0
BLOCK_RECORD
  5
2286E
330
7466
100
AcDbSymbolTableRecord
100
AcDbBlockTableRecord
  2
*D42
340
0
  0
BLOCK_RECORD
  5
228AC
330
7466
100
AcDbSymbolTableRecord
100
AcDbBlockTableRecord
  2
*D43
340
0
  0
BLOCK_RECORD
  5
228CB
330
7466
100
AcDbSymbolTableRecord
100
AcDbBlockTableRecord
  2
*D44
340
0
  0
BLOCK_RECORD
  5
228D9
330
7466
100
AcDbSymbolTableRecord
100
AcDbBlockTableRecord
  2
*D45
340
0
  0
BLOCK_RECORD
  5
235D1
330
7466
100
AcDbSymbolTableRecord
100
AcDbBlockTableRecord
  2
*D46
340
0
  0
BLOCK_RECORD
  5
2401B
330
7466
100
AcDbSymbolTableRecord
100
AcDbBlockTableRecord
  2
*D59
340
0
  0
BLOCK_RECORD
  5
24027
330
7466
100
AcDbSymbolTableRecord
100
AcDbBlockTableRecord
  2
*D60
340
0
  0
BLOCK_RECORD
  5
24038
330
7466
100
AcDbSymbolTableRecord
100
AcDbBlockTableRecord
  2
*D61
340
0
  0
BLOCK_RECORD
  5
24044
330
7466
100
AcDbSymbolTableRecord
100
AcDbBlockTableRecord
  2
*D62
340
0
  0
BLOCK_RECORD
  5
24050
330
7466
100
AcDbSymbolTableRecord
100
AcDbBlockTableRecord
  2
*D63
340
0
  0
BLOCK_RECORD
  5
2405C
330
7466
100
AcDbSymbolTableRecord
100
AcDbBlockTableRecord
  2
*D64
340
0
  0
ENDTAB
  0
ENDSEC
  0
SECTION
  2
BLOCKS
  0
BLOCK
  5
7489
330
747D
100
AcDbEntity
  8
0
100
AcDbBlockBegin
  2
*MODEL_SPACE
 70
     0
 10
0.0
 20
0.0
 30
0.0
  3
*MODEL_SPACE
  1

  0
ENDBLK
  5
748A
330
747D
100
AcDbEntity
  8
0
100
AcDbBlockEnd
  0
BLOCK
  5
7487
330
747A
100
AcDbEntity
 67
     1
  8
0
100
AcDbBlockBegin
  2
*PAPER_SPACE
 70
     0
 10
0.0
 20
0.0
 30
0.0
  3
*PAPER_SPACE
  1

  0
ENDBLK
  5
7488
330
747A
100
AcDbEntity
 67
     1
  8
0
100
AcDbBlockEnd
  0
BLOCK
  5
DEAD
330
DEAC
100
AcDbEntity
  8
0
100
AcDbBlockBegin
  2
_OPEN
 70
     0
 10
0.0
 20
0.0
 30
0.0
  3
_OPEN
  1

  0
LINE
  5
DEAE
330
DEAC
100
AcDbEntity
  8
0
  6
ByBlock
 62
     0
100
AcDbLine
 10
-1.0
 20
0.1666666666666666
 30
0.0
 11
0.0
 21
0.0
 31
0.0
  0
LINE
  5
DEAF
330
DEAC
100
AcDbEntity
  8
0
  6
ByBlock
 62
     0
100
AcDbLine
 10
0.0
 20
0.0
 30
0.0
 11
-1.0
 21
-0.1666666666666666
 31
0.0
  0
LINE
  5
DEB0
330
DEAC
100
AcDbEntity
  8
0
  6
ByBlock
 62
     0
100
AcDbLine
 10
0.0
 20
0.0
 30
0.0
 11
-1.0
 21
0.0
 31
0.0
  0
ENDBLK
  5
DEB1
330
DEAC
100
AcDbEntity
  8
0
100
AcDbBlockEnd
  0
BLOCK
  5
F771
330
F770
100
AcDbEntity
  8
0
 48
50.0
100
AcDbBlockBegin
  2
_DOTSMALL
 70
     0
 10
0.0
 20
0.0
 30
0.0
  3
_DOTSMALL
  1

  0
LWPOLYLINE
  5
F772
330
F770
100
AcDbEntity
  8
0
  6
ByBlock
 62
     0
 48
50.0
100
AcDbPolyline
 90
        2
 70
     1
 43
0.5
 10
-0.0625
 20
0.0
 42
1.0
 10
0.0625
 20
0.0
 42
1.0
  0
ENDBLK
  5
F776
330
F770
100
AcDbEntity
  8
0
 48
50.0
100
AcDbBlockEnd
  0
BLOCK
  5
164BA
330
164B4
100
AcDbEntity
  8
0
 48
50.0
100
AcDbBlockBegin
  2
_DOT
 70
     0
 10
0.0
 20
0.0
 30
0.0
  3
_DOT
  1

  0
LWPOLYLINE
  5
164B5
330
164B4
100
AcDbEntity
  8
0
  6
ByBlock
 62
     0
 48
50.0
100
AcDbPolyline
 90
        2
 70
     1
 43
0.5
 10
-0.25
 20
0.0
 42
1.0
 10
0.25
 20
0.0
 42
1.0
  0
LINE
  5
164B9
330
164B4
100
AcDbEntity
  8
0
  6
ByBlock
 62
     0
 48
50.0
100
AcDbLine
 10
-0.5
 20
0.0
 30
0.0
 11
-1.0
 21
0.0
 31
0.0
  0
ENDBLK
  5
164BB
330
164B4
100
AcDbEntity
  8
0
 48
50.0
100
AcDbBlockEnd
  0
BLOCK
  5
18BC9
330
18BC8
100
AcDbEntity
  8
0
 48
50.0
100
AcDbBlockBegin
  2
*D3
 70
     1
 10
0.0
 20
0.0
 30
0.0
  3
*D3
  1

  0
LINE
  5
18BCA
330
18BC8
100
AcDbEntity
  8
寸法
 62
     0
 48
50.0
370
    -2
100
AcDbLine
 10
7649.896575106999
 20
9636.123139034717
 30
0.0
 11
8702.429862581047
 21
9636.123139034717
 31
0.0
  0
LINE
  5
18BCB
330
18BC8
100
AcDbEntity
  8
寸法
 62
     0
 48
50.0
370
    -2
100
AcDbLine
 10
7649.896575106973
 20
7846.123139034709
 30
0.0
 11
8702.429862581047
 21
7846.123139034709
 31
0.0
  0
LINE
  5
18BCC
330
18BC8
100
AcDbEntity
  8
寸法
 62
     0
 48
50.0
370
    -2
100
AcDbLine
 10
8642.429862581046
 20
9636.123139034717
 30
0.0
 11
8642.429862581046
 21
7846.123139034709
 31
0.0
  0
INSERT
  5
18BCD
330
18BC8
100
AcDbEntity
  8
寸法
 62
     0
 48
50.0
370
    -2
100
AcDbBlockReference
  2
_DOTSMALL
 10
8642.429862581046
 20
9636.123139034717
 30
0.0
 41
100.0
 42
100.0
 43
100.0
 50
90.0
  0
INSERT
  5
18BCE
330
18BC8
100
AcDbEntity
  8
寸法
 62
     0
 48
50.0
370
    -2
100
AcDbBlockReference
  2
_DOTSMALL
 10
8642.429862581046
 20
7846.123139034709
 30
0.0
 41
100.0
 42
100.0
 43
100.0
 50
270.0
  0
MTEXT
  5
18BCF
330
18BC8
100
AcDbEntity
  8
寸法
 62
     7
 48
50.0
100
AcDbMText
 10
8542.429862581045
 20
8741.123139034712
 30
0.0
 40
120.0
 41
0.0
 71
     5
 72
     1
  1
\A1;1790
  7
STYLE1
 11
0.0000000000000001
 21
1.0
 31
0.0
 73
     1
 44
1.0
1001
ACAD
1000
MTEXTBEGIN
1070
    73
1070
     1
1070
    44
1040
1.0
1070
    74
1070
     0
1000
MTEXTEND
  0
POINT
  5
18BD0
330
18BC8
100
AcDbEntity
  8
DEFPOINTS
 62
     0
 48
50.0
100
AcDbPoint
 10
7629.896575106998
 20
9636.123139034717
 30
0.0
  0
POINT
  5
18BD1
330
18BC8
100
AcDbEntity
  8
DEFPOINTS
 62
     0
 48
50.0
100
AcDbPoint
 10
7629.896575106974
 20
7846.123139034709
 30
0.0
  0
POINT
  5
18BD2
330
18BC8
100
AcDbEntity
  8
DEFPOINTS
 62
     0
 48
50.0
100
AcDbPoint
 10
8642.429862581046
 20
7846.123139034709
 30
0.0
  0
ENDBLK
  5
18BD3
330
18BC8
100
AcDbEntity
  8
0
 48
50.0
100
AcDbBlockEnd
  0
BLOCK
  5
18BD5
330
18BD4
100
AcDbEntity
  8
0
 48
50.0
100
AcDbBlockBegin
  2
*D4
 70
     1
 10
0.0
 20
0.0
 30
0.0
  3
*D4
  1

  0
LINE
  5
18BD6
330
18BD4
100
AcDbEntity
  8
寸法
 62
     0
 48
50.0
370
    -2
100
AcDbLine
 10
4214.896575106998
 20
9656.123139034622
 30
0.0
 11
4214.896575106998
 21
10211.93135865972
 31
0.0
  0
LINE
  5
18BD7
330
18BD4
100
AcDbEntity
  8
寸法
 62
     0
 48
50.0
370
    -2
100
AcDbLine
 10
7574.896575106999
 20
9656.123139034718
 30
0.0
 11
7574.896575106999
 21
10211.93135865972
 31
0.0
  0
LINE
  5
18BD8
330
18BD4
100
AcDbEntity
  8
寸法
 62
     0
 48
50.0
370
    -2
100
AcDbLine
 10
4214.896575106998
 20
10151.93135865972
 30
0.0
 11
7574.896575106999
 21
10151.93135865972
 31
0.0
  0
INSERT
  5
18BD9
330
18BD4
100
AcDbEntity
  8
寸法
 62
     0
 48
50.0
370
    -2
100
AcDbBlockReference
  2
_DOTSMALL
 10
4214.896575106998
 20
10151.93135865972
 30
0.0
 41
100.0
 42
100.0
 43
100.0
 50
180.0
  0
INSERT
  5
18BDA
330
18BD4
100
AcDbEntity
  8
寸法
 62
     0
 48
50.0
370
    -2
100
AcDbBlockReference
  2
_DOTSMALL
 10
7574.896575106999
 20
10151.93135865972
 30
0.0
 41
100.0
 42
100.0
 43
100.0
  0
MTEXT
  5
18BDB
330
18BD4
100
AcDbEntity
  8
寸法
 62
     7
 48
50.0
100
AcDbMText
 10
5894.896575106997
 20
10251.94316968334
 30
0.0
 40
120.0
 41
0.0
 71
     5
 72
     1
  1
\A1;8X420=3360
  7
STYLE1
 73
     1
 44
1.0
1001
ACAD
1000
MTEXTBEGIN
1070
    73
1070
     1
1070
    44
1040
1.0
1070
    74
1070
     0
1000
MTEXTEND
  0
POINT
  5
18BDC
330
18BD4
100
AcDbEntity
  8
DEFPOINTS
 62
     0
 48
50.0
100
AcDbPoint
 10
4214.896575106998
 20
9636.123139034623
 30
0.0
  0
POINT
  5
18BDD
330
18BD4
100
AcDbEntity
  8
DEFPOINTS
 62
     0
 48
50.0
100
AcDbPoint
 10
7574.896575106999
 20
9636.123139034717
 30
0.0
  0
POINT
  5
18BDE
330
18BD4
100
AcDbEntity
  8
DEFPOINTS
 62
     0
 48
50.0
100
AcDbPoint
 10
7574.896575106999
 20
10151.93135865972
 30
0.0
  0
ENDBLK
  5
18BDF
330
18BD4
100
AcDbEntity
  8
0
 48
50.0
100
AcDbBlockEnd
  0
BLOCK
  5
18BE1
330
18BE0
100
AcDbEntity
  8
0
 48
50.0
100
AcDbBlockBegin
  2
*D5
 70
     1
 10
0.0
 20
0.0
 30
0.0
  3
*D5
  1

  0
LINE
  5
18BE2
330
18BE0
100
AcDbEntity
  8
寸法
 62
     0
 48
50.0
370
    -2
100
AcDbLine
 10
7574.896575106999
 20
9656.123139034718
 30
0.0
 11
7574.896575106999
 21
10211.9313586597
 31
0.0
  0
LINE
  5
18BE3
330
18BE0
100
AcDbEntity
  8
寸法
 62
     0
 48
50.0
370
    -2
100
AcDbLine
 10
7629.896575106998
 20
9656.123139034718
 30
0.0
 11
7629.896575106998
 21
10211.9313586597
 31
0.0
  0
LINE
  5
18BE4
330
18BE0
100
AcDbEntity
  8
寸法
 62
     0
 48
50.0
370
    -2
100
AcDbLine
 10
7574.896575106999
 20
10151.9313586597
 30
0.0
 11
7474.896575106999
 21
10151.9313586597
 31
0.0
  0
LINE
  5
18BE5
330
18BE0
100
AcDbEntity
  8
寸法
 62
     0
 48
50.0
370
    -2
100
AcDbLine
 10
7629.896575106998
 20
10151.9313586597
 30
0.0
 11
8046.867137855477
 21
10151.9313586597
 31
0.0
  0
LINE
  5
18BE6
330
18BE0
100
AcDbEntity
  8
寸法
 62
     0
 48
50.0
370
    -2
100
AcDbLine
 10
7574.896575106999
 20
10151.9313586597
 30
0.0
 11
7629.896575106998
 21
10151.9313586597
 31
0.0
  0
INSERT
  5
18BE7
330
18BE0
100
AcDbEntity
  8
寸法
 62
     0
 48
50.0
370
    -2
100
AcDbBlockReference
  2
_DOTSMALL
 10
7574.896575106999
 20
10151.9313586597
 30
0.0
 41
100.0
 42
100.0
 43
100.0
  0
INSERT
  5
18BE8
330
18BE0
100
AcDbEntity
  8
寸法
 62
     0
 48
50.0
370
    -2
100
AcDbBlockReference
  2
_DOTSMALL
 10
7629.896575106998
 20
10151.9313586597
 30
0.0
 41
100.0
 42
100.0
 43
100.0
 50
180.0
  0
MTEXT
  5
18BE9
330
18BE0
100
AcDbEntity
  8
寸法
 62
     7
 48
50.0
100
AcDbMText
 10
7938.381856481237
 20
10251.9313586597
 30
0.0
 40
120.0
 41
0.0
 71
     5
 72
     1
  1
\A1;55
  7
STYLE1
 73
     1
 44
1.0
1001
ACAD
1000
MTEXTBEGIN
1070
    73
1070
     1
1070
    44
1040
1.0
1070
    74
1070
     0
1000
MTEXTEND
  0
POINT
  5
18BEA
330
18BE0
100
AcDbEntity
  8
DEFPOINTS
 62
     0
 48
50.0
100
AcDbPoint
 10
7574.896575106999
 20
9636.123139034717
 30
0.0
  0
POINT
  5
18BEB
330
18BE0
100
AcDbEntity
  8
DEFPOINTS
 62
     0
 48
50.0
100
AcDbPoint
 10
7629.896575106998
 20
9636.123139034717
 30
0.0
  0
POINT
  5
18BEC
330
18BE0
100
AcDbEntity
  8
DEFPOINTS
 62
     0
 48
50.0
100
AcDbPoint
 10
7629.896575106998
 20
10151.9313586597
 30
0.0
  0
ENDBLK
  5
18BED
330
18BE0
100
AcDbEntity
  8
0
 48
50.0
100
AcDbBlockEnd
  0
BLOCK
  5
18BEF
330
18BEE
100
AcDbEntity
  8
0
 48
50.0
100
AcDbBlockBegin
  2
*D6
 70
     1
 10
0.0
 20
0.0
 30
0.0
  3
*D6
  1

  0
LINE
  5
18BF0
330
18BEE
100
AcDbEntity
  8
寸法
 62
     0
 48
50.0
370
    -2
100
AcDbLine
 10
7649.896575106999
 20
9636.123139034717
 30
0.0
 11
8337.32292084141
 21
9636.123139034717
 31
0.0
  0
LINE
  5
18BF1
330
18BEE
100
AcDbEntity
  8
寸法
 62
     0
 48
50.0
370
    -2
100
AcDbLine
 10
7649.896575106999
 20
9581.123139034721
 30
0.0
 11
8337.32292084141
 21
9581.123139034721
 31
0.0
  0
LINE
  5
18BF2
330
18BEE
100
AcDbEntity
  8
寸法
 62
     0
 48
50.0
370
    -2
100
AcDbLine
 10
8277.322920841411
 20
9581.123139034721
 30
0.0
 11
8277.322920841411
 21
9481.123139034719
 31
0.0
  0
LINE
  5
18BF3
330
18BEE
100
AcDbEntity
  8
寸法
 62
     0
 48
50.0
370
    -2
100
AcDbLine
 10
8277.322920841411
 20
9636.123139034717
 30
0.0
 11
8277.322920841411
 21
10053.09370178319
 31
0.0
  0
LINE
  5
18BF4
330
18BEE
100
AcDbEntity
  8
寸法
 62
     0
 48
50.0
370
    -2
100
AcDbLine
 10
8277.322920841411
 20
9581.123139034721
 30
0.0
 11
8277.322920841411
 21
9636.123139034717
 31
0.0
  0
INSERT
  5
18BF5
330
18BEE
100
AcDbEntity
  8
寸法
 62
     0
 48
50.0
370
    -2
100
AcDbBlockReference
  2
_DOTSMALL
 10
8277.322920841411
 20
9581.123139034721
 30
0.0
 41
100.0
 42
100.0
 43
100.0
 50
90.0
  0
INSERT
  5
18BF6
330
18BEE
100
AcDbEntity
  8
寸法
 62
     0
 48
50.0
370
    -2
100
AcDbBlockReference
  2
_DOTSMALL
 10
8277.322920841411
 20
9636.123139034717
 30
0.0
 41
100.0
 42
100.0
 43
100.0
 50
270.0
  0
MTEXT
  5
18BF7
330
18BEE
100
AcDbEntity
  8
寸法
 62
     7
 48
50.0
100
AcDbMText
 10
8177.32292084141
 20
9944.608420408957
 30
0.0
 40
120.0
 41
0.0
 71
     5
 72
     1
  1
\A1;55
  7
STYLE1
 11
0.0000000000000001
 21
1.0
 31
0.0
 73
     1
 44
1.0
1001
ACAD
1000
MTEXTBEGIN
1070
    73
1070
     1
1070
    44
1040
1.0
1070
    74
1070
     0
1000
MTEXTEND
  0
POINT
  5
18BF8
330
18BEE
100
AcDbEntity
  8
DEFPOINTS
 62
     0
 48
50.0
100
AcDbPoint
 10
7629.896575106998
 20
9636.123139034717
 30
0.0
  0
POINT
  5
18BF9
330
18BEE
100
AcDbEntity
  8
DEFPOINTS
 62
     0
 48
50.0
100
AcDbPoint
 10
7629.896575106998
 20
9581.123139034721
 30
0.0
  0
POINT
  5
18BFA
330
18BEE
100
AcDbEntity
  8
DEFPOINTS
 62
     0
 48
50.0
100
AcDbPoint
 10
8277.322920841411
 20
9581.123139034721
 30
0.0
  0
ENDBLK
  5
18BFB
330
18BEE
100
AcDbEntity
  8
0
 48
50.0
100
AcDbBlockEnd
  0
BLOCK
  5
18BFD
330
18BFC
100
AcDbEntity
  8
0
 48
50.0
100
AcDbBlockBegin
  2
*D7
 70
     1
 10
0.0
 20
0.0
 30
0.0
  3
*D7
  1

  0
LINE
  5
18BFE
330
18BFC
100
AcDbEntity
  8
寸法
 62
     0
 48
50.0
370
    -2
100
AcDbLine
 10
4159.896575106963
 20
9656.123139034622
 30
0.0
 11
4159.896575106963
 21
10211.9313586596
 31
0.0
  0
LINE
  5
18BFF
330
18BFC
100
AcDbEntity
  8
寸法
 62
     0
 48
50.0
370
    -2
100
AcDbLine
 10
4214.896575106998
 20
9656.123139034622
 30
0.0
 11
4214.896575106998
 21
10211.9313586596
 31
0.0
  0
LINE
  5
18C00
330
18BFC
100
AcDbEntity
  8
寸法
 62
     0
 48
50.0
370
    -2
100
AcDbLine
 10
4214.896575106998
 20
10151.9313586596
 30
0.0
 11
4314.896575106998
 21
10151.9313586596
 31
0.0
  0
LINE
  5
18C01
330
18BFC
100
AcDbEntity
  8
寸法
 62
     0
 48
50.0
370
    -2
100
AcDbLine
 10
4159.896575106963
 20
10151.9313586596
 30
0.0
 11
3742.926012358486
 21
10151.9313586596
 31
0.0
  0
LINE
  5
18C02
330
18BFC
100
AcDbEntity
  8
寸法
 62
     0
 48
50.0
370
    -2
100
AcDbLine
 10
4214.896575106998
 20
10151.9313586596
 30
0.0
 11
4159.896575106963
 21
10151.9313586596
 31
0.0
  0
INSERT
  5
18C03
330
18BFC
100
AcDbEntity
  8
寸法
 62
     0
 48
50.0
370
    -2
100
AcDbBlockReference
  2
_DOTSMALL
 10
4214.896575106998
 20
10151.9313586596
 30
0.0
 41
100.0
 42
100.0
 43
100.0
 50
180.0
  0
INSERT
  5
18C04
330
18BFC
100
AcDbEntity
  8
寸法
 62
     0
 48
50.0
370
    -2
100
AcDbBlockReference
  2
_DOTSMALL
 10
4159.896575106963
 20
10151.9313586596
 30
0.0
 41
100.0
 42
100.0
 43
100.0
  0
MTEXT
  5
18C05
330
18BFC
100
AcDbEntity
  8
寸法
 62
     7
 48
50.0
100
AcDbMText
 10
3851.411293732725
 20
10251.9313586596
 30
0.0
 40
120.0
 41
0.0
 71
     5
 72
     1
  1
\A1;55
  7
STYLE1
 73
     1
 44
1.0
1001
ACAD
1000
MTEXTBEGIN
1070
    73
1070
     1
1070
    44
1040
1.0
1070
    74
1070
     0
1000
MTEXTEND
  0
POINT
  5
18C06
330
18BFC
100
AcDbEntity
  8
DEFPOINTS
 62
     0
 48
50.0
100
AcDbPoint
 10
4159.896575106963
 20
9636.123139034623
 30
0.0
  0
POINT
  5
18C07
330
18BFC
100
AcDbEntity
  8
DEFPOINTS
 62
     0
 48
50.0
100
AcDbPoint
 10
4214.896575106998
 20
9636.123139034623
 30
0.0
  0
POINT
  5
18C08
330
18BFC
100
AcDbEntity
  8
DEFPOINTS
 62
     0
 48
50.0
100
AcDbPoint
 10
4214.896575106998
 20
10151.9313586596
 30
0.0
  0
ENDBLK
  5
18C09
330
18BFC
100
AcDbEntity
  8
0
 48
50.0
100
AcDbBlockEnd
  0
BLOCK
  5
18C0B
330
18C0A
100
AcDbEntity
  8
0
 48
50.0
100
AcDbBlockBegin
  2
*D8
 70
     1
 10
0.0
 20
0.0
 30
0.0
  3
*D8
  1

  0
LINE
  5
18C0C
330
18C0A
100
AcDbEntity
  8
寸法
 62
     0
 48
50.0
370
    -2
100
AcDbLine
 10
4159.896575106992
 20
7826.123139034546
 30
0.0
 11
4159.896575106992
 21
6804.372203245664
 31
0.0
  0
LINE
  5
18C0D
330
18C0A
100
AcDbEntity
  8
寸法
 62
     0
 48
50.0
370
    -2
100
AcDbLine
 10
7629.896575106974
 20
7826.123139034674
 30
0.0
 11
7629.896575106974
 21
6804.372203245664
 31
0.0
  0
LINE
  5
18C0E
330
18C0A
100
AcDbEntity
  8
寸法
 62
     0
 48
50.0
370
    -2
100
AcDbLine
 10
4159.896575106992
 20
6864.372203245665
 30
0.0
 11
7629.896575106974
 21
6864.372203245665
 31
0.0
  0
INSERT
  5
18C0F
330
18C0A
100
AcDbEntity
  8
寸法
 62
     0
 48
50.0
370
    -2
100
AcDbBlockReference
  2
_DOTSMALL
 10
4159.896575106992
 20
6864.372203245665
 30
0.0
 41
100.0
 42
100.0
 43
100.0
 50
180.0
  0
INSERT
  5
18C10
330
18C0A
100
AcDbEntity
  8
寸法
 62
     0
 48
50.0
370
    -2
100
AcDbBlockReference
  2
_DOTSMALL
 10
7629.896575106974
 20
6864.372203245665
 30
0.0
 41
100.0
 42
100.0
 43
100.0
  0
MTEXT
  5
18C11
330
18C0A
100
AcDbEntity
  8
寸法
 62
     7
 48
50.0
100
AcDbMText
 10
5911.12376113973
 20
6964.372203245665
 30
0.0
 40
120.0
 41
0.0
 71
     5
 72
     1
  1
\A1;3470
  7
STYLE1
 73
     1
 44
1.0
1001
ACAD
1000
MTEXTBEGIN
1070
    73
1070
     1
1070
    44
1040
1.0
1070
    74
1070
     0
1000
MTEXTEND
  0
POINT
  5
18C12
330
18C0A
100
AcDbEntity
  8
DEFPOINTS
 62
     0
 48
50.0
100
AcDbPoint
 10
4159.896575106992
 20
7846.123139034546
 30
0.0
  0
POINT
  5
18C13
330
18C0A
100
AcDbEntity
  8
DEFPOINTS
 62
     0
 48
50.0
100
AcDbPoint
 10
7629.896575106974
 20
7846.123139034673
 30
0.0
  0
POINT
  5
18C14
330
18C0A
100
AcDbEntity
  8
DEFPOINTS
 62
     0
 48
50.0
100
AcDbPoint
 10
7629.896575106974
 20
6864.372203245665
 30
0.0
  0
ENDBLK
  5
18C15
330
18C0A
100
AcDbEntity
  8
0
 48
50.0
100
AcDbBlockEnd
  0
BLOCK
  5
18C17
330
18C16
100
AcDbEntity
  8
0
 48
50.0
100
AcDbBlockBegin
  2
*D9
 70
     1
 10
0.0
 20
0.0
 30
0.0
  3
*D9
  1

  0
LINE
  5
18C18
330
18C16
100
AcDbEntity
  8
寸法
 62
     0
 48
50.0
370
    -2
100
AcDbLine
 10
7649.896575106973
 20
7901.123139034706
 30
0.0
 11
8337.322920841385
 21
7901.123139034706
 31
0.0
  0
LINE
  5
18C19
330
18C16
100
AcDbEntity
  8
寸法
 62
     0
 48
50.0
370
    -2
100
AcDbLine
 10
7649.896575106973
 20
7846.123139034709
 30
0.0
 11
8337.322920841385
 21
7846.123139034709
 31
0.0
  0
LINE
  5
18C1A
330
18C16
100
AcDbEntity
  8
寸法
 62
     0
 48
50.0
370
    -2
100
AcDbLine
 10
8277.322920841385
 20
7901.123139034706
 30
0.0
 11
8277.322920841385
 21
8001.123139034707
 31
0.0
  0
LINE
  5
18C1B
330
18C16
100
AcDbEntity
  8
寸法
 62
     0
 48
50.0
370
    -2
100
AcDbLine
 10
8277.322920841385
 20
7846.123139034709
 30
0.0
 11
8277.322920841385
 21
7429.152576286229
 31
0.0
  0
LINE
  5
18C1C
330
18C16
100
AcDbEntity
  8
寸法
 62
     0
 48
50.0
370
    -2
100
AcDbLine
 10
8277.322920841385
 20
7901.123139034706
 30
0.0
 11
8277.322920841385
 21
7846.123139034709
 31
0.0
  0
INSERT
  5
18C1D
330
18C16
100
AcDbEntity
  8
寸法
 62
     0
 48
50.0
370
    -2
100
AcDbBlockReference
  2
_DOTSMALL
 10
8277.322920841385
 20
7901.123139034706
 30
0.0
 41
100.0
 42
100.0
 43
100.0
 50
270.0
  0
INSERT
  5
18C1E
330
18C16
100
AcDbEntity
  8
寸法
 62
     0
 48
50.0
370
    -2
100
AcDbBlockReference
  2
_DOTSMALL
 10
8277.322920841385
 20
7846.123139034709
 30
0.0
 41
100.0
 42
100.0
 43
100.0
 50
90.0
  0
MTEXT
  5
18C1F
330
18C16
100
AcDbEntity
  8
寸法
 62
     7
 48
50.0
100
AcDbMText
 10
8177.322920841383
 20
7537.637857660469
 30
0.0
 40
120.0
 41
0.0
 71
     5
 72
     1
  1
\A1;55
  7
STYLE1
 11
0.0000000000000001
 21
1.0
 31
0.0
 73
     1
 44
1.0
1001
ACAD
1000
MTEXTBEGIN
1070
    73
1070
     1
1070
    44
1040
1.0
1070
    74
1070
     0
1000
MTEXTEND
  0
POINT
  5
18C20
330
18C16
100
AcDbEntity
  8
DEFPOINTS
 62
     0
 48
50.0
100
AcDbPoint
 10
7629.896575106974
 20
7901.123139034706
 30
0.0
  0
POINT
  5
18C21
330
18C16
100
AcDbEntity
  8
DEFPOINTS
 62
     0
 48
50.0
100
AcDbPoint
 10
7629.896575106974
 20
7846.123139034709
 30
0.0
  0
POINT
  5
18C22
330
18C16
100
AcDbEntity
  8
DEFPOINTS
 62
     0
 48
50.0
100
AcDbPoint
 10
8277.322920841385
 20
7846.123139034709
 30
0.0
  0
ENDBLK
  5
18C23
330
18C16
100
AcDbEntity
  8
0
 48
50.0
100
AcDbBlockEnd
  0
BLOCK
  5
18C25
330
18C24
100
AcDbEntity
  8
0
 48
50.0
100
AcDbBlockBegin
  2
*D10
 70
     1
 10
0.0
 20
0.0
 30
0.0
  3
*D10
  1

  0
LINE
  5
18C26
330
18C24
100
AcDbEntity
  8
寸法
 62
     0
 48
50.0
370
    -2
100
AcDbLine
 10
6533.037591258376
 20
9136.123139034728
 30
0.0
 11
6465.083950562664
 21
8882.516699399049
 31
0.0
  0
LINE
  5
18C27
330
18C24
100
AcDbEntity
  8
寸法
 62
     0
 48
50.0
370
    -2
100
AcDbLine
 10
7596.037591258388
 20
9136.123139034721
 30
0.0
 11
7528.083950562677
 21
8882.516699399049
 31
0.0
  0
LINE
  5
18C28
330
18C24
100
AcDbEntity
  8
寸法
 62
     0
 48
50.0
370
    -2
100
AcDbLine
 10
6481.160902108531
 20
8942.51669939905
 30
0.0
 11
7544.160902108544
 21
8942.51669939905
 31
0.0
  0
INSERT
  5
18C29
330
18C24
100
AcDbEntity
  8
寸法
 62
     0
 48
50.0
370
    -2
100
AcDbBlockReference
  2
_DOTSMALL
 10
6481.160902108531
 20
8942.51669939905
 30
0.0
 41
100.0
 42
100.0
 43
100.0
 50
180.0
  0
INSERT
  5
18C2A
330
18C24
100
AcDbEntity
  8
寸法
 62
     0
 48
50.0
370
    -2
100
AcDbBlockReference
  2
_DOTSMALL
 10
7544.160902108544
 20
8942.51669939905
 30
0.0
 41
100.0
 42
100.0
 43
100.0
  0
MTEXT
  5
18C2B
330
18C24
100
AcDbEntity
  8
寸法
 62
     7
 48
50.0
100
AcDbMText
 10
7061.28653022935
 20
9042.516699399049
 30
0.0
 40
120.0
 41
0.0
 71
     5
 72
     1
  1
\A1;1063
  7
STYLE1
 73
     1
 44
1.0
1001
ACAD
1000
MTEXTBEGIN
1070
    73
1070
     1
1070
    44
1040
1.0
1070
    74
1070
     0
1000
MTEXTEND
  0
POINT
  5
18C2C
330
18C24
100
AcDbEntity
  8
DEFPOINTS
 62
     0
 48
50.0
100
AcDbPoint
 10
6538.396575106998
 20
9156.123139034727
 30
0.0
  0
POINT
  5
18C2D
330
18C24
100
AcDbEntity
  8
DEFPOINTS
 62
     0
 48
50.0
100
AcDbPoint
 10
7601.39657510701
 20
9156.12313903472
 30
0.0
  0
POINT
  5
18C2E
330
18C24
100
AcDbEntity
  8
DEFPOINTS
 62
     0
 48
50.0
100
AcDbPoint
 10
7544.160902108544
 20
8942.51669939905
 30
0.0
  0
ENDBLK
  5
18C2F
330
18C24
100
AcDbEntity
  8
0
 48
50.0
100
AcDbBlockEnd
  0
BLOCK
  5
18C31
330
18C30
100
AcDbEntity
  8
0
 48
50.0
100
AcDbBlockBegin
  2
*D11
 70
     1
 10
0.0
 20
0.0
 30
0.0
  3
*D11
  1

  0
LINE
  5
18C32
330
18C30
100
AcDbEntity
  8
寸法
 62
     0
 48
50.0
370
    -2
100
AcDbLine
 10
7621.396575106999
 20
9600.764155186094
 30
0.0
 11
8016.754300969024
 21
9494.828371819961
 31
0.0
  0
LINE
  5
18C33
330
18C30
100
AcDbEntity
  8
寸法
 62
     0
 48
50.0
370
    -2
100
AcDbLine
 10
7621.396575106999
 20
9150.764155186099
 30
0.0
 11
8016.754300969024
 21
9044.828371819964
 31
0.0
  0
LINE
  5
18C34
330
18C30
100
AcDbEntity
  8
寸法
 62
     0
 48
50.0
370
    -2
100
AcDbLine
 10
7956.754300969024
 20
9510.905323365827
 30
0.0
 11
7956.754300969024
 21
9060.90532336583
 31
0.0
  0
INSERT
  5
18C35
330
18C30
100
AcDbEntity
  8
寸法
 62
     0
 48
50.0
370
    -2
100
AcDbBlockReference
  2
_DOTSMALL
 10
7956.754300969024
 20
9510.905323365827
 30
0.0
 41
100.0
 42
100.0
 43
100.0
 50
90.0
  0
INSERT
  5
18C36
330
18C30
100
AcDbEntity
  8
寸法
 62
     0
 48
50.0
370
    -2
100
AcDbBlockReference
  2
_DOTSMALL
 10
7956.754300969024
 20
9060.90532336583
 30
0.0
 41
100.0
 42
100.0
 43
100.0
 50
270.0
  0
MTEXT
  5
18C37
330
18C30
100
AcDbEntity
  8
寸法
 62
     7
 48
50.0
100
AcDbMText
 10
7856.754300969022
 20
9285.905323365829
 30
0.0
 40
120.0
 41
0.0
 71
     5
 72
     1
  1
\A1;450
  7
STYLE1
 11
0.0000000000000001
 21
1.0
 31
0.0
 73
     1
 44
1.0
1001
ACAD
1000
MTEXTBEGIN
1070
    73
1070
     1
1070
    44
1040
1.0
1070
    74
1070
     0
1000
MTEXTEND
  0
POINT
  5
18C38
330
18C30
100
AcDbEntity
  8
DEFPOINTS
 62
     0
 48
50.0
100
AcDbPoint
 10
7601.396575106999
 20
9606.123139034718
 30
0.0
  0
POINT
  5
18C39
330
18C30
100
AcDbEntity
  8
DEFPOINTS
 62
     0
 48
50.0
100
AcDbPoint
 10
7601.396575106999
 20
9156.12313903472
 30
0.0
  0
POINT
  5
18C3A
330
18C30
100
AcDbEntity
  8
DEFPOINTS
 62
     0
 48
50.0
100
AcDbPoint
 10
7956.754300969024
 20
9060.90532336583
 30
0.0
  0
ENDBLK
  5
18C3B
330
18C30
100
AcDbEntity
  8
0
 48
50.0
100
AcDbBlockEnd
  0
BLOCK
  5
18C3D
330
18C3C
100
AcDbEntity
  8
0
 48
50.0
100
AcDbBlockBegin
  2
*D12
 70
     1
 10
0.0
 20
0.0
 30
0.0
  3
*D12
  1

  0
LINE
  5
18C3E
330
18C3C
100
AcDbEntity
  8
寸法
 62
     0
 48
50.0
370
    -2
100
AcDbLine
 10
7649.896575106999
 20
9581.123139034721
 30
0.0
 11
8337.32292084141
 21
9581.123139034721
 31
0.0
  0
LINE
  5
18C3F
330
18C3C
100
AcDbEntity
  8
寸法
 62
     0
 48
50.0
370
    -2
100
AcDbLine
 10
7649.896575106973
 20
7901.123139034706
 30
0.0
 11
8337.32292084141
 21
7901.123139034706
 31
0.0
  0
LINE
  5
18C40
330
18C3C
100
AcDbEntity
  8
寸法
 62
     0
 48
50.0
370
    -2
100
AcDbLine
 10
8277.322920841411
 20
9581.123139034721
 30
0.0
 11
8277.322920841411
 21
7901.123139034706
 31
0.0
  0
INSERT
  5
18C41
330
18C3C
100
AcDbEntity
  8
寸法
 62
     0
 48
50.0
370
    -2
100
AcDbBlockReference
  2
_DOTSMALL
 10
8277.322920841411
 20
9581.123139034721
 30
0.0
 41
100.0
 42
100.0
 43
100.0
 50
90.0
  0
INSERT
  5
18C42
330
18C3C
100
AcDbEntity
  8
寸法
 62
     0
 48
50.0
370
    -2
100
AcDbBlockReference
  2
_DOTSMALL
 10
8277.322920841411
 20
7901.123139034706
 30
0.0
 41
100.0
 42
100.0
 43
100.0
 50
270.0
  0
MTEXT
  5
18C43
330
18C3C
100
AcDbEntity
  8
寸法
 62
     7
 48
50.0
100
AcDbMText
 10
8177.311109817788
 20
8741.123139034712
 30
0.0
 40
120.0
 41
0.0
 71
     5
 72
     1
  1
\A1;4X420=1680
  7
STYLE1
 11
0.0000000000000001
 21
1.0
 31
0.0
 73
     1
 44
1.0
1001
ACAD
1000
MTEXTBEGIN
1070
    73
1070
     1
1070
    44
1040
1.0
1070
    74
1070
     0
1000
MTEXTEND
  0
POINT
  5
18C44
330
18C3C
100
AcDbEntity
  8
DEFPOINTS
 62
     0
 48
50.0
100
AcDbPoint
 10
7629.896575106998
 20
9581.123139034721
 30
0.0
  0
POINT
  5
18C45
330
18C3C
100
AcDbEntity
  8
DEFPOINTS
 62
     0
 48
50.0
100
AcDbPoint
 10
7629.896575106974
 20
7901.123139034706
 30
0.0
  0
POINT
  5
18C46
330
18C3C
100
AcDbEntity
  8
DEFPOINTS
 62
     0
 48
50.0
100
AcDbPoint
 10
8277.322920841411
 20
7901.123139034706
 30
0.0
  0
ENDBLK
  5
18C47
330
18C3C
100
AcDbEntity
  8
0
 48
50.0
100
AcDbBlockEnd
  0
BLOCK
  5
18C49
330
18C48
100
AcDbEntity
  8
0
 48
50.0
100
AcDbBlockBegin
  2
*D13
 70
     1
 10
0.0
 20
0.0
 30
0.0
  3
*D13
  1

  0
LINE
  5
18C4A
330
18C48
100
AcDbEntity
  8
寸法
 62
     0
 48
50.0
370
    -2
100
AcDbLine
 10
4183.037591258377
 20
9136.123139034619
 30
0.0
 11
4115.083950562663
 21
8882.516699398941
 31
0.0
  0
LINE
  5
18C4B
330
18C48
100
AcDbEntity
  8
寸法
 62
     0
 48
50.0
370
    -2
100
AcDbLine
 10
5246.037591258307
 20
9136.123139034671
 30
0.0
 11
5178.08395056258
 21
8882.516699398941
 31
0.0
  0
LINE
  5
18C4C
330
18C48
100
AcDbEntity
  8
寸法
 62
     0
 48
50.0
370
    -2
100
AcDbLine
 10
4131.160902108532
 20
8942.516699398941
 30
0.0
 11
5194.160902108448
 21
8942.516699398941
 31
0.0
  0
INSERT
  5
18C4D
330
18C48
100
AcDbEntity
  8
寸法
 62
     0
 48
50.0
370
    -2
100
AcDbBlockReference
  2
_DOTSMALL
 10
4131.160902108532
 20
8942.516699398941
 30
0.0
 41
100.0
 42
100.0
 43
100.0
 50
180.0
  0
INSERT
  5
18C4E
330
18C48
100
AcDbEntity
  8
寸法
 62
     0
 48
50.0
370
    -2
100
AcDbBlockReference
  2
_DOTSMALL
 10
5194.160902108448
 20
8942.516699398941
 30
0.0
 41
100.0
 42
100.0
 43
100.0
  0
MTEXT
  5
18C4F
330
18C48
100
AcDbEntity
  8
寸法
 62
     7
 48
50.0
100
AcDbMText
 10
4658.986452655306
 20
9042.516699398941
 30
0.0
 40
120.0
 41
0.0
 71
     5
 72
     1
  1
\A1;1063
  7
STYLE1
 73
     1
 44
1.0
1001
ACAD
1000
MTEXTBEGIN
1070
    73
1070
     1
1070
    44
1040
1.0
1070
    74
1070
     0
1000
MTEXTEND
  0
POINT
  5
18C50
330
18C48
100
AcDbEntity
  8
DEFPOINTS
 62
     0
 48
50.0
100
AcDbPoint
 10
4188.396575106999
 20
9156.123139034617
 30
0.0
  0
POINT
  5
18C51
330
18C48
100
AcDbEntity
  8
DEFPOINTS
 62
     0
 48
50.0
100
AcDbPoint
 10
5251.396575106929
 20
9156.123139034672
 30
0.0
  0
POINT
  5
18C52
330
18C48
100
AcDbEntity
  8
DEFPOINTS
 62
     0
 48
50.0
100
AcDbPoint
 10
5194.160902108448
 20
8942.516699398941
 30
0.0
  0
ENDBLK
  5
18C53
330
18C48
100
AcDbEntity
  8
0
 48
50.0
100
AcDbBlockEnd
  0
BLOCK
  5
18C55
330
18C54
100
AcDbEntity
  8
0
 48
50.0
100
AcDbBlockBegin
  2
*D14
 70
     1
 10
0.0
 20
0.0
 30
0.0
  3
*D14
  1

  0
LINE
  5
18C56
330
18C54
100
AcDbEntity
  8
寸法
 62
     0
 48
50.0
370
    -2
100
AcDbLine
 10
5274.037591258307
 20
9136.123139034669
 30
0.0
 11
5206.08395056258
 21
8882.516699398941
 31
0.0
  0
LINE
  5
18C57
330
18C54
100
AcDbEntity
  8
寸法
 62
     0
 48
50.0
370
    -2
100
AcDbLine
 10
6505.037591258377
 20
9136.123139034662
 30
0.0
 11
6437.083950562653
 21
8882.516699398941
 31
0.0
  0
LINE
  5
18C58
330
18C54
100
AcDbEntity
  8
寸法
 62
     0
 48
50.0
370
    -2
100
AcDbLine
 10
5222.160902108448
 20
8942.516699398941
 30
0.0
 11
6453.16090210852
 21
8942.516699398941
 31
0.0
  0
INSERT
  5
18C59
330
18C54
100
AcDbEntity
  8
寸法
 62
     0
 48
50.0
370
    -2
100
AcDbBlockReference
  2
_DOTSMALL
 10
5222.160902108448
 20
8942.516699398941
 30
0.0
 41
100.0
 42
100.0
 43
100.0
 50
180.0
  0
INSERT
  5
18C5A
330
18C54
100
AcDbEntity
  8
寸法
 62
     0
 48
50.0
370
    -2
100
AcDbBlockReference
  2
_DOTSMALL
 10
6453.16090210852
 20
8942.516699398941
 30
0.0
 41
100.0
 42
100.0
 43
100.0
  0
MTEXT
  5
18C5B
330
18C54
100
AcDbEntity
  8
寸法
 62
     7
 48
50.0
100
AcDbMText
 10
6081.244808320626
 20
9042.528510422561
 30
0.0
 40
120.0
 41
0.0
 71
     5
 72
     1
  1
\A1;1231
  7
STYLE1
 73
     1
 44
1.0
1001
ACAD
1000
MTEXTBEGIN
1070
    73
1070
     1
1070
    44
1040
1.0
1070
    74
1070
     0
1000
MTEXTEND
  0
POINT
  5
18C5C
330
18C54
100
AcDbEntity
  8
DEFPOINTS
 62
     0
 48
50.0
100
AcDbPoint
 10
5279.396575106929
 20
9156.123139034669
 30
0.0
  0
POINT
  5
18C5D
330
18C54
100
AcDbEntity
  8
DEFPOINTS
 62
     0
 48
50.0
100
AcDbPoint
 10
6510.396575106999
 20
9156.123139034662
 30
0.0
  0
POINT
  5
18C5E
330
18C54
100
AcDbEntity
  8
DEFPOINTS
 62
     0
 48
50.0
100
AcDbPoint
 10
6453.16090210852
 20
8942.516699398941
 30
0.0
  0
ENDBLK
  5
18C5F
330
18C54
100
AcDbEntity
  8
0
 48
50.0
100
AcDbBlockEnd
  0
BLOCK
  5
18C61
330
18C60
100
AcDbEntity
  8
0
 48
50.0
100
AcDbBlockBegin
  2
*D15
 70
     1
 10
0.0
 20
0.0
 30
0.0
  3
*D15
  1

  0
LINE
  5
18C62
330
18C60
100
AcDbEntity
  8
寸法
 62
     0
 48
50.0
370
    -2
100
AcDbLine
 10
5065.896575106966
 20
7749.123139034579
 30
0.0
 11
5065.896575106966
 21
7099.952920982538
 31
0.0
  0
LINE
  5
18C63
330
18C60
100
AcDbEntity
  8
寸法
 62
     0
 48
50.0
370
    -2
100
AcDbLine
 10
6331.896575106966
 20
7749.123139034579
 30
0.0
 11
6331.896575106966
 21
7099.952920982538
 31
0.0
  0
LINE
  5
18C64
330
18C60
100
AcDbEntity
  8
寸法
 62
     0
 48
50.0
370
    -2
100
AcDbLine
 10
5065.896575106966
 20
7159.952920982537
 30
0.0
 11
6331.896575106966
 21
7159.952920982537
 31
0.0
  0
INSERT
  5
18C65
330
18C60
100
AcDbEntity
  8
寸法
 62
     0
 48
50.0
370
    -2
100
AcDbBlockReference
  2
_DOTSMALL
 10
5065.896575106966
 20
7159.952920982537
 30
0.0
 41
100.0
 42
100.0
 43
100.0
 50
180.0
  0
INSERT
  5
18C66
330
18C60
100
AcDbEntity
  8
寸法
 62
     0
 48
50.0
370
    -2
100
AcDbBlockReference
  2
_DOTSMALL
 10
6331.896575106966
 20
7159.952920982537
 30
0.0
 41
100.0
 42
100.0
 43
100.0
  0
MTEXT
  5
18C67
330
18C60
100
AcDbEntity
  8
寸法
 62
     7
 48
50.0
100
AcDbMText
 10
5711.986008735934
 20
7359.964732006159
 30
0.0
 40
120.0
 41
0.0
 71
     5
 72
     1
  1
\A1;有効開口部間口\P1266
  7
STYLE1
 73
     1
 44
1.0
1001
ACAD
1000
MTEXTBEGIN
1070
    73
1070
     1
1070
    44
1040
1.0
1070
    74
1070
     0
1000
MTEXTEND
  0
POINT
  5
18C68
330
18C60
100
AcDbEntity
  8
DEFPOINTS
 62
     0
 48
50.0
100
AcDbPoint
 10
5065.896575106966
 20
7769.123139034579
 30
0.0
  0
POINT
  5
18C69
330
18C60
100
AcDbEntity
  8
DEFPOINTS
 62
     0
 48
50.0
100
AcDbPoint
 10
6331.896575106966
 20
7769.123139034579
 30
0.0
  0
POINT
  5
18C6A
330
18C60
100
AcDbEntity
  8
DEFPOINTS
 62
     0
 48
50.0
100
AcDbPoint
 10
6331.896575106966
 20
7159.952920982537
 30
0.0
  0
ENDBLK
  5
18C6B
330
18C60
100
AcDbEntity
  8
0
 48
50.0
100
AcDbBlockEnd
  0
BLOCK
  5
18C6D
330
18C6C
100
AcDbEntity
  8
0
 48
50.0
100
AcDbBlockBegin
  2
*D16
 70
     1
 10
0.0
 20
0.0
 30
0.0
  3
*D16
  1

  0
LINE
  5
18C6E
330
18C6C
100
AcDbEntity
  8
寸法
 62
     0
 48
50.0
370
    -2
100
AcDbLine
 10
7200.896575106966
 20
7846.123139034578
 30
0.0
 11
7457.192158500191
 21
7846.123139034578
 31
0.0
  0
LINE
  5
18C6F
330
18C6C
100
AcDbEntity
  8
寸法
 62
     0
 48
50.0
370
    -2
100
AcDbLine
 10
7199.896575106966
 20
7769.123139034579
 30
0.0
 11
7457.192158500191
 21
7769.123139034579
 31
0.0
  0
LINE
  5
18C70
330
18C6C
100
AcDbEntity
  8
寸法
 62
     0
 48
50.0
370
    -2
100
AcDbLine
 10
7417.192158500192
 20
7866.123139034579
 30
0.0
 11
7417.192158500192
 21
7886.123139034578
 31
0.0
  0
LINE
  5
18C71
330
18C6C
100
AcDbEntity
  8
寸法
 62
     0
 48
50.0
370
    -2
100
AcDbLine
 10
7417.192158500192
 20
7749.123139034579
 30
0.0
 11
7417.192158500192
 21
7533.123139034573
 31
0.0
  0
LINE
  5
18C72
330
18C6C
100
AcDbEntity
  8
寸法
 62
     0
 48
50.0
370
    -2
100
AcDbLine
 10
7417.192158500192
 20
7846.123139034578
 30
0.0
 11
7417.192158500192
 21
7769.123139034579
 31
0.0
  0
INSERT
  5
18C73
330
18C6C
100
AcDbEntity
  8
寸法
 62
     0
 48
50.0
370
    -2
100
AcDbBlockReference
  2
_DOT
 10
7417.192158500192
 20
7846.123139034578
 30
0.0
 41
20.0
 42
20.0
 43
20.0
 50
270.0
  0
INSERT
  5
18C74
330
18C6C
100
AcDbEntity
  8
寸法
 62
     0
 48
50.0
370
    -2
100
AcDbBlockReference
  2
_DOT
 10
7417.192158500192
 20
7769.123139034579
 30
0.0
 41
20.0
 42
20.0
 43
20.0
 50
90.0
  0
MTEXT
  5
18C75
330
18C6C
100
AcDbEntity
  8
寸法
 62
     7
 48
50.0
100
AcDbMText
 10
7325.192158500191
 20
7631.123139034575
 30
0.0
 40
120.0
 41
0.0
 71
     5
 72
     1
  1
\A1;77
  7
STYLE1
 11
0.0000000000000001
 21
1.0
 31
0.0
 73
     1
 44
1.0
1001
ACAD
1000
MTEXTBEGIN
1070
    73
1070
     1
1070
    44
1040
1.0
1070
    74
1070
     0
1000
MTEXTEND
  0
POINT
  5
18C76
330
18C6C
100
AcDbEntity
  8
DEFPOINTS
 62
     0
 48
50.0
100
AcDbPoint
 10
7180.896575106967
 20
7846.123139034578
 30
0.0
  0
POINT
  5
18C77
330
18C6C
100
AcDbEntity
  8
DEFPOINTS
 62
     0
 48
50.0
100
AcDbPoint
 10
7179.896575106965
 20
7769.123139034579
 30
0.0
  0
POINT
  5
18C78
330
18C6C
100
AcDbEntity
  8
DEFPOINTS
 62
     0
 48
50.0
100
AcDbPoint
 10
7417.192158500192
 20
7769.123139034579
 30
0.0
  0
ENDBLK
  5
18C79
330
18C6C
100
AcDbEntity
  8
0
 48
50.0
100
AcDbBlockEnd
  0
BLOCK
  5
18DA0
330
18C7A
100
AcDbEntity
  8
0
 48
50.0
100
AcDbBlockBegin
  2
A$C3B1A506B
 70
     0
 10
0.0
 20
0.0
 30
0.0
  3
A$C3B1A506B
  1

  0
MTEXT
  5
18C7B
330
18C7A
100
AcDbEntity
  8
寸法
 62
     7
 48
50.0
100
AcDbMText
 10
3342.250386887194
 20
2778.329429134012
 30
0.0
 40
96.0
 41
0.0
 71
     5
 72
     1
  1
棚 2段
  7
STYLE1
 73
     1
 44
1.0
1001
ACAD
1000
MTEXTBEGIN
1070
    73
1070
     1
1070
    44
1040
1.0
1070
    74
1070
     0
1000
MTEXTEND
  0
MTEXT
  5
18C7C
330
18C7A
100
AcDbEntity
  8
寸法
 62
     7
 48
50.0
100
AcDbMText
 10
2167.25038688716
 20
2778.329429133986
 30
0.0
 40
96.0
 41
0.0
 71
     5
 72
     1
  1
棚 2段
  7
STYLE1
 73
     1
 44
1.0
1001
ACAD
1000
MTEXTBEGIN
1070
    73
1070
     1
1070
    44
1040
1.0
1070
    74
1070
     0
1000
MTEXTEND
  0
MTEXT
  5
18C7D
330
18C7A
100
AcDbEntity
  8
寸法
 62
     7
 48
50.0
100
AcDbMText
 10
992.2503868871608
 20
2778.329429133935
 30
0.0
 40
96.0
 41
0.0
 71
     5
 72
     1
  1
棚 2段
  7
STYLE1
 73
     1
 44
1.0
1001
ACAD
1000
MTEXTBEGIN
1070
    73
1070
     1
1070
    44
1040
1.0
1070
    74
1070
     0
1000
MTEXTEND
  0
LINE
  5
18C7E
330
18C7A
100
AcDbEntity
  8
細線
 48
50.0
100
AcDbLine
 10
2771.970589276527
 20
1368.994384123192
 30
0.0
 11
3398.970589276523
 21
1368.994384123192
 31
0.0
  0
LINE
  5
18C7F
330
18C7A
100
AcDbEntity
  8
細線
 48
50.0
100
AcDbLine
 10
2117.970593930113
 20
1335.285615569113
 30
0.0
 11
3398.970589276523
 21
1335.285615569113
 31
0.0
  0
LINE
  5
18C80
330
18C7A
100
AcDbEntity
  8
細線
 48
50.0
100
AcDbLine
 10
2076.970593930115
 20
1364.690523565368
 30
0.0
 11
1322.970589276523
 21
1364.690523565367
 31
0.0
  0
LINE
  5
18C81
330
18C7A
100
AcDbEntity
  8
細線
100
AcDbLine
 10
3170.720579860066
 20
1388.494284088199
 30
0.0
 11
3173.052119381877
 21
1393.494286728162
 31
0.0
  0
LINE
  5
18C82
330
18C7A
100
AcDbEntity
  8
細線
100
AcDbLine
 10
3240.720589276525
 20
1388.494269174465
 30
0.0
 11
3238.389042800336
 21
1393.494286728144
 31
0.0
  0
LINE
  5
18C83
330
18C7A
100
AcDbEntity
  8
細線
100
AcDbLine
 10
3238.389042800336
 20
1393.494286728144
 30
0.0
 11
3173.052119381862
 21
1393.494286728133
 31
0.0
  0
LINE
  5
18C84
330
18C7A
100
AcDbEntity
  8
細線
100
AcDbLine
 10
3098.389042800336
 20
1393.494286728144
 30
0.0
 11
3033.052119381862
 21
1393.494286728133
 31
0.0
  0
LINE
  5
18C85
330
18C7A
100
AcDbEntity
  8
細線
100
AcDbLine
 10
3100.720589276523
 20
1388.494269174465
 30
0.0
 11
3098.389042800336
 21
1393.494286728144
 31
0.0
  0
LINE
  5
18C86
330
18C7A
100
AcDbEntity
  8
細線
100
AcDbLine
 10
3030.720579860066
 20
1388.494284088199
 30
0.0
 11
3033.052119381875
 21
1393.494286728162
 31
0.0
  0
LINE
  5
18C87
330
18C7A
100
AcDbEntity
  8
細線
100
AcDbLine
 10
2890.720589276525
 20
1388.494269174465
 30
0.0
 11
2893.052128798336
 21
1393.494271814428
 31
0.0
  0
LINE
  5
18C88
330
18C7A
100
AcDbEntity
  8
細線
100
AcDbLine
 10
2960.720598692984
 20
1388.494254260731
 30
0.0
 11
2958.389052216793
 21
1393.49427181441
 31
0.0
  0
LINE
  5
18C89
330
18C7A
100
AcDbEntity
  8
細線
100
AcDbLine
 10
2958.389052216795
 20
1393.49427181441
 30
0.0
 11
2893.052128798321
 21
1393.494271814399
 31
0.0
  0
LINE
  5
18C8A
330
18C7A
100
AcDbEntity
  8
細線
100
AcDbLine
 10
2667.139038146739
 20
1359.494298590735
 30
0.0
 11
2601.802114728263
 21
1359.494298590724
 31
0.0
  0
LINE
  5
18C8B
330
18C7A
100
AcDbEntity
  8
細線
100
AcDbLine
 10
2669.470584622926
 20
1354.494281037055
 30
0.0
 11
2667.139038146737
 21
1359.494298590735
 31
0.0
  0
LINE
  5
18C8C
330
18C7A
100
AcDbEntity
  8
細線
100
AcDbLine
 10
2599.470575206469
 20
1354.49429595079
 30
0.0
 11
2601.802114728278
 21
1359.494298590752
 31
0.0
  0
LINE
  5
18C8D
330
18C7A
100
AcDbEntity
  8
細線
 48
50.0
100
AcDbLine
 10
2440.853968524536
 20
1372.765132327548
 30
0.0
 11
2446.609486107205
 21
1354.494281037057
 31
0.0
  0
LINE
  5
18C8E
330
18C7A
100
AcDbEntity
  8
細線
 48
50.0
100
AcDbLine
 10
2429.925520044106
 20
1372.765132327546
 30
0.0
 11
2440.853968524536
 21
1372.765132327548
 31
0.0
  0
ARC
  5
18C8F
330
18C7A
100
AcDbEntity
  8
細線
 48
50.0
100
AcDbCircle
 10
2424.471163986787
 20
1374.265132327546
 30
0.0
 40
5.0
100
AcDbArc
 50
204.6243183520723
 51
335.3756816479278
  0
ARC
  5
18C90
330
18C7A
100
AcDbEntity
  8
細線
 48
50.0
100
AcDbCircle
 10
2429.925520044106
 20
1371.765132327546
 30
0.0
 40
1.0
100
AcDbArc
 50
90.0
 51
155.3756816479277
  0
ARC
  5
18C91
330
18C7A
100
AcDbEntity
  8
細線
 48
50.0
100
AcDbCircle
 10
2419.016807929469
 20
1371.765132327546
 30
0.0
 40
1.0
100
AcDbArc
 50
24.62431835207225
 51
90.0
  0
LINE
  5
18C92
330
18C7A
100
AcDbEntity
  8
細線
 48
50.0
100
AcDbLine
 10
2408.088359449037
 20
1372.765132327548
 30
0.0
 11
2419.016807929469
 21
1372.765132327546
 31
0.0
  0
LINE
  5
18C93
330
18C7A
100
AcDbEntity
  8
細線
 48
50.0
100
AcDbLine
 10
2402.33284186637
 20
1354.494281037054
 30
0.0
 11
2408.088359449037
 21
1372.765132327548
 31
0.0
  0
LINE
  5
18C94
330
18C7A
100
AcDbEntity
  8
細線
100
AcDbLine
 10
2458.070304175992
 20
1354.494278397076
 30
0.0
 11
2460.401843697802
 21
1359.494281037039
 31
0.0
  0
LINE
  5
18C95
330
18C7A
100
AcDbEntity
  8
細線
100
AcDbLine
 10
2528.070313592451
 20
1354.494263483342
 30
0.0
 11
2525.738767116262
 21
1359.494281037021
 31
0.0
  0
LINE
  5
18C96
330
18C7A
100
AcDbEntity
  8
細線
100
AcDbLine
 10
2525.738767116262
 20
1359.494281037021
 30
0.0
 11
2460.40184369779
 21
1359.49428103701
 31
0.0
  0
LINE
  5
18C97
330
18C7A
100
AcDbEntity
  8
細線
100
AcDbLine
 10
2387.139046332155
 20
1359.494281037021
 30
0.0
 11
2321.80212291368
 21
1359.49428103701
 31
0.0
  0
LINE
  5
18C98
330
18C7A
100
AcDbEntity
  8
細線
100
AcDbLine
 10
2389.470592808342
 20
1354.494263483342
 30
0.0
 11
2387.139046332153
 21
1359.494281037021
 31
0.0
  0
LINE
  5
18C99
330
18C7A
100
AcDbEntity
  8
細線
100
AcDbLine
 10
2319.470584622926
 20
1354.494281037054
 30
0.0
 11
2321.802122913694
 21
1359.494281037039
 31
0.0
  0
LINE
  5
18C9A
330
18C7A
100
AcDbEntity
  8
細線
100
AcDbLine
 10
2179.47061994182
 20
1354.494289224422
 30
0.0
 11
2181.802158232587
 21
1359.494289224407
 31
0.0
  0
LINE
  5
18C9B
330
18C7A
100
AcDbEntity
  8
細線
100
AcDbLine
 10
2249.470628127236
 20
1354.49427167071
 30
0.0
 11
2247.139081651047
 21
1359.494289224389
 31
0.0
  0
LINE
  5
18C9C
330
18C7A
100
AcDbEntity
  8
細線
100
AcDbLine
 10
2247.139081651047
 20
1359.494289224389
 30
0.0
 11
2181.802158232573
 21
1359.494289224378
 31
0.0
  0
LINE
  5
18C9D
330
18C7A
100
AcDbEntity
  8
細線
100
AcDbLine
 10
1807.970585744697
 20
1320.494460905133
 30
0.0
 11
1810.302124035464
 21
1325.494460905118
 31
0.0
  0
LINE
  5
18C9E
330
18C7A
100
AcDbEntity
  8
細線
100
AcDbLine
 10
1877.970593930113
 20
1320.494443351421
 30
0.0
 11
1875.639047453926
 21
1325.4944609051
 31
0.0
  0
LINE
  5
18C9F
330
18C7A
100
AcDbEntity
  8
細線
100
AcDbLine
 10
1875.639047453926
 20
1325.4944609051
 30
0.0
 11
1810.302124035452
 21
1325.494460905089
 31
0.0
  0
LINE
  5
18CA0
330
18C7A
100
AcDbEntity
  8
細線
100
AcDbLine
 10
2015.639047453926
 20
1325.4944609051
 30
0.0
 11
1950.302124035452
 21
1325.494460905089
 31
0.0
  0
LINE
  5
18CA1
330
18C7A
100
AcDbEntity
  8
細線
100
AcDbLine
 10
2017.970593930113
 20
1320.494443351421
 30
0.0
 11
2015.639047453924
 21
1325.4944609051
 31
0.0
  0
LINE
  5
18CA2
330
18C7A
100
AcDbEntity
  8
細線
100
AcDbLine
 10
1947.970585744697
 20
1320.494460905133
 30
0.0
 11
1950.302124035465
 21
1325.494460905118
 31
0.0
  0
LINE
  5
18CA3
330
18C7A
100
AcDbEntity
  8
細線
100
AcDbLine
 10
1735.639047453926
 20
1325.494460905098
 30
0.0
 11
1670.302124035454
 21
1325.494460905087
 31
0.0
  0
LINE
  5
18CA4
330
18C7A
100
AcDbEntity
  8
細線
100
AcDbLine
 10
1737.970593930113
 20
1320.494443351419
 30
0.0
 11
1735.639047453926
 21
1325.494460905098
 31
0.0
  0
LINE
  5
18CA5
330
18C7A
100
AcDbEntity
  8
細線
100
AcDbLine
 10
1667.970585744697
 20
1320.494460905131
 30
0.0
 11
1670.302124035465
 21
1325.494460905116
 31
0.0
  0
LINE
  5
18CA6
330
18C7A
100
AcDbEntity
  8
細線
100
AcDbLine
 10
1527.970593930113
 20
1320.494460905133
 30
0.0
 11
1530.302132220881
 21
1325.494460905118
 31
0.0
  0
LINE
  5
18CA7
330
18C7A
100
AcDbEntity
  8
細線
100
AcDbLine
 10
1597.970602115529
 20
1320.494443351421
 30
0.0
 11
1595.639055639342
 21
1325.4944609051
 31
0.0
  0
LINE
  5
18CA8
330
18C7A
100
AcDbEntity
  8
細線
100
AcDbLine
 10
1595.639055639342
 20
1325.4944609051
 30
0.0
 11
1530.302132220869
 21
1325.494460905089
 31
0.0
  0
ARC
  5
18CA9
330
18C7A
100
AcDbEntity
  8
部品1
 48
0.01
100
AcDbCircle
 10
1483.470482677778
 20
1319.493338720063
 30
0.0
 40
0.5
100
AcDbArc
 50
270.0
 51
0.0
  0
LINE
  5
18CAA
330
18C7A
100
AcDbEntity
  8
部品1
 48
0.01
100
AcDbLine
 10
1483.970482677778
 20
1320.493338720063
 30
0.0
 11
1483.970482677778
 21
1319.493338720063
 31
0.0
  0
LINE
  5
18CAB
330
18C7A
100
AcDbEntity
  8
部品1
 48
0.01
100
AcDbLine
 10
1483.970482677778
 20
1320.493338720063
 30
0.0
 11
1483.970482677778
 21
1319.493338720063
 31
0.0
  0
LINE
  5
18CAC
330
18C7A
100
AcDbEntity
  8
部品1
 48
0.01
100
AcDbLine
 10
1483.470482677778
 20
1318.993338720063
 30
0.0
 11
1476.857977247713
 21
1318.993338720062
 31
0.0
  0
ARC
  5
18CAD
330
18C7A
100
AcDbEntity
  8
部品1
100
AcDbCircle
 10
1476.926326800494
 20
1319.993338720062
 30
0.0
 40
1.0
100
AcDbArc
 50
160.5287793655865
 51
270.0
  0
ARC
  5
18CAE
330
18C7A
100
AcDbEntity
  8
部品1
100
AcDbCircle
 10
1451.470482677778
 20
1328.993338720062
 30
0.0
 40
26.0
100
AcDbArc
 50
340.5287793655865
 51
0.0
  0
LINE
  5
18CAF
330
18C7A
100
AcDbEntity
  8
部品1
100
AcDbLine
 10
1477.470482677778
 20
1328.993338720062
 30
0.0
 11
1477.470482677778
 21
1333.993338720061
 31
0.0
  0
ARC
  5
18CB0
330
18C7A
100
AcDbEntity
  8
部品1
 48
0.01
100
AcDbCircle
 10
1475.470482677778
 20
1333.993338720061
 30
0.0
 40
2.0
100
AcDbArc
 50
0.0
 51
90.0
  0
ARC
  5
18CB1
330
18C7A
100
AcDbEntity
  8
部品1
100
AcDbCircle
 10
1473.862091052968
 20
1332.993338720062
 30
0.0
 40
3.0
100
AcDbArc
 50
90.0
 51
141.6069559808035
  0
LINE
  5
18CB2
330
18C7A
100
AcDbEntity
  8
部品1
 48
0.01
100
AcDbLine
 10
1475.470482677778
 20
1335.993338720062
 30
0.0
 11
1473.862091052968
 21
1335.993338720062
 31
0.0
  0
ARC
  5
18CB3
330
18C7A
100
AcDbEntity
  8
部品1
100
AcDbCircle
 10
1455.399768463507
 20
1332.293338720065
 30
0.0
 40
3.0
100
AcDbArc
 50
254.0576313943215
 51
270.0
  0
ARC
  5
18CB4
330
18C7A
100
AcDbEntity
  8
部品1
100
AcDbCircle
 10
1462.541196892049
 20
1332.293338720065
 30
0.0
 40
3.0
100
AcDbArc
 50
270.0
 51
285.9423686056786
  0
LINE
  5
18CB5
330
18C7A
100
AcDbEntity
  8
部品1
100
AcDbLine
 10
1462.541196892049
 20
1329.293338720064
 30
0.0
 11
1455.399768463507
 21
1329.293338720064
 31
0.0
  0
ARC
  5
18CB6
330
18C7A
100
AcDbEntity
  8
部品1
100
AcDbCircle
 10
1458.970482677778
 20
1344.793338720065
 30
0.0
 40
16.0
100
AcDbArc
 50
285.9423686056786
 51
321.6069559808035
  0
LINE
  5
18CB7
330
18C7A
100
AcDbEntity
  8
部品1
 48
0.01
100
AcDbLine
 10
1442.470482677778
 20
1335.993338720062
 30
0.0
 11
1444.078874302588
 21
1335.993338720062
 31
0.0
  0
ARC
  5
18CB8
330
18C7A
100
AcDbEntity
  8
部品1
100
AcDbCircle
 10
1444.078874302588
 20
1332.993338720062
 30
0.0
 40
3.0
100
AcDbArc
 50
38.39304401919648
 51
90.0
  0
ARC
  5
18CB9
330
18C7A
100
AcDbEntity
  8
部品1
100
AcDbCircle
 10
1458.970482677778
 20
1344.793338720065
 30
0.0
 40
16.0
100
AcDbArc
 50
218.3930440191965
 51
254.0576313943215
  0
LINE
  5
18CBA
330
18C7A
100
AcDbEntity
  8
部品1
100
AcDbLine
 10
1440.470482677778
 20
1328.993338720062
 30
0.0
 11
1440.470482677778
 21
1333.993338720061
 31
0.0
  0
ARC
  5
18CBB
330
18C7A
100
AcDbEntity
  8
部品1
 48
0.01
100
AcDbCircle
 10
1442.470482677778
 20
1333.993338720061
 30
0.0
 40
2.0
100
AcDbArc
 50
90.0
 51
180.0
  0
ARC
  5
18CBC
330
18C7A
100
AcDbEntity
  8
部品1
100
AcDbCircle
 10
1466.470482677778
 20
1328.993338720062
 30
0.0
 40
26.0
100
AcDbArc
 50
180.0
 51
199.4712206344134
  0
ARC
  5
18CBD
330
18C7A
100
AcDbEntity
  8
部品1
 48
0.01
100
AcDbCircle
 10
1434.470482677778
 20
1319.493338720063
 30
0.0
 40
0.5
100
AcDbArc
 50
180.0
 51
270.0
  0
LINE
  5
18CBE
330
18C7A
100
AcDbEntity
  8
部品1
 48
0.01
100
AcDbLine
 10
1434.470482677778
 20
1318.993338720063
 30
0.0
 11
1441.014638555061
 21
1318.993338720062
 31
0.0
  0
LINE
  5
18CBF
330
18C7A
100
AcDbEntity
  8
部品1
 48
0.01
100
AcDbLine
 10
1433.970482677778
 20
1320.493338720063
 30
0.0
 11
1433.970482677778
 21
1319.493338720063
 31
0.0
  0
ARC
  5
18CC0
330
18C7A
100
AcDbEntity
  8
部品1
100
AcDbCircle
 10
1441.014638555061
 20
1319.993338720062
 30
0.0
 40
1.0
100
AcDbArc
 50
270.0
 51
19.47122063441346
  0
LINE
  5
18CC1
330
18C7A
100
AcDbEntity
  8
細線
100
AcDbLine
 10
1479.470482677785
 20
1338.493338720065
 30
0.0
 11
1438.470482677785
 21
1338.493338720058
 31
0.0
  0
LINE
  5
18CC2
330
18C7A
100
AcDbEntity
  8
細線
100
AcDbLine
 10
1438.470482677785
 20
1338.493338720058
 30
0.0
 11
1438.470482677785
 21
1320.49333872004
 31
0.0
  0
LINE
  5
18CC3
330
18C7A
100
AcDbEntity
  8
細線
100
AcDbLine
 10
1479.470482677785
 20
1338.493338720065
 30
0.0
 11
1479.470482677785
 21
1320.49333872004
 31
0.0
  0
LINE
  5
18CC4
330
18C7A
100
AcDbEntity
  8
細線
100
AcDbLine
 10
1322.970589276523
 20
1324.494269174465
 30
0.0
 11
1322.970589276523
 21
1320.494269174513
 31
0.0
  0
LINE
  5
18CC5
330
18C7A
100
AcDbEntity
  8
寸法
 48
50.0
100
AcDbLine
 10
1746.17359555837
 20
1170.531020743327
 30
0.0
 11
1694.767587648266
 21
1170.531020743327
 31
0.0
  0
LINE
  5
18CC6
330
18C7A
100
AcDbEntity
  8
寸法
 48
50.0
100
AcDbLine
 10
1694.767587648266
 20
1170.531020743327
 30
0.0
 11
1694.767587648266
 21
1201.841179395494
 31
0.0
  0
LINE
  5
18CC7
330
18C7A
100
AcDbEntity
  8
寸法
 48
50.0
100
AcDbLine
 10
1694.767587648266
 20
1201.841179395494
 30
0.0
 11
1665.006255656843
 21
1201.841179395494
 31
0.0
  0
LINE
  5
18CC8
330
18C7A
100
AcDbEntity
  8
寸法
 48
50.0
100
AcDbLine
 10
1665.006255656843
 20
1201.841179395494
 30
0.0
 11
1720.470591603318
 21
1239.420630324105
 31
0.0
  0
LINE
  5
18CC9
330
18C7A
100
AcDbEntity
  8
寸法
 48
50.0
100
AcDbLine
 10
1775.934927549793
 20
1201.841179395494
 30
0.0
 11
1720.470591603318
 21
1239.420630324105
 31
0.0
  0
LINE
  5
18CCA
330
18C7A
100
AcDbEntity
  8
寸法
 48
50.0
100
AcDbLine
 10
1746.17359555837
 20
1201.841179395494
 30
0.0
 11
1775.934927549793
 21
1201.841179395494
 31
0.0
  0
LINE
  5
18CCB
330
18C7A
100
AcDbEntity
  8
寸法
 48
50.0
100
AcDbLine
 10
1746.17359555837
 20
1170.531020743327
 30
0.0
 11
1746.17359555837
 21
1201.841179395494
 31
0.0
  0
LINE
  5
18CCC
330
18C7A
100
AcDbEntity
  8
寸法
 48
50.0
100
AcDbLine
 10
1694.767587648266
 20
1170.531020743327
 30
0.0
 11
1746.17359555837
 21
1170.531020743327
 31
0.0
  0
LINE
  5
18CCD
330
18C7A
100
AcDbEntity
  8
寸法
 48
50.0
100
AcDbLine
 10
2025.339129835225
 20
1227.676611498152
 30
0.0
 11
2025.339129835225
 21
1174.01297691636
 31
0.0
  0
LINE
  5
18CCE
330
18C7A
100
AcDbEntity
  8
寸法
 48
50.0
100
AcDbLine
 10
2114.623348430647
 20
1203.752977228664
 30
0.0
 11
2025.339129835225
 21
1227.676611498152
 31
0.0
  0
LINE
  5
18CCF
330
18C7A
100
AcDbEntity
  8
寸法
 48
50.0
100
AcDbLine
 10
1895.471408254923
 20
1203.752977228664
 30
0.0
 11
2114.623348430647
 21
1203.752977228664
 31
0.0
  0
DIMENSION
  5
18CD0
330
18C7A
100
AcDbEntity
  8
寸法
 48
50.0
100
AcDbDimension
  2
*D15
 10
2588.970589276523
 20
706.3240511224249
 30
0.0
 11
1969.060022905491
 21
706.3240511224249
 31
0.0
 12
-3742.925985830444
 22
-6453.628869860112
 32
0.0
 70
   128
  1
有効開口部間口\P<>
 71
     5
 42
1266.0
  3
INABA_S40G
100
AcDbAlignedDimension
 13
1322.970589276523
 23
1315.494269174465
 33
0.0
 14
2588.970589276523
 24
1315.494269174465
 34
0.0
100
AcDbRotatedDimension
1001
ACAD
1000
DSTYLE
1002
{
1070
   341
1005
0
1002
}
  0
LINE
  5
18CD1
330
18C7A
100
AcDbEntity
  8
部品1
100
AcDbLine
 10
3409.970589276524
 20
1392.494269174465
 30
0.0
 11
3437.970589276523
 21
1392.494269174465
 31
0.0
  0
DIMENSION
  5
18CD2
330
18C7A
100
AcDbEntity
  8
寸法
100
AcDbDimension
  2
*D16
 10
3674.266172669749
 20
1315.494269174465
 30
0.0
 11
3674.266172669748
 21
1177.494269174462
 31
0.0
 12
-3742.925985830444
 22
-6453.628869860112
 32
0.0
 70
   128
 71
     5
 42
77.0
  3
INABA_S40
100
AcDbAlignedDimension
 13
3437.970589276523
 23
1392.494269174465
 33
0.0
 14
3436.970589276523
 24
1315.494269174465
 34
0.0
 50
90.0
100
AcDbRotatedDimension
1001
ACAD
1000
DSTYLE
1002
{
1070
    41
1040
0.5
1070
    44
1040
1.0
1070
   147
1040
0.8
1070
   271
1070
     2
1070
   272
1070
     2
1070
   289
1070
     3
1070
   340
1005
F706
1070
   343
1005
164B4
1070
   344
1005
164B4
1002
}
  0
LINE
  5
18CD3
330
18C7A
100
AcDbEntity
  8
部品1
100
AcDbLine
 10
3437.970589276523
 20
1315.494269174465
 30
0.0
 11
3437.970589276523
 21
1392.494269174465
 31
0.0
  0
LINE
  5
18CD4
330
18C7A
100
AcDbEntity
  8
部品1
100
AcDbLine
 10
3398.970589276523
 20
1388.494269174465
 30
0.0
 11
3409.970589276524
 21
1388.494269174465
 31
0.0
  0
LINE
  5
18CD5
330
18C7A
100
AcDbEntity
  8
部品1
100
AcDbLine
 10
3407.970589276523
 20
1324.494269174465
 30
0.0
 11
3407.970589276523
 21
1315.494269174465
 31
0.0
  0
LINE
  5
18CD6
330
18C7A
100
AcDbEntity
  8
部品1
100
AcDbLine
 10
3398.970589276523
 20
1324.494269174465
 30
0.0
 11
3407.970589276523
 21
1324.494269174465
 31
0.0
  0
LINE
  5
18CD7
330
18C7A
100
AcDbEntity
  8
部品1
100
AcDbLine
 10
3398.970589276523
 20
1388.494269174465
 30
0.0
 11
3398.970589276523
 21
1324.494269174465
 31
0.0
  0
LINE
  5
18CD8
330
18C7A
100
AcDbEntity
  8
部品1
100
AcDbLine
 10
3409.970589276524
 20
1419.494269174465
 30
0.0
 11
3409.970589276524
 21
1388.494269174465
 31
0.0
  0
LINE
  5
18CD9
330
18C7A
100
AcDbEntity
  8
部品1
100
AcDbLine
 10
1322.970589276523
 20
1388.494269174465
 30
0.0
 11
1311.970589276523
 21
1388.494269174465
 31
0.0
  0
LINE
  5
18CDA
330
18C7A
100
AcDbEntity
  8
部品1
100
AcDbLine
 10
1283.970589276523
 20
1392.494269174465
 30
0.0
 11
1311.970589276523
 21
1392.494269174465
 31
0.0
  0
LINE
  5
18CDB
330
18C7A
100
AcDbEntity
  8
部品1
100
AcDbLine
 10
1313.970589276523
 20
1324.494269174465
 30
0.0
 11
1313.970589276523
 21
1315.494269174465
 31
0.0
  0
LINE
  5
18CDC
330
18C7A
100
AcDbEntity
  8
部品1
100
AcDbLine
 10
1322.970589276523
 20
1324.494269174465
 30
0.0
 11
1313.970589276523
 21
1324.494269174465
 31
0.0
  0
LINE
  5
18CDD
330
18C7A
100
AcDbEntity
  8
部品1
100
AcDbLine
 10
1313.970589276523
 20
1315.494269174465
 30
0.0
 11
1283.970589276523
 21
1315.494269174465
 31
0.0
  0
LINE
  5
18CDE
330
18C7A
100
AcDbEntity
  8
部品1
100
AcDbLine
 10
1283.970589276523
 20
1315.494269174465
 30
0.0
 11
1283.970589276523
 21
1392.494269174465
 31
0.0
  0
LINE
  5
18CDF
330
18C7A
100
AcDbEntity
  8
部品1
100
AcDbLine
 10
1322.970589276523
 20
1388.494269174465
 30
0.0
 11
1322.970589276523
 21
1324.494269174465
 31
0.0
  0
LINE
  5
18CE0
330
18C7A
100
AcDbEntity
  8
部品1
100
AcDbLine
 10
1311.970589276523
 20
1419.494269174462
 30
0.0
 11
1311.970589276523
 21
1388.494269174465
 31
0.0
  0
LINE
  5
18CE1
330
18C7A
100
AcDbEntity
  8
部品1
100
AcDbLine
 10
1311.970589276523
 20
1419.494269174462
 30
0.0
 11
3409.970589276524
 21
1419.494269174465
 31
0.0
  0
LINE
  5
18CE2
330
18C7A
100
AcDbEntity
  8
部品1
100
AcDbLine
 10
3407.970589276523
 20
1315.494269174465
 30
0.0
 11
3437.970589276523
 21
1315.494269174465
 31
0.0
  0
LINE
  5
18CE3
330
18C7A
100
AcDbEntity
  8
部品1
100
AcDbLine
 10
1313.970589276523
 20
1315.494269174465
 30
0.0
 11
3410.970589276523
 21
1315.494269174465
 31
0.0
  0
LINE
  5
18CE4
330
18C7A
100
AcDbEntity
  8
細線
  6
Continuous
 62
     5
100
AcDbLine
 10
2689.970589276527
 20
1354.494269174462
 30
0.0
 11
2689.970589276527
 21
1354.494269174462
 31
0.0
  0
LINE
  5
18CE5
330
18C7A
100
AcDbEntity
  8
細線
  6
Continuous
 62
     5
100
AcDbLine
 10
2682.470589276527
 20
1354.494269174462
 30
0.0
 11
2682.470589276527
 21
1354.494269174462
 31
0.0
  0
LINE
  5
18CE6
330
18C7A
100
AcDbEntity
  8
細線
  6
Continuous
 62
     5
100
AcDbLine
 10
2676.470589276527
 20
1354.494269174462
 30
0.0
 11
2676.470589276527
 21
1354.494269174462
 31
0.0
  0
LINE
  5
18CE7
330
18C7A
100
AcDbEntity
  8
細線
  6
Continuous
 62
     5
100
AcDbLine
 10
2743.970589276527
 20
1373.494269174462
 30
0.0
 11
2743.970589276527
 21
1373.494269174462
 31
0.0
  0
LINE
  5
18CE8
330
18C7A
100
AcDbEntity
  8
細線
 48
50.0
100
AcDbLine
 10
1336.970593930116
 20
1341.094443351418
 30
0.0
 11
1336.970593930113
 21
1349.490593759059
 31
0.0
  0
LINE
  5
18CE9
330
18C7A
100
AcDbEntity
  8
細線
 48
50.0
100
AcDbLine
 10
1336.970593930113
 20
1349.490593759059
 30
0.0
 11
1322.970589276523
 21
1349.490593759057
 31
0.0
  0
LINE
  5
18CEA
330
18C7A
100
AcDbEntity
  8
細線
 48
50.0
100
AcDbLine
 10
2087.970593930113
 20
1337.644443351419
 30
0.0
 11
2087.970593930113
 21
1342.494443351421
 31
0.0
  0
LINE
  5
18CEB
330
18C7A
100
AcDbEntity
  8
細線
 48
50.0
100
AcDbLine
 10
2087.970593930113
 20
1342.494443351421
 30
0.0
 11
2102.970593930113
 21
1342.494443351421
 31
0.0
  0
LINE
  5
18CEC
330
18C7A
100
AcDbEntity
  8
細線
 48
50.0
100
AcDbLine
 10
2102.970593930113
 20
1342.494443351421
 30
0.0
 11
2102.970593930115
 21
1349.494443351419
 31
0.0
  0
LINE
  5
18CED
330
18C7A
100
AcDbEntity
  8
細線
 48
50.0
100
AcDbLine
 10
2102.970593930115
 20
1349.494443351419
 30
0.0
 11
2117.970593930113
 21
1349.494443351419
 31
0.0
  0
LINE
  5
18CEE
330
18C7A
100
AcDbEntity
  8
細線
 48
50.0
100
AcDbLine
 10
2117.970593930113
 20
1349.494443351419
 30
0.0
 11
2117.970593930113
 21
1320.494443351421
 31
0.0
  0
LINE
  5
18CEF
330
18C7A
100
AcDbEntity
  8
細線
 48
50.0
100
AcDbLine
 10
1313.970589276523
 20
1320.491777694889
 30
0.0
 11
1527.970593930113
 21
1320.494460905133
 31
0.0
  0
LINE
  5
18CF0
330
18C7A
100
AcDbEntity
  8
細線
 48
50.0
100
AcDbLine
 10
2017.970593930113
 20
1320.494443351421
 30
0.0
 11
2117.970593930113
 21
1320.494443351421
 31
0.0
  0
LINE
  5
18CF1
330
18C7A
100
AcDbEntity
  8
細線
 48
50.0
100
AcDbLine
 10
1737.970593930113
 20
1320.494443351419
 30
0.0
 11
1807.970593930113
 21
1320.494443351423
 31
0.0
  0
LINE
  5
18CF2
330
18C7A
100
AcDbEntity
  8
細線
 48
50.0
100
AcDbLine
 10
1750.832558942642
 20
1320.494443351419
 30
0.0
 11
1756.588076525309
 21
1338.765294641913
 31
0.0
  0
LINE
  5
18CF3
330
18C7A
100
AcDbEntity
  8
細線
 48
50.0
100
AcDbLine
 10
1756.588076525309
 20
1338.765294641913
 30
0.0
 11
1767.516525005743
 21
1338.765294641911
 31
0.0
  0
ARC
  5
18CF4
330
18C7A
100
AcDbEntity
  8
細線
 48
50.0
100
AcDbCircle
 10
1767.516525005743
 20
1337.765294641911
 30
0.0
 40
1.0
100
AcDbArc
 50
24.62431835207225
 51
90.0
  0
ARC
  5
18CF5
330
18C7A
100
AcDbEntity
  8
細線
 48
50.0
100
AcDbCircle
 10
1778.425237120377
 20
1337.765294641911
 30
0.0
 40
1.0
100
AcDbArc
 50
90.0
 51
155.3756816479277
  0
ARC
  5
18CF6
330
18C7A
100
AcDbEntity
  8
細線
 48
50.0
100
AcDbCircle
 10
1772.970881063058
 20
1340.265294641911
 30
0.0
 40
5.0
100
AcDbArc
 50
204.6243183520723
 51
335.3756816479278
  0
LINE
  5
18CF7
330
18C7A
100
AcDbEntity
  8
細線
 48
50.0
100
AcDbLine
 10
1778.425237120377
 20
1338.765294641911
 30
0.0
 11
1789.35368560081
 21
1338.765294641913
 31
0.0
  0
LINE
  5
18CF8
330
18C7A
100
AcDbEntity
  8
細線
 48
50.0
100
AcDbLine
 10
1789.35368560081
 20
1338.765294641913
 30
0.0
 11
1795.109203183478
 21
1320.494443351423
 31
0.0
  0
LINE
  5
18CF9
330
18C7A
100
AcDbEntity
  8
細線
 48
50.0
100
AcDbLine
 10
2087.970593930113
 20
1341.094443351419
 30
0.0
 11
1336.970593930116
 21
1341.094443351418
 31
0.0
  0
LINE
  5
18CFA
330
18C7A
100
AcDbEntity
  8
細線
 48
50.0
100
AcDbLine
 10
1947.970593930113
 20
1320.494443351421
 30
0.0
 11
1877.970593930113
 21
1320.494443351421
 31
0.0
  0
LINE
  5
18CFB
330
18C7A
100
AcDbEntity
  8
細線
100
AcDbLine
 10
1667.970593930113
 20
1320.494443351421
 30
0.0
 11
1597.970602115529
 21
1320.494443351421
 31
0.0
  0
LINE
  5
18CFC
330
18C7A
100
AcDbEntity
  8
細線
 48
50.0
100
AcDbLine
 10
2741.970584622936
 20
1375.094487209288
 30
0.0
 11
2106.970593930113
 21
1375.094487209284
 31
0.0
  0
LINE
  5
18CFD
330
18C7A
100
AcDbEntity
  8
細線
 48
50.0
100
AcDbLine
 10
2106.970593930113
 20
1371.990637616925
 30
0.0
 11
2106.970593930113
 21
1376.490637616925
 31
0.0
  0
LINE
  5
18CFE
330
18C7A
100
AcDbEntity
  8
細線
 48
50.0
100
AcDbLine
 10
2106.970593930113
 20
1376.490637616925
 30
0.0
 11
2091.970593930113
 21
1376.490637616925
 31
0.0
  0
LINE
  5
18CFF
330
18C7A
100
AcDbEntity
  8
細線
 48
50.0
100
AcDbLine
 10
2091.970593930113
 20
1376.490637616925
 30
0.0
 11
2091.970593930113
 21
1383.490637616927
 31
0.0
  0
LINE
  5
18D00
330
18C7A
100
AcDbEntity
  8
細線
 48
50.0
100
AcDbLine
 10
2091.970593930113
 20
1383.490637616927
 30
0.0
 11
2076.970593930115
 21
1383.490637616924
 31
0.0
  0
LINE
  5
18D01
330
18C7A
100
AcDbEntity
  8
細線
 48
50.0
100
AcDbLine
 10
2076.970593930115
 20
1383.490637616924
 30
0.0
 11
2076.970593930115
 21
1345.890409513813
 31
0.0
  0
LINE
  5
18D02
330
18C7A
100
AcDbEntity
  8
細線
 48
50.0
100
AcDbLine
 10
2076.970593930115
 20
1345.890409513813
 30
0.0
 11
2096.970601231289
 21
1345.890451063353
 31
0.0
  0
LINE
  5
18D03
330
18C7A
100
AcDbEntity
  8
細線
 48
50.0
100
AcDbLine
 10
2096.970556362348
 20
1354.493912699161
 30
0.0
 11
2096.970601231289
 21
1345.890451063353
 31
0.0
  0
LINE
  5
18D04
330
18C7A
100
AcDbEntity
  8
細線
 48
50.0
100
AcDbLine
 10
2741.970584622936
 20
1371.644487209287
 30
0.0
 11
2741.970584622936
 21
1376.494487209284
 31
0.0
  0
LINE
  5
18D05
330
18C7A
100
AcDbEntity
  8
細線
 48
50.0
100
AcDbLine
 10
2741.970584622936
 20
1376.494487209284
 30
0.0
 11
2756.970584622934
 21
1376.494487209285
 31
0.0
  0
LINE
  5
18D06
330
18C7A
100
AcDbEntity
  8
細線
 48
50.0
100
AcDbLine
 10
2756.970584622934
 20
1376.494487209285
 30
0.0
 11
2756.970596256909
 21
1383.494487209331
 31
0.0
  0
LINE
  5
18D07
330
18C7A
100
AcDbEntity
  8
細線
 48
50.0
100
AcDbLine
 10
2756.970596256909
 20
1383.494487209331
 30
0.0
 11
2771.970594427439
 21
1383.494487209329
 31
0.0
  0
LINE
  5
18D08
330
18C7A
100
AcDbEntity
  8
細線
 48
50.0
100
AcDbLine
 10
2771.970594427439
 20
1383.494487209329
 30
0.0
 11
2771.970584125617
 21
1354.494281037055
 31
0.0
  0
LINE
  5
18D09
330
18C7A
100
AcDbEntity
  8
細線
 48
50.0
100
AcDbLine
 10
2458.070304175992
 20
1354.494278397076
 30
0.0
 11
2389.470863838818
 21
1354.494283787084
 31
0.0
  0
LINE
  5
18D0A
330
18C7A
100
AcDbEntity
  8
細線
 48
50.0
100
AcDbLine
 10
2096.970556362348
 20
1354.493912699161
 30
0.0
 11
2108.203245717057
 21
1354.494095652309
 31
0.0
  0
ARC
  5
18D0B
330
18C7A
100
AcDbEntity
  8
細線
 48
50.0
100
AcDbCircle
 10
2114.785538024393
 20
1353.294259565922
 30
0.0
 40
1.8
100
AcDbArc
 50
270.0006665777295
 51
345.000555481349
  0
LINE
  5
18D0C
330
18C7A
100
AcDbEntity
  8
細線
 48
50.0
100
AcDbLine
 10
2116.771971470473
 20
1353.753100023201
 30
0.0
 11
2116.524209028273
 21
1352.828402141094
 31
0.0
  0
LINE
  5
18D0D
330
18C7A
100
AcDbEntity
  8
細線
 48
50.0
100
AcDbLine
 10
2114.785558965548
 20
1351.494259566043
 30
0.0
 11
2111.155631546781
 21
1351.494217335563
 31
0.0
  0
ARC
  5
18D0E
330
18C7A
100
AcDbEntity
  8
細線
 48
50.0
100
AcDbCircle
 10
2111.155610605627
 20
1353.29421733544
 30
0.0
 40
1.8
100
AcDbArc
 50
195.0010443049965
 51
270.0006665777295
  0
LINE
  5
18D0F
330
18C7A
100
AcDbEntity
  8
細線
 48
50.0
100
AcDbLine
 10
2109.169183113368
 20
1353.752932303007
 30
0.0
 11
2109.416952609882
 21
1352.828311364425
 31
0.0
  0
ARC
  5
18D10
330
18C7A
100
AcDbEntity
  8
細線
 48
50.0
100
AcDbCircle
 10
2108.203262004622
 20
1353.494095652444
 30
0.0
 40
1.0
100
AcDbArc
 50
15.00104430499651
 51
90.00093320877969
  0
LINE
  5
18D11
330
18C7A
100
AcDbEntity
  8
細線
 48
50.0
100
AcDbLine
 10
2117.737892825577
 20
1354.494290342714
 30
0.0
 11
2118.679652976481
 21
1354.494296916564
 31
0.0
  0
ARC
  5
18D12
330
18C7A
100
AcDbEntity
  8
細線
 48
50.0
100
AcDbCircle
 10
2117.737899805961
 20
1353.49429034274
 30
0.0
 40
1.0
100
AcDbArc
 50
90.0003999466794
 51
165.000555481349
  0
LINE
  5
18D13
330
18C7A
100
AcDbEntity
  8
細線
 48
50.0
100
AcDbLine
 10
2669.470584622926
 20
1354.494281037055
 30
0.0
 11
2771.970584125617
 21
1354.494281037055
 31
0.0
  0
LINE
  5
18D14
330
18C7A
100
AcDbEntity
  8
細線
 48
50.0
100
AcDbLine
 10
2179.47061994182
 20
1354.494289224422
 30
0.0
 11
2118.370558714898
 21
1354.494296916564
 31
0.0
  0
LINE
  5
18D15
330
18C7A
100
AcDbEntity
  8
細線
 48
50.0
100
AcDbLine
 10
2599.470584622926
 20
1354.494281037057
 30
0.0
 11
2529.470584622926
 21
1354.494281037055
 31
0.0
  0
LINE
  5
18D16
330
18C7A
100
AcDbEntity
  8
細線
 48
50.0
100
AcDbLine
 10
2319.470584622926
 20
1354.494281037054
 30
0.0
 11
2249.470567335051
 21
1354.494281037057
 31
0.0
  0
ARC
  5
18D17
330
18C7A
100
AcDbEntity
  8
細線
 48
50.0
100
AcDbCircle
 10
2756.170589276533
 20
1387.694269174466
 30
0.0
 40
0.8
100
AcDbArc
 50
359.9997333689499
 51
89.99986668437072
  0
ARC
  5
18D18
330
18C7A
100
AcDbEntity
  8
細線
 48
50.0
100
AcDbCircle
 10
2763.770596101631
 20
1387.694280343081
 30
0.0
 40
0.8
100
AcDbArc
 50
90.00014387753465
 51
179.9997333689498
  0
LINE
  5
18D19
330
18C7A
100
AcDbEntity
  8
細線
 48
50.0
100
AcDbLine
 10
2756.170591137969
 20
1388.494269174465
 30
0.0
 11
2750.970589276525
 21
1388.494269174465
 31
0.0
  0
ARC
  5
18D1A
330
18C7A
100
AcDbEntity
  8
細線
 48
50.0
100
AcDbCircle
 10
2757.670589276524
 20
1386.194269174464
 30
0.0
 40
0.7
100
AcDbArc
 50
180.0
 51
270.0
  0
ARC
  5
18D1B
330
18C7A
100
AcDbEntity
  8
細線
 48
50.0
100
AcDbCircle
 10
2762.270589276524
 20
1386.194269174464
 30
0.0
 40
0.7
100
AcDbArc
 50
270.0
 51
0.0
  0
LINE
  5
18D1C
330
18C7A
100
AcDbEntity
  8
細線
 48
50.0
100
AcDbLine
 10
2762.970589276525
 20
1386.194269174464
 30
0.0
 11
2762.970596101639
 21
1387.694284065954
 31
0.0
  0
LINE
  5
18D1D
330
18C7A
100
AcDbEntity
  8
細線
 48
50.0
100
AcDbLine
 10
2757.670589276524
 20
1385.494269174465
 30
0.0
 11
2762.270589276524
 21
1385.494269174465
 31
0.0
  0
LINE
  5
18D1E
330
18C7A
100
AcDbEntity
  8
細線
 48
50.0
100
AcDbLine
 10
2756.970589276525
 20
1387.694269174466
 30
0.0
 11
2756.970589276525
 21
1386.194269174464
 31
0.0
  0
LINE
  5
18D1F
330
18C7A
100
AcDbEntity
  8
細線
 48
50.0
100
AcDbLine
 10
3382.570589276527
 20
1418.494269174465
 30
0.0
 11
2745.970589276525
 21
1418.494269174463
 31
0.0
  0
LINE
  5
18D20
330
18C7A
100
AcDbEntity
  8
細線
 48
50.0
100
AcDbLine
 10
3408.470589276525
 20
1413.494269174467
 30
0.0
 11
3392.570589276527
 21
1413.494269174465
 31
0.0
  0
LINE
  5
18D21
330
18C7A
100
AcDbEntity
  8
細線
 48
50.0
100
AcDbLine
 10
3392.570589276526
 20
1413.494269174465
 30
0.0
 11
3382.570589276527
 21
1418.494269174465
 31
0.0
  0
LINE
  5
18D22
330
18C7A
100
AcDbEntity
  8
細線
100
AcDbLine
 10
2993.470589276525
 20
1388.494269174465
 30
0.0
 11
2993.470589276525
 21
1417.794269174464
 31
0.0
  0
LINE
  5
18D23
330
18C7A
100
AcDbEntity
  8
細線
100
AcDbLine
 10
2993.470589276525
 20
1417.794269174464
 30
0.0
 11
3013.470589276525
 21
1417.794269174464
 31
0.0
  0
LINE
  5
18D24
330
18C7A
100
AcDbEntity
  8
細線
100
AcDbLine
 10
3013.470589276525
 20
1388.494269174465
 30
0.0
 11
3013.470589276525
 21
1417.794269174464
 31
0.0
  0
LINE
  5
18D25
330
18C7A
100
AcDbEntity
  8
細線
100
AcDbLine
 10
3170.720589276524
 20
1388.494269174465
 30
0.0
 11
3100.720589276523
 21
1388.494269174465
 31
0.0
  0
LINE
  5
18D26
330
18C7A
100
AcDbEntity
  8
細線
 48
50.0
100
AcDbLine
 10
2890.720589276525
 20
1388.494269174465
 30
0.0
 11
2763.766368849365
 21
1388.494269174465
 31
0.0
  0
LINE
  5
18D27
330
18C7A
100
AcDbEntity
  8
細線
100
AcDbLine
 10
3030.720589276525
 20
1388.494269174465
 30
0.0
 11
2960.720589276525
 21
1388.494269174465
 31
0.0
  0
LINE
  5
18D28
330
18C7A
100
AcDbEntity
  8
細線
 48
50.0
100
AcDbLine
 10
2750.970589276525
 20
1380.494269174465
 30
0.0
 11
2750.970589276525
 21
1388.494269174465
 31
0.0
  0
LINE
  5
18D29
330
18C7A
100
AcDbEntity
  8
細線
 48
50.0
100
AcDbLine
 10
2730.970589276524
 20
1380.494269174467
 30
0.0
 11
2750.970589276525
 21
1380.494269174465
 31
0.0
  0
LINE
  5
18D2A
330
18C7A
100
AcDbEntity
  8
細線
 48
50.0
100
AcDbLine
 10
2745.970589276525
 20
1418.494269174465
 30
0.0
 11
2745.970589276525
 21
1413.494269174465
 31
0.0
  0
LINE
  5
18D2B
330
18C7A
100
AcDbEntity
  8
細線
 48
50.0
100
AcDbLine
 10
2730.970589276525
 20
1418.494269174463
 30
0.0
 11
2745.970589276525
 21
1418.494269174465
 31
0.0
  0
LINE
  5
18D2C
330
18C7A
100
AcDbEntity
  8
細線
 48
50.0
100
AcDbLine
 10
2730.970589276524
 20
1380.494269174467
 30
0.0
 11
2730.970589276525
 21
1418.494269174463
 31
0.0
  0
LINE
  5
18D2D
330
18C7A
100
AcDbEntity
  8
細線
100
AcDbLine
 10
3398.970589276523
 20
1388.494269174465
 30
0.0
 11
3240.720589276525
 21
1388.494269174465
 31
0.0
  0
LINE
  5
18D2E
330
18C7A
100
AcDbEntity
  8
細線
 48
50.0
100
AcDbLine
 10
3408.470589276525
 20
1413.494269174467
 30
0.0
 11
3408.470589276524
 21
1388.494269174465
 31
0.0
  0
TEXT
  5
18D2F
330
18C7A
100
AcDbEntity
  8
部品1
100
AcDbText
 10
1860.154865991392
 20
46.99880823813145
 30
0.0
 40
135.0
  1
平面図
  7
STYLE2
100
AcDbText
  0
LWPOLYLINE
  5
18D30
330
18C7A
100
AcDbEntity
  8
部品1
100
AcDbPolyline
 90
        4
 70
     1
 43
0.0
 10
1770.23525616235
 20
239.8923374566548
 10
1770.23525616235
 20
0.0000159111223184
 10
2533.705922390791
 20
0.0000159111223184
 10
2533.705922390791
 20
239.8923374566548
  0
LINE
  5
18D31
330
18C7A
100
AcDbEntity
  8
部品1
100
AcDbLine
 10
1534.470589276487
 20
3154.494269174626
 30
0.0
 11
2769.470589276552
 21
3154.494269174626
 31
0.0
  0
LINE
  5
18D32
330
18C7A
100
AcDbEntity
  8
部品1
 48
50.0
100
AcDbLine
 10
1311.970589276523
 20
1420.494269174462
 30
0.0
 11
3411.970589276523
 21
1420.494269174465
 31
0.0
  0
LINE
  5
18D33
330
18C7A
100
AcDbEntity
  8
部品1
 48
50.0
100
AcDbLine
 10
471.9705892765232
 20
1392.494269174465
 30
0.0
 11
1311.970589276523
 21
1392.494269174465
 31
0.0
  0
DIMENSION
  5
18D34
330
18C7A
100
AcDbEntity
  8
寸法
100
AcDbDimension
  2
*D14
 10
2710.234916278077
 20
2488.887829538828
 30
0.0
 11
2338.318822490183
 21
2488.887829538828
 31
0.0
 12
-3742.925985830444
 22
-6453.628869860112
 32
0.0
 70
   128
 71
     5
 42
1231.00000000007
  3
INABA_S40G
100
AcDbAlignedDimension
 13
1536.470589276486
 23
2702.494269174557
 33
0.0
 14
2767.470589276556
 24
2702.494269174549
 34
0.0
100
AcDbRotatedDimension
1001
ACAD
1000
DSTYLE
1002
{
1002
}
  0
LINE
  5
18D35
330
18C7A
100
AcDbEntity
  8
部品1
100
AcDbLine
 10
1536.470589276487
 20
2702.494269174557
 30
0.0
 11
2767.470589276554
 21
2702.494269174615
 31
0.0
  0
LINE
  5
18D36
330
18C7A
100
AcDbEntity
  8
部品1
100
AcDbLine
 10
1536.470589276487
 20
3152.494269174557
 30
0.0
 11
2767.470589276556
 21
3152.494269174615
 31
0.0
  0
LINE
  5
18D37
330
18C7A
100
AcDbEntity
  8
細線
 48
50.0
100
AcDbLine
 10
1508.470589276487
 20
3152.494269174558
 30
0.0
 11
445.4705892765559
 21
2702.494269174509
 31
0.0
  0
LINE
  5
18D38
330
18C7A
100
AcDbEntity
  8
細線
 48
50.0
100
AcDbLine
 10
1508.470589276487
 20
2702.494269174558
 30
0.0
 11
445.4705892765542
 21
3152.494269174509
 31
0.0
  0
LINE
  5
18D39
330
18C7A
100
AcDbEntity
  8
部品1
100
AcDbLine
 10
1556.970589276487
 20
3172.494269174611
 30
0.0
 11
1556.970589276487
 21
3154.494269174611
 31
0.0
  0
LINE
  5
18D3A
330
18C7A
100
AcDbEntity
  8
部品1
100
AcDbLine
 10
1556.970589276487
 20
3172.494269174611
 30
0.0
 11
1550.970589276487
 21
3172.494269174611
 31
0.0
  0
LINE
  5
18D3B
330
18C7A
100
AcDbEntity
  8
部品1
100
AcDbLine
 10
1534.470589276487
 20
3146.494269174608
 30
0.0
 11
1509.470589276487
 21
3146.494269174611
 31
0.0
  0
LINE
  5
18D3C
330
18C7A
100
AcDbEntity
  8
部品1
100
AcDbLine
 10
1486.970589276487
 20
3172.494269174611
 30
0.0
 11
1486.970589276487
 21
3154.494269174611
 31
0.0
  0
LINE
  5
18D3D
330
18C7A
100
AcDbEntity
  8
部品1
100
AcDbLine
 10
1492.970589276487
 20
3172.494269174611
 30
0.0
 11
1486.970589276487
 21
3172.494269174611
 31
0.0
  0
LINE
  5
18D3E
330
18C7A
100
AcDbEntity
  8
部品1
100
AcDbLine
 10
1534.470589276487
 20
2702.494269174615
 30
0.0
 11
1509.470589276487
 21
2702.494269174615
 31
0.0
  0
LINE
  5
18D3F
330
18C7A
100
AcDbEntity
  8
部品1
 48
50.0
100
AcDbLine
 10
1536.470589276487
 20
3152.494269174611
 30
0.0
 11
1536.470589276487
 21
2702.494269174615
 31
0.0
  0
LINE
  5
18D40
330
18C7A
100
AcDbEntity
  8
部品1
 48
50.0
100
AcDbLine
 10
1508.470589276487
 20
3152.494269174607
 30
0.0
 11
1508.470589276487
 21
2702.494269174615
 31
0.0
  0
LINE
  5
18D41
330
18C7A
100
AcDbEntity
  8
部品1
 48
50.0
100
AcDbLine
 10
1534.470589276487
 20
3154.494269174618
 30
0.0
 11
1534.470589276487
 21
2702.494269174615
 31
0.0
  0
LINE
  5
18D42
330
18C7A
100
AcDbEntity
  8
部品1
 48
50.0
100
AcDbLine
 10
1509.470589276487
 20
3154.494269174615
 30
0.0
 11
1509.470589276487
 21
2702.494269174615
 31
0.0
  0
LINE
  5
18D43
330
18C7A
100
AcDbEntity
  8
部品1
100
AcDbLine
 10
3411.970589276556
 20
1392.494269174582
 30
0.0
 11
3411.970589276556
 21
1420.494269174596
 31
0.0
  0
LINE
  5
18D44
330
18C7A
100
AcDbEntity
  8
部品1
100
AcDbLine
 10
1311.970589276523
 20
1392.494269174596
 30
0.0
 11
1311.970589276523
 21
1420.494269174596
 31
0.0
  0
LINE
  5
18D45
330
18C7A
100
AcDbEntity
  8
部品1
100
AcDbLine
 10
891.9705892765232
 20
1392.494269174596
 30
0.0
 11
891.9705892765232
 21
1420.494269174596
 31
0.0
  0
LINE
  5
18D46
330
18C7A
100
AcDbEntity
  8
部品1
100
AcDbLine
 10
3411.97058927652
 20
3182.494269174477
 30
0.0
 11
3411.970589276523
 21
3154.494269174477
 31
0.0
  0
LINE
  5
18D47
330
18C7A
100
AcDbEntity
  8
部品1
100
AcDbLine
 10
2571.97058927652
 20
3182.494269174477
 30
0.0
 11
2571.970589276523
 21
3154.494269174477
 31
0.0
  0
LINE
  5
18D48
330
18C7A
100
AcDbEntity
  8
部品1
100
AcDbLine
 10
2991.97058927652
 20
3182.494269174477
 30
0.0
 11
2991.970589276523
 21
3154.494269174477
 31
0.0
  0
LINE
  5
18D49
330
18C7A
100
AcDbEntity
  8
部品1
100
AcDbLine
 10
2151.970589276519
 20
3182.494269174477
 30
0.0
 11
2151.970589276523
 21
3154.494269174477
 31
0.0
  0
LINE
  5
18D4A
330
18C7A
100
AcDbEntity
  8
部品1
100
AcDbLine
 10
1731.970589276519
 20
3182.494269174477
 30
0.0
 11
1731.970589276523
 21
3154.494269174477
 31
0.0
  0
LINE
  5
18D4B
330
18C7A
100
AcDbEntity
  8
部品1
100
AcDbLine
 10
1311.970589276519
 20
3182.494269174477
 30
0.0
 11
1311.970589276523
 21
3154.494269174477
 31
0.0
  0
LINE
  5
18D4C
330
18C7A
100
AcDbEntity
  8
部品1
100
AcDbLine
 10
891.9705892765195
 20
3182.494269174477
 30
0.0
 11
891.9705892765232
 21
3154.494269174477
 31
0.0
  0
LINE
  5
18D4D
330
18C7A
100
AcDbEntity
  8
部品1
100
AcDbLine
 10
471.9705892765232
 20
1392.494269174596
 30
0.0
 11
471.9705892765232
 21
1420.494269174596
 31
0.0
  0
LINE
  5
18D4E
330
18C7A
100
AcDbEntity
  8
部品1
100
AcDbLine
 10
444.9705892765305
 20
1420.494269174558
 30
0.0
 11
3858.970589276556
 21
1420.494269174596
 31
0.0
  0
LINE
  5
18D4F
330
18C7A
100
AcDbEntity
  8
部品1
100
AcDbLine
 10
3831.970589276556
 20
1392.494269174596
 30
0.0
 11
3831.970589276556
 21
1420.494269174596
 31
0.0
  0
LINE
  5
18D50
330
18C7A
100
AcDbEntity
  8
部品1
100
AcDbLine
 10
3858.970589276556
 20
1447.494269174593
 30
0.0
 11
3886.970589276556
 21
1447.494269174593
 31
0.0
  0
LINE
  5
18D51
330
18C7A
100
AcDbEntity
  8
部品1
100
AcDbLine
 10
3858.970589276556
 20
1867.494269174607
 30
0.0
 11
3886.970589276556
 21
1867.494269174607
 31
0.0
  0
LINE
  5
18D52
330
18C7A
100
AcDbEntity
  8
部品1
100
AcDbLine
 10
444.9705892765305
 20
1867.49426917448
 30
0.0
 11
416.9705892765305
 21
1867.49426917448
 31
0.0
  0
LINE
  5
18D53
330
18C7A
100
AcDbEntity
  8
部品1
100
AcDbLine
 10
3830.470589276541
 20
1867.49426917458
 30
0.0
 11
473.4705892765396
 21
1867.49426917448
 31
0.0
  0
LINE
  5
18D54
330
18C7A
100
AcDbEntity
  8
部品1
100
AcDbLine
 10
3830.470589276541
 20
2287.49426917458
 30
0.0
 11
473.4705892765396
 21
2287.49426917448
 31
0.0
  0
LINE
  5
18D55
330
18C7A
100
AcDbEntity
  8
部品1
100
AcDbLine
 10
444.9705892765305
 20
2287.49426917448
 30
0.0
 11
416.9705892765305
 21
2287.49426917448
 31
0.0
  0
LINE
  5
18D56
330
18C7A
100
AcDbEntity
  8
部品1
100
AcDbLine
 10
3858.970589276556
 20
2287.494269174608
 30
0.0
 11
3886.970589276556
 21
2287.494269174608
 31
0.0
  0
LINE
  5
18D57
330
18C7A
100
AcDbEntity
  8
部品1
 48
50.0
100
AcDbLine
 10
2151.970589276551
 20
2702.494269174586
 30
0.0
 11
2151.970589276581
 21
1448.994269174494
 31
0.0
  0
LINE
  5
18D58
330
18C7A
100
AcDbEntity
  8
破線
 48
10.0
100
AcDbLine
 10
2959.470589276535
 20
1472.494269174522
 30
0.0
 11
2176.970589276532
 21
1472.494269174505
 31
0.0
  0
LINE
  5
18D59
330
18C7A
100
AcDbEntity
  8
破線
 48
10.0
100
AcDbLine
 10
3009.47058927653
 20
1448.994269174509
 30
0.0
 11
3009.47058927653
 21
2702.494269174615
 31
0.0
  0
LINE
  5
18D5A
330
18C7A
100
AcDbEntity
  8
破線
 48
10.0
100
AcDbLine
 10
2959.470589276535
 20
1448.994269174505
 30
0.0
 11
2959.470589276531
 21
2702.494269174615
 31
0.0
  0
LINE
  5
18D5B
330
18C7A
100
AcDbEntity
  8
破線
 48
10.0
100
AcDbLine
 10
1344.47058927653
 20
1448.994269174509
 30
0.0
 11
1344.47058927653
 21
2702.494269174615
 31
0.0
  0
LINE
  5
18D5C
330
18C7A
100
AcDbEntity
  8
破線
 48
10.0
100
AcDbLine
 10
1294.470589276534
 20
1448.994269174505
 30
0.0
 11
1294.47058927653
 21
2702.494269174615
 31
0.0
  0
DIMENSION
  5
18D5D
330
18C7A
100
AcDbEntity
  8
寸法
100
AcDbDimension
  2
*D13
 10
1451.234916278005
 20
2488.887829538828
 30
0.0
 11
916.0604668248634
 21
2488.887829538828
 31
0.0
 12
-3742.925985830444
 22
-6453.628869860112
 32
0.0
 70
   128
 71
     5
 42
1062.99999999993
  3
INABA_S40G
100
AcDbAlignedDimension
 13
445.4705892765559
 23
2702.494269174505
 33
0.0
 14
1508.470589276486
 24
2702.494269174558
 34
0.0
100
AcDbRotatedDimension
1001
ACAD
1000
DSTYLE
1002
{
1002
}
  0
LINE
  5
18D5E
330
18C7A
100
AcDbEntity
  8
破線
 48
10.0
100
AcDbLine
 10
1294.470589276534
 20
1472.494269174469
 30
0.0
 11
496.9705892765414
 21
1472.494269174476
 31
0.0
  0
LINE
  5
18D5F
330
18C7A
100
AcDbEntity
  8
部品1
100
AcDbLine
 10
3831.970589276556
 20
3182.494269174604
 30
0.0
 11
3831.970589276556
 21
3154.494269174604
 31
0.0
  0
LINE
  5
18D60
330
18C7A
100
AcDbEntity
  8
部品1
100
AcDbLine
 10
3831.970589276556
 20
3182.494269174626
 30
0.0
 11
3831.970589276556
 21
3154.494269174626
 31
0.0
  0
LINE
  5
18D61
330
18C7A
100
AcDbEntity
  8
部品1
100
AcDbLine
 10
3858.970589276556
 20
3127.494269174607
 30
0.0
 11
3886.970589276556
 21
3127.494269174607
 31
0.0
  0
LINE
  5
18D62
330
18C7A
100
AcDbEntity
  8
部品1
100
AcDbLine
 10
3858.970589276556
 20
2707.494269174608
 30
0.0
 11
3886.970589276556
 21
2707.494269174608
 31
0.0
  0
LINE
  5
18D63
330
18C7A
100
AcDbEntity
  8
部品1
100
AcDbLine
 10
3858.470589276556
 20
3152.494269174604
 30
0.0
 11
3858.470589276556
 21
2702.494269174608
 31
0.0
  0
LINE
  5
18D64
330
18C7A
100
AcDbEntity
  8
部品1
100
AcDbLine
 10
3886.970589276533
 20
1447.494269174593
 30
0.0
 11
3886.970589276531
 21
1392.494269174596
 31
0.0
  0
LINE
  5
18D65
330
18C7A
100
AcDbEntity
  8
部品1
 48
50.0
100
AcDbLine
 10
3830.470589276556
 20
1448.994269174596
 30
0.0
 11
3858.970589276554
 21
1420.494269174596
 31
0.0
  0
LINE
  5
18D66
330
18C7A
100
AcDbEntity
  8
部品1
100
AcDbLine
 10
3886.970589276531
 20
1392.494269174596
 30
0.0
 11
3835.970589276531
 21
1392.494269174596
 31
0.0
  0
LINE
  5
18D67
330
18C7A
100
AcDbEntity
  8
部品1
100
AcDbLine
 10
3858.970589276533
 20
1447.494269174593
 30
0.0
 11
3886.970589276531
 21
1447.494269174593
 31
0.0
  0
LINE
  5
18D68
330
18C7A
100
AcDbEntity
  8
部品1
100
AcDbLine
 10
3886.970589276556
 20
3182.494269174604
 30
0.0
 11
3886.970589276531
 21
1392.494269174596
 31
0.0
  0
DIMENSION
  5
18D69
330
18C7A
100
AcDbEntity
  8
寸法
100
AcDbDimension
  2
*D12
 10
4534.396935010967
 20
1447.494269174593
 30
0.0
 11
4534.396935010965
 21
2287.4942691746
 31
0.0
 12
-3742.925985830444
 22
-6453.628869860112
 32
0.0
 70
   128
  1
4X420=<>
 71
     5
 42
1680.000000000014
  3
INABA_S40G
100
AcDbAlignedDimension
 13
3886.970589276556
 23
3127.494269174607
 33
0.0
 14
3886.970589276531
 24
1447.494269174593
 34
0.0
 50
90.0
100
AcDbRotatedDimension
1001
ACAD
1000
DSTYLE
1002
{
1002
}
  0
LINE
  5
18D6A
330
18C7A
100
AcDbEntity
  8
部品1
100
AcDbLine
 10
3858.970589276556
 20
3154.494269174604
 30
0.0
 11
3858.970589276534
 21
1420.494269174596
 31
0.0
  0
DIMENSION
  5
18D6B
330
18C7A
100
AcDbEntity
  8
寸法
100
AcDbDimension
  2
*D11
 10
4213.82831513858
 20
2607.276453505718
 30
0.0
 11
4113.828315138579
 21
2832.276453505718
 31
0.0
 12
-3742.925985830444
 22
-6453.628869860112
 32
0.0
 71
     5
 42
449.9999999999963
  3
INABA_S40G
100
AcDbAlignedDimension
 13
3858.470589276556
 23
3152.494269174604
 33
0.0
 14
3858.470589276556
 24
2702.494269174608
 34
0.0
 50
90.0
100
AcDbRotatedDimension
1001
ACAD
1000
DSTYLE
1002
{
1002
}
  0
LINE
  5
18D6C
330
18C7A
100
AcDbEntity
  8
部品1
100
AcDbLine
 10
3830.470589276547
 20
2702.494269174608
 30
0.0
 11
3830.470589276556
 21
1448.994269174596
 31
0.0
  0
LINE
  5
18D6D
330
18C7A
100
AcDbEntity
  8
破線
 48
10.0
100
AcDbLine
 10
3806.970589276549
 20
2702.494269174608
 30
0.0
 11
3806.970589276558
 21
1472.494269174593
 31
0.0
  0
LINE
  5
18D6E
330
18C7A
100
AcDbEntity
  8
部品1
100
AcDbLine
 10
2769.470589276556
 20
3146.494269174608
 30
0.0
 11
2794.470589276556
 21
3146.494269174611
 31
0.0
  0
LINE
  5
18D6F
330
18C7A
100
AcDbEntity
  8
部品1
100
AcDbLine
 10
2810.970589276556
 20
3172.494269174611
 30
0.0
 11
2816.970589276556
 21
3172.494269174611
 31
0.0
  0
LINE
  5
18D70
330
18C7A
100
AcDbEntity
  8
部品1
100
AcDbLine
 10
2816.970589276556
 20
3172.494269174611
 30
0.0
 11
2816.970589276556
 21
3154.494269174611
 31
0.0
  0
LINE
  5
18D71
330
18C7A
100
AcDbEntity
  8
部品1
100
AcDbLine
 10
2746.970589276556
 20
3172.494269174611
 30
0.0
 11
2752.970589276556
 21
3172.494269174611
 31
0.0
  0
LINE
  5
18D72
330
18C7A
100
AcDbEntity
  8
部品1
100
AcDbLine
 10
2746.970589276556
 20
3172.494269174611
 30
0.0
 11
2746.970589276556
 21
3154.494269174611
 31
0.0
  0
LINE
  5
18D73
330
18C7A
100
AcDbEntity
  8
部品1
100
AcDbLine
 10
2769.470589276556
 20
2702.494269174615
 30
0.0
 11
2794.470589276556
 21
2702.494269174615
 31
0.0
  0
LINE
  5
18D74
330
18C7A
100
AcDbEntity
  8
部品1
 48
50.0
100
AcDbLine
 10
2794.470589276556
 20
3154.494269174615
 30
0.0
 11
2794.470589276556
 21
2702.494269174615
 31
0.0
  0
LINE
  5
18D75
330
18C7A
100
AcDbEntity
  8
部品1
 48
50.0
100
AcDbLine
 10
2769.470589276554
 20
3154.494269174618
 30
0.0
 11
2769.470589276556
 21
2702.494269174615
 31
0.0
  0
LINE
  5
18D76
330
18C7A
100
AcDbEntity
  8
部品1
 48
50.0
100
AcDbLine
 10
2795.470589276556
 20
3152.494269174607
 30
0.0
 11
2795.470589276556
 21
2702.494269174615
 31
0.0
  0
LINE
  5
18D77
330
18C7A
100
AcDbEntity
  8
部品1
 48
50.0
100
AcDbLine
 10
2767.470589276556
 20
3152.494269174611
 30
0.0
 11
2767.470589276556
 21
2702.494269174615
 31
0.0
  0
LINE
  5
18D78
330
18C7A
100
AcDbEntity
  8
破線
 48
10.0
100
AcDbLine
 10
2176.97058927653
 20
1448.994269174509
 30
0.0
 11
2176.97058927653
 21
2702.494269174588
 31
0.0
  0
LINE
  5
18D79
330
18C7A
100
AcDbEntity
  8
破線
 48
10.0
100
AcDbLine
 10
2126.970589276534
 20
1448.994269174505
 30
0.0
 11
2126.970589276531
 21
2702.494269174586
 31
0.0
  0
LINE
  5
18D7A
330
18C7A
100
AcDbEntity
  8
部品1
100
AcDbLine
 10
2794.470589276556
 20
3154.494269174622
 30
0.0
 11
3858.970589276556
 21
3154.494269174604
 31
0.0
  0
LINE
  5
18D7B
330
18C7A
100
AcDbEntity
  8
細線
 48
50.0
100
AcDbLine
 10
3858.470589276556
 20
2702.494269174608
 30
0.0
 11
2795.470589276556
 21
3152.494269174607
 31
0.0
  0
LINE
  5
18D7C
330
18C7A
100
AcDbEntity
  8
部品1
100
AcDbLine
 10
2795.470589276555
 20
2702.494269174615
 30
0.0
 11
3858.470589276556
 21
2702.494269174608
 31
0.0
  0
LINE
  5
18D7D
330
18C7A
100
AcDbEntity
  8
部品1
100
AcDbLine
 10
2795.470589276556
 20
3152.494269174611
 30
0.0
 11
3858.470589276556
 21
3152.494269174604
 31
0.0
  0
LINE
  5
18D7E
330
18C7A
100
AcDbEntity
  8
細線
 48
50.0
100
AcDbLine
 10
3858.470589276556
 20
3152.494269174604
 30
0.0
 11
2795.470589276555
 21
2702.494269174615
 31
0.0
  0
DIMENSION
  5
18D7F
330
18C7A
100
AcDbEntity
  8
寸法
100
AcDbDimension
  2
*D10
 10
3801.234916278101
 20
2488.887829538937
 30
0.0
 11
3318.360544398907
 21
2488.887829538937
 31
0.0
 12
-3742.925985830444
 22
-6453.628869860112
 32
0.0
 70
   128
 71
     5
 42
1063.000000000012
  3
INABA_S40G
100
AcDbAlignedDimension
 13
2795.470589276555
 23
2702.494269174615
 33
0.0
 14
3858.470589276567
 24
2702.494269174608
 34
0.0
100
AcDbRotatedDimension
1001
ACAD
1000
DSTYLE
1002
{
1002
}
  0
LINE
  5
18D80
330
18C7A
100
AcDbEntity
  8
破線
 48
10.0
100
AcDbLine
 10
3806.970589276556
 20
1472.494269174594
 30
0.0
 11
3009.47058927653
 21
1472.494269174523
 31
0.0
  0
DIMENSION
  5
18D81
330
18C7A
100
AcDbEntity
  8
寸法
100
AcDbDimension
  2
*D9
 10
4534.396935010941
 20
1392.494269174596
 30
0.0
 11
4534.39693501094
 21
1084.008987800356
 31
0.0
 12
-3742.925985830444
 22
-6453.628869860112
 32
0.0
 70
   128
 71
     5
 42
54.99999999999636
  3
INABA_S40G
100
AcDbAlignedDimension
 13
3886.970589276531
 23
1447.494269174593
 33
0.0
 14
3886.970589276531
 24
1392.494269174596
 34
0.0
 50
90.0
100
AcDbRotatedDimension
1001
ACAD
1000
DSTYLE
1002
{
1002
}
  0
LINE
  5
18D82
330
18C7A
100
AcDbEntity
  8
部品1
100
AcDbLine
 10
471.9705892765196
 20
3182.494269174477
 30
0.0
 11
471.9705892765232
 21
3154.494269174477
 31
0.0
  0
LINE
  5
18D83
330
18C7A
100
AcDbEntity
  8
部品1
100
AcDbLine
 10
471.9705892765559
 20
3182.494269174509
 30
0.0
 11
471.9705892765559
 21
3154.494269174509
 31
0.0
  0
LINE
  5
18D84
330
18C7A
100
AcDbEntity
  8
部品1
100
AcDbLine
 10
444.9705892765232
 20
3127.49426917448
 30
0.0
 11
416.9705892765232
 21
3127.49426917448
 31
0.0
  0
LINE
  5
18D85
330
18C7A
100
AcDbEntity
  8
部品1
100
AcDbLine
 10
444.9705892765305
 20
2707.49426917448
 30
0.0
 11
416.9705892765305
 21
2707.49426917448
 31
0.0
  0
LINE
  5
18D86
330
18C7A
100
AcDbEntity
  8
部品1
 48
50.0
100
AcDbLine
 10
445.4705892765542
 20
3152.494269174506
 30
0.0
 11
445.4705892765559
 21
2702.494269174505
 31
0.0
  0
LINE
  5
18D87
330
18C7A
100
AcDbEntity
  8
部品1
 48
50.0
100
AcDbLine
 10
473.470589276545
 20
1448.994269174573
 30
0.0
 11
444.970589276545
 21
1420.494269174574
 31
0.0
  0
LINE
  5
18D88
330
18C7A
100
AcDbEntity
  8
部品1
100
AcDbLine
 10
471.9705892765232
 20
1392.494269174465
 30
0.0
 11
416.9705892765486
 21
1392.494269174465
 31
0.0
  0
LINE
  5
18D89
330
18C7A
100
AcDbEntity
  8
部品1
100
AcDbLine
 10
444.9705892765305
 20
1447.494269174429
 30
0.0
 11
416.9705892765469
 21
1447.494269174429
 31
0.0
  0
LINE
  5
18D8A
330
18C7A
100
AcDbEntity
  8
部品1
100
AcDbLine
 10
444.9705892765305
 20
1447.494269174465
 30
0.0
 11
416.9705892765469
 21
1447.494269174465
 31
0.0
  0
LINE
  5
18D8B
330
18C7A
100
AcDbEntity
  8
部品1
100
AcDbLine
 10
444.9705892765469
 20
1447.49426917448
 30
0.0
 11
416.9705892765469
 21
1447.49426917448
 31
0.0
  0
LINE
  5
18D8C
330
18C7A
100
AcDbEntity
  8
部品1
100
AcDbLine
 10
416.9705892765469
 20
1447.494269174429
 30
0.0
 11
416.9705892765486
 21
1392.494269174433
 31
0.0
  0
LINE
  5
18D8D
330
18C7A
100
AcDbEntity
  8
部品1
100
AcDbLine
 10
416.9705892765196
 20
3182.494269174477
 30
0.0
 11
416.9705892765486
 21
1392.494269174465
 31
0.0
  0
LINE
  5
18D8E
330
18C7A
100
AcDbEntity
  8
部品1
100
AcDbLine
 10
444.9705892765305
 20
1420.494269174556
 30
0.0
 11
444.9705892765559
 21
3154.494269174509
 31
0.0
  0
LINE
  5
18D8F
330
18C7A
100
AcDbEntity
  8
部品1
100
AcDbLine
 10
473.4705892765323
 20
2702.494269174608
 30
0.0
 11
473.470589276545
 21
1448.994269174571
 31
0.0
  0
LINE
  5
18D90
330
18C7A
100
AcDbEntity
  8
破線
 48
10.0
100
AcDbLine
 10
496.9705892765305
 20
2702.494269174608
 30
0.0
 11
496.9705892765451
 21
1472.494269174476
 31
0.0
  0
DIMENSION
  5
18D91
330
18C7A
100
AcDbEntity
  8
寸法
100
AcDbDimension
  2
*D8
 10
3886.970589276531
 20
410.7433333855515
 30
0.0
 11
2168.197775309287
 21
410.7433333855515
 31
0.0
 12
-3742.925985830444
 22
-6453.628869860112
 32
0.0
 70
   128
 71
     5
 42
3469.999999999982
  3
INABA_S40G
100
AcDbAlignedDimension
 13
416.9705892765486
 23
1392.494269174433
 33
0.0
 14
3886.970589276531
 24
1392.49426917456
 34
0.0
100
AcDbRotatedDimension
1001
ACAD
1000
DSTYLE
1002
{
1070
   341
1005
0
1002
}
  0
LINE
  5
18D92
330
18C7A
100
AcDbEntity
  8
部品1
100
AcDbLine
 10
444.9705892765559
 20
3154.494269174624
 30
0.0
 11
1509.470589276487
 21
3154.494269174626
 31
0.0
  0
LINE
  5
18D93
330
18C7A
100
AcDbEntity
  8
部品1
100
AcDbLine
 10
3886.970589276531
 20
1392.494269174596
 30
0.0
 11
3411.970589276556
 21
1392.494269174582
 31
0.0
  0
LINE
  5
18D94
330
18C7A
100
AcDbEntity
  8
部品1
100
AcDbLine
 10
416.9705892765559
 20
3182.494269174509
 30
0.0
 11
3886.970589276556
 21
3182.494269174604
 31
0.0
  0
LINE
  5
18D95
330
18C7A
100
AcDbEntity
  8
部品1
100
AcDbLine
 10
445.4705892765559
 20
2702.494269174509
 30
0.0
 11
1508.470589276487
 21
2702.494269174558
 31
0.0
  0
LINE
  5
18D96
330
18C7A
100
AcDbEntity
  8
細線
 48
50.0
100
AcDbLine
 10
2767.470589276556
 20
3152.494269174611
 30
0.0
 11
1536.470589276487
 21
2702.494269174558
 31
0.0
  0
LINE
  5
18D97
330
18C7A
100
AcDbEntity
  8
部品1
100
AcDbLine
 10
445.4705892765542
 20
3152.494269174509
 30
0.0
 11
1508.470589276485
 21
3152.494269174558
 31
0.0
  0
LINE
  5
18D98
330
18C7A
100
AcDbEntity
  8
細線
 48
50.0
100
AcDbLine
 10
2767.470589276554
 20
2702.494269174615
 30
0.0
 11
1536.470589276485
 21
3152.494269174558
 31
0.0
  0
LINE
  5
18D99
330
18C7A
100
AcDbEntity
  8
破線
 48
10.0
100
AcDbLine
 10
2126.970589276534
 20
1472.494269174502
 30
0.0
 11
1344.47058927653
 21
1472.494269174473
 31
0.0
  0
LINE
  5
18D9A
330
18C7A
100
AcDbEntity
  8
部品1
100
AcDbLine
 10
3830.470589276556
 20
1448.994269174596
 30
0.0
 11
473.4705892764487
 21
1448.994269174476
 31
0.0
  0
DIMENSION
  5
18D9B
330
18C7A
100
AcDbEntity
  8
寸法
100
AcDbDimension
  2
*D7
 10
471.970589276555
 20
3698.302488799491
 30
0.0
 11
108.4853079022819
 21
3698.302488799491
 31
0.0
 12
-3742.925985830444
 22
-6453.628869860112
 32
0.0
 70
   128
 71
     5
 42
55.00000000003456
  3
INABA_S40G
100
AcDbAlignedDimension
 13
416.9705892765205
 23
3182.494269174509
 33
0.0
 14
471.970589276555
 24
3182.494269174509
 34
0.0
100
AcDbRotatedDimension
1001
ACAD
1000
DSTYLE
1002
{
1002
}
  0
DIMENSION
  5
18D9C
330
18C7A
100
AcDbEntity
  8
寸法
100
AcDbDimension
  2
*D6
 10
4534.396935010967
 20
3127.494269174607
 30
0.0
 11
4534.396935010965
 21
3490.979550548844
 31
0.0
 12
-3742.925985830444
 22
-6453.628869860112
 32
0.0
 70
   128
 71
     5
 42
54.99999999999636
  3
INABA_S40G
100
AcDbAlignedDimension
 13
3886.970589276556
 23
3182.494269174604
 33
0.0
 14
3886.970589276556
 24
3127.494269174607
 34
0.0
 50
90.0
100
AcDbRotatedDimension
1001
ACAD
1000
DSTYLE
1002
{
1002
}
  0
DIMENSION
  5
18D9D
330
18C7A
100
AcDbEntity
  8
寸法
100
AcDbDimension
  2
*D5
 10
3886.970589276556
 20
3698.302488799589
 30
0.0
 11
4195.455870650794
 21
3698.302488799589
 31
0.0
 12
-3742.925985830444
 22
-6453.628869860112
 32
0.0
 70
   128
 71
     5
 42
55.0
  3
INABA_S40G
100
AcDbAlignedDimension
 13
3831.970589276556
 23
3182.494269174604
 33
0.0
 14
3886.970589276556
 24
3182.494269174604
 34
0.0
100
AcDbRotatedDimension
1001
ACAD
1000
DSTYLE
1002
{
1002
}
  0
DIMENSION
  5
18D9E
330
18C7A
100
AcDbEntity
  8
寸法
100
AcDbDimension
  2
*D4
 10
3831.970589276556
 20
3698.302488799607
 30
0.0
 11
2151.970589276555
 21
3698.302488799607
 31
0.0
 12
-3742.925985830444
 22
-6453.628869860112
 32
0.0
 70
   128
  1
8X420=<>
 71
     5
 42
3360.000000000001
  3
INABA_S40G
100
AcDbAlignedDimension
 13
471.970589276555
 23
3182.494269174509
 33
0.0
 14
3831.970589276556
 24
3182.494269174604
 34
0.0
100
AcDbRotatedDimension
1001
ACAD
1000
DSTYLE
1002
{
1002
}
  0
DIMENSION
  5
18D9F
330
18C7A
100
AcDbEntity
  8
寸法
100
AcDbDimension
  2
*D3
 10
4899.503876750603
 20
1392.494269174596
 30
0.0
 11
4899.503876750601
 21
2287.4942691746
 31
0.0
 12
-3742.925985830444
 22
-6453.628869860112
 32
0.0
 70
   128
 71
     5
 42
1790.000000000007
  3
INABA_S40G
100
AcDbAlignedDimension
 13
3886.970589276556
 23
3182.494269174604
 33
0.0
 14
3886.970589276531
 24
1392.494269174596
 34
0.0
 50
90.0
100
AcDbRotatedDimension
1001
ACAD
1000
DSTYLE
1002
{
1002
}
  0
ENDBLK
  5
18DA1
330
18C7A
100
AcDbEntity
  8
0
 48
50.0
100
AcDbBlockEnd
  0
BLOCK
  5
1C4CB
330
1C4CA
100
AcDbEntity
  8
0
 48
50.0
100
AcDbBlockBegin
  2
_NONE
 70
     0
 10
0.0
 20
0.0
 30
0.0
  3
_NONE
  1

  0
CIRCLE
  5
1C4CC
330
1C4CA
100
AcDbEntity
  8
0
  6
ByBlock
 62
     0
 48
50.0
100
AcDbCircle
 10
0.0
 20
0.0
 30
0.0
 40
0.25
  0
ENDBLK
  5
1C4CD
330
1C4CA
100
AcDbEntity
  8
0
 48
50.0
100
AcDbBlockEnd
  0
BLOCK
  5
1FC87
330
1FC7E
100
AcDbEntity
  8
0
 48
50.0
100
AcDbBlockBegin
  2
*D19
 70
     1
 10
0.0
 20
0.0
 30
0.0
  3
*D19
  1

  0
LINE
  5
23512
330
1FC7E
100
AcDbEntity
  8
寸法
 62
     0
 48
50.0
370
    -2
100
AcDbLine
 10
9635.600000000001
 20
7814.982835086635
 30
0.0
 11
9635.600000000001
 21
8610.59165175688
 31
0.0
  0
LINE
  5
23513
330
1FC7E
100
AcDbEntity
  8
寸法
 62
     0
 48
50.0
370
    -2
100
AcDbLine
 10
8105.6
 20
7814.982835086635
 30
0.0
 11
8105.6
 21
8610.59165175688
 31
0.0
  0
LINE
  5
23514
330
1FC7E
100
AcDbEntity
  8
寸法
 62
     0
 48
50.0
370
    -2
100
AcDbLine
 10
9635.600000000001
 20
8550.59165175688
 30
0.0
 11
8105.6
 21
8550.59165175688
 31
0.0
  0
INSERT
  5
23515
330
1FC7E
100
AcDbEntity
  8
寸法
 62
     0
 48
50.0
370
    -2
100
AcDbBlockReference
  2
_DOTSMALL
 10
9635.600000000001
 20
8550.59165175688
 30
0.0
 41
100.0
 42
100.0
 43
100.0
  0
INSERT
  5
23516
330
1FC7E
100
AcDbEntity
  8
寸法
 62
     0
 48
50.0
370
    -2
100
AcDbBlockReference
  2
_DOTSMALL
 10
8105.6
 20
8550.59165175688
 30
0.0
 41
100.0
 42
100.0
 43
100.0
 50
180.0
  0
MTEXT
  5
23517
330
1FC7E
100
AcDbEntity
  8
寸法
 62
     7
 48
50.0
100
AcDbMText
 10
8870.600000000001
 20
8650.591651756881
 30
0.0
 40
120.0
 41
0.0
 71
     5
 72
     1
  1
\A1;1530
  7
STYLE1
 73
     1
 44
1.0
1001
ACAD
1000
MTEXTBEGIN
1070
    73
1070
     1
1070
    44
1040
1.0
1070
    74
1070
     0
1000
MTEXTEND
  0
POINT
  5
23518
330
1FC7E
100
AcDbEntity
  8
DEFPOINTS
 62
     0
 48
50.0
100
AcDbPoint
 10
9635.600000000001
 20
7794.982835086635
 30
0.0
  0
POINT
  5
23519
330
1FC7E
100
AcDbEntity
  8
DEFPOINTS
 62
     0
 48
50.0
100
AcDbPoint
 10
8105.6
 20
7794.982835086635
 30
0.0
  0
POINT
  5
2351A
330
1FC7E
100
AcDbEntity
  8
DEFPOINTS
 62
     0
 48
50.0
100
AcDbPoint
 10
8105.6
 20
8550.59165175688
 30
0.0
  0
ENDBLK
  5
1FC88
330
1FC7E
100
AcDbEntity
  8
0
 48
50.0
100
AcDbBlockEnd
  0
BLOCK
  5
1FC92
330
1FC89
100
AcDbEntity
  8
0
 48
50.0
100
AcDbBlockBegin
  2
*D20
 70
     1
 10
0.0
 20
0.0
 30
0.0
  3
*D20
  1

  0
LINE
  5
23509
330
1FC89
100
AcDbEntity
  8
寸法
 62
     0
 48
50.0
370
    -2
100
AcDbLine
 10
5158.6
 20
7887.982835086635
 30
0.0
 11
5158.6
 21
9086.203157145556
 31
0.0
  0
LINE
  5
2350A
330
1FC89
100
AcDbEntity
  8
寸法
 62
     0
 48
50.0
370
    -2
100
AcDbLine
 10
11288.6
 20
7887.982835086635
 30
0.0
 11
11288.6
 21
9086.203157145556
 31
0.0
  0
LINE
  5
2350B
330
1FC89
100
AcDbEntity
  8
寸法
 62
     0
 48
50.0
370
    -2
100
AcDbLine
 10
5158.6
 20
9026.203157145555
 30
0.0
 11
11288.6
 21
9026.203157145555
 31
0.0
  0
INSERT
  5
2350C
330
1FC89
100
AcDbEntity
  8
寸法
 62
     0
 48
50.0
370
    -2
100
AcDbBlockReference
  2
_DOTSMALL
 10
5158.6
 20
9026.203157145555
 30
0.0
 41
100.0
 42
100.0
 43
100.0
 50
180.0
  0
INSERT
  5
2350D
330
1FC89
100
AcDbEntity
  8
寸法
 62
     0
 48
50.0
370
    -2
100
AcDbBlockReference
  2
_DOTSMALL
 10
11288.6
 20
9026.203157145555
 30
0.0
 41
100.0
 42
100.0
 43
100.0
  0
MTEXT
  5
2350E
330
1FC89
100
AcDbEntity
  8
寸法
 62
     7
 48
50.0
100
AcDbMText
 10
8223.600000000001
 20
9132.203157145555
 30
0.0
 40
120.0
 41
0.0
 71
     5
 72
     1
  1
\A1;N(連続数)x1530+10
  7
STYLE1
 73
     1
 44
1.0
1001
ACAD
1000
MTEXTBEGIN
1070
    73
1070
     1
1070
    44
1040
1.0
1070
    74
1070
     0
1000
MTEXTEND
  0
POINT
  5
2350F
330
1FC89
100
AcDbEntity
  8
DEFPOINTS
 62
     0
 48
50.0
100
AcDbPoint
 10
5158.6
 20
7867.982835086634
 30
0.0
  0
POINT
  5
23510
330
1FC89
100
AcDbEntity
  8
DEFPOINTS
 62
     0
 48
50.0
100
AcDbPoint
 10
11288.6
 20
7867.982835086634
 30
0.0
  0
POINT
  5
23511
330
1FC89
100
AcDbEntity
  8
DEFPOINTS
 62
     0
 48
50.0
100
AcDbPoint
 10
11288.6
 20
9026.203157145555
 30
0.0
  0
ENDBLK
  5
1FC93
330
1FC89
100
AcDbEntity
  8
0
 48
50.0
100
AcDbBlockEnd
  0
BLOCK
  5
1FC9D
330
1FC94
100
AcDbEntity
  8
0
 48
50.0
100
AcDbBlockBegin
  2
*D21
 70
     1
 10
0.0
 20
0.0
 30
0.0
  3
*D21
  1

  0
LINE
  5
23500
330
1FC94
100
AcDbEntity
  8
寸法
 62
     0
 48
50.0
370
    -2
100
AcDbLine
 10
9753.600000000007
 20
8570.591651756881
 30
0.0
 11
9753.600000000007
 21
8854.249293180542
 31
0.0
  0
LINE
  5
23501
330
1FC94
100
AcDbEntity
  8
寸法
 62
     0
 48
50.0
370
    -2
100
AcDbLine
 10
8223.600000000008
 20
8570.591651756881
 30
0.0
 11
8223.600000000008
 21
8854.249293180542
 31
0.0
  0
LINE
  5
23502
330
1FC94
100
AcDbEntity
  8
寸法
 62
     0
 48
50.0
370
    -2
100
AcDbLine
 10
9753.600000000007
 20
8794.249293180543
 30
0.0
 11
8223.600000000008
 21
8794.249293180543
 31
0.0
  0
INSERT
  5
23503
330
1FC94
100
AcDbEntity
  8
寸法
 62
     0
 48
50.0
370
    -2
100
AcDbBlockReference
  2
_DOTSMALL
 10
9753.600000000007
 20
8794.249293180543
 30
0.0
 41
100.0
 42
100.0
 43
100.0
  0
INSERT
  5
23504
330
1FC94
100
AcDbEntity
  8
寸法
 62
     0
 48
50.0
370
    -2
100
AcDbBlockReference
  2
_DOTSMALL
 10
8223.600000000008
 20
8794.249293180543
 30
0.0
 41
100.0
 42
100.0
 43
100.0
 50
180.0
  0
MTEXT
  5
23505
330
1FC94
100
AcDbEntity
  8
寸法
 62
     7
 48
50.0
100
AcDbMText
 10
8988.600000000008
 20
8894.249293180543
 30
0.0
 40
120.0
 41
0.0
 71
     5
 72
     1
  1
\A1;1530
  7
STYLE1
 73
     1
 44
1.0
1001
ACAD
1000
MTEXTBEGIN
1070
    73
1070
     1
1070
    44
1040
1.0
1070
    74
1070
     0
1000
MTEXTEND
  0
POINT
  5
23506
330
1FC94
100
AcDbEntity
  8
DEFPOINTS
 62
     0
 48
50.0
100
AcDbPoint
 10
9753.600000000007
 20
8550.59165175688
 30
0.0
  0
POINT
  5
23507
330
1FC94
100
AcDbEntity
  8
DEFPOINTS
 62
     0
 48
50.0
100
AcDbPoint
 10
8223.600000000008
 20
8550.59165175688
 30
0.0
  0
POINT
  5
23508
330
1FC94
100
AcDbEntity
  8
DEFPOINTS
 62
     0
 48
50.0
100
AcDbPoint
 10
8223.600000000008
 20
8794.249293180543
 30
0.0
  0
ENDBLK
  5
1FC9E
330
1FC94
100
AcDbEntity
  8
0
 48
50.0
100
AcDbBlockEnd
  0
BLOCK
  5
1FCAA
330
1FC9F
100
AcDbEntity
  8
0
 48
50.0
100
AcDbBlockBegin
  2
*D22
 70
     1
 10
0.0
 20
0.0
 30
0.0
  3
*D22
  1

  0
LINE
  5
22B23
330
1FC9F
100
AcDbEntity
  8
寸法
 62
     0
 48
50.0
370
    -2
100
AcDbLine
 10
5211.600000000007
 20
5845.982835086637
 30
0.0
 11
4214.08735343128
 21
5845.982835086637
 31
0.0
  0
LINE
  5
22B24
330
1FC9F
100
AcDbEntity
  8
寸法
 62
     0
 48
50.0
370
    -2
100
AcDbLine
 10
5138.6
 20
5647.982835086635
 30
0.0
 11
4214.08735343128
 21
5647.982835086635
 31
0.0
  0
LINE
  5
22B25
330
1FC9F
100
AcDbEntity
  8
寸法
 62
     0
 48
50.0
370
    -2
100
AcDbLine
 10
4274.08735343128
 20
5845.982835086637
 30
0.0
 11
4274.08735343128
 21
5647.982835086635
 31
0.0
  0
LINE
  5
22B26
330
1FC9F
100
AcDbEntity
  8
寸法
 62
     0
 48
50.0
370
    -2
100
AcDbLine
 10
4274.08735343128
 20
5647.982835086635
 30
0.0
 11
4274.08735343128
 21
5176.242226414385
 31
0.0
  0
INSERT
  5
22B27
330
1FC9F
100
AcDbEntity
  8
寸法
 62
     0
 48
50.0
370
    -2
100
AcDbBlockReference
  2
_DOTSMALL
 10
4274.08735343128
 20
5845.982835086637
 30
0.0
 41
100.0
 42
100.0
 43
100.0
 50
90.0
  0
INSERT
  5
22B28
330
1FC9F
100
AcDbEntity
  8
寸法
 62
     0
 48
50.0
370
    -2
100
AcDbBlockReference
  2
_DOTSMALL
 10
4274.08735343128
 20
5647.982835086635
 30
0.0
 41
100.0
 42
100.0
 43
100.0
 50
270.0
  0
MTEXT
  5
22B29
330
1FC9F
100
AcDbEntity
  8
寸法
 62
     7
 48
50.0
100
AcDbMText
 10
4174.087353431279
 20
5312.451886244042
 30
0.0
 40
120.0
 41
0.0
 71
     5
 72
     1
  1
\A1;198
  7
STYLE1
 11
0.0000000000000001
 21
1.0
 31
0.0
 73
     1
 44
1.0
1001
ACAD
1000
MTEXTBEGIN
1070
    73
1070
     1
1070
    44
1040
1.0
1070
    74
1070
     0
1000
MTEXTEND
  0
POINT
  5
22B2A
330
1FC9F
100
AcDbEntity
  8
DEFPOINTS
 62
     0
 48
50.0
100
AcDbPoint
 10
5231.600000000008
 20
5845.982835086637
 30
0.0
  0
POINT
  5
22B2B
330
1FC9F
100
AcDbEntity
  8
DEFPOINTS
 62
     0
 48
50.0
100
AcDbPoint
 10
5158.6
 20
5647.982835086635
 30
0.0
  0
POINT
  5
22B2C
330
1FC9F
100
AcDbEntity
  8
DEFPOINTS
 62
     0
 48
50.0
100
AcDbPoint
 10
4274.08735343128
 20
5647.982835086635
 30
0.0
  0
ENDBLK
  5
1FCAB
330
1FC9F
100
AcDbEntity
  8
0
 48
50.0
100
AcDbBlockEnd
  0
BLOCK
  5
1FD04
330
1FCFB
100
AcDbEntity
  8
0
 48
50.0
100
AcDbBlockBegin
  2
*D23
 70
     1
 10
0.0
 20
0.0
 30
0.0
  3
*D23
  1

  0
LINE
  5
235DD
330
1FCFB
100
AcDbEntity
  8
寸法
 62
     0
 48
50.0
370
    -2
100
AcDbLine
 10
5138.6
 20
7867.982835086634
 30
0.0
 11
3962.144256711886
 21
7867.982835086634
 31
0.0
  0
LINE
  5
235DE
330
1FCFB
100
AcDbEntity
  8
寸法
 62
     0
 48
50.0
370
    -2
100
AcDbLine
 10
5138.6
 20
5647.982835086635
 30
0.0
 11
3962.144256711885
 21
5647.982835086635
 31
0.0
  0
LINE
  5
235DF
330
1FCFB
100
AcDbEntity
  8
寸法
 62
     0
 48
50.0
370
    -2
100
AcDbLine
 10
4022.144256711885
 20
7867.982835086634
 30
0.0
 11
4022.144256711885
 21
5647.982835086635
 31
0.0
  0
INSERT
  5
235E0
330
1FCFB
100
AcDbEntity
  8
寸法
 62
     0
 48
50.0
370
    -2
100
AcDbBlockReference
  2
_DOTSMALL
 10
4022.144256711885
 20
7867.982835086634
 30
0.0
 41
100.0
 42
100.0
 43
100.0
 50
90.0
  0
INSERT
  5
235E1
330
1FCFB
100
AcDbEntity
  8
寸法
 62
     0
 48
50.0
370
    -2
100
AcDbBlockReference
  2
_DOTSMALL
 10
4022.144256711885
 20
5647.982835086635
 30
0.0
 41
100.0
 42
100.0
 43
100.0
 50
270.0
  0
MTEXT
  5
235E2
330
1FCFB
100
AcDbEntity
  8
寸法
 62
     7
 48
50.0
100
AcDbMText
 10
3922.132445688262
 20
6757.982835086635
 30
0.0
 40
120.0
 41
0.0
 71
     5
 72
     1
  1
\A1;2220
  7
STYLE1
 11
0.0000000000000001
 21
1.0
 31
0.0
 73
     1
 44
1.0
1001
ACAD
1000
MTEXTBEGIN
1070
    73
1070
     1
1070
    44
1040
1.0
1070
    74
1070
     0
1000
MTEXTEND
  0
POINT
  5
235E3
330
1FCFB
100
AcDbEntity
  8
DEFPOINTS
 62
     0
 48
50.0
100
AcDbPoint
 10
5158.6
 20
7867.982835086634
 30
0.0
  0
POINT
  5
235E4
330
1FCFB
100
AcDbEntity
  8
DEFPOINTS
 62
     0
 48
50.0
100
AcDbPoint
 10
5158.6
 20
5647.982835086635
 30
0.0
  0
POINT
  5
235E5
330
1FCFB
100
AcDbEntity
  8
DEFPOINTS
 62
     0
 48
50.0
100
AcDbPoint
 10
4022.144256711885
 20
5647.982835086635
 30
0.0
  0
ENDBLK
  5
1FD05
330
1FCFB
100
AcDbEntity
  8
0
 48
50.0
100
AcDbBlockEnd
  0
BLOCK
  5
1FD1B
330
1FD10
100
AcDbEntity
  8
0
 48
50.0
100
AcDbBlockBegin
  2
*D24
 70
     1
 10
0.0
 20
0.0
 30
0.0
  3
*D24
  1

  0
LINE
  5
234ED
330
1FD10
100
AcDbEntity
  8
寸法
 62
     0
 48
50.0
370
    -2
100
AcDbLine
 10
5138.6
 20
7867.982835086634
 30
0.0
 11
4214.08735343128
 21
7867.982835086634
 31
0.0
  0
LINE
  5
234EE
330
1FD10
100
AcDbEntity
  8
寸法
 62
     0
 48
50.0
370
    -2
100
AcDbLine
 10
5211.6
 20
7744.982835086635
 30
0.0
 11
4214.08735343128
 21
7744.982835086635
 31
0.0
  0
LINE
  5
234EF
330
1FD10
100
AcDbEntity
  8
寸法
 62
     0
 48
50.0
370
    -2
100
AcDbLine
 10
4274.08735343128
 20
7744.982835086635
 30
0.0
 11
4274.08735343128
 21
7867.982835086634
 31
0.0
  0
LINE
  5
234F0
330
1FD10
100
AcDbEntity
  8
寸法
 62
     0
 48
50.0
370
    -2
100
AcDbLine
 10
4274.08735343128
 20
7867.982835086634
 30
0.0
 11
4274.08735343128
 21
8279.574718178672
 31
0.0
  0
INSERT
  5
234F1
330
1FD10
100
AcDbEntity
  8
寸法
 62
     0
 48
50.0
370
    -2
100
AcDbBlockReference
  2
_DOTSMALL
 10
4274.08735343128
 20
7744.982835086635
 30
0.0
 41
100.0
 42
100.0
 43
100.0
 50
270.0
  0
INSERT
  5
234F2
330
1FD10
100
AcDbEntity
  8
寸法
 62
     0
 48
50.0
370
    -2
100
AcDbBlockReference
  2
_DOTSMALL
 10
4274.08735343128
 20
7867.982835086634
 30
0.0
 41
100.0
 42
100.0
 43
100.0
 50
90.0
  0
MTEXT
  5
234F3
330
1FD10
100
AcDbEntity
  8
寸法
 62
     7
 48
50.0
100
AcDbMText
 10
4174.075542407658
 20
8141.089436804435
 30
0.0
 40
120.0
 41
0.0
 71
     5
 72
     1
  1
\A1;123
  7
STYLE1
 11
0.0000000000000001
 21
1.0
 31
0.0
 73
     1
 44
1.0
1001
ACAD
1000
MTEXTBEGIN
1070
    73
1070
     1
1070
    44
1040
1.0
1070
    74
1070
     0
1000
MTEXTEND
  0
POINT
  5
234F4
330
1FD10
100
AcDbEntity
  8
DEFPOINTS
 62
     0
 48
50.0
100
AcDbPoint
 10
5158.6
 20
7867.982835086634
 30
0.0
  0
POINT
  5
234F5
330
1FD10
100
AcDbEntity
  8
DEFPOINTS
 62
     0
 48
50.0
100
AcDbPoint
 10
5231.6
 20
7744.982835086635
 30
0.0
  0
POINT
  5
234F6
330
1FD10
100
AcDbEntity
  8
DEFPOINTS
 62
     0
 48
50.0
100
AcDbPoint
 10
4274.08735343128
 20
7744.982835086635
 30
0.0
  0
ENDBLK
  5
1FD1C
330
1FD10
100
AcDbEntity
  8
0
 48
50.0
100
AcDbBlockEnd
  0
BLOCK
  5
1FD28
330
1FD1D
100
AcDbEntity
  8
0
 48
50.0
100
AcDbBlockBegin
  2
*D25
 70
     1
 10
0.0
 20
0.0
 30
0.0
  3
*D25
  1

  0
LINE
  5
234E3
330
1FD1D
100
AcDbEntity
  8
寸法
 62
     0
 48
50.0
370
    -2
100
AcDbLine
 10
5281.6
 20
7814.982835086635
 30
0.0
 11
5281.6
 21
8610.59165175688
 31
0.0
  0
LINE
  5
234E4
330
1FD1D
100
AcDbEntity
  8
寸法
 62
     0
 48
50.0
370
    -2
100
AcDbLine
 10
5158.6
 20
7887.982835086635
 30
0.0
 11
5158.6
 21
8610.59165175688
 31
0.0
  0
LINE
  5
234E5
330
1FD1D
100
AcDbEntity
  8
寸法
 62
     0
 48
50.0
370
    -2
100
AcDbLine
 10
5281.6
 20
8550.59165175688
 30
0.0
 11
5158.6
 21
8550.59165175688
 31
0.0
  0
LINE
  5
234E6
330
1FD1D
100
AcDbEntity
  8
寸法
 62
     0
 48
50.0
370
    -2
100
AcDbLine
 10
5158.6
 20
8550.59165175688
 30
0.0
 11
4747.008116907963
 21
8550.59165175688
 31
0.0
  0
INSERT
  5
234E7
330
1FD1D
100
AcDbEntity
  8
寸法
 62
     0
 48
50.0
370
    -2
100
AcDbBlockReference
  2
_DOTSMALL
 10
5281.6
 20
8550.59165175688
 30
0.0
 41
100.0
 42
100.0
 43
100.0
  0
INSERT
  5
234E8
330
1FD1D
100
AcDbEntity
  8
寸法
 62
     0
 48
50.0
370
    -2
100
AcDbBlockReference
  2
_DOTSMALL
 10
5158.6
 20
8550.59165175688
 30
0.0
 41
100.0
 42
100.0
 43
100.0
 50
180.0
  0
MTEXT
  5
234E9
330
1FD1D
100
AcDbEntity
  8
寸法
 62
     7
 48
50.0
100
AcDbMText
 10
4885.493398282203
 20
8650.603462780502
 30
0.0
 40
120.0
 41
0.0
 71
     5
 72
     1
  1
\A1;123
  7
STYLE1
 73
     1
 44
1.0
1001
ACAD
1000
MTEXTBEGIN
1070
    73
1070
     1
1070
    44
1040
1.0
1070
    74
1070
     0
1000
MTEXTEND
  0
POINT
  5
234EA
330
1FD1D
100
AcDbEntity
  8
DEFPOINTS
 62
     0
 48
50.0
100
AcDbPoint
 10
5281.6
 20
7794.982835086635
 30
0.0
  0
POINT
  5
234EB
330
1FD1D
100
AcDbEntity
  8
DEFPOINTS
 62
     0
 48
50.0
100
AcDbPoint
 10
5158.6
 20
7867.982835086634
 30
0.0
  0
POINT
  5
234EC
330
1FD1D
100
AcDbEntity
  8
DEFPOINTS
 62
     0
 48
50.0
100
AcDbPoint
 10
5158.6
 20
8550.59165175688
 30
0.0
  0
ENDBLK
  5
1FD29
330
1FD1D
100
AcDbEntity
  8
0
 48
50.0
100
AcDbBlockEnd
  0
BLOCK
  5
1FD34
330
1FD2A
100
AcDbEntity
  8
0
 48
50.0
100
AcDbBlockBegin
  2
*D26
 70
     1
 10
0.0
 20
0.0
 30
0.0
  3
*D26
  1

  0
LINE
  5
235E6
330
1FD2A
100
AcDbEntity
  8
寸法
 62
     0
 48
50.0
370
    -2
100
AcDbLine
 10
5211.6
 20
7744.982835086635
 30
0.0
 11
4214.087353431285
 21
7744.982835086635
 31
0.0
  0
LINE
  5
235E7
330
1FD2A
100
AcDbEntity
  8
寸法
 62
     0
 48
50.0
370
    -2
100
AcDbLine
 10
5211.600000000007
 20
5845.982835086637
 30
0.0
 11
4214.087353431284
 21
5845.982835086637
 31
0.0
  0
LINE
  5
235E8
330
1FD2A
100
AcDbEntity
  8
寸法
 62
     0
 48
50.0
370
    -2
100
AcDbLine
 10
4274.087353431285
 20
7744.982835086635
 30
0.0
 11
4274.087353431283
 21
5845.982835086637
 31
0.0
  0
INSERT
  5
235E9
330
1FD2A
100
AcDbEntity
  8
寸法
 62
     0
 48
50.0
370
    -2
100
AcDbBlockReference
  2
_DOTSMALL
 10
4274.087353431285
 20
7744.982835086635
 30
0.0
 41
100.0
 42
100.0
 43
100.0
 50
90.0
  0
INSERT
  5
235EA
330
1FD2A
100
AcDbEntity
  8
寸法
 62
     0
 48
50.0
370
    -2
100
AcDbBlockReference
  2
_DOTSMALL
 10
4274.087353431283
 20
5845.982835086637
 30
0.0
 41
100.0
 42
100.0
 43
100.0
 50
270.0
  0
MTEXT
  5
235EB
330
1FD2A
100
AcDbEntity
  8
寸法
 62
     7
 48
50.0
100
AcDbMText
 10
4174.087353431283
 20
6795.482835086635
 30
0.0
 40
120.0
 41
0.0
 71
     5
 72
     1
  1
\A1;1899
  7
STYLE1
 11
0.0000000000000001
 21
1.0
 31
0.0
 73
     1
 44
1.0
1001
ACAD
1000
MTEXTBEGIN
1070
    73
1070
     1
1070
    44
1040
1.0
1070
    74
1070
     0
1000
MTEXTEND
  0
POINT
  5
235EC
330
1FD2A
100
AcDbEntity
  8
DEFPOINTS
 62
     0
 48
50.0
100
AcDbPoint
 10
5231.6
 20
7744.982835086635
 30
0.0
  0
POINT
  5
235ED
330
1FD2A
100
AcDbEntity
  8
DEFPOINTS
 62
     0
 48
50.0
100
AcDbPoint
 10
5231.600000000008
 20
5845.982835086637
 30
0.0
  0
POINT
  5
235EE
330
1FD2A
100
AcDbEntity
  8
DEFPOINTS
 62
     0
 48
50.0
100
AcDbPoint
 10
4274.087353431283
 20
5845.982835086637
 30
0.0
  0
ENDBLK
  5
1FD35
330
1FD2A
100
AcDbEntity
  8
0
 48
50.0
100
AcDbBlockEnd
  0
BLOCK
  5
1FD40
330
1FD36
100
AcDbEntity
  8
0
 48
50.0
100
AcDbBlockBegin
  2
*D27
 70
     1
 10
0.0
 20
0.0
 30
0.0
  3
*D27
  1

  0
LINE
  5
234D1
330
1FD36
100
AcDbEntity
  8
寸法
 62
     0
 48
50.0
370
    -2
100
AcDbLine
 10
6693.600000000007
 20
8570.591651756881
 30
0.0
 11
6693.600000000007
 21
8854.249293180542
 31
0.0
  0
LINE
  5
234D2
330
1FD36
100
AcDbEntity
  8
寸法
 62
     0
 48
50.0
370
    -2
100
AcDbLine
 10
5158.6
 20
7887.982835086635
 30
0.0
 11
5158.6
 21
8854.249293180542
 31
0.0
  0
LINE
  5
234D3
330
1FD36
100
AcDbEntity
  8
寸法
 62
     0
 48
50.0
370
    -2
100
AcDbLine
 10
6693.600000000007
 20
8794.249293180543
 30
0.0
 11
5158.6
 21
8794.249293180543
 31
0.0
  0
INSERT
  5
234D4
330
1FD36
100
AcDbEntity
  8
寸法
 62
     0
 48
50.0
370
    -2
100
AcDbBlockReference
  2
_DOTSMALL
 10
6693.600000000007
 20
8794.249293180543
 30
0.0
 41
100.0
 42
100.0
 43
100.0
  0
INSERT
  5
234D5
330
1FD36
100
AcDbEntity
  8
寸法
 62
     0
 48
50.0
370
    -2
100
AcDbBlockReference
  2
_DOTSMALL
 10
5158.6
 20
8794.249293180543
 30
0.0
 41
100.0
 42
100.0
 43
100.0
 50
180.0
  0
MTEXT
  5
234D6
330
1FD36
100
AcDbEntity
  8
寸法
 62
     7
 48
50.0
100
AcDbMText
 10
5926.100000000004
 20
8894.249293180543
 30
0.0
 40
120.0
 41
0.0
 71
     5
 72
     1
  1
\A1;1535
  7
STYLE1
 73
     1
 44
1.0
1001
ACAD
1000
MTEXTBEGIN
1070
    73
1070
     1
1070
    44
1040
1.0
1070
    74
1070
     0
1000
MTEXTEND
  0
POINT
  5
234D7
330
1FD36
100
AcDbEntity
  8
DEFPOINTS
 62
     0
 48
50.0
100
AcDbPoint
 10
6693.600000000007
 20
8550.59165175688
 30
0.0
  0
POINT
  5
234D8
330
1FD36
100
AcDbEntity
  8
DEFPOINTS
 62
     0
 48
50.0
100
AcDbPoint
 10
5158.6
 20
7867.982835086634
 30
0.0
  0
POINT
  5
234D9
330
1FD36
100
AcDbEntity
  8
DEFPOINTS
 62
     0
 48
50.0
100
AcDbPoint
 10
5158.6
 20
8794.249293180543
 30
0.0
  0
ENDBLK
  5
1FD41
330
1FD36
100
AcDbEntity
  8
0
 48
50.0
100
AcDbBlockEnd
  0
BLOCK
  5
1FD89
330
1FD7F
100
AcDbEntity
  8
0
 48
50.0
100
AcDbBlockBegin
  2
*D28
 70
     1
 10
0.0
 20
0.0
 30
0.0
  3
*D28
  1

  0
LINE
  5
234C8
330
1FD7F
100
AcDbEntity
  8
寸法
 62
     0
 48
50.0
370
    -2
100
AcDbLine
 10
6575.6
 20
7814.982835086635
 30
0.0
 11
6575.6
 21
8610.59165175688
 31
0.0
  0
LINE
  5
234C9
330
1FD7F
100
AcDbEntity
  8
寸法
 62
     0
 48
50.0
370
    -2
100
AcDbLine
 10
5281.6
 20
7814.982835086635
 30
0.0
 11
5281.6
 21
8610.59165175688
 31
0.0
  0
LINE
  5
234CA
330
1FD7F
100
AcDbEntity
  8
寸法
 62
     0
 48
50.0
370
    -2
100
AcDbLine
 10
6575.6
 20
8550.59165175688
 30
0.0
 11
5281.6
 21
8550.59165175688
 31
0.0
  0
INSERT
  5
234CB
330
1FD7F
100
AcDbEntity
  8
寸法
 62
     0
 48
50.0
370
    -2
100
AcDbBlockReference
  2
_DOTSMALL
 10
6575.6
 20
8550.59165175688
 30
0.0
 41
100.0
 42
100.0
 43
100.0
  0
INSERT
  5
234CC
330
1FD7F
100
AcDbEntity
  8
寸法
 62
     0
 48
50.0
370
    -2
100
AcDbBlockReference
  2
_DOTSMALL
 10
5281.6
 20
8550.59165175688
 30
0.0
 41
100.0
 42
100.0
 43
100.0
 50
180.0
  0
MTEXT
  5
234CD
330
1FD7F
100
AcDbEntity
  8
寸法
 62
     7
 48
50.0
100
AcDbMText
 10
5928.6
 20
8650.603462780502
 30
0.0
 40
120.0
 41
0.0
 71
     5
 72
     1
  1
\A1;1294
  7
STYLE1
 73
     1
 44
1.0
1001
ACAD
1000
MTEXTBEGIN
1070
    73
1070
     1
1070
    44
1040
1.0
1070
    74
1070
     0
1000
MTEXTEND
  0
POINT
  5
234CE
330
1FD7F
100
AcDbEntity
  8
DEFPOINTS
 62
     0
 48
50.0
100
AcDbPoint
 10
6575.6
 20
7794.982835086635
 30
0.0
  0
POINT
  5
234CF
330
1FD7F
100
AcDbEntity
  8
DEFPOINTS
 62
     0
 48
50.0
100
AcDbPoint
 10
5281.6
 20
7794.982835086635
 30
0.0
  0
POINT
  5
234D0
330
1FD7F
100
AcDbEntity
  8
DEFPOINTS
 62
     0
 48
50.0
100
AcDbPoint
 10
5281.6
 20
8550.59165175688
 30
0.0
  0
ENDBLK
  5
1FD8A
330
1FD7F
100
AcDbEntity
  8
0
 48
50.0
100
AcDbBlockEnd
  0
BLOCK
  5
1FDA1
330
1FD96
100
AcDbEntity
  8
0
 48
50.0
100
AcDbBlockBegin
  2
*D29
 70
     1
 10
0.0
 20
0.0
 30
0.0
  3
*D29
  1

  0
LINE
  5
22AE1
330
1FD96
100
AcDbEntity
  8
寸法
 62
     0
 48
50.0
370
    -2
100
AcDbLine
 10
9270.851516111312
 20
5927.982835086651
 30
0.0
 11
9415.649102633087
 21
5927.982835086651
 31
0.0
  0
LINE
  5
22AE2
330
1FD96
100
AcDbEntity
  8
寸法
 62
     0
 48
50.0
370
    -2
100
AcDbLine
 10
9270.851516111312
 20
5647.982835086649
 30
0.0
 11
9415.649102633087
 21
5647.982835086649
 31
0.0
  0
LINE
  5
22AE3
330
1FD96
100
AcDbEntity
  8
寸法
 62
     0
 48
50.0
370
    -2
100
AcDbLine
 10
9355.649102633087
 20
5927.982835086651
 30
0.0
 11
9355.649102633087
 21
5647.982835086649
 31
0.0
  0
LINE
  5
22AE4
330
1FD96
100
AcDbEntity
  8
寸法
 62
     0
 48
50.0
370
    -2
100
AcDbLine
 10
9355.649102633087
 20
5647.982835086649
 30
0.0
 11
9355.649102633087
 21
5211.44838626775
 31
0.0
  0
INSERT
  5
22AE5
330
1FD96
100
AcDbEntity
  8
寸法
 62
     0
 48
50.0
370
    -2
100
AcDbBlockReference
  2
_DOTSMALL
 10
9355.649102633087
 20
5927.982835086651
 30
0.0
 41
100.0
 42
100.0
 43
100.0
 50
90.0
  0
INSERT
  5
22AE6
330
1FD96
100
AcDbEntity
  8
寸法
 62
     0
 48
50.0
370
    -2
100
AcDbBlockReference
  2
_DOTSMALL
 10
9355.649102633087
 20
5647.982835086649
 30
0.0
 41
100.0
 42
100.0
 43
100.0
 50
270.0
  0
MTEXT
  5
22AE7
330
1FD96
100
AcDbEntity
  8
寸法
 62
     7
 48
50.0
100
AcDbMText
 10
9255.637291609465
 20
5361.019252409483
 30
0.0
 40
120.0
 41
0.0
 71
     5
 72
     1
  1
\A1;280
  7
STYLE1
 11
0.0000000000000001
 21
1.0
 31
0.0
 73
     1
 44
1.0
1001
ACAD
1000
MTEXTBEGIN
1070
    73
1070
     1
1070
    44
1040
1.0
1070
    74
1070
     0
1000
MTEXTEND
  0
POINT
  5
22AE8
330
1FD96
100
AcDbEntity
  8
DEFPOINTS
 62
     0
 48
50.0
100
AcDbPoint
 10
9250.851516111312
 20
5927.982835086651
 30
0.0
  0
POINT
  5
22AE9
330
1FD96
100
AcDbEntity
  8
DEFPOINTS
 62
     0
 48
50.0
100
AcDbPoint
 10
9250.851516111312
 20
5647.982835086649
 30
0.0
  0
POINT
  5
22AEA
330
1FD96
100
AcDbEntity
  8
DEFPOINTS
 62
     0
 48
50.0
100
AcDbPoint
 10
9355.649102633087
 20
5647.982835086649
 30
0.0
  0
ENDBLK
  5
1FDA2
330
1FD96
100
AcDbEntity
  8
0
 48
50.0
100
AcDbBlockEnd
  0
BLOCK
  5
1FDF3
330
1FDE9
100
AcDbEntity
  8
0
 48
50.0
100
AcDbBlockBegin
  2
*D30
 70
     1
 10
0.0
 20
0.0
 30
0.0
  3
*D30
  1

  0
LINE
  5
234BF
330
1FDE9
100
AcDbEntity
  8
寸法
 62
     0
 48
50.0
370
    -2
100
AcDbLine
 10
11288.6
 20
7887.982835086635
 30
0.0
 11
11288.6
 21
8854.249293180542
 31
0.0
  0
LINE
  5
234C0
330
1FDE9
100
AcDbEntity
  8
寸法
 62
     0
 48
50.0
370
    -2
100
AcDbLine
 10
9753.600000000007
 20
8570.591651756881
 30
0.0
 11
9753.600000000007
 21
8854.249293180542
 31
0.0
  0
LINE
  5
234C1
330
1FDE9
100
AcDbEntity
  8
寸法
 62
     0
 48
50.0
370
    -2
100
AcDbLine
 10
11288.6
 20
8794.249293180543
 30
0.0
 11
9753.600000000007
 21
8794.249293180543
 31
0.0
  0
INSERT
  5
234C2
330
1FDE9
100
AcDbEntity
  8
寸法
 62
     0
 48
50.0
370
    -2
100
AcDbBlockReference
  2
_DOTSMALL
 10
11288.6
 20
8794.249293180543
 30
0.0
 41
100.0
 42
100.0
 43
100.0
  0
INSERT
  5
234C3
330
1FDE9
100
AcDbEntity
  8
寸法
 62
     0
 48
50.0
370
    -2
100
AcDbBlockReference
  2
_DOTSMALL
 10
9753.600000000007
 20
8794.249293180543
 30
0.0
 41
100.0
 42
100.0
 43
100.0
 50
180.0
  0
MTEXT
  5
234C4
330
1FDE9
100
AcDbEntity
  8
寸法
 62
     7
 48
50.0
100
AcDbMText
 10
10506.02212135149
 20
8894.249293180543
 30
0.0
 40
120.0
 41
0.0
 71
     5
 72
     1
  1
\A1;1535
  7
STYLE1
 73
     1
 44
1.0
1001
ACAD
1000
MTEXTBEGIN
1070
    73
1070
     1
1070
    44
1040
1.0
1070
    74
1070
     0
1000
MTEXTEND
  0
POINT
  5
234C5
330
1FDE9
100
AcDbEntity
  8
DEFPOINTS
 62
     0
 48
50.0
100
AcDbPoint
 10
11288.6
 20
7867.982835086634
 30
0.0
  0
POINT
  5
234C6
330
1FDE9
100
AcDbEntity
  8
DEFPOINTS
 62
     0
 48
50.0
100
AcDbPoint
 10
9753.600000000007
 20
8550.59165175688
 30
0.0
  0
POINT
  5
234C7
330
1FDE9
100
AcDbEntity
  8
DEFPOINTS
 62
     0
 48
50.0
100
AcDbPoint
 10
9753.600000000007
 20
8794.249293180543
 30
0.0
  0
ENDBLK
  5
1FDF4
330
1FDE9
100
AcDbEntity
  8
0
 48
50.0
100
AcDbBlockEnd
  0
BLOCK
  5
1FDFE
330
1FDF5
100
AcDbEntity
  8
0
 48
50.0
100
AcDbBlockBegin
  2
*D31
 70
     1
 10
0.0
 20
0.0
 30
0.0
  3
*D31
  1

  0
LINE
  5
234B6
330
1FDF5
100
AcDbEntity
  8
寸法
 62
     0
 48
50.0
370
    -2
100
AcDbLine
 10
11165.6
 20
7814.982835086635
 30
0.0
 11
11165.6
 21
8610.59165175688
 31
0.0
  0
LINE
  5
234B7
330
1FDF5
100
AcDbEntity
  8
寸法
 62
     0
 48
50.0
370
    -2
100
AcDbLine
 10
9635.600000000001
 20
7814.982835086635
 30
0.0
 11
9635.600000000001
 21
8610.59165175688
 31
0.0
  0
LINE
  5
234B8
330
1FDF5
100
AcDbEntity
  8
寸法
 62
     0
 48
50.0
370
    -2
100
AcDbLine
 10
11165.6
 20
8550.59165175688
 30
0.0
 11
9635.600000000001
 21
8550.59165175688
 31
0.0
  0
INSERT
  5
234B9
330
1FDF5
100
AcDbEntity
  8
寸法
 62
     0
 48
50.0
370
    -2
100
AcDbBlockReference
  2
_DOTSMALL
 10
11165.6
 20
8550.59165175688
 30
0.0
 41
100.0
 42
100.0
 43
100.0
  0
INSERT
  5
234BA
330
1FDF5
100
AcDbEntity
  8
寸法
 62
     0
 48
50.0
370
    -2
100
AcDbBlockReference
  2
_DOTSMALL
 10
9635.600000000001
 20
8550.59165175688
 30
0.0
 41
100.0
 42
100.0
 43
100.0
 50
180.0
  0
MTEXT
  5
234BB
330
1FDF5
100
AcDbEntity
  8
寸法
 62
     7
 48
50.0
100
AcDbMText
 10
10400.6
 20
8650.591651756881
 30
0.0
 40
120.0
 41
0.0
 71
     5
 72
     1
  1
\A1;1530
  7
STYLE1
 73
     1
 44
1.0
1001
ACAD
1000
MTEXTBEGIN
1070
    73
1070
     1
1070
    44
1040
1.0
1070
    74
1070
     0
1000
MTEXTEND
  0
POINT
  5
234BC
330
1FDF5
100
AcDbEntity
  8
DEFPOINTS
 62
     0
 48
50.0
100
AcDbPoint
 10
11165.6
 20
7794.982835086635
 30
0.0
  0
POINT
  5
234BD
330
1FDF5
100
AcDbEntity
  8
DEFPOINTS
 62
     0
 48
50.0
100
AcDbPoint
 10
9635.600000000001
 20
7794.982835086635
 30
0.0
  0
POINT
  5
234BE
330
1FDF5
100
AcDbEntity
  8
DEFPOINTS
 62
     0
 48
50.0
100
AcDbPoint
 10
9635.600000000001
 20
8550.59165175688
 30
0.0
  0
ENDBLK
  5
1FDFF
330
1FDF5
100
AcDbEntity
  8
0
 48
50.0
100
AcDbBlockEnd
  0
BLOCK
  5
1FE22
330
1FE17
100
AcDbEntity
  8
0
 48
50.0
100
AcDbBlockBegin
  2
*D32
 70
     1
 10
0.0
 20
0.0
 30
0.0
  3
*D32
  1

  0
LINE
  5
234AC
330
1FE17
100
AcDbEntity
  8
寸法
 62
     0
 48
50.0
370
    -2
100
AcDbLine
 10
9443.779728401338
 20
7867.982835086634
 30
0.0
 11
9295.64910263309
 21
7867.982835086634
 31
0.0
  0
LINE
  5
234AD
330
1FE17
100
AcDbEntity
  8
寸法
 62
     0
 48
50.0
370
    -2
100
AcDbLine
 10
9485.600000000008
 20
7667.982835086593
 30
0.0
 11
9295.64910263309
 21
7667.982835086593
 31
0.0
  0
LINE
  5
234AE
330
1FE17
100
AcDbEntity
  8
寸法
 62
     0
 48
50.0
370
    -2
100
AcDbLine
 10
9355.649102633091
 20
7667.982835086593
 30
0.0
 11
9355.649102633091
 21
7867.982835086634
 31
0.0
  0
LINE
  5
234AF
330
1FE17
100
AcDbEntity
  8
寸法
 62
     0
 48
50.0
370
    -2
100
AcDbLine
 10
9355.649102633091
 20
7867.982835086634
 30
0.0
 11
9355.649102633091
 21
8304.517283905532
 31
0.0
  0
INSERT
  5
234B0
330
1FE17
100
AcDbEntity
  8
寸法
 62
     0
 48
50.0
370
    -2
100
AcDbBlockReference
  2
_DOTSMALL
 10
9355.649102633091
 20
7667.982835086593
 30
0.0
 41
100.0
 42
100.0
 43
100.0
 50
270.0
  0
INSERT
  5
234B1
330
1FE17
100
AcDbEntity
  8
寸法
 62
     0
 48
50.0
370
    -2
100
AcDbBlockReference
  2
_DOTSMALL
 10
9355.649102633091
 20
7867.982835086634
 30
0.0
 41
100.0
 42
100.0
 43
100.0
 50
90.0
  0
MTEXT
  5
234B2
330
1FE17
100
AcDbEntity
  8
寸法
 62
     7
 48
50.0
100
AcDbMText
 10
9255.637291609465
 20
8154.946417763801
 30
0.0
 40
120.0
 41
0.0
 71
     5
 72
     1
  1
\A1;200
  7
STYLE1
 11
0.0000000000000001
 21
1.0
 31
0.0
 73
     1
 44
1.0
1001
ACAD
1000
MTEXTBEGIN
1070
    73
1070
     1
1070
    44
1040
1.0
1070
    74
1070
     0
1000
MTEXTEND
  0
POINT
  5
234B3
330
1FE17
100
AcDbEntity
  8
DEFPOINTS
 62
     0
 48
50.0
100
AcDbPoint
 10
9463.779728401338
 20
7867.982835086634
 30
0.0
  0
POINT
  5
234B4
330
1FE17
100
AcDbEntity
  8
DEFPOINTS
 62
     0
 48
50.0
100
AcDbPoint
 10
9505.600000000008
 20
7667.982835086593
 30
0.0
  0
POINT
  5
234B5
330
1FE17
100
AcDbEntity
  8
DEFPOINTS
 62
     0
 48
50.0
100
AcDbPoint
 10
9355.649102633091
 20
7667.982835086593
 30
0.0
  0
ENDBLK
  5
1FE23
330
1FE17
100
AcDbEntity
  8
0
 48
50.0
100
AcDbBlockEnd
  0
BLOCK
  5
1FE2F
330
1FE24
100
AcDbEntity
  8
0
 48
50.0
100
AcDbBlockBegin
  2
*D33
 70
     1
 10
0.0
 20
0.0
 30
0.0
  3
*D33
  1

  0
LINE
  5
2369E
330
1FE24
100
AcDbEntity
  8
寸法
 62
     0
 48
50.0
370
    -2
100
AcDbLine
 10
11288.6
 20
7025.887179011404
 30
0.0
 11
11288.6
 21
7198.178511511023
 31
0.0
  0
LINE
  5
2369F
330
1FE24
100
AcDbEntity
  8
寸法
 62
     0
 48
50.0
370
    -2
100
AcDbLine
 10
11168.6
 20
7025.887179011404
 30
0.0
 11
11168.6
 21
7198.178511511023
 31
0.0
  0
LINE
  5
236A0
330
1FE24
100
AcDbEntity
  8
寸法
 62
     0
 48
50.0
370
    -2
100
AcDbLine
 10
11168.6
 20
7138.178511511021
 30
0.0
 11
11288.6
 21
7138.178511511021
 31
0.0
  0
LINE
  5
236A1
330
1FE24
100
AcDbEntity
  8
寸法
 62
     0
 48
50.0
370
    -2
100
AcDbLine
 10
11288.6
 20
7138.178511511021
 30
0.0
 11
11694.7062992126
 21
7138.178511511021
 31
0.0
  0
INSERT
  5
236A2
330
1FE24
100
AcDbEntity
  8
寸法
 62
     0
 48
50.0
370
    -2
100
AcDbBlockReference
  2
_DOTSMALL
 10
11168.6
 20
7138.178511511021
 30
0.0
 41
100.0
 42
100.0
 43
100.0
 50
180.0
  0
INSERT
  5
236A3
330
1FE24
100
AcDbEntity
  8
寸法
 62
     0
 48
50.0
370
    -2
100
AcDbBlockReference
  2
_DOTSMALL
 10
11288.6
 20
7138.178511511021
 30
0.0
 41
100.0
 42
100.0
 43
100.0
  0
MTEXT
  5
236A4
330
1FE24
100
AcDbEntity
  8
寸法
 62
     7
 48
50.0
100
AcDbMText
 10
11558.65905511811
 20
7238.190322534645
 30
0.0
 40
120.0
 41
0.0
 71
     5
 72
     1
  1
\A1;120
  7
STYLE1
 73
     1
 44
1.0
1001
ACAD
1000
MTEXTBEGIN
1070
    73
1070
     1
1070
    44
1040
1.0
1070
    74
1070
     0
1000
MTEXTEND
  0
POINT
  5
236A5
330
1FE24
100
AcDbEntity
  8
DEFPOINTS
 62
     0
 48
50.0
100
AcDbPoint
 10
11288.6
 20
7005.887179011404
 30
0.0
  0
POINT
  5
236A6
330
1FE24
100
AcDbEntity
  8
DEFPOINTS
 62
     0
 48
50.0
100
AcDbPoint
 10
11168.6
 20
7005.887179011404
 30
0.0
  0
POINT
  5
236A7
330
1FE24
100
AcDbEntity
  8
DEFPOINTS
 62
     0
 48
50.0
100
AcDbPoint
 10
11168.6
 20
7138.178511511021
 30
0.0
  0
ENDBLK
  5
1FE30
330
1FE24
100
AcDbEntity
  8
0
 48
50.0
100
AcDbBlockEnd
  0
BLOCK
  5
1FE3C
330
1FE31
100
AcDbEntity
  8
0
 48
50.0
100
AcDbBlockBegin
  2
*D34
 70
     1
 10
0.0
 20
0.0
 30
0.0
  3
*D34
  1

  0
LINE
  5
234A2
330
1FE31
100
AcDbEntity
  8
寸法
 62
     0
 48
50.0
370
    -2
100
AcDbLine
 10
11288.6
 20
7887.982835086635
 30
0.0
 11
11288.6
 21
8610.59165175688
 31
0.0
  0
LINE
  5
234A3
330
1FE31
100
AcDbEntity
  8
寸法
 62
     0
 48
50.0
370
    -2
100
AcDbLine
 10
11165.6
 20
7814.982835086635
 30
0.0
 11
11165.6
 21
8610.59165175688
 31
0.0
  0
LINE
  5
234A4
330
1FE31
100
AcDbEntity
  8
寸法
 62
     0
 48
50.0
370
    -2
100
AcDbLine
 10
11165.6
 20
8550.59165175688
 30
0.0
 11
11288.6
 21
8550.59165175688
 31
0.0
  0
LINE
  5
234A5
330
1FE31
100
AcDbEntity
  8
寸法
 62
     0
 48
50.0
370
    -2
100
AcDbLine
 10
11288.6
 20
8550.59165175688
 30
0.0
 11
11700.19188309203
 21
8550.59165175688
 31
0.0
  0
INSERT
  5
234A6
330
1FE31
100
AcDbEntity
  8
寸法
 62
     0
 48
50.0
370
    -2
100
AcDbBlockReference
  2
_DOTSMALL
 10
11165.6
 20
8550.59165175688
 30
0.0
 41
100.0
 42
100.0
 43
100.0
 50
180.0
  0
INSERT
  5
234A7
330
1FE31
100
AcDbEntity
  8
寸法
 62
     0
 48
50.0
370
    -2
100
AcDbBlockReference
  2
_DOTSMALL
 10
11288.6
 20
8550.59165175688
 30
0.0
 41
100.0
 42
100.0
 43
100.0
  0
MTEXT
  5
234A8
330
1FE31
100
AcDbEntity
  8
寸法
 62
     7
 48
50.0
100
AcDbMText
 10
11561.7066017178
 20
8650.603462780502
 30
0.0
 40
120.0
 41
0.0
 71
     5
 72
     1
  1
\A1;123
  7
STYLE1
 73
     1
 44
1.0
1001
ACAD
1000
MTEXTBEGIN
1070
    73
1070
     1
1070
    44
1040
1.0
1070
    74
1070
     0
1000
MTEXTEND
  0
POINT
  5
234A9
330
1FE31
100
AcDbEntity
  8
DEFPOINTS
 62
     0
 48
50.0
100
AcDbPoint
 10
11288.6
 20
7867.982835086634
 30
0.0
  0
POINT
  5
234AA
330
1FE31
100
AcDbEntity
  8
DEFPOINTS
 62
     0
 48
50.0
100
AcDbPoint
 10
11165.6
 20
7794.982835086635
 30
0.0
  0
POINT
  5
234AB
330
1FE31
100
AcDbEntity
  8
DEFPOINTS
 62
     0
 48
50.0
100
AcDbPoint
 10
11165.6
 20
8550.59165175688
 30
0.0
  0
ENDBLK
  5
1FE3D
330
1FE31
100
AcDbEntity
  8
0
 48
50.0
100
AcDbBlockEnd
  0
BLOCK
  5
20346
330
2033A
100
AcDbEntity
  8
0
 48
50.0
100
AcDbBlockBegin
  2
*D35
 70
     1
 10
0.0
 20
0.0
 30
0.0
  3
*D35
  1

  0
LINE
  5
23497
330
2033A
100
AcDbEntity
  8
寸法
 62
     0
 48
50.0
370
    -2
100
AcDbLine
 10
11288.6
 20
7887.982835086635
 30
0.0
 11
11288.6
 21
9086.203157145556
 31
0.0
  0
LINE
  5
23498
330
2033A
100
AcDbEntity
  8
寸法
 62
     0
 48
50.0
370
    -2
100
AcDbLine
 10
11333.6
 20
8570.591651756881
 30
0.0
 11
11333.6
 21
9086.203157145556
 31
0.0
  0
LINE
  5
23499
330
2033A
100
AcDbEntity
  8
寸法
 62
     0
 48
50.0
370
    -2
100
AcDbLine
 10
11288.6
 20
9026.203157145555
 30
0.0
 11
11188.6
 21
9026.203157145555
 31
0.0
  0
LINE
  5
2349A
330
2033A
100
AcDbEntity
  8
寸法
 62
     0
 48
50.0
370
    -2
100
AcDbLine
 10
11333.6
 20
9026.203157145555
 30
0.0
 11
11670.94924240492
 21
9026.203157145555
 31
0.0
  0
LINE
  5
2349B
330
2033A
100
AcDbEntity
  8
寸法
 62
     0
 48
50.0
370
    -2
100
AcDbLine
 10
11288.6
 20
9026.203157145555
 30
0.0
 11
11333.6
 21
9026.203157145555
 31
0.0
  0
INSERT
  5
2349C
330
2033A
100
AcDbEntity
  8
寸法
 62
     0
 48
50.0
370
    -2
100
AcDbBlockReference
  2
_DOTSMALL
 10
11288.6
 20
9026.203157145555
 30
0.0
 41
100.0
 42
100.0
 43
100.0
  0
INSERT
  5
2349D
330
2033A
100
AcDbEntity
  8
寸法
 62
     0
 48
50.0
370
    -2
100
AcDbBlockReference
  2
_DOTSMALL
 10
11333.6
 20
9026.203157145555
 30
0.0
 41
100.0
 42
100.0
 43
100.0
 50
180.0
  0
MTEXT
  5
2349E
330
2033A
100
AcDbEntity
  8
寸法
 62
     7
 48
50.0
100
AcDbMText
 10
11604.77462120246
 20
9126.203157145555
 30
0.0
 40
120.0
 41
0.0
 71
     5
 72
     1
  1
\A1;a
  7
STYLE1
 73
     1
 44
1.0
1001
ACAD
1000
MTEXTBEGIN
1070
    73
1070
     1
1070
    44
1040
1.0
1070
    74
1070
     0
1000
MTEXTEND
  0
POINT
  5
2349F
330
2033A
100
AcDbEntity
  8
DEFPOINTS
 62
     0
 48
50.0
100
AcDbPoint
 10
11288.6
 20
7867.982835086634
 30
0.0
  0
POINT
  5
234A0
330
2033A
100
AcDbEntity
  8
DEFPOINTS
 62
     0
 48
50.0
100
AcDbPoint
 10
11333.6
 20
8550.59165175688
 30
0.0
  0
POINT
  5
234A1
330
2033A
100
AcDbEntity
  8
DEFPOINTS
 62
     0
 48
50.0
100
AcDbPoint
 10
11333.6
 20
9026.203157145555
 30
0.0
  0
ENDBLK
  5
20347
330
2033A
100
AcDbEntity
  8
0
 48
50.0
100
AcDbBlockEnd
  0
BLOCK
  5
203D0
330
203C4
100
AcDbEntity
  8
0
 48
50.0
100
AcDbBlockBegin
  2
*D36
 70
     1
 10
0.0
 20
0.0
 30
0.0
  3
*D36
  1

  0
LINE
  5
2348C
330
203C4
100
AcDbEntity
  8
寸法
 62
     0
 48
50.0
370
    -2
100
AcDbLine
 10
4254.087353431279
 20
7942.982835086637
 30
0.0
 11
3962.144256711883
 21
7942.982835086637
 31
0.0
  0
LINE
  5
2348D
330
203C4
100
AcDbEntity
  8
寸法
 62
     0
 48
50.0
370
    -2
100
AcDbLine
 10
5138.599999999999
 20
7867.982835086635
 30
0.0
 11
3962.144256711883
 21
7867.982835086635
 31
0.0
  0
LINE
  5
2348E
330
203C4
100
AcDbEntity
  8
寸法
 62
     0
 48
50.0
370
    -2
100
AcDbLine
 10
4022.144256711882
 20
7942.982835086637
 30
0.0
 11
4022.144256711882
 21
8042.982835086638
 31
0.0
  0
LINE
  5
2348F
330
203C4
100
AcDbEntity
  8
寸法
 62
     0
 48
50.0
370
    -2
100
AcDbLine
 10
4022.144256711882
 20
7867.982835086635
 30
0.0
 11
4022.144256711882
 21
7767.982835086636
 31
0.0
  0
LINE
  5
23490
330
203C4
100
AcDbEntity
  8
寸法
 62
     0
 48
50.0
370
    -2
100
AcDbLine
 10
4022.144256711882
 20
7942.982835086637
 30
0.0
 11
4022.144256711882
 21
7867.982835086635
 31
0.0
  0
INSERT
  5
23491
330
203C4
100
AcDbEntity
  8
寸法
 62
     0
 48
50.0
370
    -2
100
AcDbBlockReference
  2
_DOTSMALL
 10
4022.144256711882
 20
7942.982835086637
 30
0.0
 41
100.0
 42
100.0
 43
100.0
 50
270.0
  0
INSERT
  5
23492
330
203C4
100
AcDbEntity
  8
寸法
 62
     0
 48
50.0
370
    -2
100
AcDbBlockReference
  2
_DOTSMALL
 10
4022.144256711882
 20
7867.982835086635
 30
0.0
 41
100.0
 42
100.0
 43
100.0
 50
90.0
  0
MTEXT
  5
23493
330
203C4
100
AcDbEntity
  8
寸法
 62
     7
 48
50.0
100
AcDbMText
 10
3922.144256711881
 20
7905.482835086637
 30
0.0
 40
120.0
 41
0.0
 71
     5
 72
     1
  1
\A1;c
  7
STYLE1
 11
0.0000000000000001
 21
1.0
 31
0.0
 73
     1
 44
1.0
1001
ACAD
1000
MTEXTBEGIN
1070
    73
1070
     1
1070
    44
1040
1.0
1070
    74
1070
     0
1000
MTEXTEND
  0
POINT
  5
23494
330
203C4
100
AcDbEntity
  8
DEFPOINTS
 62
     0
 48
50.0
100
AcDbPoint
 10
4274.087353431279
 20
7942.982835086637
 30
0.0
  0
POINT
  5
23495
330
203C4
100
AcDbEntity
  8
DEFPOINTS
 62
     0
 48
50.0
100
AcDbPoint
 10
5158.599999999998
 20
7867.982835086635
 30
0.0
  0
POINT
  5
23496
330
203C4
100
AcDbEntity
  8
DEFPOINTS
 62
     0
 48
50.0
100
AcDbPoint
 10
4022.144256711882
 20
7867.982835086635
 30
0.0
  0
ENDBLK
  5
203D1
330
203C4
100
AcDbEntity
  8
0
 48
50.0
100
AcDbBlockEnd
  0
BLOCK
  5
203EB
330
203DF
100
AcDbEntity
  8
0
 48
50.0
100
AcDbBlockBegin
  2
*D37
 70
     1
 10
0.0
 20
0.0
 30
0.0
  3
*D37
  1

  0
LINE
  5
23481
330
203DF
100
AcDbEntity
  8
寸法
 62
     0
 48
50.0
370
    -2
100
AcDbLine
 10
5113.600000000001
 20
8570.591651756881
 30
0.0
 11
5113.600000000001
 21
9086.203157145556
 31
0.0
  0
LINE
  5
23482
330
203DF
100
AcDbEntity
  8
寸法
 62
     0
 48
50.0
370
    -2
100
AcDbLine
 10
5158.599999999998
 20
7887.982835086636
 30
0.0
 11
5158.599999999998
 21
9086.203157145556
 31
0.0
  0
LINE
  5
23483
330
203DF
100
AcDbEntity
  8
寸法
 62
     0
 48
50.0
370
    -2
100
AcDbLine
 10
5158.599999999998
 20
9026.203157145555
 30
0.0
 11
5258.599999999998
 21
9026.203157145555
 31
0.0
  0
LINE
  5
23484
330
203DF
100
AcDbEntity
  8
寸法
 62
     0
 48
50.0
370
    -2
100
AcDbLine
 10
5113.600000000001
 20
9026.203157145555
 30
0.0
 11
4776.250757595083
 21
9026.203157145555
 31
0.0
  0
LINE
  5
23485
330
203DF
100
AcDbEntity
  8
寸法
 62
     0
 48
50.0
370
    -2
100
AcDbLine
 10
5158.599999999998
 20
9026.203157145555
 30
0.0
 11
5113.600000000001
 21
9026.203157145555
 31
0.0
  0
INSERT
  5
23486
330
203DF
100
AcDbEntity
  8
寸法
 62
     0
 48
50.0
370
    -2
100
AcDbBlockReference
  2
_DOTSMALL
 10
5158.599999999998
 20
9026.203157145555
 30
0.0
 41
100.0
 42
100.0
 43
100.0
 50
180.0
  0
INSERT
  5
23487
330
203DF
100
AcDbEntity
  8
寸法
 62
     0
 48
50.0
370
    -2
100
AcDbBlockReference
  2
_DOTSMALL
 10
5113.600000000001
 20
9026.203157145555
 30
0.0
 41
100.0
 42
100.0
 43
100.0
  0
MTEXT
  5
23488
330
203DF
100
AcDbEntity
  8
寸法
 62
     7
 48
50.0
100
AcDbMText
 10
4842.425378797542
 20
9126.203157145555
 30
0.0
 40
120.0
 41
0.0
 71
     5
 72
     1
  1
\A1;a
  7
STYLE1
 73
     1
 44
1.0
1001
ACAD
1000
MTEXTBEGIN
1070
    73
1070
     1
1070
    44
1040
1.0
1070
    74
1070
     0
1000
MTEXTEND
  0
POINT
  5
23489
330
203DF
100
AcDbEntity
  8
DEFPOINTS
 62
     0
 48
50.0
100
AcDbPoint
 10
5113.600000000001
 20
8550.59165175688
 30
0.0
  0
POINT
  5
2348A
330
203DF
100
AcDbEntity
  8
DEFPOINTS
 62
     0
 48
50.0
100
AcDbPoint
 10
5158.599999999998
 20
7867.982835086635
 30
0.0
  0
POINT
  5
2348B
330
203DF
100
AcDbEntity
  8
DEFPOINTS
 62
     0
 48
50.0
100
AcDbPoint
 10
5158.599999999998
 20
9026.203157145555
 30
0.0
  0
ENDBLK
  5
203EC
330
203DF
100
AcDbEntity
  8
0
 48
50.0
100
AcDbBlockEnd
  0
BLOCK
  5
20413
330
20407
100
AcDbEntity
  8
0
 48
50.0
100
AcDbBlockBegin
  2
*D38
 70
     1
 10
0.0
 20
0.0
 30
0.0
  3
*D38
  1

  0
LINE
  5
22A85
330
20407
100
AcDbEntity
  8
寸法
 62
     0
 48
50.0
370
    -2
100
AcDbLine
 10
5138.6
 20
5647.982835086635
 30
0.0
 11
3962.144256711883
 21
5647.982835086635
 31
0.0
  0
LINE
  5
22A86
330
20407
100
AcDbEntity
  8
寸法
 62
     0
 48
50.0
370
    -2
100
AcDbLine
 10
4254.087353431281
 20
5592.982835086646
 30
0.0
 11
3962.144256711883
 21
5592.982835086646
 31
0.0
  0
LINE
  5
22A87
330
20407
100
AcDbEntity
  8
寸法
 62
     0
 48
50.0
370
    -2
100
AcDbLine
 10
4022.144256711882
 20
5647.982835086635
 30
0.0
 11
4022.144256711882
 21
5747.982835086634
 31
0.0
  0
LINE
  5
22A88
330
20407
100
AcDbEntity
  8
寸法
 62
     0
 48
50.0
370
    -2
100
AcDbLine
 10
4022.144256711882
 20
5592.982835086646
 30
0.0
 11
4022.144256711882
 21
5492.982835086646
 31
0.0
  0
LINE
  5
22A89
330
20407
100
AcDbEntity
  8
寸法
 62
     0
 48
50.0
370
    -2
100
AcDbLine
 10
4022.144256711882
 20
5647.982835086635
 30
0.0
 11
4022.144256711882
 21
5592.982835086646
 31
0.0
  0
INSERT
  5
22A8A
330
20407
100
AcDbEntity
  8
寸法
 62
     0
 48
50.0
370
    -2
100
AcDbBlockReference
  2
_DOTSMALL
 10
4022.144256711882
 20
5647.982835086635
 30
0.0
 41
100.0
 42
100.0
 43
100.0
 50
270.0
  0
INSERT
  5
22A8B
330
20407
100
AcDbEntity
  8
寸法
 62
     0
 48
50.0
370
    -2
100
AcDbBlockReference
  2
_DOTSMALL
 10
4022.144256711882
 20
5592.982835086646
 30
0.0
 41
100.0
 42
100.0
 43
100.0
 50
90.0
  0
MTEXT
  5
22A8C
330
20407
100
AcDbEntity
  8
寸法
 62
     7
 48
50.0
100
AcDbMText
 10
3922.144256711882
 20
5620.482835086641
 30
0.0
 40
120.0
 41
0.0
 71
     5
 72
     1
  1
\A1;b
  7
STYLE1
 11
0.0000000000000001
 21
1.0
 31
0.0
 73
     1
 44
1.0
1001
ACAD
1000
MTEXTBEGIN
1070
    73
1070
     1
1070
    44
1040
1.0
1070
    74
1070
     0
1000
MTEXTEND
  0
POINT
  5
22A8D
330
20407
100
AcDbEntity
  8
DEFPOINTS
 62
     0
 48
50.0
100
AcDbPoint
 10
5158.6
 20
5647.982835086635
 30
0.0
  0
POINT
  5
22A8E
330
20407
100
AcDbEntity
  8
DEFPOINTS
 62
     0
 48
50.0
100
AcDbPoint
 10
4274.087353431281
 20
5592.982835086646
 30
0.0
  0
POINT
  5
22A8F
330
20407
100
AcDbEntity
  8
DEFPOINTS
 62
     0
 48
50.0
100
AcDbPoint
 10
4022.144256711882
 20
5592.982835086646
 30
0.0
  0
ENDBLK
  5
20414
330
20407
100
AcDbEntity
  8
0
 48
50.0
100
AcDbBlockEnd
  0
BLOCK
  5
2282E
330
22824
100
AcDbEntity
  8
0
 48
50.0
100
AcDbBlockBegin
  2
*D39
 70
     1
 10
0.0
 20
0.0
 30
0.0
  3
*D39
  1

  0
LINE
  5
23594
330
22824
100
AcDbEntity
  8
寸法
 62
     0
 48
50.0
370
    -2
100
AcDbLine
 10
7913.600000000001
 20
5647.98283508664
 30
0.0
 11
7782.1205154734
 21
5647.98283508664
 31
0.0
  0
LINE
  5
23595
330
22824
100
AcDbEntity
  8
寸法
 62
     0
 48
50.0
370
    -2
100
AcDbLine
 10
7578.600000000007
 20
6462.982835086633
 30
0.0
 11
7902.1205154734
 21
6462.982835086633
 31
0.0
  0
LINE
  5
23596
330
22824
100
AcDbEntity
  8
寸法
 62
     0
 48
50.0
370
    -2
100
AcDbLine
 10
7842.1205154734
 20
5647.98283508664
 30
0.0
 11
7842.120515473401
 21
6462.982835086633
 31
0.0
  0
INSERT
  5
23597
330
22824
100
AcDbEntity
  8
寸法
 62
     0
 48
50.0
370
    -2
100
AcDbBlockReference
  2
_DOTSMALL
 10
7842.1205154734
 20
5647.98283508664
 30
0.0
 41
100.0
 42
100.0
 43
100.0
 50
270.0
  0
INSERT
  5
23598
330
22824
100
AcDbEntity
  8
寸法
 62
     0
 48
50.0
370
    -2
100
AcDbBlockReference
  2
_DOTSMALL
 10
7842.120515473401
 20
6462.982835086633
 30
0.0
 41
100.0
 42
100.0
 43
100.0
 50
90.0
  0
MTEXT
  5
23599
330
22824
100
AcDbEntity
  8
寸法
 62
     7
 48
50.0
100
AcDbMText
 10
7742.120515473399
 20
6125.144085098378
 30
0.0
 40
120.0
 41
0.0
 71
     5
 72
     1
  1
\A1;815
  7
STYLE1
 11
0.0000000000000001
 21
1.0
 31
0.0
 73
     1
 44
1.0
1001
ACAD
1000
MTEXTBEGIN
1070
    73
1070
     1
1070
    44
1040
1.0
1070
    74
1070
     0
1000
MTEXTEND
  0
POINT
  5
2359A
330
22824
100
AcDbEntity
  8
DEFPOINTS
 62
     0
 48
50.0
100
AcDbPoint
 10
7933.6
 20
5647.98283508664
 30
0.0
  0
POINT
  5
2359B
330
22824
100
AcDbEntity
  8
DEFPOINTS
 62
     0
 48
50.0
100
AcDbPoint
 10
7558.600000000009
 20
6462.982835086633
 30
0.0
  0
POINT
  5
2359C
330
22824
100
AcDbEntity
  8
DEFPOINTS
 62
     0
 48
50.0
100
AcDbPoint
 10
7842.120515473401
 20
6462.982835086633
 30
0.0
  0
ENDBLK
  5
2282F
330
22824
100
AcDbEntity
  8
0
 48
50.0
100
AcDbBlockEnd
  0
BLOCK
  5
2283A
330
22830
100
AcDbEntity
  8
0
 48
50.0
100
AcDbBlockBegin
  2
*D40
 70
     1
 10
0.0
 20
0.0
 30
0.0
  3
*D40
  1

  0
LINE
  5
235C7
330
22830
100
AcDbEntity
  8
寸法
 62
     0
 48
50.0
370
    -2
100
AcDbLine
 10
7578.600000000007
 20
7127.982835086632
 30
0.0
 11
7902.1205154734
 21
7127.982835086632
 31
0.0
  0
LINE
  5
235C8
330
22830
100
AcDbEntity
  8
寸法
 62
     0
 48
50.0
370
    -2
100
AcDbLine
 10
7913.600000000001
 20
7867.982835086633
 30
0.0
 11
7782.1205154734
 21
7867.982835086633
 31
0.0
  0
LINE
  5
235C9
330
22830
100
AcDbEntity
  8
寸法
 62
     0
 48
50.0
370
    -2
100
AcDbLine
 10
7842.120515473401
 20
7127.982835086632
 30
0.0
 11
7842.120515473401
 21
7867.982835086633
 31
0.0
  0
INSERT
  5
235CA
330
22830
100
AcDbEntity
  8
寸法
 62
     0
 48
50.0
370
    -2
100
AcDbBlockReference
  2
_DOTSMALL
 10
7842.120515473401
 20
7127.982835086632
 30
0.0
 41
100.0
 42
100.0
 43
100.0
 50
270.0
  0
INSERT
  5
235CB
330
22830
100
AcDbEntity
  8
寸法
 62
     0
 48
50.0
370
    -2
100
AcDbBlockReference
  2
_DOTSMALL
 10
7842.120515473401
 20
7867.982835086633
 30
0.0
 41
100.0
 42
100.0
 43
100.0
 50
90.0
  0
MTEXT
  5
235CC
330
22830
100
AcDbEntity
  8
寸法
 62
     7
 48
50.0
100
AcDbMText
 10
7742.120515473399
 20
7436.482835086633
 30
0.0
 40
120.0
 41
0.0
 71
     5
 72
     1
  1
\A1;740
  7
STYLE1
 11
0.0000000000000001
 21
1.0
 31
0.0
 73
     1
 44
1.0
1001
ACAD
1000
MTEXTBEGIN
1070
    73
1070
     1
1070
    44
1040
1.0
1070
    74
1070
     0
1000
MTEXTEND
  0
POINT
  5
235CD
330
22830
100
AcDbEntity
  8
DEFPOINTS
 62
     0
 48
50.0
100
AcDbPoint
 10
7558.600000000009
 20
7127.982835086632
 30
0.0
  0
POINT
  5
235CE
330
22830
100
AcDbEntity
  8
DEFPOINTS
 62
     0
 48
50.0
100
AcDbPoint
 10
7933.6
 20
7867.982835086633
 30
0.0
  0
POINT
  5
235CF
330
22830
100
AcDbEntity
  8
DEFPOINTS
 62
     0
 48
50.0
100
AcDbPoint
 10
7842.120515473401
 20
7867.982835086633
 30
0.0
  0
ENDBLK
  5
2283B
330
22830
100
AcDbEntity
  8
0
 48
50.0
100
AcDbBlockEnd
  0
BLOCK
  5
2286B
330
22861
100
AcDbEntity
  8
0
 48
50.0
100
AcDbBlockBegin
  2
*D41
 70
     1
 10
0.0
 20
0.0
 30
0.0
  3
*D41
  1

  0
LINE
  5
23555
330
22861
100
AcDbEntity
  8
寸法
 62
     0
 48
50.0
370
    -2
100
AcDbLine
 10
5928.600000000008
 20
6392.982835086633
 30
0.0
 11
5928.600000000008
 21
6108.100679195828
 31
0.0
  0
LINE
  5
23556
330
22861
100
AcDbEntity
  8
寸法
 62
     0
 48
50.0
370
    -2
100
AcDbLine
 10
5158.6
 20
6316.096406872986
 30
0.0
 11
5158.6
 21
6108.100679195828
 31
0.0
  0
LINE
  5
23557
330
22861
100
AcDbEntity
  8
寸法
 62
     0
 48
50.0
370
    -2
100
AcDbLine
 10
5928.600000000008
 20
6168.100679195828
 30
0.0
 11
5158.6
 21
6168.100679195828
 31
0.0
  0
INSERT
  5
23558
330
22861
100
AcDbEntity
  8
寸法
 62
     0
 48
50.0
370
    -2
100
AcDbBlockReference
  2
_DOTSMALL
 10
5928.600000000008
 20
6168.100679195828
 30
0.0
 41
100.0
 42
100.0
 43
100.0
  0
INSERT
  5
23559
330
22861
100
AcDbEntity
  8
寸法
 62
     0
 48
50.0
370
    -2
100
AcDbBlockReference
  2
_DOTSMALL
 10
5158.6
 20
6168.100679195828
 30
0.0
 41
100.0
 42
100.0
 43
100.0
 50
180.0
  0
MTEXT
  5
2355A
330
22861
100
AcDbEntity
  8
寸法
 62
     7
 48
50.0
100
AcDbMText
 10
5543.600000000004
 20
6268.100679195828
 30
0.0
 40
120.0
 41
0.0
 71
     5
 72
     1
  1
\A1;770
  7
STYLE1
 73
     1
 44
1.0
1001
ACAD
1000
MTEXTBEGIN
1070
    73
1070
     1
1070
    44
1040
1.0
1070
    74
1070
     0
1000
MTEXTEND
  0
POINT
  5
2355B
330
22861
100
AcDbEntity
  8
DEFPOINTS
 62
     0
 48
50.0
100
AcDbPoint
 10
5928.600000000008
 20
6412.982835086634
 30
0.0
  0
POINT
  5
2355C
330
22861
100
AcDbEntity
  8
DEFPOINTS
 62
     0
 48
50.0
100
AcDbPoint
 10
5158.6
 20
6336.096406872986
 30
0.0
  0
POINT
  5
2355D
330
22861
100
AcDbEntity
  8
DEFPOINTS
 62
     0
 48
50.0
100
AcDbPoint
 10
5158.6
 20
6168.100679195828
 30
0.0
  0
ENDBLK
  5
2286C
330
22861
100
AcDbEntity
  8
0
 48
50.0
100
AcDbBlockEnd
  0
BLOCK
  5
22878
330
2286E
100
AcDbEntity
  8
0
 48
50.0
100
AcDbBlockBegin
  2
*D42
 70
     1
 10
0.0
 20
0.0
 30
0.0
  3
*D42
  1

  0
LINE
  5
2354C
330
2286E
100
AcDbEntity
  8
寸法
 62
     0
 48
50.0
370
    -2
100
AcDbLine
 10
5928.600000000008
 20
6392.982835086633
 30
0.0
 11
5928.600000000008
 21
6108.100679195828
 31
0.0
  0
LINE
  5
2354D
330
2286E
100
AcDbEntity
  8
寸法
 62
     0
 48
50.0
370
    -2
100
AcDbLine
 10
6693.600000000007
 20
6392.982835086633
 30
0.0
 11
6693.600000000007
 21
6108.100679195828
 31
0.0
  0
LINE
  5
2354E
330
2286E
100
AcDbEntity
  8
寸法
 62
     0
 48
50.0
370
    -2
100
AcDbLine
 10
5928.600000000008
 20
6168.100679195828
 30
0.0
 11
6693.600000000007
 21
6168.100679195828
 31
0.0
  0
INSERT
  5
2354F
330
2286E
100
AcDbEntity
  8
寸法
 62
     0
 48
50.0
370
    -2
100
AcDbBlockReference
  2
_DOTSMALL
 10
5928.600000000008
 20
6168.100679195828
 30
0.0
 41
100.0
 42
100.0
 43
100.0
 50
180.0
  0
INSERT
  5
23550
330
2286E
100
AcDbEntity
  8
寸法
 62
     0
 48
50.0
370
    -2
100
AcDbBlockReference
  2
_DOTSMALL
 10
6693.600000000007
 20
6168.100679195828
 30
0.0
 41
100.0
 42
100.0
 43
100.0
  0
MTEXT
  5
23551
330
2286E
100
AcDbEntity
  8
寸法
 62
     7
 48
50.0
100
AcDbMText
 10
6311.100000000007
 20
6268.100679195828
 30
0.0
 40
120.0
 41
0.0
 71
     5
 72
     1
  1
\A1;765
  7
STYLE1
 73
     1
 44
1.0
1001
ACAD
1000
MTEXTBEGIN
1070
    73
1070
     1
1070
    44
1040
1.0
1070
    74
1070
     0
1000
MTEXTEND
  0
POINT
  5
23552
330
2286E
100
AcDbEntity
  8
DEFPOINTS
 62
     0
 48
50.0
100
AcDbPoint
 10
5928.600000000008
 20
6412.982835086634
 30
0.0
  0
POINT
  5
23553
330
2286E
100
AcDbEntity
  8
DEFPOINTS
 62
     0
 48
50.0
100
AcDbPoint
 10
6693.600000000007
 20
6412.982835086634
 30
0.0
  0
POINT
  5
23554
330
2286E
100
AcDbEntity
  8
DEFPOINTS
 62
     0
 48
50.0
100
AcDbPoint
 10
6693.600000000007
 20
6168.100679195828
 30
0.0
  0
ENDBLK
  5
22879
330
2286E
100
AcDbEntity
  8
0
 48
50.0
100
AcDbBlockEnd
  0
BLOCK
  5
228B6
330
228AC
100
AcDbEntity
  8
0
 48
50.0
100
AcDbBlockBegin
  2
*D43
 70
     1
 10
0.0
 20
0.0
 30
0.0
  3
*D43
  1

  0
LINE
  5
2353A
330
228AC
100
AcDbEntity
  8
寸法
 62
     0
 48
50.0
370
    -2
100
AcDbLine
 10
11288.6
 20
6392.982835086633
 30
0.0
 11
11288.6
 21
6108.100679195828
 31
0.0
  0
LINE
  5
2353B
330
228AC
100
AcDbEntity
  8
寸法
 62
     0
 48
50.0
370
    -2
100
AcDbLine
 10
10518.59999999999
 20
6342.982835086633
 30
0.0
 11
10518.59999999999
 21
6108.100679195828
 31
0.0
  0
LINE
  5
2353C
330
228AC
100
AcDbEntity
  8
寸法
 62
     0
 48
50.0
370
    -2
100
AcDbLine
 10
11288.6
 20
6168.100679195828
 30
0.0
 11
10518.59999999999
 21
6168.100679195828
 31
0.0
  0
INSERT
  5
2353D
330
228AC
100
AcDbEntity
  8
寸法
 62
     0
 48
50.0
370
    -2
100
AcDbBlockReference
  2
_DOTSMALL
 10
11288.6
 20
6168.100679195828
 30
0.0
 41
100.0
 42
100.0
 43
100.0
  0
INSERT
  5
2353E
330
228AC
100
AcDbEntity
  8
寸法
 62
     0
 48
50.0
370
    -2
100
AcDbBlockReference
  2
_DOTSMALL
 10
10518.59999999999
 20
6168.100679195828
 30
0.0
 41
100.0
 42
100.0
 43
100.0
 50
180.0
  0
MTEXT
  5
2353F
330
228AC
100
AcDbEntity
  8
寸法
 62
     7
 48
50.0
100
AcDbMText
 10
10903.59999999999
 20
6268.100679195828
 30
0.0
 40
120.0
 41
0.0
 71
     5
 72
     1
  1
\A1;770
  7
STYLE1
 73
     1
 44
1.0
1001
ACAD
1000
MTEXTBEGIN
1070
    73
1070
     1
1070
    44
1040
1.0
1070
    74
1070
     0
1000
MTEXTEND
  0
POINT
  5
23540
330
228AC
100
AcDbEntity
  8
DEFPOINTS
 62
     0
 48
50.0
100
AcDbPoint
 10
11288.6
 20
6412.982835086634
 30
0.0
  0
POINT
  5
23541
330
228AC
100
AcDbEntity
  8
DEFPOINTS
 62
     0
 48
50.0
100
AcDbPoint
 10
10518.59999999999
 20
6362.982835086633
 30
0.0
  0
POINT
  5
23542
330
228AC
100
AcDbEntity
  8
DEFPOINTS
 62
     0
 48
50.0
100
AcDbPoint
 10
10518.59999999999
 20
6168.100679195828
 30
0.0
  0
ENDBLK
  5
228B7
330
228AC
100
AcDbEntity
  8
0
 48
50.0
100
AcDbBlockEnd
  0
BLOCK
  5
228D5
330
228CB
100
AcDbEntity
  8
0
 48
50.0
100
AcDbBlockBegin
  2
*D44
 70
     1
 10
0.0
 20
0.0
 30
0.0
  3
*D44
  1

  0
LINE
  5
23531
330
228CB
100
AcDbEntity
  8
寸法
 62
     0
 48
50.0
370
    -2
100
AcDbLine
 10
9753.600000000007
 20
6342.982835086633
 30
0.0
 11
9753.600000000007
 21
6108.100679195828
 31
0.0
  0
LINE
  5
23532
330
228CB
100
AcDbEntity
  8
寸法
 62
     0
 48
50.0
370
    -2
100
AcDbLine
 10
10518.59999999999
 20
6342.982835086633
 30
0.0
 11
10518.59999999999
 21
6108.100679195828
 31
0.0
  0
LINE
  5
23533
330
228CB
100
AcDbEntity
  8
寸法
 62
     0
 48
50.0
370
    -2
100
AcDbLine
 10
9753.600000000007
 20
6168.100679195828
 30
0.0
 11
10518.59999999999
 21
6168.100679195828
 31
0.0
  0
INSERT
  5
23534
330
228CB
100
AcDbEntity
  8
寸法
 62
     0
 48
50.0
370
    -2
100
AcDbBlockReference
  2
_DOTSMALL
 10
9753.600000000007
 20
6168.100679195828
 30
0.0
 41
100.0
 42
100.0
 43
100.0
 50
180.0
  0
INSERT
  5
23535
330
228CB
100
AcDbEntity
  8
寸法
 62
     0
 48
50.0
370
    -2
100
AcDbBlockReference
  2
_DOTSMALL
 10
10518.59999999999
 20
6168.100679195828
 30
0.0
 41
100.0
 42
100.0
 43
100.0
  0
MTEXT
  5
23536
330
228CB
100
AcDbEntity
  8
寸法
 62
     7
 48
50.0
100
AcDbMText
 10
10136.1
 20
6268.100679195828
 30
0.0
 40
120.0
 41
0.0
 71
     5
 72
     1
  1
\A1;765
  7
STYLE1
 73
     1
 44
1.0
1001
ACAD
1000
MTEXTBEGIN
1070
    73
1070
     1
1070
    44
1040
1.0
1070
    74
1070
     0
1000
MTEXTEND
  0
POINT
  5
23537
330
228CB
100
AcDbEntity
  8
DEFPOINTS
 62
     0
 48
50.0
100
AcDbPoint
 10
9753.600000000007
 20
6362.982835086633
 30
0.0
  0
POINT
  5
23538
330
228CB
100
AcDbEntity
  8
DEFPOINTS
 62
     0
 48
50.0
100
AcDbPoint
 10
10518.59999999999
 20
6362.982835086633
 30
0.0
  0
POINT
  5
23539
330
228CB
100
AcDbEntity
  8
DEFPOINTS
 62
     0
 48
50.0
100
AcDbPoint
 10
10518.59999999999
 20
6168.100679195828
 30
0.0
  0
ENDBLK
  5
228D6
330
228CB
100
AcDbEntity
  8
0
 48
50.0
100
AcDbBlockEnd
  0
BLOCK
  5
228E3
330
228D9
100
AcDbEntity
  8
0
 48
50.0
100
AcDbBlockBegin
  2
*D45
 70
     1
 10
0.0
 20
0.0
 30
0.0
  3
*D45
  1

  0
LINE
  5
23528
330
228D9
100
AcDbEntity
  8
寸法
 62
     0
 48
50.0
370
    -2
100
AcDbLine
 10
8988.600000000008
 20
6342.982835086633
 30
0.0
 11
8988.600000000008
 21
6108.100679195828
 31
0.0
  0
LINE
  5
23529
330
228D9
100
AcDbEntity
  8
寸法
 62
     0
 48
50.0
370
    -2
100
AcDbLine
 10
9753.600000000007
 20
6342.982835086633
 30
0.0
 11
9753.600000000007
 21
6108.100679195828
 31
0.0
  0
LINE
  5
2352A
330
228D9
100
AcDbEntity
  8
寸法
 62
     0
 48
50.0
370
    -2
100
AcDbLine
 10
8988.600000000008
 20
6168.100679195828
 30
0.0
 11
9753.600000000007
 21
6168.100679195828
 31
0.0
  0
INSERT
  5
2352B
330
228D9
100
AcDbEntity
  8
寸法
 62
     0
 48
50.0
370
    -2
100
AcDbBlockReference
  2
_DOTSMALL
 10
8988.600000000008
 20
6168.100679195828
 30
0.0
 41
100.0
 42
100.0
 43
100.0
 50
180.0
  0
INSERT
  5
2352C
330
228D9
100
AcDbEntity
  8
寸法
 62
     0
 48
50.0
370
    -2
100
AcDbBlockReference
  2
_DOTSMALL
 10
9753.600000000007
 20
6168.100679195828
 30
0.0
 41
100.0
 42
100.0
 43
100.0
  0
MTEXT
  5
2352D
330
228D9
100
AcDbEntity
  8
寸法
 62
     7
 48
50.0
100
AcDbMText
 10
9371.100000000009
 20
6268.100679195828
 30
0.0
 40
120.0
 41
0.0
 71
     5
 72
     1
  1
\A1;765
  7
STYLE1
 73
     1
 44
1.0
1001
ACAD
1000
MTEXTBEGIN
1070
    73
1070
     1
1070
    44
1040
1.0
1070
    74
1070
     0
1000
MTEXTEND
  0
POINT
  5
2352E
330
228D9
100
AcDbEntity
  8
DEFPOINTS
 62
     0
 48
50.0
100
AcDbPoint
 10
8988.600000000008
 20
6362.982835086633
 30
0.0
  0
POINT
  5
2352F
330
228D9
100
AcDbEntity
  8
DEFPOINTS
 62
     0
 48
50.0
100
AcDbPoint
 10
9753.600000000007
 20
6362.982835086633
 30
0.0
  0
POINT
  5
23530
330
228D9
100
AcDbEntity
  8
DEFPOINTS
 62
     0
 48
50.0
100
AcDbPoint
 10
9753.600000000007
 20
6168.100679195828
 30
0.0
  0
ENDBLK
  5
228E4
330
228D9
100
AcDbEntity
  8
0
 48
50.0
100
AcDbBlockEnd
  0
BLOCK
  5
235DB
330
235D1
100
AcDbEntity
  8
0
 48
50.0
100
AcDbBlockBegin
  2
*D46
 70
     1
 10
0.0
 20
0.0
 30
0.0
  3
*D46
  1

  0
LINE
  5
235D2
330
235D1
100
AcDbEntity
  8
寸法
 62
     0
 48
50.0
370
    -2
100
AcDbLine
 10
7578.600000000007
 20
7127.982835086632
 30
0.0
 11
7902.1205154734
 21
7127.982835086632
 31
0.0
  0
LINE
  5
235D3
330
235D1
100
AcDbEntity
  8
寸法
 62
     0
 48
50.0
370
    -2
100
AcDbLine
 10
7578.600000000007
 20
6462.982835086633
 30
0.0
 11
7902.1205154734
 21
6462.982835086633
 31
0.0
  0
LINE
  5
235D4
330
235D1
100
AcDbEntity
  8
寸法
 62
     0
 48
50.0
370
    -2
100
AcDbLine
 10
7842.120515473401
 20
7127.982835086632
 30
0.0
 11
7842.120515473401
 21
6462.982835086633
 31
0.0
  0
INSERT
  5
235D5
330
235D1
100
AcDbEntity
  8
寸法
 62
     0
 48
50.0
370
    -2
100
AcDbBlockReference
  2
_DOTSMALL
 10
7842.120515473401
 20
7127.982835086632
 30
0.0
 41
100.0
 42
100.0
 43
100.0
 50
90.0
  0
INSERT
  5
235D6
330
235D1
100
AcDbEntity
  8
寸法
 62
     0
 48
50.0
370
    -2
100
AcDbBlockReference
  2
_DOTSMALL
 10
7842.120515473401
 20
6462.982835086633
 30
0.0
 41
100.0
 42
100.0
 43
100.0
 50
270.0
  0
MTEXT
  5
235D7
330
235D1
100
AcDbEntity
  8
寸法
 62
     7
 48
50.0
100
AcDbMText
 10
7742.120515473399
 20
6795.482835086634
 30
0.0
 40
120.0
 41
0.0
 71
     5
 72
     1
  1
\A1;665
  7
STYLE1
 11
0.0000000000000001
 21
1.0
 31
0.0
 73
     1
 44
1.0
1001
ACAD
1000
MTEXTBEGIN
1070
    73
1070
     1
1070
    44
1040
1.0
1070
    74
1070
     0
1000
MTEXTEND
  0
POINT
  5
235D8
330
235D1
100
AcDbEntity
  8
DEFPOINTS
 62
     0
 48
50.0
100
AcDbPoint
 10
7558.600000000009
 20
7127.982835086632
 30
0.0
  0
POINT
  5
235D9
330
235D1
100
AcDbEntity
  8
DEFPOINTS
 62
     0
 48
50.0
100
AcDbPoint
 10
7558.600000000009
 20
6462.982835086633
 30
0.0
  0
POINT
  5
235DA
330
235D1
100
AcDbEntity
  8
DEFPOINTS
 62
     0
 48
50.0
100
AcDbPoint
 10
7842.120515473401
 20
6462.982835086633
 30
0.0
  0
ENDBLK
  5
235DC
330
235D1
100
AcDbEntity
  8
0
 48
50.0
100
AcDbBlockEnd
  0
BLOCK
  5
24025
330
2401B
100
AcDbEntity
  8
0
 48
50.0
100
AcDbBlockBegin
  2
*D59
 70
     1
 10
0.0
 20
0.0
 30
0.0
  3
*D59
  1

  0
LINE
  5
24068
330
2401B
100
AcDbEntity
  8
寸法
 62
     0
 48
50.0
370
    -2
100
AcDbLine
 10
8398.518195911027
 20
1866.639603411435
 30
0.0
 11
8940.386795679872
 21
1866.639603411435
 31
0.0
  0
LINE
  5
24069
330
2401B
100
AcDbEntity
  8
寸法
 62
     0
 48
50.0
370
    -2
100
AcDbLine
 10
8398.518195911027
 20
1542.639603411434
 30
0.0
 11
8940.386795679872
 21
1542.639603411434
 31
0.0
  0
LINE
  5
2406A
330
2401B
100
AcDbEntity
  8
寸法
 62
     0
 48
50.0
370
    -2
100
AcDbLine
 10
8880.386795679871
 20
1866.639603411435
 30
0.0
 11
8880.386795679871
 21
1542.639603411434
 31
0.0
  0
INSERT
  5
2406B
330
2401B
100
AcDbEntity
  8
寸法
 62
     0
 48
50.0
370
    -2
100
AcDbBlockReference
  2
_DOTSMALL
 10
8880.386795679871
 20
1866.639603411435
 30
0.0
 41
100.0
 42
100.0
 43
100.0
 50
90.0
  0
INSERT
  5
2406C
330
2401B
100
AcDbEntity
  8
寸法
 62
     0
 48
50.0
370
    -2
100
AcDbBlockReference
  2
_DOTSMALL
 10
8880.386795679871
 20
1542.639603411434
 30
0.0
 41
100.0
 42
100.0
 43
100.0
 50
270.0
  0
MTEXT
  5
2406D
330
2401B
100
AcDbEntity
  8
寸法
 62
     7
 48
50.0
100
AcDbMText
 10
8780.386795679872
 20
1704.639603411436
 30
0.0
 40
120.0
 41
0.0
 71
     5
 72
     1
  1
\A1;180
  7
STYLE1
 11
0.0000000000000001
 21
1.0
 31
0.0
 73
     1
 44
1.0
1001
ACAD
1000
MTEXTBEGIN
1070
    73
1070
     1
1070
    44
1040
1.0
1070
    74
1070
     0
1000
MTEXTEND
  0
POINT
  5
2406E
330
2401B
100
AcDbEntity
  8
DEFPOINTS
 62
     0
 48
50.0
100
AcDbPoint
 10
8378.518195911027
 20
1866.639603411435
 30
0.0
  0
POINT
  5
2406F
330
2401B
100
AcDbEntity
  8
DEFPOINTS
 62
     0
 48
50.0
100
AcDbPoint
 10
8378.518195911027
 20
1542.639603411434
 30
0.0
  0
POINT
  5
24070
330
2401B
100
AcDbEntity
  8
DEFPOINTS
 62
     0
 48
50.0
100
AcDbPoint
 10
8880.386795679871
 20
1542.639603411434
 30
0.0
  0
ENDBLK
  5
24026
330
2401B
100
AcDbEntity
  8
0
 48
50.0
100
AcDbBlockEnd
  0
BLOCK
  5
24036
330
24027
100
AcDbEntity
  8
0
 48
50.0
100
AcDbBlockBegin
  2
*D60
 70
     1
 10
0.0
 20
0.0
 30
0.0
  3
*D60
  1

  0
LINE
  5
24071
330
24027
100
AcDbEntity
  8
寸法
 62
     0
 48
50.0
370
    -2
100
AcDbLine
 10
8211.318195911029
 20
1919.399603411436
 30
0.0
 11
8940.386795679872
 21
1919.399603411436
 31
0.0
  0
LINE
  5
24072
330
24027
100
AcDbEntity
  8
寸法
 62
     0
 48
50.0
370
    -2
100
AcDbLine
 10
8398.518195911027
 20
1866.639603411435
 30
0.0
 11
8940.386795679872
 21
1866.639603411435
 31
0.0
  0
LINE
  5
24073
330
24027
100
AcDbEntity
  8
寸法
 62
     0
 48
50.0
370
    -2
100
AcDbLine
 10
8880.386795679871
 20
1919.399603411436
 30
0.0
 11
8880.386795679871
 21
2019.399603411436
 31
0.0
  0
LINE
  5
24074
330
24027
100
AcDbEntity
  8
寸法
 62
     0
 48
50.0
370
    -2
100
AcDbLine
 10
8880.386795679871
 20
1866.639603411435
 30
0.0
 11
8880.386795679871
 21
1766.639603411435
 31
0.0
  0
LINE
  5
24075
330
24027
100
AcDbEntity
  8
寸法
 62
     0
 48
50.0
370
    -2
100
AcDbLine
 10
8880.386795679871
 20
1893.019603411436
 30
0.0
 11
9156.441461798898
 21
1881.515645807222
 31
0.0
  0
LINE
  5
24076
330
24027
100
AcDbEntity
  8
寸法
 62
     0
 48
50.0
370
    -2
100
AcDbLine
 10
9156.441461798898
 20
1881.515645807222
 30
0.0
 11
9156.441461798898
 21
1349.497838964257
 31
0.0
  0
MTEXT
  5
24077
330
24027
100
AcDbEntity
  8
寸法
 62
     7
 48
50.0
100
AcDbMText
 10
9056.429650775276
 20
1615.506742385741
 30
0.0
 40
120.0
 41
0.0
 71
     5
 72
     1
  1
\A1;20～25
  7
STYLE1
 11
0.0000000000000001
 21
1.0
 31
0.0
 73
     1
 44
1.0
1001
ACAD
1000
MTEXTBEGIN
1070
    73
1070
     1
1070
    44
1040
1.0
1070
    74
1070
     0
1000
MTEXTEND
  0
LINE
  5
24078
330
24027
100
AcDbEntity
  8
寸法
 62
     0
 48
50.0
370
    -2
100
AcDbLine
 10
8880.386795679871
 20
1919.399603411436
 30
0.0
 11
8880.386795679871
 21
1866.639603411435
 31
0.0
  0
LINE
  5
24079
330
24027
100
AcDbEntity
  8
寸法
 62
     0
 48
50.0
370
    -2
100
AcDbLine
 10
8880.386795679871
 20
1919.399603411436
 30
0.0
 11
8880.386795679871
 21
1866.639603411435
 31
0.0
  0
INSERT
  5
2407A
330
24027
100
AcDbEntity
  8
寸法
 62
     0
 48
50.0
370
    -2
100
AcDbBlockReference
  2
_DOTSMALL
 10
8880.386795679871
 20
1919.399603411436
 30
0.0
 41
100.0
 42
100.0
 43
100.0
 50
270.0
  0
INSERT
  5
2407B
330
24027
100
AcDbEntity
  8
寸法
 62
     0
 48
50.0
370
    -2
100
AcDbBlockReference
  2
_DOTSMALL
 10
8880.386795679871
 20
1866.639603411435
 30
0.0
 41
100.0
 42
100.0
 43
100.0
 50
90.0
  0
POINT
  5
2407C
330
24027
100
AcDbEntity
  8
DEFPOINTS
 62
     0
 48
50.0
100
AcDbPoint
 10
8191.31819591103
 20
1919.399603411436
 30
0.0
  0
POINT
  5
2407D
330
24027
100
AcDbEntity
  8
DEFPOINTS
 62
     0
 48
50.0
100
AcDbPoint
 10
8378.518195911027
 20
1866.639603411435
 30
0.0
  0
POINT
  5
2407E
330
24027
100
AcDbEntity
  8
DEFPOINTS
 62
     0
 48
50.0
100
AcDbPoint
 10
8880.386795679871
 20
1866.639603411435
 30
0.0
  0
ENDBLK
  5
24037
330
24027
100
AcDbEntity
  8
0
 48
50.0
100
AcDbBlockEnd
  0
BLOCK
  5
24042
330
24038
100
AcDbEntity
  8
0
 48
50.0
100
AcDbBlockBegin
  2
*D61
 70
     1
 10
0.0
 20
0.0
 30
0.0
  3
*D61
  1

  0
LINE
  5
2407F
330
24038
100
AcDbEntity
  8
寸法
 62
     0
 48
50.0
370
    -2
100
AcDbLine
 10
6116.478882733836
 20
1322.639603411435
 30
0.0
 11
5934.058569001376
 21
1322.639603411435
 31
0.0
  0
LINE
  5
24080
330
24038
100
AcDbEntity
  8
寸法
 62
     0
 48
50.0
370
    -2
100
AcDbLine
 10
6036.478882733838
 20
1082.639603411435
 30
0.0
 11
5934.058569001376
 21
1082.639603411435
 31
0.0
  0
LINE
  5
24081
330
24038
100
AcDbEntity
  8
寸法
 62
     0
 48
50.0
370
    -2
100
AcDbLine
 10
5994.058569001376
 20
1322.639603411435
 30
0.0
 11
5994.058569001376
 21
1082.639603411435
 31
0.0
  0
MTEXT
  5
24082
330
24038
100
AcDbEntity
  8
寸法
 62
     7
 48
50.0
100
AcDbMText
 10
5894.058569001376
 20
1202.639603411435
 30
0.0
 40
120.0
 41
0.0
 71
     5
 72
     1
  1
\A1;150
  7
STYLE1
 11
0.0000000000000001
 21
1.0
 31
0.0
 73
     1
 44
1.0
1001
ACAD
1000
MTEXTBEGIN
1070
    73
1070
     1
1070
    44
1040
1.0
1070
    74
1070
     0
1000
MTEXTEND
  0
INSERT
  5
24083
330
24038
100
AcDbEntity
  8
寸法
 62
     0
 48
50.0
370
    -2
100
AcDbBlockReference
  2
_DOTSMALL
 10
5994.058569001376
 20
1322.639603411435
 30
0.0
 41
100.0
 42
100.0
 43
100.0
 50
90.0
  0
INSERT
  5
24084
330
24038
100
AcDbEntity
  8
寸法
 62
     0
 48
50.0
370
    -2
100
AcDbBlockReference
  2
_DOTSMALL
 10
5994.058569001376
 20
1082.639603411435
 30
0.0
 41
100.0
 42
100.0
 43
100.0
 50
270.0
  0
POINT
  5
24085
330
24038
100
AcDbEntity
  8
DEFPOINTS
 62
     0
 48
50.0
100
AcDbPoint
 10
6136.478882733835
 20
1322.639603411435
 30
0.0
  0
POINT
  5
24086
330
24038
100
AcDbEntity
  8
DEFPOINTS
 62
     0
 48
50.0
100
AcDbPoint
 10
6056.478882733839
 20
1082.639603411435
 30
0.0
  0
POINT
  5
24087
330
24038
100
AcDbEntity
  8
DEFPOINTS
 62
     0
 48
50.0
100
AcDbPoint
 10
5994.058569001376
 20
1082.639603411435
 30
0.0
  0
ENDBLK
  5
24043
330
24038
100
AcDbEntity
  8
0
 48
50.0
100
AcDbBlockEnd
  0
BLOCK
  5
2404E
330
24044
100
AcDbEntity
  8
0
 48
50.0
100
AcDbBlockBegin
  2
*D62
 70
     1
 10
0.0
 20
0.0
 30
0.0
  3
*D62
  1

  0
LINE
  5
24088
330
24044
100
AcDbEntity
  8
寸法
 62
     0
 48
50.0
370
    -2
100
AcDbLine
 10
6244.478882733836
 20
1866.639603411435
 30
0.0
 11
5469.441644172095
 21
1866.639603411435
 31
0.0
  0
LINE
  5
24089
330
24044
100
AcDbEntity
  8
寸法
 62
     0
 48
50.0
370
    -2
100
AcDbLine
 10
6036.478882733838
 20
1082.639603411435
 30
0.0
 11
5469.441644172095
 21
1082.639603411435
 31
0.0
  0
LINE
  5
2408A
330
24044
100
AcDbEntity
  8
寸法
 62
     0
 48
50.0
370
    -2
100
AcDbLine
 10
5529.441644172095
 20
1866.639603411435
 30
0.0
 11
5529.441644172095
 21
1082.639603411435
 31
0.0
  0
MTEXT
  5
2408B
330
24044
100
AcDbEntity
  8
寸法
 62
     7
 48
50.0
100
AcDbMText
 10
5429.441644172095
 20
1454.179753067436
 30
0.0
 40
120.0
 41
0.0
 71
     5
 72
     1
  1
\A1;540
  7
STYLE1
 11
0.0000000000000001
 21
1.0
 31
0.0
 73
     1
 44
1.0
1001
ACAD
1000
MTEXTBEGIN
1070
    73
1070
     1
1070
    44
1040
1.0
1070
    74
1070
     0
1000
MTEXTEND
  0
INSERT
  5
2408C
330
24044
100
AcDbEntity
  8
寸法
 62
     0
 48
50.0
370
    -2
100
AcDbBlockReference
  2
_DOTSMALL
 10
5529.441644172095
 20
1866.639603411435
 30
0.0
 41
100.0
 42
100.0
 43
100.0
 50
90.0
  0
INSERT
  5
2408D
330
24044
100
AcDbEntity
  8
寸法
 62
     0
 48
50.0
370
    -2
100
AcDbBlockReference
  2
_DOTSMALL
 10
5529.441644172095
 20
1082.639603411435
 30
0.0
 41
100.0
 42
100.0
 43
100.0
 50
270.0
  0
POINT
  5
2408E
330
24044
100
AcDbEntity
  8
DEFPOINTS
 62
     0
 48
50.0
100
AcDbPoint
 10
6264.478882733835
 20
1866.639603411435
 30
0.0
  0
POINT
  5
2408F
330
24044
100
AcDbEntity
  8
DEFPOINTS
 62
     0
 48
50.0
100
AcDbPoint
 10
6056.478882733839
 20
1082.639603411435
 30
0.0
  0
POINT
  5
24090
330
24044
100
AcDbEntity
  8
DEFPOINTS
 62
     0
 48
50.0
100
AcDbPoint
 10
5529.441644172095
 20
1082.639603411435
 30
0.0
  0
ENDBLK
  5
2404F
330
24044
100
AcDbEntity
  8
0
 48
50.0
100
AcDbBlockEnd
  0
BLOCK
  5
2405A
330
24050
100
AcDbEntity
  8
0
 48
50.0
100
AcDbBlockBegin
  2
*D63
 70
     1
 10
0.0
 20
0.0
 30
0.0
  3
*D63
  1

  0
LINE
  5
24091
330
24050
100
AcDbEntity
  8
寸法
 62
     0
 48
50.0
370
    -2
100
AcDbLine
 10
6136.478882733835
 20
934.6396034114354
 30
0.0
 11
6136.478882733835
 21
484.2099654062754
 31
0.0
  0
LINE
  5
24092
330
24050
100
AcDbEntity
  8
寸法
 62
     0
 48
50.0
370
    -2
100
AcDbLine
 10
6584.478882733835
 20
934.6396034114354
 30
0.0
 11
6584.478882733835
 21
484.2099654062754
 31
0.0
  0
LINE
  5
24093
330
24050
100
AcDbEntity
  8
寸法
 62
     0
 48
50.0
370
    -2
100
AcDbLine
 10
6136.478882733835
 20
544.2099654062753
 30
0.0
 11
6584.478882733835
 21
544.2099654062753
 31
0.0
  0
MTEXT
  5
24094
330
24050
100
AcDbEntity
  8
寸法
 62
     7
 48
50.0
100
AcDbMText
 10
6340.382124055611
 20
644.2099654062753
 30
0.0
 40
120.0
 41
0.0
 71
     5
 72
     1
  1
\A1;300
  7
STYLE1
 73
     1
 44
1.0
1001
ACAD
1000
MTEXTBEGIN
1070
    73
1070
     1
1070
    44
1040
1.0
1070
    74
1070
     0
1000
MTEXTEND
  0
INSERT
  5
24095
330
24050
100
AcDbEntity
  8
寸法
 62
     0
 48
50.0
370
    -2
100
AcDbBlockReference
  2
_DOTSMALL
 10
6136.478882733835
 20
544.2099654062753
 30
0.0
 41
100.0
 42
100.0
 43
100.0
 50
180.0
  0
INSERT
  5
24096
330
24050
100
AcDbEntity
  8
寸法
 62
     0
 48
50.0
370
    -2
100
AcDbBlockReference
  2
_DOTSMALL
 10
6584.478882733835
 20
544.2099654062753
 30
0.0
 41
100.0
 42
100.0
 43
100.0
  0
POINT
  5
24097
330
24050
100
AcDbEntity
  8
DEFPOINTS
 62
     0
 48
50.0
100
AcDbPoint
 10
6136.478882733835
 20
954.6396034114355
 30
0.0
  0
POINT
  5
24098
330
24050
100
AcDbEntity
  8
DEFPOINTS
 62
     0
 48
50.0
100
AcDbPoint
 10
6584.478882733835
 20
954.6396034114355
 30
0.0
  0
POINT
  5
24099
330
24050
100
AcDbEntity
  8
DEFPOINTS
 62
     0
 48
50.0
100
AcDbPoint
 10
6584.478882733835
 20
544.2099654062753
 30
0.0
  0
ENDBLK
  5
2405B
330
24050
100
AcDbEntity
  8
0
 48
50.0
100
AcDbBlockEnd
  0
BLOCK
  5
24066
330
2405C
100
AcDbEntity
  8
0
 48
50.0
100
AcDbBlockBegin
  2
*D64
 70
     1
 10
0.0
 20
0.0
 30
0.0
  3
*D64
  1

  0
LINE
  5
2409A
330
2405C
100
AcDbEntity
  8
寸法
 62
     0
 48
50.0
370
    -2
100
AcDbLine
 10
6456.478882733835
 20
1886.639603411435
 30
0.0
 11
6456.478882733835
 21
2246.639603411435
 31
0.0
  0
LINE
  5
2409B
330
2405C
100
AcDbEntity
  8
寸法
 62
     0
 48
50.0
370
    -2
100
AcDbLine
 10
6264.478882733835
 20
1886.639603411435
 30
0.0
 11
6264.478882733835
 21
2246.639603411435
 31
0.0
  0
LINE
  5
2409C
330
2405C
100
AcDbEntity
  8
寸法
 62
     0
 48
50.0
370
    -2
100
AcDbLine
 10
6456.478882733835
 20
2186.639603411435
 30
0.0
 11
6264.478882733835
 21
2186.639603411435
 31
0.0
  0
MTEXT
  5
2409D
330
2405C
100
AcDbEntity
  8
寸法
 62
     7
 48
50.0
100
AcDbMText
 10
6371.705213079033
 20
2586.342844398682
 30
0.0
 40
120.0
 41
0.0
 71
     5
 72
     1
  1
\A1;120\P200\P280
  7
STYLE1
 73
     1
 44
1.0
1001
ACAD
1000
MTEXTBEGIN
1070
    73
1070
     1
1070
    44
1040
1.0
1070
    74
1070
     0
1000
MTEXTEND
  0
INSERT
  5
2409E
330
2405C
100
AcDbEntity
  8
寸法
 62
     0
 48
50.0
370
    -2
100
AcDbBlockReference
  2
_DOTSMALL
 10
6456.478882733835
 20
2186.639603411435
 30
0.0
 41
100.0
 42
100.0
 43
100.0
  0
INSERT
  5
2409F
330
2405C
100
AcDbEntity
  8
寸法
 62
     0
 48
50.0
370
    -2
100
AcDbBlockReference
  2
_DOTSMALL
 10
6264.478882733835
 20
2186.639603411435
 30
0.0
 41
100.0
 42
100.0
 43
100.0
 50
180.0
  0
POINT
  5
240A0
330
2405C
100
AcDbEntity
  8
DEFPOINTS
 62
     0
 48
50.0
100
AcDbPoint
 10
6456.478882733835
 20
1866.639603411435
 30
0.0
  0
POINT
  5
240A1
330
2405C
100
AcDbEntity
  8
DEFPOINTS
 62
     0
 48
50.0
100
AcDbPoint
 10
6264.478882733835
 20
1866.639603411435
 30
0.0
  0
POINT
  5
240A2
330
2405C
100
AcDbEntity
  8
DEFPOINTS
 62
     0
 48
50.0
100
AcDbPoint
 10
6264.478882733835
 20
2186.639603411435
 30
0.0
  0
ENDBLK
  5
24067
330
2405C
100
AcDbEntity
  8
0
 48
50.0
100
AcDbBlockEnd
  0
ENDSEC
  0
SECTION
  2
ENTITIES
  0
MTEXT
  5
763F
330
747D
100
AcDbEntity
  8
0
100
AcDbMText
 10
302.846345836809
 20
280.1983726409901
 30
0.0
 40
3.5
 41
5.323721266742722
 71
     1
 72
     5
  1

  7
MSMINCHO
 73
     1
 44
1.0
1001
ACAD
1000
MTEXTBEGIN
1070
    73
1070
     1
1070
    44
1040
1.0
1070
    74
1070
     0
1000
MTEXTEND
  0
LINE
  5
10B57
330
747D
100
AcDbEntity
  8
補助
  6
PHANTOM
 62
   230
 48
50.0
100
AcDbLine
 10
139.9999999999995
 20
11409.6
 30
0.0
 11
16307.2
 21
11409.6
 31
0.0
  0
LINE
  5
10B59
330
747D
100
AcDbEntity
  8
仕様書枠
  6
Continuous
 48
50.0
100
AcDbLine
 10
13107.2
 20
1200.0
 30
0.0
 11
13107.2
 21
-0.0000000000000729
 31
0.0
  0
LINE
  5
10B5D
330
747D
100
AcDbEntity
  8
仕様書枠
 48
50.0
100
AcDbLine
 10
140.0
 20
0.0
 30
0.0
 11
16307.2
 21
-0.0000000000000909
 31
0.0
  0
LINE
  5
10B5E
330
747D
100
AcDbEntity
  8
補助
  6
PHANTOM
 62
   230
 48
50.0
100
AcDbLine
 10
16307.2
 20
11409.6
 30
0.0
 11
16307.2
 21
1200.0
 31
0.0
  0
LINE
  5
10B6C
330
747D
100
AcDbEntity
  8
仕様書枠
 48
50.0
100
AcDbLine
 10
13107.2
 20
1200.0
 30
0.0
 11
16307.2
 21
1200.0
 31
0.0
  0
TEXT
  5
10B73
330
747D
100
AcDbEntity
  8
文字
 62
     7
 48
50.0
100
AcDbText
 10
13162.9790565769
 20
895.0906074299405
 30
0.0
 40
200.0
  1
基 礎 図
  7
STYLE2
100
AcDbText
  0
LINE
  5
10B7B
330
747D
100
AcDbEntity
  8
仕様書枠
 48
50.0
100
AcDbLine
 10
13107.2
 20
800.0
 30
0.0
 11
14251.2
 21
800.0
 31
0.0
  0
LINE
  5
10B88
330
747D
100
AcDbEntity
  8
仕様書枠
  6
Continuous
 48
50.0
100
AcDbLine
 10
14251.2
 20
1200.0
 30
0.0
 11
14251.2
 21
800.0
 31
0.0
  0
LINE
  5
16462
330
747D
100
AcDbEntity
  8
仕様書枠
 48
50.0
100
AcDbLine
 10
16307.2
 20
1200.0
 30
0.0
 11
16307.2
 21
-0.0000000000000909
 31
0.0
  0
LINE
  5
1903B
330
747D
100
AcDbEntity
  8
補助
  6
PHANTOM
 62
   230
 48
50.0
100
AcDbLine
 10
140.0
 20
0.0
 30
0.0
 11
139.9999999999995
 21
11409.6
 31
0.0
  0
TEXT
  5
1C7A1
330
747D
100
AcDbEntity
  8
文字
 62
     7
 48
50.0
100
AcDbText
 10
13188.16259899338
 20
79.80631269190417
 30
0.0
 40
80.0
  1
※布基礎には換気口を設けてください。
  7
STYLE2
100
AcDbText
  0
TEXT
  5
1C7E7
330
747D
100
AcDbEntity
  8
文字
 62
     7
 48
50.0
100
AcDbText
 10
13188.16259899338
 20
246.7109242801889
 30
0.0
 40
80.0
  1
※寒冷地等は地域の実情に合わせた基礎にして下さい。
  7
STYLE2
100
AcDbText
  0
TEXT
  5
1C7E8
330
747D
100
AcDbEntity
  8
文字
 62
     7
 48
50.0
100
AcDbText
 10
14478.98566430227
 20
499.5983841039506
 30
0.0
 40
160.0
  1
ＮＸＮ－３３ＣＳＬ
  7
STYLE2
100
AcDbText
  0
TEXT
  5
1C7E9
330
747D
100
AcDbEntity
  8
文字
 62
     7
 48
50.0
100
AcDbText
 10
14641.2525855784
 20
871.1744590657927
 30
0.0
 40
100.0
  1
～一般型・多雪地型～
  7
STYLE2
100
AcDbText
  0
TEXT
  5
1C7EC
330
747D
100
AcDbEntity
  8
文字
 62
     7
 48
50.0
100
AcDbText
 10
14524.131837222
 20
1031.557706291229
 30
0.0
 40
100.0
  1
     <縮尺> S=1/40
  7
STYLE2
100
AcDbText
  0
TEXT
  5
1C7ED
330
747D
100
AcDbEntity
  8
文字
 62
     7
 48
50.0
100
AcDbText
 10
13201.43669998441
 20
477.2740661031257
 30
0.0
 40
160.0
  1
機種名
  7
STYLE2
100
AcDbText
  0
LINE
  5
1C7EF
330
747D
100
AcDbEntity
  8
文字
 62
     7
 48
50.0
100
AcDbLine
 10
13187.2
 20
400.0
 30
0.0
 11
16227.2
 21
400.0
 31
0.0
  0
DIMENSION
  5
1FA1F
330
747D
100
AcDbEntity
  8
寸法
 48
50.0
100
AcDbDimension
  2
*D19
 10
8105.6
 20
8550.59165175688
 30
0.0
 11
8870.600000000001
 21
8650.591651756881
 31
0.0
 70
    32
 71
     5
 42
1530.0
  3
INABA_S40G
100
AcDbAlignedDimension
 13
9635.600000000001
 23
7794.982835086635
 33
0.0
 14
8105.6
 24
7794.982835086635
 34
0.0
100
AcDbRotatedDimension
1001
ACAD
1000
DSTYLE
1002
{
1070
   341
1005
0
1002
}
  0
LINE
  5
1FA20
330
747D
100
AcDbEntity
  8
部品1
 48
50.0
100
AcDbLine
 10
11168.6
 20
7667.982835086636
 30
0.0
 11
5278.600000000001
 21
7667.982835086487
 31
0.0
  0
DIMENSION
  5
1FA21
330
747D
100
AcDbEntity
  8
寸法
 48
50.0
100
AcDbDimension
  2
*D20
 10
11288.6
 20
9026.203157145555
 30
0.0
 11
8223.600000000001
 21
9132.203157145555
 31
0.0
 70
    32
  1
N(連続数)x1530+10
 71
     5
 42
6130.0
  3
INABA_S40G
100
AcDbAlignedDimension
 13
5158.6
 23
7867.982835086634
 33
0.0
 14
11288.6
 24
7867.982835086634
 34
0.0
100
AcDbRotatedDimension
1001
ACAD
1000
DSTYLE
1002
{
1070
   341
1005
0
1002
}
  0
LINE
  5
1FA22
330
747D
100
AcDbEntity
  8
部品1
 48
50.0
100
AcDbLine
 10
11288.6
 20
7867.982835086634
 30
0.0
 11
5158.599999999999
 21
7867.982835086633
 31
0.0
  0
LINE
  5
1FA23
330
747D
100
AcDbEntity
  8
部品1
 48
50.0
100
AcDbLine
 10
11168.6
 20
5927.982835086653
 30
0.0
 11
5278.600000000001
 21
5927.982835086641
 31
0.0
  0
LINE
  5
1FA25
330
747D
100
AcDbEntity
  8
部品1
 48
50.0
100
AcDbLine
 10
11288.6
 20
5647.982835086652
 30
0.0
 11
5158.6
 21
5647.982835086635
 31
0.0
  0
DIMENSION
  5
1FA26
330
747D
100
AcDbEntity
  8
寸法
 48
50.0
100
AcDbDimension
  2
*D21
 10
8223.600000000008
 20
8794.249293180543
 30
0.0
 11
8988.600000000008
 21
8894.249293180543
 31
0.0
 70
    32
 71
     5
 42
1530.0
  3
INABA_S40G
100
AcDbAlignedDimension
 13
9753.600000000007
 23
8550.59165175688
 33
0.0
 14
8223.600000000008
 24
8550.59165175688
 34
0.0
100
AcDbRotatedDimension
1001
ACAD
1000
DSTYLE
1002
{
1070
   341
1005
0
1002
}
  0
DIMENSION
  5
1FA2F
330
747D
100
AcDbEntity
  8
寸法
 48
50.0
100
AcDbDimension
  2
*D22
 10
4274.08735343128
 20
5647.982835086635
 30
0.0
 11
4274.087353431279
 21
5312.451886244042
 31
0.0
 70
   160
 71
     5
 42
198.0000000000018
  3
INABA_S40G
100
AcDbAlignedDimension
 13
5231.600000000008
 23
5845.982835086637
 33
0.0
 14
5158.6
 24
5647.982835086635
 34
0.0
 50
90.0
100
AcDbRotatedDimension
1001
ACAD
1000
DSTYLE
1002
{
1070
   341
1005
0
1002
}
  0
DIMENSION
  5
1FB0C
330
747D
100
AcDbEntity
  8
寸法
 48
50.0
100
AcDbDimension
  2
*D23
 10
4022.144256711885
 20
5647.982835086635
 30
0.0
 11
4022.144256711884
 21
6757.982835086635
 31
0.0
 70
   160
 71
     5
 42
2220.0
  3
INABA_S40G
100
AcDbAlignedDimension
 13
5158.6
 23
7867.982835086634
 33
0.0
 14
5158.6
 24
5647.982835086635
 34
0.0
 50
90.0
100
AcDbRotatedDimension
1001
ACAD
1000
DSTYLE
1002
{
1070
   341
1005
0
1002
}
  0
DIMENSION
  5
1FB0E
330
747D
100
AcDbEntity
  8
寸法
 48
50.0
100
AcDbDimension
  2
*D24
 10
4274.08735343128
 20
7744.982835086635
 30
0.0
 11
4274.087353431279
 21
8141.089436804435
 31
0.0
 70
   160
 71
     5
 42
123.0
  3
INABA_S40G
100
AcDbAlignedDimension
 13
5158.6
 23
7867.982835086634
 33
0.0
 14
5231.6
 24
7744.982835086635
 34
0.0
 50
90.0
100
AcDbRotatedDimension
1001
ACAD
1000
DSTYLE
1002
{
1070
   341
1005
0
1002
}
  0
DIMENSION
  5
1FB0F
330
747D
100
AcDbEntity
  8
寸法
 48
50.0
100
AcDbDimension
  2
*D25
 10
5158.6
 20
8550.59165175688
 30
0.0
 11
4885.493398282203
 21
8550.59165175688
 31
0.0
 70
   160
 71
     5
 42
123.0
  3
INABA_S40G
100
AcDbAlignedDimension
 13
5281.6
 23
7794.982835086635
 33
0.0
 14
5158.6
 24
7867.982835086634
 34
0.0
100
AcDbRotatedDimension
1001
ACAD
1000
DSTYLE
1002
{
1070
   341
1005
0
1002
}
  0
DIMENSION
  5
1FB10
330
747D
100
AcDbEntity
  8
寸法
 48
50.0
100
AcDbDimension
  2
*D26
 10
4274.087353431283
 20
5845.982835086637
 30
0.0
 11
4274.087353431283
 21
6795.482835086635
 31
0.0
 70
   160
 71
     5
 42
1898.999999999998
  3
INABA_S40G
100
AcDbAlignedDimension
 13
5231.6
 23
7744.982835086635
 33
0.0
 14
5231.600000000008
 24
5845.982835086637
 34
0.0
 50
90.0
100
AcDbRotatedDimension
1001
ACAD
1000
DSTYLE
1002
{
1070
   341
1005
0
1002
}
  0
DIMENSION
  5
1FB11
330
747D
100
AcDbEntity
  8
寸法
 48
50.0
100
AcDbDimension
  2
*D27
 10
5158.6
 20
8794.249293180543
 30
0.0
 11
5926.100000000004
 21
8894.249293180543
 31
0.0
 70
    32
 71
     5
 42
1535.000000000007
  3
INABA_S40G
100
AcDbAlignedDimension
 13
6693.600000000007
 23
8550.59165175688
 33
0.0
 14
5158.6
 24
7867.982835086634
 34
0.0
100
AcDbRotatedDimension
1001
ACAD
1000
DSTYLE
1002
{
1070
   341
1005
0
1002
}
  0
LINE
  5
1FB14
330
747D
100
AcDbEntity
  8
寸法
 48
50.0
100
AcDbLine
 10
6575.6
 20
8550.59165175688
 30
0.0
 11
7110.151108115731
 21
8550.59165175688
 31
0.0
  0
LINE
  5
1FB23
102
{ACAD_REACTORS
330
2367A
102
}
330
747D
100
AcDbEntity
  8
部品1
 48
50.0
100
AcDbLine
 10
5158.6
 20
5647.982835086635
 30
0.0
 11
5158.6
 21
7867.982835086634
 31
0.0
  0
DIMENSION
  5
1FB37
330
747D
100
AcDbEntity
  8
寸法
 48
50.0
100
AcDbDimension
  2
*D28
 10
5281.6
 20
8550.59165175688
 30
0.0
 11
5928.6
 21
8650.603462780502
 31
0.0
 70
    32
 71
     5
 42
1294.0
  3
INABA_S40G
100
AcDbAlignedDimension
 13
6575.6
 23
7794.982835086635
 33
0.0
 14
5281.6
 24
7794.982835086635
 34
0.0
100
AcDbRotatedDimension
1001
ACAD
1000
DSTYLE
1002
{
1070
   341
1005
0
1002
}
  0
LINE
  5
1FB5A
330
747D
100
AcDbEntity
  8
センター
 48
2.0
100
AcDbLine
 10
8055.600000000008
 20
5845.982835086637
 30
0.0
 11
8155.600000000008
 21
5845.982835086637
 31
0.0
  0
CIRCLE
  5
1FB5B
330
747D
100
AcDbEntity
  8
部品1
 48
50.0
100
AcDbCircle
 10
8105.600000000007
 20
5845.982835086637
 30
0.0
 40
35.0
  0
LINE
  5
1FB5C
330
747D
100
AcDbEntity
  8
センター
 48
2.0
100
AcDbLine
 10
8105.600000000007
 20
5895.982835086637
 30
0.0
 11
8105.600000000007
 21
5795.982835086636
 31
0.0
  0
LINE
  5
1FB67
330
747D
100
AcDbEntity
  8
寸法
 48
50.0
100
AcDbLine
 10
8105.6
 20
8550.59165175688
 30
0.0
 11
7456.100075043579
 21
8550.59165175688
 31
0.0
  0
LINE
  5
1FB6C
330
747D
100
AcDbEntity
  8
寸法
 48
50.0
100
AcDbLine
 10
6693.600000000007
 20
8794.249293180543
 30
0.0
 11
7228.151108115739
 21
8794.249293180543
 31
0.0
  0
CIRCLE
  5
1FB6D
330
747D
100
AcDbEntity
  8
部品1
 48
50.0
100
AcDbCircle
 10
8105.6
 20
7744.982835086635
 30
0.0
 40
35.0
  0
LINE
  5
1FB6E
330
747D
100
AcDbEntity
  8
センター
 48
2.0
100
AcDbLine
 10
8105.6
 20
7794.982835086635
 30
0.0
 11
8105.6
 21
7694.982835086635
 31
0.0
  0
LINE
  5
1FB6F
330
747D
100
AcDbEntity
  8
センター
 48
2.0
100
AcDbLine
 10
8055.600000000001
 20
7744.982835086635
 30
0.0
 11
8155.600000000001
 21
7744.982835086635
 31
0.0
  0
LINE
  5
1FB71
330
747D
100
AcDbEntity
  8
寸法
 48
50.0
100
AcDbLine
 10
8223.600000000008
 20
8794.249293180543
 30
0.0
 11
7574.100075043587
 21
8794.249293180543
 31
0.0
  0
DIMENSION
  5
1FB76
330
747D
100
AcDbEntity
  8
寸法
 48
50.0
100
AcDbDimension
  2
*D29
 10
9355.649102633087
 20
5647.982835086649
 30
0.0
 11
9355.649102633085
 21
5361.019252409483
 31
0.0
 70
   160
 71
     5
 42
280.0000000000018
  3
INABA_S40G
100
AcDbAlignedDimension
 13
9250.851516111312
 23
5927.982835086651
 33
0.0
 14
9250.851516111312
 24
5647.982835086649
 34
0.0
 50
90.0
100
AcDbRotatedDimension
1001
ACAD
1000
DSTYLE
1002
{
1070
   341
1005
0
1002
}
  0
DIMENSION
  5
1FC2E
330
747D
100
AcDbEntity
  8
寸法
 48
50.0
100
AcDbDimension
  2
*D30
 10
9753.600000000007
 20
8794.249293180543
 30
0.0
 11
10506.02212135149
 21
8794.249293180543
 31
0.0
 70
   160
 71
     5
 42
1534.999999999993
  3
INABA_S40G
100
AcDbAlignedDimension
 13
11288.6
 23
7867.982835086634
 33
0.0
 14
9753.600000000007
 24
8550.59165175688
 34
0.0
100
AcDbRotatedDimension
1001
ACAD
1000
DSTYLE
1002
{
1070
   341
1005
0
1002
}
  0
DIMENSION
  5
1FC2F
330
747D
100
AcDbEntity
  8
寸法
 48
50.0
100
AcDbDimension
  2
*D31
 10
9635.600000000001
 20
8550.59165175688
 30
0.0
 11
10400.6
 21
8650.591651756881
 31
0.0
 70
    32
 71
     5
 42
1530.0
  3
INABA_S40G
100
AcDbAlignedDimension
 13
11165.6
 23
7794.982835086635
 33
0.0
 14
9635.600000000001
 24
7794.982835086635
 34
0.0
100
AcDbRotatedDimension
1001
ACAD
1000
DSTYLE
1002
{
1070
   341
1005
0
1002
}
  0
CIRCLE
  5
1FC41
330
747D
100
AcDbEntity
  8
部品1
 48
50.0
100
AcDbCircle
 10
9635.600000000009
 20
5845.982835086637
 30
0.0
 40
35.0
  0
LINE
  5
1FC42
330
747D
100
AcDbEntity
  8
センター
 48
2.0
100
AcDbLine
 10
9585.600000000008
 20
5845.982835086637
 30
0.0
 11
9685.600000000007
 21
5845.982835086637
 31
0.0
  0
LINE
  5
1FC43
330
747D
100
AcDbEntity
  8
センター
 48
2.0
100
AcDbLine
 10
9635.600000000009
 20
5895.982835086637
 30
0.0
 11
9635.600000000009
 21
5795.982835086636
 31
0.0
  0
DIMENSION
  5
1FC4A
330
747D
100
AcDbEntity
  8
寸法
 48
50.0
100
AcDbDimension
  2
*D32
 10
9355.649102633091
 20
7667.982835086593
 30
0.0
 11
9355.649102633087
 21
8154.946417763801
 31
0.0
 70
   160
 71
     5
 42
200.0000000000418
  3
INABA_S40G
100
AcDbAlignedDimension
 13
9463.779728401338
 23
7867.982835086634
 33
0.0
 14
9505.600000000008
 24
7667.982835086593
 34
0.0
 50
90.0
100
AcDbRotatedDimension
1001
ACAD
1000
DSTYLE
1002
{
1070
   341
1005
0
1002
}
  0
LINE
  5
1FC56
330
747D
100
AcDbEntity
  8
センター
 48
2.0
100
AcDbLine
 10
9635.600000000001
 20
7794.982835086635
 30
0.0
 11
9635.600000000001
 21
7694.982835086635
 31
0.0
  0
CIRCLE
  5
1FC57
330
747D
100
AcDbEntity
  8
部品1
 48
50.0
100
AcDbCircle
 10
9635.600000000001
 20
7744.982835086635
 30
0.0
 40
35.0
  0
LINE
  5
1FC58
330
747D
100
AcDbEntity
  8
センター
 48
2.0
100
AcDbLine
 10
9585.600000000001
 20
7744.982835086635
 30
0.0
 11
9685.6
 21
7744.982835086635
 31
0.0
  0
DIMENSION
  5
1FC59
330
747D
100
AcDbEntity
  8
寸法
 48
50.0
100
AcDbDimension
  2
*D33
 10
11168.6
 20
7138.178511511021
 30
0.0
 11
11558.65905511811
 21
7138.178511511021
 31
0.0
 70
   160
 71
     5
 42
120.0
  3
INABA_S40G
100
AcDbAlignedDimension
 13
11288.6
 23
7005.887179011404
 33
0.0
 14
11168.6
 24
7005.887179011404
 34
0.0
100
AcDbRotatedDimension
1001
ACAD
1000
DSTYLE
1002
{
1070
   341
1005
0
1002
}
  0
LINE
  5
1FC5B
102
{ACAD_REACTORS
330
2369D
102
}
330
747D
100
AcDbEntity
  8
部品1
 48
50.0
100
AcDbLine
 10
11288.6
 20
5647.982835086652
 30
0.0
 11
11288.6
 21
7867.982835086634
 31
0.0
  0
LINE
  5
1FC5C
102
{ACAD_REACTORS
330
2369D
102
}
330
747D
100
AcDbEntity
  8
部品1
 48
50.0
100
AcDbLine
 10
11288.6
 20
6857.982835086635
 30
0.0
 11
11168.6
 21
6857.982835086635
 31
0.0
  0
LINE
  5
1FC5D
102
{ACAD_REACTORS
330
2369D
102
}
330
747D
100
AcDbEntity
  8
部品1
 48
50.0
100
AcDbLine
 10
11288.6
 20
6657.982835086635
 30
0.0
 11
11168.6
 21
6657.982835086635
 31
0.0
  0
LINE
  5
1FC6C
330
747D
100
AcDbEntity
  8
センター
 48
2.0
100
AcDbLine
 10
11115.6
 20
5845.982835086637
 30
0.0
 11
11215.60000000001
 21
5845.982835086637
 31
0.0
  0
CIRCLE
  5
1FC6D
330
747D
100
AcDbEntity
  8
部品1
 48
50.0
100
AcDbCircle
 10
11165.60000000001
 20
5845.982835086637
 30
0.0
 40
35.0
  0
LINE
  5
1FC6E
330
747D
100
AcDbEntity
  8
センター
 48
2.0
100
AcDbLine
 10
11165.60000000001
 20
5895.982835086637
 30
0.0
 11
11165.60000000001
 21
5795.982835086636
 31
0.0
  0
DIMENSION
  5
1FC6F
330
747D
100
AcDbEntity
  8
寸法
 48
50.0
100
AcDbDimension
  2
*D34
 10
11165.6
 20
8550.59165175688
 30
0.0
 11
11561.7066017178
 21
8550.59165175688
 31
0.0
 70
   160
 71
     5
 42
123.0
  3
INABA_S40G
100
AcDbAlignedDimension
 13
11288.6
 23
7867.982835086634
 33
0.0
 14
11165.6
 24
7794.982835086635
 34
0.0
100
AcDbRotatedDimension
1001
ACAD
1000
DSTYLE
1002
{
1070
   341
1005
0
1002
}
  0
LINE
  5
1FC7B
330
747D
100
AcDbEntity
  8
センター
 48
2.0
100
AcDbLine
 10
11165.6
 20
7794.982835086635
 30
0.0
 11
11165.6
 21
7694.982835086635
 31
0.0
  0
CIRCLE
  5
1FC7C
330
747D
100
AcDbEntity
  8
部品1
 48
50.0
100
AcDbCircle
 10
11165.6
 20
7744.982835086635
 30
0.0
 40
35.0
  0
LINE
  5
1FC7D
330
747D
100
AcDbEntity
  8
センター
 48
2.0
100
AcDbLine
 10
11115.6
 20
7744.982835086635
 30
0.0
 11
11215.6
 21
7744.982835086635
 31
0.0
  0
LEADER
  5
202BB
330
747D
100
AcDbEntity
  8
寸法
 48
50.0
100
AcDbLeader
  3
INABA_S50G
 73
     0
 74
     0
 75
     1
 40
120.0
 41
994.3492424049171
 76
     3
 10
11165.68008575699
 20
7744.996558282849
 30
0.0
 10
11359.64450095955
 20
8274.243188397955
 30
0.0
 10
11484.64450095955
 20
8274.243188397955
 30
0.0
340
202BC
1001
ACAD
1000
DSTYLE
1002
{
1070
   341
1005
0
1070
    40
1040
1.0
1070
   343
1005
0
1070
   344
1005
0
1002
}
  0
MTEXT
  5
202BC
102
{ACAD_REACTORS
330
202BB
102
}
330
747D
100
AcDbEntity
  8
部品1
 62
     7
 48
50.0
100
AcDbMText
 10
12503.99374336447
 20
8359.243188397956
 30
0.0
 40
120.0
 41
0.0
 71
     6
 72
     1
  1
アンカーボルト
  7
STYLE1
 73
     1
 44
1.0
1001
ACAD
1000
MTEXTBEGIN
1070
    73
1070
     1
1070
    44
1040
1.0
1070
    74
1070
     0
1000
MTEXTEND
  0
LINE
  5
202BD
330
747D
100
AcDbEntity
  8
想像線
 48
10.0
100
AcDbLine
 10
11333.6
 20
7942.982835086635
 30
0.0
 11
7356.058182852265
 21
7942.982835086637
 31
0.0
  0
LINE
  5
202BE
330
747D
100
AcDbEntity
  8
想像線
 48
10.0
100
AcDbLine
 10
11333.6
 20
5592.982835086656
 30
0.0
 11
6941.68977818737
 21
5592.982835086648
 31
0.0
  0
LINE
  5
202BF
330
747D
100
AcDbEntity
  8
想像線
 48
10.0
100
AcDbLine
 10
5113.6
 20
5592.982835086646
 30
0.0
 11
5113.600000000002
 21
7942.982835086637
 31
0.0
  0
LINE
  5
202C0
330
747D
100
AcDbEntity
  8
想像線
 48
10.0
100
AcDbLine
 10
11333.6
 20
5592.982835086656
 30
0.0
 11
11333.6
 21
7942.982835086635
 31
0.0
  0
DIMENSION
  5
202C8
330
747D
100
AcDbEntity
  8
寸法
 48
50.0
100
AcDbDimension
  2
*D35
 10
11333.6
 20
9026.203157145555
 30
0.0
 11
11604.77462120246
 21
9026.203157145555
 31
0.0
 70
   160
  1
a
 71
     5
 42
45.0
  3
INABA_S40G
100
AcDbAlignedDimension
 13
11288.6
 23
7867.982835086634
 33
0.0
 14
11333.6
 24
8550.59165175688
 34
0.0
100
AcDbRotatedDimension
1001
ACAD
1000
DSTYLE
1002
{
1070
   341
1005
0
1002
}
  0
TEXT
  5
202EB
330
747D
100
AcDbEntity
  8
寸法
 48
50.0
100
AcDbText
 10
8418.310648592354
 20
5679.643022445546
 30
0.0
 40
96.0
  1
扉面
  7
STYLE1
100
AcDbText
  0
LEADER
  5
202FA
330
747D
100
AcDbEntity
  8
寸法
 48
50.0
100
AcDbLeader
  3
INABA_S50G
 73
     0
 74
     0
 75
     1
 40
120.0
 41
672.0
 76
     3
 10
10523.59417057771
 20
5592.158801660281
 30
0.0
 10
10639.53418276975
 20
5333.269458196705
 30
0.0
 10
10764.53418276975
 20
5333.269458196705
 30
0.0
340
202FB
1001
ACAD
1000
DSTYLE
1002
{
1070
   341
1005
0
1070
    40
1040
1.0
1070
   343
1005
0
1070
   344
1005
0
1002
}
  0
MTEXT
  5
202FB
102
{ACAD_REACTORS
330
202FA
102
}
330
747D
100
AcDbEntity
  8
部品1
 62
     7
 48
50.0
100
AcDbMText
 10
11461.53418276975
 20
5418.269458196705
 30
0.0
 40
120.0
 41
0.0
 71
     6
 72
     1
  1
\A1;屋根の外寸
  7
STYLE1
 73
     1
 44
1.0
1001
ACAD
1000
MTEXTBEGIN
1070
    73
1070
     1
1070
    44
1040
1.0
1070
    74
1070
     0
1000
MTEXTEND
  0
TEXT
  5
202FC
330
747D
100
AcDbEntity
  8
部品1
 48
50.0
100
AcDbText
 10
10663.74698678115
 20
5238.95877126363
 30
0.0
 40
80.0
  1
※a,b,cは屋根の出幅です。
  7
STYLE1
100
AcDbText
  0
TEXT
  5
202FD
330
747D
100
AcDbEntity
  8
部品1
 48
50.0
100
AcDbText
 10
10822.32599553545
 20
5132.113550394876
 30
0.0
 40
80.0
  1
(a=45,b=55,c=75)
  7
STYLE1
100
AcDbText
  0
MTEXT
  5
202FE
102
{ACAD_REACTORS
330
202FF
102
}
330
747D
100
AcDbEntity
  8
部品1
 62
     7
 48
50.0
100
AcDbMText
 10
12315.46907400127
 20
6576.957537391942
 30
0.0
 40
120.0
 41
0.0
 71
     6
 72
     1
  1
\A1;床下換気口
  7
STYLE1
 73
     1
 44
1.0
1001
ACAD
1000
MTEXTBEGIN
1070
    73
1070
     1
1070
    44
1040
1.0
1070
    74
1070
     0
1000
MTEXTEND
  0
LEADER
  5
202FF
330
747D
100
AcDbEntity
  8
寸法
 48
50.0
100
AcDbLeader
  3
INABA_S50G
 73
     0
 74
     0
 75
     1
 40
120.0
 41
720.0000000000001
 76
     3
 10
11288.69549961499
 20
6752.971450959774
 30
0.0
 10
11445.46907400127
 20
6491.957537391941
 30
0.0
 10
11570.46907400127
 20
6491.957537391941
 30
0.0
340
202FE
1001
ACAD
1000
DSTYLE
1002
{
1070
   341
1005
0
1070
    40
1040
1.0
1070
   343
1005
0
1070
   344
1005
0
1002
}
  0
DIMENSION
  5
2030F
330
747D
100
AcDbEntity
  8
寸法
 48
50.0
100
AcDbDimension
  2
*D36
 10
4022.144256711882
 20
7867.982835086635
 30
0.0
 11
3922.144256711881
 21
7905.482835086637
 31
0.0
 70
    32
  1
c
 71
     5
 42
75.00000000000091
  3
INABA_S40G
100
AcDbAlignedDimension
 13
4274.087353431279
 23
7942.982835086637
 33
0.0
 14
5158.599999999998
 24
7867.982835086635
 34
0.0
 50
90.0
100
AcDbRotatedDimension
1001
ACAD
1000
DSTYLE
1002
{
1070
   341
1005
0
1002
}
  0
DIMENSION
  5
20311
330
747D
100
AcDbEntity
  8
寸法
 48
50.0
100
AcDbDimension
  2
*D37
 10
5158.599999999998
 20
9026.203157145555
 30
0.0
 11
4842.425378797542
 21
9026.203157145555
 31
0.0
 70
   160
  1
a
 71
     5
 42
44.99999999999727
  3
INABA_S40G
100
AcDbAlignedDimension
 13
5113.600000000001
 23
8550.59165175688
 33
0.0
 14
5158.599999999998
 24
7867.982835086635
 34
0.0
100
AcDbRotatedDimension
1001
ACAD
1000
DSTYLE
1002
{
1070
   341
1005
0
1002
}
  0
DIMENSION
  5
2031B
330
747D
100
AcDbEntity
  8
寸法
 48
50.0
100
AcDbDimension
  2
*D38
 10
4022.144256711882
 20
5592.982835086646
 30
0.0
 11
3922.144256711882
 21
5620.482835086641
 31
0.0
 70
    32
  1
b
 71
     5
 42
54.99999999998909
  3
INABA_S40G
100
AcDbAlignedDimension
 13
5158.6
 23
5647.982835086635
 33
0.0
 14
4274.087353431281
 24
5592.982835086646
 34
0.0
 50
90.0
100
AcDbRotatedDimension
1001
ACAD
1000
DSTYLE
1002
{
1070
   341
1005
0
1002
}
  0
LINE
  5
2073A
330
747D
100
AcDbEntity
  8
センター
 48
2.0
100
AcDbLine
 10
5331.6
 20
7744.982835086635
 30
0.0
 11
5231.6
 21
7744.982835086635
 31
0.0
  0
CIRCLE
  5
2073B
330
747D
100
AcDbEntity
  8
部品1
 48
50.0
100
AcDbCircle
 10
5281.6
 20
7744.982835086635
 30
0.0
 40
35.0
  0
LINE
  5
2073C
330
747D
100
AcDbEntity
  8
センター
 48
2.0
100
AcDbLine
 10
5281.6
 20
7794.982835086635
 30
0.0
 11
5281.6
 21
7694.982835086635
 31
0.0
  0
LINE
  5
20749
330
747D
100
AcDbEntity
  8
センター
 48
2.0
100
AcDbLine
 10
5281.599999999993
 20
5895.982835086637
 30
0.0
 11
5281.599999999993
 21
5795.982835086636
 31
0.0
  0
CIRCLE
  5
2074A
330
747D
100
AcDbEntity
  8
部品1
 48
50.0
100
AcDbCircle
 10
5281.599999999993
 20
5845.982835086637
 30
0.0
 40
35.0
  0
LINE
  5
2074B
330
747D
100
AcDbEntity
  8
センター
 48
2.0
100
AcDbLine
 10
5331.599999999993
 20
5845.982835086637
 30
0.0
 11
5231.599999999993
 21
5845.982835086637
 31
0.0
  0
LINE
  5
2075A
102
{ACAD_REACTORS
330
2367A
102
}
330
747D
100
AcDbEntity
  8
部品1
 48
50.0
100
AcDbLine
 10
5158.6
 20
6657.982835086635
 30
0.0
 11
5278.599999999999
 21
6657.982835086635
 31
0.0
  0
LINE
  5
2075B
102
{ACAD_REACTORS
330
2367A
102
}
330
747D
100
AcDbEntity
  8
部品1
 48
50.0
100
AcDbLine
 10
5158.6
 20
6857.982835086635
 30
0.0
 11
5278.599999999999
 21
6857.982835086635
 31
0.0
  0
LINE
  5
20A63
330
747D
100
AcDbEntity
  8
センター
 48
2.0
100
AcDbLine
 10
6525.6
 20
7744.982835086635
 30
0.0
 11
6625.6
 21
7744.982835086635
 31
0.0
  0
LINE
  5
20A64
330
747D
100
AcDbEntity
  8
センター
 48
2.0
100
AcDbLine
 10
6575.6
 20
7794.982835086635
 30
0.0
 11
6575.6
 21
7694.982835086635
 31
0.0
  0
CIRCLE
  5
20A65
330
747D
100
AcDbEntity
  8
部品1
 48
50.0
100
AcDbCircle
 10
6575.6
 20
7744.982835086635
 30
0.0
 40
35.0
  0
LINE
  5
20A66
330
747D
100
AcDbEntity
  8
センター
 48
2.0
100
AcDbLine
 10
6575.600000000007
 20
5895.982835086637
 30
0.0
 11
6575.600000000007
 21
5795.982835086636
 31
0.0
  0
CIRCLE
  5
20A67
330
747D
100
AcDbEntity
  8
部品1
 48
50.0
100
AcDbCircle
 10
6575.600000000007
 20
5845.982835086637
 30
0.0
 40
35.0
  0
LINE
  5
20A68
330
747D
100
AcDbEntity
  8
センター
 48
2.0
100
AcDbLine
 10
6525.600000000007
 20
5845.982835086637
 30
0.0
 11
6625.600000000007
 21
5845.982835086637
 31
0.0
  0
MTEXT
  5
20A84
330
747D
100
AcDbEntity
  8
寸法
 62
     7
 48
50.0
100
AcDbMText
 10
6933.241228494562
 20
8644.794097142723
 30
0.0
 40
120.0
 41
0.0
 71
     5
 72
     1
  1
1530
  7
STYLE1
 73
     1
 44
1.0
1001
ACAD
1000
MTEXTBEGIN
1070
    73
1070
     1
1070
    44
1040
1.0
1070
    74
1070
     0
1000
MTEXTEND
  0
MTEXT
  5
20A85
330
747D
100
AcDbEntity
  8
寸法
 62
     7
 48
50.0
100
AcDbMText
 10
7857.368100093373
 20
8644.794097142723
 30
0.0
 40
120.0
 41
0.0
 71
     5
 72
     1
  1
1530
  7
STYLE1
 73
     1
 44
1.0
1001
ACAD
1000
MTEXTBEGIN
1070
    73
1070
     1
1070
    44
1040
1.0
1070
    74
1070
     0
1000
MTEXTEND
  0
MTEXT
  5
20A86
330
747D
100
AcDbEntity
  8
寸法
 62
     7
 48
50.0
100
AcDbMText
 10
7943.344182203322
 20
8894.328026080279
 30
0.0
 40
120.0
 41
0.0
 71
     5
 72
     1
  1
1530
  7
STYLE1
 73
     1
 44
1.0
1001
ACAD
1000
MTEXTBEGIN
1070
    73
1070
     1
1070
    44
1040
1.0
1070
    74
1070
     0
1000
MTEXTEND
  0
MTEXT
  5
20A87
330
747D
100
AcDbEntity
  8
寸法
 62
     7
 48
50.0
100
AcDbMText
 10
6973.504935908206
 20
8894.328026080279
 30
0.0
 40
120.0
 41
0.0
 71
     5
 72
     1
  1
1530
  7
STYLE1
 73
     1
 44
1.0
1001
ACAD
1000
MTEXTBEGIN
1070
    73
1070
     1
1070
    44
1040
1.0
1070
    74
1070
     0
1000
MTEXTEND
  0
LINE
  5
20BB5
330
747D
100
AcDbEntity
  8
想像線
 48
10.0
100
AcDbLine
 10
6911.226979830802
 20
5592.98283508665
 30
0.0
 11
5113.6
 21
5592.982835086646
 31
0.0
  0
LINE
  5
20BB7
330
747D
100
AcDbEntity
  8
想像線
 48
10.0
100
AcDbLine
 10
7325.595384495693
 20
7942.982835086637
 30
0.0
 11
5113.600000000002
 21
7942.982835086637
 31
0.0
  0
MTEXT
  5
222EB
102
{ACAD_REACTORS
330
222EC
102
}
330
747D
100
AcDbEntity
  8
部品1
 62
     7
 48
50.0
100
AcDbMText
 10
8647.269739003665
 20
6224.993598823106
 30
0.0
 40
120.0
 41
0.0
 71
     6
 72
     1
  1
CB
  7
STYLE1
 73
     1
 44
1.0
1001
ACAD
1000
MTEXTBEGIN
1070
    73
1070
     1
1070
    44
1040
1.0
1070
    74
1070
     0
1000
MTEXTEND
  0
LEADER
  5
222EC
330
747D
100
AcDbEntity
  8
寸法
 48
50.0
100
AcDbLeader
  3
INABA_S50G
 73
     0
 74
     0
 75
     1
 40
120.0
 41
149.591883092037
 76
     3
 10
8271.424765008518
 20
6401.007512390939
 30
0.0
 10
8397.269739003666
 20
6139.993598823106
 30
0.0
 10
8522.269739003666
 20
6139.993598823106
 30
0.0
340
222EB
213
49.59188309203728
223
0.0
233
0.0
1001
ACAD
1000
DSTYLE
1002
{
1070
   341
1005
0
1070
    40
1040
1.0
1070
   343
1005
0
1070
   344
1005
0
1002
}
  0
LINE
  5
227DA
330
747D
100
AcDbEntity
  8
部品1
 48
50.0
100
AcDbLine
 10
10618.60000000001
 20
6562.982835086633
 30
0.0
 11
10418.60000000001
 21
6562.982835086633
 31
0.0
  0
LINE
  5
227DB
330
747D
100
AcDbEntity
  8
センター
 48
2.0
100
AcDbLine
 10
10468.60000000001
 20
6462.982835086633
 30
0.0
 11
10568.60000000001
 21
6462.982835086633
 31
0.0
  0
LINE
  5
227DC
330
747D
100
AcDbEntity
  8
部品1
 48
50.0
100
AcDbLine
 10
10618.60000000001
 20
6362.982835086633
 30
0.0
 11
10418.60000000001
 21
6362.982835086633
 31
0.0
  0
LINE
  5
227DD
330
747D
100
AcDbEntity
  8
部品1
 48
50.0
100
AcDbLine
 10
10418.60000000001
 20
6362.982835086633
 30
0.0
 11
10418.60000000001
 21
6562.982835086633
 31
0.0
  0
LINE
  5
227DE
330
747D
100
AcDbEntity
  8
センター
 48
2.0
100
AcDbLine
 10
10518.60000000001
 20
6512.982835086633
 30
0.0
 11
10518.60000000001
 21
6412.982835086634
 31
0.0
  0
LINE
  5
227DF
330
747D
100
AcDbEntity
  8
部品1
 48
50.0
100
AcDbLine
 10
10618.60000000001
 20
6362.982835086633
 30
0.0
 11
10618.60000000001
 21
6562.982835086633
 31
0.0
  0
LINE
  5
227E0
330
747D
100
AcDbEntity
  8
細線
 48
50.0
100
AcDbLine
 10
10536.18155665265
 20
7667.982835086599
 30
0.0
 11
10618.59999999998
 21
7750.401278433931
 31
0.0
  0
LINE
  5
227E1
330
747D
100
AcDbEntity
  8
細線
 48
50.0
100
AcDbLine
 10
10581.082837258
 20
7667.982835086603
 30
0.0
 11
10618.59999999998
 21
7705.499997828588
 31
0.0
  0
LINE
  5
227E2
330
747D
100
AcDbEntity
  8
部品1
 48
50.0
100
AcDbLine
 10
10618.59999999998
 20
7667.982835086608
 30
0.0
 11
10618.59999999998
 21
7867.982835086633
 31
0.0
  0
LINE
  5
227E3
330
747D
100
AcDbEntity
  8
細線
 48
50.0
100
AcDbLine
 10
10418.59999999998
 20
7864.710242671351
 30
0.0
 11
10421.87259241526
 21
7867.982835086632
 31
0.0
  0
LINE
  5
227E4
330
747D
100
AcDbEntity
  8
部品1
 48
50.0
100
AcDbLine
 10
10418.59999999998
 20
7667.982835086594
 30
0.0
 11
10418.59999999998
 21
7867.982835086633
 31
0.0
  0
LINE
  5
227E5
330
747D
100
AcDbEntity
  8
細線
 48
50.0
100
AcDbLine
 10
10418.59999999998
 20
7819.808962066004
 30
0.0
 11
10466.77387302061
 21
7867.982835086632
 31
0.0
  0
LINE
  5
227E6
330
747D
100
AcDbEntity
  8
細線
 48
50.0
100
AcDbLine
 10
10418.59999999998
 20
7774.90768146066
 30
0.0
 11
10511.67515362596
 21
7867.982835086632
 31
0.0
  0
LINE
  5
227E7
330
747D
100
AcDbEntity
  8
細線
 48
50.0
100
AcDbLine
 10
10418.59999999998
 20
7730.006400855313
 30
0.0
 11
10556.5764342313
 21
7867.982835086633
 31
0.0
  0
LINE
  5
227E8
330
747D
100
AcDbEntity
  8
細線
 48
50.0
100
AcDbLine
 10
10418.59999999998
 20
7685.105120249969
 30
0.0
 11
10601.47771483665
 21
7867.982835086632
 31
0.0
  0
LINE
  5
227E9
330
747D
100
AcDbEntity
  8
細線
 48
50.0
100
AcDbLine
 10
10446.37899544196
 20
7667.982835086594
 30
0.0
 11
10618.59999999998
 21
7840.203839644622
 31
0.0
  0
LINE
  5
227EA
330
747D
100
AcDbEntity
  8
細線
 48
50.0
100
AcDbLine
 10
10491.28027604731
 20
7667.982835086599
 30
0.0
 11
10618.59999999998
 21
7795.302559039277
 31
0.0
  0
LINE
  5
227EB
330
747D
100
AcDbEntity
  8
細線
 48
50.0
100
AcDbLine
 10
10613.41741360238
 20
5647.982835086638
 30
0.0
 11
10618.60000000001
 21
5653.165421484261
 31
0.0
  0
LINE
  5
227EC
330
747D
100
AcDbEntity
  8
部品1
 48
50.0
100
AcDbLine
 10
10618.6
 20
5647.98283508664
 30
0.0
 11
10618.60000000001
 21
5927.982835086649
 31
0.0
  0
LINE
  5
227ED
330
747D
100
AcDbEntity
  8
細線
 48
50.0
100
AcDbLine
 10
10523.61485239169
 20
5647.982835086638
 30
0.0
 11
10618.60000000001
 21
5742.967982694953
 31
0.0
  0
LINE
  5
227EE
330
747D
100
AcDbEntity
  8
細線
 48
50.0
100
AcDbLine
 10
10568.51613299704
 20
5647.982835086637
 30
0.0
 11
10618.60000000001
 21
5698.066702089608
 31
0.0
  0
LINE
  5
227EF
330
747D
100
AcDbEntity
  8
細線
 48
50.0
100
AcDbLine
 10
10418.60000000001
 20
5902.178227537716
 30
0.0
 11
10444.40460754894
 21
5927.982835086651
 31
0.0
  0
LINE
  5
227F0
330
747D
100
AcDbEntity
  8
細線
 48
50.0
100
AcDbLine
 10
10418.60000000001
 20
5857.276946932371
 30
0.0
 11
10489.30588815428
 21
5927.982835086651
 31
0.0
  0
LINE
  5
227F1
330
747D
100
AcDbEntity
  8
部品1
 48
50.0
100
AcDbLine
 10
10418.6
 20
5647.98283508664
 30
0.0
 11
10418.60000000001
 21
5927.982835086649
 31
0.0
  0
LINE
  5
227F2
330
747D
100
AcDbEntity
  8
細線
 48
50.0
100
AcDbLine
 10
10418.60000000001
 20
5812.375666327026
 30
0.0
 11
10534.20716875961
 21
5927.982835086651
 31
0.0
  0
LINE
  5
227F3
330
747D
100
AcDbEntity
  8
細線
 48
50.0
100
AcDbLine
 10
10418.60000000001
 20
5767.474385721681
 30
0.0
 11
10579.10844936498
 21
5927.982835086649
 31
0.0
  0
LINE
  5
227F4
330
747D
100
AcDbEntity
  8
細線
 48
50.0
100
AcDbLine
 10
10418.60000000001
 20
5722.573105116335
 30
0.0
 11
10618.60000000001
 21
5922.573105116338
 31
0.0
  0
LINE
  5
227F5
330
747D
100
AcDbEntity
  8
細線
 48
50.0
100
AcDbLine
 10
10418.60000000001
 20
5677.671824510989
 30
0.0
 11
10618.60000000001
 21
5877.671824510994
 31
0.0
  0
LINE
  5
227F6
330
747D
100
AcDbEntity
  8
細線
 48
50.0
100
AcDbLine
 10
10433.81229118099
 20
5647.982835086633
 30
0.0
 11
10618.60000000001
 21
5832.770543905644
 31
0.0
  0
LINE
  5
227F7
330
747D
100
AcDbEntity
  8
細線
 48
50.0
100
AcDbLine
 10
10478.71357178634
 20
5647.982835086635
 30
0.0
 11
10618.60000000001
 21
5787.869263300298
 31
0.0
  0
DIMENSION
  5
227F8
330
747D
100
AcDbEntity
  8
寸法
 48
50.0
100
AcDbDimension
  2
*D40
 10
7842.120515473401
 20
7867.982835086633
 30
0.0
 11
7842.1205154734
 21
7436.482835086633
 31
0.0
 70
   160
 71
     5
 42
740.0
  3
INABA_S40G
100
AcDbAlignedDimension
 13
7558.600000000009
 23
7127.982835086632
 33
0.0
 14
7933.6
 24
7867.982835086633
 34
0.0
 50
90.0
100
AcDbRotatedDimension
1001
ACAD
1000
DSTYLE
1002
{
1070
   341
1005
0
1002
}
  0
DIMENSION
  5
227F9
330
747D
100
AcDbEntity
  8
寸法
 48
50.0
100
AcDbDimension
  2
*D39
 10
7842.120515473401
 20
6462.982835086633
 30
0.0
 11
7842.1205154734
 21
6125.144085098378
 31
0.0
 70
   160
 71
     5
 42
814.9999999999927
  3
INABA_S40G
100
AcDbAlignedDimension
 13
7933.6
 23
5647.98283508664
 33
0.0
 14
7558.600000000009
 24
6462.982835086633
 34
0.0
 50
90.0
100
AcDbRotatedDimension
1001
ACAD
1000
DSTYLE
1002
{
1070
   341
1005
0
1002
}
  0
LINE
  5
227FA
330
747D
100
AcDbEntity
  8
センター
 48
2.0
100
AcDbLine
 10
9703.600000000008
 20
6462.982835086633
 30
0.0
 11
9803.600000000008
 21
6462.982835086633
 31
0.0
  0
LINE
  5
227FB
330
747D
100
AcDbEntity
  8
部品1
 48
50.0
100
AcDbLine
 10
9853.600000000007
 20
6562.982835086633
 30
0.0
 11
9653.600000000007
 21
6562.982835086633
 31
0.0
  0
LINE
  5
227FC
330
747D
100
AcDbEntity
  8
部品1
 48
50.0
100
AcDbLine
 10
9853.600000000007
 20
6362.982835086633
 30
0.0
 11
9653.600000000007
 21
6362.982835086633
 31
0.0
  0
LINE
  5
227FD
330
747D
100
AcDbEntity
  8
部品1
 48
50.0
100
AcDbLine
 10
9853.600000000007
 20
6362.982835086633
 30
0.0
 11
9853.600000000007
 21
6562.982835086633
 31
0.0
  0
LINE
  5
227FE
330
747D
100
AcDbEntity
  8
部品1
 48
50.0
100
AcDbLine
 10
9653.600000000007
 20
6362.982835086633
 30
0.0
 11
9653.600000000007
 21
6562.982835086633
 31
0.0
  0
LINE
  5
227FF
330
747D
100
AcDbEntity
  8
センター
 48
2.0
100
AcDbLine
 10
9753.600000000007
 20
6512.982835086633
 30
0.0
 11
9753.600000000007
 21
6412.982835086634
 31
0.0
  0
LINE
  5
22800
330
747D
100
AcDbEntity
  8
細線
 48
50.0
100
AcDbLine
 10
8888.600000000009
 20
5812.375666327026
 30
0.0
 11
9004.207168759613
 21
5927.982835086651
 31
0.0
  0
LINE
  5
22801
330
747D
100
AcDbEntity
  8
細線
 48
50.0
100
AcDbLine
 10
8888.600000000009
 20
5767.474385721681
 30
0.0
 11
9049.108449364977
 21
5927.982835086649
 31
0.0
  0
LINE
  5
22802
330
747D
100
AcDbEntity
  8
細線
 48
50.0
100
AcDbLine
 10
8888.600000000009
 20
5857.276946932371
 30
0.0
 11
8959.305888154288
 21
5927.982835086651
 31
0.0
  0
LINE
  5
22803
330
747D
100
AcDbEntity
  8
細線
 48
50.0
100
AcDbLine
 10
8888.600000000009
 20
5902.178227537716
 30
0.0
 11
8914.404607548936
 21
5927.982835086651
 31
0.0
  0
LINE
  5
22804
330
747D
100
AcDbEntity
  8
細線
 48
50.0
100
AcDbLine
 10
8888.600000000009
 20
5722.573105116335
 30
0.0
 11
9088.600000000008
 21
5922.573105116338
 31
0.0
  0
LINE
  5
22805
330
747D
100
AcDbEntity
  8
細線
 48
50.0
100
AcDbLine
 10
9083.417413602385
 20
5647.982835086638
 30
0.0
 11
9088.600000000008
 21
5653.165421484261
 31
0.0
  0
LINE
  5
22806
330
747D
100
AcDbEntity
  8
部品1
 48
50.0
100
AcDbLine
 10
8888.600000000007
 20
5647.98283508664
 30
0.0
 11
8888.600000000009
 21
5927.982835086649
 31
0.0
  0
LINE
  5
22807
330
747D
100
AcDbEntity
  8
部品1
 48
50.0
100
AcDbLine
 10
9088.600000000006
 20
5647.98283508664
 30
0.0
 11
9088.600000000008
 21
5927.982835086649
 31
0.0
  0
LINE
  5
22808
330
747D
100
AcDbEntity
  8
細線
 48
50.0
100
AcDbLine
 10
8888.600000000009
 20
5677.671824510989
 30
0.0
 11
9088.600000000008
 21
5877.67182451099
 31
0.0
  0
LINE
  5
22809
330
747D
100
AcDbEntity
  8
細線
 48
50.0
100
AcDbLine
 10
8903.812291180996
 20
5647.982835086633
 30
0.0
 11
9088.600000000008
 21
5832.770543905645
 31
0.0
  0
LINE
  5
2280A
330
747D
100
AcDbEntity
  8
細線
 48
50.0
100
AcDbLine
 10
8948.713571786344
 20
5647.982835086635
 30
0.0
 11
9088.600000000008
 21
5787.869263300298
 31
0.0
  0
LINE
  5
2280B
330
747D
100
AcDbEntity
  8
細線
 48
50.0
100
AcDbLine
 10
8993.614852391692
 20
5647.982835086638
 30
0.0
 11
9088.600000000008
 21
5742.967982694953
 31
0.0
  0
LINE
  5
2280C
330
747D
100
AcDbEntity
  8
細線
 48
50.0
100
AcDbLine
 10
9038.516132997038
 20
5647.982835086638
 30
0.0
 11
9088.600000000008
 21
5698.066702089606
 31
0.0
  0
LINE
  5
2280D
330
747D
100
AcDbEntity
  8
センター
 48
2.0
100
AcDbLine
 10
8938.600000000008
 20
6462.982835086633
 30
0.0
 11
9038.600000000007
 21
6462.982835086633
 31
0.0
  0
LINE
  5
2280E
330
747D
100
AcDbEntity
  8
部品1
 48
50.0
100
AcDbLine
 10
9088.600000000008
 20
6562.982835086633
 30
0.0
 11
8888.600000000009
 21
6562.982835086633
 31
0.0
  0
LINE
  5
2280F
330
747D
100
AcDbEntity
  8
部品1
 48
50.0
100
AcDbLine
 10
9088.600000000008
 20
6362.982835086633
 30
0.0
 11
8888.600000000009
 21
6362.982835086633
 31
0.0
  0
LINE
  5
22810
330
747D
100
AcDbEntity
  8
部品1
 48
50.0
100
AcDbLine
 10
8888.600000000009
 20
6362.982835086633
 30
0.0
 11
8888.600000000009
 21
6562.982835086633
 31
0.0
  0
LINE
  5
22811
330
747D
100
AcDbEntity
  8
センター
 48
2.0
100
AcDbLine
 10
8988.600000000008
 20
6512.982835086633
 30
0.0
 11
8988.600000000008
 21
6412.982835086634
 31
0.0
  0
LINE
  5
22812
330
747D
100
AcDbEntity
  8
部品1
 48
50.0
100
AcDbLine
 10
9088.600000000008
 20
6362.982835086633
 30
0.0
 11
9088.600000000008
 21
6562.982835086633
 31
0.0
  0
LINE
  5
22813
330
747D
100
AcDbEntity
  8
細線
 48
50.0
100
AcDbLine
 10
8888.599999999984
 20
7864.710242671351
 30
0.0
 11
8891.872592415266
 21
7867.982835086632
 31
0.0
  0
LINE
  5
22814
330
747D
100
AcDbEntity
  8
細線
 48
50.0
100
AcDbLine
 10
8916.378995441872
 20
7667.982835086509
 30
0.0
 11
9088.599999999985
 21
7840.203839644622
 31
0.0
  0
LINE
  5
22815
330
747D
100
AcDbEntity
  8
細線
 48
50.0
100
AcDbLine
 10
8961.28027604722
 20
7667.982835086512
 30
0.0
 11
9088.599999999983
 21
7795.302559039277
 31
0.0
  0
LINE
  5
22816
330
747D
100
AcDbEntity
  8
細線
 48
50.0
100
AcDbLine
 10
9051.082837257913
 20
7667.982835086516
 30
0.0
 11
9088.599999999983
 21
7705.499997828585
 31
0.0
  0
LINE
  5
22817
330
747D
100
AcDbEntity
  8
細線
 48
50.0
100
AcDbLine
 10
9006.18155665257
 20
7667.982835086515
 30
0.0
 11
9088.599999999985
 21
7750.40127843393
 31
0.0
  0
LINE
  5
22818
330
747D
100
AcDbEntity
  8
部品1
 48
50.0
100
AcDbLine
 10
8888.599999999986
 20
7667.982835086509
 30
0.0
 11
8888.599999999984
 21
7867.982835086633
 31
0.0
  0
LINE
  5
22819
330
747D
100
AcDbEntity
  8
部品1
 48
50.0
100
AcDbLine
 10
9088.599999999985
 20
7667.982835086522
 30
0.0
 11
9088.599999999983
 21
7867.982835086633
 31
0.0
  0
LINE
  5
2281A
330
747D
100
AcDbEntity
  8
細線
 48
50.0
100
AcDbLine
 10
8888.599999999984
 20
7819.808962066004
 30
0.0
 11
8936.77387302061
 21
7867.982835086632
 31
0.0
  0
LINE
  5
2281B
330
747D
100
AcDbEntity
  8
細線
 48
50.0
100
AcDbLine
 10
8888.599999999984
 20
7774.90768146066
 30
0.0
 11
8981.675153625959
 21
7867.982835086632
 31
0.0
  0
LINE
  5
2281C
330
747D
100
AcDbEntity
  8
細線
 48
50.0
100
AcDbLine
 10
8888.599999999986
 20
7730.006400855318
 30
0.0
 11
9026.576434231303
 21
7867.982835086633
 31
0.0
  0
LINE
  5
2281D
330
747D
100
AcDbEntity
  8
細線
 48
50.0
100
AcDbLine
 10
8888.599999999986
 20
7685.10512024997
 30
0.0
 11
9071.477714836651
 21
7867.982835086632
 31
0.0
  0
LINE
  5
2281E
330
747D
100
AcDbEntity
  8
部品1
 48
50.0
100
AcDbLine
 10
8323.600000000007
 20
6562.982835086633
 30
0.0
 11
8123.600000000008
 21
6562.982835086633
 31
0.0
  0
LINE
  5
2281F
330
747D
100
AcDbEntity
  8
センター
 48
2.0
100
AcDbLine
 10
8173.600000000007
 20
6462.982835086633
 30
0.0
 11
8273.600000000007
 21
6462.982835086633
 31
0.0
  0
LINE
  5
22820
330
747D
100
AcDbEntity
  8
部品1
 48
50.0
100
AcDbLine
 10
8323.600000000007
 20
6362.982835086633
 30
0.0
 11
8123.600000000008
 21
6362.982835086633
 31
0.0
  0
LINE
  5
22821
330
747D
100
AcDbEntity
  8
部品1
 48
50.0
100
AcDbLine
 10
8323.600000000007
 20
6362.982835086633
 30
0.0
 11
8323.600000000007
 21
6562.982835086633
 31
0.0
  0
LINE
  5
22822
330
747D
100
AcDbEntity
  8
部品1
 48
50.0
100
AcDbLine
 10
8123.600000000008
 20
6362.982835086633
 30
0.0
 11
8123.600000000008
 21
6562.982835086633
 31
0.0
  0
LINE
  5
22823
330
747D
100
AcDbEntity
  8
センター
 48
2.0
100
AcDbLine
 10
8223.600000000008
 20
6512.982835086633
 30
0.0
 11
8223.600000000008
 21
6412.982835086634
 31
0.0
  0
LINE
  5
2284E
330
747D
100
AcDbEntity
  8
センター
 48
2.0
100
AcDbLine
 10
5928.600000000008
 20
6512.982835086633
 30
0.0
 11
5928.600000000008
 21
6412.982835086634
 31
0.0
  0
LINE
  5
2284F
330
747D
100
AcDbEntity
  8
部品1
 48
50.0
100
AcDbLine
 10
5828.600000000008
 20
6362.982835086633
 30
0.0
 11
5828.600000000008
 21
6562.982835086633
 31
0.0
  0
LINE
  5
22850
330
747D
100
AcDbEntity
  8
部品1
 48
50.0
100
AcDbLine
 10
6028.600000000007
 20
6362.982835086633
 30
0.0
 11
6028.600000000007
 21
6562.982835086633
 31
0.0
  0
LINE
  5
22851
330
747D
100
AcDbEntity
  8
部品1
 48
50.0
100
AcDbLine
 10
6028.600000000007
 20
6362.982835086633
 30
0.0
 11
5828.600000000008
 21
6362.982835086633
 31
0.0
  0
LINE
  5
22852
330
747D
100
AcDbEntity
  8
センター
 48
2.0
100
AcDbLine
 10
5878.600000000008
 20
6462.982835086633
 30
0.0
 11
5978.600000000008
 21
6462.982835086633
 31
0.0
  0
LINE
  5
22853
330
747D
100
AcDbEntity
  8
部品1
 48
50.0
100
AcDbLine
 10
6028.600000000007
 20
6562.982835086633
 30
0.0
 11
5828.600000000008
 21
6562.982835086633
 31
0.0
  0
LINE
  5
22854
330
747D
100
AcDbEntity
  8
部品1
 48
50.0
100
AcDbLine
 10
6793.600000000008
 20
6362.982835086633
 30
0.0
 11
6793.600000000008
 21
6562.982835086633
 31
0.0
  0
LINE
  5
22855
330
747D
100
AcDbEntity
  8
センター
 48
2.0
100
AcDbLine
 10
6693.600000000007
 20
6512.982835086633
 30
0.0
 11
6693.600000000007
 21
6412.982835086634
 31
0.0
  0
LINE
  5
22856
330
747D
100
AcDbEntity
  8
部品1
 48
50.0
100
AcDbLine
 10
6593.600000000008
 20
6362.982835086633
 30
0.0
 11
6593.600000000008
 21
6562.982835086633
 31
0.0
  0
LINE
  5
22857
330
747D
100
AcDbEntity
  8
部品1
 48
50.0
100
AcDbLine
 10
6793.600000000008
 20
6362.982835086633
 30
0.0
 11
6593.600000000008
 21
6362.982835086633
 31
0.0
  0
LINE
  5
22858
330
747D
100
AcDbEntity
  8
部品1
 48
50.0
100
AcDbLine
 10
6793.600000000008
 20
6562.982835086633
 30
0.0
 11
6593.600000000008
 21
6562.982835086633
 31
0.0
  0
LINE
  5
22859
330
747D
100
AcDbEntity
  8
センター
 48
2.0
100
AcDbLine
 10
6643.600000000008
 20
6462.982835086633
 30
0.0
 11
6743.600000000007
 21
6462.982835086633
 31
0.0
  0
LINE
  5
2285A
330
747D
100
AcDbEntity
  8
センター
 48
2.0
100
AcDbLine
 10
7458.600000000008
 20
6512.982835086633
 30
0.0
 11
7458.600000000008
 21
6412.982835086634
 31
0.0
  0
LINE
  5
2285B
330
747D
100
AcDbEntity
  8
部品1
 48
50.0
100
AcDbLine
 10
7358.600000000008
 20
6362.982835086633
 30
0.0
 11
7358.600000000008
 21
6562.982835086633
 31
0.0
  0
LINE
  5
2285C
330
747D
100
AcDbEntity
  8
部品1
 48
50.0
100
AcDbLine
 10
7558.600000000009
 20
6362.982835086633
 30
0.0
 11
7558.600000000009
 21
6562.982835086633
 31
0.0
  0
LINE
  5
2285D
330
747D
100
AcDbEntity
  8
部品1
 48
50.0
100
AcDbLine
 10
7558.600000000009
 20
6362.982835086633
 30
0.0
 11
7358.600000000008
 21
6362.982835086633
 31
0.0
  0
LINE
  5
2285E
330
747D
100
AcDbEntity
  8
部品1
 48
50.0
100
AcDbLine
 10
7558.600000000009
 20
6562.982835086633
 30
0.0
 11
7358.600000000008
 21
6562.982835086633
 31
0.0
  0
LINE
  5
2285F
330
747D
100
AcDbEntity
  8
センター
 48
2.0
100
AcDbLine
 10
7408.600000000008
 20
6462.982835086633
 30
0.0
 11
7508.600000000008
 21
6462.982835086633
 31
0.0
  0
DIMENSION
  5
22860
330
747D
100
AcDbEntity
  8
寸法
 48
50.0
100
AcDbDimension
  2
*D41
 10
5158.6
 20
6168.100679195828
 30
0.0
 11
5543.600000000004
 21
6268.100679195828
 31
0.0
 70
    32
 71
     5
 42
770.0000000000073
  3
INABA_S40G
100
AcDbAlignedDimension
 13
5928.600000000008
 23
6412.982835086634
 33
0.0
 14
5158.6
 24
6336.096406872986
 34
0.0
100
AcDbRotatedDimension
1001
ACAD
1000
DSTYLE
1002
{
1070
   341
1005
0
1002
}
  0
DIMENSION
  5
2286D
330
747D
100
AcDbEntity
  8
寸法
 48
50.0
100
AcDbDimension
  2
*D42
 10
6693.600000000007
 20
6168.100679195828
 30
0.0
 11
6311.100000000007
 21
6268.100679195828
 31
0.0
 70
    32
 71
     5
 42
765.0
  3
INABA_S40G
100
AcDbAlignedDimension
 13
5928.600000000008
 23
6412.982835086634
 33
0.0
 14
6693.600000000007
 24
6412.982835086634
 34
0.0
100
AcDbRotatedDimension
1001
ACAD
1000
DSTYLE
1002
{
1070
   341
1005
0
1002
}
  0
DIMENSION
  5
228AB
330
747D
100
AcDbEntity
  8
寸法
 48
50.0
100
AcDbDimension
  2
*D43
 10
10518.59999999999
 20
6168.100679195828
 30
0.0
 11
10903.59999999999
 21
6268.100679195828
 31
0.0
 70
    32
 71
     5
 42
770.0000000000073
  3
INABA_S40G
100
AcDbAlignedDimension
 13
11288.6
 23
6412.982835086634
 33
0.0
 14
10518.59999999999
 24
6362.982835086633
 34
0.0
100
AcDbRotatedDimension
1001
ACAD
1000
DSTYLE
1002
{
1070
   341
1005
0
1002
}
  0
DIMENSION
  5
228CA
330
747D
100
AcDbEntity
  8
寸法
 48
50.0
100
AcDbDimension
  2
*D44
 10
10518.59999999999
 20
6168.100679195828
 30
0.0
 11
10136.1
 21
6268.100679195828
 31
0.0
 70
    32
 71
     5
 42
764.9999999999854
  3
INABA_S40G
100
AcDbAlignedDimension
 13
9753.600000000007
 23
6362.982835086633
 33
0.0
 14
10518.59999999999
 24
6362.982835086633
 34
0.0
100
AcDbRotatedDimension
1001
ACAD
1000
DSTYLE
1002
{
1070
   341
1005
0
1002
}
  0
DIMENSION
  5
228D8
330
747D
100
AcDbEntity
  8
寸法
 48
50.0
100
AcDbDimension
  2
*D45
 10
9753.600000000007
 20
6168.100679195828
 30
0.0
 11
9371.100000000009
 21
6268.100679195828
 31
0.0
 70
    32
 71
     5
 42
765.0
  3
INABA_S40G
100
AcDbAlignedDimension
 13
8988.600000000008
 23
6362.982835086633
 33
0.0
 14
9753.600000000007
 24
6362.982835086633
 34
0.0
100
AcDbRotatedDimension
1001
ACAD
1000
DSTYLE
1002
{
1070
   341
1005
0
1002
}
  0
LINE
  5
228F7
330
747D
100
AcDbEntity
  8
細線
 48
50.0
100
AcDbLine
 10
7508.516132997037
 20
5647.982835086638
 30
0.0
 11
7558.600000000009
 21
5698.066702089606
 31
0.0
  0
LINE
  5
228F8
330
747D
100
AcDbEntity
  8
細線
 48
50.0
100
AcDbLine
 10
7463.614852391692
 20
5647.982835086638
 30
0.0
 11
7558.600000000009
 21
5742.967982694953
 31
0.0
  0
LINE
  5
228F9
330
747D
100
AcDbEntity
  8
細線
 48
50.0
100
AcDbLine
 10
7418.713571786344
 20
5647.982835086635
 30
0.0
 11
7558.600000000009
 21
5787.869263300298
 31
0.0
  0
LINE
  5
228FA
330
747D
100
AcDbEntity
  8
細線
 48
50.0
100
AcDbLine
 10
7373.812291180996
 20
5647.982835086633
 30
0.0
 11
7558.600000000009
 21
5832.770543905645
 31
0.0
  0
LINE
  5
228FB
330
747D
100
AcDbEntity
  8
細線
 48
50.0
100
AcDbLine
 10
7358.600000000008
 20
5677.671824510989
 30
0.0
 11
7558.600000000009
 21
5877.67182451099
 31
0.0
  0
LINE
  5
228FC
330
747D
100
AcDbEntity
  8
部品1
 48
50.0
100
AcDbLine
 10
7558.600000000005
 20
5647.98283508664
 30
0.0
 11
7558.600000000009
 21
5927.982835086649
 31
0.0
  0
LINE
  5
228FD
330
747D
100
AcDbEntity
  8
部品1
 48
50.0
100
AcDbLine
 10
7358.600000000006
 20
5647.98283508664
 30
0.0
 11
7358.600000000008
 21
5927.982835086649
 31
0.0
  0
LINE
  5
228FE
330
747D
100
AcDbEntity
  8
細線
 48
50.0
100
AcDbLine
 10
7553.417413602385
 20
5647.982835086638
 30
0.0
 11
7558.600000000009
 21
5653.165421484261
 31
0.0
  0
LINE
  5
228FF
330
747D
100
AcDbEntity
  8
細線
 48
50.0
100
AcDbLine
 10
7358.600000000008
 20
5722.573105116335
 30
0.0
 11
7558.600000000009
 21
5922.573105116338
 31
0.0
  0
LINE
  5
22900
330
747D
100
AcDbEntity
  8
細線
 48
50.0
100
AcDbLine
 10
7358.600000000008
 20
5902.178227537716
 30
0.0
 11
7384.404607548937
 21
5927.982835086651
 31
0.0
  0
LINE
  5
22901
330
747D
100
AcDbEntity
  8
細線
 48
50.0
100
AcDbLine
 10
7358.600000000008
 20
5857.276946932371
 30
0.0
 11
7429.305888154288
 21
5927.982835086651
 31
0.0
  0
LINE
  5
22902
330
747D
100
AcDbEntity
  8
細線
 48
50.0
100
AcDbLine
 10
7358.600000000008
 20
5767.474385721681
 30
0.0
 11
7519.108449364978
 21
5927.982835086649
 31
0.0
  0
LINE
  5
22903
330
747D
100
AcDbEntity
  8
細線
 48
50.0
100
AcDbLine
 10
7358.600000000008
 20
5812.375666327026
 30
0.0
 11
7474.207168759612
 21
5927.982835086651
 31
0.0
  0
LINE
  5
22904
330
747D
100
AcDbEntity
  8
細線
 48
50.0
100
AcDbLine
 10
7358.599999999985
 20
7685.10512024997
 30
0.0
 11
7541.477714836649
 21
7867.982835086632
 31
0.0
  0
LINE
  5
22905
330
747D
100
AcDbEntity
  8
細線
 48
50.0
100
AcDbLine
 10
7358.599999999985
 20
7730.006400855318
 30
0.0
 11
7496.576434231304
 21
7867.982835086633
 31
0.0
  0
LINE
  5
22906
330
747D
100
AcDbEntity
  8
細線
 48
50.0
100
AcDbLine
 10
7358.599999999984
 20
7774.90768146066
 30
0.0
 11
7451.675153625958
 21
7867.982835086632
 31
0.0
  0
LINE
  5
22907
330
747D
100
AcDbEntity
  8
細線
 48
50.0
100
AcDbLine
 10
7358.599999999984
 20
7819.808962066004
 30
0.0
 11
7406.773873020608
 21
7867.982835086632
 31
0.0
  0
LINE
  5
22908
330
747D
100
AcDbEntity
  8
部品1
 48
50.0
100
AcDbLine
 10
7558.599999999985
 20
7667.982835086522
 30
0.0
 11
7558.599999999984
 21
7867.982835086633
 31
0.0
  0
LINE
  5
22909
330
747D
100
AcDbEntity
  8
部品1
 48
50.0
100
AcDbLine
 10
7358.599999999985
 20
7667.982835086509
 30
0.0
 11
7358.599999999984
 21
7867.982835086633
 31
0.0
  0
LINE
  5
2290A
330
747D
100
AcDbEntity
  8
細線
 48
50.0
100
AcDbLine
 10
7476.181556652571
 20
7667.982835086515
 30
0.0
 11
7558.599999999985
 21
7750.40127843393
 31
0.0
  0
LINE
  5
2290B
330
747D
100
AcDbEntity
  8
細線
 48
50.0
100
AcDbLine
 10
7521.082837257914
 20
7667.982835086516
 30
0.0
 11
7558.599999999984
 21
7705.499997828585
 31
0.0
  0
LINE
  5
2290C
330
747D
100
AcDbEntity
  8
細線
 48
50.0
100
AcDbLine
 10
7431.280276047221
 20
7667.982835086512
 30
0.0
 11
7558.599999999984
 21
7795.302559039277
 31
0.0
  0
LINE
  5
2290D
330
747D
100
AcDbEntity
  8
細線
 48
50.0
100
AcDbLine
 10
7386.378995441873
 20
7667.982835086509
 30
0.0
 11
7558.599999999985
 21
7840.203839644622
 31
0.0
  0
LINE
  5
2290E
330
747D
100
AcDbEntity
  8
細線
 48
50.0
100
AcDbLine
 10
7358.599999999984
 20
7864.710242671351
 30
0.0
 11
7361.872592415266
 21
7867.982835086632
 31
0.0
  0
LINE
  5
22918
330
747D
100
AcDbEntity
  8
細線
 48
50.0
100
AcDbLine
 10
5828.599999999983
 20
7864.710242671351
 30
0.0
 11
5831.872592415265
 21
7867.982835086632
 31
0.0
  0
LINE
  5
22919
330
747D
100
AcDbEntity
  8
細線
 48
50.0
100
AcDbLine
 10
5856.378995441874
 20
7667.982835086509
 30
0.0
 11
6028.599999999986
 21
7840.203839644622
 31
0.0
  0
LINE
  5
2291A
330
747D
100
AcDbEntity
  8
細線
 48
50.0
100
AcDbLine
 10
5901.28027604722
 20
7667.982835086512
 30
0.0
 11
6028.599999999983
 21
7795.302559039277
 31
0.0
  0
LINE
  5
2291B
330
747D
100
AcDbEntity
  8
細線
 48
50.0
100
AcDbLine
 10
5991.082837257915
 20
7667.982835086516
 30
0.0
 11
6028.599999999983
 21
7705.499997828585
 31
0.0
  0
LINE
  5
2291C
330
747D
100
AcDbEntity
  8
細線
 48
50.0
100
AcDbLine
 10
5946.181556652572
 20
7667.982835086515
 30
0.0
 11
6028.599999999986
 21
7750.40127843393
 31
0.0
  0
LINE
  5
2291D
330
747D
100
AcDbEntity
  8
部品1
 48
50.0
100
AcDbLine
 10
5828.599999999986
 20
7667.982835086509
 30
0.0
 11
5828.599999999983
 21
7867.982835086633
 31
0.0
  0
LINE
  5
2291E
330
747D
100
AcDbEntity
  8
部品1
 48
50.0
100
AcDbLine
 10
6028.599999999986
 20
7667.982835086522
 30
0.0
 11
6028.599999999983
 21
7867.982835086633
 31
0.0
  0
LINE
  5
2291F
330
747D
100
AcDbEntity
  8
細線
 48
50.0
100
AcDbLine
 10
5828.599999999983
 20
7819.808962066004
 30
0.0
 11
5876.773873020609
 21
7867.982835086632
 31
0.0
  0
LINE
  5
22920
330
747D
100
AcDbEntity
  8
細線
 48
50.0
100
AcDbLine
 10
5828.599999999983
 20
7774.90768146066
 30
0.0
 11
5921.675153625958
 21
7867.982835086632
 31
0.0
  0
LINE
  5
22921
330
747D
100
AcDbEntity
  8
細線
 48
50.0
100
AcDbLine
 10
5828.599999999986
 20
7730.006400855318
 30
0.0
 11
5966.576434231303
 21
7867.982835086633
 31
0.0
  0
LINE
  5
22922
330
747D
100
AcDbEntity
  8
細線
 48
50.0
100
AcDbLine
 10
5828.599999999986
 20
7685.10512024997
 30
0.0
 11
6011.47771483665
 21
7867.982835086632
 31
0.0
  0
LINE
  5
22923
330
747D
100
AcDbEntity
  8
細線
 48
50.0
100
AcDbLine
 10
5828.600000000008
 20
5812.375666327026
 30
0.0
 11
5944.207168759612
 21
5927.982835086651
 31
0.0
  0
LINE
  5
22924
330
747D
100
AcDbEntity
  8
細線
 48
50.0
100
AcDbLine
 10
5828.600000000008
 20
5767.474385721681
 30
0.0
 11
5989.108449364977
 21
5927.982835086649
 31
0.0
  0
LINE
  5
22925
330
747D
100
AcDbEntity
  8
細線
 48
50.0
100
AcDbLine
 10
5828.600000000008
 20
5857.276946932371
 30
0.0
 11
5899.305888154287
 21
5927.982835086651
 31
0.0
  0
LINE
  5
22926
330
747D
100
AcDbEntity
  8
細線
 48
50.0
100
AcDbLine
 10
5828.600000000008
 20
5902.178227537716
 30
0.0
 11
5854.404607548937
 21
5927.982835086651
 31
0.0
  0
LINE
  5
22927
330
747D
100
AcDbEntity
  8
細線
 48
50.0
100
AcDbLine
 10
5828.600000000008
 20
5722.573105116335
 30
0.0
 11
6028.600000000007
 21
5922.573105116338
 31
0.0
  0
LINE
  5
22928
330
747D
100
AcDbEntity
  8
細線
 48
50.0
100
AcDbLine
 10
6023.417413602385
 20
5647.982835086638
 30
0.0
 11
6028.600000000007
 21
5653.165421484261
 31
0.0
  0
LINE
  5
22929
330
747D
100
AcDbEntity
  8
部品1
 48
50.0
100
AcDbLine
 10
5828.600000000005
 20
5647.98283508664
 30
0.0
 11
5828.600000000008
 21
5927.982835086649
 31
0.0
  0
LINE
  5
2292A
330
747D
100
AcDbEntity
  8
部品1
 48
50.0
100
AcDbLine
 10
6028.600000000006
 20
5647.98283508664
 30
0.0
 11
6028.600000000007
 21
5927.982835086649
 31
0.0
  0
LINE
  5
2292B
330
747D
100
AcDbEntity
  8
細線
 48
50.0
100
AcDbLine
 10
5828.600000000008
 20
5677.671824510989
 30
0.0
 11
6028.600000000007
 21
5877.67182451099
 31
0.0
  0
LINE
  5
2292C
330
747D
100
AcDbEntity
  8
細線
 48
50.0
100
AcDbLine
 10
5843.812291180997
 20
5647.982835086633
 30
0.0
 11
6028.600000000007
 21
5832.770543905645
 31
0.0
  0
LINE
  5
2292D
330
747D
100
AcDbEntity
  8
細線
 48
50.0
100
AcDbLine
 10
5888.713571786343
 20
5647.982835086635
 30
0.0
 11
6028.600000000007
 21
5787.869263300298
 31
0.0
  0
LINE
  5
2292E
330
747D
100
AcDbEntity
  8
細線
 48
50.0
100
AcDbLine
 10
5933.614852391691
 20
5647.982835086638
 30
0.0
 11
6028.600000000007
 21
5742.967982694953
 31
0.0
  0
LINE
  5
2292F
330
747D
100
AcDbEntity
  8
細線
 48
50.0
100
AcDbLine
 10
5978.516132997038
 20
5647.982835086638
 30
0.0
 11
6028.600000000007
 21
5698.066702089606
 31
0.0
  0
LINE
  5
2359D
330
747D
100
AcDbEntity
  8
センター
 48
2.0
100
AcDbLine
 10
8223.600000000008
 20
7177.982835086632
 30
0.0
 11
8223.600000000008
 21
7077.982835086633
 31
0.0
  0
LINE
  5
2359E
330
747D
100
AcDbEntity
  8
部品1
 48
50.0
100
AcDbLine
 10
8123.600000000008
 20
7027.982835086632
 30
0.0
 11
8123.600000000008
 21
7227.982835086632
 31
0.0
  0
LINE
  5
2359F
330
747D
100
AcDbEntity
  8
部品1
 48
50.0
100
AcDbLine
 10
8323.600000000007
 20
7027.982835086632
 30
0.0
 11
8323.600000000007
 21
7227.982835086632
 31
0.0
  0
LINE
  5
235A0
330
747D
100
AcDbEntity
  8
部品1
 48
50.0
100
AcDbLine
 10
8323.600000000007
 20
7027.982835086632
 30
0.0
 11
8123.600000000008
 21
7027.982835086632
 31
0.0
  0
LINE
  5
235A1
330
747D
100
AcDbEntity
  8
センター
 48
2.0
100
AcDbLine
 10
8173.600000000007
 20
7127.982835086632
 30
0.0
 11
8273.600000000007
 21
7127.982835086632
 31
0.0
  0
LINE
  5
235A2
330
747D
100
AcDbEntity
  8
部品1
 48
50.0
100
AcDbLine
 10
8323.600000000007
 20
7227.982835086632
 30
0.0
 11
8123.600000000008
 21
7227.982835086632
 31
0.0
  0
LINE
  5
235A3
330
747D
100
AcDbEntity
  8
部品1
 48
50.0
100
AcDbLine
 10
9088.600000000008
 20
7027.982835086632
 30
0.0
 11
9088.600000000008
 21
7227.982835086632
 31
0.0
  0
LINE
  5
235A4
330
747D
100
AcDbEntity
  8
センター
 48
2.0
100
AcDbLine
 10
8988.600000000008
 20
7177.982835086632
 30
0.0
 11
8988.600000000008
 21
7077.982835086633
 31
0.0
  0
LINE
  5
235A5
330
747D
100
AcDbEntity
  8
部品1
 48
50.0
100
AcDbLine
 10
8888.600000000009
 20
7027.982835086632
 30
0.0
 11
8888.600000000009
 21
7227.982835086632
 31
0.0
  0
LINE
  5
235A6
330
747D
100
AcDbEntity
  8
部品1
 48
50.0
100
AcDbLine
 10
9088.600000000008
 20
7027.982835086632
 30
0.0
 11
8888.600000000009
 21
7027.982835086632
 31
0.0
  0
LINE
  5
235A7
330
747D
100
AcDbEntity
  8
部品1
 48
50.0
100
AcDbLine
 10
9088.600000000008
 20
7227.982835086632
 30
0.0
 11
8888.600000000009
 21
7227.982835086632
 31
0.0
  0
LINE
  5
235A8
330
747D
100
AcDbEntity
  8
センター
 48
2.0
100
AcDbLine
 10
8938.600000000008
 20
7127.982835086632
 30
0.0
 11
9038.600000000007
 21
7127.982835086632
 31
0.0
  0
LINE
  5
235A9
330
747D
100
AcDbEntity
  8
センター
 48
2.0
100
AcDbLine
 10
9753.600000000007
 20
7177.982835086632
 30
0.0
 11
9753.600000000007
 21
7077.982835086633
 31
0.0
  0
LINE
  5
235AA
330
747D
100
AcDbEntity
  8
部品1
 48
50.0
100
AcDbLine
 10
9653.600000000007
 20
7027.982835086632
 30
0.0
 11
9653.600000000007
 21
7227.982835086632
 31
0.0
  0
LINE
  5
235AB
330
747D
100
AcDbEntity
  8
部品1
 48
50.0
100
AcDbLine
 10
9853.600000000007
 20
7027.982835086632
 30
0.0
 11
9853.600000000007
 21
7227.982835086632
 31
0.0
  0
LINE
  5
235AC
330
747D
100
AcDbEntity
  8
部品1
 48
50.0
100
AcDbLine
 10
9853.600000000007
 20
7027.982835086632
 30
0.0
 11
9653.600000000007
 21
7027.982835086632
 31
0.0
  0
LINE
  5
235AD
330
747D
100
AcDbEntity
  8
部品1
 48
50.0
100
AcDbLine
 10
9853.600000000007
 20
7227.982835086632
 30
0.0
 11
9653.600000000007
 21
7227.982835086632
 31
0.0
  0
LINE
  5
235AE
330
747D
100
AcDbEntity
  8
センター
 48
2.0
100
AcDbLine
 10
9703.600000000008
 20
7127.982835086632
 30
0.0
 11
9803.600000000008
 21
7127.982835086632
 31
0.0
  0
LINE
  5
235AF
330
747D
100
AcDbEntity
  8
部品1
 48
50.0
100
AcDbLine
 10
10618.60000000001
 20
7027.982835086632
 30
0.0
 11
10618.60000000001
 21
7227.982835086632
 31
0.0
  0
LINE
  5
235B0
330
747D
100
AcDbEntity
  8
センター
 48
2.0
100
AcDbLine
 10
10518.60000000001
 20
7177.982835086632
 30
0.0
 11
10518.60000000001
 21
7077.982835086633
 31
0.0
  0
LINE
  5
235B1
330
747D
100
AcDbEntity
  8
部品1
 48
50.0
100
AcDbLine
 10
10418.60000000001
 20
7027.982835086632
 30
0.0
 11
10418.60000000001
 21
7227.982835086632
 31
0.0
  0
LINE
  5
235B2
330
747D
100
AcDbEntity
  8
部品1
 48
50.0
100
AcDbLine
 10
10618.60000000001
 20
7027.982835086632
 30
0.0
 11
10418.60000000001
 21
7027.982835086632
 31
0.0
  0
LINE
  5
235B3
330
747D
100
AcDbEntity
  8
センター
 48
2.0
100
AcDbLine
 10
10468.60000000001
 20
7127.982835086632
 30
0.0
 11
10568.60000000001
 21
7127.982835086632
 31
0.0
  0
LINE
  5
235B4
330
747D
100
AcDbEntity
  8
部品1
 48
50.0
100
AcDbLine
 10
10618.60000000001
 20
7227.982835086632
 30
0.0
 11
10418.60000000001
 21
7227.982835086632
 31
0.0
  0
LINE
  5
235B5
330
747D
100
AcDbEntity
  8
センター
 48
2.0
100
AcDbLine
 10
7408.600000000008
 20
7127.982835086632
 30
0.0
 11
7508.600000000008
 21
7127.982835086632
 31
0.0
  0
LINE
  5
235B6
330
747D
100
AcDbEntity
  8
部品1
 48
50.0
100
AcDbLine
 10
7558.600000000009
 20
7227.982835086632
 30
0.0
 11
7358.600000000008
 21
7227.982835086632
 31
0.0
  0
LINE
  5
235B7
330
747D
100
AcDbEntity
  8
部品1
 48
50.0
100
AcDbLine
 10
7558.600000000009
 20
7027.982835086632
 30
0.0
 11
7358.600000000008
 21
7027.982835086632
 31
0.0
  0
LINE
  5
235B8
330
747D
100
AcDbEntity
  8
部品1
 48
50.0
100
AcDbLine
 10
7558.600000000009
 20
7027.982835086632
 30
0.0
 11
7558.600000000009
 21
7227.982835086632
 31
0.0
  0
LINE
  5
235B9
330
747D
100
AcDbEntity
  8
部品1
 48
50.0
100
AcDbLine
 10
7358.600000000008
 20
7027.982835086632
 30
0.0
 11
7358.600000000008
 21
7227.982835086632
 31
0.0
  0
LINE
  5
235BA
330
747D
100
AcDbEntity
  8
センター
 48
2.0
100
AcDbLine
 10
7458.600000000008
 20
7177.982835086632
 30
0.0
 11
7458.600000000008
 21
7077.982835086633
 31
0.0
  0
LINE
  5
235BB
330
747D
100
AcDbEntity
  8
センター
 48
2.0
100
AcDbLine
 10
6643.600000000008
 20
7127.982835086632
 30
0.0
 11
6743.600000000007
 21
7127.982835086632
 31
0.0
  0
LINE
  5
235BC
330
747D
100
AcDbEntity
  8
部品1
 48
50.0
100
AcDbLine
 10
6793.600000000008
 20
7227.982835086632
 30
0.0
 11
6593.600000000008
 21
7227.982835086632
 31
0.0
  0
LINE
  5
235BD
330
747D
100
AcDbEntity
  8
部品1
 48
50.0
100
AcDbLine
 10
6793.600000000008
 20
7027.982835086632
 30
0.0
 11
6593.600000000008
 21
7027.982835086632
 31
0.0
  0
LINE
  5
235BE
330
747D
100
AcDbEntity
  8
部品1
 48
50.0
100
AcDbLine
 10
6593.600000000008
 20
7027.982835086632
 30
0.0
 11
6593.600000000008
 21
7227.982835086632
 31
0.0
  0
LINE
  5
235BF
330
747D
100
AcDbEntity
  8
センター
 48
2.0
100
AcDbLine
 10
6693.600000000007
 20
7177.982835086632
 30
0.0
 11
6693.600000000007
 21
7077.982835086633
 31
0.0
  0
LINE
  5
235C0
330
747D
100
AcDbEntity
  8
部品1
 48
50.0
100
AcDbLine
 10
6793.600000000008
 20
7027.982835086632
 30
0.0
 11
6793.600000000008
 21
7227.982835086632
 31
0.0
  0
LINE
  5
235C1
330
747D
100
AcDbEntity
  8
部品1
 48
50.0
100
AcDbLine
 10
6028.600000000007
 20
7227.982835086632
 30
0.0
 11
5828.600000000008
 21
7227.982835086632
 31
0.0
  0
LINE
  5
235C2
330
747D
100
AcDbEntity
  8
センター
 48
2.0
100
AcDbLine
 10
5878.600000000008
 20
7127.982835086632
 30
0.0
 11
5978.600000000008
 21
7127.982835086632
 31
0.0
  0
LINE
  5
235C3
330
747D
100
AcDbEntity
  8
部品1
 48
50.0
100
AcDbLine
 10
6028.600000000007
 20
7027.982835086632
 30
0.0
 11
5828.600000000008
 21
7027.982835086632
 31
0.0
  0
LINE
  5
235C4
330
747D
100
AcDbEntity
  8
部品1
 48
50.0
100
AcDbLine
 10
6028.600000000007
 20
7027.982835086632
 30
0.0
 11
6028.600000000007
 21
7227.982835086632
 31
0.0
  0
LINE
  5
235C5
330
747D
100
AcDbEntity
  8
部品1
 48
50.0
100
AcDbLine
 10
5828.600000000008
 20
7027.982835086632
 30
0.0
 11
5828.600000000008
 21
7227.982835086632
 31
0.0
  0
LINE
  5
235C6
330
747D
100
AcDbEntity
  8
センター
 48
2.0
100
AcDbLine
 10
5928.600000000008
 20
7177.982835086632
 30
0.0
 11
5928.600000000008
 21
7077.982835086633
 31
0.0
  0
DIMENSION
  5
235D0
330
747D
100
AcDbEntity
  8
寸法
 48
50.0
100
AcDbDimension
  2
*D46
 10
7842.120515473401
 20
6462.982835086633
 30
0.0
 11
7742.120515473399
 21
6795.482835086634
 31
0.0
 70
    32
 71
     5
 42
665.0
  3
INABA_S40G
100
AcDbAlignedDimension
 13
7558.600000000009
 23
7127.982835086632
 33
0.0
 14
7558.600000000009
 24
6462.982835086633
 34
0.0
 50
90.0
100
AcDbRotatedDimension
1001
ACAD
1000
DSTYLE
1002
{
1070
   341
1005
0
1002
}
  0
LINE
  5
23605
330
747D
100
AcDbEntity
  8
寸法
 48
50.0
100
AcDbLine
 10
6693.600000000007
 20
6392.982835086633
 30
0.0
 11
6693.600000000007
 21
6108.100679195828
 31
0.0
  0
LINE
  5
23606
330
747D
100
AcDbEntity
  8
寸法
 48
50.0
100
AcDbLine
 10
7458.600000000008
 20
6392.982835086633
 30
0.0
 11
7458.600000000008
 21
6108.100679195828
 31
0.0
  0
LINE
  5
23607
330
747D
100
AcDbEntity
  8
寸法
 48
50.0
100
AcDbLine
 10
6693.600000000007
 20
6168.100679195828
 30
0.0
 11
7012.635772834136
 21
6168.100679195828
 31
0.0
  0
INSERT
  5
23608
330
747D
100
AcDbEntity
  8
寸法
 48
50.0
100
AcDbBlockReference
  2
_DOTSMALL
 10
6693.600000000007
 20
6168.100679195828
 30
0.0
 41
100.0
 42
100.0
 43
100.0
 50
180.0
  0
INSERT
  5
23609
330
747D
100
AcDbEntity
  8
寸法
 48
50.0
100
AcDbBlockReference
  2
_DOTSMALL
 10
7458.600000000008
 20
6168.100679195828
 30
0.0
 41
100.0
 42
100.0
 43
100.0
  0
MTEXT
  5
2360A
330
747D
100
AcDbEntity
  8
寸法
 62
     7
 48
50.0
100
AcDbMText
 10
6890.002664205887
 20
6268.100679195828
 30
0.0
 40
120.0
 41
0.0
 71
     5
 72
     1
  1
\A1;765
  7
STYLE1
 73
     1
 44
1.0
1001
ACAD
1000
MTEXTBEGIN
1070
    73
1070
     1
1070
    44
1040
1.0
1070
    74
1070
     0
1000
MTEXTEND
  0
MTEXT
  5
2360B
330
747D
100
AcDbEntity
  8
寸法
 62
     7
 48
50.0
100
AcDbMText
 10
7227.97890130814
 20
6268.100679195828
 30
0.0
 40
120.0
 41
0.0
 71
     5
 72
     1
  1
\A1;765
  7
STYLE1
 73
     1
 44
1.0
1001
ACAD
1000
MTEXTBEGIN
1070
    73
1070
     1
1070
    44
1040
1.0
1070
    74
1070
     0
1000
MTEXTEND
  0
LINE
  5
2360C
330
747D
100
AcDbEntity
  8
寸法
 48
50.0
100
AcDbLine
 10
7043.098571190703
 20
6168.100679195828
 30
0.0
 11
7458.600000000008
 21
6168.100679195828
 31
0.0
  0
TEXT
  5
2363F
330
747D
100
AcDbEntity
  8
文字
 62
     7
 48
50.0
100
AcDbText
 10
7523.76073429603
 20
4467.150556944348
 30
0.0
 40
200.0
  1
〈参 考 図〉
  7
STYLE2
100
AcDbText
  0
LINE
  5
23656
102
{ACAD_REACTORS
330
2367A
102
}
330
747D
100
AcDbEntity
  8
部品1
 48
50.0
100
AcDbLine
 10
5278.6
 20
5927.982835086655
 30
0.0
 11
5278.6
 21
7667.982835086637
 31
0.0
  0
LINE
  5
23657
102
{ACAD_REACTORS
330
2369D
102
}
330
747D
100
AcDbEntity
  8
部品1
 48
50.0
100
AcDbLine
 10
11168.6
 20
5927.982835086655
 30
0.0
 11
11168.6
 21
7667.982835086637
 31
0.0
  0
HATCH
  5
2367A
330
747D
100
AcDbEntity
  8
細線
 48
50.0
100
AcDbHatch
 10
0.0
 20
0.0
 30
0.0
210
0.0
220
0.0
230
1.0
  2
LINE
 70
     0
 71
     1
 91
        1
 92
        7
 72
     0
 73
     1
 93
        4
 10
5278.600000000003
 20
6857.982835086635
 10
5158.6
 20
6857.982835086635
 10
5158.6
 20
6657.982835086635
 10
5278.6
 20
6657.982835086635
 97
        4
330
2075B
330
1FB23
330
2075A
330
23656
 75
     0
 76
     1
 52
45.0
 41
10.0
 77
     0
 78
     1
 53
45.0
 43
0.0
 44
0.0
 45
-22.45064030267288
 46
22.45064030267288
 79
     0
 47
8.653585316877405
 98
        1
 10
5223.052361848619
 20
6751.301131754917
  0
HATCH
  5
2369D
330
747D
100
AcDbEntity
  8
細線
 48
50.0
100
AcDbHatch
 10
0.0
 20
0.0
 30
0.0
210
0.0
220
0.0
230
1.0
  2
LINE
 70
     0
 71
     1
 91
        1
 92
        7
 72
     0
 73
     1
 93
        4
 10
11288.6
 20
6857.982835086635
 10
11168.6
 20
6857.982835086635
 10
11168.6
 20
6657.982835086635
 10
11288.6
 20
6657.982835086636
 97
        4
330
1FC5C
330
23657
330
1FC5D
330
1FC5B
 75
     0
 76
     1
 52
45.0
 41
10.0
 77
     0
 78
     1
 53
45.0
 43
0.0
 44
0.0
 45
-22.45064030267288
 46
22.45064030267288
 79
     0
 47
8.653585316877405
 98
        1
 10
11205.87563966866
 20
6811.876235102033
  0
SPLINE
  5
239FD
330
747D
100
AcDbEntity
  8
細線
 48
50.0
100
AcDbSpline
210
0.0
220
0.0
230
1.0
 70
     8
 71
     3
 72
    10
 73
     6
 74
     4
 42
0.0000000001
 43
0.0000000001
 44
0.0000000001
 40
0.0
 40
0.0
 40
0.0
 40
0.0
 40
221.8151349015015
 40
452.7136639803716
 40
699.7573834631605
 40
699.7573834631605
 40
699.7573834631605
 40
699.7573834631605
 10
7219.701027965982
 20
6893.663940481721
 30
0.0
 10
7104.37850422373
 20
6880.307289994965
 30
0.0
 10
6869.010965908538
 20
6853.047030305964
 30
0.0
 10
7353.231080825056
 20
6699.266153346953
 30
0.0
 10
7098.467151320995
 20
6671.313520278646
 30
0.0
 10
6966.782143510653
 20
6656.865074962682
 30
0.0
 11
7219.701027965982
 21
6893.663940481721
 31
0.0
 11
7005.444060502829
 21
6836.253959077229
 31
0.0
 11
7205.408052381589
 21
6720.804694537794
 31
0.0
 11
6966.782143510653
 21
6656.865074962682
 31
0.0
  0
LINE
  5
239FE
330
747D
100
AcDbEntity
  8
細線
 48
50.0
100
AcDbLine
 10
7300.164016427185
 20
8109.904972780409
 30
0.0
 11
6920.222187405936
 21
5430.919842553618
 31
0.0
  0
LINE
  5
23EE6
330
747D
100
AcDbEntity
  8
部品1
100
AcDbLine
 10
11264.79562931082
 20
3187.611223188281
 30
0.0
 11
5193.81044392457
 21
3187.61122318828
 31
0.0
  0
LINE
  5
23EE7
330
747D
100
AcDbEntity
  8
部品1
100
AcDbLine
 10
11264.79562931082
 20
2947.611223188278
 30
0.0
 11
5193.810443924575
 21
2947.611223188279
 31
0.0
  0
LINE
  5
23EE8
330
747D
100
AcDbEntity
  8
部品1
100
AcDbLine
 10
5193.810443924576
 20
223.3042536036332
 30
0.0
 11
11264.79562931082
 21
223.3042536036332
 31
0.0
  0
LEADER
  5
23EE9
330
747D
100
AcDbEntity
  8
寸法
 48
50.0
100
AcDbLeader
  3
INABA_S40G
 73
     0
 74
     0
 75
     1
 40
102.2727272727273
 41
680.0000000000001
 76
     3
 10
8201.918195911028
 20
2265.514884520579
 30
0.0
 10
8246.272167024384
 20
2660.967695627119
 30
0.0
 10
8346.272167024386
 20
2660.967695627119
 30
0.0
1001
ACAD
1000
DSTYLE
1002
{
1070
   174
1070
     0
1070
   272
1070
     1
1070
   279
1070
     1
1070
   288
1070
     0
1070
   341
1005
0
1002
}
  0
MTEXT
  5
23EEA
102
{ACAD_REACTORS
330
23EE9
102
}
330
747D
100
AcDbEntity
  8
部品1
 62
     7
 48
50.0
100
AcDbMText
 10
8386.272167024385
 20
2752.104059263484
 30
0.0
 40
80.0
 41
0.8
 71
     4
 72
     1
  1
\A1;ナット(市販品)
  7
STYLE2
 73
     1
 44
1.0
1001
ACAD
1000
MTEXTBEGIN
1070
    73
1070
     1
1070
    44
1040
1.0
1070
    74
1070
     0
1000
MTEXTEND
  0
LEADER
  5
23EEB
330
747D
100
AcDbEntity
  8
寸法
 48
50.0
100
AcDbLeader
  3
INABA_S40G
 73
     0
 74
     0
 75
     1
 40
102.2727272727273
 41
906.8181818181818
 76
     3
 10
8225.918195911027
 20
2135.762891855716
 30
0.0
 10
8277.789786279866
 20
2475.998612862332
 30
0.0
 10
8377.789786279867
 20
2475.998612862332
 30
0.0
1001
ACAD
1000
DSTYLE
1002
{
1070
   174
1070
     0
1070
   272
1070
     1
1070
   279
1070
     1
1070
   288
1070
     0
1070
   341
1005
0
1002
}
  0
MTEXT
  5
23EEC
102
{ACAD_REACTORS
330
23EEB
102
}
330
747D
100
AcDbEntity
  8
部品1
 62
     7
 48
50.0
100
AcDbMText
 10
8417.789786279866
 20
2567.134976498696
 30
0.0
 40
80.0
 41
0.8
 71
     4
 72
     1
  1
\A1;ワッシャー(市販品)
  7
STYLE2
 73
     1
 44
1.0
1001
ACAD
1000
MTEXTBEGIN
1070
    73
1070
     1
1070
    44
1040
1.0
1070
    74
1070
     0
1000
MTEXTEND
  0
LWPOLYLINE
  5
23EED
330
747D
100
AcDbEntity
  8
部品1
 48
50.0
100
AcDbPolyline
 90
        2
 70
     0
 43
8.0
 10
8378.518195911027
 20
1626.639603411436
 10
8672.220659310413
 20
1626.639603411436
  0
TEXT
  5
23EEE
330
747D
100
AcDbEntity
  8
部品1
 48
50.0
100
AcDbText
 10
8382.871780195456
 20
2222.518284173636
 30
0.0
 40
80.0
  1
基礎ボルト(市販品)
  7
STYLE2
100
AcDbText
  0
DIMENSION
  5
23EEF
330
747D
100
AcDbEntity
  8
寸法
 48
50.0
100
AcDbDimension
  2
*D59
 10
8880.386795679871
 20
1542.639603411434
 30
0.0
 11
8780.386795679872
 21
1704.639603411436
 31
0.0
 70
    32
  1
180
 71
     5
 42
324.0000000000009
  3
INABA_S40G
100
AcDbAlignedDimension
 13
8378.518195911027
 23
1866.639603411435
 33
0.0
 14
8378.518195911027
 24
1542.639603411434
 34
0.0
 50
90.0
100
AcDbRotatedDimension
1001
ACAD
1000
DSTYLE
1002
{
1070
   174
1070
     0
1070
   272
1070
     1
1070
   279
1070
     1
1070
   288
1070
     0
1070
   341
1005
0
1002
}
  0
DIMENSION
  5
23EF0
330
747D
100
AcDbEntity
  8
寸法
 48
50.0
100
AcDbDimension
  2
*D60
 10
8880.386795679871
 20
1866.639603411435
 30
0.0
 11
9156.441461798898
 21
1841.515645807224
 31
0.0
 70
   160
  1
20～25
 71
     5
 42
52.76000000000113
  3
INABA_S40G
100
AcDbAlignedDimension
 13
8191.31819591103
 23
1919.399603411436
 33
0.0
 14
8378.518195911027
 24
1866.639603411435
 34
0.0
 50
90.0
100
AcDbRotatedDimension
1001
ACAD
1000
DSTYLE
1002
{
1070
   174
1070
     0
1070
   272
1070
     1
1070
   279
1070
     1
1070
   288
1070
     0
1070
   341
1005
0
1002
}
  0
MTEXT
  5
23EF1
102
{ACAD_REACTORS
330
23EF2
102
}
330
747D
100
AcDbEntity
  8
部品1
 62
     7
 48
50.0
100
AcDbMText
 10
8387.462658330347
 20
2131.022929564665
 30
0.0
 40
80.0
 41
0.8
 71
     4
 72
     1
  1
M10X160
  7
STYLE2
 73
     1
 44
1.0
1001
ACAD
1000
MTEXTBEGIN
1070
    73
1070
     1
1070
    44
1040
1.0
1070
    74
1070
     0
1000
MTEXTEND
  0
LEADER
  5
23EF2
330
747D
100
AcDbEntity
  8
寸法
 48
50.0
100
AcDbLeader
  3
INABA_S40G
 73
     0
 74
     0
 75
     1
 40
80.0
 41
435.0
 76
     3
 10
8194.918195911029
 20
1915.799603411436
 30
0.0
 10
8247.462658330347
 20
2051.022929564666
 30
0.0
 10
8347.462658330348
 20
2051.022929564666
 30
0.0
1001
ACAD
1000
DSTYLE
1002
{
1070
   174
1070
     0
1070
   272
1070
     1
1070
   279
1070
     1
1070
   288
1070
     0
1070
   341
1005
0
1002
}
  0
LINE
  5
23EF3
330
747D
100
AcDbEntity
  8
部品1
100
AcDbLine
 10
5193.810443924572
 20
3187.611223188281
 30
0.0
 11
5193.810443924575
 21
223.3042536036332
 31
0.0
  0
LEADER
  5
23EF4
330
747D
100
AcDbEntity
  8
寸法
 48
50.0
100
AcDbLeader
  3
INABA_S40G
 73
     0
 75
     1
 40
113.1818181818182
 41
608.6363636363635
 76
     3
 10
8154.654946049079
 20
1816.155276769714
 30
0.0
 10
8010.851117357731
 20
2652.534359126192
 30
0.0
 10
7910.851117357731
 20
2652.534359126192
 30
0.0
1001
ACAD
1000
DSTYLE
1002
{
1070
   174
1070
     0
1070
   272
1070
     1
1070
   279
1070
     1
1070
   288
1070
     0
1070
   341
1005
0
1002
}
  0
MTEXT
  5
23EF5
102
{ACAD_REACTORS
330
23EF4
102
}
330
747D
100
AcDbEntity
  8
寸法
 62
     7
 48
50.0
100
AcDbMText
 10
7870.851117357732
 20
2749.125268217101
 30
0.0
 40
80.0
 41
0.8
 71
     6
 72
     1
  1
\A1;φ70スリーブ
  7
STYLE2
 73
     1
 44
1.0
1001
ACAD
1000
MTEXTBEGIN
1070
    73
1070
     1
1070
    44
1040
1.0
1070
    74
1070
     0
1000
MTEXTEND
  0
LWPOLYLINE
  5
23EF6
330
747D
100
AcDbEntity
  8
部品1
 48
50.0
100
AcDbPolyline
 90
        2
 70
     0
 43
8.0
 10
5850.338980900879
 20
1626.639603411436
 10
6264.478882733835
 20
1626.639603411436
  0
TEXT
  5
23EF7
330
747D
100
AcDbEntity
  8
部品1
 48
50.0
100
AcDbText
 10
5850.338980900879
 20
1637.878595694691
 30
0.0
 40
80.0
  1
▽G.L
  7
STYLE2
100
AcDbText
  0
DIMENSION
  5
23EF8
330
747D
100
AcDbEntity
  8
寸法
 48
50.0
100
AcDbDimension
  2
*D61
 10
5994.058569001376
 20
1082.639603411435
 30
0.0
 11
5994.058569001376
 21
1202.639603411435
 31
0.0
 70
   160
  1
150
 71
     5
 42
240.0
  3
INABA_S40G
100
AcDbAlignedDimension
 13
6136.478882733835
 23
1322.639603411435
 33
0.0
 14
6056.478882733839
 24
1082.639603411435
 34
0.0
 50
90.0
100
AcDbRotatedDimension
1001
ACAD
1000
DSTYLE
1002
{
1070
   174
1070
     0
1070
   272
1070
     1
1070
   279
1070
     1
1070
   288
1070
     0
1070
   341
1005
0
1002
}
  0
LEADER
  5
23EF9
330
747D
100
AcDbEntity
  8
寸法
 48
50.0
100
AcDbLeader
  3
INABA_S40G
 71
     0
 73
     0
 75
     1
 40
100.0
 41
225.0
 76
     3
 10
6232.381835085978
 20
1202.639603411435
 30
0.0
 10
6085.543856538642
 20
939.1169097929992
 30
0.0
 10
5985.543856538641
 20
939.1169097929992
 30
0.0
1001
ACAD
1000
DSTYLE
1002
{
1070
   174
1070
     0
1070
   272
1070
     1
1070
   279
1070
     1
1070
   288
1070
     0
1070
   341
1005
0
1002
}
  0
LEADER
  5
23EFA
330
747D
100
AcDbEntity
  8
寸法
 48
50.0
100
AcDbLeader
  3
INABA_S40G
 71
     0
 73
     0
 75
     1
 40
100.0
 41
222.7272727272727
 76
     3
 10
6360.478882733835
 20
1202.639603411435
 30
0.0
 10
6113.666584096076
 20
758.8007572535557
 30
0.0
 10
6013.666584096076
 20
758.8007572535557
 30
0.0
1001
ACAD
1000
DSTYLE
1002
{
1070
   174
1070
     0
1070
   272
1070
     1
1070
   279
1070
     1
1070
   288
1070
     0
1070
   341
1005
0
1002
}
  0
MTEXT
  5
23EFB
102
{ACAD_REACTORS
330
23EFC
102
}
330
747D
100
AcDbEntity
  8
寸法
 62
     7
 48
50.0
100
AcDbMText
 10
6175.228828511031
 20
1467.940206228892
 30
0.0
 40
80.0
 41
0.8
 71
     6
 72
     1
  1
\A1;D10@300
  7
STYLE2
 73
     1
 44
1.0
1001
ACAD
1000
MTEXTBEGIN
1070
    73
1070
     1
1070
    44
1040
1.0
1070
    74
1070
     0
1000
MTEXTEND
  0
LEADER
  5
23EFC
330
747D
100
AcDbEntity
  8
寸法
 48
50.0
100
AcDbLeader
  3
INABA_S40G
 71
     0
 73
     0
 75
     1
 40
100.0
 41
540.3409090909091
 76
     3
 10
6368.478882733835
 20
1624.766818108559
 30
0.0
 10
6285.496646205137
 20
1403.296489567753
 30
0.0
 10
6185.496646205137
 20
1403.296489567753
 30
0.0
213
-9.732182305893367
223
-4.643716661138569
233
0.0
1001
ACAD
1000
DSTYLE
1002
{
1070
   174
1070
     0
1070
   272
1070
     1
1070
   279
1070
     1
1070
   288
1070
     0
1070
   341
1005
0
1002
}
  0
LEADER
  5
23EFD
330
747D
100
AcDbEntity
  8
寸法
 48
50.0
100
AcDbLeader
  3
INABA_S40G
 71
     0
 73
     0
 75
     1
 40
130.1136363636363
 41
651.1363636363636
 76
     3
 10
6344.478882733835
 20
1866.639603411435
 30
0.0
 10
6207.054302569819
 20
2007.110368868024
 30
0.0
 10
6107.054302569819
 20
2007.110368868024
 30
0.0
1001
ACAD
1000
DSTYLE
1002
{
1070
   174
1070
     0
1070
   272
1070
     1
1070
   279
1070
     1
1070
   288
1070
     0
1070
   341
1005
0
1002
}
  0
MTEXT
  5
23EFE
102
{ACAD_REACTORS
330
23EFD
102
}
330
747D
100
AcDbEntity
  8
寸法
 62
     7
 48
50.0
100
AcDbMText
 10
6044.380403250563
 20
2079.155823413478
 30
0.0
 40
80.0
 41
0.8
 71
     6
 72
     1
  1
\A1;金コテ押エ
  7
STYLE2
 73
     1
 44
1.0
1001
ACAD
1000
MTEXTBEGIN
1070
    73
1070
     1
1070
    44
1040
1.0
1070
    74
1070
     0
1000
MTEXTEND
  0
DIMENSION
  5
23EFF
330
747D
100
AcDbEntity
  8
寸法
 48
50.0
100
AcDbDimension
  2
*D62
 10
5529.441644172095
 20
1082.639603411435
 30
0.0
 11
5529.441644172095
 21
1454.179753067436
 31
0.0
 70
   160
  1
540
 71
     5
 42
784.0
  3
INABA_S40G
100
AcDbAlignedDimension
 13
6264.478882733835
 23
1866.639603411435
 33
0.0
 14
6056.478882733839
 24
1082.639603411435
 34
0.0
 50
90.0
100
AcDbRotatedDimension
1001
ACAD
1000
DSTYLE
1002
{
1070
   174
1070
     0
1070
   272
1070
     1
1070
   279
1070
     1
1070
   288
1070
     0
1070
   341
1005
0
1002
}
  0
MTEXT
  5
23F00
102
{ACAD_REACTORS
330
23EFA
102
}
330
747D
100
AcDbEntity
  8
寸法
 62
     7
 48
50.0
100
AcDbMText
 10
5993.666584096075
 20
818.8007572535557
 30
0.0
 40
80.0
 41
0.8
 71
     6
 72
     1
  1
D13
  7
STYLE2
 73
     1
 44
1.0
1001
ACAD
1000
MTEXTBEGIN
1070
    73
1070
     1
1070
    44
1040
1.0
1070
    74
1070
     0
1000
MTEXTEND
  0
MTEXT
  5
23F01
102
{ACAD_REACTORS
330
23EF9
102
}
330
747D
100
AcDbEntity
  8
寸法
 62
     7
 48
50.0
100
AcDbMText
 10
5965.543856538641
 20
999.1169097929992
 30
0.0
 40
80.0
 41
0.8
 71
     6
 72
     1
  1
D10
  7
STYLE2
 73
     1
 44
1.0
1001
ACAD
1000
MTEXTBEGIN
1070
    73
1070
     1
1070
    44
1040
1.0
1070
    74
1070
     0
1000
MTEXTEND
  0
DIMENSION
  5
23F02
330
747D
100
AcDbEntity
  8
寸法
 48
50.0
100
AcDbDimension
  2
*D63
 10
6584.478882733835
 20
544.2099654062753
 30
0.0
 11
6340.382124055611
 21
544.2099654062753
 31
0.0
 70
   160
  1
300
 71
     5
 42
448.0
  3
INABA_S40G
100
AcDbAlignedDimension
 13
6136.478882733835
 23
954.6396034114355
 33
0.0
 14
6584.478882733835
 24
954.6396034114355
 34
0.0
100
AcDbRotatedDimension
1001
ACAD
1000
DSTYLE
1002
{
1070
   174
1070
     0
1070
   272
1070
     1
1070
   279
1070
     1
1070
   288
1070
     0
1070
   341
1005
0
1002
}
  0
MTEXT
  5
23F03
102
{ACAD_REACTORS
330
23F04
102
}
330
747D
100
AcDbEntity
  8
寸法
 62
     7
 48
50.0
100
AcDbMText
 10
7897.494123566092
 20
2388.440996309587
 30
0.0
 40
80.0
 41
0.8
 71
     6
 72
     1
  1
アンカープレート {\fArial|b0|i0|c0|p32;L}
  7
STYLE2
 73
     1
 44
1.0
1001
ACAD
1000
MTEXTBEGIN
1070
    73
1070
     1
1070
    44
1040
1.0
1070
    74
1070
     0
1000
MTEXTEND
  0
LEADER
  5
23F04
330
747D
100
AcDbEntity
  8
寸法
 48
50.0
100
AcDbLeader
  3
INABA_S40G
 73
     0
 75
     1
 40
106.3636363636363
 41
903.5235024184547
 76
     3
 10
8095.918195911028
 20
1936.199603411437
 30
0.0
 10
8037.494123566091
 20
2295.259178127769
 30
0.0
 10
7937.494123566091
 20
2295.259178127769
 30
0.0
1001
ACAD
1000
DSTYLE
1002
{
1070
   174
1070
     0
1070
   272
1070
     1
1070
   279
1070
     1
1070
   288
1070
     0
1070
   341
1005
0
1002
}
  0
LINE
  5
23F05
330
747D
100
AcDbEntity
  8
細線
 48
50.0
100
AcDbLine
 10
6384.478882733836
 20
1705.012496079266
 30
0.0
 11
6456.478882733836
 21
1777.012496079266
 31
0.0
  0
ARC
  5
23F06
330
747D
100
AcDbEntity
  8
部品1
 48
50.0
100
AcDbCircle
 10
6360.478882733836
 20
1726.894032805681
 30
0.0
 40
24.0
100
AcDbArc
 50
0.0
 51
180.0
  0
CIRCLE
  5
23F07
330
747D
100
AcDbEntity
  8
部品1
 48
50.0
100
AcDbCircle
 10
6360.478882733836
 20
1726.894032805681
 30
0.0
 40
8.0
  0
LINE
  5
23F08
330
747D
100
AcDbEntity
  8
部品1
 48
50.0
100
AcDbLine
 10
6264.478882733836
 20
1322.639603411435
 30
0.0
 11
6264.478882733836
 21
1866.639603411435
 31
0.0
  0
LINE
  5
23F09
330
747D
100
AcDbEntity
  8
部品1
 48
50.0
100
AcDbLine
 10
6456.478882733836
 20
1866.639603411435
 30
0.0
 11
6456.478882733836
 21
1322.639603411435
 31
0.0
  0
MTEXT
  5
23F0A
102
{ACAD_REACTORS
330
23F0F
102
}
330
747D
100
AcDbEntity
  8
寸法
 62
     7
 48
50.0
100
AcDbMText
 10
6539.364819761231
 20
1727.907164710363
 30
0.0
 40
80.0
 41
0.8
 71
     4
 72
     1
  1
D13
  7
STYLE2
 73
     1
 44
1.0
1001
ACAD
1000
MTEXTBEGIN
1070
    73
1070
     1
1070
    44
1040
1.0
1070
    74
1070
     0
1000
MTEXTEND
  0
LEADER
  5
23F0B
330
747D
100
AcDbEntity
  8
寸法
 48
50.0
100
AcDbLeader
  3
INABA_S40G
 71
     0
 73
     0
 74
     0
 75
     1
 40
100.0
 41
225.0
 76
     3
 10
6488.381835085978
 20
1202.639603411435
 30
0.0
 10
6567.80654254052
 20
1107.242534468463
 30
0.0
 10
6667.806542540521
 20
1107.242534468463
 30
0.0
1001
ACAD
1000
DSTYLE
1002
{
1070
   174
1070
     0
1070
   272
1070
     1
1070
   279
1070
     1
1070
   288
1070
     0
1070
   341
1005
0
1002
}
  0
LEADER
  5
23F0C
330
747D
100
AcDbEntity
  8
寸法
 48
50.0
100
AcDbLeader
  3
INABA_S40G
 71
     0
 73
     0
 74
     0
 75
     1
 40
100.0
 41
540.3409090909091
 76
     3
 10
6434.42405174701
 20
1185.89907299791
 30
0.0
 10
6578.217338595087
 20
844.2682550030125
 30
0.0
 10
6678.217338595087
 20
844.2682550030125
 30
0.0
213
0.0
223
-1.022262676269383
233
0.0
1001
ACAD
1000
DSTYLE
1002
{
1070
   174
1070
     0
1070
   272
1070
     1
1070
   279
1070
     1
1070
   288
1070
     0
1070
   341
1005
0
1002
}
  0
MTEXT
  5
23F0D
102
{ACAD_REACTORS
330
23F0B
102
}
330
747D
100
AcDbEntity
  8
寸法
 62
     7
 48
50.0
100
AcDbMText
 10
6687.80654254052
 20
1167.242534468463
 30
0.0
 40
80.0
 41
0.8
 71
     4
 72
     1
  1
D10
  7
STYLE2
 73
     1
 44
1.0
1001
ACAD
1000
MTEXTBEGIN
1070
    73
1070
     1
1070
    44
1040
1.0
1070
    74
1070
     0
1000
MTEXTEND
  0
LWPOLYLINE
  5
23F0E
330
747D
100
AcDbEntity
  8
部品1
 48
50.0
100
AcDbPolyline
 90
        2
 70
     0
 43
8.0
 10
6456.478882733835
 20
1626.639603411436
 10
6870.618784566793
 20
1626.639603411436
  0
LEADER
  5
23F0F
330
747D
100
AcDbEntity
  8
寸法
 48
50.0
100
AcDbLeader
  3
INABA_S40G
 71
     0
 73
     0
 74
     0
 75
     1
 40
100.0
 41
222.7272727272727
 76
     3
 10
6360.478882733835
 20
1726.894032805681
 30
0.0
 10
6419.364819761231
 20
1667.907164710363
 30
0.0
 10
6519.36481976123
 20
1667.907164710363
 30
0.0
1001
ACAD
1000
DSTYLE
1002
{
1070
   174
1070
     0
1070
   272
1070
     1
1070
   279
1070
     1
1070
   288
1070
     0
1070
   341
1005
0
1002
}
  0
LINE
  5
23F10
330
747D
100
AcDbEntity
  8
細線
 48
50.0
100
AcDbLine
 10
6136.478882733829
 20
1241.486349173606
 30
0.0
 11
6217.632136971665
 21
1322.639603411435
 31
0.0
  0
LINE
  5
23F11
330
747D
100
AcDbEntity
  8
細線
 48
50.0
100
AcDbLine
 10
6344.34473021124
 20
1260.766818108558
 30
0.0
 11
6368.478882733842
 21
1284.900970631157
 31
0.0
  0
LINE
  5
23F12
330
747D
100
AcDbEntity
  8
細線
 48
50.0
100
AcDbLine
 10
6251.276747150908
 20
1194.639603411435
 30
0.0
 11
6368.478882733836
 21
1311.841738994361
 31
0.0
  0
LINE
  5
23F13
330
747D
100
AcDbEntity
  8
部品1
 48
50.0
100
AcDbLine
 10
6136.478882733836
 20
1082.639603411435
 30
0.0
 11
6136.478882733836
 21
1322.639603411435
 31
0.0
  0
LINE
  5
23F14
330
747D
100
AcDbEntity
  8
細線
 48
50.0
100
AcDbLine
 10
6493.74366241978
 20
1194.639603411435
 30
0.0
 11
6584.478882733836
 21
1285.374823725494
 31
0.0
  0
LINE
  5
23F15
330
747D
100
AcDbEntity
  8
細線
 48
50.0
100
AcDbLine
 10
6466.802894056563
 20
1194.639603411435
 30
0.0
 11
6584.478882733836
 21
1312.315592088701
 31
0.0
  0
LINE
  5
23F16
330
747D
100
AcDbEntity
  8
部品1
 48
50.0
100
AcDbLine
 10
6584.478882733836
 20
1322.639603411435
 30
0.0
 11
6584.478882733836
 21
1082.639603411435
 31
0.0
  0
LINE
  5
23F17
330
747D
100
AcDbEntity
  8
部品1
 48
50.0
100
AcDbLine
 10
6384.478882733842
 20
1202.639603411435
 30
0.0
 11
6384.478882733836
 21
1726.894032805681
 31
0.0
  0
LINE
  5
23F18
330
747D
100
AcDbEntity
  8
部品1
 48
50.0
100
AcDbLine
 10
6368.478882733842
 20
1202.639603411435
 30
0.0
 11
6368.478882733828
 21
1726.894032805681
 31
0.0
  0
LINE
  5
23F19
330
747D
100
AcDbEntity
  8
細線
 48
50.0
100
AcDbLine
 10
6352.478882733836
 20
1241.960202267947
 30
0.0
 11
6368.478882733842
 21
1257.960202267947
 31
0.0
  0
LINE
  5
23F1A
330
747D
100
AcDbEntity
  8
細線
 48
50.0
100
AcDbLine
 10
6341.661722229851
 20
954.6396034114355
 30
0.0
 11
6375.959218861034
 21
1082.639603411435
 31
0.0
  0
LINE
  5
23F1B
330
747D
100
AcDbEntity
  8
部品1
 48
50.0
100
AcDbLine
 10
6664.47888273384
 20
954.6396034114355
 30
0.0
 11
6056.478882733838
 21
954.6396034114355
 31
0.0
  0
LINE
  5
23F1C
330
747D
100
AcDbEntity
  8
部品1
 48
50.0
100
AcDbLine
 10
6192.478882733836
 20
1178.639603411435
 30
0.0
 11
6528.478882733836
 21
1178.639603411435
 31
0.0
  0
LINE
  5
23F1D
330
747D
100
AcDbEntity
  8
部品1
 48
50.0
100
AcDbLine
 10
6192.478882733836
 20
1194.639603411435
 30
0.0
 11
6528.478882733836
 21
1194.639603411435
 31
0.0
  0
LINE
  5
23F1E
330
747D
100
AcDbEntity
  8
部品1
 48
50.0
100
AcDbLine
 10
6664.47888273384
 20
1082.639603411435
 30
0.0
 11
6056.478882733838
 21
1082.639603411435
 31
0.0
  0
CIRCLE
  5
23F1F
330
747D
100
AcDbEntity
  8
部品1
 48
50.0
100
AcDbCircle
 10
6360.478882733836
 20
1202.639603411435
 30
0.0
 40
8.0
  0
LINE
  5
23F20
330
747D
100
AcDbEntity
  8
細線
 48
50.0
100
AcDbLine
 10
6354.802894056569
 20
1082.639603411435
 30
0.0
 11
6450.802894056569
 21
1178.639603411435
 31
0.0
  0
LINE
  5
23F21
330
747D
100
AcDbEntity
  8
細線
 48
50.0
100
AcDbLine
 10
6183.885632335353
 20
954.6396034114355
 30
0.0
 11
6218.183128966535
 21
1082.639603411435
 31
0.0
  0
LINE
  5
23F22
330
747D
100
AcDbEntity
  8
細線
 48
50.0
100
AcDbLine
 10
6262.773677282598
 20
954.6396034114335
 30
0.0
 11
6297.071173913781
 21
1082.639603411434
 31
0.0
  0
LINE
  5
23F23
330
747D
100
AcDbEntity
  8
細線
 48
50.0
100
AcDbLine
 10
6104.997587388094
 20
954.6396034114335
 30
0.0
 11
6139.295084019277
 21
1082.639603411434
 31
0.0
  0
LINE
  5
23F24
330
747D
100
AcDbEntity
  8
部品1
 48
50.0
100
AcDbLine
 10
6056.478882733838
 20
954.6396034114355
 30
0.0
 11
6056.478882733838
 21
1082.639603411435
 31
0.0
  0
LINE
  5
23F25
330
747D
100
AcDbEntity
  8
細線
 48
50.0
100
AcDbLine
 10
6190.316412953698
 20
978.6396034114355
 30
0.0
 11
6196.747193572046
 21
954.6396034114355
 31
0.0
  0
LINE
  5
23F26
330
747D
100
AcDbEntity
  8
細線
 48
50.0
100
AcDbLine
 10
6111.428368006447
 20
978.6396034114355
 30
0.0
 11
6117.859148624793
 21
954.6396034114355
 31
0.0
  0
LINE
  5
23F27
330
747D
100
AcDbEntity
  8
細線
 48
50.0
100
AcDbLine
 10
6348.092502848203
 20
978.6396034114355
 30
0.0
 11
6354.52328346655
 21
954.6396034114355
 31
0.0
  0
LINE
  5
23F28
330
747D
100
AcDbEntity
  8
細線
 48
50.0
100
AcDbLine
 10
6269.204457900951
 20
978.6396034114355
 30
0.0
 11
6275.635238519297
 21
954.6396034114355
 31
0.0
  0
LINE
  5
23F29
330
747D
100
AcDbEntity
  8
細線
 48
50.0
100
AcDbLine
 10
6166.217515514119
 20
1082.639603411435
 30
0.0
 11
6262.217515514119
 21
1178.639603411435
 31
0.0
  0
LINE
  5
23F2A
330
747D
100
AcDbEntity
  8
細線
 48
50.0
100
AcDbLine
 10
6139.276747150908
 20
1082.639603411435
 30
0.0
 11
6235.276747150908
 21
1178.639603411435
 31
0.0
  0
LINE
  5
23F2B
330
747D
100
AcDbEntity
  8
部品1
 48
50.0
100
AcDbLine
 10
6192.478882733836
 20
1194.639603411435
 30
0.0
 11
6192.478882733836
 21
1178.639603411435
 31
0.0
  0
LINE
  5
23F2C
330
747D
100
AcDbEntity
  8
細線
 48
50.0
100
AcDbLine
 10
6132.864303400936
 20
1058.639603411435
 30
0.0
 11
6126.433522782589
 21
1082.639603411435
 31
0.0
  0
LINE
  5
23F2D
330
747D
100
AcDbEntity
  8
細線
 48
50.0
100
AcDbLine
 10
6056.478882733836
 20
1067.979524377215
 30
0.0
 11
6060.407039072032
 21
1082.639603411435
 31
0.0
  0
LINE
  5
23F2E
330
747D
100
AcDbEntity
  8
部品1
 48
50.0
100
AcDbLine
 10
6352.478882733836
 20
1260.766818108558
 30
0.0
 11
6336.478882733836
 21
1260.766818108558
 31
0.0
  0
CIRCLE
  5
23F2F
330
747D
100
AcDbEntity
  8
部品1
 48
50.0
100
AcDbCircle
 10
6232.478882733836
 20
1202.639603411435
 30
0.0
 40
8.0
  0
LINE
  5
23F30
330
747D
100
AcDbEntity
  8
細線
 48
50.0
100
AcDbLine
 10
6305.158283877325
 20
1194.639603411435
 30
0.0
 11
6336.478882733836
 21
1225.960202267947
 31
0.0
  0
ARC
  5
23F31
330
747D
100
AcDbEntity
  8
部品1
 48
50.0
100
AcDbCircle
 10
6360.478882733836
 20
1202.639603411435
 30
0.0
 40
24.0
100
AcDbArc
 50
180.0
 51
199.471220634482
  0
LINE
  5
23F32
330
747D
100
AcDbEntity
  8
細線
 48
50.0
100
AcDbLine
 10
6211.752348348188
 20
1058.639603411435
 30
0.0
 11
6205.321567729841
 21
1082.639603411435
 31
0.0
  0
LINE
  5
23F33
330
747D
100
AcDbEntity
  8
細線
 48
50.0
100
AcDbLine
 10
6290.64039329544
 20
1058.639603411435
 30
0.0
 11
6284.209612677094
 21
1082.639603411435
 31
0.0
  0
LINE
  5
23F34
330
747D
100
AcDbEntity
  8
細線
 48
50.0
100
AcDbLine
 10
6193.158283877324
 20
1082.639603411435
 30
0.0
 11
6289.158283877324
 21
1178.639603411435
 31
0.0
  0
LINE
  5
23F35
330
747D
100
AcDbEntity
  8
部品1
 48
50.0
100
AcDbLine
 10
6336.478882733836
 20
1260.766818108558
 30
0.0
 11
6336.478882733836
 21
1202.639603411435
 31
0.0
  0
LINE
  5
23F36
330
747D
100
AcDbEntity
  8
細線
 48
50.0
100
AcDbLine
 10
6278.217515514119
 20
1194.639603411435
 30
0.0
 11
6336.478882733836
 21
1252.900970631154
 31
0.0
  0
LINE
  5
23F37
330
747D
100
AcDbEntity
  8
部品1
 48
50.0
100
AcDbLine
 10
6352.478882733836
 20
1260.766818108558
 30
0.0
 11
6352.478882733836
 21
1202.639603411435
 31
0.0
  0
LINE
  5
23F38
330
747D
100
AcDbEntity
  8
部品1
 48
50.0
100
AcDbLine
 10
6664.47888273384
 20
1082.639603411435
 30
0.0
 11
6664.47888273384
 21
954.6396034114355
 31
0.0
  0
LINE
  5
23F39
330
747D
100
AcDbEntity
  8
細線
 48
50.0
100
AcDbLine
 10
6578.32585707159
 20
954.6396034114355
 30
0.0
 11
6612.623353702774
 21
1082.639603411434
 31
0.0
  0
LINE
  5
23F3A
330
747D
100
AcDbEntity
  8
細線
 48
50.0
100
AcDbLine
 10
6420.549767177096
 20
954.6396034114355
 30
0.0
 11
6454.847263808282
 21
1082.639603411434
 31
0.0
  0
LINE
  5
23F3B
330
747D
100
AcDbEntity
  8
細線
 48
50.0
100
AcDbLine
 10
6499.437812124345
 20
954.6396034114335
 30
0.0
 11
6533.73530875553
 21
1082.639603411434
 31
0.0
  0
LINE
  5
23F3C
330
747D
100
AcDbEntity
  8
細線
 48
50.0
100
AcDbLine
 10
6505.868592742693
 20
978.6396034114355
 30
0.0
 11
6512.299373361042
 21
954.6396034114355
 31
0.0
  0
LINE
  5
23F3D
330
747D
100
AcDbEntity
  8
細線
 48
50.0
100
AcDbLine
 10
6426.980547795449
 20
978.6396034114355
 30
0.0
 11
6433.411328413794
 21
954.6396034114355
 31
0.0
  0
LINE
  5
23F3E
330
747D
100
AcDbEntity
  8
細線
 48
50.0
100
AcDbLine
 10
6584.756637689941
 20
978.6396034114355
 30
0.0
 11
6591.187418308289
 21
954.6396034114355
 31
0.0
  0
LINE
  5
23F3F
330
747D
100
AcDbEntity
  8
細線
 48
50.0
100
AcDbLine
 10
6663.644682637188
 20
978.6396034114355
 30
0.0
 11
6664.478882733836
 21
975.5263262670709
 31
0.0
  0
LINE
  5
23F40
330
747D
100
AcDbEntity
  8
細線
 48
50.0
100
AcDbLine
 10
6657.213902018838
 20
954.6396034114335
 30
0.0
 11
6664.478882733836
 21
981.7528805558236
 31
0.0
  0
LINE
  5
23F41
330
747D
100
AcDbEntity
  8
細線
 48
50.0
100
AcDbLine
 10
6520.684430782984
 20
1194.639603411435
 30
0.0
 11
6584.478882733836
 21
1258.434055362286
 31
0.0
  0
CIRCLE
  5
23F42
330
747D
100
AcDbEntity
  8
部品1
 48
50.0
100
AcDbCircle
 10
6488.478882733836
 20
1202.639603411435
 30
0.0
 40
8.0
  0
ARC
  5
23F43
330
747D
100
AcDbEntity
  8
部品1
 48
50.0
100
AcDbCircle
 10
6360.478882733836
 20
1202.639603411435
 30
0.0
 40
24.0
100
AcDbArc
 50
340.528779365518
 51
0.0
  0
LINE
  5
23F44
330
747D
100
AcDbEntity
  8
細線
 48
50.0
100
AcDbLine
 10
6369.528438242692
 20
1058.639603411435
 30
0.0
 11
6363.097657624344
 21
1082.639603411435
 31
0.0
  0
LINE
  5
23F45
330
747D
100
AcDbEntity
  8
細線
 48
50.0
100
AcDbLine
 10
6448.416483189937
 20
1058.639603411435
 30
0.0
 11
6441.985702571591
 21
1082.639603411435
 31
0.0
  0
LINE
  5
23F46
330
747D
100
AcDbEntity
  8
細線
 48
50.0
100
AcDbLine
 10
6381.74366241978
 20
1082.639603411435
 30
0.0
 11
6477.74366241978
 21
1178.639603411435
 31
0.0
  0
LINE
  5
23F47
330
747D
100
AcDbEntity
  8
細線
 48
50.0
100
AcDbLine
 10
6408.684430782983
 20
1082.639603411435
 30
0.0
 11
6504.685318628121
 21
1178.640491256574
 31
0.0
  0
LINE
  5
23F48
330
747D
100
AcDbEntity
  8
部品1
 48
50.0
100
AcDbLine
 10
6528.478882733836
 20
1194.639603411435
 30
0.0
 11
6528.478882733836
 21
1178.639603411435
 31
0.0
  0
LINE
  5
23F49
330
747D
100
AcDbEntity
  8
細線
 48
50.0
100
AcDbLine
 10
6606.192573084431
 20
1058.639603411435
 30
0.0
 11
6599.761792466082
 21
1082.639603411435
 31
0.0
  0
LINE
  5
23F4A
330
747D
100
AcDbEntity
  8
細線
 48
50.0
100
AcDbLine
 10
6570.32904096223
 20
1082.639603411435
 30
0.0
 11
6584.478882733836
 21
1096.789445183042
 31
0.0
  0
LINE
  5
23F4B
330
747D
100
AcDbEntity
  8
細線
 48
50.0
100
AcDbLine
 10
6527.304528137183
 20
1058.639603411435
 30
0.0
 11
6520.873747518837
 21
1082.639603411435
 31
0.0
  0
LINE
  5
23F4C
330
747D
100
AcDbEntity
  8
細線
 48
50.0
100
AcDbLine
 10
6264.478882733836
 20
1396.427117536813
 30
0.0
 11
6368.478882733842
 21
1500.427117536816
 31
0.0
  0
LINE
  5
23F4D
330
747D
100
AcDbEntity
  8
細線
 48
50.0
100
AcDbLine
 10
6264.478882733836
 20
1423.367885900021
 30
0.0
 11
6368.478882733836
 21
1527.367885900021
 31
0.0
  0
LINE
  5
23F4E
330
747D
100
AcDbEntity
  8
細線
 48
50.0
100
AcDbLine
 10
6264.478882733836
 20
1369.486349173606
 30
0.0
 11
6368.478882733842
 21
1473.486349173606
 31
0.0
  0
LINE
  5
23F4F
330
747D
100
AcDbEntity
  8
細線
 48
50.0
100
AcDbLine
 10
6352.478882733836
 20
1673.012496079266
 30
0.0
 11
6368.478882733836
 21
1689.012496079266
 31
0.0
  0
LINE
  5
23F50
330
747D
100
AcDbEntity
  8
細線
 48
50.0
100
AcDbLine
 10
6352.478882733836
 20
1699.953264442473
 30
0.0
 11
6368.478882733836
 21
1715.953264442473
 31
0.0
  0
LINE
  5
23F51
330
747D
100
AcDbEntity
  8
部品1
 48
50.0
100
AcDbLine
 10
6136.478882733836
 20
1322.639603411435
 30
0.0
 11
6264.478882733836
 21
1322.639603411435
 31
0.0
  0
LINE
  5
23F52
330
747D
100
AcDbEntity
  8
細線
 48
50.0
100
AcDbLine
 10
6136.478882733829
 20
1268.427117536811
 30
0.0
 11
6190.691368608461
 21
1322.639603411435
 31
0.0
  0
LINE
  5
23F53
330
747D
100
AcDbEntity
  8
細線
 48
50.0
100
AcDbLine
 10
6136.478882733829
 20
1295.367885900021
 30
0.0
 11
6163.750600245251
 21
1322.639603411435
 31
0.0
  0
LINE
  5
23F54
330
747D
100
AcDbEntity
  8
部品1
 48
50.0
100
AcDbLine
 10
6352.478882733836
 20
1668.766818108557
 30
0.0
 11
6336.478882733836
 21
1668.766818108561
 31
0.0
  0
LINE
  5
23F55
330
747D
100
AcDbEntity
  8
細線
 48
50.0
100
AcDbLine
 10
6264.478882733836
 20
1585.012496079266
 30
0.0
 11
6348.23320476313
 21
1668.766818108557
 31
0.0
  0
LINE
  5
23F56
330
747D
100
AcDbEntity
  8
細線
 48
50.0
100
AcDbLine
 10
6264.478882733836
 20
1611.953264442473
 30
0.0
 11
6336.478882733836
 21
1683.953264442473
 31
0.0
  0
LINE
  5
23F57
330
747D
100
AcDbEntity
  8
部品1
 48
50.0
100
AcDbLine
 10
6336.478882733836
 20
1668.766818108561
 30
0.0
 11
6336.478882733836
 21
1726.894032805681
 31
0.0
  0
LINE
  5
23F58
330
747D
100
AcDbEntity
  8
細線
 48
50.0
100
AcDbLine
 10
6264.478882733836
 20
1638.894032805681
 30
0.0
 11
6336.478882733836
 21
1710.894032805681
 31
0.0
  0
LINE
  5
23F59
330
747D
100
AcDbEntity
  8
部品1
 48
50.0
100
AcDbLine
 10
6352.478882733836
 20
1668.766818108557
 30
0.0
 11
6352.478882733836
 21
1726.894032805681
 31
0.0
  0
LINE
  5
23F5A
330
747D
100
AcDbEntity
  8
細線
 48
50.0
100
AcDbLine
 10
6384.478882733842
 20
1489.486349173606
 30
0.0
 11
6456.478882733829
 21
1561.486349173606
 31
0.0
  0
LINE
  5
23F5B
330
747D
100
AcDbEntity
  8
部品1
 48
50.0
100
AcDbLine
 10
6456.478882733836
 20
1322.639603411435
 30
0.0
 11
6584.478882733836
 21
1322.639603411435
 31
0.0
  0
LINE
  5
23F5C
330
747D
100
AcDbEntity
  8
細線
 48
50.0
100
AcDbLine
 10
6384.478882733842
 20
1300.900970631157
 30
0.0
 11
6456.478882733829
 21
1372.900970631151
 31
0.0
  0
LINE
  5
23F5D
330
747D
100
AcDbEntity
  8
細線
 48
50.0
100
AcDbLine
 10
6384.478882733842
 20
1327.841738994365
 30
0.0
 11
6456.478882733829
 21
1399.841738994361
 31
0.0
  0
LINE
  5
23F5E
330
747D
100
AcDbEntity
  8
細線
 48
50.0
100
AcDbLine
 10
6384.478882733842
 20
1273.960202267947
 30
0.0
 11
6456.478882733829
 21
1345.960202267947
 31
0.0
  0
LINE
  5
23F5F
330
747D
100
AcDbEntity
  8
細線
 48
50.0
100
AcDbLine
 10
6384.478882733836
 20
1543.367885900021
 30
0.0
 11
6456.478882733836
 21
1615.367885900021
 31
0.0
  0
LINE
  5
23F60
330
747D
100
AcDbEntity
  8
細線
 48
50.0
100
AcDbLine
 10
6384.478882733842
 20
1516.427117536816
 30
0.0
 11
6456.478882733829
 21
1588.42711753681
 31
0.0
  0
MTEXT
  5
23F61
102
{ACAD_REACTORS
330
23F0C
102
}
330
747D
100
AcDbEntity
  8
寸法
 62
     7
 48
50.0
100
AcDbMText
 10
6698.217338595085
 20
905.2905176792824
 30
0.0
 40
80.0
 41
0.8
 71
     4
 72
     1
  1
\A1;D10@300
  7
STYLE2
 73
     1
 44
1.0
1001
ACAD
1000
MTEXTBEGIN
1070
    73
1070
     1
1070
    44
1040
1.0
1070
    74
1070
     0
1000
MTEXTEND
  0
DIMENSION
  5
23F62
330
747D
100
AcDbEntity
  8
寸法
 48
50.0
100
AcDbDimension
  2
*D64
 10
6264.478882733835
 20
2186.639603411435
 30
0.0
 11
6371.705213079033
 21
2286.307411327816
 31
0.0
 70
   160
  1
120\P200\P280
 71
     5
 42
192.0
  3
INABA_S40G
100
AcDbAlignedDimension
 13
6456.478882733835
 23
1866.639603411435
 33
0.0
 14
6264.478882733835
 24
1866.639603411435
 34
0.0
100
AcDbRotatedDimension
1001
ACAD
1000
DSTYLE
1002
{
1070
   174
1070
     0
1070
   272
1070
     1
1070
   279
1070
     1
1070
   288
1070
     0
1070
   341
1005
0
1002
}
  0
LINE
  5
23F63
330
747D
100
AcDbEntity
  8
部品1
 48
50.0
100
AcDbLine
 10
6264.478882733836
 20
1866.639603411435
 30
0.0
 11
6456.478882733836
 21
1866.639603411435
 31
0.0
  0
LINE
  5
23F64
330
747D
100
AcDbEntity
  8
細線
 48
50.0
100
AcDbLine
 10
6264.478882733836
 20
1827.479411348133
 30
0.0
 11
6303.63907479714
 21
1866.639603411435
 31
0.0
  0
LINE
  5
23F65
330
747D
100
AcDbEntity
  8
細線
 48
50.0
100
AcDbLine
 10
6264.478882733836
 20
1800.538642984925
 30
0.0
 11
6330.579843160346
 21
1866.639603411435
 31
0.0
  0
LINE
  5
23F66
330
747D
100
AcDbEntity
  8
細線
 48
50.0
100
AcDbLine
 10
6264.478882733836
 20
1854.42017971134
 30
0.0
 11
6276.698306433932
 21
1866.639603411435
 31
0.0
  0
LINE
  5
23F67
330
747D
100
AcDbEntity
  8
細線
 48
50.0
100
AcDbLine
 10
6384.031589999822
 20
1731.505971708457
 30
0.0
 11
6456.478882733836
 21
1803.953264442473
 31
0.0
  0
LINE
  5
23F68
330
747D
100
AcDbEntity
  8
細線
 48
50.0
100
AcDbLine
 10
6372.971305236306
 20
1747.386455308151
 30
0.0
 11
6456.478882733836
 21
1830.894032805681
 31
0.0
  0
LINE
  5
23F69
330
747D
100
AcDbEntity
  8
細線
 48
50.0
100
AcDbLine
 10
8248.918195911032
 20
1707.767885900024
 30
0.0
 11
8378.518195911027
 21
1837.367885900022
 31
0.0
  0
LINE
  5
23F6A
330
747D
100
AcDbEntity
  8
部品1
100
AcDbLine
 10
8378.518195911027
 20
1322.639603411435
 30
0.0
 11
8378.518195911027
 21
1866.639603411435
 31
0.0
  0
LINE
  5
23F6B
330
747D
100
AcDbEntity
  8
部品1
 48
50.0
100
AcDbLine
 10
7964.51819591103
 20
1322.639603411435
 30
0.0
 11
7964.51819591103
 21
1866.639603411435
 31
0.0
  0
LINE
  5
23F6C
330
747D
100
AcDbEntity
  8
細線
 48
50.0
100
AcDbLine
 10
7964.51819591103
 20
1638.894032805681
 30
0.0
 11
8122.918195911028
 21
1797.294032805678
 31
0.0
  0
LINE
  5
23F6D
330
747D
100
AcDbEntity
  8
細線
 48
50.0
100
AcDbLine
 10
7964.51819591103
 20
1611.953264442473
 30
0.0
 11
8122.918195911028
 21
1770.353264442471
 31
0.0
  0
LINE
  5
23F6E
330
747D
100
AcDbEntity
  8
細線
 48
50.0
100
AcDbLine
 10
7964.51819591103
 20
1585.012496079266
 30
0.0
 11
8122.918195911024
 21
1743.412496079258
 31
0.0
  0
TEXT
  5
23F6F
330
747D
100
AcDbEntity
  8
部品1
 48
50.0
100
AcDbText
 10
7550.378294078074
 20
1637.878595694691
 30
0.0
 40
80.0
  1
▽G.L
  7
STYLE2
100
AcDbText
  0
LINE
  5
23F70
330
747D
100
AcDbEntity
  8
部品1
100
AcDbLine
 10
8194.918195911029
 20
1641.639603411435
 30
0.0
 11
8194.918195911025
 21
1915.799603411436
 31
0.0
  0
LINE
  5
23F71
330
747D
100
AcDbEntity
  8
部品1
100
AcDbLine
 10
8176.918195911028
 20
1641.639603411435
 30
0.0
 11
8176.918195911024
 21
1915.799603411436
 31
0.0
  0
LINE
  5
23F72
330
747D
100
AcDbEntity
  8
細線
 48
50.0
100
AcDbLine
 10
8248.918195911032
 20
1653.886349173594
 30
0.0
 11
8378.518195911027
 21
1783.486349173585
 31
0.0
  0
LINE
  5
23F73
330
747D
100
AcDbEntity
  8
細線
 48
50.0
100
AcDbLine
 10
8248.918195911032
 20
1680.827117536807
 30
0.0
 11
8378.518195911027
 21
1810.427117536804
 31
0.0
  0
LINE
  5
23F74
330
747D
100
AcDbEntity
  8
部品1
100
AcDbLine
 10
8248.918195911029
 20
1542.639603411435
 30
0.0
 11
8248.918195911029
 21
1866.639603411435
 31
0.0
  0
LINE
  5
23F75
330
747D
100
AcDbEntity
  8
部品1
100
AcDbLine
 10
8122.918195911024
 20
1542.639603411435
 30
0.0
 11
8122.918195911028
 21
1866.639603411435
 31
0.0
  0
LINE
  5
23F76
330
747D
100
AcDbEntity
  8
細線
 48
50.0
100
AcDbLine
 10
7964.51819591103
 20
1396.427117536813
 30
0.0
 11
8122.918195911021
 21
1554.827117536802
 31
0.0
  0
LINE
  5
23F77
330
747D
100
AcDbEntity
  8
細線
 48
50.0
100
AcDbLine
 10
7964.51819591103
 20
1369.486349173606
 30
0.0
 11
8137.671450148864
 21
1542.639603411434
 31
0.0
  0
LINE
  5
23F78
330
747D
100
AcDbEntity
  8
細線
 48
50.0
100
AcDbLine
 10
7964.51819591103
 20
1423.367885900021
 30
0.0
 11
8122.918195911021
 21
1581.767885900016
 31
0.0
  0
LINE
  5
23F79
330
747D
100
AcDbEntity
  8
細線
 48
50.0
100
AcDbLine
 10
7893.197597054516
 20
1082.639603411435
 30
0.0
 11
8378.518195911027
 21
1567.960202267943
 31
0.0
  0
LINE
  5
23F7A
330
747D
100
AcDbEntity
  8
細線
 48
50.0
100
AcDbLine
 10
7866.256828691312
 20
1082.639603411435
 30
0.0
 11
8378.518195911031
 21
1594.900970631149
 31
0.0
  0
LINE
  5
23F7B
330
747D
100
AcDbEntity
  8
細線
 48
50.0
100
AcDbLine
 10
7839.316060328105
 20
1082.639603411435
 30
0.0
 11
8378.518195911027
 21
1621.841738994361
 31
0.0
  0
LINE
  5
23F7C
330
747D
100
AcDbEntity
  8
部品1
 48
50.0
100
AcDbLine
 10
8586.518195911031
 20
1082.639603411435
 30
0.0
 11
7756.518195911032
 21
1082.639603411435
 31
0.0
  0
LINE
  5
23F7D
330
747D
100
AcDbEntity
  8
部品1
 48
50.0
100
AcDbLine
 10
8586.518195911031
 20
954.6396034114355
 30
0.0
 11
7756.518195911032
 21
954.6396034114355
 31
0.0
  0
LINE
  5
23F7E
330
747D
100
AcDbEntity
  8
細線
 48
50.0
100
AcDbLine
 10
7836.518195911025
 20
1241.486349173606
 30
0.0
 11
7917.671450148858
 21
1322.639603411435
 31
0.0
  0
LINE
  5
23F7F
330
747D
100
AcDbEntity
  8
部品1
 48
50.0
100
AcDbLine
 10
7836.51819591103
 20
1082.639603411435
 30
0.0
 11
7836.51819591103
 21
1322.639603411435
 31
0.0
  0
LINE
  5
23F80
330
747D
100
AcDbEntity
  8
細線
 48
50.0
100
AcDbLine
 10
7883.924945512546
 20
954.6396034114355
 30
0.0
 11
7918.222442143728
 21
1082.639603411435
 31
0.0
  0
LINE
  5
23F81
330
747D
100
AcDbEntity
  8
部品1
 48
50.0
100
AcDbLine
 10
7756.518195911032
 20
954.6396034114355
 30
0.0
 11
7756.518195911032
 21
1082.639603411435
 31
0.0
  0
LINE
  5
23F82
330
747D
100
AcDbEntity
  8
細線
 48
50.0
100
AcDbLine
 10
7805.036900565288
 20
954.6396034114335
 30
0.0
 11
7839.334397196473
 21
1082.639603411434
 31
0.0
  0
LINE
  5
23F83
330
747D
100
AcDbEntity
  8
細線
 48
50.0
100
AcDbLine
 10
7962.812990459791
 20
954.6396034114335
 30
0.0
 11
7997.110487090973
 21
1082.639603411434
 31
0.0
  0
LINE
  5
23F84
330
747D
100
AcDbEntity
  8
細線
 48
50.0
100
AcDbLine
 10
7811.46768118364
 20
978.6396034114355
 30
0.0
 11
7817.898461801987
 21
954.6396034114355
 31
0.0
  0
LINE
  5
23F85
330
747D
100
AcDbEntity
  8
細線
 48
50.0
100
AcDbLine
 10
7969.243771078144
 20
978.6396034114355
 30
0.0
 11
7975.674551696491
 21
954.6396034114355
 31
0.0
  0
LINE
  5
23F86
330
747D
100
AcDbEntity
  8
細線
 48
50.0
100
AcDbLine
 10
7890.355726130893
 20
978.6396034114355
 30
0.0
 11
7896.786506749238
 21
954.6396034114355
 31
0.0
  0
LINE
  5
23F87
330
747D
100
AcDbEntity
  8
細線
 48
50.0
100
AcDbLine
 10
7756.518195911029
 20
1067.979524377215
 30
0.0
 11
7760.446352249225
 21
1082.639603411435
 31
0.0
  0
LINE
  5
23F88
330
747D
100
AcDbEntity
  8
細線
 48
50.0
100
AcDbLine
 10
7832.90361657813
 20
1058.639603411435
 30
0.0
 11
7826.472835959783
 21
1082.639603411435
 31
0.0
  0
LINE
  5
23F89
330
747D
100
AcDbEntity
  8
細線
 48
50.0
100
AcDbLine
 10
7990.679706472635
 20
1058.639603411435
 30
0.0
 11
7984.248925854288
 21
1082.639603411435
 31
0.0
  0
LINE
  5
23F8A
330
747D
100
AcDbEntity
  8
細線
 48
50.0
100
AcDbLine
 10
7911.791661525382
 20
1058.639603411435
 30
0.0
 11
7905.360880907036
 21
1082.639603411435
 31
0.0
  0
LWPOLYLINE
  5
23F8B
330
747D
100
AcDbEntity
  8
部品1
 48
50.0
100
AcDbPolyline
 90
        2
 70
     0
 43
8.0
 10
7550.378294078074
 20
1626.639603411436
 10
7964.51819591103
 20
1626.639603411436
  0
LINE
  5
23F8C
330
747D
100
AcDbEntity
  8
細線
 48
50.0
100
AcDbLine
 10
7836.518195911025
 20
1268.427117536811
 30
0.0
 11
7890.730681785655
 21
1322.639603411435
 31
0.0
  0
LINE
  5
23F8D
330
747D
100
AcDbEntity
  8
部品1
 48
50.0
100
AcDbLine
 10
7836.51819591103
 20
1322.639603411435
 30
0.0
 11
7964.51819591103
 21
1322.639603411435
 31
0.0
  0
LINE
  5
23F8E
330
747D
100
AcDbEntity
  8
細線
 48
50.0
100
AcDbLine
 10
7836.518195911025
 20
1295.367885900021
 30
0.0
 11
7863.789913422443
 21
1322.639603411435
 31
0.0
  0
LINE
  5
23F8F
330
747D
100
AcDbEntity
  8
細線
 48
50.0
100
AcDbLine
 10
8081.782975596972
 20
1082.639603411435
 30
0.0
 11
8378.518195911027
 21
1379.374823725488
 31
0.0
  0
LINE
  5
23F90
330
747D
100
AcDbEntity
  8
細線
 48
50.0
100
AcDbLine
 10
8108.723743960178
 20
1082.639603411435
 30
0.0
 11
8378.518195911027
 21
1352.434055362293
 31
0.0
  0
LINE
  5
23F91
330
747D
100
AcDbEntity
  8
細線
 48
50.0
100
AcDbLine
 10
8054.842207233763
 20
1082.639603411435
 30
0.0
 11
8378.518195911027
 21
1406.315592088702
 31
0.0
  0
LINE
  5
23F92
330
747D
100
AcDbEntity
  8
細線
 48
50.0
100
AcDbLine
 10
8270.368354139424
 20
1082.639603411435
 30
0.0
 11
8506.518195911027
 21
1318.789445183044
 31
0.0
  0
LINE
  5
23F93
330
747D
100
AcDbEntity
  8
細線
 48
50.0
100
AcDbLine
 10
8297.309122502632
 20
1082.639603411435
 30
0.0
 11
8506.518195911027
 21
1291.848676819828
 31
0.0
  0
LINE
  5
23F94
330
747D
100
AcDbEntity
  8
部品1
 48
50.0
100
AcDbLine
 10
8506.518195911027
 20
1322.639603411435
 30
0.0
 11
8506.518195911027
 21
1082.639603411435
 31
0.0
  0
LINE
  5
23F95
330
747D
100
AcDbEntity
  8
細線
 48
50.0
100
AcDbLine
 10
8324.249890865837
 20
1082.639603411435
 30
0.0
 11
8506.518195911027
 21
1264.907908456631
 31
0.0
  0
LINE
  5
23F96
330
747D
100
AcDbEntity
  8
細線
 48
50.0
100
AcDbLine
 10
8199.477125301539
 20
954.6396034114335
 30
0.0
 11
8233.77462193272
 21
1082.639603411434
 31
0.0
  0
LINE
  5
23F97
330
747D
100
AcDbEntity
  8
細線
 48
50.0
100
AcDbLine
 10
8041.701035407044
 20
954.6396034114355
 30
0.0
 11
8075.998532038225
 21
1082.639603411435
 31
0.0
  0
LINE
  5
23F98
330
747D
100
AcDbEntity
  8
細線
 48
50.0
100
AcDbLine
 10
8120.589080354291
 20
954.6396034114355
 30
0.0
 11
8154.886576985473
 21
1082.639603411434
 31
0.0
  0
LINE
  5
23F99
330
747D
100
AcDbEntity
  8
細線
 48
50.0
100
AcDbLine
 10
8278.365170248781
 20
954.6396034114355
 30
0.0
 11
8312.662666879965
 21
1082.639603411434
 31
0.0
  0
LINE
  5
23F9A
330
747D
100
AcDbEntity
  8
細線
 48
50.0
100
AcDbLine
 10
8127.019860972643
 20
978.6396034114355
 30
0.0
 11
8133.450641590989
 21
954.6396034114355
 31
0.0
  0
LINE
  5
23F9B
330
747D
100
AcDbEntity
  8
細線
 48
50.0
100
AcDbLine
 10
8048.131816025398
 20
978.6396034114355
 30
0.0
 11
8054.562596643744
 21
954.6396034114355
 31
0.0
  0
LINE
  5
23F9C
330
747D
100
AcDbEntity
  8
細線
 48
50.0
100
AcDbLine
 10
8284.795950867133
 20
978.6396034114355
 30
0.0
 11
8291.22673148548
 21
954.6396034114355
 31
0.0
  0
LINE
  5
23F9D
330
747D
100
AcDbEntity
  8
細線
 48
50.0
100
AcDbLine
 10
8205.907905919888
 20
978.6396034114355
 30
0.0
 11
8212.338686538235
 21
954.6396034114355
 31
0.0
  0
LINE
  5
23F9E
330
747D
100
AcDbEntity
  8
細線
 48
50.0
100
AcDbLine
 10
8148.455796367132
 20
1058.639603411435
 30
0.0
 11
8142.025015748787
 21
1082.639603411435
 31
0.0
  0
LINE
  5
23F9F
330
747D
100
AcDbEntity
  8
細線
 48
50.0
100
AcDbLine
 10
8069.567751419887
 20
1058.639603411435
 30
0.0
 11
8063.136970801537
 21
1082.639603411435
 31
0.0
  0
LINE
  5
23FA0
330
747D
100
AcDbEntity
  8
細線
 48
50.0
100
AcDbLine
 10
8227.343841314377
 20
1058.639603411435
 30
0.0
 11
8220.913060696032
 21
1082.639603411435
 31
0.0
  0
LINE
  5
23FA1
330
747D
100
AcDbEntity
  8
細線
 48
50.0
100
AcDbLine
 10
8306.231886261624
 20
1058.639603411435
 30
0.0
 11
8299.801105643277
 21
1082.639603411435
 31
0.0
  0
LINE
  5
23FA2
330
747D
100
AcDbEntity
  8
部品1
 48
50.0
100
AcDbLine
 10
8586.518195911031
 20
1082.639603411435
 30
0.0
 11
8586.518195911031
 21
954.6396034114355
 31
0.0
  0
LINE
  5
23FA3
330
747D
100
AcDbEntity
  8
細線
 48
50.0
100
AcDbLine
 10
8515.029305090523
 20
954.6396034114335
 30
0.0
 11
8549.32680172171
 21
1082.639603411433
 31
0.0
  0
LINE
  5
23FA4
330
747D
100
AcDbEntity
  8
細線
 48
50.0
100
AcDbLine
 10
8357.253215196029
 20
954.6396034114335
 30
0.0
 11
8391.550711827203
 21
1082.639603411435
 31
0.0
  0
LINE
  5
23FA5
330
747D
100
AcDbEntity
  8
細線
 48
50.0
100
AcDbLine
 10
8436.141260143278
 20
954.6396034114327
 30
0.0
 11
8470.438756774463
 21
1082.639603411433
 31
0.0
  0
LINE
  5
23FA6
330
747D
100
AcDbEntity
  8
細線
 48
50.0
100
AcDbLine
 10
8363.68399581438
 20
978.6396034114355
 30
0.0
 11
8370.114776432735
 21
954.6396034114355
 31
0.0
  0
LINE
  5
23FA7
330
747D
100
AcDbEntity
  8
細線
 48
50.0
100
AcDbLine
 10
8442.572040761628
 20
978.6396034114336
 30
0.0
 11
8449.002821379975
 21
954.6396034114335
 31
0.0
  0
LINE
  5
23FA8
330
747D
100
AcDbEntity
  8
細線
 48
50.0
100
AcDbLine
 10
8521.460085708874
 20
978.6396034114336
 30
0.0
 11
8527.890866327224
 21
954.6396034114335
 31
0.0
  0
LINE
  5
23FA9
330
747D
100
AcDbEntity
  8
細線
 48
50.0
100
AcDbLine
 10
8385.11993120886
 20
1058.639603411435
 30
0.0
 11
8378.689150590515
 21
1082.639603411435
 31
0.0
  0
LINE
  5
23FAA
330
747D
100
AcDbEntity
  8
細線
 48
50.0
100
AcDbLine
 10
8464.007976156118
 20
1058.639603411434
 30
0.0
 11
8457.577195537771
 21
1082.639603411434
 31
0.0
  0
LINE
  5
23FAB
330
747D
100
AcDbEntity
  8
細線
 48
50.0
100
AcDbLine
 10
8542.896021103363
 20
1058.639603411434
 30
0.0
 11
8536.465240485016
 21
1082.639603411434
 31
0.0
  0
LINE
  5
23FAC
330
747D
100
AcDbEntity
  8
部品1
100
AcDbLine
 10
8248.918195911029
 20
1542.639603411434
 30
0.0
 11
8122.918195911024
 21
1542.639603411434
 31
0.0
  0
LINE
  5
23FAD
330
747D
100
AcDbEntity
  8
部品1
100
AcDbLine
 10
8230.918195911028
 20
1623.639603411436
 30
0.0
 11
8230.918195911028
 21
1641.639603411435
 31
0.0
  0
ARC
  5
23FAE
330
747D
100
AcDbEntity
  8
部品1
100
AcDbCircle
 10
8194.918195911029
 20
1641.639603411435
 30
0.0
 40
18.0
100
AcDbArc
 50
180.0
 51
270.0
  0
LINE
  5
23FAF
330
747D
100
AcDbEntity
  8
部品1
100
AcDbLine
 10
8194.918195911029
 20
1623.639603411436
 30
0.0
 11
8230.918195911028
 21
1623.639603411436
 31
0.0
  0
LINE
  5
23FB0
330
747D
100
AcDbEntity
  8
部品1
100
AcDbLine
 10
8194.918195911029
 20
1641.639603411435
 30
0.0
 11
8230.918195911028
 21
1641.639603411435
 31
0.0
  0
LINE
  5
23FB1
330
747D
100
AcDbEntity
  8
部品1
 48
50.0
100
AcDbLine
 10
8378.518195911027
 20
1322.639603411435
 30
0.0
 11
8506.518195911027
 21
1322.639603411435
 31
0.0
  0
LINE
  5
23FB2
330
747D
100
AcDbEntity
  8
部品1
100
AcDbLine
 10
7984.318195911029
 20
1956.639603411435
 30
0.0
 11
8022.11819591103
 21
1956.639603411435
 31
0.0
  0
LINE
  5
23FB3
330
747D
100
AcDbEntity
  8
細線
 48
50.0
100
AcDbLine
 10
7964.51819591103
 20
1827.479411348133
 30
0.0
 11
8003.678387974334
 21
1866.639603411435
 31
0.0
  0
LINE
  5
23FB4
330
747D
100
AcDbEntity
  8
細線
 48
50.0
100
AcDbLine
 10
7964.51819591103
 20
1800.538642984925
 30
0.0
 11
8030.619156337539
 21
1866.639603411435
 31
0.0
  0
LINE
  5
23FB5
330
747D
100
AcDbEntity
  8
部品1
 48
50.0
100
AcDbLine
 10
7964.51819591103
 20
1866.639603411435
 30
0.0
 11
8378.518195911031
 21
1866.639603411435
 31
0.0
  0
LINE
  5
23FB6
330
747D
100
AcDbEntity
  8
部品1
100
AcDbLine
 10
7981.618195911029
 20
1945.839603411435
 30
0.0
 11
7981.618195911029
 21
1953.939603411436
 31
0.0
  0
ARC
  5
23FB7
330
747D
100
AcDbEntity
  8
部品1
100
AcDbCircle
 10
7984.318195911029
 20
1953.939603411436
 30
0.0
 40
2.7
100
AcDbArc
 50
90.0
 51
180.0
  0
ARC
  5
23FB8
330
747D
100
AcDbEntity
  8
部品1
100
AcDbCircle
 10
7973.51819591103
 20
1941.031507114144
 30
0.0
 40
2.7
100
AcDbArc
 50
104.0362434679067
 51
180.0
  0
LINE
  5
23FB9
330
747D
100
AcDbEntity
  8
部品1
100
AcDbLine
 10
7972.86334972343
 20
1943.650891864535
 30
0.0
 11
7981.618195911029
 21
1945.839603411435
 31
0.0
  0
ARC
  5
23FBA
330
747D
100
AcDbEntity
  8
部品1
100
AcDbCircle
 10
7973.51819591103
 20
1878.899603411436
 30
0.0
 40
2.7
100
AcDbArc
 50
180.0
 51
270.0
  0
LINE
  5
23FBB
330
747D
100
AcDbEntity
  8
細線
 48
50.0
100
AcDbLine
 10
7964.51819591103
 20
1854.42017971134
 30
0.0
 11
7976.737619611125
 21
1866.639603411435
 31
0.0
  0
LINE
  5
23FBC
330
747D
100
AcDbEntity
  8
部品1
100
AcDbLine
 10
7973.51819591103
 20
1876.199603411436
 30
0.0
 11
7985.218195911023
 21
1876.199603411436
 31
0.0
  0
LINE
  5
23FBD
330
747D
100
AcDbEntity
  8
部品1
100
AcDbLine
 10
7970.81819591103
 20
1878.899603411436
 30
0.0
 11
7970.81819591103
 21
1941.031507114144
 31
0.0
  0
LINE
  5
23FBE
330
747D
100
AcDbEntity
  8
部品1
100
AcDbLine
 10
8129.478195911023
 20
1876.199603411436
 30
0.0
 11
8330.818195911023
 21
1876.199603411436
 31
0.0
  0
LINE
  5
23FBF
330
747D
100
AcDbEntity
  8
部品1
100
AcDbLine
 10
8022.11819591103
 20
1956.639603411435
 30
0.0
 11
8022.11819591103
 21
1964.739603411436
 31
0.0
  0
LINE
  5
23FC0
330
747D
100
AcDbEntity
  8
部品1
100
AcDbLine
 10
8072.51819591103
 20
1975.539603411432
 30
0.0
 11
8072.51819591103
 21
1924.239603411436
 31
0.0
  0
LINE
  5
23FC1
330
747D
100
AcDbEntity
  8
部品1
100
AcDbLine
 10
8095.918195911028
 20
1936.199603411436
 30
0.0
 11
8124.078195911028
 21
1936.199603411436
 31
0.0
  0
ARC
  5
23FC2
330
747D
100
AcDbEntity
  8
部品1
100
AcDbCircle
 10
8095.918195911028
 20
1933.499603411436
 30
0.0
 40
2.7
100
AcDbArc
 50
90.0
 51
180.0
  0
ARC
  5
23FC3
330
747D
100
AcDbEntity
  8
部品1
100
AcDbCircle
 10
8124.078195911028
 20
1933.499603411436
 30
0.0
 40
2.7
100
AcDbArc
 50
0.0
 51
90.0
  0
LINE
  5
23FC4
330
747D
100
AcDbEntity
  8
部品1
100
AcDbLine
 10
8114.818195911031
 20
1921.539603411435
 30
0.0
 11
8114.818195911031
 21
1878.899603411436
 31
0.0
  0
LINE
  5
23FC5
330
747D
100
AcDbEntity
  8
部品1
100
AcDbLine
 10
8100.418195911029
 20
1876.199603411436
 30
0.0
 11
8112.118195911028
 21
1876.199603411436
 31
0.0
  0
ARC
  5
23FC6
330
747D
100
AcDbEntity
  8
部品1
100
AcDbCircle
 10
8129.478195911023
 20
1878.899603411436
 30
0.0
 40
2.7
100
AcDbArc
 50
180.0
 51
270.0
  0
ARC
  5
23FC7
330
747D
100
AcDbEntity
  8
部品1
100
AcDbCircle
 10
8112.118195911028
 20
1878.899603411436
 30
0.0
 40
2.7
100
AcDbArc
 50
270.0
 51
0.0
  0
LINE
  5
23FC8
330
747D
100
AcDbEntity
  8
部品1
100
AcDbLine
 10
8072.51819591103
 20
1924.239603411436
 30
0.0
 11
8112.118195911028
 21
1924.239603411436
 31
0.0
  0
ARC
  5
23FC9
330
747D
100
AcDbEntity
  8
部品1
100
AcDbCircle
 10
8112.118195911028
 20
1921.539603411435
 30
0.0
 40
2.7
100
AcDbArc
 50
0.0
 51
90.0
  0
LINE
  5
23FCA
330
747D
100
AcDbEntity
  8
部品1
100
AcDbLine
 10
8126.778195911029
 20
1933.499603411436
 30
0.0
 11
8126.778195911025
 21
1878.899603411436
 31
0.0
  0
LINE
  5
23FCB
330
747D
100
AcDbEntity
  8
部品1
100
AcDbLine
 10
8093.218195911028
 20
1933.499603411436
 30
0.0
 11
8093.218195911028
 21
1916.399603411436
 31
0.0
  0
LINE
  5
23FCC
330
747D
100
AcDbEntity
  8
細線
100
AcDbLine
 10
8191.31819591103
 20
1876.199603411436
 30
0.0
 11
8191.31819591103
 21
1919.399603411435
 31
0.0
  0
LINE
  5
23FCD
330
747D
100
AcDbEntity
  8
細線
100
AcDbLine
 10
8180.51819591103
 20
1876.199603411436
 30
0.0
 11
8180.51819591103
 21
1919.399603411435
 31
0.0
  0
LINE
  5
23FCE
330
747D
100
AcDbEntity
  8
部品1
100
AcDbLine
 10
8176.918195911028
 20
1915.799603411436
 30
0.0
 11
8194.918195911029
 21
1915.799603411436
 31
0.0
  0
LINE
  5
23FCF
330
747D
100
AcDbEntity
  8
部品1
100
AcDbLine
 10
8180.51819591103
 20
1919.399603411435
 30
0.0
 11
8191.31819591103
 21
1919.399603411435
 31
0.0
  0
ELLIPSE
  5
23FD0
330
747D
100
AcDbEntity
  8
部品1
 48
50.0
100
AcDbEllipse
 10
8185.918195911028
 20
2135.762891855708
 30
0.0
 11
40.0
 21
0.0
 31
0.0
210
0.0
220
0.0
230
1.0
 40
0.4
 41
0.0
 42
6.283185307179586
  0
ELLIPSE
  5
23FD1
330
747D
100
AcDbEntity
  8
部品1
 48
50.0
100
AcDbEllipse
 10
8185.918195911028
 20
2126.162891855709
 30
0.0
 11
40.0
 21
0.0
 31
0.0
210
0.0
220
0.0
230
1.0
 40
0.4
 41
3.141592653589793
 42
6.283185307179586
  0
LINE
  5
23FD2
330
747D
100
AcDbEntity
  8
部品1
 48
50.0
100
AcDbLine
 10
8145.918195911027
 20
2135.762891855708
 30
0.0
 11
8145.918195911027
 21
2126.162891855708
 31
0.0
  0
ARC
  5
23FD3
330
747D
100
AcDbEntity
  8
部品1
100
AcDbCircle
 10
8069.818195911031
 20
1975.539603411432
 30
0.0
 40
2.7
100
AcDbArc
 50
0.0
 51
90.0
  0
ARC
  5
23FD4
330
747D
100
AcDbEntity
  8
部品1
100
AcDbCircle
 10
8027.518195911031
 20
1975.539603411435
 30
0.0
 40
2.7
100
AcDbArc
 50
90.0
 51
180.0
  0
LINE
  5
23FD5
330
747D
100
AcDbEntity
  8
部品1
100
AcDbLine
 10
8024.818195911029
 20
1967.439603411435
 30
0.0
 11
8024.818195911029
 21
1967.439603411435
 31
0.0
  0
LINE
  5
23FD6
330
747D
100
AcDbEntity
  8
部品1
100
AcDbLine
 10
8024.818195911029
 20
1967.439603411435
 30
0.0
 11
8024.818195911029
 21
1975.539603411435
 31
0.0
  0
LINE
  5
23FD7
330
747D
100
AcDbEntity
  8
部品1
100
AcDbLine
 10
8027.518195911031
 20
1978.239603411436
 30
0.0
 11
8069.818195911031
 21
1978.239603411432
 31
0.0
  0
ARC
  5
23FD8
330
747D
100
AcDbEntity
  8
部品1
100
AcDbCircle
 10
8024.818195911029
 20
1964.739603411436
 30
0.0
 40
2.7
100
AcDbArc
 50
90.0
 51
180.0
  0
ELLIPSE
  5
23FD9
330
747D
100
AcDbEntity
  8
部品1
 48
50.0
100
AcDbEllipse
 10
8185.918195911028
 20
2135.762891855708
 30
0.0
 11
18.4
 21
0.0
 31
0.0
210
0.0
220
0.0
230
1.0
 40
0.3478260869565217
 41
0.0
 42
6.283185307179586
  0
LINE
  5
23FDA
330
747D
100
AcDbEntity
  8
部品1
 48
50.0
100
AcDbLine
 10
8225.918195911027
 20
2126.162891855708
 30
0.0
 11
8225.918195911027
 21
2135.762891855708
 31
0.0
  0
LINE
  5
23FDB
330
747D
100
AcDbEntity
  8
部品1
 48
50.0
100
AcDbLine
 10
8153.918195911028
 20
2257.514884520578
 30
0.0
 11
8169.918195911028
 21
2249.514884520579
 31
0.0
  0
LINE
  5
23FDC
330
747D
100
AcDbEntity
  8
部品1
 48
50.0
100
AcDbLine
 10
8153.918195911028
 20
2225.514884520578
 30
0.0
 11
8169.918195911028
 21
2217.514884520578
 31
0.0
  0
LINE
  5
23FDD
330
747D
100
AcDbEntity
  8
部品1
 48
50.0
100
AcDbLine
 10
8153.918195911028
 20
2257.514884520578
 30
0.0
 11
8169.918195911028
 21
2265.514884520579
 31
0.0
  0
LINE
  5
23FDE
330
747D
100
AcDbEntity
  8
部品1
 48
50.0
100
AcDbLine
 10
8153.918195911028
 20
2225.514884520578
 30
0.0
 11
8153.918195911028
 21
2257.514884520578
 31
0.0
  0
LINE
  5
23FDF
330
747D
100
AcDbEntity
  8
部品1
 48
50.0
100
AcDbLine
 10
8169.918195911028
 20
2265.514884520579
 30
0.0
 11
8201.918195911028
 21
2265.514884520579
 31
0.0
  0
ELLIPSE
  5
23FE0
330
747D
100
AcDbEntity
  8
細線
 48
50.0
100
AcDbEllipse
 10
8185.918195911028
 20
2257.514884520578
 30
0.0
 11
14.76670786606846
 21
0.0
 31
0.0
210
0.0
220
0.0
230
1.0
 40
0.2071254069489396
 41
0.0
 42
6.283185307179586
  0
LINE
  5
23FE1
330
747D
100
AcDbEntity
  8
部品1
 48
50.0
100
AcDbLine
 10
8169.918195911028
 20
2217.514884520578
 30
0.0
 11
8201.918195911028
 21
2217.514884520578
 31
0.0
  0
LINE
  5
23FE2
330
747D
100
AcDbEntity
  8
部品1
 48
50.0
100
AcDbLine
 10
8201.918195911028
 20
2217.514884520578
 30
0.0
 11
8217.918195911028
 21
2225.514884520578
 31
0.0
  0
LINE
  5
23FE3
330
747D
100
AcDbEntity
  8
部品1
 48
50.0
100
AcDbLine
 10
8169.918195911028
 20
2249.514884520579
 30
0.0
 11
8201.918195911028
 21
2249.514884520579
 31
0.0
  0
LINE
  5
23FE4
330
747D
100
AcDbEntity
  8
部品1
 48
50.0
100
AcDbLine
 10
8201.918195911028
 20
2249.514884520579
 30
0.0
 11
8217.918195911028
 21
2257.514884520578
 31
0.0
  0
LINE
  5
23FE5
330
747D
100
AcDbEntity
  8
細線
 48
50.0
100
AcDbLine
 10
8201.918195911028
 20
2217.514884520578
 30
0.0
 11
8201.918195911028
 21
2249.514884520579
 31
0.0
  0
LINE
  5
23FE6
330
747D
100
AcDbEntity
  8
部品1
 48
50.0
100
AcDbLine
 10
8217.918195911028
 20
2225.514884520578
 30
0.0
 11
8217.918195911028
 21
2257.514884520578
 31
0.0
  0
LINE
  5
23FE7
330
747D
100
AcDbEntity
  8
細線
 48
50.0
100
AcDbLine
 10
8169.918195911028
 20
2217.514884520578
 30
0.0
 11
8169.918195911028
 21
2249.514884520579
 31
0.0
  0
LINE
  5
23FE8
330
747D
100
AcDbEntity
  8
部品1
 48
50.0
100
AcDbLine
 10
8201.918195911028
 20
2265.514884520579
 30
0.0
 11
8217.918195911028
 21
2257.514884520578
 31
0.0
  0
TEXT
  5
23FE9
330
747D
100
AcDbEntity
  8
部品1
100
AcDbText
 10
7886.690445102958
 20
3008.059291236853
 30
0.0
 40
120.0
  1
基礎詳細
  7
STYLE2
100
AcDbText
  0
LINE
  5
23FEA
330
747D
100
AcDbEntity
  8
部品1
100
AcDbLine
 10
11264.79562931082
 20
223.3042536036332
 30
0.0
 11
11264.79562931082
 21
3187.611223188281
 31
0.0
  0
LINE
  5
23FEB
330
747D
100
AcDbEntity
  8
細線
100
AcDbLine
 10
10272.68746189057
 20
1626.639603411435
 30
0.0
 11
10078.05412821378
 21
1821.272937088218
 31
0.0
  0
LINE
  5
23FEC
330
747D
100
AcDbEntity
  8
部品1
100
AcDbLine
 10
10078.05412821378
 20
1866.639603411435
 30
0.0
 11
10558.05412821378
 21
1866.639603411435
 31
0.0
  0
LINE
  5
23FED
330
747D
100
AcDbEntity
  8
細線
 48
50.0
100
AcDbLine
 10
10212.12501265704
 20
1406.940687758085
 30
0.0
 11
10246.42250928823
 21
1534.940687758084
 31
0.0
  0
LINE
  5
23FEE
330
747D
100
AcDbEntity
  8
部品1
100
AcDbLine
 10
9958.054128213786
 20
1406.940687758082
 30
0.0
 11
10678.05412821378
 21
1406.940687758085
 31
0.0
  0
LINE
  5
23FEF
330
747D
100
AcDbEntity
  8
部品1
100
AcDbLine
 10
9958.054128213786
 20
1534.940687758085
 30
0.0
 11
10678.05412821378
 21
1534.940687758088
 31
0.0
  0
LINE
  5
23FF0
330
747D
100
AcDbEntity
  8
細線
100
AcDbLine
 10
10138.97277370703
 20
1534.940687758085
 30
0.0
 11
10230.67168936037
 21
1626.639603411435
 31
0.0
  0
LWPOLYLINE
  5
23FF1
330
747D
100
AcDbEntity
  8
部品1
 48
50.0
100
AcDbPolyline
 90
        2
 70
     0
 43
12.0
 10
9693.442866113398
 20
1626.639603411435
 10
10894.53516924502
 20
1626.639603411435
  0
LINE
  5
23FF2
330
747D
100
AcDbEntity
  8
細線
100
AcDbLine
 10
10221.77577364514
 20
1626.639603411435
 30
0.0
 11
10078.05412821378
 21
1770.361248842788
 31
0.0
  0
TEXT
  5
23FF3
330
747D
100
AcDbEntity
  8
部品1
 48
50.0
100
AcDbText
 10
9313.936041455283
 20
1359.839862774127
 30
0.0
 40
80.0
  1
ボルトの出
 50
90.0
  7
STYLE2
100
AcDbText
  0
LINE
  5
23FF4
330
747D
100
AcDbEntity
  8
部品1
100
AcDbLine
 10
10078.05412821378
 20
1626.639603411435
 30
0.0
 11
10078.05412821378
 21
1866.639603411435
 31
0.0
  0
LINE
  5
23FF5
330
747D
100
AcDbEntity
  8
細線
 48
50.0
100
AcDbLine
 10
10054.34892276255
 20
1406.940687758084
 30
0.0
 11
10088.64641939372
 21
1534.940687758084
 31
0.0
  0
LINE
  5
23FF6
330
747D
100
AcDbEntity
  8
細線
 48
50.0
100
AcDbLine
 10
10133.23696770979
 20
1406.940687758085
 30
0.0
 11
10167.53446434098
 21
1534.940687758085
 31
0.0
  0
LINE
  5
23FF7
330
747D
100
AcDbEntity
  8
細線
 48
50.0
100
AcDbLine
 10
9975.460877815299
 20
1406.940687758085
 30
0.0
 11
10009.75837444648
 21
1534.940687758085
 31
0.0
  0
LINE
  5
23FF8
330
747D
100
AcDbEntity
  8
部品1
100
AcDbLine
 10
9958.054128213786
 20
1406.940687758082
 30
0.0
 11
9958.054128213786
 21
1626.639603411435
 31
0.0
  0
LINE
  5
23FF9
330
747D
100
AcDbEntity
  8
細線
 48
50.0
100
AcDbLine
 10
10060.77970338089
 20
1430.940687758085
 30
0.0
 11
10067.21048399924
 21
1406.940687758085
 31
0.0
  0
LINE
  5
23FFA
330
747D
100
AcDbEntity
  8
細線
 48
50.0
100
AcDbLine
 10
9981.891658433648
 20
1430.940687758085
 30
0.0
 11
9988.322439051994
 21
1406.940687758085
 31
0.0
  0
LINE
  5
23FFB
330
747D
100
AcDbEntity
  8
細線
 48
50.0
100
AcDbLine
 10
10139.66774832815
 20
1430.940687758085
 30
0.0
 11
10146.09852894649
 21
1406.940687758085
 31
0.0
  0
LINE
  5
23FFC
330
747D
100
AcDbEntity
  8
細線
 48
50.0
100
AcDbLine
 10
10218.55579327539
 20
1430.940687758085
 30
0.0
 11
10224.98657389374
 21
1406.940687758085
 31
0.0
  0
LINE
  5
23FFD
330
747D
100
AcDbEntity
  8
細線
 48
50.0
100
AcDbLine
 10
10003.32759382813
 20
1510.940687758085
 30
0.0
 11
9996.896813209787
 21
1534.940687758085
 31
0.0
  0
LINE
  5
23FFE
330
747D
100
AcDbEntity
  8
細線
 48
50.0
100
AcDbLine
 10
10161.10368372264
 20
1510.940687758085
 30
0.0
 11
10154.67290310429
 21
1534.940687758085
 31
0.0
  0
LINE
  5
23FFF
330
747D
100
AcDbEntity
  8
細線
 48
50.0
100
AcDbLine
 10
10082.21563877538
 20
1510.940687758085
 30
0.0
 11
10075.78485815704
 21
1534.940687758085
 31
0.0
  0
LINE
  5
24000
330
747D
100
AcDbEntity
  8
細線
100
AcDbLine
 10
10071.09052271311
 20
1534.940687758085
 30
0.0
 11
10162.78943836646
 21
1626.639603411435
 31
0.0
  0
LINE
  5
24001
330
747D
100
AcDbEntity
  8
細線
100
AcDbLine
 10
10105.03164821007
 20
1534.940687758085
 30
0.0
 11
10196.73056386341
 21
1626.639603411435
 31
0.0
  0
LINE
  5
24002
330
747D
100
AcDbEntity
  8
細線
100
AcDbLine
 10
10493.30477762077
 20
1626.639603411435
 30
0.0
 11
10253.30477762077
 21
1866.639603411435
 31
0.0
  0
LINE
  5
24003
330
747D
100
AcDbEntity
  8
細線
100
AcDbLine
 10
10544.2164658662
 20
1626.639603411437
 30
0.0
 11
10304.2164658662
 21
1866.639603411435
 31
0.0
  0
LINE
  5
24004
330
747D
100
AcDbEntity
  8
部品1
100
AcDbLine
 10
10558.05412821378
 20
1866.639603411435
 30
0.0
 11
10558.05412821378
 21
1626.639603411435
 31
0.0
  0
LINE
  5
24005
330
747D
100
AcDbEntity
  8
細線
 48
50.0
100
AcDbLine
 10
10527.67719244603
 20
1406.940687758083
 30
0.0
 11
10561.97468907722
 21
1534.940687758083
 31
0.0
  0
LINE
  5
24006
330
747D
100
AcDbEntity
  8
細線
100
AcDbLine
 10
10498.97277370703
 20
1534.940687758087
 30
0.0
 11
10590.67168936037
 21
1626.639603411435
 31
0.0
  0
LINE
  5
24007
330
747D
100
AcDbEntity
  8
細線
 48
50.0
100
AcDbLine
 10
10448.78914749878
 20
1406.940687758084
 30
0.0
 11
10483.08664412996
 21
1534.940687758085
 31
0.0
  0
LINE
  5
24008
330
747D
100
AcDbEntity
  8
細線
 48
50.0
100
AcDbLine
 10
10291.01305760429
 20
1406.940687758084
 30
0.0
 11
10325.31055423547
 21
1534.940687758084
 31
0.0
  0
LINE
  5
24009
330
747D
100
AcDbEntity
  8
細線
 48
50.0
100
AcDbLine
 10
10369.90110255153
 20
1406.940687758085
 30
0.0
 11
10404.19859918272
 21
1534.940687758084
 31
0.0
  0
LINE
  5
2400A
330
747D
100
AcDbEntity
  8
細線
 48
50.0
100
AcDbLine
 10
10376.33188316989
 20
1430.940687758085
 30
0.0
 11
10382.76266378823
 21
1406.940687758085
 31
0.0
  0
LINE
  5
2400B
330
747D
100
AcDbEntity
  8
細線
 48
50.0
100
AcDbLine
 10
10297.44383822264
 20
1430.940687758085
 30
0.0
 11
10303.87461884099
 21
1406.940687758085
 31
0.0
  0
LINE
  5
2400C
330
747D
100
AcDbEntity
  8
細線
 48
50.0
100
AcDbLine
 10
10455.21992811713
 20
1430.940687758085
 30
0.0
 11
10461.65070873549
 21
1406.940687758085
 31
0.0
  0
LINE
  5
2400D
330
747D
100
AcDbEntity
  8
細線
 48
50.0
100
AcDbLine
 10
10534.10797306438
 20
1430.940687758084
 30
0.0
 11
10540.53875368273
 21
1406.940687758084
 31
0.0
  0
LINE
  5
2400E
330
747D
100
AcDbEntity
  8
細線
 48
50.0
100
AcDbLine
 10
10397.76781856438
 20
1510.940687758085
 30
0.0
 11
10391.33703794603
 21
1534.940687758085
 31
0.0
  0
LINE
  5
2400F
330
747D
100
AcDbEntity
  8
細線
 48
50.0
100
AcDbLine
 10
10318.87977361713
 20
1510.940687758085
 30
0.0
 11
10312.44899299878
 21
1534.940687758085
 31
0.0
  0
LINE
  5
24010
330
747D
100
AcDbEntity
  8
細線
 48
50.0
100
AcDbLine
 10
10239.99172866988
 20
1510.940687758085
 30
0.0
 11
10233.56094805154
 21
1534.940687758085
 31
0.0
  0
LINE
  5
24011
330
747D
100
AcDbEntity
  8
細線
100
AcDbLine
 10
10465.03164821007
 20
1534.940687758087
 30
0.0
 11
10556.73056386341
 21
1626.639603411435
 31
0.0
  0
LINE
  5
24012
330
747D
100
AcDbEntity
  8
細線
 48
50.0
100
AcDbLine
 10
10476.65586351161
 20
1510.940687758085
 30
0.0
 11
10470.22508289327
 21
1534.940687758085
 31
0.0
  0
LINE
  5
24013
330
747D
100
AcDbEntity
  8
細線
100
AcDbLine
 10
10431.09052271312
 20
1534.940687758087
 30
0.0
 11
10522.78943836646
 21
1626.639603411435
 31
0.0
  0
LINE
  5
24014
330
747D
100
AcDbEntity
  8
細線
 48
50.0
100
AcDbLine
 10
10555.54390845887
 20
1510.940687758084
 30
0.0
 11
10549.11312784052
 21
1534.940687758084
 31
0.0
  0
LINE
  5
24015
330
747D
100
AcDbEntity
  8
細線
 48
50.0
100
AcDbLine
 10
10606.56523739328
 20
1406.940687758084
 30
0.0
 11
10640.86273402446
 21
1534.940687758083
 31
0.0
  0
LINE
  5
24016
330
747D
100
AcDbEntity
  8
部品1
100
AcDbLine
 10
10678.05412821378
 20
1626.639603411435
 30
0.0
 11
10678.05412821379
 21
1406.940687758085
 31
0.0
  0
LINE
  5
24017
330
747D
100
AcDbEntity
  8
細線
 48
50.0
100
AcDbLine
 10
10612.99601801163
 20
1430.940687758084
 30
0.0
 11
10619.42679862998
 21
1406.940687758084
 31
0.0
  0
LINE
  5
24018
330
747D
100
AcDbEntity
  8
細線
 48
50.0
100
AcDbLine
 10
10634.43195340612
 20
1510.940687758084
 30
0.0
 11
10628.00117278777
 21
1534.940687758084
 31
0.0
  0
LEADER
  5
24019
330
747D
100
AcDbEntity
  8
寸法
 48
50.0
100
AcDbLeader
  3
INABA_S40G
 73
     0
 74
     0
 75
     1
 40
120.0
 41
185.591883092037
 76
     3
 10
10488.77853982971
 20
1866.639603411435
 30
0.0
 10
10531.91674646335
 20
2023.785924092573
 30
0.0
 10
10631.91674646335
 20
2023.785924092573
 30
0.0
1001
ACAD
1000
DSTYLE
1002
{
1070
   174
1070
     0
1070
   272
1070
     1
1070
   279
1070
     1
1070
   288
1070
     0
1070
   341
1005
0
1002
}
  0
MTEXT
  5
2401A
102
{ACAD_REACTORS
330
24019
102
}
330
747D
100
AcDbEntity
  8
寸法
 62
     7
 48
50.0
100
AcDbMText
 10
10671.91674646335
 20
2123.785924092573
 30
0.0
 40
120.0
 41
0.8
 71
     4
 72
     1
  1
\A1;C.B
  7
STYLE1
 73
     1
 44
1.0
1001
ACAD
1000
MTEXTBEGIN
1070
    73
1070
     1
1070
    44
1040
1.0
1070
    74
1070
     0
1000
MTEXTEND
  0
ENDSEC
  0
SECTION
  2
OBJECTS
  0
DICTIONARY
  5
7471
330
0
100
AcDbDictionary
281
     1
  3
ACAD_COLOR
350
173D2
  3
ACAD_GROUP
350
7472
  3
ACAD_LAYOUT
350
173D3
  3
ACAD_MATERIAL
350
173D1
  3
ACAD_MLINESTYLE
350
7473
  3
ACAD_PLOTSETTINGS
350
173D4
  3
ACAD_PLOTSTYLENAME
350
173CF
  3
ACDBHEADERROUNDTRIPXREC
350
240B3
  3
AcDbVariableDictionary
350
240AF
  3
CONTENTDICTIONARY
350
E71C
  3
DRAWINGVARIABLESDICT
350
F3B9
  0
DICTIONARY
  5
1758F
330
7467
100
AcDbDictionary
280
     1
281
     1
  3
ACAD_LAYERSTATES
360
17590
  0
DICTIONARY
  5
173D2
102
{ACAD_REACTORS
330
7471
102
}
330
7471
100
AcDbDictionary
281
     1
  0
DICTIONARY
  5
7472
102
{ACAD_REACTORS
330
7471
102
}
330
7471
100
AcDbDictionary
281
     1
  3
*A1
350
1D2A9
  0
DICTIONARY
  5
173D3
102
{ACAD_REACTORS
330
7471
102
}
330
7471
100
AcDbDictionary
281
     1
  3
Model
350
173D5
  3
レイアウト1
350
173D6
  0
DICTIONARY
  5
173D1
102
{ACAD_REACTORS
330
7471
102
}
330
7471
100
AcDbDictionary
281
     1
  0
DICTIONARY
  5
7473
102
{ACAD_REACTORS
330
7471
102
}
330
7471
100
AcDbDictionary
281
     1
  3
STANDARD
350
7480
  0
DICTIONARY
  5
173D4
102
{ACAD_REACTORS
330
7471
102
}
330
7471
100
AcDbDictionary
281
     1
  0
ACDBDICTIONARYWDFLT
  5
173CF
102
{ACAD_REACTORS
330
7471
102
}
330
7471
100
AcDbDictionary
281
     1
  3
Normal
350
173D0
100
AcDbDictionaryWithDefault
340
173D0
  0
DICTIONARY
  5
240B3
102
{ACAD_REACTORS
330
7471
102
}
330
7471
100
AcDbDictionary
281
     1
  3
COLORDICT
350
240B5
  3
MATERIALDICT
350
240B4
  0
DICTIONARY
  5
240AF
102
{ACAD_REACTORS
330
7471
102
}
330
7471
100
AcDbDictionary
281
     1
  3
DIMASSOC
350
240B0
  3
PROJECTNAME
350
240B1
  0
DICTIONARY
  5
E71C
102
{ACAD_REACTORS
330
7471
102
}
330
7471
100
AcDbDictionary
281
     1
  0
DICTIONARY
  5
F3B9
102
{ACAD_REACTORS
330
7471
102
}
330
7471
100
AcDbDictionary
281
     1
1001
DRAWINGVARIABLESXDATA
1000
POLARMODE
1000
1
  0
DICTIONARY
  5
17590
102
{ACAD_REACTORS
330
1758F
102
}
330
1758F
100
AcDbDictionary
281
     1
  0
GROUP
  5
1D2A9
102
{ACAD_REACTORS
330
7472
102
}
330
7472
100
AcDbGroup
300

 70
     1
 71
     1
  0
LAYOUT
  5
173D5
102
{ACAD_XDICTIONARY
360
240B6
102
}
102
{ACAD_REACTORS
330
173D3
102
}
330
173D3
100
AcDbPlotSettings
  1

  2
クセロPDFよこ.pc3
  4
A3
  6

 40
3.174999952316284
 41
3.174999952316284
 42
3.17498779296875
 43
3.17498779296875
 44
419.9466552734374
 45
296.9259948730469
 46
0.0
 47
0.0
 48
0.0
 49
0.0
140
0.0
141
0.0
142
1.0
143
40.0
 70
 11952
 72
     1
 73
     0
 74
     2
  7
ACA3.ctb
 75
    24
147
0.025
148
0.0
149
0.0
100
AcDbLayout
  1
Model
 70
     1
 71
     0
 10
0.0
 20
0.0
 11
12.0
 21
9.0
 12
0.0
 22
0.0
 32
0.0
 14
0.0
 24
0.0
 34
0.0
 15
0.0
 25
0.0
 35
0.0
146
0.0
 13
0.0
 23
0.0
 33
0.0
 16
1.0
 26
0.0
 36
0.0
 17
0.0
 27
1.0
 37
0.0
 76
     0
330
747D
  0
LAYOUT
  5
173D6
102
{ACAD_XDICTIONARY
360
240B8
102
}
102
{ACAD_REACTORS
330
173D3
102
}
330
173D3
100
AcDbPlotSettings
  1

  2
Microsoft Office Document Image Writer
  4

  6

 40
0.0
 41
0.0
 42
0.0
 43
0.0
 44
0.0
 45
0.0
 46
0.0
 47
0.0
 48
0.0
 49
0.0
140
0.0
141
0.0
142
1.0
143
1.0
 70
   688
 72
     0
 73
     0
 74
     5
  7
ACA3.ctb
 75
    16
147
1.0
148
0.0
149
0.0
100
AcDbLayout
  1
レイアウト1
 70
     0
 71
     1
 10
0.0
 20
0.0
 11
420.0
 21
297.0
 12
0.0
 22
0.0
 32
0.0
 14
1.000000000000000E+20
 24
1.000000000000000E+20
 34
1.000000000000000E+20
 15
-1.000000000000000E+20
 25
-1.000000000000000E+20
 35
-1.000000000000000E+20
146
0.0
 13
0.0
 23
0.0
 33
0.0
 16
1.0
 26
0.0
 36
0.0
 17
0.0
 27
1.0
 37
0.0
 76
     0
330
747A
  0
MLINESTYLE
  5
7480
102
{ACAD_REACTORS
330
7473
102
}
330
7473
100
AcDbMlineStyle
  2
STANDARD
 70
     0
  3

 62
     0
 51
90.0
 52
90.0
 71
     2
 49
0.5
 62
   256
  6
BYLAYER
 49
-0.5
 62
   256
  6
BYLAYER
  0
ACDBPLACEHOLDER
  5
173D0
102
{ACAD_REACTORS
330
173CF
102
}
330
173CF
  0
XRECORD
  5
240B5
102
{ACAD_REACTORS
330
240B3
102
}
330
240B3
100
AcDbXrecord
280
     1
340
173D2
  0
XRECORD
  5
240B4
102
{ACAD_REACTORS
330
240B3
102
}
330
240B3
100
AcDbXrecord
280
     1
340
173D1
  0
DICTIONARYVAR
  5
240B0
102
{ACAD_REACTORS
330
240AF
102
}
330
240AF
100
DictionaryVariables
280
     0
  1
1
  0
DICTIONARYVAR
  5
240B1
102
{ACAD_REACTORS
330
240AF
102
}
330
240AF
100
DictionaryVariables
280
     0
  1

  0
DICTIONARY
  5
240B6
330
173D5
100
AcDbDictionary
280
     1
281
     1
  3
ACAD_XREC_ROUNDTRIP
360
240B7
  0
DICTIONARY
  5
240B8
330
173D6
100
AcDbDictionary
280
     1
281
     1
  3
ACAD_XREC_ROUNDTRIP
360
240B9
  0
XRECORD
  5
240B7
102
{ACAD_REACTORS
330
240B6
102
}
330
240B6
100
AcDbXrecord
280
     1
102
SHADEPLOT
 70
     0
102
SHADEPLOTRESLEVEL
 70
     2
102
SHADEPLOTCUSTOMDPI
 70
   150
  0
XRECORD
  5
240B9
102
{ACAD_REACTORS
330
240B8
102
}
330
240B8
100
AcDbXrecord
280
     1
102
SHADEPLOT
 70
     0
102
SHADEPLOTRESLEVEL
 70
     2
102
SHADEPLOTCUSTOMDPI
 70
   300
  0
ENDSEC
  0
EOF
