  0
SECTION
  2
HEADER
  9
$ACADVER
  1
AC1015
  9
$ACADMAINTVER
 70
    20
  9
$DWGCODEPAGE
  3
ANSI_932
  9
$INSBASE
 10
0.0
 20
0.0
 30
0.0
  9
$EXTMIN
 10
139.9999999999995
 20
-0.0000000000000909
 30
0.0
  9
$EXTMAX
 10
16307.2
 20
11409.6
 30
0.0
  9
$LIMMIN
 10
0.0
 20
0.0
  9
$LIMMAX
 10
16800.0
 20
11880.0
  9
$ORTHOMODE
 70
     0
  9
$REGENMODE
 70
     1
  9
$FILLMODE
 70
     1
  9
$QTEXTMODE
 70
     0
  9
$MIRRTEXT
 70
     1
  9
$LTSCALE
 40
20.0
  9
$ATTMODE
 70
     1
  9
$TEXTSIZE
 40
4.0
  9
$TRACEWID
 40
1.0
  9
$TEXTSTYLE
  7
STYLE1
  9
$CLAYER
  8
細線
  9
$CELTYPE
  6
BYLAYER
  9
$CECOLOR
 62
   256
  9
$CELTSCALE
 40
50.0
  9
$DISPSILH
 70
     0
  9
$DIMSCALE
 40
40.0
  9
$DIMASZ
 40
2.5
  9
$DIMEXO
 40
0.5
  9
$DIMDLI
 40
7.0
  9
$DIMRND
 40
0.0
  9
$DIMDLE
 40
0.0
  9
$DIMEXE
 40
1.5
  9
$DIMTP
 40
0.0
  9
$DIMTM
 40
0.0
  9
$DIMTXT
 40
3.0
  9
$DIMCEN
 40
0.0
  9
$DIMTSZ
 40
0.0
  9
$DIMTOL
 70
     0
  9
$DIMLIM
 70
     0
  9
$DIMTIH
 70
     0
  9
$DIMTOH
 70
     0
  9
$DIMSE1
 70
     0
  9
$DIMSE2
 70
     0
  9
$DIMTAD
 70
     3
  9
$DIMZIN
 70
     8
  9
$DIMBLK
  1

  9
$DIMASO
 70
     1
  9
$DIMSHO
 70
     1
  9
$DIMPOST
  1

  9
$DIMAPOST
  1

  9
$DIMALT
 70
     0
  9
$DIMALTD
 70
     2
  9
$DIMALTF
 40
0.0394
  9
$DIMLFAC
 40
1.0
  9
$DIMTOFL
 70
     1
  9
$DIMTVP
 40
0.0
  9
$DIMTIX
 70
     1
  9
$DIMSOXD
 70
     0
  9
$DIMSAH
 70
     1
  9
$DIMBLK1
  1
DOTSMALL
  9
$DIMBLK2
  1
DOTSMALL
  9
$DIMSTYLE
  2
INABA_S40G
  9
$DIMCLRD
 70
     0
  9
$DIMCLRE
 70
     0
  9
$DIMCLRT
 70
     7
  9
$DIMTFAC
 40
1.0
  9
$DIMGAP
 40
1.0
  9
$DIMJUST
 70
     0
  9
$DIMSD1
 70
     0
  9
$DIMSD2
 70
     0
  9
$DIMTOLJ
 70
     1
  9
$DIMTZIN
 70
     0
  9
$DIMALTZ
 70
     0
  9
$DIMALTTZ
 70
     0
  9
$DIMUPT
 70
     0
  9
$DIMDEC
 70
     1
  9
$DIMTDEC
 70
     4
  9
$DIMALTU
 70
     2
  9
$DIMALTTD
 70
     2
  9
$DIMTXSTY
  7
STYLE1
  9
$DIMAUNIT
 70
     0
  9
$DIMADEC
 70
     0
  9
$DIMALTRND
 40
0.0
  9
$DIMAZIN
 70
     0
  9
$DIMDSEP
 70
    46
  9
$DIMATFIT
 70
     3
  9
$DIMFRAC
 70
     0
  9
$DIMLDRBLK
  1

  9
$DIMLUNIT
 70
     2
  9
$DIMLWD
 70
    -2
  9
$DIMLWE
 70
    -2
  9
$DIMTMOVE
 70
     0
  9
$LUNITS
 70
     2
  9
$LUPREC
 70
     1
  9
$SKETCHINC
 40
1.0
  9
$FILLETRAD
 40
3.0
  9
$AUNITS
 70
     0
  9
$AUPREC
 70
     0
  9
$MENU
  1
acad
  9
$ELEVATION
 40
0.0
  9
$PELEVATION
 40
0.0
  9
$THICKNESS
 40
0.0
  9
$LIMCHECK
 70
     0
  9
$CHAMFERA
 40
0.0
  9
$CHAMFERB
 40
0.0
  9
$CHAMFERC
 40
0.0
  9
$CHAMFERD
 40
0.0
  9
$SKPOLY
 70
     0
  9
$TDCREATE
 40
2451368.612993866
  9
$TDUCREATE
 40
2451368.237993866
  9
$TDUPDATE
 40
2455827.647723114
  9
$TDUUPDATE
 40
2455827.272723114
  9
$TDINDWG
 40
0.7409703588
  9
$TDUSRTIMER
 40
0.7409703588
  9
$USRTIMER
 70
     1
  9
$ANGBASE
 50
0.0
  9
$ANGDIR
 70
     0
  9
$PDMODE
 70
     3
  9
$PDSIZE
 40
2.0
  9
$PLINEWID
 40
0.0
  9
$SPLFRAME
 70
     0
  9
$SPLINETYPE
 70
     6
  9
$SPLINESEGS
 70
     8
  9
$HANDSEED
  5
23674
  9
$SURFTAB1
 70
     6
  9
$SURFTAB2
 70
     6
  9
$SURFTYPE
 70
     6
  9
$SURFU
 70
     6
  9
$SURFV
 70
     6
  9
$UCSBASE
  2

  9
$UCSNAME
  2

  9
$UCSORG
 10
0.0
 20
0.0
 30
0.0
  9
$UCSXDIR
 10
1.0
 20
0.0
 30
0.0
  9
$UCSYDIR
 10
0.0
 20
1.0
 30
0.0
  9
$UCSORTHOREF
  2

  9
$UCSORTHOVIEW
 70
     0
  9
$UCSORGTOP
 10
0.0
 20
0.0
 30
0.0
  9
$UCSORGBOTTOM
 10
0.0
 20
0.0
 30
0.0
  9
$UCSORGLEFT
 10
0.0
 20
0.0
 30
0.0
  9
$UCSORGRIGHT
 10
0.0
 20
0.0
 30
0.0
  9
$UCSORGFRONT
 10
0.0
 20
0.0
 30
0.0
  9
$UCSORGBACK
 10
0.0
 20
0.0
 30
0.0
  9
$PUCSBASE
  2

  9
$PUCSNAME
  2

  9
$PUCSORG
 10
0.0
 20
0.0
 30
0.0
  9
$PUCSXDIR
 10
1.0
 20
0.0
 30
0.0
  9
$PUCSYDIR
 10
0.0
 20
1.0
 30
0.0
  9
$PUCSORTHOREF
  2

  9
$PUCSORTHOVIEW
 70
     0
  9
$PUCSORGTOP
 10
0.0
 20
0.0
 30
0.0
  9
$PUCSORGBOTTOM
 10
0.0
 20
0.0
 30
0.0
  9
$PUCSORGLEFT
 10
0.0
 20
0.0
 30
0.0
  9
$PUCSORGRIGHT
 10
0.0
 20
0.0
 30
0.0
  9
$PUCSORGFRONT
 10
0.0
 20
0.0
 30
0.0
  9
$PUCSORGBACK
 10
0.0
 20
0.0
 30
0.0
  9
$USERI1
 70
     0
  9
$USERI2
 70
     0
  9
$USERI3
 70
     0
  9
$USERI4
 70
     0
  9
$USERI5
 70
     0
  9
$USERR1
 40
0.0
  9
$USERR2
 40
0.0
  9
$USERR3
 40
0.0
  9
$USERR4
 40
0.0
  9
$USERR5
 40
0.0
  9
$WORLDVIEW
 70
     1
  9
$SHADEDGE
 70
     3
  9
$SHADEDIF
 70
    70
  9
$TILEMODE
 70
     1
  9
$MAXACTVP
 70
    16
  9
$PINSBASE
 10
0.0
 20
0.0
 30
0.0
  9
$PLIMCHECK
 70
     0
  9
$PEXTMIN
 10
1.000000000000000E+20
 20
1.000000000000000E+20
 30
1.000000000000000E+20
  9
$PEXTMAX
 10
-1.000000000000000E+20
 20
-1.000000000000000E+20
 30
-1.000000000000000E+20
  9
$PLIMMIN
 10
0.0
 20
0.0
  9
$PLIMMAX
 10
420.0
 20
297.0
  9
$UNITMODE
 70
     0
  9
$VISRETAIN
 70
     0
  9
$PLINEGEN
 70
     0
  9
$PSLTSCALE
 70
     0
  9
$TREEDEPTH
 70
  3020
  9
$CMLSTYLE
  2
STANDARD
  9
$CMLJUST
 70
     0
  9
$CMLSCALE
 40
1.0
  9
$PROXYGRAPHICS
 70
     1
  9
$MEASUREMENT
 70
     1
  9
$CELWEIGHT
370
    -1
  9
$ENDCAPS
280
     0
  9
$JOINSTYLE
280
     0
  9
$LWDISPLAY
290
     0
  9
$INSUNITS
 70
     0
  9
$HYPERLINKBASE
  1

  9
$STYLESHEET
  1
ACA3.ctb
  9
$XEDIT
290
     1
  9
$CEPSNTYPE
380
     0
  9
$PSTYLEMODE
290
     1
  9
$FINGERPRINTGUID
  2
{5EAC461A-2277-4BF8-9AB0-99C43BB394F0}
  9
$VERSIONGUID
  2
{D40221B8-F62B-477C-B2FA-4F991EE442DD}
  9
$EXTNAMES
290
     1
  9
$PSVPSCALE
 40
0.0
  9
$OLESTARTUP
290
     0
  0
ENDSEC
  0
SECTION
  2
CLASSES
  0
CLASS
  1
ACDBDICTIONARYWDFLT
  2
AcDbDictionaryWithDefault
  3
ObjectDBX Classes
 90
        0
280
     0
281
     0
  0
CLASS
  1
DICTIONARYVAR
  2
AcDbDictionaryVar
  3
ObjectDBX Classes
 90
        0
280
     0
281
     0
  0
CLASS
  1
ACDBPLACEHOLDER
  2
AcDbPlaceHolder
  3
ObjectDBX Classes
 90
        0
280
     0
281
     0
  0
CLASS
  1
LAYOUT
  2
AcDbLayout
  3
ObjectDBX Classes
 90
        0
280
     0
281
     0
  0
ENDSEC
  0
SECTION
  2
TABLES
  0
TABLE
  2
VPORT
  5
746D
330
0
100
AcDbSymbolTable
 70
     2
  0
VPORT
  5
2366C
330
746D
100
AcDbSymbolTableRecord
100
AcDbViewportTableRecord
  2
*Active
 70
     0
 10
0.0
 20
0.0
 11
1.0
 21
1.0
 12
7494.645137147847
 22
6549.85195822724
 13
0.0
 23
0.0
 14
10.0
 24
10.0
 15
10.0
 25
10.0
 16
0.0
 26
0.0
 36
1.0
 17
0.0
 27
0.0
 37
0.0
 40
13195.45698969996
 41
1.522222222222222
 42
50.0
 43
0.0
 44
0.0
 50
0.0
 51
0.0
 71
     0
 72
     0
 73
     1
 74
     0
 75
     0
 76
     0
 77
     0
 78
     0
281
     0
 65
     1
110
0.0
120
0.0
130
0.0
111
1.0
121
0.0
131
0.0
112
0.0
122
1.0
132
0.0
 79
     0
146
0.0
  0
ENDTAB
  0
TABLE
  2
LTYPE
  5
746A
330
0
100
AcDbSymbolTable
 70
     5
  0
LTYPE
  5
7477
330
746A
100
AcDbSymbolTableRecord
100
AcDbLinetypeTableRecord
  2
BYBLOCK
 70
     0
  3

 72
    65
 73
     0
 40
0.0
  0
LTYPE
  5
7478
330
746A
100
AcDbSymbolTableRecord
100
AcDbLinetypeTableRecord
  2
BYLAYER
 70
     0
  3

 72
    65
 73
     0
 40
0.0
  0
LTYPE
  5
7479
330
746A
100
AcDbSymbolTableRecord
100
AcDbLinetypeTableRecord
  2
CONTINUOUS
 70
     0
  3
Solid line
 72
    65
 73
     0
 40
0.0
  0
LTYPE
  5
7816
330
746A
100
AcDbSymbolTableRecord
100
AcDbLinetypeTableRecord
  2
CENTER
 70
     0
  3
____ _ ____ _ ____ _ ____ _ ____ _ ____ _ ____ 
 72
    65
 73
     4
 40
2.0
 49
1.25
 74
     0
 49
-0.25
 74
     0
 49
0.25
 74
     0
 49
-0.25
 74
     0
  0
LTYPE
  5
781A
330
746A
100
AcDbSymbolTableRecord
100
AcDbLinetypeTableRecord
  2
HIDDEN
 70
     0
  3
__ __ __ __ __ __ __ __ __ __ __ __ __ __ __ __
 72
    65
 73
     2
 40
0.375
 49
0.25
 74
     0
 49
-0.125
 74
     0
  0
LTYPE
  5
781B
330
746A
100
AcDbSymbolTableRecord
100
AcDbLinetypeTableRecord
  2
PHANTOM
 70
     0
  3
______  __  __  ______  __  __  ______  __  __ 
 72
    65
 73
     6
 40
2.5
 49
1.25
 74
     0
 49
-0.25
 74
     0
 49
0.25
 74
     0
 49
-0.25
 74
     0
 49
0.25
 74
     0
 49
-0.25
 74
     0
  0
LTYPE
  5
12CC3
330
746A
100
AcDbSymbolTableRecord
100
AcDbLinetypeTableRecord
  2
HIDDENX2
 70
     0
  3
Hidden (2x) ____ ____ ____ ____ ____ ____ ____
 72
    65
 73
     2
 40
19.05
 49
12.7
 74
     0
 49
-6.349999999999999
 74
     0
  0
ENDTAB
  0
TABLE
  2
LAYER
  5
7467
102
{ACAD_XDICTIONARY
360
1758F
102
}
330
0
100
AcDbSymbolTable
 70
    13
  0
LAYER
  5
7474
330
7467
100
AcDbSymbolTableRecord
100
AcDbLayerTableRecord
  2
0
 70
     0
 62
     7
  6
CONTINUOUS
370
    -3
390
173D0
  0
LAYER
  5
DEB2
330
7467
100
AcDbSymbolTableRecord
100
AcDbLayerTableRecord
  2
センター
 70
     0
 62
     3
  6
CENTER
370
    -3
390
173D0
  0
LAYER
  5
DEB3
330
7467
100
AcDbSymbolTableRecord
100
AcDbLayerTableRecord
  2
寸法
 70
     0
 62
     4
  6
CONTINUOUS
370
    -3
390
173D0
  0
LAYER
  5
DEB4
330
7467
100
AcDbSymbolTableRecord
100
AcDbLayerTableRecord
  2
部品1
 70
     0
 62
     7
  6
CONTINUOUS
370
    -3
390
173D0
  0
LAYER
  5
DEB5
330
7467
100
AcDbSymbolTableRecord
100
AcDbLayerTableRecord
  2
補助
 70
     0
 62
    -1
  6
CONTINUOUS
370
    -3
390
173D0
  0
LAYER
  5
DEB6
330
7467
100
AcDbSymbolTableRecord
100
AcDbLayerTableRecord
  2
文字
 70
     0
 62
     7
  6
CONTINUOUS
370
    -3
390
173D0
  0
LAYER
  5
F255
330
7467
100
AcDbSymbolTableRecord
100
AcDbLayerTableRecord
  2
DEFPOINTS
 70
     0
 62
     7
  6
CONTINUOUS
290
     0
370
    -3
390
173D0
  0
LAYER
  5
10B54
330
7467
100
AcDbSymbolTableRecord
100
AcDbLayerTableRecord
  2
仕様書枠
 70
     0
 62
   230
  6
CONTINUOUS
370
    -3
390
173D0
  0
LAYER
  5
11729
330
7467
100
AcDbSymbolTableRecord
100
AcDbLayerTableRecord
  2
Ｇ．Ｌ
 70
     0
 62
    30
  6
CONTINUOUS
370
    -3
390
173D0
  0
LAYER
  5
1173F
330
7467
100
AcDbSymbolTableRecord
100
AcDbLayerTableRecord
  2
細線
 70
     0
 62
     5
  6
CONTINUOUS
370
    -3
390
173D0
  0
LAYER
  5
12CC4
330
7467
100
AcDbSymbolTableRecord
100
AcDbLayerTableRecord
  2
想像線
 70
     0
 62
     6
  6
PHANTOM
370
    -3
390
173D0
  0
LAYER
  5
142E2
330
7467
100
AcDbSymbolTableRecord
100
AcDbLayerTableRecord
  2
破線
 70
     0
 62
     2
  6
HIDDEN
370
    -3
390
173D0
  0
LAYER
  5
1F7B1
330
7467
100
AcDbSymbolTableRecord
100
AcDbLayerTableRecord
  2
点線
 70
     0
 62
     2
  6
HIDDEN
370
    -3
390
173D0
  0
ENDTAB
  0
TABLE
  2
STYLE
  5
7468
330
0
100
AcDbSymbolTable
 70
     7
  0
STYLE
  5
7475
330
7468
100
AcDbSymbolTableRecord
100
AcDbTextStyleTableRecord
  2
STANDARD
 70
     0
 40
0.0
 41
1.0
 50
0.0
 71
     0
 42
4.0
  3
txt
  4
C:\AutoCAD LT\bigfont.shx
  0
STYLE
  5
763C
330
7468
100
AcDbSymbolTableRecord
100
AcDbTextStyleTableRecord
  2
MSMINCHO
 70
     0
 40
0.0
 41
1.0
 50
0.0
 71
     0
 42
1.199999999999999
  3
C:\AutoCAD LT\msminch2.TTF
  4

  0
STYLE
  5
F706
330
7468
100
AcDbSymbolTableRecord
100
AcDbTextStyleTableRecord
  2
STYLE1
 70
     0
 40
0.0
 41
1.0
 50
0.0
 71
     0
 42
4.0
  3
isocp.shx
  4
bigfont.shx
  0
STYLE
  5
103BF
330
7468
100
AcDbSymbolTableRecord
100
AcDbTextStyleTableRecord
  2
STYLE2
 70
     0
 40
0.0
 41
1.0
 50
0.0
 71
     0
 42
100.0
  3
MS PGothic.ttf
  4

1001
ACAD
1000
MS PGothic
1071
    32818
  0
STYLE
  5
10BAA
330
7468
100
AcDbSymbolTableRecord
100
AcDbTextStyleTableRecord
  2
STYLE3
 70
     0
 40
0.0
 41
1.0
 50
0.0
 71
     0
 42
100.0
  3

  4

1001
ACAD
1000
DFPGothic-EB
1071
    32818
  0
STYLE
  5
11A15
330
7468
100
AcDbSymbolTableRecord
100
AcDbTextStyleTableRecord
  2
MSGOTHIC
 70
     0
 40
0.0
 41
1.0
 50
0.0
 71
     0
 42
3.5
  3
msgothi2.ttf
  4

  0
STYLE
  5
13E96
330
7468
100
AcDbSymbolTableRecord
100
AcDbTextStyleTableRecord
  2
MSPゴシック
 70
     0
 40
0.0
 41
1.0
 50
0.0
 71
     0
 42
4.0
  3
MS PGothic.ttf
  4

1001
ACAD
1000
MS PGothic
1071
    32818
  0
ENDTAB
  0
TABLE
  2
VIEW
  5
746B
330
0
100
AcDbSymbolTable
 70
     0
  0
ENDTAB
  0
TABLE
  2
UCS
  5
746C
330
0
100
AcDbSymbolTable
 70
     0
  0
ENDTAB
  0
TABLE
  2
APPID
  5
746E
330
0
100
AcDbSymbolTable
 70
     6
  0
APPID
  5
7476
330
746E
100
AcDbSymbolTableRecord
100
AcDbRegAppTableRecord
  2
ACAD
 70
     0
  0
APPID
  5
DEA9
330
746E
100
AcDbSymbolTableRecord
100
AcDbRegAppTableRecord
  2
CONTENTBLOCKICON
 70
     0
  0
APPID
  5
DEAA
330
746E
100
AcDbSymbolTableRecord
100
AcDbRegAppTableRecord
  2
CONTENTBLOCKDESCRIPTION
 70
     0
  0
APPID
  5
E71D
330
746E
100
AcDbSymbolTableRecord
100
AcDbRegAppTableRecord
  2
CONTENTTABDATA
 70
     0
  0
APPID
  5
E71E
330
746E
100
AcDbSymbolTableRecord
100
AcDbRegAppTableRecord
  2
CONTENTCURRENTTAB
 70
     0
  0
APPID
  5
F3BA
330
746E
100
AcDbSymbolTableRecord
100
AcDbRegAppTableRecord
  2
DRAWINGVARIABLESXDATA
 70
     0
  0
ENDTAB
  0
TABLE
  2
DIMSTYLE
  5
746F
330
0
100
AcDbSymbolTable
 70
     6
100
AcDbDimStyleTable
 71
     1
340
F71F
  0
DIMSTYLE
105
7484
330
746F
100
AcDbSymbolTableRecord
100
AcDbDimStyleTableRecord
  2
JIS
 70
     0
 41
2.5
 42
1.0
 43
7.0
 44
1.0
 73
     0
 74
     0
 77
     1
 78
     8
140
2.5
141
0.0
143
0.0394
147
0.0
172
     1
174
     1
175
     1
340
7475
  0
DIMSTYLE
105
F236
330
746F
100
AcDbSymbolTableRecord
100
AcDbDimStyleTableRecord
  2
INABA_S40
 70
     0
 40
40.0
 41
2.5
 42
0.5
 43
7.0
 44
1.5
 73
     0
 74
     0
 77
     3
 78
     8
140
3.0
141
0.0
143
0.0394
147
1.0
172
     1
173
     1
174
     1
175
     1
178
     7
289
     0
340
7475
341
DEAC
343
DEAC
344
DEAC
  0
DIMSTYLE
105
F71F
102
{ACAD_REACTORS
330
202C8
330
2030F
330
20311
330
2031B
330
1FC6F
330
1FC4A
330
1FC2F
330
1FC2E
330
1FB37
330
1FB11
330
1FB0F
330
1FB0E
330
1FA26
330
1FA21
330
1FA1F
330
1FB10
330
1FB0C
330
1FA2F
330
1FC59
330
1FC40
330
1FC30
330
1FB76
330
21720
330
21742
330
2176E
330
21785
330
217D3
330
22522
330
234AA
330
234AB
330
234B3
330
234BA
330
234BD
330
2351D
102
}
330
746F
100
AcDbSymbolTableRecord
100
AcDbDimStyleTableRecord
  2
INABA_S40G
 70
     0
 40
40.0
 41
2.5
 42
0.5
 43
7.0
 44
1.5
 73
     0
 74
     0
 77
     3
 78
     8
140
3.0
141
0.0
143
0.0394
147
1.0
172
     1
173
     1
174
     1
178
     7
271
     1
340
F706
341
F770
343
F770
344
F770
  0
DIMSTYLE
105
142E3
330
746F
100
AcDbSymbolTableRecord
100
AcDbDimStyleTableRecord
  2
INABA_S1
 70
     0
 40
0.0
 41
2.5
 42
0.5
 43
7.0
 44
1.5
 73
     0
 74
     0
 77
     3
 78
     8
140
3.0
141
0.0
143
0.0394
146
0.5
147
0.5
172
     1
173
     1
176
   256
177
   256
178
     7
271
     2
272
     2
284
     8
288
     1
340
7475
341
DEAC
343
DEAC
344
DEAC
  0
DIMSTYLE
105
14463
330
746F
100
AcDbSymbolTableRecord
100
AcDbDimStyleTableRecord
  2
INABA_S30G
 70
     0
 40
30.0
 41
2.5
 42
0.5
 43
7.0
 44
1.5
 73
     0
 74
     0
 77
     3
 78
     8
140
3.0
141
0.0
143
0.0394
147
1.0
172
     1
173
     1
174
     1
175
     1
178
     7
271
     1
340
F706
341
F770
343
F770
344
F770
  0
DIMSTYLE
105
1758E
330
746F
100
AcDbSymbolTableRecord
100
AcDbDimStyleTableRecord
  2
INABA_S50G
 70
     0
 41
125.0
 42
25.0
 43
7.0
 44
75.0
 73
     0
 74
     0
 77
     3
 78
     8
140
150.0
141
0.0
143
0.0394
147
25.0
172
     1
173
     1
174
     1
175
     1
178
     7
271
     1
340
F706
341
F770
343
F770
344
F770
  0
ENDTAB
  0
TABLE
  2
BLOCK_RECORD
  5
7466
330
0
100
AcDbSymbolTable
 70
    66
  0
BLOCK_RECORD
  5
747D
330
7466
100
AcDbSymbolTableRecord
100
AcDbBlockTableRecord
  2
*MODEL_SPACE
340
173D5
  0
BLOCK_RECORD
  5
747A
330
7466
100
AcDbSymbolTableRecord
100
AcDbBlockTableRecord
  2
*PAPER_SPACE
340
173D6
  0
BLOCK_RECORD
  5
DEAC
330
7466
100
AcDbSymbolTableRecord
100
AcDbBlockTableRecord
  2
_OPEN
340
0
  0
BLOCK_RECORD
  5
F770
330
7466
100
AcDbSymbolTableRecord
100
AcDbBlockTableRecord
  2
_DOTSMALL
340
0
102
{BLKREFS
331
18C65
331
18C66
331
18C59
331
18C5A
331
18C4D
331
18C4E
331
18C41
331
18C42
331
18C35
331
18C36
331
18C29
331
18C2A
331
18C1D
331
18C1E
331
18C0F
331
18C10
331
18C03
331
18C04
331
18BF5
331
18BF6
331
18BE7
331
18BE8
331
18BD9
331
18BDA
331
18BCD
331
18BCE
331
21880
331
21881
331
218ED
331
218EE
331
2192F
331
21930
331
21F1B
331
21F1C
331
21F26
331
21F27
331
21F31
331
21F32
331
21F3B
331
21F3C
331
21F45
331
21F46
331
21F57
331
21F58
331
21F60
331
21F61
331
21F69
331
21F6A
331
21F72
331
21F73
331
21F85
331
21F86
331
21F8F
331
21F90
331
21FA1
331
21FA2
331
21FAA
331
21FAB
331
21FB3
331
21FB4
331
220DF
331
220E0
331
220E8
331
220E9
331
224E6
331
224E7
331
22501
331
22502
331
2250A
331
2250B
331
2251C
331
2251D
331
2253B
331
2253C
331
22550
331
22551
331
22559
331
2255A
331
22583
331
22584
331
225B2
331
225B3
331
22FA7
331
22FA8
331
232DA
331
232DB
331
232E3
331
232E4
331
232EC
331
232ED
331
232F5
331
232F6
331
23303
331
23304
331
2330B
331
2330C
331
23361
331
23362
331
23356
331
23357
331
23345
331
23346
331
23339
331
2333A
331
2332D
331
2332E
331
23321
331
23322
331
23626
331
23627
331
23635
331
23636
331
2363E
331
2363F
331
23647
331
23648
331
23650
331
23651
331
23659
331
2365A
102
}
  0
BLOCK_RECORD
  5
164B4
330
7466
100
AcDbSymbolTableRecord
100
AcDbBlockTableRecord
  2
_DOT
340
0
102
{BLKREFS
331
18C73
331
18C74
102
}
  0
BLOCK_RECORD
  5
18BC8
330
7466
100
AcDbSymbolTableRecord
100
AcDbBlockTableRecord
  2
*D3
340
0
  0
BLOCK_RECORD
  5
18BD4
330
7466
100
AcDbSymbolTableRecord
100
AcDbBlockTableRecord
  2
*D4
340
0
  0
BLOCK_RECORD
  5
18BE0
330
7466
100
AcDbSymbolTableRecord
100
AcDbBlockTableRecord
  2
*D5
340
0
  0
BLOCK_RECORD
  5
18BEE
330
7466
100
AcDbSymbolTableRecord
100
AcDbBlockTableRecord
  2
*D6
340
0
  0
BLOCK_RECORD
  5
18BFC
330
7466
100
AcDbSymbolTableRecord
100
AcDbBlockTableRecord
  2
*D7
340
0
  0
BLOCK_RECORD
  5
18C0A
330
7466
100
AcDbSymbolTableRecord
100
AcDbBlockTableRecord
  2
*D8
340
0
  0
BLOCK_RECORD
  5
18C16
330
7466
100
AcDbSymbolTableRecord
100
AcDbBlockTableRecord
  2
*D9
340
0
  0
BLOCK_RECORD
  5
18C24
330
7466
100
AcDbSymbolTableRecord
100
AcDbBlockTableRecord
  2
*D10
340
0
  0
BLOCK_RECORD
  5
18C30
330
7466
100
AcDbSymbolTableRecord
100
AcDbBlockTableRecord
  2
*D11
340
0
  0
BLOCK_RECORD
  5
18C3C
330
7466
100
AcDbSymbolTableRecord
100
AcDbBlockTableRecord
  2
*D12
340
0
  0
BLOCK_RECORD
  5
18C48
330
7466
100
AcDbSymbolTableRecord
100
AcDbBlockTableRecord
  2
*D13
340
0
  0
BLOCK_RECORD
  5
18C54
330
7466
100
AcDbSymbolTableRecord
100
AcDbBlockTableRecord
  2
*D14
340
0
  0
BLOCK_RECORD
  5
18C60
330
7466
100
AcDbSymbolTableRecord
100
AcDbBlockTableRecord
  2
*D15
340
0
  0
BLOCK_RECORD
  5
18C6C
330
7466
100
AcDbSymbolTableRecord
100
AcDbBlockTableRecord
  2
*D16
340
0
  0
BLOCK_RECORD
  5
18C7A
330
7466
100
AcDbSymbolTableRecord
100
AcDbBlockTableRecord
  2
A$C3B1A506B
340
0
  0
BLOCK_RECORD
  5
1C4CA
330
7466
100
AcDbSymbolTableRecord
100
AcDbBlockTableRecord
  2
_NONE
340
0
  0
BLOCK_RECORD
  5
1FC7E
330
7466
100
AcDbSymbolTableRecord
100
AcDbBlockTableRecord
  2
*D19
340
0
  0
BLOCK_RECORD
  5
1FC89
330
7466
100
AcDbSymbolTableRecord
100
AcDbBlockTableRecord
  2
*D20
340
0
  0
BLOCK_RECORD
  5
1FC94
330
7466
100
AcDbSymbolTableRecord
100
AcDbBlockTableRecord
  2
*D21
340
0
  0
BLOCK_RECORD
  5
1FC9F
330
7466
100
AcDbSymbolTableRecord
100
AcDbBlockTableRecord
  2
*D22
340
0
  0
BLOCK_RECORD
  5
1FCFB
330
7466
100
AcDbSymbolTableRecord
100
AcDbBlockTableRecord
  2
*D23
340
0
  0
BLOCK_RECORD
  5
1FD10
330
7466
100
AcDbSymbolTableRecord
100
AcDbBlockTableRecord
  2
*D24
340
0
  0
BLOCK_RECORD
  5
1FD1D
330
7466
100
AcDbSymbolTableRecord
100
AcDbBlockTableRecord
  2
*D25
340
0
  0
BLOCK_RECORD
  5
1FD2A
330
7466
100
AcDbSymbolTableRecord
100
AcDbBlockTableRecord
  2
*D26
340
0
  0
BLOCK_RECORD
  5
1FD36
330
7466
100
AcDbSymbolTableRecord
100
AcDbBlockTableRecord
  2
*D27
340
0
  0
BLOCK_RECORD
  5
1FD7F
330
7466
100
AcDbSymbolTableRecord
100
AcDbBlockTableRecord
  2
*D28
340
0
  0
BLOCK_RECORD
  5
1FD96
330
7466
100
AcDbSymbolTableRecord
100
AcDbBlockTableRecord
  2
*D29
340
0
  0
BLOCK_RECORD
  5
1FDE9
330
7466
100
AcDbSymbolTableRecord
100
AcDbBlockTableRecord
  2
*D30
340
0
  0
BLOCK_RECORD
  5
1FDF5
330
7466
100
AcDbSymbolTableRecord
100
AcDbBlockTableRecord
  2
*D31
340
0
  0
BLOCK_RECORD
  5
1FE00
330
7466
100
AcDbSymbolTableRecord
100
AcDbBlockTableRecord
  2
*D32
340
0
  0
BLOCK_RECORD
  5
1FE0B
330
7466
100
AcDbSymbolTableRecord
100
AcDbBlockTableRecord
  2
*D33
340
0
  0
BLOCK_RECORD
  5
1FE17
330
7466
100
AcDbSymbolTableRecord
100
AcDbBlockTableRecord
  2
*D34
340
0
  0
BLOCK_RECORD
  5
1FE24
330
7466
100
AcDbSymbolTableRecord
100
AcDbBlockTableRecord
  2
*D35
340
0
  0
BLOCK_RECORD
  5
1FE31
330
7466
100
AcDbSymbolTableRecord
100
AcDbBlockTableRecord
  2
*D36
340
0
  0
BLOCK_RECORD
  5
2033A
330
7466
100
AcDbSymbolTableRecord
100
AcDbBlockTableRecord
  2
*D37
340
0
  0
BLOCK_RECORD
  5
203C4
330
7466
100
AcDbSymbolTableRecord
100
AcDbBlockTableRecord
  2
*D38
340
0
  0
BLOCK_RECORD
  5
203DF
330
7466
100
AcDbSymbolTableRecord
100
AcDbBlockTableRecord
  2
*D39
340
0
  0
BLOCK_RECORD
  5
20407
330
7466
100
AcDbSymbolTableRecord
100
AcDbBlockTableRecord
  2
*D40
340
0
  0
BLOCK_RECORD
  5
21721
330
7466
100
AcDbSymbolTableRecord
100
AcDbBlockTableRecord
  2
*D41
340
0
  0
BLOCK_RECORD
  5
21743
330
7466
100
AcDbSymbolTableRecord
100
AcDbBlockTableRecord
  2
*D42
340
0
  0
BLOCK_RECORD
  5
2176F
330
7466
100
AcDbSymbolTableRecord
100
AcDbBlockTableRecord
  2
*D43
340
0
  0
BLOCK_RECORD
  5
21786
330
7466
100
AcDbSymbolTableRecord
100
AcDbBlockTableRecord
  2
*D44
340
0
  0
BLOCK_RECORD
  5
217D4
330
7466
100
AcDbSymbolTableRecord
100
AcDbBlockTableRecord
  2
*D45
340
0
  0
BLOCK_RECORD
  5
22523
330
7466
100
AcDbSymbolTableRecord
100
AcDbBlockTableRecord
  2
*D46
340
0
  0
BLOCK_RECORD
  5
22FBF
330
7466
100
AcDbSymbolTableRecord
100
AcDbBlockTableRecord
  2
A$C1B114A52
340
0
  0
BLOCK_RECORD
  5
235D6
330
7466
100
AcDbSymbolTableRecord
100
AcDbBlockTableRecord
  2
*D60
340
0
  0
BLOCK_RECORD
  5
235E2
330
7466
100
AcDbSymbolTableRecord
100
AcDbBlockTableRecord
  2
*D61
340
0
  0
BLOCK_RECORD
  5
235F3
330
7466
100
AcDbSymbolTableRecord
100
AcDbBlockTableRecord
  2
*D62
340
0
  0
BLOCK_RECORD
  5
235FF
330
7466
100
AcDbSymbolTableRecord
100
AcDbBlockTableRecord
  2
*D63
340
0
  0
BLOCK_RECORD
  5
2360B
330
7466
100
AcDbSymbolTableRecord
100
AcDbBlockTableRecord
  2
*D64
340
0
  0
BLOCK_RECORD
  5
23617
330
7466
100
AcDbSymbolTableRecord
100
AcDbBlockTableRecord
  2
*D65
340
0
  0
ENDTAB
  0
ENDSEC
  0
SECTION
  2
BLOCKS
  0
BLOCK
  5
7489
330
747D
100
AcDbEntity
  8
0
100
AcDbBlockBegin
  2
*MODEL_SPACE
 70
     0
 10
0.0
 20
0.0
 30
0.0
  3
*MODEL_SPACE
  1

  0
ENDBLK
  5
748A
330
747D
100
AcDbEntity
  8
0
100
AcDbBlockEnd
  0
BLOCK
  5
7487
330
747A
100
AcDbEntity
 67
     1
  8
0
100
AcDbBlockBegin
  2
*PAPER_SPACE
 70
     0
 10
0.0
 20
0.0
 30
0.0
  3
*PAPER_SPACE
  1

  0
ENDBLK
  5
7488
330
747A
100
AcDbEntity
 67
     1
  8
0
100
AcDbBlockEnd
  0
BLOCK
  5
DEAD
330
DEAC
100
AcDbEntity
  8
0
100
AcDbBlockBegin
  2
_OPEN
 70
     0
 10
0.0
 20
0.0
 30
0.0
  3
_OPEN
  1

  0
LINE
  5
DEAE
330
DEAC
100
AcDbEntity
  8
0
  6
ByBlock
 62
     0
100
AcDbLine
 10
-1.0
 20
0.1666666666666666
 30
0.0
 11
0.0
 21
0.0
 31
0.0
  0
LINE
  5
DEAF
330
DEAC
100
AcDbEntity
  8
0
  6
ByBlock
 62
     0
100
AcDbLine
 10
0.0
 20
0.0
 30
0.0
 11
-1.0
 21
-0.1666666666666666
 31
0.0
  0
LINE
  5
DEB0
330
DEAC
100
AcDbEntity
  8
0
  6
ByBlock
 62
     0
100
AcDbLine
 10
0.0
 20
0.0
 30
0.0
 11
-1.0
 21
0.0
 31
0.0
  0
ENDBLK
  5
DEB1
330
DEAC
100
AcDbEntity
  8
0
100
AcDbBlockEnd
  0
BLOCK
  5
F771
330
F770
100
AcDbEntity
  8
0
 48
50.0
100
AcDbBlockBegin
  2
_DOTSMALL
 70
     0
 10
0.0
 20
0.0
 30
0.0
  3
_DOTSMALL
  1

  0
LWPOLYLINE
  5
F772
330
F770
100
AcDbEntity
  8
0
  6
ByBlock
 62
     0
 48
50.0
100
AcDbPolyline
 90
        2
 70
     1
 43
0.5
 10
-0.0625
 20
0.0
 42
1.0
 10
0.0625
 20
0.0
 42
1.0
  0
ENDBLK
  5
F776
330
F770
100
AcDbEntity
  8
0
 48
50.0
100
AcDbBlockEnd
  0
BLOCK
  5
164BA
330
164B4
100
AcDbEntity
  8
0
 48
50.0
100
AcDbBlockBegin
  2
_DOT
 70
     0
 10
0.0
 20
0.0
 30
0.0
  3
_DOT
  1

  0
LWPOLYLINE
  5
164B5
330
164B4
100
AcDbEntity
  8
0
  6
ByBlock
 62
     0
 48
50.0
100
AcDbPolyline
 90
        2
 70
     1
 43
0.5
 10
-0.25
 20
0.0
 42
1.0
 10
0.25
 20
0.0
 42
1.0
  0
LINE
  5
164B9
330
164B4
100
AcDbEntity
  8
0
  6
ByBlock
 62
     0
 48
50.0
100
AcDbLine
 10
-0.5
 20
0.0
 30
0.0
 11
-1.0
 21
0.0
 31
0.0
  0
ENDBLK
  5
164BB
330
164B4
100
AcDbEntity
  8
0
 48
50.0
100
AcDbBlockEnd
  0
BLOCK
  5
18BC9
330
18BC8
100
AcDbEntity
  8
0
 48
50.0
100
AcDbBlockBegin
  2
*D3
 70
     1
 10
0.0
 20
0.0
 30
0.0
  3
*D3
  1

  0
LINE
  5
18BCA
330
18BC8
100
AcDbEntity
  8
寸法
 62
     0
 48
50.0
370
    -2
100
AcDbLine
 10
7649.896575106999
 20
9636.123139034717
 30
0.0
 11
8702.429862581047
 21
9636.123139034717
 31
0.0
  0
LINE
  5
18BCB
330
18BC8
100
AcDbEntity
  8
寸法
 62
     0
 48
50.0
370
    -2
100
AcDbLine
 10
7649.896575106973
 20
7846.123139034709
 30
0.0
 11
8702.429862581047
 21
7846.123139034709
 31
0.0
  0
LINE
  5
18BCC
330
18BC8
100
AcDbEntity
  8
寸法
 62
     0
 48
50.0
370
    -2
100
AcDbLine
 10
8642.429862581046
 20
9636.123139034717
 30
0.0
 11
8642.429862581046
 21
7846.123139034709
 31
0.0
  0
INSERT
  5
18BCD
330
18BC8
100
AcDbEntity
  8
寸法
 62
     0
 48
50.0
370
    -2
100
AcDbBlockReference
  2
_DOTSMALL
 10
8642.429862581046
 20
9636.123139034717
 30
0.0
 41
100.0
 42
100.0
 43
100.0
 50
90.0
  0
INSERT
  5
18BCE
330
18BC8
100
AcDbEntity
  8
寸法
 62
     0
 48
50.0
370
    -2
100
AcDbBlockReference
  2
_DOTSMALL
 10
8642.429862581046
 20
7846.123139034709
 30
0.0
 41
100.0
 42
100.0
 43
100.0
 50
270.0
  0
MTEXT
  5
18BCF
330
18BC8
100
AcDbEntity
  8
寸法
 62
     7
 48
50.0
100
AcDbMText
 10
8542.429862581045
 20
8741.123139034712
 30
0.0
 40
120.0
 41
0.0
 71
     5
 72
     1
  1
\A1;1790
  7
STYLE1
 11
0.0000000000000001
 21
1.0
 31
0.0
 73
     1
 44
1.0
1001
ACAD
1000
MTEXTBEGIN
1070
    73
1070
     1
1070
    44
1040
1.0
1070
    74
1070
     0
1000
MTEXTEND
  0
POINT
  5
18BD0
330
18BC8
100
AcDbEntity
  8
DEFPOINTS
 62
     0
 48
50.0
100
AcDbPoint
 10
7629.896575106998
 20
9636.123139034717
 30
0.0
  0
POINT
  5
18BD1
330
18BC8
100
AcDbEntity
  8
DEFPOINTS
 62
     0
 48
50.0
100
AcDbPoint
 10
7629.896575106974
 20
7846.123139034709
 30
0.0
  0
POINT
  5
18BD2
330
18BC8
100
AcDbEntity
  8
DEFPOINTS
 62
     0
 48
50.0
100
AcDbPoint
 10
8642.429862581046
 20
7846.123139034709
 30
0.0
  0
ENDBLK
  5
18BD3
330
18BC8
100
AcDbEntity
  8
0
 48
50.0
100
AcDbBlockEnd
  0
BLOCK
  5
18BD5
330
18BD4
100
AcDbEntity
  8
0
 48
50.0
100
AcDbBlockBegin
  2
*D4
 70
     1
 10
0.0
 20
0.0
 30
0.0
  3
*D4
  1

  0
LINE
  5
18BD6
330
18BD4
100
AcDbEntity
  8
寸法
 62
     0
 48
50.0
370
    -2
100
AcDbLine
 10
4214.896575106998
 20
9656.123139034622
 30
0.0
 11
4214.896575106998
 21
10211.93135865972
 31
0.0
  0
LINE
  5
18BD7
330
18BD4
100
AcDbEntity
  8
寸法
 62
     0
 48
50.0
370
    -2
100
AcDbLine
 10
7574.896575106999
 20
9656.123139034718
 30
0.0
 11
7574.896575106999
 21
10211.93135865972
 31
0.0
  0
LINE
  5
18BD8
330
18BD4
100
AcDbEntity
  8
寸法
 62
     0
 48
50.0
370
    -2
100
AcDbLine
 10
4214.896575106998
 20
10151.93135865972
 30
0.0
 11
7574.896575106999
 21
10151.93135865972
 31
0.0
  0
INSERT
  5
18BD9
330
18BD4
100
AcDbEntity
  8
寸法
 62
     0
 48
50.0
370
    -2
100
AcDbBlockReference
  2
_DOTSMALL
 10
4214.896575106998
 20
10151.93135865972
 30
0.0
 41
100.0
 42
100.0
 43
100.0
 50
180.0
  0
INSERT
  5
18BDA
330
18BD4
100
AcDbEntity
  8
寸法
 62
     0
 48
50.0
370
    -2
100
AcDbBlockReference
  2
_DOTSMALL
 10
7574.896575106999
 20
10151.93135865972
 30
0.0
 41
100.0
 42
100.0
 43
100.0
  0
MTEXT
  5
18BDB
330
18BD4
100
AcDbEntity
  8
寸法
 62
     7
 48
50.0
100
AcDbMText
 10
5894.896575106997
 20
10251.94316968334
 30
0.0
 40
120.0
 41
0.0
 71
     5
 72
     1
  1
\A1;8X420=3360
  7
STYLE1
 73
     1
 44
1.0
1001
ACAD
1000
MTEXTBEGIN
1070
    73
1070
     1
1070
    44
1040
1.0
1070
    74
1070
     0
1000
MTEXTEND
  0
POINT
  5
18BDC
330
18BD4
100
AcDbEntity
  8
DEFPOINTS
 62
     0
 48
50.0
100
AcDbPoint
 10
4214.896575106998
 20
9636.123139034623
 30
0.0
  0
POINT
  5
18BDD
330
18BD4
100
AcDbEntity
  8
DEFPOINTS
 62
     0
 48
50.0
100
AcDbPoint
 10
7574.896575106999
 20
9636.123139034717
 30
0.0
  0
POINT
  5
18BDE
330
18BD4
100
AcDbEntity
  8
DEFPOINTS
 62
     0
 48
50.0
100
AcDbPoint
 10
7574.896575106999
 20
10151.93135865972
 30
0.0
  0
ENDBLK
  5
18BDF
330
18BD4
100
AcDbEntity
  8
0
 48
50.0
100
AcDbBlockEnd
  0
BLOCK
  5
18BE1
330
18BE0
100
AcDbEntity
  8
0
 48
50.0
100
AcDbBlockBegin
  2
*D5
 70
     1
 10
0.0
 20
0.0
 30
0.0
  3
*D5
  1

  0
LINE
  5
18BE2
330
18BE0
100
AcDbEntity
  8
寸法
 62
     0
 48
50.0
370
    -2
100
AcDbLine
 10
7574.896575106999
 20
9656.123139034718
 30
0.0
 11
7574.896575106999
 21
10211.9313586597
 31
0.0
  0
LINE
  5
18BE3
330
18BE0
100
AcDbEntity
  8
寸法
 62
     0
 48
50.0
370
    -2
100
AcDbLine
 10
7629.896575106998
 20
9656.123139034718
 30
0.0
 11
7629.896575106998
 21
10211.9313586597
 31
0.0
  0
LINE
  5
18BE4
330
18BE0
100
AcDbEntity
  8
寸法
 62
     0
 48
50.0
370
    -2
100
AcDbLine
 10
7574.896575106999
 20
10151.9313586597
 30
0.0
 11
7474.896575106999
 21
10151.9313586597
 31
0.0
  0
LINE
  5
18BE5
330
18BE0
100
AcDbEntity
  8
寸法
 62
     0
 48
50.0
370
    -2
100
AcDbLine
 10
7629.896575106998
 20
10151.9313586597
 30
0.0
 11
8046.867137855477
 21
10151.9313586597
 31
0.0
  0
LINE
  5
18BE6
330
18BE0
100
AcDbEntity
  8
寸法
 62
     0
 48
50.0
370
    -2
100
AcDbLine
 10
7574.896575106999
 20
10151.9313586597
 30
0.0
 11
7629.896575106998
 21
10151.9313586597
 31
0.0
  0
INSERT
  5
18BE7
330
18BE0
100
AcDbEntity
  8
寸法
 62
     0
 48
50.0
370
    -2
100
AcDbBlockReference
  2
_DOTSMALL
 10
7574.896575106999
 20
10151.9313586597
 30
0.0
 41
100.0
 42
100.0
 43
100.0
  0
INSERT
  5
18BE8
330
18BE0
100
AcDbEntity
  8
寸法
 62
     0
 48
50.0
370
    -2
100
AcDbBlockReference
  2
_DOTSMALL
 10
7629.896575106998
 20
10151.9313586597
 30
0.0
 41
100.0
 42
100.0
 43
100.0
 50
180.0
  0
MTEXT
  5
18BE9
330
18BE0
100
AcDbEntity
  8
寸法
 62
     7
 48
50.0
100
AcDbMText
 10
7938.381856481237
 20
10251.9313586597
 30
0.0
 40
120.0
 41
0.0
 71
     5
 72
     1
  1
\A1;55
  7
STYLE1
 73
     1
 44
1.0
1001
ACAD
1000
MTEXTBEGIN
1070
    73
1070
     1
1070
    44
1040
1.0
1070
    74
1070
     0
1000
MTEXTEND
  0
POINT
  5
18BEA
330
18BE0
100
AcDbEntity
  8
DEFPOINTS
 62
     0
 48
50.0
100
AcDbPoint
 10
7574.896575106999
 20
9636.123139034717
 30
0.0
  0
POINT
  5
18BEB
330
18BE0
100
AcDbEntity
  8
DEFPOINTS
 62
     0
 48
50.0
100
AcDbPoint
 10
7629.896575106998
 20
9636.123139034717
 30
0.0
  0
POINT
  5
18BEC
330
18BE0
100
AcDbEntity
  8
DEFPOINTS
 62
     0
 48
50.0
100
AcDbPoint
 10
7629.896575106998
 20
10151.9313586597
 30
0.0
  0
ENDBLK
  5
18BED
330
18BE0
100
AcDbEntity
  8
0
 48
50.0
100
AcDbBlockEnd
  0
BLOCK
  5
18BEF
330
18BEE
100
AcDbEntity
  8
0
 48
50.0
100
AcDbBlockBegin
  2
*D6
 70
     1
 10
0.0
 20
0.0
 30
0.0
  3
*D6
  1

  0
LINE
  5
18BF0
330
18BEE
100
AcDbEntity
  8
寸法
 62
     0
 48
50.0
370
    -2
100
AcDbLine
 10
7649.896575106999
 20
9636.123139034717
 30
0.0
 11
8337.32292084141
 21
9636.123139034717
 31
0.0
  0
LINE
  5
18BF1
330
18BEE
100
AcDbEntity
  8
寸法
 62
     0
 48
50.0
370
    -2
100
AcDbLine
 10
7649.896575106999
 20
9581.123139034721
 30
0.0
 11
8337.32292084141
 21
9581.123139034721
 31
0.0
  0
LINE
  5
18BF2
330
18BEE
100
AcDbEntity
  8
寸法
 62
     0
 48
50.0
370
    -2
100
AcDbLine
 10
8277.322920841411
 20
9581.123139034721
 30
0.0
 11
8277.322920841411
 21
9481.123139034719
 31
0.0
  0
LINE
  5
18BF3
330
18BEE
100
AcDbEntity
  8
寸法
 62
     0
 48
50.0
370
    -2
100
AcDbLine
 10
8277.322920841411
 20
9636.123139034717
 30
0.0
 11
8277.322920841411
 21
10053.09370178319
 31
0.0
  0
LINE
  5
18BF4
330
18BEE
100
AcDbEntity
  8
寸法
 62
     0
 48
50.0
370
    -2
100
AcDbLine
 10
8277.322920841411
 20
9581.123139034721
 30
0.0
 11
8277.322920841411
 21
9636.123139034717
 31
0.0
  0
INSERT
  5
18BF5
330
18BEE
100
AcDbEntity
  8
寸法
 62
     0
 48
50.0
370
    -2
100
AcDbBlockReference
  2
_DOTSMALL
 10
8277.322920841411
 20
9581.123139034721
 30
0.0
 41
100.0
 42
100.0
 43
100.0
 50
90.0
  0
INSERT
  5
18BF6
330
18BEE
100
AcDbEntity
  8
寸法
 62
     0
 48
50.0
370
    -2
100
AcDbBlockReference
  2
_DOTSMALL
 10
8277.322920841411
 20
9636.123139034717
 30
0.0
 41
100.0
 42
100.0
 43
100.0
 50
270.0
  0
MTEXT
  5
18BF7
330
18BEE
100
AcDbEntity
  8
寸法
 62
     7
 48
50.0
100
AcDbMText
 10
8177.32292084141
 20
9944.608420408957
 30
0.0
 40
120.0
 41
0.0
 71
     5
 72
     1
  1
\A1;55
  7
STYLE1
 11
0.0000000000000001
 21
1.0
 31
0.0
 73
     1
 44
1.0
1001
ACAD
1000
MTEXTBEGIN
1070
    73
1070
     1
1070
    44
1040
1.0
1070
    74
1070
     0
1000
MTEXTEND
  0
POINT
  5
18BF8
330
18BEE
100
AcDbEntity
  8
DEFPOINTS
 62
     0
 48
50.0
100
AcDbPoint
 10
7629.896575106998
 20
9636.123139034717
 30
0.0
  0
POINT
  5
18BF9
330
18BEE
100
AcDbEntity
  8
DEFPOINTS
 62
     0
 48
50.0
100
AcDbPoint
 10
7629.896575106998
 20
9581.123139034721
 30
0.0
  0
POINT
  5
18BFA
330
18BEE
100
AcDbEntity
  8
DEFPOINTS
 62
     0
 48
50.0
100
AcDbPoint
 10
8277.322920841411
 20
9581.123139034721
 30
0.0
  0
ENDBLK
  5
18BFB
330
18BEE
100
AcDbEntity
  8
0
 48
50.0
100
AcDbBlockEnd
  0
BLOCK
  5
18BFD
330
18BFC
100
AcDbEntity
  8
0
 48
50.0
100
AcDbBlockBegin
  2
*D7
 70
     1
 10
0.0
 20
0.0
 30
0.0
  3
*D7
  1

  0
LINE
  5
18BFE
330
18BFC
100
AcDbEntity
  8
寸法
 62
     0
 48
50.0
370
    -2
100
AcDbLine
 10
4159.896575106963
 20
9656.123139034622
 30
0.0
 11
4159.896575106963
 21
10211.9313586596
 31
0.0
  0
LINE
  5
18BFF
330
18BFC
100
AcDbEntity
  8
寸法
 62
     0
 48
50.0
370
    -2
100
AcDbLine
 10
4214.896575106998
 20
9656.123139034622
 30
0.0
 11
4214.896575106998
 21
10211.9313586596
 31
0.0
  0
LINE
  5
18C00
330
18BFC
100
AcDbEntity
  8
寸法
 62
     0
 48
50.0
370
    -2
100
AcDbLine
 10
4214.896575106998
 20
10151.9313586596
 30
0.0
 11
4314.896575106998
 21
10151.9313586596
 31
0.0
  0
LINE
  5
18C01
330
18BFC
100
AcDbEntity
  8
寸法
 62
     0
 48
50.0
370
    -2
100
AcDbLine
 10
4159.896575106963
 20
10151.9313586596
 30
0.0
 11
3742.926012358486
 21
10151.9313586596
 31
0.0
  0
LINE
  5
18C02
330
18BFC
100
AcDbEntity
  8
寸法
 62
     0
 48
50.0
370
    -2
100
AcDbLine
 10
4214.896575106998
 20
10151.9313586596
 30
0.0
 11
4159.896575106963
 21
10151.9313586596
 31
0.0
  0
INSERT
  5
18C03
330
18BFC
100
AcDbEntity
  8
寸法
 62
     0
 48
50.0
370
    -2
100
AcDbBlockReference
  2
_DOTSMALL
 10
4214.896575106998
 20
10151.9313586596
 30
0.0
 41
100.0
 42
100.0
 43
100.0
 50
180.0
  0
INSERT
  5
18C04
330
18BFC
100
AcDbEntity
  8
寸法
 62
     0
 48
50.0
370
    -2
100
AcDbBlockReference
  2
_DOTSMALL
 10
4159.896575106963
 20
10151.9313586596
 30
0.0
 41
100.0
 42
100.0
 43
100.0
  0
MTEXT
  5
18C05
330
18BFC
100
AcDbEntity
  8
寸法
 62
     7
 48
50.0
100
AcDbMText
 10
3851.411293732725
 20
10251.9313586596
 30
0.0
 40
120.0
 41
0.0
 71
     5
 72
     1
  1
\A1;55
  7
STYLE1
 73
     1
 44
1.0
1001
ACAD
1000
MTEXTBEGIN
1070
    73
1070
     1
1070
    44
1040
1.0
1070
    74
1070
     0
1000
MTEXTEND
  0
POINT
  5
18C06
330
18BFC
100
AcDbEntity
  8
DEFPOINTS
 62
     0
 48
50.0
100
AcDbPoint
 10
4159.896575106963
 20
9636.123139034623
 30
0.0
  0
POINT
  5
18C07
330
18BFC
100
AcDbEntity
  8
DEFPOINTS
 62
     0
 48
50.0
100
AcDbPoint
 10
4214.896575106998
 20
9636.123139034623
 30
0.0
  0
POINT
  5
18C08
330
18BFC
100
AcDbEntity
  8
DEFPOINTS
 62
     0
 48
50.0
100
AcDbPoint
 10
4214.896575106998
 20
10151.9313586596
 30
0.0
  0
ENDBLK
  5
18C09
330
18BFC
100
AcDbEntity
  8
0
 48
50.0
100
AcDbBlockEnd
  0
BLOCK
  5
18C0B
330
18C0A
100
AcDbEntity
  8
0
 48
50.0
100
AcDbBlockBegin
  2
*D8
 70
     1
 10
0.0
 20
0.0
 30
0.0
  3
*D8
  1

  0
LINE
  5
18C0C
330
18C0A
100
AcDbEntity
  8
寸法
 62
     0
 48
50.0
370
    -2
100
AcDbLine
 10
4159.896575106992
 20
7826.123139034546
 30
0.0
 11
4159.896575106992
 21
6804.372203245664
 31
0.0
  0
LINE
  5
18C0D
330
18C0A
100
AcDbEntity
  8
寸法
 62
     0
 48
50.0
370
    -2
100
AcDbLine
 10
7629.896575106974
 20
7826.123139034674
 30
0.0
 11
7629.896575106974
 21
6804.372203245664
 31
0.0
  0
LINE
  5
18C0E
330
18C0A
100
AcDbEntity
  8
寸法
 62
     0
 48
50.0
370
    -2
100
AcDbLine
 10
4159.896575106992
 20
6864.372203245665
 30
0.0
 11
7629.896575106974
 21
6864.372203245665
 31
0.0
  0
INSERT
  5
18C0F
330
18C0A
100
AcDbEntity
  8
寸法
 62
     0
 48
50.0
370
    -2
100
AcDbBlockReference
  2
_DOTSMALL
 10
4159.896575106992
 20
6864.372203245665
 30
0.0
 41
100.0
 42
100.0
 43
100.0
 50
180.0
  0
INSERT
  5
18C10
330
18C0A
100
AcDbEntity
  8
寸法
 62
     0
 48
50.0
370
    -2
100
AcDbBlockReference
  2
_DOTSMALL
 10
7629.896575106974
 20
6864.372203245665
 30
0.0
 41
100.0
 42
100.0
 43
100.0
  0
MTEXT
  5
18C11
330
18C0A
100
AcDbEntity
  8
寸法
 62
     7
 48
50.0
100
AcDbMText
 10
5911.12376113973
 20
6964.372203245665
 30
0.0
 40
120.0
 41
0.0
 71
     5
 72
     1
  1
\A1;3470
  7
STYLE1
 73
     1
 44
1.0
1001
ACAD
1000
MTEXTBEGIN
1070
    73
1070
     1
1070
    44
1040
1.0
1070
    74
1070
     0
1000
MTEXTEND
  0
POINT
  5
18C12
330
18C0A
100
AcDbEntity
  8
DEFPOINTS
 62
     0
 48
50.0
100
AcDbPoint
 10
4159.896575106992
 20
7846.123139034546
 30
0.0
  0
POINT
  5
18C13
330
18C0A
100
AcDbEntity
  8
DEFPOINTS
 62
     0
 48
50.0
100
AcDbPoint
 10
7629.896575106974
 20
7846.123139034673
 30
0.0
  0
POINT
  5
18C14
330
18C0A
100
AcDbEntity
  8
DEFPOINTS
 62
     0
 48
50.0
100
AcDbPoint
 10
7629.896575106974
 20
6864.372203245665
 30
0.0
  0
ENDBLK
  5
18C15
330
18C0A
100
AcDbEntity
  8
0
 48
50.0
100
AcDbBlockEnd
  0
BLOCK
  5
18C17
330
18C16
100
AcDbEntity
  8
0
 48
50.0
100
AcDbBlockBegin
  2
*D9
 70
     1
 10
0.0
 20
0.0
 30
0.0
  3
*D9
  1

  0
LINE
  5
18C18
330
18C16
100
AcDbEntity
  8
寸法
 62
     0
 48
50.0
370
    -2
100
AcDbLine
 10
7649.896575106973
 20
7901.123139034706
 30
0.0
 11
8337.322920841385
 21
7901.123139034706
 31
0.0
  0
LINE
  5
18C19
330
18C16
100
AcDbEntity
  8
寸法
 62
     0
 48
50.0
370
    -2
100
AcDbLine
 10
7649.896575106973
 20
7846.123139034709
 30
0.0
 11
8337.322920841385
 21
7846.123139034709
 31
0.0
  0
LINE
  5
18C1A
330
18C16
100
AcDbEntity
  8
寸法
 62
     0
 48
50.0
370
    -2
100
AcDbLine
 10
8277.322920841385
 20
7901.123139034706
 30
0.0
 11
8277.322920841385
 21
8001.123139034707
 31
0.0
  0
LINE
  5
18C1B
330
18C16
100
AcDbEntity
  8
寸法
 62
     0
 48
50.0
370
    -2
100
AcDbLine
 10
8277.322920841385
 20
7846.123139034709
 30
0.0
 11
8277.322920841385
 21
7429.152576286229
 31
0.0
  0
LINE
  5
18C1C
330
18C16
100
AcDbEntity
  8
寸法
 62
     0
 48
50.0
370
    -2
100
AcDbLine
 10
8277.322920841385
 20
7901.123139034706
 30
0.0
 11
8277.322920841385
 21
7846.123139034709
 31
0.0
  0
INSERT
  5
18C1D
330
18C16
100
AcDbEntity
  8
寸法
 62
     0
 48
50.0
370
    -2
100
AcDbBlockReference
  2
_DOTSMALL
 10
8277.322920841385
 20
7901.123139034706
 30
0.0
 41
100.0
 42
100.0
 43
100.0
 50
270.0
  0
INSERT
  5
18C1E
330
18C16
100
AcDbEntity
  8
寸法
 62
     0
 48
50.0
370
    -2
100
AcDbBlockReference
  2
_DOTSMALL
 10
8277.322920841385
 20
7846.123139034709
 30
0.0
 41
100.0
 42
100.0
 43
100.0
 50
90.0
  0
MTEXT
  5
18C1F
330
18C16
100
AcDbEntity
  8
寸法
 62
     7
 48
50.0
100
AcDbMText
 10
8177.322920841383
 20
7537.637857660469
 30
0.0
 40
120.0
 41
0.0
 71
     5
 72
     1
  1
\A1;55
  7
STYLE1
 11
0.0000000000000001
 21
1.0
 31
0.0
 73
     1
 44
1.0
1001
ACAD
1000
MTEXTBEGIN
1070
    73
1070
     1
1070
    44
1040
1.0
1070
    74
1070
     0
1000
MTEXTEND
  0
POINT
  5
18C20
330
18C16
100
AcDbEntity
  8
DEFPOINTS
 62
     0
 48
50.0
100
AcDbPoint
 10
7629.896575106974
 20
7901.123139034706
 30
0.0
  0
POINT
  5
18C21
330
18C16
100
AcDbEntity
  8
DEFPOINTS
 62
     0
 48
50.0
100
AcDbPoint
 10
7629.896575106974
 20
7846.123139034709
 30
0.0
  0
POINT
  5
18C22
330
18C16
100
AcDbEntity
  8
DEFPOINTS
 62
     0
 48
50.0
100
AcDbPoint
 10
8277.322920841385
 20
7846.123139034709
 30
0.0
  0
ENDBLK
  5
18C23
330
18C16
100
AcDbEntity
  8
0
 48
50.0
100
AcDbBlockEnd
  0
BLOCK
  5
18C25
330
18C24
100
AcDbEntity
  8
0
 48
50.0
100
AcDbBlockBegin
  2
*D10
 70
     1
 10
0.0
 20
0.0
 30
0.0
  3
*D10
  1

  0
LINE
  5
18C26
330
18C24
100
AcDbEntity
  8
寸法
 62
     0
 48
50.0
370
    -2
100
AcDbLine
 10
6533.037591258376
 20
9136.123139034728
 30
0.0
 11
6465.083950562664
 21
8882.516699399049
 31
0.0
  0
LINE
  5
18C27
330
18C24
100
AcDbEntity
  8
寸法
 62
     0
 48
50.0
370
    -2
100
AcDbLine
 10
7596.037591258388
 20
9136.123139034721
 30
0.0
 11
7528.083950562677
 21
8882.516699399049
 31
0.0
  0
LINE
  5
18C28
330
18C24
100
AcDbEntity
  8
寸法
 62
     0
 48
50.0
370
    -2
100
AcDbLine
 10
6481.160902108531
 20
8942.51669939905
 30
0.0
 11
7544.160902108544
 21
8942.51669939905
 31
0.0
  0
INSERT
  5
18C29
330
18C24
100
AcDbEntity
  8
寸法
 62
     0
 48
50.0
370
    -2
100
AcDbBlockReference
  2
_DOTSMALL
 10
6481.160902108531
 20
8942.51669939905
 30
0.0
 41
100.0
 42
100.0
 43
100.0
 50
180.0
  0
INSERT
  5
18C2A
330
18C24
100
AcDbEntity
  8
寸法
 62
     0
 48
50.0
370
    -2
100
AcDbBlockReference
  2
_DOTSMALL
 10
7544.160902108544
 20
8942.51669939905
 30
0.0
 41
100.0
 42
100.0
 43
100.0
  0
MTEXT
  5
18C2B
330
18C24
100
AcDbEntity
  8
寸法
 62
     7
 48
50.0
100
AcDbMText
 10
7061.28653022935
 20
9042.516699399049
 30
0.0
 40
120.0
 41
0.0
 71
     5
 72
     1
  1
\A1;1063
  7
STYLE1
 73
     1
 44
1.0
1001
ACAD
1000
MTEXTBEGIN
1070
    73
1070
     1
1070
    44
1040
1.0
1070
    74
1070
     0
1000
MTEXTEND
  0
POINT
  5
18C2C
330
18C24
100
AcDbEntity
  8
DEFPOINTS
 62
     0
 48
50.0
100
AcDbPoint
 10
6538.396575106998
 20
9156.123139034727
 30
0.0
  0
POINT
  5
18C2D
330
18C24
100
AcDbEntity
  8
DEFPOINTS
 62
     0
 48
50.0
100
AcDbPoint
 10
7601.39657510701
 20
9156.12313903472
 30
0.0
  0
POINT
  5
18C2E
330
18C24
100
AcDbEntity
  8
DEFPOINTS
 62
     0
 48
50.0
100
AcDbPoint
 10
7544.160902108544
 20
8942.51669939905
 30
0.0
  0
ENDBLK
  5
18C2F
330
18C24
100
AcDbEntity
  8
0
 48
50.0
100
AcDbBlockEnd
  0
BLOCK
  5
18C31
330
18C30
100
AcDbEntity
  8
0
 48
50.0
100
AcDbBlockBegin
  2
*D11
 70
     1
 10
0.0
 20
0.0
 30
0.0
  3
*D11
  1

  0
LINE
  5
18C32
330
18C30
100
AcDbEntity
  8
寸法
 62
     0
 48
50.0
370
    -2
100
AcDbLine
 10
7621.396575106999
 20
9600.764155186094
 30
0.0
 11
8016.754300969024
 21
9494.828371819961
 31
0.0
  0
LINE
  5
18C33
330
18C30
100
AcDbEntity
  8
寸法
 62
     0
 48
50.0
370
    -2
100
AcDbLine
 10
7621.396575106999
 20
9150.764155186099
 30
0.0
 11
8016.754300969024
 21
9044.828371819964
 31
0.0
  0
LINE
  5
18C34
330
18C30
100
AcDbEntity
  8
寸法
 62
     0
 48
50.0
370
    -2
100
AcDbLine
 10
7956.754300969024
 20
9510.905323365827
 30
0.0
 11
7956.754300969024
 21
9060.90532336583
 31
0.0
  0
INSERT
  5
18C35
330
18C30
100
AcDbEntity
  8
寸法
 62
     0
 48
50.0
370
    -2
100
AcDbBlockReference
  2
_DOTSMALL
 10
7956.754300969024
 20
9510.905323365827
 30
0.0
 41
100.0
 42
100.0
 43
100.0
 50
90.0
  0
INSERT
  5
18C36
330
18C30
100
AcDbEntity
  8
寸法
 62
     0
 48
50.0
370
    -2
100
AcDbBlockReference
  2
_DOTSMALL
 10
7956.754300969024
 20
9060.90532336583
 30
0.0
 41
100.0
 42
100.0
 43
100.0
 50
270.0
  0
MTEXT
  5
18C37
330
18C30
100
AcDbEntity
  8
寸法
 62
     7
 48
50.0
100
AcDbMText
 10
7856.754300969022
 20
9285.905323365829
 30
0.0
 40
120.0
 41
0.0
 71
     5
 72
     1
  1
\A1;450
  7
STYLE1
 11
0.0000000000000001
 21
1.0
 31
0.0
 73
     1
 44
1.0
1001
ACAD
1000
MTEXTBEGIN
1070
    73
1070
     1
1070
    44
1040
1.0
1070
    74
1070
     0
1000
MTEXTEND
  0
POINT
  5
18C38
330
18C30
100
AcDbEntity
  8
DEFPOINTS
 62
     0
 48
50.0
100
AcDbPoint
 10
7601.396575106999
 20
9606.123139034718
 30
0.0
  0
POINT
  5
18C39
330
18C30
100
AcDbEntity
  8
DEFPOINTS
 62
     0
 48
50.0
100
AcDbPoint
 10
7601.396575106999
 20
9156.12313903472
 30
0.0
  0
POINT
  5
18C3A
330
18C30
100
AcDbEntity
  8
DEFPOINTS
 62
     0
 48
50.0
100
AcDbPoint
 10
7956.754300969024
 20
9060.90532336583
 30
0.0
  0
ENDBLK
  5
18C3B
330
18C30
100
AcDbEntity
  8
0
 48
50.0
100
AcDbBlockEnd
  0
BLOCK
  5
18C3D
330
18C3C
100
AcDbEntity
  8
0
 48
50.0
100
AcDbBlockBegin
  2
*D12
 70
     1
 10
0.0
 20
0.0
 30
0.0
  3
*D12
  1

  0
LINE
  5
18C3E
330
18C3C
100
AcDbEntity
  8
寸法
 62
     0
 48
50.0
370
    -2
100
AcDbLine
 10
7649.896575106999
 20
9581.123139034721
 30
0.0
 11
8337.32292084141
 21
9581.123139034721
 31
0.0
  0
LINE
  5
18C3F
330
18C3C
100
AcDbEntity
  8
寸法
 62
     0
 48
50.0
370
    -2
100
AcDbLine
 10
7649.896575106973
 20
7901.123139034706
 30
0.0
 11
8337.32292084141
 21
7901.123139034706
 31
0.0
  0
LINE
  5
18C40
330
18C3C
100
AcDbEntity
  8
寸法
 62
     0
 48
50.0
370
    -2
100
AcDbLine
 10
8277.322920841411
 20
9581.123139034721
 30
0.0
 11
8277.322920841411
 21
7901.123139034706
 31
0.0
  0
INSERT
  5
18C41
330
18C3C
100
AcDbEntity
  8
寸法
 62
     0
 48
50.0
370
    -2
100
AcDbBlockReference
  2
_DOTSMALL
 10
8277.322920841411
 20
9581.123139034721
 30
0.0
 41
100.0
 42
100.0
 43
100.0
 50
90.0
  0
INSERT
  5
18C42
330
18C3C
100
AcDbEntity
  8
寸法
 62
     0
 48
50.0
370
    -2
100
AcDbBlockReference
  2
_DOTSMALL
 10
8277.322920841411
 20
7901.123139034706
 30
0.0
 41
100.0
 42
100.0
 43
100.0
 50
270.0
  0
MTEXT
  5
18C43
330
18C3C
100
AcDbEntity
  8
寸法
 62
     7
 48
50.0
100
AcDbMText
 10
8177.311109817788
 20
8741.123139034712
 30
0.0
 40
120.0
 41
0.0
 71
     5
 72
     1
  1
\A1;4X420=1680
  7
STYLE1
 11
0.0000000000000001
 21
1.0
 31
0.0
 73
     1
 44
1.0
1001
ACAD
1000
MTEXTBEGIN
1070
    73
1070
     1
1070
    44
1040
1.0
1070
    74
1070
     0
1000
MTEXTEND
  0
POINT
  5
18C44
330
18C3C
100
AcDbEntity
  8
DEFPOINTS
 62
     0
 48
50.0
100
AcDbPoint
 10
7629.896575106998
 20
9581.123139034721
 30
0.0
  0
POINT
  5
18C45
330
18C3C
100
AcDbEntity
  8
DEFPOINTS
 62
     0
 48
50.0
100
AcDbPoint
 10
7629.896575106974
 20
7901.123139034706
 30
0.0
  0
POINT
  5
18C46
330
18C3C
100
AcDbEntity
  8
DEFPOINTS
 62
     0
 48
50.0
100
AcDbPoint
 10
8277.322920841411
 20
7901.123139034706
 30
0.0
  0
ENDBLK
  5
18C47
330
18C3C
100
AcDbEntity
  8
0
 48
50.0
100
AcDbBlockEnd
  0
BLOCK
  5
18C49
330
18C48
100
AcDbEntity
  8
0
 48
50.0
100
AcDbBlockBegin
  2
*D13
 70
     1
 10
0.0
 20
0.0
 30
0.0
  3
*D13
  1

  0
LINE
  5
18C4A
330
18C48
100
AcDbEntity
  8
寸法
 62
     0
 48
50.0
370
    -2
100
AcDbLine
 10
4183.037591258377
 20
9136.123139034619
 30
0.0
 11
4115.083950562663
 21
8882.516699398941
 31
0.0
  0
LINE
  5
18C4B
330
18C48
100
AcDbEntity
  8
寸法
 62
     0
 48
50.0
370
    -2
100
AcDbLine
 10
5246.037591258307
 20
9136.123139034671
 30
0.0
 11
5178.08395056258
 21
8882.516699398941
 31
0.0
  0
LINE
  5
18C4C
330
18C48
100
AcDbEntity
  8
寸法
 62
     0
 48
50.0
370
    -2
100
AcDbLine
 10
4131.160902108532
 20
8942.516699398941
 30
0.0
 11
5194.160902108448
 21
8942.516699398941
 31
0.0
  0
INSERT
  5
18C4D
330
18C48
100
AcDbEntity
  8
寸法
 62
     0
 48
50.0
370
    -2
100
AcDbBlockReference
  2
_DOTSMALL
 10
4131.160902108532
 20
8942.516699398941
 30
0.0
 41
100.0
 42
100.0
 43
100.0
 50
180.0
  0
INSERT
  5
18C4E
330
18C48
100
AcDbEntity
  8
寸法
 62
     0
 48
50.0
370
    -2
100
AcDbBlockReference
  2
_DOTSMALL
 10
5194.160902108448
 20
8942.516699398941
 30
0.0
 41
100.0
 42
100.0
 43
100.0
  0
MTEXT
  5
18C4F
330
18C48
100
AcDbEntity
  8
寸法
 62
     7
 48
50.0
100
AcDbMText
 10
4658.986452655306
 20
9042.516699398941
 30
0.0
 40
120.0
 41
0.0
 71
     5
 72
     1
  1
\A1;1063
  7
STYLE1
 73
     1
 44
1.0
1001
ACAD
1000
MTEXTBEGIN
1070
    73
1070
     1
1070
    44
1040
1.0
1070
    74
1070
     0
1000
MTEXTEND
  0
POINT
  5
18C50
330
18C48
100
AcDbEntity
  8
DEFPOINTS
 62
     0
 48
50.0
100
AcDbPoint
 10
4188.396575106999
 20
9156.123139034617
 30
0.0
  0
POINT
  5
18C51
330
18C48
100
AcDbEntity
  8
DEFPOINTS
 62
     0
 48
50.0
100
AcDbPoint
 10
5251.396575106929
 20
9156.123139034672
 30
0.0
  0
POINT
  5
18C52
330
18C48
100
AcDbEntity
  8
DEFPOINTS
 62
     0
 48
50.0
100
AcDbPoint
 10
5194.160902108448
 20
8942.516699398941
 30
0.0
  0
ENDBLK
  5
18C53
330
18C48
100
AcDbEntity
  8
0
 48
50.0
100
AcDbBlockEnd
  0
BLOCK
  5
18C55
330
18C54
100
AcDbEntity
  8
0
 48
50.0
100
AcDbBlockBegin
  2
*D14
 70
     1
 10
0.0
 20
0.0
 30
0.0
  3
*D14
  1

  0
LINE
  5
18C56
330
18C54
100
AcDbEntity
  8
寸法
 62
     0
 48
50.0
370
    -2
100
AcDbLine
 10
5274.037591258307
 20
9136.123139034669
 30
0.0
 11
5206.08395056258
 21
8882.516699398941
 31
0.0
  0
LINE
  5
18C57
330
18C54
100
AcDbEntity
  8
寸法
 62
     0
 48
50.0
370
    -2
100
AcDbLine
 10
6505.037591258377
 20
9136.123139034662
 30
0.0
 11
6437.083950562653
 21
8882.516699398941
 31
0.0
  0
LINE
  5
18C58
330
18C54
100
AcDbEntity
  8
寸法
 62
     0
 48
50.0
370
    -2
100
AcDbLine
 10
5222.160902108448
 20
8942.516699398941
 30
0.0
 11
6453.16090210852
 21
8942.516699398941
 31
0.0
  0
INSERT
  5
18C59
330
18C54
100
AcDbEntity
  8
寸法
 62
     0
 48
50.0
370
    -2
100
AcDbBlockReference
  2
_DOTSMALL
 10
5222.160902108448
 20
8942.516699398941
 30
0.0
 41
100.0
 42
100.0
 43
100.0
 50
180.0
  0
INSERT
  5
18C5A
330
18C54
100
AcDbEntity
  8
寸法
 62
     0
 48
50.0
370
    -2
100
AcDbBlockReference
  2
_DOTSMALL
 10
6453.16090210852
 20
8942.516699398941
 30
0.0
 41
100.0
 42
100.0
 43
100.0
  0
MTEXT
  5
18C5B
330
18C54
100
AcDbEntity
  8
寸法
 62
     7
 48
50.0
100
AcDbMText
 10
6081.244808320626
 20
9042.528510422561
 30
0.0
 40
120.0
 41
0.0
 71
     5
 72
     1
  1
\A1;1231
  7
STYLE1
 73
     1
 44
1.0
1001
ACAD
1000
MTEXTBEGIN
1070
    73
1070
     1
1070
    44
1040
1.0
1070
    74
1070
     0
1000
MTEXTEND
  0
POINT
  5
18C5C
330
18C54
100
AcDbEntity
  8
DEFPOINTS
 62
     0
 48
50.0
100
AcDbPoint
 10
5279.396575106929
 20
9156.123139034669
 30
0.0
  0
POINT
  5
18C5D
330
18C54
100
AcDbEntity
  8
DEFPOINTS
 62
     0
 48
50.0
100
AcDbPoint
 10
6510.396575106999
 20
9156.123139034662
 30
0.0
  0
POINT
  5
18C5E
330
18C54
100
AcDbEntity
  8
DEFPOINTS
 62
     0
 48
50.0
100
AcDbPoint
 10
6453.16090210852
 20
8942.516699398941
 30
0.0
  0
ENDBLK
  5
18C5F
330
18C54
100
AcDbEntity
  8
0
 48
50.0
100
AcDbBlockEnd
  0
BLOCK
  5
18C61
330
18C60
100
AcDbEntity
  8
0
 48
50.0
100
AcDbBlockBegin
  2
*D15
 70
     1
 10
0.0
 20
0.0
 30
0.0
  3
*D15
  1

  0
LINE
  5
18C62
330
18C60
100
AcDbEntity
  8
寸法
 62
     0
 48
50.0
370
    -2
100
AcDbLine
 10
5065.896575106966
 20
7749.123139034579
 30
0.0
 11
5065.896575106966
 21
7099.952920982538
 31
0.0
  0
LINE
  5
18C63
330
18C60
100
AcDbEntity
  8
寸法
 62
     0
 48
50.0
370
    -2
100
AcDbLine
 10
6331.896575106966
 20
7749.123139034579
 30
0.0
 11
6331.896575106966
 21
7099.952920982538
 31
0.0
  0
LINE
  5
18C64
330
18C60
100
AcDbEntity
  8
寸法
 62
     0
 48
50.0
370
    -2
100
AcDbLine
 10
5065.896575106966
 20
7159.952920982537
 30
0.0
 11
6331.896575106966
 21
7159.952920982537
 31
0.0
  0
INSERT
  5
18C65
330
18C60
100
AcDbEntity
  8
寸法
 62
     0
 48
50.0
370
    -2
100
AcDbBlockReference
  2
_DOTSMALL
 10
5065.896575106966
 20
7159.952920982537
 30
0.0
 41
100.0
 42
100.0
 43
100.0
 50
180.0
  0
INSERT
  5
18C66
330
18C60
100
AcDbEntity
  8
寸法
 62
     0
 48
50.0
370
    -2
100
AcDbBlockReference
  2
_DOTSMALL
 10
6331.896575106966
 20
7159.952920982537
 30
0.0
 41
100.0
 42
100.0
 43
100.0
  0
MTEXT
  5
18C67
330
18C60
100
AcDbEntity
  8
寸法
 62
     7
 48
50.0
100
AcDbMText
 10
5711.986008735934
 20
7359.964732006159
 30
0.0
 40
120.0
 41
0.0
 71
     5
 72
     1
  1
\A1;有効開口部間口\P1266
  7
STYLE1
 73
     1
 44
1.0
1001
ACAD
1000
MTEXTBEGIN
1070
    73
1070
     1
1070
    44
1040
1.0
1070
    74
1070
     0
1000
MTEXTEND
  0
POINT
  5
18C68
330
18C60
100
AcDbEntity
  8
DEFPOINTS
 62
     0
 48
50.0
100
AcDbPoint
 10
5065.896575106966
 20
7769.123139034579
 30
0.0
  0
POINT
  5
18C69
330
18C60
100
AcDbEntity
  8
DEFPOINTS
 62
     0
 48
50.0
100
AcDbPoint
 10
6331.896575106966
 20
7769.123139034579
 30
0.0
  0
POINT
  5
18C6A
330
18C60
100
AcDbEntity
  8
DEFPOINTS
 62
     0
 48
50.0
100
AcDbPoint
 10
6331.896575106966
 20
7159.952920982537
 30
0.0
  0
ENDBLK
  5
18C6B
330
18C60
100
AcDbEntity
  8
0
 48
50.0
100
AcDbBlockEnd
  0
BLOCK
  5
18C6D
330
18C6C
100
AcDbEntity
  8
0
 48
50.0
100
AcDbBlockBegin
  2
*D16
 70
     1
 10
0.0
 20
0.0
 30
0.0
  3
*D16
  1

  0
LINE
  5
18C6E
330
18C6C
100
AcDbEntity
  8
寸法
 62
     0
 48
50.0
370
    -2
100
AcDbLine
 10
7200.896575106966
 20
7846.123139034578
 30
0.0
 11
7457.192158500191
 21
7846.123139034578
 31
0.0
  0
LINE
  5
18C6F
330
18C6C
100
AcDbEntity
  8
寸法
 62
     0
 48
50.0
370
    -2
100
AcDbLine
 10
7199.896575106966
 20
7769.123139034579
 30
0.0
 11
7457.192158500191
 21
7769.123139034579
 31
0.0
  0
LINE
  5
18C70
330
18C6C
100
AcDbEntity
  8
寸法
 62
     0
 48
50.0
370
    -2
100
AcDbLine
 10
7417.192158500192
 20
7866.123139034579
 30
0.0
 11
7417.192158500192
 21
7886.123139034578
 31
0.0
  0
LINE
  5
18C71
330
18C6C
100
AcDbEntity
  8
寸法
 62
     0
 48
50.0
370
    -2
100
AcDbLine
 10
7417.192158500192
 20
7749.123139034579
 30
0.0
 11
7417.192158500192
 21
7533.123139034573
 31
0.0
  0
LINE
  5
18C72
330
18C6C
100
AcDbEntity
  8
寸法
 62
     0
 48
50.0
370
    -2
100
AcDbLine
 10
7417.192158500192
 20
7846.123139034578
 30
0.0
 11
7417.192158500192
 21
7769.123139034579
 31
0.0
  0
INSERT
  5
18C73
330
18C6C
100
AcDbEntity
  8
寸法
 62
     0
 48
50.0
370
    -2
100
AcDbBlockReference
  2
_DOT
 10
7417.192158500192
 20
7846.123139034578
 30
0.0
 41
20.0
 42
20.0
 43
20.0
 50
270.0
  0
INSERT
  5
18C74
330
18C6C
100
AcDbEntity
  8
寸法
 62
     0
 48
50.0
370
    -2
100
AcDbBlockReference
  2
_DOT
 10
7417.192158500192
 20
7769.123139034579
 30
0.0
 41
20.0
 42
20.0
 43
20.0
 50
90.0
  0
MTEXT
  5
18C75
330
18C6C
100
AcDbEntity
  8
寸法
 62
     7
 48
50.0
100
AcDbMText
 10
7325.192158500191
 20
7631.123139034575
 30
0.0
 40
120.0
 41
0.0
 71
     5
 72
     1
  1
\A1;77
  7
STYLE1
 11
0.0000000000000001
 21
1.0
 31
0.0
 73
     1
 44
1.0
1001
ACAD
1000
MTEXTBEGIN
1070
    73
1070
     1
1070
    44
1040
1.0
1070
    74
1070
     0
1000
MTEXTEND
  0
POINT
  5
18C76
330
18C6C
100
AcDbEntity
  8
DEFPOINTS
 62
     0
 48
50.0
100
AcDbPoint
 10
7180.896575106967
 20
7846.123139034578
 30
0.0
  0
POINT
  5
18C77
330
18C6C
100
AcDbEntity
  8
DEFPOINTS
 62
     0
 48
50.0
100
AcDbPoint
 10
7179.896575106965
 20
7769.123139034579
 30
0.0
  0
POINT
  5
18C78
330
18C6C
100
AcDbEntity
  8
DEFPOINTS
 62
     0
 48
50.0
100
AcDbPoint
 10
7417.192158500192
 20
7769.123139034579
 30
0.0
  0
ENDBLK
  5
18C79
330
18C6C
100
AcDbEntity
  8
0
 48
50.0
100
AcDbBlockEnd
  0
BLOCK
  5
18DA0
330
18C7A
100
AcDbEntity
  8
0
 48
50.0
100
AcDbBlockBegin
  2
A$C3B1A506B
 70
     0
 10
0.0
 20
0.0
 30
0.0
  3
A$C3B1A506B
  1

  0
MTEXT
  5
18C7B
330
18C7A
100
AcDbEntity
  8
寸法
 62
     7
 48
50.0
100
AcDbMText
 10
3342.250386887194
 20
2778.329429134012
 30
0.0
 40
96.0
 41
0.0
 71
     5
 72
     1
  1
棚 2段
  7
STYLE1
 73
     1
 44
1.0
1001
ACAD
1000
MTEXTBEGIN
1070
    73
1070
     1
1070
    44
1040
1.0
1070
    74
1070
     0
1000
MTEXTEND
  0
MTEXT
  5
18C7C
330
18C7A
100
AcDbEntity
  8
寸法
 62
     7
 48
50.0
100
AcDbMText
 10
2167.25038688716
 20
2778.329429133986
 30
0.0
 40
96.0
 41
0.0
 71
     5
 72
     1
  1
棚 2段
  7
STYLE1
 73
     1
 44
1.0
1001
ACAD
1000
MTEXTBEGIN
1070
    73
1070
     1
1070
    44
1040
1.0
1070
    74
1070
     0
1000
MTEXTEND
  0
MTEXT
  5
18C7D
330
18C7A
100
AcDbEntity
  8
寸法
 62
     7
 48
50.0
100
AcDbMText
 10
992.2503868871608
 20
2778.329429133935
 30
0.0
 40
96.0
 41
0.0
 71
     5
 72
     1
  1
棚 2段
  7
STYLE1
 73
     1
 44
1.0
1001
ACAD
1000
MTEXTBEGIN
1070
    73
1070
     1
1070
    44
1040
1.0
1070
    74
1070
     0
1000
MTEXTEND
  0
LINE
  5
18C7E
330
18C7A
100
AcDbEntity
  8
細線
 48
50.0
100
AcDbLine
 10
2771.970589276527
 20
1368.994384123192
 30
0.0
 11
3398.970589276523
 21
1368.994384123192
 31
0.0
  0
LINE
  5
18C7F
330
18C7A
100
AcDbEntity
  8
細線
 48
50.0
100
AcDbLine
 10
2117.970593930113
 20
1335.285615569113
 30
0.0
 11
3398.970589276523
 21
1335.285615569113
 31
0.0
  0
LINE
  5
18C80
330
18C7A
100
AcDbEntity
  8
細線
 48
50.0
100
AcDbLine
 10
2076.970593930115
 20
1364.690523565368
 30
0.0
 11
1322.970589276523
 21
1364.690523565367
 31
0.0
  0
LINE
  5
18C81
330
18C7A
100
AcDbEntity
  8
細線
100
AcDbLine
 10
3170.720579860066
 20
1388.494284088199
 30
0.0
 11
3173.052119381877
 21
1393.494286728162
 31
0.0
  0
LINE
  5
18C82
330
18C7A
100
AcDbEntity
  8
細線
100
AcDbLine
 10
3240.720589276525
 20
1388.494269174465
 30
0.0
 11
3238.389042800336
 21
1393.494286728144
 31
0.0
  0
LINE
  5
18C83
330
18C7A
100
AcDbEntity
  8
細線
100
AcDbLine
 10
3238.389042800336
 20
1393.494286728144
 30
0.0
 11
3173.052119381862
 21
1393.494286728133
 31
0.0
  0
LINE
  5
18C84
330
18C7A
100
AcDbEntity
  8
細線
100
AcDbLine
 10
3098.389042800336
 20
1393.494286728144
 30
0.0
 11
3033.052119381862
 21
1393.494286728133
 31
0.0
  0
LINE
  5
18C85
330
18C7A
100
AcDbEntity
  8
細線
100
AcDbLine
 10
3100.720589276523
 20
1388.494269174465
 30
0.0
 11
3098.389042800336
 21
1393.494286728144
 31
0.0
  0
LINE
  5
18C86
330
18C7A
100
AcDbEntity
  8
細線
100
AcDbLine
 10
3030.720579860066
 20
1388.494284088199
 30
0.0
 11
3033.052119381875
 21
1393.494286728162
 31
0.0
  0
LINE
  5
18C87
330
18C7A
100
AcDbEntity
  8
細線
100
AcDbLine
 10
2890.720589276525
 20
1388.494269174465
 30
0.0
 11
2893.052128798336
 21
1393.494271814428
 31
0.0
  0
LINE
  5
18C88
330
18C7A
100
AcDbEntity
  8
細線
100
AcDbLine
 10
2960.720598692984
 20
1388.494254260731
 30
0.0
 11
2958.389052216793
 21
1393.49427181441
 31
0.0
  0
LINE
  5
18C89
330
18C7A
100
AcDbEntity
  8
細線
100
AcDbLine
 10
2958.389052216795
 20
1393.49427181441
 30
0.0
 11
2893.052128798321
 21
1393.494271814399
 31
0.0
  0
LINE
  5
18C8A
330
18C7A
100
AcDbEntity
  8
細線
100
AcDbLine
 10
2667.139038146739
 20
1359.494298590735
 30
0.0
 11
2601.802114728263
 21
1359.494298590724
 31
0.0
  0
LINE
  5
18C8B
330
18C7A
100
AcDbEntity
  8
細線
100
AcDbLine
 10
2669.470584622926
 20
1354.494281037055
 30
0.0
 11
2667.139038146737
 21
1359.494298590735
 31
0.0
  0
LINE
  5
18C8C
330
18C7A
100
AcDbEntity
  8
細線
100
AcDbLine
 10
2599.470575206469
 20
1354.49429595079
 30
0.0
 11
2601.802114728278
 21
1359.494298590752
 31
0.0
  0
LINE
  5
18C8D
330
18C7A
100
AcDbEntity
  8
細線
 48
50.0
100
AcDbLine
 10
2440.853968524536
 20
1372.765132327548
 30
0.0
 11
2446.609486107205
 21
1354.494281037057
 31
0.0
  0
LINE
  5
18C8E
330
18C7A
100
AcDbEntity
  8
細線
 48
50.0
100
AcDbLine
 10
2429.925520044106
 20
1372.765132327546
 30
0.0
 11
2440.853968524536
 21
1372.765132327548
 31
0.0
  0
ARC
  5
18C8F
330
18C7A
100
AcDbEntity
  8
細線
 48
50.0
100
AcDbCircle
 10
2424.471163986787
 20
1374.265132327546
 30
0.0
 40
5.0
100
AcDbArc
 50
204.6243183520723
 51
335.3756816479278
  0
ARC
  5
18C90
330
18C7A
100
AcDbEntity
  8
細線
 48
50.0
100
AcDbCircle
 10
2429.925520044106
 20
1371.765132327546
 30
0.0
 40
1.0
100
AcDbArc
 50
90.0
 51
155.3756816479277
  0
ARC
  5
18C91
330
18C7A
100
AcDbEntity
  8
細線
 48
50.0
100
AcDbCircle
 10
2419.016807929469
 20
1371.765132327546
 30
0.0
 40
1.0
100
AcDbArc
 50
24.62431835207225
 51
90.0
  0
LINE
  5
18C92
330
18C7A
100
AcDbEntity
  8
細線
 48
50.0
100
AcDbLine
 10
2408.088359449037
 20
1372.765132327548
 30
0.0
 11
2419.016807929469
 21
1372.765132327546
 31
0.0
  0
LINE
  5
18C93
330
18C7A
100
AcDbEntity
  8
細線
 48
50.0
100
AcDbLine
 10
2402.33284186637
 20
1354.494281037054
 30
0.0
 11
2408.088359449037
 21
1372.765132327548
 31
0.0
  0
LINE
  5
18C94
330
18C7A
100
AcDbEntity
  8
細線
100
AcDbLine
 10
2458.070304175992
 20
1354.494278397076
 30
0.0
 11
2460.401843697802
 21
1359.494281037039
 31
0.0
  0
LINE
  5
18C95
330
18C7A
100
AcDbEntity
  8
細線
100
AcDbLine
 10
2528.070313592451
 20
1354.494263483342
 30
0.0
 11
2525.738767116262
 21
1359.494281037021
 31
0.0
  0
LINE
  5
18C96
330
18C7A
100
AcDbEntity
  8
細線
100
AcDbLine
 10
2525.738767116262
 20
1359.494281037021
 30
0.0
 11
2460.40184369779
 21
1359.49428103701
 31
0.0
  0
LINE
  5
18C97
330
18C7A
100
AcDbEntity
  8
細線
100
AcDbLine
 10
2387.139046332155
 20
1359.494281037021
 30
0.0
 11
2321.80212291368
 21
1359.49428103701
 31
0.0
  0
LINE
  5
18C98
330
18C7A
100
AcDbEntity
  8
細線
100
AcDbLine
 10
2389.470592808342
 20
1354.494263483342
 30
0.0
 11
2387.139046332153
 21
1359.494281037021
 31
0.0
  0
LINE
  5
18C99
330
18C7A
100
AcDbEntity
  8
細線
100
AcDbLine
 10
2319.470584622926
 20
1354.494281037054
 30
0.0
 11
2321.802122913694
 21
1359.494281037039
 31
0.0
  0
LINE
  5
18C9A
330
18C7A
100
AcDbEntity
  8
細線
100
AcDbLine
 10
2179.47061994182
 20
1354.494289224422
 30
0.0
 11
2181.802158232587
 21
1359.494289224407
 31
0.0
  0
LINE
  5
18C9B
330
18C7A
100
AcDbEntity
  8
細線
100
AcDbLine
 10
2249.470628127236
 20
1354.49427167071
 30
0.0
 11
2247.139081651047
 21
1359.494289224389
 31
0.0
  0
LINE
  5
18C9C
330
18C7A
100
AcDbEntity
  8
細線
100
AcDbLine
 10
2247.139081651047
 20
1359.494289224389
 30
0.0
 11
2181.802158232573
 21
1359.494289224378
 31
0.0
  0
LINE
  5
18C9D
330
18C7A
100
AcDbEntity
  8
細線
100
AcDbLine
 10
1807.970585744697
 20
1320.494460905133
 30
0.0
 11
1810.302124035464
 21
1325.494460905118
 31
0.0
  0
LINE
  5
18C9E
330
18C7A
100
AcDbEntity
  8
細線
100
AcDbLine
 10
1877.970593930113
 20
1320.494443351421
 30
0.0
 11
1875.639047453926
 21
1325.4944609051
 31
0.0
  0
LINE
  5
18C9F
330
18C7A
100
AcDbEntity
  8
細線
100
AcDbLine
 10
1875.639047453926
 20
1325.4944609051
 30
0.0
 11
1810.302124035452
 21
1325.494460905089
 31
0.0
  0
LINE
  5
18CA0
330
18C7A
100
AcDbEntity
  8
細線
100
AcDbLine
 10
2015.639047453926
 20
1325.4944609051
 30
0.0
 11
1950.302124035452
 21
1325.494460905089
 31
0.0
  0
LINE
  5
18CA1
330
18C7A
100
AcDbEntity
  8
細線
100
AcDbLine
 10
2017.970593930113
 20
1320.494443351421
 30
0.0
 11
2015.639047453924
 21
1325.4944609051
 31
0.0
  0
LINE
  5
18CA2
330
18C7A
100
AcDbEntity
  8
細線
100
AcDbLine
 10
1947.970585744697
 20
1320.494460905133
 30
0.0
 11
1950.302124035465
 21
1325.494460905118
 31
0.0
  0
LINE
  5
18CA3
330
18C7A
100
AcDbEntity
  8
細線
100
AcDbLine
 10
1735.639047453926
 20
1325.494460905098
 30
0.0
 11
1670.302124035454
 21
1325.494460905087
 31
0.0
  0
LINE
  5
18CA4
330
18C7A
100
AcDbEntity
  8
細線
100
AcDbLine
 10
1737.970593930113
 20
1320.494443351419
 30
0.0
 11
1735.639047453926
 21
1325.494460905098
 31
0.0
  0
LINE
  5
18CA5
330
18C7A
100
AcDbEntity
  8
細線
100
AcDbLine
 10
1667.970585744697
 20
1320.494460905131
 30
0.0
 11
1670.302124035465
 21
1325.494460905116
 31
0.0
  0
LINE
  5
18CA6
330
18C7A
100
AcDbEntity
  8
細線
100
AcDbLine
 10
1527.970593930113
 20
1320.494460905133
 30
0.0
 11
1530.302132220881
 21
1325.494460905118
 31
0.0
  0
LINE
  5
18CA7
330
18C7A
100
AcDbEntity
  8
細線
100
AcDbLine
 10
1597.970602115529
 20
1320.494443351421
 30
0.0
 11
1595.639055639342
 21
1325.4944609051
 31
0.0
  0
LINE
  5
18CA8
330
18C7A
100
AcDbEntity
  8
細線
100
AcDbLine
 10
1595.639055639342
 20
1325.4944609051
 30
0.0
 11
1530.302132220869
 21
1325.494460905089
 31
0.0
  0
ARC
  5
18CA9
330
18C7A
100
AcDbEntity
  8
部品1
 48
0.01
100
AcDbCircle
 10
1483.470482677778
 20
1319.493338720063
 30
0.0
 40
0.5
100
AcDbArc
 50
270.0
 51
0.0
  0
LINE
  5
18CAA
330
18C7A
100
AcDbEntity
  8
部品1
 48
0.01
100
AcDbLine
 10
1483.970482677778
 20
1320.493338720063
 30
0.0
 11
1483.970482677778
 21
1319.493338720063
 31
0.0
  0
LINE
  5
18CAB
330
18C7A
100
AcDbEntity
  8
部品1
 48
0.01
100
AcDbLine
 10
1483.970482677778
 20
1320.493338720063
 30
0.0
 11
1483.970482677778
 21
1319.493338720063
 31
0.0
  0
LINE
  5
18CAC
330
18C7A
100
AcDbEntity
  8
部品1
 48
0.01
100
AcDbLine
 10
1483.470482677778
 20
1318.993338720063
 30
0.0
 11
1476.857977247713
 21
1318.993338720062
 31
0.0
  0
ARC
  5
18CAD
330
18C7A
100
AcDbEntity
  8
部品1
100
AcDbCircle
 10
1476.926326800494
 20
1319.993338720062
 30
0.0
 40
1.0
100
AcDbArc
 50
160.5287793655865
 51
270.0
  0
ARC
  5
18CAE
330
18C7A
100
AcDbEntity
  8
部品1
100
AcDbCircle
 10
1451.470482677778
 20
1328.993338720062
 30
0.0
 40
26.0
100
AcDbArc
 50
340.5287793655865
 51
0.0
  0
LINE
  5
18CAF
330
18C7A
100
AcDbEntity
  8
部品1
100
AcDbLine
 10
1477.470482677778
 20
1328.993338720062
 30
0.0
 11
1477.470482677778
 21
1333.993338720061
 31
0.0
  0
ARC
  5
18CB0
330
18C7A
100
AcDbEntity
  8
部品1
 48
0.01
100
AcDbCircle
 10
1475.470482677778
 20
1333.993338720061
 30
0.0
 40
2.0
100
AcDbArc
 50
0.0
 51
90.0
  0
ARC
  5
18CB1
330
18C7A
100
AcDbEntity
  8
部品1
100
AcDbCircle
 10
1473.862091052968
 20
1332.993338720062
 30
0.0
 40
3.0
100
AcDbArc
 50
90.0
 51
141.6069559808035
  0
LINE
  5
18CB2
330
18C7A
100
AcDbEntity
  8
部品1
 48
0.01
100
AcDbLine
 10
1475.470482677778
 20
1335.993338720062
 30
0.0
 11
1473.862091052968
 21
1335.993338720062
 31
0.0
  0
ARC
  5
18CB3
330
18C7A
100
AcDbEntity
  8
部品1
100
AcDbCircle
 10
1455.399768463507
 20
1332.293338720065
 30
0.0
 40
3.0
100
AcDbArc
 50
254.0576313943215
 51
270.0
  0
ARC
  5
18CB4
330
18C7A
100
AcDbEntity
  8
部品1
100
AcDbCircle
 10
1462.541196892049
 20
1332.293338720065
 30
0.0
 40
3.0
100
AcDbArc
 50
270.0
 51
285.9423686056786
  0
LINE
  5
18CB5
330
18C7A
100
AcDbEntity
  8
部品1
100
AcDbLine
 10
1462.541196892049
 20
1329.293338720064
 30
0.0
 11
1455.399768463507
 21
1329.293338720064
 31
0.0
  0
ARC
  5
18CB6
330
18C7A
100
AcDbEntity
  8
部品1
100
AcDbCircle
 10
1458.970482677778
 20
1344.793338720065
 30
0.0
 40
16.0
100
AcDbArc
 50
285.9423686056786
 51
321.6069559808035
  0
LINE
  5
18CB7
330
18C7A
100
AcDbEntity
  8
部品1
 48
0.01
100
AcDbLine
 10
1442.470482677778
 20
1335.993338720062
 30
0.0
 11
1444.078874302588
 21
1335.993338720062
 31
0.0
  0
ARC
  5
18CB8
330
18C7A
100
AcDbEntity
  8
部品1
100
AcDbCircle
 10
1444.078874302588
 20
1332.993338720062
 30
0.0
 40
3.0
100
AcDbArc
 50
38.39304401919648
 51
90.0
  0
ARC
  5
18CB9
330
18C7A
100
AcDbEntity
  8
部品1
100
AcDbCircle
 10
1458.970482677778
 20
1344.793338720065
 30
0.0
 40
16.0
100
AcDbArc
 50
218.3930440191965
 51
254.0576313943215
  0
LINE
  5
18CBA
330
18C7A
100
AcDbEntity
  8
部品1
100
AcDbLine
 10
1440.470482677778
 20
1328.993338720062
 30
0.0
 11
1440.470482677778
 21
1333.993338720061
 31
0.0
  0
ARC
  5
18CBB
330
18C7A
100
AcDbEntity
  8
部品1
 48
0.01
100
AcDbCircle
 10
1442.470482677778
 20
1333.993338720061
 30
0.0
 40
2.0
100
AcDbArc
 50
90.0
 51
180.0
  0
ARC
  5
18CBC
330
18C7A
100
AcDbEntity
  8
部品1
100
AcDbCircle
 10
1466.470482677778
 20
1328.993338720062
 30
0.0
 40
26.0
100
AcDbArc
 50
180.0
 51
199.4712206344134
  0
ARC
  5
18CBD
330
18C7A
100
AcDbEntity
  8
部品1
 48
0.01
100
AcDbCircle
 10
1434.470482677778
 20
1319.493338720063
 30
0.0
 40
0.5
100
AcDbArc
 50
180.0
 51
270.0
  0
LINE
  5
18CBE
330
18C7A
100
AcDbEntity
  8
部品1
 48
0.01
100
AcDbLine
 10
1434.470482677778
 20
1318.993338720063
 30
0.0
 11
1441.014638555061
 21
1318.993338720062
 31
0.0
  0
LINE
  5
18CBF
330
18C7A
100
AcDbEntity
  8
部品1
 48
0.01
100
AcDbLine
 10
1433.970482677778
 20
1320.493338720063
 30
0.0
 11
1433.970482677778
 21
1319.493338720063
 31
0.0
  0
ARC
  5
18CC0
330
18C7A
100
AcDbEntity
  8
部品1
100
AcDbCircle
 10
1441.014638555061
 20
1319.993338720062
 30
0.0
 40
1.0
100
AcDbArc
 50
270.0
 51
19.47122063441346
  0
LINE
  5
18CC1
330
18C7A
100
AcDbEntity
  8
細線
100
AcDbLine
 10
1479.470482677785
 20
1338.493338720065
 30
0.0
 11
1438.470482677785
 21
1338.493338720058
 31
0.0
  0
LINE
  5
18CC2
330
18C7A
100
AcDbEntity
  8
細線
100
AcDbLine
 10
1438.470482677785
 20
1338.493338720058
 30
0.0
 11
1438.470482677785
 21
1320.49333872004
 31
0.0
  0
LINE
  5
18CC3
330
18C7A
100
AcDbEntity
  8
細線
100
AcDbLine
 10
1479.470482677785
 20
1338.493338720065
 30
0.0
 11
1479.470482677785
 21
1320.49333872004
 31
0.0
  0
LINE
  5
18CC4
330
18C7A
100
AcDbEntity
  8
細線
100
AcDbLine
 10
1322.970589276523
 20
1324.494269174465
 30
0.0
 11
1322.970589276523
 21
1320.494269174513
 31
0.0
  0
LINE
  5
18CC5
330
18C7A
100
AcDbEntity
  8
寸法
 48
50.0
100
AcDbLine
 10
1746.17359555837
 20
1170.531020743327
 30
0.0
 11
1694.767587648266
 21
1170.531020743327
 31
0.0
  0
LINE
  5
18CC6
330
18C7A
100
AcDbEntity
  8
寸法
 48
50.0
100
AcDbLine
 10
1694.767587648266
 20
1170.531020743327
 30
0.0
 11
1694.767587648266
 21
1201.841179395494
 31
0.0
  0
LINE
  5
18CC7
330
18C7A
100
AcDbEntity
  8
寸法
 48
50.0
100
AcDbLine
 10
1694.767587648266
 20
1201.841179395494
 30
0.0
 11
1665.006255656843
 21
1201.841179395494
 31
0.0
  0
LINE
  5
18CC8
330
18C7A
100
AcDbEntity
  8
寸法
 48
50.0
100
AcDbLine
 10
1665.006255656843
 20
1201.841179395494
 30
0.0
 11
1720.470591603318
 21
1239.420630324105
 31
0.0
  0
LINE
  5
18CC9
330
18C7A
100
AcDbEntity
  8
寸法
 48
50.0
100
AcDbLine
 10
1775.934927549793
 20
1201.841179395494
 30
0.0
 11
1720.470591603318
 21
1239.420630324105
 31
0.0
  0
LINE
  5
18CCA
330
18C7A
100
AcDbEntity
  8
寸法
 48
50.0
100
AcDbLine
 10
1746.17359555837
 20
1201.841179395494
 30
0.0
 11
1775.934927549793
 21
1201.841179395494
 31
0.0
  0
LINE
  5
18CCB
330
18C7A
100
AcDbEntity
  8
寸法
 48
50.0
100
AcDbLine
 10
1746.17359555837
 20
1170.531020743327
 30
0.0
 11
1746.17359555837
 21
1201.841179395494
 31
0.0
  0
LINE
  5
18CCC
330
18C7A
100
AcDbEntity
  8
寸法
 48
50.0
100
AcDbLine
 10
1694.767587648266
 20
1170.531020743327
 30
0.0
 11
1746.17359555837
 21
1170.531020743327
 31
0.0
  0
LINE
  5
18CCD
330
18C7A
100
AcDbEntity
  8
寸法
 48
50.0
100
AcDbLine
 10
2025.339129835225
 20
1227.676611498152
 30
0.0
 11
2025.339129835225
 21
1174.01297691636
 31
0.0
  0
LINE
  5
18CCE
330
18C7A
100
AcDbEntity
  8
寸法
 48
50.0
100
AcDbLine
 10
2114.623348430647
 20
1203.752977228664
 30
0.0
 11
2025.339129835225
 21
1227.676611498152
 31
0.0
  0
LINE
  5
18CCF
330
18C7A
100
AcDbEntity
  8
寸法
 48
50.0
100
AcDbLine
 10
1895.471408254923
 20
1203.752977228664
 30
0.0
 11
2114.623348430647
 21
1203.752977228664
 31
0.0
  0
DIMENSION
  5
18CD0
330
18C7A
100
AcDbEntity
  8
寸法
 48
50.0
100
AcDbDimension
  2
*D15
 10
2588.970589276523
 20
706.3240511224249
 30
0.0
 11
1969.060022905491
 21
706.3240511224249
 31
0.0
 12
-3742.925985830444
 22
-6453.628869860112
 32
0.0
 70
   128
  1
有効開口部間口\P<>
 71
     5
 42
1266.0
  3
INABA_S40G
100
AcDbAlignedDimension
 13
1322.970589276523
 23
1315.494269174465
 33
0.0
 14
2588.970589276523
 24
1315.494269174465
 34
0.0
100
AcDbRotatedDimension
1001
ACAD
1000
DSTYLE
1002
{
1070
   341
1005
0
1002
}
  0
LINE
  5
18CD1
330
18C7A
100
AcDbEntity
  8
部品1
100
AcDbLine
 10
3409.970589276524
 20
1392.494269174465
 30
0.0
 11
3437.970589276523
 21
1392.494269174465
 31
0.0
  0
DIMENSION
  5
18CD2
330
18C7A
100
AcDbEntity
  8
寸法
100
AcDbDimension
  2
*D16
 10
3674.266172669749
 20
1315.494269174465
 30
0.0
 11
3674.266172669748
 21
1177.494269174462
 31
0.0
 12
-3742.925985830444
 22
-6453.628869860112
 32
0.0
 70
   128
 71
     5
 42
77.0
  3
INABA_S40
100
AcDbAlignedDimension
 13
3437.970589276523
 23
1392.494269174465
 33
0.0
 14
3436.970589276523
 24
1315.494269174465
 34
0.0
 50
90.0
100
AcDbRotatedDimension
1001
ACAD
1000
DSTYLE
1002
{
1070
    41
1040
0.5
1070
    44
1040
1.0
1070
   147
1040
0.8
1070
   271
1070
     2
1070
   272
1070
     2
1070
   289
1070
     3
1070
   340
1005
F706
1070
   343
1005
164B4
1070
   344
1005
164B4
1002
}
  0
LINE
  5
18CD3
330
18C7A
100
AcDbEntity
  8
部品1
100
AcDbLine
 10
3437.970589276523
 20
1315.494269174465
 30
0.0
 11
3437.970589276523
 21
1392.494269174465
 31
0.0
  0
LINE
  5
18CD4
330
18C7A
100
AcDbEntity
  8
部品1
100
AcDbLine
 10
3398.970589276523
 20
1388.494269174465
 30
0.0
 11
3409.970589276524
 21
1388.494269174465
 31
0.0
  0
LINE
  5
18CD5
330
18C7A
100
AcDbEntity
  8
部品1
100
AcDbLine
 10
3407.970589276523
 20
1324.494269174465
 30
0.0
 11
3407.970589276523
 21
1315.494269174465
 31
0.0
  0
LINE
  5
18CD6
330
18C7A
100
AcDbEntity
  8
部品1
100
AcDbLine
 10
3398.970589276523
 20
1324.494269174465
 30
0.0
 11
3407.970589276523
 21
1324.494269174465
 31
0.0
  0
LINE
  5
18CD7
330
18C7A
100
AcDbEntity
  8
部品1
100
AcDbLine
 10
3398.970589276523
 20
1388.494269174465
 30
0.0
 11
3398.970589276523
 21
1324.494269174465
 31
0.0
  0
LINE
  5
18CD8
330
18C7A
100
AcDbEntity
  8
部品1
100
AcDbLine
 10
3409.970589276524
 20
1419.494269174465
 30
0.0
 11
3409.970589276524
 21
1388.494269174465
 31
0.0
  0
LINE
  5
18CD9
330
18C7A
100
AcDbEntity
  8
部品1
100
AcDbLine
 10
1322.970589276523
 20
1388.494269174465
 30
0.0
 11
1311.970589276523
 21
1388.494269174465
 31
0.0
  0
LINE
  5
18CDA
330
18C7A
100
AcDbEntity
  8
部品1
100
AcDbLine
 10
1283.970589276523
 20
1392.494269174465
 30
0.0
 11
1311.970589276523
 21
1392.494269174465
 31
0.0
  0
LINE
  5
18CDB
330
18C7A
100
AcDbEntity
  8
部品1
100
AcDbLine
 10
1313.970589276523
 20
1324.494269174465
 30
0.0
 11
1313.970589276523
 21
1315.494269174465
 31
0.0
  0
LINE
  5
18CDC
330
18C7A
100
AcDbEntity
  8
部品1
100
AcDbLine
 10
1322.970589276523
 20
1324.494269174465
 30
0.0
 11
1313.970589276523
 21
1324.494269174465
 31
0.0
  0
LINE
  5
18CDD
330
18C7A
100
AcDbEntity
  8
部品1
100
AcDbLine
 10
1313.970589276523
 20
1315.494269174465
 30
0.0
 11
1283.970589276523
 21
1315.494269174465
 31
0.0
  0
LINE
  5
18CDE
330
18C7A
100
AcDbEntity
  8
部品1
100
AcDbLine
 10
1283.970589276523
 20
1315.494269174465
 30
0.0
 11
1283.970589276523
 21
1392.494269174465
 31
0.0
  0
LINE
  5
18CDF
330
18C7A
100
AcDbEntity
  8
部品1
100
AcDbLine
 10
1322.970589276523
 20
1388.494269174465
 30
0.0
 11
1322.970589276523
 21
1324.494269174465
 31
0.0
  0
LINE
  5
18CE0
330
18C7A
100
AcDbEntity
  8
部品1
100
AcDbLine
 10
1311.970589276523
 20
1419.494269174462
 30
0.0
 11
1311.970589276523
 21
1388.494269174465
 31
0.0
  0
LINE
  5
18CE1
330
18C7A
100
AcDbEntity
  8
部品1
100
AcDbLine
 10
1311.970589276523
 20
1419.494269174462
 30
0.0
 11
3409.970589276524
 21
1419.494269174465
 31
0.0
  0
LINE
  5
18CE2
330
18C7A
100
AcDbEntity
  8
部品1
100
AcDbLine
 10
3407.970589276523
 20
1315.494269174465
 30
0.0
 11
3437.970589276523
 21
1315.494269174465
 31
0.0
  0
LINE
  5
18CE3
330
18C7A
100
AcDbEntity
  8
部品1
100
AcDbLine
 10
1313.970589276523
 20
1315.494269174465
 30
0.0
 11
3410.970589276523
 21
1315.494269174465
 31
0.0
  0
LINE
  5
18CE4
330
18C7A
100
AcDbEntity
  8
細線
  6
Continuous
 62
     5
100
AcDbLine
 10
2689.970589276527
 20
1354.494269174462
 30
0.0
 11
2689.970589276527
 21
1354.494269174462
 31
0.0
  0
LINE
  5
18CE5
330
18C7A
100
AcDbEntity
  8
細線
  6
Continuous
 62
     5
100
AcDbLine
 10
2682.470589276527
 20
1354.494269174462
 30
0.0
 11
2682.470589276527
 21
1354.494269174462
 31
0.0
  0
LINE
  5
18CE6
330
18C7A
100
AcDbEntity
  8
細線
  6
Continuous
 62
     5
100
AcDbLine
 10
2676.470589276527
 20
1354.494269174462
 30
0.0
 11
2676.470589276527
 21
1354.494269174462
 31
0.0
  0
LINE
  5
18CE7
330
18C7A
100
AcDbEntity
  8
細線
  6
Continuous
 62
     5
100
AcDbLine
 10
2743.970589276527
 20
1373.494269174462
 30
0.0
 11
2743.970589276527
 21
1373.494269174462
 31
0.0
  0
LINE
  5
18CE8
330
18C7A
100
AcDbEntity
  8
細線
 48
50.0
100
AcDbLine
 10
1336.970593930116
 20
1341.094443351418
 30
0.0
 11
1336.970593930113
 21
1349.490593759059
 31
0.0
  0
LINE
  5
18CE9
330
18C7A
100
AcDbEntity
  8
細線
 48
50.0
100
AcDbLine
 10
1336.970593930113
 20
1349.490593759059
 30
0.0
 11
1322.970589276523
 21
1349.490593759057
 31
0.0
  0
LINE
  5
18CEA
330
18C7A
100
AcDbEntity
  8
細線
 48
50.0
100
AcDbLine
 10
2087.970593930113
 20
1337.644443351419
 30
0.0
 11
2087.970593930113
 21
1342.494443351421
 31
0.0
  0
LINE
  5
18CEB
330
18C7A
100
AcDbEntity
  8
細線
 48
50.0
100
AcDbLine
 10
2087.970593930113
 20
1342.494443351421
 30
0.0
 11
2102.970593930113
 21
1342.494443351421
 31
0.0
  0
LINE
  5
18CEC
330
18C7A
100
AcDbEntity
  8
細線
 48
50.0
100
AcDbLine
 10
2102.970593930113
 20
1342.494443351421
 30
0.0
 11
2102.970593930115
 21
1349.494443351419
 31
0.0
  0
LINE
  5
18CED
330
18C7A
100
AcDbEntity
  8
細線
 48
50.0
100
AcDbLine
 10
2102.970593930115
 20
1349.494443351419
 30
0.0
 11
2117.970593930113
 21
1349.494443351419
 31
0.0
  0
LINE
  5
18CEE
330
18C7A
100
AcDbEntity
  8
細線
 48
50.0
100
AcDbLine
 10
2117.970593930113
 20
1349.494443351419
 30
0.0
 11
2117.970593930113
 21
1320.494443351421
 31
0.0
  0
LINE
  5
18CEF
330
18C7A
100
AcDbEntity
  8
細線
 48
50.0
100
AcDbLine
 10
1313.970589276523
 20
1320.491777694889
 30
0.0
 11
1527.970593930113
 21
1320.494460905133
 31
0.0
  0
LINE
  5
18CF0
330
18C7A
100
AcDbEntity
  8
細線
 48
50.0
100
AcDbLine
 10
2017.970593930113
 20
1320.494443351421
 30
0.0
 11
2117.970593930113
 21
1320.494443351421
 31
0.0
  0
LINE
  5
18CF1
330
18C7A
100
AcDbEntity
  8
細線
 48
50.0
100
AcDbLine
 10
1737.970593930113
 20
1320.494443351419
 30
0.0
 11
1807.970593930113
 21
1320.494443351423
 31
0.0
  0
LINE
  5
18CF2
330
18C7A
100
AcDbEntity
  8
細線
 48
50.0
100
AcDbLine
 10
1750.832558942642
 20
1320.494443351419
 30
0.0
 11
1756.588076525309
 21
1338.765294641913
 31
0.0
  0
LINE
  5
18CF3
330
18C7A
100
AcDbEntity
  8
細線
 48
50.0
100
AcDbLine
 10
1756.588076525309
 20
1338.765294641913
 30
0.0
 11
1767.516525005743
 21
1338.765294641911
 31
0.0
  0
ARC
  5
18CF4
330
18C7A
100
AcDbEntity
  8
細線
 48
50.0
100
AcDbCircle
 10
1767.516525005743
 20
1337.765294641911
 30
0.0
 40
1.0
100
AcDbArc
 50
24.62431835207225
 51
90.0
  0
ARC
  5
18CF5
330
18C7A
100
AcDbEntity
  8
細線
 48
50.0
100
AcDbCircle
 10
1778.425237120377
 20
1337.765294641911
 30
0.0
 40
1.0
100
AcDbArc
 50
90.0
 51
155.3756816479277
  0
ARC
  5
18CF6
330
18C7A
100
AcDbEntity
  8
細線
 48
50.0
100
AcDbCircle
 10
1772.970881063058
 20
1340.265294641911
 30
0.0
 40
5.0
100
AcDbArc
 50
204.6243183520723
 51
335.3756816479278
  0
LINE
  5
18CF7
330
18C7A
100
AcDbEntity
  8
細線
 48
50.0
100
AcDbLine
 10
1778.425237120377
 20
1338.765294641911
 30
0.0
 11
1789.35368560081
 21
1338.765294641913
 31
0.0
  0
LINE
  5
18CF8
330
18C7A
100
AcDbEntity
  8
細線
 48
50.0
100
AcDbLine
 10
1789.35368560081
 20
1338.765294641913
 30
0.0
 11
1795.109203183478
 21
1320.494443351423
 31
0.0
  0
LINE
  5
18CF9
330
18C7A
100
AcDbEntity
  8
細線
 48
50.0
100
AcDbLine
 10
2087.970593930113
 20
1341.094443351419
 30
0.0
 11
1336.970593930116
 21
1341.094443351418
 31
0.0
  0
LINE
  5
18CFA
330
18C7A
100
AcDbEntity
  8
細線
 48
50.0
100
AcDbLine
 10
1947.970593930113
 20
1320.494443351421
 30
0.0
 11
1877.970593930113
 21
1320.494443351421
 31
0.0
  0
LINE
  5
18CFB
330
18C7A
100
AcDbEntity
  8
細線
100
AcDbLine
 10
1667.970593930113
 20
1320.494443351421
 30
0.0
 11
1597.970602115529
 21
1320.494443351421
 31
0.0
  0
LINE
  5
18CFC
330
18C7A
100
AcDbEntity
  8
細線
 48
50.0
100
AcDbLine
 10
2741.970584622936
 20
1375.094487209288
 30
0.0
 11
2106.970593930113
 21
1375.094487209284
 31
0.0
  0
LINE
  5
18CFD
330
18C7A
100
AcDbEntity
  8
細線
 48
50.0
100
AcDbLine
 10
2106.970593930113
 20
1371.990637616925
 30
0.0
 11
2106.970593930113
 21
1376.490637616925
 31
0.0
  0
LINE
  5
18CFE
330
18C7A
100
AcDbEntity
  8
細線
 48
50.0
100
AcDbLine
 10
2106.970593930113
 20
1376.490637616925
 30
0.0
 11
2091.970593930113
 21
1376.490637616925
 31
0.0
  0
LINE
  5
18CFF
330
18C7A
100
AcDbEntity
  8
細線
 48
50.0
100
AcDbLine
 10
2091.970593930113
 20
1376.490637616925
 30
0.0
 11
2091.970593930113
 21
1383.490637616927
 31
0.0
  0
LINE
  5
18D00
330
18C7A
100
AcDbEntity
  8
細線
 48
50.0
100
AcDbLine
 10
2091.970593930113
 20
1383.490637616927
 30
0.0
 11
2076.970593930115
 21
1383.490637616924
 31
0.0
  0
LINE
  5
18D01
330
18C7A
100
AcDbEntity
  8
細線
 48
50.0
100
AcDbLine
 10
2076.970593930115
 20
1383.490637616924
 30
0.0
 11
2076.970593930115
 21
1345.890409513813
 31
0.0
  0
LINE
  5
18D02
330
18C7A
100
AcDbEntity
  8
細線
 48
50.0
100
AcDbLine
 10
2076.970593930115
 20
1345.890409513813
 30
0.0
 11
2096.970601231289
 21
1345.890451063353
 31
0.0
  0
LINE
  5
18D03
330
18C7A
100
AcDbEntity
  8
細線
 48
50.0
100
AcDbLine
 10
2096.970556362348
 20
1354.493912699161
 30
0.0
 11
2096.970601231289
 21
1345.890451063353
 31
0.0
  0
LINE
  5
18D04
330
18C7A
100
AcDbEntity
  8
細線
 48
50.0
100
AcDbLine
 10
2741.970584622936
 20
1371.644487209287
 30
0.0
 11
2741.970584622936
 21
1376.494487209284
 31
0.0
  0
LINE
  5
18D05
330
18C7A
100
AcDbEntity
  8
細線
 48
50.0
100
AcDbLine
 10
2741.970584622936
 20
1376.494487209284
 30
0.0
 11
2756.970584622934
 21
1376.494487209285
 31
0.0
  0
LINE
  5
18D06
330
18C7A
100
AcDbEntity
  8
細線
 48
50.0
100
AcDbLine
 10
2756.970584622934
 20
1376.494487209285
 30
0.0
 11
2756.970596256909
 21
1383.494487209331
 31
0.0
  0
LINE
  5
18D07
330
18C7A
100
AcDbEntity
  8
細線
 48
50.0
100
AcDbLine
 10
2756.970596256909
 20
1383.494487209331
 30
0.0
 11
2771.970594427439
 21
1383.494487209329
 31
0.0
  0
LINE
  5
18D08
330
18C7A
100
AcDbEntity
  8
細線
 48
50.0
100
AcDbLine
 10
2771.970594427439
 20
1383.494487209329
 30
0.0
 11
2771.970584125617
 21
1354.494281037055
 31
0.0
  0
LINE
  5
18D09
330
18C7A
100
AcDbEntity
  8
細線
 48
50.0
100
AcDbLine
 10
2458.070304175992
 20
1354.494278397076
 30
0.0
 11
2389.470863838818
 21
1354.494283787084
 31
0.0
  0
LINE
  5
18D0A
330
18C7A
100
AcDbEntity
  8
細線
 48
50.0
100
AcDbLine
 10
2096.970556362348
 20
1354.493912699161
 30
0.0
 11
2108.203245717057
 21
1354.494095652309
 31
0.0
  0
ARC
  5
18D0B
330
18C7A
100
AcDbEntity
  8
細線
 48
50.0
100
AcDbCircle
 10
2114.785538024393
 20
1353.294259565922
 30
0.0
 40
1.8
100
AcDbArc
 50
270.0006665777295
 51
345.000555481349
  0
LINE
  5
18D0C
330
18C7A
100
AcDbEntity
  8
細線
 48
50.0
100
AcDbLine
 10
2116.771971470473
 20
1353.753100023201
 30
0.0
 11
2116.524209028273
 21
1352.828402141094
 31
0.0
  0
LINE
  5
18D0D
330
18C7A
100
AcDbEntity
  8
細線
 48
50.0
100
AcDbLine
 10
2114.785558965548
 20
1351.494259566043
 30
0.0
 11
2111.155631546781
 21
1351.494217335563
 31
0.0
  0
ARC
  5
18D0E
330
18C7A
100
AcDbEntity
  8
細線
 48
50.0
100
AcDbCircle
 10
2111.155610605627
 20
1353.29421733544
 30
0.0
 40
1.8
100
AcDbArc
 50
195.0010443049965
 51
270.0006665777295
  0
LINE
  5
18D0F
330
18C7A
100
AcDbEntity
  8
細線
 48
50.0
100
AcDbLine
 10
2109.169183113368
 20
1353.752932303007
 30
0.0
 11
2109.416952609882
 21
1352.828311364425
 31
0.0
  0
ARC
  5
18D10
330
18C7A
100
AcDbEntity
  8
細線
 48
50.0
100
AcDbCircle
 10
2108.203262004622
 20
1353.494095652444
 30
0.0
 40
1.0
100
AcDbArc
 50
15.00104430499651
 51
90.00093320877969
  0
LINE
  5
18D11
330
18C7A
100
AcDbEntity
  8
細線
 48
50.0
100
AcDbLine
 10
2117.737892825577
 20
1354.494290342714
 30
0.0
 11
2118.679652976481
 21
1354.494296916564
 31
0.0
  0
ARC
  5
18D12
330
18C7A
100
AcDbEntity
  8
細線
 48
50.0
100
AcDbCircle
 10
2117.737899805961
 20
1353.49429034274
 30
0.0
 40
1.0
100
AcDbArc
 50
90.0003999466794
 51
165.000555481349
  0
LINE
  5
18D13
330
18C7A
100
AcDbEntity
  8
細線
 48
50.0
100
AcDbLine
 10
2669.470584622926
 20
1354.494281037055
 30
0.0
 11
2771.970584125617
 21
1354.494281037055
 31
0.0
  0
LINE
  5
18D14
330
18C7A
100
AcDbEntity
  8
細線
 48
50.0
100
AcDbLine
 10
2179.47061994182
 20
1354.494289224422
 30
0.0
 11
2118.370558714898
 21
1354.494296916564
 31
0.0
  0
LINE
  5
18D15
330
18C7A
100
AcDbEntity
  8
細線
 48
50.0
100
AcDbLine
 10
2599.470584622926
 20
1354.494281037057
 30
0.0
 11
2529.470584622926
 21
1354.494281037055
 31
0.0
  0
LINE
  5
18D16
330
18C7A
100
AcDbEntity
  8
細線
 48
50.0
100
AcDbLine
 10
2319.470584622926
 20
1354.494281037054
 30
0.0
 11
2249.470567335051
 21
1354.494281037057
 31
0.0
  0
ARC
  5
18D17
330
18C7A
100
AcDbEntity
  8
細線
 48
50.0
100
AcDbCircle
 10
2756.170589276533
 20
1387.694269174466
 30
0.0
 40
0.8
100
AcDbArc
 50
359.9997333689499
 51
89.99986668437072
  0
ARC
  5
18D18
330
18C7A
100
AcDbEntity
  8
細線
 48
50.0
100
AcDbCircle
 10
2763.770596101631
 20
1387.694280343081
 30
0.0
 40
0.8
100
AcDbArc
 50
90.00014387753465
 51
179.9997333689498
  0
LINE
  5
18D19
330
18C7A
100
AcDbEntity
  8
細線
 48
50.0
100
AcDbLine
 10
2756.170591137969
 20
1388.494269174465
 30
0.0
 11
2750.970589276525
 21
1388.494269174465
 31
0.0
  0
ARC
  5
18D1A
330
18C7A
100
AcDbEntity
  8
細線
 48
50.0
100
AcDbCircle
 10
2757.670589276524
 20
1386.194269174464
 30
0.0
 40
0.7
100
AcDbArc
 50
180.0
 51
270.0
  0
ARC
  5
18D1B
330
18C7A
100
AcDbEntity
  8
細線
 48
50.0
100
AcDbCircle
 10
2762.270589276524
 20
1386.194269174464
 30
0.0
 40
0.7
100
AcDbArc
 50
270.0
 51
0.0
  0
LINE
  5
18D1C
330
18C7A
100
AcDbEntity
  8
細線
 48
50.0
100
AcDbLine
 10
2762.970589276525
 20
1386.194269174464
 30
0.0
 11
2762.970596101639
 21
1387.694284065954
 31
0.0
  0
LINE
  5
18D1D
330
18C7A
100
AcDbEntity
  8
細線
 48
50.0
100
AcDbLine
 10
2757.670589276524
 20
1385.494269174465
 30
0.0
 11
2762.270589276524
 21
1385.494269174465
 31
0.0
  0
LINE
  5
18D1E
330
18C7A
100
AcDbEntity
  8
細線
 48
50.0
100
AcDbLine
 10
2756.970589276525
 20
1387.694269174466
 30
0.0
 11
2756.970589276525
 21
1386.194269174464
 31
0.0
  0
LINE
  5
18D1F
330
18C7A
100
AcDbEntity
  8
細線
 48
50.0
100
AcDbLine
 10
3382.570589276527
 20
1418.494269174465
 30
0.0
 11
2745.970589276525
 21
1418.494269174463
 31
0.0
  0
LINE
  5
18D20
330
18C7A
100
AcDbEntity
  8
細線
 48
50.0
100
AcDbLine
 10
3408.470589276525
 20
1413.494269174467
 30
0.0
 11
3392.570589276527
 21
1413.494269174465
 31
0.0
  0
LINE
  5
18D21
330
18C7A
100
AcDbEntity
  8
細線
 48
50.0
100
AcDbLine
 10
3392.570589276526
 20
1413.494269174465
 30
0.0
 11
3382.570589276527
 21
1418.494269174465
 31
0.0
  0
LINE
  5
18D22
330
18C7A
100
AcDbEntity
  8
細線
100
AcDbLine
 10
2993.470589276525
 20
1388.494269174465
 30
0.0
 11
2993.470589276525
 21
1417.794269174464
 31
0.0
  0
LINE
  5
18D23
330
18C7A
100
AcDbEntity
  8
細線
100
AcDbLine
 10
2993.470589276525
 20
1417.794269174464
 30
0.0
 11
3013.470589276525
 21
1417.794269174464
 31
0.0
  0
LINE
  5
18D24
330
18C7A
100
AcDbEntity
  8
細線
100
AcDbLine
 10
3013.470589276525
 20
1388.494269174465
 30
0.0
 11
3013.470589276525
 21
1417.794269174464
 31
0.0
  0
LINE
  5
18D25
330
18C7A
100
AcDbEntity
  8
細線
100
AcDbLine
 10
3170.720589276524
 20
1388.494269174465
 30
0.0
 11
3100.720589276523
 21
1388.494269174465
 31
0.0
  0
LINE
  5
18D26
330
18C7A
100
AcDbEntity
  8
細線
 48
50.0
100
AcDbLine
 10
2890.720589276525
 20
1388.494269174465
 30
0.0
 11
2763.766368849365
 21
1388.494269174465
 31
0.0
  0
LINE
  5
18D27
330
18C7A
100
AcDbEntity
  8
細線
100
AcDbLine
 10
3030.720589276525
 20
1388.494269174465
 30
0.0
 11
2960.720589276525
 21
1388.494269174465
 31
0.0
  0
LINE
  5
18D28
330
18C7A
100
AcDbEntity
  8
細線
 48
50.0
100
AcDbLine
 10
2750.970589276525
 20
1380.494269174465
 30
0.0
 11
2750.970589276525
 21
1388.494269174465
 31
0.0
  0
LINE
  5
18D29
330
18C7A
100
AcDbEntity
  8
細線
 48
50.0
100
AcDbLine
 10
2730.970589276524
 20
1380.494269174467
 30
0.0
 11
2750.970589276525
 21
1380.494269174465
 31
0.0
  0
LINE
  5
18D2A
330
18C7A
100
AcDbEntity
  8
細線
 48
50.0
100
AcDbLine
 10
2745.970589276525
 20
1418.494269174465
 30
0.0
 11
2745.970589276525
 21
1413.494269174465
 31
0.0
  0
LINE
  5
18D2B
330
18C7A
100
AcDbEntity
  8
細線
 48
50.0
100
AcDbLine
 10
2730.970589276525
 20
1418.494269174463
 30
0.0
 11
2745.970589276525
 21
1418.494269174465
 31
0.0
  0
LINE
  5
18D2C
330
18C7A
100
AcDbEntity
  8
細線
 48
50.0
100
AcDbLine
 10
2730.970589276524
 20
1380.494269174467
 30
0.0
 11
2730.970589276525
 21
1418.494269174463
 31
0.0
  0
LINE
  5
18D2D
330
18C7A
100
AcDbEntity
  8
細線
100
AcDbLine
 10
3398.970589276523
 20
1388.494269174465
 30
0.0
 11
3240.720589276525
 21
1388.494269174465
 31
0.0
  0
LINE
  5
18D2E
330
18C7A
100
AcDbEntity
  8
細線
 48
50.0
100
AcDbLine
 10
3408.470589276525
 20
1413.494269174467
 30
0.0
 11
3408.470589276524
 21
1388.494269174465
 31
0.0
  0
TEXT
  5
18D2F
330
18C7A
100
AcDbEntity
  8
部品1
100
AcDbText
 10
1860.154865991392
 20
46.99880823813145
 30
0.0
 40
135.0
  1
平面図
  7
STYLE2
100
AcDbText
  0
LWPOLYLINE
  5
18D30
330
18C7A
100
AcDbEntity
  8
部品1
100
AcDbPolyline
 90
        4
 70
     1
 43
0.0
 10
1770.23525616235
 20
239.8923374566548
 10
1770.23525616235
 20
0.0000159111223184
 10
2533.705922390791
 20
0.0000159111223184
 10
2533.705922390791
 20
239.8923374566548
  0
LINE
  5
18D31
330
18C7A
100
AcDbEntity
  8
部品1
100
AcDbLine
 10
1534.470589276487
 20
3154.494269174626
 30
0.0
 11
2769.470589276552
 21
3154.494269174626
 31
0.0
  0
LINE
  5
18D32
330
18C7A
100
AcDbEntity
  8
部品1
 48
50.0
100
AcDbLine
 10
1311.970589276523
 20
1420.494269174462
 30
0.0
 11
3411.970589276523
 21
1420.494269174465
 31
0.0
  0
LINE
  5
18D33
330
18C7A
100
AcDbEntity
  8
部品1
 48
50.0
100
AcDbLine
 10
471.9705892765232
 20
1392.494269174465
 30
0.0
 11
1311.970589276523
 21
1392.494269174465
 31
0.0
  0
DIMENSION
  5
18D34
330
18C7A
100
AcDbEntity
  8
寸法
100
AcDbDimension
  2
*D14
 10
2710.234916278077
 20
2488.887829538828
 30
0.0
 11
2338.318822490183
 21
2488.887829538828
 31
0.0
 12
-3742.925985830444
 22
-6453.628869860112
 32
0.0
 70
   128
 71
     5
 42
1231.00000000007
  3
INABA_S40G
100
AcDbAlignedDimension
 13
1536.470589276486
 23
2702.494269174557
 33
0.0
 14
2767.470589276556
 24
2702.494269174549
 34
0.0
100
AcDbRotatedDimension
1001
ACAD
1000
DSTYLE
1002
{
1002
}
  0
LINE
  5
18D35
330
18C7A
100
AcDbEntity
  8
部品1
100
AcDbLine
 10
1536.470589276487
 20
2702.494269174557
 30
0.0
 11
2767.470589276554
 21
2702.494269174615
 31
0.0
  0
LINE
  5
18D36
330
18C7A
100
AcDbEntity
  8
部品1
100
AcDbLine
 10
1536.470589276487
 20
3152.494269174557
 30
0.0
 11
2767.470589276556
 21
3152.494269174615
 31
0.0
  0
LINE
  5
18D37
330
18C7A
100
AcDbEntity
  8
細線
 48
50.0
100
AcDbLine
 10
1508.470589276487
 20
3152.494269174558
 30
0.0
 11
445.4705892765559
 21
2702.494269174509
 31
0.0
  0
LINE
  5
18D38
330
18C7A
100
AcDbEntity
  8
細線
 48
50.0
100
AcDbLine
 10
1508.470589276487
 20
2702.494269174558
 30
0.0
 11
445.4705892765542
 21
3152.494269174509
 31
0.0
  0
LINE
  5
18D39
330
18C7A
100
AcDbEntity
  8
部品1
100
AcDbLine
 10
1556.970589276487
 20
3172.494269174611
 30
0.0
 11
1556.970589276487
 21
3154.494269174611
 31
0.0
  0
LINE
  5
18D3A
330
18C7A
100
AcDbEntity
  8
部品1
100
AcDbLine
 10
1556.970589276487
 20
3172.494269174611
 30
0.0
 11
1550.970589276487
 21
3172.494269174611
 31
0.0
  0
LINE
  5
18D3B
330
18C7A
100
AcDbEntity
  8
部品1
100
AcDbLine
 10
1534.470589276487
 20
3146.494269174608
 30
0.0
 11
1509.470589276487
 21
3146.494269174611
 31
0.0
  0
LINE
  5
18D3C
330
18C7A
100
AcDbEntity
  8
部品1
100
AcDbLine
 10
1486.970589276487
 20
3172.494269174611
 30
0.0
 11
1486.970589276487
 21
3154.494269174611
 31
0.0
  0
LINE
  5
18D3D
330
18C7A
100
AcDbEntity
  8
部品1
100
AcDbLine
 10
1492.970589276487
 20
3172.494269174611
 30
0.0
 11
1486.970589276487
 21
3172.494269174611
 31
0.0
  0
LINE
  5
18D3E
330
18C7A
100
AcDbEntity
  8
部品1
100
AcDbLine
 10
1534.470589276487
 20
2702.494269174615
 30
0.0
 11
1509.470589276487
 21
2702.494269174615
 31
0.0
  0
LINE
  5
18D3F
330
18C7A
100
AcDbEntity
  8
部品1
 48
50.0
100
AcDbLine
 10
1536.470589276487
 20
3152.494269174611
 30
0.0
 11
1536.470589276487
 21
2702.494269174615
 31
0.0
  0
LINE
  5
18D40
330
18C7A
100
AcDbEntity
  8
部品1
 48
50.0
100
AcDbLine
 10
1508.470589276487
 20
3152.494269174607
 30
0.0
 11
1508.470589276487
 21
2702.494269174615
 31
0.0
  0
LINE
  5
18D41
330
18C7A
100
AcDbEntity
  8
部品1
 48
50.0
100
AcDbLine
 10
1534.470589276487
 20
3154.494269174618
 30
0.0
 11
1534.470589276487
 21
2702.494269174615
 31
0.0
  0
LINE
  5
18D42
330
18C7A
100
AcDbEntity
  8
部品1
 48
50.0
100
AcDbLine
 10
1509.470589276487
 20
3154.494269174615
 30
0.0
 11
1509.470589276487
 21
2702.494269174615
 31
0.0
  0
LINE
  5
18D43
330
18C7A
100
AcDbEntity
  8
部品1
100
AcDbLine
 10
3411.970589276556
 20
1392.494269174582
 30
0.0
 11
3411.970589276556
 21
1420.494269174596
 31
0.0
  0
LINE
  5
18D44
330
18C7A
100
AcDbEntity
  8
部品1
100
AcDbLine
 10
1311.970589276523
 20
1392.494269174596
 30
0.0
 11
1311.970589276523
 21
1420.494269174596
 31
0.0
  0
LINE
  5
18D45
330
18C7A
100
AcDbEntity
  8
部品1
100
AcDbLine
 10
891.9705892765232
 20
1392.494269174596
 30
0.0
 11
891.9705892765232
 21
1420.494269174596
 31
0.0
  0
LINE
  5
18D46
330
18C7A
100
AcDbEntity
  8
部品1
100
AcDbLine
 10
3411.97058927652
 20
3182.494269174477
 30
0.0
 11
3411.970589276523
 21
3154.494269174477
 31
0.0
  0
LINE
  5
18D47
330
18C7A
100
AcDbEntity
  8
部品1
100
AcDbLine
 10
2571.97058927652
 20
3182.494269174477
 30
0.0
 11
2571.970589276523
 21
3154.494269174477
 31
0.0
  0
LINE
  5
18D48
330
18C7A
100
AcDbEntity
  8
部品1
100
AcDbLine
 10
2991.97058927652
 20
3182.494269174477
 30
0.0
 11
2991.970589276523
 21
3154.494269174477
 31
0.0
  0
LINE
  5
18D49
330
18C7A
100
AcDbEntity
  8
部品1
100
AcDbLine
 10
2151.970589276519
 20
3182.494269174477
 30
0.0
 11
2151.970589276523
 21
3154.494269174477
 31
0.0
  0
LINE
  5
18D4A
330
18C7A
100
AcDbEntity
  8
部品1
100
AcDbLine
 10
1731.970589276519
 20
3182.494269174477
 30
0.0
 11
1731.970589276523
 21
3154.494269174477
 31
0.0
  0
LINE
  5
18D4B
330
18C7A
100
AcDbEntity
  8
部品1
100
AcDbLine
 10
1311.970589276519
 20
3182.494269174477
 30
0.0
 11
1311.970589276523
 21
3154.494269174477
 31
0.0
  0
LINE
  5
18D4C
330
18C7A
100
AcDbEntity
  8
部品1
100
AcDbLine
 10
891.9705892765195
 20
3182.494269174477
 30
0.0
 11
891.9705892765232
 21
3154.494269174477
 31
0.0
  0
LINE
  5
18D4D
330
18C7A
100
AcDbEntity
  8
部品1
100
AcDbLine
 10
471.9705892765232
 20
1392.494269174596
 30
0.0
 11
471.9705892765232
 21
1420.494269174596
 31
0.0
  0
LINE
  5
18D4E
330
18C7A
100
AcDbEntity
  8
部品1
100
AcDbLine
 10
444.9705892765305
 20
1420.494269174558
 30
0.0
 11
3858.970589276556
 21
1420.494269174596
 31
0.0
  0
LINE
  5
18D4F
330
18C7A
100
AcDbEntity
  8
部品1
100
AcDbLine
 10
3831.970589276556
 20
1392.494269174596
 30
0.0
 11
3831.970589276556
 21
1420.494269174596
 31
0.0
  0
LINE
  5
18D50
330
18C7A
100
AcDbEntity
  8
部品1
100
AcDbLine
 10
3858.970589276556
 20
1447.494269174593
 30
0.0
 11
3886.970589276556
 21
1447.494269174593
 31
0.0
  0
LINE
  5
18D51
330
18C7A
100
AcDbEntity
  8
部品1
100
AcDbLine
 10
3858.970589276556
 20
1867.494269174607
 30
0.0
 11
3886.970589276556
 21
1867.494269174607
 31
0.0
  0
LINE
  5
18D52
330
18C7A
100
AcDbEntity
  8
部品1
100
AcDbLine
 10
444.9705892765305
 20
1867.49426917448
 30
0.0
 11
416.9705892765305
 21
1867.49426917448
 31
0.0
  0
LINE
  5
18D53
330
18C7A
100
AcDbEntity
  8
部品1
100
AcDbLine
 10
3830.470589276541
 20
1867.49426917458
 30
0.0
 11
473.4705892765396
 21
1867.49426917448
 31
0.0
  0
LINE
  5
18D54
330
18C7A
100
AcDbEntity
  8
部品1
100
AcDbLine
 10
3830.470589276541
 20
2287.49426917458
 30
0.0
 11
473.4705892765396
 21
2287.49426917448
 31
0.0
  0
LINE
  5
18D55
330
18C7A
100
AcDbEntity
  8
部品1
100
AcDbLine
 10
444.9705892765305
 20
2287.49426917448
 30
0.0
 11
416.9705892765305
 21
2287.49426917448
 31
0.0
  0
LINE
  5
18D56
330
18C7A
100
AcDbEntity
  8
部品1
100
AcDbLine
 10
3858.970589276556
 20
2287.494269174608
 30
0.0
 11
3886.970589276556
 21
2287.494269174608
 31
0.0
  0
LINE
  5
18D57
330
18C7A
100
AcDbEntity
  8
部品1
 48
50.0
100
AcDbLine
 10
2151.970589276551
 20
2702.494269174586
 30
0.0
 11
2151.970589276581
 21
1448.994269174494
 31
0.0
  0
LINE
  5
18D58
330
18C7A
100
AcDbEntity
  8
破線
 48
10.0
100
AcDbLine
 10
2959.470589276535
 20
1472.494269174522
 30
0.0
 11
2176.970589276532
 21
1472.494269174505
 31
0.0
  0
LINE
  5
18D59
330
18C7A
100
AcDbEntity
  8
破線
 48
10.0
100
AcDbLine
 10
3009.47058927653
 20
1448.994269174509
 30
0.0
 11
3009.47058927653
 21
2702.494269174615
 31
0.0
  0
LINE
  5
18D5A
330
18C7A
100
AcDbEntity
  8
破線
 48
10.0
100
AcDbLine
 10
2959.470589276535
 20
1448.994269174505
 30
0.0
 11
2959.470589276531
 21
2702.494269174615
 31
0.0
  0
LINE
  5
18D5B
330
18C7A
100
AcDbEntity
  8
破線
 48
10.0
100
AcDbLine
 10
1344.47058927653
 20
1448.994269174509
 30
0.0
 11
1344.47058927653
 21
2702.494269174615
 31
0.0
  0
LINE
  5
18D5C
330
18C7A
100
AcDbEntity
  8
破線
 48
10.0
100
AcDbLine
 10
1294.470589276534
 20
1448.994269174505
 30
0.0
 11
1294.47058927653
 21
2702.494269174615
 31
0.0
  0
DIMENSION
  5
18D5D
330
18C7A
100
AcDbEntity
  8
寸法
100
AcDbDimension
  2
*D13
 10
1451.234916278005
 20
2488.887829538828
 30
0.0
 11
916.0604668248634
 21
2488.887829538828
 31
0.0
 12
-3742.925985830444
 22
-6453.628869860112
 32
0.0
 70
   128
 71
     5
 42
1062.99999999993
  3
INABA_S40G
100
AcDbAlignedDimension
 13
445.4705892765559
 23
2702.494269174505
 33
0.0
 14
1508.470589276486
 24
2702.494269174558
 34
0.0
100
AcDbRotatedDimension
1001
ACAD
1000
DSTYLE
1002
{
1002
}
  0
LINE
  5
18D5E
330
18C7A
100
AcDbEntity
  8
破線
 48
10.0
100
AcDbLine
 10
1294.470589276534
 20
1472.494269174469
 30
0.0
 11
496.9705892765414
 21
1472.494269174476
 31
0.0
  0
LINE
  5
18D5F
330
18C7A
100
AcDbEntity
  8
部品1
100
AcDbLine
 10
3831.970589276556
 20
3182.494269174604
 30
0.0
 11
3831.970589276556
 21
3154.494269174604
 31
0.0
  0
LINE
  5
18D60
330
18C7A
100
AcDbEntity
  8
部品1
100
AcDbLine
 10
3831.970589276556
 20
3182.494269174626
 30
0.0
 11
3831.970589276556
 21
3154.494269174626
 31
0.0
  0
LINE
  5
18D61
330
18C7A
100
AcDbEntity
  8
部品1
100
AcDbLine
 10
3858.970589276556
 20
3127.494269174607
 30
0.0
 11
3886.970589276556
 21
3127.494269174607
 31
0.0
  0
LINE
  5
18D62
330
18C7A
100
AcDbEntity
  8
部品1
100
AcDbLine
 10
3858.970589276556
 20
2707.494269174608
 30
0.0
 11
3886.970589276556
 21
2707.494269174608
 31
0.0
  0
LINE
  5
18D63
330
18C7A
100
AcDbEntity
  8
部品1
100
AcDbLine
 10
3858.470589276556
 20
3152.494269174604
 30
0.0
 11
3858.470589276556
 21
2702.494269174608
 31
0.0
  0
LINE
  5
18D64
330
18C7A
100
AcDbEntity
  8
部品1
100
AcDbLine
 10
3886.970589276533
 20
1447.494269174593
 30
0.0
 11
3886.970589276531
 21
1392.494269174596
 31
0.0
  0
LINE
  5
18D65
330
18C7A
100
AcDbEntity
  8
部品1
 48
50.0
100
AcDbLine
 10
3830.470589276556
 20
1448.994269174596
 30
0.0
 11
3858.970589276554
 21
1420.494269174596
 31
0.0
  0
LINE
  5
18D66
330
18C7A
100
AcDbEntity
  8
部品1
100
AcDbLine
 10
3886.970589276531
 20
1392.494269174596
 30
0.0
 11
3835.970589276531
 21
1392.494269174596
 31
0.0
  0
LINE
  5
18D67
330
18C7A
100
AcDbEntity
  8
部品1
100
AcDbLine
 10
3858.970589276533
 20
1447.494269174593
 30
0.0
 11
3886.970589276531
 21
1447.494269174593
 31
0.0
  0
LINE
  5
18D68
330
18C7A
100
AcDbEntity
  8
部品1
100
AcDbLine
 10
3886.970589276556
 20
3182.494269174604
 30
0.0
 11
3886.970589276531
 21
1392.494269174596
 31
0.0
  0
DIMENSION
  5
18D69
330
18C7A
100
AcDbEntity
  8
寸法
100
AcDbDimension
  2
*D12
 10
4534.396935010967
 20
1447.494269174593
 30
0.0
 11
4534.396935010965
 21
2287.4942691746
 31
0.0
 12
-3742.925985830444
 22
-6453.628869860112
 32
0.0
 70
   128
  1
4X420=<>
 71
     5
 42
1680.000000000014
  3
INABA_S40G
100
AcDbAlignedDimension
 13
3886.970589276556
 23
3127.494269174607
 33
0.0
 14
3886.970589276531
 24
1447.494269174593
 34
0.0
 50
90.0
100
AcDbRotatedDimension
1001
ACAD
1000
DSTYLE
1002
{
1002
}
  0
LINE
  5
18D6A
330
18C7A
100
AcDbEntity
  8
部品1
100
AcDbLine
 10
3858.970589276556
 20
3154.494269174604
 30
0.0
 11
3858.970589276534
 21
1420.494269174596
 31
0.0
  0
DIMENSION
  5
18D6B
330
18C7A
100
AcDbEntity
  8
寸法
100
AcDbDimension
  2
*D11
 10
4213.82831513858
 20
2607.276453505718
 30
0.0
 11
4113.828315138579
 21
2832.276453505718
 31
0.0
 12
-3742.925985830444
 22
-6453.628869860112
 32
0.0
 71
     5
 42
449.9999999999963
  3
INABA_S40G
100
AcDbAlignedDimension
 13
3858.470589276556
 23
3152.494269174604
 33
0.0
 14
3858.470589276556
 24
2702.494269174608
 34
0.0
 50
90.0
100
AcDbRotatedDimension
1001
ACAD
1000
DSTYLE
1002
{
1002
}
  0
LINE
  5
18D6C
330
18C7A
100
AcDbEntity
  8
部品1
100
AcDbLine
 10
3830.470589276547
 20
2702.494269174608
 30
0.0
 11
3830.470589276556
 21
1448.994269174596
 31
0.0
  0
LINE
  5
18D6D
330
18C7A
100
AcDbEntity
  8
破線
 48
10.0
100
AcDbLine
 10
3806.970589276549
 20
2702.494269174608
 30
0.0
 11
3806.970589276558
 21
1472.494269174593
 31
0.0
  0
LINE
  5
18D6E
330
18C7A
100
AcDbEntity
  8
部品1
100
AcDbLine
 10
2769.470589276556
 20
3146.494269174608
 30
0.0
 11
2794.470589276556
 21
3146.494269174611
 31
0.0
  0
LINE
  5
18D6F
330
18C7A
100
AcDbEntity
  8
部品1
100
AcDbLine
 10
2810.970589276556
 20
3172.494269174611
 30
0.0
 11
2816.970589276556
 21
3172.494269174611
 31
0.0
  0
LINE
  5
18D70
330
18C7A
100
AcDbEntity
  8
部品1
100
AcDbLine
 10
2816.970589276556
 20
3172.494269174611
 30
0.0
 11
2816.970589276556
 21
3154.494269174611
 31
0.0
  0
LINE
  5
18D71
330
18C7A
100
AcDbEntity
  8
部品1
100
AcDbLine
 10
2746.970589276556
 20
3172.494269174611
 30
0.0
 11
2752.970589276556
 21
3172.494269174611
 31
0.0
  0
LINE
  5
18D72
330
18C7A
100
AcDbEntity
  8
部品1
100
AcDbLine
 10
2746.970589276556
 20
3172.494269174611
 30
0.0
 11
2746.970589276556
 21
3154.494269174611
 31
0.0
  0
LINE
  5
18D73
330
18C7A
100
AcDbEntity
  8
部品1
100
AcDbLine
 10
2769.470589276556
 20
2702.494269174615
 30
0.0
 11
2794.470589276556
 21
2702.494269174615
 31
0.0
  0
LINE
  5
18D74
330
18C7A
100
AcDbEntity
  8
部品1
 48
50.0
100
AcDbLine
 10
2794.470589276556
 20
3154.494269174615
 30
0.0
 11
2794.470589276556
 21
2702.494269174615
 31
0.0
  0
LINE
  5
18D75
330
18C7A
100
AcDbEntity
  8
部品1
 48
50.0
100
AcDbLine
 10
2769.470589276554
 20
3154.494269174618
 30
0.0
 11
2769.470589276556
 21
2702.494269174615
 31
0.0
  0
LINE
  5
18D76
330
18C7A
100
AcDbEntity
  8
部品1
 48
50.0
100
AcDbLine
 10
2795.470589276556
 20
3152.494269174607
 30
0.0
 11
2795.470589276556
 21
2702.494269174615
 31
0.0
  0
LINE
  5
18D77
330
18C7A
100
AcDbEntity
  8
部品1
 48
50.0
100
AcDbLine
 10
2767.470589276556
 20
3152.494269174611
 30
0.0
 11
2767.470589276556
 21
2702.494269174615
 31
0.0
  0
LINE
  5
18D78
330
18C7A
100
AcDbEntity
  8
破線
 48
10.0
100
AcDbLine
 10
2176.97058927653
 20
1448.994269174509
 30
0.0
 11
2176.97058927653
 21
2702.494269174588
 31
0.0
  0
LINE
  5
18D79
330
18C7A
100
AcDbEntity
  8
破線
 48
10.0
100
AcDbLine
 10
2126.970589276534
 20
1448.994269174505
 30
0.0
 11
2126.970589276531
 21
2702.494269174586
 31
0.0
  0
LINE
  5
18D7A
330
18C7A
100
AcDbEntity
  8
部品1
100
AcDbLine
 10
2794.470589276556
 20
3154.494269174622
 30
0.0
 11
3858.970589276556
 21
3154.494269174604
 31
0.0
  0
LINE
  5
18D7B
330
18C7A
100
AcDbEntity
  8
細線
 48
50.0
100
AcDbLine
 10
3858.470589276556
 20
2702.494269174608
 30
0.0
 11
2795.470589276556
 21
3152.494269174607
 31
0.0
  0
LINE
  5
18D7C
330
18C7A
100
AcDbEntity
  8
部品1
100
AcDbLine
 10
2795.470589276555
 20
2702.494269174615
 30
0.0
 11
3858.470589276556
 21
2702.494269174608
 31
0.0
  0
LINE
  5
18D7D
330
18C7A
100
AcDbEntity
  8
部品1
100
AcDbLine
 10
2795.470589276556
 20
3152.494269174611
 30
0.0
 11
3858.470589276556
 21
3152.494269174604
 31
0.0
  0
LINE
  5
18D7E
330
18C7A
100
AcDbEntity
  8
細線
 48
50.0
100
AcDbLine
 10
3858.470589276556
 20
3152.494269174604
 30
0.0
 11
2795.470589276555
 21
2702.494269174615
 31
0.0
  0
DIMENSION
  5
18D7F
330
18C7A
100
AcDbEntity
  8
寸法
100
AcDbDimension
  2
*D10
 10
3801.234916278101
 20
2488.887829538937
 30
0.0
 11
3318.360544398907
 21
2488.887829538937
 31
0.0
 12
-3742.925985830444
 22
-6453.628869860112
 32
0.0
 70
   128
 71
     5
 42
1063.000000000012
  3
INABA_S40G
100
AcDbAlignedDimension
 13
2795.470589276555
 23
2702.494269174615
 33
0.0
 14
3858.470589276567
 24
2702.494269174608
 34
0.0
100
AcDbRotatedDimension
1001
ACAD
1000
DSTYLE
1002
{
1002
}
  0
LINE
  5
18D80
330
18C7A
100
AcDbEntity
  8
破線
 48
10.0
100
AcDbLine
 10
3806.970589276556
 20
1472.494269174594
 30
0.0
 11
3009.47058927653
 21
1472.494269174523
 31
0.0
  0
DIMENSION
  5
18D81
330
18C7A
100
AcDbEntity
  8
寸法
100
AcDbDimension
  2
*D9
 10
4534.396935010941
 20
1392.494269174596
 30
0.0
 11
4534.39693501094
 21
1084.008987800356
 31
0.0
 12
-3742.925985830444
 22
-6453.628869860112
 32
0.0
 70
   128
 71
     5
 42
54.99999999999636
  3
INABA_S40G
100
AcDbAlignedDimension
 13
3886.970589276531
 23
1447.494269174593
 33
0.0
 14
3886.970589276531
 24
1392.494269174596
 34
0.0
 50
90.0
100
AcDbRotatedDimension
1001
ACAD
1000
DSTYLE
1002
{
1002
}
  0
LINE
  5
18D82
330
18C7A
100
AcDbEntity
  8
部品1
100
AcDbLine
 10
471.9705892765196
 20
3182.494269174477
 30
0.0
 11
471.9705892765232
 21
3154.494269174477
 31
0.0
  0
LINE
  5
18D83
330
18C7A
100
AcDbEntity
  8
部品1
100
AcDbLine
 10
471.9705892765559
 20
3182.494269174509
 30
0.0
 11
471.9705892765559
 21
3154.494269174509
 31
0.0
  0
LINE
  5
18D84
330
18C7A
100
AcDbEntity
  8
部品1
100
AcDbLine
 10
444.9705892765232
 20
3127.49426917448
 30
0.0
 11
416.9705892765232
 21
3127.49426917448
 31
0.0
  0
LINE
  5
18D85
330
18C7A
100
AcDbEntity
  8
部品1
100
AcDbLine
 10
444.9705892765305
 20
2707.49426917448
 30
0.0
 11
416.9705892765305
 21
2707.49426917448
 31
0.0
  0
LINE
  5
18D86
330
18C7A
100
AcDbEntity
  8
部品1
 48
50.0
100
AcDbLine
 10
445.4705892765542
 20
3152.494269174506
 30
0.0
 11
445.4705892765559
 21
2702.494269174505
 31
0.0
  0
LINE
  5
18D87
330
18C7A
100
AcDbEntity
  8
部品1
 48
50.0
100
AcDbLine
 10
473.470589276545
 20
1448.994269174573
 30
0.0
 11
444.970589276545
 21
1420.494269174574
 31
0.0
  0
LINE
  5
18D88
330
18C7A
100
AcDbEntity
  8
部品1
100
AcDbLine
 10
471.9705892765232
 20
1392.494269174465
 30
0.0
 11
416.9705892765486
 21
1392.494269174465
 31
0.0
  0
LINE
  5
18D89
330
18C7A
100
AcDbEntity
  8
部品1
100
AcDbLine
 10
444.9705892765305
 20
1447.494269174429
 30
0.0
 11
416.9705892765469
 21
1447.494269174429
 31
0.0
  0
LINE
  5
18D8A
330
18C7A
100
AcDbEntity
  8
部品1
100
AcDbLine
 10
444.9705892765305
 20
1447.494269174465
 30
0.0
 11
416.9705892765469
 21
1447.494269174465
 31
0.0
  0
LINE
  5
18D8B
330
18C7A
100
AcDbEntity
  8
部品1
100
AcDbLine
 10
444.9705892765469
 20
1447.49426917448
 30
0.0
 11
416.9705892765469
 21
1447.49426917448
 31
0.0
  0
LINE
  5
18D8C
330
18C7A
100
AcDbEntity
  8
部品1
100
AcDbLine
 10
416.9705892765469
 20
1447.494269174429
 30
0.0
 11
416.9705892765486
 21
1392.494269174433
 31
0.0
  0
LINE
  5
18D8D
330
18C7A
100
AcDbEntity
  8
部品1
100
AcDbLine
 10
416.9705892765196
 20
3182.494269174477
 30
0.0
 11
416.9705892765486
 21
1392.494269174465
 31
0.0
  0
LINE
  5
18D8E
330
18C7A
100
AcDbEntity
  8
部品1
100
AcDbLine
 10
444.9705892765305
 20
1420.494269174556
 30
0.0
 11
444.9705892765559
 21
3154.494269174509
 31
0.0
  0
LINE
  5
18D8F
330
18C7A
100
AcDbEntity
  8
部品1
100
AcDbLine
 10
473.4705892765323
 20
2702.494269174608
 30
0.0
 11
473.470589276545
 21
1448.994269174571
 31
0.0
  0
LINE
  5
18D90
330
18C7A
100
AcDbEntity
  8
破線
 48
10.0
100
AcDbLine
 10
496.9705892765305
 20
2702.494269174608
 30
0.0
 11
496.9705892765451
 21
1472.494269174476
 31
0.0
  0
DIMENSION
  5
18D91
330
18C7A
100
AcDbEntity
  8
寸法
100
AcDbDimension
  2
*D8
 10
3886.970589276531
 20
410.7433333855515
 30
0.0
 11
2168.197775309287
 21
410.7433333855515
 31
0.0
 12
-3742.925985830444
 22
-6453.628869860112
 32
0.0
 70
   128
 71
     5
 42
3469.999999999982
  3
INABA_S40G
100
AcDbAlignedDimension
 13
416.9705892765486
 23
1392.494269174433
 33
0.0
 14
3886.970589276531
 24
1392.49426917456
 34
0.0
100
AcDbRotatedDimension
1001
ACAD
1000
DSTYLE
1002
{
1070
   341
1005
0
1002
}
  0
LINE
  5
18D92
330
18C7A
100
AcDbEntity
  8
部品1
100
AcDbLine
 10
444.9705892765559
 20
3154.494269174624
 30
0.0
 11
1509.470589276487
 21
3154.494269174626
 31
0.0
  0
LINE
  5
18D93
330
18C7A
100
AcDbEntity
  8
部品1
100
AcDbLine
 10
3886.970589276531
 20
1392.494269174596
 30
0.0
 11
3411.970589276556
 21
1392.494269174582
 31
0.0
  0
LINE
  5
18D94
330
18C7A
100
AcDbEntity
  8
部品1
100
AcDbLine
 10
416.9705892765559
 20
3182.494269174509
 30
0.0
 11
3886.970589276556
 21
3182.494269174604
 31
0.0
  0
LINE
  5
18D95
330
18C7A
100
AcDbEntity
  8
部品1
100
AcDbLine
 10
445.4705892765559
 20
2702.494269174509
 30
0.0
 11
1508.470589276487
 21
2702.494269174558
 31
0.0
  0
LINE
  5
18D96
330
18C7A
100
AcDbEntity
  8
細線
 48
50.0
100
AcDbLine
 10
2767.470589276556
 20
3152.494269174611
 30
0.0
 11
1536.470589276487
 21
2702.494269174558
 31
0.0
  0
LINE
  5
18D97
330
18C7A
100
AcDbEntity
  8
部品1
100
AcDbLine
 10
445.4705892765542
 20
3152.494269174509
 30
0.0
 11
1508.470589276485
 21
3152.494269174558
 31
0.0
  0
LINE
  5
18D98
330
18C7A
100
AcDbEntity
  8
細線
 48
50.0
100
AcDbLine
 10
2767.470589276554
 20
2702.494269174615
 30
0.0
 11
1536.470589276485
 21
3152.494269174558
 31
0.0
  0
LINE
  5
18D99
330
18C7A
100
AcDbEntity
  8
破線
 48
10.0
100
AcDbLine
 10
2126.970589276534
 20
1472.494269174502
 30
0.0
 11
1344.47058927653
 21
1472.494269174473
 31
0.0
  0
LINE
  5
18D9A
330
18C7A
100
AcDbEntity
  8
部品1
100
AcDbLine
 10
3830.470589276556
 20
1448.994269174596
 30
0.0
 11
473.4705892764487
 21
1448.994269174476
 31
0.0
  0
DIMENSION
  5
18D9B
330
18C7A
100
AcDbEntity
  8
寸法
100
AcDbDimension
  2
*D7
 10
471.970589276555
 20
3698.302488799491
 30
0.0
 11
108.4853079022819
 21
3698.302488799491
 31
0.0
 12
-3742.925985830444
 22
-6453.628869860112
 32
0.0
 70
   128
 71
     5
 42
55.00000000003456
  3
INABA_S40G
100
AcDbAlignedDimension
 13
416.9705892765205
 23
3182.494269174509
 33
0.0
 14
471.970589276555
 24
3182.494269174509
 34
0.0
100
AcDbRotatedDimension
1001
ACAD
1000
DSTYLE
1002
{
1002
}
  0
DIMENSION
  5
18D9C
330
18C7A
100
AcDbEntity
  8
寸法
100
AcDbDimension
  2
*D6
 10
4534.396935010967
 20
3127.494269174607
 30
0.0
 11
4534.396935010965
 21
3490.979550548844
 31
0.0
 12
-3742.925985830444
 22
-6453.628869860112
 32
0.0
 70
   128
 71
     5
 42
54.99999999999636
  3
INABA_S40G
100
AcDbAlignedDimension
 13
3886.970589276556
 23
3182.494269174604
 33
0.0
 14
3886.970589276556
 24
3127.494269174607
 34
0.0
 50
90.0
100
AcDbRotatedDimension
1001
ACAD
1000
DSTYLE
1002
{
1002
}
  0
DIMENSION
  5
18D9D
330
18C7A
100
AcDbEntity
  8
寸法
100
AcDbDimension
  2
*D5
 10
3886.970589276556
 20
3698.302488799589
 30
0.0
 11
4195.455870650794
 21
3698.302488799589
 31
0.0
 12
-3742.925985830444
 22
-6453.628869860112
 32
0.0
 70
   128
 71
     5
 42
55.0
  3
INABA_S40G
100
AcDbAlignedDimension
 13
3831.970589276556
 23
3182.494269174604
 33
0.0
 14
3886.970589276556
 24
3182.494269174604
 34
0.0
100
AcDbRotatedDimension
1001
ACAD
1000
DSTYLE
1002
{
1002
}
  0
DIMENSION
  5
18D9E
330
18C7A
100
AcDbEntity
  8
寸法
100
AcDbDimension
  2
*D4
 10
3831.970589276556
 20
3698.302488799607
 30
0.0
 11
2151.970589276555
 21
3698.302488799607
 31
0.0
 12
-3742.925985830444
 22
-6453.628869860112
 32
0.0
 70
   128
  1
8X420=<>
 71
     5
 42
3360.000000000001
  3
INABA_S40G
100
AcDbAlignedDimension
 13
471.970589276555
 23
3182.494269174509
 33
0.0
 14
3831.970589276556
 24
3182.494269174604
 34
0.0
100
AcDbRotatedDimension
1001
ACAD
1000
DSTYLE
1002
{
1002
}
  0
DIMENSION
  5
18D9F
330
18C7A
100
AcDbEntity
  8
寸法
100
AcDbDimension
  2
*D3
 10
4899.503876750603
 20
1392.494269174596
 30
0.0
 11
4899.503876750601
 21
2287.4942691746
 31
0.0
 12
-3742.925985830444
 22
-6453.628869860112
 32
0.0
 70
   128
 71
     5
 42
1790.000000000007
  3
INABA_S40G
100
AcDbAlignedDimension
 13
3886.970589276556
 23
3182.494269174604
 33
0.0
 14
3886.970589276531
 24
1392.494269174596
 34
0.0
 50
90.0
100
AcDbRotatedDimension
1001
ACAD
1000
DSTYLE
1002
{
1002
}
  0
ENDBLK
  5
18DA1
330
18C7A
100
AcDbEntity
  8
0
 48
50.0
100
AcDbBlockEnd
  0
BLOCK
  5
1C4CB
330
1C4CA
100
AcDbEntity
  8
0
 48
50.0
100
AcDbBlockBegin
  2
_NONE
 70
     0
 10
0.0
 20
0.0
 30
0.0
  3
_NONE
  1

  0
CIRCLE
  5
1C4CC
330
1C4CA
100
AcDbEntity
  8
0
  6
ByBlock
 62
     0
 48
50.0
100
AcDbCircle
 10
0.0
 20
0.0
 30
0.0
 40
0.25
  0
ENDBLK
  5
1C4CD
330
1C4CA
100
AcDbEntity
  8
0
 48
50.0
100
AcDbBlockEnd
  0
BLOCK
  5
1FC87
330
1FC7E
100
AcDbEntity
  8
0
 48
50.0
100
AcDbBlockBegin
  2
*D19
 70
     1
 10
0.0
 20
0.0
 30
0.0
  3
*D19
  1

  0
LINE
  5
21FB0
330
1FC7E
100
AcDbEntity
  8
寸法
 62
     0
 48
50.0
370
    -2
100
AcDbLine
 10
9475.6
 20
8018.666700827392
 30
0.0
 11
9475.6
 21
8814.275517497637
 31
0.0
  0
LINE
  5
21FB1
330
1FC7E
100
AcDbEntity
  8
寸法
 62
     0
 48
50.0
370
    -2
100
AcDbLine
 10
8105.6
 20
8018.666700827392
 30
0.0
 11
8105.6
 21
8814.275517497637
 31
0.0
  0
LINE
  5
21FB2
330
1FC7E
100
AcDbEntity
  8
寸法
 62
     0
 48
50.0
370
    -2
100
AcDbLine
 10
9475.6
 20
8754.275517497637
 30
0.0
 11
8105.6
 21
8754.275517497637
 31
0.0
  0
INSERT
  5
21FB3
330
1FC7E
100
AcDbEntity
  8
寸法
 62
     0
 48
50.0
370
    -2
100
AcDbBlockReference
  2
_DOTSMALL
 10
9475.6
 20
8754.275517497637
 30
0.0
 41
100.0
 42
100.0
 43
100.0
  0
INSERT
  5
21FB4
330
1FC7E
100
AcDbEntity
  8
寸法
 62
     0
 48
50.0
370
    -2
100
AcDbBlockReference
  2
_DOTSMALL
 10
8105.6
 20
8754.275517497637
 30
0.0
 41
100.0
 42
100.0
 43
100.0
 50
180.0
  0
MTEXT
  5
21FB5
330
1FC7E
100
AcDbEntity
  8
寸法
 62
     7
 48
50.0
100
AcDbMText
 10
8790.600000000001
 20
8854.275517497638
 30
0.0
 40
120.0
 41
0.0
 71
     5
 72
     1
  1
\A1;1370
  7
STYLE1
 73
     1
 44
1.0
1001
ACAD
1000
MTEXTBEGIN
1070
    73
1070
     1
1070
    44
1040
1.0
1070
    74
1070
     0
1000
MTEXTEND
  0
POINT
  5
21FB6
330
1FC7E
100
AcDbEntity
  8
DEFPOINTS
 62
     0
 48
50.0
100
AcDbPoint
 10
9475.6
 20
7998.666700827391
 30
0.0
  0
POINT
  5
21FB7
330
1FC7E
100
AcDbEntity
  8
DEFPOINTS
 62
     0
 48
50.0
100
AcDbPoint
 10
8105.6
 20
7998.666700827391
 30
0.0
  0
POINT
  5
21FB8
330
1FC7E
100
AcDbEntity
  8
DEFPOINTS
 62
     0
 48
50.0
100
AcDbPoint
 10
8105.6
 20
8754.275517497637
 30
0.0
  0
ENDBLK
  5
1FC88
330
1FC7E
100
AcDbEntity
  8
0
 48
50.0
100
AcDbBlockEnd
  0
BLOCK
  5
1FC92
330
1FC89
100
AcDbEntity
  8
0
 48
50.0
100
AcDbBlockBegin
  2
*D20
 70
     1
 10
0.0
 20
0.0
 30
0.0
  3
*D20
  1

  0
LINE
  5
21FA7
330
1FC89
100
AcDbEntity
  8
寸法
 62
     0
 48
50.0
370
    -2
100
AcDbLine
 10
5478.6
 20
8091.666700827392
 30
0.0
 11
5478.6
 21
9289.887022886313
 31
0.0
  0
LINE
  5
21FA8
330
1FC89
100
AcDbEntity
  8
寸法
 62
     0
 48
50.0
370
    -2
100
AcDbLine
 10
10968.6
 20
8091.666700827392
 30
0.0
 11
10968.6
 21
9289.887022886313
 31
0.0
  0
LINE
  5
21FA9
330
1FC89
100
AcDbEntity
  8
寸法
 62
     0
 48
50.0
370
    -2
100
AcDbLine
 10
5478.6
 20
9229.887022886313
 30
0.0
 11
10968.6
 21
9229.887022886313
 31
0.0
  0
INSERT
  5
21FAA
330
1FC89
100
AcDbEntity
  8
寸法
 62
     0
 48
50.0
370
    -2
100
AcDbBlockReference
  2
_DOTSMALL
 10
5478.6
 20
9229.887022886313
 30
0.0
 41
100.0
 42
100.0
 43
100.0
 50
180.0
  0
INSERT
  5
21FAB
330
1FC89
100
AcDbEntity
  8
寸法
 62
     0
 48
50.0
370
    -2
100
AcDbBlockReference
  2
_DOTSMALL
 10
10968.6
 20
9229.887022886313
 30
0.0
 41
100.0
 42
100.0
 43
100.0
  0
MTEXT
  5
21FAC
330
1FC89
100
AcDbEntity
  8
寸法
 62
     7
 48
50.0
100
AcDbMText
 10
8223.600000000001
 20
9335.887022886312
 30
0.0
 40
120.0
 41
0.0
 71
     5
 72
     1
  1
\A1;N(連続数)x1370+10
  7
STYLE1
 73
     1
 44
1.0
1001
ACAD
1000
MTEXTBEGIN
1070
    73
1070
     1
1070
    44
1040
1.0
1070
    74
1070
     0
1000
MTEXTEND
  0
POINT
  5
21FAD
330
1FC89
100
AcDbEntity
  8
DEFPOINTS
 62
     0
 48
50.0
100
AcDbPoint
 10
5478.6
 20
8071.666700827391
 30
0.0
  0
POINT
  5
21FAE
330
1FC89
100
AcDbEntity
  8
DEFPOINTS
 62
     0
 48
50.0
100
AcDbPoint
 10
10968.6
 20
8071.666700827391
 30
0.0
  0
POINT
  5
21FAF
330
1FC89
100
AcDbEntity
  8
DEFPOINTS
 62
     0
 48
50.0
100
AcDbPoint
 10
10968.6
 20
9229.887022886313
 30
0.0
  0
ENDBLK
  5
1FC93
330
1FC89
100
AcDbEntity
  8
0
 48
50.0
100
AcDbBlockEnd
  0
BLOCK
  5
1FC9D
330
1FC94
100
AcDbEntity
  8
0
 48
50.0
100
AcDbBlockBegin
  2
*D21
 70
     1
 10
0.0
 20
0.0
 30
0.0
  3
*D21
  1

  0
LINE
  5
21F9E
330
1FC94
100
AcDbEntity
  8
寸法
 62
     0
 48
50.0
370
    -2
100
AcDbLine
 10
9593.600000000007
 20
8774.275517497638
 30
0.0
 11
9593.600000000007
 21
9057.933158921299
 31
0.0
  0
LINE
  5
21F9F
330
1FC94
100
AcDbEntity
  8
寸法
 62
     0
 48
50.0
370
    -2
100
AcDbLine
 10
8223.600000000008
 20
8774.275517497638
 30
0.0
 11
8223.600000000008
 21
9057.933158921299
 31
0.0
  0
LINE
  5
21FA0
330
1FC94
100
AcDbEntity
  8
寸法
 62
     0
 48
50.0
370
    -2
100
AcDbLine
 10
9593.600000000007
 20
8997.9331589213
 30
0.0
 11
8223.600000000008
 21
8997.9331589213
 31
0.0
  0
INSERT
  5
21FA1
330
1FC94
100
AcDbEntity
  8
寸法
 62
     0
 48
50.0
370
    -2
100
AcDbBlockReference
  2
_DOTSMALL
 10
9593.600000000007
 20
8997.9331589213
 30
0.0
 41
100.0
 42
100.0
 43
100.0
  0
INSERT
  5
21FA2
330
1FC94
100
AcDbEntity
  8
寸法
 62
     0
 48
50.0
370
    -2
100
AcDbBlockReference
  2
_DOTSMALL
 10
8223.600000000008
 20
8997.9331589213
 30
0.0
 41
100.0
 42
100.0
 43
100.0
 50
180.0
  0
MTEXT
  5
21FA3
330
1FC94
100
AcDbEntity
  8
寸法
 62
     7
 48
50.0
100
AcDbMText
 10
8908.600000000008
 20
9097.9331589213
 30
0.0
 40
120.0
 41
0.0
 71
     5
 72
     1
  1
\A1;1370
  7
STYLE1
 73
     1
 44
1.0
1001
ACAD
1000
MTEXTBEGIN
1070
    73
1070
     1
1070
    44
1040
1.0
1070
    74
1070
     0
1000
MTEXTEND
  0
POINT
  5
21FA4
330
1FC94
100
AcDbEntity
  8
DEFPOINTS
 62
     0
 48
50.0
100
AcDbPoint
 10
9593.600000000007
 20
8754.275517497637
 30
0.0
  0
POINT
  5
21FA5
330
1FC94
100
AcDbEntity
  8
DEFPOINTS
 62
     0
 48
50.0
100
AcDbPoint
 10
8223.600000000008
 20
8754.275517497637
 30
0.0
  0
POINT
  5
21FA6
330
1FC94
100
AcDbEntity
  8
DEFPOINTS
 62
     0
 48
50.0
100
AcDbPoint
 10
8223.600000000008
 20
8997.9331589213
 30
0.0
  0
ENDBLK
  5
1FC9E
330
1FC94
100
AcDbEntity
  8
0
 48
50.0
100
AcDbBlockEnd
  0
BLOCK
  5
1FCAA
330
1FC9F
100
AcDbEntity
  8
0
 48
50.0
100
AcDbBlockBegin
  2
*D22
 70
     1
 10
0.0
 20
0.0
 30
0.0
  3
*D22
  1

  0
LINE
  5
2192B
330
1FC9F
100
AcDbEntity
  8
寸法
 62
     0
 48
50.0
370
    -2
100
AcDbLine
 10
5531.600000000008
 20
6049.666700827394
 30
0.0
 11
4534.087353431281
 21
6049.666700827394
 31
0.0
  0
LINE
  5
2192C
330
1FC9F
100
AcDbEntity
  8
寸法
 62
     0
 48
50.0
370
    -2
100
AcDbLine
 10
5458.6
 20
5851.666700827392
 30
0.0
 11
4534.087353431281
 21
5851.666700827392
 31
0.0
  0
LINE
  5
2192D
330
1FC9F
100
AcDbEntity
  8
寸法
 62
     0
 48
50.0
370
    -2
100
AcDbLine
 10
4594.08735343128
 20
6049.666700827394
 30
0.0
 11
4594.08735343128
 21
5851.666700827392
 31
0.0
  0
LINE
  5
2192E
330
1FC9F
100
AcDbEntity
  8
寸法
 62
     0
 48
50.0
370
    -2
100
AcDbLine
 10
4594.08735343128
 20
5851.666700827392
 30
0.0
 11
4594.08735343128
 21
5379.926092155142
 31
0.0
  0
INSERT
  5
2192F
330
1FC9F
100
AcDbEntity
  8
寸法
 62
     0
 48
50.0
370
    -2
100
AcDbBlockReference
  2
_DOTSMALL
 10
4594.08735343128
 20
6049.666700827394
 30
0.0
 41
100.0
 42
100.0
 43
100.0
 50
90.0
  0
INSERT
  5
21930
330
1FC9F
100
AcDbEntity
  8
寸法
 62
     0
 48
50.0
370
    -2
100
AcDbBlockReference
  2
_DOTSMALL
 10
4594.08735343128
 20
5851.666700827392
 30
0.0
 41
100.0
 42
100.0
 43
100.0
 50
270.0
  0
MTEXT
  5
21931
330
1FC9F
100
AcDbEntity
  8
寸法
 62
     7
 48
50.0
100
AcDbMText
 10
4494.087353431279
 20
5516.135751984799
 30
0.0
 40
120.0
 41
0.0
 71
     5
 72
     1
  1
\A1;198
  7
STYLE1
 11
0.0000000000000001
 21
1.0
 31
0.0
 73
     1
 44
1.0
1001
ACAD
1000
MTEXTBEGIN
1070
    73
1070
     1
1070
    44
1040
1.0
1070
    74
1070
     0
1000
MTEXTEND
  0
POINT
  5
21932
330
1FC9F
100
AcDbEntity
  8
DEFPOINTS
 62
     0
 48
50.0
100
AcDbPoint
 10
5551.600000000007
 20
6049.666700827394
 30
0.0
  0
POINT
  5
21933
330
1FC9F
100
AcDbEntity
  8
DEFPOINTS
 62
     0
 48
50.0
100
AcDbPoint
 10
5478.6
 20
5851.666700827392
 30
0.0
  0
POINT
  5
21934
330
1FC9F
100
AcDbEntity
  8
DEFPOINTS
 62
     0
 48
50.0
100
AcDbPoint
 10
4594.08735343128
 20
5851.666700827392
 30
0.0
  0
ENDBLK
  5
1FCAB
330
1FC9F
100
AcDbEntity
  8
0
 48
50.0
100
AcDbBlockEnd
  0
BLOCK
  5
1FD04
330
1FCFB
100
AcDbEntity
  8
0
 48
50.0
100
AcDbBlockBegin
  2
*D23
 70
     1
 10
0.0
 20
0.0
 30
0.0
  3
*D23
  1

  0
LINE
  5
220E5
330
1FCFB
100
AcDbEntity
  8
寸法
 62
     0
 48
50.0
370
    -2
100
AcDbLine
 10
5458.6
 20
8071.666700827391
 30
0.0
 11
4282.144256711885
 21
8071.666700827391
 31
0.0
  0
LINE
  5
220E6
330
1FCFB
100
AcDbEntity
  8
寸法
 62
     0
 48
50.0
370
    -2
100
AcDbLine
 10
5458.6
 20
5851.666700827392
 30
0.0
 11
4282.144256711883
 21
5851.666700827392
 31
0.0
  0
LINE
  5
220E7
330
1FCFB
100
AcDbEntity
  8
寸法
 62
     0
 48
50.0
370
    -2
100
AcDbLine
 10
4342.144256711884
 20
8071.666700827391
 30
0.0
 11
4342.144256711883
 21
5851.666700827392
 31
0.0
  0
INSERT
  5
220E8
330
1FCFB
100
AcDbEntity
  8
寸法
 62
     0
 48
50.0
370
    -2
100
AcDbBlockReference
  2
_DOTSMALL
 10
4342.144256711884
 20
8071.666700827391
 30
0.0
 41
100.0
 42
100.0
 43
100.0
 50
90.0
  0
INSERT
  5
220E9
330
1FCFB
100
AcDbEntity
  8
寸法
 62
     0
 48
50.0
370
    -2
100
AcDbBlockReference
  2
_DOTSMALL
 10
4342.144256711883
 20
5851.666700827392
 30
0.0
 41
100.0
 42
100.0
 43
100.0
 50
270.0
  0
MTEXT
  5
220EA
330
1FCFB
100
AcDbEntity
  8
寸法
 62
     7
 48
50.0
100
AcDbMText
 10
4242.132445688262
 20
6961.666700827392
 30
0.0
 40
120.0
 41
0.0
 71
     5
 72
     1
  1
\A1;2220
  7
STYLE1
 11
0.0000000000000001
 21
1.0
 31
0.0
 73
     1
 44
1.0
1001
ACAD
1000
MTEXTBEGIN
1070
    73
1070
     1
1070
    44
1040
1.0
1070
    74
1070
     0
1000
MTEXTEND
  0
POINT
  5
220EB
330
1FCFB
100
AcDbEntity
  8
DEFPOINTS
 62
     0
 48
50.0
100
AcDbPoint
 10
5478.6
 20
8071.666700827391
 30
0.0
  0
POINT
  5
220EC
330
1FCFB
100
AcDbEntity
  8
DEFPOINTS
 62
     0
 48
50.0
100
AcDbPoint
 10
5478.6
 20
5851.666700827392
 30
0.0
  0
POINT
  5
220ED
330
1FCFB
100
AcDbEntity
  8
DEFPOINTS
 62
     0
 48
50.0
100
AcDbPoint
 10
4342.144256711883
 20
5851.666700827392
 30
0.0
  0
ENDBLK
  5
1FD05
330
1FCFB
100
AcDbEntity
  8
0
 48
50.0
100
AcDbBlockEnd
  0
BLOCK
  5
1FD1B
330
1FD10
100
AcDbEntity
  8
0
 48
50.0
100
AcDbBlockBegin
  2
*D24
 70
     1
 10
0.0
 20
0.0
 30
0.0
  3
*D24
  1

  0
LINE
  5
21F8B
330
1FD10
100
AcDbEntity
  8
寸法
 62
     0
 48
50.0
370
    -2
100
AcDbLine
 10
5458.6
 20
8071.666700827391
 30
0.0
 11
4534.087353431281
 21
8071.666700827391
 31
0.0
  0
LINE
  5
21F8C
330
1FD10
100
AcDbEntity
  8
寸法
 62
     0
 48
50.0
370
    -2
100
AcDbLine
 10
5531.6
 20
7948.666700827391
 30
0.0
 11
4534.087353431281
 21
7948.666700827391
 31
0.0
  0
LINE
  5
21F8D
330
1FD10
100
AcDbEntity
  8
寸法
 62
     0
 48
50.0
370
    -2
100
AcDbLine
 10
4594.08735343128
 20
7948.666700827391
 30
0.0
 11
4594.08735343128
 21
8071.666700827391
 31
0.0
  0
LINE
  5
21F8E
330
1FD10
100
AcDbEntity
  8
寸法
 62
     0
 48
50.0
370
    -2
100
AcDbLine
 10
4594.08735343128
 20
8071.666700827391
 30
0.0
 11
4594.08735343128
 21
8483.258583919429
 31
0.0
  0
INSERT
  5
21F8F
330
1FD10
100
AcDbEntity
  8
寸法
 62
     0
 48
50.0
370
    -2
100
AcDbBlockReference
  2
_DOTSMALL
 10
4594.08735343128
 20
7948.666700827391
 30
0.0
 41
100.0
 42
100.0
 43
100.0
 50
270.0
  0
INSERT
  5
21F90
330
1FD10
100
AcDbEntity
  8
寸法
 62
     0
 48
50.0
370
    -2
100
AcDbBlockReference
  2
_DOTSMALL
 10
4594.08735343128
 20
8071.666700827391
 30
0.0
 41
100.0
 42
100.0
 43
100.0
 50
90.0
  0
MTEXT
  5
21F91
330
1FD10
100
AcDbEntity
  8
寸法
 62
     7
 48
50.0
100
AcDbMText
 10
4494.075542407657
 20
8344.773302545192
 30
0.0
 40
120.0
 41
0.0
 71
     5
 72
     1
  1
\A1;123
  7
STYLE1
 11
0.0000000000000001
 21
1.0
 31
0.0
 73
     1
 44
1.0
1001
ACAD
1000
MTEXTBEGIN
1070
    73
1070
     1
1070
    44
1040
1.0
1070
    74
1070
     0
1000
MTEXTEND
  0
POINT
  5
21F92
330
1FD10
100
AcDbEntity
  8
DEFPOINTS
 62
     0
 48
50.0
100
AcDbPoint
 10
5478.6
 20
8071.666700827391
 30
0.0
  0
POINT
  5
21F93
330
1FD10
100
AcDbEntity
  8
DEFPOINTS
 62
     0
 48
50.0
100
AcDbPoint
 10
5551.6
 20
7948.666700827391
 30
0.0
  0
POINT
  5
21F94
330
1FD10
100
AcDbEntity
  8
DEFPOINTS
 62
     0
 48
50.0
100
AcDbPoint
 10
4594.08735343128
 20
7948.666700827391
 30
0.0
  0
ENDBLK
  5
1FD1C
330
1FD10
100
AcDbEntity
  8
0
 48
50.0
100
AcDbBlockEnd
  0
BLOCK
  5
1FD28
330
1FD1D
100
AcDbEntity
  8
0
 48
50.0
100
AcDbBlockBegin
  2
*D25
 70
     1
 10
0.0
 20
0.0
 30
0.0
  3
*D25
  1

  0
LINE
  5
21F81
330
1FD1D
100
AcDbEntity
  8
寸法
 62
     0
 48
50.0
370
    -2
100
AcDbLine
 10
5601.600000000001
 20
8018.666700827392
 30
0.0
 11
5601.600000000001
 21
8814.275517497637
 31
0.0
  0
LINE
  5
21F82
330
1FD1D
100
AcDbEntity
  8
寸法
 62
     0
 48
50.0
370
    -2
100
AcDbLine
 10
5478.6
 20
8091.666700827392
 30
0.0
 11
5478.6
 21
8814.275517497637
 31
0.0
  0
LINE
  5
21F83
330
1FD1D
100
AcDbEntity
  8
寸法
 62
     0
 48
50.0
370
    -2
100
AcDbLine
 10
5601.600000000001
 20
8754.275517497637
 30
0.0
 11
5478.6
 21
8754.275517497637
 31
0.0
  0
LINE
  5
21F84
330
1FD1D
100
AcDbEntity
  8
寸法
 62
     0
 48
50.0
370
    -2
100
AcDbLine
 10
5478.6
 20
8754.275517497637
 30
0.0
 11
5067.008116907963
 21
8754.275517497637
 31
0.0
  0
INSERT
  5
21F85
330
1FD1D
100
AcDbEntity
  8
寸法
 62
     0
 48
50.0
370
    -2
100
AcDbBlockReference
  2
_DOTSMALL
 10
5601.600000000001
 20
8754.275517497637
 30
0.0
 41
100.0
 42
100.0
 43
100.0
  0
INSERT
  5
21F86
330
1FD1D
100
AcDbEntity
  8
寸法
 62
     0
 48
50.0
370
    -2
100
AcDbBlockReference
  2
_DOTSMALL
 10
5478.6
 20
8754.275517497637
 30
0.0
 41
100.0
 42
100.0
 43
100.0
 50
180.0
  0
MTEXT
  5
21F87
330
1FD1D
100
AcDbEntity
  8
寸法
 62
     7
 48
50.0
100
AcDbMText
 10
5205.493398282202
 20
8854.287328521259
 30
0.0
 40
120.0
 41
0.0
 71
     5
 72
     1
  1
\A1;123
  7
STYLE1
 73
     1
 44
1.0
1001
ACAD
1000
MTEXTBEGIN
1070
    73
1070
     1
1070
    44
1040
1.0
1070
    74
1070
     0
1000
MTEXTEND
  0
POINT
  5
21F88
330
1FD1D
100
AcDbEntity
  8
DEFPOINTS
 62
     0
 48
50.0
100
AcDbPoint
 10
5601.600000000001
 20
7998.666700827391
 30
0.0
  0
POINT
  5
21F89
330
1FD1D
100
AcDbEntity
  8
DEFPOINTS
 62
     0
 48
50.0
100
AcDbPoint
 10
5478.6
 20
8071.666700827391
 30
0.0
  0
POINT
  5
21F8A
330
1FD1D
100
AcDbEntity
  8
DEFPOINTS
 62
     0
 48
50.0
100
AcDbPoint
 10
5478.6
 20
8754.275517497637
 30
0.0
  0
ENDBLK
  5
1FD29
330
1FD1D
100
AcDbEntity
  8
0
 48
50.0
100
AcDbBlockEnd
  0
BLOCK
  5
1FD34
330
1FD2A
100
AcDbEntity
  8
0
 48
50.0
100
AcDbBlockBegin
  2
*D26
 70
     1
 10
0.0
 20
0.0
 30
0.0
  3
*D26
  1

  0
LINE
  5
220DC
330
1FD2A
100
AcDbEntity
  8
寸法
 62
     0
 48
50.0
370
    -2
100
AcDbLine
 10
5531.6
 20
7948.666700827391
 30
0.0
 11
4534.087353431283
 21
7948.666700827391
 31
0.0
  0
LINE
  5
220DD
330
1FD2A
100
AcDbEntity
  8
寸法
 62
     0
 48
50.0
370
    -2
100
AcDbLine
 10
5531.600000000008
 20
6049.666700827394
 30
0.0
 11
4534.087353431282
 21
6049.666700827394
 31
0.0
  0
LINE
  5
220DE
330
1FD2A
100
AcDbEntity
  8
寸法
 62
     0
 48
50.0
370
    -2
100
AcDbLine
 10
4594.087353431283
 20
7948.666700827391
 30
0.0
 11
4594.087353431282
 21
6049.666700827394
 31
0.0
  0
INSERT
  5
220DF
330
1FD2A
100
AcDbEntity
  8
寸法
 62
     0
 48
50.0
370
    -2
100
AcDbBlockReference
  2
_DOTSMALL
 10
4594.087353431283
 20
7948.666700827391
 30
0.0
 41
100.0
 42
100.0
 43
100.0
 50
90.0
  0
INSERT
  5
220E0
330
1FD2A
100
AcDbEntity
  8
寸法
 62
     0
 48
50.0
370
    -2
100
AcDbBlockReference
  2
_DOTSMALL
 10
4594.087353431282
 20
6049.666700827394
 30
0.0
 41
100.0
 42
100.0
 43
100.0
 50
270.0
  0
MTEXT
  5
220E1
330
1FD2A
100
AcDbEntity
  8
寸法
 62
     7
 48
50.0
100
AcDbMText
 10
4494.087353431281
 20
6999.166700827392
 30
0.0
 40
120.0
 41
0.0
 71
     5
 72
     1
  1
\A1;1899
  7
STYLE1
 11
0.0000000000000001
 21
1.0
 31
0.0
 73
     1
 44
1.0
1001
ACAD
1000
MTEXTBEGIN
1070
    73
1070
     1
1070
    44
1040
1.0
1070
    74
1070
     0
1000
MTEXTEND
  0
POINT
  5
220E2
330
1FD2A
100
AcDbEntity
  8
DEFPOINTS
 62
     0
 48
50.0
100
AcDbPoint
 10
5551.6
 20
7948.666700827391
 30
0.0
  0
POINT
  5
220E3
330
1FD2A
100
AcDbEntity
  8
DEFPOINTS
 62
     0
 48
50.0
100
AcDbPoint
 10
5551.600000000007
 20
6049.666700827394
 30
0.0
  0
POINT
  5
220E4
330
1FD2A
100
AcDbEntity
  8
DEFPOINTS
 62
     0
 48
50.0
100
AcDbPoint
 10
4594.087353431282
 20
6049.666700827394
 30
0.0
  0
ENDBLK
  5
1FD35
330
1FD2A
100
AcDbEntity
  8
0
 48
50.0
100
AcDbBlockEnd
  0
BLOCK
  5
1FD40
330
1FD36
100
AcDbEntity
  8
0
 48
50.0
100
AcDbBlockBegin
  2
*D27
 70
     1
 10
0.0
 20
0.0
 30
0.0
  3
*D27
  1

  0
LINE
  5
21F6F
330
1FD36
100
AcDbEntity
  8
寸法
 62
     0
 48
50.0
370
    -2
100
AcDbLine
 10
6853.600000000007
 20
8774.275517497638
 30
0.0
 11
6853.600000000007
 21
9057.933158921299
 31
0.0
  0
LINE
  5
21F70
330
1FD36
100
AcDbEntity
  8
寸法
 62
     0
 48
50.0
370
    -2
100
AcDbLine
 10
5478.6
 20
8091.666700827392
 30
0.0
 11
5478.6
 21
9057.933158921299
 31
0.0
  0
LINE
  5
21F71
330
1FD36
100
AcDbEntity
  8
寸法
 62
     0
 48
50.0
370
    -2
100
AcDbLine
 10
6853.600000000007
 20
8997.9331589213
 30
0.0
 11
5478.6
 21
8997.9331589213
 31
0.0
  0
INSERT
  5
21F72
330
1FD36
100
AcDbEntity
  8
寸法
 62
     0
 48
50.0
370
    -2
100
AcDbBlockReference
  2
_DOTSMALL
 10
6853.600000000007
 20
8997.9331589213
 30
0.0
 41
100.0
 42
100.0
 43
100.0
  0
INSERT
  5
21F73
330
1FD36
100
AcDbEntity
  8
寸法
 62
     0
 48
50.0
370
    -2
100
AcDbBlockReference
  2
_DOTSMALL
 10
5478.6
 20
8997.9331589213
 30
0.0
 41
100.0
 42
100.0
 43
100.0
 50
180.0
  0
MTEXT
  5
21F74
330
1FD36
100
AcDbEntity
  8
寸法
 62
     7
 48
50.0
100
AcDbMText
 10
6166.100000000004
 20
9097.9331589213
 30
0.0
 40
120.0
 41
0.0
 71
     5
 72
     1
  1
\A1;1375
  7
STYLE1
 73
     1
 44
1.0
1001
ACAD
1000
MTEXTBEGIN
1070
    73
1070
     1
1070
    44
1040
1.0
1070
    74
1070
     0
1000
MTEXTEND
  0
POINT
  5
21F75
330
1FD36
100
AcDbEntity
  8
DEFPOINTS
 62
     0
 48
50.0
100
AcDbPoint
 10
6853.600000000007
 20
8754.275517497637
 30
0.0
  0
POINT
  5
21F76
330
1FD36
100
AcDbEntity
  8
DEFPOINTS
 62
     0
 48
50.0
100
AcDbPoint
 10
5478.6
 20
8071.666700827391
 30
0.0
  0
POINT
  5
21F77
330
1FD36
100
AcDbEntity
  8
DEFPOINTS
 62
     0
 48
50.0
100
AcDbPoint
 10
5478.6
 20
8997.9331589213
 30
0.0
  0
ENDBLK
  5
1FD41
330
1FD36
100
AcDbEntity
  8
0
 48
50.0
100
AcDbBlockEnd
  0
BLOCK
  5
1FD89
330
1FD7F
100
AcDbEntity
  8
0
 48
50.0
100
AcDbBlockBegin
  2
*D28
 70
     1
 10
0.0
 20
0.0
 30
0.0
  3
*D28
  1

  0
LINE
  5
21F66
330
1FD7F
100
AcDbEntity
  8
寸法
 62
     0
 48
50.0
370
    -2
100
AcDbLine
 10
6735.600000000001
 20
8018.666700827392
 30
0.0
 11
6735.600000000001
 21
8814.275517497637
 31
0.0
  0
LINE
  5
21F67
330
1FD7F
100
AcDbEntity
  8
寸法
 62
     0
 48
50.0
370
    -2
100
AcDbLine
 10
5601.600000000001
 20
8018.666700827392
 30
0.0
 11
5601.600000000001
 21
8814.275517497637
 31
0.0
  0
LINE
  5
21F68
330
1FD7F
100
AcDbEntity
  8
寸法
 62
     0
 48
50.0
370
    -2
100
AcDbLine
 10
6735.600000000001
 20
8754.275517497637
 30
0.0
 11
5601.600000000001
 21
8754.275517497637
 31
0.0
  0
INSERT
  5
21F69
330
1FD7F
100
AcDbEntity
  8
寸法
 62
     0
 48
50.0
370
    -2
100
AcDbBlockReference
  2
_DOTSMALL
 10
6735.600000000001
 20
8754.275517497637
 30
0.0
 41
100.0
 42
100.0
 43
100.0
  0
INSERT
  5
21F6A
330
1FD7F
100
AcDbEntity
  8
寸法
 62
     0
 48
50.0
370
    -2
100
AcDbBlockReference
  2
_DOTSMALL
 10
5601.600000000001
 20
8754.275517497637
 30
0.0
 41
100.0
 42
100.0
 43
100.0
 50
180.0
  0
MTEXT
  5
21F6B
330
1FD7F
100
AcDbEntity
  8
寸法
 62
     7
 48
50.0
100
AcDbMText
 10
6168.600000000001
 20
8854.275517497638
 30
0.0
 40
120.0
 41
0.0
 71
     5
 72
     1
  1
\A1;1134
  7
STYLE1
 73
     1
 44
1.0
1001
ACAD
1000
MTEXTBEGIN
1070
    73
1070
     1
1070
    44
1040
1.0
1070
    74
1070
     0
1000
MTEXTEND
  0
POINT
  5
21F6C
330
1FD7F
100
AcDbEntity
  8
DEFPOINTS
 62
     0
 48
50.0
100
AcDbPoint
 10
6735.600000000001
 20
7998.666700827391
 30
0.0
  0
POINT
  5
21F6D
330
1FD7F
100
AcDbEntity
  8
DEFPOINTS
 62
     0
 48
50.0
100
AcDbPoint
 10
5601.600000000001
 20
7998.666700827391
 30
0.0
  0
POINT
  5
21F6E
330
1FD7F
100
AcDbEntity
  8
DEFPOINTS
 62
     0
 48
50.0
100
AcDbPoint
 10
5601.600000000001
 20
8754.275517497637
 30
0.0
  0
ENDBLK
  5
1FD8A
330
1FD7F
100
AcDbEntity
  8
0
 48
50.0
100
AcDbBlockEnd
  0
BLOCK
  5
1FDA1
330
1FD96
100
AcDbEntity
  8
0
 48
50.0
100
AcDbBlockBegin
  2
*D29
 70
     1
 10
0.0
 20
0.0
 30
0.0
  3
*D29
  1

  0
LINE
  5
218E9
330
1FD96
100
AcDbEntity
  8
寸法
 62
     0
 48
50.0
370
    -2
100
AcDbLine
 10
9110.851516111312
 20
6131.666700827408
 30
0.0
 11
9255.649102633087
 21
6131.666700827408
 31
0.0
  0
LINE
  5
218EA
330
1FD96
100
AcDbEntity
  8
寸法
 62
     0
 48
50.0
370
    -2
100
AcDbLine
 10
9110.851516111312
 20
5851.666700827406
 30
0.0
 11
9255.649102633087
 21
5851.666700827406
 31
0.0
  0
LINE
  5
218EB
330
1FD96
100
AcDbEntity
  8
寸法
 62
     0
 48
50.0
370
    -2
100
AcDbLine
 10
9195.649102633089
 20
6131.666700827408
 30
0.0
 11
9195.649102633089
 21
5851.666700827406
 31
0.0
  0
LINE
  5
218EC
330
1FD96
100
AcDbEntity
  8
寸法
 62
     0
 48
50.0
370
    -2
100
AcDbLine
 10
9195.649102633089
 20
5851.666700827406
 30
0.0
 11
9195.649102633089
 21
5415.132252008507
 31
0.0
  0
INSERT
  5
218ED
330
1FD96
100
AcDbEntity
  8
寸法
 62
     0
 48
50.0
370
    -2
100
AcDbBlockReference
  2
_DOTSMALL
 10
9195.649102633089
 20
6131.666700827408
 30
0.0
 41
100.0
 42
100.0
 43
100.0
 50
90.0
  0
INSERT
  5
218EE
330
1FD96
100
AcDbEntity
  8
寸法
 62
     0
 48
50.0
370
    -2
100
AcDbBlockReference
  2
_DOTSMALL
 10
9195.649102633089
 20
5851.666700827406
 30
0.0
 41
100.0
 42
100.0
 43
100.0
 50
270.0
  0
MTEXT
  5
218EF
330
1FD96
100
AcDbEntity
  8
寸法
 62
     7
 48
50.0
100
AcDbMText
 10
9095.637291609465
 20
5564.70311815024
 30
0.0
 40
120.0
 41
0.0
 71
     5
 72
     1
  1
\A1;280
  7
STYLE1
 11
0.0000000000000001
 21
1.0
 31
0.0
 73
     1
 44
1.0
1001
ACAD
1000
MTEXTBEGIN
1070
    73
1070
     1
1070
    44
1040
1.0
1070
    74
1070
     0
1000
MTEXTEND
  0
POINT
  5
218F0
330
1FD96
100
AcDbEntity
  8
DEFPOINTS
 62
     0
 48
50.0
100
AcDbPoint
 10
9090.851516111312
 20
6131.666700827408
 30
0.0
  0
POINT
  5
218F1
330
1FD96
100
AcDbEntity
  8
DEFPOINTS
 62
     0
 48
50.0
100
AcDbPoint
 10
9090.851516111312
 20
5851.666700827406
 30
0.0
  0
POINT
  5
218F2
330
1FD96
100
AcDbEntity
  8
DEFPOINTS
 62
     0
 48
50.0
100
AcDbPoint
 10
9195.649102633089
 20
5851.666700827406
 30
0.0
  0
ENDBLK
  5
1FDA2
330
1FD96
100
AcDbEntity
  8
0
 48
50.0
100
AcDbBlockEnd
  0
BLOCK
  5
1FDF3
330
1FDE9
100
AcDbEntity
  8
0
 48
50.0
100
AcDbBlockBegin
  2
*D30
 70
     1
 10
0.0
 20
0.0
 30
0.0
  3
*D30
  1

  0
LINE
  5
21F5D
330
1FDE9
100
AcDbEntity
  8
寸法
 62
     0
 48
50.0
370
    -2
100
AcDbLine
 10
10968.6
 20
8091.666700827392
 30
0.0
 11
10968.6
 21
9057.933158921299
 31
0.0
  0
LINE
  5
21F5E
330
1FDE9
100
AcDbEntity
  8
寸法
 62
     0
 48
50.0
370
    -2
100
AcDbLine
 10
9593.600000000007
 20
8774.275517497638
 30
0.0
 11
9593.600000000007
 21
9057.933158921299
 31
0.0
  0
LINE
  5
21F5F
330
1FDE9
100
AcDbEntity
  8
寸法
 62
     0
 48
50.0
370
    -2
100
AcDbLine
 10
10968.6
 20
8997.9331589213
 30
0.0
 11
9593.600000000007
 21
8997.9331589213
 31
0.0
  0
INSERT
  5
21F60
330
1FDE9
100
AcDbEntity
  8
寸法
 62
     0
 48
50.0
370
    -2
100
AcDbBlockReference
  2
_DOTSMALL
 10
10968.6
 20
8997.9331589213
 30
0.0
 41
100.0
 42
100.0
 43
100.0
  0
INSERT
  5
21F61
330
1FDE9
100
AcDbEntity
  8
寸法
 62
     0
 48
50.0
370
    -2
100
AcDbBlockReference
  2
_DOTSMALL
 10
9593.600000000007
 20
8997.9331589213
 30
0.0
 41
100.0
 42
100.0
 43
100.0
 50
180.0
  0
MTEXT
  5
21F62
330
1FDE9
100
AcDbEntity
  8
寸法
 62
     7
 48
50.0
100
AcDbMText
 10
10346.02212135149
 20
9097.9331589213
 30
0.0
 40
120.0
 41
0.0
 71
     5
 72
     1
  1
\A1;1375
  7
STYLE1
 73
     1
 44
1.0
1001
ACAD
1000
MTEXTBEGIN
1070
    73
1070
     1
1070
    44
1040
1.0
1070
    74
1070
     0
1000
MTEXTEND
  0
POINT
  5
21F63
330
1FDE9
100
AcDbEntity
  8
DEFPOINTS
 62
     0
 48
50.0
100
AcDbPoint
 10
10968.6
 20
8071.666700827391
 30
0.0
  0
POINT
  5
21F64
330
1FDE9
100
AcDbEntity
  8
DEFPOINTS
 62
     0
 48
50.0
100
AcDbPoint
 10
9593.600000000007
 20
8754.275517497637
 30
0.0
  0
POINT
  5
21F65
330
1FDE9
100
AcDbEntity
  8
DEFPOINTS
 62
     0
 48
50.0
100
AcDbPoint
 10
9593.600000000007
 20
8997.9331589213
 30
0.0
  0
ENDBLK
  5
1FDF4
330
1FDE9
100
AcDbEntity
  8
0
 48
50.0
100
AcDbBlockEnd
  0
BLOCK
  5
1FDFE
330
1FDF5
100
AcDbEntity
  8
0
 48
50.0
100
AcDbBlockBegin
  2
*D31
 70
     1
 10
0.0
 20
0.0
 30
0.0
  3
*D31
  1

  0
LINE
  5
21F54
330
1FDF5
100
AcDbEntity
  8
寸法
 62
     0
 48
50.0
370
    -2
100
AcDbLine
 10
10845.6
 20
8018.666700827392
 30
0.0
 11
10845.6
 21
8814.275517497637
 31
0.0
  0
LINE
  5
21F55
330
1FDF5
100
AcDbEntity
  8
寸法
 62
     0
 48
50.0
370
    -2
100
AcDbLine
 10
9475.6
 20
8018.666700827392
 30
0.0
 11
9475.6
 21
8814.275517497637
 31
0.0
  0
LINE
  5
21F56
330
1FDF5
100
AcDbEntity
  8
寸法
 62
     0
 48
50.0
370
    -2
100
AcDbLine
 10
10845.6
 20
8754.275517497637
 30
0.0
 11
9475.6
 21
8754.275517497637
 31
0.0
  0
INSERT
  5
21F57
330
1FDF5
100
AcDbEntity
  8
寸法
 62
     0
 48
50.0
370
    -2
100
AcDbBlockReference
  2
_DOTSMALL
 10
10845.6
 20
8754.275517497637
 30
0.0
 41
100.0
 42
100.0
 43
100.0
  0
INSERT
  5
21F58
330
1FDF5
100
AcDbEntity
  8
寸法
 62
     0
 48
50.0
370
    -2
100
AcDbBlockReference
  2
_DOTSMALL
 10
9475.6
 20
8754.275517497637
 30
0.0
 41
100.0
 42
100.0
 43
100.0
 50
180.0
  0
MTEXT
  5
21F59
330
1FDF5
100
AcDbEntity
  8
寸法
 62
     7
 48
50.0
100
AcDbMText
 10
10160.6
 20
8854.275517497638
 30
0.0
 40
120.0
 41
0.0
 71
     5
 72
     1
  1
\A1;1370
  7
STYLE1
 73
     1
 44
1.0
1001
ACAD
1000
MTEXTBEGIN
1070
    73
1070
     1
1070
    44
1040
1.0
1070
    74
1070
     0
1000
MTEXTEND
  0
POINT
  5
21F5A
330
1FDF5
100
AcDbEntity
  8
DEFPOINTS
 62
     0
 48
50.0
100
AcDbPoint
 10
10845.6
 20
7998.666700827391
 30
0.0
  0
POINT
  5
21F5B
330
1FDF5
100
AcDbEntity
  8
DEFPOINTS
 62
     0
 48
50.0
100
AcDbPoint
 10
9475.6
 20
7998.666700827391
 30
0.0
  0
POINT
  5
21F5C
330
1FDF5
100
AcDbEntity
  8
DEFPOINTS
 62
     0
 48
50.0
100
AcDbPoint
 10
9475.6
 20
8754.275517497637
 30
0.0
  0
ENDBLK
  5
1FDFF
330
1FDF5
100
AcDbEntity
  8
0
 48
50.0
100
AcDbBlockEnd
  0
BLOCK
  5
1FE09
330
1FE00
100
AcDbEntity
  8
0
 48
50.0
100
AcDbBlockBegin
  2
*D32
 70
     1
 10
0.0
 20
0.0
 30
0.0
  3
*D32
  1

  0
LINE
  5
22519
330
1FE00
100
AcDbEntity
  8
寸法
 62
     0
 48
50.0
370
    -2
100
AcDbLine
 10
7658.600000000008
 20
7331.666700827392
 30
0.0
 11
7960.202738780326
 21
7331.666700827392
 31
0.0
  0
LINE
  5
2251A
330
1FE00
100
AcDbEntity
  8
寸法
 62
     0
 48
50.0
370
    -2
100
AcDbLine
 10
7993.6
 20
8071.666700827391
 30
0.0
 11
7840.202738780327
 21
8071.666700827391
 31
0.0
  0
LINE
  5
2251B
330
1FE00
100
AcDbEntity
  8
寸法
 62
     0
 48
50.0
370
    -2
100
AcDbLine
 10
7900.202738780326
 20
7331.666700827392
 30
0.0
 11
7900.202738780326
 21
8071.666700827391
 31
0.0
  0
INSERT
  5
2251C
330
1FE00
100
AcDbEntity
  8
寸法
 62
     0
 48
50.0
370
    -2
100
AcDbBlockReference
  2
_DOTSMALL
 10
7900.202738780326
 20
7331.666700827392
 30
0.0
 41
100.0
 42
100.0
 43
100.0
 50
270.0
  0
INSERT
  5
2251D
330
1FE00
100
AcDbEntity
  8
寸法
 62
     0
 48
50.0
370
    -2
100
AcDbBlockReference
  2
_DOTSMALL
 10
7900.202738780326
 20
8071.666700827391
 30
0.0
 41
100.0
 42
100.0
 43
100.0
 50
90.0
  0
MTEXT
  5
2251E
330
1FE00
100
AcDbEntity
  8
寸法
 62
     7
 48
50.0
100
AcDbMText
 10
7800.202738780325
 20
7701.666700827392
 30
0.0
 40
120.0
 41
0.0
 71
     5
 72
     1
  1
\A1;740
  7
STYLE1
 11
0.0000000000000001
 21
1.0
 31
0.0
 73
     1
 44
1.0
1001
ACAD
1000
MTEXTBEGIN
1070
    73
1070
     1
1070
    44
1040
1.0
1070
    74
1070
     0
1000
MTEXTEND
  0
POINT
  5
2251F
330
1FE00
100
AcDbEntity
  8
DEFPOINTS
 62
     0
 48
50.0
100
AcDbPoint
 10
7638.600000000008
 20
7331.666700827392
 30
0.0
  0
POINT
  5
22520
330
1FE00
100
AcDbEntity
  8
DEFPOINTS
 62
     0
 48
50.0
100
AcDbPoint
 10
8013.600000000002
 20
8071.666700827391
 30
0.0
  0
POINT
  5
22521
330
1FE00
100
AcDbEntity
  8
DEFPOINTS
 62
     0
 48
50.0
100
AcDbPoint
 10
7900.202738780326
 20
8071.666700827391
 30
0.0
  0
ENDBLK
  5
1FE0A
330
1FE00
100
AcDbEntity
  8
0
 48
50.0
100
AcDbBlockEnd
  0
BLOCK
  5
1FE15
330
1FE0B
100
AcDbEntity
  8
0
 48
50.0
100
AcDbBlockBegin
  2
*D33
 70
     1
 10
0.0
 20
0.0
 30
0.0
  3
*D33
  1

  0
LINE
  5
22507
330
1FE0B
100
AcDbEntity
  8
寸法
 62
     0
 48
50.0
370
    -2
100
AcDbLine
 10
7658.600000000017
 20
5851.6667008274
 30
0.0
 11
7960.202738780328
 21
5851.6667008274
 31
0.0
  0
LINE
  5
22508
330
1FE0B
100
AcDbEntity
  8
寸法
 62
     0
 48
50.0
370
    -2
100
AcDbLine
 10
7658.600000000008
 20
6666.666700827391
 30
0.0
 11
7960.202738780329
 21
6666.666700827391
 31
0.0
  0
LINE
  5
22509
330
1FE0B
100
AcDbEntity
  8
寸法
 62
     0
 48
50.0
370
    -2
100
AcDbLine
 10
7900.202738780328
 20
5851.6667008274
 30
0.0
 11
7900.202738780328
 21
6666.666700827391
 31
0.0
  0
INSERT
  5
2250A
330
1FE0B
100
AcDbEntity
  8
寸法
 62
     0
 48
50.0
370
    -2
100
AcDbBlockReference
  2
_DOTSMALL
 10
7900.202738780328
 20
5851.6667008274
 30
0.0
 41
100.0
 42
100.0
 43
100.0
 50
270.0
  0
INSERT
  5
2250B
330
1FE0B
100
AcDbEntity
  8
寸法
 62
     0
 48
50.0
370
    -2
100
AcDbBlockReference
  2
_DOTSMALL
 10
7900.202738780328
 20
6666.666700827391
 30
0.0
 41
100.0
 42
100.0
 43
100.0
 50
90.0
  0
MTEXT
  5
2250C
330
1FE0B
100
AcDbEntity
  8
寸法
 62
     7
 48
50.0
100
AcDbMText
 10
7800.202738780327
 20
6425.166700827396
 30
0.0
 40
120.0
 41
0.0
 71
     5
 72
     1
  1
\A1;815
  7
STYLE1
 11
0.0000000000000001
 21
1.0
 31
0.0
 73
     1
 44
1.0
1001
ACAD
1000
MTEXTBEGIN
1070
    73
1070
     1
1070
    44
1040
1.0
1070
    74
1070
     0
1000
MTEXTEND
  0
POINT
  5
2250D
330
1FE0B
100
AcDbEntity
  8
DEFPOINTS
 62
     0
 48
50.0
100
AcDbPoint
 10
7638.600000000017
 20
5851.6667008274
 30
0.0
  0
POINT
  5
2250E
330
1FE0B
100
AcDbEntity
  8
DEFPOINTS
 62
     0
 48
50.0
100
AcDbPoint
 10
7638.600000000008
 20
6666.666700827391
 30
0.0
  0
POINT
  5
2250F
330
1FE0B
100
AcDbEntity
  8
DEFPOINTS
 62
     0
 48
50.0
100
AcDbPoint
 10
7900.202738780328
 20
6666.666700827391
 30
0.0
  0
ENDBLK
  5
1FE16
330
1FE0B
100
AcDbEntity
  8
0
 48
50.0
100
AcDbBlockEnd
  0
BLOCK
  5
1FE22
330
1FE17
100
AcDbEntity
  8
0
 48
50.0
100
AcDbBlockBegin
  2
*D34
 70
     1
 10
0.0
 20
0.0
 30
0.0
  3
*D34
  1

  0
LINE
  5
21F41
330
1FE17
100
AcDbEntity
  8
寸法
 62
     0
 48
50.0
370
    -2
100
AcDbLine
 10
9283.779728401338
 20
8071.666700827391
 30
0.0
 11
9135.64910263309
 21
8071.666700827391
 31
0.0
  0
LINE
  5
21F42
330
1FE17
100
AcDbEntity
  8
寸法
 62
     0
 48
50.0
370
    -2
100
AcDbLine
 10
9325.600000000006
 20
7871.666700827351
 30
0.0
 11
9135.64910263309
 21
7871.666700827351
 31
0.0
  0
LINE
  5
21F43
330
1FE17
100
AcDbEntity
  8
寸法
 62
     0
 48
50.0
370
    -2
100
AcDbLine
 10
9195.649102633089
 20
7871.666700827351
 30
0.0
 11
9195.649102633089
 21
8071.666700827391
 31
0.0
  0
LINE
  5
21F44
330
1FE17
100
AcDbEntity
  8
寸法
 62
     0
 48
50.0
370
    -2
100
AcDbLine
 10
9195.649102633089
 20
8071.666700827391
 30
0.0
 11
9195.649102633089
 21
8508.201149646287
 31
0.0
  0
INSERT
  5
21F45
330
1FE17
100
AcDbEntity
  8
寸法
 62
     0
 48
50.0
370
    -2
100
AcDbBlockReference
  2
_DOTSMALL
 10
9195.649102633089
 20
7871.666700827351
 30
0.0
 41
100.0
 42
100.0
 43
100.0
 50
270.0
  0
INSERT
  5
21F46
330
1FE17
100
AcDbEntity
  8
寸法
 62
     0
 48
50.0
370
    -2
100
AcDbBlockReference
  2
_DOTSMALL
 10
9195.649102633089
 20
8071.666700827391
 30
0.0
 41
100.0
 42
100.0
 43
100.0
 50
90.0
  0
MTEXT
  5
21F47
330
1FE17
100
AcDbEntity
  8
寸法
 62
     7
 48
50.0
100
AcDbMText
 10
9095.637291609467
 20
8358.630283504558
 30
0.0
 40
120.0
 41
0.0
 71
     5
 72
     1
  1
\A1;200
  7
STYLE1
 11
0.0000000000000001
 21
1.0
 31
0.0
 73
     1
 44
1.0
1001
ACAD
1000
MTEXTBEGIN
1070
    73
1070
     1
1070
    44
1040
1.0
1070
    74
1070
     0
1000
MTEXTEND
  0
POINT
  5
21F48
330
1FE17
100
AcDbEntity
  8
DEFPOINTS
 62
     0
 48
50.0
100
AcDbPoint
 10
9303.779728401337
 20
8071.666700827391
 30
0.0
  0
POINT
  5
21F49
330
1FE17
100
AcDbEntity
  8
DEFPOINTS
 62
     0
 48
50.0
100
AcDbPoint
 10
9345.600000000008
 20
7871.666700827351
 30
0.0
  0
POINT
  5
21F4A
330
1FE17
100
AcDbEntity
  8
DEFPOINTS
 62
     0
 48
50.0
100
AcDbPoint
 10
9195.649102633089
 20
7871.666700827351
 30
0.0
  0
ENDBLK
  5
1FE23
330
1FE17
100
AcDbEntity
  8
0
 48
50.0
100
AcDbBlockEnd
  0
BLOCK
  5
1FE2F
330
1FE24
100
AcDbEntity
  8
0
 48
50.0
100
AcDbBlockBegin
  2
*D35
 70
     1
 10
0.0
 20
0.0
 30
0.0
  3
*D35
  1

  0
LINE
  5
22FA3
330
1FE24
100
AcDbEntity
  8
寸法
 62
     0
 48
50.0
370
    -2
100
AcDbLine
 10
10968.6
 20
7226.697598321543
 30
0.0
 11
10968.6
 21
7398.988930821161
 31
0.0
  0
LINE
  5
22FA4
330
1FE24
100
AcDbEntity
  8
寸法
 62
     0
 48
50.0
370
    -2
100
AcDbLine
 10
10848.6
 20
7226.697598321543
 30
0.0
 11
10848.6
 21
7398.988930821161
 31
0.0
  0
LINE
  5
22FA5
330
1FE24
100
AcDbEntity
  8
寸法
 62
     0
 48
50.0
370
    -2
100
AcDbLine
 10
10848.6
 20
7338.988930821162
 30
0.0
 11
10968.6
 21
7338.988930821162
 31
0.0
  0
LINE
  5
22FA6
330
1FE24
100
AcDbEntity
  8
寸法
 62
     0
 48
50.0
370
    -2
100
AcDbLine
 10
10968.6
 20
7338.988930821162
 30
0.0
 11
11374.7062992126
 21
7338.988930821162
 31
0.0
  0
INSERT
  5
22FA7
330
1FE24
100
AcDbEntity
  8
寸法
 62
     0
 48
50.0
370
    -2
100
AcDbBlockReference
  2
_DOTSMALL
 10
10848.6
 20
7338.988930821162
 30
0.0
 41
100.0
 42
100.0
 43
100.0
 50
180.0
  0
INSERT
  5
22FA8
330
1FE24
100
AcDbEntity
  8
寸法
 62
     0
 48
50.0
370
    -2
100
AcDbBlockReference
  2
_DOTSMALL
 10
10968.6
 20
7338.988930821162
 30
0.0
 41
100.0
 42
100.0
 43
100.0
  0
MTEXT
  5
22FA9
330
1FE24
100
AcDbEntity
  8
寸法
 62
     7
 48
50.0
100
AcDbMText
 10
11238.65905511811
 20
7439.000741844783
 30
0.0
 40
120.0
 41
0.0
 71
     5
 72
     1
  1
\A1;120
  7
STYLE1
 73
     1
 44
1.0
1001
ACAD
1000
MTEXTBEGIN
1070
    73
1070
     1
1070
    44
1040
1.0
1070
    74
1070
     0
1000
MTEXTEND
  0
POINT
  5
22FAA
330
1FE24
100
AcDbEntity
  8
DEFPOINTS
 62
     0
 48
50.0
100
AcDbPoint
 10
10968.6
 20
7206.697598321543
 30
0.0
  0
POINT
  5
22FAB
330
1FE24
100
AcDbEntity
  8
DEFPOINTS
 62
     0
 48
50.0
100
AcDbPoint
 10
10848.6
 20
7206.697598321543
 30
0.0
  0
POINT
  5
22FAC
330
1FE24
100
AcDbEntity
  8
DEFPOINTS
 62
     0
 48
50.0
100
AcDbPoint
 10
10848.6
 20
7338.988930821162
 30
0.0
  0
ENDBLK
  5
1FE30
330
1FE24
100
AcDbEntity
  8
0
 48
50.0
100
AcDbBlockEnd
  0
BLOCK
  5
1FE3C
330
1FE31
100
AcDbEntity
  8
0
 48
50.0
100
AcDbBlockBegin
  2
*D36
 70
     1
 10
0.0
 20
0.0
 30
0.0
  3
*D36
  1

  0
LINE
  5
21F37
330
1FE31
100
AcDbEntity
  8
寸法
 62
     0
 48
50.0
370
    -2
100
AcDbLine
 10
10968.6
 20
8091.666700827392
 30
0.0
 11
10968.6
 21
8814.275517497637
 31
0.0
  0
LINE
  5
21F38
330
1FE31
100
AcDbEntity
  8
寸法
 62
     0
 48
50.0
370
    -2
100
AcDbLine
 10
10845.6
 20
8018.666700827392
 30
0.0
 11
10845.6
 21
8814.275517497637
 31
0.0
  0
LINE
  5
21F39
330
1FE31
100
AcDbEntity
  8
寸法
 62
     0
 48
50.0
370
    -2
100
AcDbLine
 10
10845.6
 20
8754.275517497637
 30
0.0
 11
10968.6
 21
8754.275517497637
 31
0.0
  0
LINE
  5
21F3A
330
1FE31
100
AcDbEntity
  8
寸法
 62
     0
 48
50.0
370
    -2
100
AcDbLine
 10
10968.6
 20
8754.275517497637
 30
0.0
 11
11380.19188309203
 21
8754.275517497637
 31
0.0
  0
INSERT
  5
21F3B
330
1FE31
100
AcDbEntity
  8
寸法
 62
     0
 48
50.0
370
    -2
100
AcDbBlockReference
  2
_DOTSMALL
 10
10845.6
 20
8754.275517497637
 30
0.0
 41
100.0
 42
100.0
 43
100.0
 50
180.0
  0
INSERT
  5
21F3C
330
1FE31
100
AcDbEntity
  8
寸法
 62
     0
 48
50.0
370
    -2
100
AcDbBlockReference
  2
_DOTSMALL
 10
10968.6
 20
8754.275517497637
 30
0.0
 41
100.0
 42
100.0
 43
100.0
  0
MTEXT
  5
21F3D
330
1FE31
100
AcDbEntity
  8
寸法
 62
     7
 48
50.0
100
AcDbMText
 10
11241.7066017178
 20
8854.287328521259
 30
0.0
 40
120.0
 41
0.0
 71
     5
 72
     1
  1
\A1;123
  7
STYLE1
 73
     1
 44
1.0
1001
ACAD
1000
MTEXTBEGIN
1070
    73
1070
     1
1070
    44
1040
1.0
1070
    74
1070
     0
1000
MTEXTEND
  0
POINT
  5
21F3E
330
1FE31
100
AcDbEntity
  8
DEFPOINTS
 62
     0
 48
50.0
100
AcDbPoint
 10
10968.6
 20
8071.666700827391
 30
0.0
  0
POINT
  5
21F3F
330
1FE31
100
AcDbEntity
  8
DEFPOINTS
 62
     0
 48
50.0
100
AcDbPoint
 10
10845.6
 20
7998.666700827391
 30
0.0
  0
POINT
  5
21F40
330
1FE31
100
AcDbEntity
  8
DEFPOINTS
 62
     0
 48
50.0
100
AcDbPoint
 10
10845.6
 20
8754.275517497637
 30
0.0
  0
ENDBLK
  5
1FE3D
330
1FE31
100
AcDbEntity
  8
0
 48
50.0
100
AcDbBlockEnd
  0
BLOCK
  5
20346
330
2033A
100
AcDbEntity
  8
0
 48
50.0
100
AcDbBlockBegin
  2
*D37
 70
     1
 10
0.0
 20
0.0
 30
0.0
  3
*D37
  1

  0
LINE
  5
21F2C
330
2033A
100
AcDbEntity
  8
寸法
 62
     0
 48
50.0
370
    -2
100
AcDbLine
 10
10968.6
 20
8091.666700827392
 30
0.0
 11
10968.6
 21
9289.887022886313
 31
0.0
  0
LINE
  5
21F2D
330
2033A
100
AcDbEntity
  8
寸法
 62
     0
 48
50.0
370
    -2
100
AcDbLine
 10
11013.6
 20
8774.275517497638
 30
0.0
 11
11013.6
 21
9289.887022886313
 31
0.0
  0
LINE
  5
21F2E
330
2033A
100
AcDbEntity
  8
寸法
 62
     0
 48
50.0
370
    -2
100
AcDbLine
 10
10968.6
 20
9229.887022886313
 30
0.0
 11
10868.6
 21
9229.887022886313
 31
0.0
  0
LINE
  5
21F2F
330
2033A
100
AcDbEntity
  8
寸法
 62
     0
 48
50.0
370
    -2
100
AcDbLine
 10
11013.6
 20
9229.887022886313
 30
0.0
 11
11350.94924240492
 21
9229.887022886313
 31
0.0
  0
LINE
  5
21F30
330
2033A
100
AcDbEntity
  8
寸法
 62
     0
 48
50.0
370
    -2
100
AcDbLine
 10
10968.6
 20
9229.887022886313
 30
0.0
 11
11013.6
 21
9229.887022886313
 31
0.0
  0
INSERT
  5
21F31
330
2033A
100
AcDbEntity
  8
寸法
 62
     0
 48
50.0
370
    -2
100
AcDbBlockReference
  2
_DOTSMALL
 10
10968.6
 20
9229.887022886313
 30
0.0
 41
100.0
 42
100.0
 43
100.0
  0
INSERT
  5
21F32
330
2033A
100
AcDbEntity
  8
寸法
 62
     0
 48
50.0
370
    -2
100
AcDbBlockReference
  2
_DOTSMALL
 10
11013.6
 20
9229.887022886313
 30
0.0
 41
100.0
 42
100.0
 43
100.0
 50
180.0
  0
MTEXT
  5
21F33
330
2033A
100
AcDbEntity
  8
寸法
 62
     7
 48
50.0
100
AcDbMText
 10
11284.77462120246
 20
9329.887022886312
 30
0.0
 40
120.0
 41
0.0
 71
     5
 72
     1
  1
\A1;a
  7
STYLE1
 73
     1
 44
1.0
1001
ACAD
1000
MTEXTBEGIN
1070
    73
1070
     1
1070
    44
1040
1.0
1070
    74
1070
     0
1000
MTEXTEND
  0
POINT
  5
21F34
330
2033A
100
AcDbEntity
  8
DEFPOINTS
 62
     0
 48
50.0
100
AcDbPoint
 10
10968.6
 20
8071.666700827391
 30
0.0
  0
POINT
  5
21F35
330
2033A
100
AcDbEntity
  8
DEFPOINTS
 62
     0
 48
50.0
100
AcDbPoint
 10
11013.6
 20
8754.275517497637
 30
0.0
  0
POINT
  5
21F36
330
2033A
100
AcDbEntity
  8
DEFPOINTS
 62
     0
 48
50.0
100
AcDbPoint
 10
11013.6
 20
9229.887022886313
 30
0.0
  0
ENDBLK
  5
20347
330
2033A
100
AcDbEntity
  8
0
 48
50.0
100
AcDbBlockEnd
  0
BLOCK
  5
203D0
330
203C4
100
AcDbEntity
  8
0
 48
50.0
100
AcDbBlockBegin
  2
*D38
 70
     1
 10
0.0
 20
0.0
 30
0.0
  3
*D38
  1

  0
LINE
  5
21F21
330
203C4
100
AcDbEntity
  8
寸法
 62
     0
 48
50.0
370
    -2
100
AcDbLine
 10
4574.08735343128
 20
8146.666700827394
 30
0.0
 11
4282.144256711883
 21
8146.666700827394
 31
0.0
  0
LINE
  5
21F22
330
203C4
100
AcDbEntity
  8
寸法
 62
     0
 48
50.0
370
    -2
100
AcDbLine
 10
5458.599999999998
 20
8071.666700827393
 30
0.0
 11
4282.144256711883
 21
8071.666700827393
 31
0.0
  0
LINE
  5
21F23
330
203C4
100
AcDbEntity
  8
寸法
 62
     0
 48
50.0
370
    -2
100
AcDbLine
 10
4342.144256711883
 20
8146.666700827394
 30
0.0
 11
4342.144256711883
 21
8246.666700827393
 31
0.0
  0
LINE
  5
21F24
330
203C4
100
AcDbEntity
  8
寸法
 62
     0
 48
50.0
370
    -2
100
AcDbLine
 10
4342.144256711883
 20
8071.666700827393
 30
0.0
 11
4342.144256711883
 21
7971.666700827393
 31
0.0
  0
LINE
  5
21F25
330
203C4
100
AcDbEntity
  8
寸法
 62
     0
 48
50.0
370
    -2
100
AcDbLine
 10
4342.144256711883
 20
8146.666700827394
 30
0.0
 11
4342.144256711883
 21
8071.666700827393
 31
0.0
  0
INSERT
  5
21F26
330
203C4
100
AcDbEntity
  8
寸法
 62
     0
 48
50.0
370
    -2
100
AcDbBlockReference
  2
_DOTSMALL
 10
4342.144256711883
 20
8146.666700827394
 30
0.0
 41
100.0
 42
100.0
 43
100.0
 50
270.0
  0
INSERT
  5
21F27
330
203C4
100
AcDbEntity
  8
寸法
 62
     0
 48
50.0
370
    -2
100
AcDbBlockReference
  2
_DOTSMALL
 10
4342.144256711883
 20
8071.666700827393
 30
0.0
 41
100.0
 42
100.0
 43
100.0
 50
90.0
  0
MTEXT
  5
21F28
330
203C4
100
AcDbEntity
  8
寸法
 62
     7
 48
50.0
100
AcDbMText
 10
4242.144256711882
 20
8109.166700827394
 30
0.0
 40
120.0
 41
0.0
 71
     5
 72
     1
  1
\A1;c
  7
STYLE1
 11
0.0000000000000001
 21
1.0
 31
0.0
 73
     1
 44
1.0
1001
ACAD
1000
MTEXTBEGIN
1070
    73
1070
     1
1070
    44
1040
1.0
1070
    74
1070
     0
1000
MTEXTEND
  0
POINT
  5
21F29
330
203C4
100
AcDbEntity
  8
DEFPOINTS
 62
     0
 48
50.0
100
AcDbPoint
 10
4594.087353431279
 20
8146.666700827394
 30
0.0
  0
POINT
  5
21F2A
330
203C4
100
AcDbEntity
  8
DEFPOINTS
 62
     0
 48
50.0
100
AcDbPoint
 10
5478.599999999999
 20
8071.666700827393
 30
0.0
  0
POINT
  5
21F2B
330
203C4
100
AcDbEntity
  8
DEFPOINTS
 62
     0
 48
50.0
100
AcDbPoint
 10
4342.144256711883
 20
8071.666700827393
 30
0.0
  0
ENDBLK
  5
203D1
330
203C4
100
AcDbEntity
  8
0
 48
50.0
100
AcDbBlockEnd
  0
BLOCK
  5
203EB
330
203DF
100
AcDbEntity
  8
0
 48
50.0
100
AcDbBlockBegin
  2
*D39
 70
     1
 10
0.0
 20
0.0
 30
0.0
  3
*D39
  1

  0
LINE
  5
21F16
330
203DF
100
AcDbEntity
  8
寸法
 62
     0
 48
50.0
370
    -2
100
AcDbLine
 10
5433.600000000001
 20
8774.275517497638
 30
0.0
 11
5433.600000000001
 21
9289.887022886313
 31
0.0
  0
LINE
  5
21F17
330
203DF
100
AcDbEntity
  8
寸法
 62
     0
 48
50.0
370
    -2
100
AcDbLine
 10
5478.599999999999
 20
8091.666700827394
 30
0.0
 11
5478.599999999999
 21
9289.887022886313
 31
0.0
  0
LINE
  5
21F18
330
203DF
100
AcDbEntity
  8
寸法
 62
     0
 48
50.0
370
    -2
100
AcDbLine
 10
5478.599999999999
 20
9229.887022886313
 30
0.0
 11
5578.599999999998
 21
9229.887022886313
 31
0.0
  0
LINE
  5
21F19
330
203DF
100
AcDbEntity
  8
寸法
 62
     0
 48
50.0
370
    -2
100
AcDbLine
 10
5433.600000000001
 20
9229.887022886313
 30
0.0
 11
5096.250757595083
 21
9229.887022886313
 31
0.0
  0
LINE
  5
21F1A
330
203DF
100
AcDbEntity
  8
寸法
 62
     0
 48
50.0
370
    -2
100
AcDbLine
 10
5478.599999999999
 20
9229.887022886313
 30
0.0
 11
5433.600000000001
 21
9229.887022886313
 31
0.0
  0
INSERT
  5
21F1B
330
203DF
100
AcDbEntity
  8
寸法
 62
     0
 48
50.0
370
    -2
100
AcDbBlockReference
  2
_DOTSMALL
 10
5478.599999999999
 20
9229.887022886313
 30
0.0
 41
100.0
 42
100.0
 43
100.0
 50
180.0
  0
INSERT
  5
21F1C
330
203DF
100
AcDbEntity
  8
寸法
 62
     0
 48
50.0
370
    -2
100
AcDbBlockReference
  2
_DOTSMALL
 10
5433.600000000001
 20
9229.887022886313
 30
0.0
 41
100.0
 42
100.0
 43
100.0
  0
MTEXT
  5
21F1D
330
203DF
100
AcDbEntity
  8
寸法
 62
     7
 48
50.0
100
AcDbMText
 10
5162.425378797541
 20
9329.887022886312
 30
0.0
 40
120.0
 41
0.0
 71
     5
 72
     1
  1
\A1;a
  7
STYLE1
 73
     1
 44
1.0
1001
ACAD
1000
MTEXTBEGIN
1070
    73
1070
     1
1070
    44
1040
1.0
1070
    74
1070
     0
1000
MTEXTEND
  0
POINT
  5
21F1E
330
203DF
100
AcDbEntity
  8
DEFPOINTS
 62
     0
 48
50.0
100
AcDbPoint
 10
5433.600000000001
 20
8754.275517497637
 30
0.0
  0
POINT
  5
21F1F
330
203DF
100
AcDbEntity
  8
DEFPOINTS
 62
     0
 48
50.0
100
AcDbPoint
 10
5478.599999999999
 20
8071.666700827393
 30
0.0
  0
POINT
  5
21F20
330
203DF
100
AcDbEntity
  8
DEFPOINTS
 62
     0
 48
50.0
100
AcDbPoint
 10
5478.599999999999
 20
9229.887022886313
 30
0.0
  0
ENDBLK
  5
203EC
330
203DF
100
AcDbEntity
  8
0
 48
50.0
100
AcDbBlockEnd
  0
BLOCK
  5
20413
330
20407
100
AcDbEntity
  8
0
 48
50.0
100
AcDbBlockBegin
  2
*D40
 70
     1
 10
0.0
 20
0.0
 30
0.0
  3
*D40
  1

  0
LINE
  5
2187B
330
20407
100
AcDbEntity
  8
寸法
 62
     0
 48
50.0
370
    -2
100
AcDbLine
 10
5458.6
 20
5851.666700827392
 30
0.0
 11
4282.144256711883
 21
5851.666700827392
 31
0.0
  0
LINE
  5
2187C
330
20407
100
AcDbEntity
  8
寸法
 62
     0
 48
50.0
370
    -2
100
AcDbLine
 10
4574.087353431281
 20
5796.666700827403
 30
0.0
 11
4282.144256711883
 21
5796.666700827403
 31
0.0
  0
LINE
  5
2187D
330
20407
100
AcDbEntity
  8
寸法
 62
     0
 48
50.0
370
    -2
100
AcDbLine
 10
4342.144256711883
 20
5851.666700827392
 30
0.0
 11
4342.144256711883
 21
5951.666700827392
 31
0.0
  0
LINE
  5
2187E
330
20407
100
AcDbEntity
  8
寸法
 62
     0
 48
50.0
370
    -2
100
AcDbLine
 10
4342.144256711883
 20
5796.666700827403
 30
0.0
 11
4342.144256711883
 21
5696.666700827403
 31
0.0
  0
LINE
  5
2187F
330
20407
100
AcDbEntity
  8
寸法
 62
     0
 48
50.0
370
    -2
100
AcDbLine
 10
4342.144256711883
 20
5851.666700827392
 30
0.0
 11
4342.144256711883
 21
5796.666700827403
 31
0.0
  0
INSERT
  5
21880
330
20407
100
AcDbEntity
  8
寸法
 62
     0
 48
50.0
370
    -2
100
AcDbBlockReference
  2
_DOTSMALL
 10
4342.144256711883
 20
5851.666700827392
 30
0.0
 41
100.0
 42
100.0
 43
100.0
 50
270.0
  0
INSERT
  5
21881
330
20407
100
AcDbEntity
  8
寸法
 62
     0
 48
50.0
370
    -2
100
AcDbBlockReference
  2
_DOTSMALL
 10
4342.144256711883
 20
5796.666700827403
 30
0.0
 41
100.0
 42
100.0
 43
100.0
 50
90.0
  0
MTEXT
  5
21882
330
20407
100
AcDbEntity
  8
寸法
 62
     7
 48
50.0
100
AcDbMText
 10
4242.144256711882
 20
5824.166700827397
 30
0.0
 40
120.0
 41
0.0
 71
     5
 72
     1
  1
\A1;b
  7
STYLE1
 11
0.0000000000000001
 21
1.0
 31
0.0
 73
     1
 44
1.0
1001
ACAD
1000
MTEXTBEGIN
1070
    73
1070
     1
1070
    44
1040
1.0
1070
    74
1070
     0
1000
MTEXTEND
  0
POINT
  5
21883
330
20407
100
AcDbEntity
  8
DEFPOINTS
 62
     0
 48
50.0
100
AcDbPoint
 10
5478.6
 20
5851.666700827392
 30
0.0
  0
POINT
  5
21884
330
20407
100
AcDbEntity
  8
DEFPOINTS
 62
     0
 48
50.0
100
AcDbPoint
 10
4594.087353431281
 20
5796.666700827403
 30
0.0
  0
POINT
  5
21885
330
20407
100
AcDbEntity
  8
DEFPOINTS
 62
     0
 48
50.0
100
AcDbPoint
 10
4342.144256711883
 20
5796.666700827403
 30
0.0
  0
ENDBLK
  5
20414
330
20407
100
AcDbEntity
  8
0
 48
50.0
100
AcDbBlockEnd
  0
BLOCK
  5
2172B
330
21721
100
AcDbEntity
  8
0
 48
50.0
100
AcDbBlockBegin
  2
*D41
 70
     1
 10
0.0
 20
0.0
 30
0.0
  3
*D41
  1

  0
LINE
  5
224FE
330
21721
100
AcDbEntity
  8
寸法
 62
     0
 48
50.0
370
    -2
100
AcDbLine
 10
5478.6
 20
6519.780272613743
 30
0.0
 11
5478.6
 21
6190.846633675651
 31
0.0
  0
LINE
  5
224FF
330
21721
100
AcDbEntity
  8
寸法
 62
     0
 48
50.0
370
    -2
100
AcDbLine
 10
6168.600000000008
 20
6546.666700827391
 30
0.0
 11
6168.600000000008
 21
6190.846633675651
 31
0.0
  0
LINE
  5
22500
330
21721
100
AcDbEntity
  8
寸法
 62
     0
 48
50.0
370
    -2
100
AcDbLine
 10
5478.6
 20
6250.84663367565
 30
0.0
 11
6168.600000000008
 21
6250.84663367565
 31
0.0
  0
INSERT
  5
22501
330
21721
100
AcDbEntity
  8
寸法
 62
     0
 48
50.0
370
    -2
100
AcDbBlockReference
  2
_DOTSMALL
 10
5478.6
 20
6250.84663367565
 30
0.0
 41
100.0
 42
100.0
 43
100.0
 50
180.0
  0
INSERT
  5
22502
330
21721
100
AcDbEntity
  8
寸法
 62
     0
 48
50.0
370
    -2
100
AcDbBlockReference
  2
_DOTSMALL
 10
6168.600000000008
 20
6250.84663367565
 30
0.0
 41
100.0
 42
100.0
 43
100.0
  0
MTEXT
  5
22503
330
21721
100
AcDbEntity
  8
寸法
 62
     7
 48
50.0
100
AcDbMText
 10
5823.600000000004
 20
6350.846633675651
 30
0.0
 40
120.0
 41
0.0
 71
     5
 72
     1
  1
\A1;690
  7
STYLE1
 73
     1
 44
1.0
1001
ACAD
1000
MTEXTBEGIN
1070
    73
1070
     1
1070
    44
1040
1.0
1070
    74
1070
     0
1000
MTEXTEND
  0
POINT
  5
22504
330
21721
100
AcDbEntity
  8
DEFPOINTS
 62
     0
 48
50.0
100
AcDbPoint
 10
5478.6
 20
6539.780272613743
 30
0.0
  0
POINT
  5
22505
330
21721
100
AcDbEntity
  8
DEFPOINTS
 62
     0
 48
50.0
100
AcDbPoint
 10
6168.600000000008
 20
6566.666700827392
 30
0.0
  0
POINT
  5
22506
330
21721
100
AcDbEntity
  8
DEFPOINTS
 62
     0
 48
50.0
100
AcDbPoint
 10
6168.600000000008
 20
6250.84663367565
 30
0.0
  0
ENDBLK
  5
2172C
330
21721
100
AcDbEntity
  8
0
 48
50.0
100
AcDbBlockEnd
  0
BLOCK
  5
2174D
330
21743
100
AcDbEntity
  8
0
 48
50.0
100
AcDbBlockBegin
  2
*D42
 70
     1
 10
0.0
 20
0.0
 30
0.0
  3
*D42
  1

  0
LINE
  5
22580
330
21743
100
AcDbEntity
  8
寸法
 62
     0
 48
50.0
370
    -2
100
AcDbLine
 10
6168.600000000008
 20
6546.666700827391
 30
0.0
 11
6168.600000000008
 21
6190.846633675651
 31
0.0
  0
LINE
  5
22581
330
21743
100
AcDbEntity
  8
寸法
 62
     0
 48
50.0
370
    -2
100
AcDbLine
 10
6853.600000000007
 20
6546.666700827391
 30
0.0
 11
6853.600000000007
 21
6190.846633675651
 31
0.0
  0
LINE
  5
22582
330
21743
100
AcDbEntity
  8
寸法
 62
     0
 48
50.0
370
    -2
100
AcDbLine
 10
6168.600000000008
 20
6250.84663367565
 30
0.0
 11
6853.600000000007
 21
6250.84663367565
 31
0.0
  0
INSERT
  5
22583
330
21743
100
AcDbEntity
  8
寸法
 62
     0
 48
50.0
370
    -2
100
AcDbBlockReference
  2
_DOTSMALL
 10
6168.600000000008
 20
6250.84663367565
 30
0.0
 41
100.0
 42
100.0
 43
100.0
 50
180.0
  0
INSERT
  5
22584
330
21743
100
AcDbEntity
  8
寸法
 62
     0
 48
50.0
370
    -2
100
AcDbBlockReference
  2
_DOTSMALL
 10
6853.600000000007
 20
6250.84663367565
 30
0.0
 41
100.0
 42
100.0
 43
100.0
  0
MTEXT
  5
22585
330
21743
100
AcDbEntity
  8
寸法
 62
     7
 48
50.0
100
AcDbMText
 10
6511.100000000007
 20
6350.846633675651
 30
0.0
 40
120.0
 41
0.0
 71
     5
 72
     1
  1
\A1;685
  7
STYLE1
 73
     1
 44
1.0
1001
ACAD
1000
MTEXTBEGIN
1070
    73
1070
     1
1070
    44
1040
1.0
1070
    74
1070
     0
1000
MTEXTEND
  0
POINT
  5
22586
330
21743
100
AcDbEntity
  8
DEFPOINTS
 62
     0
 48
50.0
100
AcDbPoint
 10
6168.600000000008
 20
6566.666700827392
 30
0.0
  0
POINT
  5
22587
330
21743
100
AcDbEntity
  8
DEFPOINTS
 62
     0
 48
50.0
100
AcDbPoint
 10
6853.600000000007
 20
6566.666700827392
 30
0.0
  0
POINT
  5
22588
330
21743
100
AcDbEntity
  8
DEFPOINTS
 62
     0
 48
50.0
100
AcDbPoint
 10
6853.600000000007
 20
6250.84663367565
 30
0.0
  0
ENDBLK
  5
2174E
330
21743
100
AcDbEntity
  8
0
 48
50.0
100
AcDbBlockEnd
  0
BLOCK
  5
21779
330
2176F
100
AcDbEntity
  8
0
 48
50.0
100
AcDbBlockBegin
  2
*D43
 70
     1
 10
0.0
 20
0.0
 30
0.0
  3
*D43
  1

  0
LINE
  5
224E3
330
2176F
100
AcDbEntity
  8
寸法
 62
     0
 48
50.0
370
    -2
100
AcDbLine
 10
10278.60000000001
 20
6546.666700827391
 30
0.0
 11
10278.60000000001
 21
6190.846633675651
 31
0.0
  0
LINE
  5
224E4
330
2176F
100
AcDbEntity
  8
寸法
 62
     0
 48
50.0
370
    -2
100
AcDbLine
 10
10968.6
 20
6519.780272613743
 30
0.0
 11
10968.6
 21
6190.846633675651
 31
0.0
  0
LINE
  5
224E5
330
2176F
100
AcDbEntity
  8
寸法
 62
     0
 48
50.0
370
    -2
100
AcDbLine
 10
10278.60000000001
 20
6250.84663367565
 30
0.0
 11
10968.6
 21
6250.84663367565
 31
0.0
  0
INSERT
  5
224E6
330
2176F
100
AcDbEntity
  8
寸法
 62
     0
 48
50.0
370
    -2
100
AcDbBlockReference
  2
_DOTSMALL
 10
10278.60000000001
 20
6250.84663367565
 30
0.0
 41
100.0
 42
100.0
 43
100.0
 50
180.0
  0
INSERT
  5
224E7
330
2176F
100
AcDbEntity
  8
寸法
 62
     0
 48
50.0
370
    -2
100
AcDbBlockReference
  2
_DOTSMALL
 10
10968.6
 20
6250.84663367565
 30
0.0
 41
100.0
 42
100.0
 43
100.0
  0
MTEXT
  5
224E8
330
2176F
100
AcDbEntity
  8
寸法
 62
     7
 48
50.0
100
AcDbMText
 10
10611.16542468967
 20
6350.846633675651
 30
0.0
 40
120.0
 41
0.0
 71
     5
 72
     1
  1
\A1;690
  7
STYLE1
 73
     1
 44
1.0
1001
ACAD
1000
MTEXTBEGIN
1070
    73
1070
     1
1070
    44
1040
1.0
1070
    74
1070
     0
1000
MTEXTEND
  0
POINT
  5
224E9
330
2176F
100
AcDbEntity
  8
DEFPOINTS
 62
     0
 48
50.0
100
AcDbPoint
 10
10278.60000000001
 20
6566.666700827392
 30
0.0
  0
POINT
  5
224EA
330
2176F
100
AcDbEntity
  8
DEFPOINTS
 62
     0
 48
50.0
100
AcDbPoint
 10
10968.6
 20
6539.780272613743
 30
0.0
  0
POINT
  5
224EB
330
2176F
100
AcDbEntity
  8
DEFPOINTS
 62
     0
 48
50.0
100
AcDbPoint
 10
10968.6
 20
6250.84663367565
 30
0.0
  0
ENDBLK
  5
2177A
330
2176F
100
AcDbEntity
  8
0
 48
50.0
100
AcDbBlockEnd
  0
BLOCK
  5
21790
330
21786
100
AcDbEntity
  8
0
 48
50.0
100
AcDbBlockBegin
  2
*D44
 70
     1
 10
0.0
 20
0.0
 30
0.0
  3
*D44
  1

  0
LINE
  5
22556
330
21786
100
AcDbEntity
  8
寸法
 62
     0
 48
50.0
370
    -2
100
AcDbLine
 10
9593.600000000007
 20
6546.666700827391
 30
0.0
 11
9593.600000000007
 21
6190.846633675651
 31
0.0
  0
LINE
  5
22557
330
21786
100
AcDbEntity
  8
寸法
 62
     0
 48
50.0
370
    -2
100
AcDbLine
 10
10278.60000000001
 20
6546.666700827391
 30
0.0
 11
10278.60000000001
 21
6190.846633675651
 31
0.0
  0
LINE
  5
22558
330
21786
100
AcDbEntity
  8
寸法
 62
     0
 48
50.0
370
    -2
100
AcDbLine
 10
9593.600000000007
 20
6250.84663367565
 30
0.0
 11
10278.60000000001
 21
6250.84663367565
 31
0.0
  0
INSERT
  5
22559
330
21786
100
AcDbEntity
  8
寸法
 62
     0
 48
50.0
370
    -2
100
AcDbBlockReference
  2
_DOTSMALL
 10
9593.600000000007
 20
6250.84663367565
 30
0.0
 41
100.0
 42
100.0
 43
100.0
 50
180.0
  0
INSERT
  5
2255A
330
21786
100
AcDbEntity
  8
寸法
 62
     0
 48
50.0
370
    -2
100
AcDbBlockReference
  2
_DOTSMALL
 10
10278.60000000001
 20
6250.84663367565
 30
0.0
 41
100.0
 42
100.0
 43
100.0
  0
MTEXT
  5
2255B
330
21786
100
AcDbEntity
  8
寸法
 62
     7
 48
50.0
100
AcDbMText
 10
9959.541719262226
 20
6350.846633675651
 30
0.0
 40
120.0
 41
0.0
 71
     5
 72
     1
  1
\A1;685
  7
STYLE1
 73
     1
 44
1.0
1001
ACAD
1000
MTEXTBEGIN
1070
    73
1070
     1
1070
    44
1040
1.0
1070
    74
1070
     0
1000
MTEXTEND
  0
POINT
  5
2255C
330
21786
100
AcDbEntity
  8
DEFPOINTS
 62
     0
 48
50.0
100
AcDbPoint
 10
9593.600000000007
 20
6566.666700827392
 30
0.0
  0
POINT
  5
2255D
330
21786
100
AcDbEntity
  8
DEFPOINTS
 62
     0
 48
50.0
100
AcDbPoint
 10
10278.60000000001
 20
6566.666700827392
 30
0.0
  0
POINT
  5
2255E
330
21786
100
AcDbEntity
  8
DEFPOINTS
 62
     0
 48
50.0
100
AcDbPoint
 10
10278.60000000001
 20
6250.84663367565
 30
0.0
  0
ENDBLK
  5
21791
330
21786
100
AcDbEntity
  8
0
 48
50.0
100
AcDbBlockEnd
  0
BLOCK
  5
217DE
330
217D4
100
AcDbEntity
  8
0
 48
50.0
100
AcDbBlockBegin
  2
*D45
 70
     1
 10
0.0
 20
0.0
 30
0.0
  3
*D45
  1

  0
LINE
  5
2254D
330
217D4
100
AcDbEntity
  8
寸法
 62
     0
 48
50.0
370
    -2
100
AcDbLine
 10
8908.600000000008
 20
6546.666700827391
 30
0.0
 11
8908.600000000008
 21
6190.846633675651
 31
0.0
  0
LINE
  5
2254E
330
217D4
100
AcDbEntity
  8
寸法
 62
     0
 48
50.0
370
    -2
100
AcDbLine
 10
9593.600000000007
 20
6546.666700827391
 30
0.0
 11
9593.600000000007
 21
6190.846633675651
 31
0.0
  0
LINE
  5
2254F
330
217D4
100
AcDbEntity
  8
寸法
 62
     0
 48
50.0
370
    -2
100
AcDbLine
 10
8908.600000000008
 20
6250.84663367565
 30
0.0
 11
9593.600000000007
 21
6250.84663367565
 31
0.0
  0
INSERT
  5
22550
330
217D4
100
AcDbEntity
  8
寸法
 62
     0
 48
50.0
370
    -2
100
AcDbBlockReference
  2
_DOTSMALL
 10
8908.600000000008
 20
6250.84663367565
 30
0.0
 41
100.0
 42
100.0
 43
100.0
 50
180.0
  0
INSERT
  5
22551
330
217D4
100
AcDbEntity
  8
寸法
 62
     0
 48
50.0
370
    -2
100
AcDbBlockReference
  2
_DOTSMALL
 10
9593.600000000007
 20
6250.84663367565
 30
0.0
 41
100.0
 42
100.0
 43
100.0
  0
MTEXT
  5
22552
330
217D4
100
AcDbEntity
  8
寸法
 62
     7
 48
50.0
100
AcDbMText
 10
9265.801595782686
 20
6350.846633675651
 30
0.0
 40
120.0
 41
0.0
 71
     5
 72
     1
  1
\A1;685
  7
STYLE1
 73
     1
 44
1.0
1001
ACAD
1000
MTEXTBEGIN
1070
    73
1070
     1
1070
    44
1040
1.0
1070
    74
1070
     0
1000
MTEXTEND
  0
POINT
  5
22553
330
217D4
100
AcDbEntity
  8
DEFPOINTS
 62
     0
 48
50.0
100
AcDbPoint
 10
8908.600000000008
 20
6566.666700827392
 30
0.0
  0
POINT
  5
22554
330
217D4
100
AcDbEntity
  8
DEFPOINTS
 62
     0
 48
50.0
100
AcDbPoint
 10
9593.600000000007
 20
6566.666700827392
 30
0.0
  0
POINT
  5
22555
330
217D4
100
AcDbEntity
  8
DEFPOINTS
 62
     0
 48
50.0
100
AcDbPoint
 10
9593.600000000007
 20
6250.84663367565
 30
0.0
  0
ENDBLK
  5
217DF
330
217D4
100
AcDbEntity
  8
0
 48
50.0
100
AcDbBlockEnd
  0
BLOCK
  5
2252D
330
22523
100
AcDbEntity
  8
0
 48
50.0
100
AcDbBlockBegin
  2
*D46
 70
     1
 10
0.0
 20
0.0
 30
0.0
  3
*D46
  1

  0
LINE
  5
22538
330
22523
100
AcDbEntity
  8
寸法
 62
     0
 48
50.0
370
    -2
100
AcDbLine
 10
7658.600000000008
 20
6666.666700827391
 30
0.0
 11
7960.202738780326
 21
6666.666700827391
 31
0.0
  0
LINE
  5
22539
330
22523
100
AcDbEntity
  8
寸法
 62
     0
 48
50.0
370
    -2
100
AcDbLine
 10
7658.600000000008
 20
7331.666700827392
 30
0.0
 11
7960.202738780326
 21
7331.666700827392
 31
0.0
  0
LINE
  5
2253A
330
22523
100
AcDbEntity
  8
寸法
 62
     0
 48
50.0
370
    -2
100
AcDbLine
 10
7900.202738780326
 20
6666.666700827391
 30
0.0
 11
7900.202738780326
 21
7331.666700827392
 31
0.0
  0
INSERT
  5
2253B
330
22523
100
AcDbEntity
  8
寸法
 62
     0
 48
50.0
370
    -2
100
AcDbBlockReference
  2
_DOTSMALL
 10
7900.202738780326
 20
6666.666700827391
 30
0.0
 41
100.0
 42
100.0
 43
100.0
 50
270.0
  0
INSERT
  5
2253C
330
22523
100
AcDbEntity
  8
寸法
 62
     0
 48
50.0
370
    -2
100
AcDbBlockReference
  2
_DOTSMALL
 10
7900.202738780326
 20
7331.666700827392
 30
0.0
 41
100.0
 42
100.0
 43
100.0
 50
90.0
  0
MTEXT
  5
2253D
330
22523
100
AcDbEntity
  8
寸法
 62
     7
 48
50.0
100
AcDbMText
 10
7800.202738780325
 20
6999.166700827392
 30
0.0
 40
120.0
 41
0.0
 71
     5
 72
     1
  1
\A1;665
  7
STYLE1
 11
0.0000000000000001
 21
1.0
 31
0.0
 73
     1
 44
1.0
1001
ACAD
1000
MTEXTBEGIN
1070
    73
1070
     1
1070
    44
1040
1.0
1070
    74
1070
     0
1000
MTEXTEND
  0
POINT
  5
2253E
330
22523
100
AcDbEntity
  8
DEFPOINTS
 62
     0
 48
50.0
100
AcDbPoint
 10
7638.600000000008
 20
6666.666700827391
 30
0.0
  0
POINT
  5
2253F
330
22523
100
AcDbEntity
  8
DEFPOINTS
 62
     0
 48
50.0
100
AcDbPoint
 10
7638.600000000008
 20
7331.666700827392
 30
0.0
  0
POINT
  5
22540
330
22523
100
AcDbEntity
  8
DEFPOINTS
 62
     0
 48
50.0
100
AcDbPoint
 10
7900.202738780326
 20
7331.666700827392
 30
0.0
  0
ENDBLK
  5
2252E
330
22523
100
AcDbEntity
  8
0
 48
50.0
100
AcDbBlockEnd
  0
BLOCK
  5
22FC2
330
22FBF
100
AcDbEntity
  8
0
 48
50.0
100
AcDbBlockBegin
  2
A$C1B114A52
 70
     0
 10
0.0
 20
0.0
 30
0.0
  3
A$C1B114A52
  1

  0
SPLINE
  5
22FC0
330
22FBF
100
AcDbEntity
  8
細線
 48
50.0
100
AcDbSpline
210
0.0
220
0.0
230
1.0
 70
     8
 71
     3
 72
    10
 73
     6
 74
     4
 42
0.0000000001
 43
0.0000000001
 44
0.0000000001
 40
0.0
 40
0.0
 40
0.0
 40
0.0
 40
221.8151349015015
 40
452.7136639803716
 40
699.7573834631605
 40
699.7573834631605
 40
699.7573834631605
 40
699.7573834631605
 10
299.4788405600356
 20
1462.744093678542
 30
0.0
 10
184.1563168177836
 20
1449.387443191786
 30
0.0
 10
-51.21122149740722
 20
1422.127183502787
 30
0.0
 10
433.0088934191065
 20
1268.346306543773
 30
0.0
 10
178.2449639150466
 20
1240.393673475467
 30
0.0
 10
46.55995610470563
 20
1225.945228159504
 30
0.0
 11
299.4788405600356
 21
1462.744093678542
 31
0.0
 11
85.22187309688161
 21
1405.334112274049
 31
0.0
 11
285.1858649756432
 21
1289.884847734614
 31
0.0
 11
46.55995610470563
 21
1225.945228159504
 31
0.0
  0
LINE
  5
22FC1
330
22FBF
100
AcDbEntity
  8
細線
 48
50.0
100
AcDbLine
 10
379.941829021238
 20
2678.985125977229
 30
0.0
 11
-0.0000000000109139
 21
-0.0000042495612433
 31
0.0
  0
ENDBLK
  5
22FC3
330
22FBF
100
AcDbEntity
  8
0
 48
50.0
100
AcDbBlockEnd
  0
BLOCK
  5
235E0
330
235D6
100
AcDbEntity
  8
0
 48
50.0
100
AcDbBlockBegin
  2
*D60
 70
     1
 10
0.0
 20
0.0
 30
0.0
  3
*D60
  1

  0
LINE
  5
23623
330
235D6
100
AcDbEntity
  8
寸法
 62
     0
 48
50.0
370
    -2
100
AcDbLine
 10
8561.481543216926
 20
2033.965114633784
 30
0.0
 11
9103.350142985773
 21
2033.965114633784
 31
0.0
  0
LINE
  5
23624
330
235D6
100
AcDbEntity
  8
寸法
 62
     0
 48
50.0
370
    -2
100
AcDbLine
 10
8561.481543216926
 20
1709.965114633783
 30
0.0
 11
9103.350142985773
 21
1709.965114633783
 31
0.0
  0
LINE
  5
23625
330
235D6
100
AcDbEntity
  8
寸法
 62
     0
 48
50.0
370
    -2
100
AcDbLine
 10
9043.350142985771
 20
2033.965114633784
 30
0.0
 11
9043.350142985771
 21
1709.965114633783
 31
0.0
  0
INSERT
  5
23626
330
235D6
100
AcDbEntity
  8
寸法
 62
     0
 48
50.0
370
    -2
100
AcDbBlockReference
  2
_DOTSMALL
 10
9043.350142985771
 20
2033.965114633784
 30
0.0
 41
100.0
 42
100.0
 43
100.0
 50
90.0
  0
INSERT
  5
23627
330
235D6
100
AcDbEntity
  8
寸法
 62
     0
 48
50.0
370
    -2
100
AcDbBlockReference
  2
_DOTSMALL
 10
9043.350142985771
 20
1709.965114633783
 30
0.0
 41
100.0
 42
100.0
 43
100.0
 50
270.0
  0
MTEXT
  5
23628
330
235D6
100
AcDbEntity
  8
寸法
 62
     7
 48
50.0
100
AcDbMText
 10
8943.350142985771
 20
1871.965114633785
 30
0.0
 40
120.0
 41
0.0
 71
     5
 72
     1
  1
\A1;180
  7
STYLE1
 11
0.0000000000000001
 21
1.0
 31
0.0
 73
     1
 44
1.0
1001
ACAD
1000
MTEXTBEGIN
1070
    73
1070
     1
1070
    44
1040
1.0
1070
    74
1070
     0
1000
MTEXTEND
  0
POINT
  5
23629
330
235D6
100
AcDbEntity
  8
DEFPOINTS
 62
     0
 48
50.0
100
AcDbPoint
 10
8541.481543216928
 20
2033.965114633784
 30
0.0
  0
POINT
  5
2362A
330
235D6
100
AcDbEntity
  8
DEFPOINTS
 62
     0
 48
50.0
100
AcDbPoint
 10
8541.481543216928
 20
1709.965114633783
 30
0.0
  0
POINT
  5
2362B
330
235D6
100
AcDbEntity
  8
DEFPOINTS
 62
     0
 48
50.0
100
AcDbPoint
 10
9043.350142985771
 20
1709.965114633783
 30
0.0
  0
ENDBLK
  5
235E1
330
235D6
100
AcDbEntity
  8
0
 48
50.0
100
AcDbBlockEnd
  0
BLOCK
  5
235F1
330
235E2
100
AcDbEntity
  8
0
 48
50.0
100
AcDbBlockBegin
  2
*D61
 70
     1
 10
0.0
 20
0.0
 30
0.0
  3
*D61
  1

  0
LINE
  5
2362C
330
235E2
100
AcDbEntity
  8
寸法
 62
     0
 48
50.0
370
    -2
100
AcDbLine
 10
8374.28154321693
 20
2086.725114633785
 30
0.0
 11
9103.350142985773
 21
2086.725114633785
 31
0.0
  0
LINE
  5
2362D
330
235E2
100
AcDbEntity
  8
寸法
 62
     0
 48
50.0
370
    -2
100
AcDbLine
 10
8561.481543216926
 20
2033.965114633784
 30
0.0
 11
9103.350142985773
 21
2033.965114633784
 31
0.0
  0
LINE
  5
2362E
330
235E2
100
AcDbEntity
  8
寸法
 62
     0
 48
50.0
370
    -2
100
AcDbLine
 10
9043.350142985771
 20
2086.725114633785
 30
0.0
 11
9043.350142985771
 21
2186.725114633786
 31
0.0
  0
LINE
  5
2362F
330
235E2
100
AcDbEntity
  8
寸法
 62
     0
 48
50.0
370
    -2
100
AcDbLine
 10
9043.350142985771
 20
2033.965114633784
 30
0.0
 11
9043.350142985771
 21
1933.965114633784
 31
0.0
  0
LINE
  5
23630
330
235E2
100
AcDbEntity
  8
寸法
 62
     0
 48
50.0
370
    -2
100
AcDbLine
 10
9043.350142985771
 20
2060.345114633785
 30
0.0
 11
9319.404809104799
 21
2048.841157029571
 31
0.0
  0
LINE
  5
23631
330
235E2
100
AcDbEntity
  8
寸法
 62
     0
 48
50.0
370
    -2
100
AcDbLine
 10
9319.404809104799
 20
2048.841157029571
 30
0.0
 11
9319.404809104799
 21
1516.823350186605
 31
0.0
  0
MTEXT
  5
23632
330
235E2
100
AcDbEntity
  8
寸法
 62
     7
 48
50.0
100
AcDbMText
 10
9219.392998081177
 20
1782.83225360809
 30
0.0
 40
120.0
 41
0.0
 71
     5
 72
     1
  1
\A1;20～25
  7
STYLE1
 11
0.0000000000000001
 21
1.0
 31
0.0
 73
     1
 44
1.0
1001
ACAD
1000
MTEXTBEGIN
1070
    73
1070
     1
1070
    44
1040
1.0
1070
    74
1070
     0
1000
MTEXTEND
  0
LINE
  5
23633
330
235E2
100
AcDbEntity
  8
寸法
 62
     0
 48
50.0
370
    -2
100
AcDbLine
 10
9043.350142985771
 20
2086.725114633785
 30
0.0
 11
9043.350142985771
 21
2033.965114633784
 31
0.0
  0
LINE
  5
23634
330
235E2
100
AcDbEntity
  8
寸法
 62
     0
 48
50.0
370
    -2
100
AcDbLine
 10
9043.350142985771
 20
2086.725114633785
 30
0.0
 11
9043.350142985771
 21
2033.965114633784
 31
0.0
  0
INSERT
  5
23635
330
235E2
100
AcDbEntity
  8
寸法
 62
     0
 48
50.0
370
    -2
100
AcDbBlockReference
  2
_DOTSMALL
 10
9043.350142985771
 20
2086.725114633785
 30
0.0
 41
100.0
 42
100.0
 43
100.0
 50
270.0
  0
INSERT
  5
23636
330
235E2
100
AcDbEntity
  8
寸法
 62
     0
 48
50.0
370
    -2
100
AcDbBlockReference
  2
_DOTSMALL
 10
9043.350142985771
 20
2033.965114633784
 30
0.0
 41
100.0
 42
100.0
 43
100.0
 50
90.0
  0
POINT
  5
23637
330
235E2
100
AcDbEntity
  8
DEFPOINTS
 62
     0
 48
50.0
100
AcDbPoint
 10
8354.281543216931
 20
2086.725114633785
 30
0.0
  0
POINT
  5
23638
330
235E2
100
AcDbEntity
  8
DEFPOINTS
 62
     0
 48
50.0
100
AcDbPoint
 10
8541.481543216928
 20
2033.965114633784
 30
0.0
  0
POINT
  5
23639
330
235E2
100
AcDbEntity
  8
DEFPOINTS
 62
     0
 48
50.0
100
AcDbPoint
 10
9043.350142985771
 20
2033.965114633784
 30
0.0
  0
ENDBLK
  5
235F2
330
235E2
100
AcDbEntity
  8
0
 48
50.0
100
AcDbBlockEnd
  0
BLOCK
  5
235FD
330
235F3
100
AcDbEntity
  8
0
 48
50.0
100
AcDbBlockBegin
  2
*D62
 70
     1
 10
0.0
 20
0.0
 30
0.0
  3
*D62
  1

  0
LINE
  5
2363A
330
235F3
100
AcDbEntity
  8
寸法
 62
     0
 48
50.0
370
    -2
100
AcDbLine
 10
6279.442230039736
 20
1489.965114633784
 30
0.0
 11
6097.021916307276
 21
1489.965114633784
 31
0.0
  0
LINE
  5
2363B
330
235F3
100
AcDbEntity
  8
寸法
 62
     0
 48
50.0
370
    -2
100
AcDbLine
 10
6199.442230039739
 20
1249.965114633784
 30
0.0
 11
6097.021916307276
 21
1249.965114633784
 31
0.0
  0
LINE
  5
2363C
330
235F3
100
AcDbEntity
  8
寸法
 62
     0
 48
50.0
370
    -2
100
AcDbLine
 10
6157.021916307276
 20
1489.965114633784
 30
0.0
 11
6157.021916307276
 21
1249.965114633784
 31
0.0
  0
MTEXT
  5
2363D
330
235F3
100
AcDbEntity
  8
寸法
 62
     7
 48
50.0
100
AcDbMText
 10
6057.021916307276
 20
1369.965114633784
 30
0.0
 40
120.0
 41
0.0
 71
     5
 72
     1
  1
\A1;150
  7
STYLE1
 11
0.0000000000000001
 21
1.0
 31
0.0
 73
     1
 44
1.0
1001
ACAD
1000
MTEXTBEGIN
1070
    73
1070
     1
1070
    44
1040
1.0
1070
    74
1070
     0
1000
MTEXTEND
  0
INSERT
  5
2363E
330
235F3
100
AcDbEntity
  8
寸法
 62
     0
 48
50.0
370
    -2
100
AcDbBlockReference
  2
_DOTSMALL
 10
6157.021916307276
 20
1489.965114633784
 30
0.0
 41
100.0
 42
100.0
 43
100.0
 50
90.0
  0
INSERT
  5
2363F
330
235F3
100
AcDbEntity
  8
寸法
 62
     0
 48
50.0
370
    -2
100
AcDbBlockReference
  2
_DOTSMALL
 10
6157.021916307276
 20
1249.965114633784
 30
0.0
 41
100.0
 42
100.0
 43
100.0
 50
270.0
  0
POINT
  5
23640
330
235F3
100
AcDbEntity
  8
DEFPOINTS
 62
     0
 48
50.0
100
AcDbPoint
 10
6299.442230039735
 20
1489.965114633784
 30
0.0
  0
POINT
  5
23641
330
235F3
100
AcDbEntity
  8
DEFPOINTS
 62
     0
 48
50.0
100
AcDbPoint
 10
6219.442230039739
 20
1249.965114633784
 30
0.0
  0
POINT
  5
23642
330
235F3
100
AcDbEntity
  8
DEFPOINTS
 62
     0
 48
50.0
100
AcDbPoint
 10
6157.021916307276
 20
1249.965114633784
 30
0.0
  0
ENDBLK
  5
235FE
330
235F3
100
AcDbEntity
  8
0
 48
50.0
100
AcDbBlockEnd
  0
BLOCK
  5
23609
330
235FF
100
AcDbEntity
  8
0
 48
50.0
100
AcDbBlockBegin
  2
*D63
 70
     1
 10
0.0
 20
0.0
 30
0.0
  3
*D63
  1

  0
LINE
  5
23643
330
235FF
100
AcDbEntity
  8
寸法
 62
     0
 48
50.0
370
    -2
100
AcDbLine
 10
6407.442230039736
 20
2033.965114633784
 30
0.0
 11
5632.404991477995
 21
2033.965114633784
 31
0.0
  0
LINE
  5
23644
330
235FF
100
AcDbEntity
  8
寸法
 62
     0
 48
50.0
370
    -2
100
AcDbLine
 10
6199.442230039739
 20
1249.965114633784
 30
0.0
 11
5632.404991477995
 21
1249.965114633784
 31
0.0
  0
LINE
  5
23645
330
235FF
100
AcDbEntity
  8
寸法
 62
     0
 48
50.0
370
    -2
100
AcDbLine
 10
5692.404991477996
 20
2033.965114633784
 30
0.0
 11
5692.404991477996
 21
1249.965114633784
 31
0.0
  0
MTEXT
  5
23646
330
235FF
100
AcDbEntity
  8
寸法
 62
     7
 48
50.0
100
AcDbMText
 10
5592.404991477995
 20
1621.505264289785
 30
0.0
 40
120.0
 41
0.0
 71
     5
 72
     1
  1
\A1;540
  7
STYLE1
 11
0.0000000000000001
 21
1.0
 31
0.0
 73
     1
 44
1.0
1001
ACAD
1000
MTEXTBEGIN
1070
    73
1070
     1
1070
    44
1040
1.0
1070
    74
1070
     0
1000
MTEXTEND
  0
INSERT
  5
23647
330
235FF
100
AcDbEntity
  8
寸法
 62
     0
 48
50.0
370
    -2
100
AcDbBlockReference
  2
_DOTSMALL
 10
5692.404991477996
 20
2033.965114633784
 30
0.0
 41
100.0
 42
100.0
 43
100.0
 50
90.0
  0
INSERT
  5
23648
330
235FF
100
AcDbEntity
  8
寸法
 62
     0
 48
50.0
370
    -2
100
AcDbBlockReference
  2
_DOTSMALL
 10
5692.404991477996
 20
1249.965114633784
 30
0.0
 41
100.0
 42
100.0
 43
100.0
 50
270.0
  0
POINT
  5
23649
330
235FF
100
AcDbEntity
  8
DEFPOINTS
 62
     0
 48
50.0
100
AcDbPoint
 10
6427.442230039736
 20
2033.965114633784
 30
0.0
  0
POINT
  5
2364A
330
235FF
100
AcDbEntity
  8
DEFPOINTS
 62
     0
 48
50.0
100
AcDbPoint
 10
6219.442230039739
 20
1249.965114633784
 30
0.0
  0
POINT
  5
2364B
330
235FF
100
AcDbEntity
  8
DEFPOINTS
 62
     0
 48
50.0
100
AcDbPoint
 10
5692.404991477996
 20
1249.965114633784
 30
0.0
  0
ENDBLK
  5
2360A
330
235FF
100
AcDbEntity
  8
0
 48
50.0
100
AcDbBlockEnd
  0
BLOCK
  5
23615
330
2360B
100
AcDbEntity
  8
0
 48
50.0
100
AcDbBlockBegin
  2
*D64
 70
     1
 10
0.0
 20
0.0
 30
0.0
  3
*D64
  1

  0
LINE
  5
2364C
330
2360B
100
AcDbEntity
  8
寸法
 62
     0
 48
50.0
370
    -2
100
AcDbLine
 10
6299.442230039735
 20
1101.965114633784
 30
0.0
 11
6299.442230039735
 21
651.535476628624
 31
0.0
  0
LINE
  5
2364D
330
2360B
100
AcDbEntity
  8
寸法
 62
     0
 48
50.0
370
    -2
100
AcDbLine
 10
6747.442230039735
 20
1101.965114633784
 30
0.0
 11
6747.442230039735
 21
651.535476628624
 31
0.0
  0
LINE
  5
2364E
330
2360B
100
AcDbEntity
  8
寸法
 62
     0
 48
50.0
370
    -2
100
AcDbLine
 10
6299.442230039735
 20
711.5354766286241
 30
0.0
 11
6747.442230039735
 21
711.5354766286241
 31
0.0
  0
MTEXT
  5
2364F
330
2360B
100
AcDbEntity
  8
寸法
 62
     7
 48
50.0
100
AcDbMText
 10
6503.345471361511
 20
811.5354766286241
 30
0.0
 40
120.0
 41
0.0
 71
     5
 72
     1
  1
\A1;300
  7
STYLE1
 73
     1
 44
1.0
1001
ACAD
1000
MTEXTBEGIN
1070
    73
1070
     1
1070
    44
1040
1.0
1070
    74
1070
     0
1000
MTEXTEND
  0
INSERT
  5
23650
330
2360B
100
AcDbEntity
  8
寸法
 62
     0
 48
50.0
370
    -2
100
AcDbBlockReference
  2
_DOTSMALL
 10
6299.442230039735
 20
711.5354766286241
 30
0.0
 41
100.0
 42
100.0
 43
100.0
 50
180.0
  0
INSERT
  5
23651
330
2360B
100
AcDbEntity
  8
寸法
 62
     0
 48
50.0
370
    -2
100
AcDbBlockReference
  2
_DOTSMALL
 10
6747.442230039735
 20
711.5354766286241
 30
0.0
 41
100.0
 42
100.0
 43
100.0
  0
POINT
  5
23652
330
2360B
100
AcDbEntity
  8
DEFPOINTS
 62
     0
 48
50.0
100
AcDbPoint
 10
6299.442230039735
 20
1121.965114633784
 30
0.0
  0
POINT
  5
23653
330
2360B
100
AcDbEntity
  8
DEFPOINTS
 62
     0
 48
50.0
100
AcDbPoint
 10
6747.442230039735
 20
1121.965114633784
 30
0.0
  0
POINT
  5
23654
330
2360B
100
AcDbEntity
  8
DEFPOINTS
 62
     0
 48
50.0
100
AcDbPoint
 10
6747.442230039735
 20
711.5354766286241
 30
0.0
  0
ENDBLK
  5
23616
330
2360B
100
AcDbEntity
  8
0
 48
50.0
100
AcDbBlockEnd
  0
BLOCK
  5
23621
330
23617
100
AcDbEntity
  8
0
 48
50.0
100
AcDbBlockBegin
  2
*D65
 70
     1
 10
0.0
 20
0.0
 30
0.0
  3
*D65
  1

  0
LINE
  5
23655
330
23617
100
AcDbEntity
  8
寸法
 62
     0
 48
50.0
370
    -2
100
AcDbLine
 10
6619.442230039735
 20
2053.965114633784
 30
0.0
 11
6619.442230039735
 21
2413.965114633784
 31
0.0
  0
LINE
  5
23656
330
23617
100
AcDbEntity
  8
寸法
 62
     0
 48
50.0
370
    -2
100
AcDbLine
 10
6427.442230039736
 20
2053.965114633784
 30
0.0
 11
6427.442230039736
 21
2413.965114633784
 31
0.0
  0
LINE
  5
23657
330
23617
100
AcDbEntity
  8
寸法
 62
     0
 48
50.0
370
    -2
100
AcDbLine
 10
6619.442230039735
 20
2353.965114633784
 30
0.0
 11
6427.442230039736
 21
2353.965114633784
 31
0.0
  0
MTEXT
  5
23658
330
23617
100
AcDbEntity
  8
寸法
 62
     7
 48
50.0
100
AcDbMText
 10
6534.668560384933
 20
2753.668355621031
 30
0.0
 40
120.0
 41
0.0
 71
     5
 72
     1
  1
\A1;120\P200\P280
  7
STYLE1
 73
     1
 44
1.0
1001
ACAD
1000
MTEXTBEGIN
1070
    73
1070
     1
1070
    44
1040
1.0
1070
    74
1070
     0
1000
MTEXTEND
  0
INSERT
  5
23659
330
23617
100
AcDbEntity
  8
寸法
 62
     0
 48
50.0
370
    -2
100
AcDbBlockReference
  2
_DOTSMALL
 10
6619.442230039735
 20
2353.965114633784
 30
0.0
 41
100.0
 42
100.0
 43
100.0
  0
INSERT
  5
2365A
330
23617
100
AcDbEntity
  8
寸法
 62
     0
 48
50.0
370
    -2
100
AcDbBlockReference
  2
_DOTSMALL
 10
6427.442230039736
 20
2353.965114633784
 30
0.0
 41
100.0
 42
100.0
 43
100.0
 50
180.0
  0
POINT
  5
2365B
330
23617
100
AcDbEntity
  8
DEFPOINTS
 62
     0
 48
50.0
100
AcDbPoint
 10
6619.442230039735
 20
2033.965114633784
 30
0.0
  0
POINT
  5
2365C
330
23617
100
AcDbEntity
  8
DEFPOINTS
 62
     0
 48
50.0
100
AcDbPoint
 10
6427.442230039736
 20
2033.965114633784
 30
0.0
  0
POINT
  5
2365D
330
23617
100
AcDbEntity
  8
DEFPOINTS
 62
     0
 48
50.0
100
AcDbPoint
 10
6427.442230039736
 20
2353.965114633784
 30
0.0
  0
ENDBLK
  5
23622
330
23617
100
AcDbEntity
  8
0
 48
50.0
100
AcDbBlockEnd
  0
ENDSEC
  0
SECTION
  2
ENTITIES
  0
MTEXT
  5
763F
330
747D
100
AcDbEntity
  8
0
100
AcDbMText
 10
302.846345836809
 20
280.1983726409901
 30
0.0
 40
3.5
 41
5.323721266742722
 71
     1
 72
     5
  1

  7
MSMINCHO
 73
     1
 44
1.0
1001
ACAD
1000
MTEXTBEGIN
1070
    73
1070
     1
1070
    44
1040
1.0
1070
    74
1070
     0
1000
MTEXTEND
  0
LINE
  5
10B57
330
747D
100
AcDbEntity
  8
補助
  6
PHANTOM
 62
   230
 48
50.0
100
AcDbLine
 10
139.9999999999995
 20
11409.6
 30
0.0
 11
16307.2
 21
11409.6
 31
0.0
  0
LINE
  5
10B59
330
747D
100
AcDbEntity
  8
仕様書枠
  6
Continuous
 48
50.0
100
AcDbLine
 10
13107.2
 20
1200.0
 30
0.0
 11
13107.2
 21
-0.0000000000000729
 31
0.0
  0
LINE
  5
10B5D
330
747D
100
AcDbEntity
  8
仕様書枠
 48
50.0
100
AcDbLine
 10
140.0
 20
0.0
 30
0.0
 11
16307.2
 21
-0.0000000000000909
 31
0.0
  0
LINE
  5
10B5E
330
747D
100
AcDbEntity
  8
補助
  6
PHANTOM
 62
   230
 48
50.0
100
AcDbLine
 10
16307.2
 20
11409.6
 30
0.0
 11
16307.2
 21
1200.0
 31
0.0
  0
LINE
  5
10B6C
330
747D
100
AcDbEntity
  8
仕様書枠
 48
50.0
100
AcDbLine
 10
13107.2
 20
1200.0
 30
0.0
 11
16307.2
 21
1200.0
 31
0.0
  0
TEXT
  5
10B73
330
747D
100
AcDbEntity
  8
文字
 62
     7
 48
50.0
100
AcDbText
 10
13162.9790565769
 20
895.0906074299405
 30
0.0
 40
200.0
  1
基 礎 図
  7
STYLE2
100
AcDbText
  0
LINE
  5
10B7B
330
747D
100
AcDbEntity
  8
仕様書枠
 48
50.0
100
AcDbLine
 10
13107.2
 20
800.0
 30
0.0
 11
14251.2
 21
800.0
 31
0.0
  0
LINE
  5
10B88
330
747D
100
AcDbEntity
  8
仕様書枠
  6
Continuous
 48
50.0
100
AcDbLine
 10
14251.2
 20
1200.0
 30
0.0
 11
14251.2
 21
800.0
 31
0.0
  0
LINE
  5
16462
330
747D
100
AcDbEntity
  8
仕様書枠
 48
50.0
100
AcDbLine
 10
16307.2
 20
1200.0
 30
0.0
 11
16307.2
 21
-0.0000000000000909
 31
0.0
  0
LINE
  5
1903B
330
747D
100
AcDbEntity
  8
補助
  6
PHANTOM
 62
   230
 48
50.0
100
AcDbLine
 10
140.0
 20
0.0
 30
0.0
 11
139.9999999999995
 21
11409.6
 31
0.0
  0
TEXT
  5
1C7A1
330
747D
100
AcDbEntity
  8
文字
 62
     7
 48
50.0
100
AcDbText
 10
13188.16259899338
 20
79.80631269190417
 30
0.0
 40
80.0
  1
※布基礎には換気口を設けてください。
  7
STYLE2
100
AcDbText
  0
TEXT
  5
1C7E7
330
747D
100
AcDbEntity
  8
文字
 62
     7
 48
50.0
100
AcDbText
 10
13188.16259899338
 20
246.7109242801889
 30
0.0
 40
80.0
  1
※寒冷地等は地域の実情に合わせた基礎にして下さい。
  7
STYLE2
100
AcDbText
  0
TEXT
  5
1C7E8
330
747D
100
AcDbEntity
  8
文字
 62
     7
 48
50.0
100
AcDbText
 10
14478.98566430227
 20
499.5983841039506
 30
0.0
 40
160.0
  1
ＮＸＮ－３０ＣＳＬ
  7
STYLE2
100
AcDbText
  0
TEXT
  5
1C7E9
330
747D
100
AcDbEntity
  8
文字
 62
     7
 48
50.0
100
AcDbText
 10
14641.2525855784
 20
871.1744590657927
 30
0.0
 40
100.0
  1
～一般型・多雪地型～
  7
STYLE2
100
AcDbText
  0
TEXT
  5
1C7EC
330
747D
100
AcDbEntity
  8
文字
 62
     7
 48
50.0
100
AcDbText
 10
14524.131837222
 20
1031.557706291229
 30
0.0
 40
100.0
  1
      <縮尺> S=1/40
  7
STYLE2
100
AcDbText
  0
TEXT
  5
1C7ED
330
747D
100
AcDbEntity
  8
文字
 62
     7
 48
50.0
100
AcDbText
 10
13201.43669998441
 20
477.2740661031257
 30
0.0
 40
160.0
  1
機種名
  7
STYLE2
100
AcDbText
  0
LINE
  5
1C7EF
330
747D
100
AcDbEntity
  8
文字
 62
     7
 48
50.0
100
AcDbLine
 10
13187.2
 20
400.0
 30
0.0
 11
16227.2
 21
400.0
 31
0.0
  0
DIMENSION
  5
1FA1F
330
747D
100
AcDbEntity
  8
寸法
 48
50.0
100
AcDbDimension
  2
*D19
 10
8105.6
 20
8754.275517497637
 30
0.0
 11
8790.600000000001
 21
8854.275517497638
 31
0.0
 70
    32
 71
     5
 42
1370.0
  3
INABA_S40G
100
AcDbAlignedDimension
 13
9475.6
 23
7998.666700827391
 33
0.0
 14
8105.6
 24
7998.666700827391
 34
0.0
100
AcDbRotatedDimension
1001
ACAD
1000
DSTYLE
1002
{
1070
   341
1005
0
1002
}
  0
LINE
  5
1FA20
330
747D
100
AcDbEntity
  8
部品1
 48
50.0
100
AcDbLine
 10
10848.6
 20
7871.666700827393
 30
0.0
 11
5598.600000000001
 21
7871.66670082724
 31
0.0
  0
DIMENSION
  5
1FA21
330
747D
100
AcDbEntity
  8
寸法
 48
50.0
100
AcDbDimension
  2
*D20
 10
10968.6
 20
9229.887022886313
 30
0.0
 11
8223.600000000001
 21
9335.887022886312
 31
0.0
 70
    32
  1
N(連続数)x1370+10
 71
     5
 42
5490.0
  3
INABA_S40G
100
AcDbAlignedDimension
 13
5478.6
 23
8071.666700827391
 33
0.0
 14
10968.6
 24
8071.666700827391
 34
0.0
100
AcDbRotatedDimension
1001
ACAD
1000
DSTYLE
1002
{
1070
   341
1005
0
1002
}
  0
LINE
  5
1FA22
330
747D
100
AcDbEntity
  8
部品1
 48
50.0
100
AcDbLine
 10
10968.6
 20
8071.666700827391
 30
0.0
 11
5478.6
 21
8071.666700827391
 31
0.0
  0
LINE
  5
1FA23
330
747D
100
AcDbEntity
  8
部品1
 48
50.0
100
AcDbLine
 10
10848.6
 20
6131.66670082741
 30
0.0
 11
5598.600000000001
 21
6131.666700827395
 31
0.0
  0
LINE
  5
1FA25
330
747D
100
AcDbEntity
  8
部品1
 48
50.0
100
AcDbLine
 10
10968.6
 20
5851.66670082741
 30
0.0
 11
5478.6
 21
5851.666700827397
 31
0.0
  0
DIMENSION
  5
1FA26
330
747D
100
AcDbEntity
  8
寸法
 48
50.0
100
AcDbDimension
  2
*D21
 10
8223.600000000008
 20
8997.9331589213
 30
0.0
 11
8908.600000000008
 21
9097.9331589213
 31
0.0
 70
    32
 71
     5
 42
1370.0
  3
INABA_S40G
100
AcDbAlignedDimension
 13
9593.600000000007
 23
8754.275517497637
 33
0.0
 14
8223.600000000008
 24
8754.275517497637
 34
0.0
100
AcDbRotatedDimension
1001
ACAD
1000
DSTYLE
1002
{
1070
   341
1005
0
1002
}
  0
DIMENSION
  5
1FA2F
330
747D
100
AcDbEntity
  8
寸法
 48
50.0
100
AcDbDimension
  2
*D22
 10
4594.08735343128
 20
5851.666700827392
 30
0.0
 11
4594.087353431279
 21
5516.135751984799
 31
0.0
 70
   160
 71
     5
 42
198.0000000000018
  3
INABA_S40G
100
AcDbAlignedDimension
 13
5551.600000000007
 23
6049.666700827394
 33
0.0
 14
5478.6
 24
5851.666700827392
 34
0.0
 50
90.0
100
AcDbRotatedDimension
1001
ACAD
1000
DSTYLE
1002
{
1070
   341
1005
0
1002
}
  0
DIMENSION
  5
1FB0C
330
747D
100
AcDbEntity
  8
寸法
 48
50.0
100
AcDbDimension
  2
*D23
 10
4342.144256711883
 20
5851.666700827392
 30
0.0
 11
4342.144256711883
 21
6961.666700827392
 31
0.0
 70
   160
 71
     5
 42
2220.0
  3
INABA_S40G
100
AcDbAlignedDimension
 13
5478.6
 23
8071.666700827391
 33
0.0
 14
5478.6
 24
5851.666700827392
 34
0.0
 50
90.0
100
AcDbRotatedDimension
1001
ACAD
1000
DSTYLE
1002
{
1070
   341
1005
0
1002
}
  0
DIMENSION
  5
1FB0E
330
747D
100
AcDbEntity
  8
寸法
 48
50.0
100
AcDbDimension
  2
*D24
 10
4594.08735343128
 20
7948.666700827391
 30
0.0
 11
4594.087353431279
 21
8344.773302545192
 31
0.0
 70
   160
 71
     5
 42
123.0
  3
INABA_S40G
100
AcDbAlignedDimension
 13
5478.6
 23
8071.666700827391
 33
0.0
 14
5551.6
 24
7948.666700827391
 34
0.0
 50
90.0
100
AcDbRotatedDimension
1001
ACAD
1000
DSTYLE
1002
{
1070
   341
1005
0
1002
}
  0
DIMENSION
  5
1FB0F
330
747D
100
AcDbEntity
  8
寸法
 48
50.0
100
AcDbDimension
  2
*D25
 10
5478.6
 20
8754.275517497637
 30
0.0
 11
5205.493398282202
 21
8754.275517497637
 31
0.0
 70
   160
 71
     5
 42
123.0
  3
INABA_S40G
100
AcDbAlignedDimension
 13
5601.600000000001
 23
7998.666700827391
 33
0.0
 14
5478.6
 24
8071.666700827391
 34
0.0
100
AcDbRotatedDimension
1001
ACAD
1000
DSTYLE
1002
{
1070
   341
1005
0
1002
}
  0
DIMENSION
  5
1FB10
330
747D
100
AcDbEntity
  8
寸法
 48
50.0
100
AcDbDimension
  2
*D26
 10
4594.087353431282
 20
6049.666700827394
 30
0.0
 11
4594.087353431281
 21
6999.166700827392
 31
0.0
 70
   160
 71
     5
 42
1898.999999999998
  3
INABA_S40G
100
AcDbAlignedDimension
 13
5551.6
 23
7948.666700827391
 33
0.0
 14
5551.600000000007
 24
6049.666700827394
 34
0.0
 50
90.0
100
AcDbRotatedDimension
1001
ACAD
1000
DSTYLE
1002
{
1070
   341
1005
0
1002
}
  0
DIMENSION
  5
1FB11
330
747D
100
AcDbEntity
  8
寸法
 48
50.0
100
AcDbDimension
  2
*D27
 10
5478.6
 20
8997.9331589213
 30
0.0
 11
6166.100000000004
 21
9097.9331589213
 31
0.0
 70
    32
 71
     5
 42
1375.000000000007
  3
INABA_S40G
100
AcDbAlignedDimension
 13
6853.600000000007
 23
8754.275517497637
 33
0.0
 14
5478.6
 24
8071.666700827391
 34
0.0
100
AcDbRotatedDimension
1001
ACAD
1000
DSTYLE
1002
{
1070
   341
1005
0
1002
}
  0
LINE
  5
1FB14
330
747D
100
AcDbEntity
  8
寸法
 48
50.0
100
AcDbLine
 10
6735.600000000001
 20
8754.275517497637
 30
0.0
 11
7270.151108115732
 21
8754.275517497637
 31
0.0
  0
LINE
  5
1FB23
102
{ACAD_REACTORS
330
22C49
102
}
330
747D
100
AcDbEntity
  8
部品1
 48
50.0
100
AcDbLine
 10
5478.6
 20
5851.666700827392
 30
0.0
 11
5478.6
 21
8071.666700827391
 31
0.0
  0
DIMENSION
  5
1FB37
330
747D
100
AcDbEntity
  8
寸法
 48
50.0
100
AcDbDimension
  2
*D28
 10
5601.600000000001
 20
8754.275517497637
 30
0.0
 11
6168.600000000001
 21
8854.275517497638
 31
0.0
 70
    32
 71
     5
 42
1134.0
  3
INABA_S40G
100
AcDbAlignedDimension
 13
6735.600000000001
 23
7998.666700827391
 33
0.0
 14
5601.600000000001
 24
7998.666700827391
 34
0.0
100
AcDbRotatedDimension
1001
ACAD
1000
DSTYLE
1002
{
1070
   341
1005
0
1002
}
  0
LINE
  5
1FB5A
330
747D
100
AcDbEntity
  8
センター
 48
2.0
100
AcDbLine
 10
8055.600000000008
 20
6049.666700827394
 30
0.0
 11
8155.600000000008
 21
6049.666700827394
 31
0.0
  0
CIRCLE
  5
1FB5B
330
747D
100
AcDbEntity
  8
部品1
 48
50.0
100
AcDbCircle
 10
8105.600000000007
 20
6049.666700827394
 30
0.0
 40
35.0
  0
LINE
  5
1FB5C
330
747D
100
AcDbEntity
  8
センター
 48
2.0
100
AcDbLine
 10
8105.600000000007
 20
6099.666700827394
 30
0.0
 11
8105.600000000007
 21
5999.666700827393
 31
0.0
  0
LINE
  5
1FB67
330
747D
100
AcDbEntity
  8
寸法
 48
50.0
100
AcDbLine
 10
8105.6
 20
8754.275517497637
 30
0.0
 11
7616.10007504358
 21
8754.275517497637
 31
0.0
  0
LINE
  5
1FB6C
330
747D
100
AcDbEntity
  8
寸法
 48
50.0
100
AcDbLine
 10
6853.600000000007
 20
8997.9331589213
 30
0.0
 11
7388.151108115739
 21
8997.9331589213
 31
0.0
  0
CIRCLE
  5
1FB6D
330
747D
100
AcDbEntity
  8
部品1
 48
50.0
100
AcDbCircle
 10
8105.6
 20
7948.666700827391
 30
0.0
 40
35.0
  0
LINE
  5
1FB6E
330
747D
100
AcDbEntity
  8
センター
 48
2.0
100
AcDbLine
 10
8105.6
 20
7998.666700827391
 30
0.0
 11
8105.6
 21
7898.666700827391
 31
0.0
  0
LINE
  5
1FB6F
330
747D
100
AcDbEntity
  8
センター
 48
2.0
100
AcDbLine
 10
8055.600000000001
 20
7948.666700827391
 30
0.0
 11
8155.600000000001
 21
7948.666700827391
 31
0.0
  0
LINE
  5
1FB71
330
747D
100
AcDbEntity
  8
寸法
 48
50.0
100
AcDbLine
 10
8223.600000000008
 20
8997.9331589213
 30
0.0
 11
7734.100075043587
 21
8997.9331589213
 31
0.0
  0
DIMENSION
  5
1FB76
330
747D
100
AcDbEntity
  8
寸法
 48
50.0
100
AcDbDimension
  2
*D29
 10
9195.649102633089
 20
5851.666700827406
 30
0.0
 11
9195.649102633087
 21
5564.70311815024
 31
0.0
 70
   160
 71
     5
 42
280.0000000000018
  3
INABA_S40G
100
AcDbAlignedDimension
 13
9090.851516111312
 23
6131.666700827408
 33
0.0
 14
9090.851516111312
 24
5851.666700827406
 34
0.0
 50
90.0
100
AcDbRotatedDimension
1001
ACAD
1000
DSTYLE
1002
{
1070
   341
1005
0
1002
}
  0
DIMENSION
  5
1FC2E
330
747D
100
AcDbEntity
  8
寸法
 48
50.0
100
AcDbDimension
  2
*D30
 10
9593.600000000007
 20
8997.9331589213
 30
0.0
 11
10346.02212135149
 21
8997.9331589213
 31
0.0
 70
   160
 71
     5
 42
1374.999999999993
  3
INABA_S40G
100
AcDbAlignedDimension
 13
10968.6
 23
8071.666700827391
 33
0.0
 14
9593.600000000007
 24
8754.275517497637
 34
0.0
100
AcDbRotatedDimension
1001
ACAD
1000
DSTYLE
1002
{
1070
   341
1005
0
1002
}
  0
DIMENSION
  5
1FC2F
330
747D
100
AcDbEntity
  8
寸法
 48
50.0
100
AcDbDimension
  2
*D31
 10
9475.6
 20
8754.275517497637
 30
0.0
 11
10160.6
 21
8854.275517497638
 31
0.0
 70
    32
 71
     5
 42
1370.0
  3
INABA_S40G
100
AcDbAlignedDimension
 13
10845.6
 23
7998.666700827391
 33
0.0
 14
9475.6
 24
7998.666700827391
 34
0.0
100
AcDbRotatedDimension
1001
ACAD
1000
DSTYLE
1002
{
1070
   341
1005
0
1002
}
  0
DIMENSION
  5
1FC30
330
747D
100
AcDbEntity
  8
寸法
 48
50.0
100
AcDbDimension
  2
*D32
 10
7900.202738780326
 20
8071.666700827391
 30
0.0
 11
7800.202738780325
 21
7701.666700827392
 31
0.0
 70
    32
 71
     5
 42
740.0
  3
INABA_S40G
100
AcDbAlignedDimension
 13
7638.600000000008
 23
7331.666700827392
 33
0.0
 14
8013.600000000002
 24
8071.666700827391
 34
0.0
 50
90.0
100
AcDbRotatedDimension
1001
ACAD
1000
DSTYLE
1002
{
1070
   341
1005
0
1002
}
  0
LINE
  5
1FC33
330
747D
100
AcDbEntity
  8
細線
 48
50.0
100
AcDbLine
 10
8808.600000000017
 20
6060.960812673137
 30
0.0
 11
8879.305888154283
 21
6131.666700827405
 31
0.0
  0
LINE
  5
1FC34
330
747D
100
AcDbEntity
  8
細線
 48
50.0
100
AcDbLine
 10
8823.812291181008
 20
5851.666700827399
 30
0.0
 11
9008.60000000002
 21
6036.454409646413
 31
0.0
  0
LINE
  5
1FC35
330
747D
100
AcDbEntity
  8
細線
 48
50.0
100
AcDbLine
 10
8808.600000000017
 20
5881.355690251753
 30
0.0
 11
9008.600000000019
 21
6081.355690251757
 31
0.0
  0
LINE
  5
1FC36
330
747D
100
AcDbEntity
  8
細線
 48
50.0
100
AcDbLine
 10
8808.600000000017
 20
5926.2569708571
 30
0.0
 11
9008.60000000002
 21
6126.256970857103
 31
0.0
  0
LINE
  5
1FC37
330
747D
100
AcDbEntity
  8
細線
 48
50.0
100
AcDbLine
 10
8808.600000000017
 20
5971.158251462445
 30
0.0
 11
8969.108449364979
 21
6131.666700827405
 31
0.0
  0
LINE
  5
1FC38
330
747D
100
AcDbEntity
  8
細線
 48
50.0
100
AcDbLine
 10
8808.600000000017
 20
6016.05953206779
 30
0.0
 11
8924.207168759613
 21
6131.666700827402
 31
0.0
  0
LINE
  5
1FC39
330
747D
100
AcDbEntity
  8
部品1
 48
50.0
100
AcDbLine
 10
8808.600000000017
 20
5851.666700827406
 30
0.0
 11
8808.600000000023
 21
6131.666700827405
 31
0.0
  0
LINE
  5
1FC3A
330
747D
100
AcDbEntity
  8
細線
 48
50.0
100
AcDbLine
 10
8808.600000000017
 20
6105.862093278482
 30
0.0
 11
8834.404607548934
 21
6131.666700827405
 31
0.0
  0
LINE
  5
1FC3B
330
747D
100
AcDbEntity
  8
細線
 48
50.0
100
AcDbLine
 10
8913.614852391706
 20
5851.666700827403
 30
0.0
 11
9008.600000000019
 21
5946.651848435717
 31
0.0
  0
LINE
  5
1FC3C
330
747D
100
AcDbEntity
  8
細線
 48
50.0
100
AcDbLine
 10
8868.713571786356
 20
5851.666700827399
 30
0.0
 11
9008.600000000019
 21
5991.553129041062
 31
0.0
  0
LINE
  5
1FC3D
330
747D
100
AcDbEntity
  8
部品1
 48
50.0
100
AcDbLine
 10
9008.600000000017
 20
5851.666700827406
 30
0.0
 11
9008.60000000002
 21
6131.666700827405
 31
0.0
  0
LINE
  5
1FC3E
330
747D
100
AcDbEntity
  8
細線
 48
50.0
100
AcDbLine
 10
9003.417413602399
 20
5851.666700827406
 30
0.0
 11
9008.600000000019
 21
5856.849287225025
 31
0.0
  0
LINE
  5
1FC3F
330
747D
100
AcDbEntity
  8
細線
 48
50.0
100
AcDbLine
 10
8958.516132997051
 20
5851.666700827404
 30
0.0
 11
9008.600000000019
 21
5901.75056783037
 31
0.0
  0
DIMENSION
  5
1FC40
330
747D
100
AcDbEntity
  8
寸法
 48
50.0
100
AcDbDimension
  2
*D33
 10
7900.202738780328
 20
6666.666700827391
 30
0.0
 11
7900.202738780326
 21
6425.166700827396
 31
0.0
 70
   160
 71
     5
 42
814.9999999999918
  3
INABA_S40G
100
AcDbAlignedDimension
 13
7638.600000000017
 23
5851.6667008274
 33
0.0
 14
7638.600000000008
 24
6666.666700827391
 34
0.0
 50
90.0
100
AcDbRotatedDimension
1001
ACAD
1000
DSTYLE
1002
{
1070
   341
1005
0
1002
}
  0
CIRCLE
  5
1FC41
330
747D
100
AcDbEntity
  8
部品1
 48
50.0
100
AcDbCircle
 10
9475.600000000007
 20
6049.666700827394
 30
0.0
 40
35.0
  0
LINE
  5
1FC42
330
747D
100
AcDbEntity
  8
センター
 48
2.0
100
AcDbLine
 10
9425.600000000008
 20
6049.666700827394
 30
0.0
 11
9525.600000000007
 21
6049.666700827394
 31
0.0
  0
LINE
  5
1FC43
330
747D
100
AcDbEntity
  8
センター
 48
2.0
100
AcDbLine
 10
9475.600000000007
 20
6099.666700827394
 30
0.0
 11
9475.600000000007
 21
5999.666700827393
 31
0.0
  0
DIMENSION
  5
1FC4A
330
747D
100
AcDbEntity
  8
寸法
 48
50.0
100
AcDbDimension
  2
*D34
 10
9195.649102633089
 20
7871.666700827351
 30
0.0
 11
9195.649102633089
 21
8358.630283504558
 31
0.0
 70
   160
 71
     5
 42
200.0000000000418
  3
INABA_S40G
100
AcDbAlignedDimension
 13
9303.779728401337
 23
8071.666700827391
 33
0.0
 14
9345.600000000008
 24
7871.666700827351
 34
0.0
 50
90.0
100
AcDbRotatedDimension
1001
ACAD
1000
DSTYLE
1002
{
1070
   341
1005
0
1002
}
  0
LINE
  5
1FC4B
330
747D
100
AcDbEntity
  8
細線
 48
50.0
100
AcDbLine
 10
8836.37899544195
 20
7871.666700827333
 30
0.0
 11
9008.599999999999
 21
8043.88770538538
 31
0.0
  0
LINE
  5
1FC4C
330
747D
100
AcDbEntity
  8
細線
 48
50.0
100
AcDbLine
 10
8808.6
 20
7888.788985990728
 30
0.0
 11
8991.477714836666
 21
8071.666700827391
 31
0.0
  0
LINE
  5
1FC4D
330
747D
100
AcDbEntity
  8
細線
 48
50.0
100
AcDbLine
 10
8808.6
 20
7933.690266596072
 30
0.0
 11
8946.576434231319
 21
8071.666700827391
 31
0.0
  0
LINE
  5
1FC4E
330
747D
100
AcDbEntity
  8
細線
 48
50.0
100
AcDbLine
 10
8808.6
 20
7978.591547201418
 30
0.0
 11
8901.675153625975
 21
8071.666700827391
 31
0.0
  0
LINE
  5
1FC4F
330
747D
100
AcDbEntity
  8
細線
 48
50.0
100
AcDbLine
 10
8808.6
 20
8023.492827806762
 30
0.0
 11
8856.773873020626
 21
8071.666700827391
 31
0.0
  0
LINE
  5
1FC50
330
747D
100
AcDbEntity
  8
部品1
 48
50.0
100
AcDbLine
 10
8808.6
 20
7871.666700827333
 30
0.0
 11
8808.6
 21
8071.666700827391
 31
0.0
  0
LINE
  5
1FC51
330
747D
100
AcDbEntity
  8
細線
 48
50.0
100
AcDbLine
 10
8808.6
 20
8068.39410841211
 30
0.0
 11
8811.872592415282
 21
8071.666700827391
 31
0.0
  0
LINE
  5
1FC52
330
747D
100
AcDbEntity
  8
細線
 48
50.0
100
AcDbLine
 10
8926.181556652643
 20
7871.666700827335
 30
0.0
 11
9008.599999999999
 21
7954.08514417469
 31
0.0
  0
LINE
  5
1FC53
330
747D
100
AcDbEntity
  8
細線
 48
50.0
100
AcDbLine
 10
8881.280276047297
 20
7871.666700827335
 30
0.0
 11
9008.599999999999
 21
7998.986424780035
 31
0.0
  0
LINE
  5
1FC54
330
747D
100
AcDbEntity
  8
部品1
 48
50.0
100
AcDbLine
 10
9008.599999999999
 20
7871.666700827339
 30
0.0
 11
9008.599999999999
 21
8071.666700827391
 31
0.0
  0
LINE
  5
1FC55
330
747D
100
AcDbEntity
  8
細線
 48
50.0
100
AcDbLine
 10
8971.082837257993
 20
7871.666700827339
 30
0.0
 11
9008.599999999999
 21
7909.183863569345
 31
0.0
  0
LINE
  5
1FC56
330
747D
100
AcDbEntity
  8
センター
 48
2.0
100
AcDbLine
 10
9475.6
 20
7998.666700827391
 30
0.0
 11
9475.6
 21
7898.666700827391
 31
0.0
  0
CIRCLE
  5
1FC57
330
747D
100
AcDbEntity
  8
部品1
 48
50.0
100
AcDbCircle
 10
9475.6
 20
7948.666700827391
 30
0.0
 40
35.0
  0
LINE
  5
1FC58
330
747D
100
AcDbEntity
  8
センター
 48
2.0
100
AcDbLine
 10
9425.600000000001
 20
7948.666700827391
 30
0.0
 11
9525.6
 21
7948.666700827391
 31
0.0
  0
DIMENSION
  5
1FC59
330
747D
100
AcDbEntity
  8
寸法
 48
50.0
100
AcDbDimension
  2
*D35
 10
10848.6
 20
7338.988930821162
 30
0.0
 11
11238.65905511811
 21
7338.988930821162
 31
0.0
 70
   160
 71
     5
 42
120.0
  3
INABA_S40G
100
AcDbAlignedDimension
 13
10968.6
 23
7206.697598321543
 33
0.0
 14
10848.6
 24
7206.697598321543
 34
0.0
100
AcDbRotatedDimension
1001
ACAD
1000
DSTYLE
1002
{
1070
   341
1005
0
1002
}
  0
LINE
  5
1FC5B
102
{ACAD_REACTORS
330
22C32
102
}
330
747D
100
AcDbEntity
  8
部品1
 48
50.0
100
AcDbLine
 10
10968.6
 20
5851.66670082741
 30
0.0
 11
10968.6
 21
8071.666700827391
 31
0.0
  0
LINE
  5
1FC5C
102
{ACAD_REACTORS
330
22C32
102
}
330
747D
100
AcDbEntity
  8
部品1
 48
50.0
100
AcDbLine
 10
10968.6
 20
7061.666700827401
 30
0.0
 11
10848.6
 21
7061.666700827399
 31
0.0
  0
LINE
  5
1FC5D
102
{ACAD_REACTORS
330
22C32
102
}
330
747D
100
AcDbEntity
  8
部品1
 48
50.0
100
AcDbLine
 10
10968.6
 20
6861.666700827401
 30
0.0
 11
10848.6
 21
6861.666700827399
 31
0.0
  0
LINE
  5
1FC5F
330
747D
100
AcDbEntity
  8
細線
 48
50.0
100
AcDbLine
 10
10283.6148523917
 20
5851.666700827403
 30
0.0
 11
10378.60000000002
 21
5946.651848435717
 31
0.0
  0
LINE
  5
1FC60
330
747D
100
AcDbEntity
  8
細線
 48
50.0
100
AcDbLine
 10
10238.71357178635
 20
5851.666700827399
 30
0.0
 11
10378.60000000002
 21
5991.553129041062
 31
0.0
  0
LINE
  5
1FC61
330
747D
100
AcDbEntity
  8
細線
 48
50.0
100
AcDbLine
 10
10193.81229118101
 20
5851.666700827399
 30
0.0
 11
10378.60000000002
 21
6036.45440964641
 31
0.0
  0
LINE
  5
1FC62
330
747D
100
AcDbEntity
  8
細線
 48
50.0
100
AcDbLine
 10
10178.60000000001
 20
5881.355690251753
 30
0.0
 11
10378.60000000002
 21
6081.355690251754
 31
0.0
  0
LINE
  5
1FC63
330
747D
100
AcDbEntity
  8
細線
 48
50.0
100
AcDbLine
 10
10178.60000000002
 20
5926.2569708571
 30
0.0
 11
10378.60000000002
 21
6126.256970857102
 31
0.0
  0
LINE
  5
1FC64
330
747D
100
AcDbEntity
  8
部品1
 48
50.0
100
AcDbLine
 10
10378.60000000002
 20
5851.666700827406
 30
0.0
 11
10378.60000000002
 21
6131.666700827406
 31
0.0
  0
LINE
  5
1FC65
330
747D
100
AcDbEntity
  8
部品1
 48
50.0
100
AcDbLine
 10
10178.60000000001
 20
5851.666700827406
 30
0.0
 11
10178.60000000002
 21
6131.666700827406
 31
0.0
  0
LINE
  5
1FC66
330
747D
100
AcDbEntity
  8
細線
 48
50.0
100
AcDbLine
 10
10373.4174136024
 20
5851.666700827406
 30
0.0
 11
10378.60000000002
 21
5856.849287225025
 31
0.0
  0
LINE
  5
1FC67
330
747D
100
AcDbEntity
  8
細線
 48
50.0
100
AcDbLine
 10
10328.51613299705
 20
5851.666700827404
 30
0.0
 11
10378.60000000002
 21
5901.75056783037
 31
0.0
  0
LINE
  5
1FC68
330
747D
100
AcDbEntity
  8
細線
 48
50.0
100
AcDbLine
 10
10178.60000000001
 20
5971.158251462445
 30
0.0
 11
10339.10844936498
 21
6131.666700827406
 31
0.0
  0
LINE
  5
1FC69
330
747D
100
AcDbEntity
  8
細線
 48
50.0
100
AcDbLine
 10
10178.60000000001
 20
6016.05953206779
 30
0.0
 11
10294.20716875967
 21
6131.666700827406
 31
0.0
  0
LINE
  5
1FC6A
330
747D
100
AcDbEntity
  8
細線
 48
50.0
100
AcDbLine
 10
10178.60000000001
 20
6060.960812673137
 30
0.0
 11
10249.30588815429
 21
6131.66670082741
 31
0.0
  0
LINE
  5
1FC6B
330
747D
100
AcDbEntity
  8
細線
 48
50.0
100
AcDbLine
 10
10178.60000000001
 20
6105.862093278482
 30
0.0
 11
10204.40460754895
 21
6131.666700827408
 31
0.0
  0
LINE
  5
1FC6C
330
747D
100
AcDbEntity
  8
センター
 48
2.0
100
AcDbLine
 10
10795.6
 20
6049.666700827394
 30
0.0
 11
10895.6
 21
6049.666700827394
 31
0.0
  0
CIRCLE
  5
1FC6D
330
747D
100
AcDbEntity
  8
部品1
 48
50.0
100
AcDbCircle
 10
10845.60000000001
 20
6049.666700827394
 30
0.0
 40
35.0
  0
LINE
  5
1FC6E
330
747D
100
AcDbEntity
  8
センター
 48
2.0
100
AcDbLine
 10
10845.60000000001
 20
6099.666700827394
 30
0.0
 11
10845.60000000001
 21
5999.666700827393
 31
0.0
  0
DIMENSION
  5
1FC6F
330
747D
100
AcDbEntity
  8
寸法
 48
50.0
100
AcDbDimension
  2
*D36
 10
10845.6
 20
8754.275517497637
 30
0.0
 11
11241.7066017178
 21
8754.275517497637
 31
0.0
 70
   160
 71
     5
 42
123.0
  3
INABA_S40G
100
AcDbAlignedDimension
 13
10968.6
 23
8071.666700827391
 33
0.0
 14
10845.6
 24
7998.666700827391
 34
0.0
100
AcDbRotatedDimension
1001
ACAD
1000
DSTYLE
1002
{
1070
   341
1005
0
1002
}
  0
LINE
  5
1FC70
330
747D
100
AcDbEntity
  8
部品1
 48
50.0
100
AcDbLine
 10
10378.6
 20
7871.666700827377
 30
0.0
 11
10378.6
 21
8071.666700827391
 31
0.0
  0
LINE
  5
1FC71
330
747D
100
AcDbEntity
  8
細線
 48
50.0
100
AcDbLine
 10
10296.18155665269
 20
7871.666700827377
 30
0.0
 11
10378.6
 21
7954.08514417469
 31
0.0
  0
LINE
  5
1FC72
330
747D
100
AcDbEntity
  8
細線
 48
50.0
100
AcDbLine
 10
10251.28027604734
 20
7871.666700827375
 30
0.0
 11
10378.6
 21
7998.986424780035
 31
0.0
  0
LINE
  5
1FC73
330
747D
100
AcDbEntity
  8
細線
 48
50.0
100
AcDbLine
 10
10206.37899544199
 20
7871.666700827373
 30
0.0
 11
10378.6
 21
8043.88770538538
 31
0.0
  0
LINE
  5
1FC74
330
747D
100
AcDbEntity
  8
細線
 48
50.0
100
AcDbLine
 10
10178.6
 20
7888.788985990728
 30
0.0
 11
10361.47771483666
 21
8071.666700827391
 31
0.0
  0
LINE
  5
1FC75
330
747D
100
AcDbEntity
  8
細線
 48
50.0
100
AcDbLine
 10
10178.6
 20
7933.690266596072
 30
0.0
 11
10316.57643423132
 21
8071.666700827391
 31
0.0
  0
LINE
  5
1FC76
330
747D
100
AcDbEntity
  8
部品1
 48
50.0
100
AcDbLine
 10
10178.6
 20
7871.666700827372
 30
0.0
 11
10178.6
 21
8071.666700827391
 31
0.0
  0
LINE
  5
1FC77
330
747D
100
AcDbEntity
  8
細線
 48
50.0
100
AcDbLine
 10
10341.08283725803
 20
7871.666700827373
 30
0.0
 11
10378.6
 21
7909.183863569345
 31
0.0
  0
LINE
  5
1FC78
330
747D
100
AcDbEntity
  8
細線
 48
50.0
100
AcDbLine
 10
10178.6
 20
7978.591547201418
 30
0.0
 11
10271.67515362597
 21
8071.666700827391
 31
0.0
  0
LINE
  5
1FC79
330
747D
100
AcDbEntity
  8
細線
 48
50.0
100
AcDbLine
 10
10178.6
 20
8023.492827806762
 30
0.0
 11
10226.77387302062
 21
8071.666700827391
 31
0.0
  0
LINE
  5
1FC7A
330
747D
100
AcDbEntity
  8
細線
 48
50.0
100
AcDbLine
 10
10178.6
 20
8068.39410841211
 30
0.0
 11
10181.87259241528
 21
8071.666700827391
 31
0.0
  0
LINE
  5
1FC7B
330
747D
100
AcDbEntity
  8
センター
 48
2.0
100
AcDbLine
 10
10845.6
 20
7998.666700827391
 30
0.0
 11
10845.6
 21
7898.666700827391
 31
0.0
  0
CIRCLE
  5
1FC7C
330
747D
100
AcDbEntity
  8
部品1
 48
50.0
100
AcDbCircle
 10
10845.6
 20
7948.666700827391
 30
0.0
 40
35.0
  0
LINE
  5
1FC7D
330
747D
100
AcDbEntity
  8
センター
 48
2.0
100
AcDbLine
 10
10795.6
 20
7948.666700827391
 30
0.0
 11
10895.6
 21
7948.666700827391
 31
0.0
  0
LEADER
  5
202B8
330
747D
100
AcDbEntity
  8
寸法
 48
50.0
100
AcDbLeader
  3
INABA_S50G
 73
     0
 74
     0
 75
     1
 40
120.0
 41
149.591883092037
 76
     3
 10
8962.605131842572
 20
7254.180502037153
 30
0.0
 10
9088.45010583772
 20
6993.16658846932
 30
0.0
 10
9213.45010583772
 20
6993.16658846932
 30
0.0
340
202B9
213
49.59188309203728
223
0.0
233
0.0
1001
ACAD
1000
DSTYLE
1002
{
1070
   341
1005
0
1070
    40
1040
1.0
1070
   343
1005
0
1070
   344
1005
0
1002
}
  0
MTEXT
  5
202B9
102
{ACAD_REACTORS
330
202B8
102
}
330
747D
100
AcDbEntity
  8
部品1
 62
     7
 48
50.0
100
AcDbMText
 10
9338.45010583772
 20
7078.166588469319
 30
0.0
 40
120.0
 41
0.0
 71
     6
 72
     1
  1
CB
  7
STYLE1
 73
     1
 44
1.0
1001
ACAD
1000
MTEXTBEGIN
1070
    73
1070
     1
1070
    44
1040
1.0
1070
    74
1070
     0
1000
MTEXTEND
  0
LEADER
  5
202BB
330
747D
100
AcDbEntity
  8
寸法
 48
50.0
100
AcDbLeader
  3
INABA_S50G
 73
     0
 74
     0
 75
     1
 40
120.0
 41
994.3492424049171
 76
     3
 10
10845.68008575699
 20
7948.680424023606
 30
0.0
 10
11039.64450095955
 20
8477.927054138712
 30
0.0
 10
11164.64450095955
 20
8477.927054138712
 30
0.0
340
202BC
1001
ACAD
1000
DSTYLE
1002
{
1070
   341
1005
0
1070
    40
1040
1.0
1070
   343
1005
0
1070
   344
1005
0
1002
}
  0
MTEXT
  5
202BC
102
{ACAD_REACTORS
330
202BB
102
}
330
747D
100
AcDbEntity
  8
部品1
 62
     7
 48
50.0
100
AcDbMText
 10
12183.99374336447
 20
8562.927054138713
 30
0.0
 40
120.0
 41
0.0
 71
     6
 72
     1
  1
アンカーボルト
  7
STYLE1
 73
     1
 44
1.0
1001
ACAD
1000
MTEXTBEGIN
1070
    73
1070
     1
1070
    44
1040
1.0
1070
    74
1070
     0
1000
MTEXTEND
  0
LINE
  5
202BD
330
747D
100
AcDbEntity
  8
想像線
 48
10.0
100
AcDbLine
 10
11013.6
 20
8146.666700827392
 30
0.0
 11
7516.058182852262
 21
8146.666700827392
 31
0.0
  0
LINE
  5
202BE
330
747D
100
AcDbEntity
  8
想像線
 48
10.0
100
AcDbLine
 10
11013.6
 20
5796.666700827413
 30
0.0
 11
7101.68977818737
 21
5796.666700827405
 31
0.0
  0
LINE
  5
202BF
330
747D
100
AcDbEntity
  8
想像線
 48
10.0
100
AcDbLine
 10
5433.600000000001
 20
5796.666700827403
 30
0.0
 11
5433.600000000001
 21
8146.666700827394
 31
0.0
  0
LINE
  5
202C0
330
747D
100
AcDbEntity
  8
想像線
 48
10.0
100
AcDbLine
 10
11013.6
 20
5796.666700827413
 30
0.0
 11
11013.6
 21
8146.666700827392
 31
0.0
  0
DIMENSION
  5
202C8
330
747D
100
AcDbEntity
  8
寸法
 48
50.0
100
AcDbDimension
  2
*D37
 10
11013.6
 20
9229.887022886313
 30
0.0
 11
11284.77462120246
 21
9229.887022886313
 31
0.0
 70
   160
  1
a
 71
     5
 42
45.0
  3
INABA_S40G
100
AcDbAlignedDimension
 13
10968.6
 23
8071.666700827391
 33
0.0
 14
11013.6
 24
8754.275517497637
 34
0.0
100
AcDbRotatedDimension
1001
ACAD
1000
DSTYLE
1002
{
1070
   341
1005
0
1002
}
  0
TEXT
  5
202EB
330
747D
100
AcDbEntity
  8
寸法
 48
50.0
100
AcDbText
 10
8418.310648592354
 20
5883.326888186303
 30
0.0
 40
96.0
  1
扉面
  7
STYLE1
100
AcDbText
  0
LEADER
  5
202FA
330
747D
100
AcDbEntity
  8
寸法
 48
50.0
100
AcDbLeader
  3
INABA_S50G
 73
     0
 74
     0
 75
     1
 40
120.0
 41
672.0
 76
     3
 10
10297.05913284934
 20
5796.456972752633
 30
0.0
 10
10412.99914504139
 20
5537.567629289057
 30
0.0
 10
10537.99914504139
 20
5537.567629289057
 30
0.0
340
202FB
1001
ACAD
1000
DSTYLE
1002
{
1070
   341
1005
0
1070
    40
1040
1.0
1070
   343
1005
0
1070
   344
1005
0
1002
}
  0
MTEXT
  5
202FB
102
{ACAD_REACTORS
330
202FA
102
}
330
747D
100
AcDbEntity
  8
部品1
 62
     7
 48
50.0
100
AcDbMText
 10
11234.99914504139
 20
5622.567629289058
 30
0.0
 40
120.0
 41
0.0
 71
     6
 72
     1
  1
\A1;屋根の外寸
  7
STYLE1
 73
     1
 44
1.0
1001
ACAD
1000
MTEXTBEGIN
1070
    73
1070
     1
1070
    44
1040
1.0
1070
    74
1070
     0
1000
MTEXTEND
  0
TEXT
  5
202FC
330
747D
100
AcDbEntity
  8
部品1
 48
50.0
100
AcDbText
 10
10437.21194905278
 20
5443.256942355983
 30
0.0
 40
80.0
  1
※a,b,cは屋根の出幅です。
  7
STYLE1
100
AcDbText
  0
TEXT
  5
202FD
330
747D
100
AcDbEntity
  8
部品1
 48
50.0
100
AcDbText
 10
10595.79095780708
 20
5336.411721487229
 30
0.0
 40
80.0
  1
(a=45,b=55,c=75)
  7
STYLE1
100
AcDbText
  0
MTEXT
  5
202FE
102
{ACAD_REACTORS
330
202FF
102
}
330
747D
100
AcDbEntity
  8
部品1
 62
     7
 48
50.0
100
AcDbMText
 10
11995.46907400127
 20
6780.641403132706
 30
0.0
 40
120.0
 41
0.0
 71
     6
 72
     1
  1
\A1;床下換気口
  7
STYLE1
 73
     1
 44
1.0
1001
ACAD
1000
MTEXTBEGIN
1070
    73
1070
     1
1070
    44
1040
1.0
1070
    74
1070
     0
1000
MTEXTEND
  0
LEADER
  5
202FF
330
747D
100
AcDbEntity
  8
寸法
 48
50.0
100
AcDbLeader
  3
INABA_S50G
 73
     0
 74
     0
 75
     1
 40
120.0
 41
720.0000000000001
 76
     3
 10
10968.69549961499
 20
6956.65531670054
 30
0.0
 10
11125.46907400127
 20
6695.641403132707
 30
0.0
 10
11250.46907400127
 20
6695.641403132707
 30
0.0
340
202FE
1001
ACAD
1000
DSTYLE
1002
{
1070
   341
1005
0
1070
    40
1040
1.0
1070
   343
1005
0
1070
   344
1005
0
1002
}
  0
DIMENSION
  5
2030F
330
747D
100
AcDbEntity
  8
寸法
 48
50.0
100
AcDbDimension
  2
*D38
 10
4342.144256711883
 20
8071.666700827393
 30
0.0
 11
4242.144256711882
 21
8109.166700827394
 31
0.0
 70
    32
  1
c
 71
     5
 42
75.00000000000091
  3
INABA_S40G
100
AcDbAlignedDimension
 13
4594.087353431279
 23
8146.666700827394
 33
0.0
 14
5478.599999999999
 24
8071.666700827393
 34
0.0
 50
90.0
100
AcDbRotatedDimension
1001
ACAD
1000
DSTYLE
1002
{
1070
   341
1005
0
1002
}
  0
DIMENSION
  5
20311
330
747D
100
AcDbEntity
  8
寸法
 48
50.0
100
AcDbDimension
  2
*D39
 10
5478.599999999999
 20
9229.887022886313
 30
0.0
 11
5162.425378797541
 21
9229.887022886313
 31
0.0
 70
   160
  1
a
 71
     5
 42
44.99999999999727
  3
INABA_S40G
100
AcDbAlignedDimension
 13
5433.600000000001
 23
8754.275517497637
 33
0.0
 14
5478.599999999999
 24
8071.666700827393
 34
0.0
100
AcDbRotatedDimension
1001
ACAD
1000
DSTYLE
1002
{
1070
   341
1005
0
1002
}
  0
DIMENSION
  5
2031B
330
747D
100
AcDbEntity
  8
寸法
 48
50.0
100
AcDbDimension
  2
*D40
 10
4342.144256711883
 20
5796.666700827403
 30
0.0
 11
4242.144256711882
 21
5824.166700827397
 31
0.0
 70
    32
  1
b
 71
     5
 42
54.99999999998909
  3
INABA_S40G
100
AcDbAlignedDimension
 13
5478.6
 23
5851.666700827392
 33
0.0
 14
4594.087353431281
 24
5796.666700827403
 34
0.0
 50
90.0
100
AcDbRotatedDimension
1001
ACAD
1000
DSTYLE
1002
{
1070
   341
1005
0
1002
}
  0
LINE
  5
2073A
330
747D
100
AcDbEntity
  8
センター
 48
2.0
100
AcDbLine
 10
5651.600000000001
 20
7948.666700827391
 30
0.0
 11
5551.6
 21
7948.666700827391
 31
0.0
  0
CIRCLE
  5
2073B
330
747D
100
AcDbEntity
  8
部品1
 48
50.0
100
AcDbCircle
 10
5601.600000000001
 20
7948.666700827391
 30
0.0
 40
35.0
  0
LINE
  5
2073C
330
747D
100
AcDbEntity
  8
センター
 48
2.0
100
AcDbLine
 10
5601.600000000001
 20
7998.666700827391
 30
0.0
 11
5601.600000000001
 21
7898.666700827391
 31
0.0
  0
LINE
  5
20749
330
747D
100
AcDbEntity
  8
センター
 48
2.0
100
AcDbLine
 10
5601.599999999994
 20
6099.666700827394
 30
0.0
 11
5601.599999999994
 21
5999.666700827393
 31
0.0
  0
CIRCLE
  5
2074A
330
747D
100
AcDbEntity
  8
部品1
 48
50.0
100
AcDbCircle
 10
5601.599999999994
 20
6049.666700827394
 30
0.0
 40
35.0
  0
LINE
  5
2074B
330
747D
100
AcDbEntity
  8
センター
 48
2.0
100
AcDbLine
 10
5651.599999999993
 20
6049.666700827394
 30
0.0
 11
5551.599999999993
 21
6049.666700827394
 31
0.0
  0
LINE
  5
2075A
102
{ACAD_REACTORS
330
22C49
102
}
330
747D
100
AcDbEntity
  8
部品1
 48
50.0
100
AcDbLine
 10
5478.6
 20
6861.666700827401
 30
0.0
 11
5598.600000000001
 21
6861.666700827399
 31
0.0
  0
LINE
  5
2075B
102
{ACAD_REACTORS
330
22C49
102
}
330
747D
100
AcDbEntity
  8
部品1
 48
50.0
100
AcDbLine
 10
5478.6
 20
7061.666700827401
 30
0.0
 11
5598.600000000001
 21
7061.666700827399
 31
0.0
  0
LINE
  5
20A63
330
747D
100
AcDbEntity
  8
センター
 48
2.0
100
AcDbLine
 10
6685.6
 20
7948.666700827391
 30
0.0
 11
6785.600000000001
 21
7948.666700827391
 31
0.0
  0
LINE
  5
20A64
330
747D
100
AcDbEntity
  8
センター
 48
2.0
100
AcDbLine
 10
6735.600000000001
 20
7998.666700827391
 30
0.0
 11
6735.600000000001
 21
7898.666700827391
 31
0.0
  0
CIRCLE
  5
20A65
330
747D
100
AcDbEntity
  8
部品1
 48
50.0
100
AcDbCircle
 10
6735.600000000001
 20
7948.666700827391
 30
0.0
 40
35.0
  0
LINE
  5
20A66
330
747D
100
AcDbEntity
  8
センター
 48
2.0
100
AcDbLine
 10
6735.600000000008
 20
6099.666700827394
 30
0.0
 11
6735.600000000008
 21
5999.666700827393
 31
0.0
  0
CIRCLE
  5
20A67
330
747D
100
AcDbEntity
  8
部品1
 48
50.0
100
AcDbCircle
 10
6735.600000000008
 20
6049.666700827394
 30
0.0
 40
35.0
  0
LINE
  5
20A68
330
747D
100
AcDbEntity
  8
センター
 48
2.0
100
AcDbLine
 10
6685.600000000007
 20
6049.666700827394
 30
0.0
 11
6785.600000000008
 21
6049.666700827394
 31
0.0
  0
MTEXT
  5
20A84
330
747D
100
AcDbEntity
  8
寸法
 62
     7
 48
50.0
100
AcDbMText
 10
7073.083685065679
 20
8848.47796288348
 30
0.0
 40
120.0
 41
0.0
 71
     5
 72
     1
  1
\A1;1370
  7
STYLE1
 73
     1
 44
1.0
1001
ACAD
1000
MTEXTBEGIN
1070
    73
1070
     1
1070
    44
1040
1.0
1070
    74
1070
     0
1000
MTEXTEND
  0
MTEXT
  5
20A85
330
747D
100
AcDbEntity
  8
寸法
 62
     7
 48
50.0
100
AcDbMText
 10
7857.368100093373
 20
8848.47796288348
 30
0.0
 40
120.0
 41
0.0
 71
     5
 72
     1
  1
\A1;1370
  7
STYLE1
 73
     1
 44
1.0
1001
ACAD
1000
MTEXTBEGIN
1070
    73
1070
     1
1070
    44
1040
1.0
1070
    74
1070
     0
1000
MTEXTEND
  0
MTEXT
  5
20A86
330
747D
100
AcDbEntity
  8
寸法
 62
     7
 48
50.0
100
AcDbMText
 10
7943.344182203322
 20
9098.011891821036
 30
0.0
 40
120.0
 41
0.0
 71
     5
 72
     1
  1
\A1;1370
  7
STYLE1
 73
     1
 44
1.0
1001
ACAD
1000
MTEXTBEGIN
1070
    73
1070
     1
1070
    44
1040
1.0
1070
    74
1070
     0
1000
MTEXTEND
  0
MTEXT
  5
20A87
330
747D
100
AcDbEntity
  8
寸法
 62
     7
 48
50.0
100
AcDbMText
 10
7113.347392479322
 20
9098.011891821036
 30
0.0
 40
120.0
 41
0.0
 71
     5
 72
     1
  1
\A1;1370
  7
STYLE1
 73
     1
 44
1.0
1001
ACAD
1000
MTEXTBEGIN
1070
    73
1070
     1
1070
    44
1040
1.0
1070
    74
1070
     0
1000
MTEXTEND
  0
LINE
  5
20A88
330
747D
100
AcDbEntity
  8
細線
 48
50.0
100
AcDbLine
 10
7601.082837257992
 20
7871.666700827339
 30
0.0
 11
7638.600000000001
 21
7909.183863569345
 31
0.0
  0
LINE
  5
20A89
330
747D
100
AcDbEntity
  8
部品1
 48
50.0
100
AcDbLine
 10
7638.600000000001
 20
7871.666700827339
 30
0.0
 11
7638.600000000001
 21
8071.666700827391
 31
0.0
  0
LINE
  5
20A8A
330
747D
100
AcDbEntity
  8
細線
 48
50.0
100
AcDbLine
 10
7511.280276047298
 20
7871.666700827335
 30
0.0
 11
7638.600000000001
 21
7998.986424780035
 31
0.0
  0
LINE
  5
20A8B
330
747D
100
AcDbEntity
  8
細線
 48
50.0
100
AcDbLine
 10
7556.181556652643
 20
7871.666700827335
 30
0.0
 11
7638.600000000001
 21
7954.08514417469
 31
0.0
  0
LINE
  5
20A8C
330
747D
100
AcDbEntity
  8
細線
 48
50.0
100
AcDbLine
 10
7438.6
 20
8068.39410841211
 30
0.0
 11
7441.872592415281
 21
8071.666700827391
 31
0.0
  0
LINE
  5
20A8E
330
747D
100
AcDbEntity
  8
細線
 48
50.0
100
AcDbLine
 10
7438.6
 20
8023.492827806762
 30
0.0
 11
7466.285542185213
 21
8051.178369991975
 31
0.0
  0
LINE
  5
20A8F
330
747D
100
AcDbEntity
  8
細線
 48
50.0
100
AcDbLine
 10
7438.6
 20
7978.591547201418
 30
0.0
 11
7459.675353590728
 21
7999.666900792142
 31
0.0
  0
LINE
  5
20A90
330
747D
100
AcDbEntity
  8
細線
 48
50.0
100
AcDbLine
 10
7487.047248249702
 20
7982.137514845774
 30
0.0
 11
7576.57643423132
 21
8071.666700827391
 31
0.0
  0
LINE
  5
20A91
330
747D
100
AcDbEntity
  8
細線
 48
50.0
100
AcDbLine
 10
7477.43505135403
 20
7927.624037344755
 30
0.0
 11
7621.477714836665
 21
8071.666700827391
 31
0.0
  0
LINE
  5
20A92
330
747D
100
AcDbEntity
  8
細線
 48
50.0
100
AcDbLine
 10
7466.378995441949
 20
7871.666700827333
 30
0.0
 11
7638.600000000001
 21
8043.88770538538
 31
0.0
  0
LINE
  5
20A93
330
747D
100
AcDbEntity
  8
細線
 48
50.0
100
AcDbLine
 10
7588.51613299705
 20
5851.666700827404
 30
0.0
 11
7638.600000000018
 21
5901.75056783037
 31
0.0
  0
LINE
  5
20A94
330
747D
100
AcDbEntity
  8
細線
 48
50.0
100
AcDbLine
 10
7633.417413602399
 20
5851.666700827406
 30
0.0
 11
7638.600000000018
 21
5856.849287225025
 31
0.0
  0
LINE
  5
20A95
330
747D
100
AcDbEntity
  8
部品1
 48
50.0
100
AcDbLine
 10
7638.600000000017
 20
5851.666700827406
 30
0.0
 11
7638.600000000021
 21
6131.666700827405
 31
0.0
  0
LINE
  5
20A96
330
747D
100
AcDbEntity
  8
細線
 48
50.0
100
AcDbLine
 10
7498.713571786355
 20
5851.666700827399
 30
0.0
 11
7638.600000000018
 21
5991.553129041062
 31
0.0
  0
LINE
  5
20A97
330
747D
100
AcDbEntity
  8
細線
 48
50.0
100
AcDbLine
 10
7543.614852391705
 20
5851.666700827403
 30
0.0
 11
7638.600000000018
 21
5946.651848435717
 31
0.0
  0
LINE
  5
20A98
330
747D
100
AcDbEntity
  8
細線
 48
50.0
100
AcDbLine
 10
7438.600000000016
 20
6105.862093278482
 30
0.0
 11
7464.404607548935
 21
6131.666700827405
 31
0.0
  0
LINE
  5
20A99
330
747D
100
AcDbEntity
  8
部品1
 48
50.0
100
AcDbLine
 10
7438.600000000016
 20
5851.666700827406
 30
0.0
 11
7438.600000000022
 21
6131.666700827405
 31
0.0
  0
LINE
  5
20A9A
330
747D
100
AcDbEntity
  8
細線
 48
50.0
100
AcDbLine
 10
7438.600000000016
 20
6016.05953206779
 30
0.0
 11
7554.207168759614
 21
6131.666700827402
 31
0.0
  0
LINE
  5
20A9B
330
747D
100
AcDbEntity
  8
細線
 48
50.0
100
AcDbLine
 10
7438.600000000016
 20
5971.158251462445
 30
0.0
 11
7599.10844936498
 21
6131.666700827405
 31
0.0
  0
LINE
  5
20A9C
330
747D
100
AcDbEntity
  8
細線
 48
50.0
100
AcDbLine
 10
7438.600000000018
 20
5926.2569708571
 30
0.0
 11
7638.600000000021
 21
6126.256970857103
 31
0.0
  0
LINE
  5
20A9D
330
747D
100
AcDbEntity
  8
細線
 48
50.0
100
AcDbLine
 10
7438.600000000018
 20
5881.355690251753
 30
0.0
 11
7638.600000000018
 21
6081.355690251757
 31
0.0
  0
LINE
  5
20A9E
330
747D
100
AcDbEntity
  8
細線
 48
50.0
100
AcDbLine
 10
7453.812291181008
 20
5851.666700827399
 30
0.0
 11
7638.600000000021
 21
6036.454409646413
 31
0.0
  0
LINE
  5
20A9F
330
747D
100
AcDbEntity
  8
細線
 48
50.0
100
AcDbLine
 10
7438.600000000016
 20
6060.960812673137
 30
0.0
 11
7509.305888154284
 21
6131.666700827405
 31
0.0
  0
LINE
  5
20AA1
330
747D
100
AcDbEntity
  8
細線
 48
50.0
100
AcDbLine
 10
6068.600000000017
 20
6060.960812673137
 30
0.0
 11
6139.305888154284
 21
6131.666700827405
 31
0.0
  0
LINE
  5
20AA2
330
747D
100
AcDbEntity
  8
細線
 48
50.0
100
AcDbLine
 10
6083.812291181008
 20
5851.666700827399
 30
0.0
 11
6268.60000000002
 21
6036.454409646413
 31
0.0
  0
LINE
  5
20AA3
330
747D
100
AcDbEntity
  8
細線
 48
50.0
100
AcDbLine
 10
6068.600000000018
 20
5881.355690251753
 30
0.0
 11
6268.600000000018
 21
6081.355690251757
 31
0.0
  0
LINE
  5
20AA4
330
747D
100
AcDbEntity
  8
細線
 48
50.0
100
AcDbLine
 10
6068.600000000018
 20
5926.2569708571
 30
0.0
 11
6268.60000000002
 21
6126.256970857103
 31
0.0
  0
LINE
  5
20AA5
330
747D
100
AcDbEntity
  8
細線
 48
50.0
100
AcDbLine
 10
6068.600000000017
 20
5971.158251462445
 30
0.0
 11
6229.108449364979
 21
6131.666700827405
 31
0.0
  0
LINE
  5
20AA6
330
747D
100
AcDbEntity
  8
細線
 48
50.0
100
AcDbLine
 10
6068.600000000017
 20
6016.05953206779
 30
0.0
 11
6184.207168759613
 21
6131.666700827402
 31
0.0
  0
LINE
  5
20AA7
330
747D
100
AcDbEntity
  8
部品1
 48
50.0
100
AcDbLine
 10
6068.600000000017
 20
5851.666700827406
 30
0.0
 11
6068.600000000022
 21
6131.666700827405
 31
0.0
  0
LINE
  5
20AA8
330
747D
100
AcDbEntity
  8
細線
 48
50.0
100
AcDbLine
 10
6068.600000000017
 20
6105.862093278482
 30
0.0
 11
6094.404607548935
 21
6131.666700827405
 31
0.0
  0
LINE
  5
20AA9
330
747D
100
AcDbEntity
  8
細線
 48
50.0
100
AcDbLine
 10
6173.614852391706
 20
5851.666700827403
 30
0.0
 11
6268.600000000018
 21
5946.651848435717
 31
0.0
  0
LINE
  5
20AAA
330
747D
100
AcDbEntity
  8
細線
 48
50.0
100
AcDbLine
 10
6128.713571786355
 20
5851.666700827399
 30
0.0
 11
6268.600000000018
 21
5991.553129041062
 31
0.0
  0
LINE
  5
20AAB
330
747D
100
AcDbEntity
  8
部品1
 48
50.0
100
AcDbLine
 10
6268.600000000017
 20
5851.666700827406
 30
0.0
 11
6268.60000000002
 21
6131.666700827405
 31
0.0
  0
LINE
  5
20AAC
330
747D
100
AcDbEntity
  8
細線
 48
50.0
100
AcDbLine
 10
6263.417413602399
 20
5851.666700827406
 30
0.0
 11
6268.600000000018
 21
5856.849287225025
 31
0.0
  0
LINE
  5
20AAD
330
747D
100
AcDbEntity
  8
細線
 48
50.0
100
AcDbLine
 10
6218.51613299705
 20
5851.666700827404
 30
0.0
 11
6268.600000000018
 21
5901.75056783037
 31
0.0
  0
LINE
  5
20AAE
330
747D
100
AcDbEntity
  8
細線
 48
50.0
100
AcDbLine
 10
6096.378995441949
 20
7871.666700827333
 30
0.0
 11
6268.600000000001
 21
8043.88770538538
 31
0.0
  0
LINE
  5
20AAF
330
747D
100
AcDbEntity
  8
細線
 48
50.0
100
AcDbLine
 10
6068.6
 20
7888.788985990728
 30
0.0
 11
6251.477714836664
 21
8071.666700827391
 31
0.0
  0
LINE
  5
20AB0
330
747D
100
AcDbEntity
  8
細線
 48
50.0
100
AcDbLine
 10
6068.6
 20
7933.690266596072
 30
0.0
 11
6206.576434231319
 21
8071.666700827391
 31
0.0
  0
LINE
  5
20AB1
330
747D
100
AcDbEntity
  8
細線
 48
50.0
100
AcDbLine
 10
6068.6
 20
7978.591547201418
 30
0.0
 11
6161.675153625974
 21
8071.666700827391
 31
0.0
  0
LINE
  5
20AB2
330
747D
100
AcDbEntity
  8
細線
 48
50.0
100
AcDbLine
 10
6068.6
 20
8023.492827806762
 30
0.0
 11
6116.773873020627
 21
8071.666700827391
 31
0.0
  0
LINE
  5
20AB3
330
747D
100
AcDbEntity
  8
部品1
 48
50.0
100
AcDbLine
 10
6068.6
 20
7871.666700827333
 30
0.0
 11
6068.6
 21
8071.666700827391
 31
0.0
  0
LINE
  5
20AB4
330
747D
100
AcDbEntity
  8
細線
 48
50.0
100
AcDbLine
 10
6068.6
 20
8068.39410841211
 30
0.0
 11
6071.872592415281
 21
8071.666700827391
 31
0.0
  0
LINE
  5
20AB5
330
747D
100
AcDbEntity
  8
細線
 48
50.0
100
AcDbLine
 10
6186.181556652644
 20
7871.666700827335
 30
0.0
 11
6268.600000000001
 21
7954.08514417469
 31
0.0
  0
LINE
  5
20AB6
330
747D
100
AcDbEntity
  8
細線
 48
50.0
100
AcDbLine
 10
6141.280276047297
 20
7871.666700827335
 30
0.0
 11
6268.600000000001
 21
7998.986424780035
 31
0.0
  0
LINE
  5
20AB7
330
747D
100
AcDbEntity
  8
部品1
 48
50.0
100
AcDbLine
 10
6268.600000000001
 20
7871.666700827339
 30
0.0
 11
6268.600000000001
 21
8071.666700827391
 31
0.0
  0
LINE
  5
20AB8
330
747D
100
AcDbEntity
  8
細線
 48
50.0
100
AcDbLine
 10
6231.082837257993
 20
7871.666700827339
 30
0.0
 11
6268.600000000001
 21
7909.183863569345
 31
0.0
  0
LINE
  5
20AB9
330
747D
100
AcDbEntity
  8
細線
 48
50.0
100
AcDbLine
 10
7492.276939692397
 20
8032.268486893814
 30
0.0
 11
7531.675153625974
 21
8071.666700827391
 31
0.0
  0
LINE
  5
20ABA
330
747D
100
AcDbEntity
  8
部品1
 48
50.0
100
AcDbLine
 10
7438.6
 20
7880.142631131038
 30
0.0
 11
7438.6
 21
8071.666700827391
 31
0.0
  0
LINE
  5
20BB5
330
747D
100
AcDbEntity
  8
想像線
 48
10.0
100
AcDbLine
 10
7071.226979830797
 20
5796.666700827405
 30
0.0
 11
5433.600000000001
 21
5796.666700827403
 31
0.0
  0
LINE
  5
20BB7
330
747D
100
AcDbEntity
  8
想像線
 48
10.0
100
AcDbLine
 10
7485.595384495693
 20
8146.666700827394
 30
0.0
 11
5433.600000000001
 21
8146.666700827394
 31
0.0
  0
LINE
  5
21707
330
747D
100
AcDbEntity
  8
部品1
 48
50.0
100
AcDbLine
 10
10378.60000000001
 20
6566.666700827392
 30
0.0
 11
10378.60000000001
 21
6766.666700827392
 31
0.0
  0
LINE
  5
21708
330
747D
100
AcDbEntity
  8
部品1
 48
50.0
100
AcDbLine
 10
10178.60000000001
 20
6566.666700827392
 30
0.0
 11
10178.60000000001
 21
6766.666700827392
 31
0.0
  0
LINE
  5
21709
330
747D
100
AcDbEntity
  8
センター
 48
2.0
100
AcDbLine
 10
10278.60000000001
 20
6716.666700827392
 30
0.0
 11
10278.60000000001
 21
6616.666700827392
 31
0.0
  0
LINE
  5
2170A
330
747D
100
AcDbEntity
  8
部品1
 48
50.0
100
AcDbLine
 10
10378.60000000001
 20
6566.666700827392
 30
0.0
 11
10178.60000000001
 21
6566.666700827392
 31
0.0
  0
LINE
  5
2170B
330
747D
100
AcDbEntity
  8
部品1
 48
50.0
100
AcDbLine
 10
10378.60000000001
 20
6766.666700827392
 30
0.0
 11
10178.60000000001
 21
6766.666700827392
 31
0.0
  0
LINE
  5
2170C
330
747D
100
AcDbEntity
  8
センター
 48
2.0
100
AcDbLine
 10
10228.6
 20
6666.666700827391
 30
0.0
 11
10328.6
 21
6666.666700827391
 31
0.0
  0
LINE
  5
2170D
330
747D
100
AcDbEntity
  8
センター
 48
2.0
100
AcDbLine
 10
8858.600000000008
 20
6666.666700827391
 30
0.0
 11
8958.600000000009
 21
6666.666700827391
 31
0.0
  0
LINE
  5
2170E
330
747D
100
AcDbEntity
  8
センター
 48
2.0
100
AcDbLine
 10
8908.600000000008
 20
6716.666700827392
 30
0.0
 11
8908.600000000008
 21
6616.666700827392
 31
0.0
  0
LINE
  5
2170F
330
747D
100
AcDbEntity
  8
部品1
 48
50.0
100
AcDbLine
 10
9008.600000000008
 20
6566.666700827392
 30
0.0
 11
9008.600000000008
 21
6766.666700827392
 31
0.0
  0
LINE
  5
21710
330
747D
100
AcDbEntity
  8
部品1
 48
50.0
100
AcDbLine
 10
8808.600000000009
 20
6566.666700827392
 30
0.0
 11
8808.600000000009
 21
6766.666700827392
 31
0.0
  0
LINE
  5
21711
330
747D
100
AcDbEntity
  8
部品1
 48
50.0
100
AcDbLine
 10
9008.600000000008
 20
6566.666700827392
 30
0.0
 11
8808.600000000009
 21
6566.666700827392
 31
0.0
  0
LINE
  5
21712
330
747D
100
AcDbEntity
  8
部品1
 48
50.0
100
AcDbLine
 10
9008.600000000008
 20
6766.666700827392
 30
0.0
 11
8808.600000000009
 21
6766.666700827392
 31
0.0
  0
LINE
  5
21714
330
747D
100
AcDbEntity
  8
部品1
 48
50.0
100
AcDbLine
 10
7638.600000000008
 20
6766.666700827392
 30
0.0
 11
7438.600000000008
 21
6766.666700827392
 31
0.0
  0
LINE
  5
21715
330
747D
100
AcDbEntity
  8
部品1
 48
50.0
100
AcDbLine
 10
7638.600000000008
 20
6566.666700827392
 30
0.0
 11
7438.600000000008
 21
6566.666700827392
 31
0.0
  0
LINE
  5
21717
330
747D
100
AcDbEntity
  8
部品1
 48
50.0
100
AcDbLine
 10
7638.600000000008
 20
6566.666700827392
 30
0.0
 11
7638.600000000008
 21
6766.666700827392
 31
0.0
  0
LINE
  5
21718
330
747D
100
AcDbEntity
  8
センター
 48
2.0
100
AcDbLine
 10
7538.600000000008
 20
6716.666700827392
 30
0.0
 11
7538.600000000008
 21
6616.666700827392
 31
0.0
  0
LINE
  5
21719
330
747D
100
AcDbEntity
  8
センター
 48
2.0
100
AcDbLine
 10
7488.600000000008
 20
6666.666700827391
 30
0.0
 11
7588.600000000008
 21
6666.666700827391
 31
0.0
  0
LINE
  5
2171A
330
747D
100
AcDbEntity
  8
センター
 48
2.0
100
AcDbLine
 10
6118.600000000007
 20
6666.666700827391
 30
0.0
 11
6218.600000000008
 21
6666.666700827391
 31
0.0
  0
LINE
  5
2171B
330
747D
100
AcDbEntity
  8
センター
 48
2.0
100
AcDbLine
 10
6168.600000000008
 20
6716.666700827392
 30
0.0
 11
6168.600000000008
 21
6616.666700827392
 31
0.0
  0
LINE
  5
2171C
330
747D
100
AcDbEntity
  8
部品1
 48
50.0
100
AcDbLine
 10
6268.600000000008
 20
6566.666700827392
 30
0.0
 11
6268.600000000008
 21
6766.666700827392
 31
0.0
  0
LINE
  5
2171D
330
747D
100
AcDbEntity
  8
部品1
 48
50.0
100
AcDbLine
 10
6068.600000000007
 20
6566.666700827392
 30
0.0
 11
6068.600000000007
 21
6766.666700827392
 31
0.0
  0
LINE
  5
2171E
330
747D
100
AcDbEntity
  8
部品1
 48
50.0
100
AcDbLine
 10
6268.600000000008
 20
6566.666700827392
 30
0.0
 11
6068.600000000007
 21
6566.666700827392
 31
0.0
  0
LINE
  5
2171F
330
747D
100
AcDbEntity
  8
部品1
 48
50.0
100
AcDbLine
 10
6268.600000000008
 20
6766.666700827392
 30
0.0
 11
6068.600000000007
 21
6766.666700827392
 31
0.0
  0
DIMENSION
  5
21720
330
747D
100
AcDbEntity
  8
寸法
 48
50.0
100
AcDbDimension
  2
*D41
 10
6168.600000000008
 20
6250.84663367565
 30
0.0
 11
5823.600000000004
 21
6250.84663367565
 31
0.0
 70
   160
 71
     5
 42
690.0000000000073
  3
INABA_S40G
100
AcDbAlignedDimension
 13
5478.6
 23
6539.780272613743
 33
0.0
 14
6168.600000000008
 24
6566.666700827392
 34
0.0
100
AcDbRotatedDimension
1001
ACAD
1000
DSTYLE
1002
{
1070
   341
1005
0
1002
}
  0
DIMENSION
  5
21742
330
747D
100
AcDbEntity
  8
寸法
 48
50.0
100
AcDbDimension
  2
*D42
 10
6853.600000000007
 20
6250.84663367565
 30
0.0
 11
6511.100000000007
 21
6350.846633675651
 31
0.0
 70
    32
 71
     5
 42
685.0
  3
INABA_S40G
100
AcDbAlignedDimension
 13
6168.600000000008
 23
6566.666700827392
 33
0.0
 14
6853.600000000007
 24
6566.666700827392
 34
0.0
100
AcDbRotatedDimension
1001
ACAD
1000
DSTYLE
1002
{
1070
   341
1005
0
1002
}
  0
DIMENSION
  5
2176E
330
747D
100
AcDbEntity
  8
寸法
 48
50.0
100
AcDbDimension
  2
*D43
 10
10968.6
 20
6250.84663367565
 30
0.0
 11
10611.16542468967
 21
6250.84663367565
 31
0.0
 70
   160
 71
     5
 42
689.9999999999927
  3
INABA_S40G
100
AcDbAlignedDimension
 13
10278.60000000001
 23
6566.666700827392
 33
0.0
 14
10968.6
 24
6539.780272613743
 34
0.0
100
AcDbRotatedDimension
1001
ACAD
1000
DSTYLE
1002
{
1070
   341
1005
0
1002
}
  0
DIMENSION
  5
21785
330
747D
100
AcDbEntity
  8
寸法
 48
50.0
100
AcDbDimension
  2
*D44
 10
10278.60000000001
 20
6250.84663367565
 30
0.0
 11
9959.541719262226
 21
6250.84663367565
 31
0.0
 70
   160
 71
     5
 42
685.0
  3
INABA_S40G
100
AcDbAlignedDimension
 13
9593.600000000007
 23
6566.666700827392
 33
0.0
 14
10278.60000000001
 24
6566.666700827392
 34
0.0
100
AcDbRotatedDimension
1001
ACAD
1000
DSTYLE
1002
{
1070
   341
1005
0
1002
}
  0
DIMENSION
  5
217D3
330
747D
100
AcDbEntity
  8
寸法
 48
50.0
100
AcDbDimension
  2
*D45
 10
9593.600000000007
 20
6250.84663367565
 30
0.0
 11
9265.801595782686
 21
6250.84663367565
 31
0.0
 70
   160
 71
     5
 42
685.0
  3
INABA_S40G
100
AcDbAlignedDimension
 13
8908.600000000008
 23
6566.666700827392
 33
0.0
 14
9593.600000000007
 24
6566.666700827392
 34
0.0
100
AcDbRotatedDimension
1001
ACAD
1000
DSTYLE
1002
{
1070
   341
1005
0
1002
}
  0
LINE
  5
220FB
330
747D
100
AcDbEntity
  8
部品1
 48
50.0
100
AcDbLine
 10
7438.600000000011
 20
6566.666700827394
 30
0.0
 11
7438.600000000008
 21
6766.666700827392
 31
0.0
  0
LINE
  5
224B8
330
747D
100
AcDbEntity
  8
センター
 48
2.0
100
AcDbLine
 10
10228.6
 20
7331.666700827392
 30
0.0
 11
10328.6
 21
7331.666700827392
 31
0.0
  0
LINE
  5
224B9
330
747D
100
AcDbEntity
  8
部品1
 48
50.0
100
AcDbLine
 10
10378.60000000001
 20
7431.666700827392
 30
0.0
 11
10178.60000000001
 21
7431.666700827392
 31
0.0
  0
LINE
  5
224BA
330
747D
100
AcDbEntity
  8
部品1
 48
50.0
100
AcDbLine
 10
10378.60000000001
 20
7231.666700827393
 30
0.0
 11
10178.60000000001
 21
7231.666700827393
 31
0.0
  0
LINE
  5
224BB
330
747D
100
AcDbEntity
  8
センター
 48
2.0
100
AcDbLine
 10
10278.60000000001
 20
7381.666700827392
 30
0.0
 11
10278.60000000001
 21
7281.666700827392
 31
0.0
  0
LINE
  5
224BC
330
747D
100
AcDbEntity
  8
部品1
 48
50.0
100
AcDbLine
 10
10178.60000000001
 20
7231.666700827393
 30
0.0
 11
10178.60000000001
 21
7431.666700827392
 31
0.0
  0
LINE
  5
224BD
330
747D
100
AcDbEntity
  8
部品1
 48
50.0
100
AcDbLine
 10
10378.60000000001
 20
7231.666700827393
 30
0.0
 11
10378.60000000001
 21
7431.666700827392
 31
0.0
  0
LINE
  5
224BE
330
747D
100
AcDbEntity
  8
部品1
 48
50.0
100
AcDbLine
 10
9008.600000000008
 20
7431.666700827392
 30
0.0
 11
8808.600000000009
 21
7431.666700827392
 31
0.0
  0
LINE
  5
224BF
330
747D
100
AcDbEntity
  8
部品1
 48
50.0
100
AcDbLine
 10
9008.600000000008
 20
7231.666700827393
 30
0.0
 11
8808.600000000009
 21
7231.666700827393
 31
0.0
  0
LINE
  5
224C0
330
747D
100
AcDbEntity
  8
部品1
 48
50.0
100
AcDbLine
 10
8808.600000000009
 20
7231.666700827393
 30
0.0
 11
8808.600000000009
 21
7431.666700827392
 31
0.0
  0
LINE
  5
224C1
330
747D
100
AcDbEntity
  8
部品1
 48
50.0
100
AcDbLine
 10
9008.600000000008
 20
7231.666700827393
 30
0.0
 11
9008.600000000008
 21
7431.666700827392
 31
0.0
  0
LINE
  5
224C2
330
747D
100
AcDbEntity
  8
センター
 48
2.0
100
AcDbLine
 10
8908.600000000008
 20
7381.666700827392
 30
0.0
 11
8908.600000000008
 21
7281.666700827392
 31
0.0
  0
LINE
  5
224C3
330
747D
100
AcDbEntity
  8
センター
 48
2.0
100
AcDbLine
 10
8858.600000000008
 20
7331.666700827392
 30
0.0
 11
8958.600000000009
 21
7331.666700827392
 31
0.0
  0
LINE
  5
224C4
330
747D
100
AcDbEntity
  8
部品1
 48
50.0
100
AcDbLine
 10
7438.600000000011
 20
7231.666700827393
 30
0.0
 11
7438.600000000008
 21
7431.666700827392
 31
0.0
  0
LINE
  5
224C5
330
747D
100
AcDbEntity
  8
センター
 48
2.0
100
AcDbLine
 10
7488.600000000008
 20
7331.666700827392
 30
0.0
 11
7588.600000000008
 21
7331.666700827392
 31
0.0
  0
LINE
  5
224C6
330
747D
100
AcDbEntity
  8
センター
 48
2.0
100
AcDbLine
 10
7538.600000000008
 20
7381.666700827392
 30
0.0
 11
7538.600000000008
 21
7281.666700827392
 31
0.0
  0
LINE
  5
224C7
330
747D
100
AcDbEntity
  8
部品1
 48
50.0
100
AcDbLine
 10
7638.600000000008
 20
7231.666700827393
 30
0.0
 11
7638.600000000008
 21
7431.666700827392
 31
0.0
  0
LINE
  5
224C9
330
747D
100
AcDbEntity
  8
部品1
 48
50.0
100
AcDbLine
 10
7638.600000000008
 20
7231.666700827393
 30
0.0
 11
7438.600000000008
 21
7231.666700827393
 31
0.0
  0
LINE
  5
224CA
330
747D
100
AcDbEntity
  8
部品1
 48
50.0
100
AcDbLine
 10
7638.600000000008
 20
7431.666700827392
 30
0.0
 11
7438.600000000008
 21
7431.666700827392
 31
0.0
  0
LINE
  5
224CB
330
747D
100
AcDbEntity
  8
部品1
 48
50.0
100
AcDbLine
 10
6268.600000000008
 20
7431.666700827392
 30
0.0
 11
6068.600000000007
 21
7431.666700827392
 31
0.0
  0
LINE
  5
224CC
330
747D
100
AcDbEntity
  8
部品1
 48
50.0
100
AcDbLine
 10
6268.600000000008
 20
7231.666700827393
 30
0.0
 11
6068.600000000007
 21
7231.666700827393
 31
0.0
  0
LINE
  5
224CD
330
747D
100
AcDbEntity
  8
部品1
 48
50.0
100
AcDbLine
 10
6068.600000000007
 20
7231.666700827393
 30
0.0
 11
6068.600000000007
 21
7431.666700827392
 31
0.0
  0
LINE
  5
224CE
330
747D
100
AcDbEntity
  8
部品1
 48
50.0
100
AcDbLine
 10
6268.600000000008
 20
7231.666700827393
 30
0.0
 11
6268.600000000008
 21
7431.666700827392
 31
0.0
  0
LINE
  5
224CF
330
747D
100
AcDbEntity
  8
センター
 48
2.0
100
AcDbLine
 10
6168.600000000008
 20
7381.666700827392
 30
0.0
 11
6168.600000000008
 21
7281.666700827392
 31
0.0
  0
LINE
  5
224D0
330
747D
100
AcDbEntity
  8
センター
 48
2.0
100
AcDbLine
 10
6118.600000000007
 20
7331.666700827392
 30
0.0
 11
6218.600000000008
 21
7331.666700827392
 31
0.0
  0
DIMENSION
  5
22522
330
747D
100
AcDbEntity
  8
寸法
 48
50.0
100
AcDbDimension
  2
*D46
 10
7900.202738780326
 20
7331.666700827392
 30
0.0
 11
7800.202738780325
 21
6999.166700827392
 31
0.0
 70
    32
 71
     5
 42
665.0
  3
INABA_S40G
100
AcDbAlignedDimension
 13
7638.600000000008
 23
6666.666700827391
 33
0.0
 14
7638.600000000008
 24
7331.666700827392
 34
0.0
 50
90.0
100
AcDbRotatedDimension
1001
ACAD
1000
DSTYLE
1002
{
1070
   341
1005
0
1002
}
  0
LINE
  5
22541
330
747D
100
AcDbEntity
  8
センター
 48
2.0
100
AcDbLine
 10
9543.600000000008
 20
7331.666700827392
 30
0.0
 11
9643.600000000008
 21
7331.666700827392
 31
0.0
  0
LINE
  5
22542
330
747D
100
AcDbEntity
  8
センター
 48
2.0
100
AcDbLine
 10
9593.600000000007
 20
7381.666700827392
 30
0.0
 11
9593.600000000007
 21
7281.666700827392
 31
0.0
  0
LINE
  5
22543
330
747D
100
AcDbEntity
  8
部品1
 48
50.0
100
AcDbLine
 10
9693.600000000008
 20
7231.666700827393
 30
0.0
 11
9693.600000000008
 21
7431.666700827392
 31
0.0
  0
LINE
  5
22544
330
747D
100
AcDbEntity
  8
部品1
 48
50.0
100
AcDbLine
 10
9493.600000000007
 20
7231.666700827393
 30
0.0
 11
9493.600000000007
 21
7431.666700827392
 31
0.0
  0
LINE
  5
22545
330
747D
100
AcDbEntity
  8
部品1
 48
50.0
100
AcDbLine
 10
9693.600000000008
 20
7231.666700827393
 30
0.0
 11
9493.600000000007
 21
7231.666700827393
 31
0.0
  0
LINE
  5
22546
330
747D
100
AcDbEntity
  8
部品1
 48
50.0
100
AcDbLine
 10
9693.600000000008
 20
7431.666700827392
 30
0.0
 11
9493.600000000007
 21
7431.666700827392
 31
0.0
  0
LINE
  5
22547
330
747D
100
AcDbEntity
  8
部品1
 48
50.0
100
AcDbLine
 10
9693.600000000008
 20
6766.666700827392
 30
0.0
 11
9493.600000000007
 21
6766.666700827392
 31
0.0
  0
LINE
  5
22548
330
747D
100
AcDbEntity
  8
部品1
 48
50.0
100
AcDbLine
 10
9693.600000000008
 20
6566.666700827392
 30
0.0
 11
9493.600000000007
 21
6566.666700827392
 31
0.0
  0
LINE
  5
22549
330
747D
100
AcDbEntity
  8
部品1
 48
50.0
100
AcDbLine
 10
9493.600000000007
 20
6566.666700827392
 30
0.0
 11
9493.600000000007
 21
6766.666700827392
 31
0.0
  0
LINE
  5
2254A
330
747D
100
AcDbEntity
  8
部品1
 48
50.0
100
AcDbLine
 10
9693.600000000008
 20
6566.666700827392
 30
0.0
 11
9693.600000000008
 21
6766.666700827392
 31
0.0
  0
LINE
  5
2254B
330
747D
100
AcDbEntity
  8
センター
 48
2.0
100
AcDbLine
 10
9593.600000000007
 20
6716.666700827392
 30
0.0
 11
9593.600000000007
 21
6616.666700827392
 31
0.0
  0
LINE
  5
2254C
330
747D
100
AcDbEntity
  8
センター
 48
2.0
100
AcDbLine
 10
9543.600000000008
 20
6666.666700827391
 30
0.0
 11
9643.600000000008
 21
6666.666700827391
 31
0.0
  0
LINE
  5
2255F
330
747D
100
AcDbEntity
  8
センター
 48
2.0
100
AcDbLine
 10
8173.600000000007
 20
7331.666700827392
 30
0.0
 11
8273.600000000007
 21
7331.666700827392
 31
0.0
  0
LINE
  5
22560
330
747D
100
AcDbEntity
  8
センター
 48
2.0
100
AcDbLine
 10
8223.600000000008
 20
7381.666700827392
 30
0.0
 11
8223.600000000008
 21
7281.666700827392
 31
0.0
  0
LINE
  5
22561
330
747D
100
AcDbEntity
  8
部品1
 48
50.0
100
AcDbLine
 10
8323.600000000007
 20
7231.666700827393
 30
0.0
 11
8323.600000000007
 21
7431.666700827392
 31
0.0
  0
LINE
  5
22562
330
747D
100
AcDbEntity
  8
部品1
 48
50.0
100
AcDbLine
 10
8123.600000000008
 20
7231.666700827393
 30
0.0
 11
8123.600000000008
 21
7431.666700827392
 31
0.0
  0
LINE
  5
22563
330
747D
100
AcDbEntity
  8
部品1
 48
50.0
100
AcDbLine
 10
8323.600000000007
 20
7231.666700827393
 30
0.0
 11
8123.600000000008
 21
7231.666700827393
 31
0.0
  0
LINE
  5
22564
330
747D
100
AcDbEntity
  8
部品1
 48
50.0
100
AcDbLine
 10
8323.600000000007
 20
7431.666700827392
 30
0.0
 11
8123.600000000008
 21
7431.666700827392
 31
0.0
  0
LINE
  5
22565
330
747D
100
AcDbEntity
  8
部品1
 48
50.0
100
AcDbLine
 10
8323.600000000007
 20
6766.666700827392
 30
0.0
 11
8123.600000000008
 21
6766.666700827392
 31
0.0
  0
LINE
  5
22566
330
747D
100
AcDbEntity
  8
部品1
 48
50.0
100
AcDbLine
 10
8323.600000000007
 20
6566.666700827392
 30
0.0
 11
8123.600000000008
 21
6566.666700827392
 31
0.0
  0
LINE
  5
22567
330
747D
100
AcDbEntity
  8
部品1
 48
50.0
100
AcDbLine
 10
8123.600000000008
 20
6566.666700827392
 30
0.0
 11
8123.600000000008
 21
6766.666700827392
 31
0.0
  0
LINE
  5
22568
330
747D
100
AcDbEntity
  8
部品1
 48
50.0
100
AcDbLine
 10
8323.600000000007
 20
6566.666700827392
 30
0.0
 11
8323.600000000007
 21
6766.666700827392
 31
0.0
  0
LINE
  5
22569
330
747D
100
AcDbEntity
  8
センター
 48
2.0
100
AcDbLine
 10
8223.600000000008
 20
6716.666700827392
 30
0.0
 11
8223.600000000008
 21
6616.666700827392
 31
0.0
  0
LINE
  5
2256A
330
747D
100
AcDbEntity
  8
センター
 48
2.0
100
AcDbLine
 10
8173.600000000007
 20
6666.666700827391
 30
0.0
 11
8273.600000000007
 21
6666.666700827391
 31
0.0
  0
LINE
  5
2256B
330
747D
100
AcDbEntity
  8
センター
 48
2.0
100
AcDbLine
 10
6803.600000000007
 20
7331.666700827392
 30
0.0
 11
6903.600000000007
 21
7331.666700827392
 31
0.0
  0
LINE
  5
2256C
330
747D
100
AcDbEntity
  8
センター
 48
2.0
100
AcDbLine
 10
6853.600000000007
 20
7381.666700827392
 30
0.0
 11
6853.600000000007
 21
7281.666700827392
 31
0.0
  0
LINE
  5
2256D
330
747D
100
AcDbEntity
  8
部品1
 48
50.0
100
AcDbLine
 10
6953.600000000007
 20
7231.666700827393
 30
0.0
 11
6953.600000000007
 21
7431.666700827392
 31
0.0
  0
LINE
  5
2256E
330
747D
100
AcDbEntity
  8
部品1
 48
50.0
100
AcDbLine
 10
6753.600000000007
 20
7231.666700827393
 30
0.0
 11
6753.600000000007
 21
7431.666700827392
 31
0.0
  0
LINE
  5
2256F
330
747D
100
AcDbEntity
  8
部品1
 48
50.0
100
AcDbLine
 10
6953.600000000007
 20
7231.666700827393
 30
0.0
 11
6753.600000000007
 21
7231.666700827393
 31
0.0
  0
LINE
  5
22570
330
747D
100
AcDbEntity
  8
部品1
 48
50.0
100
AcDbLine
 10
6953.600000000007
 20
7431.666700827392
 30
0.0
 11
6753.600000000007
 21
7431.666700827392
 31
0.0
  0
LINE
  5
22571
330
747D
100
AcDbEntity
  8
部品1
 48
50.0
100
AcDbLine
 10
6953.600000000007
 20
6766.666700827392
 30
0.0
 11
6753.600000000007
 21
6766.666700827392
 31
0.0
  0
LINE
  5
22572
330
747D
100
AcDbEntity
  8
部品1
 48
50.0
100
AcDbLine
 10
6953.600000000007
 20
6566.666700827392
 30
0.0
 11
6753.600000000007
 21
6566.666700827392
 31
0.0
  0
LINE
  5
22573
330
747D
100
AcDbEntity
  8
部品1
 48
50.0
100
AcDbLine
 10
6753.600000000007
 20
6566.666700827392
 30
0.0
 11
6753.600000000007
 21
6766.666700827392
 31
0.0
  0
LINE
  5
22574
330
747D
100
AcDbEntity
  8
部品1
 48
50.0
100
AcDbLine
 10
6953.600000000007
 20
6566.666700827392
 30
0.0
 11
6953.600000000007
 21
6766.666700827392
 31
0.0
  0
LINE
  5
22575
330
747D
100
AcDbEntity
  8
センター
 48
2.0
100
AcDbLine
 10
6853.600000000007
 20
6716.666700827392
 30
0.0
 11
6853.600000000007
 21
6616.666700827392
 31
0.0
  0
LINE
  5
22576
330
747D
100
AcDbEntity
  8
センター
 48
2.0
100
AcDbLine
 10
6803.600000000007
 20
6666.666700827391
 30
0.0
 11
6903.600000000007
 21
6666.666700827391
 31
0.0
  0
LINE
  5
225AF
330
747D
100
AcDbEntity
  8
寸法
 48
50.0
100
AcDbLine
 10
6853.600000000007
 20
6546.666700827391
 30
0.0
 11
6853.600000000007
 21
6191.086176401533
 31
0.0
  0
LINE
  5
225B0
330
747D
100
AcDbEntity
  8
寸法
 48
50.0
100
AcDbLine
 10
7538.600000000008
 20
6546.666700827391
 30
0.0
 11
7538.600000000008
 21
6191.086176401533
 31
0.0
  0
LINE
  5
225B1
330
747D
100
AcDbEntity
  8
寸法
 48
50.0
100
AcDbLine
 10
6853.600000000007
 20
6251.086176401534
 30
0.0
 11
7151.353393933908
 21
6251.086176401535
 31
0.0
  0
INSERT
  5
225B2
330
747D
100
AcDbEntity
  8
寸法
 48
50.0
100
AcDbBlockReference
  2
_DOTSMALL
 10
6853.600000000007
 20
6251.086176401534
 30
0.0
 41
100.0
 42
100.0
 43
100.0
 50
180.0
  0
INSERT
  5
225B3
330
747D
100
AcDbEntity
  8
寸法
 48
50.0
100
AcDbBlockReference
  2
_DOTSMALL
 10
7538.600000000008
 20
6251.086176401534
 30
0.0
 41
100.0
 42
100.0
 43
100.0
  0
MTEXT
  5
225B4
330
747D
100
AcDbEntity
  8
寸法
 62
     7
 48
50.0
100
AcDbMText
 10
7327.051606963777
 20
6351.086176401533
 30
0.0
 40
120.0
 41
0.0
 71
     5
 72
     1
  1
\A1;685
  7
STYLE1
 73
     1
 44
1.0
1001
ACAD
1000
MTEXTBEGIN
1070
    73
1070
     1
1070
    44
1040
1.0
1070
    74
1070
     0
1000
MTEXTEND
  0
MTEXT
  5
225B5
330
747D
100
AcDbEntity
  8
寸法
 62
     7
 48
50.0
100
AcDbMText
 10
7010.342009312274
 20
6351.086176401533
 30
0.0
 40
120.0
 41
0.0
 71
     5
 72
     1
  1
\A1;685
  7
STYLE1
 73
     1
 44
1.0
1001
ACAD
1000
MTEXTBEGIN
1070
    73
1070
     1
1070
    44
1040
1.0
1070
    74
1070
     0
1000
MTEXTEND
  0
LINE
  5
225B6
330
747D
100
AcDbEntity
  8
寸法
 48
50.0
100
AcDbLine
 10
7181.81619229048
 20
6251.086176401532
 30
0.0
 11
7538.600000000008
 21
6251.086176401534
 31
0.0
  0
TEXT
  5
225C7
330
747D
100
AcDbEntity
  8
文字
 62
     7
 48
50.0
100
AcDbText
 10
7559.60008736963
 20
4521.412042530327
 30
0.0
 40
200.0
  1
〈参 考 図〉
  7
STYLE2
100
AcDbText
  0
LINE
  5
22C1B
102
{ACAD_REACTORS
330
22C32
102
}
330
747D
100
AcDbEntity
  8
部品1
 48
50.0
100
AcDbLine
 10
10848.6
 20
6131.666700827412
 30
0.0
 11
10848.6
 21
7871.666700827393
 31
0.0
  0
LINE
  5
22C1C
102
{ACAD_REACTORS
330
22C49
102
}
330
747D
100
AcDbEntity
  8
部品1
 48
50.0
100
AcDbLine
 10
5598.600000000001
 20
6131.666700827412
 30
0.0
 11
5598.600000000001
 21
7871.666700827393
 31
0.0
  0
HATCH
  5
22C32
330
747D
100
AcDbEntity
  8
細線
 48
50.0
100
AcDbHatch
 10
0.0
 20
0.0
 30
0.0
210
0.0
220
0.0
230
1.0
  2
LINE
 70
     0
 71
     1
 91
        1
 92
        7
 72
     0
 73
     1
 93
        4
 10
10968.6
 20
7061.666700827401
 10
10848.6
 20
7061.666700827401
 10
10848.6
 20
6861.666700827401
 10
10968.6
 20
6861.666700827401
 97
        4
330
1FC5C
330
22C1B
330
1FC5D
330
1FC5B
 75
     0
 76
     1
 52
45.0
 41
10.0
 77
     0
 78
     1
 53
45.0
 43
0.0
 44
0.0
 45
-22.45064030267288
 46
22.45064030267288
 79
     0
 47
5.870162093377501
 98
        1
 10
10932.55122347425
 20
6941.094910460276
  0
HATCH
  5
22C49
330
747D
100
AcDbEntity
  8
細線
 48
50.0
100
AcDbHatch
 10
0.0
 20
0.0
 30
0.0
210
0.0
220
0.0
230
1.0
  2
LINE
 70
     0
 71
     1
 91
        1
 92
        7
 72
     0
 73
     1
 93
        4
 10
5598.600000000001
 20
7061.666700827401
 10
5478.6
 20
7061.666700827402
 10
5478.6
 20
6861.666700827402
 10
5598.600000000001
 20
6861.666700827399
 97
        4
330
2075B
330
1FB23
330
2075A
330
22C1C
 75
     0
 76
     1
 52
45.0
 41
10.0
 77
     0
 78
     1
 53
45.0
 43
0.0
 44
0.0
 45
-22.45064030267288
 46
22.45064030267288
 79
     0
 47
5.870162093377508
 98
        1
 10
5523.802708447686
 20
6953.139666726108
  0
SPLINE
  5
22FBD
330
747D
100
AcDbEntity
  8
細線
 48
50.0
100
AcDbSpline
210
0.0
220
0.0
230
1.0
 70
     8
 71
     3
 72
    10
 73
     6
 74
     4
 42
0.0000000001
 43
0.0000000001
 44
0.0000000001
 40
0.0
 40
0.0
 40
0.0
 40
0.0
 40
221.8151349015015
 40
452.7136639803716
 40
699.7573834631605
 40
699.7573834631605
 40
699.7573834631605
 40
699.7573834631605
 10
7342.408568351867
 20
7084.831020728092
 30
0.0
 10
7227.086044609613
 20
7071.474370241336
 30
0.0
 10
6991.718506294422
 20
7044.214110552338
 30
0.0
 10
7475.938621210937
 20
6890.433233593324
 30
0.0
 10
7221.174691706877
 20
6862.480600525017
 30
0.0
 10
7089.489683896537
 20
6848.032155209054
 30
0.0
 11
7342.408568351867
 21
7084.831020728092
 31
0.0
 11
7128.151600888712
 21
7027.421039323598
 31
0.0
 11
7328.115592767473
 21
6911.971774784165
 31
0.0
 11
7089.489683896537
 21
6848.032155209054
 31
0.0
  0
LINE
  5
22FBE
330
747D
100
AcDbEntity
  8
細線
 48
50.0
100
AcDbLine
 10
7398.851115275975
 20
8244.596890872777
 30
0.0
 11
7081.633243820658
 21
5677.053914759246
 31
0.0
  0
LINE
  5
234A1
330
747D
100
AcDbEntity
  8
部品1
100
AcDbLine
 10
11427.75897661672
 20
3354.93673441063
 30
0.0
 11
5356.773791230471
 21
3354.936734410629
 31
0.0
  0
LINE
  5
234A2
330
747D
100
AcDbEntity
  8
部品1
100
AcDbLine
 10
11427.75897661672
 20
3114.936734410627
 30
0.0
 11
5356.773791230475
 21
3114.936734410628
 31
0.0
  0
LINE
  5
234A3
330
747D
100
AcDbEntity
  8
部品1
100
AcDbLine
 10
5356.773791230477
 20
390.629764825982
 30
0.0
 11
11427.75897661672
 21
390.629764825982
 31
0.0
  0
LEADER
  5
234A4
330
747D
100
AcDbEntity
  8
寸法
 48
50.0
100
AcDbLeader
  3
INABA_S40G
 73
     0
 74
     0
 75
     1
 40
102.2727272727273
 41
680.0000000000001
 76
     3
 10
8364.881543216929
 20
2432.840395742927
 30
0.0
 10
8409.235514330285
 20
2828.293206849468
 30
0.0
 10
8509.235514330285
 20
2828.293206849468
 30
0.0
1001
ACAD
1000
DSTYLE
1002
{
1070
   174
1070
     0
1070
   272
1070
     1
1070
   279
1070
     1
1070
   288
1070
     0
1070
   341
1005
0
1002
}
  0
MTEXT
  5
234A5
102
{ACAD_REACTORS
330
234A4
102
}
330
747D
100
AcDbEntity
  8
部品1
 62
     7
 48
50.0
100
AcDbMText
 10
8549.235514330284
 20
2919.429570485832
 30
0.0
 40
80.0
 41
0.8
 71
     4
 72
     1
  1
\A1;ナット(市販品)
  7
STYLE2
 73
     1
 44
1.0
1001
ACAD
1000
MTEXTBEGIN
1070
    73
1070
     1
1070
    44
1040
1.0
1070
    74
1070
     0
1000
MTEXTEND
  0
LEADER
  5
234A6
330
747D
100
AcDbEntity
  8
寸法
 48
50.0
100
AcDbLeader
  3
INABA_S40G
 73
     0
 74
     0
 75
     1
 40
102.2727272727273
 41
906.8181818181818
 76
     3
 10
8388.881543216928
 20
2303.088403078064
 30
0.0
 10
8440.753133585769
 20
2643.32412408468
 30
0.0
 10
8540.753133585768
 20
2643.32412408468
 30
0.0
1001
ACAD
1000
DSTYLE
1002
{
1070
   174
1070
     0
1070
   272
1070
     1
1070
   279
1070
     1
1070
   288
1070
     0
1070
   341
1005
0
1002
}
  0
MTEXT
  5
234A7
102
{ACAD_REACTORS
330
234A6
102
}
330
747D
100
AcDbEntity
  8
部品1
 62
     7
 48
50.0
100
AcDbMText
 10
8580.753133585767
 20
2734.460487721045
 30
0.0
 40
80.0
 41
0.8
 71
     4
 72
     1
  1
\A1;ワッシャー(市販品)
  7
STYLE2
 73
     1
 44
1.0
1001
ACAD
1000
MTEXTBEGIN
1070
    73
1070
     1
1070
    44
1040
1.0
1070
    74
1070
     0
1000
MTEXTEND
  0
LWPOLYLINE
  5
234A8
330
747D
100
AcDbEntity
  8
部品1
 48
50.0
100
AcDbPolyline
 90
        2
 70
     0
 43
8.0
 10
8541.481543216928
 20
1793.965114633785
 10
8835.184006616314
 20
1793.965114633785
  0
TEXT
  5
234A9
330
747D
100
AcDbEntity
  8
部品1
 48
50.0
100
AcDbText
 10
8545.835127501355
 20
2389.843795395984
 30
0.0
 40
80.0
  1
基礎ボルト(市販品)
  7
STYLE2
100
AcDbText
  0
DIMENSION
  5
234AA
330
747D
100
AcDbEntity
  8
寸法
 48
50.0
100
AcDbDimension
  2
*D60
 10
9043.350142985771
 20
1709.965114633783
 30
0.0
 11
8943.350142985771
 21
1871.965114633785
 31
0.0
 70
    32
  1
180
 71
     5
 42
324.0000000000009
  3
INABA_S40G
100
AcDbAlignedDimension
 13
8541.481543216928
 23
2033.965114633784
 33
0.0
 14
8541.481543216928
 24
1709.965114633783
 34
0.0
 50
90.0
100
AcDbRotatedDimension
1001
ACAD
1000
DSTYLE
1002
{
1070
   174
1070
     0
1070
   272
1070
     1
1070
   279
1070
     1
1070
   288
1070
     0
1070
   341
1005
0
1002
}
  0
DIMENSION
  5
234AB
330
747D
100
AcDbEntity
  8
寸法
 48
50.0
100
AcDbDimension
  2
*D61
 10
9043.350142985771
 20
2033.965114633784
 30
0.0
 11
9319.404809104799
 21
2008.841157029573
 31
0.0
 70
   160
  1
20～25
 71
     5
 42
52.76000000000113
  3
INABA_S40G
100
AcDbAlignedDimension
 13
8354.281543216931
 23
2086.725114633785
 33
0.0
 14
8541.481543216928
 24
2033.965114633784
 34
0.0
 50
90.0
100
AcDbRotatedDimension
1001
ACAD
1000
DSTYLE
1002
{
1070
   174
1070
     0
1070
   272
1070
     1
1070
   279
1070
     1
1070
   288
1070
     0
1070
   341
1005
0
1002
}
  0
MTEXT
  5
234AC
102
{ACAD_REACTORS
330
234AD
102
}
330
747D
100
AcDbEntity
  8
部品1
 62
     7
 48
50.0
100
AcDbMText
 10
8550.426005636246
 20
2298.348440787014
 30
0.0
 40
80.0
 41
0.8
 71
     4
 72
     1
  1
M10X160
  7
STYLE2
 73
     1
 44
1.0
1001
ACAD
1000
MTEXTBEGIN
1070
    73
1070
     1
1070
    44
1040
1.0
1070
    74
1070
     0
1000
MTEXTEND
  0
LEADER
  5
234AD
330
747D
100
AcDbEntity
  8
寸法
 48
50.0
100
AcDbLeader
  3
INABA_S40G
 73
     0
 74
     0
 75
     1
 40
80.0
 41
435.0
 76
     3
 10
8357.881543216929
 20
2083.125114633785
 30
0.0
 10
8410.426005636248
 20
2218.348440787014
 30
0.0
 10
8510.426005636247
 20
2218.348440787014
 30
0.0
1001
ACAD
1000
DSTYLE
1002
{
1070
   174
1070
     0
1070
   272
1070
     1
1070
   279
1070
     1
1070
   288
1070
     0
1070
   341
1005
0
1002
}
  0
LINE
  5
234AE
330
747D
100
AcDbEntity
  8
部品1
100
AcDbLine
 10
5356.773791230473
 20
3354.93673441063
 30
0.0
 11
5356.773791230475
 21
390.629764825982
 31
0.0
  0
LEADER
  5
234AF
330
747D
100
AcDbEntity
  8
寸法
 48
50.0
100
AcDbLeader
  3
INABA_S40G
 73
     0
 75
     1
 40
113.1818181818182
 41
608.6363636363635
 76
     3
 10
8317.61829335498
 20
1983.480787992063
 30
0.0
 10
8173.814464663632
 20
2819.859870348541
 30
0.0
 10
8073.814464663632
 20
2819.859870348541
 30
0.0
1001
ACAD
1000
DSTYLE
1002
{
1070
   174
1070
     0
1070
   272
1070
     1
1070
   279
1070
     1
1070
   288
1070
     0
1070
   341
1005
0
1002
}
  0
MTEXT
  5
234B0
102
{ACAD_REACTORS
330
234AF
102
}
330
747D
100
AcDbEntity
  8
寸法
 62
     7
 48
50.0
100
AcDbMText
 10
8033.814464663633
 20
2916.45077943945
 30
0.0
 40
80.0
 41
0.8
 71
     6
 72
     1
  1
\A1;φ70スリーブ
  7
STYLE2
 73
     1
 44
1.0
1001
ACAD
1000
MTEXTBEGIN
1070
    73
1070
     1
1070
    44
1040
1.0
1070
    74
1070
     0
1000
MTEXTEND
  0
LWPOLYLINE
  5
234B1
330
747D
100
AcDbEntity
  8
部品1
 48
50.0
100
AcDbPolyline
 90
        2
 70
     0
 43
8.0
 10
6013.302328206779
 20
1793.965114633785
 10
6427.442230039736
 20
1793.965114633785
  0
TEXT
  5
234B2
330
747D
100
AcDbEntity
  8
部品1
 48
50.0
100
AcDbText
 10
6013.302328206779
 20
1805.20410691704
 30
0.0
 40
80.0
  1
▽G.L
  7
STYLE2
100
AcDbText
  0
DIMENSION
  5
234B3
330
747D
100
AcDbEntity
  8
寸法
 48
50.0
100
AcDbDimension
  2
*D62
 10
6157.021916307276
 20
1249.965114633784
 30
0.0
 11
6157.021916307276
 21
1369.965114633784
 31
0.0
 70
   160
  1
150
 71
     5
 42
240.0
  3
INABA_S40G
100
AcDbAlignedDimension
 13
6299.442230039735
 23
1489.965114633784
 33
0.0
 14
6219.442230039739
 24
1249.965114633784
 34
0.0
 50
90.0
100
AcDbRotatedDimension
1001
ACAD
1000
DSTYLE
1002
{
1070
   174
1070
     0
1070
   272
1070
     1
1070
   279
1070
     1
1070
   288
1070
     0
1070
   341
1005
0
1002
}
  0
LEADER
  5
234B4
330
747D
100
AcDbEntity
  8
寸法
 48
50.0
100
AcDbLeader
  3
INABA_S40G
 71
     0
 73
     0
 75
     1
 40
100.0
 41
225.0
 76
     3
 10
6395.345182391879
 20
1369.965114633784
 30
0.0
 10
6248.507203844542
 20
1106.442421015348
 30
0.0
 10
6148.507203844541
 20
1106.442421015348
 30
0.0
1001
ACAD
1000
DSTYLE
1002
{
1070
   174
1070
     0
1070
   272
1070
     1
1070
   279
1070
     1
1070
   288
1070
     0
1070
   341
1005
0
1002
}
  0
LEADER
  5
234B5
330
747D
100
AcDbEntity
  8
寸法
 48
50.0
100
AcDbLeader
  3
INABA_S40G
 71
     0
 73
     0
 75
     1
 40
100.0
 41
222.7272727272727
 76
     3
 10
6523.442230039735
 20
1369.965114633784
 30
0.0
 10
6276.629931401976
 20
926.1262684759044
 30
0.0
 10
6176.629931401976
 20
926.1262684759044
 30
0.0
1001
ACAD
1000
DSTYLE
1002
{
1070
   174
1070
     0
1070
   272
1070
     1
1070
   279
1070
     1
1070
   288
1070
     0
1070
   341
1005
0
1002
}
  0
MTEXT
  5
234B6
102
{ACAD_REACTORS
330
234B7
102
}
330
747D
100
AcDbEntity
  8
寸法
 62
     7
 48
50.0
100
AcDbMText
 10
6338.192175816931
 20
1635.265717451241
 30
0.0
 40
80.0
 41
0.8
 71
     6
 72
     1
  1
\A1;D10@300
  7
STYLE2
 73
     1
 44
1.0
1001
ACAD
1000
MTEXTBEGIN
1070
    73
1070
     1
1070
    44
1040
1.0
1070
    74
1070
     0
1000
MTEXTEND
  0
LEADER
  5
234B7
330
747D
100
AcDbEntity
  8
寸法
 48
50.0
100
AcDbLeader
  3
INABA_S40G
 71
     0
 73
     0
 75
     1
 40
100.0
 41
540.3409090909091
 76
     3
 10
6531.442230039735
 20
1792.092329330907
 30
0.0
 10
6448.459993511036
 20
1570.622000790102
 30
0.0
 10
6348.459993511037
 20
1570.622000790102
 30
0.0
213
-9.732182305893367
223
-4.643716661138569
233
0.0
1001
ACAD
1000
DSTYLE
1002
{
1070
   174
1070
     0
1070
   272
1070
     1
1070
   279
1070
     1
1070
   288
1070
     0
1070
   341
1005
0
1002
}
  0
LEADER
  5
234B8
330
747D
100
AcDbEntity
  8
寸法
 48
50.0
100
AcDbLeader
  3
INABA_S40G
 71
     0
 73
     0
 75
     1
 40
130.1136363636363
 41
651.1363636363636
 76
     3
 10
6507.442230039735
 20
2033.965114633784
 30
0.0
 10
6370.01764987572
 20
2174.435880090372
 30
0.0
 10
6270.017649875719
 20
2174.435880090372
 30
0.0
1001
ACAD
1000
DSTYLE
1002
{
1070
   174
1070
     0
1070
   272
1070
     1
1070
   279
1070
     1
1070
   288
1070
     0
1070
   341
1005
0
1002
}
  0
MTEXT
  5
234B9
102
{ACAD_REACTORS
330
234B8
102
}
330
747D
100
AcDbEntity
  8
寸法
 62
     7
 48
50.0
100
AcDbMText
 10
6207.343750556463
 20
2246.481334635827
 30
0.0
 40
80.0
 41
0.8
 71
     6
 72
     1
  1
\A1;金コテ押エ
  7
STYLE2
 73
     1
 44
1.0
1001
ACAD
1000
MTEXTBEGIN
1070
    73
1070
     1
1070
    44
1040
1.0
1070
    74
1070
     0
1000
MTEXTEND
  0
DIMENSION
  5
234BA
330
747D
100
AcDbEntity
  8
寸法
 48
50.0
100
AcDbDimension
  2
*D63
 10
5692.404991477996
 20
1249.965114633784
 30
0.0
 11
5692.404991477996
 21
1621.505264289785
 31
0.0
 70
   160
  1
540
 71
     5
 42
784.0
  3
INABA_S40G
100
AcDbAlignedDimension
 13
6427.442230039736
 23
2033.965114633784
 33
0.0
 14
6219.442230039739
 24
1249.965114633784
 34
0.0
 50
90.0
100
AcDbRotatedDimension
1001
ACAD
1000
DSTYLE
1002
{
1070
   174
1070
     0
1070
   272
1070
     1
1070
   279
1070
     1
1070
   288
1070
     0
1070
   341
1005
0
1002
}
  0
MTEXT
  5
234BB
102
{ACAD_REACTORS
330
234B5
102
}
330
747D
100
AcDbEntity
  8
寸法
 62
     7
 48
50.0
100
AcDbMText
 10
6156.629931401976
 20
986.1262684759044
 30
0.0
 40
80.0
 41
0.8
 71
     6
 72
     1
  1
D13
  7
STYLE2
 73
     1
 44
1.0
1001
ACAD
1000
MTEXTBEGIN
1070
    73
1070
     1
1070
    44
1040
1.0
1070
    74
1070
     0
1000
MTEXTEND
  0
MTEXT
  5
234BC
102
{ACAD_REACTORS
330
234B4
102
}
330
747D
100
AcDbEntity
  8
寸法
 62
     7
 48
50.0
100
AcDbMText
 10
6128.507203844542
 20
1166.442421015348
 30
0.0
 40
80.0
 41
0.8
 71
     6
 72
     1
  1
D10
  7
STYLE2
 73
     1
 44
1.0
1001
ACAD
1000
MTEXTBEGIN
1070
    73
1070
     1
1070
    44
1040
1.0
1070
    74
1070
     0
1000
MTEXTEND
  0
DIMENSION
  5
234BD
330
747D
100
AcDbEntity
  8
寸法
 48
50.0
100
AcDbDimension
  2
*D64
 10
6747.442230039735
 20
711.5354766286241
 30
0.0
 11
6503.345471361511
 21
711.5354766286241
 31
0.0
 70
   160
  1
300
 71
     5
 42
448.0
  3
INABA_S40G
100
AcDbAlignedDimension
 13
6299.442230039735
 23
1121.965114633784
 33
0.0
 14
6747.442230039735
 24
1121.965114633784
 34
0.0
100
AcDbRotatedDimension
1001
ACAD
1000
DSTYLE
1002
{
1070
   174
1070
     0
1070
   272
1070
     1
1070
   279
1070
     1
1070
   288
1070
     0
1070
   341
1005
0
1002
}
  0
MTEXT
  5
234BE
102
{ACAD_REACTORS
330
234BF
102
}
330
747D
100
AcDbEntity
  8
寸法
 62
     7
 48
50.0
100
AcDbMText
 10
8060.457470871993
 20
2555.766507531936
 30
0.0
 40
80.0
 41
0.8
 71
     6
 72
     1
  1
アンカープレート {\fArial|b0|i0|c0|p32;L}
  7
STYLE2
 73
     1
 44
1.0
1001
ACAD
1000
MTEXTBEGIN
1070
    73
1070
     1
1070
    44
1040
1.0
1070
    74
1070
     0
1000
MTEXTEND
  0
LEADER
  5
234BF
330
747D
100
AcDbEntity
  8
寸法
 48
50.0
100
AcDbLeader
  3
INABA_S40G
 73
     0
 75
     1
 40
106.3636363636363
 41
903.5235024184547
 76
     3
 10
8258.881543216928
 20
2103.525114633786
 30
0.0
 10
8200.457470871992
 20
2462.584689350118
 30
0.0
 10
8100.457470871992
 20
2462.584689350118
 30
0.0
1001
ACAD
1000
DSTYLE
1002
{
1070
   174
1070
     0
1070
   272
1070
     1
1070
   279
1070
     1
1070
   288
1070
     0
1070
   341
1005
0
1002
}
  0
LINE
  5
234C0
330
747D
100
AcDbEntity
  8
細線
 48
50.0
100
AcDbLine
 10
6547.442230039736
 20
1872.338007301615
 30
0.0
 11
6619.442230039736
 21
1944.338007301615
 31
0.0
  0
ARC
  5
234C1
330
747D
100
AcDbEntity
  8
部品1
 48
50.0
100
AcDbCircle
 10
6523.442230039737
 20
1894.21954402803
 30
0.0
 40
24.0
100
AcDbArc
 50
0.0
 51
180.0
  0
CIRCLE
  5
234C2
330
747D
100
AcDbEntity
  8
部品1
 48
50.0
100
AcDbCircle
 10
6523.442230039737
 20
1894.21954402803
 30
0.0
 40
8.0
  0
LINE
  5
234C3
330
747D
100
AcDbEntity
  8
部品1
 48
50.0
100
AcDbLine
 10
6427.442230039736
 20
1489.965114633784
 30
0.0
 11
6427.442230039736
 21
2033.965114633784
 31
0.0
  0
LINE
  5
234C4
330
747D
100
AcDbEntity
  8
部品1
 48
50.0
100
AcDbLine
 10
6619.442230039736
 20
2033.965114633784
 30
0.0
 11
6619.442230039736
 21
1489.965114633784
 31
0.0
  0
MTEXT
  5
234C5
102
{ACAD_REACTORS
330
234CA
102
}
330
747D
100
AcDbEntity
  8
寸法
 62
     7
 48
50.0
100
AcDbMText
 10
6702.328167067131
 20
1895.232675932712
 30
0.0
 40
80.0
 41
0.8
 71
     4
 72
     1
  1
D13
  7
STYLE2
 73
     1
 44
1.0
1001
ACAD
1000
MTEXTBEGIN
1070
    73
1070
     1
1070
    44
1040
1.0
1070
    74
1070
     0
1000
MTEXTEND
  0
LEADER
  5
234C6
330
747D
100
AcDbEntity
  8
寸法
 48
50.0
100
AcDbLeader
  3
INABA_S40G
 71
     0
 73
     0
 74
     0
 75
     1
 40
100.0
 41
225.0
 76
     3
 10
6651.345182391878
 20
1369.965114633784
 30
0.0
 10
6730.76988984642
 20
1274.568045690811
 30
0.0
 10
6830.769889846421
 20
1274.568045690811
 30
0.0
1001
ACAD
1000
DSTYLE
1002
{
1070
   174
1070
     0
1070
   272
1070
     1
1070
   279
1070
     1
1070
   288
1070
     0
1070
   341
1005
0
1002
}
  0
LEADER
  5
234C7
330
747D
100
AcDbEntity
  8
寸法
 48
50.0
100
AcDbLeader
  3
INABA_S40G
 71
     0
 73
     0
 74
     0
 75
     1
 40
100.0
 41
540.3409090909091
 76
     3
 10
6597.38739905291
 20
1353.224584220259
 30
0.0
 10
6741.180685900987
 20
1011.593766225361
 30
0.0
 10
6841.180685900987
 20
1011.593766225361
 30
0.0
213
0.0
223
-1.022262676269383
233
0.0
1001
ACAD
1000
DSTYLE
1002
{
1070
   174
1070
     0
1070
   272
1070
     1
1070
   279
1070
     1
1070
   288
1070
     0
1070
   341
1005
0
1002
}
  0
MTEXT
  5
234C8
102
{ACAD_REACTORS
330
234C6
102
}
330
747D
100
AcDbEntity
  8
寸法
 62
     7
 48
50.0
100
AcDbMText
 10
6850.769889846421
 20
1334.568045690811
 30
0.0
 40
80.0
 41
0.8
 71
     4
 72
     1
  1
D10
  7
STYLE2
 73
     1
 44
1.0
1001
ACAD
1000
MTEXTBEGIN
1070
    73
1070
     1
1070
    44
1040
1.0
1070
    74
1070
     0
1000
MTEXTEND
  0
LWPOLYLINE
  5
234C9
330
747D
100
AcDbEntity
  8
部品1
 48
50.0
100
AcDbPolyline
 90
        2
 70
     0
 43
8.0
 10
6619.442230039735
 20
1793.965114633785
 10
7033.582131872693
 20
1793.965114633785
  0
LEADER
  5
234CA
330
747D
100
AcDbEntity
  8
寸法
 48
50.0
100
AcDbLeader
  3
INABA_S40G
 71
     0
 73
     0
 74
     0
 75
     1
 40
100.0
 41
222.7272727272727
 76
     3
 10
6523.442230039735
 20
1894.21954402803
 30
0.0
 10
6582.328167067131
 20
1835.232675932712
 30
0.0
 10
6682.32816706713
 20
1835.232675932712
 30
0.0
1001
ACAD
1000
DSTYLE
1002
{
1070
   174
1070
     0
1070
   272
1070
     1
1070
   279
1070
     1
1070
   288
1070
     0
1070
   341
1005
0
1002
}
  0
LINE
  5
234CB
330
747D
100
AcDbEntity
  8
細線
 48
50.0
100
AcDbLine
 10
6299.442230039729
 20
1408.811860395955
 30
0.0
 11
6380.595484277565
 21
1489.965114633784
 31
0.0
  0
LINE
  5
234CC
330
747D
100
AcDbEntity
  8
細線
 48
50.0
100
AcDbLine
 10
6507.308077517141
 20
1428.092329330906
 30
0.0
 11
6531.442230039743
 21
1452.226481853505
 31
0.0
  0
LINE
  5
234CD
330
747D
100
AcDbEntity
  8
細線
 48
50.0
100
AcDbLine
 10
6414.240094456809
 20
1361.965114633784
 30
0.0
 11
6531.442230039736
 21
1479.16725021671
 31
0.0
  0
LINE
  5
234CE
330
747D
100
AcDbEntity
  8
部品1
 48
50.0
100
AcDbLine
 10
6299.442230039737
 20
1249.965114633784
 30
0.0
 11
6299.442230039737
 21
1489.965114633784
 31
0.0
  0
LINE
  5
234CF
330
747D
100
AcDbEntity
  8
細線
 48
50.0
100
AcDbLine
 10
6656.70700972568
 20
1361.965114633784
 30
0.0
 11
6747.442230039736
 21
1452.700334947843
 31
0.0
  0
LINE
  5
234D0
330
747D
100
AcDbEntity
  8
細線
 48
50.0
100
AcDbLine
 10
6629.766241362464
 20
1361.965114633784
 30
0.0
 11
6747.442230039736
 21
1479.64110331105
 31
0.0
  0
LINE
  5
234D1
330
747D
100
AcDbEntity
  8
部品1
 48
50.0
100
AcDbLine
 10
6747.442230039736
 20
1489.965114633784
 30
0.0
 11
6747.442230039736
 21
1249.965114633784
 31
0.0
  0
LINE
  5
234D2
330
747D
100
AcDbEntity
  8
部品1
 48
50.0
100
AcDbLine
 10
6547.442230039742
 20
1369.965114633784
 30
0.0
 11
6547.442230039736
 21
1894.21954402803
 31
0.0
  0
LINE
  5
234D3
330
747D
100
AcDbEntity
  8
部品1
 48
50.0
100
AcDbLine
 10
6531.442230039743
 20
1369.965114633784
 30
0.0
 11
6531.442230039729
 21
1894.21954402803
 31
0.0
  0
LINE
  5
234D4
330
747D
100
AcDbEntity
  8
細線
 48
50.0
100
AcDbLine
 10
6515.442230039737
 20
1409.285713490296
 30
0.0
 11
6531.442230039743
 21
1425.285713490296
 31
0.0
  0
LINE
  5
234D5
330
747D
100
AcDbEntity
  8
細線
 48
50.0
100
AcDbLine
 10
6504.62506953575
 20
1121.965114633784
 30
0.0
 11
6538.922566166933
 21
1249.965114633784
 31
0.0
  0
LINE
  5
234D6
330
747D
100
AcDbEntity
  8
部品1
 48
50.0
100
AcDbLine
 10
6827.44223003974
 20
1121.965114633784
 30
0.0
 11
6219.442230039739
 21
1121.965114633784
 31
0.0
  0
LINE
  5
234D7
330
747D
100
AcDbEntity
  8
部品1
 48
50.0
100
AcDbLine
 10
6355.442230039736
 20
1345.965114633784
 30
0.0
 11
6691.442230039736
 21
1345.965114633784
 31
0.0
  0
LINE
  5
234D8
330
747D
100
AcDbEntity
  8
部品1
 48
50.0
100
AcDbLine
 10
6355.442230039736
 20
1361.965114633784
 30
0.0
 11
6691.442230039736
 21
1361.965114633784
 31
0.0
  0
LINE
  5
234D9
330
747D
100
AcDbEntity
  8
部品1
 48
50.0
100
AcDbLine
 10
6827.44223003974
 20
1249.965114633784
 30
0.0
 11
6219.442230039739
 21
1249.965114633784
 31
0.0
  0
CIRCLE
  5
234DA
330
747D
100
AcDbEntity
  8
部品1
 48
50.0
100
AcDbCircle
 10
6523.442230039737
 20
1369.965114633784
 30
0.0
 40
8.0
  0
LINE
  5
234DB
330
747D
100
AcDbEntity
  8
細線
 48
50.0
100
AcDbLine
 10
6517.766241362469
 20
1249.965114633784
 30
0.0
 11
6613.766241362469
 21
1345.965114633784
 31
0.0
  0
LINE
  5
234DC
330
747D
100
AcDbEntity
  8
細線
 48
50.0
100
AcDbLine
 10
6346.848979641253
 20
1121.965114633784
 30
0.0
 11
6381.146476272435
 21
1249.965114633784
 31
0.0
  0
LINE
  5
234DD
330
747D
100
AcDbEntity
  8
細線
 48
50.0
100
AcDbLine
 10
6425.737024588497
 20
1121.965114633782
 30
0.0
 11
6460.034521219681
 21
1249.965114633782
 31
0.0
  0
LINE
  5
234DE
330
747D
100
AcDbEntity
  8
細線
 48
50.0
100
AcDbLine
 10
6267.960934693994
 20
1121.965114633782
 30
0.0
 11
6302.258431325178
 21
1249.965114633782
 31
0.0
  0
LINE
  5
234DF
330
747D
100
AcDbEntity
  8
部品1
 48
50.0
100
AcDbLine
 10
6219.442230039739
 20
1121.965114633784
 30
0.0
 11
6219.442230039739
 21
1249.965114633784
 31
0.0
  0
LINE
  5
234E0
330
747D
100
AcDbEntity
  8
細線
 48
50.0
100
AcDbLine
 10
6353.279760259598
 20
1145.965114633784
 30
0.0
 11
6359.710540877946
 21
1121.965114633784
 31
0.0
  0
LINE
  5
234E1
330
747D
100
AcDbEntity
  8
細線
 48
50.0
100
AcDbLine
 10
6274.391715312347
 20
1145.965114633784
 30
0.0
 11
6280.822495930693
 21
1121.965114633784
 31
0.0
  0
LINE
  5
234E2
330
747D
100
AcDbEntity
  8
細線
 48
50.0
100
AcDbLine
 10
6511.055850154104
 20
1145.965114633784
 30
0.0
 11
6517.48663077245
 21
1121.965114633784
 31
0.0
  0
LINE
  5
234E3
330
747D
100
AcDbEntity
  8
細線
 48
50.0
100
AcDbLine
 10
6432.167805206851
 20
1145.965114633784
 30
0.0
 11
6438.598585825197
 21
1121.965114633784
 31
0.0
  0
LINE
  5
234E4
330
747D
100
AcDbEntity
  8
細線
 48
50.0
100
AcDbLine
 10
6329.18086282002
 20
1249.965114633784
 30
0.0
 11
6425.180862820019
 21
1345.965114633784
 31
0.0
  0
LINE
  5
234E5
330
747D
100
AcDbEntity
  8
細線
 48
50.0
100
AcDbLine
 10
6302.240094456809
 20
1249.965114633784
 30
0.0
 11
6398.240094456809
 21
1345.965114633784
 31
0.0
  0
LINE
  5
234E6
330
747D
100
AcDbEntity
  8
部品1
 48
50.0
100
AcDbLine
 10
6355.442230039736
 20
1361.965114633784
 30
0.0
 11
6355.442230039736
 21
1345.965114633784
 31
0.0
  0
LINE
  5
234E7
330
747D
100
AcDbEntity
  8
細線
 48
50.0
100
AcDbLine
 10
6295.827650706836
 20
1225.965114633784
 30
0.0
 11
6289.396870088489
 21
1249.965114633784
 31
0.0
  0
LINE
  5
234E8
330
747D
100
AcDbEntity
  8
細線
 48
50.0
100
AcDbLine
 10
6219.442230039736
 20
1235.305035599564
 30
0.0
 11
6223.370386377932
 21
1249.965114633784
 31
0.0
  0
LINE
  5
234E9
330
747D
100
AcDbEntity
  8
部品1
 48
50.0
100
AcDbLine
 10
6515.442230039737
 20
1428.092329330906
 30
0.0
 11
6499.442230039736
 21
1428.092329330906
 31
0.0
  0
CIRCLE
  5
234EA
330
747D
100
AcDbEntity
  8
部品1
 48
50.0
100
AcDbCircle
 10
6395.442230039737
 20
1369.965114633784
 30
0.0
 40
8.0
  0
LINE
  5
234EB
330
747D
100
AcDbEntity
  8
細線
 48
50.0
100
AcDbLine
 10
6468.121631183224
 20
1361.965114633784
 30
0.0
 11
6499.442230039736
 21
1393.285713490296
 31
0.0
  0
ARC
  5
234EC
330
747D
100
AcDbEntity
  8
部品1
 48
50.0
100
AcDbCircle
 10
6523.442230039737
 20
1369.965114633784
 30
0.0
 40
24.0
100
AcDbArc
 50
180.0
 51
199.4712206344805
  0
LINE
  5
234ED
330
747D
100
AcDbEntity
  8
細線
 48
50.0
100
AcDbLine
 10
6374.715695654088
 20
1225.965114633784
 30
0.0
 11
6368.284915035742
 21
1249.965114633784
 31
0.0
  0
LINE
  5
234EE
330
747D
100
AcDbEntity
  8
細線
 48
50.0
100
AcDbLine
 10
6453.603740601341
 20
1225.965114633784
 30
0.0
 11
6447.172959982994
 21
1249.965114633784
 31
0.0
  0
LINE
  5
234EF
330
747D
100
AcDbEntity
  8
細線
 48
50.0
100
AcDbLine
 10
6356.121631183225
 20
1249.965114633784
 30
0.0
 11
6452.121631183224
 21
1345.965114633784
 31
0.0
  0
LINE
  5
234F0
330
747D
100
AcDbEntity
  8
部品1
 48
50.0
100
AcDbLine
 10
6499.442230039736
 20
1428.092329330906
 30
0.0
 11
6499.442230039736
 21
1369.965114633784
 31
0.0
  0
LINE
  5
234F1
330
747D
100
AcDbEntity
  8
細線
 48
50.0
100
AcDbLine
 10
6441.180862820019
 20
1361.965114633784
 30
0.0
 11
6499.442230039736
 21
1420.226481853503
 31
0.0
  0
LINE
  5
234F2
330
747D
100
AcDbEntity
  8
部品1
 48
50.0
100
AcDbLine
 10
6515.442230039737
 20
1428.092329330906
 30
0.0
 11
6515.442230039737
 21
1369.965114633784
 31
0.0
  0
LINE
  5
234F3
330
747D
100
AcDbEntity
  8
部品1
 48
50.0
100
AcDbLine
 10
6827.44223003974
 20
1249.965114633784
 30
0.0
 11
6827.44223003974
 21
1121.965114633784
 31
0.0
  0
LINE
  5
234F4
330
747D
100
AcDbEntity
  8
細線
 48
50.0
100
AcDbLine
 10
6741.289204377491
 20
1121.965114633784
 30
0.0
 11
6775.586701008674
 21
1249.965114633782
 31
0.0
  0
LINE
  5
234F5
330
747D
100
AcDbEntity
  8
細線
 48
50.0
100
AcDbLine
 10
6583.513114482996
 20
1121.965114633784
 30
0.0
 11
6617.810611114183
 21
1249.965114633782
 31
0.0
  0
LINE
  5
234F6
330
747D
100
AcDbEntity
  8
細線
 48
50.0
100
AcDbLine
 10
6662.401159430245
 20
1121.965114633782
 30
0.0
 11
6696.69865606143
 21
1249.965114633782
 31
0.0
  0
LINE
  5
234F7
330
747D
100
AcDbEntity
  8
細線
 48
50.0
100
AcDbLine
 10
6668.831940048594
 20
1145.965114633784
 30
0.0
 11
6675.262720666942
 21
1121.965114633784
 31
0.0
  0
LINE
  5
234F8
330
747D
100
AcDbEntity
  8
細線
 48
50.0
100
AcDbLine
 10
6589.943895101349
 20
1145.965114633784
 30
0.0
 11
6596.374675719696
 21
1121.965114633784
 31
0.0
  0
LINE
  5
234F9
330
747D
100
AcDbEntity
  8
細線
 48
50.0
100
AcDbLine
 10
6747.719984995841
 20
1145.965114633784
 30
0.0
 11
6754.150765614189
 21
1121.965114633784
 31
0.0
  0
LINE
  5
234FA
330
747D
100
AcDbEntity
  8
細線
 48
50.0
100
AcDbLine
 10
6826.608029943088
 20
1145.965114633784
 30
0.0
 11
6827.442230039736
 21
1142.85183748942
 31
0.0
  0
LINE
  5
234FB
330
747D
100
AcDbEntity
  8
細線
 48
50.0
100
AcDbLine
 10
6820.177249324739
 20
1121.965114633782
 30
0.0
 11
6827.442230039736
 21
1149.078391778172
 31
0.0
  0
LINE
  5
234FC
330
747D
100
AcDbEntity
  8
細線
 48
50.0
100
AcDbLine
 10
6683.647778088884
 20
1361.965114633784
 30
0.0
 11
6747.442230039736
 21
1425.759566584635
 31
0.0
  0
CIRCLE
  5
234FD
330
747D
100
AcDbEntity
  8
部品1
 48
50.0
100
AcDbCircle
 10
6651.442230039737
 20
1369.965114633784
 30
0.0
 40
8.0
  0
ARC
  5
234FE
330
747D
100
AcDbEntity
  8
部品1
 48
50.0
100
AcDbCircle
 10
6523.442230039737
 20
1369.965114633784
 30
0.0
 40
24.0
100
AcDbArc
 50
340.5287793655195
 51
0.0
  0
LINE
  5
234FF
330
747D
100
AcDbEntity
  8
細線
 48
50.0
100
AcDbLine
 10
6532.491785548593
 20
1225.965114633784
 30
0.0
 11
6526.061004930245
 21
1249.965114633784
 31
0.0
  0
LINE
  5
23500
330
747D
100
AcDbEntity
  8
細線
 48
50.0
100
AcDbLine
 10
6611.379830495838
 20
1225.965114633784
 30
0.0
 11
6604.949049877493
 21
1249.965114633784
 31
0.0
  0
LINE
  5
23501
330
747D
100
AcDbEntity
  8
細線
 48
50.0
100
AcDbLine
 10
6544.70700972568
 20
1249.965114633784
 30
0.0
 11
6640.70700972568
 21
1345.965114633784
 31
0.0
  0
LINE
  5
23502
330
747D
100
AcDbEntity
  8
細線
 48
50.0
100
AcDbLine
 10
6571.647778088884
 20
1249.965114633784
 30
0.0
 11
6667.648665934021
 21
1345.966002478923
 31
0.0
  0
LINE
  5
23503
330
747D
100
AcDbEntity
  8
部品1
 48
50.0
100
AcDbLine
 10
6691.442230039736
 20
1361.965114633784
 30
0.0
 11
6691.442230039736
 21
1345.965114633784
 31
0.0
  0
LINE
  5
23504
330
747D
100
AcDbEntity
  8
細線
 48
50.0
100
AcDbLine
 10
6769.155920390331
 20
1225.965114633784
 30
0.0
 11
6762.725139771983
 21
1249.965114633784
 31
0.0
  0
LINE
  5
23505
330
747D
100
AcDbEntity
  8
細線
 48
50.0
100
AcDbLine
 10
6733.29238826813
 20
1249.965114633784
 30
0.0
 11
6747.442230039736
 21
1264.114956405391
 31
0.0
  0
LINE
  5
23506
330
747D
100
AcDbEntity
  8
細線
 48
50.0
100
AcDbLine
 10
6690.267875443083
 20
1225.965114633784
 30
0.0
 11
6683.837094824737
 21
1249.965114633784
 31
0.0
  0
LINE
  5
23507
330
747D
100
AcDbEntity
  8
細線
 48
50.0
100
AcDbLine
 10
6427.442230039736
 20
1563.752628759162
 30
0.0
 11
6531.442230039743
 21
1667.752628759165
 31
0.0
  0
LINE
  5
23508
330
747D
100
AcDbEntity
  8
細線
 48
50.0
100
AcDbLine
 10
6427.442230039736
 20
1590.69339712237
 30
0.0
 11
6531.442230039736
 21
1694.69339712237
 31
0.0
  0
LINE
  5
23509
330
747D
100
AcDbEntity
  8
細線
 48
50.0
100
AcDbLine
 10
6427.442230039736
 20
1536.811860395955
 30
0.0
 11
6531.442230039743
 21
1640.811860395955
 31
0.0
  0
LINE
  5
2350A
330
747D
100
AcDbEntity
  8
細線
 48
50.0
100
AcDbLine
 10
6515.442230039737
 20
1840.338007301615
 30
0.0
 11
6531.442230039736
 21
1856.338007301615
 31
0.0
  0
LINE
  5
2350B
330
747D
100
AcDbEntity
  8
細線
 48
50.0
100
AcDbLine
 10
6515.442230039737
 20
1867.278775664822
 30
0.0
 11
6531.442230039736
 21
1883.278775664822
 31
0.0
  0
LINE
  5
2350C
330
747D
100
AcDbEntity
  8
部品1
 48
50.0
100
AcDbLine
 10
6299.442230039737
 20
1489.965114633784
 30
0.0
 11
6427.442230039736
 21
1489.965114633784
 31
0.0
  0
LINE
  5
2350D
330
747D
100
AcDbEntity
  8
細線
 48
50.0
100
AcDbLine
 10
6299.442230039729
 20
1435.752628759159
 30
0.0
 11
6353.654715914361
 21
1489.965114633784
 31
0.0
  0
LINE
  5
2350E
330
747D
100
AcDbEntity
  8
細線
 48
50.0
100
AcDbLine
 10
6299.442230039729
 20
1462.69339712237
 30
0.0
 11
6326.713947551151
 21
1489.965114633784
 31
0.0
  0
LINE
  5
2350F
330
747D
100
AcDbEntity
  8
部品1
 48
50.0
100
AcDbLine
 10
6515.442230039737
 20
1836.092329330907
 30
0.0
 11
6499.442230039736
 21
1836.09232933091
 31
0.0
  0
LINE
  5
23510
330
747D
100
AcDbEntity
  8
細線
 48
50.0
100
AcDbLine
 10
6427.442230039736
 20
1752.338007301614
 30
0.0
 11
6511.19655206903
 21
1836.092329330907
 31
0.0
  0
LINE
  5
23511
330
747D
100
AcDbEntity
  8
細線
 48
50.0
100
AcDbLine
 10
6427.442230039736
 20
1779.278775664822
 30
0.0
 11
6499.442230039736
 21
1851.278775664822
 31
0.0
  0
LINE
  5
23512
330
747D
100
AcDbEntity
  8
部品1
 48
50.0
100
AcDbLine
 10
6499.442230039736
 20
1836.09232933091
 30
0.0
 11
6499.442230039736
 21
1894.21954402803
 31
0.0
  0
LINE
  5
23513
330
747D
100
AcDbEntity
  8
細線
 48
50.0
100
AcDbLine
 10
6427.442230039736
 20
1806.21954402803
 30
0.0
 11
6499.442230039736
 21
1878.21954402803
 31
0.0
  0
LINE
  5
23514
330
747D
100
AcDbEntity
  8
部品1
 48
50.0
100
AcDbLine
 10
6515.442230039737
 20
1836.092329330907
 30
0.0
 11
6515.442230039737
 21
1894.21954402803
 31
0.0
  0
LINE
  5
23515
330
747D
100
AcDbEntity
  8
細線
 48
50.0
100
AcDbLine
 10
6547.442230039742
 20
1656.811860395955
 30
0.0
 11
6619.442230039729
 21
1728.811860395955
 31
0.0
  0
LINE
  5
23516
330
747D
100
AcDbEntity
  8
部品1
 48
50.0
100
AcDbLine
 10
6619.442230039736
 20
1489.965114633784
 30
0.0
 11
6747.442230039736
 21
1489.965114633784
 31
0.0
  0
LINE
  5
23517
330
747D
100
AcDbEntity
  8
細線
 48
50.0
100
AcDbLine
 10
6547.442230039742
 20
1468.226481853505
 30
0.0
 11
6619.442230039729
 21
1540.2264818535
 31
0.0
  0
LINE
  5
23518
330
747D
100
AcDbEntity
  8
細線
 48
50.0
100
AcDbLine
 10
6547.442230039742
 20
1495.167250216713
 30
0.0
 11
6619.442230039729
 21
1567.16725021671
 31
0.0
  0
LINE
  5
23519
330
747D
100
AcDbEntity
  8
細線
 48
50.0
100
AcDbLine
 10
6547.442230039742
 20
1441.285713490296
 30
0.0
 11
6619.442230039729
 21
1513.285713490295
 31
0.0
  0
LINE
  5
2351A
330
747D
100
AcDbEntity
  8
細線
 48
50.0
100
AcDbLine
 10
6547.442230039736
 20
1710.69339712237
 30
0.0
 11
6619.442230039736
 21
1782.69339712237
 31
0.0
  0
LINE
  5
2351B
330
747D
100
AcDbEntity
  8
細線
 48
50.0
100
AcDbLine
 10
6547.442230039742
 20
1683.752628759165
 30
0.0
 11
6619.442230039729
 21
1755.752628759159
 31
0.0
  0
MTEXT
  5
2351C
102
{ACAD_REACTORS
330
234C7
102
}
330
747D
100
AcDbEntity
  8
寸法
 62
     7
 48
50.0
100
AcDbMText
 10
6861.180685900987
 20
1072.616028901631
 30
0.0
 40
80.0
 41
0.8
 71
     4
 72
     1
  1
\A1;D10@300
  7
STYLE2
 73
     1
 44
1.0
1001
ACAD
1000
MTEXTBEGIN
1070
    73
1070
     1
1070
    44
1040
1.0
1070
    74
1070
     0
1000
MTEXTEND
  0
DIMENSION
  5
2351D
330
747D
100
AcDbEntity
  8
寸法
 48
50.0
100
AcDbDimension
  2
*D65
 10
6427.442230039736
 20
2353.965114633784
 30
0.0
 11
6534.668560384933
 21
2453.632922550165
 31
0.0
 70
   160
  1
120\P200\P280
 71
     5
 42
192.0
  3
INABA_S40G
100
AcDbAlignedDimension
 13
6619.442230039735
 23
2033.965114633784
 33
0.0
 14
6427.442230039736
 24
2033.965114633784
 34
0.0
100
AcDbRotatedDimension
1001
ACAD
1000
DSTYLE
1002
{
1070
   174
1070
     0
1070
   272
1070
     1
1070
   279
1070
     1
1070
   288
1070
     0
1070
   341
1005
0
1002
}
  0
LINE
  5
2351E
330
747D
100
AcDbEntity
  8
部品1
 48
50.0
100
AcDbLine
 10
6427.442230039736
 20
2033.965114633784
 30
0.0
 11
6619.442230039736
 21
2033.965114633784
 31
0.0
  0
LINE
  5
2351F
330
747D
100
AcDbEntity
  8
細線
 48
50.0
100
AcDbLine
 10
6427.442230039736
 20
1994.804922570482
 30
0.0
 11
6466.60242210304
 21
2033.965114633784
 31
0.0
  0
LINE
  5
23520
330
747D
100
AcDbEntity
  8
細線
 48
50.0
100
AcDbLine
 10
6427.442230039736
 20
1967.864154207274
 30
0.0
 11
6493.543190466245
 21
2033.965114633784
 31
0.0
  0
LINE
  5
23521
330
747D
100
AcDbEntity
  8
細線
 48
50.0
100
AcDbLine
 10
6427.442230039736
 20
2021.745690933689
 30
0.0
 11
6439.661653739832
 21
2033.965114633784
 31
0.0
  0
LINE
  5
23522
330
747D
100
AcDbEntity
  8
細線
 48
50.0
100
AcDbLine
 10
6546.994937305723
 20
1898.831482930806
 30
0.0
 11
6619.442230039736
 21
1971.278775664822
 31
0.0
  0
LINE
  5
23523
330
747D
100
AcDbEntity
  8
細線
 48
50.0
100
AcDbLine
 10
6535.934652542207
 20
1914.7119665305
 30
0.0
 11
6619.442230039736
 21
1998.21954402803
 31
0.0
  0
LINE
  5
23524
330
747D
100
AcDbEntity
  8
細線
 48
50.0
100
AcDbLine
 10
8411.881543216933
 20
1875.093397122373
 30
0.0
 11
8541.481543216928
 21
2004.693397122371
 31
0.0
  0
LINE
  5
23525
330
747D
100
AcDbEntity
  8
部品1
100
AcDbLine
 10
8541.481543216928
 20
1489.965114633784
 30
0.0
 11
8541.481543216928
 21
2033.965114633784
 31
0.0
  0
LINE
  5
23526
330
747D
100
AcDbEntity
  8
部品1
 48
50.0
100
AcDbLine
 10
8127.48154321693
 20
1489.965114633784
 30
0.0
 11
8127.48154321693
 21
2033.965114633784
 31
0.0
  0
LINE
  5
23527
330
747D
100
AcDbEntity
  8
細線
 48
50.0
100
AcDbLine
 10
8127.48154321693
 20
1806.21954402803
 30
0.0
 11
8285.881543216929
 21
1964.619544028026
 31
0.0
  0
LINE
  5
23528
330
747D
100
AcDbEntity
  8
細線
 48
50.0
100
AcDbLine
 10
8127.48154321693
 20
1779.278775664822
 30
0.0
 11
8285.881543216929
 21
1937.678775664819
 31
0.0
  0
LINE
  5
23529
330
747D
100
AcDbEntity
  8
細線
 48
50.0
100
AcDbLine
 10
8127.48154321693
 20
1752.338007301614
 30
0.0
 11
8285.881543216925
 21
1910.738007301607
 31
0.0
  0
TEXT
  5
2352A
330
747D
100
AcDbEntity
  8
部品1
 48
50.0
100
AcDbText
 10
7713.341641383974
 20
1805.20410691704
 30
0.0
 40
80.0
  1
▽G.L
  7
STYLE2
100
AcDbText
  0
LINE
  5
2352B
330
747D
100
AcDbEntity
  8
部品1
100
AcDbLine
 10
8357.881543216929
 20
1808.965114633784
 30
0.0
 11
8357.881543216924
 21
2083.125114633785
 31
0.0
  0
LINE
  5
2352C
330
747D
100
AcDbEntity
  8
部品1
100
AcDbLine
 10
8339.881543216929
 20
1808.965114633784
 30
0.0
 11
8339.881543216925
 21
2083.125114633785
 31
0.0
  0
LINE
  5
2352D
330
747D
100
AcDbEntity
  8
細線
 48
50.0
100
AcDbLine
 10
8411.881543216933
 20
1821.211860395943
 30
0.0
 11
8541.481543216928
 21
1950.811860395934
 31
0.0
  0
LINE
  5
2352E
330
747D
100
AcDbEntity
  8
細線
 48
50.0
100
AcDbLine
 10
8411.881543216933
 20
1848.152628759155
 30
0.0
 11
8541.481543216928
 21
1977.752628759152
 31
0.0
  0
LINE
  5
2352F
330
747D
100
AcDbEntity
  8
部品1
100
AcDbLine
 10
8411.881543216928
 20
1709.965114633784
 30
0.0
 11
8411.881543216928
 21
2033.965114633784
 31
0.0
  0
LINE
  5
23530
330
747D
100
AcDbEntity
  8
部品1
100
AcDbLine
 10
8285.881543216925
 20
1709.965114633784
 30
0.0
 11
8285.881543216929
 21
2033.965114633784
 31
0.0
  0
LINE
  5
23531
330
747D
100
AcDbEntity
  8
細線
 48
50.0
100
AcDbLine
 10
8127.48154321693
 20
1563.752628759162
 30
0.0
 11
8285.881543216921
 21
1722.152628759151
 31
0.0
  0
LINE
  5
23532
330
747D
100
AcDbEntity
  8
細線
 48
50.0
100
AcDbLine
 10
8127.48154321693
 20
1536.811860395955
 30
0.0
 11
8300.634797454765
 21
1709.965114633782
 31
0.0
  0
LINE
  5
23533
330
747D
100
AcDbEntity
  8
細線
 48
50.0
100
AcDbLine
 10
8127.48154321693
 20
1590.69339712237
 30
0.0
 11
8285.881543216921
 21
1749.093397122365
 31
0.0
  0
LINE
  5
23534
330
747D
100
AcDbEntity
  8
細線
 48
50.0
100
AcDbLine
 10
8056.160944360419
 20
1249.965114633784
 30
0.0
 11
8541.481543216928
 21
1735.285713490292
 31
0.0
  0
LINE
  5
23535
330
747D
100
AcDbEntity
  8
細線
 48
50.0
100
AcDbLine
 10
8029.220175997213
 20
1249.965114633784
 30
0.0
 11
8541.48154321693
 21
1762.226481853498
 31
0.0
  0
LINE
  5
23536
330
747D
100
AcDbEntity
  8
細線
 48
50.0
100
AcDbLine
 10
8002.279407634004
 20
1249.965114633784
 30
0.0
 11
8541.481543216928
 21
1789.167250216709
 31
0.0
  0
LINE
  5
23537
330
747D
100
AcDbEntity
  8
部品1
 48
50.0
100
AcDbLine
 10
8749.48154321693
 20
1249.965114633784
 30
0.0
 11
7919.481543216932
 21
1249.965114633784
 31
0.0
  0
LINE
  5
23538
330
747D
100
AcDbEntity
  8
部品1
 48
50.0
100
AcDbLine
 10
8749.48154321693
 20
1121.965114633784
 30
0.0
 11
7919.481543216932
 21
1121.965114633784
 31
0.0
  0
LINE
  5
23539
330
747D
100
AcDbEntity
  8
細線
 48
50.0
100
AcDbLine
 10
7999.481543216925
 20
1408.811860395955
 30
0.0
 11
8080.634797454758
 21
1489.965114633784
 31
0.0
  0
LINE
  5
2353A
330
747D
100
AcDbEntity
  8
部品1
 48
50.0
100
AcDbLine
 10
7999.48154321693
 20
1249.965114633784
 30
0.0
 11
7999.48154321693
 21
1489.965114633784
 31
0.0
  0
LINE
  5
2353B
330
747D
100
AcDbEntity
  8
細線
 48
50.0
100
AcDbLine
 10
8046.888292818447
 20
1121.965114633784
 30
0.0
 11
8081.185789449628
 21
1249.965114633784
 31
0.0
  0
LINE
  5
2353C
330
747D
100
AcDbEntity
  8
部品1
 48
50.0
100
AcDbLine
 10
7919.481543216932
 20
1121.965114633784
 30
0.0
 11
7919.481543216932
 21
1249.965114633784
 31
0.0
  0
LINE
  5
2353D
330
747D
100
AcDbEntity
  8
細線
 48
50.0
100
AcDbLine
 10
7968.000247871188
 20
1121.965114633782
 30
0.0
 11
8002.297744502373
 21
1249.965114633782
 31
0.0
  0
LINE
  5
2353E
330
747D
100
AcDbEntity
  8
細線
 48
50.0
100
AcDbLine
 10
8125.776337765692
 20
1121.965114633782
 30
0.0
 11
8160.073834396873
 21
1249.965114633782
 31
0.0
  0
LINE
  5
2353F
330
747D
100
AcDbEntity
  8
細線
 48
50.0
100
AcDbLine
 10
7974.43102848954
 20
1145.965114633784
 30
0.0
 11
7980.861809107887
 21
1121.965114633784
 31
0.0
  0
LINE
  5
23540
330
747D
100
AcDbEntity
  8
細線
 48
50.0
100
AcDbLine
 10
8132.207118384044
 20
1145.965114633784
 30
0.0
 11
8138.637899002391
 21
1121.965114633784
 31
0.0
  0
LINE
  5
23541
330
747D
100
AcDbEntity
  8
細線
 48
50.0
100
AcDbLine
 10
8053.319073436794
 20
1145.965114633784
 30
0.0
 11
8059.749854055139
 21
1121.965114633784
 31
0.0
  0
LINE
  5
23542
330
747D
100
AcDbEntity
  8
細線
 48
50.0
100
AcDbLine
 10
7919.481543216931
 20
1235.305035599564
 30
0.0
 11
7923.409699555126
 21
1249.965114633784
 31
0.0
  0
LINE
  5
23543
330
747D
100
AcDbEntity
  8
細線
 48
50.0
100
AcDbLine
 10
7995.86696388403
 20
1225.965114633784
 30
0.0
 11
7989.436183265684
 21
1249.965114633784
 31
0.0
  0
LINE
  5
23544
330
747D
100
AcDbEntity
  8
細線
 48
50.0
100
AcDbLine
 10
8153.643053778536
 20
1225.965114633784
 30
0.0
 11
8147.212273160189
 21
1249.965114633784
 31
0.0
  0
LINE
  5
23545
330
747D
100
AcDbEntity
  8
細線
 48
50.0
100
AcDbLine
 10
8074.755008831282
 20
1225.965114633784
 30
0.0
 11
8068.324228212935
 21
1249.965114633784
 31
0.0
  0
LWPOLYLINE
  5
23546
330
747D
100
AcDbEntity
  8
部品1
 48
50.0
100
AcDbPolyline
 90
        2
 70
     0
 43
8.0
 10
7713.341641383974
 20
1793.965114633785
 10
8127.48154321693
 20
1793.965114633785
  0
LINE
  5
23547
330
747D
100
AcDbEntity
  8
細線
 48
50.0
100
AcDbLine
 10
7999.481543216925
 20
1435.752628759159
 30
0.0
 11
8053.694029091555
 21
1489.965114633784
 31
0.0
  0
LINE
  5
23548
330
747D
100
AcDbEntity
  8
部品1
 48
50.0
100
AcDbLine
 10
7999.48154321693
 20
1489.965114633784
 30
0.0
 11
8127.48154321693
 21
1489.965114633784
 31
0.0
  0
LINE
  5
23549
330
747D
100
AcDbEntity
  8
細線
 48
50.0
100
AcDbLine
 10
7999.481543216925
 20
1462.69339712237
 30
0.0
 11
8026.753260728343
 21
1489.965114633784
 31
0.0
  0
LINE
  5
2354A
330
747D
100
AcDbEntity
  8
細線
 48
50.0
100
AcDbLine
 10
8244.746322902873
 20
1249.965114633784
 30
0.0
 11
8541.481543216928
 21
1546.700334947837
 31
0.0
  0
LINE
  5
2354B
330
747D
100
AcDbEntity
  8
細線
 48
50.0
100
AcDbLine
 10
8271.687091266079
 20
1249.965114633784
 30
0.0
 11
8541.481543216928
 21
1519.759566584641
 31
0.0
  0
LINE
  5
2354C
330
747D
100
AcDbEntity
  8
細線
 48
50.0
100
AcDbLine
 10
8217.805554539664
 20
1249.965114633784
 30
0.0
 11
8541.481543216928
 21
1573.64110331105
 31
0.0
  0
LINE
  5
2354D
330
747D
100
AcDbEntity
  8
細線
 48
50.0
100
AcDbLine
 10
8433.331701445323
 20
1249.965114633784
 30
0.0
 11
8669.481543216928
 21
1486.114956405392
 31
0.0
  0
LINE
  5
2354E
330
747D
100
AcDbEntity
  8
細線
 48
50.0
100
AcDbLine
 10
8460.272469808534
 20
1249.965114633784
 30
0.0
 11
8669.481543216928
 21
1459.174188042177
 31
0.0
  0
LINE
  5
2354F
330
747D
100
AcDbEntity
  8
部品1
 48
50.0
100
AcDbLine
 10
8669.481543216928
 20
1489.965114633784
 30
0.0
 11
8669.481543216928
 21
1249.965114633784
 31
0.0
  0
LINE
  5
23550
330
747D
100
AcDbEntity
  8
細線
 48
50.0
100
AcDbLine
 10
8487.213238171738
 20
1249.965114633784
 30
0.0
 11
8669.481543216928
 21
1432.23341967898
 31
0.0
  0
LINE
  5
23551
330
747D
100
AcDbEntity
  8
細線
 48
50.0
100
AcDbLine
 10
8362.440472607438
 20
1121.965114633782
 30
0.0
 11
8396.737969238619
 21
1249.965114633782
 31
0.0
  0
LINE
  5
23552
330
747D
100
AcDbEntity
  8
細線
 48
50.0
100
AcDbLine
 10
8204.664382712945
 20
1121.965114633784
 30
0.0
 11
8238.961879344126
 21
1249.965114633784
 31
0.0
  0
LINE
  5
23553
330
747D
100
AcDbEntity
  8
細線
 48
50.0
100
AcDbLine
 10
8283.55242766019
 20
1121.965114633784
 30
0.0
 11
8317.849924291374
 21
1249.965114633782
 31
0.0
  0
LINE
  5
23554
330
747D
100
AcDbEntity
  8
細線
 48
50.0
100
AcDbLine
 10
8441.32851755468
 20
1121.965114633784
 30
0.0
 11
8475.626014185866
 21
1249.965114633782
 31
0.0
  0
LINE
  5
23555
330
747D
100
AcDbEntity
  8
細線
 48
50.0
100
AcDbLine
 10
8289.983208278544
 20
1145.965114633784
 30
0.0
 11
8296.41398889689
 21
1121.965114633784
 31
0.0
  0
LINE
  5
23556
330
747D
100
AcDbEntity
  8
細線
 48
50.0
100
AcDbLine
 10
8211.095163331298
 20
1145.965114633784
 30
0.0
 11
8217.525943949643
 21
1121.965114633784
 31
0.0
  0
LINE
  5
23557
330
747D
100
AcDbEntity
  8
細線
 48
50.0
100
AcDbLine
 10
8447.759298173034
 20
1145.965114633784
 30
0.0
 11
8454.190078791381
 21
1121.965114633784
 31
0.0
  0
LINE
  5
23558
330
747D
100
AcDbEntity
  8
細線
 48
50.0
100
AcDbLine
 10
8368.871253225789
 20
1145.965114633784
 30
0.0
 11
8375.302033844134
 21
1121.965114633784
 31
0.0
  0
LINE
  5
23559
330
747D
100
AcDbEntity
  8
細線
 48
50.0
100
AcDbLine
 10
8311.419143673033
 20
1225.965114633784
 30
0.0
 11
8304.988363054688
 21
1249.965114633784
 31
0.0
  0
LINE
  5
2355A
330
747D
100
AcDbEntity
  8
細線
 48
50.0
100
AcDbLine
 10
8232.531098725788
 20
1225.965114633784
 30
0.0
 11
8226.100318107437
 21
1249.965114633784
 31
0.0
  0
LINE
  5
2355B
330
747D
100
AcDbEntity
  8
細線
 48
50.0
100
AcDbLine
 10
8390.307188620278
 20
1225.965114633784
 30
0.0
 11
8383.876408001931
 21
1249.965114633784
 31
0.0
  0
LINE
  5
2355C
330
747D
100
AcDbEntity
  8
細線
 48
50.0
100
AcDbLine
 10
8469.195233567523
 20
1225.965114633784
 30
0.0
 11
8462.764452949178
 21
1249.965114633784
 31
0.0
  0
LINE
  5
2355D
330
747D
100
AcDbEntity
  8
部品1
 48
50.0
100
AcDbLine
 10
8749.48154321693
 20
1249.965114633784
 30
0.0
 11
8749.48154321693
 21
1121.965114633784
 31
0.0
  0
LINE
  5
2355E
330
747D
100
AcDbEntity
  8
細線
 48
50.0
100
AcDbLine
 10
8677.992652396424
 20
1121.965114633782
 30
0.0
 11
8712.290149027609
 21
1249.965114633781
 31
0.0
  0
LINE
  5
2355F
330
747D
100
AcDbEntity
  8
細線
 48
50.0
100
AcDbLine
 10
8520.21656250193
 20
1121.965114633782
 30
0.0
 11
8554.514059133103
 21
1249.965114633784
 31
0.0
  0
LINE
  5
23560
330
747D
100
AcDbEntity
  8
細線
 48
50.0
100
AcDbLine
 10
8599.104607449179
 20
1121.965114633781
 30
0.0
 11
8633.402104080364
 21
1249.965114633781
 31
0.0
  0
LINE
  5
23561
330
747D
100
AcDbEntity
  8
細線
 48
50.0
100
AcDbLine
 10
8526.647343120279
 20
1145.965114633784
 30
0.0
 11
8533.078123738636
 21
1121.965114633784
 31
0.0
  0
LINE
  5
23562
330
747D
100
AcDbEntity
  8
細線
 48
50.0
100
AcDbLine
 10
8605.535388067528
 20
1145.965114633782
 30
0.0
 11
8611.966168685874
 21
1121.965114633782
 31
0.0
  0
LINE
  5
23563
330
747D
100
AcDbEntity
  8
細線
 48
50.0
100
AcDbLine
 10
8684.423433014774
 20
1145.965114633782
 30
0.0
 11
8690.854213633123
 21
1121.965114633782
 31
0.0
  0
LINE
  5
23564
330
747D
100
AcDbEntity
  8
細線
 48
50.0
100
AcDbLine
 10
8548.083278514761
 20
1225.965114633784
 30
0.0
 11
8541.652497896414
 21
1249.965114633784
 31
0.0
  0
LINE
  5
23565
330
747D
100
AcDbEntity
  8
細線
 48
50.0
100
AcDbLine
 10
8626.971323462019
 20
1225.965114633782
 30
0.0
 11
8620.540542843672
 21
1249.965114633782
 31
0.0
  0
LINE
  5
23566
330
747D
100
AcDbEntity
  8
細線
 48
50.0
100
AcDbLine
 10
8705.859368409262
 20
1225.965114633782
 30
0.0
 11
8699.428587790917
 21
1249.965114633782
 31
0.0
  0
LINE
  5
23567
330
747D
100
AcDbEntity
  8
部品1
100
AcDbLine
 10
8411.881543216928
 20
1709.965114633782
 30
0.0
 11
8285.881543216925
 21
1709.965114633782
 31
0.0
  0
LINE
  5
23568
330
747D
100
AcDbEntity
  8
部品1
100
AcDbLine
 10
8393.881543216929
 20
1790.965114633784
 30
0.0
 11
8393.881543216929
 21
1808.965114633784
 31
0.0
  0
ARC
  5
23569
330
747D
100
AcDbEntity
  8
部品1
100
AcDbCircle
 10
8357.881543216929
 20
1808.965114633784
 30
0.0
 40
18.0
100
AcDbArc
 50
180.0
 51
270.0
  0
LINE
  5
2356A
330
747D
100
AcDbEntity
  8
部品1
100
AcDbLine
 10
8357.881543216929
 20
1790.965114633784
 30
0.0
 11
8393.881543216929
 21
1790.965114633784
 31
0.0
  0
LINE
  5
2356B
330
747D
100
AcDbEntity
  8
部品1
100
AcDbLine
 10
8357.881543216929
 20
1808.965114633784
 30
0.0
 11
8393.881543216929
 21
1808.965114633784
 31
0.0
  0
LINE
  5
2356C
330
747D
100
AcDbEntity
  8
部品1
 48
50.0
100
AcDbLine
 10
8541.481543216928
 20
1489.965114633784
 30
0.0
 11
8669.481543216928
 21
1489.965114633784
 31
0.0
  0
LINE
  5
2356D
330
747D
100
AcDbEntity
  8
部品1
100
AcDbLine
 10
8147.28154321693
 20
2123.965114633784
 30
0.0
 11
8185.081543216929
 21
2123.965114633784
 31
0.0
  0
LINE
  5
2356E
330
747D
100
AcDbEntity
  8
細線
 48
50.0
100
AcDbLine
 10
8127.48154321693
 20
1994.804922570482
 30
0.0
 11
8166.641735280235
 21
2033.965114633784
 31
0.0
  0
LINE
  5
2356F
330
747D
100
AcDbEntity
  8
細線
 48
50.0
100
AcDbLine
 10
8127.48154321693
 20
1967.864154207274
 30
0.0
 11
8193.582503643439
 21
2033.965114633784
 31
0.0
  0
LINE
  5
23570
330
747D
100
AcDbEntity
  8
部品1
 48
50.0
100
AcDbLine
 10
8127.48154321693
 20
2033.965114633784
 30
0.0
 11
8541.48154321693
 21
2033.965114633784
 31
0.0
  0
LINE
  5
23571
330
747D
100
AcDbEntity
  8
部品1
100
AcDbLine
 10
8144.581543216929
 20
2113.165114633784
 30
0.0
 11
8144.581543216929
 21
2121.265114633784
 31
0.0
  0
ARC
  5
23572
330
747D
100
AcDbEntity
  8
部品1
100
AcDbCircle
 10
8147.28154321693
 20
2121.265114633784
 30
0.0
 40
2.7
100
AcDbArc
 50
90.0
 51
180.0
  0
ARC
  5
23573
330
747D
100
AcDbEntity
  8
部品1
100
AcDbCircle
 10
8136.48154321693
 20
2108.357018336493
 30
0.0
 40
2.7
100
AcDbArc
 50
104.0362434679067
 51
180.0
  0
LINE
  5
23574
330
747D
100
AcDbEntity
  8
部品1
100
AcDbLine
 10
8135.82669702933
 20
2110.976403086884
 30
0.0
 11
8144.581543216929
 21
2113.165114633784
 31
0.0
  0
ARC
  5
23575
330
747D
100
AcDbEntity
  8
部品1
100
AcDbCircle
 10
8136.48154321693
 20
2046.225114633784
 30
0.0
 40
2.7
100
AcDbArc
 50
180.0
 51
270.0
  0
LINE
  5
23576
330
747D
100
AcDbEntity
  8
細線
 48
50.0
100
AcDbLine
 10
8127.48154321693
 20
2021.745690933689
 30
0.0
 11
8139.700966917025
 21
2033.965114633784
 31
0.0
  0
LINE
  5
23577
330
747D
100
AcDbEntity
  8
部品1
100
AcDbLine
 10
8136.48154321693
 20
2043.525114633785
 30
0.0
 11
8148.181543216924
 21
2043.525114633785
 31
0.0
  0
LINE
  5
23578
330
747D
100
AcDbEntity
  8
部品1
100
AcDbLine
 10
8133.781543216931
 20
2046.225114633784
 30
0.0
 11
8133.781543216931
 21
2108.357018336493
 31
0.0
  0
LINE
  5
23579
330
747D
100
AcDbEntity
  8
部品1
100
AcDbLine
 10
8292.441543216922
 20
2043.525114633785
 30
0.0
 11
8493.781543216924
 21
2043.525114633785
 31
0.0
  0
LINE
  5
2357A
330
747D
100
AcDbEntity
  8
部品1
100
AcDbLine
 10
8185.081543216929
 20
2123.965114633784
 30
0.0
 11
8185.081543216929
 21
2132.065114633785
 31
0.0
  0
LINE
  5
2357B
330
747D
100
AcDbEntity
  8
部品1
100
AcDbLine
 10
8235.481543216931
 20
2142.865114633781
 30
0.0
 11
8235.481543216931
 21
2091.565114633785
 31
0.0
  0
LINE
  5
2357C
330
747D
100
AcDbEntity
  8
部品1
100
AcDbLine
 10
8258.881543216928
 20
2103.525114633784
 30
0.0
 11
8287.041543216927
 21
2103.525114633784
 31
0.0
  0
ARC
  5
2357D
330
747D
100
AcDbEntity
  8
部品1
100
AcDbCircle
 10
8258.881543216928
 20
2100.825114633785
 30
0.0
 40
2.7
100
AcDbArc
 50
90.0
 51
180.0
  0
ARC
  5
2357E
330
747D
100
AcDbEntity
  8
部品1
100
AcDbCircle
 10
8287.041543216927
 20
2100.825114633785
 30
0.0
 40
2.7
100
AcDbArc
 50
0.0
 51
90.0
  0
LINE
  5
2357F
330
747D
100
AcDbEntity
  8
部品1
100
AcDbLine
 10
8277.78154321693
 20
2088.865114633784
 30
0.0
 11
8277.78154321693
 21
2046.225114633784
 31
0.0
  0
LINE
  5
23580
330
747D
100
AcDbEntity
  8
部品1
100
AcDbLine
 10
8263.381543216928
 20
2043.525114633785
 30
0.0
 11
8275.081543216929
 21
2043.525114633785
 31
0.0
  0
ARC
  5
23581
330
747D
100
AcDbEntity
  8
部品1
100
AcDbCircle
 10
8292.441543216922
 20
2046.225114633784
 30
0.0
 40
2.7
100
AcDbArc
 50
180.0
 51
270.0
  0
ARC
  5
23582
330
747D
100
AcDbEntity
  8
部品1
100
AcDbCircle
 10
8275.081543216929
 20
2046.225114633784
 30
0.0
 40
2.7
100
AcDbArc
 50
270.0
 51
0.0
  0
LINE
  5
23583
330
747D
100
AcDbEntity
  8
部品1
100
AcDbLine
 10
8235.481543216931
 20
2091.565114633785
 30
0.0
 11
8275.081543216929
 21
2091.565114633785
 31
0.0
  0
ARC
  5
23584
330
747D
100
AcDbEntity
  8
部品1
100
AcDbCircle
 10
8275.081543216929
 20
2088.865114633784
 30
0.0
 40
2.7
100
AcDbArc
 50
0.0
 51
90.0
  0
LINE
  5
23585
330
747D
100
AcDbEntity
  8
部品1
100
AcDbLine
 10
8289.74154321693
 20
2100.825114633785
 30
0.0
 11
8289.741543216925
 21
2046.225114633784
 31
0.0
  0
LINE
  5
23586
330
747D
100
AcDbEntity
  8
部品1
100
AcDbLine
 10
8256.181543216928
 20
2100.825114633785
 30
0.0
 11
8256.181543216928
 21
2083.725114633784
 31
0.0
  0
LINE
  5
23587
330
747D
100
AcDbEntity
  8
細線
100
AcDbLine
 10
8354.281543216931
 20
2043.525114633785
 30
0.0
 11
8354.281543216931
 21
2086.725114633785
 31
0.0
  0
LINE
  5
23588
330
747D
100
AcDbEntity
  8
細線
100
AcDbLine
 10
8343.481543216931
 20
2043.525114633785
 30
0.0
 11
8343.481543216931
 21
2086.725114633785
 31
0.0
  0
LINE
  5
23589
330
747D
100
AcDbEntity
  8
部品1
100
AcDbLine
 10
8339.881543216929
 20
2083.125114633785
 30
0.0
 11
8357.881543216929
 21
2083.125114633785
 31
0.0
  0
LINE
  5
2358A
330
747D
100
AcDbEntity
  8
部品1
100
AcDbLine
 10
8343.481543216931
 20
2086.725114633785
 30
0.0
 11
8354.281543216931
 21
2086.725114633785
 31
0.0
  0
ELLIPSE
  5
2358B
330
747D
100
AcDbEntity
  8
部品1
 48
50.0
100
AcDbEllipse
 10
8348.881543216929
 20
2303.088403078056
 30
0.0
 11
40.0
 21
0.0
 31
0.0
210
0.0
220
0.0
230
1.0
 40
0.4
 41
0.0
 42
6.283185307179586
  0
ELLIPSE
  5
2358C
330
747D
100
AcDbEntity
  8
部品1
 48
50.0
100
AcDbEllipse
 10
8348.881543216929
 20
2293.488403078058
 30
0.0
 11
40.0
 21
0.0
 31
0.0
210
0.0
220
0.0
230
1.0
 40
0.4
 41
3.141592653589793
 42
6.283185307179586
  0
LINE
  5
2358D
330
747D
100
AcDbEntity
  8
部品1
 48
50.0
100
AcDbLine
 10
8308.881543216928
 20
2303.088403078056
 30
0.0
 11
8308.881543216928
 21
2293.488403078056
 31
0.0
  0
ARC
  5
2358E
330
747D
100
AcDbEntity
  8
部品1
100
AcDbCircle
 10
8232.78154321693
 20
2142.865114633781
 30
0.0
 40
2.7
100
AcDbArc
 50
0.0
 51
90.0
  0
ARC
  5
2358F
330
747D
100
AcDbEntity
  8
部品1
100
AcDbCircle
 10
8190.481543216931
 20
2142.865114633784
 30
0.0
 40
2.7
100
AcDbArc
 50
90.0
 51
180.0
  0
LINE
  5
23590
330
747D
100
AcDbEntity
  8
部品1
100
AcDbLine
 10
8187.78154321693
 20
2134.765114633784
 30
0.0
 11
8187.78154321693
 21
2134.765114633784
 31
0.0
  0
LINE
  5
23591
330
747D
100
AcDbEntity
  8
部品1
100
AcDbLine
 10
8187.78154321693
 20
2134.765114633784
 30
0.0
 11
8187.78154321693
 21
2142.865114633784
 31
0.0
  0
LINE
  5
23592
330
747D
100
AcDbEntity
  8
部品1
100
AcDbLine
 10
8190.481543216931
 20
2145.565114633785
 30
0.0
 11
8232.78154321693
 21
2145.565114633781
 31
0.0
  0
ARC
  5
23593
330
747D
100
AcDbEntity
  8
部品1
100
AcDbCircle
 10
8187.78154321693
 20
2132.065114633785
 30
0.0
 40
2.7
100
AcDbArc
 50
90.0
 51
180.0
  0
ELLIPSE
  5
23594
330
747D
100
AcDbEntity
  8
部品1
 48
50.0
100
AcDbEllipse
 10
8348.881543216929
 20
2303.088403078056
 30
0.0
 11
18.4
 21
0.0
 31
0.0
210
0.0
220
0.0
230
1.0
 40
0.3478260869565217
 41
0.0
 42
6.283185307179586
  0
LINE
  5
23595
330
747D
100
AcDbEntity
  8
部品1
 48
50.0
100
AcDbLine
 10
8388.881543216928
 20
2293.488403078056
 30
0.0
 11
8388.881543216928
 21
2303.088403078056
 31
0.0
  0
LINE
  5
23596
330
747D
100
AcDbEntity
  8
部品1
 48
50.0
100
AcDbLine
 10
8316.881543216927
 20
2424.840395742927
 30
0.0
 11
8332.881543216929
 21
2416.840395742927
 31
0.0
  0
LINE
  5
23597
330
747D
100
AcDbEntity
  8
部品1
 48
50.0
100
AcDbLine
 10
8316.881543216927
 20
2392.840395742927
 30
0.0
 11
8332.881543216929
 21
2384.840395742927
 31
0.0
  0
LINE
  5
23598
330
747D
100
AcDbEntity
  8
部品1
 48
50.0
100
AcDbLine
 10
8316.881543216927
 20
2424.840395742927
 30
0.0
 11
8332.881543216929
 21
2432.840395742927
 31
0.0
  0
LINE
  5
23599
330
747D
100
AcDbEntity
  8
部品1
 48
50.0
100
AcDbLine
 10
8316.881543216927
 20
2392.840395742927
 30
0.0
 11
8316.881543216927
 21
2424.840395742927
 31
0.0
  0
LINE
  5
2359A
330
747D
100
AcDbEntity
  8
部品1
 48
50.0
100
AcDbLine
 10
8332.881543216929
 20
2432.840395742927
 30
0.0
 11
8364.881543216929
 21
2432.840395742927
 31
0.0
  0
ELLIPSE
  5
2359B
330
747D
100
AcDbEntity
  8
細線
 48
50.0
100
AcDbEllipse
 10
8348.881543216929
 20
2424.840395742927
 30
0.0
 11
14.76670786606846
 21
0.0
 31
0.0
210
0.0
220
0.0
230
1.0
 40
0.2071254069489396
 41
0.0
 42
6.283185307179586
  0
LINE
  5
2359C
330
747D
100
AcDbEntity
  8
部品1
 48
50.0
100
AcDbLine
 10
8332.881543216929
 20
2384.840395742927
 30
0.0
 11
8364.881543216929
 21
2384.840395742927
 31
0.0
  0
LINE
  5
2359D
330
747D
100
AcDbEntity
  8
部品1
 48
50.0
100
AcDbLine
 10
8364.881543216929
 20
2384.840395742927
 30
0.0
 11
8380.881543216927
 21
2392.840395742927
 31
0.0
  0
LINE
  5
2359E
330
747D
100
AcDbEntity
  8
部品1
 48
50.0
100
AcDbLine
 10
8332.881543216929
 20
2416.840395742927
 30
0.0
 11
8364.881543216929
 21
2416.840395742927
 31
0.0
  0
LINE
  5
2359F
330
747D
100
AcDbEntity
  8
部品1
 48
50.0
100
AcDbLine
 10
8364.881543216929
 20
2416.840395742927
 30
0.0
 11
8380.881543216927
 21
2424.840395742927
 31
0.0
  0
LINE
  5
235A0
330
747D
100
AcDbEntity
  8
細線
 48
50.0
100
AcDbLine
 10
8364.881543216929
 20
2384.840395742927
 30
0.0
 11
8364.881543216929
 21
2416.840395742927
 31
0.0
  0
LINE
  5
235A1
330
747D
100
AcDbEntity
  8
部品1
 48
50.0
100
AcDbLine
 10
8380.881543216927
 20
2392.840395742927
 30
0.0
 11
8380.881543216927
 21
2424.840395742927
 31
0.0
  0
LINE
  5
235A2
330
747D
100
AcDbEntity
  8
細線
 48
50.0
100
AcDbLine
 10
8332.881543216929
 20
2384.840395742927
 30
0.0
 11
8332.881543216929
 21
2416.840395742927
 31
0.0
  0
LINE
  5
235A3
330
747D
100
AcDbEntity
  8
部品1
 48
50.0
100
AcDbLine
 10
8364.881543216929
 20
2432.840395742927
 30
0.0
 11
8380.881543216927
 21
2424.840395742927
 31
0.0
  0
TEXT
  5
235A4
330
747D
100
AcDbEntity
  8
部品1
100
AcDbText
 10
8049.653792408859
 20
3175.384802459201
 30
0.0
 40
120.0
  1
基礎詳細
  7
STYLE2
100
AcDbText
  0
LINE
  5
235A5
330
747D
100
AcDbEntity
  8
部品1
100
AcDbLine
 10
11427.75897661672
 20
390.629764825982
 30
0.0
 11
11427.75897661672
 21
3354.93673441063
 31
0.0
  0
LINE
  5
235A6
330
747D
100
AcDbEntity
  8
細線
100
AcDbLine
 10
10435.65080919647
 20
1793.965114633784
 30
0.0
 11
10241.01747551968
 21
1988.598448310567
 31
0.0
  0
LINE
  5
235A7
330
747D
100
AcDbEntity
  8
部品1
100
AcDbLine
 10
10241.01747551968
 20
2033.965114633784
 30
0.0
 11
10721.01747551968
 21
2033.965114633784
 31
0.0
  0
LINE
  5
235A8
330
747D
100
AcDbEntity
  8
細線
 48
50.0
100
AcDbLine
 10
10375.08835996294
 20
1574.266198980434
 30
0.0
 11
10409.38585659413
 21
1702.266198980433
 31
0.0
  0
LINE
  5
235A9
330
747D
100
AcDbEntity
  8
部品1
100
AcDbLine
 10
10121.01747551968
 20
1574.26619898043
 30
0.0
 11
10841.01747551968
 21
1574.266198980434
 31
0.0
  0
LINE
  5
235AA
330
747D
100
AcDbEntity
  8
部品1
100
AcDbLine
 10
10121.01747551968
 20
1702.266198980434
 30
0.0
 11
10841.01747551968
 21
1702.266198980437
 31
0.0
  0
LINE
  5
235AB
330
747D
100
AcDbEntity
  8
細線
100
AcDbLine
 10
10301.93612101293
 20
1702.266198980434
 30
0.0
 11
10393.63503666627
 21
1793.965114633784
 31
0.0
  0
LWPOLYLINE
  5
235AC
330
747D
100
AcDbEntity
  8
部品1
 48
50.0
100
AcDbPolyline
 90
        2
 70
     0
 43
12.0
 10
9856.406213419298
 20
1793.965114633784
 10
11057.49851655092
 20
1793.965114633784
  0
LINE
  5
235AD
330
747D
100
AcDbEntity
  8
細線
100
AcDbLine
 10
10384.73912095104
 20
1793.965114633784
 30
0.0
 11
10241.01747551968
 21
1937.686760065137
 31
0.0
  0
TEXT
  5
235AE
330
747D
100
AcDbEntity
  8
部品1
 48
50.0
100
AcDbText
 10
9476.899388761182
 20
1527.165373996475
 30
0.0
 40
80.0
  1
ボルトの出
 50
90.0
  7
STYLE2
100
AcDbText
  0
LINE
  5
235AF
330
747D
100
AcDbEntity
  8
部品1
100
AcDbLine
 10
10241.01747551968
 20
1793.965114633784
 30
0.0
 11
10241.01747551968
 21
2033.965114633784
 31
0.0
  0
LINE
  5
235B0
330
747D
100
AcDbEntity
  8
細線
 48
50.0
100
AcDbLine
 10
10217.31227006845
 20
1574.266198980433
 30
0.0
 11
10251.60976669963
 21
1702.266198980433
 31
0.0
  0
LINE
  5
235B1
330
747D
100
AcDbEntity
  8
細線
 48
50.0
100
AcDbLine
 10
10296.20031501569
 20
1574.266198980434
 30
0.0
 11
10330.49781164688
 21
1702.266198980434
 31
0.0
  0
LINE
  5
235B2
330
747D
100
AcDbEntity
  8
細線
 48
50.0
100
AcDbLine
 10
10138.4242251212
 20
1574.266198980434
 30
0.0
 11
10172.72172175238
 21
1702.266198980434
 31
0.0
  0
LINE
  5
235B3
330
747D
100
AcDbEntity
  8
部品1
100
AcDbLine
 10
10121.01747551968
 20
1574.26619898043
 30
0.0
 11
10121.01747551968
 21
1793.965114633784
 31
0.0
  0
LINE
  5
235B4
330
747D
100
AcDbEntity
  8
細線
 48
50.0
100
AcDbLine
 10
10223.74305068679
 20
1598.266198980434
 30
0.0
 11
10230.17383130514
 21
1574.266198980434
 31
0.0
  0
LINE
  5
235B5
330
747D
100
AcDbEntity
  8
細線
 48
50.0
100
AcDbLine
 10
10144.85500573955
 20
1598.266198980434
 30
0.0
 11
10151.28578635789
 21
1574.266198980434
 31
0.0
  0
LINE
  5
235B6
330
747D
100
AcDbEntity
  8
細線
 48
50.0
100
AcDbLine
 10
10302.63109563405
 20
1598.266198980434
 30
0.0
 11
10309.06187625239
 21
1574.266198980434
 31
0.0
  0
LINE
  5
235B7
330
747D
100
AcDbEntity
  8
細線
 48
50.0
100
AcDbLine
 10
10381.51914058129
 20
1598.266198980434
 30
0.0
 11
10387.94992119964
 21
1574.266198980434
 31
0.0
  0
LINE
  5
235B8
330
747D
100
AcDbEntity
  8
細線
 48
50.0
100
AcDbLine
 10
10166.29094113403
 20
1678.266198980434
 30
0.0
 11
10159.86016051569
 21
1702.266198980434
 31
0.0
  0
LINE
  5
235B9
330
747D
100
AcDbEntity
  8
細線
 48
50.0
100
AcDbLine
 10
10324.06703102854
 20
1678.266198980434
 30
0.0
 11
10317.63625041019
 21
1702.266198980434
 31
0.0
  0
LINE
  5
235BA
330
747D
100
AcDbEntity
  8
細線
 48
50.0
100
AcDbLine
 10
10245.17898608128
 20
1678.266198980434
 30
0.0
 11
10238.74820546294
 21
1702.266198980434
 31
0.0
  0
LINE
  5
235BB
330
747D
100
AcDbEntity
  8
細線
100
AcDbLine
 10
10234.05387001901
 20
1702.266198980434
 30
0.0
 11
10325.75278567236
 21
1793.965114633784
 31
0.0
  0
LINE
  5
235BC
330
747D
100
AcDbEntity
  8
細線
100
AcDbLine
 10
10267.99499551597
 20
1702.266198980434
 30
0.0
 11
10359.69391116932
 21
1793.965114633784
 31
0.0
  0
LINE
  5
235BD
330
747D
100
AcDbEntity
  8
細線
100
AcDbLine
 10
10656.26812492667
 20
1793.965114633784
 30
0.0
 11
10416.26812492667
 21
2033.965114633784
 31
0.0
  0
LINE
  5
235BE
330
747D
100
AcDbEntity
  8
細線
100
AcDbLine
 10
10707.1798131721
 20
1793.965114633786
 30
0.0
 11
10467.17981317211
 21
2033.965114633784
 31
0.0
  0
LINE
  5
235BF
330
747D
100
AcDbEntity
  8
部品1
100
AcDbLine
 10
10721.01747551968
 20
2033.965114633784
 30
0.0
 11
10721.01747551968
 21
1793.965114633784
 31
0.0
  0
LINE
  5
235C0
330
747D
100
AcDbEntity
  8
細線
 48
50.0
100
AcDbLine
 10
10690.64053975193
 20
1574.266198980431
 30
0.0
 11
10724.93803638312
 21
1702.266198980431
 31
0.0
  0
LINE
  5
235C1
330
747D
100
AcDbEntity
  8
細線
100
AcDbLine
 10
10661.93612101293
 20
1702.266198980436
 30
0.0
 11
10753.63503666627
 21
1793.965114633784
 31
0.0
  0
LINE
  5
235C2
330
747D
100
AcDbEntity
  8
細線
 48
50.0
100
AcDbLine
 10
10611.75249480468
 20
1574.266198980433
 30
0.0
 11
10646.04999143586
 21
1702.266198980434
 31
0.0
  0
LINE
  5
235C3
330
747D
100
AcDbEntity
  8
細線
 48
50.0
100
AcDbLine
 10
10453.97640491019
 20
1574.266198980433
 30
0.0
 11
10488.27390154137
 21
1702.266198980433
 31
0.0
  0
LINE
  5
235C4
330
747D
100
AcDbEntity
  8
細線
 48
50.0
100
AcDbLine
 10
10532.86444985743
 20
1574.266198980434
 30
0.0
 11
10567.16194648862
 21
1702.266198980433
 31
0.0
  0
LINE
  5
235C5
330
747D
100
AcDbEntity
  8
細線
 48
50.0
100
AcDbLine
 10
10539.29523047579
 20
1598.266198980434
 30
0.0
 11
10545.72601109413
 21
1574.266198980434
 31
0.0
  0
LINE
  5
235C6
330
747D
100
AcDbEntity
  8
細線
 48
50.0
100
AcDbLine
 10
10460.40718552854
 20
1598.266198980434
 30
0.0
 11
10466.83796614689
 21
1574.266198980434
 31
0.0
  0
LINE
  5
235C7
330
747D
100
AcDbEntity
  8
細線
 48
50.0
100
AcDbLine
 10
10618.18327542303
 20
1598.266198980434
 30
0.0
 11
10624.61405604139
 21
1574.266198980434
 31
0.0
  0
LINE
  5
235C8
330
747D
100
AcDbEntity
  8
細線
 48
50.0
100
AcDbLine
 10
10697.07132037028
 20
1598.266198980433
 30
0.0
 11
10703.50210098863
 21
1574.266198980433
 31
0.0
  0
LINE
  5
235C9
330
747D
100
AcDbEntity
  8
細線
 48
50.0
100
AcDbLine
 10
10560.73116587028
 20
1678.266198980434
 30
0.0
 11
10554.30038525193
 21
1702.266198980434
 31
0.0
  0
LINE
  5
235CA
330
747D
100
AcDbEntity
  8
細線
 48
50.0
100
AcDbLine
 10
10481.84312092303
 20
1678.266198980434
 30
0.0
 11
10475.41234030469
 21
1702.266198980434
 31
0.0
  0
LINE
  5
235CB
330
747D
100
AcDbEntity
  8
細線
 48
50.0
100
AcDbLine
 10
10402.95507597578
 20
1678.266198980434
 30
0.0
 11
10396.52429535744
 21
1702.266198980434
 31
0.0
  0
LINE
  5
235CC
330
747D
100
AcDbEntity
  8
細線
100
AcDbLine
 10
10627.99499551597
 20
1702.266198980436
 30
0.0
 11
10719.69391116931
 21
1793.965114633784
 31
0.0
  0
LINE
  5
235CD
330
747D
100
AcDbEntity
  8
細線
 48
50.0
100
AcDbLine
 10
10639.61921081751
 20
1678.266198980434
 30
0.0
 11
10633.18843019917
 21
1702.266198980434
 31
0.0
  0
LINE
  5
235CE
330
747D
100
AcDbEntity
  8
細線
100
AcDbLine
 10
10594.05387001902
 20
1702.266198980436
 30
0.0
 11
10685.75278567236
 21
1793.965114633784
 31
0.0
  0
LINE
  5
235CF
330
747D
100
AcDbEntity
  8
細線
 48
50.0
100
AcDbLine
 10
10718.50725576477
 20
1678.266198980433
 30
0.0
 11
10712.07647514643
 21
1702.266198980433
 31
0.0
  0
LINE
  5
235D0
330
747D
100
AcDbEntity
  8
細線
 48
50.0
100
AcDbLine
 10
10769.52858469918
 20
1574.266198980433
 30
0.0
 11
10803.82608133036
 21
1702.266198980431
 31
0.0
  0
LINE
  5
235D1
330
747D
100
AcDbEntity
  8
部品1
100
AcDbLine
 10
10841.01747551968
 20
1793.965114633784
 30
0.0
 11
10841.01747551969
 21
1574.266198980434
 31
0.0
  0
LINE
  5
235D2
330
747D
100
AcDbEntity
  8
細線
 48
50.0
100
AcDbLine
 10
10775.95936531753
 20
1598.266198980433
 30
0.0
 11
10782.39014593588
 21
1574.266198980433
 31
0.0
  0
LINE
  5
235D3
330
747D
100
AcDbEntity
  8
細線
 48
50.0
100
AcDbLine
 10
10797.39530071202
 20
1678.266198980433
 30
0.0
 11
10790.96452009367
 21
1702.266198980433
 31
0.0
  0
LEADER
  5
235D4
330
747D
100
AcDbEntity
  8
寸法
 48
50.0
100
AcDbLeader
  3
INABA_S40G
 73
     0
 74
     0
 75
     1
 40
120.0
 41
185.591883092037
 76
     3
 10
10651.74188713561
 20
2033.965114633784
 30
0.0
 10
10694.88009376925
 20
2191.111435314922
 30
0.0
 10
10794.88009376925
 20
2191.111435314922
 30
0.0
1001
ACAD
1000
DSTYLE
1002
{
1070
   174
1070
     0
1070
   272
1070
     1
1070
   279
1070
     1
1070
   288
1070
     0
1070
   341
1005
0
1002
}
  0
MTEXT
  5
235D5
102
{ACAD_REACTORS
330
235D4
102
}
330
747D
100
AcDbEntity
  8
寸法
 62
     7
 48
50.0
100
AcDbMText
 10
10834.88009376925
 20
2291.111435314922
 30
0.0
 40
120.0
 41
0.8
 71
     4
 72
     1
  1
\A1;C.B
  7
STYLE1
 73
     1
 44
1.0
1001
ACAD
1000
MTEXTBEGIN
1070
    73
1070
     1
1070
    44
1040
1.0
1070
    74
1070
     0
1000
MTEXTEND
  0
ENDSEC
  0
SECTION
  2
OBJECTS
  0
DICTIONARY
  5
7471
330
0
100
AcDbDictionary
281
     1
  3
ACAD_COLOR
350
173D2
  3
ACAD_GROUP
350
7472
  3
ACAD_LAYOUT
350
173D3
  3
ACAD_MATERIAL
350
173D1
  3
ACAD_MLINESTYLE
350
7473
  3
ACAD_PLOTSETTINGS
350
173D4
  3
ACAD_PLOTSTYLENAME
350
173CF
  3
ACDBHEADERROUNDTRIPXREC
350
2366D
  3
AcDbVariableDictionary
350
23669
  3
CONTENTDICTIONARY
350
E71C
  3
DRAWINGVARIABLESDICT
350
F3B9
  0
DICTIONARY
  5
1758F
330
7467
100
AcDbDictionary
280
     1
281
     1
  3
ACAD_LAYERSTATES
360
17590
  0
DICTIONARY
  5
173D2
102
{ACAD_REACTORS
330
7471
102
}
330
7471
100
AcDbDictionary
281
     1
  0
DICTIONARY
  5
7472
102
{ACAD_REACTORS
330
7471
102
}
330
7471
100
AcDbDictionary
281
     1
  3
*A1
350
1D2A9
  0
DICTIONARY
  5
173D3
102
{ACAD_REACTORS
330
7471
102
}
330
7471
100
AcDbDictionary
281
     1
  3
Model
350
173D5
  3
レイアウト1
350
173D6
  0
DICTIONARY
  5
173D1
102
{ACAD_REACTORS
330
7471
102
}
330
7471
100
AcDbDictionary
281
     1
  0
DICTIONARY
  5
7473
102
{ACAD_REACTORS
330
7471
102
}
330
7471
100
AcDbDictionary
281
     1
  3
STANDARD
350
7480
  0
DICTIONARY
  5
173D4
102
{ACAD_REACTORS
330
7471
102
}
330
7471
100
AcDbDictionary
281
     1
  0
ACDBDICTIONARYWDFLT
  5
173CF
102
{ACAD_REACTORS
330
7471
102
}
330
7471
100
AcDbDictionary
281
     1
  3
Normal
350
173D0
100
AcDbDictionaryWithDefault
340
173D0
  0
DICTIONARY
  5
2366D
102
{ACAD_REACTORS
330
7471
102
}
330
7471
100
AcDbDictionary
281
     1
  3
COLORDICT
350
2366F
  3
MATERIALDICT
350
2366E
  0
DICTIONARY
  5
23669
102
{ACAD_REACTORS
330
7471
102
}
330
7471
100
AcDbDictionary
281
     1
  3
DIMASSOC
350
2366A
  3
PROJECTNAME
350
2366B
  0
DICTIONARY
  5
E71C
102
{ACAD_REACTORS
330
7471
102
}
330
7471
100
AcDbDictionary
281
     1
  0
DICTIONARY
  5
F3B9
102
{ACAD_REACTORS
330
7471
102
}
330
7471
100
AcDbDictionary
281
     1
1001
DRAWINGVARIABLESXDATA
1000
POLARMODE
1000
1
  0
DICTIONARY
  5
17590
102
{ACAD_REACTORS
330
1758F
102
}
330
1758F
100
AcDbDictionary
281
     1
  0
GROUP
  5
1D2A9
102
{ACAD_REACTORS
330
7472
102
}
330
7472
100
AcDbGroup
300

 70
     1
 71
     1
  0
LAYOUT
  5
173D5
102
{ACAD_XDICTIONARY
360
23670
102
}
102
{ACAD_REACTORS
330
173D3
102
}
330
173D3
100
AcDbPlotSettings
  1

  2
クセロPDFよこ.pc3
  4
A3
  6

 40
3.174999952316284
 41
3.174999952316284
 42
3.17498779296875
 43
3.17498779296875
 44
419.9466552734374
 45
296.9259948730469
 46
0.0
 47
0.0
 48
0.0
 49
0.0
140
0.0
141
0.0
142
1.0
143
40.0
 70
 11952
 72
     1
 73
     0
 74
     2
  7
ACA3.ctb
 75
    24
147
0.025
148
0.0
149
0.0
100
AcDbLayout
  1
Model
 70
     1
 71
     0
 10
0.0
 20
0.0
 11
12.0
 21
9.0
 12
0.0
 22
0.0
 32
0.0
 14
0.0
 24
0.0
 34
0.0
 15
0.0
 25
0.0
 35
0.0
146
0.0
 13
0.0
 23
0.0
 33
0.0
 16
1.0
 26
0.0
 36
0.0
 17
0.0
 27
1.0
 37
0.0
 76
     0
330
747D
  0
LAYOUT
  5
173D6
102
{ACAD_XDICTIONARY
360
23672
102
}
102
{ACAD_REACTORS
330
173D3
102
}
330
173D3
100
AcDbPlotSettings
  1

  2
Microsoft Office Document Image Writer
  4

  6

 40
0.0
 41
0.0
 42
0.0
 43
0.0
 44
0.0
 45
0.0
 46
0.0
 47
0.0
 48
0.0
 49
0.0
140
0.0
141
0.0
142
1.0
143
1.0
 70
   688
 72
     0
 73
     0
 74
     5
  7
ACA3.ctb
 75
    16
147
1.0
148
0.0
149
0.0
100
AcDbLayout
  1
レイアウト1
 70
     0
 71
     1
 10
0.0
 20
0.0
 11
420.0
 21
297.0
 12
0.0
 22
0.0
 32
0.0
 14
1.000000000000000E+20
 24
1.000000000000000E+20
 34
1.000000000000000E+20
 15
-1.000000000000000E+20
 25
-1.000000000000000E+20
 35
-1.000000000000000E+20
146
0.0
 13
0.0
 23
0.0
 33
0.0
 16
1.0
 26
0.0
 36
0.0
 17
0.0
 27
1.0
 37
0.0
 76
     0
330
747A
  0
MLINESTYLE
  5
7480
102
{ACAD_REACTORS
330
7473
102
}
330
7473
100
AcDbMlineStyle
  2
STANDARD
 70
     0
  3

 62
     0
 51
90.0
 52
90.0
 71
     2
 49
0.5
 62
   256
  6
BYLAYER
 49
-0.5
 62
   256
  6
BYLAYER
  0
ACDBPLACEHOLDER
  5
173D0
102
{ACAD_REACTORS
330
173CF
102
}
330
173CF
  0
XRECORD
  5
2366F
102
{ACAD_REACTORS
330
2366D
102
}
330
2366D
100
AcDbXrecord
280
     1
340
173D2
  0
XRECORD
  5
2366E
102
{ACAD_REACTORS
330
2366D
102
}
330
2366D
100
AcDbXrecord
280
     1
340
173D1
  0
DICTIONARYVAR
  5
2366A
102
{ACAD_REACTORS
330
23669
102
}
330
23669
100
DictionaryVariables
280
     0
  1
1
  0
DICTIONARYVAR
  5
2366B
102
{ACAD_REACTORS
330
23669
102
}
330
23669
100
DictionaryVariables
280
     0
  1

  0
DICTIONARY
  5
23670
330
173D5
100
AcDbDictionary
280
     1
281
     1
  3
ACAD_XREC_ROUNDTRIP
360
23671
  0
DICTIONARY
  5
23672
330
173D6
100
AcDbDictionary
280
     1
281
     1
  3
ACAD_XREC_ROUNDTRIP
360
23673
  0
XRECORD
  5
23671
102
{ACAD_REACTORS
330
23670
102
}
330
23670
100
AcDbXrecord
280
     1
102
SHADEPLOT
 70
     0
102
SHADEPLOTRESLEVEL
 70
     2
102
SHADEPLOTCUSTOMDPI
 70
   150
  0
XRECORD
  5
23673
102
{ACAD_REACTORS
330
23672
102
}
330
23672
100
AcDbXrecord
280
     1
102
SHADEPLOT
 70
     0
102
SHADEPLOTRESLEVEL
 70
     2
102
SHADEPLOTCUSTOMDPI
 70
   300
  0
ENDSEC
  0
EOF
