  0
SECTION
  2
HEADER
  9
$ACADVER
  1
AC1015
  9
$ACADMAINTVER
 70
    20
  9
$DWGCODEPAGE
  3
ANSI_932
  9
$INSBASE
 10
0.0
 20
0.0
 30
0.0
  9
$EXTMIN
 10
139.9999999999995
 20
-0.0000000000000909
 30
0.0
  9
$EXTMAX
 10
16307.2
 20
11409.6
 30
0.0
  9
$LIMMIN
 10
0.0
 20
0.0
  9
$LIMMAX
 10
16800.0
 20
11880.0
  9
$ORTHOMODE
 70
     0
  9
$REGENMODE
 70
     1
  9
$FILLMODE
 70
     1
  9
$QTEXTMODE
 70
     0
  9
$MIRRTEXT
 70
     1
  9
$LTSCALE
 40
20.0
  9
$ATTMODE
 70
     1
  9
$TEXTSIZE
 40
4.0
  9
$TRACEWID
 40
1.0
  9
$TEXTSTYLE
  7
STYLE1
  9
$CLAYER
  8
細線
  9
$CELTYPE
  6
BYLAYER
  9
$CECOLOR
 62
   256
  9
$CELTSCALE
 40
50.0
  9
$DISPSILH
 70
     0
  9
$DIMSCALE
 40
40.0
  9
$DIMASZ
 40
2.5
  9
$DIMEXO
 40
0.5
  9
$DIMDLI
 40
7.0
  9
$DIMRND
 40
0.0
  9
$DIMDLE
 40
0.0
  9
$DIMEXE
 40
1.5
  9
$DIMTP
 40
0.0
  9
$DIMTM
 40
0.0
  9
$DIMTXT
 40
3.0
  9
$DIMCEN
 40
0.0
  9
$DIMTSZ
 40
0.0
  9
$DIMTOL
 70
     0
  9
$DIMLIM
 70
     0
  9
$DIMTIH
 70
     0
  9
$DIMTOH
 70
     0
  9
$DIMSE1
 70
     0
  9
$DIMSE2
 70
     0
  9
$DIMTAD
 70
     3
  9
$DIMZIN
 70
     8
  9
$DIMBLK
  1

  9
$DIMASO
 70
     1
  9
$DIMSHO
 70
     1
  9
$DIMPOST
  1

  9
$DIMAPOST
  1

  9
$DIMALT
 70
     0
  9
$DIMALTD
 70
     2
  9
$DIMALTF
 40
0.0394
  9
$DIMLFAC
 40
1.0
  9
$DIMTOFL
 70
     1
  9
$DIMTVP
 40
0.0
  9
$DIMTIX
 70
     1
  9
$DIMSOXD
 70
     0
  9
$DIMSAH
 70
     1
  9
$DIMBLK1
  1
DOTSMALL
  9
$DIMBLK2
  1
DOTSMALL
  9
$DIMSTYLE
  2
INABA_S40G
  9
$DIMCLRD
 70
     0
  9
$DIMCLRE
 70
     0
  9
$DIMCLRT
 70
     7
  9
$DIMTFAC
 40
1.0
  9
$DIMGAP
 40
1.0
  9
$DIMJUST
 70
     0
  9
$DIMSD1
 70
     0
  9
$DIMSD2
 70
     0
  9
$DIMTOLJ
 70
     1
  9
$DIMTZIN
 70
     0
  9
$DIMALTZ
 70
     0
  9
$DIMALTTZ
 70
     0
  9
$DIMUPT
 70
     0
  9
$DIMDEC
 70
     1
  9
$DIMTDEC
 70
     4
  9
$DIMALTU
 70
     2
  9
$DIMALTTD
 70
     2
  9
$DIMTXSTY
  7
STYLE1
  9
$DIMAUNIT
 70
     0
  9
$DIMADEC
 70
     0
  9
$DIMALTRND
 40
0.0
  9
$DIMAZIN
 70
     0
  9
$DIMDSEP
 70
    46
  9
$DIMATFIT
 70
     3
  9
$DIMFRAC
 70
     0
  9
$DIMLDRBLK
  1

  9
$DIMLUNIT
 70
     2
  9
$DIMLWD
 70
    -2
  9
$DIMLWE
 70
    -2
  9
$DIMTMOVE
 70
     0
  9
$LUNITS
 70
     2
  9
$LUPREC
 70
     1
  9
$SKETCHINC
 40
1.0
  9
$FILLETRAD
 40
3.0
  9
$AUNITS
 70
     0
  9
$AUPREC
 70
     0
  9
$MENU
  1
acad
  9
$ELEVATION
 40
0.0
  9
$PELEVATION
 40
0.0
  9
$THICKNESS
 40
0.0
  9
$LIMCHECK
 70
     0
  9
$CHAMFERA
 40
0.0
  9
$CHAMFERB
 40
0.0
  9
$CHAMFERC
 40
0.0
  9
$CHAMFERD
 40
0.0
  9
$SKPOLY
 70
     0
  9
$TDCREATE
 40
2451368.612993866
  9
$TDUCREATE
 40
2451368.237993866
  9
$TDUPDATE
 40
2455827.647596169
  9
$TDUUPDATE
 40
2455827.272596169
  9
$TDINDWG
 40
0.7554681597
  9
$TDUSRTIMER
 40
0.7554681597
  9
$USRTIMER
 70
     1
  9
$ANGBASE
 50
0.0
  9
$ANGDIR
 70
     0
  9
$PDMODE
 70
     3
  9
$PDSIZE
 40
2.0
  9
$PLINEWID
 40
0.0
  9
$SPLFRAME
 70
     0
  9
$SPLINETYPE
 70
     6
  9
$SPLINESEGS
 70
     8
  9
$HANDSEED
  5
23342
  9
$SURFTAB1
 70
     6
  9
$SURFTAB2
 70
     6
  9
$SURFTYPE
 70
     6
  9
$SURFU
 70
     6
  9
$SURFV
 70
     6
  9
$UCSBASE
  2

  9
$UCSNAME
  2

  9
$UCSORG
 10
0.0
 20
0.0
 30
0.0
  9
$UCSXDIR
 10
1.0
 20
0.0
 30
0.0
  9
$UCSYDIR
 10
0.0
 20
1.0
 30
0.0
  9
$UCSORTHOREF
  2

  9
$UCSORTHOVIEW
 70
     0
  9
$UCSORGTOP
 10
0.0
 20
0.0
 30
0.0
  9
$UCSORGBOTTOM
 10
0.0
 20
0.0
 30
0.0
  9
$UCSORGLEFT
 10
0.0
 20
0.0
 30
0.0
  9
$UCSORGRIGHT
 10
0.0
 20
0.0
 30
0.0
  9
$UCSORGFRONT
 10
0.0
 20
0.0
 30
0.0
  9
$UCSORGBACK
 10
0.0
 20
0.0
 30
0.0
  9
$PUCSBASE
  2

  9
$PUCSNAME
  2

  9
$PUCSORG
 10
0.0
 20
0.0
 30
0.0
  9
$PUCSXDIR
 10
1.0
 20
0.0
 30
0.0
  9
$PUCSYDIR
 10
0.0
 20
1.0
 30
0.0
  9
$PUCSORTHOREF
  2

  9
$PUCSORTHOVIEW
 70
     0
  9
$PUCSORGTOP
 10
0.0
 20
0.0
 30
0.0
  9
$PUCSORGBOTTOM
 10
0.0
 20
0.0
 30
0.0
  9
$PUCSORGLEFT
 10
0.0
 20
0.0
 30
0.0
  9
$PUCSORGRIGHT
 10
0.0
 20
0.0
 30
0.0
  9
$PUCSORGFRONT
 10
0.0
 20
0.0
 30
0.0
  9
$PUCSORGBACK
 10
0.0
 20
0.0
 30
0.0
  9
$USERI1
 70
     0
  9
$USERI2
 70
     0
  9
$USERI3
 70
     0
  9
$USERI4
 70
     0
  9
$USERI5
 70
     0
  9
$USERR1
 40
0.0
  9
$USERR2
 40
0.0
  9
$USERR3
 40
0.0
  9
$USERR4
 40
0.0
  9
$USERR5
 40
0.0
  9
$WORLDVIEW
 70
     1
  9
$SHADEDGE
 70
     3
  9
$SHADEDIF
 70
    70
  9
$TILEMODE
 70
     1
  9
$MAXACTVP
 70
    16
  9
$PINSBASE
 10
0.0
 20
0.0
 30
0.0
  9
$PLIMCHECK
 70
     0
  9
$PEXTMIN
 10
1.000000000000000E+20
 20
1.000000000000000E+20
 30
1.000000000000000E+20
  9
$PEXTMAX
 10
-1.000000000000000E+20
 20
-1.000000000000000E+20
 30
-1.000000000000000E+20
  9
$PLIMMIN
 10
0.0
 20
0.0
  9
$PLIMMAX
 10
420.0
 20
297.0
  9
$UNITMODE
 70
     0
  9
$VISRETAIN
 70
     0
  9
$PLINEGEN
 70
     0
  9
$PSLTSCALE
 70
     0
  9
$TREEDEPTH
 70
  3020
  9
$CMLSTYLE
  2
STANDARD
  9
$CMLJUST
 70
     0
  9
$CMLSCALE
 40
1.0
  9
$PROXYGRAPHICS
 70
     1
  9
$MEASUREMENT
 70
     1
  9
$CELWEIGHT
370
    -1
  9
$ENDCAPS
280
     0
  9
$JOINSTYLE
280
     0
  9
$LWDISPLAY
290
     0
  9
$INSUNITS
 70
     0
  9
$HYPERLINKBASE
  1

  9
$STYLESHEET
  1
ACA3.ctb
  9
$XEDIT
290
     1
  9
$CEPSNTYPE
380
     0
  9
$PSTYLEMODE
290
     1
  9
$FINGERPRINTGUID
  2
{5EAC461A-2277-4BF8-9AB0-99C43BB394F0}
  9
$VERSIONGUID
  2
{66B1F70D-E883-427F-84A8-A34F553008F4}
  9
$EXTNAMES
290
     1
  9
$PSVPSCALE
 40
0.0
  9
$OLESTARTUP
290
     0
  0
ENDSEC
  0
SECTION
  2
CLASSES
  0
CLASS
  1
ACDBDICTIONARYWDFLT
  2
AcDbDictionaryWithDefault
  3
ObjectDBX Classes
 90
        0
280
     0
281
     0
  0
CLASS
  1
DICTIONARYVAR
  2
AcDbDictionaryVar
  3
ObjectDBX Classes
 90
        0
280
     0
281
     0
  0
CLASS
  1
ACDBPLACEHOLDER
  2
AcDbPlaceHolder
  3
ObjectDBX Classes
 90
        0
280
     0
281
     0
  0
CLASS
  1
LAYOUT
  2
AcDbLayout
  3
ObjectDBX Classes
 90
        0
280
     0
281
     0
  0
ENDSEC
  0
SECTION
  2
TABLES
  0
TABLE
  2
VPORT
  5
746D
330
0
100
AcDbSymbolTable
 70
     2
  0
VPORT
  5
2333A
330
746D
100
AcDbSymbolTableRecord
100
AcDbViewportTableRecord
  2
*Active
 70
     0
 10
0.0
 20
0.0
 11
1.0
 21
1.0
 12
8399.999999999998
 22
6549.946247360479
 13
0.0
 23
0.0
 14
10.0
 24
10.0
 15
10.0
 25
10.0
 16
0.0
 26
0.0
 36
1.0
 17
0.0
 27
0.0
 37
0.0
 40
13195.53316003625
 41
1.522222222222222
 42
50.0
 43
0.0
 44
0.0
 50
0.0
 51
0.0
 71
     0
 72
     0
 73
     1
 74
     0
 75
     0
 76
     0
 77
     0
 78
     0
281
     0
 65
     1
110
0.0
120
0.0
130
0.0
111
1.0
121
0.0
131
0.0
112
0.0
122
1.0
132
0.0
 79
     0
146
0.0
  0
ENDTAB
  0
TABLE
  2
LTYPE
  5
746A
330
0
100
AcDbSymbolTable
 70
     5
  0
LTYPE
  5
7477
330
746A
100
AcDbSymbolTableRecord
100
AcDbLinetypeTableRecord
  2
BYBLOCK
 70
     0
  3

 72
    65
 73
     0
 40
0.0
  0
LTYPE
  5
7478
330
746A
100
AcDbSymbolTableRecord
100
AcDbLinetypeTableRecord
  2
BYLAYER
 70
     0
  3

 72
    65
 73
     0
 40
0.0
  0
LTYPE
  5
7479
330
746A
100
AcDbSymbolTableRecord
100
AcDbLinetypeTableRecord
  2
CONTINUOUS
 70
     0
  3
Solid line
 72
    65
 73
     0
 40
0.0
  0
LTYPE
  5
7816
330
746A
100
AcDbSymbolTableRecord
100
AcDbLinetypeTableRecord
  2
CENTER
 70
     0
  3
____ _ ____ _ ____ _ ____ _ ____ _ ____ _ ____ 
 72
    65
 73
     4
 40
2.0
 49
1.25
 74
     0
 49
-0.25
 74
     0
 49
0.25
 74
     0
 49
-0.25
 74
     0
  0
LTYPE
  5
781A
330
746A
100
AcDbSymbolTableRecord
100
AcDbLinetypeTableRecord
  2
HIDDEN
 70
     0
  3
__ __ __ __ __ __ __ __ __ __ __ __ __ __ __ __
 72
    65
 73
     2
 40
0.375
 49
0.25
 74
     0
 49
-0.125
 74
     0
  0
LTYPE
  5
781B
330
746A
100
AcDbSymbolTableRecord
100
AcDbLinetypeTableRecord
  2
PHANTOM
 70
     0
  3
______  __  __  ______  __  __  ______  __  __ 
 72
    65
 73
     6
 40
2.5
 49
1.25
 74
     0
 49
-0.25
 74
     0
 49
0.25
 74
     0
 49
-0.25
 74
     0
 49
0.25
 74
     0
 49
-0.25
 74
     0
  0
LTYPE
  5
12CC3
330
746A
100
AcDbSymbolTableRecord
100
AcDbLinetypeTableRecord
  2
HIDDENX2
 70
     0
  3
Hidden (2x) ____ ____ ____ ____ ____ ____ ____
 72
    65
 73
     2
 40
19.05
 49
12.7
 74
     0
 49
-6.349999999999999
 74
     0
  0
ENDTAB
  0
TABLE
  2
LAYER
  5
7467
102
{ACAD_XDICTIONARY
360
1758F
102
}
330
0
100
AcDbSymbolTable
 70
    13
  0
LAYER
  5
7474
330
7467
100
AcDbSymbolTableRecord
100
AcDbLayerTableRecord
  2
0
 70
     0
 62
     7
  6
CONTINUOUS
370
    -3
390
173D0
  0
LAYER
  5
DEB2
330
7467
100
AcDbSymbolTableRecord
100
AcDbLayerTableRecord
  2
センター
 70
     0
 62
     3
  6
CENTER
370
    -3
390
173D0
  0
LAYER
  5
DEB3
330
7467
100
AcDbSymbolTableRecord
100
AcDbLayerTableRecord
  2
寸法
 70
     0
 62
     4
  6
CONTINUOUS
370
    -3
390
173D0
  0
LAYER
  5
DEB4
330
7467
100
AcDbSymbolTableRecord
100
AcDbLayerTableRecord
  2
部品1
 70
     0
 62
     7
  6
CONTINUOUS
370
    -3
390
173D0
  0
LAYER
  5
DEB5
330
7467
100
AcDbSymbolTableRecord
100
AcDbLayerTableRecord
  2
補助
 70
     0
 62
    -1
  6
CONTINUOUS
370
    -3
390
173D0
  0
LAYER
  5
DEB6
330
7467
100
AcDbSymbolTableRecord
100
AcDbLayerTableRecord
  2
文字
 70
     0
 62
     7
  6
CONTINUOUS
370
    -3
390
173D0
  0
LAYER
  5
F255
330
7467
100
AcDbSymbolTableRecord
100
AcDbLayerTableRecord
  2
DEFPOINTS
 70
     0
 62
     7
  6
CONTINUOUS
290
     0
370
    -3
390
173D0
  0
LAYER
  5
10B54
330
7467
100
AcDbSymbolTableRecord
100
AcDbLayerTableRecord
  2
仕様書枠
 70
     0
 62
   230
  6
CONTINUOUS
370
    -3
390
173D0
  0
LAYER
  5
11729
330
7467
100
AcDbSymbolTableRecord
100
AcDbLayerTableRecord
  2
Ｇ．Ｌ
 70
     0
 62
    30
  6
CONTINUOUS
370
    -3
390
173D0
  0
LAYER
  5
1173F
330
7467
100
AcDbSymbolTableRecord
100
AcDbLayerTableRecord
  2
細線
 70
     0
 62
     5
  6
CONTINUOUS
370
    -3
390
173D0
  0
LAYER
  5
12CC4
330
7467
100
AcDbSymbolTableRecord
100
AcDbLayerTableRecord
  2
想像線
 70
     0
 62
     6
  6
PHANTOM
370
    -3
390
173D0
  0
LAYER
  5
142E2
330
7467
100
AcDbSymbolTableRecord
100
AcDbLayerTableRecord
  2
破線
 70
     0
 62
     2
  6
HIDDEN
370
    -3
390
173D0
  0
LAYER
  5
1F7B1
330
7467
100
AcDbSymbolTableRecord
100
AcDbLayerTableRecord
  2
点線
 70
     0
 62
     2
  6
HIDDEN
370
    -3
390
173D0
  0
ENDTAB
  0
TABLE
  2
STYLE
  5
7468
330
0
100
AcDbSymbolTable
 70
     7
  0
STYLE
  5
7475
330
7468
100
AcDbSymbolTableRecord
100
AcDbTextStyleTableRecord
  2
STANDARD
 70
     0
 40
0.0
 41
1.0
 50
0.0
 71
     0
 42
4.0
  3
txt
  4
C:\AutoCAD LT\bigfont.shx
  0
STYLE
  5
763C
330
7468
100
AcDbSymbolTableRecord
100
AcDbTextStyleTableRecord
  2
MSMINCHO
 70
     0
 40
0.0
 41
1.0
 50
0.0
 71
     0
 42
1.199999999999999
  3
C:\AutoCAD LT\msminch2.TTF
  4

  0
STYLE
  5
F706
330
7468
100
AcDbSymbolTableRecord
100
AcDbTextStyleTableRecord
  2
STYLE1
 70
     0
 40
0.0
 41
1.0
 50
0.0
 71
     0
 42
4.0
  3
isocp.shx
  4
bigfont.shx
  0
STYLE
  5
103BF
330
7468
100
AcDbSymbolTableRecord
100
AcDbTextStyleTableRecord
  2
STYLE2
 70
     0
 40
0.0
 41
1.0
 50
0.0
 71
     0
 42
100.0
  3
MS PGothic.ttf
  4

1001
ACAD
1000
MS PGothic
1071
    32818
  0
STYLE
  5
10BAA
330
7468
100
AcDbSymbolTableRecord
100
AcDbTextStyleTableRecord
  2
STYLE3
 70
     0
 40
0.0
 41
1.0
 50
0.0
 71
     0
 42
100.0
  3

  4

1001
ACAD
1000
DFPGothic-EB
1071
    32818
  0
STYLE
  5
11A15
330
7468
100
AcDbSymbolTableRecord
100
AcDbTextStyleTableRecord
  2
MSGOTHIC
 70
     0
 40
0.0
 41
1.0
 50
0.0
 71
     0
 42
3.5
  3
msgothi2.ttf
  4

  0
STYLE
  5
13E96
330
7468
100
AcDbSymbolTableRecord
100
AcDbTextStyleTableRecord
  2
MSPゴシック
 70
     0
 40
0.0
 41
1.0
 50
0.0
 71
     0
 42
4.0
  3
MS PGothic.ttf
  4

1001
ACAD
1000
MS PGothic
1071
    32818
  0
ENDTAB
  0
TABLE
  2
VIEW
  5
746B
330
0
100
AcDbSymbolTable
 70
     0
  0
ENDTAB
  0
TABLE
  2
UCS
  5
746C
330
0
100
AcDbSymbolTable
 70
     0
  0
ENDTAB
  0
TABLE
  2
APPID
  5
746E
330
0
100
AcDbSymbolTable
 70
     6
  0
APPID
  5
7476
330
746E
100
AcDbSymbolTableRecord
100
AcDbRegAppTableRecord
  2
ACAD
 70
     0
  0
APPID
  5
DEA9
330
746E
100
AcDbSymbolTableRecord
100
AcDbRegAppTableRecord
  2
CONTENTBLOCKICON
 70
     0
  0
APPID
  5
DEAA
330
746E
100
AcDbSymbolTableRecord
100
AcDbRegAppTableRecord
  2
CONTENTBLOCKDESCRIPTION
 70
     0
  0
APPID
  5
E71D
330
746E
100
AcDbSymbolTableRecord
100
AcDbRegAppTableRecord
  2
CONTENTTABDATA
 70
     0
  0
APPID
  5
E71E
330
746E
100
AcDbSymbolTableRecord
100
AcDbRegAppTableRecord
  2
CONTENTCURRENTTAB
 70
     0
  0
APPID
  5
F3BA
330
746E
100
AcDbSymbolTableRecord
100
AcDbRegAppTableRecord
  2
DRAWINGVARIABLESXDATA
 70
     0
  0
ENDTAB
  0
TABLE
  2
DIMSTYLE
  5
746F
330
0
100
AcDbSymbolTable
 70
     6
100
AcDbDimStyleTable
 71
     1
340
F71F
  0
DIMSTYLE
105
7484
330
746F
100
AcDbSymbolTableRecord
100
AcDbDimStyleTableRecord
  2
JIS
 70
     0
 41
2.5
 42
1.0
 43
7.0
 44
1.0
 73
     0
 74
     0
 77
     1
 78
     8
140
2.5
141
0.0
143
0.0394
147
0.0
172
     1
174
     1
175
     1
340
7475
  0
DIMSTYLE
105
F236
330
746F
100
AcDbSymbolTableRecord
100
AcDbDimStyleTableRecord
  2
INABA_S40
 70
     0
 40
40.0
 41
2.5
 42
0.5
 43
7.0
 44
1.5
 73
     0
 74
     0
 77
     3
 78
     8
140
3.0
141
0.0
143
0.0394
147
1.0
172
     1
173
     1
174
     1
175
     1
178
     7
289
     0
340
7475
341
DEAC
343
DEAC
344
DEAC
  0
DIMSTYLE
105
F71F
102
{ACAD_REACTORS
330
202C8
330
2030F
330
20311
330
2031B
330
1FC6F
330
1FC4A
330
1FC2F
330
1FC2E
330
1FB37
330
1FB11
330
1FB0F
330
1FB0E
330
1FA26
330
1FA21
330
1FA1F
330
1FB10
330
1FB0C
330
1FA2F
330
1FC59
330
1FC40
330
1FC30
330
1FB76
330
22993
330
22994
330
22A1E
330
22A1F
330
22A20
330
23178
330
23179
330
23181
330
23188
330
2318B
330
231EB
102
}
330
746F
100
AcDbSymbolTableRecord
100
AcDbDimStyleTableRecord
  2
INABA_S40G
 70
     0
 40
40.0
 41
2.5
 42
0.5
 43
7.0
 44
1.5
 73
     0
 74
     0
 77
     3
 78
     8
140
3.0
141
0.0
143
0.0394
147
1.0
172
     1
173
     1
174
     1
178
     7
271
     1
340
F706
341
F770
343
F770
344
F770
  0
DIMSTYLE
105
142E3
330
746F
100
AcDbSymbolTableRecord
100
AcDbDimStyleTableRecord
  2
INABA_S1
 70
     0
 40
0.0
 41
2.5
 42
0.5
 43
7.0
 44
1.5
 73
     0
 74
     0
 77
     3
 78
     8
140
3.0
141
0.0
143
0.0394
146
0.5
147
0.5
172
     1
173
     1
176
   256
177
   256
178
     7
271
     2
272
     2
284
     8
288
     1
340
7475
341
DEAC
343
DEAC
344
DEAC
  0
DIMSTYLE
105
14463
330
746F
100
AcDbSymbolTableRecord
100
AcDbDimStyleTableRecord
  2
INABA_S30G
 70
     0
 40
30.0
 41
2.5
 42
0.5
 43
7.0
 44
1.5
 73
     0
 74
     0
 77
     3
 78
     8
140
3.0
141
0.0
143
0.0394
147
1.0
172
     1
173
     1
174
     1
175
     1
178
     7
271
     1
340
F706
341
F770
343
F770
344
F770
  0
DIMSTYLE
105
1758E
330
746F
100
AcDbSymbolTableRecord
100
AcDbDimStyleTableRecord
  2
INABA_S50G
 70
     0
 41
125.0
 42
25.0
 43
7.0
 44
75.0
 73
     0
 74
     0
 77
     3
 78
     8
140
150.0
141
0.0
143
0.0394
147
25.0
172
     1
173
     1
174
     1
175
     1
178
     7
271
     1
340
F706
341
F770
343
F770
344
F770
  0
ENDTAB
  0
TABLE
  2
BLOCK_RECORD
  5
7466
330
0
100
AcDbSymbolTable
 70
    64
  0
BLOCK_RECORD
  5
747D
330
7466
100
AcDbSymbolTableRecord
100
AcDbBlockTableRecord
  2
*MODEL_SPACE
340
173D5
  0
BLOCK_RECORD
  5
747A
330
7466
100
AcDbSymbolTableRecord
100
AcDbBlockTableRecord
  2
*PAPER_SPACE
340
173D6
  0
BLOCK_RECORD
  5
DEAC
330
7466
100
AcDbSymbolTableRecord
100
AcDbBlockTableRecord
  2
_OPEN
340
0
  0
BLOCK_RECORD
  5
F770
330
7466
100
AcDbSymbolTableRecord
100
AcDbBlockTableRecord
  2
_DOTSMALL
340
0
102
{BLKREFS
331
18C65
331
18C66
331
18C59
331
18C5A
331
18C4D
331
18C4E
331
18C41
331
18C42
331
18C35
331
18C36
331
18C29
331
18C2A
331
18C1D
331
18C1E
331
18C0F
331
18C10
331
18C03
331
18C04
331
18BF5
331
18BF6
331
18BE7
331
18BE8
331
18BD9
331
18BDA
331
18BCD
331
18BCE
331
20EBB
331
20EBC
331
20EC6
331
20EC7
331
20ED1
331
20ED2
331
20EDC
331
20EDD
331
20EE6
331
20EE7
331
20EFA
331
20EFB
331
20F15
331
20F16
331
20F1E
331
20F1F
331
20F28
331
20F29
331
20F31
331
20F32
331
20F3A
331
20F3B
331
20F43
331
20F44
331
20F4D
331
20F4E
331
20F57
331
20F58
331
20F60
331
20F61
331
20F6A
331
20F6B
331
20F73
331
20F74
331
20F7C
331
20F7D
331
20F85
331
20F86
331
229D9
331
22A91
331
22A92
331
22A9B
331
22A9C
331
22AA4
331
22AA5
331
22AAC
331
22AAD
331
22AB5
331
22AB6
331
22ABE
331
22ABF
331
22AD0
331
22AD1
331
22F40
331
22F41
331
22F49
331
22F4A
331
22F52
331
22F53
331
22F60
331
22F61
331
22F68
331
22F69
331
22FB2
331
22FB3
331
22FD9
331
22FDA
331
2302F
331
23030
331
23024
331
23025
331
23013
331
23014
331
23007
331
23008
331
22FFB
331
22FFC
331
22FEF
331
22FF0
331
232F4
331
232F5
331
23303
331
23304
331
2330C
331
2330D
331
23315
331
23316
331
2331E
331
2331F
331
23327
331
23328
102
}
  0
BLOCK_RECORD
  5
164B4
330
7466
100
AcDbSymbolTableRecord
100
AcDbBlockTableRecord
  2
_DOT
340
0
102
{BLKREFS
331
18C73
331
18C74
102
}
  0
BLOCK_RECORD
  5
18BC8
330
7466
100
AcDbSymbolTableRecord
100
AcDbBlockTableRecord
  2
*D3
340
0
  0
BLOCK_RECORD
  5
18BD4
330
7466
100
AcDbSymbolTableRecord
100
AcDbBlockTableRecord
  2
*D4
340
0
  0
BLOCK_RECORD
  5
18BE0
330
7466
100
AcDbSymbolTableRecord
100
AcDbBlockTableRecord
  2
*D5
340
0
  0
BLOCK_RECORD
  5
18BEE
330
7466
100
AcDbSymbolTableRecord
100
AcDbBlockTableRecord
  2
*D6
340
0
  0
BLOCK_RECORD
  5
18BFC
330
7466
100
AcDbSymbolTableRecord
100
AcDbBlockTableRecord
  2
*D7
340
0
  0
BLOCK_RECORD
  5
18C0A
330
7466
100
AcDbSymbolTableRecord
100
AcDbBlockTableRecord
  2
*D8
340
0
  0
BLOCK_RECORD
  5
18C16
330
7466
100
AcDbSymbolTableRecord
100
AcDbBlockTableRecord
  2
*D9
340
0
  0
BLOCK_RECORD
  5
18C24
330
7466
100
AcDbSymbolTableRecord
100
AcDbBlockTableRecord
  2
*D10
340
0
  0
BLOCK_RECORD
  5
18C30
330
7466
100
AcDbSymbolTableRecord
100
AcDbBlockTableRecord
  2
*D11
340
0
  0
BLOCK_RECORD
  5
18C3C
330
7466
100
AcDbSymbolTableRecord
100
AcDbBlockTableRecord
  2
*D12
340
0
  0
BLOCK_RECORD
  5
18C48
330
7466
100
AcDbSymbolTableRecord
100
AcDbBlockTableRecord
  2
*D13
340
0
  0
BLOCK_RECORD
  5
18C54
330
7466
100
AcDbSymbolTableRecord
100
AcDbBlockTableRecord
  2
*D14
340
0
  0
BLOCK_RECORD
  5
18C60
330
7466
100
AcDbSymbolTableRecord
100
AcDbBlockTableRecord
  2
*D15
340
0
  0
BLOCK_RECORD
  5
18C6C
330
7466
100
AcDbSymbolTableRecord
100
AcDbBlockTableRecord
  2
*D16
340
0
  0
BLOCK_RECORD
  5
18C7A
330
7466
100
AcDbSymbolTableRecord
100
AcDbBlockTableRecord
  2
A$C3B1A506B
340
0
  0
BLOCK_RECORD
  5
1C4CA
330
7466
100
AcDbSymbolTableRecord
100
AcDbBlockTableRecord
  2
_NONE
340
0
  0
BLOCK_RECORD
  5
1FC7E
330
7466
100
AcDbSymbolTableRecord
100
AcDbBlockTableRecord
  2
*D19
340
0
  0
BLOCK_RECORD
  5
1FC89
330
7466
100
AcDbSymbolTableRecord
100
AcDbBlockTableRecord
  2
*D20
340
0
  0
BLOCK_RECORD
  5
1FC94
330
7466
100
AcDbSymbolTableRecord
100
AcDbBlockTableRecord
  2
*D21
340
0
  0
BLOCK_RECORD
  5
1FC9F
330
7466
100
AcDbSymbolTableRecord
100
AcDbBlockTableRecord
  2
*D22
340
0
  0
BLOCK_RECORD
  5
1FCFB
330
7466
100
AcDbSymbolTableRecord
100
AcDbBlockTableRecord
  2
*D23
340
0
  0
BLOCK_RECORD
  5
1FD10
330
7466
100
AcDbSymbolTableRecord
100
AcDbBlockTableRecord
  2
*D24
340
0
  0
BLOCK_RECORD
  5
1FD1D
330
7466
100
AcDbSymbolTableRecord
100
AcDbBlockTableRecord
  2
*D25
340
0
  0
BLOCK_RECORD
  5
1FD2A
330
7466
100
AcDbSymbolTableRecord
100
AcDbBlockTableRecord
  2
*D26
340
0
  0
BLOCK_RECORD
  5
1FD36
330
7466
100
AcDbSymbolTableRecord
100
AcDbBlockTableRecord
  2
*D27
340
0
  0
BLOCK_RECORD
  5
1FD7F
330
7466
100
AcDbSymbolTableRecord
100
AcDbBlockTableRecord
  2
*D28
340
0
  0
BLOCK_RECORD
  5
1FD96
330
7466
100
AcDbSymbolTableRecord
100
AcDbBlockTableRecord
  2
*D29
340
0
  0
BLOCK_RECORD
  5
1FDE9
330
7466
100
AcDbSymbolTableRecord
100
AcDbBlockTableRecord
  2
*D30
340
0
  0
BLOCK_RECORD
  5
1FDF5
330
7466
100
AcDbSymbolTableRecord
100
AcDbBlockTableRecord
  2
*D31
340
0
  0
BLOCK_RECORD
  5
1FE00
330
7466
100
AcDbSymbolTableRecord
100
AcDbBlockTableRecord
  2
*D32
340
0
  0
BLOCK_RECORD
  5
1FE0B
330
7466
100
AcDbSymbolTableRecord
100
AcDbBlockTableRecord
  2
*D33
340
0
  0
BLOCK_RECORD
  5
1FE17
330
7466
100
AcDbSymbolTableRecord
100
AcDbBlockTableRecord
  2
*D34
340
0
  0
BLOCK_RECORD
  5
1FE24
330
7466
100
AcDbSymbolTableRecord
100
AcDbBlockTableRecord
  2
*D35
340
0
  0
BLOCK_RECORD
  5
1FE31
330
7466
100
AcDbSymbolTableRecord
100
AcDbBlockTableRecord
  2
*D36
340
0
  0
BLOCK_RECORD
  5
2033A
330
7466
100
AcDbSymbolTableRecord
100
AcDbBlockTableRecord
  2
*D37
340
0
  0
BLOCK_RECORD
  5
203C4
330
7466
100
AcDbSymbolTableRecord
100
AcDbBlockTableRecord
  2
*D38
340
0
  0
BLOCK_RECORD
  5
203DF
330
7466
100
AcDbSymbolTableRecord
100
AcDbBlockTableRecord
  2
*D39
340
0
  0
BLOCK_RECORD
  5
20407
330
7466
100
AcDbSymbolTableRecord
100
AcDbBlockTableRecord
  2
*D40
340
0
  0
BLOCK_RECORD
  5
2299B
330
7466
100
AcDbSymbolTableRecord
100
AcDbBlockTableRecord
  2
*D41
340
0
  0
BLOCK_RECORD
  5
229A7
330
7466
100
AcDbSymbolTableRecord
100
AcDbBlockTableRecord
  2
*D42
340
0
  0
BLOCK_RECORD
  5
22A27
330
7466
100
AcDbSymbolTableRecord
100
AcDbBlockTableRecord
  2
*D43
340
0
  0
BLOCK_RECORD
  5
22A33
330
7466
100
AcDbSymbolTableRecord
100
AcDbBlockTableRecord
  2
*D44
340
0
  0
BLOCK_RECORD
  5
22A3F
330
7466
100
AcDbSymbolTableRecord
100
AcDbBlockTableRecord
  2
*D45
340
0
  0
BLOCK_RECORD
  5
232A4
330
7466
100
AcDbSymbolTableRecord
100
AcDbBlockTableRecord
  2
*D58
340
0
  0
BLOCK_RECORD
  5
232B0
330
7466
100
AcDbSymbolTableRecord
100
AcDbBlockTableRecord
  2
*D59
340
0
  0
BLOCK_RECORD
  5
232C1
330
7466
100
AcDbSymbolTableRecord
100
AcDbBlockTableRecord
  2
*D60
340
0
  0
BLOCK_RECORD
  5
232CD
330
7466
100
AcDbSymbolTableRecord
100
AcDbBlockTableRecord
  2
*D61
340
0
  0
BLOCK_RECORD
  5
232D9
330
7466
100
AcDbSymbolTableRecord
100
AcDbBlockTableRecord
  2
*D62
340
0
  0
BLOCK_RECORD
  5
232E5
330
7466
100
AcDbSymbolTableRecord
100
AcDbBlockTableRecord
  2
*D63
340
0
  0
ENDTAB
  0
ENDSEC
  0
SECTION
  2
BLOCKS
  0
BLOCK
  5
7489
330
747D
100
AcDbEntity
  8
0
100
AcDbBlockBegin
  2
*MODEL_SPACE
 70
     0
 10
0.0
 20
0.0
 30
0.0
  3
*MODEL_SPACE
  1

  0
ENDBLK
  5
748A
330
747D
100
AcDbEntity
  8
0
100
AcDbBlockEnd
  0
BLOCK
  5
7487
330
747A
100
AcDbEntity
 67
     1
  8
0
100
AcDbBlockBegin
  2
*PAPER_SPACE
 70
     0
 10
0.0
 20
0.0
 30
0.0
  3
*PAPER_SPACE
  1

  0
ENDBLK
  5
7488
330
747A
100
AcDbEntity
 67
     1
  8
0
100
AcDbBlockEnd
  0
BLOCK
  5
DEAD
330
DEAC
100
AcDbEntity
  8
0
100
AcDbBlockBegin
  2
_OPEN
 70
     0
 10
0.0
 20
0.0
 30
0.0
  3
_OPEN
  1

  0
LINE
  5
DEAE
330
DEAC
100
AcDbEntity
  8
0
  6
ByBlock
 62
     0
100
AcDbLine
 10
-1.0
 20
0.1666666666666666
 30
0.0
 11
0.0
 21
0.0
 31
0.0
  0
LINE
  5
DEAF
330
DEAC
100
AcDbEntity
  8
0
  6
ByBlock
 62
     0
100
AcDbLine
 10
0.0
 20
0.0
 30
0.0
 11
-1.0
 21
-0.1666666666666666
 31
0.0
  0
LINE
  5
DEB0
330
DEAC
100
AcDbEntity
  8
0
  6
ByBlock
 62
     0
100
AcDbLine
 10
0.0
 20
0.0
 30
0.0
 11
-1.0
 21
0.0
 31
0.0
  0
ENDBLK
  5
DEB1
330
DEAC
100
AcDbEntity
  8
0
100
AcDbBlockEnd
  0
BLOCK
  5
F771
330
F770
100
AcDbEntity
  8
0
 48
50.0
100
AcDbBlockBegin
  2
_DOTSMALL
 70
     0
 10
0.0
 20
0.0
 30
0.0
  3
_DOTSMALL
  1

  0
LWPOLYLINE
  5
F772
330
F770
100
AcDbEntity
  8
0
  6
ByBlock
 62
     0
 48
50.0
100
AcDbPolyline
 90
        2
 70
     1
 43
0.5
 10
-0.0625
 20
0.0
 42
1.0
 10
0.0625
 20
0.0
 42
1.0
  0
ENDBLK
  5
F776
330
F770
100
AcDbEntity
  8
0
 48
50.0
100
AcDbBlockEnd
  0
BLOCK
  5
164BA
330
164B4
100
AcDbEntity
  8
0
 48
50.0
100
AcDbBlockBegin
  2
_DOT
 70
     0
 10
0.0
 20
0.0
 30
0.0
  3
_DOT
  1

  0
LWPOLYLINE
  5
164B5
330
164B4
100
AcDbEntity
  8
0
  6
ByBlock
 62
     0
 48
50.0
100
AcDbPolyline
 90
        2
 70
     1
 43
0.5
 10
-0.25
 20
0.0
 42
1.0
 10
0.25
 20
0.0
 42
1.0
  0
LINE
  5
164B9
330
164B4
100
AcDbEntity
  8
0
  6
ByBlock
 62
     0
 48
50.0
100
AcDbLine
 10
-0.5
 20
0.0
 30
0.0
 11
-1.0
 21
0.0
 31
0.0
  0
ENDBLK
  5
164BB
330
164B4
100
AcDbEntity
  8
0
 48
50.0
100
AcDbBlockEnd
  0
BLOCK
  5
18BC9
330
18BC8
100
AcDbEntity
  8
0
 48
50.0
100
AcDbBlockBegin
  2
*D3
 70
     1
 10
0.0
 20
0.0
 30
0.0
  3
*D3
  1

  0
LINE
  5
18BCA
330
18BC8
100
AcDbEntity
  8
寸法
 62
     0
 48
50.0
370
    -2
100
AcDbLine
 10
7649.896575106999
 20
9636.123139034717
 30
0.0
 11
8702.429862581047
 21
9636.123139034717
 31
0.0
  0
LINE
  5
18BCB
330
18BC8
100
AcDbEntity
  8
寸法
 62
     0
 48
50.0
370
    -2
100
AcDbLine
 10
7649.896575106973
 20
7846.123139034709
 30
0.0
 11
8702.429862581047
 21
7846.123139034709
 31
0.0
  0
LINE
  5
18BCC
330
18BC8
100
AcDbEntity
  8
寸法
 62
     0
 48
50.0
370
    -2
100
AcDbLine
 10
8642.429862581046
 20
9636.123139034717
 30
0.0
 11
8642.429862581046
 21
7846.123139034709
 31
0.0
  0
INSERT
  5
18BCD
330
18BC8
100
AcDbEntity
  8
寸法
 62
     0
 48
50.0
370
    -2
100
AcDbBlockReference
  2
_DOTSMALL
 10
8642.429862581046
 20
9636.123139034717
 30
0.0
 41
100.0
 42
100.0
 43
100.0
 50
90.0
  0
INSERT
  5
18BCE
330
18BC8
100
AcDbEntity
  8
寸法
 62
     0
 48
50.0
370
    -2
100
AcDbBlockReference
  2
_DOTSMALL
 10
8642.429862581046
 20
7846.123139034709
 30
0.0
 41
100.0
 42
100.0
 43
100.0
 50
270.0
  0
MTEXT
  5
18BCF
330
18BC8
100
AcDbEntity
  8
寸法
 62
     7
 48
50.0
100
AcDbMText
 10
8542.429862581045
 20
8741.123139034712
 30
0.0
 40
120.0
 41
0.0
 71
     5
 72
     1
  1
\A1;1790
  7
STYLE1
 11
0.0000000000000001
 21
1.0
 31
0.0
 73
     1
 44
1.0
1001
ACAD
1000
MTEXTBEGIN
1070
    73
1070
     1
1070
    44
1040
1.0
1070
    74
1070
     0
1000
MTEXTEND
  0
POINT
  5
18BD0
330
18BC8
100
AcDbEntity
  8
DEFPOINTS
 62
     0
 48
50.0
100
AcDbPoint
 10
7629.896575106998
 20
9636.123139034717
 30
0.0
  0
POINT
  5
18BD1
330
18BC8
100
AcDbEntity
  8
DEFPOINTS
 62
     0
 48
50.0
100
AcDbPoint
 10
7629.896575106974
 20
7846.123139034709
 30
0.0
  0
POINT
  5
18BD2
330
18BC8
100
AcDbEntity
  8
DEFPOINTS
 62
     0
 48
50.0
100
AcDbPoint
 10
8642.429862581046
 20
7846.123139034709
 30
0.0
  0
ENDBLK
  5
18BD3
330
18BC8
100
AcDbEntity
  8
0
 48
50.0
100
AcDbBlockEnd
  0
BLOCK
  5
18BD5
330
18BD4
100
AcDbEntity
  8
0
 48
50.0
100
AcDbBlockBegin
  2
*D4
 70
     1
 10
0.0
 20
0.0
 30
0.0
  3
*D4
  1

  0
LINE
  5
18BD6
330
18BD4
100
AcDbEntity
  8
寸法
 62
     0
 48
50.0
370
    -2
100
AcDbLine
 10
4214.896575106998
 20
9656.123139034622
 30
0.0
 11
4214.896575106998
 21
10211.93135865972
 31
0.0
  0
LINE
  5
18BD7
330
18BD4
100
AcDbEntity
  8
寸法
 62
     0
 48
50.0
370
    -2
100
AcDbLine
 10
7574.896575106999
 20
9656.123139034718
 30
0.0
 11
7574.896575106999
 21
10211.93135865972
 31
0.0
  0
LINE
  5
18BD8
330
18BD4
100
AcDbEntity
  8
寸法
 62
     0
 48
50.0
370
    -2
100
AcDbLine
 10
4214.896575106998
 20
10151.93135865972
 30
0.0
 11
7574.896575106999
 21
10151.93135865972
 31
0.0
  0
INSERT
  5
18BD9
330
18BD4
100
AcDbEntity
  8
寸法
 62
     0
 48
50.0
370
    -2
100
AcDbBlockReference
  2
_DOTSMALL
 10
4214.896575106998
 20
10151.93135865972
 30
0.0
 41
100.0
 42
100.0
 43
100.0
 50
180.0
  0
INSERT
  5
18BDA
330
18BD4
100
AcDbEntity
  8
寸法
 62
     0
 48
50.0
370
    -2
100
AcDbBlockReference
  2
_DOTSMALL
 10
7574.896575106999
 20
10151.93135865972
 30
0.0
 41
100.0
 42
100.0
 43
100.0
  0
MTEXT
  5
18BDB
330
18BD4
100
AcDbEntity
  8
寸法
 62
     7
 48
50.0
100
AcDbMText
 10
5894.896575106997
 20
10251.94316968334
 30
0.0
 40
120.0
 41
0.0
 71
     5
 72
     1
  1
\A1;8X420=3360
  7
STYLE1
 73
     1
 44
1.0
1001
ACAD
1000
MTEXTBEGIN
1070
    73
1070
     1
1070
    44
1040
1.0
1070
    74
1070
     0
1000
MTEXTEND
  0
POINT
  5
18BDC
330
18BD4
100
AcDbEntity
  8
DEFPOINTS
 62
     0
 48
50.0
100
AcDbPoint
 10
4214.896575106998
 20
9636.123139034623
 30
0.0
  0
POINT
  5
18BDD
330
18BD4
100
AcDbEntity
  8
DEFPOINTS
 62
     0
 48
50.0
100
AcDbPoint
 10
7574.896575106999
 20
9636.123139034717
 30
0.0
  0
POINT
  5
18BDE
330
18BD4
100
AcDbEntity
  8
DEFPOINTS
 62
     0
 48
50.0
100
AcDbPoint
 10
7574.896575106999
 20
10151.93135865972
 30
0.0
  0
ENDBLK
  5
18BDF
330
18BD4
100
AcDbEntity
  8
0
 48
50.0
100
AcDbBlockEnd
  0
BLOCK
  5
18BE1
330
18BE0
100
AcDbEntity
  8
0
 48
50.0
100
AcDbBlockBegin
  2
*D5
 70
     1
 10
0.0
 20
0.0
 30
0.0
  3
*D5
  1

  0
LINE
  5
18BE2
330
18BE0
100
AcDbEntity
  8
寸法
 62
     0
 48
50.0
370
    -2
100
AcDbLine
 10
7574.896575106999
 20
9656.123139034718
 30
0.0
 11
7574.896575106999
 21
10211.9313586597
 31
0.0
  0
LINE
  5
18BE3
330
18BE0
100
AcDbEntity
  8
寸法
 62
     0
 48
50.0
370
    -2
100
AcDbLine
 10
7629.896575106998
 20
9656.123139034718
 30
0.0
 11
7629.896575106998
 21
10211.9313586597
 31
0.0
  0
LINE
  5
18BE4
330
18BE0
100
AcDbEntity
  8
寸法
 62
     0
 48
50.0
370
    -2
100
AcDbLine
 10
7574.896575106999
 20
10151.9313586597
 30
0.0
 11
7474.896575106999
 21
10151.9313586597
 31
0.0
  0
LINE
  5
18BE5
330
18BE0
100
AcDbEntity
  8
寸法
 62
     0
 48
50.0
370
    -2
100
AcDbLine
 10
7629.896575106998
 20
10151.9313586597
 30
0.0
 11
8046.867137855477
 21
10151.9313586597
 31
0.0
  0
LINE
  5
18BE6
330
18BE0
100
AcDbEntity
  8
寸法
 62
     0
 48
50.0
370
    -2
100
AcDbLine
 10
7574.896575106999
 20
10151.9313586597
 30
0.0
 11
7629.896575106998
 21
10151.9313586597
 31
0.0
  0
INSERT
  5
18BE7
330
18BE0
100
AcDbEntity
  8
寸法
 62
     0
 48
50.0
370
    -2
100
AcDbBlockReference
  2
_DOTSMALL
 10
7574.896575106999
 20
10151.9313586597
 30
0.0
 41
100.0
 42
100.0
 43
100.0
  0
INSERT
  5
18BE8
330
18BE0
100
AcDbEntity
  8
寸法
 62
     0
 48
50.0
370
    -2
100
AcDbBlockReference
  2
_DOTSMALL
 10
7629.896575106998
 20
10151.9313586597
 30
0.0
 41
100.0
 42
100.0
 43
100.0
 50
180.0
  0
MTEXT
  5
18BE9
330
18BE0
100
AcDbEntity
  8
寸法
 62
     7
 48
50.0
100
AcDbMText
 10
7938.381856481237
 20
10251.9313586597
 30
0.0
 40
120.0
 41
0.0
 71
     5
 72
     1
  1
\A1;55
  7
STYLE1
 73
     1
 44
1.0
1001
ACAD
1000
MTEXTBEGIN
1070
    73
1070
     1
1070
    44
1040
1.0
1070
    74
1070
     0
1000
MTEXTEND
  0
POINT
  5
18BEA
330
18BE0
100
AcDbEntity
  8
DEFPOINTS
 62
     0
 48
50.0
100
AcDbPoint
 10
7574.896575106999
 20
9636.123139034717
 30
0.0
  0
POINT
  5
18BEB
330
18BE0
100
AcDbEntity
  8
DEFPOINTS
 62
     0
 48
50.0
100
AcDbPoint
 10
7629.896575106998
 20
9636.123139034717
 30
0.0
  0
POINT
  5
18BEC
330
18BE0
100
AcDbEntity
  8
DEFPOINTS
 62
     0
 48
50.0
100
AcDbPoint
 10
7629.896575106998
 20
10151.9313586597
 30
0.0
  0
ENDBLK
  5
18BED
330
18BE0
100
AcDbEntity
  8
0
 48
50.0
100
AcDbBlockEnd
  0
BLOCK
  5
18BEF
330
18BEE
100
AcDbEntity
  8
0
 48
50.0
100
AcDbBlockBegin
  2
*D6
 70
     1
 10
0.0
 20
0.0
 30
0.0
  3
*D6
  1

  0
LINE
  5
18BF0
330
18BEE
100
AcDbEntity
  8
寸法
 62
     0
 48
50.0
370
    -2
100
AcDbLine
 10
7649.896575106999
 20
9636.123139034717
 30
0.0
 11
8337.32292084141
 21
9636.123139034717
 31
0.0
  0
LINE
  5
18BF1
330
18BEE
100
AcDbEntity
  8
寸法
 62
     0
 48
50.0
370
    -2
100
AcDbLine
 10
7649.896575106999
 20
9581.123139034721
 30
0.0
 11
8337.32292084141
 21
9581.123139034721
 31
0.0
  0
LINE
  5
18BF2
330
18BEE
100
AcDbEntity
  8
寸法
 62
     0
 48
50.0
370
    -2
100
AcDbLine
 10
8277.322920841411
 20
9581.123139034721
 30
0.0
 11
8277.322920841411
 21
9481.123139034719
 31
0.0
  0
LINE
  5
18BF3
330
18BEE
100
AcDbEntity
  8
寸法
 62
     0
 48
50.0
370
    -2
100
AcDbLine
 10
8277.322920841411
 20
9636.123139034717
 30
0.0
 11
8277.322920841411
 21
10053.09370178319
 31
0.0
  0
LINE
  5
18BF4
330
18BEE
100
AcDbEntity
  8
寸法
 62
     0
 48
50.0
370
    -2
100
AcDbLine
 10
8277.322920841411
 20
9581.123139034721
 30
0.0
 11
8277.322920841411
 21
9636.123139034717
 31
0.0
  0
INSERT
  5
18BF5
330
18BEE
100
AcDbEntity
  8
寸法
 62
     0
 48
50.0
370
    -2
100
AcDbBlockReference
  2
_DOTSMALL
 10
8277.322920841411
 20
9581.123139034721
 30
0.0
 41
100.0
 42
100.0
 43
100.0
 50
90.0
  0
INSERT
  5
18BF6
330
18BEE
100
AcDbEntity
  8
寸法
 62
     0
 48
50.0
370
    -2
100
AcDbBlockReference
  2
_DOTSMALL
 10
8277.322920841411
 20
9636.123139034717
 30
0.0
 41
100.0
 42
100.0
 43
100.0
 50
270.0
  0
MTEXT
  5
18BF7
330
18BEE
100
AcDbEntity
  8
寸法
 62
     7
 48
50.0
100
AcDbMText
 10
8177.32292084141
 20
9944.608420408957
 30
0.0
 40
120.0
 41
0.0
 71
     5
 72
     1
  1
\A1;55
  7
STYLE1
 11
0.0000000000000001
 21
1.0
 31
0.0
 73
     1
 44
1.0
1001
ACAD
1000
MTEXTBEGIN
1070
    73
1070
     1
1070
    44
1040
1.0
1070
    74
1070
     0
1000
MTEXTEND
  0
POINT
  5
18BF8
330
18BEE
100
AcDbEntity
  8
DEFPOINTS
 62
     0
 48
50.0
100
AcDbPoint
 10
7629.896575106998
 20
9636.123139034717
 30
0.0
  0
POINT
  5
18BF9
330
18BEE
100
AcDbEntity
  8
DEFPOINTS
 62
     0
 48
50.0
100
AcDbPoint
 10
7629.896575106998
 20
9581.123139034721
 30
0.0
  0
POINT
  5
18BFA
330
18BEE
100
AcDbEntity
  8
DEFPOINTS
 62
     0
 48
50.0
100
AcDbPoint
 10
8277.322920841411
 20
9581.123139034721
 30
0.0
  0
ENDBLK
  5
18BFB
330
18BEE
100
AcDbEntity
  8
0
 48
50.0
100
AcDbBlockEnd
  0
BLOCK
  5
18BFD
330
18BFC
100
AcDbEntity
  8
0
 48
50.0
100
AcDbBlockBegin
  2
*D7
 70
     1
 10
0.0
 20
0.0
 30
0.0
  3
*D7
  1

  0
LINE
  5
18BFE
330
18BFC
100
AcDbEntity
  8
寸法
 62
     0
 48
50.0
370
    -2
100
AcDbLine
 10
4159.896575106963
 20
9656.123139034622
 30
0.0
 11
4159.896575106963
 21
10211.9313586596
 31
0.0
  0
LINE
  5
18BFF
330
18BFC
100
AcDbEntity
  8
寸法
 62
     0
 48
50.0
370
    -2
100
AcDbLine
 10
4214.896575106998
 20
9656.123139034622
 30
0.0
 11
4214.896575106998
 21
10211.9313586596
 31
0.0
  0
LINE
  5
18C00
330
18BFC
100
AcDbEntity
  8
寸法
 62
     0
 48
50.0
370
    -2
100
AcDbLine
 10
4214.896575106998
 20
10151.9313586596
 30
0.0
 11
4314.896575106998
 21
10151.9313586596
 31
0.0
  0
LINE
  5
18C01
330
18BFC
100
AcDbEntity
  8
寸法
 62
     0
 48
50.0
370
    -2
100
AcDbLine
 10
4159.896575106963
 20
10151.9313586596
 30
0.0
 11
3742.926012358486
 21
10151.9313586596
 31
0.0
  0
LINE
  5
18C02
330
18BFC
100
AcDbEntity
  8
寸法
 62
     0
 48
50.0
370
    -2
100
AcDbLine
 10
4214.896575106998
 20
10151.9313586596
 30
0.0
 11
4159.896575106963
 21
10151.9313586596
 31
0.0
  0
INSERT
  5
18C03
330
18BFC
100
AcDbEntity
  8
寸法
 62
     0
 48
50.0
370
    -2
100
AcDbBlockReference
  2
_DOTSMALL
 10
4214.896575106998
 20
10151.9313586596
 30
0.0
 41
100.0
 42
100.0
 43
100.0
 50
180.0
  0
INSERT
  5
18C04
330
18BFC
100
AcDbEntity
  8
寸法
 62
     0
 48
50.0
370
    -2
100
AcDbBlockReference
  2
_DOTSMALL
 10
4159.896575106963
 20
10151.9313586596
 30
0.0
 41
100.0
 42
100.0
 43
100.0
  0
MTEXT
  5
18C05
330
18BFC
100
AcDbEntity
  8
寸法
 62
     7
 48
50.0
100
AcDbMText
 10
3851.411293732725
 20
10251.9313586596
 30
0.0
 40
120.0
 41
0.0
 71
     5
 72
     1
  1
\A1;55
  7
STYLE1
 73
     1
 44
1.0
1001
ACAD
1000
MTEXTBEGIN
1070
    73
1070
     1
1070
    44
1040
1.0
1070
    74
1070
     0
1000
MTEXTEND
  0
POINT
  5
18C06
330
18BFC
100
AcDbEntity
  8
DEFPOINTS
 62
     0
 48
50.0
100
AcDbPoint
 10
4159.896575106963
 20
9636.123139034623
 30
0.0
  0
POINT
  5
18C07
330
18BFC
100
AcDbEntity
  8
DEFPOINTS
 62
     0
 48
50.0
100
AcDbPoint
 10
4214.896575106998
 20
9636.123139034623
 30
0.0
  0
POINT
  5
18C08
330
18BFC
100
AcDbEntity
  8
DEFPOINTS
 62
     0
 48
50.0
100
AcDbPoint
 10
4214.896575106998
 20
10151.9313586596
 30
0.0
  0
ENDBLK
  5
18C09
330
18BFC
100
AcDbEntity
  8
0
 48
50.0
100
AcDbBlockEnd
  0
BLOCK
  5
18C0B
330
18C0A
100
AcDbEntity
  8
0
 48
50.0
100
AcDbBlockBegin
  2
*D8
 70
     1
 10
0.0
 20
0.0
 30
0.0
  3
*D8
  1

  0
LINE
  5
18C0C
330
18C0A
100
AcDbEntity
  8
寸法
 62
     0
 48
50.0
370
    -2
100
AcDbLine
 10
4159.896575106992
 20
7826.123139034546
 30
0.0
 11
4159.896575106992
 21
6804.372203245664
 31
0.0
  0
LINE
  5
18C0D
330
18C0A
100
AcDbEntity
  8
寸法
 62
     0
 48
50.0
370
    -2
100
AcDbLine
 10
7629.896575106974
 20
7826.123139034674
 30
0.0
 11
7629.896575106974
 21
6804.372203245664
 31
0.0
  0
LINE
  5
18C0E
330
18C0A
100
AcDbEntity
  8
寸法
 62
     0
 48
50.0
370
    -2
100
AcDbLine
 10
4159.896575106992
 20
6864.372203245665
 30
0.0
 11
7629.896575106974
 21
6864.372203245665
 31
0.0
  0
INSERT
  5
18C0F
330
18C0A
100
AcDbEntity
  8
寸法
 62
     0
 48
50.0
370
    -2
100
AcDbBlockReference
  2
_DOTSMALL
 10
4159.896575106992
 20
6864.372203245665
 30
0.0
 41
100.0
 42
100.0
 43
100.0
 50
180.0
  0
INSERT
  5
18C10
330
18C0A
100
AcDbEntity
  8
寸法
 62
     0
 48
50.0
370
    -2
100
AcDbBlockReference
  2
_DOTSMALL
 10
7629.896575106974
 20
6864.372203245665
 30
0.0
 41
100.0
 42
100.0
 43
100.0
  0
MTEXT
  5
18C11
330
18C0A
100
AcDbEntity
  8
寸法
 62
     7
 48
50.0
100
AcDbMText
 10
5911.12376113973
 20
6964.372203245665
 30
0.0
 40
120.0
 41
0.0
 71
     5
 72
     1
  1
\A1;3470
  7
STYLE1
 73
     1
 44
1.0
1001
ACAD
1000
MTEXTBEGIN
1070
    73
1070
     1
1070
    44
1040
1.0
1070
    74
1070
     0
1000
MTEXTEND
  0
POINT
  5
18C12
330
18C0A
100
AcDbEntity
  8
DEFPOINTS
 62
     0
 48
50.0
100
AcDbPoint
 10
4159.896575106992
 20
7846.123139034546
 30
0.0
  0
POINT
  5
18C13
330
18C0A
100
AcDbEntity
  8
DEFPOINTS
 62
     0
 48
50.0
100
AcDbPoint
 10
7629.896575106974
 20
7846.123139034673
 30
0.0
  0
POINT
  5
18C14
330
18C0A
100
AcDbEntity
  8
DEFPOINTS
 62
     0
 48
50.0
100
AcDbPoint
 10
7629.896575106974
 20
6864.372203245665
 30
0.0
  0
ENDBLK
  5
18C15
330
18C0A
100
AcDbEntity
  8
0
 48
50.0
100
AcDbBlockEnd
  0
BLOCK
  5
18C17
330
18C16
100
AcDbEntity
  8
0
 48
50.0
100
AcDbBlockBegin
  2
*D9
 70
     1
 10
0.0
 20
0.0
 30
0.0
  3
*D9
  1

  0
LINE
  5
18C18
330
18C16
100
AcDbEntity
  8
寸法
 62
     0
 48
50.0
370
    -2
100
AcDbLine
 10
7649.896575106973
 20
7901.123139034706
 30
0.0
 11
8337.322920841385
 21
7901.123139034706
 31
0.0
  0
LINE
  5
18C19
330
18C16
100
AcDbEntity
  8
寸法
 62
     0
 48
50.0
370
    -2
100
AcDbLine
 10
7649.896575106973
 20
7846.123139034709
 30
0.0
 11
8337.322920841385
 21
7846.123139034709
 31
0.0
  0
LINE
  5
18C1A
330
18C16
100
AcDbEntity
  8
寸法
 62
     0
 48
50.0
370
    -2
100
AcDbLine
 10
8277.322920841385
 20
7901.123139034706
 30
0.0
 11
8277.322920841385
 21
8001.123139034707
 31
0.0
  0
LINE
  5
18C1B
330
18C16
100
AcDbEntity
  8
寸法
 62
     0
 48
50.0
370
    -2
100
AcDbLine
 10
8277.322920841385
 20
7846.123139034709
 30
0.0
 11
8277.322920841385
 21
7429.152576286229
 31
0.0
  0
LINE
  5
18C1C
330
18C16
100
AcDbEntity
  8
寸法
 62
     0
 48
50.0
370
    -2
100
AcDbLine
 10
8277.322920841385
 20
7901.123139034706
 30
0.0
 11
8277.322920841385
 21
7846.123139034709
 31
0.0
  0
INSERT
  5
18C1D
330
18C16
100
AcDbEntity
  8
寸法
 62
     0
 48
50.0
370
    -2
100
AcDbBlockReference
  2
_DOTSMALL
 10
8277.322920841385
 20
7901.123139034706
 30
0.0
 41
100.0
 42
100.0
 43
100.0
 50
270.0
  0
INSERT
  5
18C1E
330
18C16
100
AcDbEntity
  8
寸法
 62
     0
 48
50.0
370
    -2
100
AcDbBlockReference
  2
_DOTSMALL
 10
8277.322920841385
 20
7846.123139034709
 30
0.0
 41
100.0
 42
100.0
 43
100.0
 50
90.0
  0
MTEXT
  5
18C1F
330
18C16
100
AcDbEntity
  8
寸法
 62
     7
 48
50.0
100
AcDbMText
 10
8177.322920841383
 20
7537.637857660469
 30
0.0
 40
120.0
 41
0.0
 71
     5
 72
     1
  1
\A1;55
  7
STYLE1
 11
0.0000000000000001
 21
1.0
 31
0.0
 73
     1
 44
1.0
1001
ACAD
1000
MTEXTBEGIN
1070
    73
1070
     1
1070
    44
1040
1.0
1070
    74
1070
     0
1000
MTEXTEND
  0
POINT
  5
18C20
330
18C16
100
AcDbEntity
  8
DEFPOINTS
 62
     0
 48
50.0
100
AcDbPoint
 10
7629.896575106974
 20
7901.123139034706
 30
0.0
  0
POINT
  5
18C21
330
18C16
100
AcDbEntity
  8
DEFPOINTS
 62
     0
 48
50.0
100
AcDbPoint
 10
7629.896575106974
 20
7846.123139034709
 30
0.0
  0
POINT
  5
18C22
330
18C16
100
AcDbEntity
  8
DEFPOINTS
 62
     0
 48
50.0
100
AcDbPoint
 10
8277.322920841385
 20
7846.123139034709
 30
0.0
  0
ENDBLK
  5
18C23
330
18C16
100
AcDbEntity
  8
0
 48
50.0
100
AcDbBlockEnd
  0
BLOCK
  5
18C25
330
18C24
100
AcDbEntity
  8
0
 48
50.0
100
AcDbBlockBegin
  2
*D10
 70
     1
 10
0.0
 20
0.0
 30
0.0
  3
*D10
  1

  0
LINE
  5
18C26
330
18C24
100
AcDbEntity
  8
寸法
 62
     0
 48
50.0
370
    -2
100
AcDbLine
 10
6533.037591258376
 20
9136.123139034728
 30
0.0
 11
6465.083950562664
 21
8882.516699399049
 31
0.0
  0
LINE
  5
18C27
330
18C24
100
AcDbEntity
  8
寸法
 62
     0
 48
50.0
370
    -2
100
AcDbLine
 10
7596.037591258388
 20
9136.123139034721
 30
0.0
 11
7528.083950562677
 21
8882.516699399049
 31
0.0
  0
LINE
  5
18C28
330
18C24
100
AcDbEntity
  8
寸法
 62
     0
 48
50.0
370
    -2
100
AcDbLine
 10
6481.160902108531
 20
8942.51669939905
 30
0.0
 11
7544.160902108544
 21
8942.51669939905
 31
0.0
  0
INSERT
  5
18C29
330
18C24
100
AcDbEntity
  8
寸法
 62
     0
 48
50.0
370
    -2
100
AcDbBlockReference
  2
_DOTSMALL
 10
6481.160902108531
 20
8942.51669939905
 30
0.0
 41
100.0
 42
100.0
 43
100.0
 50
180.0
  0
INSERT
  5
18C2A
330
18C24
100
AcDbEntity
  8
寸法
 62
     0
 48
50.0
370
    -2
100
AcDbBlockReference
  2
_DOTSMALL
 10
7544.160902108544
 20
8942.51669939905
 30
0.0
 41
100.0
 42
100.0
 43
100.0
  0
MTEXT
  5
18C2B
330
18C24
100
AcDbEntity
  8
寸法
 62
     7
 48
50.0
100
AcDbMText
 10
7061.28653022935
 20
9042.516699399049
 30
0.0
 40
120.0
 41
0.0
 71
     5
 72
     1
  1
\A1;1063
  7
STYLE1
 73
     1
 44
1.0
1001
ACAD
1000
MTEXTBEGIN
1070
    73
1070
     1
1070
    44
1040
1.0
1070
    74
1070
     0
1000
MTEXTEND
  0
POINT
  5
18C2C
330
18C24
100
AcDbEntity
  8
DEFPOINTS
 62
     0
 48
50.0
100
AcDbPoint
 10
6538.396575106998
 20
9156.123139034727
 30
0.0
  0
POINT
  5
18C2D
330
18C24
100
AcDbEntity
  8
DEFPOINTS
 62
     0
 48
50.0
100
AcDbPoint
 10
7601.39657510701
 20
9156.12313903472
 30
0.0
  0
POINT
  5
18C2E
330
18C24
100
AcDbEntity
  8
DEFPOINTS
 62
     0
 48
50.0
100
AcDbPoint
 10
7544.160902108544
 20
8942.51669939905
 30
0.0
  0
ENDBLK
  5
18C2F
330
18C24
100
AcDbEntity
  8
0
 48
50.0
100
AcDbBlockEnd
  0
BLOCK
  5
18C31
330
18C30
100
AcDbEntity
  8
0
 48
50.0
100
AcDbBlockBegin
  2
*D11
 70
     1
 10
0.0
 20
0.0
 30
0.0
  3
*D11
  1

  0
LINE
  5
18C32
330
18C30
100
AcDbEntity
  8
寸法
 62
     0
 48
50.0
370
    -2
100
AcDbLine
 10
7621.396575106999
 20
9600.764155186094
 30
0.0
 11
8016.754300969024
 21
9494.828371819961
 31
0.0
  0
LINE
  5
18C33
330
18C30
100
AcDbEntity
  8
寸法
 62
     0
 48
50.0
370
    -2
100
AcDbLine
 10
7621.396575106999
 20
9150.764155186099
 30
0.0
 11
8016.754300969024
 21
9044.828371819964
 31
0.0
  0
LINE
  5
18C34
330
18C30
100
AcDbEntity
  8
寸法
 62
     0
 48
50.0
370
    -2
100
AcDbLine
 10
7956.754300969024
 20
9510.905323365827
 30
0.0
 11
7956.754300969024
 21
9060.90532336583
 31
0.0
  0
INSERT
  5
18C35
330
18C30
100
AcDbEntity
  8
寸法
 62
     0
 48
50.0
370
    -2
100
AcDbBlockReference
  2
_DOTSMALL
 10
7956.754300969024
 20
9510.905323365827
 30
0.0
 41
100.0
 42
100.0
 43
100.0
 50
90.0
  0
INSERT
  5
18C36
330
18C30
100
AcDbEntity
  8
寸法
 62
     0
 48
50.0
370
    -2
100
AcDbBlockReference
  2
_DOTSMALL
 10
7956.754300969024
 20
9060.90532336583
 30
0.0
 41
100.0
 42
100.0
 43
100.0
 50
270.0
  0
MTEXT
  5
18C37
330
18C30
100
AcDbEntity
  8
寸法
 62
     7
 48
50.0
100
AcDbMText
 10
7856.754300969022
 20
9285.905323365829
 30
0.0
 40
120.0
 41
0.0
 71
     5
 72
     1
  1
\A1;450
  7
STYLE1
 11
0.0000000000000001
 21
1.0
 31
0.0
 73
     1
 44
1.0
1001
ACAD
1000
MTEXTBEGIN
1070
    73
1070
     1
1070
    44
1040
1.0
1070
    74
1070
     0
1000
MTEXTEND
  0
POINT
  5
18C38
330
18C30
100
AcDbEntity
  8
DEFPOINTS
 62
     0
 48
50.0
100
AcDbPoint
 10
7601.396575106999
 20
9606.123139034718
 30
0.0
  0
POINT
  5
18C39
330
18C30
100
AcDbEntity
  8
DEFPOINTS
 62
     0
 48
50.0
100
AcDbPoint
 10
7601.396575106999
 20
9156.12313903472
 30
0.0
  0
POINT
  5
18C3A
330
18C30
100
AcDbEntity
  8
DEFPOINTS
 62
     0
 48
50.0
100
AcDbPoint
 10
7956.754300969024
 20
9060.90532336583
 30
0.0
  0
ENDBLK
  5
18C3B
330
18C30
100
AcDbEntity
  8
0
 48
50.0
100
AcDbBlockEnd
  0
BLOCK
  5
18C3D
330
18C3C
100
AcDbEntity
  8
0
 48
50.0
100
AcDbBlockBegin
  2
*D12
 70
     1
 10
0.0
 20
0.0
 30
0.0
  3
*D12
  1

  0
LINE
  5
18C3E
330
18C3C
100
AcDbEntity
  8
寸法
 62
     0
 48
50.0
370
    -2
100
AcDbLine
 10
7649.896575106999
 20
9581.123139034721
 30
0.0
 11
8337.32292084141
 21
9581.123139034721
 31
0.0
  0
LINE
  5
18C3F
330
18C3C
100
AcDbEntity
  8
寸法
 62
     0
 48
50.0
370
    -2
100
AcDbLine
 10
7649.896575106973
 20
7901.123139034706
 30
0.0
 11
8337.32292084141
 21
7901.123139034706
 31
0.0
  0
LINE
  5
18C40
330
18C3C
100
AcDbEntity
  8
寸法
 62
     0
 48
50.0
370
    -2
100
AcDbLine
 10
8277.322920841411
 20
9581.123139034721
 30
0.0
 11
8277.322920841411
 21
7901.123139034706
 31
0.0
  0
INSERT
  5
18C41
330
18C3C
100
AcDbEntity
  8
寸法
 62
     0
 48
50.0
370
    -2
100
AcDbBlockReference
  2
_DOTSMALL
 10
8277.322920841411
 20
9581.123139034721
 30
0.0
 41
100.0
 42
100.0
 43
100.0
 50
90.0
  0
INSERT
  5
18C42
330
18C3C
100
AcDbEntity
  8
寸法
 62
     0
 48
50.0
370
    -2
100
AcDbBlockReference
  2
_DOTSMALL
 10
8277.322920841411
 20
7901.123139034706
 30
0.0
 41
100.0
 42
100.0
 43
100.0
 50
270.0
  0
MTEXT
  5
18C43
330
18C3C
100
AcDbEntity
  8
寸法
 62
     7
 48
50.0
100
AcDbMText
 10
8177.311109817788
 20
8741.123139034712
 30
0.0
 40
120.0
 41
0.0
 71
     5
 72
     1
  1
\A1;4X420=1680
  7
STYLE1
 11
0.0000000000000001
 21
1.0
 31
0.0
 73
     1
 44
1.0
1001
ACAD
1000
MTEXTBEGIN
1070
    73
1070
     1
1070
    44
1040
1.0
1070
    74
1070
     0
1000
MTEXTEND
  0
POINT
  5
18C44
330
18C3C
100
AcDbEntity
  8
DEFPOINTS
 62
     0
 48
50.0
100
AcDbPoint
 10
7629.896575106998
 20
9581.123139034721
 30
0.0
  0
POINT
  5
18C45
330
18C3C
100
AcDbEntity
  8
DEFPOINTS
 62
     0
 48
50.0
100
AcDbPoint
 10
7629.896575106974
 20
7901.123139034706
 30
0.0
  0
POINT
  5
18C46
330
18C3C
100
AcDbEntity
  8
DEFPOINTS
 62
     0
 48
50.0
100
AcDbPoint
 10
8277.322920841411
 20
7901.123139034706
 30
0.0
  0
ENDBLK
  5
18C47
330
18C3C
100
AcDbEntity
  8
0
 48
50.0
100
AcDbBlockEnd
  0
BLOCK
  5
18C49
330
18C48
100
AcDbEntity
  8
0
 48
50.0
100
AcDbBlockBegin
  2
*D13
 70
     1
 10
0.0
 20
0.0
 30
0.0
  3
*D13
  1

  0
LINE
  5
18C4A
330
18C48
100
AcDbEntity
  8
寸法
 62
     0
 48
50.0
370
    -2
100
AcDbLine
 10
4183.037591258377
 20
9136.123139034619
 30
0.0
 11
4115.083950562663
 21
8882.516699398941
 31
0.0
  0
LINE
  5
18C4B
330
18C48
100
AcDbEntity
  8
寸法
 62
     0
 48
50.0
370
    -2
100
AcDbLine
 10
5246.037591258307
 20
9136.123139034671
 30
0.0
 11
5178.08395056258
 21
8882.516699398941
 31
0.0
  0
LINE
  5
18C4C
330
18C48
100
AcDbEntity
  8
寸法
 62
     0
 48
50.0
370
    -2
100
AcDbLine
 10
4131.160902108532
 20
8942.516699398941
 30
0.0
 11
5194.160902108448
 21
8942.516699398941
 31
0.0
  0
INSERT
  5
18C4D
330
18C48
100
AcDbEntity
  8
寸法
 62
     0
 48
50.0
370
    -2
100
AcDbBlockReference
  2
_DOTSMALL
 10
4131.160902108532
 20
8942.516699398941
 30
0.0
 41
100.0
 42
100.0
 43
100.0
 50
180.0
  0
INSERT
  5
18C4E
330
18C48
100
AcDbEntity
  8
寸法
 62
     0
 48
50.0
370
    -2
100
AcDbBlockReference
  2
_DOTSMALL
 10
5194.160902108448
 20
8942.516699398941
 30
0.0
 41
100.0
 42
100.0
 43
100.0
  0
MTEXT
  5
18C4F
330
18C48
100
AcDbEntity
  8
寸法
 62
     7
 48
50.0
100
AcDbMText
 10
4658.986452655306
 20
9042.516699398941
 30
0.0
 40
120.0
 41
0.0
 71
     5
 72
     1
  1
\A1;1063
  7
STYLE1
 73
     1
 44
1.0
1001
ACAD
1000
MTEXTBEGIN
1070
    73
1070
     1
1070
    44
1040
1.0
1070
    74
1070
     0
1000
MTEXTEND
  0
POINT
  5
18C50
330
18C48
100
AcDbEntity
  8
DEFPOINTS
 62
     0
 48
50.0
100
AcDbPoint
 10
4188.396575106999
 20
9156.123139034617
 30
0.0
  0
POINT
  5
18C51
330
18C48
100
AcDbEntity
  8
DEFPOINTS
 62
     0
 48
50.0
100
AcDbPoint
 10
5251.396575106929
 20
9156.123139034672
 30
0.0
  0
POINT
  5
18C52
330
18C48
100
AcDbEntity
  8
DEFPOINTS
 62
     0
 48
50.0
100
AcDbPoint
 10
5194.160902108448
 20
8942.516699398941
 30
0.0
  0
ENDBLK
  5
18C53
330
18C48
100
AcDbEntity
  8
0
 48
50.0
100
AcDbBlockEnd
  0
BLOCK
  5
18C55
330
18C54
100
AcDbEntity
  8
0
 48
50.0
100
AcDbBlockBegin
  2
*D14
 70
     1
 10
0.0
 20
0.0
 30
0.0
  3
*D14
  1

  0
LINE
  5
18C56
330
18C54
100
AcDbEntity
  8
寸法
 62
     0
 48
50.0
370
    -2
100
AcDbLine
 10
5274.037591258307
 20
9136.123139034669
 30
0.0
 11
5206.08395056258
 21
8882.516699398941
 31
0.0
  0
LINE
  5
18C57
330
18C54
100
AcDbEntity
  8
寸法
 62
     0
 48
50.0
370
    -2
100
AcDbLine
 10
6505.037591258377
 20
9136.123139034662
 30
0.0
 11
6437.083950562653
 21
8882.516699398941
 31
0.0
  0
LINE
  5
18C58
330
18C54
100
AcDbEntity
  8
寸法
 62
     0
 48
50.0
370
    -2
100
AcDbLine
 10
5222.160902108448
 20
8942.516699398941
 30
0.0
 11
6453.16090210852
 21
8942.516699398941
 31
0.0
  0
INSERT
  5
18C59
330
18C54
100
AcDbEntity
  8
寸法
 62
     0
 48
50.0
370
    -2
100
AcDbBlockReference
  2
_DOTSMALL
 10
5222.160902108448
 20
8942.516699398941
 30
0.0
 41
100.0
 42
100.0
 43
100.0
 50
180.0
  0
INSERT
  5
18C5A
330
18C54
100
AcDbEntity
  8
寸法
 62
     0
 48
50.0
370
    -2
100
AcDbBlockReference
  2
_DOTSMALL
 10
6453.16090210852
 20
8942.516699398941
 30
0.0
 41
100.0
 42
100.0
 43
100.0
  0
MTEXT
  5
18C5B
330
18C54
100
AcDbEntity
  8
寸法
 62
     7
 48
50.0
100
AcDbMText
 10
6081.244808320626
 20
9042.528510422561
 30
0.0
 40
120.0
 41
0.0
 71
     5
 72
     1
  1
\A1;1231
  7
STYLE1
 73
     1
 44
1.0
1001
ACAD
1000
MTEXTBEGIN
1070
    73
1070
     1
1070
    44
1040
1.0
1070
    74
1070
     0
1000
MTEXTEND
  0
POINT
  5
18C5C
330
18C54
100
AcDbEntity
  8
DEFPOINTS
 62
     0
 48
50.0
100
AcDbPoint
 10
5279.396575106929
 20
9156.123139034669
 30
0.0
  0
POINT
  5
18C5D
330
18C54
100
AcDbEntity
  8
DEFPOINTS
 62
     0
 48
50.0
100
AcDbPoint
 10
6510.396575106999
 20
9156.123139034662
 30
0.0
  0
POINT
  5
18C5E
330
18C54
100
AcDbEntity
  8
DEFPOINTS
 62
     0
 48
50.0
100
AcDbPoint
 10
6453.16090210852
 20
8942.516699398941
 30
0.0
  0
ENDBLK
  5
18C5F
330
18C54
100
AcDbEntity
  8
0
 48
50.0
100
AcDbBlockEnd
  0
BLOCK
  5
18C61
330
18C60
100
AcDbEntity
  8
0
 48
50.0
100
AcDbBlockBegin
  2
*D15
 70
     1
 10
0.0
 20
0.0
 30
0.0
  3
*D15
  1

  0
LINE
  5
18C62
330
18C60
100
AcDbEntity
  8
寸法
 62
     0
 48
50.0
370
    -2
100
AcDbLine
 10
5065.896575106966
 20
7749.123139034579
 30
0.0
 11
5065.896575106966
 21
7099.952920982538
 31
0.0
  0
LINE
  5
18C63
330
18C60
100
AcDbEntity
  8
寸法
 62
     0
 48
50.0
370
    -2
100
AcDbLine
 10
6331.896575106966
 20
7749.123139034579
 30
0.0
 11
6331.896575106966
 21
7099.952920982538
 31
0.0
  0
LINE
  5
18C64
330
18C60
100
AcDbEntity
  8
寸法
 62
     0
 48
50.0
370
    -2
100
AcDbLine
 10
5065.896575106966
 20
7159.952920982537
 30
0.0
 11
6331.896575106966
 21
7159.952920982537
 31
0.0
  0
INSERT
  5
18C65
330
18C60
100
AcDbEntity
  8
寸法
 62
     0
 48
50.0
370
    -2
100
AcDbBlockReference
  2
_DOTSMALL
 10
5065.896575106966
 20
7159.952920982537
 30
0.0
 41
100.0
 42
100.0
 43
100.0
 50
180.0
  0
INSERT
  5
18C66
330
18C60
100
AcDbEntity
  8
寸法
 62
     0
 48
50.0
370
    -2
100
AcDbBlockReference
  2
_DOTSMALL
 10
6331.896575106966
 20
7159.952920982537
 30
0.0
 41
100.0
 42
100.0
 43
100.0
  0
MTEXT
  5
18C67
330
18C60
100
AcDbEntity
  8
寸法
 62
     7
 48
50.0
100
AcDbMText
 10
5711.986008735934
 20
7359.964732006159
 30
0.0
 40
120.0
 41
0.0
 71
     5
 72
     1
  1
\A1;有効開口部間口\P1266
  7
STYLE1
 73
     1
 44
1.0
1001
ACAD
1000
MTEXTBEGIN
1070
    73
1070
     1
1070
    44
1040
1.0
1070
    74
1070
     0
1000
MTEXTEND
  0
POINT
  5
18C68
330
18C60
100
AcDbEntity
  8
DEFPOINTS
 62
     0
 48
50.0
100
AcDbPoint
 10
5065.896575106966
 20
7769.123139034579
 30
0.0
  0
POINT
  5
18C69
330
18C60
100
AcDbEntity
  8
DEFPOINTS
 62
     0
 48
50.0
100
AcDbPoint
 10
6331.896575106966
 20
7769.123139034579
 30
0.0
  0
POINT
  5
18C6A
330
18C60
100
AcDbEntity
  8
DEFPOINTS
 62
     0
 48
50.0
100
AcDbPoint
 10
6331.896575106966
 20
7159.952920982537
 30
0.0
  0
ENDBLK
  5
18C6B
330
18C60
100
AcDbEntity
  8
0
 48
50.0
100
AcDbBlockEnd
  0
BLOCK
  5
18C6D
330
18C6C
100
AcDbEntity
  8
0
 48
50.0
100
AcDbBlockBegin
  2
*D16
 70
     1
 10
0.0
 20
0.0
 30
0.0
  3
*D16
  1

  0
LINE
  5
18C6E
330
18C6C
100
AcDbEntity
  8
寸法
 62
     0
 48
50.0
370
    -2
100
AcDbLine
 10
7200.896575106966
 20
7846.123139034578
 30
0.0
 11
7457.192158500191
 21
7846.123139034578
 31
0.0
  0
LINE
  5
18C6F
330
18C6C
100
AcDbEntity
  8
寸法
 62
     0
 48
50.0
370
    -2
100
AcDbLine
 10
7199.896575106966
 20
7769.123139034579
 30
0.0
 11
7457.192158500191
 21
7769.123139034579
 31
0.0
  0
LINE
  5
18C70
330
18C6C
100
AcDbEntity
  8
寸法
 62
     0
 48
50.0
370
    -2
100
AcDbLine
 10
7417.192158500192
 20
7866.123139034579
 30
0.0
 11
7417.192158500192
 21
7886.123139034578
 31
0.0
  0
LINE
  5
18C71
330
18C6C
100
AcDbEntity
  8
寸法
 62
     0
 48
50.0
370
    -2
100
AcDbLine
 10
7417.192158500192
 20
7749.123139034579
 30
0.0
 11
7417.192158500192
 21
7533.123139034573
 31
0.0
  0
LINE
  5
18C72
330
18C6C
100
AcDbEntity
  8
寸法
 62
     0
 48
50.0
370
    -2
100
AcDbLine
 10
7417.192158500192
 20
7846.123139034578
 30
0.0
 11
7417.192158500192
 21
7769.123139034579
 31
0.0
  0
INSERT
  5
18C73
330
18C6C
100
AcDbEntity
  8
寸法
 62
     0
 48
50.0
370
    -2
100
AcDbBlockReference
  2
_DOT
 10
7417.192158500192
 20
7846.123139034578
 30
0.0
 41
20.0
 42
20.0
 43
20.0
 50
270.0
  0
INSERT
  5
18C74
330
18C6C
100
AcDbEntity
  8
寸法
 62
     0
 48
50.0
370
    -2
100
AcDbBlockReference
  2
_DOT
 10
7417.192158500192
 20
7769.123139034579
 30
0.0
 41
20.0
 42
20.0
 43
20.0
 50
90.0
  0
MTEXT
  5
18C75
330
18C6C
100
AcDbEntity
  8
寸法
 62
     7
 48
50.0
100
AcDbMText
 10
7325.192158500191
 20
7631.123139034575
 30
0.0
 40
120.0
 41
0.0
 71
     5
 72
     1
  1
\A1;77
  7
STYLE1
 11
0.0000000000000001
 21
1.0
 31
0.0
 73
     1
 44
1.0
1001
ACAD
1000
MTEXTBEGIN
1070
    73
1070
     1
1070
    44
1040
1.0
1070
    74
1070
     0
1000
MTEXTEND
  0
POINT
  5
18C76
330
18C6C
100
AcDbEntity
  8
DEFPOINTS
 62
     0
 48
50.0
100
AcDbPoint
 10
7180.896575106967
 20
7846.123139034578
 30
0.0
  0
POINT
  5
18C77
330
18C6C
100
AcDbEntity
  8
DEFPOINTS
 62
     0
 48
50.0
100
AcDbPoint
 10
7179.896575106965
 20
7769.123139034579
 30
0.0
  0
POINT
  5
18C78
330
18C6C
100
AcDbEntity
  8
DEFPOINTS
 62
     0
 48
50.0
100
AcDbPoint
 10
7417.192158500192
 20
7769.123139034579
 30
0.0
  0
ENDBLK
  5
18C79
330
18C6C
100
AcDbEntity
  8
0
 48
50.0
100
AcDbBlockEnd
  0
BLOCK
  5
18DA0
330
18C7A
100
AcDbEntity
  8
0
 48
50.0
100
AcDbBlockBegin
  2
A$C3B1A506B
 70
     0
 10
0.0
 20
0.0
 30
0.0
  3
A$C3B1A506B
  1

  0
MTEXT
  5
18C7B
330
18C7A
100
AcDbEntity
  8
寸法
 62
     7
 48
50.0
100
AcDbMText
 10
3342.250386887194
 20
2778.329429134012
 30
0.0
 40
96.0
 41
0.0
 71
     5
 72
     1
  1
棚 2段
  7
STYLE1
 73
     1
 44
1.0
1001
ACAD
1000
MTEXTBEGIN
1070
    73
1070
     1
1070
    44
1040
1.0
1070
    74
1070
     0
1000
MTEXTEND
  0
MTEXT
  5
18C7C
330
18C7A
100
AcDbEntity
  8
寸法
 62
     7
 48
50.0
100
AcDbMText
 10
2167.25038688716
 20
2778.329429133986
 30
0.0
 40
96.0
 41
0.0
 71
     5
 72
     1
  1
棚 2段
  7
STYLE1
 73
     1
 44
1.0
1001
ACAD
1000
MTEXTBEGIN
1070
    73
1070
     1
1070
    44
1040
1.0
1070
    74
1070
     0
1000
MTEXTEND
  0
MTEXT
  5
18C7D
330
18C7A
100
AcDbEntity
  8
寸法
 62
     7
 48
50.0
100
AcDbMText
 10
992.2503868871608
 20
2778.329429133935
 30
0.0
 40
96.0
 41
0.0
 71
     5
 72
     1
  1
棚 2段
  7
STYLE1
 73
     1
 44
1.0
1001
ACAD
1000
MTEXTBEGIN
1070
    73
1070
     1
1070
    44
1040
1.0
1070
    74
1070
     0
1000
MTEXTEND
  0
LINE
  5
18C7E
330
18C7A
100
AcDbEntity
  8
細線
 48
50.0
100
AcDbLine
 10
2771.970589276527
 20
1368.994384123192
 30
0.0
 11
3398.970589276523
 21
1368.994384123192
 31
0.0
  0
LINE
  5
18C7F
330
18C7A
100
AcDbEntity
  8
細線
 48
50.0
100
AcDbLine
 10
2117.970593930113
 20
1335.285615569113
 30
0.0
 11
3398.970589276523
 21
1335.285615569113
 31
0.0
  0
LINE
  5
18C80
330
18C7A
100
AcDbEntity
  8
細線
 48
50.0
100
AcDbLine
 10
2076.970593930115
 20
1364.690523565368
 30
0.0
 11
1322.970589276523
 21
1364.690523565367
 31
0.0
  0
LINE
  5
18C81
330
18C7A
100
AcDbEntity
  8
細線
100
AcDbLine
 10
3170.720579860066
 20
1388.494284088199
 30
0.0
 11
3173.052119381877
 21
1393.494286728162
 31
0.0
  0
LINE
  5
18C82
330
18C7A
100
AcDbEntity
  8
細線
100
AcDbLine
 10
3240.720589276525
 20
1388.494269174465
 30
0.0
 11
3238.389042800336
 21
1393.494286728144
 31
0.0
  0
LINE
  5
18C83
330
18C7A
100
AcDbEntity
  8
細線
100
AcDbLine
 10
3238.389042800336
 20
1393.494286728144
 30
0.0
 11
3173.052119381862
 21
1393.494286728133
 31
0.0
  0
LINE
  5
18C84
330
18C7A
100
AcDbEntity
  8
細線
100
AcDbLine
 10
3098.389042800336
 20
1393.494286728144
 30
0.0
 11
3033.052119381862
 21
1393.494286728133
 31
0.0
  0
LINE
  5
18C85
330
18C7A
100
AcDbEntity
  8
細線
100
AcDbLine
 10
3100.720589276523
 20
1388.494269174465
 30
0.0
 11
3098.389042800336
 21
1393.494286728144
 31
0.0
  0
LINE
  5
18C86
330
18C7A
100
AcDbEntity
  8
細線
100
AcDbLine
 10
3030.720579860066
 20
1388.494284088199
 30
0.0
 11
3033.052119381875
 21
1393.494286728162
 31
0.0
  0
LINE
  5
18C87
330
18C7A
100
AcDbEntity
  8
細線
100
AcDbLine
 10
2890.720589276525
 20
1388.494269174465
 30
0.0
 11
2893.052128798336
 21
1393.494271814428
 31
0.0
  0
LINE
  5
18C88
330
18C7A
100
AcDbEntity
  8
細線
100
AcDbLine
 10
2960.720598692984
 20
1388.494254260731
 30
0.0
 11
2958.389052216793
 21
1393.49427181441
 31
0.0
  0
LINE
  5
18C89
330
18C7A
100
AcDbEntity
  8
細線
100
AcDbLine
 10
2958.389052216795
 20
1393.49427181441
 30
0.0
 11
2893.052128798321
 21
1393.494271814399
 31
0.0
  0
LINE
  5
18C8A
330
18C7A
100
AcDbEntity
  8
細線
100
AcDbLine
 10
2667.139038146739
 20
1359.494298590735
 30
0.0
 11
2601.802114728263
 21
1359.494298590724
 31
0.0
  0
LINE
  5
18C8B
330
18C7A
100
AcDbEntity
  8
細線
100
AcDbLine
 10
2669.470584622926
 20
1354.494281037055
 30
0.0
 11
2667.139038146737
 21
1359.494298590735
 31
0.0
  0
LINE
  5
18C8C
330
18C7A
100
AcDbEntity
  8
細線
100
AcDbLine
 10
2599.470575206469
 20
1354.49429595079
 30
0.0
 11
2601.802114728278
 21
1359.494298590752
 31
0.0
  0
LINE
  5
18C8D
330
18C7A
100
AcDbEntity
  8
細線
 48
50.0
100
AcDbLine
 10
2440.853968524536
 20
1372.765132327548
 30
0.0
 11
2446.609486107205
 21
1354.494281037057
 31
0.0
  0
LINE
  5
18C8E
330
18C7A
100
AcDbEntity
  8
細線
 48
50.0
100
AcDbLine
 10
2429.925520044106
 20
1372.765132327546
 30
0.0
 11
2440.853968524536
 21
1372.765132327548
 31
0.0
  0
ARC
  5
18C8F
330
18C7A
100
AcDbEntity
  8
細線
 48
50.0
100
AcDbCircle
 10
2424.471163986787
 20
1374.265132327546
 30
0.0
 40
5.0
100
AcDbArc
 50
204.6243183520723
 51
335.3756816479278
  0
ARC
  5
18C90
330
18C7A
100
AcDbEntity
  8
細線
 48
50.0
100
AcDbCircle
 10
2429.925520044106
 20
1371.765132327546
 30
0.0
 40
1.0
100
AcDbArc
 50
90.0
 51
155.3756816479277
  0
ARC
  5
18C91
330
18C7A
100
AcDbEntity
  8
細線
 48
50.0
100
AcDbCircle
 10
2419.016807929469
 20
1371.765132327546
 30
0.0
 40
1.0
100
AcDbArc
 50
24.62431835207225
 51
90.0
  0
LINE
  5
18C92
330
18C7A
100
AcDbEntity
  8
細線
 48
50.0
100
AcDbLine
 10
2408.088359449037
 20
1372.765132327548
 30
0.0
 11
2419.016807929469
 21
1372.765132327546
 31
0.0
  0
LINE
  5
18C93
330
18C7A
100
AcDbEntity
  8
細線
 48
50.0
100
AcDbLine
 10
2402.33284186637
 20
1354.494281037054
 30
0.0
 11
2408.088359449037
 21
1372.765132327548
 31
0.0
  0
LINE
  5
18C94
330
18C7A
100
AcDbEntity
  8
細線
100
AcDbLine
 10
2458.070304175992
 20
1354.494278397076
 30
0.0
 11
2460.401843697802
 21
1359.494281037039
 31
0.0
  0
LINE
  5
18C95
330
18C7A
100
AcDbEntity
  8
細線
100
AcDbLine
 10
2528.070313592451
 20
1354.494263483342
 30
0.0
 11
2525.738767116262
 21
1359.494281037021
 31
0.0
  0
LINE
  5
18C96
330
18C7A
100
AcDbEntity
  8
細線
100
AcDbLine
 10
2525.738767116262
 20
1359.494281037021
 30
0.0
 11
2460.40184369779
 21
1359.49428103701
 31
0.0
  0
LINE
  5
18C97
330
18C7A
100
AcDbEntity
  8
細線
100
AcDbLine
 10
2387.139046332155
 20
1359.494281037021
 30
0.0
 11
2321.80212291368
 21
1359.49428103701
 31
0.0
  0
LINE
  5
18C98
330
18C7A
100
AcDbEntity
  8
細線
100
AcDbLine
 10
2389.470592808342
 20
1354.494263483342
 30
0.0
 11
2387.139046332153
 21
1359.494281037021
 31
0.0
  0
LINE
  5
18C99
330
18C7A
100
AcDbEntity
  8
細線
100
AcDbLine
 10
2319.470584622926
 20
1354.494281037054
 30
0.0
 11
2321.802122913694
 21
1359.494281037039
 31
0.0
  0
LINE
  5
18C9A
330
18C7A
100
AcDbEntity
  8
細線
100
AcDbLine
 10
2179.47061994182
 20
1354.494289224422
 30
0.0
 11
2181.802158232587
 21
1359.494289224407
 31
0.0
  0
LINE
  5
18C9B
330
18C7A
100
AcDbEntity
  8
細線
100
AcDbLine
 10
2249.470628127236
 20
1354.49427167071
 30
0.0
 11
2247.139081651047
 21
1359.494289224389
 31
0.0
  0
LINE
  5
18C9C
330
18C7A
100
AcDbEntity
  8
細線
100
AcDbLine
 10
2247.139081651047
 20
1359.494289224389
 30
0.0
 11
2181.802158232573
 21
1359.494289224378
 31
0.0
  0
LINE
  5
18C9D
330
18C7A
100
AcDbEntity
  8
細線
100
AcDbLine
 10
1807.970585744697
 20
1320.494460905133
 30
0.0
 11
1810.302124035464
 21
1325.494460905118
 31
0.0
  0
LINE
  5
18C9E
330
18C7A
100
AcDbEntity
  8
細線
100
AcDbLine
 10
1877.970593930113
 20
1320.494443351421
 30
0.0
 11
1875.639047453926
 21
1325.4944609051
 31
0.0
  0
LINE
  5
18C9F
330
18C7A
100
AcDbEntity
  8
細線
100
AcDbLine
 10
1875.639047453926
 20
1325.4944609051
 30
0.0
 11
1810.302124035452
 21
1325.494460905089
 31
0.0
  0
LINE
  5
18CA0
330
18C7A
100
AcDbEntity
  8
細線
100
AcDbLine
 10
2015.639047453926
 20
1325.4944609051
 30
0.0
 11
1950.302124035452
 21
1325.494460905089
 31
0.0
  0
LINE
  5
18CA1
330
18C7A
100
AcDbEntity
  8
細線
100
AcDbLine
 10
2017.970593930113
 20
1320.494443351421
 30
0.0
 11
2015.639047453924
 21
1325.4944609051
 31
0.0
  0
LINE
  5
18CA2
330
18C7A
100
AcDbEntity
  8
細線
100
AcDbLine
 10
1947.970585744697
 20
1320.494460905133
 30
0.0
 11
1950.302124035465
 21
1325.494460905118
 31
0.0
  0
LINE
  5
18CA3
330
18C7A
100
AcDbEntity
  8
細線
100
AcDbLine
 10
1735.639047453926
 20
1325.494460905098
 30
0.0
 11
1670.302124035454
 21
1325.494460905087
 31
0.0
  0
LINE
  5
18CA4
330
18C7A
100
AcDbEntity
  8
細線
100
AcDbLine
 10
1737.970593930113
 20
1320.494443351419
 30
0.0
 11
1735.639047453926
 21
1325.494460905098
 31
0.0
  0
LINE
  5
18CA5
330
18C7A
100
AcDbEntity
  8
細線
100
AcDbLine
 10
1667.970585744697
 20
1320.494460905131
 30
0.0
 11
1670.302124035465
 21
1325.494460905116
 31
0.0
  0
LINE
  5
18CA6
330
18C7A
100
AcDbEntity
  8
細線
100
AcDbLine
 10
1527.970593930113
 20
1320.494460905133
 30
0.0
 11
1530.302132220881
 21
1325.494460905118
 31
0.0
  0
LINE
  5
18CA7
330
18C7A
100
AcDbEntity
  8
細線
100
AcDbLine
 10
1597.970602115529
 20
1320.494443351421
 30
0.0
 11
1595.639055639342
 21
1325.4944609051
 31
0.0
  0
LINE
  5
18CA8
330
18C7A
100
AcDbEntity
  8
細線
100
AcDbLine
 10
1595.639055639342
 20
1325.4944609051
 30
0.0
 11
1530.302132220869
 21
1325.494460905089
 31
0.0
  0
ARC
  5
18CA9
330
18C7A
100
AcDbEntity
  8
部品1
 48
0.01
100
AcDbCircle
 10
1483.470482677778
 20
1319.493338720063
 30
0.0
 40
0.5
100
AcDbArc
 50
270.0
 51
0.0
  0
LINE
  5
18CAA
330
18C7A
100
AcDbEntity
  8
部品1
 48
0.01
100
AcDbLine
 10
1483.970482677778
 20
1320.493338720063
 30
0.0
 11
1483.970482677778
 21
1319.493338720063
 31
0.0
  0
LINE
  5
18CAB
330
18C7A
100
AcDbEntity
  8
部品1
 48
0.01
100
AcDbLine
 10
1483.970482677778
 20
1320.493338720063
 30
0.0
 11
1483.970482677778
 21
1319.493338720063
 31
0.0
  0
LINE
  5
18CAC
330
18C7A
100
AcDbEntity
  8
部品1
 48
0.01
100
AcDbLine
 10
1483.470482677778
 20
1318.993338720063
 30
0.0
 11
1476.857977247713
 21
1318.993338720062
 31
0.0
  0
ARC
  5
18CAD
330
18C7A
100
AcDbEntity
  8
部品1
100
AcDbCircle
 10
1476.926326800494
 20
1319.993338720062
 30
0.0
 40
1.0
100
AcDbArc
 50
160.5287793655865
 51
270.0
  0
ARC
  5
18CAE
330
18C7A
100
AcDbEntity
  8
部品1
100
AcDbCircle
 10
1451.470482677778
 20
1328.993338720062
 30
0.0
 40
26.0
100
AcDbArc
 50
340.5287793655865
 51
0.0
  0
LINE
  5
18CAF
330
18C7A
100
AcDbEntity
  8
部品1
100
AcDbLine
 10
1477.470482677778
 20
1328.993338720062
 30
0.0
 11
1477.470482677778
 21
1333.993338720061
 31
0.0
  0
ARC
  5
18CB0
330
18C7A
100
AcDbEntity
  8
部品1
 48
0.01
100
AcDbCircle
 10
1475.470482677778
 20
1333.993338720061
 30
0.0
 40
2.0
100
AcDbArc
 50
0.0
 51
90.0
  0
ARC
  5
18CB1
330
18C7A
100
AcDbEntity
  8
部品1
100
AcDbCircle
 10
1473.862091052968
 20
1332.993338720062
 30
0.0
 40
3.0
100
AcDbArc
 50
90.0
 51
141.6069559808035
  0
LINE
  5
18CB2
330
18C7A
100
AcDbEntity
  8
部品1
 48
0.01
100
AcDbLine
 10
1475.470482677778
 20
1335.993338720062
 30
0.0
 11
1473.862091052968
 21
1335.993338720062
 31
0.0
  0
ARC
  5
18CB3
330
18C7A
100
AcDbEntity
  8
部品1
100
AcDbCircle
 10
1455.399768463507
 20
1332.293338720065
 30
0.0
 40
3.0
100
AcDbArc
 50
254.0576313943215
 51
270.0
  0
ARC
  5
18CB4
330
18C7A
100
AcDbEntity
  8
部品1
100
AcDbCircle
 10
1462.541196892049
 20
1332.293338720065
 30
0.0
 40
3.0
100
AcDbArc
 50
270.0
 51
285.9423686056786
  0
LINE
  5
18CB5
330
18C7A
100
AcDbEntity
  8
部品1
100
AcDbLine
 10
1462.541196892049
 20
1329.293338720064
 30
0.0
 11
1455.399768463507
 21
1329.293338720064
 31
0.0
  0
ARC
  5
18CB6
330
18C7A
100
AcDbEntity
  8
部品1
100
AcDbCircle
 10
1458.970482677778
 20
1344.793338720065
 30
0.0
 40
16.0
100
AcDbArc
 50
285.9423686056786
 51
321.6069559808035
  0
LINE
  5
18CB7
330
18C7A
100
AcDbEntity
  8
部品1
 48
0.01
100
AcDbLine
 10
1442.470482677778
 20
1335.993338720062
 30
0.0
 11
1444.078874302588
 21
1335.993338720062
 31
0.0
  0
ARC
  5
18CB8
330
18C7A
100
AcDbEntity
  8
部品1
100
AcDbCircle
 10
1444.078874302588
 20
1332.993338720062
 30
0.0
 40
3.0
100
AcDbArc
 50
38.39304401919648
 51
90.0
  0
ARC
  5
18CB9
330
18C7A
100
AcDbEntity
  8
部品1
100
AcDbCircle
 10
1458.970482677778
 20
1344.793338720065
 30
0.0
 40
16.0
100
AcDbArc
 50
218.3930440191965
 51
254.0576313943215
  0
LINE
  5
18CBA
330
18C7A
100
AcDbEntity
  8
部品1
100
AcDbLine
 10
1440.470482677778
 20
1328.993338720062
 30
0.0
 11
1440.470482677778
 21
1333.993338720061
 31
0.0
  0
ARC
  5
18CBB
330
18C7A
100
AcDbEntity
  8
部品1
 48
0.01
100
AcDbCircle
 10
1442.470482677778
 20
1333.993338720061
 30
0.0
 40
2.0
100
AcDbArc
 50
90.0
 51
180.0
  0
ARC
  5
18CBC
330
18C7A
100
AcDbEntity
  8
部品1
100
AcDbCircle
 10
1466.470482677778
 20
1328.993338720062
 30
0.0
 40
26.0
100
AcDbArc
 50
180.0
 51
199.4712206344134
  0
ARC
  5
18CBD
330
18C7A
100
AcDbEntity
  8
部品1
 48
0.01
100
AcDbCircle
 10
1434.470482677778
 20
1319.493338720063
 30
0.0
 40
0.5
100
AcDbArc
 50
180.0
 51
270.0
  0
LINE
  5
18CBE
330
18C7A
100
AcDbEntity
  8
部品1
 48
0.01
100
AcDbLine
 10
1434.470482677778
 20
1318.993338720063
 30
0.0
 11
1441.014638555061
 21
1318.993338720062
 31
0.0
  0
LINE
  5
18CBF
330
18C7A
100
AcDbEntity
  8
部品1
 48
0.01
100
AcDbLine
 10
1433.970482677778
 20
1320.493338720063
 30
0.0
 11
1433.970482677778
 21
1319.493338720063
 31
0.0
  0
ARC
  5
18CC0
330
18C7A
100
AcDbEntity
  8
部品1
100
AcDbCircle
 10
1441.014638555061
 20
1319.993338720062
 30
0.0
 40
1.0
100
AcDbArc
 50
270.0
 51
19.47122063441346
  0
LINE
  5
18CC1
330
18C7A
100
AcDbEntity
  8
細線
100
AcDbLine
 10
1479.470482677785
 20
1338.493338720065
 30
0.0
 11
1438.470482677785
 21
1338.493338720058
 31
0.0
  0
LINE
  5
18CC2
330
18C7A
100
AcDbEntity
  8
細線
100
AcDbLine
 10
1438.470482677785
 20
1338.493338720058
 30
0.0
 11
1438.470482677785
 21
1320.49333872004
 31
0.0
  0
LINE
  5
18CC3
330
18C7A
100
AcDbEntity
  8
細線
100
AcDbLine
 10
1479.470482677785
 20
1338.493338720065
 30
0.0
 11
1479.470482677785
 21
1320.49333872004
 31
0.0
  0
LINE
  5
18CC4
330
18C7A
100
AcDbEntity
  8
細線
100
AcDbLine
 10
1322.970589276523
 20
1324.494269174465
 30
0.0
 11
1322.970589276523
 21
1320.494269174513
 31
0.0
  0
LINE
  5
18CC5
330
18C7A
100
AcDbEntity
  8
寸法
 48
50.0
100
AcDbLine
 10
1746.17359555837
 20
1170.531020743327
 30
0.0
 11
1694.767587648266
 21
1170.531020743327
 31
0.0
  0
LINE
  5
18CC6
330
18C7A
100
AcDbEntity
  8
寸法
 48
50.0
100
AcDbLine
 10
1694.767587648266
 20
1170.531020743327
 30
0.0
 11
1694.767587648266
 21
1201.841179395494
 31
0.0
  0
LINE
  5
18CC7
330
18C7A
100
AcDbEntity
  8
寸法
 48
50.0
100
AcDbLine
 10
1694.767587648266
 20
1201.841179395494
 30
0.0
 11
1665.006255656843
 21
1201.841179395494
 31
0.0
  0
LINE
  5
18CC8
330
18C7A
100
AcDbEntity
  8
寸法
 48
50.0
100
AcDbLine
 10
1665.006255656843
 20
1201.841179395494
 30
0.0
 11
1720.470591603318
 21
1239.420630324105
 31
0.0
  0
LINE
  5
18CC9
330
18C7A
100
AcDbEntity
  8
寸法
 48
50.0
100
AcDbLine
 10
1775.934927549793
 20
1201.841179395494
 30
0.0
 11
1720.470591603318
 21
1239.420630324105
 31
0.0
  0
LINE
  5
18CCA
330
18C7A
100
AcDbEntity
  8
寸法
 48
50.0
100
AcDbLine
 10
1746.17359555837
 20
1201.841179395494
 30
0.0
 11
1775.934927549793
 21
1201.841179395494
 31
0.0
  0
LINE
  5
18CCB
330
18C7A
100
AcDbEntity
  8
寸法
 48
50.0
100
AcDbLine
 10
1746.17359555837
 20
1170.531020743327
 30
0.0
 11
1746.17359555837
 21
1201.841179395494
 31
0.0
  0
LINE
  5
18CCC
330
18C7A
100
AcDbEntity
  8
寸法
 48
50.0
100
AcDbLine
 10
1694.767587648266
 20
1170.531020743327
 30
0.0
 11
1746.17359555837
 21
1170.531020743327
 31
0.0
  0
LINE
  5
18CCD
330
18C7A
100
AcDbEntity
  8
寸法
 48
50.0
100
AcDbLine
 10
2025.339129835225
 20
1227.676611498152
 30
0.0
 11
2025.339129835225
 21
1174.01297691636
 31
0.0
  0
LINE
  5
18CCE
330
18C7A
100
AcDbEntity
  8
寸法
 48
50.0
100
AcDbLine
 10
2114.623348430647
 20
1203.752977228664
 30
0.0
 11
2025.339129835225
 21
1227.676611498152
 31
0.0
  0
LINE
  5
18CCF
330
18C7A
100
AcDbEntity
  8
寸法
 48
50.0
100
AcDbLine
 10
1895.471408254923
 20
1203.752977228664
 30
0.0
 11
2114.623348430647
 21
1203.752977228664
 31
0.0
  0
DIMENSION
  5
18CD0
330
18C7A
100
AcDbEntity
  8
寸法
 48
50.0
100
AcDbDimension
  2
*D15
 10
2588.970589276523
 20
706.3240511224249
 30
0.0
 11
1969.060022905491
 21
706.3240511224249
 31
0.0
 12
-3742.925985830444
 22
-6453.628869860112
 32
0.0
 70
   128
  1
有効開口部間口\P<>
 71
     5
 42
1266.0
  3
INABA_S40G
100
AcDbAlignedDimension
 13
1322.970589276523
 23
1315.494269174465
 33
0.0
 14
2588.970589276523
 24
1315.494269174465
 34
0.0
100
AcDbRotatedDimension
1001
ACAD
1000
DSTYLE
1002
{
1070
   341
1005
0
1002
}
  0
LINE
  5
18CD1
330
18C7A
100
AcDbEntity
  8
部品1
100
AcDbLine
 10
3409.970589276524
 20
1392.494269174465
 30
0.0
 11
3437.970589276523
 21
1392.494269174465
 31
0.0
  0
DIMENSION
  5
18CD2
330
18C7A
100
AcDbEntity
  8
寸法
100
AcDbDimension
  2
*D16
 10
3674.266172669749
 20
1315.494269174465
 30
0.0
 11
3674.266172669748
 21
1177.494269174462
 31
0.0
 12
-3742.925985830444
 22
-6453.628869860112
 32
0.0
 70
   128
 71
     5
 42
77.0
  3
INABA_S40
100
AcDbAlignedDimension
 13
3437.970589276523
 23
1392.494269174465
 33
0.0
 14
3436.970589276523
 24
1315.494269174465
 34
0.0
 50
90.0
100
AcDbRotatedDimension
1001
ACAD
1000
DSTYLE
1002
{
1070
    41
1040
0.5
1070
    44
1040
1.0
1070
   147
1040
0.8
1070
   271
1070
     2
1070
   272
1070
     2
1070
   289
1070
     3
1070
   340
1005
F706
1070
   343
1005
164B4
1070
   344
1005
164B4
1002
}
  0
LINE
  5
18CD3
330
18C7A
100
AcDbEntity
  8
部品1
100
AcDbLine
 10
3437.970589276523
 20
1315.494269174465
 30
0.0
 11
3437.970589276523
 21
1392.494269174465
 31
0.0
  0
LINE
  5
18CD4
330
18C7A
100
AcDbEntity
  8
部品1
100
AcDbLine
 10
3398.970589276523
 20
1388.494269174465
 30
0.0
 11
3409.970589276524
 21
1388.494269174465
 31
0.0
  0
LINE
  5
18CD5
330
18C7A
100
AcDbEntity
  8
部品1
100
AcDbLine
 10
3407.970589276523
 20
1324.494269174465
 30
0.0
 11
3407.970589276523
 21
1315.494269174465
 31
0.0
  0
LINE
  5
18CD6
330
18C7A
100
AcDbEntity
  8
部品1
100
AcDbLine
 10
3398.970589276523
 20
1324.494269174465
 30
0.0
 11
3407.970589276523
 21
1324.494269174465
 31
0.0
  0
LINE
  5
18CD7
330
18C7A
100
AcDbEntity
  8
部品1
100
AcDbLine
 10
3398.970589276523
 20
1388.494269174465
 30
0.0
 11
3398.970589276523
 21
1324.494269174465
 31
0.0
  0
LINE
  5
18CD8
330
18C7A
100
AcDbEntity
  8
部品1
100
AcDbLine
 10
3409.970589276524
 20
1419.494269174465
 30
0.0
 11
3409.970589276524
 21
1388.494269174465
 31
0.0
  0
LINE
  5
18CD9
330
18C7A
100
AcDbEntity
  8
部品1
100
AcDbLine
 10
1322.970589276523
 20
1388.494269174465
 30
0.0
 11
1311.970589276523
 21
1388.494269174465
 31
0.0
  0
LINE
  5
18CDA
330
18C7A
100
AcDbEntity
  8
部品1
100
AcDbLine
 10
1283.970589276523
 20
1392.494269174465
 30
0.0
 11
1311.970589276523
 21
1392.494269174465
 31
0.0
  0
LINE
  5
18CDB
330
18C7A
100
AcDbEntity
  8
部品1
100
AcDbLine
 10
1313.970589276523
 20
1324.494269174465
 30
0.0
 11
1313.970589276523
 21
1315.494269174465
 31
0.0
  0
LINE
  5
18CDC
330
18C7A
100
AcDbEntity
  8
部品1
100
AcDbLine
 10
1322.970589276523
 20
1324.494269174465
 30
0.0
 11
1313.970589276523
 21
1324.494269174465
 31
0.0
  0
LINE
  5
18CDD
330
18C7A
100
AcDbEntity
  8
部品1
100
AcDbLine
 10
1313.970589276523
 20
1315.494269174465
 30
0.0
 11
1283.970589276523
 21
1315.494269174465
 31
0.0
  0
LINE
  5
18CDE
330
18C7A
100
AcDbEntity
  8
部品1
100
AcDbLine
 10
1283.970589276523
 20
1315.494269174465
 30
0.0
 11
1283.970589276523
 21
1392.494269174465
 31
0.0
  0
LINE
  5
18CDF
330
18C7A
100
AcDbEntity
  8
部品1
100
AcDbLine
 10
1322.970589276523
 20
1388.494269174465
 30
0.0
 11
1322.970589276523
 21
1324.494269174465
 31
0.0
  0
LINE
  5
18CE0
330
18C7A
100
AcDbEntity
  8
部品1
100
AcDbLine
 10
1311.970589276523
 20
1419.494269174462
 30
0.0
 11
1311.970589276523
 21
1388.494269174465
 31
0.0
  0
LINE
  5
18CE1
330
18C7A
100
AcDbEntity
  8
部品1
100
AcDbLine
 10
1311.970589276523
 20
1419.494269174462
 30
0.0
 11
3409.970589276524
 21
1419.494269174465
 31
0.0
  0
LINE
  5
18CE2
330
18C7A
100
AcDbEntity
  8
部品1
100
AcDbLine
 10
3407.970589276523
 20
1315.494269174465
 30
0.0
 11
3437.970589276523
 21
1315.494269174465
 31
0.0
  0
LINE
  5
18CE3
330
18C7A
100
AcDbEntity
  8
部品1
100
AcDbLine
 10
1313.970589276523
 20
1315.494269174465
 30
0.0
 11
3410.970589276523
 21
1315.494269174465
 31
0.0
  0
LINE
  5
18CE4
330
18C7A
100
AcDbEntity
  8
細線
  6
Continuous
 62
     5
100
AcDbLine
 10
2689.970589276527
 20
1354.494269174462
 30
0.0
 11
2689.970589276527
 21
1354.494269174462
 31
0.0
  0
LINE
  5
18CE5
330
18C7A
100
AcDbEntity
  8
細線
  6
Continuous
 62
     5
100
AcDbLine
 10
2682.470589276527
 20
1354.494269174462
 30
0.0
 11
2682.470589276527
 21
1354.494269174462
 31
0.0
  0
LINE
  5
18CE6
330
18C7A
100
AcDbEntity
  8
細線
  6
Continuous
 62
     5
100
AcDbLine
 10
2676.470589276527
 20
1354.494269174462
 30
0.0
 11
2676.470589276527
 21
1354.494269174462
 31
0.0
  0
LINE
  5
18CE7
330
18C7A
100
AcDbEntity
  8
細線
  6
Continuous
 62
     5
100
AcDbLine
 10
2743.970589276527
 20
1373.494269174462
 30
0.0
 11
2743.970589276527
 21
1373.494269174462
 31
0.0
  0
LINE
  5
18CE8
330
18C7A
100
AcDbEntity
  8
細線
 48
50.0
100
AcDbLine
 10
1336.970593930116
 20
1341.094443351418
 30
0.0
 11
1336.970593930113
 21
1349.490593759059
 31
0.0
  0
LINE
  5
18CE9
330
18C7A
100
AcDbEntity
  8
細線
 48
50.0
100
AcDbLine
 10
1336.970593930113
 20
1349.490593759059
 30
0.0
 11
1322.970589276523
 21
1349.490593759057
 31
0.0
  0
LINE
  5
18CEA
330
18C7A
100
AcDbEntity
  8
細線
 48
50.0
100
AcDbLine
 10
2087.970593930113
 20
1337.644443351419
 30
0.0
 11
2087.970593930113
 21
1342.494443351421
 31
0.0
  0
LINE
  5
18CEB
330
18C7A
100
AcDbEntity
  8
細線
 48
50.0
100
AcDbLine
 10
2087.970593930113
 20
1342.494443351421
 30
0.0
 11
2102.970593930113
 21
1342.494443351421
 31
0.0
  0
LINE
  5
18CEC
330
18C7A
100
AcDbEntity
  8
細線
 48
50.0
100
AcDbLine
 10
2102.970593930113
 20
1342.494443351421
 30
0.0
 11
2102.970593930115
 21
1349.494443351419
 31
0.0
  0
LINE
  5
18CED
330
18C7A
100
AcDbEntity
  8
細線
 48
50.0
100
AcDbLine
 10
2102.970593930115
 20
1349.494443351419
 30
0.0
 11
2117.970593930113
 21
1349.494443351419
 31
0.0
  0
LINE
  5
18CEE
330
18C7A
100
AcDbEntity
  8
細線
 48
50.0
100
AcDbLine
 10
2117.970593930113
 20
1349.494443351419
 30
0.0
 11
2117.970593930113
 21
1320.494443351421
 31
0.0
  0
LINE
  5
18CEF
330
18C7A
100
AcDbEntity
  8
細線
 48
50.0
100
AcDbLine
 10
1313.970589276523
 20
1320.491777694889
 30
0.0
 11
1527.970593930113
 21
1320.494460905133
 31
0.0
  0
LINE
  5
18CF0
330
18C7A
100
AcDbEntity
  8
細線
 48
50.0
100
AcDbLine
 10
2017.970593930113
 20
1320.494443351421
 30
0.0
 11
2117.970593930113
 21
1320.494443351421
 31
0.0
  0
LINE
  5
18CF1
330
18C7A
100
AcDbEntity
  8
細線
 48
50.0
100
AcDbLine
 10
1737.970593930113
 20
1320.494443351419
 30
0.0
 11
1807.970593930113
 21
1320.494443351423
 31
0.0
  0
LINE
  5
18CF2
330
18C7A
100
AcDbEntity
  8
細線
 48
50.0
100
AcDbLine
 10
1750.832558942642
 20
1320.494443351419
 30
0.0
 11
1756.588076525309
 21
1338.765294641913
 31
0.0
  0
LINE
  5
18CF3
330
18C7A
100
AcDbEntity
  8
細線
 48
50.0
100
AcDbLine
 10
1756.588076525309
 20
1338.765294641913
 30
0.0
 11
1767.516525005743
 21
1338.765294641911
 31
0.0
  0
ARC
  5
18CF4
330
18C7A
100
AcDbEntity
  8
細線
 48
50.0
100
AcDbCircle
 10
1767.516525005743
 20
1337.765294641911
 30
0.0
 40
1.0
100
AcDbArc
 50
24.62431835207225
 51
90.0
  0
ARC
  5
18CF5
330
18C7A
100
AcDbEntity
  8
細線
 48
50.0
100
AcDbCircle
 10
1778.425237120377
 20
1337.765294641911
 30
0.0
 40
1.0
100
AcDbArc
 50
90.0
 51
155.3756816479277
  0
ARC
  5
18CF6
330
18C7A
100
AcDbEntity
  8
細線
 48
50.0
100
AcDbCircle
 10
1772.970881063058
 20
1340.265294641911
 30
0.0
 40
5.0
100
AcDbArc
 50
204.6243183520723
 51
335.3756816479278
  0
LINE
  5
18CF7
330
18C7A
100
AcDbEntity
  8
細線
 48
50.0
100
AcDbLine
 10
1778.425237120377
 20
1338.765294641911
 30
0.0
 11
1789.35368560081
 21
1338.765294641913
 31
0.0
  0
LINE
  5
18CF8
330
18C7A
100
AcDbEntity
  8
細線
 48
50.0
100
AcDbLine
 10
1789.35368560081
 20
1338.765294641913
 30
0.0
 11
1795.109203183478
 21
1320.494443351423
 31
0.0
  0
LINE
  5
18CF9
330
18C7A
100
AcDbEntity
  8
細線
 48
50.0
100
AcDbLine
 10
2087.970593930113
 20
1341.094443351419
 30
0.0
 11
1336.970593930116
 21
1341.094443351418
 31
0.0
  0
LINE
  5
18CFA
330
18C7A
100
AcDbEntity
  8
細線
 48
50.0
100
AcDbLine
 10
1947.970593930113
 20
1320.494443351421
 30
0.0
 11
1877.970593930113
 21
1320.494443351421
 31
0.0
  0
LINE
  5
18CFB
330
18C7A
100
AcDbEntity
  8
細線
100
AcDbLine
 10
1667.970593930113
 20
1320.494443351421
 30
0.0
 11
1597.970602115529
 21
1320.494443351421
 31
0.0
  0
LINE
  5
18CFC
330
18C7A
100
AcDbEntity
  8
細線
 48
50.0
100
AcDbLine
 10
2741.970584622936
 20
1375.094487209288
 30
0.0
 11
2106.970593930113
 21
1375.094487209284
 31
0.0
  0
LINE
  5
18CFD
330
18C7A
100
AcDbEntity
  8
細線
 48
50.0
100
AcDbLine
 10
2106.970593930113
 20
1371.990637616925
 30
0.0
 11
2106.970593930113
 21
1376.490637616925
 31
0.0
  0
LINE
  5
18CFE
330
18C7A
100
AcDbEntity
  8
細線
 48
50.0
100
AcDbLine
 10
2106.970593930113
 20
1376.490637616925
 30
0.0
 11
2091.970593930113
 21
1376.490637616925
 31
0.0
  0
LINE
  5
18CFF
330
18C7A
100
AcDbEntity
  8
細線
 48
50.0
100
AcDbLine
 10
2091.970593930113
 20
1376.490637616925
 30
0.0
 11
2091.970593930113
 21
1383.490637616927
 31
0.0
  0
LINE
  5
18D00
330
18C7A
100
AcDbEntity
  8
細線
 48
50.0
100
AcDbLine
 10
2091.970593930113
 20
1383.490637616927
 30
0.0
 11
2076.970593930115
 21
1383.490637616924
 31
0.0
  0
LINE
  5
18D01
330
18C7A
100
AcDbEntity
  8
細線
 48
50.0
100
AcDbLine
 10
2076.970593930115
 20
1383.490637616924
 30
0.0
 11
2076.970593930115
 21
1345.890409513813
 31
0.0
  0
LINE
  5
18D02
330
18C7A
100
AcDbEntity
  8
細線
 48
50.0
100
AcDbLine
 10
2076.970593930115
 20
1345.890409513813
 30
0.0
 11
2096.970601231289
 21
1345.890451063353
 31
0.0
  0
LINE
  5
18D03
330
18C7A
100
AcDbEntity
  8
細線
 48
50.0
100
AcDbLine
 10
2096.970556362348
 20
1354.493912699161
 30
0.0
 11
2096.970601231289
 21
1345.890451063353
 31
0.0
  0
LINE
  5
18D04
330
18C7A
100
AcDbEntity
  8
細線
 48
50.0
100
AcDbLine
 10
2741.970584622936
 20
1371.644487209287
 30
0.0
 11
2741.970584622936
 21
1376.494487209284
 31
0.0
  0
LINE
  5
18D05
330
18C7A
100
AcDbEntity
  8
細線
 48
50.0
100
AcDbLine
 10
2741.970584622936
 20
1376.494487209284
 30
0.0
 11
2756.970584622934
 21
1376.494487209285
 31
0.0
  0
LINE
  5
18D06
330
18C7A
100
AcDbEntity
  8
細線
 48
50.0
100
AcDbLine
 10
2756.970584622934
 20
1376.494487209285
 30
0.0
 11
2756.970596256909
 21
1383.494487209331
 31
0.0
  0
LINE
  5
18D07
330
18C7A
100
AcDbEntity
  8
細線
 48
50.0
100
AcDbLine
 10
2756.970596256909
 20
1383.494487209331
 30
0.0
 11
2771.970594427439
 21
1383.494487209329
 31
0.0
  0
LINE
  5
18D08
330
18C7A
100
AcDbEntity
  8
細線
 48
50.0
100
AcDbLine
 10
2771.970594427439
 20
1383.494487209329
 30
0.0
 11
2771.970584125617
 21
1354.494281037055
 31
0.0
  0
LINE
  5
18D09
330
18C7A
100
AcDbEntity
  8
細線
 48
50.0
100
AcDbLine
 10
2458.070304175992
 20
1354.494278397076
 30
0.0
 11
2389.470863838818
 21
1354.494283787084
 31
0.0
  0
LINE
  5
18D0A
330
18C7A
100
AcDbEntity
  8
細線
 48
50.0
100
AcDbLine
 10
2096.970556362348
 20
1354.493912699161
 30
0.0
 11
2108.203245717057
 21
1354.494095652309
 31
0.0
  0
ARC
  5
18D0B
330
18C7A
100
AcDbEntity
  8
細線
 48
50.0
100
AcDbCircle
 10
2114.785538024393
 20
1353.294259565922
 30
0.0
 40
1.8
100
AcDbArc
 50
270.0006665777295
 51
345.000555481349
  0
LINE
  5
18D0C
330
18C7A
100
AcDbEntity
  8
細線
 48
50.0
100
AcDbLine
 10
2116.771971470473
 20
1353.753100023201
 30
0.0
 11
2116.524209028273
 21
1352.828402141094
 31
0.0
  0
LINE
  5
18D0D
330
18C7A
100
AcDbEntity
  8
細線
 48
50.0
100
AcDbLine
 10
2114.785558965548
 20
1351.494259566043
 30
0.0
 11
2111.155631546781
 21
1351.494217335563
 31
0.0
  0
ARC
  5
18D0E
330
18C7A
100
AcDbEntity
  8
細線
 48
50.0
100
AcDbCircle
 10
2111.155610605627
 20
1353.29421733544
 30
0.0
 40
1.8
100
AcDbArc
 50
195.0010443049965
 51
270.0006665777295
  0
LINE
  5
18D0F
330
18C7A
100
AcDbEntity
  8
細線
 48
50.0
100
AcDbLine
 10
2109.169183113368
 20
1353.752932303007
 30
0.0
 11
2109.416952609882
 21
1352.828311364425
 31
0.0
  0
ARC
  5
18D10
330
18C7A
100
AcDbEntity
  8
細線
 48
50.0
100
AcDbCircle
 10
2108.203262004622
 20
1353.494095652444
 30
0.0
 40
1.0
100
AcDbArc
 50
15.00104430499651
 51
90.00093320877969
  0
LINE
  5
18D11
330
18C7A
100
AcDbEntity
  8
細線
 48
50.0
100
AcDbLine
 10
2117.737892825577
 20
1354.494290342714
 30
0.0
 11
2118.679652976481
 21
1354.494296916564
 31
0.0
  0
ARC
  5
18D12
330
18C7A
100
AcDbEntity
  8
細線
 48
50.0
100
AcDbCircle
 10
2117.737899805961
 20
1353.49429034274
 30
0.0
 40
1.0
100
AcDbArc
 50
90.0003999466794
 51
165.000555481349
  0
LINE
  5
18D13
330
18C7A
100
AcDbEntity
  8
細線
 48
50.0
100
AcDbLine
 10
2669.470584622926
 20
1354.494281037055
 30
0.0
 11
2771.970584125617
 21
1354.494281037055
 31
0.0
  0
LINE
  5
18D14
330
18C7A
100
AcDbEntity
  8
細線
 48
50.0
100
AcDbLine
 10
2179.47061994182
 20
1354.494289224422
 30
0.0
 11
2118.370558714898
 21
1354.494296916564
 31
0.0
  0
LINE
  5
18D15
330
18C7A
100
AcDbEntity
  8
細線
 48
50.0
100
AcDbLine
 10
2599.470584622926
 20
1354.494281037057
 30
0.0
 11
2529.470584622926
 21
1354.494281037055
 31
0.0
  0
LINE
  5
18D16
330
18C7A
100
AcDbEntity
  8
細線
 48
50.0
100
AcDbLine
 10
2319.470584622926
 20
1354.494281037054
 30
0.0
 11
2249.470567335051
 21
1354.494281037057
 31
0.0
  0
ARC
  5
18D17
330
18C7A
100
AcDbEntity
  8
細線
 48
50.0
100
AcDbCircle
 10
2756.170589276533
 20
1387.694269174466
 30
0.0
 40
0.8
100
AcDbArc
 50
359.9997333689499
 51
89.99986668437072
  0
ARC
  5
18D18
330
18C7A
100
AcDbEntity
  8
細線
 48
50.0
100
AcDbCircle
 10
2763.770596101631
 20
1387.694280343081
 30
0.0
 40
0.8
100
AcDbArc
 50
90.00014387753465
 51
179.9997333689498
  0
LINE
  5
18D19
330
18C7A
100
AcDbEntity
  8
細線
 48
50.0
100
AcDbLine
 10
2756.170591137969
 20
1388.494269174465
 30
0.0
 11
2750.970589276525
 21
1388.494269174465
 31
0.0
  0
ARC
  5
18D1A
330
18C7A
100
AcDbEntity
  8
細線
 48
50.0
100
AcDbCircle
 10
2757.670589276524
 20
1386.194269174464
 30
0.0
 40
0.7
100
AcDbArc
 50
180.0
 51
270.0
  0
ARC
  5
18D1B
330
18C7A
100
AcDbEntity
  8
細線
 48
50.0
100
AcDbCircle
 10
2762.270589276524
 20
1386.194269174464
 30
0.0
 40
0.7
100
AcDbArc
 50
270.0
 51
0.0
  0
LINE
  5
18D1C
330
18C7A
100
AcDbEntity
  8
細線
 48
50.0
100
AcDbLine
 10
2762.970589276525
 20
1386.194269174464
 30
0.0
 11
2762.970596101639
 21
1387.694284065954
 31
0.0
  0
LINE
  5
18D1D
330
18C7A
100
AcDbEntity
  8
細線
 48
50.0
100
AcDbLine
 10
2757.670589276524
 20
1385.494269174465
 30
0.0
 11
2762.270589276524
 21
1385.494269174465
 31
0.0
  0
LINE
  5
18D1E
330
18C7A
100
AcDbEntity
  8
細線
 48
50.0
100
AcDbLine
 10
2756.970589276525
 20
1387.694269174466
 30
0.0
 11
2756.970589276525
 21
1386.194269174464
 31
0.0
  0
LINE
  5
18D1F
330
18C7A
100
AcDbEntity
  8
細線
 48
50.0
100
AcDbLine
 10
3382.570589276527
 20
1418.494269174465
 30
0.0
 11
2745.970589276525
 21
1418.494269174463
 31
0.0
  0
LINE
  5
18D20
330
18C7A
100
AcDbEntity
  8
細線
 48
50.0
100
AcDbLine
 10
3408.470589276525
 20
1413.494269174467
 30
0.0
 11
3392.570589276527
 21
1413.494269174465
 31
0.0
  0
LINE
  5
18D21
330
18C7A
100
AcDbEntity
  8
細線
 48
50.0
100
AcDbLine
 10
3392.570589276526
 20
1413.494269174465
 30
0.0
 11
3382.570589276527
 21
1418.494269174465
 31
0.0
  0
LINE
  5
18D22
330
18C7A
100
AcDbEntity
  8
細線
100
AcDbLine
 10
2993.470589276525
 20
1388.494269174465
 30
0.0
 11
2993.470589276525
 21
1417.794269174464
 31
0.0
  0
LINE
  5
18D23
330
18C7A
100
AcDbEntity
  8
細線
100
AcDbLine
 10
2993.470589276525
 20
1417.794269174464
 30
0.0
 11
3013.470589276525
 21
1417.794269174464
 31
0.0
  0
LINE
  5
18D24
330
18C7A
100
AcDbEntity
  8
細線
100
AcDbLine
 10
3013.470589276525
 20
1388.494269174465
 30
0.0
 11
3013.470589276525
 21
1417.794269174464
 31
0.0
  0
LINE
  5
18D25
330
18C7A
100
AcDbEntity
  8
細線
100
AcDbLine
 10
3170.720589276524
 20
1388.494269174465
 30
0.0
 11
3100.720589276523
 21
1388.494269174465
 31
0.0
  0
LINE
  5
18D26
330
18C7A
100
AcDbEntity
  8
細線
 48
50.0
100
AcDbLine
 10
2890.720589276525
 20
1388.494269174465
 30
0.0
 11
2763.766368849365
 21
1388.494269174465
 31
0.0
  0
LINE
  5
18D27
330
18C7A
100
AcDbEntity
  8
細線
100
AcDbLine
 10
3030.720589276525
 20
1388.494269174465
 30
0.0
 11
2960.720589276525
 21
1388.494269174465
 31
0.0
  0
LINE
  5
18D28
330
18C7A
100
AcDbEntity
  8
細線
 48
50.0
100
AcDbLine
 10
2750.970589276525
 20
1380.494269174465
 30
0.0
 11
2750.970589276525
 21
1388.494269174465
 31
0.0
  0
LINE
  5
18D29
330
18C7A
100
AcDbEntity
  8
細線
 48
50.0
100
AcDbLine
 10
2730.970589276524
 20
1380.494269174467
 30
0.0
 11
2750.970589276525
 21
1380.494269174465
 31
0.0
  0
LINE
  5
18D2A
330
18C7A
100
AcDbEntity
  8
細線
 48
50.0
100
AcDbLine
 10
2745.970589276525
 20
1418.494269174465
 30
0.0
 11
2745.970589276525
 21
1413.494269174465
 31
0.0
  0
LINE
  5
18D2B
330
18C7A
100
AcDbEntity
  8
細線
 48
50.0
100
AcDbLine
 10
2730.970589276525
 20
1418.494269174463
 30
0.0
 11
2745.970589276525
 21
1418.494269174465
 31
0.0
  0
LINE
  5
18D2C
330
18C7A
100
AcDbEntity
  8
細線
 48
50.0
100
AcDbLine
 10
2730.970589276524
 20
1380.494269174467
 30
0.0
 11
2730.970589276525
 21
1418.494269174463
 31
0.0
  0
LINE
  5
18D2D
330
18C7A
100
AcDbEntity
  8
細線
100
AcDbLine
 10
3398.970589276523
 20
1388.494269174465
 30
0.0
 11
3240.720589276525
 21
1388.494269174465
 31
0.0
  0
LINE
  5
18D2E
330
18C7A
100
AcDbEntity
  8
細線
 48
50.0
100
AcDbLine
 10
3408.470589276525
 20
1413.494269174467
 30
0.0
 11
3408.470589276524
 21
1388.494269174465
 31
0.0
  0
TEXT
  5
18D2F
330
18C7A
100
AcDbEntity
  8
部品1
100
AcDbText
 10
1860.154865991392
 20
46.99880823813145
 30
0.0
 40
135.0
  1
平面図
  7
STYLE2
100
AcDbText
  0
LWPOLYLINE
  5
18D30
330
18C7A
100
AcDbEntity
  8
部品1
100
AcDbPolyline
 90
        4
 70
     1
 43
0.0
 10
1770.23525616235
 20
239.8923374566548
 10
1770.23525616235
 20
0.0000159111223184
 10
2533.705922390791
 20
0.0000159111223184
 10
2533.705922390791
 20
239.8923374566548
  0
LINE
  5
18D31
330
18C7A
100
AcDbEntity
  8
部品1
100
AcDbLine
 10
1534.470589276487
 20
3154.494269174626
 30
0.0
 11
2769.470589276552
 21
3154.494269174626
 31
0.0
  0
LINE
  5
18D32
330
18C7A
100
AcDbEntity
  8
部品1
 48
50.0
100
AcDbLine
 10
1311.970589276523
 20
1420.494269174462
 30
0.0
 11
3411.970589276523
 21
1420.494269174465
 31
0.0
  0
LINE
  5
18D33
330
18C7A
100
AcDbEntity
  8
部品1
 48
50.0
100
AcDbLine
 10
471.9705892765232
 20
1392.494269174465
 30
0.0
 11
1311.970589276523
 21
1392.494269174465
 31
0.0
  0
DIMENSION
  5
18D34
330
18C7A
100
AcDbEntity
  8
寸法
100
AcDbDimension
  2
*D14
 10
2710.234916278077
 20
2488.887829538828
 30
0.0
 11
2338.318822490183
 21
2488.887829538828
 31
0.0
 12
-3742.925985830444
 22
-6453.628869860112
 32
0.0
 70
   128
 71
     5
 42
1231.00000000007
  3
INABA_S40G
100
AcDbAlignedDimension
 13
1536.470589276486
 23
2702.494269174557
 33
0.0
 14
2767.470589276556
 24
2702.494269174549
 34
0.0
100
AcDbRotatedDimension
1001
ACAD
1000
DSTYLE
1002
{
1002
}
  0
LINE
  5
18D35
330
18C7A
100
AcDbEntity
  8
部品1
100
AcDbLine
 10
1536.470589276487
 20
2702.494269174557
 30
0.0
 11
2767.470589276554
 21
2702.494269174615
 31
0.0
  0
LINE
  5
18D36
330
18C7A
100
AcDbEntity
  8
部品1
100
AcDbLine
 10
1536.470589276487
 20
3152.494269174557
 30
0.0
 11
2767.470589276556
 21
3152.494269174615
 31
0.0
  0
LINE
  5
18D37
330
18C7A
100
AcDbEntity
  8
細線
 48
50.0
100
AcDbLine
 10
1508.470589276487
 20
3152.494269174558
 30
0.0
 11
445.4705892765559
 21
2702.494269174509
 31
0.0
  0
LINE
  5
18D38
330
18C7A
100
AcDbEntity
  8
細線
 48
50.0
100
AcDbLine
 10
1508.470589276487
 20
2702.494269174558
 30
0.0
 11
445.4705892765542
 21
3152.494269174509
 31
0.0
  0
LINE
  5
18D39
330
18C7A
100
AcDbEntity
  8
部品1
100
AcDbLine
 10
1556.970589276487
 20
3172.494269174611
 30
0.0
 11
1556.970589276487
 21
3154.494269174611
 31
0.0
  0
LINE
  5
18D3A
330
18C7A
100
AcDbEntity
  8
部品1
100
AcDbLine
 10
1556.970589276487
 20
3172.494269174611
 30
0.0
 11
1550.970589276487
 21
3172.494269174611
 31
0.0
  0
LINE
  5
18D3B
330
18C7A
100
AcDbEntity
  8
部品1
100
AcDbLine
 10
1534.470589276487
 20
3146.494269174608
 30
0.0
 11
1509.470589276487
 21
3146.494269174611
 31
0.0
  0
LINE
  5
18D3C
330
18C7A
100
AcDbEntity
  8
部品1
100
AcDbLine
 10
1486.970589276487
 20
3172.494269174611
 30
0.0
 11
1486.970589276487
 21
3154.494269174611
 31
0.0
  0
LINE
  5
18D3D
330
18C7A
100
AcDbEntity
  8
部品1
100
AcDbLine
 10
1492.970589276487
 20
3172.494269174611
 30
0.0
 11
1486.970589276487
 21
3172.494269174611
 31
0.0
  0
LINE
  5
18D3E
330
18C7A
100
AcDbEntity
  8
部品1
100
AcDbLine
 10
1534.470589276487
 20
2702.494269174615
 30
0.0
 11
1509.470589276487
 21
2702.494269174615
 31
0.0
  0
LINE
  5
18D3F
330
18C7A
100
AcDbEntity
  8
部品1
 48
50.0
100
AcDbLine
 10
1536.470589276487
 20
3152.494269174611
 30
0.0
 11
1536.470589276487
 21
2702.494269174615
 31
0.0
  0
LINE
  5
18D40
330
18C7A
100
AcDbEntity
  8
部品1
 48
50.0
100
AcDbLine
 10
1508.470589276487
 20
3152.494269174607
 30
0.0
 11
1508.470589276487
 21
2702.494269174615
 31
0.0
  0
LINE
  5
18D41
330
18C7A
100
AcDbEntity
  8
部品1
 48
50.0
100
AcDbLine
 10
1534.470589276487
 20
3154.494269174618
 30
0.0
 11
1534.470589276487
 21
2702.494269174615
 31
0.0
  0
LINE
  5
18D42
330
18C7A
100
AcDbEntity
  8
部品1
 48
50.0
100
AcDbLine
 10
1509.470589276487
 20
3154.494269174615
 30
0.0
 11
1509.470589276487
 21
2702.494269174615
 31
0.0
  0
LINE
  5
18D43
330
18C7A
100
AcDbEntity
  8
部品1
100
AcDbLine
 10
3411.970589276556
 20
1392.494269174582
 30
0.0
 11
3411.970589276556
 21
1420.494269174596
 31
0.0
  0
LINE
  5
18D44
330
18C7A
100
AcDbEntity
  8
部品1
100
AcDbLine
 10
1311.970589276523
 20
1392.494269174596
 30
0.0
 11
1311.970589276523
 21
1420.494269174596
 31
0.0
  0
LINE
  5
18D45
330
18C7A
100
AcDbEntity
  8
部品1
100
AcDbLine
 10
891.9705892765232
 20
1392.494269174596
 30
0.0
 11
891.9705892765232
 21
1420.494269174596
 31
0.0
  0
LINE
  5
18D46
330
18C7A
100
AcDbEntity
  8
部品1
100
AcDbLine
 10
3411.97058927652
 20
3182.494269174477
 30
0.0
 11
3411.970589276523
 21
3154.494269174477
 31
0.0
  0
LINE
  5
18D47
330
18C7A
100
AcDbEntity
  8
部品1
100
AcDbLine
 10
2571.97058927652
 20
3182.494269174477
 30
0.0
 11
2571.970589276523
 21
3154.494269174477
 31
0.0
  0
LINE
  5
18D48
330
18C7A
100
AcDbEntity
  8
部品1
100
AcDbLine
 10
2991.97058927652
 20
3182.494269174477
 30
0.0
 11
2991.970589276523
 21
3154.494269174477
 31
0.0
  0
LINE
  5
18D49
330
18C7A
100
AcDbEntity
  8
部品1
100
AcDbLine
 10
2151.970589276519
 20
3182.494269174477
 30
0.0
 11
2151.970589276523
 21
3154.494269174477
 31
0.0
  0
LINE
  5
18D4A
330
18C7A
100
AcDbEntity
  8
部品1
100
AcDbLine
 10
1731.970589276519
 20
3182.494269174477
 30
0.0
 11
1731.970589276523
 21
3154.494269174477
 31
0.0
  0
LINE
  5
18D4B
330
18C7A
100
AcDbEntity
  8
部品1
100
AcDbLine
 10
1311.970589276519
 20
3182.494269174477
 30
0.0
 11
1311.970589276523
 21
3154.494269174477
 31
0.0
  0
LINE
  5
18D4C
330
18C7A
100
AcDbEntity
  8
部品1
100
AcDbLine
 10
891.9705892765195
 20
3182.494269174477
 30
0.0
 11
891.9705892765232
 21
3154.494269174477
 31
0.0
  0
LINE
  5
18D4D
330
18C7A
100
AcDbEntity
  8
部品1
100
AcDbLine
 10
471.9705892765232
 20
1392.494269174596
 30
0.0
 11
471.9705892765232
 21
1420.494269174596
 31
0.0
  0
LINE
  5
18D4E
330
18C7A
100
AcDbEntity
  8
部品1
100
AcDbLine
 10
444.9705892765305
 20
1420.494269174558
 30
0.0
 11
3858.970589276556
 21
1420.494269174596
 31
0.0
  0
LINE
  5
18D4F
330
18C7A
100
AcDbEntity
  8
部品1
100
AcDbLine
 10
3831.970589276556
 20
1392.494269174596
 30
0.0
 11
3831.970589276556
 21
1420.494269174596
 31
0.0
  0
LINE
  5
18D50
330
18C7A
100
AcDbEntity
  8
部品1
100
AcDbLine
 10
3858.970589276556
 20
1447.494269174593
 30
0.0
 11
3886.970589276556
 21
1447.494269174593
 31
0.0
  0
LINE
  5
18D51
330
18C7A
100
AcDbEntity
  8
部品1
100
AcDbLine
 10
3858.970589276556
 20
1867.494269174607
 30
0.0
 11
3886.970589276556
 21
1867.494269174607
 31
0.0
  0
LINE
  5
18D52
330
18C7A
100
AcDbEntity
  8
部品1
100
AcDbLine
 10
444.9705892765305
 20
1867.49426917448
 30
0.0
 11
416.9705892765305
 21
1867.49426917448
 31
0.0
  0
LINE
  5
18D53
330
18C7A
100
AcDbEntity
  8
部品1
100
AcDbLine
 10
3830.470589276541
 20
1867.49426917458
 30
0.0
 11
473.4705892765396
 21
1867.49426917448
 31
0.0
  0
LINE
  5
18D54
330
18C7A
100
AcDbEntity
  8
部品1
100
AcDbLine
 10
3830.470589276541
 20
2287.49426917458
 30
0.0
 11
473.4705892765396
 21
2287.49426917448
 31
0.0
  0
LINE
  5
18D55
330
18C7A
100
AcDbEntity
  8
部品1
100
AcDbLine
 10
444.9705892765305
 20
2287.49426917448
 30
0.0
 11
416.9705892765305
 21
2287.49426917448
 31
0.0
  0
LINE
  5
18D56
330
18C7A
100
AcDbEntity
  8
部品1
100
AcDbLine
 10
3858.970589276556
 20
2287.494269174608
 30
0.0
 11
3886.970589276556
 21
2287.494269174608
 31
0.0
  0
LINE
  5
18D57
330
18C7A
100
AcDbEntity
  8
部品1
 48
50.0
100
AcDbLine
 10
2151.970589276551
 20
2702.494269174586
 30
0.0
 11
2151.970589276581
 21
1448.994269174494
 31
0.0
  0
LINE
  5
18D58
330
18C7A
100
AcDbEntity
  8
破線
 48
10.0
100
AcDbLine
 10
2959.470589276535
 20
1472.494269174522
 30
0.0
 11
2176.970589276532
 21
1472.494269174505
 31
0.0
  0
LINE
  5
18D59
330
18C7A
100
AcDbEntity
  8
破線
 48
10.0
100
AcDbLine
 10
3009.47058927653
 20
1448.994269174509
 30
0.0
 11
3009.47058927653
 21
2702.494269174615
 31
0.0
  0
LINE
  5
18D5A
330
18C7A
100
AcDbEntity
  8
破線
 48
10.0
100
AcDbLine
 10
2959.470589276535
 20
1448.994269174505
 30
0.0
 11
2959.470589276531
 21
2702.494269174615
 31
0.0
  0
LINE
  5
18D5B
330
18C7A
100
AcDbEntity
  8
破線
 48
10.0
100
AcDbLine
 10
1344.47058927653
 20
1448.994269174509
 30
0.0
 11
1344.47058927653
 21
2702.494269174615
 31
0.0
  0
LINE
  5
18D5C
330
18C7A
100
AcDbEntity
  8
破線
 48
10.0
100
AcDbLine
 10
1294.470589276534
 20
1448.994269174505
 30
0.0
 11
1294.47058927653
 21
2702.494269174615
 31
0.0
  0
DIMENSION
  5
18D5D
330
18C7A
100
AcDbEntity
  8
寸法
100
AcDbDimension
  2
*D13
 10
1451.234916278005
 20
2488.887829538828
 30
0.0
 11
916.0604668248634
 21
2488.887829538828
 31
0.0
 12
-3742.925985830444
 22
-6453.628869860112
 32
0.0
 70
   128
 71
     5
 42
1062.99999999993
  3
INABA_S40G
100
AcDbAlignedDimension
 13
445.4705892765559
 23
2702.494269174505
 33
0.0
 14
1508.470589276486
 24
2702.494269174558
 34
0.0
100
AcDbRotatedDimension
1001
ACAD
1000
DSTYLE
1002
{
1002
}
  0
LINE
  5
18D5E
330
18C7A
100
AcDbEntity
  8
破線
 48
10.0
100
AcDbLine
 10
1294.470589276534
 20
1472.494269174469
 30
0.0
 11
496.9705892765414
 21
1472.494269174476
 31
0.0
  0
LINE
  5
18D5F
330
18C7A
100
AcDbEntity
  8
部品1
100
AcDbLine
 10
3831.970589276556
 20
3182.494269174604
 30
0.0
 11
3831.970589276556
 21
3154.494269174604
 31
0.0
  0
LINE
  5
18D60
330
18C7A
100
AcDbEntity
  8
部品1
100
AcDbLine
 10
3831.970589276556
 20
3182.494269174626
 30
0.0
 11
3831.970589276556
 21
3154.494269174626
 31
0.0
  0
LINE
  5
18D61
330
18C7A
100
AcDbEntity
  8
部品1
100
AcDbLine
 10
3858.970589276556
 20
3127.494269174607
 30
0.0
 11
3886.970589276556
 21
3127.494269174607
 31
0.0
  0
LINE
  5
18D62
330
18C7A
100
AcDbEntity
  8
部品1
100
AcDbLine
 10
3858.970589276556
 20
2707.494269174608
 30
0.0
 11
3886.970589276556
 21
2707.494269174608
 31
0.0
  0
LINE
  5
18D63
330
18C7A
100
AcDbEntity
  8
部品1
100
AcDbLine
 10
3858.470589276556
 20
3152.494269174604
 30
0.0
 11
3858.470589276556
 21
2702.494269174608
 31
0.0
  0
LINE
  5
18D64
330
18C7A
100
AcDbEntity
  8
部品1
100
AcDbLine
 10
3886.970589276533
 20
1447.494269174593
 30
0.0
 11
3886.970589276531
 21
1392.494269174596
 31
0.0
  0
LINE
  5
18D65
330
18C7A
100
AcDbEntity
  8
部品1
 48
50.0
100
AcDbLine
 10
3830.470589276556
 20
1448.994269174596
 30
0.0
 11
3858.970589276554
 21
1420.494269174596
 31
0.0
  0
LINE
  5
18D66
330
18C7A
100
AcDbEntity
  8
部品1
100
AcDbLine
 10
3886.970589276531
 20
1392.494269174596
 30
0.0
 11
3835.970589276531
 21
1392.494269174596
 31
0.0
  0
LINE
  5
18D67
330
18C7A
100
AcDbEntity
  8
部品1
100
AcDbLine
 10
3858.970589276533
 20
1447.494269174593
 30
0.0
 11
3886.970589276531
 21
1447.494269174593
 31
0.0
  0
LINE
  5
18D68
330
18C7A
100
AcDbEntity
  8
部品1
100
AcDbLine
 10
3886.970589276556
 20
3182.494269174604
 30
0.0
 11
3886.970589276531
 21
1392.494269174596
 31
0.0
  0
DIMENSION
  5
18D69
330
18C7A
100
AcDbEntity
  8
寸法
100
AcDbDimension
  2
*D12
 10
4534.396935010967
 20
1447.494269174593
 30
0.0
 11
4534.396935010965
 21
2287.4942691746
 31
0.0
 12
-3742.925985830444
 22
-6453.628869860112
 32
0.0
 70
   128
  1
4X420=<>
 71
     5
 42
1680.000000000014
  3
INABA_S40G
100
AcDbAlignedDimension
 13
3886.970589276556
 23
3127.494269174607
 33
0.0
 14
3886.970589276531
 24
1447.494269174593
 34
0.0
 50
90.0
100
AcDbRotatedDimension
1001
ACAD
1000
DSTYLE
1002
{
1002
}
  0
LINE
  5
18D6A
330
18C7A
100
AcDbEntity
  8
部品1
100
AcDbLine
 10
3858.970589276556
 20
3154.494269174604
 30
0.0
 11
3858.970589276534
 21
1420.494269174596
 31
0.0
  0
DIMENSION
  5
18D6B
330
18C7A
100
AcDbEntity
  8
寸法
100
AcDbDimension
  2
*D11
 10
4213.82831513858
 20
2607.276453505718
 30
0.0
 11
4113.828315138579
 21
2832.276453505718
 31
0.0
 12
-3742.925985830444
 22
-6453.628869860112
 32
0.0
 71
     5
 42
449.9999999999963
  3
INABA_S40G
100
AcDbAlignedDimension
 13
3858.470589276556
 23
3152.494269174604
 33
0.0
 14
3858.470589276556
 24
2702.494269174608
 34
0.0
 50
90.0
100
AcDbRotatedDimension
1001
ACAD
1000
DSTYLE
1002
{
1002
}
  0
LINE
  5
18D6C
330
18C7A
100
AcDbEntity
  8
部品1
100
AcDbLine
 10
3830.470589276547
 20
2702.494269174608
 30
0.0
 11
3830.470589276556
 21
1448.994269174596
 31
0.0
  0
LINE
  5
18D6D
330
18C7A
100
AcDbEntity
  8
破線
 48
10.0
100
AcDbLine
 10
3806.970589276549
 20
2702.494269174608
 30
0.0
 11
3806.970589276558
 21
1472.494269174593
 31
0.0
  0
LINE
  5
18D6E
330
18C7A
100
AcDbEntity
  8
部品1
100
AcDbLine
 10
2769.470589276556
 20
3146.494269174608
 30
0.0
 11
2794.470589276556
 21
3146.494269174611
 31
0.0
  0
LINE
  5
18D6F
330
18C7A
100
AcDbEntity
  8
部品1
100
AcDbLine
 10
2810.970589276556
 20
3172.494269174611
 30
0.0
 11
2816.970589276556
 21
3172.494269174611
 31
0.0
  0
LINE
  5
18D70
330
18C7A
100
AcDbEntity
  8
部品1
100
AcDbLine
 10
2816.970589276556
 20
3172.494269174611
 30
0.0
 11
2816.970589276556
 21
3154.494269174611
 31
0.0
  0
LINE
  5
18D71
330
18C7A
100
AcDbEntity
  8
部品1
100
AcDbLine
 10
2746.970589276556
 20
3172.494269174611
 30
0.0
 11
2752.970589276556
 21
3172.494269174611
 31
0.0
  0
LINE
  5
18D72
330
18C7A
100
AcDbEntity
  8
部品1
100
AcDbLine
 10
2746.970589276556
 20
3172.494269174611
 30
0.0
 11
2746.970589276556
 21
3154.494269174611
 31
0.0
  0
LINE
  5
18D73
330
18C7A
100
AcDbEntity
  8
部品1
100
AcDbLine
 10
2769.470589276556
 20
2702.494269174615
 30
0.0
 11
2794.470589276556
 21
2702.494269174615
 31
0.0
  0
LINE
  5
18D74
330
18C7A
100
AcDbEntity
  8
部品1
 48
50.0
100
AcDbLine
 10
2794.470589276556
 20
3154.494269174615
 30
0.0
 11
2794.470589276556
 21
2702.494269174615
 31
0.0
  0
LINE
  5
18D75
330
18C7A
100
AcDbEntity
  8
部品1
 48
50.0
100
AcDbLine
 10
2769.470589276554
 20
3154.494269174618
 30
0.0
 11
2769.470589276556
 21
2702.494269174615
 31
0.0
  0
LINE
  5
18D76
330
18C7A
100
AcDbEntity
  8
部品1
 48
50.0
100
AcDbLine
 10
2795.470589276556
 20
3152.494269174607
 30
0.0
 11
2795.470589276556
 21
2702.494269174615
 31
0.0
  0
LINE
  5
18D77
330
18C7A
100
AcDbEntity
  8
部品1
 48
50.0
100
AcDbLine
 10
2767.470589276556
 20
3152.494269174611
 30
0.0
 11
2767.470589276556
 21
2702.494269174615
 31
0.0
  0
LINE
  5
18D78
330
18C7A
100
AcDbEntity
  8
破線
 48
10.0
100
AcDbLine
 10
2176.97058927653
 20
1448.994269174509
 30
0.0
 11
2176.97058927653
 21
2702.494269174588
 31
0.0
  0
LINE
  5
18D79
330
18C7A
100
AcDbEntity
  8
破線
 48
10.0
100
AcDbLine
 10
2126.970589276534
 20
1448.994269174505
 30
0.0
 11
2126.970589276531
 21
2702.494269174586
 31
0.0
  0
LINE
  5
18D7A
330
18C7A
100
AcDbEntity
  8
部品1
100
AcDbLine
 10
2794.470589276556
 20
3154.494269174622
 30
0.0
 11
3858.970589276556
 21
3154.494269174604
 31
0.0
  0
LINE
  5
18D7B
330
18C7A
100
AcDbEntity
  8
細線
 48
50.0
100
AcDbLine
 10
3858.470589276556
 20
2702.494269174608
 30
0.0
 11
2795.470589276556
 21
3152.494269174607
 31
0.0
  0
LINE
  5
18D7C
330
18C7A
100
AcDbEntity
  8
部品1
100
AcDbLine
 10
2795.470589276555
 20
2702.494269174615
 30
0.0
 11
3858.470589276556
 21
2702.494269174608
 31
0.0
  0
LINE
  5
18D7D
330
18C7A
100
AcDbEntity
  8
部品1
100
AcDbLine
 10
2795.470589276556
 20
3152.494269174611
 30
0.0
 11
3858.470589276556
 21
3152.494269174604
 31
0.0
  0
LINE
  5
18D7E
330
18C7A
100
AcDbEntity
  8
細線
 48
50.0
100
AcDbLine
 10
3858.470589276556
 20
3152.494269174604
 30
0.0
 11
2795.470589276555
 21
2702.494269174615
 31
0.0
  0
DIMENSION
  5
18D7F
330
18C7A
100
AcDbEntity
  8
寸法
100
AcDbDimension
  2
*D10
 10
3801.234916278101
 20
2488.887829538937
 30
0.0
 11
3318.360544398907
 21
2488.887829538937
 31
0.0
 12
-3742.925985830444
 22
-6453.628869860112
 32
0.0
 70
   128
 71
     5
 42
1063.000000000012
  3
INABA_S40G
100
AcDbAlignedDimension
 13
2795.470589276555
 23
2702.494269174615
 33
0.0
 14
3858.470589276567
 24
2702.494269174608
 34
0.0
100
AcDbRotatedDimension
1001
ACAD
1000
DSTYLE
1002
{
1002
}
  0
LINE
  5
18D80
330
18C7A
100
AcDbEntity
  8
破線
 48
10.0
100
AcDbLine
 10
3806.970589276556
 20
1472.494269174594
 30
0.0
 11
3009.47058927653
 21
1472.494269174523
 31
0.0
  0
DIMENSION
  5
18D81
330
18C7A
100
AcDbEntity
  8
寸法
100
AcDbDimension
  2
*D9
 10
4534.396935010941
 20
1392.494269174596
 30
0.0
 11
4534.39693501094
 21
1084.008987800356
 31
0.0
 12
-3742.925985830444
 22
-6453.628869860112
 32
0.0
 70
   128
 71
     5
 42
54.99999999999636
  3
INABA_S40G
100
AcDbAlignedDimension
 13
3886.970589276531
 23
1447.494269174593
 33
0.0
 14
3886.970589276531
 24
1392.494269174596
 34
0.0
 50
90.0
100
AcDbRotatedDimension
1001
ACAD
1000
DSTYLE
1002
{
1002
}
  0
LINE
  5
18D82
330
18C7A
100
AcDbEntity
  8
部品1
100
AcDbLine
 10
471.9705892765196
 20
3182.494269174477
 30
0.0
 11
471.9705892765232
 21
3154.494269174477
 31
0.0
  0
LINE
  5
18D83
330
18C7A
100
AcDbEntity
  8
部品1
100
AcDbLine
 10
471.9705892765559
 20
3182.494269174509
 30
0.0
 11
471.9705892765559
 21
3154.494269174509
 31
0.0
  0
LINE
  5
18D84
330
18C7A
100
AcDbEntity
  8
部品1
100
AcDbLine
 10
444.9705892765232
 20
3127.49426917448
 30
0.0
 11
416.9705892765232
 21
3127.49426917448
 31
0.0
  0
LINE
  5
18D85
330
18C7A
100
AcDbEntity
  8
部品1
100
AcDbLine
 10
444.9705892765305
 20
2707.49426917448
 30
0.0
 11
416.9705892765305
 21
2707.49426917448
 31
0.0
  0
LINE
  5
18D86
330
18C7A
100
AcDbEntity
  8
部品1
 48
50.0
100
AcDbLine
 10
445.4705892765542
 20
3152.494269174506
 30
0.0
 11
445.4705892765559
 21
2702.494269174505
 31
0.0
  0
LINE
  5
18D87
330
18C7A
100
AcDbEntity
  8
部品1
 48
50.0
100
AcDbLine
 10
473.470589276545
 20
1448.994269174573
 30
0.0
 11
444.970589276545
 21
1420.494269174574
 31
0.0
  0
LINE
  5
18D88
330
18C7A
100
AcDbEntity
  8
部品1
100
AcDbLine
 10
471.9705892765232
 20
1392.494269174465
 30
0.0
 11
416.9705892765486
 21
1392.494269174465
 31
0.0
  0
LINE
  5
18D89
330
18C7A
100
AcDbEntity
  8
部品1
100
AcDbLine
 10
444.9705892765305
 20
1447.494269174429
 30
0.0
 11
416.9705892765469
 21
1447.494269174429
 31
0.0
  0
LINE
  5
18D8A
330
18C7A
100
AcDbEntity
  8
部品1
100
AcDbLine
 10
444.9705892765305
 20
1447.494269174465
 30
0.0
 11
416.9705892765469
 21
1447.494269174465
 31
0.0
  0
LINE
  5
18D8B
330
18C7A
100
AcDbEntity
  8
部品1
100
AcDbLine
 10
444.9705892765469
 20
1447.49426917448
 30
0.0
 11
416.9705892765469
 21
1447.49426917448
 31
0.0
  0
LINE
  5
18D8C
330
18C7A
100
AcDbEntity
  8
部品1
100
AcDbLine
 10
416.9705892765469
 20
1447.494269174429
 30
0.0
 11
416.9705892765486
 21
1392.494269174433
 31
0.0
  0
LINE
  5
18D8D
330
18C7A
100
AcDbEntity
  8
部品1
100
AcDbLine
 10
416.9705892765196
 20
3182.494269174477
 30
0.0
 11
416.9705892765486
 21
1392.494269174465
 31
0.0
  0
LINE
  5
18D8E
330
18C7A
100
AcDbEntity
  8
部品1
100
AcDbLine
 10
444.9705892765305
 20
1420.494269174556
 30
0.0
 11
444.9705892765559
 21
3154.494269174509
 31
0.0
  0
LINE
  5
18D8F
330
18C7A
100
AcDbEntity
  8
部品1
100
AcDbLine
 10
473.4705892765323
 20
2702.494269174608
 30
0.0
 11
473.470589276545
 21
1448.994269174571
 31
0.0
  0
LINE
  5
18D90
330
18C7A
100
AcDbEntity
  8
破線
 48
10.0
100
AcDbLine
 10
496.9705892765305
 20
2702.494269174608
 30
0.0
 11
496.9705892765451
 21
1472.494269174476
 31
0.0
  0
DIMENSION
  5
18D91
330
18C7A
100
AcDbEntity
  8
寸法
100
AcDbDimension
  2
*D8
 10
3886.970589276531
 20
410.7433333855515
 30
0.0
 11
2168.197775309287
 21
410.7433333855515
 31
0.0
 12
-3742.925985830444
 22
-6453.628869860112
 32
0.0
 70
   128
 71
     5
 42
3469.999999999982
  3
INABA_S40G
100
AcDbAlignedDimension
 13
416.9705892765486
 23
1392.494269174433
 33
0.0
 14
3886.970589276531
 24
1392.49426917456
 34
0.0
100
AcDbRotatedDimension
1001
ACAD
1000
DSTYLE
1002
{
1070
   341
1005
0
1002
}
  0
LINE
  5
18D92
330
18C7A
100
AcDbEntity
  8
部品1
100
AcDbLine
 10
444.9705892765559
 20
3154.494269174624
 30
0.0
 11
1509.470589276487
 21
3154.494269174626
 31
0.0
  0
LINE
  5
18D93
330
18C7A
100
AcDbEntity
  8
部品1
100
AcDbLine
 10
3886.970589276531
 20
1392.494269174596
 30
0.0
 11
3411.970589276556
 21
1392.494269174582
 31
0.0
  0
LINE
  5
18D94
330
18C7A
100
AcDbEntity
  8
部品1
100
AcDbLine
 10
416.9705892765559
 20
3182.494269174509
 30
0.0
 11
3886.970589276556
 21
3182.494269174604
 31
0.0
  0
LINE
  5
18D95
330
18C7A
100
AcDbEntity
  8
部品1
100
AcDbLine
 10
445.4705892765559
 20
2702.494269174509
 30
0.0
 11
1508.470589276487
 21
2702.494269174558
 31
0.0
  0
LINE
  5
18D96
330
18C7A
100
AcDbEntity
  8
細線
 48
50.0
100
AcDbLine
 10
2767.470589276556
 20
3152.494269174611
 30
0.0
 11
1536.470589276487
 21
2702.494269174558
 31
0.0
  0
LINE
  5
18D97
330
18C7A
100
AcDbEntity
  8
部品1
100
AcDbLine
 10
445.4705892765542
 20
3152.494269174509
 30
0.0
 11
1508.470589276485
 21
3152.494269174558
 31
0.0
  0
LINE
  5
18D98
330
18C7A
100
AcDbEntity
  8
細線
 48
50.0
100
AcDbLine
 10
2767.470589276554
 20
2702.494269174615
 30
0.0
 11
1536.470589276485
 21
3152.494269174558
 31
0.0
  0
LINE
  5
18D99
330
18C7A
100
AcDbEntity
  8
破線
 48
10.0
100
AcDbLine
 10
2126.970589276534
 20
1472.494269174502
 30
0.0
 11
1344.47058927653
 21
1472.494269174473
 31
0.0
  0
LINE
  5
18D9A
330
18C7A
100
AcDbEntity
  8
部品1
100
AcDbLine
 10
3830.470589276556
 20
1448.994269174596
 30
0.0
 11
473.4705892764487
 21
1448.994269174476
 31
0.0
  0
DIMENSION
  5
18D9B
330
18C7A
100
AcDbEntity
  8
寸法
100
AcDbDimension
  2
*D7
 10
471.970589276555
 20
3698.302488799491
 30
0.0
 11
108.4853079022819
 21
3698.302488799491
 31
0.0
 12
-3742.925985830444
 22
-6453.628869860112
 32
0.0
 70
   128
 71
     5
 42
55.00000000003456
  3
INABA_S40G
100
AcDbAlignedDimension
 13
416.9705892765205
 23
3182.494269174509
 33
0.0
 14
471.970589276555
 24
3182.494269174509
 34
0.0
100
AcDbRotatedDimension
1001
ACAD
1000
DSTYLE
1002
{
1002
}
  0
DIMENSION
  5
18D9C
330
18C7A
100
AcDbEntity
  8
寸法
100
AcDbDimension
  2
*D6
 10
4534.396935010967
 20
3127.494269174607
 30
0.0
 11
4534.396935010965
 21
3490.979550548844
 31
0.0
 12
-3742.925985830444
 22
-6453.628869860112
 32
0.0
 70
   128
 71
     5
 42
54.99999999999636
  3
INABA_S40G
100
AcDbAlignedDimension
 13
3886.970589276556
 23
3182.494269174604
 33
0.0
 14
3886.970589276556
 24
3127.494269174607
 34
0.0
 50
90.0
100
AcDbRotatedDimension
1001
ACAD
1000
DSTYLE
1002
{
1002
}
  0
DIMENSION
  5
18D9D
330
18C7A
100
AcDbEntity
  8
寸法
100
AcDbDimension
  2
*D5
 10
3886.970589276556
 20
3698.302488799589
 30
0.0
 11
4195.455870650794
 21
3698.302488799589
 31
0.0
 12
-3742.925985830444
 22
-6453.628869860112
 32
0.0
 70
   128
 71
     5
 42
55.0
  3
INABA_S40G
100
AcDbAlignedDimension
 13
3831.970589276556
 23
3182.494269174604
 33
0.0
 14
3886.970589276556
 24
3182.494269174604
 34
0.0
100
AcDbRotatedDimension
1001
ACAD
1000
DSTYLE
1002
{
1002
}
  0
DIMENSION
  5
18D9E
330
18C7A
100
AcDbEntity
  8
寸法
100
AcDbDimension
  2
*D4
 10
3831.970589276556
 20
3698.302488799607
 30
0.0
 11
2151.970589276555
 21
3698.302488799607
 31
0.0
 12
-3742.925985830444
 22
-6453.628869860112
 32
0.0
 70
   128
  1
8X420=<>
 71
     5
 42
3360.000000000001
  3
INABA_S40G
100
AcDbAlignedDimension
 13
471.970589276555
 23
3182.494269174509
 33
0.0
 14
3831.970589276556
 24
3182.494269174604
 34
0.0
100
AcDbRotatedDimension
1001
ACAD
1000
DSTYLE
1002
{
1002
}
  0
DIMENSION
  5
18D9F
330
18C7A
100
AcDbEntity
  8
寸法
100
AcDbDimension
  2
*D3
 10
4899.503876750603
 20
1392.494269174596
 30
0.0
 11
4899.503876750601
 21
2287.4942691746
 31
0.0
 12
-3742.925985830444
 22
-6453.628869860112
 32
0.0
 70
   128
 71
     5
 42
1790.000000000007
  3
INABA_S40G
100
AcDbAlignedDimension
 13
3886.970589276556
 23
3182.494269174604
 33
0.0
 14
3886.970589276531
 24
1392.494269174596
 34
0.0
 50
90.0
100
AcDbRotatedDimension
1001
ACAD
1000
DSTYLE
1002
{
1002
}
  0
ENDBLK
  5
18DA1
330
18C7A
100
AcDbEntity
  8
0
 48
50.0
100
AcDbBlockEnd
  0
BLOCK
  5
1C4CB
330
1C4CA
100
AcDbEntity
  8
0
 48
50.0
100
AcDbBlockBegin
  2
_NONE
 70
     0
 10
0.0
 20
0.0
 30
0.0
  3
_NONE
  1

  0
CIRCLE
  5
1C4CC
330
1C4CA
100
AcDbEntity
  8
0
  6
ByBlock
 62
     0
 48
50.0
100
AcDbCircle
 10
0.0
 20
0.0
 30
0.0
 40
0.25
  0
ENDBLK
  5
1C4CD
330
1C4CA
100
AcDbEntity
  8
0
 48
50.0
100
AcDbBlockEnd
  0
BLOCK
  5
1FC87
330
1FC7E
100
AcDbEntity
  8
0
 48
50.0
100
AcDbBlockBegin
  2
*D19
 70
     1
 10
0.0
 20
0.0
 30
0.0
  3
*D19
  1

  0
LINE
  5
20F82
330
1FC7E
100
AcDbEntity
  8
寸法
 62
     0
 48
50.0
370
    -2
100
AcDbLine
 10
9475.6
 20
7341.614188821911
 30
0.0
 11
9475.6
 21
8137.223005492158
 31
0.0
  0
LINE
  5
20F83
330
1FC7E
100
AcDbEntity
  8
寸法
 62
     0
 48
50.0
370
    -2
100
AcDbLine
 10
8105.6
 20
7341.614188821911
 30
0.0
 11
8105.6
 21
8137.223005492158
 31
0.0
  0
LINE
  5
20F84
330
1FC7E
100
AcDbEntity
  8
寸法
 62
     0
 48
50.0
370
    -2
100
AcDbLine
 10
9475.6
 20
8077.223005492157
 30
0.0
 11
8105.6
 21
8077.223005492157
 31
0.0
  0
INSERT
  5
20F85
330
1FC7E
100
AcDbEntity
  8
寸法
 62
     0
 48
50.0
370
    -2
100
AcDbBlockReference
  2
_DOTSMALL
 10
9475.6
 20
8077.223005492157
 30
0.0
 41
100.0
 42
100.0
 43
100.0
  0
INSERT
  5
20F86
330
1FC7E
100
AcDbEntity
  8
寸法
 62
     0
 48
50.0
370
    -2
100
AcDbBlockReference
  2
_DOTSMALL
 10
8105.6
 20
8077.223005492157
 30
0.0
 41
100.0
 42
100.0
 43
100.0
 50
180.0
  0
MTEXT
  5
20F87
330
1FC7E
100
AcDbEntity
  8
寸法
 62
     7
 48
50.0
100
AcDbMText
 10
8790.600000000001
 20
8177.223005492157
 30
0.0
 40
120.0
 41
0.0
 71
     5
 72
     1
  1
\A1;1370
  7
STYLE1
 73
     1
 44
1.0
1001
ACAD
1000
MTEXTBEGIN
1070
    73
1070
     1
1070
    44
1040
1.0
1070
    74
1070
     0
1000
MTEXTEND
  0
POINT
  5
20F88
330
1FC7E
100
AcDbEntity
  8
DEFPOINTS
 62
     0
 48
50.0
100
AcDbPoint
 10
9475.6
 20
7321.614188821911
 30
0.0
  0
POINT
  5
20F89
330
1FC7E
100
AcDbEntity
  8
DEFPOINTS
 62
     0
 48
50.0
100
AcDbPoint
 10
8105.6
 20
7321.614188821911
 30
0.0
  0
POINT
  5
20F8A
330
1FC7E
100
AcDbEntity
  8
DEFPOINTS
 62
     0
 48
50.0
100
AcDbPoint
 10
8105.6
 20
8077.223005492157
 30
0.0
  0
ENDBLK
  5
1FC88
330
1FC7E
100
AcDbEntity
  8
0
 48
50.0
100
AcDbBlockEnd
  0
BLOCK
  5
1FC92
330
1FC89
100
AcDbEntity
  8
0
 48
50.0
100
AcDbBlockBegin
  2
*D20
 70
     1
 10
0.0
 20
0.0
 30
0.0
  3
*D20
  1

  0
LINE
  5
20F79
330
1FC89
100
AcDbEntity
  8
寸法
 62
     0
 48
50.0
370
    -2
100
AcDbLine
 10
5478.6
 20
7414.614188821911
 30
0.0
 11
5478.6
 21
8612.834510880832
 31
0.0
  0
LINE
  5
20F7A
330
1FC89
100
AcDbEntity
  8
寸法
 62
     0
 48
50.0
370
    -2
100
AcDbLine
 10
10968.6
 20
7414.614188821911
 30
0.0
 11
10968.6
 21
8612.834510880832
 31
0.0
  0
LINE
  5
20F7B
330
1FC89
100
AcDbEntity
  8
寸法
 62
     0
 48
50.0
370
    -2
100
AcDbLine
 10
5478.6
 20
8552.834510880833
 30
0.0
 11
10968.6
 21
8552.834510880833
 31
0.0
  0
INSERT
  5
20F7C
330
1FC89
100
AcDbEntity
  8
寸法
 62
     0
 48
50.0
370
    -2
100
AcDbBlockReference
  2
_DOTSMALL
 10
5478.6
 20
8552.834510880833
 30
0.0
 41
100.0
 42
100.0
 43
100.0
 50
180.0
  0
INSERT
  5
20F7D
330
1FC89
100
AcDbEntity
  8
寸法
 62
     0
 48
50.0
370
    -2
100
AcDbBlockReference
  2
_DOTSMALL
 10
10968.6
 20
8552.834510880833
 30
0.0
 41
100.0
 42
100.0
 43
100.0
  0
MTEXT
  5
20F7E
330
1FC89
100
AcDbEntity
  8
寸法
 62
     7
 48
50.0
100
AcDbMText
 10
8223.600000000001
 20
8658.834510880831
 30
0.0
 40
120.0
 41
0.0
 71
     5
 72
     1
  1
\A1;N(連続数)x1370+10
  7
STYLE1
 73
     1
 44
1.0
1001
ACAD
1000
MTEXTBEGIN
1070
    73
1070
     1
1070
    44
1040
1.0
1070
    74
1070
     0
1000
MTEXTEND
  0
POINT
  5
20F7F
330
1FC89
100
AcDbEntity
  8
DEFPOINTS
 62
     0
 48
50.0
100
AcDbPoint
 10
5478.6
 20
7394.614188821911
 30
0.0
  0
POINT
  5
20F80
330
1FC89
100
AcDbEntity
  8
DEFPOINTS
 62
     0
 48
50.0
100
AcDbPoint
 10
10968.6
 20
7394.614188821911
 30
0.0
  0
POINT
  5
20F81
330
1FC89
100
AcDbEntity
  8
DEFPOINTS
 62
     0
 48
50.0
100
AcDbPoint
 10
10968.6
 20
8552.834510880833
 30
0.0
  0
ENDBLK
  5
1FC93
330
1FC89
100
AcDbEntity
  8
0
 48
50.0
100
AcDbBlockEnd
  0
BLOCK
  5
1FC9D
330
1FC94
100
AcDbEntity
  8
0
 48
50.0
100
AcDbBlockBegin
  2
*D21
 70
     1
 10
0.0
 20
0.0
 30
0.0
  3
*D21
  1

  0
LINE
  5
20F70
330
1FC94
100
AcDbEntity
  8
寸法
 62
     0
 48
50.0
370
    -2
100
AcDbLine
 10
9593.600000000007
 20
8097.223005492159
 30
0.0
 11
9593.600000000007
 21
8380.880646915818
 31
0.0
  0
LINE
  5
20F71
330
1FC94
100
AcDbEntity
  8
寸法
 62
     0
 48
50.0
370
    -2
100
AcDbLine
 10
8223.600000000008
 20
8097.223005492159
 30
0.0
 11
8223.600000000008
 21
8380.880646915818
 31
0.0
  0
LINE
  5
20F72
330
1FC94
100
AcDbEntity
  8
寸法
 62
     0
 48
50.0
370
    -2
100
AcDbLine
 10
9593.600000000007
 20
8320.880646915819
 30
0.0
 11
8223.600000000008
 21
8320.880646915819
 31
0.0
  0
INSERT
  5
20F73
330
1FC94
100
AcDbEntity
  8
寸法
 62
     0
 48
50.0
370
    -2
100
AcDbBlockReference
  2
_DOTSMALL
 10
9593.600000000007
 20
8320.880646915819
 30
0.0
 41
100.0
 42
100.0
 43
100.0
  0
INSERT
  5
20F74
330
1FC94
100
AcDbEntity
  8
寸法
 62
     0
 48
50.0
370
    -2
100
AcDbBlockReference
  2
_DOTSMALL
 10
8223.600000000008
 20
8320.880646915819
 30
0.0
 41
100.0
 42
100.0
 43
100.0
 50
180.0
  0
MTEXT
  5
20F75
330
1FC94
100
AcDbEntity
  8
寸法
 62
     7
 48
50.0
100
AcDbMText
 10
8908.600000000008
 20
8420.880646915819
 30
0.0
 40
120.0
 41
0.0
 71
     5
 72
     1
  1
\A1;1370
  7
STYLE1
 73
     1
 44
1.0
1001
ACAD
1000
MTEXTBEGIN
1070
    73
1070
     1
1070
    44
1040
1.0
1070
    74
1070
     0
1000
MTEXTEND
  0
POINT
  5
20F76
330
1FC94
100
AcDbEntity
  8
DEFPOINTS
 62
     0
 48
50.0
100
AcDbPoint
 10
9593.600000000007
 20
8077.223005492157
 30
0.0
  0
POINT
  5
20F77
330
1FC94
100
AcDbEntity
  8
DEFPOINTS
 62
     0
 48
50.0
100
AcDbPoint
 10
8223.600000000008
 20
8077.223005492157
 30
0.0
  0
POINT
  5
20F78
330
1FC94
100
AcDbEntity
  8
DEFPOINTS
 62
     0
 48
50.0
100
AcDbPoint
 10
8223.600000000008
 20
8320.880646915819
 30
0.0
  0
ENDBLK
  5
1FC9E
330
1FC94
100
AcDbEntity
  8
0
 48
50.0
100
AcDbBlockEnd
  0
BLOCK
  5
1FCAA
330
1FC9F
100
AcDbEntity
  8
0
 48
50.0
100
AcDbBlockBegin
  2
*D22
 70
     1
 10
0.0
 20
0.0
 30
0.0
  3
*D22
  1

  0
LINE
  5
20F66
330
1FC9F
100
AcDbEntity
  8
寸法
 62
     0
 48
50.0
370
    -2
100
AcDbLine
 10
5531.600000000008
 20
6212.614188821913
 30
0.0
 11
4534.087353431281
 21
6212.614188821913
 31
0.0
  0
LINE
  5
20F67
330
1FC9F
100
AcDbEntity
  8
寸法
 62
     0
 48
50.0
370
    -2
100
AcDbLine
 10
5458.6
 20
6014.614188821911
 30
0.0
 11
4534.087353431281
 21
6014.614188821911
 31
0.0
  0
LINE
  5
20F68
330
1FC9F
100
AcDbEntity
  8
寸法
 62
     0
 48
50.0
370
    -2
100
AcDbLine
 10
4594.087353431281
 20
6212.614188821913
 30
0.0
 11
4594.08735343128
 21
6014.614188821911
 31
0.0
  0
LINE
  5
20F69
330
1FC9F
100
AcDbEntity
  8
寸法
 62
     0
 48
50.0
370
    -2
100
AcDbLine
 10
4594.08735343128
 20
6014.614188821911
 30
0.0
 11
4594.08735343128
 21
5542.873580149661
 31
0.0
  0
INSERT
  5
20F6A
330
1FC9F
100
AcDbEntity
  8
寸法
 62
     0
 48
50.0
370
    -2
100
AcDbBlockReference
  2
_DOTSMALL
 10
4594.087353431281
 20
6212.614188821913
 30
0.0
 41
100.0
 42
100.0
 43
100.0
 50
90.0
  0
INSERT
  5
20F6B
330
1FC9F
100
AcDbEntity
  8
寸法
 62
     0
 48
50.0
370
    -2
100
AcDbBlockReference
  2
_DOTSMALL
 10
4594.08735343128
 20
6014.614188821911
 30
0.0
 41
100.0
 42
100.0
 43
100.0
 50
270.0
  0
MTEXT
  5
20F6C
330
1FC9F
100
AcDbEntity
  8
寸法
 62
     7
 48
50.0
100
AcDbMText
 10
4494.087353431279
 20
5679.083239979319
 30
0.0
 40
120.0
 41
0.0
 71
     5
 72
     1
  1
\A1;198
  7
STYLE1
 11
0.0000000000000001
 21
1.0
 31
0.0
 73
     1
 44
1.0
1001
ACAD
1000
MTEXTBEGIN
1070
    73
1070
     1
1070
    44
1040
1.0
1070
    74
1070
     0
1000
MTEXTEND
  0
POINT
  5
20F6D
330
1FC9F
100
AcDbEntity
  8
DEFPOINTS
 62
     0
 48
50.0
100
AcDbPoint
 10
5551.600000000007
 20
6212.614188821913
 30
0.0
  0
POINT
  5
20F6E
330
1FC9F
100
AcDbEntity
  8
DEFPOINTS
 62
     0
 48
50.0
100
AcDbPoint
 10
5478.6
 20
6014.614188821911
 30
0.0
  0
POINT
  5
20F6F
330
1FC9F
100
AcDbEntity
  8
DEFPOINTS
 62
     0
 48
50.0
100
AcDbPoint
 10
4594.08735343128
 20
6014.614188821911
 30
0.0
  0
ENDBLK
  5
1FCAB
330
1FC9F
100
AcDbEntity
  8
0
 48
50.0
100
AcDbBlockEnd
  0
BLOCK
  5
1FD04
330
1FCFB
100
AcDbEntity
  8
0
 48
50.0
100
AcDbBlockBegin
  2
*D23
 70
     1
 10
0.0
 20
0.0
 30
0.0
  3
*D23
  1

  0
LINE
  5
20F5D
330
1FCFB
100
AcDbEntity
  8
寸法
 62
     0
 48
50.0
370
    -2
100
AcDbLine
 10
5458.6
 20
7394.614188821911
 30
0.0
 11
4282.144256711883
 21
7394.614188821911
 31
0.0
  0
LINE
  5
20F5E
330
1FCFB
100
AcDbEntity
  8
寸法
 62
     0
 48
50.0
370
    -2
100
AcDbLine
 10
5458.6
 20
6014.614188821911
 30
0.0
 11
4282.144256711882
 21
6014.614188821911
 31
0.0
  0
LINE
  5
20F5F
330
1FCFB
100
AcDbEntity
  8
寸法
 62
     0
 48
50.0
370
    -2
100
AcDbLine
 10
4342.144256711883
 20
7394.614188821911
 30
0.0
 11
4342.144256711882
 21
6014.614188821911
 31
0.0
  0
INSERT
  5
20F60
330
1FCFB
100
AcDbEntity
  8
寸法
 62
     0
 48
50.0
370
    -2
100
AcDbBlockReference
  2
_DOTSMALL
 10
4342.144256711883
 20
7394.614188821911
 30
0.0
 41
100.0
 42
100.0
 43
100.0
 50
90.0
  0
INSERT
  5
20F61
330
1FCFB
100
AcDbEntity
  8
寸法
 62
     0
 48
50.0
370
    -2
100
AcDbBlockReference
  2
_DOTSMALL
 10
4342.144256711882
 20
6014.614188821911
 30
0.0
 41
100.0
 42
100.0
 43
100.0
 50
270.0
  0
MTEXT
  5
20F62
330
1FCFB
100
AcDbEntity
  8
寸法
 62
     7
 48
50.0
100
AcDbMText
 10
4242.14425671188
 20
6704.614188821911
 30
0.0
 40
120.0
 41
0.0
 71
     5
 72
     1
  1
\A1;1380
  7
STYLE1
 11
0.0000000000000001
 21
1.0
 31
0.0
 73
     1
 44
1.0
1001
ACAD
1000
MTEXTBEGIN
1070
    73
1070
     1
1070
    44
1040
1.0
1070
    74
1070
     0
1000
MTEXTEND
  0
POINT
  5
20F63
330
1FCFB
100
AcDbEntity
  8
DEFPOINTS
 62
     0
 48
50.0
100
AcDbPoint
 10
5478.6
 20
7394.614188821911
 30
0.0
  0
POINT
  5
20F64
330
1FCFB
100
AcDbEntity
  8
DEFPOINTS
 62
     0
 48
50.0
100
AcDbPoint
 10
5478.6
 20
6014.614188821911
 30
0.0
  0
POINT
  5
20F65
330
1FCFB
100
AcDbEntity
  8
DEFPOINTS
 62
     0
 48
50.0
100
AcDbPoint
 10
4342.144256711882
 20
6014.614188821911
 30
0.0
  0
ENDBLK
  5
1FD05
330
1FCFB
100
AcDbEntity
  8
0
 48
50.0
100
AcDbBlockEnd
  0
BLOCK
  5
1FD1B
330
1FD10
100
AcDbEntity
  8
0
 48
50.0
100
AcDbBlockBegin
  2
*D24
 70
     1
 10
0.0
 20
0.0
 30
0.0
  3
*D24
  1

  0
LINE
  5
20F53
330
1FD10
100
AcDbEntity
  8
寸法
 62
     0
 48
50.0
370
    -2
100
AcDbLine
 10
5458.6
 20
7394.614188821911
 30
0.0
 11
4534.087353431281
 21
7394.614188821911
 31
0.0
  0
LINE
  5
20F54
330
1FD10
100
AcDbEntity
  8
寸法
 62
     0
 48
50.0
370
    -2
100
AcDbLine
 10
5531.6
 20
7271.614188821911
 30
0.0
 11
4534.087353431281
 21
7271.614188821911
 31
0.0
  0
LINE
  5
20F55
330
1FD10
100
AcDbEntity
  8
寸法
 62
     0
 48
50.0
370
    -2
100
AcDbLine
 10
4594.08735343128
 20
7271.614188821911
 30
0.0
 11
4594.08735343128
 21
7394.614188821911
 31
0.0
  0
LINE
  5
20F56
330
1FD10
100
AcDbEntity
  8
寸法
 62
     0
 48
50.0
370
    -2
100
AcDbLine
 10
4594.08735343128
 20
7394.614188821911
 30
0.0
 11
4594.08735343128
 21
7806.206071913949
 31
0.0
  0
INSERT
  5
20F57
330
1FD10
100
AcDbEntity
  8
寸法
 62
     0
 48
50.0
370
    -2
100
AcDbBlockReference
  2
_DOTSMALL
 10
4594.08735343128
 20
7271.614188821911
 30
0.0
 41
100.0
 42
100.0
 43
100.0
 50
270.0
  0
INSERT
  5
20F58
330
1FD10
100
AcDbEntity
  8
寸法
 62
     0
 48
50.0
370
    -2
100
AcDbBlockReference
  2
_DOTSMALL
 10
4594.08735343128
 20
7394.614188821911
 30
0.0
 41
100.0
 42
100.0
 43
100.0
 50
90.0
  0
MTEXT
  5
20F59
330
1FD10
100
AcDbEntity
  8
寸法
 62
     7
 48
50.0
100
AcDbMText
 10
4494.075542407657
 20
7667.720790539711
 30
0.0
 40
120.0
 41
0.0
 71
     5
 72
     1
  1
\A1;123
  7
STYLE1
 11
0.0000000000000001
 21
1.0
 31
0.0
 73
     1
 44
1.0
1001
ACAD
1000
MTEXTBEGIN
1070
    73
1070
     1
1070
    44
1040
1.0
1070
    74
1070
     0
1000
MTEXTEND
  0
POINT
  5
20F5A
330
1FD10
100
AcDbEntity
  8
DEFPOINTS
 62
     0
 48
50.0
100
AcDbPoint
 10
5478.6
 20
7394.614188821911
 30
0.0
  0
POINT
  5
20F5B
330
1FD10
100
AcDbEntity
  8
DEFPOINTS
 62
     0
 48
50.0
100
AcDbPoint
 10
5551.6
 20
7271.614188821911
 30
0.0
  0
POINT
  5
20F5C
330
1FD10
100
AcDbEntity
  8
DEFPOINTS
 62
     0
 48
50.0
100
AcDbPoint
 10
4594.08735343128
 20
7271.614188821911
 30
0.0
  0
ENDBLK
  5
1FD1C
330
1FD10
100
AcDbEntity
  8
0
 48
50.0
100
AcDbBlockEnd
  0
BLOCK
  5
1FD28
330
1FD1D
100
AcDbEntity
  8
0
 48
50.0
100
AcDbBlockBegin
  2
*D25
 70
     1
 10
0.0
 20
0.0
 30
0.0
  3
*D25
  1

  0
LINE
  5
20F49
330
1FD1D
100
AcDbEntity
  8
寸法
 62
     0
 48
50.0
370
    -2
100
AcDbLine
 10
5601.600000000001
 20
7341.614188821911
 30
0.0
 11
5601.600000000001
 21
8137.223005492158
 31
0.0
  0
LINE
  5
20F4A
330
1FD1D
100
AcDbEntity
  8
寸法
 62
     0
 48
50.0
370
    -2
100
AcDbLine
 10
5478.6
 20
7414.614188821911
 30
0.0
 11
5478.6
 21
8137.223005492158
 31
0.0
  0
LINE
  5
20F4B
330
1FD1D
100
AcDbEntity
  8
寸法
 62
     0
 48
50.0
370
    -2
100
AcDbLine
 10
5601.600000000001
 20
8077.223005492157
 30
0.0
 11
5478.6
 21
8077.223005492157
 31
0.0
  0
LINE
  5
20F4C
330
1FD1D
100
AcDbEntity
  8
寸法
 62
     0
 48
50.0
370
    -2
100
AcDbLine
 10
5478.6
 20
8077.223005492157
 30
0.0
 11
5067.008116907963
 21
8077.223005492157
 31
0.0
  0
INSERT
  5
20F4D
330
1FD1D
100
AcDbEntity
  8
寸法
 62
     0
 48
50.0
370
    -2
100
AcDbBlockReference
  2
_DOTSMALL
 10
5601.600000000001
 20
8077.223005492157
 30
0.0
 41
100.0
 42
100.0
 43
100.0
  0
INSERT
  5
20F4E
330
1FD1D
100
AcDbEntity
  8
寸法
 62
     0
 48
50.0
370
    -2
100
AcDbBlockReference
  2
_DOTSMALL
 10
5478.6
 20
8077.223005492157
 30
0.0
 41
100.0
 42
100.0
 43
100.0
 50
180.0
  0
MTEXT
  5
20F4F
330
1FD1D
100
AcDbEntity
  8
寸法
 62
     7
 48
50.0
100
AcDbMText
 10
5205.493398282202
 20
8177.234816515779
 30
0.0
 40
120.0
 41
0.0
 71
     5
 72
     1
  1
\A1;123
  7
STYLE1
 73
     1
 44
1.0
1001
ACAD
1000
MTEXTBEGIN
1070
    73
1070
     1
1070
    44
1040
1.0
1070
    74
1070
     0
1000
MTEXTEND
  0
POINT
  5
20F50
330
1FD1D
100
AcDbEntity
  8
DEFPOINTS
 62
     0
 48
50.0
100
AcDbPoint
 10
5601.600000000001
 20
7321.614188821911
 30
0.0
  0
POINT
  5
20F51
330
1FD1D
100
AcDbEntity
  8
DEFPOINTS
 62
     0
 48
50.0
100
AcDbPoint
 10
5478.6
 20
7394.614188821911
 30
0.0
  0
POINT
  5
20F52
330
1FD1D
100
AcDbEntity
  8
DEFPOINTS
 62
     0
 48
50.0
100
AcDbPoint
 10
5478.6
 20
8077.223005492157
 30
0.0
  0
ENDBLK
  5
1FD29
330
1FD1D
100
AcDbEntity
  8
0
 48
50.0
100
AcDbBlockEnd
  0
BLOCK
  5
1FD34
330
1FD2A
100
AcDbEntity
  8
0
 48
50.0
100
AcDbBlockBegin
  2
*D26
 70
     1
 10
0.0
 20
0.0
 30
0.0
  3
*D26
  1

  0
LINE
  5
20F40
330
1FD2A
100
AcDbEntity
  8
寸法
 62
     0
 48
50.0
370
    -2
100
AcDbLine
 10
5531.6
 20
7271.614188821911
 30
0.0
 11
4534.087353431281
 21
7271.614188821911
 31
0.0
  0
LINE
  5
20F41
330
1FD2A
100
AcDbEntity
  8
寸法
 62
     0
 48
50.0
370
    -2
100
AcDbLine
 10
5531.600000000008
 20
6212.614188821913
 30
0.0
 11
4534.087353431281
 21
6212.614188821913
 31
0.0
  0
LINE
  5
20F42
330
1FD2A
100
AcDbEntity
  8
寸法
 62
     0
 48
50.0
370
    -2
100
AcDbLine
 10
4594.087353431281
 20
7271.614188821911
 30
0.0
 11
4594.087353431281
 21
6212.614188821913
 31
0.0
  0
INSERT
  5
20F43
330
1FD2A
100
AcDbEntity
  8
寸法
 62
     0
 48
50.0
370
    -2
100
AcDbBlockReference
  2
_DOTSMALL
 10
4594.087353431281
 20
7271.614188821911
 30
0.0
 41
100.0
 42
100.0
 43
100.0
 50
90.0
  0
INSERT
  5
20F44
330
1FD2A
100
AcDbEntity
  8
寸法
 62
     0
 48
50.0
370
    -2
100
AcDbBlockReference
  2
_DOTSMALL
 10
4594.087353431281
 20
6212.614188821913
 30
0.0
 41
100.0
 42
100.0
 43
100.0
 50
270.0
  0
MTEXT
  5
20F45
330
1FD2A
100
AcDbEntity
  8
寸法
 62
     7
 48
50.0
100
AcDbMText
 10
4494.087353431279
 20
6704.614188821911
 30
0.0
 40
120.0
 41
0.0
 71
     5
 72
     1
  1
\A1;1059
  7
STYLE1
 11
0.0000000000000001
 21
1.0
 31
0.0
 73
     1
 44
1.0
1001
ACAD
1000
MTEXTBEGIN
1070
    73
1070
     1
1070
    44
1040
1.0
1070
    74
1070
     0
1000
MTEXTEND
  0
POINT
  5
20F46
330
1FD2A
100
AcDbEntity
  8
DEFPOINTS
 62
     0
 48
50.0
100
AcDbPoint
 10
5551.6
 20
7271.614188821911
 30
0.0
  0
POINT
  5
20F47
330
1FD2A
100
AcDbEntity
  8
DEFPOINTS
 62
     0
 48
50.0
100
AcDbPoint
 10
5551.600000000007
 20
6212.614188821913
 30
0.0
  0
POINT
  5
20F48
330
1FD2A
100
AcDbEntity
  8
DEFPOINTS
 62
     0
 48
50.0
100
AcDbPoint
 10
4594.087353431281
 20
6212.614188821913
 30
0.0
  0
ENDBLK
  5
1FD35
330
1FD2A
100
AcDbEntity
  8
0
 48
50.0
100
AcDbBlockEnd
  0
BLOCK
  5
1FD40
330
1FD36
100
AcDbEntity
  8
0
 48
50.0
100
AcDbBlockBegin
  2
*D27
 70
     1
 10
0.0
 20
0.0
 30
0.0
  3
*D27
  1

  0
LINE
  5
20F37
330
1FD36
100
AcDbEntity
  8
寸法
 62
     0
 48
50.0
370
    -2
100
AcDbLine
 10
6853.600000000007
 20
8097.223005492159
 30
0.0
 11
6853.600000000007
 21
8380.880646915818
 31
0.0
  0
LINE
  5
20F38
330
1FD36
100
AcDbEntity
  8
寸法
 62
     0
 48
50.0
370
    -2
100
AcDbLine
 10
5478.6
 20
7414.614188821911
 30
0.0
 11
5478.6
 21
8380.880646915818
 31
0.0
  0
LINE
  5
20F39
330
1FD36
100
AcDbEntity
  8
寸法
 62
     0
 48
50.0
370
    -2
100
AcDbLine
 10
6853.600000000007
 20
8320.880646915819
 30
0.0
 11
5478.6
 21
8320.880646915819
 31
0.0
  0
INSERT
  5
20F3A
330
1FD36
100
AcDbEntity
  8
寸法
 62
     0
 48
50.0
370
    -2
100
AcDbBlockReference
  2
_DOTSMALL
 10
6853.600000000007
 20
8320.880646915819
 30
0.0
 41
100.0
 42
100.0
 43
100.0
  0
INSERT
  5
20F3B
330
1FD36
100
AcDbEntity
  8
寸法
 62
     0
 48
50.0
370
    -2
100
AcDbBlockReference
  2
_DOTSMALL
 10
5478.6
 20
8320.880646915819
 30
0.0
 41
100.0
 42
100.0
 43
100.0
 50
180.0
  0
MTEXT
  5
20F3C
330
1FD36
100
AcDbEntity
  8
寸法
 62
     7
 48
50.0
100
AcDbMText
 10
6166.100000000004
 20
8420.880646915819
 30
0.0
 40
120.0
 41
0.0
 71
     5
 72
     1
  1
\A1;1375
  7
STYLE1
 73
     1
 44
1.0
1001
ACAD
1000
MTEXTBEGIN
1070
    73
1070
     1
1070
    44
1040
1.0
1070
    74
1070
     0
1000
MTEXTEND
  0
POINT
  5
20F3D
330
1FD36
100
AcDbEntity
  8
DEFPOINTS
 62
     0
 48
50.0
100
AcDbPoint
 10
6853.600000000007
 20
8077.223005492157
 30
0.0
  0
POINT
  5
20F3E
330
1FD36
100
AcDbEntity
  8
DEFPOINTS
 62
     0
 48
50.0
100
AcDbPoint
 10
5478.6
 20
7394.614188821911
 30
0.0
  0
POINT
  5
20F3F
330
1FD36
100
AcDbEntity
  8
DEFPOINTS
 62
     0
 48
50.0
100
AcDbPoint
 10
5478.6
 20
8320.880646915819
 30
0.0
  0
ENDBLK
  5
1FD41
330
1FD36
100
AcDbEntity
  8
0
 48
50.0
100
AcDbBlockEnd
  0
BLOCK
  5
1FD89
330
1FD7F
100
AcDbEntity
  8
0
 48
50.0
100
AcDbBlockBegin
  2
*D28
 70
     1
 10
0.0
 20
0.0
 30
0.0
  3
*D28
  1

  0
LINE
  5
20F2E
330
1FD7F
100
AcDbEntity
  8
寸法
 62
     0
 48
50.0
370
    -2
100
AcDbLine
 10
6735.600000000001
 20
7341.614188821911
 30
0.0
 11
6735.600000000001
 21
8137.223005492158
 31
0.0
  0
LINE
  5
20F2F
330
1FD7F
100
AcDbEntity
  8
寸法
 62
     0
 48
50.0
370
    -2
100
AcDbLine
 10
5601.600000000001
 20
7341.614188821911
 30
0.0
 11
5601.600000000001
 21
8137.223005492158
 31
0.0
  0
LINE
  5
20F30
330
1FD7F
100
AcDbEntity
  8
寸法
 62
     0
 48
50.0
370
    -2
100
AcDbLine
 10
6735.600000000001
 20
8077.223005492157
 30
0.0
 11
5601.600000000001
 21
8077.223005492157
 31
0.0
  0
INSERT
  5
20F31
330
1FD7F
100
AcDbEntity
  8
寸法
 62
     0
 48
50.0
370
    -2
100
AcDbBlockReference
  2
_DOTSMALL
 10
6735.600000000001
 20
8077.223005492157
 30
0.0
 41
100.0
 42
100.0
 43
100.0
  0
INSERT
  5
20F32
330
1FD7F
100
AcDbEntity
  8
寸法
 62
     0
 48
50.0
370
    -2
100
AcDbBlockReference
  2
_DOTSMALL
 10
5601.600000000001
 20
8077.223005492157
 30
0.0
 41
100.0
 42
100.0
 43
100.0
 50
180.0
  0
MTEXT
  5
20F33
330
1FD7F
100
AcDbEntity
  8
寸法
 62
     7
 48
50.0
100
AcDbMText
 10
6168.600000000001
 20
8177.223005492157
 30
0.0
 40
120.0
 41
0.0
 71
     5
 72
     1
  1
\A1;1134
  7
STYLE1
 73
     1
 44
1.0
1001
ACAD
1000
MTEXTBEGIN
1070
    73
1070
     1
1070
    44
1040
1.0
1070
    74
1070
     0
1000
MTEXTEND
  0
POINT
  5
20F34
330
1FD7F
100
AcDbEntity
  8
DEFPOINTS
 62
     0
 48
50.0
100
AcDbPoint
 10
6735.600000000001
 20
7321.614188821911
 30
0.0
  0
POINT
  5
20F35
330
1FD7F
100
AcDbEntity
  8
DEFPOINTS
 62
     0
 48
50.0
100
AcDbPoint
 10
5601.600000000001
 20
7321.614188821911
 30
0.0
  0
POINT
  5
20F36
330
1FD7F
100
AcDbEntity
  8
DEFPOINTS
 62
     0
 48
50.0
100
AcDbPoint
 10
5601.600000000001
 20
8077.223005492157
 30
0.0
  0
ENDBLK
  5
1FD8A
330
1FD7F
100
AcDbEntity
  8
0
 48
50.0
100
AcDbBlockEnd
  0
BLOCK
  5
1FDA1
330
1FD96
100
AcDbEntity
  8
0
 48
50.0
100
AcDbBlockBegin
  2
*D29
 70
     1
 10
0.0
 20
0.0
 30
0.0
  3
*D29
  1

  0
LINE
  5
20F24
330
1FD96
100
AcDbEntity
  8
寸法
 62
     0
 48
50.0
370
    -2
100
AcDbLine
 10
9110.851516111312
 20
6294.614188821928
 30
0.0
 11
9255.649102633087
 21
6294.614188821928
 31
0.0
  0
LINE
  5
20F25
330
1FD96
100
AcDbEntity
  8
寸法
 62
     0
 48
50.0
370
    -2
100
AcDbLine
 10
9110.851516111312
 20
6014.614188821925
 30
0.0
 11
9255.649102633087
 21
6014.614188821925
 31
0.0
  0
LINE
  5
20F26
330
1FD96
100
AcDbEntity
  8
寸法
 62
     0
 48
50.0
370
    -2
100
AcDbLine
 10
9195.649102633089
 20
6294.614188821928
 30
0.0
 11
9195.649102633089
 21
6014.614188821925
 31
0.0
  0
LINE
  5
20F27
330
1FD96
100
AcDbEntity
  8
寸法
 62
     0
 48
50.0
370
    -2
100
AcDbLine
 10
9195.649102633089
 20
6014.614188821925
 30
0.0
 11
9195.649102633089
 21
5578.079740003026
 31
0.0
  0
INSERT
  5
20F28
330
1FD96
100
AcDbEntity
  8
寸法
 62
     0
 48
50.0
370
    -2
100
AcDbBlockReference
  2
_DOTSMALL
 10
9195.649102633089
 20
6294.614188821928
 30
0.0
 41
100.0
 42
100.0
 43
100.0
 50
90.0
  0
INSERT
  5
20F29
330
1FD96
100
AcDbEntity
  8
寸法
 62
     0
 48
50.0
370
    -2
100
AcDbBlockReference
  2
_DOTSMALL
 10
9195.649102633089
 20
6014.614188821925
 30
0.0
 41
100.0
 42
100.0
 43
100.0
 50
270.0
  0
MTEXT
  5
20F2A
330
1FD96
100
AcDbEntity
  8
寸法
 62
     7
 48
50.0
100
AcDbMText
 10
9095.637291609465
 20
5727.650606144759
 30
0.0
 40
120.0
 41
0.0
 71
     5
 72
     1
  1
\A1;280
  7
STYLE1
 11
0.0000000000000001
 21
1.0
 31
0.0
 73
     1
 44
1.0
1001
ACAD
1000
MTEXTBEGIN
1070
    73
1070
     1
1070
    44
1040
1.0
1070
    74
1070
     0
1000
MTEXTEND
  0
POINT
  5
20F2B
330
1FD96
100
AcDbEntity
  8
DEFPOINTS
 62
     0
 48
50.0
100
AcDbPoint
 10
9090.851516111312
 20
6294.614188821928
 30
0.0
  0
POINT
  5
20F2C
330
1FD96
100
AcDbEntity
  8
DEFPOINTS
 62
     0
 48
50.0
100
AcDbPoint
 10
9090.851516111312
 20
6014.614188821925
 30
0.0
  0
POINT
  5
20F2D
330
1FD96
100
AcDbEntity
  8
DEFPOINTS
 62
     0
 48
50.0
100
AcDbPoint
 10
9195.649102633089
 20
6014.614188821925
 30
0.0
  0
ENDBLK
  5
1FDA2
330
1FD96
100
AcDbEntity
  8
0
 48
50.0
100
AcDbBlockEnd
  0
BLOCK
  5
1FDF3
330
1FDE9
100
AcDbEntity
  8
0
 48
50.0
100
AcDbBlockBegin
  2
*D30
 70
     1
 10
0.0
 20
0.0
 30
0.0
  3
*D30
  1

  0
LINE
  5
20F1B
330
1FDE9
100
AcDbEntity
  8
寸法
 62
     0
 48
50.0
370
    -2
100
AcDbLine
 10
10968.6
 20
7414.614188821911
 30
0.0
 11
10968.6
 21
8380.880646915818
 31
0.0
  0
LINE
  5
20F1C
330
1FDE9
100
AcDbEntity
  8
寸法
 62
     0
 48
50.0
370
    -2
100
AcDbLine
 10
9593.600000000007
 20
8097.223005492159
 30
0.0
 11
9593.600000000007
 21
8380.880646915818
 31
0.0
  0
LINE
  5
20F1D
330
1FDE9
100
AcDbEntity
  8
寸法
 62
     0
 48
50.0
370
    -2
100
AcDbLine
 10
10968.6
 20
8320.880646915819
 30
0.0
 11
9593.600000000007
 21
8320.880646915819
 31
0.0
  0
INSERT
  5
20F1E
330
1FDE9
100
AcDbEntity
  8
寸法
 62
     0
 48
50.0
370
    -2
100
AcDbBlockReference
  2
_DOTSMALL
 10
10968.6
 20
8320.880646915819
 30
0.0
 41
100.0
 42
100.0
 43
100.0
  0
INSERT
  5
20F1F
330
1FDE9
100
AcDbEntity
  8
寸法
 62
     0
 48
50.0
370
    -2
100
AcDbBlockReference
  2
_DOTSMALL
 10
9593.600000000007
 20
8320.880646915819
 30
0.0
 41
100.0
 42
100.0
 43
100.0
 50
180.0
  0
MTEXT
  5
20F20
330
1FDE9
100
AcDbEntity
  8
寸法
 62
     7
 48
50.0
100
AcDbMText
 10
10346.02212135149
 20
8420.880646915819
 30
0.0
 40
120.0
 41
0.0
 71
     5
 72
     1
  1
\A1;1375
  7
STYLE1
 73
     1
 44
1.0
1001
ACAD
1000
MTEXTBEGIN
1070
    73
1070
     1
1070
    44
1040
1.0
1070
    74
1070
     0
1000
MTEXTEND
  0
POINT
  5
20F21
330
1FDE9
100
AcDbEntity
  8
DEFPOINTS
 62
     0
 48
50.0
100
AcDbPoint
 10
10968.6
 20
7394.614188821911
 30
0.0
  0
POINT
  5
20F22
330
1FDE9
100
AcDbEntity
  8
DEFPOINTS
 62
     0
 48
50.0
100
AcDbPoint
 10
9593.600000000007
 20
8077.223005492157
 30
0.0
  0
POINT
  5
20F23
330
1FDE9
100
AcDbEntity
  8
DEFPOINTS
 62
     0
 48
50.0
100
AcDbPoint
 10
9593.600000000007
 20
8320.880646915819
 30
0.0
  0
ENDBLK
  5
1FDF4
330
1FDE9
100
AcDbEntity
  8
0
 48
50.0
100
AcDbBlockEnd
  0
BLOCK
  5
1FDFE
330
1FDF5
100
AcDbEntity
  8
0
 48
50.0
100
AcDbBlockBegin
  2
*D31
 70
     1
 10
0.0
 20
0.0
 30
0.0
  3
*D31
  1

  0
LINE
  5
20F12
330
1FDF5
100
AcDbEntity
  8
寸法
 62
     0
 48
50.0
370
    -2
100
AcDbLine
 10
10845.6
 20
7341.614188821911
 30
0.0
 11
10845.6
 21
8137.223005492158
 31
0.0
  0
LINE
  5
20F13
330
1FDF5
100
AcDbEntity
  8
寸法
 62
     0
 48
50.0
370
    -2
100
AcDbLine
 10
9475.6
 20
7341.614188821911
 30
0.0
 11
9475.6
 21
8137.223005492158
 31
0.0
  0
LINE
  5
20F14
330
1FDF5
100
AcDbEntity
  8
寸法
 62
     0
 48
50.0
370
    -2
100
AcDbLine
 10
10845.6
 20
8077.223005492157
 30
0.0
 11
9475.6
 21
8077.223005492157
 31
0.0
  0
INSERT
  5
20F15
330
1FDF5
100
AcDbEntity
  8
寸法
 62
     0
 48
50.0
370
    -2
100
AcDbBlockReference
  2
_DOTSMALL
 10
10845.6
 20
8077.223005492157
 30
0.0
 41
100.0
 42
100.0
 43
100.0
  0
INSERT
  5
20F16
330
1FDF5
100
AcDbEntity
  8
寸法
 62
     0
 48
50.0
370
    -2
100
AcDbBlockReference
  2
_DOTSMALL
 10
9475.6
 20
8077.223005492157
 30
0.0
 41
100.0
 42
100.0
 43
100.0
 50
180.0
  0
MTEXT
  5
20F17
330
1FDF5
100
AcDbEntity
  8
寸法
 62
     7
 48
50.0
100
AcDbMText
 10
10160.6
 20
8177.223005492157
 30
0.0
 40
120.0
 41
0.0
 71
     5
 72
     1
  1
\A1;1370
  7
STYLE1
 73
     1
 44
1.0
1001
ACAD
1000
MTEXTBEGIN
1070
    73
1070
     1
1070
    44
1040
1.0
1070
    74
1070
     0
1000
MTEXTEND
  0
POINT
  5
20F18
330
1FDF5
100
AcDbEntity
  8
DEFPOINTS
 62
     0
 48
50.0
100
AcDbPoint
 10
10845.6
 20
7321.614188821911
 30
0.0
  0
POINT
  5
20F19
330
1FDF5
100
AcDbEntity
  8
DEFPOINTS
 62
     0
 48
50.0
100
AcDbPoint
 10
9475.6
 20
7321.614188821911
 30
0.0
  0
POINT
  5
20F1A
330
1FDF5
100
AcDbEntity
  8
DEFPOINTS
 62
     0
 48
50.0
100
AcDbPoint
 10
9475.6
 20
8077.223005492157
 30
0.0
  0
ENDBLK
  5
1FDFF
330
1FDF5
100
AcDbEntity
  8
0
 48
50.0
100
AcDbBlockEnd
  0
BLOCK
  5
1FE09
330
1FE00
100
AcDbEntity
  8
0
 48
50.0
100
AcDbBlockBegin
  2
*D32
 70
     1
 10
0.0
 20
0.0
 30
0.0
  3
*D32
  1

  0
LINE
  5
22ACD
330
1FE00
100
AcDbEntity
  8
寸法
 62
     0
 48
50.0
370
    -2
100
AcDbLine
 10
7608.600000000008
 20
6741.614188821912
 30
0.0
 11
7960.202738780329
 21
6741.614188821912
 31
0.0
  0
LINE
  5
22ACE
330
1FE00
100
AcDbEntity
  8
寸法
 62
     0
 48
50.0
370
    -2
100
AcDbLine
 10
7993.6
 20
7394.614188821911
 30
0.0
 11
7840.202738780329
 21
7394.614188821911
 31
0.0
  0
LINE
  5
22ACF
330
1FE00
100
AcDbEntity
  8
寸法
 62
     0
 48
50.0
370
    -2
100
AcDbLine
 10
7900.202738780328
 20
6741.614188821912
 30
0.0
 11
7900.202738780328
 21
7394.614188821911
 31
0.0
  0
INSERT
  5
22AD0
330
1FE00
100
AcDbEntity
  8
寸法
 62
     0
 48
50.0
370
    -2
100
AcDbBlockReference
  2
_DOTSMALL
 10
7900.202738780328
 20
6741.614188821912
 30
0.0
 41
100.0
 42
100.0
 43
100.0
 50
270.0
  0
INSERT
  5
22AD1
330
1FE00
100
AcDbEntity
  8
寸法
 62
     0
 48
50.0
370
    -2
100
AcDbBlockReference
  2
_DOTSMALL
 10
7900.202738780328
 20
7394.614188821911
 30
0.0
 41
100.0
 42
100.0
 43
100.0
 50
90.0
  0
MTEXT
  5
22AD2
330
1FE00
100
AcDbEntity
  8
寸法
 62
     7
 48
50.0
100
AcDbMText
 10
7800.202738780327
 20
6984.15157460513
 30
0.0
 40
120.0
 41
0.0
 71
     5
 72
     1
  1
\A1;653
  7
STYLE1
 11
0.0000000000000001
 21
1.0
 31
0.0
 73
     1
 44
1.0
1001
ACAD
1000
MTEXTBEGIN
1070
    73
1070
     1
1070
    44
1040
1.0
1070
    74
1070
     0
1000
MTEXTEND
  0
POINT
  5
22AD3
330
1FE00
100
AcDbEntity
  8
DEFPOINTS
 62
     0
 48
50.0
100
AcDbPoint
 10
7588.600000000008
 20
6741.614188821912
 30
0.0
  0
POINT
  5
22AD4
330
1FE00
100
AcDbEntity
  8
DEFPOINTS
 62
     0
 48
50.0
100
AcDbPoint
 10
8013.600000000002
 20
7394.614188821911
 30
0.0
  0
POINT
  5
22AD5
330
1FE00
100
AcDbEntity
  8
DEFPOINTS
 62
     0
 48
50.0
100
AcDbPoint
 10
7900.202738780328
 20
7394.614188821911
 30
0.0
  0
ENDBLK
  5
1FE0A
330
1FE00
100
AcDbEntity
  8
0
 48
50.0
100
AcDbBlockEnd
  0
BLOCK
  5
1FE15
330
1FE0B
100
AcDbEntity
  8
0
 48
50.0
100
AcDbBlockBegin
  2
*D33
 70
     1
 10
0.0
 20
0.0
 30
0.0
  3
*D33
  1

  0
LINE
  5
22ABB
330
1FE0B
100
AcDbEntity
  8
寸法
 62
     0
 48
50.0
370
    -2
100
AcDbLine
 10
7993.6
 20
6014.614188821921
 30
0.0
 11
7840.202738780326
 21
6014.614188821921
 31
0.0
  0
LINE
  5
22ABC
330
1FE0B
100
AcDbEntity
  8
寸法
 62
     0
 48
50.0
370
    -2
100
AcDbLine
 10
7608.600000000008
 20
6741.614188821912
 30
0.0
 11
7960.202738780326
 21
6741.614188821912
 31
0.0
  0
LINE
  5
22ABD
330
1FE0B
100
AcDbEntity
  8
寸法
 62
     0
 48
50.0
370
    -2
100
AcDbLine
 10
7900.202738780325
 20
6014.614188821921
 30
0.0
 11
7900.202738780326
 21
6741.614188821912
 31
0.0
  0
INSERT
  5
22ABE
330
1FE0B
100
AcDbEntity
  8
寸法
 62
     0
 48
50.0
370
    -2
100
AcDbBlockReference
  2
_DOTSMALL
 10
7900.202738780325
 20
6014.614188821921
 30
0.0
 41
100.0
 42
100.0
 43
100.0
 50
270.0
  0
INSERT
  5
22ABF
330
1FE0B
100
AcDbEntity
  8
寸法
 62
     0
 48
50.0
370
    -2
100
AcDbBlockReference
  2
_DOTSMALL
 10
7900.202738780326
 20
6741.614188821912
 30
0.0
 41
100.0
 42
100.0
 43
100.0
 50
90.0
  0
MTEXT
  5
22AC0
330
1FE0B
100
AcDbEntity
  8
寸法
 62
     7
 48
50.0
100
AcDbMText
 10
7800.190927756704
 20
6465.903873811521
 30
0.0
 40
120.0
 41
0.0
 71
     5
 72
     1
  1
\A1;727
  7
STYLE1
 11
0.0000000000000001
 21
1.0
 31
0.0
 73
     1
 44
1.0
1001
ACAD
1000
MTEXTBEGIN
1070
    73
1070
     1
1070
    44
1040
1.0
1070
    74
1070
     0
1000
MTEXTEND
  0
POINT
  5
22AC1
330
1FE0B
100
AcDbEntity
  8
DEFPOINTS
 62
     0
 48
50.0
100
AcDbPoint
 10
8013.600000000002
 20
6014.614188821921
 30
0.0
  0
POINT
  5
22AC2
330
1FE0B
100
AcDbEntity
  8
DEFPOINTS
 62
     0
 48
50.0
100
AcDbPoint
 10
7588.600000000008
 20
6741.614188821912
 30
0.0
  0
POINT
  5
22AC3
330
1FE0B
100
AcDbEntity
  8
DEFPOINTS
 62
     0
 48
50.0
100
AcDbPoint
 10
7900.202738780326
 20
6741.614188821912
 30
0.0
  0
ENDBLK
  5
1FE16
330
1FE0B
100
AcDbEntity
  8
0
 48
50.0
100
AcDbBlockEnd
  0
BLOCK
  5
1FE22
330
1FE17
100
AcDbEntity
  8
0
 48
50.0
100
AcDbBlockBegin
  2
*D34
 70
     1
 10
0.0
 20
0.0
 30
0.0
  3
*D34
  1

  0
LINE
  5
20EF6
330
1FE17
100
AcDbEntity
  8
寸法
 62
     0
 48
50.0
370
    -2
100
AcDbLine
 10
9283.779728401338
 20
7394.614188821911
 30
0.0
 11
9135.64910263309
 21
7394.614188821911
 31
0.0
  0
LINE
  5
20EF7
330
1FE17
100
AcDbEntity
  8
寸法
 62
     0
 48
50.0
370
    -2
100
AcDbLine
 10
9325.600000000006
 20
7194.614188821869
 30
0.0
 11
9135.64910263309
 21
7194.614188821869
 31
0.0
  0
LINE
  5
20EF8
330
1FE17
100
AcDbEntity
  8
寸法
 62
     0
 48
50.0
370
    -2
100
AcDbLine
 10
9195.649102633089
 20
7194.614188821869
 30
0.0
 11
9195.649102633089
 21
7394.614188821911
 31
0.0
  0
LINE
  5
20EF9
330
1FE17
100
AcDbEntity
  8
寸法
 62
     0
 48
50.0
370
    -2
100
AcDbLine
 10
9195.649102633089
 20
7394.614188821911
 30
0.0
 11
9195.649102633089
 21
7831.148637640808
 31
0.0
  0
INSERT
  5
20EFA
330
1FE17
100
AcDbEntity
  8
寸法
 62
     0
 48
50.0
370
    -2
100
AcDbBlockReference
  2
_DOTSMALL
 10
9195.649102633089
 20
7194.614188821869
 30
0.0
 41
100.0
 42
100.0
 43
100.0
 50
270.0
  0
INSERT
  5
20EFB
330
1FE17
100
AcDbEntity
  8
寸法
 62
     0
 48
50.0
370
    -2
100
AcDbBlockReference
  2
_DOTSMALL
 10
9195.649102633089
 20
7394.614188821911
 30
0.0
 41
100.0
 42
100.0
 43
100.0
 50
90.0
  0
MTEXT
  5
20EFC
330
1FE17
100
AcDbEntity
  8
寸法
 62
     7
 48
50.0
100
AcDbMText
 10
9095.637291609467
 20
7681.577771499077
 30
0.0
 40
120.0
 41
0.0
 71
     5
 72
     1
  1
\A1;200
  7
STYLE1
 11
0.0000000000000001
 21
1.0
 31
0.0
 73
     1
 44
1.0
1001
ACAD
1000
MTEXTBEGIN
1070
    73
1070
     1
1070
    44
1040
1.0
1070
    74
1070
     0
1000
MTEXTEND
  0
POINT
  5
20EFD
330
1FE17
100
AcDbEntity
  8
DEFPOINTS
 62
     0
 48
50.0
100
AcDbPoint
 10
9303.779728401337
 20
7394.614188821911
 30
0.0
  0
POINT
  5
20EFE
330
1FE17
100
AcDbEntity
  8
DEFPOINTS
 62
     0
 48
50.0
100
AcDbPoint
 10
9345.600000000008
 20
7194.614188821869
 30
0.0
  0
POINT
  5
20EFF
330
1FE17
100
AcDbEntity
  8
DEFPOINTS
 62
     0
 48
50.0
100
AcDbPoint
 10
9195.649102633089
 20
7194.614188821869
 30
0.0
  0
ENDBLK
  5
1FE23
330
1FE17
100
AcDbEntity
  8
0
 48
50.0
100
AcDbBlockEnd
  0
BLOCK
  5
1FE2F
330
1FE24
100
AcDbEntity
  8
0
 48
50.0
100
AcDbBlockBegin
  2
*D35
 70
     1
 10
0.0
 20
0.0
 30
0.0
  3
*D35
  1

  0
LINE
  5
22FAE
330
1FE24
100
AcDbEntity
  8
寸法
 62
     0
 48
50.0
370
    -2
100
AcDbLine
 10
10968.6
 20
6824.614188821918
 30
0.0
 11
10968.6
 21
6996.905521321536
 31
0.0
  0
LINE
  5
22FAF
330
1FE24
100
AcDbEntity
  8
寸法
 62
     0
 48
50.0
370
    -2
100
AcDbLine
 10
10848.6
 20
6824.614188821918
 30
0.0
 11
10848.6
 21
6996.905521321536
 31
0.0
  0
LINE
  5
22FB0
330
1FE24
100
AcDbEntity
  8
寸法
 62
     0
 48
50.0
370
    -2
100
AcDbLine
 10
10848.6
 20
6936.905521321538
 30
0.0
 11
10968.6
 21
6936.905521321538
 31
0.0
  0
LINE
  5
22FB1
330
1FE24
100
AcDbEntity
  8
寸法
 62
     0
 48
50.0
370
    -2
100
AcDbLine
 10
10968.6
 20
6936.905521321538
 30
0.0
 11
11404.94285283459
 21
6936.905521321538
 31
0.0
  0
INSERT
  5
22FB2
330
1FE24
100
AcDbEntity
  8
寸法
 62
     0
 48
50.0
370
    -2
100
AcDbBlockReference
  2
_DOTSMALL
 10
10848.6
 20
6936.905521321538
 30
0.0
 41
100.0
 42
100.0
 43
100.0
 50
180.0
  0
INSERT
  5
22FB3
330
1FE24
100
AcDbEntity
  8
寸法
 62
     0
 48
50.0
370
    -2
100
AcDbBlockReference
  2
_DOTSMALL
 10
10968.6
 20
6936.905521321538
 30
0.0
 41
100.0
 42
100.0
 43
100.0
  0
MTEXT
  5
22FB4
330
1FE24
100
AcDbEntity
  8
寸法
 62
     7
 48
50.0
100
AcDbMText
 10
11268.8956087401
 20
7036.917332345159
 30
0.0
 40
120.0
 41
0.0
 71
     5
 72
     1
  1
\A1;120
  7
STYLE1
 73
     1
 44
1.0
1001
ACAD
1000
MTEXTBEGIN
1070
    73
1070
     1
1070
    44
1040
1.0
1070
    74
1070
     0
1000
MTEXTEND
  0
POINT
  5
22FB5
330
1FE24
100
AcDbEntity
  8
DEFPOINTS
 62
     0
 48
50.0
100
AcDbPoint
 10
10968.6
 20
6804.614188821918
 30
0.0
  0
POINT
  5
22FB6
330
1FE24
100
AcDbEntity
  8
DEFPOINTS
 62
     0
 48
50.0
100
AcDbPoint
 10
10848.6
 20
6804.614188821918
 30
0.0
  0
POINT
  5
22FB7
330
1FE24
100
AcDbEntity
  8
DEFPOINTS
 62
     0
 48
50.0
100
AcDbPoint
 10
10848.6
 20
6936.905521321538
 30
0.0
  0
ENDBLK
  5
1FE30
330
1FE24
100
AcDbEntity
  8
0
 48
50.0
100
AcDbBlockEnd
  0
BLOCK
  5
1FE3C
330
1FE31
100
AcDbEntity
  8
0
 48
50.0
100
AcDbBlockBegin
  2
*D36
 70
     1
 10
0.0
 20
0.0
 30
0.0
  3
*D36
  1

  0
LINE
  5
20EE2
330
1FE31
100
AcDbEntity
  8
寸法
 62
     0
 48
50.0
370
    -2
100
AcDbLine
 10
10968.6
 20
7414.614188821911
 30
0.0
 11
10968.6
 21
8137.223005492158
 31
0.0
  0
LINE
  5
20EE3
330
1FE31
100
AcDbEntity
  8
寸法
 62
     0
 48
50.0
370
    -2
100
AcDbLine
 10
10845.6
 20
7341.614188821911
 30
0.0
 11
10845.6
 21
8137.223005492158
 31
0.0
  0
LINE
  5
20EE4
330
1FE31
100
AcDbEntity
  8
寸法
 62
     0
 48
50.0
370
    -2
100
AcDbLine
 10
10845.6
 20
8077.223005492157
 30
0.0
 11
10968.6
 21
8077.223005492157
 31
0.0
  0
LINE
  5
20EE5
330
1FE31
100
AcDbEntity
  8
寸法
 62
     0
 48
50.0
370
    -2
100
AcDbLine
 10
10968.6
 20
8077.223005492157
 30
0.0
 11
11380.19188309203
 21
8077.223005492157
 31
0.0
  0
INSERT
  5
20EE6
330
1FE31
100
AcDbEntity
  8
寸法
 62
     0
 48
50.0
370
    -2
100
AcDbBlockReference
  2
_DOTSMALL
 10
10845.6
 20
8077.223005492157
 30
0.0
 41
100.0
 42
100.0
 43
100.0
 50
180.0
  0
INSERT
  5
20EE7
330
1FE31
100
AcDbEntity
  8
寸法
 62
     0
 48
50.0
370
    -2
100
AcDbBlockReference
  2
_DOTSMALL
 10
10968.6
 20
8077.223005492157
 30
0.0
 41
100.0
 42
100.0
 43
100.0
  0
MTEXT
  5
20EE8
330
1FE31
100
AcDbEntity
  8
寸法
 62
     7
 48
50.0
100
AcDbMText
 10
11241.7066017178
 20
8177.234816515779
 30
0.0
 40
120.0
 41
0.0
 71
     5
 72
     1
  1
\A1;123
  7
STYLE1
 73
     1
 44
1.0
1001
ACAD
1000
MTEXTBEGIN
1070
    73
1070
     1
1070
    44
1040
1.0
1070
    74
1070
     0
1000
MTEXTEND
  0
POINT
  5
20EE9
330
1FE31
100
AcDbEntity
  8
DEFPOINTS
 62
     0
 48
50.0
100
AcDbPoint
 10
10968.6
 20
7394.614188821911
 30
0.0
  0
POINT
  5
20EEA
330
1FE31
100
AcDbEntity
  8
DEFPOINTS
 62
     0
 48
50.0
100
AcDbPoint
 10
10845.6
 20
7321.614188821911
 30
0.0
  0
POINT
  5
20EEB
330
1FE31
100
AcDbEntity
  8
DEFPOINTS
 62
     0
 48
50.0
100
AcDbPoint
 10
10845.6
 20
8077.223005492157
 30
0.0
  0
ENDBLK
  5
1FE3D
330
1FE31
100
AcDbEntity
  8
0
 48
50.0
100
AcDbBlockEnd
  0
BLOCK
  5
20346
330
2033A
100
AcDbEntity
  8
0
 48
50.0
100
AcDbBlockBegin
  2
*D37
 70
     1
 10
0.0
 20
0.0
 30
0.0
  3
*D37
  1

  0
LINE
  5
20ED7
330
2033A
100
AcDbEntity
  8
寸法
 62
     0
 48
50.0
370
    -2
100
AcDbLine
 10
10968.6
 20
7414.614188821911
 30
0.0
 11
10968.6
 21
8612.834510880832
 31
0.0
  0
LINE
  5
20ED8
330
2033A
100
AcDbEntity
  8
寸法
 62
     0
 48
50.0
370
    -2
100
AcDbLine
 10
11013.6
 20
8097.223005492159
 30
0.0
 11
11013.6
 21
8612.834510880832
 31
0.0
  0
LINE
  5
20ED9
330
2033A
100
AcDbEntity
  8
寸法
 62
     0
 48
50.0
370
    -2
100
AcDbLine
 10
10968.6
 20
8552.834510880833
 30
0.0
 11
10868.6
 21
8552.834510880833
 31
0.0
  0
LINE
  5
20EDA
330
2033A
100
AcDbEntity
  8
寸法
 62
     0
 48
50.0
370
    -2
100
AcDbLine
 10
11013.6
 20
8552.834510880833
 30
0.0
 11
11350.94924240492
 21
8552.834510880833
 31
0.0
  0
LINE
  5
20EDB
330
2033A
100
AcDbEntity
  8
寸法
 62
     0
 48
50.0
370
    -2
100
AcDbLine
 10
10968.6
 20
8552.834510880833
 30
0.0
 11
11013.6
 21
8552.834510880833
 31
0.0
  0
INSERT
  5
20EDC
330
2033A
100
AcDbEntity
  8
寸法
 62
     0
 48
50.0
370
    -2
100
AcDbBlockReference
  2
_DOTSMALL
 10
10968.6
 20
8552.834510880833
 30
0.0
 41
100.0
 42
100.0
 43
100.0
  0
INSERT
  5
20EDD
330
2033A
100
AcDbEntity
  8
寸法
 62
     0
 48
50.0
370
    -2
100
AcDbBlockReference
  2
_DOTSMALL
 10
11013.6
 20
8552.834510880833
 30
0.0
 41
100.0
 42
100.0
 43
100.0
 50
180.0
  0
MTEXT
  5
20EDE
330
2033A
100
AcDbEntity
  8
寸法
 62
     7
 48
50.0
100
AcDbMText
 10
11284.77462120246
 20
8652.834510880833
 30
0.0
 40
120.0
 41
0.0
 71
     5
 72
     1
  1
\A1;a
  7
STYLE1
 73
     1
 44
1.0
1001
ACAD
1000
MTEXTBEGIN
1070
    73
1070
     1
1070
    44
1040
1.0
1070
    74
1070
     0
1000
MTEXTEND
  0
POINT
  5
20EDF
330
2033A
100
AcDbEntity
  8
DEFPOINTS
 62
     0
 48
50.0
100
AcDbPoint
 10
10968.6
 20
7394.614188821911
 30
0.0
  0
POINT
  5
20EE0
330
2033A
100
AcDbEntity
  8
DEFPOINTS
 62
     0
 48
50.0
100
AcDbPoint
 10
11013.6
 20
8077.223005492157
 30
0.0
  0
POINT
  5
20EE1
330
2033A
100
AcDbEntity
  8
DEFPOINTS
 62
     0
 48
50.0
100
AcDbPoint
 10
11013.6
 20
8552.834510880833
 30
0.0
  0
ENDBLK
  5
20347
330
2033A
100
AcDbEntity
  8
0
 48
50.0
100
AcDbBlockEnd
  0
BLOCK
  5
203D0
330
203C4
100
AcDbEntity
  8
0
 48
50.0
100
AcDbBlockBegin
  2
*D38
 70
     1
 10
0.0
 20
0.0
 30
0.0
  3
*D38
  1

  0
LINE
  5
20ECC
330
203C4
100
AcDbEntity
  8
寸法
 62
     0
 48
50.0
370
    -2
100
AcDbLine
 10
4574.08735343128
 20
7469.614188821913
 30
0.0
 11
4282.144256711883
 21
7469.614188821913
 31
0.0
  0
LINE
  5
20ECD
330
203C4
100
AcDbEntity
  8
寸法
 62
     0
 48
50.0
370
    -2
100
AcDbLine
 10
5458.599999999998
 20
7394.614188821911
 30
0.0
 11
4282.144256711883
 21
7394.614188821911
 31
0.0
  0
LINE
  5
20ECE
330
203C4
100
AcDbEntity
  8
寸法
 62
     0
 48
50.0
370
    -2
100
AcDbLine
 10
4342.144256711883
 20
7469.614188821913
 30
0.0
 11
4342.144256711883
 21
7569.614188821913
 31
0.0
  0
LINE
  5
20ECF
330
203C4
100
AcDbEntity
  8
寸法
 62
     0
 48
50.0
370
    -2
100
AcDbLine
 10
4342.144256711883
 20
7394.614188821911
 30
0.0
 11
4342.144256711883
 21
7294.614188821912
 31
0.0
  0
LINE
  5
20ED0
330
203C4
100
AcDbEntity
  8
寸法
 62
     0
 48
50.0
370
    -2
100
AcDbLine
 10
4342.144256711883
 20
7469.614188821913
 30
0.0
 11
4342.144256711883
 21
7394.614188821911
 31
0.0
  0
INSERT
  5
20ED1
330
203C4
100
AcDbEntity
  8
寸法
 62
     0
 48
50.0
370
    -2
100
AcDbBlockReference
  2
_DOTSMALL
 10
4342.144256711883
 20
7469.614188821913
 30
0.0
 41
100.0
 42
100.0
 43
100.0
 50
270.0
  0
INSERT
  5
20ED2
330
203C4
100
AcDbEntity
  8
寸法
 62
     0
 48
50.0
370
    -2
100
AcDbBlockReference
  2
_DOTSMALL
 10
4342.144256711883
 20
7394.614188821911
 30
0.0
 41
100.0
 42
100.0
 43
100.0
 50
90.0
  0
MTEXT
  5
20ED3
330
203C4
100
AcDbEntity
  8
寸法
 62
     7
 48
50.0
100
AcDbMText
 10
4242.144256711882
 20
7432.114188821913
 30
0.0
 40
120.0
 41
0.0
 71
     5
 72
     1
  1
\A1;c
  7
STYLE1
 11
0.0000000000000001
 21
1.0
 31
0.0
 73
     1
 44
1.0
1001
ACAD
1000
MTEXTBEGIN
1070
    73
1070
     1
1070
    44
1040
1.0
1070
    74
1070
     0
1000
MTEXTEND
  0
POINT
  5
20ED4
330
203C4
100
AcDbEntity
  8
DEFPOINTS
 62
     0
 48
50.0
100
AcDbPoint
 10
4594.087353431279
 20
7469.614188821913
 30
0.0
  0
POINT
  5
20ED5
330
203C4
100
AcDbEntity
  8
DEFPOINTS
 62
     0
 48
50.0
100
AcDbPoint
 10
5478.599999999999
 20
7394.614188821911
 30
0.0
  0
POINT
  5
20ED6
330
203C4
100
AcDbEntity
  8
DEFPOINTS
 62
     0
 48
50.0
100
AcDbPoint
 10
4342.144256711883
 20
7394.614188821911
 30
0.0
  0
ENDBLK
  5
203D1
330
203C4
100
AcDbEntity
  8
0
 48
50.0
100
AcDbBlockEnd
  0
BLOCK
  5
203EB
330
203DF
100
AcDbEntity
  8
0
 48
50.0
100
AcDbBlockBegin
  2
*D39
 70
     1
 10
0.0
 20
0.0
 30
0.0
  3
*D39
  1

  0
LINE
  5
20EC1
330
203DF
100
AcDbEntity
  8
寸法
 62
     0
 48
50.0
370
    -2
100
AcDbLine
 10
5433.600000000001
 20
8097.223005492159
 30
0.0
 11
5433.600000000001
 21
8612.834510880832
 31
0.0
  0
LINE
  5
20EC2
330
203DF
100
AcDbEntity
  8
寸法
 62
     0
 48
50.0
370
    -2
100
AcDbLine
 10
5478.599999999999
 20
7414.614188821912
 30
0.0
 11
5478.599999999999
 21
8612.834510880832
 31
0.0
  0
LINE
  5
20EC3
330
203DF
100
AcDbEntity
  8
寸法
 62
     0
 48
50.0
370
    -2
100
AcDbLine
 10
5478.599999999999
 20
8552.834510880833
 30
0.0
 11
5578.599999999998
 21
8552.834510880833
 31
0.0
  0
LINE
  5
20EC4
330
203DF
100
AcDbEntity
  8
寸法
 62
     0
 48
50.0
370
    -2
100
AcDbLine
 10
5433.600000000001
 20
8552.834510880833
 30
0.0
 11
5096.250757595083
 21
8552.834510880833
 31
0.0
  0
LINE
  5
20EC5
330
203DF
100
AcDbEntity
  8
寸法
 62
     0
 48
50.0
370
    -2
100
AcDbLine
 10
5478.599999999999
 20
8552.834510880833
 30
0.0
 11
5433.600000000001
 21
8552.834510880833
 31
0.0
  0
INSERT
  5
20EC6
330
203DF
100
AcDbEntity
  8
寸法
 62
     0
 48
50.0
370
    -2
100
AcDbBlockReference
  2
_DOTSMALL
 10
5478.599999999999
 20
8552.834510880833
 30
0.0
 41
100.0
 42
100.0
 43
100.0
 50
180.0
  0
INSERT
  5
20EC7
330
203DF
100
AcDbEntity
  8
寸法
 62
     0
 48
50.0
370
    -2
100
AcDbBlockReference
  2
_DOTSMALL
 10
5433.600000000001
 20
8552.834510880833
 30
0.0
 41
100.0
 42
100.0
 43
100.0
  0
MTEXT
  5
20EC8
330
203DF
100
AcDbEntity
  8
寸法
 62
     7
 48
50.0
100
AcDbMText
 10
5162.425378797541
 20
8652.834510880833
 30
0.0
 40
120.0
 41
0.0
 71
     5
 72
     1
  1
\A1;a
  7
STYLE1
 73
     1
 44
1.0
1001
ACAD
1000
MTEXTBEGIN
1070
    73
1070
     1
1070
    44
1040
1.0
1070
    74
1070
     0
1000
MTEXTEND
  0
POINT
  5
20EC9
330
203DF
100
AcDbEntity
  8
DEFPOINTS
 62
     0
 48
50.0
100
AcDbPoint
 10
5433.600000000001
 20
8077.223005492157
 30
0.0
  0
POINT
  5
20ECA
330
203DF
100
AcDbEntity
  8
DEFPOINTS
 62
     0
 48
50.0
100
AcDbPoint
 10
5478.599999999999
 20
7394.614188821911
 30
0.0
  0
POINT
  5
20ECB
330
203DF
100
AcDbEntity
  8
DEFPOINTS
 62
     0
 48
50.0
100
AcDbPoint
 10
5478.599999999999
 20
8552.834510880833
 30
0.0
  0
ENDBLK
  5
203EC
330
203DF
100
AcDbEntity
  8
0
 48
50.0
100
AcDbBlockEnd
  0
BLOCK
  5
20413
330
20407
100
AcDbEntity
  8
0
 48
50.0
100
AcDbBlockBegin
  2
*D40
 70
     1
 10
0.0
 20
0.0
 30
0.0
  3
*D40
  1

  0
LINE
  5
20EB6
330
20407
100
AcDbEntity
  8
寸法
 62
     0
 48
50.0
370
    -2
100
AcDbLine
 10
5458.6
 20
6014.614188821911
 30
0.0
 11
4282.144256711883
 21
6014.614188821911
 31
0.0
  0
LINE
  5
20EB7
330
20407
100
AcDbEntity
  8
寸法
 62
     0
 48
50.0
370
    -2
100
AcDbLine
 10
4574.087353431281
 20
5959.614188821922
 30
0.0
 11
4282.144256711883
 21
5959.614188821922
 31
0.0
  0
LINE
  5
20EB8
330
20407
100
AcDbEntity
  8
寸法
 62
     0
 48
50.0
370
    -2
100
AcDbLine
 10
4342.144256711883
 20
6014.614188821911
 30
0.0
 11
4342.144256711883
 21
6114.614188821911
 31
0.0
  0
LINE
  5
20EB9
330
20407
100
AcDbEntity
  8
寸法
 62
     0
 48
50.0
370
    -2
100
AcDbLine
 10
4342.144256711883
 20
5959.614188821922
 30
0.0
 11
4342.144256711883
 21
5859.614188821922
 31
0.0
  0
LINE
  5
20EBA
330
20407
100
AcDbEntity
  8
寸法
 62
     0
 48
50.0
370
    -2
100
AcDbLine
 10
4342.144256711883
 20
6014.614188821911
 30
0.0
 11
4342.144256711883
 21
5959.614188821922
 31
0.0
  0
INSERT
  5
20EBB
330
20407
100
AcDbEntity
  8
寸法
 62
     0
 48
50.0
370
    -2
100
AcDbBlockReference
  2
_DOTSMALL
 10
4342.144256711883
 20
6014.614188821911
 30
0.0
 41
100.0
 42
100.0
 43
100.0
 50
270.0
  0
INSERT
  5
20EBC
330
20407
100
AcDbEntity
  8
寸法
 62
     0
 48
50.0
370
    -2
100
AcDbBlockReference
  2
_DOTSMALL
 10
4342.144256711883
 20
5959.614188821922
 30
0.0
 41
100.0
 42
100.0
 43
100.0
 50
90.0
  0
MTEXT
  5
20EBD
330
20407
100
AcDbEntity
  8
寸法
 62
     7
 48
50.0
100
AcDbMText
 10
4242.144256711882
 20
5987.114188821917
 30
0.0
 40
120.0
 41
0.0
 71
     5
 72
     1
  1
\A1;b
  7
STYLE1
 11
0.0000000000000001
 21
1.0
 31
0.0
 73
     1
 44
1.0
1001
ACAD
1000
MTEXTBEGIN
1070
    73
1070
     1
1070
    44
1040
1.0
1070
    74
1070
     0
1000
MTEXTEND
  0
POINT
  5
20EBE
330
20407
100
AcDbEntity
  8
DEFPOINTS
 62
     0
 48
50.0
100
AcDbPoint
 10
5478.6
 20
6014.614188821911
 30
0.0
  0
POINT
  5
20EBF
330
20407
100
AcDbEntity
  8
DEFPOINTS
 62
     0
 48
50.0
100
AcDbPoint
 10
4594.087353431281
 20
5959.614188821922
 30
0.0
  0
POINT
  5
20EC0
330
20407
100
AcDbEntity
  8
DEFPOINTS
 62
     0
 48
50.0
100
AcDbPoint
 10
4342.144256711883
 20
5959.614188821922
 30
0.0
  0
ENDBLK
  5
20414
330
20407
100
AcDbEntity
  8
0
 48
50.0
100
AcDbBlockEnd
  0
BLOCK
  5
229A5
330
2299B
100
AcDbEntity
  8
0
 48
50.0
100
AcDbBlockBegin
  2
*D41
 70
     1
 10
0.0
 20
0.0
 30
0.0
  3
*D41
  1

  0
LINE
  5
22AB2
330
2299B
100
AcDbEntity
  8
寸法
 62
     0
 48
50.0
370
    -2
100
AcDbLine
 10
6168.600000000008
 20
6621.614188821911
 30
0.0
 11
6168.600000000008
 21
6356.468197524955
 31
0.0
  0
LINE
  5
22AB3
330
2299B
100
AcDbEntity
  8
寸法
 62
     0
 48
50.0
370
    -2
100
AcDbLine
 10
6853.600000000007
 20
6621.614188821911
 30
0.0
 11
6853.600000000007
 21
6356.468197524955
 31
0.0
  0
LINE
  5
22AB4
330
2299B
100
AcDbEntity
  8
寸法
 62
     0
 48
50.0
370
    -2
100
AcDbLine
 10
6168.600000000008
 20
6416.468197524955
 30
0.0
 11
6853.600000000007
 21
6416.468197524955
 31
0.0
  0
INSERT
  5
22AB5
330
2299B
100
AcDbEntity
  8
寸法
 62
     0
 48
50.0
370
    -2
100
AcDbBlockReference
  2
_DOTSMALL
 10
6168.600000000008
 20
6416.468197524955
 30
0.0
 41
100.0
 42
100.0
 43
100.0
 50
180.0
  0
INSERT
  5
22AB6
330
2299B
100
AcDbEntity
  8
寸法
 62
     0
 48
50.0
370
    -2
100
AcDbBlockReference
  2
_DOTSMALL
 10
6853.600000000007
 20
6416.468197524955
 30
0.0
 41
100.0
 42
100.0
 43
100.0
  0
MTEXT
  5
22AB7
330
2299B
100
AcDbEntity
  8
寸法
 62
     7
 48
50.0
100
AcDbMText
 10
6511.100000000007
 20
6516.468197524955
 30
0.0
 40
120.0
 41
0.0
 71
     5
 72
     1
  1
\A1;685
  7
STYLE1
 73
     1
 44
1.0
1001
ACAD
1000
MTEXTBEGIN
1070
    73
1070
     1
1070
    44
1040
1.0
1070
    74
1070
     0
1000
MTEXTEND
  0
POINT
  5
22AB8
330
2299B
100
AcDbEntity
  8
DEFPOINTS
 62
     0
 48
50.0
100
AcDbPoint
 10
6168.600000000008
 20
6641.614188821911
 30
0.0
  0
POINT
  5
22AB9
330
2299B
100
AcDbEntity
  8
DEFPOINTS
 62
     0
 48
50.0
100
AcDbPoint
 10
6853.600000000007
 20
6641.614188821911
 30
0.0
  0
POINT
  5
22ABA
330
2299B
100
AcDbEntity
  8
DEFPOINTS
 62
     0
 48
50.0
100
AcDbPoint
 10
6853.600000000007
 20
6416.468197524955
 30
0.0
  0
ENDBLK
  5
229A6
330
2299B
100
AcDbEntity
  8
0
 48
50.0
100
AcDbBlockEnd
  0
BLOCK
  5
229B1
330
229A7
100
AcDbEntity
  8
0
 48
50.0
100
AcDbBlockBegin
  2
*D42
 70
     1
 10
0.0
 20
0.0
 30
0.0
  3
*D42
  1

  0
LINE
  5
22AA9
330
229A7
100
AcDbEntity
  8
寸法
 62
     0
 48
50.0
370
    -2
100
AcDbLine
 10
5478.6
 20
6557.727760608263
 30
0.0
 11
5478.6
 21
6356.468197524955
 31
0.0
  0
LINE
  5
22AAA
330
229A7
100
AcDbEntity
  8
寸法
 62
     0
 48
50.0
370
    -2
100
AcDbLine
 10
6168.600000000008
 20
6621.614188821911
 30
0.0
 11
6168.600000000008
 21
6356.468197524955
 31
0.0
  0
LINE
  5
22AAB
330
229A7
100
AcDbEntity
  8
寸法
 62
     0
 48
50.0
370
    -2
100
AcDbLine
 10
5478.6
 20
6416.468197524955
 30
0.0
 11
6168.600000000008
 21
6416.468197524955
 31
0.0
  0
INSERT
  5
22AAC
330
229A7
100
AcDbEntity
  8
寸法
 62
     0
 48
50.0
370
    -2
100
AcDbBlockReference
  2
_DOTSMALL
 10
5478.6
 20
6416.468197524955
 30
0.0
 41
100.0
 42
100.0
 43
100.0
 50
180.0
  0
INSERT
  5
22AAD
330
229A7
100
AcDbEntity
  8
寸法
 62
     0
 48
50.0
370
    -2
100
AcDbBlockReference
  2
_DOTSMALL
 10
6168.600000000008
 20
6416.468197524955
 30
0.0
 41
100.0
 42
100.0
 43
100.0
  0
MTEXT
  5
22AAE
330
229A7
100
AcDbEntity
  8
寸法
 62
     7
 48
50.0
100
AcDbMText
 10
5823.600000000004
 20
6516.468197524955
 30
0.0
 40
120.0
 41
0.0
 71
     5
 72
     1
  1
\A1;690
  7
STYLE1
 73
     1
 44
1.0
1001
ACAD
1000
MTEXTBEGIN
1070
    73
1070
     1
1070
    44
1040
1.0
1070
    74
1070
     0
1000
MTEXTEND
  0
POINT
  5
22AAF
330
229A7
100
AcDbEntity
  8
DEFPOINTS
 62
     0
 48
50.0
100
AcDbPoint
 10
5478.6
 20
6577.727760608262
 30
0.0
  0
POINT
  5
22AB0
330
229A7
100
AcDbEntity
  8
DEFPOINTS
 62
     0
 48
50.0
100
AcDbPoint
 10
6168.600000000008
 20
6641.614188821911
 30
0.0
  0
POINT
  5
22AB1
330
229A7
100
AcDbEntity
  8
DEFPOINTS
 62
     0
 48
50.0
100
AcDbPoint
 10
6168.600000000008
 20
6416.468197524955
 30
0.0
  0
ENDBLK
  5
229B2
330
229A7
100
AcDbEntity
  8
0
 48
50.0
100
AcDbBlockEnd
  0
BLOCK
  5
22A31
330
22A27
100
AcDbEntity
  8
0
 48
50.0
100
AcDbBlockBegin
  2
*D43
 70
     1
 10
0.0
 20
0.0
 30
0.0
  3
*D43
  1

  0
LINE
  5
22AA0
330
22A27
100
AcDbEntity
  8
寸法
 62
     0
 48
50.0
370
    -2
100
AcDbLine
 10
8908.600000000008
 20
6621.614188821911
 30
0.0
 11
8908.600000000008
 21
6356.468197524955
 31
0.0
  0
LINE
  5
22AA1
330
22A27
100
AcDbEntity
  8
寸法
 62
     0
 48
50.0
370
    -2
100
AcDbLine
 10
9593.600000000007
 20
6621.614188821911
 30
0.0
 11
9593.600000000007
 21
6356.468197524955
 31
0.0
  0
LINE
  5
22AA2
330
22A27
100
AcDbEntity
  8
寸法
 62
     0
 48
50.0
370
    -2
100
AcDbLine
 10
8908.600000000008
 20
6416.468197524955
 30
0.0
 11
9593.600000000007
 21
6416.468197524955
 31
0.0
  0
MTEXT
  5
22AA3
330
22A27
100
AcDbEntity
  8
寸法
 62
     7
 48
50.0
100
AcDbMText
 10
9232.380256412609
 20
6557.863590430847
 30
0.0
 40
120.0
 41
0.0
 71
     5
 72
     1
  1
\A1;685
  7
STYLE1
 73
     1
 44
1.0
1001
ACAD
1000
MTEXTBEGIN
1070
    73
1070
     1
1070
    44
1040
1.0
1070
    74
1070
     0
1000
MTEXTEND
  0
INSERT
  5
22AA4
330
22A27
100
AcDbEntity
  8
寸法
 62
     0
 48
50.0
370
    -2
100
AcDbBlockReference
  2
_DOTSMALL
 10
8908.600000000008
 20
6416.468197524955
 30
0.0
 41
100.0
 42
100.0
 43
100.0
 50
180.0
  0
INSERT
  5
22AA5
330
22A27
100
AcDbEntity
  8
寸法
 62
     0
 48
50.0
370
    -2
100
AcDbBlockReference
  2
_DOTSMALL
 10
9593.600000000007
 20
6416.468197524955
 30
0.0
 41
100.0
 42
100.0
 43
100.0
  0
POINT
  5
22AA6
330
22A27
100
AcDbEntity
  8
DEFPOINTS
 62
     0
 48
50.0
100
AcDbPoint
 10
8908.600000000008
 20
6641.614188821911
 30
0.0
  0
POINT
  5
22AA7
330
22A27
100
AcDbEntity
  8
DEFPOINTS
 62
     0
 48
50.0
100
AcDbPoint
 10
9593.600000000007
 20
6641.614188821911
 30
0.0
  0
POINT
  5
22AA8
330
22A27
100
AcDbEntity
  8
DEFPOINTS
 62
     0
 48
50.0
100
AcDbPoint
 10
9593.600000000007
 20
6416.468197524955
 30
0.0
  0
ENDBLK
  5
22A32
330
22A27
100
AcDbEntity
  8
0
 48
50.0
100
AcDbBlockEnd
  0
BLOCK
  5
22A3D
330
22A33
100
AcDbEntity
  8
0
 48
50.0
100
AcDbBlockBegin
  2
*D44
 70
     1
 10
0.0
 20
0.0
 30
0.0
  3
*D44
  1

  0
LINE
  5
22A97
330
22A33
100
AcDbEntity
  8
寸法
 62
     0
 48
50.0
370
    -2
100
AcDbLine
 10
9593.600000000007
 20
6621.614188821911
 30
0.0
 11
9593.600000000007
 21
6356.468197524955
 31
0.0
  0
LINE
  5
22A98
330
22A33
100
AcDbEntity
  8
寸法
 62
     0
 48
50.0
370
    -2
100
AcDbLine
 10
10278.60000000001
 20
6621.614188821911
 30
0.0
 11
10278.60000000001
 21
6356.468197524955
 31
0.0
  0
LINE
  5
22A99
330
22A33
100
AcDbEntity
  8
寸法
 62
     0
 48
50.0
370
    -2
100
AcDbLine
 10
9593.600000000007
 20
6416.468197524955
 30
0.0
 11
10278.60000000001
 21
6416.468197524955
 31
0.0
  0
MTEXT
  5
22A9A
330
22A33
100
AcDbEntity
  8
寸法
 62
     7
 48
50.0
100
AcDbMText
 10
9917.380256412609
 20
6557.863590430847
 30
0.0
 40
120.0
 41
0.0
 71
     5
 72
     1
  1
\A1;685
  7
STYLE1
 73
     1
 44
1.0
1001
ACAD
1000
MTEXTBEGIN
1070
    73
1070
     1
1070
    44
1040
1.0
1070
    74
1070
     0
1000
MTEXTEND
  0
INSERT
  5
22A9B
330
22A33
100
AcDbEntity
  8
寸法
 62
     0
 48
50.0
370
    -2
100
AcDbBlockReference
  2
_DOTSMALL
 10
9593.600000000007
 20
6416.468197524955
 30
0.0
 41
100.0
 42
100.0
 43
100.0
 50
180.0
  0
INSERT
  5
22A9C
330
22A33
100
AcDbEntity
  8
寸法
 62
     0
 48
50.0
370
    -2
100
AcDbBlockReference
  2
_DOTSMALL
 10
10278.60000000001
 20
6416.468197524955
 30
0.0
 41
100.0
 42
100.0
 43
100.0
  0
POINT
  5
22A9D
330
22A33
100
AcDbEntity
  8
DEFPOINTS
 62
     0
 48
50.0
100
AcDbPoint
 10
9593.600000000007
 20
6641.614188821911
 30
0.0
  0
POINT
  5
22A9E
330
22A33
100
AcDbEntity
  8
DEFPOINTS
 62
     0
 48
50.0
100
AcDbPoint
 10
10278.60000000001
 20
6641.614188821911
 30
0.0
  0
POINT
  5
22A9F
330
22A33
100
AcDbEntity
  8
DEFPOINTS
 62
     0
 48
50.0
100
AcDbPoint
 10
10278.60000000001
 20
6416.468197524955
 30
0.0
  0
ENDBLK
  5
22A3E
330
22A33
100
AcDbEntity
  8
0
 48
50.0
100
AcDbBlockEnd
  0
BLOCK
  5
22A49
330
22A3F
100
AcDbEntity
  8
0
 48
50.0
100
AcDbBlockBegin
  2
*D45
 70
     1
 10
0.0
 20
0.0
 30
0.0
  3
*D45
  1

  0
LINE
  5
22A8E
330
22A3F
100
AcDbEntity
  8
寸法
 62
     0
 48
50.0
370
    -2
100
AcDbLine
 10
10278.60000000001
 20
6621.614188821911
 30
0.0
 11
10278.60000000001
 21
6356.468197524955
 31
0.0
  0
LINE
  5
22A8F
330
22A3F
100
AcDbEntity
  8
寸法
 62
     0
 48
50.0
370
    -2
100
AcDbLine
 10
10968.6
 20
6557.727760608263
 30
0.0
 11
10968.6
 21
6356.468197524955
 31
0.0
  0
LINE
  5
22A90
330
22A3F
100
AcDbEntity
  8
寸法
 62
     0
 48
50.0
370
    -2
100
AcDbLine
 10
10278.60000000001
 20
6416.468197524955
 30
0.0
 11
10968.6
 21
6416.468197524955
 31
0.0
  0
INSERT
  5
22A91
330
22A3F
100
AcDbEntity
  8
寸法
 62
     0
 48
50.0
370
    -2
100
AcDbBlockReference
  2
_DOTSMALL
 10
10278.60000000001
 20
6416.468197524955
 30
0.0
 41
100.0
 42
100.0
 43
100.0
 50
180.0
  0
INSERT
  5
22A92
330
22A3F
100
AcDbEntity
  8
寸法
 62
     0
 48
50.0
370
    -2
100
AcDbBlockReference
  2
_DOTSMALL
 10
10968.6
 20
6416.468197524955
 30
0.0
 41
100.0
 42
100.0
 43
100.0
  0
MTEXT
  5
22A93
330
22A3F
100
AcDbEntity
  8
寸法
 62
     7
 48
50.0
100
AcDbMText
 10
10623.6
 20
6516.468197524955
 30
0.0
 40
120.0
 41
0.0
 71
     5
 72
     1
  1
\A1;690
  7
STYLE1
 73
     1
 44
1.0
1001
ACAD
1000
MTEXTBEGIN
1070
    73
1070
     1
1070
    44
1040
1.0
1070
    74
1070
     0
1000
MTEXTEND
  0
POINT
  5
22A94
330
22A3F
100
AcDbEntity
  8
DEFPOINTS
 62
     0
 48
50.0
100
AcDbPoint
 10
10278.60000000001
 20
6641.614188821911
 30
0.0
  0
POINT
  5
22A95
330
22A3F
100
AcDbEntity
  8
DEFPOINTS
 62
     0
 48
50.0
100
AcDbPoint
 10
10968.6
 20
6577.727760608262
 30
0.0
  0
POINT
  5
22A96
330
22A3F
100
AcDbEntity
  8
DEFPOINTS
 62
     0
 48
50.0
100
AcDbPoint
 10
10968.6
 20
6416.468197524955
 30
0.0
  0
ENDBLK
  5
22A4A
330
22A3F
100
AcDbEntity
  8
0
 48
50.0
100
AcDbBlockEnd
  0
BLOCK
  5
232AE
330
232A4
100
AcDbEntity
  8
0
 48
50.0
100
AcDbBlockBegin
  2
*D58
 70
     1
 10
0.0
 20
0.0
 30
0.0
  3
*D58
  1

  0
LINE
  5
232F1
330
232A4
100
AcDbEntity
  8
寸法
 62
     0
 48
50.0
370
    -2
100
AcDbLine
 10
8249.012162472777
 20
2193.076407922351
 30
0.0
 11
8790.88076224162
 21
2193.076407922351
 31
0.0
  0
LINE
  5
232F2
330
232A4
100
AcDbEntity
  8
寸法
 62
     0
 48
50.0
370
    -2
100
AcDbLine
 10
8249.012162472777
 20
1869.076407922349
 30
0.0
 11
8790.88076224162
 21
1869.076407922349
 31
0.0
  0
LINE
  5
232F3
330
232A4
100
AcDbEntity
  8
寸法
 62
     0
 48
50.0
370
    -2
100
AcDbLine
 10
8730.880762241621
 20
2193.076407922351
 30
0.0
 11
8730.880762241621
 21
1869.076407922349
 31
0.0
  0
INSERT
  5
232F4
330
232A4
100
AcDbEntity
  8
寸法
 62
     0
 48
50.0
370
    -2
100
AcDbBlockReference
  2
_DOTSMALL
 10
8730.880762241621
 20
2193.076407922351
 30
0.0
 41
100.0
 42
100.0
 43
100.0
 50
90.0
  0
INSERT
  5
232F5
330
232A4
100
AcDbEntity
  8
寸法
 62
     0
 48
50.0
370
    -2
100
AcDbBlockReference
  2
_DOTSMALL
 10
8730.880762241621
 20
1869.076407922349
 30
0.0
 41
100.0
 42
100.0
 43
100.0
 50
270.0
  0
MTEXT
  5
232F6
330
232A4
100
AcDbEntity
  8
寸法
 62
     7
 48
50.0
100
AcDbMText
 10
8630.880762241622
 20
2031.076407922352
 30
0.0
 40
120.0
 41
0.0
 71
     5
 72
     1
  1
\A1;180
  7
STYLE1
 11
0.0000000000000001
 21
1.0
 31
0.0
 73
     1
 44
1.0
1001
ACAD
1000
MTEXTBEGIN
1070
    73
1070
     1
1070
    44
1040
1.0
1070
    74
1070
     0
1000
MTEXTEND
  0
POINT
  5
232F7
330
232A4
100
AcDbEntity
  8
DEFPOINTS
 62
     0
 48
50.0
100
AcDbPoint
 10
8229.012162472775
 20
2193.076407922351
 30
0.0
  0
POINT
  5
232F8
330
232A4
100
AcDbEntity
  8
DEFPOINTS
 62
     0
 48
50.0
100
AcDbPoint
 10
8229.012162472775
 20
1869.076407922349
 30
0.0
  0
POINT
  5
232F9
330
232A4
100
AcDbEntity
  8
DEFPOINTS
 62
     0
 48
50.0
100
AcDbPoint
 10
8730.880762241621
 20
1869.076407922349
 30
0.0
  0
ENDBLK
  5
232AF
330
232A4
100
AcDbEntity
  8
0
 48
50.0
100
AcDbBlockEnd
  0
BLOCK
  5
232BF
330
232B0
100
AcDbEntity
  8
0
 48
50.0
100
AcDbBlockBegin
  2
*D59
 70
     1
 10
0.0
 20
0.0
 30
0.0
  3
*D59
  1

  0
LINE
  5
232FA
330
232B0
100
AcDbEntity
  8
寸法
 62
     0
 48
50.0
370
    -2
100
AcDbLine
 10
8061.812162472779
 20
2245.836407922352
 30
0.0
 11
8790.88076224162
 21
2245.836407922352
 31
0.0
  0
LINE
  5
232FB
330
232B0
100
AcDbEntity
  8
寸法
 62
     0
 48
50.0
370
    -2
100
AcDbLine
 10
8249.012162472777
 20
2193.076407922351
 30
0.0
 11
8790.88076224162
 21
2193.076407922351
 31
0.0
  0
LINE
  5
232FC
330
232B0
100
AcDbEntity
  8
寸法
 62
     0
 48
50.0
370
    -2
100
AcDbLine
 10
8730.880762241621
 20
2245.836407922352
 30
0.0
 11
8730.880762241621
 21
2345.836407922352
 31
0.0
  0
LINE
  5
232FD
330
232B0
100
AcDbEntity
  8
寸法
 62
     0
 48
50.0
370
    -2
100
AcDbLine
 10
8730.880762241621
 20
2193.076407922351
 30
0.0
 11
8730.880762241621
 21
2093.07640792235
 31
0.0
  0
LINE
  5
232FE
330
232B0
100
AcDbEntity
  8
寸法
 62
     0
 48
50.0
370
    -2
100
AcDbLine
 10
8730.880762241621
 20
2219.456407922351
 30
0.0
 11
9006.935428360648
 21
2207.952450318138
 31
0.0
  0
LINE
  5
232FF
330
232B0
100
AcDbEntity
  8
寸法
 62
     0
 48
50.0
370
    -2
100
AcDbLine
 10
9006.935428360648
 20
2207.952450318138
 30
0.0
 11
9006.935428360648
 21
1675.934643475171
 31
0.0
  0
MTEXT
  5
23300
330
232B0
100
AcDbEntity
  8
寸法
 62
     7
 48
50.0
100
AcDbMText
 10
8906.923617337026
 20
1941.943546896656
 30
0.0
 40
120.0
 41
0.0
 71
     5
 72
     1
  1
\A1;20～25
  7
STYLE1
 11
0.0000000000000001
 21
1.0
 31
0.0
 73
     1
 44
1.0
1001
ACAD
1000
MTEXTBEGIN
1070
    73
1070
     1
1070
    44
1040
1.0
1070
    74
1070
     0
1000
MTEXTEND
  0
LINE
  5
23301
330
232B0
100
AcDbEntity
  8
寸法
 62
     0
 48
50.0
370
    -2
100
AcDbLine
 10
8730.880762241621
 20
2245.836407922352
 30
0.0
 11
8730.880762241621
 21
2193.076407922351
 31
0.0
  0
LINE
  5
23302
330
232B0
100
AcDbEntity
  8
寸法
 62
     0
 48
50.0
370
    -2
100
AcDbLine
 10
8730.880762241621
 20
2245.836407922352
 30
0.0
 11
8730.880762241621
 21
2193.076407922351
 31
0.0
  0
INSERT
  5
23303
330
232B0
100
AcDbEntity
  8
寸法
 62
     0
 48
50.0
370
    -2
100
AcDbBlockReference
  2
_DOTSMALL
 10
8730.880762241621
 20
2245.836407922352
 30
0.0
 41
100.0
 42
100.0
 43
100.0
 50
270.0
  0
INSERT
  5
23304
330
232B0
100
AcDbEntity
  8
寸法
 62
     0
 48
50.0
370
    -2
100
AcDbBlockReference
  2
_DOTSMALL
 10
8730.880762241621
 20
2193.076407922351
 30
0.0
 41
100.0
 42
100.0
 43
100.0
 50
90.0
  0
POINT
  5
23305
330
232B0
100
AcDbEntity
  8
DEFPOINTS
 62
     0
 48
50.0
100
AcDbPoint
 10
8041.812162472778
 20
2245.836407922352
 30
0.0
  0
POINT
  5
23306
330
232B0
100
AcDbEntity
  8
DEFPOINTS
 62
     0
 48
50.0
100
AcDbPoint
 10
8229.012162472775
 20
2193.076407922351
 30
0.0
  0
POINT
  5
23307
330
232B0
100
AcDbEntity
  8
DEFPOINTS
 62
     0
 48
50.0
100
AcDbPoint
 10
8730.880762241621
 20
2193.076407922351
 30
0.0
  0
ENDBLK
  5
232C0
330
232B0
100
AcDbEntity
  8
0
 48
50.0
100
AcDbBlockEnd
  0
BLOCK
  5
232CB
330
232C1
100
AcDbEntity
  8
0
 48
50.0
100
AcDbBlockBegin
  2
*D60
 70
     1
 10
0.0
 20
0.0
 30
0.0
  3
*D60
  1

  0
LINE
  5
23308
330
232C1
100
AcDbEntity
  8
寸法
 62
     0
 48
50.0
370
    -2
100
AcDbLine
 10
5966.972849295585
 20
1649.07640792235
 30
0.0
 11
5784.552535563125
 21
1649.07640792235
 31
0.0
  0
LINE
  5
23309
330
232C1
100
AcDbEntity
  8
寸法
 62
     0
 48
50.0
370
    -2
100
AcDbLine
 10
5886.972849295588
 20
1409.07640792235
 30
0.0
 11
5784.552535563125
 21
1409.07640792235
 31
0.0
  0
LINE
  5
2330A
330
232C1
100
AcDbEntity
  8
寸法
 62
     0
 48
50.0
370
    -2
100
AcDbLine
 10
5844.552535563125
 20
1649.07640792235
 30
0.0
 11
5844.552535563125
 21
1409.07640792235
 31
0.0
  0
MTEXT
  5
2330B
330
232C1
100
AcDbEntity
  8
寸法
 62
     7
 48
50.0
100
AcDbMText
 10
5744.552535563125
 20
1529.07640792235
 30
0.0
 40
120.0
 41
0.0
 71
     5
 72
     1
  1
\A1;150
  7
STYLE1
 11
0.0000000000000001
 21
1.0
 31
0.0
 73
     1
 44
1.0
1001
ACAD
1000
MTEXTBEGIN
1070
    73
1070
     1
1070
    44
1040
1.0
1070
    74
1070
     0
1000
MTEXTEND
  0
INSERT
  5
2330C
330
232C1
100
AcDbEntity
  8
寸法
 62
     0
 48
50.0
370
    -2
100
AcDbBlockReference
  2
_DOTSMALL
 10
5844.552535563125
 20
1649.07640792235
 30
0.0
 41
100.0
 42
100.0
 43
100.0
 50
90.0
  0
INSERT
  5
2330D
330
232C1
100
AcDbEntity
  8
寸法
 62
     0
 48
50.0
370
    -2
100
AcDbBlockReference
  2
_DOTSMALL
 10
5844.552535563125
 20
1409.07640792235
 30
0.0
 41
100.0
 42
100.0
 43
100.0
 50
270.0
  0
POINT
  5
2330E
330
232C1
100
AcDbEntity
  8
DEFPOINTS
 62
     0
 48
50.0
100
AcDbPoint
 10
5986.972849295585
 20
1649.07640792235
 30
0.0
  0
POINT
  5
2330F
330
232C1
100
AcDbEntity
  8
DEFPOINTS
 62
     0
 48
50.0
100
AcDbPoint
 10
5906.972849295588
 20
1409.07640792235
 30
0.0
  0
POINT
  5
23310
330
232C1
100
AcDbEntity
  8
DEFPOINTS
 62
     0
 48
50.0
100
AcDbPoint
 10
5844.552535563125
 20
1409.07640792235
 30
0.0
  0
ENDBLK
  5
232CC
330
232C1
100
AcDbEntity
  8
0
 48
50.0
100
AcDbBlockEnd
  0
BLOCK
  5
232D7
330
232CD
100
AcDbEntity
  8
0
 48
50.0
100
AcDbBlockBegin
  2
*D61
 70
     1
 10
0.0
 20
0.0
 30
0.0
  3
*D61
  1

  0
LINE
  5
23311
330
232CD
100
AcDbEntity
  8
寸法
 62
     0
 48
50.0
370
    -2
100
AcDbLine
 10
6094.972849295585
 20
2193.076407922351
 30
0.0
 11
5319.935610733845
 21
2193.076407922351
 31
0.0
  0
LINE
  5
23312
330
232CD
100
AcDbEntity
  8
寸法
 62
     0
 48
50.0
370
    -2
100
AcDbLine
 10
5886.972849295588
 20
1409.07640792235
 30
0.0
 11
5319.935610733844
 21
1409.07640792235
 31
0.0
  0
LINE
  5
23313
330
232CD
100
AcDbEntity
  8
寸法
 62
     0
 48
50.0
370
    -2
100
AcDbLine
 10
5379.935610733845
 20
2193.076407922351
 30
0.0
 11
5379.935610733845
 21
1409.07640792235
 31
0.0
  0
MTEXT
  5
23314
330
232CD
100
AcDbEntity
  8
寸法
 62
     7
 48
50.0
100
AcDbMText
 10
5279.935610733844
 20
1780.616557578351
 30
0.0
 40
120.0
 41
0.0
 71
     5
 72
     1
  1
\A1;540
  7
STYLE1
 11
0.0000000000000001
 21
1.0
 31
0.0
 73
     1
 44
1.0
1001
ACAD
1000
MTEXTBEGIN
1070
    73
1070
     1
1070
    44
1040
1.0
1070
    74
1070
     0
1000
MTEXTEND
  0
INSERT
  5
23315
330
232CD
100
AcDbEntity
  8
寸法
 62
     0
 48
50.0
370
    -2
100
AcDbBlockReference
  2
_DOTSMALL
 10
5379.935610733845
 20
2193.076407922351
 30
0.0
 41
100.0
 42
100.0
 43
100.0
 50
90.0
  0
INSERT
  5
23316
330
232CD
100
AcDbEntity
  8
寸法
 62
     0
 48
50.0
370
    -2
100
AcDbBlockReference
  2
_DOTSMALL
 10
5379.935610733845
 20
1409.07640792235
 30
0.0
 41
100.0
 42
100.0
 43
100.0
 50
270.0
  0
POINT
  5
23317
330
232CD
100
AcDbEntity
  8
DEFPOINTS
 62
     0
 48
50.0
100
AcDbPoint
 10
6114.972849295584
 20
2193.076407922351
 30
0.0
  0
POINT
  5
23318
330
232CD
100
AcDbEntity
  8
DEFPOINTS
 62
     0
 48
50.0
100
AcDbPoint
 10
5906.972849295588
 20
1409.07640792235
 30
0.0
  0
POINT
  5
23319
330
232CD
100
AcDbEntity
  8
DEFPOINTS
 62
     0
 48
50.0
100
AcDbPoint
 10
5379.935610733845
 20
1409.07640792235
 30
0.0
  0
ENDBLK
  5
232D8
330
232CD
100
AcDbEntity
  8
0
 48
50.0
100
AcDbBlockEnd
  0
BLOCK
  5
232E3
330
232D9
100
AcDbEntity
  8
0
 48
50.0
100
AcDbBlockBegin
  2
*D62
 70
     1
 10
0.0
 20
0.0
 30
0.0
  3
*D62
  1

  0
LINE
  5
2331A
330
232D9
100
AcDbEntity
  8
寸法
 62
     0
 48
50.0
370
    -2
100
AcDbLine
 10
5986.972849295585
 20
1261.07640792235
 30
0.0
 11
5986.972849295585
 21
810.6467699171902
 31
0.0
  0
LINE
  5
2331B
330
232D9
100
AcDbEntity
  8
寸法
 62
     0
 48
50.0
370
    -2
100
AcDbLine
 10
6434.972849295585
 20
1261.07640792235
 30
0.0
 11
6434.972849295585
 21
810.6467699171902
 31
0.0
  0
LINE
  5
2331C
330
232D9
100
AcDbEntity
  8
寸法
 62
     0
 48
50.0
370
    -2
100
AcDbLine
 10
5986.972849295585
 20
870.6467699171904
 30
0.0
 11
6434.972849295585
 21
870.6467699171904
 31
0.0
  0
MTEXT
  5
2331D
330
232D9
100
AcDbEntity
  8
寸法
 62
     7
 48
50.0
100
AcDbMText
 10
6190.876090617361
 20
970.6467699171904
 30
0.0
 40
120.0
 41
0.0
 71
     5
 72
     1
  1
\A1;300
  7
STYLE1
 73
     1
 44
1.0
1001
ACAD
1000
MTEXTBEGIN
1070
    73
1070
     1
1070
    44
1040
1.0
1070
    74
1070
     0
1000
MTEXTEND
  0
INSERT
  5
2331E
330
232D9
100
AcDbEntity
  8
寸法
 62
     0
 48
50.0
370
    -2
100
AcDbBlockReference
  2
_DOTSMALL
 10
5986.972849295585
 20
870.6467699171904
 30
0.0
 41
100.0
 42
100.0
 43
100.0
 50
180.0
  0
INSERT
  5
2331F
330
232D9
100
AcDbEntity
  8
寸法
 62
     0
 48
50.0
370
    -2
100
AcDbBlockReference
  2
_DOTSMALL
 10
6434.972849295585
 20
870.6467699171904
 30
0.0
 41
100.0
 42
100.0
 43
100.0
  0
POINT
  5
23320
330
232D9
100
AcDbEntity
  8
DEFPOINTS
 62
     0
 48
50.0
100
AcDbPoint
 10
5986.972849295585
 20
1281.07640792235
 30
0.0
  0
POINT
  5
23321
330
232D9
100
AcDbEntity
  8
DEFPOINTS
 62
     0
 48
50.0
100
AcDbPoint
 10
6434.972849295585
 20
1281.07640792235
 30
0.0
  0
POINT
  5
23322
330
232D9
100
AcDbEntity
  8
DEFPOINTS
 62
     0
 48
50.0
100
AcDbPoint
 10
6434.972849295585
 20
870.6467699171904
 30
0.0
  0
ENDBLK
  5
232E4
330
232D9
100
AcDbEntity
  8
0
 48
50.0
100
AcDbBlockEnd
  0
BLOCK
  5
232EF
330
232E5
100
AcDbEntity
  8
0
 48
50.0
100
AcDbBlockBegin
  2
*D63
 70
     1
 10
0.0
 20
0.0
 30
0.0
  3
*D63
  1

  0
LINE
  5
23323
330
232E5
100
AcDbEntity
  8
寸法
 62
     0
 48
50.0
370
    -2
100
AcDbLine
 10
6306.972849295584
 20
2213.076407922351
 30
0.0
 11
6306.972849295584
 21
2573.07640792235
 31
0.0
  0
LINE
  5
23324
330
232E5
100
AcDbEntity
  8
寸法
 62
     0
 48
50.0
370
    -2
100
AcDbLine
 10
6114.972849295584
 20
2213.076407922351
 30
0.0
 11
6114.972849295584
 21
2573.07640792235
 31
0.0
  0
LINE
  5
23325
330
232E5
100
AcDbEntity
  8
寸法
 62
     0
 48
50.0
370
    -2
100
AcDbLine
 10
6306.972849295584
 20
2513.07640792235
 30
0.0
 11
6114.972849295584
 21
2513.07640792235
 31
0.0
  0
MTEXT
  5
23326
330
232E5
100
AcDbEntity
  8
寸法
 62
     7
 48
50.0
100
AcDbMText
 10
6222.199179640782
 20
2912.779648909597
 30
0.0
 40
120.0
 41
0.0
 71
     5
 72
     1
  1
\A1;120\P200\P280
  7
STYLE1
 73
     1
 44
1.0
1001
ACAD
1000
MTEXTBEGIN
1070
    73
1070
     1
1070
    44
1040
1.0
1070
    74
1070
     0
1000
MTEXTEND
  0
INSERT
  5
23327
330
232E5
100
AcDbEntity
  8
寸法
 62
     0
 48
50.0
370
    -2
100
AcDbBlockReference
  2
_DOTSMALL
 10
6306.972849295584
 20
2513.07640792235
 30
0.0
 41
100.0
 42
100.0
 43
100.0
  0
INSERT
  5
23328
330
232E5
100
AcDbEntity
  8
寸法
 62
     0
 48
50.0
370
    -2
100
AcDbBlockReference
  2
_DOTSMALL
 10
6114.972849295584
 20
2513.07640792235
 30
0.0
 41
100.0
 42
100.0
 43
100.0
 50
180.0
  0
POINT
  5
23329
330
232E5
100
AcDbEntity
  8
DEFPOINTS
 62
     0
 48
50.0
100
AcDbPoint
 10
6306.972849295584
 20
2193.076407922351
 30
0.0
  0
POINT
  5
2332A
330
232E5
100
AcDbEntity
  8
DEFPOINTS
 62
     0
 48
50.0
100
AcDbPoint
 10
6114.972849295584
 20
2193.076407922351
 30
0.0
  0
POINT
  5
2332B
330
232E5
100
AcDbEntity
  8
DEFPOINTS
 62
     0
 48
50.0
100
AcDbPoint
 10
6114.972849295584
 20
2513.07640792235
 30
0.0
  0
ENDBLK
  5
232F0
330
232E5
100
AcDbEntity
  8
0
 48
50.0
100
AcDbBlockEnd
  0
ENDSEC
  0
SECTION
  2
ENTITIES
  0
MTEXT
  5
763F
330
747D
100
AcDbEntity
  8
0
100
AcDbMText
 10
302.846345836809
 20
280.1983726409901
 30
0.0
 40
3.5
 41
5.323721266742722
 71
     1
 72
     5
  1

  7
MSMINCHO
 73
     1
 44
1.0
1001
ACAD
1000
MTEXTBEGIN
1070
    73
1070
     1
1070
    44
1040
1.0
1070
    74
1070
     0
1000
MTEXTEND
  0
LINE
  5
10B57
330
747D
100
AcDbEntity
  8
補助
  6
PHANTOM
 62
   230
 48
50.0
100
AcDbLine
 10
139.9999999999995
 20
11409.6
 30
0.0
 11
16307.2
 21
11409.6
 31
0.0
  0
LINE
  5
10B59
330
747D
100
AcDbEntity
  8
仕様書枠
  6
Continuous
 48
50.0
100
AcDbLine
 10
13107.2
 20
1200.0
 30
0.0
 11
13107.2
 21
-0.0000000000000729
 31
0.0
  0
LINE
  5
10B5D
330
747D
100
AcDbEntity
  8
仕様書枠
 48
50.0
100
AcDbLine
 10
140.0
 20
0.0
 30
0.0
 11
16307.2
 21
-0.0000000000000909
 31
0.0
  0
LINE
  5
10B5E
330
747D
100
AcDbEntity
  8
補助
  6
PHANTOM
 62
   230
 48
50.0
100
AcDbLine
 10
16307.2
 20
11409.6
 30
0.0
 11
16307.2
 21
1200.0
 31
0.0
  0
LINE
  5
10B6C
330
747D
100
AcDbEntity
  8
仕様書枠
 48
50.0
100
AcDbLine
 10
13107.2
 20
1200.0
 30
0.0
 11
16307.2
 21
1200.0
 31
0.0
  0
TEXT
  5
10B73
330
747D
100
AcDbEntity
  8
文字
 62
     7
 48
50.0
100
AcDbText
 10
13162.9790565769
 20
895.0906074299405
 30
0.0
 40
200.0
  1
基 礎 図
  7
STYLE2
100
AcDbText
  0
LINE
  5
10B7B
330
747D
100
AcDbEntity
  8
仕様書枠
 48
50.0
100
AcDbLine
 10
13107.2
 20
800.0
 30
0.0
 11
14251.2
 21
800.0
 31
0.0
  0
LINE
  5
10B88
330
747D
100
AcDbEntity
  8
仕様書枠
  6
Continuous
 48
50.0
100
AcDbLine
 10
14251.2
 20
1200.0
 30
0.0
 11
14251.2
 21
800.0
 31
0.0
  0
LINE
  5
16462
330
747D
100
AcDbEntity
  8
仕様書枠
 48
50.0
100
AcDbLine
 10
16307.2
 20
1200.0
 30
0.0
 11
16307.2
 21
-0.0000000000000909
 31
0.0
  0
LINE
  5
1903B
330
747D
100
AcDbEntity
  8
補助
  6
PHANTOM
 62
   230
 48
50.0
100
AcDbLine
 10
140.0
 20
0.0
 30
0.0
 11
139.9999999999995
 21
11409.6
 31
0.0
  0
TEXT
  5
1C7A1
330
747D
100
AcDbEntity
  8
文字
 62
     7
 48
50.0
100
AcDbText
 10
13188.16259899338
 20
79.80631269190417
 30
0.0
 40
80.0
  1
※布基礎には換気口を設けてください。
  7
STYLE2
100
AcDbText
  0
TEXT
  5
1C7E7
330
747D
100
AcDbEntity
  8
文字
 62
     7
 48
50.0
100
AcDbText
 10
13188.16259899338
 20
246.7109242801889
 30
0.0
 40
80.0
  1
※寒冷地等は地域の実情に合わせた基礎にして下さい。
  7
STYLE2
100
AcDbText
  0
TEXT
  5
1C7E8
330
747D
100
AcDbEntity
  8
文字
 62
     7
 48
50.0
100
AcDbText
 10
14478.98566430227
 20
499.5983841039506
 30
0.0
 40
160.0
  1
ＮＸＮ－２０ＣＳＬ
  7
STYLE2
100
AcDbText
  0
TEXT
  5
1C7E9
330
747D
100
AcDbEntity
  8
文字
 62
     7
 48
50.0
100
AcDbText
 10
14641.2525855784
 20
871.1744590657927
 30
0.0
 40
100.0
  1
～一般型・多雪地型～
  7
STYLE2
100
AcDbText
  0
TEXT
  5
1C7EC
330
747D
100
AcDbEntity
  8
文字
 62
     7
 48
50.0
100
AcDbText
 10
14524.131837222
 20
1031.557706291229
 30
0.0
 40
100.0
  1
      <縮尺> S=1/40
  7
STYLE2
100
AcDbText
  0
TEXT
  5
1C7ED
330
747D
100
AcDbEntity
  8
文字
 62
     7
 48
50.0
100
AcDbText
 10
13201.43669998441
 20
477.2740661031257
 30
0.0
 40
160.0
  1
機種名
  7
STYLE2
100
AcDbText
  0
LINE
  5
1C7EF
330
747D
100
AcDbEntity
  8
文字
 62
     7
 48
50.0
100
AcDbLine
 10
13187.2
 20
400.0
 30
0.0
 11
16227.2
 21
400.0
 31
0.0
  0
DIMENSION
  5
1FA1F
330
747D
100
AcDbEntity
  8
寸法
 48
50.0
100
AcDbDimension
  2
*D19
 10
8105.6
 20
8077.223005492157
 30
0.0
 11
8790.600000000001
 21
8177.223005492157
 31
0.0
 70
    32
 71
     5
 42
1370.0
  3
INABA_S40G
100
AcDbAlignedDimension
 13
9475.6
 23
7321.614188821911
 33
0.0
 14
8105.6
 24
7321.614188821911
 34
0.0
100
AcDbRotatedDimension
1001
ACAD
1000
DSTYLE
1002
{
1070
   341
1005
0
1002
}
  0
LINE
  5
1FA20
330
747D
100
AcDbEntity
  8
部品1
 48
50.0
100
AcDbLine
 10
10848.6
 20
7194.614188821912
 30
0.0
 11
5598.600000000001
 21
7194.614188821763
 31
0.0
  0
DIMENSION
  5
1FA21
330
747D
100
AcDbEntity
  8
寸法
 48
50.0
100
AcDbDimension
  2
*D20
 10
10968.6
 20
8552.834510880833
 30
0.0
 11
8223.600000000001
 21
8658.834510880831
 31
0.0
 70
    32
  1
N(連続数)x1370+10
 71
     5
 42
5490.0
  3
INABA_S40G
100
AcDbAlignedDimension
 13
5478.6
 23
7394.614188821911
 33
0.0
 14
10968.6
 24
7394.614188821911
 34
0.0
100
AcDbRotatedDimension
1001
ACAD
1000
DSTYLE
1002
{
1070
   341
1005
0
1002
}
  0
LINE
  5
1FA22
330
747D
100
AcDbEntity
  8
部品1
 48
50.0
100
AcDbLine
 10
10968.6
 20
7394.614188821911
 30
0.0
 11
7456.478449008542
 21
7394.614188821911
 31
0.0
  0
LINE
  5
1FA23
330
747D
100
AcDbEntity
  8
部品1
 48
50.0
100
AcDbLine
 10
10848.6
 20
6294.614188821929
 30
0.0
 11
5598.600000000001
 21
6294.614188821918
 31
0.0
  0
LINE
  5
1FA25
330
747D
100
AcDbEntity
  8
部品1
 48
50.0
100
AcDbLine
 10
10968.6
 20
6014.614188821929
 30
0.0
 11
5478.6
 21
6014.614188821909
 31
0.0
  0
DIMENSION
  5
1FA26
330
747D
100
AcDbEntity
  8
寸法
 48
50.0
100
AcDbDimension
  2
*D21
 10
8223.600000000008
 20
8320.880646915819
 30
0.0
 11
8908.600000000008
 21
8420.880646915819
 31
0.0
 70
    32
 71
     5
 42
1370.0
  3
INABA_S40G
100
AcDbAlignedDimension
 13
9593.600000000007
 23
8077.223005492157
 33
0.0
 14
8223.600000000008
 24
8077.223005492157
 34
0.0
100
AcDbRotatedDimension
1001
ACAD
1000
DSTYLE
1002
{
1070
   341
1005
0
1002
}
  0
DIMENSION
  5
1FA2F
330
747D
100
AcDbEntity
  8
寸法
 48
50.0
100
AcDbDimension
  2
*D22
 10
4594.08735343128
 20
6014.614188821911
 30
0.0
 11
4594.087353431279
 21
5679.083239979319
 31
0.0
 70
   160
 71
     5
 42
198.0000000000018
  3
INABA_S40G
100
AcDbAlignedDimension
 13
5551.600000000007
 23
6212.614188821913
 33
0.0
 14
5478.6
 24
6014.614188821911
 34
0.0
 50
90.0
100
AcDbRotatedDimension
1001
ACAD
1000
DSTYLE
1002
{
1070
   341
1005
0
1002
}
  0
DIMENSION
  5
1FB0C
330
747D
100
AcDbEntity
  8
寸法
 48
50.0
100
AcDbDimension
  2
*D23
 10
4342.144256711882
 20
6014.614188821911
 30
0.0
 11
4342.144256711881
 21
6704.614188821911
 31
0.0
 70
   160
 71
     5
 42
1380.0
  3
INABA_S40G
100
AcDbAlignedDimension
 13
5478.6
 23
7394.614188821911
 33
0.0
 14
5478.6
 24
6014.614188821911
 34
0.0
 50
90.0
100
AcDbRotatedDimension
1001
ACAD
1000
DSTYLE
1002
{
1070
   341
1005
0
1002
}
  0
DIMENSION
  5
1FB0E
330
747D
100
AcDbEntity
  8
寸法
 48
50.0
100
AcDbDimension
  2
*D24
 10
4594.08735343128
 20
7271.614188821911
 30
0.0
 11
4594.087353431279
 21
7667.720790539711
 31
0.0
 70
   160
 71
     5
 42
123.0
  3
INABA_S40G
100
AcDbAlignedDimension
 13
5478.6
 23
7394.614188821911
 33
0.0
 14
5551.6
 24
7271.614188821911
 34
0.0
 50
90.0
100
AcDbRotatedDimension
1001
ACAD
1000
DSTYLE
1002
{
1070
   341
1005
0
1002
}
  0
DIMENSION
  5
1FB0F
330
747D
100
AcDbEntity
  8
寸法
 48
50.0
100
AcDbDimension
  2
*D25
 10
5478.6
 20
8077.223005492157
 30
0.0
 11
5205.493398282202
 21
8077.223005492157
 31
0.0
 70
   160
 71
     5
 42
123.0
  3
INABA_S40G
100
AcDbAlignedDimension
 13
5601.600000000001
 23
7321.614188821911
 33
0.0
 14
5478.6
 24
7394.614188821911
 34
0.0
100
AcDbRotatedDimension
1001
ACAD
1000
DSTYLE
1002
{
1070
   341
1005
0
1002
}
  0
DIMENSION
  5
1FB10
330
747D
100
AcDbEntity
  8
寸法
 48
50.0
100
AcDbDimension
  2
*D26
 10
4594.087353431281
 20
6212.614188821913
 30
0.0
 11
4594.087353431279
 21
6704.614188821911
 31
0.0
 70
   160
 71
     5
 42
1058.999999999998
  3
INABA_S40G
100
AcDbAlignedDimension
 13
5551.6
 23
7271.614188821911
 33
0.0
 14
5551.600000000007
 24
6212.614188821913
 34
0.0
 50
90.0
100
AcDbRotatedDimension
1001
ACAD
1000
DSTYLE
1002
{
1070
   341
1005
0
1002
}
  0
DIMENSION
  5
1FB11
330
747D
100
AcDbEntity
  8
寸法
 48
50.0
100
AcDbDimension
  2
*D27
 10
5478.6
 20
8320.880646915819
 30
0.0
 11
6166.100000000004
 21
8420.880646915819
 31
0.0
 70
    32
 71
     5
 42
1375.000000000007
  3
INABA_S40G
100
AcDbAlignedDimension
 13
6853.600000000007
 23
8077.223005492157
 33
0.0
 14
5478.6
 24
7394.614188821911
 34
0.0
100
AcDbRotatedDimension
1001
ACAD
1000
DSTYLE
1002
{
1070
   341
1005
0
1002
}
  0
LINE
  5
1FB14
330
747D
100
AcDbEntity
  8
寸法
 48
50.0
100
AcDbLine
 10
6735.600000000001
 20
8077.223005492157
 30
0.0
 11
7270.151108115732
 21
8077.223005492157
 31
0.0
  0
LINE
  5
1FB1C
330
747D
100
AcDbEntity
  8
部品1
 48
50.0
100
AcDbLine
 10
6953.600000000007
 20
6841.614188821911
 30
0.0
 11
6753.600000000007
 21
6841.614188821911
 31
0.0
  0
LINE
  5
1FB1D
330
747D
100
AcDbEntity
  8
部品1
 48
50.0
100
AcDbLine
 10
6953.600000000007
 20
6641.614188821911
 30
0.0
 11
6753.600000000007
 21
6641.614188821911
 31
0.0
  0
LINE
  5
1FB23
102
{ACAD_REACTORS
330
22F8D
102
}
330
747D
100
AcDbEntity
  8
部品1
 48
50.0
100
AcDbLine
 10
5478.6
 20
6014.614188821911
 30
0.0
 11
5478.6
 21
7394.614188821911
 31
0.0
  0
LINE
  5
1FB36
330
747D
100
AcDbEntity
  8
部品1
 48
50.0
100
AcDbLine
 10
6753.600000000007
 20
6641.614188821911
 30
0.0
 11
6753.600000000007
 21
6841.614188821911
 31
0.0
  0
DIMENSION
  5
1FB37
330
747D
100
AcDbEntity
  8
寸法
 48
50.0
100
AcDbDimension
  2
*D28
 10
5601.600000000001
 20
8077.223005492157
 30
0.0
 11
6168.600000000001
 21
8177.223005492157
 31
0.0
 70
    32
 71
     5
 42
1134.0
  3
INABA_S40G
100
AcDbAlignedDimension
 13
6735.600000000001
 23
7321.614188821911
 33
0.0
 14
5601.600000000001
 24
7321.614188821911
 34
0.0
100
AcDbRotatedDimension
1001
ACAD
1000
DSTYLE
1002
{
1070
   341
1005
0
1002
}
  0
LINE
  5
1FB38
330
747D
100
AcDbEntity
  8
部品1
 48
50.0
100
AcDbLine
 10
7486.773873020654
 20
7394.614188821899
 30
0.0
 11
5478.6
 21
7394.614188821911
 31
0.0
  0
LINE
  5
1FB54
330
747D
100
AcDbEntity
  8
部品1
 48
50.0
100
AcDbLine
 10
6953.600000000007
 20
6641.614188821911
 30
0.0
 11
6953.600000000007
 21
6841.614188821911
 31
0.0
  0
LINE
  5
1FB55
330
747D
100
AcDbEntity
  8
センター
 48
2.0
100
AcDbLine
 10
6853.600000000007
 20
6791.614188821911
 30
0.0
 11
6853.600000000007
 21
6691.614188821912
 31
0.0
  0
LINE
  5
1FB56
330
747D
100
AcDbEntity
  8
センター
 48
2.0
100
AcDbLine
 10
6803.600000000007
 20
6741.614188821912
 30
0.0
 11
6903.600000000007
 21
6741.614188821912
 31
0.0
  0
LINE
  5
1FB5A
330
747D
100
AcDbEntity
  8
センター
 48
2.0
100
AcDbLine
 10
8055.600000000008
 20
6212.614188821913
 30
0.0
 11
8155.600000000008
 21
6212.614188821913
 31
0.0
  0
CIRCLE
  5
1FB5B
330
747D
100
AcDbEntity
  8
部品1
 48
50.0
100
AcDbCircle
 10
8105.600000000007
 20
6212.614188821913
 30
0.0
 40
35.0
  0
LINE
  5
1FB5C
330
747D
100
AcDbEntity
  8
センター
 48
2.0
100
AcDbLine
 10
8105.600000000007
 20
6262.614188821913
 30
0.0
 11
8105.600000000007
 21
6162.614188821913
 31
0.0
  0
LINE
  5
1FB61
330
747D
100
AcDbEntity
  8
部品1
 48
50.0
100
AcDbLine
 10
8323.600000000007
 20
6641.614188821911
 30
0.0
 11
8323.600000000007
 21
6841.614188821911
 31
0.0
  0
LINE
  5
1FB62
330
747D
100
AcDbEntity
  8
部品1
 48
50.0
100
AcDbLine
 10
8123.600000000008
 20
6641.614188821911
 30
0.0
 11
8123.600000000008
 21
6841.614188821911
 31
0.0
  0
LINE
  5
1FB63
330
747D
100
AcDbEntity
  8
センター
 48
2.0
100
AcDbLine
 10
8223.600000000008
 20
6791.614188821911
 30
0.0
 11
8223.600000000008
 21
6691.614188821912
 31
0.0
  0
LINE
  5
1FB64
330
747D
100
AcDbEntity
  8
部品1
 48
50.0
100
AcDbLine
 10
8323.600000000007
 20
6641.614188821911
 30
0.0
 11
8123.600000000008
 21
6641.614188821911
 31
0.0
  0
LINE
  5
1FB65
330
747D
100
AcDbEntity
  8
部品1
 48
50.0
100
AcDbLine
 10
8323.600000000007
 20
6841.614188821911
 30
0.0
 11
8123.600000000008
 21
6841.614188821911
 31
0.0
  0
LINE
  5
1FB66
330
747D
100
AcDbEntity
  8
センター
 48
2.0
100
AcDbLine
 10
8173.600000000007
 20
6741.614188821912
 30
0.0
 11
8273.600000000007
 21
6741.614188821912
 31
0.0
  0
LINE
  5
1FB67
330
747D
100
AcDbEntity
  8
寸法
 48
50.0
100
AcDbLine
 10
8105.6
 20
8077.223005492157
 30
0.0
 11
7616.10007504358
 21
8077.223005492157
 31
0.0
  0
LINE
  5
1FB6C
330
747D
100
AcDbEntity
  8
寸法
 48
50.0
100
AcDbLine
 10
6853.600000000007
 20
8320.880646915819
 30
0.0
 11
7388.151108115739
 21
8320.880646915819
 31
0.0
  0
CIRCLE
  5
1FB6D
330
747D
100
AcDbEntity
  8
部品1
 48
50.0
100
AcDbCircle
 10
8105.6
 20
7271.614188821911
 30
0.0
 40
35.0
  0
LINE
  5
1FB6E
330
747D
100
AcDbEntity
  8
センター
 48
2.0
100
AcDbLine
 10
8105.6
 20
7321.614188821911
 30
0.0
 11
8105.6
 21
7221.614188821911
 31
0.0
  0
LINE
  5
1FB6F
330
747D
100
AcDbEntity
  8
センター
 48
2.0
100
AcDbLine
 10
8055.600000000001
 20
7271.614188821911
 30
0.0
 11
8155.600000000001
 21
7271.614188821911
 31
0.0
  0
LINE
  5
1FB71
330
747D
100
AcDbEntity
  8
寸法
 48
50.0
100
AcDbLine
 10
8223.600000000008
 20
8320.880646915819
 30
0.0
 11
7734.100075043587
 21
8320.880646915819
 31
0.0
  0
DIMENSION
  5
1FB76
330
747D
100
AcDbEntity
  8
寸法
 48
50.0
100
AcDbDimension
  2
*D29
 10
9195.649102633089
 20
6014.614188821925
 30
0.0
 11
9195.649102633087
 21
5727.650606144759
 31
0.0
 70
   160
 71
     5
 42
280.0000000000018
  3
INABA_S40G
100
AcDbAlignedDimension
 13
9090.851516111312
 23
6294.614188821928
 33
0.0
 14
9090.851516111312
 24
6014.614188821925
 34
0.0
 50
90.0
100
AcDbRotatedDimension
1001
ACAD
1000
DSTYLE
1002
{
1070
   341
1005
0
1002
}
  0
DIMENSION
  5
1FC2E
330
747D
100
AcDbEntity
  8
寸法
 48
50.0
100
AcDbDimension
  2
*D30
 10
9593.600000000007
 20
8320.880646915819
 30
0.0
 11
10346.02212135149
 21
8320.880646915819
 31
0.0
 70
   160
 71
     5
 42
1374.999999999993
  3
INABA_S40G
100
AcDbAlignedDimension
 13
10968.6
 23
7394.614188821911
 33
0.0
 14
9593.600000000007
 24
8077.223005492157
 34
0.0
100
AcDbRotatedDimension
1001
ACAD
1000
DSTYLE
1002
{
1070
   341
1005
0
1002
}
  0
DIMENSION
  5
1FC2F
330
747D
100
AcDbEntity
  8
寸法
 48
50.0
100
AcDbDimension
  2
*D31
 10
9475.6
 20
8077.223005492157
 30
0.0
 11
10160.6
 21
8177.223005492157
 31
0.0
 70
    32
 71
     5
 42
1370.0
  3
INABA_S40G
100
AcDbAlignedDimension
 13
10845.6
 23
7321.614188821911
 33
0.0
 14
9475.6
 24
7321.614188821911
 34
0.0
100
AcDbRotatedDimension
1001
ACAD
1000
DSTYLE
1002
{
1070
   341
1005
0
1002
}
  0
DIMENSION
  5
1FC30
330
747D
100
AcDbEntity
  8
寸法
 48
50.0
100
AcDbDimension
  2
*D32
 10
7900.202738780328
 20
7394.614188821911
 30
0.0
 11
7900.202738780326
 21
6984.15157460513
 31
0.0
 70
   160
 71
     5
 42
653.0
  3
INABA_S40G
100
AcDbAlignedDimension
 13
7588.600000000008
 23
6741.614188821912
 33
0.0
 14
8013.600000000002
 24
7394.614188821911
 34
0.0
 50
90.0
100
AcDbRotatedDimension
1001
ACAD
1000
DSTYLE
1002
{
1070
   341
1005
0
1002
}
  0
LINE
  5
1FC33
330
747D
100
AcDbEntity
  8
細線
 48
50.0
100
AcDbLine
 10
8808.600000000017
 20
6223.908300667656
 30
0.0
 11
8879.305888154283
 21
6294.614188821924
 31
0.0
  0
LINE
  5
1FC34
330
747D
100
AcDbEntity
  8
細線
 48
50.0
100
AcDbLine
 10
8823.812291181008
 20
6014.614188821918
 30
0.0
 11
9008.60000000002
 21
6199.401897640933
 31
0.0
  0
LINE
  5
1FC35
330
747D
100
AcDbEntity
  8
細線
 48
50.0
100
AcDbLine
 10
8808.600000000017
 20
6044.303178246273
 30
0.0
 11
9008.600000000019
 21
6244.303178246276
 31
0.0
  0
LINE
  5
1FC36
330
747D
100
AcDbEntity
  8
細線
 48
50.0
100
AcDbLine
 10
8808.600000000017
 20
6089.204458851619
 30
0.0
 11
9008.60000000002
 21
6289.204458851623
 31
0.0
  0
LINE
  5
1FC37
330
747D
100
AcDbEntity
  8
細線
 48
50.0
100
AcDbLine
 10
8808.600000000017
 20
6134.105739456964
 30
0.0
 11
8969.108449364979
 21
6294.614188821924
 31
0.0
  0
LINE
  5
1FC38
330
747D
100
AcDbEntity
  8
細線
 48
50.0
100
AcDbLine
 10
8808.600000000017
 20
6179.00702006231
 30
0.0
 11
8924.207168759613
 21
6294.614188821921
 31
0.0
  0
LINE
  5
1FC39
330
747D
100
AcDbEntity
  8
部品1
 48
50.0
100
AcDbLine
 10
8808.600000000017
 20
6014.614188821925
 30
0.0
 11
8808.600000000023
 21
6294.614188821924
 31
0.0
  0
LINE
  5
1FC3A
330
747D
100
AcDbEntity
  8
細線
 48
50.0
100
AcDbLine
 10
8808.600000000017
 20
6268.809581273002
 30
0.0
 11
8834.404607548934
 21
6294.614188821924
 31
0.0
  0
LINE
  5
1FC3B
330
747D
100
AcDbEntity
  8
細線
 48
50.0
100
AcDbLine
 10
8913.614852391706
 20
6014.614188821922
 30
0.0
 11
9008.600000000019
 21
6109.599336430236
 31
0.0
  0
LINE
  5
1FC3C
330
747D
100
AcDbEntity
  8
細線
 48
50.0
100
AcDbLine
 10
8868.713571786356
 20
6014.614188821918
 30
0.0
 11
9008.600000000019
 21
6154.500617035582
 31
0.0
  0
LINE
  5
1FC3D
330
747D
100
AcDbEntity
  8
部品1
 48
50.0
100
AcDbLine
 10
9008.600000000017
 20
6014.614188821925
 30
0.0
 11
9008.60000000002
 21
6294.614188821924
 31
0.0
  0
LINE
  5
1FC3E
330
747D
100
AcDbEntity
  8
細線
 48
50.0
100
AcDbLine
 10
9003.417413602399
 20
6014.614188821925
 30
0.0
 11
9008.600000000019
 21
6019.796775219544
 31
0.0
  0
LINE
  5
1FC3F
330
747D
100
AcDbEntity
  8
細線
 48
50.0
100
AcDbLine
 10
8958.516132997051
 20
6014.614188821923
 30
0.0
 11
9008.600000000019
 21
6064.69805582489
 31
0.0
  0
DIMENSION
  5
1FC40
330
747D
100
AcDbEntity
  8
寸法
 48
50.0
100
AcDbDimension
  2
*D33
 10
7900.202738780326
 20
6741.614188821912
 30
0.0
 11
7900.202738780325
 21
6465.903873811521
 31
0.0
 70
   160
 71
     5
 42
726.9999999999908
  3
INABA_S40G
100
AcDbAlignedDimension
 13
8013.600000000002
 23
6014.614188821921
 33
0.0
 14
7588.600000000008
 24
6741.614188821912
 34
0.0
 50
90.0
100
AcDbRotatedDimension
1001
ACAD
1000
DSTYLE
1002
{
1070
   341
1005
0
1002
}
  0
CIRCLE
  5
1FC41
330
747D
100
AcDbEntity
  8
部品1
 48
50.0
100
AcDbCircle
 10
9475.600000000007
 20
6212.614188821913
 30
0.0
 40
35.0
  0
LINE
  5
1FC42
330
747D
100
AcDbEntity
  8
センター
 48
2.0
100
AcDbLine
 10
9425.600000000008
 20
6212.614188821913
 30
0.0
 11
9525.600000000007
 21
6212.614188821913
 31
0.0
  0
LINE
  5
1FC43
330
747D
100
AcDbEntity
  8
センター
 48
2.0
100
AcDbLine
 10
9475.600000000007
 20
6262.614188821913
 30
0.0
 11
9475.600000000007
 21
6162.614188821913
 31
0.0
  0
LINE
  5
1FC44
330
747D
100
AcDbEntity
  8
部品1
 48
50.0
100
AcDbLine
 10
9693.600000000008
 20
6841.614188821911
 30
0.0
 11
9493.600000000007
 21
6841.614188821911
 31
0.0
  0
LINE
  5
1FC45
330
747D
100
AcDbEntity
  8
部品1
 48
50.0
100
AcDbLine
 10
9693.600000000008
 20
6641.614188821911
 30
0.0
 11
9493.600000000007
 21
6641.614188821911
 31
0.0
  0
LINE
  5
1FC46
330
747D
100
AcDbEntity
  8
センター
 48
2.0
100
AcDbLine
 10
9593.600000000007
 20
6791.614188821911
 30
0.0
 11
9593.600000000007
 21
6691.614188821912
 31
0.0
  0
LINE
  5
1FC47
330
747D
100
AcDbEntity
  8
部品1
 48
50.0
100
AcDbLine
 10
9493.600000000007
 20
6641.614188821911
 30
0.0
 11
9493.600000000007
 21
6841.614188821911
 31
0.0
  0
LINE
  5
1FC48
330
747D
100
AcDbEntity
  8
センター
 48
2.0
100
AcDbLine
 10
9543.600000000008
 20
6741.614188821912
 30
0.0
 11
9643.600000000008
 21
6741.614188821912
 31
0.0
  0
LINE
  5
1FC49
330
747D
100
AcDbEntity
  8
部品1
 48
50.0
100
AcDbLine
 10
9693.600000000008
 20
6641.614188821911
 30
0.0
 11
9693.600000000008
 21
6841.614188821911
 31
0.0
  0
DIMENSION
  5
1FC4A
330
747D
100
AcDbEntity
  8
寸法
 48
50.0
100
AcDbDimension
  2
*D34
 10
9195.649102633089
 20
7194.614188821869
 30
0.0
 11
9195.649102633089
 21
7681.577771499077
 31
0.0
 70
   160
 71
     5
 42
200.0000000000418
  3
INABA_S40G
100
AcDbAlignedDimension
 13
9303.779728401337
 23
7394.614188821911
 33
0.0
 14
9345.600000000008
 24
7194.614188821869
 34
0.0
 50
90.0
100
AcDbRotatedDimension
1001
ACAD
1000
DSTYLE
1002
{
1070
   341
1005
0
1002
}
  0
LINE
  5
1FC4B
330
747D
100
AcDbEntity
  8
細線
 48
50.0
100
AcDbLine
 10
8836.37899544195
 20
7194.614188821853
 30
0.0
 11
9008.599999999999
 21
7366.8351933799
 31
0.0
  0
LINE
  5
1FC4C
330
747D
100
AcDbEntity
  8
細線
 48
50.0
100
AcDbLine
 10
8808.6
 20
7211.736473985246
 30
0.0
 11
8991.477714836666
 21
7394.614188821911
 31
0.0
  0
LINE
  5
1FC4D
330
747D
100
AcDbEntity
  8
細線
 48
50.0
100
AcDbLine
 10
8808.6
 20
7256.637754590592
 30
0.0
 11
8946.576434231319
 21
7394.614188821911
 31
0.0
  0
LINE
  5
1FC4E
330
747D
100
AcDbEntity
  8
細線
 48
50.0
100
AcDbLine
 10
8808.6
 20
7301.539035195936
 30
0.0
 11
8901.675153625975
 21
7394.614188821911
 31
0.0
  0
LINE
  5
1FC4F
330
747D
100
AcDbEntity
  8
細線
 48
50.0
100
AcDbLine
 10
8808.6
 20
7346.440315801281
 30
0.0
 11
8856.773873020626
 21
7394.614188821909
 31
0.0
  0
LINE
  5
1FC50
330
747D
100
AcDbEntity
  8
部品1
 48
50.0
100
AcDbLine
 10
8808.6
 20
7194.614188821853
 30
0.0
 11
8808.6
 21
7394.614188821911
 31
0.0
  0
LINE
  5
1FC51
330
747D
100
AcDbEntity
  8
細線
 48
50.0
100
AcDbLine
 10
8808.6
 20
7391.341596406629
 30
0.0
 11
8811.872592415282
 21
7394.614188821909
 31
0.0
  0
LINE
  5
1FC52
330
747D
100
AcDbEntity
  8
細線
 48
50.0
100
AcDbLine
 10
8926.181556652643
 20
7194.614188821855
 30
0.0
 11
9008.599999999999
 21
7277.032632169209
 31
0.0
  0
LINE
  5
1FC53
330
747D
100
AcDbEntity
  8
細線
 48
50.0
100
AcDbLine
 10
8881.280276047297
 20
7194.614188821855
 30
0.0
 11
9008.599999999999
 21
7321.933912774554
 31
0.0
  0
LINE
  5
1FC54
330
747D
100
AcDbEntity
  8
部品1
 48
50.0
100
AcDbLine
 10
9008.599999999999
 20
7194.614188821858
 30
0.0
 11
9008.599999999999
 21
7394.614188821911
 31
0.0
  0
LINE
  5
1FC55
330
747D
100
AcDbEntity
  8
細線
 48
50.0
100
AcDbLine
 10
8971.082837257993
 20
7194.614188821858
 30
0.0
 11
9008.599999999999
 21
7232.131351563864
 31
0.0
  0
LINE
  5
1FC56
330
747D
100
AcDbEntity
  8
センター
 48
2.0
100
AcDbLine
 10
9475.6
 20
7321.614188821911
 30
0.0
 11
9475.6
 21
7221.614188821911
 31
0.0
  0
CIRCLE
  5
1FC57
330
747D
100
AcDbEntity
  8
部品1
 48
50.0
100
AcDbCircle
 10
9475.6
 20
7271.614188821911
 30
0.0
 40
35.0
  0
LINE
  5
1FC58
330
747D
100
AcDbEntity
  8
センター
 48
2.0
100
AcDbLine
 10
9425.600000000001
 20
7271.614188821911
 30
0.0
 11
9525.6
 21
7271.614188821911
 31
0.0
  0
DIMENSION
  5
1FC59
330
747D
100
AcDbEntity
  8
寸法
 48
50.0
100
AcDbDimension
  2
*D35
 10
10848.6
 20
6936.905521321538
 30
0.0
 11
11268.8956087401
 21
6936.905521321538
 31
0.0
 70
   160
 71
     5
 42
120.0
  3
INABA_S40G
100
AcDbAlignedDimension
 13
10968.6
 23
6804.614188821918
 33
0.0
 14
10848.6
 24
6804.614188821918
 34
0.0
100
AcDbRotatedDimension
1001
ACAD
1000
DSTYLE
1002
{
1070
   341
1005
0
1002
}
  0
LINE
  5
1FC5B
102
{ACAD_REACTORS
330
22F99
102
}
330
747D
100
AcDbEntity
  8
部品1
 48
50.0
100
AcDbLine
 10
10968.6
 20
6014.614188821929
 30
0.0
 11
10968.6
 21
7394.614188821911
 31
0.0
  0
LINE
  5
1FC5C
102
{ACAD_REACTORS
330
22F99
102
}
330
747D
100
AcDbEntity
  8
部品1
 48
50.0
100
AcDbLine
 10
10968.6
 20
6804.614188821918
 30
0.0
 11
10845.72944330304
 21
6804.614188821918
 31
0.0
  0
LINE
  5
1FC5D
102
{ACAD_REACTORS
330
22F99
102
}
330
747D
100
AcDbEntity
  8
部品1
 48
50.0
100
AcDbLine
 10
10968.6
 20
6604.614188821918
 30
0.0
 11
10848.6
 21
6604.614188821918
 31
0.0
  0
LINE
  5
1FC5F
330
747D
100
AcDbEntity
  8
細線
 48
50.0
100
AcDbLine
 10
10283.6148523917
 20
6014.614188821922
 30
0.0
 11
10378.60000000002
 21
6109.599336430236
 31
0.0
  0
LINE
  5
1FC60
330
747D
100
AcDbEntity
  8
細線
 48
50.0
100
AcDbLine
 10
10238.71357178635
 20
6014.614188821918
 30
0.0
 11
10378.60000000002
 21
6154.500617035582
 31
0.0
  0
LINE
  5
1FC61
330
747D
100
AcDbEntity
  8
細線
 48
50.0
100
AcDbLine
 10
10193.81229118101
 20
6014.614188821918
 30
0.0
 11
10378.60000000002
 21
6199.401897640928
 31
0.0
  0
LINE
  5
1FC62
330
747D
100
AcDbEntity
  8
細線
 48
50.0
100
AcDbLine
 10
10178.60000000001
 20
6044.303178246273
 30
0.0
 11
10378.60000000002
 21
6244.303178246274
 31
0.0
  0
LINE
  5
1FC63
330
747D
100
AcDbEntity
  8
細線
 48
50.0
100
AcDbLine
 10
10178.60000000002
 20
6089.204458851619
 30
0.0
 11
10378.60000000002
 21
6289.204458851621
 31
0.0
  0
LINE
  5
1FC64
330
747D
100
AcDbEntity
  8
部品1
 48
50.0
100
AcDbLine
 10
10378.60000000002
 20
6014.614188821925
 30
0.0
 11
10378.60000000002
 21
6294.614188821925
 31
0.0
  0
LINE
  5
1FC65
330
747D
100
AcDbEntity
  8
部品1
 48
50.0
100
AcDbLine
 10
10178.60000000001
 20
6014.614188821925
 30
0.0
 11
10178.60000000002
 21
6294.614188821925
 31
0.0
  0
LINE
  5
1FC66
330
747D
100
AcDbEntity
  8
細線
 48
50.0
100
AcDbLine
 10
10373.4174136024
 20
6014.614188821925
 30
0.0
 11
10378.60000000002
 21
6019.796775219544
 31
0.0
  0
LINE
  5
1FC67
330
747D
100
AcDbEntity
  8
細線
 48
50.0
100
AcDbLine
 10
10328.51613299705
 20
6014.614188821923
 30
0.0
 11
10378.60000000002
 21
6064.69805582489
 31
0.0
  0
LINE
  5
1FC68
330
747D
100
AcDbEntity
  8
細線
 48
50.0
100
AcDbLine
 10
10178.60000000001
 20
6134.105739456964
 30
0.0
 11
10339.10844936498
 21
6294.614188821925
 31
0.0
  0
LINE
  5
1FC69
330
747D
100
AcDbEntity
  8
細線
 48
50.0
100
AcDbLine
 10
10178.60000000001
 20
6179.00702006231
 30
0.0
 11
10294.20716875967
 21
6294.614188821925
 31
0.0
  0
LINE
  5
1FC6A
330
747D
100
AcDbEntity
  8
細線
 48
50.0
100
AcDbLine
 10
10178.60000000001
 20
6223.908300667656
 30
0.0
 11
10249.30588815429
 21
6294.614188821929
 31
0.0
  0
LINE
  5
1FC6B
330
747D
100
AcDbEntity
  8
細線
 48
50.0
100
AcDbLine
 10
10178.60000000001
 20
6268.809581273002
 30
0.0
 11
10204.40460754895
 21
6294.614188821928
 31
0.0
  0
LINE
  5
1FC6C
330
747D
100
AcDbEntity
  8
センター
 48
2.0
100
AcDbLine
 10
10795.6
 20
6212.614188821913
 30
0.0
 11
10895.6
 21
6212.614188821913
 31
0.0
  0
CIRCLE
  5
1FC6D
330
747D
100
AcDbEntity
  8
部品1
 48
50.0
100
AcDbCircle
 10
10845.60000000001
 20
6212.614188821913
 30
0.0
 40
35.0
  0
LINE
  5
1FC6E
330
747D
100
AcDbEntity
  8
センター
 48
2.0
100
AcDbLine
 10
10845.60000000001
 20
6262.614188821913
 30
0.0
 11
10845.60000000001
 21
6162.614188821913
 31
0.0
  0
DIMENSION
  5
1FC6F
330
747D
100
AcDbEntity
  8
寸法
 48
50.0
100
AcDbDimension
  2
*D36
 10
10845.6
 20
8077.223005492157
 30
0.0
 11
11241.7066017178
 21
8077.223005492157
 31
0.0
 70
   160
 71
     5
 42
123.0
  3
INABA_S40G
100
AcDbAlignedDimension
 13
10968.6
 23
7394.614188821911
 33
0.0
 14
10845.6
 24
7321.614188821911
 34
0.0
100
AcDbRotatedDimension
1001
ACAD
1000
DSTYLE
1002
{
1070
   341
1005
0
1002
}
  0
LINE
  5
1FC70
330
747D
100
AcDbEntity
  8
部品1
 48
50.0
100
AcDbLine
 10
10378.6
 20
7194.614188821896
 30
0.0
 11
10378.6
 21
7394.614188821911
 31
0.0
  0
LINE
  5
1FC71
330
747D
100
AcDbEntity
  8
細線
 48
50.0
100
AcDbLine
 10
10296.18155665269
 20
7194.614188821896
 30
0.0
 11
10378.6
 21
7277.032632169209
 31
0.0
  0
LINE
  5
1FC72
330
747D
100
AcDbEntity
  8
細線
 48
50.0
100
AcDbLine
 10
10251.28027604734
 20
7194.614188821894
 30
0.0
 11
10378.6
 21
7321.933912774554
 31
0.0
  0
LINE
  5
1FC73
330
747D
100
AcDbEntity
  8
細線
 48
50.0
100
AcDbLine
 10
10206.37899544199
 20
7194.614188821893
 30
0.0
 11
10378.6
 21
7366.8351933799
 31
0.0
  0
LINE
  5
1FC74
330
747D
100
AcDbEntity
  8
細線
 48
50.0
100
AcDbLine
 10
10178.6
 20
7211.736473985249
 30
0.0
 11
10361.47771483666
 21
7394.614188821909
 31
0.0
  0
LINE
  5
1FC75
330
747D
100
AcDbEntity
  8
細線
 48
50.0
100
AcDbLine
 10
10178.6
 20
7256.637754590592
 30
0.0
 11
10316.57643423132
 21
7394.614188821911
 31
0.0
  0
LINE
  5
1FC76
330
747D
100
AcDbEntity
  8
部品1
 48
50.0
100
AcDbLine
 10
10178.6
 20
7194.614188821891
 30
0.0
 11
10178.6
 21
7394.614188821911
 31
0.0
  0
LINE
  5
1FC77
330
747D
100
AcDbEntity
  8
細線
 48
50.0
100
AcDbLine
 10
10341.08283725803
 20
7194.614188821893
 30
0.0
 11
10378.6
 21
7232.131351563864
 31
0.0
  0
LINE
  5
1FC78
330
747D
100
AcDbEntity
  8
細線
 48
50.0
100
AcDbLine
 10
10178.6
 20
7301.539035195936
 30
0.0
 11
10271.67515362597
 21
7394.614188821911
 31
0.0
  0
LINE
  5
1FC79
330
747D
100
AcDbEntity
  8
細線
 48
50.0
100
AcDbLine
 10
10178.6
 20
7346.440315801281
 30
0.0
 11
10226.77387302062
 21
7394.614188821911
 31
0.0
  0
LINE
  5
1FC7A
330
747D
100
AcDbEntity
  8
細線
 48
50.0
100
AcDbLine
 10
10178.6
 20
7391.341596406629
 30
0.0
 11
10181.87259241528
 21
7394.614188821911
 31
0.0
  0
LINE
  5
1FC7B
330
747D
100
AcDbEntity
  8
センター
 48
2.0
100
AcDbLine
 10
10845.6
 20
7321.614188821911
 30
0.0
 11
10845.6
 21
7221.614188821911
 31
0.0
  0
CIRCLE
  5
1FC7C
330
747D
100
AcDbEntity
  8
部品1
 48
50.0
100
AcDbCircle
 10
10845.6
 20
7271.614188821911
 30
0.0
 40
35.0
  0
LINE
  5
1FC7D
330
747D
100
AcDbEntity
  8
センター
 48
2.0
100
AcDbLine
 10
10795.6
 20
7271.614188821911
 30
0.0
 11
10895.6
 21
7271.614188821911
 31
0.0
  0
LEADER
  5
202B8
330
747D
100
AcDbEntity
  8
寸法
 48
50.0
100
AcDbLeader
  3
INABA_S50G
 73
     0
 74
     0
 75
     1
 40
120.0
 41
149.591883092037
 76
     3
 10
8271.424765008514
 20
6679.638866126217
 30
0.0
 10
8397.269739003663
 20
6381.624952558383
 30
0.0
 10
8522.269739003663
 20
6381.624952558383
 30
0.0
340
202B9
213
49.59188309203728
223
0.0
233
0.0
1001
ACAD
1000
DSTYLE
1002
{
1070
   341
1005
0
1070
    40
1040
1.0
1070
   343
1005
0
1070
   344
1005
0
1002
}
  0
MTEXT
  5
202B9
102
{ACAD_REACTORS
330
202B8
102
}
330
747D
100
AcDbEntity
  8
部品1
 62
     7
 48
50.0
100
AcDbMText
 10
8647.269739003661
 20
6466.624952558383
 30
0.0
 40
120.0
 41
0.0
 71
     6
 72
     1
  1
CB
  7
STYLE1
 73
     1
 44
1.0
1001
ACAD
1000
MTEXTBEGIN
1070
    73
1070
     1
1070
    44
1040
1.0
1070
    74
1070
     0
1000
MTEXTEND
  0
LEADER
  5
202BB
330
747D
100
AcDbEntity
  8
寸法
 48
50.0
100
AcDbLeader
  3
INABA_S50G
 73
     0
 74
     0
 75
     1
 40
120.0
 41
994.3492424049171
 76
     3
 10
10845.68008575699
 20
7271.627912018125
 30
0.0
 10
11039.64450095955
 20
7800.874542133232
 30
0.0
 10
11164.64450095955
 20
7800.874542133232
 30
0.0
340
202BC
1001
ACAD
1000
DSTYLE
1002
{
1070
   341
1005
0
1070
    40
1040
1.0
1070
   343
1005
0
1070
   344
1005
0
1002
}
  0
MTEXT
  5
202BC
102
{ACAD_REACTORS
330
202BB
102
}
330
747D
100
AcDbEntity
  8
部品1
 62
     7
 48
50.0
100
AcDbMText
 10
12183.99374336447
 20
7885.874542133233
 30
0.0
 40
120.0
 41
0.0
 71
     6
 72
     1
  1
アンカーボルト
  7
STYLE1
 73
     1
 44
1.0
1001
ACAD
1000
MTEXTBEGIN
1070
    73
1070
     1
1070
    44
1040
1.0
1070
    74
1070
     0
1000
MTEXTEND
  0
LINE
  5
202BD
330
747D
100
AcDbEntity
  8
想像線
 48
10.0
100
AcDbLine
 10
11013.6
 20
7469.614188821911
 30
0.0
 11
7522.929848731464
 21
7469.614188821913
 31
0.0
  0
LINE
  5
202BE
330
747D
100
AcDbEntity
  8
想像線
 48
10.0
100
AcDbLine
 10
11013.6
 20
5959.614188821933
 30
0.0
 11
7118.326568160473
 21
5959.614188821924
 31
0.0
  0
LINE
  5
202BF
330
747D
100
AcDbEntity
  8
想像線
 48
10.0
100
AcDbLine
 10
5433.600000000001
 20
5959.614188821922
 30
0.0
 11
5433.600000000001
 21
7469.614188821913
 31
0.0
  0
LINE
  5
202C0
330
747D
100
AcDbEntity
  8
想像線
 48
10.0
100
AcDbLine
 10
11013.6
 20
5959.614188821933
 30
0.0
 11
11013.6
 21
7469.614188821911
 31
0.0
  0
DIMENSION
  5
202C8
330
747D
100
AcDbEntity
  8
寸法
 48
50.0
100
AcDbDimension
  2
*D37
 10
11013.6
 20
8552.834510880833
 30
0.0
 11
11284.77462120246
 21
8552.834510880833
 31
0.0
 70
   160
  1
a
 71
     5
 42
45.0
  3
INABA_S40G
100
AcDbAlignedDimension
 13
10968.6
 23
7394.614188821911
 33
0.0
 14
11013.6
 24
8077.223005492157
 34
0.0
100
AcDbRotatedDimension
1001
ACAD
1000
DSTYLE
1002
{
1070
   341
1005
0
1002
}
  0
TEXT
  5
202EB
330
747D
100
AcDbEntity
  8
寸法
 48
50.0
100
AcDbText
 10
8418.310648592354
 20
6046.274376180822
 30
0.0
 40
96.0
  1
扉面
  7
STYLE1
100
AcDbText
  0
LEADER
  5
202FA
330
747D
100
AcDbEntity
  8
寸法
 48
50.0
100
AcDbLeader
  3
INABA_S50G
 73
     0
 74
     0
 75
     1
 40
120.0
 41
672.0
 76
     3
 10
10297.05913284934
 20
5959.404460747152
 30
0.0
 10
10412.99914504139
 20
5700.515117283576
 30
0.0
 10
10537.99914504139
 20
5700.515117283576
 30
0.0
340
202FB
1001
ACAD
1000
DSTYLE
1002
{
1070
   341
1005
0
1070
    40
1040
1.0
1070
   343
1005
0
1070
   344
1005
0
1002
}
  0
MTEXT
  5
202FB
102
{ACAD_REACTORS
330
202FA
102
}
330
747D
100
AcDbEntity
  8
部品1
 62
     7
 48
50.0
100
AcDbMText
 10
11234.99914504139
 20
5785.515117283576
 30
0.0
 40
120.0
 41
0.0
 71
     6
 72
     1
  1
\A1;屋根の外寸
  7
STYLE1
 73
     1
 44
1.0
1001
ACAD
1000
MTEXTBEGIN
1070
    73
1070
     1
1070
    44
1040
1.0
1070
    74
1070
     0
1000
MTEXTEND
  0
TEXT
  5
202FC
330
747D
100
AcDbEntity
  8
部品1
 48
50.0
100
AcDbText
 10
10437.21194905278
 20
5606.204430350501
 30
0.0
 40
80.0
  1
※a,b,cは屋根の出幅です。
  7
STYLE1
100
AcDbText
  0
TEXT
  5
202FD
330
747D
100
AcDbEntity
  8
部品1
 48
50.0
100
AcDbText
 10
10595.79095780708
 20
5499.359209481748
 30
0.0
 40
80.0
  1
(a=45,b=55,c=75)
  7
STYLE1
100
AcDbText
  0
MTEXT
  5
202FE
102
{ACAD_REACTORS
330
202FF
102
}
330
747D
100
AcDbEntity
  8
部品1
 62
     7
 48
50.0
100
AcDbMText
 10
11995.46907400127
 20
6523.588891127224
 30
0.0
 40
120.0
 41
0.0
 71
     6
 72
     1
  1
\A1;床下換気口
  7
STYLE1
 73
     1
 44
1.0
1001
ACAD
1000
MTEXTBEGIN
1070
    73
1070
     1
1070
    44
1040
1.0
1070
    74
1070
     0
1000
MTEXTEND
  0
LEADER
  5
202FF
330
747D
100
AcDbEntity
  8
寸法
 48
50.0
100
AcDbLeader
  3
INABA_S50G
 73
     0
 74
     0
 75
     1
 40
120.0
 41
720.0000000000001
 76
     3
 10
10968.69549961499
 20
6699.602804695057
 30
0.0
 10
11125.46907400127
 20
6438.588891127224
 30
0.0
 10
11250.46907400127
 20
6438.588891127224
 30
0.0
340
202FE
1001
ACAD
1000
DSTYLE
1002
{
1070
   341
1005
0
1070
    40
1040
1.0
1070
   343
1005
0
1070
   344
1005
0
1002
}
  0
DIMENSION
  5
2030F
330
747D
100
AcDbEntity
  8
寸法
 48
50.0
100
AcDbDimension
  2
*D38
 10
4342.144256711883
 20
7394.614188821911
 30
0.0
 11
4242.144256711882
 21
7432.114188821913
 31
0.0
 70
    32
  1
c
 71
     5
 42
75.00000000000091
  3
INABA_S40G
100
AcDbAlignedDimension
 13
4594.087353431279
 23
7469.614188821913
 33
0.0
 14
5478.599999999999
 24
7394.614188821911
 34
0.0
 50
90.0
100
AcDbRotatedDimension
1001
ACAD
1000
DSTYLE
1002
{
1070
   341
1005
0
1002
}
  0
DIMENSION
  5
20311
330
747D
100
AcDbEntity
  8
寸法
 48
50.0
100
AcDbDimension
  2
*D39
 10
5478.599999999999
 20
8552.834510880833
 30
0.0
 11
5162.425378797541
 21
8552.834510880833
 31
0.0
 70
   160
  1
a
 71
     5
 42
44.99999999999727
  3
INABA_S40G
100
AcDbAlignedDimension
 13
5433.600000000001
 23
8077.223005492157
 33
0.0
 14
5478.599999999999
 24
7394.614188821911
 34
0.0
100
AcDbRotatedDimension
1001
ACAD
1000
DSTYLE
1002
{
1070
   341
1005
0
1002
}
  0
DIMENSION
  5
2031B
330
747D
100
AcDbEntity
  8
寸法
 48
50.0
100
AcDbDimension
  2
*D40
 10
4342.144256711883
 20
5959.614188821922
 30
0.0
 11
4242.144256711882
 21
5987.114188821917
 31
0.0
 70
    32
  1
b
 71
     5
 42
54.99999999998909
  3
INABA_S40G
100
AcDbAlignedDimension
 13
5478.6
 23
6014.614188821911
 33
0.0
 14
4594.087353431281
 24
5959.614188821922
 34
0.0
 50
90.0
100
AcDbRotatedDimension
1001
ACAD
1000
DSTYLE
1002
{
1070
   341
1005
0
1002
}
  0
LINE
  5
2073A
330
747D
100
AcDbEntity
  8
センター
 48
2.0
100
AcDbLine
 10
5651.600000000001
 20
7271.614188821911
 30
0.0
 11
5551.6
 21
7271.614188821911
 31
0.0
  0
CIRCLE
  5
2073B
330
747D
100
AcDbEntity
  8
部品1
 48
50.0
100
AcDbCircle
 10
5601.600000000001
 20
7271.614188821911
 30
0.0
 40
35.0
  0
LINE
  5
2073C
330
747D
100
AcDbEntity
  8
センター
 48
2.0
100
AcDbLine
 10
5601.600000000001
 20
7321.614188821911
 30
0.0
 11
5601.600000000001
 21
7221.614188821911
 31
0.0
  0
LINE
  5
20749
330
747D
100
AcDbEntity
  8
センター
 48
2.0
100
AcDbLine
 10
5601.599999999994
 20
6262.614188821913
 30
0.0
 11
5601.599999999994
 21
6162.614188821913
 31
0.0
  0
CIRCLE
  5
2074A
330
747D
100
AcDbEntity
  8
部品1
 48
50.0
100
AcDbCircle
 10
5601.599999999994
 20
6212.614188821913
 30
0.0
 40
35.0
  0
LINE
  5
2074B
330
747D
100
AcDbEntity
  8
センター
 48
2.0
100
AcDbLine
 10
5651.599999999993
 20
6212.614188821913
 30
0.0
 11
5551.599999999993
 21
6212.614188821913
 31
0.0
  0
LINE
  5
2075A
102
{ACAD_REACTORS
330
22F8D
102
}
330
747D
100
AcDbEntity
  8
部品1
 48
50.0
100
AcDbLine
 10
5478.6
 20
6604.614188821918
 30
0.0
 11
5598.600000000001
 21
6604.614188821919
 31
0.0
  0
LINE
  5
2075B
102
{ACAD_REACTORS
330
22F8D
102
}
330
747D
100
AcDbEntity
  8
部品1
 48
50.0
100
AcDbLine
 10
5478.6
 20
6804.614188821918
 30
0.0
 11
5598.600000000001
 21
6804.614188821919
 31
0.0
  0
LINE
  5
20A63
330
747D
100
AcDbEntity
  8
センター
 48
2.0
100
AcDbLine
 10
6685.6
 20
7271.614188821911
 30
0.0
 11
6785.600000000001
 21
7271.614188821911
 31
0.0
  0
LINE
  5
20A64
330
747D
100
AcDbEntity
  8
センター
 48
2.0
100
AcDbLine
 10
6735.600000000001
 20
7321.614188821911
 30
0.0
 11
6735.600000000001
 21
7221.614188821911
 31
0.0
  0
CIRCLE
  5
20A65
330
747D
100
AcDbEntity
  8
部品1
 48
50.0
100
AcDbCircle
 10
6735.600000000001
 20
7271.614188821911
 30
0.0
 40
35.0
  0
LINE
  5
20A66
330
747D
100
AcDbEntity
  8
センター
 48
2.0
100
AcDbLine
 10
6735.600000000008
 20
6262.614188821913
 30
0.0
 11
6735.600000000008
 21
6162.614188821913
 31
0.0
  0
CIRCLE
  5
20A67
330
747D
100
AcDbEntity
  8
部品1
 48
50.0
100
AcDbCircle
 10
6735.600000000008
 20
6212.614188821913
 30
0.0
 40
35.0
  0
LINE
  5
20A68
330
747D
100
AcDbEntity
  8
センター
 48
2.0
100
AcDbLine
 10
6685.600000000007
 20
6212.614188821913
 30
0.0
 11
6785.600000000008
 21
6212.614188821913
 31
0.0
  0
MTEXT
  5
20A84
330
747D
100
AcDbEntity
  8
寸法
 62
     7
 48
50.0
100
AcDbMText
 10
7073.083685065679
 20
8171.425450878
 30
0.0
 40
120.0
 41
0.0
 71
     5
 72
     1
  1
\A1;1370
  7
STYLE1
 73
     1
 44
1.0
1001
ACAD
1000
MTEXTBEGIN
1070
    73
1070
     1
1070
    44
1040
1.0
1070
    74
1070
     0
1000
MTEXTEND
  0
MTEXT
  5
20A85
330
747D
100
AcDbEntity
  8
寸法
 62
     7
 48
50.0
100
AcDbMText
 10
7857.368100093373
 20
8171.425450878
 30
0.0
 40
120.0
 41
0.0
 71
     5
 72
     1
  1
\A1;1370
  7
STYLE1
 73
     1
 44
1.0
1001
ACAD
1000
MTEXTBEGIN
1070
    73
1070
     1
1070
    44
1040
1.0
1070
    74
1070
     0
1000
MTEXTEND
  0
MTEXT
  5
20A86
330
747D
100
AcDbEntity
  8
寸法
 62
     7
 48
50.0
100
AcDbMText
 10
7943.344182203322
 20
8420.959379815554
 30
0.0
 40
120.0
 41
0.0
 71
     5
 72
     1
  1
\A1;1370
  7
STYLE1
 73
     1
 44
1.0
1001
ACAD
1000
MTEXTBEGIN
1070
    73
1070
     1
1070
    44
1040
1.0
1070
    74
1070
     0
1000
MTEXTEND
  0
MTEXT
  5
20A87
330
747D
100
AcDbEntity
  8
寸法
 62
     7
 48
50.0
100
AcDbMText
 10
7113.347392479322
 20
8420.959379815554
 30
0.0
 40
120.0
 41
0.0
 71
     5
 72
     1
  1
\A1;1370
  7
STYLE1
 73
     1
 44
1.0
1001
ACAD
1000
MTEXTBEGIN
1070
    73
1070
     1
1070
    44
1040
1.0
1070
    74
1070
     0
1000
MTEXTEND
  0
LINE
  5
20A89
330
747D
100
AcDbEntity
  8
部品1
 48
50.0
100
AcDbLine
 10
7638.600000000001
 20
7194.614188821858
 30
0.0
 11
7638.600000000001
 21
7394.614188821911
 31
0.0
  0
LINE
  5
20A93
330
747D
100
AcDbEntity
  8
細線
 48
50.0
100
AcDbLine
 10
7588.51613299705
 20
6014.614188821923
 30
0.0
 11
7638.600000000018
 21
6064.69805582489
 31
0.0
  0
LINE
  5
20A94
330
747D
100
AcDbEntity
  8
細線
 48
50.0
100
AcDbLine
 10
7633.417413602399
 20
6014.614188821925
 30
0.0
 11
7638.600000000018
 21
6019.796775219544
 31
0.0
  0
LINE
  5
20A95
330
747D
100
AcDbEntity
  8
部品1
 48
50.0
100
AcDbLine
 10
7638.600000000017
 20
6014.614188821925
 30
0.0
 11
7638.600000000021
 21
6294.614188821924
 31
0.0
  0
LINE
  5
20A96
330
747D
100
AcDbEntity
  8
細線
 48
50.0
100
AcDbLine
 10
7498.713571786355
 20
6014.614188821918
 30
0.0
 11
7638.600000000018
 21
6154.500617035582
 31
0.0
  0
LINE
  5
20A97
330
747D
100
AcDbEntity
  8
細線
 48
50.0
100
AcDbLine
 10
7543.614852391705
 20
6014.614188821922
 30
0.0
 11
7638.600000000018
 21
6109.599336430236
 31
0.0
  0
LINE
  5
20A98
330
747D
100
AcDbEntity
  8
細線
 48
50.0
100
AcDbLine
 10
7438.600000000016
 20
6268.809581273002
 30
0.0
 11
7464.404607548935
 21
6294.614188821924
 31
0.0
  0
LINE
  5
20A99
330
747D
100
AcDbEntity
  8
部品1
 48
50.0
100
AcDbLine
 10
7438.600000000016
 20
6014.614188821925
 30
0.0
 11
7438.600000000022
 21
6294.614188821924
 31
0.0
  0
LINE
  5
20A9A
330
747D
100
AcDbEntity
  8
細線
 48
50.0
100
AcDbLine
 10
7438.600000000016
 20
6179.00702006231
 30
0.0
 11
7554.207168759614
 21
6294.614188821921
 31
0.0
  0
LINE
  5
20A9B
330
747D
100
AcDbEntity
  8
細線
 48
50.0
100
AcDbLine
 10
7438.600000000016
 20
6134.105739456964
 30
0.0
 11
7599.10844936498
 21
6294.614188821924
 31
0.0
  0
LINE
  5
20A9C
330
747D
100
AcDbEntity
  8
細線
 48
50.0
100
AcDbLine
 10
7438.600000000018
 20
6089.204458851619
 30
0.0
 11
7638.600000000021
 21
6289.204458851623
 31
0.0
  0
LINE
  5
20A9D
330
747D
100
AcDbEntity
  8
細線
 48
50.0
100
AcDbLine
 10
7438.600000000018
 20
6044.303178246273
 30
0.0
 11
7638.600000000018
 21
6244.303178246276
 31
0.0
  0
LINE
  5
20A9E
330
747D
100
AcDbEntity
  8
細線
 48
50.0
100
AcDbLine
 10
7453.812291181008
 20
6014.614188821918
 30
0.0
 11
7638.600000000021
 21
6199.401897640933
 31
0.0
  0
LINE
  5
20A9F
330
747D
100
AcDbEntity
  8
細線
 48
50.0
100
AcDbLine
 10
7438.600000000016
 20
6223.908300667656
 30
0.0
 11
7509.305888154284
 21
6294.614188821924
 31
0.0
  0
LINE
  5
20AA1
330
747D
100
AcDbEntity
  8
細線
 48
50.0
100
AcDbLine
 10
6068.600000000017
 20
6223.908300667656
 30
0.0
 11
6139.305888154284
 21
6294.614188821924
 31
0.0
  0
LINE
  5
20AA2
330
747D
100
AcDbEntity
  8
細線
 48
50.0
100
AcDbLine
 10
6083.812291181008
 20
6014.614188821918
 30
0.0
 11
6268.60000000002
 21
6199.401897640933
 31
0.0
  0
LINE
  5
20AA3
330
747D
100
AcDbEntity
  8
細線
 48
50.0
100
AcDbLine
 10
6068.600000000018
 20
6044.303178246273
 30
0.0
 11
6268.600000000018
 21
6244.303178246276
 31
0.0
  0
LINE
  5
20AA4
330
747D
100
AcDbEntity
  8
細線
 48
50.0
100
AcDbLine
 10
6068.600000000018
 20
6089.204458851619
 30
0.0
 11
6268.60000000002
 21
6289.204458851623
 31
0.0
  0
LINE
  5
20AA5
330
747D
100
AcDbEntity
  8
細線
 48
50.0
100
AcDbLine
 10
6068.600000000017
 20
6134.105739456964
 30
0.0
 11
6229.108449364979
 21
6294.614188821924
 31
0.0
  0
LINE
  5
20AA6
330
747D
100
AcDbEntity
  8
細線
 48
50.0
100
AcDbLine
 10
6068.600000000017
 20
6179.00702006231
 30
0.0
 11
6184.207168759613
 21
6294.614188821921
 31
0.0
  0
LINE
  5
20AA7
330
747D
100
AcDbEntity
  8
部品1
 48
50.0
100
AcDbLine
 10
6068.600000000017
 20
6014.614188821925
 30
0.0
 11
6068.600000000022
 21
6294.614188821924
 31
0.0
  0
LINE
  5
20AA8
330
747D
100
AcDbEntity
  8
細線
 48
50.0
100
AcDbLine
 10
6068.600000000017
 20
6268.809581273002
 30
0.0
 11
6094.404607548935
 21
6294.614188821924
 31
0.0
  0
LINE
  5
20AA9
330
747D
100
AcDbEntity
  8
細線
 48
50.0
100
AcDbLine
 10
6173.614852391706
 20
6014.614188821922
 30
0.0
 11
6268.600000000018
 21
6109.599336430236
 31
0.0
  0
LINE
  5
20AAA
330
747D
100
AcDbEntity
  8
細線
 48
50.0
100
AcDbLine
 10
6128.713571786355
 20
6014.614188821918
 30
0.0
 11
6268.600000000018
 21
6154.500617035582
 31
0.0
  0
LINE
  5
20AAB
330
747D
100
AcDbEntity
  8
部品1
 48
50.0
100
AcDbLine
 10
6268.600000000017
 20
6014.614188821925
 30
0.0
 11
6268.60000000002
 21
6294.614188821924
 31
0.0
  0
LINE
  5
20AAC
330
747D
100
AcDbEntity
  8
細線
 48
50.0
100
AcDbLine
 10
6263.417413602399
 20
6014.614188821925
 30
0.0
 11
6268.600000000018
 21
6019.796775219544
 31
0.0
  0
LINE
  5
20AAD
330
747D
100
AcDbEntity
  8
細線
 48
50.0
100
AcDbLine
 10
6218.51613299705
 20
6014.614188821923
 30
0.0
 11
6268.600000000018
 21
6064.69805582489
 31
0.0
  0
LINE
  5
20AAE
330
747D
100
AcDbEntity
  8
細線
 48
50.0
100
AcDbLine
 10
6096.378995441949
 20
7194.614188821853
 30
0.0
 11
6268.600000000001
 21
7366.8351933799
 31
0.0
  0
LINE
  5
20AAF
330
747D
100
AcDbEntity
  8
細線
 48
50.0
100
AcDbLine
 10
6068.6
 20
7211.736473985246
 30
0.0
 11
6251.477714836664
 21
7394.614188821911
 31
0.0
  0
LINE
  5
20AB0
330
747D
100
AcDbEntity
  8
細線
 48
50.0
100
AcDbLine
 10
6068.6
 20
7256.637754590592
 30
0.0
 11
6206.576434231319
 21
7394.614188821911
 31
0.0
  0
LINE
  5
20AB1
330
747D
100
AcDbEntity
  8
細線
 48
50.0
100
AcDbLine
 10
6068.6
 20
7301.539035195936
 30
0.0
 11
6161.675153625974
 21
7394.614188821911
 31
0.0
  0
LINE
  5
20AB2
330
747D
100
AcDbEntity
  8
細線
 48
50.0
100
AcDbLine
 10
6068.6
 20
7346.440315801281
 30
0.0
 11
6116.773873020627
 21
7394.614188821909
 31
0.0
  0
LINE
  5
20AB3
330
747D
100
AcDbEntity
  8
部品1
 48
50.0
100
AcDbLine
 10
6068.6
 20
7194.614188821853
 30
0.0
 11
6068.6
 21
7394.614188821911
 31
0.0
  0
LINE
  5
20AB4
330
747D
100
AcDbEntity
  8
細線
 48
50.0
100
AcDbLine
 10
6068.6
 20
7391.341596406629
 30
0.0
 11
6071.872592415281
 21
7394.614188821909
 31
0.0
  0
LINE
  5
20AB5
330
747D
100
AcDbEntity
  8
細線
 48
50.0
100
AcDbLine
 10
6186.181556652644
 20
7194.614188821855
 30
0.0
 11
6268.600000000001
 21
7277.032632169209
 31
0.0
  0
LINE
  5
20AB6
330
747D
100
AcDbEntity
  8
細線
 48
50.0
100
AcDbLine
 10
6141.280276047297
 20
7194.614188821855
 30
0.0
 11
6268.600000000001
 21
7321.933912774554
 31
0.0
  0
LINE
  5
20AB7
330
747D
100
AcDbEntity
  8
部品1
 48
50.0
100
AcDbLine
 10
6268.600000000001
 20
7194.614188821858
 30
0.0
 11
6268.600000000001
 21
7394.614188821911
 31
0.0
  0
LINE
  5
20AB8
330
747D
100
AcDbEntity
  8
細線
 48
50.0
100
AcDbLine
 10
6231.082837257993
 20
7194.614188821858
 30
0.0
 11
6268.600000000001
 21
7232.131351563864
 31
0.0
  0
LINE
  5
20BB5
330
747D
100
AcDbEntity
  8
想像線
 48
10.0
100
AcDbLine
 10
7087.268282748168
 20
5959.614188821926
 30
0.0
 11
5433.600000000001
 21
5959.614188821922
 31
0.0
  0
LINE
  5
20BB7
330
747D
100
AcDbEntity
  8
想像線
 48
10.0
100
AcDbLine
 10
7491.871563319162
 20
7469.614188821913
 30
0.0
 11
5433.600000000001
 21
7469.614188821913
 31
0.0
  0
TEXT
  5
21094
330
747D
100
AcDbEntity
  8
文字
 62
     7
 48
50.0
100
AcDbText
 10
7545.005908745674
 20
4770.275323946495
 30
0.0
 40
200.0
  1
〈参 考 図〉
  7
STYLE2
100
AcDbText
  0
DIMENSION
  5
22993
330
747D
100
AcDbEntity
  8
寸法
 48
50.0
100
AcDbDimension
  2
*D41
 10
6853.600000000007
 20
6416.468197524955
 30
0.0
 11
6511.100000000007
 21
6516.468197524955
 31
0.0
 70
    32
 71
     5
 42
685.0
  3
INABA_S40G
100
AcDbAlignedDimension
 13
6168.600000000008
 23
6641.614188821911
 33
0.0
 14
6853.600000000007
 24
6641.614188821911
 34
0.0
100
AcDbRotatedDimension
1001
ACAD
1000
DSTYLE
1002
{
1070
   341
1005
0
1002
}
  0
DIMENSION
  5
22994
330
747D
100
AcDbEntity
  8
寸法
 48
50.0
100
AcDbDimension
  2
*D42
 10
6168.600000000008
 20
6416.468197524955
 30
0.0
 11
5823.600000000004
 21
6516.468197524955
 31
0.0
 70
    32
 71
     5
 42
690.0000000000073
  3
INABA_S40G
100
AcDbAlignedDimension
 13
5478.6
 23
6577.727760608262
 33
0.0
 14
6168.600000000008
 24
6641.614188821911
 34
0.0
100
AcDbRotatedDimension
1001
ACAD
1000
DSTYLE
1002
{
1070
   341
1005
0
1002
}
  0
LINE
  5
22995
330
747D
100
AcDbEntity
  8
部品1
 48
50.0
100
AcDbLine
 10
6268.600000000008
 20
6841.614188821911
 30
0.0
 11
6068.600000000007
 21
6841.614188821911
 31
0.0
  0
LINE
  5
22996
330
747D
100
AcDbEntity
  8
部品1
 48
50.0
100
AcDbLine
 10
6268.600000000008
 20
6641.614188821911
 30
0.0
 11
6068.600000000007
 21
6641.614188821911
 31
0.0
  0
LINE
  5
22997
330
747D
100
AcDbEntity
  8
部品1
 48
50.0
100
AcDbLine
 10
6068.600000000007
 20
6641.614188821911
 30
0.0
 11
6068.600000000007
 21
6841.614188821911
 31
0.0
  0
LINE
  5
22998
330
747D
100
AcDbEntity
  8
部品1
 48
50.0
100
AcDbLine
 10
6268.600000000008
 20
6641.614188821911
 30
0.0
 11
6268.600000000008
 21
6841.614188821911
 31
0.0
  0
LINE
  5
22999
330
747D
100
AcDbEntity
  8
センター
 48
2.0
100
AcDbLine
 10
6168.600000000008
 20
6791.614188821911
 30
0.0
 11
6168.600000000008
 21
6691.614188821912
 31
0.0
  0
LINE
  5
2299A
330
747D
100
AcDbEntity
  8
センター
 48
2.0
100
AcDbLine
 10
6118.600000000007
 20
6741.614188821912
 30
0.0
 11
6218.600000000008
 21
6741.614188821912
 31
0.0
  0
MTEXT
  5
229D5
330
747D
100
AcDbEntity
  8
寸法
 62
     7
 48
50.0
100
AcDbMText
 10
7059.038237682559
 20
6555.146054021621
 30
0.0
 40
120.0
 41
0.0
 71
     5
 72
     1
  1
\A1;685
  7
STYLE1
 73
     1
 44
1.0
1001
ACAD
1000
MTEXTBEGIN
1070
    73
1070
     1
1070
    44
1040
1.0
1070
    74
1070
     0
1000
MTEXTEND
  0
LINE
  5
229D6
330
747D
100
AcDbEntity
  8
寸法
 48
50.0
100
AcDbLine
 10
7194.385020560783
 20
6416.468197524955
 30
0.0
 11
7538.600000000008
 21
6416.468197524955
 31
0.0
  0
MTEXT
  5
229D7
330
747D
100
AcDbEntity
  8
寸法
 62
     7
 48
50.0
100
AcDbMText
 10
7358.364787912797
 20
6555.146054021621
 30
0.0
 40
120.0
 41
0.0
 71
     5
 72
     1
  1
\A1;685
  7
STYLE1
 73
     1
 44
1.0
1001
ACAD
1000
MTEXTBEGIN
1070
    73
1070
     1
1070
    44
1040
1.0
1070
    74
1070
     0
1000
MTEXTEND
  0
LINE
  5
229D8
330
747D
100
AcDbEntity
  8
寸法
 48
50.0
100
AcDbLine
 10
6853.600000000007
 20
6416.468197524955
 30
0.0
 11
7163.326735148482
 21
6416.468197524955
 31
0.0
  0
INSERT
  5
229D9
330
747D
100
AcDbEntity
  8
寸法
 48
50.0
100
AcDbBlockReference
  2
_DOTSMALL
 10
7538.600000000008
 20
6416.468197524955
 30
0.0
 41
100.0
 42
100.0
 43
100.0
  0
LINE
  5
229DA
330
747D
100
AcDbEntity
  8
寸法
 48
50.0
100
AcDbLine
 10
7538.600000000008
 20
6621.614188821911
 30
0.0
 11
7538.600000000008
 21
6356.468197524955
 31
0.0
  0
LINE
  5
229DB
330
747D
100
AcDbEntity
  8
センター
 48
2.0
100
AcDbLine
 10
7488.600000000008
 20
6741.614188821912
 30
0.0
 11
7588.600000000008
 21
6741.614188821912
 31
0.0
  0
LINE
  5
229DC
330
747D
100
AcDbEntity
  8
センター
 48
2.0
100
AcDbLine
 10
7538.600000000008
 20
6791.614188821911
 30
0.0
 11
7538.600000000008
 21
6691.614188821912
 31
0.0
  0
LINE
  5
229DD
330
747D
100
AcDbEntity
  8
部品1
 48
50.0
100
AcDbLine
 10
7638.600000000008
 20
6641.614188821911
 30
0.0
 11
7638.600000000008
 21
6841.614188821911
 31
0.0
  0
LINE
  5
229DE
330
747D
100
AcDbEntity
  8
部品1
 48
50.0
100
AcDbLine
 10
7438.600000000008
 20
6641.614188821911
 30
0.0
 11
7438.600000000008
 21
6841.614188821911
 31
0.0
  0
LINE
  5
229DF
330
747D
100
AcDbEntity
  8
部品1
 48
50.0
100
AcDbLine
 10
7638.600000000008
 20
6641.614188821911
 30
0.0
 11
7438.600000000008
 21
6641.614188821911
 31
0.0
  0
LINE
  5
229E0
330
747D
100
AcDbEntity
  8
部品1
 48
50.0
100
AcDbLine
 10
7638.600000000008
 20
6841.614188821911
 30
0.0
 11
7438.600000000008
 21
6841.614188821911
 31
0.0
  0
LINE
  5
22A18
330
747D
100
AcDbEntity
  8
センター
 48
2.0
100
AcDbLine
 10
10228.6
 20
6741.614188821912
 30
0.0
 11
10328.6
 21
6741.614188821912
 31
0.0
  0
LINE
  5
22A19
330
747D
100
AcDbEntity
  8
部品1
 48
50.0
100
AcDbLine
 10
10378.60000000001
 20
6841.614188821911
 30
0.0
 11
10178.60000000001
 21
6841.614188821911
 31
0.0
  0
LINE
  5
22A1A
330
747D
100
AcDbEntity
  8
部品1
 48
50.0
100
AcDbLine
 10
10378.60000000001
 20
6641.614188821911
 30
0.0
 11
10178.60000000001
 21
6641.614188821911
 31
0.0
  0
LINE
  5
22A1B
330
747D
100
AcDbEntity
  8
センター
 48
2.0
100
AcDbLine
 10
10278.60000000001
 20
6791.614188821911
 30
0.0
 11
10278.60000000001
 21
6691.614188821912
 31
0.0
  0
LINE
  5
22A1C
330
747D
100
AcDbEntity
  8
部品1
 48
50.0
100
AcDbLine
 10
10178.60000000001
 20
6641.614188821911
 30
0.0
 11
10178.60000000001
 21
6841.614188821911
 31
0.0
  0
LINE
  5
22A1D
330
747D
100
AcDbEntity
  8
部品1
 48
50.0
100
AcDbLine
 10
10378.60000000001
 20
6641.614188821911
 30
0.0
 11
10378.60000000001
 21
6841.614188821911
 31
0.0
  0
DIMENSION
  5
22A1E
330
747D
100
AcDbEntity
  8
寸法
 48
50.0
100
AcDbDimension
  2
*D43
 10
9593.600000000007
 20
6416.468197524955
 30
0.0
 11
9232.380256412609
 21
6557.863590430847
 31
0.0
 70
   160
 71
     5
 42
685.0
  3
INABA_S40G
100
AcDbAlignedDimension
 13
8908.600000000008
 23
6641.614188821911
 33
0.0
 14
9593.600000000007
 24
6641.614188821911
 34
0.0
100
AcDbRotatedDimension
1001
ACAD
1000
DSTYLE
1002
{
1070
   279
1070
     2
1070
   341
1005
0
1002
}
  0
DIMENSION
  5
22A1F
330
747D
100
AcDbEntity
  8
寸法
 48
50.0
100
AcDbDimension
  2
*D44
 10
10278.60000000001
 20
6416.468197524955
 30
0.0
 11
9917.380256412609
 21
6557.863590430847
 31
0.0
 70
   160
 71
     5
 42
685.0
  3
INABA_S40G
100
AcDbAlignedDimension
 13
9593.600000000007
 23
6641.614188821911
 33
0.0
 14
10278.60000000001
 24
6641.614188821911
 34
0.0
100
AcDbRotatedDimension
1001
ACAD
1000
DSTYLE
1002
{
1070
   279
1070
     2
1070
   341
1005
0
1002
}
  0
DIMENSION
  5
22A20
330
747D
100
AcDbEntity
  8
寸法
 48
50.0
100
AcDbDimension
  2
*D45
 10
10968.6
 20
6416.468197524955
 30
0.0
 11
10623.6
 21
6416.468197524955
 31
0.0
 70
   160
 71
     5
 42
689.9999999999927
  3
INABA_S40G
100
AcDbAlignedDimension
 13
10278.60000000001
 23
6641.614188821911
 33
0.0
 14
10968.6
 24
6577.727760608262
 34
0.0
100
AcDbRotatedDimension
1001
ACAD
1000
DSTYLE
1002
{
1070
   341
1005
0
1002
}
  0
LINE
  5
22A21
330
747D
100
AcDbEntity
  8
部品1
 48
50.0
100
AcDbLine
 10
9008.600000000008
 20
6841.614188821911
 30
0.0
 11
8808.600000000009
 21
6841.614188821911
 31
0.0
  0
LINE
  5
22A22
330
747D
100
AcDbEntity
  8
部品1
 48
50.0
100
AcDbLine
 10
9008.600000000008
 20
6641.614188821911
 30
0.0
 11
8808.600000000009
 21
6641.614188821911
 31
0.0
  0
LINE
  5
22A23
330
747D
100
AcDbEntity
  8
部品1
 48
50.0
100
AcDbLine
 10
8808.600000000009
 20
6641.614188821911
 30
0.0
 11
8808.600000000009
 21
6841.614188821911
 31
0.0
  0
LINE
  5
22A24
330
747D
100
AcDbEntity
  8
部品1
 48
50.0
100
AcDbLine
 10
9008.600000000008
 20
6641.614188821911
 30
0.0
 11
9008.600000000008
 21
6841.614188821911
 31
0.0
  0
LINE
  5
22A25
330
747D
100
AcDbEntity
  8
センター
 48
2.0
100
AcDbLine
 10
8908.600000000008
 20
6791.614188821911
 30
0.0
 11
8908.600000000008
 21
6691.614188821912
 31
0.0
  0
LINE
  5
22A26
330
747D
100
AcDbEntity
  8
センター
 48
2.0
100
AcDbLine
 10
8858.600000000008
 20
6741.614188821912
 30
0.0
 11
8958.600000000009
 21
6741.614188821912
 31
0.0
  0
LINE
  5
22A79
330
747D
100
AcDbEntity
  8
細線
 48
50.0
100
AcDbLine
 10
7601.082837257992
 20
7194.61418882182
 30
0.0
 11
7638.600000000001
 21
7232.131351563826
 31
0.0
  0
LINE
  5
22A7A
330
747D
100
AcDbEntity
  8
細線
 48
50.0
100
AcDbLine
 10
7511.280276047298
 20
7194.614188821816
 30
0.0
 11
7638.600000000001
 21
7321.933912774515
 31
0.0
  0
LINE
  5
22A7B
330
747D
100
AcDbEntity
  8
細線
 48
50.0
100
AcDbLine
 10
7556.181556652643
 20
7194.614188821816
 30
0.0
 11
7638.600000000001
 21
7277.032632169171
 31
0.0
  0
LINE
  5
22A7D
330
747D
100
AcDbEntity
  8
部品1
 48
50.0
100
AcDbLine
 10
7438.6
 20
7194.614188821815
 30
0.0
 11
7438.600000000004
 21
7394.614188821899
 31
0.0
  0
LINE
  5
22A7E
330
747D
100
AcDbEntity
  8
細線
 48
50.0
100
AcDbLine
 10
7445.389554201685
 20
7353.229870002929
 30
0.0
 11
7486.773873020627
 21
7394.61418882187
 31
0.0
  0
LINE
  5
22A7F
330
747D
100
AcDbEntity
  8
細線
 48
50.0
100
AcDbLine
 10
7438.6
 20
7301.539035195898
 30
0.0
 11
7531.675153625974
 21
7394.614188821873
 31
0.0
  0
LINE
  5
22A80
330
747D
100
AcDbEntity
  8
細線
 48
50.0
100
AcDbLine
 10
7438.6
 20
7256.637754590554
 30
0.0
 11
7576.57643423132
 21
7394.614188821873
 31
0.0
  0
LINE
  5
22A81
330
747D
100
AcDbEntity
  8
細線
 48
50.0
100
AcDbLine
 10
7438.6
 20
7211.736473985208
 30
0.0
 11
7621.477714836665
 21
7394.614188821873
 31
0.0
  0
LINE
  5
22A82
330
747D
100
AcDbEntity
  8
細線
 48
50.0
100
AcDbLine
 10
7466.378995441949
 20
7194.614188821815
 30
0.0
 11
7638.600000000001
 21
7366.835193379862
 31
0.0
  0
LINE
  5
22F78
102
{ACAD_REACTORS
330
22F99
102
}
330
747D
100
AcDbEntity
  8
部品1
 48
50.0
100
AcDbLine
 10
10848.6
 20
6294.614188821931
 30
0.0
 11
10848.6
 21
7194.614188821913
 31
0.0
  0
LINE
  5
22F79
102
{ACAD_REACTORS
330
22F8D
102
}
330
747D
100
AcDbEntity
  8
部品1
 48
50.0
100
AcDbLine
 10
5598.600000000001
 20
6294.614188821931
 30
0.0
 11
5598.600000000001
 21
7194.614188821913
 31
0.0
  0
HATCH
  5
22F8D
330
747D
100
AcDbEntity
  8
細線
 48
50.0
100
AcDbHatch
 10
0.0
 20
0.0
 30
0.0
210
0.0
220
0.0
230
1.0
  2
LINE
 70
     0
 71
     1
 91
        1
 92
        7
 72
     0
 73
     1
 93
        4
 10
5598.600000000001
 20
6804.614188821919
 10
5478.6
 20
6804.614188821919
 10
5478.6
 20
6604.614188821916
 10
5598.600000000001
 20
6604.614188821918
 97
        4
330
2075B
330
1FB23
330
2075A
330
22F79
 75
     0
 76
     1
 52
45.0
 41
10.0
 77
     0
 78
     1
 53
45.0
 43
0.0
 44
0.0
 45
-22.45064030267288
 46
22.45064030267288
 79
     0
 47
2.09106091356311
 98
        1
 10
5533.767408474101
 20
6672.587508469904
  0
HATCH
  5
22F99
330
747D
100
AcDbEntity
  8
細線
 48
50.0
100
AcDbHatch
 10
0.0
 20
0.0
 30
0.0
210
0.0
220
0.0
230
1.0
  2
LINE
 70
     0
 71
     1
 91
        1
 92
        7
 72
     0
 73
     1
 93
        4
 10
10968.6
 20
6804.614188821918
 10
10848.6
 20
6804.614188821918
 10
10848.6
 20
6604.614188821918
 10
10968.6
 20
6604.614188821918
 97
        4
330
1FC5C
330
22F78
330
1FC5D
330
1FC5B
 75
     0
 76
     1
 52
45.0
 41
10.0
 77
     0
 78
     1
 53
45.0
 43
0.0
 44
0.0
 45
-22.45064030267288
 46
22.45064030267288
 79
     0
 47
2.091060913563104
 98
        1
 10
10893.34493099807
 20
6691.318070395936
  0
SPLINE
  5
22FC8
330
747D
100
AcDbEntity
  8
細線
 48
50.0
100
AcDbSpline
210
0.0
220
0.0
230
1.0
 70
     8
 71
     3
 72
    10
 73
     6
 74
     4
 42
0.0000000001
 43
0.0000000001
 44
0.0000000001
 40
0.0
 40
0.0
 40
0.0
 40
0.0
 40
221.8151349015015
 40
452.7136639803716
 40
699.7573834631605
 40
699.7573834631605
 40
699.7573834631605
 40
699.7573834631605
 10
7333.899307998997
 20
6902.912531486599
 30
0.0
 10
7218.576784256746
 20
6889.555880999843
 30
0.0
 10
6983.209245941555
 20
6862.295621310845
 30
0.0
 10
7467.429360858069
 20
6708.514744351832
 30
0.0
 10
7212.665431354008
 20
6680.562111283524
 30
0.0
 10
7080.980423543667
 20
6666.113665967562
 30
0.0
 11
7333.899307998997
 21
6902.912531486599
 31
0.0
 11
7119.642340535844
 21
6845.502550082106
 31
0.0
 11
7319.606332414605
 21
6730.053285542672
 31
0.0
 11
7080.980423543667
 21
6666.113665967562
 31
0.0
  0
LINE
  5
22FC9
330
747D
100
AcDbEntity
  8
細線
 48
50.0
100
AcDbLine
 10
7308.961426636116
 20
7596.123686926162
 30
0.0
 11
7112.860748158367
 21
5863.519638500016
 31
0.0
  0
LINE
  5
2316F
330
747D
100
AcDbEntity
  8
部品1
100
AcDbLine
 10
11115.28959587257
 20
3514.048027699195
 30
0.0
 11
5044.30441048632
 21
3514.048027699195
 31
0.0
  0
LINE
  5
23170
330
747D
100
AcDbEntity
  8
部品1
100
AcDbLine
 10
11115.28959587257
 20
3274.048027699193
 30
0.0
 11
5044.304410486324
 21
3274.048027699194
 31
0.0
  0
LINE
  5
23171
330
747D
100
AcDbEntity
  8
部品1
100
AcDbLine
 10
5044.304410486326
 20
549.7410581145482
 30
0.0
 11
11115.28959587257
 21
549.7410581145482
 31
0.0
  0
LEADER
  5
23172
330
747D
100
AcDbEntity
  8
寸法
 48
50.0
100
AcDbLeader
  3
INABA_S40G
 73
     0
 74
     0
 75
     1
 40
102.2727272727273
 41
680.0000000000001
 76
     3
 10
8052.412162472778
 20
2591.951689031493
 30
0.0
 10
8096.766133586134
 20
2987.404500138034
 30
0.0
 10
8196.766133586134
 20
2987.404500138034
 30
0.0
1001
ACAD
1000
DSTYLE
1002
{
1070
   174
1070
     0
1070
   272
1070
     1
1070
   279
1070
     1
1070
   288
1070
     0
1070
   341
1005
0
1002
}
  0
MTEXT
  5
23173
102
{ACAD_REACTORS
330
23172
102
}
330
747D
100
AcDbEntity
  8
部品1
 62
     7
 48
50.0
100
AcDbMText
 10
8236.766133586135
 20
3078.540863774398
 30
0.0
 40
80.0
 41
0.8
 71
     4
 72
     1
  1
\A1;ナット(市販品)
  7
STYLE2
 73
     1
 44
1.0
1001
ACAD
1000
MTEXTBEGIN
1070
    73
1070
     1
1070
    44
1040
1.0
1070
    74
1070
     0
1000
MTEXTEND
  0
LEADER
  5
23174
330
747D
100
AcDbEntity
  8
寸法
 48
50.0
100
AcDbLeader
  3
INABA_S40G
 73
     0
 74
     0
 75
     1
 40
102.2727272727273
 41
906.8181818181818
 76
     3
 10
8076.412162472777
 20
2462.19969636663
 30
0.0
 10
8128.283752841616
 20
2802.435417373247
 30
0.0
 10
8228.283752841617
 20
2802.435417373247
 30
0.0
1001
ACAD
1000
DSTYLE
1002
{
1070
   174
1070
     0
1070
   272
1070
     1
1070
   279
1070
     1
1070
   288
1070
     0
1070
   341
1005
0
1002
}
  0
MTEXT
  5
23175
102
{ACAD_REACTORS
330
23174
102
}
330
747D
100
AcDbEntity
  8
部品1
 62
     7
 48
50.0
100
AcDbMText
 10
8268.283752841616
 20
2893.571781009611
 30
0.0
 40
80.0
 41
0.8
 71
     4
 72
     1
  1
\A1;ワッシャー(市販品)
  7
STYLE2
 73
     1
 44
1.0
1001
ACAD
1000
MTEXTBEGIN
1070
    73
1070
     1
1070
    44
1040
1.0
1070
    74
1070
     0
1000
MTEXTEND
  0
LWPOLYLINE
  5
23176
330
747D
100
AcDbEntity
  8
部品1
 48
50.0
100
AcDbPolyline
 90
        2
 70
     0
 43
8.0
 10
8229.012162472775
 20
1953.076407922351
 10
8522.714625872161
 20
1953.076407922351
  0
TEXT
  5
23177
330
747D
100
AcDbEntity
  8
部品1
 48
50.0
100
AcDbText
 10
8233.365746757206
 20
2548.955088684551
 30
0.0
 40
80.0
  1
基礎ボルト(市販品)
  7
STYLE2
100
AcDbText
  0
DIMENSION
  5
23178
330
747D
100
AcDbEntity
  8
寸法
 48
50.0
100
AcDbDimension
  2
*D58
 10
8730.880762241621
 20
1869.076407922349
 30
0.0
 11
8630.880762241622
 21
2031.076407922352
 31
0.0
 70
    32
  1
180
 71
     5
 42
324.0000000000009
  3
INABA_S40G
100
AcDbAlignedDimension
 13
8229.012162472775
 23
2193.076407922351
 33
0.0
 14
8229.012162472775
 24
1869.076407922349
 34
0.0
 50
90.0
100
AcDbRotatedDimension
1001
ACAD
1000
DSTYLE
1002
{
1070
   174
1070
     0
1070
   272
1070
     1
1070
   279
1070
     1
1070
   288
1070
     0
1070
   341
1005
0
1002
}
  0
DIMENSION
  5
23179
330
747D
100
AcDbEntity
  8
寸法
 48
50.0
100
AcDbDimension
  2
*D59
 10
8730.880762241621
 20
2193.076407922351
 30
0.0
 11
9006.935428360648
 21
2167.952450318139
 31
0.0
 70
   160
  1
20～25
 71
     5
 42
52.76000000000113
  3
INABA_S40G
100
AcDbAlignedDimension
 13
8041.812162472778
 23
2245.836407922352
 33
0.0
 14
8229.012162472775
 24
2193.076407922351
 34
0.0
 50
90.0
100
AcDbRotatedDimension
1001
ACAD
1000
DSTYLE
1002
{
1070
   174
1070
     0
1070
   272
1070
     1
1070
   279
1070
     1
1070
   288
1070
     0
1070
   341
1005
0
1002
}
  0
MTEXT
  5
2317A
102
{ACAD_REACTORS
330
2317B
102
}
330
747D
100
AcDbEntity
  8
部品1
 62
     7
 48
50.0
100
AcDbMText
 10
8237.956624892097
 20
2457.459734075581
 30
0.0
 40
80.0
 41
0.8
 71
     4
 72
     1
  1
M10X160
  7
STYLE2
 73
     1
 44
1.0
1001
ACAD
1000
MTEXTBEGIN
1070
    73
1070
     1
1070
    44
1040
1.0
1070
    74
1070
     0
1000
MTEXTEND
  0
LEADER
  5
2317B
330
747D
100
AcDbEntity
  8
寸法
 48
50.0
100
AcDbLeader
  3
INABA_S40G
 73
     0
 74
     0
 75
     1
 40
80.0
 41
435.0
 76
     3
 10
8045.412162472777
 20
2242.236407922352
 30
0.0
 10
8097.956624892097
 20
2377.45973407558
 30
0.0
 10
8197.956624892096
 20
2377.45973407558
 30
0.0
1001
ACAD
1000
DSTYLE
1002
{
1070
   174
1070
     0
1070
   272
1070
     1
1070
   279
1070
     1
1070
   288
1070
     0
1070
   341
1005
0
1002
}
  0
LINE
  5
2317C
330
747D
100
AcDbEntity
  8
部品1
100
AcDbLine
 10
5044.304410486322
 20
3514.048027699195
 30
0.0
 11
5044.304410486324
 21
549.7410581145482
 31
0.0
  0
LEADER
  5
2317D
330
747D
100
AcDbEntity
  8
寸法
 48
50.0
100
AcDbLeader
  3
INABA_S40G
 73
     0
 75
     1
 40
113.1818181818182
 41
608.6363636363635
 76
     3
 10
8005.148912610827
 20
2142.592081280629
 30
0.0
 10
7861.345083919481
 20
2978.971163637107
 30
0.0
 10
7761.345083919481
 20
2978.971163637107
 30
0.0
1001
ACAD
1000
DSTYLE
1002
{
1070
   174
1070
     0
1070
   272
1070
     1
1070
   279
1070
     1
1070
   288
1070
     0
1070
   341
1005
0
1002
}
  0
MTEXT
  5
2317E
102
{ACAD_REACTORS
330
2317D
102
}
330
747D
100
AcDbEntity
  8
寸法
 62
     7
 48
50.0
100
AcDbMText
 10
7721.34508391948
 20
3075.562072728017
 30
0.0
 40
80.0
 41
0.8
 71
     6
 72
     1
  1
\A1;φ70スリーブ
  7
STYLE2
 73
     1
 44
1.0
1001
ACAD
1000
MTEXTBEGIN
1070
    73
1070
     1
1070
    44
1040
1.0
1070
    74
1070
     0
1000
MTEXTEND
  0
LWPOLYLINE
  5
2317F
330
747D
100
AcDbEntity
  8
部品1
 48
50.0
100
AcDbPolyline
 90
        2
 70
     0
 43
8.0
 10
5700.832947462628
 20
1953.076407922351
 10
6114.972849295584
 20
1953.076407922351
  0
TEXT
  5
23180
330
747D
100
AcDbEntity
  8
部品1
 48
50.0
100
AcDbText
 10
5700.832947462628
 20
1964.315400205606
 30
0.0
 40
80.0
  1
▽G.L
  7
STYLE2
100
AcDbText
  0
DIMENSION
  5
23181
330
747D
100
AcDbEntity
  8
寸法
 48
50.0
100
AcDbDimension
  2
*D60
 10
5844.552535563125
 20
1409.07640792235
 30
0.0
 11
5844.552535563125
 21
1529.07640792235
 31
0.0
 70
   160
  1
150
 71
     5
 42
240.0
  3
INABA_S40G
100
AcDbAlignedDimension
 13
5986.972849295585
 23
1649.07640792235
 33
0.0
 14
5906.972849295588
 24
1409.07640792235
 34
0.0
 50
90.0
100
AcDbRotatedDimension
1001
ACAD
1000
DSTYLE
1002
{
1070
   174
1070
     0
1070
   272
1070
     1
1070
   279
1070
     1
1070
   288
1070
     0
1070
   341
1005
0
1002
}
  0
LEADER
  5
23182
330
747D
100
AcDbEntity
  8
寸法
 48
50.0
100
AcDbLeader
  3
INABA_S40G
 71
     0
 73
     0
 75
     1
 40
100.0
 41
225.0
 76
     3
 10
6082.875801647728
 20
1529.07640792235
 30
0.0
 10
5936.037823100391
 20
1265.553714303914
 30
0.0
 10
5836.03782310039
 20
1265.553714303914
 30
0.0
1001
ACAD
1000
DSTYLE
1002
{
1070
   174
1070
     0
1070
   272
1070
     1
1070
   279
1070
     1
1070
   288
1070
     0
1070
   341
1005
0
1002
}
  0
LEADER
  5
23183
330
747D
100
AcDbEntity
  8
寸法
 48
50.0
100
AcDbLeader
  3
INABA_S40G
 71
     0
 73
     0
 75
     1
 40
100.0
 41
222.7272727272727
 76
     3
 10
6210.972849295584
 20
1529.07640792235
 30
0.0
 10
5964.160550657825
 20
1085.23756176447
 30
0.0
 10
5864.160550657825
 20
1085.23756176447
 30
0.0
1001
ACAD
1000
DSTYLE
1002
{
1070
   174
1070
     0
1070
   272
1070
     1
1070
   279
1070
     1
1070
   288
1070
     0
1070
   341
1005
0
1002
}
  0
MTEXT
  5
23184
102
{ACAD_REACTORS
330
23185
102
}
330
747D
100
AcDbEntity
  8
寸法
 62
     7
 48
50.0
100
AcDbMText
 10
6025.72279507278
 20
1794.377010739807
 30
0.0
 40
80.0
 41
0.8
 71
     6
 72
     1
  1
\A1;D10@300
  7
STYLE2
 73
     1
 44
1.0
1001
ACAD
1000
MTEXTBEGIN
1070
    73
1070
     1
1070
    44
1040
1.0
1070
    74
1070
     0
1000
MTEXTEND
  0
LEADER
  5
23185
330
747D
100
AcDbEntity
  8
寸法
 48
50.0
100
AcDbLeader
  3
INABA_S40G
 71
     0
 73
     0
 75
     1
 40
100.0
 41
540.3409090909091
 76
     3
 10
6218.972849295585
 20
1951.203622619473
 30
0.0
 10
6135.990612766886
 20
1729.733294078669
 30
0.0
 10
6035.990612766886
 20
1729.733294078669
 30
0.0
213
-9.732182305893367
223
-4.643716661138569
233
0.0
1001
ACAD
1000
DSTYLE
1002
{
1070
   174
1070
     0
1070
   272
1070
     1
1070
   279
1070
     1
1070
   288
1070
     0
1070
   341
1005
0
1002
}
  0
LEADER
  5
23186
330
747D
100
AcDbEntity
  8
寸法
 48
50.0
100
AcDbLeader
  3
INABA_S40G
 71
     0
 73
     0
 75
     1
 40
130.1136363636363
 41
651.1363636363636
 76
     3
 10
6194.972849295584
 20
2193.076407922351
 30
0.0
 10
6057.548269131569
 20
2333.547173378939
 30
0.0
 10
5957.548269131568
 20
2333.547173378939
 30
0.0
1001
ACAD
1000
DSTYLE
1002
{
1070
   174
1070
     0
1070
   272
1070
     1
1070
   279
1070
     1
1070
   288
1070
     0
1070
   341
1005
0
1002
}
  0
MTEXT
  5
23187
102
{ACAD_REACTORS
330
23186
102
}
330
747D
100
AcDbEntity
  8
寸法
 62
     7
 48
50.0
100
AcDbMText
 10
5894.874369812312
 20
2405.592627924393
 30
0.0
 40
80.0
 41
0.8
 71
     6
 72
     1
  1
\A1;金コテ押エ
  7
STYLE2
 73
     1
 44
1.0
1001
ACAD
1000
MTEXTBEGIN
1070
    73
1070
     1
1070
    44
1040
1.0
1070
    74
1070
     0
1000
MTEXTEND
  0
DIMENSION
  5
23188
330
747D
100
AcDbEntity
  8
寸法
 48
50.0
100
AcDbDimension
  2
*D61
 10
5379.935610733845
 20
1409.07640792235
 30
0.0
 11
5379.935610733845
 21
1780.616557578351
 31
0.0
 70
   160
  1
540
 71
     5
 42
784.0
  3
INABA_S40G
100
AcDbAlignedDimension
 13
6114.972849295584
 23
2193.076407922351
 33
0.0
 14
5906.972849295588
 24
1409.07640792235
 34
0.0
 50
90.0
100
AcDbRotatedDimension
1001
ACAD
1000
DSTYLE
1002
{
1070
   174
1070
     0
1070
   272
1070
     1
1070
   279
1070
     1
1070
   288
1070
     0
1070
   341
1005
0
1002
}
  0
MTEXT
  5
23189
102
{ACAD_REACTORS
330
23183
102
}
330
747D
100
AcDbEntity
  8
寸法
 62
     7
 48
50.0
100
AcDbMText
 10
5844.160550657825
 20
1145.237561764471
 30
0.0
 40
80.0
 41
0.8
 71
     6
 72
     1
  1
D13
  7
STYLE2
 73
     1
 44
1.0
1001
ACAD
1000
MTEXTBEGIN
1070
    73
1070
     1
1070
    44
1040
1.0
1070
    74
1070
     0
1000
MTEXTEND
  0
MTEXT
  5
2318A
102
{ACAD_REACTORS
330
23182
102
}
330
747D
100
AcDbEntity
  8
寸法
 62
     7
 48
50.0
100
AcDbMText
 10
5816.037823100391
 20
1325.553714303914
 30
0.0
 40
80.0
 41
0.8
 71
     6
 72
     1
  1
D10
  7
STYLE2
 73
     1
 44
1.0
1001
ACAD
1000
MTEXTBEGIN
1070
    73
1070
     1
1070
    44
1040
1.0
1070
    74
1070
     0
1000
MTEXTEND
  0
DIMENSION
  5
2318B
330
747D
100
AcDbEntity
  8
寸法
 48
50.0
100
AcDbDimension
  2
*D62
 10
6434.972849295585
 20
870.6467699171904
 30
0.0
 11
6190.876090617361
 21
870.6467699171904
 31
0.0
 70
   160
  1
300
 71
     5
 42
448.0
  3
INABA_S40G
100
AcDbAlignedDimension
 13
5986.972849295585
 23
1281.07640792235
 33
0.0
 14
6434.972849295585
 24
1281.07640792235
 34
0.0
100
AcDbRotatedDimension
1001
ACAD
1000
DSTYLE
1002
{
1070
   174
1070
     0
1070
   272
1070
     1
1070
   279
1070
     1
1070
   288
1070
     0
1070
   341
1005
0
1002
}
  0
MTEXT
  5
2318C
102
{ACAD_REACTORS
330
2318D
102
}
330
747D
100
AcDbEntity
  8
寸法
 62
     7
 48
50.0
100
AcDbMText
 10
7747.98809012784
 20
2714.877800820503
 30
0.0
 40
80.0
 41
0.8
 71
     6
 72
     1
  1
アンカープレート {\fArial|b0|i0|c0|p32;L}
  7
STYLE2
 73
     1
 44
1.0
1001
ACAD
1000
MTEXTBEGIN
1070
    73
1070
     1
1070
    44
1040
1.0
1070
    74
1070
     0
1000
MTEXTEND
  0
LEADER
  5
2318D
330
747D
100
AcDbEntity
  8
寸法
 48
50.0
100
AcDbLeader
  3
INABA_S40G
 73
     0
 75
     1
 40
106.3636363636363
 41
903.5235024184547
 76
     3
 10
7946.412162472778
 20
2262.636407922352
 30
0.0
 10
7887.988090127841
 20
2621.695982638684
 30
0.0
 10
7787.988090127841
 20
2621.695982638684
 30
0.0
1001
ACAD
1000
DSTYLE
1002
{
1070
   174
1070
     0
1070
   272
1070
     1
1070
   279
1070
     1
1070
   288
1070
     0
1070
   341
1005
0
1002
}
  0
LINE
  5
2318E
330
747D
100
AcDbEntity
  8
細線
 48
50.0
100
AcDbLine
 10
6234.972849295585
 20
2031.449300590181
 30
0.0
 11
6306.972849295585
 21
2103.449300590181
 31
0.0
  0
ARC
  5
2318F
330
747D
100
AcDbEntity
  8
部品1
 48
50.0
100
AcDbCircle
 10
6210.972849295586
 20
2053.330837316596
 30
0.0
 40
24.0
100
AcDbArc
 50
0.0
 51
180.0
  0
CIRCLE
  5
23190
330
747D
100
AcDbEntity
  8
部品1
 48
50.0
100
AcDbCircle
 10
6210.972849295586
 20
2053.330837316596
 30
0.0
 40
8.0
  0
LINE
  5
23191
330
747D
100
AcDbEntity
  8
部品1
 48
50.0
100
AcDbLine
 10
6114.972849295586
 20
1649.07640792235
 30
0.0
 11
6114.972849295586
 21
2193.076407922351
 31
0.0
  0
LINE
  5
23192
330
747D
100
AcDbEntity
  8
部品1
 48
50.0
100
AcDbLine
 10
6306.972849295585
 20
2193.076407922351
 30
0.0
 11
6306.972849295585
 21
1649.07640792235
 31
0.0
  0
MTEXT
  5
23193
102
{ACAD_REACTORS
330
23198
102
}
330
747D
100
AcDbEntity
  8
寸法
 62
     7
 48
50.0
100
AcDbMText
 10
6389.85878632298
 20
2054.343969221278
 30
0.0
 40
80.0
 41
0.8
 71
     4
 72
     1
  1
D13
  7
STYLE2
 73
     1
 44
1.0
1001
ACAD
1000
MTEXTBEGIN
1070
    73
1070
     1
1070
    44
1040
1.0
1070
    74
1070
     0
1000
MTEXTEND
  0
LEADER
  5
23194
330
747D
100
AcDbEntity
  8
寸法
 48
50.0
100
AcDbLeader
  3
INABA_S40G
 71
     0
 73
     0
 74
     0
 75
     1
 40
100.0
 41
225.0
 76
     3
 10
6338.875801647727
 20
1529.07640792235
 30
0.0
 10
6418.30050910227
 20
1433.679338979378
 30
0.0
 10
6518.300509102269
 20
1433.679338979378
 30
0.0
1001
ACAD
1000
DSTYLE
1002
{
1070
   174
1070
     0
1070
   272
1070
     1
1070
   279
1070
     1
1070
   288
1070
     0
1070
   341
1005
0
1002
}
  0
LEADER
  5
23195
330
747D
100
AcDbEntity
  8
寸法
 48
50.0
100
AcDbLeader
  3
INABA_S40G
 71
     0
 73
     0
 74
     0
 75
     1
 40
100.0
 41
540.3409090909091
 76
     3
 10
6284.918018308759
 20
1512.335877508825
 30
0.0
 10
6428.711305156835
 20
1170.705059513927
 30
0.0
 10
6528.711305156836
 20
1170.705059513927
 30
0.0
213
0.0
223
-1.022262676269383
233
0.0
1001
ACAD
1000
DSTYLE
1002
{
1070
   174
1070
     0
1070
   272
1070
     1
1070
   279
1070
     1
1070
   288
1070
     0
1070
   341
1005
0
1002
}
  0
MTEXT
  5
23196
102
{ACAD_REACTORS
330
23194
102
}
330
747D
100
AcDbEntity
  8
寸法
 62
     7
 48
50.0
100
AcDbMText
 10
6538.30050910227
 20
1493.679338979378
 30
0.0
 40
80.0
 41
0.8
 71
     4
 72
     1
  1
D10
  7
STYLE2
 73
     1
 44
1.0
1001
ACAD
1000
MTEXTBEGIN
1070
    73
1070
     1
1070
    44
1040
1.0
1070
    74
1070
     0
1000
MTEXTEND
  0
LWPOLYLINE
  5
23197
330
747D
100
AcDbEntity
  8
部品1
 48
50.0
100
AcDbPolyline
 90
        2
 70
     0
 43
8.0
 10
6306.972849295584
 20
1953.076407922351
 10
6721.112751128543
 20
1953.076407922351
  0
LEADER
  5
23198
330
747D
100
AcDbEntity
  8
寸法
 48
50.0
100
AcDbLeader
  3
INABA_S40G
 71
     0
 73
     0
 74
     0
 75
     1
 40
100.0
 41
222.7272727272727
 76
     3
 10
6210.972849295584
 20
2053.330837316596
 30
0.0
 10
6269.85878632298
 20
1994.343969221278
 30
0.0
 10
6369.858786322979
 20
1994.343969221278
 30
0.0
1001
ACAD
1000
DSTYLE
1002
{
1070
   174
1070
     0
1070
   272
1070
     1
1070
   279
1070
     1
1070
   288
1070
     0
1070
   341
1005
0
1002
}
  0
LINE
  5
23199
330
747D
100
AcDbEntity
  8
細線
 48
50.0
100
AcDbLine
 10
5986.972849295579
 20
1567.923153684521
 30
0.0
 11
6068.126103533414
 21
1649.07640792235
 31
0.0
  0
LINE
  5
2319A
330
747D
100
AcDbEntity
  8
細線
 48
50.0
100
AcDbLine
 10
6194.83869677299
 20
1587.203622619473
 30
0.0
 11
6218.972849295592
 21
1611.337775142072
 31
0.0
  0
LINE
  5
2319B
330
747D
100
AcDbEntity
  8
細線
 48
50.0
100
AcDbLine
 10
6101.770713712658
 20
1521.07640792235
 30
0.0
 11
6218.972849295585
 21
1638.278543505276
 31
0.0
  0
LINE
  5
2319C
330
747D
100
AcDbEntity
  8
部品1
 48
50.0
100
AcDbLine
 10
5986.972849295586
 20
1409.07640792235
 30
0.0
 11
5986.972849295586
 21
1649.07640792235
 31
0.0
  0
LINE
  5
2319D
330
747D
100
AcDbEntity
  8
細線
 48
50.0
100
AcDbLine
 10
6344.237628981529
 20
1521.07640792235
 30
0.0
 11
6434.972849295586
 21
1611.811628236409
 31
0.0
  0
LINE
  5
2319E
330
747D
100
AcDbEntity
  8
細線
 48
50.0
100
AcDbLine
 10
6317.296860618313
 20
1521.07640792235
 30
0.0
 11
6434.972849295586
 21
1638.752396599616
 31
0.0
  0
LINE
  5
2319F
330
747D
100
AcDbEntity
  8
部品1
 48
50.0
100
AcDbLine
 10
6434.972849295586
 20
1649.07640792235
 30
0.0
 11
6434.972849295586
 21
1409.07640792235
 31
0.0
  0
LINE
  5
231A0
330
747D
100
AcDbEntity
  8
部品1
 48
50.0
100
AcDbLine
 10
6234.972849295591
 20
1529.07640792235
 30
0.0
 11
6234.972849295585
 21
2053.330837316596
 31
0.0
  0
LINE
  5
231A1
330
747D
100
AcDbEntity
  8
部品1
 48
50.0
100
AcDbLine
 10
6218.972849295592
 20
1529.07640792235
 30
0.0
 11
6218.972849295578
 21
2053.330837316596
 31
0.0
  0
LINE
  5
231A2
330
747D
100
AcDbEntity
  8
細線
 48
50.0
100
AcDbLine
 10
6202.972849295585
 20
1568.397006778862
 30
0.0
 11
6218.972849295592
 21
1584.397006778862
 31
0.0
  0
LINE
  5
231A3
330
747D
100
AcDbEntity
  8
細線
 48
50.0
100
AcDbLine
 10
6192.1556887916
 20
1281.07640792235
 30
0.0
 11
6226.453185422783
 21
1409.07640792235
 31
0.0
  0
LINE
  5
231A4
330
747D
100
AcDbEntity
  8
部品1
 48
50.0
100
AcDbLine
 10
6514.972849295588
 20
1281.07640792235
 30
0.0
 11
5906.972849295588
 21
1281.07640792235
 31
0.0
  0
LINE
  5
231A5
330
747D
100
AcDbEntity
  8
部品1
 48
50.0
100
AcDbLine
 10
6042.972849295586
 20
1505.07640792235
 30
0.0
 11
6378.972849295585
 21
1505.07640792235
 31
0.0
  0
LINE
  5
231A6
330
747D
100
AcDbEntity
  8
部品1
 48
50.0
100
AcDbLine
 10
6042.972849295586
 20
1521.07640792235
 30
0.0
 11
6378.972849295585
 21
1521.07640792235
 31
0.0
  0
LINE
  5
231A7
330
747D
100
AcDbEntity
  8
部品1
 48
50.0
100
AcDbLine
 10
6514.972849295588
 20
1409.07640792235
 30
0.0
 11
5906.972849295588
 21
1409.07640792235
 31
0.0
  0
CIRCLE
  5
231A8
330
747D
100
AcDbEntity
  8
部品1
 48
50.0
100
AcDbCircle
 10
6210.972849295586
 20
1529.07640792235
 30
0.0
 40
8.0
  0
LINE
  5
231A9
330
747D
100
AcDbEntity
  8
細線
 48
50.0
100
AcDbLine
 10
6205.296860618318
 20
1409.07640792235
 30
0.0
 11
6301.296860618318
 21
1505.07640792235
 31
0.0
  0
LINE
  5
231AA
330
747D
100
AcDbEntity
  8
細線
 48
50.0
100
AcDbLine
 10
6034.379598897102
 20
1281.07640792235
 30
0.0
 11
6068.677095528284
 21
1409.07640792235
 31
0.0
  0
LINE
  5
231AB
330
747D
100
AcDbEntity
  8
細線
 48
50.0
100
AcDbLine
 10
6113.267643844347
 20
1281.076407922349
 30
0.0
 11
6147.56514047553
 21
1409.076407922349
 31
0.0
  0
LINE
  5
231AC
330
747D
100
AcDbEntity
  8
細線
 48
50.0
100
AcDbLine
 10
5955.491553949844
 20
1281.076407922349
 30
0.0
 11
5989.789050581027
 21
1409.076407922349
 31
0.0
  0
LINE
  5
231AD
330
747D
100
AcDbEntity
  8
部品1
 48
50.0
100
AcDbLine
 10
5906.972849295588
 20
1281.07640792235
 30
0.0
 11
5906.972849295588
 21
1409.07640792235
 31
0.0
  0
LINE
  5
231AE
330
747D
100
AcDbEntity
  8
細線
 48
50.0
100
AcDbLine
 10
6040.810379515447
 20
1305.07640792235
 30
0.0
 11
6047.241160133795
 21
1281.07640792235
 31
0.0
  0
LINE
  5
231AF
330
747D
100
AcDbEntity
  8
細線
 48
50.0
100
AcDbLine
 10
5961.922334568196
 20
1305.07640792235
 30
0.0
 11
5968.353115186543
 21
1281.07640792235
 31
0.0
  0
LINE
  5
231B0
330
747D
100
AcDbEntity
  8
細線
 48
50.0
100
AcDbLine
 10
6198.586469409953
 20
1305.07640792235
 30
0.0
 11
6205.017250028299
 21
1281.07640792235
 31
0.0
  0
LINE
  5
231B1
330
747D
100
AcDbEntity
  8
細線
 48
50.0
100
AcDbLine
 10
6119.698424462701
 20
1305.07640792235
 30
0.0
 11
6126.129205081046
 21
1281.07640792235
 31
0.0
  0
LINE
  5
231B2
330
747D
100
AcDbEntity
  8
細線
 48
50.0
100
AcDbLine
 10
6016.711482075869
 20
1409.07640792235
 30
0.0
 11
6112.711482075869
 21
1505.07640792235
 31
0.0
  0
LINE
  5
231B3
330
747D
100
AcDbEntity
  8
細線
 48
50.0
100
AcDbLine
 10
5989.770713712658
 20
1409.07640792235
 30
0.0
 11
6085.770713712658
 21
1505.07640792235
 31
0.0
  0
LINE
  5
231B4
330
747D
100
AcDbEntity
  8
部品1
 48
50.0
100
AcDbLine
 10
6042.972849295586
 20
1521.07640792235
 30
0.0
 11
6042.972849295586
 21
1505.07640792235
 31
0.0
  0
LINE
  5
231B5
330
747D
100
AcDbEntity
  8
細線
 48
50.0
100
AcDbLine
 10
5983.358269962685
 20
1385.07640792235
 30
0.0
 11
5976.927489344338
 21
1409.07640792235
 31
0.0
  0
LINE
  5
231B6
330
747D
100
AcDbEntity
  8
細線
 48
50.0
100
AcDbLine
 10
5906.972849295585
 20
1394.41632888813
 30
0.0
 11
5910.901005633781
 21
1409.07640792235
 31
0.0
  0
LINE
  5
231B7
330
747D
100
AcDbEntity
  8
部品1
 48
50.0
100
AcDbLine
 10
6202.972849295585
 20
1587.203622619473
 30
0.0
 11
6186.972849295585
 21
1587.203622619473
 31
0.0
  0
CIRCLE
  5
231B8
330
747D
100
AcDbEntity
  8
部品1
 48
50.0
100
AcDbCircle
 10
6082.972849295586
 20
1529.07640792235
 30
0.0
 40
8.0
  0
LINE
  5
231B9
330
747D
100
AcDbEntity
  8
細線
 48
50.0
100
AcDbLine
 10
6155.652250439074
 20
1521.07640792235
 30
0.0
 11
6186.972849295585
 21
1552.397006778862
 31
0.0
  0
ARC
  5
231BA
330
747D
100
AcDbEntity
  8
部品1
 48
50.0
100
AcDbCircle
 10
6210.972849295586
 20
1529.07640792235
 30
0.0
 40
24.0
100
AcDbArc
 50
180.0
 51
199.4712206344835
  0
LINE
  5
231BB
330
747D
100
AcDbEntity
  8
細線
 48
50.0
100
AcDbLine
 10
6062.246314909937
 20
1385.07640792235
 30
0.0
 11
6055.815534291591
 21
1409.07640792235
 31
0.0
  0
LINE
  5
231BC
330
747D
100
AcDbEntity
  8
細線
 48
50.0
100
AcDbLine
 10
6141.13435985719
 20
1385.07640792235
 30
0.0
 11
6134.703579238843
 21
1409.07640792235
 31
0.0
  0
LINE
  5
231BD
330
747D
100
AcDbEntity
  8
細線
 48
50.0
100
AcDbLine
 10
6043.652250439074
 20
1409.07640792235
 30
0.0
 11
6139.652250439074
 21
1505.07640792235
 31
0.0
  0
LINE
  5
231BE
330
747D
100
AcDbEntity
  8
部品1
 48
50.0
100
AcDbLine
 10
6186.972849295585
 20
1587.203622619473
 30
0.0
 11
6186.972849295585
 21
1529.07640792235
 31
0.0
  0
LINE
  5
231BF
330
747D
100
AcDbEntity
  8
細線
 48
50.0
100
AcDbLine
 10
6128.711482075869
 20
1521.07640792235
 30
0.0
 11
6186.972849295585
 21
1579.337775142069
 31
0.0
  0
LINE
  5
231C0
330
747D
100
AcDbEntity
  8
部品1
 48
50.0
100
AcDbLine
 10
6202.972849295585
 20
1587.203622619473
 30
0.0
 11
6202.972849295585
 21
1529.07640792235
 31
0.0
  0
LINE
  5
231C1
330
747D
100
AcDbEntity
  8
部品1
 48
50.0
100
AcDbLine
 10
6514.972849295588
 20
1409.07640792235
 30
0.0
 11
6514.972849295588
 21
1281.07640792235
 31
0.0
  0
LINE
  5
231C2
330
747D
100
AcDbEntity
  8
細線
 48
50.0
100
AcDbLine
 10
6428.819823633339
 20
1281.07640792235
 30
0.0
 11
6463.117320264524
 21
1409.076407922349
 31
0.0
  0
LINE
  5
231C3
330
747D
100
AcDbEntity
  8
細線
 48
50.0
100
AcDbLine
 10
6271.043733738845
 20
1281.07640792235
 30
0.0
 11
6305.341230370032
 21
1409.076407922349
 31
0.0
  0
LINE
  5
231C4
330
747D
100
AcDbEntity
  8
細線
 48
50.0
100
AcDbLine
 10
6349.931778686094
 20
1281.076407922349
 30
0.0
 11
6384.229275317279
 21
1409.076407922349
 31
0.0
  0
LINE
  5
231C5
330
747D
100
AcDbEntity
  8
細線
 48
50.0
100
AcDbLine
 10
6356.362559304443
 20
1305.07640792235
 30
0.0
 11
6362.793339922792
 21
1281.07640792235
 31
0.0
  0
LINE
  5
231C6
330
747D
100
AcDbEntity
  8
細線
 48
50.0
100
AcDbLine
 10
6277.474514357198
 20
1305.07640792235
 30
0.0
 11
6283.905294975544
 21
1281.07640792235
 31
0.0
  0
LINE
  5
231C7
330
747D
100
AcDbEntity
  8
細線
 48
50.0
100
AcDbLine
 10
6435.250604251691
 20
1305.07640792235
 30
0.0
 11
6441.681384870038
 21
1281.07640792235
 31
0.0
  0
LINE
  5
231C8
330
747D
100
AcDbEntity
  8
細線
 48
50.0
100
AcDbLine
 10
6514.138649198938
 20
1305.07640792235
 30
0.0
 11
6514.972849295586
 21
1301.963130777986
 31
0.0
  0
LINE
  5
231C9
330
747D
100
AcDbEntity
  8
細線
 48
50.0
100
AcDbLine
 10
6507.707868580588
 20
1281.076407922349
 30
0.0
 11
6514.972849295586
 21
1308.189685066738
 31
0.0
  0
LINE
  5
231CA
330
747D
100
AcDbEntity
  8
細線
 48
50.0
100
AcDbLine
 10
6371.178397344733
 20
1521.07640792235
 30
0.0
 11
6434.972849295586
 21
1584.870859873201
 31
0.0
  0
CIRCLE
  5
231CB
330
747D
100
AcDbEntity
  8
部品1
 48
50.0
100
AcDbCircle
 10
6338.972849295585
 20
1529.07640792235
 30
0.0
 40
8.0
  0
ARC
  5
231CC
330
747D
100
AcDbEntity
  8
部品1
 48
50.0
100
AcDbCircle
 10
6210.972849295586
 20
1529.07640792235
 30
0.0
 40
24.0
100
AcDbArc
 50
340.5287793655164
 51
0.0
  0
LINE
  5
231CD
330
747D
100
AcDbEntity
  8
細線
 48
50.0
100
AcDbLine
 10
6220.022404804442
 20
1385.07640792235
 30
0.0
 11
6213.591624186094
 21
1409.07640792235
 31
0.0
  0
LINE
  5
231CE
330
747D
100
AcDbEntity
  8
細線
 48
50.0
100
AcDbLine
 10
6298.910449751687
 20
1385.07640792235
 30
0.0
 11
6292.479669133341
 21
1409.07640792235
 31
0.0
  0
LINE
  5
231CF
330
747D
100
AcDbEntity
  8
細線
 48
50.0
100
AcDbLine
 10
6232.237628981529
 20
1409.07640792235
 30
0.0
 11
6328.237628981529
 21
1505.07640792235
 31
0.0
  0
LINE
  5
231D0
330
747D
100
AcDbEntity
  8
細線
 48
50.0
100
AcDbLine
 10
6259.178397344733
 20
1409.07640792235
 30
0.0
 11
6355.17928518987
 21
1505.077295767489
 31
0.0
  0
LINE
  5
231D1
330
747D
100
AcDbEntity
  8
部品1
 48
50.0
100
AcDbLine
 10
6378.972849295585
 20
1521.07640792235
 30
0.0
 11
6378.972849295585
 21
1505.07640792235
 31
0.0
  0
LINE
  5
231D2
330
747D
100
AcDbEntity
  8
細線
 48
50.0
100
AcDbLine
 10
6456.686539646179
 20
1385.07640792235
 30
0.0
 11
6450.255759027831
 21
1409.07640792235
 31
0.0
  0
LINE
  5
231D3
330
747D
100
AcDbEntity
  8
細線
 48
50.0
100
AcDbLine
 10
6420.82300752398
 20
1409.07640792235
 30
0.0
 11
6434.972849295586
 21
1423.226249693957
 31
0.0
  0
LINE
  5
231D4
330
747D
100
AcDbEntity
  8
細線
 48
50.0
100
AcDbLine
 10
6377.798494698932
 20
1385.07640792235
 30
0.0
 11
6371.367714080587
 21
1409.07640792235
 31
0.0
  0
LINE
  5
231D5
330
747D
100
AcDbEntity
  8
細線
 48
50.0
100
AcDbLine
 10
6114.972849295586
 20
1722.863922047728
 30
0.0
 11
6218.972849295592
 21
1826.863922047731
 31
0.0
  0
LINE
  5
231D6
330
747D
100
AcDbEntity
  8
細線
 48
50.0
100
AcDbLine
 10
6114.972849295586
 20
1749.804690410936
 30
0.0
 11
6218.972849295585
 21
1853.804690410936
 31
0.0
  0
LINE
  5
231D7
330
747D
100
AcDbEntity
  8
細線
 48
50.0
100
AcDbLine
 10
6114.972849295586
 20
1695.923153684521
 30
0.0
 11
6218.972849295592
 21
1799.923153684521
 31
0.0
  0
LINE
  5
231D8
330
747D
100
AcDbEntity
  8
細線
 48
50.0
100
AcDbLine
 10
6202.972849295585
 20
1999.449300590181
 30
0.0
 11
6218.972849295585
 21
2015.449300590181
 31
0.0
  0
LINE
  5
231D9
330
747D
100
AcDbEntity
  8
細線
 48
50.0
100
AcDbLine
 10
6202.972849295585
 20
2026.390068953388
 30
0.0
 11
6218.972849295585
 21
2042.390068953388
 31
0.0
  0
LINE
  5
231DA
330
747D
100
AcDbEntity
  8
部品1
 48
50.0
100
AcDbLine
 10
5986.972849295586
 20
1649.07640792235
 30
0.0
 11
6114.972849295586
 21
1649.07640792235
 31
0.0
  0
LINE
  5
231DB
330
747D
100
AcDbEntity
  8
細線
 48
50.0
100
AcDbLine
 10
5986.972849295579
 20
1594.863922047726
 30
0.0
 11
6041.185335170211
 21
1649.07640792235
 31
0.0
  0
LINE
  5
231DC
330
747D
100
AcDbEntity
  8
細線
 48
50.0
100
AcDbLine
 10
5986.972849295579
 20
1621.804690410936
 30
0.0
 11
6014.244566807
 21
1649.07640792235
 31
0.0
  0
LINE
  5
231DD
330
747D
100
AcDbEntity
  8
部品1
 48
50.0
100
AcDbLine
 10
6202.972849295585
 20
1995.203622619473
 30
0.0
 11
6186.972849295585
 21
1995.203622619476
 31
0.0
  0
LINE
  5
231DE
330
747D
100
AcDbEntity
  8
細線
 48
50.0
100
AcDbLine
 10
6114.972849295586
 20
1911.449300590181
 30
0.0
 11
6198.727171324879
 21
1995.203622619473
 31
0.0
  0
LINE
  5
231DF
330
747D
100
AcDbEntity
  8
細線
 48
50.0
100
AcDbLine
 10
6114.972849295586
 20
1938.390068953388
 30
0.0
 11
6186.972849295585
 21
2010.390068953388
 31
0.0
  0
LINE
  5
231E0
330
747D
100
AcDbEntity
  8
部品1
 48
50.0
100
AcDbLine
 10
6186.972849295585
 20
1995.203622619476
 30
0.0
 11
6186.972849295585
 21
2053.330837316596
 31
0.0
  0
LINE
  5
231E1
330
747D
100
AcDbEntity
  8
細線
 48
50.0
100
AcDbLine
 10
6114.972849295586
 20
1965.330837316596
 30
0.0
 11
6186.972849295585
 21
2037.330837316596
 31
0.0
  0
LINE
  5
231E2
330
747D
100
AcDbEntity
  8
部品1
 48
50.0
100
AcDbLine
 10
6202.972849295585
 20
1995.203622619473
 30
0.0
 11
6202.972849295585
 21
2053.330837316596
 31
0.0
  0
LINE
  5
231E3
330
747D
100
AcDbEntity
  8
細線
 48
50.0
100
AcDbLine
 10
6234.972849295591
 20
1815.923153684521
 30
0.0
 11
6306.972849295578
 21
1887.923153684521
 31
0.0
  0
LINE
  5
231E4
330
747D
100
AcDbEntity
  8
部品1
 48
50.0
100
AcDbLine
 10
6306.972849295585
 20
1649.07640792235
 30
0.0
 11
6434.972849295586
 21
1649.07640792235
 31
0.0
  0
LINE
  5
231E5
330
747D
100
AcDbEntity
  8
細線
 48
50.0
100
AcDbLine
 10
6234.972849295591
 20
1627.337775142072
 30
0.0
 11
6306.972849295578
 21
1699.337775142066
 31
0.0
  0
LINE
  5
231E6
330
747D
100
AcDbEntity
  8
細線
 48
50.0
100
AcDbLine
 10
6234.972849295591
 20
1654.278543505279
 30
0.0
 11
6306.972849295578
 21
1726.278543505276
 31
0.0
  0
LINE
  5
231E7
330
747D
100
AcDbEntity
  8
細線
 48
50.0
100
AcDbLine
 10
6234.972849295591
 20
1600.397006778862
 30
0.0
 11
6306.972849295578
 21
1672.397006778862
 31
0.0
  0
LINE
  5
231E8
330
747D
100
AcDbEntity
  8
細線
 48
50.0
100
AcDbLine
 10
6234.972849295585
 20
1869.804690410936
 30
0.0
 11
6306.972849295585
 21
1941.804690410936
 31
0.0
  0
LINE
  5
231E9
330
747D
100
AcDbEntity
  8
細線
 48
50.0
100
AcDbLine
 10
6234.972849295591
 20
1842.863922047731
 30
0.0
 11
6306.972849295578
 21
1914.863922047725
 31
0.0
  0
MTEXT
  5
231EA
102
{ACAD_REACTORS
330
23195
102
}
330
747D
100
AcDbEntity
  8
寸法
 62
     7
 48
50.0
100
AcDbMText
 10
6548.711305156835
 20
1231.727322190197
 30
0.0
 40
80.0
 41
0.8
 71
     4
 72
     1
  1
\A1;D10@300
  7
STYLE2
 73
     1
 44
1.0
1001
ACAD
1000
MTEXTBEGIN
1070
    73
1070
     1
1070
    44
1040
1.0
1070
    74
1070
     0
1000
MTEXTEND
  0
DIMENSION
  5
231EB
330
747D
100
AcDbEntity
  8
寸法
 48
50.0
100
AcDbDimension
  2
*D63
 10
6114.972849295584
 20
2513.07640792235
 30
0.0
 11
6222.199179640782
 21
2612.744215838731
 31
0.0
 70
   160
  1
120\P200\P280
 71
     5
 42
192.0
  3
INABA_S40G
100
AcDbAlignedDimension
 13
6306.972849295584
 23
2193.076407922351
 33
0.0
 14
6114.972849295584
 24
2193.076407922351
 34
0.0
100
AcDbRotatedDimension
1001
ACAD
1000
DSTYLE
1002
{
1070
   174
1070
     0
1070
   272
1070
     1
1070
   279
1070
     1
1070
   288
1070
     0
1070
   341
1005
0
1002
}
  0
LINE
  5
231EC
330
747D
100
AcDbEntity
  8
部品1
 48
50.0
100
AcDbLine
 10
6114.972849295586
 20
2193.076407922351
 30
0.0
 11
6306.972849295585
 21
2193.076407922351
 31
0.0
  0
LINE
  5
231ED
330
747D
100
AcDbEntity
  8
細線
 48
50.0
100
AcDbLine
 10
6114.972849295586
 20
2153.916215859049
 30
0.0
 11
6154.133041358889
 21
2193.076407922351
 31
0.0
  0
LINE
  5
231EE
330
747D
100
AcDbEntity
  8
細線
 48
50.0
100
AcDbLine
 10
6114.972849295586
 20
2126.975447495841
 30
0.0
 11
6181.073809722095
 21
2193.076407922351
 31
0.0
  0
LINE
  5
231EF
330
747D
100
AcDbEntity
  8
細線
 48
50.0
100
AcDbLine
 10
6114.972849295586
 20
2180.856984222256
 30
0.0
 11
6127.192272995681
 21
2193.076407922351
 31
0.0
  0
LINE
  5
231F0
330
747D
100
AcDbEntity
  8
細線
 48
50.0
100
AcDbLine
 10
6234.525556561571
 20
2057.942776219372
 30
0.0
 11
6306.972849295585
 21
2130.390068953388
 31
0.0
  0
LINE
  5
231F1
330
747D
100
AcDbEntity
  8
細線
 48
50.0
100
AcDbLine
 10
6223.465271798055
 20
2073.823259819067
 30
0.0
 11
6306.972849295585
 21
2157.330837316596
 31
0.0
  0
LINE
  5
231F2
330
747D
100
AcDbEntity
  8
細線
 48
50.0
100
AcDbLine
 10
8099.412162472781
 20
2034.204690410939
 30
0.0
 11
8229.012162472775
 21
2163.804690410938
 31
0.0
  0
LINE
  5
231F3
330
747D
100
AcDbEntity
  8
部品1
100
AcDbLine
 10
8229.012162472775
 20
1649.07640792235
 30
0.0
 11
8229.012162472775
 21
2193.076407922351
 31
0.0
  0
LINE
  5
231F4
330
747D
100
AcDbEntity
  8
部品1
 48
50.0
100
AcDbLine
 10
7815.01216247278
 20
1649.07640792235
 30
0.0
 11
7815.01216247278
 21
2193.076407922351
 31
0.0
  0
LINE
  5
231F5
330
747D
100
AcDbEntity
  8
細線
 48
50.0
100
AcDbLine
 10
7815.01216247278
 20
1965.330837316596
 30
0.0
 11
7973.412162472778
 21
2123.730837316593
 31
0.0
  0
LINE
  5
231F6
330
747D
100
AcDbEntity
  8
細線
 48
50.0
100
AcDbLine
 10
7815.01216247278
 20
1938.390068953388
 30
0.0
 11
7973.412162472778
 21
2096.790068953386
 31
0.0
  0
LINE
  5
231F7
330
747D
100
AcDbEntity
  8
細線
 48
50.0
100
AcDbLine
 10
7815.01216247278
 20
1911.449300590181
 30
0.0
 11
7973.412162472775
 21
2069.849300590173
 31
0.0
  0
TEXT
  5
231F8
330
747D
100
AcDbEntity
  8
部品1
 48
50.0
100
AcDbText
 10
7400.872260639824
 20
1964.315400205606
 30
0.0
 40
80.0
  1
▽G.L
  7
STYLE2
100
AcDbText
  0
LINE
  5
231F9
330
747D
100
AcDbEntity
  8
部品1
100
AcDbLine
 10
8045.412162472777
 20
1968.07640792235
 30
0.0
 11
8045.412162472775
 21
2242.236407922352
 31
0.0
  0
LINE
  5
231FA
330
747D
100
AcDbEntity
  8
部品1
100
AcDbLine
 10
8027.412162472778
 20
1968.07640792235
 30
0.0
 11
8027.412162472774
 21
2242.236407922352
 31
0.0
  0
LINE
  5
231FB
330
747D
100
AcDbEntity
  8
細線
 48
50.0
100
AcDbLine
 10
8099.412162472781
 20
1980.323153684509
 30
0.0
 11
8229.012162472775
 21
2109.9231536845
 31
0.0
  0
LINE
  5
231FC
330
747D
100
AcDbEntity
  8
細線
 48
50.0
100
AcDbLine
 10
8099.412162472781
 20
2007.263922047722
 30
0.0
 11
8229.012162472775
 21
2136.863922047719
 31
0.0
  0
LINE
  5
231FD
330
747D
100
AcDbEntity
  8
部品1
100
AcDbLine
 10
8099.412162472779
 20
1869.07640792235
 30
0.0
 11
8099.412162472779
 21
2193.076407922351
 31
0.0
  0
LINE
  5
231FE
330
747D
100
AcDbEntity
  8
部品1
100
AcDbLine
 10
7973.412162472775
 20
1869.07640792235
 30
0.0
 11
7973.412162472778
 21
2193.076407922351
 31
0.0
  0
LINE
  5
231FF
330
747D
100
AcDbEntity
  8
細線
 48
50.0
100
AcDbLine
 10
7815.01216247278
 20
1722.863922047728
 30
0.0
 11
7973.41216247277
 21
1881.263922047717
 31
0.0
  0
LINE
  5
23200
330
747D
100
AcDbEntity
  8
細線
 48
50.0
100
AcDbLine
 10
7815.01216247278
 20
1695.923153684521
 30
0.0
 11
7988.165416710613
 21
1869.076407922349
 31
0.0
  0
LINE
  5
23201
330
747D
100
AcDbEntity
  8
細線
 48
50.0
100
AcDbLine
 10
7815.01216247278
 20
1749.804690410936
 30
0.0
 11
7973.41216247277
 21
1908.204690410931
 31
0.0
  0
LINE
  5
23202
330
747D
100
AcDbEntity
  8
細線
 48
50.0
100
AcDbLine
 10
7743.691563616266
 20
1409.07640792235
 30
0.0
 11
8229.012162472775
 21
1894.397006778858
 31
0.0
  0
LINE
  5
23203
330
747D
100
AcDbEntity
  8
細線
 48
50.0
100
AcDbLine
 10
7716.750795253061
 20
1409.07640792235
 30
0.0
 11
8229.012162472781
 21
1921.337775142064
 31
0.0
  0
LINE
  5
23204
330
747D
100
AcDbEntity
  8
細線
 48
50.0
100
AcDbLine
 10
7689.810026889853
 20
1409.07640792235
 30
0.0
 11
8229.012162472775
 21
1948.278543505276
 31
0.0
  0
LINE
  5
23205
330
747D
100
AcDbEntity
  8
部品1
 48
50.0
100
AcDbLine
 10
8437.012162472781
 20
1409.07640792235
 30
0.0
 11
7607.012162472781
 21
1409.07640792235
 31
0.0
  0
LINE
  5
23206
330
747D
100
AcDbEntity
  8
部品1
 48
50.0
100
AcDbLine
 10
8437.012162472781
 20
1281.07640792235
 30
0.0
 11
7607.012162472781
 21
1281.07640792235
 31
0.0
  0
LINE
  5
23207
330
747D
100
AcDbEntity
  8
細線
 48
50.0
100
AcDbLine
 10
7687.012162472773
 20
1567.923153684521
 30
0.0
 11
7768.165416710606
 21
1649.07640792235
 31
0.0
  0
LINE
  5
23208
330
747D
100
AcDbEntity
  8
部品1
 48
50.0
100
AcDbLine
 10
7687.012162472779
 20
1409.07640792235
 30
0.0
 11
7687.012162472779
 21
1649.07640792235
 31
0.0
  0
LINE
  5
23209
330
747D
100
AcDbEntity
  8
細線
 48
50.0
100
AcDbLine
 10
7734.418912074295
 20
1281.07640792235
 30
0.0
 11
7768.716408705476
 21
1409.07640792235
 31
0.0
  0
LINE
  5
2320A
330
747D
100
AcDbEntity
  8
部品1
 48
50.0
100
AcDbLine
 10
7607.012162472781
 20
1281.07640792235
 30
0.0
 11
7607.012162472781
 21
1409.07640792235
 31
0.0
  0
LINE
  5
2320B
330
747D
100
AcDbEntity
  8
細線
 48
50.0
100
AcDbLine
 10
7655.530867127037
 20
1281.076407922349
 30
0.0
 11
7689.828363758222
 21
1409.076407922349
 31
0.0
  0
LINE
  5
2320C
330
747D
100
AcDbEntity
  8
細線
 48
50.0
100
AcDbLine
 10
7813.306957021541
 20
1281.076407922349
 30
0.0
 11
7847.604453652722
 21
1409.076407922349
 31
0.0
  0
LINE
  5
2320D
330
747D
100
AcDbEntity
  8
細線
 48
50.0
100
AcDbLine
 10
7661.96164774539
 20
1305.07640792235
 30
0.0
 11
7668.392428363737
 21
1281.07640792235
 31
0.0
  0
LINE
  5
2320E
330
747D
100
AcDbEntity
  8
細線
 48
50.0
100
AcDbLine
 10
7819.737737639894
 20
1305.07640792235
 30
0.0
 11
7826.168518258241
 21
1281.07640792235
 31
0.0
  0
LINE
  5
2320F
330
747D
100
AcDbEntity
  8
細線
 48
50.0
100
AcDbLine
 10
7740.849692692641
 20
1305.07640792235
 30
0.0
 11
7747.280473310988
 21
1281.07640792235
 31
0.0
  0
LINE
  5
23210
330
747D
100
AcDbEntity
  8
細線
 48
50.0
100
AcDbLine
 10
7607.012162472779
 20
1394.41632888813
 30
0.0
 11
7610.940318810975
 21
1409.07640792235
 31
0.0
  0
LINE
  5
23211
330
747D
100
AcDbEntity
  8
細線
 48
50.0
100
AcDbLine
 10
7683.397583139878
 20
1385.07640792235
 30
0.0
 11
7676.966802521533
 21
1409.07640792235
 31
0.0
  0
LINE
  5
23212
330
747D
100
AcDbEntity
  8
細線
 48
50.0
100
AcDbLine
 10
7841.173673034383
 20
1385.07640792235
 30
0.0
 11
7834.742892416038
 21
1409.07640792235
 31
0.0
  0
LINE
  5
23213
330
747D
100
AcDbEntity
  8
細線
 48
50.0
100
AcDbLine
 10
7762.285628087131
 20
1385.07640792235
 30
0.0
 11
7755.854847468786
 21
1409.07640792235
 31
0.0
  0
LWPOLYLINE
  5
23214
330
747D
100
AcDbEntity
  8
部品1
 48
50.0
100
AcDbPolyline
 90
        2
 70
     0
 43
8.0
 10
7400.872260639824
 20
1953.076407922351
 10
7815.01216247278
 20
1953.076407922351
  0
LINE
  5
23215
330
747D
100
AcDbEntity
  8
細線
 48
50.0
100
AcDbLine
 10
7687.012162472773
 20
1594.863922047726
 30
0.0
 11
7741.224648347404
 21
1649.07640792235
 31
0.0
  0
LINE
  5
23216
330
747D
100
AcDbEntity
  8
部品1
 48
50.0
100
AcDbLine
 10
7687.012162472779
 20
1649.07640792235
 30
0.0
 11
7815.01216247278
 21
1649.07640792235
 31
0.0
  0
LINE
  5
23217
330
747D
100
AcDbEntity
  8
細線
 48
50.0
100
AcDbLine
 10
7687.012162472773
 20
1621.804690410936
 30
0.0
 11
7714.283879984193
 21
1649.07640792235
 31
0.0
  0
LINE
  5
23218
330
747D
100
AcDbEntity
  8
細線
 48
50.0
100
AcDbLine
 10
7932.276942158722
 20
1409.07640792235
 30
0.0
 11
8229.012162472775
 21
1705.811628236403
 31
0.0
  0
LINE
  5
23219
330
747D
100
AcDbEntity
  8
細線
 48
50.0
100
AcDbLine
 10
7959.217710521928
 20
1409.07640792235
 30
0.0
 11
8229.012162472775
 21
1678.870859873208
 31
0.0
  0
LINE
  5
2321A
330
747D
100
AcDbEntity
  8
細線
 48
50.0
100
AcDbLine
 10
7905.336173795513
 20
1409.07640792235
 30
0.0
 11
8229.012162472775
 21
1732.752396599616
 31
0.0
  0
LINE
  5
2321B
330
747D
100
AcDbEntity
  8
細線
 48
50.0
100
AcDbLine
 10
8120.862320701174
 20
1409.07640792235
 30
0.0
 11
8357.012162472775
 21
1645.226249693959
 31
0.0
  0
LINE
  5
2321C
330
747D
100
AcDbEntity
  8
細線
 48
50.0
100
AcDbLine
 10
8147.803089064382
 20
1409.07640792235
 30
0.0
 11
8357.012162472775
 21
1618.285481330743
 31
0.0
  0
LINE
  5
2321D
330
747D
100
AcDbEntity
  8
部品1
 48
50.0
100
AcDbLine
 10
8357.012162472775
 20
1649.07640792235
 30
0.0
 11
8357.012162472775
 21
1409.07640792235
 31
0.0
  0
LINE
  5
2321E
330
747D
100
AcDbEntity
  8
細線
 48
50.0
100
AcDbLine
 10
8174.743857427587
 20
1409.07640792235
 30
0.0
 11
8357.012162472775
 21
1591.344712967546
 31
0.0
  0
LINE
  5
2321F
330
747D
100
AcDbEntity
  8
細線
 48
50.0
100
AcDbLine
 10
8049.971091863289
 20
1281.076407922349
 30
0.0
 11
8084.26858849447
 21
1409.076407922349
 31
0.0
  0
LINE
  5
23220
330
747D
100
AcDbEntity
  8
細線
 48
50.0
100
AcDbLine
 10
7892.195001968794
 20
1281.07640792235
 30
0.0
 11
7926.492498599976
 21
1409.07640792235
 31
0.0
  0
LINE
  5
23221
330
747D
100
AcDbEntity
  8
細線
 48
50.0
100
AcDbLine
 10
7971.08304691604
 20
1281.07640792235
 30
0.0
 11
8005.380543547223
 21
1409.076407922349
 31
0.0
  0
LINE
  5
23222
330
747D
100
AcDbEntity
  8
細線
 48
50.0
100
AcDbLine
 10
8128.859136810531
 20
1281.07640792235
 30
0.0
 11
8163.156633441714
 21
1409.076407922349
 31
0.0
  0
LINE
  5
23223
330
747D
100
AcDbEntity
  8
細線
 48
50.0
100
AcDbLine
 10
7977.513827534392
 20
1305.07640792235
 30
0.0
 11
7983.944608152738
 21
1281.07640792235
 31
0.0
  0
LINE
  5
23224
330
747D
100
AcDbEntity
  8
細線
 48
50.0
100
AcDbLine
 10
7898.625782587147
 20
1305.07640792235
 30
0.0
 11
7905.056563205492
 21
1281.07640792235
 31
0.0
  0
LINE
  5
23225
330
747D
100
AcDbEntity
  8
細線
 48
50.0
100
AcDbLine
 10
8135.289917428883
 20
1305.07640792235
 30
0.0
 11
8141.72069804723
 21
1281.07640792235
 31
0.0
  0
LINE
  5
23226
330
747D
100
AcDbEntity
  8
細線
 48
50.0
100
AcDbLine
 10
8056.401872481638
 20
1305.07640792235
 30
0.0
 11
8062.832653099984
 21
1281.07640792235
 31
0.0
  0
LINE
  5
23227
330
747D
100
AcDbEntity
  8
細線
 48
50.0
100
AcDbLine
 10
7998.949762928882
 20
1385.07640792235
 30
0.0
 11
7992.518982310535
 21
1409.07640792235
 31
0.0
  0
LINE
  5
23228
330
747D
100
AcDbEntity
  8
細線
 48
50.0
100
AcDbLine
 10
7920.061717981636
 20
1385.07640792235
 30
0.0
 11
7913.630937363286
 21
1409.07640792235
 31
0.0
  0
LINE
  5
23229
330
747D
100
AcDbEntity
  8
細線
 48
50.0
100
AcDbLine
 10
8077.837807876127
 20
1385.07640792235
 30
0.0
 11
8071.407027257782
 21
1409.07640792235
 31
0.0
  0
LINE
  5
2322A
330
747D
100
AcDbEntity
  8
細線
 48
50.0
100
AcDbLine
 10
8156.725852823372
 20
1385.07640792235
 30
0.0
 11
8150.295072205027
 21
1409.07640792235
 31
0.0
  0
LINE
  5
2322B
330
747D
100
AcDbEntity
  8
部品1
 48
50.0
100
AcDbLine
 10
8437.012162472781
 20
1409.07640792235
 30
0.0
 11
8437.012162472781
 21
1281.07640792235
 31
0.0
  0
LINE
  5
2322C
330
747D
100
AcDbEntity
  8
細線
 48
50.0
100
AcDbLine
 10
8365.523271652273
 20
1281.076407922349
 30
0.0
 11
8399.82076828346
 21
1409.076407922348
 31
0.0
  0
LINE
  5
2322D
330
747D
100
AcDbEntity
  8
細線
 48
50.0
100
AcDbLine
 10
8207.747181757779
 20
1281.076407922349
 30
0.0
 11
8242.044678388953
 21
1409.07640792235
 31
0.0
  0
LINE
  5
2322E
330
747D
100
AcDbEntity
  8
細線
 48
50.0
100
AcDbLine
 10
8286.635226705028
 20
1281.076407922348
 30
0.0
 11
8320.932723336213
 21
1409.076407922348
 31
0.0
  0
LINE
  5
2322F
330
747D
100
AcDbEntity
  8
細線
 48
50.0
100
AcDbLine
 10
8214.177962376128
 20
1305.07640792235
 30
0.0
 11
8220.608742994485
 21
1281.07640792235
 31
0.0
  0
LINE
  5
23230
330
747D
100
AcDbEntity
  8
細線
 48
50.0
100
AcDbLine
 10
8293.066007323378
 20
1305.076407922348
 30
0.0
 11
8299.496787941723
 21
1281.076407922349
 31
0.0
  0
LINE
  5
23231
330
747D
100
AcDbEntity
  8
細線
 48
50.0
100
AcDbLine
 10
8371.954052270622
 20
1305.076407922348
 30
0.0
 11
8378.384832888974
 21
1281.076407922349
 31
0.0
  0
LINE
  5
23232
330
747D
100
AcDbEntity
  8
細線
 48
50.0
100
AcDbLine
 10
8235.61389777061
 20
1385.07640792235
 30
0.0
 11
8229.183117152265
 21
1409.07640792235
 31
0.0
  0
LINE
  5
23233
330
747D
100
AcDbEntity
  8
細線
 48
50.0
100
AcDbLine
 10
8314.501942717866
 20
1385.076407922348
 30
0.0
 11
8308.071162099521
 21
1409.076407922349
 31
0.0
  0
LINE
  5
23234
330
747D
100
AcDbEntity
  8
細線
 48
50.0
100
AcDbLine
 10
8393.389987665113
 20
1385.076407922348
 30
0.0
 11
8386.959207046766
 21
1409.076407922349
 31
0.0
  0
LINE
  5
23235
330
747D
100
AcDbEntity
  8
部品1
100
AcDbLine
 10
8099.412162472779
 20
1869.076407922349
 30
0.0
 11
7973.412162472775
 21
1869.076407922349
 31
0.0
  0
LINE
  5
23236
330
747D
100
AcDbEntity
  8
部品1
100
AcDbLine
 10
8081.412162472778
 20
1950.07640792235
 30
0.0
 11
8081.412162472778
 21
1968.07640792235
 31
0.0
  0
ARC
  5
23237
330
747D
100
AcDbEntity
  8
部品1
100
AcDbCircle
 10
8045.412162472777
 20
1968.07640792235
 30
0.0
 40
18.0
100
AcDbArc
 50
180.0
 51
270.0
  0
LINE
  5
23238
330
747D
100
AcDbEntity
  8
部品1
100
AcDbLine
 10
8045.412162472777
 20
1950.07640792235
 30
0.0
 11
8081.412162472778
 21
1950.07640792235
 31
0.0
  0
LINE
  5
23239
330
747D
100
AcDbEntity
  8
部品1
100
AcDbLine
 10
8045.412162472777
 20
1968.07640792235
 30
0.0
 11
8081.412162472778
 21
1968.07640792235
 31
0.0
  0
LINE
  5
2323A
330
747D
100
AcDbEntity
  8
部品1
 48
50.0
100
AcDbLine
 10
8229.012162472775
 20
1649.07640792235
 30
0.0
 11
8357.012162472775
 21
1649.07640792235
 31
0.0
  0
LINE
  5
2323B
330
747D
100
AcDbEntity
  8
部品1
100
AcDbLine
 10
7834.812162472779
 20
2283.076407922351
 30
0.0
 11
7872.612162472778
 21
2283.076407922351
 31
0.0
  0
LINE
  5
2323C
330
747D
100
AcDbEntity
  8
細線
 48
50.0
100
AcDbLine
 10
7815.01216247278
 20
2153.916215859049
 30
0.0
 11
7854.172354536084
 21
2193.076407922351
 31
0.0
  0
LINE
  5
2323D
330
747D
100
AcDbEntity
  8
細線
 48
50.0
100
AcDbLine
 10
7815.01216247278
 20
2126.975447495841
 30
0.0
 11
7881.113122899289
 21
2193.076407922351
 31
0.0
  0
LINE
  5
2323E
330
747D
100
AcDbEntity
  8
部品1
 48
50.0
100
AcDbLine
 10
7815.01216247278
 20
2193.076407922351
 30
0.0
 11
8229.012162472781
 21
2193.076407922351
 31
0.0
  0
LINE
  5
2323F
330
747D
100
AcDbEntity
  8
部品1
100
AcDbLine
 10
7832.112162472778
 20
2272.27640792235
 30
0.0
 11
7832.112162472778
 21
2280.37640792235
 31
0.0
  0
ARC
  5
23240
330
747D
100
AcDbEntity
  8
部品1
100
AcDbCircle
 10
7834.812162472779
 20
2280.37640792235
 30
0.0
 40
2.7
100
AcDbArc
 50
90.0
 51
180.0
  0
ARC
  5
23241
330
747D
100
AcDbEntity
  8
部品1
100
AcDbCircle
 10
7824.01216247278
 20
2267.468311625059
 30
0.0
 40
2.7
100
AcDbArc
 50
104.0362434679059
 51
180.0
  0
LINE
  5
23242
330
747D
100
AcDbEntity
  8
部品1
100
AcDbLine
 10
7823.357316285179
 20
2270.08769637545
 30
0.0
 11
7832.112162472778
 21
2272.27640792235
 31
0.0
  0
ARC
  5
23243
330
747D
100
AcDbEntity
  8
部品1
100
AcDbCircle
 10
7824.01216247278
 20
2205.33640792235
 30
0.0
 40
2.7
100
AcDbArc
 50
180.0
 51
270.0
  0
LINE
  5
23244
330
747D
100
AcDbEntity
  8
細線
 48
50.0
100
AcDbLine
 10
7815.01216247278
 20
2180.856984222256
 30
0.0
 11
7827.231586172875
 21
2193.076407922351
 31
0.0
  0
LINE
  5
23245
330
747D
100
AcDbEntity
  8
部品1
100
AcDbLine
 10
7824.01216247278
 20
2202.636407922351
 30
0.0
 11
7835.712162472773
 21
2202.636407922351
 31
0.0
  0
LINE
  5
23246
330
747D
100
AcDbEntity
  8
部品1
100
AcDbLine
 10
7821.312162472779
 20
2205.33640792235
 30
0.0
 11
7821.312162472779
 21
2267.468311625059
 31
0.0
  0
LINE
  5
23247
330
747D
100
AcDbEntity
  8
部品1
100
AcDbLine
 10
7979.972162472773
 20
2202.636407922351
 30
0.0
 11
8181.312162472771
 21
2202.636407922351
 31
0.0
  0
LINE
  5
23248
330
747D
100
AcDbEntity
  8
部品1
100
AcDbLine
 10
7872.612162472778
 20
2283.076407922351
 30
0.0
 11
7872.612162472778
 21
2291.176407922351
 31
0.0
  0
LINE
  5
23249
330
747D
100
AcDbEntity
  8
部品1
100
AcDbLine
 10
7923.01216247278
 20
2301.976407922348
 30
0.0
 11
7923.01216247278
 21
2250.676407922351
 31
0.0
  0
LINE
  5
2324A
330
747D
100
AcDbEntity
  8
部品1
100
AcDbLine
 10
7946.412162472778
 20
2262.636407922351
 30
0.0
 11
7974.572162472778
 21
2262.636407922351
 31
0.0
  0
ARC
  5
2324B
330
747D
100
AcDbEntity
  8
部品1
100
AcDbCircle
 10
7946.412162472778
 20
2259.936407922351
 30
0.0
 40
2.7
100
AcDbArc
 50
90.0
 51
180.0
  0
ARC
  5
2324C
330
747D
100
AcDbEntity
  8
部品1
100
AcDbCircle
 10
7974.572162472778
 20
2259.936407922351
 30
0.0
 40
2.7
100
AcDbArc
 50
0.0
 51
90.0
  0
LINE
  5
2324D
330
747D
100
AcDbEntity
  8
部品1
100
AcDbLine
 10
7965.312162472779
 20
2247.97640792235
 30
0.0
 11
7965.312162472779
 21
2205.33640792235
 31
0.0
  0
LINE
  5
2324E
330
747D
100
AcDbEntity
  8
部品1
100
AcDbLine
 10
7950.912162472778
 20
2202.636407922351
 30
0.0
 11
7962.612162472779
 21
2202.636407922351
 31
0.0
  0
ARC
  5
2324F
330
747D
100
AcDbEntity
  8
部品1
100
AcDbCircle
 10
7979.972162472773
 20
2205.33640792235
 30
0.0
 40
2.7
100
AcDbArc
 50
180.0
 51
270.0
  0
ARC
  5
23250
330
747D
100
AcDbEntity
  8
部品1
100
AcDbCircle
 10
7962.612162472779
 20
2205.33640792235
 30
0.0
 40
2.7
100
AcDbArc
 50
270.0
 51
0.0
  0
LINE
  5
23251
330
747D
100
AcDbEntity
  8
部品1
100
AcDbLine
 10
7923.01216247278
 20
2250.676407922351
 30
0.0
 11
7962.612162472779
 21
2250.676407922351
 31
0.0
  0
ARC
  5
23252
330
747D
100
AcDbEntity
  8
部品1
100
AcDbCircle
 10
7962.612162472779
 20
2247.97640792235
 30
0.0
 40
2.7
100
AcDbArc
 50
0.0
 51
90.0
  0
LINE
  5
23253
330
747D
100
AcDbEntity
  8
部品1
100
AcDbLine
 10
7977.272162472778
 20
2259.936407922351
 30
0.0
 11
7977.272162472775
 21
2205.33640792235
 31
0.0
  0
LINE
  5
23254
330
747D
100
AcDbEntity
  8
部品1
100
AcDbLine
 10
7943.712162472777
 20
2259.936407922351
 30
0.0
 11
7943.712162472777
 21
2242.836407922351
 31
0.0
  0
LINE
  5
23255
330
747D
100
AcDbEntity
  8
細線
100
AcDbLine
 10
8041.812162472778
 20
2202.636407922351
 30
0.0
 11
8041.812162472778
 21
2245.836407922351
 31
0.0
  0
LINE
  5
23256
330
747D
100
AcDbEntity
  8
細線
100
AcDbLine
 10
8031.01216247278
 20
2202.636407922351
 30
0.0
 11
8031.01216247278
 21
2245.836407922351
 31
0.0
  0
LINE
  5
23257
330
747D
100
AcDbEntity
  8
部品1
100
AcDbLine
 10
8027.412162472778
 20
2242.236407922352
 30
0.0
 11
8045.412162472777
 21
2242.236407922352
 31
0.0
  0
LINE
  5
23258
330
747D
100
AcDbEntity
  8
部品1
100
AcDbLine
 10
8031.01216247278
 20
2245.836407922351
 30
0.0
 11
8041.812162472778
 21
2245.836407922351
 31
0.0
  0
ELLIPSE
  5
23259
330
747D
100
AcDbEntity
  8
部品1
 48
50.0
100
AcDbEllipse
 10
8036.412162472776
 20
2462.199696366623
 30
0.0
 11
40.0
 21
0.0
 31
0.0
210
0.0
220
0.0
230
1.0
 40
0.4
 41
0.0
 42
6.283185307179586
  0
ELLIPSE
  5
2325A
330
747D
100
AcDbEntity
  8
部品1
 48
50.0
100
AcDbEllipse
 10
8036.412162472776
 20
2452.599696366624
 30
0.0
 11
40.0
 21
0.0
 31
0.0
210
0.0
220
0.0
230
1.0
 40
0.4
 41
3.141592653589793
 42
6.283185307179586
  0
LINE
  5
2325B
330
747D
100
AcDbEntity
  8
部品1
 48
50.0
100
AcDbLine
 10
7996.412162472778
 20
2462.199696366623
 30
0.0
 11
7996.412162472778
 21
2452.599696366623
 31
0.0
  0
ARC
  5
2325C
330
747D
100
AcDbEntity
  8
部品1
100
AcDbCircle
 10
7920.31216247278
 20
2301.976407922348
 30
0.0
 40
2.7
100
AcDbArc
 50
0.0
 51
90.0
  0
ARC
  5
2325D
330
747D
100
AcDbEntity
  8
部品1
100
AcDbCircle
 10
7878.01216247278
 20
2301.97640792235
 30
0.0
 40
2.7
100
AcDbArc
 50
90.0
 51
180.0
  0
LINE
  5
2325E
330
747D
100
AcDbEntity
  8
部品1
100
AcDbLine
 10
7875.31216247278
 20
2293.876407922351
 30
0.0
 11
7875.31216247278
 21
2293.876407922351
 31
0.0
  0
LINE
  5
2325F
330
747D
100
AcDbEntity
  8
部品1
100
AcDbLine
 10
7875.31216247278
 20
2293.876407922351
 30
0.0
 11
7875.31216247278
 21
2301.97640792235
 31
0.0
  0
LINE
  5
23260
330
747D
100
AcDbEntity
  8
部品1
100
AcDbLine
 10
7878.01216247278
 20
2304.676407922351
 30
0.0
 11
7920.31216247278
 21
2304.676407922347
 31
0.0
  0
ARC
  5
23261
330
747D
100
AcDbEntity
  8
部品1
100
AcDbCircle
 10
7875.31216247278
 20
2291.176407922351
 30
0.0
 40
2.7
100
AcDbArc
 50
90.0
 51
180.0
  0
ELLIPSE
  5
23262
330
747D
100
AcDbEntity
  8
部品1
 48
50.0
100
AcDbEllipse
 10
8036.412162472776
 20
2462.199696366623
 30
0.0
 11
18.4
 21
0.0
 31
0.0
210
0.0
220
0.0
230
1.0
 40
0.3478260869565217
 41
0.0
 42
6.283185307179586
  0
LINE
  5
23263
330
747D
100
AcDbEntity
  8
部品1
 48
50.0
100
AcDbLine
 10
8076.412162472777
 20
2452.599696366623
 30
0.0
 11
8076.412162472777
 21
2462.199696366623
 31
0.0
  0
LINE
  5
23264
330
747D
100
AcDbEntity
  8
部品1
 48
50.0
100
AcDbLine
 10
8004.412162472778
 20
2583.951689031493
 30
0.0
 11
8020.412162472778
 21
2575.951689031493
 31
0.0
  0
LINE
  5
23265
330
747D
100
AcDbEntity
  8
部品1
 48
50.0
100
AcDbLine
 10
8004.412162472778
 20
2551.951689031493
 30
0.0
 11
8020.412162472778
 21
2543.951689031493
 31
0.0
  0
LINE
  5
23266
330
747D
100
AcDbEntity
  8
部品1
 48
50.0
100
AcDbLine
 10
8004.412162472778
 20
2583.951689031493
 30
0.0
 11
8020.412162472778
 21
2591.951689031493
 31
0.0
  0
LINE
  5
23267
330
747D
100
AcDbEntity
  8
部品1
 48
50.0
100
AcDbLine
 10
8004.412162472778
 20
2551.951689031493
 30
0.0
 11
8004.412162472778
 21
2583.951689031493
 31
0.0
  0
LINE
  5
23268
330
747D
100
AcDbEntity
  8
部品1
 48
50.0
100
AcDbLine
 10
8020.412162472778
 20
2591.951689031493
 30
0.0
 11
8052.412162472778
 21
2591.951689031493
 31
0.0
  0
ELLIPSE
  5
23269
330
747D
100
AcDbEntity
  8
細線
 48
50.0
100
AcDbEllipse
 10
8036.412162472776
 20
2583.951689031493
 30
0.0
 11
14.76670786606846
 21
0.0
 31
0.0
210
0.0
220
0.0
230
1.0
 40
0.2071254069489396
 41
0.0
 42
6.283185307179586
  0
LINE
  5
2326A
330
747D
100
AcDbEntity
  8
部品1
 48
50.0
100
AcDbLine
 10
8020.412162472778
 20
2543.951689031493
 30
0.0
 11
8052.412162472778
 21
2543.951689031493
 31
0.0
  0
LINE
  5
2326B
330
747D
100
AcDbEntity
  8
部品1
 48
50.0
100
AcDbLine
 10
8052.412162472778
 20
2543.951689031493
 30
0.0
 11
8068.412162472778
 21
2551.951689031493
 31
0.0
  0
LINE
  5
2326C
330
747D
100
AcDbEntity
  8
部品1
 48
50.0
100
AcDbLine
 10
8020.412162472778
 20
2575.951689031493
 30
0.0
 11
8052.412162472778
 21
2575.951689031493
 31
0.0
  0
LINE
  5
2326D
330
747D
100
AcDbEntity
  8
部品1
 48
50.0
100
AcDbLine
 10
8052.412162472778
 20
2575.951689031493
 30
0.0
 11
8068.412162472778
 21
2583.951689031493
 31
0.0
  0
LINE
  5
2326E
330
747D
100
AcDbEntity
  8
細線
 48
50.0
100
AcDbLine
 10
8052.412162472778
 20
2543.951689031493
 30
0.0
 11
8052.412162472778
 21
2575.951689031493
 31
0.0
  0
LINE
  5
2326F
330
747D
100
AcDbEntity
  8
部品1
 48
50.0
100
AcDbLine
 10
8068.412162472778
 20
2551.951689031493
 30
0.0
 11
8068.412162472778
 21
2583.951689031493
 31
0.0
  0
LINE
  5
23270
330
747D
100
AcDbEntity
  8
細線
 48
50.0
100
AcDbLine
 10
8020.412162472778
 20
2543.951689031493
 30
0.0
 11
8020.412162472778
 21
2575.951689031493
 31
0.0
  0
LINE
  5
23271
330
747D
100
AcDbEntity
  8
部品1
 48
50.0
100
AcDbLine
 10
8052.412162472778
 20
2591.951689031493
 30
0.0
 11
8068.412162472778
 21
2583.951689031493
 31
0.0
  0
TEXT
  5
23272
330
747D
100
AcDbEntity
  8
部品1
100
AcDbText
 10
7737.184411664708
 20
3334.496095747768
 30
0.0
 40
120.0
  1
基礎詳細
  7
STYLE2
100
AcDbText
  0
LINE
  5
23273
330
747D
100
AcDbEntity
  8
部品1
100
AcDbLine
 10
11115.28959587257
 20
549.7410581145482
 30
0.0
 11
11115.28959587257
 21
3514.048027699195
 31
0.0
  0
LINE
  5
23274
330
747D
100
AcDbEntity
  8
細線
100
AcDbLine
 10
10123.18142845232
 20
1953.07640792235
 30
0.0
 11
9928.548094775536
 21
2147.709741599133
 31
0.0
  0
LINE
  5
23275
330
747D
100
AcDbEntity
  8
部品1
100
AcDbLine
 10
9928.548094775536
 20
2193.076407922351
 30
0.0
 11
10408.54809477553
 21
2193.076407922351
 31
0.0
  0
LINE
  5
23276
330
747D
100
AcDbEntity
  8
細線
 48
50.0
100
AcDbLine
 10
10062.61897921879
 20
1733.377492269
 30
0.0
 11
10096.91647584998
 21
1861.377492268999
 31
0.0
  0
LINE
  5
23277
330
747D
100
AcDbEntity
  8
部品1
100
AcDbLine
 10
9808.548094775536
 20
1733.377492268997
 30
0.0
 11
10528.54809477553
 21
1733.377492269
 31
0.0
  0
LINE
  5
23278
330
747D
100
AcDbEntity
  8
部品1
100
AcDbLine
 10
9808.548094775536
 20
1861.377492269
 30
0.0
 11
10528.54809477553
 21
1861.377492269003
 31
0.0
  0
LINE
  5
23279
330
747D
100
AcDbEntity
  8
細線
100
AcDbLine
 10
9989.466740268778
 20
1861.377492269
 30
0.0
 11
10081.16565592212
 21
1953.07640792235
 31
0.0
  0
LWPOLYLINE
  5
2327A
330
747D
100
AcDbEntity
  8
部品1
 48
50.0
100
AcDbPolyline
 90
        2
 70
     0
 43
12.0
 10
9543.936832675147
 20
1953.07640792235
 10
10745.02913580677
 20
1953.07640792235
  0
LINE
  5
2327B
330
747D
100
AcDbEntity
  8
細線
100
AcDbLine
 10
10072.26974020689
 20
1953.07640792235
 30
0.0
 11
9928.548094775536
 21
2096.798053353703
 31
0.0
  0
TEXT
  5
2327C
330
747D
100
AcDbEntity
  8
部品1
 48
50.0
100
AcDbText
 10
9164.430008017033
 20
1686.276667285041
 30
0.0
 40
80.0
  1
ボルトの出
 50
90.0
  7
STYLE2
100
AcDbText
  0
LINE
  5
2327D
330
747D
100
AcDbEntity
  8
部品1
100
AcDbLine
 10
9928.548094775536
 20
1953.07640792235
 30
0.0
 11
9928.548094775536
 21
2193.076407922351
 31
0.0
  0
LINE
  5
2327E
330
747D
100
AcDbEntity
  8
細線
 48
50.0
100
AcDbLine
 10
9904.842889324298
 20
1733.377492268999
 30
0.0
 11
9939.140385955477
 21
1861.377492268999
 31
0.0
  0
LINE
  5
2327F
330
747D
100
AcDbEntity
  8
細線
 48
50.0
100
AcDbLine
 10
9983.730934271546
 20
1733.377492269
 30
0.0
 11
10018.02843090273
 21
1861.377492269
 31
0.0
  0
LINE
  5
23280
330
747D
100
AcDbEntity
  8
細線
 48
50.0
100
AcDbLine
 10
9825.954844377047
 20
1733.377492269
 30
0.0
 11
9860.252341008234
 21
1861.377492269
 31
0.0
  0
LINE
  5
23281
330
747D
100
AcDbEntity
  8
部品1
100
AcDbLine
 10
9808.548094775536
 20
1733.377492268997
 30
0.0
 11
9808.548094775536
 21
1953.07640792235
 31
0.0
  0
LINE
  5
23282
330
747D
100
AcDbEntity
  8
細線
 48
50.0
100
AcDbLine
 10
9911.273669942646
 20
1757.377492269
 30
0.0
 11
9917.704450560997
 21
1733.377492269
 31
0.0
  0
LINE
  5
23283
330
747D
100
AcDbEntity
  8
細線
 48
50.0
100
AcDbLine
 10
9832.385624995398
 20
1757.377492269
 30
0.0
 11
9838.816405613743
 21
1733.377492269
 31
0.0
  0
LINE
  5
23284
330
747D
100
AcDbEntity
  8
細線
 48
50.0
100
AcDbLine
 10
9990.1617148899
 20
1757.377492269
 30
0.0
 11
9996.592495508245
 21
1733.377492269
 31
0.0
  0
LINE
  5
23285
330
747D
100
AcDbEntity
  8
細線
 48
50.0
100
AcDbLine
 10
10069.04975983714
 20
1757.377492269
 30
0.0
 11
10075.48054045549
 21
1733.377492269
 31
0.0
  0
LINE
  5
23286
330
747D
100
AcDbEntity
  8
細線
 48
50.0
100
AcDbLine
 10
9853.821560389887
 20
1837.377492269
 30
0.0
 11
9847.390779771536
 21
1861.377492269
 31
0.0
  0
LINE
  5
23287
330
747D
100
AcDbEntity
  8
細線
 48
50.0
100
AcDbLine
 10
10011.59765028438
 20
1837.377492269
 30
0.0
 11
10005.16686966604
 21
1861.377492269
 31
0.0
  0
LINE
  5
23288
330
747D
100
AcDbEntity
  8
細線
 48
50.0
100
AcDbLine
 10
9932.709605337135
 20
1837.377492269
 30
0.0
 11
9926.27882471879
 21
1861.377492269
 31
0.0
  0
LINE
  5
23289
330
747D
100
AcDbEntity
  8
細線
100
AcDbLine
 10
9921.584489274865
 20
1861.377492269
 30
0.0
 11
10013.28340492821
 21
1953.07640792235
 31
0.0
  0
LINE
  5
2328A
330
747D
100
AcDbEntity
  8
細線
100
AcDbLine
 10
9955.525614771822
 20
1861.377492269
 30
0.0
 11
10047.22453042516
 21
1953.07640792235
 31
0.0
  0
LINE
  5
2328B
330
747D
100
AcDbEntity
  8
細線
100
AcDbLine
 10
10343.79874418252
 20
1953.07640792235
 30
0.0
 11
10103.79874418252
 21
2193.076407922351
 31
0.0
  0
LINE
  5
2328C
330
747D
100
AcDbEntity
  8
細線
100
AcDbLine
 10
10394.71043242795
 20
1953.076407922352
 30
0.0
 11
10154.71043242796
 21
2193.076407922351
 31
0.0
  0
LINE
  5
2328D
330
747D
100
AcDbEntity
  8
部品1
100
AcDbLine
 10
10408.54809477553
 20
2193.076407922351
 30
0.0
 11
10408.54809477553
 21
1953.07640792235
 31
0.0
  0
LINE
  5
2328E
330
747D
100
AcDbEntity
  8
細線
 48
50.0
100
AcDbLine
 10
10378.17115900778
 20
1733.377492268997
 30
0.0
 11
10412.46865563897
 21
1861.377492268998
 31
0.0
  0
LINE
  5
2328F
330
747D
100
AcDbEntity
  8
細線
100
AcDbLine
 10
10349.46674026878
 20
1861.377492269002
 30
0.0
 11
10441.16565592212
 21
1953.07640792235
 31
0.0
  0
LINE
  5
23290
330
747D
100
AcDbEntity
  8
細線
 48
50.0
100
AcDbLine
 10
10299.28311406053
 20
1733.377492268999
 30
0.0
 11
10333.58061069171
 21
1861.377492269
 31
0.0
  0
LINE
  5
23291
330
747D
100
AcDbEntity
  8
細線
 48
50.0
100
AcDbLine
 10
10141.50702416604
 20
1733.377492268999
 30
0.0
 11
10175.80452079722
 21
1861.377492268999
 31
0.0
  0
LINE
  5
23292
330
747D
100
AcDbEntity
  8
細線
 48
50.0
100
AcDbLine
 10
10220.39506911328
 20
1733.377492269
 30
0.0
 11
10254.69256574447
 21
1861.377492268999
 31
0.0
  0
LINE
  5
23293
330
747D
100
AcDbEntity
  8
細線
 48
50.0
100
AcDbLine
 10
10226.82584973163
 20
1757.377492269
 30
0.0
 11
10233.25663034998
 21
1733.377492269
 31
0.0
  0
LINE
  5
23294
330
747D
100
AcDbEntity
  8
細線
 48
50.0
100
AcDbLine
 10
10147.93780478439
 20
1757.377492269
 30
0.0
 11
10154.36858540274
 21
1733.377492269
 31
0.0
  0
LINE
  5
23295
330
747D
100
AcDbEntity
  8
細線
 48
50.0
100
AcDbLine
 10
10305.71389467888
 20
1757.377492269
 30
0.0
 11
10312.14467529724
 21
1733.377492269
 31
0.0
  0
LINE
  5
23296
330
747D
100
AcDbEntity
  8
細線
 48
50.0
100
AcDbLine
 10
10384.60193962613
 20
1757.377492268999
 30
0.0
 11
10391.03272024448
 21
1733.377492268999
 31
0.0
  0
LINE
  5
23297
330
747D
100
AcDbEntity
  8
細線
 48
50.0
100
AcDbLine
 10
10248.26178512612
 20
1837.377492269
 30
0.0
 11
10241.83100450778
 21
1861.377492269
 31
0.0
  0
LINE
  5
23298
330
747D
100
AcDbEntity
  8
細線
 48
50.0
100
AcDbLine
 10
10169.37374017888
 20
1837.377492269
 30
0.0
 11
10162.94295956053
 21
1861.377492269
 31
0.0
  0
LINE
  5
23299
330
747D
100
AcDbEntity
  8
細線
 48
50.0
100
AcDbLine
 10
10090.48569523163
 20
1837.377492269
 30
0.0
 11
10084.05491461328
 21
1861.377492269
 31
0.0
  0
LINE
  5
2329A
330
747D
100
AcDbEntity
  8
細線
100
AcDbLine
 10
10315.52561477182
 20
1861.377492269002
 30
0.0
 11
10407.22453042516
 21
1953.07640792235
 31
0.0
  0
LINE
  5
2329B
330
747D
100
AcDbEntity
  8
細線
 48
50.0
100
AcDbLine
 10
10327.14983007336
 20
1837.377492269
 30
0.0
 11
10320.71904945502
 21
1861.377492269
 31
0.0
  0
LINE
  5
2329C
330
747D
100
AcDbEntity
  8
細線
100
AcDbLine
 10
10281.58448927487
 20
1861.377492269002
 30
0.0
 11
10373.28340492821
 21
1953.07640792235
 31
0.0
  0
LINE
  5
2329D
330
747D
100
AcDbEntity
  8
細線
 48
50.0
100
AcDbLine
 10
10406.03787502062
 20
1837.377492269
 30
0.0
 11
10399.60709440227
 21
1861.377492268999
 31
0.0
  0
LINE
  5
2329E
330
747D
100
AcDbEntity
  8
細線
 48
50.0
100
AcDbLine
 10
10457.05920395503
 20
1733.377492268999
 30
0.0
 11
10491.35670058621
 21
1861.377492268998
 31
0.0
  0
LINE
  5
2329F
330
747D
100
AcDbEntity
  8
部品1
100
AcDbLine
 10
10528.54809477553
 20
1953.07640792235
 30
0.0
 11
10528.54809477554
 21
1733.377492269
 31
0.0
  0
LINE
  5
232A0
330
747D
100
AcDbEntity
  8
細線
 48
50.0
100
AcDbLine
 10
10463.48998457337
 20
1757.377492268999
 30
0.0
 11
10469.92076519173
 21
1733.377492268999
 31
0.0
  0
LINE
  5
232A1
330
747D
100
AcDbEntity
  8
細線
 48
50.0
100
AcDbLine
 10
10484.92591996786
 20
1837.377492269
 30
0.0
 11
10478.49513934952
 21
1861.377492268999
 31
0.0
  0
LEADER
  5
232A2
330
747D
100
AcDbEntity
  8
寸法
 48
50.0
100
AcDbLeader
  3
INABA_S40G
 73
     0
 74
     0
 75
     1
 40
120.0
 41
185.591883092037
 76
     3
 10
10339.27250639146
 20
2193.076407922351
 30
0.0
 10
10382.4107130251
 20
2350.222728603488
 30
0.0
 10
10482.4107130251
 20
2350.222728603488
 30
0.0
1001
ACAD
1000
DSTYLE
1002
{
1070
   174
1070
     0
1070
   272
1070
     1
1070
   279
1070
     1
1070
   288
1070
     0
1070
   341
1005
0
1002
}
  0
MTEXT
  5
232A3
102
{ACAD_REACTORS
330
232A2
102
}
330
747D
100
AcDbEntity
  8
寸法
 62
     7
 48
50.0
100
AcDbMText
 10
10522.4107130251
 20
2450.222728603488
 30
0.0
 40
120.0
 41
0.8
 71
     4
 72
     1
  1
\A1;C.B
  7
STYLE1
 73
     1
 44
1.0
1001
ACAD
1000
MTEXTBEGIN
1070
    73
1070
     1
1070
    44
1040
1.0
1070
    74
1070
     0
1000
MTEXTEND
  0
ENDSEC
  0
SECTION
  2
OBJECTS
  0
DICTIONARY
  5
7471
330
0
100
AcDbDictionary
281
     1
  3
ACAD_COLOR
350
173D2
  3
ACAD_GROUP
350
7472
  3
ACAD_LAYOUT
350
173D3
  3
ACAD_MATERIAL
350
173D1
  3
ACAD_MLINESTYLE
350
7473
  3
ACAD_PLOTSETTINGS
350
173D4
  3
ACAD_PLOTSTYLENAME
350
173CF
  3
ACDBHEADERROUNDTRIPXREC
350
2333B
  3
AcDbVariableDictionary
350
23337
  3
CONTENTDICTIONARY
350
E71C
  3
DRAWINGVARIABLESDICT
350
F3B9
  0
DICTIONARY
  5
1758F
330
7467
100
AcDbDictionary
280
     1
281
     1
  3
ACAD_LAYERSTATES
360
17590
  0
DICTIONARY
  5
173D2
102
{ACAD_REACTORS
330
7471
102
}
330
7471
100
AcDbDictionary
281
     1
  0
DICTIONARY
  5
7472
102
{ACAD_REACTORS
330
7471
102
}
330
7471
100
AcDbDictionary
281
     1
  3
*A1
350
1D2A9
  0
DICTIONARY
  5
173D3
102
{ACAD_REACTORS
330
7471
102
}
330
7471
100
AcDbDictionary
281
     1
  3
Model
350
173D5
  3
レイアウト1
350
173D6
  0
DICTIONARY
  5
173D1
102
{ACAD_REACTORS
330
7471
102
}
330
7471
100
AcDbDictionary
281
     1
  0
DICTIONARY
  5
7473
102
{ACAD_REACTORS
330
7471
102
}
330
7471
100
AcDbDictionary
281
     1
  3
STANDARD
350
7480
  0
DICTIONARY
  5
173D4
102
{ACAD_REACTORS
330
7471
102
}
330
7471
100
AcDbDictionary
281
     1
  0
ACDBDICTIONARYWDFLT
  5
173CF
102
{ACAD_REACTORS
330
7471
102
}
330
7471
100
AcDbDictionary
281
     1
  3
Normal
350
173D0
100
AcDbDictionaryWithDefault
340
173D0
  0
DICTIONARY
  5
2333B
102
{ACAD_REACTORS
330
7471
102
}
330
7471
100
AcDbDictionary
281
     1
  3
COLORDICT
350
2333D
  3
MATERIALDICT
350
2333C
  0
DICTIONARY
  5
23337
102
{ACAD_REACTORS
330
7471
102
}
330
7471
100
AcDbDictionary
281
     1
  3
DIMASSOC
350
23338
  3
PROJECTNAME
350
23339
  0
DICTIONARY
  5
E71C
102
{ACAD_REACTORS
330
7471
102
}
330
7471
100
AcDbDictionary
281
     1
  0
DICTIONARY
  5
F3B9
102
{ACAD_REACTORS
330
7471
102
}
330
7471
100
AcDbDictionary
281
     1
1001
DRAWINGVARIABLESXDATA
1000
POLARMODE
1000
1
  0
DICTIONARY
  5
17590
102
{ACAD_REACTORS
330
1758F
102
}
330
1758F
100
AcDbDictionary
281
     1
  0
GROUP
  5
1D2A9
102
{ACAD_REACTORS
330
7472
102
}
330
7472
100
AcDbGroup
300

 70
     1
 71
     1
  0
LAYOUT
  5
173D5
102
{ACAD_XDICTIONARY
360
2333E
102
}
102
{ACAD_REACTORS
330
173D3
102
}
330
173D3
100
AcDbPlotSettings
  1

  2
クセロPDFよこ.pc3
  4
A3
  6

 40
3.174999952316284
 41
3.174999952316284
 42
3.17498779296875
 43
3.17498779296875
 44
419.9466552734374
 45
296.9259948730469
 46
0.0
 47
0.0
 48
0.0
 49
0.0
140
0.0
141
0.0
142
1.0
143
40.0
 70
 11952
 72
     1
 73
     0
 74
     2
  7
ACA3.ctb
 75
    24
147
0.025
148
0.0
149
0.0
100
AcDbLayout
  1
Model
 70
     1
 71
     0
 10
0.0
 20
0.0
 11
12.0
 21
9.0
 12
0.0
 22
0.0
 32
0.0
 14
0.0
 24
0.0
 34
0.0
 15
0.0
 25
0.0
 35
0.0
146
0.0
 13
0.0
 23
0.0
 33
0.0
 16
1.0
 26
0.0
 36
0.0
 17
0.0
 27
1.0
 37
0.0
 76
     0
330
747D
  0
LAYOUT
  5
173D6
102
{ACAD_XDICTIONARY
360
23340
102
}
102
{ACAD_REACTORS
330
173D3
102
}
330
173D3
100
AcDbPlotSettings
  1

  2
Microsoft Office Document Image Writer
  4

  6

 40
0.0
 41
0.0
 42
0.0
 43
0.0
 44
0.0
 45
0.0
 46
0.0
 47
0.0
 48
0.0
 49
0.0
140
0.0
141
0.0
142
1.0
143
1.0
 70
   688
 72
     0
 73
     0
 74
     5
  7
ACA3.ctb
 75
    16
147
1.0
148
0.0
149
0.0
100
AcDbLayout
  1
レイアウト1
 70
     0
 71
     1
 10
0.0
 20
0.0
 11
420.0
 21
297.0
 12
0.0
 22
0.0
 32
0.0
 14
1.000000000000000E+20
 24
1.000000000000000E+20
 34
1.000000000000000E+20
 15
-1.000000000000000E+20
 25
-1.000000000000000E+20
 35
-1.000000000000000E+20
146
0.0
 13
0.0
 23
0.0
 33
0.0
 16
1.0
 26
0.0
 36
0.0
 17
0.0
 27
1.0
 37
0.0
 76
     0
330
747A
  0
MLINESTYLE
  5
7480
102
{ACAD_REACTORS
330
7473
102
}
330
7473
100
AcDbMlineStyle
  2
STANDARD
 70
     0
  3

 62
     0
 51
90.0
 52
90.0
 71
     2
 49
0.5
 62
   256
  6
BYLAYER
 49
-0.5
 62
   256
  6
BYLAYER
  0
ACDBPLACEHOLDER
  5
173D0
102
{ACAD_REACTORS
330
173CF
102
}
330
173CF
  0
XRECORD
  5
2333D
102
{ACAD_REACTORS
330
2333B
102
}
330
2333B
100
AcDbXrecord
280
     1
340
173D2
  0
XRECORD
  5
2333C
102
{ACAD_REACTORS
330
2333B
102
}
330
2333B
100
AcDbXrecord
280
     1
340
173D1
  0
DICTIONARYVAR
  5
23338
102
{ACAD_REACTORS
330
23337
102
}
330
23337
100
DictionaryVariables
280
     0
  1
1
  0
DICTIONARYVAR
  5
23339
102
{ACAD_REACTORS
330
23337
102
}
330
23337
100
DictionaryVariables
280
     0
  1

  0
DICTIONARY
  5
2333E
330
173D5
100
AcDbDictionary
280
     1
281
     1
  3
ACAD_XREC_ROUNDTRIP
360
2333F
  0
DICTIONARY
  5
23340
330
173D6
100
AcDbDictionary
280
     1
281
     1
  3
ACAD_XREC_ROUNDTRIP
360
23341
  0
XRECORD
  5
2333F
102
{ACAD_REACTORS
330
2333E
102
}
330
2333E
100
AcDbXrecord
280
     1
102
SHADEPLOT
 70
     0
102
SHADEPLOTRESLEVEL
 70
     2
102
SHADEPLOTCUSTOMDPI
 70
   150
  0
XRECORD
  5
23341
102
{ACAD_REACTORS
330
23340
102
}
330
23340
100
AcDbXrecord
280
     1
102
SHADEPLOT
 70
     0
102
SHADEPLOTRESLEVEL
 70
     2
102
SHADEPLOTCUSTOMDPI
 70
   300
  0
ENDSEC
  0
EOF
