  0
SECTION
  2
HEADER
  9
$ACADVER
  1
AC1015
  9
$ACADMAINTVER
 70
    20
  9
$DWGCODEPAGE
  3
ANSI_932
  9
$INSBASE
 10
0.0
 20
0.0
 30
0.0
  9
$EXTMIN
 10
139.9999999999995
 20
-0.0000000000000909
 30
0.0
  9
$EXTMAX
 10
16307.2
 20
11409.6
 30
0.0
  9
$LIMMIN
 10
-25.79074261211281
 20
-125.8223078213959
  9
$LIMMAX
 10
16471.10331197129
 20
11496.44801950658
  9
$ORTHOMODE
 70
     1
  9
$REGENMODE
 70
     1
  9
$FILLMODE
 70
     1
  9
$QTEXTMODE
 70
     0
  9
$MIRRTEXT
 70
     0
  9
$LTSCALE
 40
20.0
  9
$ATTMODE
 70
     1
  9
$TEXTSIZE
 40
100.0
  9
$TRACEWID
 40
1.0
  9
$TEXTSTYLE
  7
STYLE3
  9
$CLAYER
  8
寸法
  9
$CELTYPE
  6
BYLAYER
  9
$CECOLOR
 62
   256
  9
$CELTSCALE
 40
50.0
  9
$DISPSILH
 70
     0
  9
$DIMSCALE
 40
40.0
  9
$DIMASZ
 40
2.5
  9
$DIMEXO
 40
0.5
  9
$DIMDLI
 40
7.0
  9
$DIMRND
 40
0.0
  9
$DIMDLE
 40
0.0
  9
$DIMEXE
 40
1.5
  9
$DIMTP
 40
0.0
  9
$DIMTM
 40
0.0
  9
$DIMTXT
 40
3.0
  9
$DIMCEN
 40
0.0
  9
$DIMTSZ
 40
0.0
  9
$DIMTOL
 70
     0
  9
$DIMLIM
 70
     0
  9
$DIMTIH
 70
     0
  9
$DIMTOH
 70
     0
  9
$DIMSE1
 70
     0
  9
$DIMSE2
 70
     0
  9
$DIMTAD
 70
     3
  9
$DIMZIN
 70
     8
  9
$DIMBLK
  1

  9
$DIMASO
 70
     1
  9
$DIMSHO
 70
     1
  9
$DIMPOST
  1

  9
$DIMAPOST
  1

  9
$DIMALT
 70
     0
  9
$DIMALTD
 70
     2
  9
$DIMALTF
 40
0.0394
  9
$DIMLFAC
 40
1.0
  9
$DIMTOFL
 70
     1
  9
$DIMTVP
 40
0.0
  9
$DIMTIX
 70
     1
  9
$DIMSOXD
 70
     1
  9
$DIMSAH
 70
     1
  9
$DIMBLK1
  1
DOTSMALL
  9
$DIMBLK2
  1
DOTSMALL
  9
$DIMSTYLE
  2
INABA_S40G
  9
$DIMCLRD
 70
     0
  9
$DIMCLRE
 70
     0
  9
$DIMCLRT
 70
     7
  9
$DIMTFAC
 40
1.0
  9
$DIMGAP
 40
1.0
  9
$DIMJUST
 70
     0
  9
$DIMSD1
 70
     0
  9
$DIMSD2
 70
     0
  9
$DIMTOLJ
 70
     1
  9
$DIMTZIN
 70
     0
  9
$DIMALTZ
 70
     0
  9
$DIMALTTZ
 70
     0
  9
$DIMUPT
 70
     0
  9
$DIMDEC
 70
     1
  9
$DIMTDEC
 70
     4
  9
$DIMALTU
 70
     2
  9
$DIMALTTD
 70
     2
  9
$DIMTXSTY
  7
STYLE1
  9
$DIMAUNIT
 70
     0
  9
$DIMADEC
 70
     0
  9
$DIMALTRND
 40
0.0
  9
$DIMAZIN
 70
     0
  9
$DIMDSEP
 70
    46
  9
$DIMATFIT
 70
     3
  9
$DIMFRAC
 70
     0
  9
$DIMLDRBLK
  1
DOTSMALL
  9
$DIMLUNIT
 70
     2
  9
$DIMLWD
 70
    -2
  9
$DIMLWE
 70
    -2
  9
$DIMTMOVE
 70
     0
  9
$LUNITS
 70
     2
  9
$LUPREC
 70
     1
  9
$SKETCHINC
 40
1.0
  9
$FILLETRAD
 40
0.0
  9
$AUNITS
 70
     0
  9
$AUPREC
 70
     0
  9
$MENU
  1
acad
  9
$ELEVATION
 40
0.0
  9
$PELEVATION
 40
0.0
  9
$THICKNESS
 40
0.0
  9
$LIMCHECK
 70
     0
  9
$CHAMFERA
 40
0.0
  9
$CHAMFERB
 40
0.0
  9
$CHAMFERC
 40
0.0
  9
$CHAMFERD
 40
0.0
  9
$SKPOLY
 70
     0
  9
$TDCREATE
 40
2451590.492424190
  9
$TDUCREATE
 40
2451590.117424190
  9
$TDUPDATE
 40
2458831.378430833
  9
$TDUUPDATE
 40
2458831.003430833
  9
$TDINDWG
 40
1.0236037500
  9
$TDUSRTIMER
 40
1.0236026620
  9
$USRTIMER
 70
     1
  9
$ANGBASE
 50
0.0
  9
$ANGDIR
 70
     0
  9
$PDMODE
 70
     3
  9
$PDSIZE
 40
2.0
  9
$PLINEWID
 40
0.0
  9
$SPLFRAME
 70
     0
  9
$SPLINETYPE
 70
     6
  9
$SPLINESEGS
 70
     8
  9
$HANDSEED
  5
1E8FB
  9
$SURFTAB1
 70
     6
  9
$SURFTAB2
 70
     6
  9
$SURFTYPE
 70
     6
  9
$SURFU
 70
     6
  9
$SURFV
 70
     6
  9
$UCSBASE
  2

  9
$UCSNAME
  2

  9
$UCSORG
 10
0.0
 20
0.0
 30
0.0
  9
$UCSXDIR
 10
1.0
 20
0.0
 30
0.0
  9
$UCSYDIR
 10
0.0
 20
1.0
 30
0.0
  9
$UCSORTHOREF
  2

  9
$UCSORTHOVIEW
 70
     0
  9
$UCSORGTOP
 10
0.0
 20
0.0
 30
0.0
  9
$UCSORGBOTTOM
 10
0.0
 20
0.0
 30
0.0
  9
$UCSORGLEFT
 10
0.0
 20
0.0
 30
0.0
  9
$UCSORGRIGHT
 10
0.0
 20
0.0
 30
0.0
  9
$UCSORGFRONT
 10
0.0
 20
0.0
 30
0.0
  9
$UCSORGBACK
 10
0.0
 20
0.0
 30
0.0
  9
$PUCSBASE
  2

  9
$PUCSNAME
  2

  9
$PUCSORG
 10
0.0
 20
0.0
 30
0.0
  9
$PUCSXDIR
 10
1.0
 20
0.0
 30
0.0
  9
$PUCSYDIR
 10
0.0
 20
1.0
 30
0.0
  9
$PUCSORTHOREF
  2

  9
$PUCSORTHOVIEW
 70
     0
  9
$PUCSORGTOP
 10
0.0
 20
0.0
 30
0.0
  9
$PUCSORGBOTTOM
 10
0.0
 20
0.0
 30
0.0
  9
$PUCSORGLEFT
 10
0.0
 20
0.0
 30
0.0
  9
$PUCSORGRIGHT
 10
0.0
 20
0.0
 30
0.0
  9
$PUCSORGFRONT
 10
0.0
 20
0.0
 30
0.0
  9
$PUCSORGBACK
 10
0.0
 20
0.0
 30
0.0
  9
$USERI1
 70
     0
  9
$USERI2
 70
     0
  9
$USERI3
 70
     0
  9
$USERI4
 70
     0
  9
$USERI5
 70
     0
  9
$USERR1
 40
0.0
  9
$USERR2
 40
0.0
  9
$USERR3
 40
0.0
  9
$USERR4
 40
0.0
  9
$USERR5
 40
0.0
  9
$WORLDVIEW
 70
     1
  9
$SHADEDGE
 70
     3
  9
$SHADEDIF
 70
    70
  9
$TILEMODE
 70
     1
  9
$MAXACTVP
 70
    16
  9
$PINSBASE
 10
0.0
 20
0.0
 30
0.0
  9
$PLIMCHECK
 70
     0
  9
$PEXTMIN
 10
1.000000000000000E+20
 20
1.000000000000000E+20
 30
1.000000000000000E+20
  9
$PEXTMAX
 10
-1.000000000000000E+20
 20
-1.000000000000000E+20
 30
-1.000000000000000E+20
  9
$PLIMMIN
 10
0.0
 20
0.0
  9
$PLIMMAX
 10
420.0
 20
297.0
  9
$UNITMODE
 70
     0
  9
$VISRETAIN
 70
     0
  9
$PLINEGEN
 70
     0
  9
$PSLTSCALE
 70
     0
  9
$TREEDEPTH
 70
  3020
  9
$CMLSTYLE
  2
STANDARD
  9
$CMLJUST
 70
     0
  9
$CMLSCALE
 40
1.0
  9
$PROXYGRAPHICS
 70
     1
  9
$MEASUREMENT
 70
     1
  9
$CELWEIGHT
370
    -1
  9
$ENDCAPS
280
     0
  9
$JOINSTYLE
280
     0
  9
$LWDISPLAY
290
     0
  9
$INSUNITS
 70
     0
  9
$HYPERLINKBASE
  1

  9
$STYLESHEET
  1
inabass.ctb
  9
$XEDIT
290
     1
  9
$CEPSNTYPE
380
     0
  9
$PSTYLEMODE
290
     1
  9
$FINGERPRINTGUID
  2
{9E0F4C8E-3C35-47E9-B2F5-84C05B8ACD70}
  9
$VERSIONGUID
  2
{E8A0E26C-433B-4F7B-BDA1-9B7911482DF4}
  9
$EXTNAMES
290
     1
  9
$PSVPSCALE
 40
0.0
  9
$OLESTARTUP
290
     0
  0
ENDSEC
  0
SECTION
  2
CLASSES
  0
CLASS
  1
ACDBDICTIONARYWDFLT
  2
AcDbDictionaryWithDefault
  3
ObjectDBX Classes
 90
        0
280
     0
281
     0
  0
CLASS
  1
DICTIONARYVAR
  2
AcDbDictionaryVar
  3
ObjectDBX Classes
 90
        0
280
     0
281
     0
  0
CLASS
  1
ACDBPLACEHOLDER
  2
AcDbPlaceHolder
  3
ObjectDBX Classes
 90
        0
280
     0
281
     0
  0
CLASS
  1
LAYOUT
  2
AcDbLayout
  3
ObjectDBX Classes
 90
        0
280
     0
281
     0
  0
CLASS
  1
MATERIAL
  2
AcDbMaterial
  3
ObjectDBX Classes
 90
     1153
280
     0
281
     0
  0
CLASS
  1
VISUALSTYLE
  2
AcDbVisualStyle
  3
ObjectDBX Classes
 90
     4095
280
     0
281
     0
  0
CLASS
  1
TABLESTYLE
  2
AcDbTableStyle
  3
ObjectDBX Classes
 90
     4095
280
     0
281
     0
  0
CLASS
  1
SCALE
  2
AcDbScale
  3
ObjectDBX Classes
 90
     1153
280
     0
281
     0
  0
CLASS
  1
MLEADERSTYLE
  2
AcDbMLeaderStyle
  3
ACDB_MLEADERSTYLE_CLASS
 90
     4095
280
     0
281
     0
  0
CLASS
  1
ACDBSECTIONVIEWSTYLE
  2
AcDbSectionViewStyle
  3
ObjectDBX Classes
 90
     1025
280
     0
281
     0
  0
CLASS
  1
ACDBDETAILVIEWSTYLE
  2
AcDbDetailViewStyle
  3
ObjectDBX Classes
 90
     1025
280
     0
281
     0
  0
CLASS
  1
SORTENTSTABLE
  2
AcDbSortentsTable
  3
ObjectDBX Classes
 90
        0
280
     0
281
     0
  0
CLASS
  1
CELLSTYLEMAP
  2
AcDbCellStyleMap
  3
ObjectDBX Classes
 90
     1152
280
     0
281
     0
  0
ENDSEC
  0
SECTION
  2
TABLES
  0
TABLE
  2
VPORT
  5
746D
330
0
100
AcDbSymbolTable
 70
     1
  0
VPORT
  5
19FDE
330
746D
100
AcDbSymbolTableRecord
100
AcDbViewportTableRecord
  2
*Active
 70
     0
 10
0.0
 20
0.0
 11
1.0
 21
1.0
 12
8223.914936223705
 22
5704.820477774237
 13
0.0
 23
0.0
 14
10.0
 24
10.0
 15
10.0
 25
10.0
 16
0.0
 26
0.0
 36
1.0
 17
0.0
 27
0.0
 37
0.0
 40
11503.61481145257
 41
1.523364485981308
 42
50.0
 43
0.0
 44
0.0
 50
0.0
 51
0.0
 71
     0
 72
     0
 73
     1
 74
     0
 75
     0
 76
     0
 77
     0
 78
     0
281
     0
 65
     1
110
0.0
120
0.0
130
0.0
111
1.0
121
0.0
131
0.0
112
0.0
122
1.0
132
0.0
 79
     0
146
0.0
1001
ACAD_NAV_VCDISPLAY
1070
     3
  0
ENDTAB
  0
TABLE
  2
LTYPE
  5
746A
330
0
100
AcDbSymbolTable
 70
     3
  0
LTYPE
  5
7477
330
746A
100
AcDbSymbolTableRecord
100
AcDbLinetypeTableRecord
  2
BYBLOCK
 70
     0
  3

 72
    65
 73
     0
 40
0.0
  0
LTYPE
  5
7478
330
746A
100
AcDbSymbolTableRecord
100
AcDbLinetypeTableRecord
  2
BYLAYER
 70
     0
  3

 72
    65
 73
     0
 40
0.0
  0
LTYPE
  5
7479
330
746A
100
AcDbSymbolTableRecord
100
AcDbLinetypeTableRecord
  2
CONTINUOUS
 70
     0
  3
Solid line
 72
    65
 73
     0
 40
0.0
  0
LTYPE
  5
781A
330
746A
100
AcDbSymbolTableRecord
100
AcDbLinetypeTableRecord
  2
HIDDEN
 70
     0
  3
__ __ __ __ __ __ __ __ __ __ __ __ __ __ __ __
 72
    65
 73
     2
 40
0.375
 49
0.25
 74
     0
 49
-0.125
 74
     0
  0
LTYPE
  5
781B
330
746A
100
AcDbSymbolTableRecord
100
AcDbLinetypeTableRecord
  2
PHANTOM
 70
     0
  3
______  __  __  ______  __  __  ______  __  __ 
 72
    65
 73
     6
 40
2.5
 49
1.25
 74
     0
 49
-0.25
 74
     0
 49
0.25
 74
     0
 49
-0.25
 74
     0
 49
0.25
 74
     0
 49
-0.25
 74
     0
  0
ENDTAB
  0
TABLE
  2
LAYER
  5
7467
102
{ACAD_XDICTIONARY
360
13C05
102
}
330
0
100
AcDbSymbolTable
 70
    10
  0
LAYER
  5
7474
102
{ACAD_XDICTIONARY
360
1A036
102
}
330
7467
100
AcDbSymbolTableRecord
100
AcDbLayerTableRecord
  2
0
 70
     0
 62
     7
  6
CONTINUOUS
370
    -3
390
13A7B
  0
LAYER
  5
DEB3
102
{ACAD_XDICTIONARY
360
1A03A
102
}
330
7467
100
AcDbSymbolTableRecord
100
AcDbLayerTableRecord
  2
寸法
 70
     0
 62
     4
  6
CONTINUOUS
370
    -3
390
13A7B
  0
LAYER
  5
DEB4
102
{ACAD_XDICTIONARY
360
1A03C
102
}
330
7467
100
AcDbSymbolTableRecord
100
AcDbLayerTableRecord
  2
部品1
 70
     0
 62
     7
  6
CONTINUOUS
370
    -3
390
13A7B
  0
LAYER
  5
DEB5
102
{ACAD_XDICTIONARY
360
1A03E
102
}
330
7467
100
AcDbSymbolTableRecord
100
AcDbLayerTableRecord
  2
補助
 70
     0
 62
    -1
  6
CONTINUOUS
370
    -3
390
13A7B
  0
LAYER
  5
DEB6
102
{ACAD_XDICTIONARY
360
1A040
102
}
330
7467
100
AcDbSymbolTableRecord
100
AcDbLayerTableRecord
  2
文字
 70
     0
 62
     7
  6
CONTINUOUS
370
    -3
390
13A7B
  0
LAYER
  5
F255
330
7467
100
AcDbSymbolTableRecord
100
AcDbLayerTableRecord
  2
DEFPOINTS
 70
     0
 62
     7
  6
CONTINUOUS
290
     0
370
    -3
390
13A7B
  0
LAYER
  5
10B54
102
{ACAD_XDICTIONARY
360
1A042
102
}
330
7467
100
AcDbSymbolTableRecord
100
AcDbLayerTableRecord
  2
仕様書枠
 70
     0
 62
   230
  6
CONTINUOUS
370
    -3
390
13A7B
  0
LAYER
  5
11729
102
{ACAD_XDICTIONARY
360
1A044
102
}
330
7467
100
AcDbSymbolTableRecord
100
AcDbLayerTableRecord
  2
Ｇ．Ｌ
 70
     0
 62
    30
  6
CONTINUOUS
370
    -3
390
13A7B
  0
LAYER
  5
1173F
102
{ACAD_XDICTIONARY
360
1A046
102
}
330
7467
100
AcDbSymbolTableRecord
100
AcDbLayerTableRecord
  2
細線
 70
     0
 62
     5
  6
CONTINUOUS
370
    -3
390
13A7B
  0
LAYER
  5
11905
102
{ACAD_XDICTIONARY
360
1A04A
102
}
330
7467
100
AcDbSymbolTableRecord
100
AcDbLayerTableRecord
  2
破線
 70
     0
 62
     2
  6
HIDDEN
370
    -3
390
13A7B
  0
ENDTAB
  0
TABLE
  2
STYLE
  5
7468
330
0
100
AcDbSymbolTable
 70
     6
  0
STYLE
  5
7475
330
7468
100
AcDbSymbolTableRecord
100
AcDbTextStyleTableRecord
  2
STANDARD
 70
     0
 40
0.0
 41
1.0
 50
0.0
 71
     0
 42
4.0
  3
txt
  4
C:\AutoCAD LT\bigfont.shx
  0
STYLE
  5
763C
330
7468
100
AcDbSymbolTableRecord
100
AcDbTextStyleTableRecord
  2
MSMINCHO
 70
     0
 40
0.0
 41
1.0
 50
0.0
 71
     0
 42
1.199999999999999
  3
C:\AutoCAD LT\msminch2.TTF
  4

  0
STYLE
  5
F706
330
7468
100
AcDbSymbolTableRecord
100
AcDbTextStyleTableRecord
  2
STYLE1
 70
     0
 40
0.0
 41
1.0
 50
0.0
 71
     0
 42
4.0
  3
isocp.shx
  4
bigfont.shx
  0
STYLE
  5
103BF
330
7468
100
AcDbSymbolTableRecord
100
AcDbTextStyleTableRecord
  2
STYLE2
 70
     0
 40
0.0
 41
1.0
 50
0.0
 71
     0
 42
100.0
  3

  4

1001
ACAD
1000
MS PGothic
1071
    32818
  0
STYLE
  5
10BAA
330
7468
100
AcDbSymbolTableRecord
100
AcDbTextStyleTableRecord
  2
STYLE3
 70
     0
 40
0.0
 41
1.0
 50
0.0
 71
     0
 42
100.0
  3

  4

1001
ACAD
1000
DFPGothic-EB
1071
    32818
  0
STYLE
  5
11906
330
7468
100
AcDbSymbolTableRecord
100
AcDbTextStyleTableRecord
  2
MSGOTHIC
 70
     0
 40
0.0
 41
1.0
 50
0.0
 71
     0
 42
3.5
  3
msgothi2.ttf
  4

  0
ENDTAB
  0
TABLE
  2
VIEW
  5
746B
330
0
100
AcDbSymbolTable
 70
     0
  0
ENDTAB
  0
TABLE
  2
UCS
  5
746C
330
0
100
AcDbSymbolTable
 70
     0
  0
ENDTAB
  0
TABLE
  2
APPID
  5
746E
330
0
100
AcDbSymbolTable
 70
    15
  0
APPID
  5
7476
330
746E
100
AcDbSymbolTableRecord
100
AcDbRegAppTableRecord
  2
ACAD
 70
     0
  0
APPID
  5
DEA9
330
746E
100
AcDbSymbolTableRecord
100
AcDbRegAppTableRecord
  2
CONTENTBLOCKICON
 70
     0
  0
APPID
  5
DEAA
330
746E
100
AcDbSymbolTableRecord
100
AcDbRegAppTableRecord
  2
CONTENTBLOCKDESCRIPTION
 70
     0
  0
APPID
  5
E71D
330
746E
100
AcDbSymbolTableRecord
100
AcDbRegAppTableRecord
  2
CONTENTTABDATA
 70
     0
  0
APPID
  5
E71E
330
746E
100
AcDbSymbolTableRecord
100
AcDbRegAppTableRecord
  2
CONTENTCURRENTTAB
 70
     0
  0
APPID
  5
F3BA
330
746E
100
AcDbSymbolTableRecord
100
AcDbRegAppTableRecord
  2
DRAWINGVARIABLESXDATA
 70
     0
  0
APPID
  5
1A056
330
746E
100
AcDbSymbolTableRecord
100
AcDbRegAppTableRecord
  2
ACAD_NAV_VCDISPLAY
 70
     0
  0
APPID
  5
1A06D
330
746E
100
AcDbSymbolTableRecord
100
AcDbRegAppTableRecord
  2
AcadAnnoMonitorAlertIconDisabled
 70
     0
  0
APPID
  5
1A06F
330
746E
100
AcDbSymbolTableRecord
100
AcDbRegAppTableRecord
  2
ACAD_EXEMPT_FROM_CAD_STANDARDS
 70
     0
  0
APPID
  5
1A185
330
746E
100
AcDbSymbolTableRecord
100
AcDbRegAppTableRecord
  2
ACAD_DSTYLE_DIMJAG
 70
     0
  0
APPID
  5
1A186
330
746E
100
AcDbSymbolTableRecord
100
AcDbRegAppTableRecord
  2
ACAD_DSTYLE_DIMTALN
 70
     0
  0
APPID
  5
1A187
330
746E
100
AcDbSymbolTableRecord
100
AcDbRegAppTableRecord
  2
ACAD_PSEXT
 70
     0
  0
APPID
  5
1A188
330
746E
100
AcDbSymbolTableRecord
100
AcDbRegAppTableRecord
  2
AcDbBlockRepETag
 70
     0
  0
APPID
  5
1D834
330
746E
100
AcDbSymbolTableRecord
100
AcDbRegAppTableRecord
  2
ACAD_DSTYLE_DIMRADIAL_EXTENSION
 70
     0
  0
APPID
  5
1E8F4
330
746E
100
AcDbSymbolTableRecord
100
AcDbRegAppTableRecord
  2
ACAD_MLEADERVER
 70
     0
  0
ENDTAB
  0
TABLE
  2
DIMSTYLE
  5
746F
330
0
100
AcDbSymbolTable
 70
     1
100
AcDbDimStyleTable
 71
     1
340
F71F
  0
DIMSTYLE
105
F71F
102
{ACAD_REACTORS
330
19B77
330
19B79
330
19BD0
330
1A0A3
330
120D9
330
120D8
330
120D7
330
1229F
330
12294
330
1221B
330
121FC
330
121FB
330
120DA
330
120D6
330
171E7
330
1723A
330
171E6
330
1C86B
330
1D3A4
330
1D3CF
330
1D4A5
330
1D519
330
1D3A3
330
171E8
330
1E373
330
1E693
330
1E698
330
1E699
330
1E69A
330
1E6BE
330
1E6BF
330
1E6C0
330
1E6C1
330
1E6C2
330
1E6E0
102
}
330
746F
100
AcDbSymbolTableRecord
100
AcDbDimStyleTableRecord
  2
INABA_S40G
 70
     0
 40
40.0
 41
2.5
 42
0.5
 43
7.0
 44
1.5
 73
     0
 74
     0
 77
     3
 78
     8
140
3.0
141
0.0
143
0.0394
147
1.0
172
     1
173
     1
174
     1
175
     1
178
     7
271
     1
340
F706
341
F770
343
F770
344
F770
  0
ENDTAB
  0
TABLE
  2
BLOCK_RECORD
  5
7466
330
0
100
AcDbSymbolTable
 70
    36
  0
BLOCK_RECORD
  5
747D
102
{ACAD_XDICTIONARY
360
1A066
102
}
330
7466
100
AcDbSymbolTableRecord
100
AcDbBlockTableRecord
  2
*MODEL_SPACE
340
13A80
  0
BLOCK_RECORD
  5
747A
330
7466
100
AcDbSymbolTableRecord
100
AcDbBlockTableRecord
  2
*PAPER_SPACE
340
13A81
  0
BLOCK_RECORD
  5
F770
330
7466
100
AcDbSymbolTableRecord
100
AcDbBlockTableRecord
  2
_DOTSMALL
340
0
102
{BLKREFS
331
1D116
331
1D117
331
1D629
331
1D62A
331
1D658
331
1D659
331
1E008
331
1E383
331
1E384
331
1E47A
331
1E47B
331
1E497
331
1E498
331
1E4A2
331
1E4A3
331
1E4AB
331
1E4AC
331
1E4D8
331
1E4D9
331
1E508
331
1E509
331
1E511
331
1E512
331
1E525
331
1E526
331
1E537
331
1E538
331
1E542
331
1E543
331
1E554
331
1E555
331
1E55D
331
1E55E
331
1E566
331
1E567
331
1E56F
331
1E570
331
1E7F2
331
1E7F3
331
1E7FB
331
1E7FC
331
1E805
331
1E806
331
1E80E
331
1E80F
331
1E817
331
1E818
331
1E822
331
1E823
331
1E82C
331
1E82D
331
1E835
331
1E836
331
1E84C
331
1E84D
331
1E855
331
1E856
331
1E85E
331
1E85F
331
1E867
331
1E868
331
1E870
331
1E871
331
1E5A7
331
1E5A8
331
1E7DD
331
1E7DE
331
1E7E8
331
1E7E9
102
}
  0
BLOCK_RECORD
  5
12352
330
7466
100
AcDbSymbolTableRecord
100
AcDbBlockTableRecord
  2
*D1
340
0
  0
BLOCK_RECORD
  5
1235F
330
7466
100
AcDbSymbolTableRecord
100
AcDbBlockTableRecord
  2
*D2
340
0
  0
BLOCK_RECORD
  5
1236B
330
7466
100
AcDbSymbolTableRecord
100
AcDbBlockTableRecord
  2
*D3
340
0
  0
BLOCK_RECORD
  5
12378
330
7466
100
AcDbSymbolTableRecord
100
AcDbBlockTableRecord
  2
*D4
340
0
  0
BLOCK_RECORD
  5
12384
330
7466
100
AcDbSymbolTableRecord
100
AcDbBlockTableRecord
  2
*D5
340
0
  0
BLOCK_RECORD
  5
123CF
330
7466
100
AcDbSymbolTableRecord
100
AcDbBlockTableRecord
  2
*D6
340
0
  0
BLOCK_RECORD
  5
123DB
330
7466
100
AcDbSymbolTableRecord
100
AcDbBlockTableRecord
  2
*D7
340
0
  0
BLOCK_RECORD
  5
123F3
330
7466
100
AcDbSymbolTableRecord
100
AcDbBlockTableRecord
  2
*D8
340
0
  0
BLOCK_RECORD
  5
1240C
330
7466
100
AcDbSymbolTableRecord
100
AcDbBlockTableRecord
  2
*D9
340
0
  0
BLOCK_RECORD
  5
12418
330
7466
100
AcDbSymbolTableRecord
100
AcDbBlockTableRecord
  2
*D10
340
0
  0
BLOCK_RECORD
  5
171F7
330
7466
100
AcDbSymbolTableRecord
100
AcDbBlockTableRecord
  2
*D11
340
0
  0
BLOCK_RECORD
  5
17203
330
7466
100
AcDbSymbolTableRecord
100
AcDbBlockTableRecord
  2
*D12
340
0
  0
BLOCK_RECORD
  5
17211
330
7466
100
AcDbSymbolTableRecord
100
AcDbBlockTableRecord
  2
*D13
340
0
  0
BLOCK_RECORD
  5
17245
330
7466
100
AcDbSymbolTableRecord
100
AcDbBlockTableRecord
  2
*D14
340
0
  0
BLOCK_RECORD
  5
19BDD
330
7466
100
AcDbSymbolTableRecord
100
AcDbBlockTableRecord
  2
*D15
340
0
  0
BLOCK_RECORD
  5
19BE9
330
7466
100
AcDbSymbolTableRecord
100
AcDbBlockTableRecord
  2
*D16
340
0
  0
BLOCK_RECORD
  5
19BF7
330
7466
100
AcDbSymbolTableRecord
100
AcDbBlockTableRecord
  2
*D17
340
0
  0
BLOCK_RECORD
  5
1A0A4
330
7466
100
AcDbSymbolTableRecord
100
AcDbBlockTableRecord
  2
*D18
340
0
  0
BLOCK_RECORD
  5
1C86C
330
7466
100
AcDbSymbolTableRecord
100
AcDbBlockTableRecord
  2
*D19
340
0
  0
BLOCK_RECORD
  5
1D3A5
330
7466
100
AcDbSymbolTableRecord
100
AcDbBlockTableRecord
  2
*D20
340
0
  0
BLOCK_RECORD
  5
1D3B1
330
7466
100
AcDbSymbolTableRecord
100
AcDbBlockTableRecord
  2
*D21
340
0
  0
BLOCK_RECORD
  5
1D3D0
330
7466
100
AcDbSymbolTableRecord
100
AcDbBlockTableRecord
  2
*D22
340
0
  0
BLOCK_RECORD
  5
1D4A6
330
7466
100
AcDbSymbolTableRecord
100
AcDbBlockTableRecord
  2
*D23
340
0
  0
BLOCK_RECORD
  5
1D51A
330
7466
100
AcDbSymbolTableRecord
100
AcDbBlockTableRecord
  2
*D24
340
0
  0
BLOCK_RECORD
  5
1E374
330
7466
100
AcDbSymbolTableRecord
100
AcDbBlockTableRecord
  2
*D25
340
0
  0
BLOCK_RECORD
  5
1E6F4
330
7466
100
AcDbSymbolTableRecord
100
AcDbBlockTableRecord
  2
*D26
340
0
  0
BLOCK_RECORD
  5
1E700
330
7466
100
AcDbSymbolTableRecord
100
AcDbBlockTableRecord
  2
*D27
340
0
  0
BLOCK_RECORD
  5
1E70E
330
7466
100
AcDbSymbolTableRecord
100
AcDbBlockTableRecord
  2
*D28
340
0
  0
BLOCK_RECORD
  5
1E71B
330
7466
100
AcDbSymbolTableRecord
100
AcDbBlockTableRecord
  2
*D29
340
0
  0
BLOCK_RECORD
  5
1E727
330
7466
100
AcDbSymbolTableRecord
100
AcDbBlockTableRecord
  2
*D30
340
0
  0
BLOCK_RECORD
  5
1E734
330
7466
100
AcDbSymbolTableRecord
100
AcDbBlockTableRecord
  2
*D31
340
0
  0
BLOCK_RECORD
  5
1E740
330
7466
100
AcDbSymbolTableRecord
100
AcDbBlockTableRecord
  2
*D32
340
0
  0
BLOCK_RECORD
  5
1E74C
330
7466
100
AcDbSymbolTableRecord
100
AcDbBlockTableRecord
  2
*D33
340
0
  0
BLOCK_RECORD
  5
1E75A
330
7466
100
AcDbSymbolTableRecord
100
AcDbBlockTableRecord
  2
*D34
340
0
  0
BLOCK_RECORD
  5
1E767
330
7466
100
AcDbSymbolTableRecord
100
AcDbBlockTableRecord
  2
*D35
340
0
  0
ENDTAB
  0
ENDSEC
  0
SECTION
  2
BLOCKS
  0
BLOCK
  5
7489
330
747D
100
AcDbEntity
  8
0
100
AcDbBlockBegin
  2
*MODEL_SPACE
 70
     0
 10
0.0
 20
0.0
 30
0.0
  3
*MODEL_SPACE
  1

  0
ENDBLK
  5
748A
330
747D
100
AcDbEntity
  8
0
100
AcDbBlockEnd
  0
BLOCK
  5
7487
330
747A
100
AcDbEntity
 67
     1
  8
0
100
AcDbBlockBegin
  2
*PAPER_SPACE
 70
     0
 10
0.0
 20
0.0
 30
0.0
  3
*PAPER_SPACE
  1

  0
ENDBLK
  5
7488
330
747A
100
AcDbEntity
 67
     1
  8
0
100
AcDbBlockEnd
  0
BLOCK
  5
F771
330
F770
100
AcDbEntity
  8
0
 48
50.0
100
AcDbBlockBegin
  2
_DOTSMALL
 70
     0
 10
0.0
 20
0.0
 30
0.0
  3
_DOTSMALL
  1

  0
LWPOLYLINE
  5
F772
330
F770
100
AcDbEntity
  8
0
  6
ByBlock
 62
     0
 48
50.0
100
AcDbPolyline
 90
        2
 70
     1
 43
0.5
 10
-0.0625
 20
0.0
 42
1.0
 10
0.0625
 20
0.0
 42
1.0
  0
ENDBLK
  5
F776
330
F770
100
AcDbEntity
  8
0
 48
50.0
100
AcDbBlockEnd
  0
BLOCK
  5
129B7
330
12352
100
AcDbEntity
  8
0
 48
50.0
100
AcDbBlockBegin
  2
*D1
 70
     1
 10
0.0
 20
0.0
 30
0.0
  3
*D1
  1

  0
LINE
  5
1E503
330
12352
100
AcDbEntity
  8
寸法
 62
     0
 48
50.0
370
    -2
100
AcDbLine
 10
7422.152607796139
 20
9355.944826768581
 30
0.0
 11
7422.152607796139
 21
9876.831163394756
 31
0.0
  0
LINE
  5
1E504
330
12352
100
AcDbEntity
  8
寸法
 62
     0
 48
50.0
370
    -2
100
AcDbLine
 10
7477.152607796139
 20
9355.944826768576
 30
0.0
 11
7477.152607796139
 21
9876.831163394756
 31
0.0
  0
LINE
  5
1E505
330
12352
100
AcDbEntity
  8
寸法
 62
     0
 48
50.0
370
    -2
100
AcDbLine
 10
7422.152607796139
 20
9816.831163394757
 30
0.0
 11
7322.152607796138
 21
9816.831163394757
 31
0.0
  0
LINE
  5
1E506
330
12352
100
AcDbEntity
  8
寸法
 62
     0
 48
50.0
370
    -2
100
AcDbLine
 10
7477.152607796139
 20
9816.831163394757
 30
0.0
 11
7894.123170544616
 21
9816.831163394757
 31
0.0
  0
LINE
  5
1E507
330
12352
100
AcDbEntity
  8
寸法
 62
     0
 48
50.0
370
    -2
100
AcDbLine
 10
7422.152607796139
 20
9816.831163394757
 30
0.0
 11
7477.152607796139
 21
9816.831163394757
 31
0.0
  0
INSERT
  5
1E508
330
12352
100
AcDbEntity
  8
寸法
 62
     0
 48
50.0
370
    -2
100
AcDbBlockReference
  2
_DOTSMALL
 10
7422.152607796139
 20
9816.831163394757
 30
0.0
 41
100.0
 42
100.0
 43
100.0
  0
INSERT
  5
1E509
330
12352
100
AcDbEntity
  8
寸法
 62
     0
 48
50.0
370
    -2
100
AcDbBlockReference
  2
_DOTSMALL
 10
7477.152607796139
 20
9816.831163394757
 30
0.0
 41
100.0
 42
100.0
 43
100.0
 50
180.0
  0
MTEXT
  5
1E50A
330
12352
100
AcDbEntity
  8
寸法
 62
     7
 48
50.0
100
AcDbMText
 10
7785.637889170377
 20
9916.831163394757
 30
0.0
 40
120.0
 41
0.0
 71
     5
 72
     1
  1
\A1;55
  7
STYLE1
 73
     1
 44
1.0
1001
ACAD
1000
MTEXTBEGIN
1070
    73
1070
     1
1070
    44
1040
1.0
1070
    74
1070
     0
1000
MTEXTEND
  0
POINT
  5
1E50B
330
12352
100
AcDbEntity
  8
DEFPOINTS
 62
     0
 48
50.0
100
AcDbPoint
 10
7422.152607796139
 20
9335.94482676858
 30
0.0
  0
POINT
  5
1E50C
330
12352
100
AcDbEntity
  8
DEFPOINTS
 62
     0
 48
50.0
100
AcDbPoint
 10
7477.152607796139
 20
9335.944826768576
 30
0.0
  0
POINT
  5
1E50D
330
12352
100
AcDbEntity
  8
DEFPOINTS
 62
     0
 48
50.0
100
AcDbPoint
 10
7477.152607796139
 20
9816.831163394757
 30
0.0
  0
ENDBLK
  5
129C3
330
12352
100
AcDbEntity
  8
0
 48
50.0
100
AcDbBlockEnd
  0
BLOCK
  5
133B7
330
1235F
100
AcDbEntity
  8
0
 48
50.0
100
AcDbBlockBegin
  2
*D2
 70
     1
 10
0.0
 20
0.0
 30
0.0
  3
*D2
  1

  0
LINE
  5
1E50E
330
1235F
100
AcDbEntity
  8
寸法
 62
     0
 48
50.0
370
    -2
100
AcDbLine
 10
7497.152607796138
 20
9335.944826768576
 30
0.0
 11
8607.899724840491
 21
9335.944826768576
 31
0.0
  0
LINE
  5
1E50F
330
1235F
100
AcDbEntity
  8
寸法
 62
     0
 48
50.0
370
    -2
100
AcDbLine
 10
7497.152607796138
 20
7545.944826768579
 30
0.0
 11
8607.899724840491
 21
7545.944826768579
 31
0.0
  0
LINE
  5
1E510
330
1235F
100
AcDbEntity
  8
寸法
 62
     0
 48
50.0
370
    -2
100
AcDbLine
 10
8547.899724840492
 20
9335.944826768576
 30
0.0
 11
8547.899724840492
 21
7545.944826768579
 31
0.0
  0
INSERT
  5
1E511
330
1235F
100
AcDbEntity
  8
寸法
 62
     0
 48
50.0
370
    -2
100
AcDbBlockReference
  2
_DOTSMALL
 10
8547.899724840492
 20
9335.944826768576
 30
0.0
 41
100.0
 42
100.0
 43
100.0
 50
90.0
  0
INSERT
  5
1E512
330
1235F
100
AcDbEntity
  8
寸法
 62
     0
 48
50.0
370
    -2
100
AcDbBlockReference
  2
_DOTSMALL
 10
8547.899724840492
 20
7545.944826768579
 30
0.0
 41
100.0
 42
100.0
 43
100.0
 50
270.0
  0
MTEXT
  5
1E513
330
1235F
100
AcDbEntity
  8
寸法
 62
     7
 48
50.0
100
AcDbMText
 10
8447.899724840491
 20
8440.94482676858
 30
0.0
 40
120.0
 41
0.0
 71
     5
 72
     1
  1
\A1;1790
  7
STYLE1
 11
0.0000000000000001
 21
1.0
 31
0.0
 73
     1
 44
1.0
1001
ACAD
1000
MTEXTBEGIN
1070
    73
1070
     1
1070
    44
1040
1.0
1070
    74
1070
     0
1000
MTEXTEND
  0
POINT
  5
1E514
330
1235F
100
AcDbEntity
  8
DEFPOINTS
 62
     0
 48
50.0
100
AcDbPoint
 10
7477.152607796139
 20
9335.944826768576
 30
0.0
  0
POINT
  5
1E515
330
1235F
100
AcDbEntity
  8
DEFPOINTS
 62
     0
 48
50.0
100
AcDbPoint
 10
7477.152607796139
 20
7545.944826768579
 30
0.0
  0
POINT
  5
1E516
330
1235F
100
AcDbEntity
  8
DEFPOINTS
 62
     0
 48
50.0
100
AcDbPoint
 10
8547.899724840492
 20
7545.944826768579
 30
0.0
  0
ENDBLK
  5
133C1
330
1235F
100
AcDbEntity
  8
0
 48
50.0
100
AcDbBlockEnd
  0
BLOCK
  5
1299D
330
1236B
100
AcDbEntity
  8
0
 48
50.0
100
AcDbBlockBegin
  2
*D3
 70
     1
 10
0.0
 20
0.0
 30
0.0
  3
*D3
  1

  0
LINE
  5
1D111
330
1236B
100
AcDbEntity
  8
寸法
 62
     0
 48
50.0
370
    -2
100
AcDbLine
 10
7497.152607796138
 20
7600.944826768575
 30
0.0
 11
8307.899724840495
 21
7600.944826768575
 31
0.0
  0
LINE
  5
1D112
330
1236B
100
AcDbEntity
  8
寸法
 62
     0
 48
50.0
370
    -2
100
AcDbLine
 10
7497.152607796138
 20
7545.944826768579
 30
0.0
 11
8307.899724840495
 21
7545.944826768579
 31
0.0
  0
LINE
  5
1D113
330
1236B
100
AcDbEntity
  8
寸法
 62
     0
 48
50.0
370
    -2
100
AcDbLine
 10
8247.899724840497
 20
7600.944826768575
 30
0.0
 11
8247.899724840497
 21
7700.944826768576
 31
0.0
  0
LINE
  5
1D114
330
1236B
100
AcDbEntity
  8
寸法
 62
     0
 48
50.0
370
    -2
100
AcDbLine
 10
8247.899724840497
 20
7545.944826768579
 30
0.0
 11
8247.899724840497
 21
7128.974264020101
 31
0.0
  0
LINE
  5
1D115
330
1236B
100
AcDbEntity
  8
寸法
 62
     0
 48
50.0
370
    -2
100
AcDbLine
 10
8247.899724840497
 20
7600.944826768575
 30
0.0
 11
8247.899724840497
 21
7545.944826768579
 31
0.0
  0
INSERT
  5
1D116
330
1236B
100
AcDbEntity
  8
寸法
 62
     0
 48
50.0
370
    -2
100
AcDbBlockReference
  2
_DOTSMALL
 10
8247.899724840497
 20
7600.944826768575
 30
0.0
 41
100.0
 42
100.0
 43
100.0
 50
270.0
  0
INSERT
  5
1D117
330
1236B
100
AcDbEntity
  8
寸法
 62
     0
 48
50.0
370
    -2
100
AcDbBlockReference
  2
_DOTSMALL
 10
8247.899724840497
 20
7545.944826768579
 30
0.0
 41
100.0
 42
100.0
 43
100.0
 50
90.0
  0
MTEXT
  5
1D118
330
1236B
100
AcDbEntity
  8
寸法
 62
     7
 48
50.0
100
AcDbMText
 10
8147.899724840494
 20
7237.459545394341
 30
0.0
 40
120.0
 41
0.0
 71
     5
 72
     1
  1
\A1;55
  7
STYLE1
 11
0.0000000000000001
 21
1.0
 31
0.0
 73
     1
 44
1.0
1001
ACAD
1000
MTEXTBEGIN
1070
    73
1070
     1
1070
    44
1040
1.0
1070
    74
1070
     0
1000
MTEXTEND
  0
POINT
  5
1D119
330
1236B
100
AcDbEntity
  8
DEFPOINTS
 62
     0
 48
50.0
100
AcDbPoint
 10
7477.152607796139
 20
7600.944826768575
 30
0.0
  0
POINT
  5
1D11A
330
1236B
100
AcDbEntity
  8
DEFPOINTS
 62
     0
 48
50.0
100
AcDbPoint
 10
7477.152607796139
 20
7545.944826768579
 30
0.0
  0
POINT
  5
1D11B
330
1236B
100
AcDbEntity
  8
DEFPOINTS
 62
     0
 48
50.0
100
AcDbPoint
 10
8247.899724840497
 20
7545.944826768579
 30
0.0
  0
ENDBLK
  5
129A9
330
1236B
100
AcDbEntity
  8
0
 48
50.0
100
AcDbBlockEnd
  0
BLOCK
  5
133D8
330
12378
100
AcDbEntity
  8
0
 48
50.0
100
AcDbBlockBegin
  2
*D4
 70
     1
 10
0.0
 20
0.0
 30
0.0
  3
*D4
  1

  0
LINE
  5
1E5A4
330
12378
100
AcDbEntity
  8
寸法
 62
     0
 48
50.0
370
    -2
100
AcDbLine
 10
7497.152607796138
 20
9280.944826768582
 30
0.0
 11
8307.899724840494
 21
9280.944826768582
 31
0.0
  0
LINE
  5
1E5A5
330
12378
100
AcDbEntity
  8
寸法
 62
     0
 48
50.0
370
    -2
100
AcDbLine
 10
7497.152607796138
 20
7600.944826768575
 30
0.0
 11
8307.899724840494
 21
7600.944826768575
 31
0.0
  0
LINE
  5
1E5A6
330
12378
100
AcDbEntity
  8
寸法
 62
     0
 48
50.0
370
    -2
100
AcDbLine
 10
8247.899724840493
 20
9280.944826768582
 30
0.0
 11
8247.899724840493
 21
7600.944826768575
 31
0.0
  0
INSERT
  5
1E5A7
330
12378
100
AcDbEntity
  8
寸法
 62
     0
 48
50.0
370
    -2
100
AcDbBlockReference
  2
_DOTSMALL
 10
8247.899724840493
 20
9280.944826768582
 30
0.0
 41
100.0
 42
100.0
 43
100.0
 50
90.0
  0
INSERT
  5
1E5A8
330
12378
100
AcDbEntity
  8
寸法
 62
     0
 48
50.0
370
    -2
100
AcDbBlockReference
  2
_DOTSMALL
 10
8247.899724840493
 20
7600.944826768575
 30
0.0
 41
100.0
 42
100.0
 43
100.0
 50
270.0
  0
MTEXT
  5
1E5A9
330
12378
100
AcDbEntity
  8
寸法
 62
     7
 48
50.0
100
AcDbMText
 10
8147.887913816871
 20
8440.94482676858
 30
0.0
 40
120.0
 41
0.0
 71
     5
 72
     1
  1
\A1;4X420=1680
  7
STYLE1
 11
0.0000000000000001
 21
1.0
 31
0.0
 73
     1
 44
1.0
1001
ACAD
1000
MTEXTBEGIN
1070
    73
1070
     1
1070
    44
1040
1.0
1070
    74
1070
     0
1000
MTEXTEND
  0
POINT
  5
1E5AA
330
12378
100
AcDbEntity
  8
DEFPOINTS
 62
     0
 48
50.0
100
AcDbPoint
 10
7477.152607796139
 20
9280.944826768582
 30
0.0
  0
POINT
  5
1E5AB
330
12378
100
AcDbEntity
  8
DEFPOINTS
 62
     0
 48
50.0
100
AcDbPoint
 10
7477.152607796139
 20
7600.944826768575
 30
0.0
  0
POINT
  5
1E5AC
330
12378
100
AcDbEntity
  8
DEFPOINTS
 62
     0
 48
50.0
100
AcDbPoint
 10
8247.899724840493
 20
7600.944826768575
 30
0.0
  0
ENDBLK
  5
133E2
330
12378
100
AcDbEntity
  8
0
 48
50.0
100
AcDbBlockEnd
  0
BLOCK
  5
129AA
330
12384
100
AcDbEntity
  8
0
 48
50.0
100
AcDbBlockBegin
  2
*D5
 70
     1
 10
0.0
 20
0.0
 30
0.0
  3
*D5
  1

  0
LINE
  5
1E520
330
12384
100
AcDbEntity
  8
寸法
 62
     0
 48
50.0
370
    -2
100
AcDbLine
 10
7497.152607796138
 20
9335.944826768576
 30
0.0
 11
8307.899724840497
 21
9335.944826768576
 31
0.0
  0
LINE
  5
1E521
330
12384
100
AcDbEntity
  8
寸法
 62
     0
 48
50.0
370
    -2
100
AcDbLine
 10
7497.152607796138
 20
9280.944826768582
 30
0.0
 11
8307.899724840497
 21
9280.944826768582
 31
0.0
  0
LINE
  5
1E522
330
12384
100
AcDbEntity
  8
寸法
 62
     0
 48
50.0
370
    -2
100
AcDbLine
 10
8247.899724840499
 20
9280.944826768582
 30
0.0
 11
8247.899724840499
 21
9180.944826768582
 31
0.0
  0
LINE
  5
1E523
330
12384
100
AcDbEntity
  8
寸法
 62
     0
 48
50.0
370
    -2
100
AcDbLine
 10
8247.899724840499
 20
9335.944826768576
 30
0.0
 11
8247.899724840499
 21
9752.915389517054
 31
0.0
  0
LINE
  5
1E524
330
12384
100
AcDbEntity
  8
寸法
 62
     0
 48
50.0
370
    -2
100
AcDbLine
 10
8247.899724840499
 20
9280.944826768582
 30
0.0
 11
8247.899724840499
 21
9335.944826768576
 31
0.0
  0
INSERT
  5
1E525
330
12384
100
AcDbEntity
  8
寸法
 62
     0
 48
50.0
370
    -2
100
AcDbBlockReference
  2
_DOTSMALL
 10
8247.899724840499
 20
9280.944826768582
 30
0.0
 41
100.0
 42
100.0
 43
100.0
 50
90.0
  0
INSERT
  5
1E526
330
12384
100
AcDbEntity
  8
寸法
 62
     0
 48
50.0
370
    -2
100
AcDbBlockReference
  2
_DOTSMALL
 10
8247.899724840499
 20
9335.944826768576
 30
0.0
 41
100.0
 42
100.0
 43
100.0
 50
270.0
  0
MTEXT
  5
1E527
330
12384
100
AcDbEntity
  8
寸法
 62
     7
 48
50.0
100
AcDbMText
 10
8147.899724840497
 20
9644.430108142817
 30
0.0
 40
120.0
 41
0.0
 71
     5
 72
     1
  1
\A1;55
  7
STYLE1
 11
0.0000000000000001
 21
1.0
 31
0.0
 73
     1
 44
1.0
1001
ACAD
1000
MTEXTBEGIN
1070
    73
1070
     1
1070
    44
1040
1.0
1070
    74
1070
     0
1000
MTEXTEND
  0
POINT
  5
1E528
330
12384
100
AcDbEntity
  8
DEFPOINTS
 62
     0
 48
50.0
100
AcDbPoint
 10
7477.152607796139
 20
9335.944826768576
 30
0.0
  0
POINT
  5
1E529
330
12384
100
AcDbEntity
  8
DEFPOINTS
 62
     0
 48
50.0
100
AcDbPoint
 10
7477.152607796139
 20
9280.944826768582
 30
0.0
  0
POINT
  5
1E52A
330
12384
100
AcDbEntity
  8
DEFPOINTS
 62
     0
 48
50.0
100
AcDbPoint
 10
8247.899724840499
 20
9280.944826768582
 30
0.0
  0
ENDBLK
  5
129B6
330
12384
100
AcDbEntity
  8
0
 48
50.0
100
AcDbBlockEnd
  0
BLOCK
  5
13272
330
123CF
100
AcDbEntity
  8
0
 48
50.0
100
AcDbBlockBegin
  2
*D6
 70
     1
 10
0.0
 20
0.0
 30
0.0
  3
*D6
  1

  0
LINE
  5
1E849
330
123CF
100
AcDbEntity
  8
寸法
 62
     0
 48
50.0
370
    -2
100
AcDbLine
 10
4157.152607796138
 20
9355.944826768576
 30
0.0
 11
4157.152607796138
 21
10182.95068864641
 31
0.0
  0
LINE
  5
1E84A
330
123CF
100
AcDbEntity
  8
寸法
 62
     0
 48
50.0
370
    -2
100
AcDbLine
 10
7477.152607796139
 20
9355.944826768576
 30
0.0
 11
7477.152607796139
 21
10182.95068864641
 31
0.0
  0
LINE
  5
1E84B
330
123CF
100
AcDbEntity
  8
寸法
 62
     0
 48
50.0
370
    -2
100
AcDbLine
 10
4157.152607796138
 20
10122.95068864641
 30
0.0
 11
7477.152607796139
 21
10122.95068864641
 31
0.0
  0
INSERT
  5
1E84C
330
123CF
100
AcDbEntity
  8
寸法
 62
     0
 48
50.0
370
    -2
100
AcDbBlockReference
  2
_DOTSMALL
 10
4157.152607796138
 20
10122.95068864641
 30
0.0
 41
100.0
 42
100.0
 43
100.0
 50
180.0
  0
INSERT
  5
1E84D
330
123CF
100
AcDbEntity
  8
寸法
 62
     0
 48
50.0
370
    -2
100
AcDbBlockReference
  2
_DOTSMALL
 10
7477.152607796139
 20
10122.95068864641
 30
0.0
 41
100.0
 42
100.0
 43
100.0
  0
MTEXT
  5
1E84E
330
123CF
100
AcDbEntity
  8
寸法
 62
     7
 48
50.0
100
AcDbMText
 10
5817.152607796138
 20
10222.96249967003
 30
0.0
 40
120.0
 41
0.0
 71
     5
 72
     1
  1
\A1;3320
  7
STYLE1
 73
     1
 44
1.0
1001
ACAD
1000
MTEXTBEGIN
1070
    73
1070
     1
1070
    44
1040
1.0
1070
    74
1070
     0
1000
MTEXTEND
  0
POINT
  5
1E84F
330
123CF
100
AcDbEntity
  8
DEFPOINTS
 62
     0
 48
50.0
100
AcDbPoint
 10
4157.152607796138
 20
9335.944826768576
 30
0.0
  0
POINT
  5
1E850
330
123CF
100
AcDbEntity
  8
DEFPOINTS
 62
     0
 48
50.0
100
AcDbPoint
 10
7477.152607796139
 20
9335.944826768576
 30
0.0
  0
POINT
  5
1E851
330
123CF
100
AcDbEntity
  8
DEFPOINTS
 62
     0
 48
50.0
100
AcDbPoint
 10
7477.152607796139
 20
10122.95068864641
 30
0.0
  0
ENDBLK
  5
1327C
330
123CF
100
AcDbEntity
  8
0
 48
50.0
100
AcDbBlockEnd
  0
BLOCK
  5
133CD
330
123DB
100
AcDbEntity
  8
0
 48
50.0
100
AcDbBlockBegin
  2
*D7
 70
     1
 10
0.0
 20
0.0
 30
0.0
  3
*D7
  1

  0
LINE
  5
1E534
330
123DB
100
AcDbEntity
  8
寸法
 62
     0
 48
50.0
370
    -2
100
AcDbLine
 10
4212.152607796139
 20
9355.944826768576
 30
0.0
 11
4212.152607796139
 21
9876.831163394756
 31
0.0
  0
LINE
  5
1E535
330
123DB
100
AcDbEntity
  8
寸法
 62
     0
 48
50.0
370
    -2
100
AcDbLine
 10
5892.152607796139
 20
9355.944826768581
 30
0.0
 11
5892.152607796139
 21
9876.831163394756
 31
0.0
  0
LINE
  5
1E536
330
123DB
100
AcDbEntity
  8
寸法
 62
     0
 48
50.0
370
    -2
100
AcDbLine
 10
4212.152607796139
 20
9816.831163394757
 30
0.0
 11
5892.152607796139
 21
9816.831163394757
 31
0.0
  0
INSERT
  5
1E537
330
123DB
100
AcDbEntity
  8
寸法
 62
     0
 48
50.0
370
    -2
100
AcDbBlockReference
  2
_DOTSMALL
 10
4212.152607796139
 20
9816.831163394757
 30
0.0
 41
100.0
 42
100.0
 43
100.0
 50
180.0
  0
INSERT
  5
1E538
330
123DB
100
AcDbEntity
  8
寸法
 62
     0
 48
50.0
370
    -2
100
AcDbBlockReference
  2
_DOTSMALL
 10
5892.152607796139
 20
9816.831163394757
 30
0.0
 41
100.0
 42
100.0
 43
100.0
  0
MTEXT
  5
1E539
330
123DB
100
AcDbEntity
  8
寸法
 62
     7
 48
50.0
100
AcDbMText
 10
5052.152607796139
 20
9916.842974418379
 30
0.0
 40
120.0
 41
0.0
 71
     5
 72
     1
  1
\A1;4X420=1680
  7
STYLE1
 73
     1
 44
1.0
1001
ACAD
1000
MTEXTBEGIN
1070
    73
1070
     1
1070
    44
1040
1.0
1070
    74
1070
     0
1000
MTEXTEND
  0
POINT
  5
1E53A
330
123DB
100
AcDbEntity
  8
DEFPOINTS
 62
     0
 48
50.0
100
AcDbPoint
 10
4212.152607796139
 20
9335.944826768576
 30
0.0
  0
POINT
  5
1E53B
330
123DB
100
AcDbEntity
  8
DEFPOINTS
 62
     0
 48
50.0
100
AcDbPoint
 10
5892.152607796139
 20
9335.94482676858
 30
0.0
  0
POINT
  5
1E53C
330
123DB
100
AcDbEntity
  8
DEFPOINTS
 62
     0
 48
50.0
100
AcDbPoint
 10
5892.152607796139
 20
9816.831163394757
 30
0.0
  0
ENDBLK
  5
133D7
330
123DB
100
AcDbEntity
  8
0
 48
50.0
100
AcDbBlockEnd
  0
BLOCK
  5
1296F
330
123F3
100
AcDbEntity
  8
0
 48
50.0
100
AcDbBlockBegin
  2
*D8
 70
     1
 10
0.0
 20
0.0
 30
0.0
  3
*D8
  1

  0
LINE
  5
1E53D
330
123F3
100
AcDbEntity
  8
寸法
 62
     0
 48
50.0
370
    -2
100
AcDbLine
 10
4157.152607796138
 20
9355.944826768576
 30
0.0
 11
4157.152607796138
 21
9876.831163394756
 31
0.0
  0
LINE
  5
1E53E
330
123F3
100
AcDbEntity
  8
寸法
 62
     0
 48
50.0
370
    -2
100
AcDbLine
 10
4212.152607796139
 20
9355.944826768581
 30
0.0
 11
4212.152607796139
 21
9876.831163394756
 31
0.0
  0
LINE
  5
1E53F
330
123F3
100
AcDbEntity
  8
寸法
 62
     0
 48
50.0
370
    -2
100
AcDbLine
 10
4212.152607796139
 20
9816.831163394757
 30
0.0
 11
4312.152607796138
 21
9816.831163394757
 31
0.0
  0
LINE
  5
1E540
330
123F3
100
AcDbEntity
  8
寸法
 62
     0
 48
50.0
370
    -2
100
AcDbLine
 10
4157.152607796138
 20
9816.831163394757
 30
0.0
 11
3740.182045047662
 21
9816.831163394757
 31
0.0
  0
LINE
  5
1E541
330
123F3
100
AcDbEntity
  8
寸法
 62
     0
 48
50.0
370
    -2
100
AcDbLine
 10
4212.152607796139
 20
9816.831163394757
 30
0.0
 11
4157.152607796138
 21
9816.831163394757
 31
0.0
  0
INSERT
  5
1E542
330
123F3
100
AcDbEntity
  8
寸法
 62
     0
 48
50.0
370
    -2
100
AcDbBlockReference
  2
_DOTSMALL
 10
4212.152607796139
 20
9816.831163394757
 30
0.0
 41
100.0
 42
100.0
 43
100.0
 50
180.0
  0
INSERT
  5
1E543
330
123F3
100
AcDbEntity
  8
寸法
 62
     0
 48
50.0
370
    -2
100
AcDbBlockReference
  2
_DOTSMALL
 10
4157.152607796138
 20
9816.831163394757
 30
0.0
 41
100.0
 42
100.0
 43
100.0
  0
MTEXT
  5
1E544
330
123F3
100
AcDbEntity
  8
寸法
 62
     7
 48
50.0
100
AcDbMText
 10
3848.6673264219
 20
9916.831163394757
 30
0.0
 40
120.0
 41
0.0
 71
     5
 72
     1
  1
\A1;55
  7
STYLE1
 73
     1
 44
1.0
1001
ACAD
1000
MTEXTBEGIN
1070
    73
1070
     1
1070
    44
1040
1.0
1070
    74
1070
     0
1000
MTEXTEND
  0
POINT
  5
1E545
330
123F3
100
AcDbEntity
  8
DEFPOINTS
 62
     0
 48
50.0
100
AcDbPoint
 10
4157.152607796138
 20
9335.944826768576
 30
0.0
  0
POINT
  5
1E546
330
123F3
100
AcDbEntity
  8
DEFPOINTS
 62
     0
 48
50.0
100
AcDbPoint
 10
4212.152607796139
 20
9335.94482676858
 30
0.0
  0
POINT
  5
1E547
330
123F3
100
AcDbEntity
  8
DEFPOINTS
 62
     0
 48
50.0
100
AcDbPoint
 10
4212.152607796139
 20
9816.831163394757
 30
0.0
  0
ENDBLK
  5
1297B
330
123F3
100
AcDbEntity
  8
0
 48
50.0
100
AcDbBlockEnd
  0
BLOCK
  5
133C2
330
1240C
100
AcDbEntity
  8
0
 48
50.0
100
AcDbBlockBegin
  2
*D9
 70
     1
 10
0.0
 20
0.0
 30
0.0
  3
*D9
  1

  0
LINE
  5
1E852
330
1240C
100
AcDbEntity
  8
寸法
 62
     0
 48
50.0
370
    -2
100
AcDbLine
 10
6002.152607796139
 20
9355.944826768581
 30
0.0
 11
6002.152607796139
 21
9876.831163394756
 31
0.0
  0
LINE
  5
1E853
330
1240C
100
AcDbEntity
  8
寸法
 62
     0
 48
50.0
370
    -2
100
AcDbLine
 10
7422.152607796139
 20
9355.944826768581
 30
0.0
 11
7422.152607796139
 21
9876.831163394756
 31
0.0
  0
LINE
  5
1E854
330
1240C
100
AcDbEntity
  8
寸法
 62
     0
 48
50.0
370
    -2
100
AcDbLine
 10
6002.152607796139
 20
9816.831163394757
 30
0.0
 11
7422.152607796139
 21
9816.831163394757
 31
0.0
  0
INSERT
  5
1E855
330
1240C
100
AcDbEntity
  8
寸法
 62
     0
 48
50.0
370
    -2
100
AcDbBlockReference
  2
_DOTSMALL
 10
6002.152607796139
 20
9816.831163394757
 30
0.0
 41
100.0
 42
100.0
 43
100.0
 50
180.0
  0
INSERT
  5
1E856
330
1240C
100
AcDbEntity
  8
寸法
 62
     0
 48
50.0
370
    -2
100
AcDbBlockReference
  2
_DOTSMALL
 10
7422.152607796139
 20
9816.831163394757
 30
0.0
 41
100.0
 42
100.0
 43
100.0
  0
MTEXT
  5
1E857
330
1240C
100
AcDbEntity
  8
寸法
 62
     7
 48
50.0
100
AcDbMText
 10
6712.152607796139
 20
9916.842974418379
 30
0.0
 40
120.0
 41
0.0
 71
     5
 72
     1
  1
\A1;腰パネル 1420
  7
STYLE1
 73
     1
 44
1.0
1001
ACAD
1000
MTEXTBEGIN
1070
    73
1070
     1
1070
    44
1040
1.0
1070
    74
1070
     0
1000
MTEXTEND
  0
POINT
  5
1E858
330
1240C
100
AcDbEntity
  8
DEFPOINTS
 62
     0
 48
50.0
100
AcDbPoint
 10
6002.152607796139
 20
9335.94482676858
 30
0.0
  0
POINT
  5
1E859
330
1240C
100
AcDbEntity
  8
DEFPOINTS
 62
     0
 48
50.0
100
AcDbPoint
 10
7422.152607796139
 20
9335.94482676858
 30
0.0
  0
POINT
  5
1E85A
330
1240C
100
AcDbEntity
  8
DEFPOINTS
 62
     0
 48
50.0
100
AcDbPoint
 10
7422.152607796139
 20
9816.831163394757
 30
0.0
  0
ENDBLK
  5
133CC
330
1240C
100
AcDbEntity
  8
0
 48
50.0
100
AcDbBlockEnd
  0
BLOCK
  5
1297C
330
12418
100
AcDbEntity
  8
0
 48
50.0
100
AcDbBlockBegin
  2
*D10
 70
     1
 10
0.0
 20
0.0
 30
0.0
  3
*D10
  1

  0
LINE
  5
1E551
330
12418
100
AcDbEntity
  8
寸法
 62
     0
 48
50.0
370
    -2
100
AcDbLine
 10
5892.152607796139
 20
9355.944826768581
 30
0.0
 11
5892.152607796139
 21
9876.831163394756
 31
0.0
  0
LINE
  5
1E552
330
12418
100
AcDbEntity
  8
寸法
 62
     0
 48
50.0
370
    -2
100
AcDbLine
 10
6002.152607796139
 20
9355.944826768581
 30
0.0
 11
6002.152607796139
 21
9876.831163394756
 31
0.0
  0
LINE
  5
1E553
330
12418
100
AcDbEntity
  8
寸法
 62
     0
 48
50.0
370
    -2
100
AcDbLine
 10
5892.152607796139
 20
9816.831163394757
 30
0.0
 11
6002.152607796139
 21
9816.831163394757
 31
0.0
  0
INSERT
  5
1E554
330
12418
100
AcDbEntity
  8
寸法
 62
     0
 48
50.0
370
    -2
100
AcDbBlockReference
  2
_DOTSMALL
 10
5892.152607796139
 20
9816.831163394757
 30
0.0
 41
100.0
 42
100.0
 43
100.0
 50
180.0
  0
INSERT
  5
1E555
330
12418
100
AcDbEntity
  8
寸法
 62
     0
 48
50.0
370
    -2
100
AcDbBlockReference
  2
_DOTSMALL
 10
6002.152607796139
 20
9816.831163394757
 30
0.0
 41
100.0
 42
100.0
 43
100.0
  0
MTEXT
  5
1E556
330
12418
100
AcDbEntity
  8
寸法
 62
     7
 48
50.0
100
AcDbMText
 10
5947.152607796139
 20
9916.831163394757
 30
0.0
 40
120.0
 41
0.0
 71
     5
 72
     1
  1
\A1;110
  7
STYLE1
 73
     1
 44
1.0
1001
ACAD
1000
MTEXTBEGIN
1070
    73
1070
     1
1070
    44
1040
1.0
1070
    74
1070
     0
1000
MTEXTEND
  0
POINT
  5
1E557
330
12418
100
AcDbEntity
  8
DEFPOINTS
 62
     0
 48
50.0
100
AcDbPoint
 10
5892.152607796139
 20
9335.94482676858
 30
0.0
  0
POINT
  5
1E558
330
12418
100
AcDbEntity
  8
DEFPOINTS
 62
     0
 48
50.0
100
AcDbPoint
 10
6002.152607796139
 20
9335.94482676858
 30
0.0
  0
POINT
  5
1E559
330
12418
100
AcDbEntity
  8
DEFPOINTS
 62
     0
 48
50.0
100
AcDbPoint
 10
6002.152607796139
 20
9816.831163394757
 30
0.0
  0
ENDBLK
  5
12986
330
12418
100
AcDbEntity
  8
0
 48
50.0
100
AcDbBlockEnd
  0
BLOCK
  5
17201
330
171F7
100
AcDbEntity
  8
0
 48
50.0
100
AcDbBlockBegin
  2
*D11
 70
     1
 10
0.0
 20
0.0
 30
0.0
  3
*D11
  1

  0
LINE
  5
1E864
330
171F7
100
AcDbEntity
  8
寸法
 62
     0
 48
50.0
370
    -2
100
AcDbLine
 10
4107.152607796138
 20
4572.274643912302
 30
0.0
 11
4107.152607796138
 21
5045.721529644288
 31
0.0
  0
LINE
  5
1E865
330
171F7
100
AcDbEntity
  8
寸法
 62
     0
 48
50.0
370
    -2
100
AcDbLine
 10
7527.152607796143
 20
4572.274643912296
 30
0.0
 11
7527.152607796143
 21
5045.721529644288
 31
0.0
  0
LINE
  5
1E866
330
171F7
100
AcDbEntity
  8
寸法
 62
     0
 48
50.0
370
    -2
100
AcDbLine
 10
4107.152607796138
 20
4985.721529644288
 30
0.0
 11
7527.152607796143
 21
4985.721529644288
 31
0.0
  0
INSERT
  5
1E867
330
171F7
100
AcDbEntity
  8
寸法
 62
     0
 48
50.0
370
    -2
100
AcDbBlockReference
  2
_DOTSMALL
 10
4107.152607796138
 20
4985.721529644288
 30
0.0
 41
100.0
 42
100.0
 43
100.0
 50
180.0
  0
INSERT
  5
1E868
330
171F7
100
AcDbEntity
  8
寸法
 62
     0
 48
50.0
370
    -2
100
AcDbBlockReference
  2
_DOTSMALL
 10
7527.152607796143
 20
4985.721529644288
 30
0.0
 41
100.0
 42
100.0
 43
100.0
  0
MTEXT
  5
1E869
330
171F7
100
AcDbEntity
  8
寸法
 62
     7
 48
50.0
100
AcDbMText
 10
5817.152607796141
 20
5085.733340667911
 30
0.0
 40
120.0
 41
0.0
 71
     5
 72
     1
  1
\A1;3420
  7
STYLE1
 73
     1
 44
1.0
1001
ACAD
1000
MTEXTBEGIN
1070
    73
1070
     1
1070
    44
1040
1.0
1070
    74
1070
     0
1000
MTEXTEND
  0
POINT
  5
1E86A
330
171F7
100
AcDbEntity
  8
DEFPOINTS
 62
     0
 48
50.0
100
AcDbPoint
 10
4107.152607796138
 20
4552.274643912301
 30
0.0
  0
POINT
  5
1E86B
330
171F7
100
AcDbEntity
  8
DEFPOINTS
 62
     0
 48
50.0
100
AcDbPoint
 10
7527.152607796143
 20
4552.274643912297
 30
0.0
  0
POINT
  5
1E86C
330
171F7
100
AcDbEntity
  8
DEFPOINTS
 62
     0
 48
50.0
100
AcDbPoint
 10
7527.152607796143
 20
4985.721529644288
 30
0.0
  0
ENDBLK
  5
17202
330
171F7
100
AcDbEntity
  8
0
 48
50.0
100
AcDbBlockEnd
  0
BLOCK
  5
1720F
330
17203
100
AcDbEntity
  8
0
 48
50.0
100
AcDbBlockBegin
  2
*D12
 70
     1
 10
0.0
 20
0.0
 30
0.0
  3
*D12
  1

  0
LINE
  5
1D653
330
17203
100
AcDbEntity
  8
寸法
 62
     0
 48
50.0
370
    -2
100
AcDbLine
 10
7527.152607796143
 20
4572.274643912296
 30
0.0
 11
7527.152607796143
 21
4824.816229170537
 31
0.0
  0
LINE
  5
1D654
330
17203
100
AcDbEntity
  8
寸法
 62
     0
 48
50.0
370
    -2
100
AcDbLine
 10
7477.152607796142
 20
4572.274643912298
 30
0.0
 11
7477.152607796142
 21
4824.816229170537
 31
0.0
  0
LINE
  5
1D655
330
17203
100
AcDbEntity
  8
寸法
 62
     0
 48
50.0
370
    -2
100
AcDbLine
 10
7477.152607796142
 20
4764.816229170537
 30
0.0
 11
7377.152607796142
 21
4764.816229170537
 31
0.0
  0
LINE
  5
1D656
330
17203
100
AcDbEntity
  8
寸法
 62
     0
 48
50.0
370
    -2
100
AcDbLine
 10
7527.152607796143
 20
4764.816229170537
 30
0.0
 11
7939.24709598512
 21
4764.816229170537
 31
0.0
  0
LINE
  5
1D657
330
17203
100
AcDbEntity
  8
寸法
 62
     0
 48
50.0
370
    -2
100
AcDbLine
 10
7477.152607796142
 20
4764.816229170537
 30
0.0
 11
7527.152607796143
 21
4764.816229170537
 31
0.0
  0
INSERT
  5
1D658
330
17203
100
AcDbEntity
  8
寸法
 62
     0
 48
50.0
370
    -2
100
AcDbBlockReference
  2
_DOTSMALL
 10
7477.152607796142
 20
4764.816229170537
 30
0.0
 41
100.0
 42
100.0
 43
100.0
  0
INSERT
  5
1D659
330
17203
100
AcDbEntity
  8
寸法
 62
     0
 48
50.0
370
    -2
100
AcDbBlockReference
  2
_DOTSMALL
 10
7527.152607796143
 20
4764.816229170537
 30
0.0
 41
100.0
 42
100.0
 43
100.0
 50
180.0
  0
MTEXT
  5
1D65A
330
17203
100
AcDbEntity
  8
寸法
 62
     7
 48
50.0
100
AcDbMText
 10
7833.199851890632
 20
4864.816229170537
 30
0.0
 40
120.0
 41
0.0
 71
     5
 72
     1
  1
\A1;50
  7
STYLE1
 73
     1
 44
1.0
1001
ACAD
1000
MTEXTBEGIN
1070
    73
1070
     1
1070
    44
1040
1.0
1070
    74
1070
     0
1000
MTEXTEND
  0
POINT
  5
1D65B
330
17203
100
AcDbEntity
  8
DEFPOINTS
 62
     0
 48
50.0
100
AcDbPoint
 10
7527.152607796143
 20
4552.274643912297
 30
0.0
  0
POINT
  5
1D65C
330
17203
100
AcDbEntity
  8
DEFPOINTS
 62
     0
 48
50.0
100
AcDbPoint
 10
7477.152607796142
 20
4552.274643912298
 30
0.0
  0
POINT
  5
1D65D
330
17203
100
AcDbEntity
  8
DEFPOINTS
 62
     0
 48
50.0
100
AcDbPoint
 10
7477.152607796142
 20
4764.816229170537
 30
0.0
  0
ENDBLK
  5
17210
330
17203
100
AcDbEntity
  8
0
 48
50.0
100
AcDbBlockEnd
  0
BLOCK
  5
1721B
330
17211
100
AcDbEntity
  8
0
 48
50.0
100
AcDbBlockBegin
  2
*D13
 70
     1
 10
0.0
 20
0.0
 30
0.0
  3
*D13
  1

  0
LINE
  5
1E86D
330
17211
100
AcDbEntity
  8
寸法
 62
     0
 48
50.0
370
    -2
100
AcDbLine
 10
7477.152607796142
 20
4572.274643912296
 30
0.0
 11
7477.152607796142
 21
4824.81622917054
 31
0.0
  0
LINE
  5
1E86E
330
17211
100
AcDbEntity
  8
寸法
 62
     0
 48
50.0
370
    -2
100
AcDbLine
 10
4157.152607796138
 20
4572.274643912304
 30
0.0
 11
4157.152607796138
 21
4824.81622917054
 31
0.0
  0
LINE
  5
1E86F
330
17211
100
AcDbEntity
  8
寸法
 62
     0
 48
50.0
370
    -2
100
AcDbLine
 10
7477.152607796142
 20
4764.81622917054
 30
0.0
 11
4157.152607796138
 21
4764.81622917054
 31
0.0
  0
INSERT
  5
1E870
330
17211
100
AcDbEntity
  8
寸法
 62
     0
 48
50.0
370
    -2
100
AcDbBlockReference
  2
_DOTSMALL
 10
7477.152607796142
 20
4764.81622917054
 30
0.0
 41
100.0
 42
100.0
 43
100.0
  0
INSERT
  5
1E871
330
17211
100
AcDbEntity
  8
寸法
 62
     0
 48
50.0
370
    -2
100
AcDbBlockReference
  2
_DOTSMALL
 10
4157.152607796138
 20
4764.81622917054
 30
0.0
 41
100.0
 42
100.0
 43
100.0
 50
180.0
  0
MTEXT
  5
1E872
330
17211
100
AcDbEntity
  8
寸法
 62
     7
 48
50.0
100
AcDbMText
 10
5817.152607796141
 20
4864.828040194161
 30
0.0
 40
120.0
 41
0.0
 71
     5
 72
     1
  1
\A1;柱外寸法3320
  7
STYLE1
 73
     1
 44
1.0
1001
ACAD
1000
MTEXTBEGIN
1070
    73
1070
     1
1070
    44
1040
1.0
1070
    74
1070
     0
1000
MTEXTEND
  0
POINT
  5
1E873
330
17211
100
AcDbEntity
  8
DEFPOINTS
 62
     0
 48
50.0
100
AcDbPoint
 10
7477.152607796142
 20
4552.274643912297
 30
0.0
  0
POINT
  5
1E874
330
17211
100
AcDbEntity
  8
DEFPOINTS
 62
     0
 48
50.0
100
AcDbPoint
 10
4157.152607796138
 20
4552.274643912304
 30
0.0
  0
POINT
  5
1E875
330
17211
100
AcDbEntity
  8
DEFPOINTS
 62
     0
 48
50.0
100
AcDbPoint
 10
4157.152607796138
 20
4764.81622917054
 30
0.0
  0
ENDBLK
  5
1721C
330
17211
100
AcDbEntity
  8
0
 48
50.0
100
AcDbBlockEnd
  0
BLOCK
  5
17251
330
17245
100
AcDbEntity
  8
0
 48
50.0
100
AcDbBlockBegin
  2
*D14
 70
     1
 10
0.0
 20
0.0
 30
0.0
  3
*D14
  1

  0
LINE
  5
1E492
330
17245
100
AcDbEntity
  8
寸法
 62
     0
 48
50.0
370
    -2
100
AcDbLine
 10
4157.152607796138
 20
4572.274643912304
 30
0.0
 11
4157.152607796138
 21
4824.816229170541
 31
0.0
  0
LINE
  5
1E493
330
17245
100
AcDbEntity
  8
寸法
 62
     0
 48
50.0
370
    -2
100
AcDbLine
 10
4107.152607796138
 20
4572.274643912302
 30
0.0
 11
4107.152607796138
 21
4824.816229170541
 31
0.0
  0
LINE
  5
1E494
330
17245
100
AcDbEntity
  8
寸法
 62
     0
 48
50.0
370
    -2
100
AcDbLine
 10
4157.152607796138
 20
4764.81622917054
 30
0.0
 11
4257.152607796139
 21
4764.81622917054
 31
0.0
  0
LINE
  5
1E495
330
17245
100
AcDbEntity
  8
寸法
 62
     0
 48
50.0
370
    -2
100
AcDbLine
 10
4107.152607796138
 20
4764.81622917054
 30
0.0
 11
3695.058119607163
 21
4764.81622917054
 31
0.0
  0
LINE
  5
1E496
330
17245
100
AcDbEntity
  8
寸法
 62
     0
 48
50.0
370
    -2
100
AcDbLine
 10
4157.152607796138
 20
4764.81622917054
 30
0.0
 11
4107.152607796138
 21
4764.81622917054
 31
0.0
  0
INSERT
  5
1E497
330
17245
100
AcDbEntity
  8
寸法
 62
     0
 48
50.0
370
    -2
100
AcDbBlockReference
  2
_DOTSMALL
 10
4157.152607796138
 20
4764.81622917054
 30
0.0
 41
100.0
 42
100.0
 43
100.0
 50
180.0
  0
INSERT
  5
1E498
330
17245
100
AcDbEntity
  8
寸法
 62
     0
 48
50.0
370
    -2
100
AcDbBlockReference
  2
_DOTSMALL
 10
4107.152607796138
 20
4764.81622917054
 30
0.0
 41
100.0
 42
100.0
 43
100.0
  0
MTEXT
  5
1E499
330
17245
100
AcDbEntity
  8
寸法
 62
     7
 48
50.0
100
AcDbMText
 10
3801.10536370165
 20
4864.816229170541
 30
0.0
 40
120.0
 41
0.0
 71
     5
 72
     1
  1
\A1;50
  7
STYLE1
 73
     1
 44
1.0
1001
ACAD
1000
MTEXTBEGIN
1070
    73
1070
     1
1070
    44
1040
1.0
1070
    74
1070
     0
1000
MTEXTEND
  0
POINT
  5
1E49A
330
17245
100
AcDbEntity
  8
DEFPOINTS
 62
     0
 48
50.0
100
AcDbPoint
 10
4157.152607796138
 20
4552.274643912304
 30
0.0
  0
POINT
  5
1E49B
330
17245
100
AcDbEntity
  8
DEFPOINTS
 62
     0
 48
50.0
100
AcDbPoint
 10
4107.152607796138
 20
4552.274643912301
 30
0.0
  0
POINT
  5
1E49C
330
17245
100
AcDbEntity
  8
DEFPOINTS
 62
     0
 48
50.0
100
AcDbPoint
 10
4107.152607796138
 20
4764.81622917054
 30
0.0
  0
ENDBLK
  5
17252
330
17245
100
AcDbEntity
  8
0
 48
50.0
100
AcDbBlockEnd
  0
BLOCK
  5
19BE7
330
19BDD
100
AcDbEntity
  8
0
 48
50.0
100
AcDbBlockBegin
  2
*D15
 70
     1
 10
0.0
 20
0.0
 30
0.0
  3
*D15
  1

  0
LINE
  5
1E477
330
19BDD
100
AcDbEntity
  8
寸法
 62
     0
 48
50.0
370
    -2
100
AcDbLine
 10
4224.152607796138
 20
7448.944826768578
 30
0.0
 11
4224.152607796138
 21
6844.310540552169
 31
0.0
  0
LINE
  5
1E478
330
19BDD
100
AcDbEntity
  8
寸法
 62
     0
 48
50.0
370
    -2
100
AcDbLine
 10
5174.152607796139
 20
7448.944826768578
 30
0.0
 11
5174.152607796139
 21
6844.310540552169
 31
0.0
  0
LINE
  5
1E479
330
19BDD
100
AcDbEntity
  8
寸法
 62
     0
 48
50.0
370
    -2
100
AcDbLine
 10
4224.152607796138
 20
6904.31054055217
 30
0.0
 11
5174.152607796139
 21
6904.31054055217
 31
0.0
  0
INSERT
  5
1E47A
330
19BDD
100
AcDbEntity
  8
寸法
 62
     0
 48
50.0
370
    -2
100
AcDbBlockReference
  2
_DOTSMALL
 10
4224.152607796138
 20
6904.31054055217
 30
0.0
 41
100.0
 42
100.0
 43
100.0
 50
180.0
  0
INSERT
  5
1E47B
330
19BDD
100
AcDbEntity
  8
寸法
 62
     0
 48
50.0
370
    -2
100
AcDbBlockReference
  2
_DOTSMALL
 10
5174.152607796139
 20
6904.31054055217
 30
0.0
 41
100.0
 42
100.0
 43
100.0
  0
MTEXT
  5
1E47C
330
19BDD
100
AcDbEntity
  8
寸法
 62
     7
 48
50.0
100
AcDbMText
 10
4699.152607796139
 20
7104.31054055217
 30
0.0
 40
120.0
 41
0.0
 71
     5
 72
     1
  1
\A1;有効開口部間口\P950
  7
STYLE1
 73
     1
 44
1.0
1001
ACAD
1000
MTEXTBEGIN
1070
    73
1070
     1
1070
    44
1040
1.0
1070
    74
1070
     0
1000
MTEXTEND
  0
POINT
  5
1E47D
330
19BDD
100
AcDbEntity
  8
DEFPOINTS
 62
     0
 48
50.0
100
AcDbPoint
 10
4224.152607796138
 20
7468.944826768576
 30
0.0
  0
POINT
  5
1E47E
330
19BDD
100
AcDbEntity
  8
DEFPOINTS
 62
     0
 48
50.0
100
AcDbPoint
 10
5174.152607796139
 20
7468.944826768576
 30
0.0
  0
POINT
  5
1E47F
330
19BDD
100
AcDbEntity
  8
DEFPOINTS
 62
     0
 48
50.0
100
AcDbPoint
 10
5174.152607796139
 20
6904.31054055217
 30
0.0
  0
ENDBLK
  5
19BE8
330
19BDD
100
AcDbEntity
  8
0
 48
50.0
100
AcDbBlockEnd
  0
BLOCK
  5
19BF5
330
19BE9
100
AcDbEntity
  8
0
 48
50.0
100
AcDbBlockBegin
  2
*D16
 70
     1
 10
0.0
 20
0.0
 30
0.0
  3
*D16
  1

  0
LINE
  5
1E49D
330
19BE9
100
AcDbEntity
  8
寸法
 62
     0
370
    -2
100
AcDbLine
 10
4137.152607796139
 20
7545.944826768579
 30
0.0
 11
3877.844285510611
 21
7545.944826768579
 31
0.0
  0
LINE
  5
1E49E
330
19BE9
100
AcDbEntity
  8
寸法
 62
     0
370
    -2
100
AcDbLine
 10
4165.152607796139
 20
7470.944826768579
 30
0.0
 11
3877.844285510611
 21
7470.944826768579
 31
0.0
  0
LINE
  5
1E49F
330
19BE9
100
AcDbEntity
  8
寸法
 62
     0
370
    -2
100
AcDbLine
 10
3937.844285510611
 20
7545.944826768579
 30
0.0
 11
3937.844285510611
 21
7645.944826768579
 31
0.0
  0
LINE
  5
1E4A0
330
19BE9
100
AcDbEntity
  8
寸法
 62
     0
370
    -2
100
AcDbLine
 10
3937.844285510611
 20
7470.944826768579
 30
0.0
 11
3937.844285510611
 21
7053.974264020097
 31
0.0
  0
LINE
  5
1E4A1
330
19BE9
100
AcDbEntity
  8
寸法
 62
     0
370
    -2
100
AcDbLine
 10
3937.844285510611
 20
7545.944826768579
 30
0.0
 11
3937.844285510611
 21
7470.944826768579
 31
0.0
  0
INSERT
  5
1E4A2
330
19BE9
100
AcDbEntity
  8
寸法
 62
     0
370
    -2
100
AcDbBlockReference
  2
_DOTSMALL
 10
3937.844285510611
 20
7545.944826768579
 30
0.0
 41
100.0
 42
100.0
 43
100.0
 50
270.0
  0
INSERT
  5
1E4A3
330
19BE9
100
AcDbEntity
  8
寸法
 62
     0
370
    -2
100
AcDbBlockReference
  2
_DOTSMALL
 10
3937.844285510611
 20
7470.944826768579
 30
0.0
 41
100.0
 42
100.0
 43
100.0
 50
90.0
  0
MTEXT
  5
1E4A4
330
19BE9
100
AcDbEntity
  8
寸法
 62
     7
100
AcDbMText
 10
3837.844285510609
 20
7162.459545394337
 30
0.0
 40
120.0
 41
0.0
 71
     5
 72
     1
  1
\A1;75
  7
STYLE1
 11
0.0000000000000001
 21
1.0
 31
0.0
 73
     1
 44
1.0
1001
ACAD
1000
MTEXTBEGIN
1070
    73
1070
     1
1070
    44
1040
1.0
1070
    74
1070
     0
1000
MTEXTEND
  0
POINT
  5
1E4A5
330
19BE9
100
AcDbEntity
  8
DEFPOINTS
 62
     0
100
AcDbPoint
 10
4157.152607796138
 20
7545.944826768579
 30
0.0
  0
POINT
  5
1E4A6
330
19BE9
100
AcDbEntity
  8
DEFPOINTS
 62
     0
100
AcDbPoint
 10
4185.152607796139
 20
7470.944826768579
 30
0.0
  0
POINT
  5
1E4A7
330
19BE9
100
AcDbEntity
  8
DEFPOINTS
 62
     0
100
AcDbPoint
 10
3937.844285510611
 20
7470.944826768579
 30
0.0
  0
ENDBLK
  5
19BF6
330
19BE9
100
AcDbEntity
  8
0
 48
50.0
100
AcDbBlockEnd
  0
BLOCK
  5
19C01
330
19BF7
100
AcDbEntity
  8
0
 48
50.0
100
AcDbBlockBegin
  2
*D17
 70
     1
 10
0.0
 20
0.0
 30
0.0
  3
*D17
  1

  0
LINE
  5
1E4A8
330
19BF7
100
AcDbEntity
  8
寸法
 62
     0
 48
50.0
370
    -2
100
AcDbLine
 10
4185.152607796139
 20
7448.944826768578
 30
0.0
 11
4185.152607796139
 21
6584.874810203428
 31
0.0
  0
LINE
  5
1E4A9
330
19BF7
100
AcDbEntity
  8
寸法
 62
     0
 48
50.0
370
    -2
100
AcDbLine
 10
5919.152607796137
 20
7448.944826768574
 30
0.0
 11
5919.152607796137
 21
6584.874810203428
 31
0.0
  0
LINE
  5
1E4AA
330
19BF7
100
AcDbEntity
  8
寸法
 62
     0
 48
50.0
370
    -2
100
AcDbLine
 10
4185.152607796139
 20
6644.874810203427
 30
0.0
 11
5919.152607796137
 21
6644.874810203427
 31
0.0
  0
INSERT
  5
1E4AB
330
19BF7
100
AcDbEntity
  8
寸法
 62
     0
 48
50.0
370
    -2
100
AcDbBlockReference
  2
_DOTSMALL
 10
4185.152607796139
 20
6644.874810203427
 30
0.0
 41
100.0
 42
100.0
 43
100.0
 50
180.0
  0
INSERT
  5
1E4AC
330
19BF7
100
AcDbEntity
  8
寸法
 62
     0
 48
50.0
370
    -2
100
AcDbBlockReference
  2
_DOTSMALL
 10
5919.152607796137
 20
6644.874810203427
 30
0.0
 41
100.0
 42
100.0
 43
100.0
  0
MTEXT
  5
1E4AD
330
19BF7
100
AcDbEntity
  8
寸法
 62
     7
 48
50.0
100
AcDbMText
 10
5043.124051095754
 20
6744.874810203427
 30
0.0
 40
120.0
 41
0.0
 71
     5
 72
     1
  1
\A1;1734
  7
STYLE1
 73
     1
 44
1.0
1001
ACAD
1000
MTEXTBEGIN
1070
    73
1070
     1
1070
    44
1040
1.0
1070
    74
1070
     0
1000
MTEXTEND
  0
POINT
  5
1E4AE
330
19BF7
100
AcDbEntity
  8
DEFPOINTS
 62
     0
 48
50.0
100
AcDbPoint
 10
4185.152607796139
 20
7468.944826768576
 30
0.0
  0
POINT
  5
1E4AF
330
19BF7
100
AcDbEntity
  8
DEFPOINTS
 62
     0
 48
50.0
100
AcDbPoint
 10
5919.152607796137
 20
7468.944826768574
 30
0.0
  0
POINT
  5
1E4B0
330
19BF7
100
AcDbEntity
  8
DEFPOINTS
 62
     0
 48
50.0
100
AcDbPoint
 10
5919.152607796137
 20
6644.874810203427
 30
0.0
  0
ENDBLK
  5
19C02
330
19BF7
100
AcDbEntity
  8
0
 48
50.0
100
AcDbBlockEnd
  0
BLOCK
  5
1A0A5
330
1A0A4
100
AcDbEntity
  8
0
 48
50.0
100
AcDbBlockBegin
  2
*D18
 70
     1
 10
0.0
 20
0.0
 30
0.0
  3
*D18
  1

  0
LINE
  5
1E85B
330
1A0A4
100
AcDbEntity
  8
寸法
 62
     0
 48
50.0
370
    -2
100
AcDbLine
 10
6002.152607796139
 20
7525.944826768577
 30
0.0
 11
6002.152607796139
 21
6584.874810203428
 31
0.0
  0
LINE
  5
1E85C
330
1A0A4
100
AcDbEntity
  8
寸法
 62
     0
 48
50.0
370
    -2
100
AcDbLine
 10
7422.152607796139
 20
7525.944826768577
 30
0.0
 11
7422.152607796139
 21
6584.874810203428
 31
0.0
  0
LINE
  5
1E85D
330
1A0A4
100
AcDbEntity
  8
寸法
 62
     0
 48
50.0
370
    -2
100
AcDbLine
 10
6002.152607796139
 20
6644.874810203427
 30
0.0
 11
7422.152607796139
 21
6644.874810203427
 31
0.0
  0
INSERT
  5
1E85E
330
1A0A4
100
AcDbEntity
  8
寸法
 62
     0
 48
50.0
370
    -2
100
AcDbBlockReference
  2
_DOTSMALL
 10
6002.152607796139
 20
6644.874810203427
 30
0.0
 41
100.0
 42
100.0
 43
100.0
 50
180.0
  0
INSERT
  5
1E85F
330
1A0A4
100
AcDbEntity
  8
寸法
 62
     0
 48
50.0
370
    -2
100
AcDbBlockReference
  2
_DOTSMALL
 10
7422.152607796139
 20
6644.874810203427
 30
0.0
 41
100.0
 42
100.0
 43
100.0
  0
MTEXT
  5
1E860
330
1A0A4
100
AcDbEntity
  8
寸法
 62
     7
 48
50.0
100
AcDbMText
 10
6712.152607796139
 20
6844.88662122705
 30
0.0
 40
120.0
 41
0.0
 71
     5
 72
     1
  1
\A1;開放部\P開口間口 1420
  7
STYLE1
 73
     1
 44
1.0
1001
ACAD
1000
MTEXTBEGIN
1070
    73
1070
     1
1070
    44
1040
1.0
1070
    74
1070
     0
1000
MTEXTEND
  0
POINT
  5
1E861
330
1A0A4
100
AcDbEntity
  8
DEFPOINTS
 62
     0
 48
50.0
100
AcDbPoint
 10
6002.152607796139
 20
7545.944826768577
 30
0.0
  0
POINT
  5
1E862
330
1A0A4
100
AcDbEntity
  8
DEFPOINTS
 62
     0
 48
50.0
100
AcDbPoint
 10
7422.152607796139
 20
7545.944826768577
 30
0.0
  0
POINT
  5
1E863
330
1A0A4
100
AcDbEntity
  8
DEFPOINTS
 62
     0
 48
50.0
100
AcDbPoint
 10
7422.152607796139
 20
6644.874810203427
 30
0.0
  0
ENDBLK
  5
1A0A6
330
1A0A4
100
AcDbEntity
  8
0
 48
50.0
100
AcDbBlockEnd
  0
BLOCK
  5
1C86D
330
1C86C
100
AcDbEntity
  8
0
 48
50.0
100
AcDbBlockBegin
  2
*D19
 70
     1
 10
0.0
 20
0.0
 30
0.0
  3
*D19
  1

  0
LINE
  5
1E006
330
1C86C
100
AcDbEntity
  8
寸法
 62
     0
 48
50.0
370
    -2
100
AcDbLine
 10
7910.054604585893
 20
2377.274643912296
 30
0.0
 11
7910.054604585893
 21
2477.274643912296
 31
0.0
  0
LINE
  5
1E007
330
1C86C
100
AcDbEntity
  8
寸法
 62
     0
 48
50.0
370
    -2
100
AcDbLine
 10
7910.054604585893
 20
2477.274643912296
 30
0.0
 11
7910.054604585893
 21
2766.783547333778
 31
0.0
  0
INSERT
  5
1E008
330
1C86C
100
AcDbEntity
  8
寸法
 62
     0
 48
50.0
370
    -2
100
AcDbBlockReference
  2
_DOTSMALL
 10
7910.054604585893
 20
2477.274643912296
 30
0.0
 41
100.0
 42
100.0
 43
100.0
 50
90.0
  0
MTEXT
  5
1E009
330
1C86C
100
AcDbEntity
  8
寸法
 62
     7
 48
50.0
100
AcDbMText
 10
7810.042793562272
 20
2614.774643912297
 30
0.0
 40
120.0
 41
0.0
 71
     5
 72
     1
  1
\A1;275
  7
STYLE1
 11
0.0000000000000001
 21
1.0
 31
0.0
 73
     1
 44
1.0
1001
ACAD
1000
MTEXTBEGIN
1070
    73
1070
     1
1070
    44
1040
1.0
1070
    74
1070
     0
1000
MTEXTEND
  0
POINT
  5
1E00A
330
1C86C
100
AcDbEntity
  8
DEFPOINTS
 62
     0
 48
50.0
100
AcDbPoint
 10
7622.152607796138
 20
2477.274643912296
 30
0.0
  0
POINT
  5
1E00B
330
1C86C
100
AcDbEntity
  8
DEFPOINTS
 62
     0
 48
50.0
100
AcDbPoint
 10
7422.152607796137
 20
2752.274643912296
 30
0.0
  0
POINT
  5
1E00C
330
1C86C
100
AcDbEntity
  8
DEFPOINTS
 62
     0
 48
50.0
100
AcDbPoint
 10
7910.054604585893
 20
2752.274643912296
 30
0.0
  0
ENDBLK
  5
1C86E
330
1C86C
100
AcDbEntity
  8
0
 48
50.0
100
AcDbBlockEnd
  0
BLOCK
  5
1D3A6
330
1D3A5
100
AcDbEntity
  8
0
 48
50.0
100
AcDbBlockBegin
  2
*D20
 70
     1
 10
0.0
 20
0.0
 30
0.0
  3
*D20
  1

  0
LINE
  5
1E55A
330
1D3A5
100
AcDbEntity
  8
寸法
 62
     0
 48
50.0
370
    -2
100
AcDbLine
 10
5071.011591644762
 20
9325.944826768461
 30
0.0
 11
5140.423055635985
 21
9584.991937011446
 31
0.0
  0
LINE
  5
1E55B
330
1D3A5
100
AcDbEntity
  8
寸法
 62
     0
 48
50.0
370
    -2
100
AcDbLine
 10
5924.011591644772
 20
9325.944826768466
 30
0.0
 11
5993.423055635994
 21
9584.991937011446
 31
0.0
  0
LINE
  5
1E55C
330
1D3A5
100
AcDbEntity
  8
寸法
 62
     0
 48
50.0
370
    -2
100
AcDbLine
 10
5124.346104090118
 20
9524.991937011446
 30
0.0
 11
5977.346104090127
 21
9524.991937011446
 31
0.0
  0
INSERT
  5
1E55D
330
1D3A5
100
AcDbEntity
  8
寸法
 62
     0
 48
50.0
370
    -2
100
AcDbBlockReference
  2
_DOTSMALL
 10
5124.346104090118
 20
9524.991937011446
 30
0.0
 41
100.0
 42
100.0
 43
100.0
 50
180.0
  0
INSERT
  5
1E55E
330
1D3A5
100
AcDbEntity
  8
寸法
 62
     0
 48
50.0
370
    -2
100
AcDbBlockReference
  2
_DOTSMALL
 10
5977.346104090127
 20
9524.991937011446
 30
0.0
 41
100.0
 42
100.0
 43
100.0
  0
MTEXT
  5
1E55F
330
1D3A5
100
AcDbEntity
  8
寸法
 62
     7
 48
50.0
100
AcDbMText
 10
5550.846104090123
 20
9624.991937011445
 30
0.0
 40
120.0
 41
0.0
 71
     5
 72
     1
  1
\A1;853
  7
STYLE1
 73
     1
 44
1.0
1001
ACAD
1000
MTEXTBEGIN
1070
    73
1070
     1
1070
    44
1040
1.0
1070
    74
1070
     0
1000
MTEXTEND
  0
POINT
  5
1E560
330
1D3A5
100
AcDbEntity
  8
DEFPOINTS
 62
     0
 48
50.0
100
AcDbPoint
 10
5065.652607796138
 20
9305.94482676846
 30
0.0
  0
POINT
  5
1E561
330
1D3A5
100
AcDbEntity
  8
DEFPOINTS
 62
     0
 48
50.0
100
AcDbPoint
 10
5918.65260779615
 20
9305.944826768465
 30
0.0
  0
POINT
  5
1E562
330
1D3A5
100
AcDbEntity
  8
DEFPOINTS
 62
     0
 48
50.0
100
AcDbPoint
 10
5977.346104090127
 20
9524.991937011446
 30
0.0
  0
ENDBLK
  5
1D3A7
330
1D3A5
100
AcDbEntity
  8
0
 48
50.0
100
AcDbBlockEnd
  0
BLOCK
  5
1D3B2
330
1D3B1
100
AcDbEntity
  8
0
 48
50.0
100
AcDbBlockBegin
  2
*D21
 70
     1
 10
0.0
 20
0.0
 30
0.0
  3
*D21
  1

  0
LINE
  5
1E563
330
1D3B1
100
AcDbEntity
  8
寸法
 62
     0
370
    -2
100
AcDbLine
 10
4191.011591644763
 20
9325.944826768566
 30
0.0
 11
4260.423055635987
 21
9584.991937011551
 31
0.0
  0
LINE
  5
1E564
330
1D3B1
100
AcDbEntity
  8
寸法
 62
     0
370
    -2
100
AcDbLine
 10
5044.011591644775
 20
9325.944826768571
 30
0.0
 11
5113.423055635998
 21
9584.991937011551
 31
0.0
  0
LINE
  5
1E565
330
1D3B1
100
AcDbEntity
  8
寸法
 62
     0
370
    -2
100
AcDbLine
 10
4244.34610409012
 20
9524.991937011552
 30
0.0
 11
5097.346104090131
 21
9524.991937011552
 31
0.0
  0
INSERT
  5
1E566
330
1D3B1
100
AcDbEntity
  8
寸法
 62
     0
370
    -2
100
AcDbBlockReference
  2
_DOTSMALL
 10
4244.34610409012
 20
9524.991937011552
 30
0.0
 41
100.0
 42
100.0
 43
100.0
 50
180.0
  0
INSERT
  5
1E567
330
1D3B1
100
AcDbEntity
  8
寸法
 62
     0
370
    -2
100
AcDbBlockReference
  2
_DOTSMALL
 10
5097.346104090131
 20
9524.991937011552
 30
0.0
 41
100.0
 42
100.0
 43
100.0
  0
MTEXT
  5
1E568
330
1D3B1
100
AcDbEntity
  8
寸法
 62
     7
100
AcDbMText
 10
4670.846104090125
 20
9624.991937011552
 30
0.0
 40
120.0
 41
0.0
 71
     5
 72
     1
  1
\A1;853
  7
STYLE1
 73
     1
 44
1.0
1001
ACAD
1000
MTEXTBEGIN
1070
    73
1070
     1
1070
    44
1040
1.0
1070
    74
1070
     0
1000
MTEXTEND
  0
POINT
  5
1E569
330
1D3B1
100
AcDbEntity
  8
DEFPOINTS
 62
     0
100
AcDbPoint
 10
4185.65260779614
 20
9305.944826768564
 30
0.0
  0
POINT
  5
1E56A
330
1D3B1
100
AcDbEntity
  8
DEFPOINTS
 62
     0
100
AcDbPoint
 10
5038.652607796152
 20
9305.944826768572
 30
0.0
  0
POINT
  5
1E56B
330
1D3B1
100
AcDbEntity
  8
DEFPOINTS
 62
     0
100
AcDbPoint
 10
5097.346104090131
 20
9524.991937011552
 30
0.0
  0
ENDBLK
  5
1D3B3
330
1D3B1
100
AcDbEntity
  8
0
 48
50.0
100
AcDbBlockEnd
  0
BLOCK
  5
1D3D1
330
1D3D0
100
AcDbEntity
  8
0
 48
50.0
100
AcDbBlockBegin
  2
*D22
 70
     1
 10
0.0
 20
0.0
 30
0.0
  3
*D22
  1

  0
LINE
  5
1E56C
330
1D3D0
100
AcDbEntity
  8
寸法
 62
     0
370
    -2
100
AcDbLine
 10
4165.652607796139
 20
9311.303810617179
 30
0.0
 11
3853.573261219406
 21
9394.92521950685
 31
0.0
  0
LINE
  5
1E56D
330
1D3D0
100
AcDbEntity
  8
寸法
 62
     0
370
    -2
100
AcDbLine
 10
4165.652607796139
 20
8861.303810617181
 30
0.0
 11
3853.573261219406
 21
8944.925219506851
 31
0.0
  0
LINE
  5
1E56E
330
1D3D0
100
AcDbEntity
  8
寸法
 62
     0
370
    -2
100
AcDbLine
 10
3913.573261219406
 20
9378.848267960982
 30
0.0
 11
3913.573261219406
 21
8928.848267960985
 31
0.0
  0
INSERT
  5
1E56F
330
1D3D0
100
AcDbEntity
  8
寸法
 62
     0
370
    -2
100
AcDbBlockReference
  2
_DOTSMALL
 10
3913.573261219406
 20
9378.848267960982
 30
0.0
 41
100.0
 42
100.0
 43
100.0
 50
90.0
  0
INSERT
  5
1E570
330
1D3D0
100
AcDbEntity
  8
寸法
 62
     0
370
    -2
100
AcDbBlockReference
  2
_DOTSMALL
 10
3913.573261219406
 20
8928.848267960985
 30
0.0
 41
100.0
 42
100.0
 43
100.0
 50
270.0
  0
MTEXT
  5
1E571
330
1D3D0
100
AcDbEntity
  8
寸法
 62
     7
100
AcDbMText
 10
3813.573261219404
 20
9153.848267960984
 30
0.0
 40
120.0
 41
0.0
 71
     5
 72
     1
  1
\A1;450
  7
STYLE1
 11
0.0000000000000001
 21
1.0
 31
0.0
 73
     1
 44
1.0
1001
ACAD
1000
MTEXTBEGIN
1070
    73
1070
     1
1070
    44
1040
1.0
1070
    74
1070
     0
1000
MTEXTEND
  0
POINT
  5
1E572
330
1D3D0
100
AcDbEntity
  8
DEFPOINTS
 62
     0
100
AcDbPoint
 10
4185.652607796138
 20
9305.944826768557
 30
0.0
  0
POINT
  5
1E573
330
1D3D0
100
AcDbEntity
  8
DEFPOINTS
 62
     0
100
AcDbPoint
 10
4185.652607796138
 20
8855.944826768558
 30
0.0
  0
POINT
  5
1E574
330
1D3D0
100
AcDbEntity
  8
DEFPOINTS
 62
     0
100
AcDbPoint
 10
3913.573261219406
 20
8928.848267960985
 30
0.0
  0
ENDBLK
  5
1D3D2
330
1D3D0
100
AcDbEntity
  8
0
 48
50.0
100
AcDbBlockEnd
  0
BLOCK
  5
1D4A7
330
1D4A6
100
AcDbEntity
  8
0
 48
50.0
100
AcDbBlockBegin
  2
*D23
 70
     1
 10
0.0
 20
0.0
 30
0.0
  3
*D23
  1

  0
LINE
  5
1D626
330
1D4A6
100
AcDbEntity
  8
寸法
 62
     0
 48
50.0
370
    -2
100
AcDbLine
 10
7642.152607796139
 20
2477.274643912296
 30
0.0
 11
8501.947768118082
 21
2477.274643912296
 31
0.0
  0
LINE
  5
1D627
330
1D4A6
100
AcDbEntity
  8
寸法
 62
     0
 48
50.0
370
    -2
100
AcDbLine
 10
7497.152607796138
 20
4312.274643912295
 30
0.0
 11
8501.947768118084
 21
4312.274643912295
 31
0.0
  0
LINE
  5
1D628
330
1D4A6
100
AcDbEntity
  8
寸法
 62
     0
 48
50.0
370
    -2
100
AcDbLine
 10
8441.947768118081
 20
2477.274643912296
 30
0.0
 11
8441.947768118083
 21
4312.274643912295
 31
0.0
  0
INSERT
  5
1D629
330
1D4A6
100
AcDbEntity
  8
寸法
 62
     0
 48
50.0
370
    -2
100
AcDbBlockReference
  2
_DOTSMALL
 10
8441.947768118081
 20
2477.274643912296
 30
0.0
 41
100.0
 42
100.0
 43
100.0
 50
270.0
  0
INSERT
  5
1D62A
330
1D4A6
100
AcDbEntity
  8
寸法
 62
     0
 48
50.0
370
    -2
100
AcDbBlockReference
  2
_DOTSMALL
 10
8441.947768118083
 20
4312.274643912295
 30
0.0
 41
100.0
 42
100.0
 43
100.0
 50
90.0
  0
MTEXT
  5
1D62B
330
1D4A6
100
AcDbEntity
  8
寸法
 62
     7
 48
50.0
100
AcDbMText
 10
8241.947768118082
 20
3394.774643912297
 30
0.0
 40
120.0
 41
0.0
 71
     5
 72
     1
  1
\A1;開放部\P開口高サ1835
  7
STYLE1
 11
0.0000000000000001
 21
1.0
 31
0.0
 73
     1
 44
1.0
1001
ACAD
1000
MTEXTBEGIN
1070
    73
1070
     1
1070
    44
1040
1.0
1070
    74
1070
     0
1000
MTEXTEND
  0
POINT
  5
1D62C
330
1D4A6
100
AcDbEntity
  8
DEFPOINTS
 62
     0
 48
50.0
100
AcDbPoint
 10
7622.152607796138
 20
2477.274643912296
 30
0.0
  0
POINT
  5
1D62D
330
1D4A6
100
AcDbEntity
  8
DEFPOINTS
 62
     0
 48
50.0
100
AcDbPoint
 10
7477.152607796139
 20
4312.274643912295
 30
0.0
  0
POINT
  5
1D62E
330
1D4A6
100
AcDbEntity
  8
DEFPOINTS
 62
     0
 48
50.0
100
AcDbPoint
 10
8441.947768118083
 20
4312.274643912295
 30
0.0
  0
ENDBLK
  5
1D4A8
330
1D4A6
100
AcDbEntity
  8
0
 48
50.0
100
AcDbBlockEnd
  0
BLOCK
  5
1D51B
330
1D51A
100
AcDbEntity
  8
0
 48
50.0
100
AcDbBlockBegin
  2
*D24
 70
     1
 10
0.0
 20
0.0
 30
0.0
  3
*D24
  1

  0
LINE
  5
1E4D5
330
1D51A
100
AcDbEntity
  8
寸法
 62
     0
 48
50.0
370
    -2
100
AcDbLine
 10
4165.15260779614
 20
4260.274643912294
 30
0.0
 11
3667.847687509661
 21
4260.274643912294
 31
0.0
  0
LINE
  5
1E4D6
330
1D51A
100
AcDbEntity
  8
寸法
 62
     0
 48
50.0
370
    -2
100
AcDbLine
 10
4165.15260779614
 20
2535.274643912295
 30
0.0
 11
3667.847687509661
 21
2535.274643912295
 31
0.0
  0
LINE
  5
1E4D7
330
1D51A
100
AcDbEntity
  8
寸法
 62
     0
 48
50.0
370
    -2
100
AcDbLine
 10
3727.847687509661
 20
4260.274643912294
 30
0.0
 11
3727.84768750966
 21
2535.274643912295
 31
0.0
  0
INSERT
  5
1E4D8
330
1D51A
100
AcDbEntity
  8
寸法
 62
     0
 48
50.0
370
    -2
100
AcDbBlockReference
  2
_DOTSMALL
 10
3727.847687509661
 20
4260.274643912294
 30
0.0
 41
100.0
 42
100.0
 43
100.0
 50
90.0
  0
INSERT
  5
1E4D9
330
1D51A
100
AcDbEntity
  8
寸法
 62
     0
 48
50.0
370
    -2
100
AcDbBlockReference
  2
_DOTSMALL
 10
3727.84768750966
 20
2535.274643912295
 30
0.0
 41
100.0
 42
100.0
 43
100.0
 50
270.0
  0
MTEXT
  5
1E4DA
330
1D51A
100
AcDbEntity
  8
寸法
 62
     7
 48
50.0
100
AcDbMText
 10
3627.835876486038
 20
3397.774643912296
 30
0.0
 40
120.0
 41
0.0
 71
     5
 72
     1
  1
\A1;有効開口部高サ1725
  7
STYLE1
 11
0.0000000000000001
 21
1.0
 31
0.0
 73
     1
 44
1.0
1001
ACAD
1000
MTEXTBEGIN
1070
    73
1070
     1
1070
    44
1040
1.0
1070
    74
1070
     0
1000
MTEXTEND
  0
POINT
  5
1E4DB
330
1D51A
100
AcDbEntity
  8
DEFPOINTS
 62
     0
 48
50.0
100
AcDbPoint
 10
4185.15260779614
 20
4260.274643912294
 30
0.0
  0
POINT
  5
1E4DC
330
1D51A
100
AcDbEntity
  8
DEFPOINTS
 62
     0
 48
50.0
100
AcDbPoint
 10
4185.15260779614
 20
2535.274643912295
 30
0.0
  0
POINT
  5
1E4DD
330
1D51A
100
AcDbEntity
  8
DEFPOINTS
 62
     0
 48
50.0
100
AcDbPoint
 10
3727.84768750966
 20
2535.274643912295
 30
0.0
  0
ENDBLK
  5
1D51C
330
1D51A
100
AcDbEntity
  8
0
 48
50.0
100
AcDbBlockEnd
  0
BLOCK
  5
1E375
330
1E374
100
AcDbEntity
  8
0
 48
50.0
100
AcDbBlockBegin
  2
*D25
 70
     1
 10
0.0
 20
0.0
 30
0.0
  3
*D25
  1

  0
LINE
  5
1E380
330
1E374
100
AcDbEntity
  8
寸法
 62
     0
 48
50.0
370
    -2
100
AcDbLine
 10
7442.152607796138
 20
2752.274643912296
 30
0.0
 11
7970.054604585894
 21
2752.274643912296
 31
0.0
  0
LINE
  5
1E381
330
1E374
100
AcDbEntity
  8
寸法
 62
     0
 48
50.0
370
    -2
100
AcDbLine
 10
7442.152607796138
 20
3652.274709524294
 30
0.0
 11
7970.054604585894
 21
3652.274709524294
 31
0.0
  0
LINE
  5
1E382
330
1E374
100
AcDbEntity
  8
寸法
 62
     0
 48
50.0
370
    -2
100
AcDbLine
 10
7910.054604585893
 20
2752.274643912296
 30
0.0
 11
7910.054604585893
 21
3652.274709524294
 31
0.0
  0
INSERT
  5
1E383
330
1E374
100
AcDbEntity
  8
寸法
 62
     0
 48
50.0
370
    -2
100
AcDbBlockReference
  2
_DOTSMALL
 10
7910.054604585893
 20
2752.274643912296
 30
0.0
 41
100.0
 42
100.0
 43
100.0
 50
270.0
  0
INSERT
  5
1E384
330
1E374
100
AcDbEntity
  8
寸法
 62
     0
 48
50.0
370
    -2
100
AcDbBlockReference
  2
_DOTSMALL
 10
7910.054604585893
 20
3652.274709524294
 30
0.0
 41
100.0
 42
100.0
 43
100.0
 50
90.0
  0
MTEXT
  5
1E385
330
1E374
100
AcDbEntity
  8
寸法
 62
     7
 48
50.0
100
AcDbMText
 10
7810.054604585893
 20
3202.274676718296
 30
0.0
 40
120.0
 41
0.0
 71
     5
 72
     1
  1
\A1;900
  7
STYLE1
 11
0.0000000000000001
 21
1.0
 31
0.0
 73
     1
 44
1.0
1001
ACAD
1000
MTEXTBEGIN
1070
    73
1070
     1
1070
    44
1040
1.0
1070
    74
1070
     0
1000
MTEXTEND
  0
POINT
  5
1E386
330
1E374
100
AcDbEntity
  8
DEFPOINTS
 62
     0
 48
50.0
100
AcDbPoint
 10
7422.152607796139
 20
2752.274643912296
 30
0.0
  0
POINT
  5
1E387
330
1E374
100
AcDbEntity
  8
DEFPOINTS
 62
     0
 48
50.0
100
AcDbPoint
 10
7422.152607796139
 20
3652.274709524294
 30
0.0
  0
POINT
  5
1E388
330
1E374
100
AcDbEntity
  8
DEFPOINTS
 62
     0
 48
50.0
100
AcDbPoint
 10
7910.054604585893
 20
3652.274709524294
 30
0.0
  0
ENDBLK
  5
1E376
330
1E374
100
AcDbEntity
  8
0
 48
50.0
100
AcDbBlockEnd
  0
BLOCK
  5
1E6F5
330
1E6F4
100
AcDbEntity
  8
0
 48
50.0
100
AcDbBlockBegin
  2
*D26
 70
     1
 10
0.0
 20
0.0
 30
0.0
  3
*D26
  1

  0
LINE
  5
1E7DA
330
1E6F4
100
AcDbEntity
  8
寸法
 62
     0
 48
50.0
370
    -2
100
AcDbLine
 10
12584.30159419581
 20
2477.274643912295
 30
0.0
 11
13315.51517318188
 21
2477.274643912295
 31
0.0
  0
LINE
  5
1E7DB
330
1E6F4
100
AcDbEntity
  8
寸法
 62
     0
 48
50.0
370
    -2
100
AcDbLine
 10
12664.30159419583
 20
4497.274643912295
 30
0.0
 11
13315.51517318188
 21
4497.274643912295
 31
0.0
  0
LINE
  5
1E7DC
330
1E6F4
100
AcDbEntity
  8
寸法
 62
     0
 48
50.0
370
    -2
100
AcDbLine
 10
13255.51517318188
 20
2477.274643912295
 30
0.0
 11
13255.51517318188
 21
4497.274643912295
 31
0.0
  0
INSERT
  5
1E7DD
330
1E6F4
100
AcDbEntity
  8
寸法
 62
     0
 48
50.0
370
    -2
100
AcDbBlockReference
  2
_DOTSMALL
 10
13255.51517318188
 20
2477.274643912295
 30
0.0
 41
100.0
 42
100.0
 43
100.0
 50
270.0
  0
INSERT
  5
1E7DE
330
1E6F4
100
AcDbEntity
  8
寸法
 62
     0
 48
50.0
370
    -2
100
AcDbBlockReference
  2
_DOTSMALL
 10
13255.51517318188
 20
4497.274643912295
 30
0.0
 41
100.0
 42
100.0
 43
100.0
 50
90.0
  0
MTEXT
  5
1E7DF
330
1E6F4
100
AcDbEntity
  8
寸法
 62
     7
 48
50.0
100
AcDbMText
 10
13155.50336215826
 20
3487.274643912297
 30
0.0
 40
120.0
 41
0.0
 71
     5
 72
     1
  1
\A1;2020
  7
STYLE1
 11
0.0000000000000001
 21
1.0
 31
0.0
 73
     1
 44
1.0
1001
ACAD
1000
MTEXTBEGIN
1070
    73
1070
     1
1070
    44
1040
1.0
1070
    74
1070
     0
1000
MTEXTEND
  0
POINT
  5
1E7E0
330
1E6F4
100
AcDbEntity
  8
DEFPOINTS
 62
     0
 48
50.0
100
AcDbPoint
 10
12564.30159419581
 20
2477.274643912295
 30
0.0
  0
POINT
  5
1E7E1
330
1E6F4
100
AcDbEntity
  8
DEFPOINTS
 62
     0
 48
50.0
100
AcDbPoint
 10
12644.30159419583
 20
4497.274643912295
 30
0.0
  0
POINT
  5
1E7E2
330
1E6F4
100
AcDbEntity
  8
DEFPOINTS
 62
     0
 48
50.0
100
AcDbPoint
 10
13255.51517318188
 20
4497.274643912295
 30
0.0
  0
ENDBLK
  5
1E6F6
330
1E6F4
100
AcDbEntity
  8
0
 48
50.0
100
AcDbBlockEnd
  0
BLOCK
  5
1E701
330
1E700
100
AcDbEntity
  8
0
 48
50.0
100
AcDbBlockBegin
  2
*D27
 70
     1
 10
0.0
 20
0.0
 30
0.0
  3
*D27
  1

  0
LINE
  5
1E7E3
330
1E700
100
AcDbEntity
  8
寸法
 62
     0
 48
50.0
370
    -2
100
AcDbLine
 10
10754.30159419582
 20
2527.274643912296
 30
0.0
 11
9972.73608680522
 21
2527.274643912296
 31
0.0
  0
LINE
  5
1E7E4
330
1E700
100
AcDbEntity
  8
寸法
 62
     0
 48
50.0
370
    -2
100
AcDbLine
 10
10677.30159419581
 20
2477.274643912295
 30
0.0
 11
9972.73608680522
 21
2477.274643912295
 31
0.0
  0
LINE
  5
1E7E5
330
1E700
100
AcDbEntity
  8
寸法
 62
     0
 48
50.0
370
    -2
100
AcDbLine
 10
10032.73608680522
 20
2527.274643912296
 30
0.0
 11
10032.73608680522
 21
2627.274643912296
 31
0.0
  0
LINE
  5
1E7E6
330
1E700
100
AcDbEntity
  8
寸法
 62
     0
 48
50.0
370
    -2
100
AcDbLine
 10
10032.73608680522
 20
2477.274643912295
 30
0.0
 11
10032.73608680522
 21
1987.477399817805
 31
0.0
  0
LINE
  5
1E7E7
330
1E700
100
AcDbEntity
  8
寸法
 62
     0
 48
50.0
370
    -2
100
AcDbLine
 10
10032.73608680522
 20
2527.274643912296
 30
0.0
 11
10032.73608680522
 21
2477.274643912295
 31
0.0
  0
INSERT
  5
1E7E8
330
1E700
100
AcDbEntity
  8
寸法
 62
     0
 48
50.0
370
    -2
100
AcDbBlockReference
  2
_DOTSMALL
 10
10032.73608680522
 20
2527.274643912296
 30
0.0
 41
100.0
 42
100.0
 43
100.0
 50
270.0
  0
INSERT
  5
1E7E9
330
1E700
100
AcDbEntity
  8
寸法
 62
     0
 48
50.0
370
    -2
100
AcDbBlockReference
  2
_DOTSMALL
 10
10032.73608680522
 20
2477.274643912295
 30
0.0
 41
100.0
 42
100.0
 43
100.0
 50
90.0
  0
MTEXT
  5
1E7EA
330
1E700
100
AcDbEntity
  8
寸法
 62
     7
 48
50.0
100
AcDbMText
 10
9932.736086805219
 20
2093.524643912295
 30
0.0
 40
120.0
 41
0.0
 71
     5
 72
     1
  1
\A1;50
  7
STYLE1
 11
0.0000000000000001
 21
1.0
 31
0.0
 73
     1
 44
1.0
1001
ACAD
1000
MTEXTBEGIN
1070
    73
1070
     1
1070
    44
1040
1.0
1070
    74
1070
     0
1000
MTEXTEND
  0
POINT
  5
1E7EB
330
1E700
100
AcDbEntity
  8
DEFPOINTS
 62
     0
 48
50.0
100
AcDbPoint
 10
10774.30159419582
 20
2527.274643912296
 30
0.0
  0
POINT
  5
1E7EC
330
1E700
100
AcDbEntity
  8
DEFPOINTS
 62
     0
 48
50.0
100
AcDbPoint
 10
10697.30159419581
 20
2477.274643912295
 30
0.0
  0
POINT
  5
1E7ED
330
1E700
100
AcDbEntity
  8
DEFPOINTS
 62
     0
 48
50.0
100
AcDbPoint
 10
10032.73608680522
 20
2477.274643912295
 30
0.0
  0
ENDBLK
  5
1E702
330
1E700
100
AcDbEntity
  8
0
 48
50.0
100
AcDbBlockEnd
  0
BLOCK
  5
1E70F
330
1E70E
100
AcDbEntity
  8
0
 48
50.0
100
AcDbBlockBegin
  2
*D28
 70
     1
 10
0.0
 20
0.0
 30
0.0
  3
*D28
  1

  0
LINE
  5
1E7EE
330
1E70E
100
AcDbEntity
  8
寸法
 62
     0
 48
50.0
370
    -2
100
AcDbLine
 10
10677.30159419581
 20
2477.274643912295
 30
0.0
 11
9679.818669960779
 21
2477.274643912295
 31
0.0
  0
LINE
  5
1E7EF
330
1E70E
100
AcDbEntity
  8
寸法
 62
     0
 48
50.0
370
    -2
100
AcDbLine
 10
9737.80051830068
 20
2377.274643912295
 30
0.0
 11
9799.818669960778
 21
2377.274643912295
 31
0.0
  0
LINE
  5
1E7F0
330
1E70E
100
AcDbEntity
  8
寸法
 62
     0
 48
50.0
370
    -2
100
AcDbLine
 10
9739.818669960778
 20
2477.274643912295
 30
0.0
 11
9739.818669960778
 21
2377.274643912295
 31
0.0
  0
LINE
  5
1E7F1
330
1E70E
100
AcDbEntity
  8
寸法
 62
     0
 48
50.0
370
    -2
100
AcDbLine
 10
9739.818669960778
 20
2377.274643912295
 30
0.0
 11
9739.818669960778
 21
1826.227399817805
 31
0.0
  0
INSERT
  5
1E7F2
330
1E70E
100
AcDbEntity
  8
寸法
 62
     0
 48
50.0
370
    -2
100
AcDbBlockReference
  2
_DOTSMALL
 10
9739.818669960778
 20
2477.274643912295
 30
0.0
 41
100.0
 42
100.0
 43
100.0
 50
90.0
  0
INSERT
  5
1E7F3
330
1E70E
100
AcDbEntity
  8
寸法
 62
     0
 48
50.0
370
    -2
100
AcDbBlockReference
  2
_DOTSMALL
 10
9739.818669960778
 20
2377.274643912295
 30
0.0
 41
100.0
 42
100.0
 43
100.0
 50
270.0
  0
MTEXT
  5
1E7F4
330
1E70E
100
AcDbEntity
  8
寸法
 62
     7
 48
50.0
100
AcDbMText
 10
9639.818669960778
 20
1962.274643912295
 30
0.0
 40
120.0
 41
0.0
 71
     5
 72
     1
  1
\A1;100
  7
STYLE1
 11
0.0000000000000001
 21
1.0
 31
0.0
 73
     1
 44
1.0
1001
ACAD
1000
MTEXTBEGIN
1070
    73
1070
     1
1070
    44
1040
1.0
1070
    74
1070
     0
1000
MTEXTEND
  0
POINT
  5
1E7F5
330
1E70E
100
AcDbEntity
  8
DEFPOINTS
 62
     0
 48
50.0
100
AcDbPoint
 10
10697.30159419581
 20
2477.274643912295
 30
0.0
  0
POINT
  5
1E7F6
330
1E70E
100
AcDbEntity
  8
DEFPOINTS
 62
     0
 48
50.0
100
AcDbPoint
 10
9717.800518300681
 20
2377.274643912295
 30
0.0
  0
POINT
  5
1E7F7
330
1E70E
100
AcDbEntity
  8
DEFPOINTS
 62
     0
 48
50.0
100
AcDbPoint
 10
9739.818669960778
 20
2377.274643912295
 30
0.0
  0
ENDBLK
  5
1E710
330
1E70E
100
AcDbEntity
  8
0
 48
50.0
100
AcDbBlockEnd
  0
BLOCK
  5
1E71C
330
1E71B
100
AcDbEntity
  8
0
 48
50.0
100
AcDbBlockBegin
  2
*D29
 70
     1
 10
0.0
 20
0.0
 30
0.0
  3
*D29
  1

  0
LINE
  5
1E7F8
330
1E71B
100
AcDbEntity
  8
寸法
 62
     0
 48
50.0
370
    -2
100
AcDbLine
 10
10754.30159419582
 20
4317.274643912294
 30
0.0
 11
9972.73608680522
 21
4317.274643912296
 31
0.0
  0
LINE
  5
1E7F9
330
1E71B
100
AcDbEntity
  8
寸法
 62
     0
 48
50.0
370
    -2
100
AcDbLine
 10
10754.30159419582
 20
2527.274643912296
 30
0.0
 11
9972.73608680522
 21
2527.274643912296
 31
0.0
  0
LINE
  5
1E7FA
330
1E71B
100
AcDbEntity
  8
寸法
 62
     0
 48
50.0
370
    -2
100
AcDbLine
 10
10032.73608680522
 20
4317.274643912296
 30
0.0
 11
10032.73608680522
 21
2527.274643912296
 31
0.0
  0
INSERT
  5
1E7FB
330
1E71B
100
AcDbEntity
  8
寸法
 62
     0
 48
50.0
370
    -2
100
AcDbBlockReference
  2
_DOTSMALL
 10
10032.73608680522
 20
4317.274643912296
 30
0.0
 41
100.0
 42
100.0
 43
100.0
 50
90.0
  0
INSERT
  5
1E7FC
330
1E71B
100
AcDbEntity
  8
寸法
 62
     0
 48
50.0
370
    -2
100
AcDbBlockReference
  2
_DOTSMALL
 10
10032.73608680522
 20
2527.274643912296
 30
0.0
 41
100.0
 42
100.0
 43
100.0
 50
270.0
  0
MTEXT
  5
1E7FD
330
1E71B
100
AcDbEntity
  8
寸法
 62
     7
 48
50.0
100
AcDbMText
 10
9932.736086805219
 20
3422.274643912297
 30
0.0
 40
120.0
 41
0.0
 71
     5
 72
     1
  1
\A1;1790
  7
STYLE1
 11
0.0000000000000001
 21
1.0
 31
0.0
 73
     1
 44
1.0
1001
ACAD
1000
MTEXTBEGIN
1070
    73
1070
     1
1070
    44
1040
1.0
1070
    74
1070
     0
1000
MTEXTEND
  0
POINT
  5
1E7FE
330
1E71B
100
AcDbEntity
  8
DEFPOINTS
 62
     0
 48
50.0
100
AcDbPoint
 10
10774.30159419582
 20
4317.274643912294
 30
0.0
  0
POINT
  5
1E7FF
330
1E71B
100
AcDbEntity
  8
DEFPOINTS
 62
     0
 48
50.0
100
AcDbPoint
 10
10774.30159419582
 20
2527.274643912296
 30
0.0
  0
POINT
  5
1E800
330
1E71B
100
AcDbEntity
  8
DEFPOINTS
 62
     0
 48
50.0
100
AcDbPoint
 10
10032.73608680522
 20
2527.274643912296
 30
0.0
  0
ENDBLK
  5
1E71D
330
1E71B
100
AcDbEntity
  8
0
 48
50.0
100
AcDbBlockEnd
  0
BLOCK
  5
1E728
330
1E727
100
AcDbEntity
  8
0
 48
50.0
100
AcDbBlockBegin
  2
*D30
 70
     1
 10
0.0
 20
0.0
 30
0.0
  3
*D30
  1

  0
LINE
  5
1E801
330
1E727
100
AcDbEntity
  8
寸法
 62
     0
 48
50.0
370
    -2
100
AcDbLine
 10
12564.30159419583
 20
4519.08532352395
 30
0.0
 11
12564.30159419583
 21
5010.932097491599
 31
0.0
  0
LINE
  5
1E802
330
1E727
100
AcDbEntity
  8
寸法
 62
     0
 48
50.0
370
    -2
100
AcDbLine
 10
12644.30159419583
 20
4517.274643912297
 30
0.0
 11
12644.30159419583
 21
5010.932097491599
 31
0.0
  0
LINE
  5
1E803
330
1E727
100
AcDbEntity
  8
寸法
 62
     0
 48
50.0
370
    -2
100
AcDbLine
 10
12564.30159419583
 20
4950.932097491599
 30
0.0
 11
12644.30159419583
 21
4950.932097491599
 31
0.0
  0
LINE
  5
1E804
330
1E727
100
AcDbEntity
  8
寸法
 62
     0
 48
50.0
370
    -2
100
AcDbLine
 10
12644.30159419583
 20
4950.932097491599
 30
0.0
 11
12956.3960823848
 21
4950.932097491599
 31
0.0
  0
INSERT
  5
1E805
330
1E727
100
AcDbEntity
  8
寸法
 62
     0
 48
50.0
370
    -2
100
AcDbBlockReference
  2
_DOTSMALL
 10
12564.30159419583
 20
4950.932097491599
 30
0.0
 41
100.0
 42
100.0
 43
100.0
 50
180.0
  0
INSERT
  5
1E806
330
1E727
100
AcDbEntity
  8
寸法
 62
     0
 48
50.0
370
    -2
100
AcDbBlockReference
  2
_DOTSMALL
 10
12644.30159419583
 20
4950.932097491599
 30
0.0
 41
100.0
 42
100.0
 43
100.0
  0
MTEXT
  5
1E807
330
1E727
100
AcDbEntity
  8
寸法
 62
     7
 48
50.0
100
AcDbMText
 10
12850.34883829031
 20
5050.9320974916
 30
0.0
 40
120.0
 41
0.0
 71
     5
 72
     1
  1
\A1;80
  7
STYLE1
 73
     1
 44
1.0
1001
ACAD
1000
MTEXTBEGIN
1070
    73
1070
     1
1070
    44
1040
1.0
1070
    74
1070
     0
1000
MTEXTEND
  0
POINT
  5
1E808
330
1E727
100
AcDbEntity
  8
DEFPOINTS
 62
     0
 48
50.0
100
AcDbPoint
 10
12564.30159419583
 20
4499.08532352395
 30
0.0
  0
POINT
  5
1E809
330
1E727
100
AcDbEntity
  8
DEFPOINTS
 62
     0
 48
50.0
100
AcDbPoint
 10
12644.30159419583
 20
4497.274643912296
 30
0.0
  0
POINT
  5
1E80A
330
1E727
100
AcDbEntity
  8
DEFPOINTS
 62
     0
 48
50.0
100
AcDbPoint
 10
12644.30159419583
 20
4950.932097491599
 30
0.0
  0
ENDBLK
  5
1E729
330
1E727
100
AcDbEntity
  8
0
 48
50.0
100
AcDbBlockEnd
  0
BLOCK
  5
1E735
330
1E734
100
AcDbEntity
  8
0
 48
50.0
100
AcDbBlockBegin
  2
*D31
 70
     1
 10
0.0
 20
0.0
 30
0.0
  3
*D31
  1

  0
LINE
  5
1E80B
330
1E734
100
AcDbEntity
  8
寸法
 62
     0
 48
50.0
370
    -2
100
AcDbLine
 10
12644.30159419583
 20
4517.274643912297
 30
0.0
 11
12644.30159419583
 21
5227.893912870213
 31
0.0
  0
LINE
  5
1E80C
330
1E734
100
AcDbEntity
  8
寸法
 62
     0
 48
50.0
370
    -2
100
AcDbLine
 10
10714.30159419582
 20
4572.2746439123
 30
0.0
 11
10714.30159419582
 21
5227.893912870213
 31
0.0
  0
LINE
  5
1E80D
330
1E734
100
AcDbEntity
  8
寸法
 62
     0
 48
50.0
370
    -2
100
AcDbLine
 10
12644.30159419583
 20
5167.893912870213
 30
0.0
 11
10714.30159419582
 21
5167.893912870213
 31
0.0
  0
INSERT
  5
1E80E
330
1E734
100
AcDbEntity
  8
寸法
 62
     0
 48
50.0
370
    -2
100
AcDbBlockReference
  2
_DOTSMALL
 10
12644.30159419583
 20
5167.893912870213
 30
0.0
 41
100.0
 42
100.0
 43
100.0
  0
INSERT
  5
1E80F
330
1E734
100
AcDbEntity
  8
寸法
 62
     0
 48
50.0
370
    -2
100
AcDbBlockReference
  2
_DOTSMALL
 10
10714.30159419582
 20
5167.893912870213
 30
0.0
 41
100.0
 42
100.0
 43
100.0
 50
180.0
  0
MTEXT
  5
1E810
330
1E734
100
AcDbEntity
  8
寸法
 62
     7
 48
50.0
100
AcDbMText
 10
11679.30159419583
 20
5267.893912870214
 30
0.0
 40
120.0
 41
0.0
 71
     5
 72
     1
  1
\A1;1930
  7
STYLE1
 73
     1
 44
1.0
1001
ACAD
1000
MTEXTBEGIN
1070
    73
1070
     1
1070
    44
1040
1.0
1070
    74
1070
     0
1000
MTEXTEND
  0
POINT
  5
1E811
330
1E734
100
AcDbEntity
  8
DEFPOINTS
 62
     0
 48
50.0
100
AcDbPoint
 10
12644.30159419583
 20
4497.274643912296
 30
0.0
  0
POINT
  5
1E812
330
1E734
100
AcDbEntity
  8
DEFPOINTS
 62
     0
 48
50.0
100
AcDbPoint
 10
10714.30159419582
 20
4552.2746439123
 30
0.0
  0
POINT
  5
1E813
330
1E734
100
AcDbEntity
  8
DEFPOINTS
 62
     0
 48
50.0
100
AcDbPoint
 10
10714.30159419582
 20
5167.893912870213
 30
0.0
  0
ENDBLK
  5
1E736
330
1E734
100
AcDbEntity
  8
0
 48
50.0
100
AcDbBlockEnd
  0
BLOCK
  5
1E741
330
1E740
100
AcDbEntity
  8
0
 48
50.0
100
AcDbBlockBegin
  2
*D32
 70
     1
 10
0.0
 20
0.0
 30
0.0
  3
*D32
  1

  0
LINE
  5
1E814
330
1E740
100
AcDbEntity
  8
寸法
 62
     0
 48
50.0
370
    -2
100
AcDbLine
 10
12564.30159419583
 20
4519.08532352395
 30
0.0
 11
12564.30159419583
 21
5011.367813251767
 31
0.0
  0
LINE
  5
1E815
330
1E740
100
AcDbEntity
  8
寸法
 62
     0
 48
50.0
370
    -2
100
AcDbLine
 10
10774.30159419582
 20
4568.276262035271
 30
0.0
 11
10774.30159419582
 21
5011.367813251767
 31
0.0
  0
LINE
  5
1E816
330
1E740
100
AcDbEntity
  8
寸法
 62
     0
 48
50.0
370
    -2
100
AcDbLine
 10
12564.30159419583
 20
4951.367813251767
 30
0.0
 11
10774.30159419582
 21
4951.367813251767
 31
0.0
  0
INSERT
  5
1E817
330
1E740
100
AcDbEntity
  8
寸法
 62
     0
 48
50.0
370
    -2
100
AcDbBlockReference
  2
_DOTSMALL
 10
12564.30159419583
 20
4951.367813251767
 30
0.0
 41
100.0
 42
100.0
 43
100.0
  0
INSERT
  5
1E818
330
1E740
100
AcDbEntity
  8
寸法
 62
     0
 48
50.0
370
    -2
100
AcDbBlockReference
  2
_DOTSMALL
 10
10774.30159419582
 20
4951.367813251767
 30
0.0
 41
100.0
 42
100.0
 43
100.0
 50
180.0
  0
MTEXT
  5
1E819
330
1E740
100
AcDbEntity
  8
寸法
 62
     7
 48
50.0
100
AcDbMText
 10
11669.30159419583
 20
5051.367813251767
 30
0.0
 40
120.0
 41
0.0
 71
     5
 72
     1
  1
\A1;柱外寸法1790
  7
STYLE1
 73
     1
 44
1.0
1001
ACAD
1000
MTEXTBEGIN
1070
    73
1070
     1
1070
    44
1040
1.0
1070
    74
1070
     0
1000
MTEXTEND
  0
POINT
  5
1E81A
330
1E740
100
AcDbEntity
  8
DEFPOINTS
 62
     0
 48
50.0
100
AcDbPoint
 10
12564.30159419583
 20
4499.08532352395
 30
0.0
  0
POINT
  5
1E81B
330
1E740
100
AcDbEntity
  8
DEFPOINTS
 62
     0
 48
50.0
100
AcDbPoint
 10
10774.30159419582
 20
4548.276262035272
 30
0.0
  0
POINT
  5
1E81C
330
1E740
100
AcDbEntity
  8
DEFPOINTS
 62
     0
 48
50.0
100
AcDbPoint
 10
10774.30159419582
 20
4951.367813251767
 30
0.0
  0
ENDBLK
  5
1E742
330
1E740
100
AcDbEntity
  8
0
 48
50.0
100
AcDbBlockEnd
  0
BLOCK
  5
1E74D
330
1E74C
100
AcDbEntity
  8
0
 48
50.0
100
AcDbBlockBegin
  2
*D33
 70
     1
 10
0.0
 20
0.0
 30
0.0
  3
*D33
  1

  0
LINE
  5
1E81D
330
1E74C
100
AcDbEntity
  8
寸法
 62
     0
 48
50.0
370
    -2
100
AcDbLine
 10
10774.30159419582
 20
4568.276262035271
 30
0.0
 11
10774.30159419582
 21
5010.932097491599
 31
0.0
  0
LINE
  5
1E81E
330
1E74C
100
AcDbEntity
  8
寸法
 62
     0
 48
50.0
370
    -2
100
AcDbLine
 10
10714.30159419582
 20
4572.2746439123
 30
0.0
 11
10714.30159419582
 21
5010.932097491599
 31
0.0
  0
LINE
  5
1E81F
330
1E74C
100
AcDbEntity
  8
寸法
 62
     0
 48
50.0
370
    -2
100
AcDbLine
 10
10774.30159419582
 20
4950.932097491599
 30
0.0
 11
10874.30159419582
 21
4950.932097491599
 31
0.0
  0
LINE
  5
1E820
330
1E74C
100
AcDbEntity
  8
寸法
 62
     0
 48
50.0
370
    -2
100
AcDbLine
 10
10714.30159419582
 20
4950.932097491599
 30
0.0
 11
10295.02600364463
 21
4950.932097491599
 31
0.0
  0
LINE
  5
1E821
330
1E74C
100
AcDbEntity
  8
寸法
 62
     0
 48
50.0
370
    -2
100
AcDbLine
 10
10774.30159419582
 20
4950.932097491599
 30
0.0
 11
10714.30159419582
 21
4950.932097491599
 31
0.0
  0
INSERT
  5
1E822
330
1E74C
100
AcDbEntity
  8
寸法
 62
     0
 48
50.0
370
    -2
100
AcDbBlockReference
  2
_DOTSMALL
 10
10774.30159419582
 20
4950.932097491599
 30
0.0
 41
100.0
 42
100.0
 43
100.0
 50
180.0
  0
INSERT
  5
1E823
330
1E74C
100
AcDbEntity
  8
寸法
 62
     0
 48
50.0
370
    -2
100
AcDbBlockReference
  2
_DOTSMALL
 10
10714.30159419582
 20
4950.932097491599
 30
0.0
 41
100.0
 42
100.0
 43
100.0
  0
MTEXT
  5
1E824
330
1E74C
100
AcDbEntity
  8
寸法
 62
     7
 48
50.0
100
AcDbMText
 10
10404.66379892022
 20
5050.9320974916
 30
0.0
 40
120.0
 41
0.0
 71
     5
 72
     1
  1
\A1;60
  7
STYLE1
 73
     1
 44
1.0
1001
ACAD
1000
MTEXTBEGIN
1070
    73
1070
     1
1070
    44
1040
1.0
1070
    74
1070
     0
1000
MTEXTEND
  0
POINT
  5
1E825
330
1E74C
100
AcDbEntity
  8
DEFPOINTS
 62
     0
 48
50.0
100
AcDbPoint
 10
10774.30159419582
 20
4548.276262035272
 30
0.0
  0
POINT
  5
1E826
330
1E74C
100
AcDbEntity
  8
DEFPOINTS
 62
     0
 48
50.0
100
AcDbPoint
 10
10714.30159419582
 20
4552.2746439123
 30
0.0
  0
POINT
  5
1E827
330
1E74C
100
AcDbEntity
  8
DEFPOINTS
 62
     0
 48
50.0
100
AcDbPoint
 10
10714.30159419582
 20
4950.932097491599
 30
0.0
  0
ENDBLK
  5
1E74E
330
1E74C
100
AcDbEntity
  8
0
 48
50.0
100
AcDbBlockEnd
  0
BLOCK
  5
1E75B
330
1E75A
100
AcDbEntity
  8
0
 48
50.0
100
AcDbBlockBegin
  2
*D34
 70
     1
 10
0.0
 20
0.0
 30
0.0
  3
*D34
  1

  0
LINE
  5
1E828
330
1E75A
100
AcDbEntity
  8
寸法
 62
     0
 48
50.0
370
    -2
100
AcDbLine
 10
10713.70588048692
 20
4551.572350981956
 30
0.0
 11
10097.77144138165
 21
4569.286501256254
 31
0.0
  0
LINE
  5
1E829
330
1E75A
100
AcDbEntity
  8
寸法
 62
     0
 48
50.0
370
    -2
100
AcDbLine
 10
10709.6524249303
 20
4410.630627216245
 30
0.0
 11
10093.71798582504
 21
4428.344777490542
 31
0.0
  0
LINE
  5
1E82A
330
1E75A
100
AcDbEntity
  8
寸法
 62
     0
 48
50.0
370
    -2
100
AcDbLine
 10
10153.69318742747
 20
4426.619902785597
 30
0.0
 11
10157.74664298409
 21
4567.561626551309
 31
0.0
  0
LINE
  5
1E82B
330
1E75A
100
AcDbEntity
  8
寸法
 62
     0
 48
50.0
370
    -2
100
AcDbLine
 10
10157.74664298409
 20
4567.561626551309
 30
0.0
 11
10168.09589121375
 21
4927.412836165916
 31
0.0
  0
INSERT
  5
1E82C
330
1E75A
100
AcDbEntity
  8
寸法
 62
     0
 48
50.0
370
    -2
100
AcDbBlockReference
  2
_DOTSMALL
 10
10153.69318742747
 20
4426.619902785597
 30
0.0
 41
100.0
 42
100.0
 43
100.0
 50
268.3526390256408
  0
INSERT
  5
1E82D
330
1E75A
100
AcDbEntity
  8
寸法
 62
     0
 48
50.0
370
    -2
100
AcDbBlockReference
  2
_DOTSMALL
 10
10157.74664298409
 20
4567.561626551309
 30
0.0
 41
100.0
 42
100.0
 43
100.0
 50
88.3526390256407
  0
MTEXT
  5
1E82E
330
1E75A
100
AcDbEntity
  8
寸法
 62
     7
 48
50.0
100
AcDbMText
 10
10064.39999334899
 20
4800.341357202221
 30
0.0
 40
120.0
 41
0.0
 71
     5
 72
     1
  1
\A1;141
  7
STYLE1
 11
0.0287479117490722
 21
0.9995866933738501
 31
0.0
 73
     1
 44
1.0
1001
ACAD
1000
MTEXTBEGIN
1070
    73
1070
     1
1070
    44
1040
1.0
1070
    74
1070
     0
1000
MTEXTEND
  0
POINT
  5
1E82F
330
1E75A
100
AcDbEntity
  8
DEFPOINTS
 62
     0
 48
50.0
100
AcDbPoint
 10
10733.69761435439
 20
4550.997392746976
 30
0.0
  0
POINT
  5
1E830
330
1E75A
100
AcDbEntity
  8
DEFPOINTS
 62
     0
 48
50.0
100
AcDbPoint
 10
10729.64415879777
 20
4410.055668981263
 30
0.0
  0
POINT
  5
1E831
330
1E75A
100
AcDbEntity
  8
DEFPOINTS
 62
     0
 48
50.0
100
AcDbPoint
 10
10153.69318742747
 20
4426.619902785597
 30
0.0
  0
ENDBLK
  5
1E75C
330
1E75A
100
AcDbEntity
  8
0
 48
50.0
100
AcDbBlockEnd
  0
BLOCK
  5
1E768
330
1E767
100
AcDbEntity
  8
0
 48
50.0
100
AcDbBlockBegin
  2
*D35
 70
     1
 10
0.0
 20
0.0
 30
0.0
  3
*D35
  1

  0
LINE
  5
1E832
330
1E767
100
AcDbEntity
  8
寸法
 62
     0
 48
50.0
370
    -2
100
AcDbLine
 10
10677.30159419581
 20
2477.274643912295
 30
0.0
 11
9679.818669960788
 21
2477.274643912295
 31
0.0
  0
LINE
  5
1E833
330
1E767
100
AcDbEntity
  8
寸法
 62
     0
 48
50.0
370
    -2
100
AcDbLine
 10
10694.30159419582
 20
4552.2746439123
 30
0.0
 11
9679.818669960788
 21
4552.2746439123
 31
0.0
  0
LINE
  5
1E834
330
1E767
100
AcDbEntity
  8
寸法
 62
     0
 48
50.0
370
    -2
100
AcDbLine
 10
9739.818669960788
 20
2477.274643912295
 30
0.0
 11
9739.81866996079
 21
4552.2746439123
 31
0.0
  0
INSERT
  5
1E835
330
1E767
100
AcDbEntity
  8
寸法
 62
     0
 48
50.0
370
    -2
100
AcDbBlockReference
  2
_DOTSMALL
 10
9739.818669960788
 20
2477.274643912295
 30
0.0
 41
100.0
 42
100.0
 43
100.0
 50
270.0
  0
INSERT
  5
1E836
330
1E767
100
AcDbEntity
  8
寸法
 62
     0
 48
50.0
370
    -2
100
AcDbBlockReference
  2
_DOTSMALL
 10
9739.81866996079
 20
4552.2746439123
 30
0.0
 41
100.0
 42
100.0
 43
100.0
 50
90.0
  0
MTEXT
  5
1E837
330
1E767
100
AcDbEntity
  8
寸法
 62
     7
 48
50.0
100
AcDbMText
 10
9639.806858937165
 20
3514.7746439123
 30
0.0
 40
120.0
 41
0.0
 71
     5
 72
     1
  1
\A1;2075
  7
STYLE1
 11
0.0000000000000001
 21
1.0
 31
0.0
 73
     1
 44
1.0
1001
ACAD
1000
MTEXTBEGIN
1070
    73
1070
     1
1070
    44
1040
1.0
1070
    74
1070
     0
1000
MTEXTEND
  0
POINT
  5
1E838
330
1E767
100
AcDbEntity
  8
DEFPOINTS
 62
     0
 48
50.0
100
AcDbPoint
 10
10697.30159419581
 20
2477.274643912295
 30
0.0
  0
POINT
  5
1E839
330
1E767
100
AcDbEntity
  8
DEFPOINTS
 62
     0
 48
50.0
100
AcDbPoint
 10
10714.30159419582
 20
4552.2746439123
 30
0.0
  0
POINT
  5
1E83A
330
1E767
100
AcDbEntity
  8
DEFPOINTS
 62
     0
 48
50.0
100
AcDbPoint
 10
9739.81866996079
 20
4552.2746439123
 30
0.0
  0
ENDBLK
  5
1E769
330
1E767
100
AcDbEntity
  8
0
 48
50.0
100
AcDbBlockEnd
  0
ENDSEC
  0
SECTION
  2
ENTITIES
  0
MTEXT
  5
763F
330
747D
100
AcDbEntity
  8
0
100
AcDbMText
 10
302.846345836809
 20
280.1983726409901
 30
0.0
 40
3.5
 41
5.323721266742722
 71
     1
 72
     5
  1

  7
MSMINCHO
 73
     1
 44
1.0
1001
ACAD
1000
MTEXTBEGIN
1070
    73
1070
     1
1070
    44
1040
1.0
1070
    74
1070
     0
1000
MTEXTEND
  0
LINE
  5
10B56
330
747D
100
AcDbEntity
  8
補助
  6
PHANTOM
 62
   230
 48
50.0
100
AcDbLine
 10
140.0
 20
0.0
 30
0.0
 11
139.9999999999995
 21
11409.6
 31
0.0
  0
LINE
  5
10B57
330
747D
100
AcDbEntity
  8
補助
  6
PHANTOM
 62
   230
 48
50.0
100
AcDbLine
 10
139.9999999999995
 20
11409.6
 30
0.0
 11
16307.2
 21
11409.6
 31
0.0
  0
LINE
  5
10B59
330
747D
100
AcDbEntity
  8
仕様書枠
  6
Continuous
 48
50.0
100
AcDbLine
 10
13107.2
 20
1200.0
 30
0.0
 11
13107.2
 21
-0.0000000000000729
 31
0.0
  0
LINE
  5
10B5C
330
747D
100
AcDbEntity
  8
仕様書枠
 48
50.0
100
AcDbLine
 10
16307.2
 20
1200.0
 30
0.0
 11
16307.2
 21
-0.0000000000000909
 31
0.0
  0
LINE
  5
10B5D
330
747D
100
AcDbEntity
  8
仕様書枠
 48
50.0
100
AcDbLine
 10
140.0
 20
0.0
 30
0.0
 11
16307.2
 21
-0.0000000000000909
 31
0.0
  0
LINE
  5
10B5E
330
747D
100
AcDbEntity
  8
補助
  6
PHANTOM
 62
   230
 48
50.0
100
AcDbLine
 10
16307.2
 20
11409.6
 30
0.0
 11
16307.2
 21
1200.0
 31
0.0
  0
LINE
  5
10B6C
330
747D
100
AcDbEntity
  8
仕様書枠
 48
50.0
100
AcDbLine
 10
13107.2
 20
1200.0
 30
0.0
 11
16307.2
 21
1200.0
 31
0.0
  0
LINE
  5
10B72
330
747D
100
AcDbEntity
  8
文字
 62
     7
 48
50.0
100
AcDbLine
 10
13187.2
 20
400.0
 30
0.0
 11
16227.2
 21
400.0
 31
0.0
  0
TEXT
  5
10B73
330
747D
100
AcDbEntity
  8
文字
 62
     7
 48
50.0
100
AcDbText
 10
13162.9790565769
 20
895.0906074299405
 30
0.0
 40
200.0
  1
外 形 図
  7
STYLE2
100
AcDbText
  0
TEXT
  5
10B74
330
747D
100
AcDbEntity
  8
文字
 62
     7
 48
50.0
100
AcDbText
 10
13201.43669998441
 20
477.2740661031255
 30
0.0
 40
160.0
  1
機種名
  7
STYLE2
100
AcDbText
  0
TEXT
  5
10B75
330
747D
100
AcDbEntity
  8
文字
 62
     7
 48
50.0
100
AcDbText
 10
13209.4053442172
 20
228.5435242569016
 30
0.0
 40
100.0
  1
○有効開口寸法 ： 950\U+00D71725(mm)
  7
STYLE2
100
AcDbText
  0
LINE
  5
10B7B
330
747D
100
AcDbEntity
  8
仕様書枠
 48
50.0
100
AcDbLine
 10
13107.2
 20
800.0
 30
0.0
 11
14251.2
 21
800.0
 31
0.0
  0
LINE
  5
10B88
330
747D
100
AcDbEntity
  8
仕様書枠
  6
Continuous
 48
50.0
100
AcDbLine
 10
14251.2
 20
1200.0
 30
0.0
 11
14251.2
 21
800.0
 31
0.0
  0
TEXT
  5
10EA8
330
747D
100
AcDbEntity
  8
文字
 62
     7
 48
50.0
100
AcDbText
 10
14595.25497647273
 20
838.2527270729186
 30
0.0
 40
100.0
  1
～一般型・多雪地型～
  7
STYLE2
100
AcDbText
  0
DIMENSION
  5
120D6
330
747D
100
AcDbEntity
  8
寸法
 48
50.0
100
AcDbDimension
  2
*D1
 10
7477.152607796139
 20
9816.831163394757
 30
0.0
 11
7785.637889170377
 21
9816.831163394757
 31
0.0
 70
   160
 71
     5
 42
55.0
  3
INABA_S40G
100
AcDbAlignedDimension
 13
7422.152607796139
 23
9335.94482676858
 33
0.0
 14
7477.152607796139
 24
9335.944826768576
 34
0.0
100
AcDbRotatedDimension
1001
ACAD
1000
DSTYLE
1002
{
1070
   341
1005
0
1002
}
  0
DIMENSION
  5
120D7
330
747D
100
AcDbEntity
  8
寸法
 48
50.0
100
AcDbDimension
  2
*D2
 10
8547.899724840492
 20
7545.944826768579
 30
0.0
 11
8447.899724840491
 21
8440.94482676858
 31
0.0
 70
    32
 71
     5
 42
1789.999999999998
  3
INABA_S40G
100
AcDbAlignedDimension
 13
7477.152607796139
 23
9335.944826768576
 33
0.0
 14
7477.152607796139
 24
7545.944826768579
 34
0.0
 50
90.0
100
AcDbRotatedDimension
1001
ACAD
1000
DSTYLE
1002
{
1070
   341
1005
0
1002
}
  0
DIMENSION
  5
120D8
330
747D
100
AcDbEntity
  8
寸法
 48
50.0
100
AcDbDimension
  2
*D3
 10
8247.899724840497
 20
7545.944826768579
 30
0.0
 11
8247.899724840493
 21
7237.459545394341
 31
0.0
 70
   160
 71
     5
 42
54.99999999999636
  3
INABA_S40G
100
AcDbAlignedDimension
 13
7477.152607796139
 23
7600.944826768575
 33
0.0
 14
7477.152607796139
 24
7545.944826768579
 34
0.0
 50
90.0
100
AcDbRotatedDimension
1001
ACAD
1000
DSTYLE
1002
{
1070
   341
1005
0
1002
}
  0
DIMENSION
  5
120D9
330
747D
100
AcDbEntity
  8
寸法
 48
50.0
100
AcDbDimension
  2
*D4
 10
8247.899724840493
 20
7600.944826768575
 30
0.0
 11
8147.887913816871
 21
8440.94482676858
 31
0.0
 70
    32
  1
4X420=<>
 71
     5
 42
1680.000000000007
  3
INABA_S40G
100
AcDbAlignedDimension
 13
7477.152607796139
 23
9280.944826768582
 33
0.0
 14
7477.152607796139
 24
7600.944826768575
 34
0.0
 50
90.0
100
AcDbRotatedDimension
1001
ACAD
1000
DSTYLE
1002
{
1070
   341
1005
0
1002
}
  0
DIMENSION
  5
120DA
330
747D
100
AcDbEntity
  8
寸法
 48
50.0
100
AcDbDimension
  2
*D5
 10
8247.899724840499
 20
9280.944826768582
 30
0.0
 11
8247.899724840497
 21
9644.430108142817
 31
0.0
 70
   160
 71
     5
 42
54.99999999999454
  3
INABA_S40G
100
AcDbAlignedDimension
 13
7477.152607796139
 23
9335.944826768576
 33
0.0
 14
7477.152607796139
 24
9280.944826768582
 34
0.0
 50
90.0
100
AcDbRotatedDimension
1001
ACAD
1000
DSTYLE
1002
{
1070
   341
1005
0
1002
}
  0
LINE
  5
120DB
330
747D
100
AcDbEntity
  8
Ｇ．Ｌ
 48
50.0
100
AcDbLine
 10
3017.249450564457
 20
2377.274643912294
 30
0.0
 11
14501.3437552696
 21
2377.274643912294
 31
0.0
  0
LINE
  5
120ED
330
747D
100
AcDbEntity
  8
部品1
100
AcDbLine
 10
4157.152607796138
 20
4317.274643912294
 30
0.0
 11
5922.152607796139
 21
4317.274643912294
 31
0.0
  0
LINE
  5
120F0
330
747D
100
AcDbEntity
  8
部品1
100
AcDbLine
 10
4157.152607796138
 20
4317.274643912294
 30
0.0
 11
7477.152607796139
 21
4317.274643912294
 31
0.0
  0
LINE
  5
120F1
330
747D
100
AcDbEntity
  8
部品1
100
AcDbLine
 10
4157.152607796138
 20
2477.274643912295
 30
0.0
 11
5922.152607796141
 21
2477.274643912295
 31
0.0
  0
LINE
  5
12102
330
747D
100
AcDbEntity
  8
部品1
100
AcDbLine
 10
4157.152607796138
 20
4411.2746439123
 30
0.0
 11
4157.152607796138
 21
2377.274643912295
 31
0.0
  0
TEXT
  5
12103
330
747D
100
AcDbEntity
  8
部品1
100
AcDbText
 10
3198.118814964903
 20
2392.116348783286
 30
0.0
 40
125.0
  1
G.L
  7
MSGOTHIC
100
AcDbText
  0
LINE
  5
12104
330
747D
100
AcDbEntity
  8
部品1
100
AcDbLine
 10
3055.634861265084
 20
2481.197692366428
 30
0.0
 11
3175.634861265084
 21
2481.197692366428
 31
0.0
  0
LINE
  5
12105
330
747D
100
AcDbEntity
  8
部品1
100
AcDbLine
 10
3175.634861265084
 20
2481.197692366428
 30
0.0
 11
3115.634861265084
 21
2377.274643912296
 31
0.0
  0
LINE
  5
12106
330
747D
100
AcDbEntity
  8
部品1
100
AcDbLine
 10
3115.634861265084
 20
2377.274643912296
 30
0.0
 11
3055.634861265084
 21
2481.197692366428
 31
0.0
  0
LINE
  5
12108
330
747D
100
AcDbEntity
  8
破線
 48
5.0
100
AcDbLine
 10
4152.152607796138
 20
2377.274643912297
 30
0.0
 11
4152.152607796138
 21
2222.274643912296
 31
0.0
  0
LINE
  5
1210C
330
747D
100
AcDbEntity
  8
破線
 48
5.0
100
AcDbLine
 10
4132.152607796139
 20
2222.274643912296
 30
0.0
 11
4152.152607796141
 21
2222.274643912296
 31
0.0
  0
LINE
  5
1210D
330
747D
100
AcDbEntity
  8
部品1
100
AcDbLine
 10
4152.152607796138
 20
2522.274643912297
 30
0.0
 11
4152.152607796138
 21
2377.274643912297
 31
0.0
  0
LINE
  5
12125
330
747D
100
AcDbEntity
  8
部品1
 48
50.0
100
AcDbLine
 10
5947.15260779614
 20
2527.274643912296
 30
0.0
 11
6002.152607796139
 21
2527.274643912296
 31
0.0
  0
LINE
  5
12130
330
747D
100
AcDbEntity
  8
部品1
100
AcDbLine
 10
6002.152607796139
 20
4317.274643912294
 30
0.0
 11
6002.152607796138
 21
2477.274643912295
 31
0.0
  0
LINE
  5
12161
330
747D
100
AcDbEntity
  8
部品1
 48
50.0
100
AcDbLine
 10
5947.15260779614
 20
2527.274643912296
 30
0.0
 11
5919.152607796142
 21
2527.274643912296
 31
0.0
  0
LINE
  5
12184
330
747D
100
AcDbEntity
  8
部品1
100
AcDbLine
 10
5947.15260779614
 20
4317.274643912294
 30
0.0
 11
5947.15260779614
 21
4411.2746439123
 31
0.0
  0
LINE
  5
121B5
330
747D
100
AcDbEntity
  8
部品1
100
AcDbLine
 10
7422.152607796139
 20
4317.274643912294
 30
0.0
 11
7422.152607796139
 21
2514.274643912295
 31
0.0
  0
LINE
  5
121B6
330
747D
100
AcDbEntity
  8
部品1
100
AcDbLine
 10
7477.152607796139
 20
4411.2746439123
 30
0.0
 11
7477.152607796139
 21
2477.274643912296
 31
0.0
  0
LINE
  5
121F1
330
747D
100
AcDbEntity
  8
部品1
100
AcDbLine
 10
4157.152607796137
 20
9280.944826768578
 30
0.0
 11
4185.15260779614
 21
9280.944826768578
 31
0.0
  0
LINE
  5
121F2
330
747D
100
AcDbEntity
  8
部品1
100
AcDbLine
 10
4212.152607796139
 20
9307.944826768586
 30
0.0
 11
4185.15260779614
 21
9307.944826768586
 31
0.0
  0
LINE
  5
121F3
330
747D
100
AcDbEntity
  8
部品1
100
AcDbLine
 10
5892.152607796138
 20
8020.94482676858
 30
0.0
 11
4212.152607796138
 21
8020.944826768579
 31
0.0
  0
LINE
  5
121F4
330
747D
100
AcDbEntity
  8
部品1
100
AcDbLine
 10
5892.152607796138
 20
8440.94482676858
 30
0.0
 11
4212.152607796141
 21
8440.944826768578
 31
0.0
  0
LINE
  5
121F8
330
747D
100
AcDbEntity
  8
部品1
100
AcDbLine
 10
5947.15260779614
 20
9335.944826768576
 30
0.0
 11
4157.152607796138
 21
9335.944826768576
 31
0.0
  0
LINE
  5
121F9
330
747D
100
AcDbEntity
  8
部品1
100
AcDbLine
 10
4157.152607796137
 20
7600.944826768579
 30
0.0
 11
4185.152607796139
 21
7600.944826768579
 31
0.0
  0
LINE
  5
121FA
330
747D
100
AcDbEntity
  8
部品1
100
AcDbLine
 10
4185.152607796137
 20
7573.944826768578
 30
0.0
 11
4212.152607796141
 21
7573.944826768578
 31
0.0
  0
DIMENSION
  5
121FB
330
747D
100
AcDbEntity
  8
寸法
 48
50.0
100
AcDbDimension
  2
*D6
 10
7477.152607796139
 20
10122.95068864641
 30
0.0
 11
5817.152607796138
 21
10122.95068864641
 31
0.0
 70
   160
 71
     5
 42
3320.0
  3
INABA_S40G
100
AcDbAlignedDimension
 13
4157.152607796138
 23
9335.944826768576
 33
0.0
 14
7477.152607796139
 24
9335.944826768576
 34
0.0
100
AcDbRotatedDimension
1001
ACAD
1000
DSTYLE
1002
{
1070
   341
1005
0
1002
}
  0
DIMENSION
  5
121FC
330
747D
100
AcDbEntity
  8
寸法
 48
50.0
100
AcDbDimension
  2
*D7
 10
5892.152607796139
 20
9816.831163394757
 30
0.0
 11
5052.152607796139
 21
9916.842974418379
 31
0.0
 70
    32
  1
4X420=<>
 71
     5
 42
1680.0
  3
INABA_S40G
100
AcDbAlignedDimension
 13
4212.152607796139
 23
9335.944826768576
 33
0.0
 14
5892.152607796139
 24
9335.94482676858
 34
0.0
100
AcDbRotatedDimension
1001
ACAD
1000
DSTYLE
1002
{
1070
   341
1005
0
1002
}
  0
LINE
  5
12202
330
747D
100
AcDbEntity
  8
部品1
100
AcDbLine
 10
4157.152607796138
 20
9335.944826768576
 30
0.0
 11
4157.152607796138
 21
7545.944826768579
 31
0.0
  0
LINE
  5
12203
330
747D
100
AcDbEntity
  8
部品1
100
AcDbLine
 10
4185.15260779614
 20
9307.944826768581
 30
0.0
 11
4185.15260779614
 21
9078.944826768578
 31
0.0
  0
LINE
  5
12204
330
747D
100
AcDbEntity
  8
部品1
100
AcDbLine
 10
4185.15260779614
 20
9280.944826768582
 30
0.0
 11
4185.152607796138
 21
7573.944826768578
 31
0.0
  0
LINE
  5
12206
330
747D
100
AcDbEntity
  8
部品1
100
AcDbLine
 10
4157.152607796138
 20
7545.944826768579
 30
0.0
 11
4212.152607796139
 21
7545.944826768577
 31
0.0
  0
LINE
  5
12207
330
747D
100
AcDbEntity
  8
部品1
 48
50.0
100
AcDbLine
 10
4185.152607796138
 20
7573.944826768578
 30
0.0
 11
4212.152607796135
 21
7600.944826768579
 31
0.0
  0
LINE
  5
12209
330
747D
100
AcDbEntity
  8
部品1
100
AcDbLine
 10
4185.15260779614
 20
7600.944826768575
 30
0.0
 11
4157.152607796138
 21
7600.944826768575
 31
0.0
  0
LINE
  5
12215
330
747D
100
AcDbEntity
  8
部品1
100
AcDbLine
 10
4185.15260779614
 20
8020.944826768582
 30
0.0
 11
4157.152607796138
 21
8020.944826768582
 31
0.0
  0
LINE
  5
12216
330
747D
100
AcDbEntity
  8
部品1
100
AcDbLine
 10
4185.15260779614
 20
8440.94482676858
 30
0.0
 11
4157.152607796138
 21
8440.94482676858
 31
0.0
  0
LINE
  5
12217
330
747D
100
AcDbEntity
  8
部品1
100
AcDbLine
 10
4185.15260779614
 20
8860.944826768582
 30
0.0
 11
4157.152607796138
 21
8860.944826768582
 31
0.0
  0
DIMENSION
  5
1221B
330
747D
100
AcDbEntity
  8
寸法
 48
50.0
100
AcDbDimension
  2
*D8
 10
4212.152607796139
 20
9816.831163394757
 30
0.0
 11
3848.6673264219
 21
9816.831163394757
 31
0.0
 70
   160
 71
     5
 42
55.0
  3
INABA_S40G
100
AcDbAlignedDimension
 13
4157.152607796138
 23
9335.944826768576
 33
0.0
 14
4212.152607796139
 24
9335.94482676858
 34
0.0
100
AcDbRotatedDimension
1001
ACAD
1000
DSTYLE
1002
{
1070
   341
1005
0
1002
}
  0
LINE
  5
1221C
330
747D
100
AcDbEntity
  8
部品1
 48
50.0
100
AcDbLine
 10
4185.15260779614
 20
9307.944826768581
 30
0.0
 11
4187.152607796256
 21
9305.944826768461
 31
0.0
  0
LINE
  5
1221D
330
747D
100
AcDbEntity
  8
部品1
100
AcDbLine
 10
4212.152607796139
 20
9335.94482676858
 30
0.0
 11
4212.152607796139
 21
9307.944826768579
 31
0.0
  0
LINE
  5
1221E
330
747D
100
AcDbEntity
  8
部品1
100
AcDbLine
 10
4185.15260779614
 20
9280.944826768582
 30
0.0
 11
4157.152607796138
 21
9280.944826768582
 31
0.0
  0
LINE
  5
12227
330
747D
100
AcDbEntity
  8
部品1
100
AcDbLine
 10
7422.152607796139
 20
9299.944826768575
 30
0.0
 11
7422.152607796139
 21
7581.944826768578
 31
0.0
  0
LINE
  5
1222F
330
747D
100
AcDbEntity
  8
部品1
100
AcDbLine
 10
5975.152607796135
 20
7545.944826768579
 30
0.0
 11
5975.152607796134
 21
7600.944826768574
 31
0.0
  0
LINE
  5
12231
330
747D
100
AcDbEntity
  8
破線
  6
HIDDEN
 48
10.0
100
AcDbLine
 10
5868.652607796139
 20
7624.444826768575
 30
0.0
 11
5868.652607796136
 21
8855.944826768562
 31
0.0
  0
LINE
  5
12232
330
747D
100
AcDbEntity
  8
部品1
100
AcDbLine
 10
5892.152607796139
 20
7600.944826768575
 30
0.0
 11
5892.152607796138
 21
8855.944826768562
 31
0.0
  0
LINE
  5
12233
330
747D
100
AcDbEntity
  8
部品1
100
AcDbLine
 10
5919.152607796139
 20
7545.944826768579
 30
0.0
 11
5919.152607796139
 21
9307.944826768581
 31
0.0
  0
LINE
  5
12235
330
747D
100
AcDbEntity
  8
部品1
100
AcDbLine
 10
7477.152607796139
 20
9335.944826768576
 30
0.0
 11
7477.152607796139
 21
7545.944826768579
 31
0.0
  0
LINE
  5
12236
330
747D
100
AcDbEntity
  8
部品1
100
AcDbLine
 10
7449.152607796136
 20
9299.944826768578
 30
0.0
 11
7449.152607796136
 21
9078.944826768578
 31
0.0
  0
LINE
  5
1223D
330
747D
100
AcDbEntity
  8
部品1
100
AcDbLine
 10
7477.152607796139
 20
7545.944826768577
 30
0.0
 11
7422.152607796139
 21
7545.944826768577
 31
0.0
  0
LINE
  5
1223E
330
747D
100
AcDbEntity
  8
部品1
100
AcDbLine
 10
7477.152607796139
 20
7600.944826768579
 30
0.0
 11
7449.152607796135
 21
7600.944826768579
 31
0.0
  0
LINE
  5
1223F
330
747D
100
AcDbEntity
  8
部品1
100
AcDbLine
 10
7449.152607796135
 20
7581.944826768578
 30
0.0
 11
7422.152607796139
 21
7581.944826768578
 31
0.0
  0
LINE
  5
1226B
330
747D
100
AcDbEntity
  8
破線
  6
HIDDEN
 48
10.0
100
AcDbLine
 10
4235.652607796136
 20
7624.44482676858
 30
0.0
 11
5027.152607796148
 21
7624.444826768577
 31
0.0
  0
LINE
  5
12278
330
747D
100
AcDbEntity
  8
部品1
 48
50.0
100
AcDbLine
 10
5919.152607796139
 20
7573.94482676858
 30
0.0
 11
5892.152607796139
 21
7600.944826768575
 31
0.0
  0
LINE
  5
12279
330
747D
100
AcDbEntity
  8
部品1
100
AcDbLine
 10
6002.152607796139
 20
7545.94482676858
 30
0.0
 11
5892.152607796141
 21
7545.944826768577
 31
0.0
  0
LINE
  5
1227B
330
747D
100
AcDbEntity
  8
部品1
100
AcDbLine
 10
6002.152607796139
 20
7545.944826768577
 30
0.0
 11
6002.152607796139
 21
7600.944826768575
 31
0.0
  0
LINE
  5
1227C
330
747D
100
AcDbEntity
  8
部品1
100
AcDbLine
 10
6002.152607796139
 20
7600.944826768575
 30
0.0
 11
5947.15260779614
 21
7600.944826768575
 31
0.0
  0
LINE
  5
1227D
330
747D
100
AcDbEntity
  8
部品1
100
AcDbLine
 10
5919.152607796139
 20
7600.944826768575
 30
0.0
 11
5947.15260779614
 21
7600.944826768575
 31
0.0
  0
LINE
  5
1227F
330
747D
100
AcDbEntity
  8
部品1
100
AcDbLine
 10
7449.152607796136
 20
9280.944826768582
 30
0.0
 11
7449.152607796136
 21
7581.944826768578
 31
0.0
  0
LINE
  5
1228A
330
747D
100
AcDbEntity
  8
部品1
100
AcDbLine
 10
7422.152607796139
 20
7545.944826768577
 30
0.0
 11
7422.152607796139
 21
7581.944826768578
 31
0.0
  0
LINE
  5
1228B
330
747D
100
AcDbEntity
  8
部品1
100
AcDbLine
 10
7449.152607796136
 20
7600.944826768575
 30
0.0
 11
7477.152607796139
 21
7600.944826768575
 31
0.0
  0
LINE
  5
1228C
330
747D
100
AcDbEntity
  8
部品1
100
AcDbLine
 10
7449.152607796136
 20
8020.944826768582
 30
0.0
 11
7477.152607796139
 21
8020.944826768582
 31
0.0
  0
LINE
  5
1228D
330
747D
100
AcDbEntity
  8
部品1
100
AcDbLine
 10
7449.152607796136
 20
8440.94482676858
 30
0.0
 11
7477.152607796139
 21
8440.94482676858
 31
0.0
  0
LINE
  5
1228E
330
747D
100
AcDbEntity
  8
部品1
100
AcDbLine
 10
7449.152607796136
 20
8860.944826768582
 30
0.0
 11
7477.152607796139
 21
8860.944826768582
 31
0.0
  0
LINE
  5
12292
330
747D
100
AcDbEntity
  8
部品1
100
AcDbLine
 10
7477.152607796139
 20
9280.94482676858
 30
0.0
 11
7449.15260779614
 21
9280.944826768582
 31
0.0
  0
DIMENSION
  5
12294
330
747D
100
AcDbEntity
  8
寸法
 48
50.0
100
AcDbDimension
  2
*D9
 10
7422.152607796139
 20
9816.831163394757
 30
0.0
 11
6712.152607796139
 21
9816.831163394757
 31
0.0
 70
   160
  1
腰パネル <>
 71
     5
 42
1420.0
  3
INABA_S40G
100
AcDbAlignedDimension
 13
6002.152607796139
 23
9335.94482676858
 33
0.0
 14
7422.152607796139
 24
9335.94482676858
 34
0.0
100
AcDbRotatedDimension
1001
ACAD
1000
DSTYLE
1002
{
1070
   341
1005
0
1002
}
  0
LINE
  5
12295
330
747D
100
AcDbEntity
  8
部品1
100
AcDbLine
 10
5947.15260779614
 20
9335.944826768576
 30
0.0
 11
6002.152607796138
 21
9335.944826768576
 31
0.0
  0
LINE
  5
12297
330
747D
100
AcDbEntity
  8
部品1
100
AcDbLine
 10
5472.152607796139
 20
9307.944826768581
 30
0.0
 11
5064.652607796139
 21
9307.944826768581
 31
0.0
  0
LINE
  5
12299
330
747D
100
AcDbEntity
  8
部品1
100
AcDbLine
 10
4632.152607796138
 20
9335.94482676858
 30
0.0
 11
4632.152607796138
 21
9307.944826768579
 31
0.0
  0
LINE
  5
1229A
330
747D
100
AcDbEntity
  8
部品1
100
AcDbLine
 10
5052.152607796139
 20
9335.94482676858
 30
0.0
 11
5052.152607796139
 21
9307.944826768579
 31
0.0
  0
LINE
  5
1229C
330
747D
100
AcDbEntity
  8
部品1
100
AcDbLine
 10
5919.152607796139
 20
9307.944826768581
 30
0.0
 11
5472.152607796139
 21
9307.944826768581
 31
0.0
  0
LINE
  5
1229D
330
747D
100
AcDbEntity
  8
部品1
100
AcDbLine
 10
5472.152607796139
 20
9335.94482676858
 30
0.0
 11
5472.152607796139
 21
9307.944826768579
 31
0.0
  0
LINE
  5
1229E
330
747D
100
AcDbEntity
  8
部品1
100
AcDbLine
 10
5892.152607796139
 20
9335.94482676858
 30
0.0
 11
5892.152607796139
 21
9307.944826768579
 31
0.0
  0
DIMENSION
  5
1229F
330
747D
100
AcDbEntity
  8
寸法
 48
50.0
100
AcDbDimension
  2
*D10
 10
6002.152607796139
 20
9816.831163394757
 30
0.0
 11
5947.152607796139
 21
9816.831163394757
 31
0.0
 70
   160
 71
     5
 42
110.0
  3
INABA_S40G
100
AcDbAlignedDimension
 13
5892.152607796139
 23
9335.94482676858
 33
0.0
 14
6002.152607796139
 24
9335.94482676858
 34
0.0
100
AcDbRotatedDimension
1001
ACAD
1000
DSTYLE
1002
{
1070
   341
1005
0
1002
}
  0
LINE
  5
122A1
330
747D
100
AcDbEntity
  8
部品1
 48
50.0
100
AcDbLine
 10
5919.152607796139
 20
9307.944826768581
 30
0.0
 11
5917.152607796116
 21
9305.944826768557
 31
0.0
  0
LINE
  5
122A2
330
747D
100
AcDbEntity
  8
部品1
100
AcDbLine
 10
6002.152607796139
 20
9280.944826768582
 30
0.0
 11
5947.15260779614
 21
9280.944826768582
 31
0.0
  0
LINE
  5
122A3
330
747D
100
AcDbEntity
  8
部品1
100
AcDbLine
 10
5892.152607796139
 20
9335.94482676858
 30
0.0
 11
5892.152607796139
 21
9307.944826768579
 31
0.0
  0
LINE
  5
122A4
330
747D
100
AcDbEntity
  8
部品1
100
AcDbLine
 10
5919.152607796139
 20
9280.944826768582
 30
0.0
 11
5947.15260779614
 21
9280.944826768582
 31
0.0
  0
LINE
  5
122A5
330
747D
100
AcDbEntity
  8
部品1
100
AcDbLine
 10
6002.152607796139
 20
9335.94482676858
 30
0.0
 11
6002.152607796139
 21
9307.944826768579
 31
0.0
  0
LINE
  5
122A6
330
747D
100
AcDbEntity
  8
部品1
100
AcDbLine
 10
6002.152607796139
 20
9335.94482676858
 30
0.0
 11
6002.152607796139
 21
9280.944826768582
 31
0.0
  0
LINE
  5
122B0
330
747D
100
AcDbEntity
  8
部品1
100
AcDbLine
 10
7422.152607796139
 20
9299.944826768577
 30
0.0
 11
7449.152607796136
 21
9299.944826768577
 31
0.0
  0
LINE
  5
122B4
330
747D
100
AcDbEntity
  8
部品1
100
AcDbLine
 10
7422.152607796139
 20
9335.94482676858
 30
0.0
 11
7422.152607796139
 21
9299.944826768578
 31
0.0
  0
LINE
  5
122B5
330
747D
100
AcDbEntity
  8
部品1
100
AcDbLine
 10
7449.152607796136
 20
9280.944826768582
 30
0.0
 11
7477.152607796139
 21
9280.944826768582
 31
0.0
  0
LINE
  5
1388E
330
747D
100
AcDbEntity
  8
部品1
100
AcDbLine
 10
5919.15261003971
 20
9307.944830345748
 30
0.0
 11
5919.15261003971
 21
9335.94483034575
 31
0.0
  0
LINE
  5
1388F
330
747D
100
AcDbEntity
  8
部品1
100
AcDbLine
 10
5975.152610039708
 20
9307.944830345748
 30
0.0
 11
5975.152610039708
 21
9335.944830345743
 31
0.0
  0
LINE
  5
139A0
330
747D
100
AcDbEntity
  8
部品1
 48
50.0
100
AcDbLine
 10
4212.152607796141
 20
7573.944826768574
 30
0.0
 11
5892.152607796141
 21
7573.944826768633
 31
0.0
  0
TEXT
  5
13EEF
330
747D
100
AcDbEntity
  8
部品1
100
AcDbText
 10
11378.38502486033
 20
1484.381114693771
 30
0.0
 40
135.0
  1
側面図
  7
STYLE2
100
AcDbText
  0
LWPOLYLINE
  5
13EF0
330
747D
100
AcDbEntity
  8
部品1
100
AcDbPolyline
 90
        4
 70
     1
 43
0.0
 10
11288.93892343673
 20
1677.274643912296
 10
11288.93892343673
 20
1437.382322366764
 10
12049.66426495492
 20
1437.382322366764
 10
12049.66426495492
 20
1677.274643912296
  0
TEXT
  5
14142
330
747D
100
AcDbEntity
  8
文字
 62
     7
 48
50.0
100
AcDbText
 10
13980.45176739714
 20
483.896712991141
 30
0.0
 40
160.0
  1
ＮＸＮ-３２Ｓ・２８ＣＳＫ
  7
STYLE2
100
AcDbText
  0
LWPOLYLINE
  5
14143
330
747D
100
AcDbEntity
  8
部品1
100
AcDbPolyline
 90
        4
 70
     1
 43
0.0
 10
5435.417274681918
 20
1677.274643912296
 10
5435.417274681918
 20
1437.382322366764
 10
6198.887940910357
 20
1437.382322366764
 10
6198.887940910357
 20
1677.274643912296
  0
TEXT
  5
14144
330
747D
100
AcDbEntity
  8
部品1
100
AcDbText
 10
5525.942678419875
 20
1484.381114693771
 30
0.0
 40
135.0
  1
正面図
  7
STYLE2
100
AcDbText
  0
TEXT
  5
14145
330
747D
100
AcDbEntity
  8
部品1
100
AcDbText
 10
5525.336884510975
 20
6189.491030010218
 30
0.0
 40
135.0
  1
平面図
  7
STYLE2
100
AcDbText
  0
LWPOLYLINE
  5
14146
330
747D
100
AcDbEntity
  8
部品1
100
AcDbPolyline
 90
        4
 70
     1
 43
0.0
 10
5435.417274681932
 20
6382.384559228742
 10
5435.417274681932
 20
6142.492237683209
 10
6198.887940910376
 20
6142.492237683209
 10
6198.887940910376
 20
6382.384559228742
  0
DIMENSION
  5
171E6
330
747D
100
AcDbEntity
  8
寸法
 48
50.0
100
AcDbDimension
  2
*D13
 10
4157.152607796138
 20
4764.81622917054
 30
0.0
 11
5817.152607796141
 21
4764.81622917054
 31
0.0
 70
   160
  1
柱外寸法<>
 71
     5
 42
3320.000000000004
  3
INABA_S40G
100
AcDbAlignedDimension
 13
7477.152607796142
 23
4552.274643912297
 33
0.0
 14
4157.152607796138
 24
4552.274643912304
 34
0.0
100
AcDbRotatedDimension
1001
ACAD
1000
DSTYLE
1002
{
1070
   341
1005
0
1002
}
  0
DIMENSION
  5
171E7
330
747D
100
AcDbEntity
  8
寸法
 48
50.0
100
AcDbDimension
  2
*D12
 10
7477.152607796142
 20
4764.816229170537
 30
0.0
 11
7833.199851890632
 21
4764.816229170537
 31
0.0
 70
   160
 71
     5
 42
50.0
  3
INABA_S40G
100
AcDbAlignedDimension
 13
7527.152607796143
 23
4552.274643912297
 33
0.0
 14
7477.152607796142
 24
4552.274643912298
 34
0.0
100
AcDbRotatedDimension
1001
ACAD
1000
DSTYLE
1002
{
1070
   341
1005
0
1002
}
  0
DIMENSION
  5
171E8
330
747D
100
AcDbEntity
  8
寸法
 48
50.0
100
AcDbDimension
  2
*D11
 10
7527.152607796143
 20
4985.721529644288
 30
0.0
 11
5817.152607796141
 21
4985.721529644288
 31
0.0
 70
   160
 71
     5
 42
3420.000000000004
  3
INABA_S40G
100
AcDbAlignedDimension
 13
4107.152607796138
 23
4552.274643912301
 33
0.0
 14
7527.152607796143
 24
4552.274643912297
 34
0.0
100
AcDbRotatedDimension
1001
ACAD
1000
DSTYLE
1002
{
1070
   341
1005
0
1002
}
  0
ARC
  5
171E9
330
747D
100
AcDbEntity
  8
部品1
100
AcDbCircle
 10
7519.74418668971
 20
4545.274643912296
 30
0.0
 40
7.0
100
AcDbArc
 50
356.7526572096622
 51
90.0
  0
ARC
  5
171EA
330
747D
100
AcDbEntity
  8
部品1
100
AcDbCircle
 10
7506.528863228675
 20
4418.274643912298
 30
0.0
 40
7.0
100
AcDbArc
 50
270.0
 51
356.7526572096622
  0
ARC
  5
171EB
330
747D
100
AcDbEntity
  8
部品1
 48
50.0
100
AcDbCircle
 10
7524.900673439354
 20
4524.941643073984
 30
0.0
 40
0.7
100
AcDbArc
 50
277.6581272073638
 51
356.7526572096099
  0
ARC
  5
171EC
330
747D
100
AcDbEntity
  8
部品1
 48
50.0
100
AcDbCircle
 10
7516.664642914512
 20
4432.741643073979
 30
0.0
 40
0.7
100
AcDbArc
 50
277.6581272073638
 51
356.7526572097141
  0
ARC
  5
171ED
330
747D
100
AcDbEntity
  8
部品1
 48
50.0
100
AcDbCircle
 10
7517.157712023072
 20
4429.074643912297
 30
0.0
 40
3.0
100
AcDbArc
 50
97.65812720736377
 51
176.7526572096621
  0
ARC
  5
171EE
330
747D
100
AcDbEntity
  8
部品1
 48
50.0
100
AcDbCircle
 10
7525.393742547916
 20
4521.274643912298
 30
0.0
 40
3.0
100
AcDbArc
 50
97.65812720736377
 51
176.7526572096621
  0
LINE
  5
171EF
330
747D
100
AcDbEntity
  8
部品1
100
AcDbLine
 10
7522.398559651731
 20
4521.4445833674
 30
0.0
 11
7517.36351892362
 21
4432.701990534456
 31
0.0
  0
LINE
  5
171F0
330
747D
100
AcDbEntity
  8
部品1
100
AcDbLine
 10
7514.162529126886
 20
4429.244583367399
 30
0.0
 11
7513.517623319774
 21
4417.878118517059
 31
0.0
  0
LINE
  5
171F1
330
747D
100
AcDbEntity
  8
細線
 48
50.0
100
AcDbLine
 10
7494.152607796142
 20
4552.274643912297
 30
0.0
 11
7494.152607796142
 21
4411.274643912296
 31
0.0
  0
LINE
  5
171F2
330
747D
100
AcDbEntity
  8
部品1
100
AcDbLine
 10
7526.732946780808
 20
4544.878118517057
 30
0.0
 11
7525.599549448464
 21
4524.901990534457
 31
0.0
  0
LINE
  5
171F3
330
747D
100
AcDbEntity
  8
部品1
 48
50.0
100
AcDbLine
 10
7506.528863228675
 20
4411.274643912299
 30
0.0
 11
4127.776352363603
 21
4411.274643912299
 31
0.0
  0
LINE
  5
171F4
330
747D
100
AcDbEntity
  8
細線
 48
50.0
100
AcDbLine
 10
7516.757926259761
 20
4432.047886475813
 30
0.0
 11
4117.547289331745
 21
4432.047886476246
 31
0.0
  0
LINE
  5
171F5
330
747D
100
AcDbEntity
  8
細線
 48
50.0
100
AcDbLine
 10
7524.99395678457
 20
4524.247886475814
 30
0.0
 11
4109.311258806914
 21
4524.247886476246
 31
0.0
  0
LINE
  5
171F6
330
747D
100
AcDbEntity
  8
部品1
 48
50.0
100
AcDbLine
 10
7519.74418668971
 20
4552.274643912297
 30
0.0
 11
4114.561028902568
 21
4552.274643912297
 31
0.0
  0
DIMENSION
  5
1723A
330
747D
100
AcDbEntity
  8
寸法
 48
50.0
100
AcDbDimension
  2
*D14
 10
4107.152607796138
 20
4764.81622917054
 30
0.0
 11
3801.10536370165
 21
4764.81622917054
 31
0.0
 70
   160
 71
     5
 42
50.0
  3
INABA_S40G
100
AcDbAlignedDimension
 13
4157.152607796138
 23
4552.274643912304
 33
0.0
 14
4107.152607796138
 24
4552.274643912301
 34
0.0
100
AcDbRotatedDimension
1001
ACAD
1000
DSTYLE
1002
{
1070
   341
1005
0
1002
}
  0
LINE
  5
1723B
330
747D
100
AcDbEntity
  8
部品1
100
AcDbLine
 10
4107.572268811469
 20
4544.87811851706
 30
0.0
 11
4108.705666143818
 21
4524.901990534459
 31
0.0
  0
LINE
  5
1723C
330
747D
100
AcDbEntity
  8
部品1
100
AcDbLine
 10
4120.142686465395
 20
4429.244583367403
 30
0.0
 11
4120.787592272503
 21
4417.878118517062
 31
0.0
  0
LINE
  5
1723D
330
747D
100
AcDbEntity
  8
部品1
100
AcDbLine
 10
4111.906655940547
 20
4521.444583367403
 30
0.0
 11
4116.941696668658
 21
4432.70199053446
 31
0.0
  0
ARC
  5
1723E
330
747D
100
AcDbEntity
  8
部品1
 48
50.0
100
AcDbCircle
 10
4108.911473044361
 20
4521.2746439123
 30
0.0
 40
3.0
100
AcDbArc
 50
3.247342790337817
 51
82.34187279263622
  0
ARC
  5
1723F
330
747D
100
AcDbEntity
  8
部品1
 48
50.0
100
AcDbCircle
 10
4117.147503569206
 20
4429.074643912297
 30
0.0
 40
3.0
100
AcDbArc
 50
3.247342790337817
 51
82.34187279263622
  0
ARC
  5
17240
330
747D
100
AcDbEntity
  8
部品1
 48
50.0
100
AcDbCircle
 10
4117.640572677767
 20
4432.741643073983
 30
0.0
 40
0.7
100
AcDbArc
 50
183.2473427902859
 51
262.3418727926362
  0
ARC
  5
17241
330
747D
100
AcDbEntity
  8
部品1
 48
50.0
100
AcDbCircle
 10
4109.404542152926
 20
4524.941643073987
 30
0.0
 40
0.7
100
AcDbArc
 50
183.24734279039
 51
262.3418727926362
  0
ARC
  5
17242
330
747D
100
AcDbEntity
  8
部品1
100
AcDbCircle
 10
4127.776352363603
 20
4418.2746439123
 30
0.0
 40
7.0
100
AcDbArc
 50
183.2473427903378
 51
270.0
  0
ARC
  5
17243
330
747D
100
AcDbEntity
  8
部品1
100
AcDbCircle
 10
4114.561028902568
 20
4545.2746439123
 30
0.0
 40
7.0
100
AcDbArc
 50
90.0
 51
183.2473427903378
  0
LINE
  5
17244
330
747D
100
AcDbEntity
  8
細線
 48
50.0
100
AcDbLine
 10
4140.152607796139
 20
4552.2746439123
 30
0.0
 11
4140.152607796139
 21
4411.2746439123
 31
0.0
  0
LINE
  5
18066
330
747D
100
AcDbEntity
  8
破線
 48
10.0
100
AcDbLine
 10
5077.15260779614
 20
7600.944826768584
 30
0.0
 11
5077.152607796141
 21
8855.944826768569
 31
0.0
  0
LINE
  5
18067
330
747D
100
AcDbEntity
  8
破線
 48
10.0
100
AcDbLine
 10
5027.152607796149
 20
7600.944826768584
 30
0.0
 11
5027.152607796141
 21
8855.944826768565
 31
0.0
  0
LINE
  5
185D7
330
747D
100
AcDbEntity
  8
部品1
100
AcDbLine
 10
5937.152607796139
 20
4411.274643912299
 30
0.0
 11
5937.152607796137
 21
4552.274643912294
 31
0.0
  0
LINE
  5
18E47
330
747D
100
AcDbEntity
  8
部品1
100
AcDbLine
 10
7449.152607796135
 20
8860.94482676858
 30
0.0
 11
7477.152607796139
 21
8860.94482676858
 31
0.0
  0
LINE
  5
18E48
330
747D
100
AcDbEntity
  8
部品1
100
AcDbLine
 10
7449.152607796135
 20
8440.94482676858
 30
0.0
 11
7477.152607796139
 21
8440.94482676858
 31
0.0
  0
LINE
  5
18E49
330
747D
100
AcDbEntity
  8
部品1
100
AcDbLine
 10
7449.152607796135
 20
8020.944826768579
 30
0.0
 11
7477.152607796139
 21
8020.94482676858
 31
0.0
  0
LINE
  5
1976D
330
747D
100
AcDbEntity
  8
部品1
100
AcDbLine
 10
4185.152607796139
 20
8860.944826768575
 30
0.0
 11
4157.152607796138
 21
8860.944826768575
 31
0.0
  0
LINE
  5
1976E
330
747D
100
AcDbEntity
  8
部品1
100
AcDbLine
 10
4185.152607796139
 20
8440.944826768578
 30
0.0
 11
4157.152607796138
 21
8440.944826768577
 31
0.0
  0
LINE
  5
1976F
330
747D
100
AcDbEntity
  8
部品1
100
AcDbLine
 10
4185.152607796139
 20
8020.944826768579
 30
0.0
 11
4157.152607796138
 21
8020.944826768577
 31
0.0
  0
LINE
  5
19770
330
747D
100
AcDbEntity
  8
部品1
100
AcDbLine
 10
4212.152607796133
 20
7600.944826768579
 30
0.0
 11
5892.152607796139
 21
7600.944826768575
 31
0.0
  0
LINE
  5
19772
330
747D
100
AcDbEntity
  8
部品1
100
AcDbLine
 10
5892.152607796141
 20
7545.944826768577
 30
0.0
 11
5892.152607796141
 21
7573.944826768578
 31
0.0
  0
LINE
  5
19773
330
747D
100
AcDbEntity
  8
部品1
100
AcDbLine
 10
4157.152607796141
 20
7545.944826768577
 30
0.0
 11
4212.152607796141
 21
7545.944826768579
 31
0.0
  0
LINE
  5
19777
330
747D
100
AcDbEntity
  8
部品1
100
AcDbLine
 10
4212.152607796141
 20
7545.944826768577
 30
0.0
 11
4212.152607796141
 21
7573.944826768578
 31
0.0
  0
LINE
  5
1977A
330
747D
100
AcDbEntity
  8
破線
  6
HIDDEN
 48
10.0
100
AcDbLine
 10
5077.152607796139
 20
7624.444826768577
 30
0.0
 11
5868.652607796139
 21
7624.444826768575
 31
0.0
  0
LINE
  5
19B2E
330
747D
100
AcDbEntity
  8
寸法
 48
50.0
100
AcDbLine
 10
4647.355614077984
 20
7323.98157833744
 30
0.0
 11
4595.94960616788
 21
7323.98157833744
 31
0.0
  0
LINE
  5
19B2F
330
747D
100
AcDbEntity
  8
寸法
 48
50.0
100
AcDbLine
 10
4595.94960616788
 20
7323.98157833744
 30
0.0
 11
4595.94960616788
 21
7355.291736989606
 31
0.0
  0
LINE
  5
19B30
330
747D
100
AcDbEntity
  8
寸法
 48
50.0
100
AcDbLine
 10
4595.94960616788
 20
7355.291736989606
 30
0.0
 11
4566.188274176457
 21
7355.291736989606
 31
0.0
  0
LINE
  5
19B31
330
747D
100
AcDbEntity
  8
寸法
 48
50.0
100
AcDbLine
 10
4566.188274176457
 20
7355.291736989606
 30
0.0
 11
4621.652610122931
 21
7392.871187918216
 31
0.0
  0
LINE
  5
19B32
330
747D
100
AcDbEntity
  8
寸法
 48
50.0
100
AcDbLine
 10
4677.116946069407
 20
7355.291736989606
 30
0.0
 11
4621.652610122931
 21
7392.871187918216
 31
0.0
  0
LINE
  5
19B33
330
747D
100
AcDbEntity
  8
寸法
 48
50.0
100
AcDbLine
 10
4647.355614077984
 20
7355.291736989606
 30
0.0
 11
4677.116946069407
 21
7355.291736989606
 31
0.0
  0
LINE
  5
19B34
330
747D
100
AcDbEntity
  8
寸法
 48
50.0
100
AcDbLine
 10
4647.355614077984
 20
7323.98157833744
 30
0.0
 11
4647.355614077984
 21
7355.291736989606
 31
0.0
  0
LINE
  5
19B35
330
747D
100
AcDbEntity
  8
寸法
 48
50.0
100
AcDbLine
 10
4595.94960616788
 20
7323.98157833744
 30
0.0
 11
4647.355614077984
 21
7323.98157833744
 31
0.0
  0
LINE
  5
19B36
330
747D
100
AcDbEntity
  8
寸法
 48
50.0
100
AcDbLine
 10
4926.521148354841
 20
7381.127169092263
 30
0.0
 11
4926.521148354841
 21
7327.463534510473
 31
0.0
  0
LINE
  5
19B37
330
747D
100
AcDbEntity
  8
寸法
 48
50.0
100
AcDbLine
 10
5015.805366950263
 20
7357.203534822777
 30
0.0
 11
4926.521148354841
 21
7381.127169092263
 31
0.0
  0
LINE
  5
19B38
330
747D
100
AcDbEntity
  8
寸法
 48
50.0
100
AcDbLine
 10
4796.653426774537
 20
7357.203534822777
 30
0.0
 11
5015.805366950263
 21
7357.203534822777
 31
0.0
  0
LINE
  5
19B39
330
747D
100
AcDbEntity
  8
細線
 48
50.0
100
AcDbLine
 10
5345.652612947051
 20
7522.444941717302
 30
0.0
 11
5880.152607796139
 21
7522.444941717302
 31
0.0
  0
LINE
  5
19B3A
330
747D
100
AcDbEntity
  8
細線
 48
50.0
100
AcDbLine
 10
4853.652607796139
 20
7488.736173163227
 30
0.0
 11
5880.152607796137
 21
7488.736173163227
 31
0.0
  0
LINE
  5
19B3B
330
747D
100
AcDbEntity
  8
細線
 48
50.0
100
AcDbLine
 10
4812.652607796143
 20
7518.14108115948
 30
0.0
 11
4224.152607796138
 21
7518.141081159476
 31
0.0
  0
LINE
  5
19B3C
330
747D
100
AcDbEntity
  8
細線
100
AcDbLine
 10
5702.152598379682
 20
7541.94484168231
 30
0.0
 11
5704.484137901491
 21
7546.944844322272
 31
0.0
  0
LINE
  5
19B3D
330
747D
100
AcDbEntity
  8
細線
100
AcDbLine
 10
5772.152607796139
 20
7541.944826768577
 30
0.0
 11
5769.821061319948
 21
7546.944844322258
 31
0.0
  0
LINE
  5
19B3E
330
747D
100
AcDbEntity
  8
細線
100
AcDbLine
 10
5769.821061319948
 20
7546.944844322258
 30
0.0
 11
5704.484137901476
 21
7546.944844322243
 31
0.0
  0
LINE
  5
19B3F
330
747D
100
AcDbEntity
  8
細線
100
AcDbLine
 10
5629.821061319947
 20
7546.944844322258
 30
0.0
 11
5564.484137901477
 21
7546.944844322243
 31
0.0
  0
LINE
  5
19B40
330
747D
100
AcDbEntity
  8
細線
100
AcDbLine
 10
5632.152607796139
 20
7541.944826768577
 30
0.0
 11
5629.821061319947
 21
7546.944844322258
 31
0.0
  0
LINE
  5
19B41
330
747D
100
AcDbEntity
  8
細線
100
AcDbLine
 10
5562.152598379682
 20
7541.94484168231
 30
0.0
 11
5564.484137901491
 21
7546.944844322272
 31
0.0
  0
LINE
  5
19B42
330
747D
100
AcDbEntity
  8
細線
100
AcDbLine
 10
5422.152607796139
 20
7541.944826768577
 30
0.0
 11
5424.484147317947
 21
7546.944829408538
 31
0.0
  0
LINE
  5
19B43
330
747D
100
AcDbEntity
  8
細線
100
AcDbLine
 10
5492.152617212596
 20
7541.944811854843
 30
0.0
 11
5489.821070736405
 21
7546.944829408523
 31
0.0
  0
LINE
  5
19B44
330
747D
100
AcDbEntity
  8
細線
100
AcDbLine
 10
5489.821070736408
 20
7546.944829408523
 30
0.0
 11
5424.484147317933
 21
7546.944829408508
 31
0.0
  0
LINE
  5
19B45
330
747D
100
AcDbEntity
  8
細線
 48
50.0
100
AcDbLine
 10
5165.535956378855
 20
7526.215689921658
 30
0.0
 11
5171.291473961523
 21
7507.944838631171
 31
0.0
  0
LINE
  5
19B46
330
747D
100
AcDbEntity
  8
細線
 48
50.0
100
AcDbLine
 10
5154.607507898425
 20
7526.215689921658
 30
0.0
 11
5165.535956378855
 21
7526.215689921658
 31
0.0
  0
ARC
  5
19B47
330
747D
100
AcDbEntity
  8
細線
 48
50.0
100
AcDbCircle
 10
5149.153151841106
 20
7527.715689921658
 30
0.0
 40
5.0
100
AcDbArc
 50
204.6243183520757
 51
335.3756816479243
  0
ARC
  5
19B48
330
747D
100
AcDbEntity
  8
細線
 48
50.0
100
AcDbCircle
 10
5154.607507898425
 20
7525.215689921657
 30
0.0
 40
1.0
100
AcDbArc
 50
90.0
 51
155.3756816479243
  0
ARC
  5
19B49
330
747D
100
AcDbEntity
  8
細線
 48
50.0
100
AcDbCircle
 10
5143.698795783788
 20
7525.215689921657
 30
0.0
 40
1.0
100
AcDbArc
 50
24.62431835207568
 51
90.0
  0
LINE
  5
19B4A
330
747D
100
AcDbEntity
  8
細線
 48
50.0
100
AcDbLine
 10
5132.770347303354
 20
7526.215689921658
 30
0.0
 11
5143.698795783788
 21
7526.215689921658
 31
0.0
  0
LINE
  5
19B4B
330
747D
100
AcDbEntity
  8
細線
 48
50.0
100
AcDbLine
 10
5127.014829720691
 20
7507.944838631164
 30
0.0
 11
5132.770347303354
 21
7526.215689921658
 31
0.0
  0
LINE
  5
19B4C
330
747D
100
AcDbEntity
  8
細線
100
AcDbLine
 10
5184.152607796139
 20
7507.944815687446
 30
0.0
 11
5186.484147317948
 21
7512.944818327408
 31
0.0
  0
LINE
  5
19B4D
330
747D
100
AcDbEntity
  8
細線
100
AcDbLine
 10
5254.152617212596
 20
7507.944800773713
 30
0.0
 11
5251.821070736409
 21
7512.944818327392
 31
0.0
  0
LINE
  5
19B4E
330
747D
100
AcDbEntity
  8
細線
100
AcDbLine
 10
5251.821070736409
 20
7512.944818327392
 30
0.0
 11
5186.484147317937
 21
7512.944818327378
 31
0.0
  0
LINE
  5
19B4F
330
747D
100
AcDbEntity
  8
細線
100
AcDbLine
 10
5111.821034186476
 20
7512.944838631134
 30
0.0
 11
5046.484110767996
 21
7512.94483863112
 31
0.0
  0
LINE
  5
19B50
330
747D
100
AcDbEntity
  8
細線
100
AcDbLine
 10
5114.152580662659
 20
7507.944821077455
 30
0.0
 11
5111.821034186473
 21
7512.944838631134
 31
0.0
  0
LINE
  5
19B51
330
747D
100
AcDbEntity
  8
細線
100
AcDbLine
 10
5044.152572477244
 20
7507.944838631164
 30
0.0
 11
5046.484110768012
 21
7512.944838631149
 31
0.0
  0
LINE
  5
19B52
330
747D
100
AcDbEntity
  8
細線
100
AcDbLine
 10
4904.152607796139
 20
7507.944846818533
 30
0.0
 11
4906.484146086906
 21
7512.944846818519
 31
0.0
  0
LINE
  5
19B53
330
747D
100
AcDbEntity
  8
細線
100
AcDbLine
 10
4974.152615981555
 20
7507.944829264824
 30
0.0
 11
4971.821069505364
 21
7512.9448468185
 31
0.0
  0
LINE
  5
19B54
330
747D
100
AcDbEntity
  8
細線
100
AcDbLine
 10
4971.821069505364
 20
7512.9448468185
 30
0.0
 11
4906.484146086892
 21
7512.944846818489
 31
0.0
  0
LINE
  5
19B55
330
747D
100
AcDbEntity
  8
細線
100
AcDbLine
 10
4665.152599610723
 20
7473.945018499247
 30
0.0
 11
4667.484137901491
 21
7478.945018499231
 31
0.0
  0
LINE
  5
19B56
330
747D
100
AcDbEntity
  8
細線
100
AcDbLine
 10
4735.152607796139
 20
7473.945000945533
 30
0.0
 11
4732.821061319948
 21
7478.945018499209
 31
0.0
  0
LINE
  5
19B57
330
747D
100
AcDbEntity
  8
細線
100
AcDbLine
 10
4732.821061319948
 20
7478.945018499209
 30
0.0
 11
4667.484137901475
 21
7478.945018499202
 31
0.0
  0
LINE
  5
19B58
330
747D
100
AcDbEntity
  8
細線
100
AcDbLine
 10
4592.821061319948
 20
7478.945018499209
 30
0.0
 11
4527.484137901476
 21
7478.945018499199
 31
0.0
  0
LINE
  5
19B59
330
747D
100
AcDbEntity
  8
細線
100
AcDbLine
 10
4595.152607796139
 20
7473.945000945533
 30
0.0
 11
4592.821061319948
 21
7478.945018499209
 31
0.0
  0
LINE
  5
19B5A
330
747D
100
AcDbEntity
  8
細線
100
AcDbLine
 10
4525.152599610723
 20
7473.945018499242
 30
0.0
 11
4527.484137901491
 21
7478.945018499228
 31
0.0
  0
ARC
  5
19B5B
330
747D
100
AcDbEntity
  8
部品1
 48
0.01
100
AcDbCircle
 10
4384.652501197393
 20
7472.943896314173
 30
0.0
 40
0.5
100
AcDbArc
 50
270.0
 51
0.0
  0
LINE
  5
19B5C
330
747D
100
AcDbEntity
  8
部品1
 48
0.01
100
AcDbLine
 10
4385.152501197393
 20
7473.943896314174
 30
0.0
 11
4385.152501197393
 21
7472.943896314173
 31
0.0
  0
LINE
  5
19B5D
330
747D
100
AcDbEntity
  8
部品1
 48
0.01
100
AcDbLine
 10
4385.152501197393
 20
7473.943896314174
 30
0.0
 11
4385.152501197393
 21
7472.943896314173
 31
0.0
  0
LINE
  5
19B5E
330
747D
100
AcDbEntity
  8
部品1
 48
0.01
100
AcDbLine
 10
4384.652501197393
 20
7472.443896314174
 30
0.0
 11
4378.039995767329
 21
7472.443896314174
 31
0.0
  0
ARC
  5
19B5F
330
747D
100
AcDbEntity
  8
部品1
100
AcDbCircle
 10
4378.10834532011
 20
7473.443896314172
 30
0.0
 40
1.0
100
AcDbArc
 50
160.528779365583
 51
270.0
  0
ARC
  5
19B60
330
747D
100
AcDbEntity
  8
部品1
100
AcDbCircle
 10
4352.652501197393
 20
7482.443896314173
 30
0.0
 40
26.0
100
AcDbArc
 50
340.528779365583
 51
0.0
  0
LINE
  5
19B61
330
747D
100
AcDbEntity
  8
部品1
100
AcDbLine
 10
4378.652501197393
 20
7482.443896314173
 30
0.0
 11
4378.652501197393
 21
7487.443896314172
 31
0.0
  0
ARC
  5
19B62
330
747D
100
AcDbEntity
  8
部品1
 48
0.01
100
AcDbCircle
 10
4376.652501197393
 20
7487.443896314172
 30
0.0
 40
2.0
100
AcDbArc
 50
0.0
 51
90.0
  0
ARC
  5
19B63
330
747D
100
AcDbEntity
  8
部品1
100
AcDbCircle
 10
4375.044109572583
 20
7486.443896314174
 30
0.0
 40
3.0
100
AcDbArc
 50
90.0
 51
141.6069559807907
  0
LINE
  5
19B64
330
747D
100
AcDbEntity
  8
部品1
 48
0.01
100
AcDbLine
 10
4376.652501197393
 20
7489.443896314172
 30
0.0
 11
4375.044109572583
 21
7489.443896314172
 31
0.0
  0
ARC
  5
19B65
330
747D
100
AcDbEntity
  8
部品1
100
AcDbCircle
 10
4356.581786983123
 20
7485.743896314176
 30
0.0
 40
3.0
100
AcDbArc
 50
254.0576313943231
 51
270.0
  0
ARC
  5
19B66
330
747D
100
AcDbEntity
  8
部品1
100
AcDbCircle
 10
4363.723215411664
 20
7485.743896314176
 30
0.0
 40
3.0
100
AcDbArc
 50
270.0
 51
285.9423686056768
  0
LINE
  5
19B67
330
747D
100
AcDbEntity
  8
部品1
100
AcDbLine
 10
4363.723215411664
 20
7482.743896314175
 30
0.0
 11
4356.581786983123
 21
7482.743896314175
 31
0.0
  0
ARC
  5
19B68
330
747D
100
AcDbEntity
  8
部品1
100
AcDbCircle
 10
4360.152501197393
 20
7498.243896314176
 30
0.0
 40
16.0
100
AcDbArc
 50
285.9423686056768
 51
321.6069559807908
  0
LINE
  5
19B69
330
747D
100
AcDbEntity
  8
部品1
 48
0.01
100
AcDbLine
 10
4343.652501197393
 20
7489.443896314172
 30
0.0
 11
4345.260892822203
 21
7489.443896314172
 31
0.0
  0
ARC
  5
19B6A
330
747D
100
AcDbEntity
  8
部品1
100
AcDbCircle
 10
4345.260892822203
 20
7486.443896314174
 30
0.0
 40
3.0
100
AcDbArc
 50
38.39304401920927
 51
90.0
  0
ARC
  5
19B6B
330
747D
100
AcDbEntity
  8
部品1
100
AcDbCircle
 10
4360.152501197393
 20
7498.243896314176
 30
0.0
 40
16.0
100
AcDbArc
 50
218.3930440192093
 51
254.0576313943231
  0
LINE
  5
19B6C
330
747D
100
AcDbEntity
  8
部品1
100
AcDbLine
 10
4341.652501197393
 20
7482.443896314173
 30
0.0
 11
4341.652501197393
 21
7487.443896314172
 31
0.0
  0
ARC
  5
19B6D
330
747D
100
AcDbEntity
  8
部品1
 48
0.01
100
AcDbCircle
 10
4343.652501197393
 20
7487.443896314172
 30
0.0
 40
2.0
100
AcDbArc
 50
90.0
 51
180.0
  0
ARC
  5
19B6E
330
747D
100
AcDbEntity
  8
部品1
100
AcDbCircle
 10
4367.652501197393
 20
7482.443896314173
 30
0.0
 40
26.0
100
AcDbArc
 50
180.0
 51
199.471220634417
  0
ARC
  5
19B6F
330
747D
100
AcDbEntity
  8
部品1
 48
0.01
100
AcDbCircle
 10
4335.652501197393
 20
7472.943896314173
 30
0.0
 40
0.5
100
AcDbArc
 50
180.0
 51
270.0
  0
LINE
  5
19B70
330
747D
100
AcDbEntity
  8
部品1
 48
0.01
100
AcDbLine
 10
4335.652501197393
 20
7472.443896314174
 30
0.0
 11
4342.196657074677
 21
7472.443896314174
 31
0.0
  0
LINE
  5
19B71
330
747D
100
AcDbEntity
  8
部品1
 48
0.01
100
AcDbLine
 10
4335.152501197393
 20
7473.943896314174
 30
0.0
 11
4335.152501197393
 21
7472.943896314173
 31
0.0
  0
ARC
  5
19B72
330
747D
100
AcDbEntity
  8
部品1
100
AcDbCircle
 10
4342.196657074677
 20
7473.443896314172
 30
0.0
 40
1.0
100
AcDbArc
 50
270.0
 51
19.47122063441699
  0
LINE
  5
19B73
330
747D
100
AcDbEntity
  8
細線
100
AcDbLine
 10
4380.652501197401
 20
7491.943896314177
 30
0.0
 11
4339.6525011974
 21
7491.94389631417
 31
0.0
  0
LINE
  5
19B74
330
747D
100
AcDbEntity
  8
細線
100
AcDbLine
 10
4339.6525011974
 20
7491.94389631417
 30
0.0
 11
4339.6525011974
 21
7473.943896314151
 31
0.0
  0
LINE
  5
19B75
330
747D
100
AcDbEntity
  8
細線
100
AcDbLine
 10
4380.652501197401
 20
7491.943896314177
 30
0.0
 11
4380.652501197401
 21
7473.943896314151
 31
0.0
  0
LINE
  5
19B76
330
747D
100
AcDbEntity
  8
細線
100
AcDbLine
 10
4224.152607796138
 20
7477.944826768577
 30
0.0
 11
4224.152607796138
 21
7473.944826768624
 31
0.0
  0
DIMENSION
  5
19B77
330
747D
100
AcDbEntity
  8
寸法
 48
50.0
100
AcDbDimension
  2
*D15
 10
5174.152607796139
 20
6904.31054055217
 30
0.0
 11
4699.152607796139
 21
6904.31054055217
 31
0.0
 70
   160
  1
有効開口部間口\P<>
 71
     5
 42
950.0
  3
INABA_S40G
100
AcDbAlignedDimension
 13
4224.152607796138
 23
7468.944826768576
 33
0.0
 14
5174.152607796139
 24
7468.944826768576
 34
0.0
100
AcDbRotatedDimension
1001
ACAD
1000
DSTYLE
1002
{
1070
   341
1005
0
1002
}
  0
LINE
  5
19B78
330
747D
100
AcDbEntity
  8
部品1
100
AcDbLine
 10
5892.152607796138
 20
7545.944826768577
 30
0.0
 11
5919.152607796137
 21
7545.944826768577
 31
0.0
  0
DIMENSION
  5
19B79
330
747D
100
AcDbEntity
  8
寸法
100
AcDbDimension
  2
*D16
 10
3937.844285510611
 20
7470.944826768579
 30
0.0
 11
3937.844285510609
 21
7162.459545394337
 31
0.0
 70
   160
 71
     5
 42
75.0
  3
INABA_S40G
100
AcDbAlignedDimension
 13
4157.152607796138
 23
7545.944826768579
 33
0.0
 14
4185.152607796139
 24
7470.944826768579
 34
0.0
 50
90.0
100
AcDbRotatedDimension
1001
ACAD
1000
DSTYLE
1002
{
1070
   341
1005
0
1002
}
  0
LINE
  5
19B7A
330
747D
100
AcDbEntity
  8
部品1
100
AcDbLine
 10
5919.152607796137
 20
7468.944826768576
 30
0.0
 11
5919.152607796137
 21
7545.944826768577
 31
0.0
  0
LINE
  5
19B7B
330
747D
100
AcDbEntity
  8
部品1
100
AcDbLine
 10
5880.152607796137
 20
7541.944826768577
 30
0.0
 11
5892.152607796138
 21
7541.944826768577
 31
0.0
  0
LINE
  5
19B7C
330
747D
100
AcDbEntity
  8
部品1
100
AcDbLine
 10
5889.152607796138
 20
7477.944826768577
 30
0.0
 11
5889.152607796138
 21
7468.944826768576
 31
0.0
  0
LINE
  5
19B7D
330
747D
100
AcDbEntity
  8
部品1
100
AcDbLine
 10
5880.152607796137
 20
7477.944826768577
 30
0.0
 11
5889.152607796138
 21
7477.944826768577
 31
0.0
  0
LINE
  5
19B7E
330
747D
100
AcDbEntity
  8
部品1
100
AcDbLine
 10
5880.152607796137
 20
7541.944826768577
 30
0.0
 11
5880.152607796137
 21
7477.944826768577
 31
0.0
  0
LINE
  5
19B7F
330
747D
100
AcDbEntity
  8
部品1
100
AcDbLine
 10
5892.152607796138
 20
7572.944826768576
 30
0.0
 11
5892.152607796138
 21
7541.944826768577
 31
0.0
  0
LINE
  5
19B80
330
747D
100
AcDbEntity
  8
部品1
100
AcDbLine
 10
4224.152607796138
 20
7541.944826768577
 30
0.0
 11
4212.152607796139
 21
7541.944826768577
 31
0.0
  0
LINE
  5
19B81
330
747D
100
AcDbEntity
  8
部品1
100
AcDbLine
 10
4185.152607796139
 20
7545.944826768577
 30
0.0
 11
4212.152607796139
 21
7545.944826768577
 31
0.0
  0
LINE
  5
19B82
330
747D
100
AcDbEntity
  8
部品1
100
AcDbLine
 10
4215.152607796139
 20
7477.944826768577
 30
0.0
 11
4215.152607796139
 21
7468.944826768576
 31
0.0
  0
LINE
  5
19B83
330
747D
100
AcDbEntity
  8
部品1
100
AcDbLine
 10
4224.152607796138
 20
7477.944826768577
 30
0.0
 11
4215.152607796139
 21
7477.944826768577
 31
0.0
  0
LINE
  5
19B84
330
747D
100
AcDbEntity
  8
部品1
100
AcDbLine
 10
4215.152607796139
 20
7468.944826768576
 30
0.0
 11
4185.152607796139
 21
7468.944826768576
 31
0.0
  0
LINE
  5
19B85
330
747D
100
AcDbEntity
  8
部品1
100
AcDbLine
 10
4185.152607796139
 20
7468.944826768576
 30
0.0
 11
4185.152607796139
 21
7545.944826768577
 31
0.0
  0
LINE
  5
19B86
330
747D
100
AcDbEntity
  8
部品1
100
AcDbLine
 10
4224.152607796138
 20
7541.944826768577
 30
0.0
 11
4224.152607796138
 21
7477.944826768577
 31
0.0
  0
LINE
  5
19B87
330
747D
100
AcDbEntity
  8
部品1
100
AcDbLine
 10
4212.152607796139
 20
7572.944826768573
 30
0.0
 11
4212.152607796139
 21
7541.944826768577
 31
0.0
  0
LINE
  5
19B88
330
747D
100
AcDbEntity
  8
部品1
100
AcDbLine
 10
4212.152607796139
 20
7572.944826768573
 30
0.0
 11
5892.152607796138
 21
7572.944826768576
 31
0.0
  0
LINE
  5
19B89
330
747D
100
AcDbEntity
  8
部品1
100
AcDbLine
 10
5889.152607796138
 20
7468.944826768576
 30
0.0
 11
5919.152607796137
 21
7468.944826768576
 31
0.0
  0
LINE
  5
19B8A
330
747D
100
AcDbEntity
  8
部品1
100
AcDbLine
 10
4215.152607796139
 20
7468.944826768576
 30
0.0
 11
5919.152607796139
 21
7468.944826768574
 31
0.0
  0
LINE
  5
19B8B
330
747D
100
AcDbEntity
  8
細線
  6
Continuous
 62
     5
100
AcDbLine
 10
5317.652612947052
 20
7526.944826768573
 30
0.0
 11
5317.652612947052
 21
7526.944826768573
 31
0.0
  0
LINE
  5
19B8C
330
747D
100
AcDbEntity
  8
細線
 48
50.0
100
AcDbLine
 10
4238.152612449732
 20
7494.545000945532
 30
0.0
 11
4238.152612449732
 21
7502.941151353171
 31
0.0
  0
LINE
  5
19B8D
330
747D
100
AcDbEntity
  8
細線
 48
50.0
100
AcDbLine
 10
4238.152612449732
 20
7502.941151353171
 30
0.0
 11
4224.152607796138
 21
7502.941151353167
 31
0.0
  0
LINE
  5
19B8E
330
747D
100
AcDbEntity
  8
細線
 48
50.0
100
AcDbLine
 10
4215.152607796139
 20
7473.942335289001
 30
0.0
 11
4525.153160900568
 21
7473.946222189197
 31
0.0
  0
LINE
  5
19B8F
330
747D
100
AcDbEntity
  8
細線
 48
50.0
100
AcDbLine
 10
4595.152607796139
 20
7473.945000945533
 30
0.0
 11
4665.152607796139
 21
7473.945000945533
 31
0.0
  0
LINE
  5
19B90
330
747D
100
AcDbEntity
  8
細線
 48
50.0
100
AcDbLine
 10
4608.014572808665
 20
7473.945000945533
 30
0.0
 11
4613.770090391335
 21
7492.215852236026
 31
0.0
  0
LINE
  5
19B91
330
747D
100
AcDbEntity
  8
細線
 48
50.0
100
AcDbLine
 10
4613.770090391335
 20
7492.215852236026
 30
0.0
 11
4624.698538871766
 21
7492.215852236022
 31
0.0
  0
ARC
  5
19B92
330
747D
100
AcDbEntity
  8
細線
 48
50.0
100
AcDbCircle
 10
4624.698538871766
 20
7491.215852236023
 30
0.0
 40
1.0
100
AcDbArc
 50
24.62431835207568
 51
90.0
  0
ARC
  5
19B93
330
747D
100
AcDbEntity
  8
細線
 48
50.0
100
AcDbCircle
 10
4635.607250986402
 20
7491.215852236023
 30
0.0
 40
1.0
100
AcDbArc
 50
90.0
 51
155.3756816479243
  0
ARC
  5
19B94
330
747D
100
AcDbEntity
  8
細線
 48
50.0
100
AcDbCircle
 10
4630.15289492908
 20
7493.715852236022
 30
0.0
 40
5.0
100
AcDbArc
 50
204.6243183520757
 51
335.3756816479243
  0
LINE
  5
19B95
330
747D
100
AcDbEntity
  8
細線
 48
50.0
100
AcDbLine
 10
4635.607250986402
 20
7492.215852236022
 30
0.0
 11
4646.535699466832
 21
7492.215852236026
 31
0.0
  0
LINE
  5
19B96
330
747D
100
AcDbEntity
  8
細線
 48
50.0
100
AcDbLine
 10
4646.535699466832
 20
7492.215852236026
 30
0.0
 11
4652.291217049504
 21
7473.945000945533
 31
0.0
  0
LINE
  5
19B97
330
747D
100
AcDbEntity
  8
細線
 48
50.0
100
AcDbLine
 10
4823.652607796139
 20
7494.545000945532
 30
0.0
 11
4238.152612449732
 21
7494.545000945532
 31
0.0
  0
LINE
  5
19B98
330
747D
100
AcDbEntity
  8
細線
 48
50.0
100
AcDbLine
 10
5315.652608293458
 20
7528.545044803398
 30
0.0
 11
4842.652607796139
 21
7528.545044803395
 31
0.0
  0
LINE
  5
19B99
330
747D
100
AcDbEntity
  8
細線
 48
50.0
100
AcDbLine
 10
5315.652608293458
 20
7525.095044803399
 30
0.0
 11
5315.652608293458
 21
7529.945044803397
 31
0.0
  0
LINE
  5
19B9A
330
747D
100
AcDbEntity
  8
細線
 48
50.0
100
AcDbLine
 10
5315.652608293458
 20
7529.945044803397
 30
0.0
 11
5330.652608293458
 21
7529.945044803397
 31
0.0
  0
LINE
  5
19B9B
330
747D
100
AcDbEntity
  8
細線
 48
50.0
100
AcDbLine
 10
5330.652608293458
 20
7529.945044803397
 30
0.0
 11
5330.65261992743
 21
7536.94504480344
 31
0.0
  0
LINE
  5
19B9C
330
747D
100
AcDbEntity
  8
細線
 48
50.0
100
AcDbLine
 10
5330.65261992743
 20
7536.94504480344
 30
0.0
 11
5345.652618097964
 21
7536.94504480344
 31
0.0
  0
LINE
  5
19B9D
330
747D
100
AcDbEntity
  8
細線
 48
50.0
100
AcDbLine
 10
5345.652618097964
 20
7536.94504480344
 30
0.0
 11
5345.652607796139
 21
7507.944838631167
 31
0.0
  0
LINE
  5
19B9E
330
747D
100
AcDbEntity
  8
細線
 48
50.0
100
AcDbLine
 10
5184.152607796139
 20
7507.94483588116
 30
0.0
 11
5114.152851693136
 21
7507.944841381195
 31
0.0
  0
LINE
  5
19B9F
330
747D
100
AcDbEntity
  8
細線
 48
50.0
100
AcDbLine
 10
5254.152599559376
 20
7507.944838631167
 30
0.0
 11
5345.652607796139
 21
7507.944838631167
 31
0.0
  0
LINE
  5
19BA0
330
747D
100
AcDbEntity
  8
細線
 48
50.0
100
AcDbLine
 10
4904.152607796139
 20
7507.944846818533
 30
0.0
 11
4854.36166684251
 21
7507.944854510675
 31
0.0
  0
LINE
  5
19BA1
330
747D
100
AcDbEntity
  8
細線
 48
50.0
100
AcDbLine
 10
5044.152572477244
 20
7507.944838631164
 30
0.0
 11
4974.152555189372
 21
7507.944838631171
 31
0.0
  0
ARC
  5
19BA2
330
747D
100
AcDbEntity
  8
細線
 48
50.0
100
AcDbCircle
 10
5329.852612947056
 20
7541.144826768577
 30
0.0
 40
0.8
100
AcDbArc
 50
359.9997333689499
 51
89.99986668437072
  0
ARC
  5
19BA3
330
747D
100
AcDbEntity
  8
細線
 48
50.0
100
AcDbCircle
 10
5337.452619772154
 20
7541.144837937195
 30
0.0
 40
0.8
100
AcDbArc
 50
90.00014387753463
 51
179.9997333689498
  0
LINE
  5
19BA4
330
747D
100
AcDbEntity
  8
細線
 48
50.0
100
AcDbLine
 10
5329.852614808493
 20
7541.944826768577
 30
0.0
 11
5324.652612947048
 21
7541.944826768577
 31
0.0
  0
ARC
  5
19BA5
330
747D
100
AcDbEntity
  8
細線
 48
50.0
100
AcDbCircle
 10
5331.352612947048
 20
7539.644826768577
 30
0.0
 40
0.7
100
AcDbArc
 50
180.0
 51
270.0
  0
ARC
  5
19BA6
330
747D
100
AcDbEntity
  8
細線
 48
50.0
100
AcDbCircle
 10
5335.952612947046
 20
7539.644826768577
 30
0.0
 40
0.7
100
AcDbArc
 50
270.0
 51
0.0
  0
LINE
  5
19BA7
330
747D
100
AcDbEntity
  8
細線
 48
50.0
100
AcDbLine
 10
5336.652612947048
 20
7539.644826768577
 30
0.0
 11
5336.652619772161
 21
7541.144841660065
 31
0.0
  0
LINE
  5
19BA8
330
747D
100
AcDbEntity
  8
細線
 48
50.0
100
AcDbLine
 10
5331.352612947048
 20
7538.944826768577
 30
0.0
 11
5335.952612947046
 21
7538.944826768577
 31
0.0
  0
LINE
  5
19BA9
330
747D
100
AcDbEntity
  8
細線
 48
50.0
100
AcDbLine
 10
5330.652612947048
 20
7541.144826768577
 30
0.0
 11
5330.652612947048
 21
7539.644826768577
 31
0.0
  0
LINE
  5
19BAA
330
747D
100
AcDbEntity
  8
細線
 48
50.0
100
AcDbLine
 10
5863.752607796144
 20
7571.944826768575
 30
0.0
 11
5319.652612947048
 21
7571.944826768573
 31
0.0
  0
LINE
  5
19BAB
330
747D
100
AcDbEntity
  8
細線
 48
50.0
100
AcDbLine
 10
5889.652607796139
 20
7566.944826768581
 30
0.0
 11
5873.752607796141
 21
7566.944826768576
 31
0.0
  0
LINE
  5
19BAC
330
747D
100
AcDbEntity
  8
細線
 48
50.0
100
AcDbLine
 10
5873.752607796139
 20
7566.944826768576
 30
0.0
 11
5863.752607796141
 21
7571.944826768576
 31
0.0
  0
LINE
  5
19BAD
330
747D
100
AcDbEntity
  8
細線
100
AcDbLine
 10
5510.152607796139
 20
7541.944826768577
 30
0.0
 11
5510.152607796139
 21
7571.244826768576
 31
0.0
  0
LINE
  5
19BAE
330
747D
100
AcDbEntity
  8
細線
100
AcDbLine
 10
5510.152607796139
 20
7571.244826768576
 30
0.0
 11
5530.152607796139
 21
7571.244826768576
 31
0.0
  0
LINE
  5
19BAF
330
747D
100
AcDbEntity
  8
細線
100
AcDbLine
 10
5530.152607796139
 20
7541.944826768577
 30
0.0
 11
5530.152607796139
 21
7571.244826768576
 31
0.0
  0
LINE
  5
19BB0
330
747D
100
AcDbEntity
  8
細線
100
AcDbLine
 10
5702.152607796139
 20
7541.944826768577
 30
0.0
 11
5632.152607796139
 21
7541.944826768577
 31
0.0
  0
LINE
  5
19BB1
330
747D
100
AcDbEntity
  8
細線
 48
50.0
100
AcDbLine
 10
5422.152607796139
 20
7541.944826768577
 30
0.0
 11
5337.448392519887
 21
7541.944826768577
 31
0.0
  0
LINE
  5
19BB2
330
747D
100
AcDbEntity
  8
細線
100
AcDbLine
 10
5562.152607796139
 20
7541.944826768577
 30
0.0
 11
5492.152607796139
 21
7541.944826768577
 31
0.0
  0
LINE
  5
19BB3
330
747D
100
AcDbEntity
  8
細線
 48
50.0
100
AcDbLine
 10
5324.652612947048
 20
7533.944826768577
 30
0.0
 11
5324.652612947048
 21
7541.944826768577
 31
0.0
  0
LINE
  5
19BB4
330
747D
100
AcDbEntity
  8
細線
 48
50.0
100
AcDbLine
 10
5304.652612947045
 20
7533.944826768581
 30
0.0
 11
5324.652612947048
 21
7533.944826768577
 31
0.0
  0
LINE
  5
19BB5
330
747D
100
AcDbEntity
  8
細線
 48
50.0
100
AcDbLine
 10
5319.652612947048
 20
7571.944826768576
 30
0.0
 11
5319.652612947048
 21
7566.944826768576
 31
0.0
  0
LINE
  5
19BB6
330
747D
100
AcDbEntity
  8
細線
 48
50.0
100
AcDbLine
 10
5304.652612947048
 20
7571.944826768573
 30
0.0
 11
5319.652612947048
 21
7571.944826768576
 31
0.0
  0
LINE
  5
19BB7
330
747D
100
AcDbEntity
  8
細線
 48
50.0
100
AcDbLine
 10
5304.652612947045
 20
7533.944826768581
 30
0.0
 11
5304.652612947048
 21
7571.944826768573
 31
0.0
  0
LINE
  5
19BB8
330
747D
100
AcDbEntity
  8
細線
100
AcDbLine
 10
5880.152607796137
 20
7541.944826768577
 30
0.0
 11
5772.152607796139
 21
7541.944826768577
 31
0.0
  0
LINE
  5
19BB9
330
747D
100
AcDbEntity
  8
細線
 48
50.0
100
AcDbLine
 10
5889.652607796139
 20
7566.944826768581
 30
0.0
 11
5889.652607796136
 21
7541.944826768577
 31
0.0
  0
ARC
  5
19BBA
330
747D
100
AcDbEntity
  8
細線
 48
50.0
100
AcDbCircle
 10
4853.419913671991
 20
7506.944847936852
 30
0.0
 40
1.0
100
AcDbArc
 50
90.00039994667938
 51
165.0005554813012
  0
LINE
  5
19BBB
330
747D
100
AcDbEntity
  8
細線
 48
50.0
100
AcDbLine
 10
4853.419906691605
 20
7507.944847936825
 30
0.0
 11
4854.36166684251
 21
7507.944854510675
 31
0.0
  0
ARC
  5
19BBC
330
747D
100
AcDbEntity
  8
細線
 48
50.0
100
AcDbCircle
 10
4843.885275870649
 20
7506.944653246556
 30
0.0
 40
1.0
100
AcDbArc
 50
15.0010443048916
 51
90.00093320877967
  0
LINE
  5
19BBD
330
747D
100
AcDbEntity
  8
細線
 48
50.0
100
AcDbLine
 10
4844.851196979398
 20
7507.203489897118
 30
0.0
 11
4845.09896647591
 21
7506.278868958536
 31
0.0
  0
ARC
  5
19BBE
330
747D
100
AcDbEntity
  8
細線
 48
50.0
100
AcDbCircle
 10
4846.837624471657
 20
7506.744774929554
 30
0.0
 40
1.8
100
AcDbArc
 50
195.0010443048916
 51
270.0006665777295
  0
LINE
  5
19BBF
330
747D
100
AcDbEntity
  8
細線
 48
50.0
100
AcDbLine
 10
4850.467572831578
 20
7504.944817160154
 30
0.0
 11
4846.837645412808
 21
7504.944774929675
 31
0.0
  0
LINE
  5
19BC0
330
747D
100
AcDbEntity
  8
細線
 48
50.0
100
AcDbLine
 10
4852.453985336499
 20
7507.203657617312
 30
0.0
 11
4852.206222894303
 21
7506.278959735206
 31
0.0
  0
ARC
  5
19BC1
330
747D
100
AcDbEntity
  8
細線
 48
50.0
100
AcDbCircle
 10
4850.467551890418
 20
7506.744817160033
 30
0.0
 40
1.8
100
AcDbArc
 50
270.0006665777295
 51
345.0005554813012
  0
LINE
  5
19BC2
330
747D
100
AcDbEntity
  8
細線
 48
50.0
100
AcDbLine
 10
4832.652570228376
 20
7507.944470293274
 30
0.0
 11
4843.885259583083
 21
7507.94465324642
 31
0.0
  0
LINE
  5
19BC3
330
747D
100
AcDbEntity
  8
細線
 48
50.0
100
AcDbLine
 10
4832.652570228376
 20
7507.944470293274
 30
0.0
 11
4832.652615097315
 21
7499.341008657466
 31
0.0
  0
LINE
  5
19BC4
330
747D
100
AcDbEntity
  8
細線
 48
50.0
100
AcDbLine
 10
4812.652607796143
 20
7499.340967107925
 30
0.0
 11
4832.652615097315
 21
7499.341008657466
 31
0.0
  0
LINE
  5
19BC5
330
747D
100
AcDbEntity
  8
細線
 48
50.0
100
AcDbLine
 10
4812.652607796143
 20
7536.941195211035
 30
0.0
 11
4812.652607796143
 21
7499.340967107925
 31
0.0
  0
LINE
  5
19BC6
330
747D
100
AcDbEntity
  8
細線
 48
50.0
100
AcDbLine
 10
4827.652607796139
 20
7536.941195211039
 30
0.0
 11
4812.652607796143
 21
7536.941195211035
 31
0.0
  0
LINE
  5
19BC7
330
747D
100
AcDbEntity
  8
細線
 48
50.0
100
AcDbLine
 10
4827.652607796139
 20
7529.941195211039
 30
0.0
 11
4827.652607796139
 21
7536.941195211039
 31
0.0
  0
LINE
  5
19BC8
330
747D
100
AcDbEntity
  8
細線
 48
50.0
100
AcDbLine
 10
4842.652607796139
 20
7529.941195211039
 30
0.0
 11
4827.652607796139
 21
7529.941195211039
 31
0.0
  0
LINE
  5
19BC9
330
747D
100
AcDbEntity
  8
細線
 48
50.0
100
AcDbLine
 10
4842.652607796139
 20
7525.441195211039
 30
0.0
 11
4842.652607796139
 21
7529.941195211039
 31
0.0
  0
LINE
  5
19BCA
330
747D
100
AcDbEntity
  8
細線
 48
50.0
100
AcDbLine
 10
4853.652607796139
 20
7502.945000945532
 30
0.0
 11
4853.652607796139
 21
7473.945000945533
 31
0.0
  0
LINE
  5
19BCB
330
747D
100
AcDbEntity
  8
細線
 48
50.0
100
AcDbLine
 10
4838.652607796142
 20
7502.945000945532
 30
0.0
 11
4853.652607796139
 21
7502.945000945532
 31
0.0
  0
LINE
  5
19BCC
330
747D
100
AcDbEntity
  8
細線
 48
50.0
100
AcDbLine
 10
4838.652607796139
 20
7495.945000945532
 30
0.0
 11
4838.652607796142
 21
7502.945000945532
 31
0.0
  0
LINE
  5
19BCD
330
747D
100
AcDbEntity
  8
細線
 48
50.0
100
AcDbLine
 10
4823.652607796139
 20
7495.945000945532
 30
0.0
 11
4838.652607796139
 21
7495.945000945532
 31
0.0
  0
LINE
  5
19BCE
330
747D
100
AcDbEntity
  8
細線
 48
50.0
100
AcDbLine
 10
4823.652607796139
 20
7491.095000945531
 30
0.0
 11
4823.652607796139
 21
7495.945000945532
 31
0.0
  0
LINE
  5
19BCF
330
747D
100
AcDbEntity
  8
細線
 48
50.0
100
AcDbLine
 10
4735.152607796139
 20
7473.945000945533
 30
0.0
 11
4853.652607796139
 21
7473.945000945533
 31
0.0
  0
DIMENSION
  5
19BD0
330
747D
100
AcDbEntity
  8
寸法
 48
50.0
100
AcDbDimension
  2
*D17
 10
5919.152607796137
 20
6644.874810203427
 30
0.0
 11
5043.124051095754
 21
6644.874810203427
 31
0.0
 70
   160
 71
     5
 42
1733.999999999998
  3
INABA_S40G
100
AcDbAlignedDimension
 13
4185.152607796139
 23
7468.944826768576
 33
0.0
 14
5919.152607796137
 24
7468.944826768574
 34
0.0
100
AcDbRotatedDimension
1001
ACAD
1000
DSTYLE
1002
{
1070
   341
1005
0
1002
}
  0
LINE
  5
19CC3
330
747D
100
AcDbEntity
  8
部品1
100
AcDbLine
 10
5892.152607796141
 20
7573.94482676858
 30
0.0
 11
5919.152607796139
 21
7573.94482676858
 31
0.0
  0
LINE
  5
19D62
330
747D
100
AcDbEntity
  8
部品1
 48
50.0
100
AcDbLine
 10
5919.152607796142
 20
4268.274643912294
 30
0.0
 11
5889.152607796143
 21
4268.274643912294
 31
0.0
  0
LINE
  5
19D63
330
747D
100
AcDbEntity
  8
部品1
 48
50.0
100
AcDbLine
 10
5892.152607796142
 20
4312.274643912295
 30
0.0
 11
5892.152607796142
 21
4317.274643912294
 31
0.0
  0
LINE
  5
19D64
330
747D
100
AcDbEntity
  8
部品1
 48
50.0
100
AcDbLine
 10
4215.152607796144
 20
4268.274643912294
 30
0.0
 11
4185.15260779614
 21
4268.274643912294
 31
0.0
  0
LINE
  5
19D65
330
747D
100
AcDbEntity
  8
部品1
 48
50.0
100
AcDbLine
 10
4212.152607796141
 20
4312.274643912295
 30
0.0
 11
4212.152607796141
 21
4317.274643912294
 31
0.0
  0
LINE
  5
19D66
330
747D
100
AcDbEntity
  8
細線
 48
50.0
100
AcDbLine
 10
5889.152607796143
 20
4269.774643912294
 30
0.0
 11
4215.152607796144
 21
4269.774643912294
 31
0.0
  0
LINE
  5
19D67
330
747D
100
AcDbEntity
  8
細線
 48
50.0
100
AcDbLine
 10
5889.152607796143
 20
4260.274643912294
 30
0.0
 11
4215.152607796144
 21
4260.274643912294
 31
0.0
  0
LINE
  5
19D68
330
747D
100
AcDbEntity
  8
細線
 48
50.0
100
AcDbLine
 10
5919.152607796142
 20
4302.274643912294
 30
0.0
 11
4185.15260779614
 21
4302.274643912294
 31
0.0
  0
LINE
  5
19D69
330
747D
100
AcDbEntity
  8
部品1
 48
50.0
100
AcDbLine
 10
5919.152607796142
 20
4312.274643912295
 30
0.0
 11
4185.15260779614
 21
4312.274643912295
 31
0.0
  0
LINE
  5
19D6A
330
747D
100
AcDbEntity
  8
細線
 48
50.0
100
AcDbLine
 10
5867.152607796143
 20
2524.274643912295
 30
0.0
 11
5863.152607796142
 21
2534.774643912295
 31
0.0
  0
LINE
  5
19D6B
330
747D
100
AcDbEntity
  8
部品1
 48
50.0
100
AcDbLine
 10
4224.152607796145
 20
2527.274643912295
 30
0.0
 11
4224.152607796145
 21
2524.274643912295
 31
0.0
  0
LINE
  5
19D6C
330
747D
100
AcDbEntity
  8
部品1
 48
50.0
100
AcDbLine
 10
4215.152607796144
 20
2527.274643912295
 30
0.0
 11
4853.652607796145
 21
2527.274643912295
 31
0.0
  0
LINE
  5
19D6E
330
747D
100
AcDbEntity
  8
細線
 48
50.0
100
AcDbLine
 10
4215.152607796144
 20
2520.274643912295
 30
0.0
 11
5889.152607796143
 21
2520.274643912295
 31
0.0
  0
LINE
  5
19D6F
330
747D
100
AcDbEntity
  8
細線
 48
50.0
100
AcDbLine
 10
4215.152607796144
 20
2524.274643912295
 30
0.0
 11
5889.152607796143
 21
2524.274643912295
 31
0.0
  0
LINE
  5
19D70
330
747D
100
AcDbEntity
  8
細線
 48
50.0
100
AcDbLine
 10
4853.652607796145
 20
2534.774643912295
 30
0.0
 11
5863.152607796142
 21
2534.774643912295
 31
0.0
  0
LINE
  5
19D71
330
747D
100
AcDbEntity
  8
部品1
 48
50.0
100
AcDbLine
 10
5919.152607796142
 20
2477.274643912295
 30
0.0
 11
5919.152607796142
 21
4312.274643912295
 31
0.0
  0
LINE
  5
19D72
330
747D
100
AcDbEntity
  8
細線
 48
50.0
100
AcDbLine
 10
5889.152607796143
 20
2477.274643912295
 30
0.0
 11
5889.152607796143
 21
4269.774643912294
 31
0.0
  0
LINE
  5
19D73
330
747D
100
AcDbEntity
  8
部品1
 48
50.0
100
AcDbLine
 10
5880.152607796143
 20
2524.274643912295
 30
0.0
 11
5880.152607796143
 21
4260.274643912294
 31
0.0
  0
LINE
  5
19D74
330
747D
100
AcDbEntity
  8
部品1
 48
50.0
100
AcDbLine
 10
4215.152607796144
 20
2527.274643912295
 30
0.0
 11
4215.152607796144
 21
4260.274643912294
 31
0.0
  0
LINE
  5
19D75
330
747D
100
AcDbEntity
  8
細線
 48
50.0
100
AcDbLine
 10
4215.152607796144
 20
4269.774643912294
 30
0.0
 11
4215.152607796141
 21
2477.274643912295
 31
0.0
  0
LINE
  5
19D76
330
747D
100
AcDbEntity
  8
部品1
 48
50.0
100
AcDbLine
 10
4185.15260779614
 20
4312.274643912295
 30
0.0
 11
4185.15260779614
 21
2477.274643912295
 31
0.0
  0
LINE
  5
19D77
330
747D
100
AcDbEntity
  8
部品1
 48
50.0
100
AcDbLine
 10
4853.652607796152
 20
4260.274643912294
 30
0.0
 11
4853.652607796145
 21
2527.274643912295
 31
0.0
  0
LINE
  5
19D78
330
747D
100
AcDbEntity
  8
部品1
 48
50.0
100
AcDbLine
 10
5345.652607796144
 20
4260.274643912294
 30
0.0
 11
5345.652607796144
 21
2534.774643912295
 31
0.0
  0
LINE
  5
19D79
330
747D
100
AcDbEntity
  8
細線
100
AcDbLine
 10
4735.152599610728
 20
4260.274643912287
 30
0.0
 11
4735.152599610728
 21
2527.274643912293
 31
0.0
  0
LINE
  5
19D7A
330
747D
100
AcDbEntity
  8
細線
100
AcDbLine
 10
4665.152599610729
 20
4260.274643912287
 30
0.0
 11
4665.152599610729
 21
2527.274643912293
 31
0.0
  0
LINE
  5
19D7B
330
747D
100
AcDbEntity
  8
細線
100
AcDbLine
 10
4595.152599610728
 20
4260.274643912287
 30
0.0
 11
4595.152599610728
 21
2527.274643912293
 31
0.0
  0
LINE
  5
19D7C
330
747D
100
AcDbEntity
  8
部品1
100
AcDbLine
 10
4385.152607796144
 20
4260.274643912287
 30
0.0
 11
4385.152607796144
 21
2527.274643912295
 31
0.0
  0
LINE
  5
19D7D
330
747D
100
AcDbEntity
  8
部品1
100
AcDbLine
 10
4335.152607796144
 20
4260.274643912287
 30
0.0
 11
4335.152607796144
 21
2527.274643912295
 31
0.0
  0
LINE
  5
19D7E
330
747D
100
AcDbEntity
  8
細線
100
AcDbLine
 10
4377.152607796144
 20
4260.274643912287
 30
0.0
 11
4377.152607796144
 21
2527.274643912295
 31
0.0
  0
LINE
  5
19D7F
330
747D
100
AcDbEntity
  8
細線
100
AcDbLine
 10
4343.152607796144
 20
4260.274643912287
 30
0.0
 11
4343.152607796144
 21
2527.274643912295
 31
0.0
  0
LINE
  5
19D80
330
747D
100
AcDbEntity
  8
細線
100
AcDbLine
 10
5254.152607796144
 20
4260.274643912287
 30
0.0
 11
5254.152607796144
 21
2534.774643912302
 31
0.0
  0
LINE
  5
19D81
330
747D
100
AcDbEntity
  8
細線
100
AcDbLine
 10
5184.152607796145
 20
4260.274643912287
 30
0.0
 11
5184.152607796145
 21
2534.774643912302
 31
0.0
  0
LINE
  5
19D82
330
747D
100
AcDbEntity
  8
細線
100
AcDbLine
 10
5114.152607796144
 20
4260.274643912287
 30
0.0
 11
5114.152607796144
 21
2534.774643912302
 31
0.0
  0
LINE
  5
19D83
330
747D
100
AcDbEntity
  8
細線
100
AcDbLine
 10
5044.152607796144
 20
4260.274643912287
 30
0.0
 11
5044.152607796144
 21
2534.774643912302
 31
0.0
  0
LINE
  5
19D84
330
747D
100
AcDbEntity
  8
細線
100
AcDbLine
 10
5772.152607796144
 20
4260.274643912277
 30
0.0
 11
5772.152607796144
 21
2534.774643912295
 31
0.0
  0
LINE
  5
19D85
330
747D
100
AcDbEntity
  8
細線
100
AcDbLine
 10
5702.152607796144
 20
4260.274643912277
 30
0.0
 11
5702.152607796144
 21
2534.774643912295
 31
0.0
  0
LINE
  5
19D86
330
747D
100
AcDbEntity
  8
細線
100
AcDbLine
 10
5632.152607796144
 20
4260.274643912277
 30
0.0
 11
5632.152607796144
 21
2534.774643912295
 31
0.0
  0
LINE
  5
19D8A
330
747D
100
AcDbEntity
  8
部品1
 48
50.0
100
AcDbLine
 10
4259.152607796145
 20
3458.774643912289
 30
0.0
 11
4312.152607796144
 21
3458.774643912289
 31
0.0
  0
LINE
  5
19DA4
330
747D
100
AcDbEntity
  8
細線
100
AcDbLine
 10
4525.152599610728
 20
4260.274643912287
 30
0.0
 11
4525.152599610728
 21
2527.274643912293
 31
0.0
  0
LINE
  5
19DA5
330
747D
100
AcDbEntity
  8
細線
100
AcDbLine
 10
4974.152607796145
 20
4260.274643912287
 30
0.0
 11
4974.152607796145
 21
2534.774643912302
 31
0.0
  0
LINE
  5
19DA6
330
747D
100
AcDbEntity
  8
細線
100
AcDbLine
 10
4904.152607796144
 20
4260.274643912287
 30
0.0
 11
4904.152607796144
 21
2534.774643912302
 31
0.0
  0
LINE
  5
19DA7
330
747D
100
AcDbEntity
  8
細線
100
AcDbLine
 10
5562.152607796145
 20
4260.274643912277
 30
0.0
 11
5562.152607796145
 21
2534.774643912295
 31
0.0
  0
LINE
  5
19DA8
330
747D
100
AcDbEntity
  8
細線
100
AcDbLine
 10
5422.152643115039
 20
4260.274643912277
 30
0.0
 11
5422.152643115039
 21
2534.774643912295
 31
0.0
  0
LINE
  5
19DA9
330
747D
100
AcDbEntity
  8
細線
100
AcDbLine
 10
5492.15264311504
 20
4260.274643912277
 30
0.0
 11
5492.15264311504
 21
2534.774643912295
 31
0.0
  0
LINE
  5
19DEE
330
747D
100
AcDbEntity
  8
部品1
 48
50.0
100
AcDbLine
 10
4185.15260779614
 20
2527.274643912294
 30
0.0
 11
4157.152607796137
 21
2527.274643912295
 31
0.0
  0
LINE
  5
19E0E
330
747D
100
AcDbEntity
  8
部品1
 48
50.0
100
AcDbLine
 10
10697.30159419582
 20
2477.274643912295
 30
0.0
 11
10697.30159419582
 21
2377.274643912295
 31
0.0
  0
LINE
  5
19E11
330
747D
100
AcDbEntity
  8
部品1
 48
50.0
100
AcDbLine
 10
5152.152607796136
 20
2477.274643912295
 30
0.0
 11
5152.152607796136
 21
2377.274643912295
 31
0.0
  0
LINE
  5
19E12
330
747D
100
AcDbEntity
  8
部品1
 48
50.0
100
AcDbLine
 10
4952.152607796136
 20
2477.274643912295
 30
0.0
 11
4952.152607796136
 21
2377.274643912295
 31
0.0
  0
LINE
  5
19E1C
330
747D
100
AcDbEntity
  8
部品1
 48
50.0
100
AcDbLine
 10
4557.152607796139
 20
2477.274643912295
 30
0.0
 11
4557.152607796139
 21
2377.274643912295
 31
0.0
  0
LINE
  5
19E1D
330
747D
100
AcDbEntity
  8
部品1
 48
50.0
100
AcDbLine
 10
7622.152607796138
 20
2477.274643912296
 30
0.0
 11
7622.152607796138
 21
2377.274643912296
 31
0.0
  0
LINE
  5
19E1F
330
747D
100
AcDbEntity
  8
部品1
 48
50.0
100
AcDbLine
 10
6002.152607796138
 20
2377.274643912295
 30
0.0
 11
6002.152607796138
 21
2477.274643912295
 31
0.0
  0
LINE
  5
19E20
330
747D
100
AcDbEntity
  8
部品1
 48
50.0
100
AcDbLine
 10
5602.152607796137
 20
2377.274643912295
 30
0.0
 11
5602.152607796138
 21
2477.274643912295
 31
0.0
  0
LINE
  5
19F45
330
747D
100
AcDbEntity
  8
破線
  6
HIDDEN
 48
5.0
100
AcDbLine
 10
5972.152607796139
 20
2222.274643912275
 30
0.0
 11
5922.152607796139
 21
2222.274643912275
 31
0.0
  0
LINE
  5
19F48
330
747D
100
AcDbEntity
  8
破線
  6
HIDDEN
 48
5.0
100
AcDbLine
 10
5922.152607796139
 20
2377.274643912295
 30
0.0
 11
5922.152607796139
 21
2222.274643912275
 31
0.0
  0
LINE
  5
19F49
330
747D
100
AcDbEntity
  8
破線
  6
HIDDEN
 48
5.0
100
AcDbLine
 10
5972.152607796139
 20
2377.274643912295
 30
0.0
 11
5972.152607796139
 21
2222.274643912275
 31
0.0
  0
LINE
  5
19F4A
330
747D
100
AcDbEntity
  8
部品1
 48
50.0
100
AcDbLine
 10
5972.152607796139
 20
2517.274643912295
 30
0.0
 11
5972.152607796139
 21
2377.274643912295
 31
0.0
  0
LINE
  5
19F4B
330
747D
100
AcDbEntity
  8
部品1
 48
50.0
100
AcDbLine
 10
5922.15260779614
 20
2517.274643912295
 30
0.0
 11
5922.152607796139
 21
2377.274643912295
 31
0.0
  0
LINE
  5
19F4C
330
747D
100
AcDbEntity
  8
部品1
 48
50.0
100
AcDbLine
 10
5967.152607796139
 20
2522.274643912294
 30
0.0
 11
5927.15260779614
 21
2522.274643912295
 31
0.0
  0
ARC
  5
19F4D
330
747D
100
AcDbEntity
  8
部品1
 48
50.0
100
AcDbCircle
 10
5927.15260779614
 20
2517.274643912295
 30
0.0
 40
5.0
100
AcDbArc
 50
90.0
 51
180.0
  0
ARC
  5
19F4E
330
747D
100
AcDbEntity
  8
部品1
 48
50.0
100
AcDbCircle
 10
5967.152607796139
 20
2517.274643912295
 30
0.0
 40
5.0
100
AcDbArc
 50
0.0
 51
90.0
  0
LINE
  5
19F4F
330
747D
100
AcDbEntity
  8
部品1
100
AcDbLine
 10
5947.15260779614
 20
2527.274643912296
 30
0.0
 11
5947.152607796137
 21
2522.274643912295
 31
0.0
  0
LINE
  5
19F50
330
747D
100
AcDbEntity
  8
部品1
100
AcDbLine
 10
5972.152607796139
 20
2477.274643912295
 30
0.0
 11
6002.15260779614
 21
2477.274643912295
 31
0.0
  0
LWPOLYLINE
  5
19F8B
330
747D
100
AcDbEntity
  8
部品1
 48
50.0
100
AcDbPolyline
 90
        4
 70
     1
 43
0.0
 10
4284.202607796143
 20
3373.524643912289
 10
4287.102607796145
 20
3373.524643912289
 10
4287.102607796145
 20
3383.024643912289
 10
4284.202607796143
 20
3383.024643912289
  0
CIRCLE
  5
19F8C
330
747D
100
AcDbEntity
  8
部品1
 48
50.0
100
AcDbCircle
 10
4285.652607796144
 20
3378.274643912288
 30
0.0
 40
9.0
  0
ARC
  5
19F8D
330
747D
100
AcDbEntity
  8
細線
 48
50.0
100
AcDbCircle
 10
4285.652607796144
 20
3378.274643912288
 30
0.0
 40
4.0
100
AcDbArc
 50
111.2538091853149
 51
248.746190814685
  0
ARC
  5
19F8E
330
747D
100
AcDbEntity
  8
細線
 48
50.0
100
AcDbCircle
 10
4285.652607796144
 20
3378.274643912288
 30
0.0
 40
17.5
100
AcDbArc
 50
306.4837370612691
 51
233.516262938731
  0
LINE
  5
19F8F
330
747D
100
AcDbEntity
  8
細線
 48
50.0
100
AcDbLine
 10
4295.65260779614
 20
3354.415683331406
 30
0.0
 11
4295.652607796144
 21
3363.400169131647
 31
0.0
  0
LINE
  5
19F90
330
747D
100
AcDbEntity
  8
細線
 48
50.0
100
AcDbLine
 10
4275.652607796144
 20
3354.415683331408
 30
0.0
 11
4275.652607796144
 21
3363.400169131644
 31
0.0
  0
ARC
  5
19F91
330
747D
100
AcDbEntity
  8
細線
 48
50.0
100
AcDbCircle
 10
4285.652607796144
 20
3378.274643912288
 30
0.0
 40
26.5
100
AcDbArc
 50
249.3326835063957
 51
290.6673164933816
  0
ARC
  5
19F92
330
747D
100
AcDbEntity
  8
細線
 48
50.0
100
AcDbCircle
 10
4294.652607796137
 20
3354.415683331406
 30
0.0
 40
1.0
100
AcDbArc
 50
290.6673164936043
 51
359.9999999998958
  0
ARC
  5
19F93
330
747D
100
AcDbEntity
  8
細線
 48
50.0
100
AcDbCircle
 10
4276.652607796144
 20
3354.415683331408
 30
0.0
 40
1.0
100
AcDbArc
 50
180.0
 51
249.3326835066184
  0
ARC
  5
19F94
330
747D
100
AcDbEntity
  8
細線
 48
50.0
100
AcDbCircle
 10
4274.652607796144
 20
3363.400169131644
 30
0.0
 40
1.0
100
AcDbArc
 50
0.0
 51
53.51626293873092
  0
ARC
  5
19F95
330
747D
100
AcDbEntity
  8
細線
 48
50.0
100
AcDbCircle
 10
4296.652607796148
 20
3363.400169131647
 30
0.0
 40
1.0
100
AcDbArc
 50
126.4837370615019
 51
180.0
  0
ARC
  5
19F96
330
747D
100
AcDbEntity
  8
細線
 48
50.0
100
AcDbCircle
 10
4285.652607796144
 20
3378.274643912288
 30
0.0
 40
21.5
100
AcDbArc
 50
255.8014401250262
 51
284.1985598749738
  0
ARC
  5
19F97
330
747D
100
AcDbEntity
  8
細線
 48
50.0
100
AcDbCircle
 10
4285.652607796144
 20
3378.274643912288
 30
0.0
 40
16.5
100
AcDbArc
 50
251.9694646069335
 51
288.0305353930666
  0
LINE
  5
19F98
330
747D
100
AcDbEntity
  8
細線
 48
50.0
100
AcDbLine
 10
4291.152607796145
 20
3357.722271786482
 30
0.0
 11
4291.152607796145
 21
3362.299663473819
 31
0.0
  0
LINE
  5
19F99
330
747D
100
AcDbEntity
  8
細線
 48
50.0
100
AcDbLine
 10
4280.152607796145
 20
3357.722271786482
 30
0.0
 11
4280.152607796145
 21
3362.299663473816
 31
0.0
  0
ARC
  5
19F9A
330
747D
100
AcDbEntity
  8
細線
 48
50.0
100
AcDbCircle
 10
4280.452607796148
 20
3362.299663473816
 30
0.0
 40
0.3
100
AcDbArc
 50
71.96946460693344
 51
180.0
  0
ARC
  5
19F9B
330
747D
100
AcDbEntity
  8
細線
 48
50.0
100
AcDbCircle
 10
4290.852607796145
 20
3362.299663473819
 30
0.0
 40
0.3
100
AcDbArc
 50
0.0
 51
108.0305353930665
  0
ARC
  5
19F9C
330
747D
100
AcDbEntity
  8
細線
 48
50.0
100
AcDbCircle
 10
4290.852607796142
 20
3357.722271786482
 30
0.0
 40
0.3
100
AcDbArc
 50
284.1985598747588
 51
0.0000000001042204
  0
ARC
  5
19F9D
330
747D
100
AcDbEntity
  8
細線
 48
50.0
100
AcDbCircle
 10
4280.452607796148
 20
3357.722271786482
 30
0.0
 40
0.3
100
AcDbArc
 50
180.0
 51
255.8014401248112
  0
CIRCLE
  5
19F9E
330
747D
100
AcDbEntity
  8
細線
 48
50.0
100
AcDbCircle
 10
4285.652607796144
 20
3378.274643912288
 30
0.0
 40
12.0
  0
ARC
  5
19F9F
330
747D
100
AcDbEntity
  8
部品1
 48
50.0
100
AcDbCircle
 10
4285.652607796144
 20
3428.274643912288
 30
0.0
 40
8.5
100
AcDbArc
 50
114.3157391710957
 51
245.6842608289043
  0
CIRCLE
  5
19FA0
330
747D
100
AcDbEntity
  8
細線
 48
50.0
100
AcDbCircle
 10
4285.652607796144
 20
3428.274643912288
 30
0.0
 40
4.5
  0
LWPOLYLINE
  5
19FA1
330
747D
100
AcDbEntity
  8
部品1
 48
50.0
100
AcDbPolyline
 90
        2
 70
     0
 43
0.0
 10
4282.152607796144
 20
3446.949493309271
 10
4282.152607796144
 20
3436.020610604704
  0
CIRCLE
  5
19FA2
330
747D
100
AcDbEntity
  8
部品1
 48
50.0
100
AcDbCircle
 10
4285.652607796144
 20
3428.274643912288
 30
0.0
 40
19.0
  0
LWPOLYLINE
  5
19FA3
330
747D
100
AcDbEntity
  8
部品1
 48
50.0
100
AcDbPolyline
 90
        2
 70
     0
 43
0.0
 10
4282.152607796144
 20
3420.528677219873
 10
4282.152607796144
 20
3409.599794515306
  0
LWPOLYLINE
  5
19FA4
330
747D
100
AcDbEntity
  8
部品1
 48
50.0
100
AcDbPolyline
 90
        2
 70
     0
 43
0.0
 10
4289.152607796144
 20
3436.020610604704
 10
4289.152607796144
 20
3446.949493309271
  0
ARC
  5
19FA5
330
747D
100
AcDbEntity
  8
部品1
 48
50.0
100
AcDbCircle
 10
4285.652607796144
 20
3428.274643912288
 30
0.0
 40
8.5
100
AcDbArc
 50
294.3157391710957
 51
65.68426082890425
  0
LWPOLYLINE
  5
19FA6
330
747D
100
AcDbEntity
  8
部品1
 48
50.0
100
AcDbPolyline
 90
        2
 70
     0
 43
0.0
 10
4289.152607796144
 20
3409.599794515306
 10
4289.152607796144
 20
3420.528677219873
  0
ARC
  5
19FA7
330
747D
100
AcDbEntity
  8
細線
 48
50.0
100
AcDbCircle
 10
4285.652607796144
 20
3428.274643912288
 30
0.0
 40
16.5
100
AcDbArc
 50
332.0012352654389
 51
27.99876473456103
  0
ARC
  5
19FA8
330
747D
100
AcDbEntity
  8
細線
 48
50.0
100
AcDbCircle
 10
4285.652607796144
 20
3428.274643912288
 30
0.0
 40
14.0
100
AcDbArc
 50
326.4074436113038
 51
33.59255638869616
  0
LINE
  5
19FA9
330
747D
100
AcDbEntity
  8
細線
 48
50.0
100
AcDbLine
 10
4271.083805511813
 20
3436.020610604704
 30
0.0
 11
4273.990704006456
 21
3436.020610604704
 31
0.0
  0
LINE
  5
19FAA
330
747D
100
AcDbEntity
  8
細線
 48
50.0
100
AcDbLine
 10
4271.083805511813
 20
3420.528677219873
 30
0.0
 11
4273.990704006456
 21
3420.528677219873
 31
0.0
  0
LINE
  5
19FAB
330
747D
100
AcDbEntity
  8
細線
 48
50.0
100
AcDbLine
 10
4297.314511585834
 20
3436.020610604704
 30
0.0
 11
4300.221410080479
 21
3436.020610604704
 31
0.0
  0
LINE
  5
19FAC
330
747D
100
AcDbEntity
  8
細線
 48
50.0
100
AcDbLine
 10
4297.314511585834
 20
3420.528677219873
 30
0.0
 11
4300.221410080479
 21
3420.528677219873
 31
0.0
  0
ARC
  5
19FAD
330
747D
100
AcDbEntity
  8
細線
 48
50.0
100
AcDbCircle
 10
4285.652607796144
 20
3428.274643912288
 30
0.0
 40
14.0
100
AcDbArc
 50
146.4074436113038
 51
213.5925563886961
  0
ARC
  5
19FAE
330
747D
100
AcDbEntity
  8
細線
 48
50.0
100
AcDbCircle
 10
4285.652607796144
 20
3428.274643912288
 30
0.0
 40
16.5
100
AcDbArc
 50
152.0012352654389
 51
207.9987647345603
  0
ARC
  5
19FAF
330
747D
100
AcDbEntity
  8
部品1
 48
50.0
100
AcDbCircle
 10
4259.152607796145
 20
3453.774643912288
 30
0.0
 40
5.0
100
AcDbArc
 50
90.0
 51
180.0
  0
ARC
  5
19FB0
330
747D
100
AcDbEntity
  8
部品1
 48
50.0
100
AcDbCircle
 10
4259.152607796145
 20
3342.774643912289
 30
0.0
 40
5.0
100
AcDbArc
 50
180.0
 51
270.0
  0
ARC
  5
19FB1
330
747D
100
AcDbEntity
  8
部品1
 48
50.0
100
AcDbCircle
 10
4312.152607796144
 20
3342.774643912289
 30
0.0
 40
5.0
100
AcDbArc
 50
270.0
 51
0.0
  0
ARC
  5
19FB2
330
747D
100
AcDbEntity
  8
部品1
 48
50.0
100
AcDbCircle
 10
4312.152607796144
 20
3453.774643912288
 30
0.0
 40
5.0
100
AcDbArc
 50
0.0
 51
90.0
  0
LINE
  5
19FB3
330
747D
100
AcDbEntity
  8
部品1
 48
50.0
100
AcDbLine
 10
4254.152607796144
 20
3342.774643912289
 30
0.0
 11
4254.152607796144
 21
3453.774643912288
 31
0.0
  0
LINE
  5
19FB4
330
747D
100
AcDbEntity
  8
部品1
 48
50.0
100
AcDbLine
 10
4312.152607796144
 20
3337.774643912289
 30
0.0
 11
4259.152607796145
 21
3337.774643912289
 31
0.0
  0
LINE
  5
19FB5
330
747D
100
AcDbEntity
  8
部品1
 48
50.0
100
AcDbLine
 10
4317.152607796145
 20
3453.774643912288
 30
0.0
 11
4317.152607796145
 21
3342.774643912289
 31
0.0
  0
LINE
  5
1A069
330
747D
100
AcDbEntity
  8
部品1
100
AcDbLine
 10
7422.152607796137
 20
9335.944826768576
 30
0.0
 11
7477.152607796139
 21
9335.944826768576
 31
0.0
  0
LINE
  5
1A08A
330
747D
100
AcDbEntity
  8
部品1
100
AcDbLine
 10
5947.15260779614
 20
7600.944826768575
 30
0.0
 11
5947.152607796139
 21
9280.944826768582
 31
0.0
  0
LINE
  5
1A08B
330
747D
100
AcDbEntity
  8
部品1
100
AcDbLine
 10
5947.152607796137
 20
8860.944826768582
 30
0.0
 11
5919.152607796139
 21
8860.944826768582
 31
0.0
  0
LINE
  5
1A08C
330
747D
100
AcDbEntity
  8
部品1
100
AcDbLine
 10
5947.152607796137
 20
8440.944826768582
 30
0.0
 11
5919.152607796139
 21
8440.944826768582
 31
0.0
  0
LINE
  5
1A08D
330
747D
100
AcDbEntity
  8
部品1
100
AcDbLine
 10
5947.152607796137
 20
8020.944826768582
 30
0.0
 11
5919.152607796139
 21
8020.944826768582
 31
0.0
  0
LINE
  5
1A08E
330
747D
100
AcDbEntity
  8
部品1
100
AcDbLine
 10
5947.152607796137
 20
7600.944826768582
 30
0.0
 11
5919.152607796139
 21
7600.944826768582
 31
0.0
  0
DIMENSION
  5
1A0A3
330
747D
100
AcDbEntity
  8
寸法
 48
50.0
100
AcDbDimension
  2
*D18
 10
7422.152607796139
 20
6644.874810203427
 30
0.0
 11
6712.152607796139
 21
6644.874810203427
 31
0.0
 70
   160
  1
開放部\P開口間口 <>
 71
     5
 42
1420.0
  3
INABA_S40G
100
AcDbAlignedDimension
 13
6002.152607796139
 23
7545.944826768577
 33
0.0
 14
7422.152607796139
 24
7545.944826768577
 34
0.0
100
AcDbRotatedDimension
1001
ACAD
1000
DSTYLE
1002
{
1070
   341
1005
0
1002
}
  0
LINE
  5
1A0E2
330
747D
100
AcDbEntity
  8
部品1
 48
50.0
100
AcDbLine
 10
7422.152607796139
 20
9335.94482676858
 30
0.0
 11
6002.152607796139
 21
9335.94482676858
 31
0.0
  0
LINE
  5
1A0E3
330
747D
100
AcDbEntity
  8
部品1
 48
50.0
100
AcDbLine
 10
7422.152607796139
 20
9285.944826768581
 30
0.0
 11
6002.152607796139
 21
9285.944826768581
 31
0.0
  0
LINE
  5
1A0E4
330
747D
100
AcDbEntity
  8
部品1
100
AcDbLine
 10
7474.652607796139
 20
2477.274643912295
 30
0.0
 11
7622.152607796138
 21
2477.274643912296
 31
0.0
  0
LINE
  5
1A8E9
330
747D
100
AcDbEntity
  8
細線
 48
50.0
100
AcDbLine
 10
6002.152607796139
 20
2867.387425436961
 30
0.0
 11
7422.152607796137
 21
2867.387425436961
 31
0.0
  0
LINE
  5
1A8EA
330
747D
100
AcDbEntity
  8
細線
 48
50.0
100
AcDbLine
 10
6002.152607796139
 20
2855.161678328494
 30
0.0
 11
7422.152607796137
 21
2855.161678328494
 31
0.0
  0
LINE
  5
1A8EB
330
747D
100
AcDbEntity
  8
部品1
 48
50.0
100
AcDbLine
 10
6002.152607796139
 20
3241.274593557497
 30
0.0
 11
7422.152607796139
 21
3241.274593557495
 31
0.0
  0
LINE
  5
1A8EC
330
747D
100
AcDbEntity
  8
部品1
 48
50.0
100
AcDbLine
 10
6002.152607796139
 20
3217.974661077646
 30
0.0
 11
7422.152607796139
 21
3217.974661077646
 31
0.0
  0
LINE
  5
1A8F0
330
747D
100
AcDbEntity
  8
部品1
 48
50.0
100
AcDbLine
 10
6002.152607796139
 20
3201.37466145991
 30
0.0
 11
7422.152607796139
 21
3201.374661459909
 31
0.0
  0
LINE
  5
1A8F1
330
747D
100
AcDbEntity
  8
部品1
 48
50.0
100
AcDbLine
 10
6002.152607796139
 20
2810.374629034969
 30
0.0
 11
7422.152607796139
 21
2810.374629034967
 31
0.0
  0
LINE
  5
1A8F2
330
747D
100
AcDbEntity
  8
部品1
 48
50.0
100
AcDbLine
 10
6002.152607796139
 20
2752.274643912296
 30
0.0
 11
7422.152607796137
 21
2752.274643912296
 31
0.0
  0
DIMENSION
  5
1C86B
330
747D
100
AcDbEntity
  8
寸法
 48
50.0
100
AcDbDimension
  2
*D19
 10
7910.054604585893
 20
2752.274643912296
 30
0.0
 11
7810.042793562272
 21
2614.774643912297
 31
0.0
 70
    32
 71
     5
 42
274.9999999999996
  3
INABA_S40G
100
AcDbAlignedDimension
 13
7622.152607796138
 23
2477.274643912296
 33
0.0
 14
7422.152607796137
 24
2752.274643912296
 34
0.0
 50
90.0
100
AcDbRotatedDimension
1001
ACAD
1000
DSTYLE
1002
{
1070
   282
1070
     1
1070
   281
1070
     0
1070
    75
1070
     1
1070
    76
1070
     1
1070
   175
1070
     0
1070
   341
1005
0
1002
}
  0
TEXT
  5
1C8D2
330
747D
100
AcDbEntity
  8
文字
 62
     7
 48
50.0
100
AcDbText
 10
13583.11819016568
 20
9230.013745883729
 30
0.0
 40
100.0
  1
母屋中
  7
STYLE1
100
AcDbText
  0
TEXT
  5
1C8D3
330
747D
100
AcDbEntity
  8
文字
 62
     7
 48
50.0
100
AcDbText
 10
13248.77747366447
 20
8720.013745883727
 30
0.0
 40
100.0
  1
15
  7
STYLE1
100
AcDbText
  0
LINE
  5
1C8D4
330
747D
100
AcDbEntity
  8
仕様書枠
 48
50.0
100
AcDbLine
 10
16307.19999999998
 20
7499.600000000007
 30
0.0
 11
13127.19999999998
 21
7499.600000000008
 31
0.0
  0
TEXT
  5
1C8D5
330
747D
100
AcDbEntity
  8
文字
 62
     7
 48
50.0
100
AcDbText
 10
13583.11819016568
 20
8210.013745883731
 30
0.0
 40
100.0
  1
扉
  7
STYLE1
100
AcDbText
  0
TEXT
  5
1C8D6
330
747D
100
AcDbEntity
  8
文字
 62
     7
 48
50.0
100
AcDbText
 10
15022.63965474515
 20
8210.013745883726
 30
0.0
 40
100.0
  1
F12            0.8
  7
STYLE1
100
AcDbText
  0
TEXT
  5
1C8D7
330
747D
100
AcDbEntity
  8
文字
 62
     7
 48
50.0
100
AcDbText
 10
13583.11819016567
 20
8380.013745883731
 30
0.0
 40
100.0
  1
正面パネル
  7
STYLE1
100
AcDbText
  0
TEXT
  5
1C8D8
330
747D
100
AcDbEntity
  8
文字
 62
     7
 48
50.0
100
AcDbText
 10
15022.63965474515
 20
8380.013745883728
 30
0.0
 40
100.0
  1
F12            0.7
  7
STYLE1
100
AcDbText
  0
TEXT
  5
1C8D9
330
747D
100
AcDbEntity
  8
文字
 62
     7
 48
50.0
100
AcDbText
 10
15022.63965474516
 20
10420.01374588372
 30
0.0
 40
100.0
  1
F12            1.0
  7
STYLE1
100
AcDbText
  0
TEXT
  5
1C8DA
330
747D
100
AcDbEntity
  8
文字
 62
     7
 48
50.0
100
AcDbText
 10
15022.63965474515
 20
10930.01374588372
 30
0.0
 40
100.0
  1
F12            1.2
  7
STYLE1
100
AcDbText
  0
TEXT
  5
1C8DB
330
747D
100
AcDbEntity
  8
文字
 62
     7
 48
50.0
100
AcDbText
 10
13248.77747366447
 20
8890.013745883726
 30
0.0
 40
100.0
  1
14
  7
STYLE1
100
AcDbText
  0
TEXT
  5
1C8DC
330
747D
100
AcDbEntity
  8
文字
 62
     7
 48
50.0
100
AcDbText
 10
13583.11819016568
 20
10930.01374588372
 30
0.0
 40
100.0
  1
根太
  7
STYLE1
100
AcDbText
  0
TEXT
  5
1C8DD
330
747D
100
AcDbEntity
  8
文字
 62
     7
 48
50.0
100
AcDbText
 10
13583.1181901657
 20
10420.01374588373
 30
0.0
 40
100.0
  1
床パネル
 41
0.9
  7
STYLE1
100
AcDbText
  0
LINE
  5
1C8DE
330
747D
100
AcDbEntity
  8
仕様書枠
 48
50.0
100
AcDbLine
 10
16307.19999999998
 20
8689.6
 30
0.0
 11
13127.2
 21
8689.600000000003
 31
0.0
  0
LINE
  5
1C8DF
330
747D
100
AcDbEntity
  8
仕様書枠
 48
50.0
100
AcDbLine
 10
13127.2
 20
11409.6
 30
0.0
 11
13127.19999999998
 21
7499.600000000008
 31
0.0
  0
TEXT
  5
1C8E0
330
747D
100
AcDbEntity
  8
文字
 62
     7
 48
50.0
100
AcDbText
 10
13229.83081656552
 20
7530.013745883732
 30
0.0
 40
100.0
  1
Y10→溶融亜鉛-5％アルミニウム合金めっき鋼板(JIS G 3317)
 41
0.9
  7
STYLE1
100
AcDbText
  0
TEXT
  5
1C8E1
330
747D
100
AcDbEntity
  8
文字
 62
     7
 48
50.0
100
AcDbText
 10
13229.83081656552
 20
7700.013745883734
 30
0.0
 40
100.0
  1
F12→溶融亜鉛めっき鋼板(JIS G 3302)
  7
STYLE1
100
AcDbText
  0
LINE
  5
1C8E2
330
747D
100
AcDbEntity
  8
仕様書枠
 48
50.0
100
AcDbLine
 10
16307.19999999998
 20
7669.600000000006
 30
0.0
 11
13127.19999999998
 21
7669.600000000008
 31
0.0
  0
LINE
  5
1C8E3
330
747D
100
AcDbEntity
  8
仕様書枠
 48
50.0
100
AcDbLine
 10
16307.19999999998
 20
7839.600000000006
 30
0.0
 11
13127.19999999998
 21
7839.60000000001
 31
0.0
  0
TEXT
  5
1C8E4
330
747D
100
AcDbEntity
  8
文字
 62
     7
 48
50.0
100
AcDbText
 10
15022.63965474515
 20
9060.013745883724
 30
0.0
 40
100.0
  1
F12            0.6
  7
STYLE1
100
AcDbText
  0
TEXT
  5
1C8E5
330
747D
100
AcDbEntity
  8
文字
 62
     7
 48
50.0
100
AcDbText
 10
15022.63965474516
 20
9400.013745883724
 30
0.0
 40
100.0
  1
Y10            0.5
  7
STYLE1
100
AcDbText
  0
TEXT
  5
1C8E6
330
747D
100
AcDbEntity
  8
文字
 62
     7
 48
50.0
100
AcDbText
 10
15022.63965474516
 20
9910.01374588372
 30
0.0
 40
100.0
  1
Y10            0.7
  7
STYLE1
100
AcDbText
  0
TEXT
  5
1C8E7
330
747D
100
AcDbEntity
  8
文字
 62
     7
 48
50.0
100
AcDbText
 10
15022.63965474516
 20
10080.01374588372
 30
0.0
 40
100.0
  1
Y10            0.7
  7
STYLE1
100
AcDbText
  0
TEXT
  5
1C8E8
330
747D
100
AcDbEntity
  8
文字
 62
     7
 48
50.0
100
AcDbText
 10
15022.63965474516
 20
10250.01374588372
 30
0.0
 40
100.0
  1
Y10            1.0
  7
STYLE1
100
AcDbText
  0
TEXT
  5
1C8E9
330
747D
100
AcDbEntity
  8
文字
 62
     7
 48
50.0
100
AcDbText
 10
15022.63965474518
 20
10760.01374588372
 30
0.0
 40
100.0
  1
F12           1.0,1.2
  7
STYLE1
100
AcDbText
  0
TEXT
  5
1C8EA
330
747D
100
AcDbEntity
  8
文字
 62
     7
 48
50.0
100
AcDbText
 10
15022.63965474516
 20
11100.01374588372
 30
0.0
 40
100.0
  1
F12            1.2
  7
STYLE1
100
AcDbText
  0
TEXT
  5
1C8EB
330
747D
100
AcDbEntity
  8
文字
 62
     7
 48
50.0
100
AcDbText
 10
13248.77747366447
 20
9230.013745883727
 30
0.0
 40
100.0
  1
12
  7
STYLE1
100
AcDbText
  0
TEXT
  5
1C8EC
330
747D
100
AcDbEntity
  8
文字
 62
     7
 48
50.0
100
AcDbText
 10
13248.77747366447
 20
9060.013745883727
 30
0.0
 40
100.0
  1
13
  7
STYLE1
100
AcDbText
  0
LINE
  5
1C8ED
330
747D
100
AcDbEntity
  8
仕様書枠
 48
50.0
100
AcDbLine
 10
16307.19999999998
 20
8519.600000000002
 30
0.0
 11
13127.2
 21
8519.600000000002
 31
0.0
  0
LINE
  5
1C8EE
330
747D
100
AcDbEntity
  8
仕様書枠
 48
50.0
100
AcDbLine
 10
16307.19999999998
 20
8859.599999999998
 30
0.0
 11
13127.2
 21
8859.6
 31
0.0
  0
TEXT
  5
1C8EF
330
747D
100
AcDbEntity
  8
文字
 62
     7
 48
50.0
100
AcDbText
 10
13248.77747366447
 20
9400.013745883727
 30
0.0
 40
100.0
  1
11
  7
STYLE1
100
AcDbText
  0
LINE
  5
1C8F0
330
747D
100
AcDbEntity
  8
仕様書枠
 48
50.0
100
AcDbLine
 10
16307.2
 20
9709.600000000001
 30
0.0
 11
13127.2
 21
9709.600000000001
 31
0.0
  0
LINE
  5
1C8F1
330
747D
100
AcDbEntity
  8
仕様書枠
 48
50.0
100
AcDbLine
 10
16307.2
 20
10049.6
 30
0.0
 11
13127.2
 21
10049.6
 31
0.0
  0
LINE
  5
1C8F2
330
747D
100
AcDbEntity
  8
仕様書枠
 48
50.0
100
AcDbLine
 10
16307.19999999998
 20
9199.599999999996
 30
0.0
 11
13127.2
 21
9199.600000000001
 31
0.0
  0
LINE
  5
1C8F3
330
747D
100
AcDbEntity
  8
仕様書枠
 48
50.0
100
AcDbLine
 10
16307.19999999998
 20
9029.599999999996
 30
0.0
 11
13127.2
 21
9029.6
 31
0.0
  0
LINE
  5
1C8F4
330
747D
100
AcDbEntity
  8
仕様書枠
 48
50.0
100
AcDbLine
 10
16307.19999999998
 20
9369.600000000001
 30
0.0
 11
13127.2
 21
9369.600000000001
 31
0.0
  0
TEXT
  5
1C8F5
330
747D
100
AcDbEntity
  8
文字
 62
     7
 48
50.0
100
AcDbText
 10
13271.19032244791
 20
10250.01374588373
 30
0.0
 40
100.0
  1
6
  7
STYLE1
100
AcDbText
  0
TEXT
  5
1C8F6
330
747D
100
AcDbEntity
  8
文字
 62
     7
 48
50.0
100
AcDbText
 10
13271.19032244791
 20
10080.01374588373
 30
0.0
 40
100.0
  1
7
  7
STYLE1
100
AcDbText
  0
TEXT
  5
1C8F7
330
747D
100
AcDbEntity
  8
文字
 62
     7
 48
50.0
100
AcDbText
 10
13271.19032244791
 20
9740.013745883729
 30
0.0
 40
100.0
  1
9
  7
STYLE1
100
AcDbText
  0
TEXT
  5
1C8F8
330
747D
100
AcDbEntity
  8
文字
 62
     7
 48
50.0
100
AcDbText
 10
13271.19032244791
 20
9910.01374588373
 30
0.0
 40
100.0
  1
8
  7
STYLE1
100
AcDbText
  0
TEXT
  5
1C8F9
330
747D
100
AcDbEntity
  8
文字
 62
     7
 48
50.0
100
AcDbText
 10
13583.1181901657
 20
9910.01374588372
 30
0.0
 40
100.0
  1
鼻隠シ前後
  7
STYLE1
100
AcDbText
  0
TEXT
  5
1C8FA
330
747D
100
AcDbEntity
  8
文字
 62
     7
 48
50.0
100
AcDbText
 10
13583.11819016568
 20
9400.013745883729
 30
0.0
 40
100.0
  1
屋根パネル
  7
STYLE1
100
AcDbText
  0
TEXT
  5
1C8FB
330
747D
100
AcDbEntity
  8
文字
 62
     7
 48
50.0
100
AcDbText
 10
13583.11819016567
 20
9060.013745883729
 30
0.0
 40
100.0
  1
壁パネル
  7
STYLE1
100
AcDbText
  0
TEXT
  5
1C8FC
330
747D
100
AcDbEntity
  8
文字
 62
     7
 48
50.0
100
AcDbText
 10
13248.77747366447
 20
9570.013745883727
 30
0.0
 40
100.0
  1
10
  7
STYLE1
100
AcDbText
  0
TEXT
  5
1C8FD
330
747D
100
AcDbEntity
  8
文字
 62
     7
 48
50.0
100
AcDbText
 10
13583.1181901657
 20
10080.01374588373
 30
0.0
 40
100.0
  1
妻板左右
  7
STYLE1
100
AcDbText
  0
TEXT
  5
1C8FE
330
747D
100
AcDbEntity
  8
文字
 62
     7
 48
50.0
100
AcDbText
 10
13271.19032244791
 20
10420.01374588372
 30
0.0
 40
100.0
  1
5
  7
STYLE1
100
AcDbText
  0
TEXT
  5
1C8FF
330
747D
100
AcDbEntity
  8
文字
 62
     7
 48
50.0
100
AcDbText
 10
13583.1181901657
 20
10250.01374588373
 30
0.0
 40
100.0
  1
桁前後
  7
STYLE1
100
AcDbText
  0
TEXT
  5
1C900
330
747D
100
AcDbEntity
  8
文字
 62
     7
 48
50.0
100
AcDbText
 10
13583.1181901657
 20
10760.01374588372
 30
0.0
 40
100.0
  1
柱
  7
STYLE1
100
AcDbText
  0
TEXT
  5
1C901
330
747D
100
AcDbEntity
  8
文字
 62
     7
 48
50.0
100
AcDbText
 10
13583.11819016568
 20
11100.01374588373
 30
0.0
 40
100.0
  1
土台枠
  7
STYLE1
100
AcDbText
  0
TEXT
  5
1C902
330
747D
100
AcDbEntity
  8
文字
 62
     7
 48
50.0
100
AcDbText
 10
14859.79774614481
 20
11270.01374588372
 30
0.0
 40
100.0
  1
材料（材質）　　単位mm
  7
STYLE1
100
AcDbText
  0
TEXT
  5
1C903
330
747D
100
AcDbEntity
  8
文字
 62
     7
 48
50.0
100
AcDbText
 10
13732.03840939434
 20
11270.01374588372
 30
0.0
 40
100.0
  1
部　　品　　名
  7
STYLE1
100
AcDbText
  0
TEXT
  5
1C904
330
747D
100
AcDbEntity
  8
文字
 62
     7
 48
50.0
100
AcDbText
 10
13271.19032244791
 20
10760.01374588373
 30
0.0
 40
100.0
  1
3
  7
STYLE1
100
AcDbText
  0
TEXT
  5
1C905
330
747D
100
AcDbEntity
  8
文字
 62
     7
 48
50.0
100
AcDbText
 10
13271.19032244791
 20
10590.01374588373
 30
0.0
 40
100.0
  1
4
  7
STYLE1
100
AcDbText
  0
TEXT
  5
1C906
330
747D
100
AcDbEntity
  8
文字
 62
     7
 48
50.0
100
AcDbText
 10
13271.19032244791
 20
10930.01374588373
 30
0.0
 40
100.0
  1
2
  7
STYLE1
100
AcDbText
  0
TEXT
  5
1C907
330
747D
100
AcDbEntity
  8
文字
 62
     7
 48
50.0
100
AcDbText
 10
13271.19032244791
 20
11100.01374588373
 30
0.0
 40
100.0
  1
1
  7
STYLE1
100
AcDbText
  0
TEXT
  5
1C908
330
747D
100
AcDbEntity
  8
文字
 62
     7
 48
50.0
100
AcDbText
 10
13197.42518560407
 20
11270.01374588372
 30
0.0
 40
100.0
  1
品番
  7
STYLE1
100
AcDbText
  0
LINE
  5
1C909
330
747D
100
AcDbEntity
  8
仕様書枠
 48
50.0
100
AcDbLine
 10
16307.19999999998
 20
10729.6
 30
0.0
 11
13127.2
 21
10729.6
 31
0.0
  0
LINE
  5
1C90A
330
747D
100
AcDbEntity
  8
仕様書枠
 48
50.0
100
AcDbLine
 10
16307.19999999998
 20
10219.6
 30
0.0
 11
13127.2
 21
10219.6
 31
0.0
  0
LINE
  5
1C90B
330
747D
100
AcDbEntity
  8
仕様書枠
 48
50.0
100
AcDbLine
 10
16307.19999999998
 20
10389.6
 30
0.0
 11
13127.2
 21
10389.6
 31
0.0
  0
LINE
  5
1C90C
330
747D
100
AcDbEntity
  8
仕様書枠
 48
50.0
100
AcDbLine
 10
16307.2
 20
11069.6
 30
0.0
 11
13127.2
 21
11069.6
 31
0.0
  0
LINE
  5
1C90D
330
747D
100
AcDbEntity
  8
仕様書枠
 48
50.0
100
AcDbLine
 10
16307.2
 20
10899.6
 30
0.0
 11
13127.2
 21
10899.6
 31
0.0
  0
LINE
  5
1C90E
330
747D
100
AcDbEntity
  8
仕様書枠
 48
50.0
100
AcDbLine
 10
16307.2
 20
11239.6
 30
0.0
 11
13127.2
 21
11239.6
 31
0.0
  0
LINE
  5
1C90F
330
747D
100
AcDbEntity
  8
仕様書枠
 48
50.0
100
AcDbLine
 10
13490.2
 20
11409.6
 30
0.0
 11
13490.2
 21
7839.60000000001
 31
0.0
  0
LINE
  5
1C910
330
747D
100
AcDbEntity
  8
仕様書枠
 48
50.0
100
AcDbLine
 10
14785.2
 20
11409.59999999999
 30
0.0
 11
14785.2
 21
7839.600000000006
 31
0.0
  0
LINE
  5
1C911
330
747D
100
AcDbEntity
  8
仕様書枠
 48
50.0
100
AcDbLine
 10
16307.19999999998
 20
7499.600000000007
 30
0.0
 11
16307.2
 21
11409.6
 31
0.0
  0
LINE
  5
1C912
330
747D
100
AcDbEntity
  8
仕様書枠
 48
50.0
100
AcDbLine
 10
16307.2
 20
11409.6
 30
0.0
 11
13127.2
 21
11409.6
 31
0.0
  0
LINE
  5
1C913
330
747D
100
AcDbEntity
  8
仕様書枠
 48
50.0
100
AcDbLine
 10
16307.2
 20
9879.600000000001
 30
0.0
 11
13127.2
 21
9879.600000000001
 31
0.0
  0
TEXT
  5
1C914
330
747D
100
AcDbEntity
  8
文字
 62
     7
 48
50.0
100
AcDbText
 10
15022.63965474515
 20
7870.013745883726
 30
0.0
 40
100.0
  1
F12            2.3
  7
STYLE1
100
AcDbText
  0
TEXT
  5
1C915
330
747D
100
AcDbEntity
  8
文字
 62
     7
 48
50.0
100
AcDbText
 10
13583.11819016568
 20
7870.01374588373
 30
0.0
 40
100.0
  1
アンカープレート
  7
STYLE1
100
AcDbText
  0
LINE
  5
1C916
330
747D
100
AcDbEntity
  8
仕様書枠
 48
50.0
100
AcDbLine
 10
16307.19999999998
 20
8179.600000000004
 30
0.0
 11
13127.2
 21
8179.600000000004
 31
0.0
  0
LINE
  5
1C917
330
747D
100
AcDbEntity
  8
仕様書枠
 48
50.0
100
AcDbLine
 10
16307.19999999998
 20
8349.600000000002
 30
0.0
 11
13127.2
 21
8349.600000000004
 31
0.0
  0
TEXT
  5
1C918
330
747D
100
AcDbEntity
  8
文字
 62
     7
 48
50.0
100
AcDbText
 10
13583.11819016568
 20
8890.013745883729
 30
0.0
 40
100.0
  1
壁面扉鴨居
  7
STYLE1
100
AcDbText
  0
TEXT
  5
1C919
330
747D
100
AcDbEntity
  8
文字
 62
     7
 48
50.0
100
AcDbText
 10
13583.11819016568
 20
8720.013745883733
 30
0.0
 40
100.0
  1
壁面扉敷居
  7
STYLE1
100
AcDbText
  0
TEXT
  5
1C91A
330
747D
100
AcDbEntity
  8
文字
 62
     7
 48
50.0
100
AcDbText
 10
15022.63965474515
 20
8890.013745883729
 30
0.0
 40
100.0
  1
F12            0.7
  7
STYLE1
100
AcDbText
  0
TEXT
  5
1C91B
330
747D
100
AcDbEntity
  8
文字
 62
     7
 48
50.0
100
AcDbText
 10
15022.63965474516
 20
8720.013745883724
 30
0.0
 40
100.0
  1
F12            1.0
  7
STYLE1
100
AcDbText
  0
TEXT
  5
1C91C
330
747D
100
AcDbEntity
  8
文字
 62
     7
 48
50.0
100
AcDbText
 10
13583.11819016568
 20
8550.013745883733
 30
0.0
 40
100.0
  1
壁面扉枠左右
  7
STYLE1
100
AcDbText
  0
TEXT
  5
1C91D
330
747D
100
AcDbEntity
  8
文字
 62
     7
 48
50.0
100
AcDbText
 10
15022.63965474516
 20
8550.013745883726
 30
0.0
 40
100.0
  1
F12            1.0
  7
STYLE1
100
AcDbText
  0
TEXT
  5
1C91E
330
747D
100
AcDbEntity
  8
文字
 62
     7
 48
50.0
100
AcDbText
 10
13248.77747366447
 20
8550.013745883727
 30
0.0
 40
100.0
  1
16
  7
STYLE1
100
AcDbText
  0
TEXT
  5
1C91F
330
747D
100
AcDbEntity
  8
文字
 62
     7
 48
50.0
100
AcDbText
 10
13248.77747366447
 20
8380.013745883728
 30
0.0
 40
100.0
  1
17
  7
STYLE1
100
AcDbText
  0
TEXT
  5
1C920
330
747D
100
AcDbEntity
  8
文字
 62
     7
 48
50.0
100
AcDbText
 10
13583.1181901657
 20
9740.013745883729
 30
0.0
 40
100.0
  1
梁中
 41
0.9
  7
STYLE1
100
AcDbText
  0
TEXT
  5
1C921
330
747D
100
AcDbEntity
  8
文字
 62
     7
 48
50.0
100
AcDbText
 10
15022.63965474516
 20
9740.013745883729
 30
0.0
 40
100.0
  1
F12,Y10        1.0
  7
STYLE1
100
AcDbText
  0
TEXT
  5
1C922
330
747D
100
AcDbEntity
  8
文字
 62
     7
 48
50.0
100
AcDbText
 10
15022.63965474516
 20
9230.013745883717
 30
0.0
 40
100.0
  1
F12            1.2
  7
STYLE1
100
AcDbText
  0
TEXT
  5
1CB66
330
747D
100
AcDbEntity
  8
文字
 62
     7
 48
50.0
100
AcDbText
 10
15022.63965474515
 20
9570.013745883725
 30
0.0
 40
100.0
  1
F12            0.6
  7
STYLE1
100
AcDbText
  0
LINE
  5
1CB68
330
747D
100
AcDbEntity
  8
仕様書枠
 48
50.0
100
AcDbLine
 10
16307.19999999998
 20
9539.599999999998
 30
0.0
 11
13127.2
 21
9539.600000000003
 31
0.0
  0
TEXT
  5
1CB69
330
747D
100
AcDbEntity
  8
文字
 62
     7
 48
50.0
100
AcDbText
 10
13583.11819016567
 20
9570.013745883731
 30
0.0
 40
100.0
  1
腰パネル
  7
STYLE1
100
AcDbText
  0
TEXT
  5
1CB6A
330
747D
100
AcDbEntity
  8
文字
 62
     7
 48
50.0
100
AcDbText
 10
13248.77747366447
 20
8210.013745883726
 30
0.0
 40
100.0
  1
18
  7
STYLE1
100
AcDbText
  0
TEXT
  5
1D055
330
747D
100
AcDbEntity
  8
文字
 62
     7
 48
50.0
100
AcDbText
 10
15022.63965474516
 20
10590.01374588372
 30
0.0
 40
100.0
  1
F12            1.0
  7
STYLE1
100
AcDbText
  0
TEXT
  5
1D056
330
747D
100
AcDbEntity
  8
文字
 62
     7
 48
50.0
100
AcDbText
 10
13583.1181901657
 20
10590.01374588373
 30
0.0
 40
100.0
  1
柱中カバー
 41
0.9
  7
STYLE1
100
AcDbText
  0
LINE
  5
1D057
330
747D
100
AcDbEntity
  8
仕様書枠
 48
50.0
100
AcDbLine
 10
16307.19999999998
 20
10559.6
 30
0.0
 11
13127.2
 21
10559.6
 31
0.0
  0
TEXT
  5
1D058
330
747D
100
AcDbEntity
  8
文字
 62
     7
 48
50.0
100
AcDbText
 10
13248.77747366447
 20
7870.013745883733
 30
0.0
 40
100.0
  1
20
  7
STYLE1
100
AcDbText
  0
LINE
  5
1D251
102
{ACAD_REACTORS
330
1D34C
102
}
330
747D
100
AcDbEntity
  8
部品1
100
AcDbLine
 10
5052.152607796139
 20
9335.944826768576
 30
0.0
 11
5052.152607796139
 21
9307.944826768576
 31
0.0
  0
LINE
  5
1D259
102
{ACAD_REACTORS
330
1D34C
102
}
330
747D
100
AcDbEntity
  8
部品1
100
AcDbLine
 10
4185.652607796139
 20
8855.94482676846
 30
0.0
 11
5038.652607796137
 21
8855.944826768565
 31
0.0
  0
LINE
  5
1D25B
102
{ACAD_REACTORS
330
1D34C
102
}
330
747D
100
AcDbEntity
  8
細線
 48
50.0
100
AcDbLine
 10
5038.652607796139
 20
9305.944826768564
 30
0.0
 11
4185.652607796138
 21
8855.94482676846
 31
0.0
  0
LINE
  5
1D25C
102
{ACAD_REACTORS
330
1D34C
102
}
330
747D
100
AcDbEntity
  8
細線
 48
50.0
100
AcDbLine
 10
5038.652607796137
 20
8855.944826768565
 30
0.0
 11
4185.652607796138
 21
9305.944826768461
 31
0.0
  0
LINE
  5
1D25D
102
{ACAD_REACTORS
330
1D34C
102
}
330
747D
100
AcDbEntity
  8
部品1
100
AcDbLine
 10
4185.652607796138
 20
9305.944826768461
 30
0.0
 11
5038.652607796139
 21
9305.944826768568
 31
0.0
  0
LINE
  5
1D261
102
{ACAD_REACTORS
330
1D34C
102
}
330
747D
100
AcDbEntity
  8
部品1
 48
50.0
100
AcDbLine
 10
4185.652607796138
 20
9305.944826768458
 30
0.0
 11
4185.652607796138
 21
8855.944826768459
 31
0.0
  0
LINE
  5
1D265
102
{ACAD_REACTORS
330
1D34C
102
}
330
747D
100
AcDbEntity
  8
部品1
100
AcDbLine
 10
5065.652607796138
 20
8855.944826768565
 30
0.0
 11
5918.652607796139
 21
8855.944826768558
 31
0.0
  0
LINE
  5
1D266
102
{ACAD_REACTORS
330
1D34C
102
}
330
747D
100
AcDbEntity
  8
細線
 48
50.0
100
AcDbLine
 10
5918.652607796139
 20
9305.944826768557
 30
0.0
 11
5065.652607796138
 21
8855.944826768565
 31
0.0
  0
LINE
  5
1D267
102
{ACAD_REACTORS
330
1D34C
102
}
330
747D
100
AcDbEntity
  8
細線
 48
50.0
100
AcDbLine
 10
5918.652607796139
 20
8855.944826768558
 30
0.0
 11
5065.652607796138
 21
9305.944826768561
 31
0.0
  0
LINE
  5
1D268
102
{ACAD_REACTORS
330
1D34C
102
}
330
747D
100
AcDbEntity
  8
部品1
100
AcDbLine
 10
5065.652607796138
 20
9305.944826768564
 30
0.0
 11
5918.652607796139
 21
9305.944826768557
 31
0.0
  0
LINE
  5
1D26A
102
{ACAD_REACTORS
330
1D34C
102
}
330
747D
100
AcDbEntity
  8
部品1
 48
50.0
100
AcDbLine
 10
5065.652607796138
 20
9305.944826768561
 30
0.0
 11
5065.652607796138
 21
8855.944826768565
 31
0.0
  0
LINE
  5
1D26B
102
{ACAD_REACTORS
330
1D34C
102
}
330
747D
100
AcDbEntity
  8
部品1
 48
50.0
100
AcDbLine
 10
5038.652607796139
 20
9305.944826768564
 30
0.0
 11
5038.652607796139
 21
8855.944826768565
 31
0.0
  0
LINE
  5
1D26C
102
{ACAD_REACTORS
330
1D34C
102
}
330
747D
100
AcDbEntity
  8
部品1
 48
50.0
100
AcDbLine
 10
5064.652607796139
 20
9307.944826768567
 30
0.0
 11
5064.652607796139
 21
8855.944826768565
 31
0.0
  0
LINE
  5
1D26D
102
{ACAD_REACTORS
330
1D34C
102
}
330
747D
100
AcDbEntity
  8
部品1
 48
50.0
100
AcDbLine
 10
5039.652607796138
 20
9307.944826768572
 30
0.0
 11
5039.652607796138
 21
8855.944826768565
 31
0.0
  0
LINE
  5
1D26E
102
{ACAD_REACTORS
330
1D34C
102
}
330
747D
100
AcDbEntity
  8
部品1
100
AcDbLine
 10
5039.652607796138
 20
8855.944826768565
 30
0.0
 11
5064.652607796139
 21
8855.944826768565
 31
0.0
  0
LINE
  5
1D26F
102
{ACAD_REACTORS
330
1D34C
102
}
330
747D
100
AcDbEntity
  8
部品1
100
AcDbLine
 10
5039.652607796138
 20
9299.944826768561
 30
0.0
 11
5064.652607796139
 21
9299.944826768564
 31
0.0
  0
LINE
  5
1D270
102
{ACAD_REACTORS
330
1D34C
102
}
330
747D
100
AcDbEntity
  8
部品1
100
AcDbLine
 10
5081.152607796139
 20
9325.944826768564
 30
0.0
 11
5087.152607796139
 21
9325.944826768564
 31
0.0
  0
LINE
  5
1D271
102
{ACAD_REACTORS
330
1D34C
102
}
330
747D
100
AcDbEntity
  8
部品1
100
AcDbLine
 10
5087.152607796139
 20
9325.944826768564
 30
0.0
 11
5087.152607796139
 21
9307.944826768563
 31
0.0
  0
LINE
  5
1D272
102
{ACAD_REACTORS
330
1D34C
102
}
330
747D
100
AcDbEntity
  8
部品1
100
AcDbLine
 10
5017.152607796139
 20
9325.944826768564
 30
0.0
 11
5023.152607796139
 21
9325.944826768564
 31
0.0
  0
LINE
  5
1D273
102
{ACAD_REACTORS
330
1D34C
102
}
330
747D
100
AcDbEntity
  8
部品1
100
AcDbLine
 10
5017.152607796139
 20
9325.944826768564
 30
0.0
 11
5017.152607796139
 21
9307.944826768563
 31
0.0
  0
LINE
  5
1D274
102
{ACAD_REACTORS
330
1D34C
102
}
330
747D
100
AcDbEntity
  8
部品1
100
AcDbLine
 10
5918.652607796139
 20
9305.944826768557
 30
0.0
 11
5918.652607796139
 21
8855.944826768558
 31
0.0
  0
MTEXT
  5
1D281
102
{ACAD_REACTORS
330
1D34C
102
}
330
747D
100
AcDbEntity
  8
寸法
 62
     7
 48
50.0
100
AcDbMText
 10
4627.432405406778
 20
8931.779986727914
 30
0.0
 40
96.0
 41
0.0
 71
     5
 72
     1
  1
棚 2段
  7
STYLE1
 73
     1
 44
1.0
1001
ACAD
1000
MTEXTBEGIN
1070
    73
1070
     1
1070
    44
1040
1.0
1070
    74
1070
     0
1000
MTEXTEND
  0
MTEXT
  5
1D282
102
{ACAD_REACTORS
330
1D34C
102
}
330
747D
100
AcDbEntity
  8
寸法
 62
     7
 48
50.0
100
AcDbMText
 10
5507.44813638477
 20
8931.779986727958
 30
0.0
 40
96.0
 41
0.0
 71
     5
 72
     1
  1
棚 2段
  7
STYLE1
 73
     1
 44
1.0
1001
ACAD
1000
MTEXTBEGIN
1070
    73
1070
     1
1070
    44
1040
1.0
1070
    74
1070
     0
1000
MTEXTEND
  0
LINE
  5
1D3A2
330
747D
100
AcDbEntity
  8
部品1
100
AcDbLine
 10
5039.652607796137
 20
9307.944826768581
 30
0.0
 11
4212.152607796139
 21
9307.944826768581
 31
0.0
  0
DIMENSION
  5
1D3A3
330
747D
100
AcDbEntity
  8
寸法
 48
50.0
100
AcDbDimension
  2
*D20
 10
5977.346104090127
 20
9524.991937011446
 30
0.0
 11
5550.846104090123
 21
9524.991937011446
 31
0.0
 70
   160
 71
     5
 42
853.0000000000109
  3
INABA_S40G
100
AcDbAlignedDimension
 13
5065.652607796138
 23
9305.94482676846
 33
0.0
 14
5918.65260779615
 24
9305.944826768465
 34
0.0
100
AcDbRotatedDimension
1001
ACAD
1000
DSTYLE
1002
{
1070
   341
1005
0
1002
}
  0
DIMENSION
  5
1D3A4
330
747D
100
AcDbEntity
  8
寸法
100
AcDbDimension
  2
*D21
 10
5097.346104090131
 20
9524.991937011552
 30
0.0
 11
4670.846104090125
 21
9524.991937011552
 31
0.0
 70
   160
 71
     5
 42
853.0000000000118
  3
INABA_S40G
100
AcDbAlignedDimension
 13
4185.65260779614
 23
9305.944826768564
 33
0.0
 14
5038.652607796152
 24
9305.944826768572
 34
0.0
100
AcDbRotatedDimension
  0
DIMENSION
  5
1D3CF
330
747D
100
AcDbEntity
  8
寸法
100
AcDbDimension
  2
*D22
 10
3913.573261219406
 20
8928.848267960985
 30
0.0
 11
3813.573261219404
 21
9153.848267960984
 31
0.0
 70
    32
 71
     5
 42
449.9999999999982
  3
INABA_S40G
100
AcDbAlignedDimension
 13
4185.652607796138
 23
9305.944826768557
 33
0.0
 14
4185.652607796138
 24
8855.944826768558
 34
0.0
 50
90.0
100
AcDbRotatedDimension
  0
LINE
  5
1D42A
330
747D
100
AcDbEntity
  8
破線
  6
HIDDEN
 48
10.0
100
AcDbLine
 10
4235.652607796143
 20
8855.944826768466
 30
0.0
 11
4235.652607796136
 21
7624.444826768578
 31
0.0
  0
LINE
  5
1D42B
330
747D
100
AcDbEntity
  8
部品1
100
AcDbLine
 10
4212.152607796141
 20
8855.944826768462
 30
0.0
 11
4212.152607796135
 21
7600.944826768579
 31
0.0
  0
TEXT
  5
1D432
330
747D
100
AcDbEntity
  8
文字
 62
     7
 48
50.0
100
AcDbText
 10
13583.11819016568
 20
8040.013745883731
 30
0.0
 40
100.0
  1
棚板
  7
STYLE1
100
AcDbText
  0
TEXT
  5
1D433
330
747D
100
AcDbEntity
  8
文字
 62
     7
 48
50.0
100
AcDbText
 10
15022.63965474515
 20
8040.013745883729
 30
0.0
 40
100.0
  1
F12            0.6
  7
STYLE1
100
AcDbText
  0
LINE
  5
1D434
330
747D
100
AcDbEntity
  8
仕様書枠
 48
50.0
100
AcDbLine
 10
16307.19999999998
 20
8009.600000000006
 30
0.0
 11
13127.2
 21
8009.600000000006
 31
0.0
  0
TEXT
  5
1D435
330
747D
100
AcDbEntity
  8
文字
 62
     7
 48
50.0
100
AcDbText
 10
13248.77747366447
 20
8040.013745883729
 30
0.0
 40
100.0
  1
19
  7
STYLE1
100
AcDbText
  0
DIMENSION
  5
1D4A5
330
747D
100
AcDbEntity
  8
寸法
 48
50.0
100
AcDbDimension
  2
*D23
 10
8441.947768118083
 20
4312.274643912295
 30
0.0
 11
8241.947768118082
 21
3394.774643912297
 31
0.0
 70
    32
  1
開放部\P開口高サ<>
 71
     5
 42
1834.999999999999
  3
INABA_S40G
100
AcDbAlignedDimension
 13
7622.152607796138
 23
2477.274643912296
 33
0.0
 14
7477.152607796139
 24
4312.274643912295
 34
0.0
 50
90.0
100
AcDbRotatedDimension
  0
DIMENSION
  5
1D519
330
747D
100
AcDbEntity
  8
寸法
 48
50.0
100
AcDbDimension
  2
*D24
 10
3727.84768750966
 20
2535.274643912295
 30
0.0
 11
3627.835876486038
 21
3397.774643912296
 31
0.0
 70
    32
  1
有効開口部高サ<>
 71
     5
 42
1725.0
  3
INABA_S40G
100
AcDbAlignedDimension
 13
4185.15260779614
 23
4260.274643912294
 33
0.0
 14
4185.15260779614
 24
2535.274643912295
 34
0.0
 50
90.0
100
AcDbRotatedDimension
1001
ACAD
1000
DSTYLE
1002
{
1070
   341
1005
0
1002
}
  0
LINE
  5
1D6EE
330
747D
100
AcDbEntity
  8
部品1
100
AcDbLine
 10
5975.152607796137
 20
9280.944826768582
 30
0.0
 11
5975.152607796137
 21
9307.944826768581
 31
0.0
  0
LINE
  5
1DDDF
330
747D
100
AcDbEntity
  8
破線
  6
HIDDEN
 48
5.0
100
AcDbLine
 10
7422.152607796139
 20
2514.274643912296
 30
0.0
 11
7422.152607796139
 21
2377.274643912294
 31
0.0
  0
TEXT
  5
1E25D
330
747D
100
AcDbEntity
  8
文字
 62
     7
 48
50.0
100
AcDbText
 10
13209.4053442172
 20
76.09434707649343
 30
0.0
 40
100.0
  1
○床面積 ： 6.07㎡(1.84坪) 　
  7
STYLE2
100
AcDbText
  0
ARC
  5
1E2C5
330
747D
100
AcDbEntity
  8
部品1
 48
0.01
100
AcDbCircle
 10
5369.152607796139
 20
4349.774643912295
 30
0.0
 40
2.0
100
AcDbArc
 50
180.0
 51
270.0
  0
ARC
  5
1E2C6
330
747D
100
AcDbEntity
  8
部品1
 48
0.01
100
AcDbCircle
 10
5369.152607796139
 20
4381.274643912294
 30
0.0
 40
2.0
100
AcDbArc
 50
90.0
 51
180.0
  0
ARC
  5
1E2C7
330
747D
100
AcDbEntity
  8
部品1
 48
0.01
100
AcDbCircle
 10
5545.152607796139
 20
4349.774643912295
 30
0.0
 40
2.0
100
AcDbArc
 50
270.0
 51
0.0
  0
ARC
  5
1E2C8
330
747D
100
AcDbEntity
  8
部品1
 48
0.01
100
AcDbCircle
 10
5545.152607796139
 20
4381.274643912294
 30
0.0
 40
2.0
100
AcDbArc
 50
0.0
 51
90.0
  0
LINE
  5
1E2C9
330
747D
100
AcDbEntity
  8
細線
100
AcDbLine
 10
5457.152607796139
 20
4353.774643912294
 30
0.0
 11
5383.152607796139
 21
4353.774643912294
 31
0.0
  0
LINE
  5
1E2CA
330
747D
100
AcDbEntity
  8
細線
100
AcDbLine
 10
5457.152607796139
 20
4376.774643912295
 30
0.0
 11
5531.152607796139
 21
4376.774643912295
 31
0.0
  0
LINE
  5
1E2CB
330
747D
100
AcDbEntity
  8
細線
100
AcDbLine
 10
5531.152607796139
 20
4353.774643912294
 30
0.0
 11
5457.152607796139
 21
4353.774643912294
 31
0.0
  0
LINE
  5
1E2CC
330
747D
100
AcDbEntity
  8
細線
100
AcDbLine
 10
5383.152607796139
 20
4376.774643912295
 30
0.0
 11
5457.152607796139
 21
4376.774643912295
 31
0.0
  0
LINE
  5
1E2CD
330
747D
100
AcDbEntity
  8
細線
100
AcDbLine
 10
5383.152607796139
 20
4353.774643912294
 30
0.0
 11
5383.152607796139
 21
4376.774643912295
 31
0.0
  0
LINE
  5
1E2CE
330
747D
100
AcDbEntity
  8
細線
100
AcDbLine
 10
5531.152607796139
 20
4376.774643912295
 30
0.0
 11
5531.152607796139
 21
4353.774643912294
 31
0.0
  0
LINE
  5
1E2CF
330
747D
100
AcDbEntity
  8
部品1
 48
0.01
100
AcDbLine
 10
5367.152607796139
 20
4349.774643912295
 30
0.0
 11
5367.152607796139
 21
4381.274643912294
 31
0.0
  0
LINE
  5
1E2D0
330
747D
100
AcDbEntity
  8
部品1
 48
0.01
100
AcDbLine
 10
5545.152607796139
 20
4347.774643912294
 30
0.0
 11
5369.152607796139
 21
4347.774643912294
 31
0.0
  0
LINE
  5
1E2D1
330
747D
100
AcDbEntity
  8
部品1
 48
0.01
100
AcDbLine
 10
5547.152607796139
 20
4381.274643912294
 30
0.0
 11
5547.152607796139
 21
4349.774643912295
 31
0.0
  0
LINE
  5
1E2D2
330
747D
100
AcDbEntity
  8
部品1
 48
0.01
100
AcDbLine
 10
5369.152607796139
 20
4383.274643912295
 30
0.0
 11
5545.152607796139
 21
4383.274643912295
 31
0.0
  0
LINE
  5
1E2D3
330
747D
100
AcDbEntity
  8
細線
100
AcDbLine
 10
5531.152607796139
 20
4370.774643912294
 30
0.0
 11
5457.152607796139
 21
4370.774643912294
 31
0.0
  0
LINE
  5
1E2D4
330
747D
100
AcDbEntity
  8
細線
100
AcDbLine
 10
5531.152607796139
 20
4364.774643912294
 30
0.0
 11
5457.152607796139
 21
4364.774643912294
 31
0.0
  0
LINE
  5
1E2D5
330
747D
100
AcDbEntity
  8
細線
100
AcDbLine
 10
5531.152607796139
 20
4358.774643912294
 30
0.0
 11
5457.152607796139
 21
4358.774643912294
 31
0.0
  0
LINE
  5
1E2D6
330
747D
100
AcDbEntity
  8
細線
100
AcDbLine
 10
5531.152607796139
 20
4370.774643912294
 30
0.0
 11
5462.152607796139
 21
4370.774643912294
 31
0.0
  0
LINE
  5
1E2D7
330
747D
100
AcDbEntity
  8
細線
100
AcDbLine
 10
5383.152607796139
 20
4370.774643912294
 30
0.0
 11
5457.152607796139
 21
4370.774643912294
 31
0.0
  0
LINE
  5
1E2D8
330
747D
100
AcDbEntity
  8
細線
100
AcDbLine
 10
5383.152607796139
 20
4358.774643912294
 30
0.0
 11
5457.152607796139
 21
4358.774643912294
 31
0.0
  0
LINE
  5
1E2D9
330
747D
100
AcDbEntity
  8
細線
100
AcDbLine
 10
5383.152607796139
 20
4364.774643912294
 30
0.0
 11
5457.152607796139
 21
4364.774643912294
 31
0.0
  0
LINE
  5
1E2DA
330
747D
100
AcDbEntity
  8
細線
100
AcDbLine
 10
5457.152607796139
 20
4376.774643912295
 30
0.0
 11
5457.152607796139
 21
4353.774643912294
 31
0.0
  0
LINE
  5
1E2DB
330
747D
100
AcDbEntity
  8
細線
100
AcDbLine
 10
4647.152607796139
 20
4376.774643912295
 30
0.0
 11
4647.152607796137
 21
4353.774643912294
 31
0.0
  0
LINE
  5
1E2DC
330
747D
100
AcDbEntity
  8
細線
100
AcDbLine
 10
4721.152607796137
 20
4364.774643912294
 30
0.0
 11
4647.152607796139
 21
4364.774643912294
 31
0.0
  0
LINE
  5
1E2DD
330
747D
100
AcDbEntity
  8
細線
100
AcDbLine
 10
4721.152607796137
 20
4358.774643912294
 30
0.0
 11
4647.152607796139
 21
4358.774643912294
 31
0.0
  0
LINE
  5
1E2DE
330
747D
100
AcDbEntity
  8
細線
100
AcDbLine
 10
4721.152607796137
 20
4370.774643912294
 30
0.0
 11
4647.152607796139
 21
4370.774643912294
 31
0.0
  0
LINE
  5
1E2DF
330
747D
100
AcDbEntity
  8
細線
100
AcDbLine
 10
4573.152607796139
 20
4370.774643912294
 30
0.0
 11
4642.152607796139
 21
4370.774643912294
 31
0.0
  0
LINE
  5
1E2E0
330
747D
100
AcDbEntity
  8
細線
100
AcDbLine
 10
4573.152607796137
 20
4358.774643912294
 30
0.0
 11
4647.152607796139
 21
4358.774643912294
 31
0.0
  0
LINE
  5
1E2E1
330
747D
100
AcDbEntity
  8
細線
100
AcDbLine
 10
4573.152607796139
 20
4364.774643912294
 30
0.0
 11
4647.152607796139
 21
4364.774643912294
 31
0.0
  0
LINE
  5
1E2E2
330
747D
100
AcDbEntity
  8
細線
100
AcDbLine
 10
4573.152607796139
 20
4370.774643912294
 30
0.0
 11
4647.152607796139
 21
4370.774643912294
 31
0.0
  0
LINE
  5
1E2E3
330
747D
100
AcDbEntity
  8
部品1
 48
0.01
100
AcDbLine
 10
4735.152607796139
 20
4383.274643912295
 30
0.0
 11
4559.152607796138
 21
4383.274643912295
 31
0.0
  0
LINE
  5
1E2E4
330
747D
100
AcDbEntity
  8
部品1
 48
0.01
100
AcDbLine
 10
4557.152607796139
 20
4381.274643912294
 30
0.0
 11
4557.152607796139
 21
4349.774643912295
 31
0.0
  0
LINE
  5
1E2E5
330
747D
100
AcDbEntity
  8
部品1
 48
0.01
100
AcDbLine
 10
4559.152607796138
 20
4347.774643912294
 30
0.0
 11
4735.152607796137
 21
4347.774643912294
 31
0.0
  0
LINE
  5
1E2E6
330
747D
100
AcDbEntity
  8
部品1
 48
0.01
100
AcDbLine
 10
4737.152607796137
 20
4349.774643912295
 30
0.0
 11
4737.152607796139
 21
4381.274643912294
 31
0.0
  0
LINE
  5
1E2E7
330
747D
100
AcDbEntity
  8
細線
100
AcDbLine
 10
4573.152607796139
 20
4376.774643912295
 30
0.0
 11
4573.152607796139
 21
4353.774643912294
 31
0.0
  0
LINE
  5
1E2E8
330
747D
100
AcDbEntity
  8
細線
100
AcDbLine
 10
4721.152607796138
 20
4353.774643912294
 30
0.0
 11
4721.152607796138
 21
4376.774643912295
 31
0.0
  0
LINE
  5
1E2E9
330
747D
100
AcDbEntity
  8
細線
100
AcDbLine
 10
4721.152607796138
 20
4376.774643912295
 30
0.0
 11
4647.152607796139
 21
4376.774643912295
 31
0.0
  0
LINE
  5
1E2EA
330
747D
100
AcDbEntity
  8
細線
100
AcDbLine
 10
4573.152607796139
 20
4353.774643912294
 30
0.0
 11
4647.152607796139
 21
4353.774643912294
 31
0.0
  0
LINE
  5
1E2EB
330
747D
100
AcDbEntity
  8
細線
100
AcDbLine
 10
4647.152607796139
 20
4376.774643912295
 30
0.0
 11
4573.152607796139
 21
4376.774643912295
 31
0.0
  0
LINE
  5
1E2EC
330
747D
100
AcDbEntity
  8
細線
100
AcDbLine
 10
4647.152607796137
 20
4353.774643912294
 30
0.0
 11
4721.152607796138
 21
4353.774643912294
 31
0.0
  0
ARC
  5
1E2ED
330
747D
100
AcDbEntity
  8
部品1
 48
0.01
100
AcDbCircle
 10
4559.152607796138
 20
4381.274643912294
 30
0.0
 40
2.0
100
AcDbArc
 50
90.0
 51
180.0
  0
ARC
  5
1E2EE
330
747D
100
AcDbEntity
  8
部品1
 48
0.01
100
AcDbCircle
 10
4559.152607796138
 20
4349.774643912295
 30
0.0
 40
2.0
100
AcDbArc
 50
180.0
 51
270.0
  0
ARC
  5
1E2EF
330
747D
100
AcDbEntity
  8
部品1
 48
0.01
100
AcDbCircle
 10
4735.152607796139
 20
4381.274643912294
 30
0.0
 40
2.0
100
AcDbArc
 50
0.0
 51
90.0
  0
ARC
  5
1E2F0
330
747D
100
AcDbEntity
  8
部品1
 48
0.01
100
AcDbCircle
 10
4735.152607796137
 20
4349.774643912295
 30
0.0
 40
2.0
100
AcDbArc
 50
270.0
 51
0.0
  0
TEXT
  5
1E341
330
747D
100
AcDbEntity
  8
文字
 62
     7
 48
50.0
100
AcDbText
 10
14331.04559223102
 20
1031.557706291228
 30
0.0
 40
100.0
  1
                <縮尺> S=1/40
  7
STYLE2
100
AcDbText
  0
LINE
  5
1E36F
330
747D
100
AcDbEntity
  8
部品1
 48
50.0
100
AcDbLine
 10
6002.15260779614
 20
3652.274709524294
 30
0.0
 11
7422.152607796139
 21
3652.274709524294
 31
0.0
  0
LINE
  5
1E370
330
747D
100
AcDbEntity
  8
部品1
 48
50.0
100
AcDbLine
 10
6002.15260779614
 20
3594.17472440162
 30
0.0
 11
7422.152607796139
 21
3594.17472440162
 31
0.0
  0
LINE
  5
1E371
330
747D
100
AcDbEntity
  8
細線
 48
50.0
100
AcDbLine
 10
6002.15260779614
 20
3549.387555898813
 30
0.0
 11
7422.152607796139
 21
3549.387555898812
 31
0.0
  0
LINE
  5
1E372
330
747D
100
AcDbEntity
  8
細線
 48
50.0
100
AcDbLine
 10
6002.15260779614
 20
3537.161808790346
 30
0.0
 11
7422.152607796139
 21
3537.161808790345
 31
0.0
  0
DIMENSION
  5
1E373
330
747D
100
AcDbEntity
  8
寸法
 48
50.0
100
AcDbDimension
  2
*D25
 10
7910.054604585893
 20
3652.274709524294
 30
0.0
 11
7810.054604585893
 21
3202.274676718296
 31
0.0
 70
    32
 71
     5
 42
900.0000656119977
  3
INABA_S40G
100
AcDbAlignedDimension
 13
7422.152607796139
 23
2752.274643912296
 33
0.0
 14
7422.152607796139
 24
3652.274709524294
 34
0.0
 50
90.0
100
AcDbRotatedDimension
1001
ACAD
1000
DSTYLE
1002
{
1070
   271
1070
     0
1070
   341
1005
0
1002
}
  0
LINE
  5
1E3DA
330
747D
100
AcDbEntity
  8
破線
 48
5.0
100
AcDbLine
 10
4032.152607796138
 20
2377.274643912294
 30
0.0
 11
4032.152607796138
 21
2127.274643912294
 31
0.0
  0
LINE
  5
1E3DB
330
747D
100
AcDbEntity
  8
破線
 48
5.0
100
AcDbLine
 10
4282.152607796138
 20
2377.274643912294
 30
0.0
 11
4282.152607796138
 21
2127.274643912294
 31
0.0
  0
LINE
  5
1E3DC
330
747D
100
AcDbEntity
  8
破線
 48
5.0
100
AcDbLine
 10
4032.152607796138
 20
2127.274643912294
 30
0.0
 11
4282.152607796137
 21
2127.274643912294
 31
0.0
  0
LINE
  5
1E3E6
330
747D
100
AcDbEntity
  8
破線
  6
HIDDEN
 48
5.0
100
AcDbLine
 10
5722.152607796139
 20
2077.274643912275
 30
0.0
 11
6172.152607796139
 21
2077.274643912277
 31
0.0
  0
LINE
  5
1E3E7
330
747D
100
AcDbEntity
  8
破線
  6
HIDDEN
 48
5.0
100
AcDbLine
 10
5722.152607796139
 20
2377.274643912277
 30
0.0
 11
5722.152607796139
 21
2077.274643912275
 31
0.0
  0
LINE
  5
1E3E8
330
747D
100
AcDbEntity
  8
破線
  6
HIDDEN
 48
5.0
100
AcDbLine
 10
6172.152607796139
 20
2377.274643912276
 30
0.0
 11
6172.152607796139
 21
2077.274643912277
 31
0.0
  0
LINE
  5
1E3F9
330
747D
100
AcDbEntity
  8
破線
  6
HIDDEN
 48
5.0
100
AcDbLine
 10
7599.652607796137
 20
2077.274643912292
 30
0.0
 11
7299.65260779614
 21
2077.274643912294
 31
0.0
  0
LINE
  5
1E3FA
330
747D
100
AcDbEntity
  8
破線
  6
HIDDEN
 48
5.0
100
AcDbLine
 10
7299.65260779614
 20
2377.274643912294
 30
0.0
 11
7299.65260779614
 21
2077.274643912294
 31
0.0
  0
LINE
  5
1E3FB
330
747D
100
AcDbEntity
  8
破線
  6
HIDDEN
 48
5.0
100
AcDbLine
 10
7599.652607796137
 20
2377.274643912294
 30
0.0
 11
7599.652607796137
 21
2077.274643912292
 31
0.0
  0
LINE
  5
1E3FC
330
747D
100
AcDbEntity
  8
破線
  6
HIDDEN
 48
5.0
100
AcDbLine
 10
7398.852628200986
 20
2222.274643912293
 30
0.0
 11
7474.652607796141
 21
2222.274643912293
 31
0.0
  0
LINE
  5
1E3FD
330
747D
100
AcDbEntity
  8
部品1
100
AcDbLine
 10
7474.652607796141
 20
2509.274643912294
 30
0.0
 11
7474.652607796141
 21
2377.274643912293
 31
0.0
  0
LINE
  5
1E3FE
330
747D
100
AcDbEntity
  8
破線
  6
HIDDEN
 48
5.0
100
AcDbLine
 10
7474.652607796139
 20
2377.274643912293
 30
0.0
 11
7474.652607796141
 21
2222.274643912292
 31
0.0
  0
ARC
  5
1E3FF
330
747D
100
AcDbEntity
  8
部品1
100
AcDbCircle
 10
7469.652607796141
 20
2509.274643912294
 30
0.0
 40
5.0
100
AcDbArc
 50
0.0
 51
90.0
  0
LINE
  5
1E400
330
747D
100
AcDbEntity
  8
部品1
100
AcDbLine
 10
7418.852628200986
 20
2514.274643912294
 30
0.0
 11
7418.852628200987
 21
2377.274643912293
 31
0.0
  0
LINE
  5
1E401
330
747D
100
AcDbEntity
  8
破線
  6
HIDDEN
 48
5.0
100
AcDbLine
 10
7418.852628200987
 20
2377.274643912293
 30
0.0
 11
7418.852628200986
 21
2222.274643912292
 31
0.0
  0
LINE
  5
1E402
330
747D
100
AcDbEntity
  8
部品1
100
AcDbLine
 10
7418.852628200986
 20
2514.274643912294
 30
0.0
 11
7469.652607796141
 21
2514.274643912294
 31
0.0
  0
DIMENSION
  5
1E693
330
747D
100
AcDbEntity
  8
寸法
 48
50.0
100
AcDbDimension
  2
*D26
 10
13255.51517318188
 20
4497.274643912295
 30
0.0
 11
13155.50336215826
 21
3487.274643912297
 31
0.0
 70
    32
 71
     5
 42
2020.0
  3
INABA_S40G
100
AcDbAlignedDimension
 13
12564.30159419581
 23
2477.274643912295
 33
0.0
 14
12644.30159419583
 24
4497.274643912295
 34
0.0
 50
90.0
100
AcDbRotatedDimension
1001
ACAD
1000
DSTYLE
1002
{
1070
   341
1005
0
1002
}
  0
LINE
  5
1E694
330
747D
100
AcDbEntity
  8
部品1
100
AcDbLine
 10
12164.30159419581
 20
2477.274643912295
 30
0.0
 11
12164.30159419581
 21
2377.274643912295
 31
0.0
  0
LINE
  5
1E695
330
747D
100
AcDbEntity
  8
部品1
100
AcDbLine
 10
12564.30159419581
 20
4372.156452598299
 30
0.0
 11
12564.30159419583
 21
2377.274643912295
 31
0.0
  0
LINE
  5
1E696
330
747D
100
AcDbEntity
  8
部品1
100
AcDbLine
 10
11174.30159419581
 20
2477.274643912295
 30
0.0
 11
11174.30159419581
 21
2377.274643912295
 31
0.0
  0
LINE
  5
1E697
330
747D
100
AcDbEntity
  8
部品1
100
AcDbLine
 10
10774.30159419582
 20
4409.133163354542
 30
0.0
 11
10774.30159419582
 21
2377.274643912295
 31
0.0
  0
DIMENSION
  5
1E698
330
747D
100
AcDbEntity
  8
寸法
 48
50.0
100
AcDbDimension
  2
*D27
 10
10032.73608680522
 20
2477.274643912295
 30
0.0
 11
10032.73608680522
 21
2093.524643912295
 31
0.0
 70
   160
 71
     5
 42
50.0
  3
INABA_S40G
100
AcDbAlignedDimension
 13
10774.30159419582
 23
2527.274643912296
 33
0.0
 14
10697.30159419581
 24
2477.274643912295
 34
0.0
 50
90.0
100
AcDbRotatedDimension
1001
ACAD
1000
DSTYLE
1002
{
1070
   341
1005
0
1002
}
  0
DIMENSION
  5
1E699
330
747D
100
AcDbEntity
  8
寸法
 48
50.0
100
AcDbDimension
  2
*D28
 10
9739.818669960778
 20
2377.274643912295
 30
0.0
 11
9739.818669960778
 21
1962.274643912295
 31
0.0
 70
   160
 71
     5
 42
100.0
  3
INABA_S40G
100
AcDbAlignedDimension
 13
10697.30159419581
 23
2477.274643912295
 33
0.0
 14
9717.800518300681
 24
2377.274643912295
 34
0.0
 50
90.0
100
AcDbRotatedDimension
1001
ACAD
1000
DSTYLE
1002
{
1070
   341
1005
0
1002
}
  0
DIMENSION
  5
1E69A
330
747D
100
AcDbEntity
  8
寸法
 48
50.0
100
AcDbDimension
  2
*D29
 10
10032.73608680522
 20
2527.274643912296
 30
0.0
 11
9932.736086805219
 21
3422.274643912297
 31
0.0
 70
    32
 71
     5
 42
1790.0
  3
INABA_S40G
100
AcDbAlignedDimension
 13
10774.30159419582
 23
4317.274643912294
 33
0.0
 14
10774.30159419582
 24
2527.274643912296
 34
0.0
 50
90.0
100
AcDbRotatedDimension
1001
ACAD
1000
DSTYLE
1002
{
1070
   341
1005
0
1002
}
  0
LINE
  5
1E69B
330
747D
100
AcDbEntity
  8
部品1
100
AcDbLine
 10
11669.30159419581
 20
4317.274643912294
 30
0.0
 11
11669.30159419581
 21
2527.274643912296
 31
0.0
  0
LINE
  5
1E69C
330
747D
100
AcDbEntity
  8
部品1
100
AcDbLine
 10
12509.30159419581
 20
4317.274643912294
 30
0.0
 11
12509.30159419582
 21
2477.274643912295
 31
0.0
  0
LINE
  5
1E69D
330
747D
100
AcDbEntity
  8
部品1
100
AcDbLine
 10
12089.30159419581
 20
4317.274643912294
 30
0.0
 11
12089.30159419581
 21
2527.274643912296
 31
0.0
  0
LINE
  5
1E69E
330
747D
100
AcDbEntity
  8
部品1
100
AcDbLine
 10
10829.30159419581
 20
4317.274643912294
 30
0.0
 11
10829.30159419581
 21
2477.274643912295
 31
0.0
  0
LINE
  5
1E69F
330
747D
100
AcDbEntity
  8
部品1
100
AcDbLine
 10
11249.30159419581
 20
4317.274643912294
 30
0.0
 11
11249.30159419581
 21
2527.274643912296
 31
0.0
  0
LINE
  5
1E6A0
330
747D
100
AcDbEntity
  8
部品1
100
AcDbLine
 10
10829.30159419581
 20
2527.274643912296
 30
0.0
 11
12509.30159419582
 21
2527.274643912296
 31
0.0
  0
LINE
  5
1E6A1
330
747D
100
AcDbEntity
  8
部品1
100
AcDbLine
 10
10774.30159419582
 20
2477.274643912295
 30
0.0
 11
10697.30159419581
 21
2477.274643912295
 31
0.0
  0
LINE
  5
1E6A2
330
747D
100
AcDbEntity
  8
部品1
100
AcDbLine
 10
10774.30159419582
 20
2477.274643912295
 30
0.0
 11
12564.30159419583
 21
2477.274643912295
 31
0.0
  0
LINE
  5
1E6A3
330
747D
100
AcDbEntity
  8
部品1
100
AcDbLine
 10
10774.30159419582
 20
4317.274643912294
 30
0.0
 11
12564.30159419581
 21
4317.274643912294
 31
0.0
  0
LINE
  5
1E6A6
330
747D
100
AcDbEntity
  8
細線
 48
50.0
100
AcDbLine
 10
12166.80159419583
 20
4317.274643912294
 30
0.0
 11
12166.80159419583
 21
2527.274643912296
 31
0.0
  0
LINE
  5
1E6A7
330
747D
100
AcDbEntity
  8
細線
 48
50.0
100
AcDbLine
 10
12151.80159419583
 20
4317.274643912294
 30
0.0
 11
12151.80159419583
 21
2527.274643912296
 31
0.0
  0
LINE
  5
1E6A8
330
747D
100
AcDbEntity
  8
細線
 48
50.0
100
AcDbLine
 10
12291.80159419583
 20
4317.274643912294
 30
0.0
 11
12291.80159419583
 21
2527.274643912296
 31
0.0
  0
LINE
  5
1E6A9
330
747D
100
AcDbEntity
  8
細線
 48
50.0
100
AcDbLine
 10
12306.80159419583
 20
4317.274643912294
 30
0.0
 11
12306.80159419583
 21
2527.274643912296
 31
0.0
  0
LINE
  5
1E6AA
330
747D
100
AcDbEntity
  8
細線
 48
50.0
100
AcDbLine
 10
12446.80159419583
 20
4317.274643912294
 30
0.0
 11
12446.80159419583
 21
2527.274643912296
 31
0.0
  0
LINE
  5
1E6AB
330
747D
100
AcDbEntity
  8
細線
 48
50.0
100
AcDbLine
 10
12431.80159419583
 20
4317.274643912294
 30
0.0
 11
12431.80159419583
 21
2527.274643912296
 31
0.0
  0
LINE
  5
1E6AC
330
747D
100
AcDbEntity
  8
細線
 48
50.0
100
AcDbLine
 10
11746.80159419583
 20
4317.274643912294
 30
0.0
 11
11746.80159419583
 21
2527.274643912296
 31
0.0
  0
LINE
  5
1E6AD
330
747D
100
AcDbEntity
  8
細線
 48
50.0
100
AcDbLine
 10
11731.80159419582
 20
4317.274643912294
 30
0.0
 11
11731.80159419582
 21
2527.274643912296
 31
0.0
  0
LINE
  5
1E6AE
330
747D
100
AcDbEntity
  8
細線
 48
50.0
100
AcDbLine
 10
11871.80159419582
 20
4317.274643912294
 30
0.0
 11
11871.80159419582
 21
2527.274643912296
 31
0.0
  0
LINE
  5
1E6AF
330
747D
100
AcDbEntity
  8
細線
 48
50.0
100
AcDbLine
 10
11886.80159419583
 20
4317.274643912294
 30
0.0
 11
11886.80159419583
 21
2527.274643912296
 31
0.0
  0
LINE
  5
1E6B0
330
747D
100
AcDbEntity
  8
細線
 48
50.0
100
AcDbLine
 10
12026.80159419583
 20
4317.274643912294
 30
0.0
 11
12026.80159419583
 21
2527.274643912296
 31
0.0
  0
LINE
  5
1E6B1
330
747D
100
AcDbEntity
  8
細線
 48
50.0
100
AcDbLine
 10
12011.80159419583
 20
4317.274643912294
 30
0.0
 11
12011.80159419583
 21
2527.274643912296
 31
0.0
  0
LINE
  5
1E6B2
330
747D
100
AcDbEntity
  8
細線
 48
50.0
100
AcDbLine
 10
11591.80159419582
 20
4317.274643912294
 30
0.0
 11
11591.80159419582
 21
2527.274643912296
 31
0.0
  0
LINE
  5
1E6B3
330
747D
100
AcDbEntity
  8
細線
 48
50.0
100
AcDbLine
 10
11606.80159419583
 20
4317.274643912294
 30
0.0
 11
11606.80159419583
 21
2527.274643912296
 31
0.0
  0
LINE
  5
1E6B4
330
747D
100
AcDbEntity
  8
細線
 48
50.0
100
AcDbLine
 10
11466.80159419583
 20
4317.274643912294
 30
0.0
 11
11466.80159419583
 21
2527.274643912296
 31
0.0
  0
LINE
  5
1E6B5
330
747D
100
AcDbEntity
  8
細線
 48
50.0
100
AcDbLine
 10
11451.80159419582
 20
4317.274643912294
 30
0.0
 11
11451.80159419582
 21
2527.274643912296
 31
0.0
  0
LINE
  5
1E6B6
330
747D
100
AcDbEntity
  8
細線
 48
50.0
100
AcDbLine
 10
11311.80159419582
 20
4317.274643912294
 30
0.0
 11
11311.80159419582
 21
2527.274643912296
 31
0.0
  0
LINE
  5
1E6B7
330
747D
100
AcDbEntity
  8
細線
 48
50.0
100
AcDbLine
 10
11326.80159419582
 20
4317.274643912294
 30
0.0
 11
11326.80159419582
 21
2527.274643912296
 31
0.0
  0
LINE
  5
1E6B8
330
747D
100
AcDbEntity
  8
細線
 48
50.0
100
AcDbLine
 10
11171.80159419582
 20
4317.274643912294
 30
0.0
 11
11171.80159419582
 21
2527.274643912296
 31
0.0
  0
LINE
  5
1E6B9
330
747D
100
AcDbEntity
  8
細線
 48
50.0
100
AcDbLine
 10
11186.80159419582
 20
4317.274643912294
 30
0.0
 11
11186.80159419582
 21
2527.274643912296
 31
0.0
  0
LINE
  5
1E6BA
330
747D
100
AcDbEntity
  8
細線
 48
50.0
100
AcDbLine
 10
11046.80159419582
 20
4317.274643912294
 30
0.0
 11
11046.80159419582
 21
2527.274643912296
 31
0.0
  0
LINE
  5
1E6BB
330
747D
100
AcDbEntity
  8
細線
 48
50.0
100
AcDbLine
 10
11031.80159419582
 20
4317.274643912294
 30
0.0
 11
11031.80159419582
 21
2527.274643912296
 31
0.0
  0
LINE
  5
1E6BC
330
747D
100
AcDbEntity
  8
細線
 48
50.0
100
AcDbLine
 10
10891.80159419583
 20
4317.274643912294
 30
0.0
 11
10891.80159419583
 21
2527.274643912296
 31
0.0
  0
LINE
  5
1E6BD
330
747D
100
AcDbEntity
  8
細線
 48
50.0
100
AcDbLine
 10
10906.80159419582
 20
4317.274643912294
 30
0.0
 11
10906.80159419582
 21
2527.274643912296
 31
0.0
  0
DIMENSION
  5
1E6BE
330
747D
100
AcDbEntity
  8
寸法
 48
50.0
100
AcDbDimension
  2
*D30
 10
12644.30159419583
 20
4950.932097491599
 30
0.0
 11
12850.34883829031
 21
4950.932097491599
 31
0.0
 70
   160
 71
     5
 42
80.0
  3
INABA_S40G
100
AcDbAlignedDimension
 13
12564.30159419583
 23
4499.08532352395
 33
0.0
 14
12644.30159419583
 24
4497.274643912296
 34
0.0
100
AcDbRotatedDimension
1001
ACAD
1000
DSTYLE
1002
{
1070
   341
1005
0
1002
}
  0
DIMENSION
  5
1E6BF
330
747D
100
AcDbEntity
  8
寸法
 48
50.0
100
AcDbDimension
  2
*D31
 10
10714.30159419582
 20
5167.893912870213
 30
0.0
 11
11679.30159419583
 21
5167.893912870213
 31
0.0
 70
   160
 71
     5
 42
1930.0
  3
INABA_S40G
100
AcDbAlignedDimension
 13
12644.30159419583
 23
4497.274643912296
 33
0.0
 14
10714.30159419582
 24
4552.2746439123
 34
0.0
100
AcDbRotatedDimension
1001
ACAD
1000
DSTYLE
1002
{
1070
   341
1005
0
1002
}
  0
DIMENSION
  5
1E6C0
330
747D
100
AcDbEntity
  8
寸法
 48
50.0
100
AcDbDimension
  2
*D32
 10
10774.30159419582
 20
4951.367813251767
 30
0.0
 11
11669.30159419583
 21
4951.367813251767
 31
0.0
 70
   160
  1
柱外寸法<>
 71
     5
 42
1790.0
  3
INABA_S40G
100
AcDbAlignedDimension
 13
12564.30159419583
 23
4499.08532352395
 33
0.0
 14
10774.30159419582
 24
4548.276262035272
 34
0.0
100
AcDbRotatedDimension
1001
ACAD
1000
DSTYLE
1002
{
1070
   341
1005
0
1002
}
  0
DIMENSION
  5
1E6C1
330
747D
100
AcDbEntity
  8
寸法
 48
50.0
100
AcDbDimension
  2
*D33
 10
10714.30159419582
 20
4950.932097491599
 30
0.0
 11
10404.66379892022
 21
4950.932097491599
 31
0.0
 70
   160
 71
     5
 42
60.0
  3
INABA_S40G
100
AcDbAlignedDimension
 13
10774.30159419582
 23
4548.276262035272
 33
0.0
 14
10714.30159419582
 24
4552.2746439123
 34
0.0
100
AcDbRotatedDimension
1001
ACAD
1000
DSTYLE
1002
{
1070
   341
1005
0
1002
}
  0
DIMENSION
  5
1E6C2
330
747D
100
AcDbEntity
  8
寸法
 48
50.0
100
AcDbDimension
  2
*D34
 10
10153.69318742747
 20
4426.619902785597
 30
0.0
 11
10164.35866268637
 21
4797.466566027313
 31
0.0
 70
   161
 71
     5
 42
140.9999999999991
  3
INABA_S40G
100
AcDbAlignedDimension
 13
10733.69761435439
 23
4550.997392746974
 33
0.0
 14
10729.64415879777
 24
4410.055668981262
 34
0.0
1001
ACAD
1000
DSTYLE
1002
{
1070
   341
1005
0
1002
}
  0
LINE
  5
1E6C3
330
747D
100
AcDbEntity
  8
部品1
 48
50.0
100
AcDbLine
 10
11519.30159419581
 20
4683.142783013575
 30
0.0
 11
11819.30159419581
 21
4666.942783013575
 31
0.0
  0
TEXT
  5
1E6C4
330
747D
100
AcDbEntity
  8
部品1
 48
50.0
100
AcDbText
 10
11996.39444148367
 20
4581.525546947725
 30
0.0
 40
120.0
  1
54
 50
90.0
  7
STYLE1
100
AcDbText
  0
LINE
  5
1E6C5
330
747D
100
AcDbEntity
  8
部品1
 48
50.0
100
AcDbLine
 10
11819.30159419581
 20
4683.142783013575
 30
0.0
 11
11819.30159419581
 21
4666.942783013575
 31
0.0
  0
LINE
  5
1E6C6
330
747D
100
AcDbEntity
  8
部品1
 48
50.0
100
AcDbLine
 10
11519.30159419581
 20
4683.142783013575
 30
0.0
 11
11819.30159419581
 21
4683.142783013575
 31
0.0
  0
ARC
  5
1E6C7
330
747D
100
AcDbEntity
  8
部品1
100
AcDbCircle
 10
12629.92913000975
 20
4391.298401178086
 30
0.0
 40
0.7
100
AcDbArc
 50
275.0921697642102
 51
354.1866997667034
  0
ARC
  5
1E6C8
330
747D
100
AcDbEntity
  8
部品1
100
AcDbCircle
 10
12640.78847575907
 20
4468.341655996011
 30
0.0
 40
0.7
100
AcDbArc
 50
275.0921697642102
 51
354.1866997665479
  0
ARC
  5
1E6C9
330
747D
100
AcDbEntity
  8
部品1
100
AcDbCircle
 10
12641.11688100167
 20
4464.656259138921
 30
0.0
 40
3.0
100
AcDbArc
 50
95.09216976441896
 51
174.1866997665479
  0
ARC
  5
1E6CA
330
747D
100
AcDbEntity
  8
部品1
100
AcDbCircle
 10
12630.25753525235
 20
4387.613004320997
 30
0.0
 40
3.0
100
AcDbArc
 50
95.0921697642102
 51
174.1866997665479
  0
ARC
  5
1E6CB
330
747D
100
AcDbEntity
  8
部品1
 48
50.0
100
AcDbCircle
 10
12619.22939997725
 20
4378.022259717115
 30
0.0
 40
7.0
100
AcDbArc
 50
267.8377559871574
 51
354.1866997665479
  0
ARC
  5
1E6CC
330
747D
100
AcDbEntity
  8
部品1
 48
50.0
100
AcDbCircle
 10
12636.55149644176
 20
4488.924806859287
 30
0.0
 40
7.0
100
AcDbArc
 50
354.1866997665479
 51
87.03587545303976
  0
LINE
  5
1E6CD
330
747D
100
AcDbEntity
  8
部品1
 48
50.0
100
AcDbLine
 10
12627.27296358174
 20
4387.9168660379
 30
0.0
 11
12626.193400542
 21
4377.31324904434
 31
0.0
  0
LINE
  5
1E6CE
330
747D
100
AcDbEntity
  8
部品1
 48
50.0
100
AcDbLine
 10
12638.13230933106
 20
4464.960120855825
 30
0.0
 11
12630.62553006623
 21
4391.227500110812
 31
0.0
  0
LINE
  5
1E6CF
330
747D
100
AcDbEntity
  8
部品1
 48
50.0
100
AcDbLine
 10
12643.51549700652
 20
4488.215796186512
 30
0.0
 11
12641.48487581554
 21
4468.270754928734
 31
0.0
  0
ARC
  5
1E6D0
330
747D
100
AcDbEntity
  8
部品1
100
AcDbCircle
 10
10720.33868606718
 20
4431.0888028712
 30
0.0
 40
0.7
100
AcDbArc
 50
181.0932240292114
 51
260.1877540314867
  0
ARC
  5
1E6D1
330
747D
100
AcDbEntity
  8
部品1
100
AcDbCircle
 10
10715.56601246957
 20
4523.954581071318
 30
0.0
 40
0.7
100
AcDbArc
 50
181.0932240292114
 51
260.1877540314867
  0
ARC
  5
1E6D2
330
747D
100
AcDbEntity
  8
部品1
100
AcDbCircle
 10
10714.93545806655
 20
4520.30870653392
 30
0.0
 40
3.0
100
AcDbArc
 50
1.093224029263536
 51
80.18775403148671
  0
ARC
  5
1E6D3
330
747D
100
AcDbEntity
  8
部品1
100
AcDbCircle
 10
10719.70813166415
 20
4427.442928333801
 30
0.0
 40
3.0
100
AcDbArc
 50
1.093224029263536
 51
80.18775403148671
  0
ARC
  5
1E6D4
330
747D
100
AcDbEntity
  8
部品1
 48
50.0
100
AcDbCircle
 10
10729.90826403936
 20
4417.05068495132
 30
0.0
 40
7.0
100
AcDbArc
 50
181.0932240292635
 51
267.8377559871574
  0
ARC
  5
1E6D5
330
747D
100
AcDbEntity
  8
部品1
 48
50.0
100
AcDbCircle
 10
10721.48460593726
 20
4544.001744484414
 30
0.0
 40
7.0
100
AcDbArc
 50
87.03587545303976
 51
181.0932240292635
  0
LINE
  5
1E6D6
330
747D
100
AcDbEntity
  8
部品1
 48
50.0
100
AcDbLine
 10
10722.70758559059
 20
4427.500165936985
 30
0.0
 11
10722.90953821102
 21
4416.917130543894
 31
0.0
  0
LINE
  5
1E6D7
330
747D
100
AcDbEntity
  8
細線
 48
50.0
100
AcDbLine
 10
10720.10149253391
 20
4430.430214055793
 30
0.0
 11
12630.10515696455
 21
4390.620895081299
 31
0.0
  0
LINE
  5
1E6D8
330
747D
100
AcDbEntity
  8
細線
 48
50.0
100
AcDbLine
 10
10715.34101729663
 20
4523.291725753655
 30
0.0
 11
12640.9770020418
 21
4467.667521112829
 31
0.0
  0
LINE
  5
1E6D9
330
747D
100
AcDbEntity
  8
部品1
 48
50.0
100
AcDbLine
 10
10717.93491199298
 20
4520.365944137103
 30
0.0
 11
10719.63881348435
 21
4431.075447430457
 31
0.0
  0
LINE
  5
1E6DA
330
747D
100
AcDbEntity
  8
部品1
 48
50.0
100
AcDbLine
 10
10714.48588010892
 20
4543.868190076987
 30
0.0
 11
10714.86613988673
 21
4523.941225630575
 31
0.0
  0
LINE
  5
1E6DB
330
747D
100
AcDbEntity
  8
細線
 48
50.0
100
AcDbLine
 10
12611.30159419581
 20
4497.241622947591
 30
0.0
 11
12606.55391130781
 21
4371.495850456845
 31
0.0
  0
LINE
  5
1E6DC
330
747D
100
AcDbEntity
  8
細線
 48
50.0
100
AcDbLine
 10
10747.30159419583
 20
4549.6743202877
 30
0.0
 11
10742.01249264031
 21
4409.588687660344
 31
0.0
  0
LINE
  5
1E6DD
330
747D
100
AcDbEntity
  8
部品1
100
AcDbLine
 10
10729.64415879777
 20
4410.055668981262
 30
0.0
 11
12618.96529473566
 21
4371.027243747057
 31
0.0
  0
LINE
  5
1E6DE
330
747D
100
AcDbEntity
  8
部品1
100
AcDbLine
 10
10721.84658055278
 20
4550.992379246561
 30
0.0
 11
12636.91347105728
 21
4495.915441621433
 31
0.0
  0
TEXT
  5
1E6DF
330
747D
100
AcDbEntity
  8
部品1
 48
50.0
100
AcDbText
 10
11507.56942941954
 20
4719.026805166008
 30
0.0
 40
120.0
  1
1000
  7
STYLE1
100
AcDbText
  0
DIMENSION
  5
1E6E0
330
747D
100
AcDbEntity
  8
寸法
 48
50.0
100
AcDbDimension
  2
*D35
 10
9739.81866996079
 20
4552.2746439123
 30
0.0
 11
9639.806858937165
 21
3514.7746439123
 31
0.0
 70
    32
 71
     5
 42
2075.000000000005
  3
INABA_S40G
100
AcDbAlignedDimension
 13
10697.30159419581
 23
2477.274643912295
 33
0.0
 14
10714.30159419582
 24
4552.2746439123
 34
0.0
 50
90.0
100
AcDbRotatedDimension
1001
ACAD
1000
DSTYLE
1002
{
1070
   341
1005
0
1002
}
  0
LINE
  5
1E6E1
330
747D
100
AcDbEntity
  8
部品1
 48
50.0
100
AcDbLine
 10
10774.30159419582
 20
4312.274643912295
 30
0.0
 11
10697.30159419582
 21
4302.274643912294
 31
0.0
  0
LINE
  5
1E6E2
330
747D
100
AcDbEntity
  8
部品1
 48
50.0
100
AcDbLine
 10
10697.30159419582
 20
2477.274643912295
 30
0.0
 11
10774.30159419582
 21
2477.274643912295
 31
0.0
  0
LINE
  5
1E6E3
330
747D
100
AcDbEntity
  8
部品1
 48
50.0
100
AcDbLine
 10
10774.30159419582
 20
2477.274643912295
 30
0.0
 11
10774.30159419582
 21
4312.274643912295
 31
0.0
  0
LINE
  5
1E6E4
330
747D
100
AcDbEntity
  8
部品1
 48
50.0
100
AcDbLine
 10
10697.30159419582
 20
4302.274643912294
 30
0.0
 11
10697.30159419582
 21
2477.274643912295
 31
0.0
  0
LINE
  5
1E6E6
330
747D
100
AcDbEntity
  8
部品1
100
AcDbLine
 10
10769.30159419583
 20
2522.274643912298
 30
0.0
 11
10769.30159419583
 21
2377.274643912298
 31
0.0
  0
LINE
  5
1E6E7
330
747D
100
AcDbEntity
  8
部品1
100
AcDbLine
 10
12569.30159419581
 20
2522.274643912277
 30
0.0
 11
12569.30159419581
 21
2377.274643912277
 31
0.0
  0
LINE
  5
1E6E8
330
747D
100
AcDbEntity
  8
部品1
 48
50.0
100
AcDbLine
 10
11769.30159419581
 20
2477.274643912296
 30
0.0
 11
11769.30159419581
 21
2377.274643912297
 31
0.0
  0
LINE
  5
1E6E9
330
747D
100
AcDbEntity
  8
部品1
 48
50.0
100
AcDbLine
 10
11569.30159419581
 20
2477.274643912296
 30
0.0
 11
11569.30159419581
 21
2377.274643912297
 31
0.0
  0
LINE
  5
1E6EA
330
747D
100
AcDbEntity
  8
破線
 48
5.0
100
AcDbLine
 10
10769.30159419583
 20
2377.274643912297
 30
0.0
 11
10769.30159419583
 21
2222.274643912296
 31
0.0
  0
LINE
  5
1E6EB
330
747D
100
AcDbEntity
  8
破線
 48
5.0
100
AcDbLine
 10
10749.30159419583
 20
2222.274643912296
 30
0.0
 11
10769.30159419583
 21
2222.274643912296
 31
0.0
  0
LINE
  5
1E6EC
330
747D
100
AcDbEntity
  8
破線
  6
HIDDEN
 48
5.0
100
AcDbLine
 10
10624.30159419581
 20
2077.274643912297
 30
0.0
 11
10924.30159419581
 21
2077.274643912295
 31
0.0
  0
LINE
  5
1E6ED
330
747D
100
AcDbEntity
  8
破線
  6
HIDDEN
 48
5.0
100
AcDbLine
 10
10624.30159419581
 20
2377.274643912296
 30
0.0
 11
10624.30159419581
 21
2077.274643912297
 31
0.0
  0
LINE
  5
1E6EE
330
747D
100
AcDbEntity
  8
破線
  6
HIDDEN
 48
5.0
100
AcDbLine
 10
10924.30159419581
 20
2377.274643912296
 30
0.0
 11
10924.30159419581
 21
2077.274643912293
 31
0.0
  0
LINE
  5
1E6EF
330
747D
100
AcDbEntity
  8
破線
 48
5.0
100
AcDbLine
 10
12569.30159419581
 20
2377.274643912277
 30
0.0
 11
12569.3015941958
 21
2222.274643912275
 31
0.0
  0
LINE
  5
1E6F0
330
747D
100
AcDbEntity
  8
破線
 48
5.0
100
AcDbLine
 10
12589.3015941958
 20
2222.274643912275
 30
0.0
 11
12569.3015941958
 21
2222.274643912275
 31
0.0
  0
LINE
  5
1E6F1
330
747D
100
AcDbEntity
  8
破線
  6
HIDDEN
 48
5.0
100
AcDbLine
 10
12714.30159419582
 20
2077.274643912298
 30
0.0
 11
12414.30159419583
 21
2077.274643912295
 31
0.0
  0
LINE
  5
1E6F2
330
747D
100
AcDbEntity
  8
破線
  6
HIDDEN
 48
5.0
100
AcDbLine
 10
12714.30159419582
 20
2377.274643912297
 30
0.0
 11
12714.30159419582
 21
2077.274643912298
 31
0.0
  0
LINE
  5
1E6F3
330
747D
100
AcDbEntity
  8
破線
  6
HIDDEN
 48
5.0
100
AcDbLine
 10
12414.30159419583
 20
2377.274643912297
 30
0.0
 11
12414.30159419583
 21
2077.274643912295
 31
0.0
  0
ENDSEC
  0
SECTION
  2
OBJECTS
  0
DICTIONARY
  5
7471
330
0
100
AcDbDictionary
281
     1
  3
ACAD_CIP_PREVIOUS_PRODUCT_INFO
350
1A034
  3
ACAD_COLOR
350
13A7D
  3
ACAD_DETAILVIEWSTYLE
350
1A029
  3
ACAD_GROUP
350
7472
  3
ACAD_LAYOUT
350
13A7E
  3
ACAD_MATERIAL
350
13A7C
  3
ACAD_MLEADERSTYLE
350
1A025
  3
ACAD_MLINESTYLE
350
7473
  3
ACAD_PLOTSETTINGS
350
13A7F
  3
ACAD_PLOTSTYLENAME
350
13A7A
  3
ACAD_SCALELIST
350
1A013
  3
ACAD_SECTIONVIEWSTYLE
350
1A027
  3
ACAD_TABLESTYLE
350
1A011
  3
ACAD_VISUALSTYLE
350
19FF8
  3
ACDB_RECOMPOSE_DATA
350
1E8B0
  3
AcDbVariableDictionary
350
18DE8
  3
AcDsDecomposeData
350
1E8B7
  3
CONTENTDICTIONARY
350
E71C
  3
DRAWINGVARIABLESDICT
350
F3B9
  3
DWGPROPS
350
1E8B1
  0
DICTIONARY
  5
13C05
330
7467
100
AcDbDictionary
280
     1
281
     1
  3
ACAD_LAYERSTATES
360
13C06
  0
DICTIONARY
  5
1A036
330
7474
100
AcDbDictionary
280
     1
281
     1
  3
ADSK_XREC_LAYER_RECONCILED
360
1A037
  0
DICTIONARY
  5
1A03A
330
DEB3
100
AcDbDictionary
280
     1
281
     1
  3
ADSK_XREC_LAYER_RECONCILED
360
1A03B
  0
DICTIONARY
  5
1A03C
330
DEB4
100
AcDbDictionary
280
     1
281
     1
  3
ADSK_XREC_LAYER_RECONCILED
360
1A03D
  0
DICTIONARY
  5
1A03E
330
DEB5
100
AcDbDictionary
280
     1
281
     1
  3
ADSK_XREC_LAYER_RECONCILED
360
1A03F
  0
DICTIONARY
  5
1A040
330
DEB6
100
AcDbDictionary
280
     1
281
     1
  3
ADSK_XREC_LAYER_RECONCILED
360
1A041
  0
DICTIONARY
  5
1A042
330
10B54
100
AcDbDictionary
280
     1
281
     1
  3
ADSK_XREC_LAYER_RECONCILED
360
1A043
  0
DICTIONARY
  5
1A044
330
11729
100
AcDbDictionary
280
     1
281
     1
  3
ADSK_XREC_LAYER_RECONCILED
360
1A045
  0
DICTIONARY
  5
1A046
330
1173F
100
AcDbDictionary
280
     1
281
     1
  3
ADSK_XREC_LAYER_RECONCILED
360
1A047
  0
DICTIONARY
  5
1A04A
330
11905
100
AcDbDictionary
280
     1
281
     1
  3
ADSK_XREC_LAYER_RECONCILED
360
1A04B
  0
DICTIONARY
  5
1A066
330
747D
100
AcDbDictionary
280
     1
281
     1
  3
ACAD_SORTENTS
360
1A067
  0
XRECORD
  5
1A034
102
{ACAD_REACTORS
330
7471
102
}
330
7471
100
AcDbXrecord
280
     1
300
ACDLT
300
2014
300
ACDLT_F_S
  0
DICTIONARY
  5
13A7D
102
{ACAD_REACTORS
330
7471
102
}
330
7471
100
AcDbDictionary
281
     1
  0
DICTIONARY
  5
1A029
102
{ACAD_REACTORS
330
7471
102
}
330
7471
100
AcDbDictionary
281
     1
  3
Imperial24
350
1B1A8
  3
Metric50
350
1A02A
  0
DICTIONARY
  5
7472
102
{ACAD_REACTORS
330
7471
102
}
330
7471
100
AcDbDictionary
281
     1
  3
*A1
350
1D34C
  0
DICTIONARY
  5
13A7E
102
{ACAD_REACTORS
330
7471
102
}
330
7471
100
AcDbDictionary
281
     1
  3
Model
350
13A80
  3
レイアウト1
350
13A81
  0
DICTIONARY
  5
13A7C
102
{ACAD_REACTORS
330
7471
102
}
330
7471
100
AcDbDictionary
281
     1
  3
ByBlock
350
19FE8
  3
ByLayer
350
19FE0
  3
Global
350
19FF0
  0
DICTIONARY
  5
1A025
102
{ACAD_REACTORS
330
7471
102
}
330
7471
100
AcDbDictionary
281
     1
  3
Standard
350
1A026
  0
DICTIONARY
  5
7473
102
{ACAD_REACTORS
330
7471
102
}
330
7471
100
AcDbDictionary
281
     1
  3
STANDARD
350
7480
  0
DICTIONARY
  5
13A7F
102
{ACAD_REACTORS
330
7471
102
}
330
7471
100
AcDbDictionary
281
     1
  0
ACDBDICTIONARYWDFLT
  5
13A7A
102
{ACAD_REACTORS
330
7471
102
}
330
7471
100
AcDbDictionary
281
     1
  3
Normal
350
13A7B
100
AcDbDictionaryWithDefault
340
13A7B
  0
DICTIONARY
  5
1A013
102
{ACAD_REACTORS
330
7471
102
}
330
7471
100
AcDbDictionary
281
     1
  3
A0
350
1A014
  3
A1
350
1A015
  3
A2
350
1A016
  3
A3
350
1A017
  3
A4
350
1A018
  3
A5
350
1A019
  3
A6
350
1A01A
  3
A7
350
1A01B
  3
A8
350
1A01C
  3
A9
350
1A01D
  3
B0
350
1A01E
  3
B1
350
1A01F
  3
B2
350
1A020
  3
B3
350
1A021
  3
B4
350
1A022
  3
B5
350
1A023
  3
B6
350
1A024
  0
DICTIONARY
  5
1A027
102
{ACAD_REACTORS
330
7471
102
}
330
7471
100
AcDbDictionary
281
     1
  3
Imperial24
350
1B1A7
  3
Metric50
350
1A028
  0
DICTIONARY
  5
1A011
102
{ACAD_REACTORS
330
7471
102
}
330
7471
100
AcDbDictionary
281
     1
  3
Standard
350
1A012
  0
DICTIONARY
  5
19FF8
102
{ACAD_REACTORS
330
7471
102
}
330
7471
100
AcDbDictionary
281
     1
  3
2dWireframe
350
19FFE
  3
Basic
350
19FFD
  3
Brighten
350
1A004
  3
ColorChange
350
1A008
  3
Conceptual
350
1A001
  3
Dim
350
1A003
  3
EdgeColorOff
350
1A010
  3
Facepattern
350
1A007
  3
Flat
350
19FF9
  3
FlatWithEdges
350
19FFA
  3
Gouraud
350
19FFB
  3
GouraudWithEdges
350
19FFC
  3
Hidden
350
1A000
  3
JitterOff
350
1A00E
  3
Linepattern
350
1A006
  3
OverhangOff
350
1A00F
  3
Realistic
350
1A002
  3
Shaded
350
1A00D
  3
Shaded with edges
350
1A00C
  3
Shades of Gray
350
1A009
  3
Sketchy
350
1A00A
  3
Thicken
350
1A005
  3
Wireframe
350
19FFF
  3
X-Ray
350
1A00B
  0
XRECORD
  5
1E8B0
102
{ACAD_REACTORS
330
7471
102
}
330
7471
100
AcDbXrecord
280
     1
 90
        1
330
1A012
  0
DICTIONARY
  5
18DE8
102
{ACAD_REACTORS
330
7471
102
}
330
7471
100
AcDbDictionary
281
     1
  3
CANNOSCALE
350
1B8E6
  3
CMLEADERSTYLE
350
1B8E2
  3
CTABLESTYLE
350
1B8E1
  3
CVIEWDETAILSTYLE
350
1B8E3
  3
CVIEWSECTIONSTYLE
350
1B8E4
  3
DIMASSOC
350
18DE9
  3
INDEXCTL
350
1E8AC
  3
LAYEREVAL
350
1B8E8
  3
LAYERNOTIFY
350
1B8E9
  3
LIGHTINGUNITS
350
1B8E7
  3
MSLTSCALE
350
1B8E5
  3
PROJECTNAME
350
18DEA
  3
SORTENTS
350
1E8AB
  3
XCLIPFRAME
350
1E8AD
  0
DICTIONARY
  5
1E8B7
102
{ACAD_REACTORS
330
7471
102
}
330
7471
100
AcDbDictionary
281
     1
  3
AcDsRecords
350
1E8B9
  3
AcDsSchemas
350
1E8B8
1001
ACAD
1070
     2
  0
DICTIONARY
  5
E71C
102
{ACAD_REACTORS
330
7471
102
}
330
7471
100
AcDbDictionary
281
     1
  0
DICTIONARY
  5
F3B9
102
{ACAD_REACTORS
330
7471
102
}
330
7471
100
AcDbDictionary
281
     1
1001
DRAWINGVARIABLESXDATA
1000
POLARMODE
1000
1
  0
XRECORD
  5
1E8B1
102
{ACAD_REACTORS
330
7471
102
}
330
7471
100
AcDbXrecord
280
     1
  1
DWGPROPS COOKIE
  2

  3

  4

  6

  7

  8
watanabe.rikuto
  9

300
=
301
=
302
=
303
=
304
=
305
=
306
=
307
=
308
=
309
=
 40
1.023601550925925
 41
2451590.49242419
 42
2458831.378430833
  1

 90
        0
  0
DICTIONARY
  5
13C06
102
{ACAD_REACTORS
330
13C05
102
}
330
13C05
100
AcDbDictionary
281
     1
  0
XRECORD
  5
1A037
102
{ACAD_REACTORS
330
1A036
102
}
330
1A036
100
AcDbXrecord
280
     1
290
     1
  0
XRECORD
  5
1A03B
102
{ACAD_REACTORS
330
1A03A
102
}
330
1A03A
100
AcDbXrecord
280
     1
290
     1
  0
XRECORD
  5
1A03D
102
{ACAD_REACTORS
330
1A03C
102
}
330
1A03C
100
AcDbXrecord
280
     1
290
     1
  0
XRECORD
  5
1A03F
102
{ACAD_REACTORS
330
1A03E
102
}
330
1A03E
100
AcDbXrecord
280
     1
290
     1
  0
XRECORD
  5
1A041
102
{ACAD_REACTORS
330
1A040
102
}
330
1A040
100
AcDbXrecord
280
     1
290
     1
  0
XRECORD
  5
1A043
102
{ACAD_REACTORS
330
1A042
102
}
330
1A042
100
AcDbXrecord
280
     1
290
     1
  0
XRECORD
  5
1A045
102
{ACAD_REACTORS
330
1A044
102
}
330
1A044
100
AcDbXrecord
280
     1
290
     1
  0
XRECORD
  5
1A047
102
{ACAD_REACTORS
330
1A046
102
}
330
1A046
100
AcDbXrecord
280
     1
290
     1
  0
XRECORD
  5
1A04B
102
{ACAD_REACTORS
330
1A04A
102
}
330
1A04A
100
AcDbXrecord
280
     1
290
     1
  0
SORTENTSTABLE
  5
1A067
102
{ACAD_REACTORS
330
1A066
102
}
330
1A066
100
AcDbSortentsTable
330
747D
331
13EF0
  5
17311
331
1226B
  5
1229E
331
12125
  5
12161
331
1C8EC
  5
1C90F
331
1C91F
  5
1D282
331
1C8E8
  5
1C90B
331
1C91B
  5
1D272
331
19F9D
  5
1A8EC
331
1C8E4
  5
1C907
331
19F99
  5
1A8E6
331
1A08E
  5
1C8E5
331
1C8E0
  5
1C903
331
19F95
  5
1A408
331
1A08A
  5
1C8E2
331
19F91
  5
1A0A3
331
19E1F
  5
19FAA
331
19D7C
  5
19F8D
331
19BAE
  5
19D62
331
19B37
  5
19B5F
331
19B76
  5
19B9E
331
19D78
  5
19F4D
331
19BAA
  5
19D5D
331
19B33
  5
19B5B
331
19B72
  5
19B9A
331
19D74
  5
19F48
331
19BA6
  5
19BCE
331
19B2F
  5
19B57
331
19B6E
  5
19B96
331
1223F
  5
1229D
331
19D70
  5
19E20
331
1DDDF
  5
1DE4D
331
19BA2
  5
19BCA
331
19B6A
  5
19B92
331
12204
  5
1222F
331
1210D
  5
12125
331
10B5D
  5
10B5D
331
12233
  5
12293
331
121FC
  5
1221B
331
10B59
  5
10B59
331
12105
  5
12105
331
121F8
  5
12209
331
1C917
  5
1D26E
331
1C913
  5
1D26A
331
1C8DC
  5
1C8FF
331
1C90F
  5
1D265
331
1A8F1
  5
1C8F2
331
1C8D8
  5
1C8FB
331
1C90B
  5
1D25A
331
19F8D
  5
1A08D
331
1C8D4
  5
1C8F7
331
1A8E9
  5
1C8ED
331
19D6C
  5
19E1C
331
19B9E
  5
19BC6
331
19B66
  5
19B8E
331
19D68
  5
19E11
331
19B9A
  5
19BC2
331
19B62
  5
19B8A
331
171F5
  5
1733E
331
19D64
  5
19DA9
331
19B96
  5
19BBE
331
19B5E
  5
19B86
331
19777
  5
19937
331
171F1
  5
1733A
331
122A6
  5
136C9
331
1222F
  5
12289
331
19B92
  5
19BBA
331
19B5A
  5
19B82
331
19773
  5
19936
331
171ED
  5
17336
331
122A2
  5
136C4
331
121F4
  5
12206
331
171E9
  5
17332
331
1229E
  5
136BF
331
12227
  5
12282
331
120F1
  5
120F1
331
1D281
  5
1DBD0
331
1229A
  5
136BC
331
10EA8
  5
10EA8
331
120ED
  5
120ED
331
1C907
  5
1D057
331
1D056
  5
1D42D
331
1D271
  5
1D795
331
1C903
  5
1CB69
331
19FB4
  5
1C8E0
331
19FB0
  5
1C8DC
331
19B56
  5
19B7E
331
19BCD
  5
19D82
331
19F4E
  5
1A06A
331
19B52
  5
19B7A
331
17244
  5
1734A
331
19BC9
  5
19D7E
331
19DA7
  5
19FA1
331
19B8D
  5
19BB5
331
1976F
  5
19933
331
17240
  5
17346
331
19B4E
  5
19B76
331
1D434
  5
1DDEF
331
19BC5
  5
19D7A
331
19F4A
  5
19FB5
331
19B89
  5
19BB1
331
19B4A
  5
19B72
331
1723C
  5
17342
331
12292
  5
122B1
331
12184
  5
121B6
331
139A0
  5
1730F
331
171E7
  5
17330
331
19BC1
  5
19D76
331
1228E
  5
122B0
331
1228A
  5
122A6
331
10B88
  5
10B88
331
1221B
  5
12240
331
120DB
  5
120DB
331
1D26D
  5
1D709
331
1C8FF
  5
1C922
331
1C8FB
  5
1C91E
331
1CB6A
  5
1D42B
331
1D265
  5
1D519
331
1C8F7
  5
1C91A
331
1CB66
  5
1D428
331
1D261
  5
1D4A5
331
1C8F3
  5
1C916
331
19FAC
  5
1C8D5
331
19FA8
  5
1C86B
331
19FA4
  5
1A8F8
331
19FA0
  5
1A8F2
331
19B85
  5
19BAD
331
19B46
  5
19B6E
331
19BBD
  5
19D72
331
19B81
  5
19BA9
331
19B42
  5
19B6A
331
19BB9
  5
19D6E
331
19B7D
  5
19BA5
331
19D83
  5
19F96
331
18E47
  5
1992E
331
19B3E
  5
19B66
331
12217
  5
1223F
331
14143
  5
17313
331
19BB5
  5
19D69
331
19B79
  5
19BA1
331
19B3A
  5
19B62
331
120D7
  5
120D7
331
19BB1
  5
19D65
331
10B74
  5
10B74
331
12130
  5
12184
331
10B6C
  5
10B6C
331
1D25D
  5
1D435
331
1C8EF
  5
1C912
331
1C922
  5
1D3A4
331
1C8EB
  5
1C90E
331
1D259
  5
1D432
331
1C91E
  5
1D280
331
1C8E7
  5
1C90A
331
1C91A
  5
1D271
331
1C8E3
  5
1C906
331
1D251
  5
1D430
331
19F9C
  5
1A8EB
331
19F98
  5
1A8E5
331
1A08D
  5
1C8E4
331
19F94
  5
1A0E4
331
19F90
  5
1A0A2
331
19D7F
  5
19F91
331
19B75
  5
19B9D
331
19D7B
  5
19F8B
331
19B36
  5
19B5E
331
19BAD
  5
19D60
331
19B71
  5
19B99
331
19D77
  5
19F4C
331
19B32
  5
19B5A
331
13EEF
  5
17310
331
19BA9
  5
19CC3
331
19E12
  5
19FA7
331
19B6D
  5
19B95
331
19D73
  5
19F47
331
19B2E
  5
19B56
331
185D7
  5
1992D
331
1223E
  5
1229B
331
12207
  5
12232
331
19BA5
  5
19BCD
331
19B69
  5
19B91
331
12203
  5
12227
331
1210C
  5
12121
331
19BA1
  5
19BC9
331
122B5
  5
136D0
331
12236
  5
12295
331
10B5C
  5
10B5C
331
12108
  5
12108
331
1D3A4
  5
1DBDA
331
12232
  5
12292
331
121FB
  5
12217
331
12104
  5
12104
331
1C916
  5
1D26D
331
1C8DF
  5
1C902
331
1C912
  5
1D268
331
1C8DB
  5
1C8FE
331
1C90E
  5
1D261
331
1A8F0
  5
1C8F1
331
1C8D7
  5
1C8FA
331
1C90A
  5
1D257
331
1A8EC
  5
1C8F0
331
1C8D3
  5
1C8F6
331
19F8C
  5
1A08C
331
1A069
  5
136B6
331
19F50
  5
1A06C
331
19D6F
  5
19E1F
331
19E0E
  5
19FA5
331
19B65
  5
19B8D
331
19D6B
  5
19E1B
331
18067
  5
1992C
331
19B9D
  5
19BC5
331
19B61
  5
19B89
331
19D67
  5
19E0E
331
1977A
  5
19938
331
171F4
  5
1733D
331
19B99
  5
19BC1
331
19DEE
  5
19FA4
331
19B5D
  5
19B85
331
19D63
  5
19DA8
331
171F0
  5
17339
331
122A5
  5
136C8
331
19B95
  5
19BBD
331
19B59
  5
19B81
331
19772
  5
19935
331
171EC
  5
17335
331
122A1
  5
136C3
331
121F3
  5
12202
331
1D6EE
  5
1228D
331
19B91
  5
19BB9
331
19BD0
  5
19D85
331
171E8
  5
17331
331
1229D
  5
136BE
331
120F0
  5
120F0
331
12299
  5
136BA
331
1C86B
  5
1C8F4
331
1D274
  5
1DBCF
331
1C906
  5
1D056
331
1D055
  5
1D42C
331
1C902
  5
1CB68
331
1D270
  5
1D76D
331
19FB3
  5
1C8DF
331
19B55
  5
19B7D
331
19BCC
  5
19D81
331
19F4D
  5
1A069
331
19DA6
  5
19FA0
331
19B51
  5
19B79
331
17243
  5
17349
331
19BC8
  5
19D7D
331
19B8C
  5
19BB4
331
19CC3
  5
19D86
331
1976E
  5
19932
331
1723F
  5
17345
331
19B4D
  5
19B75
331
12295
  5
136B3
331
1D433
  5
1DDEE
331
19BC4
  5
19D79
331
19F49
  5
19FB4
331
19B88
  5
19BB0
331
19B49
  5
19B71
331
1723B
  5
17341
331
1388F
  5
1730E
331
171E6
  5
1732F
331
19BC0
  5
19D75
331
1228D
  5
122AB
331
1221E
  5
1227F
331
1D42B
  5
1221C
331
10B7B
  5
10B7B
331
120DA
  5
120DA
331
1D26C
  5
1D708
331
1C8FE
  5
1C921
331
1D268
  5
1D705
331
1C8FA
  5
1C91D
331
1CB69
  5
1D42A
331
1C8F6
  5
1C919
331
19FAF
  5
1C8DB
331
1C8F2
  5
1C915
331
19FAB
  5
1C8D4
331
19FA7
  5
1C865
331
1A0E4
  5
1A08A
331
19FA3
  5
1A8F7
331
19F45
  5
19FAE
331
19B84
  5
19BAC
331
19D8A
  5
19F9B
331
19B45
  5
19B6D
331
19BBC
  5
19D71
331
19B80
  5
19BA8
331
19D86
  5
19F99
331
19B41
  5
19B69
331
14146
  5
1732E
331
19BB8
  5
19D6C
331
19B7C
  5
19BA4
331
19D82
  5
19F95
331
19B3D
  5
19B65
331
1227D
  5
122A4
331
12216
  5
1223D
331
14142
  5
17312
331
19BB4
  5
19D68
331
19B78
  5
19BA0
331
19B39
  5
19B61
331
120D6
  5
120D6
331
12279
  5
122A1
331
1D3CF
  5
1DDE2
331
19BB0
  5
19D64
331
10B73
  5
10B73
331
1C8EE
  5
1C911
331
1D25C
  5
1D434
331
1C8EA
  5
1C90D
331
1C921
  5
1D3A3
331
1C8E6
  5
1C909
331
1C91D
  5
1D274
331
19F9F
  5
1A8F1
331
1C8E2
  5
1C905
331
1C919
  5
1D270
331
19F9B
  5
1A8EA
331
1A08C
  5
1C8E3
331
19F97
  5
1A8E4
331
19F93
  5
1A0E3
331
19D7E
  5
19F90
331
19E1D
  5
19FA9
331
19B74
  5
19B9C
331
19D7A
  5
19F4F
331
19B35
  5
19B5D
331
19BAC
  5
19D5F
331
19B70
  5
19B98
331
19D76
  5
19F4B
331
19B31
  5
19B59
331
19BA8
  5
19BD0
331
19B6C
  5
19B94
331
19D72
  5
19F46
331
1223D
  5
1229A
331
12206
  5
12231
331
19BA4
  5
19BCC
331
19E11
  5
19FA6
331
19B68
  5
19B90
331
12202
  5
1221E
331
19BA0
  5
19BC8
331
122B4
  5
136CE
331
12235
  5
12294
331
1D3A3
  5
1DBD9
331
122B0
  5
136CA
331
12231
  5
1228E
331
121FA
  5
12216
331
10B57
  5
10B57
331
12103
  5
12103
331
1C8DE
  5
1C901
331
1C915
  5
1D26C
331
1C8DA
  5
1C8FD
331
1C911
  5
1D267
331
1C8D6
  5
1C8F9
331
1C90D
  5
1D25D
331
19F8F
  5
1A0A1
331
1A8EB
  5
1C8EF
331
1C8D2
  5
1C8F5
331
1C909
  5
1D251
331
19F8B
  5
1A08B
331
19D6E
  5
19E1D
331
19B64
  5
19B8C
331
19D6A
  5
19E1A
331
18066
  5
1992B
331
19B9C
  5
19BC4
331
19B60
  5
19B88
331
19D66
  5
19DEE
331
171F3
  5
1733C
331
19B98
  5
19BC0
331
19B5C
  5
19B84
331
19D62
  5
19DA7
331
171EF
  5
17338
331
122A4
  5
136C7
331
19B94
  5
19BBC
331
19B58
  5
19B80
331
171EB
  5
17334
331
121F2
  5
12201
331
19B90
  5
19BB8
331
1229C
  5
136BD
331
121B6
  5
121BE
331
1D058
  5
1D42F
331
1D273
  5
1DBCD
331
1C905
  5
1D055
331
1C901
  5
1CB66
331
19FB2
  5
1C8DE
331
19BCF
  5
19D84
331
19DA9
  5
19FA3
331
19BCB
  5
19D80
331
19B54
  5
19B7C
331
19F4C
  5
1A068
331
19DA5
  5
19F9E
331
19BC7
  5
19D7C
331
19B8F
  5
19BB7
331
17242
  5
17348
331
19B50
  5
19B78
331
19F48
  5
19FB3
331
19BC3
  5
19D78
331
19B8B
  5
19BB3
331
12294
  5
122B4
331
1D432
  5
1DDED
331
1723E
  5
17344
331
1976D
  5
19931
331
19B4C
  5
19B74
331
1388E
  5
17244
331
1723A
  5
17340
331
19B48
  5
19B70
331
1228C
  5
122A9
331
1221D
  5
1227D
331
1D42A
  5
1221D
331
120D9
  5
120D9
331
1D26F
  5
1D715
331
1D26B
  5
1D707
331
1C8FD
  5
1C920
331
1D267
  5
1D704
331
1C8F9
  5
1C91C
331
1CB68
  5
1D429
331
1C8F5
  5
1C918
331
19FAE
  5
1C8D7
331
1C8F1
  5
1C914
331
19FAA
  5
1C8D3
331
1A0E3
  5
1C8E8
331
19FA6
  5
1C864
331
19FA2
  5
1A8F6
331
19BBF
  5
19D74
331
19B87
  5
19BAF
331
19BBB
  5
19D70
331
19B83
  5
19BAB
331
19B44
  5
19B6C
331
19D85
  5
19F98
331
19BB7
  5
19D6B
331
19B7F
  5
19BA7
331
14145
  5
1732D
331
18E49
  5
19930
331
19B40
  5
19B68
331
19E20
  5
19FAB
331
19D81
  5
19F94
331
19BB3
  5
19D67
331
1227C
  5
122A3
331
12215
  5
12236
331
19B3C
  5
19B64
331
19B7B
  5
19BA3
331
12278
  5
1229F
331
19B38
  5
19B60
331
10B72
  5
10B72
331
12209
  5
12235
331
1D25B
  5
1D433
331
1C8ED
  5
1C910
331
1C920
  5
1D3A2
331
1C8E9
  5
1C90C
331
1C91C
  5
1D273
331
1C8E5
  5
1C908
331
1A0A3
  5
1C8E6
331
19F9E
  5
1A8F0
331
1C918
  5
1D26F
331
1C8E1
  5
1C904
331
19F9A
  5
1A8E9
331
1A08B
  5
136C5
331
19F96
  5
1A8E3
331
19F92
  5
1A0E2
331
19D7D
  5
19F8F
331
19E1C
  5
19FA8
331
19BAF
  5
19D63
331
19B77
  5
19B9F
331
19D79
  5
19F4E
331
19BAB
  5
19D5E
331
19B34
  5
19B5C
331
19B73
  5
19B9B
331
19D75
  5
19F49
331
19BA7
  5
19BCF
331
19B30
  5
19B58
331
19B6F
  5
19B97
331
19D71
  5
19F1D
331
19BA3
  5
19BCB
331
19B6B
  5
19B93
331
10B5E
  5
10B5E
331
1D519
  5
1DDF2
331
12106
  5
12106
331
1D3A2
  5
136B8
331
121F9
  5
12215
331
12102
  5
12102
331
10B56
  5
10B56
331
1C914
  5
1D26B
331
1C8DD
  5
1C900
331
1C910
  5
1D266
331
1A8F2
  5
1C8F3
331
1C8D9
  5
1C8FC
331
1C90C
  5
1D25C
331
1C8D5
  5
1C8F8
331
19F8E
  5
1A08E
331
1C908
  5
1D058
331
1A8EA
  5
1C8EE
331
19B9F
  5
19BC7
331
19B67
  5
19B8F
331
19D69
  5
19E12
331
19B9B
  5
19BC3
331
19B63
  5
19B8B
331
171F6
  5
1733F
331
19D65
  5
19DAA
331
19B97
  5
19BBF
331
19B5F
  5
19B87
331
171F2
  5
1733B
331
19B93
  5
19BBB
331
19B5B
  5
19B83
331
122A3
  5
136C6
331
171EE
  5
17337
331
19770
  5
19934
331
1229F
  5
136C2
331
121F1
  5
12200
331
1D4A5
  5
1DDF1
331
171EA
  5
17333
331
121B5
  5
121BD
331
1D282
  5
1DBD1
331
1D057
  5
1D42E
331
1D272
  5
1D9DE
331
1C904
  5
1CB6A
331
1C900
  5
1CAF5
331
19FB5
  5
1C8E1
331
19FB1
  5
1C8DD
331
19BCE
  5
19D83
331
19B57
  5
19B7F
331
19F4F
  5
1A06B
331
19DA8
  5
19FA2
331
19BCA
  5
19D7F
331
19B53
  5
19B7B
331
19F4B
  5
1A065
331
19DA4
  5
19F9C
331
19BC6
  5
19D7B
331
19B8E
  5
19BB6
331
19B4F
  5
19B77
331
1D435
  5
1DDF0
331
17241
  5
17347
331
12297
  5
136B7
331
19BC2
  5
19D77
331
19B8A
  5
19BB2
331
19B4B
  5
19B73
331
1723D
  5
17343
331
1228B
  5
122A7
331
1221C
  5
12279
331
12161
  5
121B5
331
120D8
  5
120D8
331
763F
  5
763F
331
1D26E
  5
1D70A
331
1D26A
  5
1D706
331
1C8FC
  5
1C91F
331
1D266
  5
1D6EE
331
1C8F8
  5
1C91B
331
19FAD
  5
1C8D6
331
1C8F4
  5
1C917
331
19FA9
  5
1C8D2
331
1C8F0
  5
1C913
331
19FA5
  5
1C863
331
1A0E2
  5
1C8E7
331
19FA1
  5
1A8F5
331
19BBE
  5
19D73
331
19B86
  5
19BAE
331
19B47
  5
19B6F
331
19BBA
  5
19D6F
331
19B82
  5
19BAA
331
19B43
  5
19B6B
331
19D84
  5
19F97
331
19BB6
  5
19D6A
331
19B7E
  5
19BA6
331
14144
  5
17314
331
18E48
  5
1992F
331
19B3F
  5
19B67
331
1227F
  5
122A5
331
19D80
  5
19F93
331
19BB2
  5
19D66
331
19B7A
  5
19BA2
331
19B3B
  5
19B63
331
1227B
  5
122A2
331
10B75
  5
10B75
  0
ACDBDETAILVIEWSTYLE
  5
1B1A8
102
{ACAD_XDICTIONARY
360
1B8DE
102
}
102
{ACAD_REACTORS
330
1A029
102
}
330
1A029
100
AcDbModelDocViewStyle
 70
     0
  3
Imperial24
290
     0
100
AcDbDetailViewStyle
 70
     0
 71
     0
 90
        3
 71
     1
340
7475
 40
0.24
340
0
 40
0.24
300

 40
0.36
280
     3
 71
     2
340
7479
 90
       25
 71
     3
340
7475
 40
0.24
 90
        1
 40
0.75
 90
        1
300
%<\AcVar ViewType \f "%tc1">% %<\AcVar ViewDetailId>%\PSCALE %<\AcVar ViewScale \f "%sn">%
 71
     4
340
7479
 90
       25
340
7479
 90
       25
280
     0
  0
ACDBDETAILVIEWSTYLE
  5
1A02A
102
{ACAD_XDICTIONARY
360
1B8DA
102
}
102
{ACAD_REACTORS
330
1A029
102
}
330
1A029
100
AcDbModelDocViewStyle
 70
     0
  3
Metric50
290
     0
100
AcDbDetailViewStyle
 70
     0
 71
     0
 90
        3
 71
     1
340
7475
 40
5.0
340
0
 40
5.0
300

 40
0.0
280
     1
 71
     2
340
7479
 90
       25
 71
     3
340
7475
 40
5.0
 90
        0
 40
15.0
 90
        1
300
%<\AcVar ViewDetailId>% (%<\AcVar ViewScale \f "%sn">%)
 71
     4
340
7479
 90
       25
340
7479
 90
       25
280
     0
  0
GROUP
  5
1D34C
102
{ACAD_REACTORS
330
7472
102
}
330
7472
100
AcDbGroup
300

 70
     1
 71
     1
340
1D282
340
1D281
340
1D274
340
1D273
340
1D272
340
1D271
340
1D270
340
1D26F
340
1D26E
340
1D26D
340
1D26C
340
1D26B
340
1D26A
340
1D268
340
1D267
340
1D266
340
1D265
340
1D261
340
1D25D
340
1D25C
340
1D25B
340
1D259
340
1D251
  0
LAYOUT
  5
13A80
102
{ACAD_XDICTIONARY
360
1E8BC
102
}
102
{ACAD_REACTORS
330
13A7E
102
}
330
13A7E
100
AcDbPlotSettings
  1

  2
DocuCentre-V C5576
  4
A3
  6

 40
4.900083065032958
 41
4.857729434967041
 42
4.900054931640625
 43
4.90008544921875
 44
297.0106506347656
 45
419.9889831542968
 46
0.0
 47
1.627766270655456
 48
16771.921351
 49
6246.921493
140
18898.474965
141
7798.715794999999
142
1.0
143
39.7275484930516
 70
  3764
 72
     1
 73
     1
 74
     1
  7
inabass.ctb
 75
     0
147
0.0251714499870261
148
-139.8427842704986
149
0.264306497767393
100
AcDbLayout
  1
Model
 70
     1
 71
     0
 10
0.0
 20
0.0
 11
12.0
 21
9.0
 12
0.0
 22
0.0
 32
0.0
 14
0.0
 24
0.0
 34
0.0
 15
0.0
 25
0.0
 35
0.0
146
0.0
 13
0.0
 23
0.0
 33
0.0
 16
1.0
 26
0.0
 36
0.0
 17
0.0
 27
1.0
 37
0.0
 76
     0
330
747D
331
19FDE
1001
ACAD_PSEXT
1000
DocuCentre-V C5576
1000
FX DocuCentre-V C5576
1000
128.1.2.106
1000

1070
     0
  0
LAYOUT
  5
13A81
102
{ACAD_XDICTIONARY
360
1E8BE
102
}
102
{ACAD_REACTORS
330
13A7E
102
}
330
13A7E
100
AcDbPlotSettings
  1

  2
Microsoft Office Document Image Writer
  4

  6

 40
0.0
 41
0.0
 42
0.0
 43
0.0
 44
0.0
 45
0.0
 46
0.0
 47
0.0
 48
0.0
 49
0.0
140
0.0
141
0.0
142
1.0
143
1.0
 70
   688
 72
     0
 73
     0
 74
     5
  7
inaba.ctb
 75
    16
147
1.0
148
0.0
149
0.0
100
AcDbLayout
  1
レイアウト1
 70
     0
 71
     1
 10
0.0
 20
0.0
 11
420.0
 21
297.0
 12
0.0
 22
0.0
 32
0.0
 14
1.000000000000000E+20
 24
1.000000000000000E+20
 34
1.000000000000000E+20
 15
-1.000000000000000E+20
 25
-1.000000000000000E+20
 35
-1.000000000000000E+20
146
0.0
 13
0.0
 23
0.0
 33
0.0
 16
1.0
 26
0.0
 36
0.0
 17
0.0
 27
1.0
 37
0.0
 76
     0
330
747A
  0
MATERIAL
  5
19FE8
102
{ACAD_XDICTIONARY
360
19FE9
102
}
102
{ACAD_REACTORS
330
13A7C
102
}
330
13A7C
100
AcDbMaterial
  1
ByBlock
 72
     0
 43
0.0208333333333333
 43
0.0
 43
0.0
 43
0.0
 43
0.0
 43
0.0208333333333333
 43
0.0
 43
0.0
 43
0.0
 43
0.0
 43
1.0
 43
0.0
 43
0.0
 43
0.0
 43
0.0
 43
1.0
 77
     0
 47
0.0208333333333333
 47
0.0
 47
0.0
 47
0.0
 47
0.0
 47
0.0208333333333333
 47
0.0
 47
0.0
 47
0.0
 47
0.0
 47
1.0
 47
0.0
 47
0.0
 47
0.0
 47
0.0
 47
1.0
171
     0
 49
0.0208333333333333
 49
0.0
 49
0.0
 49
0.0
 49
0.0
 49
0.0208333333333333
 49
0.0
 49
0.0
 49
0.0
 49
0.0
 49
1.0
 49
0.0
 49
0.0
 49
0.0
 49
0.0
 49
1.0
175
     0
142
0.0208333333333333
142
0.0
142
0.0
142
0.0
142
0.0
142
0.0208333333333333
142
0.0
142
0.0
142
0.0
142
0.0
142
1.0
142
0.0
142
0.0
142
0.0
142
0.0
142
1.0
179
     0
144
0.0208333333333333
144
0.0
144
0.0
144
0.0
144
0.0
144
0.0208333333333333
144
0.0
144
0.0
144
0.0
144
0.0
144
1.0
144
0.0
144
0.0
144
0.0
144
0.0
144
1.0
147
0.0208333333333333
147
0.0
147
0.0
147
0.0
147
0.0
147
0.0208333333333333
147
0.0
147
0.0
147
0.0
147
0.0
147
1.0
147
0.0
147
0.0
147
0.0
147
0.0
147
1.0
  0
MATERIAL
  5
19FE0
102
{ACAD_XDICTIONARY
360
19FE1
102
}
102
{ACAD_REACTORS
330
13A7C
102
}
330
13A7C
100
AcDbMaterial
  1
ByLayer
 72
     0
 43
0.0208333333333333
 43
0.0
 43
0.0
 43
0.0
 43
0.0
 43
0.0208333333333333
 43
0.0
 43
0.0
 43
0.0
 43
0.0
 43
1.0
 43
0.0
 43
0.0
 43
0.0
 43
0.0
 43
1.0
 77
     0
 47
0.0208333333333333
 47
0.0
 47
0.0
 47
0.0
 47
0.0
 47
0.0208333333333333
 47
0.0
 47
0.0
 47
0.0
 47
0.0
 47
1.0
 47
0.0
 47
0.0
 47
0.0
 47
0.0
 47
1.0
171
     0
 49
0.0208333333333333
 49
0.0
 49
0.0
 49
0.0
 49
0.0
 49
0.0208333333333333
 49
0.0
 49
0.0
 49
0.0
 49
0.0
 49
1.0
 49
0.0
 49
0.0
 49
0.0
 49
0.0
 49
1.0
175
     0
142
0.0208333333333333
142
0.0
142
0.0
142
0.0
142
0.0
142
0.0208333333333333
142
0.0
142
0.0
142
0.0
142
0.0
142
1.0
142
0.0
142
0.0
142
0.0
142
0.0
142
1.0
179
     0
144
0.0208333333333333
144
0.0
144
0.0
144
0.0
144
0.0
144
0.0208333333333333
144
0.0
144
0.0
144
0.0
144
0.0
144
1.0
144
0.0
144
0.0
144
0.0
144
0.0
144
1.0
147
0.0208333333333333
147
0.0
147
0.0
147
0.0
147
0.0
147
0.0208333333333333
147
0.0
147
0.0
147
0.0
147
0.0
147
1.0
147
0.0
147
0.0
147
0.0
147
0.0
147
1.0
  0
MATERIAL
  5
19FF0
102
{ACAD_XDICTIONARY
360
19FF1
102
}
102
{ACAD_REACTORS
330
13A7C
102
}
330
13A7C
100
AcDbMaterial
  1
Global
 72
     0
 43
0.0208333333333333
 43
0.0
 43
0.0
 43
0.0
 43
0.0
 43
0.0208333333333333
 43
0.0
 43
0.0
 43
0.0
 43
0.0
 43
1.0
 43
0.0
 43
0.0
 43
0.0
 43
0.0
 43
1.0
 77
     0
 47
0.0208333333333333
 47
0.0
 47
0.0
 47
0.0
 47
0.0
 47
0.0208333333333333
 47
0.0
 47
0.0
 47
0.0
 47
0.0
 47
1.0
 47
0.0
 47
0.0
 47
0.0
 47
0.0
 47
1.0
171
     0
 49
0.0208333333333333
 49
0.0
 49
0.0
 49
0.0
 49
0.0
 49
0.0208333333333333
 49
0.0
 49
0.0
 49
0.0
 49
0.0
 49
1.0
 49
0.0
 49
0.0
 49
0.0
 49
0.0
 49
1.0
175
     0
142
0.0208333333333333
142
0.0
142
0.0
142
0.0
142
0.0
142
0.0208333333333333
142
0.0
142
0.0
142
0.0
142
0.0
142
1.0
142
0.0
142
0.0
142
0.0
142
0.0
142
1.0
179
     0
144
0.0208333333333333
144
0.0
144
0.0
144
0.0
144
0.0
144
0.0208333333333333
144
0.0
144
0.0
144
0.0
144
0.0
144
1.0
144
0.0
144
0.0
144
0.0
144
0.0
144
1.0
147
0.0208333333333333
147
0.0
147
0.0
147
0.0
147
0.0
147
0.0208333333333333
147
0.0
147
0.0
147
0.0
147
0.0
147
1.0
147
0.0
147
0.0
147
0.0
147
0.0
147
1.0
  0
MLEADERSTYLE
  5
1A026
102
{ACAD_XDICTIONARY
360
1E8F5
102
}
102
{ACAD_REACTORS
330
1A025
102
}
330
1A025
100
AcDbMLeaderStyle
170
     2
171
     1
172
     0
 90
        2
 40
0.0
 41
0.0
173
     1
 91
-1056964608
340
7477
 92
       -2
290
     1
 42
2.0
291
     1
 43
0.36
  3
Standard
 44
4.0
300

342
7475
174
     1
178
     6
175
     1
176
     0
 93
-1056964608
 45
4.0
292
     0
297
     0
 46
4.0
 94
-1056964608
 47
1.0
 49
1.0
140
1.0
293
     1
141
0.0
294
     1
177
     0
142
1.0
295
     0
296
     0
143
0.125
1001
ACAD_MLEADERVER
1070
     2
  0
MLINESTYLE
  5
7480
102
{ACAD_REACTORS
330
7473
102
}
330
7473
100
AcDbMlineStyle
  2
STANDARD
 70
     0
  3

 62
     0
 51
90.0
 52
90.0
 71
     2
 49
0.5
 62
   256
  6
BYLAYER
 49
-0.5
 62
   256
  6
BYLAYER
  0
ACDBPLACEHOLDER
  5
13A7B
102
{ACAD_REACTORS
330
13A7A
102
}
330
13A7A
  0
SCALE
  5
1A014
102
{ACAD_REACTORS
330
1A013
102
}
330
1A013
100
AcDbScale
 70
     0
300
1:1
140
1.0
141
1.0
290
     1
  0
SCALE
  5
1A015
102
{ACAD_REACTORS
330
1A013
102
}
330
1A013
100
AcDbScale
 70
     0
300
1:2
140
1.0
141
2.0
290
     0
  0
SCALE
  5
1A016
102
{ACAD_REACTORS
330
1A013
102
}
330
1A013
100
AcDbScale
 70
     0
300
1:4
140
1.0
141
4.0
290
     0
  0
SCALE
  5
1A017
102
{ACAD_REACTORS
330
1A013
102
}
330
1A013
100
AcDbScale
 70
     0
300
1:5
140
1.0
141
5.0
290
     0
  0
SCALE
  5
1A018
102
{ACAD_REACTORS
330
1A013
102
}
330
1A013
100
AcDbScale
 70
     0
300
1:8
140
1.0
141
8.0
290
     0
  0
SCALE
  5
1A019
102
{ACAD_REACTORS
330
1A013
102
}
330
1A013
100
AcDbScale
 70
     0
300
1:10
140
1.0
141
10.0
290
     0
  0
SCALE
  5
1A01A
102
{ACAD_REACTORS
330
1A013
102
}
330
1A013
100
AcDbScale
 70
     0
300
1:16
140
1.0
141
16.0
290
     0
  0
SCALE
  5
1A01B
102
{ACAD_REACTORS
330
1A013
102
}
330
1A013
100
AcDbScale
 70
     0
300
1:20
140
1.0
141
20.0
290
     0
  0
SCALE
  5
1A01C
102
{ACAD_REACTORS
330
1A013
102
}
330
1A013
100
AcDbScale
 70
     0
300
1:30
140
1.0
141
30.0
290
     0
  0
SCALE
  5
1A01D
102
{ACAD_REACTORS
330
1A013
102
}
330
1A013
100
AcDbScale
 70
     0
300
1:40
140
1.0
141
40.0
290
     0
  0
SCALE
  5
1A01E
102
{ACAD_REACTORS
330
1A013
102
}
330
1A013
100
AcDbScale
 70
     0
300
1:50
140
1.0
141
50.0
290
     0
  0
SCALE
  5
1A01F
102
{ACAD_REACTORS
330
1A013
102
}
330
1A013
100
AcDbScale
 70
     0
300
1:100
140
1.0
141
100.0
290
     0
  0
SCALE
  5
1A020
102
{ACAD_REACTORS
330
1A013
102
}
330
1A013
100
AcDbScale
 70
     0
300
2:1
140
2.0
141
1.0
290
     0
  0
SCALE
  5
1A021
102
{ACAD_REACTORS
330
1A013
102
}
330
1A013
100
AcDbScale
 70
     0
300
4:1
140
4.0
141
1.0
290
     0
  0
SCALE
  5
1A022
102
{ACAD_REACTORS
330
1A013
102
}
330
1A013
100
AcDbScale
 70
     0
300
8:1
140
8.0
141
1.0
290
     0
  0
SCALE
  5
1A023
102
{ACAD_REACTORS
330
1A013
102
}
330
1A013
100
AcDbScale
 70
     0
300
10:1
140
10.0
141
1.0
290
     0
  0
SCALE
  5
1A024
102
{ACAD_REACTORS
330
1A013
102
}
330
1A013
100
AcDbScale
 70
     0
300
100:1
140
100.0
141
1.0
290
     0
  0
ACDBSECTIONVIEWSTYLE
  5
1B1A7
102
{ACAD_XDICTIONARY
360
1B8DC
102
}
102
{ACAD_REACTORS
330
1A027
102
}
330
1A027
100
AcDbModelDocViewStyle
 70
     0
  3
Imperial24
290
     0
100
AcDbSectionViewStyle
 70
     0
 71
     0
 90
       78
 71
     1
340
7475
 40
0.24
340
0
340
0
 40
0.24
300
I, O, Q, S, X, Z
 40
0.48
 90
        3
 40
0.18
 90
        1
 71
     2
340
7479
 90
       25
340
7479
 90
       50
 40
0.24
 40
0.0
 40
0.24
 71
     3
340
7475
 40
0.24
 90
        1
 40
0.75
 90
        1
300
%<\AcVar ViewType \f "%tc1">% %<\AcVar ViewSectionStartId>%-%<\AcVar ViewSectionEndId>%\PSCALE %<\AcVar ViewScale \f "%sn">%
 71
     4
300
ANSI31
 40
1.0
 90
        0
290
     0
290
     0
 90
        6
 40
0.0
 40
1.570796326794896
 40
0.2617993877991494
 40
1.308996938995747
 40
-0.2617993877991494
 40
1.832595714594046
  0
ACDBSECTIONVIEWSTYLE
  5
1A028
102
{ACAD_XDICTIONARY
360
1B8D8
102
}
102
{ACAD_REACTORS
330
1A027
102
}
330
1A027
100
AcDbModelDocViewStyle
 70
     0
  3
Metric50
290
     0
100
AcDbSectionViewStyle
 70
     0
 71
     0
 90
      102
 71
     1
340
7475
 40
5.0
340
0
340
0
 40
5.0
300
I, O, Q, S, X, Z
 40
10.0
 90
        0
 40
2.5
 90
        0
 71
     2
340
7479
 90
       25
340
7479
 90
       50
 40
5.0
 40
2.5
 40
5.0
 71
     3
340
7475
 40
5.0
 90
        0
 40
15.0
 90
        1
300
%<\AcVar ViewSectionStartId>%-%<\AcVar ViewSectionEndId>% (%<\AcVar ViewScale \f "%sn">%)
 71
     4
300
ANSI31
 40
1.0
 90
        0
290
     0
290
     0
 90
        6
 40
0.0
 40
1.570796326794896
 40
0.2617993877991494
 40
1.308996938995747
 40
-0.2617993877991494
 40
1.832595714594046
  0
TABLESTYLE
  5
1A012
102
{ACAD_XDICTIONARY
360
1E8AE
102
}
102
{ACAD_REACTORS
330
1A011
102
}
330
1A011
100
AcDbTableStyle
  3
Standard
 70
     0
 71
     0
 40
1.5
 41
1.5
280
     0
281
     0
  7
STANDARD
140
4.5
170
     2
 62
     0
 63
     7
283
     0
274
    -2
284
     1
 64
     0
275
    -2
285
     1
 65
     0
276
    -2
286
     1
 66
     0
277
    -2
287
     1
 67
     0
278
    -2
288
     1
 68
     0
279
    -2
289
     1
 69
     0
  7
STANDARD
140
6.0
170
     5
 62
     0
 63
     7
283
     0
274
    -2
284
     1
 64
     0
275
    -2
285
     1
 65
     0
276
    -2
286
     1
 66
     0
277
    -2
287
     1
 67
     0
278
    -2
288
     1
 68
     0
279
    -2
289
     1
 69
     0
  7
STANDARD
140
4.5
170
     5
 62
     0
 63
     7
283
     0
274
    -2
284
     1
 64
     0
275
    -2
285
     1
 65
     0
276
    -2
286
     1
 66
     0
277
    -2
287
     1
 67
     0
278
    -2
288
     1
 68
     0
279
    -2
289
     1
 69
     0
  0
VISUALSTYLE
  5
19FFE
102
{ACAD_XDICTIONARY
360
1E8CD
102
}
102
{ACAD_REACTORS
330
19FF8
102
}
330
19FF8
100
AcDbVisualStyle
  2
2dWireframe
 70
     4
 71
     0
 72
     2
 73
     0
 90
        0
 40
-0.6
 41
-30.0
 62
     5
 63
     7
 74
     1
 91
        4
 64
     7
 65
   257
 75
     1
175
     1
 42
1.0
 92
        0
 66
   257
 43
1.0
 76
     1
 77
     6
 78
     2
 67
     7
 79
     5
170
     0
171
     0
290
     0
174
     0
 93
        1
 44
0.0
173
     0
291
     0
 45
0.0
1001
ACAD
1000
AcDbSavedByObjectVersion
1070
     0
  0
VISUALSTYLE
  5
19FFD
102
{ACAD_XDICTIONARY
360
1E8CB
102
}
102
{ACAD_REACTORS
330
19FF8
102
}
330
19FF8
100
AcDbVisualStyle
  2
Basic
 70
     7
 71
     1
 72
     0
 73
     1
 90
        0
 40
-0.6
 41
-30.0
 62
     5
 63
     7
 74
     0
 91
        4
 64
     7
 65
   257
 75
     1
175
     1
 42
1.0
 92
        8
 66
     7
 43
1.0
 76
     1
 77
     6
 78
     2
 67
     7
 79
     5
170
     0
171
     0
290
     0
174
     0
 93
        1
 44
0.0
173
     0
291
     1
 45
0.0
1001
ACAD
1000
AcDbSavedByObjectVersion
1070
     0
  0
VISUALSTYLE
  5
1A004
102
{ACAD_XDICTIONARY
360
1E8D9
102
}
102
{ACAD_REACTORS
330
19FF8
102
}
330
19FF8
100
AcDbVisualStyle
  2
Brighten
 70
    12
 71
     2
 72
     2
 73
     0
 90
        0
 40
-0.6
 41
-30.0
 62
     5
 63
     7
 74
     1
 91
        4
 64
     7
 65
   257
 75
     1
175
     1
 42
1.0
 92
        8
 66
     7
 43
1.0
 76
     1
 77
     6
 78
     2
 67
     7
 79
     5
170
     0
171
     0
290
     0
174
     0
 93
        1
 44
50.0
173
     0
291
     1
 45
0.0
1001
ACAD
1000
AcDbSavedByObjectVersion
1070
     0
  0
VISUALSTYLE
  5
1A008
102
{ACAD_XDICTIONARY
360
1E8E1
102
}
102
{ACAD_REACTORS
330
19FF8
102
}
330
19FF8
100
AcDbVisualStyle
  2
ColorChange
 70
    16
 71
     2
 72
     2
 73
     3
 90
        0
 40
-0.6
 41
-30.0
 62
     5
 63
     8
 74
     1
 91
        4
 64
     7
 65
   257
 75
     1
175
     1
 42
1.0
 92
        8
 66
     8
 43
1.0
 76
     1
 77
     6
 78
     2
 67
     7
 79
     5
170
     0
171
     0
290
     0
174
     0
 93
        1
 44
0.0
173
     0
291
     1
 45
0.0
1001
ACAD
1000
AcDbSavedByObjectVersion
1070
     0
  0
VISUALSTYLE
  5
1A001
102
{ACAD_XDICTIONARY
360
1E8D3
102
}
102
{ACAD_REACTORS
330
19FF8
102
}
330
19FF8
100
AcDbVisualStyle
  2
Conceptual
 70
     9
 71
     3
 72
     2
 73
     0
 90
        0
 40
-0.6
 41
-30.0
 62
     5
 63
     7
 74
     2
 91
        2
 64
     7
 65
   257
 75
     1
175
     1
 42
179.0
 92
        8
 66
     7
 43
1.0
 76
     1
 77
     6
 78
     2
 67
     7
 79
     3
170
     0
171
     0
290
     0
174
     0
 93
        1
 44
0.0
173
     0
291
     0
 45
0.0
1001
ACAD
1000
AcDbSavedByObjectVersion
1070
     0
  0
VISUALSTYLE
  5
1A003
102
{ACAD_XDICTIONARY
360
1E8D7
102
}
102
{ACAD_REACTORS
330
19FF8
102
}
330
19FF8
100
AcDbVisualStyle
  2
Dim
 70
    11
 71
     2
 72
     2
 73
     0
 90
        0
 40
-0.6
 41
-30.0
 62
     5
 63
     7
 74
     1
 91
        4
 64
     7
 65
   257
 75
     1
175
     1
 42
1.0
 92
        8
 66
     7
 43
1.0
 76
     1
 77
     6
 78
     2
 67
     7
 79
     5
170
     0
171
     0
290
     0
174
     0
 93
        1
 44
-50.0
173
     0
291
     1
 45
0.0
1001
ACAD
1000
AcDbSavedByObjectVersion
1070
     0
  0
VISUALSTYLE
  5
1A010
102
{ACAD_XDICTIONARY
360
1E8F1
102
}
102
{ACAD_REACTORS
330
19FF8
102
}
330
19FF8
100
AcDbVisualStyle
  2
EdgeColorOff
 70
    22
 71
     2
 72
     2
 73
     0
 90
        0
 40
-0.6
 41
-30.0
 62
     5
 63
     7
 74
     1
 91
        4
 64
     7
 65
   257
 75
     1
175
     1
 42
1.0
 92
        8
 66
     7
 43
1.0
 76
     1
 77
     6
 78
     2
 67
     7
 79
     5
170
     0
171
     0
290
     0
174
     0
 93
        1
 44
0.0
173
     0
291
     1
 45
0.0
1001
ACAD
1000
AcDbSavedByObjectVersion
1070
     0
  0
VISUALSTYLE
  5
1A007
102
{ACAD_XDICTIONARY
360
1E8DF
102
}
102
{ACAD_REACTORS
330
19FF8
102
}
330
19FF8
100
AcDbVisualStyle
  2
Facepattern
 70
    15
 71
     2
 72
     2
 73
     0
 90
        0
 40
-0.6
 41
-30.0
 62
     5
 63
     7
 74
     1
 91
        4
 64
     7
 65
   257
 75
     1
175
     1
 42
1.0
 92
        8
 66
     7
 43
1.0
 76
     1
 77
     6
 78
     2
 67
     7
 79
     5
170
     0
171
     0
290
     0
174
     0
 93
        1
 44
0.0
173
     0
291
     1
 45
0.0
1001
ACAD
1000
AcDbSavedByObjectVersion
1070
     0
  0
VISUALSTYLE
  5
19FF9
102
{ACAD_XDICTIONARY
360
1E8C3
102
}
102
{ACAD_REACTORS
330
19FF8
102
}
330
19FF8
100
AcDbVisualStyle
  2
Flat
 70
     0
 71
     2
 72
     1
 73
     1
 90
        2
 40
-0.6
 41
30.0
 62
     5
 63
     7
 74
     0
 91
        0
 64
     7
 65
   257
 75
     1
175
     1
 42
1.0
 92
        8
 66
     7
 43
1.0
 76
     1
 77
     6
 78
     2
 67
     7
 79
     5
170
     0
171
     0
290
     0
174
     0
 93
       13
 44
0.0
173
     0
291
     1
 45
0.0
1001
ACAD
1000
AcDbSavedByObjectVersion
1070
     0
  0
VISUALSTYLE
  5
19FFA
102
{ACAD_XDICTIONARY
360
1E8C5
102
}
102
{ACAD_REACTORS
330
19FF8
102
}
330
19FF8
100
AcDbVisualStyle
  2
FlatWithEdges
 70
     1
 71
     2
 72
     1
 73
     1
 90
        2
 40
-0.6
 41
30.0
 62
     5
 63
     7
 74
     1
 91
        0
 64
     7
 65
   257
 75
     1
175
     1
 42
1.0
 92
        0
 66
   257
 43
1.0
 76
     1
 77
     6
 78
     2
 67
     7
 79
     5
170
     0
171
     0
290
     0
174
     0
 93
       13
 44
0.0
173
     0
291
     1
 45
0.0
1001
ACAD
1000
AcDbSavedByObjectVersion
1070
     0
  0
VISUALSTYLE
  5
19FFB
102
{ACAD_XDICTIONARY
360
1E8C7
102
}
102
{ACAD_REACTORS
330
19FF8
102
}
330
19FF8
100
AcDbVisualStyle
  2
Gouraud
 70
     2
 71
     2
 72
     2
 73
     1
 90
        2
 40
-0.6
 41
30.0
 62
     5
 63
     7
 74
     0
 91
        0
 64
     7
 65
   257
 75
     1
175
     1
 42
1.0
 92
        0
 66
     7
 43
1.0
 76
     1
 77
     6
 78
     2
 67
     7
 79
     5
170
     0
171
     0
290
     0
174
     0
 93
       13
 44
0.0
173
     0
291
     1
 45
0.0
1001
ACAD
1000
AcDbSavedByObjectVersion
1070
     0
  0
VISUALSTYLE
  5
19FFC
102
{ACAD_XDICTIONARY
360
1E8C9
102
}
102
{ACAD_REACTORS
330
19FF8
102
}
330
19FF8
100
AcDbVisualStyle
  2
GouraudWithEdges
 70
     3
 71
     2
 72
     2
 73
     1
 90
        2
 40
-0.6
 41
30.0
 62
     5
 63
     7
 74
     1
 91
        0
 64
     7
 65
   257
 75
     1
175
     1
 42
1.0
 92
        0
 66
   257
 43
1.0
 76
     1
 77
     6
 78
     2
 67
     7
 79
     5
170
     0
171
     0
290
     0
174
     0
 93
       13
 44
0.0
173
     0
291
     1
 45
0.0
1001
ACAD
1000
AcDbSavedByObjectVersion
1070
     0
  0
VISUALSTYLE
  5
1A000
102
{ACAD_XDICTIONARY
360
1E8D1
102
}
102
{ACAD_REACTORS
330
19FF8
102
}
330
19FF8
100
AcDbVisualStyle
  2
Hidden
 70
     6
 71
     1
 72
     2
 73
     2
 90
        0
 40
-0.6
 41
-30.0
 62
     5
 63
     7
 74
     2
 91
        2
 64
     7
 65
   257
 75
     2
175
     1
 42
40.0
 92
        0
 66
   257
 43
1.0
 76
     1
 77
     6
 78
     2
 67
     7
 79
     3
170
     0
171
     0
290
     0
174
     0
 93
        1
 44
0.0
173
     0
291
     0
 45
0.0
1001
ACAD
1000
AcDbSavedByObjectVersion
1070
     0
  0
VISUALSTYLE
  5
1A00E
102
{ACAD_XDICTIONARY
360
1E8ED
102
}
102
{ACAD_REACTORS
330
19FF8
102
}
330
19FF8
100
AcDbVisualStyle
  2
JitterOff
 70
    20
 71
     2
 72
     2
 73
     0
 90
        0
 40
-0.6
 41
-30.0
 62
     5
 63
     7
 74
     1
 91
        4
 64
     7
 65
   257
 75
     1
175
     1
 42
1.0
 92
       10
 66
     7
 43
1.0
 76
     1
 77
     6
 78
     2
 67
     7
 79
     5
170
     0
171
     0
290
     0
174
     0
 93
        1
 44
0.0
173
     0
291
     1
 45
0.0
1001
ACAD
1000
AcDbSavedByObjectVersion
1070
     0
  0
VISUALSTYLE
  5
1A006
102
{ACAD_XDICTIONARY
360
1E8DD
102
}
102
{ACAD_REACTORS
330
19FF8
102
}
330
19FF8
100
AcDbVisualStyle
  2
Linepattern
 70
    14
 71
     2
 72
     2
 73
     0
 90
        0
 40
-0.6
 41
-30.0
 62
     5
 63
     7
 74
     1
 91
        4
 64
     7
 65
   257
 75
     7
175
     7
 42
1.0
 92
        8
 66
     7
 43
1.0
 76
     1
 77
     6
 78
     2
 67
     7
 79
     5
170
     0
171
     0
290
     0
174
     0
 93
        1
 44
0.0
173
     0
291
     1
 45
0.0
1001
ACAD
1000
AcDbSavedByObjectVersion
1070
     0
  0
VISUALSTYLE
  5
1A00F
102
{ACAD_XDICTIONARY
360
1E8EF
102
}
102
{ACAD_REACTORS
330
19FF8
102
}
330
19FF8
100
AcDbVisualStyle
  2
OverhangOff
 70
    21
 71
     2
 72
     2
 73
     0
 90
        0
 40
-0.6
 41
-30.0
 62
     5
 63
     7
 74
     1
 91
        4
 64
     7
 65
   257
 75
     1
175
     1
 42
1.0
 92
        9
 66
     7
 43
1.0
 76
     1
 77
     6
 78
     2
 67
     7
 79
     5
170
     0
171
     0
290
     0
174
     0
 93
        1
 44
0.0
173
     0
291
     1
 45
0.0
1001
ACAD
1000
AcDbSavedByObjectVersion
1070
     0
  0
VISUALSTYLE
  5
1A002
102
{ACAD_XDICTIONARY
360
1E8D5
102
}
102
{ACAD_REACTORS
330
19FF8
102
}
330
19FF8
100
AcDbVisualStyle
  2
Realistic
 70
     8
 71
     2
 72
     3
 73
     0
 90
        2
 40
-0.6
 41
30.0
 62
     5
 63
     7
 74
     0
 91
        0
 64
     7
 65
   257
 75
     1
175
     1
 42
1.0
 92
        8
 66
   257
 43
1.0
 76
     1
 77
     6
 78
     2
 67
     7
 79
     3
170
     0
171
     0
290
     0
174
     0
 93
       13
 44
0.0
173
     0
291
     0
 45
0.0
1001
ACAD
1000
AcDbSavedByObjectVersion
1070
     0
  0
VISUALSTYLE
  5
1A00D
102
{ACAD_XDICTIONARY
360
1E8EB
102
}
102
{ACAD_REACTORS
330
19FF8
102
}
330
19FF8
100
AcDbVisualStyle
  2
Shaded
 70
    27
 71
     2
 72
     2
 73
     1
 90
        2
 40
-0.6
 41
30.0
 62
     5
 63
     7
 74
     0
 91
        4
 64
     7
 65
   257
 75
     1
175
     1
 42
1.0
 92
        8
 66
   257
 43
1.0
 76
     1
 77
     6
 78
     2
 67
     8
 79
     3
170
     0
171
     0
290
     0
174
     0
 93
        5
 44
0.0
173
     0
291
     0
 45
0.0
1001
ACAD
1000
AcDbSavedByObjectVersion
1070
     0
  0
VISUALSTYLE
  5
1A00C
102
{ACAD_XDICTIONARY
360
1E8E9
102
}
102
{ACAD_REACTORS
330
19FF8
102
}
330
19FF8
100
AcDbVisualStyle
  2
Shaded with edges
 70
    26
 71
     2
 72
     2
 73
     1
 90
        2
 40
-0.6
 41
30.0
 62
     5
 63
     7
 74
     1
 91
       10
 64
     7
 65
   257
 75
     2
175
     1
 42
1.0
 92
        8
 66
   257
 43
1.0
 76
     1
 77
     6
 78
     2
 67
     7
 79
     3
170
     0
171
     0
290
     0
174
     0
 93
        5
 44
0.0
173
     0
291
     0
 45
0.0
1001
ACAD
1000
AcDbSavedByObjectVersion
1070
     0
  0
VISUALSTYLE
  5
1A009
102
{ACAD_XDICTIONARY
360
1E8E3
102
}
102
{ACAD_REACTORS
330
19FF8
102
}
330
19FF8
100
AcDbVisualStyle
  2
Shades of Gray
 70
    23
 71
     2
 72
     2
 73
     3
 90
        0
 40
-0.6
 41
-30.0
 62
     5
 63
     7
 74
     2
 91
        2
 64
     7
 65
     7
 75
     1
175
     1
 42
40.0
 92
        8
 66
     7
 43
1.0
 76
     1
 77
     6
 78
     2
 67
     7
 79
     3
170
     0
171
     0
290
     0
174
     0
 93
        1
 44
0.0
173
     0
291
     0
 45
0.0
1001
ACAD
1000
AcDbSavedByObjectVersion
1070
     0
  0
VISUALSTYLE
  5
1A00A
102
{ACAD_XDICTIONARY
360
1E8E5
102
}
102
{ACAD_REACTORS
330
19FF8
102
}
330
19FF8
100
AcDbVisualStyle
  2
Sketchy
 70
    24
 71
     1
 72
     2
 73
     2
 90
        0
 40
-0.6
 41
-30.0
 62
     5
 63
     7
 74
     2
 91
        2
 64
     7
 65
     7
 75
     1
175
     1
 42
40.0
 92
       11
 66
     7
 43
1.0
 76
     1
 77
     6
 78
     2
 67
     7
 79
     6
170
     0
171
     0
290
     0
174
     0
 93
        1
 44
0.0
173
     0
291
     0
 45
0.0
1001
ACAD
1000
AcDbSavedByObjectVersion
1070
     0
  0
VISUALSTYLE
  5
1A005
102
{ACAD_XDICTIONARY
360
1E8DB
102
}
102
{ACAD_REACTORS
330
19FF8
102
}
330
19FF8
100
AcDbVisualStyle
  2
Thicken
 70
    13
 71
     2
 72
     2
 73
     0
 90
        0
 40
-0.6
 41
-30.0
 62
     5
 63
     7
 74
     1
 91
        4
 64
     7
 65
   257
 75
     1
175
     1
 42
1.0
 92
       12
 66
     7
 43
1.0
 76
     1
 77
     6
 78
     2
 67
     7
 79
     5
170
     0
171
     0
290
     0
174
     0
 93
        1
 44
0.0
173
     0
291
     1
 45
0.0
1001
ACAD
1000
AcDbSavedByObjectVersion
1070
     0
  0
VISUALSTYLE
  5
19FFF
102
{ACAD_XDICTIONARY
360
1E8CF
102
}
102
{ACAD_REACTORS
330
19FF8
102
}
330
19FF8
100
AcDbVisualStyle
  2
Wireframe
 70
     5
 71
     0
 72
     2
 73
     0
 90
        0
 40
-0.6
 41
-30.0
 62
     5
 63
     7
 74
     1
 91
        4
 64
     7
 65
   257
 75
     1
175
     1
 42
1.0
 92
        0
 66
   257
 43
1.0
 76
     1
 77
     6
 78
     2
 67
     7
 79
     3
170
     0
171
     0
290
     0
174
     0
 93
        1
 44
0.0
173
     0
291
     0
 45
0.0
1001
ACAD
1000
AcDbSavedByObjectVersion
1070
     0
  0
VISUALSTYLE
  5
1A00B
102
{ACAD_XDICTIONARY
360
1E8E7
102
}
102
{ACAD_REACTORS
330
19FF8
102
}
330
19FF8
100
AcDbVisualStyle
  2
X-Ray
 70
    25
 71
     2
 72
     2
 73
     1
 90
        1
 40
0.5
 41
-30.0
 62
     5
 63
     7
 74
     1
 91
        0
 64
     7
 65
   257
 75
     1
175
     1
 42
1.0
 92
        8
 66
     7
 43
1.0
 76
     1
 77
     6
 78
     2
 67
     7
 79
     3
170
     0
171
     0
290
     0
174
     0
 93
       13
 44
0.0
173
     0
291
     0
 45
0.0
1001
ACAD
1000
AcDbSavedByObjectVersion
1070
     0
  0
DICTIONARYVAR
  5
1B8E6
102
{ACAD_REACTORS
330
18DE8
102
}
330
18DE8
100
DictionaryVariables
280
     0
  1
1:1
  0
DICTIONARYVAR
  5
1B8E2
102
{ACAD_REACTORS
330
18DE8
102
}
330
18DE8
100
DictionaryVariables
280
     0
  1
STANDARD
  0
DICTIONARYVAR
  5
1B8E1
102
{ACAD_REACTORS
330
18DE8
102
}
330
18DE8
100
DictionaryVariables
280
     0
  1
STANDARD
  0
DICTIONARYVAR
  5
1B8E3
102
{ACAD_REACTORS
330
18DE8
102
}
330
18DE8
100
DictionaryVariables
280
     0
  1
Metric50
  0
DICTIONARYVAR
  5
1B8E4
102
{ACAD_REACTORS
330
18DE8
102
}
330
18DE8
100
DictionaryVariables
280
     0
  1
Metric50
  0
DICTIONARYVAR
  5
18DE9
102
{ACAD_REACTORS
330
18DE8
102
}
330
18DE8
100
DictionaryVariables
280
     0
  1
1
  0
DICTIONARYVAR
  5
1E8AC
102
{ACAD_REACTORS
330
18DE8
102
}
330
18DE8
100
DictionaryVariables
280
     0
  1
0
  0
DICTIONARYVAR
  5
1B8E8
102
{ACAD_REACTORS
330
18DE8
102
}
330
18DE8
100
DictionaryVariables
280
     0
  1
1
  0
DICTIONARYVAR
  5
1B8E9
102
{ACAD_REACTORS
330
18DE8
102
}
330
18DE8
100
DictionaryVariables
280
     0
  1
15
  0
DICTIONARYVAR
  5
1B8E7
102
{ACAD_REACTORS
330
18DE8
102
}
330
18DE8
100
DictionaryVariables
280
     0
  1
0
  0
DICTIONARYVAR
  5
1B8E5
102
{ACAD_REACTORS
330
18DE8
102
}
330
18DE8
100
DictionaryVariables
280
     0
  1
0
  0
DICTIONARYVAR
  5
18DEA
102
{ACAD_REACTORS
330
18DE8
102
}
330
18DE8
100
DictionaryVariables
280
     0
  1

  0
DICTIONARYVAR
  5
1E8AB
102
{ACAD_REACTORS
330
18DE8
102
}
330
18DE8
100
DictionaryVariables
280
     0
  1
127
  0
DICTIONARYVAR
  5
1E8AD
102
{ACAD_REACTORS
330
18DE8
102
}
330
18DE8
100
DictionaryVariables
280
     0
  1
0
  0
DICTIONARY
  5
1E8B9
102
{ACAD_REACTORS
330
1E8B7
102
}
330
1E8B7
100
AcDbDictionary
281
     1
  0
DICTIONARY
  5
1E8B8
102
{ACAD_REACTORS
330
1E8B7
102
}
330
1E8B7
100
AcDbDictionary
281
     1
  3
140687498521248
350
1E8B2
  3
140687498521264
350
1E8B3
  3
140687498521280
350
1E8B4
  3
140687498521296
350
1E8B5
  3
140687498521312
350
1E8B6
  0
DICTIONARY
  5
1B8DE
330
1B1A8
100
AcDbDictionary
280
     1
281
     1
  3
ACAD_XREC_ROUNDTRIP
360
1E8FA
  0
DICTIONARY
  5
1B8DA
330
1A02A
100
AcDbDictionary
280
     1
281
     1
  3
ACAD_XREC_ROUNDTRIP
360
1E8F8
  0
DICTIONARY
  5
1E8BC
330
13A80
100
AcDbDictionary
280
     1
281
     1
  3
ACAD_XREC_ROUNDTRIP
360
1E8BD
  0
DICTIONARY
  5
1E8BE
330
13A81
100
AcDbDictionary
280
     1
281
     1
  3
ACAD_XREC_ROUNDTRIP
360
1E8BF
  0
DICTIONARY
  5
19FE9
330
19FE8
100
AcDbDictionary
280
     1
281
     1
  3
ACAD_XREC_ROUNDTRIP
360
1E8C1
  3
BUMPTILE
360
19FEB
  3
DIFFUSETILE
360
19FEA
  3
OPACITYTILE
360
19FEE
  3
REFLECTIONTILE
360
19FED
  3
REFRACTIONTILE
360
19FEF
  3
SPECULARTILE
360
19FEC
  0
DICTIONARY
  5
19FE1
330
19FE0
100
AcDbDictionary
280
     1
281
     1
  3
ACAD_XREC_ROUNDTRIP
360
1E8C0
  3
BUMPTILE
360
19FE3
  3
DIFFUSETILE
360
19FE2
  3
OPACITYTILE
360
19FE6
  3
REFLECTIONTILE
360
19FE5
  3
REFRACTIONTILE
360
19FE7
  3
SPECULARTILE
360
19FE4
  0
DICTIONARY
  5
19FF1
330
19FF0
100
AcDbDictionary
280
     1
281
     1
  3
ACAD_XREC_ROUNDTRIP
360
1E8C2
  3
BUMPTILE
360
19FF3
  3
DIFFUSETILE
360
19FF2
  3
OPACITYTILE
360
19FF6
  3
REFLECTIONTILE
360
19FF5
  3
REFRACTIONTILE
360
19FF7
  3
SPECULARTILE
360
19FF4
  0
DICTIONARY
  5
1E8F5
330
1A026
100
AcDbDictionary
280
     1
281
     1
  3
ACAD_XREC_ROUNDTRIP
360
1E8F6
  0
DICTIONARY
  5
1B8DC
330
1B1A7
100
AcDbDictionary
280
     1
281
     1
  3
ACAD_XREC_ROUNDTRIP
360
1E8F9
  0
DICTIONARY
  5
1B8D8
330
1A028
100
AcDbDictionary
280
     1
281
     1
  3
ACAD_XREC_ROUNDTRIP
360
1E8F7
  0
DICTIONARY
  5
1E8AE
330
1A012
100
AcDbDictionary
280
     1
281
     1
  3
ACAD_ROUNDTRIP_2008_TABLESTYLE_CELLSTYLEMAP
360
1E8AF
  3
ACAD_XREC_ROUNDTRIP
360
1E8F3
  0
DICTIONARY
  5
1E8CD
330
19FFE
100
AcDbDictionary
280
     1
281
     1
  3
ACAD_XREC_ROUNDTRIP
360
1E8CE
  0
DICTIONARY
  5
1E8CB
330
19FFD
100
AcDbDictionary
280
     1
281
     1
  3
ACAD_XREC_ROUNDTRIP
360
1E8CC
  0
DICTIONARY
  5
1E8D9
330
1A004
100
AcDbDictionary
280
     1
281
     1
  3
ACAD_XREC_ROUNDTRIP
360
1E8DA
  0
DICTIONARY
  5
1E8E1
330
1A008
100
AcDbDictionary
280
     1
281
     1
  3
ACAD_XREC_ROUNDTRIP
360
1E8E2
  0
DICTIONARY
  5
1E8D3
330
1A001
100
AcDbDictionary
280
     1
281
     1
  3
ACAD_XREC_ROUNDTRIP
360
1E8D4
  0
DICTIONARY
  5
1E8D7
330
1A003
100
AcDbDictionary
280
     1
281
     1
  3
ACAD_XREC_ROUNDTRIP
360
1E8D8
  0
DICTIONARY
  5
1E8F1
330
1A010
100
AcDbDictionary
280
     1
281
     1
  3
ACAD_XREC_ROUNDTRIP
360
1E8F2
  0
DICTIONARY
  5
1E8DF
330
1A007
100
AcDbDictionary
280
     1
281
     1
  3
ACAD_XREC_ROUNDTRIP
360
1E8E0
  0
DICTIONARY
  5
1E8C3
330
19FF9
100
AcDbDictionary
280
     1
281
     1
  3
ACAD_XREC_ROUNDTRIP
360
1E8C4
  0
DICTIONARY
  5
1E8C5
330
19FFA
100
AcDbDictionary
280
     1
281
     1
  3
ACAD_XREC_ROUNDTRIP
360
1E8C6
  0
DICTIONARY
  5
1E8C7
330
19FFB
100
AcDbDictionary
280
     1
281
     1
  3
ACAD_XREC_ROUNDTRIP
360
1E8C8
  0
DICTIONARY
  5
1E8C9
330
19FFC
100
AcDbDictionary
280
     1
281
     1
  3
ACAD_XREC_ROUNDTRIP
360
1E8CA
  0
DICTIONARY
  5
1E8D1
330
1A000
100
AcDbDictionary
280
     1
281
     1
  3
ACAD_XREC_ROUNDTRIP
360
1E8D2
  0
DICTIONARY
  5
1E8ED
330
1A00E
100
AcDbDictionary
280
     1
281
     1
  3
ACAD_XREC_ROUNDTRIP
360
1E8EE
  0
DICTIONARY
  5
1E8DD
330
1A006
100
AcDbDictionary
280
     1
281
     1
  3
ACAD_XREC_ROUNDTRIP
360
1E8DE
  0
DICTIONARY
  5
1E8EF
330
1A00F
100
AcDbDictionary
280
     1
281
     1
  3
ACAD_XREC_ROUNDTRIP
360
1E8F0
  0
DICTIONARY
  5
1E8D5
330
1A002
100
AcDbDictionary
280
     1
281
     1
  3
ACAD_XREC_ROUNDTRIP
360
1E8D6
  0
DICTIONARY
  5
1E8EB
330
1A00D
100
AcDbDictionary
280
     1
281
     1
  3
ACAD_XREC_ROUNDTRIP
360
1E8EC
  0
DICTIONARY
  5
1E8E9
330
1A00C
100
AcDbDictionary
280
     1
281
     1
  3
ACAD_XREC_ROUNDTRIP
360
1E8EA
  0
DICTIONARY
  5
1E8E3
330
1A009
100
AcDbDictionary
280
     1
281
     1
  3
ACAD_XREC_ROUNDTRIP
360
1E8E4
  0
DICTIONARY
  5
1E8E5
330
1A00A
100
AcDbDictionary
280
     1
281
     1
  3
ACAD_XREC_ROUNDTRIP
360
1E8E6
  0
DICTIONARY
  5
1E8DB
330
1A005
100
AcDbDictionary
280
     1
281
     1
  3
ACAD_XREC_ROUNDTRIP
360
1E8DC
  0
DICTIONARY
  5
1E8CF
330
19FFF
100
AcDbDictionary
280
     1
281
     1
  3
ACAD_XREC_ROUNDTRIP
360
1E8D0
  0
DICTIONARY
  5
1E8E7
330
1A00B
100
AcDbDictionary
280
     1
281
     1
  3
ACAD_XREC_ROUNDTRIP
360
1E8E8
  0
XRECORD
  5
1E8B2
102
{ACAD_REACTORS
330
1E8B8
102
}
330
1E8B8
100
AcDbXrecord
280
     1
  1
AcDb_Thumbnail_Schema
102
{ATTRRECORD
341
1E8B3
  2
AcDbDs::TreatedAsObjectData
280
     1
291
     1
102
ATTRRECORD}
102
{ATTRRECORD
341
1E8B4
  2
AcDbDs::Legacy
280
     1
291
     1
102
ATTRRECORD}
  2
AcDbDs::ID
280
    10
 91
        8
102
{ATTRRECORD
341
1E8B5
  2
AcDs:Indexable
280
     1
291
     1
102
ATTRRECORD}
102
{ATTRRECORD
341
1E8B6
  2
AcDbDs::HandleAttribute
280
     7
282
     1
102
ATTRRECORD}
  2
Thumbnail_Data
280
    15
 91
        0
  0
XRECORD
  5
1E8B3
102
{ACAD_REACTORS
330
1E8B8
102
}
330
1E8B8
100
AcDbXrecord
280
     1
  1
AcDbDs::TreatedAsObjectDataSchema
  2
AcDbDs::TreatedAsObjectData
280
     1
 91
        0
  0
XRECORD
  5
1E8B4
102
{ACAD_REACTORS
330
1E8B8
102
}
330
1E8B8
100
AcDbXrecord
280
     1
  1
AcDbDs::LegacySchema
  2
AcDbDs::Legacy
280
     1
 91
        0
  0
XRECORD
  5
1E8B5
102
{ACAD_REACTORS
330
1E8B8
102
}
330
1E8B8
100
AcDbXrecord
280
     1
  1
AcDbDs::IndexedPropertySchema
  2
AcDs:Indexable
280
     1
 91
        0
  0
XRECORD
  5
1E8B6
102
{ACAD_REACTORS
330
1E8B8
102
}
330
1E8B8
100
AcDbXrecord
280
     1
  1
AcDbDs::HandleAttributeSchema
  2
AcDbDs::HandleAttribute
280
     7
 91
        1
284
     1
  0
XRECORD
  5
1E8FA
102
{ACAD_REACTORS
330
1B8DE
102
}
330
1B8DE
100
AcDbXrecord
280
     1
102
DISPLAYNAME
  1
Imperial24
102
FLAGS
 90
        0
  0
XRECORD
  5
1E8F8
102
{ACAD_REACTORS
330
1B8DA
102
}
330
1B8DA
100
AcDbXrecord
280
     1
102
DISPLAYNAME
  1
Metric50
102
FLAGS
 90
        0
  0
XRECORD
  5
1E8BD
102
{ACAD_REACTORS
330
1E8BC
102
}
330
1E8BC
100
AcDbXrecord
280
     1
102
SHADEPLOT
 70
     1
102
SHADEPLOTRESLEVEL
 70
     2
102
SHADEPLOTCUSTOMDPI
 70
   300
  0
XRECORD
  5
1E8BF
102
{ACAD_REACTORS
330
1E8BE
102
}
330
1E8BE
100
AcDbXrecord
280
     1
102
SHADEPLOT
 70
     0
102
SHADEPLOTRESLEVEL
 70
     2
102
SHADEPLOTCUSTOMDPI
 70
   300
  0
XRECORD
  5
1E8C1
102
{ACAD_REACTORS
330
19FE9
102
}
330
19FE9
100
AcDbXrecord
280
     1
102
MATERIAL
148
0.0
149
0.0
149
0.0
 93
        0
 94
      127
282
     0
 72
     0
 77
     0
171
     0
175
     0
179
     0
273
     0
  0
XRECORD
  5
19FEB
102
{ACAD_REACTORS
330
19FE9
102
}
330
19FE9
100
AcDbXrecord
280
     1
270
     1
271
     1
  0
XRECORD
  5
19FEA
102
{ACAD_REACTORS
330
19FE9
102
}
330
19FE9
100
AcDbXrecord
280
     1
270
     1
271
     1
  0
XRECORD
  5
19FEE
102
{ACAD_REACTORS
330
19FE9
102
}
330
19FE9
100
AcDbXrecord
280
     1
270
     1
271
     1
  0
XRECORD
  5
19FED
102
{ACAD_REACTORS
330
19FE9
102
}
330
19FE9
100
AcDbXrecord
280
     1
270
     1
271
     1
  0
XRECORD
  5
19FEF
102
{ACAD_REACTORS
330
19FE9
102
}
330
19FE9
100
AcDbXrecord
280
     1
270
     1
271
     1
  0
XRECORD
  5
19FEC
102
{ACAD_REACTORS
330
19FE9
102
}
330
19FE9
100
AcDbXrecord
280
     1
270
     1
271
     1
  0
XRECORD
  5
1E8C0
102
{ACAD_REACTORS
330
19FE1
102
}
330
19FE1
100
AcDbXrecord
280
     1
102
MATERIAL
148
0.0
149
0.0
149
0.0
 93
        0
 94
      127
282
     0
 72
     0
 77
     0
171
     0
175
     0
179
     0
273
     0
  0
XRECORD
  5
19FE3
102
{ACAD_REACTORS
330
19FE1
102
}
330
19FE1
100
AcDbXrecord
280
     1
270
     1
271
     1
  0
XRECORD
  5
19FE2
102
{ACAD_REACTORS
330
19FE1
102
}
330
19FE1
100
AcDbXrecord
280
     1
270
     1
271
     1
  0
XRECORD
  5
19FE6
102
{ACAD_REACTORS
330
19FE1
102
}
330
19FE1
100
AcDbXrecord
280
     1
270
     1
271
     1
  0
XRECORD
  5
19FE5
102
{ACAD_REACTORS
330
19FE1
102
}
330
19FE1
100
AcDbXrecord
280
     1
270
     1
271
     1
  0
XRECORD
  5
19FE7
102
{ACAD_REACTORS
330
19FE1
102
}
330
19FE1
100
AcDbXrecord
280
     1
270
     1
271
     1
  0
XRECORD
  5
19FE4
102
{ACAD_REACTORS
330
19FE1
102
}
330
19FE1
100
AcDbXrecord
280
     1
270
     1
271
     1
  0
XRECORD
  5
1E8C2
102
{ACAD_REACTORS
330
19FF1
102
}
330
19FF1
100
AcDbXrecord
280
     1
102
MATERIAL
148
0.0
149
0.0
149
0.0
 93
        0
 94
      127
282
     0
 72
     0
 77
     0
171
     0
175
     0
179
     0
273
     0
  0
XRECORD
  5
19FF3
102
{ACAD_REACTORS
330
19FF1
102
}
330
19FF1
100
AcDbXrecord
280
     1
270
     1
271
     1
  0
XRECORD
  5
19FF2
102
{ACAD_REACTORS
330
19FF1
102
}
330
19FF1
100
AcDbXrecord
280
     1
270
     1
271
     1
  0
XRECORD
  5
19FF6
102
{ACAD_REACTORS
330
19FF1
102
}
330
19FF1
100
AcDbXrecord
280
     1
270
     1
271
     1
  0
XRECORD
  5
19FF5
102
{ACAD_REACTORS
330
19FF1
102
}
330
19FF1
100
AcDbXrecord
280
     1
270
     1
271
     1
  0
XRECORD
  5
19FF7
102
{ACAD_REACTORS
330
19FF1
102
}
330
19FF1
100
AcDbXrecord
280
     1
270
     1
271
     1
  0
XRECORD
  5
19FF4
102
{ACAD_REACTORS
330
19FF1
102
}
330
19FF1
100
AcDbXrecord
280
     1
270
     1
271
     1
  0
XRECORD
  5
1E8F6
102
{ACAD_REACTORS
330
1E8F5
102
}
330
1E8F5
100
AcDbXrecord
280
     1
102
ACAD_ROUNDTRIP_2012_MLEADER_STYLE
298
     1
  0
XRECORD
  5
1E8F9
102
{ACAD_REACTORS
330
1B8DC
102
}
330
1B8DC
100
AcDbXrecord
280
     1
102
DISPLAYNAME
  1
Imperial24
102
FLAGS
 90
        0
  0
XRECORD
  5
1E8F7
102
{ACAD_REACTORS
330
1B8D8
102
}
330
1B8D8
100
AcDbXrecord
280
     1
102
DISPLAYNAME
  1
Metric50
102
FLAGS
 90
        0
  0
CELLSTYLEMAP
  5
1E8AF
102
{ACAD_REACTORS
330
1E8AE
102
}
330
1E8AE
100
AcDbCellStyleMap
 90
        3
300
CELLSTYLE
  1
TABLEFORMAT_BEGIN
 90
        5
170
     1
 91
        0
 92
    32768
 62
   257
 93
        1
300
CONTENTFORMAT
  1
CONTENTFORMAT_BEGIN
 90
        0
 91
        0
 92
      512
 93
        0
300

 40
0.0
140
1.0
 94
        5
 62
     0
340
7475
144
6.0
309
CONTENTFORMAT_END
171
     1
301
MARGIN
  1
CELLMARGIN_BEGIN
 40
1.5
 40
1.5
 40
1.5
 40
1.5
 40
4.5
 40
4.5
309
CELLMARGIN_END
 94
        6
 95
        1
302
GRIDFORMAT
  1
GRIDFORMAT_BEGIN
 90
        0
 91
        1
 62
     0
 92
       -2
340
0
 93
        0
 40
1.125
309
GRIDFORMAT_END
 95
        2
302
GRIDFORMAT
  1
GRIDFORMAT_BEGIN
 90
        0
 91
        1
 62
     0
 92
       -2
340
0
 93
        0
 40
1.125
309
GRIDFORMAT_END
 95
        4
302
GRIDFORMAT
  1
GRIDFORMAT_BEGIN
 90
        0
 91
        1
 62
     0
 92
       -2
340
0
 93
        0
 40
1.125
309
GRIDFORMAT_END
 95
        8
302
GRIDFORMAT
  1
GRIDFORMAT_BEGIN
 90
        0
 91
        1
 62
     0
 92
       -2
340
0
 93
        0
 40
1.125
309
GRIDFORMAT_END
 95
       16
302
GRIDFORMAT
  1
GRIDFORMAT_BEGIN
 90
        0
 91
        1
 62
     0
 92
       -2
340
0
 93
        0
 40
1.125
309
GRIDFORMAT_END
 95
       32
302
GRIDFORMAT
  1
GRIDFORMAT_BEGIN
 90
        0
 91
        1
 62
     0
 92
       -2
340
0
 93
        0
 40
1.125
309
GRIDFORMAT_END
309
TABLEFORMAT_END
  1
CELLSTYLE_BEGIN
 90
        1
 91
        1
300
_TITLE
309
CELLSTYLE_END
300
CELLSTYLE
  1
TABLEFORMAT_BEGIN
 90
        5
170
     1
 91
        0
 92
        0
 62
   257
 93
        1
300
CONTENTFORMAT
  1
CONTENTFORMAT_BEGIN
 90
        0
 91
        0
 92
      512
 93
        0
300

 40
0.0
140
1.0
 94
        5
 62
     0
340
7475
144
4.5
309
CONTENTFORMAT_END
171
     1
301
MARGIN
  1
CELLMARGIN_BEGIN
 40
1.5
 40
1.5
 40
1.5
 40
1.5
 40
4.5
 40
4.5
309
CELLMARGIN_END
 94
        6
 95
        1
302
GRIDFORMAT
  1
GRIDFORMAT_BEGIN
 90
        0
 91
        1
 62
     0
 92
       -2
340
0
 93
        0
 40
1.125
309
GRIDFORMAT_END
 95
        2
302
GRIDFORMAT
  1
GRIDFORMAT_BEGIN
 90
        0
 91
        1
 62
     0
 92
       -2
340
0
 93
        0
 40
1.125
309
GRIDFORMAT_END
 95
        4
302
GRIDFORMAT
  1
GRIDFORMAT_BEGIN
 90
        0
 91
        1
 62
     0
 92
       -2
340
0
 93
        0
 40
1.125
309
GRIDFORMAT_END
 95
        8
302
GRIDFORMAT
  1
GRIDFORMAT_BEGIN
 90
        0
 91
        1
 62
     0
 92
       -2
340
0
 93
        0
 40
1.125
309
GRIDFORMAT_END
 95
       16
302
GRIDFORMAT
  1
GRIDFORMAT_BEGIN
 90
        0
 91
        1
 62
     0
 92
       -2
340
0
 93
        0
 40
1.125
309
GRIDFORMAT_END
 95
       32
302
GRIDFORMAT
  1
GRIDFORMAT_BEGIN
 90
        0
 91
        1
 62
     0
 92
       -2
340
0
 93
        0
 40
1.125
309
GRIDFORMAT_END
309
TABLEFORMAT_END
  1
CELLSTYLE_BEGIN
 90
        2
 91
        1
300
_HEADER
309
CELLSTYLE_END
300
CELLSTYLE
  1
TABLEFORMAT_BEGIN
 90
        5
170
     1
 91
        0
 92
        0
 62
   257
 93
        1
300
CONTENTFORMAT
  1
CONTENTFORMAT_BEGIN
 90
        0
 91
        0
 92
      512
 93
        0
300

 40
0.0
140
1.0
 94
        2
 62
     0
340
7475
144
4.5
309
CONTENTFORMAT_END
171
     1
301
MARGIN
  1
CELLMARGIN_BEGIN
 40
1.5
 40
1.5
 40
1.5
 40
1.5
 40
4.5
 40
4.5
309
CELLMARGIN_END
 94
        6
 95
        1
302
GRIDFORMAT
  1
GRIDFORMAT_BEGIN
 90
        0
 91
        1
 62
     0
 92
       -2
340
0
 93
        0
 40
1.125
309
GRIDFORMAT_END
 95
        2
302
GRIDFORMAT
  1
GRIDFORMAT_BEGIN
 90
        0
 91
        1
 62
     0
 92
       -2
340
0
 93
        0
 40
1.125
309
GRIDFORMAT_END
 95
        4
302
GRIDFORMAT
  1
GRIDFORMAT_BEGIN
 90
        0
 91
        1
 62
     0
 92
       -2
340
0
 93
        0
 40
1.125
309
GRIDFORMAT_END
 95
        8
302
GRIDFORMAT
  1
GRIDFORMAT_BEGIN
 90
        0
 91
        1
 62
     0
 92
       -2
340
0
 93
        0
 40
1.125
309
GRIDFORMAT_END
 95
       16
302
GRIDFORMAT
  1
GRIDFORMAT_BEGIN
 90
        0
 91
        1
 62
     0
 92
       -2
340
0
 93
        0
 40
1.125
309
GRIDFORMAT_END
 95
       32
302
GRIDFORMAT
  1
GRIDFORMAT_BEGIN
 90
        0
 91
        1
 62
     0
 92
       -2
340
0
 93
        0
 40
1.125
309
GRIDFORMAT_END
309
TABLEFORMAT_END
  1
CELLSTYLE_BEGIN
 90
        3
 91
        2
300
_DATA
309
CELLSTYLE_END
  0
XRECORD
  5
1E8F3
102
{ACAD_REACTORS
330
1E8AE
102
}
330
1E8AE
100
AcDbXrecord
280
     1
102
ACAD_ROUNDTRIP_PRE2007_TABLESTYLE
 90
      512
 91
        0
  1

 92
      512
 93
        0
  2

 94
      512
 95
        0
  3

  0
XRECORD
  5
1E8CE
102
{ACAD_REACTORS
330
1E8CD
102
}
330
1E8CD
100
AcDbXrecord
280
     1
102
RTVSPost2010Prop28
280
     1
102
RTVSPost2010PropOp28
 70
     1
102
RTVSPost2010Prop29
280
     1
102
RTVSPost2010PropOp29
 70
     1
102
RTVSPost2010Prop30
280
     0
102
RTVSPost2010PropOp30
 70
     1
102
RTVSPost2010Prop31
280
     0
102
RTVSPost2010PropOp31
 70
     1
102
RTVSPost2010Prop32
280
     0
102
RTVSPost2010PropOp32
 70
     1
102
RTVSPost2010Prop33
280
     0
102
RTVSPost2010PropOp33
 70
     1
102
RTVSPost2010Prop34
280
     0
102
RTVSPost2010PropOp34
 70
     1
102
RTVSPost2010Prop35
280
     0
102
RTVSPost2010PropOp35
 70
     1
102
RTVSPost2010Prop36
280
     0
102
RTVSPost2010PropOp36
 70
     1
102
RTVSPost2010Prop37
 90
       50
102
RTVSPost2010PropOp37
 70
     1
102
RTVSPost2010Prop38
140
0.0
102
RTVSPost2010PropOp38
 70
     1
102
RTVSPost2010Prop39
140
1.0
102
RTVSPost2010PropOp39
 70
     1
102
RTVSPost2010Prop40
 90
        0
102
RTVSPost2010PropOp40
 70
     1
102
RTVSPost2010Prop41ColorIndex
 90
       18
102
RTVSPost2010Prop41ColorRGB
 90
        0
102
RTVSPost2010PropOp41
 70
     1
102
RTVSPost2010Prop42
 90
       50
102
RTVSPost2010PropOp42
 70
     1
102
RTVSPost2010Prop43
 90
        3
102
RTVSPost2010PropOp43
 70
     1
102
RTVSPost2010Prop44ColorIndex
 90
        5
102
RTVSPost2010Prop44ColorRGB
 90
      255
102
RTVSPost2010PropOp44
 70
     1
102
RTVSPost2010Prop45
280
     0
102
RTVSPost2010PropOp45
 70
     1
102
RTVSPost2010Prop46
 90
       50
102
RTVSPost2010PropOp46
 70
     1
102
RTVSPost2010Prop47
 90
       50
102
RTVSPost2010PropOp47
 70
     1
102
RTVSPost2010Prop48
 90
       50
102
RTVSPost2010PropOp48
 70
     1
102
RTVSPost2010Prop49
280
     0
102
RTVSPost2010PropOp49
 70
     1
102
RTVSPost2010Prop50
 90
       50
102
RTVSPost2010PropOp50
 70
     1
102
RTVSPost2010Prop51ColorIndex
 90
      256
102
RTVSPost2010Prop51ColorRGB
 90
-16777216
102
RTVSPost2010PropOp51
 70
     0
102
RTVSPost2010Prop52
140
1.0
102
RTVSPost2010PropOp52
 70
     0
102
RTVSPost2010Prop53
 90
        2
102
RTVSPost2010PropOp53
 70
     1
102
RTVSPost2010Prop54
  1
strokes_ogs.tif
102
RTVSPost2010PropOp54
 70
     1
102
RTVSPost2010Prop55
280
     0
102
RTVSPost2010PropOp55
 70
     1
102
RTVSPost2010Prop56
140
1.0
102
RTVSPost2010PropOp56
 70
     1
102
RTVSPost2010Prop57
140
1.0
102
RTVSPost2010PropOp57
 70
     1
102
RTVSPropertyOp0
 70
     1
102
RTVSPropertyOp1
 70
     1
102
RTVSPropertyOp2
 70
     1
102
RTVSPropertyOp3
 70
     1
102
RTVSPropertyOp4
 70
     1
102
RTVSPropertyOp5
 70
     1
102
RTVSPropertyOp6
 70
     1
102
RTVSPropertyOp7
 70
     1
102
RTVSPropertyOp8
 70
     1
102
RTVSPropertyOp9
 70
     1
102
RTVSPropertyOp10
 70
     1
102
RTVSPropertyOp11
 70
     1
102
RTVSPropertyOp12
 70
     1
102
RTVSPropertyOp13
 70
     1
102
RTVSPropertyOp14
 70
     1
102
RTVSPropertyOp15
 70
     1
102
RTVSPropertyOp16
 70
     1
102
RTVSPropertyOp17
 70
     1
102
RTVSPropertyOp18
 70
     1
102
RTVSPropertyOp19
 70
     1
102
RTVSPropertyOp20
 70
     1
102
RTVSPropertyOp21
 70
     1
102
RTVSPropertyOp22
 70
     1
102
RTVSPropertyOp23
 70
     1
102
RTVSPropertyOp24
 70
     1
102
RTVSPropertyOp25
 70
     1
102
RTVSPropertyOp26
 70
     1
102
RTVSPropertyOp27
 70
     1
102
RTVSPropertyOp28
 70
     1
102
RTVSPropertyOp29
 70
     1
102
RTVSPropertyOp30
 70
     1
102
RTVSPropertyOp31
 70
     1
102
RTVSPropertyOp32
 70
     1
102
RTVSPropertyOp33
 70
     1
102
RTVSPropertyOp34
 70
     1
102
RTVSPropertyOp35
 70
     1
102
RTVSPropertyOp36
 70
     1
102
RTVSPropertyOp37
 70
     1
102
RTVSPropertyOp38
 70
     1
102
RTVSPropertyOp39
 70
     1
102
RTVSPropertyOp40
 70
     1
102
RTVSPropertyOp41
 70
     1
102
RTVSPropertyOp42
 70
     1
102
RTVSPropertyOp43
 70
     1
102
RTVSPropertyOp44
 70
     1
102
RTVSPropertyOp45
 70
     1
102
RTVSPropertyOp46
 70
     1
102
RTVSPropertyOp47
 70
     1
102
RTVSPropertyOp48
 70
     1
102
RTVSPropertyOp49
 70
     1
102
RTVSPropertyOp50
 70
     1
102
RTVSPropertyOp51
 70
     0
102
RTVSPropertyOp52
 70
     0
102
RTVSPropertyOp53
 70
     1
102
RTVSPropertyOp54
 70
     1
102
RTVSPropertyOp55
 70
     1
102
RTVSPropertyOp56
 70
     1
102
RTVSPropertyOp57
 70
     1
102
RTVSPropertyOp58
 70
     1
102
RTVSPropertyOp59
 70
     1
102
RTVSPropertyOp60
 70
     1
102
RTVSPropertyOp61
 70
     1
102
RTVSPropertyOp62
 70
     1
  0
XRECORD
  5
1E8CC
102
{ACAD_REACTORS
330
1E8CB
102
}
330
1E8CB
100
AcDbXrecord
280
     1
102
RTVSPost2010Prop28
280
     0
102
RTVSPost2010PropOp28
 70
     1
102
RTVSPost2010Prop29
280
     1
102
RTVSPost2010PropOp29
 70
     1
102
RTVSPost2010Prop30
280
     1
102
RTVSPost2010PropOp30
 70
     1
102
RTVSPost2010Prop31
280
     0
102
RTVSPost2010PropOp31
 70
     1
102
RTVSPost2010Prop32
280
     0
102
RTVSPost2010PropOp32
 70
     1
102
RTVSPost2010Prop33
280
     0
102
RTVSPost2010PropOp33
 70
     1
102
RTVSPost2010Prop34
280
     0
102
RTVSPost2010PropOp34
 70
     1
102
RTVSPost2010Prop35
280
     0
102
RTVSPost2010PropOp35
 70
     1
102
RTVSPost2010Prop36
280
     0
102
RTVSPost2010PropOp36
 70
     1
102
RTVSPost2010Prop37
 90
       50
102
RTVSPost2010PropOp37
 70
     1
102
RTVSPost2010Prop38
140
0.0
102
RTVSPost2010PropOp38
 70
     1
102
RTVSPost2010Prop39
140
1.0
102
RTVSPost2010PropOp39
 70
     1
102
RTVSPost2010Prop40
 90
        0
102
RTVSPost2010PropOp40
 70
     1
102
RTVSPost2010Prop41ColorIndex
 90
       18
102
RTVSPost2010Prop41ColorRGB
 90
        0
102
RTVSPost2010PropOp41
 70
     1
102
RTVSPost2010Prop42
 90
       50
102
RTVSPost2010PropOp42
 70
     1
102
RTVSPost2010Prop43
 90
        3
102
RTVSPost2010PropOp43
 70
     1
102
RTVSPost2010Prop44ColorIndex
 90
        5
102
RTVSPost2010Prop44ColorRGB
 90
      255
102
RTVSPost2010PropOp44
 70
     1
102
RTVSPost2010Prop45
280
     0
102
RTVSPost2010PropOp45
 70
     1
102
RTVSPost2010Prop46
 90
       50
102
RTVSPost2010PropOp46
 70
     1
102
RTVSPost2010Prop47
 90
       50
102
RTVSPost2010PropOp47
 70
     1
102
RTVSPost2010Prop48
 90
       50
102
RTVSPost2010PropOp48
 70
     1
102
RTVSPost2010Prop49
280
     0
102
RTVSPost2010PropOp49
 70
     1
102
RTVSPost2010Prop50
 90
       50
102
RTVSPost2010PropOp50
 70
     1
102
RTVSPost2010Prop51ColorIndex
 90
      256
102
RTVSPost2010Prop51ColorRGB
 90
-16777216
102
RTVSPost2010PropOp51
 70
     0
102
RTVSPost2010Prop52
140
1.0
102
RTVSPost2010PropOp52
 70
     0
102
RTVSPost2010Prop53
 90
        2
102
RTVSPost2010PropOp53
 70
     1
102
RTVSPost2010Prop54
  1
strokes_ogs.tif
102
RTVSPost2010PropOp54
 70
     1
102
RTVSPost2010Prop55
280
     0
102
RTVSPost2010PropOp55
 70
     1
102
RTVSPost2010Prop56
140
1.0
102
RTVSPost2010PropOp56
 70
     1
102
RTVSPost2010Prop57
140
1.0
102
RTVSPost2010PropOp57
 70
     1
102
RTVSPropertyOp0
 70
     1
102
RTVSPropertyOp1
 70
     1
102
RTVSPropertyOp2
 70
     1
102
RTVSPropertyOp3
 70
     1
102
RTVSPropertyOp4
 70
     1
102
RTVSPropertyOp5
 70
     1
102
RTVSPropertyOp6
 70
     1
102
RTVSPropertyOp7
 70
     1
102
RTVSPropertyOp8
 70
     1
102
RTVSPropertyOp9
 70
     1
102
RTVSPropertyOp10
 70
     1
102
RTVSPropertyOp11
 70
     1
102
RTVSPropertyOp12
 70
     1
102
RTVSPropertyOp13
 70
     1
102
RTVSPropertyOp14
 70
     1
102
RTVSPropertyOp15
 70
     1
102
RTVSPropertyOp16
 70
     1
102
RTVSPropertyOp17
 70
     1
102
RTVSPropertyOp18
 70
     1
102
RTVSPropertyOp19
 70
     1
102
RTVSPropertyOp20
 70
     1
102
RTVSPropertyOp21
 70
     1
102
RTVSPropertyOp22
 70
     1
102
RTVSPropertyOp23
 70
     1
102
RTVSPropertyOp24
 70
     1
102
RTVSPropertyOp25
 70
     1
102
RTVSPropertyOp26
 70
     1
102
RTVSPropertyOp27
 70
     1
102
RTVSPropertyOp28
 70
     1
102
RTVSPropertyOp29
 70
     1
102
RTVSPropertyOp30
 70
     1
102
RTVSPropertyOp31
 70
     1
102
RTVSPropertyOp32
 70
     1
102
RTVSPropertyOp33
 70
     1
102
RTVSPropertyOp34
 70
     1
102
RTVSPropertyOp35
 70
     1
102
RTVSPropertyOp36
 70
     1
102
RTVSPropertyOp37
 70
     1
102
RTVSPropertyOp38
 70
     1
102
RTVSPropertyOp39
 70
     1
102
RTVSPropertyOp40
 70
     1
102
RTVSPropertyOp41
 70
     1
102
RTVSPropertyOp42
 70
     1
102
RTVSPropertyOp43
 70
     1
102
RTVSPropertyOp44
 70
     1
102
RTVSPropertyOp45
 70
     1
102
RTVSPropertyOp46
 70
     1
102
RTVSPropertyOp47
 70
     1
102
RTVSPropertyOp48
 70
     1
102
RTVSPropertyOp49
 70
     1
102
RTVSPropertyOp50
 70
     1
102
RTVSPropertyOp51
 70
     0
102
RTVSPropertyOp52
 70
     0
102
RTVSPropertyOp53
 70
     1
102
RTVSPropertyOp54
 70
     1
102
RTVSPropertyOp55
 70
     1
102
RTVSPropertyOp56
 70
     1
102
RTVSPropertyOp57
 70
     1
102
RTVSPropertyOp58
 70
     1
102
RTVSPropertyOp59
 70
     1
102
RTVSPropertyOp60
 70
     1
102
RTVSPropertyOp61
 70
     1
102
RTVSPropertyOp62
 70
     1
  0
XRECORD
  5
1E8DA
102
{ACAD_REACTORS
330
1E8D9
102
}
330
1E8D9
100
AcDbXrecord
280
     1
102
RTVSPost2010Prop28
280
     0
102
RTVSPost2010PropOp28
 70
     1
102
RTVSPost2010Prop29
280
     1
102
RTVSPost2010PropOp29
 70
     1
102
RTVSPost2010Prop30
280
     1
102
RTVSPost2010PropOp30
 70
     1
102
RTVSPost2010Prop31
280
     0
102
RTVSPost2010PropOp31
 70
     1
102
RTVSPost2010Prop32
280
     0
102
RTVSPost2010PropOp32
 70
     1
102
RTVSPost2010Prop33
280
     0
102
RTVSPost2010PropOp33
 70
     1
102
RTVSPost2010Prop34
280
     0
102
RTVSPost2010PropOp34
 70
     1
102
RTVSPost2010Prop35
280
     0
102
RTVSPost2010PropOp35
 70
     1
102
RTVSPost2010Prop36
280
     0
102
RTVSPost2010PropOp36
 70
     1
102
RTVSPost2010Prop37
 90
       50
102
RTVSPost2010PropOp37
 70
     1
102
RTVSPost2010Prop38
140
0.0
102
RTVSPost2010PropOp38
 70
     1
102
RTVSPost2010Prop39
140
1.0
102
RTVSPost2010PropOp39
 70
     1
102
RTVSPost2010Prop40
 90
        0
102
RTVSPost2010PropOp40
 70
     1
102
RTVSPost2010Prop41ColorIndex
 90
       18
102
RTVSPost2010Prop41ColorRGB
 90
        0
102
RTVSPost2010PropOp41
 70
     1
102
RTVSPost2010Prop42
 90
       50
102
RTVSPost2010PropOp42
 70
     1
102
RTVSPost2010Prop43
 90
        3
102
RTVSPost2010PropOp43
 70
     1
102
RTVSPost2010Prop44ColorIndex
 90
        5
102
RTVSPost2010Prop44ColorRGB
 90
      255
102
RTVSPost2010PropOp44
 70
     1
102
RTVSPost2010Prop45
280
     0
102
RTVSPost2010PropOp45
 70
     1
102
RTVSPost2010Prop46
 90
       50
102
RTVSPost2010PropOp46
 70
     1
102
RTVSPost2010Prop47
 90
       50
102
RTVSPost2010PropOp47
 70
     1
102
RTVSPost2010Prop48
 90
       50
102
RTVSPost2010PropOp48
 70
     1
102
RTVSPost2010Prop49
280
     0
102
RTVSPost2010PropOp49
 70
     1
102
RTVSPost2010Prop50
 90
       50
102
RTVSPost2010PropOp50
 70
     1
102
RTVSPost2010Prop51ColorIndex
 90
      256
102
RTVSPost2010Prop51ColorRGB
 90
-16777216
102
RTVSPost2010PropOp51
 70
     0
102
RTVSPost2010Prop52
140
1.0
102
RTVSPost2010PropOp52
 70
     0
102
RTVSPost2010Prop53
 90
        2
102
RTVSPost2010PropOp53
 70
     1
102
RTVSPost2010Prop54
  1
strokes_ogs.tif
102
RTVSPost2010PropOp54
 70
     1
102
RTVSPost2010Prop55
280
     0
102
RTVSPost2010PropOp55
 70
     1
102
RTVSPost2010Prop56
140
1.0
102
RTVSPost2010PropOp56
 70
     1
102
RTVSPost2010Prop57
140
1.0
102
RTVSPost2010PropOp57
 70
     1
102
RTVSPropertyOp0
 70
     1
102
RTVSPropertyOp1
 70
     1
102
RTVSPropertyOp2
 70
     1
102
RTVSPropertyOp3
 70
     1
102
RTVSPropertyOp4
 70
     1
102
RTVSPropertyOp5
 70
     1
102
RTVSPropertyOp6
 70
     1
102
RTVSPropertyOp7
 70
     1
102
RTVSPropertyOp8
 70
     1
102
RTVSPropertyOp9
 70
     1
102
RTVSPropertyOp10
 70
     1
102
RTVSPropertyOp11
 70
     1
102
RTVSPropertyOp12
 70
     1
102
RTVSPropertyOp13
 70
     1
102
RTVSPropertyOp14
 70
     1
102
RTVSPropertyOp15
 70
     1
102
RTVSPropertyOp16
 70
     1
102
RTVSPropertyOp17
 70
     1
102
RTVSPropertyOp18
 70
     1
102
RTVSPropertyOp19
 70
     1
102
RTVSPropertyOp20
 70
     1
102
RTVSPropertyOp21
 70
     1
102
RTVSPropertyOp22
 70
     1
102
RTVSPropertyOp23
 70
     1
102
RTVSPropertyOp24
 70
     1
102
RTVSPropertyOp25
 70
     1
102
RTVSPropertyOp26
 70
     1
102
RTVSPropertyOp27
 70
     1
102
RTVSPropertyOp28
 70
     1
102
RTVSPropertyOp29
 70
     1
102
RTVSPropertyOp30
 70
     1
102
RTVSPropertyOp31
 70
     1
102
RTVSPropertyOp32
 70
     1
102
RTVSPropertyOp33
 70
     1
102
RTVSPropertyOp34
 70
     1
102
RTVSPropertyOp35
 70
     1
102
RTVSPropertyOp36
 70
     1
102
RTVSPropertyOp37
 70
     1
102
RTVSPropertyOp38
 70
     1
102
RTVSPropertyOp39
 70
     1
102
RTVSPropertyOp40
 70
     1
102
RTVSPropertyOp41
 70
     1
102
RTVSPropertyOp42
 70
     1
102
RTVSPropertyOp43
 70
     1
102
RTVSPropertyOp44
 70
     1
102
RTVSPropertyOp45
 70
     1
102
RTVSPropertyOp46
 70
     1
102
RTVSPropertyOp47
 70
     1
102
RTVSPropertyOp48
 70
     1
102
RTVSPropertyOp49
 70
     1
102
RTVSPropertyOp50
 70
     1
102
RTVSPropertyOp51
 70
     0
102
RTVSPropertyOp52
 70
     0
102
RTVSPropertyOp53
 70
     1
102
RTVSPropertyOp54
 70
     1
102
RTVSPropertyOp55
 70
     1
102
RTVSPropertyOp56
 70
     1
102
RTVSPropertyOp57
 70
     1
102
RTVSPropertyOp58
 70
     1
102
RTVSPropertyOp59
 70
     1
102
RTVSPropertyOp60
 70
     1
102
RTVSPropertyOp61
 70
     1
102
RTVSPropertyOp62
 70
     1
  0
XRECORD
  5
1E8E2
102
{ACAD_REACTORS
330
1E8E1
102
}
330
1E8E1
100
AcDbXrecord
280
     1
102
RTVSPost2010Prop28
280
     0
102
RTVSPost2010PropOp28
 70
     1
102
RTVSPost2010Prop29
280
     1
102
RTVSPost2010PropOp29
 70
     1
102
RTVSPost2010Prop30
280
     1
102
RTVSPost2010PropOp30
 70
     1
102
RTVSPost2010Prop31
280
     0
102
RTVSPost2010PropOp31
 70
     1
102
RTVSPost2010Prop32
280
     0
102
RTVSPost2010PropOp32
 70
     1
102
RTVSPost2010Prop33
280
     0
102
RTVSPost2010PropOp33
 70
     1
102
RTVSPost2010Prop34
280
     0
102
RTVSPost2010PropOp34
 70
     1
102
RTVSPost2010Prop35
280
     0
102
RTVSPost2010PropOp35
 70
     1
102
RTVSPost2010Prop36
280
     0
102
RTVSPost2010PropOp36
 70
     1
102
RTVSPost2010Prop37
 90
       50
102
RTVSPost2010PropOp37
 70
     1
102
RTVSPost2010Prop38
140
0.0
102
RTVSPost2010PropOp38
 70
     1
102
RTVSPost2010Prop39
140
1.0
102
RTVSPost2010PropOp39
 70
     1
102
RTVSPost2010Prop40
 90
        0
102
RTVSPost2010PropOp40
 70
     1
102
RTVSPost2010Prop41ColorIndex
 90
       18
102
RTVSPost2010Prop41ColorRGB
 90
        0
102
RTVSPost2010PropOp41
 70
     1
102
RTVSPost2010Prop42
 90
       50
102
RTVSPost2010PropOp42
 70
     1
102
RTVSPost2010Prop43
 90
        3
102
RTVSPost2010PropOp43
 70
     1
102
RTVSPost2010Prop44ColorIndex
 90
        5
102
RTVSPost2010Prop44ColorRGB
 90
      255
102
RTVSPost2010PropOp44
 70
     1
102
RTVSPost2010Prop45
280
     0
102
RTVSPost2010PropOp45
 70
     1
102
RTVSPost2010Prop46
 90
       50
102
RTVSPost2010PropOp46
 70
     1
102
RTVSPost2010Prop47
 90
       50
102
RTVSPost2010PropOp47
 70
     1
102
RTVSPost2010Prop48
 90
       50
102
RTVSPost2010PropOp48
 70
     1
102
RTVSPost2010Prop49
280
     0
102
RTVSPost2010PropOp49
 70
     1
102
RTVSPost2010Prop50
 90
       50
102
RTVSPost2010PropOp50
 70
     1
102
RTVSPost2010Prop51ColorIndex
 90
      256
102
RTVSPost2010Prop51ColorRGB
 90
-16777216
102
RTVSPost2010PropOp51
 70
     0
102
RTVSPost2010Prop52
140
1.0
102
RTVSPost2010PropOp52
 70
     0
102
RTVSPost2010Prop53
 90
        2
102
RTVSPost2010PropOp53
 70
     1
102
RTVSPost2010Prop54
  1
strokes_ogs.tif
102
RTVSPost2010PropOp54
 70
     1
102
RTVSPost2010Prop55
280
     0
102
RTVSPost2010PropOp55
 70
     1
102
RTVSPost2010Prop56
140
1.0
102
RTVSPost2010PropOp56
 70
     1
102
RTVSPost2010Prop57
140
1.0
102
RTVSPost2010PropOp57
 70
     1
102
RTVSPropertyOp0
 70
     1
102
RTVSPropertyOp1
 70
     1
102
RTVSPropertyOp2
 70
     1
102
RTVSPropertyOp3
 70
     1
102
RTVSPropertyOp4
 70
     1
102
RTVSPropertyOp5
 70
     1
102
RTVSPropertyOp6
 70
     1
102
RTVSPropertyOp7
 70
     1
102
RTVSPropertyOp8
 70
     1
102
RTVSPropertyOp9
 70
     1
102
RTVSPropertyOp10
 70
     1
102
RTVSPropertyOp11
 70
     1
102
RTVSPropertyOp12
 70
     1
102
RTVSPropertyOp13
 70
     1
102
RTVSPropertyOp14
 70
     1
102
RTVSPropertyOp15
 70
     1
102
RTVSPropertyOp16
 70
     1
102
RTVSPropertyOp17
 70
     1
102
RTVSPropertyOp18
 70
     1
102
RTVSPropertyOp19
 70
     1
102
RTVSPropertyOp20
 70
     1
102
RTVSPropertyOp21
 70
     1
102
RTVSPropertyOp22
 70
     1
102
RTVSPropertyOp23
 70
     1
102
RTVSPropertyOp24
 70
     1
102
RTVSPropertyOp25
 70
     1
102
RTVSPropertyOp26
 70
     1
102
RTVSPropertyOp27
 70
     1
102
RTVSPropertyOp28
 70
     1
102
RTVSPropertyOp29
 70
     1
102
RTVSPropertyOp30
 70
     1
102
RTVSPropertyOp31
 70
     1
102
RTVSPropertyOp32
 70
     1
102
RTVSPropertyOp33
 70
     1
102
RTVSPropertyOp34
 70
     1
102
RTVSPropertyOp35
 70
     1
102
RTVSPropertyOp36
 70
     1
102
RTVSPropertyOp37
 70
     1
102
RTVSPropertyOp38
 70
     1
102
RTVSPropertyOp39
 70
     1
102
RTVSPropertyOp40
 70
     1
102
RTVSPropertyOp41
 70
     1
102
RTVSPropertyOp42
 70
     1
102
RTVSPropertyOp43
 70
     1
102
RTVSPropertyOp44
 70
     1
102
RTVSPropertyOp45
 70
     1
102
RTVSPropertyOp46
 70
     1
102
RTVSPropertyOp47
 70
     1
102
RTVSPropertyOp48
 70
     1
102
RTVSPropertyOp49
 70
     1
102
RTVSPropertyOp50
 70
     1
102
RTVSPropertyOp51
 70
     0
102
RTVSPropertyOp52
 70
     0
102
RTVSPropertyOp53
 70
     1
102
RTVSPropertyOp54
 70
     1
102
RTVSPropertyOp55
 70
     1
102
RTVSPropertyOp56
 70
     1
102
RTVSPropertyOp57
 70
     1
102
RTVSPropertyOp58
 70
     1
102
RTVSPropertyOp59
 70
     1
102
RTVSPropertyOp60
 70
     1
102
RTVSPropertyOp61
 70
     1
102
RTVSPropertyOp62
 70
     1
  0
XRECORD
  5
1E8D4
102
{ACAD_REACTORS
330
1E8D3
102
}
330
1E8D3
100
AcDbXrecord
280
     1
102
RTVSPost2010Prop28
280
     0
102
RTVSPost2010PropOp28
 70
     1
102
RTVSPost2010Prop29
280
     1
102
RTVSPost2010PropOp29
 70
     1
102
RTVSPost2010Prop30
280
     1
102
RTVSPost2010PropOp30
 70
     1
102
RTVSPost2010Prop31
280
     0
102
RTVSPost2010PropOp31
 70
     1
102
RTVSPost2010Prop32
280
     0
102
RTVSPost2010PropOp32
 70
     1
102
RTVSPost2010Prop33
280
     0
102
RTVSPost2010PropOp33
 70
     1
102
RTVSPost2010Prop34
280
     0
102
RTVSPost2010PropOp34
 70
     1
102
RTVSPost2010Prop35
280
     0
102
RTVSPost2010PropOp35
 70
     1
102
RTVSPost2010Prop36
280
     0
102
RTVSPost2010PropOp36
 70
     1
102
RTVSPost2010Prop37
 90
       50
102
RTVSPost2010PropOp37
 70
     1
102
RTVSPost2010Prop38
140
0.0
102
RTVSPost2010PropOp38
 70
     1
102
RTVSPost2010Prop39
140
1.0
102
RTVSPost2010PropOp39
 70
     1
102
RTVSPost2010Prop40
 90
        0
102
RTVSPost2010PropOp40
 70
     1
102
RTVSPost2010Prop41ColorIndex
 90
       18
102
RTVSPost2010Prop41ColorRGB
 90
        0
102
RTVSPost2010PropOp41
 70
     1
102
RTVSPost2010Prop42
 90
       50
102
RTVSPost2010PropOp42
 70
     1
102
RTVSPost2010Prop43
 90
        3
102
RTVSPost2010PropOp43
 70
     1
102
RTVSPost2010Prop44ColorIndex
 90
        5
102
RTVSPost2010Prop44ColorRGB
 90
      255
102
RTVSPost2010PropOp44
 70
     1
102
RTVSPost2010Prop45
280
     0
102
RTVSPost2010PropOp45
 70
     1
102
RTVSPost2010Prop46
 90
       50
102
RTVSPost2010PropOp46
 70
     1
102
RTVSPost2010Prop47
 90
       50
102
RTVSPost2010PropOp47
 70
     1
102
RTVSPost2010Prop48
 90
       50
102
RTVSPost2010PropOp48
 70
     1
102
RTVSPost2010Prop49
280
     0
102
RTVSPost2010PropOp49
 70
     1
102
RTVSPost2010Prop50
 90
       50
102
RTVSPost2010PropOp50
 70
     1
102
RTVSPost2010Prop51ColorIndex
 90
      256
102
RTVSPost2010Prop51ColorRGB
 90
-16777216
102
RTVSPost2010PropOp51
 70
     0
102
RTVSPost2010Prop52
140
1.0
102
RTVSPost2010PropOp52
 70
     0
102
RTVSPost2010Prop53
 90
        2
102
RTVSPost2010PropOp53
 70
     1
102
RTVSPost2010Prop54
  1
strokes_ogs.tif
102
RTVSPost2010PropOp54
 70
     1
102
RTVSPost2010Prop55
280
     0
102
RTVSPost2010PropOp55
 70
     1
102
RTVSPost2010Prop56
140
1.0
102
RTVSPost2010PropOp56
 70
     1
102
RTVSPost2010Prop57
140
1.0
102
RTVSPost2010PropOp57
 70
     1
102
RTVSPropertyOp0
 70
     1
102
RTVSPropertyOp1
 70
     1
102
RTVSPropertyOp2
 70
     1
102
RTVSPropertyOp3
 70
     1
102
RTVSPropertyOp4
 70
     1
102
RTVSPropertyOp5
 70
     1
102
RTVSPropertyOp6
 70
     1
102
RTVSPropertyOp7
 70
     1
102
RTVSPropertyOp8
 70
     1
102
RTVSPropertyOp9
 70
     1
102
RTVSPropertyOp10
 70
     1
102
RTVSPropertyOp11
 70
     1
102
RTVSPropertyOp12
 70
     1
102
RTVSPropertyOp13
 70
     1
102
RTVSPropertyOp14
 70
     1
102
RTVSPropertyOp15
 70
     1
102
RTVSPropertyOp16
 70
     1
102
RTVSPropertyOp17
 70
     1
102
RTVSPropertyOp18
 70
     1
102
RTVSPropertyOp19
 70
     1
102
RTVSPropertyOp20
 70
     1
102
RTVSPropertyOp21
 70
     1
102
RTVSPropertyOp22
 70
     1
102
RTVSPropertyOp23
 70
     1
102
RTVSPropertyOp24
 70
     1
102
RTVSPropertyOp25
 70
     1
102
RTVSPropertyOp26
 70
     1
102
RTVSPropertyOp27
 70
     1
102
RTVSPropertyOp28
 70
     1
102
RTVSPropertyOp29
 70
     1
102
RTVSPropertyOp30
 70
     1
102
RTVSPropertyOp31
 70
     1
102
RTVSPropertyOp32
 70
     1
102
RTVSPropertyOp33
 70
     1
102
RTVSPropertyOp34
 70
     1
102
RTVSPropertyOp35
 70
     1
102
RTVSPropertyOp36
 70
     1
102
RTVSPropertyOp37
 70
     1
102
RTVSPropertyOp38
 70
     1
102
RTVSPropertyOp39
 70
     1
102
RTVSPropertyOp40
 70
     1
102
RTVSPropertyOp41
 70
     1
102
RTVSPropertyOp42
 70
     1
102
RTVSPropertyOp43
 70
     1
102
RTVSPropertyOp44
 70
     1
102
RTVSPropertyOp45
 70
     1
102
RTVSPropertyOp46
 70
     1
102
RTVSPropertyOp47
 70
     1
102
RTVSPropertyOp48
 70
     1
102
RTVSPropertyOp49
 70
     1
102
RTVSPropertyOp50
 70
     1
102
RTVSPropertyOp51
 70
     0
102
RTVSPropertyOp52
 70
     0
102
RTVSPropertyOp53
 70
     1
102
RTVSPropertyOp54
 70
     1
102
RTVSPropertyOp55
 70
     1
102
RTVSPropertyOp56
 70
     1
102
RTVSPropertyOp57
 70
     1
102
RTVSPropertyOp58
 70
     1
102
RTVSPropertyOp59
 70
     1
102
RTVSPropertyOp60
 70
     1
102
RTVSPropertyOp61
 70
     1
102
RTVSPropertyOp62
 70
     1
  0
XRECORD
  5
1E8D8
102
{ACAD_REACTORS
330
1E8D7
102
}
330
1E8D7
100
AcDbXrecord
280
     1
102
RTVSPost2010Prop28
280
     0
102
RTVSPost2010PropOp28
 70
     1
102
RTVSPost2010Prop29
280
     1
102
RTVSPost2010PropOp29
 70
     1
102
RTVSPost2010Prop30
280
     1
102
RTVSPost2010PropOp30
 70
     1
102
RTVSPost2010Prop31
280
     0
102
RTVSPost2010PropOp31
 70
     1
102
RTVSPost2010Prop32
280
     0
102
RTVSPost2010PropOp32
 70
     1
102
RTVSPost2010Prop33
280
     0
102
RTVSPost2010PropOp33
 70
     1
102
RTVSPost2010Prop34
280
     0
102
RTVSPost2010PropOp34
 70
     1
102
RTVSPost2010Prop35
280
     0
102
RTVSPost2010PropOp35
 70
     1
102
RTVSPost2010Prop36
280
     0
102
RTVSPost2010PropOp36
 70
     1
102
RTVSPost2010Prop37
 90
       50
102
RTVSPost2010PropOp37
 70
     1
102
RTVSPost2010Prop38
140
0.0
102
RTVSPost2010PropOp38
 70
     1
102
RTVSPost2010Prop39
140
1.0
102
RTVSPost2010PropOp39
 70
     1
102
RTVSPost2010Prop40
 90
        0
102
RTVSPost2010PropOp40
 70
     1
102
RTVSPost2010Prop41ColorIndex
 90
       18
102
RTVSPost2010Prop41ColorRGB
 90
        0
102
RTVSPost2010PropOp41
 70
     1
102
RTVSPost2010Prop42
 90
       50
102
RTVSPost2010PropOp42
 70
     1
102
RTVSPost2010Prop43
 90
        3
102
RTVSPost2010PropOp43
 70
     1
102
RTVSPost2010Prop44ColorIndex
 90
        5
102
RTVSPost2010Prop44ColorRGB
 90
      255
102
RTVSPost2010PropOp44
 70
     1
102
RTVSPost2010Prop45
280
     0
102
RTVSPost2010PropOp45
 70
     1
102
RTVSPost2010Prop46
 90
       50
102
RTVSPost2010PropOp46
 70
     1
102
RTVSPost2010Prop47
 90
       50
102
RTVSPost2010PropOp47
 70
     1
102
RTVSPost2010Prop48
 90
       50
102
RTVSPost2010PropOp48
 70
     1
102
RTVSPost2010Prop49
280
     0
102
RTVSPost2010PropOp49
 70
     1
102
RTVSPost2010Prop50
 90
       50
102
RTVSPost2010PropOp50
 70
     1
102
RTVSPost2010Prop51ColorIndex
 90
      256
102
RTVSPost2010Prop51ColorRGB
 90
-16777216
102
RTVSPost2010PropOp51
 70
     0
102
RTVSPost2010Prop52
140
1.0
102
RTVSPost2010PropOp52
 70
     0
102
RTVSPost2010Prop53
 90
        2
102
RTVSPost2010PropOp53
 70
     1
102
RTVSPost2010Prop54
  1
strokes_ogs.tif
102
RTVSPost2010PropOp54
 70
     1
102
RTVSPost2010Prop55
280
     0
102
RTVSPost2010PropOp55
 70
     1
102
RTVSPost2010Prop56
140
1.0
102
RTVSPost2010PropOp56
 70
     1
102
RTVSPost2010Prop57
140
1.0
102
RTVSPost2010PropOp57
 70
     1
102
RTVSPropertyOp0
 70
     1
102
RTVSPropertyOp1
 70
     1
102
RTVSPropertyOp2
 70
     1
102
RTVSPropertyOp3
 70
     1
102
RTVSPropertyOp4
 70
     1
102
RTVSPropertyOp5
 70
     1
102
RTVSPropertyOp6
 70
     1
102
RTVSPropertyOp7
 70
     1
102
RTVSPropertyOp8
 70
     1
102
RTVSPropertyOp9
 70
     1
102
RTVSPropertyOp10
 70
     1
102
RTVSPropertyOp11
 70
     1
102
RTVSPropertyOp12
 70
     1
102
RTVSPropertyOp13
 70
     1
102
RTVSPropertyOp14
 70
     1
102
RTVSPropertyOp15
 70
     1
102
RTVSPropertyOp16
 70
     1
102
RTVSPropertyOp17
 70
     1
102
RTVSPropertyOp18
 70
     1
102
RTVSPropertyOp19
 70
     1
102
RTVSPropertyOp20
 70
     1
102
RTVSPropertyOp21
 70
     1
102
RTVSPropertyOp22
 70
     1
102
RTVSPropertyOp23
 70
     1
102
RTVSPropertyOp24
 70
     1
102
RTVSPropertyOp25
 70
     1
102
RTVSPropertyOp26
 70
     1
102
RTVSPropertyOp27
 70
     1
102
RTVSPropertyOp28
 70
     1
102
RTVSPropertyOp29
 70
     1
102
RTVSPropertyOp30
 70
     1
102
RTVSPropertyOp31
 70
     1
102
RTVSPropertyOp32
 70
     1
102
RTVSPropertyOp33
 70
     1
102
RTVSPropertyOp34
 70
     1
102
RTVSPropertyOp35
 70
     1
102
RTVSPropertyOp36
 70
     1
102
RTVSPropertyOp37
 70
     1
102
RTVSPropertyOp38
 70
     1
102
RTVSPropertyOp39
 70
     1
102
RTVSPropertyOp40
 70
     1
102
RTVSPropertyOp41
 70
     1
102
RTVSPropertyOp42
 70
     1
102
RTVSPropertyOp43
 70
     1
102
RTVSPropertyOp44
 70
     1
102
RTVSPropertyOp45
 70
     1
102
RTVSPropertyOp46
 70
     1
102
RTVSPropertyOp47
 70
     1
102
RTVSPropertyOp48
 70
     1
102
RTVSPropertyOp49
 70
     1
102
RTVSPropertyOp50
 70
     1
102
RTVSPropertyOp51
 70
     0
102
RTVSPropertyOp52
 70
     0
102
RTVSPropertyOp53
 70
     1
102
RTVSPropertyOp54
 70
     1
102
RTVSPropertyOp55
 70
     1
102
RTVSPropertyOp56
 70
     1
102
RTVSPropertyOp57
 70
     1
102
RTVSPropertyOp58
 70
     1
102
RTVSPropertyOp59
 70
     1
102
RTVSPropertyOp60
 70
     1
102
RTVSPropertyOp61
 70
     1
102
RTVSPropertyOp62
 70
     1
  0
XRECORD
  5
1E8F2
102
{ACAD_REACTORS
330
1E8F1
102
}
330
1E8F1
100
AcDbXrecord
280
     1
102
RTVSPost2010Prop28
280
     0
102
RTVSPost2010PropOp28
 70
     0
102
RTVSPost2010Prop29
280
     1
102
RTVSPost2010PropOp29
 70
     0
102
RTVSPost2010Prop30
280
     1
102
RTVSPost2010PropOp30
 70
     0
102
RTVSPost2010Prop31
280
     0
102
RTVSPost2010PropOp31
 70
     0
102
RTVSPost2010Prop32
280
     0
102
RTVSPost2010PropOp32
 70
     0
102
RTVSPost2010Prop33
280
     0
102
RTVSPost2010PropOp33
 70
     0
102
RTVSPost2010Prop34
280
     0
102
RTVSPost2010PropOp34
 70
     0
102
RTVSPost2010Prop35
280
     0
102
RTVSPost2010PropOp35
 70
     0
102
RTVSPost2010Prop36
280
     0
102
RTVSPost2010PropOp36
 70
     0
102
RTVSPost2010Prop37
 90
       50
102
RTVSPost2010PropOp37
 70
     0
102
RTVSPost2010Prop38
140
0.0
102
RTVSPost2010PropOp38
 70
     0
102
RTVSPost2010Prop39
140
1.0
102
RTVSPost2010PropOp39
 70
     0
102
RTVSPost2010Prop40
 90
        0
102
RTVSPost2010PropOp40
 70
     0
102
RTVSPost2010Prop41ColorIndex
 90
       18
102
RTVSPost2010Prop41ColorRGB
 90
        0
102
RTVSPost2010PropOp41
 70
     0
102
RTVSPost2010Prop42
 90
       50
102
RTVSPost2010PropOp42
 70
     0
102
RTVSPost2010Prop43
 90
        3
102
RTVSPost2010PropOp43
 70
     0
102
RTVSPost2010Prop44ColorIndex
 90
        5
102
RTVSPost2010Prop44ColorRGB
 90
      255
102
RTVSPost2010PropOp44
 70
     0
102
RTVSPost2010Prop45
280
     0
102
RTVSPost2010PropOp45
 70
     0
102
RTVSPost2010Prop46
 90
       50
102
RTVSPost2010PropOp46
 70
     0
102
RTVSPost2010Prop47
 90
       50
102
RTVSPost2010PropOp47
 70
     0
102
RTVSPost2010Prop48
 90
       50
102
RTVSPost2010PropOp48
 70
     0
102
RTVSPost2010Prop49
280
     0
102
RTVSPost2010PropOp49
 70
     0
102
RTVSPost2010Prop50
 90
       50
102
RTVSPost2010PropOp50
 70
     0
102
RTVSPost2010Prop51ColorIndex
 90
      256
102
RTVSPost2010Prop51ColorRGB
 90
-16777216
102
RTVSPost2010PropOp51
 70
     0
102
RTVSPost2010Prop52
140
1.0
102
RTVSPost2010PropOp52
 70
     0
102
RTVSPost2010Prop53
 90
        2
102
RTVSPost2010PropOp53
 70
     0
102
RTVSPost2010Prop54
  1
strokes_ogs.tif
102
RTVSPost2010PropOp54
 70
     0
102
RTVSPost2010Prop55
280
     0
102
RTVSPost2010PropOp55
 70
     0
102
RTVSPost2010Prop56
140
1.0
102
RTVSPost2010PropOp56
 70
     0
102
RTVSPost2010Prop57
140
1.0
102
RTVSPost2010PropOp57
 70
     0
102
RTVSPropertyOp0
 70
     0
102
RTVSPropertyOp1
 70
     0
102
RTVSPropertyOp2
 70
     0
102
RTVSPropertyOp3
 70
     0
102
RTVSPropertyOp4
 70
     0
102
RTVSPropertyOp5
 70
     0
102
RTVSPropertyOp6
 70
     0
102
RTVSPropertyOp7
 70
     0
102
RTVSPropertyOp8
 70
     0
102
RTVSPropertyOp9
 70
     0
102
RTVSPropertyOp10
 70
     0
102
RTVSPropertyOp11
 70
     0
102
RTVSPropertyOp12
 70
     0
102
RTVSPropertyOp13
 70
     0
102
RTVSPropertyOp14
 70
     2
102
RTVSPropertyOp15
 70
     0
102
RTVSPropertyOp16
 70
     0
102
RTVSPropertyOp17
 70
     0
102
RTVSPropertyOp18
 70
     0
102
RTVSPropertyOp19
 70
     0
102
RTVSPropertyOp20
 70
     0
102
RTVSPropertyOp21
 70
     0
102
RTVSPropertyOp22
 70
     0
102
RTVSPropertyOp23
 70
     0
102
RTVSPropertyOp24
 70
     0
102
RTVSPropertyOp25
 70
     0
102
RTVSPropertyOp26
 70
     0
102
RTVSPropertyOp27
 70
     0
102
RTVSPropertyOp28
 70
     0
102
RTVSPropertyOp29
 70
     0
102
RTVSPropertyOp30
 70
     0
102
RTVSPropertyOp31
 70
     0
102
RTVSPropertyOp32
 70
     0
102
RTVSPropertyOp33
 70
     0
102
RTVSPropertyOp34
 70
     0
102
RTVSPropertyOp35
 70
     0
102
RTVSPropertyOp36
 70
     0
102
RTVSPropertyOp37
 70
     0
102
RTVSPropertyOp38
 70
     0
102
RTVSPropertyOp39
 70
     0
102
RTVSPropertyOp40
 70
     0
102
RTVSPropertyOp41
 70
     0
102
RTVSPropertyOp42
 70
     0
102
RTVSPropertyOp43
 70
     0
102
RTVSPropertyOp44
 70
     0
102
RTVSPropertyOp45
 70
     0
102
RTVSPropertyOp46
 70
     0
102
RTVSPropertyOp47
 70
     0
102
RTVSPropertyOp48
 70
     0
102
RTVSPropertyOp49
 70
     0
102
RTVSPropertyOp50
 70
     0
102
RTVSPropertyOp51
 70
     0
102
RTVSPropertyOp52
 70
     0
102
RTVSPropertyOp53
 70
     0
102
RTVSPropertyOp54
 70
     0
102
RTVSPropertyOp55
 70
     0
102
RTVSPropertyOp56
 70
     0
102
RTVSPropertyOp57
 70
     0
102
RTVSPropertyOp58
 70
     1
102
RTVSPropertyOp59
 70
     1
102
RTVSPropertyOp60
 70
     1
102
RTVSPropertyOp61
 70
     1
102
RTVSPropertyOp62
 70
     1
  0
XRECORD
  5
1E8E0
102
{ACAD_REACTORS
330
1E8DF
102
}
330
1E8DF
100
AcDbXrecord
280
     1
102
RTVSPost2010Prop28
280
     0
102
RTVSPost2010PropOp28
 70
     1
102
RTVSPost2010Prop29
280
     1
102
RTVSPost2010PropOp29
 70
     1
102
RTVSPost2010Prop30
280
     1
102
RTVSPost2010PropOp30
 70
     1
102
RTVSPost2010Prop31
280
     0
102
RTVSPost2010PropOp31
 70
     1
102
RTVSPost2010Prop32
280
     0
102
RTVSPost2010PropOp32
 70
     1
102
RTVSPost2010Prop33
280
     0
102
RTVSPost2010PropOp33
 70
     1
102
RTVSPost2010Prop34
280
     0
102
RTVSPost2010PropOp34
 70
     1
102
RTVSPost2010Prop35
280
     0
102
RTVSPost2010PropOp35
 70
     1
102
RTVSPost2010Prop36
280
     0
102
RTVSPost2010PropOp36
 70
     1
102
RTVSPost2010Prop37
 90
       50
102
RTVSPost2010PropOp37
 70
     1
102
RTVSPost2010Prop38
140
0.0
102
RTVSPost2010PropOp38
 70
     1
102
RTVSPost2010Prop39
140
1.0
102
RTVSPost2010PropOp39
 70
     1
102
RTVSPost2010Prop40
 90
        0
102
RTVSPost2010PropOp40
 70
     1
102
RTVSPost2010Prop41ColorIndex
 90
       18
102
RTVSPost2010Prop41ColorRGB
 90
        0
102
RTVSPost2010PropOp41
 70
     1
102
RTVSPost2010Prop42
 90
       50
102
RTVSPost2010PropOp42
 70
     1
102
RTVSPost2010Prop43
 90
        3
102
RTVSPost2010PropOp43
 70
     1
102
RTVSPost2010Prop44ColorIndex
 90
        5
102
RTVSPost2010Prop44ColorRGB
 90
      255
102
RTVSPost2010PropOp44
 70
     1
102
RTVSPost2010Prop45
280
     0
102
RTVSPost2010PropOp45
 70
     1
102
RTVSPost2010Prop46
 90
       50
102
RTVSPost2010PropOp46
 70
     1
102
RTVSPost2010Prop47
 90
       50
102
RTVSPost2010PropOp47
 70
     1
102
RTVSPost2010Prop48
 90
       50
102
RTVSPost2010PropOp48
 70
     1
102
RTVSPost2010Prop49
280
     0
102
RTVSPost2010PropOp49
 70
     1
102
RTVSPost2010Prop50
 90
       50
102
RTVSPost2010PropOp50
 70
     1
102
RTVSPost2010Prop51ColorIndex
 90
      256
102
RTVSPost2010Prop51ColorRGB
 90
-16777216
102
RTVSPost2010PropOp51
 70
     0
102
RTVSPost2010Prop52
140
1.0
102
RTVSPost2010PropOp52
 70
     0
102
RTVSPost2010Prop53
 90
        2
102
RTVSPost2010PropOp53
 70
     1
102
RTVSPost2010Prop54
  1
strokes_ogs.tif
102
RTVSPost2010PropOp54
 70
     1
102
RTVSPost2010Prop55
280
     0
102
RTVSPost2010PropOp55
 70
     1
102
RTVSPost2010Prop56
140
1.0
102
RTVSPost2010PropOp56
 70
     1
102
RTVSPost2010Prop57
140
1.0
102
RTVSPost2010PropOp57
 70
     1
102
RTVSPropertyOp0
 70
     1
102
RTVSPropertyOp1
 70
     1
102
RTVSPropertyOp2
 70
     1
102
RTVSPropertyOp3
 70
     1
102
RTVSPropertyOp4
 70
     1
102
RTVSPropertyOp5
 70
     1
102
RTVSPropertyOp6
 70
     1
102
RTVSPropertyOp7
 70
     1
102
RTVSPropertyOp8
 70
     1
102
RTVSPropertyOp9
 70
     1
102
RTVSPropertyOp10
 70
     1
102
RTVSPropertyOp11
 70
     1
102
RTVSPropertyOp12
 70
     1
102
RTVSPropertyOp13
 70
     1
102
RTVSPropertyOp14
 70
     1
102
RTVSPropertyOp15
 70
     1
102
RTVSPropertyOp16
 70
     1
102
RTVSPropertyOp17
 70
     1
102
RTVSPropertyOp18
 70
     1
102
RTVSPropertyOp19
 70
     1
102
RTVSPropertyOp20
 70
     1
102
RTVSPropertyOp21
 70
     1
102
RTVSPropertyOp22
 70
     1
102
RTVSPropertyOp23
 70
     1
102
RTVSPropertyOp24
 70
     1
102
RTVSPropertyOp25
 70
     1
102
RTVSPropertyOp26
 70
     1
102
RTVSPropertyOp27
 70
     1
102
RTVSPropertyOp28
 70
     1
102
RTVSPropertyOp29
 70
     1
102
RTVSPropertyOp30
 70
     1
102
RTVSPropertyOp31
 70
     1
102
RTVSPropertyOp32
 70
     1
102
RTVSPropertyOp33
 70
     1
102
RTVSPropertyOp34
 70
     1
102
RTVSPropertyOp35
 70
     1
102
RTVSPropertyOp36
 70
     1
102
RTVSPropertyOp37
 70
     1
102
RTVSPropertyOp38
 70
     1
102
RTVSPropertyOp39
 70
     1
102
RTVSPropertyOp40
 70
     1
102
RTVSPropertyOp41
 70
     1
102
RTVSPropertyOp42
 70
     1
102
RTVSPropertyOp43
 70
     1
102
RTVSPropertyOp44
 70
     1
102
RTVSPropertyOp45
 70
     1
102
RTVSPropertyOp46
 70
     1
102
RTVSPropertyOp47
 70
     1
102
RTVSPropertyOp48
 70
     1
102
RTVSPropertyOp49
 70
     1
102
RTVSPropertyOp50
 70
     1
102
RTVSPropertyOp51
 70
     0
102
RTVSPropertyOp52
 70
     0
102
RTVSPropertyOp53
 70
     1
102
RTVSPropertyOp54
 70
     1
102
RTVSPropertyOp55
 70
     1
102
RTVSPropertyOp56
 70
     1
102
RTVSPropertyOp57
 70
     1
102
RTVSPropertyOp58
 70
     1
102
RTVSPropertyOp59
 70
     1
102
RTVSPropertyOp60
 70
     1
102
RTVSPropertyOp61
 70
     1
102
RTVSPropertyOp62
 70
     1
  0
XRECORD
  5
1E8C4
102
{ACAD_REACTORS
330
1E8C3
102
}
330
1E8C3
100
AcDbXrecord
280
     1
102
RTVSPost2010Prop28
280
     0
102
RTVSPost2010PropOp28
 70
     1
102
RTVSPost2010Prop29
280
     1
102
RTVSPost2010PropOp29
 70
     1
102
RTVSPost2010Prop30
280
     1
102
RTVSPost2010PropOp30
 70
     1
102
RTVSPost2010Prop31
280
     0
102
RTVSPost2010PropOp31
 70
     1
102
RTVSPost2010Prop32
280
     0
102
RTVSPost2010PropOp32
 70
     1
102
RTVSPost2010Prop33
280
     0
102
RTVSPost2010PropOp33
 70
     1
102
RTVSPost2010Prop34
280
     0
102
RTVSPost2010PropOp34
 70
     1
102
RTVSPost2010Prop35
280
     0
102
RTVSPost2010PropOp35
 70
     1
102
RTVSPost2010Prop36
280
     0
102
RTVSPost2010PropOp36
 70
     1
102
RTVSPost2010Prop37
 90
       50
102
RTVSPost2010PropOp37
 70
     1
102
RTVSPost2010Prop38
140
0.0
102
RTVSPost2010PropOp38
 70
     1
102
RTVSPost2010Prop39
140
1.0
102
RTVSPost2010PropOp39
 70
     1
102
RTVSPost2010Prop40
 90
        0
102
RTVSPost2010PropOp40
 70
     1
102
RTVSPost2010Prop41ColorIndex
 90
       18
102
RTVSPost2010Prop41ColorRGB
 90
        0
102
RTVSPost2010PropOp41
 70
     1
102
RTVSPost2010Prop42
 90
       50
102
RTVSPost2010PropOp42
 70
     1
102
RTVSPost2010Prop43
 90
        3
102
RTVSPost2010PropOp43
 70
     1
102
RTVSPost2010Prop44ColorIndex
 90
        5
102
RTVSPost2010Prop44ColorRGB
 90
      255
102
RTVSPost2010PropOp44
 70
     1
102
RTVSPost2010Prop45
280
     0
102
RTVSPost2010PropOp45
 70
     1
102
RTVSPost2010Prop46
 90
       50
102
RTVSPost2010PropOp46
 70
     1
102
RTVSPost2010Prop47
 90
       50
102
RTVSPost2010PropOp47
 70
     1
102
RTVSPost2010Prop48
 90
       50
102
RTVSPost2010PropOp48
 70
     1
102
RTVSPost2010Prop49
280
     0
102
RTVSPost2010PropOp49
 70
     1
102
RTVSPost2010Prop50
 90
       50
102
RTVSPost2010PropOp50
 70
     1
102
RTVSPost2010Prop51ColorIndex
 90
      256
102
RTVSPost2010Prop51ColorRGB
 90
-16777216
102
RTVSPost2010PropOp51
 70
     0
102
RTVSPost2010Prop52
140
1.0
102
RTVSPost2010PropOp52
 70
     0
102
RTVSPost2010Prop53
 90
        2
102
RTVSPost2010PropOp53
 70
     1
102
RTVSPost2010Prop54
  1
strokes_ogs.tif
102
RTVSPost2010PropOp54
 70
     1
102
RTVSPost2010Prop55
280
     0
102
RTVSPost2010PropOp55
 70
     1
102
RTVSPost2010Prop56
140
1.0
102
RTVSPost2010PropOp56
 70
     1
102
RTVSPost2010Prop57
140
1.0
102
RTVSPost2010PropOp57
 70
     1
102
RTVSPropertyOp0
 70
     1
102
RTVSPropertyOp1
 70
     1
102
RTVSPropertyOp2
 70
     1
102
RTVSPropertyOp3
 70
     1
102
RTVSPropertyOp4
 70
     1
102
RTVSPropertyOp5
 70
     1
102
RTVSPropertyOp6
 70
     1
102
RTVSPropertyOp7
 70
     1
102
RTVSPropertyOp8
 70
     1
102
RTVSPropertyOp9
 70
     1
102
RTVSPropertyOp10
 70
     1
102
RTVSPropertyOp11
 70
     1
102
RTVSPropertyOp12
 70
     1
102
RTVSPropertyOp13
 70
     1
102
RTVSPropertyOp14
 70
     1
102
RTVSPropertyOp15
 70
     1
102
RTVSPropertyOp16
 70
     1
102
RTVSPropertyOp17
 70
     1
102
RTVSPropertyOp18
 70
     1
102
RTVSPropertyOp19
 70
     1
102
RTVSPropertyOp20
 70
     1
102
RTVSPropertyOp21
 70
     1
102
RTVSPropertyOp22
 70
     1
102
RTVSPropertyOp23
 70
     1
102
RTVSPropertyOp24
 70
     1
102
RTVSPropertyOp25
 70
     1
102
RTVSPropertyOp26
 70
     1
102
RTVSPropertyOp27
 70
     1
102
RTVSPropertyOp28
 70
     1
102
RTVSPropertyOp29
 70
     1
102
RTVSPropertyOp30
 70
     1
102
RTVSPropertyOp31
 70
     1
102
RTVSPropertyOp32
 70
     1
102
RTVSPropertyOp33
 70
     1
102
RTVSPropertyOp34
 70
     1
102
RTVSPropertyOp35
 70
     1
102
RTVSPropertyOp36
 70
     1
102
RTVSPropertyOp37
 70
     1
102
RTVSPropertyOp38
 70
     1
102
RTVSPropertyOp39
 70
     1
102
RTVSPropertyOp40
 70
     1
102
RTVSPropertyOp41
 70
     1
102
RTVSPropertyOp42
 70
     1
102
RTVSPropertyOp43
 70
     1
102
RTVSPropertyOp44
 70
     1
102
RTVSPropertyOp45
 70
     1
102
RTVSPropertyOp46
 70
     1
102
RTVSPropertyOp47
 70
     1
102
RTVSPropertyOp48
 70
     1
102
RTVSPropertyOp49
 70
     1
102
RTVSPropertyOp50
 70
     1
102
RTVSPropertyOp51
 70
     0
102
RTVSPropertyOp52
 70
     0
102
RTVSPropertyOp53
 70
     1
102
RTVSPropertyOp54
 70
     1
102
RTVSPropertyOp55
 70
     1
102
RTVSPropertyOp56
 70
     1
102
RTVSPropertyOp57
 70
     1
102
RTVSPropertyOp58
 70
     1
102
RTVSPropertyOp59
 70
     1
102
RTVSPropertyOp60
 70
     1
102
RTVSPropertyOp61
 70
     1
102
RTVSPropertyOp62
 70
     1
  0
XRECORD
  5
1E8C6
102
{ACAD_REACTORS
330
1E8C5
102
}
330
1E8C5
100
AcDbXrecord
280
     1
102
RTVSPost2010Prop28
280
     0
102
RTVSPost2010PropOp28
 70
     1
102
RTVSPost2010Prop29
280
     1
102
RTVSPost2010PropOp29
 70
     1
102
RTVSPost2010Prop30
280
     1
102
RTVSPost2010PropOp30
 70
     1
102
RTVSPost2010Prop31
280
     0
102
RTVSPost2010PropOp31
 70
     1
102
RTVSPost2010Prop32
280
     0
102
RTVSPost2010PropOp32
 70
     1
102
RTVSPost2010Prop33
280
     0
102
RTVSPost2010PropOp33
 70
     1
102
RTVSPost2010Prop34
280
     0
102
RTVSPost2010PropOp34
 70
     1
102
RTVSPost2010Prop35
280
     0
102
RTVSPost2010PropOp35
 70
     1
102
RTVSPost2010Prop36
280
     0
102
RTVSPost2010PropOp36
 70
     1
102
RTVSPost2010Prop37
 90
       50
102
RTVSPost2010PropOp37
 70
     1
102
RTVSPost2010Prop38
140
0.0
102
RTVSPost2010PropOp38
 70
     1
102
RTVSPost2010Prop39
140
1.0
102
RTVSPost2010PropOp39
 70
     1
102
RTVSPost2010Prop40
 90
        0
102
RTVSPost2010PropOp40
 70
     1
102
RTVSPost2010Prop41ColorIndex
 90
       18
102
RTVSPost2010Prop41ColorRGB
 90
        0
102
RTVSPost2010PropOp41
 70
     1
102
RTVSPost2010Prop42
 90
       50
102
RTVSPost2010PropOp42
 70
     1
102
RTVSPost2010Prop43
 90
        3
102
RTVSPost2010PropOp43
 70
     1
102
RTVSPost2010Prop44ColorIndex
 90
        5
102
RTVSPost2010Prop44ColorRGB
 90
      255
102
RTVSPost2010PropOp44
 70
     1
102
RTVSPost2010Prop45
280
     0
102
RTVSPost2010PropOp45
 70
     1
102
RTVSPost2010Prop46
 90
       50
102
RTVSPost2010PropOp46
 70
     1
102
RTVSPost2010Prop47
 90
       50
102
RTVSPost2010PropOp47
 70
     1
102
RTVSPost2010Prop48
 90
       50
102
RTVSPost2010PropOp48
 70
     1
102
RTVSPost2010Prop49
280
     0
102
RTVSPost2010PropOp49
 70
     1
102
RTVSPost2010Prop50
 90
       50
102
RTVSPost2010PropOp50
 70
     1
102
RTVSPost2010Prop51ColorIndex
 90
      256
102
RTVSPost2010Prop51ColorRGB
 90
-16777216
102
RTVSPost2010PropOp51
 70
     0
102
RTVSPost2010Prop52
140
1.0
102
RTVSPost2010PropOp52
 70
     0
102
RTVSPost2010Prop53
 90
        2
102
RTVSPost2010PropOp53
 70
     1
102
RTVSPost2010Prop54
  1
strokes_ogs.tif
102
RTVSPost2010PropOp54
 70
     1
102
RTVSPost2010Prop55
280
     0
102
RTVSPost2010PropOp55
 70
     1
102
RTVSPost2010Prop56
140
1.0
102
RTVSPost2010PropOp56
 70
     1
102
RTVSPost2010Prop57
140
1.0
102
RTVSPost2010PropOp57
 70
     1
102
RTVSPropertyOp0
 70
     1
102
RTVSPropertyOp1
 70
     1
102
RTVSPropertyOp2
 70
     1
102
RTVSPropertyOp3
 70
     1
102
RTVSPropertyOp4
 70
     1
102
RTVSPropertyOp5
 70
     1
102
RTVSPropertyOp6
 70
     1
102
RTVSPropertyOp7
 70
     1
102
RTVSPropertyOp8
 70
     1
102
RTVSPropertyOp9
 70
     1
102
RTVSPropertyOp10
 70
     1
102
RTVSPropertyOp11
 70
     1
102
RTVSPropertyOp12
 70
     1
102
RTVSPropertyOp13
 70
     1
102
RTVSPropertyOp14
 70
     1
102
RTVSPropertyOp15
 70
     1
102
RTVSPropertyOp16
 70
     1
102
RTVSPropertyOp17
 70
     1
102
RTVSPropertyOp18
 70
     1
102
RTVSPropertyOp19
 70
     1
102
RTVSPropertyOp20
 70
     1
102
RTVSPropertyOp21
 70
     1
102
RTVSPropertyOp22
 70
     1
102
RTVSPropertyOp23
 70
     1
102
RTVSPropertyOp24
 70
     1
102
RTVSPropertyOp25
 70
     1
102
RTVSPropertyOp26
 70
     1
102
RTVSPropertyOp27
 70
     1
102
RTVSPropertyOp28
 70
     1
102
RTVSPropertyOp29
 70
     1
102
RTVSPropertyOp30
 70
     1
102
RTVSPropertyOp31
 70
     1
102
RTVSPropertyOp32
 70
     1
102
RTVSPropertyOp33
 70
     1
102
RTVSPropertyOp34
 70
     1
102
RTVSPropertyOp35
 70
     1
102
RTVSPropertyOp36
 70
     1
102
RTVSPropertyOp37
 70
     1
102
RTVSPropertyOp38
 70
     1
102
RTVSPropertyOp39
 70
     1
102
RTVSPropertyOp40
 70
     1
102
RTVSPropertyOp41
 70
     1
102
RTVSPropertyOp42
 70
     1
102
RTVSPropertyOp43
 70
     1
102
RTVSPropertyOp44
 70
     1
102
RTVSPropertyOp45
 70
     1
102
RTVSPropertyOp46
 70
     1
102
RTVSPropertyOp47
 70
     1
102
RTVSPropertyOp48
 70
     1
102
RTVSPropertyOp49
 70
     1
102
RTVSPropertyOp50
 70
     1
102
RTVSPropertyOp51
 70
     0
102
RTVSPropertyOp52
 70
     0
102
RTVSPropertyOp53
 70
     1
102
RTVSPropertyOp54
 70
     1
102
RTVSPropertyOp55
 70
     1
102
RTVSPropertyOp56
 70
     1
102
RTVSPropertyOp57
 70
     1
102
RTVSPropertyOp58
 70
     1
102
RTVSPropertyOp59
 70
     1
102
RTVSPropertyOp60
 70
     1
102
RTVSPropertyOp61
 70
     1
102
RTVSPropertyOp62
 70
     1
  0
XRECORD
  5
1E8C8
102
{ACAD_REACTORS
330
1E8C7
102
}
330
1E8C7
100
AcDbXrecord
280
     1
102
RTVSPost2010Prop28
280
     0
102
RTVSPost2010PropOp28
 70
     1
102
RTVSPost2010Prop29
280
     1
102
RTVSPost2010PropOp29
 70
     1
102
RTVSPost2010Prop30
280
     1
102
RTVSPost2010PropOp30
 70
     1
102
RTVSPost2010Prop31
280
     0
102
RTVSPost2010PropOp31
 70
     1
102
RTVSPost2010Prop32
280
     0
102
RTVSPost2010PropOp32
 70
     1
102
RTVSPost2010Prop33
280
     0
102
RTVSPost2010PropOp33
 70
     1
102
RTVSPost2010Prop34
280
     0
102
RTVSPost2010PropOp34
 70
     1
102
RTVSPost2010Prop35
280
     0
102
RTVSPost2010PropOp35
 70
     1
102
RTVSPost2010Prop36
280
     0
102
RTVSPost2010PropOp36
 70
     1
102
RTVSPost2010Prop37
 90
       50
102
RTVSPost2010PropOp37
 70
     1
102
RTVSPost2010Prop38
140
0.0
102
RTVSPost2010PropOp38
 70
     1
102
RTVSPost2010Prop39
140
1.0
102
RTVSPost2010PropOp39
 70
     1
102
RTVSPost2010Prop40
 90
        0
102
RTVSPost2010PropOp40
 70
     1
102
RTVSPost2010Prop41ColorIndex
 90
       18
102
RTVSPost2010Prop41ColorRGB
 90
        0
102
RTVSPost2010PropOp41
 70
     1
102
RTVSPost2010Prop42
 90
       50
102
RTVSPost2010PropOp42
 70
     1
102
RTVSPost2010Prop43
 90
        3
102
RTVSPost2010PropOp43
 70
     1
102
RTVSPost2010Prop44ColorIndex
 90
        5
102
RTVSPost2010Prop44ColorRGB
 90
      255
102
RTVSPost2010PropOp44
 70
     1
102
RTVSPost2010Prop45
280
     0
102
RTVSPost2010PropOp45
 70
     1
102
RTVSPost2010Prop46
 90
       50
102
RTVSPost2010PropOp46
 70
     1
102
RTVSPost2010Prop47
 90
       50
102
RTVSPost2010PropOp47
 70
     1
102
RTVSPost2010Prop48
 90
       50
102
RTVSPost2010PropOp48
 70
     1
102
RTVSPost2010Prop49
280
     0
102
RTVSPost2010PropOp49
 70
     1
102
RTVSPost2010Prop50
 90
       50
102
RTVSPost2010PropOp50
 70
     1
102
RTVSPost2010Prop51ColorIndex
 90
      256
102
RTVSPost2010Prop51ColorRGB
 90
-16777216
102
RTVSPost2010PropOp51
 70
     0
102
RTVSPost2010Prop52
140
1.0
102
RTVSPost2010PropOp52
 70
     0
102
RTVSPost2010Prop53
 90
        2
102
RTVSPost2010PropOp53
 70
     1
102
RTVSPost2010Prop54
  1
strokes_ogs.tif
102
RTVSPost2010PropOp54
 70
     1
102
RTVSPost2010Prop55
280
     0
102
RTVSPost2010PropOp55
 70
     1
102
RTVSPost2010Prop56
140
1.0
102
RTVSPost2010PropOp56
 70
     1
102
RTVSPost2010Prop57
140
1.0
102
RTVSPost2010PropOp57
 70
     1
102
RTVSPropertyOp0
 70
     1
102
RTVSPropertyOp1
 70
     1
102
RTVSPropertyOp2
 70
     1
102
RTVSPropertyOp3
 70
     1
102
RTVSPropertyOp4
 70
     1
102
RTVSPropertyOp5
 70
     1
102
RTVSPropertyOp6
 70
     1
102
RTVSPropertyOp7
 70
     1
102
RTVSPropertyOp8
 70
     1
102
RTVSPropertyOp9
 70
     1
102
RTVSPropertyOp10
 70
     1
102
RTVSPropertyOp11
 70
     1
102
RTVSPropertyOp12
 70
     1
102
RTVSPropertyOp13
 70
     1
102
RTVSPropertyOp14
 70
     1
102
RTVSPropertyOp15
 70
     1
102
RTVSPropertyOp16
 70
     1
102
RTVSPropertyOp17
 70
     1
102
RTVSPropertyOp18
 70
     1
102
RTVSPropertyOp19
 70
     1
102
RTVSPropertyOp20
 70
     1
102
RTVSPropertyOp21
 70
     1
102
RTVSPropertyOp22
 70
     1
102
RTVSPropertyOp23
 70
     1
102
RTVSPropertyOp24
 70
     1
102
RTVSPropertyOp25
 70
     1
102
RTVSPropertyOp26
 70
     1
102
RTVSPropertyOp27
 70
     1
102
RTVSPropertyOp28
 70
     1
102
RTVSPropertyOp29
 70
     1
102
RTVSPropertyOp30
 70
     1
102
RTVSPropertyOp31
 70
     1
102
RTVSPropertyOp32
 70
     1
102
RTVSPropertyOp33
 70
     1
102
RTVSPropertyOp34
 70
     1
102
RTVSPropertyOp35
 70
     1
102
RTVSPropertyOp36
 70
     1
102
RTVSPropertyOp37
 70
     1
102
RTVSPropertyOp38
 70
     1
102
RTVSPropertyOp39
 70
     1
102
RTVSPropertyOp40
 70
     1
102
RTVSPropertyOp41
 70
     1
102
RTVSPropertyOp42
 70
     1
102
RTVSPropertyOp43
 70
     1
102
RTVSPropertyOp44
 70
     1
102
RTVSPropertyOp45
 70
     1
102
RTVSPropertyOp46
 70
     1
102
RTVSPropertyOp47
 70
     1
102
RTVSPropertyOp48
 70
     1
102
RTVSPropertyOp49
 70
     1
102
RTVSPropertyOp50
 70
     1
102
RTVSPropertyOp51
 70
     0
102
RTVSPropertyOp52
 70
     0
102
RTVSPropertyOp53
 70
     1
102
RTVSPropertyOp54
 70
     1
102
RTVSPropertyOp55
 70
     1
102
RTVSPropertyOp56
 70
     1
102
RTVSPropertyOp57
 70
     1
102
RTVSPropertyOp58
 70
     1
102
RTVSPropertyOp59
 70
     1
102
RTVSPropertyOp60
 70
     1
102
RTVSPropertyOp61
 70
     1
102
RTVSPropertyOp62
 70
     1
  0
XRECORD
  5
1E8CA
102
{ACAD_REACTORS
330
1E8C9
102
}
330
1E8C9
100
AcDbXrecord
280
     1
102
RTVSPost2010Prop28
280
     0
102
RTVSPost2010PropOp28
 70
     1
102
RTVSPost2010Prop29
280
     1
102
RTVSPost2010PropOp29
 70
     1
102
RTVSPost2010Prop30
280
     1
102
RTVSPost2010PropOp30
 70
     1
102
RTVSPost2010Prop31
280
     0
102
RTVSPost2010PropOp31
 70
     1
102
RTVSPost2010Prop32
280
     0
102
RTVSPost2010PropOp32
 70
     1
102
RTVSPost2010Prop33
280
     0
102
RTVSPost2010PropOp33
 70
     1
102
RTVSPost2010Prop34
280
     0
102
RTVSPost2010PropOp34
 70
     1
102
RTVSPost2010Prop35
280
     0
102
RTVSPost2010PropOp35
 70
     1
102
RTVSPost2010Prop36
280
     0
102
RTVSPost2010PropOp36
 70
     1
102
RTVSPost2010Prop37
 90
       50
102
RTVSPost2010PropOp37
 70
     1
102
RTVSPost2010Prop38
140
0.0
102
RTVSPost2010PropOp38
 70
     1
102
RTVSPost2010Prop39
140
1.0
102
RTVSPost2010PropOp39
 70
     1
102
RTVSPost2010Prop40
 90
        0
102
RTVSPost2010PropOp40
 70
     1
102
RTVSPost2010Prop41ColorIndex
 90
       18
102
RTVSPost2010Prop41ColorRGB
 90
        0
102
RTVSPost2010PropOp41
 70
     1
102
RTVSPost2010Prop42
 90
       50
102
RTVSPost2010PropOp42
 70
     1
102
RTVSPost2010Prop43
 90
        3
102
RTVSPost2010PropOp43
 70
     1
102
RTVSPost2010Prop44ColorIndex
 90
        5
102
RTVSPost2010Prop44ColorRGB
 90
      255
102
RTVSPost2010PropOp44
 70
     1
102
RTVSPost2010Prop45
280
     0
102
RTVSPost2010PropOp45
 70
     1
102
RTVSPost2010Prop46
 90
       50
102
RTVSPost2010PropOp46
 70
     1
102
RTVSPost2010Prop47
 90
       50
102
RTVSPost2010PropOp47
 70
     1
102
RTVSPost2010Prop48
 90
       50
102
RTVSPost2010PropOp48
 70
     1
102
RTVSPost2010Prop49
280
     0
102
RTVSPost2010PropOp49
 70
     1
102
RTVSPost2010Prop50
 90
       50
102
RTVSPost2010PropOp50
 70
     1
102
RTVSPost2010Prop51ColorIndex
 90
      256
102
RTVSPost2010Prop51ColorRGB
 90
-16777216
102
RTVSPost2010PropOp51
 70
     0
102
RTVSPost2010Prop52
140
1.0
102
RTVSPost2010PropOp52
 70
     0
102
RTVSPost2010Prop53
 90
        2
102
RTVSPost2010PropOp53
 70
     1
102
RTVSPost2010Prop54
  1
strokes_ogs.tif
102
RTVSPost2010PropOp54
 70
     1
102
RTVSPost2010Prop55
280
     0
102
RTVSPost2010PropOp55
 70
     1
102
RTVSPost2010Prop56
140
1.0
102
RTVSPost2010PropOp56
 70
     1
102
RTVSPost2010Prop57
140
1.0
102
RTVSPost2010PropOp57
 70
     1
102
RTVSPropertyOp0
 70
     1
102
RTVSPropertyOp1
 70
     1
102
RTVSPropertyOp2
 70
     1
102
RTVSPropertyOp3
 70
     1
102
RTVSPropertyOp4
 70
     1
102
RTVSPropertyOp5
 70
     1
102
RTVSPropertyOp6
 70
     1
102
RTVSPropertyOp7
 70
     1
102
RTVSPropertyOp8
 70
     1
102
RTVSPropertyOp9
 70
     1
102
RTVSPropertyOp10
 70
     1
102
RTVSPropertyOp11
 70
     1
102
RTVSPropertyOp12
 70
     1
102
RTVSPropertyOp13
 70
     1
102
RTVSPropertyOp14
 70
     1
102
RTVSPropertyOp15
 70
     1
102
RTVSPropertyOp16
 70
     1
102
RTVSPropertyOp17
 70
     1
102
RTVSPropertyOp18
 70
     1
102
RTVSPropertyOp19
 70
     1
102
RTVSPropertyOp20
 70
     1
102
RTVSPropertyOp21
 70
     1
102
RTVSPropertyOp22
 70
     1
102
RTVSPropertyOp23
 70
     1
102
RTVSPropertyOp24
 70
     1
102
RTVSPropertyOp25
 70
     1
102
RTVSPropertyOp26
 70
     1
102
RTVSPropertyOp27
 70
     1
102
RTVSPropertyOp28
 70
     1
102
RTVSPropertyOp29
 70
     1
102
RTVSPropertyOp30
 70
     1
102
RTVSPropertyOp31
 70
     1
102
RTVSPropertyOp32
 70
     1
102
RTVSPropertyOp33
 70
     1
102
RTVSPropertyOp34
 70
     1
102
RTVSPropertyOp35
 70
     1
102
RTVSPropertyOp36
 70
     1
102
RTVSPropertyOp37
 70
     1
102
RTVSPropertyOp38
 70
     1
102
RTVSPropertyOp39
 70
     1
102
RTVSPropertyOp40
 70
     1
102
RTVSPropertyOp41
 70
     1
102
RTVSPropertyOp42
 70
     1
102
RTVSPropertyOp43
 70
     1
102
RTVSPropertyOp44
 70
     1
102
RTVSPropertyOp45
 70
     1
102
RTVSPropertyOp46
 70
     1
102
RTVSPropertyOp47
 70
     1
102
RTVSPropertyOp48
 70
     1
102
RTVSPropertyOp49
 70
     1
102
RTVSPropertyOp50
 70
     1
102
RTVSPropertyOp51
 70
     0
102
RTVSPropertyOp52
 70
     0
102
RTVSPropertyOp53
 70
     1
102
RTVSPropertyOp54
 70
     1
102
RTVSPropertyOp55
 70
     1
102
RTVSPropertyOp56
 70
     1
102
RTVSPropertyOp57
 70
     1
102
RTVSPropertyOp58
 70
     1
102
RTVSPropertyOp59
 70
     1
102
RTVSPropertyOp60
 70
     1
102
RTVSPropertyOp61
 70
     1
102
RTVSPropertyOp62
 70
     1
  0
XRECORD
  5
1E8D2
102
{ACAD_REACTORS
330
1E8D1
102
}
330
1E8D1
100
AcDbXrecord
280
     1
102
RTVSPost2010Prop28
280
     0
102
RTVSPost2010PropOp28
 70
     1
102
RTVSPost2010Prop29
280
     1
102
RTVSPost2010PropOp29
 70
     1
102
RTVSPost2010Prop30
280
     1
102
RTVSPost2010PropOp30
 70
     1
102
RTVSPost2010Prop31
280
     0
102
RTVSPost2010PropOp31
 70
     1
102
RTVSPost2010Prop32
280
     0
102
RTVSPost2010PropOp32
 70
     1
102
RTVSPost2010Prop33
280
     0
102
RTVSPost2010PropOp33
 70
     1
102
RTVSPost2010Prop34
280
     0
102
RTVSPost2010PropOp34
 70
     1
102
RTVSPost2010Prop35
280
     0
102
RTVSPost2010PropOp35
 70
     1
102
RTVSPost2010Prop36
280
     0
102
RTVSPost2010PropOp36
 70
     1
102
RTVSPost2010Prop37
 90
       50
102
RTVSPost2010PropOp37
 70
     1
102
RTVSPost2010Prop38
140
0.0
102
RTVSPost2010PropOp38
 70
     1
102
RTVSPost2010Prop39
140
1.0
102
RTVSPost2010PropOp39
 70
     1
102
RTVSPost2010Prop40
 90
        0
102
RTVSPost2010PropOp40
 70
     1
102
RTVSPost2010Prop41ColorIndex
 90
       18
102
RTVSPost2010Prop41ColorRGB
 90
        0
102
RTVSPost2010PropOp41
 70
     1
102
RTVSPost2010Prop42
 90
       50
102
RTVSPost2010PropOp42
 70
     1
102
RTVSPost2010Prop43
 90
        3
102
RTVSPost2010PropOp43
 70
     1
102
RTVSPost2010Prop44ColorIndex
 90
        5
102
RTVSPost2010Prop44ColorRGB
 90
      255
102
RTVSPost2010PropOp44
 70
     1
102
RTVSPost2010Prop45
280
     0
102
RTVSPost2010PropOp45
 70
     1
102
RTVSPost2010Prop46
 90
       50
102
RTVSPost2010PropOp46
 70
     1
102
RTVSPost2010Prop47
 90
       50
102
RTVSPost2010PropOp47
 70
     1
102
RTVSPost2010Prop48
 90
       50
102
RTVSPost2010PropOp48
 70
     1
102
RTVSPost2010Prop49
280
     0
102
RTVSPost2010PropOp49
 70
     1
102
RTVSPost2010Prop50
 90
       50
102
RTVSPost2010PropOp50
 70
     1
102
RTVSPost2010Prop51ColorIndex
 90
      256
102
RTVSPost2010Prop51ColorRGB
 90
-16777216
102
RTVSPost2010PropOp51
 70
     0
102
RTVSPost2010Prop52
140
1.0
102
RTVSPost2010PropOp52
 70
     0
102
RTVSPost2010Prop53
 90
        2
102
RTVSPost2010PropOp53
 70
     1
102
RTVSPost2010Prop54
  1
strokes_ogs.tif
102
RTVSPost2010PropOp54
 70
     1
102
RTVSPost2010Prop55
280
     0
102
RTVSPost2010PropOp55
 70
     1
102
RTVSPost2010Prop56
140
1.0
102
RTVSPost2010PropOp56
 70
     1
102
RTVSPost2010Prop57
140
1.0
102
RTVSPost2010PropOp57
 70
     1
102
RTVSPropertyOp0
 70
     1
102
RTVSPropertyOp1
 70
     1
102
RTVSPropertyOp2
 70
     1
102
RTVSPropertyOp3
 70
     1
102
RTVSPropertyOp4
 70
     1
102
RTVSPropertyOp5
 70
     1
102
RTVSPropertyOp6
 70
     1
102
RTVSPropertyOp7
 70
     1
102
RTVSPropertyOp8
 70
     1
102
RTVSPropertyOp9
 70
     1
102
RTVSPropertyOp10
 70
     1
102
RTVSPropertyOp11
 70
     1
102
RTVSPropertyOp12
 70
     1
102
RTVSPropertyOp13
 70
     1
102
RTVSPropertyOp14
 70
     1
102
RTVSPropertyOp15
 70
     1
102
RTVSPropertyOp16
 70
     1
102
RTVSPropertyOp17
 70
     1
102
RTVSPropertyOp18
 70
     1
102
RTVSPropertyOp19
 70
     1
102
RTVSPropertyOp20
 70
     1
102
RTVSPropertyOp21
 70
     1
102
RTVSPropertyOp22
 70
     1
102
RTVSPropertyOp23
 70
     1
102
RTVSPropertyOp24
 70
     1
102
RTVSPropertyOp25
 70
     1
102
RTVSPropertyOp26
 70
     1
102
RTVSPropertyOp27
 70
     1
102
RTVSPropertyOp28
 70
     1
102
RTVSPropertyOp29
 70
     1
102
RTVSPropertyOp30
 70
     1
102
RTVSPropertyOp31
 70
     1
102
RTVSPropertyOp32
 70
     1
102
RTVSPropertyOp33
 70
     1
102
RTVSPropertyOp34
 70
     1
102
RTVSPropertyOp35
 70
     1
102
RTVSPropertyOp36
 70
     1
102
RTVSPropertyOp37
 70
     1
102
RTVSPropertyOp38
 70
     1
102
RTVSPropertyOp39
 70
     1
102
RTVSPropertyOp40
 70
     1
102
RTVSPropertyOp41
 70
     1
102
RTVSPropertyOp42
 70
     1
102
RTVSPropertyOp43
 70
     1
102
RTVSPropertyOp44
 70
     1
102
RTVSPropertyOp45
 70
     1
102
RTVSPropertyOp46
 70
     1
102
RTVSPropertyOp47
 70
     1
102
RTVSPropertyOp48
 70
     1
102
RTVSPropertyOp49
 70
     1
102
RTVSPropertyOp50
 70
     1
102
RTVSPropertyOp51
 70
     0
102
RTVSPropertyOp52
 70
     0
102
RTVSPropertyOp53
 70
     1
102
RTVSPropertyOp54
 70
     1
102
RTVSPropertyOp55
 70
     1
102
RTVSPropertyOp56
 70
     1
102
RTVSPropertyOp57
 70
     1
102
RTVSPropertyOp58
 70
     1
102
RTVSPropertyOp59
 70
     1
102
RTVSPropertyOp60
 70
     1
102
RTVSPropertyOp61
 70
     1
102
RTVSPropertyOp62
 70
     1
  0
XRECORD
  5
1E8EE
102
{ACAD_REACTORS
330
1E8ED
102
}
330
1E8ED
100
AcDbXrecord
280
     1
102
RTVSPost2010Prop28
280
     0
102
RTVSPost2010PropOp28
 70
     0
102
RTVSPost2010Prop29
280
     1
102
RTVSPost2010PropOp29
 70
     0
102
RTVSPost2010Prop30
280
     1
102
RTVSPost2010PropOp30
 70
     0
102
RTVSPost2010Prop31
280
     0
102
RTVSPost2010PropOp31
 70
     0
102
RTVSPost2010Prop32
280
     0
102
RTVSPost2010PropOp32
 70
     0
102
RTVSPost2010Prop33
280
     0
102
RTVSPost2010PropOp33
 70
     0
102
RTVSPost2010Prop34
280
     0
102
RTVSPost2010PropOp34
 70
     0
102
RTVSPost2010Prop35
280
     0
102
RTVSPost2010PropOp35
 70
     0
102
RTVSPost2010Prop36
280
     0
102
RTVSPost2010PropOp36
 70
     0
102
RTVSPost2010Prop37
 90
       50
102
RTVSPost2010PropOp37
 70
     0
102
RTVSPost2010Prop38
140
0.0
102
RTVSPost2010PropOp38
 70
     0
102
RTVSPost2010Prop39
140
1.0
102
RTVSPost2010PropOp39
 70
     0
102
RTVSPost2010Prop40
 90
        0
102
RTVSPost2010PropOp40
 70
     0
102
RTVSPost2010Prop41ColorIndex
 90
       18
102
RTVSPost2010Prop41ColorRGB
 90
        0
102
RTVSPost2010PropOp41
 70
     0
102
RTVSPost2010Prop42
 90
       50
102
RTVSPost2010PropOp42
 70
     0
102
RTVSPost2010Prop43
 90
        3
102
RTVSPost2010PropOp43
 70
     0
102
RTVSPost2010Prop44ColorIndex
 90
        5
102
RTVSPost2010Prop44ColorRGB
 90
      255
102
RTVSPost2010PropOp44
 70
     0
102
RTVSPost2010Prop45
280
     0
102
RTVSPost2010PropOp45
 70
     0
102
RTVSPost2010Prop46
 90
       50
102
RTVSPost2010PropOp46
 70
     0
102
RTVSPost2010Prop47
 90
       50
102
RTVSPost2010PropOp47
 70
     0
102
RTVSPost2010Prop48
 90
       50
102
RTVSPost2010PropOp48
 70
     0
102
RTVSPost2010Prop49
280
     0
102
RTVSPost2010PropOp49
 70
     0
102
RTVSPost2010Prop50
 90
       50
102
RTVSPost2010PropOp50
 70
     0
102
RTVSPost2010Prop51ColorIndex
 90
      256
102
RTVSPost2010Prop51ColorRGB
 90
-16777216
102
RTVSPost2010PropOp51
 70
     0
102
RTVSPost2010Prop52
140
1.0
102
RTVSPost2010PropOp52
 70
     0
102
RTVSPost2010Prop53
 90
        2
102
RTVSPost2010PropOp53
 70
     0
102
RTVSPost2010Prop54
  1
strokes_ogs.tif
102
RTVSPost2010PropOp54
 70
     0
102
RTVSPost2010Prop55
280
     0
102
RTVSPost2010PropOp55
 70
     0
102
RTVSPost2010Prop56
140
1.0
102
RTVSPost2010PropOp56
 70
     0
102
RTVSPost2010Prop57
140
1.0
102
RTVSPost2010PropOp57
 70
     0
102
RTVSPropertyOp0
 70
     0
102
RTVSPropertyOp1
 70
     0
102
RTVSPropertyOp2
 70
     0
102
RTVSPropertyOp3
 70
     0
102
RTVSPropertyOp4
 70
     0
102
RTVSPropertyOp5
 70
     0
102
RTVSPropertyOp6
 70
     0
102
RTVSPropertyOp7
 70
     0
102
RTVSPropertyOp8
 70
     0
102
RTVSPropertyOp9
 70
     0
102
RTVSPropertyOp10
 70
     0
102
RTVSPropertyOp11
 70
     0
102
RTVSPropertyOp12
 70
     0
102
RTVSPropertyOp13
 70
     0
102
RTVSPropertyOp14
 70
     2
102
RTVSPropertyOp15
 70
     0
102
RTVSPropertyOp16
 70
     0
102
RTVSPropertyOp17
 70
     0
102
RTVSPropertyOp18
 70
     0
102
RTVSPropertyOp19
 70
     0
102
RTVSPropertyOp20
 70
     0
102
RTVSPropertyOp21
 70
     0
102
RTVSPropertyOp22
 70
     0
102
RTVSPropertyOp23
 70
     0
102
RTVSPropertyOp24
 70
     0
102
RTVSPropertyOp25
 70
     0
102
RTVSPropertyOp26
 70
     0
102
RTVSPropertyOp27
 70
     0
102
RTVSPropertyOp28
 70
     0
102
RTVSPropertyOp29
 70
     0
102
RTVSPropertyOp30
 70
     0
102
RTVSPropertyOp31
 70
     0
102
RTVSPropertyOp32
 70
     0
102
RTVSPropertyOp33
 70
     0
102
RTVSPropertyOp34
 70
     0
102
RTVSPropertyOp35
 70
     0
102
RTVSPropertyOp36
 70
     0
102
RTVSPropertyOp37
 70
     0
102
RTVSPropertyOp38
 70
     0
102
RTVSPropertyOp39
 70
     0
102
RTVSPropertyOp40
 70
     0
102
RTVSPropertyOp41
 70
     0
102
RTVSPropertyOp42
 70
     0
102
RTVSPropertyOp43
 70
     0
102
RTVSPropertyOp44
 70
     0
102
RTVSPropertyOp45
 70
     0
102
RTVSPropertyOp46
 70
     0
102
RTVSPropertyOp47
 70
     0
102
RTVSPropertyOp48
 70
     0
102
RTVSPropertyOp49
 70
     0
102
RTVSPropertyOp50
 70
     0
102
RTVSPropertyOp51
 70
     0
102
RTVSPropertyOp52
 70
     0
102
RTVSPropertyOp53
 70
     0
102
RTVSPropertyOp54
 70
     0
102
RTVSPropertyOp55
 70
     0
102
RTVSPropertyOp56
 70
     0
102
RTVSPropertyOp57
 70
     0
102
RTVSPropertyOp58
 70
     1
102
RTVSPropertyOp59
 70
     1
102
RTVSPropertyOp60
 70
     1
102
RTVSPropertyOp61
 70
     1
102
RTVSPropertyOp62
 70
     1
  0
XRECORD
  5
1E8DE
102
{ACAD_REACTORS
330
1E8DD
102
}
330
1E8DD
100
AcDbXrecord
280
     1
102
RTVSPost2010Prop28
280
     0
102
RTVSPost2010PropOp28
 70
     1
102
RTVSPost2010Prop29
280
     1
102
RTVSPost2010PropOp29
 70
     1
102
RTVSPost2010Prop30
280
     1
102
RTVSPost2010PropOp30
 70
     1
102
RTVSPost2010Prop31
280
     0
102
RTVSPost2010PropOp31
 70
     1
102
RTVSPost2010Prop32
280
     0
102
RTVSPost2010PropOp32
 70
     1
102
RTVSPost2010Prop33
280
     0
102
RTVSPost2010PropOp33
 70
     1
102
RTVSPost2010Prop34
280
     0
102
RTVSPost2010PropOp34
 70
     1
102
RTVSPost2010Prop35
280
     0
102
RTVSPost2010PropOp35
 70
     1
102
RTVSPost2010Prop36
280
     0
102
RTVSPost2010PropOp36
 70
     1
102
RTVSPost2010Prop37
 90
       50
102
RTVSPost2010PropOp37
 70
     1
102
RTVSPost2010Prop38
140
0.0
102
RTVSPost2010PropOp38
 70
     1
102
RTVSPost2010Prop39
140
1.0
102
RTVSPost2010PropOp39
 70
     1
102
RTVSPost2010Prop40
 90
        0
102
RTVSPost2010PropOp40
 70
     1
102
RTVSPost2010Prop41ColorIndex
 90
       18
102
RTVSPost2010Prop41ColorRGB
 90
        0
102
RTVSPost2010PropOp41
 70
     1
102
RTVSPost2010Prop42
 90
       50
102
RTVSPost2010PropOp42
 70
     1
102
RTVSPost2010Prop43
 90
        3
102
RTVSPost2010PropOp43
 70
     1
102
RTVSPost2010Prop44ColorIndex
 90
        5
102
RTVSPost2010Prop44ColorRGB
 90
      255
102
RTVSPost2010PropOp44
 70
     1
102
RTVSPost2010Prop45
280
     0
102
RTVSPost2010PropOp45
 70
     1
102
RTVSPost2010Prop46
 90
       50
102
RTVSPost2010PropOp46
 70
     1
102
RTVSPost2010Prop47
 90
       50
102
RTVSPost2010PropOp47
 70
     1
102
RTVSPost2010Prop48
 90
       50
102
RTVSPost2010PropOp48
 70
     1
102
RTVSPost2010Prop49
280
     0
102
RTVSPost2010PropOp49
 70
     1
102
RTVSPost2010Prop50
 90
       50
102
RTVSPost2010PropOp50
 70
     1
102
RTVSPost2010Prop51ColorIndex
 90
      256
102
RTVSPost2010Prop51ColorRGB
 90
-16777216
102
RTVSPost2010PropOp51
 70
     0
102
RTVSPost2010Prop52
140
1.0
102
RTVSPost2010PropOp52
 70
     0
102
RTVSPost2010Prop53
 90
        2
102
RTVSPost2010PropOp53
 70
     1
102
RTVSPost2010Prop54
  1
strokes_ogs.tif
102
RTVSPost2010PropOp54
 70
     1
102
RTVSPost2010Prop55
280
     0
102
RTVSPost2010PropOp55
 70
     1
102
RTVSPost2010Prop56
140
1.0
102
RTVSPost2010PropOp56
 70
     1
102
RTVSPost2010Prop57
140
1.0
102
RTVSPost2010PropOp57
 70
     1
102
RTVSPropertyOp0
 70
     1
102
RTVSPropertyOp1
 70
     1
102
RTVSPropertyOp2
 70
     1
102
RTVSPropertyOp3
 70
     1
102
RTVSPropertyOp4
 70
     1
102
RTVSPropertyOp5
 70
     1
102
RTVSPropertyOp6
 70
     1
102
RTVSPropertyOp7
 70
     1
102
RTVSPropertyOp8
 70
     1
102
RTVSPropertyOp9
 70
     1
102
RTVSPropertyOp10
 70
     1
102
RTVSPropertyOp11
 70
     1
102
RTVSPropertyOp12
 70
     1
102
RTVSPropertyOp13
 70
     1
102
RTVSPropertyOp14
 70
     1
102
RTVSPropertyOp15
 70
     1
102
RTVSPropertyOp16
 70
     1
102
RTVSPropertyOp17
 70
     1
102
RTVSPropertyOp18
 70
     1
102
RTVSPropertyOp19
 70
     1
102
RTVSPropertyOp20
 70
     1
102
RTVSPropertyOp21
 70
     1
102
RTVSPropertyOp22
 70
     1
102
RTVSPropertyOp23
 70
     1
102
RTVSPropertyOp24
 70
     1
102
RTVSPropertyOp25
 70
     1
102
RTVSPropertyOp26
 70
     1
102
RTVSPropertyOp27
 70
     1
102
RTVSPropertyOp28
 70
     1
102
RTVSPropertyOp29
 70
     1
102
RTVSPropertyOp30
 70
     1
102
RTVSPropertyOp31
 70
     1
102
RTVSPropertyOp32
 70
     1
102
RTVSPropertyOp33
 70
     1
102
RTVSPropertyOp34
 70
     1
102
RTVSPropertyOp35
 70
     1
102
RTVSPropertyOp36
 70
     1
102
RTVSPropertyOp37
 70
     1
102
RTVSPropertyOp38
 70
     1
102
RTVSPropertyOp39
 70
     1
102
RTVSPropertyOp40
 70
     1
102
RTVSPropertyOp41
 70
     1
102
RTVSPropertyOp42
 70
     1
102
RTVSPropertyOp43
 70
     1
102
RTVSPropertyOp44
 70
     1
102
RTVSPropertyOp45
 70
     1
102
RTVSPropertyOp46
 70
     1
102
RTVSPropertyOp47
 70
     1
102
RTVSPropertyOp48
 70
     1
102
RTVSPropertyOp49
 70
     1
102
RTVSPropertyOp50
 70
     1
102
RTVSPropertyOp51
 70
     0
102
RTVSPropertyOp52
 70
     0
102
RTVSPropertyOp53
 70
     1
102
RTVSPropertyOp54
 70
     1
102
RTVSPropertyOp55
 70
     1
102
RTVSPropertyOp56
 70
     1
102
RTVSPropertyOp57
 70
     1
102
RTVSPropertyOp58
 70
     1
102
RTVSPropertyOp59
 70
     1
102
RTVSPropertyOp60
 70
     1
102
RTVSPropertyOp61
 70
     1
102
RTVSPropertyOp62
 70
     1
  0
XRECORD
  5
1E8F0
102
{ACAD_REACTORS
330
1E8EF
102
}
330
1E8EF
100
AcDbXrecord
280
     1
102
RTVSPost2010Prop28
280
     0
102
RTVSPost2010PropOp28
 70
     0
102
RTVSPost2010Prop29
280
     1
102
RTVSPost2010PropOp29
 70
     0
102
RTVSPost2010Prop30
280
     1
102
RTVSPost2010PropOp30
 70
     0
102
RTVSPost2010Prop31
280
     0
102
RTVSPost2010PropOp31
 70
     0
102
RTVSPost2010Prop32
280
     0
102
RTVSPost2010PropOp32
 70
     0
102
RTVSPost2010Prop33
280
     0
102
RTVSPost2010PropOp33
 70
     0
102
RTVSPost2010Prop34
280
     0
102
RTVSPost2010PropOp34
 70
     0
102
RTVSPost2010Prop35
280
     0
102
RTVSPost2010PropOp35
 70
     0
102
RTVSPost2010Prop36
280
     0
102
RTVSPost2010PropOp36
 70
     0
102
RTVSPost2010Prop37
 90
       50
102
RTVSPost2010PropOp37
 70
     0
102
RTVSPost2010Prop38
140
0.0
102
RTVSPost2010PropOp38
 70
     0
102
RTVSPost2010Prop39
140
1.0
102
RTVSPost2010PropOp39
 70
     0
102
RTVSPost2010Prop40
 90
        0
102
RTVSPost2010PropOp40
 70
     0
102
RTVSPost2010Prop41ColorIndex
 90
       18
102
RTVSPost2010Prop41ColorRGB
 90
        0
102
RTVSPost2010PropOp41
 70
     0
102
RTVSPost2010Prop42
 90
       50
102
RTVSPost2010PropOp42
 70
     0
102
RTVSPost2010Prop43
 90
        3
102
RTVSPost2010PropOp43
 70
     0
102
RTVSPost2010Prop44ColorIndex
 90
        5
102
RTVSPost2010Prop44ColorRGB
 90
      255
102
RTVSPost2010PropOp44
 70
     0
102
RTVSPost2010Prop45
280
     0
102
RTVSPost2010PropOp45
 70
     0
102
RTVSPost2010Prop46
 90
       50
102
RTVSPost2010PropOp46
 70
     0
102
RTVSPost2010Prop47
 90
       50
102
RTVSPost2010PropOp47
 70
     0
102
RTVSPost2010Prop48
 90
       50
102
RTVSPost2010PropOp48
 70
     0
102
RTVSPost2010Prop49
280
     0
102
RTVSPost2010PropOp49
 70
     0
102
RTVSPost2010Prop50
 90
       50
102
RTVSPost2010PropOp50
 70
     0
102
RTVSPost2010Prop51ColorIndex
 90
      256
102
RTVSPost2010Prop51ColorRGB
 90
-16777216
102
RTVSPost2010PropOp51
 70
     0
102
RTVSPost2010Prop52
140
1.0
102
RTVSPost2010PropOp52
 70
     0
102
RTVSPost2010Prop53
 90
        2
102
RTVSPost2010PropOp53
 70
     0
102
RTVSPost2010Prop54
  1
strokes_ogs.tif
102
RTVSPost2010PropOp54
 70
     0
102
RTVSPost2010Prop55
280
     0
102
RTVSPost2010PropOp55
 70
     0
102
RTVSPost2010Prop56
140
1.0
102
RTVSPost2010PropOp56
 70
     0
102
RTVSPost2010Prop57
140
1.0
102
RTVSPost2010PropOp57
 70
     0
102
RTVSPropertyOp0
 70
     0
102
RTVSPropertyOp1
 70
     0
102
RTVSPropertyOp2
 70
     0
102
RTVSPropertyOp3
 70
     0
102
RTVSPropertyOp4
 70
     0
102
RTVSPropertyOp5
 70
     0
102
RTVSPropertyOp6
 70
     0
102
RTVSPropertyOp7
 70
     0
102
RTVSPropertyOp8
 70
     0
102
RTVSPropertyOp9
 70
     0
102
RTVSPropertyOp10
 70
     0
102
RTVSPropertyOp11
 70
     0
102
RTVSPropertyOp12
 70
     0
102
RTVSPropertyOp13
 70
     0
102
RTVSPropertyOp14
 70
     2
102
RTVSPropertyOp15
 70
     0
102
RTVSPropertyOp16
 70
     0
102
RTVSPropertyOp17
 70
     0
102
RTVSPropertyOp18
 70
     0
102
RTVSPropertyOp19
 70
     0
102
RTVSPropertyOp20
 70
     0
102
RTVSPropertyOp21
 70
     0
102
RTVSPropertyOp22
 70
     0
102
RTVSPropertyOp23
 70
     0
102
RTVSPropertyOp24
 70
     0
102
RTVSPropertyOp25
 70
     0
102
RTVSPropertyOp26
 70
     0
102
RTVSPropertyOp27
 70
     0
102
RTVSPropertyOp28
 70
     0
102
RTVSPropertyOp29
 70
     0
102
RTVSPropertyOp30
 70
     0
102
RTVSPropertyOp31
 70
     0
102
RTVSPropertyOp32
 70
     0
102
RTVSPropertyOp33
 70
     0
102
RTVSPropertyOp34
 70
     0
102
RTVSPropertyOp35
 70
     0
102
RTVSPropertyOp36
 70
     0
102
RTVSPropertyOp37
 70
     0
102
RTVSPropertyOp38
 70
     0
102
RTVSPropertyOp39
 70
     0
102
RTVSPropertyOp40
 70
     0
102
RTVSPropertyOp41
 70
     0
102
RTVSPropertyOp42
 70
     0
102
RTVSPropertyOp43
 70
     0
102
RTVSPropertyOp44
 70
     0
102
RTVSPropertyOp45
 70
     0
102
RTVSPropertyOp46
 70
     0
102
RTVSPropertyOp47
 70
     0
102
RTVSPropertyOp48
 70
     0
102
RTVSPropertyOp49
 70
     0
102
RTVSPropertyOp50
 70
     0
102
RTVSPropertyOp51
 70
     0
102
RTVSPropertyOp52
 70
     0
102
RTVSPropertyOp53
 70
     0
102
RTVSPropertyOp54
 70
     0
102
RTVSPropertyOp55
 70
     0
102
RTVSPropertyOp56
 70
     0
102
RTVSPropertyOp57
 70
     0
102
RTVSPropertyOp58
 70
     1
102
RTVSPropertyOp59
 70
     1
102
RTVSPropertyOp60
 70
     1
102
RTVSPropertyOp61
 70
     1
102
RTVSPropertyOp62
 70
     1
  0
XRECORD
  5
1E8D6
102
{ACAD_REACTORS
330
1E8D5
102
}
330
1E8D5
100
AcDbXrecord
280
     1
102
RTVSPost2010Prop28
280
     0
102
RTVSPost2010PropOp28
 70
     1
102
RTVSPost2010Prop29
280
     1
102
RTVSPost2010PropOp29
 70
     1
102
RTVSPost2010Prop30
280
     1
102
RTVSPost2010PropOp30
 70
     1
102
RTVSPost2010Prop31
280
     0
102
RTVSPost2010PropOp31
 70
     1
102
RTVSPost2010Prop32
280
     0
102
RTVSPost2010PropOp32
 70
     1
102
RTVSPost2010Prop33
280
     0
102
RTVSPost2010PropOp33
 70
     1
102
RTVSPost2010Prop34
280
     0
102
RTVSPost2010PropOp34
 70
     1
102
RTVSPost2010Prop35
280
     0
102
RTVSPost2010PropOp35
 70
     1
102
RTVSPost2010Prop36
280
     0
102
RTVSPost2010PropOp36
 70
     1
102
RTVSPost2010Prop37
 90
       50
102
RTVSPost2010PropOp37
 70
     1
102
RTVSPost2010Prop38
140
0.0
102
RTVSPost2010PropOp38
 70
     1
102
RTVSPost2010Prop39
140
1.0
102
RTVSPost2010PropOp39
 70
     1
102
RTVSPost2010Prop40
 90
        0
102
RTVSPost2010PropOp40
 70
     1
102
RTVSPost2010Prop41ColorIndex
 90
       18
102
RTVSPost2010Prop41ColorRGB
 90
        0
102
RTVSPost2010PropOp41
 70
     1
102
RTVSPost2010Prop42
 90
       50
102
RTVSPost2010PropOp42
 70
     1
102
RTVSPost2010Prop43
 90
        3
102
RTVSPost2010PropOp43
 70
     1
102
RTVSPost2010Prop44ColorIndex
 90
        5
102
RTVSPost2010Prop44ColorRGB
 90
      255
102
RTVSPost2010PropOp44
 70
     1
102
RTVSPost2010Prop45
280
     0
102
RTVSPost2010PropOp45
 70
     1
102
RTVSPost2010Prop46
 90
       50
102
RTVSPost2010PropOp46
 70
     1
102
RTVSPost2010Prop47
 90
       50
102
RTVSPost2010PropOp47
 70
     1
102
RTVSPost2010Prop48
 90
       50
102
RTVSPost2010PropOp48
 70
     1
102
RTVSPost2010Prop49
280
     0
102
RTVSPost2010PropOp49
 70
     1
102
RTVSPost2010Prop50
 90
       50
102
RTVSPost2010PropOp50
 70
     1
102
RTVSPost2010Prop51ColorIndex
 90
      256
102
RTVSPost2010Prop51ColorRGB
 90
-16777216
102
RTVSPost2010PropOp51
 70
     0
102
RTVSPost2010Prop52
140
1.0
102
RTVSPost2010PropOp52
 70
     0
102
RTVSPost2010Prop53
 90
        2
102
RTVSPost2010PropOp53
 70
     1
102
RTVSPost2010Prop54
  1
strokes_ogs.tif
102
RTVSPost2010PropOp54
 70
     1
102
RTVSPost2010Prop55
280
     0
102
RTVSPost2010PropOp55
 70
     1
102
RTVSPost2010Prop56
140
1.0
102
RTVSPost2010PropOp56
 70
     1
102
RTVSPost2010Prop57
140
1.0
102
RTVSPost2010PropOp57
 70
     1
102
RTVSPropertyOp0
 70
     1
102
RTVSPropertyOp1
 70
     1
102
RTVSPropertyOp2
 70
     1
102
RTVSPropertyOp3
 70
     1
102
RTVSPropertyOp4
 70
     1
102
RTVSPropertyOp5
 70
     1
102
RTVSPropertyOp6
 70
     1
102
RTVSPropertyOp7
 70
     1
102
RTVSPropertyOp8
 70
     1
102
RTVSPropertyOp9
 70
     1
102
RTVSPropertyOp10
 70
     1
102
RTVSPropertyOp11
 70
     1
102
RTVSPropertyOp12
 70
     1
102
RTVSPropertyOp13
 70
     1
102
RTVSPropertyOp14
 70
     1
102
RTVSPropertyOp15
 70
     1
102
RTVSPropertyOp16
 70
     1
102
RTVSPropertyOp17
 70
     1
102
RTVSPropertyOp18
 70
     1
102
RTVSPropertyOp19
 70
     1
102
RTVSPropertyOp20
 70
     1
102
RTVSPropertyOp21
 70
     1
102
RTVSPropertyOp22
 70
     1
102
RTVSPropertyOp23
 70
     1
102
RTVSPropertyOp24
 70
     1
102
RTVSPropertyOp25
 70
     1
102
RTVSPropertyOp26
 70
     1
102
RTVSPropertyOp27
 70
     1
102
RTVSPropertyOp28
 70
     1
102
RTVSPropertyOp29
 70
     1
102
RTVSPropertyOp30
 70
     1
102
RTVSPropertyOp31
 70
     1
102
RTVSPropertyOp32
 70
     1
102
RTVSPropertyOp33
 70
     1
102
RTVSPropertyOp34
 70
     1
102
RTVSPropertyOp35
 70
     1
102
RTVSPropertyOp36
 70
     1
102
RTVSPropertyOp37
 70
     1
102
RTVSPropertyOp38
 70
     1
102
RTVSPropertyOp39
 70
     1
102
RTVSPropertyOp40
 70
     1
102
RTVSPropertyOp41
 70
     1
102
RTVSPropertyOp42
 70
     1
102
RTVSPropertyOp43
 70
     1
102
RTVSPropertyOp44
 70
     1
102
RTVSPropertyOp45
 70
     1
102
RTVSPropertyOp46
 70
     1
102
RTVSPropertyOp47
 70
     1
102
RTVSPropertyOp48
 70
     1
102
RTVSPropertyOp49
 70
     1
102
RTVSPropertyOp50
 70
     1
102
RTVSPropertyOp51
 70
     0
102
RTVSPropertyOp52
 70
     0
102
RTVSPropertyOp53
 70
     1
102
RTVSPropertyOp54
 70
     1
102
RTVSPropertyOp55
 70
     1
102
RTVSPropertyOp56
 70
     1
102
RTVSPropertyOp57
 70
     1
102
RTVSPropertyOp58
 70
     1
102
RTVSPropertyOp59
 70
     1
102
RTVSPropertyOp60
 70
     1
102
RTVSPropertyOp61
 70
     1
102
RTVSPropertyOp62
 70
     1
  0
XRECORD
  5
1E8EC
102
{ACAD_REACTORS
330
1E8EB
102
}
330
1E8EB
100
AcDbXrecord
280
     1
102
RTVSPost2010Prop28
280
     0
102
RTVSPost2010PropOp28
 70
     1
102
RTVSPost2010Prop29
280
     1
102
RTVSPost2010PropOp29
 70
     1
102
RTVSPost2010Prop30
280
     1
102
RTVSPost2010PropOp30
 70
     1
102
RTVSPost2010Prop31
280
     0
102
RTVSPost2010PropOp31
 70
     1
102
RTVSPost2010Prop32
280
     0
102
RTVSPost2010PropOp32
 70
     1
102
RTVSPost2010Prop33
280
     0
102
RTVSPost2010PropOp33
 70
     1
102
RTVSPost2010Prop34
280
     0
102
RTVSPost2010PropOp34
 70
     1
102
RTVSPost2010Prop35
280
     0
102
RTVSPost2010PropOp35
 70
     1
102
RTVSPost2010Prop36
280
     0
102
RTVSPost2010PropOp36
 70
     1
102
RTVSPost2010Prop37
 90
       50
102
RTVSPost2010PropOp37
 70
     1
102
RTVSPost2010Prop38
140
0.0
102
RTVSPost2010PropOp38
 70
     1
102
RTVSPost2010Prop39
140
1.0
102
RTVSPost2010PropOp39
 70
     1
102
RTVSPost2010Prop40
 90
        0
102
RTVSPost2010PropOp40
 70
     1
102
RTVSPost2010Prop41ColorIndex
 90
       18
102
RTVSPost2010Prop41ColorRGB
 90
        0
102
RTVSPost2010PropOp41
 70
     1
102
RTVSPost2010Prop42
 90
       50
102
RTVSPost2010PropOp42
 70
     1
102
RTVSPost2010Prop43
 90
        3
102
RTVSPost2010PropOp43
 70
     1
102
RTVSPost2010Prop44ColorIndex
 90
        5
102
RTVSPost2010Prop44ColorRGB
 90
      255
102
RTVSPost2010PropOp44
 70
     1
102
RTVSPost2010Prop45
280
     0
102
RTVSPost2010PropOp45
 70
     1
102
RTVSPost2010Prop46
 90
       50
102
RTVSPost2010PropOp46
 70
     1
102
RTVSPost2010Prop47
 90
       50
102
RTVSPost2010PropOp47
 70
     1
102
RTVSPost2010Prop48
 90
       50
102
RTVSPost2010PropOp48
 70
     1
102
RTVSPost2010Prop49
280
     0
102
RTVSPost2010PropOp49
 70
     1
102
RTVSPost2010Prop50
 90
       50
102
RTVSPost2010PropOp50
 70
     1
102
RTVSPost2010Prop51ColorIndex
 90
      256
102
RTVSPost2010Prop51ColorRGB
 90
-16777216
102
RTVSPost2010PropOp51
 70
     0
102
RTVSPost2010Prop52
140
1.0
102
RTVSPost2010PropOp52
 70
     0
102
RTVSPost2010Prop53
 90
        2
102
RTVSPost2010PropOp53
 70
     1
102
RTVSPost2010Prop54
  1
strokes_ogs.tif
102
RTVSPost2010PropOp54
 70
     1
102
RTVSPost2010Prop55
280
     0
102
RTVSPost2010PropOp55
 70
     1
102
RTVSPost2010Prop56
140
1.0
102
RTVSPost2010PropOp56
 70
     1
102
RTVSPost2010Prop57
140
1.0
102
RTVSPost2010PropOp57
 70
     1
102
RTVSPropertyOp0
 70
     1
102
RTVSPropertyOp1
 70
     1
102
RTVSPropertyOp2
 70
     1
102
RTVSPropertyOp3
 70
     1
102
RTVSPropertyOp4
 70
     1
102
RTVSPropertyOp5
 70
     1
102
RTVSPropertyOp6
 70
     1
102
RTVSPropertyOp7
 70
     1
102
RTVSPropertyOp8
 70
     1
102
RTVSPropertyOp9
 70
     1
102
RTVSPropertyOp10
 70
     1
102
RTVSPropertyOp11
 70
     1
102
RTVSPropertyOp12
 70
     1
102
RTVSPropertyOp13
 70
     1
102
RTVSPropertyOp14
 70
     1
102
RTVSPropertyOp15
 70
     1
102
RTVSPropertyOp16
 70
     1
102
RTVSPropertyOp17
 70
     1
102
RTVSPropertyOp18
 70
     1
102
RTVSPropertyOp19
 70
     1
102
RTVSPropertyOp20
 70
     1
102
RTVSPropertyOp21
 70
     1
102
RTVSPropertyOp22
 70
     1
102
RTVSPropertyOp23
 70
     1
102
RTVSPropertyOp24
 70
     1
102
RTVSPropertyOp25
 70
     1
102
RTVSPropertyOp26
 70
     1
102
RTVSPropertyOp27
 70
     1
102
RTVSPropertyOp28
 70
     1
102
RTVSPropertyOp29
 70
     1
102
RTVSPropertyOp30
 70
     1
102
RTVSPropertyOp31
 70
     1
102
RTVSPropertyOp32
 70
     1
102
RTVSPropertyOp33
 70
     1
102
RTVSPropertyOp34
 70
     1
102
RTVSPropertyOp35
 70
     1
102
RTVSPropertyOp36
 70
     1
102
RTVSPropertyOp37
 70
     1
102
RTVSPropertyOp38
 70
     1
102
RTVSPropertyOp39
 70
     1
102
RTVSPropertyOp40
 70
     1
102
RTVSPropertyOp41
 70
     1
102
RTVSPropertyOp42
 70
     1
102
RTVSPropertyOp43
 70
     1
102
RTVSPropertyOp44
 70
     1
102
RTVSPropertyOp45
 70
     1
102
RTVSPropertyOp46
 70
     1
102
RTVSPropertyOp47
 70
     1
102
RTVSPropertyOp48
 70
     1
102
RTVSPropertyOp49
 70
     1
102
RTVSPropertyOp50
 70
     1
102
RTVSPropertyOp51
 70
     0
102
RTVSPropertyOp52
 70
     0
102
RTVSPropertyOp53
 70
     1
102
RTVSPropertyOp54
 70
     1
102
RTVSPropertyOp55
 70
     1
102
RTVSPropertyOp56
 70
     1
102
RTVSPropertyOp57
 70
     1
102
RTVSPropertyOp58
 70
     1
102
RTVSPropertyOp59
 70
     1
102
RTVSPropertyOp60
 70
     1
102
RTVSPropertyOp61
 70
     1
102
RTVSPropertyOp62
 70
     1
  0
XRECORD
  5
1E8EA
102
{ACAD_REACTORS
330
1E8E9
102
}
330
1E8E9
100
AcDbXrecord
280
     1
102
RTVSPost2010Prop28
280
     0
102
RTVSPost2010PropOp28
 70
     1
102
RTVSPost2010Prop29
280
     1
102
RTVSPost2010PropOp29
 70
     1
102
RTVSPost2010Prop30
280
     1
102
RTVSPost2010PropOp30
 70
     1
102
RTVSPost2010Prop31
280
     0
102
RTVSPost2010PropOp31
 70
     1
102
RTVSPost2010Prop32
280
     0
102
RTVSPost2010PropOp32
 70
     1
102
RTVSPost2010Prop33
280
     0
102
RTVSPost2010PropOp33
 70
     1
102
RTVSPost2010Prop34
280
     0
102
RTVSPost2010PropOp34
 70
     1
102
RTVSPost2010Prop35
280
     0
102
RTVSPost2010PropOp35
 70
     1
102
RTVSPost2010Prop36
280
     0
102
RTVSPost2010PropOp36
 70
     1
102
RTVSPost2010Prop37
 90
       50
102
RTVSPost2010PropOp37
 70
     1
102
RTVSPost2010Prop38
140
0.0
102
RTVSPost2010PropOp38
 70
     1
102
RTVSPost2010Prop39
140
1.0
102
RTVSPost2010PropOp39
 70
     1
102
RTVSPost2010Prop40
 90
        0
102
RTVSPost2010PropOp40
 70
     1
102
RTVSPost2010Prop41ColorIndex
 90
       18
102
RTVSPost2010Prop41ColorRGB
 90
        0
102
RTVSPost2010PropOp41
 70
     1
102
RTVSPost2010Prop42
 90
       50
102
RTVSPost2010PropOp42
 70
     1
102
RTVSPost2010Prop43
 90
        3
102
RTVSPost2010PropOp43
 70
     1
102
RTVSPost2010Prop44ColorIndex
 90
        5
102
RTVSPost2010Prop44ColorRGB
 90
      255
102
RTVSPost2010PropOp44
 70
     1
102
RTVSPost2010Prop45
280
     0
102
RTVSPost2010PropOp45
 70
     1
102
RTVSPost2010Prop46
 90
       50
102
RTVSPost2010PropOp46
 70
     1
102
RTVSPost2010Prop47
 90
       50
102
RTVSPost2010PropOp47
 70
     1
102
RTVSPost2010Prop48
 90
       50
102
RTVSPost2010PropOp48
 70
     1
102
RTVSPost2010Prop49
280
     0
102
RTVSPost2010PropOp49
 70
     1
102
RTVSPost2010Prop50
 90
       50
102
RTVSPost2010PropOp50
 70
     1
102
RTVSPost2010Prop51ColorIndex
 90
      256
102
RTVSPost2010Prop51ColorRGB
 90
-16777216
102
RTVSPost2010PropOp51
 70
     0
102
RTVSPost2010Prop52
140
1.0
102
RTVSPost2010PropOp52
 70
     0
102
RTVSPost2010Prop53
 90
        2
102
RTVSPost2010PropOp53
 70
     1
102
RTVSPost2010Prop54
  1
strokes_ogs.tif
102
RTVSPost2010PropOp54
 70
     1
102
RTVSPost2010Prop55
280
     0
102
RTVSPost2010PropOp55
 70
     1
102
RTVSPost2010Prop56
140
1.0
102
RTVSPost2010PropOp56
 70
     1
102
RTVSPost2010Prop57
140
1.0
102
RTVSPost2010PropOp57
 70
     1
102
RTVSPropertyOp0
 70
     1
102
RTVSPropertyOp1
 70
     1
102
RTVSPropertyOp2
 70
     1
102
RTVSPropertyOp3
 70
     1
102
RTVSPropertyOp4
 70
     1
102
RTVSPropertyOp5
 70
     1
102
RTVSPropertyOp6
 70
     1
102
RTVSPropertyOp7
 70
     1
102
RTVSPropertyOp8
 70
     1
102
RTVSPropertyOp9
 70
     1
102
RTVSPropertyOp10
 70
     1
102
RTVSPropertyOp11
 70
     1
102
RTVSPropertyOp12
 70
     1
102
RTVSPropertyOp13
 70
     1
102
RTVSPropertyOp14
 70
     1
102
RTVSPropertyOp15
 70
     1
102
RTVSPropertyOp16
 70
     1
102
RTVSPropertyOp17
 70
     1
102
RTVSPropertyOp18
 70
     1
102
RTVSPropertyOp19
 70
     1
102
RTVSPropertyOp20
 70
     1
102
RTVSPropertyOp21
 70
     1
102
RTVSPropertyOp22
 70
     1
102
RTVSPropertyOp23
 70
     1
102
RTVSPropertyOp24
 70
     1
102
RTVSPropertyOp25
 70
     1
102
RTVSPropertyOp26
 70
     1
102
RTVSPropertyOp27
 70
     1
102
RTVSPropertyOp28
 70
     1
102
RTVSPropertyOp29
 70
     1
102
RTVSPropertyOp30
 70
     1
102
RTVSPropertyOp31
 70
     1
102
RTVSPropertyOp32
 70
     1
102
RTVSPropertyOp33
 70
     1
102
RTVSPropertyOp34
 70
     1
102
RTVSPropertyOp35
 70
     1
102
RTVSPropertyOp36
 70
     1
102
RTVSPropertyOp37
 70
     1
102
RTVSPropertyOp38
 70
     1
102
RTVSPropertyOp39
 70
     1
102
RTVSPropertyOp40
 70
     1
102
RTVSPropertyOp41
 70
     1
102
RTVSPropertyOp42
 70
     1
102
RTVSPropertyOp43
 70
     1
102
RTVSPropertyOp44
 70
     1
102
RTVSPropertyOp45
 70
     1
102
RTVSPropertyOp46
 70
     1
102
RTVSPropertyOp47
 70
     1
102
RTVSPropertyOp48
 70
     1
102
RTVSPropertyOp49
 70
     1
102
RTVSPropertyOp50
 70
     1
102
RTVSPropertyOp51
 70
     0
102
RTVSPropertyOp52
 70
     0
102
RTVSPropertyOp53
 70
     1
102
RTVSPropertyOp54
 70
     1
102
RTVSPropertyOp55
 70
     1
102
RTVSPropertyOp56
 70
     1
102
RTVSPropertyOp57
 70
     1
102
RTVSPropertyOp58
 70
     1
102
RTVSPropertyOp59
 70
     1
102
RTVSPropertyOp60
 70
     1
102
RTVSPropertyOp61
 70
     1
102
RTVSPropertyOp62
 70
     1
  0
XRECORD
  5
1E8E4
102
{ACAD_REACTORS
330
1E8E3
102
}
330
1E8E3
100
AcDbXrecord
280
     1
102
RTVSPost2010Prop28
280
     0
102
RTVSPost2010PropOp28
 70
     1
102
RTVSPost2010Prop29
280
     1
102
RTVSPost2010PropOp29
 70
     1
102
RTVSPost2010Prop30
280
     1
102
RTVSPost2010PropOp30
 70
     1
102
RTVSPost2010Prop31
280
     0
102
RTVSPost2010PropOp31
 70
     1
102
RTVSPost2010Prop32
280
     0
102
RTVSPost2010PropOp32
 70
     1
102
RTVSPost2010Prop33
280
     0
102
RTVSPost2010PropOp33
 70
     1
102
RTVSPost2010Prop34
280
     0
102
RTVSPost2010PropOp34
 70
     1
102
RTVSPost2010Prop35
280
     0
102
RTVSPost2010PropOp35
 70
     1
102
RTVSPost2010Prop36
280
     0
102
RTVSPost2010PropOp36
 70
     1
102
RTVSPost2010Prop37
 90
       50
102
RTVSPost2010PropOp37
 70
     1
102
RTVSPost2010Prop38
140
0.0
102
RTVSPost2010PropOp38
 70
     1
102
RTVSPost2010Prop39
140
1.0
102
RTVSPost2010PropOp39
 70
     1
102
RTVSPost2010Prop40
 90
        0
102
RTVSPost2010PropOp40
 70
     1
102
RTVSPost2010Prop41ColorIndex
 90
       18
102
RTVSPost2010Prop41ColorRGB
 90
        0
102
RTVSPost2010PropOp41
 70
     1
102
RTVSPost2010Prop42
 90
       50
102
RTVSPost2010PropOp42
 70
     1
102
RTVSPost2010Prop43
 90
        3
102
RTVSPost2010PropOp43
 70
     1
102
RTVSPost2010Prop44ColorIndex
 90
        5
102
RTVSPost2010Prop44ColorRGB
 90
      255
102
RTVSPost2010PropOp44
 70
     1
102
RTVSPost2010Prop45
280
     0
102
RTVSPost2010PropOp45
 70
     1
102
RTVSPost2010Prop46
 90
       50
102
RTVSPost2010PropOp46
 70
     1
102
RTVSPost2010Prop47
 90
       50
102
RTVSPost2010PropOp47
 70
     1
102
RTVSPost2010Prop48
 90
       50
102
RTVSPost2010PropOp48
 70
     1
102
RTVSPost2010Prop49
280
     0
102
RTVSPost2010PropOp49
 70
     1
102
RTVSPost2010Prop50
 90
       50
102
RTVSPost2010PropOp50
 70
     1
102
RTVSPost2010Prop51ColorIndex
 90
      256
102
RTVSPost2010Prop51ColorRGB
 90
-16777216
102
RTVSPost2010PropOp51
 70
     0
102
RTVSPost2010Prop52
140
1.0
102
RTVSPost2010PropOp52
 70
     0
102
RTVSPost2010Prop53
 90
        2
102
RTVSPost2010PropOp53
 70
     1
102
RTVSPost2010Prop54
  1
strokes_ogs.tif
102
RTVSPost2010PropOp54
 70
     1
102
RTVSPost2010Prop55
280
     0
102
RTVSPost2010PropOp55
 70
     1
102
RTVSPost2010Prop56
140
1.0
102
RTVSPost2010PropOp56
 70
     1
102
RTVSPost2010Prop57
140
1.0
102
RTVSPost2010PropOp57
 70
     1
102
RTVSPropertyOp0
 70
     1
102
RTVSPropertyOp1
 70
     1
102
RTVSPropertyOp2
 70
     1
102
RTVSPropertyOp3
 70
     1
102
RTVSPropertyOp4
 70
     1
102
RTVSPropertyOp5
 70
     1
102
RTVSPropertyOp6
 70
     1
102
RTVSPropertyOp7
 70
     1
102
RTVSPropertyOp8
 70
     1
102
RTVSPropertyOp9
 70
     1
102
RTVSPropertyOp10
 70
     1
102
RTVSPropertyOp11
 70
     1
102
RTVSPropertyOp12
 70
     1
102
RTVSPropertyOp13
 70
     1
102
RTVSPropertyOp14
 70
     1
102
RTVSPropertyOp15
 70
     1
102
RTVSPropertyOp16
 70
     1
102
RTVSPropertyOp17
 70
     1
102
RTVSPropertyOp18
 70
     1
102
RTVSPropertyOp19
 70
     1
102
RTVSPropertyOp20
 70
     1
102
RTVSPropertyOp21
 70
     1
102
RTVSPropertyOp22
 70
     1
102
RTVSPropertyOp23
 70
     1
102
RTVSPropertyOp24
 70
     1
102
RTVSPropertyOp25
 70
     1
102
RTVSPropertyOp26
 70
     1
102
RTVSPropertyOp27
 70
     1
102
RTVSPropertyOp28
 70
     1
102
RTVSPropertyOp29
 70
     1
102
RTVSPropertyOp30
 70
     1
102
RTVSPropertyOp31
 70
     1
102
RTVSPropertyOp32
 70
     1
102
RTVSPropertyOp33
 70
     1
102
RTVSPropertyOp34
 70
     1
102
RTVSPropertyOp35
 70
     1
102
RTVSPropertyOp36
 70
     1
102
RTVSPropertyOp37
 70
     1
102
RTVSPropertyOp38
 70
     1
102
RTVSPropertyOp39
 70
     1
102
RTVSPropertyOp40
 70
     1
102
RTVSPropertyOp41
 70
     1
102
RTVSPropertyOp42
 70
     1
102
RTVSPropertyOp43
 70
     1
102
RTVSPropertyOp44
 70
     1
102
RTVSPropertyOp45
 70
     1
102
RTVSPropertyOp46
 70
     1
102
RTVSPropertyOp47
 70
     1
102
RTVSPropertyOp48
 70
     1
102
RTVSPropertyOp49
 70
     1
102
RTVSPropertyOp50
 70
     1
102
RTVSPropertyOp51
 70
     0
102
RTVSPropertyOp52
 70
     0
102
RTVSPropertyOp53
 70
     1
102
RTVSPropertyOp54
 70
     1
102
RTVSPropertyOp55
 70
     1
102
RTVSPropertyOp56
 70
     1
102
RTVSPropertyOp57
 70
     1
102
RTVSPropertyOp58
 70
     1
102
RTVSPropertyOp59
 70
     1
102
RTVSPropertyOp60
 70
     1
102
RTVSPropertyOp61
 70
     1
102
RTVSPropertyOp62
 70
     1
  0
XRECORD
  5
1E8E6
102
{ACAD_REACTORS
330
1E8E5
102
}
330
1E8E5
100
AcDbXrecord
280
     1
102
RTVSPost2010Prop28
280
     0
102
RTVSPost2010PropOp28
 70
     1
102
RTVSPost2010Prop29
280
     1
102
RTVSPost2010PropOp29
 70
     1
102
RTVSPost2010Prop30
280
     1
102
RTVSPost2010PropOp30
 70
     1
102
RTVSPost2010Prop31
280
     0
102
RTVSPost2010PropOp31
 70
     1
102
RTVSPost2010Prop32
280
     0
102
RTVSPost2010PropOp32
 70
     1
102
RTVSPost2010Prop33
280
     0
102
RTVSPost2010PropOp33
 70
     1
102
RTVSPost2010Prop34
280
     0
102
RTVSPost2010PropOp34
 70
     1
102
RTVSPost2010Prop35
280
     0
102
RTVSPost2010PropOp35
 70
     1
102
RTVSPost2010Prop36
280
     0
102
RTVSPost2010PropOp36
 70
     1
102
RTVSPost2010Prop37
 90
       50
102
RTVSPost2010PropOp37
 70
     1
102
RTVSPost2010Prop38
140
0.0
102
RTVSPost2010PropOp38
 70
     1
102
RTVSPost2010Prop39
140
1.0
102
RTVSPost2010PropOp39
 70
     1
102
RTVSPost2010Prop40
 90
        0
102
RTVSPost2010PropOp40
 70
     1
102
RTVSPost2010Prop41ColorIndex
 90
       18
102
RTVSPost2010Prop41ColorRGB
 90
        0
102
RTVSPost2010PropOp41
 70
     1
102
RTVSPost2010Prop42
 90
       50
102
RTVSPost2010PropOp42
 70
     1
102
RTVSPost2010Prop43
 90
        3
102
RTVSPost2010PropOp43
 70
     1
102
RTVSPost2010Prop44ColorIndex
 90
        5
102
RTVSPost2010Prop44ColorRGB
 90
      255
102
RTVSPost2010PropOp44
 70
     1
102
RTVSPost2010Prop45
280
     0
102
RTVSPost2010PropOp45
 70
     1
102
RTVSPost2010Prop46
 90
       50
102
RTVSPost2010PropOp46
 70
     1
102
RTVSPost2010Prop47
 90
       50
102
RTVSPost2010PropOp47
 70
     1
102
RTVSPost2010Prop48
 90
       50
102
RTVSPost2010PropOp48
 70
     1
102
RTVSPost2010Prop49
280
     0
102
RTVSPost2010PropOp49
 70
     1
102
RTVSPost2010Prop50
 90
       50
102
RTVSPost2010PropOp50
 70
     1
102
RTVSPost2010Prop51ColorIndex
 90
      256
102
RTVSPost2010Prop51ColorRGB
 90
-16777216
102
RTVSPost2010PropOp51
 70
     0
102
RTVSPost2010Prop52
140
1.0
102
RTVSPost2010PropOp52
 70
     0
102
RTVSPost2010Prop53
 90
        2
102
RTVSPost2010PropOp53
 70
     1
102
RTVSPost2010Prop54
  1
strokes_ogs.tif
102
RTVSPost2010PropOp54
 70
     1
102
RTVSPost2010Prop55
280
     0
102
RTVSPost2010PropOp55
 70
     1
102
RTVSPost2010Prop56
140
1.0
102
RTVSPost2010PropOp56
 70
     1
102
RTVSPost2010Prop57
140
1.0
102
RTVSPost2010PropOp57
 70
     1
102
RTVSPropertyOp0
 70
     1
102
RTVSPropertyOp1
 70
     1
102
RTVSPropertyOp2
 70
     1
102
RTVSPropertyOp3
 70
     1
102
RTVSPropertyOp4
 70
     1
102
RTVSPropertyOp5
 70
     1
102
RTVSPropertyOp6
 70
     1
102
RTVSPropertyOp7
 70
     1
102
RTVSPropertyOp8
 70
     1
102
RTVSPropertyOp9
 70
     1
102
RTVSPropertyOp10
 70
     1
102
RTVSPropertyOp11
 70
     1
102
RTVSPropertyOp12
 70
     1
102
RTVSPropertyOp13
 70
     1
102
RTVSPropertyOp14
 70
     1
102
RTVSPropertyOp15
 70
     1
102
RTVSPropertyOp16
 70
     1
102
RTVSPropertyOp17
 70
     1
102
RTVSPropertyOp18
 70
     1
102
RTVSPropertyOp19
 70
     1
102
RTVSPropertyOp20
 70
     1
102
RTVSPropertyOp21
 70
     1
102
RTVSPropertyOp22
 70
     1
102
RTVSPropertyOp23
 70
     1
102
RTVSPropertyOp24
 70
     1
102
RTVSPropertyOp25
 70
     1
102
RTVSPropertyOp26
 70
     1
102
RTVSPropertyOp27
 70
     1
102
RTVSPropertyOp28
 70
     1
102
RTVSPropertyOp29
 70
     1
102
RTVSPropertyOp30
 70
     1
102
RTVSPropertyOp31
 70
     1
102
RTVSPropertyOp32
 70
     1
102
RTVSPropertyOp33
 70
     1
102
RTVSPropertyOp34
 70
     1
102
RTVSPropertyOp35
 70
     1
102
RTVSPropertyOp36
 70
     1
102
RTVSPropertyOp37
 70
     1
102
RTVSPropertyOp38
 70
     1
102
RTVSPropertyOp39
 70
     1
102
RTVSPropertyOp40
 70
     1
102
RTVSPropertyOp41
 70
     1
102
RTVSPropertyOp42
 70
     1
102
RTVSPropertyOp43
 70
     1
102
RTVSPropertyOp44
 70
     1
102
RTVSPropertyOp45
 70
     1
102
RTVSPropertyOp46
 70
     1
102
RTVSPropertyOp47
 70
     1
102
RTVSPropertyOp48
 70
     1
102
RTVSPropertyOp49
 70
     1
102
RTVSPropertyOp50
 70
     1
102
RTVSPropertyOp51
 70
     0
102
RTVSPropertyOp52
 70
     0
102
RTVSPropertyOp53
 70
     1
102
RTVSPropertyOp54
 70
     1
102
RTVSPropertyOp55
 70
     1
102
RTVSPropertyOp56
 70
     1
102
RTVSPropertyOp57
 70
     1
102
RTVSPropertyOp58
 70
     1
102
RTVSPropertyOp59
 70
     1
102
RTVSPropertyOp60
 70
     1
102
RTVSPropertyOp61
 70
     1
102
RTVSPropertyOp62
 70
     1
  0
XRECORD
  5
1E8DC
102
{ACAD_REACTORS
330
1E8DB
102
}
330
1E8DB
100
AcDbXrecord
280
     1
102
RTVSPost2010Prop28
280
     0
102
RTVSPost2010PropOp28
 70
     1
102
RTVSPost2010Prop29
280
     1
102
RTVSPost2010PropOp29
 70
     1
102
RTVSPost2010Prop30
280
     1
102
RTVSPost2010PropOp30
 70
     1
102
RTVSPost2010Prop31
280
     0
102
RTVSPost2010PropOp31
 70
     1
102
RTVSPost2010Prop32
280
     0
102
RTVSPost2010PropOp32
 70
     1
102
RTVSPost2010Prop33
280
     0
102
RTVSPost2010PropOp33
 70
     1
102
RTVSPost2010Prop34
280
     0
102
RTVSPost2010PropOp34
 70
     1
102
RTVSPost2010Prop35
280
     0
102
RTVSPost2010PropOp35
 70
     1
102
RTVSPost2010Prop36
280
     0
102
RTVSPost2010PropOp36
 70
     1
102
RTVSPost2010Prop37
 90
       50
102
RTVSPost2010PropOp37
 70
     1
102
RTVSPost2010Prop38
140
0.0
102
RTVSPost2010PropOp38
 70
     1
102
RTVSPost2010Prop39
140
1.0
102
RTVSPost2010PropOp39
 70
     1
102
RTVSPost2010Prop40
 90
        0
102
RTVSPost2010PropOp40
 70
     1
102
RTVSPost2010Prop41ColorIndex
 90
       18
102
RTVSPost2010Prop41ColorRGB
 90
        0
102
RTVSPost2010PropOp41
 70
     1
102
RTVSPost2010Prop42
 90
       50
102
RTVSPost2010PropOp42
 70
     1
102
RTVSPost2010Prop43
 90
        3
102
RTVSPost2010PropOp43
 70
     1
102
RTVSPost2010Prop44ColorIndex
 90
        5
102
RTVSPost2010Prop44ColorRGB
 90
      255
102
RTVSPost2010PropOp44
 70
     1
102
RTVSPost2010Prop45
280
     0
102
RTVSPost2010PropOp45
 70
     1
102
RTVSPost2010Prop46
 90
       50
102
RTVSPost2010PropOp46
 70
     1
102
RTVSPost2010Prop47
 90
       50
102
RTVSPost2010PropOp47
 70
     1
102
RTVSPost2010Prop48
 90
       50
102
RTVSPost2010PropOp48
 70
     1
102
RTVSPost2010Prop49
280
     0
102
RTVSPost2010PropOp49
 70
     1
102
RTVSPost2010Prop50
 90
       50
102
RTVSPost2010PropOp50
 70
     1
102
RTVSPost2010Prop51ColorIndex
 90
      256
102
RTVSPost2010Prop51ColorRGB
 90
-16777216
102
RTVSPost2010PropOp51
 70
     0
102
RTVSPost2010Prop52
140
1.0
102
RTVSPost2010PropOp52
 70
     0
102
RTVSPost2010Prop53
 90
        2
102
RTVSPost2010PropOp53
 70
     1
102
RTVSPost2010Prop54
  1
strokes_ogs.tif
102
RTVSPost2010PropOp54
 70
     1
102
RTVSPost2010Prop55
280
     0
102
RTVSPost2010PropOp55
 70
     1
102
RTVSPost2010Prop56
140
1.0
102
RTVSPost2010PropOp56
 70
     1
102
RTVSPost2010Prop57
140
1.0
102
RTVSPost2010PropOp57
 70
     1
102
RTVSPropertyOp0
 70
     1
102
RTVSPropertyOp1
 70
     1
102
RTVSPropertyOp2
 70
     1
102
RTVSPropertyOp3
 70
     1
102
RTVSPropertyOp4
 70
     1
102
RTVSPropertyOp5
 70
     1
102
RTVSPropertyOp6
 70
     1
102
RTVSPropertyOp7
 70
     1
102
RTVSPropertyOp8
 70
     1
102
RTVSPropertyOp9
 70
     1
102
RTVSPropertyOp10
 70
     1
102
RTVSPropertyOp11
 70
     1
102
RTVSPropertyOp12
 70
     1
102
RTVSPropertyOp13
 70
     1
102
RTVSPropertyOp14
 70
     1
102
RTVSPropertyOp15
 70
     1
102
RTVSPropertyOp16
 70
     1
102
RTVSPropertyOp17
 70
     1
102
RTVSPropertyOp18
 70
     1
102
RTVSPropertyOp19
 70
     1
102
RTVSPropertyOp20
 70
     1
102
RTVSPropertyOp21
 70
     1
102
RTVSPropertyOp22
 70
     1
102
RTVSPropertyOp23
 70
     1
102
RTVSPropertyOp24
 70
     1
102
RTVSPropertyOp25
 70
     1
102
RTVSPropertyOp26
 70
     1
102
RTVSPropertyOp27
 70
     1
102
RTVSPropertyOp28
 70
     1
102
RTVSPropertyOp29
 70
     1
102
RTVSPropertyOp30
 70
     1
102
RTVSPropertyOp31
 70
     1
102
RTVSPropertyOp32
 70
     1
102
RTVSPropertyOp33
 70
     1
102
RTVSPropertyOp34
 70
     1
102
RTVSPropertyOp35
 70
     1
102
RTVSPropertyOp36
 70
     1
102
RTVSPropertyOp37
 70
     1
102
RTVSPropertyOp38
 70
     1
102
RTVSPropertyOp39
 70
     1
102
RTVSPropertyOp40
 70
     1
102
RTVSPropertyOp41
 70
     1
102
RTVSPropertyOp42
 70
     1
102
RTVSPropertyOp43
 70
     1
102
RTVSPropertyOp44
 70
     1
102
RTVSPropertyOp45
 70
     1
102
RTVSPropertyOp46
 70
     1
102
RTVSPropertyOp47
 70
     1
102
RTVSPropertyOp48
 70
     1
102
RTVSPropertyOp49
 70
     1
102
RTVSPropertyOp50
 70
     1
102
RTVSPropertyOp51
 70
     0
102
RTVSPropertyOp52
 70
     0
102
RTVSPropertyOp53
 70
     1
102
RTVSPropertyOp54
 70
     1
102
RTVSPropertyOp55
 70
     1
102
RTVSPropertyOp56
 70
     1
102
RTVSPropertyOp57
 70
     1
102
RTVSPropertyOp58
 70
     1
102
RTVSPropertyOp59
 70
     1
102
RTVSPropertyOp60
 70
     1
102
RTVSPropertyOp61
 70
     1
102
RTVSPropertyOp62
 70
     1
  0
XRECORD
  5
1E8D0
102
{ACAD_REACTORS
330
1E8CF
102
}
330
1E8CF
100
AcDbXrecord
280
     1
102
RTVSPost2010Prop28
280
     0
102
RTVSPost2010PropOp28
 70
     1
102
RTVSPost2010Prop29
280
     1
102
RTVSPost2010PropOp29
 70
     1
102
RTVSPost2010Prop30
280
     1
102
RTVSPost2010PropOp30
 70
     1
102
RTVSPost2010Prop31
280
     0
102
RTVSPost2010PropOp31
 70
     1
102
RTVSPost2010Prop32
280
     0
102
RTVSPost2010PropOp32
 70
     1
102
RTVSPost2010Prop33
280
     0
102
RTVSPost2010PropOp33
 70
     1
102
RTVSPost2010Prop34
280
     0
102
RTVSPost2010PropOp34
 70
     1
102
RTVSPost2010Prop35
280
     0
102
RTVSPost2010PropOp35
 70
     1
102
RTVSPost2010Prop36
280
     0
102
RTVSPost2010PropOp36
 70
     1
102
RTVSPost2010Prop37
 90
       50
102
RTVSPost2010PropOp37
 70
     1
102
RTVSPost2010Prop38
140
0.0
102
RTVSPost2010PropOp38
 70
     1
102
RTVSPost2010Prop39
140
1.0
102
RTVSPost2010PropOp39
 70
     1
102
RTVSPost2010Prop40
 90
        0
102
RTVSPost2010PropOp40
 70
     1
102
RTVSPost2010Prop41ColorIndex
 90
       18
102
RTVSPost2010Prop41ColorRGB
 90
        0
102
RTVSPost2010PropOp41
 70
     1
102
RTVSPost2010Prop42
 90
       50
102
RTVSPost2010PropOp42
 70
     1
102
RTVSPost2010Prop43
 90
        3
102
RTVSPost2010PropOp43
 70
     1
102
RTVSPost2010Prop44ColorIndex
 90
        5
102
RTVSPost2010Prop44ColorRGB
 90
      255
102
RTVSPost2010PropOp44
 70
     1
102
RTVSPost2010Prop45
280
     0
102
RTVSPost2010PropOp45
 70
     1
102
RTVSPost2010Prop46
 90
       50
102
RTVSPost2010PropOp46
 70
     1
102
RTVSPost2010Prop47
 90
       50
102
RTVSPost2010PropOp47
 70
     1
102
RTVSPost2010Prop48
 90
       50
102
RTVSPost2010PropOp48
 70
     1
102
RTVSPost2010Prop49
280
     0
102
RTVSPost2010PropOp49
 70
     1
102
RTVSPost2010Prop50
 90
       50
102
RTVSPost2010PropOp50
 70
     1
102
RTVSPost2010Prop51ColorIndex
 90
      256
102
RTVSPost2010Prop51ColorRGB
 90
-16777216
102
RTVSPost2010PropOp51
 70
     0
102
RTVSPost2010Prop52
140
1.0
102
RTVSPost2010PropOp52
 70
     0
102
RTVSPost2010Prop53
 90
        2
102
RTVSPost2010PropOp53
 70
     1
102
RTVSPost2010Prop54
  1
strokes_ogs.tif
102
RTVSPost2010PropOp54
 70
     1
102
RTVSPost2010Prop55
280
     0
102
RTVSPost2010PropOp55
 70
     1
102
RTVSPost2010Prop56
140
1.0
102
RTVSPost2010PropOp56
 70
     1
102
RTVSPost2010Prop57
140
1.0
102
RTVSPost2010PropOp57
 70
     1
102
RTVSPropertyOp0
 70
     1
102
RTVSPropertyOp1
 70
     1
102
RTVSPropertyOp2
 70
     1
102
RTVSPropertyOp3
 70
     1
102
RTVSPropertyOp4
 70
     1
102
RTVSPropertyOp5
 70
     1
102
RTVSPropertyOp6
 70
     1
102
RTVSPropertyOp7
 70
     1
102
RTVSPropertyOp8
 70
     1
102
RTVSPropertyOp9
 70
     1
102
RTVSPropertyOp10
 70
     1
102
RTVSPropertyOp11
 70
     1
102
RTVSPropertyOp12
 70
     1
102
RTVSPropertyOp13
 70
     1
102
RTVSPropertyOp14
 70
     1
102
RTVSPropertyOp15
 70
     1
102
RTVSPropertyOp16
 70
     1
102
RTVSPropertyOp17
 70
     1
102
RTVSPropertyOp18
 70
     1
102
RTVSPropertyOp19
 70
     1
102
RTVSPropertyOp20
 70
     1
102
RTVSPropertyOp21
 70
     1
102
RTVSPropertyOp22
 70
     1
102
RTVSPropertyOp23
 70
     1
102
RTVSPropertyOp24
 70
     1
102
RTVSPropertyOp25
 70
     1
102
RTVSPropertyOp26
 70
     1
102
RTVSPropertyOp27
 70
     1
102
RTVSPropertyOp28
 70
     1
102
RTVSPropertyOp29
 70
     1
102
RTVSPropertyOp30
 70
     1
102
RTVSPropertyOp31
 70
     1
102
RTVSPropertyOp32
 70
     1
102
RTVSPropertyOp33
 70
     1
102
RTVSPropertyOp34
 70
     1
102
RTVSPropertyOp35
 70
     1
102
RTVSPropertyOp36
 70
     1
102
RTVSPropertyOp37
 70
     1
102
RTVSPropertyOp38
 70
     1
102
RTVSPropertyOp39
 70
     1
102
RTVSPropertyOp40
 70
     1
102
RTVSPropertyOp41
 70
     1
102
RTVSPropertyOp42
 70
     1
102
RTVSPropertyOp43
 70
     1
102
RTVSPropertyOp44
 70
     1
102
RTVSPropertyOp45
 70
     1
102
RTVSPropertyOp46
 70
     1
102
RTVSPropertyOp47
 70
     1
102
RTVSPropertyOp48
 70
     1
102
RTVSPropertyOp49
 70
     1
102
RTVSPropertyOp50
 70
     1
102
RTVSPropertyOp51
 70
     0
102
RTVSPropertyOp52
 70
     0
102
RTVSPropertyOp53
 70
     1
102
RTVSPropertyOp54
 70
     1
102
RTVSPropertyOp55
 70
     1
102
RTVSPropertyOp56
 70
     1
102
RTVSPropertyOp57
 70
     1
102
RTVSPropertyOp58
 70
     1
102
RTVSPropertyOp59
 70
     1
102
RTVSPropertyOp60
 70
     1
102
RTVSPropertyOp61
 70
     1
102
RTVSPropertyOp62
 70
     1
  0
XRECORD
  5
1E8E8
102
{ACAD_REACTORS
330
1E8E7
102
}
330
1E8E7
100
AcDbXrecord
280
     1
102
RTVSPost2010Prop28
280
     0
102
RTVSPost2010PropOp28
 70
     1
102
RTVSPost2010Prop29
280
     1
102
RTVSPost2010PropOp29
 70
     1
102
RTVSPost2010Prop30
280
     1
102
RTVSPost2010PropOp30
 70
     1
102
RTVSPost2010Prop31
280
     0
102
RTVSPost2010PropOp31
 70
     1
102
RTVSPost2010Prop32
280
     0
102
RTVSPost2010PropOp32
 70
     1
102
RTVSPost2010Prop33
280
     0
102
RTVSPost2010PropOp33
 70
     1
102
RTVSPost2010Prop34
280
     0
102
RTVSPost2010PropOp34
 70
     1
102
RTVSPost2010Prop35
280
     0
102
RTVSPost2010PropOp35
 70
     1
102
RTVSPost2010Prop36
280
     0
102
RTVSPost2010PropOp36
 70
     1
102
RTVSPost2010Prop37
 90
       50
102
RTVSPost2010PropOp37
 70
     1
102
RTVSPost2010Prop38
140
0.0
102
RTVSPost2010PropOp38
 70
     1
102
RTVSPost2010Prop39
140
1.0
102
RTVSPost2010PropOp39
 70
     1
102
RTVSPost2010Prop40
 90
        0
102
RTVSPost2010PropOp40
 70
     1
102
RTVSPost2010Prop41ColorIndex
 90
       18
102
RTVSPost2010Prop41ColorRGB
 90
        0
102
RTVSPost2010PropOp41
 70
     1
102
RTVSPost2010Prop42
 90
       50
102
RTVSPost2010PropOp42
 70
     1
102
RTVSPost2010Prop43
 90
        3
102
RTVSPost2010PropOp43
 70
     1
102
RTVSPost2010Prop44ColorIndex
 90
        5
102
RTVSPost2010Prop44ColorRGB
 90
      255
102
RTVSPost2010PropOp44
 70
     1
102
RTVSPost2010Prop45
280
     0
102
RTVSPost2010PropOp45
 70
     1
102
RTVSPost2010Prop46
 90
       50
102
RTVSPost2010PropOp46
 70
     1
102
RTVSPost2010Prop47
 90
       50
102
RTVSPost2010PropOp47
 70
     1
102
RTVSPost2010Prop48
 90
       50
102
RTVSPost2010PropOp48
 70
     1
102
RTVSPost2010Prop49
280
     0
102
RTVSPost2010PropOp49
 70
     1
102
RTVSPost2010Prop50
 90
       50
102
RTVSPost2010PropOp50
 70
     1
102
RTVSPost2010Prop51ColorIndex
 90
      256
102
RTVSPost2010Prop51ColorRGB
 90
-16777216
102
RTVSPost2010PropOp51
 70
     0
102
RTVSPost2010Prop52
140
1.0
102
RTVSPost2010PropOp52
 70
     0
102
RTVSPost2010Prop53
 90
        2
102
RTVSPost2010PropOp53
 70
     1
102
RTVSPost2010Prop54
  1
strokes_ogs.tif
102
RTVSPost2010PropOp54
 70
     1
102
RTVSPost2010Prop55
280
     0
102
RTVSPost2010PropOp55
 70
     1
102
RTVSPost2010Prop56
140
1.0
102
RTVSPost2010PropOp56
 70
     1
102
RTVSPost2010Prop57
140
1.0
102
RTVSPost2010PropOp57
 70
     1
102
RTVSPropertyOp0
 70
     1
102
RTVSPropertyOp1
 70
     1
102
RTVSPropertyOp2
 70
     1
102
RTVSPropertyOp3
 70
     1
102
RTVSPropertyOp4
 70
     1
102
RTVSPropertyOp5
 70
     1
102
RTVSPropertyOp6
 70
     1
102
RTVSPropertyOp7
 70
     1
102
RTVSPropertyOp8
 70
     1
102
RTVSPropertyOp9
 70
     1
102
RTVSPropertyOp10
 70
     1
102
RTVSPropertyOp11
 70
     1
102
RTVSPropertyOp12
 70
     1
102
RTVSPropertyOp13
 70
     1
102
RTVSPropertyOp14
 70
     1
102
RTVSPropertyOp15
 70
     1
102
RTVSPropertyOp16
 70
     1
102
RTVSPropertyOp17
 70
     1
102
RTVSPropertyOp18
 70
     1
102
RTVSPropertyOp19
 70
     1
102
RTVSPropertyOp20
 70
     1
102
RTVSPropertyOp21
 70
     1
102
RTVSPropertyOp22
 70
     1
102
RTVSPropertyOp23
 70
     1
102
RTVSPropertyOp24
 70
     1
102
RTVSPropertyOp25
 70
     1
102
RTVSPropertyOp26
 70
     1
102
RTVSPropertyOp27
 70
     1
102
RTVSPropertyOp28
 70
     1
102
RTVSPropertyOp29
 70
     1
102
RTVSPropertyOp30
 70
     1
102
RTVSPropertyOp31
 70
     1
102
RTVSPropertyOp32
 70
     1
102
RTVSPropertyOp33
 70
     1
102
RTVSPropertyOp34
 70
     1
102
RTVSPropertyOp35
 70
     1
102
RTVSPropertyOp36
 70
     1
102
RTVSPropertyOp37
 70
     1
102
RTVSPropertyOp38
 70
     1
102
RTVSPropertyOp39
 70
     1
102
RTVSPropertyOp40
 70
     1
102
RTVSPropertyOp41
 70
     1
102
RTVSPropertyOp42
 70
     1
102
RTVSPropertyOp43
 70
     1
102
RTVSPropertyOp44
 70
     1
102
RTVSPropertyOp45
 70
     1
102
RTVSPropertyOp46
 70
     1
102
RTVSPropertyOp47
 70
     1
102
RTVSPropertyOp48
 70
     1
102
RTVSPropertyOp49
 70
     1
102
RTVSPropertyOp50
 70
     1
102
RTVSPropertyOp51
 70
     0
102
RTVSPropertyOp52
 70
     0
102
RTVSPropertyOp53
 70
     1
102
RTVSPropertyOp54
 70
     1
102
RTVSPropertyOp55
 70
     1
102
RTVSPropertyOp56
 70
     1
102
RTVSPropertyOp57
 70
     1
102
RTVSPropertyOp58
 70
     1
102
RTVSPropertyOp59
 70
     1
102
RTVSPropertyOp60
 70
     1
102
RTVSPropertyOp61
 70
     1
102
RTVSPropertyOp62
 70
     1
  0
ENDSEC
  0
EOF
