  0
SECTION
  2
HEADER
  9
$ACADVER
  1
AC1015
  9
$ACADMAINTVER
 70
    20
  9
$DWGCODEPAGE
  3
ANSI_932
  9
$INSBASE
 10
0.0
 20
0.0
 30
0.0
  9
$EXTMIN
 10
139.9999999999995
 20
-0.0000000000000909
 30
0.0
  9
$EXTMAX
 10
16307.2
 20
11409.6
 30
0.0
  9
$LIMMIN
 10
-176.3999999999996
 20
-235.1999999999998
  9
$LIMMAX
 10
16623.6
 20
11644.8
  9
$ORTHOMODE
 70
     1
  9
$REGENMODE
 70
     1
  9
$FILLMODE
 70
     1
  9
$QTEXTMODE
 70
     0
  9
$MIRRTEXT
 70
     1
  9
$LTSCALE
 40
20.0
  9
$ATTMODE
 70
     1
  9
$TEXTSIZE
 40
100.0
  9
$TRACEWID
 40
1.0
  9
$TEXTSTYLE
  7
STYLE2
  9
$CLAYER
  8
寸法
  9
$CELTYPE
  6
BYLAYER
  9
$CECOLOR
 62
   256
  9
$CELTSCALE
 40
50.0
  9
$DISPSILH
 70
     0
  9
$DIMSCALE
 40
40.0
  9
$DIMASZ
 40
2.5
  9
$DIMEXO
 40
0.5
  9
$DIMDLI
 40
7.0
  9
$DIMRND
 40
0.0
  9
$DIMDLE
 40
0.0
  9
$DIMEXE
 40
1.5
  9
$DIMTP
 40
0.0
  9
$DIMTM
 40
0.0
  9
$DIMTXT
 40
3.0
  9
$DIMCEN
 40
0.0
  9
$DIMTSZ
 40
0.0
  9
$DIMTOL
 70
     0
  9
$DIMLIM
 70
     0
  9
$DIMTIH
 70
     0
  9
$DIMTOH
 70
     0
  9
$DIMSE1
 70
     0
  9
$DIMSE2
 70
     0
  9
$DIMTAD
 70
     3
  9
$DIMZIN
 70
     8
  9
$DIMBLK
  1

  9
$DIMASO
 70
     1
  9
$DIMSHO
 70
     1
  9
$DIMPOST
  1

  9
$DIMAPOST
  1

  9
$DIMALT
 70
     0
  9
$DIMALTD
 70
     2
  9
$DIMALTF
 40
0.0394
  9
$DIMLFAC
 40
1.0
  9
$DIMTOFL
 70
     1
  9
$DIMTVP
 40
0.0
  9
$DIMTIX
 70
     0
  9
$DIMSOXD
 70
     0
  9
$DIMSAH
 70
     1
  9
$DIMBLK1
  1
DOTSMALL
  9
$DIMBLK2
  1
DOTSMALL
  9
$DIMSTYLE
  2
INABA_S40G
  9
$DIMCLRD
 70
     0
  9
$DIMCLRE
 70
     0
  9
$DIMCLRT
 70
     7
  9
$DIMTFAC
 40
1.0
  9
$DIMGAP
 40
1.0
  9
$DIMJUST
 70
     0
  9
$DIMSD1
 70
     0
  9
$DIMSD2
 70
     0
  9
$DIMTOLJ
 70
     1
  9
$DIMTZIN
 70
     0
  9
$DIMALTZ
 70
     0
  9
$DIMALTTZ
 70
     0
  9
$DIMUPT
 70
     0
  9
$DIMDEC
 70
     1
  9
$DIMTDEC
 70
     1
  9
$DIMALTU
 70
     2
  9
$DIMALTTD
 70
     2
  9
$DIMTXSTY
  7
STYLE1
  9
$DIMAUNIT
 70
     0
  9
$DIMADEC
 70
     0
  9
$DIMALTRND
 40
0.0
  9
$DIMAZIN
 70
     0
  9
$DIMDSEP
 70
    46
  9
$DIMATFIT
 70
     3
  9
$DIMFRAC
 70
     0
  9
$DIMLDRBLK
  1

  9
$DIMLUNIT
 70
     2
  9
$DIMLWD
 70
    -2
  9
$DIMLWE
 70
    -2
  9
$DIMTMOVE
 70
     0
  9
$LUNITS
 70
     2
  9
$LUPREC
 70
     1
  9
$SKETCHINC
 40
1.0
  9
$FILLETRAD
 40
0.0
  9
$AUNITS
 70
     0
  9
$AUPREC
 70
     0
  9
$MENU
  1
acad
  9
$ELEVATION
 40
0.0
  9
$PELEVATION
 40
0.0
  9
$THICKNESS
 40
0.0
  9
$LIMCHECK
 70
     0
  9
$CHAMFERA
 40
3.0
  9
$CHAMFERB
 40
3.0
  9
$CHAMFERC
 40
0.0
  9
$CHAMFERD
 40
0.0
  9
$SKPOLY
 70
     0
  9
$TDCREATE
 40
2451368.612993866
  9
$TDUCREATE
 40
2451368.237993866
  9
$TDUPDATE
 40
2458830.765266135
  9
$TDUUPDATE
 40
2458830.390266135
  9
$TDINDWG
 40
1.7216177894
  9
$TDUSRTIMER
 40
1.7216177894
  9
$USRTIMER
 70
     1
  9
$ANGBASE
 50
0.0
  9
$ANGDIR
 70
     0
  9
$PDMODE
 70
     3
  9
$PDSIZE
 40
2.0
  9
$PLINEWID
 40
0.0
  9
$SPLFRAME
 70
     0
  9
$SPLINETYPE
 70
     6
  9
$SPLINESEGS
 70
     8
  9
$HANDSEED
  5
3169E
  9
$SURFTAB1
 70
     6
  9
$SURFTAB2
 70
     6
  9
$SURFTYPE
 70
     6
  9
$SURFU
 70
     6
  9
$SURFV
 70
     6
  9
$UCSBASE
  2

  9
$UCSNAME
  2

  9
$UCSORG
 10
0.0
 20
0.0
 30
0.0
  9
$UCSXDIR
 10
1.0
 20
0.0
 30
0.0
  9
$UCSYDIR
 10
0.0
 20
1.0
 30
0.0
  9
$UCSORTHOREF
  2

  9
$UCSORTHOVIEW
 70
     0
  9
$UCSORGTOP
 10
0.0
 20
0.0
 30
0.0
  9
$UCSORGBOTTOM
 10
0.0
 20
0.0
 30
0.0
  9
$UCSORGLEFT
 10
0.0
 20
0.0
 30
0.0
  9
$UCSORGRIGHT
 10
0.0
 20
0.0
 30
0.0
  9
$UCSORGFRONT
 10
0.0
 20
0.0
 30
0.0
  9
$UCSORGBACK
 10
0.0
 20
0.0
 30
0.0
  9
$PUCSBASE
  2

  9
$PUCSNAME
  2

  9
$PUCSORG
 10
0.0
 20
0.0
 30
0.0
  9
$PUCSXDIR
 10
1.0
 20
0.0
 30
0.0
  9
$PUCSYDIR
 10
0.0
 20
1.0
 30
0.0
  9
$PUCSORTHOREF
  2

  9
$PUCSORTHOVIEW
 70
     0
  9
$PUCSORGTOP
 10
0.0
 20
0.0
 30
0.0
  9
$PUCSORGBOTTOM
 10
0.0
 20
0.0
 30
0.0
  9
$PUCSORGLEFT
 10
0.0
 20
0.0
 30
0.0
  9
$PUCSORGRIGHT
 10
0.0
 20
0.0
 30
0.0
  9
$PUCSORGFRONT
 10
0.0
 20
0.0
 30
0.0
  9
$PUCSORGBACK
 10
0.0
 20
0.0
 30
0.0
  9
$USERI1
 70
     0
  9
$USERI2
 70
     0
  9
$USERI3
 70
     0
  9
$USERI4
 70
     0
  9
$USERI5
 70
     0
  9
$USERR1
 40
0.0
  9
$USERR2
 40
0.0
  9
$USERR3
 40
0.0
  9
$USERR4
 40
0.0
  9
$USERR5
 40
0.0
  9
$WORLDVIEW
 70
     1
  9
$SHADEDGE
 70
     3
  9
$SHADEDIF
 70
    70
  9
$TILEMODE
 70
     1
  9
$MAXACTVP
 70
    16
  9
$PINSBASE
 10
0.0
 20
0.0
 30
0.0
  9
$PLIMCHECK
 70
     0
  9
$PEXTMIN
 10
28.68718261718749
 20
19.6363175392151
 30
0.0
  9
$PEXTMAX
 10
258.1846435546875
 20
176.7268578529358
 30
0.0
  9
$PLIMMIN
 10
-5.027069091796875
 20
-6.805083274841308
  9
$PLIMMAX
 10
291.9835815429688
 20
203.2105875015259
  9
$UNITMODE
 70
     0
  9
$VISRETAIN
 70
     0
  9
$PLINEGEN
 70
     0
  9
$PSLTSCALE
 70
     0
  9
$TREEDEPTH
 70
  3020
  9
$CMLSTYLE
  2
STANDARD
  9
$CMLJUST
 70
     0
  9
$CMLSCALE
 40
1.0
  9
$PROXYGRAPHICS
 70
     1
  9
$MEASUREMENT
 70
     1
  9
$CELWEIGHT
370
    -1
  9
$ENDCAPS
280
     0
  9
$JOINSTYLE
280
     0
  9
$LWDISPLAY
290
     0
  9
$INSUNITS
 70
     0
  9
$HYPERLINKBASE
  1

  9
$STYLESHEET
  1
inaba.ctb
  9
$XEDIT
290
     1
  9
$CEPSNTYPE
380
     0
  9
$PSTYLEMODE
290
     1
  9
$FINGERPRINTGUID
  2
{3B57B35E-7D77-4BBF-81B7-6C583B9EB24C}
  9
$VERSIONGUID
  2
{C4F40EBB-69B4-485A-A07D-36797A28B219}
  9
$EXTNAMES
290
     1
  9
$PSVPSCALE
 40
0.0
  9
$OLESTARTUP
290
     0
  0
ENDSEC
  0
SECTION
  2
CLASSES
  0
CLASS
  1
ACDBDICTIONARYWDFLT
  2
AcDbDictionaryWithDefault
  3
ObjectDBX Classes
 90
        0
280
     0
281
     0
  0
CLASS
  1
MATERIAL
  2
AcDbMaterial
  3
ObjectDBX Classes
 90
     1153
280
     0
281
     0
  0
CLASS
  1
VISUALSTYLE
  2
AcDbVisualStyle
  3
ObjectDBX Classes
 90
     4095
280
     0
281
     0
  0
CLASS
  1
TABLESTYLE
  2
AcDbTableStyle
  3
ObjectDBX Classes
 90
     4095
280
     0
281
     0
  0
CLASS
  1
SCALE
  2
AcDbScale
  3
ObjectDBX Classes
 90
     1153
280
     0
281
     0
  0
CLASS
  1
MLEADERSTYLE
  2
AcDbMLeaderStyle
  3
ACDB_MLEADERSTYLE_CLASS
 90
     4095
280
     0
281
     0
  0
CLASS
  1
ACDBSECTIONVIEWSTYLE
  2
AcDbSectionViewStyle
  3
ObjectDBX Classes
 90
     1025
280
     0
281
     0
  0
CLASS
  1
ACDBDETAILVIEWSTYLE
  2
AcDbDetailViewStyle
  3
ObjectDBX Classes
 90
     1025
280
     0
281
     0
  0
CLASS
  1
SORTENTSTABLE
  2
AcDbSortentsTable
  3
ObjectDBX Classes
 90
    32768
280
     0
281
     0
  0
CLASS
  1
DICTIONARYVAR
  2
AcDbDictionaryVar
  3
ObjectDBX Classes
 90
        0
280
     0
281
     0
  0
CLASS
  1
CELLSTYLEMAP
  2
AcDbCellStyleMap
  3
ObjectDBX Classes
 90
     1152
280
     0
281
     0
  0
CLASS
  1
ACDBPLACEHOLDER
  2
AcDbPlaceHolder
  3
ObjectDBX Classes
 90
        0
280
     0
281
     0
  0
CLASS
  1
LAYOUT
  2
AcDbLayout
  3
ObjectDBX Classes
 90
        0
280
     0
281
     0
  0
ENDSEC
  0
SECTION
  2
TABLES
  0
TABLE
  2
VPORT
  5
746D
330
0
100
AcDbSymbolTable
 70
     1
  0
VPORT
  5
1E27D
330
746D
100
AcDbSymbolTableRecord
100
AcDbViewportTableRecord
  2
*Active
 70
     0
 10
0.0
 20
0.0
 11
1.0
 21
1.0
 12
8223.600039115543
 22
5704.800027660279
 13
0.0
 23
0.0
 14
10.0
 24
10.0
 15
10.0
 25
10.0
 16
0.0
 26
0.0
 36
1.0
 17
0.0
 27
0.0
 37
0.0
 40
11507.7929989267
 41
1.523364485981308
 42
50.0
 43
0.0
 44
0.0
 50
0.0
 51
0.0
 71
     0
 72
     0
 73
     1
 74
     0
 75
     0
 76
     0
 77
     0
 78
     0
281
     0
 65
     1
110
0.0
120
0.0
130
0.0
111
1.0
121
0.0
131
0.0
112
0.0
122
1.0
132
0.0
 79
     0
146
0.0
1001
ACAD_NAV_VCDISPLAY
1070
     3
  0
ENDTAB
  0
TABLE
  2
LTYPE
  5
746A
330
0
100
AcDbSymbolTable
 70
     4
  0
LTYPE
  5
7477
330
746A
100
AcDbSymbolTableRecord
100
AcDbLinetypeTableRecord
  2
BYBLOCK
 70
     0
  3

 72
    65
 73
     0
 40
0.0
  0
LTYPE
  5
7478
330
746A
100
AcDbSymbolTableRecord
100
AcDbLinetypeTableRecord
  2
BYLAYER
 70
     0
  3

 72
    65
 73
     0
 40
0.0
  0
LTYPE
  5
7479
330
746A
100
AcDbSymbolTableRecord
100
AcDbLinetypeTableRecord
  2
CONTINUOUS
 70
     0
  3
Solid line
 72
    65
 73
     0
 40
0.0
  0
LTYPE
  5
7816
330
746A
100
AcDbSymbolTableRecord
100
AcDbLinetypeTableRecord
  2
CENTER
 70
     0
  3
____ _ ____ _ ____ _ ____ _ ____ _ ____ _ ____ 
 72
    65
 73
     4
 40
2.0
 49
1.25
 74
     0
 49
-0.25
 74
     0
 49
0.25
 74
     0
 49
-0.25
 74
     0
  0
LTYPE
  5
781A
330
746A
100
AcDbSymbolTableRecord
100
AcDbLinetypeTableRecord
  2
HIDDEN
 70
     0
  3
__ __ __ __ __ __ __ __ __ __ __ __ __ __ __ __
 72
    65
 73
     2
 40
0.375
 49
0.25
 74
     0
 49
-0.125
 74
     0
  0
LTYPE
  5
781B
330
746A
100
AcDbSymbolTableRecord
100
AcDbLinetypeTableRecord
  2
PHANTOM
 70
     0
  3
______  __  __  ______  __  __  ______  __  __ 
 72
    65
 73
     6
 40
2.5
 49
1.25
 74
     0
 49
-0.25
 74
     0
 49
0.25
 74
     0
 49
-0.25
 74
     0
 49
0.25
 74
     0
 49
-0.25
 74
     0
  0
ENDTAB
  0
TABLE
  2
LAYER
  5
7467
102
{ACAD_XDICTIONARY
360
1F359
102
}
330
0
100
AcDbSymbolTable
 70
    13
  0
LAYER
  5
7474
102
{ACAD_XDICTIONARY
360
243BD
102
}
330
7467
100
AcDbSymbolTableRecord
100
AcDbLayerTableRecord
  2
0
 70
     0
 62
     7
  6
CONTINUOUS
370
    -3
390
159AE
  0
LAYER
  5
DEB2
102
{ACAD_XDICTIONARY
360
243BF
102
}
330
7467
100
AcDbSymbolTableRecord
100
AcDbLayerTableRecord
  2
センター
 70
     0
 62
     3
  6
CENTER
370
    -3
390
159AE
  0
LAYER
  5
DEB3
102
{ACAD_XDICTIONARY
360
243C1
102
}
330
7467
100
AcDbSymbolTableRecord
100
AcDbLayerTableRecord
  2
寸法
 70
     0
 62
     4
  6
CONTINUOUS
370
    -3
390
159AE
  0
LAYER
  5
DEB4
102
{ACAD_XDICTIONARY
360
243C3
102
}
330
7467
100
AcDbSymbolTableRecord
100
AcDbLayerTableRecord
  2
部品1
 70
     0
 62
     7
  6
CONTINUOUS
370
    -3
390
159AE
  0
LAYER
  5
DEB5
102
{ACAD_XDICTIONARY
360
243C5
102
}
330
7467
100
AcDbSymbolTableRecord
100
AcDbLayerTableRecord
  2
補助
 70
     0
 62
    -1
  6
CONTINUOUS
370
    -3
390
159AE
  0
LAYER
  5
DEB6
102
{ACAD_XDICTIONARY
360
243C7
102
}
330
7467
100
AcDbSymbolTableRecord
100
AcDbLayerTableRecord
  2
文字
 70
     0
 62
     7
  6
CONTINUOUS
370
    -3
390
159AE
  0
LAYER
  5
F255
330
7467
100
AcDbSymbolTableRecord
100
AcDbLayerTableRecord
  2
DEFPOINTS
 70
     0
 62
     7
  6
CONTINUOUS
290
     0
370
    -3
390
159AE
  0
LAYER
  5
10B54
102
{ACAD_XDICTIONARY
360
243C9
102
}
330
7467
100
AcDbSymbolTableRecord
100
AcDbLayerTableRecord
  2
仕様書枠
 70
     0
 62
   230
  6
CONTINUOUS
370
    -3
390
159AE
  0
LAYER
  5
11729
102
{ACAD_XDICTIONARY
360
243CB
102
}
330
7467
100
AcDbSymbolTableRecord
100
AcDbLayerTableRecord
  2
Ｇ．Ｌ
 70
     0
 62
    30
  6
CONTINUOUS
370
    -3
390
159AE
  0
LAYER
  5
1173F
102
{ACAD_XDICTIONARY
360
243CD
102
}
330
7467
100
AcDbSymbolTableRecord
100
AcDbLayerTableRecord
  2
細線
 70
     0
 62
     5
  6
CONTINUOUS
370
    -3
390
159AE
  0
LAYER
  5
12CC4
102
{ACAD_XDICTIONARY
360
243CF
102
}
330
7467
100
AcDbSymbolTableRecord
100
AcDbLayerTableRecord
  2
想像線
 70
     0
 62
     6
  6
PHANTOM
370
    -3
390
159AE
  0
LAYER
  5
142E2
102
{ACAD_XDICTIONARY
360
243D1
102
}
330
7467
100
AcDbSymbolTableRecord
100
AcDbLayerTableRecord
  2
破線
 70
     0
 62
     2
  6
HIDDEN
370
    -3
390
159AE
  0
LAYER
  5
1C644
102
{ACAD_XDICTIONARY
360
243D3
102
}
330
7467
100
AcDbSymbolTableRecord
100
AcDbLayerTableRecord
  2
点線
 70
     0
 62
     2
  6
HIDDEN
370
    -3
390
159AE
  0
ENDTAB
  0
TABLE
  2
STYLE
  5
7468
330
0
100
AcDbSymbolTable
 70
     4
  0
STYLE
  5
7475
330
7468
100
AcDbSymbolTableRecord
100
AcDbTextStyleTableRecord
  2
STANDARD
 70
     0
 40
0.0
 41
1.0
 50
0.0
 71
     0
 42
4.0
  3
txt
  4
C:\AutoCAD LT\bigfont.shx
  0
STYLE
  5
F706
330
7468
100
AcDbSymbolTableRecord
100
AcDbTextStyleTableRecord
  2
STYLE1
 70
     0
 40
0.0
 41
1.0
 50
0.0
 71
     0
 42
100.0
  3
isocp.shx
  4
bigfont.shx
  0
STYLE
  5
103BF
330
7468
100
AcDbSymbolTableRecord
100
AcDbTextStyleTableRecord
  2
STYLE2
 70
     0
 40
0.0
 41
1.0
 50
0.0
 71
     0
 42
100.0
  3

  4

1001
ACAD
1000
MS PGothic
1071
    32818
  0
STYLE
  5
21839
330
7468
100
AcDbSymbolTableRecord
100
AcDbTextStyleTableRecord
  2
STYLE3
 70
     0
 40
0.0
 41
1.0
 50
0.0
 71
     0
 42
100.0
  3

  4

1001
ACAD
1000
DFPGothic-EB
1071
    32818
  0
ENDTAB
  0
TABLE
  2
VIEW
  5
746B
330
0
100
AcDbSymbolTable
 70
     0
  0
ENDTAB
  0
TABLE
  2
UCS
  5
746C
330
0
100
AcDbSymbolTable
 70
     0
  0
ENDTAB
  0
TABLE
  2
APPID
  5
746E
330
0
100
AcDbSymbolTable
 70
    13
  0
APPID
  5
7476
330
746E
100
AcDbSymbolTableRecord
100
AcDbRegAppTableRecord
  2
ACAD
 70
     0
  0
APPID
  5
DEA9
330
746E
100
AcDbSymbolTableRecord
100
AcDbRegAppTableRecord
  2
CONTENTBLOCKICON
 70
     0
  0
APPID
  5
DEAA
330
746E
100
AcDbSymbolTableRecord
100
AcDbRegAppTableRecord
  2
CONTENTBLOCKDESCRIPTION
 70
     0
  0
APPID
  5
E71D
330
746E
100
AcDbSymbolTableRecord
100
AcDbRegAppTableRecord
  2
CONTENTTABDATA
 70
     0
  0
APPID
  5
E71E
330
746E
100
AcDbSymbolTableRecord
100
AcDbRegAppTableRecord
  2
CONTENTCURRENTTAB
 70
     0
  0
APPID
  5
F3BA
330
746E
100
AcDbSymbolTableRecord
100
AcDbRegAppTableRecord
  2
DRAWINGVARIABLESXDATA
 70
     0
  0
APPID
  5
1F355
330
746E
100
AcDbSymbolTableRecord
100
AcDbRegAppTableRecord
  2
ACAD_NAV_VCDISPLAY
 70
     0
  0
APPID
  5
1F356
330
746E
100
AcDbSymbolTableRecord
100
AcDbRegAppTableRecord
  2
ACAD_PSEXT
 70
     0
  0
APPID
  5
1F357
330
746E
100
AcDbSymbolTableRecord
100
AcDbRegAppTableRecord
  2
GradientColor1ACI
 70
     0
  0
APPID
  5
1F358
330
746E
100
AcDbSymbolTableRecord
100
AcDbRegAppTableRecord
  2
GradientColor2ACI
 70
     0
  0
APPID
  5
21842
330
746E
100
AcDbSymbolTableRecord
100
AcDbRegAppTableRecord
  2
ACAD_EXEMPT_FROM_CAD_STANDARDS
 70
     0
  0
APPID
  5
3155B
330
746E
100
AcDbSymbolTableRecord
100
AcDbRegAppTableRecord
  2
AcadAnnoMonitorAlertIconDisabled
 70
     0
  0
APPID
  5
31696
330
746E
100
AcDbSymbolTableRecord
100
AcDbRegAppTableRecord
  2
ACAD_MLEADERVER
 70
     0
  0
ENDTAB
  0
TABLE
  2
DIMSTYLE
  5
746F
330
0
100
AcDbSymbolTable
 70
     5
100
AcDbDimStyleTable
 71
     1
340
F71F
  0
DIMSTYLE
105
F71F
102
{ACAD_REACTORS
330
30853
330
30854
330
30856
330
30857
330
30859
330
3085A
330
3085E
330
3085F
330
30860
330
30861
330
30862
330
30863
330
30864
330
307E7
330
307E9
330
307EA
330
307FD
330
307FE
330
307FF
330
30800
330
3080D
330
3080E
330
3082A
330
3082C
330
3082D
330
3082E
330
3082F
330
30834
330
30835
330
3083A
330
3083C
330
3083D
330
30841
330
30842
330
30843
330
312A8
330
312A9
330
312AA
330
312AB
330
312B7
330
30840
330
3086B
102
}
330
746F
100
AcDbSymbolTableRecord
100
AcDbDimStyleTableRecord
  2
INABA_S40G
 70
     0
 40
40.0
 41
2.5
 42
0.5
 43
7.0
 44
1.5
 73
     0
 74
     0
 77
     3
 78
     8
140
3.0
141
0.0
143
0.0394
147
1.0
172
     1
173
     1
174
     1
178
     7
271
     1
288
     1
340
F706
341
F770
343
F770
344
F770
  0
DIMSTYLE
105
1C645
330
746F
100
AcDbSymbolTableRecord
100
AcDbDimStyleTableRecord
  2
INABA_S50G
 70
     0
 40
0.0
 41
125.0
 42
25.0
 43
7.0
 44
75.0
 73
     0
 74
     0
 77
     3
 78
     8
140
150.0
141
0.0
143
0.0394
147
25.0
172
     1
173
     1
174
     1
178
     7
271
     1
340
F706
341
F770
343
F770
344
F770
  0
DIMSTYLE
105
1F352
330
746F
100
AcDbSymbolTableRecord
100
AcDbDimStyleTableRecord
  2
INABA_S30G
 70
     0
 40
30.0
 41
2.5
 42
0.5
 43
7.0
 44
1.5
 73
     0
 74
     0
 77
     3
 78
     8
140
3.0
141
0.0
143
0.0394
147
1.0
172
     1
173
     1
174
     1
178
     7
271
     1
340
F706
341
F770
343
F770
344
F770
  0
DIMSTYLE
105
1F353
330
746F
100
AcDbSymbolTableRecord
100
AcDbDimStyleTableRecord
  2
INABA_1／1
 70
     0
 41
2.5
 42
0.5
 43
7.0
 44
1.5
 73
     0
 74
     0
 77
     3
 78
     8
140
2.5
141
0.0
143
0.0394
147
0.8
172
     1
173
     1
174
     1
175
     1
178
     7
289
     0
340
7475
341
1E360
343
1E360
344
1E360
  0
DIMSTYLE
105
1F354
330
746F
100
AcDbSymbolTableRecord
100
AcDbDimStyleTableRecord
  2
INABA_1／3
 70
     0
 40
3.0
 41
2.5
 42
0.5
 43
7.0
 44
1.5
 73
     0
 74
     0
 77
     3
 78
     8
140
2.5
141
0.0
143
0.0394
147
0.8
172
     1
173
     1
174
     1
175
     1
178
     7
289
     0
340
7475
341
1E360
343
1E360
344
1E360
  0
ENDTAB
  0
TABLE
  2
BLOCK_RECORD
  5
7466
330
0
100
AcDbSymbolTable
 70
    45
  0
BLOCK_RECORD
  5
747D
330
7466
100
AcDbSymbolTableRecord
100
AcDbBlockTableRecord
  2
*MODEL_SPACE
340
159B3
  0
BLOCK_RECORD
  5
747A
330
7466
100
AcDbSymbolTableRecord
100
AcDbBlockTableRecord
  2
*PAPER_SPACE
340
159B4
  0
BLOCK_RECORD
  5
F770
330
7466
100
AcDbSymbolTableRecord
100
AcDbBlockTableRecord
  2
_DOTSMALL
340
0
102
{BLKREFS
331
314DE
331
314DF
331
314E7
331
314E8
331
315A0
331
315A1
331
31632
331
31633
331
31474
331
31475
331
3147D
331
3147E
331
31486
331
31487
331
3149A
331
3149B
331
314CC
331
314CD
331
314D5
331
314D6
331
30F52
331
30F53
331
30F5B
331
30F5C
331
30F65
331
30F66
331
30F6E
331
30F6F
331
30F78
331
30F79
331
30F82
331
30F83
331
30F8C
331
30F8D
331
30F95
331
30F96
331
30F9E
331
30F9F
331
30FA8
331
30FA9
331
30FC4
331
30FC5
331
30E6C
331
30E6D
331
30E7E
331
30E7F
331
30E87
331
30E88
331
30E91
331
30E92
331
30E9B
331
30E9C
331
30EA5
331
30EA6
331
30EAD
331
30EAE
331
30EB8
331
30EB9
331
30EC2
331
30EC3
331
30ECC
331
30ECD
331
30ED7
331
30ED8
331
30EF4
331
30EF5
331
30EFD
331
30EFE
331
30F08
331
30F09
331
30F1A
331
30F1B
331
30F24
331
30F25
331
30F32
331
30F33
331
30F3F
331
30F40
331
30F48
331
30F49
102
}
  0
BLOCK_RECORD
  5
1C530
330
7466
100
AcDbSymbolTableRecord
100
AcDbBlockTableRecord
  2
_NONE
340
0
  0
BLOCK_RECORD
  5
1E360
330
7466
100
AcDbSymbolTableRecord
100
AcDbBlockTableRecord
  2
_OPEN
340
0
  0
BLOCK_RECORD
  5
2C876
330
7466
100
AcDbSymbolTableRecord
100
AcDbBlockTableRecord
  2
A$C6A5F736D
340
0
  0
BLOCK_RECORD
  5
2C898
330
7466
100
AcDbSymbolTableRecord
100
AcDbBlockTableRecord
  2
A$C03B52967
340
0
  0
BLOCK_RECORD
  5
3086F
330
7466
100
AcDbSymbolTableRecord
100
AcDbBlockTableRecord
  2
*D5
340
0
  0
BLOCK_RECORD
  5
3087B
330
7466
100
AcDbSymbolTableRecord
100
AcDbBlockTableRecord
  2
*D6
340
0
  0
BLOCK_RECORD
  5
30888
330
7466
100
AcDbSymbolTableRecord
100
AcDbBlockTableRecord
  2
*D7
340
0
  0
BLOCK_RECORD
  5
30894
330
7466
100
AcDbSymbolTableRecord
100
AcDbBlockTableRecord
  2
*D8
340
0
  0
BLOCK_RECORD
  5
308A1
330
7466
100
AcDbSymbolTableRecord
100
AcDbBlockTableRecord
  2
*D9
340
0
  0
BLOCK_RECORD
  5
308AE
330
7466
100
AcDbSymbolTableRecord
100
AcDbBlockTableRecord
  2
*D10
340
0
  0
BLOCK_RECORD
  5
308BA
330
7466
100
AcDbSymbolTableRecord
100
AcDbBlockTableRecord
  2
*D11
340
0
  0
BLOCK_RECORD
  5
308C8
330
7466
100
AcDbSymbolTableRecord
100
AcDbBlockTableRecord
  2
*D12
340
0
  0
BLOCK_RECORD
  5
308D4
330
7466
100
AcDbSymbolTableRecord
100
AcDbBlockTableRecord
  2
*D13
340
0
  0
BLOCK_RECORD
  5
308E0
330
7466
100
AcDbSymbolTableRecord
100
AcDbBlockTableRecord
  2
*D14
340
0
  0
BLOCK_RECORD
  5
308ED
330
7466
100
AcDbSymbolTableRecord
100
AcDbBlockTableRecord
  2
*D15
340
0
  0
BLOCK_RECORD
  5
308F9
330
7466
100
AcDbSymbolTableRecord
100
AcDbBlockTableRecord
  2
*D16
340
0
  0
BLOCK_RECORD
  5
30905
330
7466
100
AcDbSymbolTableRecord
100
AcDbBlockTableRecord
  2
*D17
340
0
  0
BLOCK_RECORD
  5
30912
330
7466
100
AcDbSymbolTableRecord
100
AcDbBlockTableRecord
  2
*D18
340
0
  0
BLOCK_RECORD
  5
30920
330
7466
100
AcDbSymbolTableRecord
100
AcDbBlockTableRecord
  2
*D19
340
0
  0
BLOCK_RECORD
  5
3092C
330
7466
100
AcDbSymbolTableRecord
100
AcDbBlockTableRecord
  2
*D20
340
0
  0
BLOCK_RECORD
  5
30938
330
7466
100
AcDbSymbolTableRecord
100
AcDbBlockTableRecord
  2
*D21
340
0
  0
BLOCK_RECORD
  5
30944
330
7466
100
AcDbSymbolTableRecord
100
AcDbBlockTableRecord
  2
*D22
340
0
  0
BLOCK_RECORD
  5
30951
330
7466
100
AcDbSymbolTableRecord
100
AcDbBlockTableRecord
  2
*D23
340
0
  0
BLOCK_RECORD
  5
3095E
330
7466
100
AcDbSymbolTableRecord
100
AcDbBlockTableRecord
  2
*D24
340
0
  0
BLOCK_RECORD
  5
3096A
330
7466
100
AcDbSymbolTableRecord
100
AcDbBlockTableRecord
  2
*D25
340
0
  0
BLOCK_RECORD
  5
30976
330
7466
100
AcDbSymbolTableRecord
100
AcDbBlockTableRecord
  2
*D26
340
0
  0
BLOCK_RECORD
  5
30984
330
7466
100
AcDbSymbolTableRecord
100
AcDbBlockTableRecord
  2
*D27
340
0
  0
BLOCK_RECORD
  5
30991
330
7466
100
AcDbSymbolTableRecord
100
AcDbBlockTableRecord
  2
*D28
340
0
  0
BLOCK_RECORD
  5
3099E
330
7466
100
AcDbSymbolTableRecord
100
AcDbBlockTableRecord
  2
*D29
340
0
  0
BLOCK_RECORD
  5
309AC
330
7466
100
AcDbSymbolTableRecord
100
AcDbBlockTableRecord
  2
*D30
340
0
  0
BLOCK_RECORD
  5
309B8
330
7466
100
AcDbSymbolTableRecord
100
AcDbBlockTableRecord
  2
*D31
340
0
  0
BLOCK_RECORD
  5
309C4
330
7466
100
AcDbSymbolTableRecord
100
AcDbBlockTableRecord
  2
*D32
340
0
  0
BLOCK_RECORD
  5
309D2
330
7466
100
AcDbSymbolTableRecord
100
AcDbBlockTableRecord
  2
*D33
340
0
  0
BLOCK_RECORD
  5
309DE
330
7466
100
AcDbSymbolTableRecord
100
AcDbBlockTableRecord
  2
*D34
340
0
  0
BLOCK_RECORD
  5
309F8
330
7466
100
AcDbSymbolTableRecord
100
AcDbBlockTableRecord
  2
*D35
340
0
  0
BLOCK_RECORD
  5
30A04
330
7466
100
AcDbSymbolTableRecord
100
AcDbBlockTableRecord
  2
*D36
340
0
  0
BLOCK_RECORD
  5
30A11
330
7466
100
AcDbSymbolTableRecord
100
AcDbBlockTableRecord
  2
*D37
340
0
  0
BLOCK_RECORD
  5
30A21
330
7466
100
AcDbSymbolTableRecord
100
AcDbBlockTableRecord
  2
*D38
340
0
  0
BLOCK_RECORD
  5
30A31
330
7466
100
AcDbSymbolTableRecord
100
AcDbBlockTableRecord
  2
*D39
340
0
  0
BLOCK_RECORD
  5
31433
330
7466
100
AcDbSymbolTableRecord
100
AcDbBlockTableRecord
  2
*D40
340
0
  0
BLOCK_RECORD
  5
3143F
330
7466
100
AcDbSymbolTableRecord
100
AcDbBlockTableRecord
  2
*D41
340
0
  0
BLOCK_RECORD
  5
3144B
330
7466
100
AcDbSymbolTableRecord
100
AcDbBlockTableRecord
  2
*D42
340
0
  0
BLOCK_RECORD
  5
31457
330
7466
100
AcDbSymbolTableRecord
100
AcDbBlockTableRecord
  2
*D43
340
0
  0
BLOCK_RECORD
  5
31463
330
7466
100
AcDbSymbolTableRecord
100
AcDbBlockTableRecord
  2
*D44
340
0
  0
ENDTAB
  0
ENDSEC
  0
SECTION
  2
BLOCKS
  0
BLOCK
  5
7489
330
747D
100
AcDbEntity
  8
0
100
AcDbBlockBegin
  2
*MODEL_SPACE
 70
     0
 10
0.0
 20
0.0
 30
0.0
  3
*MODEL_SPACE
  1

  0
ENDBLK
  5
748A
330
747D
100
AcDbEntity
  8
0
100
AcDbBlockEnd
  0
BLOCK
  5
7487
330
747A
100
AcDbEntity
 67
     1
  8
0
100
AcDbBlockBegin
  2
*PAPER_SPACE
 70
     0
 10
0.0
 20
0.0
 30
0.0
  3
*PAPER_SPACE
  1

  0
ENDBLK
  5
7488
330
747A
100
AcDbEntity
 67
     1
  8
0
100
AcDbBlockEnd
  0
BLOCK
  5
F771
330
F770
100
AcDbEntity
  8
0
 48
50.0
100
AcDbBlockBegin
  2
_DOTSMALL
 70
     0
 10
0.0
 20
0.0
 30
0.0
  3
_DOTSMALL
  1

  0
LWPOLYLINE
  5
F772
330
F770
100
AcDbEntity
  8
0
  6
ByBlock
 62
     0
 48
50.0
100
AcDbPolyline
 90
        2
 70
     1
 43
0.5
 10
-0.0625
 20
0.0
 42
1.0
 10
0.0625
 20
0.0
 42
1.0
  0
ENDBLK
  5
F776
330
F770
100
AcDbEntity
  8
0
 48
50.0
100
AcDbBlockEnd
  0
BLOCK
  5
1C531
330
1C530
100
AcDbEntity
  8
0
 48
50.0
100
AcDbBlockBegin
  2
_NONE
 70
     0
 10
0.0
 20
0.0
 30
0.0
  3
_NONE
  1

  0
CIRCLE
  5
1C532
330
1C530
100
AcDbEntity
  8
0
  6
ByBlock
 62
     0
 48
50.0
100
AcDbCircle
 10
0.0
 20
0.0
 30
0.0
 40
0.25
  0
ENDBLK
  5
1C533
330
1C530
100
AcDbEntity
  8
0
 48
50.0
100
AcDbBlockEnd
  0
BLOCK
  5
1E361
330
1E360
100
AcDbEntity
  8
0
100
AcDbBlockBegin
  2
_OPEN
 70
     0
 10
0.0
 20
0.0
 30
0.0
  3
_OPEN
  1

  0
LINE
  5
1E362
330
1E360
100
AcDbEntity
  8
0
  6
ByBlock
 62
     0
100
AcDbLine
 10
-1.0
 20
0.1666666666666666
 30
0.0
 11
0.0
 21
0.0
 31
0.0
  0
LINE
  5
1E363
330
1E360
100
AcDbEntity
  8
0
  6
ByBlock
 62
     0
100
AcDbLine
 10
0.0
 20
0.0
 30
0.0
 11
-1.0
 21
-0.1666666666666666
 31
0.0
  0
LINE
  5
1E364
330
1E360
100
AcDbEntity
  8
0
  6
ByBlock
 62
     0
100
AcDbLine
 10
0.0
 20
0.0
 30
0.0
 11
-1.0
 21
0.0
 31
0.0
  0
ENDBLK
  5
1E365
330
1E360
100
AcDbEntity
  8
0
100
AcDbBlockEnd
  0
BLOCK
  5
2C879
330
2C876
100
AcDbEntity
  8
0
 48
50.0
100
AcDbBlockBegin
  2
A$C6A5F736D
 70
     0
 10
0.0
 20
0.0
 30
0.0
  3
A$C6A5F736D
  1

  0
TEXT
  5
2C877
330
2C876
100
AcDbEntity
  8
文字
 62
     7
 48
50.0
100
AcDbText
 10
-1049.763300015585
 20
-322.7259338968745
 30
0.0
 40
140.0
  1
機種名
  7
STYLE2
100
AcDbText
  0
TEXT
  5
2C878
330
2C876
100
AcDbEntity
  8
文字
 62
     7
 48
50.0
100
AcDbText
 10
-205.811389543398
 20
-311.8758414144304
 30
0.0
 40
140.0
  1
ＮＸＮ-３２Ｓ・３２ＳＫ，３２Ｈ・３２ＨＫ
 41
0.7
  7
STYLE2
100
AcDbText
  0
ENDBLK
  5
2C87A
330
2C876
100
AcDbEntity
  8
0
 48
50.0
100
AcDbBlockEnd
  0
BLOCK
  5
2C89A
330
2C898
100
AcDbEntity
  8
0
 48
50.0
100
AcDbBlockBegin
  2
A$C03B52967
 70
     0
 10
0.0
 20
0.0
 30
0.0
  3
A$C03B52967
  1

  0
TEXT
  5
2C899
330
2C898
100
AcDbEntity
  8
文字
 62
     7
 48
50.0
100
AcDbText
 10
-205.811389543398
 20
-311.8758414144304
 30
0.0
 40
140.0
  1
ＮＸＮ-３２Ｓ・３２ＳＫ，３２Ｈ・３２ＨＫ
 41
0.7
  7
STYLE2
100
AcDbText
  0
ENDBLK
  5
2C89B
330
2C898
100
AcDbEntity
  8
0
 48
50.0
100
AcDbBlockEnd
  0
BLOCK
  5
30870
330
3086F
100
AcDbEntity
  8
0
 48
50.0
100
AcDbBlockBegin
  2
*D5
 70
     1
 10
0.0
 20
0.0
 30
0.0
  3
*D5
  1

  0
LINE
  5
30F4E
330
3086F
100
AcDbEntity
  8
寸法
 62
     0
 48
50.0
370
    -2
100
AcDbLine
 10
8123.599999999987
 20
7319.8
 30
0.0
 11
8123.599999999987
 21
7069.781067972292
 31
0.0
  0
LINE
  5
30F4F
330
3086F
100
AcDbEntity
  8
寸法
 62
     0
 48
50.0
370
    -2
100
AcDbLine
 10
8003.6
 20
7329.800000000002
 30
0.0
 11
8003.6
 21
7069.781067972292
 31
0.0
  0
LINE
  5
30F50
330
3086F
100
AcDbEntity
  8
寸法
 62
     0
 48
50.0
370
    -2
100
AcDbLine
 10
8123.599999999987
 20
7129.781067972292
 30
0.0
 11
8003.6
 21
7129.781067972292
 31
0.0
  0
MTEXT
  5
30F51
330
3086F
100
AcDbEntity
  8
寸法
 62
     7
 48
50.0
100
AcDbMText
 10
7867.715962223397
 20
7226.908351107997
 30
0.0
 40
120.0
 41
0.0
 71
     5
 72
     1
  1
\A1;120
  7
STYLE1
 73
     1
 44
1.0
1001
ACAD
1000
MTEXTBEGIN
1070
    73
1070
     1
1070
    44
1040
1.0
1070
    74
1070
     0
1000
MTEXTEND
  0
INSERT
  5
30F52
330
3086F
100
AcDbEntity
  8
寸法
 62
     0
 48
50.0
370
    -2
100
AcDbBlockReference
  2
_DOTSMALL
 10
8123.599999999987
 20
7129.781067972292
 30
0.0
 41
100.0
 42
100.0
 43
100.0
  0
INSERT
  5
30F53
330
3086F
100
AcDbEntity
  8
寸法
 62
     0
 48
50.0
370
    -2
100
AcDbBlockReference
  2
_DOTSMALL
 10
8003.6
 20
7129.781067972292
 30
0.0
 41
100.0
 42
100.0
 43
100.0
 50
180.0
  0
POINT
  5
30F54
330
3086F
100
AcDbEntity
  8
DEFPOINTS
 62
     0
 48
50.0
100
AcDbPoint
 10
8123.599999999987
 20
7339.800000000001
 30
0.0
  0
POINT
  5
30F55
330
3086F
100
AcDbEntity
  8
DEFPOINTS
 62
     0
 48
50.0
100
AcDbPoint
 10
8003.6
 20
7349.800000000001
 30
0.0
  0
POINT
  5
30F56
330
3086F
100
AcDbEntity
  8
DEFPOINTS
 62
     0
 48
50.0
100
AcDbPoint
 10
8003.6
 20
7129.781067972292
 30
0.0
  0
ENDBLK
  5
30871
330
3086F
100
AcDbEntity
  8
0
 48
50.0
100
AcDbBlockEnd
  0
BLOCK
  5
3087C
330
3087B
100
AcDbEntity
  8
0
 48
50.0
100
AcDbBlockBegin
  2
*D6
 70
     1
 10
0.0
 20
0.0
 30
0.0
  3
*D6
  1

  0
LINE
  5
30F57
330
3087B
100
AcDbEntity
  8
寸法
 62
     0
 48
50.0
370
    -2
100
AcDbLine
 10
8273.600000000014
 20
7083.41883972829
 30
0.0
 11
8273.600000000014
 21
7189.312365481446
 31
0.0
  0
LINE
  5
30F58
330
3087B
100
AcDbEntity
  8
寸法
 62
     0
 48
50.0
370
    -2
100
AcDbLine
 10
8123.600000000015
 20
7083.41883972829
 30
0.0
 11
8123.600000000015
 21
7189.312365481446
 31
0.0
  0
LINE
  5
30F59
330
3087B
100
AcDbEntity
  8
寸法
 62
     0
 48
50.0
370
    -2
100
AcDbLine
 10
8123.600000000015
 20
7129.312365481446
 30
0.0
 11
8273.600000000014
 21
7129.312365481446
 31
0.0
  0
LINE
  5
30F5A
330
3087B
100
AcDbEntity
  8
寸法
 62
     0
 48
50.0
370
    -2
100
AcDbLine
 10
8273.600000000014
 20
7129.312365481446
 30
0.0
 11
8645.694488188992
 21
7129.312365481446
 31
0.0
  0
INSERT
  5
30F5B
330
3087B
100
AcDbEntity
  8
寸法
 62
     0
 48
50.0
370
    -2
100
AcDbBlockReference
  2
_DOTSMALL
 10
8123.600000000015
 20
7129.312365481446
 30
0.0
 41
100.0
 42
100.0
 43
100.0
 50
180.0
  0
INSERT
  5
30F5C
330
3087B
100
AcDbEntity
  8
寸法
 62
     0
 48
50.0
370
    -2
100
AcDbBlockReference
  2
_DOTSMALL
 10
8273.600000000014
 20
7129.312365481446
 30
0.0
 41
100.0
 42
100.0
 43
100.0
  0
MTEXT
  5
30F5D
330
3087B
100
AcDbEntity
  8
寸法
 62
     7
 48
50.0
100
AcDbMText
 10
8509.647244094503
 20
7229.312365481447
 30
0.0
 40
120.0
 41
0.0
 71
     5
 72
     1
  1
\A1;150
  7
STYLE1
 73
     1
 44
1.0
1001
ACAD
1000
MTEXTBEGIN
1070
    73
1070
     1
1070
    44
1040
1.0
1070
    74
1070
     0
1000
MTEXTEND
  0
POINT
  5
30F5E
330
3087B
100
AcDbEntity
  8
DEFPOINTS
 62
     0
 48
50.0
100
AcDbPoint
 10
8273.600000000014
 20
7063.418839728291
 30
0.0
  0
POINT
  5
30F5F
330
3087B
100
AcDbEntity
  8
DEFPOINTS
 62
     0
 48
50.0
100
AcDbPoint
 10
8123.600000000015
 20
7063.418839728291
 30
0.0
  0
POINT
  5
30F60
330
3087B
100
AcDbEntity
  8
DEFPOINTS
 62
     0
 48
50.0
100
AcDbPoint
 10
8123.600000000015
 20
7129.312365481446
 30
0.0
  0
ENDBLK
  5
3087D
330
3087B
100
AcDbEntity
  8
0
 48
50.0
100
AcDbBlockEnd
  0
BLOCK
  5
30889
330
30888
100
AcDbEntity
  8
0
 48
50.0
100
AcDbBlockBegin
  2
*D7
 70
     1
 10
0.0
 20
0.0
 30
0.0
  3
*D7
  1

  0
LINE
  5
30F61
330
30888
100
AcDbEntity
  8
寸法
 62
     0
 48
50.0
370
    -2
100
AcDbLine
 10
7893.613534433376
 20
5899.800000000016
 30
0.0
 11
7778.500074807076
 21
5899.800000000016
 31
0.0
  0
LINE
  5
30F62
330
30888
100
AcDbEntity
  8
寸法
 62
     0
 48
50.0
370
    -2
100
AcDbLine
 10
7983.600000000008
 20
6019.800000000016
 30
0.0
 11
7778.500074807076
 21
6019.800000000016
 31
0.0
  0
LINE
  5
30F63
330
30888
100
AcDbEntity
  8
寸法
 62
     0
 48
50.0
370
    -2
100
AcDbLine
 10
7838.500074807076
 20
5899.800000000016
 30
0.0
 11
7838.500074807076
 21
6019.800000000016
 31
0.0
  0
MTEXT
  5
30F64
330
30888
100
AcDbEntity
  8
寸法
 62
     7
 48
50.0
100
AcDbMText
 10
7738.488263783455
 20
6146.1598720714
 30
0.0
 40
120.0
 41
0.0
 71
     5
 72
     1
  1
\A1;120
  7
STYLE1
 11
0.0000000000000001
 21
1.0
 31
0.0
 73
     1
 44
1.0
1001
ACAD
1000
MTEXTBEGIN
1070
    73
1070
     1
1070
    44
1040
1.0
1070
    74
1070
     0
1000
MTEXTEND
  0
INSERT
  5
30F65
330
30888
100
AcDbEntity
  8
寸法
 62
     0
 48
50.0
370
    -2
100
AcDbBlockReference
  2
_DOTSMALL
 10
7838.500074807076
 20
5899.800000000016
 30
0.0
 41
100.0
 42
100.0
 43
100.0
 50
270.0
  0
INSERT
  5
30F66
330
30888
100
AcDbEntity
  8
寸法
 62
     0
 48
50.0
370
    -2
100
AcDbBlockReference
  2
_DOTSMALL
 10
7838.500074807076
 20
6019.800000000016
 30
0.0
 41
100.0
 42
100.0
 43
100.0
 50
90.0
  0
POINT
  5
30F67
330
30888
100
AcDbEntity
  8
DEFPOINTS
 62
     0
 48
50.0
100
AcDbPoint
 10
7913.613534433377
 20
5899.800000000016
 30
0.0
  0
POINT
  5
30F68
330
30888
100
AcDbEntity
  8
DEFPOINTS
 62
     0
 48
50.0
100
AcDbPoint
 10
8003.600000000007
 20
6019.800000000016
 30
0.0
  0
POINT
  5
30F69
330
30888
100
AcDbEntity
  8
DEFPOINTS
 62
     0
 48
50.0
100
AcDbPoint
 10
7838.500074807076
 20
6019.800000000016
 30
0.0
  0
ENDBLK
  5
3088A
330
30888
100
AcDbEntity
  8
0
 48
50.0
100
AcDbBlockEnd
  0
BLOCK
  5
30895
330
30894
100
AcDbEntity
  8
0
 48
50.0
100
AcDbBlockBegin
  2
*D8
 70
     1
 10
0.0
 20
0.0
 30
0.0
  3
*D8
  1

  0
LINE
  5
30F6A
330
30894
100
AcDbEntity
  8
寸法
 62
     0
 48
50.0
370
    -2
100
AcDbLine
 10
7893.613534433376
 20
5899.800000000016
 30
0.0
 11
7778.50007480707
 21
5899.800000000016
 31
0.0
  0
LINE
  5
30F6B
330
30894
100
AcDbEntity
  8
寸法
 62
     0
 48
50.0
370
    -2
100
AcDbLine
 10
7848.764445016671
 20
5704.799999999987
 30
0.0
 11
7778.50007480707
 21
5704.799999999987
 31
0.0
  0
LINE
  5
30F6C
330
30894
100
AcDbEntity
  8
寸法
 62
     0
 48
50.0
370
    -2
100
AcDbLine
 10
7838.500074807069
 20
5899.800000000016
 30
0.0
 11
7838.500074807069
 21
5704.799999999987
 31
0.0
  0
LINE
  5
30F6D
330
30894
100
AcDbEntity
  8
寸法
 62
     0
 48
50.0
370
    -2
100
AcDbLine
 10
7838.500074807069
 20
5704.799999999987
 30
0.0
 11
7838.500074807069
 21
5327.410117592195
 31
0.0
  0
INSERT
  5
30F6E
330
30894
100
AcDbEntity
  8
寸法
 62
     0
 48
50.0
370
    -2
100
AcDbBlockReference
  2
_DOTSMALL
 10
7838.500074807069
 20
5899.800000000016
 30
0.0
 41
100.0
 42
100.0
 43
100.0
 50
90.0
  0
INSERT
  5
30F6F
330
30894
100
AcDbEntity
  8
寸法
 62
     0
 48
50.0
370
    -2
100
AcDbBlockReference
  2
_DOTSMALL
 10
7838.500074807069
 20
5704.799999999987
 30
0.0
 41
100.0
 42
100.0
 43
100.0
 50
270.0
  0
MTEXT
  5
30F70
330
30894
100
AcDbEntity
  8
寸法
 62
     7
 48
50.0
100
AcDbMText
 10
7738.50007480707
 20
5466.105058796092
 30
0.0
 40
120.0
 41
0.0
 71
     5
 72
     1
  1
\A1;195
  7
STYLE1
 11
0.0000000000000001
 21
1.0
 31
0.0
 73
     1
 44
1.0
1001
ACAD
1000
MTEXTBEGIN
1070
    73
1070
     1
1070
    44
1040
1.0
1070
    74
1070
     0
1000
MTEXTEND
  0
POINT
  5
30F71
330
30894
100
AcDbEntity
  8
DEFPOINTS
 62
     0
 48
50.0
100
AcDbPoint
 10
7913.613534433377
 20
5899.800000000016
 30
0.0
  0
POINT
  5
30F72
330
30894
100
AcDbEntity
  8
DEFPOINTS
 62
     0
 48
50.0
100
AcDbPoint
 10
7868.764445016672
 20
5704.799999999987
 30
0.0
  0
POINT
  5
30F73
330
30894
100
AcDbEntity
  8
DEFPOINTS
 62
     0
 48
50.0
100
AcDbPoint
 10
7838.500074807069
 20
5704.799999999987
 30
0.0
  0
ENDBLK
  5
30896
330
30894
100
AcDbEntity
  8
0
 48
50.0
100
AcDbBlockEnd
  0
BLOCK
  5
308A2
330
308A1
100
AcDbEntity
  8
0
 48
50.0
100
AcDbBlockBegin
  2
*D9
 70
     1
 10
0.0
 20
0.0
 30
0.0
  3
*D9
  1

  0
LINE
  5
30F74
330
308A1
100
AcDbEntity
  8
寸法
 62
     0
 48
50.0
370
    -2
100
AcDbLine
 10
6528.600000000015
 20
6175.974811642381
 30
0.0
 11
6528.600000000015
 21
6078.859491221478
 31
0.0
  0
LINE
  5
30F75
330
308A1
100
AcDbEntity
  8
寸法
 62
     0
 48
50.0
370
    -2
100
AcDbLine
 10
6408.600000000015
 20
6175.974811642381
 30
0.0
 11
6408.600000000015
 21
6078.859491221478
 31
0.0
  0
LINE
  5
30F76
330
308A1
100
AcDbEntity
  8
寸法
 62
     0
 48
50.0
370
    -2
100
AcDbLine
 10
6528.600000000015
 20
6138.859491221477
 30
0.0
 11
6408.600000000015
 21
6138.859491221477
 31
0.0
  0
LINE
  5
30F77
330
308A1
100
AcDbEntity
  8
寸法
 62
     0
 48
50.0
370
    -2
100
AcDbLine
 10
6408.600000000015
 20
6138.859491221477
 30
0.0
 11
6036.505511811038
 21
6138.859491221477
 31
0.0
  0
INSERT
  5
30F78
330
308A1
100
AcDbEntity
  8
寸法
 62
     0
 48
50.0
370
    -2
100
AcDbBlockReference
  2
_DOTSMALL
 10
6528.600000000015
 20
6138.859491221477
 30
0.0
 41
100.0
 42
100.0
 43
100.0
  0
INSERT
  5
30F79
330
308A1
100
AcDbEntity
  8
寸法
 62
     0
 48
50.0
370
    -2
100
AcDbBlockReference
  2
_DOTSMALL
 10
6408.600000000015
 20
6138.859491221477
 30
0.0
 41
100.0
 42
100.0
 43
100.0
 50
180.0
  0
MTEXT
  5
30F7A
330
308A1
100
AcDbEntity
  8
寸法
 62
     7
 48
50.0
100
AcDbMText
 10
6172.552755905527
 20
6238.871302245099
 30
0.0
 40
120.0
 41
0.0
 71
     5
 72
     1
  1
\A1;120
  7
STYLE1
 73
     1
 44
1.0
1001
ACAD
1000
MTEXTBEGIN
1070
    73
1070
     1
1070
    44
1040
1.0
1070
    74
1070
     0
1000
MTEXTEND
  0
POINT
  5
30F7B
330
308A1
100
AcDbEntity
  8
DEFPOINTS
 62
     0
 48
50.0
100
AcDbPoint
 10
6528.600000000015
 20
6195.974811642382
 30
0.0
  0
POINT
  5
30F7C
330
308A1
100
AcDbEntity
  8
DEFPOINTS
 62
     0
 48
50.0
100
AcDbPoint
 10
6408.600000000015
 20
6195.974811642382
 30
0.0
  0
POINT
  5
30F7D
330
308A1
100
AcDbEntity
  8
DEFPOINTS
 62
     0
 48
50.0
100
AcDbPoint
 10
6408.600000000015
 20
6138.859491221477
 30
0.0
  0
ENDBLK
  5
308A3
330
308A1
100
AcDbEntity
  8
0
 48
50.0
100
AcDbBlockEnd
  0
BLOCK
  5
308AF
330
308AE
100
AcDbEntity
  8
0
 48
50.0
100
AcDbBlockBegin
  2
*D10
 70
     1
 10
0.0
 20
0.0
 30
0.0
  3
*D10
  1

  0
LINE
  5
30F7E
330
308AE
100
AcDbEntity
  8
寸法
 62
     0
 48
50.0
370
    -2
100
AcDbLine
 10
6528.600000000015
 20
6175.974811642381
 30
0.0
 11
6528.600000000015
 21
6078.859491221478
 31
0.0
  0
LINE
  5
30F7F
330
308AE
100
AcDbEntity
  8
寸法
 62
     0
 48
50.0
370
    -2
100
AcDbLine
 10
6648.600000000219
 20
6039.800000000027
 30
0.0
 11
6648.600000000219
 21
6198.859491221478
 31
0.0
  0
LINE
  5
30F80
330
308AE
100
AcDbEntity
  8
寸法
 62
     0
 48
50.0
370
    -2
100
AcDbLine
 10
6528.600000000015
 20
6138.859491221477
 30
0.0
 11
6648.600000000219
 21
6138.859491221477
 31
0.0
  0
MTEXT
  5
30F81
330
308AE
100
AcDbEntity
  8
寸法
 62
     7
 48
50.0
100
AcDbMText
 10
6808.823018876437
 20
6238.871302245099
 30
0.0
 40
120.0
 41
0.0
 71
     5
 72
     1
  1
\A1;120
  7
STYLE1
 73
     1
 44
1.0
1001
ACAD
1000
MTEXTBEGIN
1070
    73
1070
     1
1070
    44
1040
1.0
1070
    74
1070
     0
1000
MTEXTEND
  0
INSERT
  5
30F82
330
308AE
100
AcDbEntity
  8
寸法
 62
     0
 48
50.0
370
    -2
100
AcDbBlockReference
  2
_DOTSMALL
 10
6528.600000000015
 20
6138.859491221477
 30
0.0
 41
100.0
 42
100.0
 43
100.0
 50
180.0
  0
INSERT
  5
30F83
330
308AE
100
AcDbEntity
  8
寸法
 62
     0
 48
50.0
370
    -2
100
AcDbBlockReference
  2
_DOTSMALL
 10
6648.600000000219
 20
6138.859491221477
 30
0.0
 41
100.0
 42
100.0
 43
100.0
  0
POINT
  5
30F84
330
308AE
100
AcDbEntity
  8
DEFPOINTS
 62
     0
 48
50.0
100
AcDbPoint
 10
6528.600000000015
 20
6195.974811642382
 30
0.0
  0
POINT
  5
30F85
330
308AE
100
AcDbEntity
  8
DEFPOINTS
 62
     0
 48
50.0
100
AcDbPoint
 10
6648.600000000219
 20
6019.800000000026
 30
0.0
  0
POINT
  5
30F86
330
308AE
100
AcDbEntity
  8
DEFPOINTS
 62
     0
 48
50.0
100
AcDbPoint
 10
6648.600000000219
 20
6138.859491221477
 30
0.0
  0
ENDBLK
  5
308B0
330
308AE
100
AcDbEntity
  8
0
 48
50.0
100
AcDbBlockEnd
  0
BLOCK
  5
308BB
330
308BA
100
AcDbEntity
  8
0
 48
50.0
100
AcDbBlockBegin
  2
*D11
 70
     1
 10
0.0
 20
0.0
 30
0.0
  3
*D11
  1

  0
LINE
  5
30F87
330
308BA
100
AcDbEntity
  8
寸法
 62
     0
 48
50.0
370
    -2
100
AcDbLine
 10
5658.188031706647
 20
7654.800000000001
 30
0.0
 11
5372.695229568673
 21
7654.800000000001
 31
0.0
  0
LINE
  5
30F88
330
308BA
100
AcDbEntity
  8
寸法
 62
     0
 48
50.0
370
    -2
100
AcDbLine
 10
6398.6
 20
7589.800000000001
 30
0.0
 11
5372.695229568673
 21
7589.800000000002
 31
0.0
  0
LINE
  5
30F89
330
308BA
100
AcDbEntity
  8
寸法
 62
     0
 48
50.0
370
    -2
100
AcDbLine
 10
5432.695229568674
 20
7654.800000000001
 30
0.0
 11
5432.695229568674
 21
7754.800000000002
 31
0.0
  0
LINE
  5
30F8A
330
308BA
100
AcDbEntity
  8
寸法
 62
     0
 48
50.0
370
    -2
100
AcDbLine
 10
5432.695229568674
 20
7589.800000000002
 30
0.0
 11
5432.695229568674
 21
7489.800000000002
 31
0.0
  0
LINE
  5
30F8B
330
308BA
100
AcDbEntity
  8
寸法
 62
     0
 48
50.0
370
    -2
100
AcDbLine
 10
5432.695229568674
 20
7654.800000000001
 30
0.0
 11
5432.695229568674
 21
7589.800000000002
 31
0.0
  0
INSERT
  5
30F8C
330
308BA
100
AcDbEntity
  8
寸法
 62
     0
 48
50.0
370
    -2
100
AcDbBlockReference
  2
_DOTSMALL
 10
5432.695229568674
 20
7654.800000000001
 30
0.0
 41
100.0
 42
100.0
 43
100.0
 50
270.0
  0
INSERT
  5
30F8D
330
308BA
100
AcDbEntity
  8
寸法
 62
     0
 48
50.0
370
    -2
100
AcDbBlockReference
  2
_DOTSMALL
 10
5432.695229568674
 20
7589.800000000002
 30
0.0
 41
100.0
 42
100.0
 43
100.0
 50
90.0
  0
MTEXT
  5
30F8E
330
308BA
100
AcDbEntity
  8
寸法
 62
     7
 48
50.0
100
AcDbMText
 10
5332.695229568672
 20
7622.300000000002
 30
0.0
 40
120.0
 41
0.0
 71
     5
 72
     1
  1
\A1;c
  7
STYLE1
 11
0.0000000000000001
 21
1.0
 31
0.0
 73
     1
 44
1.0
1001
ACAD
1000
MTEXTBEGIN
1070
    73
1070
     1
1070
    44
1040
1.0
1070
    74
1070
     0
1000
MTEXTEND
  0
POINT
  5
30F8F
330
308BA
100
AcDbEntity
  8
DEFPOINTS
 62
     0
 48
50.0
100
AcDbPoint
 10
5678.188031706648
 20
7654.800000000001
 30
0.0
  0
POINT
  5
30F90
330
308BA
100
AcDbEntity
  8
DEFPOINTS
 62
     0
 48
50.0
100
AcDbPoint
 10
6418.600000000001
 20
7589.800000000001
 30
0.0
  0
POINT
  5
30F91
330
308BA
100
AcDbEntity
  8
DEFPOINTS
 62
     0
 48
50.0
100
AcDbPoint
 10
5432.695229568674
 20
7589.800000000002
 30
0.0
  0
ENDBLK
  5
308BC
330
308BA
100
AcDbEntity
  8
0
 48
50.0
100
AcDbBlockEnd
  0
BLOCK
  5
308C9
330
308C8
100
AcDbEntity
  8
0
 48
50.0
100
AcDbBlockBegin
  2
*D12
 70
     1
 10
0.0
 20
0.0
 30
0.0
  3
*D12
  1

  0
LINE
  5
30F92
330
308C8
100
AcDbEntity
  8
寸法
 62
     0
 48
50.0
370
    -2
100
AcDbLine
 10
6471.600000000015
 20
7456.800000000001
 30
0.0
 11
5618.18803170665
 21
7456.800000000002
 31
0.0
  0
LINE
  5
30F93
330
308C8
100
AcDbEntity
  8
寸法
 62
     0
 48
50.0
370
    -2
100
AcDbLine
 10
6471.600000000015
 20
5902.800000000001
 30
0.0
 11
5618.188031706648
 21
5902.800000000002
 31
0.0
  0
LINE
  5
30F94
330
308C8
100
AcDbEntity
  8
寸法
 62
     0
 48
50.0
370
    -2
100
AcDbLine
 10
5678.18803170665
 20
7456.800000000002
 30
0.0
 11
5678.188031706649
 21
5902.800000000002
 31
0.0
  0
INSERT
  5
30F95
330
308C8
100
AcDbEntity
  8
寸法
 62
     0
 48
50.0
370
    -2
100
AcDbBlockReference
  2
_DOTSMALL
 10
5678.18803170665
 20
7456.800000000002
 30
0.0
 41
100.0
 42
100.0
 43
100.0
 50
90.0
  0
INSERT
  5
30F96
330
308C8
100
AcDbEntity
  8
寸法
 62
     0
 48
50.0
370
    -2
100
AcDbBlockReference
  2
_DOTSMALL
 10
5678.188031706649
 20
5902.800000000002
 30
0.0
 41
100.0
 42
100.0
 43
100.0
 50
270.0
  0
MTEXT
  5
30F97
330
308C8
100
AcDbEntity
  8
寸法
 62
     7
 48
50.0
100
AcDbMText
 10
5578.188031706648
 20
6679.800000000001
 30
0.0
 40
120.0
 41
0.0
 71
     5
 72
     1
  1
\A1;1554
  7
STYLE1
 11
0.0000000000000001
 21
1.0
 31
0.0
 73
     1
 44
1.0
1001
ACAD
1000
MTEXTBEGIN
1070
    73
1070
     1
1070
    44
1040
1.0
1070
    74
1070
     0
1000
MTEXTEND
  0
POINT
  5
30F98
330
308C8
100
AcDbEntity
  8
DEFPOINTS
 62
     0
 48
50.0
100
AcDbPoint
 10
6491.600000000016
 20
7456.800000000001
 30
0.0
  0
POINT
  5
30F99
330
308C8
100
AcDbEntity
  8
DEFPOINTS
 62
     0
 48
50.0
100
AcDbPoint
 10
6491.600000000016
 20
5902.800000000001
 30
0.0
  0
POINT
  5
30F9A
330
308C8
100
AcDbEntity
  8
DEFPOINTS
 62
     0
 48
50.0
100
AcDbPoint
 10
5678.188031706649
 20
5902.800000000002
 30
0.0
  0
ENDBLK
  5
308CA
330
308C8
100
AcDbEntity
  8
0
 48
50.0
100
AcDbBlockEnd
  0
BLOCK
  5
308D5
330
308D4
100
AcDbEntity
  8
0
 48
50.0
100
AcDbBlockBegin
  2
*D13
 70
     1
 10
0.0
 20
0.0
 30
0.0
  3
*D13
  1

  0
LINE
  5
30F9B
330
308D4
100
AcDbEntity
  8
寸法
 62
     0
 48
50.0
370
    -2
100
AcDbLine
 10
6398.6
 20
7589.800000000001
 30
0.0
 11
5372.695229568675
 21
7589.800000000002
 31
0.0
  0
LINE
  5
30F9C
330
308D4
100
AcDbEntity
  8
寸法
 62
     0
 48
50.0
370
    -2
100
AcDbLine
 10
6388.600000000015
 20
5704.799999999987
 30
0.0
 11
5372.695229568674
 21
5704.799999999988
 31
0.0
  0
LINE
  5
30F9D
330
308D4
100
AcDbEntity
  8
寸法
 62
     0
 48
50.0
370
    -2
100
AcDbLine
 10
5432.695229568675
 20
7589.800000000002
 30
0.0
 11
5432.695229568675
 21
5704.799999999988
 31
0.0
  0
INSERT
  5
30F9E
330
308D4
100
AcDbEntity
  8
寸法
 62
     0
 48
50.0
370
    -2
100
AcDbBlockReference
  2
_DOTSMALL
 10
5432.695229568675
 20
7589.800000000002
 30
0.0
 41
100.0
 42
100.0
 43
100.0
 50
90.0
  0
INSERT
  5
30F9F
330
308D4
100
AcDbEntity
  8
寸法
 62
     0
 48
50.0
370
    -2
100
AcDbBlockReference
  2
_DOTSMALL
 10
5432.695229568675
 20
5704.799999999988
 30
0.0
 41
100.0
 42
100.0
 43
100.0
 50
270.0
  0
MTEXT
  5
30FA0
330
308D4
100
AcDbEntity
  8
寸法
 62
     7
 48
50.0
100
AcDbMText
 10
5332.695229568674
 20
6647.299999999994
 30
0.0
 40
120.0
 41
0.0
 71
     5
 72
     1
  1
\A1;1885
  7
STYLE1
 11
0.0000000000000001
 21
1.0
 31
0.0
 73
     1
 44
1.0
1001
ACAD
1000
MTEXTBEGIN
1070
    73
1070
     1
1070
    44
1040
1.0
1070
    74
1070
     0
1000
MTEXTEND
  0
POINT
  5
30FA1
330
308D4
100
AcDbEntity
  8
DEFPOINTS
 62
     0
 48
50.0
100
AcDbPoint
 10
6418.600000000001
 20
7589.800000000001
 30
0.0
  0
POINT
  5
30FA2
330
308D4
100
AcDbEntity
  8
DEFPOINTS
 62
     0
 48
50.0
100
AcDbPoint
 10
6408.600000000015
 20
5704.799999999987
 30
0.0
  0
POINT
  5
30FA3
330
308D4
100
AcDbEntity
  8
DEFPOINTS
 62
     0
 48
50.0
100
AcDbPoint
 10
5432.695229568675
 20
5704.799999999988
 30
0.0
  0
ENDBLK
  5
308D6
330
308D4
100
AcDbEntity
  8
0
 48
50.0
100
AcDbBlockEnd
  0
BLOCK
  5
308E1
330
308E0
100
AcDbEntity
  8
0
 48
50.0
100
AcDbBlockBegin
  2
*D14
 70
     1
 10
0.0
 20
0.0
 30
0.0
  3
*D14
  1

  0
LINE
  5
30FA4
330
308E0
100
AcDbEntity
  8
寸法
 62
     0
 48
50.0
370
    -2
100
AcDbLine
 10
6398.6
 20
7589.800000000001
 30
0.0
 11
5618.188031706648
 21
7589.800000000002
 31
0.0
  0
LINE
  5
30FA5
330
308E0
100
AcDbEntity
  8
寸法
 62
     0
 48
50.0
370
    -2
100
AcDbLine
 10
6471.600000000015
 20
7456.800000000001
 30
0.0
 11
5618.188031706648
 21
7456.800000000002
 31
0.0
  0
LINE
  5
30FA6
330
308E0
100
AcDbEntity
  8
寸法
 62
     0
 48
50.0
370
    -2
100
AcDbLine
 10
5678.188031706649
 20
7456.800000000002
 30
0.0
 11
5678.188031706649
 21
7589.800000000002
 31
0.0
  0
LINE
  5
30FA7
330
308E0
100
AcDbEntity
  8
寸法
 62
     0
 48
50.0
370
    -2
100
AcDbLine
 10
5678.188031706649
 20
7589.800000000002
 30
0.0
 11
5678.188031706649
 21
7991.391883092034
 31
0.0
  0
INSERT
  5
30FA8
330
308E0
100
AcDbEntity
  8
寸法
 62
     0
 48
50.0
370
    -2
100
AcDbBlockReference
  2
_DOTSMALL
 10
5678.188031706649
 20
7456.800000000002
 30
0.0
 41
100.0
 42
100.0
 43
100.0
 50
270.0
  0
INSERT
  5
30FA9
330
308E0
100
AcDbEntity
  8
寸法
 62
     0
 48
50.0
370
    -2
100
AcDbBlockReference
  2
_DOTSMALL
 10
5678.188031706649
 20
7589.800000000002
 30
0.0
 41
100.0
 42
100.0
 43
100.0
 50
90.0
  0
MTEXT
  5
30FAA
330
308E0
100
AcDbEntity
  8
寸法
 62
     7
 48
50.0
100
AcDbMText
 10
5578.188031706648
 20
7852.906601717795
 30
0.0
 40
120.0
 41
0.0
 71
     5
 72
     1
  1
\A1;133
  7
STYLE1
 11
0.0000000000000001
 21
1.0
 31
0.0
 73
     1
 44
1.0
1001
ACAD
1000
MTEXTBEGIN
1070
    73
1070
     1
1070
    44
1040
1.0
1070
    74
1070
     0
1000
MTEXTEND
  0
POINT
  5
30FAB
330
308E0
100
AcDbEntity
  8
DEFPOINTS
 62
     0
 48
50.0
100
AcDbPoint
 10
6418.600000000001
 20
7589.800000000001
 30
0.0
  0
POINT
  5
30FAC
330
308E0
100
AcDbEntity
  8
DEFPOINTS
 62
     0
 48
50.0
100
AcDbPoint
 10
6491.600000000016
 20
7456.800000000001
 30
0.0
  0
POINT
  5
30FAD
330
308E0
100
AcDbEntity
  8
DEFPOINTS
 62
     0
 48
50.0
100
AcDbPoint
 10
5678.188031706649
 20
7456.800000000002
 30
0.0
  0
ENDBLK
  5
308E2
330
308E0
100
AcDbEntity
  8
0
 48
50.0
100
AcDbBlockEnd
  0
BLOCK
  5
308EE
330
308ED
100
AcDbEntity
  8
0
 48
50.0
100
AcDbBlockBegin
  2
*D15
 70
     1
 10
0.0
 20
0.0
 30
0.0
  3
*D15
  1

  0
LINE
  5
314DB
330
308ED
100
AcDbEntity
  8
寸法
 62
     0
 48
50.0
370
    -2
100
AcDbLine
 10
6388.600000000015
 20
5704.800000000016
 30
0.0
 11
5878.510274901734
 21
5704.800000000016
 31
0.0
  0
LINE
  5
314DC
330
308ED
100
AcDbEntity
  8
寸法
 62
     0
 48
50.0
370
    -2
100
AcDbLine
 10
7203.600000000022
 20
6679.800000000034
 30
0.0
 11
5878.510274901735
 21
6679.800000000034
 31
0.0
  0
LINE
  5
314DD
330
308ED
100
AcDbEntity
  8
寸法
 62
     0
 48
50.0
370
    -2
100
AcDbLine
 10
5938.510274901734
 20
5704.800000000016
 30
0.0
 11
5938.510274901735
 21
6679.800000000034
 31
0.0
  0
INSERT
  5
314DE
330
308ED
100
AcDbEntity
  8
寸法
 62
     0
 48
50.0
370
    -2
100
AcDbBlockReference
  2
_DOTSMALL
 10
5938.510274901734
 20
5704.800000000016
 30
0.0
 41
100.0
 42
100.0
 43
100.0
 50
270.0
  0
INSERT
  5
314DF
330
308ED
100
AcDbEntity
  8
寸法
 62
     0
 48
50.0
370
    -2
100
AcDbBlockReference
  2
_DOTSMALL
 10
5938.510274901735
 20
6679.800000000034
 30
0.0
 41
100.0
 42
100.0
 43
100.0
 50
90.0
  0
MTEXT
  5
314E0
330
308ED
100
AcDbEntity
  8
寸法
 62
     7
 48
50.0
100
AcDbMText
 10
5838.510274901733
 20
6194.800000000022
 30
0.0
 40
120.0
 41
0.0
 71
     5
 72
     1
  1
\A1;975
  7
STYLE1
 11
0.0000000000000001
 21
1.0
 31
0.0
 73
     1
 44
1.0
1001
ACAD
1000
MTEXTBEGIN
1070
    73
1070
     1
1070
    44
1040
1.0
1070
    74
1070
     0
1000
MTEXTEND
  0
POINT
  5
314E1
330
308ED
100
AcDbEntity
  8
DEFPOINTS
 62
     0
 48
50.0
100
AcDbPoint
 10
6408.600000000015
 20
5704.800000000016
 30
0.0
  0
POINT
  5
314E2
330
308ED
100
AcDbEntity
  8
DEFPOINTS
 62
     0
 48
50.0
100
AcDbPoint
 10
7223.600000000022
 20
6679.800000000034
 30
0.0
  0
POINT
  5
314E3
330
308ED
100
AcDbEntity
  8
DEFPOINTS
 62
     0
 48
50.0
100
AcDbPoint
 10
5938.510274901735
 20
6679.800000000034
 30
0.0
  0
ENDBLK
  5
308EF
330
308ED
100
AcDbEntity
  8
0
 48
50.0
100
AcDbBlockEnd
  0
BLOCK
  5
308FA
330
308F9
100
AcDbEntity
  8
0
 48
50.0
100
AcDbBlockBegin
  2
*D16
 70
     1
 10
0.0
 20
0.0
 30
0.0
  3
*D16
  1

  0
LINE
  5
314E4
330
308F9
100
AcDbEntity
  8
寸法
 62
     0
 48
50.0
370
    -2
100
AcDbLine
 10
7203.600000000022
 20
6679.800000000034
 30
0.0
 11
5878.510274901728
 21
6679.800000000034
 31
0.0
  0
LINE
  5
314E5
330
308F9
100
AcDbEntity
  8
寸法
 62
     0
 48
50.0
370
    -2
100
AcDbLine
 10
6398.6
 20
7589.800000000001
 30
0.0
 11
5878.510274901728
 21
7589.800000000002
 31
0.0
  0
LINE
  5
314E6
330
308F9
100
AcDbEntity
  8
寸法
 62
     0
 48
50.0
370
    -2
100
AcDbLine
 10
5938.510274901728
 20
6679.800000000034
 30
0.0
 11
5938.510274901728
 21
7589.800000000002
 31
0.0
  0
INSERT
  5
314E7
330
308F9
100
AcDbEntity
  8
寸法
 62
     0
 48
50.0
370
    -2
100
AcDbBlockReference
  2
_DOTSMALL
 10
5938.510274901728
 20
6679.800000000034
 30
0.0
 41
100.0
 42
100.0
 43
100.0
 50
270.0
  0
INSERT
  5
314E8
330
308F9
100
AcDbEntity
  8
寸法
 62
     0
 48
50.0
370
    -2
100
AcDbBlockReference
  2
_DOTSMALL
 10
5938.510274901728
 20
7589.800000000002
 30
0.0
 41
100.0
 42
100.0
 43
100.0
 50
90.0
  0
MTEXT
  5
314E9
330
308F9
100
AcDbEntity
  8
寸法
 62
     7
 48
50.0
100
AcDbMText
 10
5838.510274901726
 20
7137.300000000019
 30
0.0
 40
120.0
 41
0.0
 71
     5
 72
     1
  1
\A1;910
  7
STYLE1
 11
0.0000000000000001
 21
1.0
 31
0.0
 73
     1
 44
1.0
1001
ACAD
1000
MTEXTBEGIN
1070
    73
1070
     1
1070
    44
1040
1.0
1070
    74
1070
     0
1000
MTEXTEND
  0
POINT
  5
314EA
330
308F9
100
AcDbEntity
  8
DEFPOINTS
 62
     0
 48
50.0
100
AcDbPoint
 10
7223.600000000022
 20
6679.800000000034
 30
0.0
  0
POINT
  5
314EB
330
308F9
100
AcDbEntity
  8
DEFPOINTS
 62
     0
 48
50.0
100
AcDbPoint
 10
6418.600000000001
 20
7589.800000000001
 30
0.0
  0
POINT
  5
314EC
330
308F9
100
AcDbEntity
  8
DEFPOINTS
 62
     0
 48
50.0
100
AcDbPoint
 10
5938.510274901728
 20
7589.800000000002
 30
0.0
  0
ENDBLK
  5
308FB
330
308F9
100
AcDbEntity
  8
0
 48
50.0
100
AcDbBlockEnd
  0
BLOCK
  5
30906
330
30905
100
AcDbEntity
  8
0
 48
50.0
100
AcDbBlockBegin
  2
*D17
 70
     1
 10
0.0
 20
0.0
 30
0.0
  3
*D17
  1

  0
LINE
  5
30FC0
330
30905
100
AcDbEntity
  8
寸法
 62
     0
 48
50.0
370
    -2
100
AcDbLine
 10
6471.600000000015
 20
5902.800000000001
 30
0.0
 11
5618.188031706634
 21
5902.800000000002
 31
0.0
  0
LINE
  5
30FC1
330
30905
100
AcDbEntity
  8
寸法
 62
     0
 48
50.0
370
    -2
100
AcDbLine
 10
6388.600000000015
 20
5704.800000000016
 30
0.0
 11
5618.188031706634
 21
5704.800000000016
 31
0.0
  0
LINE
  5
30FC2
330
30905
100
AcDbEntity
  8
寸法
 62
     0
 48
50.0
370
    -2
100
AcDbLine
 10
5678.188031706635
 20
5902.800000000002
 30
0.0
 11
5678.188031706635
 21
5704.800000000016
 31
0.0
  0
LINE
  5
30FC3
330
30905
100
AcDbEntity
  8
寸法
 62
     0
 48
50.0
370
    -2
100
AcDbLine
 10
5678.188031706635
 20
5704.800000000016
 30
0.0
 11
5678.188031706635
 21
5320.844097409502
 31
0.0
  0
INSERT
  5
30FC4
330
30905
100
AcDbEntity
  8
寸法
 62
     0
 48
50.0
370
    -2
100
AcDbBlockReference
  2
_DOTSMALL
 10
5678.188031706635
 20
5902.800000000002
 30
0.0
 41
100.0
 42
100.0
 43
100.0
 50
90.0
  0
INSERT
  5
30FC5
330
30905
100
AcDbEntity
  8
寸法
 62
     0
 48
50.0
370
    -2
100
AcDbBlockReference
  2
_DOTSMALL
 10
5678.188031706635
 20
5704.800000000016
 30
0.0
 41
100.0
 42
100.0
 43
100.0
 50
270.0
  0
MTEXT
  5
30FC6
330
30905
100
AcDbEntity
  8
寸法
 62
     7
 48
50.0
100
AcDbMText
 10
5578.188031706634
 20
5457.053757239161
 30
0.0
 40
120.0
 41
0.0
 71
     5
 72
     1
  1
\A1;198
  7
STYLE1
 11
0.0000000000000001
 21
1.0
 31
0.0
 73
     1
 44
1.0
1001
ACAD
1000
MTEXTBEGIN
1070
    73
1070
     1
1070
    44
1040
1.0
1070
    74
1070
     0
1000
MTEXTEND
  0
POINT
  5
30FC7
330
30905
100
AcDbEntity
  8
DEFPOINTS
 62
     0
 48
50.0
100
AcDbPoint
 10
6491.600000000016
 20
5902.800000000001
 30
0.0
  0
POINT
  5
30FC8
330
30905
100
AcDbEntity
  8
DEFPOINTS
 62
     0
 48
50.0
100
AcDbPoint
 10
6408.600000000015
 20
5704.800000000016
 30
0.0
  0
POINT
  5
30FC9
330
30905
100
AcDbEntity
  8
DEFPOINTS
 62
     0
 48
50.0
100
AcDbPoint
 10
5678.188031706635
 20
5704.800000000016
 30
0.0
  0
ENDBLK
  5
30907
330
30905
100
AcDbEntity
  8
0
 48
50.0
100
AcDbBlockEnd
  0
BLOCK
  5
30913
330
30912
100
AcDbEntity
  8
0
 48
50.0
100
AcDbBlockBegin
  2
*D18
 70
     1
 10
0.0
 20
0.0
 30
0.0
  3
*D18
  1

  0
LINE
  5
30E67
330
30912
100
AcDbEntity
  8
寸法
 62
     0
 48
50.0
370
    -2
100
AcDbLine
 10
6373.600000000015
 20
8203.383981502032
 30
0.0
 11
6373.600000000015
 21
8455.844677018857
 31
0.0
  0
LINE
  5
30E68
330
30912
100
AcDbEntity
  8
寸法
 62
     0
 48
50.0
370
    -2
100
AcDbLine
 10
6408.600000000015
 20
7609.800000000001
 30
0.0
 11
6408.600000000015
 21
8455.844677018857
 31
0.0
  0
LINE
  5
30E69
330
30912
100
AcDbEntity
  8
寸法
 62
     0
 48
50.0
370
    -2
100
AcDbLine
 10
6408.600000000015
 20
8395.844677018857
 30
0.0
 11
6508.600000000015
 21
8395.844677018857
 31
0.0
  0
LINE
  5
30E6A
330
30912
100
AcDbEntity
  8
寸法
 62
     0
 48
50.0
370
    -2
100
AcDbLine
 10
6373.600000000015
 20
8395.844677018857
 30
0.0
 11
6041.250757595097
 21
8395.844677018857
 31
0.0
  0
LINE
  5
30E6B
330
30912
100
AcDbEntity
  8
寸法
 62
     0
 48
50.0
370
    -2
100
AcDbLine
 10
6408.600000000015
 20
8395.844677018857
 30
0.0
 11
6373.600000000015
 21
8395.844677018857
 31
0.0
  0
INSERT
  5
30E6C
330
30912
100
AcDbEntity
  8
寸法
 62
     0
 48
50.0
370
    -2
100
AcDbBlockReference
  2
_DOTSMALL
 10
6408.600000000015
 20
8395.844677018857
 30
0.0
 41
100.0
 42
100.0
 43
100.0
 50
180.0
  0
INSERT
  5
30E6D
330
30912
100
AcDbEntity
  8
寸法
 62
     0
 48
50.0
370
    -2
100
AcDbBlockReference
  2
_DOTSMALL
 10
6373.600000000015
 20
8395.844677018857
 30
0.0
 41
100.0
 42
100.0
 43
100.0
  0
MTEXT
  5
30E6E
330
30912
100
AcDbEntity
  8
寸法
 62
     7
 48
50.0
100
AcDbMText
 10
6107.425378797556
 20
8495.844677018856
 30
0.0
 40
120.0
 41
0.0
 71
     5
 72
     1
  1
\A1;a
  7
STYLE1
 73
     1
 44
1.0
1001
ACAD
1000
MTEXTBEGIN
1070
    73
1070
     1
1070
    44
1040
1.0
1070
    74
1070
     0
1000
MTEXTEND
  0
POINT
  5
30E6F
330
30912
100
AcDbEntity
  8
DEFPOINTS
 62
     0
 48
50.0
100
AcDbPoint
 10
6373.600000000015
 20
8183.38398150203
 30
0.0
  0
POINT
  5
30E70
330
30912
100
AcDbEntity
  8
DEFPOINTS
 62
     0
 48
50.0
100
AcDbPoint
 10
6408.600000000015
 20
7589.800000000001
 30
0.0
  0
POINT
  5
30E71
330
30912
100
AcDbEntity
  8
DEFPOINTS
 62
     0
 48
50.0
100
AcDbPoint
 10
6408.600000000015
 20
8395.844677018857
 30
0.0
  0
ENDBLK
  5
30914
330
30912
100
AcDbEntity
  8
0
 48
50.0
100
AcDbBlockEnd
  0
BLOCK
  5
30921
330
30920
100
AcDbEntity
  8
0
 48
50.0
100
AcDbBlockBegin
  2
*D19
 70
     1
 10
0.0
 20
0.0
 30
0.0
  3
*D19
  1

  0
LINE
  5
3162F
330
30920
100
AcDbEntity
  8
寸法
 62
     0
 48
50.0
370
    -2
100
AcDbLine
 10
6408.600000000015
 20
7609.800000000001
 30
0.0
 11
6408.600000000015
 21
8455.844677018857
 31
0.0
  0
LINE
  5
31630
330
30920
100
AcDbEntity
  8
寸法
 62
     0
 48
50.0
370
    -2
100
AcDbLine
 10
10038.59999999998
 20
7599.800000000001
 30
0.0
 11
10038.59999999998
 21
8455.844677018857
 31
0.0
  0
LINE
  5
31631
330
30920
100
AcDbEntity
  8
寸法
 62
     0
 48
50.0
370
    -2
100
AcDbLine
 10
6408.600000000015
 20
8395.844677018857
 30
0.0
 11
10038.59999999998
 21
8395.844677018857
 31
0.0
  0
INSERT
  5
31632
330
30920
100
AcDbEntity
  8
寸法
 62
     0
 48
50.0
370
    -2
100
AcDbBlockReference
  2
_DOTSMALL
 10
6408.600000000015
 20
8395.844677018857
 30
0.0
 41
100.0
 42
100.0
 43
100.0
 50
180.0
  0
INSERT
  5
31633
330
30920
100
AcDbEntity
  8
寸法
 62
     0
 48
50.0
370
    -2
100
AcDbBlockReference
  2
_DOTSMALL
 10
10038.59999999998
 20
8395.844677018857
 30
0.0
 41
100.0
 42
100.0
 43
100.0
  0
MTEXT
  5
31634
330
30920
100
AcDbEntity
  8
寸法
 62
     7
 48
50.0
100
AcDbMText
 10
8223.600000000001
 20
8495.844677018856
 30
0.0
 40
120.0
 41
0.0
 71
     5
 72
     1
  1
\A1;3630
  7
STYLE1
 73
     1
 44
1.0
1001
ACAD
1000
MTEXTBEGIN
1070
    73
1070
     1
1070
    44
1040
1.0
1070
    74
1070
     0
1000
MTEXTEND
  0
POINT
  5
31635
330
30920
100
AcDbEntity
  8
DEFPOINTS
 62
     0
 48
50.0
100
AcDbPoint
 10
6408.600000000015
 20
7589.800000000001
 30
0.0
  0
POINT
  5
31636
330
30920
100
AcDbEntity
  8
DEFPOINTS
 62
     0
 48
50.0
100
AcDbPoint
 10
10038.59999999998
 20
7579.800000000002
 30
0.0
  0
POINT
  5
31637
330
30920
100
AcDbEntity
  8
DEFPOINTS
 62
     0
 48
50.0
100
AcDbPoint
 10
10038.59999999998
 20
8395.844677018857
 30
0.0
  0
ENDBLK
  5
30922
330
30920
100
AcDbEntity
  8
0
 48
50.0
100
AcDbBlockEnd
  0
BLOCK
  5
3092D
330
3092C
100
AcDbEntity
  8
0
 48
50.0
100
AcDbBlockBegin
  2
*D20
 70
     1
 10
0.0
 20
0.0
 30
0.0
  3
*D20
  1

  0
LINE
  5
30E7B
330
3092C
100
AcDbEntity
  8
寸法
 62
     0
 48
50.0
370
    -2
100
AcDbLine
 10
9923.600000000014
 20
7609.800000000001
 30
0.0
 11
9923.600000000014
 21
8243.383981502031
 31
0.0
  0
LINE
  5
30E7C
330
3092C
100
AcDbEntity
  8
寸法
 62
     0
 48
50.0
370
    -2
100
AcDbLine
 10
8095.600000000015
 20
7526.800000000001
 30
0.0
 11
8095.600000000015
 21
8243.383981502031
 31
0.0
  0
LINE
  5
30E7D
330
3092C
100
AcDbEntity
  8
寸法
 62
     0
 48
50.0
370
    -2
100
AcDbLine
 10
9923.600000000014
 20
8183.38398150203
 30
0.0
 11
8095.600000000015
 21
8183.38398150203
 31
0.0
  0
INSERT
  5
30E7E
330
3092C
100
AcDbEntity
  8
寸法
 62
     0
 48
50.0
370
    -2
100
AcDbBlockReference
  2
_DOTSMALL
 10
9923.600000000014
 20
8183.38398150203
 30
0.0
 41
100.0
 42
100.0
 43
100.0
  0
INSERT
  5
30E7F
330
3092C
100
AcDbEntity
  8
寸法
 62
     0
 48
50.0
370
    -2
100
AcDbBlockReference
  2
_DOTSMALL
 10
8095.600000000015
 20
8183.38398150203
 30
0.0
 41
100.0
 42
100.0
 43
100.0
 50
180.0
  0
MTEXT
  5
30E80
330
3092C
100
AcDbEntity
  8
寸法
 62
     7
 48
50.0
100
AcDbMText
 10
9009.600000000014
 20
8283.395792525652
 30
0.0
 40
120.0
 41
0.0
 71
     5
 72
     1
  1
\A1;1828
  7
STYLE1
 73
     1
 44
1.0
1001
ACAD
1000
MTEXTBEGIN
1070
    73
1070
     1
1070
    44
1040
1.0
1070
    74
1070
     0
1000
MTEXTEND
  0
POINT
  5
30E81
330
3092C
100
AcDbEntity
  8
DEFPOINTS
 62
     0
 48
50.0
100
AcDbPoint
 10
9923.600000000014
 20
7589.800000000001
 30
0.0
  0
POINT
  5
30E82
330
3092C
100
AcDbEntity
  8
DEFPOINTS
 62
     0
 48
50.0
100
AcDbPoint
 10
8095.600000000015
 20
7506.800000000001
 30
0.0
  0
POINT
  5
30E83
330
3092C
100
AcDbEntity
  8
DEFPOINTS
 62
     0
 48
50.0
100
AcDbPoint
 10
8095.600000000015
 20
8183.38398150203
 30
0.0
  0
ENDBLK
  5
3092E
330
3092C
100
AcDbEntity
  8
0
 48
50.0
100
AcDbBlockEnd
  0
BLOCK
  5
30939
330
30938
100
AcDbEntity
  8
0
 48
50.0
100
AcDbBlockBegin
  2
*D21
 70
     1
 10
0.0
 20
0.0
 30
0.0
  3
*D21
  1

  0
LINE
  5
30E84
330
30938
100
AcDbEntity
  8
寸法
 62
     0
 48
50.0
370
    -2
100
AcDbLine
 10
8095.600000000015
 20
7526.800000000001
 30
0.0
 11
8095.600000000015
 21
8243.383981502031
 31
0.0
  0
LINE
  5
30E85
330
30938
100
AcDbEntity
  8
寸法
 62
     0
 48
50.0
370
    -2
100
AcDbLine
 10
6541.600000000015
 20
7526.800000000001
 30
0.0
 11
6541.600000000015
 21
8243.383981502031
 31
0.0
  0
LINE
  5
30E86
330
30938
100
AcDbEntity
  8
寸法
 62
     0
 48
50.0
370
    -2
100
AcDbLine
 10
8095.600000000015
 20
8183.38398150203
 30
0.0
 11
6541.600000000015
 21
8183.38398150203
 31
0.0
  0
INSERT
  5
30E87
330
30938
100
AcDbEntity
  8
寸法
 62
     0
 48
50.0
370
    -2
100
AcDbBlockReference
  2
_DOTSMALL
 10
8095.600000000015
 20
8183.38398150203
 30
0.0
 41
100.0
 42
100.0
 43
100.0
  0
INSERT
  5
30E88
330
30938
100
AcDbEntity
  8
寸法
 62
     0
 48
50.0
370
    -2
100
AcDbBlockReference
  2
_DOTSMALL
 10
6541.600000000015
 20
8183.38398150203
 30
0.0
 41
100.0
 42
100.0
 43
100.0
 50
180.0
  0
MTEXT
  5
30E89
330
30938
100
AcDbEntity
  8
寸法
 62
     7
 48
50.0
100
AcDbMText
 10
7318.600000000015
 20
8283.383981502032
 30
0.0
 40
120.0
 41
0.0
 71
     5
 72
     1
  1
\A1;1554
  7
STYLE1
 73
     1
 44
1.0
1001
ACAD
1000
MTEXTBEGIN
1070
    73
1070
     1
1070
    44
1040
1.0
1070
    74
1070
     0
1000
MTEXTEND
  0
POINT
  5
30E8A
330
30938
100
AcDbEntity
  8
DEFPOINTS
 62
     0
 48
50.0
100
AcDbPoint
 10
8095.600000000015
 20
7506.800000000001
 30
0.0
  0
POINT
  5
30E8B
330
30938
100
AcDbEntity
  8
DEFPOINTS
 62
     0
 48
50.0
100
AcDbPoint
 10
6541.600000000015
 20
7506.800000000001
 30
0.0
  0
POINT
  5
30E8C
330
30938
100
AcDbEntity
  8
DEFPOINTS
 62
     0
 48
50.0
100
AcDbPoint
 10
6541.600000000015
 20
8183.38398150203
 30
0.0
  0
ENDBLK
  5
3093A
330
30938
100
AcDbEntity
  8
0
 48
50.0
100
AcDbBlockEnd
  0
BLOCK
  5
30945
330
30944
100
AcDbEntity
  8
0
 48
50.0
100
AcDbBlockBegin
  2
*D22
 70
     1
 10
0.0
 20
0.0
 30
0.0
  3
*D22
  1

  0
LINE
  5
30E8D
330
30944
100
AcDbEntity
  8
寸法
 62
     0
 48
50.0
370
    -2
100
AcDbLine
 10
6541.600000000015
 20
7526.800000000001
 30
0.0
 11
6541.600000000015
 21
8243.383981502031
 31
0.0
  0
LINE
  5
30E8E
330
30944
100
AcDbEntity
  8
寸法
 62
     0
 48
50.0
370
    -2
100
AcDbLine
 10
6408.600000000015
 20
7609.800000000001
 30
0.0
 11
6408.600000000015
 21
8243.383981502031
 31
0.0
  0
LINE
  5
30E8F
330
30944
100
AcDbEntity
  8
寸法
 62
     0
 48
50.0
370
    -2
100
AcDbLine
 10
6541.600000000015
 20
8183.38398150203
 30
0.0
 11
6408.600000000015
 21
8183.38398150203
 31
0.0
  0
LINE
  5
30E90
330
30944
100
AcDbEntity
  8
寸法
 62
     0
 48
50.0
370
    -2
100
AcDbLine
 10
6408.600000000015
 20
8183.38398150203
 30
0.0
 11
6007.008116907981
 21
8183.38398150203
 31
0.0
  0
INSERT
  5
30E91
330
30944
100
AcDbEntity
  8
寸法
 62
     0
 48
50.0
370
    -2
100
AcDbBlockReference
  2
_DOTSMALL
 10
6541.600000000015
 20
8183.38398150203
 30
0.0
 41
100.0
 42
100.0
 43
100.0
  0
INSERT
  5
30E92
330
30944
100
AcDbEntity
  8
寸法
 62
     0
 48
50.0
370
    -2
100
AcDbBlockReference
  2
_DOTSMALL
 10
6408.600000000015
 20
8183.38398150203
 30
0.0
 41
100.0
 42
100.0
 43
100.0
 50
180.0
  0
MTEXT
  5
30E93
330
30944
100
AcDbEntity
  8
寸法
 62
     7
 48
50.0
100
AcDbMText
 10
6145.49339828222
 20
8283.383981502032
 30
0.0
 40
120.0
 41
0.0
 71
     5
 72
     1
  1
\A1;133
  7
STYLE1
 73
     1
 44
1.0
1001
ACAD
1000
MTEXTBEGIN
1070
    73
1070
     1
1070
    44
1040
1.0
1070
    74
1070
     0
1000
MTEXTEND
  0
POINT
  5
30E94
330
30944
100
AcDbEntity
  8
DEFPOINTS
 62
     0
 48
50.0
100
AcDbPoint
 10
6541.600000000015
 20
7506.800000000001
 30
0.0
  0
POINT
  5
30E95
330
30944
100
AcDbEntity
  8
DEFPOINTS
 62
     0
 48
50.0
100
AcDbPoint
 10
6408.600000000015
 20
7589.800000000001
 30
0.0
  0
POINT
  5
30E96
330
30944
100
AcDbEntity
  8
DEFPOINTS
 62
     0
 48
50.0
100
AcDbPoint
 10
6408.600000000015
 20
8183.38398150203
 30
0.0
  0
ENDBLK
  5
30946
330
30944
100
AcDbEntity
  8
0
 48
50.0
100
AcDbBlockEnd
  0
BLOCK
  5
30952
330
30951
100
AcDbEntity
  8
0
 48
50.0
100
AcDbBlockBegin
  2
*D23
 70
     1
 10
0.0
 20
0.0
 30
0.0
  3
*D23
  1

  0
LINE
  5
30E97
330
30951
100
AcDbEntity
  8
寸法
 62
     0
 48
50.0
370
    -2
100
AcDbLine
 10
6825.896811861823
 20
7469.800000000017
 30
0.0
 11
6925.896811861817
 21
7469.800000000017
 31
0.0
  0
LINE
  5
30E98
330
30951
100
AcDbEntity
  8
寸法
 62
     0
 48
50.0
370
    -2
100
AcDbLine
 10
6825.896811861823
 20
7589.800000000001
 30
0.0
 11
6925.896811861817
 21
7589.800000000001
 31
0.0
  0
LINE
  5
30E99
330
30951
100
AcDbEntity
  8
寸法
 62
     0
 48
50.0
370
    -2
100
AcDbLine
 10
6865.896811861817
 20
7469.800000000017
 30
0.0
 11
6865.896811861817
 21
7589.800000000001
 31
0.0
  0
LINE
  5
30E9A
330
30951
100
AcDbEntity
  8
寸法
 62
     0
 48
50.0
370
    -2
100
AcDbLine
 10
6865.896811861817
 20
7589.800000000001
 30
0.0
 11
6865.896811861817
 21
7961.894488188981
 31
0.0
  0
INSERT
  5
30E9B
330
30951
100
AcDbEntity
  8
寸法
 62
     0
 48
50.0
370
    -2
100
AcDbBlockReference
  2
_DOTSMALL
 10
6865.896811861817
 20
7469.800000000017
 30
0.0
 41
100.0
 42
100.0
 43
100.0
 50
270.0
  0
INSERT
  5
30E9C
330
30951
100
AcDbEntity
  8
寸法
 62
     0
 48
50.0
370
    -2
100
AcDbBlockReference
  2
_DOTSMALL
 10
6865.896811861817
 20
7589.800000000001
 30
0.0
 41
100.0
 42
100.0
 43
100.0
 50
90.0
  0
MTEXT
  5
30E9D
330
30951
100
AcDbEntity
  8
寸法
 62
     7
 48
50.0
100
AcDbMText
 10
6765.885000838195
 20
7825.847244094496
 30
0.0
 40
120.0
 41
0.0
 71
     5
 72
     1
  1
\A1;120
  7
STYLE1
 11
0.0000000000000001
 21
1.0
 31
0.0
 73
     1
 44
1.0
1001
ACAD
1000
MTEXTBEGIN
1070
    73
1070
     1
1070
    44
1040
1.0
1070
    74
1070
     0
1000
MTEXTEND
  0
POINT
  5
30E9E
330
30951
100
AcDbEntity
  8
DEFPOINTS
 62
     0
 48
50.0
100
AcDbPoint
 10
6805.896811861824
 20
7469.800000000017
 30
0.0
  0
POINT
  5
30E9F
330
30951
100
AcDbEntity
  8
DEFPOINTS
 62
     0
 48
50.0
100
AcDbPoint
 10
6805.896811861824
 20
7589.800000000001
 30
0.0
  0
POINT
  5
30EA0
330
30951
100
AcDbEntity
  8
DEFPOINTS
 62
     0
 48
50.0
100
AcDbPoint
 10
6865.896811861817
 20
7589.800000000001
 30
0.0
  0
ENDBLK
  5
30953
330
30951
100
AcDbEntity
  8
0
 48
50.0
100
AcDbBlockEnd
  0
BLOCK
  5
3095F
330
3095E
100
AcDbEntity
  8
0
 48
50.0
100
AcDbBlockBegin
  2
*D24
 70
     1
 10
0.0
 20
0.0
 30
0.0
  3
*D24
  1

  0
LINE
  5
30EA1
330
3095E
100
AcDbEntity
  8
寸法
 62
     0
 48
50.0
370
    -2
100
AcDbLine
 10
6916.002954829814
 20
7469.800000000017
 30
0.0
 11
6805.896811861815
 21
7469.800000000017
 31
0.0
  0
LINE
  5
30EA2
330
3095E
100
AcDbEntity
  8
寸法
 62
     0
 48
50.0
370
    -2
100
AcDbLine
 10
6668.600000000001
 20
7349.799999999972
 30
0.0
 11
6925.896811861815
 21
7349.799999999972
 31
0.0
  0
LINE
  5
30EA3
330
3095E
100
AcDbEntity
  8
寸法
 62
     0
 48
50.0
370
    -2
100
AcDbLine
 10
6865.896811861816
 20
7469.800000000017
 30
0.0
 11
6865.896811861816
 21
7349.799999999972
 31
0.0
  0
MTEXT
  5
30EA4
330
3095E
100
AcDbEntity
  8
寸法
 62
     7
 48
50.0
100
AcDbMText
 10
6758.485005383199
 20
7213.004644282676
 30
0.0
 40
120.0
 41
0.0
 71
     5
 72
     1
  1
\A1;120
  7
STYLE1
 11
0.0000000000000001
 21
1.0
 31
0.0
 73
     1
 44
1.0
1001
ACAD
1000
MTEXTBEGIN
1070
    73
1070
     1
1070
    44
1040
1.0
1070
    74
1070
     0
1000
MTEXTEND
  0
INSERT
  5
30EA5
330
3095E
100
AcDbEntity
  8
寸法
 62
     0
 48
50.0
370
    -2
100
AcDbBlockReference
  2
_DOTSMALL
 10
6865.896811861816
 20
7469.800000000017
 30
0.0
 41
100.0
 42
100.0
 43
100.0
 50
90.0
  0
INSERT
  5
30EA6
330
3095E
100
AcDbEntity
  8
寸法
 62
     0
 48
50.0
370
    -2
100
AcDbBlockReference
  2
_DOTSMALL
 10
6865.896811861816
 20
7349.799999999972
 30
0.0
 41
100.0
 42
100.0
 43
100.0
 50
270.0
  0
POINT
  5
30EA7
330
3095E
100
AcDbEntity
  8
DEFPOINTS
 62
     0
 48
50.0
100
AcDbPoint
 10
6936.002954829813
 20
7469.800000000017
 30
0.0
  0
POINT
  5
30EA8
330
3095E
100
AcDbEntity
  8
DEFPOINTS
 62
     0
 48
50.0
100
AcDbPoint
 10
6648.6
 20
7349.799999999972
 30
0.0
  0
POINT
  5
30EA9
330
3095E
100
AcDbEntity
  8
DEFPOINTS
 62
     0
 48
50.0
100
AcDbPoint
 10
6865.896811861816
 20
7349.799999999972
 30
0.0
  0
ENDBLK
  5
30960
330
3095E
100
AcDbEntity
  8
0
 48
50.0
100
AcDbBlockEnd
  0
BLOCK
  5
3096B
330
3096A
100
AcDbEntity
  8
0
 48
50.0
100
AcDbBlockBegin
  2
*D25
 70
     1
 10
0.0
 20
0.0
 30
0.0
  3
*D25
  1

  0
LINE
  5
30EAA
330
3096A
100
AcDbEntity
  8
寸法
 62
     0
 48
50.0
370
    -2
100
AcDbLine
 10
8273.600000000014
 20
5684.800000000001
 30
0.0
 11
8273.600000000014
 21
5134.653362321709
 31
0.0
  0
LINE
  5
30EAB
330
3096A
100
AcDbEntity
  8
寸法
 62
     0
 48
50.0
370
    -2
100
AcDbLine
 10
6408.600000000015
 20
5684.799999999986
 30
0.0
 11
6408.600000000015
 21
5134.653362321709
 31
0.0
  0
LINE
  5
30EAC
330
3096A
100
AcDbEntity
  8
寸法
 62
     0
 48
50.0
370
    -2
100
AcDbLine
 10
8273.600000000014
 20
5194.653362321709
 30
0.0
 11
6408.600000000015
 21
5194.653362321709
 31
0.0
  0
INSERT
  5
30EAD
330
3096A
100
AcDbEntity
  8
寸法
 62
     0
 48
50.0
370
    -2
100
AcDbBlockReference
  2
_DOTSMALL
 10
8273.600000000014
 20
5194.653362321709
 30
0.0
 41
100.0
 42
100.0
 43
100.0
  0
INSERT
  5
30EAE
330
3096A
100
AcDbEntity
  8
寸法
 62
     0
 48
50.0
370
    -2
100
AcDbBlockReference
  2
_DOTSMALL
 10
6408.600000000015
 20
5194.653362321709
 30
0.0
 41
100.0
 42
100.0
 43
100.0
 50
180.0
  0
MTEXT
  5
30EAF
330
3096A
100
AcDbEntity
  8
寸法
 62
     7
 48
50.0
100
AcDbMText
 10
7341.100000000015
 20
5294.653362321709
 30
0.0
 40
120.0
 41
0.0
 71
     5
 72
     1
  1
\A1;1865
  7
STYLE1
 73
     1
 44
1.0
1001
ACAD
1000
MTEXTBEGIN
1070
    73
1070
     1
1070
    44
1040
1.0
1070
    74
1070
     0
1000
MTEXTEND
  0
POINT
  5
30EB0
330
3096A
100
AcDbEntity
  8
DEFPOINTS
 62
     0
 48
50.0
100
AcDbPoint
 10
8273.600000000014
 20
5704.800000000001
 30
0.0
  0
POINT
  5
30EB1
330
3096A
100
AcDbEntity
  8
DEFPOINTS
 62
     0
 48
50.0
100
AcDbPoint
 10
6408.600000000015
 20
5704.799999999987
 30
0.0
  0
POINT
  5
30EB2
330
3096A
100
AcDbEntity
  8
DEFPOINTS
 62
     0
 48
50.0
100
AcDbPoint
 10
6408.600000000015
 20
5194.653362321709
 30
0.0
  0
ENDBLK
  5
3096C
330
3096A
100
AcDbEntity
  8
0
 48
50.0
100
AcDbBlockEnd
  0
BLOCK
  5
30977
330
30976
100
AcDbEntity
  8
0
 48
50.0
100
AcDbBlockBegin
  2
*D26
 70
     1
 10
0.0
 20
0.0
 30
0.0
  3
*D26
  1

  0
LINE
  5
30EB3
330
30976
100
AcDbEntity
  8
寸法
 62
     0
 48
50.0
370
    -2
100
AcDbLine
 10
8293.600000000015
 20
5704.800000000016
 30
0.0
 11
8709.672863559488
 21
5704.800000000016
 31
0.0
  0
LINE
  5
30EB4
330
30976
100
AcDbEntity
  8
寸法
 62
     0
 48
50.0
370
    -2
100
AcDbLine
 10
8293.600000000015
 20
5779.800000000015
 30
0.0
 11
8709.672863559488
 21
5779.800000000015
 31
0.0
  0
LINE
  5
30EB5
330
30976
100
AcDbEntity
  8
寸法
 62
     0
 48
50.0
370
    -2
100
AcDbLine
 10
8649.672863559487
 20
5704.800000000016
 30
0.0
 11
8649.672863559487
 21
5604.800000000015
 31
0.0
  0
LINE
  5
30EB6
330
30976
100
AcDbEntity
  8
寸法
 62
     0
 48
50.0
370
    -2
100
AcDbLine
 10
8649.672863559487
 20
5779.800000000015
 30
0.0
 11
8649.672863559487
 21
6646.770562748509
 31
0.0
  0
LINE
  5
30EB7
330
30976
100
AcDbEntity
  8
寸法
 62
     0
 48
50.0
370
    -2
100
AcDbLine
 10
8649.672863559487
 20
5704.800000000016
 30
0.0
 11
8649.672863559487
 21
5779.800000000015
 31
0.0
  0
INSERT
  5
30EB8
330
30976
100
AcDbEntity
  8
寸法
 62
     0
 48
50.0
370
    -2
100
AcDbBlockReference
  2
_DOTSMALL
 10
8649.672863559487
 20
5704.800000000016
 30
0.0
 41
100.0
 42
100.0
 43
100.0
 50
90.0
  0
INSERT
  5
30EB9
330
30976
100
AcDbEntity
  8
寸法
 62
     0
 48
50.0
370
    -2
100
AcDbBlockReference
  2
_DOTSMALL
 10
8649.672863559487
 20
5779.800000000015
 30
0.0
 41
100.0
 42
100.0
 43
100.0
 50
270.0
  0
MTEXT
  5
30EBA
330
30976
100
AcDbEntity
  8
寸法
 62
     7
 48
50.0
100
AcDbMText
 10
8549.672863559486
 20
6313.28528137427
 30
0.0
 40
120.0
 41
0.0
 71
     5
 72
     1
  1
\A1;扉の出75
  7
STYLE1
 11
0.0000000000000001
 21
1.0
 31
0.0
 73
     1
 44
1.0
1001
ACAD
1000
MTEXTBEGIN
1070
    73
1070
     1
1070
    44
1040
1.0
1070
    74
1070
     0
1000
MTEXTEND
  0
POINT
  5
30EBB
330
30976
100
AcDbEntity
  8
DEFPOINTS
 62
     0
 48
50.0
100
AcDbPoint
 10
8273.600000000014
 20
5704.800000000016
 30
0.0
  0
POINT
  5
30EBC
330
30976
100
AcDbEntity
  8
DEFPOINTS
 62
     0
 48
50.0
100
AcDbPoint
 10
8273.600000000014
 20
5779.800000000015
 30
0.0
  0
POINT
  5
30EBD
330
30976
100
AcDbEntity
  8
DEFPOINTS
 62
     0
 48
50.0
100
AcDbPoint
 10
8649.672863559487
 20
5779.800000000015
 30
0.0
  0
ENDBLK
  5
30978
330
30976
100
AcDbEntity
  8
0
 48
50.0
100
AcDbBlockEnd
  0
BLOCK
  5
30985
330
30984
100
AcDbEntity
  8
0
 48
50.0
100
AcDbBlockBegin
  2
*D27
 70
     1
 10
0.0
 20
0.0
 30
0.0
  3
*D27
  1

  0
LINE
  5
30EBE
330
30984
100
AcDbEntity
  8
寸法
 62
     0
 48
50.0
370
    -2
100
AcDbLine
 10
10038.60000000004
 20
6865.469212102571
 30
0.0
 11
10038.60000000004
 21
6739.093800293774
 31
0.0
  0
LINE
  5
30EBF
330
30984
100
AcDbEntity
  8
寸法
 62
     0
 48
50.0
370
    -2
100
AcDbLine
 10
9918.600020404857
 20
6865.469212102571
 30
0.0
 11
9918.600020404857
 21
6739.093800293774
 31
0.0
  0
LINE
  5
30EC0
330
30984
100
AcDbEntity
  8
寸法
 62
     0
 48
50.0
370
    -2
100
AcDbLine
 10
10038.60000000004
 20
6799.093800293775
 30
0.0
 11
9918.600020404857
 21
6799.093800293775
 31
0.0
  0
LINE
  5
30EC1
330
30984
100
AcDbEntity
  8
寸法
 62
     0
 48
50.0
370
    -2
100
AcDbLine
 10
9918.600020404857
 20
6799.093800293775
 30
0.0
 11
9546.50553221588
 21
6799.093800293775
 31
0.0
  0
INSERT
  5
30EC2
330
30984
100
AcDbEntity
  8
寸法
 62
     0
 48
50.0
370
    -2
100
AcDbBlockReference
  2
_DOTSMALL
 10
10038.60000000004
 20
6799.093800293775
 30
0.0
 41
100.0
 42
100.0
 43
100.0
  0
INSERT
  5
30EC3
330
30984
100
AcDbEntity
  8
寸法
 62
     0
 48
50.0
370
    -2
100
AcDbBlockReference
  2
_DOTSMALL
 10
9918.600020404857
 20
6799.093800293775
 30
0.0
 41
100.0
 42
100.0
 43
100.0
 50
180.0
  0
MTEXT
  5
30EC4
330
30984
100
AcDbEntity
  8
寸法
 62
     7
 48
50.0
100
AcDbMText
 10
9682.552776310368
 20
6899.105611317397
 30
0.0
 40
120.0
 41
0.0
 71
     5
 72
     1
  1
\A1;120
  7
STYLE1
 73
     1
 44
1.0
1001
ACAD
1000
MTEXTBEGIN
1070
    73
1070
     1
1070
    44
1040
1.0
1070
    74
1070
     0
1000
MTEXTEND
  0
POINT
  5
30EC5
330
30984
100
AcDbEntity
  8
DEFPOINTS
 62
     0
 48
50.0
100
AcDbPoint
 10
10038.60000000004
 20
6885.46921210257
 30
0.0
  0
POINT
  5
30EC6
330
30984
100
AcDbEntity
  8
DEFPOINTS
 62
     0
 48
50.0
100
AcDbPoint
 10
9918.600020404857
 20
6885.46921210257
 30
0.0
  0
POINT
  5
30EC7
330
30984
100
AcDbEntity
  8
DEFPOINTS
 62
     0
 48
50.0
100
AcDbPoint
 10
9918.600020404857
 20
6799.093800293775
 30
0.0
  0
ENDBLK
  5
30986
330
30984
100
AcDbEntity
  8
0
 48
50.0
100
AcDbBlockEnd
  0
BLOCK
  5
30992
330
30991
100
AcDbEntity
  8
0
 48
50.0
100
AcDbBlockBegin
  2
*D28
 70
     1
 10
0.0
 20
0.0
 30
0.0
  3
*D28
  1

  0
LINE
  5
30EC8
330
30991
100
AcDbEntity
  8
寸法
 62
     0
 48
50.0
370
    -2
100
AcDbLine
 10
10038.60000000001
 20
7609.800000000001
 30
0.0
 11
10038.60000000001
 21
8243.383981502031
 31
0.0
  0
LINE
  5
30EC9
330
30991
100
AcDbEntity
  8
寸法
 62
     0
 48
50.0
370
    -2
100
AcDbLine
 10
9923.600000000014
 20
7609.800000000001
 30
0.0
 11
9923.600000000014
 21
8243.383981502031
 31
0.0
  0
LINE
  5
30ECA
330
30991
100
AcDbEntity
  8
寸法
 62
     0
 48
50.0
370
    -2
100
AcDbLine
 10
9923.600000000014
 20
8183.38398150203
 30
0.0
 11
10038.60000000001
 21
8183.38398150203
 31
0.0
  0
LINE
  5
30ECB
330
30991
100
AcDbEntity
  8
寸法
 62
     0
 48
50.0
370
    -2
100
AcDbLine
 10
10038.60000000001
 20
8183.38398150203
 30
0.0
 11
10391.57056274849
 21
8183.38398150203
 31
0.0
  0
INSERT
  5
30ECC
330
30991
100
AcDbEntity
  8
寸法
 62
     0
 48
50.0
370
    -2
100
AcDbBlockReference
  2
_DOTSMALL
 10
9923.600000000014
 20
8183.38398150203
 30
0.0
 41
100.0
 42
100.0
 43
100.0
 50
180.0
  0
INSERT
  5
30ECD
330
30991
100
AcDbEntity
  8
寸法
 62
     0
 48
50.0
370
    -2
100
AcDbBlockReference
  2
_DOTSMALL
 10
10038.60000000001
 20
8183.38398150203
 30
0.0
 41
100.0
 42
100.0
 43
100.0
  0
MTEXT
  5
30ECE
330
30991
100
AcDbEntity
  8
寸法
 62
     7
 48
50.0
100
AcDbMText
 10
10265.08528137425
 20
8283.383981502032
 30
0.0
 40
120.0
 41
0.0
 71
     5
 72
     1
  1
\A1;115
  7
STYLE1
 73
     1
 44
1.0
1001
ACAD
1000
MTEXTBEGIN
1070
    73
1070
     1
1070
    44
1040
1.0
1070
    74
1070
     0
1000
MTEXTEND
  0
POINT
  5
30ECF
330
30991
100
AcDbEntity
  8
DEFPOINTS
 62
     0
 48
50.0
100
AcDbPoint
 10
10038.60000000001
 20
7589.800000000001
 30
0.0
  0
POINT
  5
30ED0
330
30991
100
AcDbEntity
  8
DEFPOINTS
 62
     0
 48
50.0
100
AcDbPoint
 10
9923.600000000014
 20
7589.800000000001
 30
0.0
  0
POINT
  5
30ED1
330
30991
100
AcDbEntity
  8
DEFPOINTS
 62
     0
 48
50.0
100
AcDbPoint
 10
9923.600000000014
 20
8183.38398150203
 30
0.0
  0
ENDBLK
  5
30993
330
30991
100
AcDbEntity
  8
0
 48
50.0
100
AcDbBlockEnd
  0
BLOCK
  5
3099F
330
3099E
100
AcDbEntity
  8
0
 48
50.0
100
AcDbBlockBegin
  2
*D29
 70
     1
 10
0.0
 20
0.0
 30
0.0
  3
*D29
  1

  0
LINE
  5
30ED2
330
3099E
100
AcDbEntity
  8
寸法
 62
     0
 48
50.0
370
    -2
100
AcDbLine
 10
10058.60000000001
 20
7589.800000000001
 30
0.0
 11
10613.76059822474
 21
7589.800000000001
 31
0.0
  0
LINE
  5
30ED3
330
3099E
100
AcDbEntity
  8
寸法
 62
     0
 48
50.0
370
    -2
100
AcDbLine
 10
9993.600000000014
 20
7539.800000000001
 30
0.0
 11
10613.76059822474
 21
7539.800000000001
 31
0.0
  0
LINE
  5
30ED4
330
3099E
100
AcDbEntity
  8
寸法
 62
     0
 48
50.0
370
    -2
100
AcDbLine
 10
10553.76059822474
 20
7539.800000000001
 30
0.0
 11
10553.76059822474
 21
7439.800000000001
 31
0.0
  0
LINE
  5
30ED5
330
3099E
100
AcDbEntity
  8
寸法
 62
     0
 48
50.0
370
    -2
100
AcDbLine
 10
10553.76059822474
 20
7589.800000000001
 30
0.0
 11
10553.76059822474
 21
8001.894488188987
 31
0.0
  0
LINE
  5
30ED6
330
3099E
100
AcDbEntity
  8
寸法
 62
     0
 48
50.0
370
    -2
100
AcDbLine
 10
10553.76059822474
 20
7539.800000000001
 30
0.0
 11
10553.76059822474
 21
7589.800000000001
 31
0.0
  0
INSERT
  5
30ED7
330
3099E
100
AcDbEntity
  8
寸法
 62
     0
 48
50.0
370
    -2
100
AcDbBlockReference
  2
_DOTSMALL
 10
10553.76059822474
 20
7539.800000000001
 30
0.0
 41
100.0
 42
100.0
 43
100.0
 50
90.0
  0
INSERT
  5
30ED8
330
3099E
100
AcDbEntity
  8
寸法
 62
     0
 48
50.0
370
    -2
100
AcDbBlockReference
  2
_DOTSMALL
 10
10553.76059822474
 20
7589.800000000001
 30
0.0
 41
100.0
 42
100.0
 43
100.0
 50
270.0
  0
MTEXT
  5
30ED9
330
3099E
100
AcDbEntity
  8
寸法
 62
     7
 48
50.0
100
AcDbMText
 10
10453.76059822474
 20
7895.847244094503
 30
0.0
 40
120.0
 41
0.0
 71
     5
 72
     1
  1
\A1;50
  7
STYLE1
 11
0.0000000000000001
 21
1.0
 31
0.0
 73
     1
 44
1.0
1001
ACAD
1000
MTEXTBEGIN
1070
    73
1070
     1
1070
    44
1040
1.0
1070
    74
1070
     0
1000
MTEXTEND
  0
POINT
  5
30EDA
330
3099E
100
AcDbEntity
  8
DEFPOINTS
 62
     0
 48
50.0
100
AcDbPoint
 10
10038.60000000001
 20
7589.800000000001
 30
0.0
  0
POINT
  5
30EDB
330
3099E
100
AcDbEntity
  8
DEFPOINTS
 62
     0
 48
50.0
100
AcDbPoint
 10
9973.600000000015
 20
7539.800000000001
 30
0.0
  0
POINT
  5
30EDC
330
3099E
100
AcDbEntity
  8
DEFPOINTS
 62
     0
 48
50.0
100
AcDbPoint
 10
10553.76059822474
 20
7539.800000000001
 30
0.0
  0
ENDBLK
  5
309A0
330
3099E
100
AcDbEntity
  8
0
 48
50.0
100
AcDbBlockEnd
  0
BLOCK
  5
309AD
330
309AC
100
AcDbEntity
  8
0
 48
50.0
100
AcDbBlockBegin
  2
*D30
 70
     1
 10
0.0
 20
0.0
 30
0.0
  3
*D30
  1

  0
LINE
  5
314C9
330
309AC
100
AcDbEntity
  8
寸法
 62
     0
 48
50.0
370
    -2
100
AcDbLine
 10
6408.600000000015
 20
6469.800000000033
 30
0.0
 11
6408.600000000015
 21
6321.03034104989
 31
0.0
  0
LINE
  5
314CA
330
309AC
100
AcDbEntity
  8
寸法
 62
     0
 48
50.0
370
    -2
100
AcDbLine
 10
7318.600000000022
 20
6464.800000000034
 30
0.0
 11
7318.600000000022
 21
6321.03034104989
 31
0.0
  0
LINE
  5
314CB
330
309AC
100
AcDbEntity
  8
寸法
 62
     0
 48
50.0
370
    -2
100
AcDbLine
 10
6408.600000000015
 20
6381.030341049891
 30
0.0
 11
7318.600000000022
 21
6381.030341049891
 31
0.0
  0
INSERT
  5
314CC
330
309AC
100
AcDbEntity
  8
寸法
 62
     0
 48
50.0
370
    -2
100
AcDbBlockReference
  2
_DOTSMALL
 10
6408.600000000015
 20
6381.030341049891
 30
0.0
 41
100.0
 42
100.0
 43
100.0
 50
180.0
  0
INSERT
  5
314CD
330
309AC
100
AcDbEntity
  8
寸法
 62
     0
 48
50.0
370
    -2
100
AcDbBlockReference
  2
_DOTSMALL
 10
7318.600000000022
 20
6381.030341049891
 30
0.0
 41
100.0
 42
100.0
 43
100.0
  0
MTEXT
  5
314CE
330
309AC
100
AcDbEntity
  8
寸法
 62
     7
 48
50.0
100
AcDbMText
 10
6862.600000000014
 20
6481.030341049891
 30
0.0
 40
120.0
 41
0.0
 71
     5
 72
     1
  1
\A1;910
  7
STYLE1
 73
     1
 44
1.0
1001
ACAD
1000
MTEXTBEGIN
1070
    73
1070
     1
1070
    44
1040
1.0
1070
    74
1070
     0
1000
MTEXTEND
  0
POINT
  5
314CF
330
309AC
100
AcDbEntity
  8
DEFPOINTS
 62
     0
 48
50.0
100
AcDbPoint
 10
6408.600000000015
 20
6489.800000000034
 30
0.0
  0
POINT
  5
314D0
330
309AC
100
AcDbEntity
  8
DEFPOINTS
 62
     0
 48
50.0
100
AcDbPoint
 10
7318.600000000022
 20
6484.800000000034
 30
0.0
  0
POINT
  5
314D1
330
309AC
100
AcDbEntity
  8
DEFPOINTS
 62
     0
 48
50.0
100
AcDbPoint
 10
7318.600000000022
 20
6381.030341049891
 30
0.0
  0
ENDBLK
  5
309AE
330
309AC
100
AcDbEntity
  8
0
 48
50.0
100
AcDbBlockEnd
  0
BLOCK
  5
309B9
330
309B8
100
AcDbEntity
  8
0
 48
50.0
100
AcDbBlockBegin
  2
*D31
 70
     1
 10
0.0
 20
0.0
 30
0.0
  3
*D31
  1

  0
LINE
  5
314D2
330
309B8
100
AcDbEntity
  8
寸法
 62
     0
 48
50.0
370
    -2
100
AcDbLine
 10
7318.600000000022
 20
6464.800000000034
 30
0.0
 11
7318.600000000022
 21
6321.03034104989
 31
0.0
  0
LINE
  5
314D3
330
309B8
100
AcDbEntity
  8
寸法
 62
     0
 48
50.0
370
    -2
100
AcDbLine
 10
8273.600000000014
 20
6469.800000000033
 30
0.0
 11
8273.600000000014
 21
6321.03034104989
 31
0.0
  0
LINE
  5
314D4
330
309B8
100
AcDbEntity
  8
寸法
 62
     0
 48
50.0
370
    -2
100
AcDbLine
 10
7318.600000000022
 20
6381.030341049891
 30
0.0
 11
8273.600000000014
 21
6381.030341049891
 31
0.0
  0
INSERT
  5
314D5
330
309B8
100
AcDbEntity
  8
寸法
 62
     0
 48
50.0
370
    -2
100
AcDbBlockReference
  2
_DOTSMALL
 10
7318.600000000022
 20
6381.030341049891
 30
0.0
 41
100.0
 42
100.0
 43
100.0
 50
180.0
  0
INSERT
  5
314D6
330
309B8
100
AcDbEntity
  8
寸法
 62
     0
 48
50.0
370
    -2
100
AcDbBlockReference
  2
_DOTSMALL
 10
8273.600000000014
 20
6381.030341049891
 30
0.0
 41
100.0
 42
100.0
 43
100.0
  0
MTEXT
  5
314D7
330
309B8
100
AcDbEntity
  8
寸法
 62
     7
 48
50.0
100
AcDbMText
 10
7795.100000000015
 20
6481.030341049891
 30
0.0
 40
120.0
 41
0.0
 71
     5
 72
     1
  1
\A1;955
  7
STYLE1
 73
     1
 44
1.0
1001
ACAD
1000
MTEXTBEGIN
1070
    73
1070
     1
1070
    44
1040
1.0
1070
    74
1070
     0
1000
MTEXTEND
  0
POINT
  5
314D8
330
309B8
100
AcDbEntity
  8
DEFPOINTS
 62
     0
 48
50.0
100
AcDbPoint
 10
7318.600000000022
 20
6484.800000000034
 30
0.0
  0
POINT
  5
314D9
330
309B8
100
AcDbEntity
  8
DEFPOINTS
 62
     0
 48
50.0
100
AcDbPoint
 10
8273.600000000014
 20
6489.800000000034
 30
0.0
  0
POINT
  5
314DA
330
309B8
100
AcDbEntity
  8
DEFPOINTS
 62
     0
 48
50.0
100
AcDbPoint
 10
8273.600000000014
 20
6381.030341049891
 30
0.0
  0
ENDBLK
  5
309BA
330
309B8
100
AcDbEntity
  8
0
 48
50.0
100
AcDbBlockEnd
  0
BLOCK
  5
309C5
330
309C4
100
AcDbEntity
  8
0
 48
50.0
100
AcDbBlockBegin
  2
*D32
 70
     1
 10
0.0
 20
0.0
 30
0.0
  3
*D32
  1

  0
LINE
  5
30EEF
330
309C4
100
AcDbEntity
  8
寸法
 62
     0
 48
50.0
370
    -2
100
AcDbLine
 10
10038.60004080897
 20
5759.800000001106
 30
0.0
 11
10613.76059822483
 21
5759.800000001106
 31
0.0
  0
LINE
  5
30EF0
330
309C4
100
AcDbEntity
  8
寸法
 62
     0
 48
50.0
370
    -2
100
AcDbLine
 10
10058.59999999998
 20
5704.800000000001
 30
0.0
 11
10613.76059822483
 21
5704.8
 31
0.0
  0
LINE
  5
30EF1
330
309C4
100
AcDbEntity
  8
寸法
 62
     0
 48
50.0
370
    -2
100
AcDbLine
 10
10553.76059822483
 20
5759.800000001106
 30
0.0
 11
10553.76059822483
 21
5859.800000001106
 31
0.0
  0
LINE
  5
30EF2
330
309C4
100
AcDbEntity
  8
寸法
 62
     0
 48
50.0
370
    -2
100
AcDbLine
 10
10553.76059822483
 20
5704.8
 30
0.0
 11
10553.76059822483
 21
5287.829437251523
 31
0.0
  0
LINE
  5
30EF3
330
309C4
100
AcDbEntity
  8
寸法
 62
     0
 48
50.0
370
    -2
100
AcDbLine
 10
10553.76059822483
 20
5759.800000001106
 30
0.0
 11
10553.76059822483
 21
5704.8
 31
0.0
  0
INSERT
  5
30EF4
330
309C4
100
AcDbEntity
  8
寸法
 62
     0
 48
50.0
370
    -2
100
AcDbBlockReference
  2
_DOTSMALL
 10
10553.76059822483
 20
5759.800000001106
 30
0.0
 41
100.0
 42
100.0
 43
100.0
 50
270.0
  0
INSERT
  5
30EF5
330
309C4
100
AcDbEntity
  8
寸法
 62
     0
 48
50.0
370
    -2
100
AcDbBlockReference
  2
_DOTSMALL
 10
10553.76059822483
 20
5704.8
 30
0.0
 41
100.0
 42
100.0
 43
100.0
 50
90.0
  0
MTEXT
  5
30EF6
330
309C4
100
AcDbEntity
  8
寸法
 62
     7
 48
50.0
100
AcDbMText
 10
10453.76059822483
 20
5396.314718625763
 30
0.0
 40
120.0
 41
0.0
 71
     5
 72
     1
  1
\A1;55
  7
STYLE1
 11
0.0000000000000001
 21
1.0
 31
0.0
 73
     1
 44
1.0
1001
ACAD
1000
MTEXTBEGIN
1070
    73
1070
     1
1070
    44
1040
1.0
1070
    74
1070
     0
1000
MTEXTEND
  0
POINT
  5
30EF7
330
309C4
100
AcDbEntity
  8
DEFPOINTS
 62
     0
 48
50.0
100
AcDbPoint
 10
10018.60004080897
 20
5759.800000001106
 30
0.0
  0
POINT
  5
30EF8
330
309C4
100
AcDbEntity
  8
DEFPOINTS
 62
     0
 48
50.0
100
AcDbPoint
 10
10038.59999999998
 20
5704.800000000001
 30
0.0
  0
POINT
  5
30EF9
330
309C4
100
AcDbEntity
  8
DEFPOINTS
 62
     0
 48
50.0
100
AcDbPoint
 10
10553.76059822483
 20
5704.8
 30
0.0
  0
ENDBLK
  5
309C6
330
309C4
100
AcDbEntity
  8
0
 48
50.0
100
AcDbBlockEnd
  0
BLOCK
  5
309D3
330
309D2
100
AcDbEntity
  8
0
 48
50.0
100
AcDbBlockBegin
  2
*D33
 70
     1
 10
0.0
 20
0.0
 30
0.0
  3
*D33
  1

  0
LINE
  5
30EFA
330
309D2
100
AcDbEntity
  8
寸法
 62
     0
 48
50.0
370
    -2
100
AcDbLine
 10
10038.60004080897
 20
5759.800000001106
 30
0.0
 11
10613.76059822477
 21
5759.800000001106
 31
0.0
  0
LINE
  5
30EFB
330
309D2
100
AcDbEntity
  8
寸法
 62
     0
 48
50.0
370
    -2
100
AcDbLine
 10
9993.600000000014
 20
7539.800000000001
 30
0.0
 11
10613.76059822477
 21
7539.800000000001
 31
0.0
  0
LINE
  5
30EFC
330
309D2
100
AcDbEntity
  8
寸法
 62
     0
 48
50.0
370
    -2
100
AcDbLine
 10
10553.76059822477
 20
5759.800000001106
 30
0.0
 11
10553.76059822477
 21
7539.800000000001
 31
0.0
  0
INSERT
  5
30EFD
330
309D2
100
AcDbEntity
  8
寸法
 62
     0
 48
50.0
370
    -2
100
AcDbBlockReference
  2
_DOTSMALL
 10
10553.76059822477
 20
5759.800000001106
 30
0.0
 41
100.0
 42
100.0
 43
100.0
 50
270.0
  0
INSERT
  5
30EFE
330
309D2
100
AcDbEntity
  8
寸法
 62
     0
 48
50.0
370
    -2
100
AcDbBlockReference
  2
_DOTSMALL
 10
10553.76059822477
 20
7539.800000000001
 30
0.0
 41
100.0
 42
100.0
 43
100.0
 50
90.0
  0
MTEXT
  5
30EFF
330
309D2
100
AcDbEntity
  8
寸法
 62
     7
 48
50.0
100
AcDbMText
 10
10453.76059822477
 20
6649.800000000555
 30
0.0
 40
120.0
 41
0.0
 71
     5
 72
     1
  1
\A1;1780
  7
STYLE1
 11
0.0000000000000001
 21
1.0
 31
0.0
 73
     1
 44
1.0
1001
ACAD
1000
MTEXTBEGIN
1070
    73
1070
     1
1070
    44
1040
1.0
1070
    74
1070
     0
1000
MTEXTEND
  0
POINT
  5
30F00
330
309D2
100
AcDbEntity
  8
DEFPOINTS
 62
     0
 48
50.0
100
AcDbPoint
 10
10018.60004080897
 20
5759.800000001106
 30
0.0
  0
POINT
  5
30F01
330
309D2
100
AcDbEntity
  8
DEFPOINTS
 62
     0
 48
50.0
100
AcDbPoint
 10
9973.600000000015
 20
7539.800000000001
 30
0.0
  0
POINT
  5
30F02
330
309D2
100
AcDbEntity
  8
DEFPOINTS
 62
     0
 48
50.0
100
AcDbPoint
 10
10553.76059822477
 20
7539.800000000001
 30
0.0
  0
ENDBLK
  5
309D4
330
309D2
100
AcDbEntity
  8
0
 48
50.0
100
AcDbBlockEnd
  0
BLOCK
  5
309DF
330
309DE
100
AcDbEntity
  8
0
 48
50.0
100
AcDbBlockBegin
  2
*D34
 70
     1
 10
0.0
 20
0.0
 30
0.0
  3
*D34
  1

  0
LINE
  5
30F03
330
309DE
100
AcDbEntity
  8
寸法
 62
     0
 48
50.0
370
    -2
100
AcDbLine
 10
10053.60000000001
 20
8203.383981502032
 30
0.0
 11
10053.60000000001
 21
8455.844677018857
 31
0.0
  0
LINE
  5
30F04
330
309DE
100
AcDbEntity
  8
寸法
 62
     0
 48
50.0
370
    -2
100
AcDbLine
 10
10038.60000000001
 20
7609.800000000001
 30
0.0
 11
10038.60000000001
 21
8455.844677018857
 31
0.0
  0
LINE
  5
30F05
330
309DE
100
AcDbEntity
  8
寸法
 62
     0
 48
50.0
370
    -2
100
AcDbLine
 10
10038.60000000001
 20
8395.844677018857
 30
0.0
 11
9938.600000000015
 21
8395.844677018857
 31
0.0
  0
LINE
  5
30F06
330
309DE
100
AcDbEntity
  8
寸法
 62
     0
 48
50.0
370
    -2
100
AcDbLine
 10
10053.60000000001
 20
8395.844677018857
 30
0.0
 11
10385.94924240493
 21
8395.844677018857
 31
0.0
  0
LINE
  5
30F07
330
309DE
100
AcDbEntity
  8
寸法
 62
     0
 48
50.0
370
    -2
100
AcDbLine
 10
10038.60000000001
 20
8395.844677018857
 30
0.0
 11
10053.60000000001
 21
8395.844677018857
 31
0.0
  0
INSERT
  5
30F08
330
309DE
100
AcDbEntity
  8
寸法
 62
     0
 48
50.0
370
    -2
100
AcDbBlockReference
  2
_DOTSMALL
 10
10038.60000000001
 20
8395.844677018857
 30
0.0
 41
100.0
 42
100.0
 43
100.0
  0
INSERT
  5
30F09
330
309DE
100
AcDbEntity
  8
寸法
 62
     0
 48
50.0
370
    -2
100
AcDbBlockReference
  2
_DOTSMALL
 10
10053.60000000001
 20
8395.844677018857
 30
0.0
 41
100.0
 42
100.0
 43
100.0
 50
180.0
  0
MTEXT
  5
30F0A
330
309DE
100
AcDbEntity
  8
寸法
 62
     7
 48
50.0
100
AcDbMText
 10
10319.77462120247
 20
8495.844677018856
 30
0.0
 40
120.0
 41
0.0
 71
     5
 72
     1
  1
\A1;b
  7
STYLE1
 73
     1
 44
1.0
1001
ACAD
1000
MTEXTBEGIN
1070
    73
1070
     1
1070
    44
1040
1.0
1070
    74
1070
     0
1000
MTEXTEND
  0
POINT
  5
30F0B
330
309DE
100
AcDbEntity
  8
DEFPOINTS
 62
     0
 48
50.0
100
AcDbPoint
 10
10053.60000000001
 20
8183.38398150203
 30
0.0
  0
POINT
  5
30F0C
330
309DE
100
AcDbEntity
  8
DEFPOINTS
 62
     0
 48
50.0
100
AcDbPoint
 10
10038.60000000001
 20
7589.800000000001
 30
0.0
  0
POINT
  5
30F0D
330
309DE
100
AcDbEntity
  8
DEFPOINTS
 62
     0
 48
50.0
100
AcDbPoint
 10
10038.60000000001
 20
8395.844677018857
 30
0.0
  0
ENDBLK
  5
309E0
330
309DE
100
AcDbEntity
  8
0
 48
50.0
100
AcDbBlockEnd
  0
BLOCK
  5
309F9
330
309F8
100
AcDbEntity
  8
0
 48
50.0
100
AcDbBlockBegin
  2
*D35
 70
     1
 10
0.0
 20
0.0
 30
0.0
  3
*D35
  1

  0
LINE
  5
30F17
330
309F8
100
AcDbEntity
  8
寸法
 62
     0
 48
50.0
370
    -2
100
AcDbLine
 10
8273.600000000014
 20
5684.800000000001
 30
0.0
 11
8273.600000000014
 21
5134.653362321709
 31
0.0
  0
LINE
  5
30F18
330
309F8
100
AcDbEntity
  8
寸法
 62
     0
 48
50.0
370
    -2
100
AcDbLine
 10
10038.60000000001
 20
5684.800000000001
 30
0.0
 11
10038.60000000001
 21
5134.653362321709
 31
0.0
  0
LINE
  5
30F19
330
309F8
100
AcDbEntity
  8
寸法
 62
     0
 48
50.0
370
    -2
100
AcDbLine
 10
8273.600000000014
 20
5194.653362321709
 30
0.0
 11
10038.60000000001
 21
5194.653362321709
 31
0.0
  0
INSERT
  5
30F1A
330
309F8
100
AcDbEntity
  8
寸法
 62
     0
 48
50.0
370
    -2
100
AcDbBlockReference
  2
_DOTSMALL
 10
8273.600000000014
 20
5194.653362321709
 30
0.0
 41
100.0
 42
100.0
 43
100.0
 50
180.0
  0
INSERT
  5
30F1B
330
309F8
100
AcDbEntity
  8
寸法
 62
     0
 48
50.0
370
    -2
100
AcDbBlockReference
  2
_DOTSMALL
 10
10038.60000000001
 20
5194.653362321709
 30
0.0
 41
100.0
 42
100.0
 43
100.0
  0
MTEXT
  5
30F1C
330
309F8
100
AcDbEntity
  8
寸法
 62
     7
 48
50.0
100
AcDbMText
 10
9156.100000000014
 20
5294.653362321709
 30
0.0
 40
120.0
 41
0.0
 71
     5
 72
     1
  1
\A1;1765
  7
STYLE1
 73
     1
 44
1.0
1001
ACAD
1000
MTEXTBEGIN
1070
    73
1070
     1
1070
    44
1040
1.0
1070
    74
1070
     0
1000
MTEXTEND
  0
POINT
  5
30F1D
330
309F8
100
AcDbEntity
  8
DEFPOINTS
 62
     0
 48
50.0
100
AcDbPoint
 10
8273.600000000014
 20
5704.800000000001
 30
0.0
  0
POINT
  5
30F1E
330
309F8
100
AcDbEntity
  8
DEFPOINTS
 62
     0
 48
50.0
100
AcDbPoint
 10
10038.60000000001
 20
5704.800000000001
 30
0.0
  0
POINT
  5
30F1F
330
309F8
100
AcDbEntity
  8
DEFPOINTS
 62
     0
 48
50.0
100
AcDbPoint
 10
10038.60000000001
 20
5194.653362321709
 30
0.0
  0
ENDBLK
  5
309FA
330
309F8
100
AcDbEntity
  8
0
 48
50.0
100
AcDbBlockEnd
  0
BLOCK
  5
30A05
330
30A04
100
AcDbEntity
  8
0
 48
50.0
100
AcDbBlockBegin
  2
*D36
 70
     1
 10
0.0
 20
0.0
 30
0.0
  3
*D36
  1

  0
LINE
  5
30F20
330
30A04
100
AcDbEntity
  8
寸法
 62
     0
 48
50.0
370
    -2
100
AcDbLine
 10
9338.600000000015
 20
7589.800000000001
 30
0.0
 11
9400.736107975168
 21
7589.800000000001
 31
0.0
  0
LINE
  5
30F21
330
30A04
100
AcDbEntity
  8
寸法
 62
     0
 48
50.0
370
    -2
100
AcDbLine
 10
9338.600000000015
 20
7469.800000000001
 30
0.0
 11
9400.736107975168
 21
7469.800000000001
 31
0.0
  0
LINE
  5
30F22
330
30A04
100
AcDbEntity
  8
寸法
 62
     0
 48
50.0
370
    -2
100
AcDbLine
 10
9340.736107975168
 20
7589.800000000001
 30
0.0
 11
9340.736107975168
 21
7469.800000000001
 31
0.0
  0
LINE
  5
30F23
330
30A04
100
AcDbEntity
  8
寸法
 62
     0
 48
50.0
370
    -2
100
AcDbLine
 10
9340.736107975168
 20
7469.800000000001
 30
0.0
 11
9340.736107975168
 21
7097.705511811025
 31
0.0
  0
INSERT
  5
30F24
330
30A04
100
AcDbEntity
  8
寸法
 62
     0
 48
50.0
370
    -2
100
AcDbBlockReference
  2
_DOTSMALL
 10
9340.736107975168
 20
7589.800000000001
 30
0.0
 41
100.0
 42
100.0
 43
100.0
 50
90.0
  0
INSERT
  5
30F25
330
30A04
100
AcDbEntity
  8
寸法
 62
     0
 48
50.0
370
    -2
100
AcDbBlockReference
  2
_DOTSMALL
 10
9340.736107975168
 20
7469.800000000001
 30
0.0
 41
100.0
 42
100.0
 43
100.0
 50
270.0
  0
MTEXT
  5
30F26
330
30A04
100
AcDbEntity
  8
寸法
 62
     7
 48
50.0
100
AcDbMText
 10
9240.724296951546
 20
7233.752755905513
 30
0.0
 40
120.0
 41
0.0
 71
     5
 72
     1
  1
\A1;120
  7
STYLE1
 11
0.0000000000000001
 21
1.0
 31
0.0
 73
     1
 44
1.0
1001
ACAD
1000
MTEXTBEGIN
1070
    73
1070
     1
1070
    44
1040
1.0
1070
    74
1070
     0
1000
MTEXTEND
  0
POINT
  5
30F27
330
30A04
100
AcDbEntity
  8
DEFPOINTS
 62
     0
 48
50.0
100
AcDbPoint
 10
9318.600000000015
 20
7589.800000000001
 30
0.0
  0
POINT
  5
30F28
330
30A04
100
AcDbEntity
  8
DEFPOINTS
 62
     0
 48
50.0
100
AcDbPoint
 10
9318.600000000015
 20
7469.800000000001
 30
0.0
  0
POINT
  5
30F29
330
30A04
100
AcDbEntity
  8
DEFPOINTS
 62
     0
 48
50.0
100
AcDbPoint
 10
9340.736107975168
 20
7469.800000000001
 30
0.0
  0
ENDBLK
  5
30A06
330
30A04
100
AcDbEntity
  8
0
 48
50.0
100
AcDbBlockEnd
  0
BLOCK
  5
30A12
330
30A11
100
AcDbEntity
  8
0
 48
50.0
100
AcDbBlockBegin
  2
*D37
 70
     1
 10
0.0
 20
0.0
 30
0.0
  3
*D37
  1

  0
LINE
  5
30F2A
330
30A11
100
AcDbEntity
  8
寸法
 62
     0
 48
50.0
370
    -2
100
AcDbLine
 10
9968.60004080897
 20
5828.800000001107
 30
0.0
 11
9968.60004080897
 21
6062.539513518508
 31
0.0
  0
LINE
  5
30F2B
330
30A11
100
AcDbEntity
  8
寸法
 62
     0
 48
50.0
370
    -2
100
AcDbLine
 10
10038.60000000001
 20
5828.800000001107
 30
0.0
 11
10038.60000000001
 21
6062.539513518508
 31
0.0
  0
LINE
  5
30F2C
330
30A11
100
AcDbEntity
  8
寸法
 62
     0
 48
50.0
370
    -2
100
AcDbLine
 10
9968.60004080897
 20
6002.539513518508
 30
0.0
 11
9868.600040808971
 21
6002.539513518508
 31
0.0
  0
LINE
  5
30F2D
330
30A11
100
AcDbEntity
  8
寸法
 62
     0
 48
50.0
370
    -2
100
AcDbLine
 10
10038.60000000001
 20
6002.539513518508
 30
0.0
 11
10138.60000000001
 21
6002.539513518508
 31
0.0
  0
LINE
  5
30F2E
330
30A11
100
AcDbEntity
  8
寸法
 62
     0
 48
50.0
370
    -2
100
AcDbLine
 10
10451.24703420039
 20
6002.539513518508
 30
0.0
 11
10038.60000000001
 21
6002.539513518508
 31
0.0
  0
MTEXT
  5
30F2F
330
30A11
100
AcDbEntity
  8
寸法
 62
     7
 48
50.0
100
AcDbMText
 10
10345.1997901059
 20
6102.539513518507
 30
0.0
 40
120.0
 41
0.0
 71
     5
 72
     1
  1
\A1;70
  7
STYLE1
 73
     1
 44
1.0
1001
ACAD
1000
MTEXTBEGIN
1070
    73
1070
     1
1070
    44
1040
1.0
1070
    74
1070
     0
1000
MTEXTEND
  0
LINE
  5
30F30
330
30A11
100
AcDbEntity
  8
寸法
 62
     0
 48
50.0
370
    -2
100
AcDbLine
 10
9968.60004080897
 20
6002.539513518508
 30
0.0
 11
10038.60000000001
 21
6002.539513518508
 31
0.0
  0
LINE
  5
30F31
330
30A11
100
AcDbEntity
  8
寸法
 62
     0
 48
50.0
370
    -2
100
AcDbLine
 10
9968.60004080897
 20
6002.539513518508
 30
0.0
 11
10038.60000000001
 21
6002.539513518508
 31
0.0
  0
INSERT
  5
30F32
330
30A11
100
AcDbEntity
  8
寸法
 62
     0
 48
50.0
370
    -2
100
AcDbBlockReference
  2
_DOTSMALL
 10
9968.60004080897
 20
6002.539513518508
 30
0.0
 41
100.0
 42
100.0
 43
100.0
  0
INSERT
  5
30F33
330
30A11
100
AcDbEntity
  8
寸法
 62
     0
 48
50.0
370
    -2
100
AcDbBlockReference
  2
_DOTSMALL
 10
10038.60000000001
 20
6002.539513518508
 30
0.0
 41
100.0
 42
100.0
 43
100.0
 50
180.0
  0
POINT
  5
30F34
330
30A11
100
AcDbEntity
  8
DEFPOINTS
 62
     0
 48
50.0
100
AcDbPoint
 10
9968.60004080897
 20
5808.800000001107
 30
0.0
  0
POINT
  5
30F35
330
30A11
100
AcDbEntity
  8
DEFPOINTS
 62
     0
 48
50.0
100
AcDbPoint
 10
10038.60000000001
 20
5808.800000001107
 30
0.0
  0
POINT
  5
30F36
330
30A11
100
AcDbEntity
  8
DEFPOINTS
 62
     0
 48
50.0
100
AcDbPoint
 10
10038.60000000001
 20
6002.539513518508
 30
0.0
  0
ENDBLK
  5
30A13
330
30A11
100
AcDbEntity
  8
0
 48
50.0
100
AcDbBlockEnd
  0
BLOCK
  5
30A22
330
30A21
100
AcDbEntity
  8
0
 48
50.0
100
AcDbBlockBegin
  2
*D38
 70
     1
 10
0.0
 20
0.0
 30
0.0
  3
*D38
  1

  0
LINE
  5
30F37
330
30A21
100
AcDbEntity
  8
寸法
 62
     0
 48
50.0
370
    -2
100
AcDbLine
 10
9968.60004080897
 20
5828.800000001107
 30
0.0
 11
9968.60004080897
 21
6062.539513518508
 31
0.0
  0
LINE
  5
30F38
330
30A21
100
AcDbEntity
  8
寸法
 62
     0
 48
50.0
370
    -2
100
AcDbLine
 10
9918.600020404886
 20
5828.800000001107
 30
0.0
 11
9918.600020404886
 21
6062.539513518508
 31
0.0
  0
LINE
  5
30F39
330
30A21
100
AcDbEntity
  8
寸法
 62
     0
 48
50.0
370
    -2
100
AcDbLine
 10
9968.60004080897
 20
6002.539513518508
 30
0.0
 11
10068.60004080897
 21
6002.539513518508
 31
0.0
  0
LINE
  5
30F3A
330
30A21
100
AcDbEntity
  8
寸法
 62
     0
 48
50.0
370
    -2
100
AcDbLine
 10
9918.600020404886
 20
6002.539513518508
 30
0.0
 11
9818.600020404886
 21
6002.539513518508
 31
0.0
  0
LINE
  5
30F3B
330
30A21
100
AcDbEntity
  8
寸法
 62
     0
 48
50.0
370
    -2
100
AcDbLine
 10
9504.893397465501
 20
6002.539513518508
 30
0.0
 11
9918.600020404886
 21
6002.539513518508
 31
0.0
  0
MTEXT
  5
30F3C
330
30A21
100
AcDbEntity
  8
寸法
 62
     7
 48
50.0
100
AcDbMText
 10
9610.94064155999
 20
6102.539513518507
 30
0.0
 40
120.0
 41
0.0
 71
     5
 72
     1
  1
\A1;50
  7
STYLE1
 73
     1
 44
1.0
1001
ACAD
1000
MTEXTBEGIN
1070
    73
1070
     1
1070
    44
1040
1.0
1070
    74
1070
     0
1000
MTEXTEND
  0
LINE
  5
30F3D
330
30A21
100
AcDbEntity
  8
寸法
 62
     0
 48
50.0
370
    -2
100
AcDbLine
 10
9968.60004080897
 20
6002.539513518508
 30
0.0
 11
9918.600020404886
 21
6002.539513518508
 31
0.0
  0
LINE
  5
30F3E
330
30A21
100
AcDbEntity
  8
寸法
 62
     0
 48
50.0
370
    -2
100
AcDbLine
 10
9968.60004080897
 20
6002.539513518508
 30
0.0
 11
9918.600020404886
 21
6002.539513518508
 31
0.0
  0
INSERT
  5
30F3F
330
30A21
100
AcDbEntity
  8
寸法
 62
     0
 48
50.0
370
    -2
100
AcDbBlockReference
  2
_DOTSMALL
 10
9968.60004080897
 20
6002.539513518508
 30
0.0
 41
100.0
 42
100.0
 43
100.0
 50
180.0
  0
INSERT
  5
30F40
330
30A21
100
AcDbEntity
  8
寸法
 62
     0
 48
50.0
370
    -2
100
AcDbBlockReference
  2
_DOTSMALL
 10
9918.600020404886
 20
6002.539513518508
 30
0.0
 41
100.0
 42
100.0
 43
100.0
  0
POINT
  5
30F41
330
30A21
100
AcDbEntity
  8
DEFPOINTS
 62
     0
 48
50.0
100
AcDbPoint
 10
9968.60004080897
 20
5808.800000001107
 30
0.0
  0
POINT
  5
30F42
330
30A21
100
AcDbEntity
  8
DEFPOINTS
 62
     0
 48
50.0
100
AcDbPoint
 10
9918.600020404886
 20
5808.800000001107
 30
0.0
  0
POINT
  5
30F43
330
30A21
100
AcDbEntity
  8
DEFPOINTS
 62
     0
 48
50.0
100
AcDbPoint
 10
9918.600020404886
 20
6002.539513518508
 30
0.0
  0
ENDBLK
  5
30A23
330
30A21
100
AcDbEntity
  8
0
 48
50.0
100
AcDbBlockEnd
  0
BLOCK
  5
30A32
330
30A31
100
AcDbEntity
  8
0
 48
50.0
100
AcDbBlockBegin
  2
*D39
 70
     1
 10
0.0
 20
0.0
 30
0.0
  3
*D39
  1

  0
LINE
  5
30F44
330
30A31
100
AcDbEntity
  8
寸法
 62
     0
 48
50.0
370
    -2
100
AcDbLine
 10
8095.600000000015
 20
7526.800000000001
 30
0.0
 11
8095.600000000015
 21
7818.450622919741
 31
0.0
  0
LINE
  5
30F45
330
30A31
100
AcDbEntity
  8
寸法
 62
     0
 48
50.0
370
    -2
100
AcDbLine
 10
8273.600000000014
 20
7489.800000000001
 30
0.0
 11
8273.600000000014
 21
7818.450622919741
 31
0.0
  0
LINE
  5
30F46
330
30A31
100
AcDbEntity
  8
寸法
 62
     0
 48
50.0
370
    -2
100
AcDbLine
 10
8095.600000000015
 20
7758.450622919742
 30
0.0
 11
8273.600000000014
 21
7758.450622919742
 31
0.0
  0
LINE
  5
30F47
330
30A31
100
AcDbEntity
  8
寸法
 62
     0
 48
50.0
370
    -2
100
AcDbLine
 10
8273.600000000014
 20
7758.450622919742
 30
0.0
 11
8645.600000000014
 21
7758.450622919742
 31
0.0
  0
INSERT
  5
30F48
330
30A31
100
AcDbEntity
  8
寸法
 62
     0
 48
50.0
370
    -2
100
AcDbBlockReference
  2
_DOTSMALL
 10
8095.600000000015
 20
7758.450622919742
 30
0.0
 41
100.0
 42
100.0
 43
100.0
 50
180.0
  0
INSERT
  5
30F49
330
30A31
100
AcDbEntity
  8
寸法
 62
     0
 48
50.0
370
    -2
100
AcDbBlockReference
  2
_DOTSMALL
 10
8273.600000000014
 20
7758.450622919742
 30
0.0
 41
100.0
 42
100.0
 43
100.0
  0
MTEXT
  5
30F4A
330
30A31
100
AcDbEntity
  8
寸法
 62
     7
 48
50.0
100
AcDbMText
 10
8509.600000000014
 20
7858.450622919741
 30
0.0
 40
120.0
 41
0.0
 71
     5
 72
     1
  1
\A1;178
  7
STYLE1
 73
     1
 44
1.0
1001
ACAD
1000
MTEXTBEGIN
1070
    73
1070
     1
1070
    44
1040
1.0
1070
    74
1070
     0
1000
MTEXTEND
  0
POINT
  5
30F4B
330
30A31
100
AcDbEntity
  8
DEFPOINTS
 62
     0
 48
50.0
100
AcDbPoint
 10
8095.600000000015
 20
7506.800000000001
 30
0.0
  0
POINT
  5
30F4C
330
30A31
100
AcDbEntity
  8
DEFPOINTS
 62
     0
 48
50.0
100
AcDbPoint
 10
8273.600000000014
 20
7469.800000000001
 30
0.0
  0
POINT
  5
30F4D
330
30A31
100
AcDbEntity
  8
DEFPOINTS
 62
     0
 48
50.0
100
AcDbPoint
 10
8273.600000000014
 20
7758.450622919742
 30
0.0
  0
ENDBLK
  5
30A33
330
30A31
100
AcDbEntity
  8
0
 48
50.0
100
AcDbBlockEnd
  0
BLOCK
  5
31434
330
31433
100
AcDbEntity
  8
0
 48
50.0
100
AcDbBlockBegin
  2
*D40
 70
     1
 10
0.0
 20
0.0
 30
0.0
  3
*D40
  1

  0
LINE
  5
31471
330
31433
100
AcDbEntity
  8
寸法
 62
     0
 48
50.0
370
    -2
100
AcDbLine
 10
3030.885813532448
 20
1133.554091015233
 30
0.0
 11
3030.885813532448
 21
537.8573686176123
 31
0.0
  0
LINE
  5
31472
330
31433
100
AcDbEntity
  8
寸法
 62
     0
 48
50.0
370
    -2
100
AcDbLine
 10
3630.885813532449
 20
1133.554091015232
 30
0.0
 11
3630.885813532449
 21
537.8573686176123
 31
0.0
  0
LINE
  5
31473
330
31433
100
AcDbEntity
  8
寸法
 62
     0
 48
50.0
370
    -2
100
AcDbLine
 10
3030.885813532448
 20
597.8573686176123
 30
0.0
 11
3630.885813532449
 21
597.8573686176123
 31
0.0
  0
INSERT
  5
31474
330
31433
100
AcDbEntity
  8
寸法
 62
     0
 48
50.0
370
    -2
100
AcDbBlockReference
  2
_DOTSMALL
 10
3030.885813532448
 20
597.8573686176123
 30
0.0
 41
100.0
 42
100.0
 43
100.0
 50
180.0
  0
INSERT
  5
31475
330
31433
100
AcDbEntity
  8
寸法
 62
     0
 48
50.0
370
    -2
100
AcDbBlockReference
  2
_DOTSMALL
 10
3630.885813532449
 20
597.8573686176123
 30
0.0
 41
100.0
 42
100.0
 43
100.0
  0
MTEXT
  5
31476
330
31433
100
AcDbEntity
  8
寸法
 62
     7
 48
50.0
100
AcDbMText
 10
3330.885813532449
 20
697.8573686176123
 30
0.0
 40
120.0
 41
0.0
 71
     5
 72
     1
  1
\A1;300
  7
STYLE1
 73
     1
 44
1.0
1001
ACAD
1000
MTEXTBEGIN
1070
    73
1070
     1
1070
    44
1040
1.0
1070
    74
1070
     0
1000
MTEXTEND
  0
POINT
  5
31477
330
31433
100
AcDbEntity
  8
DEFPOINTS
 62
     0
 48
50.0
100
AcDbPoint
 10
3030.885813532448
 20
1153.554091015233
 30
0.0
  0
POINT
  5
31478
330
31433
100
AcDbEntity
  8
DEFPOINTS
 62
     0
 48
50.0
100
AcDbPoint
 10
3630.885813532449
 20
1153.554091015232
 30
0.0
  0
POINT
  5
31479
330
31433
100
AcDbEntity
  8
DEFPOINTS
 62
     0
 48
50.0
100
AcDbPoint
 10
3630.885813532449
 20
597.8573686176123
 30
0.0
  0
ENDBLK
  5
31435
330
31433
100
AcDbEntity
  8
0
 48
50.0
100
AcDbBlockEnd
  0
BLOCK
  5
31440
330
3143F
100
AcDbEntity
  8
0
 48
50.0
100
AcDbBlockBegin
  2
*D41
 70
     1
 10
0.0
 20
0.0
 30
0.0
  3
*D41
  1

  0
LINE
  5
3147A
330
3143F
100
AcDbEntity
  8
寸法
 62
     0
 48
50.0
370
    -2
100
AcDbLine
 10
3190.885813532448
 20
2233.554091015233
 30
0.0
 11
2231.53631226514
 21
2233.554091015234
 31
0.0
  0
LINE
  5
3147B
330
3143F
100
AcDbEntity
  8
寸法
 62
     0
 48
50.0
370
    -2
100
AcDbLine
 10
2850.885813532448
 20
1153.554091015233
 30
0.0
 11
2231.53631226514
 21
1153.554091015233
 31
0.0
  0
LINE
  5
3147C
330
3143F
100
AcDbEntity
  8
寸法
 62
     0
 48
50.0
370
    -2
100
AcDbLine
 10
2291.53631226514
 20
2233.554091015234
 30
0.0
 11
2291.53631226514
 21
1153.554091015233
 31
0.0
  0
INSERT
  5
3147D
330
3143F
100
AcDbEntity
  8
寸法
 62
     0
 48
50.0
370
    -2
100
AcDbBlockReference
  2
_DOTSMALL
 10
2291.53631226514
 20
2233.554091015234
 30
0.0
 41
100.0
 42
100.0
 43
100.0
 50
90.0
  0
INSERT
  5
3147E
330
3143F
100
AcDbEntity
  8
寸法
 62
     0
 48
50.0
370
    -2
100
AcDbBlockReference
  2
_DOTSMALL
 10
2291.53631226514
 20
1153.554091015233
 30
0.0
 41
100.0
 42
100.0
 43
100.0
 50
270.0
  0
MTEXT
  5
3147F
330
3143F
100
AcDbEntity
  8
寸法
 62
     7
 48
50.0
100
AcDbMText
 10
2191.53631226514
 20
1693.554091015233
 30
0.0
 40
120.0
 41
0.0
 71
     5
 72
     1
  1
\A1;540
  7
STYLE1
 11
0.0000000000000001
 21
1.0
 31
0.0
 73
     1
 44
1.0
1001
ACAD
1000
MTEXTBEGIN
1070
    73
1070
     1
1070
    44
1040
1.0
1070
    74
1070
     0
1000
MTEXTEND
  0
POINT
  5
31480
330
3143F
100
AcDbEntity
  8
DEFPOINTS
 62
     0
 48
50.0
100
AcDbPoint
 10
3210.885813532448
 20
2233.554091015233
 30
0.0
  0
POINT
  5
31481
330
3143F
100
AcDbEntity
  8
DEFPOINTS
 62
     0
 48
50.0
100
AcDbPoint
 10
2870.885813532448
 20
1153.554091015233
 30
0.0
  0
POINT
  5
31482
330
3143F
100
AcDbEntity
  8
DEFPOINTS
 62
     0
 48
50.0
100
AcDbPoint
 10
2291.53631226514
 20
1153.554091015233
 30
0.0
  0
ENDBLK
  5
31441
330
3143F
100
AcDbEntity
  8
0
 48
50.0
100
AcDbBlockEnd
  0
BLOCK
  5
3144C
330
3144B
100
AcDbEntity
  8
0
 48
50.0
100
AcDbBlockBegin
  2
*D42
 70
     1
 10
0.0
 20
0.0
 30
0.0
  3
*D42
  1

  0
LINE
  5
31483
330
3144B
100
AcDbEntity
  8
寸法
 62
     0
 48
50.0
370
    -2
100
AcDbLine
 10
3010.885813532448
 20
1453.554091015233
 30
0.0
 11
2635.891873346344
 21
1453.554091015233
 31
0.0
  0
LINE
  5
31484
330
3144B
100
AcDbEntity
  8
寸法
 62
     0
 48
50.0
370
    -2
100
AcDbLine
 10
2850.885813532448
 20
1153.554091015233
 30
0.0
 11
2635.891873346344
 21
1153.554091015233
 31
0.0
  0
LINE
  5
31485
330
3144B
100
AcDbEntity
  8
寸法
 62
     0
 48
50.0
370
    -2
100
AcDbLine
 10
2695.891873346344
 20
1453.554091015233
 30
0.0
 11
2695.891873346344
 21
1153.554091015233
 31
0.0
  0
INSERT
  5
31486
330
3144B
100
AcDbEntity
  8
寸法
 62
     0
 48
50.0
370
    -2
100
AcDbBlockReference
  2
_DOTSMALL
 10
2695.891873346344
 20
1453.554091015233
 30
0.0
 41
100.0
 42
100.0
 43
100.0
 50
90.0
  0
INSERT
  5
31487
330
3144B
100
AcDbEntity
  8
寸法
 62
     0
 48
50.0
370
    -2
100
AcDbBlockReference
  2
_DOTSMALL
 10
2695.891873346344
 20
1153.554091015233
 30
0.0
 41
100.0
 42
100.0
 43
100.0
 50
270.0
  0
MTEXT
  5
31488
330
3144B
100
AcDbEntity
  8
寸法
 62
     7
 48
50.0
100
AcDbMText
 10
2595.891873346344
 20
1303.554091015233
 30
0.0
 40
120.0
 41
0.0
 71
     5
 72
     1
  1
\A1;150
  7
STYLE1
 11
0.0000000000000001
 21
1.0
 31
0.0
 73
     1
 44
1.0
1001
ACAD
1000
MTEXTBEGIN
1070
    73
1070
     1
1070
    44
1040
1.0
1070
    74
1070
     0
1000
MTEXTEND
  0
POINT
  5
31489
330
3144B
100
AcDbEntity
  8
DEFPOINTS
 62
     0
 48
50.0
100
AcDbPoint
 10
3030.885813532448
 20
1453.554091015233
 30
0.0
  0
POINT
  5
3148A
330
3144B
100
AcDbEntity
  8
DEFPOINTS
 62
     0
 48
50.0
100
AcDbPoint
 10
2870.885813532448
 20
1153.554091015233
 30
0.0
  0
POINT
  5
3148B
330
3144B
100
AcDbEntity
  8
DEFPOINTS
 62
     0
 48
50.0
100
AcDbPoint
 10
2695.891873346344
 20
1153.554091015233
 30
0.0
  0
ENDBLK
  5
3144D
330
3144B
100
AcDbEntity
  8
0
 48
50.0
100
AcDbBlockEnd
  0
BLOCK
  5
31458
330
31457
100
AcDbEntity
  8
0
 48
50.0
100
AcDbBlockBegin
  2
*D43
 70
     1
 10
0.0
 20
0.0
 30
0.0
  3
*D43
  1

  0
LINE
  5
3159D
330
31457
100
AcDbEntity
  8
寸法
 62
     0
 48
50.0
370
    -2
100
AcDbLine
 10
3450.885813532448
 20
2253.554091015233
 30
0.0
 11
3450.885813532448
 21
2538.024765450507
 31
0.0
  0
LINE
  5
3159E
330
31457
100
AcDbEntity
  8
寸法
 62
     0
 48
50.0
370
    -2
100
AcDbLine
 10
3210.885813532448
 20
2253.554091015233
 30
0.0
 11
3210.885813532448
 21
2538.024765450507
 31
0.0
  0
LINE
  5
3159F
330
31457
100
AcDbEntity
  8
寸法
 62
     0
 48
50.0
370
    -2
100
AcDbLine
 10
3450.885813532448
 20
2478.024765450508
 30
0.0
 11
3210.885813532448
 21
2478.024765450508
 31
0.0
  0
INSERT
  5
315A0
330
31457
100
AcDbEntity
  8
寸法
 62
     0
 48
50.0
370
    -2
100
AcDbBlockReference
  2
_DOTSMALL
 10
3450.885813532448
 20
2478.024765450508
 30
0.0
 41
100.0
 42
100.0
 43
100.0
  0
INSERT
  5
315A1
330
31457
100
AcDbEntity
  8
寸法
 62
     0
 48
50.0
370
    -2
100
AcDbBlockReference
  2
_DOTSMALL
 10
3210.885813532448
 20
2478.024765450508
 30
0.0
 41
100.0
 42
100.0
 43
100.0
 50
180.0
  0
MTEXT
  5
315A2
330
31457
100
AcDbEntity
  8
寸法
 62
     7
 48
50.0
100
AcDbMText
 10
3330.885813532449
 20
2778.03657647413
 30
0.0
 40
120.0
 41
0.0
 71
     5
 72
     1
  1
\A1;120\P150\P195
  7
STYLE1
 73
     1
 44
1.0
1001
ACAD
1000
MTEXTBEGIN
1070
    73
1070
     1
1070
    44
1040
1.0
1070
    74
1070
     0
1000
MTEXTEND
  0
POINT
  5
315A3
330
31457
100
AcDbEntity
  8
DEFPOINTS
 62
     0
 48
50.0
100
AcDbPoint
 10
3450.885813532448
 20
2233.554091015233
 30
0.0
  0
POINT
  5
315A4
330
31457
100
AcDbEntity
  8
DEFPOINTS
 62
     0
 48
50.0
100
AcDbPoint
 10
3210.885813532448
 20
2233.554091015233
 30
0.0
  0
POINT
  5
315A5
330
31457
100
AcDbEntity
  8
DEFPOINTS
 62
     0
 48
50.0
100
AcDbPoint
 10
3210.885813532448
 20
2478.024765450508
 30
0.0
  0
ENDBLK
  5
31459
330
31457
100
AcDbEntity
  8
0
 48
50.0
100
AcDbBlockEnd
  0
BLOCK
  5
31464
330
31463
100
AcDbEntity
  8
0
 48
50.0
100
AcDbBlockBegin
  2
*D44
 70
     1
 10
0.0
 20
0.0
 30
0.0
  3
*D44
  1

  0
LINE
  5
31495
330
31463
100
AcDbEntity
  8
寸法
 62
     0
 48
50.0
370
    -2
100
AcDbLine
 10
8018.334397420186
 20
2283.554091015232
 30
0.0
 11
9014.64222897432
 21
2283.554091015232
 31
0.0
  0
LINE
  5
31496
330
31463
100
AcDbEntity
  8
寸法
 62
     0
 48
50.0
370
    -2
100
AcDbLine
 10
8222.334397420171
 20
2233.554091015232
 30
0.0
 11
9014.64222897432
 21
2233.554091015232
 31
0.0
  0
LINE
  5
31497
330
31463
100
AcDbEntity
  8
寸法
 62
     0
 48
50.0
370
    -2
100
AcDbLine
 10
8954.64222897432
 20
2283.554091015232
 30
0.0
 11
8954.64222897432
 21
2383.554091015232
 31
0.0
  0
LINE
  5
31498
330
31463
100
AcDbEntity
  8
寸法
 62
     0
 48
50.0
370
    -2
100
AcDbLine
 10
8954.64222897432
 20
2233.554091015232
 30
0.0
 11
8954.64222897432
 21
1501.536284172264
 31
0.0
  0
LINE
  5
31499
330
31463
100
AcDbEntity
  8
寸法
 62
     0
 48
50.0
370
    -2
100
AcDbLine
 10
8954.64222897432
 20
2283.554091015232
 30
0.0
 11
8954.64222897432
 21
2233.554091015232
 31
0.0
  0
INSERT
  5
3149A
330
31463
100
AcDbEntity
  8
寸法
 62
     0
 48
50.0
370
    -2
100
AcDbBlockReference
  2
_DOTSMALL
 10
8954.64222897432
 20
2283.554091015232
 30
0.0
 41
100.0
 42
100.0
 43
100.0
 50
270.0
  0
INSERT
  5
3149B
330
31463
100
AcDbEntity
  8
寸法
 62
     0
 48
50.0
370
    -2
100
AcDbBlockReference
  2
_DOTSMALL
 10
8954.64222897432
 20
2233.554091015232
 30
0.0
 41
100.0
 42
100.0
 43
100.0
 50
90.0
  0
MTEXT
  5
3149C
330
31463
100
AcDbEntity
  8
寸法
 62
     7
 48
50.0
100
AcDbMText
 10
8854.6304179507
 20
1767.545187593748
 30
0.0
 40
120.0
 41
0.0
 71
     5
 72
     1
  1
\A1;20～25
  7
STYLE1
 11
0.0000000000000001
 21
1.0
 31
0.0
 73
     1
 44
1.0
1001
ACAD
1000
MTEXTBEGIN
1070
    73
1070
     1
1070
    44
1040
1.0
1070
    74
1070
     0
1000
MTEXTEND
  0
POINT
  5
3149D
330
31463
100
AcDbEntity
  8
DEFPOINTS
 62
     0
 48
50.0
100
AcDbPoint
 10
7998.334397420186
 20
2283.554091015232
 30
0.0
  0
POINT
  5
3149E
330
31463
100
AcDbEntity
  8
DEFPOINTS
 62
     0
 48
50.0
100
AcDbPoint
 10
8202.334397420171
 20
2233.554091015232
 30
0.0
  0
POINT
  5
3149F
330
31463
100
AcDbEntity
  8
DEFPOINTS
 62
     0
 48
50.0
100
AcDbPoint
 10
8954.64222897432
 20
2233.554091015232
 30
0.0
  0
ENDBLK
  5
31465
330
31463
100
AcDbEntity
  8
0
 48
50.0
100
AcDbBlockEnd
  0
ENDSEC
  0
SECTION
  2
ENTITIES
  0
LINE
  5
10B57
330
747D
100
AcDbEntity
  8
補助
  6
PHANTOM
 62
   230
 48
50.0
100
AcDbLine
 10
139.9999999999995
 20
11409.6
 30
0.0
 11
16307.2
 21
11409.6
 31
0.0
  0
LINE
  5
10B5D
330
747D
100
AcDbEntity
  8
仕様書枠
 48
50.0
100
AcDbLine
 10
140.0
 20
0.0
 30
0.0
 11
16307.2
 21
-0.0000000000000909
 31
0.0
  0
LINE
  5
10B5E
330
747D
100
AcDbEntity
  8
補助
  6
PHANTOM
 62
   230
 48
50.0
100
AcDbLine
 10
16307.2
 20
11409.6
 30
0.0
 11
16307.2
 21
1200.0
 31
0.0
  0
LINE
  5
10B6D
330
747D
100
AcDbEntity
  8
補助
  6
PHANTOM
 62
   230
 48
50.0
100
AcDbLine
 10
13107.2
 20
11409.6
 30
0.0
 11
13107.2
 21
4800.0
 31
0.0
  0
LINE
  5
10B6F
330
747D
100
AcDbEntity
  8
補助
  6
PHANTOM
 62
   230
 48
50.0
100
AcDbLine
 10
13107.2
 20
4800.0
 30
0.0
 11
16307.2
 21
4800.0
 31
0.0
  0
LINE
  5
21838
330
747D
100
AcDbEntity
  8
補助
  6
PHANTOM
 62
   230
 48
50.0
100
AcDbLine
 10
140.0
 20
11409.6
 30
0.0
 11
140.0
 21
0.0
 31
0.0
  0
LINE
  5
2D80E
330
747D
100
AcDbEntity
  8
仕様書枠
  6
Continuous
 48
50.0
100
AcDbLine
 10
13107.19999999999
 20
1200.0
 30
0.0
 11
13107.19999999999
 21
0.0
 31
0.0
  0
LINE
  5
2D80F
330
747D
100
AcDbEntity
  8
仕様書枠
 48
50.0
100
AcDbLine
 10
16307.19999999999
 20
1200.0
 30
0.0
 11
16307.19999999999
 21
0.0
 31
0.0
  0
LINE
  5
2D810
330
747D
100
AcDbEntity
  8
仕様書枠
 48
50.0
100
AcDbLine
 10
13107.19999999999
 20
1200.0
 30
0.0
 11
16307.19999999999
 21
1200.0
 31
0.0
  0
LINE
  5
2D811
330
747D
100
AcDbEntity
  8
文字
 62
     7
 48
50.0
100
AcDbLine
 10
13187.19999999999
 20
375.0
 30
0.0
 11
16227.19999999999
 21
375.0
 31
0.0
  0
TEXT
  5
2D812
330
747D
100
AcDbEntity
  8
文字
 62
     7
 48
50.0
100
AcDbText
 10
13162.97905657689
 20
895.09060742994
 30
0.0
 40
200.0
  1
基 礎 図
  7
STYLE2
100
AcDbText
  0
TEXT
  5
2D814
330
747D
100
AcDbEntity
  8
文字
 62
     7
 48
50.0
100
AcDbText
 10
14874.73541415803
 20
1031.557706291229
 30
0.0
 40
100.0
  1
     <縮尺> S=1/40
  7
STYLE2
100
AcDbText
  0
LINE
  5
2D815
330
747D
100
AcDbEntity
  8
仕様書枠
 48
50.0
100
AcDbLine
 10
13107.19999999999
 20
800.0
 30
0.0
 11
14251.19999999999
 21
800.0
 31
0.0
  0
LINE
  5
2D816
330
747D
100
AcDbEntity
  8
仕様書枠
  6
Continuous
 48
50.0
100
AcDbLine
 10
14251.19999999999
 20
1200.0
 30
0.0
 11
14251.19999999999
 21
800.0
 31
0.0
  0
TEXT
  5
2D817
330
747D
100
AcDbEntity
  8
文字
 62
     7
 48
50.0
100
AcDbText
 10
14641.2525855784
 20
871.1744590657927
 30
0.0
 40
100.0
  1
～一般型・多雪地型～
  7
STYLE2
100
AcDbText
  0
TEXT
  5
2D819
330
747D
100
AcDbEntity
  8
文字
 62
     7
 48
50.0
100
AcDbText
 10
13188.16259899338
 20
246.7109242801889
 30
0.0
 40
80.0
  1
※寒冷地等は地域の実情に合わせた基礎にして下さい。
  7
STYLE2
100
AcDbText
  0
TEXT
  5
2D81A
330
747D
100
AcDbEntity
  8
文字
 62
     7
 48
50.0
100
AcDbText
 10
13188.16259899338
 20
79.80631269190417
 30
0.0
 40
80.0
  1
※布基礎には換気口を設けてください。
  7
STYLE2
100
AcDbText
  0
TEXT
  5
2FD8E
330
747D
100
AcDbEntity
  8
寸法
 62
     7
 48
50.0
100
AcDbText
 10
12993.54526196963
 20
2151.1800208346
 30
0.0
 40
100.0
  1
※基礎ボルトのサイズについて
  7
STYLE2
100
AcDbText
  0
MTEXT
  5
2FD8F
330
747D
100
AcDbEntity
  8
寸法
 62
     7
 48
50.0
100
AcDbMText
 10
13204.33463629312
 20
2039.217108093211
 30
0.0
 40
100.0
 41
1364.675489556975
 71
     1
 72
     5
  1
・M10\U+00D7160～200\P又は\P・W3/8\U+00D7160～200
  7
STYLE2
 73
     1
 44
1.0
1001
ACAD
1000
ACAD_MTEXT_COLUMN_INFO_BEGIN
1070
    75
1070
     2
1070
    79
1070
     0
1070
    76
1070
     1
1070
    78
1070
     0
1070
    48
1040
1364.675489556975
1070
    49
1040
20.0
1070
    50
1070
     1
1040
0.0
1000
ACAD_MTEXT_COLUMN_INFO_END
1000
MTEXTBEGIN
1070
    73
1070
     1
1070
    44
1040
1.0
1070
    74
1070
     0
1000
MTEXTEND
  0
LINE
  5
303FF
330
747D
100
AcDbEntity
  8
補助
  6
PHANTOM
 62
   230
 48
50.0
100
AcDbLine
 10
8223.600000000001
 20
11409.6
 30
0.0
 11
8223.599999999999
 21
-0.0000000000000455
 31
0.0
  0
LINE
  5
30400
330
747D
100
AcDbEntity
  8
補助
  6
PHANTOM
 62
   230
 48
50.0
100
AcDbLine
 10
140.0
 20
5704.8
 30
0.0
 11
16307.2
 21
5704.8
 31
0.0
  0
DIMENSION
  5
307E7
330
747D
100
AcDbEntity
  8
寸法
 48
50.0
100
AcDbDimension
  2
*D18
 10
6408.600000000015
 20
8395.844677018857
 30
0.0
 11
6107.425378797556
 21
8395.844677018857
 31
0.0
 70
   160
  1
a
 71
     5
 42
35.0
  3
INABA_S40G
100
AcDbAlignedDimension
 13
6373.600000000015
 23
8183.38398150203
 33
0.0
 14
6408.600000000015
 24
7589.800000000001
 34
0.0
100
AcDbRotatedDimension
1001
ACAD
1000
DSTYLE
1002
{
1070
   341
1005
0
1002
}
  0
LINE
  5
307E8
330
747D
100
AcDbEntity
  8
部品1
 48
50.0
100
AcDbLine
 10
10038.60000000001
 20
7589.800000000001
 30
0.0
 11
6408.600000000015
 21
7589.800000000001
 31
0.0
  0
DIMENSION
  5
307E9
330
747D
100
AcDbEntity
  8
寸法
 48
50.0
100
AcDbDimension
  2
*D19
 10
10038.59999999998
 20
8395.844677018857
 30
0.0
 11
8223.600000000001
 21
8395.844677018857
 31
0.0
 70
   160
 71
     5
 42
3629.999999999971
  3
INABA_S40G
100
AcDbAlignedDimension
 13
6408.600000000015
 23
7589.800000000001
 33
0.0
 14
10038.59999999998
 24
7579.800000000002
 34
0.0
100
AcDbRotatedDimension
1001
ACAD
1000
DSTYLE
1002
{
1070
   341
1005
0
1002
}
  0
DIMENSION
  5
307EA
330
747D
100
AcDbEntity
  8
寸法
 48
50.0
100
AcDbDimension
  2
*D20
 10
8095.600000000015
 20
8183.38398150203
 30
0.0
 11
9009.600000000014
 21
8183.38398150203
 31
0.0
 70
   160
 71
     5
 42
1828.0
  3
INABA_S40G
100
AcDbAlignedDimension
 13
9923.600000000014
 23
7589.800000000001
 33
0.0
 14
8095.600000000015
 24
7506.800000000001
 34
0.0
100
AcDbRotatedDimension
1001
ACAD
1000
DSTYLE
1002
{
1070
   341
1005
0
1002
}
  0
LINE
  5
307EB
330
747D
100
AcDbEntity
  8
部品1
 48
50.0
100
AcDbLine
 10
6528.600000000015
 20
6019.800000000008
 30
0.0
 11
6528.600000000015
 21
7349.799999999993
 31
0.0
  0
LINE
  5
307EC
330
747D
100
AcDbEntity
  8
部品1
 48
50.0
100
AcDbLine
 10
6408.600000000015
 20
5779.800000000001
 30
0.0
 11
6408.600000000015
 21
7589.800000000001
 31
0.0
  0
LINE
  5
307ED
330
747D
100
AcDbEntity
  8
部品1
 48
50.0
100
AcDbLine
 10
8003.600000000016
 20
5899.800000000023
 30
0.0
 11
6648.6
 21
5899.799999999994
 31
0.0
  0
LINE
  5
307EE
330
747D
100
AcDbEntity
  8
部品1
 48
50.0
100
AcDbLine
 10
8273.600000000014
 20
5704.800000000001
 30
0.0
 11
6408.600000000015
 21
5704.799999999987
 31
0.0
  0
LINE
  5
307EF
330
747D
100
AcDbEntity
  8
部品1
 48
50.0
100
AcDbLine
 10
6648.6
 20
5899.800000000001
 30
0.0
 11
6648.599999999986
 21
6019.800000000008
 31
0.0
  0
LINE
  5
307F0
330
747D
100
AcDbEntity
  8
センター
 48
2.0
100
AcDbLine
 10
6541.600000000015
 20
5952.800000000001
 30
0.0
 11
6541.600000000015
 21
5852.800000000002
 31
0.0
  0
LINE
  5
307F1
330
747D
100
AcDbEntity
  8
センター
 48
2.0
100
AcDbLine
 10
6491.600000000016
 20
5902.800000000001
 30
0.0
 11
6591.600000000015
 21
5902.800000000001
 31
0.0
  0
LINE
  5
307F2
330
747D
100
AcDbEntity
  8
部品1
 48
50.0
100
AcDbLine
 10
6408.600000000015
 20
5704.800000000001
 30
0.0
 11
6408.600000000015
 21
5779.799999999987
 31
0.0
  0
LINE
  5
307F3
330
747D
100
AcDbEntity
  8
部品1
 48
50.0
100
AcDbLine
 10
6648.599999999986
 20
6019.800000000008
 30
0.0
 11
6528.600000000015
 21
6019.800000000001
 31
0.0
  0
LINE
  5
307F4
330
747D
100
AcDbEntity
  8
部品1
 48
50.0
100
AcDbLine
 10
6528.600000000015
 20
6579.800000000002
 30
0.0
 11
6408.600000000015
 21
6579.800000000002
 31
0.0
  0
LINE
  5
307F5
330
747D
100
AcDbEntity
  8
部品1
 48
50.0
100
AcDbLine
 10
7218.600000000015
 20
5899.800000000016
 30
0.0
 11
7218.600000000015
 21
5704.799999999987
 31
0.0
  0
LINE
  5
307F6
330
747D
100
AcDbEntity
  8
部品1
 48
50.0
100
AcDbLine
 10
7418.600000000015
 20
5899.800000000016
 30
0.0
 11
7418.600000000015
 21
5704.799999999987
 31
0.0
  0
LINE
  5
307F7
330
747D
100
AcDbEntity
  8
部品1
 48
50.0
100
AcDbLine
 10
8123.600000000015
 20
6019.800000000016
 30
0.0
 11
8003.600000000016
 21
6019.800000000016
 31
0.0
  0
LINE
  5
307F8
330
747D
100
AcDbEntity
  8
部品1
 48
50.0
100
AcDbLine
 10
8003.600000000016
 20
5899.800000000023
 30
0.0
 11
8003.6
 21
6019.800000000016
 31
0.0
  0
LINE
  5
307F9
330
747D
100
AcDbEntity
  8
センター
 48
2.0
100
AcDbLine
 10
8045.600000000014
 20
5902.800000000001
 30
0.0
 11
8145.600000000014
 21
5902.800000000001
 31
0.0
  0
LINE
  5
307FA
330
747D
100
AcDbEntity
  8
センター
 48
2.0
100
AcDbLine
 10
8095.600000000015
 20
5952.800000000001
 30
0.0
 11
8095.600000000015
 21
5852.800000000002
 31
0.0
  0
LINE
  5
307FB
330
747D
100
AcDbEntity
  8
部品1
 48
50.0
100
AcDbLine
 10
9918.600020404857
 20
7469.799999999986
 30
0.0
 11
8273.600000000014
 21
7469.800000000001
 31
0.0
  0
LINE
  5
307FC
330
747D
100
AcDbEntity
  8
部品1
 48
50.0
100
AcDbLine
 10
8003.600000000016
 20
7469.800000000045
 30
0.0
 11
6648.6
 21
7469.800000000024
 31
0.0
  0
DIMENSION
  5
307FD
330
747D
100
AcDbEntity
  8
寸法
 48
50.0
100
AcDbDimension
  2
*D21
 10
6541.600000000015
 20
8183.38398150203
 30
0.0
 11
7318.600000000015
 21
8283.383981502032
 31
0.0
 70
    32
 71
     5
 42
1554.0
  3
INABA_S40G
100
AcDbAlignedDimension
 13
8095.600000000015
 23
7506.800000000001
 33
0.0
 14
6541.600000000015
 24
7506.800000000001
 34
0.0
100
AcDbRotatedDimension
1001
ACAD
1000
DSTYLE
1002
{
1070
   341
1005
0
1002
}
  0
DIMENSION
  5
307FE
330
747D
100
AcDbEntity
  8
寸法
 48
50.0
100
AcDbDimension
  2
*D22
 10
6408.600000000015
 20
8183.38398150203
 30
0.0
 11
6145.49339828222
 21
8183.38398150203
 31
0.0
 70
   160
 71
     5
 42
133.0
  3
INABA_S40G
100
AcDbAlignedDimension
 13
6541.600000000015
 23
7506.800000000001
 33
0.0
 14
6408.600000000015
 24
7589.800000000001
 34
0.0
100
AcDbRotatedDimension
1001
ACAD
1000
DSTYLE
1002
{
1070
   341
1005
0
1002
}
  0
DIMENSION
  5
307FF
330
747D
100
AcDbEntity
  8
寸法
 48
50.0
100
AcDbDimension
  2
*D23
 10
6865.896811861817
 20
7589.800000000001
 30
0.0
 11
6865.896811861816
 21
7825.847244094496
 31
0.0
 70
   160
 71
     5
 42
119.9999999999854
  3
INABA_S40G
100
AcDbAlignedDimension
 13
6805.896811861824
 23
7469.800000000017
 33
0.0
 14
6805.896811861824
 24
7589.800000000001
 34
0.0
 50
90.0
100
AcDbRotatedDimension
1001
ACAD
1000
DSTYLE
1002
{
1070
   341
1005
0
1002
}
  0
DIMENSION
  5
30800
330
747D
100
AcDbEntity
  8
寸法
 48
50.0
100
AcDbDimension
  2
*D24
 10
6865.896811861816
 20
7349.799999999972
 30
0.0
 11
6858.496816406821
 21
7213.004644282676
 31
0.0
 70
   160
 71
     5
 42
120.0000000000436
  3
INABA_S40G
100
AcDbAlignedDimension
 13
6936.002954829813
 23
7469.800000000017
 33
0.0
 14
6648.6
 24
7349.799999999972
 34
0.0
 50
90.0
100
AcDbRotatedDimension
1001
ACAD
1000
DSTYLE
1002
{
1070
   279
1070
     1
1002
}
  0
LINE
  5
30801
330
747D
100
AcDbEntity
  8
部品1
 48
50.0
100
AcDbLine
 10
6528.600000000015
 20
6779.800000000001
 30
0.0
 11
6408.600000000015
 21
6779.800000000001
 31
0.0
  0
LINE
  5
30802
330
747D
100
AcDbEntity
  8
部品1
 48
50.0
100
AcDbLine
 10
6648.6
 20
7349.799999999972
 30
0.0
 11
6528.60000000003
 21
7349.799999999993
 31
0.0
  0
LINE
  5
30803
330
747D
100
AcDbEntity
  8
センター
 48
2.0
100
AcDbLine
 10
6541.600000000015
 20
7506.800000000001
 30
0.0
 11
6541.600000000015
 21
7406.800000000001
 31
0.0
  0
LINE
  5
30804
330
747D
100
AcDbEntity
  8
センター
 48
2.0
100
AcDbLine
 10
6491.600000000016
 20
7456.800000000001
 30
0.0
 11
6591.600000000015
 21
7456.800000000001
 31
0.0
  0
LINE
  5
30805
330
747D
100
AcDbEntity
  8
部品1
 48
50.0
100
AcDbLine
 10
6648.6
 20
7349.799999999986
 30
0.0
 11
6648.600000000015
 21
7469.800000000017
 31
0.0
  0
LINE
  5
30806
330
747D
100
AcDbEntity
  8
部品1
 48
50.0
100
AcDbLine
 10
7218.600000000015
 20
7589.800000000001
 30
0.0
 11
7218.600000000015
 21
7469.800000000001
 31
0.0
  0
LINE
  5
30807
330
747D
100
AcDbEntity
  8
部品1
 48
50.0
100
AcDbLine
 10
7418.600000000015
 20
7589.800000000001
 30
0.0
 11
7418.600000000015
 21
7469.800000000001
 31
0.0
  0
LINE
  5
30808
330
747D
100
AcDbEntity
  8
部品1
 48
50.0
100
AcDbLine
 10
8123.600000000015
 20
7349.800000000001
 30
0.0
 11
8003.600000000016
 21
7349.800000000001
 31
0.0
  0
LINE
  5
30809
330
747D
100
AcDbEntity
  8
部品1
 48
50.0
100
AcDbLine
 10
8003.600000000016
 20
7469.800000000045
 30
0.0
 11
8003.600000000016
 21
7349.800000000001
 31
0.0
  0
LINE
  5
3080A
330
747D
100
AcDbEntity
  8
センター
 48
2.0
100
AcDbLine
 10
8095.600000000015
 20
7506.800000000001
 30
0.0
 11
8095.600000000015
 21
7406.800000000001
 31
0.0
  0
LINE
  5
3080B
330
747D
100
AcDbEntity
  8
センター
 48
2.0
100
AcDbLine
 10
8045.600000000014
 20
7456.800000000001
 30
0.0
 11
8145.600000000014
 21
7456.800000000001
 31
0.0
  0
LINE
  5
3080C
330
747D
100
AcDbEntity
  8
部品1
 48
50.0
100
AcDbLine
 10
10038.59999999998
 20
5704.800000000001
 30
0.0
 11
10038.60000000001
 21
7589.800000000001
 31
0.0
  0
DIMENSION
  5
3080D
330
747D
100
AcDbEntity
  8
寸法
 48
50.0
100
AcDbDimension
  2
*D25
 10
6408.600000000015
 20
5194.653362321709
 30
0.0
 11
7341.100000000015
 21
5194.653362321709
 31
0.0
 70
   160
 71
     5
 42
1865.0
  3
INABA_S40G
100
AcDbAlignedDimension
 13
8273.600000000014
 23
5704.800000000001
 33
0.0
 14
6408.600000000015
 24
5704.799999999987
 34
0.0
100
AcDbRotatedDimension
1001
ACAD
1000
DSTYLE
1002
{
1070
   341
1005
0
1002
}
  0
DIMENSION
  5
3080E
330
747D
100
AcDbEntity
  8
寸法
 48
50.0
100
AcDbDimension
  2
*D26
 10
8649.672863559487
 20
5779.800000000015
 30
0.0
 11
8649.672863559485
 21
6313.28528137427
 31
0.0
 70
   160
  1
扉の出<>
 71
     5
 42
75.0
  3
INABA_S40G
100
AcDbAlignedDimension
 13
8273.600000000014
 23
5704.800000000016
 33
0.0
 14
8273.600000000014
 24
5779.800000000015
 34
0.0
 50
90.0
100
AcDbRotatedDimension
1001
ACAD
1000
DSTYLE
1002
{
1070
   341
1005
0
1002
}
  0
LINE
  5
3080F
330
747D
100
AcDbEntity
  8
細線
 48
50.0
100
AcDbLine
 10
7218.600000000015
 20
5870.356559235863
 30
0.0
 11
7248.043440764138
 21
5899.800000000016
 31
0.0
  0
LINE
  5
30810
330
747D
100
AcDbEntity
  8
細線
 48
50.0
100
AcDbLine
 10
7218.600000000015
 20
5825.455278630512
 30
0.0
 11
7292.94472136949
 21
5899.800000000016
 31
0.0
  0
LINE
  5
30811
330
747D
100
AcDbEntity
  8
細線
 48
50.0
100
AcDbLine
 10
7218.600000000015
 20
5780.553998025162
 30
0.0
 11
7337.84600197484
 21
5899.800000000016
 31
0.0
  0
LINE
  5
30812
330
747D
100
AcDbEntity
  8
細線
 48
50.0
100
AcDbLine
 10
7218.600000000015
 20
5735.652717419825
 30
0.0
 11
7382.74728258019
 21
5899.800000000016
 31
0.0
  0
LINE
  5
30813
330
747D
100
AcDbEntity
  8
細線
 48
50.0
100
AcDbLine
 10
7232.648563185512
 20
5704.799999999987
 30
0.0
 11
7418.600000000015
 21
5890.751436814475
 31
0.0
  0
LINE
  5
30814
330
747D
100
AcDbEntity
  8
細線
 48
50.0
100
AcDbLine
 10
7277.549843790862
 20
5704.799999999987
 30
0.0
 11
7418.600000000015
 21
5845.850156209138
 31
0.0
  0
LINE
  5
30815
330
747D
100
AcDbEntity
  8
細線
 48
50.0
100
AcDbLine
 10
7322.451124396214
 20
5704.799999999987
 30
0.0
 11
7418.600000000015
 21
5800.948875603788
 31
0.0
  0
LINE
  5
30816
330
747D
100
AcDbEntity
  8
細線
 48
50.0
100
AcDbLine
 10
7367.352405001565
 20
5704.799999999987
 30
0.0
 11
7418.600000000015
 21
5756.047594998438
 31
0.0
  0
LINE
  5
30817
330
747D
100
AcDbEntity
  8
細線
 48
50.0
100
AcDbLine
 10
7412.253685606914
 20
5704.799999999987
 30
0.0
 11
7418.600000000015
 21
5711.146314393086
 31
0.0
  0
LINE
  5
30818
330
747D
100
AcDbEntity
  8
細線
 48
50.0
100
AcDbLine
 10
6408.600000000015
 20
6773.841079188684
 30
0.0
 11
6414.558920811318
 21
6779.800000000001
 31
0.0
  0
LINE
  5
30819
330
747D
100
AcDbEntity
  8
細線
 48
50.0
100
AcDbLine
 10
6408.600000000015
 20
6728.939798583333
 30
0.0
 11
6459.460201416668
 21
6779.800000000001
 31
0.0
  0
LINE
  5
3081A
330
747D
100
AcDbEntity
  8
細線
 48
50.0
100
AcDbLine
 10
6408.600000000015
 20
6684.038517977983
 30
0.0
 11
6504.361482022019
 21
6779.800000000001
 31
0.0
  0
LINE
  5
3081B
330
747D
100
AcDbEntity
  8
細線
 48
50.0
100
AcDbLine
 10
6408.600000000015
 20
6639.137237372647
 30
0.0
 11
6528.600000000015
 21
6759.137237372631
 31
0.0
  0
LINE
  5
3081C
330
747D
100
AcDbEntity
  8
細線
 48
50.0
100
AcDbLine
 10
6408.600000000015
 20
6594.235956767295
 30
0.0
 11
6528.600000000015
 21
6714.235956767281
 31
0.0
  0
LINE
  5
3081D
330
747D
100
AcDbEntity
  8
細線
 48
50.0
100
AcDbLine
 10
6439.065323838042
 20
6579.800000000002
 30
0.0
 11
6528.600000000015
 21
6669.334676161945
 31
0.0
  0
LINE
  5
3081E
330
747D
100
AcDbEntity
  8
細線
 48
50.0
100
AcDbLine
 10
6483.966604443392
 20
6579.800000000002
 30
0.0
 11
6528.600000000015
 21
6624.433395556609
 31
0.0
  0
LINE
  5
3081F
330
747D
100
AcDbEntity
  8
細線
 48
50.0
100
AcDbLine
 10
7218.600000000015
 20
7554.828273135221
 30
0.0
 11
7253.571726864795
 21
7589.800000000001
 31
0.0
  0
LINE
  5
30820
330
747D
100
AcDbEntity
  8
細線
 48
50.0
100
AcDbLine
 10
7218.600000000015
 20
7509.926992529885
 30
0.0
 11
7298.473007470146
 21
7589.800000000001
 31
0.0
  0
LINE
  5
30821
330
747D
100
AcDbEntity
  8
細線
 48
50.0
100
AcDbLine
 10
7223.374288075496
 20
7469.800000000001
 30
0.0
 11
7343.374288075468
 21
7589.800000000001
 31
0.0
  0
LINE
  5
30822
330
747D
100
AcDbEntity
  8
細線
 48
50.0
100
AcDbLine
 10
7268.275568680818
 20
7469.800000000001
 30
0.0
 11
7388.275568680818
 21
7589.800000000001
 31
0.0
  0
LINE
  5
30823
330
747D
100
AcDbEntity
  8
細線
 48
50.0
100
AcDbLine
 10
7313.176849286168
 20
7469.800000000001
 30
0.0
 11
7418.600000000015
 21
7575.223150713833
 31
0.0
  0
LINE
  5
30824
330
747D
100
AcDbEntity
  8
細線
 48
50.0
100
AcDbLine
 10
7358.07812989152
 20
7469.800000000001
 30
0.0
 11
7418.600000000015
 21
7530.321870108497
 31
0.0
  0
LINE
  5
30825
330
747D
100
AcDbEntity
  8
細線
 48
50.0
100
AcDbLine
 10
7402.97941049687
 20
7469.800000000001
 30
0.0
 11
7418.600000000015
 21
7485.420589503147
 31
0.0
  0
LINE
  5
30826
330
747D
100
AcDbEntity
  8
部品1
 48
50.0
100
AcDbLine
 10
9918.600020404857
 20
5704.800000000001
 30
0.0
 11
9918.600020404857
 21
7469.799999999986
 31
0.0
  0
LINE
  5
30827
330
747D
100
AcDbEntity
  8
部品1
 48
50.0
100
AcDbLine
 10
8273.600000000014
 20
5704.800000000001
 30
0.0
 11
8273.600000000014
 21
7469.800000000017
 31
0.0
  0
LINE
  5
30828
330
747D
100
AcDbEntity
  8
部品1
 48
50.0
100
AcDbLine
 10
8123.600000000015
 20
6019.800000000016
 30
0.0
 11
8123.600000000015
 21
7349.800000000001
 31
0.0
  0
LINE
  5
30829
330
747D
100
AcDbEntity
  8
想像線
 48
10.0
100
AcDbLine
 10
6408.599999999999
 20
5779.799999999987
 30
0.0
 11
8273.600000000014
 21
5779.799999999987
 31
0.0
  0
DIMENSION
  5
3082A
330
747D
100
AcDbEntity
  8
寸法
 48
50.0
100
AcDbDimension
  2
*D27
 10
9918.600020404857
 20
6799.093800293775
 30
0.0
 11
9682.552776310368
 21
6799.093800293775
 31
0.0
 70
   160
 71
     5
 42
119.999979595188
  3
INABA_S40G
100
AcDbAlignedDimension
 13
10038.60000000004
 23
6885.46921210257
 33
0.0
 14
9918.600020404857
 24
6885.46921210257
 34
0.0
100
AcDbRotatedDimension
  0
LINE
  5
3082B
330
747D
100
AcDbEntity
  8
部品1
 48
50.0
100
AcDbLine
 10
10038.60000000001
 20
5704.800000000001
 30
0.0
 11
9918.600020404857
 21
5704.800000000001
 31
0.0
  0
DIMENSION
  5
3082C
330
747D
100
AcDbEntity
  8
寸法
 48
50.0
100
AcDbDimension
  2
*D28
 10
9923.600000000014
 20
8183.38398150203
 30
0.0
 11
10265.08528137425
 21
8183.38398150203
 31
0.0
 70
   160
 71
     5
 42
115.0
  3
INABA_S40G
100
AcDbAlignedDimension
 13
10038.60000000001
 23
7589.800000000001
 33
0.0
 14
9923.600000000014
 24
7589.800000000001
 34
0.0
100
AcDbRotatedDimension
  0
DIMENSION
  5
3082D
330
747D
100
AcDbEntity
  8
寸法
 48
50.0
100
AcDbDimension
  2
*D29
 10
10553.76059822474
 20
7539.800000000001
 30
0.0
 11
10553.76059822474
 21
7895.847244094503
 31
0.0
 70
   160
 71
     5
 42
50.0
  3
INABA_S40G
100
AcDbAlignedDimension
 13
10038.60000000001
 23
7589.800000000001
 33
0.0
 14
9973.600000000015
 24
7539.800000000001
 34
0.0
 50
90.0
100
AcDbRotatedDimension
  0
DIMENSION
  5
3082E
330
747D
100
AcDbEntity
  8
寸法
 48
50.0
100
AcDbDimension
  2
*D30
 10
7318.600000000022
 20
6381.030341049891
 30
0.0
 11
6862.600000000014
 21
6381.030341049891
 31
0.0
 70
   160
 71
     5
 42
910.0000000000072
  3
INABA_S40G
100
AcDbAlignedDimension
 13
6408.600000000015
 23
6489.800000000034
 33
0.0
 14
7318.600000000022
 24
6484.800000000034
 34
0.0
100
AcDbRotatedDimension
  0
DIMENSION
  5
3082F
330
747D
100
AcDbEntity
  8
寸法
 48
50.0
100
AcDbDimension
  2
*D31
 10
8273.600000000014
 20
6381.030341049891
 30
0.0
 11
7795.100000000015
 21
6381.030341049891
 31
0.0
 70
   160
 71
     5
 42
954.9999999999927
  3
INABA_S40G
100
AcDbAlignedDimension
 13
7318.600000000022
 23
6484.800000000034
 33
0.0
 14
8273.600000000014
 24
6489.800000000034
 34
0.0
100
AcDbRotatedDimension
  0
LINE
  5
30830
330
747D
100
AcDbEntity
  8
センター
 48
2.0
100
AcDbLine
 10
10018.60004080897
 20
5759.800000001106
 30
0.0
 11
9918.60004080897
 21
5759.800000001106
 31
0.0
  0
LINE
  5
30831
330
747D
100
AcDbEntity
  8
センター
 48
2.0
100
AcDbLine
 10
9968.60004080897
 20
5809.800000001107
 30
0.0
 11
9968.60004080897
 21
5709.800000001107
 31
0.0
  0
LINE
  5
30832
330
747D
100
AcDbEntity
  8
センター
 48
2.0
100
AcDbLine
 10
9873.600000000015
 20
7539.800000000001
 30
0.0
 11
9973.600000000015
 21
7539.800000000001
 31
0.0
  0
LINE
  5
30833
330
747D
100
AcDbEntity
  8
センター
 48
2.0
100
AcDbLine
 10
9923.600000000014
 20
7589.800000000001
 30
0.0
 11
9923.600000000014
 21
7489.800000000001
 31
0.0
  0
DIMENSION
  5
30834
330
747D
100
AcDbEntity
  8
寸法
 48
50.0
100
AcDbDimension
  2
*D32
 10
10553.76059822483
 20
5704.8
 30
0.0
 11
10553.76059822483
 21
5396.314718625763
 31
0.0
 70
   160
 71
     5
 42
55.00000000110595
  3
INABA_S40G
100
AcDbAlignedDimension
 13
10018.60004080897
 23
5759.800000001106
 33
0.0
 14
10038.59999999998
 24
5704.800000000001
 34
0.0
 50
90.0
100
AcDbRotatedDimension
  0
DIMENSION
  5
30835
330
747D
100
AcDbEntity
  8
寸法
 48
50.0
100
AcDbDimension
  2
*D33
 10
10553.76059822477
 20
7539.800000000001
 30
0.0
 11
10553.76059822477
 21
6649.800000000555
 31
0.0
 70
   160
 71
     5
 42
1779.999999998894
  3
INABA_S40G
100
AcDbAlignedDimension
 13
10018.60004080897
 23
5759.800000001106
 33
0.0
 14
9973.600000000015
 24
7539.800000000001
 34
0.0
 50
90.0
100
AcDbRotatedDimension
  0
LINE
  5
30836
330
747D
100
AcDbEntity
  8
想像線
 48
10.0
100
AcDbLine
 10
6373.600000000015
 20
7654.800000000001
 30
0.0
 11
10053.60000000001
 21
7654.800000000001
 31
0.0
  0
LINE
  5
30837
330
747D
100
AcDbEntity
  8
想像線
 48
10.0
100
AcDbLine
 10
6373.600000000015
 20
6684.800000000001
 30
0.0
 11
6373.600000000015
 21
7654.800000000001
 31
0.0
  0
LINE
  5
30838
330
747D
100
AcDbEntity
  8
想像線
 48
10.0
100
AcDbLine
 10
10053.60000000001
 20
5724.800000000001
 30
0.0
 11
10053.60000000001
 21
7654.800000000001
 31
0.0
  0
LINE
  5
30839
330
747D
100
AcDbEntity
  8
想像線
 48
10.0
100
AcDbLine
 10
9306.100010202451
 20
5724.800000000001
 30
0.0
 11
10053.60000000001
 21
5724.800000000001
 31
0.0
  0
DIMENSION
  5
3083A
330
747D
100
AcDbEntity
  8
寸法
 48
50.0
100
AcDbDimension
  2
*D34
 10
10038.60000000001
 20
8395.844677018857
 30
0.0
 11
10319.77462120247
 21
8395.844677018857
 31
0.0
 70
   160
  1
b
 71
     5
 42
15.0
  3
INABA_S40G
100
AcDbAlignedDimension
 13
10053.60000000001
 23
8183.38398150203
 33
0.0
 14
10038.60000000001
 24
7589.800000000001
 34
0.0
100
AcDbRotatedDimension
  0
DIMENSION
  5
3083C
330
747D
100
AcDbEntity
  8
寸法
 48
50.0
100
AcDbDimension
  2
*D35
 10
10038.60000000001
 20
5194.653362321709
 30
0.0
 11
9156.100000000014
 21
5194.653362321709
 31
0.0
 70
   160
 71
     5
 42
1765.0
  3
INABA_S40G
100
AcDbAlignedDimension
 13
8273.600000000014
 23
5704.800000000001
 33
0.0
 14
10038.60000000001
 24
5704.800000000001
 34
0.0
100
AcDbRotatedDimension
  0
DIMENSION
  5
3083D
330
747D
100
AcDbEntity
  8
寸法
 48
50.0
100
AcDbDimension
  2
*D36
 10
9340.736107975168
 20
7469.800000000001
 30
0.0
 11
9340.736107975166
 21
7233.752755905513
 31
0.0
 70
   160
 71
     5
 42
120.0
  3
INABA_S40G
100
AcDbAlignedDimension
 13
9318.600000000015
 23
7589.800000000001
 33
0.0
 14
9318.600000000015
 24
7469.800000000001
 34
0.0
 50
90.0
100
AcDbRotatedDimension
  0
MTEXT
  5
3083E
330
747D
100
AcDbEntity
  8
部品1
 62
     7
 48
50.0
100
AcDbMText
 10
7893.78309665825
 20
7981.195066915576
 30
0.0
 40
120.0
 41
0.0
 71
     6
 72
     1
  1
\A1;床下換気口
  7
STYLE1
 73
     1
 44
1.0
1001
ACAD
1000
MTEXTBEGIN
1070
    73
1070
     1
1070
    44
1040
1.0
1070
    74
1070
     0
1000
MTEXTEND
  0
TEXT
  5
3083F
330
747D
100
AcDbEntity
  8
寸法
 62
     7
100
AcDbText
 10
7209.450059178353
 20
5519.990652077524
 30
0.0
 40
120.0
  1
扉面
  7
STYLE1
100
AcDbText
  0
LEADER
  5
30840
330
747D
100
AcDbEntity
  8
寸法
 48
50.0
100
AcDbLeader
  3
INABA_S40G
 71
     0
 76
     3
 10
7313.149165047779
 20
7589.800000000001
 30
0.0
 10
7186.520557883699
 20
7874.077163316293
 30
0.0
 10
7947.756528160079
 20
7874.077163316293
 30
0.0
211
-1.0
221
0.0000000000000001
231
0.0
1001
ACAD
1000
DSTYLE
1002
{
1070
    77
1070
     0
1070
   341
1005
0
1002
}
  0
DIMENSION
  5
30841
330
747D
100
AcDbEntity
  8
寸法
 48
50.0
100
AcDbDimension
  2
*D37
 10
10038.60000000001
 20
6002.539513518508
 30
0.0
 11
10345.1997901059
 21
6002.539513518508
 31
0.0
 70
   160
 71
     5
 42
69.99995919104549
  3
INABA_S40G
100
AcDbAlignedDimension
 13
9968.60004080897
 23
5808.800000001107
 33
0.0
 14
10038.60000000001
 24
5808.800000001107
 34
0.0
 50
180.0
100
AcDbRotatedDimension
1001
ACAD
1000
DSTYLE
1002
{
1070
   279
1070
     1
1002
}
  0
DIMENSION
  5
30842
330
747D
100
AcDbEntity
  8
寸法
 48
50.0
100
AcDbDimension
  2
*D38
 10
9918.600020404886
 20
6002.539513518508
 30
0.0
 11
9610.94064155999
 21
6002.539513518508
 31
0.0
 70
   160
 71
     5
 42
50.00002040408435
  3
INABA_S40G
100
AcDbAlignedDimension
 13
9968.60004080897
 23
5808.800000001107
 33
0.0
 14
9918.600020404886
 24
5808.800000001107
 34
0.0
100
AcDbRotatedDimension
1001
ACAD
1000
DSTYLE
1002
{
1070
   279
1070
     1
1002
}
  0
DIMENSION
  5
30843
330
747D
100
AcDbEntity
  8
寸法
 48
50.0
100
AcDbDimension
  2
*D39
 10
8273.600000000014
 20
7758.450622919742
 30
0.0
 11
8509.600000000014
 21
7758.450622919742
 31
0.0
 70
   160
 71
     5
 42
178.0
  3
INABA_S40G
100
AcDbAlignedDimension
 13
8095.600000000015
 23
7506.800000000001
 33
0.0
 14
8273.600000000014
 24
7469.800000000001
 34
0.0
100
AcDbRotatedDimension
  0
LINE
  5
30844
330
747D
100
AcDbEntity
  8
寸法
 48
50.0
100
AcDbLine
 10
6865.896811861823
 20
7469.800000000031
 30
0.0
 11
6865.896811861823
 21
7070.584689781468
 31
0.0
  0
LINE
  5
30845
330
747D
100
AcDbEntity
  8
部品1
 48
50.0
100
AcDbLine
 10
8273.600000000014
 20
6579.800000000002
 30
0.0
 11
8123.600000000015
 21
6579.800000000002
 31
0.0
  0
LINE
  5
30846
330
747D
100
AcDbEntity
  8
部品1
 48
50.0
100
AcDbLine
 10
8273.600000000014
 20
6779.800000000001
 30
0.0
 11
8123.600000000015
 21
6779.800000000001
 31
0.0
  0
LINE
  5
30847
330
747D
100
AcDbEntity
  8
細線
 48
50.0
100
AcDbLine
 10
8153.600000000016
 20
6773.841079188684
 30
0.0
 11
8159.558920811333
 21
6779.800000000001
 31
0.0
  0
LINE
  5
30848
330
747D
100
AcDbEntity
  8
細線
 48
50.0
100
AcDbLine
 10
8123.600000000015
 20
6698.93979858331
 30
0.0
 11
8204.460201416669
 21
6779.800000000001
 31
0.0
  0
LINE
  5
30849
330
747D
100
AcDbEntity
  8
細線
 48
50.0
100
AcDbLine
 10
8123.600000000015
 20
6654.038517977972
 30
0.0
 11
8249.361482022019
 21
6779.800000000001
 31
0.0
  0
LINE
  5
3084A
330
747D
100
AcDbEntity
  8
細線
 48
50.0
100
AcDbLine
 10
8123.600000000015
 20
6609.13723737265
 30
0.0
 11
8273.600000000014
 21
6759.137237372631
 31
0.0
  0
LINE
  5
3084B
330
747D
100
AcDbEntity
  8
細線
 48
50.0
100
AcDbLine
 10
8139.164043232721
 20
6579.800000000002
 30
0.0
 11
8273.600000000014
 21
6714.235956767281
 31
0.0
  0
LINE
  5
3084C
330
747D
100
AcDbEntity
  8
細線
 48
50.0
100
AcDbLine
 10
8184.065323838057
 20
6579.800000000002
 30
0.0
 11
8273.600000000014
 21
6669.334676161945
 31
0.0
  0
LINE
  5
3084D
330
747D
100
AcDbEntity
  8
細線
 48
50.0
100
AcDbLine
 10
8228.966604443407
 20
6579.800000000002
 30
0.0
 11
8273.600000000014
 21
6624.433395556609
 31
0.0
  0
TEXT
  5
3084E
330
747D
100
AcDbEntity
  8
部品1
 48
50.0
100
AcDbText
 10
4421.514356912938
 20
8175.595327841742
 30
0.0
 40
80.0
  1
(a=35,b=15,c=65)
  7
STYLE1
100
AcDbText
  0
TEXT
  5
3084F
330
747D
100
AcDbEntity
  8
部品1
 48
50.0
100
AcDbText
 10
4307.814116186995
 20
8309.151853927685
 30
0.0
 40
80.0
  1
※a,b,cは屋根の出幅です。
  7
STYLE1
100
AcDbText
  0
MTEXT
  5
30850
330
747D
100
AcDbEntity
  8
部品1
 62
     7
 48
50.0
100
AcDbMText
 10
5044.987562344215
 20
8520.819754127154
 30
0.0
 40
120.0
 41
0.0
 71
     6
 72
     1
  1
\A1;屋根の外寸
  7
STYLE1
 73
     1
 44
1.0
1001
ACAD
1000
MTEXTBEGIN
1070
    73
1070
     1
1070
    44
1040
1.0
1070
    74
1070
     0
1000
MTEXTEND
  0
LINE
  5
30851
330
747D
100
AcDbEntity
  8
寸法
 48
50.0
100
AcDbLine
 10
4314.429304992789
 20
8423.747352181218
 30
0.0
 11
5424.498569337005
 21
8423.747352181218
 31
0.0
  0
LINE
  5
30852
330
747D
100
AcDbEntity
  8
寸法
 48
50.0
100
AcDbLine
 10
5424.498569337005
 20
8423.747352181218
 30
0.0
 11
6373.600000000015
 21
7654.800000000001
 31
0.0
  0
DIMENSION
  5
30853
330
747D
100
AcDbEntity
  8
寸法
 48
50.0
100
AcDbDimension
  2
*D5
 10
8003.6
 20
7129.781067972292
 30
0.0
 11
7867.715962223397
 21
7126.896540084375
 31
0.0
 70
   160
 71
     5
 42
119.9999999999854
  3
INABA_S40G
100
AcDbAlignedDimension
 13
8123.599999999987
 23
7339.800000000001
 33
0.0
 14
8003.6
 24
7349.800000000001
 34
0.0
100
AcDbRotatedDimension
1001
ACAD
1000
DSTYLE
1002
{
1070
   279
1070
     1
1002
}
  0
DIMENSION
  5
30854
330
747D
100
AcDbEntity
  8
寸法
 48
50.0
100
AcDbDimension
  2
*D6
 10
8123.600000000015
 20
7129.312365481446
 30
0.0
 11
8509.647244094503
 21
7129.312365481446
 31
0.0
 70
   160
 71
     5
 42
150.0
  3
INABA_S40G
100
AcDbAlignedDimension
 13
8273.600000000014
 23
7063.418839728291
 33
0.0
 14
8123.600000000015
 24
7063.418839728291
 34
0.0
100
AcDbRotatedDimension
  0
LINE
  5
30855
330
747D
100
AcDbEntity
  8
寸法
 48
50.0
100
AcDbLine
 10
7765.391034975396
 20
7129.781067972292
 30
0.0
 11
8063.599999999985
 21
7129.781067972292
 31
0.0
  0
DIMENSION
  5
30856
330
747D
100
AcDbEntity
  8
寸法
 48
50.0
100
AcDbDimension
  2
*D7
 10
7838.500074807076
 20
6019.800000000016
 30
0.0
 11
7838.500074807076
 21
6146.1598720714
 31
0.0
 70
   160
 71
     5
 42
120.0
  3
INABA_S40G
100
AcDbAlignedDimension
 13
7913.613534433377
 23
5899.800000000016
 33
0.0
 14
8003.600000000007
 24
6019.800000000016
 34
0.0
 50
90.0
100
AcDbRotatedDimension
1001
ACAD
1000
DSTYLE
1002
{
1070
   279
1070
     1
1070
   341
1005
0
1002
}
  0
DIMENSION
  5
30857
330
747D
100
AcDbEntity
  8
寸法
 48
50.0
100
AcDbDimension
  2
*D8
 10
7838.500074807069
 20
5704.799999999987
 30
0.0
 11
7838.500074807069
 21
5466.105058796092
 31
0.0
 70
   160
 71
     5
 42
195.0000000000291
  3
INABA_S40G
100
AcDbAlignedDimension
 13
7913.613534433377
 23
5899.800000000016
 33
0.0
 14
7868.764445016672
 24
5704.799999999987
 34
0.0
 50
90.0
100
AcDbRotatedDimension
1001
ACAD
1000
DSTYLE
1002
{
1070
   341
1005
0
1002
}
  0
LINE
  5
30858
330
747D
100
AcDbEntity
  8
寸法
 48
50.0
100
AcDbLine
 10
7838.500074807076
 20
5899.800000000016
 30
0.0
 11
7838.500074807076
 21
6242.556411786814
 31
0.0
  0
DIMENSION
  5
30859
330
747D
100
AcDbEntity
  8
寸法
 48
50.0
100
AcDbDimension
  2
*D9
 10
6408.600000000015
 20
6138.859491221477
 30
0.0
 11
6172.552755905527
 21
6138.859491221477
 31
0.0
 70
   160
 71
     5
 42
120.0
  3
INABA_S40G
100
AcDbAlignedDimension
 13
6528.600000000015
 23
6195.974811642382
 33
0.0
 14
6408.600000000015
 24
6195.974811642382
 34
0.0
100
AcDbRotatedDimension
  0
DIMENSION
  5
3085A
330
747D
100
AcDbEntity
  8
寸法
 48
50.0
100
AcDbDimension
  2
*D10
 10
6648.600000000219
 20
6138.859491221477
 30
0.0
 11
6808.823018876437
 21
6138.859491221477
 31
0.0
 70
   160
 71
     5
 42
120.0000000002037
  3
INABA_S40G
100
AcDbAlignedDimension
 13
6528.600000000015
 23
6195.974811642382
 33
0.0
 14
6648.600000000219
 24
6019.800000000026
 34
0.0
 50
180.0
100
AcDbRotatedDimension
1001
ACAD
1000
DSTYLE
1002
{
1070
   279
1070
     1
1002
}
  0
LINE
  5
3085B
330
747D
100
AcDbEntity
  8
寸法
 48
50.0
100
AcDbLine
 10
6528.6
 20
6138.859491221477
 30
0.0
 11
6929.332833518981
 21
6138.859491221477
 31
0.0
  0
MTEXT
  5
3085C
330
747D
100
AcDbEntity
  8
部品1
 62
     7
 48
50.0
100
AcDbMText
 10
8752.838539927044
 20
7965.051499025938
 30
0.0
 40
120.0
 41
0.0
 71
     4
 72
     1
  1
アンカーボルト
  7
STYLE1
 73
     1
 44
1.0
1001
ACAD
1000
MTEXTBEGIN
1070
    73
1070
     1
1070
    44
1040
1.0
1070
    74
1070
     0
1000
MTEXTEND
  0
LEADER
  5
3085D
330
747D
100
AcDbEntity
  8
寸法
 48
50.0
100
AcDbLeader
  3
INABA_S40G
 71
     0
 76
     3
 10
9923.600000000014
 20
7539.800000000001
 30
0.0
 10
9719.739594080465
 20
7876.29030776533
 30
0.0
 10
8722.621501222553
 20
7876.29030776533
 30
0.0
1001
ACAD
1000
DSTYLE
1002
{
1070
    41
1040
2.5
1070
   341
1005
0
1070
   147
1040
1.0
1070
    77
1070
     0
1002
}
  0
DIMENSION
  5
3085E
330
747D
100
AcDbEntity
  8
寸法
 48
50.0
100
AcDbDimension
  2
*D11
 10
5432.695229568674
 20
7589.800000000002
 30
0.0
 11
5332.695229568672
 21
7622.300000000002
 31
0.0
 70
    32
  1
c
 71
     5
 42
64.99999999999909
  3
INABA_S40G
100
AcDbAlignedDimension
 13
5678.188031706648
 23
7654.800000000001
 33
0.0
 14
6418.600000000001
 24
7589.800000000001
 34
0.0
 50
90.0
100
AcDbRotatedDimension
1001
ACAD
1000
DSTYLE
1002
{
1070
   341
1005
0
1002
}
  0
DIMENSION
  5
3085F
330
747D
100
AcDbEntity
  8
寸法
 48
50.0
100
AcDbDimension
  2
*D12
 10
5678.188031706649
 20
5902.800000000002
 30
0.0
 11
5678.188031706648
 21
6679.800000000001
 31
0.0
 70
   160
 71
     5
 42
1554.0
  3
INABA_S40G
100
AcDbAlignedDimension
 13
6491.600000000016
 23
7456.800000000001
 33
0.0
 14
6491.600000000016
 24
5902.800000000001
 34
0.0
 50
90.0
100
AcDbRotatedDimension
1001
ACAD
1000
DSTYLE
1002
{
1070
   341
1005
0
1002
}
  0
DIMENSION
  5
30860
330
747D
100
AcDbEntity
  8
寸法
 48
50.0
100
AcDbDimension
  2
*D13
 10
5432.695229568675
 20
5704.799999999988
 30
0.0
 11
5432.695229568674
 21
6647.299999999994
 31
0.0
 70
   160
 71
     5
 42
1885.000000000015
  3
INABA_S40G
100
AcDbAlignedDimension
 13
6418.600000000001
 23
7589.800000000001
 33
0.0
 14
6408.600000000015
 24
5704.799999999987
 34
0.0
 50
90.0
100
AcDbRotatedDimension
1001
ACAD
1000
DSTYLE
1002
{
1070
   341
1005
0
1002
}
  0
DIMENSION
  5
30861
330
747D
100
AcDbEntity
  8
寸法
 48
50.0
100
AcDbDimension
  2
*D14
 10
5678.188031706649
 20
7456.800000000002
 30
0.0
 11
5678.188031706648
 21
7852.906601717795
 31
0.0
 70
   160
 71
     5
 42
133.0
  3
INABA_S40G
100
AcDbAlignedDimension
 13
6418.600000000001
 23
7589.800000000001
 33
0.0
 14
6491.600000000016
 24
7456.800000000001
 34
0.0
 50
90.0
100
AcDbRotatedDimension
1001
ACAD
1000
DSTYLE
1002
{
1070
   341
1005
0
1002
}
  0
DIMENSION
  5
30862
330
747D
100
AcDbEntity
  8
寸法
 48
50.0
100
AcDbDimension
  2
*D15
 10
5938.510274901735
 20
6679.800000000034
 30
0.0
 11
5938.510274901734
 21
6194.800000000022
 31
0.0
 70
   160
 71
     5
 42
975.0000000000182
  3
INABA_S40G
100
AcDbAlignedDimension
 13
6408.600000000015
 23
5704.800000000016
 33
0.0
 14
7223.600000000022
 24
6679.800000000034
 34
0.0
 50
90.0
100
AcDbRotatedDimension
1001
ACAD
1000
DSTYLE
1002
{
1070
   341
1005
0
1002
}
  0
DIMENSION
  5
30863
330
747D
100
AcDbEntity
  8
寸法
 48
50.0
100
AcDbDimension
  2
*D16
 10
5938.510274901728
 20
7589.800000000002
 30
0.0
 11
5938.510274901727
 21
7137.300000000019
 31
0.0
 70
   160
 71
     5
 42
909.9999999999672
  3
INABA_S40G
100
AcDbAlignedDimension
 13
7223.600000000022
 23
6679.800000000034
 33
0.0
 14
6418.600000000001
 24
7589.800000000001
 34
0.0
 50
90.0
100
AcDbRotatedDimension
1001
ACAD
1000
DSTYLE
1002
{
1070
   341
1005
0
1002
}
  0
DIMENSION
  5
30864
330
747D
100
AcDbEntity
  8
寸法
 48
50.0
100
AcDbDimension
  2
*D17
 10
5678.188031706635
 20
5704.800000000016
 30
0.0
 11
5678.188031706634
 21
5457.053757239161
 31
0.0
 70
   160
 71
     5
 42
197.9999999999854
  3
INABA_S40G
100
AcDbAlignedDimension
 13
6491.600000000016
 23
5902.800000000001
 33
0.0
 14
6408.600000000015
 24
5704.800000000016
 34
0.0
 50
90.0
100
AcDbRotatedDimension
  0
LWPOLYLINE
  5
30865
330
747D
100
AcDbEntity
  8
寸法
 48
50.0
100
AcDbPolyline
 90
        3
 70
     0
 43
0.0
 10
-6775.665537923875
 20
5704.799999999987
 10
-6968.101839351361
 20
4779.101012328492
 10
-9847.681125587881
 20
4779.101012328492
210
0.0
220
0.0
230
-1.0
1001
ACAD
1000
DSTYLE
1002
{
1070
   341
1005
0
1070
    40
1040
1.0
1070
   343
1005
0
1070
   344
1005
0
1002
}
  0
TEXT
  5
30866
330
747D
100
AcDbEntity
  8
寸法
 62
     7
100
AcDbText
 10
7048.188245136009
 20
4809.113308327278
 30
0.0
 40
120.0
  1
扉の位置に合わせた基礎形状として下さい。
  7
STYLE1
100
AcDbText
  0
LWPOLYLINE
  5
30867
330
747D
100
AcDbEntity
  8
部品1
 48
50.0
100
AcDbPolyline
 90
        4
 70
     1
 43
0.0
 10
7413.600000000022
 20
6484.800000000034
 10
7223.600000000022
 20
6484.800000000034
 10
7223.600000000022
 20
6874.800000000035
 10
7413.600000000022
 20
6874.800000000035
  0
LINE
  5
30868
330
747D
100
AcDbEntity
  8
センター
 48
2.0
100
AcDbLine
 10
7268.600000000022
 20
6679.800000000034
 30
0.0
 11
7368.600000000022
 21
6679.800000000034
 31
0.0
  0
LINE
  5
30869
330
747D
100
AcDbEntity
  8
センター
 48
2.0
100
AcDbLine
 10
7318.600000000022
 20
6729.800000000034
 30
0.0
 11
7318.600000000022
 21
6629.800000000034
 31
0.0
  0
MTEXT
  5
3086A
330
747D
100
AcDbEntity
  8
部品1
 62
     7
 48
50.0
100
AcDbMText
 10
7650.932587201527
 20
7166.638451600665
 30
0.0
 40
120.0
 41
0.0
 71
     6
 72
     1
  1
CB
  7
STYLE1
 73
     1
 44
1.0
1001
ACAD
1000
MTEXTBEGIN
1070
    73
1070
     1
1070
    44
1040
1.0
1070
    74
1070
     0
1000
MTEXTEND
  0
LEADER
  5
3086B
330
747D
100
AcDbEntity
  8
寸法
 48
50.0
100
AcDbLeader
  3
INABA_S40G
 71
     0
 76
     3
 10
7320.600000000014
 20
6879.800000000052
 30
0.0
 10
7428.165212761067
 20
7075.377747638943
 30
0.0
 10
7670.930008217964
 20
7075.377747638943
 30
0.0
211
-1.0
221
0.0000000000000001
231
0.0
1001
ACAD
1000
DSTYLE
1002
{
1070
    77
1070
     0
1070
   341
1005
0
1002
}
  0
TEXT
  5
3086C
330
747D
100
AcDbEntity
  8
部品1
 48
50.0
100
AcDbText
 10
4425.501862201885
 20
7986.959866329731
 30
0.0
 40
80.0
  1
前流れとする場合
  7
STYLE1
100
AcDbText
  0
TEXT
  5
3086D
330
747D
100
AcDbEntity
  8
部品1
 48
50.0
100
AcDbText
 10
4425.501862201885
 20
7858.416640749173
 30
0.0
 40
80.0
  1
(a=35,b=15,c=45)
  7
STYLE1
100
AcDbText
  0
LWPOLYLINE
  5
3086E
330
747D
100
AcDbEntity
  8
寸法
 62
   230
 48
50.0
100
AcDbPolyline
 90
        8
 70
     1
 43
0.0
 10
4392.483962127299
 20
8123.744262770042
 10
5230.741885364123
 20
8123.744262770042
 42
-0.4142135623730951
 10
5280.741885364123
 20
8073.744262770041
 10
5280.741885364123
 20
7836.260142673904
 42
-0.4142135623730951
 10
5230.741885364123
 20
7786.260142673903
 10
4392.483962127299
 20
7786.260142673903
 42
-0.4142135623730951
 10
4342.4839621273
 20
7836.260142673904
 10
4342.4839621273
 20
8073.744262770041
 42
-0.4142135623730951
  0
TEXT
  5
31001
330
747D
100
AcDbEntity
  8
文字
 62
     7
 48
50.0
100
AcDbText
 10
13181.43669998441
 20
517.2740661031254
 30
0.0
 40
140.0
  1
機種名
 41
0.9
  7
STYLE2
100
AcDbText
  0
LINE
  5
31254
330
747D
100
AcDbEntity
  8
部品1
 48
50.0
100
AcDbLine
 10
3210.885813532448
 20
2233.554091015233
 30
0.0
 11
3450.885813532448
 21
2233.554091015233
 31
0.0
  0
LINE
  5
31255
330
747D
100
AcDbEntity
  8
部品1
 48
50.0
100
AcDbLine
 10
3450.885813532448
 20
2233.554091015233
 30
0.0
 11
3450.885813532448
 21
1453.554091015233
 31
0.0
  0
LINE
  5
31256
330
747D
100
AcDbEntity
  8
部品1
 48
50.0
100
AcDbLine
 10
3210.885813532448
 20
2233.554091015233
 30
0.0
 11
3210.885813532448
 21
1453.554091015233
 31
0.0
  0
LINE
  5
31257
330
747D
100
AcDbEntity
  8
部品1
 48
50.0
100
AcDbLine
 10
3630.885813532449
 20
1453.554091015233
 30
0.0
 11
3450.885813532448
 21
1453.554091015233
 31
0.0
  0
LINE
  5
31258
330
747D
100
AcDbEntity
  8
部品1
 48
50.0
100
AcDbLine
 10
3210.885813532448
 20
1453.554091015233
 30
0.0
 11
3030.885813532448
 21
1453.554091015233
 31
0.0
  0
LINE
  5
31259
330
747D
100
AcDbEntity
  8
部品1
 48
50.0
100
AcDbLine
 10
3790.885813532463
 20
1153.554091015233
 30
0.0
 11
2870.885813532448
 21
1153.554091015233
 31
0.0
  0
LINE
  5
3125A
330
747D
100
AcDbEntity
  8
部品1
 48
50.0
100
AcDbLine
 10
3030.885813532448
 20
1453.554091015233
 30
0.0
 11
3030.885813532448
 21
1153.554091015233
 31
0.0
  0
LINE
  5
3125B
330
747D
100
AcDbEntity
  8
部品1
 48
50.0
100
AcDbLine
 10
3630.885813532449
 20
1453.554091015233
 30
0.0
 11
3630.885813532449
 21
1153.554091015233
 31
0.0
  0
LINE
  5
3125C
330
747D
100
AcDbEntity
  8
部品1
 48
50.0
100
AcDbLine
 10
3790.885813532448
 20
1053.554091015233
 30
0.0
 11
2870.885813532448
 21
1053.554091015233
 31
0.0
  0
LINE
  5
3125D
330
747D
100
AcDbEntity
  8
部品1
 48
50.0
100
AcDbLine
 10
3790.885813532448
 20
853.5540910152331
 30
0.0
 11
2870.885813532448
 21
853.5540910152331
 31
0.0
  0
LINE
  5
3125E
330
747D
100
AcDbEntity
  8
部品1
 48
50.0
100
AcDbLine
 10
2870.885813532448
 20
853.5540910152331
 30
0.0
 11
2870.885813532448
 21
1153.554091015233
 31
0.0
  0
LINE
  5
3125F
330
747D
100
AcDbEntity
  8
部品1
 48
50.0
100
AcDbLine
 10
3790.885813532448
 20
853.5540910152331
 30
0.0
 11
3790.885813532448
 21
1153.554091015233
 31
0.0
  0
LINE
  5
31260
330
747D
100
AcDbEntity
  8
部品1
 48
50.0
100
AcDbLine
 10
3343.885813532448
 20
2086.554091015232
 30
0.0
 11
3343.885813532463
 21
1266.554091015233
 31
0.0
  0
LINE
  5
31261
330
747D
100
AcDbEntity
  8
部品1
 48
50.0
100
AcDbLine
 10
3343.885813532419
 20
2086.554091015231
 30
0.0
 11
3363.885813532434
 21
2086.554091015231
 31
0.0
  0
LINE
  5
31262
330
747D
100
AcDbEntity
  8
部品1
 48
50.0
100
AcDbLine
 10
3363.885813532448
 20
2086.554091015231
 30
0.0
 11
3363.885813532448
 21
1266.554091015233
 31
0.0
  0
LINE
  5
31263
330
747D
100
AcDbEntity
  8
部品1
 48
50.0
100
AcDbLine
 10
3090.885813532449
 20
1290.554091015233
 30
0.0
 11
3343.885813532477
 21
1290.554091015233
 31
0.0
  0
LINE
  5
31264
330
747D
100
AcDbEntity
  8
部品1
 48
50.0
100
AcDbLine
 10
3363.885813532448
 20
1290.554091015233
 30
0.0
 11
3570.885813532449
 21
1290.554091015233
 31
0.0
  0
CIRCLE
  5
31265
330
747D
100
AcDbEntity
  8
部品1
 48
50.0
100
AcDbCircle
 10
3330.885813532449
 20
1303.554091015233
 30
0.0
 40
13.0
  0
CIRCLE
  5
31266
330
747D
100
AcDbEntity
  8
部品1
 48
50.0
100
AcDbCircle
 10
3170.885813532448
 20
1303.554091015233
 30
0.0
 40
13.0
  0
CIRCLE
  5
31267
330
747D
100
AcDbEntity
  8
部品1
 48
50.0
100
AcDbCircle
 10
3490.885813532448
 20
1303.554091015233
 30
0.0
 40
13.0
  0
LINE
  5
31268
330
747D
100
AcDbEntity
  8
部品1
 48
50.0
100
AcDbLine
 10
3090.885813532449
 20
1270.554091015233
 30
0.0
 11
3343.885813532477
 21
1270.554091015233
 31
0.0
  0
LINE
  5
31269
330
747D
100
AcDbEntity
  8
部品1
 48
50.0
100
AcDbLine
 10
3363.885813532448
 20
1270.554091015233
 30
0.0
 11
3570.885813532449
 21
1270.554091015233
 31
0.0
  0
LINE
  5
3126A
330
747D
100
AcDbEntity
  8
部品1
 48
50.0
100
AcDbLine
 10
3090.885813532463
 20
1266.554091015233
 30
0.0
 11
3343.885813532477
 21
1266.554091015233
 31
0.0
  0
LINE
  5
3126B
330
747D
100
AcDbEntity
  8
部品1
 48
50.0
100
AcDbLine
 10
3090.885813532463
 20
1246.554091015233
 30
0.0
 11
3343.885813532448
 21
1246.554091015233
 31
0.0
  0
ARC
  5
3126C
330
747D
100
AcDbEntity
  8
部品1
 48
50.0
100
AcDbCircle
 10
3343.885813532448
 20
1266.554091015233
 30
0.0
 40
20.0
100
AcDbArc
 50
270.0
 51
0.0
  0
LINE
  5
3126D
330
747D
100
AcDbEntity
  8
部品1
 48
50.0
100
AcDbLine
 10
3090.885813532449
 20
1290.554091015233
 30
0.0
 11
3090.885813532434
 21
1246.554091015233
 31
0.0
  0
LINE
  5
3126E
330
747D
100
AcDbEntity
  8
部品1
 48
50.0
100
AcDbLine
 10
3570.885813532449
 20
1290.554091015233
 30
0.0
 11
3570.885813532449
 21
1270.554091015233
 31
0.0
  0
LINE
  5
3126F
330
747D
100
AcDbEntity
  8
部品1
 48
50.0
100
AcDbLine
 10
7022.334397420171
 20
1933.554091015232
 30
0.0
 11
7722.334397420171
 21
1933.554091015232
 31
0.0
  0
LINE
  5
31270
330
747D
100
AcDbEntity
  8
部品1
 48
50.0
100
AcDbLine
 10
6183.68750242277
 20
1933.554091015167
 30
0.0
 11
4583.68750242277
 21
1933.554091015245
 31
0.0
  0
LWPOLYLINE
  5
31271
330
747D
100
AcDbEntity
  8
部品1
 48
50.0
100
AcDbPolyline
 90
        4
 70
     1
 43
0.0
 10
4993.68750242277
 20
2233.554091015233
 10
4993.68750242277
 20
1933.554091015233
 10
5773.68750242277
 20
1933.554091015233
 10
5773.68750242277
 20
2233.554091015233
  0
LINE
  5
31272
330
747D
100
AcDbEntity
  8
部品1
 48
50.0
100
AcDbLine
 10
4833.68750242277
 20
1833.554091015233
 30
0.0
 11
5933.687502422756
 21
1833.554091015233
 31
0.0
  0
LINE
  5
31273
330
747D
100
AcDbEntity
  8
部品1
 48
50.0
100
AcDbLine
 10
4833.68750242277
 20
1933.554091015233
 30
0.0
 11
4833.687502422756
 21
1633.554091015233
 31
0.0
  0
LINE
  5
31274
330
747D
100
AcDbEntity
  8
部品1
 48
50.0
100
AcDbLine
 10
5933.68750242277
 20
1933.554091015233
 30
0.0
 11
5933.687502422756
 21
1633.554091015233
 31
0.0
  0
LINE
  5
31275
330
747D
100
AcDbEntity
  8
部品1
 48
50.0
100
AcDbLine
 10
4833.68750242277
 20
1633.554091015233
 30
0.0
 11
5933.687502422756
 21
1633.554091015233
 31
0.0
  0
LINE
  5
31276
330
747D
100
AcDbEntity
  8
部品1
 48
50.0
100
AcDbLine
 10
7722.334397420171
 20
2233.554091015232
 30
0.0
 11
8202.334397420171
 21
2233.55409101523
 31
0.0
  0
LINE
  5
31277
330
747D
100
AcDbEntity
  8
部品1
 48
50.0
100
AcDbLine
 10
8202.334397420171
 20
2233.554091015232
 30
0.0
 11
8202.334397420171
 21
1453.554091015232
 31
0.0
  0
LINE
  5
31278
330
747D
100
AcDbEntity
  8
部品1
 48
50.0
100
AcDbLine
 10
7722.334397420171
 20
2233.554091015232
 30
0.0
 11
7722.334397420171
 21
1453.554091015232
 31
0.0
  0
LINE
  5
31279
330
747D
100
AcDbEntity
  8
部品1
 48
50.0
100
AcDbLine
 10
8382.334397420171
 20
1453.554091015232
 30
0.0
 11
8202.334397420171
 21
1453.554091015232
 31
0.0
  0
LINE
  5
3127A
330
747D
100
AcDbEntity
  8
部品1
 48
50.0
100
AcDbLine
 10
7722.334397420171
 20
1453.554091015232
 30
0.0
 11
7542.334397420171
 21
1453.554091015232
 31
0.0
  0
LINE
  5
3127B
330
747D
100
AcDbEntity
  8
部品1
 48
50.0
100
AcDbLine
 10
8505.33439742017
 20
1153.55409101523
 30
0.0
 11
7419.334397420171
 21
1153.554091015232
 31
0.0
  0
LINE
  5
3127C
330
747D
100
AcDbEntity
  8
部品1
 48
50.0
100
AcDbLine
 10
7542.334397420171
 20
1453.554091015232
 30
0.0
 11
7542.334397420171
 21
1153.554091015232
 31
0.0
  0
LINE
  5
3127D
330
747D
100
AcDbEntity
  8
部品1
 48
50.0
100
AcDbLine
 10
8382.334397420171
 20
1453.554091015232
 30
0.0
 11
8382.334397420171
 21
1153.554091015232
 31
0.0
  0
LINE
  5
3127E
330
747D
100
AcDbEntity
  8
部品1
 48
50.0
100
AcDbLine
 10
8505.33439742017
 20
1053.554091015232
 30
0.0
 11
7419.334397420171
 21
1053.554091015232
 31
0.0
  0
LINE
  5
3127F
330
747D
100
AcDbEntity
  8
部品1
 48
50.0
100
AcDbLine
 10
8505.33439742017
 20
853.5540910152331
 30
0.0
 11
7419.334397420171
 21
853.5540910152322
 31
0.0
  0
LINE
  5
31280
330
747D
100
AcDbEntity
  8
部品1
 48
50.0
100
AcDbLine
 10
7419.334397420171
 20
853.5540910152322
 30
0.0
 11
7419.334397420171
 21
1153.554091015232
 31
0.0
  0
LINE
  5
31281
330
747D
100
AcDbEntity
  8
部品1
 48
50.0
100
AcDbLine
 10
8505.33439742017
 20
853.5540910152322
 30
0.0
 11
8505.33439742017
 21
1153.554091015232
 31
0.0
  0
LINE
  5
31282
330
747D
100
AcDbEntity
  8
部品1
 48
50.0
100
AcDbLine
 10
7978.334397420185
 20
2283.554091015232
 30
0.0
 11
7978.334397420185
 21
2233.55409101523
 31
0.0
  0
LINE
  5
31283
330
747D
100
AcDbEntity
  8
部品1
 48
50.0
100
AcDbLine
 10
7978.334397420185
 20
2233.554091015232
 30
0.0
 11
7978.3343974202
 21
1983.55409101523
 31
0.0
  0
LINE
  5
31284
330
747D
100
AcDbEntity
  8
部品1
 48
50.0
100
AcDbLine
 10
7978.334397420171
 20
2283.554091015232
 30
0.0
 11
7998.334397420186
 21
2283.554091015232
 31
0.0
  0
LINE
  5
31285
330
747D
100
AcDbEntity
  8
部品1
 48
50.0
100
AcDbLine
 10
7998.334397420186
 20
2283.554091015232
 30
0.0
 11
7998.334397420214
 21
2233.55409101523
 31
0.0
  0
LINE
  5
31286
330
747D
100
AcDbEntity
  8
部品1
 48
50.0
100
AcDbLine
 10
7998.334397420186
 20
2233.554091015232
 30
0.0
 11
7998.334397420186
 21
1983.554091015232
 31
0.0
  0
LINE
  5
31287
330
747D
100
AcDbEntity
  8
部品1
 48
50.0
100
AcDbLine
 10
7998.3343974202
 20
1963.554091015232
 30
0.0
 11
8032.3343974202
 21
1963.554091015231
 31
0.0
  0
ARC
  5
31288
330
747D
100
AcDbEntity
  8
部品1
 48
50.0
100
AcDbCircle
 10
7998.3343974202
 20
1983.554091015232
 30
0.0
 40
20.0
100
AcDbArc
 50
180.0
 51
270.0
  0
LINE
  5
31289
330
747D
100
AcDbEntity
  8
部品1
 48
50.0
100
AcDbLine
 10
7998.334397420186
 20
1983.554091015232
 30
0.0
 11
8032.3343974202
 21
1983.554091015232
 31
0.0
  0
LINE
  5
3128A
330
747D
100
AcDbEntity
  8
部品1
100
AcDbLine
 10
7809.334397420156
 20
2349.554091015232
 30
0.0
 11
7808.734397420164
 21
2349.554091015232
 31
0.0
  0
ARC
  5
3128B
330
747D
100
AcDbEntity
  8
部品1
100
AcDbCircle
 10
7808.734397420164
 20
2347.154091015223
 30
0.0
 40
2.400000000001796
100
AcDbArc
 50
90.0
 51
180.0
  0
LINE
  5
3128C
330
747D
100
AcDbEntity
  8
部品1
100
AcDbLine
 10
7806.334397420171
 20
2347.154091015223
 30
0.0
 11
7806.334397420171
 21
2337.554091015232
 31
0.0
  0
LINE
  5
3128D
330
747D
100
AcDbEntity
  8
部品1
100
AcDbLine
 10
7862.33439742017
 20
2301.554091015232
 30
0.0
 11
7862.33439742017
 21
2359.154091015223
 31
0.0
  0
ARC
  5
3128E
330
747D
100
AcDbEntity
  8
部品1
100
AcDbCircle
 10
7859.934397420161
 20
2359.154091015223
 30
0.0
 40
2.400000000001796
100
AcDbArc
 50
0.0
 51
90.0
  0
LINE
  5
3128F
330
747D
100
AcDbEntity
  8
部品1
100
AcDbLine
 10
7859.934397420161
 20
2361.554091015232
 30
0.0
 11
7811.734397420164
 21
2361.554091015232
 31
0.0
  0
ARC
  5
31290
330
747D
100
AcDbEntity
  8
部品1
100
AcDbCircle
 10
7811.734397420164
 20
2359.154091015223
 30
0.0
 40
2.400000000001796
100
AcDbArc
 50
90.0
 51
180.0
  0
LINE
  5
31291
330
747D
100
AcDbEntity
  8
部品1
100
AcDbLine
 10
7809.334397420172
 20
2349.554091015232
 30
0.0
 11
7809.334397420172
 21
2359.154091015223
 31
0.0
  0
LINE
  5
31292
330
747D
100
AcDbEntity
  8
部品1
100
AcDbLine
 10
7763.734397420165
 20
2337.554091015232
 30
0.0
 11
7806.334397420171
 21
2337.554091015232
 31
0.0
  0
ARC
  5
31293
330
747D
100
AcDbEntity
  8
部品1
100
AcDbCircle
 10
7763.734397420165
 20
2335.154091015223
 30
0.0
 40
2.400000000001227
100
AcDbArc
 50
90.0
 51
180.0
  0
LINE
  5
31294
330
747D
100
AcDbEntity
  8
部品1
100
AcDbLine
 10
7761.334397420156
 20
2325.554091015233
 30
0.0
 11
7761.334397420156
 21
2335.154091015223
 31
0.0
  0
LINE
  5
31295
330
747D
100
AcDbEntity
  8
部品1
100
AcDbLine
 10
7751.152311920043
 20
2323.008569640193
 30
0.0
 11
7761.334397420156
 21
2325.554091015233
 31
0.0
  0
LINE
  5
31296
330
747D
100
AcDbEntity
  8
部品1
100
AcDbLine
 10
7751.73439742015
 20
2323.008569640193
 30
0.0
 11
7751.152311920043
 21
2323.008569640193
 31
0.0
  0
LINE
  5
31297
330
747D
100
AcDbEntity
  8
部品1
100
AcDbLine
 10
7749.33439742017
 20
2320.68022763985
 30
0.0
 11
7749.33439742017
 21
2239.954091015226
 31
0.0
  0
ARC
  5
31298
330
747D
100
AcDbEntity
  8
部品1
100
AcDbCircle
 10
7751.73439742015
 20
2239.954091015226
 30
0.0
 40
2.399999999994406
100
AcDbArc
 50
180.0
 51
270.0
  0
LINE
  5
31299
330
747D
100
AcDbEntity
  8
部品1
100
AcDbLine
 10
7765.33439742017
 20
2237.554091015232
 30
0.0
 11
7751.73439742015
 21
2237.554091015232
 31
0.0
  0
ARC
  5
3129A
330
747D
100
AcDbEntity
  8
部品1
100
AcDbCircle
 10
7751.73439742015
 20
2320.68022763985
 30
0.0
 40
2.400000000001022
100
AcDbArc
 50
104.0362434676389
 51
180.0
  0
LINE
  5
3129B
330
747D
100
AcDbEntity
  8
部品1
100
AcDbLine
 10
7906.934397420177
 20
2301.554091015232
 30
0.0
 11
7896.934397420176
 21
2301.554091015232
 31
0.0
  0
LINE
  5
3129C
330
747D
100
AcDbEntity
  8
部品1
100
AcDbLine
 10
7862.33439742017
 20
2301.554091015232
 30
0.0
 11
7896.934397420176
 21
2301.554091015232
 31
0.0
  0
ARC
  5
3129D
330
747D
100
AcDbEntity
  8
部品1
100
AcDbCircle
 10
7906.934397420177
 20
2239.954091015241
 30
0.0
 40
2.400000000001227
100
AcDbArc
 50
270.0
 51
0.0
  0
LINE
  5
3129E
330
747D
100
AcDbEntity
  8
部品1
100
AcDbLine
 10
7909.334397420171
 20
2239.954091015241
 30
0.0
 11
7909.334397420171
 21
2299.154091015238
 31
0.0
  0
ARC
  5
3129F
330
747D
100
AcDbEntity
  8
部品1
100
AcDbCircle
 10
7906.934397420177
 20
2299.154091015238
 30
0.0
 40
2.399999999994975
100
AcDbArc
 50
0.0
 51
90.0
  0
LINE
  5
312A0
330
747D
100
AcDbEntity
  8
部品1
100
AcDbLine
 10
7893.33439742017
 20
2237.554091015232
 30
0.0
 11
7906.934397420177
 21
2237.554091015232
 31
0.0
  0
LINE
  5
312A1
330
747D
100
AcDbEntity
  8
寸法
 48
50.0
100
AcDbLine
 10
7892.734397420165
 20
2289.554091015232
 30
0.0
 11
7892.734397420165
 21
2307.154091015233
 31
0.0
  0
ARC
  5
312A2
330
747D
100
AcDbEntity
  8
寸法
 48
50.0
100
AcDbCircle
 10
7895.134397420159
 20
2307.154091015233
 30
0.0
 40
2.399999999999999
100
AcDbArc
 50
90.0
 51
180.0
  0
LINE
  5
312A3
330
747D
100
AcDbEntity
  8
寸法
 48
50.0
100
AcDbLine
 10
7895.134397420159
 20
2309.554091015233
 30
0.0
 11
7918.934397420176
 21
2309.554091015233
 31
0.0
  0
LINE
  5
312A4
330
747D
100
AcDbEntity
  8
寸法
 48
50.0
100
AcDbLine
 10
7921.334397420171
 20
2307.154091015233
 30
0.0
 11
7921.334397420171
 21
2247.954091015232
 31
0.0
  0
ARC
  5
312A5
330
747D
100
AcDbEntity
  8
寸法
 48
50.0
100
AcDbCircle
 10
7923.734397420165
 20
2247.954091015232
 30
0.0
 40
2.399999999999999
100
AcDbArc
 50
180.0
 51
270.0
  0
ARC
  5
312A6
330
747D
100
AcDbEntity
  8
寸法
 48
50.0
100
AcDbCircle
 10
7918.934397420176
 20
2307.154091015233
 30
0.0
 40
2.399999999999999
100
AcDbArc
 50
0.0
 51
90.0
  0
LINE
  5
312A7
330
747D
100
AcDbEntity
  8
寸法
 48
50.0
100
AcDbLine
 10
7923.734397420165
 20
2245.554091015232
 30
0.0
 11
8182.33439742017
 21
2245.554091015232
 31
0.0
  0
DIMENSION
  5
312A8
330
747D
100
AcDbEntity
  8
寸法
 48
50.0
100
AcDbDimension
  2
*D40
 10
3630.885813532449
 20
597.8573686176123
 30
0.0
 11
3330.885813532449
 21
697.8573686176123
 31
0.0
 70
    32
  1
300
 71
     5
 42
600.0
  3
INABA_S40G
100
AcDbAlignedDimension
 13
3030.885813532448
 23
1153.554091015233
 33
0.0
 14
3630.885813532449
 24
1153.554091015232
 34
0.0
100
AcDbRotatedDimension
1001
ACAD
1000
DSTYLE
1002
{
1070
   174
1070
     0
1070
   272
1070
     1
1070
   288
1070
     0
1070
   341
1005
0
1002
}
  0
DIMENSION
  5
312A9
330
747D
100
AcDbEntity
  8
寸法
 48
50.0
100
AcDbDimension
  2
*D41
 10
2291.53631226514
 20
1153.554091015233
 30
0.0
 11
2291.53631226514
 21
1693.554091015233
 31
0.0
 70
   160
  1
540
 71
     5
 42
1080.0
  3
INABA_S40G
100
AcDbAlignedDimension
 13
3210.885813532448
 23
2233.554091015233
 33
0.0
 14
2870.885813532448
 24
1153.554091015233
 34
0.0
 50
90.0
100
AcDbRotatedDimension
1001
ACAD
1000
DSTYLE
1002
{
1070
   174
1070
     0
1070
   272
1070
     1
1070
   288
1070
     0
1070
   341
1005
0
1002
}
  0
DIMENSION
  5
312AA
330
747D
100
AcDbEntity
  8
寸法
 48
50.0
100
AcDbDimension
  2
*D42
 10
2695.891873346344
 20
1153.554091015233
 30
0.0
 11
2695.891873346344
 21
1303.554091015233
 31
0.0
 70
   160
  1
150
 71
     5
 42
300.0
  3
INABA_S40G
100
AcDbAlignedDimension
 13
3030.885813532448
 23
1453.554091015233
 33
0.0
 14
2870.885813532448
 24
1153.554091015233
 34
0.0
 50
90.0
100
AcDbRotatedDimension
1001
ACAD
1000
DSTYLE
1002
{
1070
   174
1070
     0
1070
   272
1070
     1
1070
   288
1070
     0
1070
   341
1005
0
1002
}
  0
DIMENSION
  5
312AB
330
747D
100
AcDbEntity
  8
寸法
 48
50.0
100
AcDbDimension
  2
*D43
 10
3210.885813532448
 20
2478.024765450508
 30
0.0
 11
3330.885813532449
 21
2478.024765450508
 31
0.0
 70
   160
  1
120\P150\P195
 71
     5
 42
240.0
  3
INABA_S40G
100
AcDbAlignedDimension
 13
3450.885813532448
 23
2233.554091015233
 33
0.0
 14
3210.885813532448
 24
2233.554091015233
 34
0.0
100
AcDbRotatedDimension
1001
ACAD
1000
DSTYLE
1002
{
1070
   174
1070
     0
1070
   272
1070
     1
1070
   288
1070
     0
1070
   341
1005
0
1002
}
  0
TEXT
  5
312AC
330
747D
100
AcDbEntity
  8
寸法
 62
     7
 48
50.0
100
AcDbText
 10
2424.733646537272
 20
404.5243678545802
 30
0.0
 40
100.0
  1
基礎天は面取しないでください
  7
STYLE2
100
AcDbText
  0
MTEXT
  5
312AD
330
747D
100
AcDbEntity
  8
寸法
 62
     7
 48
50.0
100
AcDbMText
 10
3703.063944342954
 20
2325.885845018202
 30
0.0
 40
120.0
 41
0.0
 71
     7
 72
     1
  1
\A1;D13
  7
STYLE1
 73
     1
 44
1.0
1001
ACAD
1000
MTEXTBEGIN
1070
    73
1070
     1
1070
    44
1040
1.0
1070
    74
1070
     0
1000
MTEXTEND
  0
MTEXT
  5
312AE
330
747D
100
AcDbEntity
  8
寸法
 62
     7
 48
50.0
100
AcDbMText
 10
2976.935859223006
 20
2507.99121034134
 30
0.0
 40
100.0
 41
0.0
 71
     9
 72
     1
  1
\A1;金コテ押え
  7
STYLE1
 73
     1
 44
1.0
1001
ACAD
1000
MTEXTBEGIN
1070
    73
1070
     1
1070
    44
1040
1.0
1070
    74
1070
     0
1000
MTEXTEND
  0
MTEXT
  5
312AF
330
747D
100
AcDbEntity
  8
寸法
 62
     7
 48
50.0
100
AcDbMText
 10
2398.976830144231
 20
1648.712008763165
 30
0.0
 40
120.0
 41
0.0
 71
     7
 72
     1
  1
\A1;D10@300
  7
STYLE1
 73
     1
 44
1.0
1001
ACAD
1000
MTEXTBEGIN
1070
    73
1070
     1
1070
    44
1040
1.0
1070
    74
1070
     0
1000
MTEXTEND
  0
MTEXT
  5
312B0
330
747D
100
AcDbEntity
  8
寸法
 62
     7
 48
50.0
100
AcDbMText
 10
2426.65386381343
 20
957.1798318788669
 30
0.0
 40
120.0
 41
0.0
 71
     7
 72
     1
  1
\A1;D10
  7
STYLE1
 73
     1
 44
1.0
1001
ACAD
1000
MTEXTBEGIN
1070
    73
1070
     1
1070
    44
1040
1.0
1070
    74
1070
     0
1000
MTEXTEND
  0
MTEXT
  5
312B1
330
747D
100
AcDbEntity
  8
寸法
 62
     7
 48
50.0
100
AcDbMText
 10
3918.839800999239
 20
709.4317746273591
 30
0.0
 40
120.0
 41
0.0
 71
     7
 72
     1
  1
\A1;D13
  7
STYLE1
 73
     1
 44
1.0
1001
ACAD
1000
MTEXTBEGIN
1070
    73
1070
     1
1070
    44
1040
1.0
1070
    74
1070
     0
1000
MTEXTEND
  0
MTEXT
  5
312B2
330
747D
100
AcDbEntity
  8
寸法
 62
     7
 48
50.0
100
AcDbMText
 10
3891.912124160029
 20
949.8857570216197
 30
0.0
 40
120.0
 41
0.0
 71
     7
 72
     1
  1
\A1;D10@300
  7
STYLE1
 73
     1
 44
1.0
1001
ACAD
1000
MTEXTBEGIN
1070
    73
1070
     1
1070
    44
1040
1.0
1070
    74
1070
     0
1000
MTEXTEND
  0
MTEXT
  5
312B3
330
747D
100
AcDbEntity
  8
寸法
 62
     7
 48
50.0
100
AcDbMText
 10
3854.06325144542
 20
1214.211279071837
 30
0.0
 40
120.0
 41
0.0
 71
     7
 72
     1
  1
\A1;D10
  7
STYLE1
 73
     1
 44
1.0
1001
ACAD
1000
MTEXTBEGIN
1070
    73
1070
     1
1070
    44
1040
1.0
1070
    74
1070
     0
1000
MTEXTEND
  0
LEADER
  5
312B4
330
747D
100
AcDbEntity
  8
寸法
 48
50.0
100
AcDbLeader
  3
INABA_S50G
 71
     0
 73
     0
 74
     0
 75
     1
 40
120.0
 41
149.591883092037
 76
     3
 10
5495.24190632545
 20
2233.554091015233
 30
0.0
 10
5592.2870848857
 20
2383.811723160586
 30
0.0
 10
5717.2870848857
 20
2383.811723160586
 30
0.0
340
312B5
213
48.78464782256014
223
0.0
233
0.0
1001
ACAD
1000
DSTYLE
1002
{
1070
    40
1040
1.0
1070
    77
1070
     1
1070
   341
1005
0
1002
}
  0
MTEXT
  5
312B5
102
{ACAD_REACTORS
330
312B4
102
}
330
747D
100
AcDbEntity
  8
寸法
 62
     7
 48
50.0
100
AcDbMText
 10
5843.094320155178
 20
2408.811723160586
 30
0.0
 40
120.0
 41
0.0
 71
     9
 72
     1
  1
\A1;CB
  7
STYLE1
 73
     1
 44
1.0
1001
ACAD
1000
MTEXTBEGIN
1070
    73
1070
     1
1070
    44
1040
1.0
1070
    74
1070
     0
1000
MTEXTEND
  0
TEXT
  5
312B6
330
747D
100
AcDbEntity
  8
寸法
 62
     7
 48
50.0
100
AcDbText
 10
7011.559016491694
 20
1952.84881784694
 30
0.0
 40
120.0
  1
▽G.L
  7
STYLE1
100
AcDbText
  0
DIMENSION
  5
312B7
330
747D
100
AcDbEntity
  8
寸法
 48
50.0
100
AcDbDimension
  2
*D44
 10
8954.64222897432
 20
2233.554091015232
 30
0.0
 11
8954.64222897432
 21
1767.545187593748
 31
0.0
 70
   160
  1
20～25
 71
     5
 42
50.0
  3
INABA_S40G
100
AcDbAlignedDimension
 13
7998.334397420186
 23
2283.554091015232
 33
0.0
 14
8202.334397420171
 24
2233.554091015232
 34
0.0
 50
90.0
100
AcDbRotatedDimension
  0
MTEXT
  5
312B8
330
747D
100
AcDbEntity
  8
寸法
 62
     7
 48
50.0
100
AcDbMText
 10
9094.724396573671
 20
2091.960998360222
 30
0.0
 40
100.0
 41
0.0
 71
     9
 72
     1
  1
\A1;ボルトの出
  7
STYLE1
 11
0.0000000000000001
 21
1.0
 31
0.0
 73
     1
 44
1.0
1001
ACAD
1000
MTEXTBEGIN
1070
    73
1070
     1
1070
    44
1040
1.0
1070
    74
1070
     0
1000
MTEXTEND
  0
LINE
  5
312B9
330
747D
100
AcDbEntity
  8
部品1
 48
50.0
100
AcDbLine
 10
7948.334397420179
 20
2612.017009255714
 30
0.0
 11
7968.334397420178
 21
2622.017009255714
 31
0.0
  0
LINE
  5
312BA
330
747D
100
AcDbEntity
  8
部品1
 48
50.0
100
AcDbLine
 10
7948.334397420179
 20
2572.017009255714
 30
0.0
 11
7968.334397420178
 21
2562.017009255714
 31
0.0
  0
LINE
  5
312BB
330
747D
100
AcDbEntity
  8
部品1
 48
50.0
100
AcDbLine
 10
7948.334397420179
 20
2612.017009255714
 30
0.0
 11
7968.334397420178
 21
2602.017009255714
 31
0.0
  0
LINE
  5
312BC
330
747D
100
AcDbEntity
  8
部品1
 48
50.0
100
AcDbLine
 10
7948.334397420179
 20
2572.017009255714
 30
0.0
 11
7948.334397420179
 21
2612.017009255714
 31
0.0
  0
LINE
  5
312BD
330
747D
100
AcDbEntity
  8
部品1
 48
50.0
100
AcDbLine
 10
8008.334397420178
 20
2622.017009255714
 30
0.0
 11
8028.334397420179
 21
2612.017009255714
 31
0.0
  0
LINE
  5
312BE
330
747D
100
AcDbEntity
  8
部品1
 48
50.0
100
AcDbLine
 10
8028.334397420179
 20
2572.017009255714
 30
0.0
 11
8028.334397420179
 21
2612.017009255714
 31
0.0
  0
LINE
  5
312BF
330
747D
100
AcDbEntity
  8
細線
 48
50.0
100
AcDbLine
 10
8008.334397420178
 20
2562.017009255714
 30
0.0
 11
8008.334397420178
 21
2602.017009255714
 31
0.0
  0
LINE
  5
312C0
330
747D
100
AcDbEntity
  8
部品1
 48
50.0
100
AcDbLine
 10
8008.334397420178
 20
2602.017009255714
 30
0.0
 11
8028.334397420179
 21
2612.017009255714
 31
0.0
  0
LINE
  5
312C1
330
747D
100
AcDbEntity
  8
部品1
 48
50.0
100
AcDbLine
 10
8008.334397420178
 20
2562.017009255714
 30
0.0
 11
8028.334397420179
 21
2572.017009255714
 31
0.0
  0
LINE
  5
312C2
330
747D
100
AcDbEntity
  8
細線
 48
50.0
100
AcDbLine
 10
7968.334397420178
 20
2562.017009255714
 30
0.0
 11
7968.334397420178
 21
2602.017009255714
 31
0.0
  0
LINE
  5
312C3
330
747D
100
AcDbEntity
  8
部品1
 48
50.0
100
AcDbLine
 10
7968.334397420178
 20
2602.017009255714
 30
0.0
 11
8008.334397420178
 21
2602.017009255714
 31
0.0
  0
LINE
  5
312C4
330
747D
100
AcDbEntity
  8
部品1
 48
50.0
100
AcDbLine
 10
7968.334397420178
 20
2562.017009255714
 30
0.0
 11
8008.334397420178
 21
2562.017009255714
 31
0.0
  0
ELLIPSE
  5
312C5
330
747D
100
AcDbEntity
  8
細線
 48
50.0
100
AcDbEllipse
 10
7988.334397420178
 20
2612.017009255714
 30
0.0
 11
18.45838483258558
 21
0.0
 31
0.0
210
0.0
220
0.0
230
1.0
 40
0.2071254069489396
 41
0.0
 42
6.283185307179585
  0
LINE
  5
312C6
330
747D
100
AcDbEntity
  8
部品1
 48
50.0
100
AcDbLine
 10
7968.334397420178
 20
2622.017009255714
 30
0.0
 11
8008.334397420178
 21
2622.017009255714
 31
0.0
  0
ELLIPSE
  5
312C7
330
747D
100
AcDbEntity
  8
部品1
 48
50.0
100
AcDbEllipse
 10
7988.334397420178
 20
2459.827018424626
 30
0.0
 11
50.0
 21
0.0
 31
0.0
210
0.0
220
0.0
230
1.0
 40
0.4
 41
0.0
 42
6.283185307179585
  0
ELLIPSE
  5
312C8
330
747D
100
AcDbEntity
  8
部品1
 48
50.0
100
AcDbEllipse
 10
7988.334397420178
 20
2447.827018424627
 30
0.0
 11
50.0
 21
0.0
 31
0.0
210
0.0
220
0.0
230
1.0
 40
0.4
 41
3.141592653589792
 42
6.283185307179585
  0
LINE
  5
312C9
330
747D
100
AcDbEntity
  8
部品1
 48
50.0
100
AcDbLine
 10
7938.334397420177
 20
2459.827018424626
 30
0.0
 11
7938.334397420177
 21
2447.827018424627
 31
0.0
  0
LINE
  5
312CA
330
747D
100
AcDbEntity
  8
部品1
 48
50.0
100
AcDbLine
 10
8038.334397420177
 20
2447.827018424627
 30
0.0
 11
8038.334397420177
 21
2459.827018424626
 31
0.0
  0
ELLIPSE
  5
312CB
330
747D
100
AcDbEntity
  8
部品1
 48
50.0
100
AcDbEllipse
 10
7988.334397420178
 20
2459.827018424626
 30
0.0
 11
23.0
 21
0.0
 31
0.0
210
0.0
220
0.0
230
1.0
 40
0.3478260869565217
 41
0.0
 42
6.283185307179585
  0
LEADER
  5
312CC
330
747D
100
AcDbEntity
  8
寸法
 48
50.0
100
AcDbLeader
  3
INABA_S50G
 71
     0
 73
     0
 74
     0
 75
     1
 40
110.0000000000001
 41
778.2939632545927
 76
     3
 10
7988.334397420178
 20
2622.017009255714
 30
0.0
 10
8177.529085503687
 20
2871.157467199487
 30
0.0
 10
8302.529085503687
 20
2871.157467199487
 30
0.0
340
312CD
213
41.28953909521078
223
0.0
233
0.0
1001
ACAD
1000
DSTYLE
1002
{
1070
    40
1040
1.0
1070
    77
1070
     1
1070
   341
1005
0
1002
}
  0
MTEXT
  5
312CD
102
{ACAD_REACTORS
330
312CC
102
}
330
747D
100
AcDbEntity
  8
寸法
 62
     7
 48
50.0
100
AcDbMText
 10
8286.239546408477
 20
2896.157467199487
 30
0.0
 40
100.0
 41
0.0
 71
     7
 72
     1
  1
\A1;ナット(市販品)
  7
STYLE1
 73
     1
 44
1.0
1001
ACAD
1000
MTEXTBEGIN
1070
    73
1070
     1
1070
    44
1040
1.0
1070
    74
1070
     0
1000
MTEXTEND
  0
LEADER
  5
312CE
330
747D
100
AcDbEntity
  8
寸法
 48
50.0
100
AcDbLeader
  3
INABA_S50G
 71
     0
 73
     0
 74
     0
 75
     1
 40
110.0000000000001
 41
1011.627296587926
 76
     3
 10
8011.126162202868
 20
2460.901089278884
 30
0.0
 10
8166.754102053515
 20
2700.311824888084
 30
0.0
 10
8291.754102053515
 20
2700.311824888084
 30
0.0
340
312CF
213
30.55932249261241
223
0.0
233
0.0
1001
ACAD
1000
DSTYLE
1002
{
1070
    40
1040
1.0
1070
    77
1070
     1
1070
   341
1005
0
1002
}
  0
MTEXT
  5
312CF
102
{ACAD_REACTORS
330
312CE
102
}
330
747D
100
AcDbEntity
  8
寸法
 62
     7
 48
50.0
100
AcDbMText
 10
8286.194779560901
 20
2725.311824888084
 30
0.0
 40
100.0
 41
0.0
 71
     7
 72
     1
  1
\A1;ワッシャー(市販品)
  7
STYLE1
 73
     1
 44
1.0
1001
ACAD
1000
MTEXTBEGIN
1070
    73
1070
     1
1070
    44
1040
1.0
1070
    74
1070
     0
1000
MTEXTEND
  0
LEADER
  5
312D0
330
747D
100
AcDbEntity
  8
寸法
 48
50.0
100
AcDbLeader
  3
INABA_S50G
 71
     0
 73
     0
 74
     0
 75
     1
 40
237.3333333333334
 41
1024.960629921259
 76
     3
 10
7992.234631278726
 20
2263.648653267221
 30
0.0
 10
8196.570539248249
 20
2487.184965698631
 30
0.0
 10
8321.570539248249
 20
2487.184965698631
 30
0.0
340
312D1
213
56.51960458928079
223
138.7026979338843
233
0.0
1001
ACAD
1000
DSTYLE
1002
{
1070
    40
1040
1.0
1070
    77
1070
     1
1070
   341
1005
0
1002
}
  0
MTEXT
  5
312D1
102
{ACAD_REACTORS
330
312D0
102
}
330
747D
100
AcDbEntity
  8
寸法
 62
     7
 48
50.0
100
AcDbMText
 10
8290.050934658969
 20
2373.482267764746
 30
0.0
 40
100.0
 41
0.0
 71
     7
 72
     1
  1
\A1;基礎ボルト(市販品)\PM10X160
  7
STYLE1
 73
     1
 44
0.8
1001
ACAD
1000
MTEXTBEGIN
1070
    73
1070
     1
1070
    44
1040
0.8
1070
    74
1070
     0
1000
MTEXTEND
  0
LEADER
  5
312D2
330
747D
100
AcDbEntity
  8
寸法
 48
50.0
100
AcDbLeader
  3
INABA_S50G
 71
     0
 73
     0
 75
     1
 40
100.0
 41
1025.0
 76
     3
 10
7956.080985429057
 20
2245.554091015232
 30
0.0
 10
7797.038498310278
 20
2693.14334058737
 30
0.0
 10
7672.038498310278
 20
2693.14334058737
 30
0.0
340
312D3
1001
ACAD
1000
DSTYLE
1002
{
1070
    40
1040
1.0
1070
    77
1070
     1
1070
   341
1005
0
1002
}
  0
MTEXT
  5
312D3
102
{ACAD_REACTORS
330
312D2
102
}
330
747D
100
AcDbEntity
  8
寸法
 62
     7
 48
50.0
100
AcDbMText
 10
7647.038498310277
 20
2718.14334058737
 30
0.0
 40
100.0
 41
0.0
 71
     9
 72
     1
  1
\A1;アンカープレートU
  7
STYLE1
 73
     1
 44
1.0
1001
ACAD
1000
MTEXTBEGIN
1070
    73
1070
     1
1070
    44
1040
1.0
1070
    74
1070
     0
1000
MTEXTEND
  0
MTEXT
  5
312D4
330
747D
100
AcDbEntity
  8
寸法
 62
     7
 48
50.0
100
AcDbMText
 10
7377.183491971701
 20
2553.718625271509
 30
0.0
 40
100.0
 41
0.0
 71
     7
 72
     1
  1
\A1;(別売)
  7
STYLE1
 73
     1
 44
1.0
1001
ACAD
1000
MTEXTBEGIN
1070
    73
1070
     1
1070
    44
1040
1.0
1070
    74
1070
     0
1000
MTEXTEND
  0
LINE
  5
312D5
330
747D
100
AcDbEntity
  8
細線
 48
50.0
100
AcDbLine
 10
7797.739411573587
 20
1153.554091015232
 30
0.0
 11
8202.334397420171
 21
1558.149076861815
 31
0.0
  0
LINE
  5
312D6
330
747D
100
AcDbEntity
  8
細線
 48
50.0
100
AcDbLine
 10
7865.091332481608
 20
1153.554091015232
 30
0.0
 11
8202.334397420171
 21
1490.797155953807
 31
0.0
  0
LINE
  5
312D7
330
747D
100
AcDbEntity
  8
細線
 48
50.0
100
AcDbLine
 10
7831.415372027601
 20
1153.554091015232
 30
0.0
 11
8202.334397420171
 21
1524.473116407798
 31
0.0
  0
LINE
  5
312D8
330
747D
100
AcDbEntity
  8
細線
 48
50.0
100
AcDbLine
 10
7562.007688395526
 20
1153.554091015232
 30
0.0
 11
8202.334397420171
 21
1793.880800039877
 31
0.0
  0
LINE
  5
312D9
330
747D
100
AcDbEntity
  8
細線
 48
50.0
100
AcDbLine
 10
7595.683648849533
 20
1153.554091015232
 30
0.0
 11
8202.334397420171
 21
1760.204839585867
 31
0.0
  0
LINE
  5
312DA
330
747D
100
AcDbEntity
  8
細線
 48
50.0
100
AcDbLine
 10
7542.334397420171
 20
1167.556760493891
 30
0.0
 11
8202.334397420171
 21
1827.556760493889
 31
0.0
  0
LINE
  5
312DB
330
747D
100
AcDbEntity
  8
細線
 48
50.0
100
AcDbLine
 10
7542.334397420178
 20
1403.288483671952
 30
0.0
 11
7592.600004763458
 21
1453.554091015232
 31
0.0
  0
LINE
  5
312DC
330
747D
100
AcDbEntity
  8
細線
 48
50.0
100
AcDbLine
 10
7722.334397420171
 20
1583.288483671949
 30
0.0
 11
8202.334397420171
 21
2063.288483671948
 31
0.0
  0
LINE
  5
312DD
330
747D
100
AcDbEntity
  8
細線
 48
50.0
100
AcDbLine
 10
7542.334397420171
 20
1369.612523217934
 30
0.0
 11
7626.275965217472
 21
1453.554091015232
 31
0.0
  0
LINE
  5
312DE
330
747D
100
AcDbEntity
  8
細線
 48
50.0
100
AcDbLine
 10
7722.334397420171
 20
1549.612523217941
 30
0.0
 11
8202.334397420171
 21
2029.612523217934
 31
0.0
  0
LINE
  5
312DF
330
747D
100
AcDbEntity
  8
細線
 48
50.0
100
AcDbLine
 10
7542.334397420171
 20
1436.964444125958
 30
0.0
 11
7558.924044309446
 21
1453.554091015232
 31
0.0
  0
LINE
  5
312E0
330
747D
100
AcDbEntity
  8
細線
 48
50.0
100
AcDbLine
 10
7722.334397420178
 20
1616.964444125956
 30
0.0
 11
8202.334397420171
 21
2096.964444125955
 31
0.0
  0
LINE
  5
312E1
330
747D
100
AcDbEntity
  8
細線
 48
50.0
100
AcDbLine
 10
7722.334397420171
 20
1852.696167304017
 30
0.0
 11
7978.3343974202
 21
2108.696167304037
 31
0.0
  0
LINE
  5
312E2
330
747D
100
AcDbEntity
  8
細線
 48
50.0
100
AcDbLine
 10
7998.334397420179
 20
2128.696167304017
 30
0.0
 11
8103.192321131393
 21
2233.55409101523
 31
0.0
  0
LINE
  5
312E3
330
747D
100
AcDbEntity
  8
細線
 48
50.0
100
AcDbLine
 10
7722.334397420171
 20
1819.020206849996
 30
0.0
 11
7978.334397420193
 21
2075.02020685002
 31
0.0
  0
LINE
  5
312E4
330
747D
100
AcDbEntity
  8
細線
 48
50.0
100
AcDbLine
 10
7998.334397420186
 20
2095.020206850004
 30
0.0
 11
8136.868281585412
 21
2233.55409101523
 31
0.0
  0
LINE
  5
312E5
330
747D
100
AcDbEntity
  8
細線
 48
50.0
100
AcDbLine
 10
7722.334397420178
 20
1886.372127758029
 30
0.0
 11
7978.3343974202
 21
2142.372127758043
 31
0.0
  0
LINE
  5
312E6
330
747D
100
AcDbEntity
  8
細線
 48
50.0
100
AcDbLine
 10
7998.334397420186
 20
2162.372127758033
 30
0.0
 11
8069.516360677379
 21
2233.55409101523
 31
0.0
  0
LINE
  5
312E7
330
747D
100
AcDbEntity
  8
細線
 48
50.0
100
AcDbLine
 10
7722.334397420171
 20
2122.103850936081
 30
0.0
 11
7833.784637499324
 21
2233.554091015232
 31
0.0
  0
LINE
  5
312E8
330
747D
100
AcDbEntity
  8
細線
 48
50.0
100
AcDbLine
 10
7722.334397420171
 20
2088.427890482062
 30
0.0
 11
7867.460597953336
 21
2233.554091015232
 31
0.0
  0
LINE
  5
312E9
330
747D
100
AcDbEntity
  8
細線
 48
50.0
100
AcDbLine
 10
7722.334397420178
 20
2155.779811390094
 30
0.0
 11
7800.108677045304
 21
2233.554091015232
 31
0.0
  0
LINE
  5
312EA
330
747D
100
AcDbEntity
  8
細線
 48
50.0
100
AcDbLine
 10
8067.147095205662
 20
1153.554091015232
 30
0.0
 11
8367.147095205655
 21
1453.554091015232
 31
0.0
  0
LINE
  5
312EB
330
747D
100
AcDbEntity
  8
細線
 48
50.0
100
AcDbLine
 10
8134.49901611368
 20
1153.554091015232
 30
0.0
 11
8382.334397420164
 21
1401.38947232173
 31
0.0
  0
LINE
  5
312EC
330
747D
100
AcDbEntity
  8
細線
 48
50.0
100
AcDbLine
 10
8100.823055659676
 20
1153.554091015232
 30
0.0
 11
8382.334397420171
 21
1435.065432775724
 31
0.0
  0
LINE
  5
312ED
330
747D
100
AcDbEntity
  8
細線
 48
50.0
100
AcDbLine
 10
8336.554778837736
 20
1153.554091015231
 30
0.0
 11
8382.334397420171
 21
1199.33370959766
 31
0.0
  0
LINE
  5
312EE
330
747D
100
AcDbEntity
  8
細線
 48
50.0
100
AcDbLine
 10
8370.23073929175
 20
1153.554091015231
 30
0.0
 11
8382.334397420171
 21
1165.657749143647
 31
0.0
  0
LINE
  5
312EF
330
747D
100
AcDbEntity
  8
細線
 48
50.0
100
AcDbLine
 10
8072.128411498125
 20
1153.554091015232
 30
0.0
 11
8172.128411498125
 21
1053.554091015232
 31
0.0
  0
LINE
  5
312F0
330
747D
100
AcDbEntity
  8
細線
 48
50.0
100
AcDbLine
 10
8038.45245104412
 20
1153.554091015232
 30
0.0
 11
8138.452451044127
 21
1053.554091015232
 31
0.0
  0
LINE
  5
312F1
330
747D
100
AcDbEntity
  8
細線
 48
50.0
100
AcDbLine
 10
8004.776490590106
 20
1153.554091015232
 30
0.0
 11
8104.776490590113
 21
1053.554091015232
 31
0.0
  0
LINE
  5
312F2
330
747D
100
AcDbEntity
  8
細線
 48
50.0
100
AcDbLine
 10
7802.720727866049
 20
1153.554091015232
 30
0.0
 11
7902.72072786605
 21
1053.554091015232
 31
0.0
  0
LINE
  5
312F3
330
747D
100
AcDbEntity
  8
細線
 48
50.0
100
AcDbLine
 10
7769.044767412045
 20
1153.554091015232
 30
0.0
 11
7869.044767412052
 21
1053.554091015232
 31
0.0
  0
LINE
  5
312F4
330
747D
100
AcDbEntity
  8
細線
 48
50.0
100
AcDbLine
 10
7735.368806958039
 20
1153.554091015231
 30
0.0
 11
7835.368806958038
 21
1053.554091015232
 31
0.0
  0
LINE
  5
312F5
330
747D
100
AcDbEntity
  8
細線
 48
50.0
100
AcDbLine
 10
7533.313044233975
 20
1153.554091015232
 30
0.0
 11
7633.313044233975
 21
1053.554091015232
 31
0.0
  0
LINE
  5
312F6
330
747D
100
AcDbEntity
  8
細線
 48
50.0
100
AcDbLine
 10
7499.63708377997
 20
1153.554091015232
 30
0.0
 11
7599.637083779978
 21
1053.554091015232
 31
0.0
  0
LINE
  5
312F7
330
747D
100
AcDbEntity
  8
細線
 48
50.0
100
AcDbLine
 10
7465.961123325964
 20
1153.554091015231
 30
0.0
 11
7565.961123325964
 21
1053.554091015232
 31
0.0
  0
LINE
  5
312F8
330
747D
100
AcDbEntity
  8
細線
 48
50.0
100
AcDbLine
 10
8341.5360951302
 20
1153.554091015232
 30
0.0
 11
8441.536095130199
 21
1053.554091015232
 31
0.0
  0
LINE
  5
312F9
330
747D
100
AcDbEntity
  8
細線
 48
50.0
100
AcDbLine
 10
8307.860134676195
 20
1153.554091015232
 30
0.0
 11
8407.860134676202
 21
1053.554091015232
 31
0.0
  0
LINE
  5
312FA
330
747D
100
AcDbEntity
  8
細線
 48
50.0
100
AcDbLine
 10
8274.184174222181
 20
1153.554091015232
 30
0.0
 11
8374.184174222188
 21
1053.554091015232
 31
0.0
  0
LINE
  5
312FB
330
747D
100
AcDbEntity
  8
細線
 48
50.0
100
AcDbLine
 10
8148.976510358414
 20
1023.554091015232
 30
0.0
 11
8140.938034585481
 21
1053.554091015232
 31
0.0
  0
LINE
  5
312FC
330
747D
100
AcDbEntity
  8
細線
 48
50.0
100
AcDbLine
 10
8247.586566542457
 20
1023.554091015232
 30
0.0
 11
8239.548090769531
 21
1053.554091015232
 31
0.0
  0
LINE
  5
312FD
330
747D
100
AcDbEntity
  8
細線
 48
50.0
100
AcDbLine
 10
7951.756397990298
 20
1023.554091015232
 30
0.0
 11
7943.717922217365
 21
1053.554091015232
 31
0.0
  0
LINE
  5
312FE
330
747D
100
AcDbEntity
  8
細線
 48
50.0
100
AcDbLine
 10
8050.366454174357
 20
1023.554091015232
 30
0.0
 11
8042.327978401422
 21
1053.554091015232
 31
0.0
  0
LINE
  5
312FF
330
747D
100
AcDbEntity
  8
細線
 48
50.0
100
AcDbLine
 10
8112.181591115302
 20
886.2335829395451
 30
0.0
 11
8120.220066888235
 21
856.2335829395451
 31
0.0
  0
LINE
  5
31300
330
747D
100
AcDbEntity
  8
細線
 48
50.0
100
AcDbLine
 10
8210.791647299361
 20
886.2335829395451
 30
0.0
 11
8218.830123072308
 21
856.2335829395451
 31
0.0
  0
LINE
  5
31301
330
747D
100
AcDbEntity
  8
細線
 48
50.0
100
AcDbLine
 10
7914.961478747187
 20
886.2335829395451
 30
0.0
 11
7922.999954520121
 21
856.2335829395451
 31
0.0
  0
LINE
  5
31302
330
747D
100
AcDbEntity
  8
細線
 48
50.0
100
AcDbLine
 10
8013.571534931244
 20
886.2335829395451
 30
0.0
 11
8021.610010704177
 21
856.2335829395451
 31
0.0
  0
LINE
  5
31303
330
747D
100
AcDbEntity
  8
細線
 48
50.0
100
AcDbLine
 10
7906.205035277001
 20
853.5540910152322
 30
0.0
 11
7959.794873763225
 21
1053.554091015232
 31
0.0
  0
LINE
  5
31304
330
747D
100
AcDbEntity
  8
細線
 48
50.0
100
AcDbLine
 10
8103.425147645117
 20
853.5540910152322
 30
0.0
 11
8157.014986131342
 21
1053.554091015232
 31
0.0
  0
LINE
  5
31305
330
747D
100
AcDbEntity
  8
細線
 48
50.0
100
AcDbLine
 10
8004.815091461059
 20
853.5540910152322
 30
0.0
 11
8058.404929947283
 21
1053.554091015232
 31
0.0
  0
LINE
  5
31306
330
747D
100
AcDbEntity
  8
細線
 48
50.0
100
AcDbLine
 10
8202.035203829174
 20
853.5540910152322
 30
0.0
 11
8255.625042315392
 21
1053.554091015232
 31
0.0
  0
LINE
  5
31307
330
747D
100
AcDbEntity
  8
細線
 48
50.0
100
AcDbLine
 10
7754.536285622177
 20
1023.554091015232
 30
0.0
 11
7746.497809849244
 21
1053.554091015232
 31
0.0
  0
LINE
  5
31308
330
747D
100
AcDbEntity
  8
細線
 48
50.0
100
AcDbLine
 10
7853.146341806241
 20
1023.554091015232
 30
0.0
 11
7845.107866033308
 21
1053.554091015232
 31
0.0
  0
LINE
  5
31309
330
747D
100
AcDbEntity
  8
細線
 48
50.0
100
AcDbLine
 10
7717.741366379065
 20
886.2335829395451
 30
0.0
 11
7725.779842151998
 21
856.2335829395451
 31
0.0
  0
LINE
  5
3130A
330
747D
100
AcDbEntity
  8
細線
 48
50.0
100
AcDbLine
 10
7816.35142256313
 20
886.2335829395451
 30
0.0
 11
7824.389898336064
 21
856.2335829395451
 31
0.0
  0
LINE
  5
3130B
330
747D
100
AcDbEntity
  8
細線
 48
50.0
100
AcDbLine
 10
7708.98492290888
 20
853.5540910152322
 30
0.0
 11
7762.574761395102
 21
1053.554091015232
 31
0.0
  0
LINE
  5
3130C
330
747D
100
AcDbEntity
  8
細線
 48
50.0
100
AcDbLine
 10
7807.594979092944
 20
853.5540910152322
 30
0.0
 11
7861.184817579168
 21
1053.554091015232
 31
0.0
  0
LINE
  5
3130D
330
747D
100
AcDbEntity
  8
細線
 48
50.0
100
AcDbLine
 10
7655.926229438119
 20
1023.554091015232
 30
0.0
 11
7647.887753665185
 21
1053.554091015232
 31
0.0
  0
LINE
  5
3130E
330
747D
100
AcDbEntity
  8
細線
 48
50.0
100
AcDbLine
 10
7619.131310195007
 20
886.2335829395451
 30
0.0
 11
7627.16978596794
 21
856.2335829395451
 31
0.0
  0
LINE
  5
3130F
330
747D
100
AcDbEntity
  8
細線
 48
50.0
100
AcDbLine
 10
7610.374866724822
 20
853.5540910152322
 30
0.0
 11
7663.964705211045
 21
1053.554091015232
 31
0.0
  0
LINE
  5
31310
330
747D
100
AcDbEntity
  8
細線
 48
50.0
100
AcDbLine
 10
7458.706117069997
 20
1023.554091015232
 30
0.0
 11
7450.667641297063
 21
1053.554091015232
 31
0.0
  0
LINE
  5
31311
330
747D
100
AcDbEntity
  8
細線
 48
50.0
100
AcDbLine
 10
7557.316173254061
 20
1023.554091015232
 30
0.0
 11
7549.277697481127
 21
1053.554091015232
 31
0.0
  0
LINE
  5
31312
330
747D
100
AcDbEntity
  8
細線
 48
50.0
100
AcDbLine
 10
7421.911197826886
 20
886.2335829395451
 30
0.0
 11
7429.949673599819
 21
856.2335829395451
 31
0.0
  0
LINE
  5
31313
330
747D
100
AcDbEntity
  8
細線
 48
50.0
100
AcDbLine
 10
7520.52125401095
 20
886.2335829395451
 30
0.0
 11
7528.559729783883
 21
856.2335829395451
 31
0.0
  0
LINE
  5
31314
330
747D
100
AcDbEntity
  8
細線
 48
50.0
100
AcDbLine
 10
7419.334397420171
 20
876.6168329007468
 30
0.0
 11
7466.744592842923
 21
1053.554091015232
 31
0.0
  0
LINE
  5
31315
330
747D
100
AcDbEntity
  8
細線
 48
50.0
100
AcDbLine
 10
7511.764810540764
 20
853.5540910152322
 30
0.0
 11
7565.354649026987
 21
1053.554091015232
 31
0.0
  0
LINE
  5
31316
330
747D
100
AcDbEntity
  8
細線
 48
50.0
100
AcDbLine
 10
8346.196622726528
 20
1023.554091015232
 30
0.0
 11
8338.158146953595
 21
1053.554091015232
 31
0.0
  0
LINE
  5
31317
330
747D
100
AcDbEntity
  8
細線
 48
50.0
100
AcDbLine
 10
8444.806678910586
 20
1023.554091015232
 30
0.0
 11
8436.768203137653
 21
1053.554091015232
 31
0.0
  0
LINE
  5
31318
330
747D
100
AcDbEntity
  8
細線
 48
50.0
100
AcDbLine
 10
8309.401703483418
 20
886.2335829395451
 30
0.0
 11
8317.440179256351
 21
856.2335829395451
 31
0.0
  0
LINE
  5
31319
330
747D
100
AcDbEntity
  8
細線
 48
50.0
100
AcDbLine
 10
8408.011759667475
 20
886.2335829395451
 30
0.0
 11
8416.050235440408
 21
856.2335829395451
 31
0.0
  0
LINE
  5
3131A
330
747D
100
AcDbEntity
  8
細線
 48
50.0
100
AcDbLine
 10
8300.645260013231
 20
853.5540910152322
 30
0.0
 11
8354.235098499456
 21
1053.554091015232
 31
0.0
  0
LINE
  5
3131B
330
747D
100
AcDbEntity
  8
細線
 48
50.0
100
AcDbLine
 10
8497.865372381347
 20
853.5540910152322
 30
0.0
 11
8505.334397420163
 21
881.4288719431115
 31
0.0
  0
LINE
  5
3131C
330
747D
100
AcDbEntity
  8
細線
 48
50.0
100
AcDbLine
 10
8399.25531619729
 20
853.5540910152322
 30
0.0
 11
8452.845154683513
 21
1053.554091015232
 31
0.0
  0
LINE
  5
3131D
330
747D
100
AcDbEntity
  8
細線
 48
50.0
100
AcDbLine
 10
3046.290827685866
 20
1153.554091015233
 30
0.0
 11
3139.290827685865
 21
1246.554091015233
 31
0.0
  0
LINE
  5
3131E
330
747D
100
AcDbEntity
  8
細線
 48
50.0
100
AcDbLine
 10
3159.290827685873
 20
1266.554091015233
 30
0.0
 11
3163.290827685873
 21
1270.554091015233
 31
0.0
  0
LINE
  5
3131F
330
747D
100
AcDbEntity
  8
細線
 48
50.0
100
AcDbLine
 10
3183.290827685866
 20
1290.554091015234
 30
0.0
 11
3343.885813532455
 21
1451.149076861824
 31
0.0
  0
LINE
  5
31320
330
747D
100
AcDbEntity
  8
細線
 48
50.0
100
AcDbLine
 10
3363.885813532448
 20
1471.149076861816
 30
0.0
 11
3450.885813532448
 21
1558.149076861816
 31
0.0
  0
LINE
  5
31321
330
747D
100
AcDbEntity
  8
細線
 48
50.0
100
AcDbLine
 10
3113.642748593884
 20
1153.554091015233
 30
0.0
 11
3206.64274859387
 21
1246.554091015233
 31
0.0
  0
LINE
  5
31322
330
747D
100
AcDbEntity
  8
細線
 48
50.0
100
AcDbLine
 10
3226.64274859387
 20
1266.554091015233
 30
0.0
 11
3230.642748593869
 21
1270.554091015233
 31
0.0
  0
LINE
  5
31323
330
747D
100
AcDbEntity
  8
細線
 48
50.0
100
AcDbLine
 10
3250.64274859387
 20
1290.554091015233
 30
0.0
 11
3343.885813532455
 21
1383.797155953819
 31
0.0
  0
LINE
  5
31324
330
747D
100
AcDbEntity
  8
細線
 48
50.0
100
AcDbLine
 10
3363.885813532441
 20
1403.797155953805
 30
0.0
 11
3450.885813532448
 21
1490.797155953808
 31
0.0
  0
LINE
  5
31325
330
747D
100
AcDbEntity
  8
細線
 48
50.0
100
AcDbLine
 10
3079.966788139878
 20
1153.554091015233
 30
0.0
 11
3172.966788139886
 21
1246.554091015233
 31
0.0
  0
LINE
  5
31326
330
747D
100
AcDbEntity
  8
細線
 48
50.0
100
AcDbLine
 10
3192.966788139886
 20
1266.554091015233
 30
0.0
 11
3196.966788139878
 21
1270.554091015234
 31
0.0
  0
LINE
  5
31327
330
747D
100
AcDbEntity
  8
細線
 48
50.0
100
AcDbLine
 10
3216.966788139878
 20
1290.554091015234
 30
0.0
 11
3343.885813532463
 21
1417.473116407813
 31
0.0
  0
LINE
  5
31328
330
747D
100
AcDbEntity
  8
細線
 48
50.0
100
AcDbLine
 10
3363.885813532448
 20
1437.473116407799
 30
0.0
 11
3450.885813532448
 21
1524.473116407799
 31
0.0
  0
LINE
  5
31329
330
747D
100
AcDbEntity
  8
細線
 48
50.0
100
AcDbLine
 10
3030.885813532448
 20
1373.88080003988
 30
0.0
 11
3110.559104507796
 21
1453.554091015235
 31
0.0
  0
LINE
  5
3132A
330
747D
100
AcDbEntity
  8
細線
 48
50.0
100
AcDbLine
 10
3210.885813532448
 20
1553.880800039876
 30
0.0
 11
3343.885813532455
 21
1686.880800039885
 31
0.0
  0
LINE
  5
3132B
330
747D
100
AcDbEntity
  8
細線
 48
50.0
100
AcDbLine
 10
3363.885813532441
 20
1706.88080003988
 30
0.0
 11
3450.885813532448
 21
1793.880800039877
 31
0.0
  0
LINE
  5
3132C
330
747D
100
AcDbEntity
  8
細線
 48
50.0
100
AcDbLine
 10
3030.885813532456
 20
1340.204839585872
 30
0.0
 11
3144.235064961809
 21
1453.554091015234
 31
0.0
  0
LINE
  5
3132D
330
747D
100
AcDbEntity
  8
細線
 48
50.0
100
AcDbLine
 10
3210.885813532448
 20
1520.204839585873
 30
0.0
 11
3343.885813532455
 21
1653.204839585873
 31
0.0
  0
LINE
  5
3132E
330
747D
100
AcDbEntity
  8
細線
 48
50.0
100
AcDbLine
 10
3363.885813532441
 20
1673.204839585867
 30
0.0
 11
3450.885813532448
 21
1760.204839585868
 31
0.0
  0
LINE
  5
3132F
330
747D
100
AcDbEntity
  8
細線
 48
50.0
100
AcDbLine
 10
3030.885813532456
 20
1407.556760493893
 30
0.0
 11
3076.883144053784
 21
1453.554091015235
 31
0.0
  0
LINE
  5
31330
330
747D
100
AcDbEntity
  8
細線
 48
50.0
100
AcDbLine
 10
3210.885813532448
 20
1587.556760493886
 30
0.0
 11
3343.885813532455
 21
1720.556760493892
 31
0.0
  0
LINE
  5
31331
330
747D
100
AcDbEntity
  8
細線
 48
50.0
100
AcDbLine
 10
3363.885813532441
 20
1740.556760493887
 30
0.0
 11
3450.885813532448
 21
1827.556760493891
 31
0.0
  0
LINE
  5
31332
330
747D
100
AcDbEntity
  8
細線
 48
50.0
100
AcDbLine
 10
3315.69851131794
 20
1153.554091015232
 30
0.0
 11
3432.69851131794
 21
1270.554091015233
 31
0.0
  0
LINE
  5
31333
330
747D
100
AcDbEntity
  8
細線
 48
50.0
100
AcDbLine
 10
3452.69851131794
 20
1290.554091015233
 30
0.0
 11
3615.698511317932
 21
1453.554091015233
 31
0.0
  0
LINE
  5
31334
330
747D
100
AcDbEntity
  8
細線
 48
50.0
100
AcDbLine
 10
3383.050432225959
 20
1153.554091015232
 30
0.0
 11
3500.050432225959
 21
1270.554091015233
 31
0.0
  0
LINE
  5
31335
330
747D
100
AcDbEntity
  8
細線
 48
50.0
100
AcDbLine
 10
3518.330056713138
 20
1288.83371550242
 30
0.0
 11
3630.885813532441
 21
1401.389472321731
 31
0.0
  0
LINE
  5
31336
330
747D
100
AcDbEntity
  8
細線
 48
50.0
100
AcDbLine
 10
3349.374471771953
 20
1153.554091015232
 30
0.0
 11
3466.374471771953
 21
1270.554091015233
 31
0.0
  0
LINE
  5
31337
330
747D
100
AcDbEntity
  8
細線
 48
50.0
100
AcDbLine
 10
3486.374471771961
 20
1290.554091015233
 30
0.0
 11
3486.976268093247
 21
1291.155887336521
 31
0.0
  0
LINE
  5
31338
330
747D
100
AcDbEntity
  8
細線
 48
50.0
100
AcDbLine
 10
3503.284017211161
 20
1307.463636454433
 30
0.0
 11
3630.885813532449
 21
1435.065432775726
 31
0.0
  0
LINE
  5
31339
330
747D
100
AcDbEntity
  8
細線
 48
50.0
100
AcDbLine
 10
3283.679827610402
 20
1153.554091015233
 30
0.0
 11
3383.679827610402
 21
1053.554091015233
 31
0.0
  0
LINE
  5
3133A
330
747D
100
AcDbEntity
  8
細線
 48
50.0
100
AcDbLine
 10
3250.003867156396
 20
1153.554091015233
 30
0.0
 11
3350.003867156404
 21
1053.554091015233
 31
0.0
  0
LINE
  5
3133B
330
747D
100
AcDbEntity
  8
細線
 48
50.0
100
AcDbLine
 10
3216.327906702383
 20
1153.554091015233
 30
0.0
 11
3316.327906702391
 21
1053.554091015233
 31
0.0
  0
LINE
  5
3133C
330
747D
100
AcDbEntity
  8
細線
 48
50.0
100
AcDbLine
 10
3014.272143978327
 20
1153.554091015233
 30
0.0
 11
3114.272143978328
 21
1053.554091015233
 31
0.0
  0
LINE
  5
3133D
330
747D
100
AcDbEntity
  8
細線
 48
50.0
100
AcDbLine
 10
2980.596183524322
 20
1153.554091015233
 30
0.0
 11
3080.596183524329
 21
1053.554091015233
 31
0.0
  0
LINE
  5
3133E
330
747D
100
AcDbEntity
  8
細線
 48
50.0
100
AcDbLine
 10
2946.920223070316
 20
1153.554091015232
 30
0.0
 11
3046.920223070316
 21
1053.554091015233
 31
0.0
  0
LINE
  5
3133F
330
747D
100
AcDbEntity
  8
細線
 48
50.0
100
AcDbLine
 10
3553.087511242477
 20
1153.554091015233
 30
0.0
 11
3653.087511242477
 21
1053.554091015233
 31
0.0
  0
LINE
  5
31340
330
747D
100
AcDbEntity
  8
細線
 48
50.0
100
AcDbLine
 10
3519.411550788471
 20
1153.554091015233
 30
0.0
 11
3619.411550788478
 21
1053.554091015233
 31
0.0
  0
LINE
  5
31341
330
747D
100
AcDbEntity
  8
細線
 48
50.0
100
AcDbLine
 10
3485.735590334458
 20
1153.554091015233
 30
0.0
 11
3585.735590334465
 21
1053.554091015233
 31
0.0
  0
LINE
  5
31342
330
747D
100
AcDbEntity
  8
細線
 48
50.0
100
AcDbLine
 10
3360.527926470691
 20
1023.554091015233
 30
0.0
 11
3352.489450697758
 21
1053.554091015233
 31
0.0
  0
LINE
  5
31343
330
747D
100
AcDbEntity
  8
細線
 48
50.0
100
AcDbLine
 10
3459.137982654735
 20
1023.554091015233
 30
0.0
 11
3451.099506881809
 21
1053.554091015233
 31
0.0
  0
LINE
  5
31344
330
747D
100
AcDbEntity
  8
細線
 48
50.0
100
AcDbLine
 10
3163.307814102576
 20
1023.554091015233
 30
0.0
 11
3155.269338329643
 21
1053.554091015233
 31
0.0
  0
LINE
  5
31345
330
747D
100
AcDbEntity
  8
細線
 48
50.0
100
AcDbLine
 10
3261.917870286634
 20
1023.554091015233
 30
0.0
 11
3253.8793945137
 21
1053.554091015233
 31
0.0
  0
LINE
  5
31346
330
747D
100
AcDbEntity
  8
細線
 48
50.0
100
AcDbLine
 10
3323.733007227581
 20
886.2335829395469
 30
0.0
 11
3331.771483000514
 21
856.233582939547
 31
0.0
  0
LINE
  5
31347
330
747D
100
AcDbEntity
  8
細線
 48
50.0
100
AcDbLine
 10
3422.343063411638
 20
886.2335829395469
 30
0.0
 11
3430.381539184586
 21
856.233582939547
 31
0.0
  0
LINE
  5
31348
330
747D
100
AcDbEntity
  8
細線
 48
50.0
100
AcDbLine
 10
3126.512894859465
 20
886.2335829395469
 30
0.0
 11
3134.551370632398
 21
856.233582939547
 31
0.0
  0
LINE
  5
31349
330
747D
100
AcDbEntity
  8
細線
 48
50.0
100
AcDbLine
 10
3225.122951043522
 20
886.2335829395469
 30
0.0
 11
3233.161426816456
 21
856.233582939547
 31
0.0
  0
LINE
  5
3134A
330
747D
100
AcDbEntity
  8
細線
 48
50.0
100
AcDbLine
 10
3117.75645138928
 20
853.554091015234
 30
0.0
 11
3171.346289875503
 21
1053.554091015233
 31
0.0
  0
LINE
  5
3134B
330
747D
100
AcDbEntity
  8
細線
 48
50.0
100
AcDbLine
 10
3314.976563757395
 20
853.554091015234
 30
0.0
 11
3368.566402243618
 21
1053.554091015233
 31
0.0
  0
LINE
  5
3134C
330
747D
100
AcDbEntity
  8
細線
 48
50.0
100
AcDbLine
 10
3216.366507573337
 20
853.554091015234
 30
0.0
 11
3269.95634605956
 21
1053.554091015233
 31
0.0
  0
LINE
  5
3134D
330
747D
100
AcDbEntity
  8
細線
 48
50.0
100
AcDbLine
 10
3413.586619941452
 20
853.554091015234
 30
0.0
 11
3467.176458427668
 21
1053.554091015233
 31
0.0
  0
LINE
  5
3134E
330
747D
100
AcDbEntity
  8
細線
 48
50.0
100
AcDbLine
 10
3064.697757918519
 20
1023.554091015233
 30
0.0
 11
3056.659282145585
 21
1053.554091015233
 31
0.0
  0
LINE
  5
3134F
330
747D
100
AcDbEntity
  8
細線
 48
50.0
100
AcDbLine
 10
3027.902838675407
 20
886.2335829395469
 30
0.0
 11
3035.94131444834
 21
856.233582939547
 31
0.0
  0
LINE
  5
31350
330
747D
100
AcDbEntity
  8
細線
 48
50.0
100
AcDbLine
 10
3019.146395205222
 20
853.554091015234
 30
0.0
 11
3072.736233691445
 21
1053.554091015233
 31
0.0
  0
LINE
  5
31351
330
747D
100
AcDbEntity
  8
細線
 48
50.0
100
AcDbLine
 10
3557.748038838807
 20
1023.554091015234
 30
0.0
 11
3549.709563065873
 21
1053.554091015234
 31
0.0
  0
LINE
  5
31352
330
747D
100
AcDbEntity
  8
細線
 48
50.0
100
AcDbLine
 10
3656.358095022864
 20
1023.554091015234
 30
0.0
 11
3648.319619249931
 21
1053.554091015234
 31
0.0
  0
LINE
  5
31353
330
747D
100
AcDbEntity
  8
細線
 48
50.0
100
AcDbLine
 10
3520.953119595696
 20
886.2335829395469
 30
0.0
 11
3528.991595368629
 21
856.233582939547
 31
0.0
  0
LINE
  5
31354
330
747D
100
AcDbEntity
  8
細線
 48
50.0
100
AcDbLine
 10
3619.563175779753
 20
886.2335829395469
 30
0.0
 11
3627.601651552686
 21
856.233582939547
 31
0.0
  0
LINE
  5
31355
330
747D
100
AcDbEntity
  8
細線
 48
50.0
100
AcDbLine
 10
3512.196676125511
 20
853.554091015234
 30
0.0
 11
3565.786514611733
 21
1053.554091015234
 31
0.0
  0
LINE
  5
31356
330
747D
100
AcDbEntity
  8
細線
 48
50.0
100
AcDbLine
 10
3610.806732309568
 20
853.554091015234
 30
0.0
 11
3664.396570795791
 21
1053.554091015234
 31
0.0
  0
LINE
  5
31357
330
747D
100
AcDbEntity
  8
細線
 48
50.0
100
AcDbLine
 10
2966.087701734461
 20
1023.554091015233
 30
0.0
 11
2958.049225961527
 21
1053.554091015233
 31
0.0
  0
LINE
  5
31358
330
747D
100
AcDbEntity
  8
細線
 48
50.0
100
AcDbLine
 10
2929.29278249135
 20
886.2335829395469
 30
0.0
 11
2937.331258264283
 21
856.233582939547
 31
0.0
  0
LINE
  5
31359
330
747D
100
AcDbEntity
  8
細線
 48
50.0
100
AcDbLine
 10
2920.536339021164
 20
853.554091015234
 30
0.0
 11
2974.126177507388
 21
1053.554091015233
 31
0.0
  0
LINE
  5
3135A
330
747D
100
AcDbEntity
  8
細線
 48
50.0
100
AcDbLine
 10
2870.885813532448
 20
1036.273547084976
 30
0.0
 11
2875.51612132333
 21
1053.554091015233
 31
0.0
  0
LINE
  5
3135B
330
747D
100
AcDbEntity
  8
細線
 48
50.0
100
AcDbLine
 10
3754.968151206922
 20
1023.554091015234
 30
0.0
 11
3746.929675433989
 21
1053.554091015234
 31
0.0
  0
LINE
  5
3135C
330
747D
100
AcDbEntity
  8
細線
 48
50.0
100
AcDbLine
 10
3718.173231963811
 20
886.2335829395469
 30
0.0
 11
3726.211707736744
 21
856.233582939547
 31
0.0
  0
LINE
  5
3135D
330
747D
100
AcDbEntity
  8
細線
 48
50.0
100
AcDbLine
 10
3709.416788493625
 20
853.554091015234
 30
0.0
 11
3763.006626979848
 21
1053.554091015234
 31
0.0
  0
LINE
  5
3135E
330
747D
100
AcDbEntity
  8
細線
 48
50.0
100
AcDbLine
 10
3788.819234420546
 20
1153.554091015233
 30
0.0
 11
3790.885813532441
 21
1151.487511903335
 31
0.0
  0
LINE
  5
3135F
330
747D
100
AcDbEntity
  8
細線
 48
50.0
100
AcDbLine
 10
3755.143273966532
 20
1153.554091015233
 30
0.0
 11
3790.885813532441
 21
1117.811551449318
 31
0.0
  0
LINE
  5
31360
330
747D
100
AcDbEntity
  8
細線
 48
50.0
100
AcDbLine
 10
3585.106194950007
 20
1153.554091015232
 30
0.0
 11
3630.885813532449
 21
1199.333709597682
 31
0.0
  0
LINE
  5
31361
330
747D
100
AcDbEntity
  8
細線
 48
50.0
100
AcDbLine
 10
3618.782155404021
 20
1153.554091015232
 30
0.0
 11
3630.885813532449
 21
1165.657749143663
 31
0.0
  0
LINE
  5
31362
330
747D
100
AcDbEntity
  8
細線
 48
50.0
100
AcDbLine
 10
3210.885813532448
 20
1823.28848367195
 30
0.0
 11
3343.885813532448
 21
1956.288483671947
 31
0.0
  0
LINE
  5
31363
330
747D
100
AcDbEntity
  8
細線
 48
50.0
100
AcDbLine
 10
3363.885813532448
 20
1976.288483671944
 30
0.0
 11
3450.885813532448
 21
2063.288483671952
 31
0.0
  0
LINE
  5
31364
330
747D
100
AcDbEntity
  8
細線
 48
50.0
100
AcDbLine
 10
3210.885813532448
 20
1789.612523217947
 30
0.0
 11
3343.885813532448
 21
1922.61252321794
 31
0.0
  0
LINE
  5
31365
330
747D
100
AcDbEntity
  8
細線
 48
50.0
100
AcDbLine
 10
3363.885813532441
 20
1942.61252321794
 30
0.0
 11
3450.885813532448
 21
2029.612523217943
 31
0.0
  0
LINE
  5
31366
330
747D
100
AcDbEntity
  8
細線
 48
50.0
100
AcDbLine
 10
3210.885813532448
 20
1856.964444125961
 30
0.0
 11
3343.885813532448
 21
1989.964444125976
 31
0.0
  0
LINE
  5
31367
330
747D
100
AcDbEntity
  8
細線
 48
50.0
100
AcDbLine
 10
3363.885813532441
 20
2009.96444412596
 30
0.0
 11
3450.885813532448
 21
2096.964444125966
 31
0.0
  0
LINE
  5
31368
330
747D
100
AcDbEntity
  8
細線
 48
50.0
100
AcDbLine
 10
3210.885813532448
 20
2092.696167304025
 30
0.0
 11
3351.743737243655
 21
2233.554091015232
 31
0.0
  0
LINE
  5
31369
330
747D
100
AcDbEntity
  8
細線
 48
50.0
100
AcDbLine
 10
3210.885813532448
 20
2059.020206850022
 30
0.0
 11
3385.419697697638
 21
2233.554091015233
 31
0.0
  0
LINE
  5
3136A
330
747D
100
AcDbEntity
  8
細線
 48
50.0
100
AcDbLine
 10
3210.885813532448
 20
2126.372127758035
 30
0.0
 11
3318.067776789642
 21
2233.554091015232
 31
0.0
  0
LINE
  5
3136B
330
747D
100
AcDbEntity
  8
部品1
 48
50.0
100
AcDbLine
 10
8752.33439742017
 20
1933.554091015232
 30
0.0
 11
8202.334397420171
 21
1933.554091015232
 31
0.0
  0
LINE
  5
3136C
330
747D
100
AcDbEntity
  8
部品1
 48
50.0
100
AcDbLine
 10
2660.885813532448
 20
1933.554091015233
 30
0.0
 11
3210.885813532448
 21
1933.554091015233
 31
0.0
  0
TEXT
  5
3136D
330
747D
100
AcDbEntity
  8
寸法
 62
     7
 48
50.0
100
AcDbText
 10
2650.110432603971
 20
1952.84881784694
 30
0.0
 40
120.0
  1
▽G.L
  7
STYLE1
100
AcDbText
  0
LINE
  5
3136E
330
747D
100
AcDbEntity
  8
部品1
 48
50.0
100
AcDbLine
 10
4000.885813532447
 20
1933.554091015233
 30
0.0
 11
3450.885813532448
 21
1933.554091015233
 31
0.0
  0
LINE
  5
3136F
330
747D
100
AcDbEntity
  8
細線
100
AcDbLine
 10
5417.435866486761
 20
1833.554091015234
 30
0.0
 11
5517.435866486754
 21
1933.554091015233
 31
0.0
  0
LINE
  5
31370
330
747D
100
AcDbEntity
  8
細線
 48
50.0
100
AcDbLine
 10
5580.549727729128
 20
1803.554091015233
 30
0.0
 11
5572.511251956195
 21
1833.554091015233
 31
0.0
  0
LINE
  5
31371
330
747D
100
AcDbEntity
  8
細線
 48
50.0
100
AcDbLine
 10
5481.939671545056
 20
1803.554091015237
 30
0.0
 11
5473.901195772116
 21
1833.554091015237
 31
0.0
  0
LINE
  5
31372
330
747D
100
AcDbEntity
  8
細線
 48
50.0
100
AcDbLine
 10
5284.719559176942
 20
1803.554091015237
 30
0.0
 11
5276.681083404015
 21
1833.554091015237
 31
0.0
  0
LINE
  5
31373
330
747D
100
AcDbEntity
  8
細線
 48
50.0
100
AcDbLine
 10
5383.329615361006
 20
1803.554091015237
 30
0.0
 11
5375.291139588073
 21
1833.554091015237
 31
0.0
  0
LINE
  5
31374
330
747D
100
AcDbEntity
  8
細線
100
AcDbLine
 10
5332.583052744376
 20
1833.554091015234
 30
0.0
 11
5432.583052744377
 21
1933.554091015233
 31
0.0
  0
LINE
  5
31375
330
747D
100
AcDbEntity
  8
細線
100
AcDbLine
 10
5375.009459615576
 20
1833.554091015234
 30
0.0
 11
5475.009459615561
 21
1933.554091015233
 31
0.0
  0
LINE
  5
31376
330
747D
100
AcDbEntity
  8
細線
 48
50.0
100
AcDbLine
 10
5543.036840788772
 20
1663.554091015233
 30
0.0
 11
5551.075316561699
 21
1633.554091015233
 31
0.0
  0
LINE
  5
31377
330
747D
100
AcDbEntity
  8
細線
 48
50.0
100
AcDbLine
 10
5345.816728420651
 20
1663.554091015237
 30
0.0
 11
5353.855204193584
 21
1633.554091015237
 31
0.0
  0
LINE
  5
31378
330
747D
100
AcDbEntity
  8
細線
 48
50.0
100
AcDbLine
 10
5444.426784604715
 20
1663.554091015237
 30
0.0
 11
5452.465260377649
 21
1633.554091015237
 31
0.0
  0
LINE
  5
31379
330
747D
100
AcDbEntity
  8
細線
 48
50.0
100
AcDbLine
 10
5534.998365015832
 20
1633.554091015233
 30
0.0
 11
5588.588203502055
 21
1833.554091015233
 31
0.0
  0
LINE
  5
3137A
330
747D
100
AcDbEntity
  8
細線
 48
50.0
100
AcDbLine
 10
5337.778252647702
 20
1633.554091015233
 30
0.0
 11
5391.368091133933
 21
1833.554091015233
 31
0.0
  0
LINE
  5
3137B
330
747D
100
AcDbEntity
  8
細線
 48
50.0
100
AcDbLine
 10
5436.388308831774
 20
1633.554091015234
 30
0.0
 11
5489.97814731799
 21
1833.554091015237
 31
0.0
  0
LINE
  5
3137C
330
747D
100
AcDbEntity
  8
細線
100
AcDbLine
 10
4967.435866486761
 20
1833.554091015234
 30
0.0
 11
5067.435866486761
 21
1933.554091015233
 31
0.0
  0
LINE
  5
3137D
330
747D
100
AcDbEntity
  8
細線
 48
50.0
100
AcDbLine
 10
5087.499446808834
 20
1803.554091015237
 30
0.0
 11
5079.460971035899
 21
1833.554091015237
 31
0.0
  0
LINE
  5
3137E
330
747D
100
AcDbEntity
  8
細線
 48
50.0
100
AcDbLine
 10
5186.109502992884
 20
1803.554091015237
 30
0.0
 11
5178.071027219957
 21
1833.554091015237
 31
0.0
  0
LINE
  5
3137F
330
747D
100
AcDbEntity
  8
細線
 48
50.0
100
AcDbLine
 10
4988.889390624769
 20
1803.554091015237
 30
0.0
 11
4980.850914851835
 21
1833.554091015237
 31
0.0
  0
LINE
  5
31380
330
747D
100
AcDbEntity
  8
細線
100
AcDbLine
 10
4925.009459615569
 20
1833.554091015234
 30
0.0
 11
5025.009459615569
 21
1933.554091015233
 31
0.0
  0
LINE
  5
31381
330
747D
100
AcDbEntity
  8
細線
100
AcDbLine
 10
4882.583052744383
 20
1833.554091015234
 30
0.0
 11
4982.583052744368
 21
1933.554091015233
 31
0.0
  0
LINE
  5
31382
330
747D
100
AcDbEntity
  8
細線
 48
50.0
100
AcDbLine
 10
5148.596616052528
 20
1663.554091015237
 30
0.0
 11
5156.635091825468
 21
1633.554091015237
 31
0.0
  0
LINE
  5
31383
330
747D
100
AcDbEntity
  8
細線
 48
50.0
100
AcDbLine
 10
5049.986559868478
 20
1663.554091015237
 30
0.0
 11
5058.025035641411
 21
1633.554091015237
 31
0.0
  0
LINE
  5
31384
330
747D
100
AcDbEntity
  8
細線
 48
50.0
100
AcDbLine
 10
4951.376503684413
 20
1663.554091015237
 30
0.0
 11
4959.414979457346
 21
1633.554091015237
 31
0.0
  0
LINE
  5
31385
330
747D
100
AcDbEntity
  8
細線
 48
50.0
100
AcDbLine
 10
5140.558140279594
 20
1633.554091015233
 30
0.0
 11
5194.147978765824
 21
1833.554091015233
 31
0.0
  0
LINE
  5
31386
330
747D
100
AcDbEntity
  8
細線
 48
50.0
100
AcDbLine
 10
4943.33802791148
 20
1633.554091015233
 30
0.0
 11
4996.927866397695
 21
1833.554091015233
 31
0.0
  0
LINE
  5
31387
330
747D
100
AcDbEntity
  8
細線
 48
50.0
100
AcDbLine
 10
5041.94808409553
 20
1633.554091015233
 30
0.0
 11
5095.537922581759
 21
1833.554091015237
 31
0.0
  0
LINE
  5
31388
330
747D
100
AcDbEntity
  8
細線
 48
50.0
100
AcDbLine
 10
5239.168196463651
 20
1633.554091015233
 30
0.0
 11
5292.758034949875
 21
1833.554091015233
 31
0.0
  0
LINE
  5
31389
330
747D
100
AcDbEntity
  8
細線
 48
50.0
100
AcDbLine
 10
5247.206672236592
 20
1663.554091015237
 30
0.0
 11
5255.245148009518
 21
1633.554091015237
 31
0.0
  0
LINE
  5
3138A
330
747D
100
AcDbEntity
  8
細線
100
AcDbLine
 10
5226.979169518745
 20
1933.554091015233
 30
0.0
 11
4993.68750242277
 21
2166.845758111211
 31
0.0
  0
LINE
  5
3138B
330
747D
100
AcDbEntity
  8
細線
100
AcDbLine
 10
5163.339559211956
 20
1933.554091015233
 30
0.0
 11
4993.68750242277
 21
2103.206147804423
 31
0.0
  0
LINE
  5
3138C
330
747D
100
AcDbEntity
  8
細線
100
AcDbLine
 10
5566.390424488287
 20
1933.554091015233
 30
0.0
 11
5266.390424488294
 21
2233.554091015233
 31
0.0
  0
LINE
  5
3138D
330
747D
100
AcDbEntity
  8
細線
100
AcDbLine
 10
5502.750814181498
 20
1933.554091015233
 30
0.0
 11
5202.750814181506
 21
2233.554091015233
 31
0.0
  0
LINE
  5
3138E
330
747D
100
AcDbEntity
  8
細線
100
AcDbLine
 10
5773.68750242277
 20
2065.668268050295
 30
0.0
 11
5605.801679457837
 21
2233.554091015233
 31
0.0
  0
LINE
  5
3138F
330
747D
100
AcDbEntity
  8
細線
100
AcDbLine
 10
5773.68750242277
 20
2002.028657743505
 30
0.0
 11
5542.162069151046
 21
2233.554091015233
 31
0.0
  0
LINE
  5
31390
330
747D
100
AcDbEntity
  8
細線
100
AcDbLine
 10
5867.435866486754
 20
1833.554091015234
 30
0.0
 11
5933.68750242277
 21
1899.805726951261
 31
0.0
  0
LINE
  5
31391
330
747D
100
AcDbEntity
  8
細線
100
AcDbLine
 10
5782.583052744368
 20
1833.554091015234
 30
0.0
 11
5882.583052744369
 21
1933.554091015233
 31
0.0
  0
LINE
  5
31392
330
747D
100
AcDbEntity
  8
細線
100
AcDbLine
 10
5825.009459615569
 20
1833.554091015234
 30
0.0
 11
5925.009459615554
 21
1933.554091015233
 31
0.0
  0
LINE
  5
31393
330
747D
100
AcDbEntity
  8
細線
 48
50.0
100
AcDbLine
 10
5876.379896281302
 20
1803.554091015233
 30
0.0
 11
5868.341420508368
 21
1833.554091015233
 31
0.0
  0
LINE
  5
31394
330
747D
100
AcDbEntity
  8
細線
 48
50.0
100
AcDbLine
 10
5777.76984009723
 20
1803.554091015237
 30
0.0
 11
5769.731364324289
 21
1833.554091015237
 31
0.0
  0
LINE
  5
31395
330
747D
100
AcDbEntity
  8
細線
 48
50.0
100
AcDbLine
 10
5679.159783913179
 20
1803.554091015237
 30
0.0
 11
5671.121308140246
 21
1833.554091015237
 31
0.0
  0
LINE
  5
31396
330
747D
100
AcDbEntity
  8
細線
 48
50.0
100
AcDbLine
 10
5838.867009340946
 20
1663.554091015233
 30
0.0
 11
5846.905485113872
 21
1633.554091015233
 31
0.0
  0
LINE
  5
31397
330
747D
100
AcDbEntity
  8
細線
 48
50.0
100
AcDbLine
 10
5641.646896972822
 20
1663.554091015237
 30
0.0
 11
5649.685372745756
 21
1633.554091015237
 31
0.0
  0
LINE
  5
31398
330
747D
100
AcDbEntity
  8
細線
 48
50.0
100
AcDbLine
 10
5740.256953156888
 20
1663.554091015237
 30
0.0
 11
5748.295428929822
 21
1633.554091015237
 31
0.0
  0
LINE
  5
31399
330
747D
100
AcDbEntity
  8
細線
 48
50.0
100
AcDbLine
 10
5830.828533568005
 20
1633.554091015233
 30
0.0
 11
5884.418372054227
 21
1833.554091015233
 31
0.0
  0
LINE
  5
3139A
330
747D
100
AcDbEntity
  8
細線
 48
50.0
100
AcDbLine
 10
5633.608421199875
 20
1633.554091015233
 30
0.0
 11
5687.198259686105
 21
1833.554091015233
 31
0.0
  0
LINE
  5
3139B
330
747D
100
AcDbEntity
  8
細線
 48
50.0
100
AcDbLine
 10
5732.218477383947
 20
1633.554091015234
 30
0.0
 11
5785.808315870163
 21
1833.554091015237
 31
0.0
  0
LINE
  5
3139C
330
747D
100
AcDbEntity
  8
細線
 48
50.0
100
AcDbLine
 10
4890.279334440719
 20
1803.554091015237
 30
0.0
 11
4882.240858667785
 21
1833.554091015237
 31
0.0
  0
LINE
  5
3139D
330
747D
100
AcDbEntity
  8
細線
 48
50.0
100
AcDbLine
 10
4852.766447500362
 20
1663.554091015237
 30
0.0
 11
4860.804923273295
 21
1633.554091015237
 31
0.0
  0
LINE
  5
3139E
330
747D
100
AcDbEntity
  8
細線
 48
50.0
100
AcDbLine
 10
4844.727971727428
 20
1633.554091015233
 30
0.0
 11
4898.317810213644
 21
1833.554091015233
 31
0.0
  0
LINE
  5
3139F
330
747D
100
AcDbEntity
  8
細線
 48
50.0
100
AcDbLine
 10
5929.438589752063
 20
1633.554091015231
 30
0.0
 11
5933.687502422763
 21
1649.411248979198
 31
0.0
  0
TEXT
  5
313A0
330
747D
100
AcDbEntity
  8
部品1
100
AcDbText
 10
3817.189808050462
 20
3234.834320553463
 30
0.0
 40
120.0
  1
基礎詳細
  7
STYLE2
100
AcDbText
  0
TEXT
  5
313A1
330
747D
100
AcDbEntity
  8
部品1
100
AcDbText
 10
9098.300758646161
 20
3234.834320553463
 30
0.0
 40
120.0
  1
アンカー部詳細
  7
STYLE2
100
AcDbText
  0
TEXT
  5
313A2
330
747D
100
AcDbEntity
  8
部品1
100
AcDbText
 10
10993.08965271321
 20
431.4064086176349
 30
0.0
 40
100.0
  1
(開放側)
  7
STYLE2
100
AcDbText
  0
TEXT
  5
313A3
330
747D
100
AcDbEntity
  8
部品1
100
AcDbText
 10
7690.398887446209
 20
431.4064086176349
 30
0.0
 40
100.0
  1
(物置側)
  7
STYLE2
100
AcDbText
  0
CIRCLE
  5
313A4
330
747D
100
AcDbEntity
  8
部品1
 48
50.0
100
AcDbCircle
 10
3330.885813532449
 20
2073.554091015233
 30
0.0
 40
13.00000000000053
  0
LINE
  5
313A5
330
747D
100
AcDbEntity
  8
部品1
100
AcDbLine
 10
6414.149604345547
 20
3430.000000000001
 30
0.0
 11
6414.149604345547
 21
300.0
 31
0.0
  0
LINE
  5
313A6
330
747D
100
AcDbEntity
  8
部品1
100
AcDbLine
 10
9614.149604345548
 20
3150.000000000002
 30
0.0
 11
9614.149604345541
 21
300.0
 31
0.0
  0
LINE
  5
313A7
330
747D
100
AcDbEntity
  8
部品1
100
AcDbLine
 10
12814.14960434555
 20
3150.0
 30
0.0
 11
1814.149604345541
 21
3150.000000000002
 31
0.0
  0
LINE
  5
313A8
330
747D
100
AcDbEntity
  8
部品1
 48
50.0
100
AcDbLine
 10
8032.3343974202
 20
1983.554091015232
 30
0.0
 11
8032.3343974202
 21
1963.554091015232
 31
0.0
  0
LINE
  5
313A9
330
747D
100
AcDbEntity
  8
寸法
 48
50.0
100
AcDbLine
 10
3330.885813532449
 20
2073.554091015233
 30
0.0
 11
3588.435195266211
 21
2298.947368299938
 31
0.0
  0
LINE
  5
313AA
330
747D
100
AcDbEntity
  8
寸法
 48
50.0
100
AcDbLine
 10
3588.435195266211
 20
2298.947368299938
 30
0.0
 11
3931.328236535657
 21
2298.947368299938
 31
0.0
  0
LEADER
  5
313AB
330
747D
100
AcDbEntity
  8
寸法
 48
50.0
100
AcDbLeader
  3
INABA_S50G
 71
     0
 76
     3
 10
3298.276407366735
 20
2233.554091015233
 30
0.0
 10
3037.269412653929
 20
2466.836502007849
 30
0.0
 10
2384.102024537395
 20
2466.836502007849
 30
0.0
1001
ACAD
1000
DSTYLE
1002
{
1070
    40
1040
1.0
1070
    77
1070
     1
1070
   341
1005
0
1002
}
  0
LEADER
  5
313AC
330
747D
100
AcDbEntity
  8
寸法
 48
50.0
100
AcDbLeader
  3
INABA_S50G
 71
     0
 76
     3
 10
3353.721340811928
 20
1800.57243310893
 30
0.0
 10
3037.674150739797
 20
1642.332365156617
 30
0.0
 10
2348.436763075588
 20
1642.332365156617
 30
0.0
1001
ACAD
1000
DSTYLE
1002
{
1070
    40
1040
1.0
1070
    77
1070
     1
1070
   341
1005
0
1002
}
  0
LEADER
  5
313AD
330
747D
100
AcDbEntity
  8
寸法
 48
50.0
100
AcDbLeader
  3
INABA_S50G
 71
     0
 76
     3
 10
3170.885813532448
 20
1303.554091015233
 30
0.0
 10
2693.827844768006
 20
941.4152833611005
 30
0.0
 10
2398.040382566862
 20
941.4152833611005
 30
0.0
1001
ACAD
1000
DSTYLE
1002
{
1070
    40
1040
1.0
1070
    77
1070
     1
1070
   341
1005
0
1002
}
  0
LEADER
  5
313AE
330
747D
100
AcDbEntity
  8
寸法
 48
50.0
100
AcDbLeader
  3
INABA_S50G
 71
     0
 76
     3
 10
3467.385813532448
 20
1270.554091015233
 30
0.0
 10
3843.8983433026
 20
938.9322705317171
 30
0.0
 10
4503.660603782918
 20
938.9322705317171
 30
0.0
1001
ACAD
1000
DSTYLE
1002
{
1070
    40
1040
1.0
1070
    77
1070
     1
1070
   341
1005
0
1002
}
  0
LEADER
  5
313AF
330
747D
100
AcDbEntity
  8
寸法
 48
50.0
100
AcDbLeader
  3
INABA_S50G
 71
     0
 76
     3
 10
3490.885813532448
 20
1303.554091015233
 30
0.0
 10
3799.082729720278
 20
1190.927468940033
 30
0.0
 10
4066.802138214814
 20
1190.927468940033
 30
0.0
1001
ACAD
1000
DSTYLE
1002
{
1070
    40
1040
1.0
1070
    77
1070
     1
1070
   341
1005
0
1002
}
  0
LEADER
  5
313B0
330
747D
100
AcDbEntity
  8
寸法
 48
50.0
100
AcDbLeader
  3
INABA_S50G
 71
     0
 76
     3
 10
3330.885813532449
 20
1303.554091015233
 30
0.0
 10
3845.238467622723
 20
695.4054415639839
 30
0.0
 10
4147.365938919363
 20
695.4054415639839
 30
0.0
1001
ACAD
1000
DSTYLE
1002
{
1070
    40
1040
1.0
1070
    77
1070
     1
1070
   341
1005
0
1002
}
  0
LWPOLYLINE
  5
313B1
330
747D
100
AcDbEntity
  8
部品1
100
AcDbPolyline
 90
        4
 70
     1
 43
0.0
 10
1814.149604345541
 20
3430.000000000001
 10
12814.14960434555
 20
3430.000000000001
 10
12814.14960434555
 20
300.0
 10
1814.149604345541
 20
300.0
  0
LINE
  5
313B2
330
747D
100
AcDbEntity
  8
部品1
 48
50.0
100
AcDbLine
 10
10414.14960434553
 20
1933.554091015232
 30
0.0
 11
11114.14960434553
 21
1933.554091015232
 31
0.0
  0
TEXT
  5
313B3
330
747D
100
AcDbEntity
  8
寸法
 62
     7
 48
50.0
100
AcDbText
 10
10403.37422341705
 20
1952.84881784694
 30
0.0
 40
120.0
  1
▽G.L
  7
STYLE1
100
AcDbText
  0
MTEXT
  5
313B4
330
747D
100
AcDbEntity
  8
寸法
 62
     7
 48
50.0
100
AcDbMText
 10
9799.102181308875
 20
2504.409753243189
 30
0.0
 40
100.0
 41
0.0
 71
     7
 72
     1
  1
\A1;アンカープレートWC
  7
STYLE1
 73
     1
 44
1.0
1001
ACAD
1000
MTEXTBEGIN
1070
    73
1070
     1
1070
    44
1040
1.0
1070
    74
1070
     0
1000
MTEXTEND
  0
MTEXT
  5
313B5
330
747D
100
AcDbEntity
  8
寸法
 62
     7
 48
50.0
100
AcDbMText
 10
10963.17951985338
 20
2323.672841684825
 30
0.0
 40
100.0
 41
0.0
 71
     9
 72
     1
  1
\A1;(別売)
  7
STYLE1
 73
     1
 44
1.0
1001
ACAD
1000
MTEXTBEGIN
1070
    73
1070
     1
1070
    44
1040
1.0
1070
    74
1070
     0
1000
MTEXTEND
  0
LEADER
  5
313B6
330
747D
100
AcDbEntity
  8
寸法
 48
50.0
100
AcDbLeader
  3
INABA_S50G
 71
     0
 73
     0
 74
     0
 75
     1
 40
237.3333333333334
 41
1024.960629921259
 76
     3
 10
11238.70205935696
 20
2129.69338568754
 30
0.0
 10
11471.82431363323
 20
2314.690163598653
 30
0.0
 10
11596.82431363323
 20
2314.690163598653
 30
0.0
340
313B7
213
47.68312751977464
223
138.6399896031162
233
0.0
1001
ACAD
1000
DSTYLE
1002
{
1070
    40
1040
1.0
1070
    77
1070
     1
1070
   341
1005
0
1002
}
  0
MTEXT
  5
313B7
102
{ACAD_REACTORS
330
313B6
102
}
330
747D
100
AcDbEntity
  8
寸法
 62
     7
 48
50.0
100
AcDbMText
 10
12599.10181603471
 20
2201.050173995537
 30
0.0
 40
100.0
 41
0.0
 71
     9
 72
     1
  1
\A1;基礎ボルト(市販品)\PM10X160
  7
STYLE1
 73
     1
 44
0.8
1001
ACAD
1000
MTEXTBEGIN
1070
    73
1070
     1
1070
    44
1040
0.8
1070
    74
1070
     0
1000
MTEXTEND
  0
LEADER
  5
313B8
330
747D
100
AcDbEntity
  8
寸法
 48
50.0
100
AcDbLeader
  3
INABA_S50G
 71
     0
 73
     0
 75
     1
 40
110.0
 41
544.9606299212596
 76
     3
 10
11249.40011800828
 20
2643.444666440216
 30
0.0
 10
11033.4485794079
 20
2802.070355752143
 30
0.0
 10
10908.4485794079
 20
2802.070355752143
 30
0.0
340
313B9
213
-19.3756537741192
223
0.0
233
0.0
1001
ACAD
1000
DSTYLE
1002
{
1070
    40
1040
1.0
1070
    77
1070
     1
1070
   341
1005
0
1002
}
  0
MTEXT
  5
313B9
102
{ACAD_REACTORS
330
313B8
102
}
330
747D
100
AcDbEntity
  8
寸法
 62
     7
 48
50.0
100
AcDbMText
 10
10902.82423318202
 20
2827.070355752143
 30
0.0
 40
100.0
 41
0.0
 71
     9
 72
     1
  1
\A1;柱(開放側)
  7
STYLE1
 73
     1
 44
1.0
1001
ACAD
1000
MTEXTBEGIN
1070
    73
1070
     1
1070
    44
1040
1.0
1070
    74
1070
     0
1000
MTEXTEND
  0
LEADER
  5
313BA
330
747D
100
AcDbEntity
  8
寸法
 48
50.0
100
AcDbLeader
  3
INABA_S50G
 71
     0
 73
     0
 74
     0
 75
     1
 40
110.0000000000001
 41
778.2939632545927
 76
     3
 10
11228.14960434555
 20
2266.784860246027
 30
0.0
 10
11483.0658668587
 20
2795.720949707253
 30
0.0
 10
11608.0658668587
 20
2795.720949707253
 30
0.0
340
313BB
213
52.07917670590905
223
0.0
233
0.0
1001
ACAD
1000
DSTYLE
1002
{
1070
    40
1040
1.0
1070
    77
1070
     1
1070
   341
1005
0
1002
}
  0
MTEXT
  5
313BB
102
{ACAD_REACTORS
330
313BA
102
}
330
747D
100
AcDbEntity
  8
寸法
 62
     7
 48
50.0
100
AcDbMText
 10
12359.28065340739
 20
2820.720949707252
 30
0.0
 40
100.0
 41
0.0
 71
     9
 72
     1
  1
\A1;ナット(市販品)
  7
STYLE1
 73
     1
 44
1.0
1001
ACAD
1000
MTEXTBEGIN
1070
    73
1070
     1
1070
    44
1040
1.0
1070
    74
1070
     0
1000
MTEXTEND
  0
LEADER
  5
313BC
330
747D
100
AcDbEntity
  8
寸法
 48
50.0
100
AcDbLeader
  3
INABA_S50G
 71
     0
 73
     0
 74
     0
 75
     1
 40
110.0000000000001
 41
1011.627296587926
 76
     3
 10
11228.14960434555
 20
2266.784860246027
 30
0.0
 10
11480.81051467974
 20
2614.836141969795
 30
0.0
 10
11605.81051467974
 20
2614.836141969795
 30
0.0
340
313BD
213
47.05564015298477
223
0.0
233
0.0
1001
ACAD
1000
DSTYLE
1002
{
1070
    40
1040
1.0
1070
    77
1070
     1
1070
   341
1005
0
1002
}
  0
MTEXT
  5
313BD
102
{ACAD_REACTORS
330
313BC
102
}
330
747D
100
AcDbEntity
  8
寸法
 62
     7
 48
50.0
100
AcDbMText
 10
12595.38217111468
 20
2639.836141969795
 30
0.0
 40
100.0
 41
0.0
 71
     9
 72
     1
  1
\A1;ワッシャー(市販品)
  7
STYLE1
 73
     1
 44
1.0
1001
ACAD
1000
MTEXTBEGIN
1070
    73
1070
     1
1070
    44
1040
1.0
1070
    74
1070
     0
1000
MTEXTEND
  0
LINE
  5
313BE
330
747D
100
AcDbEntity
  8
部品1
 48
50.0
100
AcDbLine
 10
11114.14960434553
 20
2233.554091015234
 30
0.0
 11
11402.14960434554
 21
2233.554091015234
 31
0.0
  0
LINE
  5
313BF
330
747D
100
AcDbEntity
  8
部品1
 48
50.0
100
AcDbLine
 10
11402.14960434553
 20
2233.554091015234
 30
0.0
 11
11402.14960434553
 21
1453.554091015234
 31
0.0
  0
LINE
  5
313C0
330
747D
100
AcDbEntity
  8
部品1
 48
50.0
100
AcDbLine
 10
11114.14960434553
 20
2233.554091015234
 30
0.0
 11
11114.14960434553
 21
1453.554091015234
 31
0.0
  0
LINE
  5
313C1
330
747D
100
AcDbEntity
  8
部品1
 48
50.0
100
AcDbLine
 10
11582.14960434553
 20
1453.554091015234
 30
0.0
 11
11402.14960434553
 21
1453.554091015234
 31
0.0
  0
LINE
  5
313C2
330
747D
100
AcDbEntity
  8
部品1
 48
50.0
100
AcDbLine
 10
11114.14960434553
 20
1453.554091015234
 30
0.0
 11
10934.14960434553
 21
1453.554091015234
 31
0.0
  0
LINE
  5
313C3
330
747D
100
AcDbEntity
  8
部品1
 48
50.0
100
AcDbLine
 10
11742.14960434553
 20
1153.554091015234
 30
0.0
 11
10774.14960434553
 21
1153.554091015234
 31
0.0
  0
LINE
  5
313C4
330
747D
100
AcDbEntity
  8
部品1
 48
50.0
100
AcDbLine
 10
10934.14960434553
 20
1453.554091015234
 30
0.0
 11
10934.14960434553
 21
1153.554091015234
 31
0.0
  0
LINE
  5
313C5
330
747D
100
AcDbEntity
  8
部品1
 48
50.0
100
AcDbLine
 10
11582.14960434553
 20
1453.554091015234
 30
0.0
 11
11582.14960434553
 21
1153.554091015234
 31
0.0
  0
LINE
  5
313C6
330
747D
100
AcDbEntity
  8
部品1
 48
50.0
100
AcDbLine
 10
11742.14960434553
 20
1053.554091015234
 30
0.0
 11
10774.14960434553
 21
1053.554091015234
 31
0.0
  0
LINE
  5
313C7
330
747D
100
AcDbEntity
  8
部品1
 48
50.0
100
AcDbLine
 10
11742.14960434553
 20
853.554091015234
 30
0.0
 11
10774.14960434553
 21
853.554091015234
 31
0.0
  0
LINE
  5
313C8
330
747D
100
AcDbEntity
  8
部品1
 48
50.0
100
AcDbLine
 10
10774.14960434553
 20
853.554091015234
 30
0.0
 11
10774.14960434553
 21
1153.554091015234
 31
0.0
  0
LINE
  5
313C9
330
747D
100
AcDbEntity
  8
部品1
 48
50.0
100
AcDbLine
 10
11742.14960434553
 20
853.554091015234
 30
0.0
 11
11742.14960434553
 21
1153.554091015234
 31
0.0
  0
LINE
  5
313CA
330
747D
100
AcDbEntity
  8
部品1
 48
50.0
100
AcDbLine
 10
11228.14960434555
 20
2233.554091015234
 30
0.0
 11
11228.14960434556
 21
1983.554091015232
 31
0.0
  0
LINE
  5
313CB
330
747D
100
AcDbEntity
  8
部品1
 48
50.0
100
AcDbLine
 10
11248.14960434555
 20
2233.554091015234
 30
0.0
 11
11248.14960434555
 21
1983.554091015234
 31
0.0
  0
LINE
  5
313CC
330
747D
100
AcDbEntity
  8
部品1
 48
50.0
100
AcDbLine
 10
11248.14960434556
 20
1963.554091015234
 30
0.0
 11
11282.14960434555
 21
1963.554091015234
 31
0.0
  0
ARC
  5
313CD
330
747D
100
AcDbEntity
  8
部品1
 48
50.0
100
AcDbCircle
 10
11248.14960434556
 20
1983.554091015234
 30
0.0
 40
20.0
100
AcDbArc
 50
180.0
 51
270.0
  0
LINE
  5
313CE
330
747D
100
AcDbEntity
  8
部品1
 48
50.0
100
AcDbLine
 10
11248.14960434555
 20
1983.554091015234
 30
0.0
 11
11282.14960434556
 21
1983.554091015234
 31
0.0
  0
LINE
  5
313CF
330
747D
100
AcDbEntity
  8
部品1
 48
50.0
100
AcDbLine
 10
11282.14960434556
 20
1983.554091015232
 30
0.0
 11
11282.14960434556
 21
1963.554091015232
 31
0.0
  0
LINE
  5
313D0
330
747D
100
AcDbEntity
  8
細線
 48
50.0
100
AcDbLine
 10
10934.14960434553
 20
1373.880800039879
 30
0.0
 11
11013.82289532088
 21
1453.554091015234
 31
0.0
  0
LINE
  5
313D1
330
747D
100
AcDbEntity
  8
細線
 48
50.0
100
AcDbLine
 10
11114.14960434553
 20
1553.880800039875
 30
0.0
 11
11402.14960434554
 21
1841.880800039868
 31
0.0
  0
LINE
  5
313D2
330
747D
100
AcDbEntity
  8
細線
 48
50.0
100
AcDbLine
 10
10934.14960434554
 20
1340.204839585871
 30
0.0
 11
11047.49885577489
 21
1453.554091015233
 31
0.0
  0
LINE
  5
313D3
330
747D
100
AcDbEntity
  8
細線
 48
50.0
100
AcDbLine
 10
11114.14960434553
 20
1520.204839585871
 30
0.0
 11
11402.14960434554
 21
1808.204839585864
 31
0.0
  0
LINE
  5
313D4
330
747D
100
AcDbEntity
  8
細線
 48
50.0
100
AcDbLine
 10
10934.14960434554
 20
1407.556760493892
 30
0.0
 11
10980.14693486687
 21
1453.554091015234
 31
0.0
  0
LINE
  5
313D5
330
747D
100
AcDbEntity
  8
細線
 48
50.0
100
AcDbLine
 10
11114.14960434553
 20
1587.556760493884
 30
0.0
 11
11402.14960434554
 21
1875.556760493891
 31
0.0
  0
LINE
  5
313D6
330
747D
100
AcDbEntity
  8
細線
 48
50.0
100
AcDbLine
 10
11218.96230213102
 20
1153.554091015232
 30
0.0
 11
11518.96230213102
 21
1453.554091015232
 31
0.0
  0
LINE
  5
313D7
330
747D
100
AcDbEntity
  8
細線
 48
50.0
100
AcDbLine
 10
11286.31422303904
 20
1153.554091015232
 30
0.0
 11
11582.14960434553
 21
1449.389472321739
 31
0.0
  0
LINE
  5
313D8
330
747D
100
AcDbEntity
  8
細線
 48
50.0
100
AcDbLine
 10
11252.63826258504
 20
1153.554091015232
 30
0.0
 11
11552.63826258504
 21
1453.554091015235
 31
0.0
  0
LINE
  5
313D9
330
747D
100
AcDbEntity
  8
細線
 48
50.0
100
AcDbLine
 10
11186.94361842349
 20
1153.554091015232
 30
0.0
 11
11286.94361842349
 21
1053.554091015232
 31
0.0
  0
LINE
  5
313DA
330
747D
100
AcDbEntity
  8
細線
 48
50.0
100
AcDbLine
 10
11153.26765796948
 20
1153.554091015232
 30
0.0
 11
11253.26765796949
 21
1053.554091015232
 31
0.0
  0
LINE
  5
313DB
330
747D
100
AcDbEntity
  8
細線
 48
50.0
100
AcDbLine
 10
11119.59169751547
 20
1153.554091015232
 30
0.0
 11
11219.59169751547
 21
1053.554091015232
 31
0.0
  0
LINE
  5
313DC
330
747D
100
AcDbEntity
  8
細線
 48
50.0
100
AcDbLine
 10
10917.53593479141
 20
1153.554091015232
 30
0.0
 11
11017.53593479141
 21
1053.554091015232
 31
0.0
  0
LINE
  5
313DD
330
747D
100
AcDbEntity
  8
細線
 48
50.0
100
AcDbLine
 10
10883.8599743374
 20
1153.554091015232
 30
0.0
 11
10983.85997433741
 21
1053.554091015232
 31
0.0
  0
LINE
  5
313DE
330
747D
100
AcDbEntity
  8
細線
 48
50.0
100
AcDbLine
 10
10850.1840138834
 20
1153.554091015231
 30
0.0
 11
10950.1840138834
 21
1053.554091015232
 31
0.0
  0
LINE
  5
313DF
330
747D
100
AcDbEntity
  8
細線
 48
50.0
100
AcDbLine
 10
11456.35130205556
 20
1153.554091015232
 30
0.0
 11
11556.35130205556
 21
1053.554091015232
 31
0.0
  0
LINE
  5
313E0
330
747D
100
AcDbEntity
  8
細線
 48
50.0
100
AcDbLine
 10
11422.67534160155
 20
1153.554091015232
 30
0.0
 11
11522.67534160156
 21
1053.554091015232
 31
0.0
  0
LINE
  5
313E1
330
747D
100
AcDbEntity
  8
細線
 48
50.0
100
AcDbLine
 10
11388.99938114754
 20
1153.554091015232
 30
0.0
 11
11488.99938114755
 21
1053.554091015232
 31
0.0
  0
LINE
  5
313E2
330
747D
100
AcDbEntity
  8
細線
 48
50.0
100
AcDbLine
 10
11263.79171728377
 20
1023.554091015232
 30
0.0
 11
11255.75324151084
 21
1053.554091015232
 31
0.0
  0
LINE
  5
313E3
330
747D
100
AcDbEntity
  8
細線
 48
50.0
100
AcDbLine
 10
11362.40177346782
 20
1023.554091015232
 30
0.0
 11
11354.36329769489
 21
1053.554091015232
 31
0.0
  0
LINE
  5
313E4
330
747D
100
AcDbEntity
  8
細線
 48
50.0
100
AcDbLine
 10
11066.57160491566
 20
1023.554091015232
 30
0.0
 11
11058.53312914273
 21
1053.554091015232
 31
0.0
  0
LINE
  5
313E5
330
747D
100
AcDbEntity
  8
細線
 48
50.0
100
AcDbLine
 10
11165.18166109972
 20
1023.554091015232
 30
0.0
 11
11157.14318532678
 21
1053.554091015232
 31
0.0
  0
LINE
  5
313E6
330
747D
100
AcDbEntity
  8
細線
 48
50.0
100
AcDbLine
 10
11226.99679804066
 20
886.2335829395451
 30
0.0
 11
11235.0352738136
 21
856.2335829395451
 31
0.0
  0
LINE
  5
313E7
330
747D
100
AcDbEntity
  8
細線
 48
50.0
100
AcDbLine
 10
11325.60685422472
 20
886.2335829395451
 30
0.0
 11
11333.64532999767
 21
856.2335829395451
 31
0.0
  0
LINE
  5
313E8
330
747D
100
AcDbEntity
  8
細線
 48
50.0
100
AcDbLine
 10
11029.77668567255
 20
886.2335829395451
 30
0.0
 11
11037.81516144548
 21
856.2335829395451
 31
0.0
  0
LINE
  5
313E9
330
747D
100
AcDbEntity
  8
細線
 48
50.0
100
AcDbLine
 10
11128.38674185661
 20
886.2335829395451
 30
0.0
 11
11136.42521762954
 21
856.2335829395451
 31
0.0
  0
LINE
  5
313EA
330
747D
100
AcDbEntity
  8
細線
 48
50.0
100
AcDbLine
 10
11021.02024220236
 20
853.5540910152322
 30
0.0
 11
11074.61008068859
 21
1053.554091015232
 31
0.0
  0
LINE
  5
313EB
330
747D
100
AcDbEntity
  8
細線
 48
50.0
100
AcDbLine
 10
11218.24035457048
 20
853.5540910152322
 30
0.0
 11
11271.8301930567
 21
1053.554091015232
 31
0.0
  0
LINE
  5
313EC
330
747D
100
AcDbEntity
  8
細線
 48
50.0
100
AcDbLine
 10
11119.63029838642
 20
853.5540910152322
 30
0.0
 11
11173.22013687264
 21
1053.554091015232
 31
0.0
  0
LINE
  5
313ED
330
747D
100
AcDbEntity
  8
細線
 48
50.0
100
AcDbLine
 10
11316.85041075453
 20
853.5540910152322
 30
0.0
 11
11370.44024924075
 21
1053.554091015232
 31
0.0
  0
LINE
  5
313EE
330
747D
100
AcDbEntity
  8
細線
 48
50.0
100
AcDbLine
 10
10967.9615487316
 20
1023.554091015232
 30
0.0
 11
10959.92307295867
 21
1053.554091015232
 31
0.0
  0
LINE
  5
313EF
330
747D
100
AcDbEntity
  8
細線
 48
50.0
100
AcDbLine
 10
10931.16662948849
 20
886.2335829395451
 30
0.0
 11
10939.20510526142
 21
856.2335829395451
 31
0.0
  0
LINE
  5
313F0
330
747D
100
AcDbEntity
  8
細線
 48
50.0
100
AcDbLine
 10
10922.4101860183
 20
853.5540910152322
 30
0.0
 11
10976.00002450453
 21
1053.554091015232
 31
0.0
  0
LINE
  5
313F1
330
747D
100
AcDbEntity
  8
細線
 48
50.0
100
AcDbLine
 10
11461.01182965189
 20
1023.554091015232
 30
0.0
 11
11452.97335387896
 21
1053.554091015232
 31
0.0
  0
LINE
  5
313F2
330
747D
100
AcDbEntity
  8
細線
 48
50.0
100
AcDbLine
 10
11559.62188583595
 20
1023.554091015232
 30
0.0
 11
11551.58341006301
 21
1053.554091015232
 31
0.0
  0
LINE
  5
313F3
330
747D
100
AcDbEntity
  8
細線
 48
50.0
100
AcDbLine
 10
11424.21691040878
 20
886.2335829395451
 30
0.0
 11
11432.25538618171
 21
856.2335829395451
 31
0.0
  0
LINE
  5
313F4
330
747D
100
AcDbEntity
  8
細線
 48
50.0
100
AcDbLine
 10
11522.82696659284
 20
886.2335829395451
 30
0.0
 11
11530.86544236577
 21
856.2335829395451
 31
0.0
  0
LINE
  5
313F5
330
747D
100
AcDbEntity
  8
細線
 48
50.0
100
AcDbLine
 10
11415.46046693859
 20
853.5540910152322
 30
0.0
 11
11469.05030542482
 21
1053.554091015232
 31
0.0
  0
LINE
  5
313F6
330
747D
100
AcDbEntity
  8
細線
 48
50.0
100
AcDbLine
 10
11514.07052312265
 20
853.5540910152322
 30
0.0
 11
11567.66036160887
 21
1053.554091015232
 31
0.0
  0
LINE
  5
313F7
330
747D
100
AcDbEntity
  8
細線
 48
50.0
100
AcDbLine
 10
10869.35149254754
 20
1023.554091015232
 30
0.0
 11
10861.31301677461
 21
1053.554091015232
 31
0.0
  0
LINE
  5
313F8
330
747D
100
AcDbEntity
  8
細線
 48
50.0
100
AcDbLine
 10
10832.55657330443
 20
886.2335829395451
 30
0.0
 11
10840.59504907737
 21
856.2335829395451
 31
0.0
  0
LINE
  5
313F9
330
747D
100
AcDbEntity
  8
細線
 48
50.0
100
AcDbLine
 10
10823.80012983425
 20
853.5540910152322
 30
0.0
 11
10877.38996832047
 21
1053.554091015232
 31
0.0
  0
LINE
  5
313FA
330
747D
100
AcDbEntity
  8
細線
 48
50.0
100
AcDbLine
 10
10774.14960434553
 20
1036.273547084975
 30
0.0
 11
10778.77991213641
 21
1053.554091015232
 31
0.0
  0
LINE
  5
313FB
330
747D
100
AcDbEntity
  8
細線
 48
50.0
100
AcDbLine
 10
11658.23194202
 20
1023.554091015232
 30
0.0
 11
11650.19346624707
 21
1053.554091015232
 31
0.0
  0
LINE
  5
313FC
330
747D
100
AcDbEntity
  8
細線
 48
50.0
100
AcDbLine
 10
11621.43702277689
 20
886.2335829395451
 30
0.0
 11
11629.47549854983
 21
856.2335829395451
 31
0.0
  0
LINE
  5
313FD
330
747D
100
AcDbEntity
  8
細線
 48
50.0
100
AcDbLine
 10
11612.68057930671
 20
853.5540910152322
 30
0.0
 11
11666.27041779293
 21
1053.554091015232
 31
0.0
  0
LINE
  5
313FE
330
747D
100
AcDbEntity
  8
細線
 48
50.0
100
AcDbLine
 10
11692.08302523363
 20
1153.554091015232
 30
0.0
 11
11742.14960434553
 21
1103.487511903247
 31
0.0
  0
LINE
  5
313FF
330
747D
100
AcDbEntity
  8
細線
 48
50.0
100
AcDbLine
 10
11658.40706477962
 20
1153.554091015232
 30
0.0
 11
11742.14960434553
 21
1069.811551449295
 31
0.0
  0
LINE
  5
31400
330
747D
100
AcDbEntity
  8
細線
 48
50.0
100
AcDbLine
 10
11488.36998576309
 20
1153.554091015232
 30
0.0
 11
11582.14960434553
 21
1247.333709597694
 31
0.0
  0
LINE
  5
31401
330
747D
100
AcDbEntity
  8
細線
 48
50.0
100
AcDbLine
 10
11522.0459462171
 20
1153.554091015232
 30
0.0
 11
11582.14960434553
 21
1213.657749143671
 31
0.0
  0
LINE
  5
31402
330
747D
100
AcDbEntity
  8
細線
 48
50.0
100
AcDbLine
 10
11114.14960434553
 20
1823.288483671949
 30
0.0
 11
11254.41521168882
 21
1963.554091015234
 31
0.0
  0
LINE
  5
31403
330
747D
100
AcDbEntity
  8
細線
 48
50.0
100
AcDbLine
 10
11274.41521168883
 20
1983.554091015234
 30
0.0
 11
11402.14960434553
 21
2111.28848367197
 31
0.0
  0
LINE
  5
31404
330
747D
100
AcDbEntity
  8
細線
 48
50.0
100
AcDbLine
 10
11114.14960434553
 20
1789.612523217946
 30
0.0
 11
11402.14960434554
 21
2077.612523217953
 31
0.0
  0
LINE
  5
31405
330
747D
100
AcDbEntity
  8
細線
 48
50.0
100
AcDbLine
 10
11114.14960434553
 20
1856.964444125958
 30
0.0
 11
11230.79628994308
 21
1973.61112972351
 31
0.0
  0
LINE
  5
31406
330
747D
100
AcDbEntity
  8
細線
 48
50.0
100
AcDbLine
 10
11248.14960434555
 20
1990.964444125981
 30
0.0
 11
11402.14960434554
 21
2144.964444125972
 31
0.0
  0
LINE
  5
31407
330
747D
100
AcDbEntity
  8
細線
 48
50.0
100
AcDbLine
 10
11114.14960434553
 20
2092.696167304024
 30
0.0
 11
11228.14960434555
 21
2206.696167304043
 31
0.0
  0
LINE
  5
31408
330
747D
100
AcDbEntity
  8
細線
 48
50.0
100
AcDbLine
 10
11248.14960434555
 20
2226.696167304034
 30
0.0
 11
11255.00752805675
 21
2233.554091015235
 31
0.0
  0
LINE
  5
31409
330
747D
100
AcDbEntity
  8
細線
 48
50.0
100
AcDbLine
 10
11114.14960434553
 20
2059.02020685002
 30
0.0
 11
11228.14960434555
 21
2173.020206850042
 31
0.0
  0
LINE
  5
3140A
330
747D
100
AcDbEntity
  8
細線
 48
50.0
100
AcDbLine
 10
11248.14960434555
 20
2193.02020685003
 30
0.0
 11
11288.68348851073
 21
2233.554091015235
 31
0.0
  0
LINE
  5
3140B
330
747D
100
AcDbEntity
  8
細線
 48
50.0
100
AcDbLine
 10
11114.14960434553
 20
2126.372127758033
 30
0.0
 11
11221.33156760273
 21
2233.554091015235
 31
0.0
  0
LINE
  5
3140C
330
747D
100
AcDbEntity
  8
部品1
 48
50.0
100
AcDbLine
 10
12054.14960434553
 20
1933.554091015232
 30
0.0
 11
11402.14960434554
 21
1933.554091015232
 31
0.0
  0
LINE
  5
3140D
330
747D
100
AcDbEntity
  8
細線
 48
50.0
100
AcDbLine
 10
11725.75898568764
 20
1153.554091015232
 30
0.0
 11
11742.14960434553
 21
1137.163472357309
 31
0.0
  0
LINE
  5
3140E
330
747D
100
AcDbEntity
  8
細線
 48
50.0
100
AcDbLine
 10
11720.04707896095
 20
886.2335829395451
 30
0.0
 11
11728.08555473388
 21
856.2335829395451
 31
0.0
  0
LINE
  5
3140F
330
747D
100
AcDbEntity
  8
細線
 48
50.0
100
AcDbLine
 10
11711.29063549077
 20
853.5540910152322
 30
0.0
 11
11742.14960434552
 21
968.7213306504263
 31
0.0
  0
LINE
  5
31410
330
747D
100
AcDbEntity
  8
細線
 48
50.0
100
AcDbLine
 10
10949.55461849895
 20
1153.554091015232
 30
0.0
 11
11402.14960434552
 21
1606.149076861804
 31
0.0
  0
LINE
  5
31411
330
747D
100
AcDbEntity
  8
細線
 48
50.0
100
AcDbLine
 10
11016.90653940697
 20
1153.554091015232
 30
0.0
 11
11402.14960434554
 21
1538.797155953808
 31
0.0
  0
LINE
  5
31412
330
747D
100
AcDbEntity
  8
細線
 48
50.0
100
AcDbLine
 10
10983.23057895297
 20
1153.554091015232
 30
0.0
 11
11402.14960434553
 21
1572.473116407799
 31
0.0
  0
LINE
  5
31413
330
747D
100
AcDbEntity
  8
細線
 48
50.0
100
AcDbLine
 10
11555.72190667112
 20
1153.554091015232
 30
0.0
 11
11582.14960434553
 21
1179.98178868965
 31
0.0
  0
LINE
  5
31414
330
747D
100
AcDbEntity
  8
部品1
 48
50.0
100
AcDbLine
 10
11228.14960434553
 20
2293.554091015234
 30
0.0
 11
11228.14960434555
 21
2266.784860246027
 31
0.0
  0
LINE
  5
31415
330
747D
100
AcDbEntity
  8
部品1
 48
50.0
100
AcDbLine
 10
11228.14960434552
 20
2293.554091015234
 30
0.0
 11
11248.14960434553
 21
2293.554091015234
 31
0.0
  0
LINE
  5
31416
330
747D
100
AcDbEntity
  8
部品1
 48
50.0
100
AcDbLine
 10
11248.14960434552
 20
2293.554091015234
 30
0.0
 11
11248.14960434555
 21
2266.784860246027
 31
0.0
  0
LINE
  5
31417
330
747D
100
AcDbEntity
  8
部品1
100
AcDbLine
 10
11268.61114280709
 20
2262.63101409216
 30
0.0
 11
11268.61114280709
 21
2239.09255255369
 31
0.0
  0
LINE
  5
31418
330
747D
100
AcDbEntity
  8
部品1
100
AcDbLine
 10
11254.76498896092
 20
2262.63101409216
 30
0.0
 11
11254.76498896092
 21
2239.09255255369
 31
0.0
  0
ARC
  5
31419
330
747D
100
AcDbEntity
  8
部品1
100
AcDbCircle
 10
11261.68806588401
 20
2256.131345349455
 30
0.0
 40
9.496035375249725
100
AcDbArc
 50
43.19325636918812
 51
136.8067436308118
  0
LINE
  5
3141A
330
747D
100
AcDbEntity
  8
部品1
100
AcDbLine
 10
11268.61114280709
 20
2262.63101409216
 30
0.0
 11
11264.45729665321
 21
2266.784860246026
 31
0.0
  0
LINE
  5
3141B
330
747D
100
AcDbEntity
  8
部品1
100
AcDbLine
 10
11274.14960434554
 20
2239.09255255369
 30
0.0
 11
11274.14960434554
 21
2233.554091015234
 31
0.0
  0
ARC
  5
3141C
330
747D
100
AcDbEntity
  8
部品1
100
AcDbCircle
 10
11214.61114280708
 20
2256.131345349455
 30
0.0
 40
9.496035375249725
100
AcDbArc
 50
43.19325636918812
 51
136.8067436308118
  0
LINE
  5
3141D
330
747D
100
AcDbEntity
  8
部品1
100
AcDbLine
 10
11211.84191203784
 20
2266.784860246026
 30
0.0
 11
11207.68806588401
 21
2262.63101409216
 31
0.0
  0
LINE
  5
3141E
330
747D
100
AcDbEntity
  8
部品1
100
AcDbLine
 10
11202.14960434554
 20
2239.09255255369
 30
0.0
 11
11202.14960434554
 21
2233.554091015234
 31
0.0
  0
LINE
  5
3141F
330
747D
100
AcDbEntity
  8
部品1
100
AcDbLine
 10
11207.68806588401
 20
2262.63101409216
 30
0.0
 11
11207.68806588401
 21
2239.09255255369
 31
0.0
  0
LINE
  5
31420
330
747D
100
AcDbEntity
  8
部品1
100
AcDbLine
 10
11221.53421973017
 20
2262.63101409216
 30
0.0
 11
11221.53421973017
 21
2239.09255255369
 31
0.0
  0
LINE
  5
31421
330
747D
100
AcDbEntity
  8
部品1
100
AcDbLine
 10
11268.61114280709
 20
2262.63101409216
 30
0.0
 11
11207.68806588401
 21
2262.63101409216
 31
0.0
  0
LINE
  5
31422
330
747D
100
AcDbEntity
  8
部品1
100
AcDbLine
 10
11274.14960434554
 20
2239.09255255369
 30
0.0
 11
11202.14960434554
 21
2239.09255255369
 31
0.0
  0
LINE
  5
31423
330
747D
100
AcDbEntity
  8
部品1
100
AcDbLine
 10
11264.45729665321
 20
2266.784860246026
 30
0.0
 11
11211.84191203784
 21
2266.784860246026
 31
0.0
  0
ARC
  5
31424
330
747D
100
AcDbEntity
  8
部品1
100
AcDbCircle
 10
11238.14960434552
 20
2220.693405112801
 30
0.0
 40
45.10913491547728
100
AcDbArc
 50
68.38687878203174
 51
111.6131212175183
  0
LINE
  5
31425
330
747D
100
AcDbEntity
  8
部品1
 48
50.0
100
AcDbLine
 10
11211.84191203784
 20
2266.784860246026
 30
0.0
 11
11264.45729665321
 21
2266.784860246026
 31
0.0
  0
LINE
  5
31426
330
747D
100
AcDbEntity
  8
寸法
 62
     0
 48
50.0
100
AcDbLine
 10
11322.14960434555
 20
2233.554091015234
 30
0.0
 11
11322.14960434555
 21
2926.119582478155
 31
0.0
  0
LINE
  5
31427
330
747D
100
AcDbEntity
  8
寸法
 62
     0
 48
50.0
100
AcDbLine
 10
11190.14960434555
 20
2332.202587864398
 30
0.0
 11
11190.14960434554
 21
2926.119582478154
 31
0.0
  0
LINE
  5
31428
330
747D
100
AcDbEntity
  8
部品1
100
AcDbLine
 10
11166.14960434554
 20
2239.074091015234
 30
0.0
 11
11217.84191203785
 21
2239.074091015234
 31
0.0
  0
LINE
  5
31429
330
747D
100
AcDbEntity
  8
部品1
100
AcDbLine
 10
11258.45729665326
 20
2239.074091015233
 30
0.0
 11
11310.14960434555
 21
2239.074091015234
 31
0.0
  0
LINE
  5
3142A
330
747D
100
AcDbEntity
  8
部品1
100
AcDbLine
 10
11166.14960434554
 20
2233.554091015234
 30
0.0
 11
11310.14960434555
 21
2233.554091015234
 31
0.0
  0
LINE
  5
3142B
330
747D
100
AcDbEntity
  8
部品1
100
AcDbLine
 10
11199.55810553799
 20
2336.754091015235
 30
0.0
 11
11276.74110315309
 21
2336.754091015235
 31
0.0
  0
LINE
  5
3142C
330
747D
100
AcDbEntity
  8
部品1
100
AcDbLine
 10
11310.14960434555
 20
2233.554091015234
 30
0.0
 11
11310.14960434555
 21
2239.074091015234
 31
0.0
  0
LINE
  5
3142D
330
747D
100
AcDbEntity
  8
部品1
100
AcDbLine
 10
11288.39450746526
 20
2327.617335317978
 30
0.0
 11
11310.14960434555
 21
2239.074091015234
 31
0.0
  0
ARC
  5
3142E
330
747D
100
AcDbEntity
  8
部品1
100
AcDbCircle
 10
11276.74110315309
 20
2324.754091015235
 30
0.0
 40
12.0
100
AcDbArc
 50
13.80414377884136
 51
90.0
  0
LINE
  5
3142F
330
747D
100
AcDbEntity
  8
部品1
100
AcDbLine
 10
11166.14960434554
 20
2233.554091015234
 30
0.0
 11
11166.14960434554
 21
2239.074091015234
 31
0.0
  0
LINE
  5
31430
330
747D
100
AcDbEntity
  8
部品1
100
AcDbLine
 10
11187.90470122584
 20
2327.617335317976
 30
0.0
 11
11166.14960434554
 21
2239.074091015234
 31
0.0
  0
ARC
  5
31431
330
747D
100
AcDbEntity
  8
部品1
100
AcDbCircle
 10
11199.55810553799
 20
2324.754091015235
 30
0.0
 40
12.0
100
AcDbArc
 50
90.0
 51
166.1958562211586
  0
LEADER
  5
31432
330
747D
100
AcDbEntity
  8
寸法
 48
50.0
100
AcDbLeader
  3
INABA_S50G
 71
     0
 76
     3
 10
11185.41802692436
 20
2304.468381461065
 30
0.0
 10
10987.14113085101
 20
2462.381832940029
 30
0.0
 10
9749.063107456649
 20
2462.381832940029
 30
0.0
1001
ACAD
1000
DSTYLE
1002
{
1070
    40
1040
1.0
1070
    77
1070
     1
1070
   341
1005
0
1002
}
  0
TEXT
  5
315C2
330
747D
100
AcDbEntity
  8
文字
 62
     7
 48
50.0
100
AcDbText
 10
13830.98196139109
 20
600.9095283156693
 30
0.0
 40
140.0
  1
ＮＸＮ-３２Ｓ・３２ＳＫ，３２Ｈ・３２ＨＫ
 41
0.7
  7
STYLE2
100
AcDbText
  0
TEXT
  5
315C3
330
747D
100
AcDbEntity
  8
文字
 62
     7
 48
50.0
100
AcDbText
 10
13830.98196139109
 20
400.9095283156693
 30
0.0
 40
140.0
  1
ＮＸＮ-３２Ｓ・３２ＳＫ-Ａ，３２Ｈ・３２ＨＫ-Ａ
 41
0.7
  7
STYLE2
100
AcDbText
  0
VIEWPORT
  5
22BCD
102
{ACAD_XDICTIONARY
360
22BCE
102
}
330
747A
100
AcDbEntity
 67
     1
  8
0
 48
50.0
100
AcDbViewport
 10
40.36350734674044
 20
92.92701263100445
 30
0.0
 40
480.1023781700788
 41
340.6073912864374
 68
     1
 69
     1
 12
40.36350734674044
 22
92.92701263100445
 13
0.0
 23
0.0
 14
10.0
 24
10.0
 15
10.0
 25
10.0
 16
0.0
 26
0.0
 36
1.0
 17
0.0
 27
0.0
 37
0.0
 42
50.0
 43
0.0
 44
0.0
 45
340.6073912864374
 50
0.0
 51
0.0
 72
     0
 90
   557088
  1

281
     0
 71
     1
 74
     0
110
0.0
120
0.0
130
0.0
111
1.0
121
0.0
131
0.0
112
0.0
122
1.0
132
0.0
 79
     0
146
0.0
  0
VIEWPORT
  5
22BD1
102
{ACAD_XDICTIONARY
360
22BD2
102
}
330
747A
100
AcDbEntity
 67
     1
  8
寸法
 48
50.0
100
AcDbViewport
 10
143.4359130859375
 20
98.18158769607544
 30
0.0
 40
229.4974609375
 41
157.0905403137207
 68
     2
 69
     2
 12
8764.3083919034
 22
4965.584022236099
 13
0.0
 23
0.0
 14
10.0
 24
10.0
 15
10.0
 25
10.0
 16
0.0
 26
0.0
 36
1.0
 17
0.0
 27
0.0
 37
0.0
 42
50.0
 43
0.0
 44
0.0
 45
11466.9893832939
 50
0.0
 51
0.0
 72
     0
 90
   819200
  1

281
     0
 71
     1
 74
     0
110
0.0
120
0.0
130
0.0
111
1.0
121
0.0
131
0.0
112
0.0
122
1.0
132
0.0
 79
     0
146
0.0
  0
ENDSEC
  0
SECTION
  2
OBJECTS
  0
DICTIONARY
  5
7471
330
0
100
AcDbDictionary
281
     1
  3
ACAD_CIP_PREVIOUS_PRODUCT_INFO
350
1E2D1
  3
ACAD_COLOR
350
159B0
  3
ACAD_DETAILVIEWSTYLE
350
1E2C8
  3
ACAD_GROUP
350
7472
  3
ACAD_LAYOUT
350
159B1
  3
ACAD_MATERIAL
350
159AF
  3
ACAD_MLEADERSTYLE
350
1E2C4
  3
ACAD_MLINESTYLE
350
7473
  3
ACAD_PLOTSETTINGS
350
159B2
  3
ACAD_PLOTSTYLENAME
350
159AD
  3
ACAD_SCALELIST
350
1E2B2
  3
ACAD_SECTIONVIEWSTYLE
350
1E2C6
  3
ACAD_TABLESTYLE
350
1E2B0
  3
ACAD_VISUALSTYLE
350
1E297
  3
ACDB_RECOMPOSE_DATA
350
31654
  3
AcDbVariableDictionary
350
24508
  3
AcDsDecomposeData
350
3165B
  3
CONTENTDICTIONARY
350
E71C
  3
DRAWINGVARIABLESDICT
350
F3B9
  3
DWGPROPS
350
31655
  0
DICTIONARY
  5
1F359
330
7467
100
AcDbDictionary
280
     1
281
     1
  3
ACAD_LAYERSTATES
360
1F35A
  0
DICTIONARY
  5
243BD
330
7474
100
AcDbDictionary
280
     1
281
     1
  3
ADSK_XREC_LAYER_RECONCILED
360
243BE
  0
DICTIONARY
  5
243BF
330
DEB2
100
AcDbDictionary
280
     1
281
     1
  3
ADSK_XREC_LAYER_RECONCILED
360
243C0
  0
DICTIONARY
  5
243C1
330
DEB3
100
AcDbDictionary
280
     1
281
     1
  3
ADSK_XREC_LAYER_RECONCILED
360
243C2
  0
DICTIONARY
  5
243C3
330
DEB4
100
AcDbDictionary
280
     1
281
     1
  3
ADSK_XREC_LAYER_RECONCILED
360
243C4
  0
DICTIONARY
  5
243C5
330
DEB5
100
AcDbDictionary
280
     1
281
     1
  3
ADSK_XREC_LAYER_RECONCILED
360
243C6
  0
DICTIONARY
  5
243C7
330
DEB6
100
AcDbDictionary
280
     1
281
     1
  3
ADSK_XREC_LAYER_RECONCILED
360
243C8
  0
DICTIONARY
  5
243C9
330
10B54
100
AcDbDictionary
280
     1
281
     1
  3
ADSK_XREC_LAYER_RECONCILED
360
243CA
  0
DICTIONARY
  5
243CB
330
11729
100
AcDbDictionary
280
     1
281
     1
  3
ADSK_XREC_LAYER_RECONCILED
360
243CC
  0
DICTIONARY
  5
243CD
330
1173F
100
AcDbDictionary
280
     1
281
     1
  3
ADSK_XREC_LAYER_RECONCILED
360
243CE
  0
DICTIONARY
  5
243CF
330
12CC4
100
AcDbDictionary
280
     1
281
     1
  3
ADSK_XREC_LAYER_RECONCILED
360
243D0
  0
DICTIONARY
  5
243D1
330
142E2
100
AcDbDictionary
280
     1
281
     1
  3
ADSK_XREC_LAYER_RECONCILED
360
243D2
  0
DICTIONARY
  5
243D3
330
1C644
100
AcDbDictionary
280
     1
281
     1
  3
ADSK_XREC_LAYER_RECONCILED
360
243D4
  0
DICTIONARY
  5
22BCE
330
22BCD
100
AcDbDictionary
280
     1
281
     1
  3
ACAD_XREC_ROUNDTRIP
360
3169B
  3
ASDK_XREC_ANNOTATION_SCALE_INFO
360
22BCF
  0
DICTIONARY
  5
22BD2
330
22BD1
100
AcDbDictionary
280
     1
281
     1
  3
ACAD_XREC_ROUNDTRIP
360
3169C
  3
ASDK_XREC_ANNOTATION_SCALE_INFO
360
22BD3
  0
XRECORD
  5
1E2D1
102
{ACAD_REACTORS
330
7471
102
}
330
7471
100
AcDbXrecord
280
     1
300
ACDLT
300
2014
300
ACDLT_F_S
  0
DICTIONARY
  5
159B0
102
{ACAD_REACTORS
330
7471
102
}
330
7471
100
AcDbDictionary
281
     1
  0
DICTIONARY
  5
1E2C8
102
{ACAD_REACTORS
330
7471
102
}
330
7471
100
AcDbDictionary
281
     1
  3
Metric50
350
1E2C9
  0
DICTIONARY
  5
7472
102
{ACAD_REACTORS
330
7471
102
}
330
7471
100
AcDbDictionary
281
     1
  0
DICTIONARY
  5
159B1
102
{ACAD_REACTORS
330
7471
102
}
330
7471
100
AcDbDictionary
281
     1
  3
Model
350
159B3
  3
レイアウト1
350
159B4
  0
DICTIONARY
  5
159AF
102
{ACAD_REACTORS
330
7471
102
}
330
7471
100
AcDbDictionary
281
     1
  3
ByBlock
350
1E287
  3
ByLayer
350
1E27F
  3
Global
350
1E28F
  0
DICTIONARY
  5
1E2C4
102
{ACAD_REACTORS
330
7471
102
}
330
7471
100
AcDbDictionary
281
     1
  3
Standard
350
1E2C5
  0
DICTIONARY
  5
7473
102
{ACAD_REACTORS
330
7471
102
}
330
7471
100
AcDbDictionary
281
     1
  3
STANDARD
350
7480
  0
DICTIONARY
  5
159B2
102
{ACAD_REACTORS
330
7471
102
}
330
7471
100
AcDbDictionary
281
     1
  0
ACDBDICTIONARYWDFLT
  5
159AD
102
{ACAD_REACTORS
330
7471
102
}
330
7471
100
AcDbDictionary
281
     1
  3
Normal
350
159AE
100
AcDbDictionaryWithDefault
340
159AE
  0
DICTIONARY
  5
1E2B2
102
{ACAD_REACTORS
330
7471
102
}
330
7471
100
AcDbDictionary
281
     1
  3
A0
350
1E2B3
  3
A1
350
1E2B4
  3
A2
350
1E2B5
  3
A3
350
1E2B6
  3
A4
350
1E2B7
  3
A5
350
1E2B8
  3
A6
350
1E2B9
  3
A7
350
1E2BA
  3
A8
350
1E2BB
  3
A9
350
1E2BC
  3
B0
350
1E2BD
  3
B1
350
1E2BE
  3
B2
350
1E2BF
  3
B3
350
1E2C0
  3
B4
350
1E2C1
  3
B5
350
1E2C2
  3
B6
350
1E2C3
  0
DICTIONARY
  5
1E2C6
102
{ACAD_REACTORS
330
7471
102
}
330
7471
100
AcDbDictionary
281
     1
  3
Metric50
350
1E2C7
  0
DICTIONARY
  5
1E2B0
102
{ACAD_REACTORS
330
7471
102
}
330
7471
100
AcDbDictionary
281
     1
  3
Standard
350
1E2B1
  0
DICTIONARY
  5
1E297
102
{ACAD_REACTORS
330
7471
102
}
330
7471
100
AcDbDictionary
281
     1
  3
2dWireframe
350
1E29D
  3
Basic
350
1E29C
  3
Brighten
350
1E2A3
  3
ColorChange
350
1E2A7
  3
Conceptual
350
1E2A0
  3
Dim
350
1E2A2
  3
EdgeColorOff
350
1E2AF
  3
Facepattern
350
1E2A6
  3
Flat
350
1E298
  3
FlatWithEdges
350
1E299
  3
Gouraud
350
1E29A
  3
GouraudWithEdges
350
1E29B
  3
Hidden
350
1E29F
  3
JitterOff
350
1E2AD
  3
Linepattern
350
1E2A5
  3
OverhangOff
350
1E2AE
  3
Realistic
350
1E2A1
  3
Shaded
350
1E2AC
  3
Shaded with edges
350
1E2AB
  3
Shades of Gray
350
1E2A8
  3
Sketchy
350
1E2A9
  3
Thicken
350
1E2A4
  3
Wireframe
350
1E29E
  3
X-Ray
350
1E2AA
  0
XRECORD
  5
31654
102
{ACAD_REACTORS
330
7471
102
}
330
7471
100
AcDbXrecord
280
     1
 90
        1
330
1E2B1
330
2FD8F
  0
DICTIONARY
  5
24508
102
{ACAD_REACTORS
330
7471
102
}
330
7471
100
AcDbDictionary
281
     1
  3
CANNOSCALE
350
2450E
  3
CMLEADERSTYLE
350
2450A
  3
CTABLESTYLE
350
24509
  3
CVIEWDETAILSTYLE
350
2450B
  3
CVIEWSECTIONSTYLE
350
2450C
  3
DIMASSOC
350
31651
  3
INDEXCTL
350
3164F
  3
LAYEREVAL
350
24510
  3
LAYERNOTIFY
350
24511
  3
LIGHTINGUNITS
350
2450F
  3
MSLTSCALE
350
2450D
  3
SORTENTS
350
3164E
  3
XCLIPFRAME
350
31650
  0
DICTIONARY
  5
3165B
102
{ACAD_REACTORS
330
7471
102
}
330
7471
100
AcDbDictionary
281
     1
  3
AcDsRecords
350
3165D
  3
AcDsSchemas
350
3165C
1001
ACAD
1070
     2
  0
DICTIONARY
  5
E71C
102
{ACAD_REACTORS
330
7471
102
}
330
7471
100
AcDbDictionary
281
     1
  0
DICTIONARY
  5
F3B9
102
{ACAD_REACTORS
330
7471
102
}
330
7471
100
AcDbDictionary
281
     1
1001
DRAWINGVARIABLESXDATA
1000
POLARMODE
1000
1
  0
XRECORD
  5
31655
102
{ACAD_REACTORS
330
7471
102
}
330
7471
100
AcDbXrecord
280
     1
  1
DWGPROPS COOKIE
  2

  3

  4

  6

  7

  8
watanabe.rikuto
  9

300
=
301
=
302
=
303
=
304
=
305
=
306
=
307
=
308
=
309
=
 40
1.721615381944444
 41
2451368.612993866
 42
2458830.765266135
  1

 90
        0
  0
DICTIONARY
  5
1F35A
102
{ACAD_REACTORS
330
1F359
102
}
330
1F359
100
AcDbDictionary
281
     1
  0
XRECORD
  5
243BE
102
{ACAD_REACTORS
330
243BD
102
}
330
243BD
100
AcDbXrecord
280
     1
290
     1
  0
XRECORD
  5
243C0
102
{ACAD_REACTORS
330
243BF
102
}
330
243BF
100
AcDbXrecord
280
     1
290
     1
  0
XRECORD
  5
243C2
102
{ACAD_REACTORS
330
243C1
102
}
330
243C1
100
AcDbXrecord
280
     1
290
     1
  0
XRECORD
  5
243C4
102
{ACAD_REACTORS
330
243C3
102
}
330
243C3
100
AcDbXrecord
280
     1
290
     1
  0
XRECORD
  5
243C6
102
{ACAD_REACTORS
330
243C5
102
}
330
243C5
100
AcDbXrecord
280
     1
290
     1
  0
XRECORD
  5
243C8
102
{ACAD_REACTORS
330
243C7
102
}
330
243C7
100
AcDbXrecord
280
     1
290
     1
  0
XRECORD
  5
243CA
102
{ACAD_REACTORS
330
243C9
102
}
330
243C9
100
AcDbXrecord
280
     1
290
     1
  0
XRECORD
  5
243CC
102
{ACAD_REACTORS
330
243CB
102
}
330
243CB
100
AcDbXrecord
280
     1
290
     1
  0
XRECORD
  5
243CE
102
{ACAD_REACTORS
330
243CD
102
}
330
243CD
100
AcDbXrecord
280
     1
290
     1
  0
XRECORD
  5
243D0
102
{ACAD_REACTORS
330
243CF
102
}
330
243CF
100
AcDbXrecord
280
     1
290
     1
  0
XRECORD
  5
243D2
102
{ACAD_REACTORS
330
243D1
102
}
330
243D1
100
AcDbXrecord
280
     1
290
     1
  0
XRECORD
  5
243D4
102
{ACAD_REACTORS
330
243D3
102
}
330
243D3
100
AcDbXrecord
280
     1
290
     1
  0
XRECORD
  5
3169B
102
{ACAD_REACTORS
330
22BCE
102
}
330
22BCE
100
AcDbXrecord
280
     1
102
SHADEPLOT
 70
     0
  0
XRECORD
  5
22BCF
102
{ACAD_REACTORS
330
22BCE
102
}
330
22BCE
100
AcDbXrecord
280
     1
 90
        1
340
1E2B3
  0
XRECORD
  5
3169C
102
{ACAD_REACTORS
330
22BD2
102
}
330
22BD2
100
AcDbXrecord
280
     1
102
SHADEPLOT
 70
     0
  0
XRECORD
  5
22BD3
102
{ACAD_REACTORS
330
22BD2
102
}
330
22BD2
100
AcDbXrecord
280
     1
 90
        1
340
1E2B3
  0
ACDBDETAILVIEWSTYLE
  5
1E2C9
102
{ACAD_XDICTIONARY
360
24505
102
}
102
{ACAD_REACTORS
330
1E2C8
102
}
330
1E2C8
100
AcDbModelDocViewStyle
 70
     0
  3
Metric50
290
     0
100
AcDbDetailViewStyle
 70
     0
 71
     0
 90
        3
 71
     1
340
7475
 40
5.0
340
0
 40
5.0
300

 40
0.0
280
     1
 71
     2
340
7479
 90
       25
 71
     3
340
7475
 40
5.0
 90
        0
 40
15.0
 90
        1
300
%<\AcVar ViewDetailId>% (%<\AcVar ViewScale \f "%sn">%)
 71
     4
340
7479
 90
       25
340
7479
 90
       25
280
     0
  0
LAYOUT
  5
159B3
102
{ACAD_XDICTIONARY
360
3165E
102
}
102
{ACAD_REACTORS
330
159B1
102
}
330
159B1
100
AcDbPlotSettings
  1

  2
none_device
  4
Letter_(8.50_x_11.00_Inches)
  6

 40
6.349999904632568
 41
6.349999904632568
 42
6.350006103515625
 43
6.350006103515625
 44
215.8999938964844
 45
279.3999938964844
 46
0.0
 47
0.0
 48
0.0
 49
0.0
140
0.0
141
0.0
142
1.0
143
1.0
 70
 11952
 72
     1
 73
     1
 74
     0
  7
inabass.ctb
 75
     0
147
1.0
148
-4149.571981164617
149
65.56433826894044
100
AcDbLayout
  1
Model
 70
     1
 71
     0
 10
0.0
 20
0.0
 11
12.0
 21
9.0
 12
0.0
 22
0.0
 32
0.0
 14
0.0
 24
0.0
 34
0.0
 15
0.0
 25
0.0
 35
0.0
146
0.0
 13
0.0
 23
0.0
 33
0.0
 16
1.0
 26
0.0
 36
0.0
 17
0.0
 27
1.0
 37
0.0
 76
     0
330
747D
331
1E27D
  0
LAYOUT
  5
159B4
102
{ACAD_XDICTIONARY
360
31660
102
}
102
{ACAD_REACTORS
330
159B1
102
}
330
159B1
100
AcDbPlotSettings
  1

  2
OneNote 2010 に送る
  4
A4
  6

 40
6.805083274841308
 41
5.11175537109375
 42
6.847412109375
 43
5.027069091796875
 44
210.0156707763672
 45
297.0106506347656
 46
0.0
 47
0.0
 48
2183.328927
 49
686.9751599999999
140
3293.090212
141
1401.500014
142
1.0
143
1.0
 70
   688
 72
     1
 73
     1
 74
     5
  7
inabass.ctb
 75
     0
147
1.0
148
0.0
149
0.0
100
AcDbLayout
  1
レイアウト1
 70
     0
 71
     1
 10
-5.027069091796875
 20
-6.805083274841308
 11
291.9835815429688
 21
203.2105875015259
 12
0.0
 22
0.0
 32
0.0
 14
28.68718261718749
 24
19.6363175392151
 34
0.0
 15
258.1846435546875
 25
176.7268578529358
 35
0.0
146
0.0
 13
0.0
 23
0.0
 33
0.0
 16
1.0
 26
0.0
 36
0.0
 17
0.0
 27
1.0
 37
0.0
 76
     0
330
747A
331
22BCD
1001
ACAD_PSEXT
1000
OneNote 2010 に送る
1000
Send To Microsoft OneNote 2010 Driver
1000
nul:
1000

1070
     0
  0
MATERIAL
  5
1E287
102
{ACAD_XDICTIONARY
360
1E288
102
}
102
{ACAD_REACTORS
330
159AF
102
}
330
159AF
100
AcDbMaterial
  1
ByBlock
 72
     0
 43
0.0208333333333333
 43
0.0
 43
0.0
 43
0.0
 43
0.0
 43
0.0208333333333333
 43
0.0
 43
0.0
 43
0.0
 43
0.0
 43
1.0
 43
0.0
 43
0.0
 43
0.0
 43
0.0
 43
1.0
 77
     0
 47
0.0208333333333333
 47
0.0
 47
0.0
 47
0.0
 47
0.0
 47
0.0208333333333333
 47
0.0
 47
0.0
 47
0.0
 47
0.0
 47
1.0
 47
0.0
 47
0.0
 47
0.0
 47
0.0
 47
1.0
171
     0
 49
0.0208333333333333
 49
0.0
 49
0.0
 49
0.0
 49
0.0
 49
0.0208333333333333
 49
0.0
 49
0.0
 49
0.0
 49
0.0
 49
1.0
 49
0.0
 49
0.0
 49
0.0
 49
0.0
 49
1.0
175
     0
142
0.0208333333333333
142
0.0
142
0.0
142
0.0
142
0.0
142
0.0208333333333333
142
0.0
142
0.0
142
0.0
142
0.0
142
1.0
142
0.0
142
0.0
142
0.0
142
0.0
142
1.0
179
     0
144
0.0208333333333333
144
0.0
144
0.0
144
0.0
144
0.0
144
0.0208333333333333
144
0.0
144
0.0
144
0.0
144
0.0
144
1.0
144
0.0
144
0.0
144
0.0
144
0.0
144
1.0
147
0.0208333333333333
147
0.0
147
0.0
147
0.0
147
0.0
147
0.0208333333333333
147
0.0
147
0.0
147
0.0
147
0.0
147
1.0
147
0.0
147
0.0
147
0.0
147
0.0
147
1.0
  0
MATERIAL
  5
1E27F
102
{ACAD_XDICTIONARY
360
1E280
102
}
102
{ACAD_REACTORS
330
159AF
102
}
330
159AF
100
AcDbMaterial
  1
ByLayer
 72
     0
 43
0.0208333333333333
 43
0.0
 43
0.0
 43
0.0
 43
0.0
 43
0.0208333333333333
 43
0.0
 43
0.0
 43
0.0
 43
0.0
 43
1.0
 43
0.0
 43
0.0
 43
0.0
 43
0.0
 43
1.0
 77
     0
 47
0.0208333333333333
 47
0.0
 47
0.0
 47
0.0
 47
0.0
 47
0.0208333333333333
 47
0.0
 47
0.0
 47
0.0
 47
0.0
 47
1.0
 47
0.0
 47
0.0
 47
0.0
 47
0.0
 47
1.0
171
     0
 49
0.0208333333333333
 49
0.0
 49
0.0
 49
0.0
 49
0.0
 49
0.0208333333333333
 49
0.0
 49
0.0
 49
0.0
 49
0.0
 49
1.0
 49
0.0
 49
0.0
 49
0.0
 49
0.0
 49
1.0
175
     0
142
0.0208333333333333
142
0.0
142
0.0
142
0.0
142
0.0
142
0.0208333333333333
142
0.0
142
0.0
142
0.0
142
0.0
142
1.0
142
0.0
142
0.0
142
0.0
142
0.0
142
1.0
179
     0
144
0.0208333333333333
144
0.0
144
0.0
144
0.0
144
0.0
144
0.0208333333333333
144
0.0
144
0.0
144
0.0
144
0.0
144
1.0
144
0.0
144
0.0
144
0.0
144
0.0
144
1.0
147
0.0208333333333333
147
0.0
147
0.0
147
0.0
147
0.0
147
0.0208333333333333
147
0.0
147
0.0
147
0.0
147
0.0
147
1.0
147
0.0
147
0.0
147
0.0
147
0.0
147
1.0
  0
MATERIAL
  5
1E28F
102
{ACAD_XDICTIONARY
360
1E290
102
}
102
{ACAD_REACTORS
330
159AF
102
}
330
159AF
100
AcDbMaterial
  1
Global
 72
     0
 43
0.0208333333333333
 43
0.0
 43
0.0
 43
0.0
 43
0.0
 43
0.0208333333333333
 43
0.0
 43
0.0
 43
0.0
 43
0.0
 43
1.0
 43
0.0
 43
0.0
 43
0.0
 43
0.0
 43
1.0
 77
     0
 47
0.0208333333333333
 47
0.0
 47
0.0
 47
0.0
 47
0.0
 47
0.0208333333333333
 47
0.0
 47
0.0
 47
0.0
 47
0.0
 47
1.0
 47
0.0
 47
0.0
 47
0.0
 47
0.0
 47
1.0
171
     0
 49
0.0208333333333333
 49
0.0
 49
0.0
 49
0.0
 49
0.0
 49
0.0208333333333333
 49
0.0
 49
0.0
 49
0.0
 49
0.0
 49
1.0
 49
0.0
 49
0.0
 49
0.0
 49
0.0
 49
1.0
175
     0
142
0.0208333333333333
142
0.0
142
0.0
142
0.0
142
0.0
142
0.0208333333333333
142
0.0
142
0.0
142
0.0
142
0.0
142
1.0
142
0.0
142
0.0
142
0.0
142
0.0
142
1.0
179
     0
144
0.0208333333333333
144
0.0
144
0.0
144
0.0
144
0.0
144
0.0208333333333333
144
0.0
144
0.0
144
0.0
144
0.0
144
1.0
144
0.0
144
0.0
144
0.0
144
0.0
144
1.0
147
0.0208333333333333
147
0.0
147
0.0
147
0.0
147
0.0
147
0.0208333333333333
147
0.0
147
0.0
147
0.0
147
0.0
147
1.0
147
0.0
147
0.0
147
0.0
147
0.0
147
1.0
  0
MLEADERSTYLE
  5
1E2C5
102
{ACAD_XDICTIONARY
360
31697
102
}
102
{ACAD_REACTORS
330
1E2C4
102
}
330
1E2C4
100
AcDbMLeaderStyle
170
     2
171
     1
172
     0
 90
        2
 40
0.0
 41
0.0
173
     1
 91
-1056964608
340
7477
 92
       -2
290
     1
 42
2.0
291
     1
 43
0.36
  3
Standard
 44
4.0
300

342
7475
174
     1
178
     6
175
     1
176
     0
 93
-1056964608
 45
4.0
292
     0
297
     0
 46
4.0
 94
-1056964608
 47
1.0
 49
1.0
140
1.0
293
     1
141
0.0
294
     1
177
     0
142
1.0
295
     0
296
     0
143
0.125
1001
ACAD_MLEADERVER
1070
     2
  0
MLINESTYLE
  5
7480
102
{ACAD_REACTORS
330
7473
102
}
330
7473
100
AcDbMlineStyle
  2
STANDARD
 70
     0
  3

 62
     0
 51
90.0
 52
90.0
 71
     2
 49
0.5
 62
   256
  6
BYLAYER
 49
-0.5
 62
   256
  6
BYLAYER
  0
ACDBPLACEHOLDER
  5
159AE
102
{ACAD_REACTORS
330
159AD
102
}
330
159AD
  0
SCALE
  5
1E2B3
102
{ACAD_REACTORS
330
1E2B2
102
}
330
1E2B2
100
AcDbScale
 70
     0
300
1:1
140
1.0
141
1.0
290
     1
  0
SCALE
  5
1E2B4
102
{ACAD_REACTORS
330
1E2B2
102
}
330
1E2B2
100
AcDbScale
 70
     0
300
1:2
140
1.0
141
2.0
290
     0
  0
SCALE
  5
1E2B5
102
{ACAD_REACTORS
330
1E2B2
102
}
330
1E2B2
100
AcDbScale
 70
     0
300
1:4
140
1.0
141
4.0
290
     0
  0
SCALE
  5
1E2B6
102
{ACAD_REACTORS
330
1E2B2
102
}
330
1E2B2
100
AcDbScale
 70
     0
300
1:5
140
1.0
141
5.0
290
     0
  0
SCALE
  5
1E2B7
102
{ACAD_REACTORS
330
1E2B2
102
}
330
1E2B2
100
AcDbScale
 70
     0
300
1:8
140
1.0
141
8.0
290
     0
  0
SCALE
  5
1E2B8
102
{ACAD_REACTORS
330
1E2B2
102
}
330
1E2B2
100
AcDbScale
 70
     0
300
1:10
140
1.0
141
10.0
290
     0
  0
SCALE
  5
1E2B9
102
{ACAD_REACTORS
330
1E2B2
102
}
330
1E2B2
100
AcDbScale
 70
     0
300
1:16
140
1.0
141
16.0
290
     0
  0
SCALE
  5
1E2BA
102
{ACAD_REACTORS
330
1E2B2
102
}
330
1E2B2
100
AcDbScale
 70
     0
300
1:20
140
1.0
141
20.0
290
     0
  0
SCALE
  5
1E2BB
102
{ACAD_REACTORS
330
1E2B2
102
}
330
1E2B2
100
AcDbScale
 70
     0
300
1:30
140
1.0
141
30.0
290
     0
  0
SCALE
  5
1E2BC
102
{ACAD_REACTORS
330
1E2B2
102
}
330
1E2B2
100
AcDbScale
 70
     0
300
1:40
140
1.0
141
40.0
290
     0
  0
SCALE
  5
1E2BD
102
{ACAD_REACTORS
330
1E2B2
102
}
330
1E2B2
100
AcDbScale
 70
     0
300
1:50
140
1.0
141
50.0
290
     0
  0
SCALE
  5
1E2BE
102
{ACAD_REACTORS
330
1E2B2
102
}
330
1E2B2
100
AcDbScale
 70
     0
300
1:100
140
1.0
141
100.0
290
     0
  0
SCALE
  5
1E2BF
102
{ACAD_REACTORS
330
1E2B2
102
}
330
1E2B2
100
AcDbScale
 70
     0
300
2:1
140
2.0
141
1.0
290
     0
  0
SCALE
  5
1E2C0
102
{ACAD_REACTORS
330
1E2B2
102
}
330
1E2B2
100
AcDbScale
 70
     0
300
4:1
140
4.0
141
1.0
290
     0
  0
SCALE
  5
1E2C1
102
{ACAD_REACTORS
330
1E2B2
102
}
330
1E2B2
100
AcDbScale
 70
     0
300
8:1
140
8.0
141
1.0
290
     0
  0
SCALE
  5
1E2C2
102
{ACAD_REACTORS
330
1E2B2
102
}
330
1E2B2
100
AcDbScale
 70
     0
300
10:1
140
10.0
141
1.0
290
     0
  0
SCALE
  5
1E2C3
102
{ACAD_REACTORS
330
1E2B2
102
}
330
1E2B2
100
AcDbScale
 70
     0
300
100:1
140
100.0
141
1.0
290
     0
  0
ACDBSECTIONVIEWSTYLE
  5
1E2C7
102
{ACAD_XDICTIONARY
360
24503
102
}
102
{ACAD_REACTORS
330
1E2C6
102
}
330
1E2C6
100
AcDbModelDocViewStyle
 70
     0
  3
Metric50
290
     0
100
AcDbSectionViewStyle
 70
     0
 71
     0
 90
      102
 71
     1
340
7475
 40
5.0
340
0
340
0
 40
5.0
300
I, O, Q, S, X, Z
 40
10.0
 90
        0
 40
2.5
 90
        0
 71
     2
340
7479
 90
       25
340
7479
 90
       50
 40
5.0
 40
2.5
 40
5.0
 71
     3
340
7475
 40
5.0
 90
        0
 40
15.0
 90
        1
300
%<\AcVar ViewSectionStartId>%-%<\AcVar ViewSectionEndId>% (%<\AcVar ViewScale \f "%sn">%)
 71
     4
300
ANSI31
 40
1.0
 90
        0
290
     0
290
     0
 90
        6
 40
0.0
 40
1.570796326794896
 40
0.2617993877991494
 40
1.308996938995747
 40
-0.2617993877991494
 40
1.832595714594046
  0
TABLESTYLE
  5
1E2B1
102
{ACAD_XDICTIONARY
360
31652
102
}
102
{ACAD_REACTORS
330
1E2B0
102
}
330
1E2B0
100
AcDbTableStyle
  3
Standard
 70
     0
 71
     0
 40
1.5
 41
1.5
280
     0
281
     0
  7
STANDARD
140
4.5
170
     2
 62
     0
 63
     7
283
     0
274
    -2
284
     1
 64
     0
275
    -2
285
     1
 65
     0
276
    -2
286
     1
 66
     0
277
    -2
287
     1
 67
     0
278
    -2
288
     1
 68
     0
279
    -2
289
     1
 69
     0
  7
STANDARD
140
6.0
170
     5
 62
     0
 63
     7
283
     0
274
    -2
284
     1
 64
     0
275
    -2
285
     1
 65
     0
276
    -2
286
     1
 66
     0
277
    -2
287
     1
 67
     0
278
    -2
288
     1
 68
     0
279
    -2
289
     1
 69
     0
  7
STANDARD
140
4.5
170
     5
 62
     0
 63
     7
283
     0
274
    -2
284
     1
 64
     0
275
    -2
285
     1
 65
     0
276
    -2
286
     1
 66
     0
277
    -2
287
     1
 67
     0
278
    -2
288
     1
 68
     0
279
    -2
289
     1
 69
     0
  0
VISUALSTYLE
  5
1E29D
102
{ACAD_XDICTIONARY
360
3166F
102
}
102
{ACAD_REACTORS
330
1E297
102
}
330
1E297
100
AcDbVisualStyle
  2
2dWireframe
 70
     4
 71
     0
 72
     2
 73
     0
 90
        0
 40
-0.6
 41
-30.0
 62
     5
 63
     7
 74
     1
 91
        4
 64
     7
 65
   257
 75
     1
175
     1
 42
1.0
 92
        0
 66
   257
 43
1.0
 76
     1
 77
     6
 78
     2
 67
     7
 79
     5
170
     0
171
     0
290
     0
174
     0
 93
        1
 44
0.0
173
     0
291
     0
 45
0.0
1001
ACAD
1000
AcDbSavedByObjectVersion
1070
     0
  0
VISUALSTYLE
  5
1E29C
102
{ACAD_XDICTIONARY
360
3166D
102
}
102
{ACAD_REACTORS
330
1E297
102
}
330
1E297
100
AcDbVisualStyle
  2
Basic
 70
     7
 71
     1
 72
     0
 73
     1
 90
        0
 40
-0.6
 41
-30.0
 62
     5
 63
     7
 74
     0
 91
        4
 64
     7
 65
   257
 75
     1
175
     1
 42
1.0
 92
        8
 66
     7
 43
1.0
 76
     1
 77
     6
 78
     2
 67
     7
 79
     5
170
     0
171
     0
290
     0
174
     0
 93
        1
 44
0.0
173
     0
291
     1
 45
0.0
1001
ACAD
1000
AcDbSavedByObjectVersion
1070
     0
  0
VISUALSTYLE
  5
1E2A3
102
{ACAD_XDICTIONARY
360
3167B
102
}
102
{ACAD_REACTORS
330
1E297
102
}
330
1E297
100
AcDbVisualStyle
  2
Brighten
 70
    12
 71
     2
 72
     2
 73
     0
 90
        0
 40
-0.6
 41
-30.0
 62
     5
 63
     7
 74
     1
 91
        4
 64
     7
 65
   257
 75
     1
175
     1
 42
1.0
 92
        8
 66
     7
 43
1.0
 76
     1
 77
     6
 78
     2
 67
     7
 79
     5
170
     0
171
     0
290
     0
174
     0
 93
        1
 44
50.0
173
     0
291
     1
 45
0.0
1001
ACAD
1000
AcDbSavedByObjectVersion
1070
     0
  0
VISUALSTYLE
  5
1E2A7
102
{ACAD_XDICTIONARY
360
31683
102
}
102
{ACAD_REACTORS
330
1E297
102
}
330
1E297
100
AcDbVisualStyle
  2
ColorChange
 70
    16
 71
     2
 72
     2
 73
     3
 90
        0
 40
-0.6
 41
-30.0
 62
     5
 63
     8
 74
     1
 91
        4
 64
     7
 65
   257
 75
     1
175
     1
 42
1.0
 92
        8
 66
     8
 43
1.0
 76
     1
 77
     6
 78
     2
 67
     7
 79
     5
170
     0
171
     0
290
     0
174
     0
 93
        1
 44
0.0
173
     0
291
     1
 45
0.0
1001
ACAD
1000
AcDbSavedByObjectVersion
1070
     0
  0
VISUALSTYLE
  5
1E2A0
102
{ACAD_XDICTIONARY
360
31675
102
}
102
{ACAD_REACTORS
330
1E297
102
}
330
1E297
100
AcDbVisualStyle
  2
Conceptual
 70
     9
 71
     3
 72
     2
 73
     0
 90
        0
 40
-0.6
 41
-30.0
 62
     5
 63
     7
 74
     2
 91
        2
 64
     7
 65
   257
 75
     1
175
     1
 42
179.0
 92
        8
 66
     7
 43
1.0
 76
     1
 77
     6
 78
     2
 67
     7
 79
     3
170
     0
171
     0
290
     0
174
     0
 93
        1
 44
0.0
173
     0
291
     0
 45
0.0
1001
ACAD
1000
AcDbSavedByObjectVersion
1070
     0
  0
VISUALSTYLE
  5
1E2A2
102
{ACAD_XDICTIONARY
360
31679
102
}
102
{ACAD_REACTORS
330
1E297
102
}
330
1E297
100
AcDbVisualStyle
  2
Dim
 70
    11
 71
     2
 72
     2
 73
     0
 90
        0
 40
-0.6
 41
-30.0
 62
     5
 63
     7
 74
     1
 91
        4
 64
     7
 65
   257
 75
     1
175
     1
 42
1.0
 92
        8
 66
     7
 43
1.0
 76
     1
 77
     6
 78
     2
 67
     7
 79
     5
170
     0
171
     0
290
     0
174
     0
 93
        1
 44
-50.0
173
     0
291
     1
 45
0.0
1001
ACAD
1000
AcDbSavedByObjectVersion
1070
     0
  0
VISUALSTYLE
  5
1E2AF
102
{ACAD_XDICTIONARY
360
31693
102
}
102
{ACAD_REACTORS
330
1E297
102
}
330
1E297
100
AcDbVisualStyle
  2
EdgeColorOff
 70
    22
 71
     2
 72
     2
 73
     0
 90
        0
 40
-0.6
 41
-30.0
 62
     5
 63
     7
 74
     1
 91
        4
 64
     7
 65
   257
 75
     1
175
     1
 42
1.0
 92
        8
 66
     7
 43
1.0
 76
     1
 77
     6
 78
     2
 67
     7
 79
     5
170
     0
171
     0
290
     0
174
     0
 93
        1
 44
0.0
173
     0
291
     1
 45
0.0
1001
ACAD
1000
AcDbSavedByObjectVersion
1070
     0
  0
VISUALSTYLE
  5
1E2A6
102
{ACAD_XDICTIONARY
360
31681
102
}
102
{ACAD_REACTORS
330
1E297
102
}
330
1E297
100
AcDbVisualStyle
  2
Facepattern
 70
    15
 71
     2
 72
     2
 73
     0
 90
        0
 40
-0.6
 41
-30.0
 62
     5
 63
     7
 74
     1
 91
        4
 64
     7
 65
   257
 75
     1
175
     1
 42
1.0
 92
        8
 66
     7
 43
1.0
 76
     1
 77
     6
 78
     2
 67
     7
 79
     5
170
     0
171
     0
290
     0
174
     0
 93
        1
 44
0.0
173
     0
291
     1
 45
0.0
1001
ACAD
1000
AcDbSavedByObjectVersion
1070
     0
  0
VISUALSTYLE
  5
1E298
102
{ACAD_XDICTIONARY
360
31665
102
}
102
{ACAD_REACTORS
330
1E297
102
}
330
1E297
100
AcDbVisualStyle
  2
Flat
 70
     0
 71
     2
 72
     1
 73
     1
 90
        2
 40
-0.6
 41
30.0
 62
     5
 63
     7
 74
     0
 91
        0
 64
     7
 65
   257
 75
     1
175
     1
 42
1.0
 92
        8
 66
     7
 43
1.0
 76
     1
 77
     6
 78
     2
 67
     7
 79
     5
170
     0
171
     0
290
     0
174
     0
 93
       13
 44
0.0
173
     0
291
     1
 45
0.0
1001
ACAD
1000
AcDbSavedByObjectVersion
1070
     0
  0
VISUALSTYLE
  5
1E299
102
{ACAD_XDICTIONARY
360
31667
102
}
102
{ACAD_REACTORS
330
1E297
102
}
330
1E297
100
AcDbVisualStyle
  2
FlatWithEdges
 70
     1
 71
     2
 72
     1
 73
     1
 90
        2
 40
-0.6
 41
30.0
 62
     5
 63
     7
 74
     1
 91
        0
 64
     7
 65
   257
 75
     1
175
     1
 42
1.0
 92
        0
 66
   257
 43
1.0
 76
     1
 77
     6
 78
     2
 67
     7
 79
     5
170
     0
171
     0
290
     0
174
     0
 93
       13
 44
0.0
173
     0
291
     1
 45
0.0
1001
ACAD
1000
AcDbSavedByObjectVersion
1070
     0
  0
VISUALSTYLE
  5
1E29A
102
{ACAD_XDICTIONARY
360
31669
102
}
102
{ACAD_REACTORS
330
1E297
102
}
330
1E297
100
AcDbVisualStyle
  2
Gouraud
 70
     2
 71
     2
 72
     2
 73
     1
 90
        2
 40
-0.6
 41
30.0
 62
     5
 63
     7
 74
     0
 91
        0
 64
     7
 65
   257
 75
     1
175
     1
 42
1.0
 92
        0
 66
     7
 43
1.0
 76
     1
 77
     6
 78
     2
 67
     7
 79
     5
170
     0
171
     0
290
     0
174
     0
 93
       13
 44
0.0
173
     0
291
     1
 45
0.0
1001
ACAD
1000
AcDbSavedByObjectVersion
1070
     0
  0
VISUALSTYLE
  5
1E29B
102
{ACAD_XDICTIONARY
360
3166B
102
}
102
{ACAD_REACTORS
330
1E297
102
}
330
1E297
100
AcDbVisualStyle
  2
GouraudWithEdges
 70
     3
 71
     2
 72
     2
 73
     1
 90
        2
 40
-0.6
 41
30.0
 62
     5
 63
     7
 74
     1
 91
        0
 64
     7
 65
   257
 75
     1
175
     1
 42
1.0
 92
        0
 66
   257
 43
1.0
 76
     1
 77
     6
 78
     2
 67
     7
 79
     5
170
     0
171
     0
290
     0
174
     0
 93
       13
 44
0.0
173
     0
291
     1
 45
0.0
1001
ACAD
1000
AcDbSavedByObjectVersion
1070
     0
  0
VISUALSTYLE
  5
1E29F
102
{ACAD_XDICTIONARY
360
31673
102
}
102
{ACAD_REACTORS
330
1E297
102
}
330
1E297
100
AcDbVisualStyle
  2
Hidden
 70
     6
 71
     1
 72
     2
 73
     2
 90
        0
 40
-0.6
 41
-30.0
 62
     5
 63
     7
 74
     2
 91
        2
 64
     7
 65
   257
 75
     2
175
     1
 42
40.0
 92
        0
 66
   257
 43
1.0
 76
     1
 77
     6
 78
     2
 67
     7
 79
     3
170
     0
171
     0
290
     0
174
     0
 93
        1
 44
0.0
173
     0
291
     0
 45
0.0
1001
ACAD
1000
AcDbSavedByObjectVersion
1070
     0
  0
VISUALSTYLE
  5
1E2AD
102
{ACAD_XDICTIONARY
360
3168F
102
}
102
{ACAD_REACTORS
330
1E297
102
}
330
1E297
100
AcDbVisualStyle
  2
JitterOff
 70
    20
 71
     2
 72
     2
 73
     0
 90
        0
 40
-0.6
 41
-30.0
 62
     5
 63
     7
 74
     1
 91
        4
 64
     7
 65
   257
 75
     1
175
     1
 42
1.0
 92
       10
 66
     7
 43
1.0
 76
     1
 77
     6
 78
     2
 67
     7
 79
     5
170
     0
171
     0
290
     0
174
     0
 93
        1
 44
0.0
173
     0
291
     1
 45
0.0
1001
ACAD
1000
AcDbSavedByObjectVersion
1070
     0
  0
VISUALSTYLE
  5
1E2A5
102
{ACAD_XDICTIONARY
360
3167F
102
}
102
{ACAD_REACTORS
330
1E297
102
}
330
1E297
100
AcDbVisualStyle
  2
Linepattern
 70
    14
 71
     2
 72
     2
 73
     0
 90
        0
 40
-0.6
 41
-30.0
 62
     5
 63
     7
 74
     1
 91
        4
 64
     7
 65
   257
 75
     7
175
     7
 42
1.0
 92
        8
 66
     7
 43
1.0
 76
     1
 77
     6
 78
     2
 67
     7
 79
     5
170
     0
171
     0
290
     0
174
     0
 93
        1
 44
0.0
173
     0
291
     1
 45
0.0
1001
ACAD
1000
AcDbSavedByObjectVersion
1070
     0
  0
VISUALSTYLE
  5
1E2AE
102
{ACAD_XDICTIONARY
360
31691
102
}
102
{ACAD_REACTORS
330
1E297
102
}
330
1E297
100
AcDbVisualStyle
  2
OverhangOff
 70
    21
 71
     2
 72
     2
 73
     0
 90
        0
 40
-0.6
 41
-30.0
 62
     5
 63
     7
 74
     1
 91
        4
 64
     7
 65
   257
 75
     1
175
     1
 42
1.0
 92
        9
 66
     7
 43
1.0
 76
     1
 77
     6
 78
     2
 67
     7
 79
     5
170
     0
171
     0
290
     0
174
     0
 93
        1
 44
0.0
173
     0
291
     1
 45
0.0
1001
ACAD
1000
AcDbSavedByObjectVersion
1070
     0
  0
VISUALSTYLE
  5
1E2A1
102
{ACAD_XDICTIONARY
360
31677
102
}
102
{ACAD_REACTORS
330
1E297
102
}
330
1E297
100
AcDbVisualStyle
  2
Realistic
 70
     8
 71
     2
 72
     3
 73
     0
 90
        2
 40
-0.6
 41
30.0
 62
     5
 63
     7
 74
     0
 91
        0
 64
     7
 65
   257
 75
     1
175
     1
 42
1.0
 92
        8
 66
   257
 43
1.0
 76
     1
 77
     6
 78
     2
 67
     7
 79
     3
170
     0
171
     0
290
     0
174
     0
 93
       13
 44
0.0
173
     0
291
     0
 45
0.0
1001
ACAD
1000
AcDbSavedByObjectVersion
1070
     0
  0
VISUALSTYLE
  5
1E2AC
102
{ACAD_XDICTIONARY
360
3168D
102
}
102
{ACAD_REACTORS
330
1E297
102
}
330
1E297
100
AcDbVisualStyle
  2
Shaded
 70
    27
 71
     2
 72
     2
 73
     1
 90
        2
 40
-0.6
 41
30.0
 62
     5
 63
     7
 74
     0
 91
        4
 64
     7
 65
   257
 75
     1
175
     1
 42
1.0
 92
        8
 66
   257
 43
1.0
 76
     1
 77
     6
 78
     2
 67
     8
 79
     3
170
     0
171
     0
290
     0
174
     0
 93
        5
 44
0.0
173
     0
291
     0
 45
0.0
1001
ACAD
1000
AcDbSavedByObjectVersion
1070
     0
  0
VISUALSTYLE
  5
1E2AB
102
{ACAD_XDICTIONARY
360
3168B
102
}
102
{ACAD_REACTORS
330
1E297
102
}
330
1E297
100
AcDbVisualStyle
  2
Shaded with edges
 70
    26
 71
     2
 72
     2
 73
     1
 90
        2
 40
-0.6
 41
30.0
 62
     5
 63
     7
 74
     1
 91
       10
 64
     7
 65
   257
 75
     2
175
     1
 42
1.0
 92
        8
 66
   257
 43
1.0
 76
     1
 77
     6
 78
     2
 67
     7
 79
     3
170
     0
171
     0
290
     0
174
     0
 93
        5
 44
0.0
173
     0
291
     0
 45
0.0
1001
ACAD
1000
AcDbSavedByObjectVersion
1070
     0
  0
VISUALSTYLE
  5
1E2A8
102
{ACAD_XDICTIONARY
360
31685
102
}
102
{ACAD_REACTORS
330
1E297
102
}
330
1E297
100
AcDbVisualStyle
  2
Shades of Gray
 70
    23
 71
     2
 72
     2
 73
     3
 90
        0
 40
-0.6
 41
-30.0
 62
     5
 63
     7
 74
     2
 91
        2
 64
     7
 65
     7
 75
     1
175
     1
 42
40.0
 92
        8
 66
     7
 43
1.0
 76
     1
 77
     6
 78
     2
 67
     7
 79
     3
170
     0
171
     0
290
     0
174
     0
 93
        1
 44
0.0
173
     0
291
     0
 45
0.0
1001
ACAD
1000
AcDbSavedByObjectVersion
1070
     0
  0
VISUALSTYLE
  5
1E2A9
102
{ACAD_XDICTIONARY
360
31687
102
}
102
{ACAD_REACTORS
330
1E297
102
}
330
1E297
100
AcDbVisualStyle
  2
Sketchy
 70
    24
 71
     1
 72
     2
 73
     2
 90
        0
 40
-0.6
 41
-30.0
 62
     5
 63
     7
 74
     2
 91
        2
 64
     7
 65
     7
 75
     1
175
     1
 42
40.0
 92
       11
 66
     7
 43
1.0
 76
     1
 77
     6
 78
     2
 67
     7
 79
     6
170
     0
171
     0
290
     0
174
     0
 93
        1
 44
0.0
173
     0
291
     0
 45
0.0
1001
ACAD
1000
AcDbSavedByObjectVersion
1070
     0
  0
VISUALSTYLE
  5
1E2A4
102
{ACAD_XDICTIONARY
360
3167D
102
}
102
{ACAD_REACTORS
330
1E297
102
}
330
1E297
100
AcDbVisualStyle
  2
Thicken
 70
    13
 71
     2
 72
     2
 73
     0
 90
        0
 40
-0.6
 41
-30.0
 62
     5
 63
     7
 74
     1
 91
        4
 64
     7
 65
   257
 75
     1
175
     1
 42
1.0
 92
       12
 66
     7
 43
1.0
 76
     1
 77
     6
 78
     2
 67
     7
 79
     5
170
     0
171
     0
290
     0
174
     0
 93
        1
 44
0.0
173
     0
291
     1
 45
0.0
1001
ACAD
1000
AcDbSavedByObjectVersion
1070
     0
  0
VISUALSTYLE
  5
1E29E
102
{ACAD_XDICTIONARY
360
31671
102
}
102
{ACAD_REACTORS
330
1E297
102
}
330
1E297
100
AcDbVisualStyle
  2
Wireframe
 70
     5
 71
     0
 72
     2
 73
     0
 90
        0
 40
-0.6
 41
-30.0
 62
     5
 63
     7
 74
     1
 91
        4
 64
     7
 65
   257
 75
     1
175
     1
 42
1.0
 92
        0
 66
   257
 43
1.0
 76
     1
 77
     6
 78
     2
 67
     7
 79
     3
170
     0
171
     0
290
     0
174
     0
 93
        1
 44
0.0
173
     0
291
     0
 45
0.0
1001
ACAD
1000
AcDbSavedByObjectVersion
1070
     0
  0
VISUALSTYLE
  5
1E2AA
102
{ACAD_XDICTIONARY
360
31689
102
}
102
{ACAD_REACTORS
330
1E297
102
}
330
1E297
100
AcDbVisualStyle
  2
X-Ray
 70
    25
 71
     2
 72
     2
 73
     1
 90
        1
 40
0.5
 41
-30.0
 62
     5
 63
     7
 74
     1
 91
        0
 64
     7
 65
   257
 75
     1
175
     1
 42
1.0
 92
        8
 66
     7
 43
1.0
 76
     1
 77
     6
 78
     2
 67
     7
 79
     3
170
     0
171
     0
290
     0
174
     0
 93
       13
 44
0.0
173
     0
291
     0
 45
0.0
1001
ACAD
1000
AcDbSavedByObjectVersion
1070
     0
  0
DICTIONARYVAR
  5
2450E
102
{ACAD_REACTORS
330
24508
102
}
330
24508
100
DictionaryVariables
280
     0
  1
1:1
  0
DICTIONARYVAR
  5
2450A
102
{ACAD_REACTORS
330
24508
102
}
330
24508
100
DictionaryVariables
280
     0
  1
STANDARD
  0
DICTIONARYVAR
  5
24509
102
{ACAD_REACTORS
330
24508
102
}
330
24508
100
DictionaryVariables
280
     0
  1
STANDARD
  0
DICTIONARYVAR
  5
2450B
102
{ACAD_REACTORS
330
24508
102
}
330
24508
100
DictionaryVariables
280
     0
  1
Metric50
  0
DICTIONARYVAR
  5
2450C
102
{ACAD_REACTORS
330
24508
102
}
330
24508
100
DictionaryVariables
280
     0
  1
Metric50
  0
DICTIONARYVAR
  5
31651
102
{ACAD_REACTORS
330
24508
102
}
330
24508
100
DictionaryVariables
280
     0
  1
1
  0
DICTIONARYVAR
  5
3164F
102
{ACAD_REACTORS
330
24508
102
}
330
24508
100
DictionaryVariables
280
     0
  1
0
  0
DICTIONARYVAR
  5
24510
102
{ACAD_REACTORS
330
24508
102
}
330
24508
100
DictionaryVariables
280
     0
  1
1
  0
DICTIONARYVAR
  5
24511
102
{ACAD_REACTORS
330
24508
102
}
330
24508
100
DictionaryVariables
280
     0
  1
15
  0
DICTIONARYVAR
  5
2450F
102
{ACAD_REACTORS
330
24508
102
}
330
24508
100
DictionaryVariables
280
     0
  1
0
  0
DICTIONARYVAR
  5
2450D
102
{ACAD_REACTORS
330
24508
102
}
330
24508
100
DictionaryVariables
280
     0
  1
0
  0
DICTIONARYVAR
  5
3164E
102
{ACAD_REACTORS
330
24508
102
}
330
24508
100
DictionaryVariables
280
     0
  1
127
  0
DICTIONARYVAR
  5
31650
102
{ACAD_REACTORS
330
24508
102
}
330
24508
100
DictionaryVariables
280
     0
  1
0
  0
DICTIONARY
  5
3165D
102
{ACAD_REACTORS
330
3165B
102
}
330
3165B
100
AcDbDictionary
281
     1
  0
DICTIONARY
  5
3165C
102
{ACAD_REACTORS
330
3165B
102
}
330
3165B
100
AcDbDictionary
281
     1
  3
140687502821472
350
31656
  3
140687502821488
350
31657
  3
140687502821504
350
31658
  3
140687502821520
350
31659
  3
140687502821536
350
3165A
  0
DICTIONARY
  5
24505
330
1E2C9
100
AcDbDictionary
280
     1
281
     1
  3
ACAD_XREC_ROUNDTRIP
360
3169A
  0
DICTIONARY
  5
3165E
330
159B3
100
AcDbDictionary
280
     1
281
     1
  3
ACAD_XREC_ROUNDTRIP
360
3165F
  0
DICTIONARY
  5
31660
330
159B4
100
AcDbDictionary
280
     1
281
     1
  3
ACAD_XREC_ROUNDTRIP
360
31661
  0
DICTIONARY
  5
1E288
330
1E287
100
AcDbDictionary
280
     1
281
     1
  3
ACAD_XREC_ROUNDTRIP
360
31663
  3
BUMPTILE
360
1E28A
  3
DIFFUSETILE
360
1E289
  3
OPACITYTILE
360
1E28D
  3
REFLECTIONTILE
360
1E28C
  3
REFRACTIONTILE
360
1E28E
  3
SPECULARTILE
360
1E28B
  0
DICTIONARY
  5
1E280
330
1E27F
100
AcDbDictionary
280
     1
281
     1
  3
ACAD_XREC_ROUNDTRIP
360
31662
  3
BUMPTILE
360
1E282
  3
DIFFUSETILE
360
1E281
  3
OPACITYTILE
360
1E285
  3
REFLECTIONTILE
360
1E284
  3
REFRACTIONTILE
360
1E286
  3
SPECULARTILE
360
1E283
  0
DICTIONARY
  5
1E290
330
1E28F
100
AcDbDictionary
280
     1
281
     1
  3
ACAD_XREC_ROUNDTRIP
360
31664
  3
BUMPTILE
360
1E292
  3
DIFFUSETILE
360
1E291
  3
OPACITYTILE
360
1E295
  3
REFLECTIONTILE
360
1E294
  3
REFRACTIONTILE
360
1E296
  3
SPECULARTILE
360
1E293
  0
DICTIONARY
  5
31697
330
1E2C5
100
AcDbDictionary
280
     1
281
     1
  3
ACAD_XREC_ROUNDTRIP
360
31698
  0
DICTIONARY
  5
24503
330
1E2C7
100
AcDbDictionary
280
     1
281
     1
  3
ACAD_XREC_ROUNDTRIP
360
31699
  0
DICTIONARY
  5
31652
330
1E2B1
100
AcDbDictionary
280
     1
281
     1
  3
ACAD_ROUNDTRIP_2008_TABLESTYLE_CELLSTYLEMAP
360
31653
  3
ACAD_XREC_ROUNDTRIP
360
31695
  0
DICTIONARY
  5
3166F
330
1E29D
100
AcDbDictionary
280
     1
281
     1
  3
ACAD_XREC_ROUNDTRIP
360
31670
  0
DICTIONARY
  5
3166D
330
1E29C
100
AcDbDictionary
280
     1
281
     1
  3
ACAD_XREC_ROUNDTRIP
360
3166E
  0
DICTIONARY
  5
3167B
330
1E2A3
100
AcDbDictionary
280
     1
281
     1
  3
ACAD_XREC_ROUNDTRIP
360
3167C
  0
DICTIONARY
  5
31683
330
1E2A7
100
AcDbDictionary
280
     1
281
     1
  3
ACAD_XREC_ROUNDTRIP
360
31684
  0
DICTIONARY
  5
31675
330
1E2A0
100
AcDbDictionary
280
     1
281
     1
  3
ACAD_XREC_ROUNDTRIP
360
31676
  0
DICTIONARY
  5
31679
330
1E2A2
100
AcDbDictionary
280
     1
281
     1
  3
ACAD_XREC_ROUNDTRIP
360
3167A
  0
DICTIONARY
  5
31693
330
1E2AF
100
AcDbDictionary
280
     1
281
     1
  3
ACAD_XREC_ROUNDTRIP
360
31694
  0
DICTIONARY
  5
31681
330
1E2A6
100
AcDbDictionary
280
     1
281
     1
  3
ACAD_XREC_ROUNDTRIP
360
31682
  0
DICTIONARY
  5
31665
330
1E298
100
AcDbDictionary
280
     1
281
     1
  3
ACAD_XREC_ROUNDTRIP
360
31666
  0
DICTIONARY
  5
31667
330
1E299
100
AcDbDictionary
280
     1
281
     1
  3
ACAD_XREC_ROUNDTRIP
360
31668
  0
DICTIONARY
  5
31669
330
1E29A
100
AcDbDictionary
280
     1
281
     1
  3
ACAD_XREC_ROUNDTRIP
360
3166A
  0
DICTIONARY
  5
3166B
330
1E29B
100
AcDbDictionary
280
     1
281
     1
  3
ACAD_XREC_ROUNDTRIP
360
3166C
  0
DICTIONARY
  5
31673
330
1E29F
100
AcDbDictionary
280
     1
281
     1
  3
ACAD_XREC_ROUNDTRIP
360
31674
  0
DICTIONARY
  5
3168F
330
1E2AD
100
AcDbDictionary
280
     1
281
     1
  3
ACAD_XREC_ROUNDTRIP
360
31690
  0
DICTIONARY
  5
3167F
330
1E2A5
100
AcDbDictionary
280
     1
281
     1
  3
ACAD_XREC_ROUNDTRIP
360
31680
  0
DICTIONARY
  5
31691
330
1E2AE
100
AcDbDictionary
280
     1
281
     1
  3
ACAD_XREC_ROUNDTRIP
360
31692
  0
DICTIONARY
  5
31677
330
1E2A1
100
AcDbDictionary
280
     1
281
     1
  3
ACAD_XREC_ROUNDTRIP
360
31678
  0
DICTIONARY
  5
3168D
330
1E2AC
100
AcDbDictionary
280
     1
281
     1
  3
ACAD_XREC_ROUNDTRIP
360
3168E
  0
DICTIONARY
  5
3168B
330
1E2AB
100
AcDbDictionary
280
     1
281
     1
  3
ACAD_XREC_ROUNDTRIP
360
3168C
  0
DICTIONARY
  5
31685
330
1E2A8
100
AcDbDictionary
280
     1
281
     1
  3
ACAD_XREC_ROUNDTRIP
360
31686
  0
DICTIONARY
  5
31687
330
1E2A9
100
AcDbDictionary
280
     1
281
     1
  3
ACAD_XREC_ROUNDTRIP
360
31688
  0
DICTIONARY
  5
3167D
330
1E2A4
100
AcDbDictionary
280
     1
281
     1
  3
ACAD_XREC_ROUNDTRIP
360
3167E
  0
DICTIONARY
  5
31671
330
1E29E
100
AcDbDictionary
280
     1
281
     1
  3
ACAD_XREC_ROUNDTRIP
360
31672
  0
DICTIONARY
  5
31689
330
1E2AA
100
AcDbDictionary
280
     1
281
     1
  3
ACAD_XREC_ROUNDTRIP
360
3168A
  0
XRECORD
  5
31656
102
{ACAD_REACTORS
330
3165C
102
}
330
3165C
100
AcDbXrecord
280
     1
  1
AcDb_Thumbnail_Schema
102
{ATTRRECORD
341
31657
  2
AcDbDs::TreatedAsObjectData
280
     1
291
     1
102
ATTRRECORD}
102
{ATTRRECORD
341
31658
  2
AcDbDs::Legacy
280
     1
291
     1
102
ATTRRECORD}
  2
AcDbDs::ID
280
    10
 91
        8
102
{ATTRRECORD
341
31659
  2
AcDs:Indexable
280
     1
291
     1
102
ATTRRECORD}
102
{ATTRRECORD
341
3165A
  2
AcDbDs::HandleAttribute
280
     7
282
     1
102
ATTRRECORD}
  2
Thumbnail_Data
280
    15
 91
        0
  0
XRECORD
  5
31657
102
{ACAD_REACTORS
330
3165C
102
}
330
3165C
100
AcDbXrecord
280
     1
  1
AcDbDs::TreatedAsObjectDataSchema
  2
AcDbDs::TreatedAsObjectData
280
     1
 91
        0
  0
XRECORD
  5
31658
102
{ACAD_REACTORS
330
3165C
102
}
330
3165C
100
AcDbXrecord
280
     1
  1
AcDbDs::LegacySchema
  2
AcDbDs::Legacy
280
     1
 91
        0
  0
XRECORD
  5
31659
102
{ACAD_REACTORS
330
3165C
102
}
330
3165C
100
AcDbXrecord
280
     1
  1
AcDbDs::IndexedPropertySchema
  2
AcDs:Indexable
280
     1
 91
        0
  0
XRECORD
  5
3165A
102
{ACAD_REACTORS
330
3165C
102
}
330
3165C
100
AcDbXrecord
280
     1
  1
AcDbDs::HandleAttributeSchema
  2
AcDbDs::HandleAttribute
280
     7
 91
        1
284
     1
  0
XRECORD
  5
3169A
102
{ACAD_REACTORS
330
24505
102
}
330
24505
100
AcDbXrecord
280
     1
102
DISPLAYNAME
  1
Metric50
102
FLAGS
 90
        0
  0
XRECORD
  5
3165F
102
{ACAD_REACTORS
330
3165E
102
}
330
3165E
100
AcDbXrecord
280
     1
102
SHADEPLOT
 70
     0
102
SHADEPLOTRESLEVEL
 70
     2
102
SHADEPLOTCUSTOMDPI
 70
   300
  0
XRECORD
  5
31661
102
{ACAD_REACTORS
330
31660
102
}
330
31660
100
AcDbXrecord
280
     1
102
SHADEPLOT
 70
     0
102
SHADEPLOTRESLEVEL
 70
     2
102
SHADEPLOTCUSTOMDPI
 70
   300
  0
XRECORD
  5
31663
102
{ACAD_REACTORS
330
1E288
102
}
330
1E288
100
AcDbXrecord
280
     1
102
MATERIAL
148
0.0
149
0.0
149
0.0
 93
        0
 94
      127
282
     0
 72
     0
 77
     0
171
     0
175
     0
179
     0
273
     0
  0
XRECORD
  5
1E28A
102
{ACAD_REACTORS
330
1E288
102
}
330
1E288
100
AcDbXrecord
280
     1
270
     1
271
     1
  0
XRECORD
  5
1E289
102
{ACAD_REACTORS
330
1E288
102
}
330
1E288
100
AcDbXrecord
280
     1
270
     1
271
     1
  0
XRECORD
  5
1E28D
102
{ACAD_REACTORS
330
1E288
102
}
330
1E288
100
AcDbXrecord
280
     1
270
     1
271
     1
  0
XRECORD
  5
1E28C
102
{ACAD_REACTORS
330
1E288
102
}
330
1E288
100
AcDbXrecord
280
     1
270
     1
271
     1
  0
XRECORD
  5
1E28E
102
{ACAD_REACTORS
330
1E288
102
}
330
1E288
100
AcDbXrecord
280
     1
270
     1
271
     1
  0
XRECORD
  5
1E28B
102
{ACAD_REACTORS
330
1E288
102
}
330
1E288
100
AcDbXrecord
280
     1
270
     1
271
     1
  0
XRECORD
  5
31662
102
{ACAD_REACTORS
330
1E280
102
}
330
1E280
100
AcDbXrecord
280
     1
102
MATERIAL
148
0.0
149
0.0
149
0.0
 93
        0
 94
      127
282
     0
 72
     0
 77
     0
171
     0
175
     0
179
     0
273
     0
  0
XRECORD
  5
1E282
102
{ACAD_REACTORS
330
1E280
102
}
330
1E280
100
AcDbXrecord
280
     1
270
     1
271
     1
  0
XRECORD
  5
1E281
102
{ACAD_REACTORS
330
1E280
102
}
330
1E280
100
AcDbXrecord
280
     1
270
     1
271
     1
  0
XRECORD
  5
1E285
102
{ACAD_REACTORS
330
1E280
102
}
330
1E280
100
AcDbXrecord
280
     1
270
     1
271
     1
  0
XRECORD
  5
1E284
102
{ACAD_REACTORS
330
1E280
102
}
330
1E280
100
AcDbXrecord
280
     1
270
     1
271
     1
  0
XRECORD
  5
1E286
102
{ACAD_REACTORS
330
1E280
102
}
330
1E280
100
AcDbXrecord
280
     1
270
     1
271
     1
  0
XRECORD
  5
1E283
102
{ACAD_REACTORS
330
1E280
102
}
330
1E280
100
AcDbXrecord
280
     1
270
     1
271
     1
  0
XRECORD
  5
31664
102
{ACAD_REACTORS
330
1E290
102
}
330
1E290
100
AcDbXrecord
280
     1
102
MATERIAL
148
0.0
149
0.0
149
0.0
 93
        0
 94
      127
282
     0
 72
     0
 77
     0
171
     0
175
     0
179
     0
273
     0
  0
XRECORD
  5
1E292
102
{ACAD_REACTORS
330
1E290
102
}
330
1E290
100
AcDbXrecord
280
     1
270
     1
271
     1
  0
XRECORD
  5
1E291
102
{ACAD_REACTORS
330
1E290
102
}
330
1E290
100
AcDbXrecord
280
     1
270
     1
271
     1
  0
XRECORD
  5
1E295
102
{ACAD_REACTORS
330
1E290
102
}
330
1E290
100
AcDbXrecord
280
     1
270
     1
271
     1
  0
XRECORD
  5
1E294
102
{ACAD_REACTORS
330
1E290
102
}
330
1E290
100
AcDbXrecord
280
     1
270
     1
271
     1
  0
XRECORD
  5
1E296
102
{ACAD_REACTORS
330
1E290
102
}
330
1E290
100
AcDbXrecord
280
     1
270
     1
271
     1
  0
XRECORD
  5
1E293
102
{ACAD_REACTORS
330
1E290
102
}
330
1E290
100
AcDbXrecord
280
     1
270
     1
271
     1
  0
XRECORD
  5
31698
102
{ACAD_REACTORS
330
31697
102
}
330
31697
100
AcDbXrecord
280
     1
102
ACAD_ROUNDTRIP_2012_MLEADER_STYLE
298
     1
  0
XRECORD
  5
31699
102
{ACAD_REACTORS
330
24503
102
}
330
24503
100
AcDbXrecord
280
     1
102
DISPLAYNAME
  1
Metric50
102
FLAGS
 90
        0
  0
CELLSTYLEMAP
  5
31653
102
{ACAD_REACTORS
330
31652
102
}
330
31652
100
AcDbCellStyleMap
 90
        3
300
CELLSTYLE
  1
TABLEFORMAT_BEGIN
 90
        5
170
     1
 91
        0
 92
    32768
 62
   257
 93
        1
300
CONTENTFORMAT
  1
CONTENTFORMAT_BEGIN
 90
        0
 91
        0
 92
      512
 93
        0
300

 40
0.0
140
1.0
 94
        5
 62
     0
340
7475
144
6.0
309
CONTENTFORMAT_END
171
     1
301
MARGIN
  1
CELLMARGIN_BEGIN
 40
1.5
 40
1.5
 40
1.5
 40
1.5
 40
4.5
 40
4.5
309
CELLMARGIN_END
 94
        6
 95
        1
302
GRIDFORMAT
  1
GRIDFORMAT_BEGIN
 90
        0
 91
        1
 62
     0
 92
       -2
340
0
 93
        0
 40
1.125
309
GRIDFORMAT_END
 95
        2
302
GRIDFORMAT
  1
GRIDFORMAT_BEGIN
 90
        0
 91
        1
 62
     0
 92
       -2
340
0
 93
        0
 40
1.125
309
GRIDFORMAT_END
 95
        4
302
GRIDFORMAT
  1
GRIDFORMAT_BEGIN
 90
        0
 91
        1
 62
     0
 92
       -2
340
0
 93
        0
 40
1.125
309
GRIDFORMAT_END
 95
        8
302
GRIDFORMAT
  1
GRIDFORMAT_BEGIN
 90
        0
 91
        1
 62
     0
 92
       -2
340
0
 93
        0
 40
1.125
309
GRIDFORMAT_END
 95
       16
302
GRIDFORMAT
  1
GRIDFORMAT_BEGIN
 90
        0
 91
        1
 62
     0
 92
       -2
340
0
 93
        0
 40
1.125
309
GRIDFORMAT_END
 95
       32
302
GRIDFORMAT
  1
GRIDFORMAT_BEGIN
 90
        0
 91
        1
 62
     0
 92
       -2
340
0
 93
        0
 40
1.125
309
GRIDFORMAT_END
309
TABLEFORMAT_END
  1
CELLSTYLE_BEGIN
 90
        1
 91
        1
300
_TITLE
309
CELLSTYLE_END
300
CELLSTYLE
  1
TABLEFORMAT_BEGIN
 90
        5
170
     1
 91
        0
 92
        0
 62
   257
 93
        1
300
CONTENTFORMAT
  1
CONTENTFORMAT_BEGIN
 90
        0
 91
        0
 92
      512
 93
        0
300

 40
0.0
140
1.0
 94
        5
 62
     0
340
7475
144
4.5
309
CONTENTFORMAT_END
171
     1
301
MARGIN
  1
CELLMARGIN_BEGIN
 40
1.5
 40
1.5
 40
1.5
 40
1.5
 40
4.5
 40
4.5
309
CELLMARGIN_END
 94
        6
 95
        1
302
GRIDFORMAT
  1
GRIDFORMAT_BEGIN
 90
        0
 91
        1
 62
     0
 92
       -2
340
0
 93
        0
 40
1.125
309
GRIDFORMAT_END
 95
        2
302
GRIDFORMAT
  1
GRIDFORMAT_BEGIN
 90
        0
 91
        1
 62
     0
 92
       -2
340
0
 93
        0
 40
1.125
309
GRIDFORMAT_END
 95
        4
302
GRIDFORMAT
  1
GRIDFORMAT_BEGIN
 90
        0
 91
        1
 62
     0
 92
       -2
340
0
 93
        0
 40
1.125
309
GRIDFORMAT_END
 95
        8
302
GRIDFORMAT
  1
GRIDFORMAT_BEGIN
 90
        0
 91
        1
 62
     0
 92
       -2
340
0
 93
        0
 40
1.125
309
GRIDFORMAT_END
 95
       16
302
GRIDFORMAT
  1
GRIDFORMAT_BEGIN
 90
        0
 91
        1
 62
     0
 92
       -2
340
0
 93
        0
 40
1.125
309
GRIDFORMAT_END
 95
       32
302
GRIDFORMAT
  1
GRIDFORMAT_BEGIN
 90
        0
 91
        1
 62
     0
 92
       -2
340
0
 93
        0
 40
1.125
309
GRIDFORMAT_END
309
TABLEFORMAT_END
  1
CELLSTYLE_BEGIN
 90
        2
 91
        1
300
_HEADER
309
CELLSTYLE_END
300
CELLSTYLE
  1
TABLEFORMAT_BEGIN
 90
        5
170
     1
 91
        0
 92
        0
 62
   257
 93
        1
300
CONTENTFORMAT
  1
CONTENTFORMAT_BEGIN
 90
        0
 91
        0
 92
      512
 93
        0
300

 40
0.0
140
1.0
 94
        2
 62
     0
340
7475
144
4.5
309
CONTENTFORMAT_END
171
     1
301
MARGIN
  1
CELLMARGIN_BEGIN
 40
1.5
 40
1.5
 40
1.5
 40
1.5
 40
4.5
 40
4.5
309
CELLMARGIN_END
 94
        6
 95
        1
302
GRIDFORMAT
  1
GRIDFORMAT_BEGIN
 90
        0
 91
        1
 62
     0
 92
       -2
340
0
 93
        0
 40
1.125
309
GRIDFORMAT_END
 95
        2
302
GRIDFORMAT
  1
GRIDFORMAT_BEGIN
 90
        0
 91
        1
 62
     0
 92
       -2
340
0
 93
        0
 40
1.125
309
GRIDFORMAT_END
 95
        4
302
GRIDFORMAT
  1
GRIDFORMAT_BEGIN
 90
        0
 91
        1
 62
     0
 92
       -2
340
0
 93
        0
 40
1.125
309
GRIDFORMAT_END
 95
        8
302
GRIDFORMAT
  1
GRIDFORMAT_BEGIN
 90
        0
 91
        1
 62
     0
 92
       -2
340
0
 93
        0
 40
1.125
309
GRIDFORMAT_END
 95
       16
302
GRIDFORMAT
  1
GRIDFORMAT_BEGIN
 90
        0
 91
        1
 62
     0
 92
       -2
340
0
 93
        0
 40
1.125
309
GRIDFORMAT_END
 95
       32
302
GRIDFORMAT
  1
GRIDFORMAT_BEGIN
 90
        0
 91
        1
 62
     0
 92
       -2
340
0
 93
        0
 40
1.125
309
GRIDFORMAT_END
309
TABLEFORMAT_END
  1
CELLSTYLE_BEGIN
 90
        3
 91
        2
300
_DATA
309
CELLSTYLE_END
  0
XRECORD
  5
31695
102
{ACAD_REACTORS
330
31652
102
}
330
31652
100
AcDbXrecord
280
     1
102
ACAD_ROUNDTRIP_PRE2007_TABLESTYLE
 90
      512
 91
        0
  1

 92
      512
 93
        0
  2

 94
      512
 95
        0
  3

  0
XRECORD
  5
31670
102
{ACAD_REACTORS
330
3166F
102
}
330
3166F
100
AcDbXrecord
280
     1
102
RTVSPost2010Prop28
280
     1
102
RTVSPost2010PropOp28
 70
     1
102
RTVSPost2010Prop29
280
     1
102
RTVSPost2010PropOp29
 70
     1
102
RTVSPost2010Prop30
280
     0
102
RTVSPost2010PropOp30
 70
     1
102
RTVSPost2010Prop31
280
     0
102
RTVSPost2010PropOp31
 70
     1
102
RTVSPost2010Prop32
280
     0
102
RTVSPost2010PropOp32
 70
     1
102
RTVSPost2010Prop33
280
     0
102
RTVSPost2010PropOp33
 70
     1
102
RTVSPost2010Prop34
280
     0
102
RTVSPost2010PropOp34
 70
     1
102
RTVSPost2010Prop35
280
     0
102
RTVSPost2010PropOp35
 70
     1
102
RTVSPost2010Prop36
280
     0
102
RTVSPost2010PropOp36
 70
     1
102
RTVSPost2010Prop37
 90
       50
102
RTVSPost2010PropOp37
 70
     1
102
RTVSPost2010Prop38
140
0.0
102
RTVSPost2010PropOp38
 70
     1
102
RTVSPost2010Prop39
140
1.0
102
RTVSPost2010PropOp39
 70
     1
102
RTVSPost2010Prop40
 90
        0
102
RTVSPost2010PropOp40
 70
     1
102
RTVSPost2010Prop41ColorIndex
 90
       18
102
RTVSPost2010Prop41ColorRGB
 90
        0
102
RTVSPost2010PropOp41
 70
     1
102
RTVSPost2010Prop42
 90
       50
102
RTVSPost2010PropOp42
 70
     1
102
RTVSPost2010Prop43
 90
        3
102
RTVSPost2010PropOp43
 70
     1
102
RTVSPost2010Prop44ColorIndex
 90
        5
102
RTVSPost2010Prop44ColorRGB
 90
      255
102
RTVSPost2010PropOp44
 70
     1
102
RTVSPost2010Prop45
280
     0
102
RTVSPost2010PropOp45
 70
     1
102
RTVSPost2010Prop46
 90
       50
102
RTVSPost2010PropOp46
 70
     1
102
RTVSPost2010Prop47
 90
       50
102
RTVSPost2010PropOp47
 70
     1
102
RTVSPost2010Prop48
 90
       50
102
RTVSPost2010PropOp48
 70
     1
102
RTVSPost2010Prop49
280
     0
102
RTVSPost2010PropOp49
 70
     1
102
RTVSPost2010Prop50
 90
       50
102
RTVSPost2010PropOp50
 70
     1
102
RTVSPost2010Prop51ColorIndex
 90
      256
102
RTVSPost2010Prop51ColorRGB
 90
-16777216
102
RTVSPost2010PropOp51
 70
     0
102
RTVSPost2010Prop52
140
1.0
102
RTVSPost2010PropOp52
 70
     0
102
RTVSPost2010Prop53
 90
        2
102
RTVSPost2010PropOp53
 70
     1
102
RTVSPost2010Prop54
  1
strokes_ogs.tif
102
RTVSPost2010PropOp54
 70
     1
102
RTVSPost2010Prop55
280
     0
102
RTVSPost2010PropOp55
 70
     1
102
RTVSPost2010Prop56
140
1.0
102
RTVSPost2010PropOp56
 70
     1
102
RTVSPost2010Prop57
140
1.0
102
RTVSPost2010PropOp57
 70
     1
102
RTVSPropertyOp0
 70
     1
102
RTVSPropertyOp1
 70
     1
102
RTVSPropertyOp2
 70
     1
102
RTVSPropertyOp3
 70
     1
102
RTVSPropertyOp4
 70
     1
102
RTVSPropertyOp5
 70
     1
102
RTVSPropertyOp6
 70
     1
102
RTVSPropertyOp7
 70
     1
102
RTVSPropertyOp8
 70
     1
102
RTVSPropertyOp9
 70
     1
102
RTVSPropertyOp10
 70
     1
102
RTVSPropertyOp11
 70
     1
102
RTVSPropertyOp12
 70
     1
102
RTVSPropertyOp13
 70
     1
102
RTVSPropertyOp14
 70
     1
102
RTVSPropertyOp15
 70
     1
102
RTVSPropertyOp16
 70
     1
102
RTVSPropertyOp17
 70
     1
102
RTVSPropertyOp18
 70
     1
102
RTVSPropertyOp19
 70
     1
102
RTVSPropertyOp20
 70
     1
102
RTVSPropertyOp21
 70
     1
102
RTVSPropertyOp22
 70
     1
102
RTVSPropertyOp23
 70
     1
102
RTVSPropertyOp24
 70
     1
102
RTVSPropertyOp25
 70
     1
102
RTVSPropertyOp26
 70
     1
102
RTVSPropertyOp27
 70
     1
102
RTVSPropertyOp28
 70
     1
102
RTVSPropertyOp29
 70
     1
102
RTVSPropertyOp30
 70
     1
102
RTVSPropertyOp31
 70
     1
102
RTVSPropertyOp32
 70
     1
102
RTVSPropertyOp33
 70
     1
102
RTVSPropertyOp34
 70
     1
102
RTVSPropertyOp35
 70
     1
102
RTVSPropertyOp36
 70
     1
102
RTVSPropertyOp37
 70
     1
102
RTVSPropertyOp38
 70
     1
102
RTVSPropertyOp39
 70
     1
102
RTVSPropertyOp40
 70
     1
102
RTVSPropertyOp41
 70
     1
102
RTVSPropertyOp42
 70
     1
102
RTVSPropertyOp43
 70
     1
102
RTVSPropertyOp44
 70
     1
102
RTVSPropertyOp45
 70
     1
102
RTVSPropertyOp46
 70
     1
102
RTVSPropertyOp47
 70
     1
102
RTVSPropertyOp48
 70
     1
102
RTVSPropertyOp49
 70
     1
102
RTVSPropertyOp50
 70
     1
102
RTVSPropertyOp51
 70
     0
102
RTVSPropertyOp52
 70
     0
102
RTVSPropertyOp53
 70
     1
102
RTVSPropertyOp54
 70
     1
102
RTVSPropertyOp55
 70
     1
102
RTVSPropertyOp56
 70
     1
102
RTVSPropertyOp57
 70
     1
102
RTVSPropertyOp58
 70
     1
102
RTVSPropertyOp59
 70
     1
102
RTVSPropertyOp60
 70
     1
102
RTVSPropertyOp61
 70
     1
102
RTVSPropertyOp62
 70
     1
  0
XRECORD
  5
3166E
102
{ACAD_REACTORS
330
3166D
102
}
330
3166D
100
AcDbXrecord
280
     1
102
RTVSPost2010Prop28
280
     0
102
RTVSPost2010PropOp28
 70
     1
102
RTVSPost2010Prop29
280
     1
102
RTVSPost2010PropOp29
 70
     1
102
RTVSPost2010Prop30
280
     1
102
RTVSPost2010PropOp30
 70
     1
102
RTVSPost2010Prop31
280
     0
102
RTVSPost2010PropOp31
 70
     1
102
RTVSPost2010Prop32
280
     0
102
RTVSPost2010PropOp32
 70
     1
102
RTVSPost2010Prop33
280
     0
102
RTVSPost2010PropOp33
 70
     1
102
RTVSPost2010Prop34
280
     0
102
RTVSPost2010PropOp34
 70
     1
102
RTVSPost2010Prop35
280
     0
102
RTVSPost2010PropOp35
 70
     1
102
RTVSPost2010Prop36
280
     0
102
RTVSPost2010PropOp36
 70
     1
102
RTVSPost2010Prop37
 90
       50
102
RTVSPost2010PropOp37
 70
     1
102
RTVSPost2010Prop38
140
0.0
102
RTVSPost2010PropOp38
 70
     1
102
RTVSPost2010Prop39
140
1.0
102
RTVSPost2010PropOp39
 70
     1
102
RTVSPost2010Prop40
 90
        0
102
RTVSPost2010PropOp40
 70
     1
102
RTVSPost2010Prop41ColorIndex
 90
       18
102
RTVSPost2010Prop41ColorRGB
 90
        0
102
RTVSPost2010PropOp41
 70
     1
102
RTVSPost2010Prop42
 90
       50
102
RTVSPost2010PropOp42
 70
     1
102
RTVSPost2010Prop43
 90
        3
102
RTVSPost2010PropOp43
 70
     1
102
RTVSPost2010Prop44ColorIndex
 90
        5
102
RTVSPost2010Prop44ColorRGB
 90
      255
102
RTVSPost2010PropOp44
 70
     1
102
RTVSPost2010Prop45
280
     0
102
RTVSPost2010PropOp45
 70
     1
102
RTVSPost2010Prop46
 90
       50
102
RTVSPost2010PropOp46
 70
     1
102
RTVSPost2010Prop47
 90
       50
102
RTVSPost2010PropOp47
 70
     1
102
RTVSPost2010Prop48
 90
       50
102
RTVSPost2010PropOp48
 70
     1
102
RTVSPost2010Prop49
280
     0
102
RTVSPost2010PropOp49
 70
     1
102
RTVSPost2010Prop50
 90
       50
102
RTVSPost2010PropOp50
 70
     1
102
RTVSPost2010Prop51ColorIndex
 90
      256
102
RTVSPost2010Prop51ColorRGB
 90
-16777216
102
RTVSPost2010PropOp51
 70
     0
102
RTVSPost2010Prop52
140
1.0
102
RTVSPost2010PropOp52
 70
     0
102
RTVSPost2010Prop53
 90
        2
102
RTVSPost2010PropOp53
 70
     1
102
RTVSPost2010Prop54
  1
strokes_ogs.tif
102
RTVSPost2010PropOp54
 70
     1
102
RTVSPost2010Prop55
280
     0
102
RTVSPost2010PropOp55
 70
     1
102
RTVSPost2010Prop56
140
1.0
102
RTVSPost2010PropOp56
 70
     1
102
RTVSPost2010Prop57
140
1.0
102
RTVSPost2010PropOp57
 70
     1
102
RTVSPropertyOp0
 70
     1
102
RTVSPropertyOp1
 70
     1
102
RTVSPropertyOp2
 70
     1
102
RTVSPropertyOp3
 70
     1
102
RTVSPropertyOp4
 70
     1
102
RTVSPropertyOp5
 70
     1
102
RTVSPropertyOp6
 70
     1
102
RTVSPropertyOp7
 70
     1
102
RTVSPropertyOp8
 70
     1
102
RTVSPropertyOp9
 70
     1
102
RTVSPropertyOp10
 70
     1
102
RTVSPropertyOp11
 70
     1
102
RTVSPropertyOp12
 70
     1
102
RTVSPropertyOp13
 70
     1
102
RTVSPropertyOp14
 70
     1
102
RTVSPropertyOp15
 70
     1
102
RTVSPropertyOp16
 70
     1
102
RTVSPropertyOp17
 70
     1
102
RTVSPropertyOp18
 70
     1
102
RTVSPropertyOp19
 70
     1
102
RTVSPropertyOp20
 70
     1
102
RTVSPropertyOp21
 70
     1
102
RTVSPropertyOp22
 70
     1
102
RTVSPropertyOp23
 70
     1
102
RTVSPropertyOp24
 70
     1
102
RTVSPropertyOp25
 70
     1
102
RTVSPropertyOp26
 70
     1
102
RTVSPropertyOp27
 70
     1
102
RTVSPropertyOp28
 70
     1
102
RTVSPropertyOp29
 70
     1
102
RTVSPropertyOp30
 70
     1
102
RTVSPropertyOp31
 70
     1
102
RTVSPropertyOp32
 70
     1
102
RTVSPropertyOp33
 70
     1
102
RTVSPropertyOp34
 70
     1
102
RTVSPropertyOp35
 70
     1
102
RTVSPropertyOp36
 70
     1
102
RTVSPropertyOp37
 70
     1
102
RTVSPropertyOp38
 70
     1
102
RTVSPropertyOp39
 70
     1
102
RTVSPropertyOp40
 70
     1
102
RTVSPropertyOp41
 70
     1
102
RTVSPropertyOp42
 70
     1
102
RTVSPropertyOp43
 70
     1
102
RTVSPropertyOp44
 70
     1
102
RTVSPropertyOp45
 70
     1
102
RTVSPropertyOp46
 70
     1
102
RTVSPropertyOp47
 70
     1
102
RTVSPropertyOp48
 70
     1
102
RTVSPropertyOp49
 70
     1
102
RTVSPropertyOp50
 70
     1
102
RTVSPropertyOp51
 70
     0
102
RTVSPropertyOp52
 70
     0
102
RTVSPropertyOp53
 70
     1
102
RTVSPropertyOp54
 70
     1
102
RTVSPropertyOp55
 70
     1
102
RTVSPropertyOp56
 70
     1
102
RTVSPropertyOp57
 70
     1
102
RTVSPropertyOp58
 70
     1
102
RTVSPropertyOp59
 70
     1
102
RTVSPropertyOp60
 70
     1
102
RTVSPropertyOp61
 70
     1
102
RTVSPropertyOp62
 70
     1
  0
XRECORD
  5
3167C
102
{ACAD_REACTORS
330
3167B
102
}
330
3167B
100
AcDbXrecord
280
     1
102
RTVSPost2010Prop28
280
     0
102
RTVSPost2010PropOp28
 70
     1
102
RTVSPost2010Prop29
280
     1
102
RTVSPost2010PropOp29
 70
     1
102
RTVSPost2010Prop30
280
     1
102
RTVSPost2010PropOp30
 70
     1
102
RTVSPost2010Prop31
280
     0
102
RTVSPost2010PropOp31
 70
     1
102
RTVSPost2010Prop32
280
     0
102
RTVSPost2010PropOp32
 70
     1
102
RTVSPost2010Prop33
280
     0
102
RTVSPost2010PropOp33
 70
     1
102
RTVSPost2010Prop34
280
     0
102
RTVSPost2010PropOp34
 70
     1
102
RTVSPost2010Prop35
280
     0
102
RTVSPost2010PropOp35
 70
     1
102
RTVSPost2010Prop36
280
     0
102
RTVSPost2010PropOp36
 70
     1
102
RTVSPost2010Prop37
 90
       50
102
RTVSPost2010PropOp37
 70
     1
102
RTVSPost2010Prop38
140
0.0
102
RTVSPost2010PropOp38
 70
     1
102
RTVSPost2010Prop39
140
1.0
102
RTVSPost2010PropOp39
 70
     1
102
RTVSPost2010Prop40
 90
        0
102
RTVSPost2010PropOp40
 70
     1
102
RTVSPost2010Prop41ColorIndex
 90
       18
102
RTVSPost2010Prop41ColorRGB
 90
        0
102
RTVSPost2010PropOp41
 70
     1
102
RTVSPost2010Prop42
 90
       50
102
RTVSPost2010PropOp42
 70
     1
102
RTVSPost2010Prop43
 90
        3
102
RTVSPost2010PropOp43
 70
     1
102
RTVSPost2010Prop44ColorIndex
 90
        5
102
RTVSPost2010Prop44ColorRGB
 90
      255
102
RTVSPost2010PropOp44
 70
     1
102
RTVSPost2010Prop45
280
     0
102
RTVSPost2010PropOp45
 70
     1
102
RTVSPost2010Prop46
 90
       50
102
RTVSPost2010PropOp46
 70
     1
102
RTVSPost2010Prop47
 90
       50
102
RTVSPost2010PropOp47
 70
     1
102
RTVSPost2010Prop48
 90
       50
102
RTVSPost2010PropOp48
 70
     1
102
RTVSPost2010Prop49
280
     0
102
RTVSPost2010PropOp49
 70
     1
102
RTVSPost2010Prop50
 90
       50
102
RTVSPost2010PropOp50
 70
     1
102
RTVSPost2010Prop51ColorIndex
 90
      256
102
RTVSPost2010Prop51ColorRGB
 90
-16777216
102
RTVSPost2010PropOp51
 70
     0
102
RTVSPost2010Prop52
140
1.0
102
RTVSPost2010PropOp52
 70
     0
102
RTVSPost2010Prop53
 90
        2
102
RTVSPost2010PropOp53
 70
     1
102
RTVSPost2010Prop54
  1
strokes_ogs.tif
102
RTVSPost2010PropOp54
 70
     1
102
RTVSPost2010Prop55
280
     0
102
RTVSPost2010PropOp55
 70
     1
102
RTVSPost2010Prop56
140
1.0
102
RTVSPost2010PropOp56
 70
     1
102
RTVSPost2010Prop57
140
1.0
102
RTVSPost2010PropOp57
 70
     1
102
RTVSPropertyOp0
 70
     1
102
RTVSPropertyOp1
 70
     1
102
RTVSPropertyOp2
 70
     1
102
RTVSPropertyOp3
 70
     1
102
RTVSPropertyOp4
 70
     1
102
RTVSPropertyOp5
 70
     1
102
RTVSPropertyOp6
 70
     1
102
RTVSPropertyOp7
 70
     1
102
RTVSPropertyOp8
 70
     1
102
RTVSPropertyOp9
 70
     1
102
RTVSPropertyOp10
 70
     1
102
RTVSPropertyOp11
 70
     1
102
RTVSPropertyOp12
 70
     1
102
RTVSPropertyOp13
 70
     1
102
RTVSPropertyOp14
 70
     1
102
RTVSPropertyOp15
 70
     1
102
RTVSPropertyOp16
 70
     1
102
RTVSPropertyOp17
 70
     1
102
RTVSPropertyOp18
 70
     1
102
RTVSPropertyOp19
 70
     1
102
RTVSPropertyOp20
 70
     1
102
RTVSPropertyOp21
 70
     1
102
RTVSPropertyOp22
 70
     1
102
RTVSPropertyOp23
 70
     1
102
RTVSPropertyOp24
 70
     1
102
RTVSPropertyOp25
 70
     1
102
RTVSPropertyOp26
 70
     1
102
RTVSPropertyOp27
 70
     1
102
RTVSPropertyOp28
 70
     1
102
RTVSPropertyOp29
 70
     1
102
RTVSPropertyOp30
 70
     1
102
RTVSPropertyOp31
 70
     1
102
RTVSPropertyOp32
 70
     1
102
RTVSPropertyOp33
 70
     1
102
RTVSPropertyOp34
 70
     1
102
RTVSPropertyOp35
 70
     1
102
RTVSPropertyOp36
 70
     1
102
RTVSPropertyOp37
 70
     1
102
RTVSPropertyOp38
 70
     1
102
RTVSPropertyOp39
 70
     1
102
RTVSPropertyOp40
 70
     1
102
RTVSPropertyOp41
 70
     1
102
RTVSPropertyOp42
 70
     1
102
RTVSPropertyOp43
 70
     1
102
RTVSPropertyOp44
 70
     1
102
RTVSPropertyOp45
 70
     1
102
RTVSPropertyOp46
 70
     1
102
RTVSPropertyOp47
 70
     1
102
RTVSPropertyOp48
 70
     1
102
RTVSPropertyOp49
 70
     1
102
RTVSPropertyOp50
 70
     1
102
RTVSPropertyOp51
 70
     0
102
RTVSPropertyOp52
 70
     0
102
RTVSPropertyOp53
 70
     1
102
RTVSPropertyOp54
 70
     1
102
RTVSPropertyOp55
 70
     1
102
RTVSPropertyOp56
 70
     1
102
RTVSPropertyOp57
 70
     1
102
RTVSPropertyOp58
 70
     1
102
RTVSPropertyOp59
 70
     1
102
RTVSPropertyOp60
 70
     1
102
RTVSPropertyOp61
 70
     1
102
RTVSPropertyOp62
 70
     1
  0
XRECORD
  5
31684
102
{ACAD_REACTORS
330
31683
102
}
330
31683
100
AcDbXrecord
280
     1
102
RTVSPost2010Prop28
280
     0
102
RTVSPost2010PropOp28
 70
     1
102
RTVSPost2010Prop29
280
     1
102
RTVSPost2010PropOp29
 70
     1
102
RTVSPost2010Prop30
280
     1
102
RTVSPost2010PropOp30
 70
     1
102
RTVSPost2010Prop31
280
     0
102
RTVSPost2010PropOp31
 70
     1
102
RTVSPost2010Prop32
280
     0
102
RTVSPost2010PropOp32
 70
     1
102
RTVSPost2010Prop33
280
     0
102
RTVSPost2010PropOp33
 70
     1
102
RTVSPost2010Prop34
280
     0
102
RTVSPost2010PropOp34
 70
     1
102
RTVSPost2010Prop35
280
     0
102
RTVSPost2010PropOp35
 70
     1
102
RTVSPost2010Prop36
280
     0
102
RTVSPost2010PropOp36
 70
     1
102
RTVSPost2010Prop37
 90
       50
102
RTVSPost2010PropOp37
 70
     1
102
RTVSPost2010Prop38
140
0.0
102
RTVSPost2010PropOp38
 70
     1
102
RTVSPost2010Prop39
140
1.0
102
RTVSPost2010PropOp39
 70
     1
102
RTVSPost2010Prop40
 90
        0
102
RTVSPost2010PropOp40
 70
     1
102
RTVSPost2010Prop41ColorIndex
 90
       18
102
RTVSPost2010Prop41ColorRGB
 90
        0
102
RTVSPost2010PropOp41
 70
     1
102
RTVSPost2010Prop42
 90
       50
102
RTVSPost2010PropOp42
 70
     1
102
RTVSPost2010Prop43
 90
        3
102
RTVSPost2010PropOp43
 70
     1
102
RTVSPost2010Prop44ColorIndex
 90
        5
102
RTVSPost2010Prop44ColorRGB
 90
      255
102
RTVSPost2010PropOp44
 70
     1
102
RTVSPost2010Prop45
280
     0
102
RTVSPost2010PropOp45
 70
     1
102
RTVSPost2010Prop46
 90
       50
102
RTVSPost2010PropOp46
 70
     1
102
RTVSPost2010Prop47
 90
       50
102
RTVSPost2010PropOp47
 70
     1
102
RTVSPost2010Prop48
 90
       50
102
RTVSPost2010PropOp48
 70
     1
102
RTVSPost2010Prop49
280
     0
102
RTVSPost2010PropOp49
 70
     1
102
RTVSPost2010Prop50
 90
       50
102
RTVSPost2010PropOp50
 70
     1
102
RTVSPost2010Prop51ColorIndex
 90
      256
102
RTVSPost2010Prop51ColorRGB
 90
-16777216
102
RTVSPost2010PropOp51
 70
     0
102
RTVSPost2010Prop52
140
1.0
102
RTVSPost2010PropOp52
 70
     0
102
RTVSPost2010Prop53
 90
        2
102
RTVSPost2010PropOp53
 70
     1
102
RTVSPost2010Prop54
  1
strokes_ogs.tif
102
RTVSPost2010PropOp54
 70
     1
102
RTVSPost2010Prop55
280
     0
102
RTVSPost2010PropOp55
 70
     1
102
RTVSPost2010Prop56
140
1.0
102
RTVSPost2010PropOp56
 70
     1
102
RTVSPost2010Prop57
140
1.0
102
RTVSPost2010PropOp57
 70
     1
102
RTVSPropertyOp0
 70
     1
102
RTVSPropertyOp1
 70
     1
102
RTVSPropertyOp2
 70
     1
102
RTVSPropertyOp3
 70
     1
102
RTVSPropertyOp4
 70
     1
102
RTVSPropertyOp5
 70
     1
102
RTVSPropertyOp6
 70
     1
102
RTVSPropertyOp7
 70
     1
102
RTVSPropertyOp8
 70
     1
102
RTVSPropertyOp9
 70
     1
102
RTVSPropertyOp10
 70
     1
102
RTVSPropertyOp11
 70
     1
102
RTVSPropertyOp12
 70
     1
102
RTVSPropertyOp13
 70
     1
102
RTVSPropertyOp14
 70
     1
102
RTVSPropertyOp15
 70
     1
102
RTVSPropertyOp16
 70
     1
102
RTVSPropertyOp17
 70
     1
102
RTVSPropertyOp18
 70
     1
102
RTVSPropertyOp19
 70
     1
102
RTVSPropertyOp20
 70
     1
102
RTVSPropertyOp21
 70
     1
102
RTVSPropertyOp22
 70
     1
102
RTVSPropertyOp23
 70
     1
102
RTVSPropertyOp24
 70
     1
102
RTVSPropertyOp25
 70
     1
102
RTVSPropertyOp26
 70
     1
102
RTVSPropertyOp27
 70
     1
102
RTVSPropertyOp28
 70
     1
102
RTVSPropertyOp29
 70
     1
102
RTVSPropertyOp30
 70
     1
102
RTVSPropertyOp31
 70
     1
102
RTVSPropertyOp32
 70
     1
102
RTVSPropertyOp33
 70
     1
102
RTVSPropertyOp34
 70
     1
102
RTVSPropertyOp35
 70
     1
102
RTVSPropertyOp36
 70
     1
102
RTVSPropertyOp37
 70
     1
102
RTVSPropertyOp38
 70
     1
102
RTVSPropertyOp39
 70
     1
102
RTVSPropertyOp40
 70
     1
102
RTVSPropertyOp41
 70
     1
102
RTVSPropertyOp42
 70
     1
102
RTVSPropertyOp43
 70
     1
102
RTVSPropertyOp44
 70
     1
102
RTVSPropertyOp45
 70
     1
102
RTVSPropertyOp46
 70
     1
102
RTVSPropertyOp47
 70
     1
102
RTVSPropertyOp48
 70
     1
102
RTVSPropertyOp49
 70
     1
102
RTVSPropertyOp50
 70
     1
102
RTVSPropertyOp51
 70
     0
102
RTVSPropertyOp52
 70
     0
102
RTVSPropertyOp53
 70
     1
102
RTVSPropertyOp54
 70
     1
102
RTVSPropertyOp55
 70
     1
102
RTVSPropertyOp56
 70
     1
102
RTVSPropertyOp57
 70
     1
102
RTVSPropertyOp58
 70
     1
102
RTVSPropertyOp59
 70
     1
102
RTVSPropertyOp60
 70
     1
102
RTVSPropertyOp61
 70
     1
102
RTVSPropertyOp62
 70
     1
  0
XRECORD
  5
31676
102
{ACAD_REACTORS
330
31675
102
}
330
31675
100
AcDbXrecord
280
     1
102
RTVSPost2010Prop28
280
     0
102
RTVSPost2010PropOp28
 70
     1
102
RTVSPost2010Prop29
280
     1
102
RTVSPost2010PropOp29
 70
     1
102
RTVSPost2010Prop30
280
     1
102
RTVSPost2010PropOp30
 70
     1
102
RTVSPost2010Prop31
280
     0
102
RTVSPost2010PropOp31
 70
     1
102
RTVSPost2010Prop32
280
     0
102
RTVSPost2010PropOp32
 70
     1
102
RTVSPost2010Prop33
280
     0
102
RTVSPost2010PropOp33
 70
     1
102
RTVSPost2010Prop34
280
     0
102
RTVSPost2010PropOp34
 70
     1
102
RTVSPost2010Prop35
280
     0
102
RTVSPost2010PropOp35
 70
     1
102
RTVSPost2010Prop36
280
     0
102
RTVSPost2010PropOp36
 70
     1
102
RTVSPost2010Prop37
 90
       50
102
RTVSPost2010PropOp37
 70
     1
102
RTVSPost2010Prop38
140
0.0
102
RTVSPost2010PropOp38
 70
     1
102
RTVSPost2010Prop39
140
1.0
102
RTVSPost2010PropOp39
 70
     1
102
RTVSPost2010Prop40
 90
        0
102
RTVSPost2010PropOp40
 70
     1
102
RTVSPost2010Prop41ColorIndex
 90
       18
102
RTVSPost2010Prop41ColorRGB
 90
        0
102
RTVSPost2010PropOp41
 70
     1
102
RTVSPost2010Prop42
 90
       50
102
RTVSPost2010PropOp42
 70
     1
102
RTVSPost2010Prop43
 90
        3
102
RTVSPost2010PropOp43
 70
     1
102
RTVSPost2010Prop44ColorIndex
 90
        5
102
RTVSPost2010Prop44ColorRGB
 90
      255
102
RTVSPost2010PropOp44
 70
     1
102
RTVSPost2010Prop45
280
     0
102
RTVSPost2010PropOp45
 70
     1
102
RTVSPost2010Prop46
 90
       50
102
RTVSPost2010PropOp46
 70
     1
102
RTVSPost2010Prop47
 90
       50
102
RTVSPost2010PropOp47
 70
     1
102
RTVSPost2010Prop48
 90
       50
102
RTVSPost2010PropOp48
 70
     1
102
RTVSPost2010Prop49
280
     0
102
RTVSPost2010PropOp49
 70
     1
102
RTVSPost2010Prop50
 90
       50
102
RTVSPost2010PropOp50
 70
     1
102
RTVSPost2010Prop51ColorIndex
 90
      256
102
RTVSPost2010Prop51ColorRGB
 90
-16777216
102
RTVSPost2010PropOp51
 70
     0
102
RTVSPost2010Prop52
140
1.0
102
RTVSPost2010PropOp52
 70
     0
102
RTVSPost2010Prop53
 90
        2
102
RTVSPost2010PropOp53
 70
     1
102
RTVSPost2010Prop54
  1
strokes_ogs.tif
102
RTVSPost2010PropOp54
 70
     1
102
RTVSPost2010Prop55
280
     0
102
RTVSPost2010PropOp55
 70
     1
102
RTVSPost2010Prop56
140
1.0
102
RTVSPost2010PropOp56
 70
     1
102
RTVSPost2010Prop57
140
1.0
102
RTVSPost2010PropOp57
 70
     1
102
RTVSPropertyOp0
 70
     1
102
RTVSPropertyOp1
 70
     1
102
RTVSPropertyOp2
 70
     1
102
RTVSPropertyOp3
 70
     1
102
RTVSPropertyOp4
 70
     1
102
RTVSPropertyOp5
 70
     1
102
RTVSPropertyOp6
 70
     1
102
RTVSPropertyOp7
 70
     1
102
RTVSPropertyOp8
 70
     1
102
RTVSPropertyOp9
 70
     1
102
RTVSPropertyOp10
 70
     1
102
RTVSPropertyOp11
 70
     1
102
RTVSPropertyOp12
 70
     1
102
RTVSPropertyOp13
 70
     1
102
RTVSPropertyOp14
 70
     1
102
RTVSPropertyOp15
 70
     1
102
RTVSPropertyOp16
 70
     1
102
RTVSPropertyOp17
 70
     1
102
RTVSPropertyOp18
 70
     1
102
RTVSPropertyOp19
 70
     1
102
RTVSPropertyOp20
 70
     1
102
RTVSPropertyOp21
 70
     1
102
RTVSPropertyOp22
 70
     1
102
RTVSPropertyOp23
 70
     1
102
RTVSPropertyOp24
 70
     1
102
RTVSPropertyOp25
 70
     1
102
RTVSPropertyOp26
 70
     1
102
RTVSPropertyOp27
 70
     1
102
RTVSPropertyOp28
 70
     1
102
RTVSPropertyOp29
 70
     1
102
RTVSPropertyOp30
 70
     1
102
RTVSPropertyOp31
 70
     1
102
RTVSPropertyOp32
 70
     1
102
RTVSPropertyOp33
 70
     1
102
RTVSPropertyOp34
 70
     1
102
RTVSPropertyOp35
 70
     1
102
RTVSPropertyOp36
 70
     1
102
RTVSPropertyOp37
 70
     1
102
RTVSPropertyOp38
 70
     1
102
RTVSPropertyOp39
 70
     1
102
RTVSPropertyOp40
 70
     1
102
RTVSPropertyOp41
 70
     1
102
RTVSPropertyOp42
 70
     1
102
RTVSPropertyOp43
 70
     1
102
RTVSPropertyOp44
 70
     1
102
RTVSPropertyOp45
 70
     1
102
RTVSPropertyOp46
 70
     1
102
RTVSPropertyOp47
 70
     1
102
RTVSPropertyOp48
 70
     1
102
RTVSPropertyOp49
 70
     1
102
RTVSPropertyOp50
 70
     1
102
RTVSPropertyOp51
 70
     0
102
RTVSPropertyOp52
 70
     0
102
RTVSPropertyOp53
 70
     1
102
RTVSPropertyOp54
 70
     1
102
RTVSPropertyOp55
 70
     1
102
RTVSPropertyOp56
 70
     1
102
RTVSPropertyOp57
 70
     1
102
RTVSPropertyOp58
 70
     1
102
RTVSPropertyOp59
 70
     1
102
RTVSPropertyOp60
 70
     1
102
RTVSPropertyOp61
 70
     1
102
RTVSPropertyOp62
 70
     1
  0
XRECORD
  5
3167A
102
{ACAD_REACTORS
330
31679
102
}
330
31679
100
AcDbXrecord
280
     1
102
RTVSPost2010Prop28
280
     0
102
RTVSPost2010PropOp28
 70
     1
102
RTVSPost2010Prop29
280
     1
102
RTVSPost2010PropOp29
 70
     1
102
RTVSPost2010Prop30
280
     1
102
RTVSPost2010PropOp30
 70
     1
102
RTVSPost2010Prop31
280
     0
102
RTVSPost2010PropOp31
 70
     1
102
RTVSPost2010Prop32
280
     0
102
RTVSPost2010PropOp32
 70
     1
102
RTVSPost2010Prop33
280
     0
102
RTVSPost2010PropOp33
 70
     1
102
RTVSPost2010Prop34
280
     0
102
RTVSPost2010PropOp34
 70
     1
102
RTVSPost2010Prop35
280
     0
102
RTVSPost2010PropOp35
 70
     1
102
RTVSPost2010Prop36
280
     0
102
RTVSPost2010PropOp36
 70
     1
102
RTVSPost2010Prop37
 90
       50
102
RTVSPost2010PropOp37
 70
     1
102
RTVSPost2010Prop38
140
0.0
102
RTVSPost2010PropOp38
 70
     1
102
RTVSPost2010Prop39
140
1.0
102
RTVSPost2010PropOp39
 70
     1
102
RTVSPost2010Prop40
 90
        0
102
RTVSPost2010PropOp40
 70
     1
102
RTVSPost2010Prop41ColorIndex
 90
       18
102
RTVSPost2010Prop41ColorRGB
 90
        0
102
RTVSPost2010PropOp41
 70
     1
102
RTVSPost2010Prop42
 90
       50
102
RTVSPost2010PropOp42
 70
     1
102
RTVSPost2010Prop43
 90
        3
102
RTVSPost2010PropOp43
 70
     1
102
RTVSPost2010Prop44ColorIndex
 90
        5
102
RTVSPost2010Prop44ColorRGB
 90
      255
102
RTVSPost2010PropOp44
 70
     1
102
RTVSPost2010Prop45
280
     0
102
RTVSPost2010PropOp45
 70
     1
102
RTVSPost2010Prop46
 90
       50
102
RTVSPost2010PropOp46
 70
     1
102
RTVSPost2010Prop47
 90
       50
102
RTVSPost2010PropOp47
 70
     1
102
RTVSPost2010Prop48
 90
       50
102
RTVSPost2010PropOp48
 70
     1
102
RTVSPost2010Prop49
280
     0
102
RTVSPost2010PropOp49
 70
     1
102
RTVSPost2010Prop50
 90
       50
102
RTVSPost2010PropOp50
 70
     1
102
RTVSPost2010Prop51ColorIndex
 90
      256
102
RTVSPost2010Prop51ColorRGB
 90
-16777216
102
RTVSPost2010PropOp51
 70
     0
102
RTVSPost2010Prop52
140
1.0
102
RTVSPost2010PropOp52
 70
     0
102
RTVSPost2010Prop53
 90
        2
102
RTVSPost2010PropOp53
 70
     1
102
RTVSPost2010Prop54
  1
strokes_ogs.tif
102
RTVSPost2010PropOp54
 70
     1
102
RTVSPost2010Prop55
280
     0
102
RTVSPost2010PropOp55
 70
     1
102
RTVSPost2010Prop56
140
1.0
102
RTVSPost2010PropOp56
 70
     1
102
RTVSPost2010Prop57
140
1.0
102
RTVSPost2010PropOp57
 70
     1
102
RTVSPropertyOp0
 70
     1
102
RTVSPropertyOp1
 70
     1
102
RTVSPropertyOp2
 70
     1
102
RTVSPropertyOp3
 70
     1
102
RTVSPropertyOp4
 70
     1
102
RTVSPropertyOp5
 70
     1
102
RTVSPropertyOp6
 70
     1
102
RTVSPropertyOp7
 70
     1
102
RTVSPropertyOp8
 70
     1
102
RTVSPropertyOp9
 70
     1
102
RTVSPropertyOp10
 70
     1
102
RTVSPropertyOp11
 70
     1
102
RTVSPropertyOp12
 70
     1
102
RTVSPropertyOp13
 70
     1
102
RTVSPropertyOp14
 70
     1
102
RTVSPropertyOp15
 70
     1
102
RTVSPropertyOp16
 70
     1
102
RTVSPropertyOp17
 70
     1
102
RTVSPropertyOp18
 70
     1
102
RTVSPropertyOp19
 70
     1
102
RTVSPropertyOp20
 70
     1
102
RTVSPropertyOp21
 70
     1
102
RTVSPropertyOp22
 70
     1
102
RTVSPropertyOp23
 70
     1
102
RTVSPropertyOp24
 70
     1
102
RTVSPropertyOp25
 70
     1
102
RTVSPropertyOp26
 70
     1
102
RTVSPropertyOp27
 70
     1
102
RTVSPropertyOp28
 70
     1
102
RTVSPropertyOp29
 70
     1
102
RTVSPropertyOp30
 70
     1
102
RTVSPropertyOp31
 70
     1
102
RTVSPropertyOp32
 70
     1
102
RTVSPropertyOp33
 70
     1
102
RTVSPropertyOp34
 70
     1
102
RTVSPropertyOp35
 70
     1
102
RTVSPropertyOp36
 70
     1
102
RTVSPropertyOp37
 70
     1
102
RTVSPropertyOp38
 70
     1
102
RTVSPropertyOp39
 70
     1
102
RTVSPropertyOp40
 70
     1
102
RTVSPropertyOp41
 70
     1
102
RTVSPropertyOp42
 70
     1
102
RTVSPropertyOp43
 70
     1
102
RTVSPropertyOp44
 70
     1
102
RTVSPropertyOp45
 70
     1
102
RTVSPropertyOp46
 70
     1
102
RTVSPropertyOp47
 70
     1
102
RTVSPropertyOp48
 70
     1
102
RTVSPropertyOp49
 70
     1
102
RTVSPropertyOp50
 70
     1
102
RTVSPropertyOp51
 70
     0
102
RTVSPropertyOp52
 70
     0
102
RTVSPropertyOp53
 70
     1
102
RTVSPropertyOp54
 70
     1
102
RTVSPropertyOp55
 70
     1
102
RTVSPropertyOp56
 70
     1
102
RTVSPropertyOp57
 70
     1
102
RTVSPropertyOp58
 70
     1
102
RTVSPropertyOp59
 70
     1
102
RTVSPropertyOp60
 70
     1
102
RTVSPropertyOp61
 70
     1
102
RTVSPropertyOp62
 70
     1
  0
XRECORD
  5
31694
102
{ACAD_REACTORS
330
31693
102
}
330
31693
100
AcDbXrecord
280
     1
102
RTVSPost2010Prop28
280
     0
102
RTVSPost2010PropOp28
 70
     0
102
RTVSPost2010Prop29
280
     1
102
RTVSPost2010PropOp29
 70
     0
102
RTVSPost2010Prop30
280
     1
102
RTVSPost2010PropOp30
 70
     0
102
RTVSPost2010Prop31
280
     0
102
RTVSPost2010PropOp31
 70
     0
102
RTVSPost2010Prop32
280
     0
102
RTVSPost2010PropOp32
 70
     0
102
RTVSPost2010Prop33
280
     0
102
RTVSPost2010PropOp33
 70
     0
102
RTVSPost2010Prop34
280
     0
102
RTVSPost2010PropOp34
 70
     0
102
RTVSPost2010Prop35
280
     0
102
RTVSPost2010PropOp35
 70
     0
102
RTVSPost2010Prop36
280
     0
102
RTVSPost2010PropOp36
 70
     0
102
RTVSPost2010Prop37
 90
       50
102
RTVSPost2010PropOp37
 70
     0
102
RTVSPost2010Prop38
140
0.0
102
RTVSPost2010PropOp38
 70
     0
102
RTVSPost2010Prop39
140
1.0
102
RTVSPost2010PropOp39
 70
     0
102
RTVSPost2010Prop40
 90
        0
102
RTVSPost2010PropOp40
 70
     0
102
RTVSPost2010Prop41ColorIndex
 90
       18
102
RTVSPost2010Prop41ColorRGB
 90
        0
102
RTVSPost2010PropOp41
 70
     0
102
RTVSPost2010Prop42
 90
       50
102
RTVSPost2010PropOp42
 70
     0
102
RTVSPost2010Prop43
 90
        3
102
RTVSPost2010PropOp43
 70
     0
102
RTVSPost2010Prop44ColorIndex
 90
        5
102
RTVSPost2010Prop44ColorRGB
 90
      255
102
RTVSPost2010PropOp44
 70
     0
102
RTVSPost2010Prop45
280
     0
102
RTVSPost2010PropOp45
 70
     0
102
RTVSPost2010Prop46
 90
       50
102
RTVSPost2010PropOp46
 70
     0
102
RTVSPost2010Prop47
 90
       50
102
RTVSPost2010PropOp47
 70
     0
102
RTVSPost2010Prop48
 90
       50
102
RTVSPost2010PropOp48
 70
     0
102
RTVSPost2010Prop49
280
     0
102
RTVSPost2010PropOp49
 70
     0
102
RTVSPost2010Prop50
 90
       50
102
RTVSPost2010PropOp50
 70
     0
102
RTVSPost2010Prop51ColorIndex
 90
      256
102
RTVSPost2010Prop51ColorRGB
 90
-16777216
102
RTVSPost2010PropOp51
 70
     0
102
RTVSPost2010Prop52
140
1.0
102
RTVSPost2010PropOp52
 70
     0
102
RTVSPost2010Prop53
 90
        2
102
RTVSPost2010PropOp53
 70
     0
102
RTVSPost2010Prop54
  1
strokes_ogs.tif
102
RTVSPost2010PropOp54
 70
     0
102
RTVSPost2010Prop55
280
     0
102
RTVSPost2010PropOp55
 70
     0
102
RTVSPost2010Prop56
140
1.0
102
RTVSPost2010PropOp56
 70
     0
102
RTVSPost2010Prop57
140
1.0
102
RTVSPost2010PropOp57
 70
     0
102
RTVSPropertyOp0
 70
     0
102
RTVSPropertyOp1
 70
     0
102
RTVSPropertyOp2
 70
     0
102
RTVSPropertyOp3
 70
     0
102
RTVSPropertyOp4
 70
     0
102
RTVSPropertyOp5
 70
     0
102
RTVSPropertyOp6
 70
     0
102
RTVSPropertyOp7
 70
     0
102
RTVSPropertyOp8
 70
     0
102
RTVSPropertyOp9
 70
     0
102
RTVSPropertyOp10
 70
     0
102
RTVSPropertyOp11
 70
     0
102
RTVSPropertyOp12
 70
     0
102
RTVSPropertyOp13
 70
     0
102
RTVSPropertyOp14
 70
     2
102
RTVSPropertyOp15
 70
     0
102
RTVSPropertyOp16
 70
     0
102
RTVSPropertyOp17
 70
     0
102
RTVSPropertyOp18
 70
     0
102
RTVSPropertyOp19
 70
     0
102
RTVSPropertyOp20
 70
     0
102
RTVSPropertyOp21
 70
     0
102
RTVSPropertyOp22
 70
     0
102
RTVSPropertyOp23
 70
     0
102
RTVSPropertyOp24
 70
     0
102
RTVSPropertyOp25
 70
     0
102
RTVSPropertyOp26
 70
     0
102
RTVSPropertyOp27
 70
     0
102
RTVSPropertyOp28
 70
     0
102
RTVSPropertyOp29
 70
     0
102
RTVSPropertyOp30
 70
     0
102
RTVSPropertyOp31
 70
     0
102
RTVSPropertyOp32
 70
     0
102
RTVSPropertyOp33
 70
     0
102
RTVSPropertyOp34
 70
     0
102
RTVSPropertyOp35
 70
     0
102
RTVSPropertyOp36
 70
     0
102
RTVSPropertyOp37
 70
     0
102
RTVSPropertyOp38
 70
     0
102
RTVSPropertyOp39
 70
     0
102
RTVSPropertyOp40
 70
     0
102
RTVSPropertyOp41
 70
     0
102
RTVSPropertyOp42
 70
     0
102
RTVSPropertyOp43
 70
     0
102
RTVSPropertyOp44
 70
     0
102
RTVSPropertyOp45
 70
     0
102
RTVSPropertyOp46
 70
     0
102
RTVSPropertyOp47
 70
     0
102
RTVSPropertyOp48
 70
     0
102
RTVSPropertyOp49
 70
     0
102
RTVSPropertyOp50
 70
     0
102
RTVSPropertyOp51
 70
     0
102
RTVSPropertyOp52
 70
     0
102
RTVSPropertyOp53
 70
     0
102
RTVSPropertyOp54
 70
     0
102
RTVSPropertyOp55
 70
     0
102
RTVSPropertyOp56
 70
     0
102
RTVSPropertyOp57
 70
     0
102
RTVSPropertyOp58
 70
     1
102
RTVSPropertyOp59
 70
     1
102
RTVSPropertyOp60
 70
     1
102
RTVSPropertyOp61
 70
     1
102
RTVSPropertyOp62
 70
     1
  0
XRECORD
  5
31682
102
{ACAD_REACTORS
330
31681
102
}
330
31681
100
AcDbXrecord
280
     1
102
RTVSPost2010Prop28
280
     0
102
RTVSPost2010PropOp28
 70
     1
102
RTVSPost2010Prop29
280
     1
102
RTVSPost2010PropOp29
 70
     1
102
RTVSPost2010Prop30
280
     1
102
RTVSPost2010PropOp30
 70
     1
102
RTVSPost2010Prop31
280
     0
102
RTVSPost2010PropOp31
 70
     1
102
RTVSPost2010Prop32
280
     0
102
RTVSPost2010PropOp32
 70
     1
102
RTVSPost2010Prop33
280
     0
102
RTVSPost2010PropOp33
 70
     1
102
RTVSPost2010Prop34
280
     0
102
RTVSPost2010PropOp34
 70
     1
102
RTVSPost2010Prop35
280
     0
102
RTVSPost2010PropOp35
 70
     1
102
RTVSPost2010Prop36
280
     0
102
RTVSPost2010PropOp36
 70
     1
102
RTVSPost2010Prop37
 90
       50
102
RTVSPost2010PropOp37
 70
     1
102
RTVSPost2010Prop38
140
0.0
102
RTVSPost2010PropOp38
 70
     1
102
RTVSPost2010Prop39
140
1.0
102
RTVSPost2010PropOp39
 70
     1
102
RTVSPost2010Prop40
 90
        0
102
RTVSPost2010PropOp40
 70
     1
102
RTVSPost2010Prop41ColorIndex
 90
       18
102
RTVSPost2010Prop41ColorRGB
 90
        0
102
RTVSPost2010PropOp41
 70
     1
102
RTVSPost2010Prop42
 90
       50
102
RTVSPost2010PropOp42
 70
     1
102
RTVSPost2010Prop43
 90
        3
102
RTVSPost2010PropOp43
 70
     1
102
RTVSPost2010Prop44ColorIndex
 90
        5
102
RTVSPost2010Prop44ColorRGB
 90
      255
102
RTVSPost2010PropOp44
 70
     1
102
RTVSPost2010Prop45
280
     0
102
RTVSPost2010PropOp45
 70
     1
102
RTVSPost2010Prop46
 90
       50
102
RTVSPost2010PropOp46
 70
     1
102
RTVSPost2010Prop47
 90
       50
102
RTVSPost2010PropOp47
 70
     1
102
RTVSPost2010Prop48
 90
       50
102
RTVSPost2010PropOp48
 70
     1
102
RTVSPost2010Prop49
280
     0
102
RTVSPost2010PropOp49
 70
     1
102
RTVSPost2010Prop50
 90
       50
102
RTVSPost2010PropOp50
 70
     1
102
RTVSPost2010Prop51ColorIndex
 90
      256
102
RTVSPost2010Prop51ColorRGB
 90
-16777216
102
RTVSPost2010PropOp51
 70
     0
102
RTVSPost2010Prop52
140
1.0
102
RTVSPost2010PropOp52
 70
     0
102
RTVSPost2010Prop53
 90
        2
102
RTVSPost2010PropOp53
 70
     1
102
RTVSPost2010Prop54
  1
strokes_ogs.tif
102
RTVSPost2010PropOp54
 70
     1
102
RTVSPost2010Prop55
280
     0
102
RTVSPost2010PropOp55
 70
     1
102
RTVSPost2010Prop56
140
1.0
102
RTVSPost2010PropOp56
 70
     1
102
RTVSPost2010Prop57
140
1.0
102
RTVSPost2010PropOp57
 70
     1
102
RTVSPropertyOp0
 70
     1
102
RTVSPropertyOp1
 70
     1
102
RTVSPropertyOp2
 70
     1
102
RTVSPropertyOp3
 70
     1
102
RTVSPropertyOp4
 70
     1
102
RTVSPropertyOp5
 70
     1
102
RTVSPropertyOp6
 70
     1
102
RTVSPropertyOp7
 70
     1
102
RTVSPropertyOp8
 70
     1
102
RTVSPropertyOp9
 70
     1
102
RTVSPropertyOp10
 70
     1
102
RTVSPropertyOp11
 70
     1
102
RTVSPropertyOp12
 70
     1
102
RTVSPropertyOp13
 70
     1
102
RTVSPropertyOp14
 70
     1
102
RTVSPropertyOp15
 70
     1
102
RTVSPropertyOp16
 70
     1
102
RTVSPropertyOp17
 70
     1
102
RTVSPropertyOp18
 70
     1
102
RTVSPropertyOp19
 70
     1
102
RTVSPropertyOp20
 70
     1
102
RTVSPropertyOp21
 70
     1
102
RTVSPropertyOp22
 70
     1
102
RTVSPropertyOp23
 70
     1
102
RTVSPropertyOp24
 70
     1
102
RTVSPropertyOp25
 70
     1
102
RTVSPropertyOp26
 70
     1
102
RTVSPropertyOp27
 70
     1
102
RTVSPropertyOp28
 70
     1
102
RTVSPropertyOp29
 70
     1
102
RTVSPropertyOp30
 70
     1
102
RTVSPropertyOp31
 70
     1
102
RTVSPropertyOp32
 70
     1
102
RTVSPropertyOp33
 70
     1
102
RTVSPropertyOp34
 70
     1
102
RTVSPropertyOp35
 70
     1
102
RTVSPropertyOp36
 70
     1
102
RTVSPropertyOp37
 70
     1
102
RTVSPropertyOp38
 70
     1
102
RTVSPropertyOp39
 70
     1
102
RTVSPropertyOp40
 70
     1
102
RTVSPropertyOp41
 70
     1
102
RTVSPropertyOp42
 70
     1
102
RTVSPropertyOp43
 70
     1
102
RTVSPropertyOp44
 70
     1
102
RTVSPropertyOp45
 70
     1
102
RTVSPropertyOp46
 70
     1
102
RTVSPropertyOp47
 70
     1
102
RTVSPropertyOp48
 70
     1
102
RTVSPropertyOp49
 70
     1
102
RTVSPropertyOp50
 70
     1
102
RTVSPropertyOp51
 70
     0
102
RTVSPropertyOp52
 70
     0
102
RTVSPropertyOp53
 70
     1
102
RTVSPropertyOp54
 70
     1
102
RTVSPropertyOp55
 70
     1
102
RTVSPropertyOp56
 70
     1
102
RTVSPropertyOp57
 70
     1
102
RTVSPropertyOp58
 70
     1
102
RTVSPropertyOp59
 70
     1
102
RTVSPropertyOp60
 70
     1
102
RTVSPropertyOp61
 70
     1
102
RTVSPropertyOp62
 70
     1
  0
XRECORD
  5
31666
102
{ACAD_REACTORS
330
31665
102
}
330
31665
100
AcDbXrecord
280
     1
102
RTVSPost2010Prop28
280
     0
102
RTVSPost2010PropOp28
 70
     1
102
RTVSPost2010Prop29
280
     1
102
RTVSPost2010PropOp29
 70
     1
102
RTVSPost2010Prop30
280
     1
102
RTVSPost2010PropOp30
 70
     1
102
RTVSPost2010Prop31
280
     0
102
RTVSPost2010PropOp31
 70
     1
102
RTVSPost2010Prop32
280
     0
102
RTVSPost2010PropOp32
 70
     1
102
RTVSPost2010Prop33
280
     0
102
RTVSPost2010PropOp33
 70
     1
102
RTVSPost2010Prop34
280
     0
102
RTVSPost2010PropOp34
 70
     1
102
RTVSPost2010Prop35
280
     0
102
RTVSPost2010PropOp35
 70
     1
102
RTVSPost2010Prop36
280
     0
102
RTVSPost2010PropOp36
 70
     1
102
RTVSPost2010Prop37
 90
       50
102
RTVSPost2010PropOp37
 70
     1
102
RTVSPost2010Prop38
140
0.0
102
RTVSPost2010PropOp38
 70
     1
102
RTVSPost2010Prop39
140
1.0
102
RTVSPost2010PropOp39
 70
     1
102
RTVSPost2010Prop40
 90
        0
102
RTVSPost2010PropOp40
 70
     1
102
RTVSPost2010Prop41ColorIndex
 90
       18
102
RTVSPost2010Prop41ColorRGB
 90
        0
102
RTVSPost2010PropOp41
 70
     1
102
RTVSPost2010Prop42
 90
       50
102
RTVSPost2010PropOp42
 70
     1
102
RTVSPost2010Prop43
 90
        3
102
RTVSPost2010PropOp43
 70
     1
102
RTVSPost2010Prop44ColorIndex
 90
        5
102
RTVSPost2010Prop44ColorRGB
 90
      255
102
RTVSPost2010PropOp44
 70
     1
102
RTVSPost2010Prop45
280
     0
102
RTVSPost2010PropOp45
 70
     1
102
RTVSPost2010Prop46
 90
       50
102
RTVSPost2010PropOp46
 70
     1
102
RTVSPost2010Prop47
 90
       50
102
RTVSPost2010PropOp47
 70
     1
102
RTVSPost2010Prop48
 90
       50
102
RTVSPost2010PropOp48
 70
     1
102
RTVSPost2010Prop49
280
     0
102
RTVSPost2010PropOp49
 70
     1
102
RTVSPost2010Prop50
 90
       50
102
RTVSPost2010PropOp50
 70
     1
102
RTVSPost2010Prop51ColorIndex
 90
      256
102
RTVSPost2010Prop51ColorRGB
 90
-16777216
102
RTVSPost2010PropOp51
 70
     0
102
RTVSPost2010Prop52
140
1.0
102
RTVSPost2010PropOp52
 70
     0
102
RTVSPost2010Prop53
 90
        2
102
RTVSPost2010PropOp53
 70
     1
102
RTVSPost2010Prop54
  1
strokes_ogs.tif
102
RTVSPost2010PropOp54
 70
     1
102
RTVSPost2010Prop55
280
     0
102
RTVSPost2010PropOp55
 70
     1
102
RTVSPost2010Prop56
140
1.0
102
RTVSPost2010PropOp56
 70
     1
102
RTVSPost2010Prop57
140
1.0
102
RTVSPost2010PropOp57
 70
     1
102
RTVSPropertyOp0
 70
     1
102
RTVSPropertyOp1
 70
     1
102
RTVSPropertyOp2
 70
     1
102
RTVSPropertyOp3
 70
     1
102
RTVSPropertyOp4
 70
     1
102
RTVSPropertyOp5
 70
     1
102
RTVSPropertyOp6
 70
     1
102
RTVSPropertyOp7
 70
     1
102
RTVSPropertyOp8
 70
     1
102
RTVSPropertyOp9
 70
     1
102
RTVSPropertyOp10
 70
     1
102
RTVSPropertyOp11
 70
     1
102
RTVSPropertyOp12
 70
     1
102
RTVSPropertyOp13
 70
     1
102
RTVSPropertyOp14
 70
     1
102
RTVSPropertyOp15
 70
     1
102
RTVSPropertyOp16
 70
     1
102
RTVSPropertyOp17
 70
     1
102
RTVSPropertyOp18
 70
     1
102
RTVSPropertyOp19
 70
     1
102
RTVSPropertyOp20
 70
     1
102
RTVSPropertyOp21
 70
     1
102
RTVSPropertyOp22
 70
     1
102
RTVSPropertyOp23
 70
     1
102
RTVSPropertyOp24
 70
     1
102
RTVSPropertyOp25
 70
     1
102
RTVSPropertyOp26
 70
     1
102
RTVSPropertyOp27
 70
     1
102
RTVSPropertyOp28
 70
     1
102
RTVSPropertyOp29
 70
     1
102
RTVSPropertyOp30
 70
     1
102
RTVSPropertyOp31
 70
     1
102
RTVSPropertyOp32
 70
     1
102
RTVSPropertyOp33
 70
     1
102
RTVSPropertyOp34
 70
     1
102
RTVSPropertyOp35
 70
     1
102
RTVSPropertyOp36
 70
     1
102
RTVSPropertyOp37
 70
     1
102
RTVSPropertyOp38
 70
     1
102
RTVSPropertyOp39
 70
     1
102
RTVSPropertyOp40
 70
     1
102
RTVSPropertyOp41
 70
     1
102
RTVSPropertyOp42
 70
     1
102
RTVSPropertyOp43
 70
     1
102
RTVSPropertyOp44
 70
     1
102
RTVSPropertyOp45
 70
     1
102
RTVSPropertyOp46
 70
     1
102
RTVSPropertyOp47
 70
     1
102
RTVSPropertyOp48
 70
     1
102
RTVSPropertyOp49
 70
     1
102
RTVSPropertyOp50
 70
     1
102
RTVSPropertyOp51
 70
     0
102
RTVSPropertyOp52
 70
     0
102
RTVSPropertyOp53
 70
     1
102
RTVSPropertyOp54
 70
     1
102
RTVSPropertyOp55
 70
     1
102
RTVSPropertyOp56
 70
     1
102
RTVSPropertyOp57
 70
     1
102
RTVSPropertyOp58
 70
     1
102
RTVSPropertyOp59
 70
     1
102
RTVSPropertyOp60
 70
     1
102
RTVSPropertyOp61
 70
     1
102
RTVSPropertyOp62
 70
     1
  0
XRECORD
  5
31668
102
{ACAD_REACTORS
330
31667
102
}
330
31667
100
AcDbXrecord
280
     1
102
RTVSPost2010Prop28
280
     0
102
RTVSPost2010PropOp28
 70
     1
102
RTVSPost2010Prop29
280
     1
102
RTVSPost2010PropOp29
 70
     1
102
RTVSPost2010Prop30
280
     1
102
RTVSPost2010PropOp30
 70
     1
102
RTVSPost2010Prop31
280
     0
102
RTVSPost2010PropOp31
 70
     1
102
RTVSPost2010Prop32
280
     0
102
RTVSPost2010PropOp32
 70
     1
102
RTVSPost2010Prop33
280
     0
102
RTVSPost2010PropOp33
 70
     1
102
RTVSPost2010Prop34
280
     0
102
RTVSPost2010PropOp34
 70
     1
102
RTVSPost2010Prop35
280
     0
102
RTVSPost2010PropOp35
 70
     1
102
RTVSPost2010Prop36
280
     0
102
RTVSPost2010PropOp36
 70
     1
102
RTVSPost2010Prop37
 90
       50
102
RTVSPost2010PropOp37
 70
     1
102
RTVSPost2010Prop38
140
0.0
102
RTVSPost2010PropOp38
 70
     1
102
RTVSPost2010Prop39
140
1.0
102
RTVSPost2010PropOp39
 70
     1
102
RTVSPost2010Prop40
 90
        0
102
RTVSPost2010PropOp40
 70
     1
102
RTVSPost2010Prop41ColorIndex
 90
       18
102
RTVSPost2010Prop41ColorRGB
 90
        0
102
RTVSPost2010PropOp41
 70
     1
102
RTVSPost2010Prop42
 90
       50
102
RTVSPost2010PropOp42
 70
     1
102
RTVSPost2010Prop43
 90
        3
102
RTVSPost2010PropOp43
 70
     1
102
RTVSPost2010Prop44ColorIndex
 90
        5
102
RTVSPost2010Prop44ColorRGB
 90
      255
102
RTVSPost2010PropOp44
 70
     1
102
RTVSPost2010Prop45
280
     0
102
RTVSPost2010PropOp45
 70
     1
102
RTVSPost2010Prop46
 90
       50
102
RTVSPost2010PropOp46
 70
     1
102
RTVSPost2010Prop47
 90
       50
102
RTVSPost2010PropOp47
 70
     1
102
RTVSPost2010Prop48
 90
       50
102
RTVSPost2010PropOp48
 70
     1
102
RTVSPost2010Prop49
280
     0
102
RTVSPost2010PropOp49
 70
     1
102
RTVSPost2010Prop50
 90
       50
102
RTVSPost2010PropOp50
 70
     1
102
RTVSPost2010Prop51ColorIndex
 90
      256
102
RTVSPost2010Prop51ColorRGB
 90
-16777216
102
RTVSPost2010PropOp51
 70
     0
102
RTVSPost2010Prop52
140
1.0
102
RTVSPost2010PropOp52
 70
     0
102
RTVSPost2010Prop53
 90
        2
102
RTVSPost2010PropOp53
 70
     1
102
RTVSPost2010Prop54
  1
strokes_ogs.tif
102
RTVSPost2010PropOp54
 70
     1
102
RTVSPost2010Prop55
280
     0
102
RTVSPost2010PropOp55
 70
     1
102
RTVSPost2010Prop56
140
1.0
102
RTVSPost2010PropOp56
 70
     1
102
RTVSPost2010Prop57
140
1.0
102
RTVSPost2010PropOp57
 70
     1
102
RTVSPropertyOp0
 70
     1
102
RTVSPropertyOp1
 70
     1
102
RTVSPropertyOp2
 70
     1
102
RTVSPropertyOp3
 70
     1
102
RTVSPropertyOp4
 70
     1
102
RTVSPropertyOp5
 70
     1
102
RTVSPropertyOp6
 70
     1
102
RTVSPropertyOp7
 70
     1
102
RTVSPropertyOp8
 70
     1
102
RTVSPropertyOp9
 70
     1
102
RTVSPropertyOp10
 70
     1
102
RTVSPropertyOp11
 70
     1
102
RTVSPropertyOp12
 70
     1
102
RTVSPropertyOp13
 70
     1
102
RTVSPropertyOp14
 70
     1
102
RTVSPropertyOp15
 70
     1
102
RTVSPropertyOp16
 70
     1
102
RTVSPropertyOp17
 70
     1
102
RTVSPropertyOp18
 70
     1
102
RTVSPropertyOp19
 70
     1
102
RTVSPropertyOp20
 70
     1
102
RTVSPropertyOp21
 70
     1
102
RTVSPropertyOp22
 70
     1
102
RTVSPropertyOp23
 70
     1
102
RTVSPropertyOp24
 70
     1
102
RTVSPropertyOp25
 70
     1
102
RTVSPropertyOp26
 70
     1
102
RTVSPropertyOp27
 70
     1
102
RTVSPropertyOp28
 70
     1
102
RTVSPropertyOp29
 70
     1
102
RTVSPropertyOp30
 70
     1
102
RTVSPropertyOp31
 70
     1
102
RTVSPropertyOp32
 70
     1
102
RTVSPropertyOp33
 70
     1
102
RTVSPropertyOp34
 70
     1
102
RTVSPropertyOp35
 70
     1
102
RTVSPropertyOp36
 70
     1
102
RTVSPropertyOp37
 70
     1
102
RTVSPropertyOp38
 70
     1
102
RTVSPropertyOp39
 70
     1
102
RTVSPropertyOp40
 70
     1
102
RTVSPropertyOp41
 70
     1
102
RTVSPropertyOp42
 70
     1
102
RTVSPropertyOp43
 70
     1
102
RTVSPropertyOp44
 70
     1
102
RTVSPropertyOp45
 70
     1
102
RTVSPropertyOp46
 70
     1
102
RTVSPropertyOp47
 70
     1
102
RTVSPropertyOp48
 70
     1
102
RTVSPropertyOp49
 70
     1
102
RTVSPropertyOp50
 70
     1
102
RTVSPropertyOp51
 70
     0
102
RTVSPropertyOp52
 70
     0
102
RTVSPropertyOp53
 70
     1
102
RTVSPropertyOp54
 70
     1
102
RTVSPropertyOp55
 70
     1
102
RTVSPropertyOp56
 70
     1
102
RTVSPropertyOp57
 70
     1
102
RTVSPropertyOp58
 70
     1
102
RTVSPropertyOp59
 70
     1
102
RTVSPropertyOp60
 70
     1
102
RTVSPropertyOp61
 70
     1
102
RTVSPropertyOp62
 70
     1
  0
XRECORD
  5
3166A
102
{ACAD_REACTORS
330
31669
102
}
330
31669
100
AcDbXrecord
280
     1
102
RTVSPost2010Prop28
280
     0
102
RTVSPost2010PropOp28
 70
     1
102
RTVSPost2010Prop29
280
     1
102
RTVSPost2010PropOp29
 70
     1
102
RTVSPost2010Prop30
280
     1
102
RTVSPost2010PropOp30
 70
     1
102
RTVSPost2010Prop31
280
     0
102
RTVSPost2010PropOp31
 70
     1
102
RTVSPost2010Prop32
280
     0
102
RTVSPost2010PropOp32
 70
     1
102
RTVSPost2010Prop33
280
     0
102
RTVSPost2010PropOp33
 70
     1
102
RTVSPost2010Prop34
280
     0
102
RTVSPost2010PropOp34
 70
     1
102
RTVSPost2010Prop35
280
     0
102
RTVSPost2010PropOp35
 70
     1
102
RTVSPost2010Prop36
280
     0
102
RTVSPost2010PropOp36
 70
     1
102
RTVSPost2010Prop37
 90
       50
102
RTVSPost2010PropOp37
 70
     1
102
RTVSPost2010Prop38
140
0.0
102
RTVSPost2010PropOp38
 70
     1
102
RTVSPost2010Prop39
140
1.0
102
RTVSPost2010PropOp39
 70
     1
102
RTVSPost2010Prop40
 90
        0
102
RTVSPost2010PropOp40
 70
     1
102
RTVSPost2010Prop41ColorIndex
 90
       18
102
RTVSPost2010Prop41ColorRGB
 90
        0
102
RTVSPost2010PropOp41
 70
     1
102
RTVSPost2010Prop42
 90
       50
102
RTVSPost2010PropOp42
 70
     1
102
RTVSPost2010Prop43
 90
        3
102
RTVSPost2010PropOp43
 70
     1
102
RTVSPost2010Prop44ColorIndex
 90
        5
102
RTVSPost2010Prop44ColorRGB
 90
      255
102
RTVSPost2010PropOp44
 70
     1
102
RTVSPost2010Prop45
280
     0
102
RTVSPost2010PropOp45
 70
     1
102
RTVSPost2010Prop46
 90
       50
102
RTVSPost2010PropOp46
 70
     1
102
RTVSPost2010Prop47
 90
       50
102
RTVSPost2010PropOp47
 70
     1
102
RTVSPost2010Prop48
 90
       50
102
RTVSPost2010PropOp48
 70
     1
102
RTVSPost2010Prop49
280
     0
102
RTVSPost2010PropOp49
 70
     1
102
RTVSPost2010Prop50
 90
       50
102
RTVSPost2010PropOp50
 70
     1
102
RTVSPost2010Prop51ColorIndex
 90
      256
102
RTVSPost2010Prop51ColorRGB
 90
-16777216
102
RTVSPost2010PropOp51
 70
     0
102
RTVSPost2010Prop52
140
1.0
102
RTVSPost2010PropOp52
 70
     0
102
RTVSPost2010Prop53
 90
        2
102
RTVSPost2010PropOp53
 70
     1
102
RTVSPost2010Prop54
  1
strokes_ogs.tif
102
RTVSPost2010PropOp54
 70
     1
102
RTVSPost2010Prop55
280
     0
102
RTVSPost2010PropOp55
 70
     1
102
RTVSPost2010Prop56
140
1.0
102
RTVSPost2010PropOp56
 70
     1
102
RTVSPost2010Prop57
140
1.0
102
RTVSPost2010PropOp57
 70
     1
102
RTVSPropertyOp0
 70
     1
102
RTVSPropertyOp1
 70
     1
102
RTVSPropertyOp2
 70
     1
102
RTVSPropertyOp3
 70
     1
102
RTVSPropertyOp4
 70
     1
102
RTVSPropertyOp5
 70
     1
102
RTVSPropertyOp6
 70
     1
102
RTVSPropertyOp7
 70
     1
102
RTVSPropertyOp8
 70
     1
102
RTVSPropertyOp9
 70
     1
102
RTVSPropertyOp10
 70
     1
102
RTVSPropertyOp11
 70
     1
102
RTVSPropertyOp12
 70
     1
102
RTVSPropertyOp13
 70
     1
102
RTVSPropertyOp14
 70
     1
102
RTVSPropertyOp15
 70
     1
102
RTVSPropertyOp16
 70
     1
102
RTVSPropertyOp17
 70
     1
102
RTVSPropertyOp18
 70
     1
102
RTVSPropertyOp19
 70
     1
102
RTVSPropertyOp20
 70
     1
102
RTVSPropertyOp21
 70
     1
102
RTVSPropertyOp22
 70
     1
102
RTVSPropertyOp23
 70
     1
102
RTVSPropertyOp24
 70
     1
102
RTVSPropertyOp25
 70
     1
102
RTVSPropertyOp26
 70
     1
102
RTVSPropertyOp27
 70
     1
102
RTVSPropertyOp28
 70
     1
102
RTVSPropertyOp29
 70
     1
102
RTVSPropertyOp30
 70
     1
102
RTVSPropertyOp31
 70
     1
102
RTVSPropertyOp32
 70
     1
102
RTVSPropertyOp33
 70
     1
102
RTVSPropertyOp34
 70
     1
102
RTVSPropertyOp35
 70
     1
102
RTVSPropertyOp36
 70
     1
102
RTVSPropertyOp37
 70
     1
102
RTVSPropertyOp38
 70
     1
102
RTVSPropertyOp39
 70
     1
102
RTVSPropertyOp40
 70
     1
102
RTVSPropertyOp41
 70
     1
102
RTVSPropertyOp42
 70
     1
102
RTVSPropertyOp43
 70
     1
102
RTVSPropertyOp44
 70
     1
102
RTVSPropertyOp45
 70
     1
102
RTVSPropertyOp46
 70
     1
102
RTVSPropertyOp47
 70
     1
102
RTVSPropertyOp48
 70
     1
102
RTVSPropertyOp49
 70
     1
102
RTVSPropertyOp50
 70
     1
102
RTVSPropertyOp51
 70
     0
102
RTVSPropertyOp52
 70
     0
102
RTVSPropertyOp53
 70
     1
102
RTVSPropertyOp54
 70
     1
102
RTVSPropertyOp55
 70
     1
102
RTVSPropertyOp56
 70
     1
102
RTVSPropertyOp57
 70
     1
102
RTVSPropertyOp58
 70
     1
102
RTVSPropertyOp59
 70
     1
102
RTVSPropertyOp60
 70
     1
102
RTVSPropertyOp61
 70
     1
102
RTVSPropertyOp62
 70
     1
  0
XRECORD
  5
3166C
102
{ACAD_REACTORS
330
3166B
102
}
330
3166B
100
AcDbXrecord
280
     1
102
RTVSPost2010Prop28
280
     0
102
RTVSPost2010PropOp28
 70
     1
102
RTVSPost2010Prop29
280
     1
102
RTVSPost2010PropOp29
 70
     1
102
RTVSPost2010Prop30
280
     1
102
RTVSPost2010PropOp30
 70
     1
102
RTVSPost2010Prop31
280
     0
102
RTVSPost2010PropOp31
 70
     1
102
RTVSPost2010Prop32
280
     0
102
RTVSPost2010PropOp32
 70
     1
102
RTVSPost2010Prop33
280
     0
102
RTVSPost2010PropOp33
 70
     1
102
RTVSPost2010Prop34
280
     0
102
RTVSPost2010PropOp34
 70
     1
102
RTVSPost2010Prop35
280
     0
102
RTVSPost2010PropOp35
 70
     1
102
RTVSPost2010Prop36
280
     0
102
RTVSPost2010PropOp36
 70
     1
102
RTVSPost2010Prop37
 90
       50
102
RTVSPost2010PropOp37
 70
     1
102
RTVSPost2010Prop38
140
0.0
102
RTVSPost2010PropOp38
 70
     1
102
RTVSPost2010Prop39
140
1.0
102
RTVSPost2010PropOp39
 70
     1
102
RTVSPost2010Prop40
 90
        0
102
RTVSPost2010PropOp40
 70
     1
102
RTVSPost2010Prop41ColorIndex
 90
       18
102
RTVSPost2010Prop41ColorRGB
 90
        0
102
RTVSPost2010PropOp41
 70
     1
102
RTVSPost2010Prop42
 90
       50
102
RTVSPost2010PropOp42
 70
     1
102
RTVSPost2010Prop43
 90
        3
102
RTVSPost2010PropOp43
 70
     1
102
RTVSPost2010Prop44ColorIndex
 90
        5
102
RTVSPost2010Prop44ColorRGB
 90
      255
102
RTVSPost2010PropOp44
 70
     1
102
RTVSPost2010Prop45
280
     0
102
RTVSPost2010PropOp45
 70
     1
102
RTVSPost2010Prop46
 90
       50
102
RTVSPost2010PropOp46
 70
     1
102
RTVSPost2010Prop47
 90
       50
102
RTVSPost2010PropOp47
 70
     1
102
RTVSPost2010Prop48
 90
       50
102
RTVSPost2010PropOp48
 70
     1
102
RTVSPost2010Prop49
280
     0
102
RTVSPost2010PropOp49
 70
     1
102
RTVSPost2010Prop50
 90
       50
102
RTVSPost2010PropOp50
 70
     1
102
RTVSPost2010Prop51ColorIndex
 90
      256
102
RTVSPost2010Prop51ColorRGB
 90
-16777216
102
RTVSPost2010PropOp51
 70
     0
102
RTVSPost2010Prop52
140
1.0
102
RTVSPost2010PropOp52
 70
     0
102
RTVSPost2010Prop53
 90
        2
102
RTVSPost2010PropOp53
 70
     1
102
RTVSPost2010Prop54
  1
strokes_ogs.tif
102
RTVSPost2010PropOp54
 70
     1
102
RTVSPost2010Prop55
280
     0
102
RTVSPost2010PropOp55
 70
     1
102
RTVSPost2010Prop56
140
1.0
102
RTVSPost2010PropOp56
 70
     1
102
RTVSPost2010Prop57
140
1.0
102
RTVSPost2010PropOp57
 70
     1
102
RTVSPropertyOp0
 70
     1
102
RTVSPropertyOp1
 70
     1
102
RTVSPropertyOp2
 70
     1
102
RTVSPropertyOp3
 70
     1
102
RTVSPropertyOp4
 70
     1
102
RTVSPropertyOp5
 70
     1
102
RTVSPropertyOp6
 70
     1
102
RTVSPropertyOp7
 70
     1
102
RTVSPropertyOp8
 70
     1
102
RTVSPropertyOp9
 70
     1
102
RTVSPropertyOp10
 70
     1
102
RTVSPropertyOp11
 70
     1
102
RTVSPropertyOp12
 70
     1
102
RTVSPropertyOp13
 70
     1
102
RTVSPropertyOp14
 70
     1
102
RTVSPropertyOp15
 70
     1
102
RTVSPropertyOp16
 70
     1
102
RTVSPropertyOp17
 70
     1
102
RTVSPropertyOp18
 70
     1
102
RTVSPropertyOp19
 70
     1
102
RTVSPropertyOp20
 70
     1
102
RTVSPropertyOp21
 70
     1
102
RTVSPropertyOp22
 70
     1
102
RTVSPropertyOp23
 70
     1
102
RTVSPropertyOp24
 70
     1
102
RTVSPropertyOp25
 70
     1
102
RTVSPropertyOp26
 70
     1
102
RTVSPropertyOp27
 70
     1
102
RTVSPropertyOp28
 70
     1
102
RTVSPropertyOp29
 70
     1
102
RTVSPropertyOp30
 70
     1
102
RTVSPropertyOp31
 70
     1
102
RTVSPropertyOp32
 70
     1
102
RTVSPropertyOp33
 70
     1
102
RTVSPropertyOp34
 70
     1
102
RTVSPropertyOp35
 70
     1
102
RTVSPropertyOp36
 70
     1
102
RTVSPropertyOp37
 70
     1
102
RTVSPropertyOp38
 70
     1
102
RTVSPropertyOp39
 70
     1
102
RTVSPropertyOp40
 70
     1
102
RTVSPropertyOp41
 70
     1
102
RTVSPropertyOp42
 70
     1
102
RTVSPropertyOp43
 70
     1
102
RTVSPropertyOp44
 70
     1
102
RTVSPropertyOp45
 70
     1
102
RTVSPropertyOp46
 70
     1
102
RTVSPropertyOp47
 70
     1
102
RTVSPropertyOp48
 70
     1
102
RTVSPropertyOp49
 70
     1
102
RTVSPropertyOp50
 70
     1
102
RTVSPropertyOp51
 70
     0
102
RTVSPropertyOp52
 70
     0
102
RTVSPropertyOp53
 70
     1
102
RTVSPropertyOp54
 70
     1
102
RTVSPropertyOp55
 70
     1
102
RTVSPropertyOp56
 70
     1
102
RTVSPropertyOp57
 70
     1
102
RTVSPropertyOp58
 70
     1
102
RTVSPropertyOp59
 70
     1
102
RTVSPropertyOp60
 70
     1
102
RTVSPropertyOp61
 70
     1
102
RTVSPropertyOp62
 70
     1
  0
XRECORD
  5
31674
102
{ACAD_REACTORS
330
31673
102
}
330
31673
100
AcDbXrecord
280
     1
102
RTVSPost2010Prop28
280
     0
102
RTVSPost2010PropOp28
 70
     1
102
RTVSPost2010Prop29
280
     1
102
RTVSPost2010PropOp29
 70
     1
102
RTVSPost2010Prop30
280
     1
102
RTVSPost2010PropOp30
 70
     1
102
RTVSPost2010Prop31
280
     0
102
RTVSPost2010PropOp31
 70
     1
102
RTVSPost2010Prop32
280
     0
102
RTVSPost2010PropOp32
 70
     1
102
RTVSPost2010Prop33
280
     0
102
RTVSPost2010PropOp33
 70
     1
102
RTVSPost2010Prop34
280
     0
102
RTVSPost2010PropOp34
 70
     1
102
RTVSPost2010Prop35
280
     0
102
RTVSPost2010PropOp35
 70
     1
102
RTVSPost2010Prop36
280
     0
102
RTVSPost2010PropOp36
 70
     1
102
RTVSPost2010Prop37
 90
       50
102
RTVSPost2010PropOp37
 70
     1
102
RTVSPost2010Prop38
140
0.0
102
RTVSPost2010PropOp38
 70
     1
102
RTVSPost2010Prop39
140
1.0
102
RTVSPost2010PropOp39
 70
     1
102
RTVSPost2010Prop40
 90
        0
102
RTVSPost2010PropOp40
 70
     1
102
RTVSPost2010Prop41ColorIndex
 90
       18
102
RTVSPost2010Prop41ColorRGB
 90
        0
102
RTVSPost2010PropOp41
 70
     1
102
RTVSPost2010Prop42
 90
       50
102
RTVSPost2010PropOp42
 70
     1
102
RTVSPost2010Prop43
 90
        3
102
RTVSPost2010PropOp43
 70
     1
102
RTVSPost2010Prop44ColorIndex
 90
        5
102
RTVSPost2010Prop44ColorRGB
 90
      255
102
RTVSPost2010PropOp44
 70
     1
102
RTVSPost2010Prop45
280
     0
102
RTVSPost2010PropOp45
 70
     1
102
RTVSPost2010Prop46
 90
       50
102
RTVSPost2010PropOp46
 70
     1
102
RTVSPost2010Prop47
 90
       50
102
RTVSPost2010PropOp47
 70
     1
102
RTVSPost2010Prop48
 90
       50
102
RTVSPost2010PropOp48
 70
     1
102
RTVSPost2010Prop49
280
     0
102
RTVSPost2010PropOp49
 70
     1
102
RTVSPost2010Prop50
 90
       50
102
RTVSPost2010PropOp50
 70
     1
102
RTVSPost2010Prop51ColorIndex
 90
      256
102
RTVSPost2010Prop51ColorRGB
 90
-16777216
102
RTVSPost2010PropOp51
 70
     0
102
RTVSPost2010Prop52
140
1.0
102
RTVSPost2010PropOp52
 70
     0
102
RTVSPost2010Prop53
 90
        2
102
RTVSPost2010PropOp53
 70
     1
102
RTVSPost2010Prop54
  1
strokes_ogs.tif
102
RTVSPost2010PropOp54
 70
     1
102
RTVSPost2010Prop55
280
     0
102
RTVSPost2010PropOp55
 70
     1
102
RTVSPost2010Prop56
140
1.0
102
RTVSPost2010PropOp56
 70
     1
102
RTVSPost2010Prop57
140
1.0
102
RTVSPost2010PropOp57
 70
     1
102
RTVSPropertyOp0
 70
     1
102
RTVSPropertyOp1
 70
     1
102
RTVSPropertyOp2
 70
     1
102
RTVSPropertyOp3
 70
     1
102
RTVSPropertyOp4
 70
     1
102
RTVSPropertyOp5
 70
     1
102
RTVSPropertyOp6
 70
     1
102
RTVSPropertyOp7
 70
     1
102
RTVSPropertyOp8
 70
     1
102
RTVSPropertyOp9
 70
     1
102
RTVSPropertyOp10
 70
     1
102
RTVSPropertyOp11
 70
     1
102
RTVSPropertyOp12
 70
     1
102
RTVSPropertyOp13
 70
     1
102
RTVSPropertyOp14
 70
     1
102
RTVSPropertyOp15
 70
     1
102
RTVSPropertyOp16
 70
     1
102
RTVSPropertyOp17
 70
     1
102
RTVSPropertyOp18
 70
     1
102
RTVSPropertyOp19
 70
     1
102
RTVSPropertyOp20
 70
     1
102
RTVSPropertyOp21
 70
     1
102
RTVSPropertyOp22
 70
     1
102
RTVSPropertyOp23
 70
     1
102
RTVSPropertyOp24
 70
     1
102
RTVSPropertyOp25
 70
     1
102
RTVSPropertyOp26
 70
     1
102
RTVSPropertyOp27
 70
     1
102
RTVSPropertyOp28
 70
     1
102
RTVSPropertyOp29
 70
     1
102
RTVSPropertyOp30
 70
     1
102
RTVSPropertyOp31
 70
     1
102
RTVSPropertyOp32
 70
     1
102
RTVSPropertyOp33
 70
     1
102
RTVSPropertyOp34
 70
     1
102
RTVSPropertyOp35
 70
     1
102
RTVSPropertyOp36
 70
     1
102
RTVSPropertyOp37
 70
     1
102
RTVSPropertyOp38
 70
     1
102
RTVSPropertyOp39
 70
     1
102
RTVSPropertyOp40
 70
     1
102
RTVSPropertyOp41
 70
     1
102
RTVSPropertyOp42
 70
     1
102
RTVSPropertyOp43
 70
     1
102
RTVSPropertyOp44
 70
     1
102
RTVSPropertyOp45
 70
     1
102
RTVSPropertyOp46
 70
     1
102
RTVSPropertyOp47
 70
     1
102
RTVSPropertyOp48
 70
     1
102
RTVSPropertyOp49
 70
     1
102
RTVSPropertyOp50
 70
     1
102
RTVSPropertyOp51
 70
     0
102
RTVSPropertyOp52
 70
     0
102
RTVSPropertyOp53
 70
     1
102
RTVSPropertyOp54
 70
     1
102
RTVSPropertyOp55
 70
     1
102
RTVSPropertyOp56
 70
     1
102
RTVSPropertyOp57
 70
     1
102
RTVSPropertyOp58
 70
     1
102
RTVSPropertyOp59
 70
     1
102
RTVSPropertyOp60
 70
     1
102
RTVSPropertyOp61
 70
     1
102
RTVSPropertyOp62
 70
     1
  0
XRECORD
  5
31690
102
{ACAD_REACTORS
330
3168F
102
}
330
3168F
100
AcDbXrecord
280
     1
102
RTVSPost2010Prop28
280
     0
102
RTVSPost2010PropOp28
 70
     0
102
RTVSPost2010Prop29
280
     1
102
RTVSPost2010PropOp29
 70
     0
102
RTVSPost2010Prop30
280
     1
102
RTVSPost2010PropOp30
 70
     0
102
RTVSPost2010Prop31
280
     0
102
RTVSPost2010PropOp31
 70
     0
102
RTVSPost2010Prop32
280
     0
102
RTVSPost2010PropOp32
 70
     0
102
RTVSPost2010Prop33
280
     0
102
RTVSPost2010PropOp33
 70
     0
102
RTVSPost2010Prop34
280
     0
102
RTVSPost2010PropOp34
 70
     0
102
RTVSPost2010Prop35
280
     0
102
RTVSPost2010PropOp35
 70
     0
102
RTVSPost2010Prop36
280
     0
102
RTVSPost2010PropOp36
 70
     0
102
RTVSPost2010Prop37
 90
       50
102
RTVSPost2010PropOp37
 70
     0
102
RTVSPost2010Prop38
140
0.0
102
RTVSPost2010PropOp38
 70
     0
102
RTVSPost2010Prop39
140
1.0
102
RTVSPost2010PropOp39
 70
     0
102
RTVSPost2010Prop40
 90
        0
102
RTVSPost2010PropOp40
 70
     0
102
RTVSPost2010Prop41ColorIndex
 90
       18
102
RTVSPost2010Prop41ColorRGB
 90
        0
102
RTVSPost2010PropOp41
 70
     0
102
RTVSPost2010Prop42
 90
       50
102
RTVSPost2010PropOp42
 70
     0
102
RTVSPost2010Prop43
 90
        3
102
RTVSPost2010PropOp43
 70
     0
102
RTVSPost2010Prop44ColorIndex
 90
        5
102
RTVSPost2010Prop44ColorRGB
 90
      255
102
RTVSPost2010PropOp44
 70
     0
102
RTVSPost2010Prop45
280
     0
102
RTVSPost2010PropOp45
 70
     0
102
RTVSPost2010Prop46
 90
       50
102
RTVSPost2010PropOp46
 70
     0
102
RTVSPost2010Prop47
 90
       50
102
RTVSPost2010PropOp47
 70
     0
102
RTVSPost2010Prop48
 90
       50
102
RTVSPost2010PropOp48
 70
     0
102
RTVSPost2010Prop49
280
     0
102
RTVSPost2010PropOp49
 70
     0
102
RTVSPost2010Prop50
 90
       50
102
RTVSPost2010PropOp50
 70
     0
102
RTVSPost2010Prop51ColorIndex
 90
      256
102
RTVSPost2010Prop51ColorRGB
 90
-16777216
102
RTVSPost2010PropOp51
 70
     0
102
RTVSPost2010Prop52
140
1.0
102
RTVSPost2010PropOp52
 70
     0
102
RTVSPost2010Prop53
 90
        2
102
RTVSPost2010PropOp53
 70
     0
102
RTVSPost2010Prop54
  1
strokes_ogs.tif
102
RTVSPost2010PropOp54
 70
     0
102
RTVSPost2010Prop55
280
     0
102
RTVSPost2010PropOp55
 70
     0
102
RTVSPost2010Prop56
140
1.0
102
RTVSPost2010PropOp56
 70
     0
102
RTVSPost2010Prop57
140
1.0
102
RTVSPost2010PropOp57
 70
     0
102
RTVSPropertyOp0
 70
     0
102
RTVSPropertyOp1
 70
     0
102
RTVSPropertyOp2
 70
     0
102
RTVSPropertyOp3
 70
     0
102
RTVSPropertyOp4
 70
     0
102
RTVSPropertyOp5
 70
     0
102
RTVSPropertyOp6
 70
     0
102
RTVSPropertyOp7
 70
     0
102
RTVSPropertyOp8
 70
     0
102
RTVSPropertyOp9
 70
     0
102
RTVSPropertyOp10
 70
     0
102
RTVSPropertyOp11
 70
     0
102
RTVSPropertyOp12
 70
     0
102
RTVSPropertyOp13
 70
     0
102
RTVSPropertyOp14
 70
     2
102
RTVSPropertyOp15
 70
     0
102
RTVSPropertyOp16
 70
     0
102
RTVSPropertyOp17
 70
     0
102
RTVSPropertyOp18
 70
     0
102
RTVSPropertyOp19
 70
     0
102
RTVSPropertyOp20
 70
     0
102
RTVSPropertyOp21
 70
     0
102
RTVSPropertyOp22
 70
     0
102
RTVSPropertyOp23
 70
     0
102
RTVSPropertyOp24
 70
     0
102
RTVSPropertyOp25
 70
     0
102
RTVSPropertyOp26
 70
     0
102
RTVSPropertyOp27
 70
     0
102
RTVSPropertyOp28
 70
     0
102
RTVSPropertyOp29
 70
     0
102
RTVSPropertyOp30
 70
     0
102
RTVSPropertyOp31
 70
     0
102
RTVSPropertyOp32
 70
     0
102
RTVSPropertyOp33
 70
     0
102
RTVSPropertyOp34
 70
     0
102
RTVSPropertyOp35
 70
     0
102
RTVSPropertyOp36
 70
     0
102
RTVSPropertyOp37
 70
     0
102
RTVSPropertyOp38
 70
     0
102
RTVSPropertyOp39
 70
     0
102
RTVSPropertyOp40
 70
     0
102
RTVSPropertyOp41
 70
     0
102
RTVSPropertyOp42
 70
     0
102
RTVSPropertyOp43
 70
     0
102
RTVSPropertyOp44
 70
     0
102
RTVSPropertyOp45
 70
     0
102
RTVSPropertyOp46
 70
     0
102
RTVSPropertyOp47
 70
     0
102
RTVSPropertyOp48
 70
     0
102
RTVSPropertyOp49
 70
     0
102
RTVSPropertyOp50
 70
     0
102
RTVSPropertyOp51
 70
     0
102
RTVSPropertyOp52
 70
     0
102
RTVSPropertyOp53
 70
     0
102
RTVSPropertyOp54
 70
     0
102
RTVSPropertyOp55
 70
     0
102
RTVSPropertyOp56
 70
     0
102
RTVSPropertyOp57
 70
     0
102
RTVSPropertyOp58
 70
     1
102
RTVSPropertyOp59
 70
     1
102
RTVSPropertyOp60
 70
     1
102
RTVSPropertyOp61
 70
     1
102
RTVSPropertyOp62
 70
     1
  0
XRECORD
  5
31680
102
{ACAD_REACTORS
330
3167F
102
}
330
3167F
100
AcDbXrecord
280
     1
102
RTVSPost2010Prop28
280
     0
102
RTVSPost2010PropOp28
 70
     1
102
RTVSPost2010Prop29
280
     1
102
RTVSPost2010PropOp29
 70
     1
102
RTVSPost2010Prop30
280
     1
102
RTVSPost2010PropOp30
 70
     1
102
RTVSPost2010Prop31
280
     0
102
RTVSPost2010PropOp31
 70
     1
102
RTVSPost2010Prop32
280
     0
102
RTVSPost2010PropOp32
 70
     1
102
RTVSPost2010Prop33
280
     0
102
RTVSPost2010PropOp33
 70
     1
102
RTVSPost2010Prop34
280
     0
102
RTVSPost2010PropOp34
 70
     1
102
RTVSPost2010Prop35
280
     0
102
RTVSPost2010PropOp35
 70
     1
102
RTVSPost2010Prop36
280
     0
102
RTVSPost2010PropOp36
 70
     1
102
RTVSPost2010Prop37
 90
       50
102
RTVSPost2010PropOp37
 70
     1
102
RTVSPost2010Prop38
140
0.0
102
RTVSPost2010PropOp38
 70
     1
102
RTVSPost2010Prop39
140
1.0
102
RTVSPost2010PropOp39
 70
     1
102
RTVSPost2010Prop40
 90
        0
102
RTVSPost2010PropOp40
 70
     1
102
RTVSPost2010Prop41ColorIndex
 90
       18
102
RTVSPost2010Prop41ColorRGB
 90
        0
102
RTVSPost2010PropOp41
 70
     1
102
RTVSPost2010Prop42
 90
       50
102
RTVSPost2010PropOp42
 70
     1
102
RTVSPost2010Prop43
 90
        3
102
RTVSPost2010PropOp43
 70
     1
102
RTVSPost2010Prop44ColorIndex
 90
        5
102
RTVSPost2010Prop44ColorRGB
 90
      255
102
RTVSPost2010PropOp44
 70
     1
102
RTVSPost2010Prop45
280
     0
102
RTVSPost2010PropOp45
 70
     1
102
RTVSPost2010Prop46
 90
       50
102
RTVSPost2010PropOp46
 70
     1
102
RTVSPost2010Prop47
 90
       50
102
RTVSPost2010PropOp47
 70
     1
102
RTVSPost2010Prop48
 90
       50
102
RTVSPost2010PropOp48
 70
     1
102
RTVSPost2010Prop49
280
     0
102
RTVSPost2010PropOp49
 70
     1
102
RTVSPost2010Prop50
 90
       50
102
RTVSPost2010PropOp50
 70
     1
102
RTVSPost2010Prop51ColorIndex
 90
      256
102
RTVSPost2010Prop51ColorRGB
 90
-16777216
102
RTVSPost2010PropOp51
 70
     0
102
RTVSPost2010Prop52
140
1.0
102
RTVSPost2010PropOp52
 70
     0
102
RTVSPost2010Prop53
 90
        2
102
RTVSPost2010PropOp53
 70
     1
102
RTVSPost2010Prop54
  1
strokes_ogs.tif
102
RTVSPost2010PropOp54
 70
     1
102
RTVSPost2010Prop55
280
     0
102
RTVSPost2010PropOp55
 70
     1
102
RTVSPost2010Prop56
140
1.0
102
RTVSPost2010PropOp56
 70
     1
102
RTVSPost2010Prop57
140
1.0
102
RTVSPost2010PropOp57
 70
     1
102
RTVSPropertyOp0
 70
     1
102
RTVSPropertyOp1
 70
     1
102
RTVSPropertyOp2
 70
     1
102
RTVSPropertyOp3
 70
     1
102
RTVSPropertyOp4
 70
     1
102
RTVSPropertyOp5
 70
     1
102
RTVSPropertyOp6
 70
     1
102
RTVSPropertyOp7
 70
     1
102
RTVSPropertyOp8
 70
     1
102
RTVSPropertyOp9
 70
     1
102
RTVSPropertyOp10
 70
     1
102
RTVSPropertyOp11
 70
     1
102
RTVSPropertyOp12
 70
     1
102
RTVSPropertyOp13
 70
     1
102
RTVSPropertyOp14
 70
     1
102
RTVSPropertyOp15
 70
     1
102
RTVSPropertyOp16
 70
     1
102
RTVSPropertyOp17
 70
     1
102
RTVSPropertyOp18
 70
     1
102
RTVSPropertyOp19
 70
     1
102
RTVSPropertyOp20
 70
     1
102
RTVSPropertyOp21
 70
     1
102
RTVSPropertyOp22
 70
     1
102
RTVSPropertyOp23
 70
     1
102
RTVSPropertyOp24
 70
     1
102
RTVSPropertyOp25
 70
     1
102
RTVSPropertyOp26
 70
     1
102
RTVSPropertyOp27
 70
     1
102
RTVSPropertyOp28
 70
     1
102
RTVSPropertyOp29
 70
     1
102
RTVSPropertyOp30
 70
     1
102
RTVSPropertyOp31
 70
     1
102
RTVSPropertyOp32
 70
     1
102
RTVSPropertyOp33
 70
     1
102
RTVSPropertyOp34
 70
     1
102
RTVSPropertyOp35
 70
     1
102
RTVSPropertyOp36
 70
     1
102
RTVSPropertyOp37
 70
     1
102
RTVSPropertyOp38
 70
     1
102
RTVSPropertyOp39
 70
     1
102
RTVSPropertyOp40
 70
     1
102
RTVSPropertyOp41
 70
     1
102
RTVSPropertyOp42
 70
     1
102
RTVSPropertyOp43
 70
     1
102
RTVSPropertyOp44
 70
     1
102
RTVSPropertyOp45
 70
     1
102
RTVSPropertyOp46
 70
     1
102
RTVSPropertyOp47
 70
     1
102
RTVSPropertyOp48
 70
     1
102
RTVSPropertyOp49
 70
     1
102
RTVSPropertyOp50
 70
     1
102
RTVSPropertyOp51
 70
     0
102
RTVSPropertyOp52
 70
     0
102
RTVSPropertyOp53
 70
     1
102
RTVSPropertyOp54
 70
     1
102
RTVSPropertyOp55
 70
     1
102
RTVSPropertyOp56
 70
     1
102
RTVSPropertyOp57
 70
     1
102
RTVSPropertyOp58
 70
     1
102
RTVSPropertyOp59
 70
     1
102
RTVSPropertyOp60
 70
     1
102
RTVSPropertyOp61
 70
     1
102
RTVSPropertyOp62
 70
     1
  0
XRECORD
  5
31692
102
{ACAD_REACTORS
330
31691
102
}
330
31691
100
AcDbXrecord
280
     1
102
RTVSPost2010Prop28
280
     0
102
RTVSPost2010PropOp28
 70
     0
102
RTVSPost2010Prop29
280
     1
102
RTVSPost2010PropOp29
 70
     0
102
RTVSPost2010Prop30
280
     1
102
RTVSPost2010PropOp30
 70
     0
102
RTVSPost2010Prop31
280
     0
102
RTVSPost2010PropOp31
 70
     0
102
RTVSPost2010Prop32
280
     0
102
RTVSPost2010PropOp32
 70
     0
102
RTVSPost2010Prop33
280
     0
102
RTVSPost2010PropOp33
 70
     0
102
RTVSPost2010Prop34
280
     0
102
RTVSPost2010PropOp34
 70
     0
102
RTVSPost2010Prop35
280
     0
102
RTVSPost2010PropOp35
 70
     0
102
RTVSPost2010Prop36
280
     0
102
RTVSPost2010PropOp36
 70
     0
102
RTVSPost2010Prop37
 90
       50
102
RTVSPost2010PropOp37
 70
     0
102
RTVSPost2010Prop38
140
0.0
102
RTVSPost2010PropOp38
 70
     0
102
RTVSPost2010Prop39
140
1.0
102
RTVSPost2010PropOp39
 70
     0
102
RTVSPost2010Prop40
 90
        0
102
RTVSPost2010PropOp40
 70
     0
102
RTVSPost2010Prop41ColorIndex
 90
       18
102
RTVSPost2010Prop41ColorRGB
 90
        0
102
RTVSPost2010PropOp41
 70
     0
102
RTVSPost2010Prop42
 90
       50
102
RTVSPost2010PropOp42
 70
     0
102
RTVSPost2010Prop43
 90
        3
102
RTVSPost2010PropOp43
 70
     0
102
RTVSPost2010Prop44ColorIndex
 90
        5
102
RTVSPost2010Prop44ColorRGB
 90
      255
102
RTVSPost2010PropOp44
 70
     0
102
RTVSPost2010Prop45
280
     0
102
RTVSPost2010PropOp45
 70
     0
102
RTVSPost2010Prop46
 90
       50
102
RTVSPost2010PropOp46
 70
     0
102
RTVSPost2010Prop47
 90
       50
102
RTVSPost2010PropOp47
 70
     0
102
RTVSPost2010Prop48
 90
       50
102
RTVSPost2010PropOp48
 70
     0
102
RTVSPost2010Prop49
280
     0
102
RTVSPost2010PropOp49
 70
     0
102
RTVSPost2010Prop50
 90
       50
102
RTVSPost2010PropOp50
 70
     0
102
RTVSPost2010Prop51ColorIndex
 90
      256
102
RTVSPost2010Prop51ColorRGB
 90
-16777216
102
RTVSPost2010PropOp51
 70
     0
102
RTVSPost2010Prop52
140
1.0
102
RTVSPost2010PropOp52
 70
     0
102
RTVSPost2010Prop53
 90
        2
102
RTVSPost2010PropOp53
 70
     0
102
RTVSPost2010Prop54
  1
strokes_ogs.tif
102
RTVSPost2010PropOp54
 70
     0
102
RTVSPost2010Prop55
280
     0
102
RTVSPost2010PropOp55
 70
     0
102
RTVSPost2010Prop56
140
1.0
102
RTVSPost2010PropOp56
 70
     0
102
RTVSPost2010Prop57
140
1.0
102
RTVSPost2010PropOp57
 70
     0
102
RTVSPropertyOp0
 70
     0
102
RTVSPropertyOp1
 70
     0
102
RTVSPropertyOp2
 70
     0
102
RTVSPropertyOp3
 70
     0
102
RTVSPropertyOp4
 70
     0
102
RTVSPropertyOp5
 70
     0
102
RTVSPropertyOp6
 70
     0
102
RTVSPropertyOp7
 70
     0
102
RTVSPropertyOp8
 70
     0
102
RTVSPropertyOp9
 70
     0
102
RTVSPropertyOp10
 70
     0
102
RTVSPropertyOp11
 70
     0
102
RTVSPropertyOp12
 70
     0
102
RTVSPropertyOp13
 70
     0
102
RTVSPropertyOp14
 70
     2
102
RTVSPropertyOp15
 70
     0
102
RTVSPropertyOp16
 70
     0
102
RTVSPropertyOp17
 70
     0
102
RTVSPropertyOp18
 70
     0
102
RTVSPropertyOp19
 70
     0
102
RTVSPropertyOp20
 70
     0
102
RTVSPropertyOp21
 70
     0
102
RTVSPropertyOp22
 70
     0
102
RTVSPropertyOp23
 70
     0
102
RTVSPropertyOp24
 70
     0
102
RTVSPropertyOp25
 70
     0
102
RTVSPropertyOp26
 70
     0
102
RTVSPropertyOp27
 70
     0
102
RTVSPropertyOp28
 70
     0
102
RTVSPropertyOp29
 70
     0
102
RTVSPropertyOp30
 70
     0
102
RTVSPropertyOp31
 70
     0
102
RTVSPropertyOp32
 70
     0
102
RTVSPropertyOp33
 70
     0
102
RTVSPropertyOp34
 70
     0
102
RTVSPropertyOp35
 70
     0
102
RTVSPropertyOp36
 70
     0
102
RTVSPropertyOp37
 70
     0
102
RTVSPropertyOp38
 70
     0
102
RTVSPropertyOp39
 70
     0
102
RTVSPropertyOp40
 70
     0
102
RTVSPropertyOp41
 70
     0
102
RTVSPropertyOp42
 70
     0
102
RTVSPropertyOp43
 70
     0
102
RTVSPropertyOp44
 70
     0
102
RTVSPropertyOp45
 70
     0
102
RTVSPropertyOp46
 70
     0
102
RTVSPropertyOp47
 70
     0
102
RTVSPropertyOp48
 70
     0
102
RTVSPropertyOp49
 70
     0
102
RTVSPropertyOp50
 70
     0
102
RTVSPropertyOp51
 70
     0
102
RTVSPropertyOp52
 70
     0
102
RTVSPropertyOp53
 70
     0
102
RTVSPropertyOp54
 70
     0
102
RTVSPropertyOp55
 70
     0
102
RTVSPropertyOp56
 70
     0
102
RTVSPropertyOp57
 70
     0
102
RTVSPropertyOp58
 70
     1
102
RTVSPropertyOp59
 70
     1
102
RTVSPropertyOp60
 70
     1
102
RTVSPropertyOp61
 70
     1
102
RTVSPropertyOp62
 70
     1
  0
XRECORD
  5
31678
102
{ACAD_REACTORS
330
31677
102
}
330
31677
100
AcDbXrecord
280
     1
102
RTVSPost2010Prop28
280
     0
102
RTVSPost2010PropOp28
 70
     1
102
RTVSPost2010Prop29
280
     1
102
RTVSPost2010PropOp29
 70
     1
102
RTVSPost2010Prop30
280
     1
102
RTVSPost2010PropOp30
 70
     1
102
RTVSPost2010Prop31
280
     0
102
RTVSPost2010PropOp31
 70
     1
102
RTVSPost2010Prop32
280
     0
102
RTVSPost2010PropOp32
 70
     1
102
RTVSPost2010Prop33
280
     0
102
RTVSPost2010PropOp33
 70
     1
102
RTVSPost2010Prop34
280
     0
102
RTVSPost2010PropOp34
 70
     1
102
RTVSPost2010Prop35
280
     0
102
RTVSPost2010PropOp35
 70
     1
102
RTVSPost2010Prop36
280
     0
102
RTVSPost2010PropOp36
 70
     1
102
RTVSPost2010Prop37
 90
       50
102
RTVSPost2010PropOp37
 70
     1
102
RTVSPost2010Prop38
140
0.0
102
RTVSPost2010PropOp38
 70
     1
102
RTVSPost2010Prop39
140
1.0
102
RTVSPost2010PropOp39
 70
     1
102
RTVSPost2010Prop40
 90
        0
102
RTVSPost2010PropOp40
 70
     1
102
RTVSPost2010Prop41ColorIndex
 90
       18
102
RTVSPost2010Prop41ColorRGB
 90
        0
102
RTVSPost2010PropOp41
 70
     1
102
RTVSPost2010Prop42
 90
       50
102
RTVSPost2010PropOp42
 70
     1
102
RTVSPost2010Prop43
 90
        3
102
RTVSPost2010PropOp43
 70
     1
102
RTVSPost2010Prop44ColorIndex
 90
        5
102
RTVSPost2010Prop44ColorRGB
 90
      255
102
RTVSPost2010PropOp44
 70
     1
102
RTVSPost2010Prop45
280
     0
102
RTVSPost2010PropOp45
 70
     1
102
RTVSPost2010Prop46
 90
       50
102
RTVSPost2010PropOp46
 70
     1
102
RTVSPost2010Prop47
 90
       50
102
RTVSPost2010PropOp47
 70
     1
102
RTVSPost2010Prop48
 90
       50
102
RTVSPost2010PropOp48
 70
     1
102
RTVSPost2010Prop49
280
     0
102
RTVSPost2010PropOp49
 70
     1
102
RTVSPost2010Prop50
 90
       50
102
RTVSPost2010PropOp50
 70
     1
102
RTVSPost2010Prop51ColorIndex
 90
      256
102
RTVSPost2010Prop51ColorRGB
 90
-16777216
102
RTVSPost2010PropOp51
 70
     0
102
RTVSPost2010Prop52
140
1.0
102
RTVSPost2010PropOp52
 70
     0
102
RTVSPost2010Prop53
 90
        2
102
RTVSPost2010PropOp53
 70
     1
102
RTVSPost2010Prop54
  1
strokes_ogs.tif
102
RTVSPost2010PropOp54
 70
     1
102
RTVSPost2010Prop55
280
     0
102
RTVSPost2010PropOp55
 70
     1
102
RTVSPost2010Prop56
140
1.0
102
RTVSPost2010PropOp56
 70
     1
102
RTVSPost2010Prop57
140
1.0
102
RTVSPost2010PropOp57
 70
     1
102
RTVSPropertyOp0
 70
     1
102
RTVSPropertyOp1
 70
     1
102
RTVSPropertyOp2
 70
     1
102
RTVSPropertyOp3
 70
     1
102
RTVSPropertyOp4
 70
     1
102
RTVSPropertyOp5
 70
     1
102
RTVSPropertyOp6
 70
     1
102
RTVSPropertyOp7
 70
     1
102
RTVSPropertyOp8
 70
     1
102
RTVSPropertyOp9
 70
     1
102
RTVSPropertyOp10
 70
     1
102
RTVSPropertyOp11
 70
     1
102
RTVSPropertyOp12
 70
     1
102
RTVSPropertyOp13
 70
     1
102
RTVSPropertyOp14
 70
     1
102
RTVSPropertyOp15
 70
     1
102
RTVSPropertyOp16
 70
     1
102
RTVSPropertyOp17
 70
     1
102
RTVSPropertyOp18
 70
     1
102
RTVSPropertyOp19
 70
     1
102
RTVSPropertyOp20
 70
     1
102
RTVSPropertyOp21
 70
     1
102
RTVSPropertyOp22
 70
     1
102
RTVSPropertyOp23
 70
     1
102
RTVSPropertyOp24
 70
     1
102
RTVSPropertyOp25
 70
     1
102
RTVSPropertyOp26
 70
     1
102
RTVSPropertyOp27
 70
     1
102
RTVSPropertyOp28
 70
     1
102
RTVSPropertyOp29
 70
     1
102
RTVSPropertyOp30
 70
     1
102
RTVSPropertyOp31
 70
     1
102
RTVSPropertyOp32
 70
     1
102
RTVSPropertyOp33
 70
     1
102
RTVSPropertyOp34
 70
     1
102
RTVSPropertyOp35
 70
     1
102
RTVSPropertyOp36
 70
     1
102
RTVSPropertyOp37
 70
     1
102
RTVSPropertyOp38
 70
     1
102
RTVSPropertyOp39
 70
     1
102
RTVSPropertyOp40
 70
     1
102
RTVSPropertyOp41
 70
     1
102
RTVSPropertyOp42
 70
     1
102
RTVSPropertyOp43
 70
     1
102
RTVSPropertyOp44
 70
     1
102
RTVSPropertyOp45
 70
     1
102
RTVSPropertyOp46
 70
     1
102
RTVSPropertyOp47
 70
     1
102
RTVSPropertyOp48
 70
     1
102
RTVSPropertyOp49
 70
     1
102
RTVSPropertyOp50
 70
     1
102
RTVSPropertyOp51
 70
     0
102
RTVSPropertyOp52
 70
     0
102
RTVSPropertyOp53
 70
     1
102
RTVSPropertyOp54
 70
     1
102
RTVSPropertyOp55
 70
     1
102
RTVSPropertyOp56
 70
     1
102
RTVSPropertyOp57
 70
     1
102
RTVSPropertyOp58
 70
     1
102
RTVSPropertyOp59
 70
     1
102
RTVSPropertyOp60
 70
     1
102
RTVSPropertyOp61
 70
     1
102
RTVSPropertyOp62
 70
     1
  0
XRECORD
  5
3168E
102
{ACAD_REACTORS
330
3168D
102
}
330
3168D
100
AcDbXrecord
280
     1
102
RTVSPost2010Prop28
280
     0
102
RTVSPost2010PropOp28
 70
     1
102
RTVSPost2010Prop29
280
     1
102
RTVSPost2010PropOp29
 70
     1
102
RTVSPost2010Prop30
280
     1
102
RTVSPost2010PropOp30
 70
     1
102
RTVSPost2010Prop31
280
     0
102
RTVSPost2010PropOp31
 70
     1
102
RTVSPost2010Prop32
280
     0
102
RTVSPost2010PropOp32
 70
     1
102
RTVSPost2010Prop33
280
     0
102
RTVSPost2010PropOp33
 70
     1
102
RTVSPost2010Prop34
280
     0
102
RTVSPost2010PropOp34
 70
     1
102
RTVSPost2010Prop35
280
     0
102
RTVSPost2010PropOp35
 70
     1
102
RTVSPost2010Prop36
280
     0
102
RTVSPost2010PropOp36
 70
     1
102
RTVSPost2010Prop37
 90
       50
102
RTVSPost2010PropOp37
 70
     1
102
RTVSPost2010Prop38
140
0.0
102
RTVSPost2010PropOp38
 70
     1
102
RTVSPost2010Prop39
140
1.0
102
RTVSPost2010PropOp39
 70
     1
102
RTVSPost2010Prop40
 90
        0
102
RTVSPost2010PropOp40
 70
     1
102
RTVSPost2010Prop41ColorIndex
 90
       18
102
RTVSPost2010Prop41ColorRGB
 90
        0
102
RTVSPost2010PropOp41
 70
     1
102
RTVSPost2010Prop42
 90
       50
102
RTVSPost2010PropOp42
 70
     1
102
RTVSPost2010Prop43
 90
        3
102
RTVSPost2010PropOp43
 70
     1
102
RTVSPost2010Prop44ColorIndex
 90
        5
102
RTVSPost2010Prop44ColorRGB
 90
      255
102
RTVSPost2010PropOp44
 70
     1
102
RTVSPost2010Prop45
280
     0
102
RTVSPost2010PropOp45
 70
     1
102
RTVSPost2010Prop46
 90
       50
102
RTVSPost2010PropOp46
 70
     1
102
RTVSPost2010Prop47
 90
       50
102
RTVSPost2010PropOp47
 70
     1
102
RTVSPost2010Prop48
 90
       50
102
RTVSPost2010PropOp48
 70
     1
102
RTVSPost2010Prop49
280
     0
102
RTVSPost2010PropOp49
 70
     1
102
RTVSPost2010Prop50
 90
       50
102
RTVSPost2010PropOp50
 70
     1
102
RTVSPost2010Prop51ColorIndex
 90
      256
102
RTVSPost2010Prop51ColorRGB
 90
-16777216
102
RTVSPost2010PropOp51
 70
     0
102
RTVSPost2010Prop52
140
1.0
102
RTVSPost2010PropOp52
 70
     0
102
RTVSPost2010Prop53
 90
        2
102
RTVSPost2010PropOp53
 70
     1
102
RTVSPost2010Prop54
  1
strokes_ogs.tif
102
RTVSPost2010PropOp54
 70
     1
102
RTVSPost2010Prop55
280
     0
102
RTVSPost2010PropOp55
 70
     1
102
RTVSPost2010Prop56
140
1.0
102
RTVSPost2010PropOp56
 70
     1
102
RTVSPost2010Prop57
140
1.0
102
RTVSPost2010PropOp57
 70
     1
102
RTVSPropertyOp0
 70
     1
102
RTVSPropertyOp1
 70
     1
102
RTVSPropertyOp2
 70
     1
102
RTVSPropertyOp3
 70
     1
102
RTVSPropertyOp4
 70
     1
102
RTVSPropertyOp5
 70
     1
102
RTVSPropertyOp6
 70
     1
102
RTVSPropertyOp7
 70
     1
102
RTVSPropertyOp8
 70
     1
102
RTVSPropertyOp9
 70
     1
102
RTVSPropertyOp10
 70
     1
102
RTVSPropertyOp11
 70
     1
102
RTVSPropertyOp12
 70
     1
102
RTVSPropertyOp13
 70
     1
102
RTVSPropertyOp14
 70
     1
102
RTVSPropertyOp15
 70
     1
102
RTVSPropertyOp16
 70
     1
102
RTVSPropertyOp17
 70
     1
102
RTVSPropertyOp18
 70
     1
102
RTVSPropertyOp19
 70
     1
102
RTVSPropertyOp20
 70
     1
102
RTVSPropertyOp21
 70
     1
102
RTVSPropertyOp22
 70
     1
102
RTVSPropertyOp23
 70
     1
102
RTVSPropertyOp24
 70
     1
102
RTVSPropertyOp25
 70
     1
102
RTVSPropertyOp26
 70
     1
102
RTVSPropertyOp27
 70
     1
102
RTVSPropertyOp28
 70
     1
102
RTVSPropertyOp29
 70
     1
102
RTVSPropertyOp30
 70
     1
102
RTVSPropertyOp31
 70
     1
102
RTVSPropertyOp32
 70
     1
102
RTVSPropertyOp33
 70
     1
102
RTVSPropertyOp34
 70
     1
102
RTVSPropertyOp35
 70
     1
102
RTVSPropertyOp36
 70
     1
102
RTVSPropertyOp37
 70
     1
102
RTVSPropertyOp38
 70
     1
102
RTVSPropertyOp39
 70
     1
102
RTVSPropertyOp40
 70
     1
102
RTVSPropertyOp41
 70
     1
102
RTVSPropertyOp42
 70
     1
102
RTVSPropertyOp43
 70
     1
102
RTVSPropertyOp44
 70
     1
102
RTVSPropertyOp45
 70
     1
102
RTVSPropertyOp46
 70
     1
102
RTVSPropertyOp47
 70
     1
102
RTVSPropertyOp48
 70
     1
102
RTVSPropertyOp49
 70
     1
102
RTVSPropertyOp50
 70
     1
102
RTVSPropertyOp51
 70
     0
102
RTVSPropertyOp52
 70
     0
102
RTVSPropertyOp53
 70
     1
102
RTVSPropertyOp54
 70
     1
102
RTVSPropertyOp55
 70
     1
102
RTVSPropertyOp56
 70
     1
102
RTVSPropertyOp57
 70
     1
102
RTVSPropertyOp58
 70
     1
102
RTVSPropertyOp59
 70
     1
102
RTVSPropertyOp60
 70
     1
102
RTVSPropertyOp61
 70
     1
102
RTVSPropertyOp62
 70
     1
  0
XRECORD
  5
3168C
102
{ACAD_REACTORS
330
3168B
102
}
330
3168B
100
AcDbXrecord
280
     1
102
RTVSPost2010Prop28
280
     0
102
RTVSPost2010PropOp28
 70
     1
102
RTVSPost2010Prop29
280
     1
102
RTVSPost2010PropOp29
 70
     1
102
RTVSPost2010Prop30
280
     1
102
RTVSPost2010PropOp30
 70
     1
102
RTVSPost2010Prop31
280
     0
102
RTVSPost2010PropOp31
 70
     1
102
RTVSPost2010Prop32
280
     0
102
RTVSPost2010PropOp32
 70
     1
102
RTVSPost2010Prop33
280
     0
102
RTVSPost2010PropOp33
 70
     1
102
RTVSPost2010Prop34
280
     0
102
RTVSPost2010PropOp34
 70
     1
102
RTVSPost2010Prop35
280
     0
102
RTVSPost2010PropOp35
 70
     1
102
RTVSPost2010Prop36
280
     0
102
RTVSPost2010PropOp36
 70
     1
102
RTVSPost2010Prop37
 90
       50
102
RTVSPost2010PropOp37
 70
     1
102
RTVSPost2010Prop38
140
0.0
102
RTVSPost2010PropOp38
 70
     1
102
RTVSPost2010Prop39
140
1.0
102
RTVSPost2010PropOp39
 70
     1
102
RTVSPost2010Prop40
 90
        0
102
RTVSPost2010PropOp40
 70
     1
102
RTVSPost2010Prop41ColorIndex
 90
       18
102
RTVSPost2010Prop41ColorRGB
 90
        0
102
RTVSPost2010PropOp41
 70
     1
102
RTVSPost2010Prop42
 90
       50
102
RTVSPost2010PropOp42
 70
     1
102
RTVSPost2010Prop43
 90
        3
102
RTVSPost2010PropOp43
 70
     1
102
RTVSPost2010Prop44ColorIndex
 90
        5
102
RTVSPost2010Prop44ColorRGB
 90
      255
102
RTVSPost2010PropOp44
 70
     1
102
RTVSPost2010Prop45
280
     0
102
RTVSPost2010PropOp45
 70
     1
102
RTVSPost2010Prop46
 90
       50
102
RTVSPost2010PropOp46
 70
     1
102
RTVSPost2010Prop47
 90
       50
102
RTVSPost2010PropOp47
 70
     1
102
RTVSPost2010Prop48
 90
       50
102
RTVSPost2010PropOp48
 70
     1
102
RTVSPost2010Prop49
280
     0
102
RTVSPost2010PropOp49
 70
     1
102
RTVSPost2010Prop50
 90
       50
102
RTVSPost2010PropOp50
 70
     1
102
RTVSPost2010Prop51ColorIndex
 90
      256
102
RTVSPost2010Prop51ColorRGB
 90
-16777216
102
RTVSPost2010PropOp51
 70
     0
102
RTVSPost2010Prop52
140
1.0
102
RTVSPost2010PropOp52
 70
     0
102
RTVSPost2010Prop53
 90
        2
102
RTVSPost2010PropOp53
 70
     1
102
RTVSPost2010Prop54
  1
strokes_ogs.tif
102
RTVSPost2010PropOp54
 70
     1
102
RTVSPost2010Prop55
280
     0
102
RTVSPost2010PropOp55
 70
     1
102
RTVSPost2010Prop56
140
1.0
102
RTVSPost2010PropOp56
 70
     1
102
RTVSPost2010Prop57
140
1.0
102
RTVSPost2010PropOp57
 70
     1
102
RTVSPropertyOp0
 70
     1
102
RTVSPropertyOp1
 70
     1
102
RTVSPropertyOp2
 70
     1
102
RTVSPropertyOp3
 70
     1
102
RTVSPropertyOp4
 70
     1
102
RTVSPropertyOp5
 70
     1
102
RTVSPropertyOp6
 70
     1
102
RTVSPropertyOp7
 70
     1
102
RTVSPropertyOp8
 70
     1
102
RTVSPropertyOp9
 70
     1
102
RTVSPropertyOp10
 70
     1
102
RTVSPropertyOp11
 70
     1
102
RTVSPropertyOp12
 70
     1
102
RTVSPropertyOp13
 70
     1
102
RTVSPropertyOp14
 70
     1
102
RTVSPropertyOp15
 70
     1
102
RTVSPropertyOp16
 70
     1
102
RTVSPropertyOp17
 70
     1
102
RTVSPropertyOp18
 70
     1
102
RTVSPropertyOp19
 70
     1
102
RTVSPropertyOp20
 70
     1
102
RTVSPropertyOp21
 70
     1
102
RTVSPropertyOp22
 70
     1
102
RTVSPropertyOp23
 70
     1
102
RTVSPropertyOp24
 70
     1
102
RTVSPropertyOp25
 70
     1
102
RTVSPropertyOp26
 70
     1
102
RTVSPropertyOp27
 70
     1
102
RTVSPropertyOp28
 70
     1
102
RTVSPropertyOp29
 70
     1
102
RTVSPropertyOp30
 70
     1
102
RTVSPropertyOp31
 70
     1
102
RTVSPropertyOp32
 70
     1
102
RTVSPropertyOp33
 70
     1
102
RTVSPropertyOp34
 70
     1
102
RTVSPropertyOp35
 70
     1
102
RTVSPropertyOp36
 70
     1
102
RTVSPropertyOp37
 70
     1
102
RTVSPropertyOp38
 70
     1
102
RTVSPropertyOp39
 70
     1
102
RTVSPropertyOp40
 70
     1
102
RTVSPropertyOp41
 70
     1
102
RTVSPropertyOp42
 70
     1
102
RTVSPropertyOp43
 70
     1
102
RTVSPropertyOp44
 70
     1
102
RTVSPropertyOp45
 70
     1
102
RTVSPropertyOp46
 70
     1
102
RTVSPropertyOp47
 70
     1
102
RTVSPropertyOp48
 70
     1
102
RTVSPropertyOp49
 70
     1
102
RTVSPropertyOp50
 70
     1
102
RTVSPropertyOp51
 70
     0
102
RTVSPropertyOp52
 70
     0
102
RTVSPropertyOp53
 70
     1
102
RTVSPropertyOp54
 70
     1
102
RTVSPropertyOp55
 70
     1
102
RTVSPropertyOp56
 70
     1
102
RTVSPropertyOp57
 70
     1
102
RTVSPropertyOp58
 70
     1
102
RTVSPropertyOp59
 70
     1
102
RTVSPropertyOp60
 70
     1
102
RTVSPropertyOp61
 70
     1
102
RTVSPropertyOp62
 70
     1
  0
XRECORD
  5
31686
102
{ACAD_REACTORS
330
31685
102
}
330
31685
100
AcDbXrecord
280
     1
102
RTVSPost2010Prop28
280
     0
102
RTVSPost2010PropOp28
 70
     1
102
RTVSPost2010Prop29
280
     1
102
RTVSPost2010PropOp29
 70
     1
102
RTVSPost2010Prop30
280
     1
102
RTVSPost2010PropOp30
 70
     1
102
RTVSPost2010Prop31
280
     0
102
RTVSPost2010PropOp31
 70
     1
102
RTVSPost2010Prop32
280
     0
102
RTVSPost2010PropOp32
 70
     1
102
RTVSPost2010Prop33
280
     0
102
RTVSPost2010PropOp33
 70
     1
102
RTVSPost2010Prop34
280
     0
102
RTVSPost2010PropOp34
 70
     1
102
RTVSPost2010Prop35
280
     0
102
RTVSPost2010PropOp35
 70
     1
102
RTVSPost2010Prop36
280
     0
102
RTVSPost2010PropOp36
 70
     1
102
RTVSPost2010Prop37
 90
       50
102
RTVSPost2010PropOp37
 70
     1
102
RTVSPost2010Prop38
140
0.0
102
RTVSPost2010PropOp38
 70
     1
102
RTVSPost2010Prop39
140
1.0
102
RTVSPost2010PropOp39
 70
     1
102
RTVSPost2010Prop40
 90
        0
102
RTVSPost2010PropOp40
 70
     1
102
RTVSPost2010Prop41ColorIndex
 90
       18
102
RTVSPost2010Prop41ColorRGB
 90
        0
102
RTVSPost2010PropOp41
 70
     1
102
RTVSPost2010Prop42
 90
       50
102
RTVSPost2010PropOp42
 70
     1
102
RTVSPost2010Prop43
 90
        3
102
RTVSPost2010PropOp43
 70
     1
102
RTVSPost2010Prop44ColorIndex
 90
        5
102
RTVSPost2010Prop44ColorRGB
 90
      255
102
RTVSPost2010PropOp44
 70
     1
102
RTVSPost2010Prop45
280
     0
102
RTVSPost2010PropOp45
 70
     1
102
RTVSPost2010Prop46
 90
       50
102
RTVSPost2010PropOp46
 70
     1
102
RTVSPost2010Prop47
 90
       50
102
RTVSPost2010PropOp47
 70
     1
102
RTVSPost2010Prop48
 90
       50
102
RTVSPost2010PropOp48
 70
     1
102
RTVSPost2010Prop49
280
     0
102
RTVSPost2010PropOp49
 70
     1
102
RTVSPost2010Prop50
 90
       50
102
RTVSPost2010PropOp50
 70
     1
102
RTVSPost2010Prop51ColorIndex
 90
      256
102
RTVSPost2010Prop51ColorRGB
 90
-16777216
102
RTVSPost2010PropOp51
 70
     0
102
RTVSPost2010Prop52
140
1.0
102
RTVSPost2010PropOp52
 70
     0
102
RTVSPost2010Prop53
 90
        2
102
RTVSPost2010PropOp53
 70
     1
102
RTVSPost2010Prop54
  1
strokes_ogs.tif
102
RTVSPost2010PropOp54
 70
     1
102
RTVSPost2010Prop55
280
     0
102
RTVSPost2010PropOp55
 70
     1
102
RTVSPost2010Prop56
140
1.0
102
RTVSPost2010PropOp56
 70
     1
102
RTVSPost2010Prop57
140
1.0
102
RTVSPost2010PropOp57
 70
     1
102
RTVSPropertyOp0
 70
     1
102
RTVSPropertyOp1
 70
     1
102
RTVSPropertyOp2
 70
     1
102
RTVSPropertyOp3
 70
     1
102
RTVSPropertyOp4
 70
     1
102
RTVSPropertyOp5
 70
     1
102
RTVSPropertyOp6
 70
     1
102
RTVSPropertyOp7
 70
     1
102
RTVSPropertyOp8
 70
     1
102
RTVSPropertyOp9
 70
     1
102
RTVSPropertyOp10
 70
     1
102
RTVSPropertyOp11
 70
     1
102
RTVSPropertyOp12
 70
     1
102
RTVSPropertyOp13
 70
     1
102
RTVSPropertyOp14
 70
     1
102
RTVSPropertyOp15
 70
     1
102
RTVSPropertyOp16
 70
     1
102
RTVSPropertyOp17
 70
     1
102
RTVSPropertyOp18
 70
     1
102
RTVSPropertyOp19
 70
     1
102
RTVSPropertyOp20
 70
     1
102
RTVSPropertyOp21
 70
     1
102
RTVSPropertyOp22
 70
     1
102
RTVSPropertyOp23
 70
     1
102
RTVSPropertyOp24
 70
     1
102
RTVSPropertyOp25
 70
     1
102
RTVSPropertyOp26
 70
     1
102
RTVSPropertyOp27
 70
     1
102
RTVSPropertyOp28
 70
     1
102
RTVSPropertyOp29
 70
     1
102
RTVSPropertyOp30
 70
     1
102
RTVSPropertyOp31
 70
     1
102
RTVSPropertyOp32
 70
     1
102
RTVSPropertyOp33
 70
     1
102
RTVSPropertyOp34
 70
     1
102
RTVSPropertyOp35
 70
     1
102
RTVSPropertyOp36
 70
     1
102
RTVSPropertyOp37
 70
     1
102
RTVSPropertyOp38
 70
     1
102
RTVSPropertyOp39
 70
     1
102
RTVSPropertyOp40
 70
     1
102
RTVSPropertyOp41
 70
     1
102
RTVSPropertyOp42
 70
     1
102
RTVSPropertyOp43
 70
     1
102
RTVSPropertyOp44
 70
     1
102
RTVSPropertyOp45
 70
     1
102
RTVSPropertyOp46
 70
     1
102
RTVSPropertyOp47
 70
     1
102
RTVSPropertyOp48
 70
     1
102
RTVSPropertyOp49
 70
     1
102
RTVSPropertyOp50
 70
     1
102
RTVSPropertyOp51
 70
     0
102
RTVSPropertyOp52
 70
     0
102
RTVSPropertyOp53
 70
     1
102
RTVSPropertyOp54
 70
     1
102
RTVSPropertyOp55
 70
     1
102
RTVSPropertyOp56
 70
     1
102
RTVSPropertyOp57
 70
     1
102
RTVSPropertyOp58
 70
     1
102
RTVSPropertyOp59
 70
     1
102
RTVSPropertyOp60
 70
     1
102
RTVSPropertyOp61
 70
     1
102
RTVSPropertyOp62
 70
     1
  0
XRECORD
  5
31688
102
{ACAD_REACTORS
330
31687
102
}
330
31687
100
AcDbXrecord
280
     1
102
RTVSPost2010Prop28
280
     0
102
RTVSPost2010PropOp28
 70
     1
102
RTVSPost2010Prop29
280
     1
102
RTVSPost2010PropOp29
 70
     1
102
RTVSPost2010Prop30
280
     1
102
RTVSPost2010PropOp30
 70
     1
102
RTVSPost2010Prop31
280
     0
102
RTVSPost2010PropOp31
 70
     1
102
RTVSPost2010Prop32
280
     0
102
RTVSPost2010PropOp32
 70
     1
102
RTVSPost2010Prop33
280
     0
102
RTVSPost2010PropOp33
 70
     1
102
RTVSPost2010Prop34
280
     0
102
RTVSPost2010PropOp34
 70
     1
102
RTVSPost2010Prop35
280
     0
102
RTVSPost2010PropOp35
 70
     1
102
RTVSPost2010Prop36
280
     0
102
RTVSPost2010PropOp36
 70
     1
102
RTVSPost2010Prop37
 90
       50
102
RTVSPost2010PropOp37
 70
     1
102
RTVSPost2010Prop38
140
0.0
102
RTVSPost2010PropOp38
 70
     1
102
RTVSPost2010Prop39
140
1.0
102
RTVSPost2010PropOp39
 70
     1
102
RTVSPost2010Prop40
 90
        0
102
RTVSPost2010PropOp40
 70
     1
102
RTVSPost2010Prop41ColorIndex
 90
       18
102
RTVSPost2010Prop41ColorRGB
 90
        0
102
RTVSPost2010PropOp41
 70
     1
102
RTVSPost2010Prop42
 90
       50
102
RTVSPost2010PropOp42
 70
     1
102
RTVSPost2010Prop43
 90
        3
102
RTVSPost2010PropOp43
 70
     1
102
RTVSPost2010Prop44ColorIndex
 90
        5
102
RTVSPost2010Prop44ColorRGB
 90
      255
102
RTVSPost2010PropOp44
 70
     1
102
RTVSPost2010Prop45
280
     0
102
RTVSPost2010PropOp45
 70
     1
102
RTVSPost2010Prop46
 90
       50
102
RTVSPost2010PropOp46
 70
     1
102
RTVSPost2010Prop47
 90
       50
102
RTVSPost2010PropOp47
 70
     1
102
RTVSPost2010Prop48
 90
       50
102
RTVSPost2010PropOp48
 70
     1
102
RTVSPost2010Prop49
280
     0
102
RTVSPost2010PropOp49
 70
     1
102
RTVSPost2010Prop50
 90
       50
102
RTVSPost2010PropOp50
 70
     1
102
RTVSPost2010Prop51ColorIndex
 90
      256
102
RTVSPost2010Prop51ColorRGB
 90
-16777216
102
RTVSPost2010PropOp51
 70
     0
102
RTVSPost2010Prop52
140
1.0
102
RTVSPost2010PropOp52
 70
     0
102
RTVSPost2010Prop53
 90
        2
102
RTVSPost2010PropOp53
 70
     1
102
RTVSPost2010Prop54
  1
strokes_ogs.tif
102
RTVSPost2010PropOp54
 70
     1
102
RTVSPost2010Prop55
280
     0
102
RTVSPost2010PropOp55
 70
     1
102
RTVSPost2010Prop56
140
1.0
102
RTVSPost2010PropOp56
 70
     1
102
RTVSPost2010Prop57
140
1.0
102
RTVSPost2010PropOp57
 70
     1
102
RTVSPropertyOp0
 70
     1
102
RTVSPropertyOp1
 70
     1
102
RTVSPropertyOp2
 70
     1
102
RTVSPropertyOp3
 70
     1
102
RTVSPropertyOp4
 70
     1
102
RTVSPropertyOp5
 70
     1
102
RTVSPropertyOp6
 70
     1
102
RTVSPropertyOp7
 70
     1
102
RTVSPropertyOp8
 70
     1
102
RTVSPropertyOp9
 70
     1
102
RTVSPropertyOp10
 70
     1
102
RTVSPropertyOp11
 70
     1
102
RTVSPropertyOp12
 70
     1
102
RTVSPropertyOp13
 70
     1
102
RTVSPropertyOp14
 70
     1
102
RTVSPropertyOp15
 70
     1
102
RTVSPropertyOp16
 70
     1
102
RTVSPropertyOp17
 70
     1
102
RTVSPropertyOp18
 70
     1
102
RTVSPropertyOp19
 70
     1
102
RTVSPropertyOp20
 70
     1
102
RTVSPropertyOp21
 70
     1
102
RTVSPropertyOp22
 70
     1
102
RTVSPropertyOp23
 70
     1
102
RTVSPropertyOp24
 70
     1
102
RTVSPropertyOp25
 70
     1
102
RTVSPropertyOp26
 70
     1
102
RTVSPropertyOp27
 70
     1
102
RTVSPropertyOp28
 70
     1
102
RTVSPropertyOp29
 70
     1
102
RTVSPropertyOp30
 70
     1
102
RTVSPropertyOp31
 70
     1
102
RTVSPropertyOp32
 70
     1
102
RTVSPropertyOp33
 70
     1
102
RTVSPropertyOp34
 70
     1
102
RTVSPropertyOp35
 70
     1
102
RTVSPropertyOp36
 70
     1
102
RTVSPropertyOp37
 70
     1
102
RTVSPropertyOp38
 70
     1
102
RTVSPropertyOp39
 70
     1
102
RTVSPropertyOp40
 70
     1
102
RTVSPropertyOp41
 70
     1
102
RTVSPropertyOp42
 70
     1
102
RTVSPropertyOp43
 70
     1
102
RTVSPropertyOp44
 70
     1
102
RTVSPropertyOp45
 70
     1
102
RTVSPropertyOp46
 70
     1
102
RTVSPropertyOp47
 70
     1
102
RTVSPropertyOp48
 70
     1
102
RTVSPropertyOp49
 70
     1
102
RTVSPropertyOp50
 70
     1
102
RTVSPropertyOp51
 70
     0
102
RTVSPropertyOp52
 70
     0
102
RTVSPropertyOp53
 70
     1
102
RTVSPropertyOp54
 70
     1
102
RTVSPropertyOp55
 70
     1
102
RTVSPropertyOp56
 70
     1
102
RTVSPropertyOp57
 70
     1
102
RTVSPropertyOp58
 70
     1
102
RTVSPropertyOp59
 70
     1
102
RTVSPropertyOp60
 70
     1
102
RTVSPropertyOp61
 70
     1
102
RTVSPropertyOp62
 70
     1
  0
XRECORD
  5
3167E
102
{ACAD_REACTORS
330
3167D
102
}
330
3167D
100
AcDbXrecord
280
     1
102
RTVSPost2010Prop28
280
     0
102
RTVSPost2010PropOp28
 70
     1
102
RTVSPost2010Prop29
280
     1
102
RTVSPost2010PropOp29
 70
     1
102
RTVSPost2010Prop30
280
     1
102
RTVSPost2010PropOp30
 70
     1
102
RTVSPost2010Prop31
280
     0
102
RTVSPost2010PropOp31
 70
     1
102
RTVSPost2010Prop32
280
     0
102
RTVSPost2010PropOp32
 70
     1
102
RTVSPost2010Prop33
280
     0
102
RTVSPost2010PropOp33
 70
     1
102
RTVSPost2010Prop34
280
     0
102
RTVSPost2010PropOp34
 70
     1
102
RTVSPost2010Prop35
280
     0
102
RTVSPost2010PropOp35
 70
     1
102
RTVSPost2010Prop36
280
     0
102
RTVSPost2010PropOp36
 70
     1
102
RTVSPost2010Prop37
 90
       50
102
RTVSPost2010PropOp37
 70
     1
102
RTVSPost2010Prop38
140
0.0
102
RTVSPost2010PropOp38
 70
     1
102
RTVSPost2010Prop39
140
1.0
102
RTVSPost2010PropOp39
 70
     1
102
RTVSPost2010Prop40
 90
        0
102
RTVSPost2010PropOp40
 70
     1
102
RTVSPost2010Prop41ColorIndex
 90
       18
102
RTVSPost2010Prop41ColorRGB
 90
        0
102
RTVSPost2010PropOp41
 70
     1
102
RTVSPost2010Prop42
 90
       50
102
RTVSPost2010PropOp42
 70
     1
102
RTVSPost2010Prop43
 90
        3
102
RTVSPost2010PropOp43
 70
     1
102
RTVSPost2010Prop44ColorIndex
 90
        5
102
RTVSPost2010Prop44ColorRGB
 90
      255
102
RTVSPost2010PropOp44
 70
     1
102
RTVSPost2010Prop45
280
     0
102
RTVSPost2010PropOp45
 70
     1
102
RTVSPost2010Prop46
 90
       50
102
RTVSPost2010PropOp46
 70
     1
102
RTVSPost2010Prop47
 90
       50
102
RTVSPost2010PropOp47
 70
     1
102
RTVSPost2010Prop48
 90
       50
102
RTVSPost2010PropOp48
 70
     1
102
RTVSPost2010Prop49
280
     0
102
RTVSPost2010PropOp49
 70
     1
102
RTVSPost2010Prop50
 90
       50
102
RTVSPost2010PropOp50
 70
     1
102
RTVSPost2010Prop51ColorIndex
 90
      256
102
RTVSPost2010Prop51ColorRGB
 90
-16777216
102
RTVSPost2010PropOp51
 70
     0
102
RTVSPost2010Prop52
140
1.0
102
RTVSPost2010PropOp52
 70
     0
102
RTVSPost2010Prop53
 90
        2
102
RTVSPost2010PropOp53
 70
     1
102
RTVSPost2010Prop54
  1
strokes_ogs.tif
102
RTVSPost2010PropOp54
 70
     1
102
RTVSPost2010Prop55
280
     0
102
RTVSPost2010PropOp55
 70
     1
102
RTVSPost2010Prop56
140
1.0
102
RTVSPost2010PropOp56
 70
     1
102
RTVSPost2010Prop57
140
1.0
102
RTVSPost2010PropOp57
 70
     1
102
RTVSPropertyOp0
 70
     1
102
RTVSPropertyOp1
 70
     1
102
RTVSPropertyOp2
 70
     1
102
RTVSPropertyOp3
 70
     1
102
RTVSPropertyOp4
 70
     1
102
RTVSPropertyOp5
 70
     1
102
RTVSPropertyOp6
 70
     1
102
RTVSPropertyOp7
 70
     1
102
RTVSPropertyOp8
 70
     1
102
RTVSPropertyOp9
 70
     1
102
RTVSPropertyOp10
 70
     1
102
RTVSPropertyOp11
 70
     1
102
RTVSPropertyOp12
 70
     1
102
RTVSPropertyOp13
 70
     1
102
RTVSPropertyOp14
 70
     1
102
RTVSPropertyOp15
 70
     1
102
RTVSPropertyOp16
 70
     1
102
RTVSPropertyOp17
 70
     1
102
RTVSPropertyOp18
 70
     1
102
RTVSPropertyOp19
 70
     1
102
RTVSPropertyOp20
 70
     1
102
RTVSPropertyOp21
 70
     1
102
RTVSPropertyOp22
 70
     1
102
RTVSPropertyOp23
 70
     1
102
RTVSPropertyOp24
 70
     1
102
RTVSPropertyOp25
 70
     1
102
RTVSPropertyOp26
 70
     1
102
RTVSPropertyOp27
 70
     1
102
RTVSPropertyOp28
 70
     1
102
RTVSPropertyOp29
 70
     1
102
RTVSPropertyOp30
 70
     1
102
RTVSPropertyOp31
 70
     1
102
RTVSPropertyOp32
 70
     1
102
RTVSPropertyOp33
 70
     1
102
RTVSPropertyOp34
 70
     1
102
RTVSPropertyOp35
 70
     1
102
RTVSPropertyOp36
 70
     1
102
RTVSPropertyOp37
 70
     1
102
RTVSPropertyOp38
 70
     1
102
RTVSPropertyOp39
 70
     1
102
RTVSPropertyOp40
 70
     1
102
RTVSPropertyOp41
 70
     1
102
RTVSPropertyOp42
 70
     1
102
RTVSPropertyOp43
 70
     1
102
RTVSPropertyOp44
 70
     1
102
RTVSPropertyOp45
 70
     1
102
RTVSPropertyOp46
 70
     1
102
RTVSPropertyOp47
 70
     1
102
RTVSPropertyOp48
 70
     1
102
RTVSPropertyOp49
 70
     1
102
RTVSPropertyOp50
 70
     1
102
RTVSPropertyOp51
 70
     0
102
RTVSPropertyOp52
 70
     0
102
RTVSPropertyOp53
 70
     1
102
RTVSPropertyOp54
 70
     1
102
RTVSPropertyOp55
 70
     1
102
RTVSPropertyOp56
 70
     1
102
RTVSPropertyOp57
 70
     1
102
RTVSPropertyOp58
 70
     1
102
RTVSPropertyOp59
 70
     1
102
RTVSPropertyOp60
 70
     1
102
RTVSPropertyOp61
 70
     1
102
RTVSPropertyOp62
 70
     1
  0
XRECORD
  5
31672
102
{ACAD_REACTORS
330
31671
102
}
330
31671
100
AcDbXrecord
280
     1
102
RTVSPost2010Prop28
280
     0
102
RTVSPost2010PropOp28
 70
     1
102
RTVSPost2010Prop29
280
     1
102
RTVSPost2010PropOp29
 70
     1
102
RTVSPost2010Prop30
280
     1
102
RTVSPost2010PropOp30
 70
     1
102
RTVSPost2010Prop31
280
     0
102
RTVSPost2010PropOp31
 70
     1
102
RTVSPost2010Prop32
280
     0
102
RTVSPost2010PropOp32
 70
     1
102
RTVSPost2010Prop33
280
     0
102
RTVSPost2010PropOp33
 70
     1
102
RTVSPost2010Prop34
280
     0
102
RTVSPost2010PropOp34
 70
     1
102
RTVSPost2010Prop35
280
     0
102
RTVSPost2010PropOp35
 70
     1
102
RTVSPost2010Prop36
280
     0
102
RTVSPost2010PropOp36
 70
     1
102
RTVSPost2010Prop37
 90
       50
102
RTVSPost2010PropOp37
 70
     1
102
RTVSPost2010Prop38
140
0.0
102
RTVSPost2010PropOp38
 70
     1
102
RTVSPost2010Prop39
140
1.0
102
RTVSPost2010PropOp39
 70
     1
102
RTVSPost2010Prop40
 90
        0
102
RTVSPost2010PropOp40
 70
     1
102
RTVSPost2010Prop41ColorIndex
 90
       18
102
RTVSPost2010Prop41ColorRGB
 90
        0
102
RTVSPost2010PropOp41
 70
     1
102
RTVSPost2010Prop42
 90
       50
102
RTVSPost2010PropOp42
 70
     1
102
RTVSPost2010Prop43
 90
        3
102
RTVSPost2010PropOp43
 70
     1
102
RTVSPost2010Prop44ColorIndex
 90
        5
102
RTVSPost2010Prop44ColorRGB
 90
      255
102
RTVSPost2010PropOp44
 70
     1
102
RTVSPost2010Prop45
280
     0
102
RTVSPost2010PropOp45
 70
     1
102
RTVSPost2010Prop46
 90
       50
102
RTVSPost2010PropOp46
 70
     1
102
RTVSPost2010Prop47
 90
       50
102
RTVSPost2010PropOp47
 70
     1
102
RTVSPost2010Prop48
 90
       50
102
RTVSPost2010PropOp48
 70
     1
102
RTVSPost2010Prop49
280
     0
102
RTVSPost2010PropOp49
 70
     1
102
RTVSPost2010Prop50
 90
       50
102
RTVSPost2010PropOp50
 70
     1
102
RTVSPost2010Prop51ColorIndex
 90
      256
102
RTVSPost2010Prop51ColorRGB
 90
-16777216
102
RTVSPost2010PropOp51
 70
     0
102
RTVSPost2010Prop52
140
1.0
102
RTVSPost2010PropOp52
 70
     0
102
RTVSPost2010Prop53
 90
        2
102
RTVSPost2010PropOp53
 70
     1
102
RTVSPost2010Prop54
  1
strokes_ogs.tif
102
RTVSPost2010PropOp54
 70
     1
102
RTVSPost2010Prop55
280
     0
102
RTVSPost2010PropOp55
 70
     1
102
RTVSPost2010Prop56
140
1.0
102
RTVSPost2010PropOp56
 70
     1
102
RTVSPost2010Prop57
140
1.0
102
RTVSPost2010PropOp57
 70
     1
102
RTVSPropertyOp0
 70
     1
102
RTVSPropertyOp1
 70
     1
102
RTVSPropertyOp2
 70
     1
102
RTVSPropertyOp3
 70
     1
102
RTVSPropertyOp4
 70
     1
102
RTVSPropertyOp5
 70
     1
102
RTVSPropertyOp6
 70
     1
102
RTVSPropertyOp7
 70
     1
102
RTVSPropertyOp8
 70
     1
102
RTVSPropertyOp9
 70
     1
102
RTVSPropertyOp10
 70
     1
102
RTVSPropertyOp11
 70
     1
102
RTVSPropertyOp12
 70
     1
102
RTVSPropertyOp13
 70
     1
102
RTVSPropertyOp14
 70
     1
102
RTVSPropertyOp15
 70
     1
102
RTVSPropertyOp16
 70
     1
102
RTVSPropertyOp17
 70
     1
102
RTVSPropertyOp18
 70
     1
102
RTVSPropertyOp19
 70
     1
102
RTVSPropertyOp20
 70
     1
102
RTVSPropertyOp21
 70
     1
102
RTVSPropertyOp22
 70
     1
102
RTVSPropertyOp23
 70
     1
102
RTVSPropertyOp24
 70
     1
102
RTVSPropertyOp25
 70
     1
102
RTVSPropertyOp26
 70
     1
102
RTVSPropertyOp27
 70
     1
102
RTVSPropertyOp28
 70
     1
102
RTVSPropertyOp29
 70
     1
102
RTVSPropertyOp30
 70
     1
102
RTVSPropertyOp31
 70
     1
102
RTVSPropertyOp32
 70
     1
102
RTVSPropertyOp33
 70
     1
102
RTVSPropertyOp34
 70
     1
102
RTVSPropertyOp35
 70
     1
102
RTVSPropertyOp36
 70
     1
102
RTVSPropertyOp37
 70
     1
102
RTVSPropertyOp38
 70
     1
102
RTVSPropertyOp39
 70
     1
102
RTVSPropertyOp40
 70
     1
102
RTVSPropertyOp41
 70
     1
102
RTVSPropertyOp42
 70
     1
102
RTVSPropertyOp43
 70
     1
102
RTVSPropertyOp44
 70
     1
102
RTVSPropertyOp45
 70
     1
102
RTVSPropertyOp46
 70
     1
102
RTVSPropertyOp47
 70
     1
102
RTVSPropertyOp48
 70
     1
102
RTVSPropertyOp49
 70
     1
102
RTVSPropertyOp50
 70
     1
102
RTVSPropertyOp51
 70
     0
102
RTVSPropertyOp52
 70
     0
102
RTVSPropertyOp53
 70
     1
102
RTVSPropertyOp54
 70
     1
102
RTVSPropertyOp55
 70
     1
102
RTVSPropertyOp56
 70
     1
102
RTVSPropertyOp57
 70
     1
102
RTVSPropertyOp58
 70
     1
102
RTVSPropertyOp59
 70
     1
102
RTVSPropertyOp60
 70
     1
102
RTVSPropertyOp61
 70
     1
102
RTVSPropertyOp62
 70
     1
  0
XRECORD
  5
3168A
102
{ACAD_REACTORS
330
31689
102
}
330
31689
100
AcDbXrecord
280
     1
102
RTVSPost2010Prop28
280
     0
102
RTVSPost2010PropOp28
 70
     1
102
RTVSPost2010Prop29
280
     1
102
RTVSPost2010PropOp29
 70
     1
102
RTVSPost2010Prop30
280
     1
102
RTVSPost2010PropOp30
 70
     1
102
RTVSPost2010Prop31
280
     0
102
RTVSPost2010PropOp31
 70
     1
102
RTVSPost2010Prop32
280
     0
102
RTVSPost2010PropOp32
 70
     1
102
RTVSPost2010Prop33
280
     0
102
RTVSPost2010PropOp33
 70
     1
102
RTVSPost2010Prop34
280
     0
102
RTVSPost2010PropOp34
 70
     1
102
RTVSPost2010Prop35
280
     0
102
RTVSPost2010PropOp35
 70
     1
102
RTVSPost2010Prop36
280
     0
102
RTVSPost2010PropOp36
 70
     1
102
RTVSPost2010Prop37
 90
       50
102
RTVSPost2010PropOp37
 70
     1
102
RTVSPost2010Prop38
140
0.0
102
RTVSPost2010PropOp38
 70
     1
102
RTVSPost2010Prop39
140
1.0
102
RTVSPost2010PropOp39
 70
     1
102
RTVSPost2010Prop40
 90
        0
102
RTVSPost2010PropOp40
 70
     1
102
RTVSPost2010Prop41ColorIndex
 90
       18
102
RTVSPost2010Prop41ColorRGB
 90
        0
102
RTVSPost2010PropOp41
 70
     1
102
RTVSPost2010Prop42
 90
       50
102
RTVSPost2010PropOp42
 70
     1
102
RTVSPost2010Prop43
 90
        3
102
RTVSPost2010PropOp43
 70
     1
102
RTVSPost2010Prop44ColorIndex
 90
        5
102
RTVSPost2010Prop44ColorRGB
 90
      255
102
RTVSPost2010PropOp44
 70
     1
102
RTVSPost2010Prop45
280
     0
102
RTVSPost2010PropOp45
 70
     1
102
RTVSPost2010Prop46
 90
       50
102
RTVSPost2010PropOp46
 70
     1
102
RTVSPost2010Prop47
 90
       50
102
RTVSPost2010PropOp47
 70
     1
102
RTVSPost2010Prop48
 90
       50
102
RTVSPost2010PropOp48
 70
     1
102
RTVSPost2010Prop49
280
     0
102
RTVSPost2010PropOp49
 70
     1
102
RTVSPost2010Prop50
 90
       50
102
RTVSPost2010PropOp50
 70
     1
102
RTVSPost2010Prop51ColorIndex
 90
      256
102
RTVSPost2010Prop51ColorRGB
 90
-16777216
102
RTVSPost2010PropOp51
 70
     0
102
RTVSPost2010Prop52
140
1.0
102
RTVSPost2010PropOp52
 70
     0
102
RTVSPost2010Prop53
 90
        2
102
RTVSPost2010PropOp53
 70
     1
102
RTVSPost2010Prop54
  1
strokes_ogs.tif
102
RTVSPost2010PropOp54
 70
     1
102
RTVSPost2010Prop55
280
     0
102
RTVSPost2010PropOp55
 70
     1
102
RTVSPost2010Prop56
140
1.0
102
RTVSPost2010PropOp56
 70
     1
102
RTVSPost2010Prop57
140
1.0
102
RTVSPost2010PropOp57
 70
     1
102
RTVSPropertyOp0
 70
     1
102
RTVSPropertyOp1
 70
     1
102
RTVSPropertyOp2
 70
     1
102
RTVSPropertyOp3
 70
     1
102
RTVSPropertyOp4
 70
     1
102
RTVSPropertyOp5
 70
     1
102
RTVSPropertyOp6
 70
     1
102
RTVSPropertyOp7
 70
     1
102
RTVSPropertyOp8
 70
     1
102
RTVSPropertyOp9
 70
     1
102
RTVSPropertyOp10
 70
     1
102
RTVSPropertyOp11
 70
     1
102
RTVSPropertyOp12
 70
     1
102
RTVSPropertyOp13
 70
     1
102
RTVSPropertyOp14
 70
     1
102
RTVSPropertyOp15
 70
     1
102
RTVSPropertyOp16
 70
     1
102
RTVSPropertyOp17
 70
     1
102
RTVSPropertyOp18
 70
     1
102
RTVSPropertyOp19
 70
     1
102
RTVSPropertyOp20
 70
     1
102
RTVSPropertyOp21
 70
     1
102
RTVSPropertyOp22
 70
     1
102
RTVSPropertyOp23
 70
     1
102
RTVSPropertyOp24
 70
     1
102
RTVSPropertyOp25
 70
     1
102
RTVSPropertyOp26
 70
     1
102
RTVSPropertyOp27
 70
     1
102
RTVSPropertyOp28
 70
     1
102
RTVSPropertyOp29
 70
     1
102
RTVSPropertyOp30
 70
     1
102
RTVSPropertyOp31
 70
     1
102
RTVSPropertyOp32
 70
     1
102
RTVSPropertyOp33
 70
     1
102
RTVSPropertyOp34
 70
     1
102
RTVSPropertyOp35
 70
     1
102
RTVSPropertyOp36
 70
     1
102
RTVSPropertyOp37
 70
     1
102
RTVSPropertyOp38
 70
     1
102
RTVSPropertyOp39
 70
     1
102
RTVSPropertyOp40
 70
     1
102
RTVSPropertyOp41
 70
     1
102
RTVSPropertyOp42
 70
     1
102
RTVSPropertyOp43
 70
     1
102
RTVSPropertyOp44
 70
     1
102
RTVSPropertyOp45
 70
     1
102
RTVSPropertyOp46
 70
     1
102
RTVSPropertyOp47
 70
     1
102
RTVSPropertyOp48
 70
     1
102
RTVSPropertyOp49
 70
     1
102
RTVSPropertyOp50
 70
     1
102
RTVSPropertyOp51
 70
     0
102
RTVSPropertyOp52
 70
     0
102
RTVSPropertyOp53
 70
     1
102
RTVSPropertyOp54
 70
     1
102
RTVSPropertyOp55
 70
     1
102
RTVSPropertyOp56
 70
     1
102
RTVSPropertyOp57
 70
     1
102
RTVSPropertyOp58
 70
     1
102
RTVSPropertyOp59
 70
     1
102
RTVSPropertyOp60
 70
     1
102
RTVSPropertyOp61
 70
     1
102
RTVSPropertyOp62
 70
     1
  0
ENDSEC
  0
EOF
