  0
SECTION
  2
HEADER
  9
$ACADVER
  1
AC1015
  9
$ACADMAINTVER
 70
    20
  9
$DWGCODEPAGE
  3
ANSI_932
  9
$INSBASE
 10
0.0
 20
0.0
 30
0.0
  9
$EXTMIN
 10
139.9999999999995
 20
-0.0000000000000909
 30
0.0
  9
$EXTMAX
 10
16307.2
 20
11409.6
 30
0.0
  9
$LIMMIN
 10
0.0
 20
0.0
  9
$LIMMAX
 10
16800.0
 20
11880.0
  9
$ORTHOMODE
 70
     0
  9
$REGENMODE
 70
     1
  9
$FILLMODE
 70
     1
  9
$QTEXTMODE
 70
     0
  9
$MIRRTEXT
 70
     1
  9
$LTSCALE
 40
20.0
  9
$ATTMODE
 70
     1
  9
$TEXTSIZE
 40
100.0
  9
$TRACEWID
 40
1.0
  9
$TEXTSTYLE
  7
STYLE3
  9
$CLAYER
  8
部品1
  9
$CELTYPE
  6
BYLAYER
  9
$CECOLOR
 62
   256
  9
$CELTSCALE
 40
50.0
  9
$DISPSILH
 70
     0
  9
$DIMSCALE
 40
40.0
  9
$DIMASZ
 40
0.5
  9
$DIMEXO
 40
0.5
  9
$DIMDLI
 40
7.0
  9
$DIMRND
 40
0.0
  9
$DIMDLE
 40
0.0
  9
$DIMEXE
 40
1.0
  9
$DIMTP
 40
0.0
  9
$DIMTM
 40
0.0
  9
$DIMTXT
 40
3.0
  9
$DIMCEN
 40
0.0
  9
$DIMTSZ
 40
0.0
  9
$DIMTOL
 70
     0
  9
$DIMLIM
 70
     0
  9
$DIMTIH
 70
     0
  9
$DIMTOH
 70
     0
  9
$DIMSE1
 70
     0
  9
$DIMSE2
 70
     0
  9
$DIMTAD
 70
     3
  9
$DIMZIN
 70
     8
  9
$DIMBLK
  1

  9
$DIMASO
 70
     1
  9
$DIMSHO
 70
     1
  9
$DIMPOST
  1

  9
$DIMAPOST
  1

  9
$DIMALT
 70
     0
  9
$DIMALTD
 70
     2
  9
$DIMALTF
 40
0.0394
  9
$DIMLFAC
 40
1.0
  9
$DIMTOFL
 70
     1
  9
$DIMTVP
 40
0.0
  9
$DIMTIX
 70
     1
  9
$DIMSOXD
 70
     1
  9
$DIMSAH
 70
     1
  9
$DIMBLK1
  1
DOT
  9
$DIMBLK2
  1
DOT
  9
$DIMSTYLE
  2
INABA_S40
  9
$DIMCLRD
 70
     0
  9
$DIMCLRE
 70
     0
  9
$DIMCLRT
 70
     7
  9
$DIMTFAC
 40
1.0
  9
$DIMGAP
 40
0.8
  9
$DIMJUST
 70
     0
  9
$DIMSD1
 70
     0
  9
$DIMSD2
 70
     0
  9
$DIMTOLJ
 70
     1
  9
$DIMTZIN
 70
     0
  9
$DIMALTZ
 70
     0
  9
$DIMALTTZ
 70
     0
  9
$DIMUPT
 70
     0
  9
$DIMDEC
 70
     2
  9
$DIMTDEC
 70
     2
  9
$DIMALTU
 70
     2
  9
$DIMALTTD
 70
     2
  9
$DIMTXSTY
  7
STYLE1
  9
$DIMAUNIT
 70
     0
  9
$DIMADEC
 70
     0
  9
$DIMALTRND
 40
0.0
  9
$DIMAZIN
 70
     0
  9
$DIMDSEP
 70
    46
  9
$DIMATFIT
 70
     3
  9
$DIMFRAC
 70
     0
  9
$DIMLDRBLK
  1

  9
$DIMLUNIT
 70
     2
  9
$DIMLWD
 70
    -2
  9
$DIMLWE
 70
    -2
  9
$DIMTMOVE
 70
     0
  9
$LUNITS
 70
     2
  9
$LUPREC
 70
     1
  9
$SKETCHINC
 40
1.0
  9
$FILLETRAD
 40
5.0
  9
$AUNITS
 70
     0
  9
$AUPREC
 70
     0
  9
$MENU
  1
acad
  9
$ELEVATION
 40
0.0
  9
$PELEVATION
 40
0.0
  9
$THICKNESS
 40
0.0
  9
$LIMCHECK
 70
     0
  9
$CHAMFERA
 40
0.0
  9
$CHAMFERB
 40
0.0
  9
$CHAMFERC
 40
0.0
  9
$CHAMFERD
 40
0.0
  9
$SKPOLY
 70
     0
  9
$TDCREATE
 40
2451590.492424190
  9
$TDUCREATE
 40
2451590.117424190
  9
$TDUPDATE
 40
2455575.700979989
  9
$TDUUPDATE
 40
2455575.325979989
  9
$TDINDWG
 40
0.3523365278
  9
$TDUSRTIMER
 40
0.3523354398
  9
$USRTIMER
 70
     1
  9
$ANGBASE
 50
0.0
  9
$ANGDIR
 70
     0
  9
$PDMODE
 70
     3
  9
$PDSIZE
 40
2.0
  9
$PLINEWID
 40
0.0
  9
$SPLFRAME
 70
     0
  9
$SPLINETYPE
 70
     6
  9
$SPLINESEGS
 70
     8
  9
$HANDSEED
  5
18EC0
  9
$SURFTAB1
 70
     6
  9
$SURFTAB2
 70
     6
  9
$SURFTYPE
 70
     6
  9
$SURFU
 70
     6
  9
$SURFV
 70
     6
  9
$UCSBASE
  2

  9
$UCSNAME
  2

  9
$UCSORG
 10
0.0
 20
0.0
 30
0.0
  9
$UCSXDIR
 10
1.0
 20
0.0
 30
0.0
  9
$UCSYDIR
 10
0.0
 20
1.0
 30
0.0
  9
$UCSORTHOREF
  2

  9
$UCSORTHOVIEW
 70
     0
  9
$UCSORGTOP
 10
0.0
 20
0.0
 30
0.0
  9
$UCSORGBOTTOM
 10
0.0
 20
0.0
 30
0.0
  9
$UCSORGLEFT
 10
0.0
 20
0.0
 30
0.0
  9
$UCSORGRIGHT
 10
0.0
 20
0.0
 30
0.0
  9
$UCSORGFRONT
 10
0.0
 20
0.0
 30
0.0
  9
$UCSORGBACK
 10
0.0
 20
0.0
 30
0.0
  9
$PUCSBASE
  2

  9
$PUCSNAME
  2

  9
$PUCSORG
 10
0.0
 20
0.0
 30
0.0
  9
$PUCSXDIR
 10
1.0
 20
0.0
 30
0.0
  9
$PUCSYDIR
 10
0.0
 20
1.0
 30
0.0
  9
$PUCSORTHOREF
  2

  9
$PUCSORTHOVIEW
 70
     0
  9
$PUCSORGTOP
 10
0.0
 20
0.0
 30
0.0
  9
$PUCSORGBOTTOM
 10
0.0
 20
0.0
 30
0.0
  9
$PUCSORGLEFT
 10
0.0
 20
0.0
 30
0.0
  9
$PUCSORGRIGHT
 10
0.0
 20
0.0
 30
0.0
  9
$PUCSORGFRONT
 10
0.0
 20
0.0
 30
0.0
  9
$PUCSORGBACK
 10
0.0
 20
0.0
 30
0.0
  9
$USERI1
 70
     0
  9
$USERI2
 70
     0
  9
$USERI3
 70
     0
  9
$USERI4
 70
     0
  9
$USERI5
 70
     0
  9
$USERR1
 40
0.0
  9
$USERR2
 40
0.0
  9
$USERR3
 40
0.0
  9
$USERR4
 40
0.0
  9
$USERR5
 40
0.0
  9
$WORLDVIEW
 70
     1
  9
$SHADEDGE
 70
     3
  9
$SHADEDIF
 70
    70
  9
$TILEMODE
 70
     1
  9
$MAXACTVP
 70
    16
  9
$PINSBASE
 10
0.0
 20
0.0
 30
0.0
  9
$PLIMCHECK
 70
     0
  9
$PEXTMIN
 10
1.000000000000000E+20
 20
1.000000000000000E+20
 30
1.000000000000000E+20
  9
$PEXTMAX
 10
-1.000000000000000E+20
 20
-1.000000000000000E+20
 30
-1.000000000000000E+20
  9
$PLIMMIN
 10
0.0
 20
0.0
  9
$PLIMMAX
 10
420.0
 20
297.0
  9
$UNITMODE
 70
     0
  9
$VISRETAIN
 70
     0
  9
$PLINEGEN
 70
     0
  9
$PSLTSCALE
 70
     0
  9
$TREEDEPTH
 70
  3020
  9
$CMLSTYLE
  2
STANDARD
  9
$CMLJUST
 70
     0
  9
$CMLSCALE
 40
1.0
  9
$PROXYGRAPHICS
 70
     1
  9
$MEASUREMENT
 70
     1
  9
$CELWEIGHT
370
    -1
  9
$ENDCAPS
280
     0
  9
$JOINSTYLE
280
     0
  9
$LWDISPLAY
290
     0
  9
$INSUNITS
 70
     0
  9
$HYPERLINKBASE
  1

  9
$STYLESHEET
  1

  9
$XEDIT
290
     1
  9
$CEPSNTYPE
380
     0
  9
$PSTYLEMODE
290
     1
  9
$FINGERPRINTGUID
  2
{9E0F4C8E-3C35-47E9-B2F5-84C05B8ACD70}
  9
$VERSIONGUID
  2
{871B825C-8F1D-4520-A684-CEBAA2318147}
  9
$EXTNAMES
290
     1
  9
$PSVPSCALE
 40
0.0
  9
$OLESTARTUP
290
     0
  0
ENDSEC
  0
SECTION
  2
CLASSES
  0
CLASS
  1
ACDBDICTIONARYWDFLT
  2
AcDbDictionaryWithDefault
  3
ObjectDBX Classes
 90
        0
280
     0
281
     0
  0
CLASS
  1
DICTIONARYVAR
  2
AcDbDictionaryVar
  3
ObjectDBX Classes
 90
        0
280
     0
281
     0
  0
CLASS
  1
ACDBPLACEHOLDER
  2
AcDbPlaceHolder
  3
ObjectDBX Classes
 90
        0
280
     0
281
     0
  0
CLASS
  1
LAYOUT
  2
AcDbLayout
  3
ObjectDBX Classes
 90
        0
280
     0
281
     0
  0
ENDSEC
  0
SECTION
  2
TABLES
  0
TABLE
  2
VPORT
  5
746D
330
0
100
AcDbSymbolTable
 70
     2
  0
VPORT
  5
18EB8
330
746D
100
AcDbSymbolTableRecord
100
AcDbViewportTableRecord
  2
*Active
 70
     0
 10
0.0
 20
0.0
 11
1.0
 21
1.0
 12
8223.761025238502
 22
6348.767642148464
 13
0.0
 23
0.0
 14
10.0
 24
10.0
 15
10.0
 25
10.0
 16
0.0
 26
0.0
 36
1.0
 17
0.0
 27
0.0
 37
0.0
 40
12805.3711672054
 41
1.525925925925925
 42
50.0
 43
0.0
 44
0.0
 50
0.0
 51
0.0
 71
     0
 72
     0
 73
     1
 74
     0
 75
     0
 76
     0
 77
     0
 78
     0
281
     0
 65
     1
110
0.0
120
0.0
130
0.0
111
1.0
121
0.0
131
0.0
112
0.0
122
1.0
132
0.0
 79
     0
146
0.0
  0
ENDTAB
  0
TABLE
  2
LTYPE
  5
746A
330
0
100
AcDbSymbolTable
 70
    12
  0
LTYPE
  5
7477
330
746A
100
AcDbSymbolTableRecord
100
AcDbLinetypeTableRecord
  2
BYBLOCK
 70
     0
  3

 72
    65
 73
     0
 40
0.0
  0
LTYPE
  5
7478
330
746A
100
AcDbSymbolTableRecord
100
AcDbLinetypeTableRecord
  2
BYLAYER
 70
     0
  3

 72
    65
 73
     0
 40
0.0
  0
LTYPE
  5
7479
330
746A
100
AcDbSymbolTableRecord
100
AcDbLinetypeTableRecord
  2
CONTINUOUS
 70
     0
  3
Solid line
 72
    65
 73
     0
 40
0.0
  0
LTYPE
  5
7816
330
746A
100
AcDbSymbolTableRecord
100
AcDbLinetypeTableRecord
  2
CENTER
 70
     0
  3
____ _ ____ _ ____ _ ____ _ ____ _ ____ _ ____ 
 72
    65
 73
     4
 40
2.0
 49
1.25
 74
     0
 49
-0.25
 74
     0
 49
0.25
 74
     0
 49
-0.25
 74
     0
  0
LTYPE
  5
781A
330
746A
100
AcDbSymbolTableRecord
100
AcDbLinetypeTableRecord
  2
HIDDEN
 70
     0
  3
__ __ __ __ __ __ __ __ __ __ __ __ __ __ __ __
 72
    65
 73
     2
 40
0.375
 49
0.25
 74
     0
 49
-0.125
 74
     0
  0
LTYPE
  5
781B
330
746A
100
AcDbSymbolTableRecord
100
AcDbLinetypeTableRecord
  2
PHANTOM
 70
     0
  3
______  __  __  ______  __  __  ______  __  __ 
 72
    65
 73
     6
 40
2.5
 49
1.25
 74
     0
 49
-0.25
 74
     0
 49
0.25
 74
     0
 49
-0.25
 74
     0
 49
0.25
 74
     0
 49
-0.25
 74
     0
  0
LTYPE
  5
145D8
330
746A
100
AcDbSymbolTableRecord
100
AcDbLinetypeTableRecord
  2
HIDDENX2
 70
     0
  3
Hidden (2x) ____ ____ ____ ____ ____ ____ ____
 72
    65
 73
     2
 40
19.05
 49
12.7
 74
     0
 49
-6.349999999999998
 74
     0
  0
LTYPE
  5
145D9
330
746A
100
AcDbSymbolTableRecord
100
AcDbLinetypeTableRecord
  2
実線５
 70
     0
  3

 72
    65
 73
     0
 40
0.0
  0
LTYPE
  5
145DA
330
746A
100
AcDbSymbolTableRecord
100
AcDbLinetypeTableRecord
  2
一点鎖線３
 70
     0
  3

 72
    65
 73
     4
 40
13.0
 49
10.0
 74
     0
 49
-1.0
 74
     0
 49
1.0
 74
     0
 49
-1.0
 74
     0
  0
LTYPE
  5
145DB
330
746A
100
AcDbSymbolTableRecord
100
AcDbLinetypeTableRecord
  2
実線２
 70
     0
  3

 72
    65
 73
     0
 40
0.0
  0
LTYPE
  5
145DC
330
746A
100
AcDbSymbolTableRecord
100
AcDbLinetypeTableRecord
  2
破線３
 70
     0
  3

 72
    65
 73
     2
 40
4.0
 49
3.0
 74
     0
 49
-1.0
 74
     0
  0
LTYPE
  5
145DD
330
746A
100
AcDbSymbolTableRecord
100
AcDbLinetypeTableRecord
  2
実線９
 70
     0
  3

 72
    65
 73
     0
 40
0.0
  0
LTYPE
  5
145DE
330
746A
100
AcDbSymbolTableRecord
100
AcDbLinetypeTableRecord
  2
実線１
 70
     0
  3

 72
    65
 73
     0
 40
0.0
  0
LTYPE
  5
145DF
330
746A
100
AcDbSymbolTableRecord
100
AcDbLinetypeTableRecord
  2
実線６
 70
     0
  3

 72
    65
 73
     0
 40
0.0
  0
ENDTAB
  0
TABLE
  2
LAYER
  5
7467
102
{ACAD_XDICTIONARY
360
13C05
102
}
330
0
100
AcDbSymbolTable
 70
    17
  0
LAYER
  5
7474
330
7467
100
AcDbSymbolTableRecord
100
AcDbLayerTableRecord
  2
0
 70
     0
 62
     7
  6
CONTINUOUS
370
    -3
390
13A7B
  0
LAYER
  5
DEB2
330
7467
100
AcDbSymbolTableRecord
100
AcDbLayerTableRecord
  2
センター
 70
     0
 62
     3
  6
CENTER
370
    -3
390
13A7B
  0
LAYER
  5
DEB3
330
7467
100
AcDbSymbolTableRecord
100
AcDbLayerTableRecord
  2
寸法
 70
     0
 62
     4
  6
CONTINUOUS
370
    -3
390
13A7B
  0
LAYER
  5
DEB4
330
7467
100
AcDbSymbolTableRecord
100
AcDbLayerTableRecord
  2
部品1
 70
     0
 62
     7
  6
CONTINUOUS
370
    -3
390
13A7B
  0
LAYER
  5
DEB5
330
7467
100
AcDbSymbolTableRecord
100
AcDbLayerTableRecord
  2
補助
 70
     0
 62
    -1
  6
CONTINUOUS
370
    -3
390
13A7B
  0
LAYER
  5
DEB6
330
7467
100
AcDbSymbolTableRecord
100
AcDbLayerTableRecord
  2
文字
 70
     0
 62
     7
  6
CONTINUOUS
370
    -3
390
13A7B
  0
LAYER
  5
F255
330
7467
100
AcDbSymbolTableRecord
100
AcDbLayerTableRecord
  2
DEFPOINTS
 70
     0
 62
     7
  6
CONTINUOUS
290
     0
370
    -3
390
13A7B
  0
LAYER
  5
10B54
330
7467
100
AcDbSymbolTableRecord
100
AcDbLayerTableRecord
  2
仕様書枠
 70
     0
 62
   230
  6
CONTINUOUS
370
    -3
390
13A7B
  0
LAYER
  5
11729
330
7467
100
AcDbSymbolTableRecord
100
AcDbLayerTableRecord
  2
Ｇ．Ｌ
 70
     0
 62
    30
  6
CONTINUOUS
370
    -3
390
13A7B
  0
LAYER
  5
1173F
330
7467
100
AcDbSymbolTableRecord
100
AcDbLayerTableRecord
  2
細線
 70
     0
 62
     5
  6
CONTINUOUS
370
    -3
390
13A7B
  0
LAYER
  5
11740
330
7467
100
AcDbSymbolTableRecord
100
AcDbLayerTableRecord
  2
点線
 70
     0
 62
     2
  6
HIDDEN
370
    -3
390
13A7B
  0
LAYER
  5
11905
330
7467
100
AcDbSymbolTableRecord
100
AcDbLayerTableRecord
  2
破線
 70
     0
 62
     2
  6
HIDDEN
370
    -3
390
13A7B
  0
LAYER
  5
145E0
330
7467
100
AcDbSymbolTableRecord
100
AcDbLayerTableRecord
  2
隠れ線
 70
     0
 62
     2
  6
HIDDENX2
370
    -3
390
13A7B
  0
LAYER
  5
145E1
330
7467
100
AcDbSymbolTableRecord
100
AcDbLayerTableRecord
  2
部品1-1
 70
     0
 62
     7
  6
CONTINUOUS
370
    -3
390
13A7B
  0
LAYER
  5
145E2
330
7467
100
AcDbSymbolTableRecord
100
AcDbLayerTableRecord
  2
GR1-1
 70
     0
 62
     7
  6
CONTINUOUS
370
    -3
390
13A7B
  0
LAYER
  5
145E3
330
7467
100
AcDbSymbolTableRecord
100
AcDbLayerTableRecord
  2
0-1
 70
     0
 62
     7
  6
CONTINUOUS
370
    -3
390
13A7B
  0
LAYER
  5
145E4
330
7467
100
AcDbSymbolTableRecord
100
AcDbLayerTableRecord
  2
点線-1
 70
     0
 62
     7
  6
CONTINUOUS
370
    -3
390
13A7B
  0
ENDTAB
  0
TABLE
  2
STYLE
  5
7468
330
0
100
AcDbSymbolTable
 70
     8
  0
STYLE
  5
7475
330
7468
100
AcDbSymbolTableRecord
100
AcDbTextStyleTableRecord
  2
STANDARD
 70
     0
 40
0.0
 41
1.0
 50
0.0
 71
     0
 42
4.0
  3
txt
  4
C:\AutoCAD LT\bigfont.shx
  0
STYLE
  5
763C
330
7468
100
AcDbSymbolTableRecord
100
AcDbTextStyleTableRecord
  2
MSMINCHO
 70
     0
 40
0.0
 41
1.0
 50
0.0
 71
     0
 42
1.199999999999999
  3
C:\AutoCAD LT\msminch2.TTF
  4

  0
STYLE
  5
F5E9
330
7468
100
AcDbSymbolTableRecord
100
AcDbTextStyleTableRecord
  2

 70
     1
 40
0.0
 41
1.0
 50
0.0
 71
     0
 42
4.0
  3
ltypeshp.shx
  4

  0
STYLE
  5
F706
330
7468
100
AcDbSymbolTableRecord
100
AcDbTextStyleTableRecord
  2
STYLE1
 70
     0
 40
0.0
 41
1.0
 50
0.0
 71
     0
 42
4.0
  3
isocp.shx
  4
bigfont.shx
  0
STYLE
  5
103BF
330
7468
100
AcDbSymbolTableRecord
100
AcDbTextStyleTableRecord
  2
STYLE2
 70
     0
 40
0.0
 41
1.0
 50
0.0
 71
     0
 42
100.0
  3
MS PGothic.ttf
  4

1001
ACAD
1000
MS PGothic
1071
    32818
  0
STYLE
  5
10BAA
330
7468
100
AcDbSymbolTableRecord
100
AcDbTextStyleTableRecord
  2
STYLE3
 70
     0
 40
0.0
 41
1.0
 50
0.0
 71
     0
 42
100.0
  3

  4

1001
ACAD
1000
DFPGothic-EB
1071
    32818
  0
STYLE
  5
11906
330
7468
100
AcDbSymbolTableRecord
100
AcDbTextStyleTableRecord
  2
MSGOTHIC
 70
     0
 40
0.0
 41
1.0
 50
0.0
 71
     0
 42
3.5
  3
msgothi2.ttf
  4

  0
STYLE
  5
14F03
330
7468
100
AcDbSymbolTableRecord
100
AcDbTextStyleTableRecord
  2
ISOCP
 70
     0
 40
0.0
 41
1.0
 50
0.0
 71
     0
 42
4.0
  3
isocp.shx
  4
bigfont.shx
  0
ENDTAB
  0
TABLE
  2
VIEW
  5
746B
330
0
100
AcDbSymbolTable
 70
     0
  0
ENDTAB
  0
TABLE
  2
UCS
  5
746C
330
0
100
AcDbSymbolTable
 70
     0
  0
ENDTAB
  0
TABLE
  2
APPID
  5
746E
330
0
100
AcDbSymbolTable
 70
     6
  0
APPID
  5
7476
330
746E
100
AcDbSymbolTableRecord
100
AcDbRegAppTableRecord
  2
ACAD
 70
     0
  0
APPID
  5
DEA9
330
746E
100
AcDbSymbolTableRecord
100
AcDbRegAppTableRecord
  2
CONTENTBLOCKICON
 70
     0
  0
APPID
  5
DEAA
330
746E
100
AcDbSymbolTableRecord
100
AcDbRegAppTableRecord
  2
CONTENTBLOCKDESCRIPTION
 70
     0
  0
APPID
  5
E71D
330
746E
100
AcDbSymbolTableRecord
100
AcDbRegAppTableRecord
  2
CONTENTTABDATA
 70
     0
  0
APPID
  5
E71E
330
746E
100
AcDbSymbolTableRecord
100
AcDbRegAppTableRecord
  2
CONTENTCURRENTTAB
 70
     0
  0
APPID
  5
F3BA
330
746E
100
AcDbSymbolTableRecord
100
AcDbRegAppTableRecord
  2
DRAWINGVARIABLESXDATA
 70
     0
  0
ENDTAB
  0
TABLE
  2
DIMSTYLE
  5
746F
330
0
100
AcDbSymbolTable
 70
     9
100
AcDbDimStyleTable
 71
     1
340
F236
  0
DIMSTYLE
105
7484
330
746F
100
AcDbSymbolTableRecord
100
AcDbDimStyleTableRecord
  2
JIS
 70
     0
 41
2.5
 42
1.0
 43
7.0
 44
1.0
 73
     0
 74
     0
 77
     1
 78
     8
140
2.5
141
0.0
143
0.0394
147
0.0
172
     1
174
     1
175
     1
340
7475
  0
DIMSTYLE
105
F236
102
{ACAD_REACTORS
330
136B1
330
136BD
330
136BE
330
136BF
330
136C3
330
136DA
330
120D6
330
120D7
330
120D8
330
120D9
330
120DA
330
12121
330
121FB
330
121FC
330
121FD
330
1221B
330
12240
330
12294
330
1229F
330
136D9
330
1871E
330
189DA
102
}
330
746F
100
AcDbSymbolTableRecord
100
AcDbDimStyleTableRecord
  2
INABA_S40
 70
     0
 40
40.0
 41
2.5
 42
0.5
 43
7.0
 44
1.5
 73
     0
 74
     0
 77
     3
 78
     8
140
3.0
141
0.0
143
0.0394
147
1.0
172
     1
173
     1
174
     1
175
     1
178
     7
289
     0
340
7475
  0
DIMSTYLE
105
F71F
102
{ACAD_REACTORS
330
171E8
330
171E7
330
171E6
330
1723A
330
17340
330
17341
330
1733F
330
1733E
330
17342
330
173D1
330
189D9
102
}
330
746F
100
AcDbSymbolTableRecord
100
AcDbDimStyleTableRecord
  2
INABA_S40G
 70
     0
 40
40.0
 41
2.5
 42
0.5
 43
7.0
 44
1.5
 73
     0
 74
     0
 77
     3
 78
     8
140
3.0
141
0.0
143
0.0394
147
1.0
172
     1
173
     1
174
     1
175
     1
178
     7
271
     1
340
F706
341
F770
343
F770
344
F770
  0
DIMSTYLE
105
11907
102
{ACAD_REACTORS
330
12121
102
}
330
746F
100
AcDbSymbolTableRecord
100
AcDbDimStyleTableRecord
  2
INABA_S50
 70
     0
 40
50.0
 41
0.5
 42
0.5
 43
7.0
 44
1.0
 73
     0
 74
     0
 77
     3
 78
     8
140
2.5
141
0.0
143
0.0394
147
0.8
172
     1
173
     1
174
     1
175
     1
178
     7
271
     2
272
     2
289
     0
340
7475
341
F744
343
F744
344
F744
  0
DIMSTYLE
105
11908
102
{ACAD_REACTORS
330
120D6
330
120D7
330
120D8
330
120D9
330
120DA
330
121FB
330
121FC
330
121FD
330
1221B
330
12240
330
12294
330
1229F
102
}
330
746F
100
AcDbSymbolTableRecord
100
AcDbDimStyleTableRecord
  2
INABA_S50G
 70
     0
 41
125.0
 42
25.0
 43
7.0
 44
75.0
 73
     0
 74
     0
 77
     3
 78
     8
140
150.0
141
0.0
143
0.0394
147
25.0
172
     1
173
     1
174
     1
175
     1
178
     7
271
     1
340
F706
341
F770
343
F770
344
F770
  0
DIMSTYLE
105
145E5
330
746F
100
AcDbSymbolTableRecord
100
AcDbDimStyleTableRecord
  2
INABA_1／6
 70
     0
 40
6.0
 41
2.5
 42
0.5
 43
7.0
 44
1.5
 73
     0
 74
     0
 77
     3
 78
     8
140
2.5
141
0.0
143
0.0394
147
0.8
172
     1
173
     1
174
     1
175
     1
178
     7
289
     0
340
7475
341
1452C
343
1452C
344
1452C
  0
DIMSTYLE
105
14F04
330
746F
100
AcDbSymbolTableRecord
100
AcDbDimStyleTableRecord
  2
INABA_1／4
 70
     0
 40
4.0
 41
2.0
 42
0.5
 43
7.0
 44
1.5
 73
     0
 74
     0
 77
     3
 78
     8
140
2.0
141
0.0
143
0.0394
147
0.5
172
     1
173
     1
174
     1
175
     1
178
     7
289
     0
340
14F03
341
1452C
343
1452C
344
1452C
  0
DIMSTYLE
105
14F05
330
746F
100
AcDbSymbolTableRecord
100
AcDbDimStyleTableRecord
  2
INABA_1／4U
 70
     0
 40
4.0
 41
2.0
 42
0.5
 43
7.0
 44
1.5
 73
     0
 74
     0
 77
     3
 78
     8
140
2.0
141
0.0
143
0.0394
147
0.5
172
     1
173
     1
174
     1
178
     7
288
     1
340
14F03
341
1452C
343
1452C
344
1452C
  0
DIMSTYLE
105
18E52
330
746F
100
AcDbSymbolTableRecord
100
AcDbDimStyleTableRecord
  2
INABA_S20G
 70
     0
 40
20.0
 41
2.5
 42
0.5
 43
7.0
 44
1.5
 73
     0
 74
     0
 77
     3
 78
     8
140
3.0
141
0.0
143
0.0394
147
1.0
172
     1
173
     1
174
     1
178
     7
271
     1
340
F706
341
F770
343
F770
344
F770
  0
ENDTAB
  0
TABLE
  2
BLOCK_RECORD
  5
7466
330
0
100
AcDbSymbolTable
 70
    41
  0
BLOCK_RECORD
  5
747D
330
7466
100
AcDbSymbolTableRecord
100
AcDbBlockTableRecord
  2
*MODEL_SPACE
340
13A80
  0
BLOCK_RECORD
  5
747A
330
7466
100
AcDbSymbolTableRecord
100
AcDbBlockTableRecord
  2
*PAPER_SPACE
340
13A81
  0
BLOCK_RECORD
  5
ECB3
330
7466
100
AcDbSymbolTableRecord
100
AcDbBlockTableRecord
  2
作図枠S50
340
0
310
2800000020000000200000000100040000000000000200000000000000000000000000000000000000000000000080000080000000808000800000008000800080800000C0C0C000808080000000FF0000FF000000FFFF00FF000000FF00FF00FFFF0000FFFFFF00FFFFFFFFFFFFFFFFFFFFFFFFFFFFFFFFFFFFFFFFFFFFFF
310
FFFFFFFFFFFFFFFFFFFFFFFFFFFFFFFFFFFFFFFFFFFFFFFFFFFFFFFFFFFFFFFFFFFFFFFFFFFFFFFFFFFFFFFFFFFFFFFFFFFFFFFFFFFFFFFFFFFFFFFFFFFFFFFFFFFFFFFFFFFFFFFFFF999999999999999999999999999999999FFFFFFFFFFFFFFFFFFFFFFFFFFFFFF99FFFFFFFFFFFFFFFFFFFFFFFFFFFFFF99FFFFFFFFFFF
310
FFFFFFFFFFFFFFFFFFF99FFFFFFFFFFFFFFFFFFFFFFFFFFFFFF99FFFFFFFFFFFFFFFFFFFFFFFFFFFFFF99FFFFFFFFFFFFFFFFFFFFFFFFFFFFFF99FFFFFFFFFFFFFFFFFFFFFFFFFFFFFF99FFFFFFFFFFFFFFFFFFFFFFFFFFFFFF99FFFFFFFFFFFFFFFFFFFFFFFFFFFFFF99FFFFFFFFFFFFFFFFFFFFFFFFFFFFFF99FFFFFFFFF
310
FFFFFFFFFFFFFFFFFFFFF99FFFFFFFFFFFFFFFFFFFFFFFFFFFFFF99FFFFFFFFFFFFFFFFFFFFFFFFFFFFFF99FFFFFFFFFFFFFFFFFFFFFFFFFFFFFF99FFFFFFFFFFFFFFFFFFFFFFFFFFFFFF99FFFFFFFFFFFFFFFFFFFFFFFFFFFFFF99FFFFFFFFFFFFFFFFFFFFFFFFFFFFFF99FFFFFFFFFFFFFFFFFFFFF99999999999FFFFFFF
310
FFFFFFFFFFFFFF9FFFFFFFFF99999999999999999999999FFFFFFFFFFFFFFFFFFFFFFFFFFFFFFFFFFFFFFFFFFFFFFFFFFFFFFFFFFFFFFFFFFFFFFFFFFFFFFFFFFFFFFFFFFFFFFFFFFFFFFFFFFFFFFFFFFFFFFFFFFFFFFFFFFFFFFFFFFFFFFFFFFFFFFFFFFFFFFFFFFFFFFFFF
  0
BLOCK_RECORD
  5
F744
330
7466
100
AcDbSymbolTableRecord
100
AcDbBlockTableRecord
  2
_DOT
340
0
102
{BLKREFS
331
12A7F
331
12A80
331
137D6
331
137D7
331
13806
331
13807
331
13833
331
13834
331
17602
331
17603
331
17616
331
17617
331
17621
331
17622
331
17656
331
17657
331
18D4F
331
18D50
331
18D61
331
18D62
331
18D6A
331
18D6B
331
18D73
331
18D74
331
18D7C
331
18D7D
331
18D87
331
18D88
331
18D90
331
18D91
331
18D99
331
18D9A
331
18DA2
331
18DA3
331
18DAD
331
18DAE
331
18DB6
331
18DB7
331
18DC1
331
18DC2
331
18DCA
331
18DCB
331
18DD5
331
18DD6
102
}
  0
BLOCK_RECORD
  5
F770
330
7466
100
AcDbSymbolTableRecord
100
AcDbBlockTableRecord
  2
_DOTSMALL
340
0
102
{BLKREFS
331
1722B
331
1722C
331
17258
331
17259
331
17274
331
17275
331
1727D
331
1727E
331
173A3
331
173A4
331
173AE
331
173AF
331
173B7
331
173B8
331
173C1
331
173C2
331
173CB
331
173CC
331
1760B
331
1760C
331
18D58
331
18D59
102
}
  0
BLOCK_RECORD
  5
12352
330
7466
100
AcDbSymbolTableRecord
100
AcDbBlockTableRecord
  2
*D3
340
0
  0
BLOCK_RECORD
  5
1235F
330
7466
100
AcDbSymbolTableRecord
100
AcDbBlockTableRecord
  2
*D4
340
0
  0
BLOCK_RECORD
  5
1236B
330
7466
100
AcDbSymbolTableRecord
100
AcDbBlockTableRecord
  2
*D5
340
0
  0
BLOCK_RECORD
  5
12378
330
7466
100
AcDbSymbolTableRecord
100
AcDbBlockTableRecord
  2
*D6
340
0
  0
BLOCK_RECORD
  5
12384
330
7466
100
AcDbSymbolTableRecord
100
AcDbBlockTableRecord
  2
*D7
340
0
  0
BLOCK_RECORD
  5
123B7
330
7466
100
AcDbSymbolTableRecord
100
AcDbBlockTableRecord
  2
*D8
340
0
  0
BLOCK_RECORD
  5
123CF
330
7466
100
AcDbSymbolTableRecord
100
AcDbBlockTableRecord
  2
*D9
340
0
  0
BLOCK_RECORD
  5
123DB
330
7466
100
AcDbSymbolTableRecord
100
AcDbBlockTableRecord
  2
*D10
340
0
  0
BLOCK_RECORD
  5
123E7
330
7466
100
AcDbSymbolTableRecord
100
AcDbBlockTableRecord
  2
*D11
340
0
  0
BLOCK_RECORD
  5
123F3
330
7466
100
AcDbSymbolTableRecord
100
AcDbBlockTableRecord
  2
*D12
340
0
  0
BLOCK_RECORD
  5
12400
330
7466
100
AcDbSymbolTableRecord
100
AcDbBlockTableRecord
  2
*D13
340
0
  0
BLOCK_RECORD
  5
1240C
330
7466
100
AcDbSymbolTableRecord
100
AcDbBlockTableRecord
  2
*D14
340
0
  0
BLOCK_RECORD
  5
12418
330
7466
100
AcDbSymbolTableRecord
100
AcDbBlockTableRecord
  2
*D15
340
0
  0
BLOCK_RECORD
  5
1372F
330
7466
100
AcDbSymbolTableRecord
100
AcDbBlockTableRecord
  2
*D16
340
0
  0
BLOCK_RECORD
  5
1373B
330
7466
100
AcDbSymbolTableRecord
100
AcDbBlockTableRecord
  2
*D17
340
0
  0
BLOCK_RECORD
  5
13749
330
7466
100
AcDbSymbolTableRecord
100
AcDbBlockTableRecord
  2
*D18
340
0
  0
BLOCK_RECORD
  5
13757
330
7466
100
AcDbSymbolTableRecord
100
AcDbBlockTableRecord
  2
*D19
340
0
  0
BLOCK_RECORD
  5
13763
330
7466
100
AcDbSymbolTableRecord
100
AcDbBlockTableRecord
  2
*D20
340
0
  0
BLOCK_RECORD
  5
13788
330
7466
100
AcDbSymbolTableRecord
100
AcDbBlockTableRecord
  2
*D21
340
0
  0
BLOCK_RECORD
  5
13794
330
7466
100
AcDbSymbolTableRecord
100
AcDbBlockTableRecord
  2
*D22
340
0
  0
BLOCK_RECORD
  5
1452C
330
7466
100
AcDbSymbolTableRecord
100
AcDbBlockTableRecord
  2
_OPEN
340
0
  0
BLOCK_RECORD
  5
14532
330
7466
100
AcDbSymbolTableRecord
100
AcDbBlockTableRecord
  2
BLKF047
340
0
  0
BLOCK_RECORD
  5
1453C
330
7466
100
AcDbSymbolTableRecord
100
AcDbBlockTableRecord
  2
BLKF048
340
0
102
{BLKREFS
331
1453A
102
}
  0
BLOCK_RECORD
  5
14549
330
7466
100
AcDbSymbolTableRecord
100
AcDbBlockTableRecord
  2
A$C3CBA6BEF
340
0
  0
BLOCK_RECORD
  5
14EE5
330
7466
100
AcDbSymbolTableRecord
100
AcDbBlockTableRecord
  2
_OBLIQUE
340
0
  0
BLOCK_RECORD
  5
171F7
330
7466
100
AcDbSymbolTableRecord
100
AcDbBlockTableRecord
  2
*D28
340
0
  0
BLOCK_RECORD
  5
17203
330
7466
100
AcDbSymbolTableRecord
100
AcDbBlockTableRecord
  2
*D29
340
0
  0
BLOCK_RECORD
  5
17211
330
7466
100
AcDbSymbolTableRecord
100
AcDbBlockTableRecord
  2
*D30
340
0
  0
BLOCK_RECORD
  5
17245
330
7466
100
AcDbSymbolTableRecord
100
AcDbBlockTableRecord
  2
*D31
340
0
  0
BLOCK_RECORD
  5
17360
330
7466
100
AcDbSymbolTableRecord
100
AcDbBlockTableRecord
  2
*D32
340
0
  0
BLOCK_RECORD
  5
1736C
330
7466
100
AcDbSymbolTableRecord
100
AcDbBlockTableRecord
  2
*D33
340
0
  0
BLOCK_RECORD
  5
1737A
330
7466
100
AcDbSymbolTableRecord
100
AcDbBlockTableRecord
  2
*D34
340
0
  0
BLOCK_RECORD
  5
17386
330
7466
100
AcDbSymbolTableRecord
100
AcDbBlockTableRecord
  2
*D35
340
0
  0
BLOCK_RECORD
  5
17393
330
7466
100
AcDbSymbolTableRecord
100
AcDbBlockTableRecord
  2
*D36
340
0
  0
BLOCK_RECORD
  5
173D2
330
7466
100
AcDbSymbolTableRecord
100
AcDbBlockTableRecord
  2
*D37
340
0
  0
BLOCK_RECORD
  5
18789
330
7466
100
AcDbSymbolTableRecord
100
AcDbBlockTableRecord
  2
*D38
340
0
  0
BLOCK_RECORD
  5
18AFF
330
7466
100
AcDbSymbolTableRecord
100
AcDbBlockTableRecord
  2
*D39
340
0
  0
BLOCK_RECORD
  5
18B0B
330
7466
100
AcDbSymbolTableRecord
100
AcDbBlockTableRecord
  2
*D40
340
0
  0
ENDTAB
  0
ENDSEC
  0
SECTION
  2
BLOCKS
  0
BLOCK
  5
7489
330
747D
100
AcDbEntity
  8
0
100
AcDbBlockBegin
  2
*MODEL_SPACE
 70
     0
 10
0.0
 20
0.0
 30
0.0
  3
*MODEL_SPACE
  1

  0
ENDBLK
  5
748A
330
747D
100
AcDbEntity
  8
0
100
AcDbBlockEnd
  0
BLOCK
  5
7487
330
747A
100
AcDbEntity
 67
     1
  8
0
100
AcDbBlockBegin
  2
*PAPER_SPACE
 70
     0
 10
0.0
 20
0.0
 30
0.0
  3
*PAPER_SPACE
  1

  0
ENDBLK
  5
7488
330
747A
100
AcDbEntity
 67
     1
  8
0
100
AcDbBlockEnd
  0
BLOCK
  5
ECB4
330
ECB3
100
AcDbEntity
  8
0
100
AcDbBlockBegin
  2
作図枠S50
 70
     0
 10
0.0
 20
0.0
 30
0.0
  3
作図枠S50
  1

  4
作図領域枠 縮尺 1/50
  0
LINE
  5
ECB5
330
ECB3
100
AcDbEntity
  8
補助
100
AcDbLine
 10
14364.0
 20
14262.0
 30
0.0
 11
174.9999999999993
 21
14262.0
 31
0.0
  0
LINE
  5
ECB6
330
ECB3
100
AcDbEntity
  8
補助
100
AcDbLine
 10
174.9999999999993
 20
14262.0
 30
0.0
 11
174.9999999999993
 21
1520.0
 31
0.0
  0
LINE
  5
ECB7
330
ECB3
100
AcDbEntity
  8
補助
100
AcDbLine
 10
174.9999999999993
 20
1520.0
 30
0.0
 11
20384.0
 21
1520.0
 31
0.0
  0
LINE
  5
ECB8
330
ECB3
100
AcDbEntity
  8
補助
100
AcDbLine
 10
20384.0
 20
1520.0
 30
0.0
 11
20384.0
 21
13042.0
 31
0.0
  0
LINE
  5
ECB9
330
ECB3
100
AcDbEntity
  8
補助
100
AcDbLine
 10
20384.0
 20
13042.0
 30
0.0
 11
14364.0
 21
13042.0
 31
0.0
  0
LINE
  5
ECBA
330
ECB3
100
AcDbEntity
  8
補助
100
AcDbLine
 10
14364.0
 20
13042.0
 30
0.0
 11
14364.0
 21
14262.0
 31
0.0
  0
ENDBLK
  5
ECBB
330
ECB3
100
AcDbEntity
  8
0
100
AcDbBlockEnd
  0
BLOCK
  5
F745
330
F744
100
AcDbEntity
  8
0
 48
50.0
100
AcDbBlockBegin
  2
_DOT
 70
     0
 10
0.0
 20
0.0
 30
0.0
  3
_DOT
  1

  0
LWPOLYLINE
  5
F746
330
F744
100
AcDbEntity
  8
0
  6
ByBlock
 62
     0
 48
50.0
100
AcDbPolyline
 90
        2
 70
     1
 43
0.5
 10
-0.25
 20
0.0
 42
1.0
 10
0.25
 20
0.0
 42
1.0
  0
LINE
  5
F74A
330
F744
100
AcDbEntity
  8
0
  6
ByBlock
 62
     0
 48
50.0
100
AcDbLine
 10
-0.5
 20
0.0
 30
0.0
 11
-1.0
 21
0.0
 31
0.0
  0
ENDBLK
  5
F74B
330
F744
100
AcDbEntity
  8
0
 48
50.0
100
AcDbBlockEnd
  0
BLOCK
  5
F771
330
F770
100
AcDbEntity
  8
0
 48
50.0
100
AcDbBlockBegin
  2
_DOTSMALL
 70
     0
 10
0.0
 20
0.0
 30
0.0
  3
_DOTSMALL
  1

  0
LWPOLYLINE
  5
F772
330
F770
100
AcDbEntity
  8
0
  6
ByBlock
 62
     0
 48
50.0
100
AcDbPolyline
 90
        2
 70
     1
 43
0.5
 10
-0.0625
 20
0.0
 42
1.0
 10
0.0625
 20
0.0
 42
1.0
  0
ENDBLK
  5
F776
330
F770
100
AcDbEntity
  8
0
 48
50.0
100
AcDbBlockEnd
  0
BLOCK
  5
129B7
330
12352
100
AcDbEntity
  8
0
 48
50.0
100
AcDbBlockBegin
  2
*D3
 70
     1
 10
0.0
 20
0.0
 30
0.0
  3
*D3
  1

  0
LINE
  5
18DD0
330
12352
100
AcDbEntity
  8
寸法
 62
     0
 48
50.0
370
    -2
100
AcDbLine
 10
7943.904397928898
 20
9326.507603031862
 30
0.0
 11
7943.904397928898
 21
9621.220013050658
 31
0.0
  0
LINE
  5
18DD1
330
12352
100
AcDbEntity
  8
寸法
 62
     0
 48
50.0
370
    -2
100
AcDbLine
 10
7998.904397928898
 20
9326.50760303186
 30
0.0
 11
7998.904397928898
 21
9621.220013050658
 31
0.0
  0
LINE
  5
18DD2
330
12352
100
AcDbEntity
  8
寸法
 62
     0
 48
50.0
370
    -2
100
AcDbLine
 10
7923.904397928898
 20
9581.220013050655
 30
0.0
 11
7903.904397928896
 21
9581.220013050655
 31
0.0
  0
LINE
  5
18DD3
330
12352
100
AcDbEntity
  8
寸法
 62
     0
 48
50.0
370
    -2
100
AcDbLine
 10
8018.904397928897
 20
9581.220013050655
 30
0.0
 11
8493.556345969805
 21
9581.220013050655
 31
0.0
  0
LINE
  5
18DD4
330
12352
100
AcDbEntity
  8
寸法
 62
     0
 48
50.0
370
    -2
100
AcDbLine
 10
7943.904397928898
 20
9581.220013050655
 30
0.0
 11
7998.904397928898
 21
9581.220013050655
 31
0.0
  0
INSERT
  5
18DD5
330
12352
100
AcDbEntity
  8
寸法
 62
     0
 48
50.0
370
    -2
100
AcDbBlockReference
  2
_DOT
 10
7943.904397928898
 20
9581.220013050655
 30
0.0
 41
20.0
 42
20.0
 43
20.0
  0
INSERT
  5
18DD6
330
12352
100
AcDbEntity
  8
寸法
 62
     0
 48
50.0
370
    -2
100
AcDbBlockReference
  2
_DOT
 10
7998.904397928898
 20
9581.220013050655
 30
0.0
 41
20.0
 42
20.0
 43
20.0
 50
180.0
  0
MTEXT
  5
18DD7
330
12352
100
AcDbEntity
  8
寸法
 62
     7
 48
50.0
100
AcDbMText
 10
8393.071064595565
 20
9673.220013050658
 30
0.0
 40
120.0
 41
0.0
 71
     5
 72
     1
  1
\A1;55
  7
STYLE1
 73
     1
 44
1.0
1001
ACAD
1000
MTEXTBEGIN
1070
    73
1070
     1
1070
    44
1040
1.0
1070
    74
1070
     0
1000
MTEXTEND
  0
POINT
  5
18DD8
330
12352
100
AcDbEntity
  8
DEFPOINTS
 62
     0
 48
50.0
100
AcDbPoint
 10
7943.904397928898
 20
9306.507603031862
 30
0.0
  0
POINT
  5
18DD9
330
12352
100
AcDbEntity
  8
DEFPOINTS
 62
     0
 48
50.0
100
AcDbPoint
 10
7998.904397928898
 20
9306.507603031858
 30
0.0
  0
POINT
  5
18DDA
330
12352
100
AcDbEntity
  8
DEFPOINTS
 62
     0
 48
50.0
100
AcDbPoint
 10
7998.904397928898
 20
9581.220013050655
 30
0.0
  0
ENDBLK
  5
129C3
330
12352
100
AcDbEntity
  8
0
 48
50.0
100
AcDbBlockEnd
  0
BLOCK
  5
133B7
330
1235F
100
AcDbEntity
  8
0
 48
50.0
100
AcDbBlockBegin
  2
*D4
 70
     1
 10
0.0
 20
0.0
 30
0.0
  3
*D4
  1

  0
LINE
  5
18DC7
330
1235F
100
AcDbEntity
  8
寸法
 62
     0
 48
50.0
370
    -2
100
AcDbLine
 10
8018.904397928897
 20
9306.507603031858
 30
0.0
 11
9109.651514973251
 21
9306.507603031858
 31
0.0
  0
LINE
  5
18DC8
330
1235F
100
AcDbEntity
  8
寸法
 62
     0
 48
50.0
370
    -2
100
AcDbLine
 10
8018.904397928897
 20
7516.507603031858
 30
0.0
 11
9109.651514973251
 21
7516.507603031858
 31
0.0
  0
LINE
  5
18DC9
330
1235F
100
AcDbEntity
  8
寸法
 62
     0
 48
50.0
370
    -2
100
AcDbLine
 10
9069.651514973251
 20
9286.507603031861
 30
0.0
 11
9069.651514973251
 21
7536.507603031862
 31
0.0
  0
INSERT
  5
18DCA
330
1235F
100
AcDbEntity
  8
寸法
 62
     0
 48
50.0
370
    -2
100
AcDbBlockReference
  2
_DOT
 10
9069.651514973251
 20
9306.507603031858
 30
0.0
 41
20.0
 42
20.0
 43
20.0
 50
90.0
  0
INSERT
  5
18DCB
330
1235F
100
AcDbEntity
  8
寸法
 62
     0
 48
50.0
370
    -2
100
AcDbBlockReference
  2
_DOT
 10
9069.651514973251
 20
7516.507603031858
 30
0.0
 41
20.0
 42
20.0
 43
20.0
 50
270.0
  0
MTEXT
  5
18DCC
330
1235F
100
AcDbEntity
  8
寸法
 62
     7
 48
50.0
100
AcDbMText
 10
8977.651514973251
 20
8411.507603031862
 30
0.0
 40
120.0
 41
0.0
 71
     5
 72
     1
  1
\A1;1790
  7
STYLE1
 11
0.0000000000000001
 21
1.0
 31
0.0
 73
     1
 44
1.0
1001
ACAD
1000
MTEXTBEGIN
1070
    73
1070
     1
1070
    44
1040
1.0
1070
    74
1070
     0
1000
MTEXTEND
  0
POINT
  5
18DCD
330
1235F
100
AcDbEntity
  8
DEFPOINTS
 62
     0
 48
50.0
100
AcDbPoint
 10
7998.904397928898
 20
9306.507603031858
 30
0.0
  0
POINT
  5
18DCE
330
1235F
100
AcDbEntity
  8
DEFPOINTS
 62
     0
 48
50.0
100
AcDbPoint
 10
7998.904397928898
 20
7516.507603031858
 30
0.0
  0
POINT
  5
18DCF
330
1235F
100
AcDbEntity
  8
DEFPOINTS
 62
     0
 48
50.0
100
AcDbPoint
 10
9069.651514973251
 20
7516.507603031858
 30
0.0
  0
ENDBLK
  5
133C1
330
1235F
100
AcDbEntity
  8
0
 48
50.0
100
AcDbBlockEnd
  0
BLOCK
  5
1299D
330
1236B
100
AcDbEntity
  8
0
 48
50.0
100
AcDbBlockBegin
  2
*D5
 70
     1
 10
0.0
 20
0.0
 30
0.0
  3
*D5
  1

  0
LINE
  5
18DBC
330
1236B
100
AcDbEntity
  8
寸法
 62
     0
 48
50.0
370
    -2
100
AcDbLine
 10
8018.904397928897
 20
7571.507603031855
 30
0.0
 11
8809.651514973253
 21
7571.507603031855
 31
0.0
  0
LINE
  5
18DBD
330
1236B
100
AcDbEntity
  8
寸法
 62
     0
 48
50.0
370
    -2
100
AcDbLine
 10
8018.904397928897
 20
7516.507603031858
 30
0.0
 11
8809.651514973253
 21
7516.507603031858
 31
0.0
  0
LINE
  5
18DBE
330
1236B
100
AcDbEntity
  8
寸法
 62
     0
 48
50.0
370
    -2
100
AcDbLine
 10
8769.651514973253
 20
7591.507603031856
 30
0.0
 11
8769.651514973253
 21
7611.507603031855
 31
0.0
  0
LINE
  5
18DBF
330
1236B
100
AcDbEntity
  8
寸法
 62
     0
 48
50.0
370
    -2
100
AcDbLine
 10
8769.651514973253
 20
7496.507603031858
 30
0.0
 11
8769.651514973253
 21
7021.855654990955
 31
0.0
  0
LINE
  5
18DC0
330
1236B
100
AcDbEntity
  8
寸法
 62
     0
 48
50.0
370
    -2
100
AcDbLine
 10
8769.651514973253
 20
7571.507603031855
 30
0.0
 11
8769.651514973253
 21
7516.507603031858
 31
0.0
  0
INSERT
  5
18DC1
330
1236B
100
AcDbEntity
  8
寸法
 62
     0
 48
50.0
370
    -2
100
AcDbBlockReference
  2
_DOT
 10
8769.651514973253
 20
7571.507603031855
 30
0.0
 41
20.0
 42
20.0
 43
20.0
 50
270.0
  0
INSERT
  5
18DC2
330
1236B
100
AcDbEntity
  8
寸法
 62
     0
 48
50.0
370
    -2
100
AcDbBlockReference
  2
_DOT
 10
8769.651514973253
 20
7516.507603031858
 30
0.0
 41
20.0
 42
20.0
 43
20.0
 50
90.0
  0
MTEXT
  5
18DC3
330
1236B
100
AcDbEntity
  8
寸法
 62
     7
 48
50.0
100
AcDbMText
 10
8677.651514973252
 20
7122.340936365195
 30
0.0
 40
120.0
 41
0.0
 71
     5
 72
     1
  1
\A1;55
  7
STYLE1
 11
0.0000000000000001
 21
1.0
 31
0.0
 73
     1
 44
1.0
1001
ACAD
1000
MTEXTBEGIN
1070
    73
1070
     1
1070
    44
1040
1.0
1070
    74
1070
     0
1000
MTEXTEND
  0
POINT
  5
18DC4
330
1236B
100
AcDbEntity
  8
DEFPOINTS
 62
     0
 48
50.0
100
AcDbPoint
 10
7998.904397928898
 20
7571.507603031855
 30
0.0
  0
POINT
  5
18DC5
330
1236B
100
AcDbEntity
  8
DEFPOINTS
 62
     0
 48
50.0
100
AcDbPoint
 10
7998.904397928898
 20
7516.507603031858
 30
0.0
  0
POINT
  5
18DC6
330
1236B
100
AcDbEntity
  8
DEFPOINTS
 62
     0
 48
50.0
100
AcDbPoint
 10
8769.651514973253
 20
7516.507603031858
 30
0.0
  0
ENDBLK
  5
129A9
330
1236B
100
AcDbEntity
  8
0
 48
50.0
100
AcDbBlockEnd
  0
BLOCK
  5
133D8
330
12378
100
AcDbEntity
  8
0
 48
50.0
100
AcDbBlockBegin
  2
*D6
 70
     1
 10
0.0
 20
0.0
 30
0.0
  3
*D6
  1

  0
LINE
  5
18DB3
330
12378
100
AcDbEntity
  8
寸法
 62
     0
 48
50.0
370
    -2
100
AcDbLine
 10
8018.904397928897
 20
9251.507603031864
 30
0.0
 11
8809.651514973252
 21
9251.507603031864
 31
0.0
  0
LINE
  5
18DB4
330
12378
100
AcDbEntity
  8
寸法
 62
     0
 48
50.0
370
    -2
100
AcDbLine
 10
8018.904397928897
 20
7571.507603031855
 30
0.0
 11
8809.651514973252
 21
7571.507603031855
 31
0.0
  0
LINE
  5
18DB5
330
12378
100
AcDbEntity
  8
寸法
 62
     0
 48
50.0
370
    -2
100
AcDbLine
 10
8769.651514973253
 20
9231.507603031863
 30
0.0
 11
8769.651514973253
 21
7591.507603031856
 31
0.0
  0
INSERT
  5
18DB6
330
12378
100
AcDbEntity
  8
寸法
 62
     0
 48
50.0
370
    -2
100
AcDbBlockReference
  2
_DOT
 10
8769.651514973253
 20
9251.507603031864
 30
0.0
 41
20.0
 42
20.0
 43
20.0
 50
90.0
  0
INSERT
  5
18DB7
330
12378
100
AcDbEntity
  8
寸法
 62
     0
 48
50.0
370
    -2
100
AcDbBlockReference
  2
_DOT
 10
8769.651514973253
 20
7571.507603031855
 30
0.0
 41
20.0
 42
20.0
 43
20.0
 50
270.0
  0
MTEXT
  5
18DB8
330
12378
100
AcDbEntity
  8
寸法
 62
     7
 48
50.0
100
AcDbMText
 10
8677.639703949628
 20
8411.507603031862
 30
0.0
 40
120.0
 41
0.0
 71
     5
 72
     1
  1
\A1;4X420=1680
  7
STYLE1
 11
0.0000000000000001
 21
1.0
 31
0.0
 73
     1
 44
1.0
1001
ACAD
1000
MTEXTBEGIN
1070
    73
1070
     1
1070
    44
1040
1.0
1070
    74
1070
     0
1000
MTEXTEND
  0
POINT
  5
18DB9
330
12378
100
AcDbEntity
  8
DEFPOINTS
 62
     0
 48
50.0
100
AcDbPoint
 10
7998.904397928898
 20
9251.507603031864
 30
0.0
  0
POINT
  5
18DBA
330
12378
100
AcDbEntity
  8
DEFPOINTS
 62
     0
 48
50.0
100
AcDbPoint
 10
7998.904397928898
 20
7571.507603031855
 30
0.0
  0
POINT
  5
18DBB
330
12378
100
AcDbEntity
  8
DEFPOINTS
 62
     0
 48
50.0
100
AcDbPoint
 10
8769.651514973253
 20
7571.507603031855
 30
0.0
  0
ENDBLK
  5
133E2
330
12378
100
AcDbEntity
  8
0
 48
50.0
100
AcDbBlockEnd
  0
BLOCK
  5
129AA
330
12384
100
AcDbEntity
  8
0
 48
50.0
100
AcDbBlockBegin
  2
*D7
 70
     1
 10
0.0
 20
0.0
 30
0.0
  3
*D7
  1

  0
LINE
  5
18DA8
330
12384
100
AcDbEntity
  8
寸法
 62
     0
 48
50.0
370
    -2
100
AcDbLine
 10
8018.904397928897
 20
9306.507603031858
 30
0.0
 11
8809.651514973253
 21
9306.507603031858
 31
0.0
  0
LINE
  5
18DA9
330
12384
100
AcDbEntity
  8
寸法
 62
     0
 48
50.0
370
    -2
100
AcDbLine
 10
8018.904397928897
 20
9251.507603031864
 30
0.0
 11
8809.651514973253
 21
9251.507603031864
 31
0.0
  0
LINE
  5
18DAA
330
12384
100
AcDbEntity
  8
寸法
 62
     0
 48
50.0
370
    -2
100
AcDbLine
 10
8769.651514973253
 20
9231.507603031863
 30
0.0
 11
8769.651514973253
 21
9211.507603031863
 31
0.0
  0
LINE
  5
18DAB
330
12384
100
AcDbEntity
  8
寸法
 62
     0
 48
50.0
370
    -2
100
AcDbLine
 10
8769.651514973253
 20
9326.50760303186
 30
0.0
 11
8769.651514973253
 21
9801.159551072762
 31
0.0
  0
LINE
  5
18DAC
330
12384
100
AcDbEntity
  8
寸法
 62
     0
 48
50.0
370
    -2
100
AcDbLine
 10
8769.651514973253
 20
9251.507603031864
 30
0.0
 11
8769.651514973253
 21
9306.507603031858
 31
0.0
  0
INSERT
  5
18DAD
330
12384
100
AcDbEntity
  8
寸法
 62
     0
 48
50.0
370
    -2
100
AcDbBlockReference
  2
_DOT
 10
8769.651514973253
 20
9251.507603031864
 30
0.0
 41
20.0
 42
20.0
 43
20.0
 50
90.0
  0
INSERT
  5
18DAE
330
12384
100
AcDbEntity
  8
寸法
 62
     0
 48
50.0
370
    -2
100
AcDbBlockReference
  2
_DOT
 10
8769.651514973253
 20
9306.507603031858
 30
0.0
 41
20.0
 42
20.0
 43
20.0
 50
270.0
  0
MTEXT
  5
18DAF
330
12384
100
AcDbEntity
  8
寸法
 62
     7
 48
50.0
100
AcDbMText
 10
8677.651514973252
 20
9700.674269698524
 30
0.0
 40
120.0
 41
0.0
 71
     5
 72
     1
  1
\A1;55
  7
STYLE1
 11
0.0000000000000001
 21
1.0
 31
0.0
 73
     1
 44
1.0
1001
ACAD
1000
MTEXTBEGIN
1070
    73
1070
     1
1070
    44
1040
1.0
1070
    74
1070
     0
1000
MTEXTEND
  0
POINT
  5
18DB0
330
12384
100
AcDbEntity
  8
DEFPOINTS
 62
     0
 48
50.0
100
AcDbPoint
 10
7998.904397928898
 20
9306.507603031858
 30
0.0
  0
POINT
  5
18DB1
330
12384
100
AcDbEntity
  8
DEFPOINTS
 62
     0
 48
50.0
100
AcDbPoint
 10
7998.904397928898
 20
9251.507603031864
 30
0.0
  0
POINT
  5
18DB2
330
12384
100
AcDbEntity
  8
DEFPOINTS
 62
     0
 48
50.0
100
AcDbPoint
 10
8769.651514973253
 20
9251.507603031864
 30
0.0
  0
ENDBLK
  5
129B6
330
12384
100
AcDbEntity
  8
0
 48
50.0
100
AcDbBlockEnd
  0
BLOCK
  5
12A7B
330
123B7
100
AcDbEntity
  8
0
 48
50.0
100
AcDbBlockBegin
  2
*D8
 70
     1
 10
0.0
 20
0.0
 30
0.0
  3
*D8
  1

  0
LINE
  5
12A7C
330
123B7
100
AcDbEntity
  8
0
  6
ByBlock
 62
     0
 48
50.0
100
AcDbLine
 10
8699.695515348524
 20
1968.112805903255
 30
0.0
 11
8699.695515348524
 21
1612.922421664043
 31
0.0
  0
LINE
  5
12A7D
330
123B7
100
AcDbEntity
  8
0
  6
ByBlock
 62
     0
 48
50.0
100
AcDbLine
 10
8499.695515348523
 20
1968.112805903255
 30
0.0
 11
8499.695515348523
 21
1612.922421664043
 31
0.0
  0
LINE
  5
12A7E
330
123B7
100
AcDbEntity
  8
0
  6
ByBlock
 62
     0
 48
50.0
100
AcDbLine
 10
8679.695515348525
 20
1652.922421664043
 30
0.0
 11
8519.695515348523
 21
1652.922421664043
 31
0.0
  0
INSERT
  5
12A7F
330
123B7
100
AcDbEntity
  8
0
  6
ByBlock
 62
     0
 48
50.0
100
AcDbBlockReference
  2
_DOT
 10
8699.695515348524
 20
1652.922421664043
 30
0.0
 41
20.0
 42
20.0
 43
20.0
  0
INSERT
  5
12A80
330
123B7
100
AcDbEntity
  8
0
  6
ByBlock
 62
     0
 48
50.0
100
AcDbBlockReference
  2
_DOT
 10
8499.695515348523
 20
1652.922421664043
 30
0.0
 41
20.0
 42
20.0
 43
20.0
 50
180.0
  0
MTEXT
  5
12A81
330
123B7
100
AcDbEntity
  8
0
  6
ByBlock
 62
     7
 48
50.0
100
AcDbMText
 10
8599.695515348525
 20
1744.934232687665
 30
0.0
 40
120.0
 41
0.0
 71
     5
 72
     1
  1
\A1;200
  7
STYLE1
 73
     1
 44
1.0
1001
ACAD
1000
MTEXTBEGIN
1070
    73
1070
     1
1070
    44
1040
1.0
1070
    74
1070
     0
1000
MTEXTEND
  0
POINT
  5
12A82
330
123B7
100
AcDbEntity
  8
DEFPOINTS
  6
ByBlock
 62
     0
 48
50.0
100
AcDbPoint
 10
8699.695515348524
 20
1988.112805903255
 30
0.0
  0
POINT
  5
12A83
330
123B7
100
AcDbEntity
  8
DEFPOINTS
  6
ByBlock
 62
     0
 48
50.0
100
AcDbPoint
 10
8499.695515348523
 20
1988.112805903255
 30
0.0
  0
POINT
  5
12A84
330
123B7
100
AcDbEntity
  8
DEFPOINTS
  6
ByBlock
 62
     0
 48
50.0
100
AcDbPoint
 10
8499.695515348523
 20
1652.922421664043
 30
0.0
  0
ENDBLK
  5
12A85
330
123B7
100
AcDbEntity
  8
0
 48
50.0
100
AcDbBlockEnd
  0
BLOCK
  5
13272
330
123CF
100
AcDbEntity
  8
0
 48
50.0
100
AcDbBlockBegin
  2
*D9
 70
     1
 10
0.0
 20
0.0
 30
0.0
  3
*D9
  1

  0
LINE
  5
18D9F
330
123CF
100
AcDbEntity
  8
寸法
 62
     0
 48
50.0
370
    -2
100
AcDbLine
 10
3578.904397928898
 20
9326.50760303186
 30
0.0
 11
3578.904397928898
 21
9921.220013050657
 31
0.0
  0
LINE
  5
18DA0
330
123CF
100
AcDbEntity
  8
寸法
 62
     0
 48
50.0
370
    -2
100
AcDbLine
 10
7998.904397928898
 20
9326.50760303186
 30
0.0
 11
7998.904397928898
 21
9921.220013050657
 31
0.0
  0
LINE
  5
18DA1
330
123CF
100
AcDbEntity
  8
寸法
 62
     0
 48
50.0
370
    -2
100
AcDbLine
 10
3598.904397928898
 20
9881.220013050658
 30
0.0
 11
7978.904397928896
 21
9881.220013050658
 31
0.0
  0
INSERT
  5
18DA2
330
123CF
100
AcDbEntity
  8
寸法
 62
     0
 48
50.0
370
    -2
100
AcDbBlockReference
  2
_DOT
 10
3578.904397928898
 20
9881.220013050658
 30
0.0
 41
20.0
 42
20.0
 43
20.0
 50
180.0
  0
INSERT
  5
18DA3
330
123CF
100
AcDbEntity
  8
寸法
 62
     0
 48
50.0
370
    -2
100
AcDbBlockReference
  2
_DOT
 10
7998.904397928898
 20
9881.220013050658
 30
0.0
 41
20.0
 42
20.0
 43
20.0
  0
MTEXT
  5
18DA4
330
123CF
100
AcDbEntity
  8
寸法
 62
     7
 48
50.0
100
AcDbMText
 10
5788.904397928899
 20
9973.231824074282
 30
0.0
 40
120.0
 41
0.0
 71
     5
 72
     1
  1
\A1;4420
  7
STYLE1
 73
     1
 44
1.0
1001
ACAD
1000
MTEXTBEGIN
1070
    73
1070
     1
1070
    44
1040
1.0
1070
    74
1070
     0
1000
MTEXTEND
  0
POINT
  5
18DA5
330
123CF
100
AcDbEntity
  8
DEFPOINTS
 62
     0
 48
50.0
100
AcDbPoint
 10
3578.904397928898
 20
9306.507603031858
 30
0.0
  0
POINT
  5
18DA6
330
123CF
100
AcDbEntity
  8
DEFPOINTS
 62
     0
 48
50.0
100
AcDbPoint
 10
7998.904397928898
 20
9306.507603031858
 30
0.0
  0
POINT
  5
18DA7
330
123CF
100
AcDbEntity
  8
DEFPOINTS
 62
     0
 48
50.0
100
AcDbPoint
 10
7998.904397928898
 20
9881.220013050658
 30
0.0
  0
ENDBLK
  5
1327C
330
123CF
100
AcDbEntity
  8
0
 48
50.0
100
AcDbBlockEnd
  0
BLOCK
  5
133CD
330
123DB
100
AcDbEntity
  8
0
 48
50.0
100
AcDbBlockBegin
  2
*D10
 70
     1
 10
0.0
 20
0.0
 30
0.0
  3
*D10
  1

  0
LINE
  5
18D96
330
123DB
100
AcDbEntity
  8
寸法
 62
     0
 48
50.0
370
    -2
100
AcDbLine
 10
3633.904397928898
 20
9326.507603031862
 30
0.0
 11
3633.904397928898
 21
9621.220013050658
 31
0.0
  0
LINE
  5
18D97
330
123DB
100
AcDbEntity
  8
寸法
 62
     0
 48
50.0
370
    -2
100
AcDbLine
 10
5733.904397928898
 20
9326.507603031862
 30
0.0
 11
5733.904397928898
 21
9621.220013050658
 31
0.0
  0
LINE
  5
18D98
330
123DB
100
AcDbEntity
  8
寸法
 62
     0
 48
50.0
370
    -2
100
AcDbLine
 10
3653.904397928898
 20
9581.220013050655
 30
0.0
 11
5713.904397928899
 21
9581.220013050655
 31
0.0
  0
INSERT
  5
18D99
330
123DB
100
AcDbEntity
  8
寸法
 62
     0
 48
50.0
370
    -2
100
AcDbBlockReference
  2
_DOT
 10
3633.904397928898
 20
9581.220013050655
 30
0.0
 41
20.0
 42
20.0
 43
20.0
 50
180.0
  0
INSERT
  5
18D9A
330
123DB
100
AcDbEntity
  8
寸法
 62
     0
 48
50.0
370
    -2
100
AcDbBlockReference
  2
_DOT
 10
5733.904397928898
 20
9581.220013050655
 30
0.0
 41
20.0
 42
20.0
 43
20.0
  0
MTEXT
  5
18D9B
330
123DB
100
AcDbEntity
  8
寸法
 62
     7
 48
50.0
100
AcDbMText
 10
4683.904397928897
 20
9673.231824074278
 30
0.0
 40
120.0
 41
0.0
 71
     5
 72
     1
  1
\A1;5X420=2100
  7
STYLE1
 73
     1
 44
1.0
1001
ACAD
1000
MTEXTBEGIN
1070
    73
1070
     1
1070
    44
1040
1.0
1070
    74
1070
     0
1000
MTEXTEND
  0
POINT
  5
18D9C
330
123DB
100
AcDbEntity
  8
DEFPOINTS
 62
     0
 48
50.0
100
AcDbPoint
 10
3633.904397928898
 20
9306.507603031862
 30
0.0
  0
POINT
  5
18D9D
330
123DB
100
AcDbEntity
  8
DEFPOINTS
 62
     0
 48
50.0
100
AcDbPoint
 10
5733.904397928898
 20
9306.507603031862
 30
0.0
  0
POINT
  5
18D9E
330
123DB
100
AcDbEntity
  8
DEFPOINTS
 62
     0
 48
50.0
100
AcDbPoint
 10
5733.904397928898
 20
9581.220013050655
 30
0.0
  0
ENDBLK
  5
133D7
330
123DB
100
AcDbEntity
  8
0
 48
50.0
100
AcDbBlockEnd
  0
BLOCK
  5
12EE9
330
123E7
100
AcDbEntity
  8
0
 48
50.0
100
AcDbBlockBegin
  2
*D11
 70
     1
 10
0.0
 20
0.0
 30
0.0
  3
*D11
  1

  0
LINE
  5
18D8D
330
123E7
100
AcDbEntity
  8
寸法
 62
     0
 48
50.0
370
    -2
100
AcDbLine
 10
3578.904397928898
 20
7496.507603031858
 30
0.0
 11
3578.904397928898
 21
6198.459023477539
 31
0.0
  0
LINE
  5
18D8E
330
123E7
100
AcDbEntity
  8
寸法
 62
     0
 48
50.0
370
    -2
100
AcDbLine
 10
5788.904397928899
 20
7551.507603031858
 30
0.0
 11
5788.904397928899
 21
6198.459023477539
 31
0.0
  0
LINE
  5
18D8F
330
123E7
100
AcDbEntity
  8
寸法
 62
     0
 48
50.0
370
    -2
100
AcDbLine
 10
3598.904397928898
 20
6238.459023477538
 30
0.0
 11
5768.904397928898
 21
6238.459023477538
 31
0.0
  0
INSERT
  5
18D90
330
123E7
100
AcDbEntity
  8
寸法
 62
     0
 48
50.0
370
    -2
100
AcDbBlockReference
  2
_DOT
 10
3578.904397928898
 20
6238.459023477538
 30
0.0
 41
20.0
 42
20.0
 43
20.0
 50
180.0
  0
INSERT
  5
18D91
330
123E7
100
AcDbEntity
  8
寸法
 62
     0
 48
50.0
370
    -2
100
AcDbBlockReference
  2
_DOT
 10
5788.904397928899
 20
6238.459023477538
 30
0.0
 41
20.0
 42
20.0
 43
20.0
  0
MTEXT
  5
18D92
330
123E7
100
AcDbEntity
  8
寸法
 62
     7
 48
50.0
100
AcDbMText
 10
4673.548125189918
 20
6330.470834501159
 30
0.0
 40
120.0
 41
0.0
 71
     5
 72
     1
  1
\A1;2210
  7
STYLE1
 73
     1
 44
1.0
1001
ACAD
1000
MTEXTBEGIN
1070
    73
1070
     1
1070
    44
1040
1.0
1070
    74
1070
     0
1000
MTEXTEND
  0
POINT
  5
18D93
330
123E7
100
AcDbEntity
  8
DEFPOINTS
 62
     0
 48
50.0
100
AcDbPoint
 10
3578.904397928898
 20
7516.507603031858
 30
0.0
  0
POINT
  5
18D94
330
123E7
100
AcDbEntity
  8
DEFPOINTS
 62
     0
 48
50.0
100
AcDbPoint
 10
5788.904397928899
 20
7571.507603031858
 30
0.0
  0
POINT
  5
18D95
330
123E7
100
AcDbEntity
  8
DEFPOINTS
 62
     0
 48
50.0
100
AcDbPoint
 10
5788.904397928899
 20
6238.459023477538
 30
0.0
  0
ENDBLK
  5
12EF3
330
123E7
100
AcDbEntity
  8
0
 48
50.0
100
AcDbBlockEnd
  0
BLOCK
  5
1296F
330
123F3
100
AcDbEntity
  8
0
 48
50.0
100
AcDbBlockBegin
  2
*D12
 70
     1
 10
0.0
 20
0.0
 30
0.0
  3
*D12
  1

  0
LINE
  5
18D82
330
123F3
100
AcDbEntity
  8
寸法
 62
     0
 48
50.0
370
    -2
100
AcDbLine
 10
3578.904397928898
 20
9326.50760303186
 30
0.0
 11
3578.904397928898
 21
9621.220013050658
 31
0.0
  0
LINE
  5
18D83
330
123F3
100
AcDbEntity
  8
寸法
 62
     0
 48
50.0
370
    -2
100
AcDbLine
 10
3633.904397928898
 20
9326.507603031862
 30
0.0
 11
3633.904397928898
 21
9621.220013050658
 31
0.0
  0
LINE
  5
18D84
330
123F3
100
AcDbEntity
  8
寸法
 62
     0
 48
50.0
370
    -2
100
AcDbLine
 10
3653.904397928898
 20
9581.220013050655
 30
0.0
 11
3673.904397928898
 21
9581.220013050655
 31
0.0
  0
LINE
  5
18D85
330
123F3
100
AcDbEntity
  8
寸法
 62
     0
 48
50.0
370
    -2
100
AcDbLine
 10
3558.904397928898
 20
9581.220013050655
 30
0.0
 11
3084.252449887994
 21
9581.220013050655
 31
0.0
  0
LINE
  5
18D86
330
123F3
100
AcDbEntity
  8
寸法
 62
     0
 48
50.0
370
    -2
100
AcDbLine
 10
3633.904397928898
 20
9581.220013050655
 30
0.0
 11
3578.904397928898
 21
9581.220013050655
 31
0.0
  0
INSERT
  5
18D87
330
123F3
100
AcDbEntity
  8
寸法
 62
     0
 48
50.0
370
    -2
100
AcDbBlockReference
  2
_DOT
 10
3633.904397928898
 20
9581.220013050655
 30
0.0
 41
20.0
 42
20.0
 43
20.0
 50
180.0
  0
INSERT
  5
18D88
330
123F3
100
AcDbEntity
  8
寸法
 62
     0
 48
50.0
370
    -2
100
AcDbBlockReference
  2
_DOT
 10
3578.904397928898
 20
9581.220013050655
 30
0.0
 41
20.0
 42
20.0
 43
20.0
  0
MTEXT
  5
18D89
330
123F3
100
AcDbEntity
  8
寸法
 62
     7
 48
50.0
100
AcDbMText
 10
3184.737731262232
 20
9673.220013050658
 30
0.0
 40
120.0
 41
0.0
 71
     5
 72
     1
  1
\A1;55
  7
STYLE1
 73
     1
 44
1.0
1001
ACAD
1000
MTEXTBEGIN
1070
    73
1070
     1
1070
    44
1040
1.0
1070
    74
1070
     0
1000
MTEXTEND
  0
POINT
  5
18D8A
330
123F3
100
AcDbEntity
  8
DEFPOINTS
 62
     0
 48
50.0
100
AcDbPoint
 10
3578.904397928898
 20
9306.507603031858
 30
0.0
  0
POINT
  5
18D8B
330
123F3
100
AcDbEntity
  8
DEFPOINTS
 62
     0
 48
50.0
100
AcDbPoint
 10
3633.904397928898
 20
9306.507603031862
 30
0.0
  0
POINT
  5
18D8C
330
123F3
100
AcDbEntity
  8
DEFPOINTS
 62
     0
 48
50.0
100
AcDbPoint
 10
3633.904397928898
 20
9581.220013050655
 30
0.0
  0
ENDBLK
  5
1297B
330
123F3
100
AcDbEntity
  8
0
 48
50.0
100
AcDbBlockEnd
  0
BLOCK
  5
12EA7
330
12400
100
AcDbEntity
  8
0
 48
50.0
100
AcDbBlockBegin
  2
*D13
 70
     1
 10
0.0
 20
0.0
 30
0.0
  3
*D13
  1

  0
LINE
  5
18D79
330
12400
100
AcDbEntity
  8
寸法
 62
     0
 48
50.0
370
    -2
100
AcDbLine
 10
5788.904397928899
 20
7551.507603031857
 30
0.0
 11
5788.904397928899
 21
6198.459023477539
 31
0.0
  0
LINE
  5
18D7A
330
12400
100
AcDbEntity
  8
寸法
 62
     0
 48
50.0
370
    -2
100
AcDbLine
 10
7998.904397928898
 20
7496.507603031858
 30
0.0
 11
7998.904397928898
 21
6198.459023477539
 31
0.0
  0
LINE
  5
18D7B
330
12400
100
AcDbEntity
  8
寸法
 62
     0
 48
50.0
370
    -2
100
AcDbLine
 10
5808.904397928898
 20
6238.459023477538
 30
0.0
 11
7978.904397928896
 21
6238.459023477538
 31
0.0
  0
INSERT
  5
18D7C
330
12400
100
AcDbEntity
  8
寸法
 62
     0
 48
50.0
370
    -2
100
AcDbBlockReference
  2
_DOT
 10
5788.904397928899
 20
6238.459023477538
 30
0.0
 41
20.0
 42
20.0
 43
20.0
 50
180.0
  0
INSERT
  5
18D7D
330
12400
100
AcDbEntity
  8
寸法
 62
     0
 48
50.0
370
    -2
100
AcDbBlockReference
  2
_DOT
 10
7998.904397928898
 20
6238.459023477538
 30
0.0
 41
20.0
 42
20.0
 43
20.0
  0
MTEXT
  5
18D7E
330
12400
100
AcDbEntity
  8
寸法
 62
     7
 48
50.0
100
AcDbMText
 10
6893.904397928898
 20
6330.470834501159
 30
0.0
 40
120.0
 41
0.0
 71
     5
 72
     1
  1
\A1;2210
  7
STYLE1
 73
     1
 44
1.0
1001
ACAD
1000
MTEXTBEGIN
1070
    73
1070
     1
1070
    44
1040
1.0
1070
    74
1070
     0
1000
MTEXTEND
  0
POINT
  5
18D7F
330
12400
100
AcDbEntity
  8
DEFPOINTS
 62
     0
 48
50.0
100
AcDbPoint
 10
5788.904397928899
 20
7571.507603031855
 30
0.0
  0
POINT
  5
18D80
330
12400
100
AcDbEntity
  8
DEFPOINTS
 62
     0
 48
50.0
100
AcDbPoint
 10
7998.904397928898
 20
7516.507603031858
 30
0.0
  0
POINT
  5
18D81
330
12400
100
AcDbEntity
  8
DEFPOINTS
 62
     0
 48
50.0
100
AcDbPoint
 10
7998.904397928898
 20
6238.459023477538
 30
0.0
  0
ENDBLK
  5
12EB1
330
12400
100
AcDbEntity
  8
0
 48
50.0
100
AcDbBlockEnd
  0
BLOCK
  5
133C2
330
1240C
100
AcDbEntity
  8
0
 48
50.0
100
AcDbBlockBegin
  2
*D14
 70
     1
 10
0.0
 20
0.0
 30
0.0
  3
*D14
  1

  0
LINE
  5
18D70
330
1240C
100
AcDbEntity
  8
寸法
 62
     0
 48
50.0
370
    -2
100
AcDbLine
 10
5843.904397928898
 20
9326.507603031862
 30
0.0
 11
5843.904397928898
 21
9621.220013050658
 31
0.0
  0
LINE
  5
18D71
330
1240C
100
AcDbEntity
  8
寸法
 62
     0
 48
50.0
370
    -2
100
AcDbLine
 10
7943.904397928898
 20
9326.507603031862
 30
0.0
 11
7943.904397928898
 21
9621.220013050658
 31
0.0
  0
LINE
  5
18D72
330
1240C
100
AcDbEntity
  8
寸法
 62
     0
 48
50.0
370
    -2
100
AcDbLine
 10
5863.904397928898
 20
9581.220013050655
 30
0.0
 11
7923.904397928898
 21
9581.220013050655
 31
0.0
  0
INSERT
  5
18D73
330
1240C
100
AcDbEntity
  8
寸法
 62
     0
 48
50.0
370
    -2
100
AcDbBlockReference
  2
_DOT
 10
5843.904397928898
 20
9581.220013050655
 30
0.0
 41
20.0
 42
20.0
 43
20.0
 50
180.0
  0
INSERT
  5
18D74
330
1240C
100
AcDbEntity
  8
寸法
 62
     0
 48
50.0
370
    -2
100
AcDbBlockReference
  2
_DOT
 10
7943.904397928898
 20
9581.220013050655
 30
0.0
 41
20.0
 42
20.0
 43
20.0
  0
MTEXT
  5
18D75
330
1240C
100
AcDbEntity
  8
寸法
 62
     7
 48
50.0
100
AcDbMText
 10
6893.904397928898
 20
9673.231824074278
 30
0.0
 40
120.0
 41
0.0
 71
     5
 72
     1
  1
\A1;5X420=2100
  7
STYLE1
 73
     1
 44
1.0
1001
ACAD
1000
MTEXTBEGIN
1070
    73
1070
     1
1070
    44
1040
1.0
1070
    74
1070
     0
1000
MTEXTEND
  0
POINT
  5
18D76
330
1240C
100
AcDbEntity
  8
DEFPOINTS
 62
     0
 48
50.0
100
AcDbPoint
 10
5843.904397928898
 20
9306.507603031862
 30
0.0
  0
POINT
  5
18D77
330
1240C
100
AcDbEntity
  8
DEFPOINTS
 62
     0
 48
50.0
100
AcDbPoint
 10
7943.904397928898
 20
9306.507603031862
 30
0.0
  0
POINT
  5
18D78
330
1240C
100
AcDbEntity
  8
DEFPOINTS
 62
     0
 48
50.0
100
AcDbPoint
 10
7943.904397928898
 20
9581.220013050655
 30
0.0
  0
ENDBLK
  5
133CC
330
1240C
100
AcDbEntity
  8
0
 48
50.0
100
AcDbBlockEnd
  0
BLOCK
  5
1297C
330
12418
100
AcDbEntity
  8
0
 48
50.0
100
AcDbBlockBegin
  2
*D15
 70
     1
 10
0.0
 20
0.0
 30
0.0
  3
*D15
  1

  0
LINE
  5
18D67
330
12418
100
AcDbEntity
  8
寸法
 62
     0
 48
50.0
370
    -2
100
AcDbLine
 10
5733.904397928898
 20
9326.507603031862
 30
0.0
 11
5733.904397928898
 21
9621.220013050658
 31
0.0
  0
LINE
  5
18D68
330
12418
100
AcDbEntity
  8
寸法
 62
     0
 48
50.0
370
    -2
100
AcDbLine
 10
5843.904397928898
 20
9326.507603031862
 30
0.0
 11
5843.904397928898
 21
9621.220013050658
 31
0.0
  0
LINE
  5
18D69
330
12418
100
AcDbEntity
  8
寸法
 62
     0
 48
50.0
370
    -2
100
AcDbLine
 10
5753.904397928899
 20
9581.220013050655
 30
0.0
 11
5823.904397928898
 21
9581.220013050655
 31
0.0
  0
INSERT
  5
18D6A
330
12418
100
AcDbEntity
  8
寸法
 62
     0
 48
50.0
370
    -2
100
AcDbBlockReference
  2
_DOT
 10
5733.904397928898
 20
9581.220013050655
 30
0.0
 41
20.0
 42
20.0
 43
20.0
 50
180.0
  0
INSERT
  5
18D6B
330
12418
100
AcDbEntity
  8
寸法
 62
     0
 48
50.0
370
    -2
100
AcDbBlockReference
  2
_DOT
 10
5843.904397928898
 20
9581.220013050655
 30
0.0
 41
20.0
 42
20.0
 43
20.0
  0
MTEXT
  5
18D6C
330
12418
100
AcDbEntity
  8
寸法
 62
     7
 48
50.0
100
AcDbMText
 10
5788.904397928899
 20
9673.220013050658
 30
0.0
 40
120.0
 41
0.0
 71
     5
 72
     1
  1
\A1;110
  7
STYLE1
 73
     1
 44
1.0
1001
ACAD
1000
MTEXTBEGIN
1070
    73
1070
     1
1070
    44
1040
1.0
1070
    74
1070
     0
1000
MTEXTEND
  0
POINT
  5
18D6D
330
12418
100
AcDbEntity
  8
DEFPOINTS
 62
     0
 48
50.0
100
AcDbPoint
 10
5733.904397928898
 20
9306.507603031862
 30
0.0
  0
POINT
  5
18D6E
330
12418
100
AcDbEntity
  8
DEFPOINTS
 62
     0
 48
50.0
100
AcDbPoint
 10
5843.904397928898
 20
9306.507603031862
 30
0.0
  0
POINT
  5
18D6F
330
12418
100
AcDbEntity
  8
DEFPOINTS
 62
     0
 48
50.0
100
AcDbPoint
 10
5843.904397928898
 20
9581.220013050655
 30
0.0
  0
ENDBLK
  5
12986
330
12418
100
AcDbEntity
  8
0
 48
50.0
100
AcDbBlockEnd
  0
BLOCK
  5
137D2
330
1372F
100
AcDbEntity
  8
0
 48
50.0
100
AcDbBlockBegin
  2
*D16
 70
     1
 10
0.0
 20
0.0
 30
0.0
  3
*D16
  1

  0
LINE
  5
137D3
330
1372F
100
AcDbEntity
  8
0
  6
ByBlock
 62
     0
 48
50.0
100
AcDbLine
 10
13395.14422886714
 20
2288.112805903256
 30
0.0
 11
14106.35780785321
 21
2288.112805903256
 31
0.0
  0
LINE
  5
137D4
330
1372F
100
AcDbEntity
  8
0
  6
ByBlock
 62
     0
 48
50.0
100
AcDbLine
 10
13475.14422886715
 20
4608.112805903256
 30
0.0
 11
14106.35780785321
 21
4608.112805903256
 31
0.0
  0
LINE
  5
137D5
330
1372F
100
AcDbEntity
  8
0
  6
ByBlock
 62
     0
 48
50.0
100
AcDbLine
 10
14066.35780785321
 20
2308.112805903256
 30
0.0
 11
14066.35780785321
 21
4588.112805903256
 31
0.0
  0
INSERT
  5
137D6
330
1372F
100
AcDbEntity
  8
0
  6
ByBlock
 62
     0
 48
50.0
100
AcDbBlockReference
  2
_DOT
 10
14066.35780785321
 20
2288.112805903256
 30
0.0
 41
20.0
 42
20.0
 43
20.0
 50
270.0
  0
INSERT
  5
137D7
330
1372F
100
AcDbEntity
  8
0
  6
ByBlock
 62
     0
 48
50.0
100
AcDbBlockReference
  2
_DOT
 10
14066.35780785321
 20
4608.112805903256
 30
0.0
 41
20.0
 42
20.0
 43
20.0
 50
90.0
  0
MTEXT
  5
137D8
330
1372F
100
AcDbEntity
  8
0
  6
ByBlock
 62
     7
 48
50.0
100
AcDbMText
 10
13974.34599682959
 20
3448.112805903257
 30
0.0
 40
120.0
 41
0.0
 71
     5
 72
     1
  1
\A1;2320
  7
STYLE1
 11
0.0000000000000001
 21
1.0
 31
0.0
 73
     1
 44
1.0
1001
ACAD
1000
MTEXTBEGIN
1070
    73
1070
     1
1070
    44
1040
1.0
1070
    74
1070
     0
1000
MTEXTEND
  0
POINT
  5
137D9
330
1372F
100
AcDbEntity
  8
DEFPOINTS
  6
ByBlock
 62
     0
 48
50.0
100
AcDbPoint
 10
13375.14422886714
 20
2288.112805903256
 30
0.0
  0
POINT
  5
137DA
330
1372F
100
AcDbEntity
  8
DEFPOINTS
  6
ByBlock
 62
     0
 48
50.0
100
AcDbPoint
 10
13455.14422886715
 20
4608.112805903256
 30
0.0
  0
POINT
  5
137DB
330
1372F
100
AcDbEntity
  8
DEFPOINTS
  6
ByBlock
 62
     0
 48
50.0
100
AcDbPoint
 10
14066.35780785321
 20
4608.112805903256
 30
0.0
  0
ENDBLK
  5
137DC
330
1372F
100
AcDbEntity
  8
0
 48
50.0
100
AcDbBlockEnd
  0
BLOCK
  5
137DD
330
1373B
100
AcDbEntity
  8
0
 48
50.0
100
AcDbBlockBegin
  2
*D17
 70
     1
 10
0.0
 20
0.0
 30
0.0
  3
*D17
  1

  0
LINE
  5
1761C
330
1373B
100
AcDbEntity
  8
寸法
 62
     0
 48
50.0
370
    -2
100
AcDbLine
 10
11565.14422886715
 20
2338.112805903256
 30
0.0
 11
10701.39409968388
 21
2338.112805903257
 31
0.0
  0
LINE
  5
1761D
330
1373B
100
AcDbEntity
  8
寸法
 62
     0
 48
50.0
370
    -2
100
AcDbLine
 10
11488.14422886714
 20
2288.112805903256
 30
0.0
 11
10701.39409968388
 21
2288.112805903257
 31
0.0
  0
LINE
  5
1761E
330
1373B
100
AcDbEntity
  8
寸法
 62
     0
 48
50.0
370
    -2
100
AcDbLine
 10
10741.39409968388
 20
2358.112805903257
 30
0.0
 11
10741.39409968388
 21
2378.112805903257
 31
0.0
  0
LINE
  5
1761F
330
1373B
100
AcDbEntity
  8
寸法
 62
     0
 48
50.0
370
    -2
100
AcDbLine
 10
10741.39409968388
 20
2268.112805903257
 30
0.0
 11
10741.39409968388
 21
1806.315561808767
 31
0.0
  0
LINE
  5
17620
330
1373B
100
AcDbEntity
  8
寸法
 62
     0
 48
50.0
370
    -2
100
AcDbLine
 10
10741.39409968388
 20
2338.112805903257
 30
0.0
 11
10741.39409968388
 21
2288.112805903257
 31
0.0
  0
INSERT
  5
17621
330
1373B
100
AcDbEntity
  8
寸法
 62
     0
 48
50.0
370
    -2
100
AcDbBlockReference
  2
_DOT
 10
10741.39409968388
 20
2338.112805903257
 30
0.0
 41
20.0
 42
20.0
 43
20.0
 50
270.0
  0
INSERT
  5
17622
330
1373B
100
AcDbEntity
  8
寸法
 62
     0
 48
50.0
370
    -2
100
AcDbBlockReference
  2
_DOT
 10
10741.39409968388
 20
2288.112805903257
 30
0.0
 41
20.0
 42
20.0
 43
20.0
 50
90.0
  0
MTEXT
  5
17623
330
1373B
100
AcDbEntity
  8
寸法
 62
     7
 48
50.0
100
AcDbMText
 10
10649.39409968388
 20
1904.362805903256
 30
0.0
 40
120.0
 41
0.0
 71
     5
 72
     1
  1
\A1;50
  7
STYLE1
 11
0.0000000000000001
 21
1.0
 31
0.0
 73
     1
 44
1.0
1001
ACAD
1000
MTEXTBEGIN
1070
    73
1070
     1
1070
    44
1040
1.0
1070
    74
1070
     0
1000
MTEXTEND
  0
POINT
  5
17624
330
1373B
100
AcDbEntity
  8
DEFPOINTS
 62
     0
 48
50.0
100
AcDbPoint
 10
11585.14422886715
 20
2338.112805903256
 30
0.0
  0
POINT
  5
17625
330
1373B
100
AcDbEntity
  8
DEFPOINTS
 62
     0
 48
50.0
100
AcDbPoint
 10
11508.14422886714
 20
2288.112805903256
 30
0.0
  0
POINT
  5
17626
330
1373B
100
AcDbEntity
  8
DEFPOINTS
 62
     0
 48
50.0
100
AcDbPoint
 10
10741.39409968388
 20
2288.112805903257
 30
0.0
  0
ENDBLK
  5
137E9
330
1373B
100
AcDbEntity
  8
0
 48
50.0
100
AcDbBlockEnd
  0
BLOCK
  5
137EA
330
13749
100
AcDbEntity
  8
0
 48
50.0
100
AcDbBlockBegin
  2
*D18
 70
     1
 10
0.0
 20
0.0
 30
0.0
  3
*D18
  1

  0
LINE
  5
17611
330
13749
100
AcDbEntity
  8
寸法
 62
     0
 48
50.0
370
    -2
100
AcDbLine
 10
11488.14422886714
 20
2288.112805903256
 30
0.0
 11
10401.39409968388
 21
2288.112805903257
 31
0.0
  0
LINE
  5
17612
330
13749
100
AcDbEntity
  8
寸法
 62
     0
 48
50.0
370
    -2
100
AcDbLine
 10
10508.64315297201
 20
2188.112805903256
 30
0.0
 11
10401.39409968388
 21
2188.112805903256
 31
0.0
  0
LINE
  5
17613
330
13749
100
AcDbEntity
  8
寸法
 62
     0
 48
50.0
370
    -2
100
AcDbLine
 10
10441.39409968388
 20
2308.112805903257
 30
0.0
 11
10441.39409968388
 21
2328.112805903257
 31
0.0
  0
LINE
  5
17614
330
13749
100
AcDbEntity
  8
寸法
 62
     0
 48
50.0
370
    -2
100
AcDbLine
 10
10441.39409968388
 20
2168.112805903256
 30
0.0
 11
10441.39409968388
 21
1645.065561808766
 31
0.0
  0
LINE
  5
17615
330
13749
100
AcDbEntity
  8
寸法
 62
     0
 48
50.0
370
    -2
100
AcDbLine
 10
10441.39409968388
 20
2288.112805903257
 30
0.0
 11
10441.39409968388
 21
2188.112805903256
 31
0.0
  0
INSERT
  5
17616
330
13749
100
AcDbEntity
  8
寸法
 62
     0
 48
50.0
370
    -2
100
AcDbBlockReference
  2
_DOT
 10
10441.39409968388
 20
2288.112805903257
 30
0.0
 41
20.0
 42
20.0
 43
20.0
 50
270.0
  0
INSERT
  5
17617
330
13749
100
AcDbEntity
  8
寸法
 62
     0
 48
50.0
370
    -2
100
AcDbBlockReference
  2
_DOT
 10
10441.39409968388
 20
2188.112805903256
 30
0.0
 41
20.0
 42
20.0
 43
20.0
 50
90.0
  0
MTEXT
  5
17618
330
13749
100
AcDbEntity
  8
寸法
 62
     7
 48
50.0
100
AcDbMText
 10
10349.39409968388
 20
1773.112805903256
 30
0.0
 40
120.0
 41
0.0
 71
     5
 72
     1
  1
\A1;100
  7
STYLE1
 11
0.0000000000000001
 21
1.0
 31
0.0
 73
     1
 44
1.0
1001
ACAD
1000
MTEXTBEGIN
1070
    73
1070
     1
1070
    44
1040
1.0
1070
    74
1070
     0
1000
MTEXTEND
  0
POINT
  5
17619
330
13749
100
AcDbEntity
  8
DEFPOINTS
 62
     0
 48
50.0
100
AcDbPoint
 10
11508.14422886714
 20
2288.112805903256
 30
0.0
  0
POINT
  5
1761A
330
13749
100
AcDbEntity
  8
DEFPOINTS
 62
     0
 48
50.0
100
AcDbPoint
 10
10528.64315297201
 20
2188.112805903256
 30
0.0
  0
POINT
  5
1761B
330
13749
100
AcDbEntity
  8
DEFPOINTS
 62
     0
 48
50.0
100
AcDbPoint
 10
10441.39409968388
 20
2188.112805903256
 30
0.0
  0
ENDBLK
  5
137F6
330
13749
100
AcDbEntity
  8
0
 48
50.0
100
AcDbBlockEnd
  0
BLOCK
  5
137F7
330
13757
100
AcDbEntity
  8
0
 48
50.0
100
AcDbBlockBegin
  2
*D19
 70
     1
 10
0.0
 20
0.0
 30
0.0
  3
*D19
  1

  0
LINE
  5
175FF
330
13757
100
AcDbEntity
  8
寸法
 62
     0
 48
50.0
370
    -2
100
AcDbLine
 10
11492.64422886715
 20
1988.112805903256
 30
0.0
 11
11065.39965278267
 21
1988.112805903256
 31
0.0
  0
LINE
  5
17600
330
13757
100
AcDbEntity
  8
寸法
 62
     0
 48
50.0
370
    -2
100
AcDbLine
 10
11492.64422886715
 20
2188.112805903256
 30
0.0
 11
11065.39965278267
 21
2188.112805903257
 31
0.0
  0
LINE
  5
17601
330
13757
100
AcDbEntity
  8
寸法
 62
     0
 48
50.0
370
    -2
100
AcDbLine
 10
11105.39965278267
 20
2008.112805903256
 30
0.0
 11
11105.39965278267
 21
2168.112805903257
 31
0.0
  0
INSERT
  5
17602
330
13757
100
AcDbEntity
  8
寸法
 62
     0
 48
50.0
370
    -2
100
AcDbBlockReference
  2
_DOT
 10
11105.39965278267
 20
1988.112805903256
 30
0.0
 41
20.0
 42
20.0
 43
20.0
 50
270.0
  0
INSERT
  5
17603
330
13757
100
AcDbEntity
  8
寸法
 62
     0
 48
50.0
370
    -2
100
AcDbBlockReference
  2
_DOT
 10
11105.39965278267
 20
2188.112805903257
 30
0.0
 41
20.0
 42
20.0
 43
20.0
 50
90.0
  0
MTEXT
  5
17604
330
13757
100
AcDbEntity
  8
寸法
 62
     7
 48
50.0
100
AcDbMText
 10
11013.38784175904
 20
2045.674129116822
 30
0.0
 40
120.0
 41
0.0
 71
     5
 72
     1
  1
\A1;200
  7
STYLE1
 11
0.0000000000000001
 21
1.0
 31
0.0
 73
     1
 44
1.0
1001
ACAD
1000
MTEXTBEGIN
1070
    73
1070
     1
1070
    44
1040
1.0
1070
    74
1070
     0
1000
MTEXTEND
  0
POINT
  5
17605
330
13757
100
AcDbEntity
  8
DEFPOINTS
 62
     0
 48
50.0
100
AcDbPoint
 10
11512.64422886715
 20
1988.112805903256
 30
0.0
  0
POINT
  5
17606
330
13757
100
AcDbEntity
  8
DEFPOINTS
 62
     0
 48
50.0
100
AcDbPoint
 10
11512.64422886715
 20
2188.112805903256
 30
0.0
  0
POINT
  5
17607
330
13757
100
AcDbEntity
  8
DEFPOINTS
 62
     0
 48
50.0
100
AcDbPoint
 10
11105.39965278267
 20
2188.112805903257
 30
0.0
  0
ENDBLK
  5
13801
330
13757
100
AcDbEntity
  8
0
 48
50.0
100
AcDbBlockEnd
  0
BLOCK
  5
13802
330
13763
100
AcDbEntity
  8
0
 48
50.0
100
AcDbBlockBegin
  2
*D20
 70
     1
 10
0.0
 20
0.0
 30
0.0
  3
*D20
  1

  0
LINE
  5
13803
330
13763
100
AcDbEntity
  8
0
  6
ByBlock
 62
     0
 48
50.0
100
AcDbLine
 10
11512.64422886715
 20
1968.112805903256
 30
0.0
 11
11512.64422886715
 21
1612.922421664043
 31
0.0
  0
LINE
  5
13804
330
13763
100
AcDbEntity
  8
0
  6
ByBlock
 62
     0
 48
50.0
100
AcDbLine
 10
11712.64422886715
 20
1968.112805903254
 30
0.0
 11
11712.64422886715
 21
1612.922421664043
 31
0.0
  0
LINE
  5
13805
330
13763
100
AcDbEntity
  8
0
  6
ByBlock
 62
     0
 48
50.0
100
AcDbLine
 10
11532.64422886715
 20
1652.922421664043
 30
0.0
 11
11692.64422886715
 21
1652.922421664043
 31
0.0
  0
INSERT
  5
13806
330
13763
100
AcDbEntity
  8
0
  6
ByBlock
 62
     0
 48
50.0
100
AcDbBlockReference
  2
_DOT
 10
11512.64422886715
 20
1652.922421664043
 30
0.0
 41
20.0
 42
20.0
 43
20.0
 50
180.0
  0
INSERT
  5
13807
330
13763
100
AcDbEntity
  8
0
  6
ByBlock
 62
     0
 48
50.0
100
AcDbBlockReference
  2
_DOT
 10
11712.64422886715
 20
1652.922421664043
 30
0.0
 41
20.0
 42
20.0
 43
20.0
  0
MTEXT
  5
13808
330
13763
100
AcDbEntity
  8
0
  6
ByBlock
 62
     7
 48
50.0
100
AcDbMText
 10
11612.64422886715
 20
1744.934232687665
 30
0.0
 40
120.0
 41
0.0
 71
     5
 72
     1
  1
\A1;200
  7
STYLE1
 73
     1
 44
1.0
1001
ACAD
1000
MTEXTBEGIN
1070
    73
1070
     1
1070
    44
1040
1.0
1070
    74
1070
     0
1000
MTEXTEND
  0
POINT
  5
13809
330
13763
100
AcDbEntity
  8
DEFPOINTS
  6
ByBlock
 62
     0
 48
50.0
100
AcDbPoint
 10
11512.64422886715
 20
1988.112805903256
 30
0.0
  0
POINT
  5
1380A
330
13763
100
AcDbEntity
  8
DEFPOINTS
  6
ByBlock
 62
     0
 48
50.0
100
AcDbPoint
 10
11712.64422886715
 20
1988.112805903254
 30
0.0
  0
POINT
  5
1380B
330
13763
100
AcDbEntity
  8
DEFPOINTS
  6
ByBlock
 62
     0
 48
50.0
100
AcDbPoint
 10
11712.64422886715
 20
1652.922421664043
 30
0.0
  0
ENDBLK
  5
1380C
330
13763
100
AcDbEntity
  8
0
 48
50.0
100
AcDbBlockEnd
  0
BLOCK
  5
13824
330
13788
100
AcDbEntity
  8
0
 48
50.0
100
AcDbBlockBegin
  2
*D21
 70
     1
 10
0.0
 20
0.0
 30
0.0
  3
*D21
  1

  0
LINE
  5
17653
330
13788
100
AcDbEntity
  8
寸法
 62
     0
 48
50.0
370
    -2
100
AcDbLine
 10
11488.14422886715
 20
4379.112805903257
 30
0.0
 11
11000.23558746989
 21
4379.112805903257
 31
0.0
  0
LINE
  5
17654
330
13788
100
AcDbEntity
  8
寸法
 62
     0
 48
50.0
370
    -2
100
AcDbLine
 10
11488.14422886714
 20
2354.112805903256
 30
0.0
 11
11000.23558746989
 21
2354.112805903257
 31
0.0
  0
LINE
  5
17655
330
13788
100
AcDbEntity
  8
寸法
 62
     0
 48
50.0
370
    -2
100
AcDbLine
 10
11040.23558746989
 20
4359.112805903256
 30
0.0
 11
11040.23558746989
 21
2374.112805903257
 31
0.0
  0
INSERT
  5
17656
330
13788
100
AcDbEntity
  8
寸法
 62
     0
 48
50.0
370
    -2
100
AcDbBlockReference
  2
_DOT
 10
11040.23558746989
 20
4379.112805903257
 30
0.0
 41
20.0
 42
20.0
 43
20.0
 50
90.0
  0
INSERT
  5
17657
330
13788
100
AcDbEntity
  8
寸法
 62
     0
 48
50.0
370
    -2
100
AcDbBlockReference
  2
_DOT
 10
11040.23558746989
 20
2354.112805903257
 30
0.0
 41
20.0
 42
20.0
 43
20.0
 50
270.0
  0
MTEXT
  5
17658
330
13788
100
AcDbEntity
  8
寸法
 62
     7
 48
50.0
100
AcDbMText
 10
10948.22377644627
 20
3366.61280590326
 30
0.0
 40
120.0
 41
0.0
 71
     5
 72
     1
  1
\A1;有効開口部高サ2025
  7
STYLE1
 11
0.0000000000000001
 21
1.0
 31
0.0
 73
     1
 44
1.0
1001
ACAD
1000
MTEXTBEGIN
1070
    73
1070
     1
1070
    44
1040
1.0
1070
    74
1070
     0
1000
MTEXTEND
  0
POINT
  5
17659
330
13788
100
AcDbEntity
  8
DEFPOINTS
 62
     0
 48
50.0
100
AcDbPoint
 10
11508.14422886715
 20
4379.112805903257
 30
0.0
  0
POINT
  5
1765A
330
13788
100
AcDbEntity
  8
DEFPOINTS
 62
     0
 48
50.0
100
AcDbPoint
 10
11508.14422886714
 20
2354.112805903256
 30
0.0
  0
POINT
  5
1765B
330
13788
100
AcDbEntity
  8
DEFPOINTS
 62
     0
 48
50.0
100
AcDbPoint
 10
11040.23558746989
 20
2354.112805903257
 30
0.0
  0
ENDBLK
  5
1382E
330
13788
100
AcDbEntity
  8
0
 48
50.0
100
AcDbBlockEnd
  0
BLOCK
  5
1382F
330
13794
100
AcDbEntity
  8
0
 48
50.0
100
AcDbBlockBegin
  2
*D22
 70
     1
 10
0.0
 20
0.0
 30
0.0
  3
*D22
  1

  0
LINE
  5
13830
330
13794
100
AcDbEntity
  8
0
  6
ByBlock
 62
     0
 48
50.0
100
AcDbLine
 10
11565.14422886715
 20
4428.112805903256
 30
0.0
 11
10701.39409968388
 21
4428.112805903256
 31
0.0
  0
LINE
  5
13831
330
13794
100
AcDbEntity
  8
0
  6
ByBlock
 62
     0
 48
50.0
100
AcDbLine
 10
11565.14422886715
 20
2338.112805903256
 30
0.0
 11
10701.39409968388
 21
2338.112805903257
 31
0.0
  0
LINE
  5
13832
330
13794
100
AcDbEntity
  8
0
  6
ByBlock
 62
     0
 48
50.0
100
AcDbLine
 10
10741.39409968388
 20
4408.112805903257
 30
0.0
 11
10741.39409968388
 21
2358.112805903257
 31
0.0
  0
INSERT
  5
13833
330
13794
100
AcDbEntity
  8
0
  6
ByBlock
 62
     0
 48
50.0
100
AcDbBlockReference
  2
_DOT
 10
10741.39409968388
 20
4428.112805903256
 30
0.0
 41
20.0
 42
20.0
 43
20.0
 50
90.0
  0
INSERT
  5
13834
330
13794
100
AcDbEntity
  8
0
  6
ByBlock
 62
     0
 48
50.0
100
AcDbBlockReference
  2
_DOT
 10
10741.39409968388
 20
2338.112805903257
 30
0.0
 41
20.0
 42
20.0
 43
20.0
 50
270.0
  0
MTEXT
  5
13835
330
13794
100
AcDbEntity
  8
0
  6
ByBlock
 62
     7
 48
50.0
100
AcDbMText
 10
10649.38228866026
 20
3383.112805903257
 30
0.0
 40
120.0
 41
0.0
 71
     5
 72
     1
  1
\A1;2090
  7
STYLE1
 11
0.0000000000000001
 21
1.0
 31
0.0
 73
     1
 44
1.0
1001
ACAD
1000
MTEXTBEGIN
1070
    73
1070
     1
1070
    44
1040
1.0
1070
    74
1070
     0
1000
MTEXTEND
  0
POINT
  5
13836
330
13794
100
AcDbEntity
  8
DEFPOINTS
  6
ByBlock
 62
     0
 48
50.0
100
AcDbPoint
 10
11585.14422886715
 20
4428.112805903256
 30
0.0
  0
POINT
  5
13837
330
13794
100
AcDbEntity
  8
DEFPOINTS
  6
ByBlock
 62
     0
 48
50.0
100
AcDbPoint
 10
11585.14422886715
 20
2338.112805903256
 30
0.0
  0
POINT
  5
13838
330
13794
100
AcDbEntity
  8
DEFPOINTS
  6
ByBlock
 62
     0
 48
50.0
100
AcDbPoint
 10
10741.39409968388
 20
2338.112805903257
 30
0.0
  0
ENDBLK
  5
13839
330
13794
100
AcDbEntity
  8
0
 48
50.0
100
AcDbBlockEnd
  0
BLOCK
  5
1452D
330
1452C
100
AcDbEntity
  8
0
100
AcDbBlockBegin
  2
_OPEN
 70
     0
 10
0.0
 20
0.0
 30
0.0
  3
_OPEN
  1

  0
LINE
  5
1452E
330
1452C
100
AcDbEntity
  8
0
  6
ByBlock
 62
     0
100
AcDbLine
 10
-1.0
 20
0.1666666666666666
 30
0.0
 11
0.0
 21
0.0
 31
0.0
  0
LINE
  5
1452F
330
1452C
100
AcDbEntity
  8
0
  6
ByBlock
 62
     0
100
AcDbLine
 10
0.0
 20
0.0
 30
0.0
 11
-1.0
 21
-0.1666666666666666
 31
0.0
  0
LINE
  5
14530
330
1452C
100
AcDbEntity
  8
0
  6
ByBlock
 62
     0
100
AcDbLine
 10
0.0
 20
0.0
 30
0.0
 11
-1.0
 21
0.0
 31
0.0
  0
ENDBLK
  5
14531
330
1452C
100
AcDbEntity
  8
0
100
AcDbBlockEnd
  0
BLOCK
  5
14533
330
14532
100
AcDbEntity
  8
0
100
AcDbBlockBegin
  2
BLKF047
 70
     0
 10
0.0
 20
0.0
 30
0.0
  3
BLKF047
  1

  0
LINE
  5
14534
330
14532
100
AcDbEntity
  8
GR1-1
  6
実線９
 62
     5
100
AcDbLine
 10
127.1418574451926
 20
26.75880758570355
 30
0.0
 11
127.1418574451926
 21
20.75880758570355
 31
0.0
  0
LINE
  5
14535
330
14532
100
AcDbEntity
  8
GR1-1
  6
実線９
 62
     5
100
AcDbLine
 10
161.7418574451927
 20
26.75880758570355
 30
0.0
 11
161.7418574451927
 21
20.75880758570355
 31
0.0
  0
LINE
  5
14536
330
14532
100
AcDbEntity
  8
GR1-1
  6
実線９
 62
     5
100
AcDbLine
 10
160.7418574451922
 20
26.75880758570355
 30
0.0
 11
160.7418574451922
 21
20.75880758570355
 31
0.0
  0
LINE
  5
14537
330
14532
100
AcDbEntity
  8
GR1-1
  6
実線９
 62
     5
100
AcDbLine
 10
128.1418574451929
 20
26.75880758570355
 30
0.0
 11
128.1418574451929
 21
20.75880758570355
 31
0.0
  0
LINE
  5
14538
330
14532
100
AcDbEntity
  8
GR1-1
  6
実線９
 62
     5
100
AcDbLine
 10
127.1418574451926
 20
26.75880758570355
 30
0.0
 11
161.7418574451927
 21
26.75880758570355
 31
0.0
  0
LINE
  5
14539
330
14532
100
AcDbEntity
  8
GR1-1
  6
実線９
 62
     5
100
AcDbLine
 10
127.1418574451926
 20
20.75880758570355
 30
0.0
 11
161.7418574451927
 21
20.75880758570355
 31
0.0
  0
INSERT
  5
1453A
330
14532
100
AcDbEntity
  8
0
100
AcDbBlockReference
  2
BLKF048
 10
0.0
 20
0.0
 30
0.0
  0
ENDBLK
  5
1453B
330
14532
100
AcDbEntity
  8
0
100
AcDbBlockEnd
  0
BLOCK
  5
1453D
330
1453C
100
AcDbEntity
  8
0
100
AcDbBlockBegin
  2
BLKF048
 70
     0
 10
0.0
 20
0.0
 30
0.0
  3
BLKF048
  1

  0
LINE
  5
1453E
330
1453C
100
AcDbEntity
  8
GR1-1
  6
実線９
 62
     5
100
AcDbLine
 10
160.7418574451922
 20
23.69685923576634
 30
0.0
 11
161.7418574451927
 21
24.6968592357668
 31
0.0
  0
LINE
  5
1453F
330
1453C
100
AcDbEntity
  8
GR1-1
  6
実線９
 62
     5
100
AcDbLine
 10
160.7418574451922
 20
25.11107279813967
 30
0.0
 11
161.7418574451927
 21
26.11107279814013
 31
0.0
  0
LINE
  5
14540
330
1453C
100
AcDbEntity
  8
GR1-1
  6
実線９
 62
     5
100
AcDbLine
 10
160.7418574451923
 20
26.52528636051255
 30
0.0
 11
160.9753786703833
 21
26.75880758570355
 31
0.0
  0
LINE
  5
14541
330
1453C
100
AcDbEntity
  8
GR1-1
  6
実線９
 62
     5
100
AcDbLine
 10
128.1053209852943
 20
20.75880758570355
 30
0.0
 11
128.1418574451929
 21
20.79534404560235
 31
0.0
  0
LINE
  5
14542
330
1453C
100
AcDbEntity
  8
GR1-1
  6
実線９
 62
     5
100
AcDbLine
 10
127.1418574451928
 20
21.20955760797523
 30
0.0
 11
128.141857445193
 21
22.20955760797523
 31
0.0
  0
LINE
  5
14543
330
1453C
100
AcDbEntity
  8
GR1-1
  6
実線９
 62
     5
100
AcDbLine
 10
127.1418574451927
 20
22.62377117034811
 30
0.0
 11
128.141857445193
 21
23.62377117034856
 31
0.0
  0
LINE
  5
14544
330
1453C
100
AcDbEntity
  8
GR1-1
  6
実線９
 62
     5
100
AcDbLine
 10
127.1418574451927
 20
24.03798473272145
 30
0.0
 11
128.1418574451929
 21
25.03798473272145
 31
0.0
  0
LINE
  5
14545
330
1453C
100
AcDbEntity
  8
GR1-1
  6
実線９
 62
     5
100
AcDbLine
 10
127.1418574451927
 20
25.45219829509432
 30
0.0
 11
128.1418574451929
 21
26.45219829509432
 31
0.0
  0
LINE
  5
14546
330
1453C
100
AcDbEntity
  8
GR1-1
  6
実線９
 62
     5
100
AcDbLine
 10
160.7418574451922
 20
22.28264567339346
 30
0.0
 11
161.7418574451927
 21
23.28264567339392
 31
0.0
  0
LINE
  5
14547
330
1453C
100
AcDbEntity
  8
GR1-1
  6
実線９
 62
     5
100
AcDbLine
 10
160.7418574451922
 20
20.86843211102013
 30
0.0
 11
161.7418574451927
 21
21.86843211102058
 31
0.0
  0
ENDBLK
  5
14548
330
1453C
100
AcDbEntity
  8
0
100
AcDbBlockEnd
  0
BLOCK
  5
1454A
330
14549
100
AcDbEntity
  8
0
100
AcDbBlockBegin
  2
A$C3CBA6BEF
 70
     0
 10
0.0
 20
0.0
 30
0.0
  3
A$C3CBA6BEF
  1

  0
LINE
  5
1454B
330
14549
100
AcDbEntity
  8
センター
 48
0.6
100
AcDbLine
 10
0.0000000255959094
 20
14.99999976233107
 30
0.0
 11
54.0000000255959
 21
14.99999976233107
 31
0.0
  0
LINE
  5
1454C
330
14549
100
AcDbEntity
  8
センター
 48
0.5
100
AcDbLine
 10
39.00000002559591
 20
29.99999976233107
 30
0.0
 11
39.00000002559591
 21
-0.0000002376689281
 31
0.0
  0
LINE
  5
1454D
330
14549
100
AcDbEntity
  8
センター
 48
0.5
100
AcDbLine
 10
15.00000002559591
 20
29.99999976233107
 30
0.0
 11
15.00000002559591
 21
-0.0000002376689281
 31
0.0
  0
LINE
  5
1454E
330
14549
100
AcDbEntity
  8
センター
 48
0.5
100
AcDbLine
 10
27.00000002559591
 20
29.99999976233107
 30
0.0
 11
27.00000002559591
 21
-0.0000002376689281
 31
0.0
  0
LINE
  5
1454F
330
14549
100
AcDbEntity
  8
細線
100
AcDbLine
 10
30.10000002559593
 20
22.4999997623311
 30
0.0
 11
42.60000002559593
 21
22.49999976233103
 31
0.0
  0
LINE
  5
14550
330
14549
100
AcDbEntity
  8
細線
100
AcDbLine
 10
30.10000002559593
 20
7.499999762331071
 30
0.0
 11
42.60000002559586
 21
7.499999762331015
 31
0.0
  0
LWPOLYLINE
  5
14551
330
14549
100
AcDbEntity
  8
細線
100
AcDbPolyline
 90
        6
 70
     1
 43
0.0
 10
12.25000002559591
 20
19.76313948314549
 10
9.500000025595907
 20
14.99999976233107
 10
12.25000002559591
 20
10.23686004151665
 10
17.75000002559591
 20
10.23686004151665
 10
20.50000002559591
 20
14.99999976233107
 10
17.75000002559591
 20
19.76313948314549
  0
CIRCLE
  5
14552
330
14549
100
AcDbEntity
  8
細線
100
AcDbCircle
 10
15.00000002559591
 20
14.99999976233107
 30
0.0
 40
4.763139720814389
  0
CIRCLE
  5
14553
330
14549
100
AcDbEntity
  8
細線
100
AcDbCircle
 10
15.00000002559591
 20
14.99999976233107
 30
0.0
 40
6.5
  0
LINE
  5
14554
330
14549
100
AcDbEntity
  8
細線
100
AcDbLine
 10
27.00000002559591
 20
20.24999976233107
 30
0.0
 11
27.00000002559591
 21
9.749999762331071
 31
0.0
  0
LINE
  5
14555
330
14549
100
AcDbEntity
  8
細線
  6
HIDDEN
100
AcDbLine
 10
28.60000002559593
 20
20.24999976233107
 30
0.0
 11
28.60000002559593
 21
9.749999762331071
 31
0.0
  0
LINE
  5
14556
330
14549
100
AcDbEntity
  8
部品1
 48
0.5
100
AcDbLine
 10
29.00000002559591
 20
20.99999976233107
 30
0.0
 11
29.00000002559591
 21
8.99999976233107
 31
0.0
  0
LINE
  5
14557
330
14549
100
AcDbEntity
  8
部品1
 48
0.5
100
AcDbLine
 10
25.00000002559591
 20
20.99999976233107
 30
0.0
 11
25.00000002559591
 21
8.99999976233107
 31
0.0
  0
ARC
  5
14558
330
14549
100
AcDbEntity
  8
細線
100
AcDbCircle
 10
30.10000002559593
 20
8.99999976233107
 30
0.0
 40
1.5
100
AcDbArc
 50
180.0
 51
269.9999999999998
  0
LINE
  5
14559
330
14549
100
AcDbEntity
  8
細線
100
AcDbLine
 10
25.00000002559591
 20
9.7499997623311
 30
0.0
 11
28.60000002559593
 21
9.749999762331071
 31
0.0
  0
LINE
  5
1455A
330
14549
100
AcDbEntity
  8
部品1
 48
0.5
100
AcDbLine
 10
25.00000002559591
 20
8.9999997623311
 30
0.0
 11
29.00000002559591
 21
8.99999976233107
 31
0.0
  0
LINE
  5
1455B
330
14549
100
AcDbEntity
  8
細線
100
AcDbLine
 10
28.60000002559593
 20
9.749999762331071
 30
0.0
 11
28.60000002559593
 21
8.99999976233107
 31
0.0
  0
ARC
  5
1455C
330
14549
100
AcDbEntity
  8
細線
100
AcDbCircle
 10
30.10000002559593
 20
20.9999997623311
 30
0.0
 40
1.5
100
AcDbArc
 50
89.99999999999969
 51
180.0
  0
LINE
  5
1455D
330
14549
100
AcDbEntity
  8
部品1
 48
0.5
100
AcDbLine
 10
25.00000002559591
 20
20.9999997623311
 30
0.0
 11
29.00000002559597
 21
20.99999976233107
 31
0.0
  0
LINE
  5
1455E
330
14549
100
AcDbEntity
  8
細線
100
AcDbLine
 10
25.00000002559591
 20
20.2499997623311
 30
0.0
 11
28.60000002559593
 21
20.24999976233107
 31
0.0
  0
LINE
  5
1455F
330
14549
100
AcDbEntity
  8
細線
100
AcDbLine
 10
28.60000002559593
 20
20.9999997623311
 30
0.0
 11
28.60000002559593
 21
20.24999976233107
 31
0.0
  0
LINE
  5
14560
330
14549
100
AcDbEntity
  8
細線
100
AcDbLine
 10
46.60000002559593
 20
18.49999976233104
 30
0.0
 11
46.60000002559593
 21
11.49999976233101
 31
0.0
  0
ARC
  5
14561
330
14549
100
AcDbEntity
  8
細線
100
AcDbCircle
 10
42.60000002559593
 20
11.49999976233101
 30
0.0
 40
4.0
100
AcDbArc
 50
269.9999999999998
 51
0.0
  0
ARC
  5
14562
330
14549
100
AcDbEntity
  8
細線
100
AcDbCircle
 10
42.60000002559593
 20
18.49999976233104
 30
0.0
 40
4.0
100
AcDbArc
 50
0.0
 51
89.9999999999996
  0
ENDBLK
  5
14563
330
14549
100
AcDbEntity
  8
0
100
AcDbBlockEnd
  0
BLOCK
  5
14EE6
330
14EE5
100
AcDbEntity
  8
0
100
AcDbBlockBegin
  2
_OBLIQUE
 70
     0
 10
0.0
 20
0.0
 30
0.0
  3
_OBLIQUE
  1

  0
LINE
  5
14EE7
330
14EE5
100
AcDbEntity
  8
0
  6
ByBlock
 62
     0
100
AcDbLine
 10
-0.5
 20
-0.5
 30
0.0
 11
0.5
 21
0.5
 31
0.0
  0
ENDBLK
  5
14EE8
330
14EE5
100
AcDbEntity
  8
0
100
AcDbBlockEnd
  0
BLOCK
  5
17201
330
171F7
100
AcDbEntity
  8
0
 48
50.0
100
AcDbBlockBegin
  2
*D28
 70
     1
 10
0.0
 20
0.0
 30
0.0
  3
*D28
  1

  0
LINE
  5
17271
330
171F7
100
AcDbEntity
  8
寸法
 62
     0
 48
50.0
370
    -2
100
AcDbLine
 10
3528.904397928898
 20
4683.112805903261
 30
0.0
 11
3528.904397928898
 21
5156.55969163525
 31
0.0
  0
LINE
  5
17272
330
171F7
100
AcDbEntity
  8
寸法
 62
     0
 48
50.0
370
    -2
100
AcDbLine
 10
8048.904397928902
 20
4683.112805903258
 30
0.0
 11
8048.904397928902
 21
5156.55969163525
 31
0.0
  0
LINE
  5
17273
330
171F7
100
AcDbEntity
  8
寸法
 62
     0
 48
50.0
370
    -2
100
AcDbLine
 10
3528.904397928898
 20
5096.559691635249
 30
0.0
 11
8048.904397928902
 21
5096.559691635249
 31
0.0
  0
INSERT
  5
17274
330
171F7
100
AcDbEntity
  8
寸法
 62
     0
 48
50.0
370
    -2
100
AcDbBlockReference
  2
_DOTSMALL
 10
3528.904397928898
 20
5096.559691635249
 30
0.0
 41
100.0
 42
100.0
 43
100.0
 50
180.0
  0
INSERT
  5
17275
330
171F7
100
AcDbEntity
  8
寸法
 62
     0
 48
50.0
370
    -2
100
AcDbBlockReference
  2
_DOTSMALL
 10
8048.904397928902
 20
5096.559691635249
 30
0.0
 41
100.0
 42
100.0
 43
100.0
  0
MTEXT
  5
17276
330
171F7
100
AcDbEntity
  8
寸法
 62
     7
 48
50.0
100
AcDbMText
 10
5788.9043979289
 20
5196.571502658873
 30
0.0
 40
120.0
 41
0.0
 71
     5
 72
     1
  1
\A1;4520
  7
STYLE1
 73
     1
 44
1.0
1001
ACAD
1000
MTEXTBEGIN
1070
    73
1070
     1
1070
    44
1040
1.0
1070
    74
1070
     0
1000
MTEXTEND
  0
POINT
  5
17277
330
171F7
100
AcDbEntity
  8
DEFPOINTS
 62
     0
 48
50.0
100
AcDbPoint
 10
3528.904397928898
 20
4663.112805903263
 30
0.0
  0
POINT
  5
17278
330
171F7
100
AcDbEntity
  8
DEFPOINTS
 62
     0
 48
50.0
100
AcDbPoint
 10
8048.904397928902
 20
4663.112805903258
 30
0.0
  0
POINT
  5
17279
330
171F7
100
AcDbEntity
  8
DEFPOINTS
 62
     0
 48
50.0
100
AcDbPoint
 10
8048.904397928902
 20
5096.559691635249
 30
0.0
  0
ENDBLK
  5
17202
330
171F7
100
AcDbEntity
  8
0
 48
50.0
100
AcDbBlockEnd
  0
BLOCK
  5
1720F
330
17203
100
AcDbEntity
  8
0
 48
50.0
100
AcDbBlockBegin
  2
*D29
 70
     1
 10
0.0
 20
0.0
 30
0.0
  3
*D29
  1

  0
LINE
  5
17226
330
17203
100
AcDbEntity
  8
寸法
 62
     0
 48
50.0
370
    -2
100
AcDbLine
 10
8048.904397928902
 20
4683.112805903258
 30
0.0
 11
8048.904397928902
 21
4935.654391161499
 31
0.0
  0
LINE
  5
17227
330
17203
100
AcDbEntity
  8
寸法
 62
     0
 48
50.0
370
    -2
100
AcDbLine
 10
7998.904397928902
 20
4683.11280590326
 30
0.0
 11
7998.904397928902
 21
4935.654391161499
 31
0.0
  0
LINE
  5
17228
330
17203
100
AcDbEntity
  8
寸法
 62
     0
 48
50.0
370
    -2
100
AcDbLine
 10
7998.904397928902
 20
4875.654391161499
 30
0.0
 11
7898.904397928902
 21
4875.654391161499
 31
0.0
  0
LINE
  5
17229
330
17203
100
AcDbEntity
  8
寸法
 62
     0
 48
50.0
370
    -2
100
AcDbLine
 10
8048.904397928902
 20
4875.654391161499
 30
0.0
 11
8468.436923397625
 21
4875.654391161499
 31
0.0
  0
LINE
  5
1722A
330
17203
100
AcDbEntity
  8
寸法
 62
     0
 48
50.0
370
    -2
100
AcDbLine
 10
7998.904397928902
 20
4875.654391161499
 30
0.0
 11
8048.904397928902
 21
4875.654391161499
 31
0.0
  0
INSERT
  5
1722B
330
17203
100
AcDbEntity
  8
寸法
 62
     0
 48
50.0
370
    -2
100
AcDbBlockReference
  2
_DOTSMALL
 10
7998.904397928902
 20
4875.654391161499
 30
0.0
 41
100.0
 42
100.0
 43
100.0
  0
INSERT
  5
1722C
330
17203
100
AcDbEntity
  8
寸法
 62
     0
 48
50.0
370
    -2
100
AcDbBlockReference
  2
_DOTSMALL
 10
8048.904397928902
 20
4875.654391161499
 30
0.0
 41
100.0
 42
100.0
 43
100.0
 50
180.0
  0
MTEXT
  5
1722D
330
17203
100
AcDbEntity
  8
寸法
 62
     7
 48
50.0
100
AcDbMText
 10
8362.389679303138
 20
4975.654391161499
 30
0.0
 40
120.0
 41
0.0
 71
     5
 72
     1
  1
\A1;50
  7
STYLE1
 73
     1
 44
1.0
1001
ACAD
1000
MTEXTBEGIN
1070
    73
1070
     1
1070
    44
1040
1.0
1070
    74
1070
     0
1000
MTEXTEND
  0
POINT
  5
1722E
330
17203
100
AcDbEntity
  8
DEFPOINTS
 62
     0
 48
50.0
100
AcDbPoint
 10
8048.904397928902
 20
4663.112805903258
 30
0.0
  0
POINT
  5
1722F
330
17203
100
AcDbEntity
  8
DEFPOINTS
 62
     0
 48
50.0
100
AcDbPoint
 10
7998.904397928902
 20
4663.112805903259
 30
0.0
  0
POINT
  5
17230
330
17203
100
AcDbEntity
  8
DEFPOINTS
 62
     0
 48
50.0
100
AcDbPoint
 10
7998.904397928902
 20
4875.654391161499
 30
0.0
  0
ENDBLK
  5
17210
330
17203
100
AcDbEntity
  8
0
 48
50.0
100
AcDbBlockEnd
  0
BLOCK
  5
1721B
330
17211
100
AcDbEntity
  8
0
 48
50.0
100
AcDbBlockBegin
  2
*D30
 70
     1
 10
0.0
 20
0.0
 30
0.0
  3
*D30
  1

  0
LINE
  5
1727A
330
17211
100
AcDbEntity
  8
寸法
 62
     0
 48
50.0
370
    -2
100
AcDbLine
 10
7998.904397928902
 20
4683.11280590326
 30
0.0
 11
7998.904397928902
 21
4935.6543911615
 31
0.0
  0
LINE
  5
1727B
330
17211
100
AcDbEntity
  8
寸法
 62
     0
 48
50.0
370
    -2
100
AcDbLine
 10
3578.904397928898
 20
4683.112805903264
 30
0.0
 11
3578.904397928898
 21
4935.6543911615
 31
0.0
  0
LINE
  5
1727C
330
17211
100
AcDbEntity
  8
寸法
 62
     0
 48
50.0
370
    -2
100
AcDbLine
 10
7998.904397928902
 20
4875.6543911615
 30
0.0
 11
3578.904397928898
 21
4875.6543911615
 31
0.0
  0
INSERT
  5
1727D
330
17211
100
AcDbEntity
  8
寸法
 62
     0
 48
50.0
370
    -2
100
AcDbBlockReference
  2
_DOTSMALL
 10
7998.904397928902
 20
4875.6543911615
 30
0.0
 41
100.0
 42
100.0
 43
100.0
  0
INSERT
  5
1727E
330
17211
100
AcDbEntity
  8
寸法
 62
     0
 48
50.0
370
    -2
100
AcDbBlockReference
  2
_DOTSMALL
 10
3578.904397928898
 20
4875.6543911615
 30
0.0
 41
100.0
 42
100.0
 43
100.0
 50
180.0
  0
MTEXT
  5
1727F
330
17211
100
AcDbEntity
  8
寸法
 62
     7
 48
50.0
100
AcDbMText
 10
5788.9043979289
 20
4975.666202185122
 30
0.0
 40
120.0
 41
0.0
 71
     5
 72
     1
  1
\A1;柱外寸法4420
  7
STYLE1
 73
     1
 44
1.0
1001
ACAD
1000
MTEXTBEGIN
1070
    73
1070
     1
1070
    44
1040
1.0
1070
    74
1070
     0
1000
MTEXTEND
  0
POINT
  5
17280
330
17211
100
AcDbEntity
  8
DEFPOINTS
 62
     0
 48
50.0
100
AcDbPoint
 10
7998.904397928902
 20
4663.112805903259
 30
0.0
  0
POINT
  5
17281
330
17211
100
AcDbEntity
  8
DEFPOINTS
 62
     0
 48
50.0
100
AcDbPoint
 10
3578.904397928898
 20
4663.112805903264
 30
0.0
  0
POINT
  5
17282
330
17211
100
AcDbEntity
  8
DEFPOINTS
 62
     0
 48
50.0
100
AcDbPoint
 10
3578.904397928898
 20
4875.6543911615
 30
0.0
  0
ENDBLK
  5
1721C
330
17211
100
AcDbEntity
  8
0
 48
50.0
100
AcDbBlockEnd
  0
BLOCK
  5
17251
330
17245
100
AcDbEntity
  8
0
 48
50.0
100
AcDbBlockBegin
  2
*D31
 70
     1
 10
0.0
 20
0.0
 30
0.0
  3
*D31
  1

  0
LINE
  5
17253
330
17245
100
AcDbEntity
  8
寸法
 62
     0
 48
50.0
370
    -2
100
AcDbLine
 10
3578.904397928898
 20
4683.112805903264
 30
0.0
 11
3578.904397928898
 21
4935.654391161502
 31
0.0
  0
LINE
  5
17254
330
17245
100
AcDbEntity
  8
寸法
 62
     0
 48
50.0
370
    -2
100
AcDbLine
 10
3528.904397928898
 20
4683.112805903261
 30
0.0
 11
3528.904397928898
 21
4935.654391161502
 31
0.0
  0
LINE
  5
17255
330
17245
100
AcDbEntity
  8
寸法
 62
     0
 48
50.0
370
    -2
100
AcDbLine
 10
3578.904397928898
 20
4875.654391161502
 30
0.0
 11
3678.904397928898
 21
4875.654391161502
 31
0.0
  0
LINE
  5
17256
330
17245
100
AcDbEntity
  8
寸法
 62
     0
 48
50.0
370
    -2
100
AcDbLine
 10
3528.904397928898
 20
4875.654391161502
 30
0.0
 11
3109.371872460163
 21
4875.654391161502
 31
0.0
  0
LINE
  5
17257
330
17245
100
AcDbEntity
  8
寸法
 62
     0
 48
50.0
370
    -2
100
AcDbLine
 10
3578.904397928898
 20
4875.654391161502
 30
0.0
 11
3528.904397928898
 21
4875.654391161502
 31
0.0
  0
INSERT
  5
17258
330
17245
100
AcDbEntity
  8
寸法
 62
     0
 48
50.0
370
    -2
100
AcDbBlockReference
  2
_DOTSMALL
 10
3578.904397928898
 20
4875.654391161502
 30
0.0
 41
100.0
 42
100.0
 43
100.0
 50
180.0
  0
INSERT
  5
17259
330
17245
100
AcDbEntity
  8
寸法
 62
     0
 48
50.0
370
    -2
100
AcDbBlockReference
  2
_DOTSMALL
 10
3528.904397928898
 20
4875.654391161502
 30
0.0
 41
100.0
 42
100.0
 43
100.0
  0
MTEXT
  5
1725A
330
17245
100
AcDbEntity
  8
寸法
 62
     7
 48
50.0
100
AcDbMText
 10
3215.419116554651
 20
4975.654391161501
 30
0.0
 40
120.0
 41
0.0
 71
     5
 72
     1
  1
\A1;50
  7
STYLE1
 73
     1
 44
1.0
1001
ACAD
1000
MTEXTBEGIN
1070
    73
1070
     1
1070
    44
1040
1.0
1070
    74
1070
     0
1000
MTEXTEND
  0
POINT
  5
1725B
330
17245
100
AcDbEntity
  8
DEFPOINTS
 62
     0
 48
50.0
100
AcDbPoint
 10
3578.904397928898
 20
4663.112805903264
 30
0.0
  0
POINT
  5
1725C
330
17245
100
AcDbEntity
  8
DEFPOINTS
 62
     0
 48
50.0
100
AcDbPoint
 10
3528.904397928898
 20
4663.112805903263
 30
0.0
  0
POINT
  5
1725D
330
17245
100
AcDbEntity
  8
DEFPOINTS
 62
     0
 48
50.0
100
AcDbPoint
 10
3528.904397928898
 20
4875.654391161502
 30
0.0
  0
ENDBLK
  5
17252
330
17245
100
AcDbEntity
  8
0
 48
50.0
100
AcDbBlockEnd
  0
BLOCK
  5
1736A
330
17360
100
AcDbEntity
  8
0
 48
50.0
100
AcDbBlockBegin
  2
*D32
 70
     1
 10
0.0
 20
0.0
 30
0.0
  3
*D32
  1

  0
LINE
  5
173A0
330
17360
100
AcDbEntity
  8
寸法
 62
     0
 48
50.0
370
    -2
100
AcDbLine
 10
13375.14422886715
 20
4629.92348551491
 30
0.0
 11
13375.14422886715
 21
5122.20597524273
 31
0.0
  0
LINE
  5
173A1
330
17360
100
AcDbEntity
  8
寸法
 62
     0
 48
50.0
370
    -2
100
AcDbLine
 10
11585.14422886715
 20
4679.114424026233
 30
0.0
 11
11585.14422886715
 21
5122.20597524273
 31
0.0
  0
LINE
  5
173A2
330
17360
100
AcDbEntity
  8
寸法
 62
     0
 48
50.0
370
    -2
100
AcDbLine
 10
13375.14422886715
 20
5062.205975242728
 30
0.0
 11
11585.14422886715
 21
5062.205975242728
 31
0.0
  0
INSERT
  5
173A3
330
17360
100
AcDbEntity
  8
寸法
 62
     0
 48
50.0
370
    -2
100
AcDbBlockReference
  2
_DOTSMALL
 10
13375.14422886715
 20
5062.205975242728
 30
0.0
 41
100.0
 42
100.0
 43
100.0
  0
INSERT
  5
173A4
330
17360
100
AcDbEntity
  8
寸法
 62
     0
 48
50.0
370
    -2
100
AcDbBlockReference
  2
_DOTSMALL
 10
11585.14422886715
 20
5062.205975242728
 30
0.0
 41
100.0
 42
100.0
 43
100.0
 50
180.0
  0
MTEXT
  5
173A5
330
17360
100
AcDbEntity
  8
寸法
 62
     7
 48
50.0
100
AcDbMText
 10
12494.73987754363
 20
5162.20597524273
 30
0.0
 40
120.0
 41
0.0
 71
     5
 72
     1
  1
\A1;柱外寸法1790
  7
STYLE1
 73
     1
 44
1.0
1001
ACAD
1000
MTEXTBEGIN
1070
    73
1070
     1
1070
    44
1040
1.0
1070
    74
1070
     0
1000
MTEXTEND
  0
POINT
  5
173A6
330
17360
100
AcDbEntity
  8
DEFPOINTS
 62
     0
 48
50.0
100
AcDbPoint
 10
13375.14422886715
 20
4609.923485514911
 30
0.0
  0
POINT
  5
173A7
330
17360
100
AcDbEntity
  8
DEFPOINTS
 62
     0
 48
50.0
100
AcDbPoint
 10
11585.14422886715
 20
4659.114424026233
 30
0.0
  0
POINT
  5
173A8
330
17360
100
AcDbEntity
  8
DEFPOINTS
 62
     0
 48
50.0
100
AcDbPoint
 10
11585.14422886715
 20
5062.205975242728
 30
0.0
  0
ENDBLK
  5
1736B
330
17360
100
AcDbEntity
  8
0
 48
50.0
100
AcDbBlockEnd
  0
BLOCK
  5
17378
330
1736C
100
AcDbEntity
  8
0
 48
50.0
100
AcDbBlockBegin
  2
*D33
 70
     1
 10
0.0
 20
0.0
 30
0.0
  3
*D33
  1

  0
LINE
  5
173A9
330
1736C
100
AcDbEntity
  8
寸法
 62
     0
 48
50.0
370
    -2
100
AcDbLine
 10
11585.14422886715
 20
4679.114424026233
 30
0.0
 11
11585.14422886715
 21
5121.77025948256
 31
0.0
  0
LINE
  5
173AA
330
1736C
100
AcDbEntity
  8
寸法
 62
     0
 48
50.0
370
    -2
100
AcDbLine
 10
11525.14422886715
 20
4683.11280590326
 30
0.0
 11
11525.14422886715
 21
5121.77025948256
 31
0.0
  0
LINE
  5
173AB
330
1736C
100
AcDbEntity
  8
寸法
 62
     0
 48
50.0
370
    -2
100
AcDbLine
 10
11585.14422886715
 20
5061.77025948256
 30
0.0
 11
11685.14422886715
 21
5061.77025948256
 31
0.0
  0
LINE
  5
173AC
330
1736C
100
AcDbEntity
  8
寸法
 62
     0
 48
50.0
370
    -2
100
AcDbLine
 10
11525.14422886715
 20
5061.77025948256
 30
0.0
 11
11105.86863831596
 21
5061.77025948256
 31
0.0
  0
LINE
  5
173AD
330
1736C
100
AcDbEntity
  8
寸法
 62
     0
 48
50.0
370
    -2
100
AcDbLine
 10
11585.14422886715
 20
5061.77025948256
 30
0.0
 11
11525.14422886715
 21
5061.77025948256
 31
0.0
  0
INSERT
  5
173AE
330
1736C
100
AcDbEntity
  8
寸法
 62
     0
 48
50.0
370
    -2
100
AcDbBlockReference
  2
_DOTSMALL
 10
11585.14422886715
 20
5061.77025948256
 30
0.0
 41
100.0
 42
100.0
 43
100.0
 50
180.0
  0
INSERT
  5
173AF
330
1736C
100
AcDbEntity
  8
寸法
 62
     0
 48
50.0
370
    -2
100
AcDbBlockReference
  2
_DOTSMALL
 10
11525.14422886715
 20
5061.77025948256
 30
0.0
 41
100.0
 42
100.0
 43
100.0
  0
MTEXT
  5
173B0
330
1736C
100
AcDbEntity
  8
寸法
 62
     7
 48
50.0
100
AcDbMText
 10
11215.50643359155
 20
5161.770259482562
 30
0.0
 40
120.0
 41
0.0
 71
     5
 72
     1
  1
\A1;60
  7
STYLE1
 73
     1
 44
1.0
1001
ACAD
1000
MTEXTBEGIN
1070
    73
1070
     1
1070
    44
1040
1.0
1070
    74
1070
     0
1000
MTEXTEND
  0
POINT
  5
173B1
330
1736C
100
AcDbEntity
  8
DEFPOINTS
 62
     0
 48
50.0
100
AcDbPoint
 10
11585.14422886715
 20
4659.114424026233
 30
0.0
  0
POINT
  5
173B2
330
1736C
100
AcDbEntity
  8
DEFPOINTS
 62
     0
 48
50.0
100
AcDbPoint
 10
11525.14422886715
 20
4663.112805903261
 30
0.0
  0
POINT
  5
173B3
330
1736C
100
AcDbEntity
  8
DEFPOINTS
 62
     0
 48
50.0
100
AcDbPoint
 10
11525.14422886715
 20
5061.77025948256
 30
0.0
  0
ENDBLK
  5
17379
330
1736C
100
AcDbEntity
  8
0
 48
50.0
100
AcDbBlockEnd
  0
BLOCK
  5
17384
330
1737A
100
AcDbEntity
  8
0
 48
50.0
100
AcDbBlockBegin
  2
*D34
 70
     1
 10
0.0
 20
0.0
 30
0.0
  3
*D34
  1

  0
LINE
  5
173B4
330
1737A
100
AcDbEntity
  8
寸法
 62
     0
 48
50.0
370
    -2
100
AcDbLine
 10
13455.14422886715
 20
4628.112805903257
 30
0.0
 11
13455.14422886715
 21
5338.732074861175
 31
0.0
  0
LINE
  5
173B5
330
1737A
100
AcDbEntity
  8
寸法
 62
     0
 48
50.0
370
    -2
100
AcDbLine
 10
11525.14422886715
 20
4683.11280590326
 30
0.0
 11
11525.14422886715
 21
5338.732074861175
 31
0.0
  0
LINE
  5
173B6
330
1737A
100
AcDbEntity
  8
寸法
 62
     0
 48
50.0
370
    -2
100
AcDbLine
 10
13455.14422886715
 20
5278.732074861174
 30
0.0
 11
11525.14422886715
 21
5278.732074861174
 31
0.0
  0
INSERT
  5
173B7
330
1737A
100
AcDbEntity
  8
寸法
 62
     0
 48
50.0
370
    -2
100
AcDbBlockReference
  2
_DOTSMALL
 10
13455.14422886715
 20
5278.732074861174
 30
0.0
 41
100.0
 42
100.0
 43
100.0
  0
INSERT
  5
173B8
330
1737A
100
AcDbEntity
  8
寸法
 62
     0
 48
50.0
370
    -2
100
AcDbBlockReference
  2
_DOTSMALL
 10
11525.14422886715
 20
5278.732074861174
 30
0.0
 41
100.0
 42
100.0
 43
100.0
 50
180.0
  0
MTEXT
  5
173B9
330
1737A
100
AcDbEntity
  8
寸法
 62
     7
 48
50.0
100
AcDbMText
 10
12430.94998011811
 20
5378.732074861175
 30
0.0
 40
120.0
 41
0.0
 71
     5
 72
     1
  1
\A1;1930
  7
STYLE1
 73
     1
 44
1.0
1001
ACAD
1000
MTEXTBEGIN
1070
    73
1070
     1
1070
    44
1040
1.0
1070
    74
1070
     0
1000
MTEXTEND
  0
POINT
  5
173BA
330
1737A
100
AcDbEntity
  8
DEFPOINTS
 62
     0
 48
50.0
100
AcDbPoint
 10
13455.14422886715
 20
4608.112805903257
 30
0.0
  0
POINT
  5
173BB
330
1737A
100
AcDbEntity
  8
DEFPOINTS
 62
     0
 48
50.0
100
AcDbPoint
 10
11525.14422886715
 20
4663.112805903261
 30
0.0
  0
POINT
  5
173BC
330
1737A
100
AcDbEntity
  8
DEFPOINTS
 62
     0
 48
50.0
100
AcDbPoint
 10
11525.14422886715
 20
5278.732074861174
 30
0.0
  0
ENDBLK
  5
17385
330
1737A
100
AcDbEntity
  8
0
 48
50.0
100
AcDbBlockEnd
  0
BLOCK
  5
17391
330
17386
100
AcDbEntity
  8
0
 48
50.0
100
AcDbBlockBegin
  2
*D35
 70
     1
 10
0.0
 20
0.0
 30
0.0
  3
*D35
  1

  0
LINE
  5
173BD
330
17386
100
AcDbEntity
  8
寸法
 62
     0
 48
50.0
370
    -2
100
AcDbLine
 10
13375.14422886715
 20
4629.92348551491
 30
0.0
 11
13375.14422886715
 21
5121.77025948256
 31
0.0
  0
LINE
  5
173BE
330
17386
100
AcDbEntity
  8
寸法
 62
     0
 48
50.0
370
    -2
100
AcDbLine
 10
13455.14422886715
 20
4628.112805903257
 30
0.0
 11
13455.14422886715
 21
5121.77025948256
 31
0.0
  0
LINE
  5
173BF
330
17386
100
AcDbEntity
  8
寸法
 62
     0
 48
50.0
370
    -2
100
AcDbLine
 10
13375.14422886715
 20
5061.77025948256
 30
0.0
 11
13455.14422886715
 21
5061.77025948256
 31
0.0
  0
LINE
  5
173C0
330
17386
100
AcDbEntity
  8
寸法
 62
     0
 48
50.0
370
    -2
100
AcDbLine
 10
13455.14422886715
 20
5061.77025948256
 30
0.0
 11
13767.23871705612
 21
5061.77025948256
 31
0.0
  0
INSERT
  5
173C1
330
17386
100
AcDbEntity
  8
寸法
 62
     0
 48
50.0
370
    -2
100
AcDbBlockReference
  2
_DOTSMALL
 10
13375.14422886715
 20
5061.77025948256
 30
0.0
 41
100.0
 42
100.0
 43
100.0
 50
180.0
  0
INSERT
  5
173C2
330
17386
100
AcDbEntity
  8
寸法
 62
     0
 48
50.0
370
    -2
100
AcDbBlockReference
  2
_DOTSMALL
 10
13455.14422886715
 20
5061.77025948256
 30
0.0
 41
100.0
 42
100.0
 43
100.0
  0
MTEXT
  5
173C3
330
17386
100
AcDbEntity
  8
寸法
 62
     7
 48
50.0
100
AcDbMText
 10
13661.19147296164
 20
5161.770259482562
 30
0.0
 40
120.0
 41
0.0
 71
     5
 72
     1
  1
\A1;80
  7
STYLE1
 73
     1
 44
1.0
1001
ACAD
1000
MTEXTBEGIN
1070
    73
1070
     1
1070
    44
1040
1.0
1070
    74
1070
     0
1000
MTEXTEND
  0
POINT
  5
173C4
330
17386
100
AcDbEntity
  8
DEFPOINTS
 62
     0
 48
50.0
100
AcDbPoint
 10
13375.14422886715
 20
4609.923485514911
 30
0.0
  0
POINT
  5
173C5
330
17386
100
AcDbEntity
  8
DEFPOINTS
 62
     0
 48
50.0
100
AcDbPoint
 10
13455.14422886715
 20
4608.112805903257
 30
0.0
  0
POINT
  5
173C6
330
17386
100
AcDbEntity
  8
DEFPOINTS
 62
     0
 48
50.0
100
AcDbPoint
 10
13455.14422886715
 20
5061.77025948256
 30
0.0
  0
ENDBLK
  5
17392
330
17386
100
AcDbEntity
  8
0
 48
50.0
100
AcDbBlockEnd
  0
BLOCK
  5
1739E
330
17393
100
AcDbEntity
  8
0
 48
50.0
100
AcDbBlockBegin
  2
*D36
 70
     1
 10
0.0
 20
0.0
 30
0.0
  3
*D36
  1

  0
LINE
  5
173C7
330
17393
100
AcDbEntity
  8
寸法
 62
     0
 48
50.0
370
    -2
100
AcDbLine
 10
11524.54851515824
 20
4662.410512972916
 30
0.0
 11
10908.61407605298
 21
4680.124663247238
 31
0.0
  0
LINE
  5
173C8
330
17393
100
AcDbEntity
  8
寸法
 62
     0
 48
50.0
370
    -2
100
AcDbLine
 10
11520.49505960162
 20
4521.468789207204
 30
0.0
 11
10904.56062049636
 21
4539.182939481526
 31
0.0
  0
LINE
  5
173C9
330
17393
100
AcDbEntity
  8
寸法
 62
     0
 48
50.0
370
    -2
100
AcDbLine
 10
10964.53582209879
 20
4537.458064776578
 30
0.0
 11
10968.58927765541
 21
4678.399788542291
 31
0.0
  0
LINE
  5
173CA
330
17393
100
AcDbEntity
  8
寸法
 62
     0
 48
50.0
370
    -2
100
AcDbLine
 10
10968.58927765541
 20
4678.399788542291
 30
0.0
 11
10978.93852588509
 21
5038.250998156878
 31
0.0
  0
INSERT
  5
173CB
330
17393
100
AcDbEntity
  8
寸法
 62
     0
 48
50.0
370
    -2
100
AcDbBlockReference
  2
_DOTSMALL
 10
10964.53582209879
 20
4537.458064776578
 30
0.0
 41
100.0
 42
100.0
 43
100.0
 50
268.3526390256385
  0
INSERT
  5
173CC
330
17393
100
AcDbEntity
  8
寸法
 62
     0
 48
50.0
370
    -2
100
AcDbBlockReference
  2
_DOTSMALL
 10
10968.58927765541
 20
4678.399788542291
 30
0.0
 41
100.0
 42
100.0
 43
100.0
 50
88.35263902563854
  0
MTEXT
  5
173CD
330
17393
100
AcDbEntity
  8
寸法
 62
     7
 48
50.0
100
AcDbMText
 10
10875.24262802032
 20
4911.17951919319
 30
0.0
 40
120.0
 41
0.0
 71
     5
 72
     1
  1
\A1;141
  7
STYLE1
 11
0.0287479117491103
 21
0.999586693373849
 31
0.0
 73
     1
 44
1.0
1001
ACAD
1000
MTEXTBEGIN
1070
    73
1070
     1
1070
    44
1040
1.0
1070
    74
1070
     0
1000
MTEXTEND
  0
POINT
  5
173CE
330
17393
100
AcDbEntity
  8
DEFPOINTS
 62
     0
 48
50.0
100
AcDbPoint
 10
11544.54024902572
 20
4661.835554737935
 30
0.0
  0
POINT
  5
173CF
330
17393
100
AcDbEntity
  8
DEFPOINTS
 62
     0
 48
50.0
100
AcDbPoint
 10
11540.4867934691
 20
4520.893830972222
 30
0.0
  0
POINT
  5
173D0
330
17393
100
AcDbEntity
  8
DEFPOINTS
 62
     0
 48
50.0
100
AcDbPoint
 10
10964.53582209879
 20
4537.458064776578
 30
0.0
  0
ENDBLK
  5
1739F
330
17393
100
AcDbEntity
  8
0
 48
50.0
100
AcDbBlockEnd
  0
BLOCK
  5
173DC
330
173D2
100
AcDbEntity
  8
0
 48
50.0
100
AcDbBlockBegin
  2
*D37
 70
     1
 10
0.0
 20
0.0
 30
0.0
  3
*D37
  1

  0
LINE
  5
17608
330
173D2
100
AcDbEntity
  8
寸法
 62
     0
 48
50.0
370
    -2
100
AcDbLine
 10
11488.14422886714
 20
2288.112805903256
 30
0.0
 11
10381.39409968388
 21
2288.112805903257
 31
0.0
  0
LINE
  5
17609
330
173D2
100
AcDbEntity
  8
寸法
 62
     0
 48
50.0
370
    -2
100
AcDbLine
 10
11505.14422886715
 20
4663.112805903262
 30
0.0
 11
10381.39409968389
 21
4663.112805903262
 31
0.0
  0
LINE
  5
1760A
330
173D2
100
AcDbEntity
  8
寸法
 62
     0
 48
50.0
370
    -2
100
AcDbLine
 10
10441.39409968388
 20
2288.112805903257
 30
0.0
 11
10441.39409968389
 21
4663.112805903262
 31
0.0
  0
INSERT
  5
1760B
330
173D2
100
AcDbEntity
  8
寸法
 62
     0
 48
50.0
370
    -2
100
AcDbBlockReference
  2
_DOTSMALL
 10
10441.39409968388
 20
2288.112805903257
 30
0.0
 41
100.0
 42
100.0
 43
100.0
 50
270.0
  0
INSERT
  5
1760C
330
173D2
100
AcDbEntity
  8
寸法
 62
     0
 48
50.0
370
    -2
100
AcDbBlockReference
  2
_DOTSMALL
 10
10441.39409968389
 20
4663.112805903262
 30
0.0
 41
100.0
 42
100.0
 43
100.0
 50
90.0
  0
MTEXT
  5
1760D
330
173D2
100
AcDbEntity
  8
寸法
 62
     7
 48
50.0
100
AcDbMText
 10
10341.38228866026
 20
3475.612805903261
 30
0.0
 40
120.0
 41
0.0
 71
     5
 72
     1
  1
\A1;2375
  7
STYLE1
 11
0.0000000000000001
 21
1.0
 31
0.0
 73
     1
 44
1.0
1001
ACAD
1000
MTEXTBEGIN
1070
    73
1070
     1
1070
    44
1040
1.0
1070
    74
1070
     0
1000
MTEXTEND
  0
POINT
  5
1760E
330
173D2
100
AcDbEntity
  8
DEFPOINTS
 62
     0
 48
50.0
100
AcDbPoint
 10
11508.14422886714
 20
2288.112805903256
 30
0.0
  0
POINT
  5
1760F
330
173D2
100
AcDbEntity
  8
DEFPOINTS
 62
     0
 48
50.0
100
AcDbPoint
 10
11525.14422886715
 20
4663.112805903262
 30
0.0
  0
POINT
  5
17610
330
173D2
100
AcDbEntity
  8
DEFPOINTS
 62
     0
 48
50.0
100
AcDbPoint
 10
10441.39409968389
 20
4663.112805903262
 30
0.0
  0
ENDBLK
  5
173DD
330
173D2
100
AcDbEntity
  8
0
 48
50.0
100
AcDbBlockEnd
  0
BLOCK
  5
18793
330
18789
100
AcDbEntity
  8
0
 48
50.0
100
AcDbBlockBegin
  2
*D38
 70
     1
 10
0.0
 20
0.0
 30
0.0
  3
*D38
  1

  0
LINE
  5
18D5E
330
18789
100
AcDbEntity
  8
寸法
 62
     0
 48
50.0
370
    -2
100
AcDbLine
 10
3645.904397928899
 20
7419.507603031857
 30
0.0
 11
3645.904397928899
 21
6729.675150554648
 31
0.0
  0
LINE
  5
18D5F
330
18789
100
AcDbEntity
  8
寸法
 62
     0
 48
50.0
370
    -2
100
AcDbLine
 10
4911.904397928899
 20
7419.507603031857
 30
0.0
 11
4911.904397928899
 21
6729.675150554648
 31
0.0
  0
LINE
  5
18D60
330
18789
100
AcDbEntity
  8
寸法
 62
     0
 48
50.0
370
    -2
100
AcDbLine
 10
3665.904397928899
 20
6769.675150554649
 30
0.0
 11
4891.904397928899
 21
6769.675150554649
 31
0.0
  0
INSERT
  5
18D61
330
18789
100
AcDbEntity
  8
寸法
 62
     0
 48
50.0
370
    -2
100
AcDbBlockReference
  2
_DOT
 10
3645.904397928899
 20
6769.675150554649
 30
0.0
 41
20.0
 42
20.0
 43
20.0
 50
180.0
  0
INSERT
  5
18D62
330
18789
100
AcDbEntity
  8
寸法
 62
     0
 48
50.0
370
    -2
100
AcDbBlockReference
  2
_DOT
 10
4911.904397928899
 20
6769.675150554649
 30
0.0
 41
20.0
 42
20.0
 43
20.0
  0
MTEXT
  5
18D63
330
18789
100
AcDbEntity
  8
寸法
 62
     7
 48
50.0
100
AcDbMText
 10
4288.730834329572
 20
6961.68696157827
 30
0.0
 40
120.0
 41
0.0
 71
     5
 72
     1
  1
\A1;有効開口部間口\P1266
  7
STYLE1
 73
     1
 44
1.0
1001
ACAD
1000
MTEXTBEGIN
1070
    73
1070
     1
1070
    44
1040
1.0
1070
    74
1070
     0
1000
MTEXTEND
  0
POINT
  5
18D64
330
18789
100
AcDbEntity
  8
DEFPOINTS
 62
     0
 48
50.0
100
AcDbPoint
 10
3645.904397928899
 20
7439.507603031858
 30
0.0
  0
POINT
  5
18D65
330
18789
100
AcDbEntity
  8
DEFPOINTS
 62
     0
 48
50.0
100
AcDbPoint
 10
4911.904397928899
 20
7439.507603031858
 30
0.0
  0
POINT
  5
18D66
330
18789
100
AcDbEntity
  8
DEFPOINTS
 62
     0
 48
50.0
100
AcDbPoint
 10
4911.904397928899
 20
6769.675150554649
 30
0.0
  0
ENDBLK
  5
18794
330
18789
100
AcDbEntity
  8
0
 48
50.0
100
AcDbBlockEnd
  0
BLOCK
  5
18B09
330
18AFF
100
AcDbEntity
  8
0
 48
50.0
100
AcDbBlockBegin
  2
*D39
 70
     1
 10
0.0
 20
0.0
 30
0.0
  3
*D39
  1

  0
LINE
  5
18D55
330
18AFF
100
AcDbEntity
  8
寸法
 62
     0
 48
50.0
370
    -2
100
AcDbLine
 10
3606.904397928899
 20
7419.507603031857
 30
0.0
 11
3606.904397928899
 21
6436.764570084168
 31
0.0
  0
LINE
  5
18D56
330
18AFF
100
AcDbEntity
  8
寸法
 62
     0
 48
50.0
370
    -2
100
AcDbLine
 10
5760.904397928899
 20
7419.507603031857
 30
0.0
 11
5760.904397928899
 21
6436.764570084168
 31
0.0
  0
LINE
  5
18D57
330
18AFF
100
AcDbEntity
  8
寸法
 62
     0
 48
50.0
370
    -2
100
AcDbLine
 10
3606.904397928899
 20
6496.764570084167
 30
0.0
 11
5760.904397928899
 21
6496.764570084167
 31
0.0
  0
INSERT
  5
18D58
330
18AFF
100
AcDbEntity
  8
寸法
 62
     0
 48
50.0
370
    -2
100
AcDbBlockReference
  2
_DOTSMALL
 10
3606.904397928899
 20
6496.764570084167
 30
0.0
 41
100.0
 42
100.0
 43
100.0
 50
180.0
  0
INSERT
  5
18D59
330
18AFF
100
AcDbEntity
  8
寸法
 62
     0
 48
50.0
370
    -2
100
AcDbBlockReference
  2
_DOTSMALL
 10
5760.904397928899
 20
6496.764570084167
 30
0.0
 41
100.0
 42
100.0
 43
100.0
  0
MTEXT
  5
18D5A
330
18AFF
100
AcDbEntity
  8
寸法
 62
     7
 48
50.0
100
AcDbMText
 10
4689.961971101396
 20
6596.77638110779
 30
0.0
 40
120.0
 41
0.0
 71
     5
 72
     1
  1
\A1;2154
  7
STYLE1
 73
     1
 44
1.0
1001
ACAD
1000
MTEXTBEGIN
1070
    73
1070
     1
1070
    44
1040
1.0
1070
    74
1070
     0
1000
MTEXTEND
  0
POINT
  5
18D5B
330
18AFF
100
AcDbEntity
  8
DEFPOINTS
 62
     0
 48
50.0
100
AcDbPoint
 10
3606.904397928899
 20
7439.507603031858
 30
0.0
  0
POINT
  5
18D5C
330
18AFF
100
AcDbEntity
  8
DEFPOINTS
 62
     0
 48
50.0
100
AcDbPoint
 10
5760.904397928899
 20
7439.507603031858
 30
0.0
  0
POINT
  5
18D5D
330
18AFF
100
AcDbEntity
  8
DEFPOINTS
 62
     0
 48
50.0
100
AcDbPoint
 10
5760.904397928899
 20
6496.764570084167
 30
0.0
  0
ENDBLK
  5
18B0A
330
18AFF
100
AcDbEntity
  8
0
 48
50.0
100
AcDbBlockEnd
  0
BLOCK
  5
18B17
330
18B0B
100
AcDbEntity
  8
0
 48
50.0
100
AcDbBlockBegin
  2
*D40
 70
     1
 10
0.0
 20
0.0
 30
0.0
  3
*D40
  1

  0
LINE
  5
18D4A
330
18B0B
100
AcDbEntity
  8
寸法
 62
     0
 48
50.0
370
    -2
100
AcDbLine
 10
3558.904397928898
 20
7516.507603031858
 30
0.0
 11
3280.153023599286
 21
7516.507603031858
 31
0.0
  0
LINE
  5
18D4B
330
18B0B
100
AcDbEntity
  8
寸法
 62
     0
 48
50.0
370
    -2
100
AcDbLine
 10
3586.904397928899
 20
7441.507603031827
 30
0.0
 11
3280.153023599286
 21
7441.507603031827
 31
0.0
  0
LINE
  5
18D4C
330
18B0B
100
AcDbEntity
  8
寸法
 62
     0
 48
50.0
370
    -2
100
AcDbLine
 10
3320.153023599285
 20
7536.507603031862
 30
0.0
 11
3320.153023599285
 21
7556.507603031859
 31
0.0
  0
LINE
  5
18D4D
330
18B0B
100
AcDbEntity
  8
寸法
 62
     0
 48
50.0
370
    -2
100
AcDbLine
 10
3320.153023599285
 20
7421.507603031828
 30
0.0
 11
3320.153023599285
 21
7183.771091249401
 31
0.0
  0
LINE
  5
18D4E
330
18B0B
100
AcDbEntity
  8
寸法
 62
     0
 48
50.0
370
    -2
100
AcDbLine
 10
3320.153023599285
 20
7516.507603031858
 30
0.0
 11
3320.153023599285
 21
7441.507603031827
 31
0.0
  0
INSERT
  5
18D4F
330
18B0B
100
AcDbEntity
  8
寸法
 62
     0
 48
50.0
370
    -2
100
AcDbBlockReference
  2
_DOT
 10
3320.153023599285
 20
7516.507603031858
 30
0.0
 41
20.0
 42
20.0
 43
20.0
 50
270.0
  0
INSERT
  5
18D50
330
18B0B
100
AcDbEntity
  8
寸法
 62
     0
 48
50.0
370
    -2
100
AcDbBlockReference
  2
_DOT
 10
3320.153023599285
 20
7441.507603031827
 30
0.0
 41
20.0
 42
20.0
 43
20.0
 50
90.0
  0
MTEXT
  5
18D51
330
18B0B
100
AcDbEntity
  8
寸法
 62
     7
 48
50.0
100
AcDbMText
 10
3228.153023599283
 20
7284.256372623642
 30
0.0
 40
120.0
 41
0.0
 71
     5
 72
     1
  1
\A1;75
  7
STYLE1
 11
0.0000000000000001
 21
1.0
 31
0.0
 73
     1
 44
1.0
1001
ACAD
1000
MTEXTBEGIN
1070
    73
1070
     1
1070
    44
1040
1.0
1070
    74
1070
     0
1000
MTEXTEND
  0
POINT
  5
18D52
330
18B0B
100
AcDbEntity
  8
DEFPOINTS
 62
     0
 48
50.0
100
AcDbPoint
 10
3578.904397928898
 20
7516.507603031858
 30
0.0
  0
POINT
  5
18D53
330
18B0B
100
AcDbEntity
  8
DEFPOINTS
 62
     0
 48
50.0
100
AcDbPoint
 10
3606.904397928899
 20
7441.507603031827
 30
0.0
  0
POINT
  5
18D54
330
18B0B
100
AcDbEntity
  8
DEFPOINTS
 62
     0
 48
50.0
100
AcDbPoint
 10
3320.153023599285
 20
7441.507603031827
 30
0.0
  0
ENDBLK
  5
18B18
330
18B0B
100
AcDbEntity
  8
0
 48
50.0
100
AcDbBlockEnd
  0
ENDSEC
  0
SECTION
  2
ENTITIES
  0
MTEXT
  5
763F
330
747D
100
AcDbEntity
  8
0
100
AcDbMText
 10
302.846345836809
 20
280.1983726409901
 30
0.0
 40
3.5
 41
5.323721266742722
 71
     1
 72
     5
  1

  7
MSMINCHO
 73
     1
 44
1.0
1001
ACAD
1000
MTEXTBEGIN
1070
    73
1070
     1
1070
    44
1040
1.0
1070
    74
1070
     0
1000
MTEXTEND
  0
LINE
  5
10B56
330
747D
100
AcDbEntity
  8
補助
  6
PHANTOM
 62
   230
 48
50.0
100
AcDbLine
 10
140.0
 20
0.0
 30
0.0
 11
139.9999999999995
 21
11409.6
 31
0.0
  0
LINE
  5
10B57
330
747D
100
AcDbEntity
  8
補助
  6
PHANTOM
 62
   230
 48
50.0
100
AcDbLine
 10
139.9999999999995
 20
11409.6
 30
0.0
 11
16307.2
 21
11409.6
 31
0.0
  0
LINE
  5
10B59
330
747D
100
AcDbEntity
  8
仕様書枠
  6
Continuous
 48
50.0
100
AcDbLine
 10
13107.2
 20
1200.0
 30
0.0
 11
13107.2
 21
-0.0000000000000729
 31
0.0
  0
LINE
  5
10B5C
330
747D
100
AcDbEntity
  8
仕様書枠
 48
50.0
100
AcDbLine
 10
16307.2
 20
1200.0
 30
0.0
 11
16307.2
 21
-0.0000000000000909
 31
0.0
  0
LINE
  5
10B5D
330
747D
100
AcDbEntity
  8
仕様書枠
 48
50.0
100
AcDbLine
 10
140.0
 20
0.0
 30
0.0
 11
16307.2
 21
-0.0000000000000909
 31
0.0
  0
LINE
  5
10B5E
330
747D
100
AcDbEntity
  8
補助
  6
PHANTOM
 62
   230
 48
50.0
100
AcDbLine
 10
16307.2
 20
11409.6
 30
0.0
 11
16307.2
 21
1200.0
 31
0.0
  0
LINE
  5
10B6C
330
747D
100
AcDbEntity
  8
仕様書枠
 48
50.0
100
AcDbLine
 10
13107.2
 20
1200.0
 30
0.0
 11
16307.2
 21
1200.0
 31
0.0
  0
LINE
  5
10B6D
330
747D
100
AcDbEntity
  8
補助
  6
PHANTOM
 62
   230
 48
50.0
100
AcDbLine
 10
13107.2
 20
11409.6
 30
0.0
 11
13107.2
 21
4800.0
 31
0.0
  0
LINE
  5
10B6F
330
747D
100
AcDbEntity
  8
補助
  6
PHANTOM
 62
   230
 48
50.0
100
AcDbLine
 10
13107.2
 20
4800.0
 30
0.0
 11
16307.2
 21
4800.0
 31
0.0
  0
LINE
  5
10B72
330
747D
100
AcDbEntity
  8
文字
 62
     7
 48
50.0
100
AcDbLine
 10
13187.2
 20
400.0
 30
0.0
 11
16227.2
 21
400.0
 31
0.0
  0
TEXT
  5
10B73
330
747D
100
AcDbEntity
  8
文字
 62
     7
 48
50.0
100
AcDbText
 10
13162.9790565769
 20
895.0906074299405
 30
0.0
 40
200.0
  1
外 形 図
  7
STYLE2
100
AcDbText
  0
TEXT
  5
10B74
330
747D
100
AcDbEntity
  8
文字
 62
     7
 48
50.0
100
AcDbText
 10
13201.43669998441
 20
477.2740661031255
 30
0.0
 40
160.0
  1
機種名
  7
STYLE2
100
AcDbText
  0
TEXT
  5
10B75
330
747D
100
AcDbEntity
  8
文字
 62
     7
 48
50.0
100
AcDbText
 10
13209.4053442172
 20
228.5435242569016
 30
0.0
 40
100.0
  1
○有効開口寸法 ： 1266×2025(mm)
  7
STYLE2
100
AcDbText
  0
TEXT
  5
10B76
330
747D
100
AcDbEntity
  8
文字
 62
     7
 48
50.0
100
AcDbText
 10
13209.4053442172
 20
76.09434707649343
 30
0.0
 40
100.0
  1
○床面積 ： 8.07㎡(2.45坪) 　
  7
STYLE2
100
AcDbText
  0
TEXT
  5
10B79
330
747D
100
AcDbEntity
  8
文字
 62
     7
 48
50.0
100
AcDbText
 10
14524.131837222
 20
1031.557706291228
 30
0.0
 40
100.0
  1
NO.08     <縮尺> S=1/40
  7
STYLE2
100
AcDbText
  0
LINE
  5
10B7B
330
747D
100
AcDbEntity
  8
仕様書枠
 48
50.0
100
AcDbLine
 10
13107.2
 20
800.0
 30
0.0
 11
14251.2
 21
800.0
 31
0.0
  0
LINE
  5
10B88
330
747D
100
AcDbEntity
  8
仕様書枠
  6
Continuous
 48
50.0
100
AcDbLine
 10
14251.2
 20
1200.0
 30
0.0
 11
14251.2
 21
800.0
 31
0.0
  0
TEXT
  5
10EA8
330
747D
100
AcDbEntity
  8
文字
 62
     7
 48
50.0
100
AcDbText
 10
14598.52153016864
 20
838.2527270729186
 30
0.0
 40
100.0
  1
～一般型・多雪地型～
  7
STYLE2
100
AcDbText
  0
DIMENSION
  5
120D6
330
747D
100
AcDbEntity
  8
寸法
 48
50.0
100
AcDbDimension
  2
*D3
 10
7998.904397928898
 20
9581.220013050655
 30
0.0
 11
8393.071064595565
 21
9581.220013050655
 31
0.0
 70
   160
 71
     5
 42
55.0
  3
INABA_S40
100
AcDbAlignedDimension
 13
7943.904397928898
 23
9306.507603031862
 33
0.0
 14
7998.904397928898
 24
9306.507603031858
 34
0.0
100
AcDbRotatedDimension
1001
ACAD
1000
DSTYLE
1002
{
1070
    41
1040
0.5
1070
    44
1040
1.0
1070
   147
1040
0.8
1070
   271
1070
     2
1070
   272
1070
     2
1070
   289
1070
     3
1070
   340
1005
F706
1070
   343
1005
F744
1070
   344
1005
F744
1002
}
  0
DIMENSION
  5
120D7
330
747D
100
AcDbEntity
  8
寸法
 48
50.0
100
AcDbDimension
  2
*D4
 10
9069.651514973251
 20
7516.507603031858
 30
0.0
 11
8977.651514973251
 21
8411.507603031862
 31
0.0
 70
    32
 71
     5
 42
1790.0
  3
INABA_S40
100
AcDbAlignedDimension
 13
7998.904397928898
 23
9306.507603031858
 33
0.0
 14
7998.904397928898
 24
7516.507603031858
 34
0.0
 50
90.0
100
AcDbRotatedDimension
1001
ACAD
1000
DSTYLE
1002
{
1070
    41
1040
0.5
1070
    44
1040
1.0
1070
   147
1040
0.8
1070
   271
1070
     2
1070
   272
1070
     2
1070
   289
1070
     3
1070
   340
1005
F706
1070
   343
1005
F744
1070
   344
1005
F744
1002
}
  0
DIMENSION
  5
120D8
330
747D
100
AcDbEntity
  8
寸法
 48
50.0
100
AcDbDimension
  2
*D5
 10
8769.651514973253
 20
7516.507603031858
 30
0.0
 11
8769.651514973253
 21
7122.340936365195
 31
0.0
 70
   160
 71
     5
 42
54.99999999999635
  3
INABA_S40
100
AcDbAlignedDimension
 13
7998.904397928898
 23
7571.507603031855
 33
0.0
 14
7998.904397928898
 24
7516.507603031858
 34
0.0
 50
90.0
100
AcDbRotatedDimension
1001
ACAD
1000
DSTYLE
1002
{
1070
    41
1040
0.5
1070
    44
1040
1.0
1070
   147
1040
0.8
1070
   271
1070
     2
1070
   272
1070
     2
1070
   289
1070
     3
1070
   340
1005
F706
1070
   343
1005
F744
1070
   344
1005
F744
1002
}
  0
DIMENSION
  5
120D9
330
747D
100
AcDbEntity
  8
寸法
 48
50.0
100
AcDbDimension
  2
*D6
 10
8769.651514973253
 20
7571.507603031855
 30
0.0
 11
8677.639703949628
 21
8411.507603031862
 31
0.0
 70
    32
  1
4X420=<>
 71
     5
 42
1680.000000000007
  3
INABA_S40
100
AcDbAlignedDimension
 13
7998.904397928898
 23
9251.507603031864
 33
0.0
 14
7998.904397928898
 24
7571.507603031855
 34
0.0
 50
90.0
100
AcDbRotatedDimension
1001
ACAD
1000
DSTYLE
1002
{
1070
    41
1040
0.5
1070
    44
1040
1.0
1070
   147
1040
0.8
1070
   271
1070
     2
1070
   272
1070
     2
1070
   289
1070
     3
1070
   340
1005
F706
1070
   343
1005
F744
1070
   344
1005
F744
1002
}
  0
DIMENSION
  5
120DA
330
747D
100
AcDbEntity
  8
寸法
 48
50.0
100
AcDbDimension
  2
*D7
 10
8769.651514973253
 20
9251.507603031864
 30
0.0
 11
8769.651514973253
 21
9700.674269698524
 31
0.0
 70
   160
 71
     5
 42
54.99999999999635
  3
INABA_S40
100
AcDbAlignedDimension
 13
7998.904397928898
 23
9306.507603031858
 33
0.0
 14
7998.904397928898
 24
9251.507603031864
 34
0.0
 50
90.0
100
AcDbRotatedDimension
1001
ACAD
1000
DSTYLE
1002
{
1070
    41
1040
0.5
1070
    44
1040
1.0
1070
   147
1040
0.8
1070
   271
1070
     2
1070
   272
1070
     2
1070
   289
1070
     3
1070
   340
1005
F706
1070
   343
1005
F744
1070
   344
1005
F744
1002
}
  0
LINE
  5
120DB
330
747D
100
AcDbEntity
  8
Ｇ．Ｌ
 48
50.0
100
AcDbLine
 10
2315.037010702756
 20
2188.112805903256
 30
0.0
 11
14458.19928755098
 21
2188.112805903256
 31
0.0
  0
LINE
  5
120ED
330
747D
100
AcDbEntity
  8
部品1
100
AcDbLine
 10
3603.9043979289
 20
4428.112805903256
 30
0.0
 11
5763.904397928898
 21
4428.112805903256
 31
0.0
  0
LINE
  5
120F0
330
747D
100
AcDbEntity
  8
部品1
100
AcDbLine
 10
3578.904397928898
 20
4428.112805903256
 30
0.0
 11
7998.904397928898
 21
4428.112805903256
 31
0.0
  0
LINE
  5
120F1
330
747D
100
AcDbEntity
  8
部品1
100
AcDbLine
 10
3578.904397928898
 20
2288.112805903256
 30
0.0
 11
5763.9043979289
 21
2288.112805903256
 31
0.0
  0
LINE
  5
12102
330
747D
100
AcDbEntity
  8
部品1
100
AcDbLine
 10
3578.904397928898
 20
4522.112805903261
 30
0.0
 11
3578.904397928898
 21
2188.112805903256
 31
0.0
  0
TEXT
  5
12103
330
747D
100
AcDbEntity
  8
部品1
100
AcDbText
 10
2745.973702581164
 20
2202.954510774246
 30
0.0
 40
125.0
  1
G.L
  7
MSGOTHIC
100
AcDbText
  0
LINE
  5
12104
330
747D
100
AcDbEntity
  8
部品1
100
AcDbLine
 10
2603.489748881344
 20
2292.035854357388
 30
0.0
 11
2723.489748881344
 21
2292.035854357388
 31
0.0
  0
LINE
  5
12105
330
747D
100
AcDbEntity
  8
部品1
100
AcDbLine
 10
2723.489748881344
 20
2292.035854357388
 30
0.0
 11
2663.489748881344
 21
2188.112805903256
 31
0.0
  0
LINE
  5
12106
330
747D
100
AcDbEntity
  8
部品1
100
AcDbLine
 10
2663.489748881344
 20
2188.112805903256
 30
0.0
 11
2603.489748881344
 21
2292.035854357388
 31
0.0
  0
LINE
  5
12107
330
747D
100
AcDbEntity
  8
部品1
 48
50.0
100
AcDbLine
 10
3606.904397928899
 20
2338.112805903255
 30
0.0
 11
3578.904397928898
 21
2338.112805903256
 31
0.0
  0
LINE
  5
12108
330
747D
100
AcDbEntity
  8
破線
 48
5.0
100
AcDbLine
 10
3573.904397928898
 20
2188.112805903257
 30
0.0
 11
3573.904397928898
 21
2033.112805903256
 31
0.0
  0
LINE
  5
12109
330
747D
100
AcDbEntity
  8
破線
 48
5.0
100
AcDbLine
 10
3478.904397928899
 20
2188.112805903256
 30
0.0
 11
3478.904397928899
 21
1988.112805903255
 31
0.0
  0
LINE
  5
1210A
330
747D
100
AcDbEntity
  8
破線
 48
5.0
100
AcDbLine
 10
3678.904397928898
 20
2188.112805903256
 30
0.0
 11
3678.904397928898
 21
1988.112805903256
 31
0.0
  0
LINE
  5
1210B
330
747D
100
AcDbEntity
  8
破線
 48
5.0
100
AcDbLine
 10
3478.904397928899
 20
1988.112805903255
 30
0.0
 11
3678.9043979289
 21
1988.112805903256
 31
0.0
  0
LINE
  5
1210C
330
747D
100
AcDbEntity
  8
破線
 48
5.0
100
AcDbLine
 10
3553.904397928898
 20
2033.112805903256
 30
0.0
 11
3573.9043979289
 21
2033.112805903256
 31
0.0
  0
LINE
  5
1210D
330
747D
100
AcDbEntity
  8
部品1
100
AcDbLine
 10
3573.904397928898
 20
2333.112805903257
 30
0.0
 11
3573.904397928898
 21
2188.112805903257
 31
0.0
  0
DIMENSION
  5
12121
330
747D
100
AcDbEntity
  8
寸法
 48
50.0
100
AcDbDimension
  2
*D8
 10
7898.904397928896
 20
1652.922421664043
 30
0.0
 11
7998.904397928898
 21
1652.922421664043
 31
0.0
 12
-600.7911174196268
 22
0.0
 32
0.0
 70
   160
 71
     5
 42
-1.0
  3
INABA_S40
100
AcDbAlignedDimension
 13
8098.904397928896
 23
1988.112805903255
 33
0.0
 14
7898.904397928896
 24
1988.112805903255
 34
0.0
100
AcDbRotatedDimension
1001
ACAD
1000
DSTYLE
1002
{
1070
    41
1040
0.5
1070
    44
1040
1.0
1070
   147
1040
0.8
1070
   271
1070
     2
1070
   272
1070
     2
1070
   289
1070
     3
1070
   340
1005
F706
1070
   343
1005
F744
1070
   344
1005
F744
1002
}
  0
LINE
  5
12124
330
747D
100
AcDbEntity
  8
部品1
100
AcDbLine
 10
5813.904397928898
 20
2288.112805903256
 30
0.0
 11
7998.904397928898
 21
2288.112805903256
 31
0.0
  0
LINE
  5
12125
330
747D
100
AcDbEntity
  8
部品1
 48
50.0
100
AcDbLine
 10
5788.904397928899
 20
2338.112805903256
 30
0.0
 11
7998.904397928898
 21
2338.112805903256
 31
0.0
  0
LINE
  5
12130
330
747D
100
AcDbEntity
  8
部品1
100
AcDbLine
 10
5843.904397928898
 20
4428.112805903256
 30
0.0
 11
5843.904397928898
 21
2338.112805903256
 31
0.0
  0
LINE
  5
12131
330
747D
100
AcDbEntity
  8
部品1
100
AcDbLine
 10
6263.904397928898
 20
4428.112805903256
 30
0.0
 11
6263.904397928897
 21
2338.112805903256
 31
0.0
  0
LINE
  5
12161
330
747D
100
AcDbEntity
  8
部品1
 48
50.0
100
AcDbLine
 10
5788.904397928899
 20
2338.112805903256
 30
0.0
 11
5760.9043979289
 21
2338.112805903256
 31
0.0
  0
LINE
  5
12163
330
747D
100
AcDbEntity
  8
部品1
 48
50.0
100
AcDbLine
 10
5588.904397928899
 20
2288.112805903256
 30
0.0
 11
5588.904397928899
 21
2188.112805903256
 31
0.0
  0
LINE
  5
12164
330
747D
100
AcDbEntity
  8
破線
  6
HIDDEN
 48
5.0
100
AcDbLine
 10
5813.904397928898
 20
2188.112805903256
 30
0.0
 11
5813.904397928898
 21
2048.112805903256
 31
0.0
  0
LINE
  5
12165
330
747D
100
AcDbEntity
  8
破線
  6
HIDDEN
 48
5.0
100
AcDbLine
 10
5763.904397928898
 20
2188.112805903256
 30
0.0
 11
5763.904397928898
 21
2048.112805903256
 31
0.0
  0
LINE
  5
12166
330
747D
100
AcDbEntity
  8
破線
  6
HIDDEN
 48
5.0
100
AcDbLine
 10
5888.904397928898
 20
2188.112805903256
 30
0.0
 11
5888.904397928898
 21
1988.112805903256
 31
0.0
  0
LINE
  5
12167
330
747D
100
AcDbEntity
  8
破線
  6
HIDDEN
 48
5.0
100
AcDbLine
 10
5688.904397928898
 20
2188.112805903256
 30
0.0
 11
5688.904397928898
 21
1988.112805903255
 31
0.0
  0
LINE
  5
12168
330
747D
100
AcDbEntity
  8
破線
  6
HIDDEN
 48
5.0
100
AcDbLine
 10
5813.904397928898
 20
2048.112805903256
 30
0.0
 11
5763.904397928898
 21
2048.112805903256
 31
0.0
  0
LINE
  5
12169
330
747D
100
AcDbEntity
  8
破線
  6
HIDDEN
 48
5.0
100
AcDbLine
 10
5688.904397928898
 20
1988.112805903255
 30
0.0
 11
5888.9043979289
 21
1988.112805903256
 31
0.0
  0
ARC
  5
1216A
330
747D
100
AcDbEntity
  8
部品1
 48
50.0
100
AcDbCircle
 10
5808.904397928898
 20
2328.112805903256
 30
0.0
 40
5.0
100
AcDbArc
 50
0.0
 51
89.99999999999957
  0
ARC
  5
1216B
330
747D
100
AcDbEntity
  8
部品1
 48
50.0
100
AcDbCircle
 10
5768.904397928899
 20
2328.112805903256
 30
0.0
 40
5.0
100
AcDbArc
 50
89.9999999999996
 51
180.0
  0
LINE
  5
1216C
330
747D
100
AcDbEntity
  8
部品1
 48
50.0
100
AcDbLine
 10
5808.904397928898
 20
2333.112805903255
 30
0.0
 11
5768.904397928899
 21
2333.112805903256
 31
0.0
  0
LINE
  5
1216D
330
747D
100
AcDbEntity
  8
部品1
 48
50.0
100
AcDbLine
 10
5763.904397928899
 20
2328.112805903256
 30
0.0
 11
5763.904397928898
 21
2188.112805903256
 31
0.0
  0
LINE
  5
1216E
330
747D
100
AcDbEntity
  8
部品1
100
AcDbLine
 10
5788.904397928899
 20
2338.112805903256
 30
0.0
 11
5788.904397928896
 21
2333.112805903256
 31
0.0
  0
LINE
  5
1216F
330
747D
100
AcDbEntity
  8
部品1
 48
50.0
100
AcDbLine
 10
5813.904397928898
 20
2328.112805903256
 30
0.0
 11
5813.904397928898
 21
2188.112805903256
 31
0.0
  0
LINE
  5
12170
330
747D
100
AcDbEntity
  8
部品1
 48
50.0
100
AcDbLine
 10
5988.904397928898
 20
2288.112805903256
 30
0.0
 11
5988.904397928898
 21
2188.112805903256
 31
0.0
  0
LINE
  5
12184
330
747D
100
AcDbEntity
  8
部品1
100
AcDbLine
 10
5788.904397928899
 20
4428.112805903256
 30
0.0
 11
5788.904397928899
 21
4522.112805903261
 31
0.0
  0
LINE
  5
12192
330
747D
100
AcDbEntity
  8
部品1
100
AcDbLine
 10
7103.904397928911
 20
4428.112805903256
 30
0.0
 11
7103.904397928909
 21
2338.112805903256
 31
0.0
  0
LINE
  5
121A0
330
747D
100
AcDbEntity
  8
部品1
100
AcDbLine
 10
7103.904397928896
 20
4428.112805903256
 30
0.0
 11
7103.904397928896
 21
2338.112805903256
 31
0.0
  0
LINE
  5
121A7
330
747D
100
AcDbEntity
  8
部品1
100
AcDbLine
 10
6683.904397928898
 20
4428.112805903256
 30
0.0
 11
6683.904397928896
 21
2338.112805903256
 31
0.0
  0
LINE
  5
121B4
330
747D
100
AcDbEntity
  8
部品1
100
AcDbLine
 10
7523.904397928898
 20
4428.112805903257
 30
0.0
 11
7523.904397928885
 21
2338.112805903256
 31
0.0
  0
LINE
  5
121B5
330
747D
100
AcDbEntity
  8
部品1
100
AcDbLine
 10
7943.904397928898
 20
4428.112805903256
 30
0.0
 11
7943.904397928896
 21
2338.112805903256
 31
0.0
  0
LINE
  5
121B6
330
747D
100
AcDbEntity
  8
部品1
100
AcDbLine
 10
7998.904397928898
 20
4522.112805903261
 30
0.0
 11
7998.904397928898
 21
2188.112805903256
 31
0.0
  0
LINE
  5
121BD
330
747D
100
AcDbEntity
  8
破線
  6
HIDDEN
 48
5.0
100
AcDbLine
 10
8098.904397928896
 20
1988.112805903255
 30
0.0
 11
7898.904397928896
 21
1988.112805903256
 31
0.0
  0
LINE
  5
121BE
330
747D
100
AcDbEntity
  8
破線
  6
HIDDEN
 48
5.0
100
AcDbLine
 10
7898.904397928898
 20
2188.112805903256
 30
0.0
 11
7898.904397928898
 21
1988.112805903256
 31
0.0
  0
LINE
  5
121BF
330
747D
100
AcDbEntity
  8
部品1
100
AcDbLine
 10
7598.904397928897
 20
2288.112805903256
 30
0.0
 11
7598.904397928897
 21
2188.112805903256
 31
0.0
  0
LINE
  5
121C0
330
747D
100
AcDbEntity
  8
破線
 48
5.0
100
AcDbLine
 10
8003.904397928897
 20
2188.112805903257
 30
0.0
 11
8003.904397928897
 21
2033.112805903256
 31
0.0
  0
LINE
  5
121C1
330
747D
100
AcDbEntity
  8
破線
  6
HIDDEN
 48
5.0
100
AcDbLine
 10
8098.904397928896
 20
2188.112805903256
 30
0.0
 11
8098.904397928896
 21
1988.112805903255
 31
0.0
  0
LINE
  5
121C2
330
747D
100
AcDbEntity
  8
破線
 48
5.0
100
AcDbLine
 10
8023.904397928898
 20
2033.112805903256
 30
0.0
 11
8003.904397928897
 21
2033.112805903256
 31
0.0
  0
LINE
  5
121C3
330
747D
100
AcDbEntity
  8
部品1
100
AcDbLine
 10
8003.904397928897
 20
2333.112805903257
 30
0.0
 11
8003.904397928897
 21
2188.112805903257
 31
0.0
  0
LINE
  5
121F1
330
747D
100
AcDbEntity
  8
部品1
100
AcDbLine
 10
3633.904397928894
 20
9251.507603031859
 30
0.0
 11
5733.904397928898
 21
9251.507603031866
 31
0.0
  0
LINE
  5
121F2
330
747D
100
AcDbEntity
  8
部品1
100
AcDbLine
 10
4053.904397928898
 20
9278.507603031867
 30
0.0
 11
3606.904397928899
 21
9278.507603031862
 31
0.0
  0
LINE
  5
121F3
330
747D
100
AcDbEntity
  8
部品1
100
AcDbLine
 10
5733.904397928896
 20
7991.507603031862
 30
0.0
 11
3633.9043979289
 21
7991.507603031857
 31
0.0
  0
LINE
  5
121F4
330
747D
100
AcDbEntity
  8
部品1
100
AcDbLine
 10
5733.904397928896
 20
8411.507603031862
 30
0.0
 11
3633.9043979289
 21
8411.507603031855
 31
0.0
  0
LINE
  5
121F5
330
747D
100
AcDbEntity
  8
部品1
100
AcDbLine
 10
5733.904397928896
 20
8831.507603031862
 30
0.0
 11
3633.9043979289
 21
8831.507603031857
 31
0.0
  0
LINE
  5
121F8
330
747D
100
AcDbEntity
  8
部品1
100
AcDbLine
 10
5788.904397928899
 20
9306.507603031858
 30
0.0
 11
3578.904397928898
 21
9306.507603031858
 31
0.0
  0
LINE
  5
121F9
330
747D
100
AcDbEntity
  8
部品1
100
AcDbLine
 10
3633.904397928894
 20
7571.507603031861
 30
0.0
 11
5733.904397928898
 21
7571.507603031855
 31
0.0
  0
LINE
  5
121FA
330
747D
100
AcDbEntity
  8
部品1
100
AcDbLine
 10
3606.904397928897
 20
7544.507603031859
 30
0.0
 11
5760.904397928898
 21
7544.507603031862
 31
0.0
  0
DIMENSION
  5
121FB
330
747D
100
AcDbEntity
  8
寸法
 48
50.0
100
AcDbDimension
  2
*D9
 10
7998.904397928898
 20
9881.220013050658
 30
0.0
 11
5788.904397928899
 21
9973.231824074282
 31
0.0
 70
    32
 71
     5
 42
4420.0
  3
INABA_S40
100
AcDbAlignedDimension
 13
3578.904397928898
 23
9306.507603031858
 33
0.0
 14
7998.904397928898
 24
9306.507603031858
 34
0.0
100
AcDbRotatedDimension
1001
ACAD
1000
DSTYLE
1002
{
1070
    41
1040
0.5
1070
    44
1040
1.0
1070
   147
1040
0.8
1070
   271
1070
     2
1070
   272
1070
     2
1070
   289
1070
     3
1070
   340
1005
F706
1070
   343
1005
F744
1070
   344
1005
F744
1002
}
  0
DIMENSION
  5
121FC
330
747D
100
AcDbEntity
  8
寸法
 48
50.0
100
AcDbDimension
  2
*D10
 10
5733.904397928898
 20
9581.220013050655
 30
0.0
 11
4683.904397928897
 21
9673.231824074278
 31
0.0
 70
    32
  1
5X420=<>
 71
     5
 42
2100.0
  3
INABA_S40
100
AcDbAlignedDimension
 13
3633.904397928898
 23
9306.507603031862
 33
0.0
 14
5733.904397928898
 24
9306.507603031862
 34
0.0
100
AcDbRotatedDimension
1001
ACAD
1000
DSTYLE
1002
{
1070
    41
1040
0.5
1070
    44
1040
1.0
1070
   147
1040
0.8
1070
   271
1070
     2
1070
   272
1070
     2
1070
   289
1070
     3
1070
   340
1005
F706
1070
   343
1005
F744
1070
   344
1005
F744
1002
}
  0
DIMENSION
  5
121FD
330
747D
100
AcDbEntity
  8
寸法
 48
50.0
100
AcDbDimension
  2
*D11
 10
5788.904397928899
 20
6238.459023477538
 30
0.0
 11
4673.548125189918
 21
6238.459023477538
 31
0.0
 70
   160
 71
     5
 42
2210.0
  3
INABA_S40
100
AcDbAlignedDimension
 13
3578.904397928898
 23
7516.507603031858
 33
0.0
 14
5788.904397928899
 24
7571.507603031858
 34
0.0
100
AcDbRotatedDimension
1001
ACAD
1000
DSTYLE
1002
{
1070
    41
1040
0.5
1070
    44
1040
1.0
1070
   147
1040
0.8
1070
   271
1070
     2
1070
   272
1070
     2
1070
   289
1070
     3
1070
   340
1005
F706
1070
   343
1005
F744
1070
   344
1005
F744
1002
}
  0
LINE
  5
12200
330
747D
100
AcDbEntity
  8
部品1
100
AcDbLine
 10
3633.904397928904
 20
9251.507603031859
 30
0.0
 11
3633.904397928894
 21
7571.507603031861
 31
0.0
  0
LINE
  5
12201
330
747D
100
AcDbEntity
  8
破線
  6
HIDDEN
 48
10.0
100
AcDbLine
 10
3657.404397928905
 20
9228.00760303186
 30
0.0
 11
3657.404397928895
 21
7595.007603031858
 31
0.0
  0
LINE
  5
12202
330
747D
100
AcDbEntity
  8
部品1
100
AcDbLine
 10
3578.904397928898
 20
9306.507603031858
 30
0.0
 11
3578.904397928898
 21
7516.507603031858
 31
0.0
  0
LINE
  5
12203
330
747D
100
AcDbEntity
  8
部品1
100
AcDbLine
 10
3606.904397928899
 20
9278.507603031862
 30
0.0
 11
3606.904397928899
 21
9049.507603031861
 31
0.0
  0
LINE
  5
12204
330
747D
100
AcDbEntity
  8
部品1
100
AcDbLine
 10
3606.9043979289
 20
9251.507603031864
 30
0.0
 11
3606.904397928897
 21
7544.507603031859
 31
0.0
  0
LINE
  5
12205
330
747D
100
AcDbEntity
  8
破線
  6
HIDDEN
 48
10.0
100
AcDbLine
 10
3657.404397928895
 20
7595.007603031858
 30
0.0
 11
4313.404397928922
 21
7595.007603031858
 31
0.0
  0
LINE
  5
12206
330
747D
100
AcDbEntity
  8
部品1
100
AcDbLine
 10
3578.904397928898
 20
7516.507603031858
 30
0.0
 11
3633.904397928898
 21
7516.507603031858
 31
0.0
  0
LINE
  5
12207
330
747D
100
AcDbEntity
  8
部品1
 48
50.0
100
AcDbLine
 10
3606.904397928897
 20
7544.507603031859
 30
0.0
 11
3633.904397928894
 21
7571.507603031861
 31
0.0
  0
LINE
  5
12208
330
747D
100
AcDbEntity
  8
部品1
100
AcDbLine
 10
3633.904397928898
 20
7516.507603031858
 30
0.0
 11
3633.904397928898
 21
7544.507603031859
 31
0.0
  0
LINE
  5
12209
330
747D
100
AcDbEntity
  8
部品1
100
AcDbLine
 10
3606.904397928899
 20
7571.507603031855
 30
0.0
 11
3578.904397928898
 21
7571.507603031855
 31
0.0
  0
LINE
  5
12210
330
747D
100
AcDbEntity
  8
部品1
100
AcDbLine
 10
3633.904397928898
 20
7516.507603031867
 30
0.0
 11
3633.904397928898
 21
7544.507603031867
 31
0.0
  0
LINE
  5
12214
330
747D
100
AcDbEntity
  8
部品1
100
AcDbLine
 10
3633.904397928898
 20
7516.507603031858
 30
0.0
 11
3633.904397928898
 21
7544.507603031859
 31
0.0
  0
LINE
  5
12215
330
747D
100
AcDbEntity
  8
部品1
100
AcDbLine
 10
3606.904397928899
 20
7991.507603031863
 30
0.0
 11
3578.904397928898
 21
7991.507603031863
 31
0.0
  0
LINE
  5
12216
330
747D
100
AcDbEntity
  8
部品1
100
AcDbLine
 10
3606.904397928899
 20
8411.507603031862
 30
0.0
 11
3578.904397928898
 21
8411.507603031862
 31
0.0
  0
LINE
  5
12217
330
747D
100
AcDbEntity
  8
部品1
100
AcDbLine
 10
3606.904397928899
 20
8831.507603031864
 30
0.0
 11
3578.904397928898
 21
8831.507603031864
 31
0.0
  0
LINE
  5
1221A
330
747D
100
AcDbEntity
  8
破線
  6
HIDDEN
 48
10.0
100
AcDbLine
 10
3657.404397928895
 20
9228.007603031864
 30
0.0
 11
4313.404397928912
 21
9228.007603031858
 31
0.0
  0
DIMENSION
  5
1221B
330
747D
100
AcDbEntity
  8
寸法
 48
50.0
100
AcDbDimension
  2
*D12
 10
3633.904397928898
 20
9581.220013050655
 30
0.0
 11
3184.737731262232
 21
9581.220013050655
 31
0.0
 70
   160
 71
     5
 42
55.0
  3
INABA_S40
100
AcDbAlignedDimension
 13
3578.904397928898
 23
9306.507603031858
 33
0.0
 14
3633.904397928898
 24
9306.507603031862
 34
0.0
100
AcDbRotatedDimension
1001
ACAD
1000
DSTYLE
1002
{
1070
    41
1040
0.5
1070
    44
1040
1.0
1070
   147
1040
0.8
1070
   271
1070
     2
1070
   272
1070
     2
1070
   289
1070
     3
1070
   340
1005
F706
1070
   343
1005
F744
1070
   344
1005
F744
1002
}
  0
LINE
  5
1221C
330
747D
100
AcDbEntity
  8
部品1
 48
50.0
100
AcDbLine
 10
3606.904397928899
 20
9278.507603031862
 30
0.0
 11
3633.904397928894
 21
9251.507603031859
 31
0.0
  0
LINE
  5
1221D
330
747D
100
AcDbEntity
  8
部品1
100
AcDbLine
 10
3633.904397928898
 20
9306.507603031862
 30
0.0
 11
3633.904397928898
 21
9278.50760303186
 31
0.0
  0
LINE
  5
1221E
330
747D
100
AcDbEntity
  8
部品1
100
AcDbLine
 10
3606.904397928899
 20
9251.507603031864
 30
0.0
 11
3578.904397928898
 21
9251.507603031864
 31
0.0
  0
LINE
  5
12227
330
747D
100
AcDbEntity
  8
部品1
100
AcDbLine
 10
7943.904397928898
 20
9251.507603031864
 30
0.0
 11
7943.904397928898
 21
7571.507603031858
 31
0.0
  0
LINE
  5
1222D
330
747D
100
AcDbEntity
  8
部品1
100
AcDbLine
 10
5843.904397928898
 20
7571.507603031858
 30
0.0
 11
5843.904397928898
 21
9251.507603031859
 31
0.0
  0
LINE
  5
1222E
330
747D
100
AcDbEntity
  8
破線
  6
HIDDEN
 48
10.0
100
AcDbLine
 10
5867.404397928898
 20
7595.007603031858
 30
0.0
 11
5867.404397928897
 21
9228.00760303186
 31
0.0
  0
LINE
  5
1222F
330
747D
100
AcDbEntity
  8
部品1
100
AcDbLine
 10
5816.904397928897
 20
7544.507603031859
 30
0.0
 11
5816.904397928897
 21
9278.507603031863
 31
0.0
  0
LINE
  5
12231
330
747D
100
AcDbEntity
  8
破線
  6
HIDDEN
 48
10.0
100
AcDbLine
 10
5710.404397928898
 20
7595.007603031856
 30
0.0
 11
5710.404397928894
 21
9228.007603031867
 31
0.0
  0
LINE
  5
12232
330
747D
100
AcDbEntity
  8
部品1
100
AcDbLine
 10
5733.904397928898
 20
7571.507603031855
 30
0.0
 11
5733.904397928895
 21
9251.507603031866
 31
0.0
  0
LINE
  5
12233
330
747D
100
AcDbEntity
  8
部品1
100
AcDbLine
 10
5760.904397928898
 20
7544.507603031862
 30
0.0
 11
5760.904397928898
 21
9278.507603031862
 31
0.0
  0
LINE
  5
12234
330
747D
100
AcDbEntity
  8
破線
  6
HIDDEN
 48
10.0
100
AcDbLine
 10
7920.404397928898
 20
9228.007603031867
 30
0.0
 11
7920.404397928898
 21
7595.007603031858
 31
0.0
  0
LINE
  5
12235
330
747D
100
AcDbEntity
  8
部品1
100
AcDbLine
 10
7998.904397928898
 20
9306.507603031858
 30
0.0
 11
7998.904397928898
 21
7516.507603031858
 31
0.0
  0
LINE
  5
12236
330
747D
100
AcDbEntity
  8
部品1
100
AcDbLine
 10
7970.904397928896
 20
9278.50760303186
 30
0.0
 11
7970.904397928896
 21
9049.507603031861
 31
0.0
  0
LINE
  5
12239
330
747D
100
AcDbEntity
  8
部品1
100
AcDbLine
 10
5843.904397928898
 20
7991.507603031862
 30
0.0
 11
7943.904397928898
 21
7991.507603031862
 31
0.0
  0
LINE
  5
1223A
330
747D
100
AcDbEntity
  8
部品1
100
AcDbLine
 10
5843.904397928898
 20
8411.507603031862
 30
0.0
 11
7943.904397928898
 21
8411.507603031862
 31
0.0
  0
LINE
  5
1223B
330
747D
100
AcDbEntity
  8
部品1
100
AcDbLine
 10
5843.904397928898
 20
8831.507603031862
 30
0.0
 11
7943.904397928898
 21
8831.507603031862
 31
0.0
  0
LINE
  5
1223D
330
747D
100
AcDbEntity
  8
部品1
100
AcDbLine
 10
7998.904397928898
 20
7516.507603031858
 30
0.0
 11
5843.904397928898
 21
7516.507603031858
 31
0.0
  0
LINE
  5
1223E
330
747D
100
AcDbEntity
  8
部品1
100
AcDbLine
 10
7943.904397928898
 20
7571.507603031858
 30
0.0
 11
5843.904397928898
 21
7571.507603031861
 31
0.0
  0
LINE
  5
1223F
330
747D
100
AcDbEntity
  8
部品1
100
AcDbLine
 10
7970.904397928896
 20
7544.507603031859
 30
0.0
 11
5816.904397928897
 21
7544.507603031862
 31
0.0
  0
DIMENSION
  5
12240
330
747D
100
AcDbEntity
  8
寸法
 48
50.0
100
AcDbDimension
  2
*D13
 10
7998.904397928898
 20
6238.459023477538
 30
0.0
 11
6893.904397928898
 21
6330.470834501159
 31
0.0
 70
    32
 71
     5
 42
2210.0
  3
INABA_S40
100
AcDbAlignedDimension
 13
5788.904397928899
 23
7571.507603031855
 33
0.0
 14
7998.904397928898
 24
7516.507603031858
 34
0.0
100
AcDbRotatedDimension
1001
ACAD
1000
DSTYLE
1002
{
1070
    41
1040
0.5
1070
    44
1040
1.0
1070
   147
1040
0.8
1070
   271
1070
     2
1070
   272
1070
     2
1070
   289
1070
     3
1070
   340
1005
F706
1070
   343
1005
F744
1070
   344
1005
F744
1002
}
  0
LINE
  5
1226B
330
747D
100
AcDbEntity
  8
破線
  6
HIDDEN
 48
10.0
100
AcDbLine
 10
5054.404397928909
 20
7595.007603031858
 30
0.0
 11
5710.404397928898
 21
7595.007603031856
 31
0.0
  0
LINE
  5
1226C
330
747D
100
AcDbEntity
  8
部品1
100
AcDbLine
 10
5733.904397928898
 20
7516.507603031858
 30
0.0
 11
5788.904397928899
 21
7516.507603031858
 31
0.0
  0
LINE
  5
12272
330
747D
100
AcDbEntity
  8
部品1
100
AcDbLine
 10
5733.904397928898
 20
7516.507603031858
 30
0.0
 11
5733.904397928898
 21
7544.507603031859
 31
0.0
  0
LINE
  5
12276
330
747D
100
AcDbEntity
  8
部品1
100
AcDbLine
 10
5733.904397928898
 20
7516.507603031858
 30
0.0
 11
5733.904397928898
 21
7544.507603031859
 31
0.0
  0
LINE
  5
12277
330
747D
100
AcDbEntity
  8
部品1
 48
50.0
100
AcDbLine
 10
5816.904397928897
 20
7544.507603031859
 30
0.0
 11
5843.904397928898
 21
7571.507603031858
 31
0.0
  0
LINE
  5
12278
330
747D
100
AcDbEntity
  8
部品1
 48
50.0
100
AcDbLine
 10
5760.904397928898
 20
7544.507603031862
 30
0.0
 11
5733.904397928898
 21
7571.507603031855
 31
0.0
  0
LINE
  5
12279
330
747D
100
AcDbEntity
  8
部品1
100
AcDbLine
 10
5843.904397928898
 20
7516.507603031861
 30
0.0
 11
5788.904397928899
 21
7516.507603031858
 31
0.0
  0
LINE
  5
1227A
330
747D
100
AcDbEntity
  8
部品1
100
AcDbLine
 10
5733.904397928898
 20
7516.507603031858
 30
0.0
 11
5733.904397928898
 21
7544.507603031859
 31
0.0
  0
LINE
  5
1227B
330
747D
100
AcDbEntity
  8
部品1
100
AcDbLine
 10
5843.904397928898
 20
7516.507603031858
 30
0.0
 11
5843.904397928898
 21
7544.507603031859
 31
0.0
  0
LINE
  5
1227C
330
747D
100
AcDbEntity
  8
部品1
100
AcDbLine
 10
5816.904397928897
 20
7571.507603031855
 30
0.0
 11
5788.904397928899
 21
7571.507603031855
 31
0.0
  0
LINE
  5
1227D
330
747D
100
AcDbEntity
  8
部品1
100
AcDbLine
 10
5760.904397928898
 20
7571.507603031855
 30
0.0
 11
5788.904397928899
 21
7571.507603031855
 31
0.0
  0
LINE
  5
1227E
330
747D
100
AcDbEntity
  8
部品1
100
AcDbLine
 10
6263.904397928898
 20
7516.507603031858
 30
0.0
 11
6263.904397928898
 21
7544.507603031859
 31
0.0
  0
LINE
  5
1227F
330
747D
100
AcDbEntity
  8
部品1
100
AcDbLine
 10
7970.904397928896
 20
9251.507603031864
 30
0.0
 11
7970.904397928896
 21
7544.507603031859
 31
0.0
  0
LINE
  5
12282
330
747D
100
AcDbEntity
  8
部品1
100
AcDbLine
 10
6683.904397928898
 20
7516.507603031858
 30
0.0
 11
6683.904397928898
 21
7544.507603031859
 31
0.0
  0
LINE
  5
12287
330
747D
100
AcDbEntity
  8
部品1
100
AcDbLine
 10
7103.904397928896
 20
7516.507603031858
 30
0.0
 11
7103.904397928896
 21
7544.507603031859
 31
0.0
  0
LINE
  5
12288
330
747D
100
AcDbEntity
  8
部品1
100
AcDbLine
 10
7523.904397928898
 20
7516.507603031858
 30
0.0
 11
7523.904397928898
 21
7544.507603031859
 31
0.0
  0
LINE
  5
12289
330
747D
100
AcDbEntity
  8
部品1
 48
50.0
100
AcDbLine
 10
7970.904397928896
 20
7544.507603031859
 30
0.0
 11
7943.904397928898
 21
7571.507603031858
 31
0.0
  0
LINE
  5
1228A
330
747D
100
AcDbEntity
  8
部品1
100
AcDbLine
 10
7943.904397928898
 20
7516.507603031858
 30
0.0
 11
7943.904397928898
 21
7544.507603031859
 31
0.0
  0
LINE
  5
1228B
330
747D
100
AcDbEntity
  8
部品1
100
AcDbLine
 10
7970.904397928896
 20
7571.507603031855
 30
0.0
 11
7998.904397928898
 21
7571.507603031855
 31
0.0
  0
LINE
  5
1228C
330
747D
100
AcDbEntity
  8
部品1
100
AcDbLine
 10
7970.904397928896
 20
7991.507603031863
 30
0.0
 11
7998.904397928898
 21
7991.507603031863
 31
0.0
  0
LINE
  5
1228D
330
747D
100
AcDbEntity
  8
部品1
100
AcDbLine
 10
7970.904397928896
 20
8411.507603031862
 30
0.0
 11
7998.904397928898
 21
8411.507603031862
 31
0.0
  0
LINE
  5
1228E
330
747D
100
AcDbEntity
  8
部品1
100
AcDbLine
 10
7970.904397928896
 20
8831.507603031864
 30
0.0
 11
7998.904397928898
 21
8831.507603031864
 31
0.0
  0
LINE
  5
12292
330
747D
100
AcDbEntity
  8
部品1
100
AcDbLine
 10
7943.904397928898
 20
9251.507603031864
 30
0.0
 11
5843.904397928898
 21
9251.507603031859
 31
0.0
  0
LINE
  5
12293
330
747D
100
AcDbEntity
  8
部品1
100
AcDbLine
 10
5816.904397928897
 20
9278.507603031862
 30
0.0
 11
7103.904397928896
 21
9278.507603031862
 31
0.0
  0
DIMENSION
  5
12294
330
747D
100
AcDbEntity
  8
寸法
 48
50.0
100
AcDbDimension
  2
*D14
 10
7943.904397928898
 20
9581.220013050655
 30
0.0
 11
6893.904397928898
 21
9673.231824074278
 31
0.0
 70
    32
  1
5X420=<>
 71
     5
 42
2100.0
  3
INABA_S40
100
AcDbAlignedDimension
 13
5843.904397928898
 23
9306.507603031862
 33
0.0
 14
7943.904397928898
 24
9306.507603031862
 34
0.0
100
AcDbRotatedDimension
1001
ACAD
1000
DSTYLE
1002
{
1070
    41
1040
0.5
1070
    44
1040
1.0
1070
   147
1040
0.8
1070
   271
1070
     2
1070
   272
1070
     2
1070
   289
1070
     3
1070
   340
1005
F706
1070
   343
1005
F744
1070
   344
1005
F744
1002
}
  0
LINE
  5
12295
330
747D
100
AcDbEntity
  8
部品1
100
AcDbLine
 10
5788.904397928899
 20
9306.507603031858
 30
0.0
 11
7998.904397928898
 21
9306.507603031858
 31
0.0
  0
LINE
  5
12297
330
747D
100
AcDbEntity
  8
部品1
100
AcDbLine
 10
5313.904397928898
 20
9278.507603031862
 30
0.0
 11
4053.904397928898
 21
9278.507603031863
 31
0.0
  0
LINE
  5
12298
330
747D
100
AcDbEntity
  8
部品1
100
AcDbLine
 10
4053.904397928898
 20
9306.507603031862
 30
0.0
 11
4053.904397928898
 21
9278.50760303186
 31
0.0
  0
LINE
  5
12299
330
747D
100
AcDbEntity
  8
部品1
100
AcDbLine
 10
4473.904397928897
 20
9306.507603031862
 30
0.0
 11
4473.904397928897
 21
9278.50760303186
 31
0.0
  0
LINE
  5
1229A
330
747D
100
AcDbEntity
  8
部品1
100
AcDbLine
 10
4893.904397928898
 20
9306.507603031862
 30
0.0
 11
4893.904397928898
 21
9278.50760303186
 31
0.0
  0
LINE
  5
1229B
330
747D
100
AcDbEntity
  8
破線
  6
HIDDEN
 48
10.0
100
AcDbLine
 10
5054.404397928919
 20
9228.007603031867
 30
0.0
 11
5710.404397928898
 21
9228.007603031867
 31
0.0
  0
LINE
  5
1229C
330
747D
100
AcDbEntity
  8
部品1
100
AcDbLine
 10
5760.904397928898
 20
9278.507603031862
 30
0.0
 11
5313.904397928898
 21
9278.507603031862
 31
0.0
  0
LINE
  5
1229D
330
747D
100
AcDbEntity
  8
部品1
100
AcDbLine
 10
5313.904397928898
 20
9306.507603031862
 30
0.0
 11
5313.904397928898
 21
9278.50760303186
 31
0.0
  0
LINE
  5
1229E
330
747D
100
AcDbEntity
  8
部品1
100
AcDbLine
 10
5733.904397928898
 20
9306.507603031862
 30
0.0
 11
5733.904397928898
 21
9278.50760303186
 31
0.0
  0
DIMENSION
  5
1229F
330
747D
100
AcDbEntity
  8
寸法
 48
50.0
100
AcDbDimension
  2
*D15
 10
5843.904397928898
 20
9581.220013050655
 30
0.0
 11
5788.904397928899
 21
9581.220013050655
 31
0.0
 70
   160
 71
     5
 42
110.0
  3
INABA_S40
100
AcDbAlignedDimension
 13
5733.904397928898
 23
9306.507603031862
 33
0.0
 14
5843.904397928898
 24
9306.507603031862
 34
0.0
100
AcDbRotatedDimension
1001
ACAD
1000
DSTYLE
1002
{
1070
    41
1040
0.5
1070
    44
1040
1.0
1070
   147
1040
0.8
1070
   271
1070
     2
1070
   272
1070
     2
1070
   289
1070
     3
1070
   340
1005
F706
1070
   343
1005
F744
1070
   344
1005
F744
1002
}
  0
LINE
  5
122A0
330
747D
100
AcDbEntity
  8
部品1
 48
50.0
100
AcDbLine
 10
5816.904397928897
 20
9278.507603031862
 30
0.0
 11
5843.904397928898
 21
9251.507603031859
 31
0.0
  0
LINE
  5
122A1
330
747D
100
AcDbEntity
  8
部品1
 48
50.0
100
AcDbLine
 10
5760.904397928898
 20
9278.507603031862
 30
0.0
 11
5733.904397928898
 21
9251.507603031866
 31
0.0
  0
LINE
  5
122A2
330
747D
100
AcDbEntity
  8
部品1
100
AcDbLine
 10
5816.904397928897
 20
9251.507603031864
 30
0.0
 11
5788.904397928899
 21
9251.507603031864
 31
0.0
  0
LINE
  5
122A3
330
747D
100
AcDbEntity
  8
部品1
100
AcDbLine
 10
5733.904397928898
 20
9306.507603031862
 30
0.0
 11
5733.904397928898
 21
9278.50760303186
 31
0.0
  0
LINE
  5
122A4
330
747D
100
AcDbEntity
  8
部品1
100
AcDbLine
 10
5760.904397928898
 20
9251.507603031864
 30
0.0
 11
5788.904397928899
 21
9251.507603031864
 31
0.0
  0
LINE
  5
122A5
330
747D
100
AcDbEntity
  8
部品1
100
AcDbLine
 10
5843.904397928898
 20
9306.507603031862
 30
0.0
 11
5843.904397928898
 21
9278.50760303186
 31
0.0
  0
LINE
  5
122A6
330
747D
100
AcDbEntity
  8
部品1
100
AcDbLine
 10
5843.904397928898
 20
9306.507603031862
 30
0.0
 11
5843.904397928898
 21
9278.50760303186
 31
0.0
  0
LINE
  5
122A7
330
747D
100
AcDbEntity
  8
部品1
100
AcDbLine
 10
6263.904397928898
 20
9306.507603031862
 30
0.0
 11
6263.904397928898
 21
9278.50760303186
 31
0.0
  0
LINE
  5
122A9
330
747D
100
AcDbEntity
  8
部品1
100
AcDbLine
 10
6906.404397928898
 20
9278.507603031862
 30
0.0
 11
7301.404397928898
 21
9278.50760303186
 31
0.0
  0
LINE
  5
122AB
330
747D
100
AcDbEntity
  8
部品1
100
AcDbLine
 10
6683.904397928898
 20
9306.507603031862
 30
0.0
 11
6683.904397928898
 21
9278.50760303186
 31
0.0
  0
LINE
  5
122B0
330
747D
100
AcDbEntity
  8
部品1
100
AcDbLine
 10
7103.904397928896
 20
9278.50760303186
 30
0.0
 11
7970.904397928896
 21
9278.50760303186
 31
0.0
  0
LINE
  5
122B1
330
747D
100
AcDbEntity
  8
部品1
100
AcDbLine
 10
7103.904397928896
 20
9306.507603031862
 30
0.0
 11
7103.904397928896
 21
9278.50760303186
 31
0.0
  0
LINE
  5
122B2
330
747D
100
AcDbEntity
  8
部品1
100
AcDbLine
 10
7523.904397928898
 20
9306.507603031862
 30
0.0
 11
7523.904397928898
 21
9278.50760303186
 31
0.0
  0
LINE
  5
122B3
330
747D
100
AcDbEntity
  8
部品1
 48
50.0
100
AcDbLine
 10
7970.904397928896
 20
9278.50760303186
 30
0.0
 11
7943.904397928898
 21
9251.507603031864
 31
0.0
  0
LINE
  5
122B4
330
747D
100
AcDbEntity
  8
部品1
100
AcDbLine
 10
7943.904397928898
 20
9306.507603031862
 30
0.0
 11
7943.904397928898
 21
9278.50760303186
 31
0.0
  0
LINE
  5
122B5
330
747D
100
AcDbEntity
  8
部品1
100
AcDbLine
 10
7970.904397928896
 20
9251.507603031864
 30
0.0
 11
7998.904397928898
 21
9251.507603031864
 31
0.0
  0
LINE
  5
12F2D
330
747D
100
AcDbEntity
  8
部品1
100
AcDbLine
 10
3978.904397928899
 20
2288.112805903256
 30
0.0
 11
3978.904397928899
 21
2188.112805903256
 31
0.0
  0
DIMENSION
  5
136B1
330
747D
100
AcDbEntity
  8
寸法
 48
50.0
100
AcDbDimension
  2
*D16
 10
14066.35780785321
 20
4608.112805903256
 30
0.0
 11
13974.34599682959
 21
3448.112805903257
 31
0.0
 70
    32
 71
     5
 42
-1.0
  3
INABA_S40
100
AcDbAlignedDimension
 13
13375.14422886714
 23
2288.112805903256
 33
0.0
 14
13455.14422886715
 24
4608.112805903256
 34
0.0
 50
90.0
100
AcDbRotatedDimension
1001
ACAD
1000
DSTYLE
1002
{
1070
    41
1040
0.5
1070
    44
1040
1.0
1070
   147
1040
0.8
1070
   271
1070
     2
1070
   272
1070
     2
1070
   289
1070
     3
1070
   340
1005
F706
1070
   343
1005
F744
1070
   344
1005
F744
1002
}
  0
LINE
  5
136B2
330
747D
100
AcDbEntity
  8
部品1
 48
50.0
100
AcDbLine
 10
13327.64422886714
 20
2328.112805903256
 30
0.0
 11
13327.64422886715
 21
2188.112805903256
 31
0.0
  0
LINE
  5
136B3
330
747D
100
AcDbEntity
  8
部品1
 48
50.0
100
AcDbLine
 10
13367.64422886715
 20
2328.112805903257
 30
0.0
 11
13367.64422886714
 21
2188.112805903256
 31
0.0
  0
LINE
  5
136B4
330
747D
100
AcDbEntity
  8
部品1
100
AcDbLine
 10
13175.14422886714
 20
2288.112805903256
 30
0.0
 11
13175.14422886714
 21
2188.112805903256
 31
0.0
  0
LINE
  5
136B5
330
747D
100
AcDbEntity
  8
部品1
 48
50.0
100
AcDbLine
 10
12580.14422886714
 20
2288.112805903256
 30
0.0
 11
12580.14422886714
 21
2188.112805903257
 31
0.0
  0
LINE
  5
136B6
330
747D
100
AcDbEntity
  8
部品1
 48
50.0
100
AcDbLine
 10
12380.14422886714
 20
2288.112805903256
 30
0.0
 11
12380.14422886714
 21
2188.112805903257
 31
0.0
  0
LINE
  5
136B7
330
747D
100
AcDbEntity
  8
部品1
100
AcDbLine
 10
13375.14422886714
 20
4482.994614589261
 30
0.0
 11
13375.14422886715
 21
2188.112805903256
 31
0.0
  0
LINE
  5
136B8
330
747D
100
AcDbEntity
  8
部品1
100
AcDbLine
 10
11785.14422886714
 20
2288.112805903256
 30
0.0
 11
11785.14422886714
 21
2188.112805903256
 31
0.0
  0
LINE
  5
136B9
330
747D
100
AcDbEntity
  8
部品1
 48
50.0
100
AcDbLine
 10
11592.64422886714
 20
2328.112805903257
 30
0.0
 11
11592.64422886715
 21
2188.112805903256
 31
0.0
  0
LINE
  5
136BA
330
747D
100
AcDbEntity
  8
部品1
 48
50.0
100
AcDbLine
 10
11632.64422886715
 20
2328.112805903256
 30
0.0
 11
11632.64422886714
 21
2188.112805903256
 31
0.0
  0
LINE
  5
136BB
330
747D
100
AcDbEntity
  8
部品1
100
AcDbLine
 10
11508.14422886715
 20
4413.799910811657
 30
0.0
 11
11508.14422886714
 21
2188.112805903256
 31
0.0
  0
LINE
  5
136BC
330
747D
100
AcDbEntity
  8
部品1
100
AcDbLine
 10
11585.14422886715
 20
4519.971325345503
 30
0.0
 11
11585.14422886715
 21
2188.112805903256
 31
0.0
  0
DIMENSION
  5
136BD
330
747D
100
AcDbEntity
  8
寸法
 48
50.0
100
AcDbDimension
  2
*D17
 10
10741.39409968388
 20
2288.112805903257
 30
0.0
 11
10741.39409968388
 21
1904.362805903256
 31
0.0
 70
   160
 71
     5
 42
49.99999999999954
  3
INABA_S40
100
AcDbAlignedDimension
 13
11585.14422886715
 23
2338.112805903256
 33
0.0
 14
11508.14422886714
 24
2288.112805903256
 34
0.0
 50
90.0
100
AcDbRotatedDimension
1001
ACAD
1000
DSTYLE
1002
{
1070
    41
1040
0.5
1070
    44
1040
1.0
1070
   147
1040
0.8
1070
   271
1070
     2
1070
   272
1070
     2
1070
   289
1070
     3
1070
   340
1005
F706
1070
   343
1005
F744
1070
   344
1005
F744
1002
}
  0
DIMENSION
  5
136BE
330
747D
100
AcDbEntity
  8
寸法
 48
50.0
100
AcDbDimension
  2
*D18
 10
10441.39409968388
 20
2188.112805903256
 30
0.0
 11
10441.39409968388
 21
1773.112805903256
 31
0.0
 70
   160
 71
     5
 42
100.0000000000009
  3
INABA_S40
100
AcDbAlignedDimension
 13
11508.14422886714
 23
2288.112805903256
 33
0.0
 14
10528.64315297201
 24
2188.112805903256
 34
0.0
 50
90.0
100
AcDbRotatedDimension
1001
ACAD
1000
DSTYLE
1002
{
1070
    41
1040
0.5
1070
    44
1040
1.0
1070
   147
1040
0.8
1070
   271
1070
     2
1070
   272
1070
     2
1070
   289
1070
     3
1070
   340
1005
F706
1070
   343
1005
F744
1070
   344
1005
F744
1002
}
  0
DIMENSION
  5
136BF
330
747D
100
AcDbEntity
  8
寸法
 48
50.0
100
AcDbDimension
  2
*D19
 10
11105.39965278267
 20
2188.112805903257
 30
0.0
 11
11105.39965278267
 21
2045.674129116822
 31
0.0
 70
   160
 71
     5
 42
200.0000000000002
  3
INABA_S40
100
AcDbAlignedDimension
 13
11512.64422886715
 23
1988.112805903256
 33
0.0
 14
11512.64422886715
 24
2188.112805903256
 34
0.0
 50
90.0
100
AcDbRotatedDimension
1001
ACAD
1000
DSTYLE
1002
{
1070
    41
1040
0.5
1070
    44
1040
1.0
1070
   147
1040
0.8
1070
   271
1070
     2
1070
   272
1070
     2
1070
   289
1070
     3
1070
   340
1005
F706
1070
   343
1005
F744
1070
   344
1005
F744
1002
}
  0
LINE
  5
136C2
330
747D
100
AcDbEntity
  8
破線
  6
HIDDEN
 48
5.0
100
AcDbLine
 10
11512.64422886715
 20
1988.112805903256
 30
0.0
 11
11712.64422886715
 21
1988.112805903254
 31
0.0
  0
DIMENSION
  5
136C3
330
747D
100
AcDbEntity
  8
寸法
 48
50.0
100
AcDbDimension
  2
*D20
 10
11712.64422886715
 20
1652.922421664043
 30
0.0
 11
11612.64422886715
 21
1652.922421664043
 31
0.0
 70
   160
 71
     5
 42
-1.0
  3
INABA_S40
100
AcDbAlignedDimension
 13
11512.64422886715
 23
1988.112805903256
 33
0.0
 14
11712.64422886715
 24
1988.112805903254
 34
0.0
100
AcDbRotatedDimension
1001
ACAD
1000
DSTYLE
1002
{
1070
    41
1040
0.5
1070
    44
1040
1.0
1070
   147
1040
0.8
1070
   271
1070
     2
1070
   272
1070
     2
1070
   289
1070
     3
1070
   340
1005
F706
1070
   343
1005
F744
1070
   344
1005
F744
1002
}
  0
LINE
  5
136C4
330
747D
100
AcDbEntity
  8
破線
  6
HIDDEN
 48
5.0
100
AcDbLine
 10
11512.64422886715
 20
2188.112805903256
 30
0.0
 11
11512.64422886715
 21
1988.112805903256
 31
0.0
  0
LINE
  5
136C5
330
747D
100
AcDbEntity
  8
破線
  6
HIDDEN
 48
5.0
100
AcDbLine
 10
11632.64422886715
 20
2188.112805903256
 30
0.0
 11
11632.64422886715
 21
2183.112805903256
 31
0.0
  0
LINE
  5
136C6
330
747D
100
AcDbEntity
  8
破線
  6
HIDDEN
 48
5.0
100
AcDbLine
 10
11592.64422886715
 20
2188.112805903256
 30
0.0
 11
11592.64422886715
 21
2183.112805903256
 31
0.0
  0
LINE
  5
136C7
330
747D
100
AcDbEntity
  8
破線
  6
HIDDEN
 48
5.0
100
AcDbLine
 10
11647.64422886715
 20
2035.412805903256
 30
0.0
 11
11647.64422886715
 21
2033.112805903256
 31
0.0
  0
LINE
  5
136C8
330
747D
100
AcDbEntity
  8
破線
  6
HIDDEN
 48
5.0
100
AcDbLine
 10
11577.64422886714
 20
2035.412805903256
 30
0.0
 11
11577.64422886714
 21
2033.112805903256
 31
0.0
  0
LINE
  5
136C9
330
747D
100
AcDbEntity
  8
破線
  6
HIDDEN
 48
5.0
100
AcDbLine
 10
11577.64422886714
 20
2033.112805903256
 30
0.0
 11
11647.64422886715
 21
2033.112805903256
 31
0.0
  0
LINE
  5
136CA
330
747D
100
AcDbEntity
  8
破線
  6
HIDDEN
 48
5.0
100
AcDbLine
 10
11632.64422886715
 20
2183.112805903256
 30
0.0
 11
11647.64422886715
 21
2035.412805903256
 31
0.0
  0
LINE
  5
136CB
330
747D
100
AcDbEntity
  8
破線
  6
HIDDEN
 48
5.0
100
AcDbLine
 10
11592.64422886715
 20
2183.112805903256
 30
0.0
 11
11577.64422886714
 21
2035.412805903256
 31
0.0
  0
LINE
  5
136CC
330
747D
100
AcDbEntity
  8
破線
  6
HIDDEN
 48
5.0
100
AcDbLine
 10
11712.64422886715
 20
2188.112805903256
 30
0.0
 11
11712.64422886715
 21
1988.112805903254
 31
0.0
  0
LINE
  5
136CD
330
747D
100
AcDbEntity
  8
破線
  6
HIDDEN
 48
5.0
100
AcDbLine
 10
13382.64422886715
 20
2033.112805903256
 30
0.0
 11
13312.64422886714
 21
2033.112805903256
 31
0.0
  0
LINE
  5
136CE
330
747D
100
AcDbEntity
  8
破線
  6
HIDDEN
 48
5.0
100
AcDbLine
 10
13447.64422886715
 20
1988.112805903256
 30
0.0
 11
13247.64422886715
 21
1988.112805903256
 31
0.0
  0
LINE
  5
136CF
330
747D
100
AcDbEntity
  8
破線
  6
HIDDEN
 48
5.0
100
AcDbLine
 10
13327.64422886714
 20
2183.112805903256
 30
0.0
 11
13312.64422886714
 21
2035.412805903257
 31
0.0
  0
LINE
  5
136D0
330
747D
100
AcDbEntity
  8
破線
  6
HIDDEN
 48
5.0
100
AcDbLine
 10
13247.64422886714
 20
2188.112805903256
 30
0.0
 11
13247.64422886715
 21
1988.112805903256
 31
0.0
  0
LINE
  5
136D1
330
747D
100
AcDbEntity
  8
破線
  6
HIDDEN
 48
5.0
100
AcDbLine
 10
13312.64422886714
 20
2035.412805903257
 30
0.0
 11
13312.64422886714
 21
2033.112805903256
 31
0.0
  0
LINE
  5
136D2
330
747D
100
AcDbEntity
  8
破線
  6
HIDDEN
 48
5.0
100
AcDbLine
 10
13447.64422886715
 20
2188.112805903256
 30
0.0
 11
13447.64422886715
 21
1988.112805903256
 31
0.0
  0
LINE
  5
136D3
330
747D
100
AcDbEntity
  8
破線
  6
HIDDEN
 48
50.0
100
AcDbLine
 10
13327.64422886715
 20
2188.112805903256
 30
0.0
 11
13327.64422886715
 21
2183.112805903256
 31
0.0
  0
LINE
  5
136D4
330
747D
100
AcDbEntity
  8
破線
  6
HIDDEN
 48
50.0
100
AcDbLine
 10
13367.64422886714
 20
2188.112805903256
 30
0.0
 11
13367.64422886714
 21
2183.112805903257
 31
0.0
  0
LINE
  5
136D5
330
747D
100
AcDbEntity
  8
破線
  6
HIDDEN
 48
5.0
100
AcDbLine
 10
13382.64422886715
 20
2035.412805903257
 30
0.0
 11
13382.64422886715
 21
2033.112805903256
 31
0.0
  0
LINE
  5
136D6
330
747D
100
AcDbEntity
  8
破線
  6
HIDDEN
 48
5.0
100
AcDbLine
 10
13367.64422886715
 20
2183.112805903256
 30
0.0
 11
13382.64422886715
 21
2035.412805903257
 31
0.0
  0
DIMENSION
  5
136D9
330
747D
100
AcDbEntity
  8
寸法
 48
50.0
100
AcDbDimension
  2
*D21
 10
11040.23558746989
 20
2354.112805903257
 30
0.0
 11
10948.22377644627
 21
3366.61280590326
 31
0.0
 70
    32
  1
有効開口部高サ<>
 71
     5
 42
2025.0
  3
INABA_S40
100
AcDbAlignedDimension
 13
11508.14422886715
 23
4379.112805903257
 33
0.0
 14
11508.14422886714
 24
2354.112805903256
 34
0.0
 50
90.0
100
AcDbRotatedDimension
1001
ACAD
1000
DSTYLE
1002
{
1070
    41
1040
0.5
1070
    44
1040
1.0
1070
   147
1040
0.8
1070
   271
1070
     2
1070
   272
1070
     2
1070
   289
1070
     3
1070
   340
1005
F706
1070
   343
1005
F744
1070
   344
1005
F744
1002
}
  0
DIMENSION
  5
136DA
330
747D
100
AcDbEntity
  8
寸法
 48
50.0
100
AcDbDimension
  2
*D22
 10
10741.39409968388
 20
2338.112805903257
 30
0.0
 11
10649.38228866026
 21
3383.112805903257
 31
0.0
 70
    32
 71
     5
 42
-1.0
  3
INABA_S40
100
AcDbAlignedDimension
 13
11585.14422886715
 23
4428.112805903256
 33
0.0
 14
11585.14422886715
 24
2338.112805903256
 34
0.0
 50
90.0
100
AcDbRotatedDimension
1001
ACAD
1000
DSTYLE
1002
{
1070
    41
1040
0.5
1070
    44
1040
1.0
1070
   147
1040
0.8
1070
   271
1070
     2
1070
   272
1070
     2
1070
   289
1070
     3
1070
   340
1005
F706
1070
   343
1005
F744
1070
   344
1005
F744
1002
}
  0
LINE
  5
136DB
330
747D
100
AcDbEntity
  8
部品1
100
AcDbLine
 10
12480.14422886714
 20
4428.112805903256
 30
0.0
 11
12480.14422886714
 21
2338.112805903256
 31
0.0
  0
LINE
  5
136E8
330
747D
100
AcDbEntity
  8
部品1
100
AcDbLine
 10
13320.14422886714
 20
4428.112805903256
 30
0.0
 11
13320.14422886715
 21
2338.112805903256
 31
0.0
  0
LINE
  5
136E9
330
747D
100
AcDbEntity
  8
部品1
100
AcDbLine
 10
12900.14422886714
 20
4428.112805903256
 30
0.0
 11
12900.14422886714
 21
2338.112805903256
 31
0.0
  0
LINE
  5
136F0
330
747D
100
AcDbEntity
  8
部品1
100
AcDbLine
 10
11640.14422886714
 20
4428.112805903256
 30
0.0
 11
11640.14422886714
 21
2338.112805903256
 31
0.0
  0
LINE
  5
136F7
330
747D
100
AcDbEntity
  8
部品1
100
AcDbLine
 10
12060.14422886714
 20
4428.112805903256
 30
0.0
 11
12060.14422886714
 21
2338.112805903256
 31
0.0
  0
LINE
  5
136F8
330
747D
100
AcDbEntity
  8
部品1
100
AcDbLine
 10
11585.14422886715
 20
2338.112805903256
 30
0.0
 11
13375.14422886714
 21
2338.112805903256
 31
0.0
  0
LINE
  5
136F9
330
747D
100
AcDbEntity
  8
部品1
100
AcDbLine
 10
11632.64422886714
 20
2288.112805903256
 30
0.0
 11
13327.64422886714
 21
2288.112805903256
 31
0.0
  0
LINE
  5
136FA
330
747D
100
AcDbEntity
  8
部品1
100
AcDbLine
 10
11585.14422886715
 20
2288.112805903256
 30
0.0
 11
11508.14422886714
 21
2288.112805903256
 31
0.0
  0
LINE
  5
136FB
330
747D
100
AcDbEntity
  8
部品1
100
AcDbLine
 10
11585.14422886715
 20
2288.112805903256
 30
0.0
 11
11592.64422886714
 21
2288.112805903256
 31
0.0
  0
LINE
  5
136FC
330
747D
100
AcDbEntity
  8
部品1
100
AcDbLine
 10
11597.64422886714
 20
2333.112805903257
 30
0.0
 11
11627.64422886715
 21
2333.112805903256
 31
0.0
  0
ARC
  5
136FD
330
747D
100
AcDbEntity
  8
部品1
 48
50.0
100
AcDbCircle
 10
11597.64422886714
 20
2328.112805903257
 30
0.0
 40
5.0
100
AcDbArc
 50
89.99999999999934
 51
180.0000000000013
  0
ARC
  5
136FE
330
747D
100
AcDbEntity
  8
部品1
 48
50.0
100
AcDbCircle
 10
11627.64422886715
 20
2328.112805903256
 30
0.0
 40
5.0
100
AcDbArc
 50
359.9999999999986
 51
89.99999999999927
  0
LINE
  5
136FF
330
747D
100
AcDbEntity
  8
部品1
100
AcDbLine
 10
13375.14422886714
 20
2288.112805903256
 30
0.0
 11
13367.64422886715
 21
2288.112805903256
 31
0.0
  0
ARC
  5
13700
330
747D
100
AcDbEntity
  8
部品1
 48
50.0
100
AcDbCircle
 10
13332.64422886714
 20
2328.112805903256
 30
0.0
 40
5.0
100
AcDbArc
 50
90.00000000000074
 51
180.0000000000014
  0
LINE
  5
13701
330
747D
100
AcDbEntity
  8
部品1
100
AcDbLine
 10
13362.64422886715
 20
2333.112805903257
 30
0.0
 11
13332.64422886714
 21
2333.112805903256
 31
0.0
  0
ARC
  5
13702
330
747D
100
AcDbEntity
  8
部品1
 48
50.0
100
AcDbCircle
 10
13362.64422886715
 20
2328.112805903257
 30
0.0
 40
5.0
100
AcDbArc
 50
359.9999999999986
 51
90.00000000000062
  0
LINE
  5
13703
330
747D
100
AcDbEntity
  8
部品1
100
AcDbLine
 10
13367.64422886714
 20
2288.112805903256
 30
0.0
 11
13375.14422886714
 21
2288.112805903256
 31
0.0
  0
LINE
  5
13704
330
747D
100
AcDbEntity
  8
部品1
100
AcDbLine
 10
11585.14422886715
 20
4428.112805903256
 30
0.0
 11
13375.14422886714
 21
4428.112805903256
 31
0.0
  0
LINE
  5
1388D
330
747D
100
AcDbEntity
  8
部品1
 48
50.0
100
AcDbLine
 10
5788.904400172469
 20
9278.50760660903
 30
0.0
 11
5760.90440017247
 21
9306.507606609029
 31
0.0
  0
LINE
  5
1388E
330
747D
100
AcDbEntity
  8
部品1
100
AcDbLine
 10
5760.90440017247
 20
9278.50760660903
 30
0.0
 11
5760.90440017247
 21
9306.507606609031
 31
0.0
  0
LINE
  5
1388F
330
747D
100
AcDbEntity
  8
部品1
100
AcDbLine
 10
5816.904400172468
 20
9278.50760660903
 30
0.0
 11
5816.904400172468
 21
9306.507606609024
 31
0.0
  0
LINE
  5
13890
330
747D
100
AcDbEntity
  8
部品1
100
AcDbLine
 10
5760.90440017247
 20
9278.50760660903
 30
0.0
 11
5788.904400172469
 21
9278.50760660903
 31
0.0
  0
LINE
  5
139A0
330
747D
100
AcDbEntity
  8
部品1
 48
50.0
100
AcDbLine
 10
3633.904397928898
 20
7544.507603031854
 30
0.0
 11
5733.904397928898
 21
7544.507603031859
 31
0.0
  0
TEXT
  5
13EEF
330
747D
100
AcDbEntity
  8
部品1
100
AcDbText
 10
12197.85499717653
 20
1460.284935939622
 30
0.0
 40
135.0
  1
側面図
  7
STYLE2
100
AcDbText
  0
LWPOLYLINE
  5
13EF0
330
747D
100
AcDbEntity
  8
部品1
100
AcDbPolyline
 90
        4
 70
     1
 43
0.0
 10
12108.40889575293
 20
1653.178465158146
 10
12108.40889575293
 20
1413.286143612614
 10
12871.87956198136
 20
1413.286143612614
 10
12871.87956198136
 20
1653.178465158146
  0
TEXT
  5
13F30
330
747D
100
AcDbEntity
  8
文字
 62
     7
 48
50.0
100
AcDbText
 10
14798.72402257234
 20
9570.013745883723
 30
0.0
 40
100.0
  1
F12(一般型1.0/多雪地型2.3)
  7
STYLE1
100
AcDbText
  0
TEXT
  5
13F31
330
747D
100
AcDbEntity
  8
文字
 62
     7
 48
50.0
100
AcDbText
 10
13583.11819016569
 20
9570.013745883729
 30
0.0
 40
100.0
  1
母屋中
  7
STYLE1
100
AcDbText
  0
TEXT
  5
13F32
330
747D
100
AcDbEntity
  8
文字
 62
     7
 48
50.0
100
AcDbText
 10
13248.77747366447
 20
8720.013745883729
 30
0.0
 40
100.0
  1
15
  7
STYLE1
100
AcDbText
  0
LINE
  5
13F33
330
747D
100
AcDbEntity
  8
仕様書枠
 48
50.0
100
AcDbLine
 10
16307.19999999999
 20
8009.600000000004
 30
0.0
 11
13127.19999999999
 21
8009.600000000006
 31
0.0
  0
TEXT
  5
13F36
330
747D
100
AcDbEntity
  8
文字
 62
     7
 48
50.0
100
AcDbText
 10
13583.11819016569
 20
8550.013745883731
 30
0.0
 40
100.0
  1
扉
  7
STYLE1
100
AcDbText
  0
TEXT
  5
13F37
330
747D
100
AcDbEntity
  8
文字
 62
     7
 48
50.0
100
AcDbText
 10
15022.63965474516
 20
8550.013745883727
 30
0.0
 40
100.0
  1
F12            0.8
  7
STYLE1
100
AcDbText
  0
TEXT
  5
13F38
330
747D
100
AcDbEntity
  8
文字
 62
     7
 48
50.0
100
AcDbText
 10
13583.11819016568
 20
8720.013745883731
 30
0.0
 40
100.0
  1
正面パネル
  7
STYLE1
100
AcDbText
  0
TEXT
  5
13F39
330
747D
100
AcDbEntity
  8
文字
 62
     7
 48
50.0
100
AcDbText
 10
15022.63965474515
 20
8720.013745883727
 30
0.0
 40
100.0
  1
F12            0.7
  7
STYLE1
100
AcDbText
  0
TEXT
  5
13F3A
330
747D
100
AcDbEntity
  8
文字
 62
     7
 48
50.0
100
AcDbText
 10
15022.63965474517
 20
10590.01374588372
 30
0.0
 40
100.0
  1
F12            1.0
  7
STYLE1
100
AcDbText
  0
TEXT
  5
13F3B
330
747D
100
AcDbEntity
  8
文字
 62
     7
 48
50.0
100
AcDbText
 10
15022.63965474516
 20
10930.01374588372
 30
0.0
 40
100.0
  1
F12            1.2
  7
STYLE1
100
AcDbText
  0
TEXT
  5
13F3C
330
747D
100
AcDbEntity
  8
文字
 62
     7
 48
50.0
100
AcDbText
 10
13248.77747366447
 20
8890.013745883727
 30
0.0
 40
100.0
  1
14
  7
STYLE1
100
AcDbText
  0
TEXT
  5
13F3D
330
747D
100
AcDbEntity
  8
文字
 62
     7
 48
50.0
100
AcDbText
 10
13583.11819016569
 20
10930.01374588372
 30
0.0
 40
100.0
  1
根太
  7
STYLE1
100
AcDbText
  0
TEXT
  5
13F3E
330
747D
100
AcDbEntity
  8
文字
 62
     7
 48
50.0
100
AcDbText
 10
13583.1181901657
 20
10590.01374588373
 30
0.0
 40
100.0
  1
床パネル
 41
0.9
  7
STYLE1
100
AcDbText
  0
LINE
  5
13F3F
330
747D
100
AcDbEntity
  8
仕様書枠
 48
50.0
100
AcDbLine
 10
16307.19999999999
 20
9029.6
 30
0.0
 11
13127.2
 21
9029.600000000002
 31
0.0
  0
LINE
  5
13F40
330
747D
100
AcDbEntity
  8
仕様書枠
 48
50.0
100
AcDbLine
 10
13127.2
 20
11409.6
 30
0.0
 11
13127.19999999999
 21
8009.600000000006
 31
0.0
  0
TEXT
  5
13F41
330
747D
100
AcDbEntity
  8
文字
 62
     7
 48
50.0
100
AcDbText
 10
13229.83081656553
 20
8040.013745883731
 30
0.0
 40
100.0
  1
Y10→溶融亜鉛-5％アルミニウム合金めっき鋼板(JIS G 3317)
 41
0.9
  7
STYLE1
100
AcDbText
  0
TEXT
  5
13F42
330
747D
100
AcDbEntity
  8
文字
 62
     7
 48
50.0
100
AcDbText
 10
13229.83081656553
 20
8210.013745883733
 30
0.0
 40
100.0
  1
F12→溶融亜鉛めっき鋼板(JIS G 3302)
  7
STYLE1
100
AcDbText
  0
LINE
  5
13F43
330
747D
100
AcDbEntity
  8
仕様書枠
 48
50.0
100
AcDbLine
 10
16307.19999999999
 20
8179.600000000004
 30
0.0
 11
13127.19999999999
 21
8179.600000000005
 31
0.0
  0
LINE
  5
13F44
330
747D
100
AcDbEntity
  8
仕様書枠
 48
50.0
100
AcDbLine
 10
16307.19999999999
 20
8349.600000000004
 30
0.0
 11
13127.19999999999
 21
8349.600000000007
 31
0.0
  0
TEXT
  5
13F45
330
747D
100
AcDbEntity
  8
文字
 62
     7
 48
50.0
100
AcDbText
 10
15022.63965474515
 20
9400.013745883724
 30
0.0
 40
100.0
  1
F12            0.7
  7
STYLE1
100
AcDbText
  0
TEXT
  5
13F46
330
747D
100
AcDbEntity
  8
文字
 62
     7
 48
50.0
100
AcDbText
 10
15022.63965474517
 20
9740.013745883723
 30
0.0
 40
100.0
  1
Y10            0.5
  7
STYLE1
100
AcDbText
  0
TEXT
  5
13F47
330
747D
100
AcDbEntity
  8
文字
 62
     7
 48
50.0
100
AcDbText
 10
15022.63965474517
 20
10080.01374588372
 30
0.0
 40
100.0
  1
Y10            0.7
  7
STYLE1
100
AcDbText
  0
TEXT
  5
13F48
330
747D
100
AcDbEntity
  8
文字
 62
     7
 48
50.0
100
AcDbText
 10
15022.63965474517
 20
10250.01374588372
 30
0.0
 40
100.0
  1
Y10            0.7
  7
STYLE1
100
AcDbText
  0
TEXT
  5
13F49
330
747D
100
AcDbEntity
  8
文字
 62
     7
 48
50.0
100
AcDbText
 10
15022.63965474517
 20
10420.01374588372
 30
0.0
 40
100.0
  1
Y10            1.0
  7
STYLE1
100
AcDbText
  0
TEXT
  5
13F4B
330
747D
100
AcDbEntity
  8
文字
 62
     7
 48
50.0
100
AcDbText
 10
15022.63965474518
 20
10760.01374588372
 30
0.0
 40
100.0
  1
F12            1.0
  7
STYLE1
100
AcDbText
  0
TEXT
  5
13F4C
330
747D
100
AcDbEntity
  8
文字
 62
     7
 48
50.0
100
AcDbText
 10
15022.63965474517
 20
11100.01374588372
 30
0.0
 40
100.0
  1
F12            1.2
  7
STYLE1
100
AcDbText
  0
TEXT
  5
13F4D
330
747D
100
AcDbEntity
  8
文字
 62
     7
 48
50.0
100
AcDbText
 10
13248.77747366447
 20
9230.013745883729
 30
0.0
 40
100.0
  1
12
  7
STYLE1
100
AcDbText
  0
TEXT
  5
13F4E
330
747D
100
AcDbEntity
  8
文字
 62
     7
 48
50.0
100
AcDbText
 10
13248.77747366447
 20
9060.013745883729
 30
0.0
 40
100.0
  1
13
  7
STYLE1
100
AcDbText
  0
LINE
  5
13F4F
330
747D
100
AcDbEntity
  8
仕様書枠
 48
50.0
100
AcDbLine
 10
16307.19999999999
 20
8859.6
 30
0.0
 11
13127.2
 21
8859.600000000002
 31
0.0
  0
LINE
  5
13F50
330
747D
100
AcDbEntity
  8
仕様書枠
 48
50.0
100
AcDbLine
 10
16307.19999999999
 20
9199.599999999996
 30
0.0
 11
13127.2
 21
9199.600000000001
 31
0.0
  0
TEXT
  5
13F51
330
747D
100
AcDbEntity
  8
文字
 62
     7
 48
50.0
100
AcDbText
 10
13248.77747366447
 20
9400.013745883729
 30
0.0
 40
100.0
  1
11
  7
STYLE1
100
AcDbText
  0
LINE
  5
13F52
330
747D
100
AcDbEntity
  8
仕様書枠
 48
50.0
100
AcDbLine
 10
16307.2
 20
9879.600000000001
 30
0.0
 11
13127.2
 21
9879.600000000001
 31
0.0
  0
LINE
  5
13F53
330
747D
100
AcDbEntity
  8
仕様書枠
 48
50.0
100
AcDbLine
 10
16307.2
 20
10219.6
 30
0.0
 11
13127.2
 21
10219.6
 31
0.0
  0
LINE
  5
13F54
330
747D
100
AcDbEntity
  8
仕様書枠
 48
50.0
100
AcDbLine
 10
16307.19999999999
 20
9539.599999999998
 30
0.0
 11
13127.2
 21
9539.6
 31
0.0
  0
LINE
  5
13F55
330
747D
100
AcDbEntity
  8
仕様書枠
 48
50.0
100
AcDbLine
 10
16307.19999999999
 20
9369.599999999996
 30
0.0
 11
13127.2
 21
9369.600000000001
 31
0.0
  0
LINE
  5
13F56
330
747D
100
AcDbEntity
  8
仕様書枠
 48
50.0
100
AcDbLine
 10
16307.19999999999
 20
9709.600000000001
 30
0.0
 11
13127.2
 21
9709.600000000001
 31
0.0
  0
TEXT
  5
13F57
330
747D
100
AcDbEntity
  8
文字
 62
     7
 48
50.0
100
AcDbText
 10
13271.19032244792
 20
10250.01374588373
 30
0.0
 40
100.0
  1
6
  7
STYLE1
100
AcDbText
  0
TEXT
  5
13F58
330
747D
100
AcDbEntity
  8
文字
 62
     7
 48
50.0
100
AcDbText
 10
13271.19032244792
 20
10080.01374588373
 30
0.0
 40
100.0
  1
7
  7
STYLE1
100
AcDbText
  0
TEXT
  5
13F59
330
747D
100
AcDbEntity
  8
文字
 62
     7
 48
50.0
100
AcDbText
 10
13271.19032244792
 20
9740.013745883729
 30
0.0
 40
100.0
  1
9
  7
STYLE1
100
AcDbText
  0
TEXT
  5
13F5A
330
747D
100
AcDbEntity
  8
文字
 62
     7
 48
50.0
100
AcDbText
 10
13271.19032244792
 20
9910.01374588373
 30
0.0
 40
100.0
  1
8
  7
STYLE1
100
AcDbText
  0
TEXT
  5
13F5B
330
747D
100
AcDbEntity
  8
文字
 62
     7
 48
50.0
100
AcDbText
 10
13583.1181901657
 20
10080.01374588372
 30
0.0
 40
100.0
  1
鼻隠シ前後
  7
STYLE1
100
AcDbText
  0
TEXT
  5
13F5C
330
747D
100
AcDbEntity
  8
文字
 62
     7
 48
50.0
100
AcDbText
 10
13583.11819016569
 20
9740.013745883729
 30
0.0
 40
100.0
  1
屋根パネル
  7
STYLE1
100
AcDbText
  0
TEXT
  5
13F5D
330
747D
100
AcDbEntity
  8
文字
 62
     7
 48
50.0
100
AcDbText
 10
13583.11819016568
 20
9400.013745883729
 30
0.0
 40
100.0
  1
壁パネル
  7
STYLE1
100
AcDbText
  0
TEXT
  5
13F5E
330
747D
100
AcDbEntity
  8
文字
 62
     7
 48
50.0
100
AcDbText
 10
13248.77747366447
 20
9570.013745883729
 30
0.0
 40
100.0
  1
10
  7
STYLE1
100
AcDbText
  0
TEXT
  5
13F5F
330
747D
100
AcDbEntity
  8
文字
 62
     7
 48
50.0
100
AcDbText
 10
13583.1181901657
 20
10250.01374588373
 30
0.0
 40
100.0
  1
妻板左右
  7
STYLE1
100
AcDbText
  0
TEXT
  5
13F60
330
747D
100
AcDbEntity
  8
文字
 62
     7
 48
50.0
100
AcDbText
 10
13271.19032244792
 20
10420.01374588372
 30
0.0
 40
100.0
  1
5
  7
STYLE1
100
AcDbText
  0
TEXT
  5
13F61
330
747D
100
AcDbEntity
  8
文字
 62
     7
 48
50.0
100
AcDbText
 10
13583.1181901657
 20
10420.01374588373
 30
0.0
 40
100.0
  1
桁前後
  7
STYLE1
100
AcDbText
  0
TEXT
  5
13F63
330
747D
100
AcDbEntity
  8
文字
 62
     7
 48
50.0
100
AcDbText
 10
13583.1181901657
 20
10760.01374588372
 30
0.0
 40
100.0
  1
柱
  7
STYLE1
100
AcDbText
  0
TEXT
  5
13F64
330
747D
100
AcDbEntity
  8
文字
 62
     7
 48
50.0
100
AcDbText
 10
13583.11819016569
 20
11100.01374588373
 30
0.0
 40
100.0
  1
土台枠
  7
STYLE1
100
AcDbText
  0
TEXT
  5
13F65
330
747D
100
AcDbEntity
  8
文字
 62
     7
 48
50.0
100
AcDbText
 10
14859.79774614482
 20
11270.01374588372
 30
0.0
 40
100.0
  1
材料（材質）　　単位mm
  7
STYLE1
100
AcDbText
  0
TEXT
  5
13F66
330
747D
100
AcDbEntity
  8
文字
 62
     7
 48
50.0
100
AcDbText
 10
13732.03840939434
 20
11270.01374588372
 30
0.0
 40
100.0
  1
部　　品　　名
  7
STYLE1
100
AcDbText
  0
TEXT
  5
13F67
330
747D
100
AcDbEntity
  8
文字
 62
     7
 48
50.0
100
AcDbText
 10
13271.19032244792
 20
10760.01374588373
 30
0.0
 40
100.0
  1
3
  7
STYLE1
100
AcDbText
  0
TEXT
  5
13F68
330
747D
100
AcDbEntity
  8
文字
 62
     7
 48
50.0
100
AcDbText
 10
13271.19032244792
 20
10590.01374588373
 30
0.0
 40
100.0
  1
4
  7
STYLE1
100
AcDbText
  0
TEXT
  5
13F69
330
747D
100
AcDbEntity
  8
文字
 62
     7
 48
50.0
100
AcDbText
 10
13271.19032244792
 20
10930.01374588373
 30
0.0
 40
100.0
  1
2
  7
STYLE1
100
AcDbText
  0
TEXT
  5
13F6A
330
747D
100
AcDbEntity
  8
文字
 62
     7
 48
50.0
100
AcDbText
 10
13271.19032244792
 20
11100.01374588373
 30
0.0
 40
100.0
  1
1
  7
STYLE1
100
AcDbText
  0
TEXT
  5
13F6B
330
747D
100
AcDbEntity
  8
文字
 62
     7
 48
50.0
100
AcDbText
 10
13197.42518560407
 20
11270.01374588372
 30
0.0
 40
100.0
  1
品番
  7
STYLE1
100
AcDbText
  0
LINE
  5
13F6C
330
747D
100
AcDbEntity
  8
仕様書枠
 48
50.0
100
AcDbLine
 10
16307.19999999999
 20
10729.6
 30
0.0
 11
13127.2
 21
10729.6
 31
0.0
  0
LINE
  5
13F6D
330
747D
100
AcDbEntity
  8
仕様書枠
 48
50.0
100
AcDbLine
 10
16307.19999999999
 20
10389.6
 30
0.0
 11
13127.2
 21
10389.6
 31
0.0
  0
LINE
  5
13F6E
330
747D
100
AcDbEntity
  8
仕様書枠
 48
50.0
100
AcDbLine
 10
16307.19999999999
 20
10559.6
 30
0.0
 11
13127.2
 21
10559.6
 31
0.0
  0
LINE
  5
13F6F
330
747D
100
AcDbEntity
  8
仕様書枠
 48
50.0
100
AcDbLine
 10
16307.2
 20
11069.6
 30
0.0
 11
13127.2
 21
11069.6
 31
0.0
  0
LINE
  5
13F70
330
747D
100
AcDbEntity
  8
仕様書枠
 48
50.0
100
AcDbLine
 10
16307.2
 20
10899.6
 30
0.0
 11
13127.2
 21
10899.6
 31
0.0
  0
LINE
  5
13F71
330
747D
100
AcDbEntity
  8
仕様書枠
 48
50.0
100
AcDbLine
 10
16307.2
 20
11239.6
 30
0.0
 11
13127.2
 21
11239.6
 31
0.0
  0
LINE
  5
13F72
330
747D
100
AcDbEntity
  8
仕様書枠
 48
50.0
100
AcDbLine
 10
13490.2
 20
11409.6
 30
0.0
 11
13490.20000000001
 21
8349.600000000007
 31
0.0
  0
LINE
  5
13F73
330
747D
100
AcDbEntity
  8
仕様書枠
 48
50.0
100
AcDbLine
 10
14785.2
 20
11409.59999999999
 30
0.0
 11
14785.2
 21
8349.600000000004
 31
0.0
  0
LINE
  5
13F74
330
747D
100
AcDbEntity
  8
仕様書枠
 48
50.0
100
AcDbLine
 10
16307.19999999999
 20
8009.600000000004
 30
0.0
 11
16307.2
 21
11409.6
 31
0.0
  0
LINE
  5
13F75
330
747D
100
AcDbEntity
  8
仕様書枠
 48
50.0
100
AcDbLine
 10
16307.2
 20
11409.6
 30
0.0
 11
13127.2
 21
11409.6
 31
0.0
  0
LINE
  5
13F76
330
747D
100
AcDbEntity
  8
仕様書枠
 48
50.0
100
AcDbLine
 10
16307.2
 20
10049.6
 30
0.0
 11
13127.2
 21
10049.6
 31
0.0
  0
TEXT
  5
13F77
330
747D
100
AcDbEntity
  8
文字
 62
     7
 48
50.0
100
AcDbText
 10
15022.63965474515
 20
8380.013745883724
 30
0.0
 40
100.0
  1
F12            2.3
  7
STYLE1
100
AcDbText
  0
TEXT
  5
13F78
330
747D
100
AcDbEntity
  8
文字
 62
     7
 48
50.0
100
AcDbText
 10
13583.11819016569
 20
8380.013745883728
 30
0.0
 40
100.0
  1
アンカープレート
  7
STYLE1
100
AcDbText
  0
TEXT
  5
14142
330
747D
100
AcDbEntity
  8
文字
 62
     7
 48
50.0
100
AcDbText
 10
14505.34213575793
 20
483.896712991141
 30
0.0
 40
160.0
  1
ＮＸＮ－８１Ｈ
  7
STYLE2
100
AcDbText
  0
LWPOLYLINE
  5
14143
330
747D
100
AcDbEntity
  8
部品1
100
AcDbPolyline
 90
        4
 70
     1
 43
0.0
 10
5407.169064814677
 20
1653.178465158146
 10
5407.169064814677
 20
1413.286143612614
 10
6170.639731043118
 20
1413.286143612614
 10
6170.639731043118
 20
1653.178465158146
  0
TEXT
  5
14144
330
747D
100
AcDbEntity
  8
部品1
100
AcDbText
 10
5497.694468552634
 20
1460.284935939622
 30
0.0
 40
135.0
  1
正面図
  7
STYLE2
100
AcDbText
  0
TEXT
  5
14145
330
747D
100
AcDbEntity
  8
部品1
100
AcDbText
 10
5497.088674643734
 20
5711.902613694689
 30
0.0
 40
135.0
  1
平面図
  7
STYLE2
100
AcDbText
  0
LWPOLYLINE
  5
14146
330
747D
100
AcDbEntity
  8
部品1
100
AcDbPolyline
 90
        4
 70
     1
 43
0.0
 10
5407.169064814691
 20
5904.796142913212
 10
5407.169064814691
 20
5664.90382136768
 10
6170.639731043134
 20
5664.90382136768
 10
6170.639731043134
 20
5904.796142913212
  0
LINE
  5
143F0
330
747D
100
AcDbEntity
  8
仕様書枠
 48
50.0
100
AcDbLine
 10
16307.19999999999
 20
8519.600000000004
 30
0.0
 11
13127.2
 21
8519.600000000004
 31
0.0
  0
LINE
  5
143F1
330
747D
100
AcDbEntity
  8
仕様書枠
 48
50.0
100
AcDbLine
 10
16307.19999999999
 20
8689.600000000003
 30
0.0
 11
13127.2
 21
8689.600000000003
 31
0.0
  0
TEXT
  5
143F2
330
747D
100
AcDbEntity
  8
文字
 62
     7
 48
50.0
100
AcDbText
 10
13583.11819016569
 20
9230.013745883729
 30
0.0
 40
100.0
  1
壁面扉鴨居
  7
STYLE1
100
AcDbText
  0
TEXT
  5
143F3
330
747D
100
AcDbEntity
  8
文字
 62
     7
 48
50.0
100
AcDbText
 10
13583.11819016569
 20
9060.013745883733
 30
0.0
 40
100.0
  1
壁面扉敷居
  7
STYLE1
100
AcDbText
  0
TEXT
  5
143F6
330
747D
100
AcDbEntity
  8
文字
 62
     7
 48
50.0
100
AcDbText
 10
15022.63965474515
 20
9230.013745883729
 30
0.0
 40
100.0
  1
F12            0.7
  7
STYLE1
100
AcDbText
  0
TEXT
  5
143F7
330
747D
100
AcDbEntity
  8
文字
 62
     7
 48
50.0
100
AcDbText
 10
15022.63965474517
 20
9060.013745883724
 30
0.0
 40
100.0
  1
F12            1.0
  7
STYLE1
100
AcDbText
  0
TEXT
  5
143F8
330
747D
100
AcDbEntity
  8
文字
 62
     7
 48
50.0
100
AcDbText
 10
13583.11819016569
 20
8890.013745883733
 30
0.0
 40
100.0
  1
壁面扉枠左右
  7
STYLE1
100
AcDbText
  0
TEXT
  5
143F9
330
747D
100
AcDbEntity
  8
文字
 62
     7
 48
50.0
100
AcDbText
 10
15022.63965474517
 20
8890.013745883726
 30
0.0
 40
100.0
  1
F12            1.0
  7
STYLE1
100
AcDbText
  0
TEXT
  5
143FA
330
747D
100
AcDbEntity
  8
文字
 62
     7
 48
50.0
100
AcDbText
 10
13248.77747366447
 20
8550.013745883729
 30
0.0
 40
100.0
  1
16
  7
STYLE1
100
AcDbText
  0
TEXT
  5
143FB
330
747D
100
AcDbEntity
  8
文字
 62
     7
 48
50.0
100
AcDbText
 10
13248.77747366447
 20
8380.013745883728
 30
0.0
 40
100.0
  1
17
  7
STYLE1
100
AcDbText
  0
TEXT
  5
143FD
330
747D
100
AcDbEntity
  8
文字
 62
     7
 48
50.0
100
AcDbText
 10
13583.1181901657
 20
9910.01374588373
 30
0.0
 40
100.0
  1
梁中
 41
0.9
  7
STYLE1
100
AcDbText
  0
TEXT
  5
143FE
330
747D
100
AcDbEntity
  8
文字
 62
     7
 48
50.0
100
AcDbText
 10
15022.63965474517
 20
9910.01374588373
 30
0.0
 40
100.0
  1
F12,Y10        1.0
  7
STYLE1
100
AcDbText
  0
DIMENSION
  5
171E6
330
747D
100
AcDbEntity
  8
寸法
 48
50.0
100
AcDbDimension
  2
*D30
 10
3578.904397928898
 20
4875.6543911615
 30
0.0
 11
5788.9043979289
 21
4875.6543911615
 31
0.0
 70
   160
  1
柱外寸法<>
 71
     5
 42
4420.000000000004
  3
INABA_S40G
100
AcDbAlignedDimension
 13
7998.904397928902
 23
4663.112805903259
 33
0.0
 14
3578.904397928898
 24
4663.112805903264
 34
0.0
100
AcDbRotatedDimension
  0
DIMENSION
  5
171E7
330
747D
100
AcDbEntity
  8
寸法
 48
50.0
100
AcDbDimension
  2
*D29
 10
7998.904397928902
 20
4875.654391161499
 30
0.0
 11
8362.389679303138
 21
4875.654391161499
 31
0.0
 70
   160
 71
     5
 42
50.0
  3
INABA_S40G
100
AcDbAlignedDimension
 13
8048.904397928902
 23
4663.112805903258
 33
0.0
 14
7998.904397928902
 24
4663.112805903259
 34
0.0
100
AcDbRotatedDimension
  0
DIMENSION
  5
171E8
330
747D
100
AcDbEntity
  8
寸法
 48
50.0
100
AcDbDimension
  2
*D28
 10
8048.904397928902
 20
5096.559691635249
 30
0.0
 11
5788.9043979289
 21
5096.559691635249
 31
0.0
 70
   160
 71
     5
 42
4520.000000000004
  3
INABA_S40G
100
AcDbAlignedDimension
 13
3528.904397928898
 23
4663.112805903263
 33
0.0
 14
8048.904397928902
 24
4663.112805903258
 34
0.0
100
AcDbRotatedDimension
  0
ARC
  5
171E9
330
747D
100
AcDbEntity
  8
部品1
100
AcDbCircle
 10
8041.495976822471
 20
4656.112805903258
 30
0.0
 40
7.0
100
AcDbArc
 50
356.7526572096623
 51
90.0
  0
ARC
  5
171EA
330
747D
100
AcDbEntity
  8
部品1
100
AcDbCircle
 10
8028.280653361433
 20
4529.11280590326
 30
0.0
 40
7.0
100
AcDbArc
 50
270.0
 51
356.7526572096623
  0
ARC
  5
171EB
330
747D
100
AcDbEntity
  8
部品1
 48
50.0
100
AcDbCircle
 10
8046.652463572113
 20
4635.779805064945
 30
0.0
 40
0.7
100
AcDbArc
 50
277.6581272073639
 51
356.7526572096103
  0
ARC
  5
171EC
330
747D
100
AcDbEntity
  8
部品1
 48
50.0
100
AcDbCircle
 10
8038.41643304727
 20
4543.579805064941
 30
0.0
 40
0.7
100
AcDbArc
 50
277.6581272073639
 51
356.7526572097143
  0
ARC
  5
171ED
330
747D
100
AcDbEntity
  8
部品1
 48
50.0
100
AcDbCircle
 10
8038.909502155831
 20
4539.912805903258
 30
0.0
 40
3.0
100
AcDbArc
 50
97.65812720736391
 51
176.7526572096623
  0
ARC
  5
171EE
330
747D
100
AcDbEntity
  8
部品1
 48
50.0
100
AcDbCircle
 10
8047.145532680676
 20
4632.11280590326
 30
0.0
 40
3.0
100
AcDbArc
 50
97.65812720736478
 51
176.7526572096623
  0
LINE
  5
171EF
330
747D
100
AcDbEntity
  8
部品1
100
AcDbLine
 10
8044.150349784489
 20
4632.282745358361
 30
0.0
 11
8039.115309056379
 21
4543.540152525419
 31
0.0
  0
LINE
  5
171F0
330
747D
100
AcDbEntity
  8
部品1
100
AcDbLine
 10
8035.914319259646
 20
4540.082745358359
 30
0.0
 11
8035.269413452532
 21
4528.71628050802
 31
0.0
  0
LINE
  5
171F1
330
747D
100
AcDbEntity
  8
細線
 48
50.0
100
AcDbLine
 10
8015.904397928903
 20
4663.112805903258
 30
0.0
 11
8015.904397928903
 21
4522.112805903257
 31
0.0
  0
LINE
  5
171F2
330
747D
100
AcDbEntity
  8
部品1
100
AcDbLine
 10
8048.484736913568
 20
4655.716280508019
 30
0.0
 11
8047.351339581222
 21
4635.740152525419
 31
0.0
  0
LINE
  5
171F3
330
747D
100
AcDbEntity
  8
部品1
 48
50.0
100
AcDbLine
 10
8028.280653361433
 20
4522.11280590326
 30
0.0
 11
3549.528142496362
 21
4522.112805903261
 31
0.0
  0
LINE
  5
171F4
330
747D
100
AcDbEntity
  8
細線
 48
50.0
100
AcDbLine
 10
8038.509716392141
 20
4542.886048466725
 30
0.0
 11
3539.299079464143
 21
4542.886048467256
 31
0.0
  0
LINE
  5
171F5
330
747D
100
AcDbEntity
  8
細線
 48
50.0
100
AcDbLine
 10
8046.745746916986
 20
4635.086048466726
 30
0.0
 11
3531.063048939312
 21
4635.086048467257
 31
0.0
  0
LINE
  5
171F6
330
747D
100
AcDbEntity
  8
部品1
 48
50.0
100
AcDbLine
 10
8041.495976822471
 20
4663.112805903258
 30
0.0
 11
3536.312819035327
 21
4663.112805903258
 31
0.0
  0
DIMENSION
  5
1723A
330
747D
100
AcDbEntity
  8
寸法
 48
50.0
100
AcDbDimension
  2
*D31
 10
3528.904397928898
 20
4875.654391161502
 30
0.0
 11
3215.419116554651
 21
4875.654391161502
 31
0.0
 70
   160
 71
     5
 42
50.0
  3
INABA_S40G
100
AcDbAlignedDimension
 13
3578.904397928898
 23
4663.112805903264
 33
0.0
 14
3528.904397928898
 24
4663.112805903263
 34
0.0
100
AcDbRotatedDimension
1001
ACAD
1000
DSTYLE
1002
{
1002
}
  0
LINE
  5
1723B
330
747D
100
AcDbEntity
  8
部品1
100
AcDbLine
 10
3529.324058944228
 20
4655.716280508022
 30
0.0
 11
3530.457456276578
 21
4635.74015252542
 31
0.0
  0
LINE
  5
1723C
330
747D
100
AcDbEntity
  8
部品1
100
AcDbLine
 10
3541.894476598154
 20
4540.082745358364
 30
0.0
 11
3542.539382405264
 21
4528.716280508024
 31
0.0
  0
LINE
  5
1723D
330
747D
100
AcDbEntity
  8
部品1
100
AcDbLine
 10
3533.658446073307
 20
4632.282745358364
 30
0.0
 11
3538.693486801418
 21
4543.540152525421
 31
0.0
  0
ARC
  5
1723E
330
747D
100
AcDbEntity
  8
部品1
 48
50.0
100
AcDbCircle
 10
3530.663263177121
 20
4632.112805903261
 30
0.0
 40
3.0
100
AcDbArc
 50
3.247342790337681
 51
82.34187279263521
  0
ARC
  5
1723F
330
747D
100
AcDbEntity
  8
部品1
 48
50.0
100
AcDbCircle
 10
3538.899293701965
 20
4539.912805903258
 30
0.0
 40
3.0
100
AcDbArc
 50
3.247342790337681
 51
82.34187279263609
  0
ARC
  5
17240
330
747D
100
AcDbEntity
  8
部品1
 48
50.0
100
AcDbCircle
 10
3539.392362810526
 20
4543.579805064943
 30
0.0
 40
0.7
100
AcDbArc
 50
183.2473427902856
 51
262.3418727926361
  0
ARC
  5
17241
330
747D
100
AcDbEntity
  8
部品1
 48
50.0
100
AcDbCircle
 10
3531.156332285686
 20
4635.779805064948
 30
0.0
 40
0.7
100
AcDbArc
 50
183.2473427903897
 51
262.3418727926361
  0
ARC
  5
17242
330
747D
100
AcDbEntity
  8
部品1
100
AcDbCircle
 10
3549.528142496362
 20
4529.112805903261
 30
0.0
 40
7.0
100
AcDbArc
 50
183.2473427903377
 51
270.0
  0
ARC
  5
17243
330
747D
100
AcDbEntity
  8
部品1
100
AcDbCircle
 10
3536.312819035327
 20
4656.112805903261
 30
0.0
 40
7.0
100
AcDbArc
 50
90.0
 51
183.2473427903377
  0
LINE
  5
17244
330
747D
100
AcDbEntity
  8
細線
 48
50.0
100
AcDbLine
 10
3561.904397928898
 20
4663.112805903261
 30
0.0
 11
3561.904397928898
 21
4522.112805903261
 31
0.0
  0
LINE
  5
17283
330
747D
100
AcDbEntity
  8
細線
100
AcDbLine
 10
4068.904397928891
 20
4487.612805903253
 30
0.0
 11
4068.904397928891
 21
4464.612805903253
 31
0.0
  0
LINE
  5
17284
330
747D
100
AcDbEntity
  8
細線
100
AcDbLine
 10
4142.90439792889
 20
4475.612805903256
 30
0.0
 11
4068.904397928891
 21
4475.612805903256
 31
0.0
  0
LINE
  5
17285
330
747D
100
AcDbEntity
  8
細線
100
AcDbLine
 10
4142.90439792889
 20
4469.612805903254
 30
0.0
 11
4068.904397928891
 21
4469.612805903254
 31
0.0
  0
LINE
  5
17286
330
747D
100
AcDbEntity
  8
細線
100
AcDbLine
 10
4142.90439792889
 20
4481.612805903253
 30
0.0
 11
4068.904397928891
 21
4481.612805903253
 31
0.0
  0
LINE
  5
17287
330
747D
100
AcDbEntity
  8
細線
100
AcDbLine
 10
3994.904397928891
 20
4481.612805903253
 30
0.0
 11
4063.904397928889
 21
4481.612805903253
 31
0.0
  0
LINE
  5
17288
330
747D
100
AcDbEntity
  8
細線
100
AcDbLine
 10
3994.904397928891
 20
4469.612805903254
 30
0.0
 11
4068.904397928891
 21
4469.612805903254
 31
0.0
  0
LINE
  5
17289
330
747D
100
AcDbEntity
  8
細線
100
AcDbLine
 10
3994.904397928891
 20
4475.612805903256
 30
0.0
 11
4068.904397928891
 21
4475.612805903256
 31
0.0
  0
LINE
  5
1728A
330
747D
100
AcDbEntity
  8
細線
100
AcDbLine
 10
3994.904397928891
 20
4481.612805903253
 30
0.0
 11
4068.904397928891
 21
4481.612805903253
 31
0.0
  0
LINE
  5
1728B
330
747D
100
AcDbEntity
  8
部品1
 48
0.01
100
AcDbLine
 10
4156.904397928889
 20
4494.112805903253
 30
0.0
 11
3980.904397928891
 21
4494.112805903253
 31
0.0
  0
LINE
  5
1728C
330
747D
100
AcDbEntity
  8
部品1
 48
0.01
100
AcDbLine
 10
3978.904397928891
 20
4492.112805903253
 30
0.0
 11
3978.904397928891
 21
4460.612805903253
 31
0.0
  0
LINE
  5
1728D
330
747D
100
AcDbEntity
  8
部品1
 48
0.01
100
AcDbLine
 10
3980.904397928891
 20
4458.612805903253
 30
0.0
 11
4156.904397928889
 21
4458.612805903253
 31
0.0
  0
LINE
  5
1728E
330
747D
100
AcDbEntity
  8
部品1
 48
0.01
100
AcDbLine
 10
4158.904397928891
 20
4460.612805903253
 30
0.0
 11
4158.904397928891
 21
4492.112805903253
 31
0.0
  0
LINE
  5
1728F
330
747D
100
AcDbEntity
  8
細線
100
AcDbLine
 10
3994.904397928891
 20
4487.612805903253
 30
0.0
 11
3994.904397928891
 21
4464.612805903253
 31
0.0
  0
LINE
  5
17290
330
747D
100
AcDbEntity
  8
細線
100
AcDbLine
 10
4142.90439792889
 20
4464.612805903253
 30
0.0
 11
4142.90439792889
 21
4487.612805903253
 31
0.0
  0
LINE
  5
17291
330
747D
100
AcDbEntity
  8
細線
100
AcDbLine
 10
4142.90439792889
 20
4487.612805903253
 30
0.0
 11
4068.904397928891
 21
4487.612805903253
 31
0.0
  0
LINE
  5
17292
330
747D
100
AcDbEntity
  8
細線
100
AcDbLine
 10
3994.904397928891
 20
4464.612805903253
 30
0.0
 11
4068.904397928891
 21
4464.612805903253
 31
0.0
  0
LINE
  5
17293
330
747D
100
AcDbEntity
  8
細線
100
AcDbLine
 10
4068.904397928891
 20
4487.612805903253
 30
0.0
 11
3994.904397928891
 21
4487.612805903253
 31
0.0
  0
LINE
  5
17294
330
747D
100
AcDbEntity
  8
細線
100
AcDbLine
 10
4068.904397928891
 20
4464.612805903253
 30
0.0
 11
4142.90439792889
 21
4464.612805903253
 31
0.0
  0
ARC
  5
17295
330
747D
100
AcDbEntity
  8
部品1
 48
0.01
100
AcDbCircle
 10
3980.904397928891
 20
4492.112805903253
 30
0.0
 40
2.0
100
AcDbArc
 50
90.0
 51
180.0
  0
ARC
  5
17296
330
747D
100
AcDbEntity
  8
部品1
 48
0.01
100
AcDbCircle
 10
3980.904397928891
 20
4460.612805903253
 30
0.0
 40
2.0
100
AcDbArc
 50
180.0
 51
270.0
  0
ARC
  5
17297
330
747D
100
AcDbEntity
  8
部品1
 48
0.01
100
AcDbCircle
 10
4156.904397928889
 20
4492.112805903253
 30
0.0
 40
2.0
100
AcDbArc
 50
0.0
 51
90.0
  0
ARC
  5
17298
330
747D
100
AcDbEntity
  8
部品1
 48
0.01
100
AcDbCircle
 10
4156.904397928889
 20
4460.612805903253
 30
0.0
 40
2.0
100
AcDbArc
 50
270.0
 51
0.0
  0
ARC
  5
17299
330
747D
100
AcDbEntity
  8
部品1
 48
0.01
100
AcDbCircle
 10
5210.904397928909
 20
4460.612805903255
 30
0.0
 40
2.0
100
AcDbArc
 50
180.0
 51
270.0
  0
ARC
  5
1729A
330
747D
100
AcDbEntity
  8
部品1
 48
0.01
100
AcDbCircle
 10
5210.904397928909
 20
4492.112805903255
 30
0.0
 40
2.0
100
AcDbArc
 50
90.0
 51
180.0
  0
ARC
  5
1729B
330
747D
100
AcDbEntity
  8
部品1
 48
0.01
100
AcDbCircle
 10
5386.904397928908
 20
4460.612805903255
 30
0.0
 40
2.0
100
AcDbArc
 50
270.0
 51
0.0
  0
ARC
  5
1729C
330
747D
100
AcDbEntity
  8
部品1
 48
0.01
100
AcDbCircle
 10
5386.904397928908
 20
4492.112805903255
 30
0.0
 40
2.0
100
AcDbArc
 50
0.0
 51
90.0
  0
LINE
  5
1729D
330
747D
100
AcDbEntity
  8
細線
100
AcDbLine
 10
5298.904397928909
 20
4464.612805903255
 30
0.0
 11
5224.904397928909
 21
4464.612805903255
 31
0.0
  0
LINE
  5
1729E
330
747D
100
AcDbEntity
  8
細線
100
AcDbLine
 10
5298.904397928909
 20
4487.612805903255
 30
0.0
 11
5372.904397928909
 21
4487.612805903255
 31
0.0
  0
LINE
  5
1729F
330
747D
100
AcDbEntity
  8
細線
100
AcDbLine
 10
5372.904397928909
 20
4464.612805903255
 30
0.0
 11
5298.904397928909
 21
4464.612805903255
 31
0.0
  0
LINE
  5
172A0
330
747D
100
AcDbEntity
  8
細線
100
AcDbLine
 10
5224.904397928909
 20
4487.612805903255
 30
0.0
 11
5298.904397928909
 21
4487.612805903255
 31
0.0
  0
LINE
  5
172A1
330
747D
100
AcDbEntity
  8
細線
100
AcDbLine
 10
5224.904397928909
 20
4464.612805903255
 30
0.0
 11
5224.904397928909
 21
4487.612805903255
 31
0.0
  0
LINE
  5
172A2
330
747D
100
AcDbEntity
  8
細線
100
AcDbLine
 10
5372.904397928909
 20
4487.612805903255
 30
0.0
 11
5372.904397928909
 21
4464.612805903255
 31
0.0
  0
LINE
  5
172A3
330
747D
100
AcDbEntity
  8
部品1
 48
0.01
100
AcDbLine
 10
5208.904397928909
 20
4460.612805903255
 30
0.0
 11
5208.904397928909
 21
4492.112805903255
 31
0.0
  0
LINE
  5
172A4
330
747D
100
AcDbEntity
  8
部品1
 48
0.01
100
AcDbLine
 10
5386.904397928908
 20
4458.612805903255
 30
0.0
 11
5210.904397928909
 21
4458.612805903255
 31
0.0
  0
LINE
  5
172A5
330
747D
100
AcDbEntity
  8
部品1
 48
0.01
100
AcDbLine
 10
5388.904397928909
 20
4492.112805903255
 30
0.0
 11
5388.904397928909
 21
4460.612805903255
 31
0.0
  0
LINE
  5
172A6
330
747D
100
AcDbEntity
  8
部品1
 48
0.01
100
AcDbLine
 10
5210.904397928909
 20
4494.112805903255
 30
0.0
 11
5386.904397928908
 21
4494.112805903255
 31
0.0
  0
LINE
  5
172A7
330
747D
100
AcDbEntity
  8
細線
100
AcDbLine
 10
5372.904397928909
 20
4481.612805903256
 30
0.0
 11
5298.904397928909
 21
4481.612805903256
 31
0.0
  0
LINE
  5
172A8
330
747D
100
AcDbEntity
  8
細線
100
AcDbLine
 10
5372.904397928909
 20
4475.612805903256
 30
0.0
 11
5298.904397928909
 21
4475.612805903256
 31
0.0
  0
LINE
  5
172A9
330
747D
100
AcDbEntity
  8
細線
100
AcDbLine
 10
5372.904397928909
 20
4469.612805903255
 30
0.0
 11
5298.904397928909
 21
4469.612805903255
 31
0.0
  0
LINE
  5
172AA
330
747D
100
AcDbEntity
  8
細線
100
AcDbLine
 10
5372.904397928909
 20
4481.612805903256
 30
0.0
 11
5303.904397928909
 21
4481.612805903256
 31
0.0
  0
LINE
  5
172AB
330
747D
100
AcDbEntity
  8
細線
100
AcDbLine
 10
5224.904397928909
 20
4481.612805903253
 30
0.0
 11
5298.904397928909
 21
4481.612805903256
 31
0.0
  0
LINE
  5
172AC
330
747D
100
AcDbEntity
  8
細線
100
AcDbLine
 10
5224.904397928909
 20
4469.612805903254
 30
0.0
 11
5298.904397928909
 21
4469.612805903255
 31
0.0
  0
LINE
  5
172AD
330
747D
100
AcDbEntity
  8
細線
100
AcDbLine
 10
5224.904397928909
 20
4475.612805903256
 30
0.0
 11
5298.904397928909
 21
4475.612805903256
 31
0.0
  0
LINE
  5
172AE
330
747D
100
AcDbEntity
  8
細線
100
AcDbLine
 10
5298.904397928909
 20
4487.612805903255
 30
0.0
 11
5298.904397928909
 21
4464.612805903255
 31
0.0
  0
LINE
  5
17308
330
747D
100
AcDbEntity
  8
細線
 48
50.0
100
AcDbLine
 10
7866.404397928903
 20
4428.112805903256
 30
0.0
 11
7866.404397928903
 21
2338.112805903256
 31
0.0
  0
LINE
  5
17309
330
747D
100
AcDbEntity
  8
細線
 48
50.0
100
AcDbLine
 10
7881.404397928903
 20
4428.112805903256
 30
0.0
 11
7881.404397928903
 21
2338.112805903256
 31
0.0
  0
LINE
  5
1730A
330
747D
100
AcDbEntity
  8
細線
 48
50.0
100
AcDbLine
 10
7741.404397928903
 20
4428.112805903256
 30
0.0
 11
7741.404397928903
 21
2338.112805903256
 31
0.0
  0
LINE
  5
1730B
330
747D
100
AcDbEntity
  8
細線
 48
50.0
100
AcDbLine
 10
7726.404397928901
 20
4428.112805903256
 30
0.0
 11
7726.404397928904
 21
2338.112805903256
 31
0.0
  0
LINE
  5
1730C
330
747D
100
AcDbEntity
  8
細線
 48
50.0
100
AcDbLine
 10
7586.404397928902
 20
4428.112805903256
 30
0.0
 11
7586.404397928902
 21
2338.112805903256
 31
0.0
  0
LINE
  5
1730D
330
747D
100
AcDbEntity
  8
細線
 48
50.0
100
AcDbLine
 10
7601.404397928901
 20
4428.112805903256
 30
0.0
 11
7601.404397928904
 21
2338.112805903256
 31
0.0
  0
LINE
  5
1730E
330
747D
100
AcDbEntity
  8
細線
 48
50.0
100
AcDbLine
 10
7181.404397928902
 20
4428.112805903256
 30
0.0
 11
7181.404397928904
 21
2338.112805903256
 31
0.0
  0
LINE
  5
1730F
330
747D
100
AcDbEntity
  8
細線
 48
50.0
100
AcDbLine
 10
7166.404397928904
 20
4428.112805903256
 30
0.0
 11
7166.404397928904
 21
2338.112805903256
 31
0.0
  0
LINE
  5
17310
330
747D
100
AcDbEntity
  8
細線
 48
50.0
100
AcDbLine
 10
7306.404397928902
 20
4428.112805903256
 30
0.0
 11
7306.404397928904
 21
2338.112805903256
 31
0.0
  0
LINE
  5
17311
330
747D
100
AcDbEntity
  8
細線
 48
50.0
100
AcDbLine
 10
7321.404397928901
 20
4428.112805903256
 30
0.0
 11
7321.404397928903
 21
2338.112805903256
 31
0.0
  0
LINE
  5
17312
330
747D
100
AcDbEntity
  8
細線
 48
50.0
100
AcDbLine
 10
7461.404397928902
 20
4428.112805903256
 30
0.0
 11
7461.404397928902
 21
2338.112805903256
 31
0.0
  0
LINE
  5
17313
330
747D
100
AcDbEntity
  8
細線
 48
50.0
100
AcDbLine
 10
7446.404397928901
 20
4428.112805903256
 30
0.0
 11
7446.404397928903
 21
2338.112805903256
 31
0.0
  0
LINE
  5
17314
330
747D
100
AcDbEntity
  8
細線
 48
50.0
100
AcDbLine
 10
6761.404397928902
 20
4428.112805903256
 30
0.0
 11
6761.404397928902
 21
2338.112805903256
 31
0.0
  0
LINE
  5
17315
330
747D
100
AcDbEntity
  8
細線
 48
50.0
100
AcDbLine
 10
6746.404397928903
 20
4428.112805903256
 30
0.0
 11
6746.404397928903
 21
2338.112805903256
 31
0.0
  0
LINE
  5
17316
330
747D
100
AcDbEntity
  8
細線
 48
50.0
100
AcDbLine
 10
6886.404397928902
 20
4428.112805903256
 30
0.0
 11
6886.404397928902
 21
2338.112805903256
 31
0.0
  0
LINE
  5
17317
330
747D
100
AcDbEntity
  8
細線
 48
50.0
100
AcDbLine
 10
6901.404397928901
 20
4428.112805903256
 30
0.0
 11
6901.404397928904
 21
2338.112805903256
 31
0.0
  0
LINE
  5
17318
330
747D
100
AcDbEntity
  8
細線
 48
50.0
100
AcDbLine
 10
7041.404397928904
 20
4428.112805903256
 30
0.0
 11
7041.404397928904
 21
2338.112805903256
 31
0.0
  0
LINE
  5
17319
330
747D
100
AcDbEntity
  8
細線
 48
50.0
100
AcDbLine
 10
7026.404397928901
 20
4428.112805903256
 30
0.0
 11
7026.404397928904
 21
2338.112805903256
 31
0.0
  0
LINE
  5
1731A
330
747D
100
AcDbEntity
  8
細線
 48
50.0
100
AcDbLine
 10
6606.404397928902
 20
4428.112805903256
 30
0.0
 11
6606.404397928904
 21
2338.112805903256
 31
0.0
  0
LINE
  5
1731B
330
747D
100
AcDbEntity
  8
細線
 48
50.0
100
AcDbLine
 10
6621.404397928903
 20
4428.112805903256
 30
0.0
 11
6621.404397928903
 21
2338.112805903256
 31
0.0
  0
LINE
  5
1731C
330
747D
100
AcDbEntity
  8
細線
 48
50.0
100
AcDbLine
 10
6481.404397928902
 20
4428.112805903256
 30
0.0
 11
6481.404397928904
 21
2338.112805903256
 31
0.0
  0
LINE
  5
1731D
330
747D
100
AcDbEntity
  8
細線
 48
50.0
100
AcDbLine
 10
6466.404397928903
 20
4428.112805903256
 30
0.0
 11
6466.404397928903
 21
2338.112805903256
 31
0.0
  0
LINE
  5
1731E
330
747D
100
AcDbEntity
  8
細線
 48
50.0
100
AcDbLine
 10
6326.404397928903
 20
4428.112805903256
 30
0.0
 11
6326.404397928904
 21
2338.112805903256
 31
0.0
  0
LINE
  5
1731F
330
747D
100
AcDbEntity
  8
細線
 48
50.0
100
AcDbLine
 10
6341.404397928902
 20
4428.112805903256
 30
0.0
 11
6341.404397928904
 21
2338.112805903256
 31
0.0
  0
LINE
  5
17320
330
747D
100
AcDbEntity
  8
細線
 48
50.0
100
AcDbLine
 10
5921.404397928903
 20
4428.112805903256
 30
0.0
 11
5921.404397928903
 21
2338.112805903256
 31
0.0
  0
LINE
  5
17321
330
747D
100
AcDbEntity
  8
細線
 48
50.0
100
AcDbLine
 10
5906.404397928902
 20
4428.112805903256
 30
0.0
 11
5906.404397928904
 21
2338.112805903256
 31
0.0
  0
LINE
  5
17322
330
747D
100
AcDbEntity
  8
細線
 48
50.0
100
AcDbLine
 10
6046.404397928903
 20
4428.112805903256
 30
0.0
 11
6046.404397928903
 21
2338.112805903256
 31
0.0
  0
LINE
  5
17323
330
747D
100
AcDbEntity
  8
細線
 48
50.0
100
AcDbLine
 10
6061.404397928903
 20
4428.112805903256
 30
0.0
 11
6061.404397928903
 21
2338.112805903256
 31
0.0
  0
LINE
  5
17324
330
747D
100
AcDbEntity
  8
細線
 48
50.0
100
AcDbLine
 10
6201.404397928903
 20
4428.112805903256
 30
0.0
 11
6201.404397928904
 21
2338.112805903256
 31
0.0
  0
LINE
  5
17325
330
747D
100
AcDbEntity
  8
細線
 48
50.0
100
AcDbLine
 10
6186.404397928903
 20
4428.112805903256
 30
0.0
 11
6186.404397928903
 21
2338.112805903256
 31
0.0
  0
LINE
  5
17326
330
747D
100
AcDbEntity
  8
細線
 48
50.0
100
AcDbLine
 10
12977.64422886715
 20
4428.112805903256
 30
0.0
 11
12977.64422886715
 21
2338.112805903256
 31
0.0
  0
LINE
  5
17327
330
747D
100
AcDbEntity
  8
細線
 48
50.0
100
AcDbLine
 10
12962.64422886715
 20
4428.112805903256
 30
0.0
 11
12962.64422886715
 21
2338.112805903256
 31
0.0
  0
LINE
  5
17328
330
747D
100
AcDbEntity
  8
細線
 48
50.0
100
AcDbLine
 10
13102.64422886715
 20
4428.112805903256
 30
0.0
 11
13102.64422886715
 21
2338.112805903256
 31
0.0
  0
LINE
  5
17329
330
747D
100
AcDbEntity
  8
細線
 48
50.0
100
AcDbLine
 10
13117.64422886715
 20
4428.112805903256
 30
0.0
 11
13117.64422886715
 21
2338.112805903256
 31
0.0
  0
LINE
  5
1732A
330
747D
100
AcDbEntity
  8
細線
 48
50.0
100
AcDbLine
 10
13257.64422886715
 20
4428.112805903256
 30
0.0
 11
13257.64422886715
 21
2338.112805903256
 31
0.0
  0
LINE
  5
1732B
330
747D
100
AcDbEntity
  8
細線
 48
50.0
100
AcDbLine
 10
13242.64422886715
 20
4428.112805903256
 30
0.0
 11
13242.64422886715
 21
2338.112805903256
 31
0.0
  0
LINE
  5
1732C
330
747D
100
AcDbEntity
  8
細線
 48
50.0
100
AcDbLine
 10
12557.64422886715
 20
4428.112805903256
 30
0.0
 11
12557.64422886715
 21
2338.112805903256
 31
0.0
  0
LINE
  5
1732D
330
747D
100
AcDbEntity
  8
細線
 48
50.0
100
AcDbLine
 10
12542.64422886715
 20
4428.112805903256
 30
0.0
 11
12542.64422886715
 21
2338.112805903256
 31
0.0
  0
LINE
  5
1732E
330
747D
100
AcDbEntity
  8
細線
 48
50.0
100
AcDbLine
 10
12682.64422886715
 20
4428.112805903256
 30
0.0
 11
12682.64422886715
 21
2338.112805903256
 31
0.0
  0
LINE
  5
1732F
330
747D
100
AcDbEntity
  8
細線
 48
50.0
100
AcDbLine
 10
12697.64422886715
 20
4428.112805903256
 30
0.0
 11
12697.64422886715
 21
2338.112805903256
 31
0.0
  0
LINE
  5
17330
330
747D
100
AcDbEntity
  8
細線
 48
50.0
100
AcDbLine
 10
12837.64422886715
 20
4428.112805903256
 30
0.0
 11
12837.64422886715
 21
2338.112805903256
 31
0.0
  0
LINE
  5
17331
330
747D
100
AcDbEntity
  8
細線
 48
50.0
100
AcDbLine
 10
12822.64422886715
 20
4428.112805903256
 30
0.0
 11
12822.64422886715
 21
2338.112805903256
 31
0.0
  0
LINE
  5
17332
330
747D
100
AcDbEntity
  8
細線
 48
50.0
100
AcDbLine
 10
12402.64422886715
 20
4428.112805903256
 30
0.0
 11
12402.64422886715
 21
2338.112805903256
 31
0.0
  0
LINE
  5
17333
330
747D
100
AcDbEntity
  8
細線
 48
50.0
100
AcDbLine
 10
12417.64422886715
 20
4428.112805903256
 30
0.0
 11
12417.64422886715
 21
2338.112805903256
 31
0.0
  0
LINE
  5
17334
330
747D
100
AcDbEntity
  8
細線
 48
50.0
100
AcDbLine
 10
12277.64422886715
 20
4428.112805903256
 30
0.0
 11
12277.64422886715
 21
2338.112805903256
 31
0.0
  0
LINE
  5
17335
330
747D
100
AcDbEntity
  8
細線
 48
50.0
100
AcDbLine
 10
12262.64422886715
 20
4428.112805903256
 30
0.0
 11
12262.64422886715
 21
2338.112805903256
 31
0.0
  0
LINE
  5
17336
330
747D
100
AcDbEntity
  8
細線
 48
50.0
100
AcDbLine
 10
12122.64422886715
 20
4428.112805903256
 30
0.0
 11
12122.64422886715
 21
2338.112805903256
 31
0.0
  0
LINE
  5
17337
330
747D
100
AcDbEntity
  8
細線
 48
50.0
100
AcDbLine
 10
12137.64422886715
 20
4428.112805903256
 30
0.0
 11
12137.64422886715
 21
2338.112805903256
 31
0.0
  0
LINE
  5
17338
330
747D
100
AcDbEntity
  8
細線
 48
50.0
100
AcDbLine
 10
11982.64422886715
 20
4428.112805903256
 30
0.0
 11
11982.64422886715
 21
2338.112805903256
 31
0.0
  0
LINE
  5
17339
330
747D
100
AcDbEntity
  8
細線
 48
50.0
100
AcDbLine
 10
11997.64422886715
 20
4428.112805903256
 30
0.0
 11
11997.64422886715
 21
2338.112805903256
 31
0.0
  0
LINE
  5
1733A
330
747D
100
AcDbEntity
  8
細線
 48
50.0
100
AcDbLine
 10
11857.64422886715
 20
4428.112805903256
 30
0.0
 11
11857.64422886715
 21
2338.112805903256
 31
0.0
  0
LINE
  5
1733B
330
747D
100
AcDbEntity
  8
細線
 48
50.0
100
AcDbLine
 10
11842.64422886715
 20
4428.112805903256
 30
0.0
 11
11842.64422886715
 21
2338.112805903256
 31
0.0
  0
LINE
  5
1733C
330
747D
100
AcDbEntity
  8
細線
 48
50.0
100
AcDbLine
 10
11702.64422886715
 20
4428.112805903256
 30
0.0
 11
11702.64422886715
 21
2338.112805903256
 31
0.0
  0
LINE
  5
1733D
330
747D
100
AcDbEntity
  8
細線
 48
50.0
100
AcDbLine
 10
11717.64422886715
 20
4428.112805903256
 30
0.0
 11
11717.64422886715
 21
2338.112805903256
 31
0.0
  0
DIMENSION
  5
1733E
330
747D
100
AcDbEntity
  8
寸法
 48
50.0
100
AcDbDimension
  2
*D35
 10
13455.14422886715
 20
5061.77025948256
 30
0.0
 11
13661.19147296164
 21
5061.77025948256
 31
0.0
 70
   160
 71
     5
 42
80.0
  3
INABA_S40G
100
AcDbAlignedDimension
 13
13375.14422886715
 23
4609.923485514911
 33
0.0
 14
13455.14422886715
 24
4608.112805903257
 34
0.0
100
AcDbRotatedDimension
1001
ACAD
1000
DSTYLE
1002
{
1070
   174
1070
     0
1070
   272
1070
     1
1070
   288
1070
     0
1070
   341
1005
0
1002
}
  0
DIMENSION
  5
1733F
330
747D
100
AcDbEntity
  8
寸法
 48
50.0
100
AcDbDimension
  2
*D34
 10
11525.14422886715
 20
5278.732074861174
 30
0.0
 11
12430.94998011811
 21
5278.732074861174
 31
0.0
 70
   160
 71
     5
 42
1930.0
  3
INABA_S40G
100
AcDbAlignedDimension
 13
13455.14422886715
 23
4608.112805903257
 33
0.0
 14
11525.14422886715
 24
4663.112805903261
 34
0.0
100
AcDbRotatedDimension
1001
ACAD
1000
DSTYLE
1002
{
1070
   174
1070
     0
1070
   272
1070
     1
1070
   288
1070
     0
1070
   341
1005
0
1002
}
  0
DIMENSION
  5
17340
330
747D
100
AcDbEntity
  8
寸法
 48
50.0
100
AcDbDimension
  2
*D32
 10
11585.14422886715
 20
5062.205975242728
 30
0.0
 11
12494.73987754363
 21
5062.205975242728
 31
0.0
 70
   160
  1
柱外寸法<>
 71
     5
 42
1790.0
  3
INABA_S40G
100
AcDbAlignedDimension
 13
13375.14422886715
 23
4609.923485514911
 33
0.0
 14
11585.14422886715
 24
4659.114424026233
 34
0.0
100
AcDbRotatedDimension
1001
ACAD
1000
DSTYLE
1002
{
1070
   174
1070
     0
1070
   272
1070
     1
1070
   288
1070
     0
1070
   341
1005
0
1002
}
  0
DIMENSION
  5
17341
330
747D
100
AcDbEntity
  8
寸法
 48
50.0
100
AcDbDimension
  2
*D33
 10
11525.14422886715
 20
5061.77025948256
 30
0.0
 11
11215.50643359155
 21
5061.77025948256
 31
0.0
 70
   160
 71
     5
 42
60.0
  3
INABA_S40G
100
AcDbAlignedDimension
 13
11585.14422886715
 23
4659.114424026233
 33
0.0
 14
11525.14422886715
 24
4663.112805903261
 34
0.0
100
AcDbRotatedDimension
1001
ACAD
1000
DSTYLE
1002
{
1070
   174
1070
     0
1070
   272
1070
     1
1070
   288
1070
     0
1070
   341
1005
0
1002
}
  0
DIMENSION
  5
17342
330
747D
100
AcDbEntity
  8
寸法
 48
50.0
100
AcDbDimension
  2
*D36
 10
10964.53582209879
 20
4537.458064776578
 30
0.0
 11
10975.20129735771
 21
4908.304728018279
 31
0.0
 70
   161
 71
     5
 42
141.0
  3
INABA_S40G
100
AcDbAlignedDimension
 13
11544.54024902572
 23
4661.835554737936
 33
0.0
 14
11540.4867934691
 24
4520.893830972222
 34
0.0
1001
ACAD
1000
DSTYLE
1002
{
1070
   174
1070
     0
1070
   272
1070
     1
1070
   288
1070
     0
1070
   341
1005
0
1002
}
  0
LINE
  5
17343
330
747D
100
AcDbEntity
  8
部品1
 48
50.0
100
AcDbLine
 10
12330.14422886714
 20
4793.980945004536
 30
0.0
 11
12630.14422886714
 21
4777.780945004535
 31
0.0
  0
TEXT
  5
17344
330
747D
100
AcDbEntity
  8
部品1
 48
50.0
100
AcDbText
 10
12807.237076155
 20
4692.363708938685
 30
0.0
 40
120.0
  1
54
 50
90.0
  7
STYLE1
100
AcDbText
  0
LINE
  5
17345
330
747D
100
AcDbEntity
  8
部品1
 48
50.0
100
AcDbLine
 10
12630.14422886714
 20
4793.980945004536
 30
0.0
 11
12630.14422886714
 21
4777.780945004535
 31
0.0
  0
LINE
  5
17346
330
747D
100
AcDbEntity
  8
部品1
 48
50.0
100
AcDbLine
 10
12330.14422886714
 20
4793.980945004536
 30
0.0
 11
12630.14422886714
 21
4793.980945004536
 31
0.0
  0
ARC
  5
17347
330
747D
100
AcDbEntity
  8
部品1
100
AcDbCircle
 10
13440.77176468108
 20
4502.136563169048
 30
0.0
 40
0.7
100
AcDbArc
 50
275.0921697642102
 51
354.1866997667087
  0
ARC
  5
17348
330
747D
100
AcDbEntity
  8
部品1
100
AcDbCircle
 10
13451.6311104304
 20
4579.179817986972
 30
0.0
 40
0.7
100
AcDbArc
 50
275.0921697642102
 51
354.1866997665532
  0
ARC
  5
17349
330
747D
100
AcDbEntity
  8
部品1
100
AcDbCircle
 10
13451.959515673
 20
4575.494421129882
 30
0.0
 40
3.0
100
AcDbArc
 50
95.09216976441955
 51
174.1866997665532
  0
ARC
  5
1734A
330
747D
100
AcDbEntity
  8
部品1
100
AcDbCircle
 10
13441.10016992368
 20
4498.451166311958
 30
0.0
 40
3.0
100
AcDbArc
 50
95.0921697642102
 51
174.1866997665532
  0
ARC
  5
1734B
330
747D
100
AcDbEntity
  8
部品1
 48
50.0
100
AcDbCircle
 10
13430.07203464858
 20
4488.860421708077
 30
0.0
 40
7.0
100
AcDbArc
 50
267.8377559871574
 51
354.1866997665532
  0
ARC
  5
1734C
330
747D
100
AcDbEntity
  8
部品1
 48
50.0
100
AcDbCircle
 10
13447.39413111309
 20
4599.762968850249
 30
0.0
 40
7.0
100
AcDbArc
 50
354.1866997665532
 51
87.03587545303976
  0
LINE
  5
1734D
330
747D
100
AcDbEntity
  8
部品1
 48
50.0
100
AcDbLine
 10
13438.11559825307
 20
4498.755028028861
 30
0.0
 11
13437.03603521333
 21
4488.151411035302
 31
0.0
  0
LINE
  5
1734E
330
747D
100
AcDbEntity
  8
部品1
 48
50.0
100
AcDbLine
 10
13448.97494400239
 20
4575.798282846785
 30
0.0
 11
13441.46816473756
 21
4502.065662101773
 31
0.0
  0
LINE
  5
1734F
330
747D
100
AcDbEntity
  8
部品1
 48
50.0
100
AcDbLine
 10
13454.35813167785
 20
4599.053958177473
 30
0.0
 11
13452.32751048687
 21
4579.108916919695
 31
0.0
  0
ARC
  5
17350
330
747D
100
AcDbEntity
  8
部品1
100
AcDbCircle
 10
11531.18132073851
 20
4541.92696486216
 30
0.0
 40
0.7
100
AcDbArc
 50
181.0932240292114
 51
260.1877540314855
  0
ARC
  5
17351
330
747D
100
AcDbEntity
  8
部品1
100
AcDbCircle
 10
11526.4086471409
 20
4634.79274306228
 30
0.0
 40
0.7
100
AcDbArc
 50
181.0932240292114
 51
260.1877540314855
  0
ARC
  5
17352
330
747D
100
AcDbEntity
  8
部品1
100
AcDbCircle
 10
11525.77809273788
 20
4631.146868524882
 30
0.0
 40
3.0
100
AcDbArc
 50
1.093224029263535
 51
80.18775403148559
  0
ARC
  5
17353
330
747D
100
AcDbEntity
  8
部品1
100
AcDbCircle
 10
11530.55076633548
 20
4538.281090324763
 30
0.0
 40
3.0
100
AcDbArc
 50
1.093224029263535
 51
80.18775403148559
  0
ARC
  5
17354
330
747D
100
AcDbEntity
  8
部品1
 48
50.0
100
AcDbCircle
 10
11540.75089871069
 20
4527.888846942281
 30
0.0
 40
7.0
100
AcDbArc
 50
181.0932240292635
 51
267.8377559871574
  0
ARC
  5
17355
330
747D
100
AcDbEntity
  8
部品1
 48
50.0
100
AcDbCircle
 10
11532.32724060859
 20
4654.839906475376
 30
0.0
 40
7.0
100
AcDbArc
 50
87.03587545303976
 51
181.0932240292635
  0
LINE
  5
17356
330
747D
100
AcDbEntity
  8
部品1
 48
50.0
100
AcDbLine
 10
11533.55022026192
 20
4538.338327927946
 30
0.0
 11
11533.75217288235
 21
4527.755292534854
 31
0.0
  0
LINE
  5
17357
330
747D
100
AcDbEntity
  8
細線
 48
50.0
100
AcDbLine
 10
11530.94412720524
 20
4541.268376046754
 30
0.0
 11
13440.94779163588
 21
4501.45905707226
 31
0.0
  0
LINE
  5
17358
330
747D
100
AcDbEntity
  8
細線
 48
50.0
100
AcDbLine
 10
11526.18365196796
 20
4634.129887744617
 30
0.0
 11
13451.81963671313
 21
4578.50568310379
 31
0.0
  0
LINE
  5
17359
330
747D
100
AcDbEntity
  8
部品1
 48
50.0
100
AcDbLine
 10
11528.77754666431
 20
4631.204106128065
 30
0.0
 11
11530.48144815568
 21
4541.913609421418
 31
0.0
  0
LINE
  5
1735A
330
747D
100
AcDbEntity
  8
部品1
 48
50.0
100
AcDbLine
 10
11525.32851478025
 20
4654.706352067949
 30
0.0
 11
11525.70877455806
 21
4634.779387621536
 31
0.0
  0
LINE
  5
1735B
330
747D
100
AcDbEntity
  8
細線
 48
50.0
100
AcDbLine
 10
13422.14422886714
 20
4608.079784938552
 30
0.0
 11
13417.39654597914
 21
4482.334012447807
 31
0.0
  0
LINE
  5
1735C
330
747D
100
AcDbEntity
  8
細線
 48
50.0
100
AcDbLine
 10
11558.14422886715
 20
4660.512482278661
 30
0.0
 11
11552.85512731164
 21
4520.426849651307
 31
0.0
  0
LINE
  5
1735D
330
747D
100
AcDbEntity
  8
部品1
100
AcDbLine
 10
11540.4867934691
 20
4520.893830972222
 30
0.0
 11
13429.80792940699
 21
4481.865405738018
 31
0.0
  0
LINE
  5
1735E
330
747D
100
AcDbEntity
  8
部品1
100
AcDbLine
 10
11532.68921522411
 20
4661.830541237523
 30
0.0
 11
13447.7561057286
 21
4606.753603612395
 31
0.0
  0
TEXT
  5
1735F
330
747D
100
AcDbEntity
  8
部品1
 48
50.0
100
AcDbText
 10
12318.41206409087
 20
4829.864967156969
 30
0.0
 40
120.0
  1
1000
  7
STYLE1
100
AcDbText
  0
DIMENSION
  5
173D1
330
747D
100
AcDbEntity
  8
寸法
100
AcDbDimension
  2
*D37
 10
10441.39409968389
 20
4663.112805903262
 30
0.0
 11
10341.38228866026
 21
3475.612805903261
 31
0.0
 70
    32
 71
     5
 42
2375.000000000005
  3
INABA_S40G
100
AcDbAlignedDimension
 13
11508.14422886714
 23
2288.112805903256
 33
0.0
 14
11525.14422886715
 24
4663.112805903262
 34
0.0
 50
90.0
100
AcDbRotatedDimension
1001
ACAD
1000
DSTYLE
1002
{
1070
   174
1070
     0
1070
   272
1070
     1
1070
   288
1070
     0
1070
   341
1005
0
1002
}
  0
LINE
  5
1741E
330
747D
100
AcDbEntity
  8
細線
100
AcDbLine
 10
7508.904397928907
 20
4487.612805903255
 30
0.0
 11
7508.904397928907
 21
4464.612805903255
 31
0.0
  0
LINE
  5
1741F
330
747D
100
AcDbEntity
  8
細線
100
AcDbLine
 10
7434.904397928909
 20
4475.612805903256
 30
0.0
 11
7508.904397928907
 21
4475.612805903256
 31
0.0
  0
LINE
  5
17420
330
747D
100
AcDbEntity
  8
細線
100
AcDbLine
 10
7434.904397928909
 20
4469.612805903254
 30
0.0
 11
7508.904397928907
 21
4469.612805903255
 31
0.0
  0
LINE
  5
17421
330
747D
100
AcDbEntity
  8
細線
100
AcDbLine
 10
7434.904397928909
 20
4481.612805903253
 30
0.0
 11
7508.904397928907
 21
4481.612805903256
 31
0.0
  0
LINE
  5
17422
330
747D
100
AcDbEntity
  8
細線
100
AcDbLine
 10
7582.90439792891
 20
4481.612805903256
 30
0.0
 11
7513.90439792891
 21
4481.612805903256
 31
0.0
  0
LINE
  5
17423
330
747D
100
AcDbEntity
  8
細線
100
AcDbLine
 10
7582.90439792891
 20
4469.612805903255
 30
0.0
 11
7508.904397928907
 21
4469.612805903255
 31
0.0
  0
LINE
  5
17424
330
747D
100
AcDbEntity
  8
細線
100
AcDbLine
 10
7582.90439792891
 20
4475.612805903256
 30
0.0
 11
7508.904397928907
 21
4475.612805903256
 31
0.0
  0
LINE
  5
17425
330
747D
100
AcDbEntity
  8
細線
100
AcDbLine
 10
7582.90439792891
 20
4481.612805903256
 30
0.0
 11
7508.904397928907
 21
4481.612805903256
 31
0.0
  0
LINE
  5
17426
330
747D
100
AcDbEntity
  8
部品1
 48
0.01
100
AcDbLine
 10
7420.904397928909
 20
4494.112805903255
 30
0.0
 11
7596.904397928909
 21
4494.112805903255
 31
0.0
  0
LINE
  5
17427
330
747D
100
AcDbEntity
  8
部品1
 48
0.01
100
AcDbLine
 10
7598.904397928909
 20
4492.112805903255
 30
0.0
 11
7598.904397928909
 21
4460.612805903255
 31
0.0
  0
LINE
  5
17428
330
747D
100
AcDbEntity
  8
部品1
 48
0.01
100
AcDbLine
 10
7596.904397928909
 20
4458.612805903255
 30
0.0
 11
7420.904397928909
 21
4458.612805903255
 31
0.0
  0
LINE
  5
17429
330
747D
100
AcDbEntity
  8
部品1
 48
0.01
100
AcDbLine
 10
7418.904397928909
 20
4460.612805903255
 30
0.0
 11
7418.904397928909
 21
4492.112805903255
 31
0.0
  0
LINE
  5
1742A
330
747D
100
AcDbEntity
  8
細線
100
AcDbLine
 10
7582.90439792891
 20
4487.612805903255
 30
0.0
 11
7582.90439792891
 21
4464.612805903255
 31
0.0
  0
LINE
  5
1742B
330
747D
100
AcDbEntity
  8
細線
100
AcDbLine
 10
7434.904397928909
 20
4464.612805903255
 30
0.0
 11
7434.904397928909
 21
4487.612805903255
 31
0.0
  0
LINE
  5
1742C
330
747D
100
AcDbEntity
  8
細線
100
AcDbLine
 10
7434.904397928909
 20
4487.612805903255
 30
0.0
 11
7508.904397928907
 21
4487.612805903255
 31
0.0
  0
LINE
  5
1742D
330
747D
100
AcDbEntity
  8
細線
100
AcDbLine
 10
7582.90439792891
 20
4464.612805903255
 30
0.0
 11
7508.904397928907
 21
4464.612805903255
 31
0.0
  0
LINE
  5
1742E
330
747D
100
AcDbEntity
  8
細線
100
AcDbLine
 10
7508.904397928907
 20
4487.612805903255
 30
0.0
 11
7582.90439792891
 21
4487.612805903255
 31
0.0
  0
LINE
  5
1742F
330
747D
100
AcDbEntity
  8
細線
100
AcDbLine
 10
7508.904397928907
 20
4464.612805903255
 30
0.0
 11
7434.904397928909
 21
4464.612805903255
 31
0.0
  0
ARC
  5
17430
330
747D
100
AcDbEntity
  8
部品1
 48
0.01
100
AcDbCircle
 10
7596.904397928909
 20
4492.112805903255
 30
0.0
 40
2.0
100
AcDbArc
 50
0.0
 51
90.0
  0
ARC
  5
17431
330
747D
100
AcDbEntity
  8
部品1
 48
0.01
100
AcDbCircle
 10
7596.904397928909
 20
4460.612805903255
 30
0.0
 40
2.0
100
AcDbArc
 50
270.0
 51
0.0
  0
ARC
  5
17432
330
747D
100
AcDbEntity
  8
部品1
 48
0.01
100
AcDbCircle
 10
7420.904397928909
 20
4492.112805903255
 30
0.0
 40
2.0
100
AcDbArc
 50
90.0
 51
180.0
  0
ARC
  5
17433
330
747D
100
AcDbEntity
  8
部品1
 48
0.01
100
AcDbCircle
 10
7420.904397928909
 20
4460.612805903255
 30
0.0
 40
2.0
100
AcDbArc
 50
180.0
 51
270.0
  0
ARC
  5
17434
330
747D
100
AcDbEntity
  8
部品1
 48
0.01
100
AcDbCircle
 10
6366.904397928892
 20
4460.612805903253
 30
0.0
 40
2.0
100
AcDbArc
 50
270.0
 51
0.0
  0
ARC
  5
17435
330
747D
100
AcDbEntity
  8
部品1
 48
0.01
100
AcDbCircle
 10
6366.904397928892
 20
4492.112805903253
 30
0.0
 40
2.0
100
AcDbArc
 50
0.0
 51
90.0
  0
ARC
  5
17436
330
747D
100
AcDbEntity
  8
部品1
 48
0.01
100
AcDbCircle
 10
6190.904397928892
 20
4460.612805903253
 30
0.0
 40
2.0
100
AcDbArc
 50
180.0
 51
270.0
  0
ARC
  5
17437
330
747D
100
AcDbEntity
  8
部品1
 48
0.01
100
AcDbCircle
 10
6190.904397928892
 20
4492.112805903253
 30
0.0
 40
2.0
100
AcDbArc
 50
90.0
 51
180.0
  0
LINE
  5
17438
330
747D
100
AcDbEntity
  8
細線
100
AcDbLine
 10
6278.904397928892
 20
4464.612805903253
 30
0.0
 11
6352.904397928892
 21
4464.612805903253
 31
0.0
  0
LINE
  5
17439
330
747D
100
AcDbEntity
  8
細線
100
AcDbLine
 10
6278.904397928892
 20
4487.612805903253
 30
0.0
 11
6204.904397928892
 21
4487.612805903253
 31
0.0
  0
LINE
  5
1743A
330
747D
100
AcDbEntity
  8
細線
100
AcDbLine
 10
6204.904397928892
 20
4464.612805903253
 30
0.0
 11
6278.904397928892
 21
4464.612805903253
 31
0.0
  0
LINE
  5
1743B
330
747D
100
AcDbEntity
  8
細線
100
AcDbLine
 10
6352.904397928892
 20
4487.612805903253
 30
0.0
 11
6278.904397928892
 21
4487.612805903253
 31
0.0
  0
LINE
  5
1743C
330
747D
100
AcDbEntity
  8
細線
100
AcDbLine
 10
6352.904397928892
 20
4464.612805903253
 30
0.0
 11
6352.904397928892
 21
4487.612805903253
 31
0.0
  0
LINE
  5
1743D
330
747D
100
AcDbEntity
  8
細線
100
AcDbLine
 10
6204.904397928892
 20
4487.612805903253
 30
0.0
 11
6204.904397928892
 21
4464.612805903253
 31
0.0
  0
LINE
  5
1743E
330
747D
100
AcDbEntity
  8
部品1
 48
0.01
100
AcDbLine
 10
6368.904397928892
 20
4460.612805903253
 30
0.0
 11
6368.904397928892
 21
4492.112805903253
 31
0.0
  0
LINE
  5
1743F
330
747D
100
AcDbEntity
  8
部品1
 48
0.01
100
AcDbLine
 10
6190.904397928892
 20
4458.612805903253
 30
0.0
 11
6366.904397928892
 21
4458.612805903253
 31
0.0
  0
LINE
  5
17440
330
747D
100
AcDbEntity
  8
部品1
 48
0.01
100
AcDbLine
 10
6188.90439792889
 20
4492.112805903253
 30
0.0
 11
6188.90439792889
 21
4460.612805903253
 31
0.0
  0
LINE
  5
17441
330
747D
100
AcDbEntity
  8
部品1
 48
0.01
100
AcDbLine
 10
6366.904397928892
 20
4494.112805903253
 30
0.0
 11
6190.904397928892
 21
4494.112805903253
 31
0.0
  0
LINE
  5
17442
330
747D
100
AcDbEntity
  8
細線
100
AcDbLine
 10
6204.904397928892
 20
4481.612805903253
 30
0.0
 11
6278.904397928892
 21
4481.612805903253
 31
0.0
  0
LINE
  5
17443
330
747D
100
AcDbEntity
  8
細線
100
AcDbLine
 10
6204.904397928892
 20
4475.612805903256
 30
0.0
 11
6278.904397928892
 21
4475.612805903256
 31
0.0
  0
LINE
  5
17444
330
747D
100
AcDbEntity
  8
細線
100
AcDbLine
 10
6204.904397928892
 20
4469.612805903254
 30
0.0
 11
6278.904397928892
 21
4469.612805903254
 31
0.0
  0
LINE
  5
17445
330
747D
100
AcDbEntity
  8
細線
100
AcDbLine
 10
6204.904397928892
 20
4481.612805903253
 30
0.0
 11
6273.904397928891
 21
4481.612805903253
 31
0.0
  0
LINE
  5
17446
330
747D
100
AcDbEntity
  8
細線
100
AcDbLine
 10
6352.904397928892
 20
4481.612805903253
 30
0.0
 11
6278.904397928892
 21
4481.612805903253
 31
0.0
  0
LINE
  5
17447
330
747D
100
AcDbEntity
  8
細線
100
AcDbLine
 10
6352.904397928892
 20
4469.612805903254
 30
0.0
 11
6278.904397928892
 21
4469.612805903254
 31
0.0
  0
LINE
  5
17448
330
747D
100
AcDbEntity
  8
細線
100
AcDbLine
 10
6352.904397928892
 20
4475.612805903256
 30
0.0
 11
6278.904397928892
 21
4475.612805903256
 31
0.0
  0
LINE
  5
17449
330
747D
100
AcDbEntity
  8
細線
100
AcDbLine
 10
6278.904397928892
 20
4487.612805903253
 30
0.0
 11
6278.904397928892
 21
4464.612805903253
 31
0.0
  0
LINE
  5
174DE
330
747D
100
AcDbEntity
  8
部品1
 48
50.0
100
AcDbLine
 10
4434.9043979289
 20
4371.112805903256
 30
0.0
 11
4434.9043979289
 21
2338.112805903255
 31
0.0
  0
LINE
  5
174DF
330
747D
100
AcDbEntity
  8
部品1
100
AcDbLine
 10
5085.904397928892
 20
4371.112805903256
 30
0.0
 11
5085.904397928896
 21
2345.61280590327
 31
0.0
  0
LINE
  5
174E0
330
747D
100
AcDbEntity
  8
細線
100
AcDbLine
 10
4340.9043979289
 20
4371.112805903256
 30
0.0
 11
4340.904397928897
 21
2338.112805903262
 31
0.0
  0
LINE
  5
174E1
330
747D
100
AcDbEntity
  8
細線
100
AcDbLine
 10
4270.9043979289
 20
4371.112805903256
 30
0.0
 11
4270.904397928896
 21
2338.112805903262
 31
0.0
  0
LINE
  5
174E2
330
747D
100
AcDbEntity
  8
細線
100
AcDbLine
 10
4200.9043979289
 20
4371.112805903256
 30
0.0
 11
4200.904397928896
 21
2338.112805903261
 31
0.0
  0
LINE
  5
174E3
330
747D
100
AcDbEntity
  8
細線
100
AcDbLine
 10
4130.9043979289
 20
4371.112805903256
 30
0.0
 11
4130.904397928897
 21
2338.112805903259
 31
0.0
  0
LINE
  5
174E4
330
747D
100
AcDbEntity
  8
細線
100
AcDbLine
 10
4060.9043979289
 20
4371.112805903256
 30
0.0
 11
4060.904397928896
 21
2338.112805903259
 31
0.0
  0
LINE
  5
174E5
330
747D
100
AcDbEntity
  8
細線
100
AcDbLine
 10
3990.9043979289
 20
4371.112805903256
 30
0.0
 11
3990.904397928897
 21
2338.112805903259
 31
0.0
  0
LINE
  5
174E6
330
747D
100
AcDbEntity
  8
部品1
100
AcDbLine
 10
3806.904397928896
 20
4371.112805903256
 30
0.0
 11
3806.9043979289
 21
2338.112805903261
 31
0.0
  0
LINE
  5
174E7
330
747D
100
AcDbEntity
  8
部品1
100
AcDbLine
 10
3756.904397928896
 20
4371.112805903256
 30
0.0
 11
3756.9043979289
 21
2338.112805903261
 31
0.0
  0
LINE
  5
174E8
330
747D
100
AcDbEntity
  8
細線
100
AcDbLine
 10
3798.904397928897
 20
4371.112805903256
 30
0.0
 11
3798.9043979289
 21
2338.112805903261
 31
0.0
  0
LINE
  5
174E9
330
747D
100
AcDbEntity
  8
細線
100
AcDbLine
 10
3764.904397928896
 20
4371.112805903256
 30
0.0
 11
3764.9043979289
 21
2338.112805903261
 31
0.0
  0
LINE
  5
174EA
330
747D
100
AcDbEntity
  8
細線
100
AcDbLine
 10
4984.9043979289
 20
4371.112805903256
 30
0.0
 11
4984.9043979289
 21
2345.612805903268
 31
0.0
  0
LINE
  5
174EB
330
747D
100
AcDbEntity
  8
細線
100
AcDbLine
 10
4914.9043979289
 20
4371.112805903256
 30
0.0
 11
4914.9043979289
 21
2345.612805903268
 31
0.0
  0
LINE
  5
174EC
330
747D
100
AcDbEntity
  8
細線
100
AcDbLine
 10
4844.9043979289
 20
4371.112805903256
 30
0.0
 11
4844.9043979289
 21
2345.612805903268
 31
0.0
  0
LINE
  5
174ED
330
747D
100
AcDbEntity
  8
細線
100
AcDbLine
 10
4774.904397928898
 20
4371.112805903256
 30
0.0
 11
4774.904397928898
 21
2345.612805903268
 31
0.0
  0
LINE
  5
174EE
330
747D
100
AcDbEntity
  8
細線
100
AcDbLine
 10
4704.9043979289
 20
4371.112805903256
 30
0.0
 11
4704.9043979289
 21
2345.612805903268
 31
0.0
  0
LINE
  5
174EF
330
747D
100
AcDbEntity
  8
細線
100
AcDbLine
 10
4634.9043979289
 20
4371.112805903256
 30
0.0
 11
4634.9043979289
 21
2345.612805903268
 31
0.0
  0
LINE
  5
174F0
330
747D
100
AcDbEntity
  8
細線
100
AcDbLine
 10
5570.4043979289
 20
4371.112805903256
 30
0.0
 11
5570.4043979289
 21
2345.612805903273
 31
0.0
  0
LINE
  5
174F1
330
747D
100
AcDbEntity
  8
細線
100
AcDbLine
 10
5500.4043979289
 20
4371.112805903256
 30
0.0
 11
5500.4043979289
 21
2345.612805903273
 31
0.0
  0
LINE
  5
174F2
330
747D
100
AcDbEntity
  8
細線
100
AcDbLine
 10
5430.404397928899
 20
4371.112805903256
 30
0.0
 11
5430.404397928899
 21
2345.612805903273
 31
0.0
  0
LINE
  5
174F3
330
747D
100
AcDbEntity
  8
細線
100
AcDbLine
 10
5360.4043979289
 20
4371.112805903256
 30
0.0
 11
5360.4043979289
 21
2345.612805903273
 31
0.0
  0
LINE
  5
174F4
330
747D
100
AcDbEntity
  8
細線
100
AcDbLine
 10
5290.4043979289
 20
4371.112805903256
 30
0.0
 11
5290.4043979289
 21
2345.612805903273
 31
0.0
  0
LINE
  5
174F8
330
747D
100
AcDbEntity
  8
部品1
 48
50.0
100
AcDbLine
 10
3680.9043979289
 20
3419.612805903256
 30
0.0
 11
3733.9043979289
 21
3419.612805903256
 31
0.0
  0
LINE
  5
17512
330
747D
100
AcDbEntity
  8
細線
100
AcDbLine
 10
3920.9043979289
 20
4371.112805903256
 30
0.0
 11
3920.904397928897
 21
2338.112805903259
 31
0.0
  0
LINE
  5
17513
330
747D
100
AcDbEntity
  8
細線
100
AcDbLine
 10
3850.9043979289
 20
4371.112805903256
 30
0.0
 11
3850.904397928896
 21
2338.112805903259
 31
0.0
  0
LINE
  5
17514
330
747D
100
AcDbEntity
  8
細線
100
AcDbLine
 10
4564.904397928899
 20
4371.112805903256
 30
0.0
 11
4564.904397928899
 21
2345.612805903268
 31
0.0
  0
LINE
  5
17515
330
747D
100
AcDbEntity
  8
細線
100
AcDbLine
 10
4494.9043979289
 20
4371.112805903256
 30
0.0
 11
4494.9043979289
 21
2345.612805903268
 31
0.0
  0
LINE
  5
17516
330
747D
100
AcDbEntity
  8
細線
100
AcDbLine
 10
5220.404397928898
 20
4371.112805903256
 30
0.0
 11
5220.404397928898
 21
2345.612805903273
 31
0.0
  0
LINE
  5
1751B
330
747D
100
AcDbEntity
  8
部品1
 48
50.0
100
AcDbLine
 10
5760.9043979289
 20
4379.112805903253
 30
0.0
 11
5730.9043979289
 21
4379.112805903253
 31
0.0
  0
LINE
  5
1751D
330
747D
100
AcDbEntity
  8
細線
 48
50.0
100
AcDbLine
 10
5708.9043979289
 20
2335.112805903254
 30
0.0
 11
5704.9043979289
 21
2345.612805903254
 31
0.0
  0
LINE
  5
1751E
330
747D
100
AcDbEntity
  8
部品1
 48
50.0
100
AcDbLine
 10
5085.904397928899
 20
4371.112805903254
 30
0.0
 11
5085.904397928899
 21
2345.612805903254
 31
0.0
  0
LINE
  5
1751F
330
747D
100
AcDbEntity
  8
部品1
 48
50.0
100
AcDbLine
 10
5760.9043979289
 20
2288.112805903255
 30
0.0
 11
5760.9043979289
 21
4423.112805903254
 31
0.0
  0
LINE
  5
17520
330
747D
100
AcDbEntity
  8
細線
 48
50.0
100
AcDbLine
 10
5730.9043979289
 20
2288.112805903255
 30
0.0
 11
5730.9043979289
 21
4380.612805903253
 31
0.0
  0
LINE
  5
17521
330
747D
100
AcDbEntity
  8
部品1
 48
50.0
100
AcDbLine
 10
5721.904397928899
 20
2335.112805903254
 30
0.0
 11
5721.904397928899
 21
4371.112805903254
 31
0.0
  0
LINE
  5
17522
330
747D
100
AcDbEntity
  8
部品1
 48
50.0
100
AcDbLine
 10
3636.9043979289
 20
4379.112805903253
 30
0.0
 11
3606.9043979289
 21
4379.112805903253
 31
0.0
  0
LINE
  5
17524
330
747D
100
AcDbEntity
  8
部品1
 48
50.0
100
AcDbLine
 10
3645.9043979289
 20
2338.112805903254
 30
0.0
 11
3645.9043979289
 21
2335.112805903254
 31
0.0
  0
LINE
  5
17525
330
747D
100
AcDbEntity
  8
部品1
 48
50.0
100
AcDbLine
 10
3636.9043979289
 20
2338.112805903254
 30
0.0
 11
4434.9043979289
 21
2338.112805903254
 31
0.0
  0
LINE
  5
17526
330
747D
100
AcDbEntity
  8
部品1
 48
50.0
100
AcDbLine
 10
4434.9043979289
 20
4371.112805903254
 30
0.0
 11
4434.9043979289
 21
2338.112805903254
 31
0.0
  0
LINE
  5
17528
330
747D
100
AcDbEntity
  8
部品1
 48
50.0
100
AcDbLine
 10
3606.9043979289
 20
4423.112805903254
 30
0.0
 11
3606.9043979289
 21
2288.112805903255
 31
0.0
  0
LINE
  5
17529
330
747D
100
AcDbEntity
  8
細線
 48
50.0
100
AcDbLine
 10
3636.9043979289
 20
4380.612805903253
 30
0.0
 11
3636.9043979289
 21
2288.112805903255
 31
0.0
  0
LINE
  5
1752A
330
747D
100
AcDbEntity
  8
部品1
 48
50.0
100
AcDbLine
 10
3636.9043979289
 20
2338.112805903254
 30
0.0
 11
3636.9043979289
 21
4371.112805903254
 31
0.0
  0
LINE
  5
1752B
330
747D
100
AcDbEntity
  8
細線
 48
50.0
100
AcDbLine
 10
4434.9043979289
 20
2345.612805903254
 30
0.0
 11
5704.9043979289
 21
2345.612805903254
 31
0.0
  0
LINE
  5
1752C
330
747D
100
AcDbEntity
  8
細線
 48
50.0
100
AcDbLine
 10
3636.9043979289
 20
2335.112805903254
 30
0.0
 11
5730.9043979289
 21
2335.112805903254
 31
0.0
  0
LINE
  5
1752D
330
747D
100
AcDbEntity
  8
細線
 48
50.0
100
AcDbLine
 10
3636.9043979289
 20
2331.112805903254
 30
0.0
 11
5730.9043979289
 21
2331.112805903254
 31
0.0
  0
LINE
  5
1752E
330
747D
100
AcDbEntity
  8
部品1
 48
50.0
100
AcDbLine
 10
3606.9043979289
 20
2288.112805903255
 30
0.0
 11
5760.9043979289
 21
2288.112805903255
 31
0.0
  0
LINE
  5
1752F
330
747D
100
AcDbEntity
  8
細線
 48
50.0
100
AcDbLine
 10
5730.9043979289
 20
4380.612805903253
 30
0.0
 11
3636.9043979289
 21
4380.612805903253
 31
0.0
  0
LINE
  5
17530
330
747D
100
AcDbEntity
  8
細線
 48
50.0
100
AcDbLine
 10
5730.9043979289
 20
4371.112805903254
 30
0.0
 11
3636.9043979289
 21
4371.112805903254
 31
0.0
  0
LINE
  5
17531
330
747D
100
AcDbEntity
  8
細線
 48
50.0
100
AcDbLine
 10
5760.9043979289
 20
4413.112805903256
 30
0.0
 11
3606.9043979289
 21
4413.112805903256
 31
0.0
  0
LINE
  5
17532
330
747D
100
AcDbEntity
  8
部品1
 48
50.0
100
AcDbLine
 10
5760.9043979289
 20
4423.112805903254
 30
0.0
 11
3606.9043979289
 21
4423.112805903254
 31
0.0
  0
LINE
  5
17587
330
747D
100
AcDbEntity
  8
部品1
100
AcDbLine
 10
3633.9043979289
 20
4428.112805903257
 30
0.0
 11
3633.9043979289
 21
4423.112805903254
 31
0.0
  0
LINE
  5
1759D
330
747D
100
AcDbEntity
  8
部品1
100
AcDbLine
 10
5733.904397928898
 20
4428.112805903256
 30
0.0
 11
5733.904397928899
 21
4423.112805903254
 31
0.0
  0
LINE
  5
175E2
330
747D
100
AcDbEntity
  8
部品1
100
AcDbLine
 10
11508.14422886715
 20
4413.799910811657
 30
0.0
 11
11585.14422886715
 21
4428.112805903256
 31
0.0
  0
LINE
  5
18066
330
747D
100
AcDbEntity
  8
破線
 48
10.0
100
AcDbLine
 10
4363.404397928912
 20
7571.507603031861
 30
0.0
 11
4363.404397928916
 21
9251.507603031864
 31
0.0
  0
LINE
  5
18067
330
747D
100
AcDbEntity
  8
破線
 48
10.0
100
AcDbLine
 10
4313.404397928922
 20
7571.507603031861
 30
0.0
 11
4313.404397928912
 21
9251.507603031864
 31
0.0
  0
LINE
  5
18068
330
747D
100
AcDbEntity
  8
破線
 48
10.0
100
AcDbLine
 10
5004.404397928919
 20
7571.507603031858
 30
0.0
 11
5004.404397928914
 21
9251.507603031866
 31
0.0
  0
LINE
  5
18069
330
747D
100
AcDbEntity
  8
破線
 48
10.0
100
AcDbLine
 10
5054.404397928909
 20
7571.507603031858
 30
0.0
 11
5054.404397928919
 21
9251.507603031866
 31
0.0
  0
LINE
  5
1806A
330
747D
100
AcDbEntity
  8
破線
  6
HIDDEN
 48
10.0
100
AcDbLine
 10
4363.404397928916
 20
9228.007603031858
 30
0.0
 11
5004.404397928914
 21
9228.007603031853
 31
0.0
  0
LINE
  5
1806B
330
747D
100
AcDbEntity
  8
破線
  6
HIDDEN
 48
10.0
100
AcDbLine
 10
4363.404397928912
 20
7595.007603031858
 30
0.0
 11
5004.404397928919
 21
7595.007603031856
 31
0.0
  0
LINE
  5
1806C
330
747D
100
AcDbEntity
  8
破線
 48
10.0
100
AcDbLine
 10
7264.404397928912
 20
7571.507603031858
 30
0.0
 11
7264.404397928922
 21
9251.507603031866
 31
0.0
  0
LINE
  5
1806D
330
747D
100
AcDbEntity
  8
破線
 48
10.0
100
AcDbLine
 10
7214.404397928922
 20
7571.507603031858
 30
0.0
 11
7214.404397928918
 21
9251.507603031866
 31
0.0
  0
LINE
  5
1806E
330
747D
100
AcDbEntity
  8
破線
 48
10.0
100
AcDbLine
 10
6523.404397928924
 20
7571.507603031863
 30
0.0
 11
6523.404397928917
 21
9251.507603031866
 31
0.0
  0
LINE
  5
1806F
330
747D
100
AcDbEntity
  8
破線
 48
10.0
100
AcDbLine
 10
6573.404397928917
 20
7571.507603031863
 30
0.0
 11
6573.404397928921
 21
9251.507603031866
 31
0.0
  0
LINE
  5
18070
330
747D
100
AcDbEntity
  8
破線
  6
HIDDEN
 48
10.0
100
AcDbLine
 10
5867.404397928898
 20
9228.007603031867
 30
0.0
 11
6523.404397928917
 21
9228.00760303186
 31
0.0
  0
LINE
  5
18071
330
747D
100
AcDbEntity
  8
破線
  6
HIDDEN
 48
10.0
100
AcDbLine
 10
6573.404397928921
 20
9228.00760303186
 30
0.0
 11
7214.404397928918
 21
9228.007603031853
 31
0.0
  0
LINE
  5
18072
330
747D
100
AcDbEntity
  8
破線
  6
HIDDEN
 48
10.0
100
AcDbLine
 10
7264.404397928922
 20
9228.007603031867
 30
0.0
 11
7920.404397928902
 21
9228.007603031867
 31
0.0
  0
LINE
  5
18073
330
747D
100
AcDbEntity
  8
破線
  6
HIDDEN
 48
10.0
100
AcDbLine
 10
5867.404397928898
 20
7595.007603031861
 30
0.0
 11
6523.404397928924
 21
7595.007603031858
 31
0.0
  0
LINE
  5
18074
330
747D
100
AcDbEntity
  8
破線
  6
HIDDEN
 48
10.0
100
AcDbLine
 10
6573.404397928917
 20
7595.007603031858
 30
0.0
 11
7214.404397928922
 21
7595.007603031857
 31
0.0
  0
LINE
  5
18075
330
747D
100
AcDbEntity
  8
破線
  6
HIDDEN
 48
10.0
100
AcDbLine
 10
7264.404397928912
 20
7595.007603031861
 30
0.0
 11
7920.404397928902
 21
7595.007603031858
 31
0.0
  0
LINE
  5
18076
330
747D
100
AcDbEntity
  8
部品1
 48
50.0
100
AcDbLine
 10
4438.404397928914
 20
2288.112805903256
 30
0.0
 11
4438.404397928914
 21
2188.112805903256
 31
0.0
  0
LINE
  5
18077
330
747D
100
AcDbEntity
  8
部品1
 48
50.0
100
AcDbLine
 10
4238.404397928914
 20
2288.112805903256
 30
0.0
 11
4238.404397928914
 21
2188.112805903256
 31
0.0
  0
LINE
  5
18078
330
747D
100
AcDbEntity
  8
部品1
 48
50.0
100
AcDbLine
 10
5130.404397928915
 20
2288.112805903256
 30
0.0
 11
5130.404397928915
 21
2188.112805903256
 31
0.0
  0
LINE
  5
18079
330
747D
100
AcDbEntity
  8
部品1
 48
50.0
100
AcDbLine
 10
4930.404397928914
 20
2288.112805903256
 30
0.0
 11
4930.404397928914
 21
2188.112805903256
 31
0.0
  0
LINE
  5
18080
330
747D
100
AcDbEntity
  8
部品1
 48
50.0
100
AcDbLine
 10
7140.404397928918
 20
2288.11280590326
 30
0.0
 11
7140.404397928918
 21
2188.11280590326
 31
0.0
  0
LINE
  5
18081
330
747D
100
AcDbEntity
  8
部品1
 48
50.0
100
AcDbLine
 10
7340.404397928918
 20
2288.11280590326
 30
0.0
 11
7340.404397928918
 21
2188.11280590326
 31
0.0
  0
LINE
  5
18082
330
747D
100
AcDbEntity
  8
部品1
 48
50.0
100
AcDbLine
 10
6448.404397928918
 20
2288.11280590326
 30
0.0
 11
6448.404397928918
 21
2188.11280590326
 31
0.0
  0
LINE
  5
18083
330
747D
100
AcDbEntity
  8
部品1
 48
50.0
100
AcDbLine
 10
6648.404397928918
 20
2288.11280590326
 30
0.0
 11
6648.404397928918
 21
2188.11280590326
 31
0.0
  0
LINE
  5
185D7
330
747D
100
AcDbEntity
  8
部品1
100
AcDbLine
 10
5778.904397928898
 20
4522.11280590326
 30
0.0
 11
5778.904397928896
 21
4663.112805903256
 31
0.0
  0
LINE
  5
186CC
330
747D
100
AcDbEntity
  8
寸法
 48
50.0
100
AcDbLine
 10
4069.107404210742
 20
7294.544354600723
 30
0.0
 11
4017.70139630064
 21
7294.544354600723
 31
0.0
  0
LINE
  5
186CD
330
747D
100
AcDbEntity
  8
寸法
 48
50.0
100
AcDbLine
 10
4017.70139630064
 20
7294.544354600723
 30
0.0
 11
4017.70139630064
 21
7325.854513252886
 31
0.0
  0
LINE
  5
186CE
330
747D
100
AcDbEntity
  8
寸法
 48
50.0
100
AcDbLine
 10
4017.70139630064
 20
7325.854513252886
 30
0.0
 11
3987.940064309217
 21
7325.854513252886
 31
0.0
  0
LINE
  5
186CF
330
747D
100
AcDbEntity
  8
寸法
 48
50.0
100
AcDbLine
 10
3987.940064309217
 20
7325.854513252886
 30
0.0
 11
4043.404400255692
 21
7363.433964181497
 31
0.0
  0
LINE
  5
186D0
330
747D
100
AcDbEntity
  8
寸法
 48
50.0
100
AcDbLine
 10
4098.868736202166
 20
7325.854513252886
 30
0.0
 11
4043.404400255692
 21
7363.433964181497
 31
0.0
  0
LINE
  5
186D1
330
747D
100
AcDbEntity
  8
寸法
 48
50.0
100
AcDbLine
 10
4069.107404210742
 20
7325.854513252886
 30
0.0
 11
4098.868736202166
 21
7325.854513252886
 31
0.0
  0
LINE
  5
186D2
330
747D
100
AcDbEntity
  8
寸法
 48
50.0
100
AcDbLine
 10
4069.107404210742
 20
7294.544354600723
 30
0.0
 11
4069.107404210742
 21
7325.854513252886
 31
0.0
  0
LINE
  5
186D3
330
747D
100
AcDbEntity
  8
寸法
 48
50.0
100
AcDbLine
 10
4017.70139630064
 20
7294.544354600723
 30
0.0
 11
4069.107404210742
 21
7294.544354600723
 31
0.0
  0
LINE
  5
186D4
330
747D
100
AcDbEntity
  8
寸法
 48
50.0
100
AcDbLine
 10
4348.272938487601
 20
7351.689945355544
 30
0.0
 11
4348.272938487601
 21
7298.026310773754
 31
0.0
  0
LINE
  5
186D5
330
747D
100
AcDbEntity
  8
寸法
 48
50.0
100
AcDbLine
 10
4437.557157083023
 20
7327.766311086057
 30
0.0
 11
4348.272938487601
 21
7351.689945355544
 31
0.0
  0
LINE
  5
186D6
330
747D
100
AcDbEntity
  8
寸法
 48
50.0
100
AcDbLine
 10
4218.405216907298
 20
7327.766311086057
 30
0.0
 11
4437.557157083023
 21
7327.766311086057
 31
0.0
  0
LINE
  5
186D7
330
747D
100
AcDbEntity
  8
細線
 48
50.0
100
AcDbLine
 10
5094.904397928903
 20
7493.007717980583
 30
0.0
 11
5721.904397928899
 21
7493.007717980583
 31
0.0
  0
LINE
  5
186D8
330
747D
100
AcDbEntity
  8
細線
 48
50.0
100
AcDbLine
 10
4440.904402582487
 20
7459.298949426508
 30
0.0
 11
5721.904397928899
 21
7459.298949426508
 31
0.0
  0
LINE
  5
186D9
330
747D
100
AcDbEntity
  8
細線
 48
50.0
100
AcDbLine
 10
4399.904402582492
 20
7488.703857422763
 30
0.0
 11
3645.904397928899
 21
7488.703857422757
 31
0.0
  0
LINE
  5
186DA
330
747D
100
AcDbEntity
  8
細線
100
AcDbLine
 10
5497.654388512443
 20
7512.507617945591
 30
0.0
 11
5499.985928034252
 21
7517.507620585553
 31
0.0
  0
LINE
  5
186DB
330
747D
100
AcDbEntity
  8
細線
100
AcDbLine
 10
5567.6543979289
 20
7512.507603031858
 30
0.0
 11
5565.322851452712
 21
7517.507620585539
 31
0.0
  0
LINE
  5
186DC
330
747D
100
AcDbEntity
  8
細線
100
AcDbLine
 10
5565.322851452712
 20
7517.507620585539
 30
0.0
 11
5499.985928034237
 21
7517.507620585522
 31
0.0
  0
LINE
  5
186DD
330
747D
100
AcDbEntity
  8
細線
100
AcDbLine
 10
5425.322851452713
 20
7517.507620585539
 30
0.0
 11
5359.985928034237
 21
7517.507620585522
 31
0.0
  0
LINE
  5
186DE
330
747D
100
AcDbEntity
  8
細線
100
AcDbLine
 10
5427.6543979289
 20
7512.507603031858
 30
0.0
 11
5425.322851452713
 21
7517.507620585539
 31
0.0
  0
LINE
  5
186DF
330
747D
100
AcDbEntity
  8
細線
100
AcDbLine
 10
5357.654388512443
 20
7512.507617945591
 30
0.0
 11
5359.985928034252
 21
7517.507620585553
 31
0.0
  0
LINE
  5
186E0
330
747D
100
AcDbEntity
  8
細線
100
AcDbLine
 10
5217.6543979289
 20
7512.507603031858
 30
0.0
 11
5219.985937450712
 21
7517.50760567182
 31
0.0
  0
LINE
  5
186E1
330
747D
100
AcDbEntity
  8
細線
100
AcDbLine
 10
5287.65440734536
 20
7512.507588118125
 30
0.0
 11
5285.322860869171
 21
7517.507605671804
 31
0.0
  0
LINE
  5
186E2
330
747D
100
AcDbEntity
  8
細線
100
AcDbLine
 10
5285.322860869174
 20
7517.507605671804
 30
0.0
 11
5219.985937450697
 21
7517.507605671791
 31
0.0
  0
LINE
  5
186E3
330
747D
100
AcDbEntity
  8
細線
100
AcDbLine
 10
4990.072882118006
 20
7483.507642369186
 30
0.0
 11
4924.735958699532
 21
7483.507642369173
 31
0.0
  0
LINE
  5
186E4
330
747D
100
AcDbEntity
  8
細線
100
AcDbLine
 10
4992.404428594194
 20
7478.507624815505
 30
0.0
 11
4990.072882118006
 21
7483.507642369186
 31
0.0
  0
LINE
  5
186E5
330
747D
100
AcDbEntity
  8
細線
100
AcDbLine
 10
4922.404419177737
 20
7478.50763972924
 30
0.0
 11
4924.735958699546
 21
7483.507642369201
 31
0.0
  0
LINE
  5
186E6
330
747D
100
AcDbEntity
  8
細線
 48
50.0
100
AcDbLine
 10
4763.787777176912
 20
7496.778466184938
 30
0.0
 11
4769.543294759581
 21
7478.507614894453
 31
0.0
  0
LINE
  5
186E7
330
747D
100
AcDbEntity
  8
細線
 48
50.0
100
AcDbLine
 10
4752.859328696483
 20
7496.778466184938
 30
0.0
 11
4763.787777176912
 21
7496.778466184938
 31
0.0
  0
ARC
  5
186E8
330
747D
100
AcDbEntity
  8
細線
 48
50.0
100
AcDbCircle
 10
4747.40497263916
 20
7498.278466184938
 30
0.0
 40
5.0
100
AcDbArc
 50
204.6243183521266
 51
335.3756816478732
  0
ARC
  5
186E9
330
747D
100
AcDbEntity
  8
細線
 48
50.0
100
AcDbCircle
 10
4752.859328696483
 20
7495.778466184939
 30
0.0
 40
1.0
100
AcDbArc
 50
90.0
 51
155.3756816478732
  0
ARC
  5
186EA
330
747D
100
AcDbEntity
  8
細線
 48
50.0
100
AcDbCircle
 10
4741.950616581847
 20
7495.778466184939
 30
0.0
 40
1.0
100
AcDbArc
 50
24.62431835212675
 51
90.0
  0
LINE
  5
186EB
330
747D
100
AcDbEntity
  8
細線
 48
50.0
100
AcDbLine
 10
4731.022168101413
 20
7496.778466184938
 30
0.0
 11
4741.950616581847
 21
7496.778466184938
 31
0.0
  0
LINE
  5
186EC
330
747D
100
AcDbEntity
  8
細線
 48
50.0
100
AcDbLine
 10
4725.266650518745
 20
7478.507614894444
 30
0.0
 11
4731.022168101413
 21
7496.778466184938
 31
0.0
  0
LINE
  5
186ED
330
747D
100
AcDbEntity
  8
細線
100
AcDbLine
 10
4782.404420408776
 20
7478.507612260249
 30
0.0
 11
4784.735959930588
 21
7483.507614900211
 31
0.0
  0
LINE
  5
186EE
330
747D
100
AcDbEntity
  8
細線
100
AcDbLine
 10
4852.404429825238
 20
7478.507597346514
 30
0.0
 11
4850.072883349048
 21
7483.507614900195
 31
0.0
  0
LINE
  5
186EF
330
747D
100
AcDbEntity
  8
細線
100
AcDbLine
 10
4850.072883349048
 20
7483.507614900195
 30
0.0
 11
4784.735959930574
 21
7483.50761490018
 31
0.0
  0
LINE
  5
186F0
330
747D
100
AcDbEntity
  8
細線
100
AcDbLine
 10
4710.07285498453
 20
7483.507614894415
 30
0.0
 11
4644.735931566055
 21
7483.507614894401
 31
0.0
  0
LINE
  5
186F1
330
747D
100
AcDbEntity
  8
細線
100
AcDbLine
 10
4712.404401460718
 20
7478.507597340734
 30
0.0
 11
4710.07285498453
 21
7483.507614894415
 31
0.0
  0
LINE
  5
186F2
330
747D
100
AcDbEntity
  8
細線
100
AcDbLine
 10
4642.404393275302
 20
7478.507614894444
 30
0.0
 11
4644.73593156607
 21
7483.507614894429
 31
0.0
  0
LINE
  5
186F3
330
747D
100
AcDbEntity
  8
細線
100
AcDbLine
 10
4502.404428594194
 20
7478.507623081815
 30
0.0
 11
4504.735966884961
 21
7483.507623081798
 31
0.0
  0
LINE
  5
186F4
330
747D
100
AcDbEntity
  8
細線
100
AcDbLine
 10
4572.404436779609
 20
7478.507605528104
 30
0.0
 11
4570.072890303422
 21
7483.507623081782
 31
0.0
  0
LINE
  5
186F5
330
747D
100
AcDbEntity
  8
細線
100
AcDbLine
 10
4570.072890303422
 20
7483.507623081782
 30
0.0
 11
4504.735966884946
 21
7483.50762308177
 31
0.0
  0
LINE
  5
186F6
330
747D
100
AcDbEntity
  8
細線
100
AcDbLine
 10
4130.904394397073
 20
7444.507794762526
 30
0.0
 11
4133.235932687839
 21
7449.507794762512
 31
0.0
  0
LINE
  5
186F7
330
747D
100
AcDbEntity
  8
細線
100
AcDbLine
 10
4200.904402582487
 20
7444.507777208814
 30
0.0
 11
4198.572856106301
 21
7449.507794762492
 31
0.0
  0
LINE
  5
186F8
330
747D
100
AcDbEntity
  8
細線
100
AcDbLine
 10
4198.572856106301
 20
7449.507794762492
 30
0.0
 11
4133.23593268783
 21
7449.507794762483
 31
0.0
  0
LINE
  5
186F9
330
747D
100
AcDbEntity
  8
細線
100
AcDbLine
 10
4338.572856106302
 20
7449.507794762492
 30
0.0
 11
4273.235932687828
 21
7449.507794762483
 31
0.0
  0
LINE
  5
186FA
330
747D
100
AcDbEntity
  8
細線
100
AcDbLine
 10
4340.904402582489
 20
7444.507777208814
 30
0.0
 11
4338.572856106302
 21
7449.507794762492
 31
0.0
  0
LINE
  5
186FB
330
747D
100
AcDbEntity
  8
細線
100
AcDbLine
 10
4270.904394397073
 20
7444.507794762526
 30
0.0
 11
4273.235932687839
 21
7449.507794762512
 31
0.0
  0
LINE
  5
186FC
330
747D
100
AcDbEntity
  8
細線
100
AcDbLine
 10
4058.572856106301
 20
7449.507794762492
 30
0.0
 11
3993.23593268783
 21
7449.507794762479
 31
0.0
  0
LINE
  5
186FD
330
747D
100
AcDbEntity
  8
細線
100
AcDbLine
 10
4060.904402582488
 20
7444.507777208814
 30
0.0
 11
4058.572856106301
 21
7449.507794762492
 31
0.0
  0
LINE
  5
186FE
330
747D
100
AcDbEntity
  8
細線
100
AcDbLine
 10
3990.904394397073
 20
7444.507794762524
 30
0.0
 11
3993.235932687841
 21
7449.507794762509
 31
0.0
  0
LINE
  5
186FF
330
747D
100
AcDbEntity
  8
細線
100
AcDbLine
 10
3850.904402582489
 20
7444.507794762526
 30
0.0
 11
3853.235940873257
 21
7449.507794762512
 31
0.0
  0
LINE
  5
18700
330
747D
100
AcDbEntity
  8
細線
100
AcDbLine
 10
3920.904410767906
 20
7444.507777208814
 30
0.0
 11
3918.572864291718
 21
7449.507794762492
 31
0.0
  0
LINE
  5
18701
330
747D
100
AcDbEntity
  8
細線
100
AcDbLine
 10
3918.572864291718
 20
7449.507794762492
 30
0.0
 11
3853.235940873246
 21
7449.507794762483
 31
0.0
  0
ARC
  5
18702
330
747D
100
AcDbEntity
  8
部品1
 48
0.01
100
AcDbCircle
 10
3806.404291330153
 20
7443.506672577455
 30
0.0
 40
0.5
100
AcDbArc
 50
270.0
 51
0.0
  0
LINE
  5
18703
330
747D
100
AcDbEntity
  8
部品1
 48
0.01
100
AcDbLine
 10
3806.904291330154
 20
7444.506672577452
 30
0.0
 11
3806.904291330154
 21
7443.506672577455
 31
0.0
  0
LINE
  5
18704
330
747D
100
AcDbEntity
  8
部品1
 48
0.01
100
AcDbLine
 10
3806.904291330154
 20
7444.506672577452
 30
0.0
 11
3806.904291330154
 21
7443.506672577455
 31
0.0
  0
LINE
  5
18705
330
747D
100
AcDbEntity
  8
部品1
 48
0.01
100
AcDbLine
 10
3806.404291330153
 20
7443.006672577452
 30
0.0
 11
3799.791785900089
 21
7443.006672577452
 31
0.0
  0
ARC
  5
18706
330
747D
100
AcDbEntity
  8
部品1
100
AcDbCircle
 10
3799.860135452871
 20
7444.006672577453
 30
0.0
 40
1.0
100
AcDbArc
 50
160.5287793655825
 51
270.0
  0
ARC
  5
18707
330
747D
100
AcDbEntity
  8
部品1
100
AcDbCircle
 10
3774.404291330153
 20
7453.006672577455
 30
0.0
 40
26.0
100
AcDbArc
 50
340.5287793655825
 51
0.0
  0
LINE
  5
18708
330
747D
100
AcDbEntity
  8
部品1
100
AcDbLine
 10
3800.404291330154
 20
7453.006672577455
 30
0.0
 11
3800.404291330154
 21
7458.006672577453
 31
0.0
  0
ARC
  5
18709
330
747D
100
AcDbEntity
  8
部品1
 48
0.01
100
AcDbCircle
 10
3798.404291330154
 20
7458.006672577453
 30
0.0
 40
2.0
100
AcDbArc
 50
0.0
 51
90.0
  0
ARC
  5
1870A
330
747D
100
AcDbEntity
  8
部品1
100
AcDbCircle
 10
3796.795899705344
 20
7457.006672577453
 30
0.0
 40
3.0
100
AcDbArc
 50
90.0
 51
141.6069559807883
  0
LINE
  5
1870B
330
747D
100
AcDbEntity
  8
部品1
 48
0.01
100
AcDbLine
 10
3798.404291330154
 20
7460.006672577454
 30
0.0
 11
3796.795899705344
 21
7460.006672577454
 31
0.0
  0
ARC
  5
1870C
330
747D
100
AcDbEntity
  8
部品1
100
AcDbCircle
 10
3778.333577115883
 20
7456.306672577459
 30
0.0
 40
3.0
100
AcDbArc
 50
254.0576313943199
 51
270.0
  0
ARC
  5
1870D
330
747D
100
AcDbEntity
  8
部品1
100
AcDbCircle
 10
3785.475005544425
 20
7456.306672577459
 30
0.0
 40
3.0
100
AcDbArc
 50
270.0
 51
285.9423686056802
  0
LINE
  5
1870E
330
747D
100
AcDbEntity
  8
部品1
100
AcDbLine
 10
3785.475005544425
 20
7453.306672577459
 30
0.0
 11
3778.333577115883
 21
7453.306672577459
 31
0.0
  0
ARC
  5
1870F
330
747D
100
AcDbEntity
  8
部品1
100
AcDbCircle
 10
3781.904291330154
 20
7468.806672577457
 30
0.0
 40
16.0
100
AcDbArc
 50
285.9423686056802
 51
321.6069559807885
  0
LINE
  5
18710
330
747D
100
AcDbEntity
  8
部品1
 48
0.01
100
AcDbLine
 10
3765.404291330154
 20
7460.006672577454
 30
0.0
 11
3767.012682954964
 21
7460.006672577454
 31
0.0
  0
ARC
  5
18711
330
747D
100
AcDbEntity
  8
部品1
100
AcDbCircle
 10
3767.012682954964
 20
7457.006672577453
 30
0.0
 40
3.0
100
AcDbArc
 50
38.39304401921166
 51
90.0
  0
ARC
  5
18712
330
747D
100
AcDbEntity
  8
部品1
100
AcDbCircle
 10
3781.904291330154
 20
7468.806672577457
 30
0.0
 40
16.0
100
AcDbArc
 50
218.3930440192117
 51
254.0576313943199
  0
LINE
  5
18713
330
747D
100
AcDbEntity
  8
部品1
100
AcDbLine
 10
3763.404291330154
 20
7453.006672577455
 30
0.0
 11
3763.404291330154
 21
7458.006672577453
 31
0.0
  0
ARC
  5
18714
330
747D
100
AcDbEntity
  8
部品1
 48
0.01
100
AcDbCircle
 10
3765.404291330154
 20
7458.006672577453
 30
0.0
 40
2.0
100
AcDbArc
 50
90.0
 51
180.0
  0
ARC
  5
18715
330
747D
100
AcDbEntity
  8
部品1
100
AcDbCircle
 10
3789.404291330154
 20
7453.006672577455
 30
0.0
 40
26.0
100
AcDbArc
 50
180.0
 51
199.4712206344175
  0
ARC
  5
18716
330
747D
100
AcDbEntity
  8
部品1
 48
0.01
100
AcDbCircle
 10
3757.404291330154
 20
7443.506672577455
 30
0.0
 40
0.5
100
AcDbArc
 50
180.0
 51
270.0
  0
LINE
  5
18717
330
747D
100
AcDbEntity
  8
部品1
 48
0.01
100
AcDbLine
 10
3757.404291330154
 20
7443.006672577452
 30
0.0
 11
3763.948447207437
 21
7443.006672577452
 31
0.0
  0
LINE
  5
18718
330
747D
100
AcDbEntity
  8
部品1
 48
0.01
100
AcDbLine
 10
3756.904291330154
 20
7444.506672577452
 30
0.0
 11
3756.904291330154
 21
7443.506672577455
 31
0.0
  0
ARC
  5
18719
330
747D
100
AcDbEntity
  8
部品1
100
AcDbCircle
 10
3763.948447207437
 20
7444.006672577453
 30
0.0
 40
1.0
100
AcDbArc
 50
270.0
 51
19.47122063441753
  0
LINE
  5
1871A
330
747D
100
AcDbEntity
  8
細線
100
AcDbLine
 10
3802.404291330161
 20
7462.506672577458
 30
0.0
 11
3761.404291330161
 21
7462.50667257745
 31
0.0
  0
LINE
  5
1871B
330
747D
100
AcDbEntity
  8
細線
100
AcDbLine
 10
3761.404291330161
 20
7462.50667257745
 30
0.0
 11
3761.404291330161
 21
7444.506672577431
 31
0.0
  0
LINE
  5
1871C
330
747D
100
AcDbEntity
  8
細線
100
AcDbLine
 10
3802.404291330161
 20
7462.506672577458
 30
0.0
 11
3802.404291330161
 21
7444.506672577431
 31
0.0
  0
LINE
  5
1871D
330
747D
100
AcDbEntity
  8
細線
100
AcDbLine
 10
3645.904397928899
 20
7448.507603031858
 30
0.0
 11
3645.904397928899
 21
7444.507603031905
 31
0.0
  0
DIMENSION
  5
1871E
330
747D
100
AcDbEntity
  8
寸法
 48
50.0
100
AcDbDimension
  2
*D38
 10
4911.904397928899
 20
6769.675150554649
 30
0.0
 11
4288.730834329572
 21
6769.675150554649
 31
0.0
 70
   160
  1
有効開口部間口\P<>
 71
     5
 42
1266.0
  3
INABA_S40
100
AcDbAlignedDimension
 13
3645.904397928899
 23
7439.507603031858
 33
0.0
 14
4911.904397928899
 24
7439.507603031858
 34
0.0
100
AcDbRotatedDimension
1001
ACAD
1000
DSTYLE
1002
{
1070
    41
1040
0.5
1070
    44
1040
1.0
1070
   147
1040
0.8
1070
   271
1070
     2
1070
   272
1070
     2
1070
   289
1070
     3
1070
   340
1005
F706
1070
   343
1005
F744
1070
   344
1005
F744
1002
}
  0
LINE
  5
1871F
330
747D
100
AcDbEntity
  8
部品1
100
AcDbLine
 10
5733.904397928899
 20
7516.507603031858
 30
0.0
 11
5760.904397928899
 21
7516.507603031858
 31
0.0
  0
LINE
  5
18721
330
747D
100
AcDbEntity
  8
部品1
100
AcDbLine
 10
5760.904397928899
 20
7439.507603031858
 30
0.0
 11
5760.904397928899
 21
7516.507603031858
 31
0.0
  0
LINE
  5
18722
330
747D
100
AcDbEntity
  8
部品1
100
AcDbLine
 10
5721.904397928899
 20
7512.507603031858
 30
0.0
 11
5733.904397928899
 21
7512.507603031858
 31
0.0
  0
LINE
  5
18723
330
747D
100
AcDbEntity
  8
部品1
100
AcDbLine
 10
5730.904397928899
 20
7448.507603031858
 30
0.0
 11
5730.904397928899
 21
7439.507603031858
 31
0.0
  0
LINE
  5
18724
330
747D
100
AcDbEntity
  8
部品1
100
AcDbLine
 10
5721.904397928899
 20
7448.507603031858
 30
0.0
 11
5730.904397928899
 21
7448.507603031858
 31
0.0
  0
LINE
  5
18725
330
747D
100
AcDbEntity
  8
部品1
100
AcDbLine
 10
5721.904397928899
 20
7512.507603031858
 30
0.0
 11
5721.904397928899
 21
7448.507603031858
 31
0.0
  0
LINE
  5
18726
330
747D
100
AcDbEntity
  8
部品1
100
AcDbLine
 10
5733.904397928899
 20
7543.507603031859
 30
0.0
 11
5733.904397928899
 21
7512.507603031858
 31
0.0
  0
LINE
  5
18727
330
747D
100
AcDbEntity
  8
部品1
100
AcDbLine
 10
3645.904397928899
 20
7512.507603031858
 30
0.0
 11
3633.904397928899
 21
7512.507603031858
 31
0.0
  0
LINE
  5
18728
330
747D
100
AcDbEntity
  8
部品1
100
AcDbLine
 10
3606.904397928899
 20
7516.507603031858
 30
0.0
 11
3633.904397928898
 21
7516.507603031858
 31
0.0
  0
LINE
  5
18729
330
747D
100
AcDbEntity
  8
部品1
100
AcDbLine
 10
3636.904397928899
 20
7448.507603031858
 30
0.0
 11
3636.904397928899
 21
7439.507603031858
 31
0.0
  0
LINE
  5
1872A
330
747D
100
AcDbEntity
  8
部品1
100
AcDbLine
 10
3645.904397928899
 20
7448.507603031858
 30
0.0
 11
3636.904397928899
 21
7448.507603031858
 31
0.0
  0
LINE
  5
1872B
330
747D
100
AcDbEntity
  8
部品1
100
AcDbLine
 10
3636.904397928899
 20
7439.507603031858
 30
0.0
 11
3606.904397928899
 21
7439.507603031858
 31
0.0
  0
LINE
  5
1872C
330
747D
100
AcDbEntity
  8
部品1
100
AcDbLine
 10
3606.904397928899
 20
7439.507603031858
 30
0.0
 11
3606.904397928899
 21
7516.507603031858
 31
0.0
  0
LINE
  5
1872D
330
747D
100
AcDbEntity
  8
部品1
100
AcDbLine
 10
3645.904397928899
 20
7512.507603031858
 30
0.0
 11
3645.904397928899
 21
7448.507603031858
 31
0.0
  0
LINE
  5
1872E
330
747D
100
AcDbEntity
  8
部品1
100
AcDbLine
 10
3633.904397928898
 20
7543.507603031854
 30
0.0
 11
3633.904397928899
 21
7512.507603031858
 31
0.0
  0
LINE
  5
1872F
330
747D
100
AcDbEntity
  8
部品1
100
AcDbLine
 10
3633.904397928898
 20
7543.507603031854
 30
0.0
 11
5733.904397928899
 21
7543.507603031859
 31
0.0
  0
LINE
  5
18730
330
747D
100
AcDbEntity
  8
部品1
100
AcDbLine
 10
5730.904397928899
 20
7439.507603031858
 30
0.0
 11
5760.904397928899
 21
7439.507603031858
 31
0.0
  0
LINE
  5
18731
330
747D
100
AcDbEntity
  8
部品1
100
AcDbLine
 10
3636.904397928899
 20
7439.507603031858
 30
0.0
 11
5733.904397928899
 21
7439.507603031858
 31
0.0
  0
LINE
  5
18732
330
747D
100
AcDbEntity
  8
細線
  6
Continuous
 62
     5
100
AcDbLine
 10
5012.904397928902
 20
7478.507603031855
 30
0.0
 11
5012.904397928902
 21
7478.507603031855
 31
0.0
  0
LINE
  5
18733
330
747D
100
AcDbEntity
  8
細線
  6
Continuous
 62
     5
100
AcDbLine
 10
5005.404433247794
 20
7478.507612952911
 30
0.0
 11
5005.404433247794
 21
7478.507612952911
 31
0.0
  0
LINE
  5
18734
330
747D
100
AcDbEntity
  8
細線
  6
Continuous
 62
     5
100
AcDbLine
 10
4999.404433247794
 20
7478.507612952911
 30
0.0
 11
4999.404433247794
 21
7478.507612952911
 31
0.0
  0
LINE
  5
18735
330
747D
100
AcDbEntity
  8
細線
  6
Continuous
 62
     5
100
AcDbLine
 10
5066.904397928904
 20
7497.507603031855
 30
0.0
 11
5066.904397928904
 21
7497.507603031855
 31
0.0
  0
LINE
  5
18736
330
747D
100
AcDbEntity
  8
細線
 48
50.0
100
AcDbLine
 10
3659.904402582493
 20
7465.107777208811
 30
0.0
 11
3659.904402582493
 21
7473.503927616452
 31
0.0
  0
LINE
  5
18737
330
747D
100
AcDbEntity
  8
細線
 48
50.0
100
AcDbLine
 10
3659.904402582493
 20
7473.503927616452
 30
0.0
 11
3645.904397928899
 21
7473.503927616448
 31
0.0
  0
LINE
  5
18738
330
747D
100
AcDbEntity
  8
細線
 48
50.0
100
AcDbLine
 10
4410.904402582487
 20
7461.657777208812
 30
0.0
 11
4410.904402582487
 21
7466.507777208814
 31
0.0
  0
LINE
  5
18739
330
747D
100
AcDbEntity
  8
細線
 48
50.0
100
AcDbLine
 10
4410.904402582487
 20
7466.507777208814
 30
0.0
 11
4425.904402582488
 21
7466.507777208814
 31
0.0
  0
LINE
  5
1873A
330
747D
100
AcDbEntity
  8
細線
 48
50.0
100
AcDbLine
 10
4425.904402582488
 20
7466.507777208814
 30
0.0
 11
4425.904402582492
 21
7473.507777208813
 31
0.0
  0
LINE
  5
1873B
330
747D
100
AcDbEntity
  8
細線
 48
50.0
100
AcDbLine
 10
4425.904402582492
 20
7473.507777208813
 30
0.0
 11
4440.904402582487
 21
7473.507777208813
 31
0.0
  0
LINE
  5
1873C
330
747D
100
AcDbEntity
  8
細線
 48
50.0
100
AcDbLine
 10
4440.904402582487
 20
7473.507777208813
 30
0.0
 11
4440.904402582487
 21
7444.507777208814
 31
0.0
  0
LINE
  5
1873D
330
747D
100
AcDbEntity
  8
細線
 48
50.0
100
AcDbLine
 10
3636.904397928899
 20
7444.505111552281
 30
0.0
 11
3850.904402582489
 21
7444.507794762526
 31
0.0
  0
LINE
  5
1873E
330
747D
100
AcDbEntity
  8
細線
 48
50.0
100
AcDbLine
 10
4340.904402582489
 20
7444.507777208814
 30
0.0
 11
4440.904402582487
 21
7444.507777208814
 31
0.0
  0
LINE
  5
1873F
330
747D
100
AcDbEntity
  8
細線
 48
50.0
100
AcDbLine
 10
4060.904402582488
 20
7444.507777208814
 30
0.0
 11
4130.904402582489
 21
7444.507777208814
 31
0.0
  0
LINE
  5
18740
330
747D
100
AcDbEntity
  8
細線
 48
50.0
100
AcDbLine
 10
4073.766367595017
 20
7444.507777208814
 30
0.0
 11
4079.521885177685
 21
7462.778628499306
 31
0.0
  0
LINE
  5
18741
330
747D
100
AcDbEntity
  8
細線
 48
50.0
100
AcDbLine
 10
4079.521885177685
 20
7462.778628499306
 30
0.0
 11
4090.450333658118
 21
7462.778628499305
 31
0.0
  0
ARC
  5
18742
330
747D
100
AcDbEntity
  8
細線
 48
50.0
100
AcDbCircle
 10
4090.450333658118
 20
7461.778628499303
 30
0.0
 40
1.0
100
AcDbArc
 50
24.62431835212675
 51
90.0
  0
ARC
  5
18743
330
747D
100
AcDbEntity
  8
細線
 48
50.0
100
AcDbCircle
 10
4101.359045772752
 20
7461.778628499303
 30
0.0
 40
1.0
100
AcDbArc
 50
90.0
 51
155.3756816478732
  0
ARC
  5
18744
330
747D
100
AcDbEntity
  8
細線
 48
50.0
100
AcDbCircle
 10
4095.904689715434
 20
7464.278628499305
 30
0.0
 40
5.0
100
AcDbArc
 50
204.6243183521266
 51
335.3756816478732
  0
LINE
  5
18745
330
747D
100
AcDbEntity
  8
細線
 48
50.0
100
AcDbLine
 10
4101.359045772752
 20
7462.778628499305
 30
0.0
 11
4112.287494253187
 21
7462.778628499306
 31
0.0
  0
LINE
  5
18746
330
747D
100
AcDbEntity
  8
細線
 48
50.0
100
AcDbLine
 10
4112.287494253187
 20
7462.778628499306
 30
0.0
 11
4118.043011835854
 21
7444.507777208814
 31
0.0
  0
LINE
  5
18747
330
747D
100
AcDbEntity
  8
細線
 48
50.0
100
AcDbLine
 10
4410.904402582487
 20
7465.107777208811
 30
0.0
 11
3659.904402582493
 21
7465.107777208811
 31
0.0
  0
LINE
  5
18748
330
747D
100
AcDbEntity
  8
細線
 48
50.0
100
AcDbLine
 10
4270.904402582488
 20
7444.507777208814
 30
0.0
 11
4200.904402582487
 21
7444.507777208814
 31
0.0
  0
LINE
  5
18749
330
747D
100
AcDbEntity
  8
細線
100
AcDbLine
 10
3990.904402582489
 20
7444.507777208814
 30
0.0
 11
3920.904410767906
 21
7444.507777208814
 31
0.0
  0
LINE
  5
1874A
330
747D
100
AcDbEntity
  8
細線
 48
50.0
100
AcDbLine
 10
5064.904393275313
 20
7499.107821066679
 30
0.0
 11
4429.904402582489
 21
7499.107821066677
 31
0.0
  0
LINE
  5
1874B
330
747D
100
AcDbEntity
  8
細線
 48
50.0
100
AcDbLine
 10
4429.904402582489
 20
7496.00397147432
 30
0.0
 11
4429.904402582489
 21
7500.50397147432
 31
0.0
  0
LINE
  5
1874C
330
747D
100
AcDbEntity
  8
細線
 48
50.0
100
AcDbLine
 10
4429.904402582489
 20
7500.50397147432
 30
0.0
 11
4414.904402582489
 21
7500.50397147432
 31
0.0
  0
LINE
  5
1874D
330
747D
100
AcDbEntity
  8
細線
 48
50.0
100
AcDbLine
 10
4414.904402582489
 20
7500.50397147432
 30
0.0
 11
4414.904402582489
 21
7507.50397147432
 31
0.0
  0
LINE
  5
1874E
330
747D
100
AcDbEntity
  8
細線
 48
50.0
100
AcDbLine
 10
4414.904402582489
 20
7507.50397147432
 30
0.0
 11
4399.904402582492
 21
7507.503971474317
 31
0.0
  0
LINE
  5
1874F
330
747D
100
AcDbEntity
  8
細線
 48
50.0
100
AcDbLine
 10
4399.904402582492
 20
7507.503971474317
 30
0.0
 11
4399.904402582492
 21
7469.903743371206
 31
0.0
  0
LINE
  5
18750
330
747D
100
AcDbEntity
  8
細線
 48
50.0
100
AcDbLine
 10
4399.904402582492
 20
7469.903743371206
 30
0.0
 11
4419.904409883665
 21
7469.903784920747
 31
0.0
  0
LINE
  5
18751
330
747D
100
AcDbEntity
  8
細線
 48
50.0
100
AcDbLine
 10
4419.904365014722
 20
7478.507246556556
 30
0.0
 11
4419.904409883665
 21
7469.903784920747
 31
0.0
  0
LINE
  5
18752
330
747D
100
AcDbEntity
  8
細線
 48
50.0
100
AcDbLine
 10
5064.904393275313
 20
7495.657821066679
 30
0.0
 11
5064.904393275313
 21
7500.50782106668
 31
0.0
  0
LINE
  5
18753
330
747D
100
AcDbEntity
  8
細線
 48
50.0
100
AcDbLine
 10
5064.904393275313
 20
7500.50782106668
 30
0.0
 11
5079.90439327531
 21
7500.50782106668
 31
0.0
  0
LINE
  5
18754
330
747D
100
AcDbEntity
  8
細線
 48
50.0
100
AcDbLine
 10
5079.90439327531
 20
7500.50782106668
 30
0.0
 11
5079.904404909285
 21
7507.507821066721
 31
0.0
  0
LINE
  5
18755
330
747D
100
AcDbEntity
  8
細線
 48
50.0
100
AcDbLine
 10
5079.904404909285
 20
7507.507821066721
 30
0.0
 11
5094.904403079815
 21
7507.507821066721
 31
0.0
  0
LINE
  5
18756
330
747D
100
AcDbEntity
  8
細線
 48
50.0
100
AcDbLine
 10
5094.904403079815
 20
7507.507821066721
 30
0.0
 11
5094.904392777994
 21
7478.507614894448
 31
0.0
  0
LINE
  5
18757
330
747D
100
AcDbEntity
  8
細線
 48
50.0
100
AcDbLine
 10
4782.404420408776
 20
7478.507623081815
 30
0.0
 11
4712.404672491194
 21
7478.507617644476
 31
0.0
  0
LINE
  5
18758
330
747D
100
AcDbEntity
  8
細線
 48
50.0
100
AcDbLine
 10
4419.904365014722
 20
7478.507246556556
 30
0.0
 11
4431.137054369433
 21
7478.507429509702
 31
0.0
  0
ARC
  5
18759
330
747D
100
AcDbEntity
  8
細線
 48
50.0
100
AcDbCircle
 10
4437.719346676768
 20
7477.307593423316
 30
0.0
 40
1.8
100
AcDbArc
 50
270.0006665777295
 51
345.0005554812979
  0
LINE
  5
1875A
330
747D
100
AcDbEntity
  8
細線
 48
50.0
100
AcDbLine
 10
4439.705780122848
 20
7477.766433880593
 30
0.0
 11
4439.458017680649
 21
7476.841735998488
 31
0.0
  0
LINE
  5
1875B
330
747D
100
AcDbEntity
  8
細線
 48
50.0
100
AcDbLine
 10
4437.719367617924
 20
7475.507593423436
 30
0.0
 11
4434.089440199153
 21
7475.507551192956
 31
0.0
  0
ARC
  5
1875C
330
747D
100
AcDbEntity
  8
細線
 48
50.0
100
AcDbCircle
 10
4434.089419258003
 20
7477.307551192835
 30
0.0
 40
1.8
100
AcDbArc
 50
195.0010443049451
 51
270.0006665777295
  0
LINE
  5
1875D
330
747D
100
AcDbEntity
  8
細線
 48
50.0
100
AcDbLine
 10
4432.102991765744
 20
7477.7662661604
 30
0.0
 11
4432.350761262257
 21
7476.841645221816
 31
0.0
  0
ARC
  5
1875E
330
747D
100
AcDbEntity
  8
細線
 48
50.0
100
AcDbCircle
 10
4431.137070656995
 20
7477.507429509836
 30
0.0
 40
1.0
100
AcDbArc
 50
15.00104430494512
 51
90.00093320877969
  0
LINE
  5
1875F
330
747D
100
AcDbEntity
  8
細線
 48
50.0
100
AcDbLine
 10
4440.671701477952
 20
7478.507624200108
 30
0.0
 11
4441.613461628854
 21
7478.507630773957
 31
0.0
  0
ARC
  5
18760
330
747D
100
AcDbEntity
  8
細線
 48
50.0
100
AcDbCircle
 10
4440.671708458337
 20
7477.507624200132
 30
0.0
 40
1.0
100
AcDbArc
 50
90.00039994667941
 51
165.0005554812978
  0
LINE
  5
18761
330
747D
100
AcDbEntity
  8
細線
 48
50.0
100
AcDbLine
 10
4992.404393275302
 20
7478.507614894448
 30
0.0
 11
5094.904392777994
 21
7478.507614894448
 31
0.0
  0
LINE
  5
18762
330
747D
100
AcDbEntity
  8
細線
 48
50.0
100
AcDbLine
 10
4502.404428594194
 20
7478.507623081815
 30
0.0
 11
4441.304367367274
 21
7478.507630773957
 31
0.0
  0
LINE
  5
18763
330
747D
100
AcDbEntity
  8
細線
 48
50.0
100
AcDbLine
 10
4922.404428594194
 20
7478.507659922897
 30
0.0
 11
4852.404421639808
 21
7478.507614900229
 31
0.0
  0
LINE
  5
18764
330
747D
100
AcDbEntity
  8
細線
 48
50.0
100
AcDbLine
 10
4642.404393275302
 20
7478.507614894444
 30
0.0
 11
4572.404375987427
 21
7478.507614894453
 31
0.0
  0
ARC
  5
18765
330
747D
100
AcDbEntity
  8
細線
 48
50.0
100
AcDbCircle
 10
5079.104397928912
 20
7511.707603031857
 30
0.0
 40
0.8
100
AcDbArc
 50
359.9997333689499
 51
89.99986668437072
  0
ARC
  5
18766
330
747D
100
AcDbEntity
  8
細線
 48
50.0
100
AcDbCircle
 10
5086.704404754005
 20
7511.707614200473
 30
0.0
 40
0.8
100
AcDbArc
 50
90.00014387753465
 51
179.9997333689498
  0
LINE
  5
18767
330
747D
100
AcDbEntity
  8
細線
 48
50.0
100
AcDbLine
 10
5079.104399790344
 20
7512.507603031858
 30
0.0
 11
5073.904397928899
 21
7512.507603031858
 31
0.0
  0
ARC
  5
18768
330
747D
100
AcDbEntity
  8
細線
 48
50.0
100
AcDbCircle
 10
5080.6043979289
 20
7510.207603031857
 30
0.0
 40
0.7
100
AcDbArc
 50
180.0
 51
270.0
  0
ARC
  5
18769
330
747D
100
AcDbEntity
  8
細線
 48
50.0
100
AcDbCircle
 10
5085.204397928902
 20
7510.207603031857
 30
0.0
 40
0.7
100
AcDbArc
 50
270.0
 51
0.0
  0
LINE
  5
1876A
330
747D
100
AcDbEntity
  8
細線
 48
50.0
100
AcDbLine
 10
5085.904397928899
 20
7510.207603031857
 30
0.0
 11
5085.904404754017
 21
7511.707617923346
 31
0.0
  0
LINE
  5
1876B
330
747D
100
AcDbEntity
  8
細線
 48
50.0
100
AcDbLine
 10
5080.6043979289
 20
7509.507603031858
 30
0.0
 11
5085.204397928902
 21
7509.507603031858
 31
0.0
  0
LINE
  5
1876C
330
747D
100
AcDbEntity
  8
細線
 48
50.0
100
AcDbLine
 10
5079.904397928899
 20
7511.707603031857
 30
0.0
 11
5079.904397928899
 21
7510.207603031857
 31
0.0
  0
LINE
  5
1876D
330
747D
100
AcDbEntity
  8
細線
 48
50.0
100
AcDbLine
 10
5705.504397928905
 20
7542.507603031856
 30
0.0
 11
5068.904397928899
 21
7542.507603031855
 31
0.0
  0
LINE
  5
1876E
330
747D
100
AcDbEntity
  8
細線
 48
50.0
100
AcDbLine
 10
5731.404397928899
 20
7537.507603031861
 30
0.0
 11
5715.504397928905
 21
7537.507603031858
 31
0.0
  0
LINE
  5
1876F
330
747D
100
AcDbEntity
  8
細線
 48
50.0
100
AcDbLine
 10
5715.504397928901
 20
7537.507603031858
 30
0.0
 11
5705.504397928905
 21
7542.507603031856
 31
0.0
  0
LINE
  5
18770
330
747D
100
AcDbEntity
  8
細線
100
AcDbLine
 10
5316.404397928899
 20
7512.507603031858
 30
0.0
 11
5316.404397928899
 21
7541.807603031857
 31
0.0
  0
LINE
  5
18771
330
747D
100
AcDbEntity
  8
細線
100
AcDbLine
 10
5316.404397928899
 20
7541.807603031857
 30
0.0
 11
5336.4043979289
 21
7541.807603031857
 31
0.0
  0
LINE
  5
18772
330
747D
100
AcDbEntity
  8
細線
100
AcDbLine
 10
5336.4043979289
 20
7512.507603031858
 30
0.0
 11
5336.4043979289
 21
7541.807603031857
 31
0.0
  0
LINE
  5
18773
330
747D
100
AcDbEntity
  8
細線
100
AcDbLine
 10
5497.6543979289
 20
7512.507603031858
 30
0.0
 11
5427.6543979289
 21
7512.507603031858
 31
0.0
  0
LINE
  5
18774
330
747D
100
AcDbEntity
  8
細線
 48
50.0
100
AcDbLine
 10
5217.6543979289
 20
7512.507603031858
 30
0.0
 11
5086.700177501743
 21
7512.507603031858
 31
0.0
  0
LINE
  5
18775
330
747D
100
AcDbEntity
  8
細線
100
AcDbLine
 10
5357.6543979289
 20
7512.507603031858
 30
0.0
 11
5287.6543979289
 21
7512.507603031858
 31
0.0
  0
LINE
  5
18776
330
747D
100
AcDbEntity
  8
細線
 48
50.0
100
AcDbLine
 10
5073.904397928899
 20
7504.507603031858
 30
0.0
 11
5073.904397928899
 21
7512.507603031858
 31
0.0
  0
LINE
  5
18777
330
747D
100
AcDbEntity
  8
細線
 48
50.0
100
AcDbLine
 10
5053.904397928899
 20
7504.507603031861
 30
0.0
 11
5073.904397928899
 21
7504.507603031858
 31
0.0
  0
LINE
  5
18778
330
747D
100
AcDbEntity
  8
細線
 48
50.0
100
AcDbLine
 10
5068.904397928899
 20
7542.507603031856
 30
0.0
 11
5068.904397928899
 21
7537.507603031858
 31
0.0
  0
LINE
  5
18779
330
747D
100
AcDbEntity
  8
細線
 48
50.0
100
AcDbLine
 10
5053.904397928899
 20
7542.507603031855
 30
0.0
 11
5068.904397928899
 21
7542.507603031856
 31
0.0
  0
LINE
  5
1877A
330
747D
100
AcDbEntity
  8
細線
 48
50.0
100
AcDbLine
 10
5053.904397928899
 20
7504.507603031861
 30
0.0
 11
5053.904397928899
 21
7542.507603031855
 31
0.0
  0
LINE
  5
1877B
330
747D
100
AcDbEntity
  8
細線
100
AcDbLine
 10
5721.904397928899
 20
7512.507603031858
 30
0.0
 11
5567.6543979289
 21
7512.507603031858
 31
0.0
  0
LINE
  5
1877C
330
747D
100
AcDbEntity
  8
細線
 48
50.0
100
AcDbLine
 10
5731.404397928899
 20
7537.507603031861
 30
0.0
 11
5731.404397928899
 21
7512.507603031858
 31
0.0
  0
DIMENSION
  5
189D9
330
747D
100
AcDbEntity
  8
寸法
 48
50.0
100
AcDbDimension
  2
*D39
 10
5760.904397928899
 20
6496.764570084167
 30
0.0
 11
4689.961971101396
 21
6496.764570084167
 31
0.0
 70
   160
 71
     5
 42
2154.0
  3
INABA_S40G
100
AcDbAlignedDimension
 13
3606.904397928899
 23
7439.507603031858
 33
0.0
 14
5760.904397928899
 24
7439.507603031858
 34
0.0
100
AcDbRotatedDimension
1001
ACAD
1000
DSTYLE
1002
{
1070
   341
1005
0
1002
}
  0
DIMENSION
  5
189DA
330
747D
100
AcDbEntity
  8
寸法
100
AcDbDimension
  2
*D40
 10
3320.153023599285
 20
7441.507603031827
 30
0.0
 11
3320.153023599284
 21
7284.256372623642
 31
0.0
 70
   160
 71
     5
 42
75.00000000003272
  3
INABA_S40
100
AcDbAlignedDimension
 13
3578.904397928898
 23
7516.507603031858
 33
0.0
 14
3606.904397928899
 24
7441.507603031827
 34
0.0
 50
90.0
100
AcDbRotatedDimension
1001
ACAD
1000
DSTYLE
1002
{
1070
    41
1040
0.5
1070
    44
1040
1.0
1070
   147
1040
0.8
1070
   271
1070
     2
1070
   272
1070
     2
1070
   289
1070
     3
1070
   340
1005
F706
1070
   343
1005
F744
1070
   344
1005
F744
1002
}
  0
LWPOLYLINE
  5
18E82
330
747D
100
AcDbEntity
  8
部品1
 48
50.0
100
AcDbPolyline
 90
        4
 70
     1
 43
0.0
 10
3705.9543979289
 20
3334.362805903256
 10
3708.854397928901
 20
3334.362805903256
 10
3708.854397928901
 20
3343.862805903256
 10
3705.9543979289
 20
3343.862805903256
  0
CIRCLE
  5
18E83
330
747D
100
AcDbEntity
  8
部品1
 48
50.0
100
AcDbCircle
 10
3707.4043979289
 20
3339.112805903256
 30
0.0
 40
9.0
  0
ARC
  5
18E84
330
747D
100
AcDbEntity
  8
細線
 48
50.0
100
AcDbCircle
 10
3707.4043979289
 20
3339.112805903256
 30
0.0
 40
4.0
100
AcDbArc
 50
111.2538091853375
 51
248.7461908146625
  0
ARC
  5
18E85
330
747D
100
AcDbEntity
  8
細線
 48
50.0
100
AcDbCircle
 10
3707.4043979289
 20
3339.112805903256
 30
0.0
 40
17.5
100
AcDbArc
 50
306.4837370612677
 51
233.5162629387323
  0
LINE
  5
18E86
330
747D
100
AcDbEntity
  8
細線
 48
50.0
100
AcDbLine
 10
3717.404397928896
 20
3315.253845322374
 30
0.0
 11
3717.404397928901
 21
3324.238331122615
 31
0.0
  0
LINE
  5
18E87
330
747D
100
AcDbEntity
  8
細線
 48
50.0
100
AcDbLine
 10
3697.4043979289
 20
3315.253845322376
 30
0.0
 11
3697.4043979289
 21
3324.238331122611
 31
0.0
  0
ARC
  5
18E88
330
747D
100
AcDbEntity
  8
細線
 48
50.0
100
AcDbCircle
 10
3707.4043979289
 20
3339.112805903256
 30
0.0
 40
26.5
100
AcDbArc
 50
249.3326835063939
 51
290.6673164933835
  0
ARC
  5
18E89
330
747D
100
AcDbEntity
  8
細線
 48
50.0
100
AcDbCircle
 10
3716.404397928893
 20
3315.253845322374
 30
0.0
 40
1.0
100
AcDbArc
 50
290.6673164936062
 51
359.9999999998958
  0
ARC
  5
18E8A
330
747D
100
AcDbEntity
  8
細線
 48
50.0
100
AcDbCircle
 10
3698.4043979289
 20
3315.253845322376
 30
0.0
 40
1.0
100
AcDbArc
 50
180.0
 51
249.3326835066164
  0
ARC
  5
18E8B
330
747D
100
AcDbEntity
  8
細線
 48
50.0
100
AcDbCircle
 10
3696.4043979289
 20
3324.238331122611
 30
0.0
 40
1.0
100
AcDbArc
 50
0.0
 51
53.51626293873231
  0
ARC
  5
18E8C
330
747D
100
AcDbEntity
  8
細線
 48
50.0
100
AcDbCircle
 10
3718.404397928904
 20
3324.238331122615
 30
0.0
 40
1.0
100
AcDbArc
 50
126.4837370614917
 51
180.0
  0
ARC
  5
18E8D
330
747D
100
AcDbEntity
  8
細線
 48
50.0
100
AcDbCircle
 10
3707.4043979289
 20
3339.112805903256
 30
0.0
 40
21.5
100
AcDbArc
 50
255.8014401250294
 51
284.1985598749706
  0
ARC
  5
18E8E
330
747D
100
AcDbEntity
  8
細線
 48
50.0
100
AcDbCircle
 10
3707.4043979289
 20
3339.112805903256
 30
0.0
 40
16.5
100
AcDbArc
 50
251.9694646069326
 51
288.0305353930674
  0
LINE
  5
18E8F
330
747D
100
AcDbEntity
  8
細線
 48
50.0
100
AcDbLine
 10
3712.9043979289
 20
3318.560433777449
 30
0.0
 11
3712.9043979289
 21
3323.137825464787
 31
0.0
  0
LINE
  5
18E90
330
747D
100
AcDbEntity
  8
細線
 48
50.0
100
AcDbLine
 10
3701.9043979289
 20
3318.560433777449
 30
0.0
 11
3701.9043979289
 21
3323.137825464784
 31
0.0
  0
ARC
  5
18E91
330
747D
100
AcDbEntity
  8
細線
 48
50.0
100
AcDbCircle
 10
3702.204397928903
 20
3323.137825464784
 30
0.0
 40
0.3
100
AcDbArc
 50
71.96946460693259
 51
180.0
  0
ARC
  5
18E92
330
747D
100
AcDbEntity
  8
細線
 48
50.0
100
AcDbCircle
 10
3712.604397928901
 20
3323.137825464787
 30
0.0
 40
0.3
100
AcDbArc
 50
0.0
 51
108.0305353930674
  0
ARC
  5
18E93
330
747D
100
AcDbEntity
  8
細線
 48
50.0
100
AcDbCircle
 10
3712.604397928898
 20
3318.560433777449
 30
0.0
 40
0.3
100
AcDbArc
 50
284.1985598747622
 51
0.0000000001042204
  0
ARC
  5
18E94
330
747D
100
AcDbEntity
  8
細線
 48
50.0
100
AcDbCircle
 10
3702.204397928903
 20
3318.560433777449
 30
0.0
 40
0.3
100
AcDbArc
 50
180.0
 51
255.8014401248081
  0
CIRCLE
  5
18E95
330
747D
100
AcDbEntity
  8
細線
 48
50.0
100
AcDbCircle
 10
3707.4043979289
 20
3339.112805903256
 30
0.0
 40
12.0
  0
ARC
  5
18E96
330
747D
100
AcDbEntity
  8
部品1
 48
50.0
100
AcDbCircle
 10
3707.4043979289
 20
3389.112805903256
 30
0.0
 40
8.5
100
AcDbArc
 50
114.315739171091
 51
245.684260828909
  0
CIRCLE
  5
18E97
330
747D
100
AcDbEntity
  8
細線
 48
50.0
100
AcDbCircle
 10
3707.4043979289
 20
3389.112805903256
 30
0.0
 40
4.5
  0
LWPOLYLINE
  5
18E98
330
747D
100
AcDbEntity
  8
部品1
 48
50.0
100
AcDbPolyline
 90
        2
 70
     0
 43
0.0
 10
3703.9043979289
 20
3407.787655300239
 10
3703.9043979289
 20
3396.858772595672
  0
CIRCLE
  5
18E99
330
747D
100
AcDbEntity
  8
部品1
 48
50.0
100
AcDbCircle
 10
3707.4043979289
 20
3389.112805903256
 30
0.0
 40
19.0
  0
LWPOLYLINE
  5
18E9A
330
747D
100
AcDbEntity
  8
部品1
 48
50.0
100
AcDbPolyline
 90
        2
 70
     0
 43
0.0
 10
3703.9043979289
 20
3381.366839210841
 10
3703.9043979289
 20
3370.437956506274
  0
LWPOLYLINE
  5
18E9B
330
747D
100
AcDbEntity
  8
部品1
 48
50.0
100
AcDbPolyline
 90
        2
 70
     0
 43
0.0
 10
3710.9043979289
 20
3396.858772595672
 10
3710.9043979289
 20
3407.787655300239
  0
ARC
  5
18E9C
330
747D
100
AcDbEntity
  8
部品1
 48
50.0
100
AcDbCircle
 10
3707.4043979289
 20
3389.112805903256
 30
0.0
 40
8.5
100
AcDbArc
 50
294.315739171091
 51
65.68426082890896
  0
LWPOLYLINE
  5
18E9D
330
747D
100
AcDbEntity
  8
部品1
 48
50.0
100
AcDbPolyline
 90
        2
 70
     0
 43
0.0
 10
3710.9043979289
 20
3370.437956506274
 10
3710.9043979289
 20
3381.366839210841
  0
ARC
  5
18E9E
330
747D
100
AcDbEntity
  8
細線
 48
50.0
100
AcDbCircle
 10
3707.4043979289
 20
3389.112805903256
 30
0.0
 40
16.5
100
AcDbArc
 50
332.0012352654316
 51
27.99876473456844
  0
ARC
  5
18E9F
330
747D
100
AcDbEntity
  8
細線
 48
50.0
100
AcDbCircle
 10
3707.4043979289
 20
3389.112805903256
 30
0.0
 40
14.0
100
AcDbArc
 50
326.4074436112843
 51
33.59255638871576
  0
LINE
  5
18EA0
330
747D
100
AcDbEntity
  8
細線
 48
50.0
100
AcDbLine
 10
3692.835595644569
 20
3396.858772595672
 30
0.0
 11
3695.742494139211
 21
3396.858772595672
 31
0.0
  0
LINE
  5
18EA1
330
747D
100
AcDbEntity
  8
細線
 48
50.0
100
AcDbLine
 10
3692.835595644569
 20
3381.366839210841
 30
0.0
 11
3695.742494139211
 21
3381.366839210841
 31
0.0
  0
LINE
  5
18EA2
330
747D
100
AcDbEntity
  8
細線
 48
50.0
100
AcDbLine
 10
3719.066301718589
 20
3396.858772595672
 30
0.0
 11
3721.973200213235
 21
3396.858772595672
 31
0.0
  0
LINE
  5
18EA3
330
747D
100
AcDbEntity
  8
細線
 48
50.0
100
AcDbLine
 10
3719.066301718589
 20
3381.366839210841
 30
0.0
 11
3721.973200213235
 21
3381.366839210841
 31
0.0
  0
ARC
  5
18EA4
330
747D
100
AcDbEntity
  8
細線
 48
50.0
100
AcDbCircle
 10
3707.4043979289
 20
3389.112805903256
 30
0.0
 40
14.0
100
AcDbArc
 50
146.4074436112842
 51
213.5925563887158
  0
ARC
  5
18EA5
330
747D
100
AcDbEntity
  8
細線
 48
50.0
100
AcDbCircle
 10
3707.4043979289
 20
3389.112805903256
 30
0.0
 40
16.5
100
AcDbArc
 50
152.0012352654315
 51
207.9987647345685
  0
ARC
  5
18EA6
330
747D
100
AcDbEntity
  8
部品1
 48
50.0
100
AcDbCircle
 10
3680.9043979289
 20
3414.612805903256
 30
0.0
 40
5.0
100
AcDbArc
 50
90.0
 51
180.0
  0
ARC
  5
18EA7
330
747D
100
AcDbEntity
  8
部品1
 48
50.0
100
AcDbCircle
 10
3680.9043979289
 20
3303.612805903256
 30
0.0
 40
5.0
100
AcDbArc
 50
180.0
 51
270.0
  0
ARC
  5
18EA8
330
747D
100
AcDbEntity
  8
部品1
 48
50.0
100
AcDbCircle
 10
3733.9043979289
 20
3303.612805903256
 30
0.0
 40
5.0
100
AcDbArc
 50
270.0
 51
0.0
  0
ARC
  5
18EA9
330
747D
100
AcDbEntity
  8
部品1
 48
50.0
100
AcDbCircle
 10
3733.9043979289
 20
3414.612805903256
 30
0.0
 40
5.0
100
AcDbArc
 50
0.0
 51
90.0
  0
LINE
  5
18EAA
330
747D
100
AcDbEntity
  8
部品1
 48
50.0
100
AcDbLine
 10
3675.9043979289
 20
3303.612805903256
 30
0.0
 11
3675.9043979289
 21
3414.612805903256
 31
0.0
  0
LINE
  5
18EAB
330
747D
100
AcDbEntity
  8
部品1
 48
50.0
100
AcDbLine
 10
3733.9043979289
 20
3298.612805903257
 30
0.0
 11
3680.9043979289
 21
3298.612805903257
 31
0.0
  0
LINE
  5
18EAC
330
747D
100
AcDbEntity
  8
部品1
 48
50.0
100
AcDbLine
 10
3738.9043979289
 20
3414.612805903256
 30
0.0
 11
3738.9043979289
 21
3303.612805903256
 31
0.0
  0
ENDSEC
  0
SECTION
  2
OBJECTS
  0
DICTIONARY
  5
7471
330
0
100
AcDbDictionary
281
     1
  3
ACAD_COLOR
350
13A7D
  3
ACAD_GROUP
350
7472
  3
ACAD_LAYOUT
350
13A7E
  3
ACAD_MATERIAL
350
13A7C
  3
ACAD_MLINESTYLE
350
7473
  3
ACAD_PLOTSETTINGS
350
13A7F
  3
ACAD_PLOTSTYLENAME
350
13A7A
  3
ACDBHEADERROUNDTRIPXREC
350
18EB9
  3
AcDbVariableDictionary
350
18DE8
  3
CONTENTDICTIONARY
350
E71C
  3
DRAWINGVARIABLESDICT
350
F3B9
  0
DICTIONARY
  5
13C05
330
7467
100
AcDbDictionary
280
     1
281
     1
  3
ACAD_LAYERSTATES
360
13C06
  0
DICTIONARY
  5
13A7D
102
{ACAD_REACTORS
330
7471
102
}
330
7471
100
AcDbDictionary
281
     1
  0
DICTIONARY
  5
7472
102
{ACAD_REACTORS
330
7471
102
}
330
7471
100
AcDbDictionary
281
     1
  0
DICTIONARY
  5
13A7E
102
{ACAD_REACTORS
330
7471
102
}
330
7471
100
AcDbDictionary
281
     1
  3
Model
350
13A80
  3
レイアウト1
350
13A81
  0
DICTIONARY
  5
13A7C
102
{ACAD_REACTORS
330
7471
102
}
330
7471
100
AcDbDictionary
281
     1
  0
DICTIONARY
  5
7473
102
{ACAD_REACTORS
330
7471
102
}
330
7471
100
AcDbDictionary
281
     1
  3
STANDARD
350
7480
  0
DICTIONARY
  5
13A7F
102
{ACAD_REACTORS
330
7471
102
}
330
7471
100
AcDbDictionary
281
     1
  0
ACDBDICTIONARYWDFLT
  5
13A7A
102
{ACAD_REACTORS
330
7471
102
}
330
7471
100
AcDbDictionary
281
     1
  3
Normal
350
13A7B
100
AcDbDictionaryWithDefault
340
13A7B
  0
DICTIONARY
  5
18EB9
102
{ACAD_REACTORS
330
7471
102
}
330
7471
100
AcDbDictionary
281
     1
  3
COLORDICT
350
18EBB
  3
MATERIALDICT
350
18EBA
  0
DICTIONARY
  5
18DE8
102
{ACAD_REACTORS
330
7471
102
}
330
7471
100
AcDbDictionary
281
     1
  3
DIMASSOC
350
18DE9
  3
PROJECTNAME
350
18DEA
  0
DICTIONARY
  5
E71C
102
{ACAD_REACTORS
330
7471
102
}
330
7471
100
AcDbDictionary
281
     1
  0
DICTIONARY
  5
F3B9
102
{ACAD_REACTORS
330
7471
102
}
330
7471
100
AcDbDictionary
281
     1
1001
DRAWINGVARIABLESXDATA
1000
POLARMODE
1000
1
  0
DICTIONARY
  5
13C06
102
{ACAD_REACTORS
330
13C05
102
}
330
13C05
100
AcDbDictionary
281
     1
  0
LAYOUT
  5
13A80
102
{ACAD_XDICTIONARY
360
18EBC
102
}
102
{ACAD_REACTORS
330
13A7E
102
}
330
13A7E
100
AcDbPlotSettings
  1

  2
Microsoft Office Document Image Writer
  4

  6

 40
0.0
 41
0.0
 42
0.0
 43
0.0
 44
0.0
 45
0.0
 46
0.0
 47
0.0
 48
0.0
 49
0.0
140
0.0
141
0.0
142
1.0
143
1.0
 70
  1712
 72
     0
 73
     0
 74
     0
  7

 75
     0
147
1.0
148
0.0
149
0.0
100
AcDbLayout
  1
Model
 70
     1
 71
     0
 10
0.0
 20
0.0
 11
12.0
 21
9.0
 12
0.0
 22
0.0
 32
0.0
 14
0.0
 24
0.0
 34
0.0
 15
0.0
 25
0.0
 35
0.0
146
0.0
 13
0.0
 23
0.0
 33
0.0
 16
1.0
 26
0.0
 36
0.0
 17
0.0
 27
1.0
 37
0.0
 76
     0
330
747D
  0
LAYOUT
  5
13A81
102
{ACAD_XDICTIONARY
360
18EBE
102
}
102
{ACAD_REACTORS
330
13A7E
102
}
330
13A7E
100
AcDbPlotSettings
  1

  2
Microsoft Office Document Image Writer
  4

  6

 40
0.0
 41
0.0
 42
0.0
 43
0.0
 44
0.0
 45
0.0
 46
0.0
 47
0.0
 48
0.0
 49
0.0
140
0.0
141
0.0
142
1.0
143
1.0
 70
   688
 72
     0
 73
     0
 74
     5
  7

 75
    16
147
1.0
148
0.0
149
0.0
100
AcDbLayout
  1
レイアウト1
 70
     0
 71
     1
 10
0.0
 20
0.0
 11
420.0
 21
297.0
 12
0.0
 22
0.0
 32
0.0
 14
1.000000000000000E+20
 24
1.000000000000000E+20
 34
1.000000000000000E+20
 15
-1.000000000000000E+20
 25
-1.000000000000000E+20
 35
-1.000000000000000E+20
146
0.0
 13
0.0
 23
0.0
 33
0.0
 16
1.0
 26
0.0
 36
0.0
 17
0.0
 27
1.0
 37
0.0
 76
     0
330
747A
  0
MLINESTYLE
  5
7480
102
{ACAD_REACTORS
330
7473
102
}
330
7473
100
AcDbMlineStyle
  2
STANDARD
 70
     0
  3

 62
     0
 51
90.0
 52
90.0
 71
     2
 49
0.5
 62
   256
  6
BYLAYER
 49
-0.5
 62
   256
  6
BYLAYER
  0
ACDBPLACEHOLDER
  5
13A7B
102
{ACAD_REACTORS
330
13A7A
102
}
330
13A7A
  0
XRECORD
  5
18EBB
102
{ACAD_REACTORS
330
18EB9
102
}
330
18EB9
100
AcDbXrecord
280
     1
340
13A7D
  0
XRECORD
  5
18EBA
102
{ACAD_REACTORS
330
18EB9
102
}
330
18EB9
100
AcDbXrecord
280
     1
340
13A7C
  0
DICTIONARYVAR
  5
18DE9
102
{ACAD_REACTORS
330
18DE8
102
}
330
18DE8
100
DictionaryVariables
280
     0
  1
1
  0
DICTIONARYVAR
  5
18DEA
102
{ACAD_REACTORS
330
18DE8
102
}
330
18DE8
100
DictionaryVariables
280
     0
  1

  0
DICTIONARY
  5
18EBC
330
13A80
100
AcDbDictionary
280
     1
281
     1
  3
ACAD_XREC_ROUNDTRIP
360
18EBD
  0
DICTIONARY
  5
18EBE
330
13A81
100
AcDbDictionary
280
     1
281
     1
  3
ACAD_XREC_ROUNDTRIP
360
18EBF
  0
XRECORD
  5
18EBD
102
{ACAD_REACTORS
330
18EBC
102
}
330
18EBC
100
AcDbXrecord
280
     1
102
SHADEPLOT
 70
     0
102
SHADEPLOTRESLEVEL
 70
     2
102
SHADEPLOTCUSTOMDPI
 70
   300
  0
XRECORD
  5
18EBF
102
{ACAD_REACTORS
330
18EBE
102
}
330
18EBE
100
AcDbXrecord
280
     1
102
SHADEPLOT
 70
     0
102
SHADEPLOTRESLEVEL
 70
     2
102
SHADEPLOTCUSTOMDPI
 70
   300
  0
ENDSEC
  0
EOF
