  0
SECTION
  2
HEADER
  9
$ACADVER
  1
AC1015
  9
$ACADMAINTVER
 70
    20
  9
$DWGCODEPAGE
  3
ANSI_932
  9
$INSBASE
 10
0.0
 20
0.0
 30
0.0
  9
$EXTMIN
 10
139.9999999999995
 20
-0.0000000000000909
 30
0.0
  9
$EXTMAX
 10
16307.2
 20
11409.6
 30
0.0
  9
$LIMMIN
 10
0.0
 20
0.0
  9
$LIMMAX
 10
16800.0
 20
11880.0
  9
$ORTHOMODE
 70
     0
  9
$REGENMODE
 70
     1
  9
$FILLMODE
 70
     1
  9
$QTEXTMODE
 70
     0
  9
$MIRRTEXT
 70
     1
  9
$LTSCALE
 40
20.0
  9
$ATTMODE
 70
     1
  9
$TEXTSIZE
 40
100.0
  9
$TRACEWID
 40
1.0
  9
$TEXTSTYLE
  7
STYLE3
  9
$CLAYER
  8
寸法
  9
$CELTYPE
  6
BYLAYER
  9
$CECOLOR
 62
   256
  9
$CELTSCALE
 40
50.0
  9
$DISPSILH
 70
     0
  9
$DIMSCALE
 40
40.0
  9
$DIMASZ
 40
0.5
  9
$DIMEXO
 40
0.5
  9
$DIMDLI
 40
7.0
  9
$DIMRND
 40
0.0
  9
$DIMDLE
 40
0.0
  9
$DIMEXE
 40
1.0
  9
$DIMTP
 40
0.0
  9
$DIMTM
 40
0.0
  9
$DIMTXT
 40
3.0
  9
$DIMCEN
 40
0.0
  9
$DIMTSZ
 40
0.0
  9
$DIMTOL
 70
     0
  9
$DIMLIM
 70
     0
  9
$DIMTIH
 70
     0
  9
$DIMTOH
 70
     0
  9
$DIMSE1
 70
     0
  9
$DIMSE2
 70
     0
  9
$DIMTAD
 70
     3
  9
$DIMZIN
 70
     8
  9
$DIMBLK
  1

  9
$DIMASO
 70
     1
  9
$DIMSHO
 70
     1
  9
$DIMPOST
  1

  9
$DIMAPOST
  1

  9
$DIMALT
 70
     0
  9
$DIMALTD
 70
     2
  9
$DIMALTF
 40
0.0394
  9
$DIMLFAC
 40
1.0
  9
$DIMTOFL
 70
     1
  9
$DIMTVP
 40
0.0
  9
$DIMTIX
 70
     1
  9
$DIMSOXD
 70
     1
  9
$DIMSAH
 70
     1
  9
$DIMBLK1
  1
DOT
  9
$DIMBLK2
  1
DOT
  9
$DIMSTYLE
  2
INABA_S40
  9
$DIMCLRD
 70
     0
  9
$DIMCLRE
 70
     0
  9
$DIMCLRT
 70
     7
  9
$DIMTFAC
 40
1.0
  9
$DIMGAP
 40
0.8
  9
$DIMJUST
 70
     0
  9
$DIMSD1
 70
     0
  9
$DIMSD2
 70
     0
  9
$DIMTOLJ
 70
     1
  9
$DIMTZIN
 70
     0
  9
$DIMALTZ
 70
     0
  9
$DIMALTTZ
 70
     0
  9
$DIMUPT
 70
     0
  9
$DIMDEC
 70
     2
  9
$DIMTDEC
 70
     2
  9
$DIMALTU
 70
     2
  9
$DIMALTTD
 70
     2
  9
$DIMTXSTY
  7
STYLE1
  9
$DIMAUNIT
 70
     0
  9
$DIMADEC
 70
     0
  9
$DIMALTRND
 40
0.0
  9
$DIMAZIN
 70
     0
  9
$DIMDSEP
 70
    46
  9
$DIMATFIT
 70
     3
  9
$DIMFRAC
 70
     0
  9
$DIMLDRBLK
  1

  9
$DIMLUNIT
 70
     2
  9
$DIMLWD
 70
    -2
  9
$DIMLWE
 70
    -2
  9
$DIMTMOVE
 70
     0
  9
$LUNITS
 70
     2
  9
$LUPREC
 70
     1
  9
$SKETCHINC
 40
1.0
  9
$FILLETRAD
 40
5.0
  9
$AUNITS
 70
     0
  9
$AUPREC
 70
     0
  9
$MENU
  1
acad
  9
$ELEVATION
 40
0.0
  9
$PELEVATION
 40
0.0
  9
$THICKNESS
 40
0.0
  9
$LIMCHECK
 70
     0
  9
$CHAMFERA
 40
0.0
  9
$CHAMFERB
 40
0.0
  9
$CHAMFERC
 40
0.0
  9
$CHAMFERD
 40
0.0
  9
$SKPOLY
 70
     0
  9
$TDCREATE
 40
2451590.492424190
  9
$TDUCREATE
 40
2451590.117424190
  9
$TDUPDATE
 40
2455575.701698669
  9
$TDUUPDATE
 40
2455575.326698669
  9
$TDINDWG
 40
0.0589492477
  9
$TDUSRTIMER
 40
0.0589492477
  9
$USRTIMER
 70
     1
  9
$ANGBASE
 50
0.0
  9
$ANGDIR
 70
     0
  9
$PDMODE
 70
     3
  9
$PDSIZE
 40
2.0
  9
$PLINEWID
 40
0.0
  9
$SPLFRAME
 70
     0
  9
$SPLINETYPE
 70
     6
  9
$SPLINESEGS
 70
     8
  9
$HANDSEED
  5
154F9
  9
$SURFTAB1
 70
     6
  9
$SURFTAB2
 70
     6
  9
$SURFTYPE
 70
     6
  9
$SURFU
 70
     6
  9
$SURFV
 70
     6
  9
$UCSBASE
  2

  9
$UCSNAME
  2

  9
$UCSORG
 10
0.0
 20
0.0
 30
0.0
  9
$UCSXDIR
 10
1.0
 20
0.0
 30
0.0
  9
$UCSYDIR
 10
0.0
 20
1.0
 30
0.0
  9
$UCSORTHOREF
  2

  9
$UCSORTHOVIEW
 70
     0
  9
$UCSORGTOP
 10
0.0
 20
0.0
 30
0.0
  9
$UCSORGBOTTOM
 10
0.0
 20
0.0
 30
0.0
  9
$UCSORGLEFT
 10
0.0
 20
0.0
 30
0.0
  9
$UCSORGRIGHT
 10
0.0
 20
0.0
 30
0.0
  9
$UCSORGFRONT
 10
0.0
 20
0.0
 30
0.0
  9
$UCSORGBACK
 10
0.0
 20
0.0
 30
0.0
  9
$PUCSBASE
  2

  9
$PUCSNAME
  2

  9
$PUCSORG
 10
0.0
 20
0.0
 30
0.0
  9
$PUCSXDIR
 10
1.0
 20
0.0
 30
0.0
  9
$PUCSYDIR
 10
0.0
 20
1.0
 30
0.0
  9
$PUCSORTHOREF
  2

  9
$PUCSORTHOVIEW
 70
     0
  9
$PUCSORGTOP
 10
0.0
 20
0.0
 30
0.0
  9
$PUCSORGBOTTOM
 10
0.0
 20
0.0
 30
0.0
  9
$PUCSORGLEFT
 10
0.0
 20
0.0
 30
0.0
  9
$PUCSORGRIGHT
 10
0.0
 20
0.0
 30
0.0
  9
$PUCSORGFRONT
 10
0.0
 20
0.0
 30
0.0
  9
$PUCSORGBACK
 10
0.0
 20
0.0
 30
0.0
  9
$USERI1
 70
     0
  9
$USERI2
 70
     0
  9
$USERI3
 70
     0
  9
$USERI4
 70
     0
  9
$USERI5
 70
     0
  9
$USERR1
 40
0.0
  9
$USERR2
 40
0.0
  9
$USERR3
 40
0.0
  9
$USERR4
 40
0.0
  9
$USERR5
 40
0.0
  9
$WORLDVIEW
 70
     1
  9
$SHADEDGE
 70
     3
  9
$SHADEDIF
 70
    70
  9
$TILEMODE
 70
     1
  9
$MAXACTVP
 70
    16
  9
$PINSBASE
 10
0.0
 20
0.0
 30
0.0
  9
$PLIMCHECK
 70
     0
  9
$PEXTMIN
 10
1.000000000000000E+20
 20
1.000000000000000E+20
 30
1.000000000000000E+20
  9
$PEXTMAX
 10
-1.000000000000000E+20
 20
-1.000000000000000E+20
 30
-1.000000000000000E+20
  9
$PLIMMIN
 10
0.0
 20
0.0
  9
$PLIMMAX
 10
420.0
 20
297.0
  9
$UNITMODE
 70
     0
  9
$VISRETAIN
 70
     0
  9
$PLINEGEN
 70
     0
  9
$PSLTSCALE
 70
     0
  9
$TREEDEPTH
 70
  3020
  9
$CMLSTYLE
  2
STANDARD
  9
$CMLJUST
 70
     0
  9
$CMLSCALE
 40
1.0
  9
$PROXYGRAPHICS
 70
     1
  9
$MEASUREMENT
 70
     1
  9
$CELWEIGHT
370
    -1
  9
$ENDCAPS
280
     0
  9
$JOINSTYLE
280
     0
  9
$LWDISPLAY
290
     0
  9
$INSUNITS
 70
     0
  9
$HYPERLINKBASE
  1

  9
$STYLESHEET
  1

  9
$XEDIT
290
     1
  9
$CEPSNTYPE
380
     0
  9
$PSTYLEMODE
290
     1
  9
$FINGERPRINTGUID
  2
{576E4AB0-1E65-4012-B033-243F96A195F7}
  9
$VERSIONGUID
  2
{50E85555-4BAF-4C77-9AC2-5F2A9812FE48}
  9
$EXTNAMES
290
     1
  9
$PSVPSCALE
 40
0.0
  9
$OLESTARTUP
290
     0
  0
ENDSEC
  0
SECTION
  2
CLASSES
  0
CLASS
  1
ACDBDICTIONARYWDFLT
  2
AcDbDictionaryWithDefault
  3
ObjectDBX Classes
 90
        0
280
     0
281
     0
  0
CLASS
  1
DICTIONARYVAR
  2
AcDbDictionaryVar
  3
ObjectDBX Classes
 90
        0
280
     0
281
     0
  0
CLASS
  1
ACDBPLACEHOLDER
  2
AcDbPlaceHolder
  3
ObjectDBX Classes
 90
        0
280
     0
281
     0
  0
CLASS
  1
LAYOUT
  2
AcDbLayout
  3
ObjectDBX Classes
 90
        0
280
     0
281
     0
  0
ENDSEC
  0
SECTION
  2
TABLES
  0
TABLE
  2
VPORT
  5
746D
330
0
100
AcDbSymbolTable
 70
     2
  0
VPORT
  5
154F1
330
746D
100
AcDbSymbolTableRecord
100
AcDbViewportTableRecord
  2
*Active
 70
     0
 10
0.0
 20
0.0
 11
1.0
 21
1.0
 12
8223.761025238502
 22
6348.683291179126
 13
0.0
 23
0.0
 14
10.0
 24
10.0
 15
10.0
 25
10.0
 16
0.0
 26
0.0
 36
1.0
 17
0.0
 27
0.0
 37
0.0
 40
12805.56644836532
 41
1.525925925925925
 42
50.0
 43
0.0
 44
0.0
 50
0.0
 51
0.0
 71
     0
 72
     0
 73
     1
 74
     0
 75
     0
 76
     0
 77
     0
 78
     0
281
     0
 65
     1
110
0.0
120
0.0
130
0.0
111
1.0
121
0.0
131
0.0
112
0.0
122
1.0
132
0.0
 79
     0
146
0.0
  0
ENDTAB
  0
TABLE
  2
LTYPE
  5
746A
330
0
100
AcDbSymbolTable
 70
     4
  0
LTYPE
  5
7477
330
746A
100
AcDbSymbolTableRecord
100
AcDbLinetypeTableRecord
  2
BYBLOCK
 70
     0
  3

 72
    65
 73
     0
 40
0.0
  0
LTYPE
  5
7478
330
746A
100
AcDbSymbolTableRecord
100
AcDbLinetypeTableRecord
  2
BYLAYER
 70
     0
  3

 72
    65
 73
     0
 40
0.0
  0
LTYPE
  5
7479
330
746A
100
AcDbSymbolTableRecord
100
AcDbLinetypeTableRecord
  2
CONTINUOUS
 70
     0
  3
Solid line
 72
    65
 73
     0
 40
0.0
  0
LTYPE
  5
7816
330
746A
100
AcDbSymbolTableRecord
100
AcDbLinetypeTableRecord
  2
CENTER
 70
     0
  3
____ _ ____ _ ____ _ ____ _ ____ _ ____ _ ____ 
 72
    65
 73
     4
 40
2.0
 49
1.25
 74
     0
 49
-0.25
 74
     0
 49
0.25
 74
     0
 49
-0.25
 74
     0
  0
LTYPE
  5
781A
330
746A
100
AcDbSymbolTableRecord
100
AcDbLinetypeTableRecord
  2
HIDDEN
 70
     0
  3
__ __ __ __ __ __ __ __ __ __ __ __ __ __ __ __
 72
    65
 73
     2
 40
0.375
 49
0.25
 74
     0
 49
-0.125
 74
     0
  0
LTYPE
  5
781B
330
746A
100
AcDbSymbolTableRecord
100
AcDbLinetypeTableRecord
  2
PHANTOM
 70
     0
  3
______  __  __  ______  __  __  ______  __  __ 
 72
    65
 73
     6
 40
2.5
 49
1.25
 74
     0
 49
-0.25
 74
     0
 49
0.25
 74
     0
 49
-0.25
 74
     0
 49
0.25
 74
     0
 49
-0.25
 74
     0
  0
ENDTAB
  0
TABLE
  2
LAYER
  5
7467
102
{ACAD_XDICTIONARY
360
13A61
102
}
330
0
100
AcDbSymbolTable
 70
    13
  0
LAYER
  5
7474
330
7467
100
AcDbSymbolTableRecord
100
AcDbLayerTableRecord
  2
0
 70
     0
 62
     7
  6
CONTINUOUS
370
    -3
390
138E3
  0
LAYER
  5
DEB2
330
7467
100
AcDbSymbolTableRecord
100
AcDbLayerTableRecord
  2
センター
 70
     0
 62
     3
  6
CENTER
370
    -3
390
138E3
  0
LAYER
  5
DEB3
330
7467
100
AcDbSymbolTableRecord
100
AcDbLayerTableRecord
  2
寸法
 70
     0
 62
     4
  6
CONTINUOUS
370
    -3
390
138E3
  0
LAYER
  5
DEB4
330
7467
100
AcDbSymbolTableRecord
100
AcDbLayerTableRecord
  2
部品1
 70
     0
 62
     7
  6
CONTINUOUS
370
    -3
390
138E3
  0
LAYER
  5
DEB5
330
7467
100
AcDbSymbolTableRecord
100
AcDbLayerTableRecord
  2
補助
 70
     0
 62
    -1
  6
CONTINUOUS
370
    -3
390
138E3
  0
LAYER
  5
DEB6
330
7467
100
AcDbSymbolTableRecord
100
AcDbLayerTableRecord
  2
文字
 70
     0
 62
     7
  6
CONTINUOUS
370
    -3
390
138E3
  0
LAYER
  5
F255
330
7467
100
AcDbSymbolTableRecord
100
AcDbLayerTableRecord
  2
DEFPOINTS
 70
     0
 62
     7
  6
CONTINUOUS
290
     0
370
    -3
390
138E3
  0
LAYER
  5
10B54
330
7467
100
AcDbSymbolTableRecord
100
AcDbLayerTableRecord
  2
仕様書枠
 70
     0
 62
   230
  6
CONTINUOUS
370
    -3
390
138E3
  0
LAYER
  5
11729
330
7467
100
AcDbSymbolTableRecord
100
AcDbLayerTableRecord
  2
Ｇ．Ｌ
 70
     0
 62
    30
  6
CONTINUOUS
370
    -3
390
138E3
  0
LAYER
  5
1173F
330
7467
100
AcDbSymbolTableRecord
100
AcDbLayerTableRecord
  2
細線
 70
     0
 62
     5
  6
CONTINUOUS
370
    -3
390
138E3
  0
LAYER
  5
11740
330
7467
100
AcDbSymbolTableRecord
100
AcDbLayerTableRecord
  2
点線
 70
     0
 62
     2
  6
HIDDEN
370
    -3
390
138E3
  0
LAYER
  5
11905
330
7467
100
AcDbSymbolTableRecord
100
AcDbLayerTableRecord
  2
破線
 70
     0
 62
     2
  6
HIDDEN
370
    -3
390
138E3
  0
LAYER
  5
145AA
330
7467
100
AcDbSymbolTableRecord
100
AcDbLayerTableRecord
  2
Ｇ_Ｌ
 70
     0
 62
    30
  6
CONTINUOUS
370
    -3
390
138E3
  0
ENDTAB
  0
TABLE
  2
STYLE
  5
7468
330
0
100
AcDbSymbolTable
 70
     7
  0
STYLE
  5
7475
330
7468
100
AcDbSymbolTableRecord
100
AcDbTextStyleTableRecord
  2
STANDARD
 70
     0
 40
0.0
 41
1.0
 50
0.0
 71
     0
 42
4.0
  3
txt
  4
C:\AutoCAD LT\bigfont.shx
  0
STYLE
  5
763C
330
7468
100
AcDbSymbolTableRecord
100
AcDbTextStyleTableRecord
  2
MSMINCHO
 70
     0
 40
0.0
 41
1.0
 50
0.0
 71
     0
 42
1.199999999999999
  3
C:\AutoCAD LT\msminch2.TTF
  4

  0
STYLE
  5
F5E9
330
7468
100
AcDbSymbolTableRecord
100
AcDbTextStyleTableRecord
  2

 70
     1
 40
0.0
 41
1.0
 50
0.0
 71
     0
 42
4.0
  3
ltypeshp.shx
  4

  0
STYLE
  5
F706
330
7468
100
AcDbSymbolTableRecord
100
AcDbTextStyleTableRecord
  2
STYLE1
 70
     0
 40
0.0
 41
1.0
 50
0.0
 71
     0
 42
4.0
  3
isocp.shx
  4
bigfont.shx
  0
STYLE
  5
103BF
330
7468
100
AcDbSymbolTableRecord
100
AcDbTextStyleTableRecord
  2
STYLE2
 70
     0
 40
0.0
 41
1.0
 50
0.0
 71
     0
 42
100.0
  3
MS PGothic.ttf
  4

1001
ACAD
1000
MS PGothic
1071
    32818
  0
STYLE
  5
10BAA
330
7468
100
AcDbSymbolTableRecord
100
AcDbTextStyleTableRecord
  2
STYLE3
 70
     0
 40
0.0
 41
1.0
 50
0.0
 71
     0
 42
100.0
  3

  4

1001
ACAD
1000
DFPGothic-EB
1071
    32818
  0
STYLE
  5
11906
330
7468
100
AcDbSymbolTableRecord
100
AcDbTextStyleTableRecord
  2
MSGOTHIC
 70
     0
 40
0.0
 41
1.0
 50
0.0
 71
     0
 42
3.5
  3
msgothi2.ttf
  4

  0
ENDTAB
  0
TABLE
  2
VIEW
  5
746B
330
0
100
AcDbSymbolTable
 70
     0
  0
ENDTAB
  0
TABLE
  2
UCS
  5
746C
330
0
100
AcDbSymbolTable
 70
     0
  0
ENDTAB
  0
TABLE
  2
APPID
  5
746E
330
0
100
AcDbSymbolTable
 70
     6
  0
APPID
  5
7476
330
746E
100
AcDbSymbolTableRecord
100
AcDbRegAppTableRecord
  2
ACAD
 70
     0
  0
APPID
  5
DEA9
330
746E
100
AcDbSymbolTableRecord
100
AcDbRegAppTableRecord
  2
CONTENTBLOCKICON
 70
     0
  0
APPID
  5
DEAA
330
746E
100
AcDbSymbolTableRecord
100
AcDbRegAppTableRecord
  2
CONTENTBLOCKDESCRIPTION
 70
     0
  0
APPID
  5
E71D
330
746E
100
AcDbSymbolTableRecord
100
AcDbRegAppTableRecord
  2
CONTENTTABDATA
 70
     0
  0
APPID
  5
E71E
330
746E
100
AcDbSymbolTableRecord
100
AcDbRegAppTableRecord
  2
CONTENTCURRENTTAB
 70
     0
  0
APPID
  5
F3BA
330
746E
100
AcDbSymbolTableRecord
100
AcDbRegAppTableRecord
  2
DRAWINGVARIABLESXDATA
 70
     0
  0
ENDTAB
  0
TABLE
  2
DIMSTYLE
  5
746F
330
0
100
AcDbSymbolTable
 70
     6
100
AcDbDimStyleTable
 71
     0
  0
DIMSTYLE
105
7484
330
746F
100
AcDbSymbolTableRecord
100
AcDbDimStyleTableRecord
  2
JIS
 70
     0
 41
2.5
 42
1.0
 43
7.0
 44
1.0
 73
     0
 74
     0
 77
     1
 78
     8
140
2.5
141
0.0
143
0.0394
147
0.0
172
     1
174
     1
175
     1
340
7475
  0
DIMSTYLE
105
F236
102
{ACAD_REACTORS
330
1401A
330
14025
330
14068
330
1407C
330
1407D
330
140A2
330
140A3
330
140A4
330
140A5
330
140A6
330
14729
330
14E17
330
150FC
330
151F9
330
1522E
102
}
330
746F
100
AcDbSymbolTableRecord
100
AcDbDimStyleTableRecord
  2
INABA_S40
 70
     0
 40
40.0
 41
2.5
 42
0.5
 43
7.0
 44
1.5
 73
     0
 74
     0
 77
     3
 78
     8
140
3.0
141
0.0
143
0.0394
147
1.0
172
     1
173
     1
174
     1
175
     1
178
     7
289
     0
340
7475
  0
DIMSTYLE
105
F71F
102
{ACAD_REACTORS
330
13EED
330
13EEE
330
13EEF
330
13ED4
330
1472A
330
1472B
330
1472C
330
1475C
330
14760
330
14761
330
14762
330
14770
330
14779
330
150FB
102
}
330
746F
100
AcDbSymbolTableRecord
100
AcDbDimStyleTableRecord
  2
INABA_S40G
 70
     0
 40
40.0
 41
2.5
 42
0.5
 43
7.0
 44
1.5
 73
     0
 74
     0
 77
     3
 78
     8
140
3.0
141
0.0
143
0.0394
147
1.0
172
     1
173
     1
174
     1
175
     1
178
     7
271
     1
340
F706
341
F770
343
F770
344
F770
  0
DIMSTYLE
105
11907
330
746F
100
AcDbSymbolTableRecord
100
AcDbDimStyleTableRecord
  2
INABA_S50
 70
     0
 40
50.0
 41
0.5
 42
0.5
 43
7.0
 44
1.0
 73
     0
 74
     0
 77
     3
 78
     8
140
2.5
141
0.0
143
0.0394
147
0.8
172
     1
173
     1
174
     1
175
     1
178
     7
271
     2
272
     2
289
     0
340
7475
341
F744
343
F744
344
F744
  0
DIMSTYLE
105
11908
330
746F
100
AcDbSymbolTableRecord
100
AcDbDimStyleTableRecord
  2
INABA_S50G
 70
     0
 41
125.0
 42
25.0
 43
7.0
 44
75.0
 73
     0
 74
     0
 77
     3
 78
     8
140
150.0
141
0.0
143
0.0394
147
25.0
172
     1
173
     1
174
     1
175
     1
178
     7
271
     1
340
F706
341
F770
343
F770
344
F770
  0
DIMSTYLE
105
15488
330
746F
100
AcDbSymbolTableRecord
100
AcDbDimStyleTableRecord
  2
INABA_S20G
 70
     0
 40
20.0
 41
2.5
 42
0.5
 43
7.0
 44
1.5
 73
     0
 74
     0
 77
     3
 78
     8
140
3.0
141
0.0
143
0.0394
147
1.0
172
     1
173
     1
174
     1
178
     7
271
     1
340
F706
341
F770
343
F770
344
F770
  0
ENDTAB
  0
TABLE
  2
BLOCK_RECORD
  5
7466
330
0
100
AcDbSymbolTable
 70
    32
  0
BLOCK_RECORD
  5
747D
330
7466
100
AcDbSymbolTableRecord
100
AcDbBlockTableRecord
  2
*MODEL_SPACE
340
138E8
  0
BLOCK_RECORD
  5
747A
330
7466
100
AcDbSymbolTableRecord
100
AcDbBlockTableRecord
  2
*PAPER_SPACE
340
138E9
  0
BLOCK_RECORD
  5
ECB3
330
7466
100
AcDbSymbolTableRecord
100
AcDbBlockTableRecord
  2
作図枠S50
340
0
310
2800000020000000200000000100040000000000000200000000000000000000000000000000000000000000000080000080000000808000800000008000800080800000C0C0C000808080000000FF0000FF000000FFFF00FF000000FF00FF00FFFF0000FFFFFF00FFFFFFFFFFFFFFFFFFFFFFFFFFFFFFFFFFFFFFFFFFFFFF
310
FFFFFFFFFFFFFFFFFFFFFFFFFFFFFFFFFFFFFFFFFFFFFFFFFFFFFFFFFFFFFFFFFFFFFFFFFFFFFFFFFFFFFFFFFFFFFFFFFFFFFFFFFFFFFFFFFFFFFFFFFFFFFFFFFFFFFFFFFFFFFFFFFF999999999999999999999999999999999FFFFFFFFFFFFFFFFFFFFFFFFFFFFFF99FFFFFFFFFFFFFFFFFFFFFFFFFFFFFF99FFFFFFFFFFF
310
FFFFFFFFFFFFFFFFFFF99FFFFFFFFFFFFFFFFFFFFFFFFFFFFFF99FFFFFFFFFFFFFFFFFFFFFFFFFFFFFF99FFFFFFFFFFFFFFFFFFFFFFFFFFFFFF99FFFFFFFFFFFFFFFFFFFFFFFFFFFFFF99FFFFFFFFFFFFFFFFFFFFFFFFFFFFFF99FFFFFFFFFFFFFFFFFFFFFFFFFFFFFF99FFFFFFFFFFFFFFFFFFFFFFFFFFFFFF99FFFFFFFFF
310
FFFFFFFFFFFFFFFFFFFFF99FFFFFFFFFFFFFFFFFFFFFFFFFFFFFF99FFFFFFFFFFFFFFFFFFFFFFFFFFFFFF99FFFFFFFFFFFFFFFFFFFFFFFFFFFFFF99FFFFFFFFFFFFFFFFFFFFFFFFFFFFFF99FFFFFFFFFFFFFFFFFFFFFFFFFFFFFF99FFFFFFFFFFFFFFFFFFFFFFFFFFFFFF99FFFFFFFFFFFFFFFFFFFFF99999999999FFFFFFF
310
FFFFFFFFFFFFFF9FFFFFFFFF99999999999999999999999FFFFFFFFFFFFFFFFFFFFFFFFFFFFFFFFFFFFFFFFFFFFFFFFFFFFFFFFFFFFFFFFFFFFFFFFFFFFFFFFFFFFFFFFFFFFFFFFFFFFFFFFFFFFFFFFFFFFFFFFFFFFFFFFFFFFFFFFFFFFFFFFFFFFFFFFFFFFFFFFFFFFFFFFF
102
{BLKREFS
331
F235
102
}
  0
BLOCK_RECORD
  5
F744
330
7466
100
AcDbSymbolTableRecord
100
AcDbBlockTableRecord
  2
_DOT
340
0
102
{BLKREFS
331
14CAF
331
14CB0
331
153B9
331
153BA
331
153C2
331
153C3
331
153CD
331
153CE
331
153DF
331
153E0
331
153EA
331
153EB
331
153F3
331
153F4
331
153FE
331
153FF
331
15407
331
15408
331
15412
331
15413
331
1541B
331
1541C
331
15424
331
15425
331
1542F
331
15430
331
15438
331
15439
331
15441
331
15442
102
}
  0
BLOCK_RECORD
  5
F770
330
7466
100
AcDbSymbolTableRecord
100
AcDbBlockTableRecord
  2
_DOTSMALL
340
0
102
{BLKREFS
331
14C59
331
14C5A
331
14C63
331
14C64
331
14C6C
331
14C6D
331
14C77
331
14C78
331
14C80
331
14C81
331
14C8B
331
14C8C
331
14C94
331
14C95
331
14C9D
331
14C9E
331
14CA6
331
14CA7
331
14CBA
331
14CBB
331
14CC3
331
14CC4
331
14CCC
331
14CCD
331
14CD7
331
14CD8
331
153D6
331
153D7
102
}
  0
BLOCK_RECORD
  5
140B7
330
7466
100
AcDbSymbolTableRecord
100
AcDbBlockTableRecord
  2
*D3
340
0
  0
BLOCK_RECORD
  5
140C3
330
7466
100
AcDbSymbolTableRecord
100
AcDbBlockTableRecord
  2
*D4
340
0
  0
BLOCK_RECORD
  5
140CF
330
7466
100
AcDbSymbolTableRecord
100
AcDbBlockTableRecord
  2
*D5
340
0
  0
BLOCK_RECORD
  5
140F7
330
7466
100
AcDbSymbolTableRecord
100
AcDbBlockTableRecord
  2
*D6
340
0
  0
BLOCK_RECORD
  5
14103
330
7466
100
AcDbSymbolTableRecord
100
AcDbBlockTableRecord
  2
*D7
340
0
  0
BLOCK_RECORD
  5
1411B
330
7466
100
AcDbSymbolTableRecord
100
AcDbBlockTableRecord
  2
*D8
340
0
  0
BLOCK_RECORD
  5
14135
330
7466
100
AcDbSymbolTableRecord
100
AcDbBlockTableRecord
  2
*D9
340
0
  0
BLOCK_RECORD
  5
14141
330
7466
100
AcDbSymbolTableRecord
100
AcDbBlockTableRecord
  2
*D10
340
0
  0
BLOCK_RECORD
  5
1414D
330
7466
100
AcDbSymbolTableRecord
100
AcDbBlockTableRecord
  2
*D11
340
0
  0
BLOCK_RECORD
  5
1415B
330
7466
100
AcDbSymbolTableRecord
100
AcDbBlockTableRecord
  2
*D12
340
0
  0
BLOCK_RECORD
  5
14167
330
7466
100
AcDbSymbolTableRecord
100
AcDbBlockTableRecord
  2
*D13
340
0
  0
BLOCK_RECORD
  5
14175
330
7466
100
AcDbSymbolTableRecord
100
AcDbBlockTableRecord
  2
*D14
340
0
  0
BLOCK_RECORD
  5
14181
330
7466
100
AcDbSymbolTableRecord
100
AcDbBlockTableRecord
  2
*D15
340
0
  0
BLOCK_RECORD
  5
1420D
330
7466
100
AcDbSymbolTableRecord
100
AcDbBlockTableRecord
  2
*D16
340
0
  0
BLOCK_RECORD
  5
14899
330
7466
100
AcDbSymbolTableRecord
100
AcDbBlockTableRecord
  2
*D17
340
0
  0
BLOCK_RECORD
  5
148A5
330
7466
100
AcDbSymbolTableRecord
100
AcDbBlockTableRecord
  2
*D18
340
0
  0
BLOCK_RECORD
  5
148B1
330
7466
100
AcDbSymbolTableRecord
100
AcDbBlockTableRecord
  2
*D19
340
0
  0
BLOCK_RECORD
  5
148BD
330
7466
100
AcDbSymbolTableRecord
100
AcDbBlockTableRecord
  2
*D20
340
0
  0
BLOCK_RECORD
  5
148C9
330
7466
100
AcDbSymbolTableRecord
100
AcDbBlockTableRecord
  2
*D21
340
0
  0
BLOCK_RECORD
  5
148D7
330
7466
100
AcDbSymbolTableRecord
100
AcDbBlockTableRecord
  2
*D22
340
0
  0
BLOCK_RECORD
  5
148E3
330
7466
100
AcDbSymbolTableRecord
100
AcDbBlockTableRecord
  2
*D23
340
0
  0
BLOCK_RECORD
  5
148F1
330
7466
100
AcDbSymbolTableRecord
100
AcDbBlockTableRecord
  2
*D24
340
0
  0
BLOCK_RECORD
  5
148FD
330
7466
100
AcDbSymbolTableRecord
100
AcDbBlockTableRecord
  2
*D25
340
0
  0
BLOCK_RECORD
  5
1490A
330
7466
100
AcDbSymbolTableRecord
100
AcDbBlockTableRecord
  2
*D26
340
0
  0
BLOCK_RECORD
  5
14E82
330
7466
100
AcDbSymbolTableRecord
100
AcDbBlockTableRecord
  2
*D27
340
0
  0
BLOCK_RECORD
  5
15241
330
7466
100
AcDbSymbolTableRecord
100
AcDbBlockTableRecord
  2
*D28
340
0
  0
BLOCK_RECORD
  5
1524D
330
7466
100
AcDbSymbolTableRecord
100
AcDbBlockTableRecord
  2
*D29
340
0
  0
BLOCK_RECORD
  5
1527F
330
7466
100
AcDbSymbolTableRecord
100
AcDbBlockTableRecord
  2
*D30
340
0
  0
BLOCK_RECORD
  5
15299
330
7466
100
AcDbSymbolTableRecord
100
AcDbBlockTableRecord
  2
*D31
340
0
  0
ENDTAB
  0
ENDSEC
  0
SECTION
  2
BLOCKS
  0
BLOCK
  5
7489
330
747D
100
AcDbEntity
  8
0
100
AcDbBlockBegin
  2
*MODEL_SPACE
 70
     0
 10
0.0
 20
0.0
 30
0.0
  3
*MODEL_SPACE
  1

  0
ENDBLK
  5
748A
330
747D
100
AcDbEntity
  8
0
100
AcDbBlockEnd
  0
BLOCK
  5
7487
330
747A
100
AcDbEntity
 67
     1
  8
0
100
AcDbBlockBegin
  2
*PAPER_SPACE
 70
     0
 10
0.0
 20
0.0
 30
0.0
  3
*PAPER_SPACE
  1

  0
ENDBLK
  5
7488
330
747A
100
AcDbEntity
 67
     1
  8
0
100
AcDbBlockEnd
  0
BLOCK
  5
ECB4
330
ECB3
100
AcDbEntity
  8
0
100
AcDbBlockBegin
  2
作図枠S50
 70
     0
 10
0.0
 20
0.0
 30
0.0
  3
作図枠S50
  1

  4
作図領域枠 縮尺 1/50
  0
LINE
  5
ECB5
330
ECB3
100
AcDbEntity
  8
補助
100
AcDbLine
 10
14364.0
 20
14262.0
 30
0.0
 11
174.9999999999993
 21
14262.0
 31
0.0
  0
LINE
  5
ECB6
330
ECB3
100
AcDbEntity
  8
補助
100
AcDbLine
 10
174.9999999999993
 20
14262.0
 30
0.0
 11
174.9999999999993
 21
1520.0
 31
0.0
  0
LINE
  5
ECB7
330
ECB3
100
AcDbEntity
  8
補助
100
AcDbLine
 10
174.9999999999993
 20
1520.0
 30
0.0
 11
20384.0
 21
1520.0
 31
0.0
  0
LINE
  5
ECB8
330
ECB3
100
AcDbEntity
  8
補助
100
AcDbLine
 10
20384.0
 20
1520.0
 30
0.0
 11
20384.0
 21
13042.0
 31
0.0
  0
LINE
  5
ECB9
330
ECB3
100
AcDbEntity
  8
補助
100
AcDbLine
 10
20384.0
 20
13042.0
 30
0.0
 11
14364.0
 21
13042.0
 31
0.0
  0
LINE
  5
ECBA
330
ECB3
100
AcDbEntity
  8
補助
100
AcDbLine
 10
14364.0
 20
13042.0
 30
0.0
 11
14364.0
 21
14262.0
 31
0.0
  0
ENDBLK
  5
ECBB
330
ECB3
100
AcDbEntity
  8
0
100
AcDbBlockEnd
  0
BLOCK
  5
F745
330
F744
100
AcDbEntity
  8
0
 48
50.0
100
AcDbBlockBegin
  2
_DOT
 70
     0
 10
0.0
 20
0.0
 30
0.0
  3
_DOT
  1

  0
LWPOLYLINE
  5
F746
330
F744
100
AcDbEntity
  8
0
  6
ByBlock
 62
     0
 48
50.0
100
AcDbPolyline
 90
        2
 70
     1
 43
0.5
 10
-0.25
 20
0.0
 42
1.0
 10
0.25
 20
0.0
 42
1.0
  0
LINE
  5
F74A
330
F744
100
AcDbEntity
  8
0
  6
ByBlock
 62
     0
 48
50.0
100
AcDbLine
 10
-0.5
 20
0.0
 30
0.0
 11
-1.0
 21
0.0
 31
0.0
  0
ENDBLK
  5
F74B
330
F744
100
AcDbEntity
  8
0
 48
50.0
100
AcDbBlockEnd
  0
BLOCK
  5
F771
330
F770
100
AcDbEntity
  8
0
 48
50.0
100
AcDbBlockBegin
  2
_DOTSMALL
 70
     0
 10
0.0
 20
0.0
 30
0.0
  3
_DOTSMALL
  1

  0
LWPOLYLINE
  5
F772
330
F770
100
AcDbEntity
  8
0
  6
ByBlock
 62
     0
 48
50.0
100
AcDbPolyline
 90
        2
 70
     1
 43
0.5
 10
-0.0625
 20
0.0
 42
1.0
 10
0.0625
 20
0.0
 42
1.0
  0
ENDBLK
  5
F776
330
F770
100
AcDbEntity
  8
0
 48
50.0
100
AcDbBlockEnd
  0
BLOCK
  5
140C1
330
140B7
100
AcDbEntity
  8
0
 48
50.0
100
AcDbBlockBegin
  2
*D3
 70
     1
 10
0.0
 20
0.0
 30
0.0
  3
*D3
  1

  0
LINE
  5
14CC9
330
140B7
100
AcDbEntity
  8
寸法
 62
     0
 48
50.0
370
    -2
100
AcDbLine
 10
8599.695515348528
 20
4375.471098785376
 30
0.0
 11
8599.695515348528
 21
4628.012684043616
 31
0.0
  0
LINE
  5
14CCA
330
140B7
100
AcDbEntity
  8
寸法
 62
     0
 48
50.0
370
    -2
100
AcDbLine
 10
2499.695515348526
 20
4375.47109878538
 30
0.0
 11
2499.695515348526
 21
4628.012684043616
 31
0.0
  0
LINE
  5
14CCB
330
140B7
100
AcDbEntity
  8
寸法
 62
     0
 48
50.0
370
    -2
100
AcDbLine
 10
8599.695515348528
 20
4568.012684043615
 30
0.0
 11
2499.695515348526
 21
4568.012684043615
 31
0.0
  0
INSERT
  5
14CCC
330
140B7
100
AcDbEntity
  8
寸法
 62
     0
 48
50.0
370
    -2
100
AcDbBlockReference
  2
_DOTSMALL
 10
8599.695515348528
 20
4568.012684043615
 30
0.0
 41
100.0
 42
100.0
 43
100.0
  0
INSERT
  5
14CCD
330
140B7
100
AcDbEntity
  8
寸法
 62
     0
 48
50.0
370
    -2
100
AcDbBlockReference
  2
_DOTSMALL
 10
2499.695515348526
 20
4568.012684043615
 30
0.0
 41
100.0
 42
100.0
 43
100.0
 50
180.0
  0
MTEXT
  5
14CCE
330
140B7
100
AcDbEntity
  8
寸法
 62
     7
 48
50.0
100
AcDbMText
 10
5549.695515348525
 20
4668.012684043616
 30
0.0
 40
120.0
 41
0.0
 71
     5
 72
     1
  1
\A1;柱外寸法6100
  7
STYLE1
 73
     1
 44
1.0
1001
ACAD
1000
MTEXTBEGIN
1070
    73
1070
     1
1070
    44
1040
1.0
1070
    74
1070
     0
1000
MTEXTEND
  0
POINT
  5
14CCF
330
140B7
100
AcDbEntity
  8
DEFPOINTS
 62
     0
 48
50.0
100
AcDbPoint
 10
8599.695515348528
 20
4355.471098785375
 30
0.0
  0
POINT
  5
14CD0
330
140B7
100
AcDbEntity
  8
DEFPOINTS
 62
     0
 48
50.0
100
AcDbPoint
 10
2499.695515348526
 20
4355.47109878538
 30
0.0
  0
POINT
  5
14CD1
330
140B7
100
AcDbEntity
  8
DEFPOINTS
 62
     0
 48
50.0
100
AcDbPoint
 10
2499.695515348526
 20
4568.012684043615
 30
0.0
  0
ENDBLK
  5
140C2
330
140B7
100
AcDbEntity
  8
0
 48
50.0
100
AcDbBlockEnd
  0
BLOCK
  5
140CD
330
140C3
100
AcDbEntity
  8
0
 48
50.0
100
AcDbBlockBegin
  2
*D4
 70
     1
 10
0.0
 20
0.0
 30
0.0
  3
*D4
  1

  0
LINE
  5
14CC0
330
140C3
100
AcDbEntity
  8
寸法
 62
     0
 48
50.0
370
    -2
100
AcDbLine
 10
2449.695515348525
 20
4375.471098785379
 30
0.0
 11
2449.695515348525
 21
4848.917984517366
 31
0.0
  0
LINE
  5
14CC1
330
140C3
100
AcDbEntity
  8
寸法
 62
     0
 48
50.0
370
    -2
100
AcDbLine
 10
8649.695515348529
 20
4375.471098785374
 30
0.0
 11
8649.695515348529
 21
4848.917984517366
 31
0.0
  0
LINE
  5
14CC2
330
140C3
100
AcDbEntity
  8
寸法
 62
     0
 48
50.0
370
    -2
100
AcDbLine
 10
2449.695515348525
 20
4788.917984517365
 30
0.0
 11
8649.695515348529
 21
4788.917984517365
 31
0.0
  0
INSERT
  5
14CC3
330
140C3
100
AcDbEntity
  8
寸法
 62
     0
 48
50.0
370
    -2
100
AcDbBlockReference
  2
_DOTSMALL
 10
2449.695515348525
 20
4788.917984517365
 30
0.0
 41
100.0
 42
100.0
 43
100.0
 50
180.0
  0
INSERT
  5
14CC4
330
140C3
100
AcDbEntity
  8
寸法
 62
     0
 48
50.0
370
    -2
100
AcDbBlockReference
  2
_DOTSMALL
 10
8649.695515348529
 20
4788.917984517365
 30
0.0
 41
100.0
 42
100.0
 43
100.0
  0
MTEXT
  5
14CC5
330
140C3
100
AcDbEntity
  8
寸法
 62
     7
 48
50.0
100
AcDbMText
 10
5549.695515348525
 20
4888.929795540987
 30
0.0
 40
120.0
 41
0.0
 71
     5
 72
     1
  1
\A1;6200
  7
STYLE1
 73
     1
 44
1.0
1001
ACAD
1000
MTEXTBEGIN
1070
    73
1070
     1
1070
    44
1040
1.0
1070
    74
1070
     0
1000
MTEXTEND
  0
POINT
  5
14CC6
330
140C3
100
AcDbEntity
  8
DEFPOINTS
 62
     0
 48
50.0
100
AcDbPoint
 10
2449.695515348525
 20
4355.471098785378
 30
0.0
  0
POINT
  5
14CC7
330
140C3
100
AcDbEntity
  8
DEFPOINTS
 62
     0
 48
50.0
100
AcDbPoint
 10
8649.695515348529
 20
4355.471098785375
 30
0.0
  0
POINT
  5
14CC8
330
140C3
100
AcDbEntity
  8
DEFPOINTS
 62
     0
 48
50.0
100
AcDbPoint
 10
8649.695515348529
 20
4788.917984517365
 30
0.0
  0
ENDBLK
  5
140CE
330
140C3
100
AcDbEntity
  8
0
 48
50.0
100
AcDbBlockEnd
  0
BLOCK
  5
140DB
330
140CF
100
AcDbEntity
  8
0
 48
50.0
100
AcDbBlockBegin
  2
*D5
 70
     1
 10
0.0
 20
0.0
 30
0.0
  3
*D5
  1

  0
LINE
  5
14CB5
330
140CF
100
AcDbEntity
  8
寸法
 62
     0
 48
50.0
370
    -2
100
AcDbLine
 10
2499.695515348526
 20
4375.47109878538
 30
0.0
 11
2499.695515348526
 21
4628.012684043618
 31
0.0
  0
LINE
  5
14CB6
330
140CF
100
AcDbEntity
  8
寸法
 62
     0
 48
50.0
370
    -2
100
AcDbLine
 10
2449.695515348525
 20
4375.471098785379
 30
0.0
 11
2449.695515348525
 21
4628.012684043618
 31
0.0
  0
LINE
  5
14CB7
330
140CF
100
AcDbEntity
  8
寸法
 62
     0
 48
50.0
370
    -2
100
AcDbLine
 10
2499.695515348526
 20
4568.012684043618
 30
0.0
 11
2599.695515348525
 21
4568.012684043618
 31
0.0
  0
LINE
  5
14CB8
330
140CF
100
AcDbEntity
  8
寸法
 62
     0
 48
50.0
370
    -2
100
AcDbLine
 10
2449.695515348525
 20
4568.012684043618
 30
0.0
 11
2030.162989879789
 21
4568.012684043618
 31
0.0
  0
LINE
  5
14CB9
330
140CF
100
AcDbEntity
  8
寸法
 62
     0
 48
50.0
370
    -2
100
AcDbLine
 10
2499.695515348526
 20
4568.012684043618
 30
0.0
 11
2449.695515348525
 21
4568.012684043618
 31
0.0
  0
INSERT
  5
14CBA
330
140CF
100
AcDbEntity
  8
寸法
 62
     0
 48
50.0
370
    -2
100
AcDbBlockReference
  2
_DOTSMALL
 10
2499.695515348526
 20
4568.012684043618
 30
0.0
 41
100.0
 42
100.0
 43
100.0
 50
180.0
  0
INSERT
  5
14CBB
330
140CF
100
AcDbEntity
  8
寸法
 62
     0
 48
50.0
370
    -2
100
AcDbBlockReference
  2
_DOTSMALL
 10
2449.695515348525
 20
4568.012684043618
 30
0.0
 41
100.0
 42
100.0
 43
100.0
  0
MTEXT
  5
14CBC
330
140CF
100
AcDbEntity
  8
寸法
 62
     7
 48
50.0
100
AcDbMText
 10
2136.210233974278
 20
4668.012684043618
 30
0.0
 40
120.0
 41
0.0
 71
     5
 72
     1
  1
\A1;50
  7
STYLE1
 73
     1
 44
1.0
1001
ACAD
1000
MTEXTBEGIN
1070
    73
1070
     1
1070
    44
1040
1.0
1070
    74
1070
     0
1000
MTEXTEND
  0
POINT
  5
14CBD
330
140CF
100
AcDbEntity
  8
DEFPOINTS
 62
     0
 48
50.0
100
AcDbPoint
 10
2499.695515348526
 20
4355.47109878538
 30
0.0
  0
POINT
  5
14CBE
330
140CF
100
AcDbEntity
  8
DEFPOINTS
 62
     0
 48
50.0
100
AcDbPoint
 10
2449.695515348525
 20
4355.471098785378
 30
0.0
  0
POINT
  5
14CBF
330
140CF
100
AcDbEntity
  8
DEFPOINTS
 62
     0
 48
50.0
100
AcDbPoint
 10
2449.695515348525
 20
4568.012684043618
 30
0.0
  0
ENDBLK
  5
140DC
330
140CF
100
AcDbEntity
  8
0
 48
50.0
100
AcDbBlockEnd
  0
BLOCK
  5
14101
330
140F7
100
AcDbEntity
  8
0
 48
50.0
100
AcDbBlockBegin
  2
*D6
 70
     1
 10
0.0
 20
0.0
 30
0.0
  3
*D6
  1

  0
LINE
  5
1543E
330
140F7
100
AcDbEntity
  8
寸法
 62
     0
 48
50.0
370
    -2
100
AcDbLine
 10
5494.695515348524
 20
10447.09222568369
 30
0.0
 11
5494.695515348524
 21
10841.80463570249
 31
0.0
  0
LINE
  5
1543F
330
140F7
100
AcDbEntity
  8
寸法
 62
     0
 48
50.0
370
    -2
100
AcDbLine
 10
5604.695515348525
 20
10447.09222568369
 30
0.0
 11
5604.695515348525
 21
10841.80463570249
 31
0.0
  0
LINE
  5
15440
330
140F7
100
AcDbEntity
  8
寸法
 62
     0
 48
50.0
370
    -2
100
AcDbLine
 10
5514.695515348525
 20
10801.80463570249
 30
0.0
 11
5584.695515348525
 21
10801.80463570249
 31
0.0
  0
INSERT
  5
15441
330
140F7
100
AcDbEntity
  8
寸法
 62
     0
 48
50.0
370
    -2
100
AcDbBlockReference
  2
_DOT
 10
5494.695515348524
 20
10801.80463570249
 30
0.0
 41
20.0
 42
20.0
 43
20.0
 50
180.0
  0
INSERT
  5
15442
330
140F7
100
AcDbEntity
  8
寸法
 62
     0
 48
50.0
370
    -2
100
AcDbBlockReference
  2
_DOT
 10
5604.695515348525
 20
10801.80463570249
 30
0.0
 41
20.0
 42
20.0
 43
20.0
  0
MTEXT
  5
15443
330
140F7
100
AcDbEntity
  8
寸法
 62
     7
 48
50.0
100
AcDbMText
 10
5549.695515348525
 20
10893.80463570249
 30
0.0
 40
120.0
 41
0.0
 71
     5
 72
     1
  1
\A1;110
  7
STYLE1
 73
     1
 44
1.0
1001
ACAD
1000
MTEXTBEGIN
1070
    73
1070
     1
1070
    44
1040
1.0
1070
    74
1070
     0
1000
MTEXTEND
  0
POINT
  5
15444
330
140F7
100
AcDbEntity
  8
DEFPOINTS
 62
     0
 48
50.0
100
AcDbPoint
 10
5494.695515348524
 20
10427.09222568369
 30
0.0
  0
POINT
  5
15445
330
140F7
100
AcDbEntity
  8
DEFPOINTS
 62
     0
 48
50.0
100
AcDbPoint
 10
5604.695515348525
 20
10427.09222568369
 30
0.0
  0
POINT
  5
15446
330
140F7
100
AcDbEntity
  8
DEFPOINTS
 62
     0
 48
50.0
100
AcDbPoint
 10
5604.695515348525
 20
10801.80463570249
 30
0.0
  0
ENDBLK
  5
14102
330
140F7
100
AcDbEntity
  8
0
 48
50.0
100
AcDbBlockEnd
  0
BLOCK
  5
1410D
330
14103
100
AcDbEntity
  8
0
 48
50.0
100
AcDbBlockBegin
  2
*D7
 70
     1
 10
0.0
 20
0.0
 30
0.0
  3
*D7
  1

  0
LINE
  5
15435
330
14103
100
AcDbEntity
  8
寸法
 62
     0
 48
50.0
370
    -2
100
AcDbLine
 10
5604.695515348525
 20
10447.09222568369
 30
0.0
 11
5604.695515348525
 21
10841.80463570249
 31
0.0
  0
LINE
  5
15436
330
14103
100
AcDbEntity
  8
寸法
 62
     0
 48
50.0
370
    -2
100
AcDbLine
 10
8544.695515348525
 20
10447.09222568369
 30
0.0
 11
8544.695515348525
 21
10841.80463570249
 31
0.0
  0
LINE
  5
15437
330
14103
100
AcDbEntity
  8
寸法
 62
     0
 48
50.0
370
    -2
100
AcDbLine
 10
5624.695515348525
 20
10801.80463570249
 30
0.0
 11
8524.695515348524
 21
10801.80463570249
 31
0.0
  0
INSERT
  5
15438
330
14103
100
AcDbEntity
  8
寸法
 62
     0
 48
50.0
370
    -2
100
AcDbBlockReference
  2
_DOT
 10
5604.695515348525
 20
10801.80463570249
 30
0.0
 41
20.0
 42
20.0
 43
20.0
 50
180.0
  0
INSERT
  5
15439
330
14103
100
AcDbEntity
  8
寸法
 62
     0
 48
50.0
370
    -2
100
AcDbBlockReference
  2
_DOT
 10
8544.695515348525
 20
10801.80463570249
 30
0.0
 41
20.0
 42
20.0
 43
20.0
  0
MTEXT
  5
1543A
330
14103
100
AcDbEntity
  8
寸法
 62
     7
 48
50.0
100
AcDbMText
 10
7074.695515348524
 20
10893.81644672611
 30
0.0
 40
120.0
 41
0.0
 71
     5
 72
     1
  1
\A1;7X420=2940
  7
STYLE1
 73
     1
 44
1.0
1001
ACAD
1000
MTEXTBEGIN
1070
    73
1070
     1
1070
    44
1040
1.0
1070
    74
1070
     0
1000
MTEXTEND
  0
POINT
  5
1543B
330
14103
100
AcDbEntity
  8
DEFPOINTS
 62
     0
 48
50.0
100
AcDbPoint
 10
5604.695515348525
 20
10427.09222568369
 30
0.0
  0
POINT
  5
1543C
330
14103
100
AcDbEntity
  8
DEFPOINTS
 62
     0
 48
50.0
100
AcDbPoint
 10
8544.695515348525
 20
10427.09222568369
 30
0.0
  0
POINT
  5
1543D
330
14103
100
AcDbEntity
  8
DEFPOINTS
 62
     0
 48
50.0
100
AcDbPoint
 10
8544.695515348525
 20
10801.80463570249
 30
0.0
  0
ENDBLK
  5
1410E
330
14103
100
AcDbEntity
  8
0
 48
50.0
100
AcDbBlockEnd
  0
BLOCK
  5
14127
330
1411B
100
AcDbEntity
  8
0
 48
50.0
100
AcDbBlockBegin
  2
*D8
 70
     1
 10
0.0
 20
0.0
 30
0.0
  3
*D8
  1

  0
LINE
  5
1542A
330
1411B
100
AcDbEntity
  8
寸法
 62
     0
 48
50.0
370
    -2
100
AcDbLine
 10
2499.695515348526
 20
10447.09222568369
 30
0.0
 11
2499.695515348526
 21
10841.80463570249
 31
0.0
  0
LINE
  5
1542B
330
1411B
100
AcDbEntity
  8
寸法
 62
     0
 48
50.0
370
    -2
100
AcDbLine
 10
2554.695515348525
 20
10447.09222568369
 30
0.0
 11
2554.695515348525
 21
10841.80463570249
 31
0.0
  0
LINE
  5
1542C
330
1411B
100
AcDbEntity
  8
寸法
 62
     0
 48
50.0
370
    -2
100
AcDbLine
 10
2574.695515348525
 20
10801.80463570249
 30
0.0
 11
2594.695515348525
 21
10801.80463570249
 31
0.0
  0
LINE
  5
1542D
330
1411B
100
AcDbEntity
  8
寸法
 62
     0
 48
50.0
370
    -2
100
AcDbLine
 10
2479.695515348525
 20
10801.80463570249
 30
0.0
 11
2005.043567307622
 21
10801.80463570249
 31
0.0
  0
LINE
  5
1542E
330
1411B
100
AcDbEntity
  8
寸法
 62
     0
 48
50.0
370
    -2
100
AcDbLine
 10
2554.695515348525
 20
10801.80463570249
 30
0.0
 11
2499.695515348526
 21
10801.80463570249
 31
0.0
  0
INSERT
  5
1542F
330
1411B
100
AcDbEntity
  8
寸法
 62
     0
 48
50.0
370
    -2
100
AcDbBlockReference
  2
_DOT
 10
2554.695515348525
 20
10801.80463570249
 30
0.0
 41
20.0
 42
20.0
 43
20.0
 50
180.0
  0
INSERT
  5
15430
330
1411B
100
AcDbEntity
  8
寸法
 62
     0
 48
50.0
370
    -2
100
AcDbBlockReference
  2
_DOT
 10
2499.695515348526
 20
10801.80463570249
 30
0.0
 41
20.0
 42
20.0
 43
20.0
  0
MTEXT
  5
15431
330
1411B
100
AcDbEntity
  8
寸法
 62
     7
 48
50.0
100
AcDbMText
 10
2105.528848681861
 20
10893.80463570249
 30
0.0
 40
120.0
 41
0.0
 71
     5
 72
     1
  1
\A1;55
  7
STYLE1
 73
     1
 44
1.0
1001
ACAD
1000
MTEXTBEGIN
1070
    73
1070
     1
1070
    44
1040
1.0
1070
    74
1070
     0
1000
MTEXTEND
  0
POINT
  5
15432
330
1411B
100
AcDbEntity
  8
DEFPOINTS
 62
     0
 48
50.0
100
AcDbPoint
 10
2499.695515348526
 20
10427.09222568369
 30
0.0
  0
POINT
  5
15433
330
1411B
100
AcDbEntity
  8
DEFPOINTS
 62
     0
 48
50.0
100
AcDbPoint
 10
2554.695515348525
 20
10427.09222568369
 30
0.0
  0
POINT
  5
15434
330
1411B
100
AcDbEntity
  8
DEFPOINTS
 62
     0
 48
50.0
100
AcDbPoint
 10
2554.695515348525
 20
10801.80463570249
 30
0.0
  0
ENDBLK
  5
14128
330
1411B
100
AcDbEntity
  8
0
 48
50.0
100
AcDbBlockEnd
  0
BLOCK
  5
1413F
330
14135
100
AcDbEntity
  8
0
 48
50.0
100
AcDbBlockBegin
  2
*D9
 70
     1
 10
0.0
 20
0.0
 30
0.0
  3
*D9
  1

  0
LINE
  5
15421
330
14135
100
AcDbEntity
  8
寸法
 62
     0
 48
50.0
370
    -2
100
AcDbLine
 10
2554.695515348525
 20
10447.09222568369
 30
0.0
 11
2554.695515348525
 21
10841.80463570249
 31
0.0
  0
LINE
  5
15422
330
14135
100
AcDbEntity
  8
寸法
 62
     0
 48
50.0
370
    -2
100
AcDbLine
 10
5494.695515348524
 20
10447.09222568369
 30
0.0
 11
5494.695515348524
 21
10841.80463570249
 31
0.0
  0
LINE
  5
15423
330
14135
100
AcDbEntity
  8
寸法
 62
     0
 48
50.0
370
    -2
100
AcDbLine
 10
2574.695515348525
 20
10801.80463570249
 30
0.0
 11
5474.695515348525
 21
10801.80463570249
 31
0.0
  0
INSERT
  5
15424
330
14135
100
AcDbEntity
  8
寸法
 62
     0
 48
50.0
370
    -2
100
AcDbBlockReference
  2
_DOT
 10
2554.695515348525
 20
10801.80463570249
 30
0.0
 41
20.0
 42
20.0
 43
20.0
 50
180.0
  0
INSERT
  5
15425
330
14135
100
AcDbEntity
  8
寸法
 62
     0
 48
50.0
370
    -2
100
AcDbBlockReference
  2
_DOT
 10
5494.695515348524
 20
10801.80463570249
 30
0.0
 41
20.0
 42
20.0
 43
20.0
  0
MTEXT
  5
15426
330
14135
100
AcDbEntity
  8
寸法
 62
     7
 48
50.0
100
AcDbMText
 10
4024.695515348525
 20
10893.81644672611
 30
0.0
 40
120.0
 41
0.0
 71
     5
 72
     1
  1
\A1;7X420=2940
  7
STYLE1
 73
     1
 44
1.0
1001
ACAD
1000
MTEXTBEGIN
1070
    73
1070
     1
1070
    44
1040
1.0
1070
    74
1070
     0
1000
MTEXTEND
  0
POINT
  5
15427
330
14135
100
AcDbEntity
  8
DEFPOINTS
 62
     0
 48
50.0
100
AcDbPoint
 10
2554.695515348525
 20
10427.09222568369
 30
0.0
  0
POINT
  5
15428
330
14135
100
AcDbEntity
  8
DEFPOINTS
 62
     0
 48
50.0
100
AcDbPoint
 10
5494.695515348524
 20
10427.09222568369
 30
0.0
  0
POINT
  5
15429
330
14135
100
AcDbEntity
  8
DEFPOINTS
 62
     0
 48
50.0
100
AcDbPoint
 10
5494.695515348524
 20
10801.80463570249
 30
0.0
  0
ENDBLK
  5
14140
330
14135
100
AcDbEntity
  8
0
 48
50.0
100
AcDbBlockEnd
  0
BLOCK
  5
1414B
330
14141
100
AcDbEntity
  8
0
 48
50.0
100
AcDbBlockBegin
  2
*D10
 70
     1
 10
0.0
 20
0.0
 30
0.0
  3
*D10
  1

  0
LINE
  5
15418
330
14141
100
AcDbEntity
  8
寸法
 62
     0
 48
50.0
370
    -2
100
AcDbLine
 10
2499.695515348526
 20
10447.09222568369
 30
0.0
 11
2499.695515348526
 21
11141.80463570249
 31
0.0
  0
LINE
  5
15419
330
14141
100
AcDbEntity
  8
寸法
 62
     0
 48
50.0
370
    -2
100
AcDbLine
 10
8599.695515348525
 20
10447.09222568369
 30
0.0
 11
8599.695515348525
 21
11141.80463570249
 31
0.0
  0
LINE
  5
1541A
330
14141
100
AcDbEntity
  8
寸法
 62
     0
 48
50.0
370
    -2
100
AcDbLine
 10
2519.695515348525
 20
11101.80463570249
 30
0.0
 11
8579.695515348525
 21
11101.80463570249
 31
0.0
  0
INSERT
  5
1541B
330
14141
100
AcDbEntity
  8
寸法
 62
     0
 48
50.0
370
    -2
100
AcDbBlockReference
  2
_DOT
 10
2499.695515348526
 20
11101.80463570249
 30
0.0
 41
20.0
 42
20.0
 43
20.0
 50
180.0
  0
INSERT
  5
1541C
330
14141
100
AcDbEntity
  8
寸法
 62
     0
 48
50.0
370
    -2
100
AcDbBlockReference
  2
_DOT
 10
8599.695515348525
 20
11101.80463570249
 30
0.0
 41
20.0
 42
20.0
 43
20.0
  0
MTEXT
  5
1541D
330
14141
100
AcDbEntity
  8
寸法
 62
     7
 48
50.0
100
AcDbMText
 10
5549.695515348525
 20
11193.80463570249
 30
0.0
 40
120.0
 41
0.0
 71
     5
 72
     1
  1
\A1;6100
  7
STYLE1
 73
     1
 44
1.0
1001
ACAD
1000
MTEXTBEGIN
1070
    73
1070
     1
1070
    44
1040
1.0
1070
    74
1070
     0
1000
MTEXTEND
  0
POINT
  5
1541E
330
14141
100
AcDbEntity
  8
DEFPOINTS
 62
     0
 48
50.0
100
AcDbPoint
 10
2499.695515348526
 20
10427.09222568369
 30
0.0
  0
POINT
  5
1541F
330
14141
100
AcDbEntity
  8
DEFPOINTS
 62
     0
 48
50.0
100
AcDbPoint
 10
8599.695515348525
 20
10427.09222568369
 30
0.0
  0
POINT
  5
15420
330
14141
100
AcDbEntity
  8
DEFPOINTS
 62
     0
 48
50.0
100
AcDbPoint
 10
8599.695515348525
 20
11101.80463570249
 30
0.0
  0
ENDBLK
  5
1414C
330
14141
100
AcDbEntity
  8
0
 48
50.0
100
AcDbBlockEnd
  0
BLOCK
  5
14159
330
1414D
100
AcDbEntity
  8
0
 48
50.0
100
AcDbBlockBegin
  2
*D11
 70
     1
 10
0.0
 20
0.0
 30
0.0
  3
*D11
  1

  0
LINE
  5
1540D
330
1414D
100
AcDbEntity
  8
寸法
 62
     0
 48
50.0
370
    -2
100
AcDbLine
 10
8619.695515348524
 20
10427.09222568369
 30
0.0
 11
9410.44263239288
 21
10427.09222568369
 31
0.0
  0
LINE
  5
1540E
330
1414D
100
AcDbEntity
  8
寸法
 62
     0
 48
50.0
370
    -2
100
AcDbLine
 10
8619.695515348524
 20
10372.0922256837
 30
0.0
 11
9410.44263239288
 21
10372.0922256837
 31
0.0
  0
LINE
  5
1540F
330
1414D
100
AcDbEntity
  8
寸法
 62
     0
 48
50.0
370
    -2
100
AcDbLine
 10
9370.44263239288
 20
10352.0922256837
 30
0.0
 11
9370.44263239288
 21
10332.0922256837
 31
0.0
  0
LINE
  5
15410
330
1414D
100
AcDbEntity
  8
寸法
 62
     0
 48
50.0
370
    -2
100
AcDbLine
 10
9370.44263239288
 20
10447.09222568369
 30
0.0
 11
9370.44263239288
 21
10921.74417372459
 31
0.0
  0
LINE
  5
15411
330
1414D
100
AcDbEntity
  8
寸法
 62
     0
 48
50.0
370
    -2
100
AcDbLine
 10
9370.44263239288
 20
10372.0922256837
 30
0.0
 11
9370.44263239288
 21
10427.09222568369
 31
0.0
  0
INSERT
  5
15412
330
1414D
100
AcDbEntity
  8
寸法
 62
     0
 48
50.0
370
    -2
100
AcDbBlockReference
  2
_DOT
 10
9370.44263239288
 20
10372.0922256837
 30
0.0
 41
20.0
 42
20.0
 43
20.0
 50
90.0
  0
INSERT
  5
15413
330
1414D
100
AcDbEntity
  8
寸法
 62
     0
 48
50.0
370
    -2
100
AcDbBlockReference
  2
_DOT
 10
9370.44263239288
 20
10427.09222568369
 30
0.0
 41
20.0
 42
20.0
 43
20.0
 50
270.0
  0
MTEXT
  5
15414
330
1414D
100
AcDbEntity
  8
寸法
 62
     7
 48
50.0
100
AcDbMText
 10
9278.442632392879
 20
10821.25889235036
 30
0.0
 40
120.0
 41
0.0
 71
     5
 72
     1
  1
\A1;55
  7
STYLE1
 11
0.0000000000000001
 21
1.0
 31
0.0
 73
     1
 44
1.0
1001
ACAD
1000
MTEXTBEGIN
1070
    73
1070
     1
1070
    44
1040
1.0
1070
    74
1070
     0
1000
MTEXTEND
  0
POINT
  5
15415
330
1414D
100
AcDbEntity
  8
DEFPOINTS
 62
     0
 48
50.0
100
AcDbPoint
 10
8599.695515348525
 20
10427.09222568369
 30
0.0
  0
POINT
  5
15416
330
1414D
100
AcDbEntity
  8
DEFPOINTS
 62
     0
 48
50.0
100
AcDbPoint
 10
8599.695515348525
 20
10372.0922256837
 30
0.0
  0
POINT
  5
15417
330
1414D
100
AcDbEntity
  8
DEFPOINTS
 62
     0
 48
50.0
100
AcDbPoint
 10
9370.44263239288
 20
10372.0922256837
 30
0.0
  0
ENDBLK
  5
1415A
330
1414D
100
AcDbEntity
  8
0
 48
50.0
100
AcDbBlockEnd
  0
BLOCK
  5
14165
330
1415B
100
AcDbEntity
  8
0
 48
50.0
100
AcDbBlockBegin
  2
*D12
 70
     1
 10
0.0
 20
0.0
 30
0.0
  3
*D12
  1

  0
LINE
  5
15404
330
1415B
100
AcDbEntity
  8
寸法
 62
     0
 48
50.0
370
    -2
100
AcDbLine
 10
8619.695515348524
 20
10372.0922256837
 30
0.0
 11
9410.442632392879
 21
10372.0922256837
 31
0.0
  0
LINE
  5
15405
330
1415B
100
AcDbEntity
  8
寸法
 62
     0
 48
50.0
370
    -2
100
AcDbLine
 10
8619.695515348524
 20
7012.092225683689
 30
0.0
 11
9410.442632392879
 21
7012.092225683689
 31
0.0
  0
LINE
  5
15406
330
1415B
100
AcDbEntity
  8
寸法
 62
     0
 48
50.0
370
    -2
100
AcDbLine
 10
9370.442632392878
 20
10352.0922256837
 30
0.0
 11
9370.442632392878
 21
7032.092225683689
 31
0.0
  0
INSERT
  5
15407
330
1415B
100
AcDbEntity
  8
寸法
 62
     0
 48
50.0
370
    -2
100
AcDbBlockReference
  2
_DOT
 10
9370.442632392878
 20
10372.0922256837
 30
0.0
 41
20.0
 42
20.0
 43
20.0
 50
90.0
  0
INSERT
  5
15408
330
1415B
100
AcDbEntity
  8
寸法
 62
     0
 48
50.0
370
    -2
100
AcDbBlockReference
  2
_DOT
 10
9370.442632392878
 20
7012.092225683689
 30
0.0
 41
20.0
 42
20.0
 43
20.0
 50
270.0
  0
MTEXT
  5
15409
330
1415B
100
AcDbEntity
  8
寸法
 62
     7
 48
50.0
100
AcDbMText
 10
9278.430821369255
 20
8692.092225683694
 30
0.0
 40
120.0
 41
0.0
 71
     5
 72
     1
  1
\A1;8X420=3360
  7
STYLE1
 11
0.0000000000000001
 21
1.0
 31
0.0
 73
     1
 44
1.0
1001
ACAD
1000
MTEXTBEGIN
1070
    73
1070
     1
1070
    44
1040
1.0
1070
    74
1070
     0
1000
MTEXTEND
  0
POINT
  5
1540A
330
1415B
100
AcDbEntity
  8
DEFPOINTS
 62
     0
 48
50.0
100
AcDbPoint
 10
8599.695515348525
 20
10372.0922256837
 30
0.0
  0
POINT
  5
1540B
330
1415B
100
AcDbEntity
  8
DEFPOINTS
 62
     0
 48
50.0
100
AcDbPoint
 10
8599.695515348525
 20
7012.092225683689
 30
0.0
  0
POINT
  5
1540C
330
1415B
100
AcDbEntity
  8
DEFPOINTS
 62
     0
 48
50.0
100
AcDbPoint
 10
9370.442632392878
 20
7012.092225683689
 30
0.0
  0
ENDBLK
  5
14166
330
1415B
100
AcDbEntity
  8
0
 48
50.0
100
AcDbBlockEnd
  0
BLOCK
  5
14173
330
14167
100
AcDbEntity
  8
0
 48
50.0
100
AcDbBlockBegin
  2
*D13
 70
     1
 10
0.0
 20
0.0
 30
0.0
  3
*D13
  1

  0
LINE
  5
153F9
330
14167
100
AcDbEntity
  8
寸法
 62
     0
 48
50.0
370
    -2
100
AcDbLine
 10
8619.695515348524
 20
7012.092225683689
 30
0.0
 11
9410.44263239288
 21
7012.092225683689
 31
0.0
  0
LINE
  5
153FA
330
14167
100
AcDbEntity
  8
寸法
 62
     0
 48
50.0
370
    -2
100
AcDbLine
 10
8619.695515348524
 20
6957.092225683694
 30
0.0
 11
9410.44263239288
 21
6957.092225683694
 31
0.0
  0
LINE
  5
153FB
330
14167
100
AcDbEntity
  8
寸法
 62
     0
 48
50.0
370
    -2
100
AcDbLine
 10
9370.44263239288
 20
7032.092225683689
 30
0.0
 11
9370.44263239288
 21
7052.09222568369
 31
0.0
  0
LINE
  5
153FC
330
14167
100
AcDbEntity
  8
寸法
 62
     0
 48
50.0
370
    -2
100
AcDbLine
 10
9370.44263239288
 20
6937.092225683693
 30
0.0
 11
9370.44263239288
 21
6462.440277642787
 31
0.0
  0
LINE
  5
153FD
330
14167
100
AcDbEntity
  8
寸法
 62
     0
 48
50.0
370
    -2
100
AcDbLine
 10
9370.44263239288
 20
7012.092225683689
 30
0.0
 11
9370.44263239288
 21
6957.092225683694
 31
0.0
  0
INSERT
  5
153FE
330
14167
100
AcDbEntity
  8
寸法
 62
     0
 48
50.0
370
    -2
100
AcDbBlockReference
  2
_DOT
 10
9370.44263239288
 20
7012.092225683689
 30
0.0
 41
20.0
 42
20.0
 43
20.0
 50
270.0
  0
INSERT
  5
153FF
330
14167
100
AcDbEntity
  8
寸法
 62
     0
 48
50.0
370
    -2
100
AcDbBlockReference
  2
_DOT
 10
9370.44263239288
 20
6957.092225683694
 30
0.0
 41
20.0
 42
20.0
 43
20.0
 50
90.0
  0
MTEXT
  5
15400
330
14167
100
AcDbEntity
  8
寸法
 62
     7
 48
50.0
100
AcDbMText
 10
9278.442632392879
 20
6562.925559017028
 30
0.0
 40
120.0
 41
0.0
 71
     5
 72
     1
  1
\A1;55
  7
STYLE1
 11
0.0000000000000001
 21
1.0
 31
0.0
 73
     1
 44
1.0
1001
ACAD
1000
MTEXTBEGIN
1070
    73
1070
     1
1070
    44
1040
1.0
1070
    74
1070
     0
1000
MTEXTEND
  0
POINT
  5
15401
330
14167
100
AcDbEntity
  8
DEFPOINTS
 62
     0
 48
50.0
100
AcDbPoint
 10
8599.695515348525
 20
7012.092225683689
 30
0.0
  0
POINT
  5
15402
330
14167
100
AcDbEntity
  8
DEFPOINTS
 62
     0
 48
50.0
100
AcDbPoint
 10
8599.695515348525
 20
6957.092225683694
 30
0.0
  0
POINT
  5
15403
330
14167
100
AcDbEntity
  8
DEFPOINTS
 62
     0
 48
50.0
100
AcDbPoint
 10
9370.44263239288
 20
6957.092225683694
 30
0.0
  0
ENDBLK
  5
14174
330
14167
100
AcDbEntity
  8
0
 48
50.0
100
AcDbBlockEnd
  0
BLOCK
  5
1417F
330
14175
100
AcDbEntity
  8
0
 48
50.0
100
AcDbBlockBegin
  2
*D14
 70
     1
 10
0.0
 20
0.0
 30
0.0
  3
*D14
  1

  0
LINE
  5
153F0
330
14175
100
AcDbEntity
  8
寸法
 62
     0
 48
50.0
370
    -2
100
AcDbLine
 10
8619.695515348524
 20
10427.09222568369
 30
0.0
 11
9710.442632392879
 21
10427.09222568369
 31
0.0
  0
LINE
  5
153F1
330
14175
100
AcDbEntity
  8
寸法
 62
     0
 48
50.0
370
    -2
100
AcDbLine
 10
8619.695515348524
 20
6957.092225683694
 30
0.0
 11
9710.442632392879
 21
6957.092225683694
 31
0.0
  0
LINE
  5
153F2
330
14175
100
AcDbEntity
  8
寸法
 62
     0
 48
50.0
370
    -2
100
AcDbLine
 10
9670.442632392878
 20
10407.09222568369
 30
0.0
 11
9670.442632392878
 21
6977.092225683692
 31
0.0
  0
INSERT
  5
153F3
330
14175
100
AcDbEntity
  8
寸法
 62
     0
 48
50.0
370
    -2
100
AcDbBlockReference
  2
_DOT
 10
9670.442632392878
 20
10427.09222568369
 30
0.0
 41
20.0
 42
20.0
 43
20.0
 50
90.0
  0
INSERT
  5
153F4
330
14175
100
AcDbEntity
  8
寸法
 62
     0
 48
50.0
370
    -2
100
AcDbBlockReference
  2
_DOT
 10
9670.442632392878
 20
6957.092225683694
 30
0.0
 41
20.0
 42
20.0
 43
20.0
 50
270.0
  0
MTEXT
  5
153F5
330
14175
100
AcDbEntity
  8
寸法
 62
     7
 48
50.0
100
AcDbMText
 10
9578.442632392876
 20
8692.092225683694
 30
0.0
 40
120.0
 41
0.0
 71
     5
 72
     1
  1
\A1;3470
  7
STYLE1
 11
0.0000000000000001
 21
1.0
 31
0.0
 73
     1
 44
1.0
1001
ACAD
1000
MTEXTBEGIN
1070
    73
1070
     1
1070
    44
1040
1.0
1070
    74
1070
     0
1000
MTEXTEND
  0
POINT
  5
153F6
330
14175
100
AcDbEntity
  8
DEFPOINTS
 62
     0
 48
50.0
100
AcDbPoint
 10
8599.695515348525
 20
10427.09222568369
 30
0.0
  0
POINT
  5
153F7
330
14175
100
AcDbEntity
  8
DEFPOINTS
 62
     0
 48
50.0
100
AcDbPoint
 10
8599.695515348525
 20
6957.092225683694
 30
0.0
  0
POINT
  5
153F8
330
14175
100
AcDbEntity
  8
DEFPOINTS
 62
     0
 48
50.0
100
AcDbPoint
 10
9670.442632392878
 20
6957.092225683694
 30
0.0
  0
ENDBLK
  5
14180
330
14175
100
AcDbEntity
  8
0
 48
50.0
100
AcDbBlockEnd
  0
BLOCK
  5
1418D
330
14181
100
AcDbEntity
  8
0
 48
50.0
100
AcDbBlockBegin
  2
*D15
 70
     1
 10
0.0
 20
0.0
 30
0.0
  3
*D15
  1

  0
LINE
  5
153E5
330
14181
100
AcDbEntity
  8
寸法
 62
     0
 48
50.0
370
    -2
100
AcDbLine
 10
8544.695515348525
 20
10447.09222568369
 30
0.0
 11
8544.695515348525
 21
10841.80463570249
 31
0.0
  0
LINE
  5
153E6
330
14181
100
AcDbEntity
  8
寸法
 62
     0
 48
50.0
370
    -2
100
AcDbLine
 10
8599.695515348525
 20
10447.09222568369
 30
0.0
 11
8599.695515348525
 21
10841.80463570249
 31
0.0
  0
LINE
  5
153E7
330
14181
100
AcDbEntity
  8
寸法
 62
     0
 48
50.0
370
    -2
100
AcDbLine
 10
8524.695515348524
 20
10801.80463570249
 30
0.0
 11
8504.695515348526
 21
10801.80463570249
 31
0.0
  0
LINE
  5
153E8
330
14181
100
AcDbEntity
  8
寸法
 62
     0
 48
50.0
370
    -2
100
AcDbLine
 10
8619.695515348524
 20
10801.80463570249
 30
0.0
 11
9094.347463389429
 21
10801.80463570249
 31
0.0
  0
LINE
  5
153E9
330
14181
100
AcDbEntity
  8
寸法
 62
     0
 48
50.0
370
    -2
100
AcDbLine
 10
8544.695515348525
 20
10801.80463570249
 30
0.0
 11
8599.695515348525
 21
10801.80463570249
 31
0.0
  0
INSERT
  5
153EA
330
14181
100
AcDbEntity
  8
寸法
 62
     0
 48
50.0
370
    -2
100
AcDbBlockReference
  2
_DOT
 10
8544.695515348525
 20
10801.80463570249
 30
0.0
 41
20.0
 42
20.0
 43
20.0
  0
INSERT
  5
153EB
330
14181
100
AcDbEntity
  8
寸法
 62
     0
 48
50.0
370
    -2
100
AcDbBlockReference
  2
_DOT
 10
8599.695515348525
 20
10801.80463570249
 30
0.0
 41
20.0
 42
20.0
 43
20.0
 50
180.0
  0
MTEXT
  5
153EC
330
14181
100
AcDbEntity
  8
寸法
 62
     7
 48
50.0
100
AcDbMText
 10
8993.86218201519
 20
10893.80463570249
 30
0.0
 40
120.0
 41
0.0
 71
     5
 72
     1
  1
\A1;55
  7
STYLE1
 73
     1
 44
1.0
1001
ACAD
1000
MTEXTBEGIN
1070
    73
1070
     1
1070
    44
1040
1.0
1070
    74
1070
     0
1000
MTEXTEND
  0
POINT
  5
153ED
330
14181
100
AcDbEntity
  8
DEFPOINTS
 62
     0
 48
50.0
100
AcDbPoint
 10
8544.695515348525
 20
10427.09222568369
 30
0.0
  0
POINT
  5
153EE
330
14181
100
AcDbEntity
  8
DEFPOINTS
 62
     0
 48
50.0
100
AcDbPoint
 10
8599.695515348525
 20
10427.09222568369
 30
0.0
  0
POINT
  5
153EF
330
14181
100
AcDbEntity
  8
DEFPOINTS
 62
     0
 48
50.0
100
AcDbPoint
 10
8599.695515348525
 20
10801.80463570249
 30
0.0
  0
ENDBLK
  5
1418E
330
14181
100
AcDbEntity
  8
0
 48
50.0
100
AcDbBlockEnd
  0
BLOCK
  5
14219
330
1420D
100
AcDbEntity
  8
0
 48
50.0
100
AcDbBlockBegin
  2
*D16
 70
     1
 10
0.0
 20
0.0
 30
0.0
  3
*D16
  1

  0
LINE
  5
14CD2
330
1420D
100
AcDbEntity
  8
寸法
 62
     0
 48
50.0
370
    -2
100
AcDbLine
 10
8649.695515348529
 20
4375.471098785374
 30
0.0
 11
8649.695515348529
 21
4628.012684043615
 31
0.0
  0
LINE
  5
14CD3
330
1420D
100
AcDbEntity
  8
寸法
 62
     0
 48
50.0
370
    -2
100
AcDbLine
 10
8599.695515348528
 20
4375.471098785376
 30
0.0
 11
8599.695515348528
 21
4628.012684043615
 31
0.0
  0
LINE
  5
14CD4
330
1420D
100
AcDbEntity
  8
寸法
 62
     0
 48
50.0
370
    -2
100
AcDbLine
 10
8599.695515348528
 20
4568.012684043615
 30
0.0
 11
8499.695515348529
 21
4568.012684043615
 31
0.0
  0
LINE
  5
14CD5
330
1420D
100
AcDbEntity
  8
寸法
 62
     0
 48
50.0
370
    -2
100
AcDbLine
 10
8649.695515348529
 20
4568.012684043615
 30
0.0
 11
9069.228040817252
 21
4568.012684043615
 31
0.0
  0
LINE
  5
14CD6
330
1420D
100
AcDbEntity
  8
寸法
 62
     0
 48
50.0
370
    -2
100
AcDbLine
 10
8599.695515348528
 20
4568.012684043615
 30
0.0
 11
8649.695515348529
 21
4568.012684043615
 31
0.0
  0
INSERT
  5
14CD7
330
1420D
100
AcDbEntity
  8
寸法
 62
     0
 48
50.0
370
    -2
100
AcDbBlockReference
  2
_DOTSMALL
 10
8599.695515348528
 20
4568.012684043615
 30
0.0
 41
100.0
 42
100.0
 43
100.0
  0
INSERT
  5
14CD8
330
1420D
100
AcDbEntity
  8
寸法
 62
     0
 48
50.0
370
    -2
100
AcDbBlockReference
  2
_DOTSMALL
 10
8649.695515348529
 20
4568.012684043615
 30
0.0
 41
100.0
 42
100.0
 43
100.0
 50
180.0
  0
MTEXT
  5
14CD9
330
1420D
100
AcDbEntity
  8
寸法
 62
     7
 48
50.0
100
AcDbMText
 10
8963.180796722765
 20
4668.012684043615
 30
0.0
 40
120.0
 41
0.0
 71
     5
 72
     1
  1
\A1;50
  7
STYLE1
 73
     1
 44
1.0
1001
ACAD
1000
MTEXTBEGIN
1070
    73
1070
     1
1070
    44
1040
1.0
1070
    74
1070
     0
1000
MTEXTEND
  0
POINT
  5
14CDA
330
1420D
100
AcDbEntity
  8
DEFPOINTS
 62
     0
 48
50.0
100
AcDbPoint
 10
8649.695515348529
 20
4355.471098785375
 30
0.0
  0
POINT
  5
14CDB
330
1420D
100
AcDbEntity
  8
DEFPOINTS
 62
     0
 48
50.0
100
AcDbPoint
 10
8599.695515348528
 20
4355.471098785375
 30
0.0
  0
POINT
  5
14CDC
330
1420D
100
AcDbEntity
  8
DEFPOINTS
 62
     0
 48
50.0
100
AcDbPoint
 10
8599.695515348528
 20
4568.012684043615
 30
0.0
  0
ENDBLK
  5
1421A
330
1420D
100
AcDbEntity
  8
0
 48
50.0
100
AcDbBlockEnd
  0
BLOCK
  5
148A3
330
14899
100
AcDbEntity
  8
0
 48
50.0
100
AcDbBlockBegin
  2
*D17
 70
     1
 10
0.0
 20
0.0
 30
0.0
  3
*D17
  1

  0
LINE
  5
14CAC
330
14899
100
AcDbEntity
  8
寸法
 62
     0
 48
50.0
370
    -2
100
AcDbLine
 10
11539.04992349219
 20
4071.471098785372
 30
0.0
 11
11051.14128209493
 21
4071.471098785372
 31
0.0
  0
LINE
  5
14CAD
330
14899
100
AcDbEntity
  8
寸法
 62
     0
 48
50.0
370
    -2
100
AcDbLine
 10
11539.04992349219
 20
2046.471098785373
 30
0.0
 11
11051.14128209493
 21
2046.471098785373
 31
0.0
  0
LINE
  5
14CAE
330
14899
100
AcDbEntity
  8
寸法
 62
     0
 48
50.0
370
    -2
100
AcDbLine
 10
11091.14128209493
 20
4051.471098785373
 30
0.0
 11
11091.14128209493
 21
2066.471098785373
 31
0.0
  0
INSERT
  5
14CAF
330
14899
100
AcDbEntity
  8
寸法
 62
     0
 48
50.0
370
    -2
100
AcDbBlockReference
  2
_DOT
 10
11091.14128209493
 20
4071.471098785372
 30
0.0
 41
20.0
 42
20.0
 43
20.0
 50
90.0
  0
INSERT
  5
14CB0
330
14899
100
AcDbEntity
  8
寸法
 62
     0
 48
50.0
370
    -2
100
AcDbBlockReference
  2
_DOT
 10
11091.14128209493
 20
2046.471098785373
 30
0.0
 41
20.0
 42
20.0
 43
20.0
 50
270.0
  0
MTEXT
  5
14CB1
330
14899
100
AcDbEntity
  8
寸法
 62
     7
 48
50.0
100
AcDbMText
 10
10999.12947107131
 20
3058.971098785375
 30
0.0
 40
120.0
 41
0.0
 71
     5
 72
     1
  1
\A1;有効開口部高サ2025
  7
STYLE1
 11
0.0000000000000001
 21
1.0
 31
0.0
 73
     1
 44
1.0
1001
ACAD
1000
MTEXTBEGIN
1070
    73
1070
     1
1070
    44
1040
1.0
1070
    74
1070
     0
1000
MTEXTEND
  0
POINT
  5
14CB2
330
14899
100
AcDbEntity
  8
DEFPOINTS
 62
     0
 48
50.0
100
AcDbPoint
 10
11559.04992349219
 20
4071.471098785372
 30
0.0
  0
POINT
  5
14CB3
330
14899
100
AcDbEntity
  8
DEFPOINTS
 62
     0
 48
50.0
100
AcDbPoint
 10
11559.04992349219
 20
2046.471098785373
 30
0.0
  0
POINT
  5
14CB4
330
14899
100
AcDbEntity
  8
DEFPOINTS
 62
     0
 48
50.0
100
AcDbPoint
 10
11091.14128209493
 20
2046.471098785373
 30
0.0
  0
ENDBLK
  5
148A4
330
14899
100
AcDbEntity
  8
0
 48
50.0
100
AcDbBlockEnd
  0
BLOCK
  5
148AF
330
148A5
100
AcDbEntity
  8
0
 48
50.0
100
AcDbBlockBegin
  2
*D18
 70
     1
 10
0.0
 20
0.0
 30
0.0
  3
*D18
  1

  0
LINE
  5
14CA3
330
148A5
100
AcDbEntity
  8
寸法
 62
     0
 48
50.0
370
    -2
100
AcDbLine
 10
11616.04992349219
 20
4120.471098785368
 30
0.0
 11
10732.29979430893
 21
4120.471098785368
 31
0.0
  0
LINE
  5
14CA4
330
148A5
100
AcDbEntity
  8
寸法
 62
     0
 48
50.0
370
    -2
100
AcDbLine
 10
11616.04992349219
 20
2030.471098785368
 30
0.0
 11
10732.29979430893
 21
2030.471098785368
 31
0.0
  0
LINE
  5
14CA5
330
148A5
100
AcDbEntity
  8
寸法
 62
     0
 48
50.0
370
    -2
100
AcDbLine
 10
10792.29979430893
 20
4120.471098785368
 30
0.0
 11
10792.29979430893
 21
2030.471098785368
 31
0.0
  0
INSERT
  5
14CA6
330
148A5
100
AcDbEntity
  8
寸法
 62
     0
 48
50.0
370
    -2
100
AcDbBlockReference
  2
_DOTSMALL
 10
10792.29979430893
 20
4120.471098785368
 30
0.0
 41
100.0
 42
100.0
 43
100.0
 50
90.0
  0
INSERT
  5
14CA7
330
148A5
100
AcDbEntity
  8
寸法
 62
     0
 48
50.0
370
    -2
100
AcDbBlockReference
  2
_DOTSMALL
 10
10792.29979430893
 20
2030.471098785368
 30
0.0
 41
100.0
 42
100.0
 43
100.0
 50
270.0
  0
MTEXT
  5
14CA8
330
148A5
100
AcDbEntity
  8
寸法
 62
     7
 48
50.0
100
AcDbMText
 10
10692.28798328531
 20
3075.471098785371
 30
0.0
 40
120.0
 41
0.0
 71
     5
 72
     1
  1
\A1;2090
  7
STYLE1
 11
0.0000000000000001
 21
1.0
 31
0.0
 73
     1
 44
1.0
1001
ACAD
1000
MTEXTBEGIN
1070
    73
1070
     1
1070
    44
1040
1.0
1070
    74
1070
     0
1000
MTEXTEND
  0
POINT
  5
14CA9
330
148A5
100
AcDbEntity
  8
DEFPOINTS
 62
     0
 48
50.0
100
AcDbPoint
 10
11636.04992349219
 20
4120.471098785368
 30
0.0
  0
POINT
  5
14CAA
330
148A5
100
AcDbEntity
  8
DEFPOINTS
 62
     0
 48
50.0
100
AcDbPoint
 10
11636.04992349219
 20
2030.471098785368
 30
0.0
  0
POINT
  5
14CAB
330
148A5
100
AcDbEntity
  8
DEFPOINTS
 62
     0
 48
50.0
100
AcDbPoint
 10
10792.29979430893
 20
2030.471098785368
 30
0.0
  0
ENDBLK
  5
148B0
330
148A5
100
AcDbEntity
  8
0
 48
50.0
100
AcDbBlockEnd
  0
BLOCK
  5
148BB
330
148B1
100
AcDbEntity
  8
0
 48
50.0
100
AcDbBlockBegin
  2
*D19
 70
     1
 10
0.0
 20
0.0
 30
0.0
  3
*D19
  1

  0
LINE
  5
14C9A
330
148B1
100
AcDbEntity
  8
寸法
 62
     0
 48
50.0
370
    -2
100
AcDbLine
 10
11539.04992349219
 20
1980.471098785368
 30
0.0
 11
10432.29979430893
 21
1980.471098785368
 31
0.0
  0
LINE
  5
14C9B
330
148B1
100
AcDbEntity
  8
寸法
 62
     0
 48
50.0
370
    -2
100
AcDbLine
 10
11556.04992349219
 20
4355.471098785372
 30
0.0
 11
10432.29979430893
 21
4355.471098785372
 31
0.0
  0
LINE
  5
14C9C
330
148B1
100
AcDbEntity
  8
寸法
 62
     0
 48
50.0
370
    -2
100
AcDbLine
 10
10492.29979430893
 20
1980.471098785368
 30
0.0
 11
10492.29979430893
 21
4355.471098785372
 31
0.0
  0
INSERT
  5
14C9D
330
148B1
100
AcDbEntity
  8
寸法
 62
     0
 48
50.0
370
    -2
100
AcDbBlockReference
  2
_DOTSMALL
 10
10492.29979430893
 20
1980.471098785368
 30
0.0
 41
100.0
 42
100.0
 43
100.0
 50
270.0
  0
INSERT
  5
14C9E
330
148B1
100
AcDbEntity
  8
寸法
 62
     0
 48
50.0
370
    -2
100
AcDbBlockReference
  2
_DOTSMALL
 10
10492.29979430893
 20
4355.471098785372
 30
0.0
 41
100.0
 42
100.0
 43
100.0
 50
90.0
  0
MTEXT
  5
14C9F
330
148B1
100
AcDbEntity
  8
寸法
 62
     7
 48
50.0
100
AcDbMText
 10
10392.2879832853
 20
3167.971098785372
 30
0.0
 40
120.0
 41
0.0
 71
     5
 72
     1
  1
\A1;2375
  7
STYLE1
 11
0.0000000000000001
 21
1.0
 31
0.0
 73
     1
 44
1.0
1001
ACAD
1000
MTEXTBEGIN
1070
    73
1070
     1
1070
    44
1040
1.0
1070
    74
1070
     0
1000
MTEXTEND
  0
POINT
  5
14CA0
330
148B1
100
AcDbEntity
  8
DEFPOINTS
 62
     0
 48
50.0
100
AcDbPoint
 10
11559.04992349219
 20
1980.471098785368
 30
0.0
  0
POINT
  5
14CA1
330
148B1
100
AcDbEntity
  8
DEFPOINTS
 62
     0
 48
50.0
100
AcDbPoint
 10
11576.04992349219
 20
4355.471098785372
 30
0.0
  0
POINT
  5
14CA2
330
148B1
100
AcDbEntity
  8
DEFPOINTS
 62
     0
 48
50.0
100
AcDbPoint
 10
10492.29979430893
 20
4355.471098785372
 30
0.0
  0
ENDBLK
  5
148BC
330
148B1
100
AcDbEntity
  8
0
 48
50.0
100
AcDbBlockEnd
  0
BLOCK
  5
148C7
330
148BD
100
AcDbEntity
  8
0
 48
50.0
100
AcDbBlockBegin
  2
*D20
 70
     1
 10
0.0
 20
0.0
 30
0.0
  3
*D20
  1

  0
LINE
  5
14C91
330
148BD
100
AcDbEntity
  8
寸法
 62
     0
 48
50.0
370
    -2
100
AcDbLine
 10
15126.04992349219
 20
1980.471098785374
 30
0.0
 11
15870.97708146431
 21
1980.471098785374
 31
0.0
  0
LINE
  5
14C92
330
148BD
100
AcDbEntity
  8
寸法
 62
     0
 48
50.0
370
    -2
100
AcDbLine
 10
15206.04992349218
 20
4300.471098785374
 30
0.0
 11
15870.97708146432
 21
4300.471098785374
 31
0.0
  0
LINE
  5
14C93
330
148BD
100
AcDbEntity
  8
寸法
 62
     0
 48
50.0
370
    -2
100
AcDbLine
 10
15810.97708146431
 20
1980.471098785374
 30
0.0
 11
15810.97708146432
 21
4300.471098785374
 31
0.0
  0
INSERT
  5
14C94
330
148BD
100
AcDbEntity
  8
寸法
 62
     0
 48
50.0
370
    -2
100
AcDbBlockReference
  2
_DOTSMALL
 10
15810.97708146431
 20
1980.471098785374
 30
0.0
 41
100.0
 42
100.0
 43
100.0
 50
270.0
  0
INSERT
  5
14C95
330
148BD
100
AcDbEntity
  8
寸法
 62
     0
 48
50.0
370
    -2
100
AcDbBlockReference
  2
_DOTSMALL
 10
15810.97708146432
 20
4300.471098785374
 30
0.0
 41
100.0
 42
100.0
 43
100.0
 50
90.0
  0
MTEXT
  5
14C96
330
148BD
100
AcDbEntity
  8
寸法
 62
     7
 48
50.0
100
AcDbMText
 10
15710.96527044069
 20
3140.471098785377
 30
0.0
 40
120.0
 41
0.0
 71
     5
 72
     1
  1
\A1;2320
  7
STYLE1
 11
0.0000000000000001
 21
1.0
 31
0.0
 73
     1
 44
1.0
1001
ACAD
1000
MTEXTBEGIN
1070
    73
1070
     1
1070
    44
1040
1.0
1070
    74
1070
     0
1000
MTEXTEND
  0
POINT
  5
14C97
330
148BD
100
AcDbEntity
  8
DEFPOINTS
 62
     0
 48
50.0
100
AcDbPoint
 10
15106.04992349219
 20
1980.471098785374
 30
0.0
  0
POINT
  5
14C98
330
148BD
100
AcDbEntity
  8
DEFPOINTS
 62
     0
 48
50.0
100
AcDbPoint
 10
15186.04992349218
 20
4300.471098785374
 30
0.0
  0
POINT
  5
14C99
330
148BD
100
AcDbEntity
  8
DEFPOINTS
 62
     0
 48
50.0
100
AcDbPoint
 10
15810.97708146432
 20
4300.471098785374
 30
0.0
  0
ENDBLK
  5
148C8
330
148BD
100
AcDbEntity
  8
0
 48
50.0
100
AcDbBlockEnd
  0
BLOCK
  5
148D5
330
148C9
100
AcDbEntity
  8
0
 48
50.0
100
AcDbBlockBegin
  2
*D21
 70
     1
 10
0.0
 20
0.0
 30
0.0
  3
*D21
  1

  0
LINE
  5
14C86
330
148C9
100
AcDbEntity
  8
寸法
 62
     0
 48
50.0
370
    -2
100
AcDbLine
 10
11616.04992349219
 20
2030.471098785373
 30
0.0
 11
10732.29979430893
 21
2030.471098785373
 31
0.0
  0
LINE
  5
14C87
330
148C9
100
AcDbEntity
  8
寸法
 62
     0
 48
50.0
370
    -2
100
AcDbLine
 10
11539.04992349219
 20
1980.471098785368
 30
0.0
 11
10732.29979430893
 21
1980.471098785368
 31
0.0
  0
LINE
  5
14C88
330
148C9
100
AcDbEntity
  8
寸法
 62
     0
 48
50.0
370
    -2
100
AcDbLine
 10
10792.29979430893
 20
2030.471098785373
 30
0.0
 11
10792.29979430893
 21
2130.471098785373
 31
0.0
  0
LINE
  5
14C89
330
148C9
100
AcDbEntity
  8
寸法
 62
     0
 48
50.0
370
    -2
100
AcDbLine
 10
10792.29979430893
 20
1980.471098785368
 30
0.0
 11
10792.29979430893
 21
1568.376610596387
 31
0.0
  0
LINE
  5
14C8A
330
148C9
100
AcDbEntity
  8
寸法
 62
     0
 48
50.0
370
    -2
100
AcDbLine
 10
10792.29979430893
 20
2030.471098785373
 30
0.0
 11
10792.29979430893
 21
1980.471098785368
 31
0.0
  0
INSERT
  5
14C8B
330
148C9
100
AcDbEntity
  8
寸法
 62
     0
 48
50.0
370
    -2
100
AcDbBlockReference
  2
_DOTSMALL
 10
10792.29979430893
 20
2030.471098785373
 30
0.0
 41
100.0
 42
100.0
 43
100.0
 50
270.0
  0
INSERT
  5
14C8C
330
148C9
100
AcDbEntity
  8
寸法
 62
     0
 48
50.0
370
    -2
100
AcDbBlockReference
  2
_DOTSMALL
 10
10792.29979430893
 20
1980.471098785368
 30
0.0
 41
100.0
 42
100.0
 43
100.0
 50
90.0
  0
MTEXT
  5
14C8D
330
148C9
100
AcDbEntity
  8
寸法
 62
     7
 48
50.0
100
AcDbMText
 10
10692.29979430893
 20
1674.423854690877
 30
0.0
 40
120.0
 41
0.0
 71
     5
 72
     1
  1
\A1;50
  7
STYLE1
 11
0.0000000000000001
 21
1.0
 31
0.0
 73
     1
 44
1.0
1001
ACAD
1000
MTEXTBEGIN
1070
    73
1070
     1
1070
    44
1040
1.0
1070
    74
1070
     0
1000
MTEXTEND
  0
POINT
  5
14C8E
330
148C9
100
AcDbEntity
  8
DEFPOINTS
 62
     0
 48
50.0
100
AcDbPoint
 10
11636.04992349219
 20
2030.471098785373
 30
0.0
  0
POINT
  5
14C8F
330
148C9
100
AcDbEntity
  8
DEFPOINTS
 62
     0
 48
50.0
100
AcDbPoint
 10
11559.04992349219
 20
1980.471098785368
 30
0.0
  0
POINT
  5
14C90
330
148C9
100
AcDbEntity
  8
DEFPOINTS
 62
     0
 48
50.0
100
AcDbPoint
 10
10792.29979430893
 20
1980.471098785368
 30
0.0
  0
ENDBLK
  5
148D6
330
148C9
100
AcDbEntity
  8
0
 48
50.0
100
AcDbBlockEnd
  0
BLOCK
  5
148E1
330
148D7
100
AcDbEntity
  8
0
 48
50.0
100
AcDbBlockBegin
  2
*D22
 70
     1
 10
0.0
 20
0.0
 30
0.0
  3
*D22
  1

  0
LINE
  5
14C7D
330
148D7
100
AcDbEntity
  8
寸法
 62
     0
 48
50.0
370
    -2
100
AcDbLine
 10
15106.04992349218
 20
4322.281778397027
 30
0.0
 11
15106.04992349218
 21
4814.128552364678
 31
0.0
  0
LINE
  5
14C7E
330
148D7
100
AcDbEntity
  8
寸法
 62
     0
 48
50.0
370
    -2
100
AcDbLine
 10
11636.04992349219
 20
4371.472716908349
 30
0.0
 11
11636.04992349219
 21
4814.128552364678
 31
0.0
  0
LINE
  5
14C7F
330
148D7
100
AcDbEntity
  8
寸法
 62
     0
 48
50.0
370
    -2
100
AcDbLine
 10
15106.04992349218
 20
4754.128552364679
 30
0.0
 11
11636.04992349219
 21
4754.128552364679
 31
0.0
  0
INSERT
  5
14C80
330
148D7
100
AcDbEntity
  8
寸法
 62
     0
 48
50.0
370
    -2
100
AcDbBlockReference
  2
_DOTSMALL
 10
15106.04992349218
 20
4754.128552364679
 30
0.0
 41
100.0
 42
100.0
 43
100.0
  0
INSERT
  5
14C81
330
148D7
100
AcDbEntity
  8
寸法
 62
     0
 48
50.0
370
    -2
100
AcDbBlockReference
  2
_DOTSMALL
 10
11636.04992349219
 20
4754.128552364679
 30
0.0
 41
100.0
 42
100.0
 43
100.0
 50
180.0
  0
MTEXT
  5
14C82
330
148D7
100
AcDbEntity
  8
寸法
 62
     7
 48
50.0
100
AcDbMText
 10
13371.04992349219
 20
4854.128552364678
 30
0.0
 40
120.0
 41
0.0
 71
     5
 72
     1
  1
\A1;柱外寸法3470
  7
STYLE1
 73
     1
 44
1.0
1001
ACAD
1000
MTEXTBEGIN
1070
    73
1070
     1
1070
    44
1040
1.0
1070
    74
1070
     0
1000
MTEXTEND
  0
POINT
  5
14C83
330
148D7
100
AcDbEntity
  8
DEFPOINTS
 62
     0
 48
50.0
100
AcDbPoint
 10
15106.04992349218
 20
4302.281778397027
 30
0.0
  0
POINT
  5
14C84
330
148D7
100
AcDbEntity
  8
DEFPOINTS
 62
     0
 48
50.0
100
AcDbPoint
 10
11636.04992349219
 20
4351.472716908349
 30
0.0
  0
POINT
  5
14C85
330
148D7
100
AcDbEntity
  8
DEFPOINTS
 62
     0
 48
50.0
100
AcDbPoint
 10
11636.04992349219
 20
4754.128552364679
 30
0.0
  0
ENDBLK
  5
148E2
330
148D7
100
AcDbEntity
  8
0
 48
50.0
100
AcDbBlockEnd
  0
BLOCK
  5
148EF
330
148E3
100
AcDbEntity
  8
0
 48
50.0
100
AcDbBlockBegin
  2
*D23
 70
     1
 10
0.0
 20
0.0
 30
0.0
  3
*D23
  1

  0
LINE
  5
14C72
330
148E3
100
AcDbEntity
  8
寸法
 62
     0
 48
50.0
370
    -2
100
AcDbLine
 10
11636.04992349219
 20
4371.472716908349
 30
0.0
 11
11636.04992349219
 21
4814.128552364676
 31
0.0
  0
LINE
  5
14C73
330
148E3
100
AcDbEntity
  8
寸法
 62
     0
 48
50.0
370
    -2
100
AcDbLine
 10
11576.04992349219
 20
4375.471098785377
 30
0.0
 11
11576.04992349219
 21
4814.128552364676
 31
0.0
  0
LINE
  5
14C74
330
148E3
100
AcDbEntity
  8
寸法
 62
     0
 48
50.0
370
    -2
100
AcDbLine
 10
11636.04992349219
 20
4754.128552364676
 30
0.0
 11
11736.04992349219
 21
4754.128552364676
 31
0.0
  0
LINE
  5
14C75
330
148E3
100
AcDbEntity
  8
寸法
 62
     0
 48
50.0
370
    -2
100
AcDbLine
 10
11576.04992349219
 20
4754.128552364676
 30
0.0
 11
11156.77433294101
 21
4754.128552364676
 31
0.0
  0
LINE
  5
14C76
330
148E3
100
AcDbEntity
  8
寸法
 62
     0
 48
50.0
370
    -2
100
AcDbLine
 10
11636.04992349219
 20
4754.128552364676
 30
0.0
 11
11576.04992349219
 21
4754.128552364676
 31
0.0
  0
INSERT
  5
14C77
330
148E3
100
AcDbEntity
  8
寸法
 62
     0
 48
50.0
370
    -2
100
AcDbBlockReference
  2
_DOTSMALL
 10
11636.04992349219
 20
4754.128552364676
 30
0.0
 41
100.0
 42
100.0
 43
100.0
 50
180.0
  0
INSERT
  5
14C78
330
148E3
100
AcDbEntity
  8
寸法
 62
     0
 48
50.0
370
    -2
100
AcDbBlockReference
  2
_DOTSMALL
 10
11576.04992349219
 20
4754.128552364676
 30
0.0
 41
100.0
 42
100.0
 43
100.0
  0
MTEXT
  5
14C79
330
148E3
100
AcDbEntity
  8
寸法
 62
     7
 48
50.0
100
AcDbMText
 10
11266.4121282166
 20
4854.128552364676
 30
0.0
 40
120.0
 41
0.0
 71
     5
 72
     1
  1
\A1;60
  7
STYLE1
 73
     1
 44
1.0
1001
ACAD
1000
MTEXTBEGIN
1070
    73
1070
     1
1070
    44
1040
1.0
1070
    74
1070
     0
1000
MTEXTEND
  0
POINT
  5
14C7A
330
148E3
100
AcDbEntity
  8
DEFPOINTS
 62
     0
 48
50.0
100
AcDbPoint
 10
11636.04992349219
 20
4351.472716908349
 30
0.0
  0
POINT
  5
14C7B
330
148E3
100
AcDbEntity
  8
DEFPOINTS
 62
     0
 48
50.0
100
AcDbPoint
 10
11576.04992349219
 20
4355.471098785376
 30
0.0
  0
POINT
  5
14C7C
330
148E3
100
AcDbEntity
  8
DEFPOINTS
 62
     0
 48
50.0
100
AcDbPoint
 10
11576.04992349219
 20
4754.128552364676
 30
0.0
  0
ENDBLK
  5
148F0
330
148E3
100
AcDbEntity
  8
0
 48
50.0
100
AcDbBlockEnd
  0
BLOCK
  5
148FB
330
148F1
100
AcDbEntity
  8
0
 48
50.0
100
AcDbBlockBegin
  2
*D24
 70
     1
 10
0.0
 20
0.0
 30
0.0
  3
*D24
  1

  0
LINE
  5
14C69
330
148F1
100
AcDbEntity
  8
寸法
 62
     0
 48
50.0
370
    -2
100
AcDbLine
 10
15186.04992349218
 20
4320.471098785374
 30
0.0
 11
15186.04992349218
 21
5044.242145150954
 31
0.0
  0
LINE
  5
14C6A
330
148F1
100
AcDbEntity
  8
寸法
 62
     0
 48
50.0
370
    -2
100
AcDbLine
 10
11576.04992349219
 20
4375.471098785377
 30
0.0
 11
11576.04992349219
 21
5044.242145150954
 31
0.0
  0
LINE
  5
14C6B
330
148F1
100
AcDbEntity
  8
寸法
 62
     0
 48
50.0
370
    -2
100
AcDbLine
 10
15186.04992349218
 20
4984.242145150954
 30
0.0
 11
11576.04992349219
 21
4984.242145150954
 31
0.0
  0
INSERT
  5
14C6C
330
148F1
100
AcDbEntity
  8
寸法
 62
     0
 48
50.0
370
    -2
100
AcDbBlockReference
  2
_DOTSMALL
 10
15186.04992349218
 20
4984.242145150954
 30
0.0
 41
100.0
 42
100.0
 43
100.0
  0
INSERT
  5
14C6D
330
148F1
100
AcDbEntity
  8
寸法
 62
     0
 48
50.0
370
    -2
100
AcDbBlockReference
  2
_DOTSMALL
 10
11576.04992349219
 20
4984.242145150954
 30
0.0
 41
100.0
 42
100.0
 43
100.0
 50
180.0
  0
MTEXT
  5
14C6E
330
148F1
100
AcDbEntity
  8
寸法
 62
     7
 48
50.0
100
AcDbMText
 10
13381.04992349219
 20
5084.242145150954
 30
0.0
 40
120.0
 41
0.0
 71
     5
 72
     1
  1
\A1;3610
  7
STYLE1
 73
     1
 44
1.0
1001
ACAD
1000
MTEXTBEGIN
1070
    73
1070
     1
1070
    44
1040
1.0
1070
    74
1070
     0
1000
MTEXTEND
  0
POINT
  5
14C6F
330
148F1
100
AcDbEntity
  8
DEFPOINTS
 62
     0
 48
50.0
100
AcDbPoint
 10
15186.04992349218
 20
4300.471098785374
 30
0.0
  0
POINT
  5
14C70
330
148F1
100
AcDbEntity
  8
DEFPOINTS
 62
     0
 48
50.0
100
AcDbPoint
 10
11576.04992349219
 20
4355.471098785376
 30
0.0
  0
POINT
  5
14C71
330
148F1
100
AcDbEntity
  8
DEFPOINTS
 62
     0
 48
50.0
100
AcDbPoint
 10
11576.04992349219
 20
4984.242145150954
 30
0.0
  0
ENDBLK
  5
148FC
330
148F1
100
AcDbEntity
  8
0
 48
50.0
100
AcDbBlockEnd
  0
BLOCK
  5
14908
330
148FD
100
AcDbEntity
  8
0
 48
50.0
100
AcDbBlockBegin
  2
*D25
 70
     1
 10
0.0
 20
0.0
 30
0.0
  3
*D25
  1

  0
LINE
  5
14C5F
330
148FD
100
AcDbEntity
  8
寸法
 62
     0
 48
50.0
370
    -2
100
AcDbLine
 10
15106.04992349218
 20
4322.281778397027
 30
0.0
 11
15106.04992349218
 21
4814.128552364678
 31
0.0
  0
LINE
  5
14C60
330
148FD
100
AcDbEntity
  8
寸法
 62
     0
 48
50.0
370
    -2
100
AcDbLine
 10
15186.04992349218
 20
4320.471098785375
 30
0.0
 11
15186.04992349218
 21
4814.128552364678
 31
0.0
  0
LINE
  5
14C61
330
148FD
100
AcDbEntity
  8
寸法
 62
     0
 48
50.0
370
    -2
100
AcDbLine
 10
15106.04992349218
 20
4754.128552364679
 30
0.0
 11
15186.04992349218
 21
4754.128552364679
 31
0.0
  0
LINE
  5
14C62
330
148FD
100
AcDbEntity
  8
寸法
 62
     0
 48
50.0
370
    -2
100
AcDbLine
 10
15186.04992349218
 20
4754.128552364679
 30
0.0
 11
15498.14441168116
 21
4754.128552364679
 31
0.0
  0
INSERT
  5
14C63
330
148FD
100
AcDbEntity
  8
寸法
 62
     0
 48
50.0
370
    -2
100
AcDbBlockReference
  2
_DOTSMALL
 10
15106.04992349218
 20
4754.128552364679
 30
0.0
 41
100.0
 42
100.0
 43
100.0
 50
180.0
  0
INSERT
  5
14C64
330
148FD
100
AcDbEntity
  8
寸法
 62
     0
 48
50.0
370
    -2
100
AcDbBlockReference
  2
_DOTSMALL
 10
15186.04992349218
 20
4754.128552364679
 30
0.0
 41
100.0
 42
100.0
 43
100.0
  0
MTEXT
  5
14C65
330
148FD
100
AcDbEntity
  8
寸法
 62
     7
 48
50.0
100
AcDbMText
 10
15392.09716758668
 20
4854.128552364678
 30
0.0
 40
120.0
 41
0.0
 71
     5
 72
     1
  1
\A1;80
  7
STYLE1
 73
     1
 44
1.0
1001
ACAD
1000
MTEXTBEGIN
1070
    73
1070
     1
1070
    44
1040
1.0
1070
    74
1070
     0
1000
MTEXTEND
  0
POINT
  5
14C66
330
148FD
100
AcDbEntity
  8
DEFPOINTS
 62
     0
 48
50.0
100
AcDbPoint
 10
15106.04992349218
 20
4302.281778397027
 30
0.0
  0
POINT
  5
14C67
330
148FD
100
AcDbEntity
  8
DEFPOINTS
 62
     0
 48
50.0
100
AcDbPoint
 10
15186.04992349218
 20
4300.471098785376
 30
0.0
  0
POINT
  5
14C68
330
148FD
100
AcDbEntity
  8
DEFPOINTS
 62
     0
 48
50.0
100
AcDbPoint
 10
15186.04992349218
 20
4754.128552364679
 30
0.0
  0
ENDBLK
  5
14909
330
148FD
100
AcDbEntity
  8
0
 48
50.0
100
AcDbBlockEnd
  0
BLOCK
  5
14915
330
1490A
100
AcDbEntity
  8
0
 48
50.0
100
AcDbBlockBegin
  2
*D26
 70
     1
 10
0.0
 20
0.0
 30
0.0
  3
*D26
  1

  0
LINE
  5
14C55
330
1490A
100
AcDbEntity
  8
寸法
 62
     0
 48
50.0
370
    -2
100
AcDbLine
 10
11575.45420978329
 20
4354.768805855034
 30
0.0
 11
10959.51977067801
 21
4372.482956129362
 31
0.0
  0
LINE
  5
14C56
330
1490A
100
AcDbEntity
  8
寸法
 62
     0
 48
50.0
370
    -2
100
AcDbLine
 10
11571.40075422666
 20
4213.827082089321
 30
0.0
 11
10955.46631512138
 21
4231.54123236365
 31
0.0
  0
LINE
  5
14C57
330
1490A
100
AcDbEntity
  8
寸法
 62
     0
 48
50.0
370
    -2
100
AcDbLine
 10
11015.44151672381
 20
4229.816357658703
 30
0.0
 11
11019.49497228044
 21
4370.758081424416
 31
0.0
  0
LINE
  5
14C58
330
1490A
100
AcDbEntity
  8
寸法
 62
     0
 48
50.0
370
    -2
100
AcDbLine
 10
11019.49497228044
 20
4370.758081424416
 30
0.0
 11
11029.84422051012
 21
4730.609291039001
 31
0.0
  0
INSERT
  5
14C59
330
1490A
100
AcDbEntity
  8
寸法
 62
     0
 48
50.0
370
    -2
100
AcDbBlockReference
  2
_DOTSMALL
 10
11015.44151672381
 20
4229.816357658703
 30
0.0
 41
100.0
 42
100.0
 43
100.0
 50
268.3526390256378
  0
INSERT
  5
14C5A
330
1490A
100
AcDbEntity
  8
寸法
 62
     0
 48
50.0
370
    -2
100
AcDbBlockReference
  2
_DOTSMALL
 10
11019.49497228044
 20
4370.758081424416
 30
0.0
 41
100.0
 42
100.0
 43
100.0
 50
88.35263902563776
  0
MTEXT
  5
14C5B
330
1490A
100
AcDbEntity
  8
寸法
 62
     7
 48
50.0
100
AcDbMText
 10
10926.14832264535
 20
4603.537812075315
 30
0.0
 40
120.0
 41
0.0
 71
     5
 72
     1
  1
\A1;141
  7
STYLE1
 11
0.0287479117491237
 21
0.9995866933738488
 31
0.0
 73
     1
 44
1.0
1001
ACAD
1000
MTEXTBEGIN
1070
    73
1070
     1
1070
    44
1040
1.0
1070
    74
1070
     0
1000
MTEXTEND
  0
POINT
  5
14C5C
330
1490A
100
AcDbEntity
  8
DEFPOINTS
 62
     0
 48
50.0
100
AcDbPoint
 10
11595.44594365077
 20
4354.193847620051
 30
0.0
  0
POINT
  5
14C5D
330
1490A
100
AcDbEntity
  8
DEFPOINTS
 62
     0
 48
50.0
100
AcDbPoint
 10
11591.39248809414
 20
4213.252123854339
 30
0.0
  0
POINT
  5
14C5E
330
1490A
100
AcDbEntity
  8
DEFPOINTS
 62
     0
 48
50.0
100
AcDbPoint
 10
11015.44151672381
 20
4229.816357658703
 30
0.0
  0
ENDBLK
  5
14916
330
1490A
100
AcDbEntity
  8
0
 48
50.0
100
AcDbBlockEnd
  0
BLOCK
  5
14E8C
330
14E82
100
AcDbEntity
  8
0
 48
50.0
100
AcDbBlockBegin
  2
*D27
 70
     1
 10
0.0
 20
0.0
 30
0.0
  3
*D27
  1

  0
LINE
  5
153DC
330
14E82
100
AcDbEntity
  8
寸法
 62
     0
 48
50.0
370
    -2
100
AcDbLine
 10
2986.695515348526
 20
6860.092225683691
 30
0.0
 11
2986.695515348526
 21
6164.058955745582
 31
0.0
  0
LINE
  5
153DD
330
14E82
100
AcDbEntity
  8
寸法
 62
     0
 48
50.0
370
    -2
100
AcDbLine
 10
4252.695515348526
 20
6860.092225683691
 30
0.0
 11
4252.695515348526
 21
6164.058955745582
 31
0.0
  0
LINE
  5
153DE
330
14E82
100
AcDbEntity
  8
寸法
 62
     0
 48
50.0
370
    -2
100
AcDbLine
 10
3006.695515348526
 20
6204.058955745582
 30
0.0
 11
4232.695515348526
 21
6204.058955745582
 31
0.0
  0
INSERT
  5
153DF
330
14E82
100
AcDbEntity
  8
寸法
 62
     0
 48
50.0
370
    -2
100
AcDbBlockReference
  2
_DOT
 10
2986.695515348526
 20
6204.058955745582
 30
0.0
 41
20.0
 42
20.0
 43
20.0
 50
180.0
  0
INSERT
  5
153E0
330
14E82
100
AcDbEntity
  8
寸法
 62
     0
 48
50.0
370
    -2
100
AcDbBlockReference
  2
_DOT
 10
4252.695515348526
 20
6204.058955745582
 30
0.0
 41
20.0
 42
20.0
 43
20.0
  0
MTEXT
  5
153E1
330
14E82
100
AcDbEntity
  8
寸法
 62
     7
 48
50.0
100
AcDbMText
 10
3643.822979132209
 20
6396.070766769204
 30
0.0
 40
120.0
 41
0.0
 71
     5
 72
     1
  1
\A1;有効開口部間口\P1266
  7
STYLE1
 73
     1
 44
1.0
1001
ACAD
1000
MTEXTBEGIN
1070
    73
1070
     1
1070
    44
1040
1.0
1070
    74
1070
     0
1000
MTEXTEND
  0
POINT
  5
153E2
330
14E82
100
AcDbEntity
  8
DEFPOINTS
 62
     0
 48
50.0
100
AcDbPoint
 10
2986.695515348526
 20
6880.092225683691
 30
0.0
  0
POINT
  5
153E3
330
14E82
100
AcDbEntity
  8
DEFPOINTS
 62
     0
 48
50.0
100
AcDbPoint
 10
4252.695515348526
 20
6880.092225683691
 30
0.0
  0
POINT
  5
153E4
330
14E82
100
AcDbEntity
  8
DEFPOINTS
 62
     0
 48
50.0
100
AcDbPoint
 10
4252.695515348526
 20
6204.058955745582
 30
0.0
  0
ENDBLK
  5
14E8D
330
14E82
100
AcDbEntity
  8
0
 48
50.0
100
AcDbBlockEnd
  0
BLOCK
  5
1524B
330
15241
100
AcDbEntity
  8
0
 48
50.0
100
AcDbBlockBegin
  2
*D28
 70
     1
 10
0.0
 20
0.0
 30
0.0
  3
*D28
  1

  0
LINE
  5
153D3
330
15241
100
AcDbEntity
  8
寸法
 62
     0
 48
50.0
370
    -2
100
AcDbLine
 10
2947.695515348526
 20
6860.092225683691
 30
0.0
 11
2947.695515348526
 21
5861.135218174437
 31
0.0
  0
LINE
  5
153D4
330
15241
100
AcDbEntity
  8
寸法
 62
     0
 48
50.0
370
    -2
100
AcDbLine
 10
5101.695515348526
 20
6860.092225683691
 30
0.0
 11
5101.695515348526
 21
5861.135218174437
 31
0.0
  0
LINE
  5
153D5
330
15241
100
AcDbEntity
  8
寸法
 62
     0
 48
50.0
370
    -2
100
AcDbLine
 10
2947.695515348526
 20
5921.135218174437
 30
0.0
 11
5101.695515348526
 21
5921.135218174437
 31
0.0
  0
INSERT
  5
153D6
330
15241
100
AcDbEntity
  8
寸法
 62
     0
 48
50.0
370
    -2
100
AcDbBlockReference
  2
_DOTSMALL
 10
2947.695515348526
 20
5921.135218174437
 30
0.0
 41
100.0
 42
100.0
 43
100.0
 50
180.0
  0
INSERT
  5
153D7
330
15241
100
AcDbEntity
  8
寸法
 62
     0
 48
50.0
370
    -2
100
AcDbBlockReference
  2
_DOTSMALL
 10
5101.695515348526
 20
5921.135218174437
 30
0.0
 41
100.0
 42
100.0
 43
100.0
  0
MTEXT
  5
153D8
330
15241
100
AcDbEntity
  8
寸法
 62
     7
 48
50.0
100
AcDbMText
 10
4001.817515997383
 20
6021.147029198059
 30
0.0
 40
120.0
 41
0.0
 71
     5
 72
     1
  1
\A1;2154
  7
STYLE1
 73
     1
 44
1.0
1001
ACAD
1000
MTEXTBEGIN
1070
    73
1070
     1
1070
    44
1040
1.0
1070
    74
1070
     0
1000
MTEXTEND
  0
POINT
  5
153D9
330
15241
100
AcDbEntity
  8
DEFPOINTS
 62
     0
 48
50.0
100
AcDbPoint
 10
2947.695515348526
 20
6880.092225683691
 30
0.0
  0
POINT
  5
153DA
330
15241
100
AcDbEntity
  8
DEFPOINTS
 62
     0
 48
50.0
100
AcDbPoint
 10
5101.695515348526
 20
6880.092225683691
 30
0.0
  0
POINT
  5
153DB
330
15241
100
AcDbEntity
  8
DEFPOINTS
 62
     0
 48
50.0
100
AcDbPoint
 10
5101.695515348526
 20
5921.135218174437
 30
0.0
  0
ENDBLK
  5
1524C
330
15241
100
AcDbEntity
  8
0
 48
50.0
100
AcDbBlockEnd
  0
BLOCK
  5
15259
330
1524D
100
AcDbEntity
  8
0
 48
50.0
100
AcDbBlockBegin
  2
*D29
 70
     1
 10
0.0
 20
0.0
 30
0.0
  3
*D29
  1

  0
LINE
  5
153C8
330
1524D
100
AcDbEntity
  8
寸法
 62
     0
 48
50.0
370
    -2
100
AcDbLine
 10
2479.695515348526
 20
6957.092225683694
 30
0.0
 11
2128.376701444476
 21
6957.092225683694
 31
0.0
  0
LINE
  5
153C9
330
1524D
100
AcDbEntity
  8
寸法
 62
     0
 48
50.0
370
    -2
100
AcDbLine
 10
2927.695515348527
 20
6882.092225683665
 30
0.0
 11
2128.376701444476
 21
6882.092225683665
 31
0.0
  0
LINE
  5
153CA
330
1524D
100
AcDbEntity
  8
寸法
 62
     0
 48
50.0
370
    -2
100
AcDbLine
 10
2168.376701444477
 20
6977.092225683692
 30
0.0
 11
2168.376701444477
 21
6997.092225683693
 31
0.0
  0
LINE
  5
153CB
330
1524D
100
AcDbEntity
  8
寸法
 62
     0
 48
50.0
370
    -2
100
AcDbLine
 10
2168.376701444477
 20
6862.092225683666
 30
0.0
 11
2168.376701444477
 21
6641.121662935187
 31
0.0
  0
LINE
  5
153CC
330
1524D
100
AcDbEntity
  8
寸法
 62
     0
 48
50.0
370
    -2
100
AcDbLine
 10
2168.376701444477
 20
6957.092225683694
 30
0.0
 11
2168.376701444477
 21
6882.092225683665
 31
0.0
  0
INSERT
  5
153CD
330
1524D
100
AcDbEntity
  8
寸法
 62
     0
 48
50.0
370
    -2
100
AcDbBlockReference
  2
_DOT
 10
2168.376701444477
 20
6957.092225683694
 30
0.0
 41
20.0
 42
20.0
 43
20.0
 50
270.0
  0
INSERT
  5
153CE
330
1524D
100
AcDbEntity
  8
寸法
 62
     0
 48
50.0
370
    -2
100
AcDbBlockReference
  2
_DOT
 10
2168.376701444477
 20
6882.092225683665
 30
0.0
 41
20.0
 42
20.0
 43
20.0
 50
90.0
  0
MTEXT
  5
153CF
330
1524D
100
AcDbEntity
  8
寸法
 62
     7
 48
50.0
100
AcDbMText
 10
2076.376701444476
 20
6741.606944309427
 30
0.0
 40
120.0
 41
0.0
 71
     5
 72
     1
  1
\A1;75
  7
STYLE1
 11
0.0000000000000001
 21
1.0
 31
0.0
 73
     1
 44
1.0
1001
ACAD
1000
MTEXTBEGIN
1070
    73
1070
     1
1070
    44
1040
1.0
1070
    74
1070
     0
1000
MTEXTEND
  0
POINT
  5
153D0
330
1524D
100
AcDbEntity
  8
DEFPOINTS
 62
     0
 48
50.0
100
AcDbPoint
 10
2499.695515348526
 20
6957.092225683694
 30
0.0
  0
POINT
  5
153D1
330
1524D
100
AcDbEntity
  8
DEFPOINTS
 62
     0
 48
50.0
100
AcDbPoint
 10
2947.695515348527
 20
6882.092225683665
 30
0.0
  0
POINT
  5
153D2
330
1524D
100
AcDbEntity
  8
DEFPOINTS
 62
     0
 48
50.0
100
AcDbPoint
 10
2168.376701444477
 20
6882.092225683665
 30
0.0
  0
ENDBLK
  5
1525A
330
1524D
100
AcDbEntity
  8
0
 48
50.0
100
AcDbBlockEnd
  0
BLOCK
  5
15289
330
1527F
100
AcDbEntity
  8
0
 48
50.0
100
AcDbBlockBegin
  2
*D30
 70
     1
 10
0.0
 20
0.0
 30
0.0
  3
*D30
  1

  0
LINE
  5
153BF
330
1527F
100
AcDbEntity
  8
寸法
 62
     0
 48
50.0
370
    -2
100
AcDbLine
 10
5549.695515348525
 20
6992.092225683689
 30
0.0
 11
5549.695515348525
 21
5592.010268180846
 31
0.0
  0
LINE
  5
153C0
330
1527F
100
AcDbEntity
  8
寸法
 62
     0
 48
50.0
370
    -2
100
AcDbLine
 10
8599.695515348525
 20
6937.092225683693
 30
0.0
 11
8599.695515348525
 21
5592.010268180846
 31
0.0
  0
LINE
  5
153C1
330
1527F
100
AcDbEntity
  8
寸法
 62
     0
 48
50.0
370
    -2
100
AcDbLine
 10
5569.695515348525
 20
5632.010268180845
 30
0.0
 11
8579.695515348525
 21
5632.010268180845
 31
0.0
  0
INSERT
  5
153C2
330
1527F
100
AcDbEntity
  8
寸法
 62
     0
 48
50.0
370
    -2
100
AcDbBlockReference
  2
_DOT
 10
5549.695515348525
 20
5632.010268180845
 30
0.0
 41
20.0
 42
20.0
 43
20.0
 50
180.0
  0
INSERT
  5
153C3
330
1527F
100
AcDbEntity
  8
寸法
 62
     0
 48
50.0
370
    -2
100
AcDbBlockReference
  2
_DOT
 10
8599.695515348525
 20
5632.010268180845
 30
0.0
 41
20.0
 42
20.0
 43
20.0
  0
MTEXT
  5
153C4
330
1527F
100
AcDbEntity
  8
寸法
 62
     7
 48
50.0
100
AcDbMText
 10
7074.695515348524
 20
5724.010268180846
 30
0.0
 40
120.0
 41
0.0
 71
     5
 72
     1
  1
\A1;3050
  7
STYLE1
 73
     1
 44
1.0
1001
ACAD
1000
MTEXTBEGIN
1070
    73
1070
     1
1070
    44
1040
1.0
1070
    74
1070
     0
1000
MTEXTEND
  0
POINT
  5
153C5
330
1527F
100
AcDbEntity
  8
DEFPOINTS
 62
     0
 48
50.0
100
AcDbPoint
 10
5549.695515348525
 20
7012.092225683689
 30
0.0
  0
POINT
  5
153C6
330
1527F
100
AcDbEntity
  8
DEFPOINTS
 62
     0
 48
50.0
100
AcDbPoint
 10
8599.695515348525
 20
6957.092225683694
 30
0.0
  0
POINT
  5
153C7
330
1527F
100
AcDbEntity
  8
DEFPOINTS
 62
     0
 48
50.0
100
AcDbPoint
 10
8599.695515348525
 20
5632.010268180845
 30
0.0
  0
ENDBLK
  5
1528A
330
1527F
100
AcDbEntity
  8
0
 48
50.0
100
AcDbBlockEnd
  0
BLOCK
  5
152A3
330
15299
100
AcDbEntity
  8
0
 48
50.0
100
AcDbBlockBegin
  2
*D31
 70
     1
 10
0.0
 20
0.0
 30
0.0
  3
*D31
  1

  0
LINE
  5
153B6
330
15299
100
AcDbEntity
  8
寸法
 62
     0
 48
50.0
370
    -2
100
AcDbLine
 10
2499.695515348526
 20
6937.092225683693
 30
0.0
 11
2499.695515348526
 21
5592.010268180846
 31
0.0
  0
LINE
  5
153B7
330
15299
100
AcDbEntity
  8
寸法
 62
     0
 48
50.0
370
    -2
100
AcDbLine
 10
5549.695515348525
 20
6992.092225683693
 30
0.0
 11
5549.695515348525
 21
5592.010268180846
 31
0.0
  0
LINE
  5
153B8
330
15299
100
AcDbEntity
  8
寸法
 62
     0
 48
50.0
370
    -2
100
AcDbLine
 10
2519.695515348525
 20
5632.010268180845
 30
0.0
 11
5529.695515348524
 21
5632.010268180845
 31
0.0
  0
INSERT
  5
153B9
330
15299
100
AcDbEntity
  8
寸法
 62
     0
 48
50.0
370
    -2
100
AcDbBlockReference
  2
_DOT
 10
2499.695515348526
 20
5632.010268180845
 30
0.0
 41
20.0
 42
20.0
 43
20.0
 50
180.0
  0
INSERT
  5
153BA
330
15299
100
AcDbEntity
  8
寸法
 62
     0
 48
50.0
370
    -2
100
AcDbBlockReference
  2
_DOT
 10
5549.695515348525
 20
5632.010268180845
 30
0.0
 41
20.0
 42
20.0
 43
20.0
  0
MTEXT
  5
153BB
330
15299
100
AcDbEntity
  8
寸法
 62
     7
 48
50.0
100
AcDbMText
 10
4024.695515348525
 20
5724.010268180846
 30
0.0
 40
120.0
 41
0.0
 71
     5
 72
     1
  1
\A1;3050
  7
STYLE1
 73
     1
 44
1.0
1001
ACAD
1000
MTEXTBEGIN
1070
    73
1070
     1
1070
    44
1040
1.0
1070
    74
1070
     0
1000
MTEXTEND
  0
POINT
  5
153BC
330
15299
100
AcDbEntity
  8
DEFPOINTS
 62
     0
 48
50.0
100
AcDbPoint
 10
2499.695515348526
 20
6957.092225683694
 30
0.0
  0
POINT
  5
153BD
330
15299
100
AcDbEntity
  8
DEFPOINTS
 62
     0
 48
50.0
100
AcDbPoint
 10
5549.695515348525
 20
7012.092225683693
 30
0.0
  0
POINT
  5
153BE
330
15299
100
AcDbEntity
  8
DEFPOINTS
 62
     0
 48
50.0
100
AcDbPoint
 10
5549.695515348525
 20
5632.010268180845
 30
0.0
  0
ENDBLK
  5
152A4
330
15299
100
AcDbEntity
  8
0
 48
50.0
100
AcDbBlockEnd
  0
ENDSEC
  0
SECTION
  2
ENTITIES
  0
MTEXT
  5
763F
330
747D
100
AcDbEntity
  8
0
100
AcDbMText
 10
302.846345836809
 20
280.1983726409901
 30
0.0
 40
3.5
 41
5.323721266742722
 71
     1
 72
     5
  1

  7
MSMINCHO
 73
     1
 44
1.0
1001
ACAD
1000
MTEXTBEGIN
1070
    73
1070
     1
1070
    44
1040
1.0
1070
    74
1070
     0
1000
MTEXTEND
  0
INSERT
  5
F235
330
747D
100
AcDbEntity
  8
0
100
AcDbBlockReference
  2
作図枠S50
 10
0.0
 20
0.0
 30
0.0
 41
0.8
 42
0.8
 43
0.8
  0
LINE
  5
10B56
330
747D
100
AcDbEntity
  8
補助
  6
PHANTOM
 62
   230
 48
50.0
100
AcDbLine
 10
140.0
 20
0.0
 30
0.0
 11
139.9999999999995
 21
11409.6
 31
0.0
  0
LINE
  5
10B57
330
747D
100
AcDbEntity
  8
補助
  6
PHANTOM
 62
   230
 48
50.0
100
AcDbLine
 10
139.9999999999995
 20
11409.6
 30
0.0
 11
16307.2
 21
11409.6
 31
0.0
  0
LINE
  5
10B59
330
747D
100
AcDbEntity
  8
仕様書枠
  6
Continuous
 48
50.0
100
AcDbLine
 10
13107.2
 20
1200.0
 30
0.0
 11
13107.2
 21
-0.0000000000000729
 31
0.0
  0
LINE
  5
10B5C
330
747D
100
AcDbEntity
  8
仕様書枠
 48
50.0
100
AcDbLine
 10
16307.2
 20
1200.0
 30
0.0
 11
16307.2
 21
-0.0000000000000909
 31
0.0
  0
LINE
  5
10B5D
330
747D
100
AcDbEntity
  8
仕様書枠
 48
50.0
100
AcDbLine
 10
140.0
 20
0.0
 30
0.0
 11
16307.2
 21
-0.0000000000000909
 31
0.0
  0
LINE
  5
10B5E
330
747D
100
AcDbEntity
  8
補助
  6
PHANTOM
 62
   230
 48
50.0
100
AcDbLine
 10
16307.2
 20
11409.6
 30
0.0
 11
16307.2
 21
1200.0
 31
0.0
  0
LINE
  5
10B6C
330
747D
100
AcDbEntity
  8
仕様書枠
 48
50.0
100
AcDbLine
 10
13107.2
 20
1200.0
 30
0.0
 11
16307.2
 21
1200.0
 31
0.0
  0
LINE
  5
10B6D
330
747D
100
AcDbEntity
  8
補助
  6
PHANTOM
 62
   230
 48
50.0
100
AcDbLine
 10
13107.2
 20
11409.6
 30
0.0
 11
13107.2
 21
4800.0
 31
0.0
  0
LINE
  5
10B6F
330
747D
100
AcDbEntity
  8
補助
  6
PHANTOM
 62
   230
 48
50.0
100
AcDbLine
 10
13107.2
 20
4800.0
 30
0.0
 11
16307.2
 21
4800.0
 31
0.0
  0
LINE
  5
10B72
330
747D
100
AcDbEntity
  8
文字
 62
     7
 48
50.0
100
AcDbLine
 10
13187.2
 20
400.0
 30
0.0
 11
16227.2
 21
400.0
 31
0.0
  0
TEXT
  5
10B73
330
747D
100
AcDbEntity
  8
文字
 62
     7
 48
50.0
100
AcDbText
 10
13162.9790565769
 20
895.0906074299405
 30
0.0
 40
200.0
  1
外 形 図
  7
STYLE2
100
AcDbText
  0
TEXT
  5
10B74
330
747D
100
AcDbEntity
  8
文字
 62
     7
 48
50.0
100
AcDbText
 10
13201.43669998441
 20
477.2740661031255
 30
0.0
 40
160.0
  1
機種名
  7
STYLE2
100
AcDbText
  0
TEXT
  5
10B76
330
747D
100
AcDbEntity
  8
文字
 62
     7
 48
50.0
100
AcDbText
 10
13209.4053442172
 20
76.09434707649343
 30
0.0
 40
100.0
  1
○床面積 ： 21.33㎡(6.46坪) 　
  7
STYLE2
100
AcDbText
  0
TEXT
  5
10B79
330
747D
100
AcDbEntity
  8
文字
 62
     7
 48
50.0
100
AcDbText
 10
14524.131837222
 20
1031.557706291228
 30
0.0
 40
100.0
  1
NO.31     <縮尺> S=1/40
  7
STYLE2
100
AcDbText
  0
LINE
  5
10B7B
330
747D
100
AcDbEntity
  8
仕様書枠
 48
50.0
100
AcDbLine
 10
13107.2
 20
800.0
 30
0.0
 11
14251.2
 21
800.0
 31
0.0
  0
LINE
  5
10B88
330
747D
100
AcDbEntity
  8
仕様書枠
  6
Continuous
 48
50.0
100
AcDbLine
 10
14251.2
 20
1200.0
 30
0.0
 11
14251.2
 21
800.0
 31
0.0
  0
TEXT
  5
10EA8
330
747D
100
AcDbEntity
  8
文字
 62
     7
 48
50.0
100
AcDbText
 10
14851.62318972916
 20
838.2527270729188
 30
0.0
 40
100.0
  1
～一般型～
  7
STYLE2
100
AcDbText
  0
LINE
  5
13DF3
330
747D
100
AcDbEntity
  8
部品1
100
AcDbLine
 10
8571.695515348526
 20
9532.092225683703
 30
0.0
 11
8599.695515348525
 21
9532.092225683703
 31
0.0
  0
LINE
  5
13DF4
330
747D
100
AcDbEntity
  8
部品1
100
AcDbLine
 10
5604.695515348525
 20
9532.092225683703
 30
0.0
 11
8544.695515348525
 21
9532.092225683703
 31
0.0
  0
LINE
  5
13DF5
330
747D
100
AcDbEntity
  8
部品1
100
AcDbLine
 10
2527.695515348525
 20
9532.092225683703
 30
0.0
 11
2499.695515348526
 21
9532.092225683703
 31
0.0
  0
LINE
  5
13DF6
330
747D
100
AcDbEntity
  8
部品1
100
AcDbLine
 10
5494.695515348524
 20
9532.092225683703
 30
0.0
 11
2554.695515348525
 21
9532.092225683697
 31
0.0
  0
LINE
  5
13DF7
330
747D
100
AcDbEntity
  8
細線
 48
50.0
100
AcDbLine
 10
2632.195515348511
 20
4120.471098785372
 30
0.0
 11
2632.195515348511
 21
2030.471098785373
 31
0.0
  0
LINE
  5
13DF8
330
747D
100
AcDbEntity
  8
細線
 48
50.0
100
AcDbLine
 10
2617.195515348511
 20
4120.471098785372
 30
0.0
 11
2617.195515348511
 21
2030.471098785373
 31
0.0
  0
LINE
  5
13DF9
330
747D
100
AcDbEntity
  8
細線
 48
50.0
100
AcDbLine
 10
2757.195515348511
 20
4120.471098785372
 30
0.0
 11
2757.195515348511
 21
2030.471098785373
 31
0.0
  0
LINE
  5
13DFA
330
747D
100
AcDbEntity
  8
細線
 48
50.0
100
AcDbLine
 10
2772.19551534851
 20
4120.471098785372
 30
0.0
 11
2772.19551534851
 21
2030.471098785373
 31
0.0
  0
LINE
  5
13DFB
330
747D
100
AcDbEntity
  8
細線
 48
50.0
100
AcDbLine
 10
2912.195515348511
 20
4120.471098785372
 30
0.0
 11
2912.195515348511
 21
2030.471098785373
 31
0.0
  0
LINE
  5
13DFC
330
747D
100
AcDbEntity
  8
細線
 48
50.0
100
AcDbLine
 10
2897.19551534851
 20
4120.471098785372
 30
0.0
 11
2897.19551534851
 21
2030.471098785373
 31
0.0
  0
LINE
  5
13DFD
330
747D
100
AcDbEntity
  8
細線
 48
50.0
100
AcDbLine
 10
5152.195515348511
 20
4120.471098785372
 30
0.0
 11
5152.195515348511
 21
2030.471098785373
 31
0.0
  0
LINE
  5
13DFE
330
747D
100
AcDbEntity
  8
細線
 48
50.0
100
AcDbLine
 10
5137.19551534851
 20
4120.471098785372
 30
0.0
 11
5137.19551534851
 21
2030.471098785373
 31
0.0
  0
LINE
  5
13DFF
330
747D
100
AcDbEntity
  8
細線
 48
50.0
100
AcDbLine
 10
5277.195515348511
 20
4120.471098785372
 30
0.0
 11
5277.195515348511
 21
2030.471098785373
 31
0.0
  0
LINE
  5
13E00
330
747D
100
AcDbEntity
  8
細線
 48
50.0
100
AcDbLine
 10
5292.19551534851
 20
4120.471098785372
 30
0.0
 11
5292.19551534851
 21
2030.471098785373
 31
0.0
  0
LINE
  5
13E01
330
747D
100
AcDbEntity
  8
細線
 48
50.0
100
AcDbLine
 10
5432.19551534851
 20
4120.471098785372
 30
0.0
 11
5432.19551534851
 21
2030.471098785373
 31
0.0
  0
LINE
  5
13E02
330
747D
100
AcDbEntity
  8
細線
 48
50.0
100
AcDbLine
 10
5417.19551534851
 20
4120.471098785372
 30
0.0
 11
5417.19551534851
 21
2030.471098785373
 31
0.0
  0
LINE
  5
13E03
330
747D
100
AcDbEntity
  8
細線
 48
50.0
100
AcDbLine
 10
6102.195515348511
 20
4120.471098785372
 30
0.0
 11
6102.195515348511
 21
2030.471098785373
 31
0.0
  0
LINE
  5
13E04
330
747D
100
AcDbEntity
  8
細線
 48
50.0
100
AcDbLine
 10
6087.19551534851
 20
4120.471098785372
 30
0.0
 11
6087.19551534851
 21
2030.471098785373
 31
0.0
  0
LINE
  5
13E05
330
747D
100
AcDbEntity
  8
細線
 48
50.0
100
AcDbLine
 10
6227.195515348511
 20
4120.471098785372
 30
0.0
 11
6227.195515348511
 21
2030.471098785373
 31
0.0
  0
LINE
  5
13E06
330
747D
100
AcDbEntity
  8
細線
 48
50.0
100
AcDbLine
 10
6242.195515348511
 20
4120.471098785372
 30
0.0
 11
6242.195515348511
 21
2030.471098785373
 31
0.0
  0
LINE
  5
13E07
330
747D
100
AcDbEntity
  8
細線
 48
50.0
100
AcDbLine
 10
6382.19551534851
 20
4120.471098785372
 30
0.0
 11
6382.19551534851
 21
2030.471098785373
 31
0.0
  0
LINE
  5
13E08
330
747D
100
AcDbEntity
  8
細線
 48
50.0
100
AcDbLine
 10
6367.195515348511
 20
4120.471098785372
 30
0.0
 11
6367.195515348511
 21
2030.471098785373
 31
0.0
  0
LINE
  5
13E09
330
747D
100
AcDbEntity
  8
細線
 48
50.0
100
AcDbLine
 10
5947.195515348511
 20
4120.471098785372
 30
0.0
 11
5947.195515348511
 21
2030.471098785373
 31
0.0
  0
LINE
  5
13E0A
330
747D
100
AcDbEntity
  8
細線
 48
50.0
100
AcDbLine
 10
5962.19551534851
 20
4120.471098785372
 30
0.0
 11
5962.19551534851
 21
2030.471098785373
 31
0.0
  0
LINE
  5
13E0B
330
747D
100
AcDbEntity
  8
細線
 48
50.0
100
AcDbLine
 10
5822.195515348511
 20
4120.471098785372
 30
0.0
 11
5822.195515348511
 21
2030.471098785373
 31
0.0
  0
LINE
  5
13E0C
330
747D
100
AcDbEntity
  8
細線
 48
50.0
100
AcDbLine
 10
5807.19551534851
 20
4120.471098785372
 30
0.0
 11
5807.19551534851
 21
2030.471098785373
 31
0.0
  0
LINE
  5
13E0D
330
747D
100
AcDbEntity
  8
細線
 48
50.0
100
AcDbLine
 10
5667.19551534851
 20
4120.471098785372
 30
0.0
 11
5667.19551534851
 21
2030.471098785373
 31
0.0
  0
LINE
  5
13E0E
330
747D
100
AcDbEntity
  8
細線
 48
50.0
100
AcDbLine
 10
5682.19551534851
 20
4120.471098785372
 30
0.0
 11
5682.19551534851
 21
2030.471098785373
 31
0.0
  0
LINE
  5
13E0F
330
747D
100
AcDbEntity
  8
細線
 48
50.0
100
AcDbLine
 10
6522.195515348525
 20
4120.471098785372
 30
0.0
 11
6522.195515348521
 21
2030.471098785373
 31
0.0
  0
LINE
  5
13E10
330
747D
100
AcDbEntity
  8
細線
 48
50.0
100
AcDbLine
 10
6507.195515348525
 20
4120.471098785372
 30
0.0
 11
6507.195515348522
 21
2030.471098785373
 31
0.0
  0
LINE
  5
13E11
330
747D
100
AcDbEntity
  8
細線
 48
50.0
100
AcDbLine
 10
6647.195515348525
 20
4120.471098785372
 30
0.0
 11
6647.195515348521
 21
2030.471098785373
 31
0.0
  0
LINE
  5
13E12
330
747D
100
AcDbEntity
  8
細線
 48
50.0
100
AcDbLine
 10
6662.195515348525
 20
4120.471098785372
 30
0.0
 11
6662.195515348521
 21
2030.471098785373
 31
0.0
  0
LINE
  5
13E13
330
747D
100
AcDbEntity
  8
細線
 48
50.0
100
AcDbLine
 10
6802.195515348525
 20
4120.471098785372
 30
0.0
 11
6802.195515348521
 21
2030.471098785373
 31
0.0
  0
LINE
  5
13E14
330
747D
100
AcDbEntity
  8
細線
 48
50.0
100
AcDbLine
 10
6787.195515348525
 20
4120.471098785372
 30
0.0
 11
6787.195515348521
 21
2030.471098785373
 31
0.0
  0
LINE
  5
13E15
330
747D
100
AcDbEntity
  8
細線
 48
50.0
100
AcDbLine
 10
7207.195515348522
 20
4120.471098785372
 30
0.0
 11
7207.195515348522
 21
2030.471098785373
 31
0.0
  0
LINE
  5
13E16
330
747D
100
AcDbEntity
  8
細線
 48
50.0
100
AcDbLine
 10
7222.195515348521
 20
4120.471098785372
 30
0.0
 11
7222.195515348521
 21
2030.471098785373
 31
0.0
  0
LINE
  5
13E17
330
747D
100
AcDbEntity
  8
細線
 48
50.0
100
AcDbLine
 10
7082.195515348522
 20
4120.471098785372
 30
0.0
 11
7082.195515348522
 21
2030.471098785373
 31
0.0
  0
LINE
  5
13E18
330
747D
100
AcDbEntity
  8
細線
 48
50.0
100
AcDbLine
 10
7067.195515348521
 20
4120.471098785372
 30
0.0
 11
7067.195515348521
 21
2030.471098785373
 31
0.0
  0
LINE
  5
13E19
330
747D
100
AcDbEntity
  8
細線
 48
50.0
100
AcDbLine
 10
6927.195515348522
 20
4120.471098785372
 30
0.0
 11
6927.195515348522
 21
2030.471098785373
 31
0.0
  0
LINE
  5
13E1A
330
747D
100
AcDbEntity
  8
細線
 48
50.0
100
AcDbLine
 10
6942.195515348521
 20
4120.471098785372
 30
0.0
 11
6942.195515348521
 21
2030.471098785373
 31
0.0
  0
LINE
  5
13E1B
330
747D
100
AcDbEntity
  8
細線
 48
50.0
100
AcDbLine
 10
7362.195515348524
 20
4120.471098785372
 30
0.0
 11
7362.195515348524
 21
2030.471098785373
 31
0.0
  0
LINE
  5
13E1C
330
747D
100
AcDbEntity
  8
細線
 48
50.0
100
AcDbLine
 10
7347.195515348525
 20
4120.471098785372
 30
0.0
 11
7347.195515348525
 21
2030.471098785373
 31
0.0
  0
LINE
  5
13E1D
330
747D
100
AcDbEntity
  8
細線
 48
50.0
100
AcDbLine
 10
7487.195515348524
 20
4120.471098785372
 30
0.0
 11
7487.195515348524
 21
2030.471098785373
 31
0.0
  0
LINE
  5
13E1E
330
747D
100
AcDbEntity
  8
細線
 48
50.0
100
AcDbLine
 10
7502.195515348525
 20
4120.471098785372
 30
0.0
 11
7502.195515348525
 21
2030.471098785373
 31
0.0
  0
LINE
  5
13E1F
330
747D
100
AcDbEntity
  8
細線
 48
50.0
100
AcDbLine
 10
7642.195515348525
 20
4120.471098785372
 30
0.0
 11
7642.195515348525
 21
2030.471098785373
 31
0.0
  0
LINE
  5
13E20
330
747D
100
AcDbEntity
  8
細線
 48
50.0
100
AcDbLine
 10
7627.195515348525
 20
4120.471098785372
 30
0.0
 11
7627.195515348525
 21
2030.471098785373
 31
0.0
  0
LINE
  5
13E21
330
747D
100
AcDbEntity
  8
細線
 48
50.0
100
AcDbLine
 10
8047.195515348525
 20
4120.471098785372
 30
0.0
 11
8047.195515348525
 21
2030.471098785373
 31
0.0
  0
LINE
  5
13E22
330
747D
100
AcDbEntity
  8
細線
 48
50.0
100
AcDbLine
 10
8062.195515348525
 20
4120.471098785372
 30
0.0
 11
8062.195515348525
 21
2030.471098785373
 31
0.0
  0
LINE
  5
13E23
330
747D
100
AcDbEntity
  8
細線
 48
50.0
100
AcDbLine
 10
7922.195515348525
 20
4120.471098785372
 30
0.0
 11
7922.195515348525
 21
2030.471098785373
 31
0.0
  0
LINE
  5
13E24
330
747D
100
AcDbEntity
  8
細線
 48
50.0
100
AcDbLine
 10
7907.195515348525
 20
4120.471098785372
 30
0.0
 11
7907.195515348525
 21
2030.471098785373
 31
0.0
  0
LINE
  5
13E25
330
747D
100
AcDbEntity
  8
細線
 48
50.0
100
AcDbLine
 10
7767.195515348525
 20
4120.471098785372
 30
0.0
 11
7767.195515348525
 21
2030.471098785373
 31
0.0
  0
LINE
  5
13E26
330
747D
100
AcDbEntity
  8
細線
 48
50.0
100
AcDbLine
 10
7782.195515348525
 20
4120.471098785372
 30
0.0
 11
7782.195515348525
 21
2030.471098785373
 31
0.0
  0
LINE
  5
13E27
330
747D
100
AcDbEntity
  8
細線
 48
50.0
100
AcDbLine
 10
8467.195515348528
 20
4120.471098785372
 30
0.0
 11
8467.195515348528
 21
2030.471098785373
 31
0.0
  0
LINE
  5
13E28
330
747D
100
AcDbEntity
  8
細線
 48
50.0
100
AcDbLine
 10
8482.195515348529
 20
4120.471098785372
 30
0.0
 11
8482.195515348529
 21
2030.471098785373
 31
0.0
  0
LINE
  5
13E29
330
747D
100
AcDbEntity
  8
細線
 48
50.0
100
AcDbLine
 10
8342.195515348528
 20
4120.471098785372
 30
0.0
 11
8342.195515348528
 21
2030.471098785373
 31
0.0
  0
LINE
  5
13E2A
330
747D
100
AcDbEntity
  8
細線
 48
50.0
100
AcDbLine
 10
8327.195515348529
 20
4120.471098785372
 30
0.0
 11
8327.195515348529
 21
2030.471098785373
 31
0.0
  0
LINE
  5
13E2B
330
747D
100
AcDbEntity
  8
細線
 48
50.0
100
AcDbLine
 10
8187.195515348529
 20
4120.471098785372
 30
0.0
 11
8187.195515348529
 21
2030.471098785373
 31
0.0
  0
LINE
  5
13E2C
330
747D
100
AcDbEntity
  8
細線
 48
50.0
100
AcDbLine
 10
8202.195515348529
 20
4120.471098785372
 30
0.0
 11
8202.195515348529
 21
2030.471098785373
 31
0.0
  0
LINE
  5
13E2D
330
747D
100
AcDbEntity
  8
部品1
 48
50.0
100
AcDbLine
 10
3775.695515348525
 20
4063.471098785374
 30
0.0
 11
3775.695515348525
 21
2030.471098785373
 31
0.0
  0
LINE
  5
13E2E
330
747D
100
AcDbEntity
  8
部品1
100
AcDbLine
 10
4426.695515348518
 20
4063.471098785374
 30
0.0
 11
4426.695515348525
 21
2037.971098785387
 31
0.0
  0
LINE
  5
13E2F
330
747D
100
AcDbEntity
  8
細線
100
AcDbLine
 10
3681.695515348526
 20
4063.471098785374
 30
0.0
 11
3681.695515348526
 21
2030.47109878538
 31
0.0
  0
LINE
  5
13E30
330
747D
100
AcDbEntity
  8
細線
100
AcDbLine
 10
3611.695515348525
 20
4063.471098785374
 30
0.0
 11
3611.695515348525
 21
2030.47109878538
 31
0.0
  0
LINE
  5
13E31
330
747D
100
AcDbEntity
  8
細線
100
AcDbLine
 10
3541.695515348525
 20
4063.471098785374
 30
0.0
 11
3541.695515348525
 21
2030.47109878538
 31
0.0
  0
LINE
  5
13E32
330
747D
100
AcDbEntity
  8
細線
100
AcDbLine
 10
3471.695515348525
 20
4063.471098785374
 30
0.0
 11
3471.695515348525
 21
2030.471098785376
 31
0.0
  0
LINE
  5
13E33
330
747D
100
AcDbEntity
  8
細線
100
AcDbLine
 10
3401.695515348525
 20
4063.471098785374
 30
0.0
 11
3401.695515348525
 21
2030.471098785376
 31
0.0
  0
LINE
  5
13E34
330
747D
100
AcDbEntity
  8
細線
100
AcDbLine
 10
3331.695515348525
 20
4063.471098785374
 30
0.0
 11
3331.695515348525
 21
2030.471098785376
 31
0.0
  0
LINE
  5
13E35
330
747D
100
AcDbEntity
  8
部品1
100
AcDbLine
 10
3147.695515348525
 20
4063.471098785374
 30
0.0
 11
3147.695515348525
 21
2030.47109878538
 31
0.0
  0
LINE
  5
13E36
330
747D
100
AcDbEntity
  8
部品1
100
AcDbLine
 10
3097.695515348525
 20
4063.471098785374
 30
0.0
 11
3097.695515348525
 21
2030.47109878538
 31
0.0
  0
LINE
  5
13E37
330
747D
100
AcDbEntity
  8
細線
100
AcDbLine
 10
3139.695515348525
 20
4063.471098785374
 30
0.0
 11
3139.695515348525
 21
2030.47109878538
 31
0.0
  0
LINE
  5
13E38
330
747D
100
AcDbEntity
  8
細線
100
AcDbLine
 10
3105.695515348525
 20
4063.471098785374
 30
0.0
 11
3105.695515348525
 21
2030.47109878538
 31
0.0
  0
LINE
  5
13E39
330
747D
100
AcDbEntity
  8
細線
100
AcDbLine
 10
4325.695515348525
 20
4063.471098785374
 30
0.0
 11
4325.695515348525
 21
2037.971098785387
 31
0.0
  0
LINE
  5
13E3A
330
747D
100
AcDbEntity
  8
細線
100
AcDbLine
 10
4255.695515348525
 20
4063.471098785374
 30
0.0
 11
4255.695515348525
 21
2037.971098785387
 31
0.0
  0
LINE
  5
13E3B
330
747D
100
AcDbEntity
  8
細線
100
AcDbLine
 10
4185.695515348525
 20
4063.471098785374
 30
0.0
 11
4185.695515348525
 21
2037.971098785387
 31
0.0
  0
LINE
  5
13E3C
330
747D
100
AcDbEntity
  8
細線
100
AcDbLine
 10
4115.695515348525
 20
4063.471098785374
 30
0.0
 11
4115.695515348525
 21
2037.971098785387
 31
0.0
  0
LINE
  5
13E3D
330
747D
100
AcDbEntity
  8
細線
100
AcDbLine
 10
4045.695515348525
 20
4063.471098785374
 30
0.0
 11
4045.695515348525
 21
2037.971098785387
 31
0.0
  0
LINE
  5
13E3E
330
747D
100
AcDbEntity
  8
細線
100
AcDbLine
 10
3975.695515348525
 20
4063.471098785374
 30
0.0
 11
3975.695515348525
 21
2037.971098785387
 31
0.0
  0
LINE
  5
13E3F
330
747D
100
AcDbEntity
  8
細線
100
AcDbLine
 10
4911.195515348525
 20
4063.471098785374
 30
0.0
 11
4911.195515348525
 21
2037.971098785391
 31
0.0
  0
LINE
  5
13E40
330
747D
100
AcDbEntity
  8
細線
100
AcDbLine
 10
4841.195515348525
 20
4063.471098785374
 30
0.0
 11
4841.195515348525
 21
2037.971098785391
 31
0.0
  0
LINE
  5
13E41
330
747D
100
AcDbEntity
  8
細線
100
AcDbLine
 10
4771.195515348525
 20
4063.471098785374
 30
0.0
 11
4771.195515348525
 21
2037.971098785391
 31
0.0
  0
LINE
  5
13E42
330
747D
100
AcDbEntity
  8
細線
100
AcDbLine
 10
4701.195515348525
 20
4063.471098785374
 30
0.0
 11
4701.195515348525
 21
2037.971098785391
 31
0.0
  0
LINE
  5
13E43
330
747D
100
AcDbEntity
  8
細線
100
AcDbLine
 10
4631.195515348525
 20
4063.471098785374
 30
0.0
 11
4631.195515348525
 21
2037.971098785391
 31
0.0
  0
LINE
  5
13E47
330
747D
100
AcDbEntity
  8
部品1
 48
50.0
100
AcDbLine
 10
3021.695515348525
 20
3111.971098785375
 30
0.0
 11
3074.695515348525
 21
3111.971098785375
 31
0.0
  0
LINE
  5
13E61
330
747D
100
AcDbEntity
  8
細線
100
AcDbLine
 10
3261.695515348525
 20
4063.471098785374
 30
0.0
 11
3261.695515348525
 21
2030.471098785376
 31
0.0
  0
LINE
  5
13E62
330
747D
100
AcDbEntity
  8
細線
100
AcDbLine
 10
3191.695515348525
 20
4063.471098785374
 30
0.0
 11
3191.695515348525
 21
2030.471098785376
 31
0.0
  0
LINE
  5
13E63
330
747D
100
AcDbEntity
  8
細線
100
AcDbLine
 10
3905.695515348526
 20
4063.471098785374
 30
0.0
 11
3905.695515348526
 21
2037.971098785387
 31
0.0
  0
LINE
  5
13E64
330
747D
100
AcDbEntity
  8
細線
100
AcDbLine
 10
3835.695515348525
 20
4063.471098785374
 30
0.0
 11
3835.695515348525
 21
2037.971098785387
 31
0.0
  0
LINE
  5
13E65
330
747D
100
AcDbEntity
  8
細線
100
AcDbLine
 10
4561.195515348525
 20
4063.471098785374
 30
0.0
 11
4561.195515348525
 21
2037.971098785391
 31
0.0
  0
LINE
  5
13E66
330
747D
100
AcDbEntity
  8
部品1
 48
50.0
100
AcDbLine
 10
4426.695515348525
 20
4063.471098785372
 30
0.0
 11
4426.695515348525
 21
2037.971098785372
 31
0.0
  0
LINE
  5
13E67
330
747D
100
AcDbEntity
  8
部品1
 48
50.0
100
AcDbLine
 10
5101.695515348525
 20
1880.471098785372
 30
0.0
 11
5101.695515348525
 21
4115.471098785373
 31
0.0
  0
LINE
  5
13E68
330
747D
100
AcDbEntity
  8
細線
 48
50.0
100
AcDbLine
 10
5071.695515348525
 20
1980.471098785372
 30
0.0
 11
5071.695515348525
 21
4072.971098785372
 31
0.0
  0
LINE
  5
13E69
330
747D
100
AcDbEntity
  8
部品1
 48
50.0
100
AcDbLine
 10
5062.695515348526
 20
2027.471098785373
 30
0.0
 11
5062.695515348526
 21
4063.471098785372
 31
0.0
  0
LINE
  5
13E6A
330
747D
100
AcDbEntity
  8
部品1
 48
50.0
100
AcDbLine
 10
3775.695515348525
 20
4063.471098785372
 30
0.0
 11
3775.695515348525
 21
2030.471098785373
 31
0.0
  0
LINE
  5
13E6B
330
747D
100
AcDbEntity
  8
部品1
 48
50.0
100
AcDbLine
 10
2977.695515348525
 20
2030.471098785373
 30
0.0
 11
3775.695515348525
 21
2030.471098785373
 31
0.0
  0
LINE
  5
13E6C
330
747D
100
AcDbEntity
  8
細線
 48
50.0
100
AcDbLine
 10
2977.695515348525
 20
2027.471098785373
 30
0.0
 11
5071.695515348525
 21
2027.471098785373
 31
0.0
  0
LINE
  5
13E6D
330
747D
100
AcDbEntity
  8
細線
 48
50.0
100
AcDbLine
 10
2977.695515348525
 20
2023.471098785373
 30
0.0
 11
5071.695515348525
 21
2023.471098785373
 31
0.0
  0
LINE
  5
13E6E
330
747D
100
AcDbEntity
  8
部品1
 48
50.0
100
AcDbLine
 10
2986.695515348525
 20
2030.471098785373
 30
0.0
 11
2986.695515348525
 21
2027.471098785373
 31
0.0
  0
LINE
  5
13E6F
330
747D
100
AcDbEntity
  8
細線
 48
50.0
100
AcDbLine
 10
2977.695515348525
 20
4072.971098785372
 30
0.0
 11
2977.695515348525
 21
1980.471098785372
 31
0.0
  0
LINE
  5
13E70
330
747D
100
AcDbEntity
  8
部品1
 48
50.0
100
AcDbLine
 10
2977.695515348525
 20
2030.471098785373
 30
0.0
 11
2977.695515348525
 21
4063.471098785372
 31
0.0
  0
LINE
  5
13E71
330
747D
100
AcDbEntity
  8
部品1
 48
50.0
100
AcDbLine
 10
2947.695515348525
 20
4115.471098785373
 30
0.0
 11
2947.695515348525
 21
1880.471098785372
 31
0.0
  0
LINE
  5
13E72
330
747D
100
AcDbEntity
  8
細線
 48
50.0
100
AcDbLine
 10
5049.695515348525
 20
2027.471098785373
 30
0.0
 11
5045.695515348525
 21
2037.971098785372
 31
0.0
  0
LINE
  5
13E73
330
747D
100
AcDbEntity
  8
細線
 48
50.0
100
AcDbLine
 10
3775.695515348525
 20
2037.971098785372
 30
0.0
 11
5045.695515348525
 21
2037.971098785372
 31
0.0
  0
LINE
  5
13E74
330
747D
100
AcDbEntity
  8
部品1
 48
50.0
100
AcDbLine
 10
5101.695515348525
 20
4071.471098785372
 30
0.0
 11
5071.695515348525
 21
4071.471098785372
 31
0.0
  0
LINE
  5
13E75
330
747D
100
AcDbEntity
  8
細線
 48
50.0
100
AcDbLine
 10
5101.695515348525
 20
4105.471098785372
 30
0.0
 11
2947.695515348525
 21
4105.471098785372
 31
0.0
  0
LINE
  5
13E76
330
747D
100
AcDbEntity
  8
部品1
 48
50.0
100
AcDbLine
 10
5101.695515348525
 20
4115.471098785373
 30
0.0
 11
2947.695515348525
 21
4115.471098785373
 31
0.0
  0
LINE
  5
13E77
330
747D
100
AcDbEntity
  8
細線
 48
50.0
100
AcDbLine
 10
5071.695515348525
 20
4072.971098785372
 30
0.0
 11
2977.695515348525
 21
4072.971098785372
 31
0.0
  0
LINE
  5
13E78
330
747D
100
AcDbEntity
  8
細線
 48
50.0
100
AcDbLine
 10
5071.695515348525
 20
4063.471098785372
 30
0.0
 11
2977.695515348525
 21
4063.471098785372
 31
0.0
  0
LINE
  5
13E79
330
747D
100
AcDbEntity
  8
部品1
 48
50.0
100
AcDbLine
 10
2977.695515348525
 20
4071.471098785372
 30
0.0
 11
2947.695515348525
 21
4071.471098785372
 31
0.0
  0
LINE
  5
13E7A
330
747D
100
AcDbEntity
  8
部品1
100
AcDbLine
 10
5074.695515348525
 20
4120.471098785374
 30
0.0
 11
5074.695515348525
 21
4115.471098785373
 31
0.0
  0
LINE
  5
13E7B
330
747D
100
AcDbEntity
  8
部品1
100
AcDbLine
 10
2974.695515348525
 20
4120.471098785374
 30
0.0
 11
2974.695515348525
 21
4115.471098785373
 31
0.0
  0
LINE
  5
13E7C
330
747D
100
AcDbEntity
  8
細線
100
AcDbLine
 10
6459.695515348518
 20
4179.971098785371
 30
0.0
 11
6459.695515348518
 21
4156.97109878537
 31
0.0
  0
LINE
  5
13E7D
330
747D
100
AcDbEntity
  8
細線
100
AcDbLine
 10
6533.695515348518
 20
4167.97109878537
 30
0.0
 11
6459.695515348518
 21
4167.97109878537
 31
0.0
  0
LINE
  5
13E7E
330
747D
100
AcDbEntity
  8
細線
100
AcDbLine
 10
6533.695515348518
 20
4161.971098785368
 30
0.0
 11
6459.695515348518
 21
4161.971098785371
 31
0.0
  0
LINE
  5
13E7F
330
747D
100
AcDbEntity
  8
細線
100
AcDbLine
 10
6533.695515348518
 20
4173.971098785369
 30
0.0
 11
6459.695515348518
 21
4173.97109878537
 31
0.0
  0
LINE
  5
13E80
330
747D
100
AcDbEntity
  8
細線
100
AcDbLine
 10
6385.695515348518
 20
4173.97109878537
 30
0.0
 11
6454.695515348518
 21
4173.97109878537
 31
0.0
  0
LINE
  5
13E81
330
747D
100
AcDbEntity
  8
細線
100
AcDbLine
 10
6385.695515348518
 20
4161.971098785371
 30
0.0
 11
6459.695515348518
 21
4161.971098785371
 31
0.0
  0
LINE
  5
13E82
330
747D
100
AcDbEntity
  8
細線
100
AcDbLine
 10
6385.695515348518
 20
4167.97109878537
 30
0.0
 11
6459.695515348518
 21
4167.97109878537
 31
0.0
  0
LINE
  5
13E83
330
747D
100
AcDbEntity
  8
細線
100
AcDbLine
 10
6385.695515348518
 20
4173.97109878537
 30
0.0
 11
6459.695515348518
 21
4173.97109878537
 31
0.0
  0
LINE
  5
13E84
330
747D
100
AcDbEntity
  8
部品1
 48
0.01
100
AcDbLine
 10
6547.695515348518
 20
4186.471098785371
 30
0.0
 11
6371.695515348518
 21
4186.471098785371
 31
0.0
  0
LINE
  5
13E85
330
747D
100
AcDbEntity
  8
部品1
 48
0.01
100
AcDbLine
 10
6369.695515348517
 20
4184.471098785371
 30
0.0
 11
6369.695515348517
 21
4152.97109878537
 31
0.0
  0
LINE
  5
13E86
330
747D
100
AcDbEntity
  8
部品1
 48
0.01
100
AcDbLine
 10
6371.695515348518
 20
4150.971098785371
 30
0.0
 11
6547.695515348518
 21
4150.971098785371
 31
0.0
  0
LINE
  5
13E87
330
747D
100
AcDbEntity
  8
部品1
 48
0.01
100
AcDbLine
 10
6549.695515348517
 20
4152.97109878537
 30
0.0
 11
6549.695515348517
 21
4184.471098785371
 31
0.0
  0
LINE
  5
13E88
330
747D
100
AcDbEntity
  8
細線
100
AcDbLine
 10
6385.695515348518
 20
4179.971098785371
 30
0.0
 11
6385.695515348518
 21
4156.97109878537
 31
0.0
  0
LINE
  5
13E89
330
747D
100
AcDbEntity
  8
細線
100
AcDbLine
 10
6533.695515348518
 20
4156.97109878537
 30
0.0
 11
6533.695515348518
 21
4179.971098785371
 31
0.0
  0
LINE
  5
13E8A
330
747D
100
AcDbEntity
  8
細線
100
AcDbLine
 10
6533.695515348518
 20
4179.971098785371
 30
0.0
 11
6459.695515348518
 21
4179.971098785371
 31
0.0
  0
LINE
  5
13E8B
330
747D
100
AcDbEntity
  8
細線
100
AcDbLine
 10
6385.695515348518
 20
4156.97109878537
 30
0.0
 11
6459.695515348518
 21
4156.97109878537
 31
0.0
  0
LINE
  5
13E8C
330
747D
100
AcDbEntity
  8
細線
100
AcDbLine
 10
6459.695515348518
 20
4179.971098785371
 30
0.0
 11
6385.695515348518
 21
4179.971098785371
 31
0.0
  0
LINE
  5
13E8D
330
747D
100
AcDbEntity
  8
細線
100
AcDbLine
 10
6459.695515348518
 20
4156.97109878537
 30
0.0
 11
6533.695515348518
 21
4156.97109878537
 31
0.0
  0
ARC
  5
13E8E
330
747D
100
AcDbEntity
  8
部品1
 48
0.01
100
AcDbCircle
 10
6371.695515348518
 20
4184.471098785371
 30
0.0
 40
2.0
100
AcDbArc
 50
90.0
 51
180.0
  0
ARC
  5
13E8F
330
747D
100
AcDbEntity
  8
部品1
 48
0.01
100
AcDbCircle
 10
6371.695515348518
 20
4152.97109878537
 30
0.0
 40
2.0
100
AcDbArc
 50
180.0
 51
270.0
  0
ARC
  5
13E90
330
747D
100
AcDbEntity
  8
部品1
 48
0.01
100
AcDbCircle
 10
6547.695515348518
 20
4184.471098785371
 30
0.0
 40
2.0
100
AcDbArc
 50
0.0
 51
90.0
  0
ARC
  5
13E91
330
747D
100
AcDbEntity
  8
部品1
 48
0.01
100
AcDbCircle
 10
6547.695515348518
 20
4152.97109878537
 30
0.0
 40
2.0
100
AcDbArc
 50
270.0
 51
0.0
  0
ARC
  5
13E92
330
747D
100
AcDbEntity
  8
部品1
 48
0.01
100
AcDbCircle
 10
7601.695515348533
 20
4152.971098785372
 30
0.0
 40
2.0
100
AcDbArc
 50
180.0
 51
270.0
  0
ARC
  5
13E93
330
747D
100
AcDbEntity
  8
部品1
 48
0.01
100
AcDbCircle
 10
7601.695515348533
 20
4184.471098785372
 30
0.0
 40
2.0
100
AcDbArc
 50
90.0
 51
180.0
  0
ARC
  5
13E94
330
747D
100
AcDbEntity
  8
部品1
 48
0.01
100
AcDbCircle
 10
7777.695515348533
 20
4152.971098785372
 30
0.0
 40
2.0
100
AcDbArc
 50
270.0
 51
0.0
  0
ARC
  5
13E95
330
747D
100
AcDbEntity
  8
部品1
 48
0.01
100
AcDbCircle
 10
7777.695515348533
 20
4184.471098785372
 30
0.0
 40
2.0
100
AcDbArc
 50
0.0
 51
90.0
  0
LINE
  5
13E96
330
747D
100
AcDbEntity
  8
細線
100
AcDbLine
 10
7689.695515348532
 20
4156.971098785372
 30
0.0
 11
7615.695515348533
 21
4156.971098785372
 31
0.0
  0
LINE
  5
13E97
330
747D
100
AcDbEntity
  8
細線
100
AcDbLine
 10
7689.695515348532
 20
4179.971098785371
 30
0.0
 11
7763.695515348533
 21
4179.971098785371
 31
0.0
  0
LINE
  5
13E98
330
747D
100
AcDbEntity
  8
細線
100
AcDbLine
 10
7763.695515348533
 20
4156.971098785372
 30
0.0
 11
7689.695515348532
 21
4156.971098785372
 31
0.0
  0
LINE
  5
13E99
330
747D
100
AcDbEntity
  8
細線
100
AcDbLine
 10
7615.695515348533
 20
4179.971098785371
 30
0.0
 11
7689.695515348532
 21
4179.971098785371
 31
0.0
  0
LINE
  5
13E9A
330
747D
100
AcDbEntity
  8
細線
100
AcDbLine
 10
7615.695515348533
 20
4156.971098785372
 30
0.0
 11
7615.695515348533
 21
4179.971098785371
 31
0.0
  0
LINE
  5
13E9B
330
747D
100
AcDbEntity
  8
細線
100
AcDbLine
 10
7763.695515348533
 20
4179.971098785371
 30
0.0
 11
7763.695515348533
 21
4156.971098785372
 31
0.0
  0
LINE
  5
13E9C
330
747D
100
AcDbEntity
  8
部品1
 48
0.01
100
AcDbLine
 10
7599.695515348533
 20
4152.971098785372
 30
0.0
 11
7599.695515348533
 21
4184.471098785372
 31
0.0
  0
LINE
  5
13E9D
330
747D
100
AcDbEntity
  8
部品1
 48
0.01
100
AcDbLine
 10
7777.695515348533
 20
4150.971098785372
 30
0.0
 11
7601.695515348533
 21
4150.971098785372
 31
0.0
  0
LINE
  5
13E9E
330
747D
100
AcDbEntity
  8
部品1
 48
0.01
100
AcDbLine
 10
7779.695515348532
 20
4184.471098785372
 30
0.0
 11
7779.695515348532
 21
4152.971098785372
 31
0.0
  0
LINE
  5
13E9F
330
747D
100
AcDbEntity
  8
部品1
 48
0.01
100
AcDbLine
 10
7601.695515348533
 20
4186.471098785372
 30
0.0
 11
7777.695515348533
 21
4186.471098785372
 31
0.0
  0
LINE
  5
13EA0
330
747D
100
AcDbEntity
  8
細線
100
AcDbLine
 10
7763.695515348533
 20
4173.971098785372
 30
0.0
 11
7689.695515348532
 21
4173.971098785372
 31
0.0
  0
LINE
  5
13EA1
330
747D
100
AcDbEntity
  8
細線
100
AcDbLine
 10
7763.695515348533
 20
4167.971098785372
 30
0.0
 11
7689.695515348532
 21
4167.971098785372
 31
0.0
  0
LINE
  5
13EA2
330
747D
100
AcDbEntity
  8
細線
100
AcDbLine
 10
7763.695515348533
 20
4161.971098785372
 30
0.0
 11
7689.695515348532
 21
4161.971098785372
 31
0.0
  0
LINE
  5
13EA3
330
747D
100
AcDbEntity
  8
細線
100
AcDbLine
 10
7763.695515348533
 20
4173.971098785372
 30
0.0
 11
7694.695515348532
 21
4173.971098785372
 31
0.0
  0
LINE
  5
13EA4
330
747D
100
AcDbEntity
  8
細線
100
AcDbLine
 10
7615.695515348533
 20
4173.97109878537
 30
0.0
 11
7689.695515348532
 21
4173.971098785372
 31
0.0
  0
LINE
  5
13EA5
330
747D
100
AcDbEntity
  8
細線
100
AcDbLine
 10
7615.695515348533
 20
4161.971098785371
 30
0.0
 11
7689.695515348532
 21
4161.971098785372
 31
0.0
  0
LINE
  5
13EA6
330
747D
100
AcDbEntity
  8
細線
100
AcDbLine
 10
7615.695515348533
 20
4167.971098785372
 30
0.0
 11
7689.695515348532
 21
4167.971098785372
 31
0.0
  0
LINE
  5
13EA7
330
747D
100
AcDbEntity
  8
細線
100
AcDbLine
 10
7689.695515348532
 20
4179.971098785371
 30
0.0
 11
7689.695515348532
 21
4156.971098785372
 31
0.0
  0
LINE
  5
13EA8
330
747D
100
AcDbEntity
  8
細線
100
AcDbLine
 10
4639.695515348532
 20
4179.971098785371
 30
0.0
 11
4639.695515348532
 21
4156.971098785372
 31
0.0
  0
LINE
  5
13EA9
330
747D
100
AcDbEntity
  8
細線
100
AcDbLine
 10
4565.695515348532
 20
4167.971098785372
 30
0.0
 11
4639.695515348532
 21
4167.971098785372
 31
0.0
  0
LINE
  5
13EAA
330
747D
100
AcDbEntity
  8
細線
100
AcDbLine
 10
4565.695515348532
 20
4161.971098785371
 30
0.0
 11
4639.695515348532
 21
4161.971098785372
 31
0.0
  0
LINE
  5
13EAB
330
747D
100
AcDbEntity
  8
細線
100
AcDbLine
 10
4565.695515348532
 20
4173.97109878537
 30
0.0
 11
4639.695515348532
 21
4173.971098785372
 31
0.0
  0
LINE
  5
13EAC
330
747D
100
AcDbEntity
  8
細線
100
AcDbLine
 10
4713.695515348532
 20
4173.971098785372
 30
0.0
 11
4644.695515348533
 21
4173.971098785372
 31
0.0
  0
LINE
  5
13EAD
330
747D
100
AcDbEntity
  8
細線
100
AcDbLine
 10
4713.695515348532
 20
4161.971098785372
 30
0.0
 11
4639.695515348532
 21
4161.971098785372
 31
0.0
  0
LINE
  5
13EAE
330
747D
100
AcDbEntity
  8
細線
100
AcDbLine
 10
4713.695515348532
 20
4167.971098785372
 30
0.0
 11
4639.695515348532
 21
4167.971098785372
 31
0.0
  0
LINE
  5
13EAF
330
747D
100
AcDbEntity
  8
細線
100
AcDbLine
 10
4713.695515348532
 20
4173.971098785372
 30
0.0
 11
4639.695515348532
 21
4173.971098785372
 31
0.0
  0
LINE
  5
13EB0
330
747D
100
AcDbEntity
  8
部品1
 48
0.01
100
AcDbLine
 10
4551.695515348533
 20
4186.471098785372
 30
0.0
 11
4727.695515348532
 21
4186.471098785372
 31
0.0
  0
LINE
  5
13EB1
330
747D
100
AcDbEntity
  8
部品1
 48
0.01
100
AcDbLine
 10
4729.695515348532
 20
4184.471098785372
 30
0.0
 11
4729.695515348532
 21
4152.971098785372
 31
0.0
  0
LINE
  5
13EB2
330
747D
100
AcDbEntity
  8
部品1
 48
0.01
100
AcDbLine
 10
4727.695515348532
 20
4150.971098785372
 30
0.0
 11
4551.695515348533
 21
4150.971098785372
 31
0.0
  0
LINE
  5
13EB3
330
747D
100
AcDbEntity
  8
部品1
 48
0.01
100
AcDbLine
 10
4549.695515348532
 20
4152.971098785372
 30
0.0
 11
4549.695515348532
 21
4184.471098785372
 31
0.0
  0
LINE
  5
13EB4
330
747D
100
AcDbEntity
  8
細線
100
AcDbLine
 10
4713.695515348532
 20
4179.971098785371
 30
0.0
 11
4713.695515348532
 21
4156.971098785372
 31
0.0
  0
LINE
  5
13EB5
330
747D
100
AcDbEntity
  8
細線
100
AcDbLine
 10
4565.695515348532
 20
4156.971098785372
 30
0.0
 11
4565.695515348532
 21
4179.971098785371
 31
0.0
  0
LINE
  5
13EB6
330
747D
100
AcDbEntity
  8
細線
100
AcDbLine
 10
4565.695515348532
 20
4179.971098785371
 30
0.0
 11
4639.695515348532
 21
4179.971098785371
 31
0.0
  0
LINE
  5
13EB7
330
747D
100
AcDbEntity
  8
細線
100
AcDbLine
 10
4713.695515348532
 20
4156.971098785372
 30
0.0
 11
4639.695515348532
 21
4156.971098785372
 31
0.0
  0
LINE
  5
13EB8
330
747D
100
AcDbEntity
  8
細線
100
AcDbLine
 10
4639.695515348532
 20
4179.971098785371
 30
0.0
 11
4713.695515348532
 21
4179.971098785371
 31
0.0
  0
LINE
  5
13EB9
330
747D
100
AcDbEntity
  8
細線
100
AcDbLine
 10
4639.695515348532
 20
4156.971098785372
 30
0.0
 11
4565.695515348532
 21
4156.971098785372
 31
0.0
  0
ARC
  5
13EBA
330
747D
100
AcDbEntity
  8
部品1
 48
0.01
100
AcDbCircle
 10
4727.695515348532
 20
4184.471098785372
 30
0.0
 40
2.0
100
AcDbArc
 50
0.0
 51
90.0
  0
ARC
  5
13EBB
330
747D
100
AcDbEntity
  8
部品1
 48
0.01
100
AcDbCircle
 10
4727.695515348532
 20
4152.971098785372
 30
0.0
 40
2.0
100
AcDbArc
 50
270.0
 51
0.0
  0
ARC
  5
13EBC
330
747D
100
AcDbEntity
  8
部品1
 48
0.01
100
AcDbCircle
 10
4551.695515348533
 20
4184.471098785372
 30
0.0
 40
2.0
100
AcDbArc
 50
90.0
 51
180.0
  0
ARC
  5
13EBD
330
747D
100
AcDbEntity
  8
部品1
 48
0.01
100
AcDbCircle
 10
4551.695515348533
 20
4152.971098785372
 30
0.0
 40
2.0
100
AcDbArc
 50
180.0
 51
270.0
  0
ARC
  5
13EBE
330
747D
100
AcDbEntity
  8
部品1
 48
0.01
100
AcDbCircle
 10
3497.695515348514
 20
4152.97109878537
 30
0.0
 40
2.0
100
AcDbArc
 50
270.0
 51
0.0
  0
ARC
  5
13EBF
330
747D
100
AcDbEntity
  8
部品1
 48
0.01
100
AcDbCircle
 10
3497.695515348514
 20
4184.471098785371
 30
0.0
 40
2.0
100
AcDbArc
 50
0.0
 51
90.0
  0
ARC
  5
13EC0
330
747D
100
AcDbEntity
  8
部品1
 48
0.01
100
AcDbCircle
 10
3321.695515348515
 20
4152.97109878537
 30
0.0
 40
2.0
100
AcDbArc
 50
180.0
 51
270.0
  0
ARC
  5
13EC1
330
747D
100
AcDbEntity
  8
部品1
 48
0.01
100
AcDbCircle
 10
3321.695515348515
 20
4184.471098785371
 30
0.0
 40
2.0
100
AcDbArc
 50
90.0
 51
180.0
  0
LINE
  5
13EC2
330
747D
100
AcDbEntity
  8
細線
100
AcDbLine
 10
3409.695515348514
 20
4156.97109878537
 30
0.0
 11
3483.695515348514
 21
4156.97109878537
 31
0.0
  0
LINE
  5
13EC3
330
747D
100
AcDbEntity
  8
細線
100
AcDbLine
 10
3409.695515348514
 20
4179.971098785371
 30
0.0
 11
3335.695515348515
 21
4179.971098785371
 31
0.0
  0
LINE
  5
13EC4
330
747D
100
AcDbEntity
  8
細線
100
AcDbLine
 10
3335.695515348515
 20
4156.97109878537
 30
0.0
 11
3409.695515348514
 21
4156.97109878537
 31
0.0
  0
LINE
  5
13EC5
330
747D
100
AcDbEntity
  8
細線
100
AcDbLine
 10
3483.695515348514
 20
4179.971098785371
 30
0.0
 11
3409.695515348514
 21
4179.971098785371
 31
0.0
  0
LINE
  5
13EC6
330
747D
100
AcDbEntity
  8
細線
100
AcDbLine
 10
3483.695515348514
 20
4156.97109878537
 30
0.0
 11
3483.695515348514
 21
4179.971098785371
 31
0.0
  0
LINE
  5
13EC7
330
747D
100
AcDbEntity
  8
細線
100
AcDbLine
 10
3335.695515348515
 20
4179.971098785371
 30
0.0
 11
3335.695515348515
 21
4156.97109878537
 31
0.0
  0
LINE
  5
13EC8
330
747D
100
AcDbEntity
  8
部品1
 48
0.01
100
AcDbLine
 10
3499.695515348514
 20
4152.97109878537
 30
0.0
 11
3499.695515348514
 21
4184.471098785371
 31
0.0
  0
LINE
  5
13EC9
330
747D
100
AcDbEntity
  8
部品1
 48
0.01
100
AcDbLine
 10
3321.695515348515
 20
4150.971098785371
 30
0.0
 11
3497.695515348514
 21
4150.971098785371
 31
0.0
  0
LINE
  5
13ECA
330
747D
100
AcDbEntity
  8
部品1
 48
0.01
100
AcDbLine
 10
3319.695515348514
 20
4184.471098785371
 30
0.0
 11
3319.695515348514
 21
4152.97109878537
 31
0.0
  0
LINE
  5
13ECB
330
747D
100
AcDbEntity
  8
部品1
 48
0.01
100
AcDbLine
 10
3497.695515348514
 20
4186.471098785371
 30
0.0
 11
3321.695515348515
 21
4186.471098785371
 31
0.0
  0
LINE
  5
13ECC
330
747D
100
AcDbEntity
  8
細線
100
AcDbLine
 10
3335.695515348515
 20
4173.97109878537
 30
0.0
 11
3409.695515348514
 21
4173.97109878537
 31
0.0
  0
LINE
  5
13ECD
330
747D
100
AcDbEntity
  8
細線
100
AcDbLine
 10
3335.695515348515
 20
4167.97109878537
 30
0.0
 11
3409.695515348514
 21
4167.97109878537
 31
0.0
  0
LINE
  5
13ECE
330
747D
100
AcDbEntity
  8
細線
100
AcDbLine
 10
3335.695515348515
 20
4161.971098785371
 30
0.0
 11
3409.695515348514
 21
4161.971098785371
 31
0.0
  0
LINE
  5
13ECF
330
747D
100
AcDbEntity
  8
細線
100
AcDbLine
 10
3335.695515348515
 20
4173.97109878537
 30
0.0
 11
3404.695515348514
 21
4173.97109878537
 31
0.0
  0
LINE
  5
13ED0
330
747D
100
AcDbEntity
  8
細線
100
AcDbLine
 10
3483.695515348514
 20
4173.971098785369
 30
0.0
 11
3409.695515348514
 21
4173.97109878537
 31
0.0
  0
LINE
  5
13ED1
330
747D
100
AcDbEntity
  8
細線
100
AcDbLine
 10
3483.695515348514
 20
4161.971098785368
 30
0.0
 11
3409.695515348514
 21
4161.971098785371
 31
0.0
  0
LINE
  5
13ED2
330
747D
100
AcDbEntity
  8
細線
100
AcDbLine
 10
3483.695515348514
 20
4167.97109878537
 30
0.0
 11
3409.695515348514
 21
4167.97109878537
 31
0.0
  0
LINE
  5
13ED3
330
747D
100
AcDbEntity
  8
細線
100
AcDbLine
 10
3409.695515348514
 20
4179.971098785371
 30
0.0
 11
3409.695515348514
 21
4156.97109878537
 31
0.0
  0
DIMENSION
  5
13ED4
330
747D
100
AcDbEntity
  8
寸法
 48
50.0
100
AcDbDimension
  2
*D16
 10
8599.695515348528
 20
4568.012684043615
 30
0.0
 11
8963.180796722765
 21
4568.012684043615
 31
0.0
 70
   160
 71
     5
 42
50.0
  3
INABA_S40G
100
AcDbAlignedDimension
 13
8649.695515348529
 23
4355.471098785375
 33
0.0
 14
8599.695515348528
 24
4355.471098785375
 34
0.0
100
AcDbRotatedDimension
  0
ARC
  5
13ED5
330
747D
100
AcDbEntity
  8
部品1
100
AcDbCircle
 10
8642.287094242096
 20
4348.471098785374
 30
0.0
 40
7.0
100
AcDbArc
 50
356.752657209659
 51
90.0
  0
ARC
  5
13ED6
330
747D
100
AcDbEntity
  8
部品1
100
AcDbCircle
 10
8629.071770781061
 20
4221.471098785376
 30
0.0
 40
7.0
100
AcDbArc
 50
270.0
 51
356.752657209659
  0
ARC
  5
13ED7
330
747D
100
AcDbEntity
  8
部品1
 48
50.0
100
AcDbCircle
 10
8647.44358099174
 20
4328.138097947061
 30
0.0
 40
0.7
100
AcDbArc
 50
277.6581272073639
 51
356.752657209607
  0
ARC
  5
13ED8
330
747D
100
AcDbEntity
  8
部品1
 48
50.0
100
AcDbCircle
 10
8639.207550466897
 20
4235.938097947057
 30
0.0
 40
0.7
100
AcDbArc
 50
277.6581272073639
 51
356.7526572097111
  0
ARC
  5
13ED9
330
747D
100
AcDbEntity
  8
部品1
 48
50.0
100
AcDbCircle
 10
8639.700619575458
 20
4232.271098785373
 30
0.0
 40
3.0
100
AcDbArc
 50
97.6581272073639
 51
176.752657209659
  0
ARC
  5
13EDA
330
747D
100
AcDbEntity
  8
部品1
 48
50.0
100
AcDbCircle
 10
8647.936650100303
 20
4324.471098785376
 30
0.0
 40
3.0
100
AcDbArc
 50
97.6581272073639
 51
176.752657209659
  0
LINE
  5
13EDB
330
747D
100
AcDbEntity
  8
部品1
100
AcDbLine
 10
8644.941467204118
 20
4324.641038240478
 30
0.0
 11
8639.906426476006
 21
4235.898445407534
 31
0.0
  0
LINE
  5
13EDC
330
747D
100
AcDbEntity
  8
部品1
100
AcDbLine
 10
8636.705436679273
 20
4232.441038240477
 30
0.0
 11
8636.06053087216
 21
4221.074573390136
 31
0.0
  0
LINE
  5
13EDD
330
747D
100
AcDbEntity
  8
細線
 48
50.0
100
AcDbLine
 10
8616.69551534853
 20
4355.471098785375
 30
0.0
 11
8616.69551534853
 21
4214.471098785374
 31
0.0
  0
LINE
  5
13EDE
330
747D
100
AcDbEntity
  8
部品1
100
AcDbLine
 10
8649.275854333195
 20
4348.074573390134
 30
0.0
 11
8648.142457000849
 21
4328.098445407535
 31
0.0
  0
LINE
  5
13EDF
330
747D
100
AcDbEntity
  8
部品1
 48
50.0
100
AcDbLine
 10
8629.071770781061
 20
4214.471098785376
 30
0.0
 11
2470.319259915989
 21
4214.471098785376
 31
0.0
  0
LINE
  5
13EE0
330
747D
100
AcDbEntity
  8
細線
 48
50.0
100
AcDbLine
 10
8639.300833807885
 20
4235.244341348643
 30
0.0
 11
2460.090196883772
 21
4235.24434134937
 31
0.0
  0
LINE
  5
13EE1
330
747D
100
AcDbEntity
  8
細線
 48
50.0
100
AcDbLine
 10
8647.536864332701
 20
4327.444341348644
 30
0.0
 11
2451.854166358939
 21
4327.444341349373
 31
0.0
  0
LINE
  5
13EE2
330
747D
100
AcDbEntity
  8
部品1
 48
50.0
100
AcDbLine
 10
8642.287094242096
 20
4355.471098785375
 30
0.0
 11
2457.103936454954
 21
4355.471098785375
 31
0.0
  0
LINE
  5
13EE3
330
747D
100
AcDbEntity
  8
部品1
100
AcDbLine
 10
2450.115176363855
 20
4348.074573390138
 30
0.0
 11
2451.248573696205
 21
4328.098445407537
 31
0.0
  0
LINE
  5
13EE4
330
747D
100
AcDbEntity
  8
部品1
100
AcDbLine
 10
2462.685594017781
 20
4232.441038240478
 30
0.0
 11
2463.33049982489
 21
4221.074573390138
 31
0.0
  0
LINE
  5
13EE5
330
747D
100
AcDbEntity
  8
部品1
100
AcDbLine
 10
2454.449563492934
 20
4324.641038240479
 30
0.0
 11
2459.484604221045
 21
4235.898445407536
 31
0.0
  0
ARC
  5
13EE6
330
747D
100
AcDbEntity
  8
部品1
 48
50.0
100
AcDbCircle
 10
2451.454380596748
 20
4324.471098785379
 30
0.0
 40
3.0
100
AcDbArc
 50
3.247342790340932
 51
82.34187279263609
  0
ARC
  5
13EE7
330
747D
100
AcDbEntity
  8
部品1
 48
50.0
100
AcDbCircle
 10
2459.690411121592
 20
4232.271098785375
 30
0.0
 40
3.0
100
AcDbArc
 50
3.247342790340932
 51
82.34187279263609
  0
ARC
  5
13EE8
330
747D
100
AcDbEntity
  8
部品1
 48
50.0
100
AcDbCircle
 10
2460.183480230153
 20
4235.938097947058
 30
0.0
 40
0.7
100
AcDbArc
 50
183.2473427902889
 51
262.3418727926361
  0
ARC
  5
13EE9
330
747D
100
AcDbEntity
  8
部品1
 48
50.0
100
AcDbCircle
 10
2451.947449705313
 20
4328.138097947063
 30
0.0
 40
0.7
100
AcDbArc
 50
183.2473427903929
 51
262.3418727926361
  0
ARC
  5
13EEA
330
747D
100
AcDbEntity
  8
部品1
100
AcDbCircle
 10
2470.319259915989
 20
4221.47109878538
 30
0.0
 40
7.0
100
AcDbArc
 50
183.247342790341
 51
270.0
  0
ARC
  5
13EEB
330
747D
100
AcDbEntity
  8
部品1
100
AcDbCircle
 10
2457.103936454954
 20
4348.471098785376
 30
0.0
 40
7.0
100
AcDbArc
 50
90.0
 51
183.247342790341
  0
LINE
  5
13EEC
330
747D
100
AcDbEntity
  8
細線
 48
50.0
100
AcDbLine
 10
2482.695515348525
 20
4355.471098785375
 30
0.0
 11
2482.695515348525
 21
4214.471098785376
 31
0.0
  0
DIMENSION
  5
13EED
330
747D
100
AcDbEntity
  8
寸法
 48
50.0
100
AcDbDimension
  2
*D3
 10
2499.695515348526
 20
4568.012684043615
 30
0.0
 11
5549.695515348525
 21
4568.012684043615
 31
0.0
 70
   160
  1
柱外寸法<>
 71
     5
 42
6100.000000000004
  3
INABA_S40G
100
AcDbAlignedDimension
 13
8599.695515348528
 23
4355.471098785375
 33
0.0
 14
2499.695515348526
 24
4355.47109878538
 34
0.0
100
AcDbRotatedDimension
  0
DIMENSION
  5
13EEE
330
747D
100
AcDbEntity
  8
寸法
 48
50.0
100
AcDbDimension
  2
*D4
 10
8649.695515348529
 20
4788.917984517365
 30
0.0
 11
5549.695515348525
 21
4788.917984517365
 31
0.0
 70
   160
 71
     5
 42
6200.000000000003
  3
INABA_S40G
100
AcDbAlignedDimension
 13
2449.695515348525
 23
4355.471098785378
 33
0.0
 14
8649.695515348529
 24
4355.471098785375
 34
0.0
100
AcDbRotatedDimension
  0
DIMENSION
  5
13EEF
330
747D
100
AcDbEntity
  8
寸法
 48
50.0
100
AcDbDimension
  2
*D5
 10
2449.695515348525
 20
4568.012684043618
 30
0.0
 11
2136.210233974278
 21
4568.012684043618
 31
0.0
 70
   160
 71
     5
 42
50.0
  3
INABA_S40G
100
AcDbAlignedDimension
 13
2499.695515348526
 23
4355.47109878538
 33
0.0
 14
2449.695515348525
 24
4355.471098785378
 34
0.0
100
AcDbRotatedDimension
1001
ACAD
1000
DSTYLE
1002
{
1002
}
  0
LINE
  5
13EF1
330
747D
100
AcDbEntity
  8
仕様書枠
 48
50.0
100
AcDbLine
 10
16307.19999999999
 20
8179.600000000005
 30
0.0
 11
13127.19999999999
 21
8179.600000000007
 31
0.0
  0
TEXT
  5
13EF3
330
747D
100
AcDbEntity
  8
文字
 62
     7
 48
50.0
100
AcDbText
 10
13583.11819016569
 20
9570.013745883729
 30
0.0
 40
100.0
  1
母屋中
  7
STYLE1
100
AcDbText
  0
TEXT
  5
13EF4
330
747D
100
AcDbEntity
  8
文字
 62
     7
 48
50.0
100
AcDbText
 10
13248.77747366447
 20
8720.013745883729
 30
0.0
 40
100.0
  1
15
  7
STYLE1
100
AcDbText
  0
TEXT
  5
13EF6
330
747D
100
AcDbEntity
  8
文字
 62
     7
 48
50.0
100
AcDbText
 10
13583.11819016569
 20
8550.013745883733
 30
0.0
 40
100.0
  1
扉
  7
STYLE1
100
AcDbText
  0
TEXT
  5
13EF7
330
747D
100
AcDbEntity
  8
文字
 62
     7
 48
50.0
100
AcDbText
 10
15022.63965474516
 20
8550.013745883729
 30
0.0
 40
100.0
  1
F12            0.8
  7
STYLE1
100
AcDbText
  0
TEXT
  5
13EF8
330
747D
100
AcDbEntity
  8
文字
 62
     7
 48
50.0
100
AcDbText
 10
13583.11819016568
 20
8720.013745883733
 30
0.0
 40
100.0
  1
正面パネル
  7
STYLE1
100
AcDbText
  0
TEXT
  5
13EF9
330
747D
100
AcDbEntity
  8
文字
 62
     7
 48
50.0
100
AcDbText
 10
15022.63965474515
 20
8720.013745883729
 30
0.0
 40
100.0
  1
F12            0.7
  7
STYLE1
100
AcDbText
  0
TEXT
  5
13EFA
330
747D
100
AcDbEntity
  8
文字
 62
     7
 48
50.0
100
AcDbText
 10
15022.63965474517
 20
10590.01374588372
 30
0.0
 40
100.0
  1
F12            1.0
  7
STYLE1
100
AcDbText
  0
TEXT
  5
13EFB
330
747D
100
AcDbEntity
  8
文字
 62
     7
 48
50.0
100
AcDbText
 10
15022.63965474516
 20
10930.01374588372
 30
0.0
 40
100.0
  1
F12            1.2
  7
STYLE1
100
AcDbText
  0
TEXT
  5
13EFC
330
747D
100
AcDbEntity
  8
文字
 62
     7
 48
50.0
100
AcDbText
 10
13248.77747366448
 20
8890.013745883729
 30
0.0
 40
100.0
  1
14
  7
STYLE1
100
AcDbText
  0
TEXT
  5
13EFD
330
747D
100
AcDbEntity
  8
文字
 62
     7
 48
50.0
100
AcDbText
 10
13583.11819016569
 20
10930.01374588373
 30
0.0
 40
100.0
  1
根太
  7
STYLE1
100
AcDbText
  0
TEXT
  5
13EFE
330
747D
100
AcDbEntity
  8
文字
 62
     7
 48
50.0
100
AcDbText
 10
13583.1181901657
 20
10590.01374588373
 30
0.0
 40
100.0
  1
床パネル
 41
0.9
  7
STYLE1
100
AcDbText
  0
LINE
  5
13EFF
330
747D
100
AcDbEntity
  8
仕様書枠
 48
50.0
100
AcDbLine
 10
16307.19999999999
 20
9029.6
 30
0.0
 11
13127.2
 21
9029.600000000003
 31
0.0
  0
LINE
  5
13F00
330
747D
100
AcDbEntity
  8
仕様書枠
 48
50.0
100
AcDbLine
 10
13127.2
 20
11409.6
 30
0.0
 11
13127.19999999999
 21
8009.600000000004
 31
0.0
  0
TEXT
  5
13F01
330
747D
100
AcDbEntity
  8
文字
 62
     7
 48
50.0
100
AcDbText
 10
13229.83081656555
 20
8040.013745883735
 30
0.0
 40
100.0
  1
Y10→溶融亜鉛-5％アルミニウム合金めっき鋼板(JIS G 3317)
 41
0.9
  7
STYLE1
100
AcDbText
  0
TEXT
  5
13F02
330
747D
100
AcDbEntity
  8
文字
 62
     7
 48
50.0
100
AcDbText
 10
13229.83081656555
 20
8210.013745883735
 30
0.0
 40
100.0
  1
F12→溶融亜鉛めっき鋼板(JIS G 3302)
  7
STYLE1
100
AcDbText
  0
LINE
  5
13F03
330
747D
100
AcDbEntity
  8
仕様書枠
 48
50.0
100
AcDbLine
 10
16307.19999999999
 20
8009.600000000006
 30
0.0
 11
13127.19999999999
 21
8009.600000000006
 31
0.0
  0
LINE
  5
13F04
330
747D
100
AcDbEntity
  8
仕様書枠
 48
50.0
100
AcDbLine
 10
16307.19999999999
 20
8349.600000000004
 30
0.0
 11
13127.19999999999
 21
8349.600000000007
 31
0.0
  0
TEXT
  5
13F05
330
747D
100
AcDbEntity
  8
文字
 62
     7
 48
50.0
100
AcDbText
 10
15022.63965474515
 20
9400.013745883725
 30
0.0
 40
100.0
  1
F12            0.7
  7
STYLE1
100
AcDbText
  0
TEXT
  5
13F06
330
747D
100
AcDbEntity
  8
文字
 62
     7
 48
50.0
100
AcDbText
 10
15022.63965474517
 20
9740.013745883725
 30
0.0
 40
100.0
  1
Y10            0.5
  7
STYLE1
100
AcDbText
  0
TEXT
  5
13F07
330
747D
100
AcDbEntity
  8
文字
 62
     7
 48
50.0
100
AcDbText
 10
15022.63965474516
 20
10080.01374588372
 30
0.0
 40
100.0
  1
Y10            0.7
  7
STYLE1
100
AcDbText
  0
TEXT
  5
13F08
330
747D
100
AcDbEntity
  8
文字
 62
     7
 48
50.0
100
AcDbText
 10
15022.63965474516
 20
10250.01374588372
 30
0.0
 40
100.0
  1
Y10            0.7
  7
STYLE1
100
AcDbText
  0
TEXT
  5
13F09
330
747D
100
AcDbEntity
  8
文字
 62
     7
 48
50.0
100
AcDbText
 10
15022.63965474516
 20
10420.01374588372
 30
0.0
 40
100.0
  1
Y10            1.0
  7
STYLE1
100
AcDbText
  0
TEXT
  5
13F0A
330
747D
100
AcDbEntity
  8
文字
 62
     7
 48
50.0
100
AcDbText
 10
15022.63965474518
 20
10760.01374588372
 30
0.0
 40
100.0
  1
F12            1.0
  7
STYLE1
100
AcDbText
  0
TEXT
  5
13F0B
330
747D
100
AcDbEntity
  8
文字
 62
     7
 48
50.0
100
AcDbText
 10
15022.63965474517
 20
11100.01374588372
 30
0.0
 40
100.0
  1
F12            1.2
  7
STYLE1
100
AcDbText
  0
TEXT
  5
13F0C
330
747D
100
AcDbEntity
  8
文字
 62
     7
 48
50.0
100
AcDbText
 10
13248.77747366448
 20
9230.013745883729
 30
0.0
 40
100.0
  1
12
  7
STYLE1
100
AcDbText
  0
TEXT
  5
13F0D
330
747D
100
AcDbEntity
  8
文字
 62
     7
 48
50.0
100
AcDbText
 10
13248.77747366448
 20
9060.013745883729
 30
0.0
 40
100.0
  1
13
  7
STYLE1
100
AcDbText
  0
LINE
  5
13F0E
330
747D
100
AcDbEntity
  8
仕様書枠
 48
50.0
100
AcDbLine
 10
16307.19999999999
 20
8859.6
 30
0.0
 11
13127.2
 21
8859.600000000005
 31
0.0
  0
LINE
  5
13F0F
330
747D
100
AcDbEntity
  8
仕様書枠
 48
50.0
100
AcDbLine
 10
16307.19999999999
 20
9199.600000000001
 30
0.0
 11
13127.2
 21
9199.600000000001
 31
0.0
  0
TEXT
  5
13F10
330
747D
100
AcDbEntity
  8
文字
 62
     7
 48
50.0
100
AcDbText
 10
13248.77747366447
 20
9400.013745883729
 30
0.0
 40
100.0
  1
11
  7
STYLE1
100
AcDbText
  0
LINE
  5
13F11
330
747D
100
AcDbEntity
  8
仕様書枠
 48
50.0
100
AcDbLine
 10
16307.2
 20
9879.600000000001
 30
0.0
 11
13127.2
 21
9879.600000000001
 31
0.0
  0
LINE
  5
13F12
330
747D
100
AcDbEntity
  8
仕様書枠
 48
50.0
100
AcDbLine
 10
16307.2
 20
10219.6
 30
0.0
 11
13127.2
 21
10219.6
 31
0.0
  0
LINE
  5
13F13
330
747D
100
AcDbEntity
  8
仕様書枠
 48
50.0
100
AcDbLine
 10
16307.19999999999
 20
9539.6
 30
0.0
 11
13127.2
 21
9539.6
 31
0.0
  0
LINE
  5
13F14
330
747D
100
AcDbEntity
  8
仕様書枠
 48
50.0
100
AcDbLine
 10
16307.19999999999
 20
9369.600000000001
 30
0.0
 11
13127.2
 21
9369.600000000001
 31
0.0
  0
LINE
  5
13F15
330
747D
100
AcDbEntity
  8
仕様書枠
 48
50.0
100
AcDbLine
 10
16307.19999999999
 20
9709.600000000001
 30
0.0
 11
13127.2
 21
9709.600000000001
 31
0.0
  0
TEXT
  5
13F16
330
747D
100
AcDbEntity
  8
文字
 62
     7
 48
50.0
100
AcDbText
 10
13271.19032244792
 20
10250.01374588373
 30
0.0
 40
100.0
  1
6
  7
STYLE1
100
AcDbText
  0
TEXT
  5
13F17
330
747D
100
AcDbEntity
  8
文字
 62
     7
 48
50.0
100
AcDbText
 10
13271.19032244792
 20
10080.01374588373
 30
0.0
 40
100.0
  1
7
  7
STYLE1
100
AcDbText
  0
TEXT
  5
13F18
330
747D
100
AcDbEntity
  8
文字
 62
     7
 48
50.0
100
AcDbText
 10
13271.19032244792
 20
9740.013745883729
 30
0.0
 40
100.0
  1
9
  7
STYLE1
100
AcDbText
  0
TEXT
  5
13F19
330
747D
100
AcDbEntity
  8
文字
 62
     7
 48
50.0
100
AcDbText
 10
13271.19032244792
 20
9910.01374588373
 30
0.0
 40
100.0
  1
8
  7
STYLE1
100
AcDbText
  0
TEXT
  5
13F1A
330
747D
100
AcDbEntity
  8
文字
 62
     7
 48
50.0
100
AcDbText
 10
13583.11819016569
 20
10080.01374588373
 30
0.0
 40
100.0
  1
鼻隠シ前後
  7
STYLE1
100
AcDbText
  0
TEXT
  5
13F1B
330
747D
100
AcDbEntity
  8
文字
 62
     7
 48
50.0
100
AcDbText
 10
13583.11819016569
 20
9740.013745883729
 30
0.0
 40
100.0
  1
屋根パネル
  7
STYLE1
100
AcDbText
  0
TEXT
  5
13F1C
330
747D
100
AcDbEntity
  8
文字
 62
     7
 48
50.0
100
AcDbText
 10
13583.11819016568
 20
9400.013745883729
 30
0.0
 40
100.0
  1
壁パネル
  7
STYLE1
100
AcDbText
  0
TEXT
  5
13F1D
330
747D
100
AcDbEntity
  8
文字
 62
     7
 48
50.0
100
AcDbText
 10
13248.77747366447
 20
9570.013745883729
 30
0.0
 40
100.0
  1
10
  7
STYLE1
100
AcDbText
  0
TEXT
  5
13F1E
330
747D
100
AcDbEntity
  8
文字
 62
     7
 48
50.0
100
AcDbText
 10
13583.11819016569
 20
10250.01374588373
 30
0.0
 40
100.0
  1
妻板左右
  7
STYLE1
100
AcDbText
  0
TEXT
  5
13F1F
330
747D
100
AcDbEntity
  8
文字
 62
     7
 48
50.0
100
AcDbText
 10
13271.19032244792
 20
10420.01374588373
 30
0.0
 40
100.0
  1
5
  7
STYLE1
100
AcDbText
  0
TEXT
  5
13F20
330
747D
100
AcDbEntity
  8
文字
 62
     7
 48
50.0
100
AcDbText
 10
13583.11819016569
 20
10420.01374588373
 30
0.0
 40
100.0
  1
桁前後
  7
STYLE1
100
AcDbText
  0
TEXT
  5
13F21
330
747D
100
AcDbEntity
  8
文字
 62
     7
 48
50.0
100
AcDbText
 10
13583.1181901657
 20
10760.01374588373
 30
0.0
 40
100.0
  1
柱
  7
STYLE1
100
AcDbText
  0
TEXT
  5
13F22
330
747D
100
AcDbEntity
  8
文字
 62
     7
 48
50.0
100
AcDbText
 10
13583.11819016569
 20
11100.01374588373
 30
0.0
 40
100.0
  1
土台枠
  7
STYLE1
100
AcDbText
  0
TEXT
  5
13F23
330
747D
100
AcDbEntity
  8
文字
 62
     7
 48
50.0
100
AcDbText
 10
14859.79774614482
 20
11270.01374588373
 30
0.0
 40
100.0
  1
材料（材質）　　単位mm
  7
STYLE1
100
AcDbText
  0
TEXT
  5
13F24
330
747D
100
AcDbEntity
  8
文字
 62
     7
 48
50.0
100
AcDbText
 10
13732.03840939434
 20
11270.01374588373
 30
0.0
 40
100.0
  1
部　　品　　名
  7
STYLE1
100
AcDbText
  0
TEXT
  5
13F25
330
747D
100
AcDbEntity
  8
文字
 62
     7
 48
50.0
100
AcDbText
 10
13271.19032244792
 20
10760.01374588373
 30
0.0
 40
100.0
  1
3
  7
STYLE1
100
AcDbText
  0
TEXT
  5
13F26
330
747D
100
AcDbEntity
  8
文字
 62
     7
 48
50.0
100
AcDbText
 10
13271.19032244792
 20
10590.01374588373
 30
0.0
 40
100.0
  1
4
  7
STYLE1
100
AcDbText
  0
TEXT
  5
13F27
330
747D
100
AcDbEntity
  8
文字
 62
     7
 48
50.0
100
AcDbText
 10
13271.19032244792
 20
10930.01374588373
 30
0.0
 40
100.0
  1
2
  7
STYLE1
100
AcDbText
  0
TEXT
  5
13F28
330
747D
100
AcDbEntity
  8
文字
 62
     7
 48
50.0
100
AcDbText
 10
13271.19032244792
 20
11100.01374588373
 30
0.0
 40
100.0
  1
1
  7
STYLE1
100
AcDbText
  0
TEXT
  5
13F29
330
747D
100
AcDbEntity
  8
文字
 62
     7
 48
50.0
100
AcDbText
 10
13197.42518560407
 20
11270.01374588373
 30
0.0
 40
100.0
  1
品番
  7
STYLE1
100
AcDbText
  0
LINE
  5
13F2A
330
747D
100
AcDbEntity
  8
仕様書枠
 48
50.0
100
AcDbLine
 10
16307.19999999999
 20
10729.6
 30
0.0
 11
13127.2
 21
10729.6
 31
0.0
  0
LINE
  5
13F2B
330
747D
100
AcDbEntity
  8
仕様書枠
 48
50.0
100
AcDbLine
 10
16307.19999999999
 20
10389.6
 30
0.0
 11
13127.2
 21
10389.6
 31
0.0
  0
LINE
  5
13F2C
330
747D
100
AcDbEntity
  8
仕様書枠
 48
50.0
100
AcDbLine
 10
16307.19999999999
 20
10559.6
 30
0.0
 11
13127.2
 21
10559.6
 31
0.0
  0
LINE
  5
13F2D
330
747D
100
AcDbEntity
  8
仕様書枠
 48
50.0
100
AcDbLine
 10
16307.2
 20
11069.6
 30
0.0
 11
13127.2
 21
11069.6
 31
0.0
  0
LINE
  5
13F2E
330
747D
100
AcDbEntity
  8
仕様書枠
 48
50.0
100
AcDbLine
 10
16307.2
 20
10899.6
 30
0.0
 11
13127.2
 21
10899.6
 31
0.0
  0
LINE
  5
13F2F
330
747D
100
AcDbEntity
  8
仕様書枠
 48
50.0
100
AcDbLine
 10
16307.2
 20
11239.6
 30
0.0
 11
13127.2
 21
11239.6
 31
0.0
  0
LINE
  5
13F30
330
747D
100
AcDbEntity
  8
仕様書枠
 48
50.0
100
AcDbLine
 10
13490.2
 20
11409.6
 30
0.0
 11
13490.20000000001
 21
8349.600000000007
 31
0.0
  0
LINE
  5
13F31
330
747D
100
AcDbEntity
  8
仕様書枠
 48
50.0
100
AcDbLine
 10
14785.2
 20
11409.59999999999
 30
0.0
 11
14785.2
 21
8349.600000000004
 31
0.0
  0
LINE
  5
13F32
330
747D
100
AcDbEntity
  8
仕様書枠
 48
50.0
100
AcDbLine
 10
16307.19999999998
 20
8009.600000000006
 30
0.0
 11
16307.2
 21
11409.6
 31
0.0
  0
LINE
  5
13F33
330
747D
100
AcDbEntity
  8
仕様書枠
 48
50.0
100
AcDbLine
 10
16307.2
 20
11409.6
 30
0.0
 11
13127.2
 21
11409.6
 31
0.0
  0
LINE
  5
13F34
330
747D
100
AcDbEntity
  8
仕様書枠
 48
50.0
100
AcDbLine
 10
16307.2
 20
10049.6
 30
0.0
 11
13127.2
 21
10049.6
 31
0.0
  0
TEXT
  5
13F35
330
747D
100
AcDbEntity
  8
文字
 62
     7
 48
50.0
100
AcDbText
 10
15022.63965474515
 20
8380.013745883726
 30
0.0
 40
100.0
  1
F12            2.3
  7
STYLE1
100
AcDbText
  0
TEXT
  5
13F36
330
747D
100
AcDbEntity
  8
文字
 62
     7
 48
50.0
100
AcDbText
 10
13583.11819016569
 20
8380.013745883728
 30
0.0
 40
100.0
  1
アンカープレート
  7
STYLE1
100
AcDbText
  0
LINE
  5
13F37
330
747D
100
AcDbEntity
  8
仕様書枠
 48
50.0
100
AcDbLine
 10
16307.19999999999
 20
8519.600000000004
 30
0.0
 11
13127.2
 21
8519.600000000009
 31
0.0
  0
LINE
  5
13F38
330
747D
100
AcDbEntity
  8
仕様書枠
 48
50.0
100
AcDbLine
 10
16307.19999999999
 20
8689.600000000003
 30
0.0
 11
13127.2
 21
8689.600000000007
 31
0.0
  0
TEXT
  5
13F39
330
747D
100
AcDbEntity
  8
文字
 62
     7
 48
50.0
100
AcDbText
 10
13583.11819016569
 20
9230.013745883729
 30
0.0
 40
100.0
  1
壁面扉鴨居
  7
STYLE1
100
AcDbText
  0
TEXT
  5
13F3A
330
747D
100
AcDbEntity
  8
文字
 62
     7
 48
50.0
100
AcDbText
 10
13583.11819016569
 20
9060.013745883733
 30
0.0
 40
100.0
  1
壁面扉敷居
  7
STYLE1
100
AcDbText
  0
TEXT
  5
13F3B
330
747D
100
AcDbEntity
  8
文字
 62
     7
 48
50.0
100
AcDbText
 10
15022.63965474515
 20
9230.013745883729
 30
0.0
 40
100.0
  1
F12            0.7
  7
STYLE1
100
AcDbText
  0
TEXT
  5
13F3C
330
747D
100
AcDbEntity
  8
文字
 62
     7
 48
50.0
100
AcDbText
 10
15022.63965474517
 20
9060.013745883725
 30
0.0
 40
100.0
  1
F12            1.0
  7
STYLE1
100
AcDbText
  0
TEXT
  5
13F3D
330
747D
100
AcDbEntity
  8
文字
 62
     7
 48
50.0
100
AcDbText
 10
13583.11819016569
 20
8890.013745883733
 30
0.0
 40
100.0
  1
壁面扉枠左右
  7
STYLE1
100
AcDbText
  0
TEXT
  5
13F3E
330
747D
100
AcDbEntity
  8
文字
 62
     7
 48
50.0
100
AcDbText
 10
15022.63965474517
 20
8890.013745883726
 30
0.0
 40
100.0
  1
F12            1.0
  7
STYLE1
100
AcDbText
  0
TEXT
  5
13F3F
330
747D
100
AcDbEntity
  8
文字
 62
     7
 48
50.0
100
AcDbText
 10
13248.77747366447
 20
8550.013745883729
 30
0.0
 40
100.0
  1
16
  7
STYLE1
100
AcDbText
  0
TEXT
  5
13F40
330
747D
100
AcDbEntity
  8
文字
 62
     7
 48
50.0
100
AcDbText
 10
13248.77747366447
 20
8380.013745883728
 30
0.0
 40
100.0
  1
17
  7
STYLE1
100
AcDbText
  0
TEXT
  5
13F41
330
747D
100
AcDbEntity
  8
文字
 62
     7
 48
50.0
100
AcDbText
 10
13583.1181901657
 20
9910.01374588373
 30
0.0
 40
100.0
  1
梁中
 41
0.9
  7
STYLE1
100
AcDbText
  0
TEXT
  5
13F42
330
747D
100
AcDbEntity
  8
文字
 62
     7
 48
50.0
100
AcDbText
 10
15022.63965474517
 20
9910.01374588373
 30
0.0
 40
100.0
  1
F12,Y10      1.2+1.6
  7
STYLE1
100
AcDbText
  0
TEXT
  5
13F43
330
747D
100
AcDbEntity
  8
文字
 62
     7
 48
50.0
100
AcDbText
 10
13209.4053442172
 20
228.5435242569015
 30
0.0
 40
100.0
  1
○有効開口寸法 ： 1266×2025(mm)
  7
STYLE2
100
AcDbText
  0
TEXT
  5
13F44
330
747D
100
AcDbEntity
  8
文字
 62
     7
 48
50.0
100
AcDbText
 10
14505.34213575793
 20
483.8967129911411
 30
0.0
 40
160.0
  1
ＮＸＮ－２１５Ｈ
  7
STYLE2
100
AcDbText
  0
LWPOLYLINE
  5
13F45
330
747D
100
AcDbEntity
  8
部品1
100
AcDbPolyline
 90
        4
 70
     1
 43
0.0
 10
5167.960182234303
 20
1648.583234033637
 10
5167.960182234303
 20
1408.690912488105
 10
5931.430848462747
 20
1408.690912488105
 10
5931.430848462747
 20
1648.583234033637
  0
TEXT
  5
13F46
330
747D
100
AcDbEntity
  8
部品1
100
AcDbText
 10
5258.485585972259
 20
1455.689704815113
 30
0.0
 40
135.0
  1
正面図
  7
STYLE2
100
AcDbText
  0
LINE
  5
13F4C
330
747D
100
AcDbEntity
  8
細線
 48
50.0
100
AcDbLine
 10
4393.695515348524
 20
6983.092225683691
 30
0.0
 11
4408.695515348525
 21
6983.092225683691
 31
0.0
  0
LINE
  5
13F4D
330
747D
100
AcDbEntity
  8
細線
 48
50.0
100
AcDbLine
 10
4408.695515348525
 20
6983.092225683691
 30
0.0
 11
4408.695515348525
 21
6978.092225683692
 31
0.0
  0
LINE
  5
13F54
330
747D
100
AcDbEntity
  8
細線
100
AcDbLine
 10
4656.195515348525
 20
6982.392225683691
 30
0.0
 11
4676.195515348525
 21
6982.392225683691
 31
0.0
  0
LINE
  5
13FFA
330
747D
100
AcDbEntity
  8
部品1
 48
50.0
100
AcDbLine
 10
2974.695515348525
 20
6985.092225683691
 30
0.0
 11
5074.695515348525
 21
6985.092225683691
 31
0.0
  0
LINE
  5
13FFB
330
747D
100
AcDbEntity
  8
部品1
100
AcDbLine
 10
5074.695515348525
 20
6957.092225683691
 30
0.0
 11
5074.695515348525
 21
6985.092225683695
 31
0.0
  0
LINE
  5
13FFC
330
747D
100
AcDbEntity
  8
部品1
100
AcDbLine
 10
5074.695515348525
 20
6957.092225683691
 30
0.0
 11
5074.695515348525
 21
6985.092225683695
 31
0.0
  0
LINE
  5
13FFD
330
747D
100
AcDbEntity
  8
部品1
100
AcDbLine
 10
2974.695515348525
 20
6957.092225683701
 30
0.0
 11
2974.695515348525
 21
6985.092225683702
 31
0.0
  0
LINE
  5
14000
330
747D
100
AcDbEntity
  8
部品1
 48
50.0
100
AcDbLine
 10
2974.695515348525
 20
6985.092225683688
 30
0.0
 11
5074.695515348525
 21
6985.092225683691
 31
0.0
  0
LINE
  5
14001
330
747D
100
AcDbEntity
  8
部品1
100
AcDbLine
 10
5521.695517592096
 20
10399.09222926086
 30
0.0
 11
5549.695517592096
 21
10399.09222926086
 31
0.0
  0
LINE
  5
14002
330
747D
100
AcDbEntity
  8
部品1
100
AcDbLine
 10
5577.695517592096
 20
10399.09222926086
 30
0.0
 11
5577.695517592096
 21
10427.09222926086
 31
0.0
  0
LINE
  5
14003
330
747D
100
AcDbEntity
  8
部品1
100
AcDbLine
 10
5521.695517592096
 20
10399.09222926086
 30
0.0
 11
5521.695517592096
 21
10427.09222926086
 31
0.0
  0
LINE
  5
14004
330
747D
100
AcDbEntity
  8
部品1
 48
50.0
100
AcDbLine
 10
5549.695517592096
 20
10399.09222926086
 30
0.0
 11
5521.695517592096
 21
10427.09222926086
 31
0.0
  0
LINE
  5
14005
330
747D
100
AcDbEntity
  8
部品1
100
AcDbLine
 10
8571.695515348526
 20
10372.0922256837
 30
0.0
 11
8599.695515348525
 21
10372.0922256837
 31
0.0
  0
LINE
  5
14006
330
747D
100
AcDbEntity
  8
部品1
100
AcDbLine
 10
8544.695515348525
 20
10427.09222568369
 30
0.0
 11
8544.695515348525
 21
10399.09222568369
 31
0.0
  0
LINE
  5
14007
330
747D
100
AcDbEntity
  8
部品1
 48
50.0
100
AcDbLine
 10
8571.695515348526
 20
10399.09222568369
 30
0.0
 11
8544.695515348525
 21
10372.0922256837
 31
0.0
  0
LINE
  5
14008
330
747D
100
AcDbEntity
  8
部品1
100
AcDbLine
 10
8124.695515348525
 20
10427.09222568369
 30
0.0
 11
8124.695515348525
 21
10399.09222568369
 31
0.0
  0
LINE
  5
14009
330
747D
100
AcDbEntity
  8
部品1
100
AcDbLine
 10
8124.695515348525
 20
10399.09222568369
 30
0.0
 11
8571.695515348526
 21
10399.09222568369
 31
0.0
  0
LINE
  5
1400A
330
747D
100
AcDbEntity
  8
破線
  6
HIDDEN
 48
10.0
100
AcDbLine
 10
8521.195515348525
 20
10348.5922256837
 30
0.0
 11
7827.195515348525
 21
10348.59222568369
 31
0.0
  0
LINE
  5
1400B
330
747D
100
AcDbEntity
  8
部品1
100
AcDbLine
 10
7704.695515348525
 20
10427.09222568369
 30
0.0
 11
7704.695515348525
 21
10399.09222568369
 31
0.0
  0
LINE
  5
1400C
330
747D
100
AcDbEntity
  8
部品1
100
AcDbLine
 10
7284.695515348525
 20
10427.09222568369
 30
0.0
 11
7284.695515348525
 21
10399.09222568369
 31
0.0
  0
LINE
  5
1400D
330
747D
100
AcDbEntity
  8
部品1
100
AcDbLine
 10
6864.695515348525
 20
10427.09222568369
 30
0.0
 11
6864.695515348525
 21
10399.09222568369
 31
0.0
  0
LINE
  5
1400E
330
747D
100
AcDbEntity
  8
部品1
100
AcDbLine
 10
6444.695515348525
 20
10427.09222568369
 30
0.0
 11
6444.695515348525
 21
10399.09222568369
 31
0.0
  0
LINE
  5
1400F
330
747D
100
AcDbEntity
  8
破線
  6
HIDDEN
 48
10.0
100
AcDbLine
 10
7049.695515348524
 20
10348.59222568369
 30
0.0
 11
6372.195515348526
 21
10348.59222568369
 31
0.0
  0
LINE
  5
14010
330
747D
100
AcDbEntity
  8
部品1
100
AcDbLine
 10
7087.195515348525
 20
10399.09222568369
 30
0.0
 11
8322.195515348525
 21
10399.09222568369
 31
0.0
  0
LINE
  5
14011
330
747D
100
AcDbEntity
  8
破線
  6
HIDDEN
 48
10.0
100
AcDbLine
 10
7777.195515348525
 20
10348.59222568369
 30
0.0
 11
7099.695515348525
 21
10348.59222568369
 31
0.0
  0
LINE
  5
14012
330
747D
100
AcDbEntity
  8
部品1
100
AcDbLine
 10
6024.695515348525
 20
10427.09222568369
 30
0.0
 11
6024.695515348525
 21
10399.09222568369
 31
0.0
  0
LINE
  5
14013
330
747D
100
AcDbEntity
  8
部品1
100
AcDbLine
 10
5604.695515348525
 20
10427.09222568369
 30
0.0
 11
5604.695515348525
 21
10399.09222568369
 31
0.0
  0
LINE
  5
14014
330
747D
100
AcDbEntity
  8
部品1
100
AcDbLine
 10
5604.695515348525
 20
10427.09222568369
 30
0.0
 11
5604.695515348525
 21
10399.09222568369
 31
0.0
  0
LINE
  5
14015
330
747D
100
AcDbEntity
  8
部品1
100
AcDbLine
 10
5521.695515348525
 20
10372.0922256837
 30
0.0
 11
5549.695515348525
 21
10372.0922256837
 31
0.0
  0
LINE
  5
14016
330
747D
100
AcDbEntity
  8
部品1
100
AcDbLine
 10
5494.695515348524
 20
10427.09222568369
 30
0.0
 11
5494.695515348524
 21
10399.09222568369
 31
0.0
  0
LINE
  5
14017
330
747D
100
AcDbEntity
  8
部品1
100
AcDbLine
 10
5577.695515348525
 20
10372.0922256837
 30
0.0
 11
5549.695515348525
 21
10372.0922256837
 31
0.0
  0
LINE
  5
14018
330
747D
100
AcDbEntity
  8
部品1
 48
50.0
100
AcDbLine
 10
5521.695515348525
 20
10399.09222568369
 30
0.0
 11
5494.695515348524
 21
10372.0922256837
 31
0.0
  0
LINE
  5
14019
330
747D
100
AcDbEntity
  8
部品1
 48
50.0
100
AcDbLine
 10
5577.695515348525
 20
10399.09222568369
 30
0.0
 11
5604.695515348525
 21
10372.09222568369
 31
0.0
  0
DIMENSION
  5
1401A
330
747D
100
AcDbEntity
  8
寸法
 48
50.0
100
AcDbDimension
  2
*D6
 10
5604.695515348525
 20
10801.80463570249
 30
0.0
 11
5549.695515348525
 21
10801.80463570249
 31
0.0
 70
   160
 71
     5
 42
110.0
  3
INABA_S40
100
AcDbAlignedDimension
 13
5494.695515348524
 23
10427.09222568369
 33
0.0
 14
5604.695515348525
 24
10427.09222568369
 34
0.0
100
AcDbRotatedDimension
1001
ACAD
1000
DSTYLE
1002
{
1070
    41
1040
0.5
1070
    44
1040
1.0
1070
   147
1040
0.8
1070
   271
1070
     2
1070
   272
1070
     2
1070
   289
1070
     3
1070
   340
1005
F706
1070
   343
1005
F744
1070
   344
1005
F744
1002
}
  0
LINE
  5
1401B
330
747D
100
AcDbEntity
  8
部品1
100
AcDbLine
 10
5074.695515348525
 20
10427.09222568369
 30
0.0
 11
5074.695515348525
 21
10399.09222568369
 31
0.0
  0
LINE
  5
1401C
330
747D
100
AcDbEntity
  8
部品1
100
AcDbLine
 10
4654.695515348524
 20
10427.09222568369
 30
0.0
 11
4654.695515348524
 21
10399.09222568369
 31
0.0
  0
LINE
  5
1401D
330
747D
100
AcDbEntity
  8
部品1
100
AcDbLine
 10
5521.695515348525
 20
10399.09222568369
 30
0.0
 11
4654.695515348524
 21
10399.09222568369
 31
0.0
  0
LINE
  5
1401E
330
747D
100
AcDbEntity
  8
破線
  6
HIDDEN
 48
10.0
100
AcDbLine
 10
4777.195515348521
 20
10348.5922256837
 30
0.0
 11
5471.195515348525
 21
10348.5922256837
 31
0.0
  0
LINE
  5
1401F
330
747D
100
AcDbEntity
  8
部品1
100
AcDbLine
 10
4234.695515348525
 20
10427.09222568369
 30
0.0
 11
4234.695515348525
 21
10399.09222568369
 31
0.0
  0
LINE
  5
14020
330
747D
100
AcDbEntity
  8
部品1
100
AcDbLine
 10
3814.695515348525
 20
10427.09222568369
 30
0.0
 11
3814.695515348525
 21
10399.09222568369
 31
0.0
  0
LINE
  5
14021
330
747D
100
AcDbEntity
  8
部品1
100
AcDbLine
 10
3394.695515348525
 20
10427.09222568369
 30
0.0
 11
3394.695515348525
 21
10399.09222568369
 31
0.0
  0
LINE
  5
14022
330
747D
100
AcDbEntity
  8
部品1
100
AcDbLine
 10
4654.695515348524
 20
10399.09222568369
 30
0.0
 11
3394.695515348525
 21
10399.09222568369
 31
0.0
  0
LINE
  5
14023
330
747D
100
AcDbEntity
  8
破線
  6
HIDDEN
 48
10.0
100
AcDbLine
 10
4049.695515348521
 20
10348.59222568369
 30
0.0
 11
4727.195515348522
 21
10348.5922256837
 31
0.0
  0
LINE
  5
14024
330
747D
100
AcDbEntity
  8
部品1
100
AcDbLine
 10
5549.695515348525
 20
10427.09222568369
 30
0.0
 11
8599.695515348525
 21
10427.09222568369
 31
0.0
  0
DIMENSION
  5
14025
330
747D
100
AcDbEntity
  8
寸法
 48
50.0
100
AcDbDimension
  2
*D7
 10
8544.695515348525
 20
10801.80463570249
 30
0.0
 11
7074.695515348524
 21
10893.81644672611
 31
0.0
 70
    32
  1
7X420=<>
 71
     5
 42
2940.0
  3
INABA_S40
100
AcDbAlignedDimension
 13
5604.695515348525
 23
10427.09222568369
 33
0.0
 14
8544.695515348525
 24
10427.09222568369
 34
0.0
100
AcDbRotatedDimension
1001
ACAD
1000
DSTYLE
1002
{
1070
    41
1040
0.5
1070
    44
1040
1.0
1070
   147
1040
0.8
1070
   271
1070
     2
1070
   272
1070
     2
1070
   289
1070
     3
1070
   340
1005
F706
1070
   343
1005
F744
1070
   344
1005
F744
1002
}
  0
LINE
  5
14026
330
747D
100
AcDbEntity
  8
部品1
100
AcDbLine
 10
5577.695515348525
 20
10399.09222568369
 30
0.0
 11
7284.695515348525
 21
10399.09222568369
 31
0.0
  0
LINE
  5
14027
330
747D
100
AcDbEntity
  8
部品1
100
AcDbLine
 10
8544.695515348525
 20
10372.0922256837
 30
0.0
 11
5604.695515348525
 21
10372.09222568369
 31
0.0
  0
LINE
  5
14028
330
747D
100
AcDbEntity
  8
破線
  6
HIDDEN
 48
10.0
100
AcDbLine
 10
6322.195515348525
 20
10348.59222568369
 30
0.0
 11
5628.195515348525
 21
10348.59222568369
 31
0.0
  0
LINE
  5
14029
330
747D
100
AcDbEntity
  8
部品1
100
AcDbLine
 10
8571.695515348526
 20
8692.092225683698
 30
0.0
 11
8599.695515348525
 21
8692.092225683698
 31
0.0
  0
LINE
  5
1402A
330
747D
100
AcDbEntity
  8
部品1
100
AcDbLine
 10
8571.695515348526
 20
8272.092225683698
 30
0.0
 11
8599.695515348525
 21
8272.092225683698
 31
0.0
  0
LINE
  5
1402B
330
747D
100
AcDbEntity
  8
部品1
100
AcDbLine
 10
8571.695515348526
 20
7852.092225683697
 30
0.0
 11
8599.695515348525
 21
7852.092225683697
 31
0.0
  0
LINE
  5
1402C
330
747D
100
AcDbEntity
  8
部品1
100
AcDbLine
 10
8571.695515348526
 20
7432.092225683696
 30
0.0
 11
8599.695515348525
 21
7432.092225683696
 31
0.0
  0
LINE
  5
1402D
330
747D
100
AcDbEntity
  8
部品1
100
AcDbLine
 10
8571.695515348526
 20
7012.092225683689
 30
0.0
 11
8599.695515348525
 21
7012.092225683689
 31
0.0
  0
LINE
  5
1402E
330
747D
100
AcDbEntity
  8
部品1
100
AcDbLine
 10
8544.695515348525
 20
6957.092225683691
 30
0.0
 11
8544.695515348525
 21
6985.092225683693
 31
0.0
  0
LINE
  5
1402F
330
747D
100
AcDbEntity
  8
部品1
 48
50.0
100
AcDbLine
 10
8571.695515348526
 20
6985.092225683693
 30
0.0
 11
8544.695515348525
 21
7012.092225683693
 31
0.0
  0
LINE
  5
14030
330
747D
100
AcDbEntity
  8
部品1
100
AcDbLine
 10
8124.695515348525
 20
6957.092225683691
 30
0.0
 11
8124.695515348525
 21
6985.092225683693
 31
0.0
  0
LINE
  5
14031
330
747D
100
AcDbEntity
  8
破線
  6
HIDDEN
 48
10.0
100
AcDbLine
 10
8521.195515348525
 20
7035.592225683692
 30
0.0
 11
7827.195515348525
 21
7035.592225683693
 31
0.0
  0
LINE
  5
14032
330
747D
100
AcDbEntity
  8
部品1
100
AcDbLine
 10
7704.695515348525
 20
6957.092225683691
 30
0.0
 11
7704.695515348525
 21
6985.092225683693
 31
0.0
  0
LINE
  5
14033
330
747D
100
AcDbEntity
  8
部品1
100
AcDbLine
 10
7284.695515348525
 20
6957.092225683691
 30
0.0
 11
7284.695515348525
 21
6985.092225683693
 31
0.0
  0
LINE
  5
14034
330
747D
100
AcDbEntity
  8
部品1
100
AcDbLine
 10
6864.695515348525
 20
6957.092225683691
 30
0.0
 11
6864.695515348525
 21
6985.092225683693
 31
0.0
  0
LINE
  5
14035
330
747D
100
AcDbEntity
  8
部品1
100
AcDbLine
 10
6444.695515348525
 20
6957.092225683691
 30
0.0
 11
6444.695515348525
 21
6985.092225683693
 31
0.0
  0
LINE
  5
14036
330
747D
100
AcDbEntity
  8
破線
  6
HIDDEN
 48
10.0
100
AcDbLine
 10
7049.695515348521
 20
7035.592225683689
 30
0.0
 11
6372.195515348522
 21
7035.592225683693
 31
0.0
  0
LINE
  5
14037
330
747D
100
AcDbEntity
  8
破線
  6
HIDDEN
 48
10.0
100
AcDbLine
 10
7777.195515348522
 20
7035.592225683693
 30
0.0
 11
7099.695515348525
 21
7035.592225683693
 31
0.0
  0
LINE
  5
14038
330
747D
100
AcDbEntity
  8
部品1
100
AcDbLine
 10
8571.695515348526
 20
10399.09222568369
 30
0.0
 11
8571.695515348526
 21
6985.092225683693
 31
0.0
  0
LINE
  5
14039
330
747D
100
AcDbEntity
  8
部品1
100
AcDbLine
 10
6024.695515348525
 20
6957.092225683691
 30
0.0
 11
6024.695515348525
 21
6985.092225683693
 31
0.0
  0
LINE
  5
1403A
330
747D
100
AcDbEntity
  8
部品1
100
AcDbLine
 10
5521.695515348525
 20
7012.092225683689
 30
0.0
 11
5549.695515348525
 21
7012.092225683689
 31
0.0
  0
LINE
  5
1403B
330
747D
100
AcDbEntity
  8
部品1
100
AcDbLine
 10
5577.695515348525
 20
7012.092225683689
 30
0.0
 11
5549.695515348525
 21
7012.092225683689
 31
0.0
  0
LINE
  5
1403C
330
747D
100
AcDbEntity
  8
部品1
100
AcDbLine
 10
5604.695515348525
 20
6957.092225683691
 30
0.0
 11
5604.695515348525
 21
6985.092225683693
 31
0.0
  0
LINE
  5
1403D
330
747D
100
AcDbEntity
  8
部品1
100
AcDbLine
 10
5494.695515348524
 20
6957.092225683691
 30
0.0
 11
5494.695515348524
 21
6985.092225683693
 31
0.0
  0
LINE
  5
1403E
330
747D
100
AcDbEntity
  8
部品1
100
AcDbLine
 10
5604.695515348525
 20
6957.092225683695
 30
0.0
 11
5549.695515348525
 21
6957.092225683694
 31
0.0
  0
LINE
  5
1403F
330
747D
100
AcDbEntity
  8
部品1
 48
50.0
100
AcDbLine
 10
5521.695515348525
 20
6985.092225683695
 30
0.0
 11
5494.695515348524
 21
7012.092225683689
 31
0.0
  0
LINE
  5
14040
330
747D
100
AcDbEntity
  8
部品1
 48
50.0
100
AcDbLine
 10
5577.695515348525
 20
6985.092225683693
 30
0.0
 11
5604.695515348525
 21
7012.092225683693
 31
0.0
  0
LINE
  5
14041
330
747D
100
AcDbEntity
  8
部品1
100
AcDbLine
 10
5074.695515348525
 20
6957.092225683691
 30
0.0
 11
5074.695515348525
 21
6985.092225683693
 31
0.0
  0
LINE
  5
14042
330
747D
100
AcDbEntity
  8
部品1
100
AcDbLine
 10
5074.695515348525
 20
6957.092225683691
 30
0.0
 11
5074.695515348525
 21
6985.092225683693
 31
0.0
  0
LINE
  5
14043
330
747D
100
AcDbEntity
  8
部品1
100
AcDbLine
 10
5074.695515348525
 20
6957.092225683694
 30
0.0
 11
5549.695515348525
 21
6957.092225683694
 31
0.0
  0
LINE
  5
14044
330
747D
100
AcDbEntity
  8
破線
  6
HIDDEN
 48
10.0
100
AcDbLine
 10
4777.195515348518
 20
7035.592225683692
 30
0.0
 11
5471.195515348525
 21
7035.592225683689
 31
0.0
  0
LINE
  5
14045
330
747D
100
AcDbEntity
  8
破線
  6
HIDDEN
 48
10.0
100
AcDbLine
 10
4049.695515348518
 20
7035.592225683692
 30
0.0
 11
4727.195515348518
 21
7035.592225683692
 31
0.0
  0
LINE
  5
14047
330
747D
100
AcDbEntity
  8
部品1
100
AcDbLine
 10
8571.695515348526
 20
6985.092225683693
 30
0.0
 11
5577.695515348525
 21
6985.092225683695
 31
0.0
  0
LINE
  5
14048
330
747D
100
AcDbEntity
  8
部品1
100
AcDbLine
 10
8544.695515348525
 20
7012.092225683693
 30
0.0
 11
5604.695515348525
 21
7012.092225683694
 31
0.0
  0
LINE
  5
14049
330
747D
100
AcDbEntity
  8
部品1
100
AcDbLine
 10
8599.695515348525
 20
6957.092225683694
 30
0.0
 11
5604.695515348525
 21
6957.092225683694
 31
0.0
  0
LINE
  5
1404A
330
747D
100
AcDbEntity
  8
部品1
100
AcDbLine
 10
5604.695515348525
 20
8692.092225683694
 30
0.0
 11
8544.695515348525
 21
8692.092225683694
 31
0.0
  0
LINE
  5
1404B
330
747D
100
AcDbEntity
  8
部品1
100
AcDbLine
 10
5604.695515348525
 20
8272.092225683694
 30
0.0
 11
8544.695515348525
 21
8272.092225683694
 31
0.0
  0
LINE
  5
1404C
330
747D
100
AcDbEntity
  8
部品1
100
AcDbLine
 10
5604.695515348525
 20
7852.092225683695
 30
0.0
 11
8544.695515348525
 21
7852.092225683695
 31
0.0
  0
LINE
  5
1404D
330
747D
100
AcDbEntity
  8
部品1
100
AcDbLine
 10
5604.695515348525
 20
7432.092225683695
 30
0.0
 11
8544.695515348525
 21
7432.092225683695
 31
0.0
  0
LINE
  5
1404E
330
747D
100
AcDbEntity
  8
破線
  6
HIDDEN
 48
10.0
100
AcDbLine
 10
6322.195515348521
 20
7035.592225683693
 30
0.0
 11
5628.195515348525
 21
7035.592225683695
 31
0.0
  0
LINE
  5
1404F
330
747D
100
AcDbEntity
  8
部品1
100
AcDbLine
 10
8599.695515348525
 20
10427.09222568369
 30
0.0
 11
8599.695515348525
 21
6957.092225683694
 31
0.0
  0
LINE
  5
14050
330
747D
100
AcDbEntity
  8
破線
  6
HIDDEN
 48
10.0
100
AcDbLine
 10
8521.195515348525
 20
10348.5922256837
 30
0.0
 11
8521.195515348525
 21
7035.592225683692
 31
0.0
  0
LINE
  5
14051
330
747D
100
AcDbEntity
  8
部品1
100
AcDbLine
 10
5521.695515348525
 20
6985.092225683695
 30
0.0
 11
5521.695515348525
 21
10399.09222568369
 31
0.0
  0
LINE
  5
14052
330
747D
100
AcDbEntity
  8
部品1
100
AcDbLine
 10
5494.695515348524
 20
7012.092225683689
 30
0.0
 11
5494.695515348521
 21
10372.0922256837
 31
0.0
  0
LINE
  5
14053
330
747D
100
AcDbEntity
  8
破線
  6
HIDDEN
 48
10.0
100
AcDbLine
 10
5471.195515348525
 20
7035.592225683689
 30
0.0
 11
5471.195515348521
 21
10348.5922256837
 31
0.0
  0
LINE
  5
14054
330
747D
100
AcDbEntity
  8
部品1
100
AcDbLine
 10
4024.695515348525
 20
10372.0922256837
 30
0.0
 11
4024.695515348517
 21
7012.092225683694
 31
0.0
  0
LINE
  5
14055
330
747D
100
AcDbEntity
  8
部品1
100
AcDbLine
 10
5577.695515348525
 20
6985.092225683693
 30
0.0
 11
5577.695515348525
 21
10399.09222568369
 31
0.0
  0
LINE
  5
14056
330
747D
100
AcDbEntity
  8
破線
  6
HIDDEN
 48
10.0
100
AcDbLine
 10
5628.195515348525
 20
7035.592225683693
 30
0.0
 11
5628.195515348525
 21
10348.59222568369
 31
0.0
  0
LINE
  5
14057
330
747D
100
AcDbEntity
  8
部品1
100
AcDbLine
 10
5604.695515348525
 20
7012.092225683693
 30
0.0
 11
5604.695515348525
 21
10372.09222568369
 31
0.0
  0
LINE
  5
14058
330
747D
100
AcDbEntity
  8
部品1
100
AcDbLine
 10
7074.695515348524
 20
7012.092225683693
 30
0.0
 11
7074.695515348524
 21
10372.0922256837
 31
0.0
  0
LINE
  5
14059
330
747D
100
AcDbEntity
  8
破線
  6
HIDDEN
 48
10.0
100
AcDbLine
 10
3999.695515348522
 20
10348.5922256837
 30
0.0
 11
3999.695515348518
 21
7035.592225683695
 31
0.0
  0
LINE
  5
1405A
330
747D
100
AcDbEntity
  8
破線
  6
HIDDEN
 48
10.0
100
AcDbLine
 10
4049.695515348521
 20
10348.5922256837
 30
0.0
 11
4049.695515348518
 21
7035.592225683695
 31
0.0
  0
LINE
  5
1405B
330
747D
100
AcDbEntity
  8
破線
  6
HIDDEN
 48
10.0
100
AcDbLine
 10
7099.695515348525
 20
10348.5922256837
 30
0.0
 11
7099.695515348525
 21
7035.592225683693
 31
0.0
  0
LINE
  5
1405C
330
747D
100
AcDbEntity
  8
破線
  6
HIDDEN
 48
10.0
100
AcDbLine
 10
7049.695515348524
 20
10348.5922256837
 30
0.0
 11
7049.695515348524
 21
7035.592225683693
 31
0.0
  0
LINE
  5
1405D
330
747D
100
AcDbEntity
  8
部品1
100
AcDbLine
 10
8544.695515348525
 20
10372.0922256837
 30
0.0
 11
8544.695515348525
 21
7012.092225683693
 31
0.0
  0
LINE
  5
1405E
330
747D
100
AcDbEntity
  8
破線
  6
HIDDEN
 48
10.0
100
AcDbLine
 10
4727.195515348522
 20
10372.0922256837
 30
0.0
 11
4727.195515348518
 21
7012.092225683693
 31
0.0
  0
LINE
  5
1405F
330
747D
100
AcDbEntity
  8
破線
  6
HIDDEN
 48
10.0
100
AcDbLine
 10
4777.195515348521
 20
10372.0922256837
 30
0.0
 11
4777.195515348518
 21
7012.092225683693
 31
0.0
  0
LINE
  5
14060
330
747D
100
AcDbEntity
  8
破線
  6
HIDDEN
 48
10.0
100
AcDbLine
 10
6322.195515348525
 20
10372.09222568369
 30
0.0
 11
6322.195515348525
 21
7012.092225683694
 31
0.0
  0
LINE
  5
14061
330
747D
100
AcDbEntity
  8
破線
  6
HIDDEN
 48
10.0
100
AcDbLine
 10
6372.195515348526
 20
10372.09222568369
 30
0.0
 11
6372.195515348526
 21
7012.092225683694
 31
0.0
  0
LINE
  5
14062
330
747D
100
AcDbEntity
  8
破線
  6
HIDDEN
 48
10.0
100
AcDbLine
 10
7777.195515348525
 20
10372.0922256837
 30
0.0
 11
7777.195515348525
 21
7012.092225683693
 31
0.0
  0
LINE
  5
14063
330
747D
100
AcDbEntity
  8
破線
  6
HIDDEN
 48
10.0
100
AcDbLine
 10
7827.195515348525
 20
10372.0922256837
 30
0.0
 11
7827.195515348525
 21
7012.092225683693
 31
0.0
  0
LINE
  5
14064
330
747D
100
AcDbEntity
  8
部品1
100
AcDbLine
 10
2974.695515348525
 20
10427.09222568369
 30
0.0
 11
2974.695515348525
 21
10399.09222568369
 31
0.0
  0
LINE
  5
14065
330
747D
100
AcDbEntity
  8
部品1
100
AcDbLine
 10
2527.695515348525
 20
10372.0922256837
 30
0.0
 11
2499.695515348526
 21
10372.0922256837
 31
0.0
  0
LINE
  5
14066
330
747D
100
AcDbEntity
  8
部品1
100
AcDbLine
 10
2554.695515348525
 20
10427.09222568369
 30
0.0
 11
2554.695515348525
 21
10399.09222568369
 31
0.0
  0
LINE
  5
14067
330
747D
100
AcDbEntity
  8
部品1
 48
50.0
100
AcDbLine
 10
2527.695515348525
 20
10399.09222568369
 30
0.0
 11
2554.695515348522
 21
10372.09222568369
 31
0.0
  0
DIMENSION
  5
14068
330
747D
100
AcDbEntity
  8
寸法
 48
50.0
100
AcDbDimension
  2
*D8
 10
2554.695515348525
 20
10801.80463570249
 30
0.0
 11
2105.528848681861
 21
10801.80463570249
 31
0.0
 70
   160
 71
     5
 42
55.0
  3
INABA_S40
100
AcDbAlignedDimension
 13
2499.695515348526
 23
10427.09222568369
 33
0.0
 14
2554.695515348525
 24
10427.09222568369
 34
0.0
100
AcDbRotatedDimension
1001
ACAD
1000
DSTYLE
1002
{
1070
    41
1040
0.5
1070
    44
1040
1.0
1070
   147
1040
0.8
1070
   271
1070
     2
1070
   272
1070
     2
1070
   289
1070
     3
1070
   340
1005
F706
1070
   343
1005
F744
1070
   344
1005
F744
1002
}
  0
LINE
  5
14069
330
747D
100
AcDbEntity
  8
破線
  6
HIDDEN
 48
10.0
100
AcDbLine
 10
2578.195515348522
 20
10348.59222568369
 30
0.0
 11
3272.195515348521
 21
10348.59222568369
 31
0.0
  0
LINE
  5
1406A
330
747D
100
AcDbEntity
  8
部品1
100
AcDbLine
 10
2527.695515348525
 20
8692.092225683698
 30
0.0
 11
2499.695515348526
 21
8692.092225683698
 31
0.0
  0
LINE
  5
1406B
330
747D
100
AcDbEntity
  8
部品1
100
AcDbLine
 10
2527.695515348525
 20
8272.092225683698
 30
0.0
 11
2499.695515348526
 21
8272.092225683698
 31
0.0
  0
LINE
  5
1406C
330
747D
100
AcDbEntity
  8
部品1
100
AcDbLine
 10
2527.695515348525
 20
7852.092225683697
 30
0.0
 11
2499.695515348526
 21
7852.092225683697
 31
0.0
  0
LINE
  5
1406D
330
747D
100
AcDbEntity
  8
部品1
100
AcDbLine
 10
2527.695515348525
 20
7432.092225683696
 30
0.0
 11
2499.695515348526
 21
7432.092225683696
 31
0.0
  0
LINE
  5
1406E
330
747D
100
AcDbEntity
  8
部品1
100
AcDbLine
 10
2974.695515348525
 20
6957.092225683691
 30
0.0
 11
2974.695515348525
 21
6985.092225683693
 31
0.0
  0
LINE
  5
1406F
330
747D
100
AcDbEntity
  8
部品1
100
AcDbLine
 10
2974.695515348525
 20
6957.092225683698
 30
0.0
 11
2974.695515348525
 21
6985.0922256837
 31
0.0
  0
LINE
  5
14070
330
747D
100
AcDbEntity
  8
部品1
100
AcDbLine
 10
2527.695515348525
 20
7012.092225683689
 30
0.0
 11
2499.695515348526
 21
7012.092225683689
 31
0.0
  0
LINE
  5
14071
330
747D
100
AcDbEntity
  8
部品1
100
AcDbLine
 10
2554.695515348525
 20
6957.092225683691
 30
0.0
 11
2554.695515348525
 21
6985.092225683693
 31
0.0
  0
LINE
  5
14072
330
747D
100
AcDbEntity
  8
部品1
 48
50.0
100
AcDbLine
 10
2527.695515348525
 20
6985.092225683693
 30
0.0
 11
2554.695515348522
 21
7012.092225683694
 31
0.0
  0
LINE
  5
14073
330
747D
100
AcDbEntity
  8
部品1
100
AcDbLine
 10
2499.695515348526
 20
6957.092225683694
 30
0.0
 11
2974.695515348525
 21
6957.092225683691
 31
0.0
  0
LINE
  5
14074
330
747D
100
AcDbEntity
  8
破線
  6
HIDDEN
 48
10.0
100
AcDbLine
 10
2578.195515348522
 20
7035.592225683693
 30
0.0
 11
3272.195515348518
 21
7035.592225683692
 31
0.0
  0
LINE
  5
14075
330
747D
100
AcDbEntity
  8
部品1
100
AcDbLine
 10
2527.695515348529
 20
10399.09222568369
 30
0.0
 11
2527.695515348525
 21
6985.092225683693
 31
0.0
  0
LINE
  5
14076
330
747D
100
AcDbEntity
  8
部品1
100
AcDbLine
 10
2499.695515348526
 20
10427.09222568369
 30
0.0
 11
2499.695515348526
 21
6957.092225683694
 31
0.0
  0
LINE
  5
14077
330
747D
100
AcDbEntity
  8
破線
  6
HIDDEN
 48
10.0
100
AcDbLine
 10
2578.195515348533
 20
10348.59222568369
 30
0.0
 11
2578.195515348522
 21
7035.592225683693
 31
0.0
  0
LINE
  5
14078
330
747D
100
AcDbEntity
  8
部品1
100
AcDbLine
 10
2554.695515348532
 20
10372.09222568369
 30
0.0
 11
2554.695515348522
 21
7012.092225683694
 31
0.0
  0
LINE
  5
14079
330
747D
100
AcDbEntity
  8
破線
  6
HIDDEN
 48
10.0
100
AcDbLine
 10
3272.195515348521
 20
10372.0922256837
 30
0.0
 11
3272.195515348518
 21
7012.092225683694
 31
0.0
  0
LINE
  5
1407A
330
747D
100
AcDbEntity
  8
破線
  6
HIDDEN
 48
10.0
100
AcDbLine
 10
3322.195515348521
 20
10372.0922256837
 30
0.0
 11
3322.195515348518
 21
7012.092225683693
 31
0.0
  0
DIMENSION
  5
1407C
330
747D
100
AcDbEntity
  8
寸法
 48
50.0
100
AcDbDimension
  2
*D9
 10
5494.695515348524
 20
10801.80463570249
 30
0.0
 11
4024.695515348525
 21
10893.81644672611
 31
0.0
 70
    32
  1
7X420=<>
 71
     5
 42
2940.0
  3
INABA_S40
100
AcDbAlignedDimension
 13
2554.695515348525
 23
10427.09222568369
 33
0.0
 14
5494.695515348524
 24
10427.09222568369
 34
0.0
100
AcDbRotatedDimension
1001
ACAD
1000
DSTYLE
1002
{
1070
    41
1040
0.5
1070
    44
1040
1.0
1070
   147
1040
0.8
1070
   271
1070
     2
1070
   272
1070
     2
1070
   289
1070
     3
1070
   340
1005
F706
1070
   343
1005
F744
1070
   344
1005
F744
1002
}
  0
DIMENSION
  5
1407D
330
747D
100
AcDbEntity
  8
寸法
 48
50.0
100
AcDbDimension
  2
*D10
 10
8599.695515348525
 20
11101.80463570249
 30
0.0
 11
5549.695515348525
 21
11193.80463570249
 31
0.0
 70
    32
 71
     5
 42
6100.0
  3
INABA_S40
100
AcDbAlignedDimension
 13
2499.695515348526
 23
10427.09222568369
 33
0.0
 14
8599.695515348525
 24
10427.09222568369
 34
0.0
100
AcDbRotatedDimension
1001
ACAD
1000
DSTYLE
1002
{
1070
    41
1040
0.5
1070
    44
1040
1.0
1070
   147
1040
0.8
1070
   271
1070
     2
1070
   272
1070
     2
1070
   289
1070
     3
1070
   340
1005
F706
1070
   343
1005
F744
1070
   344
1005
F744
1002
}
  0
LINE
  5
1407E
330
747D
100
AcDbEntity
  8
部品1
100
AcDbLine
 10
2527.695515348525
 20
6985.092225683693
 30
0.0
 11
5521.695515348525
 21
6985.092225683695
 31
0.0
  0
LINE
  5
1407F
330
747D
100
AcDbEntity
  8
部品1
100
AcDbLine
 10
2554.695515348522
 20
7012.092225683694
 30
0.0
 11
5494.695515348524
 21
7012.092225683689
 31
0.0
  0
LINE
  5
14080
330
747D
100
AcDbEntity
  8
部品1
100
AcDbLine
 10
5549.695515348525
 20
10427.09222568369
 30
0.0
 11
2499.695515348526
 21
10427.09222568369
 31
0.0
  0
LINE
  5
14081
330
747D
100
AcDbEntity
  8
部品1
100
AcDbLine
 10
5494.695515348524
 20
8692.092225683694
 30
0.0
 11
2554.695515348525
 21
8692.092225683692
 31
0.0
  0
LINE
  5
14082
330
747D
100
AcDbEntity
  8
部品1
100
AcDbLine
 10
5494.695515348524
 20
8272.092225683694
 30
0.0
 11
2554.695515348525
 21
8272.092225683691
 31
0.0
  0
LINE
  5
14083
330
747D
100
AcDbEntity
  8
部品1
100
AcDbLine
 10
5494.695515348524
 20
7852.092225683695
 30
0.0
 11
2554.695515348525
 21
7852.092225683691
 31
0.0
  0
LINE
  5
14084
330
747D
100
AcDbEntity
  8
部品1
100
AcDbLine
 10
5494.695515348524
 20
7432.092225683695
 30
0.0
 11
2554.695515348525
 21
7432.092225683691
 31
0.0
  0
LINE
  5
14085
330
747D
100
AcDbEntity
  8
部品1
100
AcDbLine
 10
3394.695515348525
 20
10399.0922256837
 30
0.0
 11
2527.695515348525
 21
10399.09222568369
 31
0.0
  0
LINE
  5
14086
330
747D
100
AcDbEntity
  8
部品1
100
AcDbLine
 10
2554.695515348522
 20
10372.09222568369
 30
0.0
 11
5494.695515348524
 21
10372.0922256837
 31
0.0
  0
LINE
  5
14087
330
747D
100
AcDbEntity
  8
破線
  6
HIDDEN
 48
10.0
100
AcDbLine
 10
3322.195515348518
 20
7035.592225683693
 30
0.0
 11
3999.695515348518
 21
7035.592225683693
 31
0.0
  0
LINE
  5
14088
330
747D
100
AcDbEntity
  8
破線
  6
HIDDEN
 48
10.0
100
AcDbLine
 10
3322.195515348521
 20
10348.59222568369
 30
0.0
 11
3999.695515348522
 21
10348.59222568369
 31
0.0
  0
LINE
  5
14089
330
747D
100
AcDbEntity
  8
部品1
100
AcDbLine
 10
8599.695515348525
 20
4214.471098785376
 30
0.0
 11
8599.695515348525
 21
1880.471098785372
 31
0.0
  0
LINE
  5
1408A
330
747D
100
AcDbEntity
  8
部品1
100
AcDbLine
 10
8544.695515348525
 20
4120.471098785372
 30
0.0
 11
8544.695515348525
 21
2030.471098785373
 31
0.0
  0
LINE
  5
1408B
330
747D
100
AcDbEntity
  8
部品1
100
AcDbLine
 10
6444.695515348525
 20
4120.471098785372
 30
0.0
 11
6444.695515348525
 21
2030.471098785373
 31
0.0
  0
LINE
  5
1408C
330
747D
100
AcDbEntity
  8
部品1
100
AcDbLine
 10
6864.695515348525
 20
4120.471098785372
 30
0.0
 11
6864.695515348525
 21
2030.471098785373
 31
0.0
  0
LINE
  5
1408D
330
747D
100
AcDbEntity
  8
部品1
100
AcDbLine
 10
7284.695515348539
 20
4120.471098785372
 30
0.0
 11
7284.695515348537
 21
2030.471098785373
 31
0.0
  0
LINE
  5
1408E
330
747D
100
AcDbEntity
  8
部品1
100
AcDbLine
 10
7704.695515348539
 20
4120.471098785372
 30
0.0
 11
7704.695515348536
 21
2030.471098785373
 31
0.0
  0
LINE
  5
1408F
330
747D
100
AcDbEntity
  8
部品1
100
AcDbLine
 10
8124.695515348539
 20
4120.471098785372
 30
0.0
 11
8124.695515348536
 21
2030.471098785373
 31
0.0
  0
LINE
  5
14090
330
747D
100
AcDbEntity
  8
部品1
100
AcDbLine
 10
5549.695515348525
 20
4120.471098785372
 30
0.0
 11
5549.695515348525
 21
4214.471098785376
 31
0.0
  0
LINE
  5
14091
330
747D
100
AcDbEntity
  8
部品1
100
AcDbLine
 10
5539.695515348525
 20
4214.471098785376
 30
0.0
 11
5539.695515348522
 21
4355.471098785375
 31
0.0
  0
LINE
  5
14092
330
747D
100
AcDbEntity
  8
部品1
100
AcDbLine
 10
5549.695515348525
 20
2030.471098785373
 30
0.0
 11
5549.695515348525
 21
1980.471098785372
 31
0.0
  0
LINE
  5
14093
330
747D
100
AcDbEntity
  8
部品1
 48
50.0
100
AcDbLine
 10
5549.695515348525
 20
2030.471098785373
 30
0.0
 11
5101.695515348525
 21
2030.471098785373
 31
0.0
  0
LINE
  5
14094
330
747D
100
AcDbEntity
  8
部品1
100
AcDbLine
 10
5494.695515348524
 20
4120.471098785372
 30
0.0
 11
5494.695515348524
 21
2030.471098785373
 31
0.0
  0
LINE
  5
14095
330
747D
100
AcDbEntity
  8
部品1
100
AcDbLine
 10
6024.695515348525
 20
4120.471098785372
 30
0.0
 11
6024.695515348525
 21
2030.471098785373
 31
0.0
  0
LINE
  5
14096
330
747D
100
AcDbEntity
  8
部品1
100
AcDbLine
 10
5604.695515348525
 20
4120.471098785372
 30
0.0
 11
5604.695515348525
 21
2030.471098785373
 31
0.0
  0
LINE
  5
14097
330
747D
100
AcDbEntity
  8
部品1
 48
50.0
100
AcDbLine
 10
5549.695515348525
 20
2030.471098785373
 30
0.0
 11
8599.695515348525
 21
2030.471098785373
 31
0.0
  0
LINE
  5
14098
330
747D
100
AcDbEntity
  8
部品1
 48
50.0
100
AcDbLine
 10
2947.695515348525
 20
2030.471098785373
 30
0.0
 11
2499.695515348526
 21
2030.471098785373
 31
0.0
  0
LINE
  5
14099
330
747D
100
AcDbEntity
  8
部品1
100
AcDbLine
 10
1584.280866300971
 20
1880.471098785372
 30
0.0
 11
1524.280866300971
 21
1984.394147239504
 31
0.0
  0
LINE
  5
1409A
330
747D
100
AcDbEntity
  8
部品1
100
AcDbLine
 10
1644.280866300971
 20
1984.394147239504
 30
0.0
 11
1584.280866300971
 21
1880.471098785372
 31
0.0
  0
LINE
  5
1409B
330
747D
100
AcDbEntity
  8
部品1
100
AcDbLine
 10
1524.280866300971
 20
1984.394147239504
 30
0.0
 11
1644.280866300971
 21
1984.394147239504
 31
0.0
  0
TEXT
  5
1409C
330
747D
100
AcDbEntity
  8
部品1
100
AcDbText
 10
1666.764820000789
 20
1895.312803656361
 30
0.0
 40
125.0
  1
G.L
  7
MSGOTHIC
100
AcDbText
  0
LINE
  5
1409D
330
747D
100
AcDbEntity
  8
部品1
100
AcDbLine
 10
2499.695515348526
 20
4214.471098785376
 30
0.0
 11
2499.695515348526
 21
1880.471098785372
 31
0.0
  0
LINE
  5
1409E
330
747D
100
AcDbEntity
  8
部品1
100
AcDbLine
 10
2554.695515348525
 20
4120.471098785372
 30
0.0
 11
2554.695515348525
 21
2030.471098785373
 31
0.0
  0
LINE
  5
1409F
330
747D
100
AcDbEntity
  8
部品1
100
AcDbLine
 10
2499.695515348526
 20
1980.471098785372
 30
0.0
 11
8599.695515348525
 21
1980.471098785372
 31
0.0
  0
LINE
  5
140A0
330
747D
100
AcDbEntity
  8
部品1
100
AcDbLine
 10
2499.695515348526
 20
4120.471098785372
 30
0.0
 11
8599.695515348525
 21
4120.471098785372
 31
0.0
  0
LINE
  5
140A1
330
747D
100
AcDbEntity
  8
Ｇ．Ｌ
 48
50.0
100
AcDbLine
 10
1235.828128122382
 20
1880.471098785372
 30
0.0
 11
15896.60798629497
 21
1880.471098785372
 31
0.0
  0
DIMENSION
  5
140A2
330
747D
100
AcDbEntity
  8
寸法
 48
50.0
100
AcDbDimension
  2
*D11
 10
9370.44263239288
 20
10372.0922256837
 30
0.0
 11
9370.442632392878
 21
10821.25889235036
 31
0.0
 70
   160
 71
     5
 42
54.99999999999636
  3
INABA_S40
100
AcDbAlignedDimension
 13
8599.695515348525
 23
10427.09222568369
 33
0.0
 14
8599.695515348525
 24
10372.0922256837
 34
0.0
 50
90.0
100
AcDbRotatedDimension
1001
ACAD
1000
DSTYLE
1002
{
1070
    41
1040
0.5
1070
    44
1040
1.0
1070
   147
1040
0.8
1070
   271
1070
     2
1070
   272
1070
     2
1070
   289
1070
     3
1070
   340
1005
F706
1070
   343
1005
F744
1070
   344
1005
F744
1002
}
  0
DIMENSION
  5
140A3
330
747D
100
AcDbEntity
  8
寸法
 48
50.0
100
AcDbDimension
  2
*D12
 10
9370.442632392878
 20
7012.092225683689
 30
0.0
 11
9278.430821369255
 21
8692.092225683694
 31
0.0
 70
    32
  1
8X420=<>
 71
     5
 42
3360.000000000007
  3
INABA_S40
100
AcDbAlignedDimension
 13
8599.695515348525
 23
10372.0922256837
 33
0.0
 14
8599.695515348525
 24
7012.092225683689
 34
0.0
 50
90.0
100
AcDbRotatedDimension
1001
ACAD
1000
DSTYLE
1002
{
1070
    41
1040
0.5
1070
    44
1040
1.0
1070
   147
1040
0.8
1070
   271
1070
     2
1070
   272
1070
     2
1070
   289
1070
     3
1070
   340
1005
F706
1070
   343
1005
F744
1070
   344
1005
F744
1002
}
  0
DIMENSION
  5
140A4
330
747D
100
AcDbEntity
  8
寸法
 48
50.0
100
AcDbDimension
  2
*D13
 10
9370.44263239288
 20
6957.092225683694
 30
0.0
 11
9370.442632392878
 21
6562.925559017028
 31
0.0
 70
   160
 71
     5
 42
54.99999999999636
  3
INABA_S40
100
AcDbAlignedDimension
 13
8599.695515348525
 23
7012.092225683689
 33
0.0
 14
8599.695515348525
 24
6957.092225683694
 34
0.0
 50
90.0
100
AcDbRotatedDimension
1001
ACAD
1000
DSTYLE
1002
{
1070
    41
1040
0.5
1070
    44
1040
1.0
1070
   147
1040
0.8
1070
   271
1070
     2
1070
   272
1070
     2
1070
   289
1070
     3
1070
   340
1005
F706
1070
   343
1005
F744
1070
   344
1005
F744
1002
}
  0
DIMENSION
  5
140A5
330
747D
100
AcDbEntity
  8
寸法
 48
50.0
100
AcDbDimension
  2
*D14
 10
9670.442632392878
 20
6957.092225683694
 30
0.0
 11
9578.442632392876
 21
8692.092225683694
 31
0.0
 70
    32
 71
     5
 42
3470.0
  3
INABA_S40
100
AcDbAlignedDimension
 13
8599.695515348525
 23
10427.09222568369
 33
0.0
 14
8599.695515348525
 24
6957.092225683694
 34
0.0
 50
90.0
100
AcDbRotatedDimension
1001
ACAD
1000
DSTYLE
1002
{
1070
    41
1040
0.5
1070
    44
1040
1.0
1070
   147
1040
0.8
1070
   271
1070
     2
1070
   272
1070
     2
1070
   289
1070
     3
1070
   340
1005
F706
1070
   343
1005
F744
1070
   344
1005
F744
1002
}
  0
DIMENSION
  5
140A6
330
747D
100
AcDbEntity
  8
寸法
 48
50.0
100
AcDbDimension
  2
*D15
 10
8599.695515348525
 20
10801.80463570249
 30
0.0
 11
8993.86218201519
 21
10801.80463570249
 31
0.0
 70
   160
 71
     5
 42
55.0
  3
INABA_S40
100
AcDbAlignedDimension
 13
8544.695515348525
 23
10427.09222568369
 33
0.0
 14
8599.695515348525
 24
10427.09222568369
 34
0.0
100
AcDbRotatedDimension
1001
ACAD
1000
DSTYLE
1002
{
1070
    41
1040
0.5
1070
    44
1040
1.0
1070
   147
1040
0.8
1070
   271
1070
     2
1070
   272
1070
     2
1070
   289
1070
     3
1070
   340
1005
F706
1070
   343
1005
F744
1070
   344
1005
F744
1002
}
  0
LINE
  5
140A7
330
747D
100
AcDbEntity
  8
部品1
100
AcDbLine
 10
5494.695515348524
 20
9112.092225683699
 30
0.0
 11
2554.695515348525
 21
9112.092225683694
 31
0.0
  0
LINE
  5
140A8
330
747D
100
AcDbEntity
  8
部品1
100
AcDbLine
 10
2527.695515348525
 20
9112.092225683701
 30
0.0
 11
2499.695515348526
 21
9112.092225683701
 31
0.0
  0
LINE
  5
140A9
330
747D
100
AcDbEntity
  8
部品1
100
AcDbLine
 10
5604.695515348525
 20
9112.092225683699
 30
0.0
 11
8544.695515348525
 21
9112.092225683699
 31
0.0
  0
LINE
  5
140AA
330
747D
100
AcDbEntity
  8
部品1
100
AcDbLine
 10
8571.695515348526
 20
9112.092225683701
 30
0.0
 11
8599.695515348525
 21
9112.092225683701
 31
0.0
  0
TEXT
  5
1443C
330
747D
100
AcDbEntity
  8
文字
 62
     7
 48
50.0
100
AcDbText
 10
15022.63965474516
 20
9570.013745883725
 30
0.0
 40
100.0
  1
F12            1.0
  7
STYLE1
100
AcDbText
  0
LINE
  5
144EB
330
747D
100
AcDbEntity
  8
部品1
100
AcDbLine
 10
5494.695515348524
 20
9952.092225683706
 30
0.0
 11
2554.695515348525
 21
9952.092225683703
 31
0.0
  0
LINE
  5
144EC
330
747D
100
AcDbEntity
  8
部品1
100
AcDbLine
 10
2527.695515348525
 20
9952.092225683708
 30
0.0
 11
2499.695515348526
 21
9952.092225683708
 31
0.0
  0
LINE
  5
144ED
330
747D
100
AcDbEntity
  8
部品1
100
AcDbLine
 10
5604.695515348525
 20
9952.092225683706
 30
0.0
 11
8544.695515348525
 21
9952.092225683706
 31
0.0
  0
LINE
  5
144EE
330
747D
100
AcDbEntity
  8
部品1
100
AcDbLine
 10
8571.695515348526
 20
9952.092225683708
 30
0.0
 11
8599.695515348525
 21
9952.092225683708
 31
0.0
  0
TEXT
  5
14724
330
747D
100
AcDbEntity
  8
部品1
100
AcDbText
 10
13088.76069180157
 20
1455.689704815115
 30
0.0
 40
135.0
  1
側面図
  7
STYLE2
100
AcDbText
  0
LWPOLYLINE
  5
14725
330
747D
100
AcDbEntity
  8
部品1
100
AcDbPolyline
 90
        4
 70
     1
 43
0.0
 10
12999.31459037796
 20
1648.583234033637
 10
12999.31459037796
 20
1408.690912488105
 10
13762.78525660641
 20
1408.690912488105
 10
13762.78525660641
 20
1648.583234033637
  0
LINE
  5
14726
330
747D
100
AcDbEntity
  8
部品1
100
AcDbLine
 10
11636.04992349219
 20
1980.471098785372
 30
0.0
 11
11559.04992349219
 21
1980.471098785372
 31
0.0
  0
LINE
  5
14727
330
747D
100
AcDbEntity
  8
部品1
100
AcDbLine
 10
11559.04992349219
 20
4106.158203693774
 30
0.0
 11
11636.04992349219
 21
4120.471098785372
 31
0.0
  0
LINE
  5
14728
330
747D
100
AcDbEntity
  8
部品1
100
AcDbLine
 10
11559.04992349219
 20
4106.158203693774
 30
0.0
 11
11559.04992349219
 21
1880.471098785372
 31
0.0
  0
DIMENSION
  5
14729
330
747D
100
AcDbEntity
  8
寸法
 48
50.0
100
AcDbDimension
  2
*D17
 10
11091.14128209493
 20
2046.471098785373
 30
0.0
 11
10999.12947107131
 21
3058.971098785375
 31
0.0
 70
    32
  1
有効開口部高サ<>
 71
     5
 42
2025.0
  3
INABA_S40
100
AcDbAlignedDimension
 13
11559.04992349219
 23
4071.471098785372
 33
0.0
 14
11559.04992349219
 24
2046.471098785373
 34
0.0
 50
90.0
100
AcDbRotatedDimension
1001
ACAD
1000
DSTYLE
1002
{
1070
    41
1040
0.5
1070
    44
1040
1.0
1070
   147
1040
0.8
1070
   271
1070
     2
1070
   272
1070
     2
1070
   289
1070
     3
1070
   340
1005
F706
1070
   343
1005
F744
1070
   344
1005
F744
1002
}
  0
DIMENSION
  5
1472A
330
747D
100
AcDbEntity
  8
寸法
100
AcDbDimension
  2
*D18
 10
10792.29979430893
 20
2030.471098785368
 30
0.0
 11
10692.28798328531
 21
3075.471098785371
 31
0.0
 70
    32
 71
     5
 42
2090.000000000001
  3
INABA_S40G
100
AcDbAlignedDimension
 13
11636.04992349219
 23
4120.471098785368
 33
0.0
 14
11636.04992349219
 24
2030.471098785368
 34
0.0
 50
90.0
100
AcDbRotatedDimension
1001
ACAD
1000
DSTYLE
1002
{
1070
   174
1070
     0
1070
   272
1070
     1
1070
   288
1070
     0
1070
   341
1005
0
1002
}
  0
DIMENSION
  5
1472B
330
747D
100
AcDbEntity
  8
寸法
100
AcDbDimension
  2
*D19
 10
10492.29979430893
 20
4355.471098785372
 30
0.0
 11
10392.2879832853
 21
3167.971098785372
 31
0.0
 70
    32
 71
     5
 42
2375.000000000005
  3
INABA_S40G
100
AcDbAlignedDimension
 13
11559.04992349219
 23
1980.471098785368
 33
0.0
 14
11576.04992349219
 24
4355.471098785372
 34
0.0
 50
90.0
100
AcDbRotatedDimension
1001
ACAD
1000
DSTYLE
1002
{
1070
   174
1070
     0
1070
   272
1070
     1
1070
   288
1070
     0
1070
   341
1005
0
1002
}
  0
DIMENSION
  5
1472C
330
747D
100
AcDbEntity
  8
寸法
100
AcDbDimension
  2
*D20
 10
15810.97708146432
 20
4300.471098785374
 30
0.0
 11
15710.96527044069
 21
3140.471098785377
 31
0.0
 70
    32
 71
     5
 42
2320.0
  3
INABA_S40G
100
AcDbAlignedDimension
 13
15106.04992349219
 23
1980.471098785374
 33
0.0
 14
15186.04992349218
 24
4300.471098785374
 34
0.0
 50
90.0
100
AcDbRotatedDimension
1001
ACAD
1000
DSTYLE
1002
{
1070
   174
1070
     0
1070
   272
1070
     1
1070
   288
1070
     0
1070
   341
1005
0
1002
}
  0
LINE
  5
1472D
330
747D
100
AcDbEntity
  8
細線
 48
50.0
100
AcDbLine
 10
13713.54992349219
 20
4120.471098785372
 30
0.0
 11
13713.54992349219
 21
2030.471098785374
 31
0.0
  0
LINE
  5
1472E
330
747D
100
AcDbEntity
  8
細線
 48
50.0
100
AcDbLine
 10
13728.54992349219
 20
4120.471098785372
 30
0.0
 11
13728.54992349219
 21
2030.471098785374
 31
0.0
  0
LINE
  5
1472F
330
747D
100
AcDbEntity
  8
細線
 48
50.0
100
AcDbLine
 10
13588.54992349219
 20
4120.471098785372
 30
0.0
 11
13588.54992349219
 21
2030.471098785374
 31
0.0
  0
LINE
  5
14730
330
747D
100
AcDbEntity
  8
細線
 48
50.0
100
AcDbLine
 10
13573.54992349219
 20
4120.471098785372
 30
0.0
 11
13573.54992349219
 21
2030.471098785374
 31
0.0
  0
LINE
  5
14731
330
747D
100
AcDbEntity
  8
細線
 48
50.0
100
AcDbLine
 10
13433.54992349219
 20
4120.471098785372
 30
0.0
 11
13433.54992349219
 21
2030.471098785374
 31
0.0
  0
LINE
  5
14732
330
747D
100
AcDbEntity
  8
細線
 48
50.0
100
AcDbLine
 10
13448.54992349219
 20
4120.471098785372
 30
0.0
 11
13448.54992349219
 21
2030.471098785374
 31
0.0
  0
LINE
  5
14733
330
747D
100
AcDbEntity
  8
部品1
100
AcDbLine
 10
13371.04992349218
 20
4120.471098785372
 30
0.0
 11
13371.04992349218
 21
2030.471098785374
 31
0.0
  0
LINE
  5
14734
330
747D
100
AcDbEntity
  8
部品1
100
AcDbLine
 10
13205.59490984915
 20
4480.67548674839
 30
0.0
 11
13531.04992349219
 21
4463.15742778953
 31
0.0
  0
ARC
  5
14735
330
747D
100
AcDbEntity
  8
部品1
100
AcDbCircle
 10
15171.67745930613
 20
4194.494856051165
 30
0.0
 40
0.7
100
AcDbArc
 50
275.0921697642079
 51
354.1866997667087
  0
ARC
  5
14736
330
747D
100
AcDbEntity
  8
部品1
100
AcDbCircle
 10
15182.53680505545
 20
4271.538110869089
 30
0.0
 40
0.7
100
AcDbArc
 50
275.0921697642079
 51
354.1866997665532
  0
ARC
  5
14737
330
747D
100
AcDbEntity
  8
部品1
100
AcDbCircle
 10
15182.86521029805
 20
4267.852714011999
 30
0.0
 40
3.0
100
AcDbArc
 50
95.09216976420788
 51
174.1866997665532
  0
ARC
  5
14738
330
747D
100
AcDbEntity
  8
部品1
100
AcDbCircle
 10
15172.00586454873
 20
4190.809459194075
 30
0.0
 40
3.0
100
AcDbArc
 50
95.09216976420788
 51
174.1866997665532
  0
ARC
  5
14739
330
747D
100
AcDbEntity
  8
部品1
 48
50.0
100
AcDbCircle
 10
15160.97772927362
 20
4181.218714590193
 30
0.0
 40
7.0
100
AcDbArc
 50
267.8377559869492
 51
354.1866997665532
  0
ARC
  5
1473A
330
747D
100
AcDbEntity
  8
部品1
 48
50.0
100
AcDbCircle
 10
15178.29982573814
 20
4292.121261732365
 30
0.0
 40
7.0
100
AcDbArc
 50
354.1866997665532
 51
87.03587545283228
  0
LINE
  5
1473B
330
747D
100
AcDbEntity
  8
部品1
 48
50.0
100
AcDbLine
 10
15169.02129287812
 20
4191.113320910979
 30
0.0
 11
15167.94172983838
 21
4180.50970391742
 31
0.0
  0
LINE
  5
1473C
330
747D
100
AcDbEntity
  8
部品1
 48
50.0
100
AcDbLine
 10
15179.88063862744
 20
4268.156575728903
 30
0.0
 11
15172.3738593626
 21
4194.423954983889
 31
0.0
  0
LINE
  5
1473D
330
747D
100
AcDbEntity
  8
部品1
 48
50.0
100
AcDbLine
 10
15185.26382630289
 20
4291.412251059592
 30
0.0
 11
15183.23320511192
 21
4271.467209801812
 31
0.0
  0
ARC
  5
1473E
330
747D
100
AcDbEntity
  8
部品1
100
AcDbCircle
 10
11582.08701536356
 20
4234.285257744275
 30
0.0
 40
0.7
100
AcDbArc
 50
181.0932240292635
 51
260.1877540314845
  0
ARC
  5
1473F
330
747D
100
AcDbEntity
  8
部品1
100
AcDbCircle
 10
11577.31434176594
 20
4327.151035944396
 30
0.0
 40
0.7
100
AcDbArc
 50
181.0932240292114
 51
260.1877540314845
  0
ARC
  5
14740
330
747D
100
AcDbEntity
  8
部品1
100
AcDbCircle
 10
11576.68378736292
 20
4323.505161406997
 30
0.0
 40
3.0
100
AcDbArc
 50
1.093224029315636
 51
80.18775403169875
  0
ARC
  5
14741
330
747D
100
AcDbEntity
  8
部品1
100
AcDbCircle
 10
11581.45646096053
 20
4230.639383206879
 30
0.0
 40
3.0
100
AcDbArc
 50
1.093224029315636
 51
80.18775403169875
  0
ARC
  5
14742
330
747D
100
AcDbEntity
  8
部品1
 48
50.0
100
AcDbCircle
 10
11591.65659333573
 20
4220.247139824397
 30
0.0
 40
7.0
100
AcDbArc
 50
181.0932240293156
 51
267.8377559869492
  0
ARC
  5
14743
330
747D
100
AcDbEntity
  8
部品1
 48
50.0
100
AcDbCircle
 10
11583.23293523363
 20
4347.198199357491
 30
0.0
 40
7.0
100
AcDbArc
 50
87.03587545283228
 51
181.0932240293156
  0
LINE
  5
14744
330
747D
100
AcDbEntity
  8
部品1
 48
50.0
100
AcDbLine
 10
11584.45591488696
 20
4230.696620810062
 30
0.0
 11
11584.65786750739
 21
4220.11358541697
 31
0.0
  0
LINE
  5
14745
330
747D
100
AcDbEntity
  8
細線
 48
50.0
100
AcDbLine
 10
11581.84982183029
 20
4233.626668928871
 30
0.0
 11
15171.85348626093
 21
4193.817349954377
 31
0.0
  0
LINE
  5
14746
330
747D
100
AcDbEntity
  8
細線
 48
50.0
100
AcDbLine
 10
11577.089346593
 20
4326.488180626733
 30
0.0
 11
15182.72533133817
 21
4270.863975985906
 31
0.0
  0
LINE
  5
14747
330
747D
100
AcDbEntity
  8
部品1
 48
50.0
100
AcDbLine
 10
11579.68324128935
 20
4323.562399010181
 30
0.0
 11
11581.38714278072
 21
4234.271902303535
 31
0.0
  0
LINE
  5
14748
330
747D
100
AcDbEntity
  8
部品1
 48
50.0
100
AcDbLine
 10
11576.23420940529
 20
4347.064644950065
 30
0.0
 11
11576.61446918311
 21
4327.137680503652
 31
0.0
  0
LINE
  5
14749
330
747D
100
AcDbEntity
  8
細線
 48
50.0
100
AcDbLine
 10
15153.01920668588
 20
4299.624521264842
 30
0.0
 11
15148.30224060419
 21
4174.692305329926
 31
0.0
  0
LINE
  5
1474A
330
747D
100
AcDbEntity
  8
細線
 48
50.0
100
AcDbLine
 10
11609.04992349219
 20
4352.870775160776
 30
0.0
 11
11603.76082193668
 21
4212.785142533422
 31
0.0
  0
LINE
  5
1474B
330
747D
100
AcDbEntity
  8
部品1
100
AcDbLine
 10
11591.39248809414
 20
4213.252123854339
 30
0.0
 11
15160.71362403204
 21
4174.223698620135
 31
0.0
  0
LINE
  5
1474C
330
747D
100
AcDbEntity
  8
部品1
100
AcDbLine
 10
11583.59490984915
 20
4354.188834119638
 30
0.0
 11
15178.66180035365
 21
4299.111896494513
 31
0.0
  0
LINE
  5
1474D
330
747D
100
AcDbEntity
  8
部品1
 48
50.0
100
AcDbLine
 10
13231.04992349219
 20
4479.357427789528
 30
0.0
 11
13531.04992349219
 21
4479.357427789528
 31
0.0
  0
LINE
  5
1474E
330
747D
100
AcDbEntity
  8
部品1
 48
50.0
100
AcDbLine
 10
13531.04992349219
 20
4479.357427789528
 30
0.0
 11
13531.04992349219
 21
4463.15742778953
 31
0.0
  0
TEXT
  5
1474F
330
747D
100
AcDbEntity
  8
部品1
 48
50.0
100
AcDbText
 10
13219.31775871591
 20
4515.241449941961
 30
0.0
 40
120.0
  1
1000
  7
STYLE1
100
AcDbText
  0
TEXT
  5
14750
330
747D
100
AcDbEntity
  8
部品1
 48
50.0
100
AcDbText
 10
13696.950781381
 20
4377.740191723678
 30
0.0
 40
120.0
  1
28
 50
90.0
  7
STYLE1
100
AcDbText
  0
LINE
  5
14751
330
747D
100
AcDbEntity
  8
細線
 48
50.0
100
AcDbLine
 10
13028.54992349219
 20
4120.471098785372
 30
0.0
 11
13028.54992349219
 21
2030.471098785373
 31
0.0
  0
LINE
  5
14752
330
747D
100
AcDbEntity
  8
細線
 48
50.0
100
AcDbLine
 10
13013.54992349219
 20
4120.471098785372
 30
0.0
 11
13013.54992349219
 21
2030.471098785373
 31
0.0
  0
LINE
  5
14753
330
747D
100
AcDbEntity
  8
細線
 48
50.0
100
AcDbLine
 10
13153.54992349219
 20
4120.471098785372
 30
0.0
 11
13153.54992349219
 21
2030.471098785373
 31
0.0
  0
LINE
  5
14754
330
747D
100
AcDbEntity
  8
細線
 48
50.0
100
AcDbLine
 10
13168.54992349219
 20
4120.471098785372
 30
0.0
 11
13168.54992349219
 21
2030.471098785373
 31
0.0
  0
LINE
  5
14755
330
747D
100
AcDbEntity
  8
細線
 48
50.0
100
AcDbLine
 10
13308.54992349219
 20
4120.471098785372
 30
0.0
 11
13308.54992349219
 21
2030.471098785373
 31
0.0
  0
LINE
  5
14756
330
747D
100
AcDbEntity
  8
細線
 48
50.0
100
AcDbLine
 10
13293.54992349219
 20
4120.471098785372
 30
0.0
 11
13293.54992349219
 21
2030.471098785373
 31
0.0
  0
LINE
  5
14757
330
747D
100
AcDbEntity
  8
部品1
100
AcDbLine
 10
15051.04992349218
 20
4120.471098785375
 30
0.0
 11
15051.04992349218
 21
2030.471098785376
 31
0.0
  0
LINE
  5
14758
330
747D
100
AcDbEntity
  8
部品1
100
AcDbLine
 10
11636.04992349219
 20
4120.471098785372
 30
0.0
 11
15106.04992349218
 21
4120.471098785372
 31
0.0
  0
LINE
  5
14759
330
747D
100
AcDbEntity
  8
部品1
100
AcDbLine
 10
11636.04992349219
 20
2030.471098785373
 30
0.0
 11
15106.04992349219
 21
2030.471098785374
 31
0.0
  0
LINE
  5
1475A
330
747D
100
AcDbEntity
  8
部品1
100
AcDbLine
 10
11691.04992349219
 20
4120.471098785372
 30
0.0
 11
11691.04992349219
 21
2030.471098785373
 31
0.0
  0
LINE
  5
1475B
330
747D
100
AcDbEntity
  8
部品1
100
AcDbLine
 10
11636.04992349219
 20
4212.61353671425
 30
0.0
 11
11636.04992349219
 21
1880.471098785372
 31
0.0
  0
DIMENSION
  5
1475C
330
747D
100
AcDbEntity
  8
寸法
100
AcDbDimension
  2
*D21
 10
10792.29979430893
 20
1980.471098785368
 30
0.0
 11
10792.29979430893
 21
1674.423854690877
 31
0.0
 70
   160
 71
     5
 42
50.00000000000454
  3
INABA_S40G
100
AcDbAlignedDimension
 13
11636.04992349219
 23
2030.471098785373
 33
0.0
 14
11559.04992349219
 24
1980.471098785368
 34
0.0
 50
90.0
100
AcDbRotatedDimension
1001
ACAD
1000
DSTYLE
1002
{
1070
   174
1070
     0
1070
   272
1070
     1
1070
   288
1070
     0
1070
   341
1005
0
1002
}
  0
LINE
  5
1475D
330
747D
100
AcDbEntity
  8
部品1
100
AcDbLine
 10
12111.04992349219
 20
4120.471098785372
 30
0.0
 11
12111.04992349219
 21
2030.471098785373
 31
0.0
  0
LINE
  5
1475E
330
747D
100
AcDbEntity
  8
部品1
100
AcDbLine
 10
15106.04992349219
 20
4174.901126566492
 30
0.0
 11
15106.04992349219
 21
1880.471098785374
 31
0.0
  0
LINE
  5
1475F
330
747D
100
AcDbEntity
  8
部品1
100
AcDbLine
 10
15051.04992349219
 20
4120.471098785374
 30
0.0
 11
15051.04992349219
 21
2030.471098785374
 31
0.0
  0
DIMENSION
  5
14760
330
747D
100
AcDbEntity
  8
寸法
 48
50.0
100
AcDbDimension
  2
*D22
 10
11636.04992349219
 20
4754.128552364679
 30
0.0
 11
13371.04992349219
 21
4754.128552364679
 31
0.0
 70
   160
  1
柱外寸法<>
 71
     5
 42
3469.999999999997
  3
INABA_S40G
100
AcDbAlignedDimension
 13
15106.04992349218
 23
4302.281778397027
 33
0.0
 14
11636.04992349219
 24
4351.472716908349
 34
0.0
100
AcDbRotatedDimension
1001
ACAD
1000
DSTYLE
1002
{
1070
   174
1070
     0
1070
   272
1070
     1
1070
   288
1070
     0
1070
   341
1005
0
1002
}
  0
DIMENSION
  5
14761
330
747D
100
AcDbEntity
  8
寸法
 48
50.0
100
AcDbDimension
  2
*D23
 10
11576.04992349219
 20
4754.128552364676
 30
0.0
 11
11266.4121282166
 21
4754.128552364676
 31
0.0
 70
   160
 71
     5
 42
60.0
  3
INABA_S40G
100
AcDbAlignedDimension
 13
11636.04992349219
 23
4351.472716908349
 33
0.0
 14
11576.04992349219
 24
4355.471098785376
 34
0.0
100
AcDbRotatedDimension
1001
ACAD
1000
DSTYLE
1002
{
1070
   174
1070
     0
1070
   272
1070
     1
1070
   288
1070
     0
1070
   341
1005
0
1002
}
  0
DIMENSION
  5
14762
330
747D
100
AcDbEntity
  8
寸法
 48
50.0
100
AcDbDimension
  2
*D24
 10
11576.04992349219
 20
4984.242145150954
 30
0.0
 11
13381.04992349219
 21
4984.242145150954
 31
0.0
 70
   160
 71
     5
 42
3609.999999999997
  3
INABA_S40G
100
AcDbAlignedDimension
 13
15186.04992349218
 23
4300.471098785374
 33
0.0
 14
11576.04992349219
 24
4355.471098785376
 34
0.0
100
AcDbRotatedDimension
1001
ACAD
1000
DSTYLE
1002
{
1070
   174
1070
     0
1070
   272
1070
     1
1070
   288
1070
     0
1070
   341
1005
0
1002
}
  0
LINE
  5
14763
330
747D
100
AcDbEntity
  8
部品1
100
AcDbLine
 10
11636.04992349219
 20
1980.471098785372
 30
0.0
 11
15106.04992349219
 21
1980.471098785372
 31
0.0
  0
LINE
  5
14764
330
747D
100
AcDbEntity
  8
細線
 48
50.0
100
AcDbLine
 10
12188.54992349219
 20
4120.471098785372
 30
0.0
 11
12188.54992349219
 21
2030.471098785373
 31
0.0
  0
LINE
  5
14765
330
747D
100
AcDbEntity
  8
細線
 48
50.0
100
AcDbLine
 10
12173.54992349219
 20
4120.471098785372
 30
0.0
 11
12173.54992349219
 21
2030.471098785373
 31
0.0
  0
LINE
  5
14766
330
747D
100
AcDbEntity
  8
細線
 48
50.0
100
AcDbLine
 10
12313.54992349219
 20
4120.471098785372
 30
0.0
 11
12313.54992349219
 21
2030.471098785373
 31
0.0
  0
LINE
  5
14767
330
747D
100
AcDbEntity
  8
細線
 48
50.0
100
AcDbLine
 10
12328.54992349219
 20
4120.471098785372
 30
0.0
 11
12328.54992349219
 21
2030.471098785373
 31
0.0
  0
LINE
  5
14768
330
747D
100
AcDbEntity
  8
細線
 48
50.0
100
AcDbLine
 10
12468.54992349219
 20
4120.471098785372
 30
0.0
 11
12468.54992349219
 21
2030.471098785373
 31
0.0
  0
LINE
  5
14769
330
747D
100
AcDbEntity
  8
細線
 48
50.0
100
AcDbLine
 10
12453.54992349219
 20
4120.471098785372
 30
0.0
 11
12453.54992349219
 21
2030.471098785373
 31
0.0
  0
LINE
  5
1476A
330
747D
100
AcDbEntity
  8
細線
 48
50.0
100
AcDbLine
 10
12033.54992349219
 20
4120.471098785372
 30
0.0
 11
12033.54992349219
 21
2030.471098785373
 31
0.0
  0
LINE
  5
1476B
330
747D
100
AcDbEntity
  8
細線
 48
50.0
100
AcDbLine
 10
12048.54992349219
 20
4120.471098785372
 30
0.0
 11
12048.54992349219
 21
2030.471098785373
 31
0.0
  0
LINE
  5
1476C
330
747D
100
AcDbEntity
  8
細線
 48
50.0
100
AcDbLine
 10
11908.54992349219
 20
4120.471098785372
 30
0.0
 11
11908.54992349219
 21
2030.471098785373
 31
0.0
  0
LINE
  5
1476D
330
747D
100
AcDbEntity
  8
細線
 48
50.0
100
AcDbLine
 10
11893.54992349219
 20
4120.471098785372
 30
0.0
 11
11893.54992349219
 21
2030.471098785373
 31
0.0
  0
LINE
  5
1476E
330
747D
100
AcDbEntity
  8
細線
 48
50.0
100
AcDbLine
 10
11753.54992349219
 20
4120.471098785372
 30
0.0
 11
11753.54992349219
 21
2030.471098785373
 31
0.0
  0
LINE
  5
1476F
330
747D
100
AcDbEntity
  8
細線
 48
50.0
100
AcDbLine
 10
11768.54992349219
 20
4120.471098785372
 30
0.0
 11
11768.54992349219
 21
2030.471098785373
 31
0.0
  0
DIMENSION
  5
14770
330
747D
100
AcDbEntity
  8
寸法
 48
50.0
100
AcDbDimension
  2
*D25
 10
15186.04992349218
 20
4754.128552364679
 30
0.0
 11
15392.09716758668
 21
4754.128552364679
 31
0.0
 70
   160
 71
     5
 42
80.0
  3
INABA_S40G
100
AcDbAlignedDimension
 13
15106.04992349218
 23
4302.281778397027
 33
0.0
 14
15186.04992349218
 24
4300.471098785376
 34
0.0
100
AcDbRotatedDimension
1001
ACAD
1000
DSTYLE
1002
{
1070
   174
1070
     0
1070
   272
1070
     1
1070
   288
1070
     0
1070
   341
1005
0
1002
}
  0
LINE
  5
14771
330
747D
100
AcDbEntity
  8
部品1
100
AcDbLine
 10
12531.04992349219
 20
4120.471098785372
 30
0.0
 11
12531.04992349219
 21
2030.471098785373
 31
0.0
  0
LINE
  5
14772
330
747D
100
AcDbEntity
  8
細線
 48
50.0
100
AcDbLine
 10
12873.54992349219
 20
4120.471098785372
 30
0.0
 11
12873.54992349219
 21
2030.471098785373
 31
0.0
  0
LINE
  5
14773
330
747D
100
AcDbEntity
  8
細線
 48
50.0
100
AcDbLine
 10
12888.54992349219
 20
4120.471098785372
 30
0.0
 11
12888.54992349219
 21
2030.471098785373
 31
0.0
  0
LINE
  5
14774
330
747D
100
AcDbEntity
  8
細線
 48
50.0
100
AcDbLine
 10
12748.54992349219
 20
4120.471098785372
 30
0.0
 11
12748.54992349219
 21
2030.471098785373
 31
0.0
  0
LINE
  5
14775
330
747D
100
AcDbEntity
  8
細線
 48
50.0
100
AcDbLine
 10
12733.54992349219
 20
4120.471098785372
 30
0.0
 11
12733.54992349219
 21
2030.471098785373
 31
0.0
  0
LINE
  5
14776
330
747D
100
AcDbEntity
  8
細線
 48
50.0
100
AcDbLine
 10
12593.54992349219
 20
4120.471098785372
 30
0.0
 11
12593.54992349219
 21
2030.471098785373
 31
0.0
  0
LINE
  5
14777
330
747D
100
AcDbEntity
  8
細線
 48
50.0
100
AcDbLine
 10
12608.54992349219
 20
4120.471098785372
 30
0.0
 11
12608.54992349219
 21
2030.471098785373
 31
0.0
  0
LINE
  5
14778
330
747D
100
AcDbEntity
  8
部品1
100
AcDbLine
 10
12951.04992349219
 20
4120.471098785372
 30
0.0
 11
12951.04992349219
 21
2030.471098785373
 31
0.0
  0
DIMENSION
  5
14779
330
747D
100
AcDbEntity
  8
寸法
 48
50.0
100
AcDbDimension
  2
*D26
 10
11015.44151672381
 20
4229.816357658703
 30
0.0
 11
11026.10699198274
 21
4600.663020900402
 31
0.0
 70
   161
 71
     5
 42
141.0
  3
INABA_S40G
100
AcDbAlignedDimension
 13
11595.44594365077
 23
4354.193847620051
 33
0.0
 14
11591.39248809414
 24
4213.252123854339
 34
0.0
1001
ACAD
1000
DSTYLE
1002
{
1070
   174
1070
     0
1070
   272
1070
     1
1070
   288
1070
     0
1070
   341
1005
0
1002
}
  0
LINE
  5
1477A
330
747D
100
AcDbEntity
  8
部品1
100
AcDbLine
 10
13791.04992349218
 20
4120.471098785372
 30
0.0
 11
13791.04992349218
 21
2030.471098785374
 31
0.0
  0
LINE
  5
1477B
330
747D
100
AcDbEntity
  8
細線
 48
50.0
100
AcDbLine
 10
13868.54992349218
 20
4120.471098785372
 30
0.0
 11
13868.54992349219
 21
2030.471098785374
 31
0.0
  0
LINE
  5
1477C
330
747D
100
AcDbEntity
  8
細線
 48
50.0
100
AcDbLine
 10
13853.54992349219
 20
4120.471098785372
 30
0.0
 11
13853.54992349219
 21
2030.471098785374
 31
0.0
  0
LINE
  5
1477D
330
747D
100
AcDbEntity
  8
細線
 48
50.0
100
AcDbLine
 10
13993.54992349219
 20
4120.471098785372
 30
0.0
 11
13993.54992349219
 21
2030.471098785374
 31
0.0
  0
LINE
  5
1477E
330
747D
100
AcDbEntity
  8
細線
 48
50.0
100
AcDbLine
 10
14008.54992349218
 20
4120.471098785372
 30
0.0
 11
14008.54992349219
 21
2030.471098785374
 31
0.0
  0
LINE
  5
1477F
330
747D
100
AcDbEntity
  8
細線
 48
50.0
100
AcDbLine
 10
14148.54992349219
 20
4120.471098785372
 30
0.0
 11
14148.54992349219
 21
2030.471098785374
 31
0.0
  0
LINE
  5
14780
330
747D
100
AcDbEntity
  8
細線
 48
50.0
100
AcDbLine
 10
14133.54992349218
 20
4120.471098785372
 30
0.0
 11
14133.54992349218
 21
2030.471098785374
 31
0.0
  0
LINE
  5
14781
330
747D
100
AcDbEntity
  8
部品1
100
AcDbLine
 10
14211.04992349218
 20
4120.471098785374
 30
0.0
 11
14211.04992349218
 21
2030.471098785376
 31
0.0
  0
LINE
  5
14782
330
747D
100
AcDbEntity
  8
細線
 48
50.0
100
AcDbLine
 10
14973.54992349218
 20
4120.471098785374
 30
0.0
 11
14973.54992349218
 21
2030.471098785376
 31
0.0
  0
LINE
  5
14783
330
747D
100
AcDbEntity
  8
細線
 48
50.0
100
AcDbLine
 10
14988.54992349218
 20
4120.471098785374
 30
0.0
 11
14988.54992349218
 21
2030.471098785376
 31
0.0
  0
LINE
  5
14784
330
747D
100
AcDbEntity
  8
細線
 48
50.0
100
AcDbLine
 10
14848.54992349218
 20
4120.471098785374
 30
0.0
 11
14848.54992349218
 21
2030.471098785376
 31
0.0
  0
LINE
  5
14785
330
747D
100
AcDbEntity
  8
細線
 48
50.0
100
AcDbLine
 10
14833.54992349218
 20
4120.471098785374
 30
0.0
 11
14833.54992349218
 21
2030.471098785376
 31
0.0
  0
LINE
  5
14786
330
747D
100
AcDbEntity
  8
細線
 48
50.0
100
AcDbLine
 10
14693.54992349218
 20
4120.471098785374
 30
0.0
 11
14693.54992349218
 21
2030.471098785376
 31
0.0
  0
LINE
  5
14787
330
747D
100
AcDbEntity
  8
細線
 48
50.0
100
AcDbLine
 10
14708.54992349218
 20
4120.471098785374
 30
0.0
 11
14708.54992349218
 21
2030.471098785376
 31
0.0
  0
LINE
  5
14788
330
747D
100
AcDbEntity
  8
部品1
100
AcDbLine
 10
14631.04992349217
 20
4120.471098785374
 30
0.0
 11
14631.04992349217
 21
2030.471098785376
 31
0.0
  0
LINE
  5
14789
330
747D
100
AcDbEntity
  8
細線
 48
50.0
100
AcDbLine
 10
14288.54992349218
 20
4120.471098785374
 30
0.0
 11
14288.54992349219
 21
2030.471098785376
 31
0.0
  0
LINE
  5
1478A
330
747D
100
AcDbEntity
  8
細線
 48
50.0
100
AcDbLine
 10
14273.54992349218
 20
4120.471098785374
 30
0.0
 11
14273.54992349219
 21
2030.471098785376
 31
0.0
  0
LINE
  5
1478B
330
747D
100
AcDbEntity
  8
細線
 48
50.0
100
AcDbLine
 10
14413.54992349218
 20
4120.471098785374
 30
0.0
 11
14413.54992349219
 21
2030.471098785376
 31
0.0
  0
LINE
  5
1478C
330
747D
100
AcDbEntity
  8
細線
 48
50.0
100
AcDbLine
 10
14428.54992349218
 20
4120.471098785374
 30
0.0
 11
14428.54992349219
 21
2030.471098785376
 31
0.0
  0
LINE
  5
1478D
330
747D
100
AcDbEntity
  8
細線
 48
50.0
100
AcDbLine
 10
14568.54992349218
 20
4120.471098785374
 30
0.0
 11
14568.54992349219
 21
2030.471098785376
 31
0.0
  0
LINE
  5
1478E
330
747D
100
AcDbEntity
  8
細線
 48
50.0
100
AcDbLine
 10
14553.54992349218
 20
4120.471098785374
 30
0.0
 11
14553.54992349219
 21
2030.471098785376
 31
0.0
  0
LINE
  5
14DC5
330
747D
100
AcDbEntity
  8
寸法
 48
50.0
100
AcDbLine
 10
3409.898521630371
 20
6735.128977252554
 30
0.0
 11
3358.492513720268
 21
6735.128977252554
 31
0.0
  0
LINE
  5
14DC6
330
747D
100
AcDbEntity
  8
寸法
 48
50.0
100
AcDbLine
 10
3358.492513720268
 20
6735.128977252554
 30
0.0
 11
3358.492513720268
 21
6766.43913590472
 31
0.0
  0
LINE
  5
14DC7
330
747D
100
AcDbEntity
  8
寸法
 48
50.0
100
AcDbLine
 10
3358.492513720268
 20
6766.43913590472
 30
0.0
 11
3328.731181728844
 21
6766.43913590472
 31
0.0
  0
LINE
  5
14DC8
330
747D
100
AcDbEntity
  8
寸法
 48
50.0
100
AcDbLine
 10
3328.731181728844
 20
6766.43913590472
 30
0.0
 11
3384.195517675319
 21
6804.018586833329
 31
0.0
  0
LINE
  5
14DC9
330
747D
100
AcDbEntity
  8
寸法
 48
50.0
100
AcDbLine
 10
3439.659853621794
 20
6766.43913590472
 30
0.0
 11
3384.195517675319
 21
6804.018586833329
 31
0.0
  0
LINE
  5
14DCA
330
747D
100
AcDbEntity
  8
寸法
 48
50.0
100
AcDbLine
 10
3409.898521630371
 20
6766.43913590472
 30
0.0
 11
3439.659853621794
 21
6766.43913590472
 31
0.0
  0
LINE
  5
14DCB
330
747D
100
AcDbEntity
  8
寸法
 48
50.0
100
AcDbLine
 10
3409.898521630371
 20
6735.128977252554
 30
0.0
 11
3409.898521630371
 21
6766.43913590472
 31
0.0
  0
LINE
  5
14DCC
330
747D
100
AcDbEntity
  8
寸法
 48
50.0
100
AcDbLine
 10
3358.492513720268
 20
6735.128977252554
 30
0.0
 11
3409.898521630371
 21
6735.128977252554
 31
0.0
  0
LINE
  5
14DCD
330
747D
100
AcDbEntity
  8
寸法
 48
50.0
100
AcDbLine
 10
3689.064055907228
 20
6792.274568007377
 30
0.0
 11
3689.064055907228
 21
6738.610933425587
 31
0.0
  0
LINE
  5
14DCE
330
747D
100
AcDbEntity
  8
寸法
 48
50.0
100
AcDbLine
 10
3778.34827450265
 20
6768.350933737891
 30
0.0
 11
3689.064055907228
 21
6792.274568007377
 31
0.0
  0
LINE
  5
14DCF
330
747D
100
AcDbEntity
  8
寸法
 48
50.0
100
AcDbLine
 10
3559.196334326924
 20
6768.350933737891
 30
0.0
 11
3778.34827450265
 21
6768.350933737891
 31
0.0
  0
LINE
  5
14DD0
330
747D
100
AcDbEntity
  8
細線
 48
50.0
100
AcDbLine
 10
4435.69551534853
 20
6933.592340632417
 30
0.0
 11
5062.695515348526
 21
6933.592340632417
 31
0.0
  0
LINE
  5
14DD1
330
747D
100
AcDbEntity
  8
細線
 48
50.0
100
AcDbLine
 10
3781.695520002116
 20
6899.883572078341
 30
0.0
 11
5062.695515348526
 21
6899.883572078341
 31
0.0
  0
LINE
  5
14DD2
330
747D
100
AcDbEntity
  8
細線
 48
50.0
100
AcDbLine
 10
3740.69552000212
 20
6929.288480074593
 30
0.0
 11
2986.695515348526
 21
6929.288480074591
 31
0.0
  0
LINE
  5
14DD3
330
747D
100
AcDbEntity
  8
細線
100
AcDbLine
 10
4838.44550593207
 20
6953.092240597425
 30
0.0
 11
4840.777045453878
 21
6958.092243237387
 31
0.0
  0
LINE
  5
14DD4
330
747D
100
AcDbEntity
  8
細線
100
AcDbLine
 10
4908.445515348527
 20
6953.092225683692
 30
0.0
 11
4906.11396887234
 21
6958.092243237373
 31
0.0
  0
LINE
  5
14DD5
330
747D
100
AcDbEntity
  8
細線
100
AcDbLine
 10
4906.11396887234
 20
6958.092243237373
 30
0.0
 11
4840.777045453864
 21
6958.092243237357
 31
0.0
  0
LINE
  5
14DD6
330
747D
100
AcDbEntity
  8
細線
100
AcDbLine
 10
4766.113968872339
 20
6958.092243237373
 30
0.0
 11
4700.777045453864
 21
6958.092243237357
 31
0.0
  0
LINE
  5
14DD7
330
747D
100
AcDbEntity
  8
細線
100
AcDbLine
 10
4768.445515348527
 20
6953.092225683692
 30
0.0
 11
4766.113968872339
 21
6958.092243237373
 31
0.0
  0
LINE
  5
14DD8
330
747D
100
AcDbEntity
  8
細線
100
AcDbLine
 10
4698.445505932069
 20
6953.092240597425
 30
0.0
 11
4700.777045453878
 21
6958.092243237387
 31
0.0
  0
LINE
  5
14DD9
330
747D
100
AcDbEntity
  8
細線
100
AcDbLine
 10
4558.445515348527
 20
6953.092225683692
 30
0.0
 11
4560.777054870339
 21
6958.092228323652
 31
0.0
  0
LINE
  5
14DDA
330
747D
100
AcDbEntity
  8
細線
100
AcDbLine
 10
4628.445524764987
 20
6953.092210769956
 30
0.0
 11
4626.113978288796
 21
6958.092228323637
 31
0.0
  0
LINE
  5
14DDB
330
747D
100
AcDbEntity
  8
細線
100
AcDbLine
 10
4626.1139782888
 20
6958.092228323637
 30
0.0
 11
4560.777054870325
 21
6958.092228323623
 31
0.0
  0
LINE
  5
14DDC
330
747D
100
AcDbEntity
  8
細線
100
AcDbLine
 10
4330.863999537633
 20
6924.09226502102
 30
0.0
 11
4265.527076119158
 21
6924.092265021005
 31
0.0
  0
LINE
  5
14DDD
330
747D
100
AcDbEntity
  8
細線
100
AcDbLine
 10
4333.19554601382
 20
6919.092247467339
 30
0.0
 11
4330.863999537633
 21
6924.09226502102
 31
0.0
  0
LINE
  5
14DDE
330
747D
100
AcDbEntity
  8
細線
100
AcDbLine
 10
4263.195536597364
 20
6919.092262381074
 30
0.0
 11
4265.527076119172
 21
6924.092265021034
 31
0.0
  0
LINE
  5
14DDF
330
747D
100
AcDbEntity
  8
細線
 48
50.0
100
AcDbLine
 10
4104.57889459654
 20
6937.363088836772
 30
0.0
 11
4110.334412179208
 21
6919.092237546284
 31
0.0
  0
LINE
  5
14DE0
330
747D
100
AcDbEntity
  8
細線
 48
50.0
100
AcDbLine
 10
4093.65044611611
 20
6937.363088836772
 30
0.0
 11
4104.57889459654
 21
6937.363088836772
 31
0.0
  0
ARC
  5
14DE1
330
747D
100
AcDbEntity
  8
細線
 48
50.0
100
AcDbCircle
 10
4088.196090058788
 20
6938.863088836772
 30
0.0
 40
5.0
100
AcDbArc
 50
204.6243183521277
 51
335.3756816478722
  0
ARC
  5
14DE2
330
747D
100
AcDbEntity
  8
細線
 48
50.0
100
AcDbCircle
 10
4093.65044611611
 20
6936.363088836772
 30
0.0
 40
1.0
100
AcDbArc
 50
90.0
 51
155.3756816478722
  0
ARC
  5
14DE3
330
747D
100
AcDbEntity
  8
細線
 48
50.0
100
AcDbCircle
 10
4082.741734001473
 20
6936.363088836772
 30
0.0
 40
1.0
100
AcDbArc
 50
24.62431835212777
 51
90.0
  0
LINE
  5
14DE4
330
747D
100
AcDbEntity
  8
細線
 48
50.0
100
AcDbLine
 10
4071.81328552104
 20
6937.363088836772
 30
0.0
 11
4082.741734001473
 21
6937.363088836772
 31
0.0
  0
LINE
  5
14DE5
330
747D
100
AcDbEntity
  8
細線
 48
50.0
100
AcDbLine
 10
4066.057767938372
 20
6919.092237546277
 30
0.0
 11
4071.81328552104
 21
6937.363088836772
 31
0.0
  0
LINE
  5
14DE6
330
747D
100
AcDbEntity
  8
細線
100
AcDbLine
 10
4123.195537828404
 20
6919.092234912082
 30
0.0
 11
4125.527077350216
 21
6924.092237552042
 31
0.0
  0
LINE
  5
14DE7
330
747D
100
AcDbEntity
  8
細線
100
AcDbLine
 10
4193.195547244865
 20
6919.092219998347
 30
0.0
 11
4190.864000768675
 21
6924.092237552028
 31
0.0
  0
LINE
  5
14DE8
330
747D
100
AcDbEntity
  8
細線
100
AcDbLine
 10
4190.864000768675
 20
6924.092237552028
 30
0.0
 11
4125.527077350202
 21
6924.092237552014
 31
0.0
  0
LINE
  5
14DE9
330
747D
100
AcDbEntity
  8
細線
100
AcDbLine
 10
4050.863972404157
 20
6924.092237546249
 30
0.0
 11
3985.527048985682
 21
6924.092237546235
 31
0.0
  0
LINE
  5
14DEA
330
747D
100
AcDbEntity
  8
細線
100
AcDbLine
 10
4053.195518880345
 20
6919.092219992568
 30
0.0
 11
4050.863972404157
 21
6924.092237546249
 31
0.0
  0
LINE
  5
14DEB
330
747D
100
AcDbEntity
  8
細線
100
AcDbLine
 10
3983.195510694929
 20
6919.092237546277
 30
0.0
 11
3985.527048985697
 21
6924.092237546263
 31
0.0
  0
LINE
  5
14DEC
330
747D
100
AcDbEntity
  8
細線
100
AcDbLine
 10
3843.19554601382
 20
6919.092245733647
 30
0.0
 11
3845.527084304588
 21
6924.092245733632
 31
0.0
  0
LINE
  5
14DED
330
747D
100
AcDbEntity
  8
細線
100
AcDbLine
 10
3913.195554199237
 20
6919.092228179938
 30
0.0
 11
3910.86400772305
 21
6924.092245733615
 31
0.0
  0
LINE
  5
14DEE
330
747D
100
AcDbEntity
  8
細線
100
AcDbLine
 10
3910.86400772305
 20
6924.092245733615
 30
0.0
 11
3845.527084304574
 21
6924.092245733604
 31
0.0
  0
LINE
  5
14DEF
330
747D
100
AcDbEntity
  8
細線
100
AcDbLine
 10
3471.6955118167
 20
6885.09241741436
 30
0.0
 11
3474.027050107468
 21
6890.092417414345
 31
0.0
  0
LINE
  5
14DF0
330
747D
100
AcDbEntity
  8
細線
100
AcDbLine
 10
3541.695520002116
 20
6885.092399860647
 30
0.0
 11
3539.363973525929
 21
6890.092417414324
 31
0.0
  0
LINE
  5
14DF1
330
747D
100
AcDbEntity
  8
細線
100
AcDbLine
 10
3539.363973525929
 20
6890.092417414324
 30
0.0
 11
3474.027050107457
 21
6890.092417414317
 31
0.0
  0
LINE
  5
14DF2
330
747D
100
AcDbEntity
  8
細線
100
AcDbLine
 10
3679.363973525929
 20
6890.092417414324
 30
0.0
 11
3614.027050107457
 21
6890.092417414317
 31
0.0
  0
LINE
  5
14DF3
330
747D
100
AcDbEntity
  8
細線
100
AcDbLine
 10
3681.695520002115
 20
6885.092399860647
 30
0.0
 11
3679.363973525929
 21
6890.092417414324
 31
0.0
  0
LINE
  5
14DF4
330
747D
100
AcDbEntity
  8
細線
100
AcDbLine
 10
3611.6955118167
 20
6885.09241741436
 30
0.0
 11
3614.027050107468
 21
6890.092417414345
 31
0.0
  0
LINE
  5
14DF5
330
747D
100
AcDbEntity
  8
細線
100
AcDbLine
 10
3399.363973525929
 20
6890.092417414324
 30
0.0
 11
3334.027050107457
 21
6890.092417414312
 31
0.0
  0
LINE
  5
14DF6
330
747D
100
AcDbEntity
  8
細線
100
AcDbLine
 10
3401.695520002116
 20
6885.092399860647
 30
0.0
 11
3399.363973525929
 21
6890.092417414324
 31
0.0
  0
LINE
  5
14DF7
330
747D
100
AcDbEntity
  8
細線
100
AcDbLine
 10
3331.6955118167
 20
6885.092417414357
 30
0.0
 11
3334.027050107468
 21
6890.092417414343
 31
0.0
  0
LINE
  5
14DF8
330
747D
100
AcDbEntity
  8
細線
100
AcDbLine
 10
3191.695520002116
 20
6885.09241741436
 30
0.0
 11
3194.027058292884
 21
6890.092417414345
 31
0.0
  0
LINE
  5
14DF9
330
747D
100
AcDbEntity
  8
細線
100
AcDbLine
 10
3261.695528187532
 20
6885.092399860647
 30
0.0
 11
3259.363981711344
 21
6890.092417414324
 31
0.0
  0
LINE
  5
14DFA
330
747D
100
AcDbEntity
  8
細線
100
AcDbLine
 10
3259.363981711344
 20
6890.092417414324
 30
0.0
 11
3194.027058292873
 21
6890.092417414317
 31
0.0
  0
ARC
  5
14DFB
330
747D
100
AcDbEntity
  8
部品1
 48
0.01
100
AcDbCircle
 10
3147.195408749781
 20
6884.091295229288
 30
0.0
 40
0.5
100
AcDbArc
 50
270.0
 51
0.0
  0
LINE
  5
14DFC
330
747D
100
AcDbEntity
  8
部品1
 48
0.01
100
AcDbLine
 10
3147.695408749781
 20
6885.091295229287
 30
0.0
 11
3147.695408749781
 21
6884.091295229288
 31
0.0
  0
LINE
  5
14DFD
330
747D
100
AcDbEntity
  8
部品1
 48
0.01
100
AcDbLine
 10
3147.695408749781
 20
6885.091295229287
 30
0.0
 11
3147.695408749781
 21
6884.091295229288
 31
0.0
  0
LINE
  5
14DFE
330
747D
100
AcDbEntity
  8
部品1
 48
0.01
100
AcDbLine
 10
3147.195408749781
 20
6883.591295229287
 30
0.0
 11
3140.582903319716
 21
6883.591295229287
 31
0.0
  0
ARC
  5
14DFF
330
747D
100
AcDbEntity
  8
部品1
100
AcDbCircle
 10
3140.651252872497
 20
6884.591295229288
 30
0.0
 40
1.0
100
AcDbArc
 50
160.5287793655822
 51
270.0
  0
ARC
  5
14E00
330
747D
100
AcDbEntity
  8
部品1
100
AcDbCircle
 10
3115.195408749781
 20
6893.591295229288
 30
0.0
 40
26.0
100
AcDbArc
 50
340.5287793655822
 51
0.0
  0
LINE
  5
14E01
330
747D
100
AcDbEntity
  8
部品1
100
AcDbLine
 10
3141.195408749781
 20
6893.591295229288
 30
0.0
 11
3141.195408749781
 21
6898.591295229287
 31
0.0
  0
ARC
  5
14E02
330
747D
100
AcDbEntity
  8
部品1
 48
0.01
100
AcDbCircle
 10
3139.195408749781
 20
6898.591295229287
 30
0.0
 40
2.0
100
AcDbArc
 50
0.0
 51
90.0
  0
ARC
  5
14E03
330
747D
100
AcDbEntity
  8
部品1
100
AcDbCircle
 10
3137.587017124971
 20
6897.591295229287
 30
0.0
 40
3.0
100
AcDbArc
 50
90.0
 51
141.6069559807873
  0
LINE
  5
14E04
330
747D
100
AcDbEntity
  8
部品1
 48
0.01
100
AcDbLine
 10
3139.195408749781
 20
6900.591295229287
 30
0.0
 11
3137.587017124971
 21
6900.591295229287
 31
0.0
  0
ARC
  5
14E05
330
747D
100
AcDbEntity
  8
部品1
100
AcDbCircle
 10
3119.12469453551
 20
6896.891295229291
 30
0.0
 40
3.0
100
AcDbArc
 50
254.0576313943215
 51
270.0
  0
ARC
  5
14E06
330
747D
100
AcDbEntity
  8
部品1
100
AcDbCircle
 10
3126.266122964052
 20
6896.891295229291
 30
0.0
 40
3.0
100
AcDbArc
 50
270.0
 51
285.9423686056786
  0
LINE
  5
14E07
330
747D
100
AcDbEntity
  8
部品1
100
AcDbLine
 10
3126.266122964052
 20
6893.891295229291
 30
0.0
 11
3119.12469453551
 21
6893.891295229291
 31
0.0
  0
ARC
  5
14E08
330
747D
100
AcDbEntity
  8
部品1
100
AcDbCircle
 10
3122.695408749781
 20
6909.391295229291
 30
0.0
 40
16.0
100
AcDbArc
 50
285.9423686056786
 51
321.6069559807873
  0
LINE
  5
14E09
330
747D
100
AcDbEntity
  8
部品1
 48
0.01
100
AcDbLine
 10
3106.195408749781
 20
6900.591295229287
 30
0.0
 11
3107.803800374591
 21
6900.591295229287
 31
0.0
  0
ARC
  5
14E0A
330
747D
100
AcDbEntity
  8
部品1
100
AcDbCircle
 10
3107.803800374591
 20
6897.591295229287
 30
0.0
 40
3.0
100
AcDbArc
 50
38.39304401921267
 51
90.0
  0
ARC
  5
14E0B
330
747D
100
AcDbEntity
  8
部品1
100
AcDbCircle
 10
3122.695408749781
 20
6909.391295229291
 30
0.0
 40
16.0
100
AcDbArc
 50
218.3930440192126
 51
254.0576313943215
  0
LINE
  5
14E0C
330
747D
100
AcDbEntity
  8
部品1
100
AcDbLine
 10
3104.195408749781
 20
6893.591295229288
 30
0.0
 11
3104.195408749781
 21
6898.591295229287
 31
0.0
  0
ARC
  5
14E0D
330
747D
100
AcDbEntity
  8
部品1
 48
0.01
100
AcDbCircle
 10
3106.195408749781
 20
6898.591295229287
 30
0.0
 40
2.0
100
AcDbArc
 50
90.0
 51
180.0
  0
ARC
  5
14E0E
330
747D
100
AcDbEntity
  8
部品1
100
AcDbCircle
 10
3130.195408749781
 20
6893.591295229288
 30
0.0
 40
26.0
100
AcDbArc
 50
180.0
 51
199.4712206344178
  0
ARC
  5
14E0F
330
747D
100
AcDbEntity
  8
部品1
 48
0.01
100
AcDbCircle
 10
3098.195408749781
 20
6884.091295229288
 30
0.0
 40
0.5
100
AcDbArc
 50
180.0
 51
270.0
  0
LINE
  5
14E10
330
747D
100
AcDbEntity
  8
部品1
 48
0.01
100
AcDbLine
 10
3098.195408749781
 20
6883.591295229287
 30
0.0
 11
3104.739564627065
 21
6883.591295229287
 31
0.0
  0
LINE
  5
14E11
330
747D
100
AcDbEntity
  8
部品1
 48
0.01
100
AcDbLine
 10
3097.69540874978
 20
6885.091295229287
 30
0.0
 11
3097.69540874978
 21
6884.091295229288
 31
0.0
  0
ARC
  5
14E12
330
747D
100
AcDbEntity
  8
部品1
100
AcDbCircle
 10
3104.739564627065
 20
6884.591295229288
 30
0.0
 40
1.0
100
AcDbArc
 50
270.0
 51
19.4712206344178
  0
LINE
  5
14E13
330
747D
100
AcDbEntity
  8
細線
100
AcDbLine
 10
3143.195408749788
 20
6903.091295229291
 30
0.0
 11
3102.195408749788
 21
6903.091295229284
 31
0.0
  0
LINE
  5
14E14
330
747D
100
AcDbEntity
  8
細線
100
AcDbLine
 10
3102.195408749788
 20
6903.091295229284
 30
0.0
 11
3102.195408749788
 21
6885.091295229265
 31
0.0
  0
LINE
  5
14E15
330
747D
100
AcDbEntity
  8
細線
100
AcDbLine
 10
3143.195408749788
 20
6903.091295229291
 30
0.0
 11
3143.195408749788
 21
6885.091295229265
 31
0.0
  0
LINE
  5
14E16
330
747D
100
AcDbEntity
  8
細線
100
AcDbLine
 10
2986.695515348526
 20
6889.092225683691
 30
0.0
 11
2986.695515348526
 21
6885.092225683739
 31
0.0
  0
DIMENSION
  5
14E17
330
747D
100
AcDbEntity
  8
寸法
 48
50.0
100
AcDbDimension
  2
*D27
 10
4252.695515348526
 20
6204.058955745582
 30
0.0
 11
3643.822979132209
 21
6204.058955745582
 31
0.0
 70
   160
  1
有効開口部間口\P<>
 71
     5
 42
1266.0
  3
INABA_S40
100
AcDbAlignedDimension
 13
2986.695515348526
 23
6880.092225683691
 33
0.0
 14
4252.695515348526
 24
6880.092225683691
 34
0.0
100
AcDbRotatedDimension
1001
ACAD
1000
DSTYLE
1002
{
1070
    41
1040
0.5
1070
    44
1040
1.0
1070
   147
1040
0.8
1070
   271
1070
     2
1070
   272
1070
     2
1070
   289
1070
     3
1070
   340
1005
F706
1070
   343
1005
F744
1070
   344
1005
F744
1002
}
  0
LINE
  5
14E18
330
747D
100
AcDbEntity
  8
部品1
100
AcDbLine
 10
5074.695515348526
 20
6957.092225683691
 30
0.0
 11
5101.695515348526
 21
6957.092225683691
 31
0.0
  0
LINE
  5
14E1A
330
747D
100
AcDbEntity
  8
部品1
100
AcDbLine
 10
5101.695515348526
 20
6880.092225683691
 30
0.0
 11
5101.695515348526
 21
6957.092225683691
 31
0.0
  0
LINE
  5
14E1B
330
747D
100
AcDbEntity
  8
部品1
100
AcDbLine
 10
5062.695515348526
 20
6953.092225683692
 30
0.0
 11
5074.695515348526
 21
6953.092225683692
 31
0.0
  0
LINE
  5
14E1C
330
747D
100
AcDbEntity
  8
部品1
100
AcDbLine
 10
5071.695515348526
 20
6889.092225683691
 30
0.0
 11
5071.695515348526
 21
6880.092225683691
 31
0.0
  0
LINE
  5
14E1D
330
747D
100
AcDbEntity
  8
部品1
100
AcDbLine
 10
5062.695515348526
 20
6889.092225683691
 30
0.0
 11
5071.695515348526
 21
6889.092225683691
 31
0.0
  0
LINE
  5
14E1E
330
747D
100
AcDbEntity
  8
部品1
100
AcDbLine
 10
5062.695515348526
 20
6953.092225683692
 30
0.0
 11
5062.695515348526
 21
6889.092225683691
 31
0.0
  0
LINE
  5
14E1F
330
747D
100
AcDbEntity
  8
部品1
100
AcDbLine
 10
5074.695515348526
 20
6984.092225683692
 30
0.0
 11
5074.695515348526
 21
6953.092225683692
 31
0.0
  0
LINE
  5
14E20
330
747D
100
AcDbEntity
  8
部品1
100
AcDbLine
 10
2986.695515348526
 20
6953.092225683692
 30
0.0
 11
2974.695515348526
 21
6953.092225683692
 31
0.0
  0
LINE
  5
14E21
330
747D
100
AcDbEntity
  8
部品1
100
AcDbLine
 10
2947.695515348526
 20
6957.092225683691
 30
0.0
 11
2974.695515348525
 21
6957.092225683691
 31
0.0
  0
LINE
  5
14E22
330
747D
100
AcDbEntity
  8
部品1
100
AcDbLine
 10
2977.695515348526
 20
6889.092225683691
 30
0.0
 11
2977.695515348526
 21
6880.092225683691
 31
0.0
  0
LINE
  5
14E23
330
747D
100
AcDbEntity
  8
部品1
100
AcDbLine
 10
2986.695515348526
 20
6889.092225683691
 30
0.0
 11
2977.695515348526
 21
6889.092225683691
 31
0.0
  0
LINE
  5
14E24
330
747D
100
AcDbEntity
  8
部品1
100
AcDbLine
 10
2977.695515348526
 20
6880.092225683691
 30
0.0
 11
2947.695515348526
 21
6880.092225683691
 31
0.0
  0
LINE
  5
14E25
330
747D
100
AcDbEntity
  8
部品1
100
AcDbLine
 10
2947.695515348526
 20
6880.092225683691
 30
0.0
 11
2947.695515348526
 21
6957.092225683691
 31
0.0
  0
LINE
  5
14E26
330
747D
100
AcDbEntity
  8
部品1
100
AcDbLine
 10
2986.695515348526
 20
6953.092225683692
 30
0.0
 11
2986.695515348526
 21
6889.092225683691
 31
0.0
  0
LINE
  5
14E27
330
747D
100
AcDbEntity
  8
部品1
100
AcDbLine
 10
2974.695515348525
 20
6984.092225683688
 30
0.0
 11
2974.695515348526
 21
6953.092225683692
 31
0.0
  0
LINE
  5
14E28
330
747D
100
AcDbEntity
  8
部品1
100
AcDbLine
 10
2974.695515348525
 20
6984.092225683688
 30
0.0
 11
5074.695515348526
 21
6984.092225683692
 31
0.0
  0
LINE
  5
14E29
330
747D
100
AcDbEntity
  8
部品1
100
AcDbLine
 10
5071.695515348526
 20
6880.092225683691
 30
0.0
 11
5101.695515348526
 21
6880.092225683691
 31
0.0
  0
LINE
  5
14E2A
330
747D
100
AcDbEntity
  8
部品1
100
AcDbLine
 10
2977.695515348526
 20
6880.092225683691
 30
0.0
 11
5074.695515348526
 21
6880.092225683691
 31
0.0
  0
LINE
  5
14E2B
330
747D
100
AcDbEntity
  8
細線
  6
Continuous
 62
     5
100
AcDbLine
 10
4353.695515348529
 20
6919.092225683687
 30
0.0
 11
4353.695515348529
 21
6919.092225683687
 31
0.0
  0
LINE
  5
14E2C
330
747D
100
AcDbEntity
  8
細線
  6
Continuous
 62
     5
100
AcDbLine
 10
4346.195550667421
 20
6919.092235604745
 30
0.0
 11
4346.195550667421
 21
6919.092235604745
 31
0.0
  0
LINE
  5
14E2D
330
747D
100
AcDbEntity
  8
細線
  6
Continuous
 62
     5
100
AcDbLine
 10
4340.195550667421
 20
6919.092235604745
 30
0.0
 11
4340.195550667421
 21
6919.092235604745
 31
0.0
  0
LINE
  5
14E2E
330
747D
100
AcDbEntity
  8
細線
  6
Continuous
 62
     5
100
AcDbLine
 10
4407.695515348529
 20
6938.092225683688
 30
0.0
 11
4407.695515348529
 21
6938.092225683688
 31
0.0
  0
LINE
  5
14E2F
330
747D
100
AcDbEntity
  8
細線
 48
50.0
100
AcDbLine
 10
3000.69552000212
 20
6905.692399860645
 30
0.0
 11
3000.69552000212
 21
6914.088550268285
 31
0.0
  0
LINE
  5
14E30
330
747D
100
AcDbEntity
  8
細線
 48
50.0
100
AcDbLine
 10
3000.69552000212
 20
6914.088550268285
 30
0.0
 11
2986.695515348526
 21
6914.088550268282
 31
0.0
  0
LINE
  5
14E31
330
747D
100
AcDbEntity
  8
細線
 48
50.0
100
AcDbLine
 10
3751.695520002116
 20
6902.242399860644
 30
0.0
 11
3751.695520002116
 21
6907.092399860648
 31
0.0
  0
LINE
  5
14E32
330
747D
100
AcDbEntity
  8
細線
 48
50.0
100
AcDbLine
 10
3751.695520002116
 20
6907.092399860648
 30
0.0
 11
3766.695520002116
 21
6907.092399860648
 31
0.0
  0
LINE
  5
14E33
330
747D
100
AcDbEntity
  8
細線
 48
50.0
100
AcDbLine
 10
3766.695520002116
 20
6907.092399860648
 30
0.0
 11
3766.695520002119
 21
6914.092399860646
 31
0.0
  0
LINE
  5
14E34
330
747D
100
AcDbEntity
  8
細線
 48
50.0
100
AcDbLine
 10
3766.695520002119
 20
6914.092399860646
 30
0.0
 11
3781.695520002116
 21
6914.092399860646
 31
0.0
  0
LINE
  5
14E35
330
747D
100
AcDbEntity
  8
細線
 48
50.0
100
AcDbLine
 10
3781.695520002116
 20
6914.092399860646
 30
0.0
 11
3781.695520002116
 21
6885.092399860647
 31
0.0
  0
LINE
  5
14E36
330
747D
100
AcDbEntity
  8
細線
 48
50.0
100
AcDbLine
 10
2977.695515348526
 20
6885.089734204115
 30
0.0
 11
3191.695520002116
 21
6885.09241741436
 31
0.0
  0
LINE
  5
14E37
330
747D
100
AcDbEntity
  8
細線
 48
50.0
100
AcDbLine
 10
3681.695520002115
 20
6885.092399860647
 30
0.0
 11
3781.695520002116
 21
6885.092399860647
 31
0.0
  0
LINE
  5
14E38
330
747D
100
AcDbEntity
  8
細線
 48
50.0
100
AcDbLine
 10
3401.695520002116
 20
6885.092399860647
 30
0.0
 11
3471.695520002116
 21
6885.092399860647
 31
0.0
  0
LINE
  5
14E39
330
747D
100
AcDbEntity
  8
細線
 48
50.0
100
AcDbLine
 10
3414.557485014646
 20
6885.092399860647
 30
0.0
 11
3420.313002597313
 21
6903.363251151141
 31
0.0
  0
LINE
  5
14E3A
330
747D
100
AcDbEntity
  8
細線
 48
50.0
100
AcDbLine
 10
3420.313002597313
 20
6903.363251151141
 30
0.0
 11
3431.241451077747
 21
6903.363251151137
 31
0.0
  0
ARC
  5
14E3B
330
747D
100
AcDbEntity
  8
細線
 48
50.0
100
AcDbCircle
 10
3431.241451077747
 20
6902.363251151136
 30
0.0
 40
1.0
100
AcDbArc
 50
24.62431835212777
 51
90.0
  0
ARC
  5
14E3C
330
747D
100
AcDbEntity
  8
細線
 48
50.0
100
AcDbCircle
 10
3442.15016319238
 20
6902.363251151136
 30
0.0
 40
1.0
100
AcDbArc
 50
90.0
 51
155.3756816478722
  0
ARC
  5
14E3D
330
747D
100
AcDbEntity
  8
細線
 48
50.0
100
AcDbCircle
 10
3436.695807135061
 20
6904.863251151137
 30
0.0
 40
5.0
100
AcDbArc
 50
204.6243183521277
 51
335.3756816478722
  0
LINE
  5
14E3E
330
747D
100
AcDbEntity
  8
細線
 48
50.0
100
AcDbLine
 10
3442.15016319238
 20
6903.363251151137
 30
0.0
 11
3453.078611672813
 21
6903.363251151141
 31
0.0
  0
LINE
  5
14E3F
330
747D
100
AcDbEntity
  8
細線
 48
50.0
100
AcDbLine
 10
3453.078611672813
 20
6903.363251151141
 30
0.0
 11
3458.834129255481
 21
6885.092399860647
 31
0.0
  0
LINE
  5
14E40
330
747D
100
AcDbEntity
  8
細線
 48
50.0
100
AcDbLine
 10
3751.695520002116
 20
6905.692399860645
 30
0.0
 11
3000.69552000212
 21
6905.692399860645
 31
0.0
  0
LINE
  5
14E41
330
747D
100
AcDbEntity
  8
細線
 48
50.0
100
AcDbLine
 10
3611.695520002116
 20
6885.092399860647
 30
0.0
 11
3541.695520002116
 21
6885.092399860647
 31
0.0
  0
LINE
  5
14E42
330
747D
100
AcDbEntity
  8
細線
100
AcDbLine
 10
3331.695520002116
 20
6885.092399860647
 30
0.0
 11
3261.695528187532
 21
6885.092399860647
 31
0.0
  0
LINE
  5
14E43
330
747D
100
AcDbEntity
  8
細線
 48
50.0
100
AcDbLine
 10
4405.69551069494
 20
6939.692443718513
 30
0.0
 11
3770.695520002116
 21
6939.69244371851
 31
0.0
  0
LINE
  5
14E44
330
747D
100
AcDbEntity
  8
細線
 48
50.0
100
AcDbLine
 10
3770.695520002116
 20
6936.588594126154
 30
0.0
 11
3770.695520002116
 21
6941.088594126153
 31
0.0
  0
LINE
  5
14E45
330
747D
100
AcDbEntity
  8
細線
 48
50.0
100
AcDbLine
 10
3770.695520002116
 20
6941.088594126153
 30
0.0
 11
3755.695520002116
 21
6941.088594126153
 31
0.0
  0
LINE
  5
14E46
330
747D
100
AcDbEntity
  8
細線
 48
50.0
100
AcDbLine
 10
3755.695520002116
 20
6941.088594126153
 30
0.0
 11
3755.695520002116
 21
6948.088594126153
 31
0.0
  0
LINE
  5
14E47
330
747D
100
AcDbEntity
  8
細線
 48
50.0
100
AcDbLine
 10
3755.695520002116
 20
6948.088594126153
 30
0.0
 11
3740.69552000212
 21
6948.088594126149
 31
0.0
  0
LINE
  5
14E48
330
747D
100
AcDbEntity
  8
細線
 48
50.0
100
AcDbLine
 10
3740.69552000212
 20
6948.088594126149
 30
0.0
 11
3740.69552000212
 21
6910.488366023038
 31
0.0
  0
LINE
  5
14E49
330
747D
100
AcDbEntity
  8
細線
 48
50.0
100
AcDbLine
 10
3740.69552000212
 20
6910.488366023038
 30
0.0
 11
3760.695527303292
 21
6910.48840757258
 31
0.0
  0
LINE
  5
14E4A
330
747D
100
AcDbEntity
  8
細線
 48
50.0
100
AcDbLine
 10
3760.69548243435
 20
6919.091869208388
 30
0.0
 11
3760.695527303292
 21
6910.48840757258
 31
0.0
  0
LINE
  5
14E4B
330
747D
100
AcDbEntity
  8
細線
 48
50.0
100
AcDbLine
 10
4405.69551069494
 20
6936.242443718512
 30
0.0
 11
4405.69551069494
 21
6941.092443718511
 31
0.0
  0
LINE
  5
14E4C
330
747D
100
AcDbEntity
  8
細線
 48
50.0
100
AcDbLine
 10
4405.69551069494
 20
6941.092443718511
 30
0.0
 11
4420.695510694936
 21
6941.092443718511
 31
0.0
  0
LINE
  5
14E4D
330
747D
100
AcDbEntity
  8
細線
 48
50.0
100
AcDbLine
 10
4420.695510694936
 20
6941.092443718511
 30
0.0
 11
4420.695522328911
 21
6948.092443718555
 31
0.0
  0
LINE
  5
14E4E
330
747D
100
AcDbEntity
  8
細線
 48
50.0
100
AcDbLine
 10
4420.695522328911
 20
6948.092443718555
 30
0.0
 11
4435.695520499442
 21
6948.092443718555
 31
0.0
  0
LINE
  5
14E4F
330
747D
100
AcDbEntity
  8
細線
 48
50.0
100
AcDbLine
 10
4435.695520499442
 20
6948.092443718555
 30
0.0
 11
4435.69551019762
 21
6919.092237546282
 31
0.0
  0
LINE
  5
14E50
330
747D
100
AcDbEntity
  8
細線
 48
50.0
100
AcDbLine
 10
4123.195537828404
 20
6919.092245733647
 30
0.0
 11
4053.195789910821
 21
6919.092240296309
 31
0.0
  0
LINE
  5
14E51
330
747D
100
AcDbEntity
  8
細線
 48
50.0
100
AcDbLine
 10
3760.69548243435
 20
6919.091869208388
 30
0.0
 11
3771.92817178906
 21
6919.092052161535
 31
0.0
  0
ARC
  5
14E52
330
747D
100
AcDbEntity
  8
細線
 48
50.0
100
AcDbCircle
 10
3778.510464096396
 20
6917.892216075149
 30
0.0
 40
1.8
100
AcDbArc
 50
270.0006665777295
 51
345.0005554812987
  0
LINE
  5
14E53
330
747D
100
AcDbEntity
  8
細線
 48
50.0
100
AcDbLine
 10
3780.496897542476
 20
6918.351056532427
 30
0.0
 11
3780.249135100277
 21
6917.42635865032
 31
0.0
  0
LINE
  5
14E54
330
747D
100
AcDbEntity
  8
細線
 48
50.0
100
AcDbLine
 10
3778.510485037551
 20
6916.092216075269
 30
0.0
 11
3774.880557618781
 21
6916.092173844788
 31
0.0
  0
ARC
  5
14E55
330
747D
100
AcDbEntity
  8
細線
 48
50.0
100
AcDbCircle
 10
3774.88053667763
 20
6917.892173844667
 30
0.0
 40
1.8
100
AcDbArc
 50
195.0010443049445
 51
270.0006665777295
  0
LINE
  5
14E56
330
747D
100
AcDbEntity
  8
細線
 48
50.0
100
AcDbLine
 10
3772.894109185371
 20
6918.350888812232
 30
0.0
 11
3773.141878681884
 21
6917.426267873651
 31
0.0
  0
ARC
  5
14E57
330
747D
100
AcDbEntity
  8
細線
 48
50.0
100
AcDbCircle
 10
3771.928188076623
 20
6918.09205216167
 30
0.0
 40
1.0
100
AcDbArc
 50
15.00104430494449
 51
90.00093320877969
  0
LINE
  5
14E58
330
747D
100
AcDbEntity
  8
細線
 48
50.0
100
AcDbLine
 10
3781.462818897578
 20
6919.09224685194
 30
0.0
 11
3782.404579048483
 21
6919.092253425789
 31
0.0
  0
ARC
  5
14E59
330
747D
100
AcDbEntity
  8
細線
 48
50.0
100
AcDbCircle
 10
3781.462825877965
 20
6918.092246851966
 30
0.0
 40
1.0
100
AcDbArc
 50
90.0003999466794
 51
165.0005554812987
  0
LINE
  5
14E5A
330
747D
100
AcDbEntity
  8
細線
 48
50.0
100
AcDbLine
 10
4333.195510694928
 20
6919.092237546282
 30
0.0
 11
4435.69551019762
 21
6919.092237546282
 31
0.0
  0
LINE
  5
14E5B
330
747D
100
AcDbEntity
  8
細線
 48
50.0
100
AcDbLine
 10
3843.19554601382
 20
6919.092245733647
 30
0.0
 11
3782.095484786901
 21
6919.092253425789
 31
0.0
  0
LINE
  5
14E5C
330
747D
100
AcDbEntity
  8
細線
 48
50.0
100
AcDbLine
 10
4263.195546013821
 20
6919.09228257473
 30
0.0
 11
4193.195539059434
 21
6919.092237552063
 31
0.0
  0
LINE
  5
14E5D
330
747D
100
AcDbEntity
  8
細線
 48
50.0
100
AcDbLine
 10
3983.195510694929
 20
6919.092237546277
 30
0.0
 11
3913.195493407054
 21
6919.092237546284
 31
0.0
  0
ARC
  5
14E5E
330
747D
100
AcDbEntity
  8
細線
 48
50.0
100
AcDbCircle
 10
4419.895515348538
 20
6952.292225683692
 30
0.0
 40
0.8
100
AcDbArc
 50
359.9997333689499
 51
89.99986668437072
  0
ARC
  5
14E5F
330
747D
100
AcDbEntity
  8
細線
 48
50.0
100
AcDbCircle
 10
4427.495522173631
 20
6952.292236852308
 30
0.0
 40
0.8
100
AcDbArc
 50
90.00014387753465
 51
179.9997333689498
  0
LINE
  5
14E60
330
747D
100
AcDbEntity
  8
細線
 48
50.0
100
AcDbLine
 10
4419.895517209972
 20
6953.092225683692
 30
0.0
 11
4414.695515348525
 21
6953.092225683692
 31
0.0
  0
ARC
  5
14E61
330
747D
100
AcDbEntity
  8
細線
 48
50.0
100
AcDbCircle
 10
4421.395515348526
 20
6950.792225683692
 30
0.0
 40
0.7
100
AcDbArc
 50
180.0
 51
270.0
  0
ARC
  5
14E62
330
747D
100
AcDbEntity
  8
細線
 48
50.0
100
AcDbCircle
 10
4425.995515348528
 20
6950.792225683692
 30
0.0
 40
0.7
100
AcDbArc
 50
270.0
 51
0.0
  0
LINE
  5
14E63
330
747D
100
AcDbEntity
  8
細線
 48
50.0
100
AcDbLine
 10
4426.695515348526
 20
6950.792225683692
 30
0.0
 11
4426.695522173644
 21
6952.29224057518
 31
0.0
  0
LINE
  5
14E64
330
747D
100
AcDbEntity
  8
細線
 48
50.0
100
AcDbLine
 10
4421.395515348526
 20
6950.092225683691
 30
0.0
 11
4425.995515348528
 21
6950.092225683691
 31
0.0
  0
LINE
  5
14E65
330
747D
100
AcDbEntity
  8
細線
 48
50.0
100
AcDbLine
 10
4420.695515348525
 20
6952.292225683692
 30
0.0
 11
4420.695515348525
 21
6950.792225683692
 31
0.0
  0
LINE
  5
14E66
330
747D
100
AcDbEntity
  8
細線
 48
50.0
100
AcDbLine
 10
5046.295515348532
 20
6983.092225683691
 30
0.0
 11
4409.695515348526
 21
6983.092225683687
 31
0.0
  0
LINE
  5
14E67
330
747D
100
AcDbEntity
  8
細線
 48
50.0
100
AcDbLine
 10
5072.195515348526
 20
6978.092225683695
 30
0.0
 11
5056.295515348532
 21
6978.092225683692
 31
0.0
  0
LINE
  5
14E68
330
747D
100
AcDbEntity
  8
細線
 48
50.0
100
AcDbLine
 10
5056.295515348528
 20
6978.092225683692
 30
0.0
 11
5046.295515348532
 21
6983.092225683691
 31
0.0
  0
LINE
  5
14E69
330
747D
100
AcDbEntity
  8
細線
100
AcDbLine
 10
4657.195515348527
 20
6953.092225683692
 30
0.0
 11
4657.195515348527
 21
6982.392225683691
 31
0.0
  0
LINE
  5
14E6A
330
747D
100
AcDbEntity
  8
細線
100
AcDbLine
 10
4657.195515348527
 20
6982.392225683691
 30
0.0
 11
4677.195515348527
 21
6982.392225683691
 31
0.0
  0
LINE
  5
14E6B
330
747D
100
AcDbEntity
  8
細線
100
AcDbLine
 10
4677.195515348527
 20
6953.092225683692
 30
0.0
 11
4677.195515348527
 21
6982.392225683691
 31
0.0
  0
LINE
  5
14E6C
330
747D
100
AcDbEntity
  8
細線
100
AcDbLine
 10
4838.445515348527
 20
6953.092225683692
 30
0.0
 11
4768.445515348527
 21
6953.092225683692
 31
0.0
  0
LINE
  5
14E6D
330
747D
100
AcDbEntity
  8
細線
 48
50.0
100
AcDbLine
 10
4558.445515348526
 20
6953.092225683692
 30
0.0
 11
4427.491294921369
 21
6953.092225683692
 31
0.0
  0
LINE
  5
14E6E
330
747D
100
AcDbEntity
  8
細線
100
AcDbLine
 10
4698.445515348526
 20
6953.092225683692
 30
0.0
 11
4628.445515348526
 21
6953.092225683692
 31
0.0
  0
LINE
  5
14E6F
330
747D
100
AcDbEntity
  8
細線
 48
50.0
100
AcDbLine
 10
4414.695515348525
 20
6945.092225683691
 30
0.0
 11
4414.695515348525
 21
6953.092225683692
 31
0.0
  0
LINE
  5
14E70
330
747D
100
AcDbEntity
  8
細線
 48
50.0
100
AcDbLine
 10
4394.695515348526
 20
6945.092225683694
 30
0.0
 11
4414.695515348525
 21
6945.092225683691
 31
0.0
  0
LINE
  5
14E71
330
747D
100
AcDbEntity
  8
細線
 48
50.0
100
AcDbLine
 10
4409.695515348526
 20
6983.092225683691
 30
0.0
 11
4409.695515348526
 21
6978.092225683692
 31
0.0
  0
LINE
  5
14E72
330
747D
100
AcDbEntity
  8
細線
 48
50.0
100
AcDbLine
 10
4394.695515348526
 20
6983.092225683687
 30
0.0
 11
4409.695515348526
 21
6983.092225683691
 31
0.0
  0
LINE
  5
14E73
330
747D
100
AcDbEntity
  8
細線
 48
50.0
100
AcDbLine
 10
4394.695515348526
 20
6945.092225683694
 30
0.0
 11
4394.695515348526
 21
6983.092225683687
 31
0.0
  0
LINE
  5
14E74
330
747D
100
AcDbEntity
  8
細線
100
AcDbLine
 10
5062.695515348526
 20
6953.092225683692
 30
0.0
 11
4908.445515348527
 21
6953.092225683692
 31
0.0
  0
LINE
  5
14E75
330
747D
100
AcDbEntity
  8
細線
 48
50.0
100
AcDbLine
 10
5072.195515348526
 20
6978.092225683695
 30
0.0
 11
5072.195515348526
 21
6953.092225683692
 31
0.0
  0
DIMENSION
  5
150FB
330
747D
100
AcDbEntity
  8
寸法
 48
50.0
100
AcDbDimension
  2
*D28
 10
5101.695515348526
 20
5921.135218174437
 30
0.0
 11
4001.817515997383
 21
5921.135218174437
 31
0.0
 70
   160
 71
     5
 42
2154.0
  3
INABA_S40G
100
AcDbAlignedDimension
 13
2947.695515348526
 23
6880.092225683691
 33
0.0
 14
5101.695515348526
 24
6880.092225683691
 34
0.0
100
AcDbRotatedDimension
1001
ACAD
1000
DSTYLE
1002
{
1070
   341
1005
0
1002
}
  0
DIMENSION
  5
150FC
330
747D
100
AcDbEntity
  8
寸法
100
AcDbDimension
  2
*D29
 10
2168.376701444477
 20
6882.092225683665
 30
0.0
 11
2168.376701444476
 21
6741.606944309427
 31
0.0
 70
   160
 71
     5
 42
75.00000000002728
  3
INABA_S40
100
AcDbAlignedDimension
 13
2499.695515348526
 23
6957.092225683694
 33
0.0
 14
2947.695515348527
 24
6882.092225683665
 34
0.0
 50
90.0
100
AcDbRotatedDimension
1001
ACAD
1000
DSTYLE
1002
{
1070
    41
1040
0.5
1070
    44
1040
1.0
1070
   147
1040
0.8
1070
   271
1070
     2
1070
   272
1070
     2
1070
   289
1070
     3
1070
   340
1005
F706
1070
   343
1005
F744
1070
   344
1005
F744
1002
}
  0
TEXT
  5
151AD
330
747D
100
AcDbEntity
  8
部品1
100
AcDbText
 10
5257.879792063359
 20
5238.414943054242
 30
0.0
 40
135.0
  1
平面図
  7
STYLE2
100
AcDbText
  0
LWPOLYLINE
  5
151AE
330
747D
100
AcDbEntity
  8
部品1
100
AcDbPolyline
 90
        4
 70
     1
 43
0.0
 10
5167.960182234317
 20
5431.308472272765
 10
5167.960182234317
 20
5191.416150727233
 10
5931.430848462762
 20
5191.416150727233
 10
5931.430848462762
 20
5431.308472272765
  0
DIMENSION
  5
151F9
330
747D
100
AcDbEntity
  8
寸法
 48
50.0
100
AcDbDimension
  2
*D30
 10
8599.695515348525
 20
5632.010268180845
 30
0.0
 11
7074.695515348524
 21
5724.010268180846
 31
0.0
 70
    32
 71
     5
 42
3050.0
  3
INABA_S40
100
AcDbAlignedDimension
 13
5549.695515348525
 23
7012.092225683689
 33
0.0
 14
8599.695515348525
 24
6957.092225683694
 34
0.0
100
AcDbRotatedDimension
1001
ACAD
1000
DSTYLE
1002
{
1070
    41
1040
0.5
1070
    44
1040
1.0
1070
   147
1040
0.8
1070
   271
1070
     2
1070
   272
1070
     2
1070
   289
1070
     3
1070
   340
1005
F706
1070
   343
1005
F744
1070
   344
1005
F744
1002
}
  0
DIMENSION
  5
1522E
330
747D
100
AcDbEntity
  8
寸法
 48
50.0
100
AcDbDimension
  2
*D31
 10
5549.695515348525
 20
5632.010268180845
 30
0.0
 11
4024.695515348525
 21
5724.010268180846
 31
0.0
 70
    32
 71
     5
 42
3050.0
  3
INABA_S40
100
AcDbAlignedDimension
 13
2499.695515348526
 23
6957.092225683694
 33
0.0
 14
5549.695515348525
 24
7012.092225683693
 34
0.0
100
AcDbRotatedDimension
1001
ACAD
1000
DSTYLE
1002
{
1070
    41
1040
0.5
1070
    44
1040
1.0
1070
   147
1040
0.8
1070
   271
1070
     2
1070
   272
1070
     2
1070
   289
1070
     3
1070
   340
1005
F706
1070
   343
1005
F744
1070
   344
1005
F744
1002
}
  0
LWPOLYLINE
  5
154B8
330
747D
100
AcDbEntity
  8
部品1
 48
50.0
100
AcDbPolyline
 90
        4
 70
     1
 43
0.0
 10
3046.745515348524
 20
3026.721098785374
 10
3049.645515348526
 20
3026.721098785374
 10
3049.645515348526
 20
3036.221098785374
 10
3046.745515348524
 20
3036.221098785374
  0
CIRCLE
  5
154B9
330
747D
100
AcDbEntity
  8
部品1
 48
50.0
100
AcDbCircle
 10
3048.195515348525
 20
3031.471098785374
 30
0.0
 40
9.0
  0
ARC
  5
154BA
330
747D
100
AcDbEntity
  8
細線
 48
50.0
100
AcDbCircle
 10
3048.195515348525
 20
3031.471098785374
 30
0.0
 40
4.0
100
AcDbArc
 50
111.2538091853375
 51
248.7461908146625
  0
ARC
  5
154BB
330
747D
100
AcDbEntity
  8
細線
 48
50.0
100
AcDbCircle
 10
3048.195515348525
 20
3031.471098785374
 30
0.0
 40
17.5
100
AcDbArc
 50
306.4837370612677
 51
233.5162629387323
  0
LINE
  5
154BC
330
747D
100
AcDbEntity
  8
細線
 48
50.0
100
AcDbLine
 10
3058.195515348522
 20
3007.612138204491
 30
0.0
 11
3058.195515348525
 21
3016.596624004733
 31
0.0
  0
LINE
  5
154BD
330
747D
100
AcDbEntity
  8
細線
 48
50.0
100
AcDbLine
 10
3038.195515348525
 20
3007.612138204493
 30
0.0
 11
3038.195515348525
 21
3016.596624004729
 31
0.0
  0
ARC
  5
154BE
330
747D
100
AcDbEntity
  8
細線
 48
50.0
100
AcDbCircle
 10
3048.195515348525
 20
3031.471098785374
 30
0.0
 40
26.5
100
AcDbArc
 50
249.3326835063939
 51
290.6673164933835
  0
ARC
  5
154BF
330
747D
100
AcDbEntity
  8
細線
 48
50.0
100
AcDbCircle
 10
3057.195515348518
 20
3007.612138204491
 30
0.0
 40
1.0
100
AcDbArc
 50
290.6673164936062
 51
359.9999999998958
  0
ARC
  5
154C0
330
747D
100
AcDbEntity
  8
細線
 48
50.0
100
AcDbCircle
 10
3039.195515348525
 20
3007.612138204493
 30
0.0
 40
1.0
100
AcDbArc
 50
180.0
 51
249.3326835066164
  0
ARC
  5
154C1
330
747D
100
AcDbEntity
  8
細線
 48
50.0
100
AcDbCircle
 10
3037.195515348525
 20
3016.596624004729
 30
0.0
 40
1.0
100
AcDbArc
 50
0.0
 51
53.51626293873231
  0
ARC
  5
154C2
330
747D
100
AcDbEntity
  8
細線
 48
50.0
100
AcDbCircle
 10
3059.195515348529
 20
3016.596624004733
 30
0.0
 40
1.0
100
AcDbArc
 50
126.4837370614917
 51
180.0
  0
ARC
  5
154C3
330
747D
100
AcDbEntity
  8
細線
 48
50.0
100
AcDbCircle
 10
3048.195515348525
 20
3031.471098785374
 30
0.0
 40
21.5
100
AcDbArc
 50
255.8014401250294
 51
284.1985598749706
  0
ARC
  5
154C4
330
747D
100
AcDbEntity
  8
細線
 48
50.0
100
AcDbCircle
 10
3048.195515348525
 20
3031.471098785374
 30
0.0
 40
16.5
100
AcDbArc
 50
251.9694646069326
 51
288.0305353930674
  0
LINE
  5
154C5
330
747D
100
AcDbEntity
  8
細線
 48
50.0
100
AcDbLine
 10
3053.695515348525
 20
3010.918726659567
 30
0.0
 11
3053.695515348525
 21
3015.496118346904
 31
0.0
  0
LINE
  5
154C6
330
747D
100
AcDbEntity
  8
細線
 48
50.0
100
AcDbLine
 10
3042.695515348525
 20
3010.918726659567
 30
0.0
 11
3042.695515348525
 21
3015.496118346903
 31
0.0
  0
ARC
  5
154C7
330
747D
100
AcDbEntity
  8
細線
 48
50.0
100
AcDbCircle
 10
3042.995515348528
 20
3015.496118346903
 30
0.0
 40
0.3
100
AcDbArc
 50
71.96946460693259
 51
180.0
  0
ARC
  5
154C8
330
747D
100
AcDbEntity
  8
細線
 48
50.0
100
AcDbCircle
 10
3053.395515348526
 20
3015.496118346904
 30
0.0
 40
0.3
100
AcDbArc
 50
0.0
 51
108.0305353930674
  0
ARC
  5
154C9
330
747D
100
AcDbEntity
  8
細線
 48
50.0
100
AcDbCircle
 10
3053.395515348523
 20
3010.918726659567
 30
0.0
 40
0.3
100
AcDbArc
 50
284.1985598747622
 51
0.0000000001042204
  0
ARC
  5
154CA
330
747D
100
AcDbEntity
  8
細線
 48
50.0
100
AcDbCircle
 10
3042.995515348528
 20
3010.918726659567
 30
0.0
 40
0.3
100
AcDbArc
 50
180.0
 51
255.8014401248081
  0
CIRCLE
  5
154CB
330
747D
100
AcDbEntity
  8
細線
 48
50.0
100
AcDbCircle
 10
3048.195515348525
 20
3031.471098785374
 30
0.0
 40
12.0
  0
ARC
  5
154CC
330
747D
100
AcDbEntity
  8
部品1
 48
50.0
100
AcDbCircle
 10
3048.195515348525
 20
3081.471098785375
 30
0.0
 40
8.5
100
AcDbArc
 50
114.315739171091
 51
245.684260828909
  0
CIRCLE
  5
154CD
330
747D
100
AcDbEntity
  8
細線
 48
50.0
100
AcDbCircle
 10
3048.195515348525
 20
3081.471098785375
 30
0.0
 40
4.5
  0
LWPOLYLINE
  5
154CE
330
747D
100
AcDbEntity
  8
部品1
 48
50.0
100
AcDbPolyline
 90
        2
 70
     0
 43
0.0
 10
3044.695515348526
 20
3100.145948182357
 10
3044.695515348526
 20
3089.217065477789
  0
CIRCLE
  5
154CF
330
747D
100
AcDbEntity
  8
部品1
 48
50.0
100
AcDbCircle
 10
3048.195515348525
 20
3081.471098785375
 30
0.0
 40
19.0
  0
LWPOLYLINE
  5
154D0
330
747D
100
AcDbEntity
  8
部品1
 48
50.0
100
AcDbPolyline
 90
        2
 70
     0
 43
0.0
 10
3044.695515348526
 20
3073.725132092959
 10
3044.695515348526
 20
3062.796249388392
  0
LWPOLYLINE
  5
154D1
330
747D
100
AcDbEntity
  8
部品1
 48
50.0
100
AcDbPolyline
 90
        2
 70
     0
 43
0.0
 10
3051.695515348525
 20
3089.217065477789
 10
3051.695515348525
 20
3100.145948182357
  0
ARC
  5
154D2
330
747D
100
AcDbEntity
  8
部品1
 48
50.0
100
AcDbCircle
 10
3048.195515348525
 20
3081.471098785375
 30
0.0
 40
8.5
100
AcDbArc
 50
294.315739171091
 51
65.68426082890896
  0
LWPOLYLINE
  5
154D3
330
747D
100
AcDbEntity
  8
部品1
 48
50.0
100
AcDbPolyline
 90
        2
 70
     0
 43
0.0
 10
3051.695515348525
 20
3062.796249388392
 10
3051.695515348525
 20
3073.725132092959
  0
ARC
  5
154D4
330
747D
100
AcDbEntity
  8
細線
 48
50.0
100
AcDbCircle
 10
3048.195515348525
 20
3081.471098785375
 30
0.0
 40
16.5
100
AcDbArc
 50
332.0012352654316
 51
27.99876473456844
  0
ARC
  5
154D5
330
747D
100
AcDbEntity
  8
細線
 48
50.0
100
AcDbCircle
 10
3048.195515348525
 20
3081.471098785375
 30
0.0
 40
14.0
100
AcDbArc
 50
326.4074436112843
 51
33.59255638871576
  0
LINE
  5
154D6
330
747D
100
AcDbEntity
  8
細線
 48
50.0
100
AcDbLine
 10
3033.626713064194
 20
3089.217065477789
 30
0.0
 11
3036.533611558836
 21
3089.217065477789
 31
0.0
  0
LINE
  5
154D7
330
747D
100
AcDbEntity
  8
細線
 48
50.0
100
AcDbLine
 10
3033.626713064194
 20
3073.725132092959
 30
0.0
 11
3036.533611558836
 21
3073.725132092959
 31
0.0
  0
LINE
  5
154D8
330
747D
100
AcDbEntity
  8
細線
 48
50.0
100
AcDbLine
 10
3059.857419138214
 20
3089.217065477789
 30
0.0
 11
3062.76431763286
 21
3089.217065477789
 31
0.0
  0
LINE
  5
154D9
330
747D
100
AcDbEntity
  8
細線
 48
50.0
100
AcDbLine
 10
3059.857419138214
 20
3073.725132092959
 30
0.0
 11
3062.76431763286
 21
3073.725132092959
 31
0.0
  0
ARC
  5
154DA
330
747D
100
AcDbEntity
  8
細線
 48
50.0
100
AcDbCircle
 10
3048.195515348525
 20
3081.471098785375
 30
0.0
 40
14.0
100
AcDbArc
 50
146.4074436112842
 51
213.5925563887158
  0
ARC
  5
154DB
330
747D
100
AcDbEntity
  8
細線
 48
50.0
100
AcDbCircle
 10
3048.195515348525
 20
3081.471098785375
 30
0.0
 40
16.5
100
AcDbArc
 50
152.0012352654315
 51
207.9987647345685
  0
ARC
  5
154DC
330
747D
100
AcDbEntity
  8
部品1
 48
50.0
100
AcDbCircle
 10
3021.695515348525
 20
3106.971098785374
 30
0.0
 40
5.0
100
AcDbArc
 50
90.0
 51
180.0
  0
ARC
  5
154DD
330
747D
100
AcDbEntity
  8
部品1
 48
50.0
100
AcDbCircle
 10
3021.695515348525
 20
2995.971098785375
 30
0.0
 40
5.0
100
AcDbArc
 50
180.0
 51
270.0
  0
ARC
  5
154DE
330
747D
100
AcDbEntity
  8
部品1
 48
50.0
100
AcDbCircle
 10
3074.695515348525
 20
2995.971098785375
 30
0.0
 40
5.0
100
AcDbArc
 50
270.0
 51
0.0
  0
ARC
  5
154DF
330
747D
100
AcDbEntity
  8
部品1
 48
50.0
100
AcDbCircle
 10
3074.695515348525
 20
3106.971098785374
 30
0.0
 40
5.0
100
AcDbArc
 50
0.0
 51
90.0
  0
LINE
  5
154E0
330
747D
100
AcDbEntity
  8
部品1
 48
50.0
100
AcDbLine
 10
3016.695515348525
 20
2995.971098785375
 30
0.0
 11
3016.695515348525
 21
3106.971098785374
 31
0.0
  0
LINE
  5
154E1
330
747D
100
AcDbEntity
  8
部品1
 48
50.0
100
AcDbLine
 10
3074.695515348525
 20
2990.971098785374
 30
0.0
 11
3021.695515348525
 21
2990.971098785374
 31
0.0
  0
LINE
  5
154E2
330
747D
100
AcDbEntity
  8
部品1
 48
50.0
100
AcDbLine
 10
3079.695515348525
 20
3106.971098785374
 30
0.0
 11
3079.695515348525
 21
2995.971098785375
 31
0.0
  0
ENDSEC
  0
SECTION
  2
OBJECTS
  0
DICTIONARY
  5
7471
330
0
100
AcDbDictionary
281
     1
  3
ACAD_COLOR
350
138E5
  3
ACAD_GROUP
350
7472
  3
ACAD_LAYOUT
350
138E6
  3
ACAD_MATERIAL
350
138E4
  3
ACAD_MLINESTYLE
350
7473
  3
ACAD_PLOTSETTINGS
350
138E7
  3
ACAD_PLOTSTYLENAME
350
138E2
  3
ACDBHEADERROUNDTRIPXREC
350
154F2
  3
AcDbVariableDictionary
350
154EE
  3
CONTENTDICTIONARY
350
E71C
  3
DRAWINGVARIABLESDICT
350
F3B9
  0
DICTIONARY
  5
13A61
330
7467
100
AcDbDictionary
280
     1
281
     1
  3
ACAD_LAYERSTATES
360
13A62
  0
DICTIONARY
  5
138E5
102
{ACAD_REACTORS
330
7471
102
}
330
7471
100
AcDbDictionary
281
     1
  0
DICTIONARY
  5
7472
102
{ACAD_REACTORS
330
7471
102
}
330
7471
100
AcDbDictionary
281
     1
  0
DICTIONARY
  5
138E6
102
{ACAD_REACTORS
330
7471
102
}
330
7471
100
AcDbDictionary
281
     1
  3
Model
350
138E8
  3
レイアウト1
350
138E9
  0
DICTIONARY
  5
138E4
102
{ACAD_REACTORS
330
7471
102
}
330
7471
100
AcDbDictionary
281
     1
  0
DICTIONARY
  5
7473
102
{ACAD_REACTORS
330
7471
102
}
330
7471
100
AcDbDictionary
281
     1
  3
STANDARD
350
7480
  0
DICTIONARY
  5
138E7
102
{ACAD_REACTORS
330
7471
102
}
330
7471
100
AcDbDictionary
281
     1
  0
ACDBDICTIONARYWDFLT
  5
138E2
102
{ACAD_REACTORS
330
7471
102
}
330
7471
100
AcDbDictionary
281
     1
  3
Normal
350
138E3
100
AcDbDictionaryWithDefault
340
138E3
  0
DICTIONARY
  5
154F2
102
{ACAD_REACTORS
330
7471
102
}
330
7471
100
AcDbDictionary
281
     1
  3
COLORDICT
350
154F4
  3
MATERIALDICT
350
154F3
  0
DICTIONARY
  5
154EE
102
{ACAD_REACTORS
330
7471
102
}
330
7471
100
AcDbDictionary
281
     1
  3
DIMASSOC
350
154EF
  3
PROJECTNAME
350
154F0
  0
DICTIONARY
  5
E71C
102
{ACAD_REACTORS
330
7471
102
}
330
7471
100
AcDbDictionary
281
     1
  0
DICTIONARY
  5
F3B9
102
{ACAD_REACTORS
330
7471
102
}
330
7471
100
AcDbDictionary
281
     1
1001
DRAWINGVARIABLESXDATA
1000
POLARMODE
1000
1
  0
DICTIONARY
  5
13A62
102
{ACAD_REACTORS
330
13A61
102
}
330
13A61
100
AcDbDictionary
281
     1
  0
LAYOUT
  5
138E8
102
{ACAD_XDICTIONARY
360
154F5
102
}
102
{ACAD_REACTORS
330
138E6
102
}
330
138E6
100
AcDbPlotSettings
  1

  2
EPSON LP-7000C
  4

  6

 40
0.0
 41
0.0
 42
0.0
 43
0.0
 44
0.0
 45
0.0
 46
0.0
 47
0.0
 48
0.0
 49
0.0
140
0.0
141
0.0
142
1.0
143
1.0
 70
  1712
 72
     0
 73
     0
 74
     0
  7

 75
     0
147
1.0
148
0.0
149
0.0
100
AcDbLayout
  1
Model
 70
     1
 71
     0
 10
0.0
 20
0.0
 11
12.0
 21
9.0
 12
0.0
 22
0.0
 32
0.0
 14
0.0
 24
0.0
 34
0.0
 15
0.0
 25
0.0
 35
0.0
146
0.0
 13
0.0
 23
0.0
 33
0.0
 16
1.0
 26
0.0
 36
0.0
 17
0.0
 27
1.0
 37
0.0
 76
     0
330
747D
  0
LAYOUT
  5
138E9
102
{ACAD_XDICTIONARY
360
154F7
102
}
102
{ACAD_REACTORS
330
138E6
102
}
330
138E6
100
AcDbPlotSettings
  1

  2
EPSON LP-7000C
  4

  6

 40
0.0
 41
0.0
 42
0.0
 43
0.0
 44
0.0
 45
0.0
 46
0.0
 47
0.0
 48
0.0
 49
0.0
140
0.0
141
0.0
142
1.0
143
1.0
 70
   688
 72
     0
 73
     0
 74
     5
  7

 75
    16
147
1.0
148
0.0
149
0.0
100
AcDbLayout
  1
レイアウト1
 70
     0
 71
     1
 10
0.0
 20
0.0
 11
420.0
 21
297.0
 12
0.0
 22
0.0
 32
0.0
 14
1.000000000000000E+20
 24
1.000000000000000E+20
 34
1.000000000000000E+20
 15
-1.000000000000000E+20
 25
-1.000000000000000E+20
 35
-1.000000000000000E+20
146
0.0
 13
0.0
 23
0.0
 33
0.0
 16
1.0
 26
0.0
 36
0.0
 17
0.0
 27
1.0
 37
0.0
 76
     0
330
747A
  0
MLINESTYLE
  5
7480
102
{ACAD_REACTORS
330
7473
102
}
330
7473
100
AcDbMlineStyle
  2
STANDARD
 70
     0
  3

 62
     0
 51
90.0
 52
90.0
 71
     2
 49
0.5
 62
   256
  6
BYLAYER
 49
-0.5
 62
   256
  6
BYLAYER
  0
ACDBPLACEHOLDER
  5
138E3
102
{ACAD_REACTORS
330
138E2
102
}
330
138E2
  0
XRECORD
  5
154F4
102
{ACAD_REACTORS
330
154F2
102
}
330
154F2
100
AcDbXrecord
280
     1
340
138E5
  0
XRECORD
  5
154F3
102
{ACAD_REACTORS
330
154F2
102
}
330
154F2
100
AcDbXrecord
280
     1
340
138E4
  0
DICTIONARYVAR
  5
154EF
102
{ACAD_REACTORS
330
154EE
102
}
330
154EE
100
DictionaryVariables
280
     0
  1
1
  0
DICTIONARYVAR
  5
154F0
102
{ACAD_REACTORS
330
154EE
102
}
330
154EE
100
DictionaryVariables
280
     0
  1

  0
DICTIONARY
  5
154F5
330
138E8
100
AcDbDictionary
280
     1
281
     1
  3
ACAD_XREC_ROUNDTRIP
360
154F6
  0
DICTIONARY
  5
154F7
330
138E9
100
AcDbDictionary
280
     1
281
     1
  3
ACAD_XREC_ROUNDTRIP
360
154F8
  0
XRECORD
  5
154F6
102
{ACAD_REACTORS
330
154F5
102
}
330
154F5
100
AcDbXrecord
280
     1
102
SHADEPLOT
 70
     0
102
SHADEPLOTRESLEVEL
 70
     2
102
SHADEPLOTCUSTOMDPI
 70
   300
  0
XRECORD
  5
154F8
102
{ACAD_REACTORS
330
154F7
102
}
330
154F7
100
AcDbXrecord
280
     1
102
SHADEPLOT
 70
     0
102
SHADEPLOTRESLEVEL
 70
     2
102
SHADEPLOTCUSTOMDPI
 70
   300
  0
ENDSEC
  0
EOF
