  0
SECTION
  2
HEADER
  9
$ACADVER
  1
AC1015
  9
$ACADMAINTVER
 70
    20
  9
$DWGCODEPAGE
  3
ANSI_932
  9
$INSBASE
 10
0.0
 20
0.0
 30
0.0
  9
$EXTMIN
 10
139.9999999999995
 20
-0.0000000000000909
 30
0.0
  9
$EXTMAX
 10
16307.2
 20
11409.6
 30
0.0
  9
$LIMMIN
 10
0.0
 20
0.0
  9
$LIMMAX
 10
16800.0
 20
11880.0
  9
$ORTHOMODE
 70
     0
  9
$REGENMODE
 70
     1
  9
$FILLMODE
 70
     1
  9
$QTEXTMODE
 70
     0
  9
$MIRRTEXT
 70
     1
  9
$LTSCALE
 40
20.0
  9
$ATTMODE
 70
     1
  9
$TEXTSIZE
 40
100.0
  9
$TRACEWID
 40
1.0
  9
$TEXTSTYLE
  7
STYLE3
  9
$CLAYER
  8
寸法
  9
$CELTYPE
  6
BYLAYER
  9
$CECOLOR
 62
   256
  9
$CELTSCALE
 40
50.0
  9
$DISPSILH
 70
     0
  9
$DIMSCALE
 40
40.0
  9
$DIMASZ
 40
0.5
  9
$DIMEXO
 40
0.5
  9
$DIMDLI
 40
7.0
  9
$DIMRND
 40
0.0
  9
$DIMDLE
 40
0.0
  9
$DIMEXE
 40
1.0
  9
$DIMTP
 40
0.0
  9
$DIMTM
 40
0.0
  9
$DIMTXT
 40
3.0
  9
$DIMCEN
 40
0.0
  9
$DIMTSZ
 40
0.0
  9
$DIMTOL
 70
     0
  9
$DIMLIM
 70
     0
  9
$DIMTIH
 70
     0
  9
$DIMTOH
 70
     0
  9
$DIMSE1
 70
     0
  9
$DIMSE2
 70
     0
  9
$DIMTAD
 70
     3
  9
$DIMZIN
 70
     8
  9
$DIMBLK
  1

  9
$DIMASO
 70
     1
  9
$DIMSHO
 70
     1
  9
$DIMPOST
  1

  9
$DIMAPOST
  1

  9
$DIMALT
 70
     0
  9
$DIMALTD
 70
     2
  9
$DIMALTF
 40
0.0394
  9
$DIMLFAC
 40
1.0
  9
$DIMTOFL
 70
     1
  9
$DIMTVP
 40
0.0
  9
$DIMTIX
 70
     1
  9
$DIMSOXD
 70
     1
  9
$DIMSAH
 70
     1
  9
$DIMBLK1
  1
DOT
  9
$DIMBLK2
  1
DOT
  9
$DIMSTYLE
  2
INABA_S40
  9
$DIMCLRD
 70
     0
  9
$DIMCLRE
 70
     0
  9
$DIMCLRT
 70
     7
  9
$DIMTFAC
 40
1.0
  9
$DIMGAP
 40
0.8
  9
$DIMJUST
 70
     0
  9
$DIMSD1
 70
     0
  9
$DIMSD2
 70
     0
  9
$DIMTOLJ
 70
     1
  9
$DIMTZIN
 70
     0
  9
$DIMALTZ
 70
     0
  9
$DIMALTTZ
 70
     0
  9
$DIMUPT
 70
     0
  9
$DIMDEC
 70
     2
  9
$DIMTDEC
 70
     2
  9
$DIMALTU
 70
     2
  9
$DIMALTTD
 70
     2
  9
$DIMTXSTY
  7
STYLE1
  9
$DIMAUNIT
 70
     0
  9
$DIMADEC
 70
     0
  9
$DIMALTRND
 40
0.0
  9
$DIMAZIN
 70
     0
  9
$DIMDSEP
 70
    46
  9
$DIMATFIT
 70
     3
  9
$DIMFRAC
 70
     0
  9
$DIMLDRBLK
  1

  9
$DIMLUNIT
 70
     2
  9
$DIMLWD
 70
    -2
  9
$DIMLWE
 70
    -2
  9
$DIMTMOVE
 70
     0
  9
$LUNITS
 70
     2
  9
$LUPREC
 70
     1
  9
$SKETCHINC
 40
1.0
  9
$FILLETRAD
 40
5.0
  9
$AUNITS
 70
     0
  9
$AUPREC
 70
     0
  9
$MENU
  1
acad
  9
$ELEVATION
 40
0.0
  9
$PELEVATION
 40
0.0
  9
$THICKNESS
 40
0.0
  9
$LIMCHECK
 70
     0
  9
$CHAMFERA
 40
0.0
  9
$CHAMFERB
 40
0.0
  9
$CHAMFERC
 40
0.0
  9
$CHAMFERD
 40
0.0
  9
$SKPOLY
 70
     0
  9
$TDCREATE
 40
2451590.492424190
  9
$TDUCREATE
 40
2451590.117424190
  9
$TDUPDATE
 40
2455575.701668113
  9
$TDUUPDATE
 40
2455575.326668114
  9
$TDINDWG
 40
0.0536114931
  9
$TDUSRTIMER
 40
0.0536114931
  9
$USRTIMER
 70
     1
  9
$ANGBASE
 50
0.0
  9
$ANGDIR
 70
     0
  9
$PDMODE
 70
     3
  9
$PDSIZE
 40
2.0
  9
$PLINEWID
 40
0.0
  9
$SPLFRAME
 70
     0
  9
$SPLINETYPE
 70
     6
  9
$SPLINESEGS
 70
     8
  9
$HANDSEED
  5
1508E
  9
$SURFTAB1
 70
     6
  9
$SURFTAB2
 70
     6
  9
$SURFTYPE
 70
     6
  9
$SURFU
 70
     6
  9
$SURFV
 70
     6
  9
$UCSBASE
  2

  9
$UCSNAME
  2

  9
$UCSORG
 10
0.0
 20
0.0
 30
0.0
  9
$UCSXDIR
 10
1.0
 20
0.0
 30
0.0
  9
$UCSYDIR
 10
0.0
 20
1.0
 30
0.0
  9
$UCSORTHOREF
  2

  9
$UCSORTHOVIEW
 70
     0
  9
$UCSORGTOP
 10
0.0
 20
0.0
 30
0.0
  9
$UCSORGBOTTOM
 10
0.0
 20
0.0
 30
0.0
  9
$UCSORGLEFT
 10
0.0
 20
0.0
 30
0.0
  9
$UCSORGRIGHT
 10
0.0
 20
0.0
 30
0.0
  9
$UCSORGFRONT
 10
0.0
 20
0.0
 30
0.0
  9
$UCSORGBACK
 10
0.0
 20
0.0
 30
0.0
  9
$PUCSBASE
  2

  9
$PUCSNAME
  2

  9
$PUCSORG
 10
0.0
 20
0.0
 30
0.0
  9
$PUCSXDIR
 10
1.0
 20
0.0
 30
0.0
  9
$PUCSYDIR
 10
0.0
 20
1.0
 30
0.0
  9
$PUCSORTHOREF
  2

  9
$PUCSORTHOVIEW
 70
     0
  9
$PUCSORGTOP
 10
0.0
 20
0.0
 30
0.0
  9
$PUCSORGBOTTOM
 10
0.0
 20
0.0
 30
0.0
  9
$PUCSORGLEFT
 10
0.0
 20
0.0
 30
0.0
  9
$PUCSORGRIGHT
 10
0.0
 20
0.0
 30
0.0
  9
$PUCSORGFRONT
 10
0.0
 20
0.0
 30
0.0
  9
$PUCSORGBACK
 10
0.0
 20
0.0
 30
0.0
  9
$USERI1
 70
     0
  9
$USERI2
 70
     0
  9
$USERI3
 70
     0
  9
$USERI4
 70
     0
  9
$USERI5
 70
     0
  9
$USERR1
 40
0.0
  9
$USERR2
 40
0.0
  9
$USERR3
 40
0.0
  9
$USERR4
 40
0.0
  9
$USERR5
 40
0.0
  9
$WORLDVIEW
 70
     1
  9
$SHADEDGE
 70
     3
  9
$SHADEDIF
 70
    70
  9
$TILEMODE
 70
     1
  9
$MAXACTVP
 70
    16
  9
$PINSBASE
 10
0.0
 20
0.0
 30
0.0
  9
$PLIMCHECK
 70
     0
  9
$PEXTMIN
 10
26.66999878883363
 20
20.31999878883363
 30
0.0
  9
$PEXTMAX
 10
240.0299890995026
 20
182.8799890995025
 30
0.0
  9
$PLIMMIN
 10
-6.350006103515625
 20
-6.349999904632568
  9
$PLIMMAX
 10
273.0499877929688
 20
209.5499939918518
  9
$UNITMODE
 70
     0
  9
$VISRETAIN
 70
     0
  9
$PLINEGEN
 70
     0
  9
$PSLTSCALE
 70
     0
  9
$TREEDEPTH
 70
  3020
  9
$CMLSTYLE
  2
STANDARD
  9
$CMLJUST
 70
     0
  9
$CMLSCALE
 40
1.0
  9
$PROXYGRAPHICS
 70
     1
  9
$MEASUREMENT
 70
     1
  9
$CELWEIGHT
370
    -1
  9
$ENDCAPS
280
     0
  9
$JOINSTYLE
280
     0
  9
$LWDISPLAY
290
     0
  9
$INSUNITS
 70
     0
  9
$HYPERLINKBASE
  1

  9
$STYLESHEET
  1

  9
$XEDIT
290
     1
  9
$CEPSNTYPE
380
     0
  9
$PSTYLEMODE
290
     1
  9
$FINGERPRINTGUID
  2
{002238EA-863B-4BC1-81E3-1D85D0857063}
  9
$VERSIONGUID
  2
{033878F8-7258-467C-BDD7-40EAACFFB50F}
  9
$EXTNAMES
290
     1
  9
$PSVPSCALE
 40
0.0
  9
$OLESTARTUP
290
     0
  0
ENDSEC
  0
SECTION
  2
CLASSES
  0
CLASS
  1
ACDBDICTIONARYWDFLT
  2
AcDbDictionaryWithDefault
  3
ObjectDBX Classes
 90
        0
280
     0
281
     0
  0
CLASS
  1
DICTIONARYVAR
  2
AcDbDictionaryVar
  3
ObjectDBX Classes
 90
        0
280
     0
281
     0
  0
CLASS
  1
ACDBPLACEHOLDER
  2
AcDbPlaceHolder
  3
ObjectDBX Classes
 90
        0
280
     0
281
     0
  0
CLASS
  1
LAYOUT
  2
AcDbLayout
  3
ObjectDBX Classes
 90
        0
280
     0
281
     0
  0
ENDSEC
  0
SECTION
  2
TABLES
  0
TABLE
  2
VPORT
  5
746D
330
0
100
AcDbSymbolTable
 70
     2
  0
VPORT
  5
15082
330
746D
100
AcDbSymbolTableRecord
100
AcDbViewportTableRecord
  2
*Active
 70
     0
 10
0.0
 20
0.0
 11
1.0
 21
1.0
 12
8223.761025238502
 22
6348.534457703607
 13
0.0
 23
0.0
 14
10.0
 24
10.0
 15
10.0
 25
10.0
 16
0.0
 26
0.0
 36
1.0
 17
0.0
 27
0.0
 37
0.0
 40
12805.99746330794
 41
1.525925925925925
 42
50.0
 43
0.0
 44
0.0
 50
0.0
 51
0.0
 71
     0
 72
     0
 73
     1
 74
     0
 75
     0
 76
     0
 77
     0
 78
     0
281
     0
 65
     1
110
0.0
120
0.0
130
0.0
111
1.0
121
0.0
131
0.0
112
0.0
122
1.0
132
0.0
 79
     0
146
0.0
  0
ENDTAB
  0
TABLE
  2
LTYPE
  5
746A
330
0
100
AcDbSymbolTable
 70
     4
  0
LTYPE
  5
7477
330
746A
100
AcDbSymbolTableRecord
100
AcDbLinetypeTableRecord
  2
BYBLOCK
 70
     0
  3

 72
    65
 73
     0
 40
0.0
  0
LTYPE
  5
7478
330
746A
100
AcDbSymbolTableRecord
100
AcDbLinetypeTableRecord
  2
BYLAYER
 70
     0
  3

 72
    65
 73
     0
 40
0.0
  0
LTYPE
  5
7479
330
746A
100
AcDbSymbolTableRecord
100
AcDbLinetypeTableRecord
  2
CONTINUOUS
 70
     0
  3
Solid line
 72
    65
 73
     0
 40
0.0
  0
LTYPE
  5
7816
330
746A
100
AcDbSymbolTableRecord
100
AcDbLinetypeTableRecord
  2
CENTER
 70
     0
  3
____ _ ____ _ ____ _ ____ _ ____ _ ____ _ ____ 
 72
    65
 73
     4
 40
2.0
 49
1.25
 74
     0
 49
-0.25
 74
     0
 49
0.25
 74
     0
 49
-0.25
 74
     0
  0
LTYPE
  5
781A
330
746A
100
AcDbSymbolTableRecord
100
AcDbLinetypeTableRecord
  2
HIDDEN
 70
     0
  3
__ __ __ __ __ __ __ __ __ __ __ __ __ __ __ __
 72
    65
 73
     2
 40
0.375
 49
0.25
 74
     0
 49
-0.125
 74
     0
  0
LTYPE
  5
781B
330
746A
100
AcDbSymbolTableRecord
100
AcDbLinetypeTableRecord
  2
PHANTOM
 70
     0
  3
______  __  __  ______  __  __  ______  __  __ 
 72
    65
 73
     6
 40
2.5
 49
1.25
 74
     0
 49
-0.25
 74
     0
 49
0.25
 74
     0
 49
-0.25
 74
     0
 49
0.25
 74
     0
 49
-0.25
 74
     0
  0
ENDTAB
  0
TABLE
  2
LAYER
  5
7467
102
{ACAD_XDICTIONARY
360
13723
102
}
330
0
100
AcDbSymbolTable
 70
    13
  0
LAYER
  5
7474
330
7467
100
AcDbSymbolTableRecord
100
AcDbLayerTableRecord
  2
0
 70
     0
 62
     7
  6
CONTINUOUS
370
    -3
390
135A5
  0
LAYER
  5
DEB2
330
7467
100
AcDbSymbolTableRecord
100
AcDbLayerTableRecord
  2
センター
 70
     0
 62
     3
  6
CENTER
370
    -3
390
135A5
  0
LAYER
  5
DEB3
330
7467
100
AcDbSymbolTableRecord
100
AcDbLayerTableRecord
  2
寸法
 70
     0
 62
     4
  6
CONTINUOUS
370
    -3
390
135A5
  0
LAYER
  5
DEB4
330
7467
100
AcDbSymbolTableRecord
100
AcDbLayerTableRecord
  2
部品1
 70
     0
 62
     7
  6
CONTINUOUS
370
    -3
390
135A5
  0
LAYER
  5
DEB5
330
7467
100
AcDbSymbolTableRecord
100
AcDbLayerTableRecord
  2
補助
 70
     0
 62
    -1
  6
CONTINUOUS
370
    -3
390
135A5
  0
LAYER
  5
DEB6
330
7467
100
AcDbSymbolTableRecord
100
AcDbLayerTableRecord
  2
文字
 70
     0
 62
     7
  6
CONTINUOUS
370
    -3
390
135A5
  0
LAYER
  5
F255
330
7467
100
AcDbSymbolTableRecord
100
AcDbLayerTableRecord
  2
DEFPOINTS
 70
     0
 62
     7
  6
CONTINUOUS
290
     0
370
    -3
390
135A5
  0
LAYER
  5
10B54
330
7467
100
AcDbSymbolTableRecord
100
AcDbLayerTableRecord
  2
仕様書枠
 70
     0
 62
   230
  6
CONTINUOUS
370
    -3
390
135A5
  0
LAYER
  5
11729
330
7467
100
AcDbSymbolTableRecord
100
AcDbLayerTableRecord
  2
Ｇ．Ｌ
 70
     0
 62
    30
  6
CONTINUOUS
370
    -3
390
135A5
  0
LAYER
  5
1173F
330
7467
100
AcDbSymbolTableRecord
100
AcDbLayerTableRecord
  2
細線
 70
     0
 62
     5
  6
CONTINUOUS
370
    -3
390
135A5
  0
LAYER
  5
11740
330
7467
100
AcDbSymbolTableRecord
100
AcDbLayerTableRecord
  2
点線
 70
     0
 62
     2
  6
HIDDEN
370
    -3
390
135A5
  0
LAYER
  5
11905
330
7467
100
AcDbSymbolTableRecord
100
AcDbLayerTableRecord
  2
破線
 70
     0
 62
     2
  6
HIDDEN
370
    -3
390
135A5
  0
LAYER
  5
141FC
330
7467
100
AcDbSymbolTableRecord
100
AcDbLayerTableRecord
  2
Ｇ_Ｌ
 70
     0
 62
    30
  6
CONTINUOUS
370
    -3
390
135A5
  0
ENDTAB
  0
TABLE
  2
STYLE
  5
7468
330
0
100
AcDbSymbolTable
 70
     7
  0
STYLE
  5
7475
330
7468
100
AcDbSymbolTableRecord
100
AcDbTextStyleTableRecord
  2
STANDARD
 70
     0
 40
0.0
 41
1.0
 50
0.0
 71
     0
 42
4.0
  3
txt
  4
C:\AutoCAD LT\bigfont.shx
  0
STYLE
  5
763C
330
7468
100
AcDbSymbolTableRecord
100
AcDbTextStyleTableRecord
  2
MSMINCHO
 70
     0
 40
0.0
 41
1.0
 50
0.0
 71
     0
 42
1.199999999999999
  3
C:\AutoCAD LT\msminch2.TTF
  4

  0
STYLE
  5
F5E9
330
7468
100
AcDbSymbolTableRecord
100
AcDbTextStyleTableRecord
  2

 70
     1
 40
0.0
 41
1.0
 50
0.0
 71
     0
 42
4.0
  3
ltypeshp.shx
  4

  0
STYLE
  5
F706
330
7468
100
AcDbSymbolTableRecord
100
AcDbTextStyleTableRecord
  2
STYLE1
 70
     0
 40
0.0
 41
1.0
 50
0.0
 71
     0
 42
4.0
  3
isocp.shx
  4
bigfont.shx
  0
STYLE
  5
103BF
330
7468
100
AcDbSymbolTableRecord
100
AcDbTextStyleTableRecord
  2
STYLE2
 70
     0
 40
0.0
 41
1.0
 50
0.0
 71
     0
 42
100.0
  3
MS PGothic.ttf
  4

1001
ACAD
1000
MS PGothic
1071
    32818
  0
STYLE
  5
10BAA
330
7468
100
AcDbSymbolTableRecord
100
AcDbTextStyleTableRecord
  2
STYLE3
 70
     0
 40
0.0
 41
1.0
 50
0.0
 71
     0
 42
100.0
  3

  4

1001
ACAD
1000
DFPGothic-EB
1071
    32818
  0
STYLE
  5
11906
330
7468
100
AcDbSymbolTableRecord
100
AcDbTextStyleTableRecord
  2
MSGOTHIC
 70
     0
 40
0.0
 41
1.0
 50
0.0
 71
     0
 42
3.5
  3
msgothi2.ttf
  4

  0
ENDTAB
  0
TABLE
  2
VIEW
  5
746B
330
0
100
AcDbSymbolTable
 70
     0
  0
ENDTAB
  0
TABLE
  2
UCS
  5
746C
330
0
100
AcDbSymbolTable
 70
     0
  0
ENDTAB
  0
TABLE
  2
APPID
  5
746E
330
0
100
AcDbSymbolTable
 70
     6
  0
APPID
  5
7476
330
746E
100
AcDbSymbolTableRecord
100
AcDbRegAppTableRecord
  2
ACAD
 70
     0
  0
APPID
  5
DEA9
330
746E
100
AcDbSymbolTableRecord
100
AcDbRegAppTableRecord
  2
CONTENTBLOCKICON
 70
     0
  0
APPID
  5
DEAA
330
746E
100
AcDbSymbolTableRecord
100
AcDbRegAppTableRecord
  2
CONTENTBLOCKDESCRIPTION
 70
     0
  0
APPID
  5
E71D
330
746E
100
AcDbSymbolTableRecord
100
AcDbRegAppTableRecord
  2
CONTENTTABDATA
 70
     0
  0
APPID
  5
E71E
330
746E
100
AcDbSymbolTableRecord
100
AcDbRegAppTableRecord
  2
CONTENTCURRENTTAB
 70
     0
  0
APPID
  5
F3BA
330
746E
100
AcDbSymbolTableRecord
100
AcDbRegAppTableRecord
  2
DRAWINGVARIABLESXDATA
 70
     0
  0
ENDTAB
  0
TABLE
  2
DIMSTYLE
  5
746F
330
0
100
AcDbSymbolTable
 70
     6
100
AcDbDimStyleTable
 71
     0
  0
DIMSTYLE
105
7484
330
746F
100
AcDbSymbolTableRecord
100
AcDbDimStyleTableRecord
  2
JIS
 70
     0
 41
2.5
 42
1.0
 43
7.0
 44
1.0
 73
     0
 74
     0
 77
     1
 78
     8
140
2.5
141
0.0
143
0.0394
147
0.0
172
     1
174
     1
175
     1
340
7475
  0
DIMSTYLE
105
F236
102
{ACAD_REACTORS
330
13AA3
330
13AA4
330
13AA5
330
13AA6
330
13AA7
330
13ACC
330
13ACD
330
13AE1
330
13B24
330
13B2F
330
143CD
330
148C9
330
14BA5
330
14CA2
330
14CD7
102
}
330
746F
100
AcDbSymbolTableRecord
100
AcDbDimStyleTableRecord
  2
INABA_S40
 70
     0
 40
40.0
 41
2.5
 42
0.5
 43
7.0
 44
1.5
 73
     0
 74
     0
 77
     3
 78
     8
140
3.0
141
0.0
143
0.0394
147
1.0
172
     1
173
     1
174
     1
175
     1
178
     7
289
     0
340
7475
  0
DIMSTYLE
105
F71F
102
{ACAD_REACTORS
330
13C5C
330
13C5D
330
13C5E
330
13C77
330
14375
330
14384
330
14392
330
14393
330
14394
330
14398
330
143C8
330
143C9
330
143CA
330
14BA4
330
14FBB
102
}
330
746F
100
AcDbSymbolTableRecord
100
AcDbDimStyleTableRecord
  2
INABA_S40G
 70
     0
 40
40.0
 41
2.5
 42
0.5
 43
7.0
 44
1.5
 73
     0
 74
     0
 77
     3
 78
     8
140
3.0
141
0.0
143
0.0394
147
1.0
172
     1
173
     1
174
     1
175
     1
178
     7
271
     1
340
F706
341
F770
343
F770
344
F770
  0
DIMSTYLE
105
11907
330
746F
100
AcDbSymbolTableRecord
100
AcDbDimStyleTableRecord
  2
INABA_S50
 70
     0
 40
50.0
 41
0.5
 42
0.5
 43
7.0
 44
1.0
 73
     0
 74
     0
 77
     3
 78
     8
140
2.5
141
0.0
143
0.0394
147
0.8
172
     1
173
     1
174
     1
175
     1
178
     7
271
     2
272
     2
289
     0
340
7475
341
F744
343
F744
344
F744
  0
DIMSTYLE
105
11908
330
746F
100
AcDbSymbolTableRecord
100
AcDbDimStyleTableRecord
  2
INABA_S50G
 70
     0
 41
125.0
 42
25.0
 43
7.0
 44
75.0
 73
     0
 74
     0
 77
     3
 78
     8
140
150.0
141
0.0
143
0.0394
147
25.0
172
     1
173
     1
174
     1
175
     1
178
     7
271
     1
340
F706
341
F770
343
F770
344
F770
  0
DIMSTYLE
105
15016
330
746F
100
AcDbSymbolTableRecord
100
AcDbDimStyleTableRecord
  2
INABA_S20G
 70
     0
 40
20.0
 41
2.5
 42
0.5
 43
7.0
 44
1.5
 73
     0
 74
     0
 77
     3
 78
     8
140
3.0
141
0.0
143
0.0394
147
1.0
172
     1
173
     1
174
     1
178
     7
271
     1
340
F706
341
F770
343
F770
344
F770
  0
ENDTAB
  0
TABLE
  2
BLOCK_RECORD
  5
7466
330
0
100
AcDbSymbolTable
 70
    33
  0
BLOCK_RECORD
  5
747D
330
7466
100
AcDbSymbolTableRecord
100
AcDbBlockTableRecord
  2
*MODEL_SPACE
340
135AA
  0
BLOCK_RECORD
  5
747A
330
7466
100
AcDbSymbolTableRecord
100
AcDbBlockTableRecord
  2
*PAPER_SPACE
340
135AB
  0
BLOCK_RECORD
  5
ECB3
330
7466
100
AcDbSymbolTableRecord
100
AcDbBlockTableRecord
  2
作図枠S50
340
0
310
2800000020000000200000000100040000000000000200000000000000000000000000000000000000000000000080000080000000808000800000008000800080800000C0C0C000808080000000FF0000FF000000FFFF00FF000000FF00FF00FFFF0000FFFFFF00FFFFFFFFFFFFFFFFFFFFFFFFFFFFFFFFFFFFFFFFFFFFFF
310
FFFFFFFFFFFFFFFFFFFFFFFFFFFFFFFFFFFFFFFFFFFFFFFFFFFFFFFFFFFFFFFFFFFFFFFFFFFFFFFFFFFFFFFFFFFFFFFFFFFFFFFFFFFFFFFFFFFFFFFFFFFFFFFFFFFFFFFFFFFFFFFFFF999999999999999999999999999999999FFFFFFFFFFFFFFFFFFFFFFFFFFFFFF99FFFFFFFFFFFFFFFFFFFFFFFFFFFFFF99FFFFFFFFFFF
310
FFFFFFFFFFFFFFFFFFF99FFFFFFFFFFFFFFFFFFFFFFFFFFFFFF99FFFFFFFFFFFFFFFFFFFFFFFFFFFFFF99FFFFFFFFFFFFFFFFFFFFFFFFFFFFFF99FFFFFFFFFFFFFFFFFFFFFFFFFFFFFF99FFFFFFFFFFFFFFFFFFFFFFFFFFFFFF99FFFFFFFFFFFFFFFFFFFFFFFFFFFFFF99FFFFFFFFFFFFFFFFFFFFFFFFFFFFFF99FFFFFFFFF
310
FFFFFFFFFFFFFFFFFFFFF99FFFFFFFFFFFFFFFFFFFFFFFFFFFFFF99FFFFFFFFFFFFFFFFFFFFFFFFFFFFFF99FFFFFFFFFFFFFFFFFFFFFFFFFFFFFF99FFFFFFFFFFFFFFFFFFFFFFFFFFFFFF99FFFFFFFFFFFFFFFFFFFFFFFFFFFFFF99FFFFFFFFFFFFFFFFFFFFFFFFFFFFFF99FFFFFFFFFFFFFFFFFFFFF99999999999FFFFFFF
310
FFFFFFFFFFFFFF9FFFFFFFFF99999999999999999999999FFFFFFFFFFFFFFFFFFFFFFFFFFFFFFFFFFFFFFFFFFFFFFFFFFFFFFFFFFFFFFFFFFFFFFFFFFFFFFFFFFFFFFFFFFFFFFFFFFFFFFFFFFFFFFFFFFFFFFFFFFFFFFFFFFFFFFFFFFFFFFFFFFFFFFFFFFFFFFFFFFFFFFFFF
102
{BLKREFS
331
F235
102
}
  0
BLOCK_RECORD
  5
F744
330
7466
100
AcDbSymbolTableRecord
100
AcDbBlockTableRecord
  2
_DOT
340
0
102
{BLKREFS
331
14677
331
14678
331
14EF3
331
14EF4
331
14EFC
331
14EFD
331
14F07
331
14F08
331
14F19
331
14F1A
331
14F22
331
14F23
331
14F2B
331
14F2C
331
14F36
331
14F37
331
14F3F
331
14F40
331
14F48
331
14F49
331
14F53
331
14F54
331
14F5C
331
14F5D
331
14F67
331
14F68
331
14F70
331
14F71
331
14F7B
331
14F7C
102
}
  0
BLOCK_RECORD
  5
F770
330
7466
100
AcDbSymbolTableRecord
100
AcDbBlockTableRecord
  2
_DOTSMALL
340
0
102
{BLKREFS
331
14680
331
14681
331
14689
331
1468A
331
14692
331
14693
331
1469D
331
1469E
331
146A6
331
146A7
331
146B1
331
146B2
331
146BA
331
146BB
331
146C4
331
146C5
331
146CE
331
146CF
331
146D9
331
146DA
331
146E2
331
146E3
331
146EB
331
146EC
331
146F6
331
146F7
331
14F10
331
14F11
331
14FCB
331
14FCC
102
}
  0
BLOCK_RECORD
  5
13D61
330
7466
100
AcDbSymbolTableRecord
100
AcDbBlockTableRecord
  2
*D3
340
0
  0
BLOCK_RECORD
  5
13D6F
330
7466
100
AcDbSymbolTableRecord
100
AcDbBlockTableRecord
  2
*D4
340
0
  0
BLOCK_RECORD
  5
13D7B
330
7466
100
AcDbSymbolTableRecord
100
AcDbBlockTableRecord
  2
*D5
340
0
  0
BLOCK_RECORD
  5
13D87
330
7466
100
AcDbSymbolTableRecord
100
AcDbBlockTableRecord
  2
*D6
340
0
  0
BLOCK_RECORD
  5
13E13
330
7466
100
AcDbSymbolTableRecord
100
AcDbBlockTableRecord
  2
*D7
340
0
  0
BLOCK_RECORD
  5
13E21
330
7466
100
AcDbSymbolTableRecord
100
AcDbBlockTableRecord
  2
*D8
340
0
  0
BLOCK_RECORD
  5
13E2D
330
7466
100
AcDbSymbolTableRecord
100
AcDbBlockTableRecord
  2
*D9
340
0
  0
BLOCK_RECORD
  5
13E3B
330
7466
100
AcDbSymbolTableRecord
100
AcDbBlockTableRecord
  2
*D10
340
0
  0
BLOCK_RECORD
  5
13E47
330
7466
100
AcDbSymbolTableRecord
100
AcDbBlockTableRecord
  2
*D11
340
0
  0
BLOCK_RECORD
  5
13E55
330
7466
100
AcDbSymbolTableRecord
100
AcDbBlockTableRecord
  2
*D12
340
0
  0
BLOCK_RECORD
  5
13E61
330
7466
100
AcDbSymbolTableRecord
100
AcDbBlockTableRecord
  2
*D13
340
0
  0
BLOCK_RECORD
  5
13E79
330
7466
100
AcDbSymbolTableRecord
100
AcDbBlockTableRecord
  2
*D14
340
0
  0
BLOCK_RECORD
  5
13E93
330
7466
100
AcDbSymbolTableRecord
100
AcDbBlockTableRecord
  2
*D15
340
0
  0
BLOCK_RECORD
  5
13E9F
330
7466
100
AcDbSymbolTableRecord
100
AcDbBlockTableRecord
  2
*D16
340
0
  0
BLOCK_RECORD
  5
144D9
330
7466
100
AcDbSymbolTableRecord
100
AcDbBlockTableRecord
  2
*D17
340
0
  0
BLOCK_RECORD
  5
144E6
330
7466
100
AcDbSymbolTableRecord
100
AcDbBlockTableRecord
  2
*D18
340
0
  0
BLOCK_RECORD
  5
144F3
330
7466
100
AcDbSymbolTableRecord
100
AcDbBlockTableRecord
  2
*D19
340
0
  0
BLOCK_RECORD
  5
144FF
330
7466
100
AcDbSymbolTableRecord
100
AcDbBlockTableRecord
  2
*D20
340
0
  0
BLOCK_RECORD
  5
1450D
330
7466
100
AcDbSymbolTableRecord
100
AcDbBlockTableRecord
  2
*D21
340
0
  0
BLOCK_RECORD
  5
14519
330
7466
100
AcDbSymbolTableRecord
100
AcDbBlockTableRecord
  2
*D22
340
0
  0
BLOCK_RECORD
  5
14527
330
7466
100
AcDbSymbolTableRecord
100
AcDbBlockTableRecord
  2
*D23
340
0
  0
BLOCK_RECORD
  5
14533
330
7466
100
AcDbSymbolTableRecord
100
AcDbBlockTableRecord
  2
*D24
340
0
  0
BLOCK_RECORD
  5
1453F
330
7466
100
AcDbSymbolTableRecord
100
AcDbBlockTableRecord
  2
*D25
340
0
  0
BLOCK_RECORD
  5
1454B
330
7466
100
AcDbSymbolTableRecord
100
AcDbBlockTableRecord
  2
*D26
340
0
  0
BLOCK_RECORD
  5
14934
330
7466
100
AcDbSymbolTableRecord
100
AcDbBlockTableRecord
  2
*D27
340
0
  0
BLOCK_RECORD
  5
14CEA
330
7466
100
AcDbSymbolTableRecord
100
AcDbBlockTableRecord
  2
*D28
340
0
  0
BLOCK_RECORD
  5
14CF6
330
7466
100
AcDbSymbolTableRecord
100
AcDbBlockTableRecord
  2
*D29
340
0
  0
BLOCK_RECORD
  5
14D28
330
7466
100
AcDbSymbolTableRecord
100
AcDbBlockTableRecord
  2
*D30
340
0
  0
BLOCK_RECORD
  5
14D42
330
7466
100
AcDbSymbolTableRecord
100
AcDbBlockTableRecord
  2
*D31
340
0
  0
BLOCK_RECORD
  5
14FBC
330
7466
100
AcDbSymbolTableRecord
100
AcDbBlockTableRecord
  2
*D32
340
0
  0
ENDTAB
  0
ENDSEC
  0
SECTION
  2
BLOCKS
  0
BLOCK
  5
7489
330
747D
100
AcDbEntity
  8
0
100
AcDbBlockBegin
  2
*MODEL_SPACE
 70
     0
 10
0.0
 20
0.0
 30
0.0
  3
*MODEL_SPACE
  1

  0
ENDBLK
  5
748A
330
747D
100
AcDbEntity
  8
0
100
AcDbBlockEnd
  0
BLOCK
  5
7487
330
747A
100
AcDbEntity
 67
     1
  8
0
100
AcDbBlockBegin
  2
*PAPER_SPACE
 70
     0
 10
0.0
 20
0.0
 30
0.0
  3
*PAPER_SPACE
  1

  0
ENDBLK
  5
7488
330
747A
100
AcDbEntity
 67
     1
  8
0
100
AcDbBlockEnd
  0
BLOCK
  5
ECB4
330
ECB3
100
AcDbEntity
  8
0
100
AcDbBlockBegin
  2
作図枠S50
 70
     0
 10
0.0
 20
0.0
 30
0.0
  3
作図枠S50
  1

  4
作図領域枠 縮尺 1/50
  0
LINE
  5
ECB5
330
ECB3
100
AcDbEntity
  8
補助
100
AcDbLine
 10
14364.0
 20
14262.0
 30
0.0
 11
174.9999999999993
 21
14262.0
 31
0.0
  0
LINE
  5
ECB6
330
ECB3
100
AcDbEntity
  8
補助
100
AcDbLine
 10
174.9999999999993
 20
14262.0
 30
0.0
 11
174.9999999999993
 21
1520.0
 31
0.0
  0
LINE
  5
ECB7
330
ECB3
100
AcDbEntity
  8
補助
100
AcDbLine
 10
174.9999999999993
 20
1520.0
 30
0.0
 11
20384.0
 21
1520.0
 31
0.0
  0
LINE
  5
ECB8
330
ECB3
100
AcDbEntity
  8
補助
100
AcDbLine
 10
20384.0
 20
1520.0
 30
0.0
 11
20384.0
 21
13042.0
 31
0.0
  0
LINE
  5
ECB9
330
ECB3
100
AcDbEntity
  8
補助
100
AcDbLine
 10
20384.0
 20
13042.0
 30
0.0
 11
14364.0
 21
13042.0
 31
0.0
  0
LINE
  5
ECBA
330
ECB3
100
AcDbEntity
  8
補助
100
AcDbLine
 10
14364.0
 20
13042.0
 30
0.0
 11
14364.0
 21
14262.0
 31
0.0
  0
ENDBLK
  5
ECBB
330
ECB3
100
AcDbEntity
  8
0
100
AcDbBlockEnd
  0
BLOCK
  5
F745
330
F744
100
AcDbEntity
  8
0
 48
50.0
100
AcDbBlockBegin
  2
_DOT
 70
     0
 10
0.0
 20
0.0
 30
0.0
  3
_DOT
  1

  0
LWPOLYLINE
  5
F746
330
F744
100
AcDbEntity
  8
0
  6
ByBlock
 62
     0
 48
50.0
100
AcDbPolyline
 90
        2
 70
     1
 43
0.5
 10
-0.25
 20
0.0
 42
1.0
 10
0.25
 20
0.0
 42
1.0
  0
LINE
  5
F74A
330
F744
100
AcDbEntity
  8
0
  6
ByBlock
 62
     0
 48
50.0
100
AcDbLine
 10
-0.5
 20
0.0
 30
0.0
 11
-1.0
 21
0.0
 31
0.0
  0
ENDBLK
  5
F74B
330
F744
100
AcDbEntity
  8
0
 48
50.0
100
AcDbBlockEnd
  0
BLOCK
  5
F771
330
F770
100
AcDbEntity
  8
0
 48
50.0
100
AcDbBlockBegin
  2
_DOTSMALL
 70
     0
 10
0.0
 20
0.0
 30
0.0
  3
_DOTSMALL
  1

  0
LWPOLYLINE
  5
F772
330
F770
100
AcDbEntity
  8
0
  6
ByBlock
 62
     0
 48
50.0
100
AcDbPolyline
 90
        2
 70
     1
 43
0.5
 10
-0.0625
 20
0.0
 42
1.0
 10
0.0625
 20
0.0
 42
1.0
  0
ENDBLK
  5
F776
330
F770
100
AcDbEntity
  8
0
 48
50.0
100
AcDbBlockEnd
  0
BLOCK
  5
13D6D
330
13D61
100
AcDbEntity
  8
0
 48
50.0
100
AcDbBlockBegin
  2
*D3
 70
     1
 10
0.0
 20
0.0
 30
0.0
  3
*D3
  1

  0
LINE
  5
146F1
330
13D61
100
AcDbEntity
  8
寸法
 62
     0
 48
50.0
370
    -2
100
AcDbLine
 10
2499.695515348526
 20
4683.112805903264
 30
0.0
 11
2499.695515348526
 21
4935.654391161502
 31
0.0
  0
LINE
  5
146F2
330
13D61
100
AcDbEntity
  8
寸法
 62
     0
 48
50.0
370
    -2
100
AcDbLine
 10
2449.695515348525
 20
4683.112805903262
 30
0.0
 11
2449.695515348525
 21
4935.654391161502
 31
0.0
  0
LINE
  5
146F3
330
13D61
100
AcDbEntity
  8
寸法
 62
     0
 48
50.0
370
    -2
100
AcDbLine
 10
2499.695515348526
 20
4875.654391161502
 30
0.0
 11
2599.695515348525
 21
4875.654391161502
 31
0.0
  0
LINE
  5
146F4
330
13D61
100
AcDbEntity
  8
寸法
 62
     0
 48
50.0
370
    -2
100
AcDbLine
 10
2449.695515348525
 20
4875.654391161502
 30
0.0
 11
2030.162989879789
 21
4875.654391161502
 31
0.0
  0
LINE
  5
146F5
330
13D61
100
AcDbEntity
  8
寸法
 62
     0
 48
50.0
370
    -2
100
AcDbLine
 10
2499.695515348526
 20
4875.654391161502
 30
0.0
 11
2449.695515348525
 21
4875.654391161502
 31
0.0
  0
INSERT
  5
146F6
330
13D61
100
AcDbEntity
  8
寸法
 62
     0
 48
50.0
370
    -2
100
AcDbBlockReference
  2
_DOTSMALL
 10
2499.695515348526
 20
4875.654391161502
 30
0.0
 41
100.0
 42
100.0
 43
100.0
 50
180.0
  0
INSERT
  5
146F7
330
13D61
100
AcDbEntity
  8
寸法
 62
     0
 48
50.0
370
    -2
100
AcDbBlockReference
  2
_DOTSMALL
 10
2449.695515348525
 20
4875.654391161502
 30
0.0
 41
100.0
 42
100.0
 43
100.0
  0
MTEXT
  5
146F8
330
13D61
100
AcDbEntity
  8
寸法
 62
     7
 48
50.0
100
AcDbMText
 10
2136.210233974278
 20
4975.654391161501
 30
0.0
 40
120.0
 41
0.0
 71
     5
 72
     1
  1
\A1;50
  7
STYLE1
 73
     1
 44
1.0
1001
ACAD
1000
MTEXTBEGIN
1070
    73
1070
     1
1070
    44
1040
1.0
1070
    74
1070
     0
1000
MTEXTEND
  0
POINT
  5
146F9
330
13D61
100
AcDbEntity
  8
DEFPOINTS
 62
     0
 48
50.0
100
AcDbPoint
 10
2499.695515348526
 20
4663.112805903264
 30
0.0
  0
POINT
  5
146FA
330
13D61
100
AcDbEntity
  8
DEFPOINTS
 62
     0
 48
50.0
100
AcDbPoint
 10
2449.695515348525
 20
4663.112805903263
 30
0.0
  0
POINT
  5
146FB
330
13D61
100
AcDbEntity
  8
DEFPOINTS
 62
     0
 48
50.0
100
AcDbPoint
 10
2449.695515348525
 20
4875.654391161502
 30
0.0
  0
ENDBLK
  5
13D6E
330
13D61
100
AcDbEntity
  8
0
 48
50.0
100
AcDbBlockEnd
  0
BLOCK
  5
13D79
330
13D6F
100
AcDbEntity
  8
0
 48
50.0
100
AcDbBlockBegin
  2
*D4
 70
     1
 10
0.0
 20
0.0
 30
0.0
  3
*D4
  1

  0
LINE
  5
146E8
330
13D6F
100
AcDbEntity
  8
寸法
 62
     0
 48
50.0
370
    -2
100
AcDbLine
 10
2449.695515348525
 20
4683.112805903262
 30
0.0
 11
2449.695515348525
 21
5156.55969163525
 31
0.0
  0
LINE
  5
146E9
330
13D6F
100
AcDbEntity
  8
寸法
 62
     0
 48
50.0
370
    -2
100
AcDbLine
 10
8649.695515348529
 20
4683.112805903258
 30
0.0
 11
8649.695515348529
 21
5156.55969163525
 31
0.0
  0
LINE
  5
146EA
330
13D6F
100
AcDbEntity
  8
寸法
 62
     0
 48
50.0
370
    -2
100
AcDbLine
 10
2449.695515348525
 20
5096.559691635249
 30
0.0
 11
8649.695515348529
 21
5096.559691635249
 31
0.0
  0
INSERT
  5
146EB
330
13D6F
100
AcDbEntity
  8
寸法
 62
     0
 48
50.0
370
    -2
100
AcDbBlockReference
  2
_DOTSMALL
 10
2449.695515348525
 20
5096.559691635249
 30
0.0
 41
100.0
 42
100.0
 43
100.0
 50
180.0
  0
INSERT
  5
146EC
330
13D6F
100
AcDbEntity
  8
寸法
 62
     0
 48
50.0
370
    -2
100
AcDbBlockReference
  2
_DOTSMALL
 10
8649.695515348529
 20
5096.559691635249
 30
0.0
 41
100.0
 42
100.0
 43
100.0
  0
MTEXT
  5
146ED
330
13D6F
100
AcDbEntity
  8
寸法
 62
     7
 48
50.0
100
AcDbMText
 10
5549.695515348525
 20
5196.571502658872
 30
0.0
 40
120.0
 41
0.0
 71
     5
 72
     1
  1
\A1;6200
  7
STYLE1
 73
     1
 44
1.0
1001
ACAD
1000
MTEXTBEGIN
1070
    73
1070
     1
1070
    44
1040
1.0
1070
    74
1070
     0
1000
MTEXTEND
  0
POINT
  5
146EE
330
13D6F
100
AcDbEntity
  8
DEFPOINTS
 62
     0
 48
50.0
100
AcDbPoint
 10
2449.695515348525
 20
4663.112805903263
 30
0.0
  0
POINT
  5
146EF
330
13D6F
100
AcDbEntity
  8
DEFPOINTS
 62
     0
 48
50.0
100
AcDbPoint
 10
8649.695515348529
 20
4663.112805903258
 30
0.0
  0
POINT
  5
146F0
330
13D6F
100
AcDbEntity
  8
DEFPOINTS
 62
     0
 48
50.0
100
AcDbPoint
 10
8649.695515348529
 20
5096.559691635249
 30
0.0
  0
ENDBLK
  5
13D7A
330
13D6F
100
AcDbEntity
  8
0
 48
50.0
100
AcDbBlockEnd
  0
BLOCK
  5
13D85
330
13D7B
100
AcDbEntity
  8
0
 48
50.0
100
AcDbBlockBegin
  2
*D5
 70
     1
 10
0.0
 20
0.0
 30
0.0
  3
*D5
  1

  0
LINE
  5
146DF
330
13D7B
100
AcDbEntity
  8
寸法
 62
     0
 48
50.0
370
    -2
100
AcDbLine
 10
8599.695515348528
 20
4683.11280590326
 30
0.0
 11
8599.695515348528
 21
4935.6543911615
 31
0.0
  0
LINE
  5
146E0
330
13D7B
100
AcDbEntity
  8
寸法
 62
     0
 48
50.0
370
    -2
100
AcDbLine
 10
2499.695515348526
 20
4683.112805903264
 30
0.0
 11
2499.695515348526
 21
4935.6543911615
 31
0.0
  0
LINE
  5
146E1
330
13D7B
100
AcDbEntity
  8
寸法
 62
     0
 48
50.0
370
    -2
100
AcDbLine
 10
8599.695515348528
 20
4875.6543911615
 30
0.0
 11
2499.695515348526
 21
4875.6543911615
 31
0.0
  0
INSERT
  5
146E2
330
13D7B
100
AcDbEntity
  8
寸法
 62
     0
 48
50.0
370
    -2
100
AcDbBlockReference
  2
_DOTSMALL
 10
8599.695515348528
 20
4875.6543911615
 30
0.0
 41
100.0
 42
100.0
 43
100.0
  0
INSERT
  5
146E3
330
13D7B
100
AcDbEntity
  8
寸法
 62
     0
 48
50.0
370
    -2
100
AcDbBlockReference
  2
_DOTSMALL
 10
2499.695515348526
 20
4875.6543911615
 30
0.0
 41
100.0
 42
100.0
 43
100.0
 50
180.0
  0
MTEXT
  5
146E4
330
13D7B
100
AcDbEntity
  8
寸法
 62
     7
 48
50.0
100
AcDbMText
 10
5549.695515348525
 20
4975.6543911615
 30
0.0
 40
120.0
 41
0.0
 71
     5
 72
     1
  1
\A1;柱外寸法6100
  7
STYLE1
 73
     1
 44
1.0
1001
ACAD
1000
MTEXTBEGIN
1070
    73
1070
     1
1070
    44
1040
1.0
1070
    74
1070
     0
1000
MTEXTEND
  0
POINT
  5
146E5
330
13D7B
100
AcDbEntity
  8
DEFPOINTS
 62
     0
 48
50.0
100
AcDbPoint
 10
8599.695515348528
 20
4663.112805903259
 30
0.0
  0
POINT
  5
146E6
330
13D7B
100
AcDbEntity
  8
DEFPOINTS
 62
     0
 48
50.0
100
AcDbPoint
 10
2499.695515348526
 20
4663.112805903264
 30
0.0
  0
POINT
  5
146E7
330
13D7B
100
AcDbEntity
  8
DEFPOINTS
 62
     0
 48
50.0
100
AcDbPoint
 10
2499.695515348526
 20
4875.6543911615
 30
0.0
  0
ENDBLK
  5
13D86
330
13D7B
100
AcDbEntity
  8
0
 48
50.0
100
AcDbBlockEnd
  0
BLOCK
  5
13D93
330
13D87
100
AcDbEntity
  8
0
 48
50.0
100
AcDbBlockBegin
  2
*D6
 70
     1
 10
0.0
 20
0.0
 30
0.0
  3
*D6
  1

  0
LINE
  5
146D4
330
13D87
100
AcDbEntity
  8
寸法
 62
     0
 48
50.0
370
    -2
100
AcDbLine
 10
8649.695515348529
 20
4683.112805903258
 30
0.0
 11
8649.695515348529
 21
4935.654391161499
 31
0.0
  0
LINE
  5
146D5
330
13D87
100
AcDbEntity
  8
寸法
 62
     0
 48
50.0
370
    -2
100
AcDbLine
 10
8599.695515348528
 20
4683.11280590326
 30
0.0
 11
8599.695515348528
 21
4935.654391161499
 31
0.0
  0
LINE
  5
146D6
330
13D87
100
AcDbEntity
  8
寸法
 62
     0
 48
50.0
370
    -2
100
AcDbLine
 10
8599.695515348528
 20
4875.654391161499
 30
0.0
 11
8499.695515348529
 21
4875.654391161499
 31
0.0
  0
LINE
  5
146D7
330
13D87
100
AcDbEntity
  8
寸法
 62
     0
 48
50.0
370
    -2
100
AcDbLine
 10
8649.695515348529
 20
4875.654391161499
 30
0.0
 11
9069.228040817252
 21
4875.654391161499
 31
0.0
  0
LINE
  5
146D8
330
13D87
100
AcDbEntity
  8
寸法
 62
     0
 48
50.0
370
    -2
100
AcDbLine
 10
8599.695515348528
 20
4875.654391161499
 30
0.0
 11
8649.695515348529
 21
4875.654391161499
 31
0.0
  0
INSERT
  5
146D9
330
13D87
100
AcDbEntity
  8
寸法
 62
     0
 48
50.0
370
    -2
100
AcDbBlockReference
  2
_DOTSMALL
 10
8599.695515348528
 20
4875.654391161499
 30
0.0
 41
100.0
 42
100.0
 43
100.0
  0
INSERT
  5
146DA
330
13D87
100
AcDbEntity
  8
寸法
 62
     0
 48
50.0
370
    -2
100
AcDbBlockReference
  2
_DOTSMALL
 10
8649.695515348529
 20
4875.654391161499
 30
0.0
 41
100.0
 42
100.0
 43
100.0
 50
180.0
  0
MTEXT
  5
146DB
330
13D87
100
AcDbEntity
  8
寸法
 62
     7
 48
50.0
100
AcDbMText
 10
8963.180796722765
 20
4975.654391161499
 30
0.0
 40
120.0
 41
0.0
 71
     5
 72
     1
  1
\A1;50
  7
STYLE1
 73
     1
 44
1.0
1001
ACAD
1000
MTEXTBEGIN
1070
    73
1070
     1
1070
    44
1040
1.0
1070
    74
1070
     0
1000
MTEXTEND
  0
POINT
  5
146DC
330
13D87
100
AcDbEntity
  8
DEFPOINTS
 62
     0
 48
50.0
100
AcDbPoint
 10
8649.695515348529
 20
4663.112805903258
 30
0.0
  0
POINT
  5
146DD
330
13D87
100
AcDbEntity
  8
DEFPOINTS
 62
     0
 48
50.0
100
AcDbPoint
 10
8599.695515348528
 20
4663.112805903259
 30
0.0
  0
POINT
  5
146DE
330
13D87
100
AcDbEntity
  8
DEFPOINTS
 62
     0
 48
50.0
100
AcDbPoint
 10
8599.695515348528
 20
4875.654391161499
 30
0.0
  0
ENDBLK
  5
13D94
330
13D87
100
AcDbEntity
  8
0
 48
50.0
100
AcDbBlockEnd
  0
BLOCK
  5
13E1F
330
13E13
100
AcDbEntity
  8
0
 48
50.0
100
AcDbBlockBegin
  2
*D7
 70
     1
 10
0.0
 20
0.0
 30
0.0
  3
*D7
  1

  0
LINE
  5
14F76
330
13E13
100
AcDbEntity
  8
寸法
 62
     0
 48
50.0
370
    -2
100
AcDbLine
 10
8544.695515348525
 20
10349.68484636841
 30
0.0
 11
8544.695515348525
 21
10744.3972563872
 31
0.0
  0
LINE
  5
14F77
330
13E13
100
AcDbEntity
  8
寸法
 62
     0
 48
50.0
370
    -2
100
AcDbLine
 10
8599.695515348525
 20
10349.6848463684
 30
0.0
 11
8599.695515348525
 21
10744.3972563872
 31
0.0
  0
LINE
  5
14F78
330
13E13
100
AcDbEntity
  8
寸法
 62
     0
 48
50.0
370
    -2
100
AcDbLine
 10
8524.695515348524
 20
10704.3972563872
 30
0.0
 11
8504.695515348526
 21
10704.3972563872
 31
0.0
  0
LINE
  5
14F79
330
13E13
100
AcDbEntity
  8
寸法
 62
     0
 48
50.0
370
    -2
100
AcDbLine
 10
8619.695515348524
 20
10704.3972563872
 30
0.0
 11
9094.347463389429
 21
10704.3972563872
 31
0.0
  0
LINE
  5
14F7A
330
13E13
100
AcDbEntity
  8
寸法
 62
     0
 48
50.0
370
    -2
100
AcDbLine
 10
8544.695515348525
 20
10704.3972563872
 30
0.0
 11
8599.695515348525
 21
10704.3972563872
 31
0.0
  0
INSERT
  5
14F7B
330
13E13
100
AcDbEntity
  8
寸法
 62
     0
 48
50.0
370
    -2
100
AcDbBlockReference
  2
_DOT
 10
8544.695515348525
 20
10704.3972563872
 30
0.0
 41
20.0
 42
20.0
 43
20.0
  0
INSERT
  5
14F7C
330
13E13
100
AcDbEntity
  8
寸法
 62
     0
 48
50.0
370
    -2
100
AcDbBlockReference
  2
_DOT
 10
8599.695515348525
 20
10704.3972563872
 30
0.0
 41
20.0
 42
20.0
 43
20.0
 50
180.0
  0
MTEXT
  5
14F7D
330
13E13
100
AcDbEntity
  8
寸法
 62
     7
 48
50.0
100
AcDbMText
 10
8993.86218201519
 20
10796.3972563872
 30
0.0
 40
120.0
 41
0.0
 71
     5
 72
     1
  1
\A1;55
  7
STYLE1
 73
     1
 44
1.0
1001
ACAD
1000
MTEXTBEGIN
1070
    73
1070
     1
1070
    44
1040
1.0
1070
    74
1070
     0
1000
MTEXTEND
  0
POINT
  5
14F7E
330
13E13
100
AcDbEntity
  8
DEFPOINTS
 62
     0
 48
50.0
100
AcDbPoint
 10
8544.695515348525
 20
10329.68484636841
 30
0.0
  0
POINT
  5
14F7F
330
13E13
100
AcDbEntity
  8
DEFPOINTS
 62
     0
 48
50.0
100
AcDbPoint
 10
8599.695515348525
 20
10329.6848463684
 30
0.0
  0
POINT
  5
14F80
330
13E13
100
AcDbEntity
  8
DEFPOINTS
 62
     0
 48
50.0
100
AcDbPoint
 10
8599.695515348525
 20
10704.3972563872
 30
0.0
  0
ENDBLK
  5
13E20
330
13E13
100
AcDbEntity
  8
0
 48
50.0
100
AcDbBlockEnd
  0
BLOCK
  5
13E2B
330
13E21
100
AcDbEntity
  8
0
 48
50.0
100
AcDbBlockBegin
  2
*D8
 70
     1
 10
0.0
 20
0.0
 30
0.0
  3
*D8
  1

  0
LINE
  5
14F6D
330
13E21
100
AcDbEntity
  8
寸法
 62
     0
 48
50.0
370
    -2
100
AcDbLine
 10
8619.695515348524
 20
10329.6848463684
 30
0.0
 11
9710.442632392879
 21
10329.6848463684
 31
0.0
  0
LINE
  5
14F6E
330
13E21
100
AcDbEntity
  8
寸法
 62
     0
 48
50.0
370
    -2
100
AcDbLine
 10
8619.695515348524
 20
7279.684846368407
 30
0.0
 11
9710.442632392879
 21
7279.684846368407
 31
0.0
  0
LINE
  5
14F6F
330
13E21
100
AcDbEntity
  8
寸法
 62
     0
 48
50.0
370
    -2
100
AcDbLine
 10
9670.442632392878
 20
10309.6848463684
 30
0.0
 11
9670.442632392878
 21
7299.684846368407
 31
0.0
  0
INSERT
  5
14F70
330
13E21
100
AcDbEntity
  8
寸法
 62
     0
 48
50.0
370
    -2
100
AcDbBlockReference
  2
_DOT
 10
9670.442632392878
 20
10329.6848463684
 30
0.0
 41
20.0
 42
20.0
 43
20.0
 50
90.0
  0
INSERT
  5
14F71
330
13E21
100
AcDbEntity
  8
寸法
 62
     0
 48
50.0
370
    -2
100
AcDbBlockReference
  2
_DOT
 10
9670.442632392878
 20
7279.684846368407
 30
0.0
 41
20.0
 42
20.0
 43
20.0
 50
270.0
  0
MTEXT
  5
14F72
330
13E21
100
AcDbEntity
  8
寸法
 62
     7
 48
50.0
100
AcDbMText
 10
9578.442632392876
 20
8804.684846368409
 30
0.0
 40
120.0
 41
0.0
 71
     5
 72
     1
  1
\A1;3050
  7
STYLE1
 11
0.0000000000000001
 21
1.0
 31
0.0
 73
     1
 44
1.0
1001
ACAD
1000
MTEXTBEGIN
1070
    73
1070
     1
1070
    44
1040
1.0
1070
    74
1070
     0
1000
MTEXTEND
  0
POINT
  5
14F73
330
13E21
100
AcDbEntity
  8
DEFPOINTS
 62
     0
 48
50.0
100
AcDbPoint
 10
8599.695515348525
 20
10329.6848463684
 30
0.0
  0
POINT
  5
14F74
330
13E21
100
AcDbEntity
  8
DEFPOINTS
 62
     0
 48
50.0
100
AcDbPoint
 10
8599.695515348525
 20
7279.684846368407
 30
0.0
  0
POINT
  5
14F75
330
13E21
100
AcDbEntity
  8
DEFPOINTS
 62
     0
 48
50.0
100
AcDbPoint
 10
9670.442632392878
 20
7279.684846368407
 30
0.0
  0
ENDBLK
  5
13E2C
330
13E21
100
AcDbEntity
  8
0
 48
50.0
100
AcDbBlockEnd
  0
BLOCK
  5
13E39
330
13E2D
100
AcDbEntity
  8
0
 48
50.0
100
AcDbBlockBegin
  2
*D9
 70
     1
 10
0.0
 20
0.0
 30
0.0
  3
*D9
  1

  0
LINE
  5
14F62
330
13E2D
100
AcDbEntity
  8
寸法
 62
     0
 48
50.0
370
    -2
100
AcDbLine
 10
8619.695515348524
 20
7334.684846368404
 30
0.0
 11
9410.44263239288
 21
7334.684846368404
 31
0.0
  0
LINE
  5
14F63
330
13E2D
100
AcDbEntity
  8
寸法
 62
     0
 48
50.0
370
    -2
100
AcDbLine
 10
8619.695515348524
 20
7279.684846368407
 30
0.0
 11
9410.44263239288
 21
7279.684846368407
 31
0.0
  0
LINE
  5
14F64
330
13E2D
100
AcDbEntity
  8
寸法
 62
     0
 48
50.0
370
    -2
100
AcDbLine
 10
9370.44263239288
 20
7354.684846368404
 30
0.0
 11
9370.44263239288
 21
7374.684846368403
 31
0.0
  0
LINE
  5
14F65
330
13E2D
100
AcDbEntity
  8
寸法
 62
     0
 48
50.0
370
    -2
100
AcDbLine
 10
9370.44263239288
 20
7259.684846368407
 30
0.0
 11
9370.44263239288
 21
6785.032898327502
 31
0.0
  0
LINE
  5
14F66
330
13E2D
100
AcDbEntity
  8
寸法
 62
     0
 48
50.0
370
    -2
100
AcDbLine
 10
9370.44263239288
 20
7334.684846368404
 30
0.0
 11
9370.44263239288
 21
7279.684846368407
 31
0.0
  0
INSERT
  5
14F67
330
13E2D
100
AcDbEntity
  8
寸法
 62
     0
 48
50.0
370
    -2
100
AcDbBlockReference
  2
_DOT
 10
9370.44263239288
 20
7334.684846368404
 30
0.0
 41
20.0
 42
20.0
 43
20.0
 50
270.0
  0
INSERT
  5
14F68
330
13E2D
100
AcDbEntity
  8
寸法
 62
     0
 48
50.0
370
    -2
100
AcDbBlockReference
  2
_DOT
 10
9370.44263239288
 20
7279.684846368407
 30
0.0
 41
20.0
 42
20.0
 43
20.0
 50
90.0
  0
MTEXT
  5
14F69
330
13E2D
100
AcDbEntity
  8
寸法
 62
     7
 48
50.0
100
AcDbMText
 10
9278.442632392879
 20
6885.51817970174
 30
0.0
 40
120.0
 41
0.0
 71
     5
 72
     1
  1
\A1;55
  7
STYLE1
 11
0.0000000000000001
 21
1.0
 31
0.0
 73
     1
 44
1.0
1001
ACAD
1000
MTEXTBEGIN
1070
    73
1070
     1
1070
    44
1040
1.0
1070
    74
1070
     0
1000
MTEXTEND
  0
POINT
  5
14F6A
330
13E2D
100
AcDbEntity
  8
DEFPOINTS
 62
     0
 48
50.0
100
AcDbPoint
 10
8599.695515348525
 20
7334.684846368404
 30
0.0
  0
POINT
  5
14F6B
330
13E2D
100
AcDbEntity
  8
DEFPOINTS
 62
     0
 48
50.0
100
AcDbPoint
 10
8599.695515348525
 20
7279.684846368407
 30
0.0
  0
POINT
  5
14F6C
330
13E2D
100
AcDbEntity
  8
DEFPOINTS
 62
     0
 48
50.0
100
AcDbPoint
 10
9370.44263239288
 20
7279.684846368407
 30
0.0
  0
ENDBLK
  5
13E3A
330
13E2D
100
AcDbEntity
  8
0
 48
50.0
100
AcDbBlockEnd
  0
BLOCK
  5
13E45
330
13E3B
100
AcDbEntity
  8
0
 48
50.0
100
AcDbBlockBegin
  2
*D10
 70
     1
 10
0.0
 20
0.0
 30
0.0
  3
*D10
  1

  0
LINE
  5
14F59
330
13E3B
100
AcDbEntity
  8
寸法
 62
     0
 48
50.0
370
    -2
100
AcDbLine
 10
8619.695515348524
 20
10274.68484636841
 30
0.0
 11
9410.442632392879
 21
10274.68484636841
 31
0.0
  0
LINE
  5
14F5A
330
13E3B
100
AcDbEntity
  8
寸法
 62
     0
 48
50.0
370
    -2
100
AcDbLine
 10
8619.695515348524
 20
7334.684846368404
 30
0.0
 11
9410.442632392879
 21
7334.684846368404
 31
0.0
  0
LINE
  5
14F5B
330
13E3B
100
AcDbEntity
  8
寸法
 62
     0
 48
50.0
370
    -2
100
AcDbLine
 10
9370.442632392878
 20
10254.68484636841
 30
0.0
 11
9370.442632392878
 21
7354.684846368404
 31
0.0
  0
INSERT
  5
14F5C
330
13E3B
100
AcDbEntity
  8
寸法
 62
     0
 48
50.0
370
    -2
100
AcDbBlockReference
  2
_DOT
 10
9370.442632392878
 20
10274.68484636841
 30
0.0
 41
20.0
 42
20.0
 43
20.0
 50
90.0
  0
INSERT
  5
14F5D
330
13E3B
100
AcDbEntity
  8
寸法
 62
     0
 48
50.0
370
    -2
100
AcDbBlockReference
  2
_DOT
 10
9370.442632392878
 20
7334.684846368404
 30
0.0
 41
20.0
 42
20.0
 43
20.0
 50
270.0
  0
MTEXT
  5
14F5E
330
13E3B
100
AcDbEntity
  8
寸法
 62
     7
 48
50.0
100
AcDbMText
 10
9278.430821369255
 20
8804.684846368409
 30
0.0
 40
120.0
 41
0.0
 71
     5
 72
     1
  1
\A1;7X420=2940
  7
STYLE1
 11
0.0000000000000001
 21
1.0
 31
0.0
 73
     1
 44
1.0
1001
ACAD
1000
MTEXTBEGIN
1070
    73
1070
     1
1070
    44
1040
1.0
1070
    74
1070
     0
1000
MTEXTEND
  0
POINT
  5
14F5F
330
13E3B
100
AcDbEntity
  8
DEFPOINTS
 62
     0
 48
50.0
100
AcDbPoint
 10
8599.695515348525
 20
10274.68484636841
 30
0.0
  0
POINT
  5
14F60
330
13E3B
100
AcDbEntity
  8
DEFPOINTS
 62
     0
 48
50.0
100
AcDbPoint
 10
8599.695515348525
 20
7334.684846368404
 30
0.0
  0
POINT
  5
14F61
330
13E3B
100
AcDbEntity
  8
DEFPOINTS
 62
     0
 48
50.0
100
AcDbPoint
 10
9370.442632392878
 20
7334.684846368404
 30
0.0
  0
ENDBLK
  5
13E46
330
13E3B
100
AcDbEntity
  8
0
 48
50.0
100
AcDbBlockEnd
  0
BLOCK
  5
13E53
330
13E47
100
AcDbEntity
  8
0
 48
50.0
100
AcDbBlockBegin
  2
*D11
 70
     1
 10
0.0
 20
0.0
 30
0.0
  3
*D11
  1

  0
LINE
  5
14F4E
330
13E47
100
AcDbEntity
  8
寸法
 62
     0
 48
50.0
370
    -2
100
AcDbLine
 10
8619.695515348524
 20
10329.6848463684
 30
0.0
 11
9410.44263239288
 21
10329.6848463684
 31
0.0
  0
LINE
  5
14F4F
330
13E47
100
AcDbEntity
  8
寸法
 62
     0
 48
50.0
370
    -2
100
AcDbLine
 10
8619.695515348524
 20
10274.68484636841
 30
0.0
 11
9410.44263239288
 21
10274.68484636841
 31
0.0
  0
LINE
  5
14F50
330
13E47
100
AcDbEntity
  8
寸法
 62
     0
 48
50.0
370
    -2
100
AcDbLine
 10
9370.44263239288
 20
10254.68484636841
 30
0.0
 11
9370.44263239288
 21
10234.68484636841
 31
0.0
  0
LINE
  5
14F51
330
13E47
100
AcDbEntity
  8
寸法
 62
     0
 48
50.0
370
    -2
100
AcDbLine
 10
9370.44263239288
 20
10349.6848463684
 30
0.0
 11
9370.44263239288
 21
10824.33679440931
 31
0.0
  0
LINE
  5
14F52
330
13E47
100
AcDbEntity
  8
寸法
 62
     0
 48
50.0
370
    -2
100
AcDbLine
 10
9370.44263239288
 20
10274.68484636841
 30
0.0
 11
9370.44263239288
 21
10329.6848463684
 31
0.0
  0
INSERT
  5
14F53
330
13E47
100
AcDbEntity
  8
寸法
 62
     0
 48
50.0
370
    -2
100
AcDbBlockReference
  2
_DOT
 10
9370.44263239288
 20
10274.68484636841
 30
0.0
 41
20.0
 42
20.0
 43
20.0
 50
90.0
  0
INSERT
  5
14F54
330
13E47
100
AcDbEntity
  8
寸法
 62
     0
 48
50.0
370
    -2
100
AcDbBlockReference
  2
_DOT
 10
9370.44263239288
 20
10329.6848463684
 30
0.0
 41
20.0
 42
20.0
 43
20.0
 50
270.0
  0
MTEXT
  5
14F55
330
13E47
100
AcDbEntity
  8
寸法
 62
     7
 48
50.0
100
AcDbMText
 10
9278.442632392879
 20
10723.85151303507
 30
0.0
 40
120.0
 41
0.0
 71
     5
 72
     1
  1
\A1;55
  7
STYLE1
 11
0.0000000000000001
 21
1.0
 31
0.0
 73
     1
 44
1.0
1001
ACAD
1000
MTEXTBEGIN
1070
    73
1070
     1
1070
    44
1040
1.0
1070
    74
1070
     0
1000
MTEXTEND
  0
POINT
  5
14F56
330
13E47
100
AcDbEntity
  8
DEFPOINTS
 62
     0
 48
50.0
100
AcDbPoint
 10
8599.695515348525
 20
10329.6848463684
 30
0.0
  0
POINT
  5
14F57
330
13E47
100
AcDbEntity
  8
DEFPOINTS
 62
     0
 48
50.0
100
AcDbPoint
 10
8599.695515348525
 20
10274.68484636841
 30
0.0
  0
POINT
  5
14F58
330
13E47
100
AcDbEntity
  8
DEFPOINTS
 62
     0
 48
50.0
100
AcDbPoint
 10
9370.44263239288
 20
10274.68484636841
 30
0.0
  0
ENDBLK
  5
13E54
330
13E47
100
AcDbEntity
  8
0
 48
50.0
100
AcDbBlockEnd
  0
BLOCK
  5
13E5F
330
13E55
100
AcDbEntity
  8
0
 48
50.0
100
AcDbBlockBegin
  2
*D12
 70
     1
 10
0.0
 20
0.0
 30
0.0
  3
*D12
  1

  0
LINE
  5
14F45
330
13E55
100
AcDbEntity
  8
寸法
 62
     0
 48
50.0
370
    -2
100
AcDbLine
 10
2499.695515348526
 20
10349.6848463684
 30
0.0
 11
2499.695515348526
 21
11044.3972563872
 31
0.0
  0
LINE
  5
14F46
330
13E55
100
AcDbEntity
  8
寸法
 62
     0
 48
50.0
370
    -2
100
AcDbLine
 10
8599.695515348525
 20
10349.6848463684
 30
0.0
 11
8599.695515348525
 21
11044.3972563872
 31
0.0
  0
LINE
  5
14F47
330
13E55
100
AcDbEntity
  8
寸法
 62
     0
 48
50.0
370
    -2
100
AcDbLine
 10
2519.695515348525
 20
11004.3972563872
 30
0.0
 11
8579.695515348525
 21
11004.3972563872
 31
0.0
  0
INSERT
  5
14F48
330
13E55
100
AcDbEntity
  8
寸法
 62
     0
 48
50.0
370
    -2
100
AcDbBlockReference
  2
_DOT
 10
2499.695515348526
 20
11004.3972563872
 30
0.0
 41
20.0
 42
20.0
 43
20.0
 50
180.0
  0
INSERT
  5
14F49
330
13E55
100
AcDbEntity
  8
寸法
 62
     0
 48
50.0
370
    -2
100
AcDbBlockReference
  2
_DOT
 10
8599.695515348525
 20
11004.3972563872
 30
0.0
 41
20.0
 42
20.0
 43
20.0
  0
MTEXT
  5
14F4A
330
13E55
100
AcDbEntity
  8
寸法
 62
     7
 48
50.0
100
AcDbMText
 10
5549.695515348525
 20
11096.3972563872
 30
0.0
 40
120.0
 41
0.0
 71
     5
 72
     1
  1
\A1;6100
  7
STYLE1
 73
     1
 44
1.0
1001
ACAD
1000
MTEXTBEGIN
1070
    73
1070
     1
1070
    44
1040
1.0
1070
    74
1070
     0
1000
MTEXTEND
  0
POINT
  5
14F4B
330
13E55
100
AcDbEntity
  8
DEFPOINTS
 62
     0
 48
50.0
100
AcDbPoint
 10
2499.695515348526
 20
10329.6848463684
 30
0.0
  0
POINT
  5
14F4C
330
13E55
100
AcDbEntity
  8
DEFPOINTS
 62
     0
 48
50.0
100
AcDbPoint
 10
8599.695515348525
 20
10329.6848463684
 30
0.0
  0
POINT
  5
14F4D
330
13E55
100
AcDbEntity
  8
DEFPOINTS
 62
     0
 48
50.0
100
AcDbPoint
 10
8599.695515348525
 20
11004.3972563872
 30
0.0
  0
ENDBLK
  5
13E60
330
13E55
100
AcDbEntity
  8
0
 48
50.0
100
AcDbBlockEnd
  0
BLOCK
  5
13E6B
330
13E61
100
AcDbEntity
  8
0
 48
50.0
100
AcDbBlockBegin
  2
*D13
 70
     1
 10
0.0
 20
0.0
 30
0.0
  3
*D13
  1

  0
LINE
  5
14F3C
330
13E61
100
AcDbEntity
  8
寸法
 62
     0
 48
50.0
370
    -2
100
AcDbLine
 10
2554.695515348525
 20
10349.68484636841
 30
0.0
 11
2554.695515348525
 21
10744.3972563872
 31
0.0
  0
LINE
  5
14F3D
330
13E61
100
AcDbEntity
  8
寸法
 62
     0
 48
50.0
370
    -2
100
AcDbLine
 10
5494.695515348524
 20
10349.68484636841
 30
0.0
 11
5494.695515348524
 21
10744.3972563872
 31
0.0
  0
LINE
  5
14F3E
330
13E61
100
AcDbEntity
  8
寸法
 62
     0
 48
50.0
370
    -2
100
AcDbLine
 10
2574.695515348525
 20
10704.3972563872
 30
0.0
 11
5474.695515348525
 21
10704.3972563872
 31
0.0
  0
INSERT
  5
14F3F
330
13E61
100
AcDbEntity
  8
寸法
 62
     0
 48
50.0
370
    -2
100
AcDbBlockReference
  2
_DOT
 10
2554.695515348525
 20
10704.3972563872
 30
0.0
 41
20.0
 42
20.0
 43
20.0
 50
180.0
  0
INSERT
  5
14F40
330
13E61
100
AcDbEntity
  8
寸法
 62
     0
 48
50.0
370
    -2
100
AcDbBlockReference
  2
_DOT
 10
5494.695515348524
 20
10704.3972563872
 30
0.0
 41
20.0
 42
20.0
 43
20.0
  0
MTEXT
  5
14F41
330
13E61
100
AcDbEntity
  8
寸法
 62
     7
 48
50.0
100
AcDbMText
 10
4024.695515348525
 20
10796.40906741082
 30
0.0
 40
120.0
 41
0.0
 71
     5
 72
     1
  1
\A1;7X420=2940
  7
STYLE1
 73
     1
 44
1.0
1001
ACAD
1000
MTEXTBEGIN
1070
    73
1070
     1
1070
    44
1040
1.0
1070
    74
1070
     0
1000
MTEXTEND
  0
POINT
  5
14F42
330
13E61
100
AcDbEntity
  8
DEFPOINTS
 62
     0
 48
50.0
100
AcDbPoint
 10
2554.695515348525
 20
10329.68484636841
 30
0.0
  0
POINT
  5
14F43
330
13E61
100
AcDbEntity
  8
DEFPOINTS
 62
     0
 48
50.0
100
AcDbPoint
 10
5494.695515348524
 20
10329.68484636841
 30
0.0
  0
POINT
  5
14F44
330
13E61
100
AcDbEntity
  8
DEFPOINTS
 62
     0
 48
50.0
100
AcDbPoint
 10
5494.695515348524
 20
10704.3972563872
 30
0.0
  0
ENDBLK
  5
13E6C
330
13E61
100
AcDbEntity
  8
0
 48
50.0
100
AcDbBlockEnd
  0
BLOCK
  5
13E85
330
13E79
100
AcDbEntity
  8
0
 48
50.0
100
AcDbBlockBegin
  2
*D14
 70
     1
 10
0.0
 20
0.0
 30
0.0
  3
*D14
  1

  0
LINE
  5
14F31
330
13E79
100
AcDbEntity
  8
寸法
 62
     0
 48
50.0
370
    -2
100
AcDbLine
 10
2499.695515348526
 20
10349.6848463684
 30
0.0
 11
2499.695515348526
 21
10744.3972563872
 31
0.0
  0
LINE
  5
14F32
330
13E79
100
AcDbEntity
  8
寸法
 62
     0
 48
50.0
370
    -2
100
AcDbLine
 10
2554.695515348525
 20
10349.68484636841
 30
0.0
 11
2554.695515348525
 21
10744.3972563872
 31
0.0
  0
LINE
  5
14F33
330
13E79
100
AcDbEntity
  8
寸法
 62
     0
 48
50.0
370
    -2
100
AcDbLine
 10
2574.695515348525
 20
10704.3972563872
 30
0.0
 11
2594.695515348525
 21
10704.3972563872
 31
0.0
  0
LINE
  5
14F34
330
13E79
100
AcDbEntity
  8
寸法
 62
     0
 48
50.0
370
    -2
100
AcDbLine
 10
2479.695515348525
 20
10704.3972563872
 30
0.0
 11
2005.043567307622
 21
10704.3972563872
 31
0.0
  0
LINE
  5
14F35
330
13E79
100
AcDbEntity
  8
寸法
 62
     0
 48
50.0
370
    -2
100
AcDbLine
 10
2554.695515348525
 20
10704.3972563872
 30
0.0
 11
2499.695515348526
 21
10704.3972563872
 31
0.0
  0
INSERT
  5
14F36
330
13E79
100
AcDbEntity
  8
寸法
 62
     0
 48
50.0
370
    -2
100
AcDbBlockReference
  2
_DOT
 10
2554.695515348525
 20
10704.3972563872
 30
0.0
 41
20.0
 42
20.0
 43
20.0
 50
180.0
  0
INSERT
  5
14F37
330
13E79
100
AcDbEntity
  8
寸法
 62
     0
 48
50.0
370
    -2
100
AcDbBlockReference
  2
_DOT
 10
2499.695515348526
 20
10704.3972563872
 30
0.0
 41
20.0
 42
20.0
 43
20.0
  0
MTEXT
  5
14F38
330
13E79
100
AcDbEntity
  8
寸法
 62
     7
 48
50.0
100
AcDbMText
 10
2105.528848681861
 20
10796.3972563872
 30
0.0
 40
120.0
 41
0.0
 71
     5
 72
     1
  1
\A1;55
  7
STYLE1
 73
     1
 44
1.0
1001
ACAD
1000
MTEXTBEGIN
1070
    73
1070
     1
1070
    44
1040
1.0
1070
    74
1070
     0
1000
MTEXTEND
  0
POINT
  5
14F39
330
13E79
100
AcDbEntity
  8
DEFPOINTS
 62
     0
 48
50.0
100
AcDbPoint
 10
2499.695515348526
 20
10329.6848463684
 30
0.0
  0
POINT
  5
14F3A
330
13E79
100
AcDbEntity
  8
DEFPOINTS
 62
     0
 48
50.0
100
AcDbPoint
 10
2554.695515348525
 20
10329.68484636841
 30
0.0
  0
POINT
  5
14F3B
330
13E79
100
AcDbEntity
  8
DEFPOINTS
 62
     0
 48
50.0
100
AcDbPoint
 10
2554.695515348525
 20
10704.3972563872
 30
0.0
  0
ENDBLK
  5
13E86
330
13E79
100
AcDbEntity
  8
0
 48
50.0
100
AcDbBlockEnd
  0
BLOCK
  5
13E9D
330
13E93
100
AcDbEntity
  8
0
 48
50.0
100
AcDbBlockBegin
  2
*D15
 70
     1
 10
0.0
 20
0.0
 30
0.0
  3
*D15
  1

  0
LINE
  5
14F28
330
13E93
100
AcDbEntity
  8
寸法
 62
     0
 48
50.0
370
    -2
100
AcDbLine
 10
5604.695515348525
 20
10349.68484636841
 30
0.0
 11
5604.695515348525
 21
10744.3972563872
 31
0.0
  0
LINE
  5
14F29
330
13E93
100
AcDbEntity
  8
寸法
 62
     0
 48
50.0
370
    -2
100
AcDbLine
 10
8544.695515348525
 20
10349.68484636841
 30
0.0
 11
8544.695515348525
 21
10744.3972563872
 31
0.0
  0
LINE
  5
14F2A
330
13E93
100
AcDbEntity
  8
寸法
 62
     0
 48
50.0
370
    -2
100
AcDbLine
 10
5624.695515348525
 20
10704.3972563872
 30
0.0
 11
8524.695515348524
 21
10704.3972563872
 31
0.0
  0
INSERT
  5
14F2B
330
13E93
100
AcDbEntity
  8
寸法
 62
     0
 48
50.0
370
    -2
100
AcDbBlockReference
  2
_DOT
 10
5604.695515348525
 20
10704.3972563872
 30
0.0
 41
20.0
 42
20.0
 43
20.0
 50
180.0
  0
INSERT
  5
14F2C
330
13E93
100
AcDbEntity
  8
寸法
 62
     0
 48
50.0
370
    -2
100
AcDbBlockReference
  2
_DOT
 10
8544.695515348525
 20
10704.3972563872
 30
0.0
 41
20.0
 42
20.0
 43
20.0
  0
MTEXT
  5
14F2D
330
13E93
100
AcDbEntity
  8
寸法
 62
     7
 48
50.0
100
AcDbMText
 10
7074.695515348524
 20
10796.40906741082
 30
0.0
 40
120.0
 41
0.0
 71
     5
 72
     1
  1
\A1;7X420=2940
  7
STYLE1
 73
     1
 44
1.0
1001
ACAD
1000
MTEXTBEGIN
1070
    73
1070
     1
1070
    44
1040
1.0
1070
    74
1070
     0
1000
MTEXTEND
  0
POINT
  5
14F2E
330
13E93
100
AcDbEntity
  8
DEFPOINTS
 62
     0
 48
50.0
100
AcDbPoint
 10
5604.695515348525
 20
10329.68484636841
 30
0.0
  0
POINT
  5
14F2F
330
13E93
100
AcDbEntity
  8
DEFPOINTS
 62
     0
 48
50.0
100
AcDbPoint
 10
8544.695515348525
 20
10329.68484636841
 30
0.0
  0
POINT
  5
14F30
330
13E93
100
AcDbEntity
  8
DEFPOINTS
 62
     0
 48
50.0
100
AcDbPoint
 10
8544.695515348525
 20
10704.3972563872
 30
0.0
  0
ENDBLK
  5
13E9E
330
13E93
100
AcDbEntity
  8
0
 48
50.0
100
AcDbBlockEnd
  0
BLOCK
  5
13EA9
330
13E9F
100
AcDbEntity
  8
0
 48
50.0
100
AcDbBlockBegin
  2
*D16
 70
     1
 10
0.0
 20
0.0
 30
0.0
  3
*D16
  1

  0
LINE
  5
14F1F
330
13E9F
100
AcDbEntity
  8
寸法
 62
     0
 48
50.0
370
    -2
100
AcDbLine
 10
5494.695515348524
 20
10349.68484636841
 30
0.0
 11
5494.695515348524
 21
10744.3972563872
 31
0.0
  0
LINE
  5
14F20
330
13E9F
100
AcDbEntity
  8
寸法
 62
     0
 48
50.0
370
    -2
100
AcDbLine
 10
5604.695515348525
 20
10349.68484636841
 30
0.0
 11
5604.695515348525
 21
10744.3972563872
 31
0.0
  0
LINE
  5
14F21
330
13E9F
100
AcDbEntity
  8
寸法
 62
     0
 48
50.0
370
    -2
100
AcDbLine
 10
5514.695515348525
 20
10704.3972563872
 30
0.0
 11
5584.695515348525
 21
10704.3972563872
 31
0.0
  0
INSERT
  5
14F22
330
13E9F
100
AcDbEntity
  8
寸法
 62
     0
 48
50.0
370
    -2
100
AcDbBlockReference
  2
_DOT
 10
5494.695515348524
 20
10704.3972563872
 30
0.0
 41
20.0
 42
20.0
 43
20.0
 50
180.0
  0
INSERT
  5
14F23
330
13E9F
100
AcDbEntity
  8
寸法
 62
     0
 48
50.0
370
    -2
100
AcDbBlockReference
  2
_DOT
 10
5604.695515348525
 20
10704.3972563872
 30
0.0
 41
20.0
 42
20.0
 43
20.0
  0
MTEXT
  5
14F24
330
13E9F
100
AcDbEntity
  8
寸法
 62
     7
 48
50.0
100
AcDbMText
 10
5549.695515348525
 20
10796.3972563872
 30
0.0
 40
120.0
 41
0.0
 71
     5
 72
     1
  1
\A1;110
  7
STYLE1
 73
     1
 44
1.0
1001
ACAD
1000
MTEXTBEGIN
1070
    73
1070
     1
1070
    44
1040
1.0
1070
    74
1070
     0
1000
MTEXTEND
  0
POINT
  5
14F25
330
13E9F
100
AcDbEntity
  8
DEFPOINTS
 62
     0
 48
50.0
100
AcDbPoint
 10
5494.695515348524
 20
10329.68484636841
 30
0.0
  0
POINT
  5
14F26
330
13E9F
100
AcDbEntity
  8
DEFPOINTS
 62
     0
 48
50.0
100
AcDbPoint
 10
5604.695515348525
 20
10329.68484636841
 30
0.0
  0
POINT
  5
14F27
330
13E9F
100
AcDbEntity
  8
DEFPOINTS
 62
     0
 48
50.0
100
AcDbPoint
 10
5604.695515348525
 20
10704.3972563872
 30
0.0
  0
ENDBLK
  5
13EAA
330
13E9F
100
AcDbEntity
  8
0
 48
50.0
100
AcDbBlockEnd
  0
BLOCK
  5
144E4
330
144D9
100
AcDbEntity
  8
0
 48
50.0
100
AcDbBlockBegin
  2
*D17
 70
     1
 10
0.0
 20
0.0
 30
0.0
  3
*D17
  1

  0
LINE
  5
146CA
330
144D9
100
AcDbEntity
  8
寸法
 62
     0
 48
50.0
370
    -2
100
AcDbLine
 10
11575.45420978329
 20
4662.410512972917
 30
0.0
 11
10959.51977067801
 21
4680.124663247247
 31
0.0
  0
LINE
  5
146CB
330
144D9
100
AcDbEntity
  8
寸法
 62
     0
 48
50.0
370
    -2
100
AcDbLine
 10
11571.40075422667
 20
4521.468789207204
 30
0.0
 11
10955.46631512138
 21
4539.182939481535
 31
0.0
  0
LINE
  5
146CC
330
144D9
100
AcDbEntity
  8
寸法
 62
     0
 48
50.0
370
    -2
100
AcDbLine
 10
11015.44151672381
 20
4537.458064776588
 30
0.0
 11
11019.49497228044
 21
4678.3997885423
 31
0.0
  0
LINE
  5
146CD
330
144D9
100
AcDbEntity
  8
寸法
 62
     0
 48
50.0
370
    -2
100
AcDbLine
 10
11019.49497228044
 20
4678.3997885423
 30
0.0
 11
11029.84422051012
 21
5038.250998156886
 31
0.0
  0
INSERT
  5
146CE
330
144D9
100
AcDbEntity
  8
寸法
 62
     0
 48
50.0
370
    -2
100
AcDbBlockReference
  2
_DOTSMALL
 10
11015.44151672381
 20
4537.458064776588
 30
0.0
 41
100.0
 42
100.0
 43
100.0
 50
268.3526390256378
  0
INSERT
  5
146CF
330
144D9
100
AcDbEntity
  8
寸法
 62
     0
 48
50.0
370
    -2
100
AcDbBlockReference
  2
_DOTSMALL
 10
11019.49497228044
 20
4678.3997885423
 30
0.0
 41
100.0
 42
100.0
 43
100.0
 50
88.35263902563776
  0
MTEXT
  5
146D0
330
144D9
100
AcDbEntity
  8
寸法
 62
     7
 48
50.0
100
AcDbMText
 10
10926.14832264535
 20
4911.179519193199
 30
0.0
 40
120.0
 41
0.0
 71
     5
 72
     1
  1
\A1;141
  7
STYLE1
 11
0.0287479117491237
 21
0.9995866933738488
 31
0.0
 73
     1
 44
1.0
1001
ACAD
1000
MTEXTBEGIN
1070
    73
1070
     1
1070
    44
1040
1.0
1070
    74
1070
     0
1000
MTEXTEND
  0
POINT
  5
146D1
330
144D9
100
AcDbEntity
  8
DEFPOINTS
 62
     0
 48
50.0
100
AcDbPoint
 10
11595.44594365077
 20
4661.835554737935
 30
0.0
  0
POINT
  5
146D2
330
144D9
100
AcDbEntity
  8
DEFPOINTS
 62
     0
 48
50.0
100
AcDbPoint
 10
11591.39248809414
 20
4520.893830972222
 30
0.0
  0
POINT
  5
146D3
330
144D9
100
AcDbEntity
  8
DEFPOINTS
 62
     0
 48
50.0
100
AcDbPoint
 10
11015.44151672381
 20
4537.458064776588
 30
0.0
  0
ENDBLK
  5
144E5
330
144D9
100
AcDbEntity
  8
0
 48
50.0
100
AcDbBlockEnd
  0
BLOCK
  5
144F1
330
144E6
100
AcDbEntity
  8
0
 48
50.0
100
AcDbBlockBegin
  2
*D18
 70
     1
 10
0.0
 20
0.0
 30
0.0
  3
*D18
  1

  0
LINE
  5
146C0
330
144E6
100
AcDbEntity
  8
寸法
 62
     0
 48
50.0
370
    -2
100
AcDbLine
 10
14686.04992349218
 20
4629.923485514911
 30
0.0
 11
14686.04992349218
 21
5121.770259482563
 31
0.0
  0
LINE
  5
146C1
330
144E6
100
AcDbEntity
  8
寸法
 62
     0
 48
50.0
370
    -2
100
AcDbLine
 10
14766.04992349219
 20
4628.112805903259
 30
0.0
 11
14766.04992349219
 21
5121.770259482563
 31
0.0
  0
LINE
  5
146C2
330
144E6
100
AcDbEntity
  8
寸法
 62
     0
 48
50.0
370
    -2
100
AcDbLine
 10
14686.04992349218
 20
5061.770259482562
 30
0.0
 11
14766.04992349219
 21
5061.770259482562
 31
0.0
  0
LINE
  5
146C3
330
144E6
100
AcDbEntity
  8
寸法
 62
     0
 48
50.0
370
    -2
100
AcDbLine
 10
14766.04992349219
 20
5061.770259482562
 30
0.0
 11
15078.14441168116
 21
5061.770259482562
 31
0.0
  0
INSERT
  5
146C4
330
144E6
100
AcDbEntity
  8
寸法
 62
     0
 48
50.0
370
    -2
100
AcDbBlockReference
  2
_DOTSMALL
 10
14686.04992349218
 20
5061.770259482562
 30
0.0
 41
100.0
 42
100.0
 43
100.0
 50
180.0
  0
INSERT
  5
146C5
330
144E6
100
AcDbEntity
  8
寸法
 62
     0
 48
50.0
370
    -2
100
AcDbBlockReference
  2
_DOTSMALL
 10
14766.04992349219
 20
5061.770259482562
 30
0.0
 41
100.0
 42
100.0
 43
100.0
  0
MTEXT
  5
146C6
330
144E6
100
AcDbEntity
  8
寸法
 62
     7
 48
50.0
100
AcDbMText
 10
14972.09716758668
 20
5161.770259482562
 30
0.0
 40
120.0
 41
0.0
 71
     5
 72
     1
  1
\A1;80
  7
STYLE1
 73
     1
 44
1.0
1001
ACAD
1000
MTEXTBEGIN
1070
    73
1070
     1
1070
    44
1040
1.0
1070
    74
1070
     0
1000
MTEXTEND
  0
POINT
  5
146C7
330
144E6
100
AcDbEntity
  8
DEFPOINTS
 62
     0
 48
50.0
100
AcDbPoint
 10
14686.04992349218
 20
4609.923485514911
 30
0.0
  0
POINT
  5
146C8
330
144E6
100
AcDbEntity
  8
DEFPOINTS
 62
     0
 48
50.0
100
AcDbPoint
 10
14766.04992349219
 20
4608.112805903259
 30
0.0
  0
POINT
  5
146C9
330
144E6
100
AcDbEntity
  8
DEFPOINTS
 62
     0
 48
50.0
100
AcDbPoint
 10
14766.04992349219
 20
5061.770259482562
 30
0.0
  0
ENDBLK
  5
144F2
330
144E6
100
AcDbEntity
  8
0
 48
50.0
100
AcDbBlockEnd
  0
BLOCK
  5
144FD
330
144F3
100
AcDbEntity
  8
0
 48
50.0
100
AcDbBlockBegin
  2
*D19
 70
     1
 10
0.0
 20
0.0
 30
0.0
  3
*D19
  1

  0
LINE
  5
146B7
330
144F3
100
AcDbEntity
  8
寸法
 62
     0
 48
50.0
370
    -2
100
AcDbLine
 10
14766.04992349219
 20
4628.112805903258
 30
0.0
 11
14766.04992349219
 21
5351.883852268838
 31
0.0
  0
LINE
  5
146B8
330
144F3
100
AcDbEntity
  8
寸法
 62
     0
 48
50.0
370
    -2
100
AcDbLine
 10
11576.04992349219
 20
4683.11280590326
 30
0.0
 11
11576.04992349219
 21
5351.883852268838
 31
0.0
  0
LINE
  5
146B9
330
144F3
100
AcDbEntity
  8
寸法
 62
     0
 48
50.0
370
    -2
100
AcDbLine
 10
14766.04992349219
 20
5291.883852268838
 30
0.0
 11
11576.04992349219
 21
5291.883852268838
 31
0.0
  0
INSERT
  5
146BA
330
144F3
100
AcDbEntity
  8
寸法
 62
     0
 48
50.0
370
    -2
100
AcDbBlockReference
  2
_DOTSMALL
 10
14766.04992349219
 20
5291.883852268838
 30
0.0
 41
100.0
 42
100.0
 43
100.0
  0
INSERT
  5
146BB
330
144F3
100
AcDbEntity
  8
寸法
 62
     0
 48
50.0
370
    -2
100
AcDbBlockReference
  2
_DOTSMALL
 10
11576.04992349219
 20
5291.883852268838
 30
0.0
 41
100.0
 42
100.0
 43
100.0
 50
180.0
  0
MTEXT
  5
146BC
330
144F3
100
AcDbEntity
  8
寸法
 62
     7
 48
50.0
100
AcDbMText
 10
13247.75572980172
 20
5391.883852268838
 30
0.0
 40
120.0
 41
0.0
 71
     5
 72
     1
  1
\A1;3190
  7
STYLE1
 73
     1
 44
1.0
1001
ACAD
1000
MTEXTBEGIN
1070
    73
1070
     1
1070
    44
1040
1.0
1070
    74
1070
     0
1000
MTEXTEND
  0
POINT
  5
146BD
330
144F3
100
AcDbEntity
  8
DEFPOINTS
 62
     0
 48
50.0
100
AcDbPoint
 10
14766.04992349219
 20
4608.112805903258
 30
0.0
  0
POINT
  5
146BE
330
144F3
100
AcDbEntity
  8
DEFPOINTS
 62
     0
 48
50.0
100
AcDbPoint
 10
11576.04992349219
 20
4663.112805903261
 30
0.0
  0
POINT
  5
146BF
330
144F3
100
AcDbEntity
  8
DEFPOINTS
 62
     0
 48
50.0
100
AcDbPoint
 10
11576.04992349219
 20
5291.883852268838
 30
0.0
  0
ENDBLK
  5
144FE
330
144F3
100
AcDbEntity
  8
0
 48
50.0
100
AcDbBlockEnd
  0
BLOCK
  5
1450B
330
144FF
100
AcDbEntity
  8
0
 48
50.0
100
AcDbBlockBegin
  2
*D20
 70
     1
 10
0.0
 20
0.0
 30
0.0
  3
*D20
  1

  0
LINE
  5
146AC
330
144FF
100
AcDbEntity
  8
寸法
 62
     0
 48
50.0
370
    -2
100
AcDbLine
 10
11636.04992349219
 20
4679.114424026233
 30
0.0
 11
11636.04992349219
 21
5121.77025948256
 31
0.0
  0
LINE
  5
146AD
330
144FF
100
AcDbEntity
  8
寸法
 62
     0
 48
50.0
370
    -2
100
AcDbLine
 10
11576.04992349219
 20
4683.11280590326
 30
0.0
 11
11576.04992349219
 21
5121.77025948256
 31
0.0
  0
LINE
  5
146AE
330
144FF
100
AcDbEntity
  8
寸法
 62
     0
 48
50.0
370
    -2
100
AcDbLine
 10
11636.04992349219
 20
5061.77025948256
 30
0.0
 11
11736.04992349219
 21
5061.77025948256
 31
0.0
  0
LINE
  5
146AF
330
144FF
100
AcDbEntity
  8
寸法
 62
     0
 48
50.0
370
    -2
100
AcDbLine
 10
11576.04992349219
 20
5061.77025948256
 30
0.0
 11
11156.77433294101
 21
5061.77025948256
 31
0.0
  0
LINE
  5
146B0
330
144FF
100
AcDbEntity
  8
寸法
 62
     0
 48
50.0
370
    -2
100
AcDbLine
 10
11636.04992349219
 20
5061.77025948256
 30
0.0
 11
11576.04992349219
 21
5061.77025948256
 31
0.0
  0
INSERT
  5
146B1
330
144FF
100
AcDbEntity
  8
寸法
 62
     0
 48
50.0
370
    -2
100
AcDbBlockReference
  2
_DOTSMALL
 10
11636.04992349219
 20
5061.77025948256
 30
0.0
 41
100.0
 42
100.0
 43
100.0
 50
180.0
  0
INSERT
  5
146B2
330
144FF
100
AcDbEntity
  8
寸法
 62
     0
 48
50.0
370
    -2
100
AcDbBlockReference
  2
_DOTSMALL
 10
11576.04992349219
 20
5061.77025948256
 30
0.0
 41
100.0
 42
100.0
 43
100.0
  0
MTEXT
  5
146B3
330
144FF
100
AcDbEntity
  8
寸法
 62
     7
 48
50.0
100
AcDbMText
 10
11266.4121282166
 20
5161.770259482561
 30
0.0
 40
120.0
 41
0.0
 71
     5
 72
     1
  1
\A1;60
  7
STYLE1
 73
     1
 44
1.0
1001
ACAD
1000
MTEXTBEGIN
1070
    73
1070
     1
1070
    44
1040
1.0
1070
    74
1070
     0
1000
MTEXTEND
  0
POINT
  5
146B4
330
144FF
100
AcDbEntity
  8
DEFPOINTS
 62
     0
 48
50.0
100
AcDbPoint
 10
11636.04992349219
 20
4659.114424026233
 30
0.0
  0
POINT
  5
146B5
330
144FF
100
AcDbEntity
  8
DEFPOINTS
 62
     0
 48
50.0
100
AcDbPoint
 10
11576.04992349219
 20
4663.112805903261
 30
0.0
  0
POINT
  5
146B6
330
144FF
100
AcDbEntity
  8
DEFPOINTS
 62
     0
 48
50.0
100
AcDbPoint
 10
11576.04992349219
 20
5061.77025948256
 30
0.0
  0
ENDBLK
  5
1450C
330
144FF
100
AcDbEntity
  8
0
 48
50.0
100
AcDbBlockEnd
  0
BLOCK
  5
14517
330
1450D
100
AcDbEntity
  8
0
 48
50.0
100
AcDbBlockBegin
  2
*D21
 70
     1
 10
0.0
 20
0.0
 30
0.0
  3
*D21
  1

  0
LINE
  5
146A3
330
1450D
100
AcDbEntity
  8
寸法
 62
     0
 48
50.0
370
    -2
100
AcDbLine
 10
14686.04992349218
 20
4629.923485514911
 30
0.0
 11
14686.04992349218
 21
5121.770259482563
 31
0.0
  0
LINE
  5
146A4
330
1450D
100
AcDbEntity
  8
寸法
 62
     0
 48
50.0
370
    -2
100
AcDbLine
 10
11636.04992349219
 20
4679.114424026233
 30
0.0
 11
11636.04992349219
 21
5121.770259482563
 31
0.0
  0
LINE
  5
146A5
330
1450D
100
AcDbEntity
  8
寸法
 62
     0
 48
50.0
370
    -2
100
AcDbLine
 10
14686.04992349218
 20
5061.770259482562
 30
0.0
 11
11636.04992349219
 21
5061.770259482562
 31
0.0
  0
INSERT
  5
146A6
330
1450D
100
AcDbEntity
  8
寸法
 62
     0
 48
50.0
370
    -2
100
AcDbBlockReference
  2
_DOTSMALL
 10
14686.04992349218
 20
5061.770259482562
 30
0.0
 41
100.0
 42
100.0
 43
100.0
  0
INSERT
  5
146A7
330
1450D
100
AcDbEntity
  8
寸法
 62
     0
 48
50.0
370
    -2
100
AcDbBlockReference
  2
_DOTSMALL
 10
11636.04992349219
 20
5061.770259482562
 30
0.0
 41
100.0
 42
100.0
 43
100.0
 50
180.0
  0
MTEXT
  5
146A8
330
1450D
100
AcDbEntity
  8
寸法
 62
     7
 48
50.0
100
AcDbMText
 10
13206.1082980516
 20
5161.770259482562
 30
0.0
 40
120.0
 41
0.0
 71
     5
 72
     1
  1
\A1;柱外寸法3050
  7
STYLE1
 73
     1
 44
1.0
1001
ACAD
1000
MTEXTBEGIN
1070
    73
1070
     1
1070
    44
1040
1.0
1070
    74
1070
     0
1000
MTEXTEND
  0
POINT
  5
146A9
330
1450D
100
AcDbEntity
  8
DEFPOINTS
 62
     0
 48
50.0
100
AcDbPoint
 10
14686.04992349218
 20
4609.923485514911
 30
0.0
  0
POINT
  5
146AA
330
1450D
100
AcDbEntity
  8
DEFPOINTS
 62
     0
 48
50.0
100
AcDbPoint
 10
11636.04992349219
 20
4659.114424026233
 30
0.0
  0
POINT
  5
146AB
330
1450D
100
AcDbEntity
  8
DEFPOINTS
 62
     0
 48
50.0
100
AcDbPoint
 10
11636.04992349219
 20
5061.770259482562
 30
0.0
  0
ENDBLK
  5
14518
330
1450D
100
AcDbEntity
  8
0
 48
50.0
100
AcDbBlockEnd
  0
BLOCK
  5
14525
330
14519
100
AcDbEntity
  8
0
 48
50.0
100
AcDbBlockBegin
  2
*D22
 70
     1
 10
0.0
 20
0.0
 30
0.0
  3
*D22
  1

  0
LINE
  5
14698
330
14519
100
AcDbEntity
  8
寸法
 62
     0
 48
50.0
370
    -2
100
AcDbLine
 10
11616.04992349219
 20
2338.112805903256
 30
0.0
 11
10732.29979430893
 21
2338.112805903257
 31
0.0
  0
LINE
  5
14699
330
14519
100
AcDbEntity
  8
寸法
 62
     0
 48
50.0
370
    -2
100
AcDbLine
 10
11539.04992349219
 20
2288.112805903252
 30
0.0
 11
10732.29979430893
 21
2288.112805903252
 31
0.0
  0
LINE
  5
1469A
330
14519
100
AcDbEntity
  8
寸法
 62
     0
 48
50.0
370
    -2
100
AcDbLine
 10
10792.29979430893
 20
2338.112805903257
 30
0.0
 11
10792.29979430893
 21
2438.112805903257
 31
0.0
  0
LINE
  5
1469B
330
14519
100
AcDbEntity
  8
寸法
 62
     0
 48
50.0
370
    -2
100
AcDbLine
 10
10792.29979430893
 20
2288.112805903252
 30
0.0
 11
10792.29979430893
 21
1876.018317714271
 31
0.0
  0
LINE
  5
1469C
330
14519
100
AcDbEntity
  8
寸法
 62
     0
 48
50.0
370
    -2
100
AcDbLine
 10
10792.29979430893
 20
2338.112805903257
 30
0.0
 11
10792.29979430893
 21
2288.112805903252
 31
0.0
  0
INSERT
  5
1469D
330
14519
100
AcDbEntity
  8
寸法
 62
     0
 48
50.0
370
    -2
100
AcDbBlockReference
  2
_DOTSMALL
 10
10792.29979430893
 20
2338.112805903257
 30
0.0
 41
100.0
 42
100.0
 43
100.0
 50
270.0
  0
INSERT
  5
1469E
330
14519
100
AcDbEntity
  8
寸法
 62
     0
 48
50.0
370
    -2
100
AcDbBlockReference
  2
_DOTSMALL
 10
10792.29979430893
 20
2288.112805903252
 30
0.0
 41
100.0
 42
100.0
 43
100.0
 50
90.0
  0
MTEXT
  5
1469F
330
14519
100
AcDbEntity
  8
寸法
 62
     7
 48
50.0
100
AcDbMText
 10
10692.29979430893
 20
1982.065561808761
 30
0.0
 40
120.0
 41
0.0
 71
     5
 72
     1
  1
\A1;50
  7
STYLE1
 11
0.0000000000000001
 21
1.0
 31
0.0
 73
     1
 44
1.0
1001
ACAD
1000
MTEXTBEGIN
1070
    73
1070
     1
1070
    44
1040
1.0
1070
    74
1070
     0
1000
MTEXTEND
  0
POINT
  5
146A0
330
14519
100
AcDbEntity
  8
DEFPOINTS
 62
     0
 48
50.0
100
AcDbPoint
 10
11636.04992349219
 20
2338.112805903256
 30
0.0
  0
POINT
  5
146A1
330
14519
100
AcDbEntity
  8
DEFPOINTS
 62
     0
 48
50.0
100
AcDbPoint
 10
11559.04992349219
 20
2288.112805903252
 30
0.0
  0
POINT
  5
146A2
330
14519
100
AcDbEntity
  8
DEFPOINTS
 62
     0
 48
50.0
100
AcDbPoint
 10
10792.29979430893
 20
2288.112805903252
 30
0.0
  0
ENDBLK
  5
14526
330
14519
100
AcDbEntity
  8
0
 48
50.0
100
AcDbBlockEnd
  0
BLOCK
  5
14531
330
14527
100
AcDbEntity
  8
0
 48
50.0
100
AcDbBlockBegin
  2
*D23
 70
     1
 10
0.0
 20
0.0
 30
0.0
  3
*D23
  1

  0
LINE
  5
1468F
330
14527
100
AcDbEntity
  8
寸法
 62
     0
 48
50.0
370
    -2
100
AcDbLine
 10
14706.04992349219
 20
2288.112805903258
 30
0.0
 11
15450.97708146432
 21
2288.112805903258
 31
0.0
  0
LINE
  5
14690
330
14527
100
AcDbEntity
  8
寸法
 62
     0
 48
50.0
370
    -2
100
AcDbLine
 10
14786.04992349219
 20
4608.112805903258
 30
0.0
 11
15450.97708146432
 21
4608.112805903258
 31
0.0
  0
LINE
  5
14691
330
14527
100
AcDbEntity
  8
寸法
 62
     0
 48
50.0
370
    -2
100
AcDbLine
 10
15390.97708146432
 20
2288.112805903258
 30
0.0
 11
15390.97708146432
 21
4608.112805903258
 31
0.0
  0
INSERT
  5
14692
330
14527
100
AcDbEntity
  8
寸法
 62
     0
 48
50.0
370
    -2
100
AcDbBlockReference
  2
_DOTSMALL
 10
15390.97708146432
 20
2288.112805903258
 30
0.0
 41
100.0
 42
100.0
 43
100.0
 50
270.0
  0
INSERT
  5
14693
330
14527
100
AcDbEntity
  8
寸法
 62
     0
 48
50.0
370
    -2
100
AcDbBlockReference
  2
_DOTSMALL
 10
15390.97708146432
 20
4608.112805903258
 30
0.0
 41
100.0
 42
100.0
 43
100.0
 50
90.0
  0
MTEXT
  5
14694
330
14527
100
AcDbEntity
  8
寸法
 62
     7
 48
50.0
100
AcDbMText
 10
15290.96527044069
 20
3448.112805903261
 30
0.0
 40
120.0
 41
0.0
 71
     5
 72
     1
  1
\A1;2320
  7
STYLE1
 11
0.0000000000000001
 21
1.0
 31
0.0
 73
     1
 44
1.0
1001
ACAD
1000
MTEXTBEGIN
1070
    73
1070
     1
1070
    44
1040
1.0
1070
    74
1070
     0
1000
MTEXTEND
  0
POINT
  5
14695
330
14527
100
AcDbEntity
  8
DEFPOINTS
 62
     0
 48
50.0
100
AcDbPoint
 10
14686.04992349219
 20
2288.112805903258
 30
0.0
  0
POINT
  5
14696
330
14527
100
AcDbEntity
  8
DEFPOINTS
 62
     0
 48
50.0
100
AcDbPoint
 10
14766.04992349219
 20
4608.112805903258
 30
0.0
  0
POINT
  5
14697
330
14527
100
AcDbEntity
  8
DEFPOINTS
 62
     0
 48
50.0
100
AcDbPoint
 10
15390.97708146432
 20
4608.112805903258
 30
0.0
  0
ENDBLK
  5
14532
330
14527
100
AcDbEntity
  8
0
 48
50.0
100
AcDbBlockEnd
  0
BLOCK
  5
1453D
330
14533
100
AcDbEntity
  8
0
 48
50.0
100
AcDbBlockBegin
  2
*D24
 70
     1
 10
0.0
 20
0.0
 30
0.0
  3
*D24
  1

  0
LINE
  5
14686
330
14533
100
AcDbEntity
  8
寸法
 62
     0
 48
50.0
370
    -2
100
AcDbLine
 10
11539.04992349219
 20
2288.112805903252
 30
0.0
 11
10432.29979430893
 21
2288.112805903252
 31
0.0
  0
LINE
  5
14687
330
14533
100
AcDbEntity
  8
寸法
 62
     0
 48
50.0
370
    -2
100
AcDbLine
 10
11556.04992349219
 20
4663.112805903256
 30
0.0
 11
10432.29979430893
 21
4663.112805903256
 31
0.0
  0
LINE
  5
14688
330
14533
100
AcDbEntity
  8
寸法
 62
     0
 48
50.0
370
    -2
100
AcDbLine
 10
10492.29979430893
 20
2288.112805903252
 30
0.0
 11
10492.29979430893
 21
4663.112805903256
 31
0.0
  0
INSERT
  5
14689
330
14533
100
AcDbEntity
  8
寸法
 62
     0
 48
50.0
370
    -2
100
AcDbBlockReference
  2
_DOTSMALL
 10
10492.29979430893
 20
2288.112805903252
 30
0.0
 41
100.0
 42
100.0
 43
100.0
 50
270.0
  0
INSERT
  5
1468A
330
14533
100
AcDbEntity
  8
寸法
 62
     0
 48
50.0
370
    -2
100
AcDbBlockReference
  2
_DOTSMALL
 10
10492.29979430893
 20
4663.112805903256
 30
0.0
 41
100.0
 42
100.0
 43
100.0
 50
90.0
  0
MTEXT
  5
1468B
330
14533
100
AcDbEntity
  8
寸法
 62
     7
 48
50.0
100
AcDbMText
 10
10392.28798328531
 20
3475.612805903256
 30
0.0
 40
120.0
 41
0.0
 71
     5
 72
     1
  1
\A1;2375
  7
STYLE1
 11
0.0000000000000001
 21
1.0
 31
0.0
 73
     1
 44
1.0
1001
ACAD
1000
MTEXTBEGIN
1070
    73
1070
     1
1070
    44
1040
1.0
1070
    74
1070
     0
1000
MTEXTEND
  0
POINT
  5
1468C
330
14533
100
AcDbEntity
  8
DEFPOINTS
 62
     0
 48
50.0
100
AcDbPoint
 10
11559.04992349219
 20
2288.112805903252
 30
0.0
  0
POINT
  5
1468D
330
14533
100
AcDbEntity
  8
DEFPOINTS
 62
     0
 48
50.0
100
AcDbPoint
 10
11576.04992349219
 20
4663.112805903256
 30
0.0
  0
POINT
  5
1468E
330
14533
100
AcDbEntity
  8
DEFPOINTS
 62
     0
 48
50.0
100
AcDbPoint
 10
10492.29979430893
 20
4663.112805903256
 30
0.0
  0
ENDBLK
  5
1453E
330
14533
100
AcDbEntity
  8
0
 48
50.0
100
AcDbBlockEnd
  0
BLOCK
  5
14549
330
1453F
100
AcDbEntity
  8
0
 48
50.0
100
AcDbBlockBegin
  2
*D25
 70
     1
 10
0.0
 20
0.0
 30
0.0
  3
*D25
  1

  0
LINE
  5
1467D
330
1453F
100
AcDbEntity
  8
寸法
 62
     0
 48
50.0
370
    -2
100
AcDbLine
 10
11616.04992349219
 20
4428.112805903253
 30
0.0
 11
10732.29979430893
 21
4428.112805903253
 31
0.0
  0
LINE
  5
1467E
330
1453F
100
AcDbEntity
  8
寸法
 62
     0
 48
50.0
370
    -2
100
AcDbLine
 10
11616.04992349219
 20
2338.112805903252
 30
0.0
 11
10732.29979430893
 21
2338.112805903252
 31
0.0
  0
LINE
  5
1467F
330
1453F
100
AcDbEntity
  8
寸法
 62
     0
 48
50.0
370
    -2
100
AcDbLine
 10
10792.29979430893
 20
4428.112805903253
 30
0.0
 11
10792.29979430893
 21
2338.112805903252
 31
0.0
  0
INSERT
  5
14680
330
1453F
100
AcDbEntity
  8
寸法
 62
     0
 48
50.0
370
    -2
100
AcDbBlockReference
  2
_DOTSMALL
 10
10792.29979430893
 20
4428.112805903253
 30
0.0
 41
100.0
 42
100.0
 43
100.0
 50
90.0
  0
INSERT
  5
14681
330
1453F
100
AcDbEntity
  8
寸法
 62
     0
 48
50.0
370
    -2
100
AcDbBlockReference
  2
_DOTSMALL
 10
10792.29979430893
 20
2338.112805903252
 30
0.0
 41
100.0
 42
100.0
 43
100.0
 50
270.0
  0
MTEXT
  5
14682
330
1453F
100
AcDbEntity
  8
寸法
 62
     7
 48
50.0
100
AcDbMText
 10
10692.28798328531
 20
3383.112805903254
 30
0.0
 40
120.0
 41
0.0
 71
     5
 72
     1
  1
\A1;2090
  7
STYLE1
 11
0.0000000000000001
 21
1.0
 31
0.0
 73
     1
 44
1.0
1001
ACAD
1000
MTEXTBEGIN
1070
    73
1070
     1
1070
    44
1040
1.0
1070
    74
1070
     0
1000
MTEXTEND
  0
POINT
  5
14683
330
1453F
100
AcDbEntity
  8
DEFPOINTS
 62
     0
 48
50.0
100
AcDbPoint
 10
11636.04992349219
 20
4428.112805903253
 30
0.0
  0
POINT
  5
14684
330
1453F
100
AcDbEntity
  8
DEFPOINTS
 62
     0
 48
50.0
100
AcDbPoint
 10
11636.04992349219
 20
2338.112805903252
 30
0.0
  0
POINT
  5
14685
330
1453F
100
AcDbEntity
  8
DEFPOINTS
 62
     0
 48
50.0
100
AcDbPoint
 10
10792.29979430893
 20
2338.112805903252
 30
0.0
  0
ENDBLK
  5
1454A
330
1453F
100
AcDbEntity
  8
0
 48
50.0
100
AcDbBlockEnd
  0
BLOCK
  5
14555
330
1454B
100
AcDbEntity
  8
0
 48
50.0
100
AcDbBlockBegin
  2
*D26
 70
     1
 10
0.0
 20
0.0
 30
0.0
  3
*D26
  1

  0
LINE
  5
14674
330
1454B
100
AcDbEntity
  8
寸法
 62
     0
 48
50.0
370
    -2
100
AcDbLine
 10
11539.04992349219
 20
4379.112805903257
 30
0.0
 11
11051.14128209493
 21
4379.112805903257
 31
0.0
  0
LINE
  5
14675
330
1454B
100
AcDbEntity
  8
寸法
 62
     0
 48
50.0
370
    -2
100
AcDbLine
 10
11539.04992349219
 20
2354.112805903256
 30
0.0
 11
11051.14128209493
 21
2354.112805903257
 31
0.0
  0
LINE
  5
14676
330
1454B
100
AcDbEntity
  8
寸法
 62
     0
 48
50.0
370
    -2
100
AcDbLine
 10
11091.14128209493
 20
4359.112805903256
 30
0.0
 11
11091.14128209493
 21
2374.112805903257
 31
0.0
  0
INSERT
  5
14677
330
1454B
100
AcDbEntity
  8
寸法
 62
     0
 48
50.0
370
    -2
100
AcDbBlockReference
  2
_DOT
 10
11091.14128209493
 20
4379.112805903257
 30
0.0
 41
20.0
 42
20.0
 43
20.0
 50
90.0
  0
INSERT
  5
14678
330
1454B
100
AcDbEntity
  8
寸法
 62
     0
 48
50.0
370
    -2
100
AcDbBlockReference
  2
_DOT
 10
11091.14128209493
 20
2354.112805903257
 30
0.0
 41
20.0
 42
20.0
 43
20.0
 50
270.0
  0
MTEXT
  5
14679
330
1454B
100
AcDbEntity
  8
寸法
 62
     7
 48
50.0
100
AcDbMText
 10
10999.12947107131
 20
3366.612805903259
 30
0.0
 40
120.0
 41
0.0
 71
     5
 72
     1
  1
\A1;有効開口部高サ2025
  7
STYLE1
 11
0.0000000000000001
 21
1.0
 31
0.0
 73
     1
 44
1.0
1001
ACAD
1000
MTEXTBEGIN
1070
    73
1070
     1
1070
    44
1040
1.0
1070
    74
1070
     0
1000
MTEXTEND
  0
POINT
  5
1467A
330
1454B
100
AcDbEntity
  8
DEFPOINTS
 62
     0
 48
50.0
100
AcDbPoint
 10
11559.04992349219
 20
4379.112805903257
 30
0.0
  0
POINT
  5
1467B
330
1454B
100
AcDbEntity
  8
DEFPOINTS
 62
     0
 48
50.0
100
AcDbPoint
 10
11559.04992349219
 20
2354.112805903256
 30
0.0
  0
POINT
  5
1467C
330
1454B
100
AcDbEntity
  8
DEFPOINTS
 62
     0
 48
50.0
100
AcDbPoint
 10
11091.14128209493
 20
2354.112805903257
 30
0.0
  0
ENDBLK
  5
14556
330
1454B
100
AcDbEntity
  8
0
 48
50.0
100
AcDbBlockEnd
  0
BLOCK
  5
1493E
330
14934
100
AcDbEntity
  8
0
 48
50.0
100
AcDbBlockBegin
  2
*D27
 70
     1
 10
0.0
 20
0.0
 30
0.0
  3
*D27
  1

  0
LINE
  5
14F16
330
14934
100
AcDbEntity
  8
寸法
 62
     0
 48
50.0
370
    -2
100
AcDbLine
 10
2986.695515348525
 20
7182.684846368406
 30
0.0
 11
2986.695515348525
 21
6488.351678657244
 31
0.0
  0
LINE
  5
14F17
330
14934
100
AcDbEntity
  8
寸法
 62
     0
 48
50.0
370
    -2
100
AcDbLine
 10
4252.695515348525
 20
7182.684846368406
 30
0.0
 11
4252.695515348525
 21
6488.351678657244
 31
0.0
  0
LINE
  5
14F18
330
14934
100
AcDbEntity
  8
寸法
 62
     0
 48
50.0
370
    -2
100
AcDbLine
 10
3006.695515348525
 20
6528.351678657243
 30
0.0
 11
4232.695515348525
 21
6528.351678657243
 31
0.0
  0
INSERT
  5
14F19
330
14934
100
AcDbEntity
  8
寸法
 62
     0
 48
50.0
370
    -2
100
AcDbBlockReference
  2
_DOT
 10
2986.695515348525
 20
6528.351678657243
 30
0.0
 41
20.0
 42
20.0
 43
20.0
 50
180.0
  0
INSERT
  5
14F1A
330
14934
100
AcDbEntity
  8
寸法
 62
     0
 48
50.0
370
    -2
100
AcDbBlockReference
  2
_DOT
 10
4252.695515348525
 20
6528.351678657243
 30
0.0
 41
20.0
 42
20.0
 43
20.0
  0
MTEXT
  5
14F1B
330
14934
100
AcDbEntity
  8
寸法
 62
     7
 48
50.0
100
AcDbMText
 10
3626.936250280735
 20
6720.363489680865
 30
0.0
 40
120.0
 41
0.0
 71
     5
 72
     1
  1
\A1;有効開口部間口\P1266
  7
STYLE1
 73
     1
 44
1.0
1001
ACAD
1000
MTEXTBEGIN
1070
    73
1070
     1
1070
    44
1040
1.0
1070
    74
1070
     0
1000
MTEXTEND
  0
POINT
  5
14F1C
330
14934
100
AcDbEntity
  8
DEFPOINTS
 62
     0
 48
50.0
100
AcDbPoint
 10
2986.695515348525
 20
7202.684846368406
 30
0.0
  0
POINT
  5
14F1D
330
14934
100
AcDbEntity
  8
DEFPOINTS
 62
     0
 48
50.0
100
AcDbPoint
 10
4252.695515348525
 20
7202.684846368406
 30
0.0
  0
POINT
  5
14F1E
330
14934
100
AcDbEntity
  8
DEFPOINTS
 62
     0
 48
50.0
100
AcDbPoint
 10
4252.695515348525
 20
6528.351678657243
 30
0.0
  0
ENDBLK
  5
1493F
330
14934
100
AcDbEntity
  8
0
 48
50.0
100
AcDbBlockEnd
  0
BLOCK
  5
14CF4
330
14CEA
100
AcDbEntity
  8
0
 48
50.0
100
AcDbBlockBegin
  2
*D28
 70
     1
 10
0.0
 20
0.0
 30
0.0
  3
*D28
  1

  0
LINE
  5
14F0D
330
14CEA
100
AcDbEntity
  8
寸法
 62
     0
 48
50.0
370
    -2
100
AcDbLine
 10
2947.695515348526
 20
7182.684846368406
 30
0.0
 11
2947.695515348526
 21
6183.727838859152
 31
0.0
  0
LINE
  5
14F0E
330
14CEA
100
AcDbEntity
  8
寸法
 62
     0
 48
50.0
370
    -2
100
AcDbLine
 10
5101.695515348526
 20
7182.684846368406
 30
0.0
 11
5101.695515348526
 21
6183.727838859152
 31
0.0
  0
LINE
  5
14F0F
330
14CEA
100
AcDbEntity
  8
寸法
 62
     0
 48
50.0
370
    -2
100
AcDbLine
 10
2947.695515348526
 20
6243.727838859151
 30
0.0
 11
5101.695515348526
 21
6243.727838859151
 31
0.0
  0
INSERT
  5
14F10
330
14CEA
100
AcDbEntity
  8
寸法
 62
     0
 48
50.0
370
    -2
100
AcDbBlockReference
  2
_DOTSMALL
 10
2947.695515348526
 20
6243.727838859151
 30
0.0
 41
100.0
 42
100.0
 43
100.0
 50
180.0
  0
INSERT
  5
14F11
330
14CEA
100
AcDbEntity
  8
寸法
 62
     0
 48
50.0
370
    -2
100
AcDbBlockReference
  2
_DOTSMALL
 10
5101.695515348526
 20
6243.727838859151
 30
0.0
 41
100.0
 42
100.0
 43
100.0
  0
MTEXT
  5
14F12
330
14CEA
100
AcDbEntity
  8
寸法
 62
     7
 48
50.0
100
AcDbMText
 10
4001.817515997383
 20
6343.739649882773
 30
0.0
 40
120.0
 41
0.0
 71
     5
 72
     1
  1
\A1;2154
  7
STYLE1
 73
     1
 44
1.0
1001
ACAD
1000
MTEXTBEGIN
1070
    73
1070
     1
1070
    44
1040
1.0
1070
    74
1070
     0
1000
MTEXTEND
  0
POINT
  5
14F13
330
14CEA
100
AcDbEntity
  8
DEFPOINTS
 62
     0
 48
50.0
100
AcDbPoint
 10
2947.695515348526
 20
7202.684846368406
 30
0.0
  0
POINT
  5
14F14
330
14CEA
100
AcDbEntity
  8
DEFPOINTS
 62
     0
 48
50.0
100
AcDbPoint
 10
5101.695515348526
 20
7202.684846368406
 30
0.0
  0
POINT
  5
14F15
330
14CEA
100
AcDbEntity
  8
DEFPOINTS
 62
     0
 48
50.0
100
AcDbPoint
 10
5101.695515348526
 20
6243.727838859151
 30
0.0
  0
ENDBLK
  5
14CF5
330
14CEA
100
AcDbEntity
  8
0
 48
50.0
100
AcDbBlockEnd
  0
BLOCK
  5
14D02
330
14CF6
100
AcDbEntity
  8
0
 48
50.0
100
AcDbBlockBegin
  2
*D29
 70
     1
 10
0.0
 20
0.0
 30
0.0
  3
*D29
  1

  0
LINE
  5
14F02
330
14CF6
100
AcDbEntity
  8
寸法
 62
     0
 48
50.0
370
    -2
100
AcDbLine
 10
2479.695515348526
 20
7279.684846368407
 30
0.0
 11
2128.376701444477
 21
7279.684846368407
 31
0.0
  0
LINE
  5
14F03
330
14CF6
100
AcDbEntity
  8
寸法
 62
     0
 48
50.0
370
    -2
100
AcDbLine
 10
2927.695515348527
 20
7204.68484636838
 30
0.0
 11
2128.376701444477
 21
7204.68484636838
 31
0.0
  0
LINE
  5
14F04
330
14CF6
100
AcDbEntity
  8
寸法
 62
     0
 48
50.0
370
    -2
100
AcDbLine
 10
2168.376701444477
 20
7299.684846368407
 30
0.0
 11
2168.376701444477
 21
7319.684846368407
 31
0.0
  0
LINE
  5
14F05
330
14CF6
100
AcDbEntity
  8
寸法
 62
     0
 48
50.0
370
    -2
100
AcDbLine
 10
2168.376701444477
 20
7184.68484636838
 30
0.0
 11
2168.376701444477
 21
6963.7142836199
 31
0.0
  0
LINE
  5
14F06
330
14CF6
100
AcDbEntity
  8
寸法
 62
     0
 48
50.0
370
    -2
100
AcDbLine
 10
2168.376701444477
 20
7279.684846368407
 30
0.0
 11
2168.376701444477
 21
7204.68484636838
 31
0.0
  0
INSERT
  5
14F07
330
14CF6
100
AcDbEntity
  8
寸法
 62
     0
 48
50.0
370
    -2
100
AcDbBlockReference
  2
_DOT
 10
2168.376701444477
 20
7279.684846368407
 30
0.0
 41
20.0
 42
20.0
 43
20.0
 50
270.0
  0
INSERT
  5
14F08
330
14CF6
100
AcDbEntity
  8
寸法
 62
     0
 48
50.0
370
    -2
100
AcDbBlockReference
  2
_DOT
 10
2168.376701444477
 20
7204.68484636838
 30
0.0
 41
20.0
 42
20.0
 43
20.0
 50
90.0
  0
MTEXT
  5
14F09
330
14CF6
100
AcDbEntity
  8
寸法
 62
     7
 48
50.0
100
AcDbMText
 10
2076.376701444476
 20
7064.19956499414
 30
0.0
 40
120.0
 41
0.0
 71
     5
 72
     1
  1
\A1;75
  7
STYLE1
 11
0.0000000000000001
 21
1.0
 31
0.0
 73
     1
 44
1.0
1001
ACAD
1000
MTEXTBEGIN
1070
    73
1070
     1
1070
    44
1040
1.0
1070
    74
1070
     0
1000
MTEXTEND
  0
POINT
  5
14F0A
330
14CF6
100
AcDbEntity
  8
DEFPOINTS
 62
     0
 48
50.0
100
AcDbPoint
 10
2499.695515348526
 20
7279.684846368407
 30
0.0
  0
POINT
  5
14F0B
330
14CF6
100
AcDbEntity
  8
DEFPOINTS
 62
     0
 48
50.0
100
AcDbPoint
 10
2947.695515348527
 20
7204.68484636838
 30
0.0
  0
POINT
  5
14F0C
330
14CF6
100
AcDbEntity
  8
DEFPOINTS
 62
     0
 48
50.0
100
AcDbPoint
 10
2168.376701444477
 20
7204.68484636838
 30
0.0
  0
ENDBLK
  5
14D03
330
14CF6
100
AcDbEntity
  8
0
 48
50.0
100
AcDbBlockEnd
  0
BLOCK
  5
14D32
330
14D28
100
AcDbEntity
  8
0
 48
50.0
100
AcDbBlockBegin
  2
*D30
 70
     1
 10
0.0
 20
0.0
 30
0.0
  3
*D30
  1

  0
LINE
  5
14EF9
330
14D28
100
AcDbEntity
  8
寸法
 62
     0
 48
50.0
370
    -2
100
AcDbLine
 10
5549.695515348525
 20
7314.684846368404
 30
0.0
 11
5549.695515348525
 21
5914.60288886556
 31
0.0
  0
LINE
  5
14EFA
330
14D28
100
AcDbEntity
  8
寸法
 62
     0
 48
50.0
370
    -2
100
AcDbLine
 10
8599.695515348525
 20
7259.684846368407
 30
0.0
 11
8599.695515348525
 21
5914.60288886556
 31
0.0
  0
LINE
  5
14EFB
330
14D28
100
AcDbEntity
  8
寸法
 62
     0
 48
50.0
370
    -2
100
AcDbLine
 10
5569.695515348525
 20
5954.60288886556
 30
0.0
 11
8579.695515348525
 21
5954.60288886556
 31
0.0
  0
INSERT
  5
14EFC
330
14D28
100
AcDbEntity
  8
寸法
 62
     0
 48
50.0
370
    -2
100
AcDbBlockReference
  2
_DOT
 10
5549.695515348525
 20
5954.60288886556
 30
0.0
 41
20.0
 42
20.0
 43
20.0
 50
180.0
  0
INSERT
  5
14EFD
330
14D28
100
AcDbEntity
  8
寸法
 62
     0
 48
50.0
370
    -2
100
AcDbBlockReference
  2
_DOT
 10
8599.695515348525
 20
5954.60288886556
 30
0.0
 41
20.0
 42
20.0
 43
20.0
  0
MTEXT
  5
14EFE
330
14D28
100
AcDbEntity
  8
寸法
 62
     7
 48
50.0
100
AcDbMText
 10
7074.695515348524
 20
6046.60288886556
 30
0.0
 40
120.0
 41
0.0
 71
     5
 72
     1
  1
\A1;3050
  7
STYLE1
 73
     1
 44
1.0
1001
ACAD
1000
MTEXTBEGIN
1070
    73
1070
     1
1070
    44
1040
1.0
1070
    74
1070
     0
1000
MTEXTEND
  0
POINT
  5
14EFF
330
14D28
100
AcDbEntity
  8
DEFPOINTS
 62
     0
 48
50.0
100
AcDbPoint
 10
5549.695515348525
 20
7334.684846368404
 30
0.0
  0
POINT
  5
14F00
330
14D28
100
AcDbEntity
  8
DEFPOINTS
 62
     0
 48
50.0
100
AcDbPoint
 10
8599.695515348525
 20
7279.684846368407
 30
0.0
  0
POINT
  5
14F01
330
14D28
100
AcDbEntity
  8
DEFPOINTS
 62
     0
 48
50.0
100
AcDbPoint
 10
8599.695515348525
 20
5954.60288886556
 30
0.0
  0
ENDBLK
  5
14D33
330
14D28
100
AcDbEntity
  8
0
 48
50.0
100
AcDbBlockEnd
  0
BLOCK
  5
14D4C
330
14D42
100
AcDbEntity
  8
0
 48
50.0
100
AcDbBlockBegin
  2
*D31
 70
     1
 10
0.0
 20
0.0
 30
0.0
  3
*D31
  1

  0
LINE
  5
14EF0
330
14D42
100
AcDbEntity
  8
寸法
 62
     0
 48
50.0
370
    -2
100
AcDbLine
 10
2499.695515348526
 20
7259.684846368407
 30
0.0
 11
2499.695515348526
 21
5914.60288886556
 31
0.0
  0
LINE
  5
14EF1
330
14D42
100
AcDbEntity
  8
寸法
 62
     0
 48
50.0
370
    -2
100
AcDbLine
 10
5549.695515348525
 20
7314.684846368407
 30
0.0
 11
5549.695515348525
 21
5914.60288886556
 31
0.0
  0
LINE
  5
14EF2
330
14D42
100
AcDbEntity
  8
寸法
 62
     0
 48
50.0
370
    -2
100
AcDbLine
 10
2519.695515348525
 20
5954.60288886556
 30
0.0
 11
5529.695515348524
 21
5954.60288886556
 31
0.0
  0
INSERT
  5
14EF3
330
14D42
100
AcDbEntity
  8
寸法
 62
     0
 48
50.0
370
    -2
100
AcDbBlockReference
  2
_DOT
 10
2499.695515348526
 20
5954.60288886556
 30
0.0
 41
20.0
 42
20.0
 43
20.0
 50
180.0
  0
INSERT
  5
14EF4
330
14D42
100
AcDbEntity
  8
寸法
 62
     0
 48
50.0
370
    -2
100
AcDbBlockReference
  2
_DOT
 10
5549.695515348525
 20
5954.60288886556
 30
0.0
 41
20.0
 42
20.0
 43
20.0
  0
MTEXT
  5
14EF5
330
14D42
100
AcDbEntity
  8
寸法
 62
     7
 48
50.0
100
AcDbMText
 10
4024.695515348525
 20
6046.60288886556
 30
0.0
 40
120.0
 41
0.0
 71
     5
 72
     1
  1
\A1;3050
  7
STYLE1
 73
     1
 44
1.0
1001
ACAD
1000
MTEXTBEGIN
1070
    73
1070
     1
1070
    44
1040
1.0
1070
    74
1070
     0
1000
MTEXTEND
  0
POINT
  5
14EF6
330
14D42
100
AcDbEntity
  8
DEFPOINTS
 62
     0
 48
50.0
100
AcDbPoint
 10
2499.695515348526
 20
7279.684846368407
 30
0.0
  0
POINT
  5
14EF7
330
14D42
100
AcDbEntity
  8
DEFPOINTS
 62
     0
 48
50.0
100
AcDbPoint
 10
5549.695515348525
 20
7334.684846368407
 30
0.0
  0
POINT
  5
14EF8
330
14D42
100
AcDbEntity
  8
DEFPOINTS
 62
     0
 48
50.0
100
AcDbPoint
 10
5549.695515348525
 20
5954.60288886556
 30
0.0
  0
ENDBLK
  5
14D4D
330
14D42
100
AcDbEntity
  8
0
 48
50.0
100
AcDbBlockEnd
  0
BLOCK
  5
14FC6
330
14FBC
100
AcDbEntity
  8
0
 48
50.0
100
AcDbBlockBegin
  2
*D32
 70
     1
 10
0.0
 20
0.0
 30
0.0
  3
*D32
  1

  0
LINE
  5
14FC8
330
14FBC
100
AcDbEntity
  8
寸法
 62
     0
 48
50.0
370
    -2
100
AcDbLine
 10
5594.695517591684
 20
9613.184846368373
 30
0.0
 11
5946.536877852522
 21
9613.184846368373
 31
0.0
  0
LINE
  5
14FC9
330
14FBC
100
AcDbEntity
  8
寸法
 62
     0
 48
50.0
370
    -2
100
AcDbLine
 10
5624.69551759192
 20
10329.68484994555
 30
0.0
 11
5946.536877852523
 21
10329.68484994555
 31
0.0
  0
LINE
  5
14FCA
330
14FBC
100
AcDbEntity
  8
寸法
 62
     0
 48
50.0
370
    -2
100
AcDbLine
 10
5886.536877852521
 20
9613.184846368373
 30
0.0
 11
5886.536877852523
 21
10329.68484994555
 31
0.0
  0
INSERT
  5
14FCB
330
14FBC
100
AcDbEntity
  8
寸法
 62
     0
 48
50.0
370
    -2
100
AcDbBlockReference
  2
_DOTSMALL
 10
5886.536877852521
 20
9613.184846368373
 30
0.0
 41
100.0
 42
100.0
 43
100.0
 50
270.0
  0
INSERT
  5
14FCC
330
14FBC
100
AcDbEntity
  8
寸法
 62
     0
 48
50.0
370
    -2
100
AcDbBlockReference
  2
_DOTSMALL
 10
5886.536877852523
 20
10329.68484994555
 30
0.0
 41
100.0
 42
100.0
 43
100.0
 50
90.0
  0
MTEXT
  5
14FCD
330
14FBC
100
AcDbEntity
  8
寸法
 62
     7
 48
50.0
100
AcDbMText
 10
5786.536877852521
 20
9946.923705581815
 30
0.0
 40
120.0
 41
0.0
 71
     5
 72
     1
  1
\A1;716.5
  7
STYLE1
 11
0.0000000000000001
 21
1.0
 31
0.0
 73
     1
 44
1.0
1001
ACAD
1000
MTEXTBEGIN
1070
    73
1070
     1
1070
    44
1040
1.0
1070
    74
1070
     0
1000
MTEXTEND
  0
POINT
  5
14FCE
330
14FBC
100
AcDbEntity
  8
DEFPOINTS
 62
     0
 48
50.0
100
AcDbPoint
 10
5574.695517591685
 20
9613.184846368373
 30
0.0
  0
POINT
  5
14FCF
330
14FBC
100
AcDbEntity
  8
DEFPOINTS
 62
     0
 48
50.0
100
AcDbPoint
 10
5604.695517591919
 20
10329.68484994555
 30
0.0
  0
POINT
  5
14FD0
330
14FBC
100
AcDbEntity
  8
DEFPOINTS
 62
     0
 48
50.0
100
AcDbPoint
 10
5886.536877852523
 20
10329.68484994555
 30
0.0
  0
ENDBLK
  5
14FC7
330
14FBC
100
AcDbEntity
  8
0
 48
50.0
100
AcDbBlockEnd
  0
ENDSEC
  0
SECTION
  2
ENTITIES
  0
MTEXT
  5
763F
330
747D
100
AcDbEntity
  8
0
100
AcDbMText
 10
302.846345836809
 20
280.1983726409901
 30
0.0
 40
3.5
 41
5.323721266742722
 71
     1
 72
     5
  1

  7
MSMINCHO
 73
     1
 44
1.0
1001
ACAD
1000
MTEXTBEGIN
1070
    73
1070
     1
1070
    44
1040
1.0
1070
    74
1070
     0
1000
MTEXTEND
  0
INSERT
  5
F235
330
747D
100
AcDbEntity
  8
0
100
AcDbBlockReference
  2
作図枠S50
 10
0.0
 20
0.0
 30
0.0
 41
0.8
 42
0.8
 43
0.8
  0
LINE
  5
10B56
330
747D
100
AcDbEntity
  8
補助
  6
PHANTOM
 62
   230
 48
50.0
100
AcDbLine
 10
140.0
 20
0.0
 30
0.0
 11
139.9999999999995
 21
11409.6
 31
0.0
  0
LINE
  5
10B57
330
747D
100
AcDbEntity
  8
補助
  6
PHANTOM
 62
   230
 48
50.0
100
AcDbLine
 10
139.9999999999995
 20
11409.6
 30
0.0
 11
16307.2
 21
11409.6
 31
0.0
  0
LINE
  5
10B59
330
747D
100
AcDbEntity
  8
仕様書枠
  6
Continuous
 48
50.0
100
AcDbLine
 10
13107.2
 20
1200.0
 30
0.0
 11
13107.2
 21
-0.0000000000000729
 31
0.0
  0
LINE
  5
10B5C
330
747D
100
AcDbEntity
  8
仕様書枠
 48
50.0
100
AcDbLine
 10
16307.2
 20
1200.0
 30
0.0
 11
16307.2
 21
-0.0000000000000909
 31
0.0
  0
LINE
  5
10B5D
330
747D
100
AcDbEntity
  8
仕様書枠
 48
50.0
100
AcDbLine
 10
140.0
 20
0.0
 30
0.0
 11
16307.2
 21
-0.0000000000000909
 31
0.0
  0
LINE
  5
10B5E
330
747D
100
AcDbEntity
  8
補助
  6
PHANTOM
 62
   230
 48
50.0
100
AcDbLine
 10
16307.2
 20
11409.6
 30
0.0
 11
16307.2
 21
1200.0
 31
0.0
  0
LINE
  5
10B6C
330
747D
100
AcDbEntity
  8
仕様書枠
 48
50.0
100
AcDbLine
 10
13107.2
 20
1200.0
 30
0.0
 11
16307.2
 21
1200.0
 31
0.0
  0
LINE
  5
10B6D
330
747D
100
AcDbEntity
  8
補助
  6
PHANTOM
 62
   230
 48
50.0
100
AcDbLine
 10
13107.2
 20
11409.6
 30
0.0
 11
13107.2
 21
4800.0
 31
0.0
  0
LINE
  5
10B6F
330
747D
100
AcDbEntity
  8
補助
  6
PHANTOM
 62
   230
 48
50.0
100
AcDbLine
 10
13107.2
 20
4800.0
 30
0.0
 11
16307.2
 21
4800.0
 31
0.0
  0
LINE
  5
10B72
330
747D
100
AcDbEntity
  8
文字
 62
     7
 48
50.0
100
AcDbLine
 10
13187.2
 20
400.0
 30
0.0
 11
16227.2
 21
400.0
 31
0.0
  0
TEXT
  5
10B73
330
747D
100
AcDbEntity
  8
文字
 62
     7
 48
50.0
100
AcDbText
 10
13162.9790565769
 20
895.0906074299405
 30
0.0
 40
200.0
  1
外 形 図
  7
STYLE2
100
AcDbText
  0
TEXT
  5
10B74
330
747D
100
AcDbEntity
  8
文字
 62
     7
 48
50.0
100
AcDbText
 10
13201.43669998441
 20
477.2740661031255
 30
0.0
 40
160.0
  1
機種名
  7
STYLE2
100
AcDbText
  0
TEXT
  5
10B76
330
747D
100
AcDbEntity
  8
文字
 62
     7
 48
50.0
100
AcDbText
 10
13209.4053442172
 20
76.09434707649343
 30
0.0
 40
100.0
  1
○床面積 ： 18.77㎡(5.69坪) 　
  7
STYLE2
100
AcDbText
  0
TEXT
  5
10B79
330
747D
100
AcDbEntity
  8
文字
 62
     7
 48
50.0
100
AcDbText
 10
14524.131837222
 20
1031.557706291228
 30
0.0
 40
100.0
  1
NO.30     <縮尺> S=1/40
  7
STYLE2
100
AcDbText
  0
LINE
  5
10B7B
330
747D
100
AcDbEntity
  8
仕様書枠
 48
50.0
100
AcDbLine
 10
13107.2
 20
800.0
 30
0.0
 11
14251.2
 21
800.0
 31
0.0
  0
LINE
  5
10B88
330
747D
100
AcDbEntity
  8
仕様書枠
  6
Continuous
 48
50.0
100
AcDbLine
 10
14251.2
 20
1200.0
 30
0.0
 11
14251.2
 21
800.0
 31
0.0
  0
TEXT
  5
10EA8
330
747D
100
AcDbEntity
  8
文字
 62
     7
 48
50.0
100
AcDbText
 10
14627.87021402942
 20
838.2527270729188
 30
0.0
 40
100.0
  1
～多雪地型～
  7
STYLE2
100
AcDbText
  0
LINE
  5
13A9F
330
747D
100
AcDbEntity
  8
部品1
100
AcDbLine
 10
8571.695515348526
 20
9434.684846368416
 30
0.0
 11
8599.695515348525
 21
9434.684846368416
 31
0.0
  0
LINE
  5
13AA0
330
747D
100
AcDbEntity
  8
部品1
100
AcDbLine
 10
5604.695515348525
 20
9434.684846368412
 30
0.0
 11
8544.695515348525
 21
9434.684846368412
 31
0.0
  0
LINE
  5
13AA1
330
747D
100
AcDbEntity
  8
部品1
100
AcDbLine
 10
2527.695515348525
 20
9434.684846368416
 30
0.0
 11
2499.695515348526
 21
9434.684846368416
 31
0.0
  0
LINE
  5
13AA2
330
747D
100
AcDbEntity
  8
部品1
100
AcDbLine
 10
5494.695515348524
 20
9434.684846368412
 30
0.0
 11
2554.695515348525
 21
9434.68484636841
 31
0.0
  0
DIMENSION
  5
13AA3
330
747D
100
AcDbEntity
  8
寸法
 48
50.0
100
AcDbDimension
  2
*D7
 10
8599.695515348525
 20
10704.3972563872
 30
0.0
 11
8993.86218201519
 21
10704.3972563872
 31
0.0
 70
   160
 71
     5
 42
55.0
  3
INABA_S40
100
AcDbAlignedDimension
 13
8544.695515348525
 23
10329.68484636841
 33
0.0
 14
8599.695515348525
 24
10329.6848463684
 34
0.0
100
AcDbRotatedDimension
1001
ACAD
1000
DSTYLE
1002
{
1070
    41
1040
0.5
1070
    44
1040
1.0
1070
   147
1040
0.8
1070
   271
1070
     2
1070
   272
1070
     2
1070
   289
1070
     3
1070
   340
1005
F706
1070
   343
1005
F744
1070
   344
1005
F744
1002
}
  0
DIMENSION
  5
13AA4
330
747D
100
AcDbEntity
  8
寸法
 48
50.0
100
AcDbDimension
  2
*D8
 10
9670.442632392878
 20
7279.684846368407
 30
0.0
 11
9578.442632392876
 21
8804.684846368409
 31
0.0
 70
    32
 71
     5
 42
3050.0
  3
INABA_S40
100
AcDbAlignedDimension
 13
8599.695515348525
 23
10329.6848463684
 33
0.0
 14
8599.695515348525
 24
7279.684846368407
 34
0.0
 50
90.0
100
AcDbRotatedDimension
1001
ACAD
1000
DSTYLE
1002
{
1070
    41
1040
0.5
1070
    44
1040
1.0
1070
   147
1040
0.8
1070
   271
1070
     2
1070
   272
1070
     2
1070
   289
1070
     3
1070
   340
1005
F706
1070
   343
1005
F744
1070
   344
1005
F744
1002
}
  0
DIMENSION
  5
13AA5
330
747D
100
AcDbEntity
  8
寸法
 48
50.0
100
AcDbDimension
  2
*D9
 10
9370.44263239288
 20
7279.684846368407
 30
0.0
 11
9370.442632392878
 21
6885.51817970174
 31
0.0
 70
   160
 71
     5
 42
54.99999999999636
  3
INABA_S40
100
AcDbAlignedDimension
 13
8599.695515348525
 23
7334.684846368404
 33
0.0
 14
8599.695515348525
 24
7279.684846368407
 34
0.0
 50
90.0
100
AcDbRotatedDimension
1001
ACAD
1000
DSTYLE
1002
{
1070
    41
1040
0.5
1070
    44
1040
1.0
1070
   147
1040
0.8
1070
   271
1070
     2
1070
   272
1070
     2
1070
   289
1070
     3
1070
   340
1005
F706
1070
   343
1005
F744
1070
   344
1005
F744
1002
}
  0
DIMENSION
  5
13AA6
330
747D
100
AcDbEntity
  8
寸法
 48
50.0
100
AcDbDimension
  2
*D10
 10
9370.442632392878
 20
7334.684846368404
 30
0.0
 11
9278.430821369255
 21
8804.684846368409
 31
0.0
 70
    32
  1
7X420=<>
 71
     5
 42
2940.000000000008
  3
INABA_S40
100
AcDbAlignedDimension
 13
8599.695515348525
 23
10274.68484636841
 33
0.0
 14
8599.695515348525
 24
7334.684846368404
 34
0.0
 50
90.0
100
AcDbRotatedDimension
1001
ACAD
1000
DSTYLE
1002
{
1070
    41
1040
0.5
1070
    44
1040
1.0
1070
   147
1040
0.8
1070
   271
1070
     2
1070
   272
1070
     2
1070
   289
1070
     3
1070
   340
1005
F706
1070
   343
1005
F744
1070
   344
1005
F744
1002
}
  0
DIMENSION
  5
13AA7
330
747D
100
AcDbEntity
  8
寸法
 48
50.0
100
AcDbDimension
  2
*D11
 10
9370.44263239288
 20
10274.68484636841
 30
0.0
 11
9370.442632392878
 21
10723.85151303507
 31
0.0
 70
   160
 71
     5
 42
54.99999999999636
  3
INABA_S40
100
AcDbAlignedDimension
 13
8599.695515348525
 23
10329.6848463684
 33
0.0
 14
8599.695515348525
 24
10274.68484636841
 34
0.0
 50
90.0
100
AcDbRotatedDimension
1001
ACAD
1000
DSTYLE
1002
{
1070
    41
1040
0.5
1070
    44
1040
1.0
1070
   147
1040
0.8
1070
   271
1070
     2
1070
   272
1070
     2
1070
   289
1070
     3
1070
   340
1005
F706
1070
   343
1005
F744
1070
   344
1005
F744
1002
}
  0
LINE
  5
13AA8
330
747D
100
AcDbEntity
  8
Ｇ．Ｌ
 48
50.0
100
AcDbLine
 10
1235.828128122382
 20
2188.112805903256
 30
0.0
 11
15554.13705475976
 21
2188.112805903256
 31
0.0
  0
LINE
  5
13AA9
330
747D
100
AcDbEntity
  8
部品1
100
AcDbLine
 10
2499.695515348526
 20
4428.112805903256
 30
0.0
 11
8599.695515348525
 21
4428.112805903256
 31
0.0
  0
LINE
  5
13AAA
330
747D
100
AcDbEntity
  8
部品1
100
AcDbLine
 10
2499.695515348526
 20
2288.112805903256
 30
0.0
 11
8599.695515348525
 21
2288.112805903256
 31
0.0
  0
LINE
  5
13AAB
330
747D
100
AcDbEntity
  8
部品1
100
AcDbLine
 10
2554.695515348525
 20
4428.112805903256
 30
0.0
 11
2554.695515348525
 21
2338.112805903256
 31
0.0
  0
LINE
  5
13AAC
330
747D
100
AcDbEntity
  8
部品1
100
AcDbLine
 10
2499.695515348526
 20
4522.11280590326
 30
0.0
 11
2499.695515348526
 21
2188.112805903256
 31
0.0
  0
TEXT
  5
13AAD
330
747D
100
AcDbEntity
  8
部品1
100
AcDbText
 10
1666.764820000789
 20
2202.954510774245
 30
0.0
 40
125.0
  1
G.L
  7
MSGOTHIC
100
AcDbText
  0
LINE
  5
13AAE
330
747D
100
AcDbEntity
  8
部品1
100
AcDbLine
 10
1524.280866300971
 20
2292.035854357388
 30
0.0
 11
1644.280866300971
 21
2292.035854357388
 31
0.0
  0
LINE
  5
13AAF
330
747D
100
AcDbEntity
  8
部品1
100
AcDbLine
 10
1644.280866300971
 20
2292.035854357388
 30
0.0
 11
1584.280866300971
 21
2188.112805903256
 31
0.0
  0
LINE
  5
13AB0
330
747D
100
AcDbEntity
  8
部品1
100
AcDbLine
 10
1584.280866300971
 20
2188.112805903256
 30
0.0
 11
1524.280866300971
 21
2292.035854357388
 31
0.0
  0
LINE
  5
13AB1
330
747D
100
AcDbEntity
  8
部品1
 48
50.0
100
AcDbLine
 10
2947.695515348525
 20
2338.112805903256
 30
0.0
 11
2499.695515348526
 21
2338.112805903256
 31
0.0
  0
LINE
  5
13AB2
330
747D
100
AcDbEntity
  8
部品1
 48
50.0
100
AcDbLine
 10
5549.695515348525
 20
2338.112805903256
 30
0.0
 11
8599.695515348525
 21
2338.112805903256
 31
0.0
  0
LINE
  5
13AB3
330
747D
100
AcDbEntity
  8
部品1
100
AcDbLine
 10
5604.695515348525
 20
4428.112805903256
 30
0.0
 11
5604.695515348525
 21
2338.112805903256
 31
0.0
  0
LINE
  5
13AB4
330
747D
100
AcDbEntity
  8
部品1
100
AcDbLine
 10
6024.695515348525
 20
4428.112805903256
 30
0.0
 11
6024.695515348525
 21
2338.112805903256
 31
0.0
  0
LINE
  5
13AB5
330
747D
100
AcDbEntity
  8
部品1
100
AcDbLine
 10
5494.695515348524
 20
4428.112805903256
 30
0.0
 11
5494.695515348524
 21
2338.112805903256
 31
0.0
  0
LINE
  5
13AB6
330
747D
100
AcDbEntity
  8
部品1
 48
50.0
100
AcDbLine
 10
5549.695515348525
 20
2338.112805903256
 30
0.0
 11
5101.695515348525
 21
2338.112805903256
 31
0.0
  0
LINE
  5
13AB7
330
747D
100
AcDbEntity
  8
部品1
100
AcDbLine
 10
5549.695515348525
 20
2338.112805903256
 30
0.0
 11
5549.695515348525
 21
2288.112805903256
 31
0.0
  0
LINE
  5
13AB8
330
747D
100
AcDbEntity
  8
部品1
100
AcDbLine
 10
5539.695515348525
 20
4522.11280590326
 30
0.0
 11
5539.695515348522
 21
4663.112805903258
 31
0.0
  0
LINE
  5
13AB9
330
747D
100
AcDbEntity
  8
部品1
100
AcDbLine
 10
5549.695515348525
 20
4428.112805903256
 30
0.0
 11
5549.695515348525
 21
4522.11280590326
 31
0.0
  0
LINE
  5
13ABA
330
747D
100
AcDbEntity
  8
部品1
100
AcDbLine
 10
8124.695515348539
 20
4428.112805903256
 30
0.0
 11
8124.695515348536
 21
2338.112805903256
 31
0.0
  0
LINE
  5
13ABB
330
747D
100
AcDbEntity
  8
部品1
100
AcDbLine
 10
7704.695515348539
 20
4428.112805903256
 30
0.0
 11
7704.695515348536
 21
2338.112805903256
 31
0.0
  0
LINE
  5
13ABC
330
747D
100
AcDbEntity
  8
部品1
100
AcDbLine
 10
7284.695515348539
 20
4428.112805903256
 30
0.0
 11
7284.695515348537
 21
2338.112805903256
 31
0.0
  0
LINE
  5
13ABD
330
747D
100
AcDbEntity
  8
部品1
100
AcDbLine
 10
6864.695515348525
 20
4428.112805903256
 30
0.0
 11
6864.695515348525
 21
2338.112805903256
 31
0.0
  0
LINE
  5
13ABE
330
747D
100
AcDbEntity
  8
部品1
100
AcDbLine
 10
6444.695515348525
 20
4428.112805903256
 30
0.0
 11
6444.695515348525
 21
2338.112805903256
 31
0.0
  0
LINE
  5
13ABF
330
747D
100
AcDbEntity
  8
部品1
100
AcDbLine
 10
8544.695515348525
 20
4428.112805903256
 30
0.0
 11
8544.695515348525
 21
2338.112805903256
 31
0.0
  0
LINE
  5
13AC0
330
747D
100
AcDbEntity
  8
部品1
100
AcDbLine
 10
8599.695515348525
 20
4522.11280590326
 30
0.0
 11
8599.695515348525
 21
2188.112805903256
 31
0.0
  0
LINE
  5
13AC1
330
747D
100
AcDbEntity
  8
破線
  6
HIDDEN
 48
10.0
100
AcDbLine
 10
3322.195515348521
 20
10251.18484636841
 30
0.0
 11
3999.695515348522
 21
10251.18484636841
 31
0.0
  0
LINE
  5
13AC2
330
747D
100
AcDbEntity
  8
破線
  6
HIDDEN
 48
10.0
100
AcDbLine
 10
3322.195515348518
 20
7358.184846368406
 30
0.0
 11
3999.695515348518
 21
7358.184846368406
 31
0.0
  0
LINE
  5
13AC3
330
747D
100
AcDbEntity
  8
部品1
100
AcDbLine
 10
2554.695515348522
 20
10274.68484636841
 30
0.0
 11
5494.695515348524
 21
10274.68484636841
 31
0.0
  0
LINE
  5
13AC4
330
747D
100
AcDbEntity
  8
部品1
100
AcDbLine
 10
3394.695515348525
 20
10301.68484636841
 30
0.0
 11
2527.695515348525
 21
10301.68484636841
 31
0.0
  0
LINE
  5
13AC5
330
747D
100
AcDbEntity
  8
部品1
100
AcDbLine
 10
5494.695515348524
 20
7754.68484636841
 30
0.0
 11
2554.695515348525
 21
7754.684846368405
 31
0.0
  0
LINE
  5
13AC6
330
747D
100
AcDbEntity
  8
部品1
100
AcDbLine
 10
5494.695515348524
 20
8174.684846368409
 30
0.0
 11
2554.695515348525
 21
8174.684846368405
 31
0.0
  0
LINE
  5
13AC7
330
747D
100
AcDbEntity
  8
部品1
100
AcDbLine
 10
5494.695515348524
 20
8594.684846368409
 30
0.0
 11
2554.695515348525
 21
8594.684846368407
 31
0.0
  0
LINE
  5
13AC8
330
747D
100
AcDbEntity
  8
部品1
100
AcDbLine
 10
5494.695515348524
 20
9014.684846368409
 30
0.0
 11
2554.695515348525
 21
9014.684846368405
 31
0.0
  0
LINE
  5
13AC9
330
747D
100
AcDbEntity
  8
部品1
100
AcDbLine
 10
5549.695515348525
 20
10329.6848463684
 30
0.0
 11
2499.695515348526
 21
10329.6848463684
 31
0.0
  0
LINE
  5
13ACA
330
747D
100
AcDbEntity
  8
部品1
100
AcDbLine
 10
2554.695515348522
 20
7334.68484636841
 30
0.0
 11
5494.695515348524
 21
7334.684846368404
 31
0.0
  0
LINE
  5
13ACB
330
747D
100
AcDbEntity
  8
部品1
100
AcDbLine
 10
2527.695515348525
 20
7307.684846368407
 30
0.0
 11
5521.695515348525
 21
7307.684846368409
 31
0.0
  0
DIMENSION
  5
13ACC
330
747D
100
AcDbEntity
  8
寸法
 48
50.0
100
AcDbDimension
  2
*D12
 10
8599.695515348525
 20
11004.3972563872
 30
0.0
 11
5549.695515348525
 21
11096.3972563872
 31
0.0
 70
    32
 71
     5
 42
6100.0
  3
INABA_S40
100
AcDbAlignedDimension
 13
2499.695515348526
 23
10329.6848463684
 33
0.0
 14
8599.695515348525
 24
10329.6848463684
 34
0.0
100
AcDbRotatedDimension
1001
ACAD
1000
DSTYLE
1002
{
1070
    41
1040
0.5
1070
    44
1040
1.0
1070
   147
1040
0.8
1070
   271
1070
     2
1070
   272
1070
     2
1070
   289
1070
     3
1070
   340
1005
F706
1070
   343
1005
F744
1070
   344
1005
F744
1002
}
  0
DIMENSION
  5
13ACD
330
747D
100
AcDbEntity
  8
寸法
 48
50.0
100
AcDbDimension
  2
*D13
 10
5494.695515348524
 20
10704.3972563872
 30
0.0
 11
4024.695515348525
 21
10796.40906741082
 31
0.0
 70
    32
  1
7X420=<>
 71
     5
 42
2940.0
  3
INABA_S40
100
AcDbAlignedDimension
 13
2554.695515348525
 23
10329.68484636841
 33
0.0
 14
5494.695515348524
 24
10329.68484636841
 34
0.0
100
AcDbRotatedDimension
1001
ACAD
1000
DSTYLE
1002
{
1070
    41
1040
0.5
1070
    44
1040
1.0
1070
   147
1040
0.8
1070
   271
1070
     2
1070
   272
1070
     2
1070
   289
1070
     3
1070
   340
1005
F706
1070
   343
1005
F744
1070
   344
1005
F744
1002
}
  0
LINE
  5
13ACF
330
747D
100
AcDbEntity
  8
破線
  6
HIDDEN
 48
10.0
100
AcDbLine
 10
3322.195515348521
 20
10274.68484636841
 30
0.0
 11
3322.195515348518
 21
7334.684846368407
 31
0.0
  0
LINE
  5
13AD0
330
747D
100
AcDbEntity
  8
破線
  6
HIDDEN
 48
10.0
100
AcDbLine
 10
3272.195515348521
 20
10274.68484636841
 30
0.0
 11
3272.195515348518
 21
7334.68484636841
 31
0.0
  0
LINE
  5
13AD1
330
747D
100
AcDbEntity
  8
部品1
100
AcDbLine
 10
2554.695515348532
 20
10274.6848463684
 30
0.0
 11
2554.695515348522
 21
7334.68484636841
 31
0.0
  0
LINE
  5
13AD2
330
747D
100
AcDbEntity
  8
破線
  6
HIDDEN
 48
10.0
100
AcDbLine
 10
2578.195515348533
 20
10251.18484636841
 30
0.0
 11
2578.195515348522
 21
7358.184846368406
 31
0.0
  0
LINE
  5
13AD3
330
747D
100
AcDbEntity
  8
部品1
100
AcDbLine
 10
2499.695515348526
 20
10329.6848463684
 30
0.0
 11
2499.695515348526
 21
7279.684846368407
 31
0.0
  0
LINE
  5
13AD4
330
747D
100
AcDbEntity
  8
部品1
100
AcDbLine
 10
2527.695515348529
 20
10301.6848463684
 30
0.0
 11
2527.695515348525
 21
7307.684846368407
 31
0.0
  0
LINE
  5
13AD5
330
747D
100
AcDbEntity
  8
破線
  6
HIDDEN
 48
10.0
100
AcDbLine
 10
2578.195515348522
 20
7358.184846368406
 30
0.0
 11
3272.195515348518
 21
7358.184846368406
 31
0.0
  0
LINE
  5
13AD6
330
747D
100
AcDbEntity
  8
部品1
100
AcDbLine
 10
2499.695515348526
 20
7279.684846368407
 30
0.0
 11
2974.695515348525
 21
7279.684846368406
 31
0.0
  0
LINE
  5
13AD7
330
747D
100
AcDbEntity
  8
部品1
 48
50.0
100
AcDbLine
 10
2527.695515348525
 20
7307.684846368407
 30
0.0
 11
2554.695515348522
 21
7334.68484636841
 31
0.0
  0
LINE
  5
13AD8
330
747D
100
AcDbEntity
  8
部品1
100
AcDbLine
 10
2554.695515348525
 20
7279.684846368406
 30
0.0
 11
2554.695515348525
 21
7307.684846368407
 31
0.0
  0
LINE
  5
13AD9
330
747D
100
AcDbEntity
  8
部品1
100
AcDbLine
 10
2527.695515348525
 20
7334.684846368404
 30
0.0
 11
2499.695515348526
 21
7334.684846368404
 31
0.0
  0
LINE
  5
13ADA
330
747D
100
AcDbEntity
  8
部品1
100
AcDbLine
 10
2974.695515348525
 20
7279.684846368413
 30
0.0
 11
2974.695515348525
 21
7307.684846368414
 31
0.0
  0
LINE
  5
13ADB
330
747D
100
AcDbEntity
  8
部品1
100
AcDbLine
 10
2974.695515348525
 20
7279.684846368406
 30
0.0
 11
2974.695515348525
 21
7307.684846368407
 31
0.0
  0
LINE
  5
13ADC
330
747D
100
AcDbEntity
  8
部品1
100
AcDbLine
 10
2527.695515348525
 20
7754.684846368411
 30
0.0
 11
2499.695515348526
 21
7754.684846368411
 31
0.0
  0
LINE
  5
13ADD
330
747D
100
AcDbEntity
  8
部品1
100
AcDbLine
 10
2527.695515348525
 20
8174.684846368412
 30
0.0
 11
2499.695515348526
 21
8174.684846368412
 31
0.0
  0
LINE
  5
13ADE
330
747D
100
AcDbEntity
  8
部品1
100
AcDbLine
 10
2527.695515348525
 20
8594.68484636841
 30
0.0
 11
2499.695515348526
 21
8594.68484636841
 31
0.0
  0
LINE
  5
13ADF
330
747D
100
AcDbEntity
  8
部品1
100
AcDbLine
 10
2527.695515348525
 20
9014.68484636841
 30
0.0
 11
2499.695515348526
 21
9014.68484636841
 31
0.0
  0
LINE
  5
13AE0
330
747D
100
AcDbEntity
  8
破線
  6
HIDDEN
 48
10.0
100
AcDbLine
 10
2578.195515348522
 20
10251.18484636841
 30
0.0
 11
3272.195515348521
 21
10251.18484636841
 31
0.0
  0
DIMENSION
  5
13AE1
330
747D
100
AcDbEntity
  8
寸法
 48
50.0
100
AcDbDimension
  2
*D14
 10
2554.695515348525
 20
10704.3972563872
 30
0.0
 11
2105.528848681861
 21
10704.3972563872
 31
0.0
 70
   160
 71
     5
 42
55.0
  3
INABA_S40
100
AcDbAlignedDimension
 13
2499.695515348526
 23
10329.6848463684
 33
0.0
 14
2554.695515348525
 24
10329.68484636841
 34
0.0
100
AcDbRotatedDimension
1001
ACAD
1000
DSTYLE
1002
{
1070
    41
1040
0.5
1070
    44
1040
1.0
1070
   147
1040
0.8
1070
   271
1070
     2
1070
   272
1070
     2
1070
   289
1070
     3
1070
   340
1005
F706
1070
   343
1005
F744
1070
   344
1005
F744
1002
}
  0
LINE
  5
13AE2
330
747D
100
AcDbEntity
  8
部品1
 48
50.0
100
AcDbLine
 10
2527.695515348525
 20
10301.68484636841
 30
0.0
 11
2554.695515348522
 21
10274.68484636841
 31
0.0
  0
LINE
  5
13AE3
330
747D
100
AcDbEntity
  8
部品1
100
AcDbLine
 10
2554.695515348525
 20
10329.68484636841
 30
0.0
 11
2554.695515348525
 21
10301.68484636841
 31
0.0
  0
LINE
  5
13AE4
330
747D
100
AcDbEntity
  8
部品1
100
AcDbLine
 10
2527.695515348525
 20
10274.68484636841
 30
0.0
 11
2499.695515348526
 21
10274.68484636841
 31
0.0
  0
LINE
  5
13AE5
330
747D
100
AcDbEntity
  8
部品1
100
AcDbLine
 10
2974.695515348525
 20
10329.68484636841
 30
0.0
 11
2974.695515348525
 21
10301.68484636841
 31
0.0
  0
LINE
  5
13AE6
330
747D
100
AcDbEntity
  8
破線
  6
HIDDEN
 48
10.0
100
AcDbLine
 10
7827.195515348525
 20
10274.68484636841
 30
0.0
 11
7827.195515348525
 21
7334.684846368407
 31
0.0
  0
LINE
  5
13AE7
330
747D
100
AcDbEntity
  8
破線
  6
HIDDEN
 48
10.0
100
AcDbLine
 10
7777.195515348525
 20
10274.68484636841
 30
0.0
 11
7777.195515348525
 21
7334.684846368407
 31
0.0
  0
LINE
  5
13AE8
330
747D
100
AcDbEntity
  8
破線
  6
HIDDEN
 48
10.0
100
AcDbLine
 10
6372.195515348526
 20
10274.68484636841
 30
0.0
 11
6372.195515348526
 21
7334.68484636841
 31
0.0
  0
LINE
  5
13AE9
330
747D
100
AcDbEntity
  8
破線
  6
HIDDEN
 48
10.0
100
AcDbLine
 10
6322.195515348525
 20
10274.68484636841
 30
0.0
 11
6322.195515348525
 21
7334.68484636841
 31
0.0
  0
LINE
  5
13AEA
330
747D
100
AcDbEntity
  8
破線
  6
HIDDEN
 48
10.0
100
AcDbLine
 10
4777.195515348521
 20
10274.68484636841
 30
0.0
 11
4777.195515348518
 21
7334.684846368407
 31
0.0
  0
LINE
  5
13AEB
330
747D
100
AcDbEntity
  8
破線
  6
HIDDEN
 48
10.0
100
AcDbLine
 10
4727.195515348522
 20
10274.68484636841
 30
0.0
 11
4727.195515348518
 21
7334.684846368407
 31
0.0
  0
LINE
  5
13AEC
330
747D
100
AcDbEntity
  8
部品1
100
AcDbLine
 10
8544.695515348525
 20
10274.68484636841
 30
0.0
 11
8544.695515348525
 21
7334.684846368407
 31
0.0
  0
LINE
  5
13AED
330
747D
100
AcDbEntity
  8
破線
  6
HIDDEN
 48
10.0
100
AcDbLine
 10
7049.695515348524
 20
10251.18484636841
 30
0.0
 11
7049.695515348524
 21
7358.184846368406
 31
0.0
  0
LINE
  5
13AEE
330
747D
100
AcDbEntity
  8
破線
  6
HIDDEN
 48
10.0
100
AcDbLine
 10
7099.695515348525
 20
10251.18484636841
 30
0.0
 11
7099.695515348525
 21
7358.184846368406
 31
0.0
  0
LINE
  5
13AEF
330
747D
100
AcDbEntity
  8
破線
  6
HIDDEN
 48
10.0
100
AcDbLine
 10
4049.695515348521
 20
10251.18484636841
 30
0.0
 11
4049.695515348518
 21
7358.184846368409
 31
0.0
  0
LINE
  5
13AF0
330
747D
100
AcDbEntity
  8
破線
  6
HIDDEN
 48
10.0
100
AcDbLine
 10
3999.695515348522
 20
10251.18484636841
 30
0.0
 11
3999.695515348518
 21
7358.184846368409
 31
0.0
  0
LINE
  5
13AF1
330
747D
100
AcDbEntity
  8
部品1
100
AcDbLine
 10
7074.695515348524
 20
7334.684846368407
 30
0.0
 11
7074.695515348524
 21
10274.68484636841
 31
0.0
  0
LINE
  5
13AF2
330
747D
100
AcDbEntity
  8
部品1
100
AcDbLine
 10
5604.695515348525
 20
7334.684846368407
 30
0.0
 11
5604.695515348525
 21
10274.6848463684
 31
0.0
  0
LINE
  5
13AF3
330
747D
100
AcDbEntity
  8
破線
  6
HIDDEN
 48
10.0
100
AcDbLine
 10
5628.195515348525
 20
7358.184846368406
 30
0.0
 11
5628.195515348525
 21
10251.18484636841
 31
0.0
  0
LINE
  5
13AF4
330
747D
100
AcDbEntity
  8
部品1
100
AcDbLine
 10
5577.695515348525
 20
7307.684846368407
 30
0.0
 11
5577.695515348525
 21
10301.68484636841
 31
0.0
  0
LINE
  5
13AF5
330
747D
100
AcDbEntity
  8
部品1
100
AcDbLine
 10
4024.695515348525
 20
10274.68484636841
 30
0.0
 11
4024.695515348517
 21
7334.68484636841
 31
0.0
  0
LINE
  5
13AF6
330
747D
100
AcDbEntity
  8
破線
  6
HIDDEN
 48
10.0
100
AcDbLine
 10
5471.195515348525
 20
7358.184846368404
 30
0.0
 11
5471.195515348521
 21
10251.18484636841
 31
0.0
  0
LINE
  5
13AF7
330
747D
100
AcDbEntity
  8
部品1
100
AcDbLine
 10
5494.695515348524
 20
7334.684846368404
 30
0.0
 11
5494.695515348521
 21
10274.68484636841
 31
0.0
  0
LINE
  5
13AF8
330
747D
100
AcDbEntity
  8
部品1
100
AcDbLine
 10
5521.695515348525
 20
7307.684846368409
 30
0.0
 11
5521.695515348525
 21
10301.68484636841
 31
0.0
  0
LINE
  5
13AF9
330
747D
100
AcDbEntity
  8
破線
  6
HIDDEN
 48
10.0
100
AcDbLine
 10
8521.195515348525
 20
10251.18484636841
 30
0.0
 11
8521.195515348525
 21
7358.184846368406
 31
0.0
  0
LINE
  5
13AFA
330
747D
100
AcDbEntity
  8
部品1
100
AcDbLine
 10
8599.695515348525
 20
10329.6848463684
 30
0.0
 11
8599.695515348525
 21
7279.684846368407
 31
0.0
  0
LINE
  5
13AFB
330
747D
100
AcDbEntity
  8
破線
  6
HIDDEN
 48
10.0
100
AcDbLine
 10
6322.195515348521
 20
7358.184846368406
 30
0.0
 11
5628.195515348525
 21
7358.184846368409
 31
0.0
  0
LINE
  5
13AFC
330
747D
100
AcDbEntity
  8
部品1
100
AcDbLine
 10
5604.695515348525
 20
7754.68484636841
 30
0.0
 11
8544.695515348525
 21
7754.68484636841
 31
0.0
  0
LINE
  5
13AFD
330
747D
100
AcDbEntity
  8
部品1
100
AcDbLine
 10
5604.695515348525
 20
8174.684846368409
 30
0.0
 11
8544.695515348525
 21
8174.684846368409
 31
0.0
  0
LINE
  5
13AFE
330
747D
100
AcDbEntity
  8
部品1
100
AcDbLine
 10
5604.695515348525
 20
8594.684846368409
 30
0.0
 11
8544.695515348525
 21
8594.684846368409
 31
0.0
  0
LINE
  5
13AFF
330
747D
100
AcDbEntity
  8
部品1
100
AcDbLine
 10
5604.695515348525
 20
9014.684846368409
 30
0.0
 11
8544.695515348525
 21
9014.684846368409
 31
0.0
  0
LINE
  5
13B00
330
747D
100
AcDbEntity
  8
部品1
100
AcDbLine
 10
8599.695515348525
 20
7279.684846368407
 30
0.0
 11
5604.695515348525
 21
7279.684846368407
 31
0.0
  0
LINE
  5
13B01
330
747D
100
AcDbEntity
  8
部品1
100
AcDbLine
 10
8544.695515348525
 20
7334.684846368407
 30
0.0
 11
5604.695515348525
 21
7334.68484636841
 31
0.0
  0
LINE
  5
13B02
330
747D
100
AcDbEntity
  8
部品1
100
AcDbLine
 10
8571.695515348526
 20
7307.684846368407
 30
0.0
 11
5577.695515348525
 21
7307.684846368409
 31
0.0
  0
LINE
  5
13B04
330
747D
100
AcDbEntity
  8
破線
  6
HIDDEN
 48
10.0
100
AcDbLine
 10
4049.695515348518
 20
7358.184846368406
 30
0.0
 11
4727.195515348518
 21
7358.184846368406
 31
0.0
  0
LINE
  5
13B05
330
747D
100
AcDbEntity
  8
破線
  6
HIDDEN
 48
10.0
100
AcDbLine
 10
4777.195515348518
 20
7358.184846368406
 30
0.0
 11
5471.195515348525
 21
7358.184846368404
 31
0.0
  0
LINE
  5
13B06
330
747D
100
AcDbEntity
  8
部品1
100
AcDbLine
 10
5074.695515348525
 20
7279.684846368407
 30
0.0
 11
5549.695515348525
 21
7279.684846368407
 31
0.0
  0
LINE
  5
13B07
330
747D
100
AcDbEntity
  8
部品1
100
AcDbLine
 10
5074.695515348525
 20
7279.684846368406
 30
0.0
 11
5074.695515348525
 21
7307.684846368407
 31
0.0
  0
LINE
  5
13B08
330
747D
100
AcDbEntity
  8
部品1
100
AcDbLine
 10
5074.695515348525
 20
7279.684846368406
 30
0.0
 11
5074.695515348525
 21
7307.684846368407
 31
0.0
  0
LINE
  5
13B09
330
747D
100
AcDbEntity
  8
部品1
 48
50.0
100
AcDbLine
 10
5577.695515348525
 20
7307.684846368407
 30
0.0
 11
5604.695515348525
 21
7334.684846368407
 31
0.0
  0
LINE
  5
13B0A
330
747D
100
AcDbEntity
  8
部品1
 48
50.0
100
AcDbLine
 10
5521.695515348525
 20
7307.684846368409
 30
0.0
 11
5494.695515348524
 21
7334.684846368404
 31
0.0
  0
LINE
  5
13B0B
330
747D
100
AcDbEntity
  8
部品1
100
AcDbLine
 10
5604.695515348525
 20
7279.68484636841
 30
0.0
 11
5549.695515348525
 21
7279.684846368407
 31
0.0
  0
LINE
  5
13B0C
330
747D
100
AcDbEntity
  8
部品1
100
AcDbLine
 10
5494.695515348524
 20
7279.684846368406
 30
0.0
 11
5494.695515348524
 21
7307.684846368407
 31
0.0
  0
LINE
  5
13B0D
330
747D
100
AcDbEntity
  8
部品1
100
AcDbLine
 10
5604.695515348525
 20
7279.684846368406
 30
0.0
 11
5604.695515348525
 21
7307.684846368407
 31
0.0
  0
LINE
  5
13B0E
330
747D
100
AcDbEntity
  8
部品1
100
AcDbLine
 10
5577.695515348525
 20
7334.684846368404
 30
0.0
 11
5549.695515348525
 21
7334.684846368404
 31
0.0
  0
LINE
  5
13B0F
330
747D
100
AcDbEntity
  8
部品1
100
AcDbLine
 10
5521.695515348525
 20
7334.684846368404
 30
0.0
 11
5549.695515348525
 21
7334.684846368404
 31
0.0
  0
LINE
  5
13B10
330
747D
100
AcDbEntity
  8
部品1
100
AcDbLine
 10
6024.695515348525
 20
7279.684846368406
 30
0.0
 11
6024.695515348525
 21
7307.684846368407
 31
0.0
  0
LINE
  5
13B11
330
747D
100
AcDbEntity
  8
部品1
100
AcDbLine
 10
8571.695515348526
 20
10301.68484636841
 30
0.0
 11
8571.695515348526
 21
7307.684846368407
 31
0.0
  0
LINE
  5
13B12
330
747D
100
AcDbEntity
  8
破線
  6
HIDDEN
 48
10.0
100
AcDbLine
 10
7777.195515348522
 20
7358.184846368408
 30
0.0
 11
7099.695515348525
 21
7358.184846368408
 31
0.0
  0
LINE
  5
13B13
330
747D
100
AcDbEntity
  8
破線
  6
HIDDEN
 48
10.0
100
AcDbLine
 10
7049.695515348521
 20
7358.184846368402
 30
0.0
 11
6372.195515348522
 21
7358.184846368406
 31
0.0
  0
LINE
  5
13B14
330
747D
100
AcDbEntity
  8
部品1
100
AcDbLine
 10
6444.695515348525
 20
7279.684846368406
 30
0.0
 11
6444.695515348525
 21
7307.684846368407
 31
0.0
  0
LINE
  5
13B15
330
747D
100
AcDbEntity
  8
部品1
100
AcDbLine
 10
6864.695515348525
 20
7279.684846368406
 30
0.0
 11
6864.695515348525
 21
7307.684846368407
 31
0.0
  0
LINE
  5
13B16
330
747D
100
AcDbEntity
  8
部品1
100
AcDbLine
 10
7284.695515348525
 20
7279.684846368406
 30
0.0
 11
7284.695515348525
 21
7307.684846368407
 31
0.0
  0
LINE
  5
13B17
330
747D
100
AcDbEntity
  8
部品1
100
AcDbLine
 10
7704.695515348525
 20
7279.684846368406
 30
0.0
 11
7704.695515348525
 21
7307.684846368407
 31
0.0
  0
LINE
  5
13B18
330
747D
100
AcDbEntity
  8
破線
  6
HIDDEN
 48
10.0
100
AcDbLine
 10
8521.195515348525
 20
7358.184846368406
 30
0.0
 11
7827.195515348525
 21
7358.184846368408
 31
0.0
  0
LINE
  5
13B19
330
747D
100
AcDbEntity
  8
部品1
100
AcDbLine
 10
8124.695515348525
 20
7279.684846368406
 30
0.0
 11
8124.695515348525
 21
7307.684846368407
 31
0.0
  0
LINE
  5
13B1A
330
747D
100
AcDbEntity
  8
部品1
 48
50.0
100
AcDbLine
 10
8571.695515348526
 20
7307.684846368407
 30
0.0
 11
8544.695515348525
 21
7334.684846368407
 31
0.0
  0
LINE
  5
13B1B
330
747D
100
AcDbEntity
  8
部品1
100
AcDbLine
 10
8544.695515348525
 20
7279.684846368406
 30
0.0
 11
8544.695515348525
 21
7307.684846368407
 31
0.0
  0
LINE
  5
13B1C
330
747D
100
AcDbEntity
  8
部品1
100
AcDbLine
 10
8571.695515348526
 20
7334.684846368404
 30
0.0
 11
8599.695515348525
 21
7334.684846368404
 31
0.0
  0
LINE
  5
13B1D
330
747D
100
AcDbEntity
  8
部品1
100
AcDbLine
 10
8571.695515348526
 20
7754.684846368411
 30
0.0
 11
8599.695515348525
 21
7754.684846368411
 31
0.0
  0
LINE
  5
13B1E
330
747D
100
AcDbEntity
  8
部品1
100
AcDbLine
 10
8571.695515348526
 20
8174.684846368412
 30
0.0
 11
8599.695515348525
 21
8174.684846368412
 31
0.0
  0
LINE
  5
13B1F
330
747D
100
AcDbEntity
  8
部品1
100
AcDbLine
 10
8571.695515348526
 20
8594.68484636841
 30
0.0
 11
8599.695515348525
 21
8594.68484636841
 31
0.0
  0
LINE
  5
13B20
330
747D
100
AcDbEntity
  8
部品1
100
AcDbLine
 10
8571.695515348526
 20
9014.68484636841
 30
0.0
 11
8599.695515348525
 21
9014.68484636841
 31
0.0
  0
LINE
  5
13B21
330
747D
100
AcDbEntity
  8
破線
  6
HIDDEN
 48
10.0
100
AcDbLine
 10
6322.195515348525
 20
10251.18484636841
 30
0.0
 11
5628.195515348525
 21
10251.18484636841
 31
0.0
  0
LINE
  5
13B22
330
747D
100
AcDbEntity
  8
部品1
100
AcDbLine
 10
8544.695515348525
 20
10274.68484636841
 30
0.0
 11
5604.695515348525
 21
10274.68484636841
 31
0.0
  0
LINE
  5
13B23
330
747D
100
AcDbEntity
  8
部品1
100
AcDbLine
 10
5577.695515348525
 20
10301.68484636841
 30
0.0
 11
7284.695515348525
 21
10301.68484636841
 31
0.0
  0
DIMENSION
  5
13B24
330
747D
100
AcDbEntity
  8
寸法
 48
50.0
100
AcDbDimension
  2
*D15
 10
8544.695515348525
 20
10704.3972563872
 30
0.0
 11
7074.695515348524
 21
10796.40906741082
 31
0.0
 70
    32
  1
7X420=<>
 71
     5
 42
2940.0
  3
INABA_S40
100
AcDbAlignedDimension
 13
5604.695515348525
 23
10329.68484636841
 33
0.0
 14
8544.695515348525
 24
10329.68484636841
 34
0.0
100
AcDbRotatedDimension
1001
ACAD
1000
DSTYLE
1002
{
1070
    41
1040
0.5
1070
    44
1040
1.0
1070
   147
1040
0.8
1070
   271
1070
     2
1070
   272
1070
     2
1070
   289
1070
     3
1070
   340
1005
F706
1070
   343
1005
F744
1070
   344
1005
F744
1002
}
  0
LINE
  5
13B25
330
747D
100
AcDbEntity
  8
部品1
100
AcDbLine
 10
5549.695515348525
 20
10329.6848463684
 30
0.0
 11
8599.695515348525
 21
10329.6848463684
 31
0.0
  0
LINE
  5
13B26
330
747D
100
AcDbEntity
  8
破線
  6
HIDDEN
 48
10.0
100
AcDbLine
 10
4049.695515348521
 20
10251.18484636841
 30
0.0
 11
4727.195515348522
 21
10251.18484636841
 31
0.0
  0
LINE
  5
13B27
330
747D
100
AcDbEntity
  8
部品1
100
AcDbLine
 10
4654.695515348524
 20
10301.68484636841
 30
0.0
 11
3394.695515348525
 21
10301.68484636841
 31
0.0
  0
LINE
  5
13B28
330
747D
100
AcDbEntity
  8
部品1
100
AcDbLine
 10
3394.695515348525
 20
10329.68484636841
 30
0.0
 11
3394.695515348525
 21
10301.68484636841
 31
0.0
  0
LINE
  5
13B29
330
747D
100
AcDbEntity
  8
部品1
100
AcDbLine
 10
3814.695515348525
 20
10329.68484636841
 30
0.0
 11
3814.695515348525
 21
10301.68484636841
 31
0.0
  0
LINE
  5
13B2A
330
747D
100
AcDbEntity
  8
部品1
100
AcDbLine
 10
4234.695515348525
 20
10329.68484636841
 30
0.0
 11
4234.695515348525
 21
10301.68484636841
 31
0.0
  0
LINE
  5
13B2B
330
747D
100
AcDbEntity
  8
破線
  6
HIDDEN
 48
10.0
100
AcDbLine
 10
4777.195515348521
 20
10251.18484636841
 30
0.0
 11
5471.195515348525
 21
10251.18484636841
 31
0.0
  0
LINE
  5
13B2C
330
747D
100
AcDbEntity
  8
部品1
100
AcDbLine
 10
5521.695515348525
 20
10301.68484636841
 30
0.0
 11
4654.695515348524
 21
10301.68484636841
 31
0.0
  0
LINE
  5
13B2D
330
747D
100
AcDbEntity
  8
部品1
100
AcDbLine
 10
4654.695515348524
 20
10329.68484636841
 30
0.0
 11
4654.695515348524
 21
10301.68484636841
 31
0.0
  0
LINE
  5
13B2E
330
747D
100
AcDbEntity
  8
部品1
100
AcDbLine
 10
5074.695515348525
 20
10329.68484636841
 30
0.0
 11
5074.695515348525
 21
10301.68484636841
 31
0.0
  0
DIMENSION
  5
13B2F
330
747D
100
AcDbEntity
  8
寸法
 48
50.0
100
AcDbDimension
  2
*D16
 10
5604.695515348525
 20
10704.3972563872
 30
0.0
 11
5549.695515348525
 21
10704.3972563872
 31
0.0
 70
   160
 71
     5
 42
110.0
  3
INABA_S40
100
AcDbAlignedDimension
 13
5494.695515348524
 23
10329.68484636841
 33
0.0
 14
5604.695515348525
 24
10329.68484636841
 34
0.0
100
AcDbRotatedDimension
1001
ACAD
1000
DSTYLE
1002
{
1070
    41
1040
0.5
1070
    44
1040
1.0
1070
   147
1040
0.8
1070
   271
1070
     2
1070
   272
1070
     2
1070
   289
1070
     3
1070
   340
1005
F706
1070
   343
1005
F744
1070
   344
1005
F744
1002
}
  0
LINE
  5
13B30
330
747D
100
AcDbEntity
  8
部品1
 48
50.0
100
AcDbLine
 10
5577.695515348525
 20
10301.68484636841
 30
0.0
 11
5604.695515348525
 21
10274.68484636841
 31
0.0
  0
LINE
  5
13B31
330
747D
100
AcDbEntity
  8
部品1
 48
50.0
100
AcDbLine
 10
5521.695515348525
 20
10301.68484636841
 30
0.0
 11
5494.695515348524
 21
10274.68484636841
 31
0.0
  0
LINE
  5
13B32
330
747D
100
AcDbEntity
  8
部品1
100
AcDbLine
 10
5577.695515348525
 20
10274.68484636841
 30
0.0
 11
5549.695515348525
 21
10274.68484636841
 31
0.0
  0
LINE
  5
13B33
330
747D
100
AcDbEntity
  8
部品1
100
AcDbLine
 10
5494.695515348524
 20
10329.68484636841
 30
0.0
 11
5494.695515348524
 21
10301.68484636841
 31
0.0
  0
LINE
  5
13B34
330
747D
100
AcDbEntity
  8
部品1
100
AcDbLine
 10
5521.695515348525
 20
10274.68484636841
 30
0.0
 11
5549.695515348525
 21
10274.68484636841
 31
0.0
  0
LINE
  5
13B35
330
747D
100
AcDbEntity
  8
部品1
100
AcDbLine
 10
5604.695515348525
 20
10329.68484636841
 30
0.0
 11
5604.695515348525
 21
10301.68484636841
 31
0.0
  0
LINE
  5
13B36
330
747D
100
AcDbEntity
  8
部品1
100
AcDbLine
 10
5604.695515348525
 20
10329.68484636841
 30
0.0
 11
5604.695515348525
 21
10301.68484636841
 31
0.0
  0
LINE
  5
13B37
330
747D
100
AcDbEntity
  8
部品1
100
AcDbLine
 10
6024.695515348525
 20
10329.68484636841
 30
0.0
 11
6024.695515348525
 21
10301.68484636841
 31
0.0
  0
LINE
  5
13B38
330
747D
100
AcDbEntity
  8
破線
  6
HIDDEN
 48
10.0
100
AcDbLine
 10
7777.195515348525
 20
10251.18484636841
 30
0.0
 11
7099.695515348525
 21
10251.18484636841
 31
0.0
  0
LINE
  5
13B39
330
747D
100
AcDbEntity
  8
部品1
100
AcDbLine
 10
7087.195515348525
 20
10301.68484636841
 30
0.0
 11
8322.195515348525
 21
10301.68484636841
 31
0.0
  0
LINE
  5
13B3A
330
747D
100
AcDbEntity
  8
破線
  6
HIDDEN
 48
10.0
100
AcDbLine
 10
7049.695515348524
 20
10251.18484636841
 30
0.0
 11
6372.195515348526
 21
10251.18484636841
 31
0.0
  0
LINE
  5
13B3B
330
747D
100
AcDbEntity
  8
部品1
100
AcDbLine
 10
6444.695515348525
 20
10329.68484636841
 30
0.0
 11
6444.695515348525
 21
10301.68484636841
 31
0.0
  0
LINE
  5
13B3C
330
747D
100
AcDbEntity
  8
部品1
100
AcDbLine
 10
6864.695515348525
 20
10329.68484636841
 30
0.0
 11
6864.695515348525
 21
10301.68484636841
 31
0.0
  0
LINE
  5
13B3D
330
747D
100
AcDbEntity
  8
部品1
100
AcDbLine
 10
7284.695515348525
 20
10329.68484636841
 30
0.0
 11
7284.695515348525
 21
10301.68484636841
 31
0.0
  0
LINE
  5
13B3E
330
747D
100
AcDbEntity
  8
部品1
100
AcDbLine
 10
7704.695515348525
 20
10329.68484636841
 30
0.0
 11
7704.695515348525
 21
10301.68484636841
 31
0.0
  0
LINE
  5
13B3F
330
747D
100
AcDbEntity
  8
破線
  6
HIDDEN
 48
10.0
100
AcDbLine
 10
8521.195515348525
 20
10251.18484636841
 30
0.0
 11
7827.195515348525
 21
10251.18484636841
 31
0.0
  0
LINE
  5
13B40
330
747D
100
AcDbEntity
  8
部品1
100
AcDbLine
 10
8124.695515348525
 20
10301.68484636841
 30
0.0
 11
8571.695515348526
 21
10301.68484636841
 31
0.0
  0
LINE
  5
13B41
330
747D
100
AcDbEntity
  8
部品1
100
AcDbLine
 10
8124.695515348525
 20
10329.68484636841
 30
0.0
 11
8124.695515348525
 21
10301.68484636841
 31
0.0
  0
LINE
  5
13B42
330
747D
100
AcDbEntity
  8
部品1
 48
50.0
100
AcDbLine
 10
8571.695515348526
 20
10301.68484636841
 30
0.0
 11
8544.695515348525
 21
10274.68484636841
 31
0.0
  0
LINE
  5
13B43
330
747D
100
AcDbEntity
  8
部品1
100
AcDbLine
 10
8544.695515348525
 20
10329.68484636841
 30
0.0
 11
8544.695515348525
 21
10301.68484636841
 31
0.0
  0
LINE
  5
13B44
330
747D
100
AcDbEntity
  8
部品1
100
AcDbLine
 10
8571.695515348526
 20
10274.68484636841
 30
0.0
 11
8599.695515348525
 21
10274.68484636841
 31
0.0
  0
LINE
  5
13B45
330
747D
100
AcDbEntity
  8
部品1
 48
50.0
100
AcDbLine
 10
5549.695517592096
 20
10301.68484994558
 30
0.0
 11
5521.695517592096
 21
10329.68484994557
 31
0.0
  0
LINE
  5
13B46
330
747D
100
AcDbEntity
  8
部品1
100
AcDbLine
 10
5521.695517592096
 20
10301.68484994558
 30
0.0
 11
5521.695517592096
 21
10329.68484994558
 31
0.0
  0
LINE
  5
13B47
330
747D
100
AcDbEntity
  8
部品1
100
AcDbLine
 10
5577.695517592096
 20
10301.68484994558
 30
0.0
 11
5577.695517592096
 21
10329.68484994557
 31
0.0
  0
LINE
  5
13B48
330
747D
100
AcDbEntity
  8
部品1
100
AcDbLine
 10
5521.695517592096
 20
10301.68484994558
 30
0.0
 11
5549.695517592096
 21
10301.68484994558
 31
0.0
  0
LINE
  5
13B49
330
747D
100
AcDbEntity
  8
部品1
 48
50.0
100
AcDbLine
 10
2974.695515348525
 20
7307.684846368402
 30
0.0
 11
5074.695515348525
 21
7307.684846368406
 31
0.0
  0
LINE
  5
13B4E
330
747D
100
AcDbEntity
  8
部品1
100
AcDbLine
 10
2974.695515348525
 20
7279.684846368414
 30
0.0
 11
2974.695515348525
 21
7307.684846368417
 31
0.0
  0
LINE
  5
13B4F
330
747D
100
AcDbEntity
  8
部品1
100
AcDbLine
 10
5074.695515348525
 20
7279.684846368406
 30
0.0
 11
5074.695515348525
 21
7307.684846368409
 31
0.0
  0
LINE
  5
13B50
330
747D
100
AcDbEntity
  8
部品1
100
AcDbLine
 10
5074.695515348525
 20
7279.684846368406
 30
0.0
 11
5074.695515348525
 21
7307.684846368409
 31
0.0
  0
LINE
  5
13B51
330
747D
100
AcDbEntity
  8
部品1
 48
50.0
100
AcDbLine
 10
2974.695515348525
 20
7307.684846368406
 30
0.0
 11
5074.695515348525
 21
7307.684846368406
 31
0.0
  0
TEXT
  5
13C05
330
747D
100
AcDbEntity
  8
部品1
100
AcDbText
 10
5258.485585972259
 20
1635.816910632888
 30
0.0
 40
135.0
  1
正面図
  7
STYLE2
100
AcDbText
  0
LWPOLYLINE
  5
13C06
330
747D
100
AcDbEntity
  8
部品1
100
AcDbPolyline
 90
        4
 70
     1
 43
0.0
 10
5167.960182234303
 20
1828.710439851412
 10
5167.960182234303
 20
1588.818118305879
 10
5931.430848462747
 20
1588.818118305879
 10
5931.430848462747
 20
1828.710439851412
  0
TEXT
  5
13C07
330
747D
100
AcDbEntity
  8
文字
 62
     7
 48
50.0
100
AcDbText
 10
14505.34213575793
 20
483.8967129911411
 30
0.0
 40
160.0
  1
ＮＸＮ－１８８Ｈ
  7
STYLE2
100
AcDbText
  0
TEXT
  5
13C08
330
747D
100
AcDbEntity
  8
文字
 62
     7
 48
50.0
100
AcDbText
 10
13209.4053442172
 20
228.5435242569015
 30
0.0
 40
100.0
  1
○有効開口寸法 ： 1266×2025(mm)
  7
STYLE2
100
AcDbText
  0
TEXT
  5
13C09
330
747D
100
AcDbEntity
  8
文字
 62
     7
 48
50.0
100
AcDbText
 10
15022.63965474517
 20
9910.01374588373
 30
0.0
 40
100.0
  1
F12,Y10      1.2+1.6
  7
STYLE1
100
AcDbText
  0
TEXT
  5
13C0A
330
747D
100
AcDbEntity
  8
文字
 62
     7
 48
50.0
100
AcDbText
 10
13583.1181901657
 20
9910.01374588373
 30
0.0
 40
100.0
  1
梁中
 41
0.9
  7
STYLE1
100
AcDbText
  0
TEXT
  5
13C0B
330
747D
100
AcDbEntity
  8
文字
 62
     7
 48
50.0
100
AcDbText
 10
13248.77747366447
 20
8380.013745883728
 30
0.0
 40
100.0
  1
17
  7
STYLE1
100
AcDbText
  0
TEXT
  5
13C0C
330
747D
100
AcDbEntity
  8
文字
 62
     7
 48
50.0
100
AcDbText
 10
13248.77747366447
 20
8550.013745883729
 30
0.0
 40
100.0
  1
16
  7
STYLE1
100
AcDbText
  0
TEXT
  5
13C0D
330
747D
100
AcDbEntity
  8
文字
 62
     7
 48
50.0
100
AcDbText
 10
15022.63965474517
 20
8720.013745883726
 30
0.0
 40
100.0
  1
F12            1.0
  7
STYLE1
100
AcDbText
  0
TEXT
  5
13C0E
330
747D
100
AcDbEntity
  8
文字
 62
     7
 48
50.0
100
AcDbText
 10
13583.11819016569
 20
8720.013745883733
 30
0.0
 40
100.0
  1
壁面扉枠左右
  7
STYLE1
100
AcDbText
  0
TEXT
  5
13C0F
330
747D
100
AcDbEntity
  8
文字
 62
     7
 48
50.0
100
AcDbText
 10
15022.63965474517
 20
8890.013745883726
 30
0.0
 40
100.0
  1
F12            1.0
  7
STYLE1
100
AcDbText
  0
TEXT
  5
13C10
330
747D
100
AcDbEntity
  8
文字
 62
     7
 48
50.0
100
AcDbText
 10
15022.63965474516
 20
9060.013745883729
 30
0.0
 40
100.0
  1
F12            0.7
  7
STYLE1
100
AcDbText
  0
TEXT
  5
13C11
330
747D
100
AcDbEntity
  8
文字
 62
     7
 48
50.0
100
AcDbText
 10
13583.11819016569
 20
8890.013745883733
 30
0.0
 40
100.0
  1
壁面扉敷居
  7
STYLE1
100
AcDbText
  0
TEXT
  5
13C12
330
747D
100
AcDbEntity
  8
文字
 62
     7
 48
50.0
100
AcDbText
 10
13583.11819016569
 20
9060.013745883729
 30
0.0
 40
100.0
  1
壁面扉鴨居
  7
STYLE1
100
AcDbText
  0
LINE
  5
13C13
330
747D
100
AcDbEntity
  8
仕様書枠
 48
50.0
100
AcDbLine
 10
16307.19999999999
 20
8689.600000000003
 30
0.0
 11
13127.2
 21
8689.600000000007
 31
0.0
  0
LINE
  5
13C14
330
747D
100
AcDbEntity
  8
仕様書枠
 48
50.0
100
AcDbLine
 10
16307.19999999999
 20
8519.600000000004
 30
0.0
 11
13127.2
 21
8519.600000000009
 31
0.0
  0
TEXT
  5
13C15
330
747D
100
AcDbEntity
  8
文字
 62
     7
 48
50.0
100
AcDbText
 10
13583.11819016569
 20
8210.013745883729
 30
0.0
 40
100.0
  1
アンカープレート
  7
STYLE1
100
AcDbText
  0
TEXT
  5
13C16
330
747D
100
AcDbEntity
  8
文字
 62
     7
 48
50.0
100
AcDbText
 10
15022.63965474515
 20
8210.013745883726
 30
0.0
 40
100.0
  1
F12            2.3
  7
STYLE1
100
AcDbText
  0
LINE
  5
13C17
330
747D
100
AcDbEntity
  8
仕様書枠
 48
50.0
100
AcDbLine
 10
16307.2
 20
10049.6
 30
0.0
 11
13127.2
 21
10049.6
 31
0.0
  0
LINE
  5
13C18
330
747D
100
AcDbEntity
  8
仕様書枠
 48
50.0
100
AcDbLine
 10
16307.2
 20
11409.6
 30
0.0
 11
13127.2
 21
11409.6
 31
0.0
  0
LINE
  5
13C19
330
747D
100
AcDbEntity
  8
仕様書枠
 48
50.0
100
AcDbLine
 10
16307.19999999999
 20
7839.600000000007
 30
0.0
 11
16307.2
 21
11409.6
 31
0.0
  0
LINE
  5
13C1A
330
747D
100
AcDbEntity
  8
仕様書枠
 48
50.0
100
AcDbLine
 10
14785.2
 20
11409.59999999999
 30
0.0
 11
14785.19999999999
 21
8179.600000000005
 31
0.0
  0
LINE
  5
13C1B
330
747D
100
AcDbEntity
  8
仕様書枠
 48
50.0
100
AcDbLine
 10
13490.2
 20
11409.6
 30
0.0
 11
13490.20000000001
 21
8179.600000000005
 31
0.0
  0
LINE
  5
13C1C
330
747D
100
AcDbEntity
  8
仕様書枠
 48
50.0
100
AcDbLine
 10
16307.2
 20
11239.6
 30
0.0
 11
13127.2
 21
11239.6
 31
0.0
  0
LINE
  5
13C1D
330
747D
100
AcDbEntity
  8
仕様書枠
 48
50.0
100
AcDbLine
 10
16307.2
 20
10899.6
 30
0.0
 11
13127.2
 21
10899.6
 31
0.0
  0
LINE
  5
13C1E
330
747D
100
AcDbEntity
  8
仕様書枠
 48
50.0
100
AcDbLine
 10
16307.2
 20
11069.6
 30
0.0
 11
13127.2
 21
11069.6
 31
0.0
  0
LINE
  5
13C1F
330
747D
100
AcDbEntity
  8
仕様書枠
 48
50.0
100
AcDbLine
 10
16307.19999999999
 20
10559.6
 30
0.0
 11
13127.2
 21
10559.6
 31
0.0
  0
LINE
  5
13C20
330
747D
100
AcDbEntity
  8
仕様書枠
 48
50.0
100
AcDbLine
 10
16307.19999999999
 20
10389.6
 30
0.0
 11
13127.2
 21
10389.6
 31
0.0
  0
LINE
  5
13C21
330
747D
100
AcDbEntity
  8
仕様書枠
 48
50.0
100
AcDbLine
 10
16307.19999999999
 20
10729.6
 30
0.0
 11
13127.2
 21
10729.6
 31
0.0
  0
TEXT
  5
13C22
330
747D
100
AcDbEntity
  8
文字
 62
     7
 48
50.0
100
AcDbText
 10
13197.42518560407
 20
11270.01374588373
 30
0.0
 40
100.0
  1
品番
  7
STYLE1
100
AcDbText
  0
TEXT
  5
13C23
330
747D
100
AcDbEntity
  8
文字
 62
     7
 48
50.0
100
AcDbText
 10
13271.19032244792
 20
11100.01374588373
 30
0.0
 40
100.0
  1
1
  7
STYLE1
100
AcDbText
  0
TEXT
  5
13C24
330
747D
100
AcDbEntity
  8
文字
 62
     7
 48
50.0
100
AcDbText
 10
13271.19032244792
 20
10930.01374588373
 30
0.0
 40
100.0
  1
2
  7
STYLE1
100
AcDbText
  0
TEXT
  5
13C25
330
747D
100
AcDbEntity
  8
文字
 62
     7
 48
50.0
100
AcDbText
 10
13271.19032244792
 20
10590.01374588373
 30
0.0
 40
100.0
  1
4
  7
STYLE1
100
AcDbText
  0
TEXT
  5
13C26
330
747D
100
AcDbEntity
  8
文字
 62
     7
 48
50.0
100
AcDbText
 10
13271.19032244792
 20
10760.01374588373
 30
0.0
 40
100.0
  1
3
  7
STYLE1
100
AcDbText
  0
TEXT
  5
13C27
330
747D
100
AcDbEntity
  8
文字
 62
     7
 48
50.0
100
AcDbText
 10
13732.03840939434
 20
11270.01374588373
 30
0.0
 40
100.0
  1
部　　品　　名
  7
STYLE1
100
AcDbText
  0
TEXT
  5
13C28
330
747D
100
AcDbEntity
  8
文字
 62
     7
 48
50.0
100
AcDbText
 10
14859.79774614482
 20
11270.01374588373
 30
0.0
 40
100.0
  1
材料（材質）　　単位mm
  7
STYLE1
100
AcDbText
  0
TEXT
  5
13C29
330
747D
100
AcDbEntity
  8
文字
 62
     7
 48
50.0
100
AcDbText
 10
13583.11819016569
 20
11100.01374588373
 30
0.0
 40
100.0
  1
土台枠
  7
STYLE1
100
AcDbText
  0
TEXT
  5
13C2A
330
747D
100
AcDbEntity
  8
文字
 62
     7
 48
50.0
100
AcDbText
 10
13583.1181901657
 20
10760.01374588373
 30
0.0
 40
100.0
  1
柱
  7
STYLE1
100
AcDbText
  0
TEXT
  5
13C2B
330
747D
100
AcDbEntity
  8
文字
 62
     7
 48
50.0
100
AcDbText
 10
13583.11819016569
 20
10420.01374588373
 30
0.0
 40
100.0
  1
桁前後
  7
STYLE1
100
AcDbText
  0
TEXT
  5
13C2C
330
747D
100
AcDbEntity
  8
文字
 62
     7
 48
50.0
100
AcDbText
 10
13271.19032244792
 20
10420.01374588373
 30
0.0
 40
100.0
  1
5
  7
STYLE1
100
AcDbText
  0
TEXT
  5
13C2D
330
747D
100
AcDbEntity
  8
文字
 62
     7
 48
50.0
100
AcDbText
 10
13583.11819016569
 20
10250.01374588373
 30
0.0
 40
100.0
  1
妻板左右
  7
STYLE1
100
AcDbText
  0
TEXT
  5
13C2E
330
747D
100
AcDbEntity
  8
文字
 62
     7
 48
50.0
100
AcDbText
 10
13248.77747366447
 20
9570.013745883729
 30
0.0
 40
100.0
  1
10
  7
STYLE1
100
AcDbText
  0
TEXT
  5
13C2F
330
747D
100
AcDbEntity
  8
文字
 62
     7
 48
50.0
100
AcDbText
 10
13583.11819016568
 20
9400.013745883729
 30
0.0
 40
100.0
  1
壁パネル
  7
STYLE1
100
AcDbText
  0
TEXT
  5
13C30
330
747D
100
AcDbEntity
  8
文字
 62
     7
 48
50.0
100
AcDbText
 10
13583.11819016569
 20
9740.013745883729
 30
0.0
 40
100.0
  1
屋根パネル
  7
STYLE1
100
AcDbText
  0
TEXT
  5
13C31
330
747D
100
AcDbEntity
  8
文字
 62
     7
 48
50.0
100
AcDbText
 10
13583.11819016569
 20
10080.01374588373
 30
0.0
 40
100.0
  1
鼻隠シ前後
  7
STYLE1
100
AcDbText
  0
TEXT
  5
13C32
330
747D
100
AcDbEntity
  8
文字
 62
     7
 48
50.0
100
AcDbText
 10
13271.19032244792
 20
9910.01374588373
 30
0.0
 40
100.0
  1
8
  7
STYLE1
100
AcDbText
  0
TEXT
  5
13C33
330
747D
100
AcDbEntity
  8
文字
 62
     7
 48
50.0
100
AcDbText
 10
13271.19032244792
 20
9740.013745883729
 30
0.0
 40
100.0
  1
9
  7
STYLE1
100
AcDbText
  0
TEXT
  5
13C34
330
747D
100
AcDbEntity
  8
文字
 62
     7
 48
50.0
100
AcDbText
 10
13271.19032244792
 20
10080.01374588373
 30
0.0
 40
100.0
  1
7
  7
STYLE1
100
AcDbText
  0
TEXT
  5
13C35
330
747D
100
AcDbEntity
  8
文字
 62
     7
 48
50.0
100
AcDbText
 10
13271.19032244792
 20
10250.01374588373
 30
0.0
 40
100.0
  1
6
  7
STYLE1
100
AcDbText
  0
LINE
  5
13C36
330
747D
100
AcDbEntity
  8
仕様書枠
 48
50.0
100
AcDbLine
 10
16307.19999999999
 20
9709.600000000001
 30
0.0
 11
13127.2
 21
9709.600000000001
 31
0.0
  0
LINE
  5
13C37
330
747D
100
AcDbEntity
  8
仕様書枠
 48
50.0
100
AcDbLine
 10
16307.19999999999
 20
9369.600000000001
 30
0.0
 11
13127.2
 21
9369.600000000001
 31
0.0
  0
LINE
  5
13C38
330
747D
100
AcDbEntity
  8
仕様書枠
 48
50.0
100
AcDbLine
 10
16307.19999999999
 20
9539.6
 30
0.0
 11
13127.2
 21
9539.6
 31
0.0
  0
LINE
  5
13C39
330
747D
100
AcDbEntity
  8
仕様書枠
 48
50.0
100
AcDbLine
 10
16307.2
 20
10219.6
 30
0.0
 11
13127.2
 21
10219.6
 31
0.0
  0
LINE
  5
13C3A
330
747D
100
AcDbEntity
  8
仕様書枠
 48
50.0
100
AcDbLine
 10
16307.2
 20
9879.600000000001
 30
0.0
 11
13127.2
 21
9879.600000000001
 31
0.0
  0
TEXT
  5
13C3B
330
747D
100
AcDbEntity
  8
文字
 62
     7
 48
50.0
100
AcDbText
 10
13248.77747366447
 20
9400.013745883729
 30
0.0
 40
100.0
  1
11
  7
STYLE1
100
AcDbText
  0
LINE
  5
13C3C
330
747D
100
AcDbEntity
  8
仕様書枠
 48
50.0
100
AcDbLine
 10
16307.19999999999
 20
9199.600000000001
 30
0.0
 11
13127.2
 21
9199.600000000001
 31
0.0
  0
LINE
  5
13C3D
330
747D
100
AcDbEntity
  8
仕様書枠
 48
50.0
100
AcDbLine
 10
16307.19999999999
 20
8859.6
 30
0.0
 11
13127.2
 21
8859.600000000005
 31
0.0
  0
TEXT
  5
13C3E
330
747D
100
AcDbEntity
  8
文字
 62
     7
 48
50.0
100
AcDbText
 10
13248.77747366448
 20
9060.013745883729
 30
0.0
 40
100.0
  1
13
  7
STYLE1
100
AcDbText
  0
TEXT
  5
13C3F
330
747D
100
AcDbEntity
  8
文字
 62
     7
 48
50.0
100
AcDbText
 10
13248.77747366448
 20
9230.013745883729
 30
0.0
 40
100.0
  1
12
  7
STYLE1
100
AcDbText
  0
TEXT
  5
13C40
330
747D
100
AcDbEntity
  8
文字
 62
     7
 48
50.0
100
AcDbText
 10
15022.63965474517
 20
11100.01374588372
 30
0.0
 40
100.0
  1
F12            1.2
  7
STYLE1
100
AcDbText
  0
TEXT
  5
13C41
330
747D
100
AcDbEntity
  8
文字
 62
     7
 48
50.0
100
AcDbText
 10
15022.63965474518
 20
10760.01374588372
 30
0.0
 40
100.0
  1
F12            1.0
  7
STYLE1
100
AcDbText
  0
TEXT
  5
13C42
330
747D
100
AcDbEntity
  8
文字
 62
     7
 48
50.0
100
AcDbText
 10
15022.63965474516
 20
10420.01374588372
 30
0.0
 40
100.0
  1
Y10            1.0
  7
STYLE1
100
AcDbText
  0
TEXT
  5
13C43
330
747D
100
AcDbEntity
  8
文字
 62
     7
 48
50.0
100
AcDbText
 10
15022.63965474516
 20
10250.01374588372
 30
0.0
 40
100.0
  1
Y10            0.7
  7
STYLE1
100
AcDbText
  0
TEXT
  5
13C44
330
747D
100
AcDbEntity
  8
文字
 62
     7
 48
50.0
100
AcDbText
 10
15022.63965474516
 20
10080.01374588372
 30
0.0
 40
100.0
  1
Y10            0.7
  7
STYLE1
100
AcDbText
  0
TEXT
  5
13C45
330
747D
100
AcDbEntity
  8
文字
 62
     7
 48
50.0
100
AcDbText
 10
15022.63965474517
 20
9740.013745883725
 30
0.0
 40
100.0
  1
Y10            0.5
  7
STYLE1
100
AcDbText
  0
TEXT
  5
13C46
330
747D
100
AcDbEntity
  8
文字
 62
     7
 48
50.0
100
AcDbText
 10
15022.63965474515
 20
9400.013745883725
 30
0.0
 40
100.0
  1
F12            0.7
  7
STYLE1
100
AcDbText
  0
LINE
  5
13C47
330
747D
100
AcDbEntity
  8
仕様書枠
 48
50.0
100
AcDbLine
 10
16307.19999999999
 20
8349.600000000004
 30
0.0
 11
13127.19999999999
 21
8349.600000000007
 31
0.0
  0
LINE
  5
13C48
330
747D
100
AcDbEntity
  8
仕様書枠
 48
50.0
100
AcDbLine
 10
16307.19999999999
 20
8009.600000000006
 30
0.0
 11
13127.2
 21
8009.600000000006
 31
0.0
  0
TEXT
  5
13C49
330
747D
100
AcDbEntity
  8
文字
 62
     7
 48
50.0
100
AcDbText
 10
13229.83081656554
 20
8040.013745883735
 30
0.0
 40
100.0
  1
F12→溶融亜鉛めっき鋼板(JIS G 3302)
  7
STYLE1
100
AcDbText
  0
TEXT
  5
13C4A
330
747D
100
AcDbEntity
  8
文字
 62
     7
 48
50.0
100
AcDbText
 10
13229.83081656554
 20
7870.013745883735
 30
0.0
 40
100.0
  1
Y10→溶融亜鉛-5％アルミニウム合金めっき鋼板(JIS G 3317)
 41
0.9
  7
STYLE1
100
AcDbText
  0
LINE
  5
13C4B
330
747D
100
AcDbEntity
  8
仕様書枠
 48
50.0
100
AcDbLine
 10
13127.2
 20
11409.6
 30
0.0
 11
13127.19999999999
 21
7839.600000000006
 31
0.0
  0
LINE
  5
13C4C
330
747D
100
AcDbEntity
  8
仕様書枠
 48
50.0
100
AcDbLine
 10
16307.19999999999
 20
9029.6
 30
0.0
 11
13127.2
 21
9029.600000000003
 31
0.0
  0
TEXT
  5
13C4D
330
747D
100
AcDbEntity
  8
文字
 62
     7
 48
50.0
100
AcDbText
 10
13583.1181901657
 20
10590.01374588373
 30
0.0
 40
100.0
  1
床パネル
 41
0.9
  7
STYLE1
100
AcDbText
  0
TEXT
  5
13C4E
330
747D
100
AcDbEntity
  8
文字
 62
     7
 48
50.0
100
AcDbText
 10
13583.11819016569
 20
10930.01374588373
 30
0.0
 40
100.0
  1
根太
  7
STYLE1
100
AcDbText
  0
TEXT
  5
13C4F
330
747D
100
AcDbEntity
  8
文字
 62
     7
 48
50.0
100
AcDbText
 10
13248.77747366448
 20
8890.013745883729
 30
0.0
 40
100.0
  1
14
  7
STYLE1
100
AcDbText
  0
TEXT
  5
13C50
330
747D
100
AcDbEntity
  8
文字
 62
     7
 48
50.0
100
AcDbText
 10
15022.63965474516
 20
10930.01374588372
 30
0.0
 40
100.0
  1
F12            1.2
  7
STYLE1
100
AcDbText
  0
TEXT
  5
13C51
330
747D
100
AcDbEntity
  8
文字
 62
     7
 48
50.0
100
AcDbText
 10
15022.63965474517
 20
10590.01374588372
 30
0.0
 40
100.0
  1
F12            1.0
  7
STYLE1
100
AcDbText
  0
TEXT
  5
13C52
330
747D
100
AcDbEntity
  8
文字
 62
     7
 48
50.0
100
AcDbText
 10
15022.63965474515
 20
8550.013745883729
 30
0.0
 40
100.0
  1
F12            0.7
  7
STYLE1
100
AcDbText
  0
TEXT
  5
13C53
330
747D
100
AcDbEntity
  8
文字
 62
     7
 48
50.0
100
AcDbText
 10
13583.11819016568
 20
8550.013745883733
 30
0.0
 40
100.0
  1
正面パネル
  7
STYLE1
100
AcDbText
  0
TEXT
  5
13C54
330
747D
100
AcDbEntity
  8
文字
 62
     7
 48
50.0
100
AcDbText
 10
15022.63965474516
 20
8380.013745883728
 30
0.0
 40
100.0
  1
F12            0.8
  7
STYLE1
100
AcDbText
  0
TEXT
  5
13C55
330
747D
100
AcDbEntity
  8
文字
 62
     7
 48
50.0
100
AcDbText
 10
13583.11819016569
 20
8380.013745883733
 30
0.0
 40
100.0
  1
扉
  7
STYLE1
100
AcDbText
  0
LINE
  5
13C56
330
747D
100
AcDbEntity
  8
仕様書枠
 48
50.0
100
AcDbLine
 10
16307.19999999998
 20
7839.600000000006
 30
0.0
 11
13127.19999999999
 21
7839.600000000006
 31
0.0
  0
TEXT
  5
13C57
330
747D
100
AcDbEntity
  8
文字
 62
     7
 48
50.0
100
AcDbText
 10
13248.77747366447
 20
8720.013745883729
 30
0.0
 40
100.0
  1
15
  7
STYLE1
100
AcDbText
  0
TEXT
  5
13C58
330
747D
100
AcDbEntity
  8
文字
 62
     7
 48
50.0
100
AcDbText
 10
13583.11819016569
 20
9570.013745883729
 30
0.0
 40
100.0
  1
母屋中
  7
STYLE1
100
AcDbText
  0
DIMENSION
  5
13C5C
330
747D
100
AcDbEntity
  8
寸法
 48
50.0
100
AcDbDimension
  2
*D3
 10
2449.695515348525
 20
4875.654391161502
 30
0.0
 11
2136.210233974278
 21
4875.654391161502
 31
0.0
 70
   160
 71
     5
 42
50.0
  3
INABA_S40G
100
AcDbAlignedDimension
 13
2499.695515348526
 23
4663.112805903264
 33
0.0
 14
2449.695515348525
 24
4663.112805903263
 34
0.0
100
AcDbRotatedDimension
1001
ACAD
1000
DSTYLE
1002
{
1002
}
  0
DIMENSION
  5
13C5D
330
747D
100
AcDbEntity
  8
寸法
 48
50.0
100
AcDbDimension
  2
*D4
 10
8649.695515348529
 20
5096.559691635249
 30
0.0
 11
5549.695515348525
 21
5096.559691635249
 31
0.0
 70
   160
 71
     5
 42
6200.000000000003
  3
INABA_S40G
100
AcDbAlignedDimension
 13
2449.695515348525
 23
4663.112805903263
 33
0.0
 14
8649.695515348529
 24
4663.112805903258
 34
0.0
100
AcDbRotatedDimension
  0
DIMENSION
  5
13C5E
330
747D
100
AcDbEntity
  8
寸法
 48
50.0
100
AcDbDimension
  2
*D5
 10
2499.695515348526
 20
4875.6543911615
 30
0.0
 11
5549.695515348525
 21
4875.6543911615
 31
0.0
 70
   160
  1
柱外寸法<>
 71
     5
 42
6100.000000000004
  3
INABA_S40G
100
AcDbAlignedDimension
 13
8599.695515348528
 23
4663.112805903259
 33
0.0
 14
2499.695515348526
 24
4663.112805903264
 34
0.0
100
AcDbRotatedDimension
  0
LINE
  5
13C5F
330
747D
100
AcDbEntity
  8
細線
 48
50.0
100
AcDbLine
 10
2482.695515348525
 20
4663.112805903259
 30
0.0
 11
2482.695515348525
 21
4522.11280590326
 31
0.0
  0
ARC
  5
13C60
330
747D
100
AcDbEntity
  8
部品1
100
AcDbCircle
 10
2457.103936454954
 20
4656.112805903259
 30
0.0
 40
7.0
100
AcDbArc
 50
90.0
 51
183.2473427903377
  0
ARC
  5
13C61
330
747D
100
AcDbEntity
  8
部品1
100
AcDbCircle
 10
2470.319259915989
 20
4529.112805903263
 30
0.0
 40
7.0
100
AcDbArc
 50
183.2473427903377
 51
270.0
  0
ARC
  5
13C62
330
747D
100
AcDbEntity
  8
部品1
 48
50.0
100
AcDbCircle
 10
2451.947449705313
 20
4635.779805064947
 30
0.0
 40
0.7
100
AcDbArc
 50
183.2473427903897
 51
262.3418727926365
  0
ARC
  5
13C63
330
747D
100
AcDbEntity
  8
部品1
 48
50.0
100
AcDbCircle
 10
2460.183480230153
 20
4543.579805064942
 30
0.0
 40
0.7
100
AcDbArc
 50
183.2473427902856
 51
262.3418727926365
  0
ARC
  5
13C64
330
747D
100
AcDbEntity
  8
部品1
 48
50.0
100
AcDbCircle
 10
2459.690411121592
 20
4539.912805903258
 30
0.0
 40
3.0
100
AcDbArc
 50
3.247342790337682
 51
82.34187279263654
  0
ARC
  5
13C65
330
747D
100
AcDbEntity
  8
部品1
 48
50.0
100
AcDbCircle
 10
2451.454380596748
 20
4632.112805903264
 30
0.0
 40
3.0
100
AcDbArc
 50
3.247342790337682
 51
82.34187279263654
  0
LINE
  5
13C66
330
747D
100
AcDbEntity
  8
部品1
100
AcDbLine
 10
2454.449563492934
 20
4632.282745358363
 30
0.0
 11
2459.484604221045
 21
4543.540152525419
 31
0.0
  0
LINE
  5
13C67
330
747D
100
AcDbEntity
  8
部品1
100
AcDbLine
 10
2462.685594017781
 20
4540.082745358362
 30
0.0
 11
2463.33049982489
 21
4528.716280508023
 31
0.0
  0
LINE
  5
13C68
330
747D
100
AcDbEntity
  8
部品1
100
AcDbLine
 10
2450.115176363855
 20
4655.716280508022
 30
0.0
 11
2451.248573696205
 21
4635.74015252542
 31
0.0
  0
LINE
  5
13C69
330
747D
100
AcDbEntity
  8
部品1
 48
50.0
100
AcDbLine
 10
8642.287094242096
 20
4663.112805903259
 30
0.0
 11
2457.103936454954
 21
4663.112805903258
 31
0.0
  0
LINE
  5
13C6A
330
747D
100
AcDbEntity
  8
細線
 48
50.0
100
AcDbLine
 10
8647.536864332701
 20
4635.086048466528
 30
0.0
 11
2451.854166358939
 21
4635.086048467257
 31
0.0
  0
LINE
  5
13C6B
330
747D
100
AcDbEntity
  8
細線
 48
50.0
100
AcDbLine
 10
8639.300833807885
 20
4542.886048466526
 30
0.0
 11
2460.090196883772
 21
4542.886048467255
 31
0.0
  0
LINE
  5
13C6C
330
747D
100
AcDbEntity
  8
部品1
 48
50.0
100
AcDbLine
 10
8629.071770781061
 20
4522.11280590326
 30
0.0
 11
2470.319259915989
 21
4522.11280590326
 31
0.0
  0
LINE
  5
13C6D
330
747D
100
AcDbEntity
  8
部品1
100
AcDbLine
 10
8649.275854333195
 20
4655.716280508019
 30
0.0
 11
8648.142457000849
 21
4635.740152525419
 31
0.0
  0
LINE
  5
13C6E
330
747D
100
AcDbEntity
  8
細線
 48
50.0
100
AcDbLine
 10
8616.69551534853
 20
4663.112805903258
 30
0.0
 11
8616.69551534853
 21
4522.112805903257
 31
0.0
  0
LINE
  5
13C6F
330
747D
100
AcDbEntity
  8
部品1
100
AcDbLine
 10
8636.705436679273
 20
4540.08274535836
 30
0.0
 11
8636.06053087216
 21
4528.71628050802
 31
0.0
  0
LINE
  5
13C70
330
747D
100
AcDbEntity
  8
部品1
100
AcDbLine
 10
8644.941467204118
 20
4632.282745358361
 30
0.0
 11
8639.906426476006
 21
4543.540152525419
 31
0.0
  0
ARC
  5
13C71
330
747D
100
AcDbEntity
  8
部品1
 48
50.0
100
AcDbCircle
 10
8647.936650100303
 20
4632.11280590326
 30
0.0
 40
3.0
100
AcDbArc
 50
97.65812720736347
 51
176.7526572096623
  0
ARC
  5
13C72
330
747D
100
AcDbEntity
  8
部品1
 48
50.0
100
AcDbCircle
 10
8639.700619575458
 20
4539.912805903258
 30
0.0
 40
3.0
100
AcDbArc
 50
97.65812720736347
 51
176.7526572096623
  0
ARC
  5
13C73
330
747D
100
AcDbEntity
  8
部品1
 48
50.0
100
AcDbCircle
 10
8639.207550466897
 20
4543.579805064941
 30
0.0
 40
0.7
100
AcDbArc
 50
277.6581272073635
 51
356.7526572097143
  0
ARC
  5
13C74
330
747D
100
AcDbEntity
  8
部品1
 48
50.0
100
AcDbCircle
 10
8647.44358099174
 20
4635.779805064945
 30
0.0
 40
0.7
100
AcDbArc
 50
277.6581272073635
 51
356.7526572096103
  0
ARC
  5
13C75
330
747D
100
AcDbEntity
  8
部品1
100
AcDbCircle
 10
8629.071770781061
 20
4529.11280590326
 30
0.0
 40
7.0
100
AcDbArc
 50
270.0
 51
356.7526572096623
  0
ARC
  5
13C76
330
747D
100
AcDbEntity
  8
部品1
100
AcDbCircle
 10
8642.287094242096
 20
4656.112805903258
 30
0.0
 40
7.0
100
AcDbArc
 50
356.7526572096623
 51
90.0
  0
DIMENSION
  5
13C77
330
747D
100
AcDbEntity
  8
寸法
 48
50.0
100
AcDbDimension
  2
*D6
 10
8599.695515348528
 20
4875.654391161499
 30
0.0
 11
8963.180796722765
 21
4875.654391161499
 31
0.0
 70
   160
 71
     5
 42
50.0
  3
INABA_S40G
100
AcDbAlignedDimension
 13
8649.695515348529
 23
4663.112805903258
 33
0.0
 14
8599.695515348528
 24
4663.112805903259
 34
0.0
100
AcDbRotatedDimension
  0
LINE
  5
13C78
330
747D
100
AcDbEntity
  8
細線
100
AcDbLine
 10
3409.695515348514
 20
4487.612805903254
 30
0.0
 11
3409.695515348514
 21
4464.612805903254
 31
0.0
  0
LINE
  5
13C79
330
747D
100
AcDbEntity
  8
細線
100
AcDbLine
 10
3483.695515348514
 20
4475.612805903255
 30
0.0
 11
3409.695515348514
 21
4475.612805903255
 31
0.0
  0
LINE
  5
13C7A
330
747D
100
AcDbEntity
  8
細線
100
AcDbLine
 10
3483.695515348514
 20
4469.612805903252
 30
0.0
 11
3409.695515348514
 21
4469.612805903254
 31
0.0
  0
LINE
  5
13C7B
330
747D
100
AcDbEntity
  8
細線
100
AcDbLine
 10
3483.695515348514
 20
4481.612805903252
 30
0.0
 11
3409.695515348514
 21
4481.612805903254
 31
0.0
  0
LINE
  5
13C7C
330
747D
100
AcDbEntity
  8
細線
100
AcDbLine
 10
3335.695515348515
 20
4481.612805903254
 30
0.0
 11
3404.695515348514
 21
4481.612805903254
 31
0.0
  0
LINE
  5
13C7D
330
747D
100
AcDbEntity
  8
細線
100
AcDbLine
 10
3335.695515348515
 20
4469.612805903254
 30
0.0
 11
3409.695515348514
 21
4469.612805903254
 31
0.0
  0
LINE
  5
13C7E
330
747D
100
AcDbEntity
  8
細線
100
AcDbLine
 10
3335.695515348515
 20
4475.612805903255
 30
0.0
 11
3409.695515348514
 21
4475.612805903255
 31
0.0
  0
LINE
  5
13C7F
330
747D
100
AcDbEntity
  8
細線
100
AcDbLine
 10
3335.695515348515
 20
4481.612805903254
 30
0.0
 11
3409.695515348514
 21
4481.612805903254
 31
0.0
  0
LINE
  5
13C80
330
747D
100
AcDbEntity
  8
部品1
 48
0.01
100
AcDbLine
 10
3497.695515348514
 20
4494.112805903254
 30
0.0
 11
3321.695515348515
 21
4494.112805903254
 31
0.0
  0
LINE
  5
13C81
330
747D
100
AcDbEntity
  8
部品1
 48
0.01
100
AcDbLine
 10
3319.695515348514
 20
4492.112805903254
 30
0.0
 11
3319.695515348514
 21
4460.612805903254
 31
0.0
  0
LINE
  5
13C82
330
747D
100
AcDbEntity
  8
部品1
 48
0.01
100
AcDbLine
 10
3321.695515348515
 20
4458.612805903254
 30
0.0
 11
3497.695515348514
 21
4458.612805903254
 31
0.0
  0
LINE
  5
13C83
330
747D
100
AcDbEntity
  8
部品1
 48
0.01
100
AcDbLine
 10
3499.695515348514
 20
4460.612805903254
 30
0.0
 11
3499.695515348514
 21
4492.112805903254
 31
0.0
  0
LINE
  5
13C84
330
747D
100
AcDbEntity
  8
細線
100
AcDbLine
 10
3335.695515348515
 20
4487.612805903254
 30
0.0
 11
3335.695515348515
 21
4464.612805903254
 31
0.0
  0
LINE
  5
13C85
330
747D
100
AcDbEntity
  8
細線
100
AcDbLine
 10
3483.695515348514
 20
4464.612805903254
 30
0.0
 11
3483.695515348514
 21
4487.612805903254
 31
0.0
  0
LINE
  5
13C86
330
747D
100
AcDbEntity
  8
細線
100
AcDbLine
 10
3483.695515348514
 20
4487.612805903254
 30
0.0
 11
3409.695515348514
 21
4487.612805903254
 31
0.0
  0
LINE
  5
13C87
330
747D
100
AcDbEntity
  8
細線
100
AcDbLine
 10
3335.695515348515
 20
4464.612805903254
 30
0.0
 11
3409.695515348514
 21
4464.612805903254
 31
0.0
  0
LINE
  5
13C88
330
747D
100
AcDbEntity
  8
細線
100
AcDbLine
 10
3409.695515348514
 20
4487.612805903254
 30
0.0
 11
3335.695515348515
 21
4487.612805903254
 31
0.0
  0
LINE
  5
13C89
330
747D
100
AcDbEntity
  8
細線
100
AcDbLine
 10
3409.695515348514
 20
4464.612805903254
 30
0.0
 11
3483.695515348514
 21
4464.612805903254
 31
0.0
  0
ARC
  5
13C8A
330
747D
100
AcDbEntity
  8
部品1
 48
0.01
100
AcDbCircle
 10
3321.695515348515
 20
4492.112805903254
 30
0.0
 40
2.0
100
AcDbArc
 50
90.0
 51
180.0
  0
ARC
  5
13C8B
330
747D
100
AcDbEntity
  8
部品1
 48
0.01
100
AcDbCircle
 10
3321.695515348515
 20
4460.612805903254
 30
0.0
 40
2.0
100
AcDbArc
 50
180.0
 51
270.0
  0
ARC
  5
13C8C
330
747D
100
AcDbEntity
  8
部品1
 48
0.01
100
AcDbCircle
 10
3497.695515348514
 20
4492.112805903254
 30
0.0
 40
2.0
100
AcDbArc
 50
0.0
 51
90.0
  0
ARC
  5
13C8D
330
747D
100
AcDbEntity
  8
部品1
 48
0.01
100
AcDbCircle
 10
3497.695515348514
 20
4460.612805903254
 30
0.0
 40
2.0
100
AcDbArc
 50
270.0
 51
0.0
  0
ARC
  5
13C8E
330
747D
100
AcDbEntity
  8
部品1
 48
0.01
100
AcDbCircle
 10
4551.695515348533
 20
4460.612805903256
 30
0.0
 40
2.0
100
AcDbArc
 50
180.0
 51
270.0
  0
ARC
  5
13C8F
330
747D
100
AcDbEntity
  8
部品1
 48
0.01
100
AcDbCircle
 10
4551.695515348533
 20
4492.112805903256
 30
0.0
 40
2.0
100
AcDbArc
 50
90.0
 51
180.0
  0
ARC
  5
13C90
330
747D
100
AcDbEntity
  8
部品1
 48
0.01
100
AcDbCircle
 10
4727.695515348532
 20
4460.612805903256
 30
0.0
 40
2.0
100
AcDbArc
 50
270.0
 51
0.0
  0
ARC
  5
13C91
330
747D
100
AcDbEntity
  8
部品1
 48
0.01
100
AcDbCircle
 10
4727.695515348532
 20
4492.112805903256
 30
0.0
 40
2.0
100
AcDbArc
 50
0.0
 51
90.0
  0
LINE
  5
13C92
330
747D
100
AcDbEntity
  8
細線
100
AcDbLine
 10
4639.695515348532
 20
4464.612805903256
 30
0.0
 11
4565.695515348532
 21
4464.612805903256
 31
0.0
  0
LINE
  5
13C93
330
747D
100
AcDbEntity
  8
細線
100
AcDbLine
 10
4639.695515348532
 20
4487.612805903256
 30
0.0
 11
4713.695515348532
 21
4487.612805903256
 31
0.0
  0
LINE
  5
13C94
330
747D
100
AcDbEntity
  8
細線
100
AcDbLine
 10
4713.695515348532
 20
4464.612805903256
 30
0.0
 11
4639.695515348532
 21
4464.612805903256
 31
0.0
  0
LINE
  5
13C95
330
747D
100
AcDbEntity
  8
細線
100
AcDbLine
 10
4565.695515348532
 20
4487.612805903256
 30
0.0
 11
4639.695515348532
 21
4487.612805903256
 31
0.0
  0
LINE
  5
13C96
330
747D
100
AcDbEntity
  8
細線
100
AcDbLine
 10
4565.695515348532
 20
4464.612805903256
 30
0.0
 11
4565.695515348532
 21
4487.612805903256
 31
0.0
  0
LINE
  5
13C97
330
747D
100
AcDbEntity
  8
細線
100
AcDbLine
 10
4713.695515348532
 20
4487.612805903256
 30
0.0
 11
4713.695515348532
 21
4464.612805903256
 31
0.0
  0
LINE
  5
13C98
330
747D
100
AcDbEntity
  8
部品1
 48
0.01
100
AcDbLine
 10
4549.695515348532
 20
4460.612805903256
 30
0.0
 11
4549.695515348532
 21
4492.112805903256
 31
0.0
  0
LINE
  5
13C99
330
747D
100
AcDbEntity
  8
部品1
 48
0.01
100
AcDbLine
 10
4727.695515348532
 20
4458.612805903256
 30
0.0
 11
4551.695515348533
 21
4458.612805903256
 31
0.0
  0
LINE
  5
13C9A
330
747D
100
AcDbEntity
  8
部品1
 48
0.01
100
AcDbLine
 10
4729.695515348532
 20
4492.112805903256
 30
0.0
 11
4729.695515348532
 21
4460.612805903256
 31
0.0
  0
LINE
  5
13C9B
330
747D
100
AcDbEntity
  8
部品1
 48
0.01
100
AcDbLine
 10
4551.695515348533
 20
4494.112805903256
 30
0.0
 11
4727.695515348532
 21
4494.112805903256
 31
0.0
  0
LINE
  5
13C9C
330
747D
100
AcDbEntity
  8
細線
100
AcDbLine
 10
4713.695515348532
 20
4481.612805903256
 30
0.0
 11
4639.695515348532
 21
4481.612805903256
 31
0.0
  0
LINE
  5
13C9D
330
747D
100
AcDbEntity
  8
細線
100
AcDbLine
 10
4713.695515348532
 20
4475.612805903256
 30
0.0
 11
4639.695515348532
 21
4475.612805903256
 31
0.0
  0
LINE
  5
13C9E
330
747D
100
AcDbEntity
  8
細線
100
AcDbLine
 10
4713.695515348532
 20
4469.612805903255
 30
0.0
 11
4639.695515348532
 21
4469.612805903255
 31
0.0
  0
LINE
  5
13C9F
330
747D
100
AcDbEntity
  8
細線
100
AcDbLine
 10
4713.695515348532
 20
4481.612805903256
 30
0.0
 11
4644.695515348533
 21
4481.612805903256
 31
0.0
  0
LINE
  5
13CA0
330
747D
100
AcDbEntity
  8
細線
100
AcDbLine
 10
4565.695515348532
 20
4481.612805903254
 30
0.0
 11
4639.695515348532
 21
4481.612805903256
 31
0.0
  0
LINE
  5
13CA1
330
747D
100
AcDbEntity
  8
細線
100
AcDbLine
 10
4565.695515348532
 20
4469.612805903254
 30
0.0
 11
4639.695515348532
 21
4469.612805903255
 31
0.0
  0
LINE
  5
13CA2
330
747D
100
AcDbEntity
  8
細線
100
AcDbLine
 10
4565.695515348532
 20
4475.612805903256
 30
0.0
 11
4639.695515348532
 21
4475.612805903256
 31
0.0
  0
LINE
  5
13CA3
330
747D
100
AcDbEntity
  8
細線
100
AcDbLine
 10
4639.695515348532
 20
4487.612805903256
 30
0.0
 11
4639.695515348532
 21
4464.612805903256
 31
0.0
  0
LINE
  5
13CA4
330
747D
100
AcDbEntity
  8
細線
100
AcDbLine
 10
7689.695515348532
 20
4487.612805903256
 30
0.0
 11
7689.695515348532
 21
4464.612805903256
 31
0.0
  0
LINE
  5
13CA5
330
747D
100
AcDbEntity
  8
細線
100
AcDbLine
 10
7615.695515348533
 20
4475.612805903256
 30
0.0
 11
7689.695515348532
 21
4475.612805903256
 31
0.0
  0
LINE
  5
13CA6
330
747D
100
AcDbEntity
  8
細線
100
AcDbLine
 10
7615.695515348533
 20
4469.612805903254
 30
0.0
 11
7689.695515348532
 21
4469.612805903255
 31
0.0
  0
LINE
  5
13CA7
330
747D
100
AcDbEntity
  8
細線
100
AcDbLine
 10
7615.695515348533
 20
4481.612805903254
 30
0.0
 11
7689.695515348532
 21
4481.612805903256
 31
0.0
  0
LINE
  5
13CA8
330
747D
100
AcDbEntity
  8
細線
100
AcDbLine
 10
7763.695515348533
 20
4481.612805903256
 30
0.0
 11
7694.695515348532
 21
4481.612805903256
 31
0.0
  0
LINE
  5
13CA9
330
747D
100
AcDbEntity
  8
細線
100
AcDbLine
 10
7763.695515348533
 20
4469.612805903255
 30
0.0
 11
7689.695515348532
 21
4469.612805903255
 31
0.0
  0
LINE
  5
13CAA
330
747D
100
AcDbEntity
  8
細線
100
AcDbLine
 10
7763.695515348533
 20
4475.612805903256
 30
0.0
 11
7689.695515348532
 21
4475.612805903256
 31
0.0
  0
LINE
  5
13CAB
330
747D
100
AcDbEntity
  8
細線
100
AcDbLine
 10
7763.695515348533
 20
4481.612805903256
 30
0.0
 11
7689.695515348532
 21
4481.612805903256
 31
0.0
  0
LINE
  5
13CAC
330
747D
100
AcDbEntity
  8
部品1
 48
0.01
100
AcDbLine
 10
7601.695515348533
 20
4494.112805903256
 30
0.0
 11
7777.695515348533
 21
4494.112805903256
 31
0.0
  0
LINE
  5
13CAD
330
747D
100
AcDbEntity
  8
部品1
 48
0.01
100
AcDbLine
 10
7779.695515348532
 20
4492.112805903256
 30
0.0
 11
7779.695515348532
 21
4460.612805903256
 31
0.0
  0
LINE
  5
13CAE
330
747D
100
AcDbEntity
  8
部品1
 48
0.01
100
AcDbLine
 10
7777.695515348533
 20
4458.612805903256
 30
0.0
 11
7601.695515348533
 21
4458.612805903256
 31
0.0
  0
LINE
  5
13CAF
330
747D
100
AcDbEntity
  8
部品1
 48
0.01
100
AcDbLine
 10
7599.695515348533
 20
4460.612805903256
 30
0.0
 11
7599.695515348533
 21
4492.112805903256
 31
0.0
  0
LINE
  5
13CB0
330
747D
100
AcDbEntity
  8
細線
100
AcDbLine
 10
7763.695515348533
 20
4487.612805903256
 30
0.0
 11
7763.695515348533
 21
4464.612805903256
 31
0.0
  0
LINE
  5
13CB1
330
747D
100
AcDbEntity
  8
細線
100
AcDbLine
 10
7615.695515348533
 20
4464.612805903256
 30
0.0
 11
7615.695515348533
 21
4487.612805903256
 31
0.0
  0
LINE
  5
13CB2
330
747D
100
AcDbEntity
  8
細線
100
AcDbLine
 10
7615.695515348533
 20
4487.612805903256
 30
0.0
 11
7689.695515348532
 21
4487.612805903256
 31
0.0
  0
LINE
  5
13CB3
330
747D
100
AcDbEntity
  8
細線
100
AcDbLine
 10
7763.695515348533
 20
4464.612805903256
 30
0.0
 11
7689.695515348532
 21
4464.612805903256
 31
0.0
  0
LINE
  5
13CB4
330
747D
100
AcDbEntity
  8
細線
100
AcDbLine
 10
7689.695515348532
 20
4487.612805903256
 30
0.0
 11
7763.695515348533
 21
4487.612805903256
 31
0.0
  0
LINE
  5
13CB5
330
747D
100
AcDbEntity
  8
細線
100
AcDbLine
 10
7689.695515348532
 20
4464.612805903256
 30
0.0
 11
7615.695515348533
 21
4464.612805903256
 31
0.0
  0
ARC
  5
13CB6
330
747D
100
AcDbEntity
  8
部品1
 48
0.01
100
AcDbCircle
 10
7777.695515348533
 20
4492.112805903256
 30
0.0
 40
2.0
100
AcDbArc
 50
0.0
 51
90.0
  0
ARC
  5
13CB7
330
747D
100
AcDbEntity
  8
部品1
 48
0.01
100
AcDbCircle
 10
7777.695515348533
 20
4460.612805903256
 30
0.0
 40
2.0
100
AcDbArc
 50
270.0
 51
0.0
  0
ARC
  5
13CB8
330
747D
100
AcDbEntity
  8
部品1
 48
0.01
100
AcDbCircle
 10
7601.695515348533
 20
4492.112805903256
 30
0.0
 40
2.0
100
AcDbArc
 50
90.0
 51
180.0
  0
ARC
  5
13CB9
330
747D
100
AcDbEntity
  8
部品1
 48
0.01
100
AcDbCircle
 10
7601.695515348533
 20
4460.612805903256
 30
0.0
 40
2.0
100
AcDbArc
 50
180.0
 51
270.0
  0
ARC
  5
13CBA
330
747D
100
AcDbEntity
  8
部品1
 48
0.01
100
AcDbCircle
 10
6547.695515348518
 20
4460.612805903254
 30
0.0
 40
2.0
100
AcDbArc
 50
270.0
 51
0.0
  0
ARC
  5
13CBB
330
747D
100
AcDbEntity
  8
部品1
 48
0.01
100
AcDbCircle
 10
6547.695515348518
 20
4492.112805903254
 30
0.0
 40
2.0
100
AcDbArc
 50
0.0
 51
90.0
  0
ARC
  5
13CBC
330
747D
100
AcDbEntity
  8
部品1
 48
0.01
100
AcDbCircle
 10
6371.695515348518
 20
4460.612805903254
 30
0.0
 40
2.0
100
AcDbArc
 50
180.0
 51
270.0
  0
ARC
  5
13CBD
330
747D
100
AcDbEntity
  8
部品1
 48
0.01
100
AcDbCircle
 10
6371.695515348518
 20
4492.112805903254
 30
0.0
 40
2.0
100
AcDbArc
 50
90.0
 51
180.0
  0
LINE
  5
13CBE
330
747D
100
AcDbEntity
  8
細線
100
AcDbLine
 10
6459.695515348518
 20
4464.612805903254
 30
0.0
 11
6533.695515348518
 21
4464.612805903254
 31
0.0
  0
LINE
  5
13CBF
330
747D
100
AcDbEntity
  8
細線
100
AcDbLine
 10
6459.695515348518
 20
4487.612805903254
 30
0.0
 11
6385.695515348518
 21
4487.612805903254
 31
0.0
  0
LINE
  5
13CC0
330
747D
100
AcDbEntity
  8
細線
100
AcDbLine
 10
6385.695515348518
 20
4464.612805903254
 30
0.0
 11
6459.695515348518
 21
4464.612805903254
 31
0.0
  0
LINE
  5
13CC1
330
747D
100
AcDbEntity
  8
細線
100
AcDbLine
 10
6533.695515348518
 20
4487.612805903254
 30
0.0
 11
6459.695515348518
 21
4487.612805903254
 31
0.0
  0
LINE
  5
13CC2
330
747D
100
AcDbEntity
  8
細線
100
AcDbLine
 10
6533.695515348518
 20
4464.612805903254
 30
0.0
 11
6533.695515348518
 21
4487.612805903254
 31
0.0
  0
LINE
  5
13CC3
330
747D
100
AcDbEntity
  8
細線
100
AcDbLine
 10
6385.695515348518
 20
4487.612805903254
 30
0.0
 11
6385.695515348518
 21
4464.612805903254
 31
0.0
  0
LINE
  5
13CC4
330
747D
100
AcDbEntity
  8
部品1
 48
0.01
100
AcDbLine
 10
6549.695515348517
 20
4460.612805903254
 30
0.0
 11
6549.695515348517
 21
4492.112805903254
 31
0.0
  0
LINE
  5
13CC5
330
747D
100
AcDbEntity
  8
部品1
 48
0.01
100
AcDbLine
 10
6371.695515348518
 20
4458.612805903254
 30
0.0
 11
6547.695515348518
 21
4458.612805903254
 31
0.0
  0
LINE
  5
13CC6
330
747D
100
AcDbEntity
  8
部品1
 48
0.01
100
AcDbLine
 10
6369.695515348517
 20
4492.112805903254
 30
0.0
 11
6369.695515348517
 21
4460.612805903254
 31
0.0
  0
LINE
  5
13CC7
330
747D
100
AcDbEntity
  8
部品1
 48
0.01
100
AcDbLine
 10
6547.695515348518
 20
4494.112805903254
 30
0.0
 11
6371.695515348518
 21
4494.112805903254
 31
0.0
  0
LINE
  5
13CC8
330
747D
100
AcDbEntity
  8
細線
100
AcDbLine
 10
6385.695515348518
 20
4481.612805903254
 30
0.0
 11
6459.695515348518
 21
4481.612805903254
 31
0.0
  0
LINE
  5
13CC9
330
747D
100
AcDbEntity
  8
細線
100
AcDbLine
 10
6385.695515348518
 20
4475.612805903255
 30
0.0
 11
6459.695515348518
 21
4475.612805903255
 31
0.0
  0
LINE
  5
13CCA
330
747D
100
AcDbEntity
  8
細線
100
AcDbLine
 10
6385.695515348518
 20
4469.612805903254
 30
0.0
 11
6459.695515348518
 21
4469.612805903254
 31
0.0
  0
LINE
  5
13CCB
330
747D
100
AcDbEntity
  8
細線
100
AcDbLine
 10
6385.695515348518
 20
4481.612805903254
 30
0.0
 11
6454.695515348518
 21
4481.612805903254
 31
0.0
  0
LINE
  5
13CCC
330
747D
100
AcDbEntity
  8
細線
100
AcDbLine
 10
6533.695515348518
 20
4481.612805903252
 30
0.0
 11
6459.695515348518
 21
4481.612805903254
 31
0.0
  0
LINE
  5
13CCD
330
747D
100
AcDbEntity
  8
細線
100
AcDbLine
 10
6533.695515348518
 20
4469.612805903252
 30
0.0
 11
6459.695515348518
 21
4469.612805903254
 31
0.0
  0
LINE
  5
13CCE
330
747D
100
AcDbEntity
  8
細線
100
AcDbLine
 10
6533.695515348518
 20
4475.612805903255
 30
0.0
 11
6459.695515348518
 21
4475.612805903255
 31
0.0
  0
LINE
  5
13CCF
330
747D
100
AcDbEntity
  8
細線
100
AcDbLine
 10
6459.695515348518
 20
4487.612805903254
 30
0.0
 11
6459.695515348518
 21
4464.612805903254
 31
0.0
  0
LINE
  5
13CD0
330
747D
100
AcDbEntity
  8
部品1
100
AcDbLine
 10
2974.695515348525
 20
4428.112805903258
 30
0.0
 11
2974.695515348525
 21
4423.112805903256
 31
0.0
  0
LINE
  5
13CD1
330
747D
100
AcDbEntity
  8
部品1
100
AcDbLine
 10
5074.695515348525
 20
4428.112805903258
 30
0.0
 11
5074.695515348525
 21
4423.112805903256
 31
0.0
  0
LINE
  5
13CD2
330
747D
100
AcDbEntity
  8
部品1
 48
50.0
100
AcDbLine
 10
2977.695515348525
 20
4379.112805903257
 30
0.0
 11
2947.695515348525
 21
4379.112805903257
 31
0.0
  0
LINE
  5
13CD3
330
747D
100
AcDbEntity
  8
細線
 48
50.0
100
AcDbLine
 10
5071.695515348525
 20
4371.112805903256
 30
0.0
 11
2977.695515348525
 21
4371.112805903256
 31
0.0
  0
LINE
  5
13CD4
330
747D
100
AcDbEntity
  8
細線
 48
50.0
100
AcDbLine
 10
5071.695515348525
 20
4380.612805903257
 30
0.0
 11
2977.695515348525
 21
4380.612805903257
 31
0.0
  0
LINE
  5
13CD5
330
747D
100
AcDbEntity
  8
部品1
 48
50.0
100
AcDbLine
 10
5101.695515348525
 20
4423.112805903256
 30
0.0
 11
2947.695515348525
 21
4423.112805903256
 31
0.0
  0
LINE
  5
13CD6
330
747D
100
AcDbEntity
  8
細線
 48
50.0
100
AcDbLine
 10
5101.695515348525
 20
4413.112805903256
 30
0.0
 11
2947.695515348525
 21
4413.112805903256
 31
0.0
  0
LINE
  5
13CD7
330
747D
100
AcDbEntity
  8
部品1
 48
50.0
100
AcDbLine
 10
5101.695515348525
 20
4379.112805903257
 30
0.0
 11
5071.695515348525
 21
4379.112805903257
 31
0.0
  0
LINE
  5
13CD8
330
747D
100
AcDbEntity
  8
細線
 48
50.0
100
AcDbLine
 10
3775.695515348525
 20
2345.612805903256
 30
0.0
 11
5045.695515348525
 21
2345.612805903256
 31
0.0
  0
LINE
  5
13CD9
330
747D
100
AcDbEntity
  8
細線
 48
50.0
100
AcDbLine
 10
5049.695515348525
 20
2335.112805903256
 30
0.0
 11
5045.695515348525
 21
2345.612805903256
 31
0.0
  0
LINE
  5
13CDA
330
747D
100
AcDbEntity
  8
部品1
 48
50.0
100
AcDbLine
 10
2947.695515348525
 20
4423.112805903256
 30
0.0
 11
2947.695515348525
 21
2188.112805903256
 31
0.0
  0
LINE
  5
13CDB
330
747D
100
AcDbEntity
  8
部品1
 48
50.0
100
AcDbLine
 10
2977.695515348525
 20
2338.112805903256
 30
0.0
 11
2977.695515348525
 21
4371.112805903256
 31
0.0
  0
LINE
  5
13CDC
330
747D
100
AcDbEntity
  8
細線
 48
50.0
100
AcDbLine
 10
2977.695515348525
 20
4380.612805903257
 30
0.0
 11
2977.695515348525
 21
2288.112805903256
 31
0.0
  0
LINE
  5
13CDD
330
747D
100
AcDbEntity
  8
部品1
 48
50.0
100
AcDbLine
 10
2986.695515348525
 20
2338.112805903256
 30
0.0
 11
2986.695515348525
 21
2335.112805903256
 31
0.0
  0
LINE
  5
13CDE
330
747D
100
AcDbEntity
  8
細線
 48
50.0
100
AcDbLine
 10
2977.695515348525
 20
2331.112805903256
 30
0.0
 11
5071.695515348525
 21
2331.112805903256
 31
0.0
  0
LINE
  5
13CDF
330
747D
100
AcDbEntity
  8
細線
 48
50.0
100
AcDbLine
 10
2977.695515348525
 20
2335.112805903256
 30
0.0
 11
5071.695515348525
 21
2335.112805903256
 31
0.0
  0
LINE
  5
13CE0
330
747D
100
AcDbEntity
  8
部品1
 48
50.0
100
AcDbLine
 10
2977.695515348525
 20
2338.112805903256
 30
0.0
 11
3775.695515348525
 21
2338.112805903256
 31
0.0
  0
LINE
  5
13CE1
330
747D
100
AcDbEntity
  8
部品1
 48
50.0
100
AcDbLine
 10
3775.695515348525
 20
4371.112805903256
 30
0.0
 11
3775.695515348525
 21
2338.112805903256
 31
0.0
  0
LINE
  5
13CE2
330
747D
100
AcDbEntity
  8
部品1
 48
50.0
100
AcDbLine
 10
5062.695515348526
 20
2335.112805903256
 30
0.0
 11
5062.695515348526
 21
4371.112805903256
 31
0.0
  0
LINE
  5
13CE3
330
747D
100
AcDbEntity
  8
細線
 48
50.0
100
AcDbLine
 10
5071.695515348525
 20
2288.112805903256
 30
0.0
 11
5071.695515348525
 21
4380.612805903257
 31
0.0
  0
LINE
  5
13CE4
330
747D
100
AcDbEntity
  8
部品1
 48
50.0
100
AcDbLine
 10
5101.695515348525
 20
2188.112805903256
 30
0.0
 11
5101.695515348525
 21
4423.112805903256
 31
0.0
  0
LINE
  5
13CE5
330
747D
100
AcDbEntity
  8
部品1
 48
50.0
100
AcDbLine
 10
4426.695515348525
 20
4371.112805903256
 30
0.0
 11
4426.695515348525
 21
2345.612805903256
 31
0.0
  0
LINE
  5
13CE6
330
747D
100
AcDbEntity
  8
細線
100
AcDbLine
 10
4561.195515348525
 20
4371.112805903258
 30
0.0
 11
4561.195515348525
 21
2345.612805903275
 31
0.0
  0
LINE
  5
13CE7
330
747D
100
AcDbEntity
  8
細線
100
AcDbLine
 10
3835.695515348525
 20
4371.112805903258
 30
0.0
 11
3835.695515348525
 21
2345.612805903271
 31
0.0
  0
LINE
  5
13CE8
330
747D
100
AcDbEntity
  8
細線
100
AcDbLine
 10
3905.695515348526
 20
4371.112805903258
 30
0.0
 11
3905.695515348526
 21
2345.612805903271
 31
0.0
  0
LINE
  5
13CE9
330
747D
100
AcDbEntity
  8
細線
100
AcDbLine
 10
3191.695515348525
 20
4371.112805903258
 30
0.0
 11
3191.695515348525
 21
2338.11280590326
 31
0.0
  0
LINE
  5
13CEA
330
747D
100
AcDbEntity
  8
細線
100
AcDbLine
 10
3261.695515348525
 20
4371.112805903258
 30
0.0
 11
3261.695515348525
 21
2338.11280590326
 31
0.0
  0
LINE
  5
13D04
330
747D
100
AcDbEntity
  8
部品1
 48
50.0
100
AcDbLine
 10
3021.695515348525
 20
3419.612805903258
 30
0.0
 11
3074.695515348525
 21
3419.612805903258
 31
0.0
  0
LINE
  5
13D08
330
747D
100
AcDbEntity
  8
細線
100
AcDbLine
 10
4631.195515348525
 20
4371.112805903258
 30
0.0
 11
4631.195515348525
 21
2345.612805903275
 31
0.0
  0
LINE
  5
13D09
330
747D
100
AcDbEntity
  8
細線
100
AcDbLine
 10
4701.195515348525
 20
4371.112805903258
 30
0.0
 11
4701.195515348525
 21
2345.612805903275
 31
0.0
  0
LINE
  5
13D0A
330
747D
100
AcDbEntity
  8
細線
100
AcDbLine
 10
4771.195515348525
 20
4371.112805903258
 30
0.0
 11
4771.195515348525
 21
2345.612805903275
 31
0.0
  0
LINE
  5
13D0B
330
747D
100
AcDbEntity
  8
細線
100
AcDbLine
 10
4841.195515348525
 20
4371.112805903258
 30
0.0
 11
4841.195515348525
 21
2345.612805903275
 31
0.0
  0
LINE
  5
13D0C
330
747D
100
AcDbEntity
  8
細線
100
AcDbLine
 10
4911.195515348525
 20
4371.112805903258
 30
0.0
 11
4911.195515348525
 21
2345.612805903275
 31
0.0
  0
LINE
  5
13D0D
330
747D
100
AcDbEntity
  8
細線
100
AcDbLine
 10
3975.695515348525
 20
4371.112805903258
 30
0.0
 11
3975.695515348525
 21
2345.612805903271
 31
0.0
  0
LINE
  5
13D0E
330
747D
100
AcDbEntity
  8
細線
100
AcDbLine
 10
4045.695515348525
 20
4371.112805903258
 30
0.0
 11
4045.695515348525
 21
2345.612805903271
 31
0.0
  0
LINE
  5
13D0F
330
747D
100
AcDbEntity
  8
細線
100
AcDbLine
 10
4115.695515348525
 20
4371.112805903258
 30
0.0
 11
4115.695515348525
 21
2345.612805903271
 31
0.0
  0
LINE
  5
13D10
330
747D
100
AcDbEntity
  8
細線
100
AcDbLine
 10
4185.695515348525
 20
4371.112805903258
 30
0.0
 11
4185.695515348525
 21
2345.612805903271
 31
0.0
  0
LINE
  5
13D11
330
747D
100
AcDbEntity
  8
細線
100
AcDbLine
 10
4255.695515348525
 20
4371.112805903258
 30
0.0
 11
4255.695515348525
 21
2345.612805903271
 31
0.0
  0
LINE
  5
13D12
330
747D
100
AcDbEntity
  8
細線
100
AcDbLine
 10
4325.695515348525
 20
4371.112805903258
 30
0.0
 11
4325.695515348525
 21
2345.612805903271
 31
0.0
  0
LINE
  5
13D13
330
747D
100
AcDbEntity
  8
細線
100
AcDbLine
 10
3105.695515348525
 20
4371.112805903258
 30
0.0
 11
3105.695515348525
 21
2338.112805903264
 31
0.0
  0
LINE
  5
13D14
330
747D
100
AcDbEntity
  8
細線
100
AcDbLine
 10
3139.695515348525
 20
4371.112805903258
 30
0.0
 11
3139.695515348525
 21
2338.112805903264
 31
0.0
  0
LINE
  5
13D15
330
747D
100
AcDbEntity
  8
部品1
100
AcDbLine
 10
3097.695515348525
 20
4371.112805903258
 30
0.0
 11
3097.695515348525
 21
2338.112805903264
 31
0.0
  0
LINE
  5
13D16
330
747D
100
AcDbEntity
  8
部品1
100
AcDbLine
 10
3147.695515348525
 20
4371.112805903258
 30
0.0
 11
3147.695515348525
 21
2338.112805903264
 31
0.0
  0
LINE
  5
13D17
330
747D
100
AcDbEntity
  8
細線
100
AcDbLine
 10
3331.695515348525
 20
4371.112805903258
 30
0.0
 11
3331.695515348525
 21
2338.11280590326
 31
0.0
  0
LINE
  5
13D18
330
747D
100
AcDbEntity
  8
細線
100
AcDbLine
 10
3401.695515348525
 20
4371.112805903258
 30
0.0
 11
3401.695515348525
 21
2338.11280590326
 31
0.0
  0
LINE
  5
13D19
330
747D
100
AcDbEntity
  8
細線
100
AcDbLine
 10
3471.695515348525
 20
4371.112805903258
 30
0.0
 11
3471.695515348525
 21
2338.11280590326
 31
0.0
  0
LINE
  5
13D1A
330
747D
100
AcDbEntity
  8
細線
100
AcDbLine
 10
3541.695515348525
 20
4371.112805903258
 30
0.0
 11
3541.695515348525
 21
2338.112805903264
 31
0.0
  0
LINE
  5
13D1B
330
747D
100
AcDbEntity
  8
細線
100
AcDbLine
 10
3611.695515348525
 20
4371.112805903258
 30
0.0
 11
3611.695515348525
 21
2338.112805903264
 31
0.0
  0
LINE
  5
13D1C
330
747D
100
AcDbEntity
  8
細線
100
AcDbLine
 10
3681.695515348526
 20
4371.112805903258
 30
0.0
 11
3681.695515348526
 21
2338.112805903264
 31
0.0
  0
LINE
  5
13D1D
330
747D
100
AcDbEntity
  8
部品1
100
AcDbLine
 10
4426.695515348518
 20
4371.112805903258
 30
0.0
 11
4426.695515348525
 21
2345.612805903271
 31
0.0
  0
LINE
  5
13D1E
330
747D
100
AcDbEntity
  8
部品1
 48
50.0
100
AcDbLine
 10
3775.695515348525
 20
4371.112805903258
 30
0.0
 11
3775.695515348525
 21
2338.112805903256
 31
0.0
  0
LINE
  5
13D1F
330
747D
100
AcDbEntity
  8
細線
 48
50.0
100
AcDbLine
 10
8202.195515348529
 20
4428.112805903256
 30
0.0
 11
8202.195515348529
 21
2338.112805903256
 31
0.0
  0
LINE
  5
13D20
330
747D
100
AcDbEntity
  8
細線
 48
50.0
100
AcDbLine
 10
8187.195515348529
 20
4428.112805903256
 30
0.0
 11
8187.195515348529
 21
2338.112805903256
 31
0.0
  0
LINE
  5
13D21
330
747D
100
AcDbEntity
  8
細線
 48
50.0
100
AcDbLine
 10
8327.195515348529
 20
4428.112805903256
 30
0.0
 11
8327.195515348529
 21
2338.112805903256
 31
0.0
  0
LINE
  5
13D22
330
747D
100
AcDbEntity
  8
細線
 48
50.0
100
AcDbLine
 10
8342.195515348528
 20
4428.112805903256
 30
0.0
 11
8342.195515348528
 21
2338.112805903256
 31
0.0
  0
LINE
  5
13D23
330
747D
100
AcDbEntity
  8
細線
 48
50.0
100
AcDbLine
 10
8482.195515348529
 20
4428.112805903256
 30
0.0
 11
8482.195515348529
 21
2338.112805903256
 31
0.0
  0
LINE
  5
13D24
330
747D
100
AcDbEntity
  8
細線
 48
50.0
100
AcDbLine
 10
8467.195515348528
 20
4428.112805903256
 30
0.0
 11
8467.195515348528
 21
2338.112805903256
 31
0.0
  0
LINE
  5
13D25
330
747D
100
AcDbEntity
  8
細線
 48
50.0
100
AcDbLine
 10
7782.195515348525
 20
4428.112805903256
 30
0.0
 11
7782.195515348525
 21
2338.112805903256
 31
0.0
  0
LINE
  5
13D26
330
747D
100
AcDbEntity
  8
細線
 48
50.0
100
AcDbLine
 10
7767.195515348525
 20
4428.112805903256
 30
0.0
 11
7767.195515348525
 21
2338.112805903256
 31
0.0
  0
LINE
  5
13D27
330
747D
100
AcDbEntity
  8
細線
 48
50.0
100
AcDbLine
 10
7907.195515348525
 20
4428.112805903256
 30
0.0
 11
7907.195515348525
 21
2338.112805903256
 31
0.0
  0
LINE
  5
13D28
330
747D
100
AcDbEntity
  8
細線
 48
50.0
100
AcDbLine
 10
7922.195515348525
 20
4428.112805903256
 30
0.0
 11
7922.195515348525
 21
2338.112805903256
 31
0.0
  0
LINE
  5
13D29
330
747D
100
AcDbEntity
  8
細線
 48
50.0
100
AcDbLine
 10
8062.195515348525
 20
4428.112805903256
 30
0.0
 11
8062.195515348525
 21
2338.112805903256
 31
0.0
  0
LINE
  5
13D2A
330
747D
100
AcDbEntity
  8
細線
 48
50.0
100
AcDbLine
 10
8047.195515348525
 20
4428.112805903256
 30
0.0
 11
8047.195515348525
 21
2338.112805903256
 31
0.0
  0
LINE
  5
13D2B
330
747D
100
AcDbEntity
  8
細線
 48
50.0
100
AcDbLine
 10
7627.195515348525
 20
4428.112805903256
 30
0.0
 11
7627.195515348525
 21
2338.112805903256
 31
0.0
  0
LINE
  5
13D2C
330
747D
100
AcDbEntity
  8
細線
 48
50.0
100
AcDbLine
 10
7642.195515348525
 20
4428.112805903256
 30
0.0
 11
7642.195515348525
 21
2338.112805903256
 31
0.0
  0
LINE
  5
13D2D
330
747D
100
AcDbEntity
  8
細線
 48
50.0
100
AcDbLine
 10
7502.195515348525
 20
4428.112805903256
 30
0.0
 11
7502.195515348525
 21
2338.112805903256
 31
0.0
  0
LINE
  5
13D2E
330
747D
100
AcDbEntity
  8
細線
 48
50.0
100
AcDbLine
 10
7487.195515348524
 20
4428.112805903256
 30
0.0
 11
7487.195515348524
 21
2338.112805903256
 31
0.0
  0
LINE
  5
13D2F
330
747D
100
AcDbEntity
  8
細線
 48
50.0
100
AcDbLine
 10
7347.195515348525
 20
4428.112805903256
 30
0.0
 11
7347.195515348525
 21
2338.112805903256
 31
0.0
  0
LINE
  5
13D30
330
747D
100
AcDbEntity
  8
細線
 48
50.0
100
AcDbLine
 10
7362.195515348524
 20
4428.112805903256
 30
0.0
 11
7362.195515348524
 21
2338.112805903256
 31
0.0
  0
LINE
  5
13D31
330
747D
100
AcDbEntity
  8
細線
 48
50.0
100
AcDbLine
 10
6942.195515348521
 20
4428.112805903256
 30
0.0
 11
6942.195515348521
 21
2338.112805903256
 31
0.0
  0
LINE
  5
13D32
330
747D
100
AcDbEntity
  8
細線
 48
50.0
100
AcDbLine
 10
6927.195515348522
 20
4428.112805903256
 30
0.0
 11
6927.195515348522
 21
2338.112805903256
 31
0.0
  0
LINE
  5
13D33
330
747D
100
AcDbEntity
  8
細線
 48
50.0
100
AcDbLine
 10
7067.195515348521
 20
4428.112805903256
 30
0.0
 11
7067.195515348521
 21
2338.112805903256
 31
0.0
  0
LINE
  5
13D34
330
747D
100
AcDbEntity
  8
細線
 48
50.0
100
AcDbLine
 10
7082.195515348522
 20
4428.112805903256
 30
0.0
 11
7082.195515348522
 21
2338.112805903256
 31
0.0
  0
LINE
  5
13D35
330
747D
100
AcDbEntity
  8
細線
 48
50.0
100
AcDbLine
 10
7222.195515348521
 20
4428.112805903256
 30
0.0
 11
7222.195515348521
 21
2338.112805903256
 31
0.0
  0
LINE
  5
13D36
330
747D
100
AcDbEntity
  8
細線
 48
50.0
100
AcDbLine
 10
7207.195515348522
 20
4428.112805903256
 30
0.0
 11
7207.195515348522
 21
2338.112805903256
 31
0.0
  0
LINE
  5
13D37
330
747D
100
AcDbEntity
  8
細線
 48
50.0
100
AcDbLine
 10
6787.195515348525
 20
4428.112805903256
 30
0.0
 11
6787.195515348521
 21
2338.112805903256
 31
0.0
  0
LINE
  5
13D38
330
747D
100
AcDbEntity
  8
細線
 48
50.0
100
AcDbLine
 10
6802.195515348525
 20
4428.112805903256
 30
0.0
 11
6802.195515348521
 21
2338.112805903256
 31
0.0
  0
LINE
  5
13D39
330
747D
100
AcDbEntity
  8
細線
 48
50.0
100
AcDbLine
 10
6662.195515348525
 20
4428.112805903256
 30
0.0
 11
6662.195515348521
 21
2338.112805903256
 31
0.0
  0
LINE
  5
13D3A
330
747D
100
AcDbEntity
  8
細線
 48
50.0
100
AcDbLine
 10
6647.195515348525
 20
4428.112805903256
 30
0.0
 11
6647.195515348521
 21
2338.112805903256
 31
0.0
  0
LINE
  5
13D3B
330
747D
100
AcDbEntity
  8
細線
 48
50.0
100
AcDbLine
 10
6507.195515348525
 20
4428.112805903256
 30
0.0
 11
6507.195515348522
 21
2338.112805903256
 31
0.0
  0
LINE
  5
13D3C
330
747D
100
AcDbEntity
  8
細線
 48
50.0
100
AcDbLine
 10
6522.195515348525
 20
4428.112805903256
 30
0.0
 11
6522.195515348521
 21
2338.112805903256
 31
0.0
  0
LINE
  5
13D3D
330
747D
100
AcDbEntity
  8
細線
 48
50.0
100
AcDbLine
 10
5682.19551534851
 20
4428.112805903256
 30
0.0
 11
5682.19551534851
 21
2338.112805903256
 31
0.0
  0
LINE
  5
13D3E
330
747D
100
AcDbEntity
  8
細線
 48
50.0
100
AcDbLine
 10
5667.19551534851
 20
4428.112805903256
 30
0.0
 11
5667.19551534851
 21
2338.112805903256
 31
0.0
  0
LINE
  5
13D3F
330
747D
100
AcDbEntity
  8
細線
 48
50.0
100
AcDbLine
 10
5807.19551534851
 20
4428.112805903256
 30
0.0
 11
5807.19551534851
 21
2338.112805903256
 31
0.0
  0
LINE
  5
13D40
330
747D
100
AcDbEntity
  8
細線
 48
50.0
100
AcDbLine
 10
5822.195515348511
 20
4428.112805903256
 30
0.0
 11
5822.195515348511
 21
2338.112805903256
 31
0.0
  0
LINE
  5
13D41
330
747D
100
AcDbEntity
  8
細線
 48
50.0
100
AcDbLine
 10
5962.19551534851
 20
4428.112805903256
 30
0.0
 11
5962.19551534851
 21
2338.112805903256
 31
0.0
  0
LINE
  5
13D42
330
747D
100
AcDbEntity
  8
細線
 48
50.0
100
AcDbLine
 10
5947.195515348511
 20
4428.112805903256
 30
0.0
 11
5947.195515348511
 21
2338.112805903256
 31
0.0
  0
LINE
  5
13D43
330
747D
100
AcDbEntity
  8
細線
 48
50.0
100
AcDbLine
 10
6367.195515348511
 20
4428.112805903256
 30
0.0
 11
6367.195515348511
 21
2338.112805903256
 31
0.0
  0
LINE
  5
13D44
330
747D
100
AcDbEntity
  8
細線
 48
50.0
100
AcDbLine
 10
6382.19551534851
 20
4428.112805903256
 30
0.0
 11
6382.19551534851
 21
2338.112805903256
 31
0.0
  0
LINE
  5
13D45
330
747D
100
AcDbEntity
  8
細線
 48
50.0
100
AcDbLine
 10
6242.195515348511
 20
4428.112805903256
 30
0.0
 11
6242.195515348511
 21
2338.112805903256
 31
0.0
  0
LINE
  5
13D46
330
747D
100
AcDbEntity
  8
細線
 48
50.0
100
AcDbLine
 10
6227.195515348511
 20
4428.112805903256
 30
0.0
 11
6227.195515348511
 21
2338.112805903256
 31
0.0
  0
LINE
  5
13D47
330
747D
100
AcDbEntity
  8
細線
 48
50.0
100
AcDbLine
 10
6087.19551534851
 20
4428.112805903256
 30
0.0
 11
6087.19551534851
 21
2338.112805903256
 31
0.0
  0
LINE
  5
13D48
330
747D
100
AcDbEntity
  8
細線
 48
50.0
100
AcDbLine
 10
6102.195515348511
 20
4428.112805903256
 30
0.0
 11
6102.195515348511
 21
2338.112805903256
 31
0.0
  0
LINE
  5
13D49
330
747D
100
AcDbEntity
  8
細線
 48
50.0
100
AcDbLine
 10
5417.19551534851
 20
4428.112805903256
 30
0.0
 11
5417.19551534851
 21
2338.112805903256
 31
0.0
  0
LINE
  5
13D4A
330
747D
100
AcDbEntity
  8
細線
 48
50.0
100
AcDbLine
 10
5432.19551534851
 20
4428.112805903256
 30
0.0
 11
5432.19551534851
 21
2338.112805903256
 31
0.0
  0
LINE
  5
13D4B
330
747D
100
AcDbEntity
  8
細線
 48
50.0
100
AcDbLine
 10
5292.19551534851
 20
4428.112805903256
 30
0.0
 11
5292.19551534851
 21
2338.112805903256
 31
0.0
  0
LINE
  5
13D4C
330
747D
100
AcDbEntity
  8
細線
 48
50.0
100
AcDbLine
 10
5277.195515348511
 20
4428.112805903256
 30
0.0
 11
5277.195515348511
 21
2338.112805903256
 31
0.0
  0
LINE
  5
13D4D
330
747D
100
AcDbEntity
  8
細線
 48
50.0
100
AcDbLine
 10
5137.19551534851
 20
4428.112805903256
 30
0.0
 11
5137.19551534851
 21
2338.112805903256
 31
0.0
  0
LINE
  5
13D4E
330
747D
100
AcDbEntity
  8
細線
 48
50.0
100
AcDbLine
 10
5152.195515348511
 20
4428.112805903256
 30
0.0
 11
5152.195515348511
 21
2338.112805903256
 31
0.0
  0
LINE
  5
13D4F
330
747D
100
AcDbEntity
  8
細線
 48
50.0
100
AcDbLine
 10
2897.19551534851
 20
4428.112805903256
 30
0.0
 11
2897.19551534851
 21
2338.112805903256
 31
0.0
  0
LINE
  5
13D50
330
747D
100
AcDbEntity
  8
細線
 48
50.0
100
AcDbLine
 10
2912.195515348511
 20
4428.112805903256
 30
0.0
 11
2912.195515348511
 21
2338.112805903256
 31
0.0
  0
LINE
  5
13D51
330
747D
100
AcDbEntity
  8
細線
 48
50.0
100
AcDbLine
 10
2772.19551534851
 20
4428.112805903256
 30
0.0
 11
2772.19551534851
 21
2338.112805903256
 31
0.0
  0
LINE
  5
13D52
330
747D
100
AcDbEntity
  8
細線
 48
50.0
100
AcDbLine
 10
2757.195515348511
 20
4428.112805903256
 30
0.0
 11
2757.195515348511
 21
2338.112805903256
 31
0.0
  0
LINE
  5
13D53
330
747D
100
AcDbEntity
  8
細線
 48
50.0
100
AcDbLine
 10
2617.195515348511
 20
4428.112805903256
 30
0.0
 11
2617.195515348511
 21
2338.112805903256
 31
0.0
  0
LINE
  5
13D54
330
747D
100
AcDbEntity
  8
細線
 48
50.0
100
AcDbLine
 10
2632.195515348511
 20
4428.112805903256
 30
0.0
 11
2632.195515348511
 21
2338.112805903256
 31
0.0
  0
LINE
  5
1413D
330
747D
100
AcDbEntity
  8
部品1
100
AcDbLine
 10
5494.695515348524
 20
9854.684846368417
 30
0.0
 11
2554.695515348525
 21
9854.684846368414
 31
0.0
  0
LINE
  5
1413E
330
747D
100
AcDbEntity
  8
部品1
100
AcDbLine
 10
2527.695515348525
 20
9854.684846368419
 30
0.0
 11
2499.695515348526
 21
9854.684846368419
 31
0.0
  0
LINE
  5
1413F
330
747D
100
AcDbEntity
  8
部品1
100
AcDbLine
 10
5604.695515348525
 20
9854.684846368417
 30
0.0
 11
8544.695515348525
 21
9854.684846368417
 31
0.0
  0
LINE
  5
14140
330
747D
100
AcDbEntity
  8
部品1
100
AcDbLine
 10
8571.695515348526
 20
9854.684846368419
 30
0.0
 11
8599.695515348525
 21
9854.684846368419
 31
0.0
  0
LINE
  5
1436D
330
747D
100
AcDbEntity
  8
部品1
100
AcDbLine
 10
14211.04992349218
 20
4428.112805903258
 30
0.0
 11
14211.04992349218
 21
2338.11280590326
 31
0.0
  0
LINE
  5
1436E
330
747D
100
AcDbEntity
  8
細線
 48
50.0
100
AcDbLine
 10
14133.54992349218
 20
4428.112805903256
 30
0.0
 11
14133.54992349219
 21
2338.112805903258
 31
0.0
  0
LINE
  5
1436F
330
747D
100
AcDbEntity
  8
細線
 48
50.0
100
AcDbLine
 10
14148.54992349219
 20
4428.112805903256
 30
0.0
 11
14148.54992349219
 21
2338.112805903258
 31
0.0
  0
LINE
  5
14370
330
747D
100
AcDbEntity
  8
細線
 48
50.0
100
AcDbLine
 10
14008.54992349219
 20
4428.112805903256
 30
0.0
 11
14008.54992349219
 21
2338.112805903258
 31
0.0
  0
LINE
  5
14371
330
747D
100
AcDbEntity
  8
細線
 48
50.0
100
AcDbLine
 10
13993.54992349219
 20
4428.112805903256
 30
0.0
 11
13993.54992349219
 21
2338.112805903258
 31
0.0
  0
LINE
  5
14372
330
747D
100
AcDbEntity
  8
細線
 48
50.0
100
AcDbLine
 10
13853.54992349219
 20
4428.112805903256
 30
0.0
 11
13853.54992349219
 21
2338.112805903258
 31
0.0
  0
LINE
  5
14373
330
747D
100
AcDbEntity
  8
細線
 48
50.0
100
AcDbLine
 10
13868.54992349219
 20
4428.112805903256
 30
0.0
 11
13868.54992349219
 21
2338.112805903258
 31
0.0
  0
LINE
  5
14374
330
747D
100
AcDbEntity
  8
部品1
100
AcDbLine
 10
13791.04992349218
 20
4428.112805903256
 30
0.0
 11
13791.04992349218
 21
2338.112805903258
 31
0.0
  0
DIMENSION
  5
14375
330
747D
100
AcDbEntity
  8
寸法
 48
50.0
100
AcDbDimension
  2
*D17
 10
11015.44151672381
 20
4537.458064776588
 30
0.0
 11
11026.10699198274
 21
4908.304728018286
 31
0.0
 70
   161
 71
     5
 42
141.0
  3
INABA_S40G
100
AcDbAlignedDimension
 13
11595.44594365077
 23
4661.835554737936
 33
0.0
 14
11591.39248809414
 24
4520.893830972223
 34
0.0
1001
ACAD
1000
DSTYLE
1002
{
1070
   174
1070
     0
1070
   272
1070
     1
1070
   288
1070
     0
1070
   341
1005
0
1002
}
  0
LINE
  5
14376
330
747D
100
AcDbEntity
  8
細線
 48
50.0
100
AcDbLine
 10
14553.54992349219
 20
4428.112805903258
 30
0.0
 11
14553.54992349219
 21
2338.112805903258
 31
0.0
  0
LINE
  5
14377
330
747D
100
AcDbEntity
  8
細線
 48
50.0
100
AcDbLine
 10
14568.54992349219
 20
4428.112805903258
 30
0.0
 11
14568.54992349219
 21
2338.112805903258
 31
0.0
  0
LINE
  5
14378
330
747D
100
AcDbEntity
  8
細線
 48
50.0
100
AcDbLine
 10
14428.54992349219
 20
4428.112805903258
 30
0.0
 11
14428.54992349219
 21
2338.112805903258
 31
0.0
  0
LINE
  5
14379
330
747D
100
AcDbEntity
  8
細線
 48
50.0
100
AcDbLine
 10
14413.54992349219
 20
4428.112805903258
 30
0.0
 11
14413.54992349219
 21
2338.112805903258
 31
0.0
  0
LINE
  5
1437A
330
747D
100
AcDbEntity
  8
細線
 48
50.0
100
AcDbLine
 10
14273.54992349219
 20
4428.112805903258
 30
0.0
 11
14273.54992349219
 21
2338.112805903258
 31
0.0
  0
LINE
  5
1437B
330
747D
100
AcDbEntity
  8
細線
 48
50.0
100
AcDbLine
 10
14288.54992349219
 20
4428.112805903258
 30
0.0
 11
14288.54992349219
 21
2338.112805903258
 31
0.0
  0
LINE
  5
1437C
330
747D
100
AcDbEntity
  8
部品1
100
AcDbLine
 10
12951.04992349219
 20
4428.112805903256
 30
0.0
 11
12951.04992349219
 21
2338.112805903256
 31
0.0
  0
LINE
  5
1437D
330
747D
100
AcDbEntity
  8
細線
 48
50.0
100
AcDbLine
 10
12608.54992349219
 20
4428.112805903256
 30
0.0
 11
12608.54992349219
 21
2338.112805903256
 31
0.0
  0
LINE
  5
1437E
330
747D
100
AcDbEntity
  8
細線
 48
50.0
100
AcDbLine
 10
12593.54992349219
 20
4428.112805903256
 30
0.0
 11
12593.54992349219
 21
2338.112805903256
 31
0.0
  0
LINE
  5
1437F
330
747D
100
AcDbEntity
  8
細線
 48
50.0
100
AcDbLine
 10
12733.54992349219
 20
4428.112805903256
 30
0.0
 11
12733.54992349219
 21
2338.112805903256
 31
0.0
  0
LINE
  5
14380
330
747D
100
AcDbEntity
  8
細線
 48
50.0
100
AcDbLine
 10
12748.54992349219
 20
4428.112805903256
 30
0.0
 11
12748.54992349219
 21
2338.112805903256
 31
0.0
  0
LINE
  5
14381
330
747D
100
AcDbEntity
  8
細線
 48
50.0
100
AcDbLine
 10
12888.54992349219
 20
4428.112805903256
 30
0.0
 11
12888.54992349219
 21
2338.112805903256
 31
0.0
  0
LINE
  5
14382
330
747D
100
AcDbEntity
  8
細線
 48
50.0
100
AcDbLine
 10
12873.54992349219
 20
4428.112805903256
 30
0.0
 11
12873.54992349219
 21
2338.112805903256
 31
0.0
  0
LINE
  5
14383
330
747D
100
AcDbEntity
  8
部品1
100
AcDbLine
 10
12531.04992349219
 20
4428.112805903256
 30
0.0
 11
12531.04992349219
 21
2338.112805903256
 31
0.0
  0
DIMENSION
  5
14384
330
747D
100
AcDbEntity
  8
寸法
 48
50.0
100
AcDbDimension
  2
*D18
 10
14766.04992349219
 20
5061.770259482562
 30
0.0
 11
14972.09716758668
 21
5061.770259482562
 31
0.0
 70
   160
 71
     5
 42
80.0
  3
INABA_S40G
100
AcDbAlignedDimension
 13
14686.04992349218
 23
4609.923485514911
 33
0.0
 14
14766.04992349219
 24
4608.112805903259
 34
0.0
100
AcDbRotatedDimension
1001
ACAD
1000
DSTYLE
1002
{
1070
   174
1070
     0
1070
   272
1070
     1
1070
   288
1070
     0
1070
   341
1005
0
1002
}
  0
LINE
  5
14385
330
747D
100
AcDbEntity
  8
細線
 48
50.0
100
AcDbLine
 10
11768.54992349219
 20
4428.112805903256
 30
0.0
 11
11768.54992349219
 21
2338.112805903256
 31
0.0
  0
LINE
  5
14386
330
747D
100
AcDbEntity
  8
細線
 48
50.0
100
AcDbLine
 10
11753.54992349219
 20
4428.112805903256
 30
0.0
 11
11753.54992349219
 21
2338.112805903256
 31
0.0
  0
LINE
  5
14387
330
747D
100
AcDbEntity
  8
細線
 48
50.0
100
AcDbLine
 10
11893.54992349219
 20
4428.112805903256
 30
0.0
 11
11893.54992349219
 21
2338.112805903256
 31
0.0
  0
LINE
  5
14388
330
747D
100
AcDbEntity
  8
細線
 48
50.0
100
AcDbLine
 10
11908.54992349219
 20
4428.112805903256
 30
0.0
 11
11908.54992349219
 21
2338.112805903256
 31
0.0
  0
LINE
  5
14389
330
747D
100
AcDbEntity
  8
細線
 48
50.0
100
AcDbLine
 10
12048.54992349219
 20
4428.112805903256
 30
0.0
 11
12048.54992349219
 21
2338.112805903256
 31
0.0
  0
LINE
  5
1438A
330
747D
100
AcDbEntity
  8
細線
 48
50.0
100
AcDbLine
 10
12033.54992349219
 20
4428.112805903256
 30
0.0
 11
12033.54992349219
 21
2338.112805903256
 31
0.0
  0
LINE
  5
1438B
330
747D
100
AcDbEntity
  8
細線
 48
50.0
100
AcDbLine
 10
12453.54992349219
 20
4428.112805903256
 30
0.0
 11
12453.54992349219
 21
2338.112805903256
 31
0.0
  0
LINE
  5
1438C
330
747D
100
AcDbEntity
  8
細線
 48
50.0
100
AcDbLine
 10
12468.54992349219
 20
4428.112805903256
 30
0.0
 11
12468.54992349219
 21
2338.112805903256
 31
0.0
  0
LINE
  5
1438D
330
747D
100
AcDbEntity
  8
細線
 48
50.0
100
AcDbLine
 10
12328.54992349219
 20
4428.112805903256
 30
0.0
 11
12328.54992349219
 21
2338.112805903256
 31
0.0
  0
LINE
  5
1438E
330
747D
100
AcDbEntity
  8
細線
 48
50.0
100
AcDbLine
 10
12313.54992349219
 20
4428.112805903256
 30
0.0
 11
12313.54992349219
 21
2338.112805903256
 31
0.0
  0
LINE
  5
1438F
330
747D
100
AcDbEntity
  8
細線
 48
50.0
100
AcDbLine
 10
12173.54992349219
 20
4428.112805903256
 30
0.0
 11
12173.54992349219
 21
2338.112805903256
 31
0.0
  0
LINE
  5
14390
330
747D
100
AcDbEntity
  8
細線
 48
50.0
100
AcDbLine
 10
12188.54992349219
 20
4428.112805903256
 30
0.0
 11
12188.54992349219
 21
2338.112805903256
 31
0.0
  0
LINE
  5
14391
330
747D
100
AcDbEntity
  8
部品1
100
AcDbLine
 10
11636.04992349219
 20
2288.112805903256
 30
0.0
 11
14686.04992349218
 21
2288.112805903256
 31
0.0
  0
DIMENSION
  5
14392
330
747D
100
AcDbEntity
  8
寸法
 48
50.0
100
AcDbDimension
  2
*D19
 10
11576.04992349219
 20
5291.883852268838
 30
0.0
 11
13247.75572980172
 21
5291.883852268838
 31
0.0
 70
   160
 71
     5
 42
3189.999999999996
  3
INABA_S40G
100
AcDbAlignedDimension
 13
14766.04992349219
 23
4608.112805903258
 33
0.0
 14
11576.04992349219
 24
4663.112805903261
 34
0.0
100
AcDbRotatedDimension
1001
ACAD
1000
DSTYLE
1002
{
1070
   174
1070
     0
1070
   272
1070
     1
1070
   288
1070
     0
1070
   341
1005
0
1002
}
  0
DIMENSION
  5
14393
330
747D
100
AcDbEntity
  8
寸法
 48
50.0
100
AcDbDimension
  2
*D20
 10
11576.04992349219
 20
5061.77025948256
 30
0.0
 11
11266.4121282166
 21
5061.77025948256
 31
0.0
 70
   160
 71
     5
 42
60.0
  3
INABA_S40G
100
AcDbAlignedDimension
 13
11636.04992349219
 23
4659.114424026233
 33
0.0
 14
11576.04992349219
 24
4663.112805903261
 34
0.0
100
AcDbRotatedDimension
1001
ACAD
1000
DSTYLE
1002
{
1070
   174
1070
     0
1070
   272
1070
     1
1070
   288
1070
     0
1070
   341
1005
0
1002
}
  0
DIMENSION
  5
14394
330
747D
100
AcDbEntity
  8
寸法
 48
50.0
100
AcDbDimension
  2
*D21
 10
11636.04992349219
 20
5061.770259482562
 30
0.0
 11
13206.1082980516
 21
5061.770259482562
 31
0.0
 70
   160
  1
柱外寸法<>
 71
     5
 42
3049.999999999997
  3
INABA_S40G
100
AcDbAlignedDimension
 13
14686.04992349218
 23
4609.923485514911
 33
0.0
 14
11636.04992349219
 24
4659.114424026233
 34
0.0
100
AcDbRotatedDimension
1001
ACAD
1000
DSTYLE
1002
{
1070
   174
1070
     0
1070
   272
1070
     1
1070
   288
1070
     0
1070
   341
1005
0
1002
}
  0
LINE
  5
14395
330
747D
100
AcDbEntity
  8
部品1
100
AcDbLine
 10
14631.04992349219
 20
4428.112805903258
 30
0.0
 11
14631.04992349219
 21
2338.112805903258
 31
0.0
  0
LINE
  5
14396
330
747D
100
AcDbEntity
  8
部品1
100
AcDbLine
 10
14686.04992349218
 20
4482.542833684377
 30
0.0
 11
14686.04992349219
 21
2188.112805903258
 31
0.0
  0
LINE
  5
14397
330
747D
100
AcDbEntity
  8
部品1
100
AcDbLine
 10
12111.04992349219
 20
4428.112805903256
 30
0.0
 11
12111.04992349219
 21
2338.112805903256
 31
0.0
  0
DIMENSION
  5
14398
330
747D
100
AcDbEntity
  8
寸法
100
AcDbDimension
  2
*D22
 10
10792.29979430893
 20
2288.112805903252
 30
0.0
 11
10792.29979430893
 21
1982.065561808761
 31
0.0
 70
   160
 71
     5
 42
50.00000000000454
  3
INABA_S40G
100
AcDbAlignedDimension
 13
11636.04992349219
 23
2338.112805903256
 33
0.0
 14
11559.04992349219
 24
2288.112805903252
 34
0.0
 50
90.0
100
AcDbRotatedDimension
1001
ACAD
1000
DSTYLE
1002
{
1070
   174
1070
     0
1070
   272
1070
     1
1070
   288
1070
     0
1070
   341
1005
0
1002
}
  0
LINE
  5
14399
330
747D
100
AcDbEntity
  8
部品1
100
AcDbLine
 10
11636.04992349219
 20
4520.255243832134
 30
0.0
 11
11636.04992349219
 21
2188.112805903256
 31
0.0
  0
LINE
  5
1439A
330
747D
100
AcDbEntity
  8
部品1
100
AcDbLine
 10
11691.04992349219
 20
4428.112805903256
 30
0.0
 11
11691.04992349219
 21
2338.112805903256
 31
0.0
  0
LINE
  5
1439B
330
747D
100
AcDbEntity
  8
部品1
100
AcDbLine
 10
11636.04992349219
 20
2338.112805903256
 30
0.0
 11
14686.04992349219
 21
2338.112805903258
 31
0.0
  0
LINE
  5
1439C
330
747D
100
AcDbEntity
  8
部品1
100
AcDbLine
 10
11636.04992349219
 20
4428.112805903256
 30
0.0
 11
14686.04992349218
 21
4428.112805903256
 31
0.0
  0
LINE
  5
1439D
330
747D
100
AcDbEntity
  8
部品1
100
AcDbLine
 10
14631.04992349218
 20
4428.11280590326
 30
0.0
 11
14631.04992349218
 21
2338.11280590326
 31
0.0
  0
LINE
  5
1439E
330
747D
100
AcDbEntity
  8
細線
 48
50.0
100
AcDbLine
 10
13293.54992349219
 20
4428.112805903256
 30
0.0
 11
13293.54992349219
 21
2338.112805903256
 31
0.0
  0
LINE
  5
1439F
330
747D
100
AcDbEntity
  8
細線
 48
50.0
100
AcDbLine
 10
13308.54992349219
 20
4428.112805903256
 30
0.0
 11
13308.54992349219
 21
2338.112805903256
 31
0.0
  0
LINE
  5
143A0
330
747D
100
AcDbEntity
  8
細線
 48
50.0
100
AcDbLine
 10
13168.54992349219
 20
4428.112805903256
 30
0.0
 11
13168.54992349219
 21
2338.112805903256
 31
0.0
  0
LINE
  5
143A1
330
747D
100
AcDbEntity
  8
細線
 48
50.0
100
AcDbLine
 10
13153.54992349219
 20
4428.112805903256
 30
0.0
 11
13153.54992349219
 21
2338.112805903256
 31
0.0
  0
LINE
  5
143A2
330
747D
100
AcDbEntity
  8
細線
 48
50.0
100
AcDbLine
 10
13013.54992349219
 20
4428.112805903256
 30
0.0
 11
13013.54992349219
 21
2338.112805903256
 31
0.0
  0
LINE
  5
143A3
330
747D
100
AcDbEntity
  8
細線
 48
50.0
100
AcDbLine
 10
13028.54992349219
 20
4428.112805903256
 30
0.0
 11
13028.54992349219
 21
2338.112805903256
 31
0.0
  0
TEXT
  5
143A4
330
747D
100
AcDbEntity
  8
部品1
 48
50.0
100
AcDbText
 10
13505.91906754756
 20
4685.381898841563
 30
0.0
 40
120.0
  1
32
 50
90.0
  7
STYLE1
100
AcDbText
  0
TEXT
  5
143A5
330
747D
100
AcDbEntity
  8
部品1
 48
50.0
100
AcDbText
 10
13028.28604488247
 20
4822.883157059846
 30
0.0
 40
120.0
  1
1000
  7
STYLE1
100
AcDbText
  0
LINE
  5
143A6
330
747D
100
AcDbEntity
  8
部品1
 48
50.0
100
AcDbLine
 10
13340.01820965874
 20
4786.999134907413
 30
0.0
 11
13340.01820965874
 21
4770.799134907413
 31
0.0
  0
LINE
  5
143A7
330
747D
100
AcDbEntity
  8
部品1
 48
50.0
100
AcDbLine
 10
13040.01820965874
 20
4786.999134907413
 30
0.0
 11
13340.01820965874
 21
4786.999134907413
 31
0.0
  0
LINE
  5
143A8
330
747D
100
AcDbEntity
  8
部品1
100
AcDbLine
 10
11583.59490984915
 20
4661.830541237523
 30
0.0
 11
14758.66180035366
 21
4606.753603612395
 31
0.0
  0
LINE
  5
143A9
330
747D
100
AcDbEntity
  8
部品1
100
AcDbLine
 10
11591.39248809414
 20
4520.893830972223
 30
0.0
 11
14740.71362403204
 21
4481.865405738018
 31
0.0
  0
LINE
  5
143AA
330
747D
100
AcDbEntity
  8
細線
 48
50.0
100
AcDbLine
 10
11609.04992349219
 20
4660.512482278661
 30
0.0
 11
11603.76082193668
 21
4520.426849651307
 31
0.0
  0
LINE
  5
143AB
330
747D
100
AcDbEntity
  8
細線
 48
50.0
100
AcDbLine
 10
14733.01920668588
 20
4607.266228382726
 30
0.0
 11
14728.30224060419
 21
4482.334012447809
 31
0.0
  0
LINE
  5
143AC
330
747D
100
AcDbEntity
  8
部品1
 48
50.0
100
AcDbLine
 10
11576.2342094053
 20
4654.706352067949
 30
0.0
 11
11576.61446918311
 21
4634.779387621537
 31
0.0
  0
LINE
  5
143AD
330
747D
100
AcDbEntity
  8
部品1
 48
50.0
100
AcDbLine
 10
11579.68324128936
 20
4631.204106128065
 30
0.0
 11
11581.38714278072
 21
4541.913609421418
 31
0.0
  0
LINE
  5
143AE
330
747D
100
AcDbEntity
  8
細線
 48
50.0
100
AcDbLine
 10
11577.089346593
 20
4634.129887744617
 30
0.0
 11
14762.72533133817
 21
4578.50568310379
 31
0.0
  0
LINE
  5
143AF
330
747D
100
AcDbEntity
  8
細線
 48
50.0
100
AcDbLine
 10
11581.84982183029
 20
4541.268376046754
 30
0.0
 11
14751.85348626093
 21
4501.459057072261
 31
0.0
  0
LINE
  5
143B0
330
747D
100
AcDbEntity
  8
部品1
 48
50.0
100
AcDbLine
 10
11584.45591488696
 20
4538.338327927946
 30
0.0
 11
11584.65786750739
 21
4527.755292534854
 31
0.0
  0
ARC
  5
143B1
330
747D
100
AcDbEntity
  8
部品1
 48
50.0
100
AcDbCircle
 10
11583.23293523364
 20
4654.839906475376
 30
0.0
 40
7.0
100
AcDbArc
 50
87.03587545283228
 51
181.0932240293156
  0
ARC
  5
143B2
330
747D
100
AcDbEntity
  8
部品1
 48
50.0
100
AcDbCircle
 10
11591.65659333573
 20
4527.888846942281
 30
0.0
 40
7.0
100
AcDbArc
 50
181.0932240293156
 51
267.8377559869492
  0
ARC
  5
143B3
330
747D
100
AcDbEntity
  8
部品1
100
AcDbCircle
 10
11581.45646096053
 20
4538.281090324763
 30
0.0
 40
3.0
100
AcDbArc
 50
1.093224029315636
 51
80.18775403169875
  0
ARC
  5
143B4
330
747D
100
AcDbEntity
  8
部品1
100
AcDbCircle
 10
11576.68378736292
 20
4631.146868524882
 30
0.0
 40
3.0
100
AcDbArc
 50
1.093224029315636
 51
80.18775403169875
  0
ARC
  5
143B5
330
747D
100
AcDbEntity
  8
部品1
100
AcDbCircle
 10
11577.31434176595
 20
4634.79274306228
 30
0.0
 40
0.7
100
AcDbArc
 50
181.0932240292114
 51
260.1877540314845
  0
ARC
  5
143B6
330
747D
100
AcDbEntity
  8
部品1
100
AcDbCircle
 10
11582.08701536356
 20
4541.92696486216
 30
0.0
 40
0.7
100
AcDbArc
 50
181.0932240292635
 51
260.1877540314845
  0
LINE
  5
143B7
330
747D
100
AcDbEntity
  8
部品1
 48
50.0
100
AcDbLine
 10
14765.26382630289
 20
4599.053958177475
 30
0.0
 11
14763.23320511192
 21
4579.108916919696
 31
0.0
  0
LINE
  5
143B8
330
747D
100
AcDbEntity
  8
部品1
 48
50.0
100
AcDbLine
 10
14759.88063862744
 20
4575.798282846786
 30
0.0
 11
14752.37385936261
 21
4502.065662101774
 31
0.0
  0
LINE
  5
143B9
330
747D
100
AcDbEntity
  8
部品1
 48
50.0
100
AcDbLine
 10
14749.02129287812
 20
4498.755028028862
 30
0.0
 11
14747.94172983838
 21
4488.151411035303
 31
0.0
  0
ARC
  5
143BA
330
747D
100
AcDbEntity
  8
部品1
 48
50.0
100
AcDbCircle
 10
14758.29982573814
 20
4599.76296885025
 30
0.0
 40
7.0
100
AcDbArc
 50
354.1866997665532
 51
87.03587545283228
  0
ARC
  5
143BB
330
747D
100
AcDbEntity
  8
部品1
 48
50.0
100
AcDbCircle
 10
14740.97772927362
 20
4488.860421708078
 30
0.0
 40
7.0
100
AcDbArc
 50
267.8377559869492
 51
354.1866997665532
  0
ARC
  5
143BC
330
747D
100
AcDbEntity
  8
部品1
100
AcDbCircle
 10
14752.00586454873
 20
4498.451166311959
 30
0.0
 40
3.0
100
AcDbArc
 50
95.09216976420788
 51
174.1866997665532
  0
ARC
  5
143BD
330
747D
100
AcDbEntity
  8
部品1
100
AcDbCircle
 10
14762.86521029805
 20
4575.494421129883
 30
0.0
 40
3.0
100
AcDbArc
 50
95.09216976420788
 51
174.1866997665532
  0
ARC
  5
143BE
330
747D
100
AcDbEntity
  8
部品1
100
AcDbCircle
 10
14762.53680505545
 20
4579.179817986973
 30
0.0
 40
0.7
100
AcDbArc
 50
275.0921697642079
 51
354.1866997665532
  0
ARC
  5
143BF
330
747D
100
AcDbEntity
  8
部品1
100
AcDbCircle
 10
14751.67745930613
 20
4502.13656316905
 30
0.0
 40
0.7
100
AcDbArc
 50
275.0921697642079
 51
354.1866997667087
  0
LINE
  5
143C0
330
747D
100
AcDbEntity
  8
部品1
100
AcDbLine
 10
13014.5631960157
 20
4788.317193866275
 30
0.0
 11
13340.01820965874
 21
4770.799134907413
 31
0.0
  0
LINE
  5
143C1
330
747D
100
AcDbEntity
  8
部品1
100
AcDbLine
 10
13371.04992349219
 20
4428.112805903256
 30
0.0
 11
13371.04992349219
 21
2338.112805903258
 31
0.0
  0
LINE
  5
143C2
330
747D
100
AcDbEntity
  8
細線
 48
50.0
100
AcDbLine
 10
13448.54992349219
 20
4428.112805903256
 30
0.0
 11
13448.54992349219
 21
2338.112805903258
 31
0.0
  0
LINE
  5
143C3
330
747D
100
AcDbEntity
  8
細線
 48
50.0
100
AcDbLine
 10
13433.54992349219
 20
4428.112805903256
 30
0.0
 11
13433.54992349219
 21
2338.112805903258
 31
0.0
  0
LINE
  5
143C4
330
747D
100
AcDbEntity
  8
細線
 48
50.0
100
AcDbLine
 10
13573.54992349219
 20
4428.112805903256
 30
0.0
 11
13573.54992349219
 21
2338.112805903258
 31
0.0
  0
LINE
  5
143C5
330
747D
100
AcDbEntity
  8
細線
 48
50.0
100
AcDbLine
 10
13588.54992349219
 20
4428.112805903256
 30
0.0
 11
13588.54992349219
 21
2338.112805903258
 31
0.0
  0
LINE
  5
143C6
330
747D
100
AcDbEntity
  8
細線
 48
50.0
100
AcDbLine
 10
13728.54992349219
 20
4428.112805903256
 30
0.0
 11
13728.54992349219
 21
2338.112805903258
 31
0.0
  0
LINE
  5
143C7
330
747D
100
AcDbEntity
  8
細線
 48
50.0
100
AcDbLine
 10
13713.54992349219
 20
4428.112805903256
 30
0.0
 11
13713.54992349219
 21
2338.112805903258
 31
0.0
  0
DIMENSION
  5
143C8
330
747D
100
AcDbEntity
  8
寸法
100
AcDbDimension
  2
*D23
 10
15390.97708146432
 20
4608.112805903258
 30
0.0
 11
15290.96527044069
 21
3448.112805903261
 31
0.0
 70
    32
 71
     5
 42
2320.000000000001
  3
INABA_S40G
100
AcDbAlignedDimension
 13
14686.04992349219
 23
2288.112805903258
 33
0.0
 14
14766.04992349219
 24
4608.112805903258
 34
0.0
 50
90.0
100
AcDbRotatedDimension
1001
ACAD
1000
DSTYLE
1002
{
1070
   174
1070
     0
1070
   272
1070
     1
1070
   288
1070
     0
1070
   341
1005
0
1002
}
  0
DIMENSION
  5
143C9
330
747D
100
AcDbEntity
  8
寸法
100
AcDbDimension
  2
*D24
 10
10492.29979430893
 20
4663.112805903256
 30
0.0
 11
10392.28798328531
 21
3475.612805903256
 31
0.0
 70
    32
 71
     5
 42
2375.000000000005
  3
INABA_S40G
100
AcDbAlignedDimension
 13
11559.04992349219
 23
2288.112805903252
 33
0.0
 14
11576.04992349219
 24
4663.112805903256
 34
0.0
 50
90.0
100
AcDbRotatedDimension
1001
ACAD
1000
DSTYLE
1002
{
1070
   174
1070
     0
1070
   272
1070
     1
1070
   288
1070
     0
1070
   341
1005
0
1002
}
  0
DIMENSION
  5
143CA
330
747D
100
AcDbEntity
  8
寸法
100
AcDbDimension
  2
*D25
 10
10792.29979430893
 20
2338.112805903252
 30
0.0
 11
10692.28798328531
 21
3383.112805903254
 31
0.0
 70
    32
 71
     5
 42
2090.000000000001
  3
INABA_S40G
100
AcDbAlignedDimension
 13
11636.04992349219
 23
4428.112805903253
 33
0.0
 14
11636.04992349219
 24
2338.112805903252
 34
0.0
 50
90.0
100
AcDbRotatedDimension
1001
ACAD
1000
DSTYLE
1002
{
1070
   174
1070
     0
1070
   272
1070
     1
1070
   288
1070
     0
1070
   341
1005
0
1002
}
  0
LWPOLYLINE
  5
143CB
330
747D
100
AcDbEntity
  8
部品1
100
AcDbPolyline
 90
        4
 70
     1
 43
0.0
 10
12789.31459037797
 20
1862.751840551128
 10
12789.31459037797
 20
1622.859519005596
 10
13552.78525660641
 20
1622.859519005596
 10
13552.78525660641
 20
1862.751840551128
  0
TEXT
  5
143CC
330
747D
100
AcDbEntity
  8
部品1
100
AcDbText
 10
12878.76069180158
 20
1669.858311332604
 30
0.0
 40
135.0
  1
側面図
  7
STYLE2
100
AcDbText
  0
DIMENSION
  5
143CD
330
747D
100
AcDbEntity
  8
寸法
 48
50.0
100
AcDbDimension
  2
*D26
 10
11091.14128209493
 20
2354.112805903257
 30
0.0
 11
10999.12947107131
 21
3366.612805903259
 31
0.0
 70
    32
  1
有効開口部高サ<>
 71
     5
 42
2025.0
  3
INABA_S40
100
AcDbAlignedDimension
 13
11559.04992349219
 23
4379.112805903257
 33
0.0
 14
11559.04992349219
 24
2354.112805903256
 34
0.0
 50
90.0
100
AcDbRotatedDimension
1001
ACAD
1000
DSTYLE
1002
{
1070
    41
1040
0.5
1070
    44
1040
1.0
1070
   147
1040
0.8
1070
   271
1070
     2
1070
   272
1070
     2
1070
   289
1070
     3
1070
   340
1005
F706
1070
   343
1005
F744
1070
   344
1005
F744
1002
}
  0
LINE
  5
143CE
330
747D
100
AcDbEntity
  8
部品1
100
AcDbLine
 10
11559.04992349219
 20
4413.799910811658
 30
0.0
 11
11559.04992349219
 21
2188.112805903256
 31
0.0
  0
LINE
  5
143CF
330
747D
100
AcDbEntity
  8
部品1
100
AcDbLine
 10
11559.04992349219
 20
4413.799910811658
 30
0.0
 11
11636.04992349219
 21
4428.112805903256
 31
0.0
  0
LINE
  5
143D0
330
747D
100
AcDbEntity
  8
部品1
100
AcDbLine
 10
11636.04992349219
 20
2288.112805903256
 30
0.0
 11
11559.04992349219
 21
2288.112805903256
 31
0.0
  0
LINE
  5
14877
330
747D
100
AcDbEntity
  8
寸法
 48
50.0
100
AcDbLine
 10
3409.89852163037
 20
7057.721597937268
 30
0.0
 11
3358.492513720266
 21
7057.721597937268
 31
0.0
  0
LINE
  5
14878
330
747D
100
AcDbEntity
  8
寸法
 48
50.0
100
AcDbLine
 10
3358.492513720266
 20
7057.721597937268
 30
0.0
 11
3358.492513720266
 21
7089.031756589434
 31
0.0
  0
LINE
  5
14879
330
747D
100
AcDbEntity
  8
寸法
 48
50.0
100
AcDbLine
 10
3358.492513720266
 20
7089.031756589434
 30
0.0
 11
3328.731181728843
 21
7089.031756589434
 31
0.0
  0
LINE
  5
1487A
330
747D
100
AcDbEntity
  8
寸法
 48
50.0
100
AcDbLine
 10
3328.731181728843
 20
7089.031756589434
 30
0.0
 11
3384.195517675318
 21
7126.611207518044
 31
0.0
  0
LINE
  5
1487B
330
747D
100
AcDbEntity
  8
寸法
 48
50.0
100
AcDbLine
 10
3439.659853621794
 20
7089.031756589434
 30
0.0
 11
3384.195517675318
 21
7126.611207518044
 31
0.0
  0
LINE
  5
1487C
330
747D
100
AcDbEntity
  8
寸法
 48
50.0
100
AcDbLine
 10
3409.89852163037
 20
7089.031756589434
 30
0.0
 11
3439.659853621794
 21
7089.031756589434
 31
0.0
  0
LINE
  5
1487D
330
747D
100
AcDbEntity
  8
寸法
 48
50.0
100
AcDbLine
 10
3409.89852163037
 20
7057.721597937268
 30
0.0
 11
3409.89852163037
 21
7089.031756589434
 31
0.0
  0
LINE
  5
1487E
330
747D
100
AcDbEntity
  8
寸法
 48
50.0
100
AcDbLine
 10
3358.492513720266
 20
7057.721597937268
 30
0.0
 11
3409.89852163037
 21
7057.721597937268
 31
0.0
  0
LINE
  5
1487F
330
747D
100
AcDbEntity
  8
寸法
 48
50.0
100
AcDbLine
 10
3689.064055907227
 20
7114.867188692091
 30
0.0
 11
3689.064055907227
 21
7061.203554110301
 31
0.0
  0
LINE
  5
14880
330
747D
100
AcDbEntity
  8
寸法
 48
50.0
100
AcDbLine
 10
3778.348274502649
 20
7090.943554422605
 30
0.0
 11
3689.064055907227
 21
7114.867188692091
 31
0.0
  0
LINE
  5
14881
330
747D
100
AcDbEntity
  8
寸法
 48
50.0
100
AcDbLine
 10
3559.196334326923
 20
7090.943554422605
 30
0.0
 11
3778.348274502649
 21
7090.943554422605
 31
0.0
  0
LINE
  5
14882
330
747D
100
AcDbEntity
  8
細線
 48
50.0
100
AcDbLine
 10
4435.695515348529
 20
7256.18496131713
 30
0.0
 11
5062.695515348526
 21
7256.18496131713
 31
0.0
  0
LINE
  5
14883
330
747D
100
AcDbEntity
  8
細線
 48
50.0
100
AcDbLine
 10
3781.695520002115
 20
7222.476192763055
 30
0.0
 11
5062.695515348526
 21
7222.476192763055
 31
0.0
  0
LINE
  5
14884
330
747D
100
AcDbEntity
  8
細線
 48
50.0
100
AcDbLine
 10
3740.695520002119
 20
7251.881100759309
 30
0.0
 11
2986.695515348525
 21
7251.881100759304
 31
0.0
  0
LINE
  5
14885
330
747D
100
AcDbEntity
  8
細線
100
AcDbLine
 10
4838.445505932069
 20
7275.68486128214
 30
0.0
 11
4840.777045453878
 21
7280.6848639221
 31
0.0
  0
LINE
  5
14886
330
747D
100
AcDbEntity
  8
細線
100
AcDbLine
 10
4908.445515348526
 20
7275.684846368405
 30
0.0
 11
4906.113968872339
 21
7280.684863922086
 31
0.0
  0
LINE
  5
14887
330
747D
100
AcDbEntity
  8
細線
100
AcDbLine
 10
4906.113968872339
 20
7280.684863922086
 30
0.0
 11
4840.777045453863
 21
7280.684863922072
 31
0.0
  0
LINE
  5
14888
330
747D
100
AcDbEntity
  8
細線
100
AcDbLine
 10
4766.113968872338
 20
7280.684863922086
 30
0.0
 11
4700.777045453863
 21
7280.684863922072
 31
0.0
  0
LINE
  5
14889
330
747D
100
AcDbEntity
  8
細線
100
AcDbLine
 10
4768.445515348526
 20
7275.684846368405
 30
0.0
 11
4766.113968872338
 21
7280.684863922086
 31
0.0
  0
LINE
  5
1488A
330
747D
100
AcDbEntity
  8
細線
100
AcDbLine
 10
4698.445505932069
 20
7275.68486128214
 30
0.0
 11
4700.777045453878
 21
7280.6848639221
 31
0.0
  0
LINE
  5
1488B
330
747D
100
AcDbEntity
  8
細線
100
AcDbLine
 10
4558.445515348526
 20
7275.684846368405
 30
0.0
 11
4560.777054870338
 21
7280.684849008366
 31
0.0
  0
LINE
  5
1488C
330
747D
100
AcDbEntity
  8
細線
100
AcDbLine
 10
4628.445524764987
 20
7275.684831454672
 30
0.0
 11
4626.113978288795
 21
7280.684849008352
 31
0.0
  0
LINE
  5
1488D
330
747D
100
AcDbEntity
  8
細線
100
AcDbLine
 10
4626.113978288799
 20
7280.684849008352
 30
0.0
 11
4560.777054870324
 21
7280.684849008338
 31
0.0
  0
LINE
  5
1488E
330
747D
100
AcDbEntity
  8
細線
100
AcDbLine
 10
4330.863999537633
 20
7246.684885705734
 30
0.0
 11
4265.527076119156
 21
7246.68488570572
 31
0.0
  0
LINE
  5
1488F
330
747D
100
AcDbEntity
  8
細線
100
AcDbLine
 10
4333.195546013819
 20
7241.684868152053
 30
0.0
 11
4330.863999537633
 21
7246.684885705734
 31
0.0
  0
LINE
  5
14890
330
747D
100
AcDbEntity
  8
細線
100
AcDbLine
 10
4263.195536597362
 20
7241.684883065786
 30
0.0
 11
4265.527076119171
 21
7246.684885705748
 31
0.0
  0
LINE
  5
14891
330
747D
100
AcDbEntity
  8
細線
 48
50.0
100
AcDbLine
 10
4104.57889459654
 20
7259.955709521486
 30
0.0
 11
4110.334412179207
 21
7241.684858231
 31
0.0
  0
LINE
  5
14892
330
747D
100
AcDbEntity
  8
細線
 48
50.0
100
AcDbLine
 10
4093.650446116109
 20
7259.955709521486
 30
0.0
 11
4104.57889459654
 21
7259.955709521486
 31
0.0
  0
ARC
  5
14893
330
747D
100
AcDbEntity
  8
細線
 48
50.0
100
AcDbCircle
 10
4088.196090058787
 20
7261.455709521486
 30
0.0
 40
5.0
100
AcDbArc
 50
204.6243183521277
 51
335.3756816478722
  0
ARC
  5
14894
330
747D
100
AcDbEntity
  8
細線
 48
50.0
100
AcDbCircle
 10
4093.650446116109
 20
7258.955709521486
 30
0.0
 40
1.0
100
AcDbArc
 50
90.0
 51
155.3756816478722
  0
ARC
  5
14895
330
747D
100
AcDbEntity
  8
細線
 48
50.0
100
AcDbCircle
 10
4082.741734001472
 20
7258.955709521486
 30
0.0
 40
1.0
100
AcDbArc
 50
24.62431835212777
 51
90.0
  0
LINE
  5
14896
330
747D
100
AcDbEntity
  8
細線
 48
50.0
100
AcDbLine
 10
4071.813285521039
 20
7259.955709521486
 30
0.0
 11
4082.741734001472
 21
7259.955709521486
 31
0.0
  0
LINE
  5
14897
330
747D
100
AcDbEntity
  8
細線
 48
50.0
100
AcDbLine
 10
4066.057767938371
 20
7241.684858230993
 30
0.0
 11
4071.813285521039
 21
7259.955709521486
 31
0.0
  0
LINE
  5
14898
330
747D
100
AcDbEntity
  8
細線
100
AcDbLine
 10
4123.195537828403
 20
7241.684855596796
 30
0.0
 11
4125.527077350215
 21
7246.684858236758
 31
0.0
  0
LINE
  5
14899
330
747D
100
AcDbEntity
  8
細線
100
AcDbLine
 10
4193.195547244864
 20
7241.684840683062
 30
0.0
 11
4190.864000768673
 21
7246.684858236744
 31
0.0
  0
LINE
  5
1489A
330
747D
100
AcDbEntity
  8
細線
100
AcDbLine
 10
4190.864000768673
 20
7246.684858236744
 30
0.0
 11
4125.527077350201
 21
7246.684858236729
 31
0.0
  0
LINE
  5
1489B
330
747D
100
AcDbEntity
  8
細線
100
AcDbLine
 10
4050.863972404157
 20
7246.684858230963
 30
0.0
 11
3985.527048985682
 21
7246.684858230948
 31
0.0
  0
LINE
  5
1489C
330
747D
100
AcDbEntity
  8
細線
100
AcDbLine
 10
4053.195518880344
 20
7241.684840677283
 30
0.0
 11
4050.863972404157
 21
7246.684858230963
 31
0.0
  0
LINE
  5
1489D
330
747D
100
AcDbEntity
  8
細線
100
AcDbLine
 10
3983.195510694928
 20
7241.684858230993
 30
0.0
 11
3985.527048985696
 21
7246.684858230977
 31
0.0
  0
LINE
  5
1489E
330
747D
100
AcDbEntity
  8
細線
100
AcDbLine
 10
3843.19554601382
 20
7241.684866418362
 30
0.0
 11
3845.527084304587
 21
7246.684866418347
 31
0.0
  0
LINE
  5
1489F
330
747D
100
AcDbEntity
  8
細線
100
AcDbLine
 10
3913.195554199236
 20
7241.684848864652
 30
0.0
 11
3910.864007723048
 21
7246.684866418329
 31
0.0
  0
LINE
  5
148A0
330
747D
100
AcDbEntity
  8
細線
100
AcDbLine
 10
3910.864007723048
 20
7246.684866418329
 30
0.0
 11
3845.527084304573
 21
7246.684866418319
 31
0.0
  0
LINE
  5
148A1
330
747D
100
AcDbEntity
  8
細線
100
AcDbLine
 10
3471.695511816699
 20
7207.685038099075
 30
0.0
 11
3474.027050107467
 21
7212.68503809906
 31
0.0
  0
LINE
  5
148A2
330
747D
100
AcDbEntity
  8
細線
100
AcDbLine
 10
3541.695520002115
 20
7207.685020545361
 30
0.0
 11
3539.363973525928
 21
7212.685038099038
 31
0.0
  0
LINE
  5
148A3
330
747D
100
AcDbEntity
  8
細線
100
AcDbLine
 10
3539.363973525928
 20
7212.685038099038
 30
0.0
 11
3474.027050107455
 21
7212.685038099031
 31
0.0
  0
LINE
  5
148A4
330
747D
100
AcDbEntity
  8
細線
100
AcDbLine
 10
3679.363973525928
 20
7212.685038099038
 30
0.0
 11
3614.027050107456
 21
7212.685038099031
 31
0.0
  0
LINE
  5
148A5
330
747D
100
AcDbEntity
  8
細線
100
AcDbLine
 10
3681.695520002115
 20
7207.685020545361
 30
0.0
 11
3679.363973525928
 21
7212.685038099038
 31
0.0
  0
LINE
  5
148A6
330
747D
100
AcDbEntity
  8
細線
100
AcDbLine
 10
3611.695511816699
 20
7207.685038099075
 30
0.0
 11
3614.027050107467
 21
7212.68503809906
 31
0.0
  0
LINE
  5
148A7
330
747D
100
AcDbEntity
  8
細線
100
AcDbLine
 10
3399.363973525928
 20
7212.685038099038
 30
0.0
 11
3334.027050107456
 21
7212.685038099028
 31
0.0
  0
LINE
  5
148A8
330
747D
100
AcDbEntity
  8
細線
100
AcDbLine
 10
3401.695520002115
 20
7207.685020545361
 30
0.0
 11
3399.363973525928
 21
7212.685038099038
 31
0.0
  0
LINE
  5
148A9
330
747D
100
AcDbEntity
  8
細線
100
AcDbLine
 10
3331.695511816699
 20
7207.685038099071
 30
0.0
 11
3334.027050107466
 21
7212.685038099056
 31
0.0
  0
LINE
  5
148AA
330
747D
100
AcDbEntity
  8
細線
100
AcDbLine
 10
3191.695520002115
 20
7207.685038099075
 30
0.0
 11
3194.027058292883
 21
7212.68503809906
 31
0.0
  0
LINE
  5
148AB
330
747D
100
AcDbEntity
  8
細線
100
AcDbLine
 10
3261.695528187531
 20
7207.685020545361
 30
0.0
 11
3259.363981711344
 21
7212.685038099038
 31
0.0
  0
LINE
  5
148AC
330
747D
100
AcDbEntity
  8
細線
100
AcDbLine
 10
3259.363981711344
 20
7212.685038099038
 30
0.0
 11
3194.027058292872
 21
7212.685038099031
 31
0.0
  0
ARC
  5
148AD
330
747D
100
AcDbEntity
  8
部品1
 48
0.01
100
AcDbCircle
 10
3147.19540874978
 20
7206.683915914002
 30
0.0
 40
0.5
100
AcDbArc
 50
270.0
 51
0.0
  0
LINE
  5
148AE
330
747D
100
AcDbEntity
  8
部品1
 48
0.01
100
AcDbLine
 10
3147.69540874978
 20
7207.683915914002
 30
0.0
 11
3147.69540874978
 21
7206.683915914002
 31
0.0
  0
LINE
  5
148AF
330
747D
100
AcDbEntity
  8
部品1
 48
0.01
100
AcDbLine
 10
3147.69540874978
 20
7207.683915914002
 30
0.0
 11
3147.69540874978
 21
7206.683915914002
 31
0.0
  0
LINE
  5
148B0
330
747D
100
AcDbEntity
  8
部品1
 48
0.01
100
AcDbLine
 10
3147.19540874978
 20
7206.183915914002
 30
0.0
 11
3140.582903319715
 21
7206.183915914002
 31
0.0
  0
ARC
  5
148B1
330
747D
100
AcDbEntity
  8
部品1
100
AcDbCircle
 10
3140.651252872496
 20
7207.183915914002
 30
0.0
 40
1.0
100
AcDbArc
 50
160.5287793655822
 51
270.0
  0
ARC
  5
148B2
330
747D
100
AcDbEntity
  8
部品1
100
AcDbCircle
 10
3115.19540874978
 20
7216.183915914001
 30
0.0
 40
26.0
100
AcDbArc
 50
340.5287793655822
 51
0.0
  0
LINE
  5
148B3
330
747D
100
AcDbEntity
  8
部品1
100
AcDbLine
 10
3141.19540874978
 20
7216.183915914001
 30
0.0
 11
3141.19540874978
 21
7221.183915914001
 31
0.0
  0
ARC
  5
148B4
330
747D
100
AcDbEntity
  8
部品1
 48
0.01
100
AcDbCircle
 10
3139.19540874978
 20
7221.183915914001
 30
0.0
 40
2.0
100
AcDbArc
 50
0.0
 51
90.0
  0
ARC
  5
148B5
330
747D
100
AcDbEntity
  8
部品1
100
AcDbCircle
 10
3137.58701712497
 20
7220.183915914002
 30
0.0
 40
3.0
100
AcDbArc
 50
90.0
 51
141.6069559807873
  0
LINE
  5
148B6
330
747D
100
AcDbEntity
  8
部品1
 48
0.01
100
AcDbLine
 10
3139.19540874978
 20
7223.183915914002
 30
0.0
 11
3137.58701712497
 21
7223.183915914002
 31
0.0
  0
ARC
  5
148B7
330
747D
100
AcDbEntity
  8
部品1
100
AcDbCircle
 10
3119.124694535509
 20
7219.483915914004
 30
0.0
 40
3.0
100
AcDbArc
 50
254.0576313943215
 51
270.0
  0
ARC
  5
148B8
330
747D
100
AcDbEntity
  8
部品1
100
AcDbCircle
 10
3126.266122964051
 20
7219.483915914004
 30
0.0
 40
3.0
100
AcDbArc
 50
270.0
 51
285.9423686056786
  0
LINE
  5
148B9
330
747D
100
AcDbEntity
  8
部品1
100
AcDbLine
 10
3126.266122964051
 20
7216.483915914004
 30
0.0
 11
3119.124694535509
 21
7216.483915914004
 31
0.0
  0
ARC
  5
148BA
330
747D
100
AcDbEntity
  8
部品1
100
AcDbCircle
 10
3122.69540874978
 20
7231.983915914004
 30
0.0
 40
16.0
100
AcDbArc
 50
285.9423686056786
 51
321.6069559807873
  0
LINE
  5
148BB
330
747D
100
AcDbEntity
  8
部品1
 48
0.01
100
AcDbLine
 10
3106.19540874978
 20
7223.183915914002
 30
0.0
 11
3107.80380037459
 21
7223.183915914002
 31
0.0
  0
ARC
  5
148BC
330
747D
100
AcDbEntity
  8
部品1
100
AcDbCircle
 10
3107.80380037459
 20
7220.183915914002
 30
0.0
 40
3.0
100
AcDbArc
 50
38.39304401921267
 51
90.0
  0
ARC
  5
148BD
330
747D
100
AcDbEntity
  8
部品1
100
AcDbCircle
 10
3122.69540874978
 20
7231.983915914004
 30
0.0
 40
16.0
100
AcDbArc
 50
218.3930440192126
 51
254.0576313943215
  0
LINE
  5
148BE
330
747D
100
AcDbEntity
  8
部品1
100
AcDbLine
 10
3104.19540874978
 20
7216.183915914001
 30
0.0
 11
3104.19540874978
 21
7221.183915914001
 31
0.0
  0
ARC
  5
148BF
330
747D
100
AcDbEntity
  8
部品1
 48
0.01
100
AcDbCircle
 10
3106.19540874978
 20
7221.183915914001
 30
0.0
 40
2.0
100
AcDbArc
 50
90.0
 51
180.0
  0
ARC
  5
148C0
330
747D
100
AcDbEntity
  8
部品1
100
AcDbCircle
 10
3130.19540874978
 20
7216.183915914001
 30
0.0
 40
26.0
100
AcDbArc
 50
180.0
 51
199.4712206344178
  0
ARC
  5
148C1
330
747D
100
AcDbEntity
  8
部品1
 48
0.01
100
AcDbCircle
 10
3098.19540874978
 20
7206.683915914002
 30
0.0
 40
0.5
100
AcDbArc
 50
180.0
 51
270.0
  0
LINE
  5
148C2
330
747D
100
AcDbEntity
  8
部品1
 48
0.01
100
AcDbLine
 10
3098.19540874978
 20
7206.183915914002
 30
0.0
 11
3104.739564627064
 21
7206.183915914002
 31
0.0
  0
LINE
  5
148C3
330
747D
100
AcDbEntity
  8
部品1
 48
0.01
100
AcDbLine
 10
3097.69540874978
 20
7207.683915914002
 30
0.0
 11
3097.69540874978
 21
7206.683915914002
 31
0.0
  0
ARC
  5
148C4
330
747D
100
AcDbEntity
  8
部品1
100
AcDbCircle
 10
3104.739564627064
 20
7207.183915914002
 30
0.0
 40
1.0
100
AcDbArc
 50
270.0
 51
19.4712206344178
  0
LINE
  5
148C5
330
747D
100
AcDbEntity
  8
細線
100
AcDbLine
 10
3143.195408749787
 20
7225.683915914006
 30
0.0
 11
3102.195408749787
 21
7225.683915913998
 31
0.0
  0
LINE
  5
148C6
330
747D
100
AcDbEntity
  8
細線
100
AcDbLine
 10
3102.195408749787
 20
7225.683915913998
 30
0.0
 11
3102.195408749787
 21
7207.683915913979
 31
0.0
  0
LINE
  5
148C7
330
747D
100
AcDbEntity
  8
細線
100
AcDbLine
 10
3143.195408749787
 20
7225.683915914006
 30
0.0
 11
3143.195408749787
 21
7207.683915913979
 31
0.0
  0
LINE
  5
148C8
330
747D
100
AcDbEntity
  8
細線
100
AcDbLine
 10
2986.695515348525
 20
7211.684846368405
 30
0.0
 11
2986.695515348525
 21
7207.684846368453
 31
0.0
  0
DIMENSION
  5
148C9
330
747D
100
AcDbEntity
  8
寸法
 48
50.0
100
AcDbDimension
  2
*D27
 10
4252.695515348525
 20
6528.351678657243
 30
0.0
 11
3626.936250280735
 21
6528.351678657243
 31
0.0
 70
   160
  1
有効開口部間口\P<>
 71
     5
 42
1266.0
  3
INABA_S40
100
AcDbAlignedDimension
 13
2986.695515348525
 23
7202.684846368406
 33
0.0
 14
4252.695515348525
 24
7202.684846368406
 34
0.0
100
AcDbRotatedDimension
1001
ACAD
1000
DSTYLE
1002
{
1070
    41
1040
0.5
1070
    44
1040
1.0
1070
   147
1040
0.8
1070
   271
1070
     2
1070
   272
1070
     2
1070
   289
1070
     3
1070
   340
1005
F706
1070
   343
1005
F744
1070
   344
1005
F744
1002
}
  0
LINE
  5
148CA
330
747D
100
AcDbEntity
  8
部品1
100
AcDbLine
 10
5074.695515348525
 20
7279.684846368404
 30
0.0
 11
5101.695515348525
 21
7279.684846368406
 31
0.0
  0
LINE
  5
148CC
330
747D
100
AcDbEntity
  8
部品1
100
AcDbLine
 10
5101.695515348525
 20
7202.684846368406
 30
0.0
 11
5101.695515348525
 21
7279.684846368406
 31
0.0
  0
LINE
  5
148CD
330
747D
100
AcDbEntity
  8
部品1
100
AcDbLine
 10
5062.695515348526
 20
7275.684846368405
 30
0.0
 11
5074.695515348525
 21
7275.684846368405
 31
0.0
  0
LINE
  5
148CE
330
747D
100
AcDbEntity
  8
部品1
100
AcDbLine
 10
5071.695515348525
 20
7211.684846368405
 30
0.0
 11
5071.695515348525
 21
7202.684846368406
 31
0.0
  0
LINE
  5
148CF
330
747D
100
AcDbEntity
  8
部品1
100
AcDbLine
 10
5062.695515348526
 20
7211.684846368405
 30
0.0
 11
5071.695515348525
 21
7211.684846368405
 31
0.0
  0
LINE
  5
148D0
330
747D
100
AcDbEntity
  8
部品1
100
AcDbLine
 10
5062.695515348526
 20
7275.684846368405
 30
0.0
 11
5062.695515348526
 21
7211.684846368405
 31
0.0
  0
LINE
  5
148D1
330
747D
100
AcDbEntity
  8
部品1
100
AcDbLine
 10
5074.695515348525
 20
7306.684846368407
 30
0.0
 11
5074.695515348525
 21
7275.684846368405
 31
0.0
  0
LINE
  5
148D2
330
747D
100
AcDbEntity
  8
部品1
100
AcDbLine
 10
2986.695515348525
 20
7275.684846368405
 30
0.0
 11
2974.695515348525
 21
7275.684846368405
 31
0.0
  0
LINE
  5
148D3
330
747D
100
AcDbEntity
  8
部品1
100
AcDbLine
 10
2947.695515348525
 20
7279.684846368406
 30
0.0
 11
2974.695515348524
 21
7279.684846368406
 31
0.0
  0
LINE
  5
148D4
330
747D
100
AcDbEntity
  8
部品1
100
AcDbLine
 10
2977.695515348525
 20
7211.684846368405
 30
0.0
 11
2977.695515348525
 21
7202.684846368406
 31
0.0
  0
LINE
  5
148D5
330
747D
100
AcDbEntity
  8
部品1
100
AcDbLine
 10
2986.695515348525
 20
7211.684846368405
 30
0.0
 11
2977.695515348525
 21
7211.684846368405
 31
0.0
  0
LINE
  5
148D6
330
747D
100
AcDbEntity
  8
部品1
100
AcDbLine
 10
2977.695515348525
 20
7202.684846368406
 30
0.0
 11
2947.695515348525
 21
7202.684846368406
 31
0.0
  0
LINE
  5
148D7
330
747D
100
AcDbEntity
  8
部品1
100
AcDbLine
 10
2947.695515348525
 20
7202.684846368406
 30
0.0
 11
2947.695515348525
 21
7279.684846368406
 31
0.0
  0
LINE
  5
148D8
330
747D
100
AcDbEntity
  8
部品1
100
AcDbLine
 10
2986.695515348525
 20
7275.684846368405
 30
0.0
 11
2986.695515348525
 21
7211.684846368405
 31
0.0
  0
LINE
  5
148D9
330
747D
100
AcDbEntity
  8
部品1
100
AcDbLine
 10
2974.695515348524
 20
7306.684846368402
 30
0.0
 11
2974.695515348525
 21
7275.684846368405
 31
0.0
  0
LINE
  5
148DA
330
747D
100
AcDbEntity
  8
部品1
100
AcDbLine
 10
2974.695515348524
 20
7306.684846368402
 30
0.0
 11
5074.695515348525
 21
7306.684846368407
 31
0.0
  0
LINE
  5
148DB
330
747D
100
AcDbEntity
  8
部品1
100
AcDbLine
 10
5071.695515348525
 20
7202.684846368406
 30
0.0
 11
5101.695515348525
 21
7202.684846368406
 31
0.0
  0
LINE
  5
148DC
330
747D
100
AcDbEntity
  8
部品1
100
AcDbLine
 10
2977.695515348525
 20
7202.684846368406
 30
0.0
 11
5074.695515348525
 21
7202.684846368406
 31
0.0
  0
LINE
  5
148DD
330
747D
100
AcDbEntity
  8
細線
  6
Continuous
 62
     5
100
AcDbLine
 10
4353.695515348529
 20
7241.684846368402
 30
0.0
 11
4353.695515348529
 21
7241.684846368402
 31
0.0
  0
LINE
  5
148DE
330
747D
100
AcDbEntity
  8
細線
  6
Continuous
 62
     5
100
AcDbLine
 10
4346.195550667419
 20
7241.68485628946
 30
0.0
 11
4346.195550667419
 21
7241.68485628946
 31
0.0
  0
LINE
  5
148DF
330
747D
100
AcDbEntity
  8
細線
  6
Continuous
 62
     5
100
AcDbLine
 10
4340.19555066742
 20
7241.68485628946
 30
0.0
 11
4340.19555066742
 21
7241.68485628946
 31
0.0
  0
LINE
  5
148E0
330
747D
100
AcDbEntity
  8
細線
  6
Continuous
 62
     5
100
AcDbLine
 10
4407.695515348528
 20
7260.684846368402
 30
0.0
 11
4407.695515348528
 21
7260.684846368402
 31
0.0
  0
LINE
  5
148E1
330
747D
100
AcDbEntity
  8
細線
 48
50.0
100
AcDbLine
 10
3000.695520002119
 20
7228.28502054536
 30
0.0
 11
3000.695520002119
 21
7236.681170953
 31
0.0
  0
LINE
  5
148E2
330
747D
100
AcDbEntity
  8
細線
 48
50.0
100
AcDbLine
 10
3000.695520002119
 20
7236.681170953
 30
0.0
 11
2986.695515348525
 21
7236.681170952995
 31
0.0
  0
LINE
  5
148E3
330
747D
100
AcDbEntity
  8
細線
 48
50.0
100
AcDbLine
 10
3751.695520002115
 20
7224.835020545359
 30
0.0
 11
3751.695520002115
 21
7229.68502054536
 31
0.0
  0
LINE
  5
148E4
330
747D
100
AcDbEntity
  8
細線
 48
50.0
100
AcDbLine
 10
3751.695520002115
 20
7229.68502054536
 30
0.0
 11
3766.695520002115
 21
7229.68502054536
 31
0.0
  0
LINE
  5
148E5
330
747D
100
AcDbEntity
  8
細線
 48
50.0
100
AcDbLine
 10
3766.695520002115
 20
7229.68502054536
 30
0.0
 11
3766.695520002119
 21
7236.685020545362
 31
0.0
  0
LINE
  5
148E6
330
747D
100
AcDbEntity
  8
細線
 48
50.0
100
AcDbLine
 10
3766.695520002119
 20
7236.685020545362
 30
0.0
 11
3781.695520002115
 21
7236.685020545362
 31
0.0
  0
LINE
  5
148E7
330
747D
100
AcDbEntity
  8
細線
 48
50.0
100
AcDbLine
 10
3781.695520002115
 20
7236.685020545362
 30
0.0
 11
3781.695520002115
 21
7207.685020545361
 31
0.0
  0
LINE
  5
148E8
330
747D
100
AcDbEntity
  8
細線
 48
50.0
100
AcDbLine
 10
2977.695515348525
 20
7207.68235488883
 30
0.0
 11
3191.695520002115
 21
7207.685038099075
 31
0.0
  0
LINE
  5
148E9
330
747D
100
AcDbEntity
  8
細線
 48
50.0
100
AcDbLine
 10
3681.695520002115
 20
7207.685020545361
 30
0.0
 11
3781.695520002115
 21
7207.685020545361
 31
0.0
  0
LINE
  5
148EA
330
747D
100
AcDbEntity
  8
細線
 48
50.0
100
AcDbLine
 10
3401.695520002115
 20
7207.685020545361
 30
0.0
 11
3471.695520002115
 21
7207.685020545361
 31
0.0
  0
LINE
  5
148EB
330
747D
100
AcDbEntity
  8
細線
 48
50.0
100
AcDbLine
 10
3414.557485014644
 20
7207.685020545361
 30
0.0
 11
3420.313002597312
 21
7225.955871835854
 31
0.0
  0
LINE
  5
148EC
330
747D
100
AcDbEntity
  8
細線
 48
50.0
100
AcDbLine
 10
3420.313002597312
 20
7225.955871835854
 30
0.0
 11
3431.241451077745
 21
7225.955871835852
 31
0.0
  0
ARC
  5
148ED
330
747D
100
AcDbEntity
  8
細線
 48
50.0
100
AcDbCircle
 10
3431.241451077745
 20
7224.955871835851
 30
0.0
 40
1.0
100
AcDbArc
 50
24.62431835212777
 51
90.0
  0
ARC
  5
148EE
330
747D
100
AcDbEntity
  8
細線
 48
50.0
100
AcDbCircle
 10
3442.150163192378
 20
7224.955871835851
 30
0.0
 40
1.0
100
AcDbArc
 50
90.0
 51
155.3756816478722
  0
ARC
  5
148EF
330
747D
100
AcDbEntity
  8
細線
 48
50.0
100
AcDbCircle
 10
3436.69580713506
 20
7227.455871835852
 30
0.0
 40
5.0
100
AcDbArc
 50
204.6243183521277
 51
335.3756816478722
  0
LINE
  5
148F0
330
747D
100
AcDbEntity
  8
細線
 48
50.0
100
AcDbLine
 10
3442.150163192378
 20
7225.955871835852
 30
0.0
 11
3453.078611672812
 21
7225.955871835854
 31
0.0
  0
LINE
  5
148F1
330
747D
100
AcDbEntity
  8
細線
 48
50.0
100
AcDbLine
 10
3453.078611672812
 20
7225.955871835854
 30
0.0
 11
3458.83412925548
 21
7207.685020545361
 31
0.0
  0
LINE
  5
148F2
330
747D
100
AcDbEntity
  8
細線
 48
50.0
100
AcDbLine
 10
3751.695520002115
 20
7228.28502054536
 30
0.0
 11
3000.695520002119
 21
7228.28502054536
 31
0.0
  0
LINE
  5
148F3
330
747D
100
AcDbEntity
  8
細線
 48
50.0
100
AcDbLine
 10
3611.695520002115
 20
7207.685020545361
 30
0.0
 11
3541.695520002115
 21
7207.685020545361
 31
0.0
  0
LINE
  5
148F4
330
747D
100
AcDbEntity
  8
細線
100
AcDbLine
 10
3331.695520002115
 20
7207.685020545361
 30
0.0
 11
3261.695528187531
 21
7207.685020545361
 31
0.0
  0
LINE
  5
148F5
330
747D
100
AcDbEntity
  8
細線
 48
50.0
100
AcDbLine
 10
4405.695510694939
 20
7262.285064403228
 30
0.0
 11
3770.695520002115
 21
7262.285064403224
 31
0.0
  0
LINE
  5
148F6
330
747D
100
AcDbEntity
  8
細線
 48
50.0
100
AcDbLine
 10
3770.695520002115
 20
7259.181214810867
 30
0.0
 11
3770.695520002115
 21
7263.681214810867
 31
0.0
  0
LINE
  5
148F7
330
747D
100
AcDbEntity
  8
細線
 48
50.0
100
AcDbLine
 10
3770.695520002115
 20
7263.681214810867
 30
0.0
 11
3755.695520002115
 21
7263.681214810867
 31
0.0
  0
LINE
  5
148F8
330
747D
100
AcDbEntity
  8
細線
 48
50.0
100
AcDbLine
 10
3755.695520002115
 20
7263.681214810867
 30
0.0
 11
3755.695520002115
 21
7270.681214810868
 31
0.0
  0
LINE
  5
148F9
330
747D
100
AcDbEntity
  8
細線
 48
50.0
100
AcDbLine
 10
3755.695520002115
 20
7270.681214810868
 30
0.0
 11
3740.695520002119
 21
7270.681214810863
 31
0.0
  0
LINE
  5
148FA
330
747D
100
AcDbEntity
  8
細線
 48
50.0
100
AcDbLine
 10
3740.695520002119
 20
7270.681214810863
 30
0.0
 11
3740.695520002119
 21
7233.080986707753
 31
0.0
  0
LINE
  5
148FB
330
747D
100
AcDbEntity
  8
細線
 48
50.0
100
AcDbLine
 10
3740.695520002119
 20
7233.080986707753
 30
0.0
 11
3760.695527303291
 21
7233.081028257295
 31
0.0
  0
LINE
  5
148FC
330
747D
100
AcDbEntity
  8
細線
 48
50.0
100
AcDbLine
 10
3760.695482434349
 20
7241.684489893103
 30
0.0
 11
3760.695527303291
 21
7233.081028257295
 31
0.0
  0
LINE
  5
148FD
330
747D
100
AcDbEntity
  8
細線
 48
50.0
100
AcDbLine
 10
4405.695510694939
 20
7258.835064403228
 30
0.0
 11
4405.695510694939
 21
7263.685064403226
 31
0.0
  0
LINE
  5
148FE
330
747D
100
AcDbEntity
  8
細線
 48
50.0
100
AcDbLine
 10
4405.695510694939
 20
7263.685064403226
 30
0.0
 11
4420.695510694935
 21
7263.685064403226
 31
0.0
  0
LINE
  5
148FF
330
747D
100
AcDbEntity
  8
細線
 48
50.0
100
AcDbLine
 10
4420.695510694935
 20
7263.685064403226
 30
0.0
 11
4420.695522328911
 21
7270.68506440327
 31
0.0
  0
LINE
  5
14900
330
747D
100
AcDbEntity
  8
細線
 48
50.0
100
AcDbLine
 10
4420.695522328911
 20
7270.68506440327
 30
0.0
 11
4435.695520499441
 21
7270.68506440327
 31
0.0
  0
LINE
  5
14901
330
747D
100
AcDbEntity
  8
細線
 48
50.0
100
AcDbLine
 10
4435.695520499441
 20
7270.68506440327
 30
0.0
 11
4435.69551019762
 21
7241.684858230995
 31
0.0
  0
LINE
  5
14902
330
747D
100
AcDbEntity
  8
細線
 48
50.0
100
AcDbLine
 10
4123.195537828403
 20
7241.684866418362
 30
0.0
 11
4053.195789910819
 21
7241.684860981024
 31
0.0
  0
LINE
  5
14903
330
747D
100
AcDbEntity
  8
細線
 48
50.0
100
AcDbLine
 10
3760.695482434349
 20
7241.684489893103
 30
0.0
 11
3771.928171789059
 21
7241.68467284625
 31
0.0
  0
ARC
  5
14904
330
747D
100
AcDbEntity
  8
細線
 48
50.0
100
AcDbCircle
 10
3778.510464096394
 20
7240.484836759863
 30
0.0
 40
1.8
100
AcDbArc
 50
270.0006665777295
 51
345.0005554812987
  0
LINE
  5
14905
330
747D
100
AcDbEntity
  8
細線
 48
50.0
100
AcDbLine
 10
3780.496897542474
 20
7240.943677217142
 30
0.0
 11
3780.249135100276
 21
7240.018979335035
 31
0.0
  0
LINE
  5
14906
330
747D
100
AcDbEntity
  8
細線
 48
50.0
100
AcDbLine
 10
3778.51048503755
 20
7238.684836759984
 30
0.0
 11
3774.880557618781
 21
7238.684794529503
 31
0.0
  0
ARC
  5
14907
330
747D
100
AcDbEntity
  8
細線
 48
50.0
100
AcDbCircle
 10
3774.880536677629
 20
7240.484794529383
 30
0.0
 40
1.8
100
AcDbArc
 50
195.0010443049445
 51
270.0006665777295
  0
LINE
  5
14908
330
747D
100
AcDbEntity
  8
細線
 48
50.0
100
AcDbLine
 10
3772.894109185371
 20
7240.943509496947
 30
0.0
 11
3773.141878681883
 21
7240.018888558364
 31
0.0
  0
ARC
  5
14909
330
747D
100
AcDbEntity
  8
細線
 48
50.0
100
AcDbCircle
 10
3771.928188076621
 20
7240.684672846384
 30
0.0
 40
1.0
100
AcDbArc
 50
15.00104430494449
 51
90.00093320877969
  0
LINE
  5
1490A
330
747D
100
AcDbEntity
  8
細線
 48
50.0
100
AcDbLine
 10
3781.462818897577
 20
7241.684867536655
 30
0.0
 11
3782.404579048482
 21
7241.684874110504
 31
0.0
  0
ARC
  5
1490B
330
747D
100
AcDbEntity
  8
細線
 48
50.0
100
AcDbCircle
 10
3781.462825877963
 20
7240.68486753668
 30
0.0
 40
1.0
100
AcDbArc
 50
90.0003999466794
 51
165.0005554812987
  0
LINE
  5
1490C
330
747D
100
AcDbEntity
  8
細線
 48
50.0
100
AcDbLine
 10
4333.195510694928
 20
7241.684858230995
 30
0.0
 11
4435.69551019762
 21
7241.684858230995
 31
0.0
  0
LINE
  5
1490D
330
747D
100
AcDbEntity
  8
細線
 48
50.0
100
AcDbLine
 10
3843.19554601382
 20
7241.684866418362
 30
0.0
 11
3782.0954847869
 21
7241.684874110504
 31
0.0
  0
LINE
  5
1490E
330
747D
100
AcDbEntity
  8
細線
 48
50.0
100
AcDbLine
 10
4263.19554601382
 20
7241.684903259444
 30
0.0
 11
4193.195539059433
 21
7241.684858236776
 31
0.0
  0
LINE
  5
1490F
330
747D
100
AcDbEntity
  8
細線
 48
50.0
100
AcDbLine
 10
3983.195510694928
 20
7241.684858230993
 30
0.0
 11
3913.195493407053
 21
7241.684858231
 31
0.0
  0
ARC
  5
14910
330
747D
100
AcDbEntity
  8
細線
 48
50.0
100
AcDbCircle
 10
4419.895515348536
 20
7274.884846368407
 30
0.0
 40
0.8
100
AcDbArc
 50
359.9997333689499
 51
89.99986668437072
  0
ARC
  5
14911
330
747D
100
AcDbEntity
  8
細線
 48
50.0
100
AcDbCircle
 10
4427.495522173631
 20
7274.884857537023
 30
0.0
 40
0.8
100
AcDbArc
 50
90.00014387753465
 51
179.9997333689498
  0
LINE
  5
14912
330
747D
100
AcDbEntity
  8
細線
 48
50.0
100
AcDbLine
 10
4419.895517209971
 20
7275.684846368405
 30
0.0
 11
4414.695515348525
 21
7275.684846368405
 31
0.0
  0
ARC
  5
14913
330
747D
100
AcDbEntity
  8
細線
 48
50.0
100
AcDbCircle
 10
4421.395515348526
 20
7273.384846368407
 30
0.0
 40
0.7
100
AcDbArc
 50
180.0
 51
270.0
  0
ARC
  5
14914
330
747D
100
AcDbEntity
  8
細線
 48
50.0
100
AcDbCircle
 10
4425.995515348527
 20
7273.384846368407
 30
0.0
 40
0.7
100
AcDbArc
 50
270.0
 51
0.0
  0
LINE
  5
14915
330
747D
100
AcDbEntity
  8
細線
 48
50.0
100
AcDbLine
 10
4426.695515348525
 20
7273.384846368407
 30
0.0
 11
4426.695522173642
 21
7274.884861259895
 31
0.0
  0
LINE
  5
14916
330
747D
100
AcDbEntity
  8
細線
 48
50.0
100
AcDbLine
 10
4421.395515348526
 20
7272.684846368405
 30
0.0
 11
4425.995515348527
 21
7272.684846368405
 31
0.0
  0
LINE
  5
14917
330
747D
100
AcDbEntity
  8
細線
 48
50.0
100
AcDbLine
 10
4420.695515348525
 20
7274.884846368407
 30
0.0
 11
4420.695515348525
 21
7273.384846368407
 31
0.0
  0
LINE
  5
14918
330
747D
100
AcDbEntity
  8
細線
 48
50.0
100
AcDbLine
 10
5046.295515348531
 20
7305.684846368406
 30
0.0
 11
4409.695515348525
 21
7305.684846368402
 31
0.0
  0
LINE
  5
14919
330
747D
100
AcDbEntity
  8
細線
 48
50.0
100
AcDbLine
 10
5072.195515348525
 20
7300.684846368409
 30
0.0
 11
5056.295515348531
 21
7300.684846368405
 31
0.0
  0
LINE
  5
1491A
330
747D
100
AcDbEntity
  8
細線
 48
50.0
100
AcDbLine
 10
5056.295515348527
 20
7300.684846368405
 30
0.0
 11
5046.295515348531
 21
7305.684846368406
 31
0.0
  0
LINE
  5
1491B
330
747D
100
AcDbEntity
  8
細線
100
AcDbLine
 10
4657.195515348526
 20
7275.684846368405
 30
0.0
 11
4657.195515348526
 21
7304.984846368404
 31
0.0
  0
LINE
  5
1491C
330
747D
100
AcDbEntity
  8
細線
100
AcDbLine
 10
4657.195515348526
 20
7304.984846368404
 30
0.0
 11
4677.195515348525
 21
7304.984846368404
 31
0.0
  0
LINE
  5
1491D
330
747D
100
AcDbEntity
  8
細線
100
AcDbLine
 10
4677.195515348525
 20
7275.684846368405
 30
0.0
 11
4677.195515348525
 21
7304.984846368404
 31
0.0
  0
LINE
  5
1491E
330
747D
100
AcDbEntity
  8
細線
100
AcDbLine
 10
4838.445515348526
 20
7275.684846368405
 30
0.0
 11
4768.445515348526
 21
7275.684846368405
 31
0.0
  0
LINE
  5
1491F
330
747D
100
AcDbEntity
  8
細線
 48
50.0
100
AcDbLine
 10
4558.445515348525
 20
7275.684846368405
 30
0.0
 11
4427.491294921368
 21
7275.684846368405
 31
0.0
  0
LINE
  5
14920
330
747D
100
AcDbEntity
  8
細線
100
AcDbLine
 10
4698.445515348526
 20
7275.684846368405
 30
0.0
 11
4628.445515348526
 21
7275.684846368405
 31
0.0
  0
LINE
  5
14921
330
747D
100
AcDbEntity
  8
細線
 48
50.0
100
AcDbLine
 10
4414.695515348525
 20
7267.684846368405
 30
0.0
 11
4414.695515348525
 21
7275.684846368405
 31
0.0
  0
LINE
  5
14922
330
747D
100
AcDbEntity
  8
細線
 48
50.0
100
AcDbLine
 10
4394.695515348525
 20
7267.68484636841
 30
0.0
 11
4414.695515348525
 21
7267.684846368405
 31
0.0
  0
LINE
  5
14923
330
747D
100
AcDbEntity
  8
細線
 48
50.0
100
AcDbLine
 10
4409.695515348525
 20
7305.684846368406
 30
0.0
 11
4409.695515348525
 21
7300.684846368405
 31
0.0
  0
LINE
  5
14924
330
747D
100
AcDbEntity
  8
細線
 48
50.0
100
AcDbLine
 10
4394.695515348525
 20
7305.684846368402
 30
0.0
 11
4409.695515348525
 21
7305.684846368406
 31
0.0
  0
LINE
  5
14925
330
747D
100
AcDbEntity
  8
細線
 48
50.0
100
AcDbLine
 10
4394.695515348525
 20
7267.68484636841
 30
0.0
 11
4394.695515348525
 21
7305.684846368402
 31
0.0
  0
LINE
  5
14926
330
747D
100
AcDbEntity
  8
細線
100
AcDbLine
 10
5062.695515348526
 20
7275.684846368405
 30
0.0
 11
4908.445515348526
 21
7275.684846368405
 31
0.0
  0
LINE
  5
14927
330
747D
100
AcDbEntity
  8
細線
 48
50.0
100
AcDbLine
 10
5072.195515348525
 20
7300.684846368409
 30
0.0
 11
5072.195515348525
 21
7275.684846368405
 31
0.0
  0
DIMENSION
  5
14BA4
330
747D
100
AcDbEntity
  8
寸法
 48
50.0
100
AcDbDimension
  2
*D28
 10
5101.695515348526
 20
6243.727838859151
 30
0.0
 11
4001.817515997383
 21
6243.727838859151
 31
0.0
 70
   160
 71
     5
 42
2154.0
  3
INABA_S40G
100
AcDbAlignedDimension
 13
2947.695515348526
 23
7202.684846368406
 33
0.0
 14
5101.695515348526
 24
7202.684846368406
 34
0.0
100
AcDbRotatedDimension
1001
ACAD
1000
DSTYLE
1002
{
1070
   341
1005
0
1002
}
  0
DIMENSION
  5
14BA5
330
747D
100
AcDbEntity
  8
寸法
100
AcDbDimension
  2
*D29
 10
2168.376701444477
 20
7204.68484636838
 30
0.0
 11
2168.376701444476
 21
7064.19956499414
 31
0.0
 70
   160
 71
     5
 42
75.00000000002728
  3
INABA_S40
100
AcDbAlignedDimension
 13
2499.695515348526
 23
7279.684846368407
 33
0.0
 14
2947.695515348527
 24
7204.68484636838
 34
0.0
 50
90.0
100
AcDbRotatedDimension
1001
ACAD
1000
DSTYLE
1002
{
1070
    41
1040
0.5
1070
    44
1040
1.0
1070
   147
1040
0.8
1070
   271
1070
     2
1070
   272
1070
     2
1070
   289
1070
     3
1070
   340
1005
F706
1070
   343
1005
F744
1070
   344
1005
F744
1002
}
  0
TEXT
  5
14C56
330
747D
100
AcDbEntity
  8
部品1
100
AcDbText
 10
5257.879792063359
 20
5561.007563738956
 30
0.0
 40
135.0
  1
平面図
  7
STYLE2
100
AcDbText
  0
LWPOLYLINE
  5
14C57
330
747D
100
AcDbEntity
  8
部品1
100
AcDbPolyline
 90
        4
 70
     1
 43
0.0
 10
5167.960182234317
 20
5753.90109295748
 10
5167.960182234317
 20
5514.008771411948
 10
5931.430848462762
 20
5514.008771411948
 10
5931.430848462762
 20
5753.90109295748
  0
DIMENSION
  5
14CA2
330
747D
100
AcDbEntity
  8
寸法
 48
50.0
100
AcDbDimension
  2
*D30
 10
8599.695515348525
 20
5954.60288886556
 30
0.0
 11
7074.695515348524
 21
6046.60288886556
 31
0.0
 70
    32
 71
     5
 42
3050.0
  3
INABA_S40
100
AcDbAlignedDimension
 13
5549.695515348525
 23
7334.684846368404
 33
0.0
 14
8599.695515348525
 24
7279.684846368407
 34
0.0
100
AcDbRotatedDimension
1001
ACAD
1000
DSTYLE
1002
{
1070
    41
1040
0.5
1070
    44
1040
1.0
1070
   147
1040
0.8
1070
   271
1070
     2
1070
   272
1070
     2
1070
   289
1070
     3
1070
   340
1005
F706
1070
   343
1005
F744
1070
   344
1005
F744
1002
}
  0
DIMENSION
  5
14CD7
330
747D
100
AcDbEntity
  8
寸法
 48
50.0
100
AcDbDimension
  2
*D31
 10
5549.695515348525
 20
5954.60288886556
 30
0.0
 11
4024.695515348525
 21
6046.60288886556
 31
0.0
 70
    32
 71
     5
 42
3050.0
  3
INABA_S40
100
AcDbAlignedDimension
 13
2499.695515348526
 23
7279.684846368407
 33
0.0
 14
5549.695515348525
 24
7334.684846368407
 34
0.0
100
AcDbRotatedDimension
1001
ACAD
1000
DSTYLE
1002
{
1070
    41
1040
0.5
1070
    44
1040
1.0
1070
   147
1040
0.8
1070
   271
1070
     2
1070
   272
1070
     2
1070
   289
1070
     3
1070
   340
1005
F706
1070
   343
1005
F744
1070
   344
1005
F744
1002
}
  0
TEXT
  5
14F8C
330
747D
100
AcDbEntity
  8
文字
 62
     7
 48
50.0
100
AcDbText
 10
15022.63965474517
 20
9570.013745883725
 30
0.0
 40
100.0
  1
F12            2.3
  7
STYLE1
100
AcDbText
  0
LINE
  5
14F8E
330
747D
100
AcDbEntity
  8
仕様書枠
 48
50.0
100
AcDbLine
 10
16307.19999999998
 20
8179.600000000004
 30
0.0
 11
13127.19999999999
 21
8179.600000000007
 31
0.0
  0
TEXT
  5
14F8F
330
747D
100
AcDbEntity
  8
文字
 62
     7
 48
50.0
100
AcDbText
 10
13248.77747366446
 20
8210.013745883729
 30
0.0
 40
100.0
  1
18
  7
STYLE1
100
AcDbText
  0
TEXT
  5
14F96
330
747D
100
AcDbEntity
  8
文字
 62
     7
 48
50.0
100
AcDbText
 10
13583.11819016569
 20
9224.407396633495
 30
0.0
 40
100.0
  1
梁中補強パネル
  7
STYLE1
100
AcDbText
  0
TEXT
  5
14F97
330
747D
100
AcDbEntity
  8
文字
 62
     7
 48
50.0
100
AcDbText
 10
15022.63965474516
 20
9224.407396633491
 30
0.0
 40
100.0
  1
F12         0.7+1.2
  7
STYLE1
100
AcDbText
  0
LINE
  5
14FB5
330
747D
100
AcDbEntity
  8
部品1
 48
50.0
100
AcDbLine
 10
5574.695517591685
 20
9613.184846368373
 30
0.0
 11
5574.695517591685
 21
10274.68484636837
 31
0.0
  0
LINE
  5
14FB6
330
747D
100
AcDbEntity
  8
部品1
 48
50.0
100
AcDbLine
 10
5524.695517591684
 20
10274.68484636837
 30
0.0
 11
5524.695517591684
 21
9613.184846368373
 31
0.0
  0
LINE
  5
14FB7
330
747D
100
AcDbEntity
  8
部品1
 48
50.0
100
AcDbLine
 10
5524.695517591684
 20
9613.184846368373
 30
0.0
 11
5574.695517591685
 21
9613.184846368373
 31
0.0
  0
LINE
  5
14FB8
330
747D
100
AcDbEntity
  8
部品1
100
AcDbLine
 10
5574.695517591685
 20
9890.360829805228
 30
0.0
 11
5524.695517591683
 21
9885.184846368373
 31
0.0
  0
LINE
  5
14FB9
330
747D
100
AcDbEntity
  8
部品1
100
AcDbLine
 10
5574.695517591685
 20
9850.00886293152
 30
0.0
 11
5524.695517591683
 21
9855.184846368373
 31
0.0
  0
LINE
  5
14FBA
330
747D
100
AcDbEntity
  8
部品1
100
AcDbLine
 10
5524.695517591684
 20
9695.184846368373
 30
0.0
 11
5574.695517591683
 21
9707.896710775152
 31
0.0
  0
DIMENSION
  5
14FBB
330
747D
100
AcDbEntity
  8
寸法
 48
50.0
100
AcDbDimension
  2
*D32
 10
5886.536877852523
 20
10329.68484994555
 30
0.0
 11
5886.53687785252
 21
9946.923705581815
 31
0.0
 70
   160
 71
     5
 42
716.5000035771754
  3
INABA_S40G
100
AcDbAlignedDimension
 13
5574.695517591685
 23
9613.184846368373
 33
0.0
 14
5604.695517591919
 24
10329.68484994555
 34
0.0
 50
90.0
100
AcDbRotatedDimension
1001
ACAD
1000
DSTYLE
1002
{
1070
   174
1070
     0
1070
   272
1070
     1
1070
   341
1005
0
1002
}
  0
LWPOLYLINE
  5
15046
330
747D
100
AcDbEntity
  8
部品1
 48
50.0
100
AcDbPolyline
 90
        4
 70
     1
 43
0.0
 10
3046.745515348524
 20
3334.362805903258
 10
3049.645515348526
 20
3334.362805903258
 10
3049.645515348526
 20
3343.862805903258
 10
3046.745515348524
 20
3343.862805903258
  0
CIRCLE
  5
15047
330
747D
100
AcDbEntity
  8
部品1
 48
50.0
100
AcDbCircle
 10
3048.195515348525
 20
3339.112805903258
 30
0.0
 40
9.0
  0
ARC
  5
15048
330
747D
100
AcDbEntity
  8
細線
 48
50.0
100
AcDbCircle
 10
3048.195515348525
 20
3339.112805903258
 30
0.0
 40
4.0
100
AcDbArc
 50
111.2538091853375
 51
248.7461908146625
  0
ARC
  5
15049
330
747D
100
AcDbEntity
  8
細線
 48
50.0
100
AcDbCircle
 10
3048.195515348525
 20
3339.112805903258
 30
0.0
 40
17.5
100
AcDbArc
 50
306.4837370612677
 51
233.5162629387323
  0
LINE
  5
1504A
330
747D
100
AcDbEntity
  8
細線
 48
50.0
100
AcDbLine
 10
3058.195515348522
 20
3315.253845322376
 30
0.0
 11
3058.195515348525
 21
3324.238331122617
 31
0.0
  0
LINE
  5
1504B
330
747D
100
AcDbEntity
  8
細線
 48
50.0
100
AcDbLine
 10
3038.195515348525
 20
3315.253845322377
 30
0.0
 11
3038.195515348525
 21
3324.238331122614
 31
0.0
  0
ARC
  5
1504C
330
747D
100
AcDbEntity
  8
細線
 48
50.0
100
AcDbCircle
 10
3048.195515348525
 20
3339.112805903258
 30
0.0
 40
26.5
100
AcDbArc
 50
249.3326835063939
 51
290.6673164933835
  0
ARC
  5
1504D
330
747D
100
AcDbEntity
  8
細線
 48
50.0
100
AcDbCircle
 10
3057.195515348518
 20
3315.253845322376
 30
0.0
 40
1.0
100
AcDbArc
 50
290.6673164936062
 51
359.9999999998958
  0
ARC
  5
1504E
330
747D
100
AcDbEntity
  8
細線
 48
50.0
100
AcDbCircle
 10
3039.195515348525
 20
3315.253845322377
 30
0.0
 40
1.0
100
AcDbArc
 50
180.0
 51
249.3326835066164
  0
ARC
  5
1504F
330
747D
100
AcDbEntity
  8
細線
 48
50.0
100
AcDbCircle
 10
3037.195515348525
 20
3324.238331122614
 30
0.0
 40
1.0
100
AcDbArc
 50
0.0
 51
53.51626293873231
  0
ARC
  5
15050
330
747D
100
AcDbEntity
  8
細線
 48
50.0
100
AcDbCircle
 10
3059.195515348529
 20
3324.238331122617
 30
0.0
 40
1.0
100
AcDbArc
 50
126.4837370614917
 51
180.0
  0
ARC
  5
15051
330
747D
100
AcDbEntity
  8
細線
 48
50.0
100
AcDbCircle
 10
3048.195515348525
 20
3339.112805903258
 30
0.0
 40
21.5
100
AcDbArc
 50
255.8014401250294
 51
284.1985598749706
  0
ARC
  5
15052
330
747D
100
AcDbEntity
  8
細線
 48
50.0
100
AcDbCircle
 10
3048.195515348525
 20
3339.112805903258
 30
0.0
 40
16.5
100
AcDbArc
 50
251.9694646069326
 51
288.0305353930674
  0
LINE
  5
15053
330
747D
100
AcDbEntity
  8
細線
 48
50.0
100
AcDbLine
 10
3053.695515348525
 20
3318.560433777451
 30
0.0
 11
3053.695515348525
 21
3323.137825464788
 31
0.0
  0
LINE
  5
15054
330
747D
100
AcDbEntity
  8
細線
 48
50.0
100
AcDbLine
 10
3042.695515348525
 20
3318.560433777451
 30
0.0
 11
3042.695515348525
 21
3323.137825464787
 31
0.0
  0
ARC
  5
15055
330
747D
100
AcDbEntity
  8
細線
 48
50.0
100
AcDbCircle
 10
3042.995515348528
 20
3323.137825464787
 30
0.0
 40
0.3
100
AcDbArc
 50
71.96946460693259
 51
180.0
  0
ARC
  5
15056
330
747D
100
AcDbEntity
  8
細線
 48
50.0
100
AcDbCircle
 10
3053.395515348526
 20
3323.137825464788
 30
0.0
 40
0.3
100
AcDbArc
 50
0.0
 51
108.0305353930674
  0
ARC
  5
15057
330
747D
100
AcDbEntity
  8
細線
 48
50.0
100
AcDbCircle
 10
3053.395515348523
 20
3318.560433777451
 30
0.0
 40
0.3
100
AcDbArc
 50
284.1985598747622
 51
0.0000000001042204
  0
ARC
  5
15058
330
747D
100
AcDbEntity
  8
細線
 48
50.0
100
AcDbCircle
 10
3042.995515348528
 20
3318.560433777451
 30
0.0
 40
0.3
100
AcDbArc
 50
180.0
 51
255.8014401248081
  0
CIRCLE
  5
15059
330
747D
100
AcDbEntity
  8
細線
 48
50.0
100
AcDbCircle
 10
3048.195515348525
 20
3339.112805903258
 30
0.0
 40
12.0
  0
ARC
  5
1505A
330
747D
100
AcDbEntity
  8
部品1
 48
50.0
100
AcDbCircle
 10
3048.195515348525
 20
3389.112805903258
 30
0.0
 40
8.5
100
AcDbArc
 50
114.315739171091
 51
245.684260828909
  0
CIRCLE
  5
1505B
330
747D
100
AcDbEntity
  8
細線
 48
50.0
100
AcDbCircle
 10
3048.195515348525
 20
3389.112805903258
 30
0.0
 40
4.5
  0
LWPOLYLINE
  5
1505C
330
747D
100
AcDbEntity
  8
部品1
 48
50.0
100
AcDbPolyline
 90
        2
 70
     0
 43
0.0
 10
3044.695515348526
 20
3407.787655300241
 10
3044.695515348526
 20
3396.858772595673
  0
CIRCLE
  5
1505D
330
747D
100
AcDbEntity
  8
部品1
 48
50.0
100
AcDbCircle
 10
3048.195515348525
 20
3389.112805903258
 30
0.0
 40
19.0
  0
LWPOLYLINE
  5
1505E
330
747D
100
AcDbEntity
  8
部品1
 48
50.0
100
AcDbPolyline
 90
        2
 70
     0
 43
0.0
 10
3044.695515348526
 20
3381.366839210843
 10
3044.695515348526
 20
3370.437956506275
  0
LWPOLYLINE
  5
1505F
330
747D
100
AcDbEntity
  8
部品1
 48
50.0
100
AcDbPolyline
 90
        2
 70
     0
 43
0.0
 10
3051.695515348525
 20
3396.858772595673
 10
3051.695515348525
 20
3407.787655300241
  0
ARC
  5
15060
330
747D
100
AcDbEntity
  8
部品1
 48
50.0
100
AcDbCircle
 10
3048.195515348525
 20
3389.112805903258
 30
0.0
 40
8.5
100
AcDbArc
 50
294.315739171091
 51
65.68426082890896
  0
LWPOLYLINE
  5
15061
330
747D
100
AcDbEntity
  8
部品1
 48
50.0
100
AcDbPolyline
 90
        2
 70
     0
 43
0.0
 10
3051.695515348525
 20
3370.437956506275
 10
3051.695515348525
 20
3381.366839210843
  0
ARC
  5
15062
330
747D
100
AcDbEntity
  8
細線
 48
50.0
100
AcDbCircle
 10
3048.195515348525
 20
3389.112805903258
 30
0.0
 40
16.5
100
AcDbArc
 50
332.0012352654316
 51
27.99876473456844
  0
ARC
  5
15063
330
747D
100
AcDbEntity
  8
細線
 48
50.0
100
AcDbCircle
 10
3048.195515348525
 20
3389.112805903258
 30
0.0
 40
14.0
100
AcDbArc
 50
326.4074436112843
 51
33.59255638871576
  0
LINE
  5
15064
330
747D
100
AcDbEntity
  8
細線
 48
50.0
100
AcDbLine
 10
3033.626713064194
 20
3396.858772595673
 30
0.0
 11
3036.533611558836
 21
3396.858772595673
 31
0.0
  0
LINE
  5
15065
330
747D
100
AcDbEntity
  8
細線
 48
50.0
100
AcDbLine
 10
3033.626713064194
 20
3381.366839210843
 30
0.0
 11
3036.533611558836
 21
3381.366839210843
 31
0.0
  0
LINE
  5
15066
330
747D
100
AcDbEntity
  8
細線
 48
50.0
100
AcDbLine
 10
3059.857419138214
 20
3396.858772595673
 30
0.0
 11
3062.76431763286
 21
3396.858772595673
 31
0.0
  0
LINE
  5
15067
330
747D
100
AcDbEntity
  8
細線
 48
50.0
100
AcDbLine
 10
3059.857419138214
 20
3381.366839210843
 30
0.0
 11
3062.76431763286
 21
3381.366839210843
 31
0.0
  0
ARC
  5
15068
330
747D
100
AcDbEntity
  8
細線
 48
50.0
100
AcDbCircle
 10
3048.195515348525
 20
3389.112805903258
 30
0.0
 40
14.0
100
AcDbArc
 50
146.4074436112842
 51
213.5925563887158
  0
ARC
  5
15069
330
747D
100
AcDbEntity
  8
細線
 48
50.0
100
AcDbCircle
 10
3048.195515348525
 20
3389.112805903258
 30
0.0
 40
16.5
100
AcDbArc
 50
152.0012352654315
 51
207.9987647345685
  0
ARC
  5
1506A
330
747D
100
AcDbEntity
  8
部品1
 48
50.0
100
AcDbCircle
 10
3021.695515348525
 20
3414.612805903259
 30
0.0
 40
5.0
100
AcDbArc
 50
90.0
 51
180.0
  0
ARC
  5
1506B
330
747D
100
AcDbEntity
  8
部品1
 48
50.0
100
AcDbCircle
 10
3021.695515348525
 20
3303.612805903258
 30
0.0
 40
5.0
100
AcDbArc
 50
180.0
 51
270.0
  0
ARC
  5
1506C
330
747D
100
AcDbEntity
  8
部品1
 48
50.0
100
AcDbCircle
 10
3074.695515348525
 20
3303.612805903258
 30
0.0
 40
5.0
100
AcDbArc
 50
270.0
 51
0.0
  0
ARC
  5
1506D
330
747D
100
AcDbEntity
  8
部品1
 48
50.0
100
AcDbCircle
 10
3074.695515348525
 20
3414.612805903259
 30
0.0
 40
5.0
100
AcDbArc
 50
0.0
 51
90.0
  0
LINE
  5
1506E
330
747D
100
AcDbEntity
  8
部品1
 48
50.0
100
AcDbLine
 10
3016.695515348525
 20
3303.612805903258
 30
0.0
 11
3016.695515348525
 21
3414.612805903259
 31
0.0
  0
LINE
  5
1506F
330
747D
100
AcDbEntity
  8
部品1
 48
50.0
100
AcDbLine
 10
3074.695515348525
 20
3298.612805903258
 30
0.0
 11
3021.695515348525
 21
3298.612805903258
 31
0.0
  0
LINE
  5
15070
330
747D
100
AcDbEntity
  8
部品1
 48
50.0
100
AcDbLine
 10
3079.695515348525
 20
3414.612805903259
 30
0.0
 11
3079.695515348525
 21
3303.612805903258
 31
0.0
  0
VIEWPORT
  5
14F9B
102
{ACAD_XDICTIONARY
360
1508A
102
}
330
747A
100
AcDbEntity
 67
     1
  8
0
 48
50.0
100
AcDbViewport
 10
133.3499908447265
 20
101.5999970436096
 30
0.0
 40
295.6051935424805
 41
237.8432591721107
 68
     1
 69
     1
 12
133.3499908447265
 22
101.5999970436096
 13
0.0
 23
0.0
 14
10.0
 24
10.0
 15
10.0
 25
10.0
 16
0.0
 26
0.0
 36
1.0
 17
0.0
 27
0.0
 37
0.0
 42
50.0
 43
0.0
 44
0.0
 45
237.8432591721107
 50
0.0
 51
0.0
 72
     0
 90
    32800
  1

281
     0
 71
     1
 74
     0
110
0.0
120
0.0
130
0.0
111
1.0
121
0.0
131
0.0
112
0.0
122
1.0
132
0.0
 79
     0
146
0.0
  0
VIEWPORT
  5
14F9D
102
{ACAD_XDICTIONARY
360
1508C
102
}
330
747A
100
AcDbEntity
 67
     1
  8
寸法
 48
50.0
100
AcDbViewport
 10
133.3499939441681
 20
101.5999939441681
 30
0.0
 40
213.3599903106689
 41
162.5599903106689
 68
     2
 69
     2
 12
8224.27334717887
 22
5704.796475140369
 13
0.0
 23
0.0
 14
10.0
 24
10.0
 15
10.0
 25
10.0
 16
0.0
 26
0.0
 36
1.0
 17
0.0
 27
0.0
 37
0.0
 42
50.0
 43
0.0
 44
0.0
 45
12426.03002582074
 50
0.0
 51
0.0
 72
     0
 90
    32768
  1

281
     0
 71
     1
 74
     0
110
0.0
120
0.0
130
0.0
111
1.0
121
0.0
131
0.0
112
0.0
122
1.0
132
0.0
 79
     0
146
0.0
  0
ENDSEC
  0
SECTION
  2
OBJECTS
  0
DICTIONARY
  5
7471
330
0
100
AcDbDictionary
281
     1
  3
ACAD_COLOR
350
135A7
  3
ACAD_GROUP
350
7472
  3
ACAD_LAYOUT
350
135A8
  3
ACAD_MATERIAL
350
135A6
  3
ACAD_MLINESTYLE
350
7473
  3
ACAD_PLOTSETTINGS
350
135A9
  3
ACAD_PLOTSTYLENAME
350
135A4
  3
ACDBHEADERROUNDTRIPXREC
350
15083
  3
AcDbVariableDictionary
350
1507F
  3
CONTENTDICTIONARY
350
E71C
  3
DRAWINGVARIABLESDICT
350
F3B9
  0
DICTIONARY
  5
13723
330
7467
100
AcDbDictionary
280
     1
281
     1
  3
ACAD_LAYERSTATES
360
13724
  0
DICTIONARY
  5
1508A
330
14F9B
100
AcDbDictionary
280
     1
281
     1
  3
ACAD_XREC_ROUNDTRIP
360
1508B
  0
DICTIONARY
  5
1508C
330
14F9D
100
AcDbDictionary
280
     1
281
     1
  3
ACAD_XREC_ROUNDTRIP
360
1508D
  0
DICTIONARY
  5
135A7
102
{ACAD_REACTORS
330
7471
102
}
330
7471
100
AcDbDictionary
281
     1
  0
DICTIONARY
  5
7472
102
{ACAD_REACTORS
330
7471
102
}
330
7471
100
AcDbDictionary
281
     1
  0
DICTIONARY
  5
135A8
102
{ACAD_REACTORS
330
7471
102
}
330
7471
100
AcDbDictionary
281
     1
  3
Model
350
135AA
  3
レイアウト1
350
135AB
  0
DICTIONARY
  5
135A6
102
{ACAD_REACTORS
330
7471
102
}
330
7471
100
AcDbDictionary
281
     1
  0
DICTIONARY
  5
7473
102
{ACAD_REACTORS
330
7471
102
}
330
7471
100
AcDbDictionary
281
     1
  3
STANDARD
350
7480
  0
DICTIONARY
  5
135A9
102
{ACAD_REACTORS
330
7471
102
}
330
7471
100
AcDbDictionary
281
     1
  0
ACDBDICTIONARYWDFLT
  5
135A4
102
{ACAD_REACTORS
330
7471
102
}
330
7471
100
AcDbDictionary
281
     1
  3
Normal
350
135A5
100
AcDbDictionaryWithDefault
340
135A5
  0
DICTIONARY
  5
15083
102
{ACAD_REACTORS
330
7471
102
}
330
7471
100
AcDbDictionary
281
     1
  3
COLORDICT
350
15085
  3
MATERIALDICT
350
15084
  0
DICTIONARY
  5
1507F
102
{ACAD_REACTORS
330
7471
102
}
330
7471
100
AcDbDictionary
281
     1
  3
DIMASSOC
350
15080
  3
PROJECTNAME
350
15081
  0
DICTIONARY
  5
E71C
102
{ACAD_REACTORS
330
7471
102
}
330
7471
100
AcDbDictionary
281
     1
  0
DICTIONARY
  5
F3B9
102
{ACAD_REACTORS
330
7471
102
}
330
7471
100
AcDbDictionary
281
     1
1001
DRAWINGVARIABLESXDATA
1000
POLARMODE
1000
1
  0
DICTIONARY
  5
13724
102
{ACAD_REACTORS
330
13723
102
}
330
13723
100
AcDbDictionary
281
     1
  0
XRECORD
  5
1508B
102
{ACAD_REACTORS
330
1508A
102
}
330
1508A
100
AcDbXrecord
280
     1
102
SHADEPLOT
 70
     0
  0
XRECORD
  5
1508D
102
{ACAD_REACTORS
330
1508C
102
}
330
1508C
100
AcDbXrecord
280
     1
102
SHADEPLOT
 70
     0
  0
LAYOUT
  5
135AA
102
{ACAD_XDICTIONARY
360
15086
102
}
102
{ACAD_REACTORS
330
135A8
102
}
330
135A8
100
AcDbPlotSettings
  1

  2
EPSON LP-7000C
  4

  6

 40
0.0
 41
0.0
 42
0.0
 43
0.0
 44
0.0
 45
0.0
 46
0.0
 47
0.0
 48
0.0
 49
0.0
140
0.0
141
0.0
142
1.0
143
1.0
 70
  1712
 72
     0
 73
     0
 74
     0
  7

 75
     0
147
1.0
148
0.0
149
0.0
100
AcDbLayout
  1
Model
 70
     1
 71
     0
 10
0.0
 20
0.0
 11
12.0
 21
9.0
 12
0.0
 22
0.0
 32
0.0
 14
0.0
 24
0.0
 34
0.0
 15
0.0
 25
0.0
 35
0.0
146
0.0
 13
0.0
 23
0.0
 33
0.0
 16
1.0
 26
0.0
 36
0.0
 17
0.0
 27
1.0
 37
0.0
 76
     0
330
747D
  0
LAYOUT
  5
135AB
102
{ACAD_XDICTIONARY
360
15088
102
}
102
{ACAD_REACTORS
330
135A8
102
}
330
135A8
100
AcDbPlotSettings
  1

  2
none_device
  4
Letter_(8.50_x_11.00_Inches)
  6

 40
6.349999904632568
 41
6.349999904632568
 42
6.350006103515625
 43
6.350006103515625
 44
215.8999938964844
 45
279.3999938964844
 46
0.0
 47
0.0
 48
0.0
 49
0.0
140
0.0
141
0.0
142
1.0
143
1.0
 70
   688
 72
     1
 73
     1
 74
     5
  7

 75
    16
147
1.0
148
0.0
149
0.0
100
AcDbLayout
  1
レイアウト1
 70
     0
 71
     1
 10
-6.350006103515625
 20
-6.349999904632568
 11
273.0499877929688
 21
209.5499939918518
 12
0.0
 22
0.0
 32
0.0
 14
26.66999878883363
 24
20.31999878883363
 34
0.0
 15
240.0299890995026
 25
182.8799890995025
 35
0.0
146
0.0
 13
0.0
 23
0.0
 33
0.0
 16
1.0
 26
0.0
 36
0.0
 17
0.0
 27
1.0
 37
0.0
 76
     0
330
747A
331
14F9B
  0
MLINESTYLE
  5
7480
102
{ACAD_REACTORS
330
7473
102
}
330
7473
100
AcDbMlineStyle
  2
STANDARD
 70
     0
  3

 62
     0
 51
90.0
 52
90.0
 71
     2
 49
0.5
 62
   256
  6
BYLAYER
 49
-0.5
 62
   256
  6
BYLAYER
  0
ACDBPLACEHOLDER
  5
135A5
102
{ACAD_REACTORS
330
135A4
102
}
330
135A4
  0
XRECORD
  5
15085
102
{ACAD_REACTORS
330
15083
102
}
330
15083
100
AcDbXrecord
280
     1
340
135A7
  0
XRECORD
  5
15084
102
{ACAD_REACTORS
330
15083
102
}
330
15083
100
AcDbXrecord
280
     1
340
135A6
  0
DICTIONARYVAR
  5
15080
102
{ACAD_REACTORS
330
1507F
102
}
330
1507F
100
DictionaryVariables
280
     0
  1
1
  0
DICTIONARYVAR
  5
15081
102
{ACAD_REACTORS
330
1507F
102
}
330
1507F
100
DictionaryVariables
280
     0
  1

  0
DICTIONARY
  5
15086
330
135AA
100
AcDbDictionary
280
     1
281
     1
  3
ACAD_XREC_ROUNDTRIP
360
15087
  0
DICTIONARY
  5
15088
330
135AB
100
AcDbDictionary
280
     1
281
     1
  3
ACAD_XREC_ROUNDTRIP
360
15089
  0
XRECORD
  5
15087
102
{ACAD_REACTORS
330
15086
102
}
330
15086
100
AcDbXrecord
280
     1
102
SHADEPLOT
 70
     0
102
SHADEPLOTRESLEVEL
 70
     2
102
SHADEPLOTCUSTOMDPI
 70
   300
  0
XRECORD
  5
15089
102
{ACAD_REACTORS
330
15088
102
}
330
15088
100
AcDbXrecord
280
     1
102
SHADEPLOT
 70
     0
102
SHADEPLOTRESLEVEL
 70
     2
102
SHADEPLOTCUSTOMDPI
 70
   300
  0
ENDSEC
  0
EOF
