  0
SECTION
  2
HEADER
  9
$ACADVER
  1
AC1015
  9
$ACADMAINTVER
 70
    20
  9
$DWGCODEPAGE
  3
ANSI_932
  9
$INSBASE
 10
0.0
 20
0.0
 30
0.0
  9
$EXTMIN
 10
139.9999999999995
 20
-0.0000000000000909
 30
0.0
  9
$EXTMAX
 10
16307.2
 20
11409.6
 30
0.0
  9
$LIMMIN
 10
0.0
 20
0.0
  9
$LIMMAX
 10
16800.0
 20
11880.0
  9
$ORTHOMODE
 70
     0
  9
$REGENMODE
 70
     1
  9
$FILLMODE
 70
     1
  9
$QTEXTMODE
 70
     0
  9
$MIRRTEXT
 70
     1
  9
$LTSCALE
 40
20.0
  9
$ATTMODE
 70
     1
  9
$TEXTSIZE
 40
100.0
  9
$TRACEWID
 40
1.0
  9
$TEXTSTYLE
  7
STYLE3
  9
$CLAYER
  8
寸法
  9
$CELTYPE
  6
BYLAYER
  9
$CECOLOR
 62
   256
  9
$CELTSCALE
 40
50.0
  9
$DISPSILH
 70
     0
  9
$DIMSCALE
 40
40.0
  9
$DIMASZ
 40
0.5
  9
$DIMEXO
 40
0.5
  9
$DIMDLI
 40
7.0
  9
$DIMRND
 40
0.0
  9
$DIMDLE
 40
0.0
  9
$DIMEXE
 40
1.0
  9
$DIMTP
 40
0.0
  9
$DIMTM
 40
0.0
  9
$DIMTXT
 40
3.0
  9
$DIMCEN
 40
0.0
  9
$DIMTSZ
 40
0.0
  9
$DIMTOL
 70
     0
  9
$DIMLIM
 70
     0
  9
$DIMTIH
 70
     0
  9
$DIMTOH
 70
     0
  9
$DIMSE1
 70
     0
  9
$DIMSE2
 70
     0
  9
$DIMTAD
 70
     3
  9
$DIMZIN
 70
     8
  9
$DIMBLK
  1

  9
$DIMASO
 70
     1
  9
$DIMSHO
 70
     1
  9
$DIMPOST
  1

  9
$DIMAPOST
  1

  9
$DIMALT
 70
     0
  9
$DIMALTD
 70
     2
  9
$DIMALTF
 40
0.0394
  9
$DIMLFAC
 40
1.0
  9
$DIMTOFL
 70
     1
  9
$DIMTVP
 40
0.0
  9
$DIMTIX
 70
     1
  9
$DIMSOXD
 70
     1
  9
$DIMSAH
 70
     1
  9
$DIMBLK1
  1
DOT
  9
$DIMBLK2
  1
DOT
  9
$DIMSTYLE
  2
INABA_S40
  9
$DIMCLRD
 70
     0
  9
$DIMCLRE
 70
     0
  9
$DIMCLRT
 70
     7
  9
$DIMTFAC
 40
1.0
  9
$DIMGAP
 40
0.8
  9
$DIMJUST
 70
     0
  9
$DIMSD1
 70
     0
  9
$DIMSD2
 70
     0
  9
$DIMTOLJ
 70
     1
  9
$DIMTZIN
 70
     0
  9
$DIMALTZ
 70
     0
  9
$DIMALTTZ
 70
     0
  9
$DIMUPT
 70
     0
  9
$DIMDEC
 70
     2
  9
$DIMTDEC
 70
     2
  9
$DIMALTU
 70
     2
  9
$DIMALTTD
 70
     2
  9
$DIMTXSTY
  7
STYLE1
  9
$DIMAUNIT
 70
     0
  9
$DIMADEC
 70
     0
  9
$DIMALTRND
 40
0.0
  9
$DIMAZIN
 70
     0
  9
$DIMDSEP
 70
    46
  9
$DIMATFIT
 70
     3
  9
$DIMFRAC
 70
     0
  9
$DIMLDRBLK
  1

  9
$DIMLUNIT
 70
     2
  9
$DIMLWD
 70
    -2
  9
$DIMLWE
 70
    -2
  9
$DIMTMOVE
 70
     0
  9
$LUNITS
 70
     2
  9
$LUPREC
 70
     1
  9
$SKETCHINC
 40
1.0
  9
$FILLETRAD
 40
5.0
  9
$AUNITS
 70
     0
  9
$AUPREC
 70
     0
  9
$MENU
  1
acad
  9
$ELEVATION
 40
0.0
  9
$PELEVATION
 40
0.0
  9
$THICKNESS
 40
0.0
  9
$LIMCHECK
 70
     0
  9
$CHAMFERA
 40
0.0
  9
$CHAMFERB
 40
0.0
  9
$CHAMFERC
 40
0.0
  9
$CHAMFERD
 40
0.0
  9
$SKPOLY
 70
     0
  9
$TDCREATE
 40
2451590.492424190
  9
$TDUCREATE
 40
2451590.117424190
  9
$TDUPDATE
 40
2455575.701572257
  9
$TDUUPDATE
 40
2455575.326572257
  9
$TDINDWG
 40
0.0490490162
  9
$TDUSRTIMER
 40
0.0490490162
  9
$USRTIMER
 70
     1
  9
$ANGBASE
 50
0.0
  9
$ANGDIR
 70
     0
  9
$PDMODE
 70
     3
  9
$PDSIZE
 40
2.0
  9
$PLINEWID
 40
0.0
  9
$SPLFRAME
 70
     0
  9
$SPLINETYPE
 70
     6
  9
$SPLINESEGS
 70
     8
  9
$HANDSEED
  5
15573
  9
$SURFTAB1
 70
     6
  9
$SURFTAB2
 70
     6
  9
$SURFTYPE
 70
     6
  9
$SURFU
 70
     6
  9
$SURFV
 70
     6
  9
$UCSBASE
  2

  9
$UCSNAME
  2

  9
$UCSORG
 10
0.0
 20
0.0
 30
0.0
  9
$UCSXDIR
 10
1.0
 20
0.0
 30
0.0
  9
$UCSYDIR
 10
0.0
 20
1.0
 30
0.0
  9
$UCSORTHOREF
  2

  9
$UCSORTHOVIEW
 70
     0
  9
$UCSORGTOP
 10
0.0
 20
0.0
 30
0.0
  9
$UCSORGBOTTOM
 10
0.0
 20
0.0
 30
0.0
  9
$UCSORGLEFT
 10
0.0
 20
0.0
 30
0.0
  9
$UCSORGRIGHT
 10
0.0
 20
0.0
 30
0.0
  9
$UCSORGFRONT
 10
0.0
 20
0.0
 30
0.0
  9
$UCSORGBACK
 10
0.0
 20
0.0
 30
0.0
  9
$PUCSBASE
  2

  9
$PUCSNAME
  2

  9
$PUCSORG
 10
0.0
 20
0.0
 30
0.0
  9
$PUCSXDIR
 10
1.0
 20
0.0
 30
0.0
  9
$PUCSYDIR
 10
0.0
 20
1.0
 30
0.0
  9
$PUCSORTHOREF
  2

  9
$PUCSORTHOVIEW
 70
     0
  9
$PUCSORGTOP
 10
0.0
 20
0.0
 30
0.0
  9
$PUCSORGBOTTOM
 10
0.0
 20
0.0
 30
0.0
  9
$PUCSORGLEFT
 10
0.0
 20
0.0
 30
0.0
  9
$PUCSORGRIGHT
 10
0.0
 20
0.0
 30
0.0
  9
$PUCSORGFRONT
 10
0.0
 20
0.0
 30
0.0
  9
$PUCSORGBACK
 10
0.0
 20
0.0
 30
0.0
  9
$USERI1
 70
     0
  9
$USERI2
 70
     0
  9
$USERI3
 70
     0
  9
$USERI4
 70
     0
  9
$USERI5
 70
     0
  9
$USERR1
 40
0.0
  9
$USERR2
 40
0.0
  9
$USERR3
 40
0.0
  9
$USERR4
 40
0.0
  9
$USERR5
 40
0.0
  9
$WORLDVIEW
 70
     1
  9
$SHADEDGE
 70
     3
  9
$SHADEDIF
 70
    70
  9
$TILEMODE
 70
     1
  9
$MAXACTVP
 70
    16
  9
$PINSBASE
 10
0.0
 20
0.0
 30
0.0
  9
$PLIMCHECK
 70
     0
  9
$PEXTMIN
 10
1.000000000000000E+20
 20
1.000000000000000E+20
 30
1.000000000000000E+20
  9
$PEXTMAX
 10
-1.000000000000000E+20
 20
-1.000000000000000E+20
 30
-1.000000000000000E+20
  9
$PLIMMIN
 10
0.0
 20
0.0
  9
$PLIMMAX
 10
420.0
 20
297.0
  9
$UNITMODE
 70
     0
  9
$VISRETAIN
 70
     0
  9
$PLINEGEN
 70
     0
  9
$PSLTSCALE
 70
     0
  9
$TREEDEPTH
 70
  3020
  9
$CMLSTYLE
  2
STANDARD
  9
$CMLJUST
 70
     0
  9
$CMLSCALE
 40
1.0
  9
$PROXYGRAPHICS
 70
     1
  9
$MEASUREMENT
 70
     1
  9
$CELWEIGHT
370
    -1
  9
$ENDCAPS
280
     0
  9
$JOINSTYLE
280
     0
  9
$LWDISPLAY
290
     0
  9
$INSUNITS
 70
     0
  9
$HYPERLINKBASE
  1

  9
$STYLESHEET
  1

  9
$XEDIT
290
     1
  9
$CEPSNTYPE
380
     0
  9
$PSTYLEMODE
290
     1
  9
$FINGERPRINTGUID
  2
{9FD415E5-D74C-43B2-BBC1-BC3E63B3241B}
  9
$VERSIONGUID
  2
{FCC6E3C4-A751-4D6C-AF43-1FE1AEECBE1B}
  9
$EXTNAMES
290
     1
  9
$PSVPSCALE
 40
0.0
  9
$OLESTARTUP
290
     0
  0
ENDSEC
  0
SECTION
  2
CLASSES
  0
CLASS
  1
ACDBDICTIONARYWDFLT
  2
AcDbDictionaryWithDefault
  3
ObjectDBX Classes
 90
        0
280
     0
281
     0
  0
CLASS
  1
DICTIONARYVAR
  2
AcDbDictionaryVar
  3
ObjectDBX Classes
 90
        0
280
     0
281
     0
  0
CLASS
  1
ACDBPLACEHOLDER
  2
AcDbPlaceHolder
  3
ObjectDBX Classes
 90
        0
280
     0
281
     0
  0
CLASS
  1
LAYOUT
  2
AcDbLayout
  3
ObjectDBX Classes
 90
        0
280
     0
281
     0
  0
ENDSEC
  0
SECTION
  2
TABLES
  0
TABLE
  2
VPORT
  5
746D
330
0
100
AcDbSymbolTable
 70
     2
  0
VPORT
  5
1556B
330
746D
100
AcDbSymbolTableRecord
100
AcDbViewportTableRecord
  2
*Active
 70
     0
 10
0.0
 20
0.0
 11
1.0
 21
1.0
 12
8223.761025238502
 22
6348.683291179126
 13
0.0
 23
0.0
 14
10.0
 24
10.0
 15
10.0
 25
10.0
 16
0.0
 26
0.0
 36
1.0
 17
0.0
 27
0.0
 37
0.0
 40
12805.56644836532
 41
1.525925925925925
 42
50.0
 43
0.0
 44
0.0
 50
0.0
 51
0.0
 71
     0
 72
     0
 73
     1
 74
     0
 75
     0
 76
     0
 77
     0
 78
     0
281
     0
 65
     1
110
0.0
120
0.0
130
0.0
111
1.0
121
0.0
131
0.0
112
0.0
122
1.0
132
0.0
 79
     0
146
0.0
  0
ENDTAB
  0
TABLE
  2
LTYPE
  5
746A
330
0
100
AcDbSymbolTable
 70
     4
  0
LTYPE
  5
7477
330
746A
100
AcDbSymbolTableRecord
100
AcDbLinetypeTableRecord
  2
BYBLOCK
 70
     0
  3

 72
    65
 73
     0
 40
0.0
  0
LTYPE
  5
7478
330
746A
100
AcDbSymbolTableRecord
100
AcDbLinetypeTableRecord
  2
BYLAYER
 70
     0
  3

 72
    65
 73
     0
 40
0.0
  0
LTYPE
  5
7479
330
746A
100
AcDbSymbolTableRecord
100
AcDbLinetypeTableRecord
  2
CONTINUOUS
 70
     0
  3
Solid line
 72
    65
 73
     0
 40
0.0
  0
LTYPE
  5
7816
330
746A
100
AcDbSymbolTableRecord
100
AcDbLinetypeTableRecord
  2
CENTER
 70
     0
  3
____ _ ____ _ ____ _ ____ _ ____ _ ____ _ ____ 
 72
    65
 73
     4
 40
2.0
 49
1.25
 74
     0
 49
-0.25
 74
     0
 49
0.25
 74
     0
 49
-0.25
 74
     0
  0
LTYPE
  5
781A
330
746A
100
AcDbSymbolTableRecord
100
AcDbLinetypeTableRecord
  2
HIDDEN
 70
     0
  3
__ __ __ __ __ __ __ __ __ __ __ __ __ __ __ __
 72
    65
 73
     2
 40
0.375
 49
0.25
 74
     0
 49
-0.125
 74
     0
  0
LTYPE
  5
781B
330
746A
100
AcDbSymbolTableRecord
100
AcDbLinetypeTableRecord
  2
PHANTOM
 70
     0
  3
______  __  __  ______  __  __  ______  __  __ 
 72
    65
 73
     6
 40
2.5
 49
1.25
 74
     0
 49
-0.25
 74
     0
 49
0.25
 74
     0
 49
-0.25
 74
     0
 49
0.25
 74
     0
 49
-0.25
 74
     0
  0
ENDTAB
  0
TABLE
  2
LAYER
  5
7467
102
{ACAD_XDICTIONARY
360
13D18
102
}
330
0
100
AcDbSymbolTable
 70
    13
  0
LAYER
  5
7474
330
7467
100
AcDbSymbolTableRecord
100
AcDbLayerTableRecord
  2
0
 70
     0
 62
     7
  6
CONTINUOUS
370
    -3
390
13B9A
  0
LAYER
  5
DEB2
330
7467
100
AcDbSymbolTableRecord
100
AcDbLayerTableRecord
  2
センター
 70
     0
 62
     3
  6
CENTER
370
    -3
390
13B9A
  0
LAYER
  5
DEB3
330
7467
100
AcDbSymbolTableRecord
100
AcDbLayerTableRecord
  2
寸法
 70
     0
 62
     4
  6
CONTINUOUS
370
    -3
390
13B9A
  0
LAYER
  5
DEB4
330
7467
100
AcDbSymbolTableRecord
100
AcDbLayerTableRecord
  2
部品1
 70
     0
 62
     7
  6
CONTINUOUS
370
    -3
390
13B9A
  0
LAYER
  5
DEB5
330
7467
100
AcDbSymbolTableRecord
100
AcDbLayerTableRecord
  2
補助
 70
     0
 62
    -1
  6
CONTINUOUS
370
    -3
390
13B9A
  0
LAYER
  5
DEB6
330
7467
100
AcDbSymbolTableRecord
100
AcDbLayerTableRecord
  2
文字
 70
     0
 62
     7
  6
CONTINUOUS
370
    -3
390
13B9A
  0
LAYER
  5
F255
330
7467
100
AcDbSymbolTableRecord
100
AcDbLayerTableRecord
  2
DEFPOINTS
 70
     0
 62
     7
  6
CONTINUOUS
290
     0
370
    -3
390
13B9A
  0
LAYER
  5
10B54
330
7467
100
AcDbSymbolTableRecord
100
AcDbLayerTableRecord
  2
仕様書枠
 70
     0
 62
   230
  6
CONTINUOUS
370
    -3
390
13B9A
  0
LAYER
  5
11729
330
7467
100
AcDbSymbolTableRecord
100
AcDbLayerTableRecord
  2
Ｇ．Ｌ
 70
     0
 62
    30
  6
CONTINUOUS
370
    -3
390
13B9A
  0
LAYER
  5
1173F
330
7467
100
AcDbSymbolTableRecord
100
AcDbLayerTableRecord
  2
細線
 70
     0
 62
     5
  6
CONTINUOUS
370
    -3
390
13B9A
  0
LAYER
  5
11740
330
7467
100
AcDbSymbolTableRecord
100
AcDbLayerTableRecord
  2
点線
 70
     0
 62
     2
  6
HIDDEN
370
    -3
390
13B9A
  0
LAYER
  5
11905
330
7467
100
AcDbSymbolTableRecord
100
AcDbLayerTableRecord
  2
破線
 70
     0
 62
     2
  6
HIDDEN
370
    -3
390
13B9A
  0
LAYER
  5
147DA
330
7467
100
AcDbSymbolTableRecord
100
AcDbLayerTableRecord
  2
Ｇ_Ｌ
 70
     0
 62
    30
  6
CONTINUOUS
370
    -3
390
13B9A
  0
ENDTAB
  0
TABLE
  2
STYLE
  5
7468
330
0
100
AcDbSymbolTable
 70
     7
  0
STYLE
  5
7475
330
7468
100
AcDbSymbolTableRecord
100
AcDbTextStyleTableRecord
  2
STANDARD
 70
     0
 40
0.0
 41
1.0
 50
0.0
 71
     0
 42
4.0
  3
txt
  4
C:\AutoCAD LT\bigfont.shx
  0
STYLE
  5
763C
330
7468
100
AcDbSymbolTableRecord
100
AcDbTextStyleTableRecord
  2
MSMINCHO
 70
     0
 40
0.0
 41
1.0
 50
0.0
 71
     0
 42
1.199999999999999
  3
C:\AutoCAD LT\msminch2.TTF
  4

  0
STYLE
  5
F5E9
330
7468
100
AcDbSymbolTableRecord
100
AcDbTextStyleTableRecord
  2

 70
     1
 40
0.0
 41
1.0
 50
0.0
 71
     0
 42
4.0
  3
ltypeshp.shx
  4

  0
STYLE
  5
F706
330
7468
100
AcDbSymbolTableRecord
100
AcDbTextStyleTableRecord
  2
STYLE1
 70
     0
 40
0.0
 41
1.0
 50
0.0
 71
     0
 42
4.0
  3
isocp.shx
  4
bigfont.shx
  0
STYLE
  5
103BF
330
7468
100
AcDbSymbolTableRecord
100
AcDbTextStyleTableRecord
  2
STYLE2
 70
     0
 40
0.0
 41
1.0
 50
0.0
 71
     0
 42
100.0
  3
MS PGothic.ttf
  4

1001
ACAD
1000
MS PGothic
1071
    32818
  0
STYLE
  5
10BAA
330
7468
100
AcDbSymbolTableRecord
100
AcDbTextStyleTableRecord
  2
STYLE3
 70
     0
 40
0.0
 41
1.0
 50
0.0
 71
     0
 42
100.0
  3

  4

1001
ACAD
1000
DFPGothic-EB
1071
    32818
  0
STYLE
  5
11906
330
7468
100
AcDbSymbolTableRecord
100
AcDbTextStyleTableRecord
  2
MSGOTHIC
 70
     0
 40
0.0
 41
1.0
 50
0.0
 71
     0
 42
3.5
  3
msgothi2.ttf
  4

  0
ENDTAB
  0
TABLE
  2
VIEW
  5
746B
330
0
100
AcDbSymbolTable
 70
     0
  0
ENDTAB
  0
TABLE
  2
UCS
  5
746C
330
0
100
AcDbSymbolTable
 70
     0
  0
ENDTAB
  0
TABLE
  2
APPID
  5
746E
330
0
100
AcDbSymbolTable
 70
     6
  0
APPID
  5
7476
330
746E
100
AcDbSymbolTableRecord
100
AcDbRegAppTableRecord
  2
ACAD
 70
     0
  0
APPID
  5
DEA9
330
746E
100
AcDbSymbolTableRecord
100
AcDbRegAppTableRecord
  2
CONTENTBLOCKICON
 70
     0
  0
APPID
  5
DEAA
330
746E
100
AcDbSymbolTableRecord
100
AcDbRegAppTableRecord
  2
CONTENTBLOCKDESCRIPTION
 70
     0
  0
APPID
  5
E71D
330
746E
100
AcDbSymbolTableRecord
100
AcDbRegAppTableRecord
  2
CONTENTTABDATA
 70
     0
  0
APPID
  5
E71E
330
746E
100
AcDbSymbolTableRecord
100
AcDbRegAppTableRecord
  2
CONTENTCURRENTTAB
 70
     0
  0
APPID
  5
F3BA
330
746E
100
AcDbSymbolTableRecord
100
AcDbRegAppTableRecord
  2
DRAWINGVARIABLESXDATA
 70
     0
  0
ENDTAB
  0
TABLE
  2
DIMSTYLE
  5
746F
330
0
100
AcDbSymbolTable
 70
     6
100
AcDbDimStyleTable
 71
     0
  0
DIMSTYLE
105
7484
330
746F
100
AcDbSymbolTableRecord
100
AcDbDimStyleTableRecord
  2
JIS
 70
     0
 41
2.5
 42
1.0
 43
7.0
 44
1.0
 73
     0
 74
     0
 77
     1
 78
     8
140
2.5
141
0.0
143
0.0394
147
0.0
172
     1
174
     1
175
     1
340
7475
  0
DIMSTYLE
105
F236
102
{ACAD_REACTORS
330
142A7
330
142B2
330
142F5
330
14309
330
1430A
330
1432F
330
14330
330
14331
330
14332
330
14333
330
14946
330
14E8E
330
15158
330
15255
330
1528A
102
}
330
746F
100
AcDbSymbolTableRecord
100
AcDbDimStyleTableRecord
  2
INABA_S40
 70
     0
 40
40.0
 41
2.5
 42
0.5
 43
7.0
 44
1.5
 73
     0
 74
     0
 77
     3
 78
     8
140
3.0
141
0.0
143
0.0394
147
1.0
172
     1
173
     1
174
     1
175
     1
178
     7
289
     0
340
7475
  0
DIMSTYLE
105
F71F
102
{ACAD_REACTORS
330
1410C
330
14125
330
14126
330
14127
330
14948
330
14949
330
1494A
330
1497A
330
1497E
330
1497F
330
14980
330
14990
330
1499F
330
15157
102
}
330
746F
100
AcDbSymbolTableRecord
100
AcDbDimStyleTableRecord
  2
INABA_S40G
 70
     0
 40
40.0
 41
2.5
 42
0.5
 43
7.0
 44
1.5
 73
     0
 74
     0
 77
     3
 78
     8
140
3.0
141
0.0
143
0.0394
147
1.0
172
     1
173
     1
174
     1
175
     1
178
     7
271
     1
340
F706
341
F770
343
F770
344
F770
  0
DIMSTYLE
105
11907
330
746F
100
AcDbSymbolTableRecord
100
AcDbDimStyleTableRecord
  2
INABA_S50
 70
     0
 40
50.0
 41
0.5
 42
0.5
 43
7.0
 44
1.0
 73
     0
 74
     0
 77
     3
 78
     8
140
2.5
141
0.0
143
0.0394
147
0.8
172
     1
173
     1
174
     1
175
     1
178
     7
271
     2
272
     2
289
     0
340
7475
341
F744
343
F744
344
F744
  0
DIMSTYLE
105
11908
330
746F
100
AcDbSymbolTableRecord
100
AcDbDimStyleTableRecord
  2
INABA_S50G
 70
     0
 41
125.0
 42
25.0
 43
7.0
 44
75.0
 73
     0
 74
     0
 77
     3
 78
     8
140
150.0
141
0.0
143
0.0394
147
25.0
172
     1
173
     1
174
     1
175
     1
178
     7
271
     1
340
F706
341
F770
343
F770
344
F770
  0
DIMSTYLE
105
15502
330
746F
100
AcDbSymbolTableRecord
100
AcDbDimStyleTableRecord
  2
INABA_S20G
 70
     0
 40
20.0
 41
2.5
 42
0.5
 43
7.0
 44
1.5
 73
     0
 74
     0
 77
     3
 78
     8
140
3.0
141
0.0
143
0.0394
147
1.0
172
     1
173
     1
174
     1
178
     7
271
     1
340
F706
341
F770
343
F770
344
F770
  0
ENDTAB
  0
TABLE
  2
BLOCK_RECORD
  5
7466
330
0
100
AcDbSymbolTable
 70
    32
  0
BLOCK_RECORD
  5
747D
330
7466
100
AcDbSymbolTableRecord
100
AcDbBlockTableRecord
  2
*MODEL_SPACE
340
13B9F
  0
BLOCK_RECORD
  5
747A
330
7466
100
AcDbSymbolTableRecord
100
AcDbBlockTableRecord
  2
*PAPER_SPACE
340
13BA0
  0
BLOCK_RECORD
  5
ECB3
330
7466
100
AcDbSymbolTableRecord
100
AcDbBlockTableRecord
  2
作図枠S50
340
0
310
2800000020000000200000000100040000000000000200000000000000000000000000000000000000000000000080000080000000808000800000008000800080800000C0C0C000808080000000FF0000FF000000FFFF00FF000000FF00FF00FFFF0000FFFFFF00FFFFFFFFFFFFFFFFFFFFFFFFFFFFFFFFFFFFFFFFFFFFFF
310
FFFFFFFFFFFFFFFFFFFFFFFFFFFFFFFFFFFFFFFFFFFFFFFFFFFFFFFFFFFFFFFFFFFFFFFFFFFFFFFFFFFFFFFFFFFFFFFFFFFFFFFFFFFFFFFFFFFFFFFFFFFFFFFFFFFFFFFFFFFFFFFFFF999999999999999999999999999999999FFFFFFFFFFFFFFFFFFFFFFFFFFFFFF99FFFFFFFFFFFFFFFFFFFFFFFFFFFFFF99FFFFFFFFFFF
310
FFFFFFFFFFFFFFFFFFF99FFFFFFFFFFFFFFFFFFFFFFFFFFFFFF99FFFFFFFFFFFFFFFFFFFFFFFFFFFFFF99FFFFFFFFFFFFFFFFFFFFFFFFFFFFFF99FFFFFFFFFFFFFFFFFFFFFFFFFFFFFF99FFFFFFFFFFFFFFFFFFFFFFFFFFFFFF99FFFFFFFFFFFFFFFFFFFFFFFFFFFFFF99FFFFFFFFFFFFFFFFFFFFFFFFFFFFFF99FFFFFFFFF
310
FFFFFFFFFFFFFFFFFFFFF99FFFFFFFFFFFFFFFFFFFFFFFFFFFFFF99FFFFFFFFFFFFFFFFFFFFFFFFFFFFFF99FFFFFFFFFFFFFFFFFFFFFFFFFFFFFF99FFFFFFFFFFFFFFFFFFFFFFFFFFFFFF99FFFFFFFFFFFFFFFFFFFFFFFFFFFFFF99FFFFFFFFFFFFFFFFFFFFFFFFFFFFFF99FFFFFFFFFFFFFFFFFFFFF99999999999FFFFFFF
310
FFFFFFFFFFFFFF9FFFFFFFFF99999999999999999999999FFFFFFFFFFFFFFFFFFFFFFFFFFFFFFFFFFFFFFFFFFFFFFFFFFFFFFFFFFFFFFFFFFFFFFFFFFFFFFFFFFFFFFFFFFFFFFFFFFFFFFFFFFFFFFFFFFFFFFFFFFFFFFFFFFFFFFFFFFFFFFFFFFFFFFFFFFFFFFFFFFFFFFFFF
102
{BLKREFS
331
F235
102
}
  0
BLOCK_RECORD
  5
F744
330
7466
100
AcDbSymbolTableRecord
100
AcDbBlockTableRecord
  2
_DOT
340
0
102
{BLKREFS
331
14C9E
331
14C9F
331
15415
331
15416
331
1541E
331
1541F
331
15429
331
1542A
331
1543B
331
1543C
331
15446
331
15447
331
1544F
331
15450
331
1545A
331
1545B
331
15463
331
15464
331
1546E
331
1546F
331
15477
331
15478
331
15480
331
15481
331
1548B
331
1548C
331
15494
331
15495
331
1549D
331
1549E
102
}
  0
BLOCK_RECORD
  5
F770
330
7466
100
AcDbSymbolTableRecord
100
AcDbBlockTableRecord
  2
_DOTSMALL
340
0
102
{BLKREFS
331
14C48
331
14C49
331
14C52
331
14C53
331
14C5B
331
14C5C
331
14C66
331
14C67
331
14C6F
331
14C70
331
14C83
331
14C84
331
14C95
331
14C96
331
14D31
331
14D32
331
14D3A
331
14D3B
331
14D43
331
14D44
331
14D4E
331
14D4F
331
15432
331
15433
331
154E7
331
154E8
331
154F2
331
154F3
102
}
  0
BLOCK_RECORD
  5
143D8
330
7466
100
AcDbSymbolTableRecord
100
AcDbBlockTableRecord
  2
*D3
340
0
  0
BLOCK_RECORD
  5
143E4
330
7466
100
AcDbSymbolTableRecord
100
AcDbBlockTableRecord
  2
*D4
340
0
  0
BLOCK_RECORD
  5
143FC
330
7466
100
AcDbSymbolTableRecord
100
AcDbBlockTableRecord
  2
*D5
340
0
  0
BLOCK_RECORD
  5
14416
330
7466
100
AcDbSymbolTableRecord
100
AcDbBlockTableRecord
  2
*D6
340
0
  0
BLOCK_RECORD
  5
14422
330
7466
100
AcDbSymbolTableRecord
100
AcDbBlockTableRecord
  2
*D7
340
0
  0
BLOCK_RECORD
  5
1442E
330
7466
100
AcDbSymbolTableRecord
100
AcDbBlockTableRecord
  2
*D8
340
0
  0
BLOCK_RECORD
  5
1443C
330
7466
100
AcDbSymbolTableRecord
100
AcDbBlockTableRecord
  2
*D9
340
0
  0
BLOCK_RECORD
  5
14448
330
7466
100
AcDbSymbolTableRecord
100
AcDbBlockTableRecord
  2
*D10
340
0
  0
BLOCK_RECORD
  5
14456
330
7466
100
AcDbSymbolTableRecord
100
AcDbBlockTableRecord
  2
*D11
340
0
  0
BLOCK_RECORD
  5
14462
330
7466
100
AcDbSymbolTableRecord
100
AcDbBlockTableRecord
  2
*D12
340
0
  0
BLOCK_RECORD
  5
14470
330
7466
100
AcDbSymbolTableRecord
100
AcDbBlockTableRecord
  2
*D13
340
0
  0
BLOCK_RECORD
  5
1447E
330
7466
100
AcDbSymbolTableRecord
100
AcDbBlockTableRecord
  2
*D14
340
0
  0
BLOCK_RECORD
  5
1448A
330
7466
100
AcDbSymbolTableRecord
100
AcDbBlockTableRecord
  2
*D15
340
0
  0
BLOCK_RECORD
  5
14496
330
7466
100
AcDbSymbolTableRecord
100
AcDbBlockTableRecord
  2
*D16
340
0
  0
BLOCK_RECORD
  5
14AA9
330
7466
100
AcDbSymbolTableRecord
100
AcDbBlockTableRecord
  2
*D17
340
0
  0
BLOCK_RECORD
  5
14AB5
330
7466
100
AcDbSymbolTableRecord
100
AcDbBlockTableRecord
  2
*D18
340
0
  0
BLOCK_RECORD
  5
14AC1
330
7466
100
AcDbSymbolTableRecord
100
AcDbBlockTableRecord
  2
*D19
340
0
  0
BLOCK_RECORD
  5
14ACD
330
7466
100
AcDbSymbolTableRecord
100
AcDbBlockTableRecord
  2
*D20
340
0
  0
BLOCK_RECORD
  5
14AD9
330
7466
100
AcDbSymbolTableRecord
100
AcDbBlockTableRecord
  2
*D21
340
0
  0
BLOCK_RECORD
  5
14AE7
330
7466
100
AcDbSymbolTableRecord
100
AcDbBlockTableRecord
  2
*D22
340
0
  0
BLOCK_RECORD
  5
14AF3
330
7466
100
AcDbSymbolTableRecord
100
AcDbBlockTableRecord
  2
*D23
340
0
  0
BLOCK_RECORD
  5
14B01
330
7466
100
AcDbSymbolTableRecord
100
AcDbBlockTableRecord
  2
*D24
340
0
  0
BLOCK_RECORD
  5
14B0D
330
7466
100
AcDbSymbolTableRecord
100
AcDbBlockTableRecord
  2
*D25
340
0
  0
BLOCK_RECORD
  5
14B1A
330
7466
100
AcDbSymbolTableRecord
100
AcDbBlockTableRecord
  2
*D26
340
0
  0
BLOCK_RECORD
  5
14EF9
330
7466
100
AcDbSymbolTableRecord
100
AcDbBlockTableRecord
  2
*D27
340
0
  0
BLOCK_RECORD
  5
1529D
330
7466
100
AcDbSymbolTableRecord
100
AcDbBlockTableRecord
  2
*D28
340
0
  0
BLOCK_RECORD
  5
152A9
330
7466
100
AcDbSymbolTableRecord
100
AcDbBlockTableRecord
  2
*D29
340
0
  0
BLOCK_RECORD
  5
152DB
330
7466
100
AcDbSymbolTableRecord
100
AcDbBlockTableRecord
  2
*D30
340
0
  0
BLOCK_RECORD
  5
152F5
330
7466
100
AcDbSymbolTableRecord
100
AcDbBlockTableRecord
  2
*D31
340
0
  0
ENDTAB
  0
ENDSEC
  0
SECTION
  2
BLOCKS
  0
BLOCK
  5
7489
330
747D
100
AcDbEntity
  8
0
100
AcDbBlockBegin
  2
*MODEL_SPACE
 70
     0
 10
0.0
 20
0.0
 30
0.0
  3
*MODEL_SPACE
  1

  0
ENDBLK
  5
748A
330
747D
100
AcDbEntity
  8
0
100
AcDbBlockEnd
  0
BLOCK
  5
7487
330
747A
100
AcDbEntity
 67
     1
  8
0
100
AcDbBlockBegin
  2
*PAPER_SPACE
 70
     0
 10
0.0
 20
0.0
 30
0.0
  3
*PAPER_SPACE
  1

  0
ENDBLK
  5
7488
330
747A
100
AcDbEntity
 67
     1
  8
0
100
AcDbBlockEnd
  0
BLOCK
  5
ECB4
330
ECB3
100
AcDbEntity
  8
0
100
AcDbBlockBegin
  2
作図枠S50
 70
     0
 10
0.0
 20
0.0
 30
0.0
  3
作図枠S50
  1

  4
作図領域枠 縮尺 1/50
  0
LINE
  5
ECB5
330
ECB3
100
AcDbEntity
  8
補助
100
AcDbLine
 10
14364.0
 20
14262.0
 30
0.0
 11
174.9999999999993
 21
14262.0
 31
0.0
  0
LINE
  5
ECB6
330
ECB3
100
AcDbEntity
  8
補助
100
AcDbLine
 10
174.9999999999993
 20
14262.0
 30
0.0
 11
174.9999999999993
 21
1520.0
 31
0.0
  0
LINE
  5
ECB7
330
ECB3
100
AcDbEntity
  8
補助
100
AcDbLine
 10
174.9999999999993
 20
1520.0
 30
0.0
 11
20384.0
 21
1520.0
 31
0.0
  0
LINE
  5
ECB8
330
ECB3
100
AcDbEntity
  8
補助
100
AcDbLine
 10
20384.0
 20
1520.0
 30
0.0
 11
20384.0
 21
13042.0
 31
0.0
  0
LINE
  5
ECB9
330
ECB3
100
AcDbEntity
  8
補助
100
AcDbLine
 10
20384.0
 20
13042.0
 30
0.0
 11
14364.0
 21
13042.0
 31
0.0
  0
LINE
  5
ECBA
330
ECB3
100
AcDbEntity
  8
補助
100
AcDbLine
 10
14364.0
 20
13042.0
 30
0.0
 11
14364.0
 21
14262.0
 31
0.0
  0
ENDBLK
  5
ECBB
330
ECB3
100
AcDbEntity
  8
0
100
AcDbBlockEnd
  0
BLOCK
  5
F745
330
F744
100
AcDbEntity
  8
0
 48
50.0
100
AcDbBlockBegin
  2
_DOT
 70
     0
 10
0.0
 20
0.0
 30
0.0
  3
_DOT
  1

  0
LWPOLYLINE
  5
F746
330
F744
100
AcDbEntity
  8
0
  6
ByBlock
 62
     0
 48
50.0
100
AcDbPolyline
 90
        2
 70
     1
 43
0.5
 10
-0.25
 20
0.0
 42
1.0
 10
0.25
 20
0.0
 42
1.0
  0
LINE
  5
F74A
330
F744
100
AcDbEntity
  8
0
  6
ByBlock
 62
     0
 48
50.0
100
AcDbLine
 10
-0.5
 20
0.0
 30
0.0
 11
-1.0
 21
0.0
 31
0.0
  0
ENDBLK
  5
F74B
330
F744
100
AcDbEntity
  8
0
 48
50.0
100
AcDbBlockEnd
  0
BLOCK
  5
F771
330
F770
100
AcDbEntity
  8
0
 48
50.0
100
AcDbBlockBegin
  2
_DOTSMALL
 70
     0
 10
0.0
 20
0.0
 30
0.0
  3
_DOTSMALL
  1

  0
LWPOLYLINE
  5
F772
330
F770
100
AcDbEntity
  8
0
  6
ByBlock
 62
     0
 48
50.0
100
AcDbPolyline
 90
        2
 70
     1
 43
0.5
 10
-0.0625
 20
0.0
 42
1.0
 10
0.0625
 20
0.0
 42
1.0
  0
ENDBLK
  5
F776
330
F770
100
AcDbEntity
  8
0
 48
50.0
100
AcDbBlockEnd
  0
BLOCK
  5
143E2
330
143D8
100
AcDbEntity
  8
0
 48
50.0
100
AcDbBlockBegin
  2
*D3
 70
     1
 10
0.0
 20
0.0
 30
0.0
  3
*D3
  1

  0
LINE
  5
1549A
330
143D8
100
AcDbEntity
  8
寸法
 62
     0
 48
50.0
370
    -2
100
AcDbLine
 10
5494.695515348524
 20
10034.3404968679
 30
0.0
 11
5494.695515348524
 21
10429.0529068867
 31
0.0
  0
LINE
  5
1549B
330
143D8
100
AcDbEntity
  8
寸法
 62
     0
 48
50.0
370
    -2
100
AcDbLine
 10
5604.695515348525
 20
10034.3404968679
 30
0.0
 11
5604.695515348525
 21
10429.0529068867
 31
0.0
  0
LINE
  5
1549C
330
143D8
100
AcDbEntity
  8
寸法
 62
     0
 48
50.0
370
    -2
100
AcDbLine
 10
5514.695515348525
 20
10389.0529068867
 30
0.0
 11
5584.695515348525
 21
10389.0529068867
 31
0.0
  0
INSERT
  5
1549D
330
143D8
100
AcDbEntity
  8
寸法
 62
     0
 48
50.0
370
    -2
100
AcDbBlockReference
  2
_DOT
 10
5494.695515348524
 20
10389.0529068867
 30
0.0
 41
20.0
 42
20.0
 43
20.0
 50
180.0
  0
INSERT
  5
1549E
330
143D8
100
AcDbEntity
  8
寸法
 62
     0
 48
50.0
370
    -2
100
AcDbBlockReference
  2
_DOT
 10
5604.695515348525
 20
10389.0529068867
 30
0.0
 41
20.0
 42
20.0
 43
20.0
  0
MTEXT
  5
1549F
330
143D8
100
AcDbEntity
  8
寸法
 62
     7
 48
50.0
100
AcDbMText
 10
5549.695515348525
 20
10481.0529068867
 30
0.0
 40
120.0
 41
0.0
 71
     5
 72
     1
  1
\A1;110
  7
STYLE1
 73
     1
 44
1.0
1001
ACAD
1000
MTEXTBEGIN
1070
    73
1070
     1
1070
    44
1040
1.0
1070
    74
1070
     0
1000
MTEXTEND
  0
POINT
  5
154A0
330
143D8
100
AcDbEntity
  8
DEFPOINTS
 62
     0
 48
50.0
100
AcDbPoint
 10
5494.695515348524
 20
10014.3404968679
 30
0.0
  0
POINT
  5
154A1
330
143D8
100
AcDbEntity
  8
DEFPOINTS
 62
     0
 48
50.0
100
AcDbPoint
 10
5604.695515348525
 20
10014.3404968679
 30
0.0
  0
POINT
  5
154A2
330
143D8
100
AcDbEntity
  8
DEFPOINTS
 62
     0
 48
50.0
100
AcDbPoint
 10
5604.695515348525
 20
10389.0529068867
 30
0.0
  0
ENDBLK
  5
143E3
330
143D8
100
AcDbEntity
  8
0
 48
50.0
100
AcDbBlockEnd
  0
BLOCK
  5
143EE
330
143E4
100
AcDbEntity
  8
0
 48
50.0
100
AcDbBlockBegin
  2
*D4
 70
     1
 10
0.0
 20
0.0
 30
0.0
  3
*D4
  1

  0
LINE
  5
15491
330
143E4
100
AcDbEntity
  8
寸法
 62
     0
 48
50.0
370
    -2
100
AcDbLine
 10
5604.695515348525
 20
10034.3404968679
 30
0.0
 11
5604.695515348525
 21
10429.0529068867
 31
0.0
  0
LINE
  5
15492
330
143E4
100
AcDbEntity
  8
寸法
 62
     0
 48
50.0
370
    -2
100
AcDbLine
 10
8544.695515348525
 20
10034.3404968679
 30
0.0
 11
8544.695515348525
 21
10429.0529068867
 31
0.0
  0
LINE
  5
15493
330
143E4
100
AcDbEntity
  8
寸法
 62
     0
 48
50.0
370
    -2
100
AcDbLine
 10
5624.695515348525
 20
10389.0529068867
 30
0.0
 11
8524.695515348524
 21
10389.0529068867
 31
0.0
  0
INSERT
  5
15494
330
143E4
100
AcDbEntity
  8
寸法
 62
     0
 48
50.0
370
    -2
100
AcDbBlockReference
  2
_DOT
 10
5604.695515348525
 20
10389.0529068867
 30
0.0
 41
20.0
 42
20.0
 43
20.0
 50
180.0
  0
INSERT
  5
15495
330
143E4
100
AcDbEntity
  8
寸法
 62
     0
 48
50.0
370
    -2
100
AcDbBlockReference
  2
_DOT
 10
8544.695515348525
 20
10389.0529068867
 30
0.0
 41
20.0
 42
20.0
 43
20.0
  0
MTEXT
  5
15496
330
143E4
100
AcDbEntity
  8
寸法
 62
     7
 48
50.0
100
AcDbMText
 10
7074.695515348524
 20
10481.06471791032
 30
0.0
 40
120.0
 41
0.0
 71
     5
 72
     1
  1
\A1;7X420=2940
  7
STYLE1
 73
     1
 44
1.0
1001
ACAD
1000
MTEXTBEGIN
1070
    73
1070
     1
1070
    44
1040
1.0
1070
    74
1070
     0
1000
MTEXTEND
  0
POINT
  5
15497
330
143E4
100
AcDbEntity
  8
DEFPOINTS
 62
     0
 48
50.0
100
AcDbPoint
 10
5604.695515348525
 20
10014.3404968679
 30
0.0
  0
POINT
  5
15498
330
143E4
100
AcDbEntity
  8
DEFPOINTS
 62
     0
 48
50.0
100
AcDbPoint
 10
8544.695515348525
 20
10014.3404968679
 30
0.0
  0
POINT
  5
15499
330
143E4
100
AcDbEntity
  8
DEFPOINTS
 62
     0
 48
50.0
100
AcDbPoint
 10
8544.695515348525
 20
10389.0529068867
 30
0.0
  0
ENDBLK
  5
143EF
330
143E4
100
AcDbEntity
  8
0
 48
50.0
100
AcDbBlockEnd
  0
BLOCK
  5
14408
330
143FC
100
AcDbEntity
  8
0
 48
50.0
100
AcDbBlockBegin
  2
*D5
 70
     1
 10
0.0
 20
0.0
 30
0.0
  3
*D5
  1

  0
LINE
  5
15486
330
143FC
100
AcDbEntity
  8
寸法
 62
     0
 48
50.0
370
    -2
100
AcDbLine
 10
2499.695515348526
 20
10034.3404968679
 30
0.0
 11
2499.695515348526
 21
10429.0529068867
 31
0.0
  0
LINE
  5
15487
330
143FC
100
AcDbEntity
  8
寸法
 62
     0
 48
50.0
370
    -2
100
AcDbLine
 10
2554.695515348525
 20
10034.3404968679
 30
0.0
 11
2554.695515348525
 21
10429.0529068867
 31
0.0
  0
LINE
  5
15488
330
143FC
100
AcDbEntity
  8
寸法
 62
     0
 48
50.0
370
    -2
100
AcDbLine
 10
2574.695515348525
 20
10389.0529068867
 30
0.0
 11
2594.695515348525
 21
10389.0529068867
 31
0.0
  0
LINE
  5
15489
330
143FC
100
AcDbEntity
  8
寸法
 62
     0
 48
50.0
370
    -2
100
AcDbLine
 10
2479.695515348525
 20
10389.0529068867
 30
0.0
 11
2005.043567307622
 21
10389.0529068867
 31
0.0
  0
LINE
  5
1548A
330
143FC
100
AcDbEntity
  8
寸法
 62
     0
 48
50.0
370
    -2
100
AcDbLine
 10
2554.695515348525
 20
10389.0529068867
 30
0.0
 11
2499.695515348526
 21
10389.0529068867
 31
0.0
  0
INSERT
  5
1548B
330
143FC
100
AcDbEntity
  8
寸法
 62
     0
 48
50.0
370
    -2
100
AcDbBlockReference
  2
_DOT
 10
2554.695515348525
 20
10389.0529068867
 30
0.0
 41
20.0
 42
20.0
 43
20.0
 50
180.0
  0
INSERT
  5
1548C
330
143FC
100
AcDbEntity
  8
寸法
 62
     0
 48
50.0
370
    -2
100
AcDbBlockReference
  2
_DOT
 10
2499.695515348526
 20
10389.0529068867
 30
0.0
 41
20.0
 42
20.0
 43
20.0
  0
MTEXT
  5
1548D
330
143FC
100
AcDbEntity
  8
寸法
 62
     7
 48
50.0
100
AcDbMText
 10
2105.528848681861
 20
10481.0529068867
 30
0.0
 40
120.0
 41
0.0
 71
     5
 72
     1
  1
\A1;55
  7
STYLE1
 73
     1
 44
1.0
1001
ACAD
1000
MTEXTBEGIN
1070
    73
1070
     1
1070
    44
1040
1.0
1070
    74
1070
     0
1000
MTEXTEND
  0
POINT
  5
1548E
330
143FC
100
AcDbEntity
  8
DEFPOINTS
 62
     0
 48
50.0
100
AcDbPoint
 10
2499.695515348526
 20
10014.3404968679
 30
0.0
  0
POINT
  5
1548F
330
143FC
100
AcDbEntity
  8
DEFPOINTS
 62
     0
 48
50.0
100
AcDbPoint
 10
2554.695515348525
 20
10014.3404968679
 30
0.0
  0
POINT
  5
15490
330
143FC
100
AcDbEntity
  8
DEFPOINTS
 62
     0
 48
50.0
100
AcDbPoint
 10
2554.695515348525
 20
10389.0529068867
 30
0.0
  0
ENDBLK
  5
14409
330
143FC
100
AcDbEntity
  8
0
 48
50.0
100
AcDbBlockEnd
  0
BLOCK
  5
14420
330
14416
100
AcDbEntity
  8
0
 48
50.0
100
AcDbBlockBegin
  2
*D6
 70
     1
 10
0.0
 20
0.0
 30
0.0
  3
*D6
  1

  0
LINE
  5
1547D
330
14416
100
AcDbEntity
  8
寸法
 62
     0
 48
50.0
370
    -2
100
AcDbLine
 10
2554.695515348525
 20
10034.3404968679
 30
0.0
 11
2554.695515348525
 21
10429.0529068867
 31
0.0
  0
LINE
  5
1547E
330
14416
100
AcDbEntity
  8
寸法
 62
     0
 48
50.0
370
    -2
100
AcDbLine
 10
5494.695515348524
 20
10034.3404968679
 30
0.0
 11
5494.695515348524
 21
10429.0529068867
 31
0.0
  0
LINE
  5
1547F
330
14416
100
AcDbEntity
  8
寸法
 62
     0
 48
50.0
370
    -2
100
AcDbLine
 10
2574.695515348525
 20
10389.0529068867
 30
0.0
 11
5474.695515348525
 21
10389.0529068867
 31
0.0
  0
INSERT
  5
15480
330
14416
100
AcDbEntity
  8
寸法
 62
     0
 48
50.0
370
    -2
100
AcDbBlockReference
  2
_DOT
 10
2554.695515348525
 20
10389.0529068867
 30
0.0
 41
20.0
 42
20.0
 43
20.0
 50
180.0
  0
INSERT
  5
15481
330
14416
100
AcDbEntity
  8
寸法
 62
     0
 48
50.0
370
    -2
100
AcDbBlockReference
  2
_DOT
 10
5494.695515348524
 20
10389.0529068867
 30
0.0
 41
20.0
 42
20.0
 43
20.0
  0
MTEXT
  5
15482
330
14416
100
AcDbEntity
  8
寸法
 62
     7
 48
50.0
100
AcDbMText
 10
4024.695515348525
 20
10481.06471791032
 30
0.0
 40
120.0
 41
0.0
 71
     5
 72
     1
  1
\A1;7X420=2940
  7
STYLE1
 73
     1
 44
1.0
1001
ACAD
1000
MTEXTBEGIN
1070
    73
1070
     1
1070
    44
1040
1.0
1070
    74
1070
     0
1000
MTEXTEND
  0
POINT
  5
15483
330
14416
100
AcDbEntity
  8
DEFPOINTS
 62
     0
 48
50.0
100
AcDbPoint
 10
2554.695515348525
 20
10014.3404968679
 30
0.0
  0
POINT
  5
15484
330
14416
100
AcDbEntity
  8
DEFPOINTS
 62
     0
 48
50.0
100
AcDbPoint
 10
5494.695515348524
 20
10014.3404968679
 30
0.0
  0
POINT
  5
15485
330
14416
100
AcDbEntity
  8
DEFPOINTS
 62
     0
 48
50.0
100
AcDbPoint
 10
5494.695515348524
 20
10389.0529068867
 30
0.0
  0
ENDBLK
  5
14421
330
14416
100
AcDbEntity
  8
0
 48
50.0
100
AcDbBlockEnd
  0
BLOCK
  5
1442C
330
14422
100
AcDbEntity
  8
0
 48
50.0
100
AcDbBlockBegin
  2
*D7
 70
     1
 10
0.0
 20
0.0
 30
0.0
  3
*D7
  1

  0
LINE
  5
15474
330
14422
100
AcDbEntity
  8
寸法
 62
     0
 48
50.0
370
    -2
100
AcDbLine
 10
2499.695515348526
 20
10034.3404968679
 30
0.0
 11
2499.695515348526
 21
10729.0529068867
 31
0.0
  0
LINE
  5
15475
330
14422
100
AcDbEntity
  8
寸法
 62
     0
 48
50.0
370
    -2
100
AcDbLine
 10
8599.695515348525
 20
10034.3404968679
 30
0.0
 11
8599.695515348525
 21
10729.0529068867
 31
0.0
  0
LINE
  5
15476
330
14422
100
AcDbEntity
  8
寸法
 62
     0
 48
50.0
370
    -2
100
AcDbLine
 10
2519.695515348525
 20
10689.0529068867
 30
0.0
 11
8579.695515348525
 21
10689.0529068867
 31
0.0
  0
INSERT
  5
15477
330
14422
100
AcDbEntity
  8
寸法
 62
     0
 48
50.0
370
    -2
100
AcDbBlockReference
  2
_DOT
 10
2499.695515348526
 20
10689.0529068867
 30
0.0
 41
20.0
 42
20.0
 43
20.0
 50
180.0
  0
INSERT
  5
15478
330
14422
100
AcDbEntity
  8
寸法
 62
     0
 48
50.0
370
    -2
100
AcDbBlockReference
  2
_DOT
 10
8599.695515348525
 20
10689.0529068867
 30
0.0
 41
20.0
 42
20.0
 43
20.0
  0
MTEXT
  5
15479
330
14422
100
AcDbEntity
  8
寸法
 62
     7
 48
50.0
100
AcDbMText
 10
5549.695515348525
 20
10781.0529068867
 30
0.0
 40
120.0
 41
0.0
 71
     5
 72
     1
  1
\A1;6100
  7
STYLE1
 73
     1
 44
1.0
1001
ACAD
1000
MTEXTBEGIN
1070
    73
1070
     1
1070
    44
1040
1.0
1070
    74
1070
     0
1000
MTEXTEND
  0
POINT
  5
1547A
330
14422
100
AcDbEntity
  8
DEFPOINTS
 62
     0
 48
50.0
100
AcDbPoint
 10
2499.695515348526
 20
10014.3404968679
 30
0.0
  0
POINT
  5
1547B
330
14422
100
AcDbEntity
  8
DEFPOINTS
 62
     0
 48
50.0
100
AcDbPoint
 10
8599.695515348525
 20
10014.3404968679
 30
0.0
  0
POINT
  5
1547C
330
14422
100
AcDbEntity
  8
DEFPOINTS
 62
     0
 48
50.0
100
AcDbPoint
 10
8599.695515348525
 20
10689.0529068867
 30
0.0
  0
ENDBLK
  5
1442D
330
14422
100
AcDbEntity
  8
0
 48
50.0
100
AcDbBlockEnd
  0
BLOCK
  5
1443A
330
1442E
100
AcDbEntity
  8
0
 48
50.0
100
AcDbBlockBegin
  2
*D8
 70
     1
 10
0.0
 20
0.0
 30
0.0
  3
*D8
  1

  0
LINE
  5
15469
330
1442E
100
AcDbEntity
  8
寸法
 62
     0
 48
50.0
370
    -2
100
AcDbLine
 10
8619.695515348524
 20
10014.3404968679
 30
0.0
 11
9410.44263239288
 21
10014.3404968679
 31
0.0
  0
LINE
  5
1546A
330
1442E
100
AcDbEntity
  8
寸法
 62
     0
 48
50.0
370
    -2
100
AcDbLine
 10
8619.695515348524
 20
9959.340496867907
 30
0.0
 11
9410.44263239288
 21
9959.340496867907
 31
0.0
  0
LINE
  5
1546B
330
1442E
100
AcDbEntity
  8
寸法
 62
     0
 48
50.0
370
    -2
100
AcDbLine
 10
9370.44263239288
 20
9939.340496867906
 30
0.0
 11
9370.44263239288
 21
9919.340496867906
 31
0.0
  0
LINE
  5
1546C
330
1442E
100
AcDbEntity
  8
寸法
 62
     0
 48
50.0
370
    -2
100
AcDbLine
 10
9370.44263239288
 20
10034.3404968679
 30
0.0
 11
9370.44263239288
 21
10508.9924449088
 31
0.0
  0
LINE
  5
1546D
330
1442E
100
AcDbEntity
  8
寸法
 62
     0
 48
50.0
370
    -2
100
AcDbLine
 10
9370.44263239288
 20
9959.340496867907
 30
0.0
 11
9370.44263239288
 21
10014.3404968679
 31
0.0
  0
INSERT
  5
1546E
330
1442E
100
AcDbEntity
  8
寸法
 62
     0
 48
50.0
370
    -2
100
AcDbBlockReference
  2
_DOT
 10
9370.44263239288
 20
9959.340496867907
 30
0.0
 41
20.0
 42
20.0
 43
20.0
 50
90.0
  0
INSERT
  5
1546F
330
1442E
100
AcDbEntity
  8
寸法
 62
     0
 48
50.0
370
    -2
100
AcDbBlockReference
  2
_DOT
 10
9370.44263239288
 20
10014.3404968679
 30
0.0
 41
20.0
 42
20.0
 43
20.0
 50
270.0
  0
MTEXT
  5
15470
330
1442E
100
AcDbEntity
  8
寸法
 62
     7
 48
50.0
100
AcDbMText
 10
9278.442632392879
 20
10408.50716353457
 30
0.0
 40
120.0
 41
0.0
 71
     5
 72
     1
  1
\A1;55
  7
STYLE1
 11
0.0000000000000001
 21
1.0
 31
0.0
 73
     1
 44
1.0
1001
ACAD
1000
MTEXTBEGIN
1070
    73
1070
     1
1070
    44
1040
1.0
1070
    74
1070
     0
1000
MTEXTEND
  0
POINT
  5
15471
330
1442E
100
AcDbEntity
  8
DEFPOINTS
 62
     0
 48
50.0
100
AcDbPoint
 10
8599.695515348525
 20
10014.3404968679
 30
0.0
  0
POINT
  5
15472
330
1442E
100
AcDbEntity
  8
DEFPOINTS
 62
     0
 48
50.0
100
AcDbPoint
 10
8599.695515348525
 20
9959.340496867907
 30
0.0
  0
POINT
  5
15473
330
1442E
100
AcDbEntity
  8
DEFPOINTS
 62
     0
 48
50.0
100
AcDbPoint
 10
9370.44263239288
 20
9959.340496867907
 30
0.0
  0
ENDBLK
  5
1443B
330
1442E
100
AcDbEntity
  8
0
 48
50.0
100
AcDbBlockEnd
  0
BLOCK
  5
14446
330
1443C
100
AcDbEntity
  8
0
 48
50.0
100
AcDbBlockBegin
  2
*D9
 70
     1
 10
0.0
 20
0.0
 30
0.0
  3
*D9
  1

  0
LINE
  5
15460
330
1443C
100
AcDbEntity
  8
寸法
 62
     0
 48
50.0
370
    -2
100
AcDbLine
 10
8619.695515348524
 20
9959.340496867907
 30
0.0
 11
9410.442632392879
 21
9959.340496867907
 31
0.0
  0
LINE
  5
15461
330
1443C
100
AcDbEntity
  8
寸法
 62
     0
 48
50.0
370
    -2
100
AcDbLine
 10
8619.695515348524
 20
7439.340496867899
 30
0.0
 11
9410.442632392879
 21
7439.340496867899
 31
0.0
  0
LINE
  5
15462
330
1443C
100
AcDbEntity
  8
寸法
 62
     0
 48
50.0
370
    -2
100
AcDbLine
 10
9370.442632392878
 20
9939.340496867906
 30
0.0
 11
9370.442632392878
 21
7459.340496867899
 31
0.0
  0
INSERT
  5
15463
330
1443C
100
AcDbEntity
  8
寸法
 62
     0
 48
50.0
370
    -2
100
AcDbBlockReference
  2
_DOT
 10
9370.442632392878
 20
9959.340496867907
 30
0.0
 41
20.0
 42
20.0
 43
20.0
 50
90.0
  0
INSERT
  5
15464
330
1443C
100
AcDbEntity
  8
寸法
 62
     0
 48
50.0
370
    -2
100
AcDbBlockReference
  2
_DOT
 10
9370.442632392878
 20
7439.340496867899
 30
0.0
 41
20.0
 42
20.0
 43
20.0
 50
270.0
  0
MTEXT
  5
15465
330
1443C
100
AcDbEntity
  8
寸法
 62
     7
 48
50.0
100
AcDbMText
 10
9278.430821369255
 20
8699.340496867904
 30
0.0
 40
120.0
 41
0.0
 71
     5
 72
     1
  1
\A1;6X420=2520
  7
STYLE1
 11
0.0000000000000001
 21
1.0
 31
0.0
 73
     1
 44
1.0
1001
ACAD
1000
MTEXTBEGIN
1070
    73
1070
     1
1070
    44
1040
1.0
1070
    74
1070
     0
1000
MTEXTEND
  0
POINT
  5
15466
330
1443C
100
AcDbEntity
  8
DEFPOINTS
 62
     0
 48
50.0
100
AcDbPoint
 10
8599.695515348525
 20
9959.340496867907
 30
0.0
  0
POINT
  5
15467
330
1443C
100
AcDbEntity
  8
DEFPOINTS
 62
     0
 48
50.0
100
AcDbPoint
 10
8599.695515348525
 20
7439.340496867899
 30
0.0
  0
POINT
  5
15468
330
1443C
100
AcDbEntity
  8
DEFPOINTS
 62
     0
 48
50.0
100
AcDbPoint
 10
9370.442632392878
 20
7439.340496867899
 30
0.0
  0
ENDBLK
  5
14447
330
1443C
100
AcDbEntity
  8
0
 48
50.0
100
AcDbBlockEnd
  0
BLOCK
  5
14454
330
14448
100
AcDbEntity
  8
0
 48
50.0
100
AcDbBlockBegin
  2
*D10
 70
     1
 10
0.0
 20
0.0
 30
0.0
  3
*D10
  1

  0
LINE
  5
15455
330
14448
100
AcDbEntity
  8
寸法
 62
     0
 48
50.0
370
    -2
100
AcDbLine
 10
8619.695515348524
 20
7439.340496867899
 30
0.0
 11
9410.44263239288
 21
7439.340496867899
 31
0.0
  0
LINE
  5
15456
330
14448
100
AcDbEntity
  8
寸法
 62
     0
 48
50.0
370
    -2
100
AcDbLine
 10
8619.695515348524
 20
7384.340496867903
 30
0.0
 11
9410.44263239288
 21
7384.340496867903
 31
0.0
  0
LINE
  5
15457
330
14448
100
AcDbEntity
  8
寸法
 62
     0
 48
50.0
370
    -2
100
AcDbLine
 10
9370.44263239288
 20
7459.340496867899
 30
0.0
 11
9370.44263239288
 21
7479.340496867898
 31
0.0
  0
LINE
  5
15458
330
14448
100
AcDbEntity
  8
寸法
 62
     0
 48
50.0
370
    -2
100
AcDbLine
 10
9370.44263239288
 20
7364.340496867902
 30
0.0
 11
9370.44263239288
 21
6889.688548826995
 31
0.0
  0
LINE
  5
15459
330
14448
100
AcDbEntity
  8
寸法
 62
     0
 48
50.0
370
    -2
100
AcDbLine
 10
9370.44263239288
 20
7439.340496867899
 30
0.0
 11
9370.44263239288
 21
7384.340496867903
 31
0.0
  0
INSERT
  5
1545A
330
14448
100
AcDbEntity
  8
寸法
 62
     0
 48
50.0
370
    -2
100
AcDbBlockReference
  2
_DOT
 10
9370.44263239288
 20
7439.340496867899
 30
0.0
 41
20.0
 42
20.0
 43
20.0
 50
270.0
  0
INSERT
  5
1545B
330
14448
100
AcDbEntity
  8
寸法
 62
     0
 48
50.0
370
    -2
100
AcDbBlockReference
  2
_DOT
 10
9370.44263239288
 20
7384.340496867903
 30
0.0
 41
20.0
 42
20.0
 43
20.0
 50
90.0
  0
MTEXT
  5
1545C
330
14448
100
AcDbEntity
  8
寸法
 62
     7
 48
50.0
100
AcDbMText
 10
9278.442632392879
 20
6990.173830201236
 30
0.0
 40
120.0
 41
0.0
 71
     5
 72
     1
  1
\A1;55
  7
STYLE1
 11
0.0000000000000001
 21
1.0
 31
0.0
 73
     1
 44
1.0
1001
ACAD
1000
MTEXTBEGIN
1070
    73
1070
     1
1070
    44
1040
1.0
1070
    74
1070
     0
1000
MTEXTEND
  0
POINT
  5
1545D
330
14448
100
AcDbEntity
  8
DEFPOINTS
 62
     0
 48
50.0
100
AcDbPoint
 10
8599.695515348525
 20
7439.340496867899
 30
0.0
  0
POINT
  5
1545E
330
14448
100
AcDbEntity
  8
DEFPOINTS
 62
     0
 48
50.0
100
AcDbPoint
 10
8599.695515348525
 20
7384.340496867903
 30
0.0
  0
POINT
  5
1545F
330
14448
100
AcDbEntity
  8
DEFPOINTS
 62
     0
 48
50.0
100
AcDbPoint
 10
9370.44263239288
 20
7384.340496867903
 30
0.0
  0
ENDBLK
  5
14455
330
14448
100
AcDbEntity
  8
0
 48
50.0
100
AcDbBlockEnd
  0
BLOCK
  5
14460
330
14456
100
AcDbEntity
  8
0
 48
50.0
100
AcDbBlockBegin
  2
*D11
 70
     1
 10
0.0
 20
0.0
 30
0.0
  3
*D11
  1

  0
LINE
  5
1544C
330
14456
100
AcDbEntity
  8
寸法
 62
     0
 48
50.0
370
    -2
100
AcDbLine
 10
8619.695515348524
 20
10014.3404968679
 30
0.0
 11
9710.442632392879
 21
10014.3404968679
 31
0.0
  0
LINE
  5
1544D
330
14456
100
AcDbEntity
  8
寸法
 62
     0
 48
50.0
370
    -2
100
AcDbLine
 10
8619.695515348524
 20
7384.340496867903
 30
0.0
 11
9710.442632392879
 21
7384.340496867903
 31
0.0
  0
LINE
  5
1544E
330
14456
100
AcDbEntity
  8
寸法
 62
     0
 48
50.0
370
    -2
100
AcDbLine
 10
9670.442632392878
 20
9994.340496867904
 30
0.0
 11
9670.442632392878
 21
7404.340496867902
 31
0.0
  0
INSERT
  5
1544F
330
14456
100
AcDbEntity
  8
寸法
 62
     0
 48
50.0
370
    -2
100
AcDbBlockReference
  2
_DOT
 10
9670.442632392878
 20
10014.3404968679
 30
0.0
 41
20.0
 42
20.0
 43
20.0
 50
90.0
  0
INSERT
  5
15450
330
14456
100
AcDbEntity
  8
寸法
 62
     0
 48
50.0
370
    -2
100
AcDbBlockReference
  2
_DOT
 10
9670.442632392878
 20
7384.340496867903
 30
0.0
 41
20.0
 42
20.0
 43
20.0
 50
270.0
  0
MTEXT
  5
15451
330
14456
100
AcDbEntity
  8
寸法
 62
     7
 48
50.0
100
AcDbMText
 10
9578.430821369256
 20
8699.340496867904
 30
0.0
 40
120.0
 41
0.0
 71
     5
 72
     1
  1
\A1;2630
  7
STYLE1
 11
0.0000000000000001
 21
1.0
 31
0.0
 73
     1
 44
1.0
1001
ACAD
1000
MTEXTBEGIN
1070
    73
1070
     1
1070
    44
1040
1.0
1070
    74
1070
     0
1000
MTEXTEND
  0
POINT
  5
15452
330
14456
100
AcDbEntity
  8
DEFPOINTS
 62
     0
 48
50.0
100
AcDbPoint
 10
8599.695515348525
 20
10014.3404968679
 30
0.0
  0
POINT
  5
15453
330
14456
100
AcDbEntity
  8
DEFPOINTS
 62
     0
 48
50.0
100
AcDbPoint
 10
8599.695515348525
 20
7384.340496867903
 30
0.0
  0
POINT
  5
15454
330
14456
100
AcDbEntity
  8
DEFPOINTS
 62
     0
 48
50.0
100
AcDbPoint
 10
9670.442632392878
 20
7384.340496867903
 30
0.0
  0
ENDBLK
  5
14461
330
14456
100
AcDbEntity
  8
0
 48
50.0
100
AcDbBlockEnd
  0
BLOCK
  5
1446E
330
14462
100
AcDbEntity
  8
0
 48
50.0
100
AcDbBlockBegin
  2
*D12
 70
     1
 10
0.0
 20
0.0
 30
0.0
  3
*D12
  1

  0
LINE
  5
15441
330
14462
100
AcDbEntity
  8
寸法
 62
     0
 48
50.0
370
    -2
100
AcDbLine
 10
8544.695515348525
 20
10034.3404968679
 30
0.0
 11
8544.695515348525
 21
10429.0529068867
 31
0.0
  0
LINE
  5
15442
330
14462
100
AcDbEntity
  8
寸法
 62
     0
 48
50.0
370
    -2
100
AcDbLine
 10
8599.695515348525
 20
10034.3404968679
 30
0.0
 11
8599.695515348525
 21
10429.0529068867
 31
0.0
  0
LINE
  5
15443
330
14462
100
AcDbEntity
  8
寸法
 62
     0
 48
50.0
370
    -2
100
AcDbLine
 10
8524.695515348524
 20
10389.0529068867
 30
0.0
 11
8504.695515348526
 21
10389.0529068867
 31
0.0
  0
LINE
  5
15444
330
14462
100
AcDbEntity
  8
寸法
 62
     0
 48
50.0
370
    -2
100
AcDbLine
 10
8619.695515348524
 20
10389.0529068867
 30
0.0
 11
9094.347463389429
 21
10389.0529068867
 31
0.0
  0
LINE
  5
15445
330
14462
100
AcDbEntity
  8
寸法
 62
     0
 48
50.0
370
    -2
100
AcDbLine
 10
8544.695515348525
 20
10389.0529068867
 30
0.0
 11
8599.695515348525
 21
10389.0529068867
 31
0.0
  0
INSERT
  5
15446
330
14462
100
AcDbEntity
  8
寸法
 62
     0
 48
50.0
370
    -2
100
AcDbBlockReference
  2
_DOT
 10
8544.695515348525
 20
10389.0529068867
 30
0.0
 41
20.0
 42
20.0
 43
20.0
  0
INSERT
  5
15447
330
14462
100
AcDbEntity
  8
寸法
 62
     0
 48
50.0
370
    -2
100
AcDbBlockReference
  2
_DOT
 10
8599.695515348525
 20
10389.0529068867
 30
0.0
 41
20.0
 42
20.0
 43
20.0
 50
180.0
  0
MTEXT
  5
15448
330
14462
100
AcDbEntity
  8
寸法
 62
     7
 48
50.0
100
AcDbMText
 10
8993.86218201519
 20
10481.0529068867
 30
0.0
 40
120.0
 41
0.0
 71
     5
 72
     1
  1
\A1;55
  7
STYLE1
 73
     1
 44
1.0
1001
ACAD
1000
MTEXTBEGIN
1070
    73
1070
     1
1070
    44
1040
1.0
1070
    74
1070
     0
1000
MTEXTEND
  0
POINT
  5
15449
330
14462
100
AcDbEntity
  8
DEFPOINTS
 62
     0
 48
50.0
100
AcDbPoint
 10
8544.695515348525
 20
10014.3404968679
 30
0.0
  0
POINT
  5
1544A
330
14462
100
AcDbEntity
  8
DEFPOINTS
 62
     0
 48
50.0
100
AcDbPoint
 10
8599.695515348525
 20
10014.3404968679
 30
0.0
  0
POINT
  5
1544B
330
14462
100
AcDbEntity
  8
DEFPOINTS
 62
     0
 48
50.0
100
AcDbPoint
 10
8599.695515348525
 20
10389.0529068867
 30
0.0
  0
ENDBLK
  5
1446F
330
14462
100
AcDbEntity
  8
0
 48
50.0
100
AcDbBlockEnd
  0
BLOCK
  5
1447C
330
14470
100
AcDbEntity
  8
0
 48
50.0
100
AcDbBlockBegin
  2
*D13
 70
     1
 10
0.0
 20
0.0
 30
0.0
  3
*D13
  1

  0
LINE
  5
14D49
330
14470
100
AcDbEntity
  8
寸法
 62
     0
 48
50.0
370
    -2
100
AcDbLine
 10
8649.695515348529
 20
4683.112805903258
 30
0.0
 11
8649.695515348529
 21
4935.654391161499
 31
0.0
  0
LINE
  5
14D4A
330
14470
100
AcDbEntity
  8
寸法
 62
     0
 48
50.0
370
    -2
100
AcDbLine
 10
8599.695515348528
 20
4683.11280590326
 30
0.0
 11
8599.695515348528
 21
4935.654391161499
 31
0.0
  0
LINE
  5
14D4B
330
14470
100
AcDbEntity
  8
寸法
 62
     0
 48
50.0
370
    -2
100
AcDbLine
 10
8599.695515348528
 20
4875.654391161499
 30
0.0
 11
8499.695515348529
 21
4875.654391161499
 31
0.0
  0
LINE
  5
14D4C
330
14470
100
AcDbEntity
  8
寸法
 62
     0
 48
50.0
370
    -2
100
AcDbLine
 10
8649.695515348529
 20
4875.654391161499
 30
0.0
 11
9069.228040817252
 21
4875.654391161499
 31
0.0
  0
LINE
  5
14D4D
330
14470
100
AcDbEntity
  8
寸法
 62
     0
 48
50.0
370
    -2
100
AcDbLine
 10
8599.695515348528
 20
4875.654391161499
 30
0.0
 11
8649.695515348529
 21
4875.654391161499
 31
0.0
  0
INSERT
  5
14D4E
330
14470
100
AcDbEntity
  8
寸法
 62
     0
 48
50.0
370
    -2
100
AcDbBlockReference
  2
_DOTSMALL
 10
8599.695515348528
 20
4875.654391161499
 30
0.0
 41
100.0
 42
100.0
 43
100.0
  0
INSERT
  5
14D4F
330
14470
100
AcDbEntity
  8
寸法
 62
     0
 48
50.0
370
    -2
100
AcDbBlockReference
  2
_DOTSMALL
 10
8649.695515348529
 20
4875.654391161499
 30
0.0
 41
100.0
 42
100.0
 43
100.0
 50
180.0
  0
MTEXT
  5
14D50
330
14470
100
AcDbEntity
  8
寸法
 62
     7
 48
50.0
100
AcDbMText
 10
8963.180796722765
 20
4975.654391161499
 30
0.0
 40
120.0
 41
0.0
 71
     5
 72
     1
  1
\A1;50
  7
STYLE1
 73
     1
 44
1.0
1001
ACAD
1000
MTEXTBEGIN
1070
    73
1070
     1
1070
    44
1040
1.0
1070
    74
1070
     0
1000
MTEXTEND
  0
POINT
  5
14D51
330
14470
100
AcDbEntity
  8
DEFPOINTS
 62
     0
 48
50.0
100
AcDbPoint
 10
8649.695515348529
 20
4663.112805903258
 30
0.0
  0
POINT
  5
14D52
330
14470
100
AcDbEntity
  8
DEFPOINTS
 62
     0
 48
50.0
100
AcDbPoint
 10
8599.695515348528
 20
4663.112805903259
 30
0.0
  0
POINT
  5
14D53
330
14470
100
AcDbEntity
  8
DEFPOINTS
 62
     0
 48
50.0
100
AcDbPoint
 10
8599.695515348528
 20
4875.654391161499
 30
0.0
  0
ENDBLK
  5
1447D
330
14470
100
AcDbEntity
  8
0
 48
50.0
100
AcDbBlockEnd
  0
BLOCK
  5
14488
330
1447E
100
AcDbEntity
  8
0
 48
50.0
100
AcDbBlockBegin
  2
*D14
 70
     1
 10
0.0
 20
0.0
 30
0.0
  3
*D14
  1

  0
LINE
  5
14D40
330
1447E
100
AcDbEntity
  8
寸法
 62
     0
 48
50.0
370
    -2
100
AcDbLine
 10
8599.695515348528
 20
4683.11280590326
 30
0.0
 11
8599.695515348528
 21
4935.6543911615
 31
0.0
  0
LINE
  5
14D41
330
1447E
100
AcDbEntity
  8
寸法
 62
     0
 48
50.0
370
    -2
100
AcDbLine
 10
2499.695515348526
 20
4683.112805903264
 30
0.0
 11
2499.695515348526
 21
4935.6543911615
 31
0.0
  0
LINE
  5
14D42
330
1447E
100
AcDbEntity
  8
寸法
 62
     0
 48
50.0
370
    -2
100
AcDbLine
 10
8599.695515348528
 20
4875.6543911615
 30
0.0
 11
2499.695515348526
 21
4875.6543911615
 31
0.0
  0
INSERT
  5
14D43
330
1447E
100
AcDbEntity
  8
寸法
 62
     0
 48
50.0
370
    -2
100
AcDbBlockReference
  2
_DOTSMALL
 10
8599.695515348528
 20
4875.6543911615
 30
0.0
 41
100.0
 42
100.0
 43
100.0
  0
INSERT
  5
14D44
330
1447E
100
AcDbEntity
  8
寸法
 62
     0
 48
50.0
370
    -2
100
AcDbBlockReference
  2
_DOTSMALL
 10
2499.695515348526
 20
4875.6543911615
 30
0.0
 41
100.0
 42
100.0
 43
100.0
 50
180.0
  0
MTEXT
  5
14D45
330
1447E
100
AcDbEntity
  8
寸法
 62
     7
 48
50.0
100
AcDbMText
 10
5549.695515348525
 20
4975.6543911615
 30
0.0
 40
120.0
 41
0.0
 71
     5
 72
     1
  1
\A1;柱外寸法6100
  7
STYLE1
 73
     1
 44
1.0
1001
ACAD
1000
MTEXTBEGIN
1070
    73
1070
     1
1070
    44
1040
1.0
1070
    74
1070
     0
1000
MTEXTEND
  0
POINT
  5
14D46
330
1447E
100
AcDbEntity
  8
DEFPOINTS
 62
     0
 48
50.0
100
AcDbPoint
 10
8599.695515348528
 20
4663.112805903259
 30
0.0
  0
POINT
  5
14D47
330
1447E
100
AcDbEntity
  8
DEFPOINTS
 62
     0
 48
50.0
100
AcDbPoint
 10
2499.695515348526
 20
4663.112805903264
 30
0.0
  0
POINT
  5
14D48
330
1447E
100
AcDbEntity
  8
DEFPOINTS
 62
     0
 48
50.0
100
AcDbPoint
 10
2499.695515348526
 20
4875.6543911615
 30
0.0
  0
ENDBLK
  5
14489
330
1447E
100
AcDbEntity
  8
0
 48
50.0
100
AcDbBlockEnd
  0
BLOCK
  5
14494
330
1448A
100
AcDbEntity
  8
0
 48
50.0
100
AcDbBlockBegin
  2
*D15
 70
     1
 10
0.0
 20
0.0
 30
0.0
  3
*D15
  1

  0
LINE
  5
14D37
330
1448A
100
AcDbEntity
  8
寸法
 62
     0
 48
50.0
370
    -2
100
AcDbLine
 10
2449.695515348525
 20
4683.112805903262
 30
0.0
 11
2449.695515348525
 21
5156.55969163525
 31
0.0
  0
LINE
  5
14D38
330
1448A
100
AcDbEntity
  8
寸法
 62
     0
 48
50.0
370
    -2
100
AcDbLine
 10
8649.695515348529
 20
4683.112805903258
 30
0.0
 11
8649.695515348529
 21
5156.55969163525
 31
0.0
  0
LINE
  5
14D39
330
1448A
100
AcDbEntity
  8
寸法
 62
     0
 48
50.0
370
    -2
100
AcDbLine
 10
2449.695515348525
 20
5096.559691635249
 30
0.0
 11
8649.695515348529
 21
5096.559691635249
 31
0.0
  0
INSERT
  5
14D3A
330
1448A
100
AcDbEntity
  8
寸法
 62
     0
 48
50.0
370
    -2
100
AcDbBlockReference
  2
_DOTSMALL
 10
2449.695515348525
 20
5096.559691635249
 30
0.0
 41
100.0
 42
100.0
 43
100.0
 50
180.0
  0
INSERT
  5
14D3B
330
1448A
100
AcDbEntity
  8
寸法
 62
     0
 48
50.0
370
    -2
100
AcDbBlockReference
  2
_DOTSMALL
 10
8649.695515348529
 20
5096.559691635249
 30
0.0
 41
100.0
 42
100.0
 43
100.0
  0
MTEXT
  5
14D3C
330
1448A
100
AcDbEntity
  8
寸法
 62
     7
 48
50.0
100
AcDbMText
 10
5549.695515348525
 20
5196.571502658872
 30
0.0
 40
120.0
 41
0.0
 71
     5
 72
     1
  1
\A1;6200
  7
STYLE1
 73
     1
 44
1.0
1001
ACAD
1000
MTEXTBEGIN
1070
    73
1070
     1
1070
    44
1040
1.0
1070
    74
1070
     0
1000
MTEXTEND
  0
POINT
  5
14D3D
330
1448A
100
AcDbEntity
  8
DEFPOINTS
 62
     0
 48
50.0
100
AcDbPoint
 10
2449.695515348525
 20
4663.112805903263
 30
0.0
  0
POINT
  5
14D3E
330
1448A
100
AcDbEntity
  8
DEFPOINTS
 62
     0
 48
50.0
100
AcDbPoint
 10
8649.695515348529
 20
4663.112805903258
 30
0.0
  0
POINT
  5
14D3F
330
1448A
100
AcDbEntity
  8
DEFPOINTS
 62
     0
 48
50.0
100
AcDbPoint
 10
8649.695515348529
 20
5096.559691635249
 30
0.0
  0
ENDBLK
  5
14495
330
1448A
100
AcDbEntity
  8
0
 48
50.0
100
AcDbBlockEnd
  0
BLOCK
  5
144A2
330
14496
100
AcDbEntity
  8
0
 48
50.0
100
AcDbBlockBegin
  2
*D16
 70
     1
 10
0.0
 20
0.0
 30
0.0
  3
*D16
  1

  0
LINE
  5
14D2C
330
14496
100
AcDbEntity
  8
寸法
 62
     0
 48
50.0
370
    -2
100
AcDbLine
 10
2499.695515348526
 20
4683.112805903264
 30
0.0
 11
2499.695515348526
 21
4935.654391161502
 31
0.0
  0
LINE
  5
14D2D
330
14496
100
AcDbEntity
  8
寸法
 62
     0
 48
50.0
370
    -2
100
AcDbLine
 10
2449.695515348525
 20
4683.112805903262
 30
0.0
 11
2449.695515348525
 21
4935.654391161502
 31
0.0
  0
LINE
  5
14D2E
330
14496
100
AcDbEntity
  8
寸法
 62
     0
 48
50.0
370
    -2
100
AcDbLine
 10
2499.695515348526
 20
4875.654391161502
 30
0.0
 11
2599.695515348525
 21
4875.654391161502
 31
0.0
  0
LINE
  5
14D2F
330
14496
100
AcDbEntity
  8
寸法
 62
     0
 48
50.0
370
    -2
100
AcDbLine
 10
2449.695515348525
 20
4875.654391161502
 30
0.0
 11
2030.162989879789
 21
4875.654391161502
 31
0.0
  0
LINE
  5
14D30
330
14496
100
AcDbEntity
  8
寸法
 62
     0
 48
50.0
370
    -2
100
AcDbLine
 10
2499.695515348526
 20
4875.654391161502
 30
0.0
 11
2449.695515348525
 21
4875.654391161502
 31
0.0
  0
INSERT
  5
14D31
330
14496
100
AcDbEntity
  8
寸法
 62
     0
 48
50.0
370
    -2
100
AcDbBlockReference
  2
_DOTSMALL
 10
2499.695515348526
 20
4875.654391161502
 30
0.0
 41
100.0
 42
100.0
 43
100.0
 50
180.0
  0
INSERT
  5
14D32
330
14496
100
AcDbEntity
  8
寸法
 62
     0
 48
50.0
370
    -2
100
AcDbBlockReference
  2
_DOTSMALL
 10
2449.695515348525
 20
4875.654391161502
 30
0.0
 41
100.0
 42
100.0
 43
100.0
  0
MTEXT
  5
14D33
330
14496
100
AcDbEntity
  8
寸法
 62
     7
 48
50.0
100
AcDbMText
 10
2136.210233974278
 20
4975.654391161501
 30
0.0
 40
120.0
 41
0.0
 71
     5
 72
     1
  1
\A1;50
  7
STYLE1
 73
     1
 44
1.0
1001
ACAD
1000
MTEXTBEGIN
1070
    73
1070
     1
1070
    44
1040
1.0
1070
    74
1070
     0
1000
MTEXTEND
  0
POINT
  5
14D34
330
14496
100
AcDbEntity
  8
DEFPOINTS
 62
     0
 48
50.0
100
AcDbPoint
 10
2499.695515348526
 20
4663.112805903264
 30
0.0
  0
POINT
  5
14D35
330
14496
100
AcDbEntity
  8
DEFPOINTS
 62
     0
 48
50.0
100
AcDbPoint
 10
2449.695515348525
 20
4663.112805903263
 30
0.0
  0
POINT
  5
14D36
330
14496
100
AcDbEntity
  8
DEFPOINTS
 62
     0
 48
50.0
100
AcDbPoint
 10
2449.695515348525
 20
4875.654391161502
 30
0.0
  0
ENDBLK
  5
144A3
330
14496
100
AcDbEntity
  8
0
 48
50.0
100
AcDbBlockEnd
  0
BLOCK
  5
14AB3
330
14AA9
100
AcDbEntity
  8
0
 48
50.0
100
AcDbBlockBegin
  2
*D17
 70
     1
 10
0.0
 20
0.0
 30
0.0
  3
*D17
  1

  0
LINE
  5
14C9B
330
14AA9
100
AcDbEntity
  8
寸法
 62
     0
 48
50.0
370
    -2
100
AcDbLine
 10
11385.09527819153
 20
4379.112805903257
 30
0.0
 11
10897.18663679428
 21
4379.112805903257
 31
0.0
  0
LINE
  5
14C9C
330
14AA9
100
AcDbEntity
  8
寸法
 62
     0
 48
50.0
370
    -2
100
AcDbLine
 10
11385.09527819153
 20
2354.112805903256
 30
0.0
 11
10897.18663679428
 21
2354.112805903257
 31
0.0
  0
LINE
  5
14C9D
330
14AA9
100
AcDbEntity
  8
寸法
 62
     0
 48
50.0
370
    -2
100
AcDbLine
 10
10937.18663679428
 20
4359.112805903256
 30
0.0
 11
10937.18663679428
 21
2374.112805903257
 31
0.0
  0
INSERT
  5
14C9E
330
14AA9
100
AcDbEntity
  8
寸法
 62
     0
 48
50.0
370
    -2
100
AcDbBlockReference
  2
_DOT
 10
10937.18663679428
 20
4379.112805903257
 30
0.0
 41
20.0
 42
20.0
 43
20.0
 50
90.0
  0
INSERT
  5
14C9F
330
14AA9
100
AcDbEntity
  8
寸法
 62
     0
 48
50.0
370
    -2
100
AcDbBlockReference
  2
_DOT
 10
10937.18663679428
 20
2354.112805903257
 30
0.0
 41
20.0
 42
20.0
 43
20.0
 50
270.0
  0
MTEXT
  5
14CA0
330
14AA9
100
AcDbEntity
  8
寸法
 62
     7
 48
50.0
100
AcDbMText
 10
10845.17482577066
 20
3366.612805903259
 30
0.0
 40
120.0
 41
0.0
 71
     5
 72
     1
  1
\A1;有効開口部高サ2025
  7
STYLE1
 11
0.0000000000000001
 21
1.0
 31
0.0
 73
     1
 44
1.0
1001
ACAD
1000
MTEXTBEGIN
1070
    73
1070
     1
1070
    44
1040
1.0
1070
    74
1070
     0
1000
MTEXTEND
  0
POINT
  5
14CA1
330
14AA9
100
AcDbEntity
  8
DEFPOINTS
 62
     0
 48
50.0
100
AcDbPoint
 10
11405.09527819153
 20
4379.112805903257
 30
0.0
  0
POINT
  5
14CA2
330
14AA9
100
AcDbEntity
  8
DEFPOINTS
 62
     0
 48
50.0
100
AcDbPoint
 10
11405.09527819153
 20
2354.112805903256
 30
0.0
  0
POINT
  5
14CA3
330
14AA9
100
AcDbEntity
  8
DEFPOINTS
 62
     0
 48
50.0
100
AcDbPoint
 10
10937.18663679428
 20
2354.112805903257
 30
0.0
  0
ENDBLK
  5
14AB4
330
14AA9
100
AcDbEntity
  8
0
 48
50.0
100
AcDbBlockEnd
  0
BLOCK
  5
14ABF
330
14AB5
100
AcDbEntity
  8
0
 48
50.0
100
AcDbBlockBegin
  2
*D18
 70
     1
 10
0.0
 20
0.0
 30
0.0
  3
*D18
  1

  0
LINE
  5
14C92
330
14AB5
100
AcDbEntity
  8
寸法
 62
     0
 48
50.0
370
    -2
100
AcDbLine
 10
11462.09527819153
 20
4428.112805903253
 30
0.0
 11
10578.34514900827
 21
4428.112805903253
 31
0.0
  0
LINE
  5
14C93
330
14AB5
100
AcDbEntity
  8
寸法
 62
     0
 48
50.0
370
    -2
100
AcDbLine
 10
11462.09527819153
 20
2338.112805903252
 30
0.0
 11
10578.34514900827
 21
2338.112805903252
 31
0.0
  0
LINE
  5
14C94
330
14AB5
100
AcDbEntity
  8
寸法
 62
     0
 48
50.0
370
    -2
100
AcDbLine
 10
10638.34514900827
 20
4428.112805903253
 30
0.0
 11
10638.34514900827
 21
2338.112805903252
 31
0.0
  0
INSERT
  5
14C95
330
14AB5
100
AcDbEntity
  8
寸法
 62
     0
 48
50.0
370
    -2
100
AcDbBlockReference
  2
_DOTSMALL
 10
10638.34514900827
 20
4428.112805903253
 30
0.0
 41
100.0
 42
100.0
 43
100.0
 50
90.0
  0
INSERT
  5
14C96
330
14AB5
100
AcDbEntity
  8
寸法
 62
     0
 48
50.0
370
    -2
100
AcDbBlockReference
  2
_DOTSMALL
 10
10638.34514900827
 20
2338.112805903252
 30
0.0
 41
100.0
 42
100.0
 43
100.0
 50
270.0
  0
MTEXT
  5
14C97
330
14AB5
100
AcDbEntity
  8
寸法
 62
     7
 48
50.0
100
AcDbMText
 10
10538.33333798465
 20
3383.112805903254
 30
0.0
 40
120.0
 41
0.0
 71
     5
 72
     1
  1
\A1;2090
  7
STYLE1
 11
0.0000000000000001
 21
1.0
 31
0.0
 73
     1
 44
1.0
1001
ACAD
1000
MTEXTBEGIN
1070
    73
1070
     1
1070
    44
1040
1.0
1070
    74
1070
     0
1000
MTEXTEND
  0
POINT
  5
14C98
330
14AB5
100
AcDbEntity
  8
DEFPOINTS
 62
     0
 48
50.0
100
AcDbPoint
 10
11482.09527819153
 20
4428.112805903253
 30
0.0
  0
POINT
  5
14C99
330
14AB5
100
AcDbEntity
  8
DEFPOINTS
 62
     0
 48
50.0
100
AcDbPoint
 10
11482.09527819153
 20
2338.112805903252
 30
0.0
  0
POINT
  5
14C9A
330
14AB5
100
AcDbEntity
  8
DEFPOINTS
 62
     0
 48
50.0
100
AcDbPoint
 10
10638.34514900827
 20
2338.112805903252
 30
0.0
  0
ENDBLK
  5
14AC0
330
14AB5
100
AcDbEntity
  8
0
 48
50.0
100
AcDbBlockEnd
  0
BLOCK
  5
14ACB
330
14AC1
100
AcDbEntity
  8
0
 48
50.0
100
AcDbBlockBegin
  2
*D19
 70
     1
 10
0.0
 20
0.0
 30
0.0
  3
*D19
  1

  0
LINE
  5
154E4
330
14AC1
100
AcDbEntity
  8
寸法
 62
     0
 48
50.0
370
    -2
100
AcDbLine
 10
11385.09527819153
 20
2288.112805903256
 30
0.0
 11
10278.34514900827
 21
2288.112805903256
 31
0.0
  0
LINE
  5
154E5
330
14AC1
100
AcDbEntity
  8
寸法
 62
     0
 48
50.0
370
    -2
100
AcDbLine
 10
11402.09527819153
 20
4663.112805903256
 30
0.0
 11
10278.34514900827
 21
4663.112805903256
 31
0.0
  0
LINE
  5
154E6
330
14AC1
100
AcDbEntity
  8
寸法
 62
     0
 48
50.0
370
    -2
100
AcDbLine
 10
10338.34514900827
 20
2288.112805903256
 30
0.0
 11
10338.34514900827
 21
4663.112805903256
 31
0.0
  0
INSERT
  5
154E7
330
14AC1
100
AcDbEntity
  8
寸法
 62
     0
 48
50.0
370
    -2
100
AcDbBlockReference
  2
_DOTSMALL
 10
10338.34514900827
 20
2288.112805903256
 30
0.0
 41
100.0
 42
100.0
 43
100.0
 50
270.0
  0
INSERT
  5
154E8
330
14AC1
100
AcDbEntity
  8
寸法
 62
     0
 48
50.0
370
    -2
100
AcDbBlockReference
  2
_DOTSMALL
 10
10338.34514900827
 20
4663.112805903256
 30
0.0
 41
100.0
 42
100.0
 43
100.0
 50
90.0
  0
MTEXT
  5
154E9
330
14AC1
100
AcDbEntity
  8
寸法
 62
     7
 48
50.0
100
AcDbMText
 10
10238.33333798465
 20
3475.612805903259
 30
0.0
 40
120.0
 41
0.0
 71
     5
 72
     1
  1
\A1;2375
  7
STYLE1
 11
0.0000000000000001
 21
1.0
 31
0.0
 73
     1
 44
1.0
1001
ACAD
1000
MTEXTBEGIN
1070
    73
1070
     1
1070
    44
1040
1.0
1070
    74
1070
     0
1000
MTEXTEND
  0
POINT
  5
154EA
330
14AC1
100
AcDbEntity
  8
DEFPOINTS
 62
     0
 48
50.0
100
AcDbPoint
 10
11405.09527819153
 20
2288.112805903256
 30
0.0
  0
POINT
  5
154EB
330
14AC1
100
AcDbEntity
  8
DEFPOINTS
 62
     0
 48
50.0
100
AcDbPoint
 10
11422.09527819153
 20
4663.112805903256
 30
0.0
  0
POINT
  5
154EC
330
14AC1
100
AcDbEntity
  8
DEFPOINTS
 62
     0
 48
50.0
100
AcDbPoint
 10
10338.34514900827
 20
4663.112805903256
 30
0.0
  0
ENDBLK
  5
14ACC
330
14AC1
100
AcDbEntity
  8
0
 48
50.0
100
AcDbBlockEnd
  0
BLOCK
  5
14AD7
330
14ACD
100
AcDbEntity
  8
0
 48
50.0
100
AcDbBlockBegin
  2
*D20
 70
     1
 10
0.0
 20
0.0
 30
0.0
  3
*D20
  1

  0
LINE
  5
14C80
330
14ACD
100
AcDbEntity
  8
寸法
 62
     0
 48
50.0
370
    -2
100
AcDbLine
 10
14132.09527819154
 20
2288.112805903257
 30
0.0
 11
14877.02243616366
 21
2288.112805903257
 31
0.0
  0
LINE
  5
14C81
330
14ACD
100
AcDbEntity
  8
寸法
 62
     0
 48
50.0
370
    -2
100
AcDbLine
 10
14212.09527819153
 20
4608.112805903257
 30
0.0
 11
14877.02243616366
 21
4608.112805903256
 31
0.0
  0
LINE
  5
14C82
330
14ACD
100
AcDbEntity
  8
寸法
 62
     0
 48
50.0
370
    -2
100
AcDbLine
 10
14817.02243616366
 20
2288.112805903257
 30
0.0
 11
14817.02243616366
 21
4608.112805903256
 31
0.0
  0
INSERT
  5
14C83
330
14ACD
100
AcDbEntity
  8
寸法
 62
     0
 48
50.0
370
    -2
100
AcDbBlockReference
  2
_DOTSMALL
 10
14817.02243616366
 20
2288.112805903257
 30
0.0
 41
100.0
 42
100.0
 43
100.0
 50
270.0
  0
INSERT
  5
14C84
330
14ACD
100
AcDbEntity
  8
寸法
 62
     0
 48
50.0
370
    -2
100
AcDbBlockReference
  2
_DOTSMALL
 10
14817.02243616366
 20
4608.112805903256
 30
0.0
 41
100.0
 42
100.0
 43
100.0
 50
90.0
  0
MTEXT
  5
14C85
330
14ACD
100
AcDbEntity
  8
寸法
 62
     7
 48
50.0
100
AcDbMText
 10
14717.01062514004
 20
3448.112805903259
 30
0.0
 40
120.0
 41
0.0
 71
     5
 72
     1
  1
\A1;2320
  7
STYLE1
 11
0.0000000000000001
 21
1.0
 31
0.0
 73
     1
 44
1.0
1001
ACAD
1000
MTEXTBEGIN
1070
    73
1070
     1
1070
    44
1040
1.0
1070
    74
1070
     0
1000
MTEXTEND
  0
POINT
  5
14C86
330
14ACD
100
AcDbEntity
  8
DEFPOINTS
 62
     0
 48
50.0
100
AcDbPoint
 10
14112.09527819154
 20
2288.112805903257
 30
0.0
  0
POINT
  5
14C87
330
14ACD
100
AcDbEntity
  8
DEFPOINTS
 62
     0
 48
50.0
100
AcDbPoint
 10
14192.09527819153
 20
4608.112805903257
 30
0.0
  0
POINT
  5
14C88
330
14ACD
100
AcDbEntity
  8
DEFPOINTS
 62
     0
 48
50.0
100
AcDbPoint
 10
14817.02243616366
 20
4608.112805903256
 30
0.0
  0
ENDBLK
  5
14AD8
330
14ACD
100
AcDbEntity
  8
0
 48
50.0
100
AcDbBlockEnd
  0
BLOCK
  5
14AE5
330
14AD9
100
AcDbEntity
  8
0
 48
50.0
100
AcDbBlockBegin
  2
*D21
 70
     1
 10
0.0
 20
0.0
 30
0.0
  3
*D21
  1

  0
LINE
  5
154ED
330
14AD9
100
AcDbEntity
  8
寸法
 62
     0
 48
50.0
370
    -2
100
AcDbLine
 10
11462.09527819153
 20
2338.112805903256
 30
0.0
 11
10578.34514900827
 21
2338.112805903257
 31
0.0
  0
LINE
  5
154EE
330
14AD9
100
AcDbEntity
  8
寸法
 62
     0
 48
50.0
370
    -2
100
AcDbLine
 10
11385.09527819153
 20
2288.112805903256
 30
0.0
 11
10578.34514900827
 21
2288.112805903256
 31
0.0
  0
LINE
  5
154EF
330
14AD9
100
AcDbEntity
  8
寸法
 62
     0
 48
50.0
370
    -2
100
AcDbLine
 10
10638.34514900827
 20
2338.112805903257
 30
0.0
 11
10638.34514900827
 21
2438.112805903257
 31
0.0
  0
LINE
  5
154F0
330
14AD9
100
AcDbEntity
  8
寸法
 62
     0
 48
50.0
370
    -2
100
AcDbLine
 10
10638.34514900827
 20
2288.112805903256
 30
0.0
 11
10638.34514900827
 21
1876.018317714277
 31
0.0
  0
LINE
  5
154F1
330
14AD9
100
AcDbEntity
  8
寸法
 62
     0
 48
50.0
370
    -2
100
AcDbLine
 10
10638.34514900827
 20
2338.112805903257
 30
0.0
 11
10638.34514900827
 21
2288.112805903256
 31
0.0
  0
INSERT
  5
154F2
330
14AD9
100
AcDbEntity
  8
寸法
 62
     0
 48
50.0
370
    -2
100
AcDbBlockReference
  2
_DOTSMALL
 10
10638.34514900827
 20
2338.112805903257
 30
0.0
 41
100.0
 42
100.0
 43
100.0
 50
270.0
  0
INSERT
  5
154F3
330
14AD9
100
AcDbEntity
  8
寸法
 62
     0
 48
50.0
370
    -2
100
AcDbBlockReference
  2
_DOTSMALL
 10
10638.34514900827
 20
2288.112805903256
 30
0.0
 41
100.0
 42
100.0
 43
100.0
 50
90.0
  0
MTEXT
  5
154F4
330
14AD9
100
AcDbEntity
  8
寸法
 62
     7
 48
50.0
100
AcDbMText
 10
10538.34514900827
 20
1982.065561808767
 30
0.0
 40
120.0
 41
0.0
 71
     5
 72
     1
  1
\A1;50
  7
STYLE1
 11
0.0000000000000001
 21
1.0
 31
0.0
 73
     1
 44
1.0
1001
ACAD
1000
MTEXTBEGIN
1070
    73
1070
     1
1070
    44
1040
1.0
1070
    74
1070
     0
1000
MTEXTEND
  0
POINT
  5
154F5
330
14AD9
100
AcDbEntity
  8
DEFPOINTS
 62
     0
 48
50.0
100
AcDbPoint
 10
11482.09527819153
 20
2338.112805903256
 30
0.0
  0
POINT
  5
154F6
330
14AD9
100
AcDbEntity
  8
DEFPOINTS
 62
     0
 48
50.0
100
AcDbPoint
 10
11405.09527819153
 20
2288.112805903256
 30
0.0
  0
POINT
  5
154F7
330
14AD9
100
AcDbEntity
  8
DEFPOINTS
 62
     0
 48
50.0
100
AcDbPoint
 10
10638.34514900827
 20
2288.112805903256
 30
0.0
  0
ENDBLK
  5
14AE6
330
14AD9
100
AcDbEntity
  8
0
 48
50.0
100
AcDbBlockEnd
  0
BLOCK
  5
14AF1
330
14AE7
100
AcDbEntity
  8
0
 48
50.0
100
AcDbBlockBegin
  2
*D22
 70
     1
 10
0.0
 20
0.0
 30
0.0
  3
*D22
  1

  0
LINE
  5
14C6C
330
14AE7
100
AcDbEntity
  8
寸法
 62
     0
 48
50.0
370
    -2
100
AcDbLine
 10
14112.09527819153
 20
4629.92348551491
 30
0.0
 11
14112.09527819153
 21
5121.770259482562
 31
0.0
  0
LINE
  5
14C6D
330
14AE7
100
AcDbEntity
  8
寸法
 62
     0
 48
50.0
370
    -2
100
AcDbLine
 10
11482.09527819153
 20
4679.114424026233
 30
0.0
 11
11482.09527819153
 21
5121.770259482562
 31
0.0
  0
LINE
  5
14C6E
330
14AE7
100
AcDbEntity
  8
寸法
 62
     0
 48
50.0
370
    -2
100
AcDbLine
 10
14112.09527819153
 20
5061.770259482561
 30
0.0
 11
11482.09527819153
 21
5061.770259482561
 31
0.0
  0
INSERT
  5
14C6F
330
14AE7
100
AcDbEntity
  8
寸法
 62
     0
 48
50.0
370
    -2
100
AcDbBlockReference
  2
_DOTSMALL
 10
14112.09527819153
 20
5061.770259482561
 30
0.0
 41
100.0
 42
100.0
 43
100.0
  0
INSERT
  5
14C70
330
14AE7
100
AcDbEntity
  8
寸法
 62
     0
 48
50.0
370
    -2
100
AcDbBlockReference
  2
_DOTSMALL
 10
11482.09527819153
 20
5061.770259482561
 30
0.0
 41
100.0
 42
100.0
 43
100.0
 50
180.0
  0
MTEXT
  5
14C71
330
14AE7
100
AcDbEntity
  8
寸法
 62
     7
 48
50.0
100
AcDbMText
 10
12836.86546922073
 20
5161.782070506183
 30
0.0
 40
120.0
 41
0.0
 71
     5
 72
     1
  1
\A1;柱外寸法2630
  7
STYLE1
 73
     1
 44
1.0
1001
ACAD
1000
MTEXTBEGIN
1070
    73
1070
     1
1070
    44
1040
1.0
1070
    74
1070
     0
1000
MTEXTEND
  0
POINT
  5
14C72
330
14AE7
100
AcDbEntity
  8
DEFPOINTS
 62
     0
 48
50.0
100
AcDbPoint
 10
14112.09527819153
 20
4609.923485514911
 30
0.0
  0
POINT
  5
14C73
330
14AE7
100
AcDbEntity
  8
DEFPOINTS
 62
     0
 48
50.0
100
AcDbPoint
 10
11482.09527819153
 20
4659.114424026233
 30
0.0
  0
POINT
  5
14C74
330
14AE7
100
AcDbEntity
  8
DEFPOINTS
 62
     0
 48
50.0
100
AcDbPoint
 10
11482.09527819153
 20
5061.770259482561
 30
0.0
  0
ENDBLK
  5
14AF2
330
14AE7
100
AcDbEntity
  8
0
 48
50.0
100
AcDbBlockEnd
  0
BLOCK
  5
14AFF
330
14AF3
100
AcDbEntity
  8
0
 48
50.0
100
AcDbBlockBegin
  2
*D23
 70
     1
 10
0.0
 20
0.0
 30
0.0
  3
*D23
  1

  0
LINE
  5
14C61
330
14AF3
100
AcDbEntity
  8
寸法
 62
     0
 48
50.0
370
    -2
100
AcDbLine
 10
11482.09527819153
 20
4679.114424026233
 30
0.0
 11
11482.09527819153
 21
5121.77025948256
 31
0.0
  0
LINE
  5
14C62
330
14AF3
100
AcDbEntity
  8
寸法
 62
     0
 48
50.0
370
    -2
100
AcDbLine
 10
11422.09527819153
 20
4683.11280590326
 30
0.0
 11
11422.09527819153
 21
5121.77025948256
 31
0.0
  0
LINE
  5
14C63
330
14AF3
100
AcDbEntity
  8
寸法
 62
     0
 48
50.0
370
    -2
100
AcDbLine
 10
11482.09527819153
 20
5061.77025948256
 30
0.0
 11
11582.09527819153
 21
5061.77025948256
 31
0.0
  0
LINE
  5
14C64
330
14AF3
100
AcDbEntity
  8
寸法
 62
     0
 48
50.0
370
    -2
100
AcDbLine
 10
11422.09527819153
 20
5061.77025948256
 30
0.0
 11
11002.81968764035
 21
5061.77025948256
 31
0.0
  0
LINE
  5
14C65
330
14AF3
100
AcDbEntity
  8
寸法
 62
     0
 48
50.0
370
    -2
100
AcDbLine
 10
11482.09527819153
 20
5061.77025948256
 30
0.0
 11
11422.09527819153
 21
5061.77025948256
 31
0.0
  0
INSERT
  5
14C66
330
14AF3
100
AcDbEntity
  8
寸法
 62
     0
 48
50.0
370
    -2
100
AcDbBlockReference
  2
_DOTSMALL
 10
11482.09527819153
 20
5061.77025948256
 30
0.0
 41
100.0
 42
100.0
 43
100.0
 50
180.0
  0
INSERT
  5
14C67
330
14AF3
100
AcDbEntity
  8
寸法
 62
     0
 48
50.0
370
    -2
100
AcDbBlockReference
  2
_DOTSMALL
 10
11422.09527819153
 20
5061.77025948256
 30
0.0
 41
100.0
 42
100.0
 43
100.0
  0
MTEXT
  5
14C68
330
14AF3
100
AcDbEntity
  8
寸法
 62
     7
 48
50.0
100
AcDbMText
 10
11112.45748291594
 20
5161.770259482561
 30
0.0
 40
120.0
 41
0.0
 71
     5
 72
     1
  1
\A1;60
  7
STYLE1
 73
     1
 44
1.0
1001
ACAD
1000
MTEXTBEGIN
1070
    73
1070
     1
1070
    44
1040
1.0
1070
    74
1070
     0
1000
MTEXTEND
  0
POINT
  5
14C69
330
14AF3
100
AcDbEntity
  8
DEFPOINTS
 62
     0
 48
50.0
100
AcDbPoint
 10
11482.09527819153
 20
4659.114424026233
 30
0.0
  0
POINT
  5
14C6A
330
14AF3
100
AcDbEntity
  8
DEFPOINTS
 62
     0
 48
50.0
100
AcDbPoint
 10
11422.09527819153
 20
4663.112805903261
 30
0.0
  0
POINT
  5
14C6B
330
14AF3
100
AcDbEntity
  8
DEFPOINTS
 62
     0
 48
50.0
100
AcDbPoint
 10
11422.09527819153
 20
5061.77025948256
 30
0.0
  0
ENDBLK
  5
14B00
330
14AF3
100
AcDbEntity
  8
0
 48
50.0
100
AcDbBlockEnd
  0
BLOCK
  5
14B0B
330
14B01
100
AcDbEntity
  8
0
 48
50.0
100
AcDbBlockBegin
  2
*D24
 70
     1
 10
0.0
 20
0.0
 30
0.0
  3
*D24
  1

  0
LINE
  5
14C58
330
14B01
100
AcDbEntity
  8
寸法
 62
     0
 48
50.0
370
    -2
100
AcDbLine
 10
14192.09527819153
 20
4628.112805903258
 30
0.0
 11
14192.09527819153
 21
5341.980946214178
 31
0.0
  0
LINE
  5
14C59
330
14B01
100
AcDbEntity
  8
寸法
 62
     0
 48
50.0
370
    -2
100
AcDbLine
 10
11422.09527819153
 20
4683.11280590326
 30
0.0
 11
11422.09527819153
 21
5341.980946214178
 31
0.0
  0
LINE
  5
14C5A
330
14B01
100
AcDbEntity
  8
寸法
 62
     0
 48
50.0
370
    -2
100
AcDbLine
 10
14192.09527819153
 20
5281.980946214178
 30
0.0
 11
11422.09527819153
 21
5281.980946214178
 31
0.0
  0
INSERT
  5
14C5B
330
14B01
100
AcDbEntity
  8
寸法
 62
     0
 48
50.0
370
    -2
100
AcDbBlockReference
  2
_DOTSMALL
 10
14192.09527819153
 20
5281.980946214178
 30
0.0
 41
100.0
 42
100.0
 43
100.0
  0
INSERT
  5
14C5C
330
14B01
100
AcDbEntity
  8
寸法
 62
     0
 48
50.0
370
    -2
100
AcDbBlockReference
  2
_DOTSMALL
 10
11422.09527819153
 20
5281.980946214178
 30
0.0
 41
100.0
 42
100.0
 43
100.0
 50
180.0
  0
MTEXT
  5
14C5D
330
14B01
100
AcDbEntity
  8
寸法
 62
     7
 48
50.0
100
AcDbMText
 10
12825.45420307891
 20
5381.992757237799
 30
0.0
 40
120.0
 41
0.0
 71
     5
 72
     1
  1
\A1;2770
  7
STYLE1
 73
     1
 44
1.0
1001
ACAD
1000
MTEXTBEGIN
1070
    73
1070
     1
1070
    44
1040
1.0
1070
    74
1070
     0
1000
MTEXTEND
  0
POINT
  5
14C5E
330
14B01
100
AcDbEntity
  8
DEFPOINTS
 62
     0
 48
50.0
100
AcDbPoint
 10
14192.09527819153
 20
4608.112805903258
 30
0.0
  0
POINT
  5
14C5F
330
14B01
100
AcDbEntity
  8
DEFPOINTS
 62
     0
 48
50.0
100
AcDbPoint
 10
11422.09527819153
 20
4663.112805903261
 30
0.0
  0
POINT
  5
14C60
330
14B01
100
AcDbEntity
  8
DEFPOINTS
 62
     0
 48
50.0
100
AcDbPoint
 10
11422.09527819153
 20
5281.980946214178
 30
0.0
  0
ENDBLK
  5
14B0C
330
14B01
100
AcDbEntity
  8
0
 48
50.0
100
AcDbBlockEnd
  0
BLOCK
  5
14B18
330
14B0D
100
AcDbEntity
  8
0
 48
50.0
100
AcDbBlockBegin
  2
*D25
 70
     1
 10
0.0
 20
0.0
 30
0.0
  3
*D25
  1

  0
LINE
  5
14C4E
330
14B0D
100
AcDbEntity
  8
寸法
 62
     0
 48
50.0
370
    -2
100
AcDbLine
 10
14112.09527819153
 20
4629.92348551491
 30
0.0
 11
14112.09527819153
 21
5121.770259482562
 31
0.0
  0
LINE
  5
14C4F
330
14B0D
100
AcDbEntity
  8
寸法
 62
     0
 48
50.0
370
    -2
100
AcDbLine
 10
14192.09527819153
 20
4628.112805903258
 30
0.0
 11
14192.09527819153
 21
5121.770259482562
 31
0.0
  0
LINE
  5
14C50
330
14B0D
100
AcDbEntity
  8
寸法
 62
     0
 48
50.0
370
    -2
100
AcDbLine
 10
14112.09527819153
 20
5061.770259482561
 30
0.0
 11
14192.09527819153
 21
5061.770259482561
 31
0.0
  0
LINE
  5
14C51
330
14B0D
100
AcDbEntity
  8
寸法
 62
     0
 48
50.0
370
    -2
100
AcDbLine
 10
14192.09527819153
 20
5061.770259482561
 30
0.0
 11
14504.18976638051
 21
5061.770259482561
 31
0.0
  0
INSERT
  5
14C52
330
14B0D
100
AcDbEntity
  8
寸法
 62
     0
 48
50.0
370
    -2
100
AcDbBlockReference
  2
_DOTSMALL
 10
14112.09527819153
 20
5061.770259482561
 30
0.0
 41
100.0
 42
100.0
 43
100.0
 50
180.0
  0
INSERT
  5
14C53
330
14B0D
100
AcDbEntity
  8
寸法
 62
     0
 48
50.0
370
    -2
100
AcDbBlockReference
  2
_DOTSMALL
 10
14192.09527819153
 20
5061.770259482561
 30
0.0
 41
100.0
 42
100.0
 43
100.0
  0
MTEXT
  5
14C54
330
14B0D
100
AcDbEntity
  8
寸法
 62
     7
 48
50.0
100
AcDbMText
 10
14398.14252228602
 20
5161.770259482562
 30
0.0
 40
120.0
 41
0.0
 71
     5
 72
     1
  1
\A1;80
  7
STYLE1
 73
     1
 44
1.0
1001
ACAD
1000
MTEXTBEGIN
1070
    73
1070
     1
1070
    44
1040
1.0
1070
    74
1070
     0
1000
MTEXTEND
  0
POINT
  5
14C55
330
14B0D
100
AcDbEntity
  8
DEFPOINTS
 62
     0
 48
50.0
100
AcDbPoint
 10
14112.09527819153
 20
4609.923485514911
 30
0.0
  0
POINT
  5
14C56
330
14B0D
100
AcDbEntity
  8
DEFPOINTS
 62
     0
 48
50.0
100
AcDbPoint
 10
14192.09527819153
 20
4608.112805903258
 30
0.0
  0
POINT
  5
14C57
330
14B0D
100
AcDbEntity
  8
DEFPOINTS
 62
     0
 48
50.0
100
AcDbPoint
 10
14192.09527819153
 20
5061.770259482561
 30
0.0
  0
ENDBLK
  5
14B19
330
14B0D
100
AcDbEntity
  8
0
 48
50.0
100
AcDbBlockEnd
  0
BLOCK
  5
14B25
330
14B1A
100
AcDbEntity
  8
0
 48
50.0
100
AcDbBlockBegin
  2
*D26
 70
     1
 10
0.0
 20
0.0
 30
0.0
  3
*D26
  1

  0
LINE
  5
14C44
330
14B1A
100
AcDbEntity
  8
寸法
 62
     0
 48
50.0
370
    -2
100
AcDbLine
 10
11421.49956448263
 20
4662.410512972917
 30
0.0
 11
10805.56512537736
 21
4680.124663247247
 31
0.0
  0
LINE
  5
14C45
330
14B1A
100
AcDbEntity
  8
寸法
 62
     0
 48
50.0
370
    -2
100
AcDbLine
 10
11417.44610892601
 20
4521.468789207206
 30
0.0
 11
10801.51166982073
 21
4539.182939481535
 31
0.0
  0
LINE
  5
14C46
330
14B1A
100
AcDbEntity
  8
寸法
 62
     0
 48
50.0
370
    -2
100
AcDbLine
 10
10861.48687142316
 20
4537.458064776588
 30
0.0
 11
10865.54032697979
 21
4678.399788542299
 31
0.0
  0
LINE
  5
14C47
330
14B1A
100
AcDbEntity
  8
寸法
 62
     0
 48
50.0
370
    -2
100
AcDbLine
 10
10865.54032697979
 20
4678.399788542299
 30
0.0
 11
10875.88957520948
 21
5038.250998156886
 31
0.0
  0
INSERT
  5
14C48
330
14B1A
100
AcDbEntity
  8
寸法
 62
     0
 48
50.0
370
    -2
100
AcDbBlockReference
  2
_DOTSMALL
 10
10861.48687142316
 20
4537.458064776588
 30
0.0
 41
100.0
 42
100.0
 43
100.0
 50
268.3526390256378
  0
INSERT
  5
14C49
330
14B1A
100
AcDbEntity
  8
寸法
 62
     0
 48
50.0
370
    -2
100
AcDbBlockReference
  2
_DOTSMALL
 10
10865.54032697979
 20
4678.399788542299
 30
0.0
 41
100.0
 42
100.0
 43
100.0
 50
88.35263902563776
  0
MTEXT
  5
14C4A
330
14B1A
100
AcDbEntity
  8
寸法
 62
     7
 48
50.0
100
AcDbMText
 10
10772.1936773447
 20
4911.179519193199
 30
0.0
 40
120.0
 41
0.0
 71
     5
 72
     1
  1
\A1;141
  7
STYLE1
 11
0.0287479117491237
 21
0.9995866933738488
 31
0.0
 73
     1
 44
1.0
1001
ACAD
1000
MTEXTBEGIN
1070
    73
1070
     1
1070
    44
1040
1.0
1070
    74
1070
     0
1000
MTEXTEND
  0
POINT
  5
14C4B
330
14B1A
100
AcDbEntity
  8
DEFPOINTS
 62
     0
 48
50.0
100
AcDbPoint
 10
11441.49129835011
 20
4661.835554737935
 30
0.0
  0
POINT
  5
14C4C
330
14B1A
100
AcDbEntity
  8
DEFPOINTS
 62
     0
 48
50.0
100
AcDbPoint
 10
11437.43784279348
 20
4520.893830972223
 30
0.0
  0
POINT
  5
14C4D
330
14B1A
100
AcDbEntity
  8
DEFPOINTS
 62
     0
 48
50.0
100
AcDbPoint
 10
10861.48687142316
 20
4537.458064776588
 30
0.0
  0
ENDBLK
  5
14B26
330
14B1A
100
AcDbEntity
  8
0
 48
50.0
100
AcDbBlockEnd
  0
BLOCK
  5
14F03
330
14EF9
100
AcDbEntity
  8
0
 48
50.0
100
AcDbBlockBegin
  2
*D27
 70
     1
 10
0.0
 20
0.0
 30
0.0
  3
*D27
  1

  0
LINE
  5
15438
330
14EF9
100
AcDbEntity
  8
寸法
 62
     0
 48
50.0
370
    -2
100
AcDbLine
 10
2986.695515348526
 20
7287.340496867901
 30
0.0
 11
2986.695515348526
 21
6570.587670671708
 31
0.0
  0
LINE
  5
15439
330
14EF9
100
AcDbEntity
  8
寸法
 62
     0
 48
50.0
370
    -2
100
AcDbLine
 10
4252.695515348526
 20
7287.340496867901
 30
0.0
 11
4252.695515348526
 21
6570.587670671708
 31
0.0
  0
LINE
  5
1543A
330
14EF9
100
AcDbEntity
  8
寸法
 62
     0
 48
50.0
370
    -2
100
AcDbLine
 10
3006.695515348526
 20
6610.587670671709
 30
0.0
 11
4232.695515348526
 21
6610.587670671709
 31
0.0
  0
INSERT
  5
1543B
330
14EF9
100
AcDbEntity
  8
寸法
 62
     0
 48
50.0
370
    -2
100
AcDbBlockReference
  2
_DOT
 10
2986.695515348526
 20
6610.587670671709
 30
0.0
 41
20.0
 42
20.0
 43
20.0
 50
180.0
  0
INSERT
  5
1543C
330
14EF9
100
AcDbEntity
  8
寸法
 62
     0
 48
50.0
370
    -2
100
AcDbBlockReference
  2
_DOT
 10
4252.695515348526
 20
6610.587670671709
 30
0.0
 41
20.0
 42
20.0
 43
20.0
  0
MTEXT
  5
1543D
330
14EF9
100
AcDbEntity
  8
寸法
 62
     7
 48
50.0
100
AcDbMText
 10
3647.383170944443
 20
6802.59948169533
 30
0.0
 40
120.0
 41
0.0
 71
     5
 72
     1
  1
\A1;有効開口部間口\P1266
  7
STYLE1
 73
     1
 44
1.0
1001
ACAD
1000
MTEXTBEGIN
1070
    73
1070
     1
1070
    44
1040
1.0
1070
    74
1070
     0
1000
MTEXTEND
  0
POINT
  5
1543E
330
14EF9
100
AcDbEntity
  8
DEFPOINTS
 62
     0
 48
50.0
100
AcDbPoint
 10
2986.695515348526
 20
7307.340496867901
 30
0.0
  0
POINT
  5
1543F
330
14EF9
100
AcDbEntity
  8
DEFPOINTS
 62
     0
 48
50.0
100
AcDbPoint
 10
4252.695515348526
 20
7307.340496867901
 30
0.0
  0
POINT
  5
15440
330
14EF9
100
AcDbEntity
  8
DEFPOINTS
 62
     0
 48
50.0
100
AcDbPoint
 10
4252.695515348526
 20
6610.587670671709
 30
0.0
  0
ENDBLK
  5
14F04
330
14EF9
100
AcDbEntity
  8
0
 48
50.0
100
AcDbBlockEnd
  0
BLOCK
  5
152A7
330
1529D
100
AcDbEntity
  8
0
 48
50.0
100
AcDbBlockBegin
  2
*D28
 70
     1
 10
0.0
 20
0.0
 30
0.0
  3
*D28
  1

  0
LINE
  5
1542F
330
1529D
100
AcDbEntity
  8
寸法
 62
     0
 48
50.0
370
    -2
100
AcDbLine
 10
2947.695515348526
 20
7287.340496867901
 30
0.0
 11
2947.695515348526
 21
6288.383489358647
 31
0.0
  0
LINE
  5
15430
330
1529D
100
AcDbEntity
  8
寸法
 62
     0
 48
50.0
370
    -2
100
AcDbLine
 10
5101.695515348526
 20
7287.340496867901
 30
0.0
 11
5101.695515348526
 21
6288.383489358647
 31
0.0
  0
LINE
  5
15431
330
1529D
100
AcDbEntity
  8
寸法
 62
     0
 48
50.0
370
    -2
100
AcDbLine
 10
2947.695515348526
 20
6348.383489358646
 30
0.0
 11
5101.695515348526
 21
6348.383489358646
 31
0.0
  0
INSERT
  5
15432
330
1529D
100
AcDbEntity
  8
寸法
 62
     0
 48
50.0
370
    -2
100
AcDbBlockReference
  2
_DOTSMALL
 10
2947.695515348526
 20
6348.383489358646
 30
0.0
 41
100.0
 42
100.0
 43
100.0
 50
180.0
  0
INSERT
  5
15433
330
1529D
100
AcDbEntity
  8
寸法
 62
     0
 48
50.0
370
    -2
100
AcDbBlockReference
  2
_DOTSMALL
 10
5101.695515348526
 20
6348.383489358646
 30
0.0
 41
100.0
 42
100.0
 43
100.0
  0
MTEXT
  5
15434
330
1529D
100
AcDbEntity
  8
寸法
 62
     7
 48
50.0
100
AcDbMText
 10
4001.817515997383
 20
6448.395300382268
 30
0.0
 40
120.0
 41
0.0
 71
     5
 72
     1
  1
\A1;2154
  7
STYLE1
 73
     1
 44
1.0
1001
ACAD
1000
MTEXTBEGIN
1070
    73
1070
     1
1070
    44
1040
1.0
1070
    74
1070
     0
1000
MTEXTEND
  0
POINT
  5
15435
330
1529D
100
AcDbEntity
  8
DEFPOINTS
 62
     0
 48
50.0
100
AcDbPoint
 10
2947.695515348526
 20
7307.340496867901
 30
0.0
  0
POINT
  5
15436
330
1529D
100
AcDbEntity
  8
DEFPOINTS
 62
     0
 48
50.0
100
AcDbPoint
 10
5101.695515348526
 20
7307.340496867901
 30
0.0
  0
POINT
  5
15437
330
1529D
100
AcDbEntity
  8
DEFPOINTS
 62
     0
 48
50.0
100
AcDbPoint
 10
5101.695515348526
 20
6348.383489358646
 30
0.0
  0
ENDBLK
  5
152A8
330
1529D
100
AcDbEntity
  8
0
 48
50.0
100
AcDbBlockEnd
  0
BLOCK
  5
152B5
330
152A9
100
AcDbEntity
  8
0
 48
50.0
100
AcDbBlockBegin
  2
*D29
 70
     1
 10
0.0
 20
0.0
 30
0.0
  3
*D29
  1

  0
LINE
  5
15424
330
152A9
100
AcDbEntity
  8
寸法
 62
     0
 48
50.0
370
    -2
100
AcDbLine
 10
2479.695515348526
 20
7384.340496867903
 30
0.0
 11
2128.376701444477
 21
7384.340496867903
 31
0.0
  0
LINE
  5
15425
330
152A9
100
AcDbEntity
  8
寸法
 62
     0
 48
50.0
370
    -2
100
AcDbLine
 10
2927.695515348527
 20
7309.340496867875
 30
0.0
 11
2128.376701444477
 21
7309.340496867875
 31
0.0
  0
LINE
  5
15426
330
152A9
100
AcDbEntity
  8
寸法
 62
     0
 48
50.0
370
    -2
100
AcDbLine
 10
2168.376701444477
 20
7404.340496867902
 30
0.0
 11
2168.376701444477
 21
7424.340496867903
 31
0.0
  0
LINE
  5
15427
330
152A9
100
AcDbEntity
  8
寸法
 62
     0
 48
50.0
370
    -2
100
AcDbLine
 10
2168.376701444477
 20
7289.340496867875
 30
0.0
 11
2168.376701444477
 21
7068.369934119395
 31
0.0
  0
LINE
  5
15428
330
152A9
100
AcDbEntity
  8
寸法
 62
     0
 48
50.0
370
    -2
100
AcDbLine
 10
2168.376701444477
 20
7384.340496867903
 30
0.0
 11
2168.376701444477
 21
7309.340496867875
 31
0.0
  0
INSERT
  5
15429
330
152A9
100
AcDbEntity
  8
寸法
 62
     0
 48
50.0
370
    -2
100
AcDbBlockReference
  2
_DOT
 10
2168.376701444477
 20
7384.340496867903
 30
0.0
 41
20.0
 42
20.0
 43
20.0
 50
270.0
  0
INSERT
  5
1542A
330
152A9
100
AcDbEntity
  8
寸法
 62
     0
 48
50.0
370
    -2
100
AcDbBlockReference
  2
_DOT
 10
2168.376701444477
 20
7309.340496867875
 30
0.0
 41
20.0
 42
20.0
 43
20.0
 50
90.0
  0
MTEXT
  5
1542B
330
152A9
100
AcDbEntity
  8
寸法
 62
     7
 48
50.0
100
AcDbMText
 10
2076.376701444476
 20
7168.855215493636
 30
0.0
 40
120.0
 41
0.0
 71
     5
 72
     1
  1
\A1;75
  7
STYLE1
 11
0.0000000000000001
 21
1.0
 31
0.0
 73
     1
 44
1.0
1001
ACAD
1000
MTEXTBEGIN
1070
    73
1070
     1
1070
    44
1040
1.0
1070
    74
1070
     0
1000
MTEXTEND
  0
POINT
  5
1542C
330
152A9
100
AcDbEntity
  8
DEFPOINTS
 62
     0
 48
50.0
100
AcDbPoint
 10
2499.695515348526
 20
7384.340496867903
 30
0.0
  0
POINT
  5
1542D
330
152A9
100
AcDbEntity
  8
DEFPOINTS
 62
     0
 48
50.0
100
AcDbPoint
 10
2947.695515348527
 20
7309.340496867875
 30
0.0
  0
POINT
  5
1542E
330
152A9
100
AcDbEntity
  8
DEFPOINTS
 62
     0
 48
50.0
100
AcDbPoint
 10
2168.376701444477
 20
7309.340496867875
 30
0.0
  0
ENDBLK
  5
152B6
330
152A9
100
AcDbEntity
  8
0
 48
50.0
100
AcDbBlockEnd
  0
BLOCK
  5
152E5
330
152DB
100
AcDbEntity
  8
0
 48
50.0
100
AcDbBlockBegin
  2
*D30
 70
     1
 10
0.0
 20
0.0
 30
0.0
  3
*D30
  1

  0
LINE
  5
1541B
330
152DB
100
AcDbEntity
  8
寸法
 62
     0
 48
50.0
370
    -2
100
AcDbLine
 10
5549.695515348525
 20
7419.340496867899
 30
0.0
 11
5549.695515348525
 21
6019.258539365055
 31
0.0
  0
LINE
  5
1541C
330
152DB
100
AcDbEntity
  8
寸法
 62
     0
 48
50.0
370
    -2
100
AcDbLine
 10
8599.695515348525
 20
7364.340496867902
 30
0.0
 11
8599.695515348525
 21
6019.258539365055
 31
0.0
  0
LINE
  5
1541D
330
152DB
100
AcDbEntity
  8
寸法
 62
     0
 48
50.0
370
    -2
100
AcDbLine
 10
5569.695515348525
 20
6059.258539365055
 30
0.0
 11
8579.695515348525
 21
6059.258539365055
 31
0.0
  0
INSERT
  5
1541E
330
152DB
100
AcDbEntity
  8
寸法
 62
     0
 48
50.0
370
    -2
100
AcDbBlockReference
  2
_DOT
 10
5549.695515348525
 20
6059.258539365055
 30
0.0
 41
20.0
 42
20.0
 43
20.0
 50
180.0
  0
INSERT
  5
1541F
330
152DB
100
AcDbEntity
  8
寸法
 62
     0
 48
50.0
370
    -2
100
AcDbBlockReference
  2
_DOT
 10
8599.695515348525
 20
6059.258539365055
 30
0.0
 41
20.0
 42
20.0
 43
20.0
  0
MTEXT
  5
15420
330
152DB
100
AcDbEntity
  8
寸法
 62
     7
 48
50.0
100
AcDbMText
 10
7074.695515348524
 20
6151.258539365056
 30
0.0
 40
120.0
 41
0.0
 71
     5
 72
     1
  1
\A1;3050
  7
STYLE1
 73
     1
 44
1.0
1001
ACAD
1000
MTEXTBEGIN
1070
    73
1070
     1
1070
    44
1040
1.0
1070
    74
1070
     0
1000
MTEXTEND
  0
POINT
  5
15421
330
152DB
100
AcDbEntity
  8
DEFPOINTS
 62
     0
 48
50.0
100
AcDbPoint
 10
5549.695515348525
 20
7439.340496867899
 30
0.0
  0
POINT
  5
15422
330
152DB
100
AcDbEntity
  8
DEFPOINTS
 62
     0
 48
50.0
100
AcDbPoint
 10
8599.695515348525
 20
7384.340496867903
 30
0.0
  0
POINT
  5
15423
330
152DB
100
AcDbEntity
  8
DEFPOINTS
 62
     0
 48
50.0
100
AcDbPoint
 10
8599.695515348525
 20
6059.258539365055
 30
0.0
  0
ENDBLK
  5
152E6
330
152DB
100
AcDbEntity
  8
0
 48
50.0
100
AcDbBlockEnd
  0
BLOCK
  5
152FF
330
152F5
100
AcDbEntity
  8
0
 48
50.0
100
AcDbBlockBegin
  2
*D31
 70
     1
 10
0.0
 20
0.0
 30
0.0
  3
*D31
  1

  0
LINE
  5
15412
330
152F5
100
AcDbEntity
  8
寸法
 62
     0
 48
50.0
370
    -2
100
AcDbLine
 10
2499.695515348526
 20
7364.340496867902
 30
0.0
 11
2499.695515348526
 21
6019.258539365055
 31
0.0
  0
LINE
  5
15413
330
152F5
100
AcDbEntity
  8
寸法
 62
     0
 48
50.0
370
    -2
100
AcDbLine
 10
5549.695515348525
 20
7419.340496867902
 30
0.0
 11
5549.695515348525
 21
6019.258539365055
 31
0.0
  0
LINE
  5
15414
330
152F5
100
AcDbEntity
  8
寸法
 62
     0
 48
50.0
370
    -2
100
AcDbLine
 10
2519.695515348525
 20
6059.258539365055
 30
0.0
 11
5529.695515348524
 21
6059.258539365055
 31
0.0
  0
INSERT
  5
15415
330
152F5
100
AcDbEntity
  8
寸法
 62
     0
 48
50.0
370
    -2
100
AcDbBlockReference
  2
_DOT
 10
2499.695515348526
 20
6059.258539365055
 30
0.0
 41
20.0
 42
20.0
 43
20.0
 50
180.0
  0
INSERT
  5
15416
330
152F5
100
AcDbEntity
  8
寸法
 62
     0
 48
50.0
370
    -2
100
AcDbBlockReference
  2
_DOT
 10
5549.695515348525
 20
6059.258539365055
 30
0.0
 41
20.0
 42
20.0
 43
20.0
  0
MTEXT
  5
15417
330
152F5
100
AcDbEntity
  8
寸法
 62
     7
 48
50.0
100
AcDbMText
 10
4024.695515348525
 20
6151.258539365056
 30
0.0
 40
120.0
 41
0.0
 71
     5
 72
     1
  1
\A1;3050
  7
STYLE1
 73
     1
 44
1.0
1001
ACAD
1000
MTEXTBEGIN
1070
    73
1070
     1
1070
    44
1040
1.0
1070
    74
1070
     0
1000
MTEXTEND
  0
POINT
  5
15418
330
152F5
100
AcDbEntity
  8
DEFPOINTS
 62
     0
 48
50.0
100
AcDbPoint
 10
2499.695515348526
 20
7384.340496867903
 30
0.0
  0
POINT
  5
15419
330
152F5
100
AcDbEntity
  8
DEFPOINTS
 62
     0
 48
50.0
100
AcDbPoint
 10
5549.695515348525
 20
7439.340496867902
 30
0.0
  0
POINT
  5
1541A
330
152F5
100
AcDbEntity
  8
DEFPOINTS
 62
     0
 48
50.0
100
AcDbPoint
 10
5549.695515348525
 20
6059.258539365055
 30
0.0
  0
ENDBLK
  5
15300
330
152F5
100
AcDbEntity
  8
0
 48
50.0
100
AcDbBlockEnd
  0
ENDSEC
  0
SECTION
  2
ENTITIES
  0
MTEXT
  5
763F
330
747D
100
AcDbEntity
  8
0
100
AcDbMText
 10
302.846345836809
 20
280.1983726409901
 30
0.0
 40
3.5
 41
5.323721266742722
 71
     1
 72
     5
  1

  7
MSMINCHO
 73
     1
 44
1.0
1001
ACAD
1000
MTEXTBEGIN
1070
    73
1070
     1
1070
    44
1040
1.0
1070
    74
1070
     0
1000
MTEXTEND
  0
INSERT
  5
F235
330
747D
100
AcDbEntity
  8
0
100
AcDbBlockReference
  2
作図枠S50
 10
0.0
 20
0.0
 30
0.0
 41
0.8
 42
0.8
 43
0.8
  0
LINE
  5
10B56
330
747D
100
AcDbEntity
  8
補助
  6
PHANTOM
 62
   230
 48
50.0
100
AcDbLine
 10
140.0
 20
0.0
 30
0.0
 11
139.9999999999995
 21
11409.6
 31
0.0
  0
LINE
  5
10B57
330
747D
100
AcDbEntity
  8
補助
  6
PHANTOM
 62
   230
 48
50.0
100
AcDbLine
 10
139.9999999999995
 20
11409.6
 30
0.0
 11
16307.2
 21
11409.6
 31
0.0
  0
LINE
  5
10B59
330
747D
100
AcDbEntity
  8
仕様書枠
  6
Continuous
 48
50.0
100
AcDbLine
 10
13107.2
 20
1200.0
 30
0.0
 11
13107.2
 21
-0.0000000000000729
 31
0.0
  0
LINE
  5
10B5C
330
747D
100
AcDbEntity
  8
仕様書枠
 48
50.0
100
AcDbLine
 10
16307.2
 20
1200.0
 30
0.0
 11
16307.2
 21
-0.0000000000000909
 31
0.0
  0
LINE
  5
10B5D
330
747D
100
AcDbEntity
  8
仕様書枠
 48
50.0
100
AcDbLine
 10
140.0
 20
0.0
 30
0.0
 11
16307.2
 21
-0.0000000000000909
 31
0.0
  0
LINE
  5
10B5E
330
747D
100
AcDbEntity
  8
補助
  6
PHANTOM
 62
   230
 48
50.0
100
AcDbLine
 10
16307.2
 20
11409.6
 30
0.0
 11
16307.2
 21
1200.0
 31
0.0
  0
LINE
  5
10B6C
330
747D
100
AcDbEntity
  8
仕様書枠
 48
50.0
100
AcDbLine
 10
13107.2
 20
1200.0
 30
0.0
 11
16307.2
 21
1200.0
 31
0.0
  0
LINE
  5
10B6D
330
747D
100
AcDbEntity
  8
補助
  6
PHANTOM
 62
   230
 48
50.0
100
AcDbLine
 10
13107.2
 20
11409.6
 30
0.0
 11
13107.2
 21
4800.0
 31
0.0
  0
LINE
  5
10B6F
330
747D
100
AcDbEntity
  8
補助
  6
PHANTOM
 62
   230
 48
50.0
100
AcDbLine
 10
13107.2
 20
4800.0
 30
0.0
 11
16307.2
 21
4800.0
 31
0.0
  0
LINE
  5
10B72
330
747D
100
AcDbEntity
  8
文字
 62
     7
 48
50.0
100
AcDbLine
 10
13187.2
 20
400.0
 30
0.0
 11
16227.2
 21
400.0
 31
0.0
  0
TEXT
  5
10B73
330
747D
100
AcDbEntity
  8
文字
 62
     7
 48
50.0
100
AcDbText
 10
13162.9790565769
 20
895.0906074299405
 30
0.0
 40
200.0
  1
外 形 図
  7
STYLE2
100
AcDbText
  0
TEXT
  5
10B74
330
747D
100
AcDbEntity
  8
文字
 62
     7
 48
50.0
100
AcDbText
 10
13201.43669998441
 20
477.2740661031255
 30
0.0
 40
160.0
  1
機種名
  7
STYLE2
100
AcDbText
  0
TEXT
  5
10B76
330
747D
100
AcDbEntity
  8
文字
 62
     7
 48
50.0
100
AcDbText
 10
13209.4053442172
 20
76.09434707649343
 30
0.0
 40
100.0
  1
○床面積 ： 16.20㎡(4.91坪) 　
  7
STYLE2
100
AcDbText
  0
TEXT
  5
10B79
330
747D
100
AcDbEntity
  8
文字
 62
     7
 48
50.0
100
AcDbText
 10
14524.131837222
 20
1031.557706291228
 30
0.0
 40
100.0
  1
NO.27     <縮尺> S=1/40
  7
STYLE2
100
AcDbText
  0
LINE
  5
10B7B
330
747D
100
AcDbEntity
  8
仕様書枠
 48
50.0
100
AcDbLine
 10
13107.2
 20
800.0
 30
0.0
 11
14251.2
 21
800.0
 31
0.0
  0
LINE
  5
10B88
330
747D
100
AcDbEntity
  8
仕様書枠
  6
Continuous
 48
50.0
100
AcDbLine
 10
14251.2
 20
1200.0
 30
0.0
 11
14251.2
 21
800.0
 31
0.0
  0
TEXT
  5
10EA8
330
747D
100
AcDbEntity
  8
文字
 62
     7
 48
50.0
100
AcDbText
 10
14635.13904065667
 20
838.2527270729188
 30
0.0
 40
100.0
  1
～一般型～
  7
STYLE2
100
AcDbText
  0
LINE
  5
1402F
330
747D
100
AcDbEntity
  8
細線
 48
50.0
100
AcDbLine
 10
2632.195515348511
 20
4428.112805903256
 30
0.0
 11
2632.195515348511
 21
2338.112805903256
 31
0.0
  0
LINE
  5
14030
330
747D
100
AcDbEntity
  8
細線
 48
50.0
100
AcDbLine
 10
2617.195515348511
 20
4428.112805903256
 30
0.0
 11
2617.195515348511
 21
2338.112805903256
 31
0.0
  0
LINE
  5
14031
330
747D
100
AcDbEntity
  8
細線
 48
50.0
100
AcDbLine
 10
2757.195515348511
 20
4428.112805903256
 30
0.0
 11
2757.195515348511
 21
2338.112805903256
 31
0.0
  0
LINE
  5
14032
330
747D
100
AcDbEntity
  8
細線
 48
50.0
100
AcDbLine
 10
2772.19551534851
 20
4428.112805903256
 30
0.0
 11
2772.19551534851
 21
2338.112805903256
 31
0.0
  0
LINE
  5
14033
330
747D
100
AcDbEntity
  8
細線
 48
50.0
100
AcDbLine
 10
2912.195515348511
 20
4428.112805903256
 30
0.0
 11
2912.195515348511
 21
2338.112805903256
 31
0.0
  0
LINE
  5
14034
330
747D
100
AcDbEntity
  8
細線
 48
50.0
100
AcDbLine
 10
2897.19551534851
 20
4428.112805903256
 30
0.0
 11
2897.19551534851
 21
2338.112805903256
 31
0.0
  0
LINE
  5
14035
330
747D
100
AcDbEntity
  8
細線
 48
50.0
100
AcDbLine
 10
5152.195515348511
 20
4428.112805903256
 30
0.0
 11
5152.195515348511
 21
2338.112805903256
 31
0.0
  0
LINE
  5
14036
330
747D
100
AcDbEntity
  8
細線
 48
50.0
100
AcDbLine
 10
5137.19551534851
 20
4428.112805903256
 30
0.0
 11
5137.19551534851
 21
2338.112805903256
 31
0.0
  0
LINE
  5
14037
330
747D
100
AcDbEntity
  8
細線
 48
50.0
100
AcDbLine
 10
5277.195515348511
 20
4428.112805903256
 30
0.0
 11
5277.195515348511
 21
2338.112805903256
 31
0.0
  0
LINE
  5
14038
330
747D
100
AcDbEntity
  8
細線
 48
50.0
100
AcDbLine
 10
5292.19551534851
 20
4428.112805903256
 30
0.0
 11
5292.19551534851
 21
2338.112805903256
 31
0.0
  0
LINE
  5
14039
330
747D
100
AcDbEntity
  8
細線
 48
50.0
100
AcDbLine
 10
5432.19551534851
 20
4428.112805903256
 30
0.0
 11
5432.19551534851
 21
2338.112805903256
 31
0.0
  0
LINE
  5
1403A
330
747D
100
AcDbEntity
  8
細線
 48
50.0
100
AcDbLine
 10
5417.19551534851
 20
4428.112805903256
 30
0.0
 11
5417.19551534851
 21
2338.112805903256
 31
0.0
  0
LINE
  5
1403B
330
747D
100
AcDbEntity
  8
細線
 48
50.0
100
AcDbLine
 10
6102.195515348511
 20
4428.112805903256
 30
0.0
 11
6102.195515348511
 21
2338.112805903256
 31
0.0
  0
LINE
  5
1403C
330
747D
100
AcDbEntity
  8
細線
 48
50.0
100
AcDbLine
 10
6087.19551534851
 20
4428.112805903256
 30
0.0
 11
6087.19551534851
 21
2338.112805903256
 31
0.0
  0
LINE
  5
1403D
330
747D
100
AcDbEntity
  8
細線
 48
50.0
100
AcDbLine
 10
6227.195515348511
 20
4428.112805903256
 30
0.0
 11
6227.195515348511
 21
2338.112805903256
 31
0.0
  0
LINE
  5
1403E
330
747D
100
AcDbEntity
  8
細線
 48
50.0
100
AcDbLine
 10
6242.195515348511
 20
4428.112805903256
 30
0.0
 11
6242.195515348511
 21
2338.112805903256
 31
0.0
  0
LINE
  5
1403F
330
747D
100
AcDbEntity
  8
細線
 48
50.0
100
AcDbLine
 10
6382.19551534851
 20
4428.112805903256
 30
0.0
 11
6382.19551534851
 21
2338.112805903256
 31
0.0
  0
LINE
  5
14040
330
747D
100
AcDbEntity
  8
細線
 48
50.0
100
AcDbLine
 10
6367.195515348511
 20
4428.112805903256
 30
0.0
 11
6367.195515348511
 21
2338.112805903256
 31
0.0
  0
LINE
  5
14041
330
747D
100
AcDbEntity
  8
細線
 48
50.0
100
AcDbLine
 10
5947.195515348511
 20
4428.112805903256
 30
0.0
 11
5947.195515348511
 21
2338.112805903256
 31
0.0
  0
LINE
  5
14042
330
747D
100
AcDbEntity
  8
細線
 48
50.0
100
AcDbLine
 10
5962.19551534851
 20
4428.112805903256
 30
0.0
 11
5962.19551534851
 21
2338.112805903256
 31
0.0
  0
LINE
  5
14043
330
747D
100
AcDbEntity
  8
細線
 48
50.0
100
AcDbLine
 10
5822.195515348511
 20
4428.112805903256
 30
0.0
 11
5822.195515348511
 21
2338.112805903256
 31
0.0
  0
LINE
  5
14044
330
747D
100
AcDbEntity
  8
細線
 48
50.0
100
AcDbLine
 10
5807.19551534851
 20
4428.112805903256
 30
0.0
 11
5807.19551534851
 21
2338.112805903256
 31
0.0
  0
LINE
  5
14045
330
747D
100
AcDbEntity
  8
細線
 48
50.0
100
AcDbLine
 10
5667.19551534851
 20
4428.112805903256
 30
0.0
 11
5667.19551534851
 21
2338.112805903256
 31
0.0
  0
LINE
  5
14046
330
747D
100
AcDbEntity
  8
細線
 48
50.0
100
AcDbLine
 10
5682.19551534851
 20
4428.112805903256
 30
0.0
 11
5682.19551534851
 21
2338.112805903256
 31
0.0
  0
LINE
  5
14047
330
747D
100
AcDbEntity
  8
細線
 48
50.0
100
AcDbLine
 10
6522.195515348525
 20
4428.112805903256
 30
0.0
 11
6522.195515348521
 21
2338.112805903256
 31
0.0
  0
LINE
  5
14048
330
747D
100
AcDbEntity
  8
細線
 48
50.0
100
AcDbLine
 10
6507.195515348525
 20
4428.112805903256
 30
0.0
 11
6507.195515348522
 21
2338.112805903256
 31
0.0
  0
LINE
  5
14049
330
747D
100
AcDbEntity
  8
細線
 48
50.0
100
AcDbLine
 10
6647.195515348525
 20
4428.112805903256
 30
0.0
 11
6647.195515348521
 21
2338.112805903256
 31
0.0
  0
LINE
  5
1404A
330
747D
100
AcDbEntity
  8
細線
 48
50.0
100
AcDbLine
 10
6662.195515348525
 20
4428.112805903256
 30
0.0
 11
6662.195515348521
 21
2338.112805903256
 31
0.0
  0
LINE
  5
1404B
330
747D
100
AcDbEntity
  8
細線
 48
50.0
100
AcDbLine
 10
6802.195515348525
 20
4428.112805903256
 30
0.0
 11
6802.195515348521
 21
2338.112805903256
 31
0.0
  0
LINE
  5
1404C
330
747D
100
AcDbEntity
  8
細線
 48
50.0
100
AcDbLine
 10
6787.195515348525
 20
4428.112805903256
 30
0.0
 11
6787.195515348521
 21
2338.112805903256
 31
0.0
  0
LINE
  5
1404D
330
747D
100
AcDbEntity
  8
細線
 48
50.0
100
AcDbLine
 10
7207.195515348522
 20
4428.112805903256
 30
0.0
 11
7207.195515348522
 21
2338.112805903256
 31
0.0
  0
LINE
  5
1404E
330
747D
100
AcDbEntity
  8
細線
 48
50.0
100
AcDbLine
 10
7222.195515348521
 20
4428.112805903256
 30
0.0
 11
7222.195515348521
 21
2338.112805903256
 31
0.0
  0
LINE
  5
1404F
330
747D
100
AcDbEntity
  8
細線
 48
50.0
100
AcDbLine
 10
7082.195515348522
 20
4428.112805903256
 30
0.0
 11
7082.195515348522
 21
2338.112805903256
 31
0.0
  0
LINE
  5
14050
330
747D
100
AcDbEntity
  8
細線
 48
50.0
100
AcDbLine
 10
7067.195515348521
 20
4428.112805903256
 30
0.0
 11
7067.195515348521
 21
2338.112805903256
 31
0.0
  0
LINE
  5
14051
330
747D
100
AcDbEntity
  8
細線
 48
50.0
100
AcDbLine
 10
6927.195515348522
 20
4428.112805903256
 30
0.0
 11
6927.195515348522
 21
2338.112805903256
 31
0.0
  0
LINE
  5
14052
330
747D
100
AcDbEntity
  8
細線
 48
50.0
100
AcDbLine
 10
6942.195515348521
 20
4428.112805903256
 30
0.0
 11
6942.195515348521
 21
2338.112805903256
 31
0.0
  0
LINE
  5
14053
330
747D
100
AcDbEntity
  8
細線
 48
50.0
100
AcDbLine
 10
7362.195515348524
 20
4428.112805903256
 30
0.0
 11
7362.195515348524
 21
2338.112805903256
 31
0.0
  0
LINE
  5
14054
330
747D
100
AcDbEntity
  8
細線
 48
50.0
100
AcDbLine
 10
7347.195515348525
 20
4428.112805903256
 30
0.0
 11
7347.195515348525
 21
2338.112805903256
 31
0.0
  0
LINE
  5
14055
330
747D
100
AcDbEntity
  8
細線
 48
50.0
100
AcDbLine
 10
7487.195515348524
 20
4428.112805903256
 30
0.0
 11
7487.195515348524
 21
2338.112805903256
 31
0.0
  0
LINE
  5
14056
330
747D
100
AcDbEntity
  8
細線
 48
50.0
100
AcDbLine
 10
7502.195515348525
 20
4428.112805903256
 30
0.0
 11
7502.195515348525
 21
2338.112805903256
 31
0.0
  0
LINE
  5
14057
330
747D
100
AcDbEntity
  8
細線
 48
50.0
100
AcDbLine
 10
7642.195515348525
 20
4428.112805903256
 30
0.0
 11
7642.195515348525
 21
2338.112805903256
 31
0.0
  0
LINE
  5
14058
330
747D
100
AcDbEntity
  8
細線
 48
50.0
100
AcDbLine
 10
7627.195515348525
 20
4428.112805903256
 30
0.0
 11
7627.195515348525
 21
2338.112805903256
 31
0.0
  0
LINE
  5
14059
330
747D
100
AcDbEntity
  8
細線
 48
50.0
100
AcDbLine
 10
8047.195515348525
 20
4428.112805903256
 30
0.0
 11
8047.195515348525
 21
2338.112805903256
 31
0.0
  0
LINE
  5
1405A
330
747D
100
AcDbEntity
  8
細線
 48
50.0
100
AcDbLine
 10
8062.195515348525
 20
4428.112805903256
 30
0.0
 11
8062.195515348525
 21
2338.112805903256
 31
0.0
  0
LINE
  5
1405B
330
747D
100
AcDbEntity
  8
細線
 48
50.0
100
AcDbLine
 10
7922.195515348525
 20
4428.112805903256
 30
0.0
 11
7922.195515348525
 21
2338.112805903256
 31
0.0
  0
LINE
  5
1405C
330
747D
100
AcDbEntity
  8
細線
 48
50.0
100
AcDbLine
 10
7907.195515348525
 20
4428.112805903256
 30
0.0
 11
7907.195515348525
 21
2338.112805903256
 31
0.0
  0
LINE
  5
1405D
330
747D
100
AcDbEntity
  8
細線
 48
50.0
100
AcDbLine
 10
7767.195515348525
 20
4428.112805903256
 30
0.0
 11
7767.195515348525
 21
2338.112805903256
 31
0.0
  0
LINE
  5
1405E
330
747D
100
AcDbEntity
  8
細線
 48
50.0
100
AcDbLine
 10
7782.195515348525
 20
4428.112805903256
 30
0.0
 11
7782.195515348525
 21
2338.112805903256
 31
0.0
  0
LINE
  5
1405F
330
747D
100
AcDbEntity
  8
細線
 48
50.0
100
AcDbLine
 10
8467.195515348528
 20
4428.112805903256
 30
0.0
 11
8467.195515348528
 21
2338.112805903256
 31
0.0
  0
LINE
  5
14060
330
747D
100
AcDbEntity
  8
細線
 48
50.0
100
AcDbLine
 10
8482.195515348529
 20
4428.112805903256
 30
0.0
 11
8482.195515348529
 21
2338.112805903256
 31
0.0
  0
LINE
  5
14061
330
747D
100
AcDbEntity
  8
細線
 48
50.0
100
AcDbLine
 10
8342.195515348528
 20
4428.112805903256
 30
0.0
 11
8342.195515348528
 21
2338.112805903256
 31
0.0
  0
LINE
  5
14062
330
747D
100
AcDbEntity
  8
細線
 48
50.0
100
AcDbLine
 10
8327.195515348529
 20
4428.112805903256
 30
0.0
 11
8327.195515348529
 21
2338.112805903256
 31
0.0
  0
LINE
  5
14063
330
747D
100
AcDbEntity
  8
細線
 48
50.0
100
AcDbLine
 10
8187.195515348529
 20
4428.112805903256
 30
0.0
 11
8187.195515348529
 21
2338.112805903256
 31
0.0
  0
LINE
  5
14064
330
747D
100
AcDbEntity
  8
細線
 48
50.0
100
AcDbLine
 10
8202.195515348529
 20
4428.112805903256
 30
0.0
 11
8202.195515348529
 21
2338.112805903256
 31
0.0
  0
LINE
  5
14065
330
747D
100
AcDbEntity
  8
部品1
 48
50.0
100
AcDbLine
 10
3775.695515348525
 20
4371.112805903258
 30
0.0
 11
3775.695515348525
 21
2338.112805903256
 31
0.0
  0
LINE
  5
14066
330
747D
100
AcDbEntity
  8
部品1
100
AcDbLine
 10
4426.695515348518
 20
4371.112805903258
 30
0.0
 11
4426.695515348525
 21
2345.612805903271
 31
0.0
  0
LINE
  5
14067
330
747D
100
AcDbEntity
  8
細線
100
AcDbLine
 10
3681.695515348526
 20
4371.112805903258
 30
0.0
 11
3681.695515348526
 21
2338.112805903264
 31
0.0
  0
LINE
  5
14068
330
747D
100
AcDbEntity
  8
細線
100
AcDbLine
 10
3611.695515348525
 20
4371.112805903258
 30
0.0
 11
3611.695515348525
 21
2338.112805903264
 31
0.0
  0
LINE
  5
14069
330
747D
100
AcDbEntity
  8
細線
100
AcDbLine
 10
3541.695515348525
 20
4371.112805903258
 30
0.0
 11
3541.695515348525
 21
2338.112805903264
 31
0.0
  0
LINE
  5
1406A
330
747D
100
AcDbEntity
  8
細線
100
AcDbLine
 10
3471.695515348525
 20
4371.112805903258
 30
0.0
 11
3471.695515348525
 21
2338.11280590326
 31
0.0
  0
LINE
  5
1406B
330
747D
100
AcDbEntity
  8
細線
100
AcDbLine
 10
3401.695515348525
 20
4371.112805903258
 30
0.0
 11
3401.695515348525
 21
2338.11280590326
 31
0.0
  0
LINE
  5
1406C
330
747D
100
AcDbEntity
  8
細線
100
AcDbLine
 10
3331.695515348525
 20
4371.112805903258
 30
0.0
 11
3331.695515348525
 21
2338.11280590326
 31
0.0
  0
LINE
  5
1406D
330
747D
100
AcDbEntity
  8
部品1
100
AcDbLine
 10
3147.695515348525
 20
4371.112805903258
 30
0.0
 11
3147.695515348525
 21
2338.112805903264
 31
0.0
  0
LINE
  5
1406E
330
747D
100
AcDbEntity
  8
部品1
100
AcDbLine
 10
3097.695515348525
 20
4371.112805903258
 30
0.0
 11
3097.695515348525
 21
2338.112805903264
 31
0.0
  0
LINE
  5
1406F
330
747D
100
AcDbEntity
  8
細線
100
AcDbLine
 10
3139.695515348525
 20
4371.112805903258
 30
0.0
 11
3139.695515348525
 21
2338.112805903264
 31
0.0
  0
LINE
  5
14070
330
747D
100
AcDbEntity
  8
細線
100
AcDbLine
 10
3105.695515348525
 20
4371.112805903258
 30
0.0
 11
3105.695515348525
 21
2338.112805903264
 31
0.0
  0
LINE
  5
14071
330
747D
100
AcDbEntity
  8
細線
100
AcDbLine
 10
4325.695515348525
 20
4371.112805903258
 30
0.0
 11
4325.695515348525
 21
2345.612805903271
 31
0.0
  0
LINE
  5
14072
330
747D
100
AcDbEntity
  8
細線
100
AcDbLine
 10
4255.695515348525
 20
4371.112805903258
 30
0.0
 11
4255.695515348525
 21
2345.612805903271
 31
0.0
  0
LINE
  5
14073
330
747D
100
AcDbEntity
  8
細線
100
AcDbLine
 10
4185.695515348525
 20
4371.112805903258
 30
0.0
 11
4185.695515348525
 21
2345.612805903271
 31
0.0
  0
LINE
  5
14074
330
747D
100
AcDbEntity
  8
細線
100
AcDbLine
 10
4115.695515348525
 20
4371.112805903258
 30
0.0
 11
4115.695515348525
 21
2345.612805903271
 31
0.0
  0
LINE
  5
14075
330
747D
100
AcDbEntity
  8
細線
100
AcDbLine
 10
4045.695515348525
 20
4371.112805903258
 30
0.0
 11
4045.695515348525
 21
2345.612805903271
 31
0.0
  0
LINE
  5
14076
330
747D
100
AcDbEntity
  8
細線
100
AcDbLine
 10
3975.695515348525
 20
4371.112805903258
 30
0.0
 11
3975.695515348525
 21
2345.612805903271
 31
0.0
  0
LINE
  5
14077
330
747D
100
AcDbEntity
  8
細線
100
AcDbLine
 10
4911.195515348525
 20
4371.112805903258
 30
0.0
 11
4911.195515348525
 21
2345.612805903275
 31
0.0
  0
LINE
  5
14078
330
747D
100
AcDbEntity
  8
細線
100
AcDbLine
 10
4841.195515348525
 20
4371.112805903258
 30
0.0
 11
4841.195515348525
 21
2345.612805903275
 31
0.0
  0
LINE
  5
14079
330
747D
100
AcDbEntity
  8
細線
100
AcDbLine
 10
4771.195515348525
 20
4371.112805903258
 30
0.0
 11
4771.195515348525
 21
2345.612805903275
 31
0.0
  0
LINE
  5
1407A
330
747D
100
AcDbEntity
  8
細線
100
AcDbLine
 10
4701.195515348525
 20
4371.112805903258
 30
0.0
 11
4701.195515348525
 21
2345.612805903275
 31
0.0
  0
LINE
  5
1407B
330
747D
100
AcDbEntity
  8
細線
100
AcDbLine
 10
4631.195515348525
 20
4371.112805903258
 30
0.0
 11
4631.195515348525
 21
2345.612805903275
 31
0.0
  0
LINE
  5
1407F
330
747D
100
AcDbEntity
  8
部品1
 48
50.0
100
AcDbLine
 10
3021.695515348525
 20
3419.612805903258
 30
0.0
 11
3074.695515348525
 21
3419.612805903258
 31
0.0
  0
LINE
  5
14099
330
747D
100
AcDbEntity
  8
細線
100
AcDbLine
 10
3261.695515348525
 20
4371.112805903258
 30
0.0
 11
3261.695515348525
 21
2338.11280590326
 31
0.0
  0
LINE
  5
1409A
330
747D
100
AcDbEntity
  8
細線
100
AcDbLine
 10
3191.695515348525
 20
4371.112805903258
 30
0.0
 11
3191.695515348525
 21
2338.11280590326
 31
0.0
  0
LINE
  5
1409B
330
747D
100
AcDbEntity
  8
細線
100
AcDbLine
 10
3905.695515348526
 20
4371.112805903258
 30
0.0
 11
3905.695515348526
 21
2345.612805903271
 31
0.0
  0
LINE
  5
1409C
330
747D
100
AcDbEntity
  8
細線
100
AcDbLine
 10
3835.695515348525
 20
4371.112805903258
 30
0.0
 11
3835.695515348525
 21
2345.612805903271
 31
0.0
  0
LINE
  5
1409D
330
747D
100
AcDbEntity
  8
細線
100
AcDbLine
 10
4561.195515348525
 20
4371.112805903258
 30
0.0
 11
4561.195515348525
 21
2345.612805903275
 31
0.0
  0
LINE
  5
1409E
330
747D
100
AcDbEntity
  8
部品1
 48
50.0
100
AcDbLine
 10
4426.695515348525
 20
4371.112805903256
 30
0.0
 11
4426.695515348525
 21
2345.612805903256
 31
0.0
  0
LINE
  5
1409F
330
747D
100
AcDbEntity
  8
部品1
 48
50.0
100
AcDbLine
 10
5101.695515348525
 20
2188.112805903256
 30
0.0
 11
5101.695515348525
 21
4423.112805903256
 31
0.0
  0
LINE
  5
140A0
330
747D
100
AcDbEntity
  8
細線
 48
50.0
100
AcDbLine
 10
5071.695515348525
 20
2288.112805903256
 30
0.0
 11
5071.695515348525
 21
4380.612805903257
 31
0.0
  0
LINE
  5
140A1
330
747D
100
AcDbEntity
  8
部品1
 48
50.0
100
AcDbLine
 10
5062.695515348526
 20
2335.112805903256
 30
0.0
 11
5062.695515348526
 21
4371.112805903256
 31
0.0
  0
LINE
  5
140A2
330
747D
100
AcDbEntity
  8
部品1
 48
50.0
100
AcDbLine
 10
3775.695515348525
 20
4371.112805903256
 30
0.0
 11
3775.695515348525
 21
2338.112805903256
 31
0.0
  0
LINE
  5
140A3
330
747D
100
AcDbEntity
  8
部品1
 48
50.0
100
AcDbLine
 10
2977.695515348525
 20
2338.112805903256
 30
0.0
 11
3775.695515348525
 21
2338.112805903256
 31
0.0
  0
LINE
  5
140A4
330
747D
100
AcDbEntity
  8
細線
 48
50.0
100
AcDbLine
 10
2977.695515348525
 20
2335.112805903256
 30
0.0
 11
5071.695515348525
 21
2335.112805903256
 31
0.0
  0
LINE
  5
140A5
330
747D
100
AcDbEntity
  8
細線
 48
50.0
100
AcDbLine
 10
2977.695515348525
 20
2331.112805903256
 30
0.0
 11
5071.695515348525
 21
2331.112805903256
 31
0.0
  0
LINE
  5
140A6
330
747D
100
AcDbEntity
  8
部品1
 48
50.0
100
AcDbLine
 10
2986.695515348525
 20
2338.112805903256
 30
0.0
 11
2986.695515348525
 21
2335.112805903256
 31
0.0
  0
LINE
  5
140A7
330
747D
100
AcDbEntity
  8
細線
 48
50.0
100
AcDbLine
 10
2977.695515348525
 20
4380.612805903257
 30
0.0
 11
2977.695515348525
 21
2288.112805903256
 31
0.0
  0
LINE
  5
140A8
330
747D
100
AcDbEntity
  8
部品1
 48
50.0
100
AcDbLine
 10
2977.695515348525
 20
2338.112805903256
 30
0.0
 11
2977.695515348525
 21
4371.112805903256
 31
0.0
  0
LINE
  5
140A9
330
747D
100
AcDbEntity
  8
部品1
 48
50.0
100
AcDbLine
 10
2947.695515348525
 20
4423.112805903256
 30
0.0
 11
2947.695515348525
 21
2188.112805903256
 31
0.0
  0
LINE
  5
140AA
330
747D
100
AcDbEntity
  8
細線
 48
50.0
100
AcDbLine
 10
5049.695515348525
 20
2335.112805903256
 30
0.0
 11
5045.695515348525
 21
2345.612805903256
 31
0.0
  0
LINE
  5
140AB
330
747D
100
AcDbEntity
  8
細線
 48
50.0
100
AcDbLine
 10
3775.695515348525
 20
2345.612805903256
 30
0.0
 11
5045.695515348525
 21
2345.612805903256
 31
0.0
  0
LINE
  5
140AC
330
747D
100
AcDbEntity
  8
部品1
 48
50.0
100
AcDbLine
 10
5101.695515348525
 20
4379.112805903257
 30
0.0
 11
5071.695515348525
 21
4379.112805903257
 31
0.0
  0
LINE
  5
140AD
330
747D
100
AcDbEntity
  8
細線
 48
50.0
100
AcDbLine
 10
5101.695515348525
 20
4413.112805903256
 30
0.0
 11
2947.695515348525
 21
4413.112805903256
 31
0.0
  0
LINE
  5
140AE
330
747D
100
AcDbEntity
  8
部品1
 48
50.0
100
AcDbLine
 10
5101.695515348525
 20
4423.112805903256
 30
0.0
 11
2947.695515348525
 21
4423.112805903256
 31
0.0
  0
LINE
  5
140AF
330
747D
100
AcDbEntity
  8
細線
 48
50.0
100
AcDbLine
 10
5071.695515348525
 20
4380.612805903257
 30
0.0
 11
2977.695515348525
 21
4380.612805903257
 31
0.0
  0
LINE
  5
140B0
330
747D
100
AcDbEntity
  8
細線
 48
50.0
100
AcDbLine
 10
5071.695515348525
 20
4371.112805903256
 30
0.0
 11
2977.695515348525
 21
4371.112805903256
 31
0.0
  0
LINE
  5
140B1
330
747D
100
AcDbEntity
  8
部品1
 48
50.0
100
AcDbLine
 10
2977.695515348525
 20
4379.112805903257
 30
0.0
 11
2947.695515348525
 21
4379.112805903257
 31
0.0
  0
LINE
  5
140B2
330
747D
100
AcDbEntity
  8
部品1
100
AcDbLine
 10
5074.695515348525
 20
4428.112805903258
 30
0.0
 11
5074.695515348525
 21
4423.112805903256
 31
0.0
  0
LINE
  5
140B3
330
747D
100
AcDbEntity
  8
部品1
100
AcDbLine
 10
2974.695515348525
 20
4428.112805903258
 30
0.0
 11
2974.695515348525
 21
4423.112805903256
 31
0.0
  0
LINE
  5
140B4
330
747D
100
AcDbEntity
  8
細線
100
AcDbLine
 10
6459.695515348518
 20
4487.612805903254
 30
0.0
 11
6459.695515348518
 21
4464.612805903254
 31
0.0
  0
LINE
  5
140B5
330
747D
100
AcDbEntity
  8
細線
100
AcDbLine
 10
6533.695515348518
 20
4475.612805903255
 30
0.0
 11
6459.695515348518
 21
4475.612805903255
 31
0.0
  0
LINE
  5
140B6
330
747D
100
AcDbEntity
  8
細線
100
AcDbLine
 10
6533.695515348518
 20
4469.612805903252
 30
0.0
 11
6459.695515348518
 21
4469.612805903254
 31
0.0
  0
LINE
  5
140B7
330
747D
100
AcDbEntity
  8
細線
100
AcDbLine
 10
6533.695515348518
 20
4481.612805903252
 30
0.0
 11
6459.695515348518
 21
4481.612805903254
 31
0.0
  0
LINE
  5
140B8
330
747D
100
AcDbEntity
  8
細線
100
AcDbLine
 10
6385.695515348518
 20
4481.612805903254
 30
0.0
 11
6454.695515348518
 21
4481.612805903254
 31
0.0
  0
LINE
  5
140B9
330
747D
100
AcDbEntity
  8
細線
100
AcDbLine
 10
6385.695515348518
 20
4469.612805903254
 30
0.0
 11
6459.695515348518
 21
4469.612805903254
 31
0.0
  0
LINE
  5
140BA
330
747D
100
AcDbEntity
  8
細線
100
AcDbLine
 10
6385.695515348518
 20
4475.612805903255
 30
0.0
 11
6459.695515348518
 21
4475.612805903255
 31
0.0
  0
LINE
  5
140BB
330
747D
100
AcDbEntity
  8
細線
100
AcDbLine
 10
6385.695515348518
 20
4481.612805903254
 30
0.0
 11
6459.695515348518
 21
4481.612805903254
 31
0.0
  0
LINE
  5
140BC
330
747D
100
AcDbEntity
  8
部品1
 48
0.01
100
AcDbLine
 10
6547.695515348518
 20
4494.112805903254
 30
0.0
 11
6371.695515348518
 21
4494.112805903254
 31
0.0
  0
LINE
  5
140BD
330
747D
100
AcDbEntity
  8
部品1
 48
0.01
100
AcDbLine
 10
6369.695515348517
 20
4492.112805903254
 30
0.0
 11
6369.695515348517
 21
4460.612805903254
 31
0.0
  0
LINE
  5
140BE
330
747D
100
AcDbEntity
  8
部品1
 48
0.01
100
AcDbLine
 10
6371.695515348518
 20
4458.612805903254
 30
0.0
 11
6547.695515348518
 21
4458.612805903254
 31
0.0
  0
LINE
  5
140BF
330
747D
100
AcDbEntity
  8
部品1
 48
0.01
100
AcDbLine
 10
6549.695515348517
 20
4460.612805903254
 30
0.0
 11
6549.695515348517
 21
4492.112805903254
 31
0.0
  0
LINE
  5
140C0
330
747D
100
AcDbEntity
  8
細線
100
AcDbLine
 10
6385.695515348518
 20
4487.612805903254
 30
0.0
 11
6385.695515348518
 21
4464.612805903254
 31
0.0
  0
LINE
  5
140C1
330
747D
100
AcDbEntity
  8
細線
100
AcDbLine
 10
6533.695515348518
 20
4464.612805903254
 30
0.0
 11
6533.695515348518
 21
4487.612805903254
 31
0.0
  0
LINE
  5
140C2
330
747D
100
AcDbEntity
  8
細線
100
AcDbLine
 10
6533.695515348518
 20
4487.612805903254
 30
0.0
 11
6459.695515348518
 21
4487.612805903254
 31
0.0
  0
LINE
  5
140C3
330
747D
100
AcDbEntity
  8
細線
100
AcDbLine
 10
6385.695515348518
 20
4464.612805903254
 30
0.0
 11
6459.695515348518
 21
4464.612805903254
 31
0.0
  0
LINE
  5
140C4
330
747D
100
AcDbEntity
  8
細線
100
AcDbLine
 10
6459.695515348518
 20
4487.612805903254
 30
0.0
 11
6385.695515348518
 21
4487.612805903254
 31
0.0
  0
LINE
  5
140C5
330
747D
100
AcDbEntity
  8
細線
100
AcDbLine
 10
6459.695515348518
 20
4464.612805903254
 30
0.0
 11
6533.695515348518
 21
4464.612805903254
 31
0.0
  0
ARC
  5
140C6
330
747D
100
AcDbEntity
  8
部品1
 48
0.01
100
AcDbCircle
 10
6371.695515348518
 20
4492.112805903254
 30
0.0
 40
2.0
100
AcDbArc
 50
90.0
 51
180.0
  0
ARC
  5
140C7
330
747D
100
AcDbEntity
  8
部品1
 48
0.01
100
AcDbCircle
 10
6371.695515348518
 20
4460.612805903254
 30
0.0
 40
2.0
100
AcDbArc
 50
180.0
 51
270.0
  0
ARC
  5
140C8
330
747D
100
AcDbEntity
  8
部品1
 48
0.01
100
AcDbCircle
 10
6547.695515348518
 20
4492.112805903254
 30
0.0
 40
2.0
100
AcDbArc
 50
0.0
 51
90.0
  0
ARC
  5
140C9
330
747D
100
AcDbEntity
  8
部品1
 48
0.01
100
AcDbCircle
 10
6547.695515348518
 20
4460.612805903254
 30
0.0
 40
2.0
100
AcDbArc
 50
270.0
 51
0.0
  0
ARC
  5
140CA
330
747D
100
AcDbEntity
  8
部品1
 48
0.01
100
AcDbCircle
 10
7601.695515348533
 20
4460.612805903256
 30
0.0
 40
2.0
100
AcDbArc
 50
180.0
 51
270.0
  0
ARC
  5
140CB
330
747D
100
AcDbEntity
  8
部品1
 48
0.01
100
AcDbCircle
 10
7601.695515348533
 20
4492.112805903256
 30
0.0
 40
2.0
100
AcDbArc
 50
90.0
 51
180.0
  0
ARC
  5
140CC
330
747D
100
AcDbEntity
  8
部品1
 48
0.01
100
AcDbCircle
 10
7777.695515348533
 20
4460.612805903256
 30
0.0
 40
2.0
100
AcDbArc
 50
270.0
 51
0.0
  0
ARC
  5
140CD
330
747D
100
AcDbEntity
  8
部品1
 48
0.01
100
AcDbCircle
 10
7777.695515348533
 20
4492.112805903256
 30
0.0
 40
2.0
100
AcDbArc
 50
0.0
 51
90.0
  0
LINE
  5
140CE
330
747D
100
AcDbEntity
  8
細線
100
AcDbLine
 10
7689.695515348532
 20
4464.612805903256
 30
0.0
 11
7615.695515348533
 21
4464.612805903256
 31
0.0
  0
LINE
  5
140CF
330
747D
100
AcDbEntity
  8
細線
100
AcDbLine
 10
7689.695515348532
 20
4487.612805903256
 30
0.0
 11
7763.695515348533
 21
4487.612805903256
 31
0.0
  0
LINE
  5
140D0
330
747D
100
AcDbEntity
  8
細線
100
AcDbLine
 10
7763.695515348533
 20
4464.612805903256
 30
0.0
 11
7689.695515348532
 21
4464.612805903256
 31
0.0
  0
LINE
  5
140D1
330
747D
100
AcDbEntity
  8
細線
100
AcDbLine
 10
7615.695515348533
 20
4487.612805903256
 30
0.0
 11
7689.695515348532
 21
4487.612805903256
 31
0.0
  0
LINE
  5
140D2
330
747D
100
AcDbEntity
  8
細線
100
AcDbLine
 10
7615.695515348533
 20
4464.612805903256
 30
0.0
 11
7615.695515348533
 21
4487.612805903256
 31
0.0
  0
LINE
  5
140D3
330
747D
100
AcDbEntity
  8
細線
100
AcDbLine
 10
7763.695515348533
 20
4487.612805903256
 30
0.0
 11
7763.695515348533
 21
4464.612805903256
 31
0.0
  0
LINE
  5
140D4
330
747D
100
AcDbEntity
  8
部品1
 48
0.01
100
AcDbLine
 10
7599.695515348533
 20
4460.612805903256
 30
0.0
 11
7599.695515348533
 21
4492.112805903256
 31
0.0
  0
LINE
  5
140D5
330
747D
100
AcDbEntity
  8
部品1
 48
0.01
100
AcDbLine
 10
7777.695515348533
 20
4458.612805903256
 30
0.0
 11
7601.695515348533
 21
4458.612805903256
 31
0.0
  0
LINE
  5
140D6
330
747D
100
AcDbEntity
  8
部品1
 48
0.01
100
AcDbLine
 10
7779.695515348532
 20
4492.112805903256
 30
0.0
 11
7779.695515348532
 21
4460.612805903256
 31
0.0
  0
LINE
  5
140D7
330
747D
100
AcDbEntity
  8
部品1
 48
0.01
100
AcDbLine
 10
7601.695515348533
 20
4494.112805903256
 30
0.0
 11
7777.695515348533
 21
4494.112805903256
 31
0.0
  0
LINE
  5
140D8
330
747D
100
AcDbEntity
  8
細線
100
AcDbLine
 10
7763.695515348533
 20
4481.612805903256
 30
0.0
 11
7689.695515348532
 21
4481.612805903256
 31
0.0
  0
LINE
  5
140D9
330
747D
100
AcDbEntity
  8
細線
100
AcDbLine
 10
7763.695515348533
 20
4475.612805903256
 30
0.0
 11
7689.695515348532
 21
4475.612805903256
 31
0.0
  0
LINE
  5
140DA
330
747D
100
AcDbEntity
  8
細線
100
AcDbLine
 10
7763.695515348533
 20
4469.612805903255
 30
0.0
 11
7689.695515348532
 21
4469.612805903255
 31
0.0
  0
LINE
  5
140DB
330
747D
100
AcDbEntity
  8
細線
100
AcDbLine
 10
7763.695515348533
 20
4481.612805903256
 30
0.0
 11
7694.695515348532
 21
4481.612805903256
 31
0.0
  0
LINE
  5
140DC
330
747D
100
AcDbEntity
  8
細線
100
AcDbLine
 10
7615.695515348533
 20
4481.612805903254
 30
0.0
 11
7689.695515348532
 21
4481.612805903256
 31
0.0
  0
LINE
  5
140DD
330
747D
100
AcDbEntity
  8
細線
100
AcDbLine
 10
7615.695515348533
 20
4469.612805903254
 30
0.0
 11
7689.695515348532
 21
4469.612805903255
 31
0.0
  0
LINE
  5
140DE
330
747D
100
AcDbEntity
  8
細線
100
AcDbLine
 10
7615.695515348533
 20
4475.612805903256
 30
0.0
 11
7689.695515348532
 21
4475.612805903256
 31
0.0
  0
LINE
  5
140DF
330
747D
100
AcDbEntity
  8
細線
100
AcDbLine
 10
7689.695515348532
 20
4487.612805903256
 30
0.0
 11
7689.695515348532
 21
4464.612805903256
 31
0.0
  0
LINE
  5
140E0
330
747D
100
AcDbEntity
  8
細線
100
AcDbLine
 10
4639.695515348532
 20
4487.612805903256
 30
0.0
 11
4639.695515348532
 21
4464.612805903256
 31
0.0
  0
LINE
  5
140E1
330
747D
100
AcDbEntity
  8
細線
100
AcDbLine
 10
4565.695515348532
 20
4475.612805903256
 30
0.0
 11
4639.695515348532
 21
4475.612805903256
 31
0.0
  0
LINE
  5
140E2
330
747D
100
AcDbEntity
  8
細線
100
AcDbLine
 10
4565.695515348532
 20
4469.612805903254
 30
0.0
 11
4639.695515348532
 21
4469.612805903255
 31
0.0
  0
LINE
  5
140E3
330
747D
100
AcDbEntity
  8
細線
100
AcDbLine
 10
4565.695515348532
 20
4481.612805903254
 30
0.0
 11
4639.695515348532
 21
4481.612805903256
 31
0.0
  0
LINE
  5
140E4
330
747D
100
AcDbEntity
  8
細線
100
AcDbLine
 10
4713.695515348532
 20
4481.612805903256
 30
0.0
 11
4644.695515348533
 21
4481.612805903256
 31
0.0
  0
LINE
  5
140E5
330
747D
100
AcDbEntity
  8
細線
100
AcDbLine
 10
4713.695515348532
 20
4469.612805903255
 30
0.0
 11
4639.695515348532
 21
4469.612805903255
 31
0.0
  0
LINE
  5
140E6
330
747D
100
AcDbEntity
  8
細線
100
AcDbLine
 10
4713.695515348532
 20
4475.612805903256
 30
0.0
 11
4639.695515348532
 21
4475.612805903256
 31
0.0
  0
LINE
  5
140E7
330
747D
100
AcDbEntity
  8
細線
100
AcDbLine
 10
4713.695515348532
 20
4481.612805903256
 30
0.0
 11
4639.695515348532
 21
4481.612805903256
 31
0.0
  0
LINE
  5
140E8
330
747D
100
AcDbEntity
  8
部品1
 48
0.01
100
AcDbLine
 10
4551.695515348533
 20
4494.112805903256
 30
0.0
 11
4727.695515348532
 21
4494.112805903256
 31
0.0
  0
LINE
  5
140E9
330
747D
100
AcDbEntity
  8
部品1
 48
0.01
100
AcDbLine
 10
4729.695515348532
 20
4492.112805903256
 30
0.0
 11
4729.695515348532
 21
4460.612805903256
 31
0.0
  0
LINE
  5
140EA
330
747D
100
AcDbEntity
  8
部品1
 48
0.01
100
AcDbLine
 10
4727.695515348532
 20
4458.612805903256
 30
0.0
 11
4551.695515348533
 21
4458.612805903256
 31
0.0
  0
LINE
  5
140EB
330
747D
100
AcDbEntity
  8
部品1
 48
0.01
100
AcDbLine
 10
4549.695515348532
 20
4460.612805903256
 30
0.0
 11
4549.695515348532
 21
4492.112805903256
 31
0.0
  0
LINE
  5
140EC
330
747D
100
AcDbEntity
  8
細線
100
AcDbLine
 10
4713.695515348532
 20
4487.612805903256
 30
0.0
 11
4713.695515348532
 21
4464.612805903256
 31
0.0
  0
LINE
  5
140ED
330
747D
100
AcDbEntity
  8
細線
100
AcDbLine
 10
4565.695515348532
 20
4464.612805903256
 30
0.0
 11
4565.695515348532
 21
4487.612805903256
 31
0.0
  0
LINE
  5
140EE
330
747D
100
AcDbEntity
  8
細線
100
AcDbLine
 10
4565.695515348532
 20
4487.612805903256
 30
0.0
 11
4639.695515348532
 21
4487.612805903256
 31
0.0
  0
LINE
  5
140EF
330
747D
100
AcDbEntity
  8
細線
100
AcDbLine
 10
4713.695515348532
 20
4464.612805903256
 30
0.0
 11
4639.695515348532
 21
4464.612805903256
 31
0.0
  0
LINE
  5
140F0
330
747D
100
AcDbEntity
  8
細線
100
AcDbLine
 10
4639.695515348532
 20
4487.612805903256
 30
0.0
 11
4713.695515348532
 21
4487.612805903256
 31
0.0
  0
LINE
  5
140F1
330
747D
100
AcDbEntity
  8
細線
100
AcDbLine
 10
4639.695515348532
 20
4464.612805903256
 30
0.0
 11
4565.695515348532
 21
4464.612805903256
 31
0.0
  0
ARC
  5
140F2
330
747D
100
AcDbEntity
  8
部品1
 48
0.01
100
AcDbCircle
 10
4727.695515348532
 20
4492.112805903256
 30
0.0
 40
2.0
100
AcDbArc
 50
0.0
 51
90.0
  0
ARC
  5
140F3
330
747D
100
AcDbEntity
  8
部品1
 48
0.01
100
AcDbCircle
 10
4727.695515348532
 20
4460.612805903256
 30
0.0
 40
2.0
100
AcDbArc
 50
270.0
 51
0.0
  0
ARC
  5
140F4
330
747D
100
AcDbEntity
  8
部品1
 48
0.01
100
AcDbCircle
 10
4551.695515348533
 20
4492.112805903256
 30
0.0
 40
2.0
100
AcDbArc
 50
90.0
 51
180.0
  0
ARC
  5
140F5
330
747D
100
AcDbEntity
  8
部品1
 48
0.01
100
AcDbCircle
 10
4551.695515348533
 20
4460.612805903256
 30
0.0
 40
2.0
100
AcDbArc
 50
180.0
 51
270.0
  0
ARC
  5
140F6
330
747D
100
AcDbEntity
  8
部品1
 48
0.01
100
AcDbCircle
 10
3497.695515348514
 20
4460.612805903254
 30
0.0
 40
2.0
100
AcDbArc
 50
270.0
 51
0.0
  0
ARC
  5
140F7
330
747D
100
AcDbEntity
  8
部品1
 48
0.01
100
AcDbCircle
 10
3497.695515348514
 20
4492.112805903254
 30
0.0
 40
2.0
100
AcDbArc
 50
0.0
 51
90.0
  0
ARC
  5
140F8
330
747D
100
AcDbEntity
  8
部品1
 48
0.01
100
AcDbCircle
 10
3321.695515348515
 20
4460.612805903254
 30
0.0
 40
2.0
100
AcDbArc
 50
180.0
 51
270.0
  0
ARC
  5
140F9
330
747D
100
AcDbEntity
  8
部品1
 48
0.01
100
AcDbCircle
 10
3321.695515348515
 20
4492.112805903254
 30
0.0
 40
2.0
100
AcDbArc
 50
90.0
 51
180.0
  0
LINE
  5
140FA
330
747D
100
AcDbEntity
  8
細線
100
AcDbLine
 10
3409.695515348514
 20
4464.612805903254
 30
0.0
 11
3483.695515348514
 21
4464.612805903254
 31
0.0
  0
LINE
  5
140FB
330
747D
100
AcDbEntity
  8
細線
100
AcDbLine
 10
3409.695515348514
 20
4487.612805903254
 30
0.0
 11
3335.695515348515
 21
4487.612805903254
 31
0.0
  0
LINE
  5
140FC
330
747D
100
AcDbEntity
  8
細線
100
AcDbLine
 10
3335.695515348515
 20
4464.612805903254
 30
0.0
 11
3409.695515348514
 21
4464.612805903254
 31
0.0
  0
LINE
  5
140FD
330
747D
100
AcDbEntity
  8
細線
100
AcDbLine
 10
3483.695515348514
 20
4487.612805903254
 30
0.0
 11
3409.695515348514
 21
4487.612805903254
 31
0.0
  0
LINE
  5
140FE
330
747D
100
AcDbEntity
  8
細線
100
AcDbLine
 10
3483.695515348514
 20
4464.612805903254
 30
0.0
 11
3483.695515348514
 21
4487.612805903254
 31
0.0
  0
LINE
  5
140FF
330
747D
100
AcDbEntity
  8
細線
100
AcDbLine
 10
3335.695515348515
 20
4487.612805903254
 30
0.0
 11
3335.695515348515
 21
4464.612805903254
 31
0.0
  0
LINE
  5
14100
330
747D
100
AcDbEntity
  8
部品1
 48
0.01
100
AcDbLine
 10
3499.695515348514
 20
4460.612805903254
 30
0.0
 11
3499.695515348514
 21
4492.112805903254
 31
0.0
  0
LINE
  5
14101
330
747D
100
AcDbEntity
  8
部品1
 48
0.01
100
AcDbLine
 10
3321.695515348515
 20
4458.612805903254
 30
0.0
 11
3497.695515348514
 21
4458.612805903254
 31
0.0
  0
LINE
  5
14102
330
747D
100
AcDbEntity
  8
部品1
 48
0.01
100
AcDbLine
 10
3319.695515348514
 20
4492.112805903254
 30
0.0
 11
3319.695515348514
 21
4460.612805903254
 31
0.0
  0
LINE
  5
14103
330
747D
100
AcDbEntity
  8
部品1
 48
0.01
100
AcDbLine
 10
3497.695515348514
 20
4494.112805903254
 30
0.0
 11
3321.695515348515
 21
4494.112805903254
 31
0.0
  0
LINE
  5
14104
330
747D
100
AcDbEntity
  8
細線
100
AcDbLine
 10
3335.695515348515
 20
4481.612805903254
 30
0.0
 11
3409.695515348514
 21
4481.612805903254
 31
0.0
  0
LINE
  5
14105
330
747D
100
AcDbEntity
  8
細線
100
AcDbLine
 10
3335.695515348515
 20
4475.612805903255
 30
0.0
 11
3409.695515348514
 21
4475.612805903255
 31
0.0
  0
LINE
  5
14106
330
747D
100
AcDbEntity
  8
細線
100
AcDbLine
 10
3335.695515348515
 20
4469.612805903254
 30
0.0
 11
3409.695515348514
 21
4469.612805903254
 31
0.0
  0
LINE
  5
14107
330
747D
100
AcDbEntity
  8
細線
100
AcDbLine
 10
3335.695515348515
 20
4481.612805903254
 30
0.0
 11
3404.695515348514
 21
4481.612805903254
 31
0.0
  0
LINE
  5
14108
330
747D
100
AcDbEntity
  8
細線
100
AcDbLine
 10
3483.695515348514
 20
4481.612805903252
 30
0.0
 11
3409.695515348514
 21
4481.612805903254
 31
0.0
  0
LINE
  5
14109
330
747D
100
AcDbEntity
  8
細線
100
AcDbLine
 10
3483.695515348514
 20
4469.612805903252
 30
0.0
 11
3409.695515348514
 21
4469.612805903254
 31
0.0
  0
LINE
  5
1410A
330
747D
100
AcDbEntity
  8
細線
100
AcDbLine
 10
3483.695515348514
 20
4475.612805903255
 30
0.0
 11
3409.695515348514
 21
4475.612805903255
 31
0.0
  0
LINE
  5
1410B
330
747D
100
AcDbEntity
  8
細線
100
AcDbLine
 10
3409.695515348514
 20
4487.612805903254
 30
0.0
 11
3409.695515348514
 21
4464.612805903254
 31
0.0
  0
DIMENSION
  5
1410C
330
747D
100
AcDbEntity
  8
寸法
 48
50.0
100
AcDbDimension
  2
*D13
 10
8599.695515348528
 20
4875.654391161499
 30
0.0
 11
8963.180796722765
 21
4875.654391161499
 31
0.0
 70
   160
 71
     5
 42
50.0
  3
INABA_S40G
100
AcDbAlignedDimension
 13
8649.695515348529
 23
4663.112805903258
 33
0.0
 14
8599.695515348528
 24
4663.112805903259
 34
0.0
100
AcDbRotatedDimension
  0
ARC
  5
1410D
330
747D
100
AcDbEntity
  8
部品1
100
AcDbCircle
 10
8642.287094242096
 20
4656.112805903258
 30
0.0
 40
7.0
100
AcDbArc
 50
356.7526572096623
 51
90.0
  0
ARC
  5
1410E
330
747D
100
AcDbEntity
  8
部品1
100
AcDbCircle
 10
8629.071770781061
 20
4529.11280590326
 30
0.0
 40
7.0
100
AcDbArc
 50
270.0
 51
356.7526572096623
  0
ARC
  5
1410F
330
747D
100
AcDbEntity
  8
部品1
 48
50.0
100
AcDbCircle
 10
8647.44358099174
 20
4635.779805064945
 30
0.0
 40
0.7
100
AcDbArc
 50
277.6581272073635
 51
356.7526572096103
  0
ARC
  5
14110
330
747D
100
AcDbEntity
  8
部品1
 48
50.0
100
AcDbCircle
 10
8639.207550466897
 20
4543.579805064941
 30
0.0
 40
0.7
100
AcDbArc
 50
277.6581272073635
 51
356.7526572097143
  0
ARC
  5
14111
330
747D
100
AcDbEntity
  8
部品1
 48
50.0
100
AcDbCircle
 10
8639.700619575458
 20
4539.912805903258
 30
0.0
 40
3.0
100
AcDbArc
 50
97.65812720736347
 51
176.7526572096623
  0
ARC
  5
14112
330
747D
100
AcDbEntity
  8
部品1
 48
50.0
100
AcDbCircle
 10
8647.936650100303
 20
4632.11280590326
 30
0.0
 40
3.0
100
AcDbArc
 50
97.65812720736347
 51
176.7526572096623
  0
LINE
  5
14113
330
747D
100
AcDbEntity
  8
部品1
100
AcDbLine
 10
8644.941467204118
 20
4632.282745358361
 30
0.0
 11
8639.906426476006
 21
4543.540152525419
 31
0.0
  0
LINE
  5
14114
330
747D
100
AcDbEntity
  8
部品1
100
AcDbLine
 10
8636.705436679273
 20
4540.08274535836
 30
0.0
 11
8636.06053087216
 21
4528.71628050802
 31
0.0
  0
LINE
  5
14115
330
747D
100
AcDbEntity
  8
細線
 48
50.0
100
AcDbLine
 10
8616.69551534853
 20
4663.112805903258
 30
0.0
 11
8616.69551534853
 21
4522.112805903257
 31
0.0
  0
LINE
  5
14116
330
747D
100
AcDbEntity
  8
部品1
100
AcDbLine
 10
8649.275854333195
 20
4655.716280508019
 30
0.0
 11
8648.142457000849
 21
4635.740152525419
 31
0.0
  0
LINE
  5
14117
330
747D
100
AcDbEntity
  8
部品1
 48
50.0
100
AcDbLine
 10
8629.071770781061
 20
4522.11280590326
 30
0.0
 11
2470.319259915989
 21
4522.112805903261
 31
0.0
  0
LINE
  5
14118
330
747D
100
AcDbEntity
  8
細線
 48
50.0
100
AcDbLine
 10
8639.300833807885
 20
4542.886048466528
 30
0.0
 11
2460.090196883772
 21
4542.886048467256
 31
0.0
  0
LINE
  5
14119
330
747D
100
AcDbEntity
  8
細線
 48
50.0
100
AcDbLine
 10
8647.536864332701
 20
4635.086048466527
 30
0.0
 11
2451.854166358939
 21
4635.086048467257
 31
0.0
  0
LINE
  5
1411A
330
747D
100
AcDbEntity
  8
部品1
 48
50.0
100
AcDbLine
 10
8642.287094242096
 20
4663.112805903259
 30
0.0
 11
2457.103936454954
 21
4663.112805903258
 31
0.0
  0
LINE
  5
1411B
330
747D
100
AcDbEntity
  8
部品1
100
AcDbLine
 10
2450.115176363855
 20
4655.716280508022
 30
0.0
 11
2451.248573696205
 21
4635.740152525421
 31
0.0
  0
LINE
  5
1411C
330
747D
100
AcDbEntity
  8
部品1
100
AcDbLine
 10
2462.685594017781
 20
4540.082745358364
 30
0.0
 11
2463.33049982489
 21
4528.716280508024
 31
0.0
  0
LINE
  5
1411D
330
747D
100
AcDbEntity
  8
部品1
100
AcDbLine
 10
2454.449563492934
 20
4632.282745358364
 30
0.0
 11
2459.484604221045
 21
4543.540152525421
 31
0.0
  0
ARC
  5
1411E
330
747D
100
AcDbEntity
  8
部品1
 48
50.0
100
AcDbCircle
 10
2451.454380596748
 20
4632.112805903262
 30
0.0
 40
3.0
100
AcDbArc
 50
3.247342790337682
 51
82.34187279263654
  0
ARC
  5
1411F
330
747D
100
AcDbEntity
  8
部品1
 48
50.0
100
AcDbCircle
 10
2459.690411121592
 20
4539.912805903259
 30
0.0
 40
3.0
100
AcDbArc
 50
3.247342790337682
 51
82.34187279263654
  0
ARC
  5
14120
330
747D
100
AcDbEntity
  8
部品1
 48
50.0
100
AcDbCircle
 10
2460.183480230153
 20
4543.579805064943
 30
0.0
 40
0.7
100
AcDbArc
 50
183.2473427902856
 51
262.3418727926365
  0
ARC
  5
14121
330
747D
100
AcDbEntity
  8
部品1
 48
50.0
100
AcDbCircle
 10
2451.947449705313
 20
4635.779805064948
 30
0.0
 40
0.7
100
AcDbArc
 50
183.2473427903897
 51
262.3418727926365
  0
ARC
  5
14122
330
747D
100
AcDbEntity
  8
部品1
100
AcDbCircle
 10
2470.319259915989
 20
4529.112805903262
 30
0.0
 40
7.0
100
AcDbArc
 50
183.2473427903377
 51
270.0
  0
ARC
  5
14123
330
747D
100
AcDbEntity
  8
部品1
100
AcDbCircle
 10
2457.103936454954
 20
4656.112805903261
 30
0.0
 40
7.0
100
AcDbArc
 50
90.0
 51
183.2473427903377
  0
LINE
  5
14124
330
747D
100
AcDbEntity
  8
細線
 48
50.0
100
AcDbLine
 10
2482.695515348525
 20
4663.112805903261
 30
0.0
 11
2482.695515348525
 21
4522.112805903261
 31
0.0
  0
DIMENSION
  5
14125
330
747D
100
AcDbEntity
  8
寸法
 48
50.0
100
AcDbDimension
  2
*D14
 10
2499.695515348526
 20
4875.6543911615
 30
0.0
 11
5549.695515348525
 21
4875.6543911615
 31
0.0
 70
   160
  1
柱外寸法<>
 71
     5
 42
6100.000000000004
  3
INABA_S40G
100
AcDbAlignedDimension
 13
8599.695515348528
 23
4663.112805903259
 33
0.0
 14
2499.695515348526
 24
4663.112805903264
 34
0.0
100
AcDbRotatedDimension
  0
DIMENSION
  5
14126
330
747D
100
AcDbEntity
  8
寸法
 48
50.0
100
AcDbDimension
  2
*D15
 10
8649.695515348529
 20
5096.559691635249
 30
0.0
 11
5549.695515348525
 21
5096.559691635249
 31
0.0
 70
   160
 71
     5
 42
6200.000000000003
  3
INABA_S40G
100
AcDbAlignedDimension
 13
2449.695515348525
 23
4663.112805903263
 33
0.0
 14
8649.695515348529
 24
4663.112805903258
 34
0.0
100
AcDbRotatedDimension
  0
DIMENSION
  5
14127
330
747D
100
AcDbEntity
  8
寸法
 48
50.0
100
AcDbDimension
  2
*D16
 10
2449.695515348525
 20
4875.654391161502
 30
0.0
 11
2136.210233974278
 21
4875.654391161502
 31
0.0
 70
   160
 71
     5
 42
50.0
  3
INABA_S40G
100
AcDbAlignedDimension
 13
2499.695515348526
 23
4663.112805903264
 33
0.0
 14
2449.695515348525
 24
4663.112805903263
 34
0.0
100
AcDbRotatedDimension
1001
ACAD
1000
DSTYLE
1002
{
1002
}
  0
TEXT
  5
1412B
330
747D
100
AcDbEntity
  8
文字
 62
     7
 48
50.0
100
AcDbText
 10
13583.11819016569
 20
9570.013745883729
 30
0.0
 40
100.0
  1
母屋中
  7
STYLE1
100
AcDbText
  0
TEXT
  5
1412C
330
747D
100
AcDbEntity
  8
文字
 62
     7
 48
50.0
100
AcDbText
 10
13248.77747366447
 20
8720.013745883729
 30
0.0
 40
100.0
  1
15
  7
STYLE1
100
AcDbText
  0
LINE
  5
1412D
330
747D
100
AcDbEntity
  8
仕様書枠
 48
50.0
100
AcDbLine
 10
16307.19999999998
 20
8009.600000000006
 30
0.0
 11
13127.19999999999
 21
8009.600000000006
 31
0.0
  0
TEXT
  5
1412E
330
747D
100
AcDbEntity
  8
文字
 62
     7
 48
50.0
100
AcDbText
 10
13583.11819016569
 20
8550.013745883733
 30
0.0
 40
100.0
  1
扉
  7
STYLE1
100
AcDbText
  0
TEXT
  5
1412F
330
747D
100
AcDbEntity
  8
文字
 62
     7
 48
50.0
100
AcDbText
 10
15022.63965474516
 20
8550.013745883729
 30
0.0
 40
100.0
  1
F12            0.8
  7
STYLE1
100
AcDbText
  0
TEXT
  5
14130
330
747D
100
AcDbEntity
  8
文字
 62
     7
 48
50.0
100
AcDbText
 10
13583.11819016568
 20
8720.013745883733
 30
0.0
 40
100.0
  1
正面パネル
  7
STYLE1
100
AcDbText
  0
TEXT
  5
14131
330
747D
100
AcDbEntity
  8
文字
 62
     7
 48
50.0
100
AcDbText
 10
15022.63965474515
 20
8720.013745883729
 30
0.0
 40
100.0
  1
F12            0.7
  7
STYLE1
100
AcDbText
  0
TEXT
  5
14132
330
747D
100
AcDbEntity
  8
文字
 62
     7
 48
50.0
100
AcDbText
 10
15022.63965474517
 20
10590.01374588372
 30
0.0
 40
100.0
  1
F12            1.0
  7
STYLE1
100
AcDbText
  0
TEXT
  5
14133
330
747D
100
AcDbEntity
  8
文字
 62
     7
 48
50.0
100
AcDbText
 10
15022.63965474516
 20
10930.01374588372
 30
0.0
 40
100.0
  1
F12            1.2
  7
STYLE1
100
AcDbText
  0
TEXT
  5
14134
330
747D
100
AcDbEntity
  8
文字
 62
     7
 48
50.0
100
AcDbText
 10
13248.77747366448
 20
8890.013745883729
 30
0.0
 40
100.0
  1
14
  7
STYLE1
100
AcDbText
  0
TEXT
  5
14135
330
747D
100
AcDbEntity
  8
文字
 62
     7
 48
50.0
100
AcDbText
 10
13583.11819016569
 20
10930.01374588373
 30
0.0
 40
100.0
  1
根太
  7
STYLE1
100
AcDbText
  0
TEXT
  5
14136
330
747D
100
AcDbEntity
  8
文字
 62
     7
 48
50.0
100
AcDbText
 10
13583.1181901657
 20
10590.01374588373
 30
0.0
 40
100.0
  1
床パネル
 41
0.9
  7
STYLE1
100
AcDbText
  0
LINE
  5
14137
330
747D
100
AcDbEntity
  8
仕様書枠
 48
50.0
100
AcDbLine
 10
16307.19999999999
 20
9029.6
 30
0.0
 11
13127.2
 21
9029.600000000003
 31
0.0
  0
LINE
  5
14138
330
747D
100
AcDbEntity
  8
仕様書枠
 48
50.0
100
AcDbLine
 10
13127.2
 20
11409.6
 30
0.0
 11
13127.19999999999
 21
8009.600000000004
 31
0.0
  0
TEXT
  5
14139
330
747D
100
AcDbEntity
  8
文字
 62
     7
 48
50.0
100
AcDbText
 10
13229.83081656554
 20
8040.013745883735
 30
0.0
 40
100.0
  1
Y10→溶融亜鉛-5％アルミニウム合金めっき鋼板(JIS G 3317)
 41
0.9
  7
STYLE1
100
AcDbText
  0
TEXT
  5
1413A
330
747D
100
AcDbEntity
  8
文字
 62
     7
 48
50.0
100
AcDbText
 10
13229.83081656554
 20
8210.013745883735
 30
0.0
 40
100.0
  1
F12→溶融亜鉛めっき鋼板(JIS G 3302)
  7
STYLE1
100
AcDbText
  0
LINE
  5
1413B
330
747D
100
AcDbEntity
  8
仕様書枠
 48
50.0
100
AcDbLine
 10
16307.19999999999
 20
8179.600000000005
 30
0.0
 11
13127.2
 21
8179.600000000005
 31
0.0
  0
LINE
  5
1413C
330
747D
100
AcDbEntity
  8
仕様書枠
 48
50.0
100
AcDbLine
 10
16307.19999999999
 20
8349.600000000004
 30
0.0
 11
13127.19999999999
 21
8349.600000000007
 31
0.0
  0
TEXT
  5
1413D
330
747D
100
AcDbEntity
  8
文字
 62
     7
 48
50.0
100
AcDbText
 10
15022.63965474515
 20
9400.013745883725
 30
0.0
 40
100.0
  1
F12            0.7
  7
STYLE1
100
AcDbText
  0
TEXT
  5
1413E
330
747D
100
AcDbEntity
  8
文字
 62
     7
 48
50.0
100
AcDbText
 10
15022.63965474517
 20
9740.013745883725
 30
0.0
 40
100.0
  1
Y10            0.5
  7
STYLE1
100
AcDbText
  0
TEXT
  5
1413F
330
747D
100
AcDbEntity
  8
文字
 62
     7
 48
50.0
100
AcDbText
 10
15022.63965474516
 20
10080.01374588372
 30
0.0
 40
100.0
  1
Y10            0.7
  7
STYLE1
100
AcDbText
  0
TEXT
  5
14140
330
747D
100
AcDbEntity
  8
文字
 62
     7
 48
50.0
100
AcDbText
 10
15022.63965474516
 20
10250.01374588372
 30
0.0
 40
100.0
  1
Y10            0.7
  7
STYLE1
100
AcDbText
  0
TEXT
  5
14141
330
747D
100
AcDbEntity
  8
文字
 62
     7
 48
50.0
100
AcDbText
 10
15022.63965474516
 20
10420.01374588372
 30
0.0
 40
100.0
  1
Y10            1.0
  7
STYLE1
100
AcDbText
  0
TEXT
  5
14142
330
747D
100
AcDbEntity
  8
文字
 62
     7
 48
50.0
100
AcDbText
 10
15022.63965474518
 20
10760.01374588372
 30
0.0
 40
100.0
  1
F12            1.0
  7
STYLE1
100
AcDbText
  0
TEXT
  5
14143
330
747D
100
AcDbEntity
  8
文字
 62
     7
 48
50.0
100
AcDbText
 10
15022.63965474517
 20
11100.01374588372
 30
0.0
 40
100.0
  1
F12            1.2
  7
STYLE1
100
AcDbText
  0
TEXT
  5
14144
330
747D
100
AcDbEntity
  8
文字
 62
     7
 48
50.0
100
AcDbText
 10
13248.77747366448
 20
9230.013745883729
 30
0.0
 40
100.0
  1
12
  7
STYLE1
100
AcDbText
  0
TEXT
  5
14145
330
747D
100
AcDbEntity
  8
文字
 62
     7
 48
50.0
100
AcDbText
 10
13248.77747366448
 20
9060.013745883729
 30
0.0
 40
100.0
  1
13
  7
STYLE1
100
AcDbText
  0
LINE
  5
14146
330
747D
100
AcDbEntity
  8
仕様書枠
 48
50.0
100
AcDbLine
 10
16307.19999999999
 20
8859.6
 30
0.0
 11
13127.2
 21
8859.600000000005
 31
0.0
  0
LINE
  5
14147
330
747D
100
AcDbEntity
  8
仕様書枠
 48
50.0
100
AcDbLine
 10
16307.19999999999
 20
9199.600000000001
 30
0.0
 11
13127.2
 21
9199.600000000001
 31
0.0
  0
TEXT
  5
14148
330
747D
100
AcDbEntity
  8
文字
 62
     7
 48
50.0
100
AcDbText
 10
13248.77747366447
 20
9400.013745883729
 30
0.0
 40
100.0
  1
11
  7
STYLE1
100
AcDbText
  0
LINE
  5
14149
330
747D
100
AcDbEntity
  8
仕様書枠
 48
50.0
100
AcDbLine
 10
16307.2
 20
9879.600000000001
 30
0.0
 11
13127.2
 21
9879.600000000001
 31
0.0
  0
LINE
  5
1414A
330
747D
100
AcDbEntity
  8
仕様書枠
 48
50.0
100
AcDbLine
 10
16307.2
 20
10219.6
 30
0.0
 11
13127.2
 21
10219.6
 31
0.0
  0
LINE
  5
1414B
330
747D
100
AcDbEntity
  8
仕様書枠
 48
50.0
100
AcDbLine
 10
16307.19999999999
 20
9539.6
 30
0.0
 11
13127.2
 21
9539.6
 31
0.0
  0
LINE
  5
1414C
330
747D
100
AcDbEntity
  8
仕様書枠
 48
50.0
100
AcDbLine
 10
16307.19999999999
 20
9369.600000000001
 30
0.0
 11
13127.2
 21
9369.600000000001
 31
0.0
  0
LINE
  5
1414D
330
747D
100
AcDbEntity
  8
仕様書枠
 48
50.0
100
AcDbLine
 10
16307.19999999999
 20
9709.600000000001
 30
0.0
 11
13127.2
 21
9709.600000000001
 31
0.0
  0
TEXT
  5
1414E
330
747D
100
AcDbEntity
  8
文字
 62
     7
 48
50.0
100
AcDbText
 10
13271.19032244792
 20
10250.01374588373
 30
0.0
 40
100.0
  1
6
  7
STYLE1
100
AcDbText
  0
TEXT
  5
1414F
330
747D
100
AcDbEntity
  8
文字
 62
     7
 48
50.0
100
AcDbText
 10
13271.19032244792
 20
10080.01374588373
 30
0.0
 40
100.0
  1
7
  7
STYLE1
100
AcDbText
  0
TEXT
  5
14150
330
747D
100
AcDbEntity
  8
文字
 62
     7
 48
50.0
100
AcDbText
 10
13271.19032244792
 20
9740.013745883729
 30
0.0
 40
100.0
  1
9
  7
STYLE1
100
AcDbText
  0
TEXT
  5
14151
330
747D
100
AcDbEntity
  8
文字
 62
     7
 48
50.0
100
AcDbText
 10
13271.19032244792
 20
9910.01374588373
 30
0.0
 40
100.0
  1
8
  7
STYLE1
100
AcDbText
  0
TEXT
  5
14152
330
747D
100
AcDbEntity
  8
文字
 62
     7
 48
50.0
100
AcDbText
 10
13583.11819016569
 20
10080.01374588373
 30
0.0
 40
100.0
  1
鼻隠シ前後
  7
STYLE1
100
AcDbText
  0
TEXT
  5
14153
330
747D
100
AcDbEntity
  8
文字
 62
     7
 48
50.0
100
AcDbText
 10
13583.11819016569
 20
9740.013745883729
 30
0.0
 40
100.0
  1
屋根パネル
  7
STYLE1
100
AcDbText
  0
TEXT
  5
14154
330
747D
100
AcDbEntity
  8
文字
 62
     7
 48
50.0
100
AcDbText
 10
13583.11819016568
 20
9400.013745883729
 30
0.0
 40
100.0
  1
壁パネル
  7
STYLE1
100
AcDbText
  0
TEXT
  5
14155
330
747D
100
AcDbEntity
  8
文字
 62
     7
 48
50.0
100
AcDbText
 10
13248.77747366447
 20
9570.013745883729
 30
0.0
 40
100.0
  1
10
  7
STYLE1
100
AcDbText
  0
TEXT
  5
14156
330
747D
100
AcDbEntity
  8
文字
 62
     7
 48
50.0
100
AcDbText
 10
13583.11819016569
 20
10250.01374588373
 30
0.0
 40
100.0
  1
妻板左右
  7
STYLE1
100
AcDbText
  0
TEXT
  5
14157
330
747D
100
AcDbEntity
  8
文字
 62
     7
 48
50.0
100
AcDbText
 10
13271.19032244792
 20
10420.01374588373
 30
0.0
 40
100.0
  1
5
  7
STYLE1
100
AcDbText
  0
TEXT
  5
14158
330
747D
100
AcDbEntity
  8
文字
 62
     7
 48
50.0
100
AcDbText
 10
13583.11819016569
 20
10420.01374588373
 30
0.0
 40
100.0
  1
桁前後
  7
STYLE1
100
AcDbText
  0
TEXT
  5
14159
330
747D
100
AcDbEntity
  8
文字
 62
     7
 48
50.0
100
AcDbText
 10
13583.1181901657
 20
10760.01374588373
 30
0.0
 40
100.0
  1
柱
  7
STYLE1
100
AcDbText
  0
TEXT
  5
1415A
330
747D
100
AcDbEntity
  8
文字
 62
     7
 48
50.0
100
AcDbText
 10
13583.11819016569
 20
11100.01374588373
 30
0.0
 40
100.0
  1
土台枠
  7
STYLE1
100
AcDbText
  0
TEXT
  5
1415B
330
747D
100
AcDbEntity
  8
文字
 62
     7
 48
50.0
100
AcDbText
 10
14859.79774614482
 20
11270.01374588373
 30
0.0
 40
100.0
  1
材料（材質）　　単位mm
  7
STYLE1
100
AcDbText
  0
TEXT
  5
1415C
330
747D
100
AcDbEntity
  8
文字
 62
     7
 48
50.0
100
AcDbText
 10
13732.03840939434
 20
11270.01374588373
 30
0.0
 40
100.0
  1
部　　品　　名
  7
STYLE1
100
AcDbText
  0
TEXT
  5
1415D
330
747D
100
AcDbEntity
  8
文字
 62
     7
 48
50.0
100
AcDbText
 10
13271.19032244792
 20
10760.01374588373
 30
0.0
 40
100.0
  1
3
  7
STYLE1
100
AcDbText
  0
TEXT
  5
1415E
330
747D
100
AcDbEntity
  8
文字
 62
     7
 48
50.0
100
AcDbText
 10
13271.19032244792
 20
10590.01374588373
 30
0.0
 40
100.0
  1
4
  7
STYLE1
100
AcDbText
  0
TEXT
  5
1415F
330
747D
100
AcDbEntity
  8
文字
 62
     7
 48
50.0
100
AcDbText
 10
13271.19032244792
 20
10930.01374588373
 30
0.0
 40
100.0
  1
2
  7
STYLE1
100
AcDbText
  0
TEXT
  5
14160
330
747D
100
AcDbEntity
  8
文字
 62
     7
 48
50.0
100
AcDbText
 10
13271.19032244792
 20
11100.01374588373
 30
0.0
 40
100.0
  1
1
  7
STYLE1
100
AcDbText
  0
TEXT
  5
14161
330
747D
100
AcDbEntity
  8
文字
 62
     7
 48
50.0
100
AcDbText
 10
13197.42518560407
 20
11270.01374588373
 30
0.0
 40
100.0
  1
品番
  7
STYLE1
100
AcDbText
  0
LINE
  5
14162
330
747D
100
AcDbEntity
  8
仕様書枠
 48
50.0
100
AcDbLine
 10
16307.19999999999
 20
10729.6
 30
0.0
 11
13127.2
 21
10729.6
 31
0.0
  0
LINE
  5
14163
330
747D
100
AcDbEntity
  8
仕様書枠
 48
50.0
100
AcDbLine
 10
16307.19999999999
 20
10389.6
 30
0.0
 11
13127.2
 21
10389.6
 31
0.0
  0
LINE
  5
14164
330
747D
100
AcDbEntity
  8
仕様書枠
 48
50.0
100
AcDbLine
 10
16307.19999999999
 20
10559.6
 30
0.0
 11
13127.2
 21
10559.6
 31
0.0
  0
LINE
  5
14165
330
747D
100
AcDbEntity
  8
仕様書枠
 48
50.0
100
AcDbLine
 10
16307.2
 20
11069.6
 30
0.0
 11
13127.2
 21
11069.6
 31
0.0
  0
LINE
  5
14166
330
747D
100
AcDbEntity
  8
仕様書枠
 48
50.0
100
AcDbLine
 10
16307.2
 20
10899.6
 30
0.0
 11
13127.2
 21
10899.6
 31
0.0
  0
LINE
  5
14167
330
747D
100
AcDbEntity
  8
仕様書枠
 48
50.0
100
AcDbLine
 10
16307.2
 20
11239.6
 30
0.0
 11
13127.2
 21
11239.6
 31
0.0
  0
LINE
  5
14168
330
747D
100
AcDbEntity
  8
仕様書枠
 48
50.0
100
AcDbLine
 10
13490.2
 20
11409.6
 30
0.0
 11
13490.20000000001
 21
8349.600000000007
 31
0.0
  0
LINE
  5
14169
330
747D
100
AcDbEntity
  8
仕様書枠
 48
50.0
100
AcDbLine
 10
14785.2
 20
11409.59999999999
 30
0.0
 11
14785.2
 21
8349.600000000004
 31
0.0
  0
LINE
  5
1416A
330
747D
100
AcDbEntity
  8
仕様書枠
 48
50.0
100
AcDbLine
 10
16307.19999999999
 20
8009.600000000004
 30
0.0
 11
16307.2
 21
11409.6
 31
0.0
  0
LINE
  5
1416B
330
747D
100
AcDbEntity
  8
仕様書枠
 48
50.0
100
AcDbLine
 10
16307.2
 20
11409.6
 30
0.0
 11
13127.2
 21
11409.6
 31
0.0
  0
LINE
  5
1416C
330
747D
100
AcDbEntity
  8
仕様書枠
 48
50.0
100
AcDbLine
 10
16307.2
 20
10049.6
 30
0.0
 11
13127.2
 21
10049.6
 31
0.0
  0
TEXT
  5
1416D
330
747D
100
AcDbEntity
  8
文字
 62
     7
 48
50.0
100
AcDbText
 10
15022.63965474515
 20
8380.013745883726
 30
0.0
 40
100.0
  1
F12            2.3
  7
STYLE1
100
AcDbText
  0
TEXT
  5
1416E
330
747D
100
AcDbEntity
  8
文字
 62
     7
 48
50.0
100
AcDbText
 10
13583.11819016569
 20
8380.013745883728
 30
0.0
 40
100.0
  1
アンカープレート
  7
STYLE1
100
AcDbText
  0
LINE
  5
1416F
330
747D
100
AcDbEntity
  8
仕様書枠
 48
50.0
100
AcDbLine
 10
16307.19999999999
 20
8519.600000000004
 30
0.0
 11
13127.2
 21
8519.600000000009
 31
0.0
  0
LINE
  5
14170
330
747D
100
AcDbEntity
  8
仕様書枠
 48
50.0
100
AcDbLine
 10
16307.19999999999
 20
8689.600000000003
 30
0.0
 11
13127.2
 21
8689.600000000007
 31
0.0
  0
TEXT
  5
14171
330
747D
100
AcDbEntity
  8
文字
 62
     7
 48
50.0
100
AcDbText
 10
13583.11819016569
 20
9230.013745883729
 30
0.0
 40
100.0
  1
壁面扉鴨居
  7
STYLE1
100
AcDbText
  0
TEXT
  5
14172
330
747D
100
AcDbEntity
  8
文字
 62
     7
 48
50.0
100
AcDbText
 10
13583.11819016569
 20
9060.013745883733
 30
0.0
 40
100.0
  1
壁面扉敷居
  7
STYLE1
100
AcDbText
  0
TEXT
  5
14173
330
747D
100
AcDbEntity
  8
文字
 62
     7
 48
50.0
100
AcDbText
 10
15022.63965474515
 20
9230.013745883729
 30
0.0
 40
100.0
  1
F12            0.7
  7
STYLE1
100
AcDbText
  0
TEXT
  5
14174
330
747D
100
AcDbEntity
  8
文字
 62
     7
 48
50.0
100
AcDbText
 10
15022.63965474517
 20
9060.013745883725
 30
0.0
 40
100.0
  1
F12            1.0
  7
STYLE1
100
AcDbText
  0
TEXT
  5
14175
330
747D
100
AcDbEntity
  8
文字
 62
     7
 48
50.0
100
AcDbText
 10
13583.11819016569
 20
8890.013745883733
 30
0.0
 40
100.0
  1
壁面扉枠左右
  7
STYLE1
100
AcDbText
  0
TEXT
  5
14176
330
747D
100
AcDbEntity
  8
文字
 62
     7
 48
50.0
100
AcDbText
 10
15022.63965474517
 20
8890.013745883726
 30
0.0
 40
100.0
  1
F12            1.0
  7
STYLE1
100
AcDbText
  0
TEXT
  5
14177
330
747D
100
AcDbEntity
  8
文字
 62
     7
 48
50.0
100
AcDbText
 10
13248.77747366447
 20
8550.013745883729
 30
0.0
 40
100.0
  1
16
  7
STYLE1
100
AcDbText
  0
TEXT
  5
14178
330
747D
100
AcDbEntity
  8
文字
 62
     7
 48
50.0
100
AcDbText
 10
13248.77747366447
 20
8380.013745883728
 30
0.0
 40
100.0
  1
17
  7
STYLE1
100
AcDbText
  0
TEXT
  5
14179
330
747D
100
AcDbEntity
  8
文字
 62
     7
 48
50.0
100
AcDbText
 10
13583.1181901657
 20
9910.01374588373
 30
0.0
 40
100.0
  1
梁中
 41
0.9
  7
STYLE1
100
AcDbText
  0
TEXT
  5
1417A
330
747D
100
AcDbEntity
  8
文字
 62
     7
 48
50.0
100
AcDbText
 10
15022.63965474517
 20
9910.01374588373
 30
0.0
 40
100.0
  1
F12,Y10        1.0
  7
STYLE1
100
AcDbText
  0
TEXT
  5
1417B
330
747D
100
AcDbEntity
  8
文字
 62
     7
 48
50.0
100
AcDbText
 10
13209.4053442172
 20
228.5435242569015
 30
0.0
 40
100.0
  1
○有効開口寸法 ： 1266×2025(mm)
  7
STYLE2
100
AcDbText
  0
TEXT
  5
1417C
330
747D
100
AcDbEntity
  8
文字
 62
     7
 48
50.0
100
AcDbText
 10
14505.34213575793
 20
483.8967129911411
 30
0.0
 40
160.0
  1
ＮＸＮ－１６２Ｈ
  7
STYLE2
100
AcDbText
  0
LWPOLYLINE
  5
1417D
330
747D
100
AcDbEntity
  8
部品1
100
AcDbPolyline
 90
        4
 70
     1
 43
0.0
 10
5167.960182234303
 20
1828.710439851412
 10
5167.960182234303
 20
1588.818118305879
 10
5931.430848462747
 20
1588.818118305879
 10
5931.430848462747
 20
1828.710439851412
  0
TEXT
  5
1417E
330
747D
100
AcDbEntity
  8
部品1
100
AcDbText
 10
5258.485585972259
 20
1635.816910632888
 30
0.0
 40
135.0
  1
正面図
  7
STYLE2
100
AcDbText
  0
LINE
  5
14232
330
747D
100
AcDbEntity
  8
部品1
 48
50.0
100
AcDbLine
 10
2974.695515348525
 20
7412.340496867901
 30
0.0
 11
5074.695515348525
 21
7412.340496867901
 31
0.0
  0
LINE
  5
14233
330
747D
100
AcDbEntity
  8
部品1
100
AcDbLine
 10
5074.695515348525
 20
7384.340496867901
 30
0.0
 11
5074.695515348525
 21
7412.340496867904
 31
0.0
  0
LINE
  5
14234
330
747D
100
AcDbEntity
  8
部品1
100
AcDbLine
 10
5074.695515348525
 20
7384.340496867901
 30
0.0
 11
5074.695515348525
 21
7412.340496867904
 31
0.0
  0
LINE
  5
14235
330
747D
100
AcDbEntity
  8
部品1
100
AcDbLine
 10
2974.695515348525
 20
7384.34049686791
 30
0.0
 11
2974.695515348525
 21
7412.340496867911
 31
0.0
  0
LWPOLYLINE
  5
1423A
330
747D
100
AcDbEntity
  8
部品1
100
AcDbPolyline
 90
        4
 70
     1
 43
0.0
 10
12470.0833715573
 20
1828.710439851413
 10
12470.0833715573
 20
1588.81811830588
 10
13233.55403778574
 20
1588.81811830588
 10
13233.55403778574
 20
1828.710439851413
  0
TEXT
  5
1423B
330
747D
100
AcDbEntity
  8
部品1
100
AcDbText
 10
12559.52947298091
 20
1635.81691063289
 30
0.0
 40
135.0
  1
側面図
  7
STYLE2
100
AcDbText
  0
LINE
  5
1428D
330
747D
100
AcDbEntity
  8
部品1
 48
50.0
100
AcDbLine
 10
2974.695515348525
 20
7412.340496867897
 30
0.0
 11
5074.695515348525
 21
7412.340496867901
 31
0.0
  0
LINE
  5
1428E
330
747D
100
AcDbEntity
  8
部品1
100
AcDbLine
 10
5521.695517592096
 20
9986.340500445074
 30
0.0
 11
5549.695517592096
 21
9986.340500445074
 31
0.0
  0
LINE
  5
1428F
330
747D
100
AcDbEntity
  8
部品1
100
AcDbLine
 10
5577.695517592096
 20
9986.340500445074
 30
0.0
 11
5577.695517592096
 21
10014.34050044507
 31
0.0
  0
LINE
  5
14290
330
747D
100
AcDbEntity
  8
部品1
100
AcDbLine
 10
5521.695517592096
 20
9986.340500445074
 30
0.0
 11
5521.695517592096
 21
10014.34050044507
 31
0.0
  0
LINE
  5
14291
330
747D
100
AcDbEntity
  8
部品1
 48
50.0
100
AcDbLine
 10
5549.695517592096
 20
9986.340500445074
 30
0.0
 11
5521.695517592096
 21
10014.34050044507
 31
0.0
  0
LINE
  5
14292
330
747D
100
AcDbEntity
  8
部品1
100
AcDbLine
 10
8571.695515348526
 20
9959.340496867907
 30
0.0
 11
8599.695515348525
 21
9959.340496867907
 31
0.0
  0
LINE
  5
14293
330
747D
100
AcDbEntity
  8
部品1
100
AcDbLine
 10
8544.695515348525
 20
10014.3404968679
 30
0.0
 11
8544.695515348525
 21
9986.340496867903
 31
0.0
  0
LINE
  5
14294
330
747D
100
AcDbEntity
  8
部品1
 48
50.0
100
AcDbLine
 10
8571.695515348526
 20
9986.340496867903
 30
0.0
 11
8544.695515348525
 21
9959.340496867907
 31
0.0
  0
LINE
  5
14295
330
747D
100
AcDbEntity
  8
部品1
100
AcDbLine
 10
8124.695515348525
 20
10014.3404968679
 30
0.0
 11
8124.695515348525
 21
9986.340496867903
 31
0.0
  0
LINE
  5
14296
330
747D
100
AcDbEntity
  8
部品1
100
AcDbLine
 10
8124.695515348525
 20
9986.340496867903
 30
0.0
 11
8571.695515348526
 21
9986.340496867903
 31
0.0
  0
LINE
  5
14297
330
747D
100
AcDbEntity
  8
破線
  6
HIDDEN
 48
10.0
100
AcDbLine
 10
8521.195515348525
 20
9935.840496867909
 30
0.0
 11
7827.195515348525
 21
9935.840496867903
 31
0.0
  0
LINE
  5
14298
330
747D
100
AcDbEntity
  8
部品1
100
AcDbLine
 10
7704.695515348525
 20
10014.3404968679
 30
0.0
 11
7704.695515348525
 21
9986.340496867903
 31
0.0
  0
LINE
  5
14299
330
747D
100
AcDbEntity
  8
部品1
100
AcDbLine
 10
7284.695515348525
 20
10014.3404968679
 30
0.0
 11
7284.695515348525
 21
9986.340496867903
 31
0.0
  0
LINE
  5
1429A
330
747D
100
AcDbEntity
  8
部品1
100
AcDbLine
 10
6864.695515348525
 20
10014.3404968679
 30
0.0
 11
6864.695515348525
 21
9986.340496867903
 31
0.0
  0
LINE
  5
1429B
330
747D
100
AcDbEntity
  8
部品1
100
AcDbLine
 10
6444.695515348525
 20
10014.3404968679
 30
0.0
 11
6444.695515348525
 21
9986.340496867903
 31
0.0
  0
LINE
  5
1429C
330
747D
100
AcDbEntity
  8
破線
  6
HIDDEN
 48
10.0
100
AcDbLine
 10
7049.695515348524
 20
9935.840496867903
 30
0.0
 11
6372.195515348526
 21
9935.840496867907
 31
0.0
  0
LINE
  5
1429D
330
747D
100
AcDbEntity
  8
部品1
100
AcDbLine
 10
7087.195515348525
 20
9986.340496867905
 30
0.0
 11
8322.195515348525
 21
9986.340496867903
 31
0.0
  0
LINE
  5
1429E
330
747D
100
AcDbEntity
  8
破線
  6
HIDDEN
 48
10.0
100
AcDbLine
 10
7777.195515348525
 20
9935.840496867907
 30
0.0
 11
7099.695515348525
 21
9935.840496867903
 31
0.0
  0
LINE
  5
1429F
330
747D
100
AcDbEntity
  8
部品1
100
AcDbLine
 10
6024.695515348525
 20
10014.3404968679
 30
0.0
 11
6024.695515348525
 21
9986.340496867903
 31
0.0
  0
LINE
  5
142A0
330
747D
100
AcDbEntity
  8
部品1
100
AcDbLine
 10
5604.695515348525
 20
10014.3404968679
 30
0.0
 11
5604.695515348525
 21
9986.340496867903
 31
0.0
  0
LINE
  5
142A1
330
747D
100
AcDbEntity
  8
部品1
100
AcDbLine
 10
5604.695515348525
 20
10014.3404968679
 30
0.0
 11
5604.695515348525
 21
9986.340496867903
 31
0.0
  0
LINE
  5
142A2
330
747D
100
AcDbEntity
  8
部品1
100
AcDbLine
 10
5521.695515348525
 20
9959.340496867907
 30
0.0
 11
5549.695515348525
 21
9959.340496867907
 31
0.0
  0
LINE
  5
142A3
330
747D
100
AcDbEntity
  8
部品1
100
AcDbLine
 10
5494.695515348524
 20
10014.3404968679
 30
0.0
 11
5494.695515348524
 21
9986.340496867903
 31
0.0
  0
LINE
  5
142A4
330
747D
100
AcDbEntity
  8
部品1
100
AcDbLine
 10
5577.695515348525
 20
9959.340496867907
 30
0.0
 11
5549.695515348525
 21
9959.340496867907
 31
0.0
  0
LINE
  5
142A5
330
747D
100
AcDbEntity
  8
部品1
 48
50.0
100
AcDbLine
 10
5521.695515348525
 20
9986.340496867905
 30
0.0
 11
5494.695515348524
 21
9959.340496867909
 31
0.0
  0
LINE
  5
142A6
330
747D
100
AcDbEntity
  8
部品1
 48
50.0
100
AcDbLine
 10
5577.695515348525
 20
9986.340496867905
 30
0.0
 11
5604.695515348525
 21
9959.340496867904
 31
0.0
  0
DIMENSION
  5
142A7
330
747D
100
AcDbEntity
  8
寸法
 48
50.0
100
AcDbDimension
  2
*D3
 10
5604.695515348525
 20
10389.0529068867
 30
0.0
 11
5549.695515348525
 21
10389.0529068867
 31
0.0
 70
   160
 71
     5
 42
110.0
  3
INABA_S40
100
AcDbAlignedDimension
 13
5494.695515348524
 23
10014.3404968679
 33
0.0
 14
5604.695515348525
 24
10014.3404968679
 34
0.0
100
AcDbRotatedDimension
1001
ACAD
1000
DSTYLE
1002
{
1070
    41
1040
0.5
1070
    44
1040
1.0
1070
   147
1040
0.8
1070
   271
1070
     2
1070
   272
1070
     2
1070
   289
1070
     3
1070
   340
1005
F706
1070
   343
1005
F744
1070
   344
1005
F744
1002
}
  0
LINE
  5
142A8
330
747D
100
AcDbEntity
  8
部品1
100
AcDbLine
 10
5074.695515348525
 20
10014.3404968679
 30
0.0
 11
5074.695515348525
 21
9986.340496867903
 31
0.0
  0
LINE
  5
142A9
330
747D
100
AcDbEntity
  8
部品1
100
AcDbLine
 10
4654.695515348524
 20
10014.3404968679
 30
0.0
 11
4654.695515348524
 21
9986.340496867903
 31
0.0
  0
LINE
  5
142AA
330
747D
100
AcDbEntity
  8
部品1
100
AcDbLine
 10
5521.695515348525
 20
9986.340496867905
 30
0.0
 11
4654.695515348524
 21
9986.340496867905
 31
0.0
  0
LINE
  5
142AB
330
747D
100
AcDbEntity
  8
破線
  6
HIDDEN
 48
10.0
100
AcDbLine
 10
4777.195515348521
 20
9935.840496867911
 30
0.0
 11
5471.195515348525
 21
9935.840496867911
 31
0.0
  0
LINE
  5
142AC
330
747D
100
AcDbEntity
  8
部品1
100
AcDbLine
 10
4234.695515348525
 20
10014.3404968679
 30
0.0
 11
4234.695515348525
 21
9986.340496867903
 31
0.0
  0
LINE
  5
142AD
330
747D
100
AcDbEntity
  8
部品1
100
AcDbLine
 10
3814.695515348525
 20
10014.3404968679
 30
0.0
 11
3814.695515348525
 21
9986.340496867903
 31
0.0
  0
LINE
  5
142AE
330
747D
100
AcDbEntity
  8
部品1
100
AcDbLine
 10
3394.695515348525
 20
10014.3404968679
 30
0.0
 11
3394.695515348525
 21
9986.340496867903
 31
0.0
  0
LINE
  5
142AF
330
747D
100
AcDbEntity
  8
部品1
100
AcDbLine
 10
4654.695515348524
 20
9986.340496867905
 30
0.0
 11
3394.695515348525
 21
9986.340496867907
 31
0.0
  0
LINE
  5
142B0
330
747D
100
AcDbEntity
  8
破線
  6
HIDDEN
 48
10.0
100
AcDbLine
 10
4049.695515348521
 20
9935.840496867903
 30
0.0
 11
4727.195515348522
 21
9935.840496867911
 31
0.0
  0
LINE
  5
142B1
330
747D
100
AcDbEntity
  8
部品1
100
AcDbLine
 10
5549.695515348525
 20
10014.3404968679
 30
0.0
 11
8599.695515348525
 21
10014.3404968679
 31
0.0
  0
DIMENSION
  5
142B2
330
747D
100
AcDbEntity
  8
寸法
 48
50.0
100
AcDbDimension
  2
*D4
 10
8544.695515348525
 20
10389.0529068867
 30
0.0
 11
7074.695515348524
 21
10481.06471791032
 31
0.0
 70
    32
  1
7X420=<>
 71
     5
 42
2940.0
  3
INABA_S40
100
AcDbAlignedDimension
 13
5604.695515348525
 23
10014.3404968679
 33
0.0
 14
8544.695515348525
 24
10014.3404968679
 34
0.0
100
AcDbRotatedDimension
1001
ACAD
1000
DSTYLE
1002
{
1070
    41
1040
0.5
1070
    44
1040
1.0
1070
   147
1040
0.8
1070
   271
1070
     2
1070
   272
1070
     2
1070
   289
1070
     3
1070
   340
1005
F706
1070
   343
1005
F744
1070
   344
1005
F744
1002
}
  0
LINE
  5
142B3
330
747D
100
AcDbEntity
  8
部品1
100
AcDbLine
 10
5577.695515348525
 20
9986.340496867905
 30
0.0
 11
7284.695515348525
 21
9986.340496867905
 31
0.0
  0
LINE
  5
142B4
330
747D
100
AcDbEntity
  8
部品1
100
AcDbLine
 10
8544.695515348525
 20
9959.340496867907
 30
0.0
 11
5604.695515348525
 21
9959.340496867904
 31
0.0
  0
LINE
  5
142B5
330
747D
100
AcDbEntity
  8
破線
  6
HIDDEN
 48
10.0
100
AcDbLine
 10
6322.195515348525
 20
9935.840496867903
 30
0.0
 11
5628.195515348525
 21
9935.840496867903
 31
0.0
  0
LINE
  5
142B6
330
747D
100
AcDbEntity
  8
部品1
100
AcDbLine
 10
8571.695515348526
 20
9119.340496867906
 30
0.0
 11
8599.695515348525
 21
9119.340496867906
 31
0.0
  0
LINE
  5
142B7
330
747D
100
AcDbEntity
  8
部品1
100
AcDbLine
 10
8571.695515348526
 20
8699.340496867906
 30
0.0
 11
8599.695515348525
 21
8699.340496867906
 31
0.0
  0
LINE
  5
142B8
330
747D
100
AcDbEntity
  8
部品1
100
AcDbLine
 10
8571.695515348526
 20
8279.340496867906
 30
0.0
 11
8599.695515348525
 21
8279.340496867906
 31
0.0
  0
LINE
  5
142B9
330
747D
100
AcDbEntity
  8
部品1
100
AcDbLine
 10
8571.695515348526
 20
7859.340496867907
 30
0.0
 11
8599.695515348525
 21
7859.340496867907
 31
0.0
  0
LINE
  5
142BA
330
747D
100
AcDbEntity
  8
部品1
100
AcDbLine
 10
8571.695515348526
 20
7439.340496867899
 30
0.0
 11
8599.695515348525
 21
7439.340496867899
 31
0.0
  0
LINE
  5
142BB
330
747D
100
AcDbEntity
  8
部品1
100
AcDbLine
 10
8544.695515348525
 20
7384.340496867901
 30
0.0
 11
8544.695515348525
 21
7412.340496867902
 31
0.0
  0
LINE
  5
142BC
330
747D
100
AcDbEntity
  8
部品1
 48
50.0
100
AcDbLine
 10
8571.695515348526
 20
7412.340496867902
 30
0.0
 11
8544.695515348525
 21
7439.340496867902
 31
0.0
  0
LINE
  5
142BD
330
747D
100
AcDbEntity
  8
部品1
100
AcDbLine
 10
8124.695515348525
 20
7384.340496867901
 30
0.0
 11
8124.695515348525
 21
7412.340496867902
 31
0.0
  0
LINE
  5
142BE
330
747D
100
AcDbEntity
  8
破線
  6
HIDDEN
 48
10.0
100
AcDbLine
 10
8521.195515348525
 20
7462.840496867901
 30
0.0
 11
7827.195515348525
 21
7462.840496867904
 31
0.0
  0
LINE
  5
142BF
330
747D
100
AcDbEntity
  8
部品1
100
AcDbLine
 10
7704.695515348525
 20
7384.340496867901
 30
0.0
 11
7704.695515348525
 21
7412.340496867902
 31
0.0
  0
LINE
  5
142C0
330
747D
100
AcDbEntity
  8
部品1
100
AcDbLine
 10
7284.695515348525
 20
7384.340496867901
 30
0.0
 11
7284.695515348525
 21
7412.340496867902
 31
0.0
  0
LINE
  5
142C1
330
747D
100
AcDbEntity
  8
部品1
100
AcDbLine
 10
6864.695515348525
 20
7384.340496867901
 30
0.0
 11
6864.695515348525
 21
7412.340496867902
 31
0.0
  0
LINE
  5
142C2
330
747D
100
AcDbEntity
  8
部品1
100
AcDbLine
 10
6444.695515348525
 20
7384.340496867901
 30
0.0
 11
6444.695515348525
 21
7412.340496867902
 31
0.0
  0
LINE
  5
142C3
330
747D
100
AcDbEntity
  8
破線
  6
HIDDEN
 48
10.0
100
AcDbLine
 10
7049.695515348521
 20
7462.840496867897
 30
0.0
 11
6372.195515348522
 21
7462.840496867902
 31
0.0
  0
LINE
  5
142C4
330
747D
100
AcDbEntity
  8
破線
  6
HIDDEN
 48
10.0
100
AcDbLine
 10
7777.195515348522
 20
7462.840496867904
 30
0.0
 11
7099.695515348525
 21
7462.840496867904
 31
0.0
  0
LINE
  5
142C5
330
747D
100
AcDbEntity
  8
部品1
100
AcDbLine
 10
8571.695515348526
 20
9986.340496867903
 30
0.0
 11
8571.695515348526
 21
7412.340496867902
 31
0.0
  0
LINE
  5
142C6
330
747D
100
AcDbEntity
  8
部品1
100
AcDbLine
 10
6024.695515348525
 20
7384.340496867901
 30
0.0
 11
6024.695515348525
 21
7412.340496867902
 31
0.0
  0
LINE
  5
142C7
330
747D
100
AcDbEntity
  8
部品1
100
AcDbLine
 10
5521.695515348525
 20
7439.340496867899
 30
0.0
 11
5549.695515348525
 21
7439.340496867899
 31
0.0
  0
LINE
  5
142C8
330
747D
100
AcDbEntity
  8
部品1
100
AcDbLine
 10
5577.695515348525
 20
7439.340496867899
 30
0.0
 11
5549.695515348525
 21
7439.340496867899
 31
0.0
  0
LINE
  5
142C9
330
747D
100
AcDbEntity
  8
部品1
100
AcDbLine
 10
5604.695515348525
 20
7384.340496867901
 30
0.0
 11
5604.695515348525
 21
7412.340496867902
 31
0.0
  0
LINE
  5
142CA
330
747D
100
AcDbEntity
  8
部品1
100
AcDbLine
 10
5494.695515348524
 20
7384.340496867901
 30
0.0
 11
5494.695515348524
 21
7412.340496867902
 31
0.0
  0
LINE
  5
142CB
330
747D
100
AcDbEntity
  8
部品1
100
AcDbLine
 10
5604.695515348525
 20
7384.340496867904
 30
0.0
 11
5549.695515348525
 21
7384.340496867903
 31
0.0
  0
LINE
  5
142CC
330
747D
100
AcDbEntity
  8
部品1
 48
50.0
100
AcDbLine
 10
5521.695515348525
 20
7412.340496867904
 30
0.0
 11
5494.695515348524
 21
7439.340496867899
 31
0.0
  0
LINE
  5
142CD
330
747D
100
AcDbEntity
  8
部品1
 48
50.0
100
AcDbLine
 10
5577.695515348525
 20
7412.340496867902
 30
0.0
 11
5604.695515348525
 21
7439.340496867902
 31
0.0
  0
LINE
  5
142CE
330
747D
100
AcDbEntity
  8
部品1
100
AcDbLine
 10
5074.695515348525
 20
7384.340496867901
 30
0.0
 11
5074.695515348525
 21
7412.340496867902
 31
0.0
  0
LINE
  5
142CF
330
747D
100
AcDbEntity
  8
部品1
100
AcDbLine
 10
5074.695515348525
 20
7384.340496867901
 30
0.0
 11
5074.695515348525
 21
7412.340496867902
 31
0.0
  0
LINE
  5
142D0
330
747D
100
AcDbEntity
  8
部品1
100
AcDbLine
 10
5074.695515348525
 20
7384.340496867903
 30
0.0
 11
5549.695515348525
 21
7384.340496867903
 31
0.0
  0
LINE
  5
142D1
330
747D
100
AcDbEntity
  8
破線
  6
HIDDEN
 48
10.0
100
AcDbLine
 10
4777.195515348518
 20
7462.840496867902
 30
0.0
 11
5471.195515348525
 21
7462.840496867899
 31
0.0
  0
LINE
  5
142D2
330
747D
100
AcDbEntity
  8
破線
  6
HIDDEN
 48
10.0
100
AcDbLine
 10
4049.695515348518
 20
7462.840496867901
 30
0.0
 11
4727.195515348518
 21
7462.840496867901
 31
0.0
  0
LINE
  5
142D4
330
747D
100
AcDbEntity
  8
部品1
100
AcDbLine
 10
8571.695515348526
 20
7412.340496867902
 30
0.0
 11
5577.695515348525
 21
7412.340496867904
 31
0.0
  0
LINE
  5
142D5
330
747D
100
AcDbEntity
  8
部品1
100
AcDbLine
 10
8544.695515348525
 20
7439.340496867902
 30
0.0
 11
5604.695515348525
 21
7439.340496867905
 31
0.0
  0
LINE
  5
142D6
330
747D
100
AcDbEntity
  8
部品1
100
AcDbLine
 10
8599.695515348525
 20
7384.340496867903
 30
0.0
 11
5604.695515348525
 21
7384.340496867903
 31
0.0
  0
LINE
  5
142D7
330
747D
100
AcDbEntity
  8
部品1
100
AcDbLine
 10
5604.695515348525
 20
9119.340496867904
 30
0.0
 11
8544.695515348525
 21
9119.340496867904
 31
0.0
  0
LINE
  5
142D8
330
747D
100
AcDbEntity
  8
部品1
100
AcDbLine
 10
5604.695515348525
 20
8699.340496867904
 30
0.0
 11
8544.695515348525
 21
8699.340496867904
 31
0.0
  0
LINE
  5
142D9
330
747D
100
AcDbEntity
  8
部品1
100
AcDbLine
 10
5604.695515348525
 20
8279.340496867904
 30
0.0
 11
8544.695515348525
 21
8279.340496867904
 31
0.0
  0
LINE
  5
142DA
330
747D
100
AcDbEntity
  8
部品1
100
AcDbLine
 10
5604.695515348525
 20
7859.340496867904
 30
0.0
 11
8544.695515348525
 21
7859.340496867904
 31
0.0
  0
LINE
  5
142DB
330
747D
100
AcDbEntity
  8
破線
  6
HIDDEN
 48
10.0
100
AcDbLine
 10
6322.195515348521
 20
7462.840496867902
 30
0.0
 11
5628.195515348525
 21
7462.840496867904
 31
0.0
  0
LINE
  5
142DC
330
747D
100
AcDbEntity
  8
部品1
100
AcDbLine
 10
8599.695515348525
 20
10014.3404968679
 30
0.0
 11
8599.695515348525
 21
7384.340496867903
 31
0.0
  0
LINE
  5
142DD
330
747D
100
AcDbEntity
  8
破線
  6
HIDDEN
 48
10.0
100
AcDbLine
 10
8521.195515348525
 20
9935.840496867911
 30
0.0
 11
8521.195515348525
 21
7462.840496867901
 31
0.0
  0
LINE
  5
142DE
330
747D
100
AcDbEntity
  8
部品1
100
AcDbLine
 10
5521.695515348525
 20
7412.340496867904
 30
0.0
 11
5521.695515348525
 21
9986.340496867905
 31
0.0
  0
LINE
  5
142DF
330
747D
100
AcDbEntity
  8
部品1
100
AcDbLine
 10
5494.695515348524
 20
7439.340496867899
 30
0.0
 11
5494.695515348521
 21
9959.340496867909
 31
0.0
  0
LINE
  5
142E0
330
747D
100
AcDbEntity
  8
破線
  6
HIDDEN
 48
10.0
100
AcDbLine
 10
5471.195515348525
 20
7462.840496867899
 30
0.0
 11
5471.195515348521
 21
9935.840496867909
 31
0.0
  0
LINE
  5
142E1
330
747D
100
AcDbEntity
  8
部品1
100
AcDbLine
 10
4024.695515348525
 20
9959.340496867907
 30
0.0
 11
4024.695515348517
 21
7439.340496867905
 31
0.0
  0
LINE
  5
142E2
330
747D
100
AcDbEntity
  8
部品1
100
AcDbLine
 10
5577.695515348525
 20
7412.340496867902
 30
0.0
 11
5577.695515348525
 21
9986.340496867907
 31
0.0
  0
LINE
  5
142E3
330
747D
100
AcDbEntity
  8
破線
  6
HIDDEN
 48
10.0
100
AcDbLine
 10
5628.195515348525
 20
7462.840496867902
 30
0.0
 11
5628.195515348525
 21
9935.840496867903
 31
0.0
  0
LINE
  5
142E4
330
747D
100
AcDbEntity
  8
部品1
100
AcDbLine
 10
5604.695515348525
 20
7439.340496867902
 30
0.0
 11
5604.695515348525
 21
9959.340496867902
 31
0.0
  0
LINE
  5
142E5
330
747D
100
AcDbEntity
  8
部品1
100
AcDbLine
 10
7074.695515348524
 20
7439.340496867902
 30
0.0
 11
7074.695515348524
 21
9959.340496867907
 31
0.0
  0
LINE
  5
142E6
330
747D
100
AcDbEntity
  8
破線
  6
HIDDEN
 48
10.0
100
AcDbLine
 10
3999.695515348522
 20
9935.840496867911
 30
0.0
 11
3999.695515348518
 21
7462.840496867904
 31
0.0
  0
LINE
  5
142E7
330
747D
100
AcDbEntity
  8
破線
  6
HIDDEN
 48
10.0
100
AcDbLine
 10
4049.695515348521
 20
9935.840496867911
 30
0.0
 11
4049.695515348518
 21
7462.840496867904
 31
0.0
  0
LINE
  5
142E8
330
747D
100
AcDbEntity
  8
破線
  6
HIDDEN
 48
10.0
100
AcDbLine
 10
7099.695515348525
 20
9935.840496867909
 30
0.0
 11
7099.695515348525
 21
7462.840496867902
 31
0.0
  0
LINE
  5
142E9
330
747D
100
AcDbEntity
  8
破線
  6
HIDDEN
 48
10.0
100
AcDbLine
 10
7049.695515348524
 20
9935.840496867909
 30
0.0
 11
7049.695515348524
 21
7462.840496867902
 31
0.0
  0
LINE
  5
142EA
330
747D
100
AcDbEntity
  8
部品1
100
AcDbLine
 10
8544.695515348525
 20
9959.340496867907
 30
0.0
 11
8544.695515348525
 21
7439.340496867902
 31
0.0
  0
LINE
  5
142EB
330
747D
100
AcDbEntity
  8
破線
  6
HIDDEN
 48
10.0
100
AcDbLine
 10
4727.195515348522
 20
9959.340496867909
 30
0.0
 11
4727.195515348518
 21
7439.340496867902
 31
0.0
  0
LINE
  5
142EC
330
747D
100
AcDbEntity
  8
破線
  6
HIDDEN
 48
10.0
100
AcDbLine
 10
4777.195515348521
 20
9959.340496867909
 30
0.0
 11
4777.195515348518
 21
7439.340496867902
 31
0.0
  0
LINE
  5
142ED
330
747D
100
AcDbEntity
  8
破線
  6
HIDDEN
 48
10.0
100
AcDbLine
 10
6322.195515348525
 20
9959.340496867904
 30
0.0
 11
6322.195515348525
 21
7439.340496867905
 31
0.0
  0
LINE
  5
142EE
330
747D
100
AcDbEntity
  8
破線
  6
HIDDEN
 48
10.0
100
AcDbLine
 10
6372.195515348526
 20
9959.340496867904
 30
0.0
 11
6372.195515348526
 21
7439.340496867905
 31
0.0
  0
LINE
  5
142EF
330
747D
100
AcDbEntity
  8
破線
  6
HIDDEN
 48
10.0
100
AcDbLine
 10
7777.195515348525
 20
9959.340496867907
 30
0.0
 11
7777.195515348525
 21
7439.340496867902
 31
0.0
  0
LINE
  5
142F0
330
747D
100
AcDbEntity
  8
破線
  6
HIDDEN
 48
10.0
100
AcDbLine
 10
7827.195515348525
 20
9959.340496867907
 30
0.0
 11
7827.195515348525
 21
7439.340496867902
 31
0.0
  0
LINE
  5
142F1
330
747D
100
AcDbEntity
  8
部品1
100
AcDbLine
 10
2974.695515348525
 20
10014.3404968679
 30
0.0
 11
2974.695515348525
 21
9986.340496867903
 31
0.0
  0
LINE
  5
142F2
330
747D
100
AcDbEntity
  8
部品1
100
AcDbLine
 10
2527.695515348525
 20
9959.340496867907
 30
0.0
 11
2499.695515348526
 21
9959.340496867907
 31
0.0
  0
LINE
  5
142F3
330
747D
100
AcDbEntity
  8
部品1
100
AcDbLine
 10
2554.695515348525
 20
10014.3404968679
 30
0.0
 11
2554.695515348525
 21
9986.340496867903
 31
0.0
  0
LINE
  5
142F4
330
747D
100
AcDbEntity
  8
部品1
 48
50.0
100
AcDbLine
 10
2527.695515348525
 20
9986.340496867905
 30
0.0
 11
2554.695515348522
 21
9959.340496867904
 31
0.0
  0
DIMENSION
  5
142F5
330
747D
100
AcDbEntity
  8
寸法
 48
50.0
100
AcDbDimension
  2
*D5
 10
2554.695515348525
 20
10389.0529068867
 30
0.0
 11
2105.528848681861
 21
10389.0529068867
 31
0.0
 70
   160
 71
     5
 42
55.0
  3
INABA_S40
100
AcDbAlignedDimension
 13
2499.695515348526
 23
10014.3404968679
 33
0.0
 14
2554.695515348525
 24
10014.3404968679
 34
0.0
100
AcDbRotatedDimension
1001
ACAD
1000
DSTYLE
1002
{
1070
    41
1040
0.5
1070
    44
1040
1.0
1070
   147
1040
0.8
1070
   271
1070
     2
1070
   272
1070
     2
1070
   289
1070
     3
1070
   340
1005
F706
1070
   343
1005
F744
1070
   344
1005
F744
1002
}
  0
LINE
  5
142F6
330
747D
100
AcDbEntity
  8
破線
  6
HIDDEN
 48
10.0
100
AcDbLine
 10
2578.195515348522
 20
9935.840496867907
 30
0.0
 11
3272.195515348521
 21
9935.840496867903
 31
0.0
  0
LINE
  5
142F7
330
747D
100
AcDbEntity
  8
部品1
100
AcDbLine
 10
2527.695515348525
 20
9119.340496867906
 30
0.0
 11
2499.695515348526
 21
9119.340496867906
 31
0.0
  0
LINE
  5
142F8
330
747D
100
AcDbEntity
  8
部品1
100
AcDbLine
 10
2527.695515348525
 20
8699.340496867906
 30
0.0
 11
2499.695515348526
 21
8699.340496867906
 31
0.0
  0
LINE
  5
142F9
330
747D
100
AcDbEntity
  8
部品1
100
AcDbLine
 10
2527.695515348525
 20
8279.340496867906
 30
0.0
 11
2499.695515348526
 21
8279.340496867906
 31
0.0
  0
LINE
  5
142FA
330
747D
100
AcDbEntity
  8
部品1
100
AcDbLine
 10
2527.695515348525
 20
7859.340496867907
 30
0.0
 11
2499.695515348526
 21
7859.340496867907
 31
0.0
  0
LINE
  5
142FB
330
747D
100
AcDbEntity
  8
部品1
100
AcDbLine
 10
2974.695515348525
 20
7384.340496867901
 30
0.0
 11
2974.695515348525
 21
7412.340496867902
 31
0.0
  0
LINE
  5
142FC
330
747D
100
AcDbEntity
  8
部品1
100
AcDbLine
 10
2974.695515348525
 20
7384.340496867908
 30
0.0
 11
2974.695515348525
 21
7412.340496867909
 31
0.0
  0
LINE
  5
142FD
330
747D
100
AcDbEntity
  8
部品1
100
AcDbLine
 10
2527.695515348525
 20
7439.340496867899
 30
0.0
 11
2499.695515348526
 21
7439.340496867899
 31
0.0
  0
LINE
  5
142FE
330
747D
100
AcDbEntity
  8
部品1
100
AcDbLine
 10
2554.695515348525
 20
7384.340496867901
 30
0.0
 11
2554.695515348525
 21
7412.340496867902
 31
0.0
  0
LINE
  5
142FF
330
747D
100
AcDbEntity
  8
部品1
 48
50.0
100
AcDbLine
 10
2527.695515348525
 20
7412.340496867902
 30
0.0
 11
2554.695515348522
 21
7439.340496867905
 31
0.0
  0
LINE
  5
14300
330
747D
100
AcDbEntity
  8
部品1
100
AcDbLine
 10
2499.695515348526
 20
7384.340496867903
 30
0.0
 11
2974.695515348525
 21
7384.340496867901
 31
0.0
  0
LINE
  5
14301
330
747D
100
AcDbEntity
  8
破線
  6
HIDDEN
 48
10.0
100
AcDbLine
 10
2578.195515348522
 20
7462.840496867902
 30
0.0
 11
3272.195515348518
 21
7462.840496867902
 31
0.0
  0
LINE
  5
14302
330
747D
100
AcDbEntity
  8
部品1
100
AcDbLine
 10
2527.695515348529
 20
9986.340496867899
 30
0.0
 11
2527.695515348525
 21
7412.340496867902
 31
0.0
  0
LINE
  5
14303
330
747D
100
AcDbEntity
  8
部品1
100
AcDbLine
 10
2499.695515348526
 20
10014.3404968679
 30
0.0
 11
2499.695515348526
 21
7384.340496867903
 31
0.0
  0
LINE
  5
14304
330
747D
100
AcDbEntity
  8
破線
  6
HIDDEN
 48
10.0
100
AcDbLine
 10
2578.195515348533
 20
9935.840496867903
 30
0.0
 11
2578.195515348522
 21
7462.840496867902
 31
0.0
  0
LINE
  5
14305
330
747D
100
AcDbEntity
  8
部品1
100
AcDbLine
 10
2554.695515348532
 20
9959.340496867902
 30
0.0
 11
2554.695515348522
 21
7439.340496867905
 31
0.0
  0
LINE
  5
14306
330
747D
100
AcDbEntity
  8
破線
  6
HIDDEN
 48
10.0
100
AcDbLine
 10
3272.195515348521
 20
9959.340496867907
 30
0.0
 11
3272.195515348518
 21
7439.340496867905
 31
0.0
  0
LINE
  5
14307
330
747D
100
AcDbEntity
  8
破線
  6
HIDDEN
 48
10.0
100
AcDbLine
 10
3322.195515348521
 20
9959.340496867907
 30
0.0
 11
3322.195515348518
 21
7439.340496867902
 31
0.0
  0
DIMENSION
  5
14309
330
747D
100
AcDbEntity
  8
寸法
 48
50.0
100
AcDbDimension
  2
*D6
 10
5494.695515348524
 20
10389.0529068867
 30
0.0
 11
4024.695515348525
 21
10481.06471791032
 31
0.0
 70
    32
  1
7X420=<>
 71
     5
 42
2940.0
  3
INABA_S40
100
AcDbAlignedDimension
 13
2554.695515348525
 23
10014.3404968679
 33
0.0
 14
5494.695515348524
 24
10014.3404968679
 34
0.0
100
AcDbRotatedDimension
1001
ACAD
1000
DSTYLE
1002
{
1070
    41
1040
0.5
1070
    44
1040
1.0
1070
   147
1040
0.8
1070
   271
1070
     2
1070
   272
1070
     2
1070
   289
1070
     3
1070
   340
1005
F706
1070
   343
1005
F744
1070
   344
1005
F744
1002
}
  0
DIMENSION
  5
1430A
330
747D
100
AcDbEntity
  8
寸法
 48
50.0
100
AcDbDimension
  2
*D7
 10
8599.695515348525
 20
10689.0529068867
 30
0.0
 11
5549.695515348525
 21
10781.0529068867
 31
0.0
 70
    32
 71
     5
 42
6100.0
  3
INABA_S40
100
AcDbAlignedDimension
 13
2499.695515348526
 23
10014.3404968679
 33
0.0
 14
8599.695515348525
 24
10014.3404968679
 34
0.0
100
AcDbRotatedDimension
1001
ACAD
1000
DSTYLE
1002
{
1070
    41
1040
0.5
1070
    44
1040
1.0
1070
   147
1040
0.8
1070
   271
1070
     2
1070
   272
1070
     2
1070
   289
1070
     3
1070
   340
1005
F706
1070
   343
1005
F744
1070
   344
1005
F744
1002
}
  0
LINE
  5
1430B
330
747D
100
AcDbEntity
  8
部品1
100
AcDbLine
 10
2527.695515348525
 20
7412.340496867902
 30
0.0
 11
5521.695515348525
 21
7412.340496867904
 31
0.0
  0
LINE
  5
1430C
330
747D
100
AcDbEntity
  8
部品1
100
AcDbLine
 10
2554.695515348522
 20
7439.340496867905
 30
0.0
 11
5494.695515348524
 21
7439.340496867899
 31
0.0
  0
LINE
  5
1430D
330
747D
100
AcDbEntity
  8
部品1
100
AcDbLine
 10
5549.695515348525
 20
10014.3404968679
 30
0.0
 11
2499.695515348526
 21
10014.3404968679
 31
0.0
  0
LINE
  5
1430E
330
747D
100
AcDbEntity
  8
部品1
100
AcDbLine
 10
5494.695515348524
 20
9119.340496867904
 30
0.0
 11
2554.695515348525
 21
9119.3404968679
 31
0.0
  0
LINE
  5
1430F
330
747D
100
AcDbEntity
  8
部品1
100
AcDbLine
 10
5494.695515348524
 20
8699.340496867904
 30
0.0
 11
2554.695515348525
 21
8699.3404968679
 31
0.0
  0
LINE
  5
14310
330
747D
100
AcDbEntity
  8
部品1
100
AcDbLine
 10
5494.695515348524
 20
8279.340496867904
 30
0.0
 11
2554.695515348525
 21
8279.3404968679
 31
0.0
  0
LINE
  5
14311
330
747D
100
AcDbEntity
  8
部品1
100
AcDbLine
 10
5494.695515348524
 20
7859.340496867904
 30
0.0
 11
2554.695515348525
 21
7859.340496867901
 31
0.0
  0
LINE
  5
14312
330
747D
100
AcDbEntity
  8
部品1
100
AcDbLine
 10
3394.695515348525
 20
9986.34049686791
 30
0.0
 11
2527.695515348525
 21
9986.340496867905
 31
0.0
  0
LINE
  5
14313
330
747D
100
AcDbEntity
  8
部品1
100
AcDbLine
 10
2554.695515348522
 20
9959.340496867904
 30
0.0
 11
5494.695515348524
 21
9959.340496867909
 31
0.0
  0
LINE
  5
14314
330
747D
100
AcDbEntity
  8
破線
  6
HIDDEN
 48
10.0
100
AcDbLine
 10
3322.195515348518
 20
7462.840496867902
 30
0.0
 11
3999.695515348518
 21
7462.840496867902
 31
0.0
  0
LINE
  5
14315
330
747D
100
AcDbEntity
  8
破線
  6
HIDDEN
 48
10.0
100
AcDbLine
 10
3322.195515348521
 20
9935.840496867903
 30
0.0
 11
3999.695515348522
 21
9935.840496867903
 31
0.0
  0
LINE
  5
14316
330
747D
100
AcDbEntity
  8
部品1
100
AcDbLine
 10
8599.695515348525
 20
4522.11280590326
 30
0.0
 11
8599.695515348525
 21
2188.112805903256
 31
0.0
  0
LINE
  5
14317
330
747D
100
AcDbEntity
  8
部品1
100
AcDbLine
 10
8544.695515348525
 20
4428.112805903256
 30
0.0
 11
8544.695515348525
 21
2338.112805903256
 31
0.0
  0
LINE
  5
14318
330
747D
100
AcDbEntity
  8
部品1
100
AcDbLine
 10
6444.695515348525
 20
4428.112805903256
 30
0.0
 11
6444.695515348525
 21
2338.112805903256
 31
0.0
  0
LINE
  5
14319
330
747D
100
AcDbEntity
  8
部品1
100
AcDbLine
 10
6864.695515348525
 20
4428.112805903256
 30
0.0
 11
6864.695515348525
 21
2338.112805903256
 31
0.0
  0
LINE
  5
1431A
330
747D
100
AcDbEntity
  8
部品1
100
AcDbLine
 10
7284.695515348539
 20
4428.112805903256
 30
0.0
 11
7284.695515348537
 21
2338.112805903256
 31
0.0
  0
LINE
  5
1431B
330
747D
100
AcDbEntity
  8
部品1
100
AcDbLine
 10
7704.695515348539
 20
4428.112805903256
 30
0.0
 11
7704.695515348536
 21
2338.112805903256
 31
0.0
  0
LINE
  5
1431C
330
747D
100
AcDbEntity
  8
部品1
100
AcDbLine
 10
8124.695515348539
 20
4428.112805903256
 30
0.0
 11
8124.695515348536
 21
2338.112805903256
 31
0.0
  0
LINE
  5
1431D
330
747D
100
AcDbEntity
  8
部品1
100
AcDbLine
 10
5549.695515348525
 20
4428.112805903256
 30
0.0
 11
5549.695515348525
 21
4522.112805903261
 31
0.0
  0
LINE
  5
1431E
330
747D
100
AcDbEntity
  8
部品1
100
AcDbLine
 10
5539.695515348525
 20
4522.112805903261
 30
0.0
 11
5539.695515348522
 21
4663.112805903258
 31
0.0
  0
LINE
  5
1431F
330
747D
100
AcDbEntity
  8
部品1
100
AcDbLine
 10
5549.695515348525
 20
2338.112805903256
 30
0.0
 11
5549.695515348525
 21
2288.112805903256
 31
0.0
  0
LINE
  5
14320
330
747D
100
AcDbEntity
  8
部品1
 48
50.0
100
AcDbLine
 10
5549.695515348525
 20
2338.112805903256
 30
0.0
 11
5101.695515348525
 21
2338.112805903256
 31
0.0
  0
LINE
  5
14321
330
747D
100
AcDbEntity
  8
部品1
100
AcDbLine
 10
5494.695515348524
 20
4428.112805903256
 30
0.0
 11
5494.695515348524
 21
2338.112805903256
 31
0.0
  0
LINE
  5
14322
330
747D
100
AcDbEntity
  8
部品1
100
AcDbLine
 10
6024.695515348525
 20
4428.112805903256
 30
0.0
 11
6024.695515348525
 21
2338.112805903256
 31
0.0
  0
LINE
  5
14323
330
747D
100
AcDbEntity
  8
部品1
100
AcDbLine
 10
5604.695515348525
 20
4428.112805903256
 30
0.0
 11
5604.695515348525
 21
2338.112805903256
 31
0.0
  0
LINE
  5
14324
330
747D
100
AcDbEntity
  8
部品1
 48
50.0
100
AcDbLine
 10
5549.695515348525
 20
2338.112805903256
 30
0.0
 11
8599.695515348525
 21
2338.112805903256
 31
0.0
  0
LINE
  5
14325
330
747D
100
AcDbEntity
  8
部品1
 48
50.0
100
AcDbLine
 10
2947.695515348525
 20
2338.112805903256
 30
0.0
 11
2499.695515348526
 21
2338.112805903256
 31
0.0
  0
LINE
  5
14326
330
747D
100
AcDbEntity
  8
部品1
100
AcDbLine
 10
1584.280866300971
 20
2188.112805903256
 30
0.0
 11
1524.280866300971
 21
2292.035854357388
 31
0.0
  0
LINE
  5
14327
330
747D
100
AcDbEntity
  8
部品1
100
AcDbLine
 10
1644.280866300971
 20
2292.035854357388
 30
0.0
 11
1584.280866300971
 21
2188.112805903256
 31
0.0
  0
LINE
  5
14328
330
747D
100
AcDbEntity
  8
部品1
100
AcDbLine
 10
1524.280866300971
 20
2292.035854357388
 30
0.0
 11
1644.280866300971
 21
2292.035854357388
 31
0.0
  0
TEXT
  5
14329
330
747D
100
AcDbEntity
  8
部品1
100
AcDbText
 10
1666.764820000789
 20
2202.954510774245
 30
0.0
 40
125.0
  1
G.L
  7
MSGOTHIC
100
AcDbText
  0
LINE
  5
1432A
330
747D
100
AcDbEntity
  8
部品1
100
AcDbLine
 10
2499.695515348526
 20
4522.112805903261
 30
0.0
 11
2499.695515348526
 21
2188.112805903256
 31
0.0
  0
LINE
  5
1432B
330
747D
100
AcDbEntity
  8
部品1
100
AcDbLine
 10
2554.695515348525
 20
4428.112805903256
 30
0.0
 11
2554.695515348525
 21
2338.112805903256
 31
0.0
  0
LINE
  5
1432C
330
747D
100
AcDbEntity
  8
部品1
100
AcDbLine
 10
2499.695515348526
 20
2288.112805903256
 30
0.0
 11
8599.695515348525
 21
2288.112805903256
 31
0.0
  0
LINE
  5
1432D
330
747D
100
AcDbEntity
  8
部品1
100
AcDbLine
 10
2499.695515348526
 20
4428.112805903256
 30
0.0
 11
8599.695515348525
 21
4428.112805903256
 31
0.0
  0
LINE
  5
1432E
330
747D
100
AcDbEntity
  8
Ｇ．Ｌ
 48
50.0
100
AcDbLine
 10
1235.828128122382
 20
2188.112805903256
 30
0.0
 11
15186.26680742205
 21
2188.112805903256
 31
0.0
  0
DIMENSION
  5
1432F
330
747D
100
AcDbEntity
  8
寸法
 48
50.0
100
AcDbDimension
  2
*D8
 10
9370.44263239288
 20
9959.340496867907
 30
0.0
 11
9370.442632392878
 21
10408.50716353457
 31
0.0
 70
   160
 71
     5
 42
54.99999999999636
  3
INABA_S40
100
AcDbAlignedDimension
 13
8599.695515348525
 23
10014.3404968679
 33
0.0
 14
8599.695515348525
 24
9959.340496867907
 34
0.0
 50
90.0
100
AcDbRotatedDimension
1001
ACAD
1000
DSTYLE
1002
{
1070
    41
1040
0.5
1070
    44
1040
1.0
1070
   147
1040
0.8
1070
   271
1070
     2
1070
   272
1070
     2
1070
   289
1070
     3
1070
   340
1005
F706
1070
   343
1005
F744
1070
   344
1005
F744
1002
}
  0
DIMENSION
  5
14330
330
747D
100
AcDbEntity
  8
寸法
 48
50.0
100
AcDbDimension
  2
*D9
 10
9370.442632392878
 20
7439.340496867899
 30
0.0
 11
9278.430821369255
 21
8699.340496867904
 31
0.0
 70
    32
  1
6X420=<>
 71
     5
 42
2520.000000000008
  3
INABA_S40
100
AcDbAlignedDimension
 13
8599.695515348525
 23
9959.340496867907
 33
0.0
 14
8599.695515348525
 24
7439.340496867899
 34
0.0
 50
90.0
100
AcDbRotatedDimension
1001
ACAD
1000
DSTYLE
1002
{
1070
    41
1040
0.5
1070
    44
1040
1.0
1070
   147
1040
0.8
1070
   271
1070
     2
1070
   272
1070
     2
1070
   289
1070
     3
1070
   340
1005
F706
1070
   343
1005
F744
1070
   344
1005
F744
1002
}
  0
DIMENSION
  5
14331
330
747D
100
AcDbEntity
  8
寸法
 48
50.0
100
AcDbDimension
  2
*D10
 10
9370.44263239288
 20
7384.340496867903
 30
0.0
 11
9370.442632392878
 21
6990.173830201236
 31
0.0
 70
   160
 71
     5
 42
54.99999999999636
  3
INABA_S40
100
AcDbAlignedDimension
 13
8599.695515348525
 23
7439.340496867899
 33
0.0
 14
8599.695515348525
 24
7384.340496867903
 34
0.0
 50
90.0
100
AcDbRotatedDimension
1001
ACAD
1000
DSTYLE
1002
{
1070
    41
1040
0.5
1070
    44
1040
1.0
1070
   147
1040
0.8
1070
   271
1070
     2
1070
   272
1070
     2
1070
   289
1070
     3
1070
   340
1005
F706
1070
   343
1005
F744
1070
   344
1005
F744
1002
}
  0
DIMENSION
  5
14332
330
747D
100
AcDbEntity
  8
寸法
 48
50.0
100
AcDbDimension
  2
*D11
 10
9670.442632392878
 20
7384.340496867903
 30
0.0
 11
9578.430821369256
 21
8699.340496867904
 31
0.0
 70
    32
 71
     5
 42
2630.0
  3
INABA_S40
100
AcDbAlignedDimension
 13
8599.695515348525
 23
10014.3404968679
 33
0.0
 14
8599.695515348525
 24
7384.340496867903
 34
0.0
 50
90.0
100
AcDbRotatedDimension
1001
ACAD
1000
DSTYLE
1002
{
1070
    41
1040
0.5
1070
    44
1040
1.0
1070
   147
1040
0.8
1070
   271
1070
     2
1070
   272
1070
     2
1070
   289
1070
     3
1070
   340
1005
F706
1070
   343
1005
F744
1070
   344
1005
F744
1002
}
  0
DIMENSION
  5
14333
330
747D
100
AcDbEntity
  8
寸法
 48
50.0
100
AcDbDimension
  2
*D12
 10
8599.695515348525
 20
10389.0529068867
 30
0.0
 11
8993.86218201519
 21
10389.0529068867
 31
0.0
 70
   160
 71
     5
 42
55.0
  3
INABA_S40
100
AcDbAlignedDimension
 13
8544.695515348525
 23
10014.3404968679
 33
0.0
 14
8599.695515348525
 24
10014.3404968679
 34
0.0
100
AcDbRotatedDimension
1001
ACAD
1000
DSTYLE
1002
{
1070
    41
1040
0.5
1070
    44
1040
1.0
1070
   147
1040
0.8
1070
   271
1070
     2
1070
   272
1070
     2
1070
   289
1070
     3
1070
   340
1005
F706
1070
   343
1005
F744
1070
   344
1005
F744
1002
}
  0
LINE
  5
14724
330
747D
100
AcDbEntity
  8
部品1
100
AcDbLine
 10
5494.695515348524
 20
9539.340496867907
 30
0.0
 11
2554.695515348525
 21
9539.340496867906
 31
0.0
  0
LINE
  5
14725
330
747D
100
AcDbEntity
  8
部品1
100
AcDbLine
 10
2527.695515348525
 20
9539.340496867909
 30
0.0
 11
2499.695515348526
 21
9539.340496867909
 31
0.0
  0
LINE
  5
14726
330
747D
100
AcDbEntity
  8
部品1
100
AcDbLine
 10
5604.695515348525
 20
9539.340496867907
 30
0.0
 11
8544.695515348525
 21
9539.340496867907
 31
0.0
  0
LINE
  5
14727
330
747D
100
AcDbEntity
  8
部品1
100
AcDbLine
 10
8571.695515348526
 20
9539.340496867909
 30
0.0
 11
8599.695515348525
 21
9539.340496867909
 31
0.0
  0
LINE
  5
14944
330
747D
100
AcDbEntity
  8
部品1
100
AcDbLine
 10
11405.09527819153
 20
4413.799910811658
 30
0.0
 11
11482.09527819153
 21
4428.112805903256
 31
0.0
  0
LINE
  5
14945
330
747D
100
AcDbEntity
  8
部品1
100
AcDbLine
 10
11482.09527819153
 20
2288.112805903256
 30
0.0
 11
11405.09527819153
 21
2288.112805903256
 31
0.0
  0
DIMENSION
  5
14946
330
747D
100
AcDbEntity
  8
寸法
 48
50.0
100
AcDbDimension
  2
*D17
 10
10937.18663679428
 20
2354.112805903257
 30
0.0
 11
10845.17482577066
 21
3366.612805903259
 31
0.0
 70
    32
  1
有効開口部高サ<>
 71
     5
 42
2025.0
  3
INABA_S40
100
AcDbAlignedDimension
 13
11405.09527819153
 23
4379.112805903257
 33
0.0
 14
11405.09527819153
 24
2354.112805903256
 34
0.0
 50
90.0
100
AcDbRotatedDimension
1001
ACAD
1000
DSTYLE
1002
{
1070
    41
1040
0.5
1070
    44
1040
1.0
1070
   147
1040
0.8
1070
   271
1070
     2
1070
   272
1070
     2
1070
   289
1070
     3
1070
   340
1005
F706
1070
   343
1005
F744
1070
   344
1005
F744
1002
}
  0
LINE
  5
14947
330
747D
100
AcDbEntity
  8
部品1
100
AcDbLine
 10
11405.09527819153
 20
4413.799910811658
 30
0.0
 11
11405.09527819153
 21
2188.112805903256
 31
0.0
  0
DIMENSION
  5
14948
330
747D
100
AcDbEntity
  8
寸法
100
AcDbDimension
  2
*D18
 10
10638.34514900827
 20
2338.112805903252
 30
0.0
 11
10538.33333798465
 21
3383.112805903254
 31
0.0
 70
    32
 71
     5
 42
2090.000000000001
  3
INABA_S40G
100
AcDbAlignedDimension
 13
11482.09527819153
 23
4428.112805903253
 33
0.0
 14
11482.09527819153
 24
2338.112805903252
 34
0.0
 50
90.0
100
AcDbRotatedDimension
1001
ACAD
1000
DSTYLE
1002
{
1070
   174
1070
     0
1070
   272
1070
     1
1070
   288
1070
     0
1070
   341
1005
0
1002
}
  0
DIMENSION
  5
14949
330
747D
100
AcDbEntity
  8
寸法
100
AcDbDimension
  2
*D19
 10
10338.34514900827
 20
4663.112805903256
 30
0.0
 11
10238.33333798465
 21
3475.612805903259
 31
0.0
 70
    32
 71
     5
 42
2375.0
  3
INABA_S40G
100
AcDbAlignedDimension
 13
11405.09527819153
 23
2288.112805903256
 33
0.0
 14
11422.09527819153
 24
4663.112805903256
 34
0.0
 50
90.0
100
AcDbRotatedDimension
1001
ACAD
1000
DSTYLE
1002
{
1070
   174
1070
     0
1070
   272
1070
     1
1070
   288
1070
     0
1070
   341
1005
0
1002
}
  0
DIMENSION
  5
1494A
330
747D
100
AcDbEntity
  8
寸法
100
AcDbDimension
  2
*D20
 10
14817.02243616366
 20
4608.112805903256
 30
0.0
 11
14717.01062514004
 21
3448.112805903259
 31
0.0
 70
    32
 71
     5
 42
2320.0
  3
INABA_S40G
100
AcDbAlignedDimension
 13
14112.09527819154
 23
2288.112805903257
 33
0.0
 14
14192.09527819153
 24
4608.112805903257
 34
0.0
 50
90.0
100
AcDbRotatedDimension
1001
ACAD
1000
DSTYLE
1002
{
1070
   174
1070
     0
1070
   272
1070
     1
1070
   288
1070
     0
1070
   341
1005
0
1002
}
  0
LINE
  5
1494B
330
747D
100
AcDbEntity
  8
細線
 48
50.0
100
AcDbLine
 10
13559.59527819153
 20
4428.112805903256
 30
0.0
 11
13559.59527819154
 21
2338.112805903258
 31
0.0
  0
LINE
  5
1494C
330
747D
100
AcDbEntity
  8
細線
 48
50.0
100
AcDbLine
 10
13574.59527819153
 20
4428.112805903256
 30
0.0
 11
13574.59527819154
 21
2338.112805903258
 31
0.0
  0
LINE
  5
1494D
330
747D
100
AcDbEntity
  8
細線
 48
50.0
100
AcDbLine
 10
13434.59527819153
 20
4428.112805903256
 30
0.0
 11
13434.59527819154
 21
2338.112805903258
 31
0.0
  0
LINE
  5
1494E
330
747D
100
AcDbEntity
  8
細線
 48
50.0
100
AcDbLine
 10
13419.59527819153
 20
4428.112805903256
 30
0.0
 11
13419.59527819154
 21
2338.112805903258
 31
0.0
  0
LINE
  5
1494F
330
747D
100
AcDbEntity
  8
細線
 48
50.0
100
AcDbLine
 10
13279.59527819153
 20
4428.112805903256
 30
0.0
 11
13279.59527819154
 21
2338.112805903258
 31
0.0
  0
LINE
  5
14950
330
747D
100
AcDbEntity
  8
細線
 48
50.0
100
AcDbLine
 10
13294.59527819153
 20
4428.112805903256
 30
0.0
 11
13294.59527819154
 21
2338.112805903258
 31
0.0
  0
LINE
  5
14951
330
747D
100
AcDbEntity
  8
部品1
100
AcDbLine
 10
13217.09527819153
 20
4428.112805903256
 30
0.0
 11
13217.09527819153
 21
2338.112805903258
 31
0.0
  0
LINE
  5
14952
330
747D
100
AcDbEntity
  8
部品1
100
AcDbLine
 10
12657.32040862077
 20
4788.317193866275
 30
0.0
 11
12982.77542226381
 21
4770.799134907413
 31
0.0
  0
ARC
  5
14953
330
747D
100
AcDbEntity
  8
部品1
100
AcDbCircle
 10
14177.72281400548
 20
4502.13656316905
 30
0.0
 40
0.7
100
AcDbArc
 50
275.0921697642102
 51
354.1866997667087
  0
ARC
  5
14954
330
747D
100
AcDbEntity
  8
部品1
100
AcDbCircle
 10
14188.58215975479
 20
4579.179817986973
 30
0.0
 40
0.7
100
AcDbArc
 50
275.0921697642102
 51
354.1866997665532
  0
ARC
  5
14955
330
747D
100
AcDbEntity
  8
部品1
100
AcDbCircle
 10
14188.9105649974
 20
4575.494421129883
 30
0.0
 40
3.0
100
AcDbArc
 50
95.0921697642102
 51
174.1866997665532
  0
ARC
  5
14956
330
747D
100
AcDbEntity
  8
部品1
100
AcDbCircle
 10
14178.05121924807
 20
4498.451166311959
 30
0.0
 40
3.0
100
AcDbArc
 50
95.0921697642102
 51
174.1866997665532
  0
ARC
  5
14957
330
747D
100
AcDbEntity
  8
部品1
 48
50.0
100
AcDbCircle
 10
14167.02308397297
 20
4488.860421708078
 30
0.0
 40
7.0
100
AcDbArc
 50
267.8377559869492
 51
354.1866997665532
  0
ARC
  5
14958
330
747D
100
AcDbEntity
  8
部品1
 48
50.0
100
AcDbCircle
 10
14184.34518043748
 20
4599.76296885025
 30
0.0
 40
7.0
100
AcDbArc
 50
354.1866997665532
 51
87.03587545283093
  0
LINE
  5
14959
330
747D
100
AcDbEntity
  8
部品1
 48
50.0
100
AcDbLine
 10
14175.06664757746
 20
4498.755028028862
 30
0.0
 11
14173.98708453772
 21
4488.151411035303
 31
0.0
  0
LINE
  5
1495A
330
747D
100
AcDbEntity
  8
部品1
 48
50.0
100
AcDbLine
 10
14185.92599332679
 20
4575.798282846786
 30
0.0
 11
14178.41921406195
 21
4502.065662101774
 31
0.0
  0
LINE
  5
1495B
330
747D
100
AcDbEntity
  8
部品1
 48
50.0
100
AcDbLine
 10
14191.30918100224
 20
4599.053958177475
 30
0.0
 11
14189.27855981127
 21
4579.108916919696
 31
0.0
  0
ARC
  5
1495C
330
747D
100
AcDbEntity
  8
部品1
100
AcDbCircle
 10
11428.1323700629
 20
4541.92696486216
 30
0.0
 40
0.7
100
AcDbArc
 50
181.0932240292635
 51
260.1877540314845
  0
ARC
  5
1495D
330
747D
100
AcDbEntity
  8
部品1
100
AcDbCircle
 10
11423.35969646529
 20
4634.79274306228
 30
0.0
 40
0.7
100
AcDbArc
 50
181.0932240292114
 51
260.1877540314845
  0
ARC
  5
1495E
330
747D
100
AcDbEntity
  8
部品1
100
AcDbCircle
 10
11422.72914206227
 20
4631.146868524882
 30
0.0
 40
3.0
100
AcDbArc
 50
1.093224029315636
 51
80.18775403169875
  0
ARC
  5
1495F
330
747D
100
AcDbEntity
  8
部品1
100
AcDbCircle
 10
11427.50181565987
 20
4538.281090324763
 30
0.0
 40
3.0
100
AcDbArc
 50
1.093224029315636
 51
80.18775403169875
  0
ARC
  5
14960
330
747D
100
AcDbEntity
  8
部品1
 48
50.0
100
AcDbCircle
 10
11437.70194803507
 20
4527.888846942281
 30
0.0
 40
7.0
100
AcDbArc
 50
181.0932240293156
 51
267.8377559869492
  0
ARC
  5
14961
330
747D
100
AcDbEntity
  8
部品1
 48
50.0
100
AcDbCircle
 10
11429.27828993298
 20
4654.839906475376
 30
0.0
 40
7.0
100
AcDbArc
 50
87.03587545283093
 51
181.0932240293156
  0
LINE
  5
14962
330
747D
100
AcDbEntity
  8
部品1
 48
50.0
100
AcDbLine
 10
11430.5012695863
 20
4538.338327927946
 30
0.0
 11
11430.70322220673
 21
4527.755292534854
 31
0.0
  0
LINE
  5
14963
330
747D
100
AcDbEntity
  8
細線
 48
50.0
100
AcDbLine
 10
11427.89517652963
 20
4541.268376046754
 30
0.0
 11
14177.89884096027
 21
4501.459057072261
 31
0.0
  0
LINE
  5
14964
330
747D
100
AcDbEntity
  8
細線
 48
50.0
100
AcDbLine
 10
11423.13470129235
 20
4634.129887744617
 30
0.0
 11
14188.77068603752
 21
4578.50568310379
 31
0.0
  0
LINE
  5
14965
330
747D
100
AcDbEntity
  8
部品1
 48
50.0
100
AcDbLine
 10
11425.7285959887
 20
4631.204106128065
 30
0.0
 11
11427.43249748006
 21
4541.913609421418
 31
0.0
  0
LINE
  5
14966
330
747D
100
AcDbEntity
  8
部品1
 48
50.0
100
AcDbLine
 10
11422.27956410464
 20
4654.706352067949
 30
0.0
 11
11422.65982388245
 21
4634.779387621537
 31
0.0
  0
LINE
  5
14967
330
747D
100
AcDbEntity
  8
細線
 48
50.0
100
AcDbLine
 10
14159.06456138523
 20
4607.266228382726
 30
0.0
 11
14154.34759530354
 21
4482.334012447809
 31
0.0
  0
LINE
  5
14968
330
747D
100
AcDbEntity
  8
細線
 48
50.0
100
AcDbLine
 10
11455.09527819153
 20
4660.512482278661
 30
0.0
 11
11449.80617663603
 21
4520.426849651307
 31
0.0
  0
LINE
  5
14969
330
747D
100
AcDbEntity
  8
部品1
100
AcDbLine
 10
11437.43784279348
 20
4520.893830972223
 30
0.0
 11
14166.75897873138
 21
4481.865405738018
 31
0.0
  0
LINE
  5
1496A
330
747D
100
AcDbEntity
  8
部品1
100
AcDbLine
 10
11429.64026454849
 20
4661.830541237523
 30
0.0
 11
14184.707155053
 21
4606.753603612395
 31
0.0
  0
LINE
  5
1496B
330
747D
100
AcDbEntity
  8
部品1
 48
50.0
100
AcDbLine
 10
12682.77542226381
 20
4786.999134907413
 30
0.0
 11
12982.77542226381
 21
4786.999134907413
 31
0.0
  0
LINE
  5
1496C
330
747D
100
AcDbEntity
  8
部品1
 48
50.0
100
AcDbLine
 10
12982.77542226381
 20
4786.999134907413
 30
0.0
 11
12982.77542226381
 21
4770.799134907413
 31
0.0
  0
TEXT
  5
1496D
330
747D
100
AcDbEntity
  8
部品1
 48
50.0
100
AcDbText
 10
12671.04325748754
 20
4822.883157059846
 30
0.0
 40
120.0
  1
1000
  7
STYLE1
100
AcDbText
  0
TEXT
  5
1496E
330
747D
100
AcDbEntity
  8
部品1
 48
50.0
100
AcDbText
 10
13148.67628015263
 20
4685.381898841563
 30
0.0
 40
120.0
  1
37
 50
90.0
  7
STYLE1
100
AcDbText
  0
LINE
  5
1496F
330
747D
100
AcDbEntity
  8
細線
 48
50.0
100
AcDbLine
 10
12874.59527819153
 20
4428.112805903256
 30
0.0
 11
12874.59527819154
 21
2338.112805903256
 31
0.0
  0
LINE
  5
14970
330
747D
100
AcDbEntity
  8
細線
 48
50.0
100
AcDbLine
 10
12859.59527819153
 20
4428.112805903256
 30
0.0
 11
12859.59527819154
 21
2338.112805903256
 31
0.0
  0
LINE
  5
14971
330
747D
100
AcDbEntity
  8
細線
 48
50.0
100
AcDbLine
 10
12999.59527819153
 20
4428.112805903256
 30
0.0
 11
12999.59527819154
 21
2338.112805903256
 31
0.0
  0
LINE
  5
14972
330
747D
100
AcDbEntity
  8
細線
 48
50.0
100
AcDbLine
 10
13014.59527819153
 20
4428.112805903256
 30
0.0
 11
13014.59527819154
 21
2338.112805903256
 31
0.0
  0
LINE
  5
14973
330
747D
100
AcDbEntity
  8
細線
 48
50.0
100
AcDbLine
 10
13154.59527819153
 20
4428.112805903256
 30
0.0
 11
13154.59527819154
 21
2338.112805903256
 31
0.0
  0
LINE
  5
14974
330
747D
100
AcDbEntity
  8
細線
 48
50.0
100
AcDbLine
 10
13139.59527819153
 20
4428.112805903256
 30
0.0
 11
13139.59527819154
 21
2338.112805903256
 31
0.0
  0
LINE
  5
14975
330
747D
100
AcDbEntity
  8
部品1
100
AcDbLine
 10
13637.09527819153
 20
4428.112805903256
 30
0.0
 11
13637.09527819153
 21
2338.112805903257
 31
0.0
  0
LINE
  5
14976
330
747D
100
AcDbEntity
  8
部品1
100
AcDbLine
 10
11482.09527819153
 20
4428.112805903256
 30
0.0
 11
14112.09527819153
 21
4428.112805903256
 31
0.0
  0
LINE
  5
14977
330
747D
100
AcDbEntity
  8
部品1
100
AcDbLine
 10
11482.09527819153
 20
2338.112805903256
 30
0.0
 11
14112.09527819154
 21
2338.112805903257
 31
0.0
  0
LINE
  5
14978
330
747D
100
AcDbEntity
  8
部品1
100
AcDbLine
 10
11537.09527819153
 20
4428.112805903256
 30
0.0
 11
11537.09527819153
 21
2338.112805903256
 31
0.0
  0
LINE
  5
14979
330
747D
100
AcDbEntity
  8
部品1
100
AcDbLine
 10
11482.09527819153
 20
4520.255243832134
 30
0.0
 11
11482.09527819153
 21
2188.112805903256
 31
0.0
  0
DIMENSION
  5
1497A
330
747D
100
AcDbEntity
  8
寸法
100
AcDbDimension
  2
*D21
 10
10638.34514900827
 20
2288.112805903256
 30
0.0
 11
10638.34514900827
 21
1982.065561808767
 31
0.0
 70
   160
 71
     5
 42
50.0
  3
INABA_S40G
100
AcDbAlignedDimension
 13
11482.09527819153
 23
2338.112805903256
 33
0.0
 14
11405.09527819153
 24
2288.112805903256
 34
0.0
 50
90.0
100
AcDbRotatedDimension
1001
ACAD
1000
DSTYLE
1002
{
1070
   174
1070
     0
1070
   272
1070
     1
1070
   288
1070
     0
1070
   341
1005
0
1002
}
  0
LINE
  5
1497B
330
747D
100
AcDbEntity
  8
部品1
100
AcDbLine
 10
11957.09527819153
 20
4428.112805903256
 30
0.0
 11
11957.09527819153
 21
2338.112805903256
 31
0.0
  0
LINE
  5
1497C
330
747D
100
AcDbEntity
  8
部品1
100
AcDbLine
 10
14112.09527819153
 20
4482.647079290995
 30
0.0
 11
14112.09527819154
 21
2188.112805903257
 31
0.0
  0
LINE
  5
1497D
330
747D
100
AcDbEntity
  8
部品1
100
AcDbLine
 10
14057.09527819153
 20
4428.112805903256
 30
0.0
 11
14057.09527819154
 21
2338.112805903257
 31
0.0
  0
DIMENSION
  5
1497E
330
747D
100
AcDbEntity
  8
寸法
 48
50.0
100
AcDbDimension
  2
*D22
 10
11482.09527819153
 20
5061.770259482561
 30
0.0
 11
12836.86546922073
 21
5061.770259482561
 31
0.0
 70
   160
  1
柱外寸法<>
 71
     5
 42
2630.0
  3
INABA_S40G
100
AcDbAlignedDimension
 13
14112.09527819153
 23
4609.923485514911
 33
0.0
 14
11482.09527819153
 24
4659.114424026233
 34
0.0
100
AcDbRotatedDimension
1001
ACAD
1000
DSTYLE
1002
{
1070
   174
1070
     0
1070
   272
1070
     1
1070
   288
1070
     0
1070
   341
1005
0
1002
}
  0
DIMENSION
  5
1497F
330
747D
100
AcDbEntity
  8
寸法
 48
50.0
100
AcDbDimension
  2
*D23
 10
11422.09527819153
 20
5061.77025948256
 30
0.0
 11
11112.45748291594
 21
5061.77025948256
 31
0.0
 70
   160
 71
     5
 42
60.0
  3
INABA_S40G
100
AcDbAlignedDimension
 13
11482.09527819153
 23
4659.114424026233
 33
0.0
 14
11422.09527819153
 24
4663.112805903261
 34
0.0
100
AcDbRotatedDimension
1001
ACAD
1000
DSTYLE
1002
{
1070
   174
1070
     0
1070
   272
1070
     1
1070
   288
1070
     0
1070
   341
1005
0
1002
}
  0
DIMENSION
  5
14980
330
747D
100
AcDbEntity
  8
寸法
 48
50.0
100
AcDbDimension
  2
*D24
 10
11422.09527819153
 20
5281.980946214178
 30
0.0
 11
12825.45420307891
 21
5281.980946214178
 31
0.0
 70
   160
 71
     5
 42
2770.0
  3
INABA_S40G
100
AcDbAlignedDimension
 13
14192.09527819153
 23
4608.112805903258
 33
0.0
 14
11422.09527819153
 24
4663.112805903261
 34
0.0
100
AcDbRotatedDimension
1001
ACAD
1000
DSTYLE
1002
{
1070
   174
1070
     0
1070
   272
1070
     1
1070
   288
1070
     0
1070
   341
1005
0
1002
}
  0
LINE
  5
14981
330
747D
100
AcDbEntity
  8
部品1
100
AcDbLine
 10
11482.09527819153
 20
2288.112805903256
 30
0.0
 11
14112.09527819154
 21
2288.112805903256
 31
0.0
  0
LINE
  5
14984
330
747D
100
AcDbEntity
  8
細線
 48
50.0
100
AcDbLine
 10
12034.59527819153
 20
4428.112805903256
 30
0.0
 11
12034.59527819153
 21
2338.112805903256
 31
0.0
  0
LINE
  5
14985
330
747D
100
AcDbEntity
  8
細線
 48
50.0
100
AcDbLine
 10
12019.59527819153
 20
4428.112805903256
 30
0.0
 11
12019.59527819153
 21
2338.112805903256
 31
0.0
  0
LINE
  5
14986
330
747D
100
AcDbEntity
  8
細線
 48
50.0
100
AcDbLine
 10
12159.59527819153
 20
4428.112805903256
 30
0.0
 11
12159.59527819153
 21
2338.112805903256
 31
0.0
  0
LINE
  5
14987
330
747D
100
AcDbEntity
  8
細線
 48
50.0
100
AcDbLine
 10
12174.59527819153
 20
4428.112805903256
 30
0.0
 11
12174.59527819153
 21
2338.112805903256
 31
0.0
  0
LINE
  5
14988
330
747D
100
AcDbEntity
  8
細線
 48
50.0
100
AcDbLine
 10
12314.59527819153
 20
4428.112805903256
 30
0.0
 11
12314.59527819153
 21
2338.112805903256
 31
0.0
  0
LINE
  5
14989
330
747D
100
AcDbEntity
  8
細線
 48
50.0
100
AcDbLine
 10
12299.59527819153
 20
4428.112805903256
 30
0.0
 11
12299.59527819153
 21
2338.112805903256
 31
0.0
  0
LINE
  5
1498A
330
747D
100
AcDbEntity
  8
細線
 48
50.0
100
AcDbLine
 10
11879.59527819153
 20
4428.112805903256
 30
0.0
 11
11879.59527819153
 21
2338.112805903256
 31
0.0
  0
LINE
  5
1498B
330
747D
100
AcDbEntity
  8
細線
 48
50.0
100
AcDbLine
 10
11894.59527819153
 20
4428.112805903256
 30
0.0
 11
11894.59527819153
 21
2338.112805903256
 31
0.0
  0
LINE
  5
1498C
330
747D
100
AcDbEntity
  8
細線
 48
50.0
100
AcDbLine
 10
11754.59527819153
 20
4428.112805903256
 30
0.0
 11
11754.59527819153
 21
2338.112805903256
 31
0.0
  0
LINE
  5
1498D
330
747D
100
AcDbEntity
  8
細線
 48
50.0
100
AcDbLine
 10
11739.59527819153
 20
4428.112805903256
 30
0.0
 11
11739.59527819153
 21
2338.112805903256
 31
0.0
  0
LINE
  5
1498E
330
747D
100
AcDbEntity
  8
細線
 48
50.0
100
AcDbLine
 10
11599.59527819153
 20
4428.112805903256
 30
0.0
 11
11599.59527819153
 21
2338.112805903256
 31
0.0
  0
LINE
  5
1498F
330
747D
100
AcDbEntity
  8
細線
 48
50.0
100
AcDbLine
 10
11614.59527819153
 20
4428.112805903256
 30
0.0
 11
11614.59527819153
 21
2338.112805903256
 31
0.0
  0
DIMENSION
  5
14990
330
747D
100
AcDbEntity
  8
寸法
 48
50.0
100
AcDbDimension
  2
*D25
 10
14192.09527819153
 20
5061.770259482561
 30
0.0
 11
14398.14252228602
 21
5061.770259482561
 31
0.0
 70
   160
 71
     5
 42
80.0
  3
INABA_S40G
100
AcDbAlignedDimension
 13
14112.09527819153
 23
4609.923485514911
 33
0.0
 14
14192.09527819153
 24
4608.112805903258
 34
0.0
100
AcDbRotatedDimension
1001
ACAD
1000
DSTYLE
1002
{
1070
   174
1070
     0
1070
   272
1070
     1
1070
   288
1070
     0
1070
   341
1005
0
1002
}
  0
LINE
  5
14991
330
747D
100
AcDbEntity
  8
部品1
100
AcDbLine
 10
12377.09527819153
 20
4428.112805903256
 30
0.0
 11
12377.09527819153
 21
2338.112805903256
 31
0.0
  0
LINE
  5
14992
330
747D
100
AcDbEntity
  8
細線
 48
50.0
100
AcDbLine
 10
12719.59527819153
 20
4428.112805903256
 30
0.0
 11
12719.59527819154
 21
2338.112805903256
 31
0.0
  0
LINE
  5
14993
330
747D
100
AcDbEntity
  8
細線
 48
50.0
100
AcDbLine
 10
12734.59527819153
 20
4428.112805903256
 30
0.0
 11
12734.59527819154
 21
2338.112805903256
 31
0.0
  0
LINE
  5
14994
330
747D
100
AcDbEntity
  8
細線
 48
50.0
100
AcDbLine
 10
12594.59527819153
 20
4428.112805903256
 30
0.0
 11
12594.59527819154
 21
2338.112805903256
 31
0.0
  0
LINE
  5
14995
330
747D
100
AcDbEntity
  8
細線
 48
50.0
100
AcDbLine
 10
12579.59527819153
 20
4428.112805903256
 30
0.0
 11
12579.59527819154
 21
2338.112805903256
 31
0.0
  0
LINE
  5
14996
330
747D
100
AcDbEntity
  8
細線
 48
50.0
100
AcDbLine
 10
12439.59527819153
 20
4428.112805903256
 30
0.0
 11
12439.59527819154
 21
2338.112805903256
 31
0.0
  0
LINE
  5
14997
330
747D
100
AcDbEntity
  8
細線
 48
50.0
100
AcDbLine
 10
12454.59527819153
 20
4428.112805903256
 30
0.0
 11
12454.59527819154
 21
2338.112805903256
 31
0.0
  0
LINE
  5
14998
330
747D
100
AcDbEntity
  8
部品1
100
AcDbLine
 10
12797.09527819153
 20
4428.112805903256
 30
0.0
 11
12797.09527819153
 21
2338.112805903256
 31
0.0
  0
LINE
  5
14999
330
747D
100
AcDbEntity
  8
細線
 48
50.0
100
AcDbLine
 10
13714.59527819154
 20
4428.112805903256
 30
0.0
 11
13714.59527819154
 21
2338.112805903257
 31
0.0
  0
LINE
  5
1499A
330
747D
100
AcDbEntity
  8
細線
 48
50.0
100
AcDbLine
 10
13699.59527819154
 20
4428.112805903256
 30
0.0
 11
13699.59527819154
 21
2338.112805903257
 31
0.0
  0
LINE
  5
1499B
330
747D
100
AcDbEntity
  8
細線
 48
50.0
100
AcDbLine
 10
13839.59527819154
 20
4428.112805903256
 30
0.0
 11
13839.59527819154
 21
2338.112805903257
 31
0.0
  0
LINE
  5
1499C
330
747D
100
AcDbEntity
  8
細線
 48
50.0
100
AcDbLine
 10
13854.59527819154
 20
4428.112805903256
 30
0.0
 11
13854.59527819154
 21
2338.112805903257
 31
0.0
  0
LINE
  5
1499D
330
747D
100
AcDbEntity
  8
細線
 48
50.0
100
AcDbLine
 10
13994.59527819154
 20
4428.112805903256
 30
0.0
 11
13994.59527819154
 21
2338.112805903257
 31
0.0
  0
LINE
  5
1499E
330
747D
100
AcDbEntity
  8
細線
 48
50.0
100
AcDbLine
 10
13979.59527819154
 20
4428.112805903256
 30
0.0
 11
13979.59527819154
 21
2338.112805903257
 31
0.0
  0
DIMENSION
  5
1499F
330
747D
100
AcDbEntity
  8
寸法
 48
50.0
100
AcDbDimension
  2
*D26
 10
10861.48687142316
 20
4537.458064776588
 30
0.0
 11
10872.15234668209
 21
4908.304728018286
 31
0.0
 70
   161
 71
     5
 42
140.9999999999991
  3
INABA_S40G
100
AcDbAlignedDimension
 13
11441.49129835011
 23
4661.835554737936
 33
0.0
 14
11437.43784279348
 24
4520.893830972223
 34
0.0
1001
ACAD
1000
DSTYLE
1002
{
1070
   174
1070
     0
1070
   272
1070
     1
1070
   288
1070
     0
1070
   341
1005
0
1002
}
  0
LINE
  5
14E3C
330
747D
100
AcDbEntity
  8
寸法
 48
50.0
100
AcDbLine
 10
3409.898521630371
 20
7162.377248436763
 30
0.0
 11
3358.492513720268
 21
7162.377248436763
 31
0.0
  0
LINE
  5
14E3D
330
747D
100
AcDbEntity
  8
寸法
 48
50.0
100
AcDbLine
 10
3358.492513720268
 20
7162.377248436763
 30
0.0
 11
3358.492513720268
 21
7193.68740708893
 31
0.0
  0
LINE
  5
14E3E
330
747D
100
AcDbEntity
  8
寸法
 48
50.0
100
AcDbLine
 10
3358.492513720268
 20
7193.68740708893
 30
0.0
 11
3328.731181728844
 21
7193.68740708893
 31
0.0
  0
LINE
  5
14E3F
330
747D
100
AcDbEntity
  8
寸法
 48
50.0
100
AcDbLine
 10
3328.731181728844
 20
7193.68740708893
 30
0.0
 11
3384.195517675319
 21
7231.26685801754
 31
0.0
  0
LINE
  5
14E40
330
747D
100
AcDbEntity
  8
寸法
 48
50.0
100
AcDbLine
 10
3439.659853621794
 20
7193.68740708893
 30
0.0
 11
3384.195517675319
 21
7231.26685801754
 31
0.0
  0
LINE
  5
14E41
330
747D
100
AcDbEntity
  8
寸法
 48
50.0
100
AcDbLine
 10
3409.898521630371
 20
7193.68740708893
 30
0.0
 11
3439.659853621794
 21
7193.68740708893
 31
0.0
  0
LINE
  5
14E42
330
747D
100
AcDbEntity
  8
寸法
 48
50.0
100
AcDbLine
 10
3409.898521630371
 20
7162.377248436763
 30
0.0
 11
3409.898521630371
 21
7193.68740708893
 31
0.0
  0
LINE
  5
14E43
330
747D
100
AcDbEntity
  8
寸法
 48
50.0
100
AcDbLine
 10
3358.492513720268
 20
7162.377248436763
 30
0.0
 11
3409.898521630371
 21
7162.377248436763
 31
0.0
  0
LINE
  5
14E44
330
747D
100
AcDbEntity
  8
寸法
 48
50.0
100
AcDbLine
 10
3689.064055907228
 20
7219.522839191586
 30
0.0
 11
3689.064055907228
 21
7165.859204609796
 31
0.0
  0
LINE
  5
14E45
330
747D
100
AcDbEntity
  8
寸法
 48
50.0
100
AcDbLine
 10
3778.34827450265
 20
7195.599204922101
 30
0.0
 11
3689.064055907228
 21
7219.522839191586
 31
0.0
  0
LINE
  5
14E46
330
747D
100
AcDbEntity
  8
寸法
 48
50.0
100
AcDbLine
 10
3559.196334326924
 20
7195.599204922101
 30
0.0
 11
3778.34827450265
 21
7195.599204922101
 31
0.0
  0
LINE
  5
14E47
330
747D
100
AcDbEntity
  8
細線
 48
50.0
100
AcDbLine
 10
4435.69551534853
 20
7360.840611816626
 30
0.0
 11
5062.695515348526
 21
7360.840611816626
 31
0.0
  0
LINE
  5
14E48
330
747D
100
AcDbEntity
  8
細線
 48
50.0
100
AcDbLine
 10
3781.695520002116
 20
7327.13184326255
 30
0.0
 11
5062.695515348526
 21
7327.13184326255
 31
0.0
  0
LINE
  5
14E49
330
747D
100
AcDbEntity
  8
細線
 48
50.0
100
AcDbLine
 10
3740.69552000212
 20
7356.536751258804
 30
0.0
 11
2986.695515348526
 21
7356.5367512588
 31
0.0
  0
LINE
  5
14E4A
330
747D
100
AcDbEntity
  8
細線
100
AcDbLine
 10
4838.44550593207
 20
7380.340511781636
 30
0.0
 11
4840.777045453878
 21
7385.340514421596
 31
0.0
  0
LINE
  5
14E4B
330
747D
100
AcDbEntity
  8
細線
100
AcDbLine
 10
4908.445515348527
 20
7380.3404968679
 30
0.0
 11
4906.11396887234
 21
7385.340514421582
 31
0.0
  0
LINE
  5
14E4C
330
747D
100
AcDbEntity
  8
細線
100
AcDbLine
 10
4906.11396887234
 20
7385.340514421582
 30
0.0
 11
4840.777045453864
 21
7385.340514421567
 31
0.0
  0
LINE
  5
14E4D
330
747D
100
AcDbEntity
  8
細線
100
AcDbLine
 10
4766.113968872339
 20
7385.340514421582
 30
0.0
 11
4700.777045453864
 21
7385.340514421567
 31
0.0
  0
LINE
  5
14E4E
330
747D
100
AcDbEntity
  8
細線
100
AcDbLine
 10
4768.445515348527
 20
7380.3404968679
 30
0.0
 11
4766.113968872339
 21
7385.340514421582
 31
0.0
  0
LINE
  5
14E4F
330
747D
100
AcDbEntity
  8
細線
100
AcDbLine
 10
4698.445505932069
 20
7380.340511781636
 30
0.0
 11
4700.777045453878
 21
7385.340514421596
 31
0.0
  0
LINE
  5
14E50
330
747D
100
AcDbEntity
  8
細線
100
AcDbLine
 10
4558.445515348527
 20
7380.3404968679
 30
0.0
 11
4560.777054870339
 21
7385.340499507861
 31
0.0
  0
LINE
  5
14E51
330
747D
100
AcDbEntity
  8
細線
100
AcDbLine
 10
4628.445524764987
 20
7380.340481954167
 30
0.0
 11
4626.113978288796
 21
7385.340499507847
 31
0.0
  0
LINE
  5
14E52
330
747D
100
AcDbEntity
  8
細線
100
AcDbLine
 10
4626.1139782888
 20
7385.340499507847
 30
0.0
 11
4560.777054870325
 21
7385.340499507832
 31
0.0
  0
LINE
  5
14E53
330
747D
100
AcDbEntity
  8
細線
100
AcDbLine
 10
4330.863999537633
 20
7351.340536205229
 30
0.0
 11
4265.527076119158
 21
7351.340536205213
 31
0.0
  0
LINE
  5
14E54
330
747D
100
AcDbEntity
  8
細線
100
AcDbLine
 10
4333.19554601382
 20
7346.340518651548
 30
0.0
 11
4330.863999537633
 21
7351.340536205229
 31
0.0
  0
LINE
  5
14E55
330
747D
100
AcDbEntity
  8
細線
100
AcDbLine
 10
4263.195536597364
 20
7346.340533565282
 30
0.0
 11
4265.527076119172
 21
7351.340536205244
 31
0.0
  0
LINE
  5
14E56
330
747D
100
AcDbEntity
  8
細線
 48
50.0
100
AcDbLine
 10
4104.57889459654
 20
7364.611360020981
 30
0.0
 11
4110.334412179208
 21
7346.340508730495
 31
0.0
  0
LINE
  5
14E57
330
747D
100
AcDbEntity
  8
細線
 48
50.0
100
AcDbLine
 10
4093.65044611611
 20
7364.611360020981
 30
0.0
 11
4104.57889459654
 21
7364.611360020981
 31
0.0
  0
ARC
  5
14E58
330
747D
100
AcDbEntity
  8
細線
 48
50.0
100
AcDbCircle
 10
4088.196090058788
 20
7366.111360020981
 30
0.0
 40
5.0
100
AcDbArc
 50
204.6243183521251
 51
335.375681647875
  0
ARC
  5
14E59
330
747D
100
AcDbEntity
  8
細線
 48
50.0
100
AcDbCircle
 10
4093.65044611611
 20
7363.611360020981
 30
0.0
 40
1.0
100
AcDbArc
 50
90.0
 51
155.3756816478749
  0
ARC
  5
14E5A
330
747D
100
AcDbEntity
  8
細線
 48
50.0
100
AcDbCircle
 10
4082.741734001473
 20
7363.611360020981
 30
0.0
 40
1.0
100
AcDbArc
 50
24.62431835212505
 51
90.0
  0
LINE
  5
14E5B
330
747D
100
AcDbEntity
  8
細線
 48
50.0
100
AcDbLine
 10
4071.81328552104
 20
7364.611360020981
 30
0.0
 11
4082.741734001473
 21
7364.611360020981
 31
0.0
  0
LINE
  5
14E5C
330
747D
100
AcDbEntity
  8
細線
 48
50.0
100
AcDbLine
 10
4066.057767938372
 20
7346.340508730488
 30
0.0
 11
4071.81328552104
 21
7364.611360020981
 31
0.0
  0
LINE
  5
14E5D
330
747D
100
AcDbEntity
  8
細線
100
AcDbLine
 10
4123.195537828404
 20
7346.340506096291
 30
0.0
 11
4125.527077350216
 21
7351.340508736253
 31
0.0
  0
LINE
  5
14E5E
330
747D
100
AcDbEntity
  8
細線
100
AcDbLine
 10
4193.195547244865
 20
7346.340491182558
 30
0.0
 11
4190.864000768675
 21
7351.340508736239
 31
0.0
  0
LINE
  5
14E5F
330
747D
100
AcDbEntity
  8
細線
100
AcDbLine
 10
4190.864000768675
 20
7351.340508736239
 30
0.0
 11
4125.527077350202
 21
7351.340508736223
 31
0.0
  0
LINE
  5
14E60
330
747D
100
AcDbEntity
  8
細線
100
AcDbLine
 10
4050.863972404157
 20
7351.340508730458
 30
0.0
 11
3985.527048985682
 21
7351.340508730443
 31
0.0
  0
LINE
  5
14E61
330
747D
100
AcDbEntity
  8
細線
100
AcDbLine
 10
4053.195518880345
 20
7346.340491176778
 30
0.0
 11
4050.863972404157
 21
7351.340508730458
 31
0.0
  0
LINE
  5
14E62
330
747D
100
AcDbEntity
  8
細線
100
AcDbLine
 10
3983.195510694929
 20
7346.340508730488
 30
0.0
 11
3985.527048985697
 21
7351.340508730473
 31
0.0
  0
LINE
  5
14E63
330
747D
100
AcDbEntity
  8
細線
100
AcDbLine
 10
3843.19554601382
 20
7346.340516917857
 30
0.0
 11
3845.527084304588
 21
7351.340516917843
 31
0.0
  0
LINE
  5
14E64
330
747D
100
AcDbEntity
  8
細線
100
AcDbLine
 10
3913.195554199237
 20
7346.340499364147
 30
0.0
 11
3910.86400772305
 21
7351.340516917824
 31
0.0
  0
LINE
  5
14E65
330
747D
100
AcDbEntity
  8
細線
100
AcDbLine
 10
3910.86400772305
 20
7351.340516917824
 30
0.0
 11
3845.527084304574
 21
7351.340516917812
 31
0.0
  0
LINE
  5
14E66
330
747D
100
AcDbEntity
  8
細線
100
AcDbLine
 10
3471.6955118167
 20
7312.34068859857
 30
0.0
 11
3474.027050107468
 21
7317.340688598555
 31
0.0
  0
LINE
  5
14E67
330
747D
100
AcDbEntity
  8
細線
100
AcDbLine
 10
3541.695520002116
 20
7312.340671044856
 30
0.0
 11
3539.363973525929
 21
7317.340688598533
 31
0.0
  0
LINE
  5
14E68
330
747D
100
AcDbEntity
  8
細線
100
AcDbLine
 10
3539.363973525929
 20
7317.340688598533
 30
0.0
 11
3474.027050107457
 21
7317.340688598526
 31
0.0
  0
LINE
  5
14E69
330
747D
100
AcDbEntity
  8
細線
100
AcDbLine
 10
3679.363973525929
 20
7317.340688598533
 30
0.0
 11
3614.027050107457
 21
7317.340688598526
 31
0.0
  0
LINE
  5
14E6A
330
747D
100
AcDbEntity
  8
細線
100
AcDbLine
 10
3681.695520002115
 20
7312.340671044856
 30
0.0
 11
3679.363973525929
 21
7317.340688598533
 31
0.0
  0
LINE
  5
14E6B
330
747D
100
AcDbEntity
  8
細線
100
AcDbLine
 10
3611.6955118167
 20
7312.34068859857
 30
0.0
 11
3614.027050107468
 21
7317.340688598555
 31
0.0
  0
LINE
  5
14E6C
330
747D
100
AcDbEntity
  8
細線
100
AcDbLine
 10
3399.363973525929
 20
7317.340688598533
 30
0.0
 11
3334.027050107457
 21
7317.340688598523
 31
0.0
  0
LINE
  5
14E6D
330
747D
100
AcDbEntity
  8
細線
100
AcDbLine
 10
3401.695520002116
 20
7312.340671044856
 30
0.0
 11
3399.363973525929
 21
7317.340688598533
 31
0.0
  0
LINE
  5
14E6E
330
747D
100
AcDbEntity
  8
細線
100
AcDbLine
 10
3331.6955118167
 20
7312.340688598566
 30
0.0
 11
3334.027050107468
 21
7317.340688598552
 31
0.0
  0
LINE
  5
14E6F
330
747D
100
AcDbEntity
  8
細線
100
AcDbLine
 10
3191.695520002116
 20
7312.34068859857
 30
0.0
 11
3194.027058292884
 21
7317.340688598555
 31
0.0
  0
LINE
  5
14E70
330
747D
100
AcDbEntity
  8
細線
100
AcDbLine
 10
3261.695528187532
 20
7312.340671044856
 30
0.0
 11
3259.363981711344
 21
7317.340688598533
 31
0.0
  0
LINE
  5
14E71
330
747D
100
AcDbEntity
  8
細線
100
AcDbLine
 10
3259.363981711344
 20
7317.340688598533
 30
0.0
 11
3194.027058292873
 21
7317.340688598526
 31
0.0
  0
ARC
  5
14E72
330
747D
100
AcDbEntity
  8
部品1
 48
0.01
100
AcDbCircle
 10
3147.195408749781
 20
7311.339566413497
 30
0.0
 40
0.5
100
AcDbArc
 50
270.0
 51
0.0
  0
LINE
  5
14E73
330
747D
100
AcDbEntity
  8
部品1
 48
0.01
100
AcDbLine
 10
3147.695408749781
 20
7312.339566413498
 30
0.0
 11
3147.695408749781
 21
7311.339566413497
 31
0.0
  0
LINE
  5
14E74
330
747D
100
AcDbEntity
  8
部品1
 48
0.01
100
AcDbLine
 10
3147.695408749781
 20
7312.339566413498
 30
0.0
 11
3147.695408749781
 21
7311.339566413497
 31
0.0
  0
LINE
  5
14E75
330
747D
100
AcDbEntity
  8
部品1
 48
0.01
100
AcDbLine
 10
3147.195408749781
 20
7310.839566413497
 30
0.0
 11
3140.582903319716
 21
7310.839566413497
 31
0.0
  0
ARC
  5
14E76
330
747D
100
AcDbEntity
  8
部品1
100
AcDbCircle
 10
3140.651252872497
 20
7311.839566413496
 30
0.0
 40
1.0
100
AcDbArc
 50
160.5287793655822
 51
270.0
  0
ARC
  5
14E77
330
747D
100
AcDbEntity
  8
部品1
100
AcDbCircle
 10
3115.195408749781
 20
7320.839566413496
 30
0.0
 40
26.0
100
AcDbArc
 50
340.5287793655822
 51
0.0
  0
LINE
  5
14E78
330
747D
100
AcDbEntity
  8
部品1
100
AcDbLine
 10
3141.195408749781
 20
7320.839566413496
 30
0.0
 11
3141.195408749781
 21
7325.839566413496
 31
0.0
  0
ARC
  5
14E79
330
747D
100
AcDbEntity
  8
部品1
 48
0.01
100
AcDbCircle
 10
3139.195408749781
 20
7325.839566413496
 30
0.0
 40
2.0
100
AcDbArc
 50
0.0
 51
90.0
  0
ARC
  5
14E7A
330
747D
100
AcDbEntity
  8
部品1
100
AcDbCircle
 10
3137.587017124971
 20
7324.839566413498
 30
0.0
 40
3.0
100
AcDbArc
 50
90.0
 51
141.6069559807873
  0
LINE
  5
14E7B
330
747D
100
AcDbEntity
  8
部品1
 48
0.01
100
AcDbLine
 10
3139.195408749781
 20
7327.839566413498
 30
0.0
 11
3137.587017124971
 21
7327.839566413498
 31
0.0
  0
ARC
  5
14E7C
330
747D
100
AcDbEntity
  8
部品1
100
AcDbCircle
 10
3119.12469453551
 20
7324.139566413499
 30
0.0
 40
3.0
100
AcDbArc
 50
254.0576313943215
 51
270.0
  0
ARC
  5
14E7D
330
747D
100
AcDbEntity
  8
部品1
100
AcDbCircle
 10
3126.266122964052
 20
7324.139566413499
 30
0.0
 40
3.0
100
AcDbArc
 50
270.0
 51
285.9423686056786
  0
LINE
  5
14E7E
330
747D
100
AcDbEntity
  8
部品1
100
AcDbLine
 10
3126.266122964052
 20
7321.139566413499
 30
0.0
 11
3119.12469453551
 21
7321.139566413499
 31
0.0
  0
ARC
  5
14E7F
330
747D
100
AcDbEntity
  8
部品1
100
AcDbCircle
 10
3122.695408749781
 20
7336.6395664135
 30
0.0
 40
16.0
100
AcDbArc
 50
285.9423686056786
 51
321.6069559807873
  0
LINE
  5
14E80
330
747D
100
AcDbEntity
  8
部品1
 48
0.01
100
AcDbLine
 10
3106.195408749781
 20
7327.839566413498
 30
0.0
 11
3107.803800374591
 21
7327.839566413498
 31
0.0
  0
ARC
  5
14E81
330
747D
100
AcDbEntity
  8
部品1
100
AcDbCircle
 10
3107.803800374591
 20
7324.839566413498
 30
0.0
 40
3.0
100
AcDbArc
 50
38.39304401921267
 51
90.0
  0
ARC
  5
14E82
330
747D
100
AcDbEntity
  8
部品1
100
AcDbCircle
 10
3122.695408749781
 20
7336.6395664135
 30
0.0
 40
16.0
100
AcDbArc
 50
218.3930440192126
 51
254.0576313943215
  0
LINE
  5
14E83
330
747D
100
AcDbEntity
  8
部品1
100
AcDbLine
 10
3104.195408749781
 20
7320.839566413496
 30
0.0
 11
3104.195408749781
 21
7325.839566413496
 31
0.0
  0
ARC
  5
14E84
330
747D
100
AcDbEntity
  8
部品1
 48
0.01
100
AcDbCircle
 10
3106.195408749781
 20
7325.839566413496
 30
0.0
 40
2.0
100
AcDbArc
 50
90.0
 51
180.0
  0
ARC
  5
14E85
330
747D
100
AcDbEntity
  8
部品1
100
AcDbCircle
 10
3130.195408749781
 20
7320.839566413496
 30
0.0
 40
26.0
100
AcDbArc
 50
180.0
 51
199.4712206344178
  0
ARC
  5
14E86
330
747D
100
AcDbEntity
  8
部品1
 48
0.01
100
AcDbCircle
 10
3098.195408749781
 20
7311.339566413497
 30
0.0
 40
0.5
100
AcDbArc
 50
180.0
 51
270.0
  0
LINE
  5
14E87
330
747D
100
AcDbEntity
  8
部品1
 48
0.01
100
AcDbLine
 10
3098.195408749781
 20
7310.839566413497
 30
0.0
 11
3104.739564627065
 21
7310.839566413497
 31
0.0
  0
LINE
  5
14E88
330
747D
100
AcDbEntity
  8
部品1
 48
0.01
100
AcDbLine
 10
3097.69540874978
 20
7312.339566413498
 30
0.0
 11
3097.69540874978
 21
7311.339566413497
 31
0.0
  0
ARC
  5
14E89
330
747D
100
AcDbEntity
  8
部品1
100
AcDbCircle
 10
3104.739564627065
 20
7311.839566413496
 30
0.0
 40
1.0
100
AcDbArc
 50
270.0
 51
19.4712206344178
  0
LINE
  5
14E8A
330
747D
100
AcDbEntity
  8
細線
100
AcDbLine
 10
3143.195408749788
 20
7330.339566413501
 30
0.0
 11
3102.195408749788
 21
7330.339566413494
 31
0.0
  0
LINE
  5
14E8B
330
747D
100
AcDbEntity
  8
細線
100
AcDbLine
 10
3102.195408749788
 20
7330.339566413494
 30
0.0
 11
3102.195408749788
 21
7312.339566413474
 31
0.0
  0
LINE
  5
14E8C
330
747D
100
AcDbEntity
  8
細線
100
AcDbLine
 10
3143.195408749788
 20
7330.339566413501
 30
0.0
 11
3143.195408749788
 21
7312.339566413474
 31
0.0
  0
LINE
  5
14E8D
330
747D
100
AcDbEntity
  8
細線
100
AcDbLine
 10
2986.695515348526
 20
7316.3404968679
 30
0.0
 11
2986.695515348526
 21
7312.340496867948
 31
0.0
  0
DIMENSION
  5
14E8E
330
747D
100
AcDbEntity
  8
寸法
 48
50.0
100
AcDbDimension
  2
*D27
 10
4252.695515348526
 20
6610.587670671709
 30
0.0
 11
3647.383170944443
 21
6610.587670671709
 31
0.0
 70
   160
  1
有効開口部間口\P<>
 71
     5
 42
1266.0
  3
INABA_S40
100
AcDbAlignedDimension
 13
2986.695515348526
 23
7307.340496867901
 33
0.0
 14
4252.695515348526
 24
7307.340496867901
 34
0.0
100
AcDbRotatedDimension
1001
ACAD
1000
DSTYLE
1002
{
1070
    41
1040
0.5
1070
    44
1040
1.0
1070
   147
1040
0.8
1070
   271
1070
     2
1070
   272
1070
     2
1070
   289
1070
     3
1070
   340
1005
F706
1070
   343
1005
F744
1070
   344
1005
F744
1002
}
  0
LINE
  5
14E8F
330
747D
100
AcDbEntity
  8
部品1
100
AcDbLine
 10
5074.695515348526
 20
7384.340496867899
 30
0.0
 11
5101.695515348526
 21
7384.340496867901
 31
0.0
  0
LINE
  5
14E91
330
747D
100
AcDbEntity
  8
部品1
100
AcDbLine
 10
5101.695515348526
 20
7307.340496867901
 30
0.0
 11
5101.695515348526
 21
7384.340496867901
 31
0.0
  0
LINE
  5
14E92
330
747D
100
AcDbEntity
  8
部品1
100
AcDbLine
 10
5062.695515348526
 20
7380.3404968679
 30
0.0
 11
5074.695515348526
 21
7380.3404968679
 31
0.0
  0
LINE
  5
14E93
330
747D
100
AcDbEntity
  8
部品1
100
AcDbLine
 10
5071.695515348526
 20
7316.3404968679
 30
0.0
 11
5071.695515348526
 21
7307.340496867901
 31
0.0
  0
LINE
  5
14E94
330
747D
100
AcDbEntity
  8
部品1
100
AcDbLine
 10
5062.695515348526
 20
7316.3404968679
 30
0.0
 11
5071.695515348526
 21
7316.3404968679
 31
0.0
  0
LINE
  5
14E95
330
747D
100
AcDbEntity
  8
部品1
100
AcDbLine
 10
5062.695515348526
 20
7380.3404968679
 30
0.0
 11
5062.695515348526
 21
7316.3404968679
 31
0.0
  0
LINE
  5
14E96
330
747D
100
AcDbEntity
  8
部品1
100
AcDbLine
 10
5074.695515348526
 20
7411.340496867902
 30
0.0
 11
5074.695515348526
 21
7380.3404968679
 31
0.0
  0
LINE
  5
14E97
330
747D
100
AcDbEntity
  8
部品1
100
AcDbLine
 10
2986.695515348526
 20
7380.3404968679
 30
0.0
 11
2974.695515348526
 21
7380.3404968679
 31
0.0
  0
LINE
  5
14E98
330
747D
100
AcDbEntity
  8
部品1
100
AcDbLine
 10
2947.695515348526
 20
7384.340496867901
 30
0.0
 11
2974.695515348525
 21
7384.340496867901
 31
0.0
  0
LINE
  5
14E99
330
747D
100
AcDbEntity
  8
部品1
100
AcDbLine
 10
2977.695515348526
 20
7316.3404968679
 30
0.0
 11
2977.695515348526
 21
7307.340496867901
 31
0.0
  0
LINE
  5
14E9A
330
747D
100
AcDbEntity
  8
部品1
100
AcDbLine
 10
2986.695515348526
 20
7316.3404968679
 30
0.0
 11
2977.695515348526
 21
7316.3404968679
 31
0.0
  0
LINE
  5
14E9B
330
747D
100
AcDbEntity
  8
部品1
100
AcDbLine
 10
2977.695515348526
 20
7307.340496867901
 30
0.0
 11
2947.695515348526
 21
7307.340496867901
 31
0.0
  0
LINE
  5
14E9C
330
747D
100
AcDbEntity
  8
部品1
100
AcDbLine
 10
2947.695515348526
 20
7307.340496867901
 30
0.0
 11
2947.695515348526
 21
7384.340496867901
 31
0.0
  0
LINE
  5
14E9D
330
747D
100
AcDbEntity
  8
部品1
100
AcDbLine
 10
2986.695515348526
 20
7380.3404968679
 30
0.0
 11
2986.695515348526
 21
7316.3404968679
 31
0.0
  0
LINE
  5
14E9E
330
747D
100
AcDbEntity
  8
部品1
100
AcDbLine
 10
2974.695515348525
 20
7411.340496867897
 30
0.0
 11
2974.695515348526
 21
7380.3404968679
 31
0.0
  0
LINE
  5
14E9F
330
747D
100
AcDbEntity
  8
部品1
100
AcDbLine
 10
2974.695515348525
 20
7411.340496867897
 30
0.0
 11
5074.695515348526
 21
7411.340496867902
 31
0.0
  0
LINE
  5
14EA0
330
747D
100
AcDbEntity
  8
部品1
100
AcDbLine
 10
5071.695515348526
 20
7307.340496867901
 30
0.0
 11
5101.695515348526
 21
7307.340496867901
 31
0.0
  0
LINE
  5
14EA1
330
747D
100
AcDbEntity
  8
部品1
100
AcDbLine
 10
2977.695515348526
 20
7307.340496867901
 30
0.0
 11
5074.695515348526
 21
7307.340496867901
 31
0.0
  0
LINE
  5
14EA2
330
747D
100
AcDbEntity
  8
細線
  6
Continuous
 62
     5
100
AcDbLine
 10
4353.695515348529
 20
7346.340496867897
 30
0.0
 11
4353.695515348529
 21
7346.340496867897
 31
0.0
  0
LINE
  5
14EA3
330
747D
100
AcDbEntity
  8
細線
  6
Continuous
 62
     5
100
AcDbLine
 10
4346.195550667421
 20
7346.340506788954
 30
0.0
 11
4346.195550667421
 21
7346.340506788954
 31
0.0
  0
LINE
  5
14EA4
330
747D
100
AcDbEntity
  8
細線
  6
Continuous
 62
     5
100
AcDbLine
 10
4340.195550667421
 20
7346.340506788954
 30
0.0
 11
4340.195550667421
 21
7346.340506788954
 31
0.0
  0
LINE
  5
14EA5
330
747D
100
AcDbEntity
  8
細線
  6
Continuous
 62
     5
100
AcDbLine
 10
4407.695515348529
 20
7365.340496867897
 30
0.0
 11
4407.695515348529
 21
7365.340496867897
 31
0.0
  0
LINE
  5
14EA6
330
747D
100
AcDbEntity
  8
細線
 48
50.0
100
AcDbLine
 10
3000.69552000212
 20
7332.940671044855
 30
0.0
 11
3000.69552000212
 21
7341.336821452495
 31
0.0
  0
LINE
  5
14EA7
330
747D
100
AcDbEntity
  8
細線
 48
50.0
100
AcDbLine
 10
3000.69552000212
 20
7341.336821452495
 30
0.0
 11
2986.695515348526
 21
7341.336821452491
 31
0.0
  0
LINE
  5
14EA8
330
747D
100
AcDbEntity
  8
細線
 48
50.0
100
AcDbLine
 10
3751.695520002116
 20
7329.490671044855
 30
0.0
 11
3751.695520002116
 21
7334.340671044856
 31
0.0
  0
LINE
  5
14EA9
330
747D
100
AcDbEntity
  8
細線
 48
50.0
100
AcDbLine
 10
3751.695520002116
 20
7334.340671044856
 30
0.0
 11
3766.695520002116
 21
7334.340671044856
 31
0.0
  0
LINE
  5
14EAA
330
747D
100
AcDbEntity
  8
細線
 48
50.0
100
AcDbLine
 10
3766.695520002116
 20
7334.340671044856
 30
0.0
 11
3766.695520002119
 21
7341.340671044857
 31
0.0
  0
LINE
  5
14EAB
330
747D
100
AcDbEntity
  8
細線
 48
50.0
100
AcDbLine
 10
3766.695520002119
 20
7341.340671044857
 30
0.0
 11
3781.695520002116
 21
7341.340671044857
 31
0.0
  0
LINE
  5
14EAC
330
747D
100
AcDbEntity
  8
細線
 48
50.0
100
AcDbLine
 10
3781.695520002116
 20
7341.340671044857
 30
0.0
 11
3781.695520002116
 21
7312.340671044856
 31
0.0
  0
LINE
  5
14EAD
330
747D
100
AcDbEntity
  8
細線
 48
50.0
100
AcDbLine
 10
2977.695515348526
 20
7312.338005388325
 30
0.0
 11
3191.695520002116
 21
7312.34068859857
 31
0.0
  0
LINE
  5
14EAE
330
747D
100
AcDbEntity
  8
細線
 48
50.0
100
AcDbLine
 10
3681.695520002115
 20
7312.340671044856
 30
0.0
 11
3781.695520002116
 21
7312.340671044856
 31
0.0
  0
LINE
  5
14EAF
330
747D
100
AcDbEntity
  8
細線
 48
50.0
100
AcDbLine
 10
3401.695520002116
 20
7312.340671044856
 30
0.0
 11
3471.695520002116
 21
7312.340671044856
 31
0.0
  0
LINE
  5
14EB0
330
747D
100
AcDbEntity
  8
細線
 48
50.0
100
AcDbLine
 10
3414.557485014646
 20
7312.340671044856
 30
0.0
 11
3420.313002597313
 21
7330.61152233535
 31
0.0
  0
LINE
  5
14EB1
330
747D
100
AcDbEntity
  8
細線
 48
50.0
100
AcDbLine
 10
3420.313002597313
 20
7330.61152233535
 30
0.0
 11
3431.241451077747
 21
7330.611522335345
 31
0.0
  0
ARC
  5
14EB2
330
747D
100
AcDbEntity
  8
細線
 48
50.0
100
AcDbCircle
 10
3431.241451077747
 20
7329.611522335347
 30
0.0
 40
1.0
100
AcDbArc
 50
24.62431835212505
 51
90.0
  0
ARC
  5
14EB3
330
747D
100
AcDbEntity
  8
細線
 48
50.0
100
AcDbCircle
 10
3442.15016319238
 20
7329.611522335347
 30
0.0
 40
1.0
100
AcDbArc
 50
90.0
 51
155.3756816478749
  0
ARC
  5
14EB4
330
747D
100
AcDbEntity
  8
細線
 48
50.0
100
AcDbCircle
 10
3436.695807135061
 20
7332.111522335345
 30
0.0
 40
5.0
100
AcDbArc
 50
204.6243183521251
 51
335.375681647875
  0
LINE
  5
14EB5
330
747D
100
AcDbEntity
  8
細線
 48
50.0
100
AcDbLine
 10
3442.15016319238
 20
7330.611522335345
 30
0.0
 11
3453.078611672813
 21
7330.61152233535
 31
0.0
  0
LINE
  5
14EB6
330
747D
100
AcDbEntity
  8
細線
 48
50.0
100
AcDbLine
 10
3453.078611672813
 20
7330.61152233535
 30
0.0
 11
3458.834129255481
 21
7312.340671044856
 31
0.0
  0
LINE
  5
14EB7
330
747D
100
AcDbEntity
  8
細線
 48
50.0
100
AcDbLine
 10
3751.695520002116
 20
7332.940671044855
 30
0.0
 11
3000.69552000212
 21
7332.940671044855
 31
0.0
  0
LINE
  5
14EB8
330
747D
100
AcDbEntity
  8
細線
 48
50.0
100
AcDbLine
 10
3611.695520002116
 20
7312.340671044856
 30
0.0
 11
3541.695520002116
 21
7312.340671044856
 31
0.0
  0
LINE
  5
14EB9
330
747D
100
AcDbEntity
  8
細線
100
AcDbLine
 10
3331.695520002116
 20
7312.340671044856
 30
0.0
 11
3261.695528187532
 21
7312.340671044856
 31
0.0
  0
LINE
  5
14EBA
330
747D
100
AcDbEntity
  8
細線
 48
50.0
100
AcDbLine
 10
4405.69551069494
 20
7366.940714902724
 30
0.0
 11
3770.695520002116
 21
7366.940714902719
 31
0.0
  0
LINE
  5
14EBB
330
747D
100
AcDbEntity
  8
細線
 48
50.0
100
AcDbLine
 10
3770.695520002116
 20
7363.836865310362
 30
0.0
 11
3770.695520002116
 21
7368.336865310363
 31
0.0
  0
LINE
  5
14EBC
330
747D
100
AcDbEntity
  8
細線
 48
50.0
100
AcDbLine
 10
3770.695520002116
 20
7368.336865310363
 30
0.0
 11
3755.695520002116
 21
7368.336865310363
 31
0.0
  0
LINE
  5
14EBD
330
747D
100
AcDbEntity
  8
細線
 48
50.0
100
AcDbLine
 10
3755.695520002116
 20
7368.336865310363
 30
0.0
 11
3755.695520002116
 21
7375.336865310362
 31
0.0
  0
LINE
  5
14EBE
330
747D
100
AcDbEntity
  8
細線
 48
50.0
100
AcDbLine
 10
3755.695520002116
 20
7375.336865310362
 30
0.0
 11
3740.69552000212
 21
7375.336865310359
 31
0.0
  0
LINE
  5
14EBF
330
747D
100
AcDbEntity
  8
細線
 48
50.0
100
AcDbLine
 10
3740.69552000212
 20
7375.336865310359
 30
0.0
 11
3740.69552000212
 21
7337.736637207249
 31
0.0
  0
LINE
  5
14EC0
330
747D
100
AcDbEntity
  8
細線
 48
50.0
100
AcDbLine
 10
3740.69552000212
 20
7337.736637207249
 30
0.0
 11
3760.695527303292
 21
7337.736678756789
 31
0.0
  0
LINE
  5
14EC1
330
747D
100
AcDbEntity
  8
細線
 48
50.0
100
AcDbLine
 10
3760.69548243435
 20
7346.340140392598
 30
0.0
 11
3760.695527303292
 21
7337.736678756789
 31
0.0
  0
LINE
  5
14EC2
330
747D
100
AcDbEntity
  8
細線
 48
50.0
100
AcDbLine
 10
4405.69551069494
 20
7363.490714902723
 30
0.0
 11
4405.69551069494
 21
7368.34071490272
 31
0.0
  0
LINE
  5
14EC3
330
747D
100
AcDbEntity
  8
細線
 48
50.0
100
AcDbLine
 10
4405.69551069494
 20
7368.34071490272
 30
0.0
 11
4420.695510694936
 21
7368.34071490272
 31
0.0
  0
LINE
  5
14EC4
330
747D
100
AcDbEntity
  8
細線
 48
50.0
100
AcDbLine
 10
4420.695510694936
 20
7368.34071490272
 30
0.0
 11
4420.695522328911
 21
7375.340714902765
 31
0.0
  0
LINE
  5
14EC5
330
747D
100
AcDbEntity
  8
細線
 48
50.0
100
AcDbLine
 10
4420.695522328911
 20
7375.340714902765
 30
0.0
 11
4435.695520499442
 21
7375.340714902765
 31
0.0
  0
LINE
  5
14EC6
330
747D
100
AcDbEntity
  8
細線
 48
50.0
100
AcDbLine
 10
4435.695520499442
 20
7375.340714902765
 30
0.0
 11
4435.69551019762
 21
7346.340508730491
 31
0.0
  0
LINE
  5
14EC7
330
747D
100
AcDbEntity
  8
細線
 48
50.0
100
AcDbLine
 10
4123.195537828404
 20
7346.340516917857
 30
0.0
 11
4053.195789910821
 21
7346.340511480519
 31
0.0
  0
LINE
  5
14EC8
330
747D
100
AcDbEntity
  8
細線
 48
50.0
100
AcDbLine
 10
3760.69548243435
 20
7346.340140392598
 30
0.0
 11
3771.92817178906
 21
7346.340323345746
 31
0.0
  0
ARC
  5
14EC9
330
747D
100
AcDbEntity
  8
細線
 48
50.0
100
AcDbCircle
 10
3778.510464096396
 20
7345.140487259357
 30
0.0
 40
1.8
100
AcDbArc
 50
270.0006665777295
 51
345.0005554812987
  0
LINE
  5
14ECA
330
747D
100
AcDbEntity
  8
細線
 48
50.0
100
AcDbLine
 10
3780.496897542476
 20
7345.599327716637
 30
0.0
 11
3780.249135100277
 21
7344.67462983453
 31
0.0
  0
LINE
  5
14ECB
330
747D
100
AcDbEntity
  8
細線
 48
50.0
100
AcDbLine
 10
3778.510485037551
 20
7343.340487259478
 30
0.0
 11
3774.880557618781
 21
7343.340445028998
 31
0.0
  0
ARC
  5
14ECC
330
747D
100
AcDbEntity
  8
細線
 48
50.0
100
AcDbCircle
 10
3774.88053667763
 20
7345.140445028878
 30
0.0
 40
1.8
100
AcDbArc
 50
195.0010443049461
 51
270.0006665777295
  0
LINE
  5
14ECD
330
747D
100
AcDbEntity
  8
細線
 48
50.0
100
AcDbLine
 10
3772.894109185371
 20
7345.599159996442
 30
0.0
 11
3773.141878681884
 21
7344.67453905786
 31
0.0
  0
ARC
  5
14ECE
330
747D
100
AcDbEntity
  8
細線
 48
50.0
100
AcDbCircle
 10
3771.928188076623
 20
7345.34032334588
 30
0.0
 40
1.0
100
AcDbArc
 50
15.00104430494617
 51
90.00093320877969
  0
LINE
  5
14ECF
330
747D
100
AcDbEntity
  8
細線
 48
50.0
100
AcDbLine
 10
3781.462818897578
 20
7346.34051803615
 30
0.0
 11
3782.404579048483
 21
7346.340524609999
 31
0.0
  0
ARC
  5
14ED0
330
747D
100
AcDbEntity
  8
細線
 48
50.0
100
AcDbCircle
 10
3781.462825877965
 20
7345.340518036175
 30
0.0
 40
1.0
100
AcDbArc
 50
90.0003999466794
 51
165.0005554812987
  0
LINE
  5
14ED1
330
747D
100
AcDbEntity
  8
細線
 48
50.0
100
AcDbLine
 10
4333.195510694928
 20
7346.340508730491
 30
0.0
 11
4435.69551019762
 21
7346.340508730491
 31
0.0
  0
LINE
  5
14ED2
330
747D
100
AcDbEntity
  8
細線
 48
50.0
100
AcDbLine
 10
3843.19554601382
 20
7346.340516917857
 30
0.0
 11
3782.095484786901
 21
7346.340524609999
 31
0.0
  0
LINE
  5
14ED3
330
747D
100
AcDbEntity
  8
細線
 48
50.0
100
AcDbLine
 10
4263.195546013821
 20
7346.340553758939
 30
0.0
 11
4193.195539059434
 21
7346.340508736272
 31
0.0
  0
LINE
  5
14ED4
330
747D
100
AcDbEntity
  8
細線
 48
50.0
100
AcDbLine
 10
3983.195510694929
 20
7346.340508730488
 30
0.0
 11
3913.195493407054
 21
7346.340508730495
 31
0.0
  0
ARC
  5
14ED5
330
747D
100
AcDbEntity
  8
細線
 48
50.0
100
AcDbCircle
 10
4419.895515348538
 20
7379.540496867901
 30
0.0
 40
0.8
100
AcDbArc
 50
359.9997333689499
 51
89.99986668437072
  0
ARC
  5
14ED6
330
747D
100
AcDbEntity
  8
細線
 48
50.0
100
AcDbCircle
 10
4427.495522173631
 20
7379.540508036519
 30
0.0
 40
0.8
100
AcDbArc
 50
90.00014387753465
 51
179.9997333689498
  0
LINE
  5
14ED7
330
747D
100
AcDbEntity
  8
細線
 48
50.0
100
AcDbLine
 10
4419.895517209972
 20
7380.3404968679
 30
0.0
 11
4414.695515348525
 21
7380.3404968679
 31
0.0
  0
ARC
  5
14ED8
330
747D
100
AcDbEntity
  8
細線
 48
50.0
100
AcDbCircle
 10
4421.395515348526
 20
7378.0404968679
 30
0.0
 40
0.7
100
AcDbArc
 50
180.0
 51
270.0
  0
ARC
  5
14ED9
330
747D
100
AcDbEntity
  8
細線
 48
50.0
100
AcDbCircle
 10
4425.995515348528
 20
7378.0404968679
 30
0.0
 40
0.7
100
AcDbArc
 50
270.0
 51
0.0
  0
LINE
  5
14EDA
330
747D
100
AcDbEntity
  8
細線
 48
50.0
100
AcDbLine
 10
4426.695515348526
 20
7378.0404968679
 30
0.0
 11
4426.695522173644
 21
7379.540511759389
 31
0.0
  0
LINE
  5
14EDB
330
747D
100
AcDbEntity
  8
細線
 48
50.0
100
AcDbLine
 10
4421.395515348526
 20
7377.3404968679
 30
0.0
 11
4425.995515348528
 21
7377.3404968679
 31
0.0
  0
LINE
  5
14EDC
330
747D
100
AcDbEntity
  8
細線
 48
50.0
100
AcDbLine
 10
4420.695515348525
 20
7379.540496867901
 30
0.0
 11
4420.695515348525
 21
7378.0404968679
 31
0.0
  0
LINE
  5
14EDD
330
747D
100
AcDbEntity
  8
細線
 48
50.0
100
AcDbLine
 10
5046.295515348532
 20
7410.3404968679
 30
0.0
 11
4409.695515348526
 21
7410.340496867897
 31
0.0
  0
LINE
  5
14EDE
330
747D
100
AcDbEntity
  8
細線
 48
50.0
100
AcDbLine
 10
5072.195515348526
 20
7405.340496867904
 30
0.0
 11
5056.295515348532
 21
7405.3404968679
 31
0.0
  0
LINE
  5
14EDF
330
747D
100
AcDbEntity
  8
細線
 48
50.0
100
AcDbLine
 10
5056.295515348528
 20
7405.3404968679
 30
0.0
 11
5046.295515348532
 21
7410.3404968679
 31
0.0
  0
LINE
  5
14EE0
330
747D
100
AcDbEntity
  8
細線
100
AcDbLine
 10
4657.195515348527
 20
7380.3404968679
 30
0.0
 11
4657.195515348527
 21
7409.6404968679
 31
0.0
  0
LINE
  5
14EE1
330
747D
100
AcDbEntity
  8
細線
100
AcDbLine
 10
4657.195515348527
 20
7409.6404968679
 30
0.0
 11
4677.195515348527
 21
7409.6404968679
 31
0.0
  0
LINE
  5
14EE2
330
747D
100
AcDbEntity
  8
細線
100
AcDbLine
 10
4677.195515348527
 20
7380.3404968679
 30
0.0
 11
4677.195515348527
 21
7409.6404968679
 31
0.0
  0
LINE
  5
14EE3
330
747D
100
AcDbEntity
  8
細線
100
AcDbLine
 10
4838.445515348527
 20
7380.3404968679
 30
0.0
 11
4768.445515348527
 21
7380.3404968679
 31
0.0
  0
LINE
  5
14EE4
330
747D
100
AcDbEntity
  8
細線
 48
50.0
100
AcDbLine
 10
4558.445515348526
 20
7380.3404968679
 30
0.0
 11
4427.491294921369
 21
7380.3404968679
 31
0.0
  0
LINE
  5
14EE5
330
747D
100
AcDbEntity
  8
細線
100
AcDbLine
 10
4698.445515348526
 20
7380.3404968679
 30
0.0
 11
4628.445515348526
 21
7380.3404968679
 31
0.0
  0
LINE
  5
14EE6
330
747D
100
AcDbEntity
  8
細線
 48
50.0
100
AcDbLine
 10
4414.695515348525
 20
7372.3404968679
 30
0.0
 11
4414.695515348525
 21
7380.3404968679
 31
0.0
  0
LINE
  5
14EE7
330
747D
100
AcDbEntity
  8
細線
 48
50.0
100
AcDbLine
 10
4394.695515348526
 20
7372.340496867905
 30
0.0
 11
4414.695515348525
 21
7372.3404968679
 31
0.0
  0
LINE
  5
14EE8
330
747D
100
AcDbEntity
  8
細線
 48
50.0
100
AcDbLine
 10
4409.695515348526
 20
7410.3404968679
 30
0.0
 11
4409.695515348526
 21
7405.3404968679
 31
0.0
  0
LINE
  5
14EE9
330
747D
100
AcDbEntity
  8
細線
 48
50.0
100
AcDbLine
 10
4394.695515348526
 20
7410.340496867897
 30
0.0
 11
4409.695515348526
 21
7410.3404968679
 31
0.0
  0
LINE
  5
14EEA
330
747D
100
AcDbEntity
  8
細線
 48
50.0
100
AcDbLine
 10
4394.695515348526
 20
7372.340496867905
 30
0.0
 11
4394.695515348526
 21
7410.340496867897
 31
0.0
  0
LINE
  5
14EEB
330
747D
100
AcDbEntity
  8
細線
100
AcDbLine
 10
5062.695515348526
 20
7380.3404968679
 30
0.0
 11
4908.445515348527
 21
7380.3404968679
 31
0.0
  0
LINE
  5
14EEC
330
747D
100
AcDbEntity
  8
細線
 48
50.0
100
AcDbLine
 10
5072.195515348526
 20
7405.340496867904
 30
0.0
 11
5072.195515348526
 21
7380.3404968679
 31
0.0
  0
DIMENSION
  5
15157
330
747D
100
AcDbEntity
  8
寸法
 48
50.0
100
AcDbDimension
  2
*D28
 10
5101.695515348526
 20
6348.383489358646
 30
0.0
 11
4001.817515997383
 21
6348.383489358646
 31
0.0
 70
   160
 71
     5
 42
2154.0
  3
INABA_S40G
100
AcDbAlignedDimension
 13
2947.695515348526
 23
7307.340496867901
 33
0.0
 14
5101.695515348526
 24
7307.340496867901
 34
0.0
100
AcDbRotatedDimension
1001
ACAD
1000
DSTYLE
1002
{
1070
   341
1005
0
1002
}
  0
DIMENSION
  5
15158
330
747D
100
AcDbEntity
  8
寸法
100
AcDbDimension
  2
*D29
 10
2168.376701444477
 20
7309.340496867875
 30
0.0
 11
2168.376701444476
 21
7168.855215493636
 31
0.0
 70
   160
 71
     5
 42
75.00000000002728
  3
INABA_S40
100
AcDbAlignedDimension
 13
2499.695515348526
 23
7384.340496867903
 33
0.0
 14
2947.695515348527
 24
7309.340496867875
 34
0.0
 50
90.0
100
AcDbRotatedDimension
1001
ACAD
1000
DSTYLE
1002
{
1070
    41
1040
0.5
1070
    44
1040
1.0
1070
   147
1040
0.8
1070
   271
1070
     2
1070
   272
1070
     2
1070
   289
1070
     3
1070
   340
1005
F706
1070
   343
1005
F744
1070
   344
1005
F744
1002
}
  0
TEXT
  5
15209
330
747D
100
AcDbEntity
  8
部品1
100
AcDbText
 10
5257.879792063359
 20
5665.663214238452
 30
0.0
 40
135.0
  1
平面図
  7
STYLE2
100
AcDbText
  0
LWPOLYLINE
  5
1520A
330
747D
100
AcDbEntity
  8
部品1
100
AcDbPolyline
 90
        4
 70
     1
 43
0.0
 10
5167.960182234317
 20
5858.556743456975
 10
5167.960182234317
 20
5618.664421911443
 10
5931.430848462762
 20
5618.664421911443
 10
5931.430848462762
 20
5858.556743456975
  0
DIMENSION
  5
15255
330
747D
100
AcDbEntity
  8
寸法
 48
50.0
100
AcDbDimension
  2
*D30
 10
8599.695515348525
 20
6059.258539365055
 30
0.0
 11
7074.695515348524
 21
6151.258539365056
 31
0.0
 70
    32
 71
     5
 42
3050.0
  3
INABA_S40
100
AcDbAlignedDimension
 13
5549.695515348525
 23
7439.340496867899
 33
0.0
 14
8599.695515348525
 24
7384.340496867903
 34
0.0
100
AcDbRotatedDimension
1001
ACAD
1000
DSTYLE
1002
{
1070
    41
1040
0.5
1070
    44
1040
1.0
1070
   147
1040
0.8
1070
   271
1070
     2
1070
   272
1070
     2
1070
   289
1070
     3
1070
   340
1005
F706
1070
   343
1005
F744
1070
   344
1005
F744
1002
}
  0
DIMENSION
  5
1528A
330
747D
100
AcDbEntity
  8
寸法
 48
50.0
100
AcDbDimension
  2
*D31
 10
5549.695515348525
 20
6059.258539365055
 30
0.0
 11
4024.695515348525
 21
6151.258539365056
 31
0.0
 70
    32
 71
     5
 42
3050.0
  3
INABA_S40
100
AcDbAlignedDimension
 13
2499.695515348526
 23
7384.340496867903
 33
0.0
 14
5549.695515348525
 24
7439.340496867902
 34
0.0
100
AcDbRotatedDimension
1001
ACAD
1000
DSTYLE
1002
{
1070
    41
1040
0.5
1070
    44
1040
1.0
1070
   147
1040
0.8
1070
   271
1070
     2
1070
   272
1070
     2
1070
   289
1070
     3
1070
   340
1005
F706
1070
   343
1005
F744
1070
   344
1005
F744
1002
}
  0
TEXT
  5
154AE
330
747D
100
AcDbEntity
  8
文字
 62
     7
 48
50.0
100
AcDbText
 10
15022.63965474517
 20
9570.013745883725
 30
0.0
 40
100.0
  1
F12            1.0
  7
STYLE1
100
AcDbText
  0
LWPOLYLINE
  5
15532
330
747D
100
AcDbEntity
  8
部品1
 48
50.0
100
AcDbPolyline
 90
        4
 70
     1
 43
0.0
 10
3046.745515348524
 20
3334.362805903258
 10
3049.645515348526
 20
3334.362805903258
 10
3049.645515348526
 20
3343.862805903258
 10
3046.745515348524
 20
3343.862805903258
  0
CIRCLE
  5
15533
330
747D
100
AcDbEntity
  8
部品1
 48
50.0
100
AcDbCircle
 10
3048.195515348525
 20
3339.112805903258
 30
0.0
 40
9.0
  0
ARC
  5
15534
330
747D
100
AcDbEntity
  8
細線
 48
50.0
100
AcDbCircle
 10
3048.195515348525
 20
3339.112805903258
 30
0.0
 40
4.0
100
AcDbArc
 50
111.2538091853375
 51
248.7461908146625
  0
ARC
  5
15535
330
747D
100
AcDbEntity
  8
細線
 48
50.0
100
AcDbCircle
 10
3048.195515348525
 20
3339.112805903258
 30
0.0
 40
17.5
100
AcDbArc
 50
306.4837370612677
 51
233.5162629387323
  0
LINE
  5
15536
330
747D
100
AcDbEntity
  8
細線
 48
50.0
100
AcDbLine
 10
3058.195515348522
 20
3315.253845322376
 30
0.0
 11
3058.195515348525
 21
3324.238331122617
 31
0.0
  0
LINE
  5
15537
330
747D
100
AcDbEntity
  8
細線
 48
50.0
100
AcDbLine
 10
3038.195515348525
 20
3315.253845322377
 30
0.0
 11
3038.195515348525
 21
3324.238331122614
 31
0.0
  0
ARC
  5
15538
330
747D
100
AcDbEntity
  8
細線
 48
50.0
100
AcDbCircle
 10
3048.195515348525
 20
3339.112805903258
 30
0.0
 40
26.5
100
AcDbArc
 50
249.3326835063939
 51
290.6673164933835
  0
ARC
  5
15539
330
747D
100
AcDbEntity
  8
細線
 48
50.0
100
AcDbCircle
 10
3057.195515348518
 20
3315.253845322376
 30
0.0
 40
1.0
100
AcDbArc
 50
290.6673164936062
 51
359.9999999998958
  0
ARC
  5
1553A
330
747D
100
AcDbEntity
  8
細線
 48
50.0
100
AcDbCircle
 10
3039.195515348525
 20
3315.253845322377
 30
0.0
 40
1.0
100
AcDbArc
 50
180.0
 51
249.3326835066164
  0
ARC
  5
1553B
330
747D
100
AcDbEntity
  8
細線
 48
50.0
100
AcDbCircle
 10
3037.195515348525
 20
3324.238331122614
 30
0.0
 40
1.0
100
AcDbArc
 50
0.0
 51
53.51626293873231
  0
ARC
  5
1553C
330
747D
100
AcDbEntity
  8
細線
 48
50.0
100
AcDbCircle
 10
3059.195515348529
 20
3324.238331122617
 30
0.0
 40
1.0
100
AcDbArc
 50
126.4837370614917
 51
180.0
  0
ARC
  5
1553D
330
747D
100
AcDbEntity
  8
細線
 48
50.0
100
AcDbCircle
 10
3048.195515348525
 20
3339.112805903258
 30
0.0
 40
21.5
100
AcDbArc
 50
255.8014401250294
 51
284.1985598749706
  0
ARC
  5
1553E
330
747D
100
AcDbEntity
  8
細線
 48
50.0
100
AcDbCircle
 10
3048.195515348525
 20
3339.112805903258
 30
0.0
 40
16.5
100
AcDbArc
 50
251.9694646069326
 51
288.0305353930674
  0
LINE
  5
1553F
330
747D
100
AcDbEntity
  8
細線
 48
50.0
100
AcDbLine
 10
3053.695515348525
 20
3318.560433777451
 30
0.0
 11
3053.695515348525
 21
3323.137825464788
 31
0.0
  0
LINE
  5
15540
330
747D
100
AcDbEntity
  8
細線
 48
50.0
100
AcDbLine
 10
3042.695515348525
 20
3318.560433777451
 30
0.0
 11
3042.695515348525
 21
3323.137825464787
 31
0.0
  0
ARC
  5
15541
330
747D
100
AcDbEntity
  8
細線
 48
50.0
100
AcDbCircle
 10
3042.995515348528
 20
3323.137825464787
 30
0.0
 40
0.3
100
AcDbArc
 50
71.96946460693259
 51
180.0
  0
ARC
  5
15542
330
747D
100
AcDbEntity
  8
細線
 48
50.0
100
AcDbCircle
 10
3053.395515348526
 20
3323.137825464788
 30
0.0
 40
0.3
100
AcDbArc
 50
0.0
 51
108.0305353930674
  0
ARC
  5
15543
330
747D
100
AcDbEntity
  8
細線
 48
50.0
100
AcDbCircle
 10
3053.395515348523
 20
3318.560433777451
 30
0.0
 40
0.3
100
AcDbArc
 50
284.1985598747622
 51
0.0000000001042204
  0
ARC
  5
15544
330
747D
100
AcDbEntity
  8
細線
 48
50.0
100
AcDbCircle
 10
3042.995515348528
 20
3318.560433777451
 30
0.0
 40
0.3
100
AcDbArc
 50
180.0
 51
255.8014401248081
  0
CIRCLE
  5
15545
330
747D
100
AcDbEntity
  8
細線
 48
50.0
100
AcDbCircle
 10
3048.195515348525
 20
3339.112805903258
 30
0.0
 40
12.0
  0
ARC
  5
15546
330
747D
100
AcDbEntity
  8
部品1
 48
50.0
100
AcDbCircle
 10
3048.195515348525
 20
3389.112805903258
 30
0.0
 40
8.5
100
AcDbArc
 50
114.315739171091
 51
245.684260828909
  0
CIRCLE
  5
15547
330
747D
100
AcDbEntity
  8
細線
 48
50.0
100
AcDbCircle
 10
3048.195515348525
 20
3389.112805903258
 30
0.0
 40
4.5
  0
LWPOLYLINE
  5
15548
330
747D
100
AcDbEntity
  8
部品1
 48
50.0
100
AcDbPolyline
 90
        2
 70
     0
 43
0.0
 10
3044.695515348526
 20
3407.787655300241
 10
3044.695515348526
 20
3396.858772595673
  0
CIRCLE
  5
15549
330
747D
100
AcDbEntity
  8
部品1
 48
50.0
100
AcDbCircle
 10
3048.195515348525
 20
3389.112805903258
 30
0.0
 40
19.0
  0
LWPOLYLINE
  5
1554A
330
747D
100
AcDbEntity
  8
部品1
 48
50.0
100
AcDbPolyline
 90
        2
 70
     0
 43
0.0
 10
3044.695515348526
 20
3381.366839210843
 10
3044.695515348526
 20
3370.437956506275
  0
LWPOLYLINE
  5
1554B
330
747D
100
AcDbEntity
  8
部品1
 48
50.0
100
AcDbPolyline
 90
        2
 70
     0
 43
0.0
 10
3051.695515348525
 20
3396.858772595673
 10
3051.695515348525
 20
3407.787655300241
  0
ARC
  5
1554C
330
747D
100
AcDbEntity
  8
部品1
 48
50.0
100
AcDbCircle
 10
3048.195515348525
 20
3389.112805903258
 30
0.0
 40
8.5
100
AcDbArc
 50
294.315739171091
 51
65.68426082890896
  0
LWPOLYLINE
  5
1554D
330
747D
100
AcDbEntity
  8
部品1
 48
50.0
100
AcDbPolyline
 90
        2
 70
     0
 43
0.0
 10
3051.695515348525
 20
3370.437956506275
 10
3051.695515348525
 20
3381.366839210843
  0
ARC
  5
1554E
330
747D
100
AcDbEntity
  8
細線
 48
50.0
100
AcDbCircle
 10
3048.195515348525
 20
3389.112805903258
 30
0.0
 40
16.5
100
AcDbArc
 50
332.0012352654316
 51
27.99876473456844
  0
ARC
  5
1554F
330
747D
100
AcDbEntity
  8
細線
 48
50.0
100
AcDbCircle
 10
3048.195515348525
 20
3389.112805903258
 30
0.0
 40
14.0
100
AcDbArc
 50
326.4074436112843
 51
33.59255638871576
  0
LINE
  5
15550
330
747D
100
AcDbEntity
  8
細線
 48
50.0
100
AcDbLine
 10
3033.626713064194
 20
3396.858772595673
 30
0.0
 11
3036.533611558836
 21
3396.858772595673
 31
0.0
  0
LINE
  5
15551
330
747D
100
AcDbEntity
  8
細線
 48
50.0
100
AcDbLine
 10
3033.626713064194
 20
3381.366839210843
 30
0.0
 11
3036.533611558836
 21
3381.366839210843
 31
0.0
  0
LINE
  5
15552
330
747D
100
AcDbEntity
  8
細線
 48
50.0
100
AcDbLine
 10
3059.857419138214
 20
3396.858772595673
 30
0.0
 11
3062.76431763286
 21
3396.858772595673
 31
0.0
  0
LINE
  5
15553
330
747D
100
AcDbEntity
  8
細線
 48
50.0
100
AcDbLine
 10
3059.857419138214
 20
3381.366839210843
 30
0.0
 11
3062.76431763286
 21
3381.366839210843
 31
0.0
  0
ARC
  5
15554
330
747D
100
AcDbEntity
  8
細線
 48
50.0
100
AcDbCircle
 10
3048.195515348525
 20
3389.112805903258
 30
0.0
 40
14.0
100
AcDbArc
 50
146.4074436112842
 51
213.5925563887158
  0
ARC
  5
15555
330
747D
100
AcDbEntity
  8
細線
 48
50.0
100
AcDbCircle
 10
3048.195515348525
 20
3389.112805903258
 30
0.0
 40
16.5
100
AcDbArc
 50
152.0012352654315
 51
207.9987647345685
  0
ARC
  5
15556
330
747D
100
AcDbEntity
  8
部品1
 48
50.0
100
AcDbCircle
 10
3021.695515348525
 20
3414.612805903259
 30
0.0
 40
5.0
100
AcDbArc
 50
90.0
 51
180.0
  0
ARC
  5
15557
330
747D
100
AcDbEntity
  8
部品1
 48
50.0
100
AcDbCircle
 10
3021.695515348525
 20
3303.612805903258
 30
0.0
 40
5.0
100
AcDbArc
 50
180.0
 51
270.0
  0
ARC
  5
15558
330
747D
100
AcDbEntity
  8
部品1
 48
50.0
100
AcDbCircle
 10
3074.695515348525
 20
3303.612805903258
 30
0.0
 40
5.0
100
AcDbArc
 50
270.0
 51
0.0
  0
ARC
  5
15559
330
747D
100
AcDbEntity
  8
部品1
 48
50.0
100
AcDbCircle
 10
3074.695515348525
 20
3414.612805903259
 30
0.0
 40
5.0
100
AcDbArc
 50
0.0
 51
90.0
  0
LINE
  5
1555A
330
747D
100
AcDbEntity
  8
部品1
 48
50.0
100
AcDbLine
 10
3016.695515348525
 20
3303.612805903258
 30
0.0
 11
3016.695515348525
 21
3414.612805903259
 31
0.0
  0
LINE
  5
1555B
330
747D
100
AcDbEntity
  8
部品1
 48
50.0
100
AcDbLine
 10
3074.695515348525
 20
3298.612805903258
 30
0.0
 11
3021.695515348525
 21
3298.612805903258
 31
0.0
  0
LINE
  5
1555C
330
747D
100
AcDbEntity
  8
部品1
 48
50.0
100
AcDbLine
 10
3079.695515348525
 20
3414.612805903259
 30
0.0
 11
3079.695515348525
 21
3303.612805903258
 31
0.0
  0
ENDSEC
  0
SECTION
  2
OBJECTS
  0
DICTIONARY
  5
7471
330
0
100
AcDbDictionary
281
     1
  3
ACAD_COLOR
350
13B9C
  3
ACAD_GROUP
350
7472
  3
ACAD_LAYOUT
350
13B9D
  3
ACAD_MATERIAL
350
13B9B
  3
ACAD_MLINESTYLE
350
7473
  3
ACAD_PLOTSETTINGS
350
13B9E
  3
ACAD_PLOTSTYLENAME
350
13B99
  3
ACDBHEADERROUNDTRIPXREC
350
1556C
  3
AcDbVariableDictionary
350
15568
  3
CONTENTDICTIONARY
350
E71C
  3
DRAWINGVARIABLESDICT
350
F3B9
  0
DICTIONARY
  5
13D18
330
7467
100
AcDbDictionary
280
     1
281
     1
  3
ACAD_LAYERSTATES
360
13D19
  0
DICTIONARY
  5
13B9C
102
{ACAD_REACTORS
330
7471
102
}
330
7471
100
AcDbDictionary
281
     1
  0
DICTIONARY
  5
7472
102
{ACAD_REACTORS
330
7471
102
}
330
7471
100
AcDbDictionary
281
     1
  0
DICTIONARY
  5
13B9D
102
{ACAD_REACTORS
330
7471
102
}
330
7471
100
AcDbDictionary
281
     1
  3
Model
350
13B9F
  3
レイアウト1
350
13BA0
  0
DICTIONARY
  5
13B9B
102
{ACAD_REACTORS
330
7471
102
}
330
7471
100
AcDbDictionary
281
     1
  0
DICTIONARY
  5
7473
102
{ACAD_REACTORS
330
7471
102
}
330
7471
100
AcDbDictionary
281
     1
  3
STANDARD
350
7480
  0
DICTIONARY
  5
13B9E
102
{ACAD_REACTORS
330
7471
102
}
330
7471
100
AcDbDictionary
281
     1
  0
ACDBDICTIONARYWDFLT
  5
13B99
102
{ACAD_REACTORS
330
7471
102
}
330
7471
100
AcDbDictionary
281
     1
  3
Normal
350
13B9A
100
AcDbDictionaryWithDefault
340
13B9A
  0
DICTIONARY
  5
1556C
102
{ACAD_REACTORS
330
7471
102
}
330
7471
100
AcDbDictionary
281
     1
  3
COLORDICT
350
1556E
  3
MATERIALDICT
350
1556D
  0
DICTIONARY
  5
15568
102
{ACAD_REACTORS
330
7471
102
}
330
7471
100
AcDbDictionary
281
     1
  3
DIMASSOC
350
15569
  3
PROJECTNAME
350
1556A
  0
DICTIONARY
  5
E71C
102
{ACAD_REACTORS
330
7471
102
}
330
7471
100
AcDbDictionary
281
     1
  0
DICTIONARY
  5
F3B9
102
{ACAD_REACTORS
330
7471
102
}
330
7471
100
AcDbDictionary
281
     1
1001
DRAWINGVARIABLESXDATA
1000
POLARMODE
1000
1
  0
DICTIONARY
  5
13D19
102
{ACAD_REACTORS
330
13D18
102
}
330
13D18
100
AcDbDictionary
281
     1
  0
LAYOUT
  5
13B9F
102
{ACAD_XDICTIONARY
360
1556F
102
}
102
{ACAD_REACTORS
330
13B9D
102
}
330
13B9D
100
AcDbPlotSettings
  1

  2
EPSON LP-7000C
  4

  6

 40
0.0
 41
0.0
 42
0.0
 43
0.0
 44
0.0
 45
0.0
 46
0.0
 47
0.0
 48
0.0
 49
0.0
140
0.0
141
0.0
142
1.0
143
1.0
 70
  1712
 72
     0
 73
     0
 74
     0
  7

 75
     0
147
1.0
148
0.0
149
0.0
100
AcDbLayout
  1
Model
 70
     1
 71
     0
 10
0.0
 20
0.0
 11
12.0
 21
9.0
 12
0.0
 22
0.0
 32
0.0
 14
0.0
 24
0.0
 34
0.0
 15
0.0
 25
0.0
 35
0.0
146
0.0
 13
0.0
 23
0.0
 33
0.0
 16
1.0
 26
0.0
 36
0.0
 17
0.0
 27
1.0
 37
0.0
 76
     0
330
747D
  0
LAYOUT
  5
13BA0
102
{ACAD_XDICTIONARY
360
15571
102
}
102
{ACAD_REACTORS
330
13B9D
102
}
330
13B9D
100
AcDbPlotSettings
  1

  2
EPSON LP-7000C
  4

  6

 40
0.0
 41
0.0
 42
0.0
 43
0.0
 44
0.0
 45
0.0
 46
0.0
 47
0.0
 48
0.0
 49
0.0
140
0.0
141
0.0
142
1.0
143
1.0
 70
   688
 72
     0
 73
     0
 74
     5
  7

 75
    16
147
1.0
148
0.0
149
0.0
100
AcDbLayout
  1
レイアウト1
 70
     0
 71
     1
 10
0.0
 20
0.0
 11
420.0
 21
297.0
 12
0.0
 22
0.0
 32
0.0
 14
1.000000000000000E+20
 24
1.000000000000000E+20
 34
1.000000000000000E+20
 15
-1.000000000000000E+20
 25
-1.000000000000000E+20
 35
-1.000000000000000E+20
146
0.0
 13
0.0
 23
0.0
 33
0.0
 16
1.0
 26
0.0
 36
0.0
 17
0.0
 27
1.0
 37
0.0
 76
     0
330
747A
  0
MLINESTYLE
  5
7480
102
{ACAD_REACTORS
330
7473
102
}
330
7473
100
AcDbMlineStyle
  2
STANDARD
 70
     0
  3

 62
     0
 51
90.0
 52
90.0
 71
     2
 49
0.5
 62
   256
  6
BYLAYER
 49
-0.5
 62
   256
  6
BYLAYER
  0
ACDBPLACEHOLDER
  5
13B9A
102
{ACAD_REACTORS
330
13B99
102
}
330
13B99
  0
XRECORD
  5
1556E
102
{ACAD_REACTORS
330
1556C
102
}
330
1556C
100
AcDbXrecord
280
     1
340
13B9C
  0
XRECORD
  5
1556D
102
{ACAD_REACTORS
330
1556C
102
}
330
1556C
100
AcDbXrecord
280
     1
340
13B9B
  0
DICTIONARYVAR
  5
15569
102
{ACAD_REACTORS
330
15568
102
}
330
15568
100
DictionaryVariables
280
     0
  1
1
  0
DICTIONARYVAR
  5
1556A
102
{ACAD_REACTORS
330
15568
102
}
330
15568
100
DictionaryVariables
280
     0
  1

  0
DICTIONARY
  5
1556F
330
13B9F
100
AcDbDictionary
280
     1
281
     1
  3
ACAD_XREC_ROUNDTRIP
360
15570
  0
DICTIONARY
  5
15571
330
13BA0
100
AcDbDictionary
280
     1
281
     1
  3
ACAD_XREC_ROUNDTRIP
360
15572
  0
XRECORD
  5
15570
102
{ACAD_REACTORS
330
1556F
102
}
330
1556F
100
AcDbXrecord
280
     1
102
SHADEPLOT
 70
     0
102
SHADEPLOTRESLEVEL
 70
     2
102
SHADEPLOTCUSTOMDPI
 70
   300
  0
XRECORD
  5
15572
102
{ACAD_REACTORS
330
15571
102
}
330
15571
100
AcDbXrecord
280
     1
102
SHADEPLOT
 70
     0
102
SHADEPLOTRESLEVEL
 70
     2
102
SHADEPLOTCUSTOMDPI
 70
   300
  0
ENDSEC
  0
EOF
