  0
SECTION
  2
HEADER
  9
$ACADVER
  1
AC1015
  9
$ACADMAINTVER
 70
    20
  9
$DWGCODEPAGE
  3
ANSI_932
  9
$INSBASE
 10
0.0
 20
0.0
 30
0.0
  9
$EXTMIN
 10
139.9999999999995
 20
-0.0000000000000909
 30
0.0
  9
$EXTMAX
 10
16307.2
 20
11409.6
 30
0.0
  9
$LIMMIN
 10
0.0
 20
0.0
  9
$LIMMAX
 10
16800.0
 20
11880.0
  9
$ORTHOMODE
 70
     0
  9
$REGENMODE
 70
     1
  9
$FILLMODE
 70
     1
  9
$QTEXTMODE
 70
     0
  9
$MIRRTEXT
 70
     1
  9
$LTSCALE
 40
20.0
  9
$ATTMODE
 70
     1
  9
$TEXTSIZE
 40
100.0
  9
$TRACEWID
 40
1.0
  9
$TEXTSTYLE
  7
STYLE3
  9
$CLAYER
  8
部品1
  9
$CELTYPE
  6
BYLAYER
  9
$CECOLOR
 62
   256
  9
$CELTSCALE
 40
50.0
  9
$DISPSILH
 70
     0
  9
$DIMSCALE
 40
40.0
  9
$DIMASZ
 40
0.5
  9
$DIMEXO
 40
0.5
  9
$DIMDLI
 40
7.0
  9
$DIMRND
 40
0.0
  9
$DIMDLE
 40
0.0
  9
$DIMEXE
 40
1.0
  9
$DIMTP
 40
0.0
  9
$DIMTM
 40
0.0
  9
$DIMTXT
 40
3.0
  9
$DIMCEN
 40
0.0
  9
$DIMTSZ
 40
0.0
  9
$DIMTOL
 70
     0
  9
$DIMLIM
 70
     0
  9
$DIMTIH
 70
     0
  9
$DIMTOH
 70
     0
  9
$DIMSE1
 70
     0
  9
$DIMSE2
 70
     0
  9
$DIMTAD
 70
     3
  9
$DIMZIN
 70
     8
  9
$DIMBLK
  1

  9
$DIMASO
 70
     1
  9
$DIMSHO
 70
     1
  9
$DIMPOST
  1

  9
$DIMAPOST
  1

  9
$DIMALT
 70
     0
  9
$DIMALTD
 70
     2
  9
$DIMALTF
 40
0.0394
  9
$DIMLFAC
 40
1.0
  9
$DIMTOFL
 70
     1
  9
$DIMTVP
 40
0.0
  9
$DIMTIX
 70
     1
  9
$DIMSOXD
 70
     1
  9
$DIMSAH
 70
     1
  9
$DIMBLK1
  1
DOT
  9
$DIMBLK2
  1
DOT
  9
$DIMSTYLE
  2
INABA_S40
  9
$DIMCLRD
 70
     0
  9
$DIMCLRE
 70
     0
  9
$DIMCLRT
 70
     7
  9
$DIMTFAC
 40
1.0
  9
$DIMGAP
 40
0.8
  9
$DIMJUST
 70
     0
  9
$DIMSD1
 70
     0
  9
$DIMSD2
 70
     0
  9
$DIMTOLJ
 70
     1
  9
$DIMTZIN
 70
     0
  9
$DIMALTZ
 70
     0
  9
$DIMALTTZ
 70
     0
  9
$DIMUPT
 70
     0
  9
$DIMDEC
 70
     2
  9
$DIMTDEC
 70
     2
  9
$DIMALTU
 70
     2
  9
$DIMALTTD
 70
     2
  9
$DIMTXSTY
  7
STYLE1
  9
$DIMAUNIT
 70
     0
  9
$DIMADEC
 70
     0
  9
$DIMALTRND
 40
0.0
  9
$DIMAZIN
 70
     0
  9
$DIMDSEP
 70
    46
  9
$DIMATFIT
 70
     3
  9
$DIMFRAC
 70
     0
  9
$DIMLDRBLK
  1

  9
$DIMLUNIT
 70
     2
  9
$DIMLWD
 70
    -2
  9
$DIMLWE
 70
    -2
  9
$DIMTMOVE
 70
     0
  9
$LUNITS
 70
     2
  9
$LUPREC
 70
     1
  9
$SKETCHINC
 40
1.0
  9
$FILLETRAD
 40
5.0
  9
$AUNITS
 70
     0
  9
$AUPREC
 70
     0
  9
$MENU
  1
acad
  9
$ELEVATION
 40
0.0
  9
$PELEVATION
 40
0.0
  9
$THICKNESS
 40
0.0
  9
$LIMCHECK
 70
     0
  9
$CHAMFERA
 40
0.0
  9
$CHAMFERB
 40
0.0
  9
$CHAMFERC
 40
0.0
  9
$CHAMFERD
 40
0.0
  9
$SKPOLY
 70
     0
  9
$TDCREATE
 40
2451590.492424190
  9
$TDUCREATE
 40
2451590.117424190
  9
$TDUPDATE
 40
2455575.701189236
  9
$TDUUPDATE
 40
2455575.326189237
  9
$TDINDWG
 40
0.1842589005
  9
$TDUSRTIMER
 40
0.1842589005
  9
$USRTIMER
 70
     1
  9
$ANGBASE
 50
0.0
  9
$ANGDIR
 70
     0
  9
$PDMODE
 70
     3
  9
$PDSIZE
 40
2.0
  9
$PLINEWID
 40
0.0
  9
$SPLFRAME
 70
     0
  9
$SPLINETYPE
 70
     6
  9
$SPLINESEGS
 70
     8
  9
$HANDSEED
  5
15F51
  9
$SURFTAB1
 70
     6
  9
$SURFTAB2
 70
     6
  9
$SURFTYPE
 70
     6
  9
$SURFU
 70
     6
  9
$SURFV
 70
     6
  9
$UCSBASE
  2

  9
$UCSNAME
  2

  9
$UCSORG
 10
0.0
 20
0.0
 30
0.0
  9
$UCSXDIR
 10
1.0
 20
0.0
 30
0.0
  9
$UCSYDIR
 10
0.0
 20
1.0
 30
0.0
  9
$UCSORTHOREF
  2

  9
$UCSORTHOVIEW
 70
     0
  9
$UCSORGTOP
 10
0.0
 20
0.0
 30
0.0
  9
$UCSORGBOTTOM
 10
0.0
 20
0.0
 30
0.0
  9
$UCSORGLEFT
 10
0.0
 20
0.0
 30
0.0
  9
$UCSORGRIGHT
 10
0.0
 20
0.0
 30
0.0
  9
$UCSORGFRONT
 10
0.0
 20
0.0
 30
0.0
  9
$UCSORGBACK
 10
0.0
 20
0.0
 30
0.0
  9
$PUCSBASE
  2

  9
$PUCSNAME
  2

  9
$PUCSORG
 10
0.0
 20
0.0
 30
0.0
  9
$PUCSXDIR
 10
1.0
 20
0.0
 30
0.0
  9
$PUCSYDIR
 10
0.0
 20
1.0
 30
0.0
  9
$PUCSORTHOREF
  2

  9
$PUCSORTHOVIEW
 70
     0
  9
$PUCSORGTOP
 10
0.0
 20
0.0
 30
0.0
  9
$PUCSORGBOTTOM
 10
0.0
 20
0.0
 30
0.0
  9
$PUCSORGLEFT
 10
0.0
 20
0.0
 30
0.0
  9
$PUCSORGRIGHT
 10
0.0
 20
0.0
 30
0.0
  9
$PUCSORGFRONT
 10
0.0
 20
0.0
 30
0.0
  9
$PUCSORGBACK
 10
0.0
 20
0.0
 30
0.0
  9
$USERI1
 70
     0
  9
$USERI2
 70
     0
  9
$USERI3
 70
     0
  9
$USERI4
 70
     0
  9
$USERI5
 70
     0
  9
$USERR1
 40
0.0
  9
$USERR2
 40
0.0
  9
$USERR3
 40
0.0
  9
$USERR4
 40
0.0
  9
$USERR5
 40
0.0
  9
$WORLDVIEW
 70
     1
  9
$SHADEDGE
 70
     3
  9
$SHADEDIF
 70
    70
  9
$TILEMODE
 70
     1
  9
$MAXACTVP
 70
    16
  9
$PINSBASE
 10
0.0
 20
0.0
 30
0.0
  9
$PLIMCHECK
 70
     0
  9
$PEXTMIN
 10
1.000000000000000E+20
 20
1.000000000000000E+20
 30
1.000000000000000E+20
  9
$PEXTMAX
 10
-1.000000000000000E+20
 20
-1.000000000000000E+20
 30
-1.000000000000000E+20
  9
$PLIMMIN
 10
0.0
 20
0.0
  9
$PLIMMAX
 10
420.0
 20
297.0
  9
$UNITMODE
 70
     0
  9
$VISRETAIN
 70
     0
  9
$PLINEGEN
 70
     0
  9
$PSLTSCALE
 70
     0
  9
$TREEDEPTH
 70
  3020
  9
$CMLSTYLE
  2
STANDARD
  9
$CMLJUST
 70
     0
  9
$CMLSCALE
 40
1.0
  9
$PROXYGRAPHICS
 70
     1
  9
$MEASUREMENT
 70
     1
  9
$CELWEIGHT
370
    -1
  9
$ENDCAPS
280
     0
  9
$JOINSTYLE
280
     0
  9
$LWDISPLAY
290
     0
  9
$INSUNITS
 70
     0
  9
$HYPERLINKBASE
  1

  9
$STYLESHEET
  1

  9
$XEDIT
290
     1
  9
$CEPSNTYPE
380
     0
  9
$PSTYLEMODE
290
     1
  9
$FINGERPRINTGUID
  2
{16157429-F8BC-4D82-B5E4-2E124CC846D7}
  9
$VERSIONGUID
  2
{082BAAE0-DCB0-4222-8C42-541F141803C9}
  9
$EXTNAMES
290
     1
  9
$PSVPSCALE
 40
0.0
  9
$OLESTARTUP
290
     0
  0
ENDSEC
  0
SECTION
  2
CLASSES
  0
CLASS
  1
ACDBDICTIONARYWDFLT
  2
AcDbDictionaryWithDefault
  3
ObjectDBX Classes
 90
        0
280
     0
281
     0
  0
CLASS
  1
DICTIONARYVAR
  2
AcDbDictionaryVar
  3
ObjectDBX Classes
 90
        0
280
     0
281
     0
  0
CLASS
  1
ACDBPLACEHOLDER
  2
AcDbPlaceHolder
  3
ObjectDBX Classes
 90
        0
280
     0
281
     0
  0
CLASS
  1
LAYOUT
  2
AcDbLayout
  3
ObjectDBX Classes
 90
        0
280
     0
281
     0
  0
ENDSEC
  0
SECTION
  2
TABLES
  0
TABLE
  2
VPORT
  5
746D
330
0
100
AcDbSymbolTable
 70
     2
  0
VPORT
  5
15F49
330
746D
100
AcDbSymbolTableRecord
100
AcDbViewportTableRecord
  2
*Active
 70
     0
 10
0.0
 20
0.0
 11
1.0
 21
1.0
 12
8223.761025238502
 22
6348.683291179126
 13
0.0
 23
0.0
 14
10.0
 24
10.0
 15
10.0
 25
10.0
 16
0.0
 26
0.0
 36
1.0
 17
0.0
 27
0.0
 37
0.0
 40
12805.56644836532
 41
1.525925925925925
 42
50.0
 43
0.0
 44
0.0
 50
0.0
 51
0.0
 71
     0
 72
     0
 73
     1
 74
     0
 75
     0
 76
     0
 77
     0
 78
     0
281
     0
 65
     1
110
0.0
120
0.0
130
0.0
111
1.0
121
0.0
131
0.0
112
0.0
122
1.0
132
0.0
 79
     0
146
0.0
  0
ENDTAB
  0
TABLE
  2
LTYPE
  5
746A
330
0
100
AcDbSymbolTable
 70
     4
  0
LTYPE
  5
7477
330
746A
100
AcDbSymbolTableRecord
100
AcDbLinetypeTableRecord
  2
BYBLOCK
 70
     0
  3

 72
    65
 73
     0
 40
0.0
  0
LTYPE
  5
7478
330
746A
100
AcDbSymbolTableRecord
100
AcDbLinetypeTableRecord
  2
BYLAYER
 70
     0
  3

 72
    65
 73
     0
 40
0.0
  0
LTYPE
  5
7479
330
746A
100
AcDbSymbolTableRecord
100
AcDbLinetypeTableRecord
  2
CONTINUOUS
 70
     0
  3
Solid line
 72
    65
 73
     0
 40
0.0
  0
LTYPE
  5
7816
330
746A
100
AcDbSymbolTableRecord
100
AcDbLinetypeTableRecord
  2
CENTER
 70
     0
  3
____ _ ____ _ ____ _ ____ _ ____ _ ____ _ ____ 
 72
    65
 73
     4
 40
2.0
 49
1.25
 74
     0
 49
-0.25
 74
     0
 49
0.25
 74
     0
 49
-0.25
 74
     0
  0
LTYPE
  5
781A
330
746A
100
AcDbSymbolTableRecord
100
AcDbLinetypeTableRecord
  2
HIDDEN
 70
     0
  3
__ __ __ __ __ __ __ __ __ __ __ __ __ __ __ __
 72
    65
 73
     2
 40
0.375
 49
0.25
 74
     0
 49
-0.125
 74
     0
  0
LTYPE
  5
781B
330
746A
100
AcDbSymbolTableRecord
100
AcDbLinetypeTableRecord
  2
PHANTOM
 70
     0
  3
______  __  __  ______  __  __  ______  __  __ 
 72
    65
 73
     6
 40
2.5
 49
1.25
 74
     0
 49
-0.25
 74
     0
 49
0.25
 74
     0
 49
-0.25
 74
     0
 49
0.25
 74
     0
 49
-0.25
 74
     0
  0
ENDTAB
  0
TABLE
  2
LAYER
  5
7467
102
{ACAD_XDICTIONARY
360
133E5
102
}
330
0
100
AcDbSymbolTable
 70
    13
  0
LAYER
  5
7474
330
7467
100
AcDbSymbolTableRecord
100
AcDbLayerTableRecord
  2
0
 70
     0
 62
     7
  6
CONTINUOUS
370
    -3
390
13267
  0
LAYER
  5
DEB2
330
7467
100
AcDbSymbolTableRecord
100
AcDbLayerTableRecord
  2
センター
 70
     0
 62
     3
  6
CENTER
370
    -3
390
13267
  0
LAYER
  5
DEB3
330
7467
100
AcDbSymbolTableRecord
100
AcDbLayerTableRecord
  2
寸法
 70
     0
 62
     4
  6
CONTINUOUS
370
    -3
390
13267
  0
LAYER
  5
DEB4
330
7467
100
AcDbSymbolTableRecord
100
AcDbLayerTableRecord
  2
部品1
 70
     0
 62
     7
  6
CONTINUOUS
370
    -3
390
13267
  0
LAYER
  5
DEB5
330
7467
100
AcDbSymbolTableRecord
100
AcDbLayerTableRecord
  2
補助
 70
     0
 62
    -1
  6
CONTINUOUS
370
    -3
390
13267
  0
LAYER
  5
DEB6
330
7467
100
AcDbSymbolTableRecord
100
AcDbLayerTableRecord
  2
文字
 70
     0
 62
     7
  6
CONTINUOUS
370
    -3
390
13267
  0
LAYER
  5
F255
330
7467
100
AcDbSymbolTableRecord
100
AcDbLayerTableRecord
  2
DEFPOINTS
 70
     0
 62
     7
  6
CONTINUOUS
290
     0
370
    -3
390
13267
  0
LAYER
  5
10B54
330
7467
100
AcDbSymbolTableRecord
100
AcDbLayerTableRecord
  2
仕様書枠
 70
     0
 62
   230
  6
CONTINUOUS
370
    -3
390
13267
  0
LAYER
  5
11729
330
7467
100
AcDbSymbolTableRecord
100
AcDbLayerTableRecord
  2
Ｇ．Ｌ
 70
     0
 62
    30
  6
CONTINUOUS
370
    -3
390
13267
  0
LAYER
  5
1173F
330
7467
100
AcDbSymbolTableRecord
100
AcDbLayerTableRecord
  2
細線
 70
     0
 62
     5
  6
CONTINUOUS
370
    -3
390
13267
  0
LAYER
  5
11740
330
7467
100
AcDbSymbolTableRecord
100
AcDbLayerTableRecord
  2
点線
 70
     0
 62
     2
  6
HIDDEN
370
    -3
390
13267
  0
LAYER
  5
11905
330
7467
100
AcDbSymbolTableRecord
100
AcDbLayerTableRecord
  2
破線
 70
     0
 62
     2
  6
HIDDEN
370
    -3
390
13267
  0
LAYER
  5
1316A
330
7467
100
AcDbSymbolTableRecord
100
AcDbLayerTableRecord
  2
想像線
 70
     0
 62
     6
  6
PHANTOM
370
    -3
390
13267
  0
ENDTAB
  0
TABLE
  2
STYLE
  5
7468
330
0
100
AcDbSymbolTable
 70
     7
  0
STYLE
  5
7475
330
7468
100
AcDbSymbolTableRecord
100
AcDbTextStyleTableRecord
  2
STANDARD
 70
     0
 40
0.0
 41
1.0
 50
0.0
 71
     0
 42
4.0
  3
txt
  4
C:\AutoCAD LT\bigfont.shx
  0
STYLE
  5
763C
330
7468
100
AcDbSymbolTableRecord
100
AcDbTextStyleTableRecord
  2
MSMINCHO
 70
     0
 40
0.0
 41
1.0
 50
0.0
 71
     0
 42
1.199999999999999
  3
C:\AutoCAD LT\msminch2.TTF
  4

  0
STYLE
  5
F5E9
330
7468
100
AcDbSymbolTableRecord
100
AcDbTextStyleTableRecord
  2

 70
     1
 40
0.0
 41
1.0
 50
0.0
 71
     0
 42
4.0
  3
ltypeshp.shx
  4

  0
STYLE
  5
F706
330
7468
100
AcDbSymbolTableRecord
100
AcDbTextStyleTableRecord
  2
STYLE1
 70
     0
 40
0.0
 41
1.0
 50
0.0
 71
     0
 42
4.0
  3
isocp.shx
  4
bigfont.shx
  0
STYLE
  5
103BF
330
7468
100
AcDbSymbolTableRecord
100
AcDbTextStyleTableRecord
  2
STYLE2
 70
     0
 40
0.0
 41
1.0
 50
0.0
 71
     0
 42
100.0
  3
MS PGothic.ttf
  4

1001
ACAD
1000
MS PGothic
1071
    32818
  0
STYLE
  5
10BAA
330
7468
100
AcDbSymbolTableRecord
100
AcDbTextStyleTableRecord
  2
STYLE3
 70
     0
 40
0.0
 41
1.0
 50
0.0
 71
     0
 42
100.0
  3

  4

1001
ACAD
1000
DFPGothic-EB
1071
    32818
  0
STYLE
  5
11906
330
7468
100
AcDbSymbolTableRecord
100
AcDbTextStyleTableRecord
  2
MSGOTHIC
 70
     0
 40
0.0
 41
1.0
 50
0.0
 71
     0
 42
3.5
  3
msgothi2.ttf
  4

  0
ENDTAB
  0
TABLE
  2
VIEW
  5
746B
330
0
100
AcDbSymbolTable
 70
     0
  0
ENDTAB
  0
TABLE
  2
UCS
  5
746C
330
0
100
AcDbSymbolTable
 70
     0
  0
ENDTAB
  0
TABLE
  2
APPID
  5
746E
330
0
100
AcDbSymbolTable
 70
     6
  0
APPID
  5
7476
330
746E
100
AcDbSymbolTableRecord
100
AcDbRegAppTableRecord
  2
ACAD
 70
     0
  0
APPID
  5
DEA9
330
746E
100
AcDbSymbolTableRecord
100
AcDbRegAppTableRecord
  2
CONTENTBLOCKICON
 70
     0
  0
APPID
  5
DEAA
330
746E
100
AcDbSymbolTableRecord
100
AcDbRegAppTableRecord
  2
CONTENTBLOCKDESCRIPTION
 70
     0
  0
APPID
  5
E71D
330
746E
100
AcDbSymbolTableRecord
100
AcDbRegAppTableRecord
  2
CONTENTTABDATA
 70
     0
  0
APPID
  5
E71E
330
746E
100
AcDbSymbolTableRecord
100
AcDbRegAppTableRecord
  2
CONTENTCURRENTTAB
 70
     0
  0
APPID
  5
F3BA
330
746E
100
AcDbSymbolTableRecord
100
AcDbRegAppTableRecord
  2
DRAWINGVARIABLESXDATA
 70
     0
  0
ENDTAB
  0
TABLE
  2
DIMSTYLE
  5
746F
330
0
100
AcDbSymbolTable
 70
     6
100
AcDbDimStyleTable
 71
     1
340
F236
  0
DIMSTYLE
105
7484
330
746F
100
AcDbSymbolTableRecord
100
AcDbDimStyleTableRecord
  2
JIS
 70
     0
 41
2.5
 42
1.0
 43
7.0
 44
1.0
 73
     0
 74
     0
 77
     1
 78
     8
140
2.5
141
0.0
143
0.0394
147
0.0
172
     1
174
     1
175
     1
340
7475
  0
DIMSTYLE
105
F236
102
{ACAD_REACTORS
330
136E4
330
13950
330
1395A
330
1398A
330
1399C
330
1399D
330
139BC
330
139BD
330
139BE
330
139BF
330
139C0
330
15811
330
15AD7
330
15BD3
330
15BF8
102
}
330
746F
100
AcDbSymbolTableRecord
100
AcDbDimStyleTableRecord
  2
INABA_S40
 70
     0
 40
40.0
 41
2.5
 42
0.5
 43
7.0
 44
1.5
 73
     0
 74
     0
 77
     3
 78
     8
140
3.0
141
0.0
143
0.0394
147
1.0
172
     1
173
     1
174
     1
175
     1
178
     7
289
     0
340
7475
  0
DIMSTYLE
105
F71F
102
{ACAD_REACTORS
330
136E7
330
136E8
330
136E9
330
13719
330
1371D
330
1371E
330
1371F
330
1372D
330
1373C
330
1386C
330
1387B
330
1387C
330
1387D
330
15AD8
102
}
330
746F
100
AcDbSymbolTableRecord
100
AcDbDimStyleTableRecord
  2
INABA_S40G
 70
     0
 40
40.0
 41
2.5
 42
0.5
 43
7.0
 44
1.5
 73
     0
 74
     0
 77
     3
 78
     8
140
3.0
141
0.0
143
0.0394
147
1.0
172
     1
173
     1
174
     1
175
     1
178
     7
271
     1
340
F706
341
F770
343
F770
344
F770
  0
DIMSTYLE
105
11907
330
746F
100
AcDbSymbolTableRecord
100
AcDbDimStyleTableRecord
  2
INABA_S50
 70
     0
 40
50.0
 41
0.5
 42
0.5
 43
7.0
 44
1.0
 73
     0
 74
     0
 77
     3
 78
     8
140
2.5
141
0.0
143
0.0394
147
0.8
172
     1
173
     1
174
     1
175
     1
178
     7
271
     2
272
     2
289
     0
340
7475
341
F744
343
F744
344
F744
  0
DIMSTYLE
105
11908
330
746F
100
AcDbSymbolTableRecord
100
AcDbDimStyleTableRecord
  2
INABA_S50G
 70
     0
 41
125.0
 42
25.0
 43
7.0
 44
75.0
 73
     0
 74
     0
 77
     3
 78
     8
140
150.0
141
0.0
143
0.0394
147
25.0
172
     1
173
     1
174
     1
175
     1
178
     7
271
     1
340
F706
341
F770
343
F770
344
F770
  0
DIMSTYLE
105
15EE0
330
746F
100
AcDbSymbolTableRecord
100
AcDbDimStyleTableRecord
  2
INABA_S20G
 70
     0
 40
20.0
 41
2.5
 42
0.5
 43
7.0
 44
1.5
 73
     0
 74
     0
 77
     3
 78
     8
140
3.0
141
0.0
143
0.0394
147
1.0
172
     1
173
     1
174
     1
178
     7
271
     1
340
F706
341
F770
343
F770
344
F770
  0
ENDTAB
  0
TABLE
  2
BLOCK_RECORD
  5
7466
330
0
100
AcDbSymbolTable
 70
    33
  0
BLOCK_RECORD
  5
747D
330
7466
100
AcDbSymbolTableRecord
100
AcDbBlockTableRecord
  2
*MODEL_SPACE
340
1326C
  0
BLOCK_RECORD
  5
747A
330
7466
100
AcDbSymbolTableRecord
100
AcDbBlockTableRecord
  2
*PAPER_SPACE
340
1326D
  0
BLOCK_RECORD
  5
ECB3
330
7466
100
AcDbSymbolTableRecord
100
AcDbBlockTableRecord
  2
作図枠S50
340
0
310
2800000020000000200000000100040000000000000200000000000000000000000000000000000000000000000080000080000000808000800000008000800080800000C0C0C000808080000000FF0000FF000000FFFF00FF000000FF00FF00FFFF0000FFFFFF00FFFFFFFFFFFFFFFFFFFFFFFFFFFFFFFFFFFFFFFFFFFFFF
310
FFFFFFFFFFFFFFFFFFFFFFFFFFFFFFFFFFFFFFFFFFFFFFFFFFFFFFFFFFFFFFFFFFFFFFFFFFFFFFFFFFFFFFFFFFFFFFFFFFFFFFFFFFFFFFFFFFFFFFFFFFFFFFFFFFFFFFFFFFFFFFFFFF999999999999999999999999999999999FFFFFFFFFFFFFFFFFFFFFFFFFFFFFF99FFFFFFFFFFFFFFFFFFFFFFFFFFFFFF99FFFFFFFFFFF
310
FFFFFFFFFFFFFFFFFFF99FFFFFFFFFFFFFFFFFFFFFFFFFFFFFF99FFFFFFFFFFFFFFFFFFFFFFFFFFFFFF99FFFFFFFFFFFFFFFFFFFFFFFFFFFFFF99FFFFFFFFFFFFFFFFFFFFFFFFFFFFFF99FFFFFFFFFFFFFFFFFFFFFFFFFFFFFF99FFFFFFFFFFFFFFFFFFFFFFFFFFFFFF99FFFFFFFFFFFFFFFFFFFFFFFFFFFFFF99FFFFFFFFF
310
FFFFFFFFFFFFFFFFFFFFF99FFFFFFFFFFFFFFFFFFFFFFFFFFFFFF99FFFFFFFFFFFFFFFFFFFFFFFFFFFFFF99FFFFFFFFFFFFFFFFFFFFFFFFFFFFFF99FFFFFFFFFFFFFFFFFFFFFFFFFFFFFF99FFFFFFFFFFFFFFFFFFFFFFFFFFFFFF99FFFFFFFFFFFFFFFFFFFFFFFFFFFFFF99FFFFFFFFFFFFFFFFFFFFF99999999999FFFFFFF
310
FFFFFFFFFFFFFF9FFFFFFFFF99999999999999999999999FFFFFFFFFFFFFFFFFFFFFFFFFFFFFFFFFFFFFFFFFFFFFFFFFFFFFFFFFFFFFFFFFFFFFFFFFFFFFFFFFFFFFFFFFFFFFFFFFFFFFFFFFFFFFFFFFFFFFFFFFFFFFFFFFFFFFFFFFFFFFFFFFFFFFFFFFFFFFFFFFFFFFFFFF
102
{BLKREFS
331
F235
102
}
  0
BLOCK_RECORD
  5
F744
330
7466
100
AcDbSymbolTableRecord
100
AcDbBlockTableRecord
  2
_DOT
340
0
102
{BLKREFS
331
140F8
331
140F9
331
15E11
331
15E12
331
15E1A
331
15E1B
331
15E2E
331
15E2F
331
15E37
331
15E38
331
15E42
331
15E43
331
15E4B
331
15E4C
331
15E56
331
15E57
331
15E5F
331
15E60
331
15E6A
331
15E6B
331
15E73
331
15E74
331
15E7C
331
15E7D
331
15E87
331
15E88
331
15E90
331
15E91
331
15E99
331
15E9A
102
}
  0
BLOCK_RECORD
  5
F770
330
7466
100
AcDbSymbolTableRecord
100
AcDbBlockTableRecord
  2
_DOTSMALL
340
0
102
{BLKREFS
331
14079
331
1407A
331
14084
331
14085
331
1408D
331
1408E
331
14098
331
14099
331
140A2
331
140A3
331
140AC
331
140AD
331
140B5
331
140B6
331
140C0
331
140C1
331
140C9
331
140CA
331
140D4
331
140D5
331
140DD
331
140DE
331
140E6
331
140E7
331
140EF
331
140F0
331
15E23
331
15E24
102
}
  0
BLOCK_RECORD
  5
139D7
330
7466
100
AcDbSymbolTableRecord
100
AcDbBlockTableRecord
  2
*D3
340
0
  0
BLOCK_RECORD
  5
139E3
330
7466
100
AcDbSymbolTableRecord
100
AcDbBlockTableRecord
  2
*D4
340
0
  0
BLOCK_RECORD
  5
139EF
330
7466
100
AcDbSymbolTableRecord
100
AcDbBlockTableRecord
  2
*D5
340
0
  0
BLOCK_RECORD
  5
139FB
330
7466
100
AcDbSymbolTableRecord
100
AcDbBlockTableRecord
  2
*D6
340
0
  0
BLOCK_RECORD
  5
13A07
330
7466
100
AcDbSymbolTableRecord
100
AcDbBlockTableRecord
  2
*D7
340
0
  0
BLOCK_RECORD
  5
13A15
330
7466
100
AcDbSymbolTableRecord
100
AcDbBlockTableRecord
  2
*D8
340
0
  0
BLOCK_RECORD
  5
13A21
330
7466
100
AcDbSymbolTableRecord
100
AcDbBlockTableRecord
  2
*D9
340
0
  0
BLOCK_RECORD
  5
13A2F
330
7466
100
AcDbSymbolTableRecord
100
AcDbBlockTableRecord
  2
*D10
340
0
  0
BLOCK_RECORD
  5
13A3B
330
7466
100
AcDbSymbolTableRecord
100
AcDbBlockTableRecord
  2
*D11
340
0
  0
BLOCK_RECORD
  5
13A48
330
7466
100
AcDbSymbolTableRecord
100
AcDbBlockTableRecord
  2
*D12
340
0
  0
BLOCK_RECORD
  5
13A55
330
7466
100
AcDbSymbolTableRecord
100
AcDbBlockTableRecord
  2
*D13
340
0
  0
BLOCK_RECORD
  5
13A63
330
7466
100
AcDbSymbolTableRecord
100
AcDbBlockTableRecord
  2
*D14
340
0
  0
BLOCK_RECORD
  5
13A6F
330
7466
100
AcDbSymbolTableRecord
100
AcDbBlockTableRecord
  2
*D15
340
0
  0
BLOCK_RECORD
  5
13A7D
330
7466
100
AcDbSymbolTableRecord
100
AcDbBlockTableRecord
  2
*D16
340
0
  0
BLOCK_RECORD
  5
13AA3
330
7466
100
AcDbSymbolTableRecord
100
AcDbBlockTableRecord
  2
*D17
340
0
  0
BLOCK_RECORD
  5
13AAF
330
7466
100
AcDbSymbolTableRecord
100
AcDbBlockTableRecord
  2
*D18
340
0
  0
BLOCK_RECORD
  5
13AC7
330
7466
100
AcDbSymbolTableRecord
100
AcDbBlockTableRecord
  2
*D19
340
0
  0
BLOCK_RECORD
  5
13AE1
330
7466
100
AcDbSymbolTableRecord
100
AcDbBlockTableRecord
  2
*D20
340
0
  0
BLOCK_RECORD
  5
13AED
330
7466
100
AcDbSymbolTableRecord
100
AcDbBlockTableRecord
  2
*D21
340
0
  0
BLOCK_RECORD
  5
13AF9
330
7466
100
AcDbSymbolTableRecord
100
AcDbBlockTableRecord
  2
*D22
340
0
  0
BLOCK_RECORD
  5
13B07
330
7466
100
AcDbSymbolTableRecord
100
AcDbBlockTableRecord
  2
*D23
340
0
  0
BLOCK_RECORD
  5
13B13
330
7466
100
AcDbSymbolTableRecord
100
AcDbBlockTableRecord
  2
*D24
340
0
  0
BLOCK_RECORD
  5
13B21
330
7466
100
AcDbSymbolTableRecord
100
AcDbBlockTableRecord
  2
*D25
340
0
  0
BLOCK_RECORD
  5
13B2D
330
7466
100
AcDbSymbolTableRecord
100
AcDbBlockTableRecord
  2
*D26
340
0
  0
BLOCK_RECORD
  5
141BB
330
7466
100
AcDbSymbolTableRecord
100
AcDbBlockTableRecord
  2
_OPEN
340
0
  0
BLOCK_RECORD
  5
1587C
330
7466
100
AcDbSymbolTableRecord
100
AcDbBlockTableRecord
  2
*D28
340
0
  0
BLOCK_RECORD
  5
15C08
330
7466
100
AcDbSymbolTableRecord
100
AcDbBlockTableRecord
  2
*D29
340
0
  0
BLOCK_RECORD
  5
15C16
330
7466
100
AcDbSymbolTableRecord
100
AcDbBlockTableRecord
  2
*D30
340
0
  0
BLOCK_RECORD
  5
15C46
330
7466
100
AcDbSymbolTableRecord
100
AcDbBlockTableRecord
  2
*D31
340
0
  0
BLOCK_RECORD
  5
15C60
330
7466
100
AcDbSymbolTableRecord
100
AcDbBlockTableRecord
  2
*D32
340
0
  0
ENDTAB
  0
ENDSEC
  0
SECTION
  2
BLOCKS
  0
BLOCK
  5
7489
330
747D
100
AcDbEntity
  8
0
100
AcDbBlockBegin
  2
*MODEL_SPACE
 70
     0
 10
0.0
 20
0.0
 30
0.0
  3
*MODEL_SPACE
  1

  0
ENDBLK
  5
748A
330
747D
100
AcDbEntity
  8
0
100
AcDbBlockEnd
  0
BLOCK
  5
7487
330
747A
100
AcDbEntity
 67
     1
  8
0
100
AcDbBlockBegin
  2
*PAPER_SPACE
 70
     0
 10
0.0
 20
0.0
 30
0.0
  3
*PAPER_SPACE
  1

  0
ENDBLK
  5
7488
330
747A
100
AcDbEntity
 67
     1
  8
0
100
AcDbBlockEnd
  0
BLOCK
  5
ECB4
330
ECB3
100
AcDbEntity
  8
0
100
AcDbBlockBegin
  2
作図枠S50
 70
     0
 10
0.0
 20
0.0
 30
0.0
  3
作図枠S50
  1

  4
作図領域枠 縮尺 1/50
  0
LINE
  5
ECB5
330
ECB3
100
AcDbEntity
  8
補助
100
AcDbLine
 10
14364.0
 20
14262.0
 30
0.0
 11
174.9999999999993
 21
14262.0
 31
0.0
  0
LINE
  5
ECB6
330
ECB3
100
AcDbEntity
  8
補助
100
AcDbLine
 10
174.9999999999993
 20
14262.0
 30
0.0
 11
174.9999999999993
 21
1520.0
 31
0.0
  0
LINE
  5
ECB7
330
ECB3
100
AcDbEntity
  8
補助
100
AcDbLine
 10
174.9999999999993
 20
1520.0
 30
0.0
 11
20384.0
 21
1520.0
 31
0.0
  0
LINE
  5
ECB8
330
ECB3
100
AcDbEntity
  8
補助
100
AcDbLine
 10
20384.0
 20
1520.0
 30
0.0
 11
20384.0
 21
13042.0
 31
0.0
  0
LINE
  5
ECB9
330
ECB3
100
AcDbEntity
  8
補助
100
AcDbLine
 10
20384.0
 20
13042.0
 30
0.0
 11
14364.0
 21
13042.0
 31
0.0
  0
LINE
  5
ECBA
330
ECB3
100
AcDbEntity
  8
補助
100
AcDbLine
 10
14364.0
 20
13042.0
 30
0.0
 11
14364.0
 21
14262.0
 31
0.0
  0
ENDBLK
  5
ECBB
330
ECB3
100
AcDbEntity
  8
0
100
AcDbBlockEnd
  0
BLOCK
  5
F745
330
F744
100
AcDbEntity
  8
0
 48
50.0
100
AcDbBlockBegin
  2
_DOT
 70
     0
 10
0.0
 20
0.0
 30
0.0
  3
_DOT
  1

  0
LWPOLYLINE
  5
F746
330
F744
100
AcDbEntity
  8
0
  6
ByBlock
 62
     0
 48
50.0
100
AcDbPolyline
 90
        2
 70
     1
 43
0.5
 10
-0.25
 20
0.0
 42
1.0
 10
0.25
 20
0.0
 42
1.0
  0
LINE
  5
F74A
330
F744
100
AcDbEntity
  8
0
  6
ByBlock
 62
     0
 48
50.0
100
AcDbLine
 10
-0.5
 20
0.0
 30
0.0
 11
-1.0
 21
0.0
 31
0.0
  0
ENDBLK
  5
F74B
330
F744
100
AcDbEntity
  8
0
 48
50.0
100
AcDbBlockEnd
  0
BLOCK
  5
F771
330
F770
100
AcDbEntity
  8
0
 48
50.0
100
AcDbBlockBegin
  2
_DOTSMALL
 70
     0
 10
0.0
 20
0.0
 30
0.0
  3
_DOTSMALL
  1

  0
LWPOLYLINE
  5
F772
330
F770
100
AcDbEntity
  8
0
  6
ByBlock
 62
     0
 48
50.0
100
AcDbPolyline
 90
        2
 70
     1
 43
0.5
 10
-0.0625
 20
0.0
 42
1.0
 10
0.0625
 20
0.0
 42
1.0
  0
ENDBLK
  5
F776
330
F770
100
AcDbEntity
  8
0
 48
50.0
100
AcDbBlockEnd
  0
BLOCK
  5
139E1
330
139D7
100
AcDbEntity
  8
0
 48
50.0
100
AcDbBlockBegin
  2
*D3
 70
     1
 10
0.0
 20
0.0
 30
0.0
  3
*D3
  1

  0
LINE
  5
140F5
330
139D7
100
AcDbEntity
  8
寸法
 62
     0
 48
50.0
370
    -2
100
AcDbLine
 10
10938.25880607256
 20
4105.417148464483
 30
0.0
 11
10450.35016467531
 21
4105.417148464483
 31
0.0
  0
LINE
  5
140F6
330
139D7
100
AcDbEntity
  8
寸法
 62
     0
 48
50.0
370
    -2
100
AcDbLine
 10
10938.25880607256
 20
2080.417148464483
 30
0.0
 11
10450.3501646753
 21
2080.417148464483
 31
0.0
  0
LINE
  5
140F7
330
139D7
100
AcDbEntity
  8
寸法
 62
     0
 48
50.0
370
    -2
100
AcDbLine
 10
10490.3501646753
 20
4085.417148464483
 30
0.0
 11
10490.3501646753
 21
2100.417148464483
 31
0.0
  0
INSERT
  5
140F8
330
139D7
100
AcDbEntity
  8
寸法
 62
     0
 48
50.0
370
    -2
100
AcDbBlockReference
  2
_DOT
 10
10490.35016467531
 20
4105.417148464483
 30
0.0
 41
20.0
 42
20.0
 43
20.0
 50
90.0
  0
INSERT
  5
140F9
330
139D7
100
AcDbEntity
  8
寸法
 62
     0
 48
50.0
370
    -2
100
AcDbBlockReference
  2
_DOT
 10
10490.3501646753
 20
2080.417148464483
 30
0.0
 41
20.0
 42
20.0
 43
20.0
 50
270.0
  0
MTEXT
  5
140FA
330
139D7
100
AcDbEntity
  8
寸法
 62
     7
 48
50.0
100
AcDbMText
 10
10398.33835365168
 20
3092.917148464485
 30
0.0
 40
120.0
 41
0.0
 71
     5
 72
     1
  1
\A1;有効開口部高サ2025
  7
STYLE1
 11
0.0000000000000001
 21
1.0
 31
0.0
 73
     1
 44
1.0
1001
ACAD
1000
MTEXTBEGIN
1070
    73
1070
     1
1070
    44
1040
1.0
1070
    74
1070
     0
1000
MTEXTEND
  0
POINT
  5
140FB
330
139D7
100
AcDbEntity
  8
DEFPOINTS
 62
     0
 48
50.0
100
AcDbPoint
 10
10958.25880607256
 20
4105.417148464483
 30
0.0
  0
POINT
  5
140FC
330
139D7
100
AcDbEntity
  8
DEFPOINTS
 62
     0
 48
50.0
100
AcDbPoint
 10
10958.25880607256
 20
2080.417148464483
 30
0.0
  0
POINT
  5
140FD
330
139D7
100
AcDbEntity
  8
DEFPOINTS
 62
     0
 48
50.0
100
AcDbPoint
 10
10490.3501646753
 20
2080.417148464483
 30
0.0
  0
ENDBLK
  5
139E2
330
139D7
100
AcDbEntity
  8
0
 48
50.0
100
AcDbBlockEnd
  0
BLOCK
  5
139ED
330
139E3
100
AcDbEntity
  8
0
 48
50.0
100
AcDbBlockBegin
  2
*D4
 70
     1
 10
0.0
 20
0.0
 30
0.0
  3
*D4
  1

  0
LINE
  5
140EC
330
139E3
100
AcDbEntity
  8
寸法
 62
     0
 48
50.0
370
    -2
100
AcDbLine
 10
11015.25880607256
 20
4154.417148464479
 30
0.0
 11
10131.5086768893
 21
4154.417148464481
 31
0.0
  0
LINE
  5
140ED
330
139E3
100
AcDbEntity
  8
寸法
 62
     0
 48
50.0
370
    -2
100
AcDbLine
 10
11015.25880607256
 20
2064.417148464479
 30
0.0
 11
10131.5086768893
 21
2064.417148464479
 31
0.0
  0
LINE
  5
140EE
330
139E3
100
AcDbEntity
  8
寸法
 62
     0
 48
50.0
370
    -2
100
AcDbLine
 10
10191.5086768893
 20
4154.417148464481
 30
0.0
 11
10191.5086768893
 21
2064.417148464479
 31
0.0
  0
INSERT
  5
140EF
330
139E3
100
AcDbEntity
  8
寸法
 62
     0
 48
50.0
370
    -2
100
AcDbBlockReference
  2
_DOTSMALL
 10
10191.5086768893
 20
4154.417148464481
 30
0.0
 41
100.0
 42
100.0
 43
100.0
 50
90.0
  0
INSERT
  5
140F0
330
139E3
100
AcDbEntity
  8
寸法
 62
     0
 48
50.0
370
    -2
100
AcDbBlockReference
  2
_DOTSMALL
 10
10191.5086768893
 20
2064.417148464479
 30
0.0
 41
100.0
 42
100.0
 43
100.0
 50
270.0
  0
MTEXT
  5
140F1
330
139E3
100
AcDbEntity
  8
寸法
 62
     7
 48
50.0
100
AcDbMText
 10
10091.49686586568
 20
3109.417148464481
 30
0.0
 40
120.0
 41
0.0
 71
     5
 72
     1
  1
\A1;2090
  7
STYLE1
 11
0.0000000000000001
 21
1.0
 31
0.0
 73
     1
 44
1.0
1001
ACAD
1000
MTEXTBEGIN
1070
    73
1070
     1
1070
    44
1040
1.0
1070
    74
1070
     0
1000
MTEXTEND
  0
POINT
  5
140F2
330
139E3
100
AcDbEntity
  8
DEFPOINTS
 62
     0
 48
50.0
100
AcDbPoint
 10
11035.25880607256
 20
4154.417148464479
 30
0.0
  0
POINT
  5
140F3
330
139E3
100
AcDbEntity
  8
DEFPOINTS
 62
     0
 48
50.0
100
AcDbPoint
 10
11035.25880607256
 20
2064.417148464479
 30
0.0
  0
POINT
  5
140F4
330
139E3
100
AcDbEntity
  8
DEFPOINTS
 62
     0
 48
50.0
100
AcDbPoint
 10
10191.5086768893
 20
2064.417148464479
 30
0.0
  0
ENDBLK
  5
139EE
330
139E3
100
AcDbEntity
  8
0
 48
50.0
100
AcDbBlockEnd
  0
BLOCK
  5
139F9
330
139EF
100
AcDbEntity
  8
0
 48
50.0
100
AcDbBlockBegin
  2
*D5
 70
     1
 10
0.0
 20
0.0
 30
0.0
  3
*D5
  1

  0
LINE
  5
140E3
330
139EF
100
AcDbEntity
  8
寸法
 62
     0
 48
50.0
370
    -2
100
AcDbLine
 10
10938.25880607256
 20
2014.417148464479
 30
0.0
 11
9831.508676889303
 21
2014.417148464479
 31
0.0
  0
LINE
  5
140E4
330
139EF
100
AcDbEntity
  8
寸法
 62
     0
 48
50.0
370
    -2
100
AcDbLine
 10
10955.25880607256
 20
4389.417148464483
 30
0.0
 11
9831.508676889304
 21
4389.417148464484
 31
0.0
  0
LINE
  5
140E5
330
139EF
100
AcDbEntity
  8
寸法
 62
     0
 48
50.0
370
    -2
100
AcDbLine
 10
9891.508676889301
 20
2014.417148464479
 30
0.0
 11
9891.508676889303
 21
4389.417148464484
 31
0.0
  0
INSERT
  5
140E6
330
139EF
100
AcDbEntity
  8
寸法
 62
     0
 48
50.0
370
    -2
100
AcDbBlockReference
  2
_DOTSMALL
 10
9891.508676889301
 20
2014.417148464479
 30
0.0
 41
100.0
 42
100.0
 43
100.0
 50
270.0
  0
INSERT
  5
140E7
330
139EF
100
AcDbEntity
  8
寸法
 62
     0
 48
50.0
370
    -2
100
AcDbBlockReference
  2
_DOTSMALL
 10
9891.508676889303
 20
4389.417148464484
 30
0.0
 41
100.0
 42
100.0
 43
100.0
 50
90.0
  0
MTEXT
  5
140E8
330
139EF
100
AcDbEntity
  8
寸法
 62
     7
 48
50.0
100
AcDbMText
 10
9791.496865865681
 20
3201.917148464483
 30
0.0
 40
120.0
 41
0.0
 71
     5
 72
     1
  1
\A1;2375
  7
STYLE1
 11
0.0000000000000001
 21
1.0
 31
0.0
 73
     1
 44
1.0
1001
ACAD
1000
MTEXTBEGIN
1070
    73
1070
     1
1070
    44
1040
1.0
1070
    74
1070
     0
1000
MTEXTEND
  0
POINT
  5
140E9
330
139EF
100
AcDbEntity
  8
DEFPOINTS
 62
     0
 48
50.0
100
AcDbPoint
 10
10958.25880607256
 20
2014.417148464479
 30
0.0
  0
POINT
  5
140EA
330
139EF
100
AcDbEntity
  8
DEFPOINTS
 62
     0
 48
50.0
100
AcDbPoint
 10
10975.25880607256
 20
4389.417148464483
 30
0.0
  0
POINT
  5
140EB
330
139EF
100
AcDbEntity
  8
DEFPOINTS
 62
     0
 48
50.0
100
AcDbPoint
 10
9891.508676889303
 20
4389.417148464484
 30
0.0
  0
ENDBLK
  5
139FA
330
139EF
100
AcDbEntity
  8
0
 48
50.0
100
AcDbBlockEnd
  0
BLOCK
  5
13A05
330
139FB
100
AcDbEntity
  8
0
 48
50.0
100
AcDbBlockBegin
  2
*D6
 70
     1
 10
0.0
 20
0.0
 30
0.0
  3
*D6
  1

  0
LINE
  5
140DA
330
139FB
100
AcDbEntity
  8
寸法
 62
     0
 48
50.0
370
    -2
100
AcDbLine
 10
14525.25880607256
 20
2014.417148464485
 30
0.0
 11
15270.18596404469
 21
2014.417148464485
 31
0.0
  0
LINE
  5
140DB
330
139FB
100
AcDbEntity
  8
寸法
 62
     0
 48
50.0
370
    -2
100
AcDbLine
 10
14605.25880607256
 20
4334.417148464484
 30
0.0
 11
15270.18596404469
 21
4334.417148464484
 31
0.0
  0
LINE
  5
140DC
330
139FB
100
AcDbEntity
  8
寸法
 62
     0
 48
50.0
370
    -2
100
AcDbLine
 10
15210.18596404469
 20
2014.417148464485
 30
0.0
 11
15210.18596404469
 21
4334.417148464484
 31
0.0
  0
INSERT
  5
140DD
330
139FB
100
AcDbEntity
  8
寸法
 62
     0
 48
50.0
370
    -2
100
AcDbBlockReference
  2
_DOTSMALL
 10
15210.18596404469
 20
2014.417148464485
 30
0.0
 41
100.0
 42
100.0
 43
100.0
 50
270.0
  0
INSERT
  5
140DE
330
139FB
100
AcDbEntity
  8
寸法
 62
     0
 48
50.0
370
    -2
100
AcDbBlockReference
  2
_DOTSMALL
 10
15210.18596404469
 20
4334.417148464484
 30
0.0
 41
100.0
 42
100.0
 43
100.0
 50
90.0
  0
MTEXT
  5
140DF
330
139FB
100
AcDbEntity
  8
寸法
 62
     7
 48
50.0
100
AcDbMText
 10
15110.17415302107
 20
3174.417148464488
 30
0.0
 40
120.0
 41
0.0
 71
     5
 72
     1
  1
\A1;2320
  7
STYLE1
 11
0.0000000000000001
 21
1.0
 31
0.0
 73
     1
 44
1.0
1001
ACAD
1000
MTEXTBEGIN
1070
    73
1070
     1
1070
    44
1040
1.0
1070
    74
1070
     0
1000
MTEXTEND
  0
POINT
  5
140E0
330
139FB
100
AcDbEntity
  8
DEFPOINTS
 62
     0
 48
50.0
100
AcDbPoint
 10
14505.25880607256
 20
2014.417148464485
 30
0.0
  0
POINT
  5
140E1
330
139FB
100
AcDbEntity
  8
DEFPOINTS
 62
     0
 48
50.0
100
AcDbPoint
 10
14585.25880607256
 20
4334.417148464484
 30
0.0
  0
POINT
  5
140E2
330
139FB
100
AcDbEntity
  8
DEFPOINTS
 62
     0
 48
50.0
100
AcDbPoint
 10
15210.18596404469
 20
4334.417148464484
 30
0.0
  0
ENDBLK
  5
13A06
330
139FB
100
AcDbEntity
  8
0
 48
50.0
100
AcDbBlockEnd
  0
BLOCK
  5
13A13
330
13A07
100
AcDbEntity
  8
0
 48
50.0
100
AcDbBlockBegin
  2
*D7
 70
     1
 10
0.0
 20
0.0
 30
0.0
  3
*D7
  1

  0
LINE
  5
140CF
330
13A07
100
AcDbEntity
  8
寸法
 62
     0
 48
50.0
370
    -2
100
AcDbLine
 10
11015.25880607256
 20
2064.417148464483
 30
0.0
 11
10131.5086768893
 21
2064.417148464483
 31
0.0
  0
LINE
  5
140D0
330
13A07
100
AcDbEntity
  8
寸法
 62
     0
 48
50.0
370
    -2
100
AcDbLine
 10
10938.25880607256
 20
2014.417148464479
 30
0.0
 11
10131.5086768893
 21
2014.417148464479
 31
0.0
  0
LINE
  5
140D1
330
13A07
100
AcDbEntity
  8
寸法
 62
     0
 48
50.0
370
    -2
100
AcDbLine
 10
10191.5086768893
 20
2064.417148464483
 30
0.0
 11
10191.5086768893
 21
2164.417148464483
 31
0.0
  0
LINE
  5
140D2
330
13A07
100
AcDbEntity
  8
寸法
 62
     0
 48
50.0
370
    -2
100
AcDbLine
 10
10191.5086768893
 20
2014.417148464479
 30
0.0
 11
10191.5086768893
 21
1602.322660275498
 31
0.0
  0
LINE
  5
140D3
330
13A07
100
AcDbEntity
  8
寸法
 62
     0
 48
50.0
370
    -2
100
AcDbLine
 10
10191.5086768893
 20
2064.417148464483
 30
0.0
 11
10191.5086768893
 21
2014.417148464479
 31
0.0
  0
INSERT
  5
140D4
330
13A07
100
AcDbEntity
  8
寸法
 62
     0
 48
50.0
370
    -2
100
AcDbBlockReference
  2
_DOTSMALL
 10
10191.5086768893
 20
2064.417148464483
 30
0.0
 41
100.0
 42
100.0
 43
100.0
 50
270.0
  0
INSERT
  5
140D5
330
13A07
100
AcDbEntity
  8
寸法
 62
     0
 48
50.0
370
    -2
100
AcDbBlockReference
  2
_DOTSMALL
 10
10191.5086768893
 20
2014.417148464479
 30
0.0
 41
100.0
 42
100.0
 43
100.0
 50
90.0
  0
MTEXT
  5
140D6
330
13A07
100
AcDbEntity
  8
寸法
 62
     7
 48
50.0
100
AcDbMText
 10
10091.5086768893
 20
1708.369904369988
 30
0.0
 40
120.0
 41
0.0
 71
     5
 72
     1
  1
\A1;50
  7
STYLE1
 11
0.0000000000000001
 21
1.0
 31
0.0
 73
     1
 44
1.0
1001
ACAD
1000
MTEXTBEGIN
1070
    73
1070
     1
1070
    44
1040
1.0
1070
    74
1070
     0
1000
MTEXTEND
  0
POINT
  5
140D7
330
13A07
100
AcDbEntity
  8
DEFPOINTS
 62
     0
 48
50.0
100
AcDbPoint
 10
11035.25880607256
 20
2064.417148464483
 30
0.0
  0
POINT
  5
140D8
330
13A07
100
AcDbEntity
  8
DEFPOINTS
 62
     0
 48
50.0
100
AcDbPoint
 10
10958.25880607256
 20
2014.417148464479
 30
0.0
  0
POINT
  5
140D9
330
13A07
100
AcDbEntity
  8
DEFPOINTS
 62
     0
 48
50.0
100
AcDbPoint
 10
10191.5086768893
 20
2014.417148464479
 30
0.0
  0
ENDBLK
  5
13A14
330
13A07
100
AcDbEntity
  8
0
 48
50.0
100
AcDbBlockEnd
  0
BLOCK
  5
13A1F
330
13A15
100
AcDbEntity
  8
0
 48
50.0
100
AcDbBlockBegin
  2
*D8
 70
     1
 10
0.0
 20
0.0
 30
0.0
  3
*D8
  1

  0
LINE
  5
140C6
330
13A15
100
AcDbEntity
  8
寸法
 62
     0
 48
50.0
370
    -2
100
AcDbLine
 10
14505.25880607256
 20
4356.227828076138
 30
0.0
 11
14505.25880607256
 21
4848.074602043789
 31
0.0
  0
LINE
  5
140C7
330
13A15
100
AcDbEntity
  8
寸法
 62
     0
 48
50.0
370
    -2
100
AcDbLine
 10
11035.25880607256
 20
4405.41876658746
 30
0.0
 11
11035.25880607256
 21
4848.074602043789
 31
0.0
  0
LINE
  5
140C8
330
13A15
100
AcDbEntity
  8
寸法
 62
     0
 48
50.0
370
    -2
100
AcDbLine
 10
14505.25880607256
 20
4788.074602043788
 30
0.0
 11
11035.25880607256
 21
4788.074602043788
 31
0.0
  0
INSERT
  5
140C9
330
13A15
100
AcDbEntity
  8
寸法
 62
     0
 48
50.0
370
    -2
100
AcDbBlockReference
  2
_DOTSMALL
 10
14505.25880607256
 20
4788.074602043788
 30
0.0
 41
100.0
 42
100.0
 43
100.0
  0
INSERT
  5
140CA
330
13A15
100
AcDbEntity
  8
寸法
 62
     0
 48
50.0
370
    -2
100
AcDbBlockReference
  2
_DOTSMALL
 10
11035.25880607256
 20
4788.074602043788
 30
0.0
 41
100.0
 42
100.0
 43
100.0
 50
180.0
  0
MTEXT
  5
140CB
330
13A15
100
AcDbEntity
  8
寸法
 62
     7
 48
50.0
100
AcDbMText
 10
12770.25880607256
 20
4888.074602043789
 30
0.0
 40
120.0
 41
0.0
 71
     5
 72
     1
  1
\A1;柱外寸法3470
  7
STYLE1
 73
     1
 44
1.0
1001
ACAD
1000
MTEXTBEGIN
1070
    73
1070
     1
1070
    44
1040
1.0
1070
    74
1070
     0
1000
MTEXTEND
  0
POINT
  5
140CC
330
13A15
100
AcDbEntity
  8
DEFPOINTS
 62
     0
 48
50.0
100
AcDbPoint
 10
14505.25880607256
 20
4336.227828076139
 30
0.0
  0
POINT
  5
140CD
330
13A15
100
AcDbEntity
  8
DEFPOINTS
 62
     0
 48
50.0
100
AcDbPoint
 10
11035.25880607256
 20
4385.418766587459
 30
0.0
  0
POINT
  5
140CE
330
13A15
100
AcDbEntity
  8
DEFPOINTS
 62
     0
 48
50.0
100
AcDbPoint
 10
11035.25880607256
 20
4788.074602043788
 30
0.0
  0
ENDBLK
  5
13A20
330
13A15
100
AcDbEntity
  8
0
 48
50.0
100
AcDbBlockEnd
  0
BLOCK
  5
13A2D
330
13A21
100
AcDbEntity
  8
0
 48
50.0
100
AcDbBlockBegin
  2
*D9
 70
     1
 10
0.0
 20
0.0
 30
0.0
  3
*D9
  1

  0
LINE
  5
140BB
330
13A21
100
AcDbEntity
  8
寸法
 62
     0
 48
50.0
370
    -2
100
AcDbLine
 10
11035.25880607256
 20
4405.41876658746
 30
0.0
 11
11035.25880607256
 21
4848.074602043787
 31
0.0
  0
LINE
  5
140BC
330
13A21
100
AcDbEntity
  8
寸法
 62
     0
 48
50.0
370
    -2
100
AcDbLine
 10
10975.25880607256
 20
4409.417148464487
 30
0.0
 11
10975.25880607256
 21
4848.074602043787
 31
0.0
  0
LINE
  5
140BD
330
13A21
100
AcDbEntity
  8
寸法
 62
     0
 48
50.0
370
    -2
100
AcDbLine
 10
11035.25880607256
 20
4788.074602043788
 30
0.0
 11
11135.25880607256
 21
4788.074602043788
 31
0.0
  0
LINE
  5
140BE
330
13A21
100
AcDbEntity
  8
寸法
 62
     0
 48
50.0
370
    -2
100
AcDbLine
 10
10975.25880607256
 20
4788.074602043788
 30
0.0
 11
10555.98321552138
 21
4788.074602043788
 31
0.0
  0
LINE
  5
140BF
330
13A21
100
AcDbEntity
  8
寸法
 62
     0
 48
50.0
370
    -2
100
AcDbLine
 10
11035.25880607256
 20
4788.074602043788
 30
0.0
 11
10975.25880607256
 21
4788.074602043788
 31
0.0
  0
INSERT
  5
140C0
330
13A21
100
AcDbEntity
  8
寸法
 62
     0
 48
50.0
370
    -2
100
AcDbBlockReference
  2
_DOTSMALL
 10
11035.25880607256
 20
4788.074602043788
 30
0.0
 41
100.0
 42
100.0
 43
100.0
 50
180.0
  0
INSERT
  5
140C1
330
13A21
100
AcDbEntity
  8
寸法
 62
     0
 48
50.0
370
    -2
100
AcDbBlockReference
  2
_DOTSMALL
 10
10975.25880607256
 20
4788.074602043788
 30
0.0
 41
100.0
 42
100.0
 43
100.0
  0
MTEXT
  5
140C2
330
13A21
100
AcDbEntity
  8
寸法
 62
     7
 48
50.0
100
AcDbMText
 10
10665.62101079697
 20
4888.074602043787
 30
0.0
 40
120.0
 41
0.0
 71
     5
 72
     1
  1
\A1;60
  7
STYLE1
 73
     1
 44
1.0
1001
ACAD
1000
MTEXTBEGIN
1070
    73
1070
     1
1070
    44
1040
1.0
1070
    74
1070
     0
1000
MTEXTEND
  0
POINT
  5
140C3
330
13A21
100
AcDbEntity
  8
DEFPOINTS
 62
     0
 48
50.0
100
AcDbPoint
 10
11035.25880607256
 20
4385.418766587459
 30
0.0
  0
POINT
  5
140C4
330
13A21
100
AcDbEntity
  8
DEFPOINTS
 62
     0
 48
50.0
100
AcDbPoint
 10
10975.25880607256
 20
4389.417148464487
 30
0.0
  0
POINT
  5
140C5
330
13A21
100
AcDbEntity
  8
DEFPOINTS
 62
     0
 48
50.0
100
AcDbPoint
 10
10975.25880607256
 20
4788.074602043788
 30
0.0
  0
ENDBLK
  5
13A2E
330
13A21
100
AcDbEntity
  8
0
 48
50.0
100
AcDbBlockEnd
  0
BLOCK
  5
13A39
330
13A2F
100
AcDbEntity
  8
0
 48
50.0
100
AcDbBlockBegin
  2
*D10
 70
     1
 10
0.0
 20
0.0
 30
0.0
  3
*D10
  1

  0
LINE
  5
140B2
330
13A2F
100
AcDbEntity
  8
寸法
 62
     0
 48
50.0
370
    -2
100
AcDbLine
 10
14585.25880607256
 20
4354.417148464484
 30
0.0
 11
14585.25880607256
 21
5078.188194830065
 31
0.0
  0
LINE
  5
140B3
330
13A2F
100
AcDbEntity
  8
寸法
 62
     0
 48
50.0
370
    -2
100
AcDbLine
 10
10975.25880607256
 20
4409.417148464487
 30
0.0
 11
10975.25880607256
 21
5078.188194830065
 31
0.0
  0
LINE
  5
140B4
330
13A2F
100
AcDbEntity
  8
寸法
 62
     0
 48
50.0
370
    -2
100
AcDbLine
 10
14585.25880607256
 20
5018.188194830066
 30
0.0
 11
10975.25880607256
 21
5018.188194830066
 31
0.0
  0
INSERT
  5
140B5
330
13A2F
100
AcDbEntity
  8
寸法
 62
     0
 48
50.0
370
    -2
100
AcDbBlockReference
  2
_DOTSMALL
 10
14585.25880607256
 20
5018.188194830066
 30
0.0
 41
100.0
 42
100.0
 43
100.0
  0
INSERT
  5
140B6
330
13A2F
100
AcDbEntity
  8
寸法
 62
     0
 48
50.0
370
    -2
100
AcDbBlockReference
  2
_DOTSMALL
 10
10975.25880607256
 20
5018.188194830066
 30
0.0
 41
100.0
 42
100.0
 43
100.0
 50
180.0
  0
MTEXT
  5
140B7
330
13A2F
100
AcDbEntity
  8
寸法
 62
     7
 48
50.0
100
AcDbMText
 10
12780.25880607256
 20
5118.188194830065
 30
0.0
 40
120.0
 41
0.0
 71
     5
 72
     1
  1
\A1;3610
  7
STYLE1
 73
     1
 44
1.0
1001
ACAD
1000
MTEXTBEGIN
1070
    73
1070
     1
1070
    44
1040
1.0
1070
    74
1070
     0
1000
MTEXTEND
  0
POINT
  5
140B8
330
13A2F
100
AcDbEntity
  8
DEFPOINTS
 62
     0
 48
50.0
100
AcDbPoint
 10
14585.25880607256
 20
4334.417148464484
 30
0.0
  0
POINT
  5
140B9
330
13A2F
100
AcDbEntity
  8
DEFPOINTS
 62
     0
 48
50.0
100
AcDbPoint
 10
10975.25880607256
 20
4389.417148464487
 30
0.0
  0
POINT
  5
140BA
330
13A2F
100
AcDbEntity
  8
DEFPOINTS
 62
     0
 48
50.0
100
AcDbPoint
 10
10975.25880607256
 20
5018.188194830066
 30
0.0
  0
ENDBLK
  5
13A3A
330
13A2F
100
AcDbEntity
  8
0
 48
50.0
100
AcDbBlockEnd
  0
BLOCK
  5
13A46
330
13A3B
100
AcDbEntity
  8
0
 48
50.0
100
AcDbBlockBegin
  2
*D11
 70
     1
 10
0.0
 20
0.0
 30
0.0
  3
*D11
  1

  0
LINE
  5
140A8
330
13A3B
100
AcDbEntity
  8
寸法
 62
     0
 48
50.0
370
    -2
100
AcDbLine
 10
14505.25880607256
 20
4356.227828076138
 30
0.0
 11
14505.25880607256
 21
4848.074602043789
 31
0.0
  0
LINE
  5
140A9
330
13A3B
100
AcDbEntity
  8
寸法
 62
     0
 48
50.0
370
    -2
100
AcDbLine
 10
14585.25880607256
 20
4354.417148464487
 30
0.0
 11
14585.25880607256
 21
4848.074602043789
 31
0.0
  0
LINE
  5
140AA
330
13A3B
100
AcDbEntity
  8
寸法
 62
     0
 48
50.0
370
    -2
100
AcDbLine
 10
14505.25880607256
 20
4788.074602043788
 30
0.0
 11
14585.25880607256
 21
4788.074602043788
 31
0.0
  0
LINE
  5
140AB
330
13A3B
100
AcDbEntity
  8
寸法
 62
     0
 48
50.0
370
    -2
100
AcDbLine
 10
14585.25880607256
 20
4788.074602043788
 30
0.0
 11
14897.35329426154
 21
4788.074602043788
 31
0.0
  0
INSERT
  5
140AC
330
13A3B
100
AcDbEntity
  8
寸法
 62
     0
 48
50.0
370
    -2
100
AcDbBlockReference
  2
_DOTSMALL
 10
14505.25880607256
 20
4788.074602043788
 30
0.0
 41
100.0
 42
100.0
 43
100.0
 50
180.0
  0
INSERT
  5
140AD
330
13A3B
100
AcDbEntity
  8
寸法
 62
     0
 48
50.0
370
    -2
100
AcDbBlockReference
  2
_DOTSMALL
 10
14585.25880607256
 20
4788.074602043788
 30
0.0
 41
100.0
 42
100.0
 43
100.0
  0
MTEXT
  5
140AE
330
13A3B
100
AcDbEntity
  8
寸法
 62
     7
 48
50.0
100
AcDbMText
 10
14791.30605016705
 20
4888.074602043789
 30
0.0
 40
120.0
 41
0.0
 71
     5
 72
     1
  1
\A1;80
  7
STYLE1
 73
     1
 44
1.0
1001
ACAD
1000
MTEXTBEGIN
1070
    73
1070
     1
1070
    44
1040
1.0
1070
    74
1070
     0
1000
MTEXTEND
  0
POINT
  5
140AF
330
13A3B
100
AcDbEntity
  8
DEFPOINTS
 62
     0
 48
50.0
100
AcDbPoint
 10
14505.25880607256
 20
4336.227828076139
 30
0.0
  0
POINT
  5
140B0
330
13A3B
100
AcDbEntity
  8
DEFPOINTS
 62
     0
 48
50.0
100
AcDbPoint
 10
14585.25880607256
 20
4334.417148464487
 30
0.0
  0
POINT
  5
140B1
330
13A3B
100
AcDbEntity
  8
DEFPOINTS
 62
     0
 48
50.0
100
AcDbPoint
 10
14585.25880607256
 20
4788.074602043788
 30
0.0
  0
ENDBLK
  5
13A47
330
13A3B
100
AcDbEntity
  8
0
 48
50.0
100
AcDbBlockEnd
  0
BLOCK
  5
13A53
330
13A48
100
AcDbEntity
  8
0
 48
50.0
100
AcDbBlockBegin
  2
*D12
 70
     1
 10
0.0
 20
0.0
 30
0.0
  3
*D12
  1

  0
LINE
  5
1409E
330
13A48
100
AcDbEntity
  8
寸法
 62
     0
 48
50.0
370
    -2
100
AcDbLine
 10
10974.66309236366
 20
4388.714855534145
 30
0.0
 11
10358.72865325838
 21
4406.429005808474
 31
0.0
  0
LINE
  5
1409F
330
13A48
100
AcDbEntity
  8
寸法
 62
     0
 48
50.0
370
    -2
100
AcDbLine
 10
10970.60963680704
 20
4247.773131768432
 30
0.0
 11
10354.67519770176
 21
4265.487282042761
 31
0.0
  0
LINE
  5
140A0
330
13A48
100
AcDbEntity
  8
寸法
 62
     0
 48
50.0
370
    -2
100
AcDbLine
 10
10414.65039930419
 20
4263.762407337814
 30
0.0
 11
10418.70385486081
 21
4404.704131103527
 31
0.0
  0
LINE
  5
140A1
330
13A48
100
AcDbEntity
  8
寸法
 62
     0
 48
50.0
370
    -2
100
AcDbLine
 10
10418.70385486081
 20
4404.704131103527
 30
0.0
 11
10429.0531030905
 21
4764.555340718112
 31
0.0
  0
INSERT
  5
140A2
330
13A48
100
AcDbEntity
  8
寸法
 62
     0
 48
50.0
370
    -2
100
AcDbBlockReference
  2
_DOTSMALL
 10
10414.65039930419
 20
4263.762407337814
 30
0.0
 41
100.0
 42
100.0
 43
100.0
 50
268.3526390256378
  0
INSERT
  5
140A3
330
13A48
100
AcDbEntity
  8
寸法
 62
     0
 48
50.0
370
    -2
100
AcDbBlockReference
  2
_DOTSMALL
 10
10418.70385486081
 20
4404.704131103527
 30
0.0
 41
100.0
 42
100.0
 43
100.0
 50
88.35263902563776
  0
MTEXT
  5
140A4
330
13A48
100
AcDbEntity
  8
寸法
 62
     7
 48
50.0
100
AcDbMText
 10
10325.35720522573
 20
4637.483861754424
 30
0.0
 40
120.0
 41
0.0
 71
     5
 72
     1
  1
\A1;141
  7
STYLE1
 11
0.0287479117491237
 21
0.9995866933738488
 31
0.0
 73
     1
 44
1.0
1001
ACAD
1000
MTEXTBEGIN
1070
    73
1070
     1
1070
    44
1040
1.0
1070
    74
1070
     0
1000
MTEXTEND
  0
POINT
  5
140A5
330
13A48
100
AcDbEntity
  8
DEFPOINTS
 62
     0
 48
50.0
100
AcDbPoint
 10
10994.65482623114
 20
4388.139897299161
 30
0.0
  0
POINT
  5
140A6
330
13A48
100
AcDbEntity
  8
DEFPOINTS
 62
     0
 48
50.0
100
AcDbPoint
 10
10990.60137067451
 20
4247.198173533449
 30
0.0
  0
POINT
  5
140A7
330
13A48
100
AcDbEntity
  8
DEFPOINTS
 62
     0
 48
50.0
100
AcDbPoint
 10
10414.65039930419
 20
4263.762407337814
 30
0.0
  0
ENDBLK
  5
13A54
330
13A48
100
AcDbEntity
  8
0
 48
50.0
100
AcDbBlockEnd
  0
BLOCK
  5
13A61
330
13A55
100
AcDbEntity
  8
0
 48
50.0
100
AcDbBlockBegin
  2
*D13
 70
     1
 10
0.0
 20
0.0
 30
0.0
  3
*D13
  1

  0
LINE
  5
14093
330
13A55
100
AcDbEntity
  8
寸法
 62
     0
 48
50.0
370
    -2
100
AcDbLine
 10
3578.904397928898
 20
4409.41714846449
 30
0.0
 11
3578.904397928898
 21
4661.958733722729
 31
0.0
  0
LINE
  5
14094
330
13A55
100
AcDbEntity
  8
寸法
 62
     0
 48
50.0
370
    -2
100
AcDbLine
 10
3528.904397928898
 20
4409.417148464489
 30
0.0
 11
3528.904397928898
 21
4661.958733722729
 31
0.0
  0
LINE
  5
14095
330
13A55
100
AcDbEntity
  8
寸法
 62
     0
 48
50.0
370
    -2
100
AcDbLine
 10
3578.904397928898
 20
4601.958733722728
 30
0.0
 11
3678.904397928898
 21
4601.958733722728
 31
0.0
  0
LINE
  5
14096
330
13A55
100
AcDbEntity
  8
寸法
 62
     0
 48
50.0
370
    -2
100
AcDbLine
 10
3528.904397928898
 20
4601.958733722728
 30
0.0
 11
3109.371872460163
 21
4601.958733722728
 31
0.0
  0
LINE
  5
14097
330
13A55
100
AcDbEntity
  8
寸法
 62
     0
 48
50.0
370
    -2
100
AcDbLine
 10
3578.904397928898
 20
4601.958733722728
 30
0.0
 11
3528.904397928898
 21
4601.958733722728
 31
0.0
  0
INSERT
  5
14098
330
13A55
100
AcDbEntity
  8
寸法
 62
     0
 48
50.0
370
    -2
100
AcDbBlockReference
  2
_DOTSMALL
 10
3578.904397928898
 20
4601.958733722728
 30
0.0
 41
100.0
 42
100.0
 43
100.0
 50
180.0
  0
INSERT
  5
14099
330
13A55
100
AcDbEntity
  8
寸法
 62
     0
 48
50.0
370
    -2
100
AcDbBlockReference
  2
_DOTSMALL
 10
3528.904397928898
 20
4601.958733722728
 30
0.0
 41
100.0
 42
100.0
 43
100.0
  0
MTEXT
  5
1409A
330
13A55
100
AcDbEntity
  8
寸法
 62
     7
 48
50.0
100
AcDbMText
 10
3215.419116554651
 20
4701.958733722729
 30
0.0
 40
120.0
 41
0.0
 71
     5
 72
     1
  1
\A1;50
  7
STYLE1
 73
     1
 44
1.0
1001
ACAD
1000
MTEXTBEGIN
1070
    73
1070
     1
1070
    44
1040
1.0
1070
    74
1070
     0
1000
MTEXTEND
  0
POINT
  5
1409B
330
13A55
100
AcDbEntity
  8
DEFPOINTS
 62
     0
 48
50.0
100
AcDbPoint
 10
3578.904397928898
 20
4389.417148464491
 30
0.0
  0
POINT
  5
1409C
330
13A55
100
AcDbEntity
  8
DEFPOINTS
 62
     0
 48
50.0
100
AcDbPoint
 10
3528.904397928898
 20
4389.417148464489
 30
0.0
  0
POINT
  5
1409D
330
13A55
100
AcDbEntity
  8
DEFPOINTS
 62
     0
 48
50.0
100
AcDbPoint
 10
3528.904397928898
 20
4601.958733722728
 30
0.0
  0
ENDBLK
  5
13A62
330
13A55
100
AcDbEntity
  8
0
 48
50.0
100
AcDbBlockEnd
  0
BLOCK
  5
13A6D
330
13A63
100
AcDbEntity
  8
0
 48
50.0
100
AcDbBlockBegin
  2
*D14
 70
     1
 10
0.0
 20
0.0
 30
0.0
  3
*D14
  1

  0
LINE
  5
1408A
330
13A63
100
AcDbEntity
  8
寸法
 62
     0
 48
50.0
370
    -2
100
AcDbLine
 10
3528.904397928898
 20
4409.417148464489
 30
0.0
 11
3528.904397928898
 21
4882.864034196476
 31
0.0
  0
LINE
  5
1408B
330
13A63
100
AcDbEntity
  8
寸法
 62
     0
 48
50.0
370
    -2
100
AcDbLine
 10
8048.904397928902
 20
4409.417148464484
 30
0.0
 11
8048.904397928902
 21
4882.864034196476
 31
0.0
  0
LINE
  5
1408C
330
13A63
100
AcDbEntity
  8
寸法
 62
     0
 48
50.0
370
    -2
100
AcDbLine
 10
3528.904397928898
 20
4822.864034196476
 30
0.0
 11
8048.904397928902
 21
4822.864034196476
 31
0.0
  0
INSERT
  5
1408D
330
13A63
100
AcDbEntity
  8
寸法
 62
     0
 48
50.0
370
    -2
100
AcDbBlockReference
  2
_DOTSMALL
 10
3528.904397928898
 20
4822.864034196476
 30
0.0
 41
100.0
 42
100.0
 43
100.0
 50
180.0
  0
INSERT
  5
1408E
330
13A63
100
AcDbEntity
  8
寸法
 62
     0
 48
50.0
370
    -2
100
AcDbBlockReference
  2
_DOTSMALL
 10
8048.904397928902
 20
4822.864034196476
 30
0.0
 41
100.0
 42
100.0
 43
100.0
  0
MTEXT
  5
1408F
330
13A63
100
AcDbEntity
  8
寸法
 62
     7
 48
50.0
100
AcDbMText
 10
5788.904397928899
 20
4922.875845220098
 30
0.0
 40
120.0
 41
0.0
 71
     5
 72
     1
  1
\A1;4520
  7
STYLE1
 73
     1
 44
1.0
1001
ACAD
1000
MTEXTBEGIN
1070
    73
1070
     1
1070
    44
1040
1.0
1070
    74
1070
     0
1000
MTEXTEND
  0
POINT
  5
14090
330
13A63
100
AcDbEntity
  8
DEFPOINTS
 62
     0
 48
50.0
100
AcDbPoint
 10
3528.904397928898
 20
4389.417148464489
 30
0.0
  0
POINT
  5
14091
330
13A63
100
AcDbEntity
  8
DEFPOINTS
 62
     0
 48
50.0
100
AcDbPoint
 10
8048.904397928902
 20
4389.417148464485
 30
0.0
  0
POINT
  5
14092
330
13A63
100
AcDbEntity
  8
DEFPOINTS
 62
     0
 48
50.0
100
AcDbPoint
 10
8048.904397928902
 20
4822.864034196476
 30
0.0
  0
ENDBLK
  5
13A6E
330
13A63
100
AcDbEntity
  8
0
 48
50.0
100
AcDbBlockEnd
  0
BLOCK
  5
13A7B
330
13A6F
100
AcDbEntity
  8
0
 48
50.0
100
AcDbBlockBegin
  2
*D15
 70
     1
 10
0.0
 20
0.0
 30
0.0
  3
*D15
  1

  0
LINE
  5
1407F
330
13A6F
100
AcDbEntity
  8
寸法
 62
     0
 48
50.0
370
    -2
100
AcDbLine
 10
8048.904397928902
 20
4409.417148464484
 30
0.0
 11
8048.904397928902
 21
4661.958733722726
 31
0.0
  0
LINE
  5
14080
330
13A6F
100
AcDbEntity
  8
寸法
 62
     0
 48
50.0
370
    -2
100
AcDbLine
 10
7998.904397928902
 20
4409.417148464487
 30
0.0
 11
7998.904397928902
 21
4661.958733722726
 31
0.0
  0
LINE
  5
14081
330
13A6F
100
AcDbEntity
  8
寸法
 62
     0
 48
50.0
370
    -2
100
AcDbLine
 10
7998.904397928902
 20
4601.958733722725
 30
0.0
 11
7898.904397928902
 21
4601.958733722725
 31
0.0
  0
LINE
  5
14082
330
13A6F
100
AcDbEntity
  8
寸法
 62
     0
 48
50.0
370
    -2
100
AcDbLine
 10
8048.904397928902
 20
4601.958733722725
 30
0.0
 11
8468.436923397625
 21
4601.958733722725
 31
0.0
  0
LINE
  5
14083
330
13A6F
100
AcDbEntity
  8
寸法
 62
     0
 48
50.0
370
    -2
100
AcDbLine
 10
7998.904397928902
 20
4601.958733722725
 30
0.0
 11
8048.904397928902
 21
4601.958733722725
 31
0.0
  0
INSERT
  5
14084
330
13A6F
100
AcDbEntity
  8
寸法
 62
     0
 48
50.0
370
    -2
100
AcDbBlockReference
  2
_DOTSMALL
 10
7998.904397928902
 20
4601.958733722725
 30
0.0
 41
100.0
 42
100.0
 43
100.0
  0
INSERT
  5
14085
330
13A6F
100
AcDbEntity
  8
寸法
 62
     0
 48
50.0
370
    -2
100
AcDbBlockReference
  2
_DOTSMALL
 10
8048.904397928902
 20
4601.958733722725
 30
0.0
 41
100.0
 42
100.0
 43
100.0
 50
180.0
  0
MTEXT
  5
14086
330
13A6F
100
AcDbEntity
  8
寸法
 62
     7
 48
50.0
100
AcDbMText
 10
8362.389679303138
 20
4701.958733722725
 30
0.0
 40
120.0
 41
0.0
 71
     5
 72
     1
  1
\A1;50
  7
STYLE1
 73
     1
 44
1.0
1001
ACAD
1000
MTEXTBEGIN
1070
    73
1070
     1
1070
    44
1040
1.0
1070
    74
1070
     0
1000
MTEXTEND
  0
POINT
  5
14087
330
13A6F
100
AcDbEntity
  8
DEFPOINTS
 62
     0
 48
50.0
100
AcDbPoint
 10
8048.904397928902
 20
4389.417148464485
 30
0.0
  0
POINT
  5
14088
330
13A6F
100
AcDbEntity
  8
DEFPOINTS
 62
     0
 48
50.0
100
AcDbPoint
 10
7998.904397928902
 20
4389.417148464486
 30
0.0
  0
POINT
  5
14089
330
13A6F
100
AcDbEntity
  8
DEFPOINTS
 62
     0
 48
50.0
100
AcDbPoint
 10
7998.904397928902
 20
4601.958733722725
 30
0.0
  0
ENDBLK
  5
13A7C
330
13A6F
100
AcDbEntity
  8
0
 48
50.0
100
AcDbBlockEnd
  0
BLOCK
  5
13A87
330
13A7D
100
AcDbEntity
  8
0
 48
50.0
100
AcDbBlockBegin
  2
*D16
 70
     1
 10
0.0
 20
0.0
 30
0.0
  3
*D16
  1

  0
LINE
  5
14076
330
13A7D
100
AcDbEntity
  8
寸法
 62
     0
 48
50.0
370
    -2
100
AcDbLine
 10
7998.904397928902
 20
4409.417148464487
 30
0.0
 11
7998.904397928902
 21
4661.958733722726
 31
0.0
  0
LINE
  5
14077
330
13A7D
100
AcDbEntity
  8
寸法
 62
     0
 48
50.0
370
    -2
100
AcDbLine
 10
3578.904397928898
 20
4409.41714846449
 30
0.0
 11
3578.904397928898
 21
4661.958733722726
 31
0.0
  0
LINE
  5
14078
330
13A7D
100
AcDbEntity
  8
寸法
 62
     0
 48
50.0
370
    -2
100
AcDbLine
 10
7998.904397928902
 20
4601.958733722727
 30
0.0
 11
3578.904397928898
 21
4601.958733722727
 31
0.0
  0
INSERT
  5
14079
330
13A7D
100
AcDbEntity
  8
寸法
 62
     0
 48
50.0
370
    -2
100
AcDbBlockReference
  2
_DOTSMALL
 10
7998.904397928902
 20
4601.958733722727
 30
0.0
 41
100.0
 42
100.0
 43
100.0
  0
INSERT
  5
1407A
330
13A7D
100
AcDbEntity
  8
寸法
 62
     0
 48
50.0
370
    -2
100
AcDbBlockReference
  2
_DOTSMALL
 10
3578.904397928898
 20
4601.958733722727
 30
0.0
 41
100.0
 42
100.0
 43
100.0
 50
180.0
  0
MTEXT
  5
1407B
330
13A7D
100
AcDbEntity
  8
寸法
 62
     7
 48
50.0
100
AcDbMText
 10
5788.904397928899
 20
4701.970544746348
 30
0.0
 40
120.0
 41
0.0
 71
     5
 72
     1
  1
\A1;柱外寸法4420
  7
STYLE1
 73
     1
 44
1.0
1001
ACAD
1000
MTEXTBEGIN
1070
    73
1070
     1
1070
    44
1040
1.0
1070
    74
1070
     0
1000
MTEXTEND
  0
POINT
  5
1407C
330
13A7D
100
AcDbEntity
  8
DEFPOINTS
 62
     0
 48
50.0
100
AcDbPoint
 10
7998.904397928902
 20
4389.417148464486
 30
0.0
  0
POINT
  5
1407D
330
13A7D
100
AcDbEntity
  8
DEFPOINTS
 62
     0
 48
50.0
100
AcDbPoint
 10
3578.904397928898
 20
4389.417148464491
 30
0.0
  0
POINT
  5
1407E
330
13A7D
100
AcDbEntity
  8
DEFPOINTS
 62
     0
 48
50.0
100
AcDbPoint
 10
3578.904397928898
 20
4601.958733722727
 30
0.0
  0
ENDBLK
  5
13A88
330
13A7D
100
AcDbEntity
  8
0
 48
50.0
100
AcDbBlockEnd
  0
BLOCK
  5
13AAD
330
13AA3
100
AcDbEntity
  8
0
 48
50.0
100
AcDbBlockBegin
  2
*D17
 70
     1
 10
0.0
 20
0.0
 30
0.0
  3
*D17
  1

  0
LINE
  5
15E96
330
13AA3
100
AcDbEntity
  8
寸法
 62
     0
 48
50.0
370
    -2
100
AcDbLine
 10
5733.904397928898
 20
10440.74740836285
 30
0.0
 11
5733.904397928898
 21
10835.45981838164
 31
0.0
  0
LINE
  5
15E97
330
13AA3
100
AcDbEntity
  8
寸法
 62
     0
 48
50.0
370
    -2
100
AcDbLine
 10
5843.904397928898
 20
10440.74740836285
 30
0.0
 11
5843.904397928898
 21
10835.45981838164
 31
0.0
  0
LINE
  5
15E98
330
13AA3
100
AcDbEntity
  8
寸法
 62
     0
 48
50.0
370
    -2
100
AcDbLine
 10
5753.904397928899
 20
10795.45981838164
 30
0.0
 11
5823.904397928898
 21
10795.45981838164
 31
0.0
  0
INSERT
  5
15E99
330
13AA3
100
AcDbEntity
  8
寸法
 62
     0
 48
50.0
370
    -2
100
AcDbBlockReference
  2
_DOT
 10
5733.904397928898
 20
10795.45981838164
 30
0.0
 41
20.0
 42
20.0
 43
20.0
 50
180.0
  0
INSERT
  5
15E9A
330
13AA3
100
AcDbEntity
  8
寸法
 62
     0
 48
50.0
370
    -2
100
AcDbBlockReference
  2
_DOT
 10
5843.904397928898
 20
10795.45981838164
 30
0.0
 41
20.0
 42
20.0
 43
20.0
  0
MTEXT
  5
15E9B
330
13AA3
100
AcDbEntity
  8
寸法
 62
     7
 48
50.0
100
AcDbMText
 10
5788.904397928899
 20
10887.45981838164
 30
0.0
 40
120.0
 41
0.0
 71
     5
 72
     1
  1
\A1;110
  7
STYLE1
 73
     1
 44
1.0
1001
ACAD
1000
MTEXTBEGIN
1070
    73
1070
     1
1070
    44
1040
1.0
1070
    74
1070
     0
1000
MTEXTEND
  0
POINT
  5
15E9C
330
13AA3
100
AcDbEntity
  8
DEFPOINTS
 62
     0
 48
50.0
100
AcDbPoint
 10
5733.904397928898
 20
10420.74740836285
 30
0.0
  0
POINT
  5
15E9D
330
13AA3
100
AcDbEntity
  8
DEFPOINTS
 62
     0
 48
50.0
100
AcDbPoint
 10
5843.904397928898
 20
10420.74740836285
 30
0.0
  0
POINT
  5
15E9E
330
13AA3
100
AcDbEntity
  8
DEFPOINTS
 62
     0
 48
50.0
100
AcDbPoint
 10
5843.904397928898
 20
10795.45981838164
 30
0.0
  0
ENDBLK
  5
13AAE
330
13AA3
100
AcDbEntity
  8
0
 48
50.0
100
AcDbBlockEnd
  0
BLOCK
  5
13AB9
330
13AAF
100
AcDbEntity
  8
0
 48
50.0
100
AcDbBlockBegin
  2
*D18
 70
     1
 10
0.0
 20
0.0
 30
0.0
  3
*D18
  1

  0
LINE
  5
15E8D
330
13AAF
100
AcDbEntity
  8
寸法
 62
     0
 48
50.0
370
    -2
100
AcDbLine
 10
5843.904397928898
 20
10440.74740836285
 30
0.0
 11
5843.904397928898
 21
10835.45981838164
 31
0.0
  0
LINE
  5
15E8E
330
13AAF
100
AcDbEntity
  8
寸法
 62
     0
 48
50.0
370
    -2
100
AcDbLine
 10
7943.904397928898
 20
10440.74740836285
 30
0.0
 11
7943.904397928898
 21
10835.45981838164
 31
0.0
  0
LINE
  5
15E8F
330
13AAF
100
AcDbEntity
  8
寸法
 62
     0
 48
50.0
370
    -2
100
AcDbLine
 10
5863.904397928898
 20
10795.45981838164
 30
0.0
 11
7923.904397928898
 21
10795.45981838164
 31
0.0
  0
INSERT
  5
15E90
330
13AAF
100
AcDbEntity
  8
寸法
 62
     0
 48
50.0
370
    -2
100
AcDbBlockReference
  2
_DOT
 10
5843.904397928898
 20
10795.45981838164
 30
0.0
 41
20.0
 42
20.0
 43
20.0
 50
180.0
  0
INSERT
  5
15E91
330
13AAF
100
AcDbEntity
  8
寸法
 62
     0
 48
50.0
370
    -2
100
AcDbBlockReference
  2
_DOT
 10
7943.904397928898
 20
10795.45981838164
 30
0.0
 41
20.0
 42
20.0
 43
20.0
  0
MTEXT
  5
15E92
330
13AAF
100
AcDbEntity
  8
寸法
 62
     7
 48
50.0
100
AcDbMText
 10
6893.904397928898
 20
10887.47162940526
 30
0.0
 40
120.0
 41
0.0
 71
     5
 72
     1
  1
\A1;5X420=2100
  7
STYLE1
 73
     1
 44
1.0
1001
ACAD
1000
MTEXTBEGIN
1070
    73
1070
     1
1070
    44
1040
1.0
1070
    74
1070
     0
1000
MTEXTEND
  0
POINT
  5
15E93
330
13AAF
100
AcDbEntity
  8
DEFPOINTS
 62
     0
 48
50.0
100
AcDbPoint
 10
5843.904397928898
 20
10420.74740836285
 30
0.0
  0
POINT
  5
15E94
330
13AAF
100
AcDbEntity
  8
DEFPOINTS
 62
     0
 48
50.0
100
AcDbPoint
 10
7943.904397928898
 20
10420.74740836285
 30
0.0
  0
POINT
  5
15E95
330
13AAF
100
AcDbEntity
  8
DEFPOINTS
 62
     0
 48
50.0
100
AcDbPoint
 10
7943.904397928898
 20
10795.45981838164
 30
0.0
  0
ENDBLK
  5
13ABA
330
13AAF
100
AcDbEntity
  8
0
 48
50.0
100
AcDbBlockEnd
  0
BLOCK
  5
13AD3
330
13AC7
100
AcDbEntity
  8
0
 48
50.0
100
AcDbBlockBegin
  2
*D19
 70
     1
 10
0.0
 20
0.0
 30
0.0
  3
*D19
  1

  0
LINE
  5
15E82
330
13AC7
100
AcDbEntity
  8
寸法
 62
     0
 48
50.0
370
    -2
100
AcDbLine
 10
3578.904397928898
 20
10440.74740836284
 30
0.0
 11
3578.904397928898
 21
10835.45981838164
 31
0.0
  0
LINE
  5
15E83
330
13AC7
100
AcDbEntity
  8
寸法
 62
     0
 48
50.0
370
    -2
100
AcDbLine
 10
3633.904397928898
 20
10440.74740836285
 30
0.0
 11
3633.904397928898
 21
10835.45981838164
 31
0.0
  0
LINE
  5
15E84
330
13AC7
100
AcDbEntity
  8
寸法
 62
     0
 48
50.0
370
    -2
100
AcDbLine
 10
3653.904397928898
 20
10795.45981838164
 30
0.0
 11
3673.904397928898
 21
10795.45981838164
 31
0.0
  0
LINE
  5
15E85
330
13AC7
100
AcDbEntity
  8
寸法
 62
     0
 48
50.0
370
    -2
100
AcDbLine
 10
3558.904397928898
 20
10795.45981838164
 30
0.0
 11
3084.252449887995
 21
10795.45981838164
 31
0.0
  0
LINE
  5
15E86
330
13AC7
100
AcDbEntity
  8
寸法
 62
     0
 48
50.0
370
    -2
100
AcDbLine
 10
3633.904397928898
 20
10795.45981838164
 30
0.0
 11
3578.904397928898
 21
10795.45981838164
 31
0.0
  0
INSERT
  5
15E87
330
13AC7
100
AcDbEntity
  8
寸法
 62
     0
 48
50.0
370
    -2
100
AcDbBlockReference
  2
_DOT
 10
3633.904397928898
 20
10795.45981838164
 30
0.0
 41
20.0
 42
20.0
 43
20.0
 50
180.0
  0
INSERT
  5
15E88
330
13AC7
100
AcDbEntity
  8
寸法
 62
     0
 48
50.0
370
    -2
100
AcDbBlockReference
  2
_DOT
 10
3578.904397928898
 20
10795.45981838164
 30
0.0
 41
20.0
 42
20.0
 43
20.0
  0
MTEXT
  5
15E89
330
13AC7
100
AcDbEntity
  8
寸法
 62
     7
 48
50.0
100
AcDbMText
 10
3184.737731262234
 20
10887.45981838164
 30
0.0
 40
120.0
 41
0.0
 71
     5
 72
     1
  1
\A1;55
  7
STYLE1
 73
     1
 44
1.0
1001
ACAD
1000
MTEXTBEGIN
1070
    73
1070
     1
1070
    44
1040
1.0
1070
    74
1070
     0
1000
MTEXTEND
  0
POINT
  5
15E8A
330
13AC7
100
AcDbEntity
  8
DEFPOINTS
 62
     0
 48
50.0
100
AcDbPoint
 10
3578.904397928898
 20
10420.74740836284
 30
0.0
  0
POINT
  5
15E8B
330
13AC7
100
AcDbEntity
  8
DEFPOINTS
 62
     0
 48
50.0
100
AcDbPoint
 10
3633.904397928898
 20
10420.74740836285
 30
0.0
  0
POINT
  5
15E8C
330
13AC7
100
AcDbEntity
  8
DEFPOINTS
 62
     0
 48
50.0
100
AcDbPoint
 10
3633.904397928898
 20
10795.45981838164
 30
0.0
  0
ENDBLK
  5
13AD4
330
13AC7
100
AcDbEntity
  8
0
 48
50.0
100
AcDbBlockEnd
  0
BLOCK
  5
13AEB
330
13AE1
100
AcDbEntity
  8
0
 48
50.0
100
AcDbBlockBegin
  2
*D20
 70
     1
 10
0.0
 20
0.0
 30
0.0
  3
*D20
  1

  0
LINE
  5
15E79
330
13AE1
100
AcDbEntity
  8
寸法
 62
     0
 48
50.0
370
    -2
100
AcDbLine
 10
3633.904397928898
 20
10440.74740836285
 30
0.0
 11
3633.904397928898
 21
10835.45981838164
 31
0.0
  0
LINE
  5
15E7A
330
13AE1
100
AcDbEntity
  8
寸法
 62
     0
 48
50.0
370
    -2
100
AcDbLine
 10
5733.904397928898
 20
10440.74740836285
 30
0.0
 11
5733.904397928898
 21
10835.45981838164
 31
0.0
  0
LINE
  5
15E7B
330
13AE1
100
AcDbEntity
  8
寸法
 62
     0
 48
50.0
370
    -2
100
AcDbLine
 10
3653.904397928898
 20
10795.45981838164
 30
0.0
 11
5713.904397928899
 21
10795.45981838164
 31
0.0
  0
INSERT
  5
15E7C
330
13AE1
100
AcDbEntity
  8
寸法
 62
     0
 48
50.0
370
    -2
100
AcDbBlockReference
  2
_DOT
 10
3633.904397928898
 20
10795.45981838164
 30
0.0
 41
20.0
 42
20.0
 43
20.0
 50
180.0
  0
INSERT
  5
15E7D
330
13AE1
100
AcDbEntity
  8
寸法
 62
     0
 48
50.0
370
    -2
100
AcDbBlockReference
  2
_DOT
 10
5733.904397928898
 20
10795.45981838164
 30
0.0
 41
20.0
 42
20.0
 43
20.0
  0
MTEXT
  5
15E7E
330
13AE1
100
AcDbEntity
  8
寸法
 62
     7
 48
50.0
100
AcDbMText
 10
4683.904397928897
 20
10887.47162940526
 30
0.0
 40
120.0
 41
0.0
 71
     5
 72
     1
  1
\A1;5X420=2100
  7
STYLE1
 73
     1
 44
1.0
1001
ACAD
1000
MTEXTBEGIN
1070
    73
1070
     1
1070
    44
1040
1.0
1070
    74
1070
     0
1000
MTEXTEND
  0
POINT
  5
15E7F
330
13AE1
100
AcDbEntity
  8
DEFPOINTS
 62
     0
 48
50.0
100
AcDbPoint
 10
3633.904397928898
 20
10420.74740836285
 30
0.0
  0
POINT
  5
15E80
330
13AE1
100
AcDbEntity
  8
DEFPOINTS
 62
     0
 48
50.0
100
AcDbPoint
 10
5733.904397928898
 20
10420.74740836285
 30
0.0
  0
POINT
  5
15E81
330
13AE1
100
AcDbEntity
  8
DEFPOINTS
 62
     0
 48
50.0
100
AcDbPoint
 10
5733.904397928898
 20
10795.45981838164
 30
0.0
  0
ENDBLK
  5
13AEC
330
13AE1
100
AcDbEntity
  8
0
 48
50.0
100
AcDbBlockEnd
  0
BLOCK
  5
13AF7
330
13AED
100
AcDbEntity
  8
0
 48
50.0
100
AcDbBlockBegin
  2
*D21
 70
     1
 10
0.0
 20
0.0
 30
0.0
  3
*D21
  1

  0
LINE
  5
15E70
330
13AED
100
AcDbEntity
  8
寸法
 62
     0
 48
50.0
370
    -2
100
AcDbLine
 10
3578.904397928898
 20
10440.74740836284
 30
0.0
 11
3578.904397928898
 21
11135.45981838164
 31
0.0
  0
LINE
  5
15E71
330
13AED
100
AcDbEntity
  8
寸法
 62
     0
 48
50.0
370
    -2
100
AcDbLine
 10
7998.904397928898
 20
10440.74740836284
 30
0.0
 11
7998.904397928898
 21
11135.45981838164
 31
0.0
  0
LINE
  5
15E72
330
13AED
100
AcDbEntity
  8
寸法
 62
     0
 48
50.0
370
    -2
100
AcDbLine
 10
3598.904397928898
 20
11095.45981838164
 30
0.0
 11
7978.904397928897
 21
11095.45981838164
 31
0.0
  0
INSERT
  5
15E73
330
13AED
100
AcDbEntity
  8
寸法
 62
     0
 48
50.0
370
    -2
100
AcDbBlockReference
  2
_DOT
 10
3578.904397928898
 20
11095.45981838164
 30
0.0
 41
20.0
 42
20.0
 43
20.0
 50
180.0
  0
INSERT
  5
15E74
330
13AED
100
AcDbEntity
  8
寸法
 62
     0
 48
50.0
370
    -2
100
AcDbBlockReference
  2
_DOT
 10
7998.904397928898
 20
11095.45981838164
 30
0.0
 41
20.0
 42
20.0
 43
20.0
  0
MTEXT
  5
15E75
330
13AED
100
AcDbEntity
  8
寸法
 62
     7
 48
50.0
100
AcDbMText
 10
5788.904397928899
 20
11187.47162940527
 30
0.0
 40
120.0
 41
0.0
 71
     5
 72
     1
  1
\A1;4420
  7
STYLE1
 73
     1
 44
1.0
1001
ACAD
1000
MTEXTBEGIN
1070
    73
1070
     1
1070
    44
1040
1.0
1070
    74
1070
     0
1000
MTEXTEND
  0
POINT
  5
15E76
330
13AED
100
AcDbEntity
  8
DEFPOINTS
 62
     0
 48
50.0
100
AcDbPoint
 10
3578.904397928898
 20
10420.74740836284
 30
0.0
  0
POINT
  5
15E77
330
13AED
100
AcDbEntity
  8
DEFPOINTS
 62
     0
 48
50.0
100
AcDbPoint
 10
7998.904397928898
 20
10420.74740836284
 30
0.0
  0
POINT
  5
15E78
330
13AED
100
AcDbEntity
  8
DEFPOINTS
 62
     0
 48
50.0
100
AcDbPoint
 10
7998.904397928898
 20
11095.45981838164
 30
0.0
  0
ENDBLK
  5
13AF8
330
13AED
100
AcDbEntity
  8
0
 48
50.0
100
AcDbBlockEnd
  0
BLOCK
  5
13B05
330
13AF9
100
AcDbEntity
  8
0
 48
50.0
100
AcDbBlockBegin
  2
*D22
 70
     1
 10
0.0
 20
0.0
 30
0.0
  3
*D22
  1

  0
LINE
  5
15E65
330
13AF9
100
AcDbEntity
  8
寸法
 62
     0
 48
50.0
370
    -2
100
AcDbLine
 10
8018.904397928897
 20
10420.74740836284
 30
0.0
 11
8809.651514973253
 21
10420.74740836284
 31
0.0
  0
LINE
  5
15E66
330
13AF9
100
AcDbEntity
  8
寸法
 62
     0
 48
50.0
370
    -2
100
AcDbLine
 10
8018.904397928897
 20
10365.74740836285
 30
0.0
 11
8809.651514973253
 21
10365.74740836285
 31
0.0
  0
LINE
  5
15E67
330
13AF9
100
AcDbEntity
  8
寸法
 62
     0
 48
50.0
370
    -2
100
AcDbLine
 10
8769.651514973253
 20
10345.74740836285
 30
0.0
 11
8769.651514973253
 21
10325.74740836285
 31
0.0
  0
LINE
  5
15E68
330
13AF9
100
AcDbEntity
  8
寸法
 62
     0
 48
50.0
370
    -2
100
AcDbLine
 10
8769.651514973253
 20
10440.74740836284
 30
0.0
 11
8769.651514973253
 21
10915.39935640375
 31
0.0
  0
LINE
  5
15E69
330
13AF9
100
AcDbEntity
  8
寸法
 62
     0
 48
50.0
370
    -2
100
AcDbLine
 10
8769.651514973253
 20
10365.74740836285
 30
0.0
 11
8769.651514973253
 21
10420.74740836284
 31
0.0
  0
INSERT
  5
15E6A
330
13AF9
100
AcDbEntity
  8
寸法
 62
     0
 48
50.0
370
    -2
100
AcDbBlockReference
  2
_DOT
 10
8769.651514973253
 20
10365.74740836285
 30
0.0
 41
20.0
 42
20.0
 43
20.0
 50
90.0
  0
INSERT
  5
15E6B
330
13AF9
100
AcDbEntity
  8
寸法
 62
     0
 48
50.0
370
    -2
100
AcDbBlockReference
  2
_DOT
 10
8769.651514973253
 20
10420.74740836284
 30
0.0
 41
20.0
 42
20.0
 43
20.0
 50
270.0
  0
MTEXT
  5
15E6C
330
13AF9
100
AcDbEntity
  8
寸法
 62
     7
 48
50.0
100
AcDbMText
 10
8677.651514973252
 20
10814.91407502951
 30
0.0
 40
120.0
 41
0.0
 71
     5
 72
     1
  1
\A1;55
  7
STYLE1
 11
0.0000000000000001
 21
1.0
 31
0.0
 73
     1
 44
1.0
1001
ACAD
1000
MTEXTBEGIN
1070
    73
1070
     1
1070
    44
1040
1.0
1070
    74
1070
     0
1000
MTEXTEND
  0
POINT
  5
15E6D
330
13AF9
100
AcDbEntity
  8
DEFPOINTS
 62
     0
 48
50.0
100
AcDbPoint
 10
7998.904397928898
 20
10420.74740836284
 30
0.0
  0
POINT
  5
15E6E
330
13AF9
100
AcDbEntity
  8
DEFPOINTS
 62
     0
 48
50.0
100
AcDbPoint
 10
7998.904397928898
 20
10365.74740836285
 30
0.0
  0
POINT
  5
15E6F
330
13AF9
100
AcDbEntity
  8
DEFPOINTS
 62
     0
 48
50.0
100
AcDbPoint
 10
8769.651514973253
 20
10365.74740836285
 30
0.0
  0
ENDBLK
  5
13B06
330
13AF9
100
AcDbEntity
  8
0
 48
50.0
100
AcDbBlockEnd
  0
BLOCK
  5
13B11
330
13B07
100
AcDbEntity
  8
0
 48
50.0
100
AcDbBlockBegin
  2
*D23
 70
     1
 10
0.0
 20
0.0
 30
0.0
  3
*D23
  1

  0
LINE
  5
15E5C
330
13B07
100
AcDbEntity
  8
寸法
 62
     0
 48
50.0
370
    -2
100
AcDbLine
 10
8018.904397928897
 20
10365.74740836285
 30
0.0
 11
8809.651514973252
 21
10365.74740836285
 31
0.0
  0
LINE
  5
15E5D
330
13B07
100
AcDbEntity
  8
寸法
 62
     0
 48
50.0
370
    -2
100
AcDbLine
 10
8018.904397928897
 20
7005.747408362843
 30
0.0
 11
8809.651514973252
 21
7005.747408362843
 31
0.0
  0
LINE
  5
15E5E
330
13B07
100
AcDbEntity
  8
寸法
 62
     0
 48
50.0
370
    -2
100
AcDbLine
 10
8769.651514973253
 20
10345.74740836285
 30
0.0
 11
8769.651514973253
 21
7025.747408362843
 31
0.0
  0
INSERT
  5
15E5F
330
13B07
100
AcDbEntity
  8
寸法
 62
     0
 48
50.0
370
    -2
100
AcDbBlockReference
  2
_DOT
 10
8769.651514973253
 20
10365.74740836285
 30
0.0
 41
20.0
 42
20.0
 43
20.0
 50
90.0
  0
INSERT
  5
15E60
330
13B07
100
AcDbEntity
  8
寸法
 62
     0
 48
50.0
370
    -2
100
AcDbBlockReference
  2
_DOT
 10
8769.651514973253
 20
7005.747408362843
 30
0.0
 41
20.0
 42
20.0
 43
20.0
 50
270.0
  0
MTEXT
  5
15E61
330
13B07
100
AcDbEntity
  8
寸法
 62
     7
 48
50.0
100
AcDbMText
 10
8677.639703949628
 20
8685.74740836285
 30
0.0
 40
120.0
 41
0.0
 71
     5
 72
     1
  1
\A1;8X420=3360
  7
STYLE1
 11
0.0000000000000001
 21
1.0
 31
0.0
 73
     1
 44
1.0
1001
ACAD
1000
MTEXTBEGIN
1070
    73
1070
     1
1070
    44
1040
1.0
1070
    74
1070
     0
1000
MTEXTEND
  0
POINT
  5
15E62
330
13B07
100
AcDbEntity
  8
DEFPOINTS
 62
     0
 48
50.0
100
AcDbPoint
 10
7998.904397928898
 20
10365.74740836285
 30
0.0
  0
POINT
  5
15E63
330
13B07
100
AcDbEntity
  8
DEFPOINTS
 62
     0
 48
50.0
100
AcDbPoint
 10
7998.904397928898
 20
7005.747408362843
 30
0.0
  0
POINT
  5
15E64
330
13B07
100
AcDbEntity
  8
DEFPOINTS
 62
     0
 48
50.0
100
AcDbPoint
 10
8769.651514973253
 20
7005.747408362843
 30
0.0
  0
ENDBLK
  5
13B12
330
13B07
100
AcDbEntity
  8
0
 48
50.0
100
AcDbBlockEnd
  0
BLOCK
  5
13B1F
330
13B13
100
AcDbEntity
  8
0
 48
50.0
100
AcDbBlockBegin
  2
*D24
 70
     1
 10
0.0
 20
0.0
 30
0.0
  3
*D24
  1

  0
LINE
  5
15E51
330
13B13
100
AcDbEntity
  8
寸法
 62
     0
 48
50.0
370
    -2
100
AcDbLine
 10
8018.904397928897
 20
7005.747408362843
 30
0.0
 11
8809.651514973253
 21
7005.747408362843
 31
0.0
  0
LINE
  5
15E52
330
13B13
100
AcDbEntity
  8
寸法
 62
     0
 48
50.0
370
    -2
100
AcDbLine
 10
8018.904397928897
 20
6950.747408362848
 30
0.0
 11
8809.651514973253
 21
6950.747408362848
 31
0.0
  0
LINE
  5
15E53
330
13B13
100
AcDbEntity
  8
寸法
 62
     0
 48
50.0
370
    -2
100
AcDbLine
 10
8769.651514973253
 20
7025.747408362843
 30
0.0
 11
8769.651514973253
 21
7045.747408362844
 31
0.0
  0
LINE
  5
15E54
330
13B13
100
AcDbEntity
  8
寸法
 62
     0
 48
50.0
370
    -2
100
AcDbLine
 10
8769.651514973253
 20
6930.747408362847
 30
0.0
 11
8769.651514973253
 21
6456.095460321941
 31
0.0
  0
LINE
  5
15E55
330
13B13
100
AcDbEntity
  8
寸法
 62
     0
 48
50.0
370
    -2
100
AcDbLine
 10
8769.651514973253
 20
7005.747408362843
 30
0.0
 11
8769.651514973253
 21
6950.747408362848
 31
0.0
  0
INSERT
  5
15E56
330
13B13
100
AcDbEntity
  8
寸法
 62
     0
 48
50.0
370
    -2
100
AcDbBlockReference
  2
_DOT
 10
8769.651514973253
 20
7005.747408362843
 30
0.0
 41
20.0
 42
20.0
 43
20.0
 50
270.0
  0
INSERT
  5
15E57
330
13B13
100
AcDbEntity
  8
寸法
 62
     0
 48
50.0
370
    -2
100
AcDbBlockReference
  2
_DOT
 10
8769.651514973253
 20
6950.747408362848
 30
0.0
 41
20.0
 42
20.0
 43
20.0
 50
90.0
  0
MTEXT
  5
15E58
330
13B13
100
AcDbEntity
  8
寸法
 62
     7
 48
50.0
100
AcDbMText
 10
8677.651514973252
 20
6556.580741696182
 30
0.0
 40
120.0
 41
0.0
 71
     5
 72
     1
  1
\A1;55
  7
STYLE1
 11
0.0000000000000001
 21
1.0
 31
0.0
 73
     1
 44
1.0
1001
ACAD
1000
MTEXTBEGIN
1070
    73
1070
     1
1070
    44
1040
1.0
1070
    74
1070
     0
1000
MTEXTEND
  0
POINT
  5
15E59
330
13B13
100
AcDbEntity
  8
DEFPOINTS
 62
     0
 48
50.0
100
AcDbPoint
 10
7998.904397928898
 20
7005.747408362843
 30
0.0
  0
POINT
  5
15E5A
330
13B13
100
AcDbEntity
  8
DEFPOINTS
 62
     0
 48
50.0
100
AcDbPoint
 10
7998.904397928898
 20
6950.747408362848
 30
0.0
  0
POINT
  5
15E5B
330
13B13
100
AcDbEntity
  8
DEFPOINTS
 62
     0
 48
50.0
100
AcDbPoint
 10
8769.651514973253
 20
6950.747408362848
 30
0.0
  0
ENDBLK
  5
13B20
330
13B13
100
AcDbEntity
  8
0
 48
50.0
100
AcDbBlockEnd
  0
BLOCK
  5
13B2B
330
13B21
100
AcDbEntity
  8
0
 48
50.0
100
AcDbBlockBegin
  2
*D25
 70
     1
 10
0.0
 20
0.0
 30
0.0
  3
*D25
  1

  0
LINE
  5
15E48
330
13B21
100
AcDbEntity
  8
寸法
 62
     0
 48
50.0
370
    -2
100
AcDbLine
 10
8018.904397928897
 20
10420.74740836284
 30
0.0
 11
9109.651514973251
 21
10420.74740836284
 31
0.0
  0
LINE
  5
15E49
330
13B21
100
AcDbEntity
  8
寸法
 62
     0
 48
50.0
370
    -2
100
AcDbLine
 10
8018.904397928897
 20
6950.747408362848
 30
0.0
 11
9109.651514973251
 21
6950.747408362848
 31
0.0
  0
LINE
  5
15E4A
330
13B21
100
AcDbEntity
  8
寸法
 62
     0
 48
50.0
370
    -2
100
AcDbLine
 10
9069.651514973251
 20
10400.74740836284
 30
0.0
 11
9069.651514973251
 21
6970.747408362848
 31
0.0
  0
INSERT
  5
15E4B
330
13B21
100
AcDbEntity
  8
寸法
 62
     0
 48
50.0
370
    -2
100
AcDbBlockReference
  2
_DOT
 10
9069.651514973251
 20
10420.74740836284
 30
0.0
 41
20.0
 42
20.0
 43
20.0
 50
90.0
  0
INSERT
  5
15E4C
330
13B21
100
AcDbEntity
  8
寸法
 62
     0
 48
50.0
370
    -2
100
AcDbBlockReference
  2
_DOT
 10
9069.651514973251
 20
6950.747408362848
 30
0.0
 41
20.0
 42
20.0
 43
20.0
 50
270.0
  0
MTEXT
  5
15E4D
330
13B21
100
AcDbEntity
  8
寸法
 62
     7
 48
50.0
100
AcDbMText
 10
8977.651514973251
 20
8685.74740836285
 30
0.0
 40
120.0
 41
0.0
 71
     5
 72
     1
  1
\A1;3470
  7
STYLE1
 11
0.0000000000000001
 21
1.0
 31
0.0
 73
     1
 44
1.0
1001
ACAD
1000
MTEXTBEGIN
1070
    73
1070
     1
1070
    44
1040
1.0
1070
    74
1070
     0
1000
MTEXTEND
  0
POINT
  5
15E4E
330
13B21
100
AcDbEntity
  8
DEFPOINTS
 62
     0
 48
50.0
100
AcDbPoint
 10
7998.904397928898
 20
10420.74740836284
 30
0.0
  0
POINT
  5
15E4F
330
13B21
100
AcDbEntity
  8
DEFPOINTS
 62
     0
 48
50.0
100
AcDbPoint
 10
7998.904397928898
 20
6950.747408362848
 30
0.0
  0
POINT
  5
15E50
330
13B21
100
AcDbEntity
  8
DEFPOINTS
 62
     0
 48
50.0
100
AcDbPoint
 10
9069.651514973251
 20
6950.747408362848
 30
0.0
  0
ENDBLK
  5
13B2C
330
13B21
100
AcDbEntity
  8
0
 48
50.0
100
AcDbBlockEnd
  0
BLOCK
  5
13B39
330
13B2D
100
AcDbEntity
  8
0
 48
50.0
100
AcDbBlockBegin
  2
*D26
 70
     1
 10
0.0
 20
0.0
 30
0.0
  3
*D26
  1

  0
LINE
  5
15E3D
330
13B2D
100
AcDbEntity
  8
寸法
 62
     0
 48
50.0
370
    -2
100
AcDbLine
 10
7943.904397928898
 20
10440.74740836285
 30
0.0
 11
7943.904397928898
 21
10835.45981838164
 31
0.0
  0
LINE
  5
15E3E
330
13B2D
100
AcDbEntity
  8
寸法
 62
     0
 48
50.0
370
    -2
100
AcDbLine
 10
7998.904397928898
 20
10440.74740836284
 30
0.0
 11
7998.904397928898
 21
10835.45981838164
 31
0.0
  0
LINE
  5
15E3F
330
13B2D
100
AcDbEntity
  8
寸法
 62
     0
 48
50.0
370
    -2
100
AcDbLine
 10
7923.904397928898
 20
10795.45981838164
 30
0.0
 11
7903.904397928897
 21
10795.45981838164
 31
0.0
  0
LINE
  5
15E40
330
13B2D
100
AcDbEntity
  8
寸法
 62
     0
 48
50.0
370
    -2
100
AcDbLine
 10
8018.904397928897
 20
10795.45981838164
 30
0.0
 11
8493.556345969803
 21
10795.45981838164
 31
0.0
  0
LINE
  5
15E41
330
13B2D
100
AcDbEntity
  8
寸法
 62
     0
 48
50.0
370
    -2
100
AcDbLine
 10
7943.904397928898
 20
10795.45981838164
 30
0.0
 11
7998.904397928898
 21
10795.45981838164
 31
0.0
  0
INSERT
  5
15E42
330
13B2D
100
AcDbEntity
  8
寸法
 62
     0
 48
50.0
370
    -2
100
AcDbBlockReference
  2
_DOT
 10
7943.904397928898
 20
10795.45981838164
 30
0.0
 41
20.0
 42
20.0
 43
20.0
  0
INSERT
  5
15E43
330
13B2D
100
AcDbEntity
  8
寸法
 62
     0
 48
50.0
370
    -2
100
AcDbBlockReference
  2
_DOT
 10
7998.904397928898
 20
10795.45981838164
 30
0.0
 41
20.0
 42
20.0
 43
20.0
 50
180.0
  0
MTEXT
  5
15E44
330
13B2D
100
AcDbEntity
  8
寸法
 62
     7
 48
50.0
100
AcDbMText
 10
8393.071064595565
 20
10887.45981838164
 30
0.0
 40
120.0
 41
0.0
 71
     5
 72
     1
  1
\A1;55
  7
STYLE1
 73
     1
 44
1.0
1001
ACAD
1000
MTEXTBEGIN
1070
    73
1070
     1
1070
    44
1040
1.0
1070
    74
1070
     0
1000
MTEXTEND
  0
POINT
  5
15E45
330
13B2D
100
AcDbEntity
  8
DEFPOINTS
 62
     0
 48
50.0
100
AcDbPoint
 10
7943.904397928898
 20
10420.74740836285
 30
0.0
  0
POINT
  5
15E46
330
13B2D
100
AcDbEntity
  8
DEFPOINTS
 62
     0
 48
50.0
100
AcDbPoint
 10
7998.904397928898
 20
10420.74740836284
 30
0.0
  0
POINT
  5
15E47
330
13B2D
100
AcDbEntity
  8
DEFPOINTS
 62
     0
 48
50.0
100
AcDbPoint
 10
7998.904397928898
 20
10795.45981838164
 30
0.0
  0
ENDBLK
  5
13B3A
330
13B2D
100
AcDbEntity
  8
0
 48
50.0
100
AcDbBlockEnd
  0
BLOCK
  5
141BC
330
141BB
100
AcDbEntity
  8
0
100
AcDbBlockBegin
  2
_OPEN
 70
     0
 10
0.0
 20
0.0
 30
0.0
  3
_OPEN
  1

  0
LINE
  5
141BD
330
141BB
100
AcDbEntity
  8
0
  6
ByBlock
 62
     0
100
AcDbLine
 10
-1.0
 20
0.1666666666666666
 30
0.0
 11
0.0
 21
0.0
 31
0.0
  0
LINE
  5
141BE
330
141BB
100
AcDbEntity
  8
0
  6
ByBlock
 62
     0
100
AcDbLine
 10
0.0
 20
0.0
 30
0.0
 11
-1.0
 21
-0.1666666666666666
 31
0.0
  0
LINE
  5
141BF
330
141BB
100
AcDbEntity
  8
0
  6
ByBlock
 62
     0
100
AcDbLine
 10
0.0
 20
0.0
 30
0.0
 11
-1.0
 21
0.0
 31
0.0
  0
ENDBLK
  5
141C0
330
141BB
100
AcDbEntity
  8
0
100
AcDbBlockEnd
  0
BLOCK
  5
15886
330
1587C
100
AcDbEntity
  8
0
 48
50.0
100
AcDbBlockBegin
  2
*D28
 70
     1
 10
0.0
 20
0.0
 30
0.0
  3
*D28
  1

  0
LINE
  5
15E34
330
1587C
100
AcDbEntity
  8
寸法
 62
     0
 48
50.0
370
    -2
100
AcDbLine
 10
3645.904397928898
 20
6853.747408362846
 30
0.0
 11
3645.904397928898
 21
6162.209137220969
 31
0.0
  0
LINE
  5
15E35
330
1587C
100
AcDbEntity
  8
寸法
 62
     0
 48
50.0
370
    -2
100
AcDbLine
 10
4911.904397928898
 20
6853.747408362846
 30
0.0
 11
4911.904397928898
 21
6162.209137220969
 31
0.0
  0
LINE
  5
15E36
330
1587C
100
AcDbEntity
  8
寸法
 62
     0
 48
50.0
370
    -2
100
AcDbLine
 10
3665.904397928898
 20
6202.209137220968
 30
0.0
 11
4891.904397928898
 21
6202.209137220968
 31
0.0
  0
INSERT
  5
15E37
330
1587C
100
AcDbEntity
  8
寸法
 62
     0
 48
50.0
370
    -2
100
AcDbBlockReference
  2
_DOT
 10
3645.904397928898
 20
6202.209137220968
 30
0.0
 41
20.0
 42
20.0
 43
20.0
 50
180.0
  0
INSERT
  5
15E38
330
1587C
100
AcDbEntity
  8
寸法
 62
     0
 48
50.0
370
    -2
100
AcDbBlockReference
  2
_DOT
 10
4911.904397928898
 20
6202.209137220968
 30
0.0
 41
20.0
 42
20.0
 43
20.0
  0
MTEXT
  5
15E39
330
1587C
100
AcDbEntity
  8
寸法
 62
     7
 48
50.0
100
AcDbMText
 10
4287.144445701517
 20
6394.220948244591
 30
0.0
 40
120.0
 41
0.0
 71
     5
 72
     1
  1
\A1;有効開口部間口\P1266
  7
STYLE1
 73
     1
 44
1.0
1001
ACAD
1000
MTEXTBEGIN
1070
    73
1070
     1
1070
    44
1040
1.0
1070
    74
1070
     0
1000
MTEXTEND
  0
POINT
  5
15E3A
330
1587C
100
AcDbEntity
  8
DEFPOINTS
 62
     0
 48
50.0
100
AcDbPoint
 10
3645.904397928898
 20
6873.747408362845
 30
0.0
  0
POINT
  5
15E3B
330
1587C
100
AcDbEntity
  8
DEFPOINTS
 62
     0
 48
50.0
100
AcDbPoint
 10
4911.904397928898
 20
6873.747408362845
 30
0.0
  0
POINT
  5
15E3C
330
1587C
100
AcDbEntity
  8
DEFPOINTS
 62
     0
 48
50.0
100
AcDbPoint
 10
4911.904397928898
 20
6202.209137220968
 30
0.0
  0
ENDBLK
  5
15887
330
1587C
100
AcDbEntity
  8
0
 48
50.0
100
AcDbBlockEnd
  0
BLOCK
  5
15C14
330
15C08
100
AcDbEntity
  8
0
 48
50.0
100
AcDbBlockBegin
  2
*D29
 70
     1
 10
0.0
 20
0.0
 30
0.0
  3
*D29
  1

  0
LINE
  5
15E29
330
15C08
100
AcDbEntity
  8
寸法
 62
     0
 48
50.0
370
    -2
100
AcDbLine
 10
3558.904397928898
 20
6950.747408362848
 30
0.0
 11
3280.153023599285
 21
6950.747408362848
 31
0.0
  0
LINE
  5
15E2A
330
15C08
100
AcDbEntity
  8
寸法
 62
     0
 48
50.0
370
    -2
100
AcDbLine
 10
3586.904397928899
 20
6875.747408362816
 30
0.0
 11
3280.153023599285
 21
6875.747408362816
 31
0.0
  0
LINE
  5
15E2B
330
15C08
100
AcDbEntity
  8
寸法
 62
     0
 48
50.0
370
    -2
100
AcDbLine
 10
3320.153023599284
 20
6970.747408362848
 30
0.0
 11
3320.153023599284
 21
6990.747408362847
 31
0.0
  0
LINE
  5
15E2C
330
15C08
100
AcDbEntity
  8
寸法
 62
     0
 48
50.0
370
    -2
100
AcDbLine
 10
3320.153023599284
 20
6855.747408362815
 30
0.0
 11
3320.153023599284
 21
6618.010896580388
 31
0.0
  0
LINE
  5
15E2D
330
15C08
100
AcDbEntity
  8
寸法
 62
     0
 48
50.0
370
    -2
100
AcDbLine
 10
3320.153023599284
 20
6950.747408362848
 30
0.0
 11
3320.153023599284
 21
6875.747408362816
 31
0.0
  0
INSERT
  5
15E2E
330
15C08
100
AcDbEntity
  8
寸法
 62
     0
 48
50.0
370
    -2
100
AcDbBlockReference
  2
_DOT
 10
3320.153023599284
 20
6950.747408362848
 30
0.0
 41
20.0
 42
20.0
 43
20.0
 50
270.0
  0
INSERT
  5
15E2F
330
15C08
100
AcDbEntity
  8
寸法
 62
     0
 48
50.0
370
    -2
100
AcDbBlockReference
  2
_DOT
 10
3320.153023599284
 20
6875.747408362816
 30
0.0
 41
20.0
 42
20.0
 43
20.0
 50
90.0
  0
MTEXT
  5
15E30
330
15C08
100
AcDbEntity
  8
寸法
 62
     7
 48
50.0
100
AcDbMText
 10
3228.153023599283
 20
6718.496177954628
 30
0.0
 40
120.0
 41
0.0
 71
     5
 72
     1
  1
\A1;75
  7
STYLE1
 11
0.0000000000000001
 21
1.0
 31
0.0
 73
     1
 44
1.0
1001
ACAD
1000
MTEXTBEGIN
1070
    73
1070
     1
1070
    44
1040
1.0
1070
    74
1070
     0
1000
MTEXTEND
  0
POINT
  5
15E31
330
15C08
100
AcDbEntity
  8
DEFPOINTS
 62
     0
 48
50.0
100
AcDbPoint
 10
3578.904397928898
 20
6950.747408362848
 30
0.0
  0
POINT
  5
15E32
330
15C08
100
AcDbEntity
  8
DEFPOINTS
 62
     0
 48
50.0
100
AcDbPoint
 10
3606.904397928899
 20
6875.747408362816
 30
0.0
  0
POINT
  5
15E33
330
15C08
100
AcDbEntity
  8
DEFPOINTS
 62
     0
 48
50.0
100
AcDbPoint
 10
3320.153023599284
 20
6875.747408362816
 30
0.0
  0
ENDBLK
  5
15C15
330
15C08
100
AcDbEntity
  8
0
 48
50.0
100
AcDbBlockEnd
  0
BLOCK
  5
15C20
330
15C16
100
AcDbEntity
  8
0
 48
50.0
100
AcDbBlockBegin
  2
*D30
 70
     1
 10
0.0
 20
0.0
 30
0.0
  3
*D30
  1

  0
LINE
  5
15E20
330
15C16
100
AcDbEntity
  8
寸法
 62
     0
 48
50.0
370
    -2
100
AcDbLine
 10
3606.904397928899
 20
6853.747408362846
 30
0.0
 11
3606.904397928899
 21
5871.004375415155
 31
0.0
  0
LINE
  5
15E21
330
15C16
100
AcDbEntity
  8
寸法
 62
     0
 48
50.0
370
    -2
100
AcDbLine
 10
5760.904397928899
 20
6853.747408362846
 30
0.0
 11
5760.904397928899
 21
5871.004375415155
 31
0.0
  0
LINE
  5
15E22
330
15C16
100
AcDbEntity
  8
寸法
 62
     0
 48
50.0
370
    -2
100
AcDbLine
 10
3606.904397928899
 20
5931.004375415156
 30
0.0
 11
5760.904397928899
 21
5931.004375415156
 31
0.0
  0
INSERT
  5
15E23
330
15C16
100
AcDbEntity
  8
寸法
 62
     0
 48
50.0
370
    -2
100
AcDbBlockReference
  2
_DOTSMALL
 10
3606.904397928899
 20
5931.004375415156
 30
0.0
 41
100.0
 42
100.0
 43
100.0
 50
180.0
  0
INSERT
  5
15E24
330
15C16
100
AcDbEntity
  8
寸法
 62
     0
 48
50.0
370
    -2
100
AcDbBlockReference
  2
_DOTSMALL
 10
5760.904397928899
 20
5931.004375415156
 30
0.0
 41
100.0
 42
100.0
 43
100.0
  0
MTEXT
  5
15E25
330
15C16
100
AcDbEntity
  8
寸法
 62
     7
 48
50.0
100
AcDbMText
 10
4689.961971101395
 20
6031.016186438777
 30
0.0
 40
120.0
 41
0.0
 71
     5
 72
     1
  1
\A1;2154
  7
STYLE1
 73
     1
 44
1.0
1001
ACAD
1000
MTEXTBEGIN
1070
    73
1070
     1
1070
    44
1040
1.0
1070
    74
1070
     0
1000
MTEXTEND
  0
POINT
  5
15E26
330
15C16
100
AcDbEntity
  8
DEFPOINTS
 62
     0
 48
50.0
100
AcDbPoint
 10
3606.904397928899
 20
6873.747408362845
 30
0.0
  0
POINT
  5
15E27
330
15C16
100
AcDbEntity
  8
DEFPOINTS
 62
     0
 48
50.0
100
AcDbPoint
 10
5760.904397928899
 20
6873.747408362845
 30
0.0
  0
POINT
  5
15E28
330
15C16
100
AcDbEntity
  8
DEFPOINTS
 62
     0
 48
50.0
100
AcDbPoint
 10
5760.904397928899
 20
5931.004375415156
 30
0.0
  0
ENDBLK
  5
15C21
330
15C16
100
AcDbEntity
  8
0
 48
50.0
100
AcDbBlockEnd
  0
BLOCK
  5
15C50
330
15C46
100
AcDbEntity
  8
0
 48
50.0
100
AcDbBlockBegin
  2
*D31
 70
     1
 10
0.0
 20
0.0
 30
0.0
  3
*D31
  1

  0
LINE
  5
15E17
330
15C46
100
AcDbEntity
  8
寸法
 62
     0
 48
50.0
370
    -2
100
AcDbLine
 10
5788.904397928899
 20
6985.747408362844
 30
0.0
 11
5788.904397928899
 21
5632.698828808527
 31
0.0
  0
LINE
  5
15E18
330
15C46
100
AcDbEntity
  8
寸法
 62
     0
 48
50.0
370
    -2
100
AcDbLine
 10
7998.904397928898
 20
6930.747408362847
 30
0.0
 11
7998.904397928898
 21
5632.698828808527
 31
0.0
  0
LINE
  5
15E19
330
15C46
100
AcDbEntity
  8
寸法
 62
     0
 48
50.0
370
    -2
100
AcDbLine
 10
5808.904397928898
 20
5672.698828808527
 30
0.0
 11
7978.904397928897
 21
5672.698828808527
 31
0.0
  0
INSERT
  5
15E1A
330
15C46
100
AcDbEntity
  8
寸法
 62
     0
 48
50.0
370
    -2
100
AcDbBlockReference
  2
_DOT
 10
5788.904397928899
 20
5672.698828808527
 30
0.0
 41
20.0
 42
20.0
 43
20.0
 50
180.0
  0
INSERT
  5
15E1B
330
15C46
100
AcDbEntity
  8
寸法
 62
     0
 48
50.0
370
    -2
100
AcDbBlockReference
  2
_DOT
 10
7998.904397928898
 20
5672.698828808527
 30
0.0
 41
20.0
 42
20.0
 43
20.0
  0
MTEXT
  5
15E1C
330
15C46
100
AcDbEntity
  8
寸法
 62
     7
 48
50.0
100
AcDbMText
 10
6893.904397928898
 20
5764.710639832149
 30
0.0
 40
120.0
 41
0.0
 71
     5
 72
     1
  1
\A1;2210
  7
STYLE1
 73
     1
 44
1.0
1001
ACAD
1000
MTEXTBEGIN
1070
    73
1070
     1
1070
    44
1040
1.0
1070
    74
1070
     0
1000
MTEXTEND
  0
POINT
  5
15E1D
330
15C46
100
AcDbEntity
  8
DEFPOINTS
 62
     0
 48
50.0
100
AcDbPoint
 10
5788.904397928899
 20
7005.747408362843
 30
0.0
  0
POINT
  5
15E1E
330
15C46
100
AcDbEntity
  8
DEFPOINTS
 62
     0
 48
50.0
100
AcDbPoint
 10
7998.904397928898
 20
6950.747408362848
 30
0.0
  0
POINT
  5
15E1F
330
15C46
100
AcDbEntity
  8
DEFPOINTS
 62
     0
 48
50.0
100
AcDbPoint
 10
7998.904397928898
 20
5672.698828808527
 30
0.0
  0
ENDBLK
  5
15C51
330
15C46
100
AcDbEntity
  8
0
 48
50.0
100
AcDbBlockEnd
  0
BLOCK
  5
15C6A
330
15C60
100
AcDbEntity
  8
0
 48
50.0
100
AcDbBlockBegin
  2
*D32
 70
     1
 10
0.0
 20
0.0
 30
0.0
  3
*D32
  1

  0
LINE
  5
15E0E
330
15C60
100
AcDbEntity
  8
寸法
 62
     0
 48
50.0
370
    -2
100
AcDbLine
 10
3578.904397928898
 20
6930.747408362847
 30
0.0
 11
3578.904397928898
 21
5632.698828808527
 31
0.0
  0
LINE
  5
15E0F
330
15C60
100
AcDbEntity
  8
寸法
 62
     0
 48
50.0
370
    -2
100
AcDbLine
 10
5788.904397928899
 20
6985.747408362847
 30
0.0
 11
5788.904397928899
 21
5632.698828808527
 31
0.0
  0
LINE
  5
15E10
330
15C60
100
AcDbEntity
  8
寸法
 62
     0
 48
50.0
370
    -2
100
AcDbLine
 10
3598.904397928898
 20
5672.698828808527
 30
0.0
 11
5768.904397928898
 21
5672.698828808527
 31
0.0
  0
INSERT
  5
15E11
330
15C60
100
AcDbEntity
  8
寸法
 62
     0
 48
50.0
370
    -2
100
AcDbBlockReference
  2
_DOT
 10
3578.904397928898
 20
5672.698828808527
 30
0.0
 41
20.0
 42
20.0
 43
20.0
 50
180.0
  0
INSERT
  5
15E12
330
15C60
100
AcDbEntity
  8
寸法
 62
     0
 48
50.0
370
    -2
100
AcDbBlockReference
  2
_DOT
 10
5788.904397928899
 20
5672.698828808527
 30
0.0
 41
20.0
 42
20.0
 43
20.0
  0
MTEXT
  5
15E13
330
15C60
100
AcDbEntity
  8
寸法
 62
     7
 48
50.0
100
AcDbMText
 10
4673.548125189918
 20
5764.710639832149
 30
0.0
 40
120.0
 41
0.0
 71
     5
 72
     1
  1
\A1;2210
  7
STYLE1
 73
     1
 44
1.0
1001
ACAD
1000
MTEXTBEGIN
1070
    73
1070
     1
1070
    44
1040
1.0
1070
    74
1070
     0
1000
MTEXTEND
  0
POINT
  5
15E14
330
15C60
100
AcDbEntity
  8
DEFPOINTS
 62
     0
 48
50.0
100
AcDbPoint
 10
3578.904397928898
 20
6950.747408362848
 30
0.0
  0
POINT
  5
15E15
330
15C60
100
AcDbEntity
  8
DEFPOINTS
 62
     0
 48
50.0
100
AcDbPoint
 10
5788.904397928899
 20
7005.747408362847
 30
0.0
  0
POINT
  5
15E16
330
15C60
100
AcDbEntity
  8
DEFPOINTS
 62
     0
 48
50.0
100
AcDbPoint
 10
5788.904397928899
 20
5672.698828808527
 30
0.0
  0
ENDBLK
  5
15C6B
330
15C60
100
AcDbEntity
  8
0
 48
50.0
100
AcDbBlockEnd
  0
ENDSEC
  0
SECTION
  2
ENTITIES
  0
MTEXT
  5
763F
330
747D
100
AcDbEntity
  8
0
100
AcDbMText
 10
302.846345836809
 20
280.1983726409901
 30
0.0
 40
3.5
 41
5.323721266742722
 71
     1
 72
     5
  1

  7
MSMINCHO
 73
     1
 44
1.0
1001
ACAD
1000
MTEXTBEGIN
1070
    73
1070
     1
1070
    44
1040
1.0
1070
    74
1070
     0
1000
MTEXTEND
  0
INSERT
  5
F235
330
747D
100
AcDbEntity
  8
0
100
AcDbBlockReference
  2
作図枠S50
 10
0.0
 20
0.0
 30
0.0
 41
0.8
 42
0.8
 43
0.8
  0
LINE
  5
10B56
330
747D
100
AcDbEntity
  8
補助
  6
PHANTOM
 62
   230
 48
50.0
100
AcDbLine
 10
140.0
 20
0.0
 30
0.0
 11
139.9999999999995
 21
11409.6
 31
0.0
  0
LINE
  5
10B57
330
747D
100
AcDbEntity
  8
補助
  6
PHANTOM
 62
   230
 48
50.0
100
AcDbLine
 10
139.9999999999995
 20
11409.6
 30
0.0
 11
16307.2
 21
11409.6
 31
0.0
  0
LINE
  5
10B59
330
747D
100
AcDbEntity
  8
仕様書枠
  6
Continuous
 48
50.0
100
AcDbLine
 10
13107.2
 20
1200.0
 30
0.0
 11
13107.2
 21
-0.0000000000000729
 31
0.0
  0
LINE
  5
10B5C
330
747D
100
AcDbEntity
  8
仕様書枠
 48
50.0
100
AcDbLine
 10
16307.2
 20
1200.0
 30
0.0
 11
16307.2
 21
-0.0000000000000909
 31
0.0
  0
LINE
  5
10B5D
330
747D
100
AcDbEntity
  8
仕様書枠
 48
50.0
100
AcDbLine
 10
140.0
 20
0.0
 30
0.0
 11
16307.2
 21
-0.0000000000000909
 31
0.0
  0
LINE
  5
10B5E
330
747D
100
AcDbEntity
  8
補助
  6
PHANTOM
 62
   230
 48
50.0
100
AcDbLine
 10
16307.2
 20
11409.6
 30
0.0
 11
16307.2
 21
1200.0
 31
0.0
  0
LINE
  5
10B6C
330
747D
100
AcDbEntity
  8
仕様書枠
 48
50.0
100
AcDbLine
 10
13107.2
 20
1200.0
 30
0.0
 11
16307.2
 21
1200.0
 31
0.0
  0
LINE
  5
10B6D
330
747D
100
AcDbEntity
  8
補助
  6
PHANTOM
 62
   230
 48
50.0
100
AcDbLine
 10
13107.2
 20
11409.6
 30
0.0
 11
13107.2
 21
4800.0
 31
0.0
  0
LINE
  5
10B6F
330
747D
100
AcDbEntity
  8
補助
  6
PHANTOM
 62
   230
 48
50.0
100
AcDbLine
 10
13107.2
 20
4800.0
 30
0.0
 11
16307.2
 21
4800.0
 31
0.0
  0
LINE
  5
10B72
330
747D
100
AcDbEntity
  8
文字
 62
     7
 48
50.0
100
AcDbLine
 10
13187.2
 20
400.0
 30
0.0
 11
16227.2
 21
400.0
 31
0.0
  0
TEXT
  5
10B73
330
747D
100
AcDbEntity
  8
文字
 62
     7
 48
50.0
100
AcDbText
 10
13162.9790565769
 20
895.0906074299405
 30
0.0
 40
200.0
  1
外 形 図
  7
STYLE2
100
AcDbText
  0
TEXT
  5
10B74
330
747D
100
AcDbEntity
  8
文字
 62
     7
 48
50.0
100
AcDbText
 10
13201.43669998441
 20
477.2740661031255
 30
0.0
 40
160.0
  1
機種名
  7
STYLE2
100
AcDbText
  0
TEXT
  5
10B76
330
747D
100
AcDbEntity
  8
文字
 62
     7
 48
50.0
100
AcDbText
 10
13209.4053442172
 20
76.09434707649343
 30
0.0
 40
100.0
  1
○床面積 ： 15.50㎡(4.70坪) 　
  7
STYLE2
100
AcDbText
  0
TEXT
  5
10B79
330
747D
100
AcDbEntity
  8
文字
 62
     7
 48
50.0
100
AcDbText
 10
14524.131837222
 20
1031.557706291228
 30
0.0
 40
100.0
  1
NO.15     <縮尺> S=1/40
  7
STYLE2
100
AcDbText
  0
LINE
  5
10B7B
330
747D
100
AcDbEntity
  8
仕様書枠
 48
50.0
100
AcDbLine
 10
13107.2
 20
800.0
 30
0.0
 11
14251.2
 21
800.0
 31
0.0
  0
LINE
  5
10B88
330
747D
100
AcDbEntity
  8
仕様書枠
  6
Continuous
 48
50.0
100
AcDbLine
 10
14251.2
 20
1200.0
 30
0.0
 11
14251.2
 21
800.0
 31
0.0
  0
TEXT
  5
10EA8
330
747D
100
AcDbEntity
  8
文字
 62
     7
 48
50.0
100
AcDbText
 10
14877.12995683896
 20
838.2527270729188
 30
0.0
 40
100.0
  1
～一般型～
  7
STYLE2
100
AcDbText
  0
LINE
  5
136E1
330
747D
100
AcDbEntity
  8
部品1
100
AcDbLine
 10
11035.25880607256
 20
2014.417148464483
 30
0.0
 11
10958.25880607256
 21
2014.417148464483
 31
0.0
  0
LINE
  5
136E2
330
747D
100
AcDbEntity
  8
部品1
100
AcDbLine
 10
10958.25880607256
 20
4140.104253372885
 30
0.0
 11
11035.25880607256
 21
4154.417148464482
 31
0.0
  0
LINE
  5
136E3
330
747D
100
AcDbEntity
  8
部品1
100
AcDbLine
 10
10958.25880607256
 20
4140.104253372885
 30
0.0
 11
10958.25880607256
 21
1914.417148464483
 31
0.0
  0
DIMENSION
  5
136E4
330
747D
100
AcDbEntity
  8
寸法
 48
50.0
100
AcDbDimension
  2
*D3
 10
10490.3501646753
 20
2080.417148464483
 30
0.0
 11
10398.33835365168
 21
3092.917148464485
 31
0.0
 70
    32
  1
有効開口部高サ<>
 71
     5
 42
2025.0
  3
INABA_S40
100
AcDbAlignedDimension
 13
10958.25880607256
 23
4105.417148464483
 33
0.0
 14
10958.25880607256
 24
2080.417148464483
 34
0.0
 50
90.0
100
AcDbRotatedDimension
1001
ACAD
1000
DSTYLE
1002
{
1070
    41
1040
0.5
1070
    44
1040
1.0
1070
   147
1040
0.8
1070
   271
1070
     2
1070
   272
1070
     2
1070
   289
1070
     3
1070
   340
1005
F706
1070
   343
1005
F744
1070
   344
1005
F744
1002
}
  0
TEXT
  5
136E5
330
747D
100
AcDbEntity
  8
部品1
100
AcDbText
 10
12487.96957438194
 20
1396.162653893832
 30
0.0
 40
135.0
  1
側面図
  7
STYLE2
100
AcDbText
  0
LWPOLYLINE
  5
136E6
330
747D
100
AcDbEntity
  8
部品1
100
AcDbPolyline
 90
        4
 70
     1
 43
0.0
 10
12398.52347295834
 20
1589.056183112355
 10
12398.52347295834
 20
1349.163861566823
 10
13161.99413918678
 20
1349.163861566823
 10
13161.99413918678
 20
1589.056183112355
  0
DIMENSION
  5
136E7
330
747D
100
AcDbEntity
  8
寸法
100
AcDbDimension
  2
*D4
 10
10191.5086768893
 20
2064.417148464479
 30
0.0
 11
10091.49686586568
 21
3109.417148464481
 31
0.0
 70
    32
 71
     5
 42
2090.000000000001
  3
INABA_S40G
100
AcDbAlignedDimension
 13
11035.25880607256
 23
4154.417148464479
 33
0.0
 14
11035.25880607256
 24
2064.417148464479
 34
0.0
 50
90.0
100
AcDbRotatedDimension
1001
ACAD
1000
DSTYLE
1002
{
1070
   174
1070
     0
1070
   272
1070
     1
1070
   288
1070
     0
1070
   341
1005
0
1002
}
  0
DIMENSION
  5
136E8
330
747D
100
AcDbEntity
  8
寸法
100
AcDbDimension
  2
*D5
 10
9891.508676889303
 20
4389.417148464484
 30
0.0
 11
9791.496865865681
 21
3201.917148464483
 31
0.0
 70
    32
 71
     5
 42
2375.000000000005
  3
INABA_S40G
100
AcDbAlignedDimension
 13
10958.25880607256
 23
2014.417148464479
 33
0.0
 14
10975.25880607256
 24
4389.417148464483
 34
0.0
 50
90.0
100
AcDbRotatedDimension
1001
ACAD
1000
DSTYLE
1002
{
1070
   174
1070
     0
1070
   272
1070
     1
1070
   288
1070
     0
1070
   341
1005
0
1002
}
  0
DIMENSION
  5
136E9
330
747D
100
AcDbEntity
  8
寸法
100
AcDbDimension
  2
*D6
 10
15210.18596404469
 20
4334.417148464484
 30
0.0
 11
15110.17415302107
 21
3174.417148464488
 31
0.0
 70
    32
 71
     5
 42
2320.000000000001
  3
INABA_S40G
100
AcDbAlignedDimension
 13
14505.25880607256
 23
2014.417148464485
 33
0.0
 14
14585.25880607256
 24
4334.417148464484
 34
0.0
 50
90.0
100
AcDbRotatedDimension
1001
ACAD
1000
DSTYLE
1002
{
1070
   174
1070
     0
1070
   272
1070
     1
1070
   288
1070
     0
1070
   341
1005
0
1002
}
  0
LINE
  5
136EA
330
747D
100
AcDbEntity
  8
細線
 48
50.0
100
AcDbLine
 10
13112.75880607256
 20
4154.417148464482
 30
0.0
 11
13112.75880607256
 21
2064.417148464485
 31
0.0
  0
LINE
  5
136EB
330
747D
100
AcDbEntity
  8
細線
 48
50.0
100
AcDbLine
 10
13127.75880607256
 20
4154.417148464482
 30
0.0
 11
13127.75880607256
 21
2064.417148464485
 31
0.0
  0
LINE
  5
136EC
330
747D
100
AcDbEntity
  8
細線
 48
50.0
100
AcDbLine
 10
12987.75880607256
 20
4154.417148464482
 30
0.0
 11
12987.75880607256
 21
2064.417148464485
 31
0.0
  0
LINE
  5
136ED
330
747D
100
AcDbEntity
  8
細線
 48
50.0
100
AcDbLine
 10
12972.75880607256
 20
4154.417148464482
 30
0.0
 11
12972.75880607256
 21
2064.417148464485
 31
0.0
  0
LINE
  5
136EE
330
747D
100
AcDbEntity
  8
細線
 48
50.0
100
AcDbLine
 10
12832.75880607256
 20
4154.417148464482
 30
0.0
 11
12832.75880607256
 21
2064.417148464485
 31
0.0
  0
LINE
  5
136EF
330
747D
100
AcDbEntity
  8
細線
 48
50.0
100
AcDbLine
 10
12847.75880607256
 20
4154.417148464482
 30
0.0
 11
12847.75880607256
 21
2064.417148464485
 31
0.0
  0
LINE
  5
136F0
330
747D
100
AcDbEntity
  8
部品1
100
AcDbLine
 10
12770.25880607256
 20
4154.417148464482
 30
0.0
 11
12770.25880607256
 21
2064.417148464485
 31
0.0
  0
LINE
  5
136F1
330
747D
100
AcDbEntity
  8
部品1
100
AcDbLine
 10
12604.80379242952
 20
4514.621536427501
 30
0.0
 11
12930.25880607256
 21
4497.103477468641
 31
0.0
  0
ARC
  5
136F2
330
747D
100
AcDbEntity
  8
部品1
100
AcDbCircle
 10
14570.8863418865
 20
4228.440905730276
 30
0.0
 40
0.7
100
AcDbArc
 50
275.0921697642102
 51
354.1866997667087
  0
ARC
  5
136F3
330
747D
100
AcDbEntity
  8
部品1
100
AcDbCircle
 10
14581.74568763582
 20
4305.484160548199
 30
0.0
 40
0.7
100
AcDbArc
 50
275.0921697642102
 51
354.1866997665532
  0
ARC
  5
136F4
330
747D
100
AcDbEntity
  8
部品1
100
AcDbCircle
 10
14582.07409287842
 20
4301.798763691109
 30
0.0
 40
3.0
100
AcDbArc
 50
95.0921697642102
 51
174.1866997665532
  0
ARC
  5
136F5
330
747D
100
AcDbEntity
  8
部品1
100
AcDbCircle
 10
14571.2147471291
 20
4224.755508873186
 30
0.0
 40
3.0
100
AcDbArc
 50
95.0921697642102
 51
174.1866997665532
  0
ARC
  5
136F6
330
747D
100
AcDbEntity
  8
部品1
 48
50.0
100
AcDbCircle
 10
14560.186611854
 20
4215.164764269304
 30
0.0
 40
7.0
100
AcDbArc
 50
267.8377559869487
 51
354.1866997665532
  0
ARC
  5
136F7
330
747D
100
AcDbEntity
  8
部品1
 48
50.0
100
AcDbCircle
 10
14577.50870831851
 20
4326.067311411476
 30
0.0
 40
7.0
100
AcDbArc
 50
354.1866997665532
 51
87.03587545283093
  0
LINE
  5
136F8
330
747D
100
AcDbEntity
  8
部品1
 48
50.0
100
AcDbLine
 10
14568.23017545849
 20
4225.05937059009
 30
0.0
 11
14567.15061241875
 21
4214.455753596531
 31
0.0
  0
LINE
  5
136F9
330
747D
100
AcDbEntity
  8
部品1
 48
50.0
100
AcDbLine
 10
14579.08952120781
 20
4302.102625408013
 30
0.0
 11
14571.58274194298
 21
4228.370004663
 31
0.0
  0
LINE
  5
136FA
330
747D
100
AcDbEntity
  8
部品1
 48
50.0
100
AcDbLine
 10
14584.47270888327
 20
4325.358300738701
 30
0.0
 11
14582.44208769229
 21
4305.413259480923
 31
0.0
  0
ARC
  5
136FB
330
747D
100
AcDbEntity
  8
部品1
100
AcDbCircle
 10
10981.29589794393
 20
4268.231307423386
 30
0.0
 40
0.7
100
AcDbArc
 50
181.0932240292635
 51
260.1877540314867
  0
ARC
  5
136FC
330
747D
100
AcDbEntity
  8
部品1
100
AcDbCircle
 10
10976.52322434632
 20
4361.097085623507
 30
0.0
 40
0.7
100
AcDbArc
 50
181.0932240292114
 51
260.1877540314867
  0
ARC
  5
136FD
330
747D
100
AcDbEntity
  8
部品1
100
AcDbCircle
 10
10975.8926699433
 20
4357.451211086108
 30
0.0
 40
3.0
100
AcDbArc
 50
1.093224029315636
 51
80.18775403169653
  0
ARC
  5
136FE
330
747D
100
AcDbEntity
  8
部品1
100
AcDbCircle
 10
10980.6653435409
 20
4264.585432885989
 30
0.0
 40
3.0
100
AcDbArc
 50
1.093224029315636
 51
80.18775403169653
  0
ARC
  5
136FF
330
747D
100
AcDbEntity
  8
部品1
 48
50.0
100
AcDbCircle
 10
10990.8654759161
 20
4254.193189503508
 30
0.0
 40
7.0
100
AcDbArc
 50
181.0932240293156
 51
267.8377559869487
  0
ARC
  5
13700
330
747D
100
AcDbEntity
  8
部品1
 48
50.0
100
AcDbCircle
 10
10982.44181781401
 20
4381.144249036602
 30
0.0
 40
7.0
100
AcDbArc
 50
87.03587545283093
 51
181.0932240293156
  0
LINE
  5
13701
330
747D
100
AcDbEntity
  8
部品1
 48
50.0
100
AcDbLine
 10
10983.66479746733
 20
4264.642670489172
 30
0.0
 11
10983.86675008776
 21
4254.05963509608
 31
0.0
  0
LINE
  5
13702
330
747D
100
AcDbEntity
  8
細線
 48
50.0
100
AcDbLine
 10
10981.05870441066
 20
4267.572718607982
 30
0.0
 11
14571.0623688413
 21
4227.763399633487
 31
0.0
  0
LINE
  5
13703
330
747D
100
AcDbEntity
  8
細線
 48
50.0
100
AcDbLine
 10
10976.29822917338
 20
4360.434230305844
 30
0.0
 11
14581.93421391855
 21
4304.810025665018
 31
0.0
  0
LINE
  5
13704
330
747D
100
AcDbEntity
  8
部品1
 48
50.0
100
AcDbLine
 10
10978.89212386973
 20
4357.508448689292
 30
0.0
 11
10980.59602536109
 21
4268.217951982646
 31
0.0
  0
LINE
  5
13705
330
747D
100
AcDbEntity
  8
部品1
 48
50.0
100
AcDbLine
 10
10975.44309198567
 20
4381.010694629176
 30
0.0
 11
10975.82335176348
 21
4361.083730182763
 31
0.0
  0
LINE
  5
13706
330
747D
100
AcDbEntity
  8
細線
 48
50.0
100
AcDbLine
 10
14552.22808926625
 20
4333.570570943954
 30
0.0
 11
14547.51112318457
 21
4208.638355009036
 31
0.0
  0
LINE
  5
13707
330
747D
100
AcDbEntity
  8
細線
 48
50.0
100
AcDbLine
 10
11008.25880607256
 20
4386.816824839887
 30
0.0
 11
11002.96970451705
 21
4246.731192212534
 31
0.0
  0
LINE
  5
13708
330
747D
100
AcDbEntity
  8
部品1
100
AcDbLine
 10
10990.60137067451
 20
4247.19817353345
 30
0.0
 11
14559.92250661241
 21
4208.169748299246
 31
0.0
  0
LINE
  5
13709
330
747D
100
AcDbEntity
  8
部品1
100
AcDbLine
 10
10982.80379242952
 20
4388.134883798749
 30
0.0
 11
14577.87068293403
 21
4333.057946173624
 31
0.0
  0
LINE
  5
1370A
330
747D
100
AcDbEntity
  8
部品1
 48
50.0
100
AcDbLine
 10
12630.25880607256
 20
4513.303477468638
 30
0.0
 11
12930.25880607256
 21
4513.303477468638
 31
0.0
  0
LINE
  5
1370B
330
747D
100
AcDbEntity
  8
部品1
 48
50.0
100
AcDbLine
 10
12930.25880607256
 20
4513.303477468638
 30
0.0
 11
12930.25880607256
 21
4497.103477468641
 31
0.0
  0
TEXT
  5
1370C
330
747D
100
AcDbEntity
  8
部品1
 48
50.0
100
AcDbText
 10
12618.52664129629
 20
4549.187499621072
 30
0.0
 40
120.0
  1
1000
  7
STYLE1
100
AcDbText
  0
TEXT
  5
1370D
330
747D
100
AcDbEntity
  8
部品1
 48
50.0
100
AcDbText
 10
13096.15966396138
 20
4411.686241402789
 30
0.0
 40
120.0
  1
28
 50
90.0
  7
STYLE1
100
AcDbText
  0
LINE
  5
1370E
330
747D
100
AcDbEntity
  8
細線
 48
50.0
100
AcDbLine
 10
12427.75880607256
 20
4154.417148464482
 30
0.0
 11
12427.75880607256
 21
2064.417148464483
 31
0.0
  0
LINE
  5
1370F
330
747D
100
AcDbEntity
  8
細線
 48
50.0
100
AcDbLine
 10
12412.75880607256
 20
4154.417148464482
 30
0.0
 11
12412.75880607257
 21
2064.417148464483
 31
0.0
  0
LINE
  5
13710
330
747D
100
AcDbEntity
  8
細線
 48
50.0
100
AcDbLine
 10
12552.75880607256
 20
4154.417148464482
 30
0.0
 11
12552.75880607257
 21
2064.417148464483
 31
0.0
  0
LINE
  5
13711
330
747D
100
AcDbEntity
  8
細線
 48
50.0
100
AcDbLine
 10
12567.75880607256
 20
4154.417148464482
 30
0.0
 11
12567.75880607256
 21
2064.417148464483
 31
0.0
  0
LINE
  5
13712
330
747D
100
AcDbEntity
  8
細線
 48
50.0
100
AcDbLine
 10
12707.75880607256
 20
4154.417148464482
 30
0.0
 11
12707.75880607256
 21
2064.417148464483
 31
0.0
  0
LINE
  5
13713
330
747D
100
AcDbEntity
  8
細線
 48
50.0
100
AcDbLine
 10
12692.75880607256
 20
4154.417148464482
 30
0.0
 11
12692.75880607257
 21
2064.417148464483
 31
0.0
  0
LINE
  5
13714
330
747D
100
AcDbEntity
  8
部品1
100
AcDbLine
 10
14450.25880607255
 20
4154.417148464487
 30
0.0
 11
14450.25880607255
 21
2064.417148464487
 31
0.0
  0
LINE
  5
13715
330
747D
100
AcDbEntity
  8
部品1
100
AcDbLine
 10
11035.25880607256
 20
4154.417148464482
 30
0.0
 11
14505.25880607255
 21
4154.417148464482
 31
0.0
  0
LINE
  5
13716
330
747D
100
AcDbEntity
  8
部品1
100
AcDbLine
 10
11035.25880607256
 20
2064.417148464483
 30
0.0
 11
14505.25880607257
 21
2064.417148464485
 31
0.0
  0
LINE
  5
13717
330
747D
100
AcDbEntity
  8
部品1
100
AcDbLine
 10
11090.25880607256
 20
4154.417148464482
 30
0.0
 11
11090.25880607256
 21
2064.417148464483
 31
0.0
  0
LINE
  5
13718
330
747D
100
AcDbEntity
  8
部品1
100
AcDbLine
 10
11035.25880607256
 20
4246.559586393361
 30
0.0
 11
11035.25880607256
 21
1914.417148464483
 31
0.0
  0
DIMENSION
  5
13719
330
747D
100
AcDbEntity
  8
寸法
100
AcDbDimension
  2
*D7
 10
10191.5086768893
 20
2014.417148464479
 30
0.0
 11
10191.5086768893
 21
1708.369904369988
 31
0.0
 70
   160
 71
     5
 42
50.00000000000432
  3
INABA_S40G
100
AcDbAlignedDimension
 13
11035.25880607256
 23
2064.417148464483
 33
0.0
 14
10958.25880607256
 24
2014.417148464479
 34
0.0
 50
90.0
100
AcDbRotatedDimension
1001
ACAD
1000
DSTYLE
1002
{
1070
   174
1070
     0
1070
   272
1070
     1
1070
   288
1070
     0
1070
   341
1005
0
1002
}
  0
LINE
  5
1371A
330
747D
100
AcDbEntity
  8
部品1
100
AcDbLine
 10
11510.25880607256
 20
4154.417148464482
 30
0.0
 11
11510.25880607256
 21
2064.417148464483
 31
0.0
  0
LINE
  5
1371B
330
747D
100
AcDbEntity
  8
部品1
100
AcDbLine
 10
14505.25880607256
 20
4208.847176245603
 30
0.0
 11
14505.25880607256
 21
1914.417148464485
 31
0.0
  0
LINE
  5
1371C
330
747D
100
AcDbEntity
  8
部品1
100
AcDbLine
 10
14450.25880607256
 20
4154.417148464484
 30
0.0
 11
14450.25880607256
 21
2064.417148464485
 31
0.0
  0
DIMENSION
  5
1371D
330
747D
100
AcDbEntity
  8
寸法
 48
50.0
100
AcDbDimension
  2
*D8
 10
11035.25880607256
 20
4788.074602043788
 30
0.0
 11
12770.25880607256
 21
4788.074602043788
 31
0.0
 70
   160
  1
柱外寸法<>
 71
     5
 42
3469.999999999997
  3
INABA_S40G
100
AcDbAlignedDimension
 13
14505.25880607256
 23
4336.227828076139
 33
0.0
 14
11035.25880607256
 24
4385.418766587459
 34
0.0
100
AcDbRotatedDimension
1001
ACAD
1000
DSTYLE
1002
{
1070
   174
1070
     0
1070
   272
1070
     1
1070
   288
1070
     0
1070
   341
1005
0
1002
}
  0
DIMENSION
  5
1371E
330
747D
100
AcDbEntity
  8
寸法
 48
50.0
100
AcDbDimension
  2
*D9
 10
10975.25880607256
 20
4788.074602043788
 30
0.0
 11
10665.62101079697
 21
4788.074602043788
 31
0.0
 70
   160
 71
     5
 42
60.0
  3
INABA_S40G
100
AcDbAlignedDimension
 13
11035.25880607256
 23
4385.418766587459
 33
0.0
 14
10975.25880607256
 24
4389.417148464487
 34
0.0
100
AcDbRotatedDimension
1001
ACAD
1000
DSTYLE
1002
{
1070
   174
1070
     0
1070
   272
1070
     1
1070
   288
1070
     0
1070
   341
1005
0
1002
}
  0
DIMENSION
  5
1371F
330
747D
100
AcDbEntity
  8
寸法
 48
50.0
100
AcDbDimension
  2
*D10
 10
10975.25880607256
 20
5018.188194830066
 30
0.0
 11
12780.25880607256
 21
5018.188194830066
 31
0.0
 70
   160
 71
     5
 42
3609.999999999997
  3
INABA_S40G
100
AcDbAlignedDimension
 13
14585.25880607256
 23
4334.417148464484
 33
0.0
 14
10975.25880607256
 24
4389.417148464487
 34
0.0
100
AcDbRotatedDimension
1001
ACAD
1000
DSTYLE
1002
{
1070
   174
1070
     0
1070
   272
1070
     1
1070
   288
1070
     0
1070
   341
1005
0
1002
}
  0
LINE
  5
13720
330
747D
100
AcDbEntity
  8
部品1
100
AcDbLine
 10
11035.25880607256
 20
2014.417148464483
 30
0.0
 11
14505.25880607256
 21
2014.417148464483
 31
0.0
  0
LINE
  5
13721
330
747D
100
AcDbEntity
  8
細線
 48
50.0
100
AcDbLine
 10
11587.75880607256
 20
4154.417148464482
 30
0.0
 11
11587.75880607256
 21
2064.417148464483
 31
0.0
  0
LINE
  5
13722
330
747D
100
AcDbEntity
  8
細線
 48
50.0
100
AcDbLine
 10
11572.75880607256
 20
4154.417148464482
 30
0.0
 11
11572.75880607256
 21
2064.417148464483
 31
0.0
  0
LINE
  5
13723
330
747D
100
AcDbEntity
  8
細線
 48
50.0
100
AcDbLine
 10
11712.75880607256
 20
4154.417148464482
 30
0.0
 11
11712.75880607256
 21
2064.417148464483
 31
0.0
  0
LINE
  5
13724
330
747D
100
AcDbEntity
  8
細線
 48
50.0
100
AcDbLine
 10
11727.75880607256
 20
4154.417148464482
 30
0.0
 11
11727.75880607256
 21
2064.417148464483
 31
0.0
  0
LINE
  5
13725
330
747D
100
AcDbEntity
  8
細線
 48
50.0
100
AcDbLine
 10
11867.75880607256
 20
4154.417148464482
 30
0.0
 11
11867.75880607256
 21
2064.417148464483
 31
0.0
  0
LINE
  5
13726
330
747D
100
AcDbEntity
  8
細線
 48
50.0
100
AcDbLine
 10
11852.75880607256
 20
4154.417148464482
 30
0.0
 11
11852.75880607256
 21
2064.417148464483
 31
0.0
  0
LINE
  5
13727
330
747D
100
AcDbEntity
  8
細線
 48
50.0
100
AcDbLine
 10
11432.75880607256
 20
4154.417148464482
 30
0.0
 11
11432.75880607256
 21
2064.417148464483
 31
0.0
  0
LINE
  5
13728
330
747D
100
AcDbEntity
  8
細線
 48
50.0
100
AcDbLine
 10
11447.75880607256
 20
4154.417148464482
 30
0.0
 11
11447.75880607256
 21
2064.417148464483
 31
0.0
  0
LINE
  5
13729
330
747D
100
AcDbEntity
  8
細線
 48
50.0
100
AcDbLine
 10
11307.75880607256
 20
4154.417148464482
 30
0.0
 11
11307.75880607256
 21
2064.417148464483
 31
0.0
  0
LINE
  5
1372A
330
747D
100
AcDbEntity
  8
細線
 48
50.0
100
AcDbLine
 10
11292.75880607256
 20
4154.417148464482
 30
0.0
 11
11292.75880607256
 21
2064.417148464483
 31
0.0
  0
LINE
  5
1372B
330
747D
100
AcDbEntity
  8
細線
 48
50.0
100
AcDbLine
 10
11152.75880607256
 20
4154.417148464482
 30
0.0
 11
11152.75880607256
 21
2064.417148464483
 31
0.0
  0
LINE
  5
1372C
330
747D
100
AcDbEntity
  8
細線
 48
50.0
100
AcDbLine
 10
11167.75880607256
 20
4154.417148464482
 30
0.0
 11
11167.75880607256
 21
2064.417148464483
 31
0.0
  0
DIMENSION
  5
1372D
330
747D
100
AcDbEntity
  8
寸法
 48
50.0
100
AcDbDimension
  2
*D11
 10
14585.25880607256
 20
4788.074602043788
 30
0.0
 11
14791.30605016705
 21
4788.074602043788
 31
0.0
 70
   160
 71
     5
 42
80.0
  3
INABA_S40G
100
AcDbAlignedDimension
 13
14505.25880607256
 23
4336.227828076139
 33
0.0
 14
14585.25880607256
 24
4334.417148464487
 34
0.0
100
AcDbRotatedDimension
1001
ACAD
1000
DSTYLE
1002
{
1070
   174
1070
     0
1070
   272
1070
     1
1070
   288
1070
     0
1070
   341
1005
0
1002
}
  0
LINE
  5
1372E
330
747D
100
AcDbEntity
  8
部品1
100
AcDbLine
 10
11930.25880607256
 20
4154.417148464482
 30
0.0
 11
11930.25880607256
 21
2064.417148464483
 31
0.0
  0
LINE
  5
1372F
330
747D
100
AcDbEntity
  8
細線
 48
50.0
100
AcDbLine
 10
12272.75880607256
 20
4154.417148464482
 30
0.0
 11
12272.75880607257
 21
2064.417148464483
 31
0.0
  0
LINE
  5
13730
330
747D
100
AcDbEntity
  8
細線
 48
50.0
100
AcDbLine
 10
12287.75880607256
 20
4154.417148464482
 30
0.0
 11
12287.75880607256
 21
2064.417148464483
 31
0.0
  0
LINE
  5
13731
330
747D
100
AcDbEntity
  8
細線
 48
50.0
100
AcDbLine
 10
12147.75880607256
 20
4154.417148464482
 30
0.0
 11
12147.75880607256
 21
2064.417148464483
 31
0.0
  0
LINE
  5
13732
330
747D
100
AcDbEntity
  8
細線
 48
50.0
100
AcDbLine
 10
12132.75880607256
 20
4154.417148464482
 30
0.0
 11
12132.75880607256
 21
2064.417148464483
 31
0.0
  0
LINE
  5
13733
330
747D
100
AcDbEntity
  8
細線
 48
50.0
100
AcDbLine
 10
11992.75880607256
 20
4154.417148464482
 30
0.0
 11
11992.75880607256
 21
2064.417148464483
 31
0.0
  0
LINE
  5
13734
330
747D
100
AcDbEntity
  8
細線
 48
50.0
100
AcDbLine
 10
12007.75880607256
 20
4154.417148464482
 30
0.0
 11
12007.75880607257
 21
2064.417148464483
 31
0.0
  0
LINE
  5
13735
330
747D
100
AcDbEntity
  8
部品1
100
AcDbLine
 10
12350.25880607256
 20
4154.417148464482
 30
0.0
 11
12350.25880607256
 21
2064.417148464483
 31
0.0
  0
DIMENSION
  5
1373C
330
747D
100
AcDbEntity
  8
寸法
 48
50.0
100
AcDbDimension
  2
*D12
 10
10414.65039930419
 20
4263.762407337814
 30
0.0
 11
10425.31587456311
 21
4634.609070579512
 31
0.0
 70
   161
 71
     5
 42
141.0
  3
INABA_S40G
100
AcDbAlignedDimension
 13
10994.65482623114
 23
4388.139897299162
 33
0.0
 14
10990.60137067451
 24
4247.19817353345
 34
0.0
1001
ACAD
1000
DSTYLE
1002
{
1070
   174
1070
     0
1070
   272
1070
     1
1070
   288
1070
     0
1070
   341
1005
0
1002
}
  0
LINE
  5
1373D
330
747D
100
AcDbEntity
  8
部品1
100
AcDbLine
 10
13190.25880607255
 20
4154.417148464482
 30
0.0
 11
13190.25880607255
 21
2064.417148464485
 31
0.0
  0
LINE
  5
1373E
330
747D
100
AcDbEntity
  8
細線
 48
50.0
100
AcDbLine
 10
13267.75880607256
 20
4154.417148464482
 30
0.0
 11
13267.75880607256
 21
2064.417148464485
 31
0.0
  0
LINE
  5
1373F
330
747D
100
AcDbEntity
  8
細線
 48
50.0
100
AcDbLine
 10
13252.75880607256
 20
4154.417148464482
 30
0.0
 11
13252.75880607256
 21
2064.417148464485
 31
0.0
  0
LINE
  5
13740
330
747D
100
AcDbEntity
  8
細線
 48
50.0
100
AcDbLine
 10
13392.75880607256
 20
4154.417148464482
 30
0.0
 11
13392.75880607256
 21
2064.417148464485
 31
0.0
  0
LINE
  5
13741
330
747D
100
AcDbEntity
  8
細線
 48
50.0
100
AcDbLine
 10
13407.75880607256
 20
4154.417148464482
 30
0.0
 11
13407.75880607256
 21
2064.417148464485
 31
0.0
  0
LINE
  5
13742
330
747D
100
AcDbEntity
  8
細線
 48
50.0
100
AcDbLine
 10
13547.75880607256
 20
4154.417148464482
 30
0.0
 11
13547.75880607256
 21
2064.417148464485
 31
0.0
  0
LINE
  5
13743
330
747D
100
AcDbEntity
  8
細線
 48
50.0
100
AcDbLine
 10
13532.75880607256
 20
4154.417148464482
 30
0.0
 11
13532.75880607256
 21
2064.417148464485
 31
0.0
  0
LINE
  5
13744
330
747D
100
AcDbEntity
  8
部品1
100
AcDbLine
 10
13610.25880607255
 20
4154.417148464484
 30
0.0
 11
13610.25880607255
 21
2064.417148464487
 31
0.0
  0
LINE
  5
13745
330
747D
100
AcDbEntity
  8
部品1
100
AcDbLine
 10
7970.904397928897
 20
9525.747408362851
 30
0.0
 11
7998.904397928898
 21
9525.747408362851
 31
0.0
  0
LINE
  5
13746
330
747D
100
AcDbEntity
  8
部品1
100
AcDbLine
 10
3606.904397928899
 20
9525.747408362851
 30
0.0
 11
3578.904397928898
 21
9525.747408362851
 31
0.0
  0
LINE
  5
13747
330
747D
100
AcDbEntity
  8
部品1
100
AcDbLine
 10
5733.904397928898
 20
9525.74740836285
 30
0.0
 11
3633.904397928898
 21
9525.747408362846
 31
0.0
  0
LINE
  5
13748
330
747D
100
AcDbEntity
  8
部品1
100
AcDbLine
 10
5843.904397928898
 20
9525.74740836285
 30
0.0
 11
7943.904397928898
 21
9525.74740836285
 31
0.0
  0
TEXT
  5
13749
330
747D
100
AcDbEntity
  8
文字
 62
     7
 48
50.0
100
AcDbText
 10
15022.63965474517
 20
9910.01374588373
 30
0.0
 40
100.0
  1
F12,Y10      1.2+1.6
  7
STYLE1
100
AcDbText
  0
TEXT
  5
1374A
330
747D
100
AcDbEntity
  8
文字
 62
     7
 48
50.0
100
AcDbText
 10
13583.1181901657
 20
9910.01374588373
 30
0.0
 40
100.0
  1
梁中
 41
0.9
  7
STYLE1
100
AcDbText
  0
TEXT
  5
1374B
330
747D
100
AcDbEntity
  8
文字
 62
     7
 48
50.0
100
AcDbText
 10
13248.77747366447
 20
8380.013745883731
 30
0.0
 40
100.0
  1
17
  7
STYLE1
100
AcDbText
  0
TEXT
  5
1374C
330
747D
100
AcDbEntity
  8
文字
 62
     7
 48
50.0
100
AcDbText
 10
13248.77747366447
 20
8550.013745883731
 30
0.0
 40
100.0
  1
16
  7
STYLE1
100
AcDbText
  0
TEXT
  5
1374D
330
747D
100
AcDbEntity
  8
文字
 62
     7
 48
50.0
100
AcDbText
 10
15022.63965474517
 20
8890.013745883726
 30
0.0
 40
100.0
  1
F12            1.0
  7
STYLE1
100
AcDbText
  0
TEXT
  5
1374E
330
747D
100
AcDbEntity
  8
文字
 62
     7
 48
50.0
100
AcDbText
 10
13583.11819016569
 20
8890.013745883733
 30
0.0
 40
100.0
  1
壁面扉枠左右
  7
STYLE1
100
AcDbText
  0
TEXT
  5
1374F
330
747D
100
AcDbEntity
  8
文字
 62
     7
 48
50.0
100
AcDbText
 10
15022.63965474517
 20
9060.013745883725
 30
0.0
 40
100.0
  1
F12            1.0
  7
STYLE1
100
AcDbText
  0
TEXT
  5
13750
330
747D
100
AcDbEntity
  8
文字
 62
     7
 48
50.0
100
AcDbText
 10
15022.63965474515
 20
9230.013745883729
 30
0.0
 40
100.0
  1
F12            0.7
  7
STYLE1
100
AcDbText
  0
TEXT
  5
13751
330
747D
100
AcDbEntity
  8
文字
 62
     7
 48
50.0
100
AcDbText
 10
13583.11819016569
 20
9060.013745883733
 30
0.0
 40
100.0
  1
壁面扉敷居
  7
STYLE1
100
AcDbText
  0
TEXT
  5
13752
330
747D
100
AcDbEntity
  8
文字
 62
     7
 48
50.0
100
AcDbText
 10
13583.11819016569
 20
9230.013745883729
 30
0.0
 40
100.0
  1
壁面扉鴨居
  7
STYLE1
100
AcDbText
  0
LINE
  5
13753
330
747D
100
AcDbEntity
  8
仕様書枠
 48
50.0
100
AcDbLine
 10
16307.19999999999
 20
8689.600000000005
 30
0.0
 11
13127.2
 21
8689.600000000005
 31
0.0
  0
LINE
  5
13754
330
747D
100
AcDbEntity
  8
仕様書枠
 48
50.0
100
AcDbLine
 10
16307.19999999999
 20
8519.600000000005
 30
0.0
 11
13127.2
 21
8519.600000000005
 31
0.0
  0
TEXT
  5
13755
330
747D
100
AcDbEntity
  8
文字
 62
     7
 48
50.0
100
AcDbText
 10
13583.11819016569
 20
8380.013745883731
 30
0.0
 40
100.0
  1
アンカープレート
  7
STYLE1
100
AcDbText
  0
TEXT
  5
13756
330
747D
100
AcDbEntity
  8
文字
 62
     7
 48
50.0
100
AcDbText
 10
15022.63965474515
 20
8380.013745883724
 30
0.0
 40
100.0
  1
F12            2.3
  7
STYLE1
100
AcDbText
  0
LINE
  5
13757
330
747D
100
AcDbEntity
  8
仕様書枠
 48
50.0
100
AcDbLine
 10
16307.2
 20
10049.6
 30
0.0
 11
13127.2
 21
10049.6
 31
0.0
  0
LINE
  5
13758
330
747D
100
AcDbEntity
  8
仕様書枠
 48
50.0
100
AcDbLine
 10
16307.2
 20
11409.6
 30
0.0
 11
13127.2
 21
11409.6
 31
0.0
  0
LINE
  5
13759
330
747D
100
AcDbEntity
  8
仕様書枠
 48
50.0
100
AcDbLine
 10
16307.19999999999
 20
8009.600000000004
 30
0.0
 11
16307.2
 21
11409.6
 31
0.0
  0
LINE
  5
1375A
330
747D
100
AcDbEntity
  8
仕様書枠
 48
50.0
100
AcDbLine
 10
14785.2
 20
11409.59999999999
 30
0.0
 11
14785.2
 21
8349.600000000007
 31
0.0
  0
LINE
  5
1375B
330
747D
100
AcDbEntity
  8
仕様書枠
 48
50.0
100
AcDbLine
 10
13490.2
 20
11409.6
 30
0.0
 11
13490.20000000001
 21
8349.600000000007
 31
0.0
  0
LINE
  5
1375C
330
747D
100
AcDbEntity
  8
仕様書枠
 48
50.0
100
AcDbLine
 10
16307.2
 20
11239.6
 30
0.0
 11
13127.2
 21
11239.6
 31
0.0
  0
LINE
  5
1375D
330
747D
100
AcDbEntity
  8
仕様書枠
 48
50.0
100
AcDbLine
 10
16307.2
 20
10899.6
 30
0.0
 11
13127.2
 21
10899.6
 31
0.0
  0
LINE
  5
1375E
330
747D
100
AcDbEntity
  8
仕様書枠
 48
50.0
100
AcDbLine
 10
16307.2
 20
11069.6
 30
0.0
 11
13127.2
 21
11069.6
 31
0.0
  0
LINE
  5
1375F
330
747D
100
AcDbEntity
  8
仕様書枠
 48
50.0
100
AcDbLine
 10
16307.19999999999
 20
10559.6
 30
0.0
 11
13127.2
 21
10559.6
 31
0.0
  0
LINE
  5
13760
330
747D
100
AcDbEntity
  8
仕様書枠
 48
50.0
100
AcDbLine
 10
16307.19999999999
 20
10389.6
 30
0.0
 11
13127.2
 21
10389.6
 31
0.0
  0
LINE
  5
13761
330
747D
100
AcDbEntity
  8
仕様書枠
 48
50.0
100
AcDbLine
 10
16307.19999999999
 20
10729.6
 30
0.0
 11
13127.2
 21
10729.6
 31
0.0
  0
TEXT
  5
13762
330
747D
100
AcDbEntity
  8
文字
 62
     7
 48
50.0
100
AcDbText
 10
13197.42518560407
 20
11270.01374588373
 30
0.0
 40
100.0
  1
品番
  7
STYLE1
100
AcDbText
  0
TEXT
  5
13763
330
747D
100
AcDbEntity
  8
文字
 62
     7
 48
50.0
100
AcDbText
 10
13271.19032244792
 20
11100.01374588373
 30
0.0
 40
100.0
  1
1
  7
STYLE1
100
AcDbText
  0
TEXT
  5
13764
330
747D
100
AcDbEntity
  8
文字
 62
     7
 48
50.0
100
AcDbText
 10
13271.19032244792
 20
10930.01374588373
 30
0.0
 40
100.0
  1
2
  7
STYLE1
100
AcDbText
  0
TEXT
  5
13765
330
747D
100
AcDbEntity
  8
文字
 62
     7
 48
50.0
100
AcDbText
 10
13271.19032244792
 20
10590.01374588373
 30
0.0
 40
100.0
  1
4
  7
STYLE1
100
AcDbText
  0
TEXT
  5
13766
330
747D
100
AcDbEntity
  8
文字
 62
     7
 48
50.0
100
AcDbText
 10
13271.19032244792
 20
10760.01374588373
 30
0.0
 40
100.0
  1
3
  7
STYLE1
100
AcDbText
  0
TEXT
  5
13767
330
747D
100
AcDbEntity
  8
文字
 62
     7
 48
50.0
100
AcDbText
 10
13732.03840939434
 20
11270.01374588373
 30
0.0
 40
100.0
  1
部　　品　　名
  7
STYLE1
100
AcDbText
  0
TEXT
  5
13768
330
747D
100
AcDbEntity
  8
文字
 62
     7
 48
50.0
100
AcDbText
 10
14859.79774614482
 20
11270.01374588373
 30
0.0
 40
100.0
  1
材料（材質）　　単位mm
  7
STYLE1
100
AcDbText
  0
TEXT
  5
13769
330
747D
100
AcDbEntity
  8
文字
 62
     7
 48
50.0
100
AcDbText
 10
13583.11819016569
 20
11100.01374588373
 30
0.0
 40
100.0
  1
土台枠
  7
STYLE1
100
AcDbText
  0
TEXT
  5
1376A
330
747D
100
AcDbEntity
  8
文字
 62
     7
 48
50.0
100
AcDbText
 10
13583.1181901657
 20
10760.01374588373
 30
0.0
 40
100.0
  1
柱
  7
STYLE1
100
AcDbText
  0
TEXT
  5
1376B
330
747D
100
AcDbEntity
  8
文字
 62
     7
 48
50.0
100
AcDbText
 10
13583.11819016569
 20
10420.01374588373
 30
0.0
 40
100.0
  1
桁前後
  7
STYLE1
100
AcDbText
  0
TEXT
  5
1376C
330
747D
100
AcDbEntity
  8
文字
 62
     7
 48
50.0
100
AcDbText
 10
13271.19032244792
 20
10420.01374588373
 30
0.0
 40
100.0
  1
5
  7
STYLE1
100
AcDbText
  0
TEXT
  5
1376D
330
747D
100
AcDbEntity
  8
文字
 62
     7
 48
50.0
100
AcDbText
 10
13583.11819016569
 20
10250.01374588373
 30
0.0
 40
100.0
  1
妻板左右
  7
STYLE1
100
AcDbText
  0
TEXT
  5
1376E
330
747D
100
AcDbEntity
  8
文字
 62
     7
 48
50.0
100
AcDbText
 10
13248.77747366447
 20
9570.013745883729
 30
0.0
 40
100.0
  1
10
  7
STYLE1
100
AcDbText
  0
TEXT
  5
1376F
330
747D
100
AcDbEntity
  8
文字
 62
     7
 48
50.0
100
AcDbText
 10
13583.11819016568
 20
9400.013745883729
 30
0.0
 40
100.0
  1
壁パネル
  7
STYLE1
100
AcDbText
  0
TEXT
  5
13770
330
747D
100
AcDbEntity
  8
文字
 62
     7
 48
50.0
100
AcDbText
 10
13583.11819016569
 20
9740.013745883729
 30
0.0
 40
100.0
  1
屋根パネル
  7
STYLE1
100
AcDbText
  0
TEXT
  5
13771
330
747D
100
AcDbEntity
  8
文字
 62
     7
 48
50.0
100
AcDbText
 10
13583.11819016569
 20
10080.01374588373
 30
0.0
 40
100.0
  1
鼻隠シ前後
  7
STYLE1
100
AcDbText
  0
TEXT
  5
13772
330
747D
100
AcDbEntity
  8
文字
 62
     7
 48
50.0
100
AcDbText
 10
13271.19032244792
 20
9910.01374588373
 30
0.0
 40
100.0
  1
8
  7
STYLE1
100
AcDbText
  0
TEXT
  5
13773
330
747D
100
AcDbEntity
  8
文字
 62
     7
 48
50.0
100
AcDbText
 10
13271.19032244792
 20
9740.013745883729
 30
0.0
 40
100.0
  1
9
  7
STYLE1
100
AcDbText
  0
TEXT
  5
13774
330
747D
100
AcDbEntity
  8
文字
 62
     7
 48
50.0
100
AcDbText
 10
13271.19032244792
 20
10080.01374588373
 30
0.0
 40
100.0
  1
7
  7
STYLE1
100
AcDbText
  0
TEXT
  5
13775
330
747D
100
AcDbEntity
  8
文字
 62
     7
 48
50.0
100
AcDbText
 10
13271.19032244792
 20
10250.01374588373
 30
0.0
 40
100.0
  1
6
  7
STYLE1
100
AcDbText
  0
LINE
  5
13776
330
747D
100
AcDbEntity
  8
仕様書枠
 48
50.0
100
AcDbLine
 10
16307.19999999999
 20
9709.600000000001
 30
0.0
 11
13127.2
 21
9709.600000000001
 31
0.0
  0
LINE
  5
13777
330
747D
100
AcDbEntity
  8
仕様書枠
 48
50.0
100
AcDbLine
 10
16307.19999999999
 20
9369.600000000001
 30
0.0
 11
13127.2
 21
9369.600000000001
 31
0.0
  0
LINE
  5
13778
330
747D
100
AcDbEntity
  8
仕様書枠
 48
50.0
100
AcDbLine
 10
16307.19999999999
 20
9539.6
 30
0.0
 11
13127.2
 21
9539.6
 31
0.0
  0
LINE
  5
13779
330
747D
100
AcDbEntity
  8
仕様書枠
 48
50.0
100
AcDbLine
 10
16307.2
 20
10219.6
 30
0.0
 11
13127.2
 21
10219.6
 31
0.0
  0
LINE
  5
1377A
330
747D
100
AcDbEntity
  8
仕様書枠
 48
50.0
100
AcDbLine
 10
16307.2
 20
9879.600000000001
 30
0.0
 11
13127.2
 21
9879.600000000001
 31
0.0
  0
TEXT
  5
1377B
330
747D
100
AcDbEntity
  8
文字
 62
     7
 48
50.0
100
AcDbText
 10
13248.77747366447
 20
9400.013745883729
 30
0.0
 40
100.0
  1
11
  7
STYLE1
100
AcDbText
  0
LINE
  5
1377C
330
747D
100
AcDbEntity
  8
仕様書枠
 48
50.0
100
AcDbLine
 10
16307.19999999999
 20
9199.600000000001
 30
0.0
 11
13127.2
 21
9199.600000000001
 31
0.0
  0
LINE
  5
1377D
330
747D
100
AcDbEntity
  8
仕様書枠
 48
50.0
100
AcDbLine
 10
16307.19999999999
 20
8859.6
 30
0.0
 11
13127.2
 21
8859.600000000005
 31
0.0
  0
TEXT
  5
1377E
330
747D
100
AcDbEntity
  8
文字
 62
     7
 48
50.0
100
AcDbText
 10
13248.77747366448
 20
9060.013745883729
 30
0.0
 40
100.0
  1
13
  7
STYLE1
100
AcDbText
  0
TEXT
  5
1377F
330
747D
100
AcDbEntity
  8
文字
 62
     7
 48
50.0
100
AcDbText
 10
13248.77747366448
 20
9230.013745883729
 30
0.0
 40
100.0
  1
12
  7
STYLE1
100
AcDbText
  0
TEXT
  5
13780
330
747D
100
AcDbEntity
  8
文字
 62
     7
 48
50.0
100
AcDbText
 10
15022.63965474517
 20
11100.01374588372
 30
0.0
 40
100.0
  1
F12            1.2
  7
STYLE1
100
AcDbText
  0
TEXT
  5
13781
330
747D
100
AcDbEntity
  8
文字
 62
     7
 48
50.0
100
AcDbText
 10
15022.63965474518
 20
10760.01374588372
 30
0.0
 40
100.0
  1
F12            1.0
  7
STYLE1
100
AcDbText
  0
TEXT
  5
13782
330
747D
100
AcDbEntity
  8
文字
 62
     7
 48
50.0
100
AcDbText
 10
15022.63965474516
 20
10420.01374588372
 30
0.0
 40
100.0
  1
Y10            1.0
  7
STYLE1
100
AcDbText
  0
TEXT
  5
13783
330
747D
100
AcDbEntity
  8
文字
 62
     7
 48
50.0
100
AcDbText
 10
15022.63965474516
 20
10250.01374588372
 30
0.0
 40
100.0
  1
Y10            0.7
  7
STYLE1
100
AcDbText
  0
TEXT
  5
13784
330
747D
100
AcDbEntity
  8
文字
 62
     7
 48
50.0
100
AcDbText
 10
15022.63965474516
 20
10080.01374588372
 30
0.0
 40
100.0
  1
Y10            0.7
  7
STYLE1
100
AcDbText
  0
TEXT
  5
13785
330
747D
100
AcDbEntity
  8
文字
 62
     7
 48
50.0
100
AcDbText
 10
15022.63965474517
 20
9740.013745883725
 30
0.0
 40
100.0
  1
Y10            0.5
  7
STYLE1
100
AcDbText
  0
TEXT
  5
13786
330
747D
100
AcDbEntity
  8
文字
 62
     7
 48
50.0
100
AcDbText
 10
15022.63965474515
 20
9400.013745883725
 30
0.0
 40
100.0
  1
F12            0.7
  7
STYLE1
100
AcDbText
  0
LINE
  5
13787
330
747D
100
AcDbEntity
  8
仕様書枠
 48
50.0
100
AcDbLine
 10
16307.19999999999
 20
8349.600000000007
 30
0.0
 11
13127.19999999999
 21
8349.600000000007
 31
0.0
  0
LINE
  5
13788
330
747D
100
AcDbEntity
  8
仕様書枠
 48
50.0
100
AcDbLine
 10
16307.19999999999
 20
8009.600000000004
 30
0.0
 11
13127.19999999999
 21
8009.600000000007
 31
0.0
  0
TEXT
  5
13789
330
747D
100
AcDbEntity
  8
文字
 62
     7
 48
50.0
100
AcDbText
 10
13229.83081656554
 20
8210.013745883735
 30
0.0
 40
100.0
  1
F12→溶融亜鉛めっき鋼板(JIS G 3302)
  7
STYLE1
100
AcDbText
  0
TEXT
  5
1378A
330
747D
100
AcDbEntity
  8
文字
 62
     7
 48
50.0
100
AcDbText
 10
13229.83081656554
 20
8040.013745883735
 30
0.0
 40
100.0
  1
Y10→溶融亜鉛-5％アルミニウム合金めっき鋼板(JIS G 3317)
 41
0.9
  7
STYLE1
100
AcDbText
  0
LINE
  5
1378B
330
747D
100
AcDbEntity
  8
仕様書枠
 48
50.0
100
AcDbLine
 10
13127.2
 20
11409.6
 30
0.0
 11
13127.19999999999
 21
8009.600000000004
 31
0.0
  0
LINE
  5
1378C
330
747D
100
AcDbEntity
  8
仕様書枠
 48
50.0
100
AcDbLine
 10
16307.19999999999
 20
9029.6
 30
0.0
 11
13127.2
 21
9029.600000000003
 31
0.0
  0
TEXT
  5
1378D
330
747D
100
AcDbEntity
  8
文字
 62
     7
 48
50.0
100
AcDbText
 10
13583.1181901657
 20
10590.01374588373
 30
0.0
 40
100.0
  1
床パネル
 41
0.9
  7
STYLE1
100
AcDbText
  0
TEXT
  5
1378E
330
747D
100
AcDbEntity
  8
文字
 62
     7
 48
50.0
100
AcDbText
 10
13583.11819016569
 20
10930.01374588373
 30
0.0
 40
100.0
  1
根太
  7
STYLE1
100
AcDbText
  0
TEXT
  5
1378F
330
747D
100
AcDbEntity
  8
文字
 62
     7
 48
50.0
100
AcDbText
 10
13248.77747366448
 20
8890.013745883729
 30
0.0
 40
100.0
  1
14
  7
STYLE1
100
AcDbText
  0
TEXT
  5
13790
330
747D
100
AcDbEntity
  8
文字
 62
     7
 48
50.0
100
AcDbText
 10
15022.63965474516
 20
10930.01374588372
 30
0.0
 40
100.0
  1
F12            1.2
  7
STYLE1
100
AcDbText
  0
TEXT
  5
13791
330
747D
100
AcDbEntity
  8
文字
 62
     7
 48
50.0
100
AcDbText
 10
15022.63965474517
 20
10590.01374588372
 30
0.0
 40
100.0
  1
F12            1.0
  7
STYLE1
100
AcDbText
  0
TEXT
  5
13792
330
747D
100
AcDbEntity
  8
文字
 62
     7
 48
50.0
100
AcDbText
 10
15022.63965474515
 20
8720.013745883727
 30
0.0
 40
100.0
  1
F12            0.7
  7
STYLE1
100
AcDbText
  0
TEXT
  5
13793
330
747D
100
AcDbEntity
  8
文字
 62
     7
 48
50.0
100
AcDbText
 10
13583.11819016568
 20
8720.013745883731
 30
0.0
 40
100.0
  1
正面パネル
  7
STYLE1
100
AcDbText
  0
TEXT
  5
13794
330
747D
100
AcDbEntity
  8
文字
 62
     7
 48
50.0
100
AcDbText
 10
15022.63965474516
 20
8550.013745883727
 30
0.0
 40
100.0
  1
F12            0.8
  7
STYLE1
100
AcDbText
  0
TEXT
  5
13795
330
747D
100
AcDbEntity
  8
文字
 62
     7
 48
50.0
100
AcDbText
 10
13583.11819016569
 20
8550.013745883731
 30
0.0
 40
100.0
  1
扉
  7
STYLE1
100
AcDbText
  0
TEXT
  5
13797
330
747D
100
AcDbEntity
  8
文字
 62
     7
 48
50.0
100
AcDbText
 10
13248.77747366447
 20
8720.013745883731
 30
0.0
 40
100.0
  1
15
  7
STYLE1
100
AcDbText
  0
TEXT
  5
13798
330
747D
100
AcDbEntity
  8
文字
 62
     7
 48
50.0
100
AcDbText
 10
13583.11819016569
 20
9570.013745883729
 30
0.0
 40
100.0
  1
母屋中
  7
STYLE1
100
AcDbText
  0
LINE
  5
1379A
330
747D
100
AcDbEntity
  8
仕様書枠
 48
50.0
100
AcDbLine
 10
16307.19999999999
 20
8179.600000000005
 30
0.0
 11
13127.19999999999
 21
8179.600000000007
 31
0.0
  0
LINE
  5
1379C
330
747D
100
AcDbEntity
  8
部品1
100
AcDbLine
 10
5733.904397928898
 20
4154.417148464482
 30
0.0
 11
5733.904397928898
 21
4149.417148464482
 31
0.0
  0
LINE
  5
1379D
330
747D
100
AcDbEntity
  8
部品1
100
AcDbLine
 10
3633.904397928898
 20
4154.417148464482
 30
0.0
 11
3633.904397928898
 21
4149.417148464482
 31
0.0
  0
LINE
  5
1379E
330
747D
100
AcDbEntity
  8
部品1
 48
50.0
100
AcDbLine
 10
5760.904397928898
 20
4149.417148464482
 30
0.0
 11
3606.904397928899
 21
4149.417148464482
 31
0.0
  0
LINE
  5
1379F
330
747D
100
AcDbEntity
  8
細線
 48
50.0
100
AcDbLine
 10
5760.904397928898
 20
4139.417148464481
 30
0.0
 11
3606.904397928899
 21
4139.417148464481
 31
0.0
  0
LINE
  5
137A0
330
747D
100
AcDbEntity
  8
細線
 48
50.0
100
AcDbLine
 10
5730.904397928898
 20
4097.417148464481
 30
0.0
 11
3636.904397928898
 21
4097.417148464481
 31
0.0
  0
LINE
  5
137A1
330
747D
100
AcDbEntity
  8
細線
 48
50.0
100
AcDbLine
 10
5730.904397928898
 20
4106.917148464481
 30
0.0
 11
3636.904397928898
 21
4106.917148464481
 31
0.0
  0
LINE
  5
137A2
330
747D
100
AcDbEntity
  8
部品1
 48
50.0
100
AcDbLine
 10
3606.904397928899
 20
2014.417148464481
 30
0.0
 11
5760.904397928898
 21
2014.417148464481
 31
0.0
  0
LINE
  5
137A3
330
747D
100
AcDbEntity
  8
細線
 48
50.0
100
AcDbLine
 10
3636.904397928898
 20
2057.417148464481
 30
0.0
 11
5730.904397928898
 21
2057.417148464481
 31
0.0
  0
LINE
  5
137A4
330
747D
100
AcDbEntity
  8
細線
 48
50.0
100
AcDbLine
 10
3636.904397928898
 20
2061.417148464482
 30
0.0
 11
5730.904397928898
 21
2061.417148464482
 31
0.0
  0
LINE
  5
137A5
330
747D
100
AcDbEntity
  8
細線
 48
50.0
100
AcDbLine
 10
4434.904397928898
 20
2071.917148464482
 30
0.0
 11
5704.904397928898
 21
2071.917148464482
 31
0.0
  0
LINE
  5
137A6
330
747D
100
AcDbEntity
  8
部品1
 48
50.0
100
AcDbLine
 10
3636.904397928898
 20
2064.417148464481
 30
0.0
 11
3636.904397928898
 21
4097.417148464481
 31
0.0
  0
LINE
  5
137A7
330
747D
100
AcDbEntity
  8
細線
 48
50.0
100
AcDbLine
 10
3636.904397928898
 20
4106.917148464481
 30
0.0
 11
3636.904397928898
 21
2014.417148464481
 31
0.0
  0
LINE
  5
137A8
330
747D
100
AcDbEntity
  8
部品1
 48
50.0
100
AcDbLine
 10
3606.904397928899
 20
4149.417148464482
 30
0.0
 11
3606.904397928899
 21
2014.417148464481
 31
0.0
  0
LINE
  5
137A9
330
747D
100
AcDbEntity
  8
部品1
 48
50.0
100
AcDbLine
 10
4434.904397928898
 20
4097.417148464481
 30
0.0
 11
4434.904397928898
 21
2064.417148464481
 31
0.0
  0
LINE
  5
137AA
330
747D
100
AcDbEntity
  8
部品1
 48
50.0
100
AcDbLine
 10
3636.904397928898
 20
2064.417148464481
 30
0.0
 11
4434.904397928898
 21
2064.417148464481
 31
0.0
  0
LINE
  5
137AB
330
747D
100
AcDbEntity
  8
部品1
 48
50.0
100
AcDbLine
 10
3645.904397928898
 20
2064.417148464481
 30
0.0
 11
3645.904397928898
 21
2061.417148464482
 31
0.0
  0
LINE
  5
137AC
330
747D
100
AcDbEntity
  8
部品1
 48
50.0
100
AcDbLine
 10
3636.904397928898
 20
4105.417148464481
 30
0.0
 11
3606.904397928899
 21
4105.417148464481
 31
0.0
  0
LINE
  5
137AD
330
747D
100
AcDbEntity
  8
部品1
 48
50.0
100
AcDbLine
 10
5721.904397928899
 20
2061.417148464482
 30
0.0
 11
5721.904397928899
 21
4097.417148464481
 31
0.0
  0
LINE
  5
137AE
330
747D
100
AcDbEntity
  8
細線
 48
50.0
100
AcDbLine
 10
5730.904397928898
 20
2014.417148464481
 30
0.0
 11
5730.904397928898
 21
4106.917148464481
 31
0.0
  0
LINE
  5
137AF
330
747D
100
AcDbEntity
  8
部品1
 48
50.0
100
AcDbLine
 10
5760.904397928898
 20
1914.417148464483
 30
0.0
 11
5760.904397928898
 21
4149.417148464482
 31
0.0
  0
LINE
  5
137B0
330
747D
100
AcDbEntity
  8
部品1
 48
50.0
100
AcDbLine
 10
5085.904397928898
 20
4097.417148464481
 30
0.0
 11
5085.904397928898
 21
2071.917148464482
 31
0.0
  0
LINE
  5
137B1
330
747D
100
AcDbEntity
  8
細線
 48
50.0
100
AcDbLine
 10
5708.904397928898
 20
2061.417148464482
 30
0.0
 11
5704.904397928898
 21
2071.917148464482
 31
0.0
  0
LINE
  5
137B2
330
747D
100
AcDbEntity
  8
部品1
 48
50.0
100
AcDbLine
 10
5760.904397928898
 20
4105.417148464481
 30
0.0
 11
5730.904397928898
 21
4105.417148464481
 31
0.0
  0
LINE
  5
137B3
330
747D
100
AcDbEntity
  8
細線
100
AcDbLine
 10
5220.404397928898
 20
4097.417148464483
 30
0.0
 11
5220.404397928898
 21
2071.917148464502
 31
0.0
  0
LINE
  5
137B4
330
747D
100
AcDbEntity
  8
細線
100
AcDbLine
 10
4494.904397928897
 20
4097.417148464483
 30
0.0
 11
4494.904397928897
 21
2071.917148464494
 31
0.0
  0
LINE
  5
137B5
330
747D
100
AcDbEntity
  8
細線
100
AcDbLine
 10
4564.904397928898
 20
4097.417148464483
 30
0.0
 11
4564.904397928898
 21
2071.917148464494
 31
0.0
  0
LINE
  5
137B6
330
747D
100
AcDbEntity
  8
細線
100
AcDbLine
 10
3850.904397928898
 20
4097.417148464483
 30
0.0
 11
3850.904397928898
 21
2064.417148464487
 31
0.0
  0
LINE
  5
137B7
330
747D
100
AcDbEntity
  8
細線
100
AcDbLine
 10
3920.904397928899
 20
4097.417148464483
 30
0.0
 11
3920.904397928899
 21
2064.417148464487
 31
0.0
  0
LINE
  5
137D1
330
747D
100
AcDbEntity
  8
部品1
 48
50.0
100
AcDbLine
 10
3680.904397928898
 20
3145.917148464483
 30
0.0
 11
3733.904397928898
 21
3145.917148464483
 31
0.0
  0
LINE
  5
137D5
330
747D
100
AcDbEntity
  8
細線
100
AcDbLine
 10
5290.404397928899
 20
4097.417148464483
 30
0.0
 11
5290.404397928899
 21
2071.917148464502
 31
0.0
  0
LINE
  5
137D6
330
747D
100
AcDbEntity
  8
細線
100
AcDbLine
 10
5360.404397928898
 20
4097.417148464483
 30
0.0
 11
5360.404397928898
 21
2071.917148464502
 31
0.0
  0
LINE
  5
137D7
330
747D
100
AcDbEntity
  8
細線
100
AcDbLine
 10
5430.404397928898
 20
4097.417148464483
 30
0.0
 11
5430.404397928898
 21
2071.917148464502
 31
0.0
  0
LINE
  5
137D8
330
747D
100
AcDbEntity
  8
細線
100
AcDbLine
 10
5500.404397928898
 20
4097.417148464483
 30
0.0
 11
5500.404397928898
 21
2071.917148464502
 31
0.0
  0
LINE
  5
137D9
330
747D
100
AcDbEntity
  8
細線
100
AcDbLine
 10
5570.404397928898
 20
4097.417148464483
 30
0.0
 11
5570.404397928898
 21
2071.917148464502
 31
0.0
  0
LINE
  5
137DA
330
747D
100
AcDbEntity
  8
細線
100
AcDbLine
 10
4634.904397928898
 20
4097.417148464483
 30
0.0
 11
4634.904397928898
 21
2071.917148464494
 31
0.0
  0
LINE
  5
137DB
330
747D
100
AcDbEntity
  8
細線
100
AcDbLine
 10
4704.904397928898
 20
4097.417148464483
 30
0.0
 11
4704.904397928898
 21
2071.917148464494
 31
0.0
  0
LINE
  5
137DC
330
747D
100
AcDbEntity
  8
細線
100
AcDbLine
 10
4774.904397928898
 20
4097.417148464483
 30
0.0
 11
4774.904397928898
 21
2071.917148464494
 31
0.0
  0
LINE
  5
137DD
330
747D
100
AcDbEntity
  8
細線
100
AcDbLine
 10
4844.904397928898
 20
4097.417148464483
 30
0.0
 11
4844.904397928898
 21
2071.917148464494
 31
0.0
  0
LINE
  5
137DE
330
747D
100
AcDbEntity
  8
細線
100
AcDbLine
 10
4914.904397928898
 20
4097.417148464483
 30
0.0
 11
4914.904397928898
 21
2071.917148464494
 31
0.0
  0
LINE
  5
137DF
330
747D
100
AcDbEntity
  8
細線
100
AcDbLine
 10
4984.904397928898
 20
4097.417148464483
 30
0.0
 11
4984.904397928898
 21
2071.917148464494
 31
0.0
  0
LINE
  5
137E0
330
747D
100
AcDbEntity
  8
細線
100
AcDbLine
 10
3764.904397928898
 20
4097.417148464483
 30
0.0
 11
3764.904397928898
 21
2064.417148464487
 31
0.0
  0
LINE
  5
137E1
330
747D
100
AcDbEntity
  8
細線
100
AcDbLine
 10
3798.904397928898
 20
4097.417148464483
 30
0.0
 11
3798.904397928898
 21
2064.417148464487
 31
0.0
  0
LINE
  5
137E2
330
747D
100
AcDbEntity
  8
部品1
100
AcDbLine
 10
3756.904397928899
 20
4097.417148464483
 30
0.0
 11
3756.904397928899
 21
2064.417148464487
 31
0.0
  0
LINE
  5
137E3
330
747D
100
AcDbEntity
  8
部品1
100
AcDbLine
 10
3806.904397928899
 20
4097.417148464483
 30
0.0
 11
3806.904397928899
 21
2064.417148464487
 31
0.0
  0
LINE
  5
137E4
330
747D
100
AcDbEntity
  8
細線
100
AcDbLine
 10
3990.904397928898
 20
4097.417148464483
 30
0.0
 11
3990.904397928898
 21
2064.417148464487
 31
0.0
  0
LINE
  5
137E5
330
747D
100
AcDbEntity
  8
細線
100
AcDbLine
 10
4060.904397928898
 20
4097.417148464483
 30
0.0
 11
4060.904397928898
 21
2064.417148464487
 31
0.0
  0
LINE
  5
137E6
330
747D
100
AcDbEntity
  8
細線
100
AcDbLine
 10
4130.904397928897
 20
4097.417148464483
 30
0.0
 11
4130.904397928897
 21
2064.417148464487
 31
0.0
  0
LINE
  5
137E7
330
747D
100
AcDbEntity
  8
細線
100
AcDbLine
 10
4200.904397928898
 20
4097.417148464483
 30
0.0
 11
4200.904397928898
 21
2064.417148464487
 31
0.0
  0
LINE
  5
137E8
330
747D
100
AcDbEntity
  8
細線
100
AcDbLine
 10
4270.904397928898
 20
4097.417148464483
 30
0.0
 11
4270.904397928898
 21
2064.417148464491
 31
0.0
  0
LINE
  5
137E9
330
747D
100
AcDbEntity
  8
細線
100
AcDbLine
 10
4340.904397928897
 20
4097.417148464483
 30
0.0
 11
4340.904397928897
 21
2064.417148464491
 31
0.0
  0
LINE
  5
137EA
330
747D
100
AcDbEntity
  8
部品1
100
AcDbLine
 10
5085.904397928891
 20
4097.417148464483
 30
0.0
 11
5085.904397928898
 21
2071.917148464498
 31
0.0
  0
LINE
  5
137EB
330
747D
100
AcDbEntity
  8
部品1
 48
50.0
100
AcDbLine
 10
4434.904397928898
 20
4097.417148464483
 30
0.0
 11
4434.904397928898
 21
2064.417148464483
 31
0.0
  0
LINE
  5
137EC
330
747D
100
AcDbEntity
  8
細線
100
AcDbLine
 10
6278.904397928891
 20
4213.917148464481
 30
0.0
 11
6278.904397928891
 21
4190.917148464481
 31
0.0
  0
LINE
  5
137ED
330
747D
100
AcDbEntity
  8
細線
100
AcDbLine
 10
6352.904397928891
 20
4201.917148464481
 30
0.0
 11
6278.904397928891
 21
4201.917148464481
 31
0.0
  0
LINE
  5
137EE
330
747D
100
AcDbEntity
  8
細線
100
AcDbLine
 10
6352.904397928891
 20
4195.917148464479
 30
0.0
 11
6278.904397928891
 21
4195.917148464481
 31
0.0
  0
LINE
  5
137EF
330
747D
100
AcDbEntity
  8
細線
100
AcDbLine
 10
6352.904397928891
 20
4207.917148464479
 30
0.0
 11
6278.904397928891
 21
4207.91714846448
 31
0.0
  0
LINE
  5
137F0
330
747D
100
AcDbEntity
  8
細線
100
AcDbLine
 10
6204.904397928891
 20
4207.91714846448
 30
0.0
 11
6273.904397928891
 21
4207.91714846448
 31
0.0
  0
LINE
  5
137F1
330
747D
100
AcDbEntity
  8
細線
100
AcDbLine
 10
6204.904397928891
 20
4195.917148464481
 30
0.0
 11
6278.904397928891
 21
4195.917148464481
 31
0.0
  0
LINE
  5
137F2
330
747D
100
AcDbEntity
  8
細線
100
AcDbLine
 10
6204.904397928891
 20
4201.917148464481
 30
0.0
 11
6278.904397928891
 21
4201.917148464481
 31
0.0
  0
LINE
  5
137F3
330
747D
100
AcDbEntity
  8
細線
100
AcDbLine
 10
6204.904397928891
 20
4207.91714846448
 30
0.0
 11
6278.904397928891
 21
4207.91714846448
 31
0.0
  0
LINE
  5
137F4
330
747D
100
AcDbEntity
  8
部品1
 48
0.01
100
AcDbLine
 10
6366.904397928891
 20
4220.417148464481
 30
0.0
 11
6190.904397928891
 21
4220.417148464481
 31
0.0
  0
LINE
  5
137F5
330
747D
100
AcDbEntity
  8
部品1
 48
0.01
100
AcDbLine
 10
6188.90439792889
 20
4218.417148464481
 30
0.0
 11
6188.90439792889
 21
4186.917148464481
 31
0.0
  0
LINE
  5
137F6
330
747D
100
AcDbEntity
  8
部品1
 48
0.01
100
AcDbLine
 10
6190.904397928891
 20
4184.917148464481
 30
0.0
 11
6366.904397928891
 21
4184.917148464481
 31
0.0
  0
LINE
  5
137F7
330
747D
100
AcDbEntity
  8
部品1
 48
0.01
100
AcDbLine
 10
6368.904397928891
 20
4186.917148464481
 30
0.0
 11
6368.904397928891
 21
4218.417148464481
 31
0.0
  0
LINE
  5
137F8
330
747D
100
AcDbEntity
  8
細線
100
AcDbLine
 10
6204.904397928891
 20
4213.917148464481
 30
0.0
 11
6204.904397928891
 21
4190.917148464481
 31
0.0
  0
LINE
  5
137F9
330
747D
100
AcDbEntity
  8
細線
100
AcDbLine
 10
6352.904397928891
 20
4190.917148464481
 30
0.0
 11
6352.904397928891
 21
4213.917148464481
 31
0.0
  0
LINE
  5
137FA
330
747D
100
AcDbEntity
  8
細線
100
AcDbLine
 10
6352.904397928891
 20
4213.917148464481
 30
0.0
 11
6278.904397928891
 21
4213.917148464481
 31
0.0
  0
LINE
  5
137FB
330
747D
100
AcDbEntity
  8
細線
100
AcDbLine
 10
6204.904397928891
 20
4190.917148464481
 30
0.0
 11
6278.904397928891
 21
4190.917148464481
 31
0.0
  0
LINE
  5
137FC
330
747D
100
AcDbEntity
  8
細線
100
AcDbLine
 10
6278.904397928891
 20
4213.917148464481
 30
0.0
 11
6204.904397928891
 21
4213.917148464481
 31
0.0
  0
LINE
  5
137FD
330
747D
100
AcDbEntity
  8
細線
100
AcDbLine
 10
6278.904397928891
 20
4190.917148464481
 30
0.0
 11
6352.904397928891
 21
4190.917148464481
 31
0.0
  0
ARC
  5
137FE
330
747D
100
AcDbEntity
  8
部品1
 48
0.01
100
AcDbCircle
 10
6190.904397928891
 20
4218.417148464481
 30
0.0
 40
2.0
100
AcDbArc
 50
90.0
 51
180.0
  0
ARC
  5
137FF
330
747D
100
AcDbEntity
  8
部品1
 48
0.01
100
AcDbCircle
 10
6190.904397928891
 20
4186.917148464481
 30
0.0
 40
2.0
100
AcDbArc
 50
180.0
 51
270.0
  0
ARC
  5
13800
330
747D
100
AcDbEntity
  8
部品1
 48
0.01
100
AcDbCircle
 10
6366.904397928891
 20
4218.417148464481
 30
0.0
 40
2.0
100
AcDbArc
 50
0.0
 51
90.0
  0
ARC
  5
13801
330
747D
100
AcDbEntity
  8
部品1
 48
0.01
100
AcDbCircle
 10
6366.904397928891
 20
4186.917148464481
 30
0.0
 40
2.0
100
AcDbArc
 50
270.0
 51
0.0
  0
ARC
  5
13802
330
747D
100
AcDbEntity
  8
部品1
 48
0.01
100
AcDbCircle
 10
7420.904397928909
 20
4186.917148464483
 30
0.0
 40
2.0
100
AcDbArc
 50
180.0
 51
270.0
  0
ARC
  5
13803
330
747D
100
AcDbEntity
  8
部品1
 48
0.01
100
AcDbCircle
 10
7420.904397928909
 20
4218.417148464483
 30
0.0
 40
2.0
100
AcDbArc
 50
90.0
 51
180.0
  0
ARC
  5
13804
330
747D
100
AcDbEntity
  8
部品1
 48
0.01
100
AcDbCircle
 10
7596.904397928909
 20
4186.917148464483
 30
0.0
 40
2.0
100
AcDbArc
 50
270.0
 51
0.0
  0
ARC
  5
13805
330
747D
100
AcDbEntity
  8
部品1
 48
0.01
100
AcDbCircle
 10
7596.904397928909
 20
4218.417148464483
 30
0.0
 40
2.0
100
AcDbArc
 50
0.0
 51
90.0
  0
LINE
  5
13806
330
747D
100
AcDbEntity
  8
細線
100
AcDbLine
 10
7508.904397928908
 20
4190.917148464483
 30
0.0
 11
7434.904397928909
 21
4190.917148464483
 31
0.0
  0
LINE
  5
13807
330
747D
100
AcDbEntity
  8
細線
100
AcDbLine
 10
7508.904397928908
 20
4213.917148464483
 30
0.0
 11
7582.90439792891
 21
4213.917148464483
 31
0.0
  0
LINE
  5
13808
330
747D
100
AcDbEntity
  8
細線
100
AcDbLine
 10
7582.90439792891
 20
4190.917148464483
 30
0.0
 11
7508.904397928908
 21
4190.917148464483
 31
0.0
  0
LINE
  5
13809
330
747D
100
AcDbEntity
  8
細線
100
AcDbLine
 10
7434.904397928909
 20
4213.917148464483
 30
0.0
 11
7508.904397928908
 21
4213.917148464483
 31
0.0
  0
LINE
  5
1380A
330
747D
100
AcDbEntity
  8
細線
100
AcDbLine
 10
7434.904397928909
 20
4190.917148464483
 30
0.0
 11
7434.904397928909
 21
4213.917148464483
 31
0.0
  0
LINE
  5
1380B
330
747D
100
AcDbEntity
  8
細線
100
AcDbLine
 10
7582.90439792891
 20
4213.917148464483
 30
0.0
 11
7582.90439792891
 21
4190.917148464483
 31
0.0
  0
LINE
  5
1380C
330
747D
100
AcDbEntity
  8
部品1
 48
0.01
100
AcDbLine
 10
7418.904397928909
 20
4186.917148464483
 30
0.0
 11
7418.904397928909
 21
4218.417148464483
 31
0.0
  0
LINE
  5
1380D
330
747D
100
AcDbEntity
  8
部品1
 48
0.01
100
AcDbLine
 10
7596.904397928909
 20
4184.917148464483
 30
0.0
 11
7420.904397928909
 21
4184.917148464483
 31
0.0
  0
LINE
  5
1380E
330
747D
100
AcDbEntity
  8
部品1
 48
0.01
100
AcDbLine
 10
7598.904397928909
 20
4218.417148464483
 30
0.0
 11
7598.904397928909
 21
4186.917148464483
 31
0.0
  0
LINE
  5
1380F
330
747D
100
AcDbEntity
  8
部品1
 48
0.01
100
AcDbLine
 10
7420.904397928909
 20
4220.417148464483
 30
0.0
 11
7596.904397928909
 21
4220.417148464483
 31
0.0
  0
LINE
  5
13810
330
747D
100
AcDbEntity
  8
細線
100
AcDbLine
 10
7582.90439792891
 20
4207.917148464483
 30
0.0
 11
7508.904397928908
 21
4207.917148464483
 31
0.0
  0
LINE
  5
13811
330
747D
100
AcDbEntity
  8
細線
100
AcDbLine
 10
7582.90439792891
 20
4201.917148464483
 30
0.0
 11
7508.904397928908
 21
4201.917148464483
 31
0.0
  0
LINE
  5
13812
330
747D
100
AcDbEntity
  8
細線
100
AcDbLine
 10
7582.90439792891
 20
4195.917148464483
 30
0.0
 11
7508.904397928908
 21
4195.917148464483
 31
0.0
  0
LINE
  5
13813
330
747D
100
AcDbEntity
  8
細線
100
AcDbLine
 10
7582.90439792891
 20
4207.917148464483
 30
0.0
 11
7513.90439792891
 21
4207.917148464483
 31
0.0
  0
LINE
  5
13814
330
747D
100
AcDbEntity
  8
細線
100
AcDbLine
 10
7434.904397928909
 20
4207.91714846448
 30
0.0
 11
7508.904397928908
 21
4207.917148464483
 31
0.0
  0
LINE
  5
13815
330
747D
100
AcDbEntity
  8
細線
100
AcDbLine
 10
7434.904397928909
 20
4195.917148464481
 30
0.0
 11
7508.904397928908
 21
4195.917148464483
 31
0.0
  0
LINE
  5
13816
330
747D
100
AcDbEntity
  8
細線
100
AcDbLine
 10
7434.904397928909
 20
4201.917148464483
 30
0.0
 11
7508.904397928908
 21
4201.917148464483
 31
0.0
  0
LINE
  5
13817
330
747D
100
AcDbEntity
  8
細線
100
AcDbLine
 10
7508.904397928908
 20
4213.917148464483
 30
0.0
 11
7508.904397928908
 21
4190.917148464483
 31
0.0
  0
LINE
  5
13818
330
747D
100
AcDbEntity
  8
細線
 48
50.0
100
AcDbLine
 10
6186.404397928902
 20
4154.417148464482
 30
0.0
 11
6186.404397928906
 21
2064.417148464483
 31
0.0
  0
LINE
  5
13819
330
747D
100
AcDbEntity
  8
細線
 48
50.0
100
AcDbLine
 10
6201.404397928902
 20
4154.417148464482
 30
0.0
 11
6201.404397928905
 21
2064.417148464483
 31
0.0
  0
LINE
  5
1381A
330
747D
100
AcDbEntity
  8
細線
 48
50.0
100
AcDbLine
 10
6061.404397928902
 20
4154.417148464482
 30
0.0
 11
6061.404397928906
 21
2064.417148464483
 31
0.0
  0
LINE
  5
1381B
330
747D
100
AcDbEntity
  8
細線
 48
50.0
100
AcDbLine
 10
6046.404397928902
 20
4154.417148464482
 30
0.0
 11
6046.404397928905
 21
2064.417148464483
 31
0.0
  0
LINE
  5
1381C
330
747D
100
AcDbEntity
  8
細線
 48
50.0
100
AcDbLine
 10
5906.404397928902
 20
4154.417148464482
 30
0.0
 11
5906.404397928906
 21
2064.417148464483
 31
0.0
  0
LINE
  5
1381D
330
747D
100
AcDbEntity
  8
細線
 48
50.0
100
AcDbLine
 10
5921.404397928902
 20
4154.417148464482
 30
0.0
 11
5921.404397928905
 21
2064.417148464483
 31
0.0
  0
LINE
  5
1381E
330
747D
100
AcDbEntity
  8
細線
 48
50.0
100
AcDbLine
 10
6341.404397928902
 20
4154.417148464482
 30
0.0
 11
6341.404397928905
 21
2064.417148464483
 31
0.0
  0
LINE
  5
1381F
330
747D
100
AcDbEntity
  8
細線
 48
50.0
100
AcDbLine
 10
6326.404397928902
 20
4154.417148464482
 30
0.0
 11
6326.404397928905
 21
2064.417148464483
 31
0.0
  0
LINE
  5
13820
330
747D
100
AcDbEntity
  8
細線
 48
50.0
100
AcDbLine
 10
6466.404397928902
 20
4154.417148464482
 30
0.0
 11
6466.404397928906
 21
2064.417148464483
 31
0.0
  0
LINE
  5
13821
330
747D
100
AcDbEntity
  8
細線
 48
50.0
100
AcDbLine
 10
6481.404397928902
 20
4154.417148464482
 30
0.0
 11
6481.404397928905
 21
2064.417148464483
 31
0.0
  0
LINE
  5
13822
330
747D
100
AcDbEntity
  8
細線
 48
50.0
100
AcDbLine
 10
6621.404397928902
 20
4154.417148464482
 30
0.0
 11
6621.404397928905
 21
2064.417148464483
 31
0.0
  0
LINE
  5
13823
330
747D
100
AcDbEntity
  8
細線
 48
50.0
100
AcDbLine
 10
6606.404397928902
 20
4154.417148464482
 30
0.0
 11
6606.404397928905
 21
2064.417148464483
 31
0.0
  0
LINE
  5
13824
330
747D
100
AcDbEntity
  8
細線
 48
50.0
100
AcDbLine
 10
7026.404397928901
 20
4154.417148464482
 30
0.0
 11
7026.404397928906
 21
2064.417148464483
 31
0.0
  0
LINE
  5
13825
330
747D
100
AcDbEntity
  8
細線
 48
50.0
100
AcDbLine
 10
7041.404397928902
 20
4154.417148464482
 30
0.0
 11
7041.404397928906
 21
2064.417148464483
 31
0.0
  0
LINE
  5
13826
330
747D
100
AcDbEntity
  8
細線
 48
50.0
100
AcDbLine
 10
6901.404397928901
 20
4154.417148464482
 30
0.0
 11
6901.404397928906
 21
2064.417148464483
 31
0.0
  0
LINE
  5
13827
330
747D
100
AcDbEntity
  8
細線
 48
50.0
100
AcDbLine
 10
6886.404397928902
 20
4154.417148464482
 30
0.0
 11
6886.404397928905
 21
2064.417148464483
 31
0.0
  0
LINE
  5
13828
330
747D
100
AcDbEntity
  8
細線
 48
50.0
100
AcDbLine
 10
6746.404397928902
 20
4154.417148464482
 30
0.0
 11
6746.404397928905
 21
2064.417148464483
 31
0.0
  0
LINE
  5
13829
330
747D
100
AcDbEntity
  8
細線
 48
50.0
100
AcDbLine
 10
6761.404397928902
 20
4154.417148464482
 30
0.0
 11
6761.404397928905
 21
2064.417148464483
 31
0.0
  0
LINE
  5
1382A
330
747D
100
AcDbEntity
  8
細線
 48
50.0
100
AcDbLine
 10
7446.404397928901
 20
4154.417148464482
 30
0.0
 11
7446.404397928906
 21
2064.417148464483
 31
0.0
  0
LINE
  5
1382B
330
747D
100
AcDbEntity
  8
細線
 48
50.0
100
AcDbLine
 10
7461.404397928902
 20
4154.417148464482
 30
0.0
 11
7461.404397928905
 21
2064.417148464483
 31
0.0
  0
LINE
  5
1382C
330
747D
100
AcDbEntity
  8
細線
 48
50.0
100
AcDbLine
 10
7321.404397928901
 20
4154.417148464482
 30
0.0
 11
7321.404397928906
 21
2064.417148464483
 31
0.0
  0
LINE
  5
1382D
330
747D
100
AcDbEntity
  8
細線
 48
50.0
100
AcDbLine
 10
7306.404397928902
 20
4154.417148464482
 30
0.0
 11
7306.404397928905
 21
2064.417148464483
 31
0.0
  0
LINE
  5
1382E
330
747D
100
AcDbEntity
  8
細線
 48
50.0
100
AcDbLine
 10
7166.404397928902
 20
4154.417148464482
 30
0.0
 11
7166.404397928906
 21
2064.417148464483
 31
0.0
  0
LINE
  5
1382F
330
747D
100
AcDbEntity
  8
細線
 48
50.0
100
AcDbLine
 10
7181.404397928902
 20
4154.417148464482
 30
0.0
 11
7181.404397928905
 21
2064.417148464483
 31
0.0
  0
LINE
  5
13830
330
747D
100
AcDbEntity
  8
細線
 48
50.0
100
AcDbLine
 10
7601.404397928901
 20
4154.417148464482
 30
0.0
 11
7601.404397928906
 21
2064.417148464483
 31
0.0
  0
LINE
  5
13831
330
747D
100
AcDbEntity
  8
細線
 48
50.0
100
AcDbLine
 10
7586.404397928902
 20
4154.417148464482
 30
0.0
 11
7586.404397928905
 21
2064.417148464483
 31
0.0
  0
LINE
  5
13832
330
747D
100
AcDbEntity
  8
細線
 48
50.0
100
AcDbLine
 10
7726.404397928901
 20
4154.417148464482
 30
0.0
 11
7726.404397928904
 21
2064.417148464483
 31
0.0
  0
LINE
  5
13833
330
747D
100
AcDbEntity
  8
細線
 48
50.0
100
AcDbLine
 10
7741.404397928902
 20
4154.417148464482
 30
0.0
 11
7741.404397928903
 21
2064.417148464483
 31
0.0
  0
LINE
  5
13834
330
747D
100
AcDbEntity
  8
細線
 48
50.0
100
AcDbLine
 10
7881.404397928903
 20
4154.417148464482
 30
0.0
 11
7881.404397928903
 21
2064.417148464483
 31
0.0
  0
LINE
  5
13835
330
747D
100
AcDbEntity
  8
細線
 48
50.0
100
AcDbLine
 10
7866.404397928902
 20
4154.417148464482
 30
0.0
 11
7866.404397928903
 21
2064.417148464483
 31
0.0
  0
LINE
  5
13836
330
747D
100
AcDbEntity
  8
細線
100
AcDbLine
 10
5298.904397928909
 20
4213.917148464483
 30
0.0
 11
5298.904397928909
 21
4190.917148464483
 31
0.0
  0
LINE
  5
13837
330
747D
100
AcDbEntity
  8
細線
100
AcDbLine
 10
5224.904397928909
 20
4201.917148464483
 30
0.0
 11
5298.904397928909
 21
4201.917148464483
 31
0.0
  0
LINE
  5
13838
330
747D
100
AcDbEntity
  8
細線
100
AcDbLine
 10
5224.904397928909
 20
4195.917148464481
 30
0.0
 11
5298.904397928909
 21
4195.917148464483
 31
0.0
  0
LINE
  5
13839
330
747D
100
AcDbEntity
  8
細線
100
AcDbLine
 10
5224.904397928909
 20
4207.91714846448
 30
0.0
 11
5298.904397928909
 21
4207.917148464483
 31
0.0
  0
LINE
  5
1383A
330
747D
100
AcDbEntity
  8
細線
100
AcDbLine
 10
5372.904397928909
 20
4207.917148464483
 30
0.0
 11
5303.904397928909
 21
4207.917148464483
 31
0.0
  0
LINE
  5
1383B
330
747D
100
AcDbEntity
  8
細線
100
AcDbLine
 10
5372.904397928909
 20
4195.917148464483
 30
0.0
 11
5298.904397928909
 21
4195.917148464483
 31
0.0
  0
LINE
  5
1383C
330
747D
100
AcDbEntity
  8
細線
100
AcDbLine
 10
5372.904397928909
 20
4201.917148464483
 30
0.0
 11
5298.904397928909
 21
4201.917148464483
 31
0.0
  0
LINE
  5
1383D
330
747D
100
AcDbEntity
  8
細線
100
AcDbLine
 10
5372.904397928909
 20
4207.917148464483
 30
0.0
 11
5298.904397928909
 21
4207.917148464483
 31
0.0
  0
LINE
  5
1383E
330
747D
100
AcDbEntity
  8
部品1
 48
0.01
100
AcDbLine
 10
5210.904397928909
 20
4220.417148464483
 30
0.0
 11
5386.904397928908
 21
4220.417148464483
 31
0.0
  0
LINE
  5
1383F
330
747D
100
AcDbEntity
  8
部品1
 48
0.01
100
AcDbLine
 10
5388.904397928909
 20
4218.417148464483
 30
0.0
 11
5388.904397928909
 21
4186.917148464483
 31
0.0
  0
LINE
  5
13840
330
747D
100
AcDbEntity
  8
部品1
 48
0.01
100
AcDbLine
 10
5386.904397928908
 20
4184.917148464483
 30
0.0
 11
5210.904397928909
 21
4184.917148464483
 31
0.0
  0
LINE
  5
13841
330
747D
100
AcDbEntity
  8
部品1
 48
0.01
100
AcDbLine
 10
5208.904397928909
 20
4186.917148464483
 30
0.0
 11
5208.904397928909
 21
4218.417148464483
 31
0.0
  0
LINE
  5
13842
330
747D
100
AcDbEntity
  8
細線
100
AcDbLine
 10
5372.904397928909
 20
4213.917148464483
 30
0.0
 11
5372.904397928909
 21
4190.917148464483
 31
0.0
  0
LINE
  5
13843
330
747D
100
AcDbEntity
  8
細線
100
AcDbLine
 10
5224.904397928909
 20
4190.917148464483
 30
0.0
 11
5224.904397928909
 21
4213.917148464483
 31
0.0
  0
LINE
  5
13844
330
747D
100
AcDbEntity
  8
細線
100
AcDbLine
 10
5224.904397928909
 20
4213.917148464483
 30
0.0
 11
5298.904397928909
 21
4213.917148464483
 31
0.0
  0
LINE
  5
13845
330
747D
100
AcDbEntity
  8
細線
100
AcDbLine
 10
5372.904397928909
 20
4190.917148464483
 30
0.0
 11
5298.904397928909
 21
4190.917148464483
 31
0.0
  0
LINE
  5
13846
330
747D
100
AcDbEntity
  8
細線
100
AcDbLine
 10
5298.904397928909
 20
4213.917148464483
 30
0.0
 11
5372.904397928909
 21
4213.917148464483
 31
0.0
  0
LINE
  5
13847
330
747D
100
AcDbEntity
  8
細線
100
AcDbLine
 10
5298.904397928909
 20
4190.917148464483
 30
0.0
 11
5224.904397928909
 21
4190.917148464483
 31
0.0
  0
ARC
  5
13848
330
747D
100
AcDbEntity
  8
部品1
 48
0.01
100
AcDbCircle
 10
5386.904397928908
 20
4218.417148464483
 30
0.0
 40
2.0
100
AcDbArc
 50
0.0
 51
90.0
  0
ARC
  5
13849
330
747D
100
AcDbEntity
  8
部品1
 48
0.01
100
AcDbCircle
 10
5386.904397928908
 20
4186.917148464483
 30
0.0
 40
2.0
100
AcDbArc
 50
270.0
 51
0.0
  0
ARC
  5
1384A
330
747D
100
AcDbEntity
  8
部品1
 48
0.01
100
AcDbCircle
 10
5210.904397928909
 20
4218.417148464483
 30
0.0
 40
2.0
100
AcDbArc
 50
90.0
 51
180.0
  0
ARC
  5
1384B
330
747D
100
AcDbEntity
  8
部品1
 48
0.01
100
AcDbCircle
 10
5210.904397928909
 20
4186.917148464483
 30
0.0
 40
2.0
100
AcDbArc
 50
180.0
 51
270.0
  0
ARC
  5
1384C
330
747D
100
AcDbEntity
  8
部品1
 48
0.01
100
AcDbCircle
 10
4156.90439792889
 20
4186.917148464481
 30
0.0
 40
2.0
100
AcDbArc
 50
270.0
 51
0.0
  0
ARC
  5
1384D
330
747D
100
AcDbEntity
  8
部品1
 48
0.01
100
AcDbCircle
 10
4156.90439792889
 20
4218.417148464481
 30
0.0
 40
2.0
100
AcDbArc
 50
0.0
 51
90.0
  0
ARC
  5
1384E
330
747D
100
AcDbEntity
  8
部品1
 48
0.01
100
AcDbCircle
 10
3980.904397928891
 20
4186.917148464481
 30
0.0
 40
2.0
100
AcDbArc
 50
180.0
 51
270.0
  0
ARC
  5
1384F
330
747D
100
AcDbEntity
  8
部品1
 48
0.01
100
AcDbCircle
 10
3980.904397928891
 20
4218.417148464481
 30
0.0
 40
2.0
100
AcDbArc
 50
90.0
 51
180.0
  0
LINE
  5
13850
330
747D
100
AcDbEntity
  8
細線
100
AcDbLine
 10
4068.904397928891
 20
4190.917148464481
 30
0.0
 11
4142.90439792889
 21
4190.917148464481
 31
0.0
  0
LINE
  5
13851
330
747D
100
AcDbEntity
  8
細線
100
AcDbLine
 10
4068.904397928891
 20
4213.917148464481
 30
0.0
 11
3994.904397928891
 21
4213.917148464481
 31
0.0
  0
LINE
  5
13852
330
747D
100
AcDbEntity
  8
細線
100
AcDbLine
 10
3994.904397928891
 20
4190.917148464481
 30
0.0
 11
4068.904397928891
 21
4190.917148464481
 31
0.0
  0
LINE
  5
13853
330
747D
100
AcDbEntity
  8
細線
100
AcDbLine
 10
4142.90439792889
 20
4213.917148464481
 30
0.0
 11
4068.904397928891
 21
4213.917148464481
 31
0.0
  0
LINE
  5
13854
330
747D
100
AcDbEntity
  8
細線
100
AcDbLine
 10
4142.90439792889
 20
4190.917148464481
 30
0.0
 11
4142.90439792889
 21
4213.917148464481
 31
0.0
  0
LINE
  5
13855
330
747D
100
AcDbEntity
  8
細線
100
AcDbLine
 10
3994.904397928891
 20
4213.917148464481
 30
0.0
 11
3994.904397928891
 21
4190.917148464481
 31
0.0
  0
LINE
  5
13856
330
747D
100
AcDbEntity
  8
部品1
 48
0.01
100
AcDbLine
 10
4158.904397928891
 20
4186.917148464481
 30
0.0
 11
4158.904397928891
 21
4218.417148464481
 31
0.0
  0
LINE
  5
13857
330
747D
100
AcDbEntity
  8
部品1
 48
0.01
100
AcDbLine
 10
3980.904397928891
 20
4184.917148464481
 30
0.0
 11
4156.90439792889
 21
4184.917148464481
 31
0.0
  0
LINE
  5
13858
330
747D
100
AcDbEntity
  8
部品1
 48
0.01
100
AcDbLine
 10
3978.904397928891
 20
4218.417148464481
 30
0.0
 11
3978.904397928891
 21
4186.917148464481
 31
0.0
  0
LINE
  5
13859
330
747D
100
AcDbEntity
  8
部品1
 48
0.01
100
AcDbLine
 10
4156.90439792889
 20
4220.417148464481
 30
0.0
 11
3980.904397928891
 21
4220.417148464481
 31
0.0
  0
LINE
  5
1385A
330
747D
100
AcDbEntity
  8
細線
100
AcDbLine
 10
3994.904397928891
 20
4207.91714846448
 30
0.0
 11
4068.904397928891
 21
4207.91714846448
 31
0.0
  0
LINE
  5
1385B
330
747D
100
AcDbEntity
  8
細線
100
AcDbLine
 10
3994.904397928891
 20
4201.917148464481
 30
0.0
 11
4068.904397928891
 21
4201.917148464481
 31
0.0
  0
LINE
  5
1385C
330
747D
100
AcDbEntity
  8
細線
100
AcDbLine
 10
3994.904397928891
 20
4195.917148464481
 30
0.0
 11
4068.904397928891
 21
4195.917148464481
 31
0.0
  0
LINE
  5
1385D
330
747D
100
AcDbEntity
  8
細線
100
AcDbLine
 10
3994.904397928891
 20
4207.91714846448
 30
0.0
 11
4063.90439792889
 21
4207.91714846448
 31
0.0
  0
LINE
  5
1385E
330
747D
100
AcDbEntity
  8
細線
100
AcDbLine
 10
4142.90439792889
 20
4207.917148464479
 30
0.0
 11
4068.904397928891
 21
4207.91714846448
 31
0.0
  0
LINE
  5
1385F
330
747D
100
AcDbEntity
  8
細線
100
AcDbLine
 10
4142.90439792889
 20
4195.917148464479
 30
0.0
 11
4068.904397928891
 21
4195.917148464481
 31
0.0
  0
LINE
  5
13860
330
747D
100
AcDbEntity
  8
細線
100
AcDbLine
 10
4142.90439792889
 20
4201.917148464481
 30
0.0
 11
4068.904397928891
 21
4201.917148464481
 31
0.0
  0
LINE
  5
13861
330
747D
100
AcDbEntity
  8
細線
100
AcDbLine
 10
4068.904397928891
 20
4213.917148464481
 30
0.0
 11
4068.904397928891
 21
4190.917148464481
 31
0.0
  0
LINE
  5
13862
330
747D
100
AcDbEntity
  8
細線
 48
50.0
100
AcDbLine
 10
3561.904397928898
 20
4389.417148464486
 30
0.0
 11
3561.904397928898
 21
4248.417148464486
 31
0.0
  0
ARC
  5
13863
330
747D
100
AcDbEntity
  8
部品1
100
AcDbCircle
 10
3536.312819035327
 20
4382.417148464486
 30
0.0
 40
7.0
100
AcDbArc
 50
90.0
 51
183.2473427903377
  0
ARC
  5
13864
330
747D
100
AcDbEntity
  8
部品1
100
AcDbCircle
 10
3549.528142496362
 20
4255.41714846449
 30
0.0
 40
7.0
100
AcDbArc
 50
183.2473427903377
 51
270.0
  0
ARC
  5
13865
330
747D
100
AcDbEntity
  8
部品1
 48
50.0
100
AcDbCircle
 10
3531.156332285686
 20
4362.084147626173
 30
0.0
 40
0.7
100
AcDbArc
 50
183.2473427903897
 51
262.3418727926365
  0
ARC
  5
13866
330
747D
100
AcDbEntity
  8
部品1
 48
50.0
100
AcDbCircle
 10
3539.392362810526
 20
4269.88414762617
 30
0.0
 40
0.7
100
AcDbArc
 50
183.2473427902856
 51
262.3418727926365
  0
ARC
  5
13867
330
747D
100
AcDbEntity
  8
部品1
 48
50.0
100
AcDbCircle
 10
3538.899293701965
 20
4266.217148464486
 30
0.0
 40
3.0
100
AcDbArc
 50
3.247342790337682
 51
82.34187279263654
  0
ARC
  5
13868
330
747D
100
AcDbEntity
  8
部品1
 48
50.0
100
AcDbCircle
 10
3530.663263177121
 20
4358.41714846449
 30
0.0
 40
3.0
100
AcDbArc
 50
3.247342790337682
 51
82.34187279263654
  0
LINE
  5
13869
330
747D
100
AcDbEntity
  8
部品1
100
AcDbLine
 10
3533.658446073307
 20
4358.58708791959
 30
0.0
 11
3538.693486801418
 21
4269.844495086647
 31
0.0
  0
LINE
  5
1386A
330
747D
100
AcDbEntity
  8
部品1
100
AcDbLine
 10
3541.894476598154
 20
4266.387087919588
 30
0.0
 11
3542.539382405263
 21
4255.020623069249
 31
0.0
  0
LINE
  5
1386B
330
747D
100
AcDbEntity
  8
部品1
100
AcDbLine
 10
3529.324058944228
 20
4382.020623069249
 30
0.0
 11
3530.457456276578
 21
4362.044495086648
 31
0.0
  0
DIMENSION
  5
1386C
330
747D
100
AcDbEntity
  8
寸法
 48
50.0
100
AcDbDimension
  2
*D13
 10
3528.904397928898
 20
4601.958733722728
 30
0.0
 11
3215.419116554651
 21
4601.958733722728
 31
0.0
 70
   160
 71
     5
 42
50.0
  3
INABA_S40G
100
AcDbAlignedDimension
 13
3578.904397928898
 23
4389.417148464491
 33
0.0
 14
3528.904397928898
 24
4389.417148464489
 34
0.0
100
AcDbRotatedDimension
1001
ACAD
1000
DSTYLE
1002
{
1002
}
  0
LINE
  5
1386D
330
747D
100
AcDbEntity
  8
部品1
 48
50.0
100
AcDbLine
 10
8041.495976822469
 20
4389.417148464485
 30
0.0
 11
3536.312819035327
 21
4389.417148464485
 31
0.0
  0
LINE
  5
1386E
330
747D
100
AcDbEntity
  8
細線
 48
50.0
100
AcDbLine
 10
8046.745746916986
 20
4361.390391027953
 30
0.0
 11
3531.063048939312
 21
4361.390391028485
 31
0.0
  0
LINE
  5
1386F
330
747D
100
AcDbEntity
  8
細線
 48
50.0
100
AcDbLine
 10
8038.509716392141
 20
4269.190391027953
 30
0.0
 11
3539.299079464145
 21
4269.190391028482
 31
0.0
  0
LINE
  5
13870
330
747D
100
AcDbEntity
  8
部品1
 48
50.0
100
AcDbLine
 10
8028.280653361434
 20
4248.417148464486
 30
0.0
 11
3549.528142496362
 21
4248.417148464486
 31
0.0
  0
LINE
  5
13871
330
747D
100
AcDbEntity
  8
部品1
100
AcDbLine
 10
8048.484736913568
 20
4382.020623069245
 30
0.0
 11
8047.351339581222
 21
4362.044495086645
 31
0.0
  0
LINE
  5
13872
330
747D
100
AcDbEntity
  8
細線
 48
50.0
100
AcDbLine
 10
8015.904397928903
 20
4389.417148464485
 30
0.0
 11
8015.904397928903
 21
4248.417148464485
 31
0.0
  0
LINE
  5
13873
330
747D
100
AcDbEntity
  8
部品1
100
AcDbLine
 10
8035.914319259646
 20
4266.387087919587
 30
0.0
 11
8035.269413452533
 21
4255.020623069247
 31
0.0
  0
LINE
  5
13874
330
747D
100
AcDbEntity
  8
部品1
100
AcDbLine
 10
8044.150349784489
 20
4358.587087919588
 30
0.0
 11
8039.115309056379
 21
4269.844495086645
 31
0.0
  0
ARC
  5
13875
330
747D
100
AcDbEntity
  8
部品1
 48
50.0
100
AcDbCircle
 10
8047.145532680676
 20
4358.417148464487
 30
0.0
 40
3.0
100
AcDbArc
 50
97.65812720736347
 51
176.7526572096623
  0
ARC
  5
13876
330
747D
100
AcDbEntity
  8
部品1
 48
50.0
100
AcDbCircle
 10
8038.909502155831
 20
4266.217148464484
 30
0.0
 40
3.0
100
AcDbArc
 50
97.65812720736347
 51
176.7526572096623
  0
ARC
  5
13877
330
747D
100
AcDbEntity
  8
部品1
 48
50.0
100
AcDbCircle
 10
8038.41643304727
 20
4269.884147626167
 30
0.0
 40
0.7
100
AcDbArc
 50
277.6581272073635
 51
356.7526572097143
  0
ARC
  5
13878
330
747D
100
AcDbEntity
  8
部品1
 48
50.0
100
AcDbCircle
 10
8046.652463572113
 20
4362.084147626172
 30
0.0
 40
0.7
100
AcDbArc
 50
277.6581272073635
 51
356.7526572096103
  0
ARC
  5
13879
330
747D
100
AcDbEntity
  8
部品1
100
AcDbCircle
 10
8028.280653361434
 20
4255.417148464487
 30
0.0
 40
7.0
100
AcDbArc
 50
270.0
 51
356.7526572096623
  0
ARC
  5
1387A
330
747D
100
AcDbEntity
  8
部品1
100
AcDbCircle
 10
8041.495976822469
 20
4382.417148464485
 30
0.0
 40
7.0
100
AcDbArc
 50
356.7526572096623
 51
90.0
  0
DIMENSION
  5
1387B
330
747D
100
AcDbEntity
  8
寸法
 48
50.0
100
AcDbDimension
  2
*D14
 10
8048.904397928902
 20
4822.864034196476
 30
0.0
 11
5788.904397928899
 21
4822.864034196476
 31
0.0
 70
   160
 71
     5
 42
4520.000000000004
  3
INABA_S40G
100
AcDbAlignedDimension
 13
3528.904397928898
 23
4389.417148464489
 33
0.0
 14
8048.904397928902
 24
4389.417148464485
 34
0.0
100
AcDbRotatedDimension
  0
DIMENSION
  5
1387C
330
747D
100
AcDbEntity
  8
寸法
 48
50.0
100
AcDbDimension
  2
*D15
 10
7998.904397928902
 20
4601.958733722725
 30
0.0
 11
8362.389679303138
 21
4601.958733722725
 31
0.0
 70
   160
 71
     5
 42
50.0
  3
INABA_S40G
100
AcDbAlignedDimension
 13
8048.904397928902
 23
4389.417148464485
 33
0.0
 14
7998.904397928902
 24
4389.417148464486
 34
0.0
100
AcDbRotatedDimension
  0
DIMENSION
  5
1387D
330
747D
100
AcDbEntity
  8
寸法
 48
50.0
100
AcDbDimension
  2
*D16
 10
3578.904397928898
 20
4601.958733722727
 30
0.0
 11
5788.904397928899
 21
4601.958733722727
 31
0.0
 70
   160
  1
柱外寸法<>
 71
     5
 42
4420.000000000004
  3
INABA_S40G
100
AcDbAlignedDimension
 13
7998.904397928902
 23
4389.417148464486
 33
0.0
 14
3578.904397928898
 24
4389.417148464491
 34
0.0
100
AcDbRotatedDimension
  0
TEXT
  5
13931
330
747D
100
AcDbEntity
  8
部品1
100
AcDbText
 10
5497.694468552633
 20
1396.162653893831
 30
0.0
 40
135.0
  1
正面図
  7
STYLE2
100
AcDbText
  0
LWPOLYLINE
  5
13932
330
747D
100
AcDbEntity
  8
部品1
100
AcDbPolyline
 90
        4
 70
     1
 43
0.0
 10
5407.169064814676
 20
1589.056183112355
 10
5407.169064814676
 20
1349.163861566822
 10
6170.63973104312
 20
1349.163861566822
 10
6170.63973104312
 20
1589.056183112355
  0
TEXT
  5
13933
330
747D
100
AcDbEntity
  8
文字
 62
     7
 48
50.0
100
AcDbText
 10
14505.34213575793
 20
483.8967129911411
 30
0.0
 40
160.0
  1
ＮＸＮ－１５５Ｈ
  7
STYLE2
100
AcDbText
  0
LINE
  5
13936
330
747D
100
AcDbEntity
  8
部品1
 48
50.0
100
AcDbLine
 10
3633.904397928898
 20
6978.747408362844
 30
0.0
 11
5733.904397928898
 21
6978.747408362848
 31
0.0
  0
LINE
  5
13937
330
747D
100
AcDbEntity
  8
部品1
100
AcDbLine
 10
5760.904400172469
 20
10392.74741194001
 30
0.0
 11
5788.904400172469
 21
10392.74741194001
 31
0.0
  0
LINE
  5
13938
330
747D
100
AcDbEntity
  8
部品1
100
AcDbLine
 10
5816.904400172468
 20
10392.74741194001
 30
0.0
 11
5816.904400172468
 21
10420.74741194001
 31
0.0
  0
LINE
  5
13939
330
747D
100
AcDbEntity
  8
部品1
100
AcDbLine
 10
5760.904400172469
 20
10392.74741194001
 30
0.0
 11
5760.904400172469
 21
10420.74741194002
 31
0.0
  0
LINE
  5
1393A
330
747D
100
AcDbEntity
  8
部品1
 48
50.0
100
AcDbLine
 10
5788.904400172469
 20
10392.74741194001
 30
0.0
 11
5760.904400172469
 21
10420.74741194002
 31
0.0
  0
LINE
  5
1393F
330
747D
100
AcDbEntity
  8
部品1
100
AcDbLine
 10
7970.904397928897
 20
10365.74740836285
 30
0.0
 11
7998.904397928898
 21
10365.74740836285
 31
0.0
  0
LINE
  5
13940
330
747D
100
AcDbEntity
  8
部品1
100
AcDbLine
 10
7943.904397928898
 20
10420.74740836285
 30
0.0
 11
7943.904397928898
 21
10392.74740836285
 31
0.0
  0
LINE
  5
13941
330
747D
100
AcDbEntity
  8
部品1
 48
50.0
100
AcDbLine
 10
7970.904397928897
 20
10392.74740836285
 30
0.0
 11
7943.904397928898
 21
10365.74740836285
 31
0.0
  0
LINE
  5
13942
330
747D
100
AcDbEntity
  8
部品1
100
AcDbLine
 10
7523.904397928898
 20
10420.74740836285
 30
0.0
 11
7523.904397928898
 21
10392.74740836285
 31
0.0
  0
LINE
  5
13943
330
747D
100
AcDbEntity
  8
部品1
100
AcDbLine
 10
7103.904397928897
 20
10420.74740836285
 30
0.0
 11
7103.904397928897
 21
10392.74740836285
 31
0.0
  0
LINE
  5
13944
330
747D
100
AcDbEntity
  8
部品1
100
AcDbLine
 10
7103.904397928897
 20
10392.74740836285
 30
0.0
 11
7970.904397928897
 21
10392.74740836285
 31
0.0
  0
LINE
  5
13946
330
747D
100
AcDbEntity
  8
部品1
100
AcDbLine
 10
6683.904397928898
 20
10420.74740836285
 30
0.0
 11
6683.904397928898
 21
10392.74740836285
 31
0.0
  0
LINE
  5
13947
330
747D
100
AcDbEntity
  8
部品1
100
AcDbLine
 10
6906.404397928898
 20
10392.74740836285
 30
0.0
 11
7301.404397928898
 21
10392.74740836285
 31
0.0
  0
LINE
  5
13948
330
747D
100
AcDbEntity
  8
部品1
100
AcDbLine
 10
6263.904397928898
 20
10420.74740836285
 30
0.0
 11
6263.904397928898
 21
10392.74740836285
 31
0.0
  0
LINE
  5
13949
330
747D
100
AcDbEntity
  8
部品1
100
AcDbLine
 10
5843.904397928898
 20
10420.74740836285
 30
0.0
 11
5843.904397928898
 21
10392.74740836285
 31
0.0
  0
LINE
  5
1394A
330
747D
100
AcDbEntity
  8
部品1
100
AcDbLine
 10
5843.904397928898
 20
10420.74740836285
 30
0.0
 11
5843.904397928898
 21
10392.74740836285
 31
0.0
  0
LINE
  5
1394B
330
747D
100
AcDbEntity
  8
部品1
100
AcDbLine
 10
5760.904397928898
 20
10365.74740836285
 30
0.0
 11
5788.904397928899
 21
10365.74740836285
 31
0.0
  0
LINE
  5
1394C
330
747D
100
AcDbEntity
  8
部品1
100
AcDbLine
 10
5733.904397928898
 20
10420.74740836285
 30
0.0
 11
5733.904397928898
 21
10392.74740836285
 31
0.0
  0
LINE
  5
1394D
330
747D
100
AcDbEntity
  8
部品1
100
AcDbLine
 10
5816.904397928897
 20
10365.74740836285
 30
0.0
 11
5788.904397928899
 21
10365.74740836285
 31
0.0
  0
LINE
  5
1394E
330
747D
100
AcDbEntity
  8
部品1
 48
50.0
100
AcDbLine
 10
5760.904397928898
 20
10392.74740836285
 30
0.0
 11
5733.904397928898
 21
10365.74740836285
 31
0.0
  0
LINE
  5
1394F
330
747D
100
AcDbEntity
  8
部品1
 48
50.0
100
AcDbLine
 10
5816.904397928897
 20
10392.74740836285
 30
0.0
 11
5843.904397928898
 21
10365.74740836285
 31
0.0
  0
DIMENSION
  5
13950
330
747D
100
AcDbEntity
  8
寸法
 48
50.0
100
AcDbDimension
  2
*D17
 10
5843.904397928898
 20
10795.45981838164
 30
0.0
 11
5788.904397928899
 21
10795.45981838164
 31
0.0
 70
   160
 71
     5
 42
110.0
  3
INABA_S40
100
AcDbAlignedDimension
 13
5733.904397928898
 23
10420.74740836285
 33
0.0
 14
5843.904397928898
 24
10420.74740836285
 34
0.0
100
AcDbRotatedDimension
1001
ACAD
1000
DSTYLE
1002
{
1070
    41
1040
0.5
1070
    44
1040
1.0
1070
   147
1040
0.8
1070
   271
1070
     2
1070
   272
1070
     2
1070
   289
1070
     3
1070
   340
1005
F706
1070
   343
1005
F744
1070
   344
1005
F744
1002
}
  0
LINE
  5
13951
330
747D
100
AcDbEntity
  8
部品1
100
AcDbLine
 10
5733.904397928898
 20
10420.74740836285
 30
0.0
 11
5733.904397928898
 21
10392.74740836285
 31
0.0
  0
LINE
  5
13952
330
747D
100
AcDbEntity
  8
部品1
100
AcDbLine
 10
5313.904397928898
 20
10420.74740836285
 30
0.0
 11
5313.904397928898
 21
10392.74740836285
 31
0.0
  0
LINE
  5
13953
330
747D
100
AcDbEntity
  8
部品1
100
AcDbLine
 10
5760.904397928898
 20
10392.74740836285
 30
0.0
 11
5313.904397928898
 21
10392.74740836285
 31
0.0
  0
LINE
  5
13955
330
747D
100
AcDbEntity
  8
部品1
100
AcDbLine
 10
4893.904397928898
 20
10420.74740836285
 30
0.0
 11
4893.904397928898
 21
10392.74740836285
 31
0.0
  0
LINE
  5
13956
330
747D
100
AcDbEntity
  8
部品1
100
AcDbLine
 10
4473.904397928897
 20
10420.74740836285
 30
0.0
 11
4473.904397928897
 21
10392.74740836285
 31
0.0
  0
LINE
  5
13957
330
747D
100
AcDbEntity
  8
部品1
100
AcDbLine
 10
4053.904397928898
 20
10420.74740836285
 30
0.0
 11
4053.904397928898
 21
10392.74740836285
 31
0.0
  0
LINE
  5
13958
330
747D
100
AcDbEntity
  8
部品1
100
AcDbLine
 10
5313.904397928898
 20
10392.74740836285
 30
0.0
 11
4053.904397928898
 21
10392.74740836285
 31
0.0
  0
LINE
  5
13959
330
747D
100
AcDbEntity
  8
部品1
100
AcDbLine
 10
5788.904397928899
 20
10420.74740836284
 30
0.0
 11
7998.904397928898
 21
10420.74740836284
 31
0.0
  0
DIMENSION
  5
1395A
330
747D
100
AcDbEntity
  8
寸法
 48
50.0
100
AcDbDimension
  2
*D18
 10
7943.904397928898
 20
10795.45981838164
 30
0.0
 11
6893.904397928898
 21
10887.47162940526
 31
0.0
 70
    32
  1
5X420=<>
 71
     5
 42
2100.0
  3
INABA_S40
100
AcDbAlignedDimension
 13
5843.904397928898
 23
10420.74740836285
 33
0.0
 14
7943.904397928898
 24
10420.74740836285
 34
0.0
100
AcDbRotatedDimension
1001
ACAD
1000
DSTYLE
1002
{
1070
    41
1040
0.5
1070
    44
1040
1.0
1070
   147
1040
0.8
1070
   271
1070
     2
1070
   272
1070
     2
1070
   289
1070
     3
1070
   340
1005
F706
1070
   343
1005
F744
1070
   344
1005
F744
1002
}
  0
LINE
  5
1395B
330
747D
100
AcDbEntity
  8
部品1
100
AcDbLine
 10
5816.904397928897
 20
10392.74740836285
 30
0.0
 11
7103.904397928897
 21
10392.74740836285
 31
0.0
  0
LINE
  5
1395C
330
747D
100
AcDbEntity
  8
部品1
100
AcDbLine
 10
7943.904397928898
 20
10365.74740836285
 30
0.0
 11
5843.904397928898
 21
10365.74740836285
 31
0.0
  0
LINE
  5
1395E
330
747D
100
AcDbEntity
  8
部品1
100
AcDbLine
 10
7970.904397928897
 20
8265.747408362852
 30
0.0
 11
7998.904397928898
 21
8265.747408362852
 31
0.0
  0
LINE
  5
1395F
330
747D
100
AcDbEntity
  8
部品1
100
AcDbLine
 10
7970.904397928897
 20
7845.747408362851
 30
0.0
 11
7998.904397928898
 21
7845.747408362851
 31
0.0
  0
LINE
  5
13960
330
747D
100
AcDbEntity
  8
部品1
100
AcDbLine
 10
7970.904397928897
 20
7425.747408362851
 30
0.0
 11
7998.904397928898
 21
7425.747408362851
 31
0.0
  0
LINE
  5
13961
330
747D
100
AcDbEntity
  8
部品1
100
AcDbLine
 10
7970.904397928897
 20
7005.747408362843
 30
0.0
 11
7998.904397928898
 21
7005.747408362843
 31
0.0
  0
LINE
  5
13962
330
747D
100
AcDbEntity
  8
部品1
100
AcDbLine
 10
7943.904397928898
 20
6950.747408362847
 30
0.0
 11
7943.904397928898
 21
6978.747408362848
 31
0.0
  0
LINE
  5
13963
330
747D
100
AcDbEntity
  8
部品1
 48
50.0
100
AcDbLine
 10
7970.904397928897
 20
6978.747408362848
 30
0.0
 11
7943.904397928898
 21
7005.747408362847
 31
0.0
  0
LINE
  5
13964
330
747D
100
AcDbEntity
  8
部品1
100
AcDbLine
 10
7523.904397928898
 20
6950.747408362847
 30
0.0
 11
7523.904397928898
 21
6978.747408362848
 31
0.0
  0
LINE
  5
13965
330
747D
100
AcDbEntity
  8
部品1
100
AcDbLine
 10
7103.904397928897
 20
6950.747408362847
 30
0.0
 11
7103.904397928897
 21
6978.747408362848
 31
0.0
  0
LINE
  5
13967
330
747D
100
AcDbEntity
  8
部品1
100
AcDbLine
 10
6683.904397928898
 20
6950.747408362847
 30
0.0
 11
6683.904397928898
 21
6978.747408362848
 31
0.0
  0
LINE
  5
13968
330
747D
100
AcDbEntity
  8
部品1
100
AcDbLine
 10
7970.904397928897
 20
10365.74740836285
 30
0.0
 11
7970.904397928897
 21
6978.747408362848
 31
0.0
  0
LINE
  5
13969
330
747D
100
AcDbEntity
  8
部品1
100
AcDbLine
 10
6263.904397928898
 20
6950.747408362847
 30
0.0
 11
6263.904397928898
 21
6978.747408362848
 31
0.0
  0
LINE
  5
1396A
330
747D
100
AcDbEntity
  8
部品1
100
AcDbLine
 10
5760.904397928898
 20
7005.747408362843
 30
0.0
 11
5788.904397928899
 21
7005.747408362843
 31
0.0
  0
LINE
  5
1396B
330
747D
100
AcDbEntity
  8
部品1
100
AcDbLine
 10
5816.904397928897
 20
7005.747408362843
 30
0.0
 11
5788.904397928899
 21
7005.747408362843
 31
0.0
  0
LINE
  5
1396C
330
747D
100
AcDbEntity
  8
部品1
100
AcDbLine
 10
5843.904397928898
 20
6950.747408362847
 30
0.0
 11
5843.904397928898
 21
6978.747408362848
 31
0.0
  0
LINE
  5
1396D
330
747D
100
AcDbEntity
  8
部品1
100
AcDbLine
 10
5733.904397928898
 20
6950.747408362847
 30
0.0
 11
5733.904397928898
 21
6978.747408362848
 31
0.0
  0
LINE
  5
1396E
330
747D
100
AcDbEntity
  8
部品1
100
AcDbLine
 10
5843.904397928898
 20
6950.747408362849
 30
0.0
 11
5788.904397928899
 21
6950.747408362848
 31
0.0
  0
LINE
  5
1396F
330
747D
100
AcDbEntity
  8
部品1
 48
50.0
100
AcDbLine
 10
5760.904397928898
 20
6978.747408362849
 30
0.0
 11
5733.904397928898
 21
7005.747408362843
 31
0.0
  0
LINE
  5
13970
330
747D
100
AcDbEntity
  8
部品1
 48
50.0
100
AcDbLine
 10
5816.904397928897
 20
6978.747408362848
 30
0.0
 11
5843.904397928898
 21
7005.747408362847
 31
0.0
  0
LINE
  5
13971
330
747D
100
AcDbEntity
  8
部品1
100
AcDbLine
 10
5733.904397928898
 20
6950.747408362847
 30
0.0
 11
5733.904397928898
 21
6978.747408362848
 31
0.0
  0
LINE
  5
13972
330
747D
100
AcDbEntity
  8
部品1
100
AcDbLine
 10
5733.904397928898
 20
6950.747408362847
 30
0.0
 11
5733.904397928898
 21
6978.747408362848
 31
0.0
  0
LINE
  5
13973
330
747D
100
AcDbEntity
  8
部品1
100
AcDbLine
 10
5733.904397928898
 20
6950.747408362848
 30
0.0
 11
5788.904397928899
 21
6950.747408362848
 31
0.0
  0
LINE
  5
13976
330
747D
100
AcDbEntity
  8
部品1
100
AcDbLine
 10
7970.904397928897
 20
6978.747408362848
 30
0.0
 11
5816.904397928897
 21
6978.747408362849
 31
0.0
  0
LINE
  5
13977
330
747D
100
AcDbEntity
  8
部品1
100
AcDbLine
 10
7943.904397928898
 20
7005.747408362847
 30
0.0
 11
5843.904397928898
 21
7005.747408362849
 31
0.0
  0
LINE
  5
13978
330
747D
100
AcDbEntity
  8
部品1
100
AcDbLine
 10
7998.904397928898
 20
6950.747408362848
 30
0.0
 11
5843.904397928898
 21
6950.747408362848
 31
0.0
  0
LINE
  5
13979
330
747D
100
AcDbEntity
  8
部品1
100
AcDbLine
 10
5843.904397928898
 20
8265.74740836285
 30
0.0
 11
7943.904397928898
 21
8265.74740836285
 31
0.0
  0
LINE
  5
1397A
330
747D
100
AcDbEntity
  8
部品1
100
AcDbLine
 10
5843.904397928898
 20
7845.74740836285
 30
0.0
 11
7943.904397928898
 21
7845.74740836285
 31
0.0
  0
LINE
  5
1397B
330
747D
100
AcDbEntity
  8
部品1
100
AcDbLine
 10
5843.904397928898
 20
7425.747408362849
 30
0.0
 11
7943.904397928898
 21
7425.747408362849
 31
0.0
  0
LINE
  5
1397D
330
747D
100
AcDbEntity
  8
部品1
100
AcDbLine
 10
7970.904397928897
 20
10392.74740836285
 30
0.0
 11
7970.904397928897
 21
8483.74740836285
 31
0.0
  0
LINE
  5
1397E
330
747D
100
AcDbEntity
  8
部品1
100
AcDbLine
 10
7998.904397928898
 20
10420.74740836284
 30
0.0
 11
7998.904397928898
 21
6950.747408362848
 31
0.0
  0
LINE
  5
1397F
330
747D
100
AcDbEntity
  8
破線
  6
HIDDEN
 48
10.0
100
AcDbLine
 10
7920.404397928898
 20
10342.24740836285
 30
0.0
 11
7920.404397928898
 21
7029.247408362846
 31
0.0
  0
LINE
  5
13980
330
747D
100
AcDbEntity
  8
部品1
100
AcDbLine
 10
5760.904397928898
 20
6978.747408362849
 30
0.0
 11
5760.904397928898
 21
10392.74740836285
 31
0.0
  0
LINE
  5
13981
330
747D
100
AcDbEntity
  8
部品1
100
AcDbLine
 10
5733.904397928898
 20
7005.747408362843
 30
0.0
 11
5733.904397928895
 21
10365.74740836285
 31
0.0
  0
LINE
  5
13982
330
747D
100
AcDbEntity
  8
破線
  6
HIDDEN
 48
10.0
100
AcDbLine
 10
5710.404397928898
 20
7029.247408362845
 30
0.0
 11
5710.404397928894
 21
10342.24740836285
 31
0.0
  0
LINE
  5
13983
330
747D
100
AcDbEntity
  8
部品1
100
AcDbLine
 10
5816.904397928897
 20
6978.747408362848
 30
0.0
 11
5816.904397928897
 21
10392.74740836285
 31
0.0
  0
LINE
  5
13984
330
747D
100
AcDbEntity
  8
破線
  6
HIDDEN
 48
10.0
100
AcDbLine
 10
5867.404397928898
 20
7029.247408362848
 30
0.0
 11
5867.404397928898
 21
10342.24740836285
 31
0.0
  0
LINE
  5
13985
330
747D
100
AcDbEntity
  8
部品1
100
AcDbLine
 10
5843.904397928898
 20
7005.747408362847
 30
0.0
 11
5843.904397928898
 21
10365.74740836285
 31
0.0
  0
LINE
  5
13986
330
747D
100
AcDbEntity
  8
部品1
100
AcDbLine
 10
7943.904397928898
 20
10365.74740836285
 30
0.0
 11
7943.904397928898
 21
7005.747408362847
 31
0.0
  0
LINE
  5
13987
330
747D
100
AcDbEntity
  8
部品1
100
AcDbLine
 10
3606.904397928899
 20
10365.74740836285
 30
0.0
 11
3578.904397928898
 21
10365.74740836285
 31
0.0
  0
LINE
  5
13988
330
747D
100
AcDbEntity
  8
部品1
100
AcDbLine
 10
3633.904397928898
 20
10420.74740836285
 30
0.0
 11
3633.904397928898
 21
10392.74740836285
 31
0.0
  0
LINE
  5
13989
330
747D
100
AcDbEntity
  8
部品1
 48
50.0
100
AcDbLine
 10
3606.904397928899
 20
10392.74740836285
 30
0.0
 11
3633.904397928894
 21
10365.74740836285
 31
0.0
  0
DIMENSION
  5
1398A
330
747D
100
AcDbEntity
  8
寸法
 48
50.0
100
AcDbDimension
  2
*D19
 10
3633.904397928898
 20
10795.45981838164
 30
0.0
 11
3184.737731262234
 21
10795.45981838164
 31
0.0
 70
   160
 71
     5
 42
55.0
  3
INABA_S40
100
AcDbAlignedDimension
 13
3578.904397928898
 23
10420.74740836284
 33
0.0
 14
3633.904397928898
 24
10420.74740836285
 34
0.0
100
AcDbRotatedDimension
1001
ACAD
1000
DSTYLE
1002
{
1070
    41
1040
0.5
1070
    44
1040
1.0
1070
   147
1040
0.8
1070
   271
1070
     2
1070
   272
1070
     2
1070
   289
1070
     3
1070
   340
1005
F706
1070
   343
1005
F744
1070
   344
1005
F744
1002
}
  0
LINE
  5
1398C
330
747D
100
AcDbEntity
  8
部品1
100
AcDbLine
 10
3606.904397928899
 20
8265.747408362852
 30
0.0
 11
3578.904397928898
 21
8265.747408362852
 31
0.0
  0
LINE
  5
1398D
330
747D
100
AcDbEntity
  8
部品1
100
AcDbLine
 10
3606.904397928899
 20
7845.747408362851
 30
0.0
 11
3578.904397928898
 21
7845.747408362851
 31
0.0
  0
LINE
  5
1398E
330
747D
100
AcDbEntity
  8
部品1
100
AcDbLine
 10
3606.904397928899
 20
7425.747408362851
 30
0.0
 11
3578.904397928898
 21
7425.747408362851
 31
0.0
  0
LINE
  5
1398F
330
747D
100
AcDbEntity
  8
部品1
100
AcDbLine
 10
3633.904397928898
 20
6950.747408362847
 30
0.0
 11
3633.904397928898
 21
6978.747408362848
 31
0.0
  0
LINE
  5
13990
330
747D
100
AcDbEntity
  8
部品1
100
AcDbLine
 10
3633.904397928898
 20
6950.747408362854
 30
0.0
 11
3633.904397928898
 21
6978.747408362855
 31
0.0
  0
LINE
  5
13991
330
747D
100
AcDbEntity
  8
部品1
100
AcDbLine
 10
3606.904397928899
 20
7005.747408362843
 30
0.0
 11
3578.904397928898
 21
7005.747408362843
 31
0.0
  0
LINE
  5
13992
330
747D
100
AcDbEntity
  8
部品1
100
AcDbLine
 10
3633.904397928898
 20
6950.747408362847
 30
0.0
 11
3633.904397928898
 21
6978.747408362848
 31
0.0
  0
LINE
  5
13993
330
747D
100
AcDbEntity
  8
部品1
 48
50.0
100
AcDbLine
 10
3606.904397928899
 20
6978.747408362848
 30
0.0
 11
3633.904397928894
 21
7005.747408362849
 31
0.0
  0
LINE
  5
13994
330
747D
100
AcDbEntity
  8
部品1
100
AcDbLine
 10
3578.904397928898
 20
6950.747408362848
 30
0.0
 11
3633.904397928898
 21
6950.747408362847
 31
0.0
  0
LINE
  5
13996
330
747D
100
AcDbEntity
  8
部品1
100
AcDbLine
 10
3606.904397928899
 20
10365.74740836285
 30
0.0
 11
3606.904397928899
 21
6978.747408362848
 31
0.0
  0
LINE
  5
13997
330
747D
100
AcDbEntity
  8
部品1
100
AcDbLine
 10
3606.904397928899
 20
10392.74740836285
 30
0.0
 11
3606.904397928899
 21
8483.74740836285
 31
0.0
  0
LINE
  5
13998
330
747D
100
AcDbEntity
  8
部品1
100
AcDbLine
 10
3578.904397928898
 20
10420.74740836284
 30
0.0
 11
3578.904397928898
 21
6950.747408362848
 31
0.0
  0
LINE
  5
13999
330
747D
100
AcDbEntity
  8
破線
  6
HIDDEN
 48
10.0
100
AcDbLine
 10
3657.404397928905
 20
10342.24740836285
 30
0.0
 11
3657.404397928895
 21
7029.247408362848
 31
0.0
  0
LINE
  5
1399A
330
747D
100
AcDbEntity
  8
部品1
100
AcDbLine
 10
3633.904397928905
 20
10365.74740836285
 30
0.0
 11
3633.904397928894
 21
7005.747408362849
 31
0.0
  0
DIMENSION
  5
1399C
330
747D
100
AcDbEntity
  8
寸法
 48
50.0
100
AcDbDimension
  2
*D20
 10
5733.904397928898
 20
10795.45981838164
 30
0.0
 11
4683.904397928897
 21
10887.47162940526
 31
0.0
 70
    32
  1
5X420=<>
 71
     5
 42
2100.0
  3
INABA_S40
100
AcDbAlignedDimension
 13
3633.904397928898
 23
10420.74740836285
 33
0.0
 14
5733.904397928898
 24
10420.74740836285
 34
0.0
100
AcDbRotatedDimension
1001
ACAD
1000
DSTYLE
1002
{
1070
    41
1040
0.5
1070
    44
1040
1.0
1070
   147
1040
0.8
1070
   271
1070
     2
1070
   272
1070
     2
1070
   289
1070
     3
1070
   340
1005
F706
1070
   343
1005
F744
1070
   344
1005
F744
1002
}
  0
DIMENSION
  5
1399D
330
747D
100
AcDbEntity
  8
寸法
 48
50.0
100
AcDbDimension
  2
*D21
 10
7998.904397928898
 20
11095.45981838164
 30
0.0
 11
5788.904397928899
 21
11187.47162940527
 31
0.0
 70
    32
 71
     5
 42
4420.0
  3
INABA_S40
100
AcDbAlignedDimension
 13
3578.904397928898
 23
10420.74740836284
 33
0.0
 14
7998.904397928898
 24
10420.74740836284
 34
0.0
100
AcDbRotatedDimension
1001
ACAD
1000
DSTYLE
1002
{
1070
    41
1040
0.5
1070
    44
1040
1.0
1070
   147
1040
0.8
1070
   271
1070
     2
1070
   272
1070
     2
1070
   289
1070
     3
1070
   340
1005
F706
1070
   343
1005
F744
1070
   344
1005
F744
1002
}
  0
LINE
  5
1399E
330
747D
100
AcDbEntity
  8
部品1
100
AcDbLine
 10
3606.904397928899
 20
6978.747408362848
 30
0.0
 11
5760.904397928898
 21
6978.747408362849
 31
0.0
  0
LINE
  5
1399F
330
747D
100
AcDbEntity
  8
部品1
100
AcDbLine
 10
3633.904397928894
 20
7005.747408362849
 30
0.0
 11
5733.904397928898
 21
7005.747408362843
 31
0.0
  0
LINE
  5
139A0
330
747D
100
AcDbEntity
  8
部品1
100
AcDbLine
 10
5788.904397928899
 20
10420.74740836284
 30
0.0
 11
3578.904397928898
 21
10420.74740836284
 31
0.0
  0
LINE
  5
139A1
330
747D
100
AcDbEntity
  8
部品1
100
AcDbLine
 10
5733.904397928898
 20
8265.74740836285
 30
0.0
 11
3633.904397928898
 21
8265.747408362846
 31
0.0
  0
LINE
  5
139A2
330
747D
100
AcDbEntity
  8
部品1
100
AcDbLine
 10
5733.904397928898
 20
7845.74740836285
 30
0.0
 11
3633.904397928898
 21
7845.747408362846
 31
0.0
  0
LINE
  5
139A3
330
747D
100
AcDbEntity
  8
部品1
100
AcDbLine
 10
5733.904397928898
 20
7425.747408362849
 30
0.0
 11
3633.904397928898
 21
7425.747408362846
 31
0.0
  0
LINE
  5
139A4
330
747D
100
AcDbEntity
  8
部品1
100
AcDbLine
 10
4053.904397928898
 20
10392.74740836285
 30
0.0
 11
3606.904397928899
 21
10392.74740836285
 31
0.0
  0
LINE
  5
139A5
330
747D
100
AcDbEntity
  8
部品1
100
AcDbLine
 10
3633.904397928894
 20
10365.74740836285
 30
0.0
 11
5733.904397928898
 21
10365.74740836285
 31
0.0
  0
LINE
  5
139A6
330
747D
100
AcDbEntity
  8
部品1
100
AcDbLine
 10
7998.904397928898
 20
4248.417148464486
 30
0.0
 11
7998.904397928898
 21
1914.417148464483
 31
0.0
  0
LINE
  5
139A7
330
747D
100
AcDbEntity
  8
部品1
100
AcDbLine
 10
7943.904397928898
 20
4154.417148464482
 30
0.0
 11
7943.904397928896
 21
2064.417148464483
 31
0.0
  0
LINE
  5
139A8
330
747D
100
AcDbEntity
  8
部品1
100
AcDbLine
 10
7523.904397928898
 20
4154.417148464482
 30
0.0
 11
7523.904397928884
 21
2064.417148464483
 31
0.0
  0
LINE
  5
139A9
330
747D
100
AcDbEntity
  8
部品1
100
AcDbLine
 10
6683.904397928898
 20
4154.417148464482
 30
0.0
 11
6683.904397928898
 21
2064.417148464483
 31
0.0
  0
LINE
  5
139AA
330
747D
100
AcDbEntity
  8
部品1
100
AcDbLine
 10
7103.904397928897
 20
4154.417148464482
 30
0.0
 11
7103.904397928897
 21
2064.417148464483
 31
0.0
  0
LINE
  5
139AB
330
747D
100
AcDbEntity
  8
部品1
100
AcDbLine
 10
7103.904397928913
 20
4154.417148464482
 30
0.0
 11
7103.904397928909
 21
2064.417148464483
 31
0.0
  0
LINE
  5
139AC
330
747D
100
AcDbEntity
  8
部品1
100
AcDbLine
 10
5788.904397928899
 20
4154.417148464482
 30
0.0
 11
5788.904397928899
 21
4248.417148464486
 31
0.0
  0
LINE
  5
139AD
330
747D
100
AcDbEntity
  8
部品1
100
AcDbLine
 10
5788.904397928899
 20
2064.417148464483
 30
0.0
 11
5788.904397928899
 21
2014.417148464483
 31
0.0
  0
LINE
  5
139AE
330
747D
100
AcDbEntity
  8
部品1
 48
50.0
100
AcDbLine
 10
5788.904397928899
 20
2064.417148464483
 30
0.0
 11
5760.904397928898
 21
2064.417148464483
 31
0.0
  0
LINE
  5
139AF
330
747D
100
AcDbEntity
  8
部品1
100
AcDbLine
 10
6263.904397928898
 20
4154.417148464482
 30
0.0
 11
6263.904397928898
 21
2064.417148464483
 31
0.0
  0
LINE
  5
139B0
330
747D
100
AcDbEntity
  8
部品1
100
AcDbLine
 10
5843.904397928898
 20
4154.417148464482
 30
0.0
 11
5843.904397928898
 21
2064.417148464483
 31
0.0
  0
LINE
  5
139B1
330
747D
100
AcDbEntity
  8
部品1
 48
50.0
100
AcDbLine
 10
5788.904397928899
 20
2064.417148464483
 30
0.0
 11
7998.904397928898
 21
2064.417148464483
 31
0.0
  0
LINE
  5
139B2
330
747D
100
AcDbEntity
  8
部品1
100
AcDbLine
 10
5788.904397928899
 20
2014.417148464483
 30
0.0
 11
7998.904397928898
 21
2014.417148464483
 31
0.0
  0
LINE
  5
139B3
330
747D
100
AcDbEntity
  8
部品1
 48
50.0
100
AcDbLine
 10
3606.904397928899
 20
2064.417148464483
 30
0.0
 11
3578.904397928898
 21
2064.417148464483
 31
0.0
  0
LINE
  5
139B4
330
747D
100
AcDbEntity
  8
部品1
100
AcDbLine
 10
2663.489748881344
 20
1914.417148464483
 30
0.0
 11
2603.489748881344
 21
2018.340196918614
 31
0.0
  0
LINE
  5
139B5
330
747D
100
AcDbEntity
  8
部品1
100
AcDbLine
 10
2723.489748881344
 20
2018.340196918614
 30
0.0
 11
2663.489748881344
 21
1914.417148464483
 31
0.0
  0
LINE
  5
139B6
330
747D
100
AcDbEntity
  8
部品1
100
AcDbLine
 10
2603.489748881344
 20
2018.340196918614
 30
0.0
 11
2723.489748881344
 21
2018.340196918614
 31
0.0
  0
TEXT
  5
139B7
330
747D
100
AcDbEntity
  8
部品1
100
AcDbText
 10
2745.973702581163
 20
1929.258853335472
 30
0.0
 40
125.0
  1
G.L
  7
MSGOTHIC
100
AcDbText
  0
LINE
  5
139B8
330
747D
100
AcDbEntity
  8
部品1
100
AcDbLine
 10
3578.904397928898
 20
4248.417148464488
 30
0.0
 11
3578.904397928898
 21
1914.417148464483
 31
0.0
  0
LINE
  5
139B9
330
747D
100
AcDbEntity
  8
部品1
100
AcDbLine
 10
3578.904397928898
 20
2014.417148464483
 30
0.0
 11
5788.904397928899
 21
2014.417148464483
 31
0.0
  0
LINE
  5
139BA
330
747D
100
AcDbEntity
  8
部品1
100
AcDbLine
 10
3578.904397928898
 20
4154.417148464482
 30
0.0
 11
7998.904397928898
 21
4154.417148464482
 31
0.0
  0
LINE
  5
139BB
330
747D
100
AcDbEntity
  8
部品1
100
AcDbLine
 10
3603.904397928899
 20
4154.417148464482
 30
0.0
 11
5763.904397928898
 21
4154.417148464482
 31
0.0
  0
DIMENSION
  5
139BC
330
747D
100
AcDbEntity
  8
寸法
 48
50.0
100
AcDbDimension
  2
*D22
 10
8769.651514973253
 20
10365.74740836285
 30
0.0
 11
8769.651514973253
 21
10814.91407502951
 31
0.0
 70
   160
 71
     5
 42
54.99999999999636
  3
INABA_S40
100
AcDbAlignedDimension
 13
7998.904397928898
 23
10420.74740836284
 33
0.0
 14
7998.904397928898
 24
10365.74740836285
 34
0.0
 50
90.0
100
AcDbRotatedDimension
1001
ACAD
1000
DSTYLE
1002
{
1070
    41
1040
0.5
1070
    44
1040
1.0
1070
   147
1040
0.8
1070
   271
1070
     2
1070
   272
1070
     2
1070
   289
1070
     3
1070
   340
1005
F706
1070
   343
1005
F744
1070
   344
1005
F744
1002
}
  0
DIMENSION
  5
139BD
330
747D
100
AcDbEntity
  8
寸法
 48
50.0
100
AcDbDimension
  2
*D23
 10
8769.651514973253
 20
7005.747408362843
 30
0.0
 11
8677.639703949628
 21
8685.74740836285
 31
0.0
 70
    32
  1
8X420=<>
 71
     5
 42
3360.000000000007
  3
INABA_S40
100
AcDbAlignedDimension
 13
7998.904397928898
 23
10365.74740836285
 33
0.0
 14
7998.904397928898
 24
7005.747408362843
 34
0.0
 50
90.0
100
AcDbRotatedDimension
1001
ACAD
1000
DSTYLE
1002
{
1070
    41
1040
0.5
1070
    44
1040
1.0
1070
   147
1040
0.8
1070
   271
1070
     2
1070
   272
1070
     2
1070
   289
1070
     3
1070
   340
1005
F706
1070
   343
1005
F744
1070
   344
1005
F744
1002
}
  0
DIMENSION
  5
139BE
330
747D
100
AcDbEntity
  8
寸法
 48
50.0
100
AcDbDimension
  2
*D24
 10
8769.651514973253
 20
6950.747408362848
 30
0.0
 11
8769.651514973253
 21
6556.580741696182
 31
0.0
 70
   160
 71
     5
 42
54.99999999999636
  3
INABA_S40
100
AcDbAlignedDimension
 13
7998.904397928898
 23
7005.747408362843
 33
0.0
 14
7998.904397928898
 24
6950.747408362848
 34
0.0
 50
90.0
100
AcDbRotatedDimension
1001
ACAD
1000
DSTYLE
1002
{
1070
    41
1040
0.5
1070
    44
1040
1.0
1070
   147
1040
0.8
1070
   271
1070
     2
1070
   272
1070
     2
1070
   289
1070
     3
1070
   340
1005
F706
1070
   343
1005
F744
1070
   344
1005
F744
1002
}
  0
DIMENSION
  5
139BF
330
747D
100
AcDbEntity
  8
寸法
 48
50.0
100
AcDbDimension
  2
*D25
 10
9069.651514973251
 20
6950.747408362848
 30
0.0
 11
8977.651514973251
 21
8685.74740836285
 31
0.0
 70
    32
 71
     5
 42
3470.0
  3
INABA_S40
100
AcDbAlignedDimension
 13
7998.904397928898
 23
10420.74740836284
 33
0.0
 14
7998.904397928898
 24
6950.747408362848
 34
0.0
 50
90.0
100
AcDbRotatedDimension
1001
ACAD
1000
DSTYLE
1002
{
1070
    41
1040
0.5
1070
    44
1040
1.0
1070
   147
1040
0.8
1070
   271
1070
     2
1070
   272
1070
     2
1070
   289
1070
     3
1070
   340
1005
F706
1070
   343
1005
F744
1070
   344
1005
F744
1002
}
  0
DIMENSION
  5
139C0
330
747D
100
AcDbEntity
  8
寸法
 48
50.0
100
AcDbDimension
  2
*D26
 10
7998.904397928898
 20
10795.45981838164
 30
0.0
 11
8393.071064595565
 21
10795.45981838164
 31
0.0
 70
   160
 71
     5
 42
55.0
  3
INABA_S40
100
AcDbAlignedDimension
 13
7943.904397928898
 23
10420.74740836285
 33
0.0
 14
7998.904397928898
 24
10420.74740836284
 34
0.0
100
AcDbRotatedDimension
1001
ACAD
1000
DSTYLE
1002
{
1070
    41
1040
0.5
1070
    44
1040
1.0
1070
   147
1040
0.8
1070
   271
1070
     2
1070
   272
1070
     2
1070
   289
1070
     3
1070
   340
1005
F706
1070
   343
1005
F744
1070
   344
1005
F744
1002
}
  0
TEXT
  5
139C1
330
747D
100
AcDbEntity
  8
文字
 62
     7
 48
50.0
100
AcDbText
 10
13209.4053442172
 20
228.5435242569015
 30
0.0
 40
100.0
  1
○有効開口寸法 ： 1266×2025(mm)
  7
STYLE2
100
AcDbText
  0
LINE
  5
139C2
330
747D
100
AcDbEntity
  8
部品1
100
AcDbLine
 10
5843.904397928898
 20
8685.74740836285
 30
0.0
 11
7943.904397928898
 21
8685.74740836285
 31
0.0
  0
LINE
  5
139C3
330
747D
100
AcDbEntity
  8
部品1
100
AcDbLine
 10
5843.904397928898
 20
9105.74740836285
 30
0.0
 11
7943.904397928898
 21
9105.74740836285
 31
0.0
  0
LINE
  5
139C4
330
747D
100
AcDbEntity
  8
部品1
100
AcDbLine
 10
5733.904397928898
 20
8685.74740836285
 30
0.0
 11
3633.904397928898
 21
8685.747408362846
 31
0.0
  0
LINE
  5
139C5
330
747D
100
AcDbEntity
  8
部品1
100
AcDbLine
 10
5733.904397928898
 20
9105.74740836285
 30
0.0
 11
3633.904397928898
 21
9105.747408362846
 31
0.0
  0
LINE
  5
139C6
330
747D
100
AcDbEntity
  8
部品1
100
AcDbLine
 10
3606.904397928899
 20
8685.747408362852
 30
0.0
 11
3578.904397928898
 21
8685.747408362852
 31
0.0
  0
LINE
  5
139C7
330
747D
100
AcDbEntity
  8
部品1
100
AcDbLine
 10
3606.904397928899
 20
9105.747408362852
 30
0.0
 11
3578.904397928898
 21
9105.747408362852
 31
0.0
  0
LINE
  5
139C8
330
747D
100
AcDbEntity
  8
部品1
100
AcDbLine
 10
7970.904397928897
 20
8685.747408362852
 30
0.0
 11
7998.904397928898
 21
8685.747408362852
 31
0.0
  0
LINE
  5
139C9
330
747D
100
AcDbEntity
  8
部品1
100
AcDbLine
 10
7970.904397928897
 20
9105.747408362852
 30
0.0
 11
7998.904397928898
 21
9105.747408362852
 31
0.0
  0
LINE
  5
139CA
330
747D
100
AcDbEntity
  8
Ｇ．Ｌ
 48
50.0
100
AcDbLine
 10
2315.037010702756
 20
1914.417148464483
 30
0.0
 11
15511.90078798375
 21
1914.417148464483
 31
0.0
  0
TEXT
  5
13C4B
330
747D
100
AcDbEntity
  8
文字
 62
     7
 48
50.0
100
AcDbText
 10
15022.63965474517
 20
9570.013745883725
 30
0.0
 40
100.0
  1
F12            1.0
  7
STYLE1
100
AcDbText
  0
LINE
  5
13DB3
330
747D
100
AcDbEntity
  8
部品1
100
AcDbLine
 10
5843.904397928898
 20
9945.74740836285
 30
0.0
 11
7943.904397928898
 21
9945.74740836285
 31
0.0
  0
LINE
  5
13DB4
330
747D
100
AcDbEntity
  8
部品1
100
AcDbLine
 10
5733.904397928898
 20
9945.74740836285
 30
0.0
 11
3633.904397928898
 21
9945.747408362846
 31
0.0
  0
LINE
  5
13DB5
330
747D
100
AcDbEntity
  8
部品1
100
AcDbLine
 10
3606.904397928899
 20
9945.747408362851
 30
0.0
 11
3578.904397928898
 21
9945.747408362851
 31
0.0
  0
LINE
  5
13DB6
330
747D
100
AcDbEntity
  8
部品1
100
AcDbLine
 10
7970.904397928897
 20
9945.747408362851
 30
0.0
 11
7998.904397928898
 21
9945.747408362851
 31
0.0
  0
LINE
  5
13EBD
330
747D
100
AcDbEntity
  8
細線
 48
50.0
100
AcDbLine
 10
14372.75880607255
 20
4154.417148464484
 30
0.0
 11
14372.75880607255
 21
2064.417148464487
 31
0.0
  0
LINE
  5
13EBE
330
747D
100
AcDbEntity
  8
細線
 48
50.0
100
AcDbLine
 10
14387.75880607255
 20
4154.417148464484
 30
0.0
 11
14387.75880607255
 21
2064.417148464487
 31
0.0
  0
LINE
  5
13EBF
330
747D
100
AcDbEntity
  8
細線
 48
50.0
100
AcDbLine
 10
14247.75880607255
 20
4154.417148464484
 30
0.0
 11
14247.75880607255
 21
2064.417148464487
 31
0.0
  0
LINE
  5
13EC0
330
747D
100
AcDbEntity
  8
細線
 48
50.0
100
AcDbLine
 10
14232.75880607255
 20
4154.417148464484
 30
0.0
 11
14232.75880607255
 21
2064.417148464487
 31
0.0
  0
LINE
  5
13EC1
330
747D
100
AcDbEntity
  8
細線
 48
50.0
100
AcDbLine
 10
14092.75880607255
 20
4154.417148464484
 30
0.0
 11
14092.75880607255
 21
2064.417148464487
 31
0.0
  0
LINE
  5
13EC2
330
747D
100
AcDbEntity
  8
細線
 48
50.0
100
AcDbLine
 10
14107.75880607255
 20
4154.417148464484
 30
0.0
 11
14107.75880607255
 21
2064.417148464487
 31
0.0
  0
LINE
  5
13EC3
330
747D
100
AcDbEntity
  8
部品1
100
AcDbLine
 10
14030.25880607255
 20
4154.417148464484
 30
0.0
 11
14030.25880607255
 21
2064.417148464487
 31
0.0
  0
LINE
  5
13EC4
330
747D
100
AcDbEntity
  8
細線
 48
50.0
100
AcDbLine
 10
13687.75880607255
 20
4154.417148464484
 30
0.0
 11
13687.75880607256
 21
2064.417148464487
 31
0.0
  0
LINE
  5
13EC5
330
747D
100
AcDbEntity
  8
細線
 48
50.0
100
AcDbLine
 10
13672.75880607255
 20
4154.417148464484
 30
0.0
 11
13672.75880607256
 21
2064.417148464487
 31
0.0
  0
LINE
  5
13EC6
330
747D
100
AcDbEntity
  8
細線
 48
50.0
100
AcDbLine
 10
13812.75880607255
 20
4154.417148464484
 30
0.0
 11
13812.75880607256
 21
2064.417148464487
 31
0.0
  0
LINE
  5
13EC7
330
747D
100
AcDbEntity
  8
細線
 48
50.0
100
AcDbLine
 10
13827.75880607255
 20
4154.417148464484
 30
0.0
 11
13827.75880607256
 21
2064.417148464487
 31
0.0
  0
LINE
  5
13EC8
330
747D
100
AcDbEntity
  8
細線
 48
50.0
100
AcDbLine
 10
13967.75880607255
 20
4154.417148464484
 30
0.0
 11
13967.75880607256
 21
2064.417148464487
 31
0.0
  0
LINE
  5
13EC9
330
747D
100
AcDbEntity
  8
細線
 48
50.0
100
AcDbLine
 10
13952.75880607255
 20
4154.417148464484
 30
0.0
 11
13952.75880607256
 21
2064.417148464487
 31
0.0
  0
LINE
  5
150CD
330
747D
100
AcDbEntity
  8
破線
 48
10.0
100
AcDbLine
 10
7264.40439792891
 20
7005.435872624197
 30
0.0
 11
7264.404397928932
 21
10365.74740836285
 31
0.0
  0
LINE
  5
150CE
330
747D
100
AcDbEntity
  8
破線
 48
10.0
100
AcDbLine
 10
7214.404397928918
 20
7005.435872624197
 30
0.0
 11
7214.404397928909
 21
10365.74740836285
 31
0.0
  0
LINE
  5
150CF
330
747D
100
AcDbEntity
  8
破線
 48
10.0
100
AcDbLine
 10
6523.404397928922
 20
7005.435872624201
 30
0.0
 11
6523.404397928901
 21
10365.74740836285
 31
0.0
  0
LINE
  5
150D0
330
747D
100
AcDbEntity
  8
破線
 48
10.0
100
AcDbLine
 10
6573.404397928912
 20
7005.435872624201
 30
0.0
 11
6573.404397928918
 21
10365.74740836285
 31
0.0
  0
LINE
  5
150D1
330
747D
100
AcDbEntity
  8
破線
 48
10.0
100
AcDbLine
 10
4363.404397928909
 20
7005.435872624197
 30
0.0
 11
4363.404397928915
 21
10365.74740836285
 31
0.0
  0
LINE
  5
150D2
330
747D
100
AcDbEntity
  8
破線
 48
10.0
100
AcDbLine
 10
4313.404397928918
 20
7005.435872624197
 30
0.0
 11
4313.404397928898
 21
10365.74740836285
 31
0.0
  0
LINE
  5
150D3
330
747D
100
AcDbEntity
  8
破線
 48
10.0
100
AcDbLine
 10
5004.404397928914
 20
7005.435872624196
 30
0.0
 11
5004.404397928909
 21
10365.74740836285
 31
0.0
  0
LINE
  5
150D4
330
747D
100
AcDbEntity
  8
破線
 48
10.0
100
AcDbLine
 10
5054.404397928905
 20
7005.435872624196
 30
0.0
 11
5054.404397928928
 21
10365.74740836285
 31
0.0
  0
LINE
  5
150D5
330
747D
100
AcDbEntity
  8
破線
  6
HIDDEN
 48
10.0
100
AcDbLine
 10
3657.404397928891
 20
7028.935872624197
 30
0.0
 11
4313.404397928918
 21
7028.935872624195
 31
0.0
  0
LINE
  5
150D6
330
747D
100
AcDbEntity
  8
破線
  6
HIDDEN
 48
10.0
100
AcDbLine
 10
4363.404397928909
 20
7028.935872624195
 30
0.0
 11
5004.404397928914
 21
7028.935872624194
 31
0.0
  0
LINE
  5
150D7
330
747D
100
AcDbEntity
  8
破線
  6
HIDDEN
 48
10.0
100
AcDbLine
 10
5054.404397928905
 20
7028.935872624197
 30
0.0
 11
5710.404397928894
 21
7028.935872624194
 31
0.0
  0
LINE
  5
150D8
330
747D
100
AcDbEntity
  8
破線
  6
HIDDEN
 48
10.0
100
AcDbLine
 10
5867.404397928894
 20
7028.935872624199
 30
0.0
 11
6523.404397928922
 21
7028.935872624197
 31
0.0
  0
LINE
  5
150D9
330
747D
100
AcDbEntity
  8
破線
  6
HIDDEN
 48
10.0
100
AcDbLine
 10
6573.404397928912
 20
7028.935872624197
 30
0.0
 11
7214.404397928918
 21
7028.935872624194
 31
0.0
  0
LINE
  5
150DA
330
747D
100
AcDbEntity
  8
破線
  6
HIDDEN
 48
10.0
100
AcDbLine
 10
7264.40439792891
 20
7028.935872624199
 30
0.0
 11
7920.404397928898
 21
7028.935872624195
 31
0.0
  0
LINE
  5
150DB
330
747D
100
AcDbEntity
  8
破線
  6
HIDDEN
 48
10.0
100
AcDbLine
 10
3657.404397928895
 20
10342.24740836285
 30
0.0
 11
4313.404397928907
 21
10342.24740836285
 31
0.0
  0
LINE
  5
150DC
330
747D
100
AcDbEntity
  8
破線
  6
HIDDEN
 48
10.0
100
AcDbLine
 10
4363.404397928912
 20
10342.24740836285
 30
0.0
 11
5004.404397928911
 21
10342.24740836285
 31
0.0
  0
LINE
  5
150DD
330
747D
100
AcDbEntity
  8
破線
  6
HIDDEN
 48
10.0
100
AcDbLine
 10
5054.404397928919
 20
10342.24740836285
 30
0.0
 11
5710.404397928898
 21
10342.24740836285
 31
0.0
  0
LINE
  5
150DE
330
747D
100
AcDbEntity
  8
破線
  6
HIDDEN
 48
10.0
100
AcDbLine
 10
6523.40439792891
 20
10342.24740836285
 30
0.0
 11
5867.404397928901
 21
10342.24740836285
 31
0.0
  0
LINE
  5
150DF
330
747D
100
AcDbEntity
  8
破線
  6
HIDDEN
 48
10.0
100
AcDbLine
 10
7214.404397928912
 20
10342.24740836285
 30
0.0
 11
6573.404397928917
 21
10342.24740836285
 31
0.0
  0
LINE
  5
150E0
330
747D
100
AcDbEntity
  8
破線
  6
HIDDEN
 48
10.0
100
AcDbLine
 10
7920.404397928898
 20
10342.24740836285
 30
0.0
 11
7264.404397928924
 21
10342.24740836285
 31
0.0
  0
LINE
  5
1536A
330
747D
100
AcDbEntity
  8
部品1
100
AcDbLine
 10
5778.904397928898
 20
4248.417148464486
 30
0.0
 11
5778.904397928898
 21
4389.417148464484
 31
0.0
  0
LINE
  5
157BF
330
747D
100
AcDbEntity
  8
寸法
 48
50.0
100
AcDbLine
 10
4069.107404210742
 20
6728.784159931709
 30
0.0
 11
4017.70139630064
 21
6728.784159931709
 31
0.0
  0
LINE
  5
157C0
330
747D
100
AcDbEntity
  8
寸法
 48
50.0
100
AcDbLine
 10
4017.70139630064
 20
6728.784159931709
 30
0.0
 11
4017.70139630064
 21
6760.094318583876
 31
0.0
  0
LINE
  5
157C1
330
747D
100
AcDbEntity
  8
寸法
 48
50.0
100
AcDbLine
 10
4017.70139630064
 20
6760.094318583876
 30
0.0
 11
3987.940064309216
 21
6760.094318583876
 31
0.0
  0
LINE
  5
157C2
330
747D
100
AcDbEntity
  8
寸法
 48
50.0
100
AcDbLine
 10
3987.940064309216
 20
6760.094318583876
 30
0.0
 11
4043.404400255691
 21
6797.673769512485
 31
0.0
  0
LINE
  5
157C3
330
747D
100
AcDbEntity
  8
寸法
 48
50.0
100
AcDbLine
 10
4098.868736202166
 20
6760.094318583876
 30
0.0
 11
4043.404400255691
 21
6797.673769512485
 31
0.0
  0
LINE
  5
157C4
330
747D
100
AcDbEntity
  8
寸法
 48
50.0
100
AcDbLine
 10
4069.107404210742
 20
6760.094318583876
 30
0.0
 11
4098.868736202166
 21
6760.094318583876
 31
0.0
  0
LINE
  5
157C5
330
747D
100
AcDbEntity
  8
寸法
 48
50.0
100
AcDbLine
 10
4069.107404210742
 20
6728.784159931709
 30
0.0
 11
4069.107404210742
 21
6760.094318583876
 31
0.0
  0
LINE
  5
157C6
330
747D
100
AcDbEntity
  8
寸法
 48
50.0
100
AcDbLine
 10
4017.70139630064
 20
6728.784159931709
 30
0.0
 11
4069.107404210742
 21
6728.784159931709
 31
0.0
  0
LINE
  5
157C7
330
747D
100
AcDbEntity
  8
寸法
 48
50.0
100
AcDbLine
 10
4348.2729384876
 20
6785.929750686531
 30
0.0
 11
4348.2729384876
 21
6732.266116104742
 31
0.0
  0
LINE
  5
157C8
330
747D
100
AcDbEntity
  8
寸法
 48
50.0
100
AcDbLine
 10
4437.557157083022
 20
6762.006116417045
 30
0.0
 11
4348.2729384876
 21
6785.929750686531
 31
0.0
  0
LINE
  5
157C9
330
747D
100
AcDbEntity
  8
寸法
 48
50.0
100
AcDbLine
 10
4218.405216907296
 20
6762.006116417045
 30
0.0
 11
4437.557157083022
 21
6762.006116417045
 31
0.0
  0
LINE
  5
157CA
330
747D
100
AcDbEntity
  8
細線
 48
50.0
100
AcDbLine
 10
5094.904397928901
 20
6927.247523311571
 30
0.0
 11
5721.904397928899
 21
6927.247523311571
 31
0.0
  0
LINE
  5
157CB
330
747D
100
AcDbEntity
  8
細線
 48
50.0
100
AcDbLine
 10
4440.904402582487
 20
6893.538754757496
 30
0.0
 11
5721.904397928899
 21
6893.538754757496
 31
0.0
  0
LINE
  5
157CC
330
747D
100
AcDbEntity
  8
細線
 48
50.0
100
AcDbLine
 10
4399.904402582492
 20
6922.943662753749
 30
0.0
 11
3645.904397928898
 21
6922.943662753745
 31
0.0
  0
LINE
  5
157CD
330
747D
100
AcDbEntity
  8
細線
100
AcDbLine
 10
5497.654388512442
 20
6946.74742327658
 30
0.0
 11
5499.98592803425
 21
6951.747425916541
 31
0.0
  0
LINE
  5
157CE
330
747D
100
AcDbEntity
  8
細線
100
AcDbLine
 10
5567.654397928899
 20
6946.747408362845
 30
0.0
 11
5565.322851452712
 21
6951.747425916527
 31
0.0
  0
LINE
  5
157CF
330
747D
100
AcDbEntity
  8
細線
100
AcDbLine
 10
5565.322851452712
 20
6951.747425916527
 30
0.0
 11
5499.985928034236
 21
6951.747425916512
 31
0.0
  0
LINE
  5
157D0
330
747D
100
AcDbEntity
  8
細線
100
AcDbLine
 10
5425.322851452712
 20
6951.747425916527
 30
0.0
 11
5359.985928034237
 21
6951.747425916512
 31
0.0
  0
LINE
  5
157D1
330
747D
100
AcDbEntity
  8
細線
100
AcDbLine
 10
5427.654397928899
 20
6946.747408362845
 30
0.0
 11
5425.322851452712
 21
6951.747425916527
 31
0.0
  0
LINE
  5
157D2
330
747D
100
AcDbEntity
  8
細線
100
AcDbLine
 10
5357.654388512442
 20
6946.74742327658
 30
0.0
 11
5359.985928034251
 21
6951.747425916541
 31
0.0
  0
LINE
  5
157D3
330
747D
100
AcDbEntity
  8
細線
100
AcDbLine
 10
5217.6543979289
 20
6946.747408362845
 30
0.0
 11
5219.985937450712
 21
6951.747411002807
 31
0.0
  0
LINE
  5
157D4
330
747D
100
AcDbEntity
  8
細線
100
AcDbLine
 10
5287.65440734536
 20
6946.747393449112
 30
0.0
 11
5285.322860869168
 21
6951.747411002791
 31
0.0
  0
LINE
  5
157D5
330
747D
100
AcDbEntity
  8
細線
100
AcDbLine
 10
5285.322860869172
 20
6951.747411002791
 30
0.0
 11
5219.985937450697
 21
6951.747411002777
 31
0.0
  0
LINE
  5
157D6
330
747D
100
AcDbEntity
  8
細線
100
AcDbLine
 10
4990.072882118005
 20
6917.747447700174
 30
0.0
 11
4924.73595869953
 21
6917.747447700159
 31
0.0
  0
LINE
  5
157D7
330
747D
100
AcDbEntity
  8
細線
100
AcDbLine
 10
4992.404428594193
 20
6912.747430146494
 30
0.0
 11
4990.072882118005
 21
6917.747447700174
 31
0.0
  0
LINE
  5
157D8
330
747D
100
AcDbEntity
  8
細線
100
AcDbLine
 10
4922.404419177736
 20
6912.747445060228
 30
0.0
 11
4924.735958699544
 21
6917.74744770019
 31
0.0
  0
LINE
  5
157D9
330
747D
100
AcDbEntity
  8
細線
 48
50.0
100
AcDbLine
 10
4763.787777176912
 20
6931.018271515926
 30
0.0
 11
4769.543294759579
 21
6912.74742022544
 31
0.0
  0
LINE
  5
157DA
330
747D
100
AcDbEntity
  8
細線
 48
50.0
100
AcDbLine
 10
4752.859328696483
 20
6931.018271515926
 30
0.0
 11
4763.787777176912
 21
6931.018271515926
 31
0.0
  0
ARC
  5
157DB
330
747D
100
AcDbEntity
  8
細線
 48
50.0
100
AcDbCircle
 10
4747.40497263916
 20
6932.518271515926
 30
0.0
 40
5.0
100
AcDbArc
 50
204.6243183521267
 51
335.3756816478732
  0
ARC
  5
157DC
330
747D
100
AcDbEntity
  8
細線
 48
50.0
100
AcDbCircle
 10
4752.859328696483
 20
6930.018271515926
 30
0.0
 40
1.0
100
AcDbArc
 50
90.0
 51
155.3756816478732
  0
ARC
  5
157DD
330
747D
100
AcDbEntity
  8
細線
 48
50.0
100
AcDbCircle
 10
4741.950616581845
 20
6930.018271515926
 30
0.0
 40
1.0
100
AcDbArc
 50
24.62431835212675
 51
90.0
  0
LINE
  5
157DE
330
747D
100
AcDbEntity
  8
細線
 48
50.0
100
AcDbLine
 10
4731.022168101412
 20
6931.018271515926
 30
0.0
 11
4741.950616581845
 21
6931.018271515926
 31
0.0
  0
LINE
  5
157DF
330
747D
100
AcDbEntity
  8
細線
 48
50.0
100
AcDbLine
 10
4725.266650518744
 20
6912.747420225433
 30
0.0
 11
4731.022168101412
 21
6931.018271515926
 31
0.0
  0
LINE
  5
157E0
330
747D
100
AcDbEntity
  8
細線
100
AcDbLine
 10
4782.404420408776
 20
6912.747417591237
 30
0.0
 11
4784.735959930588
 21
6917.747420231198
 31
0.0
  0
LINE
  5
157E1
330
747D
100
AcDbEntity
  8
細線
100
AcDbLine
 10
4852.404429825238
 20
6912.747402677503
 30
0.0
 11
4850.072883349047
 21
6917.747420231183
 31
0.0
  0
LINE
  5
157E2
330
747D
100
AcDbEntity
  8
細線
100
AcDbLine
 10
4850.072883349047
 20
6917.747420231183
 30
0.0
 11
4784.735959930574
 21
6917.747420231169
 31
0.0
  0
LINE
  5
157E3
330
747D
100
AcDbEntity
  8
細線
100
AcDbLine
 10
4710.07285498453
 20
6917.747420225403
 30
0.0
 11
4644.735931566054
 21
6917.747420225389
 31
0.0
  0
LINE
  5
157E4
330
747D
100
AcDbEntity
  8
細線
100
AcDbLine
 10
4712.404401460717
 20
6912.747402671723
 30
0.0
 11
4710.07285498453
 21
6917.747420225403
 31
0.0
  0
LINE
  5
157E5
330
747D
100
AcDbEntity
  8
細線
100
AcDbLine
 10
4642.404393275302
 20
6912.747420225433
 30
0.0
 11
4644.735931566069
 21
6917.747420225417
 31
0.0
  0
LINE
  5
157E6
330
747D
100
AcDbEntity
  8
細線
100
AcDbLine
 10
4502.404428594192
 20
6912.747428412803
 30
0.0
 11
4504.73596688496
 21
6917.747428412788
 31
0.0
  0
LINE
  5
157E7
330
747D
100
AcDbEntity
  8
細線
100
AcDbLine
 10
4572.404436779609
 20
6912.747410859093
 30
0.0
 11
4570.072890303421
 21
6917.74742841277
 31
0.0
  0
LINE
  5
157E8
330
747D
100
AcDbEntity
  8
細線
100
AcDbLine
 10
4570.072890303421
 20
6917.74742841277
 30
0.0
 11
4504.735966884946
 21
6917.747428412758
 31
0.0
  0
LINE
  5
157E9
330
747D
100
AcDbEntity
  8
細線
100
AcDbLine
 10
4130.904394397072
 20
6878.747600093515
 30
0.0
 11
4133.235932687839
 21
6883.747600093499
 31
0.0
  0
LINE
  5
157EA
330
747D
100
AcDbEntity
  8
細線
100
AcDbLine
 10
4200.904402582487
 20
6878.747582539801
 30
0.0
 11
4198.5728561063
 21
6883.747600093478
 31
0.0
  0
LINE
  5
157EB
330
747D
100
AcDbEntity
  8
細線
100
AcDbLine
 10
4198.5728561063
 20
6883.747600093478
 30
0.0
 11
4133.235932687829
 21
6883.747600093471
 31
0.0
  0
LINE
  5
157EC
330
747D
100
AcDbEntity
  8
細線
100
AcDbLine
 10
4338.5728561063
 20
6883.747600093478
 30
0.0
 11
4273.235932687828
 21
6883.747600093471
 31
0.0
  0
LINE
  5
157ED
330
747D
100
AcDbEntity
  8
細線
100
AcDbLine
 10
4340.904402582487
 20
6878.747582539801
 30
0.0
 11
4338.5728561063
 21
6883.747600093478
 31
0.0
  0
LINE
  5
157EE
330
747D
100
AcDbEntity
  8
細線
100
AcDbLine
 10
4270.904394397072
 20
6878.747600093515
 30
0.0
 11
4273.235932687839
 21
6883.747600093499
 31
0.0
  0
LINE
  5
157EF
330
747D
100
AcDbEntity
  8
細線
100
AcDbLine
 10
4058.572856106301
 20
6883.747600093478
 30
0.0
 11
3993.235932687829
 21
6883.747600093467
 31
0.0
  0
LINE
  5
157F0
330
747D
100
AcDbEntity
  8
細線
100
AcDbLine
 10
4060.904402582488
 20
6878.747582539801
 30
0.0
 11
4058.572856106301
 21
6883.747600093478
 31
0.0
  0
LINE
  5
157F1
330
747D
100
AcDbEntity
  8
細線
100
AcDbLine
 10
3990.904394397072
 20
6878.747600093511
 30
0.0
 11
3993.23593268784
 21
6883.747600093497
 31
0.0
  0
LINE
  5
157F2
330
747D
100
AcDbEntity
  8
細線
100
AcDbLine
 10
3850.904402582488
 20
6878.747600093515
 30
0.0
 11
3853.235940873256
 21
6883.747600093499
 31
0.0
  0
LINE
  5
157F3
330
747D
100
AcDbEntity
  8
細線
100
AcDbLine
 10
3920.904410767904
 20
6878.747582539801
 30
0.0
 11
3918.572864291717
 21
6883.747600093478
 31
0.0
  0
LINE
  5
157F4
330
747D
100
AcDbEntity
  8
細線
100
AcDbLine
 10
3918.572864291717
 20
6883.747600093478
 30
0.0
 11
3853.235940873245
 21
6883.747600093471
 31
0.0
  0
ARC
  5
157F5
330
747D
100
AcDbEntity
  8
部品1
 48
0.01
100
AcDbCircle
 10
3806.404291330153
 20
6877.746477908442
 30
0.0
 40
0.5
100
AcDbArc
 50
270.0
 51
0.0
  0
LINE
  5
157F6
330
747D
100
AcDbEntity
  8
部品1
 48
0.01
100
AcDbLine
 10
3806.904291330153
 20
6878.746477908442
 30
0.0
 11
3806.904291330153
 21
6877.746477908442
 31
0.0
  0
LINE
  5
157F7
330
747D
100
AcDbEntity
  8
部品1
 48
0.01
100
AcDbLine
 10
3806.904291330153
 20
6878.746477908442
 30
0.0
 11
3806.904291330153
 21
6877.746477908442
 31
0.0
  0
LINE
  5
157F8
330
747D
100
AcDbEntity
  8
部品1
 48
0.01
100
AcDbLine
 10
3806.404291330153
 20
6877.246477908442
 30
0.0
 11
3799.791785900089
 21
6877.246477908442
 31
0.0
  0
ARC
  5
157F9
330
747D
100
AcDbEntity
  8
部品1
100
AcDbCircle
 10
3799.86013545287
 20
6878.246477908442
 30
0.0
 40
1.0
100
AcDbArc
 50
160.5287793655825
 51
270.0
  0
ARC
  5
157FA
330
747D
100
AcDbEntity
  8
部品1
100
AcDbCircle
 10
3774.404291330153
 20
6887.246477908442
 30
0.0
 40
26.0
100
AcDbArc
 50
340.5287793655825
 51
0.0
  0
LINE
  5
157FB
330
747D
100
AcDbEntity
  8
部品1
100
AcDbLine
 10
3800.404291330153
 20
6887.246477908442
 30
0.0
 11
3800.404291330153
 21
6892.246477908442
 31
0.0
  0
ARC
  5
157FC
330
747D
100
AcDbEntity
  8
部品1
 48
0.01
100
AcDbCircle
 10
3798.404291330153
 20
6892.246477908442
 30
0.0
 40
2.0
100
AcDbArc
 50
0.0
 51
90.0
  0
ARC
  5
157FD
330
747D
100
AcDbEntity
  8
部品1
100
AcDbCircle
 10
3796.795899705343
 20
6891.246477908442
 30
0.0
 40
3.0
100
AcDbArc
 50
90.0
 51
141.6069559807883
  0
LINE
  5
157FE
330
747D
100
AcDbEntity
  8
部品1
 48
0.01
100
AcDbLine
 10
3798.404291330153
 20
6894.246477908442
 30
0.0
 11
3796.795899705343
 21
6894.246477908442
 31
0.0
  0
ARC
  5
157FF
330
747D
100
AcDbEntity
  8
部品1
100
AcDbCircle
 10
3778.333577115882
 20
6890.546477908445
 30
0.0
 40
3.0
100
AcDbArc
 50
254.0576313943199
 51
270.0
  0
ARC
  5
15800
330
747D
100
AcDbEntity
  8
部品1
100
AcDbCircle
 10
3785.475005544423
 20
6890.546477908445
 30
0.0
 40
3.0
100
AcDbArc
 50
270.0
 51
285.9423686056802
  0
LINE
  5
15801
330
747D
100
AcDbEntity
  8
部品1
100
AcDbLine
 10
3785.475005544423
 20
6887.546477908445
 30
0.0
 11
3778.333577115882
 21
6887.546477908445
 31
0.0
  0
ARC
  5
15802
330
747D
100
AcDbEntity
  8
部品1
100
AcDbCircle
 10
3781.904291330153
 20
6903.046477908445
 30
0.0
 40
16.0
100
AcDbArc
 50
285.9423686056802
 51
321.6069559807884
  0
LINE
  5
15803
330
747D
100
AcDbEntity
  8
部品1
 48
0.01
100
AcDbLine
 10
3765.404291330153
 20
6894.246477908442
 30
0.0
 11
3767.012682954963
 21
6894.246477908442
 31
0.0
  0
ARC
  5
15804
330
747D
100
AcDbEntity
  8
部品1
100
AcDbCircle
 10
3767.012682954963
 20
6891.246477908442
 30
0.0
 40
3.0
100
AcDbArc
 50
38.39304401921166
 51
90.0
  0
ARC
  5
15805
330
747D
100
AcDbEntity
  8
部品1
100
AcDbCircle
 10
3781.904291330153
 20
6903.046477908445
 30
0.0
 40
16.0
100
AcDbArc
 50
218.3930440192117
 51
254.0576313943199
  0
LINE
  5
15806
330
747D
100
AcDbEntity
  8
部品1
100
AcDbLine
 10
3763.404291330153
 20
6887.246477908442
 30
0.0
 11
3763.404291330153
 21
6892.246477908442
 31
0.0
  0
ARC
  5
15807
330
747D
100
AcDbEntity
  8
部品1
 48
0.01
100
AcDbCircle
 10
3765.404291330153
 20
6892.246477908442
 30
0.0
 40
2.0
100
AcDbArc
 50
90.0
 51
180.0
  0
ARC
  5
15808
330
747D
100
AcDbEntity
  8
部品1
100
AcDbCircle
 10
3789.404291330153
 20
6887.246477908442
 30
0.0
 40
26.0
100
AcDbArc
 50
180.0
 51
199.4712206344175
  0
ARC
  5
15809
330
747D
100
AcDbEntity
  8
部品1
 48
0.01
100
AcDbCircle
 10
3757.404291330153
 20
6877.746477908442
 30
0.0
 40
0.5
100
AcDbArc
 50
180.0
 51
270.0
  0
LINE
  5
1580A
330
747D
100
AcDbEntity
  8
部品1
 48
0.01
100
AcDbLine
 10
3757.404291330153
 20
6877.246477908442
 30
0.0
 11
3763.948447207436
 21
6877.246477908442
 31
0.0
  0
LINE
  5
1580B
330
747D
100
AcDbEntity
  8
部品1
 48
0.01
100
AcDbLine
 10
3756.904291330153
 20
6878.746477908442
 30
0.0
 11
3756.904291330153
 21
6877.746477908442
 31
0.0
  0
ARC
  5
1580C
330
747D
100
AcDbEntity
  8
部品1
100
AcDbCircle
 10
3763.948447207436
 20
6878.246477908442
 30
0.0
 40
1.0
100
AcDbArc
 50
270.0
 51
19.47122063441753
  0
LINE
  5
1580D
330
747D
100
AcDbEntity
  8
細線
100
AcDbLine
 10
3802.40429133016
 20
6896.746477908447
 30
0.0
 11
3761.404291330161
 21
6896.746477908438
 31
0.0
  0
LINE
  5
1580E
330
747D
100
AcDbEntity
  8
細線
100
AcDbLine
 10
3761.404291330161
 20
6896.746477908438
 30
0.0
 11
3761.404291330161
 21
6878.74647790842
 31
0.0
  0
LINE
  5
1580F
330
747D
100
AcDbEntity
  8
細線
100
AcDbLine
 10
3802.40429133016
 20
6896.746477908447
 30
0.0
 11
3802.40429133016
 21
6878.74647790842
 31
0.0
  0
LINE
  5
15810
330
747D
100
AcDbEntity
  8
細線
100
AcDbLine
 10
3645.904397928898
 20
6882.747408362845
 30
0.0
 11
3645.904397928898
 21
6878.747408362894
 31
0.0
  0
DIMENSION
  5
15811
330
747D
100
AcDbEntity
  8
寸法
 48
50.0
100
AcDbDimension
  2
*D28
 10
4911.904397928898
 20
6202.209137220968
 30
0.0
 11
4287.144445701517
 21
6202.209137220968
 31
0.0
 70
   160
  1
有効開口部間口\P<>
 71
     5
 42
1266.0
  3
INABA_S40
100
AcDbAlignedDimension
 13
3645.904397928898
 23
6873.747408362845
 33
0.0
 14
4911.904397928898
 24
6873.747408362845
 34
0.0
100
AcDbRotatedDimension
1001
ACAD
1000
DSTYLE
1002
{
1070
    41
1040
0.5
1070
    44
1040
1.0
1070
   147
1040
0.8
1070
   271
1070
     2
1070
   272
1070
     2
1070
   289
1070
     3
1070
   340
1005
F706
1070
   343
1005
F744
1070
   344
1005
F744
1002
}
  0
LINE
  5
15812
330
747D
100
AcDbEntity
  8
部品1
100
AcDbLine
 10
5733.904397928898
 20
6950.747408362845
 30
0.0
 11
5760.904397928898
 21
6950.747408362847
 31
0.0
  0
LINE
  5
15814
330
747D
100
AcDbEntity
  8
部品1
100
AcDbLine
 10
5760.904397928898
 20
6873.747408362845
 30
0.0
 11
5760.904397928898
 21
6950.747408362847
 31
0.0
  0
LINE
  5
15815
330
747D
100
AcDbEntity
  8
部品1
100
AcDbLine
 10
5721.904397928899
 20
6946.747408362845
 30
0.0
 11
5733.904397928898
 21
6946.747408362845
 31
0.0
  0
LINE
  5
15816
330
747D
100
AcDbEntity
  8
部品1
100
AcDbLine
 10
5730.904397928898
 20
6882.747408362845
 30
0.0
 11
5730.904397928898
 21
6873.747408362845
 31
0.0
  0
LINE
  5
15817
330
747D
100
AcDbEntity
  8
部品1
100
AcDbLine
 10
5721.904397928899
 20
6882.747408362845
 30
0.0
 11
5730.904397928898
 21
6882.747408362845
 31
0.0
  0
LINE
  5
15818
330
747D
100
AcDbEntity
  8
部品1
100
AcDbLine
 10
5721.904397928899
 20
6946.747408362845
 30
0.0
 11
5721.904397928899
 21
6882.747408362845
 31
0.0
  0
LINE
  5
15819
330
747D
100
AcDbEntity
  8
部品1
100
AcDbLine
 10
5733.904397928898
 20
6977.747408362846
 30
0.0
 11
5733.904397928898
 21
6946.747408362845
 31
0.0
  0
LINE
  5
1581A
330
747D
100
AcDbEntity
  8
部品1
100
AcDbLine
 10
3645.904397928898
 20
6946.747408362845
 30
0.0
 11
3633.904397928898
 21
6946.747408362845
 31
0.0
  0
LINE
  5
1581B
330
747D
100
AcDbEntity
  8
部品1
100
AcDbLine
 10
3606.904397928899
 20
6950.747408362847
 30
0.0
 11
3633.904397928898
 21
6950.747408362847
 31
0.0
  0
LINE
  5
1581C
330
747D
100
AcDbEntity
  8
部品1
100
AcDbLine
 10
3636.904397928898
 20
6882.747408362845
 30
0.0
 11
3636.904397928898
 21
6873.747408362845
 31
0.0
  0
LINE
  5
1581D
330
747D
100
AcDbEntity
  8
部品1
100
AcDbLine
 10
3645.904397928898
 20
6882.747408362845
 30
0.0
 11
3636.904397928898
 21
6882.747408362845
 31
0.0
  0
LINE
  5
1581E
330
747D
100
AcDbEntity
  8
部品1
100
AcDbLine
 10
3636.904397928898
 20
6873.747408362845
 30
0.0
 11
3606.904397928899
 21
6873.747408362845
 31
0.0
  0
LINE
  5
1581F
330
747D
100
AcDbEntity
  8
部品1
100
AcDbLine
 10
3606.904397928899
 20
6873.747408362845
 30
0.0
 11
3606.904397928899
 21
6950.747408362847
 31
0.0
  0
LINE
  5
15820
330
747D
100
AcDbEntity
  8
部品1
100
AcDbLine
 10
3645.904397928898
 20
6946.747408362845
 30
0.0
 11
3645.904397928898
 21
6882.747408362845
 31
0.0
  0
LINE
  5
15821
330
747D
100
AcDbEntity
  8
部品1
100
AcDbLine
 10
3633.904397928898
 20
6977.747408362842
 30
0.0
 11
3633.904397928898
 21
6946.747408362845
 31
0.0
  0
LINE
  5
15822
330
747D
100
AcDbEntity
  8
部品1
100
AcDbLine
 10
3633.904397928898
 20
6977.747408362842
 30
0.0
 11
5733.904397928898
 21
6977.747408362846
 31
0.0
  0
LINE
  5
15823
330
747D
100
AcDbEntity
  8
部品1
100
AcDbLine
 10
5730.904397928898
 20
6873.747408362845
 30
0.0
 11
5760.904397928898
 21
6873.747408362845
 31
0.0
  0
LINE
  5
15824
330
747D
100
AcDbEntity
  8
部品1
100
AcDbLine
 10
3636.904397928898
 20
6873.747408362845
 30
0.0
 11
5733.904397928898
 21
6873.747408362845
 31
0.0
  0
LINE
  5
15825
330
747D
100
AcDbEntity
  8
細線
  6
Continuous
 62
     5
100
AcDbLine
 10
5012.904397928902
 20
6912.747408362843
 30
0.0
 11
5012.904397928902
 21
6912.747408362843
 31
0.0
  0
LINE
  5
15826
330
747D
100
AcDbEntity
  8
細線
  6
Continuous
 62
     5
100
AcDbLine
 10
5005.404433247793
 20
6912.747418283899
 30
0.0
 11
5005.404433247793
 21
6912.747418283899
 31
0.0
  0
LINE
  5
15827
330
747D
100
AcDbEntity
  8
細線
  6
Continuous
 62
     5
100
AcDbLine
 10
4999.404433247793
 20
6912.747418283899
 30
0.0
 11
4999.404433247793
 21
6912.747418283899
 31
0.0
  0
LINE
  5
15828
330
747D
100
AcDbEntity
  8
細線
  6
Continuous
 62
     5
100
AcDbLine
 10
5066.904397928902
 20
6931.747408362842
 30
0.0
 11
5066.904397928902
 21
6931.747408362842
 31
0.0
  0
LINE
  5
15829
330
747D
100
AcDbEntity
  8
細線
 48
50.0
100
AcDbLine
 10
3659.904402582492
 20
6899.3475825398
 30
0.0
 11
3659.904402582492
 21
6907.743732947439
 31
0.0
  0
LINE
  5
1582A
330
747D
100
AcDbEntity
  8
細線
 48
50.0
100
AcDbLine
 10
3659.904402582492
 20
6907.743732947439
 30
0.0
 11
3645.904397928898
 21
6907.743732947436
 31
0.0
  0
LINE
  5
1582B
330
747D
100
AcDbEntity
  8
細線
 48
50.0
100
AcDbLine
 10
4410.904402582487
 20
6895.8975825398
 30
0.0
 11
4410.904402582487
 21
6900.747582539802
 31
0.0
  0
LINE
  5
1582C
330
747D
100
AcDbEntity
  8
細線
 48
50.0
100
AcDbLine
 10
4410.904402582487
 20
6900.747582539802
 30
0.0
 11
4425.904402582488
 21
6900.747582539802
 31
0.0
  0
LINE
  5
1582D
330
747D
100
AcDbEntity
  8
細線
 48
50.0
100
AcDbLine
 10
4425.904402582488
 20
6900.747582539802
 30
0.0
 11
4425.904402582491
 21
6907.747582539801
 31
0.0
  0
LINE
  5
1582E
330
747D
100
AcDbEntity
  8
細線
 48
50.0
100
AcDbLine
 10
4425.904402582491
 20
6907.747582539801
 30
0.0
 11
4440.904402582487
 21
6907.747582539801
 31
0.0
  0
LINE
  5
1582F
330
747D
100
AcDbEntity
  8
細線
 48
50.0
100
AcDbLine
 10
4440.904402582487
 20
6907.747582539801
 30
0.0
 11
4440.904402582487
 21
6878.747582539801
 31
0.0
  0
LINE
  5
15830
330
747D
100
AcDbEntity
  8
細線
 48
50.0
100
AcDbLine
 10
3636.904397928898
 20
6878.74491688327
 30
0.0
 11
3850.904402582488
 21
6878.747600093515
 31
0.0
  0
LINE
  5
15831
330
747D
100
AcDbEntity
  8
細線
 48
50.0
100
AcDbLine
 10
4340.904402582487
 20
6878.747582539801
 30
0.0
 11
4440.904402582487
 21
6878.747582539801
 31
0.0
  0
LINE
  5
15832
330
747D
100
AcDbEntity
  8
細線
 48
50.0
100
AcDbLine
 10
4060.904402582488
 20
6878.747582539801
 30
0.0
 11
4130.904402582488
 21
6878.747582539801
 31
0.0
  0
LINE
  5
15833
330
747D
100
AcDbEntity
  8
細線
 48
50.0
100
AcDbLine
 10
4073.766367595017
 20
6878.747582539801
 30
0.0
 11
4079.521885177684
 21
6897.018433830296
 31
0.0
  0
LINE
  5
15834
330
747D
100
AcDbEntity
  8
細線
 48
50.0
100
AcDbLine
 10
4079.521885177684
 20
6897.018433830296
 30
0.0
 11
4090.450333658118
 21
6897.018433830291
 31
0.0
  0
ARC
  5
15835
330
747D
100
AcDbEntity
  8
細線
 48
50.0
100
AcDbCircle
 10
4090.450333658118
 20
6896.018433830292
 30
0.0
 40
1.0
100
AcDbArc
 50
24.62431835212675
 51
90.0
  0
ARC
  5
15836
330
747D
100
AcDbEntity
  8
細線
 48
50.0
100
AcDbCircle
 10
4101.359045772752
 20
6896.018433830292
 30
0.0
 40
1.0
100
AcDbArc
 50
90.0
 51
155.3756816478732
  0
ARC
  5
15837
330
747D
100
AcDbEntity
  8
細線
 48
50.0
100
AcDbCircle
 10
4095.904689715433
 20
6898.518433830291
 30
0.0
 40
5.0
100
AcDbArc
 50
204.6243183521267
 51
335.3756816478732
  0
LINE
  5
15838
330
747D
100
AcDbEntity
  8
細線
 48
50.0
100
AcDbLine
 10
4101.359045772752
 20
6897.018433830291
 30
0.0
 11
4112.287494253185
 21
6897.018433830296
 31
0.0
  0
LINE
  5
15839
330
747D
100
AcDbEntity
  8
細線
 48
50.0
100
AcDbLine
 10
4112.287494253185
 20
6897.018433830296
 30
0.0
 11
4118.043011835853
 21
6878.747582539801
 31
0.0
  0
LINE
  5
1583A
330
747D
100
AcDbEntity
  8
細線
 48
50.0
100
AcDbLine
 10
4410.904402582487
 20
6899.3475825398
 30
0.0
 11
3659.904402582492
 21
6899.3475825398
 31
0.0
  0
LINE
  5
1583B
330
747D
100
AcDbEntity
  8
細線
 48
50.0
100
AcDbLine
 10
4270.904402582488
 20
6878.747582539801
 30
0.0
 11
4200.904402582487
 21
6878.747582539801
 31
0.0
  0
LINE
  5
1583C
330
747D
100
AcDbEntity
  8
細線
100
AcDbLine
 10
3990.904402582488
 20
6878.747582539801
 30
0.0
 11
3920.904410767904
 21
6878.747582539801
 31
0.0
  0
LINE
  5
1583D
330
747D
100
AcDbEntity
  8
細線
 48
50.0
100
AcDbLine
 10
5064.904393275313
 20
6933.347626397668
 30
0.0
 11
4429.904402582487
 21
6933.347626397665
 31
0.0
  0
LINE
  5
1583E
330
747D
100
AcDbEntity
  8
細線
 48
50.0
100
AcDbLine
 10
4429.904402582487
 20
6930.243776805308
 30
0.0
 11
4429.904402582487
 21
6934.743776805309
 31
0.0
  0
LINE
  5
1583F
330
747D
100
AcDbEntity
  8
細線
 48
50.0
100
AcDbLine
 10
4429.904402582487
 20
6934.743776805309
 30
0.0
 11
4414.904402582488
 21
6934.743776805309
 31
0.0
  0
LINE
  5
15840
330
747D
100
AcDbEntity
  8
細線
 48
50.0
100
AcDbLine
 10
4414.904402582488
 20
6934.743776805309
 30
0.0
 11
4414.904402582488
 21
6941.743776805307
 31
0.0
  0
LINE
  5
15841
330
747D
100
AcDbEntity
  8
細線
 48
50.0
100
AcDbLine
 10
4414.904402582488
 20
6941.743776805307
 30
0.0
 11
4399.904402582492
 21
6941.743776805305
 31
0.0
  0
LINE
  5
15842
330
747D
100
AcDbEntity
  8
細線
 48
50.0
100
AcDbLine
 10
4399.904402582492
 20
6941.743776805305
 30
0.0
 11
4399.904402582492
 21
6904.143548702194
 31
0.0
  0
LINE
  5
15843
330
747D
100
AcDbEntity
  8
細線
 48
50.0
100
AcDbLine
 10
4399.904402582492
 20
6904.143548702194
 30
0.0
 11
4419.904409883663
 21
6904.143590251734
 31
0.0
  0
LINE
  5
15844
330
747D
100
AcDbEntity
  8
細線
 48
50.0
100
AcDbLine
 10
4419.904365014722
 20
6912.747051887544
 30
0.0
 11
4419.904409883663
 21
6904.143590251734
 31
0.0
  0
LINE
  5
15845
330
747D
100
AcDbEntity
  8
細線
 48
50.0
100
AcDbLine
 10
5064.904393275313
 20
6929.897626397667
 30
0.0
 11
5064.904393275313
 21
6934.747626397665
 31
0.0
  0
LINE
  5
15846
330
747D
100
AcDbEntity
  8
細線
 48
50.0
100
AcDbLine
 10
5064.904393275313
 20
6934.747626397665
 30
0.0
 11
5079.904393275309
 21
6934.747626397665
 31
0.0
  0
LINE
  5
15847
330
747D
100
AcDbEntity
  8
細線
 48
50.0
100
AcDbLine
 10
5079.904393275309
 20
6934.747626397665
 30
0.0
 11
5079.904404909285
 21
6941.74762639771
 31
0.0
  0
LINE
  5
15848
330
747D
100
AcDbEntity
  8
細線
 48
50.0
100
AcDbLine
 10
5079.904404909285
 20
6941.74762639771
 30
0.0
 11
5094.904403079814
 21
6941.74762639771
 31
0.0
  0
LINE
  5
15849
330
747D
100
AcDbEntity
  8
細線
 48
50.0
100
AcDbLine
 10
5094.904403079814
 20
6941.74762639771
 30
0.0
 11
5094.904392777993
 21
6912.747420225436
 31
0.0
  0
LINE
  5
1584A
330
747D
100
AcDbEntity
  8
細線
 48
50.0
100
AcDbLine
 10
4782.404420408776
 20
6912.747428412803
 30
0.0
 11
4712.404672491193
 21
6912.747422975463
 31
0.0
  0
LINE
  5
1584B
330
747D
100
AcDbEntity
  8
細線
 48
50.0
100
AcDbLine
 10
4419.904365014722
 20
6912.747051887544
 30
0.0
 11
4431.137054369432
 21
6912.74723484069
 31
0.0
  0
ARC
  5
1584C
330
747D
100
AcDbEntity
  8
細線
 48
50.0
100
AcDbCircle
 10
4437.719346676767
 20
6911.547398754303
 30
0.0
 40
1.8
100
AcDbArc
 50
270.0006665777295
 51
345.0005554812979
  0
LINE
  5
1584D
330
747D
100
AcDbEntity
  8
細線
 48
50.0
100
AcDbLine
 10
4439.705780122848
 20
6912.006239211581
 30
0.0
 11
4439.458017680649
 21
6911.081541329474
 31
0.0
  0
LINE
  5
1584E
330
747D
100
AcDbEntity
  8
細線
 48
50.0
100
AcDbLine
 10
4437.719367617923
 20
6909.747398754423
 30
0.0
 11
4434.089440199153
 21
6909.747356523944
 31
0.0
  0
ARC
  5
1584F
330
747D
100
AcDbEntity
  8
細線
 48
50.0
100
AcDbCircle
 10
4434.089419258001
 20
6911.547356523823
 30
0.0
 40
1.8
100
AcDbArc
 50
195.0010443049451
 51
270.0006665777295
  0
LINE
  5
15850
330
747D
100
AcDbEntity
  8
細線
 48
50.0
100
AcDbLine
 10
4432.102991765743
 20
6912.006071491387
 30
0.0
 11
4432.350761262256
 21
6911.081450552805
 31
0.0
  0
ARC
  5
15851
330
747D
100
AcDbEntity
  8
細線
 48
50.0
100
AcDbCircle
 10
4431.137070656994
 20
6911.747234840824
 30
0.0
 40
1.0
100
AcDbArc
 50
15.00104430494512
 51
90.00093320877969
  0
LINE
  5
15852
330
747D
100
AcDbEntity
  8
細線
 48
50.0
100
AcDbLine
 10
4440.671701477949
 20
6912.747429531094
 30
0.0
 11
4441.613461628854
 21
6912.747436104945
 31
0.0
  0
ARC
  5
15853
330
747D
100
AcDbEntity
  8
細線
 48
50.0
100
AcDbCircle
 10
4440.671708458336
 20
6911.747429531121
 30
0.0
 40
1.0
100
AcDbArc
 50
90.0003999466794
 51
165.0005554812978
  0
LINE
  5
15854
330
747D
100
AcDbEntity
  8
細線
 48
50.0
100
AcDbLine
 10
4992.404393275301
 20
6912.747420225436
 30
0.0
 11
5094.904392777993
 21
6912.747420225436
 31
0.0
  0
LINE
  5
15855
330
747D
100
AcDbEntity
  8
細線
 48
50.0
100
AcDbLine
 10
4502.404428594192
 20
6912.747428412803
 30
0.0
 11
4441.304367367273
 21
6912.747436104945
 31
0.0
  0
LINE
  5
15856
330
747D
100
AcDbEntity
  8
細線
 48
50.0
100
AcDbLine
 10
4922.404428594193
 20
6912.747465253885
 30
0.0
 11
4852.404421639807
 21
6912.747420231217
 31
0.0
  0
LINE
  5
15857
330
747D
100
AcDbEntity
  8
細線
 48
50.0
100
AcDbLine
 10
4642.404393275302
 20
6912.747420225433
 30
0.0
 11
4572.404375987425
 21
6912.74742022544
 31
0.0
  0
ARC
  5
15858
330
747D
100
AcDbEntity
  8
細線
 48
50.0
100
AcDbCircle
 10
5079.10439792891
 20
6945.947408362846
 30
0.0
 40
0.8
100
AcDbArc
 50
359.9997333689499
 51
89.99986668437072
  0
ARC
  5
15859
330
747D
100
AcDbEntity
  8
細線
 48
50.0
100
AcDbCircle
 10
5086.704404754004
 20
6945.947419531464
 30
0.0
 40
0.8
100
AcDbArc
 50
90.00014387753465
 51
179.9997333689498
  0
LINE
  5
1585A
330
747D
100
AcDbEntity
  8
細線
 48
50.0
100
AcDbLine
 10
5079.104399790344
 20
6946.747408362845
 30
0.0
 11
5073.904397928898
 21
6946.747408362845
 31
0.0
  0
ARC
  5
1585B
330
747D
100
AcDbEntity
  8
細線
 48
50.0
100
AcDbCircle
 10
5080.604397928898
 20
6944.447408362846
 30
0.0
 40
0.7
100
AcDbArc
 50
180.0
 51
270.0
  0
ARC
  5
1585C
330
747D
100
AcDbEntity
  8
細線
 48
50.0
100
AcDbCircle
 10
5085.204397928901
 20
6944.447408362846
 30
0.0
 40
0.7
100
AcDbArc
 50
270.0
 51
0.0
  0
LINE
  5
1585D
330
747D
100
AcDbEntity
  8
細線
 48
50.0
100
AcDbLine
 10
5085.904397928898
 20
6944.447408362846
 30
0.0
 11
5085.904404754016
 21
6945.947423254335
 31
0.0
  0
LINE
  5
1585E
330
747D
100
AcDbEntity
  8
細線
 48
50.0
100
AcDbLine
 10
5080.604397928898
 20
6943.747408362845
 30
0.0
 11
5085.204397928901
 21
6943.747408362845
 31
0.0
  0
LINE
  5
1585F
330
747D
100
AcDbEntity
  8
細線
 48
50.0
100
AcDbLine
 10
5079.904397928898
 20
6945.947408362846
 30
0.0
 11
5079.904397928898
 21
6944.447408362846
 31
0.0
  0
LINE
  5
15860
330
747D
100
AcDbEntity
  8
細線
 48
50.0
100
AcDbLine
 10
5705.504397928904
 20
6976.747408362846
 30
0.0
 11
5068.904397928898
 21
6976.747408362843
 31
0.0
  0
LINE
  5
15861
330
747D
100
AcDbEntity
  8
細線
 48
50.0
100
AcDbLine
 10
5731.404397928898
 20
6971.74740836285
 30
0.0
 11
5715.504397928904
 21
6971.747408362846
 31
0.0
  0
LINE
  5
15862
330
747D
100
AcDbEntity
  8
細線
 48
50.0
100
AcDbLine
 10
5715.5043979289
 20
6971.747408362846
 30
0.0
 11
5705.504397928904
 21
6976.747408362846
 31
0.0
  0
LINE
  5
15863
330
747D
100
AcDbEntity
  8
細線
100
AcDbLine
 10
5316.404397928899
 20
6946.747408362845
 30
0.0
 11
5316.404397928899
 21
6976.047408362845
 31
0.0
  0
LINE
  5
15864
330
747D
100
AcDbEntity
  8
細線
100
AcDbLine
 10
5316.404397928899
 20
6976.047408362845
 30
0.0
 11
5336.404397928899
 21
6976.047408362845
 31
0.0
  0
LINE
  5
15865
330
747D
100
AcDbEntity
  8
細線
100
AcDbLine
 10
5336.404397928899
 20
6946.747408362845
 30
0.0
 11
5336.404397928899
 21
6976.047408362845
 31
0.0
  0
LINE
  5
15866
330
747D
100
AcDbEntity
  8
細線
100
AcDbLine
 10
5497.654397928899
 20
6946.747408362845
 30
0.0
 11
5427.654397928899
 21
6946.747408362845
 31
0.0
  0
LINE
  5
15867
330
747D
100
AcDbEntity
  8
細線
 48
50.0
100
AcDbLine
 10
5217.654397928898
 20
6946.747408362845
 30
0.0
 11
5086.700177501741
 21
6946.747408362845
 31
0.0
  0
LINE
  5
15868
330
747D
100
AcDbEntity
  8
細線
100
AcDbLine
 10
5357.654397928899
 20
6946.747408362845
 30
0.0
 11
5287.654397928899
 21
6946.747408362845
 31
0.0
  0
LINE
  5
15869
330
747D
100
AcDbEntity
  8
細線
 48
50.0
100
AcDbLine
 10
5073.904397928898
 20
6938.747408362846
 30
0.0
 11
5073.904397928898
 21
6946.747408362845
 31
0.0
  0
LINE
  5
1586A
330
747D
100
AcDbEntity
  8
細線
 48
50.0
100
AcDbLine
 10
5053.904397928898
 20
6938.747408362849
 30
0.0
 11
5073.904397928898
 21
6938.747408362846
 31
0.0
  0
LINE
  5
1586B
330
747D
100
AcDbEntity
  8
細線
 48
50.0
100
AcDbLine
 10
5068.904397928898
 20
6976.747408362846
 30
0.0
 11
5068.904397928898
 21
6971.747408362846
 31
0.0
  0
LINE
  5
1586C
330
747D
100
AcDbEntity
  8
細線
 48
50.0
100
AcDbLine
 10
5053.904397928898
 20
6976.747408362843
 30
0.0
 11
5068.904397928898
 21
6976.747408362846
 31
0.0
  0
LINE
  5
1586D
330
747D
100
AcDbEntity
  8
細線
 48
50.0
100
AcDbLine
 10
5053.904397928898
 20
6938.747408362849
 30
0.0
 11
5053.904397928898
 21
6976.747408362843
 31
0.0
  0
LINE
  5
1586E
330
747D
100
AcDbEntity
  8
細線
100
AcDbLine
 10
5721.904397928899
 20
6946.747408362845
 30
0.0
 11
5567.654397928899
 21
6946.747408362845
 31
0.0
  0
LINE
  5
1586F
330
747D
100
AcDbEntity
  8
細線
 48
50.0
100
AcDbLine
 10
5731.404397928898
 20
6971.74740836285
 30
0.0
 11
5731.404397928898
 21
6946.747408362845
 31
0.0
  0
DIMENSION
  5
15AD7
330
747D
100
AcDbEntity
  8
寸法
100
AcDbDimension
  2
*D29
 10
3320.153023599284
 20
6875.747408362816
 30
0.0
 11
3320.153023599284
 21
6718.496177954628
 31
0.0
 70
   160
 71
     5
 42
75.00000000003274
  3
INABA_S40
100
AcDbAlignedDimension
 13
3578.904397928898
 23
6950.747408362848
 33
0.0
 14
3606.904397928899
 24
6875.747408362816
 34
0.0
 50
90.0
100
AcDbRotatedDimension
1001
ACAD
1000
DSTYLE
1002
{
1070
    41
1040
0.5
1070
    44
1040
1.0
1070
   147
1040
0.8
1070
   271
1070
     2
1070
   272
1070
     2
1070
   289
1070
     3
1070
   340
1005
F706
1070
   343
1005
F744
1070
   344
1005
F744
1002
}
  0
DIMENSION
  5
15AD8
330
747D
100
AcDbEntity
  8
寸法
 48
50.0
100
AcDbDimension
  2
*D30
 10
5760.904397928899
 20
5931.004375415156
 30
0.0
 11
4689.961971101395
 21
5931.004375415156
 31
0.0
 70
   160
 71
     5
 42
2154.0
  3
INABA_S40G
100
AcDbAlignedDimension
 13
3606.904397928899
 23
6873.747408362845
 33
0.0
 14
5760.904397928899
 24
6873.747408362845
 34
0.0
100
AcDbRotatedDimension
1001
ACAD
1000
DSTYLE
1002
{
1070
   341
1005
0
1002
}
  0
LWPOLYLINE
  5
15B99
330
747D
100
AcDbEntity
  8
部品1
100
AcDbPolyline
 90
        4
 70
     1
 43
0.0
 10
5407.169064814692
 20
5515.837127504514
 10
5407.169064814692
 20
5275.944805958982
 10
6170.639731043134
 20
5275.944805958982
 10
6170.639731043134
 20
5515.837127504514
  0
TEXT
  5
15B9A
330
747D
100
AcDbEntity
  8
部品1
100
AcDbText
 10
5497.088674643734
 20
5322.943598285991
 30
0.0
 40
135.0
  1
平面図
  7
STYLE2
100
AcDbText
  0
DIMENSION
  5
15BD3
330
747D
100
AcDbEntity
  8
寸法
 48
50.0
100
AcDbDimension
  2
*D31
 10
7998.904397928898
 20
5672.698828808527
 30
0.0
 11
6893.904397928898
 21
5764.710639832149
 31
0.0
 70
    32
 71
     5
 42
2210.0
  3
INABA_S40
100
AcDbAlignedDimension
 13
5788.904397928899
 23
7005.747408362843
 33
0.0
 14
7998.904397928898
 24
6950.747408362848
 34
0.0
100
AcDbRotatedDimension
1001
ACAD
1000
DSTYLE
1002
{
1070
    41
1040
0.5
1070
    44
1040
1.0
1070
   147
1040
0.8
1070
   271
1070
     2
1070
   272
1070
     2
1070
   289
1070
     3
1070
   340
1005
F706
1070
   343
1005
F744
1070
   344
1005
F744
1002
}
  0
DIMENSION
  5
15BF8
330
747D
100
AcDbEntity
  8
寸法
 48
50.0
100
AcDbDimension
  2
*D32
 10
5788.904397928899
 20
5672.698828808527
 30
0.0
 11
4673.548125189918
 21
5672.698828808527
 31
0.0
 70
   160
 71
     5
 42
2210.0
  3
INABA_S40
100
AcDbAlignedDimension
 13
3578.904397928898
 23
6950.747408362848
 33
0.0
 14
5788.904397928899
 24
7005.747408362847
 34
0.0
100
AcDbRotatedDimension
1001
ACAD
1000
DSTYLE
1002
{
1070
    41
1040
0.5
1070
    44
1040
1.0
1070
   147
1040
0.8
1070
   271
1070
     2
1070
   272
1070
     2
1070
   289
1070
     3
1070
   340
1005
F706
1070
   343
1005
F744
1070
   344
1005
F744
1002
}
  0
LWPOLYLINE
  5
15F10
330
747D
100
AcDbEntity
  8
部品1
 48
50.0
100
AcDbPolyline
 90
        4
 70
     1
 43
0.0
 10
3705.954397928898
 20
3060.667148464483
 10
3708.854397928899
 20
3060.667148464483
 10
3708.854397928899
 20
3070.167148464483
 10
3705.954397928898
 20
3070.167148464483
  0
CIRCLE
  5
15F11
330
747D
100
AcDbEntity
  8
部品1
 48
50.0
100
AcDbCircle
 10
3707.404397928898
 20
3065.417148464483
 30
0.0
 40
9.0
  0
ARC
  5
15F12
330
747D
100
AcDbEntity
  8
細線
 48
50.0
100
AcDbCircle
 10
3707.404397928898
 20
3065.417148464483
 30
0.0
 40
4.0
100
AcDbArc
 50
111.2538091853375
 51
248.7461908146625
  0
ARC
  5
15F13
330
747D
100
AcDbEntity
  8
細線
 48
50.0
100
AcDbCircle
 10
3707.404397928898
 20
3065.417148464483
 30
0.0
 40
17.5
100
AcDbArc
 50
306.4837370612677
 51
233.5162629387323
  0
LINE
  5
15F14
330
747D
100
AcDbEntity
  8
細線
 48
50.0
100
AcDbLine
 10
3717.404397928895
 20
3041.5581878836
 30
0.0
 11
3717.404397928898
 21
3050.542673683842
 31
0.0
  0
LINE
  5
15F15
330
747D
100
AcDbEntity
  8
細線
 48
50.0
100
AcDbLine
 10
3697.404397928898
 20
3041.558187883602
 30
0.0
 11
3697.404397928898
 21
3050.542673683838
 31
0.0
  0
ARC
  5
15F16
330
747D
100
AcDbEntity
  8
細線
 48
50.0
100
AcDbCircle
 10
3707.404397928898
 20
3065.417148464483
 30
0.0
 40
26.5
100
AcDbArc
 50
249.3326835063939
 51
290.6673164933835
  0
ARC
  5
15F17
330
747D
100
AcDbEntity
  8
細線
 48
50.0
100
AcDbCircle
 10
3716.404397928891
 20
3041.5581878836
 30
0.0
 40
1.0
100
AcDbArc
 50
290.6673164936062
 51
359.9999999998958
  0
ARC
  5
15F18
330
747D
100
AcDbEntity
  8
細線
 48
50.0
100
AcDbCircle
 10
3698.404397928899
 20
3041.558187883602
 30
0.0
 40
1.0
100
AcDbArc
 50
180.0
 51
249.3326835066164
  0
ARC
  5
15F19
330
747D
100
AcDbEntity
  8
細線
 48
50.0
100
AcDbCircle
 10
3696.404397928898
 20
3050.542673683838
 30
0.0
 40
1.0
100
AcDbArc
 50
0.0
 51
53.51626293873231
  0
ARC
  5
15F1A
330
747D
100
AcDbEntity
  8
細線
 48
50.0
100
AcDbCircle
 10
3718.404397928902
 20
3050.542673683842
 30
0.0
 40
1.0
100
AcDbArc
 50
126.4837370614917
 51
180.0
  0
ARC
  5
15F1B
330
747D
100
AcDbEntity
  8
細線
 48
50.0
100
AcDbCircle
 10
3707.404397928898
 20
3065.417148464483
 30
0.0
 40
21.5
100
AcDbArc
 50
255.8014401250294
 51
284.1985598749706
  0
ARC
  5
15F1C
330
747D
100
AcDbEntity
  8
細線
 48
50.0
100
AcDbCircle
 10
3707.404397928898
 20
3065.417148464483
 30
0.0
 40
16.5
100
AcDbArc
 50
251.9694646069326
 51
288.0305353930674
  0
LINE
  5
15F1D
330
747D
100
AcDbEntity
  8
細線
 48
50.0
100
AcDbLine
 10
3712.904397928898
 20
3044.864776338676
 30
0.0
 11
3712.904397928898
 21
3049.442168026013
 31
0.0
  0
LINE
  5
15F1E
330
747D
100
AcDbEntity
  8
細線
 48
50.0
100
AcDbLine
 10
3701.904397928898
 20
3044.864776338676
 30
0.0
 11
3701.904397928898
 21
3049.442168026011
 31
0.0
  0
ARC
  5
15F1F
330
747D
100
AcDbEntity
  8
細線
 48
50.0
100
AcDbCircle
 10
3702.204397928901
 20
3049.442168026011
 30
0.0
 40
0.3
100
AcDbArc
 50
71.96946460693259
 51
180.0
  0
ARC
  5
15F20
330
747D
100
AcDbEntity
  8
細線
 48
50.0
100
AcDbCircle
 10
3712.604397928899
 20
3049.442168026013
 30
0.0
 40
0.3
100
AcDbArc
 50
0.0
 51
108.0305353930674
  0
ARC
  5
15F21
330
747D
100
AcDbEntity
  8
細線
 48
50.0
100
AcDbCircle
 10
3712.604397928895
 20
3044.864776338676
 30
0.0
 40
0.3
100
AcDbArc
 50
284.1985598747622
 51
0.0000000001042204
  0
ARC
  5
15F22
330
747D
100
AcDbEntity
  8
細線
 48
50.0
100
AcDbCircle
 10
3702.204397928901
 20
3044.864776338676
 30
0.0
 40
0.3
100
AcDbArc
 50
180.0
 51
255.8014401248081
  0
CIRCLE
  5
15F23
330
747D
100
AcDbEntity
  8
細線
 48
50.0
100
AcDbCircle
 10
3707.404397928898
 20
3065.417148464483
 30
0.0
 40
12.0
  0
ARC
  5
15F24
330
747D
100
AcDbEntity
  8
部品1
 48
50.0
100
AcDbCircle
 10
3707.404397928898
 20
3115.417148464483
 30
0.0
 40
8.5
100
AcDbArc
 50
114.315739171091
 51
245.684260828909
  0
CIRCLE
  5
15F25
330
747D
100
AcDbEntity
  8
細線
 48
50.0
100
AcDbCircle
 10
3707.404397928898
 20
3115.417148464483
 30
0.0
 40
4.5
  0
LWPOLYLINE
  5
15F26
330
747D
100
AcDbEntity
  8
部品1
 48
50.0
100
AcDbPolyline
 90
        2
 70
     0
 43
0.0
 10
3703.904397928898
 20
3134.091997861466
 10
3703.904397928898
 20
3123.163115156899
  0
CIRCLE
  5
15F27
330
747D
100
AcDbEntity
  8
部品1
 48
50.0
100
AcDbCircle
 10
3707.404397928898
 20
3115.417148464483
 30
0.0
 40
19.0
  0
LWPOLYLINE
  5
15F28
330
747D
100
AcDbEntity
  8
部品1
 48
50.0
100
AcDbPolyline
 90
        2
 70
     0
 43
0.0
 10
3703.904397928898
 20
3107.671181772068
 10
3703.904397928898
 20
3096.7422990675
  0
LWPOLYLINE
  5
15F29
330
747D
100
AcDbEntity
  8
部品1
 48
50.0
100
AcDbPolyline
 90
        2
 70
     0
 43
0.0
 10
3710.904397928898
 20
3123.163115156899
 10
3710.904397928898
 20
3134.091997861466
  0
ARC
  5
15F2A
330
747D
100
AcDbEntity
  8
部品1
 48
50.0
100
AcDbCircle
 10
3707.404397928898
 20
3115.417148464483
 30
0.0
 40
8.5
100
AcDbArc
 50
294.315739171091
 51
65.68426082890896
  0
LWPOLYLINE
  5
15F2B
330
747D
100
AcDbEntity
  8
部品1
 48
50.0
100
AcDbPolyline
 90
        2
 70
     0
 43
0.0
 10
3710.904397928898
 20
3096.7422990675
 10
3710.904397928898
 20
3107.671181772068
  0
ARC
  5
15F2C
330
747D
100
AcDbEntity
  8
細線
 48
50.0
100
AcDbCircle
 10
3707.404397928898
 20
3115.417148464483
 30
0.0
 40
16.5
100
AcDbArc
 50
332.0012352654316
 51
27.99876473456844
  0
ARC
  5
15F2D
330
747D
100
AcDbEntity
  8
細線
 48
50.0
100
AcDbCircle
 10
3707.404397928898
 20
3115.417148464483
 30
0.0
 40
14.0
100
AcDbArc
 50
326.4074436112843
 51
33.59255638871576
  0
LINE
  5
15F2E
330
747D
100
AcDbEntity
  8
細線
 48
50.0
100
AcDbLine
 10
3692.835595644567
 20
3123.163115156899
 30
0.0
 11
3695.742494139209
 21
3123.163115156899
 31
0.0
  0
LINE
  5
15F2F
330
747D
100
AcDbEntity
  8
細線
 48
50.0
100
AcDbLine
 10
3692.835595644567
 20
3107.671181772068
 30
0.0
 11
3695.742494139209
 21
3107.671181772068
 31
0.0
  0
LINE
  5
15F30
330
747D
100
AcDbEntity
  8
細線
 48
50.0
100
AcDbLine
 10
3719.066301718587
 20
3123.163115156899
 30
0.0
 11
3721.973200213233
 21
3123.163115156899
 31
0.0
  0
LINE
  5
15F31
330
747D
100
AcDbEntity
  8
細線
 48
50.0
100
AcDbLine
 10
3719.066301718587
 20
3107.671181772068
 30
0.0
 11
3721.973200213233
 21
3107.671181772068
 31
0.0
  0
ARC
  5
15F32
330
747D
100
AcDbEntity
  8
細線
 48
50.0
100
AcDbCircle
 10
3707.404397928898
 20
3115.417148464483
 30
0.0
 40
14.0
100
AcDbArc
 50
146.4074436112842
 51
213.5925563887158
  0
ARC
  5
15F33
330
747D
100
AcDbEntity
  8
細線
 48
50.0
100
AcDbCircle
 10
3707.404397928898
 20
3115.417148464483
 30
0.0
 40
16.5
100
AcDbArc
 50
152.0012352654315
 51
207.9987647345685
  0
ARC
  5
15F34
330
747D
100
AcDbEntity
  8
部品1
 48
50.0
100
AcDbCircle
 10
3680.904397928898
 20
3140.917148464483
 30
0.0
 40
5.0
100
AcDbArc
 50
90.0
 51
180.0
  0
ARC
  5
15F35
330
747D
100
AcDbEntity
  8
部品1
 48
50.0
100
AcDbCircle
 10
3680.904397928898
 20
3029.917148464483
 30
0.0
 40
5.0
100
AcDbArc
 50
180.0
 51
270.0
  0
ARC
  5
15F36
330
747D
100
AcDbEntity
  8
部品1
 48
50.0
100
AcDbCircle
 10
3733.904397928898
 20
3029.917148464483
 30
0.0
 40
5.0
100
AcDbArc
 50
270.0
 51
0.0
  0
ARC
  5
15F37
330
747D
100
AcDbEntity
  8
部品1
 48
50.0
100
AcDbCircle
 10
3733.904397928898
 20
3140.917148464483
 30
0.0
 40
5.0
100
AcDbArc
 50
0.0
 51
90.0
  0
LINE
  5
15F38
330
747D
100
AcDbEntity
  8
部品1
 48
50.0
100
AcDbLine
 10
3675.904397928898
 20
3029.917148464483
 30
0.0
 11
3675.904397928898
 21
3140.917148464483
 31
0.0
  0
LINE
  5
15F39
330
747D
100
AcDbEntity
  8
部品1
 48
50.0
100
AcDbLine
 10
3733.904397928898
 20
3024.917148464483
 30
0.0
 11
3680.904397928898
 21
3024.917148464483
 31
0.0
  0
LINE
  5
15F3A
330
747D
100
AcDbEntity
  8
部品1
 48
50.0
100
AcDbLine
 10
3738.904397928898
 20
3140.917148464483
 30
0.0
 11
3738.904397928898
 21
3029.917148464483
 31
0.0
  0
ENDSEC
  0
SECTION
  2
OBJECTS
  0
DICTIONARY
  5
7471
330
0
100
AcDbDictionary
281
     1
  3
ACAD_COLOR
350
13269
  3
ACAD_GROUP
350
7472
  3
ACAD_LAYOUT
350
1326A
  3
ACAD_MATERIAL
350
13268
  3
ACAD_MLINESTYLE
350
7473
  3
ACAD_PLOTSETTINGS
350
1326B
  3
ACAD_PLOTSTYLENAME
350
13266
  3
ACDBHEADERROUNDTRIPXREC
350
15F4A
  3
AcDbVariableDictionary
350
15F46
  3
CONTENTDICTIONARY
350
E71C
  3
DRAWINGVARIABLESDICT
350
F3B9
  0
DICTIONARY
  5
133E5
330
7467
100
AcDbDictionary
280
     1
281
     1
  3
ACAD_LAYERSTATES
360
133E6
  0
DICTIONARY
  5
13269
102
{ACAD_REACTORS
330
7471
102
}
330
7471
100
AcDbDictionary
281
     1
  0
DICTIONARY
  5
7472
102
{ACAD_REACTORS
330
7471
102
}
330
7471
100
AcDbDictionary
281
     1
  0
DICTIONARY
  5
1326A
102
{ACAD_REACTORS
330
7471
102
}
330
7471
100
AcDbDictionary
281
     1
  3
Model
350
1326C
  3
レイアウト1
350
1326D
  0
DICTIONARY
  5
13268
102
{ACAD_REACTORS
330
7471
102
}
330
7471
100
AcDbDictionary
281
     1
  0
DICTIONARY
  5
7473
102
{ACAD_REACTORS
330
7471
102
}
330
7471
100
AcDbDictionary
281
     1
  3
STANDARD
350
7480
  0
DICTIONARY
  5
1326B
102
{ACAD_REACTORS
330
7471
102
}
330
7471
100
AcDbDictionary
281
     1
  0
ACDBDICTIONARYWDFLT
  5
13266
102
{ACAD_REACTORS
330
7471
102
}
330
7471
100
AcDbDictionary
281
     1
  3
Normal
350
13267
100
AcDbDictionaryWithDefault
340
13267
  0
DICTIONARY
  5
15F4A
102
{ACAD_REACTORS
330
7471
102
}
330
7471
100
AcDbDictionary
281
     1
  3
COLORDICT
350
15F4C
  3
MATERIALDICT
350
15F4B
  0
DICTIONARY
  5
15F46
102
{ACAD_REACTORS
330
7471
102
}
330
7471
100
AcDbDictionary
281
     1
  3
DIMASSOC
350
15F47
  3
PROJECTNAME
350
15F48
  0
DICTIONARY
  5
E71C
102
{ACAD_REACTORS
330
7471
102
}
330
7471
100
AcDbDictionary
281
     1
  0
DICTIONARY
  5
F3B9
102
{ACAD_REACTORS
330
7471
102
}
330
7471
100
AcDbDictionary
281
     1
1001
DRAWINGVARIABLESXDATA
1000
POLARMODE
1000
1
  0
DICTIONARY
  5
133E6
102
{ACAD_REACTORS
330
133E5
102
}
330
133E5
100
AcDbDictionary
281
     1
  0
LAYOUT
  5
1326C
102
{ACAD_XDICTIONARY
360
15F4D
102
}
102
{ACAD_REACTORS
330
1326A
102
}
330
1326A
100
AcDbPlotSettings
  1

  2
EPSON LP-7000C
  4

  6

 40
0.0
 41
0.0
 42
0.0
 43
0.0
 44
0.0
 45
0.0
 46
0.0
 47
0.0
 48
0.0
 49
0.0
140
0.0
141
0.0
142
1.0
143
1.0
 70
  1712
 72
     0
 73
     0
 74
     0
  7

 75
     0
147
1.0
148
0.0
149
0.0
100
AcDbLayout
  1
Model
 70
     1
 71
     0
 10
0.0
 20
0.0
 11
12.0
 21
9.0
 12
0.0
 22
0.0
 32
0.0
 14
0.0
 24
0.0
 34
0.0
 15
0.0
 25
0.0
 35
0.0
146
0.0
 13
0.0
 23
0.0
 33
0.0
 16
1.0
 26
0.0
 36
0.0
 17
0.0
 27
1.0
 37
0.0
 76
     0
330
747D
  0
LAYOUT
  5
1326D
102
{ACAD_XDICTIONARY
360
15F4F
102
}
102
{ACAD_REACTORS
330
1326A
102
}
330
1326A
100
AcDbPlotSettings
  1

  2
EPSON LP-7000C
  4

  6

 40
0.0
 41
0.0
 42
0.0
 43
0.0
 44
0.0
 45
0.0
 46
0.0
 47
0.0
 48
0.0
 49
0.0
140
0.0
141
0.0
142
1.0
143
1.0
 70
   688
 72
     0
 73
     0
 74
     5
  7

 75
    16
147
1.0
148
0.0
149
0.0
100
AcDbLayout
  1
レイアウト1
 70
     0
 71
     1
 10
0.0
 20
0.0
 11
420.0
 21
297.0
 12
0.0
 22
0.0
 32
0.0
 14
1.000000000000000E+20
 24
1.000000000000000E+20
 34
1.000000000000000E+20
 15
-1.000000000000000E+20
 25
-1.000000000000000E+20
 35
-1.000000000000000E+20
146
0.0
 13
0.0
 23
0.0
 33
0.0
 16
1.0
 26
0.0
 36
0.0
 17
0.0
 27
1.0
 37
0.0
 76
     0
330
747A
  0
MLINESTYLE
  5
7480
102
{ACAD_REACTORS
330
7473
102
}
330
7473
100
AcDbMlineStyle
  2
STANDARD
 70
     0
  3

 62
     0
 51
90.0
 52
90.0
 71
     2
 49
0.5
 62
   256
  6
BYLAYER
 49
-0.5
 62
   256
  6
BYLAYER
  0
ACDBPLACEHOLDER
  5
13267
102
{ACAD_REACTORS
330
13266
102
}
330
13266
  0
XRECORD
  5
15F4C
102
{ACAD_REACTORS
330
15F4A
102
}
330
15F4A
100
AcDbXrecord
280
     1
340
13269
  0
XRECORD
  5
15F4B
102
{ACAD_REACTORS
330
15F4A
102
}
330
15F4A
100
AcDbXrecord
280
     1
340
13268
  0
DICTIONARYVAR
  5
15F47
102
{ACAD_REACTORS
330
15F46
102
}
330
15F46
100
DictionaryVariables
280
     0
  1
1
  0
DICTIONARYVAR
  5
15F48
102
{ACAD_REACTORS
330
15F46
102
}
330
15F46
100
DictionaryVariables
280
     0
  1

  0
DICTIONARY
  5
15F4D
330
1326C
100
AcDbDictionary
280
     1
281
     1
  3
ACAD_XREC_ROUNDTRIP
360
15F4E
  0
DICTIONARY
  5
15F4F
330
1326D
100
AcDbDictionary
280
     1
281
     1
  3
ACAD_XREC_ROUNDTRIP
360
15F50
  0
XRECORD
  5
15F4E
102
{ACAD_REACTORS
330
15F4D
102
}
330
15F4D
100
AcDbXrecord
280
     1
102
SHADEPLOT
 70
     0
102
SHADEPLOTRESLEVEL
 70
     2
102
SHADEPLOTCUSTOMDPI
 70
   300
  0
XRECORD
  5
15F50
102
{ACAD_REACTORS
330
15F4F
102
}
330
15F4F
100
AcDbXrecord
280
     1
102
SHADEPLOT
 70
     0
102
SHADEPLOTRESLEVEL
 70
     2
102
SHADEPLOTCUSTOMDPI
 70
   300
  0
ENDSEC
  0
EOF
